  0
SECTION
  2
HEADER
  9
$ACADVER
  1
AC1014
  9
$ACADMAINTVER
 70
     9
  9
$DWGCODEPAGE
  3
ANSI_932
  9
$INSBASE
 10
0.0
 20
0.0
 30
0.0
  9
$EXTMIN
 10
50.0
 20
100.0
 30
0.0
  9
$EXTMAX
 10
3850.0
 20
2800.0
 30
0.0
  9
$LIMMIN
 10
0.0
 20
0.0
  9
$LIMMAX
 10
420.0
 20
297.0
  9
$ORTHOMODE
 70
     0
  9
$REGENMODE
 70
     1
  9
$FILLMODE
 70
     1
  9
$QTEXTMODE
 70
     0
  9
$MIRRTEXT
 70
     1
  9
$DRAGMODE
 70
     2
  9
$LTSCALE
 40
0.2
  9
$OSMODE
 70
    37
  9
$ATTMODE
 70
     1
  9
$TEXTSIZE
 40
2.5
  9
$TRACEWID
 40
1.0
  9
$TEXTSTYLE
  7
STANDARD
  9
$CLAYER
  8
LAY-10
  9
$CELTYPE
  6
BYLAYER
  9
$CECOLOR
 62
   256
  9
$CELTSCALE
 40
1.0
  9
$DELOBJ
 70
     1
  9
$DISPSILH
 70
     0
  9
$DIMSCALE
 40
1.0
  9
$DIMASZ
 40
2.5
  9
$DIMEXO
 40
0.625
  9
$DIMDLI
 40
3.75
  9
$DIMRND
 40
0.0
  9
$DIMDLE
 40
0.0
  9
$DIMEXE
 40
1.25
  9
$DIMTP
 40
0.0
  9
$DIMTM
 40
0.0
  9
$DIMTXT
 40
2.5
  9
$DIMCEN
 40
2.5
  9
$DIMTSZ
 40
0.0
  9
$DIMTOL
 70
     0
  9
$DIMLIM
 70
     0
  9
$DIMTIH
 70
     0
  9
$DIMTOH
 70
     0
  9
$DIMSE1
 70
     0
  9
$DIMSE2
 70
     0
  9
$DIMTAD
 70
     1
  9
$DIMZIN
 70
     8
  9
$DIMBLK
  1

  9
$DIMASO
 70
     1
  9
$DIMSHO
 70
     1
  9
$DIMPOST
  1

  9
$DIMAPOST
  1

  9
$DIMALT
 70
     0
  9
$DIMALTD
 70
     3
  9
$DIMALTF
 40
0.03937007874016
  9
$DIMLFAC
 40
1.0
  9
$DIMTOFL
 70
     1
  9
$DIMTVP
 40
0.0
  9
$DIMTIX
 70
     0
  9
$DIMSOXD
 70
     0
  9
$DIMSAH
 70
     0
  9
$DIMBLK1
  1

  9
$DIMBLK2
  1

  9
$DIMSTYLE
  2
ISO-25
  9
$DIMCLRD
 70
     0
  9
$DIMCLRE
 70
     0
  9
$DIMCLRT
 70
     0
  9
$DIMTFAC
 40
1.0
  9
$DIMGAP
 40
0.625
  9
$DIMJUST
 70
     0
  9
$DIMSD1
 70
     0
  9
$DIMSD2
 70
     0
  9
$DIMTOLJ
 70
     0
  9
$DIMTZIN
 70
     8
  9
$DIMALTZ
 70
     0
  9
$DIMALTTZ
 70
     0
  9
$DIMFIT
 70
     3
  9
$DIMUPT
 70
     0
  9
$DIMUNIT
 70
     2
  9
$DIMDEC
 70
     2
  9
$DIMTDEC
 70
     2
  9
$DIMALTU
 70
     2
  9
$DIMALTTD
 70
     3
  9
$DIMTXSTY
  7
STANDARD
  9
$DIMAUNIT
 70
     0
  9
$LUNITS
 70
     2
  9
$LUPREC
 70
     4
  9
$SKETCHINC
 40
1.0
  9
$FILLETRAD
 40
10.0
  9
$AUNITS
 70
     0
  9
$AUPREC
 70
     0
  9
$MENU
  1
.
  9
$ELEVATION
 40
0.0
  9
$PELEVATION
 40
0.0
  9
$THICKNESS
 40
0.0
  9
$LIMCHECK
 70
     0
  9
$CHAMFERA
 40
0.0
  9
$CHAMFERB
 40
0.0
  9
$CHAMFERC
 40
0.0
  9
$CHAMFERD
 40
0.0
  9
$SKPOLY
 70
     0
  9
$TDCREATE
 40
2459229.333851621
  9
$TDUPDATE
 40
2459229.333852465
  9
$TDINDWG
 40
0.0000000116
  9
$TDUSRTIMER
 40
0.0000000116
  9
$USRTIMER
 70
     1
  9
$ANGBASE
 50
0.0
  9
$ANGDIR
 70
     0
  9
$PDMODE
 70
     0
  9
$PDSIZE
 40
0.0
  9
$PLINEWID
 40
0.0
  9
$COORDS
 70
     1
  9
$SPLFRAME
 70
     0
  9
$SPLINETYPE
 70
     6
  9
$SPLINESEGS
 70
     8
  9
$ATTDIA
 70
     0
  9
$ATTREQ
 70
     1
  9
$HANDLING
 70
     1
  9
$HANDSEED
  5
5AB
  9
$SURFTAB1
 70
     6
  9
$SURFTAB2
 70
     6
  9
$SURFTYPE
 70
     6
  9
$SURFU
 70
     6
  9
$SURFV
 70
     6
  9
$UCSNAME
  2

  9
$UCSORG
 10
0.0
 20
0.0
 30
0.0
  9
$UCSXDIR
 10
1.0
 20
0.0
 30
0.0
  9
$UCSYDIR
 10
0.0
 20
1.0
 30
0.0
  9
$PUCSNAME
  2

  9
$PUCSORG
 10
0.0
 20
0.0
 30
0.0
  9
$PUCSXDIR
 10
1.0
 20
0.0
 30
0.0
  9
$PUCSYDIR
 10
0.0
 20
1.0
 30
0.0
  9
$USERI1
 70
     0
  9
$USERI2
 70
     0
  9
$USERI3
 70
     0
  9
$USERI4
 70
     0
  9
$USERI5
 70
     0
  9
$USERR1
 40
0.0
  9
$USERR2
 40
0.0
  9
$USERR3
 40
0.0
  9
$USERR4
 40
0.0
  9
$USERR5
 40
0.0
  9
$WORLDVIEW
 70
     1
  9
$SHADEDGE
 70
     3
  9
$SHADEDIF
 70
    70
  9
$TILEMODE
 70
     1
  9
$MAXACTVP
 70
    64
  9
$PINSBASE
 10
0.0
 20
0.0
 30
0.0
  9
$PLIMCHECK
 70
     0
  9
$PEXTMIN
 10
1.000000000000000E+20
 20
1.000000000000000E+20
 30
1.000000000000000E+20
  9
$PEXTMAX
 10
-1.000000000000000E+20
 20
-1.000000000000000E+20
 30
-1.000000000000000E+20
  9
$PLIMMIN
 10
0.0
 20
0.0
  9
$PLIMMAX
 10
420.0
 20
297.0
  9
$UNITMODE
 70
     0
  9
$VISRETAIN
 70
     1
  9
$PLINEGEN
 70
     0
  9
$PSLTSCALE
 70
     1
  9
$TREEDEPTH
 70
  3020
  9
$PICKSTYLE
 70
     1
  9
$CMLSTYLE
  2
STANDARD
  9
$CMLJUST
 70
     0
  9
$CMLSCALE
 40
20.0
  9
$PROXYGRAPHICS
 70
     1
  9
$MEASUREMENT
 70
     1
  0
ENDSEC
  0
SECTION
  2
CLASSES
  0
CLASS
  1
ACDBDICTIONARYWDFLT
  2
AcDbDictionaryWithDefault
  3
ObjectDBX Classes
 90
        0
280
     0
281
     0
  0
CLASS
  1
VISUALSTYLE
  2
AcDbVisualStyle
  3
ObjectDBX Classes
 90
     4095
280
     0
281
     0
  0
CLASS
  1
MATERIAL
  2
AcDbMaterial
  3
ObjectDBX Classes
 90
     1153
280
     0
281
     0
  0
CLASS
  1
SCALE
  2
AcDbScale
  3
ObjectDBX Classes
 90
     1153
280
     0
281
     0
  0
CLASS
  1
TABLESTYLE
  2
AcDbTableStyle
  3
ObjectDBX Classes
 90
     4095
280
     0
281
     0
  0
CLASS
  1
MLEADERSTYLE
  2
AcDbMLeaderStyle
  3
ACDB_MLEADERSTYLE_CLASS
 90
     4095
280
     0
281
     0
  0
CLASS
  1
SUN
  2
AcDbSun
  3
SCENEOE
 90
     1153
280
     0
281
     0
  0
CLASS
  1
DICTIONARYVAR
  2
AcDbDictionaryVar
  3
ObjectDBX Classes
 90
        0
280
     0
281
     0
  0
CLASS
  1
XRECORD
  2
AcDbXrecord
  3
ObjectDBX Classes
 90
        0
280
     0
281
     0
  0
CLASS
  1
LWPOLYLINE
  2
AcDbPolyline
  3
ObjectDBX Classes
 90
        0
280
     0
281
     1
  0
CLASS
  1
HATCH
  2
AcDbHatch
  3
ObjectDBX Classes
 90
        0
280
     0
281
     1
  0
CLASS
  1
ACDBPLACEHOLDER
  2
AcDbPlaceHolder
  3
ObjectDBX Classes
 90
        0
280
     0
281
     0
  0
CLASS
  1
LAYOUT
  2
AcDbLayout
  3
ObjectDBX Classes
 90
        0
280
     0
281
     0
  0
ENDSEC
  0
SECTION
  2
TABLES
  0
TABLE
  2
VPORT
  5
8
102
{ACAD_XDICTIONARY
360
5A0
102
}
330
0
100
AcDbSymbolTable
 70
     1
  0
VPORT
  5
29
330
8
100
AcDbSymbolTableRecord
100
AcDbViewportTableRecord
  2
*ACTIVE
 70
     0
 10
0.0
 20
0.0
 11
1.0
 21
1.0
 12
1950.0
 22
1450.0
 13
0.0
 23
0.0
 14
10.0
 24
10.0
 15
10.0
 25
10.0
 16
0.0
 26
0.0
 36
1.0
 17
0.0
 27
0.0
 37
0.0
 40
2700.0
 41
1.407407407407408
 42
50.0
 43
0.0
 44
0.0
 50
0.0
 51
0.0
 71
     0
 72
  1000
 73
     1
 74
     3
 75
     0
 76
     0
 77
     0
 78
     0
  0
ENDTAB
  0
TABLE
  2
LTYPE
  5
5
330
0
100
AcDbSymbolTable
 70
     6
  0
LTYPE
  5
14
330
5
100
AcDbSymbolTableRecord
100
AcDbLinetypeTableRecord
  2
BYBLOCK
 70
     0
  3

 72
    65
 73
     0
 40
0.0
  0
LTYPE
  5
15
330
5
100
AcDbSymbolTableRecord
100
AcDbLinetypeTableRecord
  2
BYLAYER
 70
     0
  3

 72
    65
 73
     0
 40
0.0
  0
LTYPE
  5
16
330
5
100
AcDbSymbolTableRecord
100
AcDbLinetypeTableRecord
  2
CONTINUOUS
 70
     0
  3
Solid line
 72
    65
 73
     0
 40
0.0
  0
LTYPE
  5
6E
330
5
100
AcDbSymbolTableRecord
100
AcDbLinetypeTableRecord
  2
HIDDEN
 70
     0
  3
Hidden __ __ __ __ __ __ __ __ __ __ __ __ __ __
 72
    65
 73
     2
 40
9.524999999999999
 49
6.35
 74
     0
 49
-3.175
 74
     0
  0
LTYPE
  5
6F
330
5
100
AcDbSymbolTableRecord
100
AcDbLinetypeTableRecord
  2
CENTER
 70
     0
  3
Center ____ _ ____ _ ____ _ ____ _ ____ _ ____
 72
    65
 73
     4
 40
50.8
 49
31.75
 74
     0
 49
-6.35
 74
     0
 49
6.35
 74
     0
 49
-6.35
 74
     0
  0
LTYPE
  5
70
330
5
100
AcDbSymbolTableRecord
100
AcDbLinetypeTableRecord
  2
PHANTOM
 70
     0
  3
Phantom ______  __  __  ______  __  __  ______ 
 72
    65
 73
     6
 40
63.50000000000001
 49
31.75
 74
     0
 49
-6.35
 74
     0
 49
6.35
 74
     0
 49
-6.35
 74
     0
 49
6.35
 74
     0
 49
-6.35
 74
     0
  0
LTYPE
  5
71
330
5
100
AcDbSymbolTableRecord
100
AcDbLinetypeTableRecord
  2
ACAD_ISO06W100
 70
     0
  3
ISO long-dash triple-dot ____ ... ____ ... ____
 72
    65
 73
     8
 40
36.0
 49
24.0
 74
     0
 49
-3.0
 74
     0
 49
0.0
 74
     0
 49
-3.0
 74
     0
 49
0.0
 74
     0
 49
-3.0
 74
     0
 49
0.0
 74
     0
 49
-3.0
 74
     0
  0
LTYPE
  5
72
330
5
100
AcDbSymbolTableRecord
100
AcDbLinetypeTableRecord
  2
ACAD_ISO15W100
 70
     0
  3
ISO double-dash triple-dot __ __ . . . __ __ . .
 72
    65
 73
    10
 40
39.0
 49
12.0
 74
     0
 49
-3.0
 74
     0
 49
12.0
 74
     0
 49
-3.0
 74
     0
 49
0.0
 74
     0
 49
-3.0
 74
     0
 49
0.0
 74
     0
 49
-3.0
 74
     0
 49
0.0
 74
     0
 49
-3.0
 74
     0
  0
ENDTAB
  0
TABLE
  2
LAYER
  5
2
330
0
100
AcDbSymbolTable
 70
     6
  0
LAYER
  5
10
330
2
100
AcDbSymbolTableRecord
100
AcDbLayerTableRecord
  2
0
 70
     0
 62
     7
  6
CONTINUOUS
  0
LAYER
  5
75
330
2
100
AcDbSymbolTableRecord
100
AcDbLayerTableRecord
  2
LAY-10
 70
     0
 62
     7
  6
CONTINUOUS
  0
LAYER
  5
76
330
2
100
AcDbSymbolTableRecord
100
AcDbLayerTableRecord
  2
LAY-11
 70
     0
 62
     7
  6
CONTINUOUS
  0
LAYER
  5
77
330
2
100
AcDbSymbolTableRecord
100
AcDbLayerTableRecord
  2
LAY-20
 70
     0
 62
     7
  6
CONTINUOUS
  0
LAYER
  5
78
330
2
100
AcDbSymbolTableRecord
100
AcDbLayerTableRecord
  2
LAY-255
 70
     0
 62
     7
  6
CONTINUOUS
  0
LAYER
  5
446
330
2
100
AcDbSymbolTableRecord
100
AcDbLayerTableRecord
  2
DEFPOINTS
 70
     0
 62
     7
  6
CONTINUOUS
  0
ENDTAB
  0
TABLE
  2
STYLE
  5
3
330
0
100
AcDbSymbolTable
 70
     4
  0
STYLE
  5
11
330
3
100
AcDbSymbolTableRecord
100
AcDbTextStyleTableRecord
  2
STANDARD
 70
     0
 40
0.0
 41
1.0
 50
0.0
 71
     0
 42
2.5
  3
simplex
  4
bigfont
  0
STYLE
  5
73
330
3
100
AcDbSymbolTableRecord
100
AcDbTextStyleTableRecord
  2
EXCADSTD
 70
     0
 40
0.0
 41
1.0
 50
0.0
 71
     0
 42
2.5
  3
simplex
  4
bigfont
  0
STYLE
  5
74
330
3
100
AcDbSymbolTableRecord
100
AcDbTextStyleTableRecord
  2
EXCADVERT
 70
     4
 40
0.0
 41
1.0
 50
0.0
 71
     0
 42
2.5
  3
simplex
  4
bigfont
  0
STYLE
  5
444
330
3
100
AcDbSymbolTableRecord
100
AcDbTextStyleTableRecord
  2
EXCADDIM1
 70
     0
 40
0.0
 41
0.84
 50
0.0
 71
     0
 42
2.5
  3
simplex
  4
bigfont
  0
ENDTAB
  0
TABLE
  2
VIEW
  5
6
330
0
100
AcDbSymbolTable
 70
     0
  0
ENDTAB
  0
TABLE
  2
UCS
  5
7
330
0
100
AcDbSymbolTable
 70
     0
  0
ENDTAB
  0
TABLE
  2
APPID
  5
9
330
0
100
AcDbSymbolTable
 70
     2
  0
APPID
  5
12
330
9
100
AcDbSymbolTableRecord
100
AcDbRegAppTableRecord
  2
ACAD
 70
     0
  0
APPID
  5
5AA
330
9
100
AcDbSymbolTableRecord
100
AcDbRegAppTableRecord
  2
ACAD_MLEADERVER
 70
     0
  0
ENDTAB
  0
TABLE
  2
DIMSTYLE
  5
A
330
0
100
AcDbSymbolTable
 70
     1
  0
DIMSTYLE
105
27
102
{ACAD_REACTORS
330
445
330
453
330
460
330
46D
330
47A
330
487
330
494
330
4A1
330
4AE
330
4BB
102
}
330
A
100
AcDbSymbolTableRecord
100
AcDbDimStyleTableRecord
  2
ISO-25
 70
     0
  3

  4

  5

  6

  7

 40
1.0
 41
2.5
 42
0.625
 43
3.75
 44
1.25
 45
0.0
 46
0.0
 47
0.0
 48
0.0
140
2.5
141
2.5
142
0.0
143
0.03937007874016
144
1.0
145
0.0
146
1.0
147
0.625
 71
     0
 72
     0
 73
     0
 74
     0
 75
     0
 76
     0
 77
     1
 78
     8
170
     0
171
     3
172
     1
173
     0
174
     0
175
     0
176
     0
177
     0
178
     0
270
     2
271
     2
272
     2
273
     2
274
     3
340
11
275
     0
280
     0
281
     0
282
     0
283
     0
284
     8
285
     0
286
     0
287
     5
288
     0
  0
ENDTAB
  0
TABLE
  2
BLOCK_RECORD
  5
1
330
0
100
AcDbSymbolTable
 70
    36
  0
BLOCK_RECORD
  5
1F
330
1
100
AcDbSymbolTableRecord
100
AcDbBlockTableRecord
  2
*MODEL_SPACE
  0
BLOCK_RECORD
  5
1B
330
1
100
AcDbSymbolTableRecord
100
AcDbBlockTableRecord
  2
*PAPER_SPACE
  0
BLOCK_RECORD
  5
79
330
1
100
AcDbSymbolTableRecord
100
AcDbBlockTableRecord
  2
EX_NORM
  0
BLOCK_RECORD
  5
7C
330
1
100
AcDbSymbolTableRecord
100
AcDbBlockTableRecord
  2
EX_BNORM
  0
BLOCK_RECORD
  5
7F
330
1
100
AcDbSymbolTableRecord
100
AcDbBlockTableRecord
  2
EX_BCIR
  0
BLOCK_RECORD
  5
82
330
1
100
AcDbSymbolTableRecord
100
AcDbBlockTableRecord
  2
EX_RCIVIL
  0
BLOCK_RECORD
  5
85
330
1
100
AcDbSymbolTableRecord
100
AcDbBlockTableRecord
  2
EX_SLANT
  0
BLOCK_RECORD
  5
88
330
1
100
AcDbSymbolTableRecord
100
AcDbBlockTableRecord
  2
EX_NONE
  0
BLOCK_RECORD
  5
8B
330
1
100
AcDbSymbolTableRecord
100
AcDbBlockTableRecord
  2
EX_CIVIL
  0
BLOCK_RECORD
  5
8E
330
1
100
AcDbSymbolTableRecord
100
AcDbBlockTableRecord
  2
EX_WCIR
  0
BLOCK_RECORD
  5
91
330
1
100
AcDbSymbolTableRecord
100
AcDbBlockTableRecord
  2
EX_WCIR2
  0
BLOCK_RECORD
  5
94
330
1
100
AcDbSymbolTableRecord
100
AcDbBlockTableRecord
  2
EX_WNORM
  0
BLOCK_RECORD
  5
97
330
1
100
AcDbSymbolTableRecord
100
AcDbBlockTableRecord
  2
EX_NNORM
  0
BLOCK_RECORD
  5
9A
330
1
100
AcDbSymbolTableRecord
100
AcDbBlockTableRecord
  2
EX_BBOX
  0
BLOCK_RECORD
  5
9D
330
1
100
AcDbSymbolTableRecord
100
AcDbBlockTableRecord
  2
EX_WBOX
  0
BLOCK_RECORD
  5
A0
330
1
100
AcDbSymbolTableRecord
100
AcDbBlockTableRecord
  2
EX_INTEGRAL
  0
BLOCK_RECORD
  5
A3
330
1
100
AcDbSymbolTableRecord
100
AcDbBlockTableRecord
  2
SYM-1
  0
BLOCK_RECORD
  5
A6
330
1
100
AcDbSymbolTableRecord
100
AcDbBlockTableRecord
  2
SYM-2
  0
BLOCK_RECORD
  5
A9
330
1
100
AcDbSymbolTableRecord
100
AcDbBlockTableRecord
  2
SYM-3
  0
BLOCK_RECORD
  5
AC
330
1
100
AcDbSymbolTableRecord
100
AcDbBlockTableRecord
  2
SYM-4
  0
BLOCK_RECORD
  5
AF
330
1
100
AcDbSymbolTableRecord
100
AcDbBlockTableRecord
  2
SYM-5
  0
BLOCK_RECORD
  5
B2
330
1
100
AcDbSymbolTableRecord
100
AcDbBlockTableRecord
  2
SYM-6
  0
BLOCK_RECORD
  5
B5
330
1
100
AcDbSymbolTableRecord
100
AcDbBlockTableRecord
  2
SYM-7
  0
BLOCK_RECORD
  5
B8
330
1
100
AcDbSymbolTableRecord
100
AcDbBlockTableRecord
  2
SYM-8
  0
BLOCK_RECORD
  5
BB
330
1
100
AcDbSymbolTableRecord
100
AcDbBlockTableRecord
  2
SYM-9
  0
BLOCK_RECORD
  5
BE
330
1
100
AcDbSymbolTableRecord
100
AcDbBlockTableRecord
  2
SYM-10
  0
BLOCK_RECORD
  5
C1
330
1
100
AcDbSymbolTableRecord
100
AcDbBlockTableRecord
  2
SYM-11
  0
BLOCK_RECORD
  5
C4
330
1
100
AcDbSymbolTableRecord
100
AcDbBlockTableRecord
  2
SYM-12
  0
BLOCK_RECORD
  5
447
330
1
100
AcDbSymbolTableRecord
100
AcDbBlockTableRecord
  2
*D27
  0
BLOCK_RECORD
  5
454
330
1
100
AcDbSymbolTableRecord
100
AcDbBlockTableRecord
  2
*D28
  0
BLOCK_RECORD
  5
461
330
1
100
AcDbSymbolTableRecord
100
AcDbBlockTableRecord
  2
*D29
  0
BLOCK_RECORD
  5
46E
330
1
100
AcDbSymbolTableRecord
100
AcDbBlockTableRecord
  2
*D30
  0
BLOCK_RECORD
  5
47B
330
1
100
AcDbSymbolTableRecord
100
AcDbBlockTableRecord
  2
*D31
  0
BLOCK_RECORD
  5
488
330
1
100
AcDbSymbolTableRecord
100
AcDbBlockTableRecord
  2
*D32
  0
BLOCK_RECORD
  5
495
330
1
100
AcDbSymbolTableRecord
100
AcDbBlockTableRecord
  2
*D33
  0
BLOCK_RECORD
  5
4A2
330
1
100
AcDbSymbolTableRecord
100
AcDbBlockTableRecord
  2
*D34
  0
BLOCK_RECORD
  5
4AF
330
1
100
AcDbSymbolTableRecord
100
AcDbBlockTableRecord
  2
*D35
  0
BLOCK_RECORD
  5
4BC
330
1
100
AcDbSymbolTableRecord
100
AcDbBlockTableRecord
  2
*D36
  0
ENDTAB
  0
ENDSEC
  0
SECTION
  2
BLOCKS
  0
BLOCK
  5
20
330
1F
100
AcDbEntity
  8
0
100
AcDbBlockBegin
  2
*MODEL_SPACE
 70
     0
 10
0.0
 20
0.0
 30
0.0
  3
*MODEL_SPACE
  1

  0
ENDBLK
  5
21
330
1F
100
AcDbEntity
  8
0
100
AcDbBlockEnd
  0
BLOCK
  5
1C
330
1B
100
AcDbEntity
 67
     1
  8
0
100
AcDbBlockBegin
  2
*PAPER_SPACE
 70
     0
 10
0.0
 20
0.0
 30
0.0
  3
*PAPER_SPACE
  1

  0
ENDBLK
  5
1D
330
1B
100
AcDbEntity
 67
     1
  8
0
100
AcDbBlockEnd
  0
BLOCK
  5
7A
330
79
100
AcDbEntity
  8
0
100
AcDbBlockBegin
  2
EX_NORM
 70
     0
 10
0.0
 20
0.0
 30
0.0
  3
EX_NORM
  1

  0
LINE
  5
C7
330
79
100
AcDbEntity
  8
0
  6
CONTINUOUS
 62
     0
100
AcDbLine
 10
0.0
 20
0.0
 30
0.0
 11
-1.0
 21
0.0
 31
0.0
  0
LINE
  5
C8
330
79
100
AcDbEntity
  8
0
  6
CONTINUOUS
 62
     0
100
AcDbLine
 10
0.0
 20
0.0
 30
0.0
 11
-1.0
 21
0.166666667
 31
0.0
  0
LINE
  5
C9
330
79
100
AcDbEntity
  8
0
  6
CONTINUOUS
 62
     0
100
AcDbLine
 10
0.0
 20
0.0
 30
0.0
 11
-1.0
 21
-0.166666667
 31
0.0
  0
ENDBLK
  5
7B
330
79
100
AcDbEntity
  8
0
100
AcDbBlockEnd
  0
BLOCK
  5
7D
330
7C
100
AcDbEntity
  8
0
100
AcDbBlockBegin
  2
EX_BNORM
 70
     0
 10
0.0
 20
0.0
 30
0.0
  3
EX_BNORM
  1

  0
LINE
  5
CA
330
7C
100
AcDbEntity
  8
0
  6
CONTINUOUS
 62
     0
100
AcDbLine
 10
0.0
 20
0.0
 30
0.0
 11
-1.0
 21
0.0
 31
0.0
  0
LINE
  5
CB
330
7C
100
AcDbEntity
  8
0
  6
CONTINUOUS
 62
     0
100
AcDbLine
 10
0.0
 20
0.0
 30
0.0
 11
-1.0
 21
0.166666667
 31
0.0
  0
LINE
  5
CC
330
7C
100
AcDbEntity
  8
0
  6
CONTINUOUS
 62
     0
100
AcDbLine
 10
0.0
 20
0.0
 30
0.0
 11
-1.0
 21
-0.166666667
 31
0.0
  0
LINE
  5
CD
330
7C
100
AcDbEntity
  8
0
  6
CONTINUOUS
 62
     0
100
AcDbLine
 10
0.0
 20
0.0
 30
0.0
 11
-1.0
 21
0.083333333
 31
0.0
  0
LINE
  5
CE
330
7C
100
AcDbEntity
  8
0
  6
CONTINUOUS
 62
     0
100
AcDbLine
 10
0.0
 20
0.0
 30
0.0
 11
-1.0
 21
-0.083333333
 31
0.0
  0
LINE
  5
CF
330
7C
100
AcDbEntity
  8
0
  6
CONTINUOUS
 62
     0
100
AcDbLine
 10
-1.0
 20
0.166666667
 30
0.0
 11
-1.0
 21
-0.166666667
 31
0.0
  0
ENDBLK
  5
7E
330
7C
100
AcDbEntity
  8
0
100
AcDbBlockEnd
  0
BLOCK
  5
80
330
7F
100
AcDbEntity
  8
0
100
AcDbBlockBegin
  2
EX_BCIR
 70
     0
 10
0.0
 20
0.0
 30
0.0
  3
EX_BCIR
  1

  0
LINE
  5
D0
330
7F
100
AcDbEntity
  8
0
  6
CONTINUOUS
 62
     0
100
AcDbLine
 10
0.0
 20
0.0
 30
0.0
 11
-1.0
 21
0.0
 31
0.0
  0
CIRCLE
  5
D1
330
7F
100
AcDbEntity
  8
0
  6
CONTINUOUS
 62
     0
100
AcDbCircle
 10
0.0
 20
0.0
 30
0.0
 40
0.5
  0
CIRCLE
  5
D2
330
7F
100
AcDbEntity
  8
0
  6
CONTINUOUS
 62
     0
100
AcDbCircle
 10
0.0
 20
0.0
 30
0.0
 40
0.25
  0
ENDBLK
  5
81
330
7F
100
AcDbEntity
  8
0
100
AcDbBlockEnd
  0
BLOCK
  5
83
330
82
100
AcDbEntity
  8
0
100
AcDbBlockBegin
  2
EX_RCIVIL
 70
     0
 10
0.0
 20
0.0
 30
0.0
  3
EX_RCIVIL
  1

  0
LINE
  5
D3
330
82
100
AcDbEntity
  8
0
  6
CONTINUOUS
 62
     0
100
AcDbLine
 10
0.0
 20
0.0
 30
0.0
 11
-1.0
 21
0.0
 31
0.0
  0
LINE
  5
D4
330
82
100
AcDbEntity
  8
0
  6
CONTINUOUS
 62
     0
100
AcDbLine
 10
-1.0
 20
-0.25
 30
0.0
 11
0.0
 21
-0.25
 31
0.0
  0
LINE
  5
D5
330
82
100
AcDbEntity
  8
0
  6
CONTINUOUS
 62
     0
100
AcDbLine
 10
-1.0
 20
-0.125
 30
0.0
 11
0.0
 21
-0.125
 31
0.0
  0
ENDBLK
  5
84
330
82
100
AcDbEntity
  8
0
100
AcDbBlockEnd
  0
BLOCK
  5
86
330
85
100
AcDbEntity
  8
0
100
AcDbBlockBegin
  2
EX_SLANT
 70
     0
 10
0.0
 20
0.0
 30
0.0
  3
EX_SLANT
  1

  0
LINE
  5
D6
330
85
100
AcDbEntity
  8
0
  6
CONTINUOUS
 62
     0
100
AcDbLine
 10
0.0
 20
0.0
 30
0.0
 11
-1.0
 21
0.0
 31
0.0
  0
LINE
  5
D7
330
85
100
AcDbEntity
  8
0
  6
CONTINUOUS
 62
     0
100
AcDbLine
 10
0.707106781
 20
0.707106781
 30
0.0
 11
-0.707106781
 21
-0.707106781
 31
0.0
  0
ENDBLK
  5
87
330
85
100
AcDbEntity
  8
0
100
AcDbBlockEnd
  0
BLOCK
  5
89
330
88
100
AcDbEntity
  8
0
100
AcDbBlockBegin
  2
EX_NONE
 70
     0
 10
0.0
 20
0.0
 30
0.0
  3
EX_NONE
  1

  0
LINE
  5
D8
330
88
100
AcDbEntity
  8
0
  6
CONTINUOUS
 62
     0
100
AcDbLine
 10
0.0
 20
0.0
 30
0.0
 11
-1.0
 21
0.0
 31
0.0
  0
ENDBLK
  5
8A
330
88
100
AcDbEntity
  8
0
100
AcDbBlockEnd
  0
BLOCK
  5
8C
330
8B
100
AcDbEntity
  8
0
100
AcDbBlockBegin
  2
EX_CIVIL
 70
     0
 10
0.0
 20
0.0
 30
0.0
  3
EX_CIVIL
  1

  0
LINE
  5
D9
330
8B
100
AcDbEntity
  8
0
  6
CONTINUOUS
 62
     0
100
AcDbLine
 10
0.0
 20
0.0
 30
0.0
 11
-1.0
 21
0.0
 31
0.0
  0
LINE
  5
DA
330
8B
100
AcDbEntity
  8
0
  6
CONTINUOUS
 62
     0
100
AcDbLine
 10
-1.0
 20
0.25
 30
0.0
 11
0.0
 21
0.25
 31
0.0
  0
LINE
  5
DB
330
8B
100
AcDbEntity
  8
0
  6
CONTINUOUS
 62
     0
100
AcDbLine
 10
-1.0
 20
0.125
 30
0.0
 11
0.0
 21
0.125
 31
0.0
  0
ENDBLK
  5
8D
330
8B
100
AcDbEntity
  8
0
100
AcDbBlockEnd
  0
BLOCK
  5
8F
330
8E
100
AcDbEntity
  8
0
100
AcDbBlockBegin
  2
EX_WCIR
 70
     0
 10
0.0
 20
0.0
 30
0.0
  3
EX_WCIR
  1

  0
LINE
  5
DC
330
8E
100
AcDbEntity
  8
0
  6
CONTINUOUS
 62
     0
100
AcDbLine
 10
0.0
 20
0.0
 30
0.0
 11
-1.0
 21
0.0
 31
0.0
  0
CIRCLE
  5
DD
330
8E
100
AcDbEntity
  8
0
  6
CONTINUOUS
 62
     0
100
AcDbCircle
 10
0.0
 20
0.0
 30
0.0
 40
0.5
  0
ENDBLK
  5
90
330
8E
100
AcDbEntity
  8
0
100
AcDbBlockEnd
  0
BLOCK
  5
92
330
91
100
AcDbEntity
  8
0
100
AcDbBlockBegin
  2
EX_WCIR2
 70
     0
 10
0.0
 20
0.0
 30
0.0
  3
EX_WCIR2
  1

  0
LINE
  5
DE
330
91
100
AcDbEntity
  8
0
  6
CONTINUOUS
 62
     0
100
AcDbLine
 10
-0.5
 20
0.0
 30
0.0
 11
-1.0
 21
0.0
 31
0.0
  0
CIRCLE
  5
DF
330
91
100
AcDbEntity
  8
0
  6
CONTINUOUS
 62
     0
100
AcDbCircle
 10
0.0
 20
0.0
 30
0.0
 40
0.5
  0
ENDBLK
  5
93
330
91
100
AcDbEntity
  8
0
100
AcDbBlockEnd
  0
BLOCK
  5
95
330
94
100
AcDbEntity
  8
0
100
AcDbBlockBegin
  2
EX_WNORM
 70
     0
 10
0.0
 20
0.0
 30
0.0
  3
EX_WNORM
  1

  0
LINE
  5
E0
330
94
100
AcDbEntity
  8
0
  6
CONTINUOUS
 62
     0
100
AcDbLine
 10
-1.0
 20
0.0
 30
0.0
 11
-1.0
 21
0.0
 31
0.0
  0
LINE
  5
E1
330
94
100
AcDbEntity
  8
0
  6
CONTINUOUS
 62
     0
100
AcDbLine
 10
0.0
 20
0.0
 30
0.0
 11
-1.0
 21
0.166666667
 31
0.0
  0
LINE
  5
E2
330
94
100
AcDbEntity
  8
0
  6
CONTINUOUS
 62
     0
100
AcDbLine
 10
0.0
 20
0.0
 30
0.0
 11
-1.0
 21
-0.166666667
 31
0.0
  0
LINE
  5
E3
330
94
100
AcDbEntity
  8
0
  6
CONTINUOUS
 62
     0
100
AcDbLine
 10
-1.0
 20
0.166666667
 30
0.0
 11
-1.0
 21
-0.166666667
 31
0.0
  0
ENDBLK
  5
96
330
94
100
AcDbEntity
  8
0
100
AcDbBlockEnd
  0
BLOCK
  5
98
330
97
100
AcDbEntity
  8
0
100
AcDbBlockBegin
  2
EX_NNORM
 70
     0
 10
0.0
 20
0.0
 30
0.0
  3
EX_NNORM
  1

  0
LINE
  5
E4
330
97
100
AcDbEntity
  8
0
  6
CONTINUOUS
 62
     0
100
AcDbLine
 10
0.0
 20
0.0
 30
0.0
 11
-1.0
 21
0.0
 31
0.0
  0
LINE
  5
E5
330
97
100
AcDbEntity
  8
0
  6
CONTINUOUS
 62
     0
100
AcDbLine
 10
0.0
 20
0.0
 30
0.0
 11
-1.0
 21
0.166666667
 31
0.0
  0
LINE
  5
E6
330
97
100
AcDbEntity
  8
0
  6
CONTINUOUS
 62
     0
100
AcDbLine
 10
0.0
 20
0.0
 30
0.0
 11
-1.0
 21
-0.166666667
 31
0.0
  0
LINE
  5
E7
330
97
100
AcDbEntity
  8
0
  6
CONTINUOUS
 62
     0
100
AcDbLine
 10
-1.0
 20
0.166666667
 30
0.0
 11
-1.0
 21
-0.166666667
 31
0.0
  0
ENDBLK
  5
99
330
97
100
AcDbEntity
  8
0
100
AcDbBlockEnd
  0
BLOCK
  5
9B
330
9A
100
AcDbEntity
  8
0
100
AcDbBlockBegin
  2
EX_BBOX
 70
     0
 10
0.0
 20
0.0
 30
0.0
  3
EX_BBOX
  1

  0
LINE
  5
E8
330
9A
100
AcDbEntity
  8
0
  6
CONTINUOUS
 62
     0
100
AcDbLine
 10
0.0
 20
0.0
 30
0.0
 11
-1.0
 21
0.0
 31
0.0
  0
LINE
  5
E9
330
9A
100
AcDbEntity
  8
0
  6
CONTINUOUS
 62
     0
100
AcDbLine
 10
-0.5
 20
0.5
 30
0.0
 11
0.5
 21
0.5
 31
0.0
  0
LINE
  5
EA
330
9A
100
AcDbEntity
  8
0
  6
CONTINUOUS
 62
     0
100
AcDbLine
 10
0.5
 20
0.5
 30
0.0
 11
0.5
 21
-0.5
 31
0.0
  0
LINE
  5
EB
330
9A
100
AcDbEntity
  8
0
  6
CONTINUOUS
 62
     0
100
AcDbLine
 10
0.5
 20
-0.5
 30
0.0
 11
-0.5
 21
-0.5
 31
0.0
  0
LINE
  5
EC
330
9A
100
AcDbEntity
  8
0
  6
CONTINUOUS
 62
     0
100
AcDbLine
 10
-0.5
 20
-0.5
 30
0.0
 11
-0.5
 21
0.5
 31
0.0
  0
LINE
  5
ED
330
9A
100
AcDbEntity
  8
0
  6
CONTINUOUS
 62
     0
100
AcDbLine
 10
-0.25
 20
0.25
 30
0.0
 11
0.25
 21
0.25
 31
0.0
  0
LINE
  5
EE
330
9A
100
AcDbEntity
  8
0
  6
CONTINUOUS
 62
     0
100
AcDbLine
 10
0.25
 20
0.25
 30
0.0
 11
0.25
 21
-0.25
 31
0.0
  0
LINE
  5
EF
330
9A
100
AcDbEntity
  8
0
  6
CONTINUOUS
 62
     0
100
AcDbLine
 10
0.25
 20
-0.25
 30
0.0
 11
-0.25
 21
-0.25
 31
0.0
  0
LINE
  5
F0
330
9A
100
AcDbEntity
  8
0
  6
CONTINUOUS
 62
     0
100
AcDbLine
 10
-0.25
 20
-0.25
 30
0.0
 11
-0.25
 21
0.25
 31
0.0
  0
ENDBLK
  5
9C
330
9A
100
AcDbEntity
  8
0
100
AcDbBlockEnd
  0
BLOCK
  5
9E
330
9D
100
AcDbEntity
  8
0
100
AcDbBlockBegin
  2
EX_WBOX
 70
     0
 10
0.0
 20
0.0
 30
0.0
  3
EX_WBOX
  1

  0
LINE
  5
F1
330
9D
100
AcDbEntity
  8
0
  6
CONTINUOUS
 62
     0
100
AcDbLine
 10
-0.5
 20
0.0
 30
0.0
 11
-1.0
 21
0.0
 31
0.0
  0
LINE
  5
F2
330
9D
100
AcDbEntity
  8
0
  6
CONTINUOUS
 62
     0
100
AcDbLine
 10
-0.5
 20
0.5
 30
0.0
 11
0.5
 21
0.5
 31
0.0
  0
LINE
  5
F3
330
9D
100
AcDbEntity
  8
0
  6
CONTINUOUS
 62
     0
100
AcDbLine
 10
0.5
 20
0.5
 30
0.0
 11
0.5
 21
-0.5
 31
0.0
  0
LINE
  5
F4
330
9D
100
AcDbEntity
  8
0
  6
CONTINUOUS
 62
     0
100
AcDbLine
 10
0.5
 20
-0.5
 30
0.0
 11
-0.5
 21
-0.5
 31
0.0
  0
LINE
  5
F5
330
9D
100
AcDbEntity
  8
0
  6
CONTINUOUS
 62
     0
100
AcDbLine
 10
-0.5
 20
-0.5
 30
0.0
 11
-0.5
 21
0.5
 31
0.0
  0
ENDBLK
  5
9F
330
9D
100
AcDbEntity
  8
0
100
AcDbBlockEnd
  0
BLOCK
  5
A1
330
A0
100
AcDbEntity
  8
0
100
AcDbBlockBegin
  2
EX_INTEGRAL
 70
     0
 10
0.0
 20
0.0
 30
0.0
  3
EX_INTEGRAL
  1

  0
LINE
  5
F6
330
A0
100
AcDbEntity
  8
0
  6
CONTINUOUS
 62
     0
100
AcDbLine
 10
0.0
 20
0.0
 30
0.0
 11
-1.0
 21
0.0
 31
0.0
  0
ARC
  5
F7
330
A0
100
AcDbEntity
  8
0
  6
CONTINUOUS
 62
     0
100
AcDbCircle
 10
0.542115
 20
0.164992
 30
0.0
 40
0.56667
100
AcDbArc
 50
73.07249033629006
 51
196.9275130221199
  0
ARC
  5
F8
330
A0
100
AcDbEntity
  8
0
  6
CONTINUOUS
 62
     0
100
AcDbCircle
 10
-0.542115
 20
-0.164992
 30
0.0
 40
0.56667
100
AcDbArc
 50
253.0724869220464
 51
16.9275130559125
  0
ENDBLK
  5
A2
330
A0
100
AcDbEntity
  8
0
100
AcDbBlockEnd
  0
BLOCK
  5
A4
330
A3
100
AcDbEntity
  8
0
100
AcDbBlockBegin
  2
SYM-1
 70
     0
 10
0.0
 20
0.0
 30
0.0
  3
SYM-1
  1

  0
ELLIPSE
  5
F9
330
A3
100
AcDbEntity
  8
0
  6
CONTINUOUS
 62
     7
100
AcDbEllipse
 10
647.5800000000868
 20
803.615151476456
 30
0.0
 11
-5.809475019310011
 21
7.114554987124514E-16
 31
0.0
210
0.0
220
0.0
230
1.0
 40
0.774596669241632
 41
0.0
 42
6.283185307179586
  0
LINE
  5
FA
330
A3
100
AcDbEntity
  8
0
  6
CONTINUOUS
 62
     7
100
AcDbLine
 10
653.1836381353862
 20
804.8023935701567
 30
0.0
 11
650.4649621510865
 21
807.5210695544565
 31
0.0
  0
LINE
  5
FB
330
A3
100
AcDbEntity
  8
0
  6
CONTINUOUS
 62
     7
100
AcDbLine
 10
653.3654547892869
 20
803.2063633538564
 30
0.0
 11
648.5153785441864
 21
808.0564395990559
 31
0.0
  0
LINE
  5
FC
330
A3
100
AcDbEntity
  8
0
  6
CONTINUOUS
 62
     7
100
AcDbLine
 10
653.0525839265869
 20
802.1050206542564
 30
0.0
 11
647.0604824538871
 21
808.0971221269565
 31
0.0
  0
LINE
  5
FD
330
A3
100
AcDbEntity
  8
0
  6
CONTINUOUS
 62
     7
100
AcDbLine
 10
648.860680699287
 20
799.2258560696564
 30
0.0
 11
642.4135509163865
 21
805.6729858525559
 31
0.0
  0
LINE
  5
FE
330
A3
100
AcDbEntity
  8
0
  6
CONTINUOUS
 62
     7
100
AcDbLine
 10
647.5571368818868
 20
799.115186324756
 30
0.0
 11
641.9493277808864
 21
804.7229954257564
 31
0.0
  0
LINE
  5
FF
330
A3
100
AcDbEntity
  8
0
  6
CONTINUOUS
 62
     7
100
AcDbLine
 10
645.9657483509867
 20
799.2923612932568
 30
0.0
 11
641.772949358786
 21
803.485160285457
 31
0.0
  0
LINE
  5
100
330
A3
100
AcDbEntity
  8
0
  6
CONTINUOUS
 62
     7
100
AcDbLine
 10
652.5094640828869
 20
801.2339269355562
 30
0.0
 11
645.8358353446949
 21
807.907555673748
 31
0.0
  0
LINE
  5
101
330
A3
100
AcDbEntity
  8
0
  6
CONTINUOUS
 62
     7
100
AcDbLine
 10
651.803711507487
 20
800.5254659485568
 30
0.0
 11
644.7738209672856
 21
807.555356489082
 31
0.0
  0
LINE
  5
102
330
A3
100
AcDbEntity
  8
0
  6
CONTINUOUS
 62
     7
100
AcDbLine
 10
650.9598581997865
 20
799.9551056939563
 30
0.0
 11
643.8499073217048
 21
807.0650565717315
 31
0.0
  0
LINE
  5
103
330
A3
100
AcDbEntity
  8
0
  6
CONTINUOUS
 62
     7
100
AcDbLine
 10
649.9826983599872
 20
799.5180519713572
 30
0.0
 11
643.0593002086756
 21
806.4414501226643
 31
0.0
  0
ENDBLK
  5
A5
330
A3
100
AcDbEntity
  8
0
100
AcDbBlockEnd
  0
BLOCK
  5
A7
330
A6
100
AcDbEntity
  8
0
100
AcDbBlockBegin
  2
SYM-2
 70
     0
 10
0.0
 20
0.0
 30
0.0
  3
SYM-2
  1

  0
LINE
  5
104
330
A6
100
AcDbEntity
  8
0
  6
CONTINUOUS
 62
     7
100
AcDbLine
 10
627.5000000000858
 20
825.8984848097562
 30
0.0
 11
627.5000000000858
 21
821.6984848097568
 31
0.0
  0
LINE
  5
105
330
A6
100
AcDbEntity
  8
0
  6
CONTINUOUS
 62
     7
100
AcDbLine
 10
635.5000000000858
 20
825.8984848097562
 30
0.0
 11
635.5000000000858
 21
821.6984848097568
 31
0.0
  0
LINE
  5
106
330
A6
100
AcDbEntity
  8
0
  6
CONTINUOUS
 62
     7
100
AcDbLine
 10
636.5000000000858
 20
821.6984848097568
 30
0.0
 11
636.5000000000858
 21
824.8984848097566
 31
0.0
  0
LINE
  5
107
330
A6
100
AcDbEntity
  8
0
  6
CONTINUOUS
 62
     7
100
AcDbLine
 10
626.5000000000858
 20
821.6984848097568
 30
0.0
 11
626.5000000000858
 21
824.8984848097566
 31
0.0
  0
LINE
  5
108
330
A6
100
AcDbEntity
  8
0
  6
CONTINUOUS
 62
     7
100
AcDbLine
 10
636.5000000000858
 20
813.2984848097567
 30
0.0
 11
636.5000000000858
 21
820.7744848097568
 31
0.0
  0
LINE
  5
109
330
A6
100
AcDbEntity
  8
0
  6
CONTINUOUS
 62
     7
100
AcDbLine
 10
626.5000000000858
 20
813.2984848097567
 30
0.0
 11
626.5000000000858
 21
820.7744848097568
 31
0.0
  0
LINE
  5
10A
330
A6
100
AcDbEntity
  8
0
  6
CONTINUOUS
 62
     7
100
AcDbLine
 10
635.5000000000904
 20
825.8984848097562
 30
0.0
 11
627.5000000000913
 21
825.8984848097562
 31
0.0
  0
LINE
  5
10B
330
A6
100
AcDbEntity
  8
0
  6
CONTINUOUS
 62
     7
100
AcDbLine
 10
636.5000000000913
 20
824.8984848097566
 30
0.0
 11
626.5000000000904
 21
824.8984848097566
 31
0.0
  0
LINE
  5
10C
330
A6
100
AcDbEntity
  8
0
  6
CONTINUOUS
 62
     7
100
AcDbLine
 10
626.5000000000904
 20
824.8984848097566
 30
0.0
 11
627.5000000000913
 21
825.8984848097562
 31
0.0
  0
LINE
  5
10D
330
A6
100
AcDbEntity
  8
0
  6
CONTINUOUS
 62
     7
100
AcDbLine
 10
636.5000000000913
 20
824.8984848097566
 30
0.0
 11
635.5000000000904
 21
825.8984848097562
 31
0.0
  0
LINE
  5
10E
330
A6
100
AcDbEntity
  8
0
  6
CONTINUOUS
 62
     7
100
AcDbLine
 10
641.5000000000857
 20
813.2984848097567
 30
0.0
 11
641.5000000000857
 21
820.7744848097568
 31
0.0
  0
LINE
  5
10F
330
A6
100
AcDbEntity
  8
0
  6
CONTINUOUS
 62
     7
100
AcDbLine
 10
621.5000000000867
 20
813.2984848097567
 30
0.0
 11
621.5000000000867
 21
820.7744848097568
 31
0.0
  0
ARC
  5
110
330
A6
100
AcDbEntity
  8
0
  6
CONTINUOUS
 62
     7
100
AcDbCircle
 10
639.0000000000858
 20
817.8544501777219
 30
0.0
 40
3.844034632034633
100
AcDbArc
 50
49.43137502657837
 51
130.5686249733964
  0
ARC
  5
111
330
A6
100
AcDbEntity
  8
0
  6
CONTINUOUS
 62
     7
100
AcDbCircle
 10
631.5000000000858
 20
807.7083462816186
 30
0.0
 40
13.99013852813853
100
AcDbArc
 50
69.0597243938585
 51
110.9402756061383
  0
ARC
  5
112
330
A6
100
AcDbEntity
  8
0
  6
CONTINUOUS
 62
     7
100
AcDbCircle
 10
624.0000000000858
 20
817.8544501777219
 30
0.0
 40
3.844034632034633
100
AcDbArc
 50
49.43137502657837
 51
130.5686249733964
  0
LINE
  5
113
330
A6
100
AcDbEntity
  8
0
  6
CONTINUOUS
 62
     7
100
AcDbLine
 10
639.0000000000858
 20
821.6984848097568
 30
0.0
 11
624.0000000000858
 21
821.6984848097568
 31
0.0
  0
LINE
  5
114
330
A6
100
AcDbEntity
  8
0
  6
CONTINUOUS
 62
     7
100
AcDbLine
 10
642.0000000000858
 20
813.2984848097567
 30
0.0
 11
642.0000000000858
 21
811.2984848097558
 31
0.0
  0
LINE
  5
115
330
A6
100
AcDbEntity
  8
0
  6
CONTINUOUS
 62
     7
100
AcDbLine
 10
621.0000000000858
 20
813.2984848097567
 30
0.0
 11
642.0000000000858
 21
813.2984848097567
 31
0.0
  0
LINE
  5
116
330
A6
100
AcDbEntity
  8
0
  6
CONTINUOUS
 62
     7
100
AcDbLine
 10
621.0000000000858
 20
813.2984848097567
 30
0.0
 11
621.0000000000858
 21
811.2984848097558
 31
0.0
  0
LINE
  5
117
330
A6
100
AcDbEntity
  8
0
  6
CONTINUOUS
 62
     7
100
AcDbLine
 10
626.5000000000858
 20
790.2024848097562
 30
0.0
 11
626.5000000000858
 21
811.2984848097558
 31
0.0
  0
LINE
  5
118
330
A6
100
AcDbEntity
  8
0
  6
CONTINUOUS
 62
     7
100
AcDbLine
 10
627.5000000000858
 20
811.2984848097568
 30
0.0
 11
627.5000000000858
 21
800.8984848097566
 31
0.0
  0
LINE
  5
119
330
A6
100
AcDbEntity
  8
0
  6
CONTINUOUS
 62
     7
100
AcDbLine
 10
635.5000000000858
 20
811.2984848097568
 30
0.0
 11
635.5000000000858
 21
800.8984848097566
 31
0.0
  0
LINE
  5
11A
330
A6
100
AcDbEntity
  8
0
  6
CONTINUOUS
 62
     7
100
AcDbLine
 10
636.5000000000858
 20
790.2024848097562
 30
0.0
 11
636.5000000000858
 21
811.2984848097558
 31
0.0
  0
LINE
  5
11B
330
A6
100
AcDbEntity
  8
0
  6
CONTINUOUS
 62
     7
100
AcDbLine
 10
636.5000000000858
 20
800.8984848097566
 30
0.0
 11
626.5000000000858
 21
800.8984848097566
 31
0.0
  0
LINE
  5
11C
330
A6
100
AcDbEntity
  8
0
  6
CONTINUOUS
 62
     7
100
AcDbLine
 10
635.5000000000858
 20
800.8984848097566
 30
0.0
 11
636.5000000000858
 21
799.8984848097562
 31
0.0
  0
LINE
  5
11D
330
A6
100
AcDbEntity
  8
0
  6
CONTINUOUS
 62
     7
100
AcDbLine
 10
627.5000000000858
 20
800.8984848097566
 30
0.0
 11
626.5000000000858
 21
799.8984848097562
 31
0.0
  0
ARC
  5
11E
330
A6
100
AcDbEntity
  8
0
  6
CONTINUOUS
 62
     7
100
AcDbCircle
 10
639.0000000000858
 20
794.2894052643019
 30
0.0
 40
4.790920454545454
100
AcDbArc
 50
238.5455606612269
 51
301.4544393387824
  0
ARC
  5
11F
330
A6
100
AcDbEntity
  8
0
  6
CONTINUOUS
 62
     7
100
AcDbCircle
 10
631.5000000000858
 20
807.6061666279384
 30
0.0
 40
18.10768181818181
100
AcDbArc
 50
253.9708781133897
 51
286.0291218866135
  0
ARC
  5
120
330
A6
100
AcDbEntity
  8
0
  6
CONTINUOUS
 62
     7
100
AcDbCircle
 10
624.0000000000858
 20
794.2894052643019
 30
0.0
 40
4.790920454545454
100
AcDbArc
 50
238.5455606612384
 51
301.4544393387824
  0
LINE
  5
121
330
A6
100
AcDbEntity
  8
0
  6
CONTINUOUS
 62
     7
100
AcDbLine
 10
621.5000000000867
 20
795.8984848097562
 30
0.0
 11
621.5000000000867
 21
790.2024848097562
 31
0.0
  0
LINE
  5
122
330
A6
100
AcDbEntity
  8
0
  6
CONTINUOUS
 62
     7
100
AcDbLine
 10
641.5000000000857
 20
795.8984848097562
 30
0.0
 11
641.5000000000857
 21
790.2024848097562
 31
0.0
  0
LINE
  5
123
330
A6
100
AcDbEntity
  8
0
  6
CONTINUOUS
 62
     7
100
AcDbLine
 10
624.0000000000858
 20
789.4984848097565
 30
0.0
 11
639.0000000000858
 21
789.4984848097565
 31
0.0
  0
LINE
  5
124
330
A6
100
AcDbEntity
  8
0
  6
CONTINUOUS
 62
     7
100
AcDbLine
 10
641.5000000000886
 20
793.5584848097565
 30
0.0
 11
643.7800000000864
 21
795.8984848097562
 31
0.0
  0
LINE
  5
125
330
A6
100
AcDbEntity
  8
0
  6
CONTINUOUS
 62
     7
100
AcDbLine
 10
643.6213203436367
 20
795.8984848097653
 30
0.0
 11
643.7016905592503
 21
795.8181145941518
 31
0.0
  0
LINE
  5
126
330
A6
100
AcDbEntity
  8
0
  6
CONTINUOUS
 62
     7
100
AcDbLine
 10
642.9142135624437
 20
795.8984848097725
 30
0.0
 11
643.3527287711289
 21
795.4599696010865
 31
0.0
  0
LINE
  5
127
330
A6
100
AcDbEntity
  8
0
  6
CONTINUOUS
 62
     7
100
AcDbLine
 10
642.2071067812625
 20
795.8984848097671
 30
0.0
 11
643.0037669830066
 21
795.101824608023
 31
0.0
  0
LINE
  5
128
330
A6
100
AcDbEntity
  8
0
  6
CONTINUOUS
 62
     7
100
AcDbLine
 10
641.5000000000922
 20
795.8984848097504
 30
0.0
 11
642.654805194896
 21
794.7436796149459
 31
0.0
  0
LINE
  5
129
330
A6
100
AcDbEntity
  8
0
  6
CONTINUOUS
 62
     7
100
AcDbLine
 10
641.5000000000977
 20
795.1913780285568
 30
0.0
 11
642.3058434067719
 21
794.3855346218825
 31
0.0
  0
LINE
  5
12A
330
A6
100
AcDbEntity
  8
0
  6
CONTINUOUS
 62
     7
100
AcDbLine
 10
641.5000000000939
 20
794.4842712473755
 30
0.0
 11
641.9568816186624
 21
794.0273896288068
 31
0.0
  0
LINE
  5
12B
330
A6
100
AcDbEntity
  8
0
  6
CONTINUOUS
 62
     7
100
AcDbLine
 10
641.5000000000886
 20
793.7771644661944
 30
0.0
 11
641.60791983054
 21
793.6692446357421
 31
0.0
  0
LINE
  5
12C
330
A6
100
AcDbEntity
  8
0
  6
CONTINUOUS
 62
     7
100
AcDbLine
 10
619.1600000000866
 20
795.8984848097543
 30
0.0
 11
621.5000000000867
 21
793.6184848097555
 31
0.0
  0
LINE
  5
12D
330
A6
100
AcDbEntity
  8
0
  6
CONTINUOUS
 62
     7
100
AcDbLine
 10
619.2707598260889
 20
795.7905649793197
 30
0.0
 11
619.3786796565186
 21
795.8984848097481
 31
0.0
  0
LINE
  5
12E
330
A6
100
AcDbEntity
  8
0
  6
CONTINUOUS
 62
     7
100
AcDbLine
 10
619.6289048191542
 20
795.4416031911969
 30
0.0
 11
620.0857864377107
 21
795.8984848097543
 31
0.0
  0
LINE
  5
12F
330
A6
100
AcDbEntity
  8
0
  6
CONTINUOUS
 62
     7
100
AcDbLine
 10
619.9870498122185
 20
795.0926414030746
 30
0.0
 11
620.7928932189155
 21
795.8984848097725
 31
0.0
  0
LINE
  5
130
330
A6
100
AcDbEntity
  8
0
  6
CONTINUOUS
 62
     7
100
AcDbLine
 10
620.3451948052938
 20
794.7436796149641
 30
0.0
 11
621.5000000000858
 21
795.8984848097557
 31
0.0
  0
LINE
  5
131
330
A6
100
AcDbEntity
  8
0
  6
CONTINUOUS
 62
     7
100
AcDbLine
 10
620.7033397983572
 20
794.3947178268418
 30
0.0
 11
621.5000000000786
 21
795.1913780285622
 31
0.0
  0
LINE
  5
132
330
A6
100
AcDbEntity
  8
0
  6
CONTINUOUS
 62
     7
100
AcDbLine
 10
621.0614847914225
 20
794.0457560387199
 30
0.0
 11
621.500000000084
 21
794.484271247381
 31
0.0
  0
LINE
  5
133
330
A6
100
AcDbEntity
  8
0
  6
CONTINUOUS
 62
     7
100
AcDbLine
 10
621.4196297844868
 20
793.6967942505971
 30
0.0
 11
621.5000000000776
 21
793.777164466188
 31
0.0
  0
ENDBLK
  5
A8
330
A6
100
AcDbEntity
  8
0
100
AcDbBlockEnd
  0
BLOCK
  5
AA
330
A9
100
AcDbEntity
  8
0
100
AcDbBlockBegin
  2
SYM-3
 70
     0
 10
0.0
 20
0.0
 30
0.0
  3
SYM-3
  1

  0
ELLIPSE
  5
134
330
A9
100
AcDbEntity
  8
0
  6
CONTINUOUS
 62
     7
100
AcDbEllipse
 10
1565.420000000072
 20
803.615151476456
 30
0.0
 11
-5.809475019310011
 21
7.114554987124514E-16
 31
0.0
210
0.0
220
0.0
230
1.0
 40
0.774596669241632
 41
0.0
 42
6.283185307179586
  0
LINE
  5
135
330
A9
100
AcDbEntity
  8
0
  6
CONTINUOUS
 62
     7
100
AcDbLine
 10
1559.816361864772
 20
804.8023935701567
 30
0.0
 11
1562.535037849073
 21
807.5210695544565
 31
0.0
  0
LINE
  5
136
330
A9
100
AcDbEntity
  8
0
  6
CONTINUOUS
 62
     7
100
AcDbLine
 10
1559.634545210871
 20
803.2063633538564
 30
0.0
 11
1564.484621455971
 21
808.0564395990559
 31
0.0
  0
LINE
  5
137
330
A9
100
AcDbEntity
  8
0
  6
CONTINUOUS
 62
     7
100
AcDbLine
 10
1559.947416073571
 20
802.1050206542564
 30
0.0
 11
1565.939517546272
 21
808.0971221269565
 31
0.0
  0
LINE
  5
138
330
A9
100
AcDbEntity
  8
0
  6
CONTINUOUS
 62
     7
100
AcDbLine
 10
1564.139319300871
 20
799.2258560696564
 30
0.0
 11
1570.586449083773
 21
805.6729858525559
 31
0.0
  0
LINE
  5
139
330
A9
100
AcDbEntity
  8
0
  6
CONTINUOUS
 62
     7
100
AcDbLine
 10
1565.442863118271
 20
799.115186324756
 30
0.0
 11
1571.050672219273
 21
804.7229954257564
 31
0.0
  0
LINE
  5
13A
330
A9
100
AcDbEntity
  8
0
  6
CONTINUOUS
 62
     7
100
AcDbLine
 10
1567.034251649172
 20
799.2923612932568
 30
0.0
 11
1571.227050641371
 21
803.485160285457
 31
0.0
  0
LINE
  5
13B
330
A9
100
AcDbEntity
  8
0
  6
CONTINUOUS
 62
     7
100
AcDbLine
 10
1560.490535917271
 20
801.2339269355562
 30
0.0
 11
1567.164164655466
 21
807.907555673748
 31
0.0
  0
LINE
  5
13C
330
A9
100
AcDbEntity
  8
0
  6
CONTINUOUS
 62
     7
100
AcDbLine
 10
1561.196288492671
 20
800.5254659485568
 30
0.0
 11
1568.226179032875
 21
807.5553564890811
 31
0.0
  0
LINE
  5
13D
330
A9
100
AcDbEntity
  8
0
  6
CONTINUOUS
 62
     7
100
AcDbLine
 10
1562.040141800373
 20
799.9551056939563
 30
0.0
 11
1569.150092678454
 21
807.0650565717315
 31
0.0
  0
LINE
  5
13E
330
A9
100
AcDbEntity
  8
0
  6
CONTINUOUS
 62
     7
100
AcDbLine
 10
1563.017301640172
 20
799.5180519713572
 30
0.0
 11
1569.940699791482
 21
806.4414501226656
 31
0.0
  0
ENDBLK
  5
AB
330
A9
100
AcDbEntity
  8
0
100
AcDbBlockEnd
  0
BLOCK
  5
AD
330
AC
100
AcDbEntity
  8
0
100
AcDbBlockBegin
  2
SYM-4
 70
     0
 10
0.0
 20
0.0
 30
0.0
  3
SYM-4
  1

  0
LINE
  5
13F
330
AC
100
AcDbEntity
  8
0
  6
CONTINUOUS
 62
     7
100
AcDbLine
 10
1576.500000000073
 20
824.8984848097566
 30
0.0
 11
1586.500000000073
 21
824.8984848097566
 31
0.0
  0
LINE
  5
140
330
AC
100
AcDbEntity
  8
0
  6
CONTINUOUS
 62
     7
100
AcDbLine
 10
1576.500000000073
 20
824.8984848097566
 30
0.0
 11
1577.500000000073
 21
825.8984848097562
 31
0.0
  0
LINE
  5
141
330
AC
100
AcDbEntity
  8
0
  6
CONTINUOUS
 62
     7
100
AcDbLine
 10
1586.500000000073
 20
824.8984848097566
 30
0.0
 11
1585.500000000072
 21
825.8984848097562
 31
0.0
  0
LINE
  5
142
330
AC
100
AcDbEntity
  8
0
  6
CONTINUOUS
 62
     7
100
AcDbLine
 10
1577.500000000073
 20
825.8984848097562
 30
0.0
 11
1585.500000000072
 21
825.8984848097562
 31
0.0
  0
LINE
  5
143
330
AC
100
AcDbEntity
  8
0
  6
CONTINUOUS
 62
     7
100
AcDbLine
 10
1577.500000000073
 20
825.8984848097562
 30
0.0
 11
1577.500000000073
 21
821.6984848097568
 31
0.0
  0
LINE
  5
144
330
AC
100
AcDbEntity
  8
0
  6
CONTINUOUS
 62
     7
100
AcDbLine
 10
1585.500000000072
 20
825.8984848097562
 30
0.0
 11
1585.500000000072
 21
821.6984848097568
 31
0.0
  0
LINE
  5
145
330
AC
100
AcDbEntity
  8
0
  6
CONTINUOUS
 62
     7
100
AcDbLine
 10
1586.500000000073
 20
821.6984848097568
 30
0.0
 11
1586.500000000073
 21
824.8984848097566
 31
0.0
  0
LINE
  5
146
330
AC
100
AcDbEntity
  8
0
  6
CONTINUOUS
 62
     7
100
AcDbLine
 10
1576.500000000073
 20
821.6984848097568
 30
0.0
 11
1576.500000000073
 21
824.8984848097566
 31
0.0
  0
LINE
  5
147
330
AC
100
AcDbEntity
  8
0
  6
CONTINUOUS
 62
     7
100
AcDbLine
 10
1586.500000000073
 20
813.2984848097567
 30
0.0
 11
1586.500000000073
 21
820.7744848097568
 31
0.0
  0
LINE
  5
148
330
AC
100
AcDbEntity
  8
0
  6
CONTINUOUS
 62
     7
100
AcDbLine
 10
1576.500000000073
 20
813.2984848097567
 30
0.0
 11
1576.500000000073
 21
820.7744848097568
 31
0.0
  0
LINE
  5
149
330
AC
100
AcDbEntity
  8
0
  6
CONTINUOUS
 62
     7
100
AcDbLine
 10
1571.500000000073
 20
813.2984848097567
 30
0.0
 11
1571.500000000073
 21
820.7744848097568
 31
0.0
  0
ARC
  5
14A
330
AC
100
AcDbEntity
  8
0
  6
CONTINUOUS
 62
     7
100
AcDbCircle
 10
1589.000000000073
 20
817.8544501777219
 30
0.0
 40
3.844034632034633
100
AcDbArc
 50
49.4313750266144
 51
130.5686249733918
  0
ARC
  5
14B
330
AC
100
AcDbEntity
  8
0
  6
CONTINUOUS
 62
     7
100
AcDbCircle
 10
1581.500000000073
 20
807.7083462816186
 30
0.0
 40
13.99013852813853
100
AcDbArc
 50
69.05972439385523
 51
110.9402756061494
  0
ARC
  5
14C
330
AC
100
AcDbEntity
  8
0
  6
CONTINUOUS
 62
     7
100
AcDbCircle
 10
1574.000000000073
 20
817.8544501777219
 30
0.0
 40
3.844034632034633
100
AcDbArc
 50
49.4313750266144
 51
130.5686249733918
  0
LINE
  5
14D
330
AC
100
AcDbEntity
  8
0
  6
CONTINUOUS
 62
     7
100
AcDbLine
 10
1589.000000000073
 20
821.6984848097568
 30
0.0
 11
1574.000000000073
 21
821.6984848097568
 31
0.0
  0
LINE
  5
14E
330
AC
100
AcDbEntity
  8
0
  6
CONTINUOUS
 62
     7
100
AcDbLine
 10
1571.000000000072
 20
813.2984848097567
 30
0.0
 11
1592.000000000073
 21
813.2984848097567
 31
0.0
  0
LINE
  5
14F
330
AC
100
AcDbEntity
  8
0
  6
CONTINUOUS
 62
     7
100
AcDbLine
 10
1591.500000000073
 20
813.2984848097567
 30
0.0
 11
1591.500000000073
 21
820.7744848097568
 31
0.0
  0
LINE
  5
150
330
AC
100
AcDbEntity
  8
0
  6
CONTINUOUS
 62
     7
100
AcDbLine
 10
1571.000000000072
 20
813.2984848097567
 30
0.0
 11
1571.000000000072
 21
811.2984848097558
 31
0.0
  0
LINE
  5
151
330
AC
100
AcDbEntity
  8
0
  6
CONTINUOUS
 62
     7
100
AcDbLine
 10
1592.000000000073
 20
813.2984848097567
 30
0.0
 11
1592.000000000073
 21
811.2984848097558
 31
0.0
  0
LINE
  5
152
330
AC
100
AcDbEntity
  8
0
  6
CONTINUOUS
 62
     7
100
AcDbLine
 10
1576.500000000073
 20
790.2024848097562
 30
0.0
 11
1576.500000000073
 21
811.2984848097558
 31
0.0
  0
LINE
  5
153
330
AC
100
AcDbEntity
  8
0
  6
CONTINUOUS
 62
     7
100
AcDbLine
 10
1577.500000000073
 20
811.2984848097568
 30
0.0
 11
1577.500000000073
 21
800.8984848097566
 31
0.0
  0
LINE
  5
154
330
AC
100
AcDbEntity
  8
0
  6
CONTINUOUS
 62
     7
100
AcDbLine
 10
1585.500000000072
 20
811.2984848097568
 30
0.0
 11
1585.500000000072
 21
800.8984848097566
 31
0.0
  0
LINE
  5
155
330
AC
100
AcDbEntity
  8
0
  6
CONTINUOUS
 62
     7
100
AcDbLine
 10
1586.500000000073
 20
790.2024848097562
 30
0.0
 11
1586.500000000073
 21
811.2984848097558
 31
0.0
  0
LINE
  5
156
330
AC
100
AcDbEntity
  8
0
  6
CONTINUOUS
 62
     7
100
AcDbLine
 10
1585.500000000072
 20
800.8984848097566
 30
0.0
 11
1586.500000000073
 21
799.8984848097562
 31
0.0
  0
LINE
  5
157
330
AC
100
AcDbEntity
  8
0
  6
CONTINUOUS
 62
     7
100
AcDbLine
 10
1586.500000000073
 20
800.8984848097566
 30
0.0
 11
1576.500000000073
 21
800.8984848097566
 31
0.0
  0
LINE
  5
158
330
AC
100
AcDbEntity
  8
0
  6
CONTINUOUS
 62
     7
100
AcDbLine
 10
1577.500000000073
 20
800.8984848097566
 30
0.0
 11
1576.500000000073
 21
799.8984848097562
 31
0.0
  0
ARC
  5
159
330
AC
100
AcDbEntity
  8
0
  6
CONTINUOUS
 62
     7
100
AcDbCircle
 10
1581.500000000073
 20
807.6061666279384
 30
0.0
 40
18.10768181818181
100
AcDbArc
 50
253.9708781133825
 51
286.0291218866138
  0
ARC
  5
15A
330
AC
100
AcDbEntity
  8
0
  6
CONTINUOUS
 62
     7
100
AcDbCircle
 10
1589.000000000073
 20
794.2894052643019
 30
0.0
 40
4.790920454545454
100
AcDbArc
 50
238.5455606612373
 51
301.4544393387538
  0
LINE
  5
15B
330
AC
100
AcDbEntity
  8
0
  6
CONTINUOUS
 62
     7
100
AcDbLine
 10
1591.500000000073
 20
795.8984848097562
 30
0.0
 11
1591.500000000073
 21
790.2024848097562
 31
0.0
  0
LINE
  5
15C
330
AC
100
AcDbEntity
  8
0
  6
CONTINUOUS
 62
     7
100
AcDbLine
 10
1574.000000000073
 20
789.4984848097565
 30
0.0
 11
1589.000000000073
 21
789.4984848097565
 31
0.0
  0
ARC
  5
15D
330
AC
100
AcDbEntity
  8
0
  6
CONTINUOUS
 62
     7
100
AcDbCircle
 10
1574.000000000073
 20
794.2894052643019
 30
0.0
 40
4.790920454545454
100
AcDbArc
 50
238.5455606612373
 51
301.4544393387538
  0
LINE
  5
15E
330
AC
100
AcDbEntity
  8
0
  6
CONTINUOUS
 62
     7
100
AcDbLine
 10
1571.500000000073
 20
795.8984848097562
 30
0.0
 11
1571.500000000073
 21
790.2024848097562
 31
0.0
  0
LINE
  5
15F
330
AC
100
AcDbEntity
  8
0
  6
CONTINUOUS
 62
     7
100
AcDbLine
 10
1591.500000000077
 20
794.4842712473798
 30
0.0
 11
1591.956881618645
 21
794.0273896288122
 31
0.0
  0
LINE
  5
160
330
AC
100
AcDbEntity
  8
0
  6
CONTINUOUS
 62
     7
100
AcDbLine
 10
1591.500000000071
 20
795.1913780285731
 30
0.0
 11
1592.305843406745
 21
794.3855346218979
 31
0.0
  0
LINE
  5
161
330
AC
100
AcDbEntity
  8
0
  6
CONTINUOUS
 62
     7
100
AcDbLine
 10
1591.500000000075
 20
795.8984848097543
 30
0.0
 11
1592.654805194867
 21
794.7436796149623
 31
0.0
  0
LINE
  5
162
330
AC
100
AcDbEntity
  8
0
  6
CONTINUOUS
 62
     7
100
AcDbLine
 10
1592.207106781257
 20
795.8984848097589
 30
0.0
 11
1593.00376698299
 21
795.1018246080271
 31
0.0
  0
LINE
  5
163
330
AC
100
AcDbEntity
  8
0
  6
CONTINUOUS
 62
     7
100
AcDbLine
 10
1592.914213562439
 20
795.898484809764
 30
0.0
 11
1593.352728771112
 21
795.4599696010911
 31
0.0
  0
LINE
  5
164
330
AC
100
AcDbEntity
  8
0
  6
CONTINUOUS
 62
     7
100
AcDbLine
 10
1591.500000000075
 20
793.5584848097565
 30
0.0
 11
1593.780000000075
 21
795.8984848097562
 31
0.0
  0
LINE
  5
165
330
AC
100
AcDbEntity
  8
0
  6
CONTINUOUS
 62
     7
100
AcDbLine
 10
1591.50000000006
 20
793.7771644662098
 30
0.0
 11
1591.607919830525
 21
793.6692446357474
 31
0.0
  0
LINE
  5
166
330
AC
100
AcDbEntity
  8
0
  6
CONTINUOUS
 62
     7
100
AcDbLine
 10
1593.62132034362
 20
795.8984848097693
 30
0.0
 11
1593.701690559222
 21
795.8181145941662
 31
0.0
  0
LINE
  5
167
330
AC
100
AcDbEntity
  8
0
  6
CONTINUOUS
 62
     7
100
AcDbLine
 10
1569.581855007007
 20
795.4874465978755
 30
0.0
 11
1569.992893218885
 21
795.898484809753
 31
0.0
  0
LINE
  5
168
330
AC
100
AcDbEntity
  8
0
  6
CONTINUOUS
 62
     7
100
AcDbLine
 10
1569.940000000071
 20
795.1384848097537
 30
0.0
 11
1570.700000000077
 21
795.8984848097589
 31
0.0
  0
LINE
  5
169
330
AC
100
AcDbEntity
  8
0
  6
CONTINUOUS
 62
     7
100
AcDbLine
 10
1570.298144993136
 20
794.7895230216309
 30
0.0
 11
1571.407106781247
 21
795.8984848097425
 31
0.0
  0
LINE
  5
16A
330
AC
100
AcDbEntity
  8
0
  6
CONTINUOUS
 62
     7
100
AcDbLine
 10
1570.656289986223
 20
794.4405612335322
 30
0.0
 11
1571.50000000006
 21
795.284271247368
 31
0.0
  0
LINE
  5
16B
330
AC
100
AcDbEntity
  8
0
  6
CONTINUOUS
 62
     7
100
AcDbLine
 10
1571.014434979287
 20
794.091599445409
 30
0.0
 11
1571.500000000076
 21
794.5771644661991
 31
0.0
  0
LINE
  5
16C
330
AC
100
AcDbEntity
  8
0
  6
CONTINUOUS
 62
     7
100
AcDbLine
 10
1571.372579972351
 20
793.7426376572867
 30
0.0
 11
1571.50000000007
 21
793.8700576850056
 31
0.0
  0
LINE
  5
16D
330
AC
100
AcDbEntity
  8
0
  6
CONTINUOUS
 62
     7
100
AcDbLine
 10
1569.160000000072
 20
795.8984848097543
 30
0.0
 11
1571.500000000073
 21
793.6184848097555
 31
0.0
  0
LINE
  5
16E
330
AC
100
AcDbEntity
  8
0
  6
CONTINUOUS
 62
     7
100
AcDbLine
 10
1569.223710013932
 20
795.8364083859865
 30
0.0
 11
1569.285786437703
 21
795.8984848097584
 31
0.0
  0
ENDBLK
  5
AE
330
AC
100
AcDbEntity
  8
0
100
AcDbBlockEnd
  0
BLOCK
  5
B0
330
AF
100
AcDbEntity
  8
0
100
AcDbBlockBegin
  2
SYM-5
 70
     0
 10
0.0
 20
0.0
 30
0.0
  3
SYM-5
  1

  0
CIRCLE
  5
16F
330
AF
100
AcDbEntity
  8
0
  6
CONTINUOUS
 62
     7
100
AcDbCircle
 10
1581.500000000002
 20
1391.898484809727
 30
0.0
 40
10.50000000000041
  0
CIRCLE
  5
170
330
AF
100
AcDbEntity
  8
0
  6
CONTINUOUS
 62
     7
100
AcDbCircle
 10
1581.500000000002
 20
1391.898484809727
 30
0.0
 40
8.66025403784441
  0
LINE
  5
171
330
AF
100
AcDbEntity
  8
0
  6
CONTINUOUS
 62
     7
100
AcDbLine
 10
1572.839745962158
 20
1396.898484809727
 30
0.0
 11
1572.839745962158
 21
1386.898484809728
 31
0.0
  0
LINE
  5
172
330
AF
100
AcDbEntity
  8
0
  6
CONTINUOUS
 62
     7
100
AcDbLine
 10
1572.839745962158
 20
1386.898484809728
 30
0.0
 11
1581.500000000002
 21
1381.898484809727
 31
0.0
  0
LINE
  5
173
330
AF
100
AcDbEntity
  8
0
  6
CONTINUOUS
 62
     7
100
AcDbLine
 10
1581.500000000002
 20
1381.898484809727
 30
0.0
 11
1590.160254037845
 21
1386.898484809728
 31
0.0
  0
LINE
  5
174
330
AF
100
AcDbEntity
  8
0
  6
CONTINUOUS
 62
     7
100
AcDbLine
 10
1590.160254037845
 20
1396.898484809727
 30
0.0
 11
1581.500000000002
 21
1401.898484809728
 31
0.0
  0
LINE
  5
175
330
AF
100
AcDbEntity
  8
0
  6
CONTINUOUS
 62
     7
100
AcDbLine
 10
1581.500000000002
 20
1401.898484809728
 30
0.0
 11
1572.839745962158
 21
1396.898484809727
 31
0.0
  0
CIRCLE
  5
176
330
AF
100
AcDbEntity
  8
0
  6
CONTINUOUS
 62
     7
100
AcDbCircle
 10
1581.500000000002
 20
1391.898484809727
 30
0.0
 40
5.0
  0
CIRCLE
  5
177
330
AF
100
AcDbEntity
  8
0
  6
CONTINUOUS
 62
     7
100
AcDbCircle
 10
1581.500000000002
 20
1391.898484809727
 30
0.0
 40
4.0
  0
LINE
  5
178
330
AF
100
AcDbEntity
  8
0
  6
CONTINUOUS
 62
     7
100
AcDbLine
 10
1590.160254037845
 20
1386.898484809728
 30
0.0
 11
1590.160254037845
 21
1396.898484809727
 31
0.0
  0
ENDBLK
  5
B1
330
AF
100
AcDbEntity
  8
0
100
AcDbBlockEnd
  0
BLOCK
  5
B3
330
B2
100
AcDbEntity
  8
0
100
AcDbBlockBegin
  2
SYM-6
 70
     0
 10
0.0
 20
0.0
 30
0.0
  3
SYM-6
  1

  0
CIRCLE
  5
179
330
B2
100
AcDbEntity
  8
0
  6
CONTINUOUS
 62
     7
100
AcDbCircle
 10
1581.500000000001
 20
2341.898484809745
 30
0.0
 40
10.50000000000041
  0
CIRCLE
  5
17A
330
B2
100
AcDbEntity
  8
0
  6
CONTINUOUS
 62
     7
100
AcDbCircle
 10
1581.500000000001
 20
2341.898484809745
 30
0.0
 40
8.66025403784441
  0
LINE
  5
17B
330
B2
100
AcDbEntity
  8
0
  6
CONTINUOUS
 62
     7
100
AcDbLine
 10
1572.839745962157
 20
2336.898484809745
 30
0.0
 11
1572.839745962157
 21
2346.898484809744
 31
0.0
  0
LINE
  5
17C
330
B2
100
AcDbEntity
  8
0
  6
CONTINUOUS
 62
     7
100
AcDbLine
 10
1572.839745962157
 20
2346.898484809744
 30
0.0
 11
1581.500000000001
 21
2351.898484809745
 31
0.0
  0
LINE
  5
17D
330
B2
100
AcDbEntity
  8
0
  6
CONTINUOUS
 62
     7
100
AcDbLine
 10
1581.500000000001
 20
2351.898484809745
 30
0.0
 11
1590.160254037845
 21
2346.898484809744
 31
0.0
  0
LINE
  5
17E
330
B2
100
AcDbEntity
  8
0
  6
CONTINUOUS
 62
     7
100
AcDbLine
 10
1590.160254037845
 20
2336.898484809745
 30
0.0
 11
1581.500000000001
 21
2331.898484809744
 31
0.0
  0
LINE
  5
17F
330
B2
100
AcDbEntity
  8
0
  6
CONTINUOUS
 62
     7
100
AcDbLine
 10
1581.500000000001
 20
2331.898484809744
 30
0.0
 11
1572.839745962157
 21
2336.898484809745
 31
0.0
  0
CIRCLE
  5
180
330
B2
100
AcDbEntity
  8
0
  6
CONTINUOUS
 62
     7
100
AcDbCircle
 10
1581.500000000001
 20
2341.898484809745
 30
0.0
 40
5.0
  0
CIRCLE
  5
181
330
B2
100
AcDbEntity
  8
0
  6
CONTINUOUS
 62
     7
100
AcDbCircle
 10
1581.500000000001
 20
2341.898484809745
 30
0.0
 40
4.0
  0
LINE
  5
182
330
B2
100
AcDbEntity
  8
0
  6
CONTINUOUS
 62
     7
100
AcDbLine
 10
1590.160254037845
 20
2346.898484809744
 30
0.0
 11
1590.160254037845
 21
2336.898484809745
 31
0.0
  0
ENDBLK
  5
B4
330
B2
100
AcDbEntity
  8
0
100
AcDbBlockEnd
  0
BLOCK
  5
B6
330
B5
100
AcDbEntity
  8
0
100
AcDbBlockBegin
  2
SYM-7
 70
     0
 10
0.0
 20
0.0
 30
0.0
  3
SYM-7
  1

  0
CIRCLE
  5
183
330
B5
100
AcDbEntity
  8
0
  6
CONTINUOUS
 62
     7
100
AcDbCircle
 10
1581.500000000001
 20
1866.898484809695
 30
0.0
 40
10.50000000000041
  0
CIRCLE
  5
184
330
B5
100
AcDbEntity
  8
0
  6
CONTINUOUS
 62
     7
100
AcDbCircle
 10
1581.500000000001
 20
1866.898484809695
 30
0.0
 40
8.66025403784441
  0
LINE
  5
185
330
B5
100
AcDbEntity
  8
0
  6
CONTINUOUS
 62
     7
100
AcDbLine
 10
1572.839745962157
 20
1861.898484809695
 30
0.0
 11
1572.839745962157
 21
1871.898484809694
 31
0.0
  0
LINE
  5
186
330
B5
100
AcDbEntity
  8
0
  6
CONTINUOUS
 62
     7
100
AcDbLine
 10
1572.839745962157
 20
1871.898484809694
 30
0.0
 11
1581.500000000001
 21
1876.898484809695
 31
0.0
  0
LINE
  5
187
330
B5
100
AcDbEntity
  8
0
  6
CONTINUOUS
 62
     7
100
AcDbLine
 10
1581.500000000001
 20
1876.898484809695
 30
0.0
 11
1590.160254037845
 21
1871.898484809694
 31
0.0
  0
LINE
  5
188
330
B5
100
AcDbEntity
  8
0
  6
CONTINUOUS
 62
     7
100
AcDbLine
 10
1590.160254037845
 20
1861.898484809695
 30
0.0
 11
1581.500000000001
 21
1856.898484809694
 31
0.0
  0
LINE
  5
189
330
B5
100
AcDbEntity
  8
0
  6
CONTINUOUS
 62
     7
100
AcDbLine
 10
1581.500000000001
 20
1856.898484809694
 30
0.0
 11
1572.839745962157
 21
1861.898484809695
 31
0.0
  0
CIRCLE
  5
18A
330
B5
100
AcDbEntity
  8
0
  6
CONTINUOUS
 62
     7
100
AcDbCircle
 10
1581.500000000001
 20
1866.898484809695
 30
0.0
 40
5.0
  0
CIRCLE
  5
18B
330
B5
100
AcDbEntity
  8
0
  6
CONTINUOUS
 62
     7
100
AcDbCircle
 10
1581.500000000001
 20
1866.898484809695
 30
0.0
 40
4.0
  0
LINE
  5
18C
330
B5
100
AcDbEntity
  8
0
  6
CONTINUOUS
 62
     7
100
AcDbLine
 10
1590.160254037845
 20
1871.898484809694
 30
0.0
 11
1590.160254037845
 21
1861.898484809695
 31
0.0
  0
ENDBLK
  5
B7
330
B5
100
AcDbEntity
  8
0
100
AcDbBlockEnd
  0
BLOCK
  5
B9
330
B8
100
AcDbEntity
  8
0
100
AcDbBlockBegin
  2
SYM-8
 70
     0
 10
0.0
 20
0.0
 30
0.0
  3
SYM-8
  1

  0
CIRCLE
  5
18D
330
B8
100
AcDbEntity
  8
0
  6
CONTINUOUS
 62
     7
100
AcDbCircle
 10
1106.499999999972
 20
1391.898484809727
 30
0.0
 40
10.50000000000041
  0
CIRCLE
  5
18E
330
B8
100
AcDbEntity
  8
0
  6
CONTINUOUS
 62
     7
100
AcDbCircle
 10
1106.499999999972
 20
1391.898484809727
 30
0.0
 40
8.66025403784441
  0
LINE
  5
18F
330
B8
100
AcDbEntity
  8
0
  6
CONTINUOUS
 62
     7
100
AcDbLine
 10
1097.839745962128
 20
1396.898484809727
 30
0.0
 11
1097.839745962128
 21
1386.898484809728
 31
0.0
  0
LINE
  5
190
330
B8
100
AcDbEntity
  8
0
  6
CONTINUOUS
 62
     7
100
AcDbLine
 10
1097.839745962128
 20
1386.898484809728
 30
0.0
 11
1106.499999999972
 21
1381.898484809727
 31
0.0
  0
LINE
  5
191
330
B8
100
AcDbEntity
  8
0
  6
CONTINUOUS
 62
     7
100
AcDbLine
 10
1106.499999999972
 20
1381.898484809727
 30
0.0
 11
1115.160254037815
 21
1386.898484809728
 31
0.0
  0
LINE
  5
192
330
B8
100
AcDbEntity
  8
0
  6
CONTINUOUS
 62
     7
100
AcDbLine
 10
1115.160254037815
 20
1396.898484809727
 30
0.0
 11
1106.499999999972
 21
1401.898484809728
 31
0.0
  0
LINE
  5
193
330
B8
100
AcDbEntity
  8
0
  6
CONTINUOUS
 62
     7
100
AcDbLine
 10
1106.499999999972
 20
1401.898484809728
 30
0.0
 11
1097.839745962128
 21
1396.898484809727
 31
0.0
  0
CIRCLE
  5
194
330
B8
100
AcDbEntity
  8
0
  6
CONTINUOUS
 62
     7
100
AcDbCircle
 10
1106.499999999972
 20
1391.898484809727
 30
0.0
 40
5.0
  0
CIRCLE
  5
195
330
B8
100
AcDbEntity
  8
0
  6
CONTINUOUS
 62
     7
100
AcDbCircle
 10
1106.499999999972
 20
1391.898484809727
 30
0.0
 40
4.0
  0
LINE
  5
196
330
B8
100
AcDbEntity
  8
0
  6
CONTINUOUS
 62
     7
100
AcDbLine
 10
1115.160254037815
 20
1386.898484809728
 30
0.0
 11
1115.160254037815
 21
1396.898484809727
 31
0.0
  0
ENDBLK
  5
BA
330
B8
100
AcDbEntity
  8
0
100
AcDbBlockEnd
  0
BLOCK
  5
BC
330
BB
100
AcDbEntity
  8
0
100
AcDbBlockBegin
  2
SYM-9
 70
     0
 10
0.0
 20
0.0
 30
0.0
  3
SYM-9
  1

  0
LINE
  5
197
330
BB
100
AcDbEntity
  8
0
  6
CONTINUOUS
 62
     7
100
AcDbLine
 10
2121.164557874179
 20
2320.889020726917
 30
0.0
 11
2114.490929135985
 21
2327.562649465105
 31
0.0
  0
LINE
  5
198
330
BB
100
AcDbEntity
  8
0
  6
CONTINUOUS
 62
     7
100
AcDbLine
 10
2121.873018861176
 20
2321.594773302316
 30
0.0
 11
2114.843128320654
 21
2328.62466384252
 31
0.0
  0
LINE
  5
199
330
BB
100
AcDbEntity
  8
0
  6
CONTINUOUS
 62
     7
100
AcDbLine
 10
2122.443379115776
 20
2322.438626610016
 30
0.0
 11
2115.333428238006
 21
2329.548577488104
 31
0.0
  0
LINE
  5
19A
330
BB
100
AcDbEntity
  8
0
  6
CONTINUOUS
 62
     7
100
AcDbLine
 10
2122.880432838377
 20
2323.415786449817
 30
0.0
 11
2115.95703468707
 21
2330.339184601127
 31
0.0
  0
LINE
  5
19B
330
BB
100
AcDbEntity
  8
0
  6
CONTINUOUS
 62
     7
100
AcDbLine
 10
2123.106123516475
 20
2327.432736458816
 30
0.0
 11
2118.913324524277
 21
2331.625535451017
 31
0.0
  0
LINE
  5
19C
330
BB
100
AcDbEntity
  8
0
  6
CONTINUOUS
 62
     7
100
AcDbLine
 10
2123.283298484976
 20
2325.841347927918
 30
0.0
 11
2117.675489383976
 21
2331.449157028916
 31
0.0
  0
LINE
  5
19D
330
BB
100
AcDbEntity
  8
0
  6
CONTINUOUS
 62
     7
100
AcDbLine
 10
2123.172628740077
 20
2324.537804110517
 30
0.0
 11
2116.725498957176
 21
2330.984933893415
 31
0.0
  0
LINE
  5
19E
330
BB
100
AcDbEntity
  8
0
  6
CONTINUOUS
 62
     7
100
AcDbLine
 10
2120.293464155478
 20
2320.345900883217
 30
0.0
 11
2114.30136268278
 21
2326.338002355918
 31
0.0
  0
LINE
  5
19F
330
BB
100
AcDbEntity
  8
0
  6
CONTINUOUS
 62
     7
100
AcDbLine
 10
2119.192121455875
 20
2320.033030020516
 30
0.0
 11
2114.342045210675
 21
2324.883106265616
 31
0.0
  0
LINE
  5
1A0
330
BB
100
AcDbEntity
  8
0
  6
CONTINUOUS
 62
     7
100
AcDbLine
 10
2117.596091239575
 20
2320.214846674417
 30
0.0
 11
2114.877415255278
 21
2322.933522658716
 31
0.0
  0
ELLIPSE
  5
1A1
330
BB
100
AcDbEntity
  8
0
  6
CONTINUOUS
 62
     7
100
AcDbEllipse
 10
2118.783333333278
 20
2325.818484809716
 30
0.0
 11
-1.067183248068677E-15
 21
-5.809475019310011
 31
0.0
210
0.0
220
0.0
230
1.0
 40
0.774596669241632
 41
0.0
 42
6.283185307179586
  0
ENDBLK
  5
BD
330
BB
100
AcDbEntity
  8
0
100
AcDbBlockEnd
  0
BLOCK
  5
BF
330
BE
100
AcDbEntity
  8
0
100
AcDbBlockBegin
  2
SYM-10
 70
     0
 10
0.0
 20
0.0
 30
0.0
  3
SYM-10
  1

  0
LINE
  5
1A2
330
BE
100
AcDbEntity
  8
0
  6
CONTINUOUS
 62
     7
100
AcDbLine
 10
2121.164557874144
 20
1412.907948892483
 30
0.0
 11
2114.490929135975
 21
1406.234320154316
 31
0.0
  0
LINE
  5
1A3
330
BE
100
AcDbEntity
  8
0
  6
CONTINUOUS
 62
     7
100
AcDbLine
 10
2121.873018861053
 20
1412.202196317276
 30
0.0
 11
2114.843128320779
 21
1405.172305776716
 31
0.0
  0
LINE
  5
1A4
330
BE
100
AcDbEntity
  8
0
  6
CONTINUOUS
 62
     7
100
AcDbLine
 10
2122.443379115773
 20
1411.358343009412
 30
0.0
 11
2115.333428237876
 21
1404.248392131516
 31
0.0
  0
LINE
  5
1A5
330
BE
100
AcDbEntity
  8
0
  6
CONTINUOUS
 62
     7
100
AcDbLine
 10
2122.880432838389
 20
1410.381183169623
 30
0.0
 11
2115.957034687075
 21
1403.457785018317
 31
0.0
  0
LINE
  5
1A6
330
BE
100
AcDbEntity
  8
0
  6
CONTINUOUS
 62
     7
100
AcDbLine
 10
2123.106123516475
 20
1406.364233160616
 30
0.0
 11
2118.913324524277
 21
1402.171434168416
 31
0.0
  0
LINE
  5
1A7
330
BE
100
AcDbEntity
  8
0
  6
CONTINUOUS
 62
     7
100
AcDbLine
 10
2123.283298484976
 20
1407.955621691516
 30
0.0
 11
2117.675489383976
 21
1402.347812590517
 31
0.0
  0
LINE
  5
1A8
330
BE
100
AcDbEntity
  8
0
  6
CONTINUOUS
 62
     7
100
AcDbLine
 10
2123.172628740077
 20
1409.259165508917
 30
0.0
 11
2116.725498957176
 21
1402.812035726016
 31
0.0
  0
LINE
  5
1A9
330
BE
100
AcDbEntity
  8
0
  6
CONTINUOUS
 62
     7
100
AcDbLine
 10
2120.293464155478
 20
1413.451068736216
 30
0.0
 11
2114.30136268278
 21
1407.458967263517
 31
0.0
  0
LINE
  5
1AA
330
BE
100
AcDbEntity
  8
0
  6
CONTINUOUS
 62
     7
100
AcDbLine
 10
2119.192121455875
 20
1413.763939598917
 30
0.0
 11
2114.342045210675
 21
1408.913863353817
 31
0.0
  0
LINE
  5
1AB
330
BE
100
AcDbEntity
  8
0
  6
CONTINUOUS
 62
     7
100
AcDbLine
 10
2117.596091239575
 20
1413.582122945016
 30
0.0
 11
2114.877415255278
 21
1410.863446960717
 31
0.0
  0
ELLIPSE
  5
1AC
330
BE
100
AcDbEntity
  8
0
  6
CONTINUOUS
 62
     7
100
AcDbEllipse
 10
2118.783333333278
 20
1407.978484809717
 30
0.0
 11
-2.224197421612835E-15
 21
5.809475019310011
 31
0.0
210
0.0
220
0.0
230
1.0
 40
0.774596669241632
 41
0.0
 42
6.283185307179586
  0
ENDBLK
  5
C0
330
BE
100
AcDbEntity
  8
0
100
AcDbBlockEnd
  0
BLOCK
  5
C2
330
C1
100
AcDbEntity
  8
0
100
AcDbBlockBegin
  2
SYM-11
 70
     0
 10
0.0
 20
0.0
 30
0.0
  3
SYM-11
  1

  0
LINE
  5
1AD
330
C1
100
AcDbEntity
  8
0
  6
CONTINUOUS
 62
     7
100
AcDbLine
 10
2121.499999999976
 20
2337.898484809718
 30
0.0
 11
2122.49999999998
 21
2336.898484809716
 31
0.0
  0
LINE
  5
1AE
330
C1
100
AcDbEntity
  8
0
  6
CONTINUOUS
 62
     7
100
AcDbLine
 10
2121.499999999976
 20
2345.898484809718
 30
0.0
 11
2122.49999999998
 21
2346.898484809718
 31
0.0
  0
LINE
  5
1AF
330
C1
100
AcDbEntity
  8
0
  6
CONTINUOUS
 62
     7
100
AcDbLine
 10
2111.099999999977
 20
2345.898484809718
 30
0.0
 11
2121.499999999976
 21
2345.898484809718
 31
0.0
  0
LINE
  5
1B0
330
C1
100
AcDbEntity
  8
0
  6
CONTINUOUS
 62
     7
100
AcDbLine
 10
2111.099999999977
 20
2337.898484809718
 30
0.0
 11
2121.499999999976
 21
2337.898484809718
 31
0.0
  0
LINE
  5
1B1
330
C1
100
AcDbEntity
  8
0
  6
CONTINUOUS
 62
     7
100
AcDbLine
 10
2096.499999999976
 20
2337.898484809718
 30
0.0
 11
2100.699999999976
 21
2337.898484809718
 31
0.0
  0
LINE
  5
1B2
330
C1
100
AcDbEntity
  8
0
  6
CONTINUOUS
 62
     7
100
AcDbLine
 10
2097.499999999975
 20
2336.898484809716
 30
0.0
 11
2097.499999999975
 21
2346.898484809718
 31
0.0
  0
LINE
  5
1B3
330
C1
100
AcDbEntity
  8
0
  6
CONTINUOUS
 62
     7
100
AcDbLine
 10
2096.499999999976
 20
2345.898484809718
 30
0.0
 11
2100.699999999976
 21
2345.898484809718
 31
0.0
  0
LINE
  5
1B4
330
C1
100
AcDbEntity
  8
0
  6
CONTINUOUS
 62
     7
100
AcDbLine
 10
2126.499999999963
 20
2329.777164466171
 30
0.0
 11
2126.607919830429
 21
2329.669244635709
 31
0.0
  0
LINE
  5
1B5
330
C1
100
AcDbEntity
  8
0
  6
CONTINUOUS
 62
     7
100
AcDbLine
 10
2126.49999999997
 20
2330.484271247354
 30
0.0
 11
2126.956881618537
 21
2330.027389628784
 31
0.0
  0
LINE
  5
1B6
330
C1
100
AcDbEntity
  8
0
  6
CONTINUOUS
 62
     7
100
AcDbLine
 10
2126.499999999976
 20
2331.191378028535
 30
0.0
 11
2127.30584340666
 21
2330.385534621847
 31
0.0
  0
LINE
  5
1B7
330
C1
100
AcDbEntity
  8
0
  6
CONTINUOUS
 62
     7
100
AcDbLine
 10
2126.499999999966
 20
2331.898484809727
 30
0.0
 11
2127.654805194781
 21
2330.743679614913
 31
0.0
  0
LINE
  5
1B8
330
C1
100
AcDbEntity
  8
0
  6
CONTINUOUS
 62
     7
100
AcDbLine
 10
2127.207106781162
 20
2331.89848480972
 30
0.0
 11
2128.003766982893
 21
2331.101824607988
 31
0.0
  0
LINE
  5
1B9
330
C1
100
AcDbEntity
  8
0
  6
CONTINUOUS
 62
     7
100
AcDbLine
 10
2127.91421356234
 20
2331.898484809727
 30
0.0
 11
2128.352728771016
 21
2331.459969601053
 31
0.0
  0
LINE
  5
1BA
330
C1
100
AcDbEntity
  8
0
  6
CONTINUOUS
 62
     7
100
AcDbLine
 10
2128.621320343535
 20
2331.898484809718
 30
0.0
 11
2128.701690559138
 21
2331.818114594115
 31
0.0
  0
LINE
  5
1BB
330
C1
100
AcDbEntity
  8
0
  6
CONTINUOUS
 62
     7
100
AcDbLine
 10
2126.499999999976
 20
2329.558484809718
 30
0.0
 11
2128.779999999977
 21
2331.898484809718
 31
0.0
  0
LINE
  5
1BC
330
C1
100
AcDbEntity
  8
0
  6
CONTINUOUS
 62
     7
100
AcDbLine
 10
2126.499999999976
 20
2331.898484809718
 30
0.0
 11
2132.195999999974
 21
2331.898484809718
 31
0.0
  0
ARC
  5
1BD
330
C1
100
AcDbEntity
  8
0
  6
CONTINUOUS
 62
     7
100
AcDbCircle
 10
2128.109079545432
 20
2334.398484809718
 30
0.0
 40
4.790920454545454
100
AcDbArc
 50
328.5455606612239
 51
31.45443933877169
  0
ARC
  5
1BE
330
C1
100
AcDbEntity
  8
0
  6
CONTINUOUS
 62
     7
100
AcDbCircle
 10
2114.792318181792
 20
2341.898484809718
 30
0.0
 40
18.10768181818181
100
AcDbArc
 50
343.9708781133803
 51
16.02912188661214
  0
LINE
  5
1BF
330
C1
100
AcDbEntity
  8
0
  6
CONTINUOUS
 62
     7
100
AcDbLine
 10
2132.899999999975
 20
2334.398484809718
 30
0.0
 11
2132.899999999975
 21
2349.398484809718
 31
0.0
  0
ARC
  5
1C0
330
C1
100
AcDbEntity
  8
0
  6
CONTINUOUS
 62
     7
100
AcDbCircle
 10
2128.109079545432
 20
2349.398484809718
 30
0.0
 40
4.790920454545454
100
AcDbArc
 50
328.5455606612239
 51
31.45443933877169
  0
LINE
  5
1C1
330
C1
100
AcDbEntity
  8
0
  6
CONTINUOUS
 62
     7
100
AcDbLine
 10
2126.499999999976
 20
2351.898484809716
 30
0.0
 11
2132.195999999974
 21
2351.898484809716
 31
0.0
  0
LINE
  5
1C2
330
C1
100
AcDbEntity
  8
0
  6
CONTINUOUS
 62
     7
100
AcDbLine
 10
2128.621320343532
 20
2351.898484809714
 30
0.0
 11
2128.729240173973
 21
2352.006404640154
 31
0.0
  0
LINE
  5
1C3
330
C1
100
AcDbEntity
  8
0
  6
CONTINUOUS
 62
     7
100
AcDbLine
 10
2127.914213562338
 20
2351.898484809707
 30
0.0
 11
2128.371095180907
 21
2352.355366428276
 31
0.0
  0
LINE
  5
1C4
330
C1
100
AcDbEntity
  8
0
  6
CONTINUOUS
 62
     7
100
AcDbLine
 10
2127.207106781146
 20
2351.898484809702
 30
0.0
 11
2128.012950187843
 21
2352.704328216397
 31
0.0
  0
LINE
  5
1C5
330
C1
100
AcDbEntity
  8
0
  6
CONTINUOUS
 62
     7
100
AcDbLine
 10
2126.499999999964
 20
2351.898484809707
 30
0.0
 11
2127.654805194768
 21
2353.053290004508
 31
0.0
  0
LINE
  5
1C6
330
C1
100
AcDbEntity
  8
0
  6
CONTINUOUS
 62
     7
100
AcDbLine
 10
2126.499999999981
 20
2352.605591590912
 30
0.0
 11
2127.296660201708
 21
2353.402251792632
 31
0.0
  0
LINE
  5
1C7
330
C1
100
AcDbEntity
  8
0
  6
CONTINUOUS
 62
     7
100
AcDbLine
 10
2126.499999999976
 20
2353.312698372093
 30
0.0
 11
2126.93851520864
 21
2353.751213580753
 31
0.0
  0
LINE
  5
1C8
330
C1
100
AcDbEntity
  8
0
  6
CONTINUOUS
 62
     7
100
AcDbLine
 10
2126.499999999983
 20
2354.019805153285
 30
0.0
 11
2126.580370215564
 21
2354.100175368866
 31
0.0
  0
LINE
  5
1C9
330
C1
100
AcDbEntity
  8
0
  6
CONTINUOUS
 62
     7
100
AcDbLine
 10
2128.839999999974
 20
2351.89848480972
 30
0.0
 11
2126.499999999976
 21
2354.178484809719
 31
0.0
  0
LINE
  5
1CA
330
C1
100
AcDbEntity
  8
0
  6
CONTINUOUS
 62
     7
100
AcDbLine
 10
2121.499999999976
 20
2346.898484809718
 30
0.0
 11
2121.499999999976
 21
2336.898484809716
 31
0.0
  0
LINE
  5
1CB
330
C1
100
AcDbEntity
  8
0
  6
CONTINUOUS
 62
     7
100
AcDbLine
 10
2132.195999999974
 20
2346.898484809718
 30
0.0
 11
2111.099999999977
 21
2346.898484809718
 31
0.0
  0
LINE
  5
1CC
330
C1
100
AcDbEntity
  8
0
  6
CONTINUOUS
 62
     7
100
AcDbLine
 10
2132.195999999974
 20
2336.898484809716
 30
0.0
 11
2111.099999999977
 21
2336.898484809716
 31
0.0
  0
LINE
  5
1CD
330
C1
100
AcDbEntity
  8
0
  6
CONTINUOUS
 62
     7
100
AcDbLine
 10
2109.099999999979
 20
2331.398484809718
 30
0.0
 11
2111.099999999977
 21
2331.398484809718
 31
0.0
  0
LINE
  5
1CE
330
C1
100
AcDbEntity
  8
0
  6
CONTINUOUS
 62
     7
100
AcDbLine
 10
2109.099999999979
 20
2352.398484809718
 30
0.0
 11
2111.099999999977
 21
2352.398484809718
 31
0.0
  0
LINE
  5
1CF
330
C1
100
AcDbEntity
  8
0
  6
CONTINUOUS
 62
     7
100
AcDbLine
 10
2109.099999999979
 20
2331.398484809718
 30
0.0
 11
2109.099999999979
 21
2352.398484809718
 31
0.0
  0
LINE
  5
1D0
330
C1
100
AcDbEntity
  8
0
  6
CONTINUOUS
 62
     7
100
AcDbLine
 10
2100.699999999976
 20
2349.398484809718
 30
0.0
 11
2100.699999999976
 21
2334.398484809718
 31
0.0
  0
ARC
  5
1D1
330
C1
100
AcDbEntity
  8
0
  6
CONTINUOUS
 62
     7
100
AcDbCircle
 10
2104.544034632011
 20
2334.398484809718
 30
0.0
 40
3.844034632034633
100
AcDbArc
 50
139.4313750265994
 51
220.5686249734146
  0
ARC
  5
1D2
330
C1
100
AcDbEntity
  8
0
  6
CONTINUOUS
 62
     7
100
AcDbCircle
 10
2114.690138528115
 20
2341.898484809718
 30
0.0
 40
13.99013852813853
100
AcDbArc
 50
159.0597243938601
 51
200.9402756061523
  0
ARC
  5
1D3
330
C1
100
AcDbEntity
  8
0
  6
CONTINUOUS
 62
     7
100
AcDbCircle
 10
2104.544034632011
 20
2349.398484809718
 30
0.0
 40
3.844034632034633
100
AcDbArc
 50
139.4313750265994
 51
220.5686249734146
  0
LINE
  5
1D4
330
C1
100
AcDbEntity
  8
0
  6
CONTINUOUS
 62
     7
100
AcDbLine
 10
2109.099999999979
 20
2331.898484809718
 30
0.0
 11
2101.623999999977
 21
2331.898484809718
 31
0.0
  0
LINE
  5
1D5
330
C1
100
AcDbEntity
  8
0
  6
CONTINUOUS
 62
     7
100
AcDbLine
 10
2109.099999999979
 20
2351.898484809716
 30
0.0
 11
2101.623999999977
 21
2351.898484809716
 31
0.0
  0
LINE
  5
1D6
330
C1
100
AcDbEntity
  8
0
  6
CONTINUOUS
 62
     7
100
AcDbLine
 10
2109.099999999979
 20
2336.898484809716
 30
0.0
 11
2101.623999999977
 21
2336.898484809716
 31
0.0
  0
LINE
  5
1D7
330
C1
100
AcDbEntity
  8
0
  6
CONTINUOUS
 62
     7
100
AcDbLine
 10
2109.099999999979
 20
2346.898484809718
 30
0.0
 11
2101.623999999977
 21
2346.898484809718
 31
0.0
  0
LINE
  5
1D8
330
C1
100
AcDbEntity
  8
0
  6
CONTINUOUS
 62
     7
100
AcDbLine
 10
2100.699999999976
 20
2336.898484809716
 30
0.0
 11
2097.499999999975
 21
2336.898484809716
 31
0.0
  0
LINE
  5
1D9
330
C1
100
AcDbEntity
  8
0
  6
CONTINUOUS
 62
     7
100
AcDbLine
 10
2100.699999999976
 20
2346.898484809718
 30
0.0
 11
2097.499999999975
 21
2346.898484809718
 31
0.0
  0
LINE
  5
1DA
330
C1
100
AcDbEntity
  8
0
  6
CONTINUOUS
 62
     7
100
AcDbLine
 10
2096.499999999976
 20
2337.898484809718
 30
0.0
 11
2096.499999999976
 21
2345.898484809718
 31
0.0
  0
LINE
  5
1DB
330
C1
100
AcDbEntity
  8
0
  6
CONTINUOUS
 62
     7
100
AcDbLine
 10
2097.499999999975
 20
2346.898484809718
 30
0.0
 11
2096.499999999976
 21
2345.898484809718
 31
0.0
  0
LINE
  5
1DC
330
C1
100
AcDbEntity
  8
0
  6
CONTINUOUS
 62
     7
100
AcDbLine
 10
2097.499999999975
 20
2336.898484809716
 30
0.0
 11
2096.499999999976
 21
2337.898484809718
 31
0.0
  0
ENDBLK
  5
C3
330
C1
100
AcDbEntity
  8
0
100
AcDbBlockEnd
  0
BLOCK
  5
C5
330
C4
100
AcDbEntity
  8
0
100
AcDbBlockBegin
  2
SYM-12
 70
     0
 10
0.0
 20
0.0
 30
0.0
  3
SYM-12
  1

  0
LINE
  5
1DD
330
C4
100
AcDbEntity
  8
0
  6
CONTINUOUS
 62
     7
100
AcDbLine
 10
2121.499999999976
 20
1387.898484809715
 30
0.0
 11
2122.49999999998
 21
1386.898484809716
 31
0.0
  0
LINE
  5
1DE
330
C4
100
AcDbEntity
  8
0
  6
CONTINUOUS
 62
     7
100
AcDbLine
 10
2121.499999999976
 20
1395.898484809715
 30
0.0
 11
2122.49999999998
 21
1396.898484809716
 31
0.0
  0
LINE
  5
1DF
330
C4
100
AcDbEntity
  8
0
  6
CONTINUOUS
 62
     7
100
AcDbLine
 10
2111.099999999977
 20
1395.898484809715
 30
0.0
 11
2121.499999999976
 21
1395.898484809715
 31
0.0
  0
LINE
  5
1E0
330
C4
100
AcDbEntity
  8
0
  6
CONTINUOUS
 62
     7
100
AcDbLine
 10
2111.099999999977
 20
1387.898484809715
 30
0.0
 11
2121.499999999976
 21
1387.898484809715
 31
0.0
  0
LINE
  5
1E1
330
C4
100
AcDbEntity
  8
0
  6
CONTINUOUS
 62
     7
100
AcDbLine
 10
2096.499999999976
 20
1387.898484809715
 30
0.0
 11
2102.699999999974
 21
1387.898484809715
 31
0.0
  0
LINE
  5
1E2
330
C4
100
AcDbEntity
  8
0
  6
CONTINUOUS
 62
     7
100
AcDbLine
 10
2097.499999999975
 20
1386.898484809716
 30
0.0
 11
2097.499999999975
 21
1396.898484809716
 31
0.0
  0
LINE
  5
1E3
330
C4
100
AcDbEntity
  8
0
  6
CONTINUOUS
 62
     7
100
AcDbLine
 10
2096.499999999976
 20
1395.898484809715
 30
0.0
 11
2102.699999999974
 21
1395.898484809715
 31
0.0
  0
LINE
  5
1E4
330
C4
100
AcDbEntity
  8
0
  6
CONTINUOUS
 62
     7
100
AcDbLine
 10
2126.499999999976
 20
1401.898484809716
 30
0.0
 11
2132.195999999974
 21
1401.898484809716
 31
0.0
  0
LINE
  5
1E5
330
C4
100
AcDbEntity
  8
0
  6
CONTINUOUS
 62
     7
100
AcDbLine
 10
2128.839999999974
 20
1401.898484809718
 30
0.0
 11
2126.499999999976
 21
1404.178484809717
 31
0.0
  0
LINE
  5
1E6
330
C4
100
AcDbEntity
  8
0
  6
CONTINUOUS
 62
     7
100
AcDbLine
 10
2126.499999999989
 20
1404.019805153288
 30
0.0
 11
2126.580370215568
 21
1404.100175368867
 31
0.0
  0
LINE
  5
1E7
330
C4
100
AcDbEntity
  8
0
  6
CONTINUOUS
 62
     7
100
AcDbLine
 10
2126.499999999981
 20
1403.312698372094
 30
0.0
 11
2126.938515208632
 21
1403.751213580745
 31
0.0
  0
LINE
  5
1E8
330
C4
100
AcDbEntity
  8
0
  6
CONTINUOUS
 62
     7
100
AcDbLine
 10
2126.499999999976
 20
1402.605591590902
 30
0.0
 11
2127.296660201708
 21
1403.402251792635
 31
0.0
  0
LINE
  5
1E9
330
C4
100
AcDbEntity
  8
0
  6
CONTINUOUS
 62
     7
100
AcDbLine
 10
2126.499999999956
 20
1401.898484809696
 30
0.0
 11
2127.654805194773
 21
1403.053290004512
 31
0.0
  0
LINE
  5
1EA
330
C4
100
AcDbEntity
  8
0
  6
CONTINUOUS
 62
     7
100
AcDbLine
 10
2127.20710678115
 20
1401.898484809702
 30
0.0
 11
2128.012950187834
 21
1402.704328216389
 31
0.0
  0
LINE
  5
1EB
330
C4
100
AcDbEntity
  8
0
  6
CONTINUOUS
 62
     7
100
AcDbLine
 10
2127.914213562342
 20
1401.89848480971
 30
0.0
 11
2128.37109518091
 21
1402.355366428278
 31
0.0
  0
LINE
  5
1EC
330
C4
100
AcDbEntity
  8
0
  6
CONTINUOUS
 62
     7
100
AcDbLine
 10
2128.621320343525
 20
1401.898484809705
 30
0.0
 11
2128.729240173978
 21
1402.006404640157
 31
0.0
  0
LINE
  5
1ED
330
C4
100
AcDbEntity
  8
0
  6
CONTINUOUS
 62
     7
100
AcDbLine
 10
2126.499999999972
 20
1379.777164466162
 30
0.0
 11
2126.607919830422
 21
1379.66924463571
 31
0.0
  0
LINE
  5
1EE
330
C4
100
AcDbEntity
  8
0
  6
CONTINUOUS
 62
     7
100
AcDbLine
 10
2126.499999999976
 20
1379.558484809717
 30
0.0
 11
2128.779999999977
 21
1381.898484809716
 31
0.0
  0
LINE
  5
1EF
330
C4
100
AcDbEntity
  8
0
  6
CONTINUOUS
 62
     7
100
AcDbLine
 10
2128.62132034353
 20
1381.89848480972
 30
0.0
 11
2128.701690559135
 21
1381.818114594118
 31
0.0
  0
LINE
  5
1F0
330
C4
100
AcDbEntity
  8
0
  6
CONTINUOUS
 62
     7
100
AcDbLine
 10
2127.914213562348
 20
1381.898484809716
 30
0.0
 11
2128.352728771009
 21
1381.459969601054
 31
0.0
  0
LINE
  5
1F1
330
C4
100
AcDbEntity
  8
0
  6
CONTINUOUS
 62
     7
100
AcDbLine
 10
2127.207106781155
 20
1381.898484809723
 30
0.0
 11
2128.0037669829
 21
1381.101824607979
 31
0.0
  0
LINE
  5
1F2
330
C4
100
AcDbEntity
  8
0
  6
CONTINUOUS
 62
     7
100
AcDbLine
 10
2126.499999999963
 20
1381.89848480973
 30
0.0
 11
2127.654805194781
 21
1380.743679614914
 31
0.0
  0
LINE
  5
1F3
330
C4
100
AcDbEntity
  8
0
  6
CONTINUOUS
 62
     7
100
AcDbLine
 10
2126.49999999997
 20
1381.191378028536
 30
0.0
 11
2127.305843406654
 21
1380.38553462185
 31
0.0
  0
LINE
  5
1F4
330
C4
100
AcDbEntity
  8
0
  6
CONTINUOUS
 62
     7
100
AcDbLine
 10
2126.499999999976
 20
1380.484271247344
 30
0.0
 11
2126.956881618545
 21
1380.027389628775
 31
0.0
  0
LINE
  5
1F5
330
C4
100
AcDbEntity
  8
0
  6
CONTINUOUS
 62
     7
100
AcDbLine
 10
2126.499999999976
 20
1381.898484809716
 30
0.0
 11
2132.195999999974
 21
1381.898484809716
 31
0.0
  0
ARC
  5
1F6
330
C4
100
AcDbEntity
  8
0
  6
CONTINUOUS
 62
     7
100
AcDbCircle
 10
2128.109079545432
 20
1384.398484809716
 30
0.0
 40
4.790920454545454
100
AcDbArc
 50
328.5455606612213
 51
31.45443933877633
  0
LINE
  5
1F7
330
C4
100
AcDbEntity
  8
0
  6
CONTINUOUS
 62
     7
100
AcDbLine
 10
2132.899999999975
 20
1384.398484809716
 30
0.0
 11
2132.899999999975
 21
1399.398484809715
 31
0.0
  0
ARC
  5
1F8
330
C4
100
AcDbEntity
  8
0
  6
CONTINUOUS
 62
     7
100
AcDbCircle
 10
2114.792318181792
 20
1391.898484809715
 30
0.0
 40
18.10768181818181
100
AcDbArc
 50
343.9708781133889
 51
16.02912188661214
  0
ARC
  5
1F9
330
C4
100
AcDbEntity
  8
0
  6
CONTINUOUS
 62
     7
100
AcDbCircle
 10
2128.109079545432
 20
1399.398484809715
 30
0.0
 40
4.790920454545454
100
AcDbArc
 50
328.5455606612239
 51
31.45443933877633
  0
LINE
  5
1FA
330
C4
100
AcDbEntity
  8
0
  6
CONTINUOUS
 62
     7
100
AcDbLine
 10
2121.499999999976
 20
1396.898484809716
 30
0.0
 11
2121.499999999976
 21
1386.898484809716
 31
0.0
  0
LINE
  5
1FB
330
C4
100
AcDbEntity
  8
0
  6
CONTINUOUS
 62
     7
100
AcDbLine
 10
2132.195999999974
 20
1386.898484809716
 30
0.0
 11
2103.623999999975
 21
1386.898484809716
 31
0.0
  0
LINE
  5
1FC
330
C4
100
AcDbEntity
  8
0
  6
CONTINUOUS
 62
     7
100
AcDbLine
 10
2132.195999999974
 20
1396.898484809716
 30
0.0
 11
2103.623999999975
 21
1396.898484809716
 31
0.0
  0
LINE
  5
1FD
330
C4
100
AcDbEntity
  8
0
  6
CONTINUOUS
 62
     7
100
AcDbLine
 10
2097.499999999975
 20
1386.898484809716
 30
0.0
 11
2096.499999999976
 21
1387.898484809715
 31
0.0
  0
LINE
  5
1FE
330
C4
100
AcDbEntity
  8
0
  6
CONTINUOUS
 62
     7
100
AcDbLine
 10
2097.499999999975
 20
1396.898484809716
 30
0.0
 11
2096.499999999976
 21
1395.898484809715
 31
0.0
  0
LINE
  5
1FF
330
C4
100
AcDbEntity
  8
0
  6
CONTINUOUS
 62
     7
100
AcDbLine
 10
2096.499999999976
 20
1387.898484809715
 30
0.0
 11
2096.499999999976
 21
1395.898484809715
 31
0.0
  0
LINE
  5
200
330
C4
100
AcDbEntity
  8
0
  6
CONTINUOUS
 62
     7
100
AcDbLine
 10
2102.699999999974
 20
1396.898484809716
 30
0.0
 11
2097.499999999975
 21
1396.898484809716
 31
0.0
  0
LINE
  5
201
330
C4
100
AcDbEntity
  8
0
  6
CONTINUOUS
 62
     7
100
AcDbLine
 10
2102.699999999974
 20
1386.898484809716
 30
0.0
 11
2097.499999999975
 21
1386.898484809716
 31
0.0
  0
LINE
  5
202
330
C4
100
AcDbEntity
  8
0
  6
CONTINUOUS
 62
     7
100
AcDbLine
 10
2111.099999999977
 20
1401.898484809715
 30
0.0
 11
2103.623999999975
 21
1401.898484809715
 31
0.0
  0
LINE
  5
203
330
C4
100
AcDbEntity
  8
0
  6
CONTINUOUS
 62
     7
100
AcDbLine
 10
2111.099999999977
 20
1381.898484809716
 30
0.0
 11
2103.623999999975
 21
1381.898484809716
 31
0.0
  0
ARC
  5
204
330
C4
100
AcDbEntity
  8
0
  6
CONTINUOUS
 62
     7
100
AcDbCircle
 10
2106.544034632014
 20
1399.398484809715
 30
0.0
 40
3.844034632034633
100
AcDbArc
 50
139.4313750266288
 51
220.5686249733687
  0
ARC
  5
205
330
C4
100
AcDbEntity
  8
0
  6
CONTINUOUS
 62
     7
100
AcDbCircle
 10
2116.690138528113
 20
1391.898484809715
 30
0.0
 40
13.99013852813853
100
AcDbArc
 50
159.0597243938583
 51
200.9402756061408
  0
ARC
  5
206
330
C4
100
AcDbEntity
  8
0
  6
CONTINUOUS
 62
     7
100
AcDbCircle
 10
2106.544034632014
 20
1384.398484809715
 30
0.0
 40
3.844034632034633
100
AcDbArc
 50
139.4313750266313
 51
220.5686249733714
  0
LINE
  5
207
330
C4
100
AcDbEntity
  8
0
  6
CONTINUOUS
 62
     7
100
AcDbLine
 10
2102.699999999974
 20
1399.398484809715
 30
0.0
 11
2102.699999999974
 21
1384.398484809715
 31
0.0
  0
ENDBLK
  5
C6
330
C4
100
AcDbEntity
  8
0
100
AcDbBlockEnd
  0
BLOCK
  5
448
330
447
100
AcDbEntity
  8
0
100
AcDbBlockBegin
  2
*D27
 70
     1
 10
0.0
 20
0.0
 30
0.0
  3
*D27
  1

  0
LINE
  5
44A
330
447
100
AcDbEntity
  8
LAY-20
  6
CONTINUOUS
 62
     4
100
AcDbLine
 10
601.5000000000906
 20
925.8984848097072
 30
0.0
 11
601.5000000000906
 21
1095.8984848098
 31
0.0
  0
LINE
  5
44B
330
447
100
AcDbEntity
  8
LAY-20
  6
CONTINUOUS
 62
     4
100
AcDbLine
 10
1611.5000000001
 20
925.8984848097072
 30
0.0
 11
1611.5000000001
 21
1095.8984848098
 31
0.0
  0
LINE
  5
44C
330
447
100
AcDbEntity
  8
LAY-20
  6
CONTINUOUS
 62
     4
100
AcDbLine
 10
626.5000000000906
 20
1080.8984848098
 30
0.0
 11
1586.5000000001
 21
1080.8984848098
 31
0.0
  0
INSERT
  5
44D
330
447
100
AcDbEntity
  8
LAY-20
 62
     4
100
AcDbBlockReference
  2
EX_BNORM
 10
601.5000000000906
 20
1080.8984848098
 30
0.0
 41
25.0
 42
25.0
 43
25.0
 50
180.0
  0
INSERT
  5
44E
330
447
100
AcDbEntity
  8
LAY-20
 62
     4
100
AcDbBlockReference
  2
EX_BNORM
 10
1611.5000000001
 20
1080.8984848098
 30
0.0
 41
25.0
 42
25.0
 43
25.0
  0
MTEXT
  5
44F
330
447
100
AcDbEntity
  8
LAY-20
 62
     7
100
AcDbMText
 10
1106.500000000096
 20
1105.8984848098
 30
0.0
 40
31.181104
 41
0.0
 71
     5
 72
     1
  1
1010
  7
EXCADDIM1
  0
POINT
  5
450
330
447
100
AcDbEntity
  8
DEFPOINTS
 62
     0
100
AcDbPoint
 10
601.5000000000906
 20
910.8984848097072
 30
0.0
  0
POINT
  5
451
330
447
100
AcDbEntity
  8
DEFPOINTS
 62
     0
100
AcDbPoint
 10
1611.5000000001
 20
910.8984848097072
 30
0.0
  0
POINT
  5
452
330
447
100
AcDbEntity
  8
DEFPOINTS
 62
     0
100
AcDbPoint
 10
1611.5000000001
 20
1080.8984848098
 30
0.0
  0
ENDBLK
  5
449
330
447
100
AcDbEntity
  8
0
100
AcDbBlockEnd
  0
BLOCK
  5
455
330
454
100
AcDbEntity
  8
0
100
AcDbBlockBegin
  2
*D28
 70
     1
 10
0.0
 20
0.0
 30
0.0
  3
*D28
  1

  0
LINE
  5
457
330
454
100
AcDbEntity
  8
LAY-20
  6
CONTINUOUS
 62
     4
100
AcDbLine
 10
1105.500000000075
 20
925.8984848097562
 30
0.0
 11
1105.500000000075
 21
1025.89848480976
 31
0.0
  0
LINE
  5
458
330
454
100
AcDbEntity
  8
LAY-20
  6
CONTINUOUS
 62
     4
100
AcDbLine
 10
617.500000000076
 20
925.8984848097562
 30
0.0
 11
617.500000000076
 21
1025.89848480976
 31
0.0
  0
LINE
  5
459
330
454
100
AcDbEntity
  8
LAY-20
  6
CONTINUOUS
 62
     4
100
AcDbLine
 10
1080.500000000075
 20
1010.89848480976
 30
0.0
 11
642.500000000076
 21
1010.89848480976
 31
0.0
  0
INSERT
  5
45A
330
454
100
AcDbEntity
  8
LAY-20
 62
     4
100
AcDbBlockReference
  2
EX_BNORM
 10
1105.500000000075
 20
1010.89848480976
 30
0.0
 41
25.0
 42
25.0
 43
25.0
  0
INSERT
  5
45B
330
454
100
AcDbEntity
  8
LAY-20
 62
     4
100
AcDbBlockReference
  2
EX_BNORM
 10
617.500000000076
 20
1010.89848480976
 30
0.0
 41
25.0
 42
25.0
 43
25.0
 50
180.0
  0
MTEXT
  5
45C
330
454
100
AcDbEntity
  8
LAY-20
 62
     7
100
AcDbMText
 10
861.500000000076
 20
1035.89848480976
 30
0.0
 40
31.181104
 41
0.0
 71
     5
 72
     1
  1
488
  7
EXCADDIM1
  0
POINT
  5
45D
330
454
100
AcDbEntity
  8
DEFPOINTS
 62
     0
100
AcDbPoint
 10
1105.500000000075
 20
910.8984848097562
 30
0.0
  0
POINT
  5
45E
330
454
100
AcDbEntity
  8
DEFPOINTS
 62
     0
100
AcDbPoint
 10
617.500000000076
 20
910.8984848097562
 30
0.0
  0
POINT
  5
45F
330
454
100
AcDbEntity
  8
DEFPOINTS
 62
     0
100
AcDbPoint
 10
617.500000000076
 20
1010.89848480976
 30
0.0
  0
ENDBLK
  5
456
330
454
100
AcDbEntity
  8
0
100
AcDbBlockEnd
  0
BLOCK
  5
462
330
461
100
AcDbEntity
  8
0
100
AcDbBlockBegin
  2
*D29
 70
     1
 10
0.0
 20
0.0
 30
0.0
  3
*D29
  1

  0
LINE
  5
464
330
461
100
AcDbEntity
  8
LAY-20
  6
CONTINUOUS
 62
     4
100
AcDbLine
 10
656.5000000001004
 20
750.8984848097072
 30
0.0
 11
656.5000000001004
 21
650.8984848097602
 31
0.0
  0
LINE
  5
465
330
461
100
AcDbEntity
  8
LAY-20
  6
CONTINUOUS
 62
     4
100
AcDbLine
 10
1556.5000000001
 20
750.8984848097072
 30
0.0
 11
1556.5000000001
 21
650.8984848097602
 31
0.0
  0
LINE
  5
466
330
461
100
AcDbEntity
  8
LAY-20
  6
CONTINUOUS
 62
     4
100
AcDbLine
 10
681.5000000001004
 20
665.8984848097602
 30
0.0
 11
1531.5000000001
 21
665.8984848097602
 31
0.0
  0
INSERT
  5
467
330
461
100
AcDbEntity
  8
LAY-20
 62
     4
100
AcDbBlockReference
  2
EX_BNORM
 10
656.5000000001004
 20
665.8984848097602
 30
0.0
 41
25.0
 42
25.0
 43
25.0
 50
180.0
  0
INSERT
  5
468
330
461
100
AcDbEntity
  8
LAY-20
 62
     4
100
AcDbBlockReference
  2
EX_BNORM
 10
1556.5000000001
 20
665.8984848097602
 30
0.0
 41
25.0
 42
25.0
 43
25.0
  0
MTEXT
  5
469
330
461
100
AcDbEntity
  8
LAY-20
 62
     7
100
AcDbMText
 10
1106.5000000001
 20
690.8984848097602
 30
0.0
 40
31.181104
 41
0.0
 71
     5
 72
     1
  1
900
  7
EXCADDIM1
  0
POINT
  5
46A
330
461
100
AcDbEntity
  8
DEFPOINTS
 62
     0
100
AcDbPoint
 10
656.5000000001004
 20
765.8984848097072
 30
0.0
  0
POINT
  5
46B
330
461
100
AcDbEntity
  8
DEFPOINTS
 62
     0
100
AcDbPoint
 10
1556.5000000001
 20
765.8984848097072
 30
0.0
  0
POINT
  5
46C
330
461
100
AcDbEntity
  8
DEFPOINTS
 62
     0
100
AcDbPoint
 10
1556.5000000001
 20
665.8984848097602
 30
0.0
  0
ENDBLK
  5
463
330
461
100
AcDbEntity
  8
0
100
AcDbBlockEnd
  0
BLOCK
  5
46F
330
46E
100
AcDbEntity
  8
0
100
AcDbBlockBegin
  2
*D30
 70
     1
 10
0.0
 20
0.0
 30
0.0
  3
*D30
  1

  0
LINE
  5
471
330
46E
100
AcDbEntity
  8
LAY-20
  6
CONTINUOUS
 62
     4
100
AcDbLine
 10
1626.5000000001
 20
910.8984848097072
 30
0.0
 11
1754.0
 21
910.8984848097072
 31
0.0
  0
LINE
  5
472
330
46E
100
AcDbEntity
  8
LAY-20
  6
CONTINUOUS
 62
     4
100
AcDbLine
 10
1614.7000000001
 20
795.8984848097072
 30
0.0
 11
1754.0
 21
795.8984848097072
 31
0.0
  0
LINE
  5
473
330
46E
100
AcDbEntity
  8
LAY-20
  6
CONTINUOUS
 62
     4
100
AcDbLine
 10
1739.0
 20
885.8984848097072
 30
0.0
 11
1739.0
 21
820.8984848097072
 31
0.0
  0
INSERT
  5
474
330
46E
100
AcDbEntity
  8
LAY-20
 62
     4
100
AcDbBlockReference
  2
EX_BNORM
 10
1739.0
 20
910.8984848097072
 30
0.0
 41
25.0
 42
25.0
 43
25.0
 50
90.0
  0
INSERT
  5
475
330
46E
100
AcDbEntity
  8
LAY-20
 62
     4
100
AcDbBlockReference
  2
EX_BNORM
 10
1739.0
 20
795.8984848097072
 30
0.0
 41
25.0
 42
25.0
 43
25.0
 50
270.0
  0
MTEXT
  5
476
330
46E
100
AcDbEntity
  8
LAY-20
 62
     7
100
AcDbMText
 10
1714.000000000001
 20
853.3984848097068
 30
0.0
 40
31.181104
 41
0.0
 71
     5
 72
     1
  1
115
  7
EXCADDIM1
 11
0.0
 21
1.0
 31
0.0
  0
POINT
  5
477
330
46E
100
AcDbEntity
  8
DEFPOINTS
 62
     0
100
AcDbPoint
 10
1611.5000000001
 20
910.8984848097072
 30
0.0
  0
POINT
  5
478
330
46E
100
AcDbEntity
  8
DEFPOINTS
 62
     0
100
AcDbPoint
 10
1599.7000000001
 20
795.8984848097072
 30
0.0
  0
POINT
  5
479
330
46E
100
AcDbEntity
  8
DEFPOINTS
 62
     0
100
AcDbPoint
 10
1739.0
 20
795.8984848097072
 30
0.0
  0
ENDBLK
  5
470
330
46E
100
AcDbEntity
  8
0
100
AcDbBlockEnd
  0
BLOCK
  5
47C
330
47B
100
AcDbEntity
  8
0
100
AcDbBlockBegin
  2
*D31
 70
     1
 10
0.0
 20
0.0
 30
0.0
  3
*D31
  1

  0
LINE
  5
47E
330
47B
100
AcDbEntity
  8
LAY-20
  6
CONTINUOUS
 62
     4
100
AcDbLine
 10
610.3000000000803
 20
783.8984848097602
 30
0.0
 11
610.3000000000803
 21
580.8984848097598
 31
0.0
  0
LINE
  5
47F
330
47B
100
AcDbEntity
  8
LAY-20
  6
CONTINUOUS
 62
     4
100
AcDbLine
 10
1602.700000000101
 20
783.8984848097602
 30
0.0
 11
1602.700000000101
 21
580.8984848097598
 31
0.0
  0
LINE
  5
480
330
47B
100
AcDbEntity
  8
LAY-20
  6
CONTINUOUS
 62
     4
100
AcDbLine
 10
635.3000000000803
 20
595.8984848097598
 30
0.0
 11
1577.700000000101
 21
595.8984848097598
 31
0.0
  0
INSERT
  5
481
330
47B
100
AcDbEntity
  8
LAY-20
 62
     4
100
AcDbBlockReference
  2
EX_BNORM
 10
610.3000000000803
 20
595.8984848097598
 30
0.0
 41
25.0
 42
25.0
 43
25.0
 50
180.0
  0
INSERT
  5
482
330
47B
100
AcDbEntity
  8
LAY-20
 62
     4
100
AcDbBlockReference
  2
EX_BNORM
 10
1602.700000000101
 20
595.8984848097598
 30
0.0
 41
25.0
 42
25.0
 43
25.0
  0
MTEXT
  5
483
330
47B
100
AcDbEntity
  8
LAY-20
 62
     7
100
AcDbMText
 10
1106.50000000009
 20
620.8984848097598
 30
0.0
 40
31.181104
 41
0.0
 71
     5
 72
     1
  1
992
  7
EXCADDIM1
  0
POINT
  5
484
330
47B
100
AcDbEntity
  8
DEFPOINTS
 62
     0
100
AcDbPoint
 10
610.3000000000803
 20
798.8984848097602
 30
0.0
  0
POINT
  5
485
330
47B
100
AcDbEntity
  8
DEFPOINTS
 62
     0
100
AcDbPoint
 10
1602.700000000101
 20
798.8984848097602
 30
0.0
  0
POINT
  5
486
330
47B
100
AcDbEntity
  8
DEFPOINTS
 62
     0
100
AcDbPoint
 10
1602.700000000101
 20
595.8984848097598
 30
0.0
  0
ENDBLK
  5
47D
330
47B
100
AcDbEntity
  8
0
100
AcDbBlockEnd
  0
BLOCK
  5
489
330
488
100
AcDbEntity
  8
0
100
AcDbBlockBegin
  2
*D32
 70
     1
 10
0.0
 20
0.0
 30
0.0
  3
*D32
  1

  0
LINE
  5
48B
330
488
100
AcDbEntity
  8
LAY-20
  6
CONTINUOUS
 62
     4
100
AcDbLine
 10
1474.0
 20
904.8984848096298
 30
0.0
 11
1474.0
 21
910.8984848096799
 31
0.0
  0
LINE
  5
48C
330
488
100
AcDbEntity
  8
LAY-20
  6
CONTINUOUS
 62
     4
100
AcDbLine
 10
1474.0
 20
879.8984848096298
 30
0.0
 11
1474.0
 21
854.8984848096298
 31
0.0
  0
LINE
  5
48D
330
488
100
AcDbEntity
  8
LAY-20
  6
CONTINUOUS
 62
     4
100
AcDbLine
 10
1474.0
 20
935.8984848096799
 30
0.0
 11
1474.0
 21
960.8984848096799
 31
0.0
  0
INSERT
  5
48E
330
488
100
AcDbEntity
  8
LAY-20
 62
     4
100
AcDbBlockReference
  2
EX_BNORM
 10
1474.0
 20
904.8984848096298
 30
0.0
 41
25.0
 42
25.0
 43
25.0
 50
90.0
  0
INSERT
  5
48F
330
488
100
AcDbEntity
  8
LAY-20
 62
     4
100
AcDbBlockReference
  2
EX_BNORM
 10
1474.0
 20
910.8984848096799
 30
0.0
 41
25.0
 42
25.0
 43
25.0
 50
270.0
  0
MTEXT
  5
490
330
488
100
AcDbEntity
  8
LAY-20
 62
     7
100
AcDbMText
 10
1449.000000000001
 20
955.8984848096794
 30
0.0
 40
31.181104
 41
0.0
 71
     5
 72
     1
  1
6
  7
EXCADDIM1
 11
0.0
 21
1.0
 31
0.0
  0
POINT
  5
491
330
488
100
AcDbEntity
  8
DEFPOINTS
 62
     0
100
AcDbPoint
 10
1474.0
 20
904.8984848096298
 30
0.0
  0
POINT
  5
492
330
488
100
AcDbEntity
  8
DEFPOINTS
 62
     0
100
AcDbPoint
 10
1474.0
 20
910.8984848096799
 30
0.0
  0
POINT
  5
493
330
488
100
AcDbEntity
  8
DEFPOINTS
 62
     0
100
AcDbPoint
 10
1474.0
 20
910.8984848096799
 30
0.0
  0
ENDBLK
  5
48A
330
488
100
AcDbEntity
  8
0
100
AcDbBlockEnd
  0
BLOCK
  5
496
330
495
100
AcDbEntity
  8
0
100
AcDbBlockBegin
  2
*D33
 70
     1
 10
0.0
 20
0.0
 30
0.0
  3
*D33
  1

  0
LINE
  5
498
330
495
100
AcDbEntity
  8
LAY-20
  6
CONTINUOUS
 62
     4
100
AcDbLine
 10
1996.5
 20
2408.8984848097
 30
0.0
 11
1826.5
 21
2408.8984848097
 31
0.0
  0
LINE
  5
499
330
495
100
AcDbEntity
  8
LAY-20
  6
CONTINUOUS
 62
     4
100
AcDbLine
 10
1996.5
 20
1324.8984848097
 30
0.0
 11
1826.5
 21
1324.8984848097
 31
0.0
  0
LINE
  5
49A
330
495
100
AcDbEntity
  8
LAY-20
  6
CONTINUOUS
 62
     4
100
AcDbLine
 10
1841.5
 20
2383.8984848097
 30
0.0
 11
1841.5
 21
1349.8984848097
 31
0.0
  0
INSERT
  5
49B
330
495
100
AcDbEntity
  8
LAY-20
 62
     4
100
AcDbBlockReference
  2
EX_BNORM
 10
1841.5
 20
2408.8984848097
 30
0.0
 41
25.0
 42
25.0
 43
25.0
 50
90.0
  0
INSERT
  5
49C
330
495
100
AcDbEntity
  8
LAY-20
 62
     4
100
AcDbBlockReference
  2
EX_BNORM
 10
1841.5
 20
1324.8984848097
 30
0.0
 41
25.0
 42
25.0
 43
25.0
 50
270.0
  0
MTEXT
  5
49D
330
495
100
AcDbEntity
  8
LAY-20
 62
     7
100
AcDbMText
 10
1816.5
 20
1866.8984848097
 30
0.0
 40
31.181104
 41
0.0
 71
     5
 72
     1
  1
1084
  7
EXCADDIM1
 11
0.0
 21
1.0
 31
0.0
  0
POINT
  5
49E
330
495
100
AcDbEntity
  8
DEFPOINTS
 62
     0
100
AcDbPoint
 10
2011.5
 20
2408.8984848097
 30
0.0
  0
POINT
  5
49F
330
495
100
AcDbEntity
  8
DEFPOINTS
 62
     0
100
AcDbPoint
 10
2011.5
 20
1324.8984848097
 30
0.0
  0
POINT
  5
4A0
330
495
100
AcDbEntity
  8
DEFPOINTS
 62
     0
100
AcDbPoint
 10
1841.5
 20
1324.8984848097
 30
0.0
  0
ENDBLK
  5
497
330
495
100
AcDbEntity
  8
0
100
AcDbBlockEnd
  0
BLOCK
  5
4A3
330
4A2
100
AcDbEntity
  8
0
100
AcDbBlockBegin
  2
*D34
 70
     1
 10
0.0
 20
0.0
 30
0.0
  3
*D34
  1

  0
LINE
  5
4A5
330
4A2
100
AcDbEntity
  8
LAY-20
  6
CONTINUOUS
 62
     4
100
AcDbLine
 10
1996.499999999979
 20
1340.898484809715
 30
0.0
 11
1896.5
 21
1340.898484809715
 31
0.0
  0
LINE
  5
4A6
330
4A2
100
AcDbEntity
  8
LAY-20
  6
CONTINUOUS
 62
     4
100
AcDbLine
 10
1996.499999999979
 20
2392.898484809718
 30
0.0
 11
1896.5
 21
2392.898484809718
 31
0.0
  0
LINE
  5
4A7
330
4A2
100
AcDbEntity
  8
LAY-20
  6
CONTINUOUS
 62
     4
100
AcDbLine
 10
1911.5
 20
1365.898484809715
 30
0.0
 11
1911.5
 21
2367.898484809718
 31
0.0
  0
INSERT
  5
4A8
330
4A2
100
AcDbEntity
  8
LAY-20
 62
     4
100
AcDbBlockReference
  2
EX_BNORM
 10
1911.5
 20
1340.898484809715
 30
0.0
 41
25.0
 42
25.0
 43
25.0
 50
270.0
  0
INSERT
  5
4A9
330
4A2
100
AcDbEntity
  8
LAY-20
 62
     4
100
AcDbBlockReference
  2
EX_BNORM
 10
1911.5
 20
2392.898484809718
 30
0.0
 41
25.0
 42
25.0
 43
25.0
 50
90.0
  0
MTEXT
  5
4AA
330
4A2
100
AcDbEntity
  8
LAY-20
 62
     7
100
AcDbMText
 10
1886.5
 20
1866.898484809717
 30
0.0
 40
31.181104
 41
0.0
 71
     5
 72
     1
  1
1052
  7
EXCADDIM1
 11
0.0
 21
1.0
 31
0.0
  0
POINT
  5
4AB
330
4A2
100
AcDbEntity
  8
DEFPOINTS
 62
     0
100
AcDbPoint
 10
2011.499999999979
 20
1340.898484809715
 30
0.0
  0
POINT
  5
4AC
330
4A2
100
AcDbEntity
  8
DEFPOINTS
 62
     0
100
AcDbPoint
 10
2011.499999999979
 20
2392.898484809718
 30
0.0
  0
POINT
  5
4AD
330
4A2
100
AcDbEntity
  8
DEFPOINTS
 62
     0
100
AcDbPoint
 10
1911.5
 20
2392.898484809718
 30
0.0
  0
ENDBLK
  5
4A4
330
4A2
100
AcDbEntity
  8
0
100
AcDbBlockEnd
  0
BLOCK
  5
4B0
330
4AF
100
AcDbEntity
  8
0
100
AcDbBlockBegin
  2
*D35
 70
     1
 10
0.0
 20
0.0
 30
0.0
  3
*D35
  1

  0
LINE
  5
4B2
330
4AF
100
AcDbEntity
  8
LAY-20
  6
CONTINUOUS
 62
     4
100
AcDbLine
 10
2171.5
 20
2316.8984848096
 30
0.0
 11
2271.5
 21
2316.8984848096
 31
0.0
  0
LINE
  5
4B3
330
4AF
100
AcDbEntity
  8
LAY-20
  6
CONTINUOUS
 62
     4
100
AcDbLine
 10
2171.5
 20
1416.8984848097
 30
0.0
 11
2271.5
 21
1416.8984848097
 31
0.0
  0
LINE
  5
4B4
330
4AF
100
AcDbEntity
  8
LAY-20
  6
CONTINUOUS
 62
     4
100
AcDbLine
 10
2256.5
 20
2291.8984848096
 30
0.0
 11
2256.5
 21
1441.8984848097
 31
0.0
  0
INSERT
  5
4B5
330
4AF
100
AcDbEntity
  8
LAY-20
 62
     4
100
AcDbBlockReference
  2
EX_BNORM
 10
2256.5
 20
2316.8984848096
 30
0.0
 41
25.0
 42
25.0
 43
25.0
 50
90.0
  0
INSERT
  5
4B6
330
4AF
100
AcDbEntity
  8
LAY-20
 62
     4
100
AcDbBlockReference
  2
EX_BNORM
 10
2256.5
 20
1416.8984848097
 30
0.0
 41
25.0
 42
25.0
 43
25.0
 50
270.0
  0
MTEXT
  5
4B7
330
4AF
100
AcDbEntity
  8
LAY-20
 62
     7
100
AcDbMText
 10
2231.5
 20
1866.89848480965
 30
0.0
 40
31.181104
 41
0.0
 71
     5
 72
     1
  1
900
  7
EXCADDIM1
 11
0.0
 21
1.0
 31
0.0
  0
POINT
  5
4B8
330
4AF
100
AcDbEntity
  8
DEFPOINTS
 62
     0
100
AcDbPoint
 10
2156.5
 20
2316.8984848096
 30
0.0
  0
POINT
  5
4B9
330
4AF
100
AcDbEntity
  8
DEFPOINTS
 62
     0
100
AcDbPoint
 10
2156.5
 20
1416.8984848097
 30
0.0
  0
POINT
  5
4BA
330
4AF
100
AcDbEntity
  8
DEFPOINTS
 62
     0
100
AcDbPoint
 10
2256.5
 20
1416.8984848097
 30
0.0
  0
ENDBLK
  5
4B1
330
4AF
100
AcDbEntity
  8
0
100
AcDbBlockEnd
  0
BLOCK
  5
4BD
330
4BC
100
AcDbEntity
  8
0
100
AcDbBlockBegin
  2
*D36
 70
     1
 10
0.0
 20
0.0
 30
0.0
  3
*D36
  1

  0
LINE
  5
4BF
330
4BC
100
AcDbEntity
  8
LAY-20
  6
CONTINUOUS
 62
     4
100
AcDbLine
 10
2096.7
 20
2400.0984848097
 30
0.0
 11
2341.500000000001
 21
2400.0984848097
 31
0.0
  0
LINE
  5
4C0
330
4BC
100
AcDbEntity
  8
LAY-20
  6
CONTINUOUS
 62
     4
100
AcDbLine
 10
2096.7
 20
1333.6984848097
 30
0.0
 11
2341.500000000001
 21
1333.6984848097
 31
0.0
  0
LINE
  5
4C1
330
4BC
100
AcDbEntity
  8
LAY-20
  6
CONTINUOUS
 62
     4
100
AcDbLine
 10
2326.500000000001
 20
2375.0984848097
 30
0.0
 11
2326.500000000001
 21
1358.6984848097
 31
0.0
  0
INSERT
  5
4C2
330
4BC
100
AcDbEntity
  8
LAY-20
 62
     4
100
AcDbBlockReference
  2
EX_BNORM
 10
2326.500000000001
 20
2400.0984848097
 30
0.0
 41
25.0
 42
25.0
 43
25.0
 50
90.0
  0
INSERT
  5
4C3
330
4BC
100
AcDbEntity
  8
LAY-20
 62
     4
100
AcDbBlockReference
  2
EX_BNORM
 10
2326.500000000001
 20
1333.6984848097
 30
0.0
 41
25.0
 42
25.0
 43
25.0
 50
270.0
  0
MTEXT
  5
4C4
330
4BC
100
AcDbEntity
  8
LAY-20
 62
     7
100
AcDbMText
 10
2301.500000000001
 20
1866.8984848097
 30
0.0
 40
31.181104
 41
0.0
 71
     5
 72
     1
  1
1066
  7
EXCADDIM1
 11
0.0
 21
1.0
 31
0.0
  0
POINT
  5
4C5
330
4BC
100
AcDbEntity
  8
DEFPOINTS
 62
     0
100
AcDbPoint
 10
2081.7
 20
2400.0984848097
 30
0.0
  0
POINT
  5
4C6
330
4BC
100
AcDbEntity
  8
DEFPOINTS
 62
     0
100
AcDbPoint
 10
2081.7
 20
1333.6984848097
 30
0.0
  0
POINT
  5
4C7
330
4BC
100
AcDbEntity
  8
DEFPOINTS
 62
     0
100
AcDbPoint
 10
2326.500000000001
 20
1333.6984848097
 30
0.0
  0
ENDBLK
  5
4BE
330
4BC
100
AcDbEntity
  8
0
100
AcDbBlockEnd
  0
ENDSEC
  0
SECTION
  2
ENTITIES
  0
INSERT
  5
208
330
1F
100
AcDbEntity
  8
LAY-10
  6
CONTINUOUS
 62
     0
100
AcDbBlockReference
  2
SYM-1
 10
0.0
 20
0.0
 30
0.0
  0
INSERT
  5
209
330
1F
100
AcDbEntity
  8
LAY-10
  6
CONTINUOUS
 62
     0
100
AcDbBlockReference
  2
SYM-2
 10
0.0
 20
0.0
 30
0.0
  0
INSERT
  5
20A
330
1F
100
AcDbEntity
  8
LAY-10
  6
CONTINUOUS
 62
     0
100
AcDbBlockReference
  2
SYM-3
 10
0.0
 20
0.0
 30
0.0
  0
INSERT
  5
20B
330
1F
100
AcDbEntity
  8
LAY-10
  6
CONTINUOUS
 62
     0
100
AcDbBlockReference
  2
SYM-4
 10
0.0
 20
0.0
 30
0.0
  0
INSERT
  5
20C
330
1F
100
AcDbEntity
  8
LAY-20
  6
CONTINUOUS
 62
     0
100
AcDbBlockReference
  2
SYM-5
 10
0.0
 20
0.0
 30
0.0
  0
INSERT
  5
20D
330
1F
100
AcDbEntity
  8
LAY-20
  6
CONTINUOUS
 62
     0
100
AcDbBlockReference
  2
SYM-6
 10
0.0
 20
0.0
 30
0.0
  0
INSERT
  5
20E
330
1F
100
AcDbEntity
  8
LAY-20
  6
CONTINUOUS
 62
     0
100
AcDbBlockReference
  2
SYM-7
 10
0.0
 20
0.0
 30
0.0
  0
INSERT
  5
20F
330
1F
100
AcDbEntity
  8
LAY-20
  6
CONTINUOUS
 62
     0
100
AcDbBlockReference
  2
SYM-8
 10
0.0
 20
0.0
 30
0.0
  0
INSERT
  5
210
330
1F
100
AcDbEntity
  8
LAY-10
  6
CONTINUOUS
 62
     0
100
AcDbBlockReference
  2
SYM-9
 10
0.0
 20
0.0
 30
0.0
  0
INSERT
  5
211
330
1F
100
AcDbEntity
  8
LAY-10
  6
CONTINUOUS
 62
     0
100
AcDbBlockReference
  2
SYM-10
 10
0.0
 20
0.0
 30
0.0
  0
INSERT
  5
212
330
1F
100
AcDbEntity
  8
LAY-10
  6
CONTINUOUS
 62
     0
100
AcDbBlockReference
  2
SYM-11
 10
0.0
 20
0.0
 30
0.0
  0
INSERT
  5
213
330
1F
100
AcDbEntity
  8
LAY-10
  6
CONTINUOUS
 62
     0
100
AcDbBlockReference
  2
SYM-12
 10
0.0
 20
0.0
 30
0.0
  0
LINE
  5
214
330
1F
100
AcDbEntity
  8
LAY-10
  6
CONTINUOUS
 62
     7
100
AcDbLine
 10
601.5000000000904
 20
910.8984848097072
 30
0.0
 11
616.5000000000904
 21
910.8984848097072
 31
0.0
  0
LINE
  5
215
330
1F
100
AcDbEntity
  8
LAY-10
  6
CONTINUOUS
 62
     7
100
AcDbLine
 10
601.5000000000858
 20
910.8984848097562
 30
0.0
 11
601.5000000000858
 21
907.8984848097562
 31
0.0
  0
LINE
  5
216
330
1F
100
AcDbEntity
  8
LAY-10
  6
CONTINUOUS
 62
     7
100
AcDbLine
 10
616.5000000000858
 20
895.8984848097562
 30
0.0
 11
613.5000000000849
 21
895.8984848097562
 31
0.0
  0
LINE
  5
217
330
1F
100
AcDbEntity
  8
LAY-10
  6
CONTINUOUS
 62
     7
100
AcDbLine
 10
613.5000000000849
 20
907.8984848097562
 30
0.0
 11
601.5000000000858
 21
907.8984848097562
 31
0.0
  0
LINE
  5
218
330
1F
100
AcDbEntity
  8
LAY-10
  6
CONTINUOUS
 62
     7
100
AcDbLine
 10
616.5000000000858
 20
910.8984848097562
 30
0.0
 11
616.5000000000858
 21
895.8984848097562
 31
0.0
  0
LINE
  5
219
330
1F
100
AcDbEntity
  8
LAY-10
  6
CONTINUOUS
 62
     7
100
AcDbLine
 10
1596.500000000091
 20
910.8984848097072
 30
0.0
 11
1611.500000000091
 21
910.8984848097072
 31
0.0
  0
LINE
  5
21A
330
1F
100
AcDbEntity
  8
LAY-10
  6
CONTINUOUS
 62
     7
100
AcDbLine
 10
1611.500000000073
 20
910.8984848097562
 30
0.0
 11
1611.500000000073
 21
907.8984848097562
 31
0.0
  0
LINE
  5
21B
330
1F
100
AcDbEntity
  8
LAY-10
  6
CONTINUOUS
 62
     7
100
AcDbLine
 10
1596.500000000073
 20
895.8984848097562
 30
0.0
 11
1599.500000000073
 21
895.8984848097562
 31
0.0
  0
LINE
  5
21C
330
1F
100
AcDbEntity
  8
LAY-10
  6
CONTINUOUS
 62
     7
100
AcDbLine
 10
1599.500000000073
 20
907.8984848097562
 30
0.0
 11
1611.500000000073
 21
907.8984848097562
 31
0.0
  0
LINE
  5
21D
330
1F
100
AcDbEntity
  8
LAY-10
  6
CONTINUOUS
 62
     7
100
AcDbLine
 10
1596.500000000073
 20
910.8984848097562
 30
0.0
 11
1596.500000000073
 21
895.8984848097562
 31
0.0
  0
LINE
  5
21E
330
1F
100
AcDbEntity
  8
LAY-10
  6
CONTINUOUS
 62
     7
100
AcDbLine
 10
861.5000000000379
 20
2374.398484809714
 30
0.0
 11
857.5000000000377
 21
2367.898484809713
 31
0.0
  0
LINE
  5
21F
330
1F
100
AcDbEntity
  8
LAY-10
  6
CONTINUOUS
 62
     7
100
AcDbLine
 10
861.5000000000379
 20
2361.398484809714
 30
0.0
 11
865.5000000000377
 21
2367.898484809713
 31
0.0
  0
ARC
  5
220
330
1F
100
AcDbEntity
  8
LAY-10
  6
CONTINUOUS
 62
     7
100
AcDbCircle
 10
861.5000000000379
 20
2367.898484809713
 30
0.0
 40
12.75000000000001
100
AcDbArc
 50
18.2838899404031
 51
341.7161100595971
  0
LINE
  5
221
330
1F
100
AcDbEntity
  8
LAY-10
  6
CONTINUOUS
 62
     7
100
AcDbLine
 10
872.0000000000377
 20
2371.898484809712
 30
0.0
 11
872.0000000000377
 21
2363.898484809714
 31
0.0
  0
LINE
  5
222
330
1F
100
AcDbEntity
  8
LAY-10
  6
CONTINUOUS
 62
     7
100
AcDbLine
 10
872.0000000000377
 20
2371.898484809712
 30
0.0
 11
873.6063000128411
 21
2371.898484809712
 31
0.0
  0
LINE
  5
223
330
1F
100
AcDbEntity
  8
LAY-10
  6
CONTINUOUS
 62
     7
100
AcDbLine
 10
872.0000000000377
 20
2363.898484809714
 30
0.0
 11
873.6063000128411
 21
2363.898484809714
 31
0.0
  0
CIRCLE
  5
224
330
1F
100
AcDbEntity
  8
LAY-10
  6
CONTINUOUS
 62
     7
100
AcDbCircle
 10
861.5000000000379
 20
2367.898484809708
 30
0.0
 40
13.00000000000001
  0
LINE
  5
225
330
1F
100
AcDbEntity
  8
LAY-10
  6
CONTINUOUS
 62
     7
100
AcDbLine
 10
861.5000000000379
 20
2361.398484809691
 30
0.0
 11
857.5000000000377
 21
2367.898484809691
 31
0.0
  0
LINE
  5
226
330
1F
100
AcDbEntity
  8
LAY-10
  6
CONTINUOUS
 62
     7
100
AcDbLine
 10
861.5000000000379
 20
2374.398484809691
 30
0.0
 11
865.5000000000377
 21
2367.898484809691
 31
0.0
  0
LINE
  5
227
330
1F
100
AcDbEntity
  8
LAY-10
  6
CONTINUOUS
 62
     7
100
AcDbLine
 10
784.5726879761955
 20
2369.069483541602
 30
0.0
 11
767.3883476484402
 21
2386.253823869649
 31
0.0
  0
LINE
  5
228
330
1F
100
AcDbEntity
  8
LAY-10
  6
CONTINUOUS
 62
     7
100
AcDbLine
 10
643.6446609405389
 20
2386.253823866847
 30
0.0
 11
650.2893218830017
 21
2392.898484809647
 31
0.0
  0
LINE
  5
229
330
1F
100
AcDbEntity
  8
LAY-10
  6
CONTINUOUS
 62
     7
100
AcDbLine
 10
625.9669914123401
 20
2368.576154338046
 30
0.0
 11
617.500000000015
 21
2360.109162925576
 31
0.0
  0
LINE
  5
22A
330
1F
100
AcDbEntity
  8
LAY-10
  6
CONTINUOUS
 62
     7
100
AcDbLine
 10
721.0000000007435
 20
2392.89848480965
 30
0.0
 11
714.3553390585362
 21
2386.253823867853
 31
0.0
  0
LINE
  5
22B
330
1F
100
AcDbEntity
  8
LAY-10
  6
CONTINUOUS
 62
     7
100
AcDbLine
 10
625.9669914110395
 20
2333.220815281648
 30
0.0
 11
617.5000000000396
 21
2324.753823870504
 31
0.0
  0
LINE
  5
22C
330
1F
100
AcDbEntity
  8
LAY-10
  6
CONTINUOUS
 62
     7
100
AcDbLine
 10
661.3223304703401
 20
2333.220815280649
 30
0.0
 11
643.6446609406398
 21
2315.54314575065
 31
0.0
  0
LINE
  5
22D
330
1F
100
AcDbEntity
  8
LAY-10
  6
CONTINUOUS
 62
     7
100
AcDbLine
 10
643.6446609406398
 20
2297.865476221649
 30
0.0
 11
625.9669914109395
 21
2315.54314575065
 31
0.0
  0
LINE
  5
22E
330
1F
100
AcDbEntity
  8
LAY-10
  6
CONTINUOUS
 62
     7
100
AcDbLine
 10
678.9999999999395
 20
2297.865476221648
 30
0.0
 11
661.3223304703401
 21
2315.54314575065
 31
0.0
  0
LINE
  5
22F
330
1F
100
AcDbEntity
  8
LAY-10
  6
CONTINUOUS
 62
     7
100
AcDbLine
 10
767.3883476483392
 20
2350.89848480965
 30
0.0
 11
785.0660171780396
 21
2333.220815280649
 31
0.0
  0
LINE
  5
230
330
1F
100
AcDbEntity
  8
LAY-10
  6
CONTINUOUS
 62
     7
100
AcDbLine
 10
749.7106781187399
 20
2315.543145750649
 30
0.0
 11
767.3883476483392
 21
2333.220815280649
 31
0.0
  0
LINE
  5
231
330
1F
100
AcDbEntity
  8
LAY-10
  6
CONTINUOUS
 62
     7
100
AcDbLine
 10
749.7106781187399
 20
2350.89848480965
 30
0.0
 11
767.3883476483392
 21
2368.576154339649
 31
0.0
  0
LINE
  5
232
330
1F
100
AcDbEntity
  8
LAY-10
  6
CONTINUOUS
 62
     7
100
AcDbLine
 10
732.0330085890396
 20
2315.543145750649
 30
0.0
 11
749.7106781187399
 21
2297.865476221649
 31
0.0
  0
LINE
  5
233
330
1F
100
AcDbEntity
  8
LAY-10
  6
CONTINUOUS
 62
     7
100
AcDbLine
 10
696.6776695297399
 20
2333.220815280649
 30
0.0
 11
679.0000000000396
 21
2315.543145750649
 31
0.0
  0
LINE
  5
234
330
1F
100
AcDbEntity
  8
LAY-10
  6
CONTINUOUS
 62
     7
100
AcDbLine
 10
696.6776695297399
 20
2315.543145750649
 30
0.0
 11
714.3553390593391
 21
2297.865476221649
 31
0.0
  0
LINE
  5
235
330
1F
100
AcDbEntity
  8
LAY-10
  6
CONTINUOUS
 62
     7
100
AcDbLine
 10
732.0330085890396
 20
2350.89848480965
 30
0.0
 11
749.7106781187399
 21
2333.220815280649
 31
0.0
  0
LINE
  5
236
330
1F
100
AcDbEntity
  8
LAY-10
  6
CONTINUOUS
 62
     7
100
AcDbLine
 10
749.7106781187399
 20
2368.576154339649
 30
0.0
 11
732.0330085890396
 21
2386.253823869649
 31
0.0
  0
LINE
  5
237
330
1F
100
AcDbEntity
  8
LAY-10
  6
CONTINUOUS
 62
     7
100
AcDbLine
 10
625.9669914108395
 20
2227.154798103648
 30
0.0
 11
617.5000000000396
 21
2218.687806692704
 31
0.0
  0
LINE
  5
238
330
1F
100
AcDbEntity
  8
LAY-10
  6
CONTINUOUS
 62
     7
100
AcDbLine
 10
661.3223304702401
 20
2262.510137162648
 30
0.0
 11
643.6446609405398
 21
2244.832467632649
 31
0.0
  0
LINE
  5
239
330
1F
100
AcDbEntity
  8
LAY-10
  6
CONTINUOUS
 62
     7
100
AcDbLine
 10
625.9669914109395
 20
2244.832467632649
 30
0.0
 11
643.6446609405398
 21
2227.154798103649
 31
0.0
  0
LINE
  5
23A
330
1F
100
AcDbEntity
  8
LAY-10
  6
CONTINUOUS
 62
     7
100
AcDbLine
 10
625.9669914109395
 20
2262.510137162648
 30
0.0
 11
617.5000000000396
 21
2254.043145751605
 31
0.0
  0
LINE
  5
23B
330
1F
100
AcDbEntity
  8
LAY-10
  6
CONTINUOUS
 62
     7
100
AcDbLine
 10
625.9669914109395
 20
2297.865476221649
 30
0.0
 11
617.5000000000396
 21
2289.398484810605
 31
0.0
  0
LINE
  5
23C
330
1F
100
AcDbEntity
  8
LAY-10
  6
CONTINUOUS
 62
     7
100
AcDbLine
 10
643.6446609405398
 20
2262.510137162648
 30
0.0
 11
625.9669914109395
 21
2280.187806691649
 31
0.0
  0
LINE
  5
23D
330
1F
100
AcDbEntity
  8
LAY-10
  6
CONTINUOUS
 62
     7
100
AcDbLine
 10
661.3223304702401
 20
2244.832467632649
 30
0.0
 11
678.9999999999395
 21
2227.154798103649
 31
0.0
  0
LINE
  5
23E
330
1F
100
AcDbEntity
  8
LAY-10
  6
CONTINUOUS
 62
     7
100
AcDbLine
 10
678.9999999999395
 20
2244.832467632649
 30
0.0
 11
696.6776695296398
 21
2262.510137162649
 31
0.0
  0
LINE
  5
23F
330
1F
100
AcDbEntity
  8
LAY-10
  6
CONTINUOUS
 62
     7
100
AcDbLine
 10
696.6776695296398
 20
2280.187806691649
 30
0.0
 11
714.3553390593391
 21
2262.510137162649
 31
0.0
  0
LINE
  5
240
330
1F
100
AcDbEntity
  8
LAY-10
  6
CONTINUOUS
 62
     7
100
AcDbLine
 10
661.3223304703401
 20
2297.865476221649
 30
0.0
 11
643.6446609406398
 21
2280.187806691649
 31
0.0
  0
LINE
  5
241
330
1F
100
AcDbEntity
  8
LAY-10
  6
CONTINUOUS
 62
     7
100
AcDbLine
 10
696.6776695296398
 20
2297.865476221648
 30
0.0
 11
678.9999999999395
 21
2280.187806691649
 31
0.0
  0
LINE
  5
242
330
1F
100
AcDbEntity
  8
LAY-10
  6
CONTINUOUS
 62
     7
100
AcDbLine
 10
661.3223304703401
 20
2280.187806691649
 30
0.0
 11
678.9999999999395
 21
2262.510137162649
 31
0.0
  0
LINE
  5
243
330
1F
100
AcDbEntity
  8
LAY-10
  6
CONTINUOUS
 62
     7
100
AcDbLine
 10
643.6446609405398
 20
2209.477128573648
 30
0.0
 11
661.3223304702401
 21
2227.154798103649
 31
0.0
  0
LINE
  5
244
330
1F
100
AcDbEntity
  8
LAY-10
  6
CONTINUOUS
 62
     7
100
AcDbLine
 10
625.9669914108395
 20
2209.477128573648
 30
0.0
 11
643.6446609405398
 21
2191.799459044648
 31
0.0
  0
LINE
  5
245
330
1F
100
AcDbEntity
  8
LAY-10
  6
CONTINUOUS
 62
     7
100
AcDbLine
 10
617.5000000000396
 20
2183.332467633704
 30
0.0
 11
625.9669914108395
 21
2191.799459044648
 31
0.0
  0
LINE
  5
246
330
1F
100
AcDbEntity
  8
LAY-10
  6
CONTINUOUS
 62
     7
100
AcDbLine
 10
756.3553390595266
 20
2392.89848480965
 30
0.0
 11
749.7106781186399
 21
2386.253823868649
 31
0.0
  0
LINE
  5
247
330
1F
100
AcDbEntity
  8
LAY-10
  6
CONTINUOUS
 62
     7
100
AcDbLine
 10
791.7106781192035
 20
2392.89848480965
 30
0.0
 11
785.06601717894
 21
2386.253823869649
 31
0.0
  0
LINE
  5
248
330
1F
100
AcDbEntity
  8
LAY-10
  6
CONTINUOUS
 62
     7
100
AcDbLine
 10
827.0660171788734
 20
2392.89848480965
 30
0.0
 11
820.4213562386096
 21
2386.253823869649
 31
0.0
  0
LINE
  5
249
330
1F
100
AcDbEntity
  8
LAY-10
  6
CONTINUOUS
 62
     7
100
AcDbLine
 10
732.0330085890396
 20
2333.220815280649
 30
0.0
 11
714.3553390593391
 21
2315.543145750649
 31
0.0
  0
LINE
  5
24A
330
1F
100
AcDbEntity
  8
LAY-10
  6
CONTINUOUS
 62
     7
100
AcDbLine
 10
714.3553390593391
 20
2280.187806691649
 30
0.0
 11
732.0330085890396
 21
2297.865476221649
 31
0.0
  0
LINE
  5
24B
330
1F
100
AcDbEntity
  8
LAY-10
  6
CONTINUOUS
 62
     7
100
AcDbLine
 10
661.3223304707393
 20
2368.576154339048
 30
0.0
 11
643.64466094104
 21
2350.898484809048
 31
0.0
  0
LINE
  5
24C
330
1F
100
AcDbEntity
  8
LAY-10
  6
CONTINUOUS
 62
     7
100
AcDbLine
 10
643.6446609407399
 20
2368.576154338747
 30
0.0
 11
625.9669914114388
 21
2386.253823868046
 31
0.0
  0
LINE
  5
24D
330
1F
100
AcDbEntity
  8
LAY-10
  6
CONTINUOUS
 62
     7
100
AcDbLine
 10
625.9669914120391
 20
2350.898484808648
 30
0.0
 11
643.6446609413401
 21
2333.220815279349
 31
0.0
  0
LINE
  5
24E
330
1F
100
AcDbEntity
  8
LAY-10
  6
CONTINUOUS
 62
     7
100
AcDbLine
 10
732.0330085890396
 20
2368.576154339649
 30
0.0
 11
718.5000000000404
 21
2355.04314575042
 31
0.0
  0
LINE
  5
24F
330
1F
100
AcDbEntity
  8
LAY-10
  6
CONTINUOUS
 62
     7
100
AcDbLine
 10
661.3223304708376
 20
2386.253823867449
 30
0.0
 11
679.0000000001387
 21
2368.576154338149
 31
0.0
  0
LINE
  5
250
330
1F
100
AcDbEntity
  8
LAY-10
  6
CONTINUOUS
 62
     7
100
AcDbLine
 10
678.999999998839
 20
2350.89848480915
 30
0.0
 11
696.6776695288377
 21
2368.576154338851
 31
0.0
  0
LINE
  5
251
330
1F
100
AcDbEntity
  8
LAY-10
  6
CONTINUOUS
 62
     7
100
AcDbLine
 10
714.3553390578385
 20
2368.576154338853
 30
0.0
 11
696.6776695288357
 21
2386.253823868551
 31
0.0
  0
LINE
  5
252
330
1F
100
AcDbEntity
  8
LAY-10
  6
CONTINUOUS
 62
     7
100
AcDbLine
 10
714.3553390578413
 20
2333.220815279552
 30
0.0
 11
696.6776695288386
 21
2350.898484809151
 31
0.0
  0
LINE
  5
253
330
1F
100
AcDbEntity
  8
LAY-10
  6
CONTINUOUS
 62
     7
100
AcDbLine
 10
678.9999999978377
 20
2386.25382386845
 30
0.0
 11
685.6446609391501
 21
2392.89848480965
 31
0.0
  0
LINE
  5
254
330
1F
100
AcDbEntity
  8
LAY-10
  6
CONTINUOUS
 62
     7
100
AcDbLine
 10
678.9999999997403
 20
2333.220815280349
 30
0.0
 11
661.3223304704402
 21
2350.898484809649
 31
0.0
  0
LINE
  5
255
330
1F
100
AcDbEntity
  8
LAY-10
  6
CONTINUOUS
 62
     7
100
AcDbLine
 10
802.7436867066406
 20
2368.576154340648
 30
0.0
 11
785.0660171773402
 21
2350.898484810349
 31
0.0
  0
LINE
  5
256
330
1F
100
AcDbEntity
  8
LAY-10
  6
CONTINUOUS
 62
     7
100
AcDbLine
 10
802.7436867059414
 20
2386.253823870348
 30
0.0
 11
820.4213562356406
 21
2368.576154341347
 31
0.0
  0
LINE
  5
257
330
1F
100
AcDbEntity
  8
LAY-10
  6
CONTINUOUS
 62
     7
100
AcDbLine
 10
1274.572687976156
 20
2369.069483541602
 30
0.0
 11
1257.3883476484
 21
2386.253823869649
 31
0.0
  0
LINE
  5
258
330
1F
100
AcDbEntity
  8
LAY-10
  6
CONTINUOUS
 62
     7
100
AcDbLine
 10
1133.644660940499
 20
2386.253823866847
 30
0.0
 11
1140.289321882962
 21
2392.898484809647
 31
0.0
  0
LINE
  5
259
330
1F
100
AcDbEntity
  8
LAY-10
  6
CONTINUOUS
 62
     7
100
AcDbLine
 10
1115.9669914123
 20
2368.576154338046
 30
0.0
 11
1107.499999999975
 21
2360.109162925576
 31
0.0
  0
LINE
  5
25A
330
1F
100
AcDbEntity
  8
LAY-10
  6
CONTINUOUS
 62
     7
100
AcDbLine
 10
1211.000000000703
 20
2392.89848480965
 30
0.0
 11
1204.355339058496
 21
2386.253823867853
 31
0.0
  0
LINE
  5
25B
330
1F
100
AcDbEntity
  8
LAY-10
  6
CONTINUOUS
 62
     7
100
AcDbLine
 10
1115.966991411
 20
2333.220815281648
 30
0.0
 11
1107.5
 21
2324.753823870504
 31
0.0
  0
LINE
  5
25C
330
1F
100
AcDbEntity
  8
LAY-10
  6
CONTINUOUS
 62
     7
100
AcDbLine
 10
1151.3223304703
 20
2333.220815280649
 30
0.0
 11
1133.6446609406
 21
2315.54314575065
 31
0.0
  0
LINE
  5
25D
330
1F
100
AcDbEntity
  8
LAY-10
  6
CONTINUOUS
 62
     7
100
AcDbLine
 10
1133.6446609406
 20
2297.865476221649
 30
0.0
 11
1115.966991410899
 21
2315.54314575065
 31
0.0
  0
LINE
  5
25E
330
1F
100
AcDbEntity
  8
LAY-10
  6
CONTINUOUS
 62
     7
100
AcDbLine
 10
1168.9999999999
 20
2297.865476221648
 30
0.0
 11
1151.3223304703
 21
2315.54314575065
 31
0.0
  0
LINE
  5
25F
330
1F
100
AcDbEntity
  8
LAY-10
  6
CONTINUOUS
 62
     7
100
AcDbLine
 10
1257.388347648299
 20
2350.89848480965
 30
0.0
 11
1275.066017178
 21
2333.220815280649
 31
0.0
  0
LINE
  5
260
330
1F
100
AcDbEntity
  8
LAY-10
  6
CONTINUOUS
 62
     7
100
AcDbLine
 10
1239.7106781187
 20
2315.543145750649
 30
0.0
 11
1257.388347648299
 21
2333.220815280649
 31
0.0
  0
LINE
  5
261
330
1F
100
AcDbEntity
  8
LAY-10
  6
CONTINUOUS
 62
     7
100
AcDbLine
 10
1239.7106781187
 20
2350.89848480965
 30
0.0
 11
1257.388347648299
 21
2368.576154339649
 31
0.0
  0
LINE
  5
262
330
1F
100
AcDbEntity
  8
LAY-10
  6
CONTINUOUS
 62
     7
100
AcDbLine
 10
1222.033008589
 20
2315.543145750649
 30
0.0
 11
1239.7106781187
 21
2297.865476221649
 31
0.0
  0
LINE
  5
263
330
1F
100
AcDbEntity
  8
LAY-10
  6
CONTINUOUS
 62
     7
100
AcDbLine
 10
1186.6776695297
 20
2333.220815280649
 30
0.0
 11
1169.0
 21
2315.543145750649
 31
0.0
  0
LINE
  5
264
330
1F
100
AcDbEntity
  8
LAY-10
  6
CONTINUOUS
 62
     7
100
AcDbLine
 10
1186.6776695297
 20
2315.543145750649
 30
0.0
 11
1204.355339059299
 21
2297.865476221649
 31
0.0
  0
LINE
  5
265
330
1F
100
AcDbEntity
  8
LAY-10
  6
CONTINUOUS
 62
     7
100
AcDbLine
 10
1222.033008589
 20
2350.89848480965
 30
0.0
 11
1239.7106781187
 21
2333.220815280649
 31
0.0
  0
LINE
  5
266
330
1F
100
AcDbEntity
  8
LAY-10
  6
CONTINUOUS
 62
     7
100
AcDbLine
 10
1239.7106781187
 20
2368.576154339649
 30
0.0
 11
1222.033008589
 21
2386.253823869649
 31
0.0
  0
LINE
  5
267
330
1F
100
AcDbEntity
  8
LAY-10
  6
CONTINUOUS
 62
     7
100
AcDbLine
 10
1115.966991410799
 20
2227.154798103648
 30
0.0
 11
1107.5
 21
2218.687806692704
 31
0.0
  0
LINE
  5
268
330
1F
100
AcDbEntity
  8
LAY-10
  6
CONTINUOUS
 62
     7
100
AcDbLine
 10
1151.3223304702
 20
2262.510137162648
 30
0.0
 11
1133.6446609405
 21
2244.832467632649
 31
0.0
  0
LINE
  5
269
330
1F
100
AcDbEntity
  8
LAY-10
  6
CONTINUOUS
 62
     7
100
AcDbLine
 10
1115.966991410899
 20
2244.832467632649
 30
0.0
 11
1133.6446609405
 21
2227.154798103649
 31
0.0
  0
LINE
  5
26A
330
1F
100
AcDbEntity
  8
LAY-10
  6
CONTINUOUS
 62
     7
100
AcDbLine
 10
1115.966991410899
 20
2262.510137162648
 30
0.0
 11
1107.5
 21
2254.043145751605
 31
0.0
  0
LINE
  5
26B
330
1F
100
AcDbEntity
  8
LAY-10
  6
CONTINUOUS
 62
     7
100
AcDbLine
 10
1115.966991410899
 20
2297.865476221649
 30
0.0
 11
1107.5
 21
2289.398484810605
 31
0.0
  0
LINE
  5
26C
330
1F
100
AcDbEntity
  8
LAY-10
  6
CONTINUOUS
 62
     7
100
AcDbLine
 10
1133.6446609405
 20
2262.510137162648
 30
0.0
 11
1115.966991410899
 21
2280.187806691649
 31
0.0
  0
LINE
  5
26D
330
1F
100
AcDbEntity
  8
LAY-10
  6
CONTINUOUS
 62
     7
100
AcDbLine
 10
1151.3223304702
 20
2244.832467632649
 30
0.0
 11
1168.9999999999
 21
2227.154798103649
 31
0.0
  0
LINE
  5
26E
330
1F
100
AcDbEntity
  8
LAY-10
  6
CONTINUOUS
 62
     7
100
AcDbLine
 10
1168.9999999999
 20
2244.832467632649
 30
0.0
 11
1186.6776695296
 21
2262.510137162649
 31
0.0
  0
LINE
  5
26F
330
1F
100
AcDbEntity
  8
LAY-10
  6
CONTINUOUS
 62
     7
100
AcDbLine
 10
1186.6776695296
 20
2280.187806691649
 30
0.0
 11
1204.355339059299
 21
2262.510137162649
 31
0.0
  0
LINE
  5
270
330
1F
100
AcDbEntity
  8
LAY-10
  6
CONTINUOUS
 62
     7
100
AcDbLine
 10
1151.3223304703
 20
2297.865476221649
 30
0.0
 11
1133.6446609406
 21
2280.187806691649
 31
0.0
  0
LINE
  5
271
330
1F
100
AcDbEntity
  8
LAY-10
  6
CONTINUOUS
 62
     7
100
AcDbLine
 10
1186.6776695296
 20
2297.865476221648
 30
0.0
 11
1168.9999999999
 21
2280.187806691649
 31
0.0
  0
LINE
  5
272
330
1F
100
AcDbEntity
  8
LAY-10
  6
CONTINUOUS
 62
     7
100
AcDbLine
 10
1151.3223304703
 20
2280.187806691649
 30
0.0
 11
1168.9999999999
 21
2262.510137162649
 31
0.0
  0
LINE
  5
273
330
1F
100
AcDbEntity
  8
LAY-10
  6
CONTINUOUS
 62
     7
100
AcDbLine
 10
1133.6446609405
 20
2209.477128573648
 30
0.0
 11
1151.3223304702
 21
2227.154798103649
 31
0.0
  0
LINE
  5
274
330
1F
100
AcDbEntity
  8
LAY-10
  6
CONTINUOUS
 62
     7
100
AcDbLine
 10
1115.966991410799
 20
2209.477128573648
 30
0.0
 11
1133.6446609405
 21
2191.799459044648
 31
0.0
  0
LINE
  5
275
330
1F
100
AcDbEntity
  8
LAY-10
  6
CONTINUOUS
 62
     7
100
AcDbLine
 10
1107.5
 20
2183.332467633704
 30
0.0
 11
1115.966991410799
 21
2191.799459044648
 31
0.0
  0
LINE
  5
276
330
1F
100
AcDbEntity
  8
LAY-10
  6
CONTINUOUS
 62
     7
100
AcDbLine
 10
1246.355339059487
 20
2392.89848480965
 30
0.0
 11
1239.7106781186
 21
2386.253823868649
 31
0.0
  0
LINE
  5
277
330
1F
100
AcDbEntity
  8
LAY-10
  6
CONTINUOUS
 62
     7
100
AcDbLine
 10
1281.710678119163
 20
2392.89848480965
 30
0.0
 11
1275.0660171789
 21
2386.253823869649
 31
0.0
  0
LINE
  5
278
330
1F
100
AcDbEntity
  8
LAY-10
  6
CONTINUOUS
 62
     7
100
AcDbLine
 10
1317.066017178833
 20
2392.89848480965
 30
0.0
 11
1310.42135623857
 21
2386.253823869649
 31
0.0
  0
LINE
  5
279
330
1F
100
AcDbEntity
  8
LAY-10
  6
CONTINUOUS
 62
     7
100
AcDbLine
 10
1222.033008589
 20
2333.220815280649
 30
0.0
 11
1204.355339059299
 21
2315.543145750649
 31
0.0
  0
LINE
  5
27A
330
1F
100
AcDbEntity
  8
LAY-10
  6
CONTINUOUS
 62
     7
100
AcDbLine
 10
1204.355339059299
 20
2280.187806691649
 30
0.0
 11
1222.033008589
 21
2297.865476221649
 31
0.0
  0
LINE
  5
27B
330
1F
100
AcDbEntity
  8
LAY-10
  6
CONTINUOUS
 62
     7
100
AcDbLine
 10
1151.322330470699
 20
2368.576154339048
 30
0.0
 11
1133.644660941
 21
2350.898484809048
 31
0.0
  0
LINE
  5
27C
330
1F
100
AcDbEntity
  8
LAY-10
  6
CONTINUOUS
 62
     7
100
AcDbLine
 10
1133.6446609407
 20
2368.576154338747
 30
0.0
 11
1115.966991411399
 21
2386.253823868046
 31
0.0
  0
LINE
  5
27D
330
1F
100
AcDbEntity
  8
LAY-10
  6
CONTINUOUS
 62
     7
100
AcDbLine
 10
1115.966991411999
 20
2350.898484808648
 30
0.0
 11
1133.6446609413
 21
2333.220815279349
 31
0.0
  0
LINE
  5
27E
330
1F
100
AcDbEntity
  8
LAY-10
  6
CONTINUOUS
 62
     7
100
AcDbLine
 10
1222.033008589
 20
2368.576154339649
 30
0.0
 11
1208.5
 21
2355.04314575042
 31
0.0
  0
LINE
  5
27F
330
1F
100
AcDbEntity
  8
LAY-10
  6
CONTINUOUS
 62
     7
100
AcDbLine
 10
1151.322330470798
 20
2386.253823867449
 30
0.0
 11
1169.000000000099
 21
2368.576154338149
 31
0.0
  0
LINE
  5
280
330
1F
100
AcDbEntity
  8
LAY-10
  6
CONTINUOUS
 62
     7
100
AcDbLine
 10
1168.999999998799
 20
2350.89848480915
 30
0.0
 11
1186.677669528798
 21
2368.576154338851
 31
0.0
  0
LINE
  5
281
330
1F
100
AcDbEntity
  8
LAY-10
  6
CONTINUOUS
 62
     7
100
AcDbLine
 10
1204.355339057799
 20
2368.576154338853
 30
0.0
 11
1186.677669528796
 21
2386.253823868551
 31
0.0
  0
LINE
  5
282
330
1F
100
AcDbEntity
  8
LAY-10
  6
CONTINUOUS
 62
     7
100
AcDbLine
 10
1204.355339057801
 20
2333.220815279552
 30
0.0
 11
1186.677669528799
 21
2350.898484809151
 31
0.0
  0
LINE
  5
283
330
1F
100
AcDbEntity
  8
LAY-10
  6
CONTINUOUS
 62
     7
100
AcDbLine
 10
1168.999999997798
 20
2386.25382386845
 30
0.0
 11
1175.64466093911
 21
2392.89848480965
 31
0.0
  0
LINE
  5
284
330
1F
100
AcDbEntity
  8
LAY-10
  6
CONTINUOUS
 62
     7
100
AcDbLine
 10
1168.9999999997
 20
2333.220815280349
 30
0.0
 11
1151.3223304704
 21
2350.898484809649
 31
0.0
  0
LINE
  5
285
330
1F
100
AcDbEntity
  8
LAY-10
  6
CONTINUOUS
 62
     7
100
AcDbLine
 10
1292.743686706601
 20
2368.576154340648
 30
0.0
 11
1275.0660171773
 21
2350.898484810349
 31
0.0
  0
LINE
  5
286
330
1F
100
AcDbEntity
  8
LAY-10
  6
CONTINUOUS
 62
     7
100
AcDbLine
 10
1292.743686705901
 20
2386.253823870348
 30
0.0
 11
1310.421356235601
 21
2368.576154341347
 31
0.0
  0
LINE
  5
287
330
1F
100
AcDbEntity
  8
LAY-10
  6
CONTINUOUS
 62
     7
100
AcDbLine
 10
861.5000000000379
 20
1359.398484809759
 30
0.0
 11
857.5000000000379
 21
1365.898484809759
 31
0.0
  0
LINE
  5
288
330
1F
100
AcDbEntity
  8
LAY-10
  6
CONTINUOUS
 62
     7
100
AcDbLine
 10
861.5000000000379
 20
1372.398484809759
 30
0.0
 11
865.5000000000379
 21
1365.898484809759
 31
0.0
  0
LINE
  5
289
330
1F
100
AcDbEntity
  8
LAY-10
  6
CONTINUOUS
 62
     7
100
AcDbLine
 10
861.5000000000379
 20
1372.398484809782
 30
0.0
 11
857.5000000000379
 21
1365.898484809782
 31
0.0
  0
LINE
  5
28A
330
1F
100
AcDbEntity
  8
LAY-10
  6
CONTINUOUS
 62
     7
100
AcDbLine
 10
861.5000000000379
 20
1359.398484809781
 30
0.0
 11
865.5000000000379
 21
1365.898484809782
 31
0.0
  0
ARC
  5
28B
330
1F
100
AcDbEntity
  8
LAY-10
  6
CONTINUOUS
 62
     7
100
AcDbCircle
 10
861.5000000000379
 20
1365.898484809759
 30
0.0
 40
12.75000000000001
100
AcDbArc
 50
40.64917562267655
 51
268.2895868260078
  0
ARC
  5
28C
330
1F
100
AcDbEntity
  8
LAY-10
  6
CONTINUOUS
 62
     7
100
AcDbCircle
 10
861.5000000000379
 20
1365.898484809764
 30
0.0
 40
13.00000000000001
100
AcDbArc
 50
41.13470764192116
 51
267.8040548067628
  0
ARC
  5
28D
330
1F
100
AcDbEntity
  8
LAY-10
  6
CONTINUOUS
 62
     7
100
AcDbCircle
 10
1351.499999999998
 20
2367.898484809713
 30
0.0
 40
12.75000000000001
100
AcDbArc
 50
88.2895868261433
 51
220.6491756225417
  0
ARC
  5
28E
330
1F
100
AcDbEntity
  8
LAY-10
  6
CONTINUOUS
 62
     7
100
AcDbCircle
 10
1351.499999999998
 20
2367.898484809708
 30
0.0
 40
13.00000000000001
100
AcDbArc
 50
87.80405480689514
 51
221.1347076417889
  0
LINE
  5
28F
330
1F
100
AcDbEntity
  8
LAY-10
  6
CONTINUOUS
 62
     7
100
AcDbLine
 10
2011.49999999998
 20
2393.898484809718
 30
0.0
 11
2026.49999999998
 21
2393.898484809718
 31
0.0
  0
LINE
  5
290
330
1F
100
AcDbEntity
  8
LAY-10
  6
CONTINUOUS
 62
     7
100
AcDbLine
 10
2014.499999999979
 20
2396.898484809716
 30
0.0
 11
2014.499999999979
 21
2408.898484809718
 31
0.0
  0
LINE
  5
291
330
1F
100
AcDbEntity
  8
LAY-10
  6
CONTINUOUS
 62
     7
100
AcDbLine
 10
2026.49999999998
 20
2393.898484809718
 30
0.0
 11
2026.49999999998
 21
2396.898484809716
 31
0.0
  0
LINE
  5
292
330
1F
100
AcDbEntity
  8
LAY-10
  6
CONTINUOUS
 62
     7
100
AcDbLine
 10
2011.49999999998
 20
2408.898484809718
 30
0.0
 11
2014.499999999979
 21
2408.898484809718
 31
0.0
  0
LINE
  5
293
330
1F
100
AcDbEntity
  8
LAY-10
  6
CONTINUOUS
 62
     7
100
AcDbLine
 10
2011.49999999998
 20
2393.898484809718
 30
0.0
 11
2011.49999999998
 21
2408.898484809718
 31
0.0
  0
LINE
  5
294
330
1F
100
AcDbEntity
  8
LAY-10
  6
CONTINUOUS
 62
     7
100
AcDbLine
 10
2011.49999999998
 20
1339.898484809715
 30
0.0
 11
2026.49999999998
 21
1339.898484809715
 31
0.0
  0
LINE
  5
295
330
1F
100
AcDbEntity
  8
LAY-10
  6
CONTINUOUS
 62
     7
100
AcDbLine
 10
2011.49999999998
 20
1339.898484809715
 30
0.0
 11
2011.49999999998
 21
1324.898484809715
 31
0.0
  0
LINE
  5
296
330
1F
100
AcDbEntity
  8
LAY-10
  6
CONTINUOUS
 62
     7
100
AcDbLine
 10
2014.499999999979
 20
1336.898484809716
 30
0.0
 11
2014.499999999979
 21
1324.898484809715
 31
0.0
  0
LINE
  5
297
330
1F
100
AcDbEntity
  8
LAY-10
  6
CONTINUOUS
 62
     7
100
AcDbLine
 10
2026.49999999998
 20
1339.898484809715
 30
0.0
 11
2026.49999999998
 21
1336.898484809716
 31
0.0
  0
LINE
  5
298
330
1F
100
AcDbEntity
  8
LAY-10
  6
CONTINUOUS
 62
     7
100
AcDbLine
 10
2011.49999999998
 20
1324.898484809715
 30
0.0
 11
2014.499999999979
 21
1324.898484809715
 31
0.0
  0
LINE
  5
299
330
1F
100
AcDbEntity
  8
LAY-10
  6
CONTINUOUS
 62
     7
100
AcDbLine
 10
2084.499999999977
 20
2393.898484809719
 30
0.0
 11
2084.499999999977
 21
1339.898484809715
 31
0.0
  0
LINE
  5
29A
330
1F
100
AcDbEntity
  8
LAY-10
  6
CONTINUOUS
 62
     7
100
AcDbLine
 10
2087.699999999976
 20
2396.7847763107
 30
0.0
 11
2087.699999999976
 21
2360.098484809715
 31
0.0
  0
LINE
  5
29B
330
1F
100
AcDbEntity
  8
LAY-10
  6
CONTINUOUS
 62
     7
100
AcDbLine
 10
2087.699999999976
 20
1337.0121933087
 30
0.0
 11
2087.699999999974
 21
1339.698484809766
 31
0.0
  0
LINE
  5
29C
330
1F
100
AcDbEntity
  8
LAY-10
  6
CONTINUOUS
 62
     7
100
AcDbLine
 10
2125.398484809812
 20
1295.99999999988
 30
0.0
 11
2131.055339059302
 21
1301.656854249374
 31
0.0
  0
LINE
  5
29D
330
1F
100
AcDbEntity
  8
LAY-10
  6
CONTINUOUS
 62
     7
100
AcDbLine
 10
2131.055339059302
 20
1301.656854249374
 30
0.0
 11
2095.699999999977
 21
1337.0121933087
 31
0.0
  0
ARC
  5
29E
330
1F
100
AcDbEntity
  8
LAY-10
  6
CONTINUOUS
 62
     7
100
AcDbCircle
 10
2095.699999999977
 20
1337.0121933087
 30
0.0
 40
8.0
100
AcDbArc
 50
180.0
 51
224.9999999999919
  0
LINE
  5
29F
330
1F
100
AcDbEntity
  8
LAY-10
  6
CONTINUOUS
 62
     7
100
AcDbLine
 10
2125.398484809812
 20
1295.99999999988
 30
0.0
 11
2090.043145750484
 21
1331.355339059209
 31
0.0
  0
ARC
  5
2A0
330
1F
100
AcDbEntity
  8
LAY-10
  6
CONTINUOUS
 62
     7
100
AcDbCircle
 10
2095.699999999973
 20
2396.784776310732
 30
0.0
 40
8.0
100
AcDbArc
 50
134.9999999999862
 51
180.0
  0
LINE
  5
2A1
330
1F
100
AcDbEntity
  8
LAY-10
  6
CONTINUOUS
 62
     7
100
AcDbLine
 10
2131.055339059302
 20
2432.140115370058
 30
0.0
 11
2095.699999999977
 21
2396.784776310732
 31
0.0
  0
LINE
  5
2A2
330
1F
100
AcDbEntity
  8
LAY-10
  6
CONTINUOUS
 62
     7
100
AcDbLine
 10
2125.39848480981
 20
2437.796969619551
 30
0.0
 11
2131.055339059302
 21
2432.140115370058
 31
0.0
  0
LINE
  5
2A3
330
1F
100
AcDbEntity
  8
LAY-10
  6
CONTINUOUS
 62
     7
100
AcDbLine
 10
2125.39848480981
 20
2437.796969619551
 30
0.0
 11
2090.043145750484
 21
2402.441630560225
 31
0.0
  0
LINE
  5
2A4
330
1F
100
AcDbEntity
  8
LAY-10
  6
CONTINUOUS
 62
     7
100
AcDbLine
 10
2087.699999999974
 20
1339.698484809766
 30
0.0
 11
2087.699999999976
 21
1373.698484809714
 31
0.0
  0
LINE
  5
2A5
330
1F
100
AcDbEntity
  8
LAY-10
  6
CONTINUOUS
 62
     7
100
AcDbLine
 10
2014.499999999979
 20
1336.898484809716
 30
0.0
 11
2081.499999999976
 21
1336.898484809716
 31
0.0
  0
ARC
  5
2A6
330
1F
100
AcDbEntity
  8
LAY-10
  6
CONTINUOUS
 62
     7
100
AcDbCircle
 10
2087.499999999976
 20
1373.898484809714
 30
0.0
 40
3.000000000000003
100
AcDbArc
 50
90.00000000000001
 51
180.0
  0
ARC
  5
2A7
330
1F
100
AcDbEntity
  8
LAY-10
  6
CONTINUOUS
 62
     7
100
AcDbCircle
 10
2081.699999999975
 20
1339.698484809716
 30
0.0
 40
6.000000000000006
100
AcDbArc
 50
270.0000000000002
 51
0.0
  0
ARC
  5
2A8
330
1F
100
AcDbEntity
  8
LAY-10
  6
CONTINUOUS
 62
     7
100
AcDbCircle
 10
2081.499999999976
 20
1339.898484809715
 30
0.0
 40
3.000000000000003
100
AcDbArc
 50
270.0000000000002
 51
0.0
  0
LINE
  5
2A9
330
1F
100
AcDbEntity
  8
LAY-10
  6
CONTINUOUS
 62
     7
100
AcDbLine
 10
2081.699999999975
 20
1333.698484809714
 30
0.0
 11
2014.499999999979
 21
1333.698484809714
 31
0.0
  0
LINE
  5
2AA
330
1F
100
AcDbEntity
  8
LAY-10
  6
CONTINUOUS
 62
     7
100
AcDbLine
 10
2014.499999999979
 20
2396.898484809716
 30
0.0
 11
2081.499999999976
 21
2396.898484809716
 31
0.0
  0
LINE
  5
2AB
330
1F
100
AcDbEntity
  8
LAY-10
  6
CONTINUOUS
 62
     7
100
AcDbLine
 10
2081.699999999975
 20
2400.098484809715
 30
0.0
 11
2014.499999999979
 21
2400.098484809715
 31
0.0
  0
ARC
  5
2AC
330
1F
100
AcDbEntity
  8
LAY-10
  6
CONTINUOUS
 62
     7
100
AcDbCircle
 10
2087.499999999976
 20
2359.898484809718
 30
0.0
 40
3.000000000000003
100
AcDbArc
 50
180.0
 51
270.0000000000002
  0
ARC
  5
2AD
330
1F
100
AcDbEntity
  8
LAY-10
  6
CONTINUOUS
 62
     7
100
AcDbCircle
 10
2081.699999999975
 20
2394.098484809715
 30
0.0
 40
6.000000000000006
100
AcDbArc
 50
0.0
 51
90.00000000000001
  0
ARC
  5
2AE
330
1F
100
AcDbEntity
  8
LAY-10
  6
CONTINUOUS
 62
     7
100
AcDbCircle
 10
2081.499999999976
 20
2393.898484809718
 30
0.0
 40
3.000000000000003
100
AcDbArc
 50
0.0
 51
90.00000000000001
  0
LINE
  5
2AF
330
1F
100
AcDbEntity
  8
LAY-10
  6
CONTINUOUS
 62
     7
100
AcDbLine
 10
2084.499999999996
 20
1340.898484809675
 30
0.0
 11
2011.499999999996
 21
1340.898484809675
 31
0.0
  0
LINE
  5
2B0
330
1F
100
AcDbEntity
  8
LAY-10
  6
CONTINUOUS
 62
     7
100
AcDbLine
 10
2084.499999999999
 20
1341.579611244719
 30
0.0
 11
2082.499999999996
 21
1343.384907902923
 31
0.0
  0
LINE
  5
2B1
330
1F
100
AcDbEntity
  8
LAY-10
  6
CONTINUOUS
 62
     7
100
AcDbLine
 10
2084.499999999996
 20
1342.286718025909
 30
0.0
 11
2082.499999999996
 21
1344.09201468411
 31
0.0
  0
LINE
  5
2B2
330
1F
100
AcDbEntity
  8
LAY-10
  6
CONTINUOUS
 62
     7
100
AcDbLine
 10
2084.499999999999
 20
1342.993824807094
 30
0.0
 11
2082.499999999996
 21
1344.799121465299
 31
0.0
  0
LINE
  5
2B3
330
1F
100
AcDbEntity
  8
LAY-10
  6
CONTINUOUS
 62
     7
100
AcDbLine
 10
2084.499999999996
 20
1343.700931588281
 30
0.0
 11
2082.499999999996
 21
1345.506228246485
 31
0.0
  0
LINE
  5
2B4
330
1F
100
AcDbEntity
  8
LAY-10
  6
CONTINUOUS
 62
     7
100
AcDbLine
 10
2084.499999999999
 20
1344.408038369465
 30
0.0
 11
2082.499999999996
 21
1346.21333502767
 31
0.0
  0
LINE
  5
2B5
330
1F
100
AcDbEntity
  8
LAY-10
  6
CONTINUOUS
 62
     7
100
AcDbLine
 10
2084.499999999996
 20
1345.115145150654
 30
0.0
 11
2082.499999999996
 21
1346.920441808856
 31
0.0
  0
LINE
  5
2B6
330
1F
100
AcDbEntity
  8
LAY-10
  6
CONTINUOUS
 62
     7
100
AcDbLine
 10
2084.499999999999
 20
1345.822251931839
 30
0.0
 11
2082.499999999996
 21
1347.627548590045
 31
0.0
  0
LINE
  5
2B7
330
1F
100
AcDbEntity
  8
LAY-10
  6
CONTINUOUS
 62
     7
100
AcDbLine
 10
2084.499999999996
 20
1346.529358713028
 30
0.0
 11
2082.499999999996
 21
1348.33465537123
 31
0.0
  0
LINE
  5
2B8
330
1F
100
AcDbEntity
  8
LAY-10
  6
CONTINUOUS
 62
     7
100
AcDbLine
 10
2084.499999999999
 20
1347.236465494212
 30
0.0
 11
2082.499999999996
 21
1349.041762152418
 31
0.0
  0
LINE
  5
2B9
330
1F
100
AcDbEntity
  8
LAY-10
  6
CONTINUOUS
 62
     7
100
AcDbLine
 10
2084.499999999996
 20
1347.943572275399
 30
0.0
 11
2082.49804989112
 21
1349.745522384276
 31
0.0
  0
LINE
  5
2BA
330
1F
100
AcDbEntity
  8
LAY-10
  6
CONTINUOUS
 62
     7
100
AcDbLine
 10
2084.499999999999
 20
1348.650679056585
 30
0.0
 11
2082.499999999996
 21
1350.452225794905
 31
0.0
  0
LINE
  5
2BB
330
1F
100
AcDbEntity
  8
LAY-10
  6
CONTINUOUS
 62
     7
100
AcDbLine
 10
2084.499999999996
 20
1349.357785837773
 30
0.0
 11
2082.499999999998
 21
1351.157785837771
 31
0.0
  0
LINE
  5
2BC
330
1F
100
AcDbEntity
  8
LAY-10
  6
CONTINUOUS
 62
     7
100
AcDbLine
 10
2084.499999999999
 20
1350.064892618958
 30
0.0
 11
2082.499999999995
 21
1351.864892618959
 31
0.0
  0
LINE
  5
2BD
330
1F
100
AcDbEntity
  8
LAY-10
  6
CONTINUOUS
 62
     7
100
AcDbLine
 10
2084.499999999996
 20
1350.771999400145
 30
0.0
 11
2082.499999999998
 21
1352.571999400144
 31
0.0
  0
LINE
  5
2BE
330
1F
100
AcDbEntity
  8
LAY-10
  6
CONTINUOUS
 62
     7
100
AcDbLine
 10
2084.499999999999
 20
1351.479106181332
 30
0.0
 11
2082.499999999995
 21
1353.279106181332
 31
0.0
  0
LINE
  5
2BF
330
1F
100
AcDbEntity
  8
LAY-10
  6
CONTINUOUS
 62
     7
100
AcDbLine
 10
2084.499999999996
 20
1352.186212962519
 30
0.0
 11
2082.499999999998
 21
1353.986212962518
 31
0.0
  0
LINE
  5
2C0
330
1F
100
AcDbEntity
  8
LAY-10
  6
CONTINUOUS
 62
     7
100
AcDbLine
 10
2084.499999999999
 20
1352.893319743703
 30
0.0
 11
2082.499999999995
 21
1354.693319743704
 31
0.0
  0
LINE
  5
2C1
330
1F
100
AcDbEntity
  8
LAY-10
  6
CONTINUOUS
 62
     7
100
AcDbLine
 10
2084.499999999996
 20
1353.600426524892
 30
0.0
 11
2082.499999999998
 21
1355.40042652489
 31
0.0
  0
LINE
  5
2C2
330
1F
100
AcDbEntity
  8
LAY-10
  6
CONTINUOUS
 62
     7
100
AcDbLine
 10
2084.499999999999
 20
1354.307533306077
 30
0.0
 11
2082.499999999995
 21
1356.10753330608
 31
0.0
  0
LINE
  5
2C3
330
1F
100
AcDbEntity
  8
LAY-10
  6
CONTINUOUS
 62
     7
100
AcDbLine
 10
2084.499999999996
 20
1355.014640087265
 30
0.0
 11
2082.499999999998
 21
1356.814640087263
 31
0.0
  0
LINE
  5
2C4
330
1F
100
AcDbEntity
  8
LAY-10
  6
CONTINUOUS
 62
     7
100
AcDbLine
 10
2084.499999999999
 20
1355.721746868449
 30
0.0
 11
2082.499999999995
 21
1357.521746868452
 31
0.0
  0
LINE
  5
2C5
330
1F
100
AcDbEntity
  8
LAY-10
  6
CONTINUOUS
 62
     7
100
AcDbLine
 10
2084.499999999996
 20
1356.428853649637
 30
0.0
 11
2082.499999999998
 21
1358.228853649636
 31
0.0
  0
LINE
  5
2C6
330
1F
100
AcDbEntity
  8
LAY-10
  6
CONTINUOUS
 62
     7
100
AcDbLine
 10
2084.499999999999
 20
1357.135960430823
 30
0.0
 11
2082.499999999995
 21
1358.935960430826
 31
0.0
  0
LINE
  5
2C7
330
1F
100
AcDbEntity
  8
LAY-10
  6
CONTINUOUS
 62
     7
100
AcDbLine
 10
2084.499999999996
 20
1357.843067212012
 30
0.0
 11
2082.499999999999
 21
1359.643067212008
 31
0.0
  0
LINE
  5
2C8
330
1F
100
AcDbEntity
  8
LAY-10
  6
CONTINUOUS
 62
     7
100
AcDbLine
 10
2084.499999999999
 20
1358.550173993196
 30
0.0
 11
2082.499999999995
 21
1360.350173993198
 31
0.0
  0
LINE
  5
2C9
330
1F
100
AcDbEntity
  8
LAY-10
  6
CONTINUOUS
 62
     7
100
AcDbLine
 10
2084.499999999996
 20
1359.257280774385
 30
0.0
 11
2082.499999999999
 21
1361.057280774382
 31
0.0
  0
LINE
  5
2CA
330
1F
100
AcDbEntity
  8
LAY-10
  6
CONTINUOUS
 62
     7
100
AcDbLine
 10
2084.499999999999
 20
1359.964387555569
 30
0.0
 11
2082.499999999995
 21
1361.764387555571
 31
0.0
  0
LINE
  5
2CB
330
1F
100
AcDbEntity
  8
LAY-10
  6
CONTINUOUS
 62
     7
100
AcDbLine
 10
2084.499999999996
 20
1360.671494336758
 30
0.0
 11
2082.499999999999
 21
1362.471494336754
 31
0.0
  0
LINE
  5
2CC
330
1F
100
AcDbEntity
  8
LAY-10
  6
CONTINUOUS
 62
     7
100
AcDbLine
 10
2084.499999999999
 20
1361.378601117941
 30
0.0
 11
2082.499999999995
 21
1363.178601117944
 31
0.0
  0
LINE
  5
2CD
330
1F
100
AcDbEntity
  8
LAY-10
  6
CONTINUOUS
 62
     7
100
AcDbLine
 10
2084.499999999996
 20
1362.085707899132
 30
0.0
 11
2082.499999999999
 21
1363.885707899127
 31
0.0
  0
LINE
  5
2CE
330
1F
100
AcDbEntity
  8
LAY-10
  6
CONTINUOUS
 62
     7
100
AcDbLine
 10
2084.499999999999
 20
1362.792814680314
 30
0.0
 11
2082.499999999996
 21
1364.592814680318
 31
0.0
  0
LINE
  5
2CF
330
1F
100
AcDbEntity
  8
LAY-10
  6
CONTINUOUS
 62
     7
100
AcDbLine
 10
2084.499999999996
 20
1363.499921461503
 30
0.0
 11
2082.499999999999
 21
1365.2999214615
 31
0.0
  0
LINE
  5
2D0
330
1F
100
AcDbEntity
  8
LAY-10
  6
CONTINUOUS
 62
     7
100
AcDbLine
 10
2084.499999999999
 20
1364.207028242687
 30
0.0
 11
2082.499999999996
 21
1366.00702824269
 31
0.0
  0
LINE
  5
2D1
330
1F
100
AcDbEntity
  8
LAY-10
  6
CONTINUOUS
 62
     7
100
AcDbLine
 10
2084.499999999996
 20
1364.914135023877
 30
0.0
 11
2082.499999999999
 21
1366.714135023874
 31
0.0
  0
LINE
  5
2D2
330
1F
100
AcDbEntity
  8
LAY-10
  6
CONTINUOUS
 62
     7
100
AcDbLine
 10
2084.499999999999
 20
1365.62124180506
 30
0.0
 11
2082.499999999996
 21
1367.421241805063
 31
0.0
  0
LINE
  5
2D3
330
1F
100
AcDbEntity
  8
LAY-10
  6
CONTINUOUS
 62
     7
100
AcDbLine
 10
2084.499999999996
 20
1366.328348586249
 30
0.0
 11
2082.499999999999
 21
1368.128348586246
 31
0.0
  0
LINE
  5
2D4
330
1F
100
AcDbEntity
  8
LAY-10
  6
CONTINUOUS
 62
     7
100
AcDbLine
 10
2084.499999999999
 20
1367.035455367433
 30
0.0
 11
2082.499999999996
 21
1368.835455367435
 31
0.0
  0
LINE
  5
2D5
330
1F
100
AcDbEntity
  8
LAY-10
  6
CONTINUOUS
 62
     7
100
AcDbLine
 10
2084.499999999996
 20
1367.742562148623
 30
0.0
 11
2082.499999999999
 21
1369.542562148619
 31
0.0
  0
LINE
  5
2D6
330
1F
100
AcDbEntity
  8
LAY-10
  6
CONTINUOUS
 62
     7
100
AcDbLine
 10
2084.499999999999
 20
1368.449668929806
 30
0.0
 11
2082.499999999996
 21
1370.249668929808
 31
0.0
  0
LINE
  5
2D7
330
1F
100
AcDbEntity
  8
LAY-10
  6
CONTINUOUS
 62
     7
100
AcDbLine
 10
2083.68784857436
 20
1340.898484809675
 30
0.0
 11
2082.499999999996
 21
1341.970694340551
 31
0.0
  0
LINE
  5
2D8
330
1F
100
AcDbEntity
  8
LAY-10
  6
CONTINUOUS
 62
     7
100
AcDbLine
 10
2082.91838473525
 20
1340.898484809675
 30
0.0
 11
2082.499999999996
 21
1341.265031951067
 31
0.0
  0
LINE
  5
2D9
330
1F
100
AcDbEntity
  8
LAY-10
  6
CONTINUOUS
 62
     7
100
AcDbLine
 10
2084.499999999999
 20
1369.86388249218
 30
0.0
 11
2083.350441869474
 21
1370.898484809651
 31
0.0
  0
LINE
  5
2DA
330
1F
100
AcDbEntity
  8
LAY-10
  6
CONTINUOUS
 62
     7
100
AcDbLine
 10
2084.499999999996
 20
1370.570989273369
 30
0.0
 11
2084.136116070793
 21
1370.898484809651
 31
0.0
  0
LINE
  5
2DB
330
1F
100
AcDbEntity
  8
LAY-10
  6
CONTINUOUS
 62
     7
100
AcDbLine
 10
2084.499999999996
 20
1369.156775710996
 30
0.0
 11
2082.564767668155
 21
1370.898484809651
 31
0.0
  0
LINE
  5
2DC
330
1F
100
AcDbEntity
  8
LAY-10
  6
CONTINUOUS
 62
     7
100
AcDbLine
 10
2082.499999999996
 20
1370.898484809651
 30
0.0
 11
2084.499999999996
 21
1370.898484809651
 31
0.0
  0
LINE
  5
2DD
330
1F
100
AcDbEntity
  8
LAY-10
  6
CONTINUOUS
 62
     7
100
AcDbLine
 10
2084.499999999996
 20
2392.898484809681
 30
0.0
 11
2011.499999999996
 21
2392.898484809681
 31
0.0
  0
LINE
  5
2DE
330
1F
100
AcDbEntity
  8
LAY-10
  6
CONTINUOUS
 62
     7
100
AcDbLine
 10
2082.499999999995
 20
2392.217358374635
 30
0.0
 11
2084.499999999997
 21
2390.412061716432
 31
0.0
  0
LINE
  5
2DF
330
1F
100
AcDbEntity
  8
LAY-10
  6
CONTINUOUS
 62
     7
100
AcDbLine
 10
2082.499999999997
 20
2391.510251593446
 30
0.0
 11
2084.499999999997
 21
2389.704954935245
 31
0.0
  0
LINE
  5
2E0
330
1F
100
AcDbEntity
  8
LAY-10
  6
CONTINUOUS
 62
     7
100
AcDbLine
 10
2082.499999999995
 20
2390.803144812262
 30
0.0
 11
2084.499999999997
 21
2388.997848154057
 31
0.0
  0
LINE
  5
2E1
330
1F
100
AcDbEntity
  8
LAY-10
  6
CONTINUOUS
 62
     7
100
AcDbLine
 10
2082.499999999997
 20
2390.096038031073
 30
0.0
 11
2084.499999999997
 21
2388.290741372871
 31
0.0
  0
LINE
  5
2E2
330
1F
100
AcDbEntity
  8
LAY-10
  6
CONTINUOUS
 62
     7
100
AcDbLine
 10
2082.499999999995
 20
2389.38893124989
 30
0.0
 11
2084.499999999997
 21
2387.583634591684
 31
0.0
  0
LINE
  5
2E3
330
1F
100
AcDbEntity
  8
LAY-10
  6
CONTINUOUS
 62
     7
100
AcDbLine
 10
2082.499999999997
 20
2388.6818244687
 30
0.0
 11
2084.499999999997
 21
2386.876527810498
 31
0.0
  0
LINE
  5
2E4
330
1F
100
AcDbEntity
  8
LAY-10
  6
CONTINUOUS
 62
     7
100
AcDbLine
 10
2082.499999999995
 20
2387.974717687515
 30
0.0
 11
2084.499999999997
 21
2386.16942102931
 31
0.0
  0
LINE
  5
2E5
330
1F
100
AcDbEntity
  8
LAY-10
  6
CONTINUOUS
 62
     7
100
AcDbLine
 10
2082.499999999997
 20
2387.267610906327
 30
0.0
 11
2084.499999999997
 21
2385.462314248125
 31
0.0
  0
LINE
  5
2E6
330
1F
100
AcDbEntity
  8
LAY-10
  6
CONTINUOUS
 62
     7
100
AcDbLine
 10
2082.499999999995
 20
2386.560504125144
 30
0.0
 11
2084.499999999997
 21
2384.755207466937
 31
0.0
  0
LINE
  5
2E7
330
1F
100
AcDbEntity
  8
LAY-10
  6
CONTINUOUS
 62
     7
100
AcDbLine
 10
2082.499999999997
 20
2385.853397343955
 30
0.0
 11
2084.501950108874
 21
2384.051447235079
 31
0.0
  0
LINE
  5
2E8
330
1F
100
AcDbEntity
  8
LAY-10
  6
CONTINUOUS
 62
     7
100
AcDbLine
 10
2082.499999999995
 20
2385.14629056277
 30
0.0
 11
2084.499999999997
 21
2383.344743824451
 31
0.0
  0
LINE
  5
2E9
330
1F
100
AcDbEntity
  8
LAY-10
  6
CONTINUOUS
 62
     7
100
AcDbLine
 10
2082.499999999997
 20
2384.439183781582
 30
0.0
 11
2084.499999999995
 21
2382.639183781584
 31
0.0
  0
LINE
  5
2EA
330
1F
100
AcDbEntity
  8
LAY-10
  6
CONTINUOUS
 62
     7
100
AcDbLine
 10
2082.499999999995
 20
2383.732077000397
 30
0.0
 11
2084.499999999999
 21
2381.932077000396
 31
0.0
  0
LINE
  5
2EB
330
1F
100
AcDbEntity
  8
LAY-10
  6
CONTINUOUS
 62
     7
100
AcDbLine
 10
2082.499999999997
 20
2383.02497021921
 30
0.0
 11
2084.499999999995
 21
2381.224970219211
 31
0.0
  0
LINE
  5
2EC
330
1F
100
AcDbEntity
  8
LAY-10
  6
CONTINUOUS
 62
     7
100
AcDbLine
 10
2082.499999999995
 20
2382.317863438024
 30
0.0
 11
2084.499999999999
 21
2380.517863438023
 31
0.0
  0
LINE
  5
2ED
330
1F
100
AcDbEntity
  8
LAY-10
  6
CONTINUOUS
 62
     7
100
AcDbLine
 10
2082.499999999997
 20
2381.610756656835
 30
0.0
 11
2084.499999999995
 21
2379.810756656838
 31
0.0
  0
LINE
  5
2EE
330
1F
100
AcDbEntity
  8
LAY-10
  6
CONTINUOUS
 62
     7
100
AcDbLine
 10
2082.499999999995
 20
2380.903649875651
 30
0.0
 11
2084.499999999999
 21
2379.10364987565
 31
0.0
  0
LINE
  5
2EF
330
1F
100
AcDbEntity
  8
LAY-10
  6
CONTINUOUS
 62
     7
100
AcDbLine
 10
2082.499999999997
 20
2380.196543094464
 30
0.0
 11
2084.499999999995
 21
2378.396543094465
 31
0.0
  0
LINE
  5
2F0
330
1F
100
AcDbEntity
  8
LAY-10
  6
CONTINUOUS
 62
     7
100
AcDbLine
 10
2082.499999999995
 20
2379.489436313278
 30
0.0
 11
2084.499999999999
 21
2377.689436313275
 31
0.0
  0
LINE
  5
2F1
330
1F
100
AcDbEntity
  8
LAY-10
  6
CONTINUOUS
 62
     7
100
AcDbLine
 10
2082.499999999997
 20
2378.78232953209
 30
0.0
 11
2084.499999999995
 21
2376.982329532091
 31
0.0
  0
LINE
  5
2F2
330
1F
100
AcDbEntity
  8
LAY-10
  6
CONTINUOUS
 62
     7
100
AcDbLine
 10
2082.499999999995
 20
2378.075222750906
 30
0.0
 11
2084.499999999999
 21
2376.275222750903
 31
0.0
  0
LINE
  5
2F3
330
1F
100
AcDbEntity
  8
LAY-10
  6
CONTINUOUS
 62
     7
100
AcDbLine
 10
2082.499999999997
 20
2377.368115969717
 30
0.0
 11
2084.499999999995
 21
2375.56811596972
 31
0.0
  0
LINE
  5
2F4
330
1F
100
AcDbEntity
  8
LAY-10
  6
CONTINUOUS
 62
     7
100
AcDbLine
 10
2082.499999999995
 20
2376.661009188532
 30
0.0
 11
2084.499999999999
 21
2374.861009188529
 31
0.0
  0
LINE
  5
2F5
330
1F
100
AcDbEntity
  8
LAY-10
  6
CONTINUOUS
 62
     7
100
AcDbLine
 10
2082.499999999997
 20
2375.953902407344
 30
0.0
 11
2084.499999999994
 21
2374.153902407346
 31
0.0
  0
LINE
  5
2F6
330
1F
100
AcDbEntity
  8
LAY-10
  6
CONTINUOUS
 62
     7
100
AcDbLine
 10
2082.499999999995
 20
2375.246795626159
 30
0.0
 11
2084.499999999999
 21
2373.446795626157
 31
0.0
  0
LINE
  5
2F7
330
1F
100
AcDbEntity
  8
LAY-10
  6
CONTINUOUS
 62
     7
100
AcDbLine
 10
2082.499999999997
 20
2374.53968884497
 30
0.0
 11
2084.499999999994
 21
2372.739688844973
 31
0.0
  0
LINE
  5
2F8
330
1F
100
AcDbEntity
  8
LAY-10
  6
CONTINUOUS
 62
     7
100
AcDbLine
 10
2082.499999999995
 20
2373.832582063786
 30
0.0
 11
2084.499999999999
 21
2372.032582063784
 31
0.0
  0
LINE
  5
2F9
330
1F
100
AcDbEntity
  8
LAY-10
  6
CONTINUOUS
 62
     7
100
AcDbLine
 10
2082.499999999997
 20
2373.125475282597
 30
0.0
 11
2084.499999999994
 21
2371.325475282601
 31
0.0
  0
LINE
  5
2FA
330
1F
100
AcDbEntity
  8
LAY-10
  6
CONTINUOUS
 62
     7
100
AcDbLine
 10
2082.499999999995
 20
2372.418368501414
 30
0.0
 11
2084.499999999999
 21
2370.618368501411
 31
0.0
  0
LINE
  5
2FB
330
1F
100
AcDbEntity
  8
LAY-10
  6
CONTINUOUS
 62
     7
100
AcDbLine
 10
2082.499999999997
 20
2371.711261720224
 30
0.0
 11
2084.499999999994
 21
2369.911261720228
 31
0.0
  0
LINE
  5
2FC
330
1F
100
AcDbEntity
  8
LAY-10
  6
CONTINUOUS
 62
     7
100
AcDbLine
 10
2082.499999999995
 20
2371.004154939041
 30
0.0
 11
2084.499999999997
 21
2369.204154939038
 31
0.0
  0
LINE
  5
2FD
330
1F
100
AcDbEntity
  8
LAY-10
  6
CONTINUOUS
 62
     7
100
AcDbLine
 10
2082.499999999997
 20
2370.297048157851
 30
0.0
 11
2084.499999999994
 21
2368.497048157855
 31
0.0
  0
LINE
  5
2FE
330
1F
100
AcDbEntity
  8
LAY-10
  6
CONTINUOUS
 62
     7
100
AcDbLine
 10
2082.499999999995
 20
2369.589941376667
 30
0.0
 11
2084.499999999997
 21
2367.789941376665
 31
0.0
  0
LINE
  5
2FF
330
1F
100
AcDbEntity
  8
LAY-10
  6
CONTINUOUS
 62
     7
100
AcDbLine
 10
2082.499999999997
 20
2368.882834595478
 30
0.0
 11
2084.499999999994
 21
2367.082834595481
 31
0.0
  0
LINE
  5
300
330
1F
100
AcDbEntity
  8
LAY-10
  6
CONTINUOUS
 62
     7
100
AcDbLine
 10
2082.499999999995
 20
2368.175727814296
 30
0.0
 11
2084.499999999997
 21
2366.375727814291
 31
0.0
  0
LINE
  5
301
330
1F
100
AcDbEntity
  8
LAY-10
  6
CONTINUOUS
 62
     7
100
AcDbLine
 10
2082.499999999997
 20
2367.468621033106
 30
0.0
 11
2084.499999999994
 21
2365.668621033109
 31
0.0
  0
LINE
  5
302
330
1F
100
AcDbEntity
  8
LAY-10
  6
CONTINUOUS
 62
     7
100
AcDbLine
 10
2082.499999999995
 20
2366.761514251923
 30
0.0
 11
2084.499999999997
 21
2364.96151425192
 31
0.0
  0
LINE
  5
303
330
1F
100
AcDbEntity
  8
LAY-10
  6
CONTINUOUS
 62
     7
100
AcDbLine
 10
2082.499999999997
 20
2366.054407470732
 30
0.0
 11
2084.499999999994
 21
2364.254407470736
 31
0.0
  0
LINE
  5
304
330
1F
100
AcDbEntity
  8
LAY-10
  6
CONTINUOUS
 62
     7
100
AcDbLine
 10
2082.499999999995
 20
2365.347300689549
 30
0.0
 11
2084.499999999997
 21
2363.547300689546
 31
0.0
  0
LINE
  5
305
330
1F
100
AcDbEntity
  8
LAY-10
  6
CONTINUOUS
 62
     7
100
AcDbLine
 10
2083.312151425633
 20
2392.898484809681
 30
0.0
 11
2084.499999999997
 21
2391.826275278805
 31
0.0
  0
LINE
  5
306
330
1F
100
AcDbEntity
  8
LAY-10
  6
CONTINUOUS
 62
     7
100
AcDbLine
 10
2084.081615264743
 20
2392.898484809681
 30
0.0
 11
2084.499999999997
 21
2392.531937668287
 31
0.0
  0
LINE
  5
307
330
1F
100
AcDbEntity
  8
LAY-10
  6
CONTINUOUS
 62
     7
100
AcDbLine
 10
2082.499999999995
 20
2363.933087127176
 30
0.0
 11
2083.649558130518
 21
2362.898484809703
 31
0.0
  0
LINE
  5
308
330
1F
100
AcDbEntity
  8
LAY-10
  6
CONTINUOUS
 62
     7
100
AcDbLine
 10
2082.499999999997
 20
2363.225980345986
 30
0.0
 11
2082.8638839292
 21
2362.898484809703
 31
0.0
  0
LINE
  5
309
330
1F
100
AcDbEntity
  8
LAY-10
  6
CONTINUOUS
 62
     7
100
AcDbLine
 10
2082.499999999997
 20
2364.640193908359
 30
0.0
 11
2084.435232331838
 21
2362.898484809703
 31
0.0
  0
LINE
  5
30A
330
1F
100
AcDbEntity
  8
LAY-10
  6
CONTINUOUS
 62
     7
100
AcDbLine
 10
2084.499999999997
 20
2362.898484809703
 30
0.0
 11
2082.499999999997
 21
2362.898484809703
 31
0.0
  0
LINE
  5
30B
330
1F
100
AcDbEntity
  8
LAY-10
  6
CONTINUOUS
 62
     7
100
AcDbLine
 10
2082.528782356648
 20
2392.898484809681
 30
0.0
 11
2084.499999999997
 21
2391.119168497617
 31
0.0
  0
LINE
  5
30C
330
1F
100
AcDbEntity
  8
LAY-10
  6
CONTINUOUS
 62
     7
100
AcDbLine
 10
2084.471217643344
 20
1340.898484809675
 30
0.0
 11
2082.499999999996
 21
1342.677801121738
 31
0.0
  0
LINE
  5
30D
330
1F
100
AcDbEntity
  8
LAY-10
  6
CONTINUOUS
 62
     7
100
AcDbLine
 10
2095.699999999977
 20
2396.784776310732
 30
0.0
 11
2095.699999999977
 21
2396.098484809719
 31
0.0
  0
LINE
  5
30E
330
1F
100
AcDbEntity
  8
LAY-10
  6
CONTINUOUS
 62
     7
100
AcDbLine
 10
2110.099999999976
 20
1548.398484809715
 30
0.0
 11
2110.099999999976
 21
1568.398484809715
 31
0.0
  0
LINE
  5
30F
330
1F
100
AcDbEntity
  8
LAY-10
  6
CONTINUOUS
 62
     7
100
AcDbLine
 10
2110.099999999976
 20
1678.398484809715
 30
0.0
 11
2110.099999999976
 21
1698.398484809715
 31
0.0
  0
LINE
  5
310
330
1F
100
AcDbEntity
  8
LAY-10
  6
CONTINUOUS
 62
     7
100
AcDbLine
 10
2103.099999999974
 20
1698.398484809715
 30
0.0
 11
2111.099999999977
 21
1698.398484809715
 31
0.0
  0
LINE
  5
311
330
1F
100
AcDbEntity
  8
LAY-10
  6
CONTINUOUS
 62
     7
100
AcDbLine
 10
2103.099999999974
 20
1548.398484809715
 30
0.0
 11
2111.099999999977
 21
1548.398484809715
 31
0.0
  0
LINE
  5
312
330
1F
100
AcDbEntity
  8
LAY-10
  6
CONTINUOUS
 62
     7
100
AcDbLine
 10
2103.099999999974
 20
1568.398484809715
 30
0.0
 11
2111.099999999977
 21
1568.398484809715
 31
0.0
  0
LINE
  5
313
330
1F
100
AcDbEntity
  8
LAY-10
  6
CONTINUOUS
 62
     7
100
AcDbLine
 10
2105.099999999975
 20
1548.398484809715
 30
0.0
 11
2105.099999999975
 21
1538.098484809717
 31
0.0
  0
LINE
  5
314
330
1F
100
AcDbEntity
  8
LAY-10
  6
CONTINUOUS
 62
     7
100
AcDbLine
 10
2105.099999999975
 20
1678.398484809715
 30
0.0
 11
2105.099999999975
 21
1568.398484809715
 31
0.0
  0
LINE
  5
315
330
1F
100
AcDbEntity
  8
LAY-10
  6
CONTINUOUS
 62
     7
100
AcDbLine
 10
2105.099999999975
 20
1708.398484809715
 30
0.0
 11
2105.099999999975
 21
1698.398484809715
 31
0.0
  0
LINE
  5
316
330
1F
100
AcDbEntity
  8
LAY-10
  6
CONTINUOUS
 62
     7
100
AcDbLine
 10
2103.099999999974
 20
1568.398484809715
 30
0.0
 11
2103.099999999974
 21
1548.398484809715
 31
0.0
  0
LINE
  5
317
330
1F
100
AcDbEntity
  8
LAY-10
  6
CONTINUOUS
 62
     7
100
AcDbLine
 10
2103.099999999974
 20
1698.398484809715
 30
0.0
 11
2103.099999999974
 21
1678.398484809715
 31
0.0
  0
LINE
  5
318
330
1F
100
AcDbEntity
  8
LAY-10
  6
CONTINUOUS
 62
     7
100
AcDbLine
 10
2103.099999999974
 20
1678.398484809715
 30
0.0
 11
2111.099999999977
 21
1678.398484809715
 31
0.0
  0
LINE
  5
319
330
1F
100
AcDbEntity
  8
LAY-10
  6
CONTINUOUS
 62
     7
100
AcDbLine
 10
2105.099999999975
 20
1538.098484809717
 30
0.0
 11
2111.099999999977
 21
1538.098484809717
 31
0.0
  0
LINE
  5
31A
330
1F
100
AcDbEntity
  8
LAY-10
  6
CONTINUOUS
 62
     7
100
AcDbLine
 10
2105.099999999975
 20
1708.398484809715
 30
0.0
 11
2111.099999999977
 21
1708.398484809715
 31
0.0
  0
ARC
  5
31B
330
1F
100
AcDbEntity
  8
LAY-10
  6
CONTINUOUS
 62
     7
100
AcDbCircle
 10
2108.099999999978
 20
1576.398484809716
 30
0.0
 40
3.000000000000003
100
AcDbArc
 50
0.0
 51
180.0
  0
ARC
  5
31C
330
1F
100
AcDbEntity
  8
LAY-10
  6
CONTINUOUS
 62
     7
100
AcDbCircle
 10
2108.099999999978
 20
1670.398484809716
 30
0.0
 40
3.000000000000003
100
AcDbArc
 50
180.0
 51
0.0
  0
LINE
  5
31D
330
1F
100
AcDbEntity
  8
LAY-10
  6
CONTINUOUS
 62
     7
100
AcDbLine
 10
2110.099999999976
 20
2185.398484809718
 30
0.0
 11
2110.099999999976
 21
2165.398484809718
 31
0.0
  0
LINE
  5
31E
330
1F
100
AcDbEntity
  8
LAY-10
  6
CONTINUOUS
 62
     7
100
AcDbLine
 10
2110.099999999976
 20
2055.398484809718
 30
0.0
 11
2110.099999999976
 21
2035.398484809718
 31
0.0
  0
LINE
  5
31F
330
1F
100
AcDbEntity
  8
LAY-10
  6
CONTINUOUS
 62
     7
100
AcDbLine
 10
2103.099999999974
 20
2035.398484809718
 30
0.0
 11
2111.099999999977
 21
2035.398484809718
 31
0.0
  0
LINE
  5
320
330
1F
100
AcDbEntity
  8
LAY-10
  6
CONTINUOUS
 62
     7
100
AcDbLine
 10
2103.099999999974
 20
2185.398484809718
 30
0.0
 11
2111.099999999977
 21
2185.398484809718
 31
0.0
  0
LINE
  5
321
330
1F
100
AcDbEntity
  8
LAY-10
  6
CONTINUOUS
 62
     7
100
AcDbLine
 10
2103.099999999974
 20
2165.398484809718
 30
0.0
 11
2111.099999999977
 21
2165.398484809718
 31
0.0
  0
LINE
  5
322
330
1F
100
AcDbEntity
  8
LAY-10
  6
CONTINUOUS
 62
     7
100
AcDbLine
 10
2105.099999999975
 20
2185.398484809718
 30
0.0
 11
2105.099999999975
 21
2195.698484809715
 31
0.0
  0
LINE
  5
323
330
1F
100
AcDbEntity
  8
LAY-10
  6
CONTINUOUS
 62
     7
100
AcDbLine
 10
2105.099999999975
 20
2055.398484809718
 30
0.0
 11
2105.099999999975
 21
2165.398484809718
 31
0.0
  0
LINE
  5
324
330
1F
100
AcDbEntity
  8
LAY-10
  6
CONTINUOUS
 62
     7
100
AcDbLine
 10
2105.099999999975
 20
2025.398484809718
 30
0.0
 11
2105.099999999975
 21
2035.398484809718
 31
0.0
  0
LINE
  5
325
330
1F
100
AcDbEntity
  8
LAY-10
  6
CONTINUOUS
 62
     7
100
AcDbLine
 10
2103.099999999974
 20
2165.398484809718
 30
0.0
 11
2103.099999999974
 21
2185.398484809718
 31
0.0
  0
LINE
  5
326
330
1F
100
AcDbEntity
  8
LAY-10
  6
CONTINUOUS
 62
     7
100
AcDbLine
 10
2103.099999999974
 20
2035.398484809718
 30
0.0
 11
2103.099999999974
 21
2055.398484809718
 31
0.0
  0
LINE
  5
327
330
1F
100
AcDbEntity
  8
LAY-10
  6
CONTINUOUS
 62
     7
100
AcDbLine
 10
2103.099999999974
 20
2055.398484809718
 30
0.0
 11
2111.099999999977
 21
2055.398484809718
 31
0.0
  0
LINE
  5
328
330
1F
100
AcDbEntity
  8
LAY-10
  6
CONTINUOUS
 62
     7
100
AcDbLine
 10
2105.099999999975
 20
2195.698484809715
 30
0.0
 11
2111.099999999977
 21
2195.698484809715
 31
0.0
  0
LINE
  5
329
330
1F
100
AcDbEntity
  8
LAY-10
  6
CONTINUOUS
 62
     7
100
AcDbLine
 10
2105.099999999975
 20
2025.398484809718
 30
0.0
 11
2111.099999999977
 21
2025.398484809718
 31
0.0
  0
ARC
  5
32A
330
1F
100
AcDbEntity
  8
LAY-10
  6
CONTINUOUS
 62
     7
100
AcDbCircle
 10
2108.099999999978
 20
2157.398484809716
 30
0.0
 40
3.000000000000003
100
AcDbArc
 50
180.0
 51
0.0
  0
ARC
  5
32B
330
1F
100
AcDbEntity
  8
LAY-10
  6
CONTINUOUS
 62
     7
100
AcDbCircle
 10
2108.099999999978
 20
2063.398484809716
 30
0.0
 40
3.000000000000003
100
AcDbArc
 50
0.0
 51
180.0
  0
LINE
  5
32C
330
1F
100
AcDbEntity
  8
LAY-10
  6
CONTINUOUS
 62
     7
100
AcDbLine
 10
2087.7
 20
2360.098484809715
 30
0.0
 11
2123.499999999978
 21
2360.098484809715
 31
0.0
  0
LINE
  5
32D
330
1F
100
AcDbEntity
  8
LAY-10
  6
CONTINUOUS
 62
     7
100
AcDbLine
 10
2087.5
 20
2356.898484809718
 30
0.0
 11
2123.299999999979
 21
2356.898484809718
 31
0.0
  0
LINE
  5
32E
330
1F
100
AcDbEntity
  8
LAY-10
  6
CONTINUOUS
 62
     7
100
AcDbLine
 10
2123.299999999979
 20
2346.898484809718
 30
0.0
 11
2123.299999999979
 21
2356.898484809718
 31
0.0
  0
LINE
  5
32F
330
1F
100
AcDbEntity
  8
LAY-10
  6
CONTINUOUS
 62
     7
100
AcDbLine
 10
2114.299999999976
 20
2346.898484809718
 30
0.0
 11
2114.299999999976
 21
2350.898484809718
 31
0.0
  0
LINE
  5
330
330
1F
100
AcDbEntity
  8
LAY-10
  6
CONTINUOUS
 62
     7
100
AcDbLine
 10
2114.299999999976
 20
2336.898484809716
 30
0.0
 11
2114.299999999976
 21
1396.898484809716
 31
0.0
  0
LINE
  5
331
330
1F
100
AcDbEntity
  8
LAY-10
  6
CONTINUOUS
 62
     7
100
AcDbLine
 10
2123.299999999979
 20
2336.898484809716
 30
0.0
 11
2123.299999999979
 21
2306.898484809716
 31
0.0
  0
LINE
  5
332
330
1F
100
AcDbEntity
  8
LAY-10
  6
CONTINUOUS
 62
     7
100
AcDbLine
 10
2126.499999999976
 20
1426.898484809716
 30
0.0
 11
2126.499999999976
 21
1376.698484809716
 31
0.0
  0
LINE
  5
333
330
1F
100
AcDbEntity
  8
LAY-10
  6
CONTINUOUS
 62
     7
100
AcDbLine
 10
2126.499999999976
 20
2306.898484809716
 30
0.0
 11
2126.499999999976
 21
2357.098484809719
 31
0.0
  0
LINE
  5
334
330
1F
100
AcDbEntity
  8
LAY-10
  6
CONTINUOUS
 62
     7
100
AcDbLine
 10
2111.099999999977
 20
2352.3984848097
 30
0.0
 11
2111.099999999977
 21
1382.898484809717
 31
0.0
  0
LINE
  5
335
330
1F
100
AcDbEntity
  8
LAY-10
  6
CONTINUOUS
 62
     7
100
AcDbLine
 10
2122.699999999978
 20
1371.577164466156
 30
0.0
 11
2122.829818545826
 21
1371.447345920312
 31
0.0
  0
LINE
  5
336
330
1F
100
AcDbEntity
  8
LAY-10
  6
CONTINUOUS
 62
     7
100
AcDbLine
 10
2122.699999999993
 20
1372.284271247327
 30
0.0
 11
2123.159213146312
 21
1371.825058101011
 31
0.0
  0
LINE
  5
337
330
1F
100
AcDbEntity
  8
LAY-10
  6
CONTINUOUS
 62
     7
100
AcDbLine
 10
2122.699999999987
 20
1372.991378028521
 30
0.0
 11
2123.488607746802
 21
1372.202770281709
 31
0.0
  0
LINE
  5
338
330
1F
100
AcDbEntity
  8
LAY-10
  6
CONTINUOUS
 62
     7
100
AcDbLine
 10
2122.699999999981
 20
1373.698484809713
 30
0.0
 11
2123.818002347286
 21
1372.580482462409
 31
0.0
  0
LINE
  5
339
330
1F
100
AcDbEntity
  8
LAY-10
  6
CONTINUOUS
 62
     7
100
AcDbLine
 10
2123.407106781173
 20
1373.698484809705
 30
0.0
 11
2124.147396947763
 21
1372.958194643119
 31
0.0
  0
LINE
  5
33A
330
1F
100
AcDbEntity
  8
LAY-10
  6
CONTINUOUS
 62
     7
100
AcDbLine
 10
2124.061246390349
 20
1373.751451981719
 30
0.0
 11
2124.47679154825
 21
1373.335906823817
 31
0.0
  0
LINE
  5
33B
330
1F
100
AcDbEntity
  8
LAY-10
  6
CONTINUOUS
 62
     7
100
AcDbLine
 10
2124.608866693858
 20
1373.910938459394
 30
0.0
 11
2124.806186148738
 21
1373.713619004515
 31
0.0
  0
LINE
  5
33C
330
1F
100
AcDbEntity
  8
LAY-10
  6
CONTINUOUS
 62
     7
100
AcDbLine
 10
2125.079161875754
 20
1374.147750058689
 30
0.0
 11
2125.135580749225
 21
1374.091331185213
 31
0.0
  0
LINE
  5
33D
330
1F
100
AcDbEntity
  8
LAY-10
  6
CONTINUOUS
 62
     7
100
AcDbLine
 10
2122.699999999978
 20
1371.298484809715
 30
0.0
 11
2125.348924784951
 21
1374.335969806692
 31
0.0
  0
LINE
  5
33E
330
1F
100
AcDbEntity
  8
LAY-10
  6
CONTINUOUS
 62
     7
100
AcDbLine
 10
2122.699999999978
 20
1337.698484809717
 30
0.0
 11
2122.699999999978
 21
1373.698484809717
 31
0.0
  0
LINE
  5
33F
330
1F
100
AcDbEntity
  8
LAY-10
  6
CONTINUOUS
 62
     7
100
AcDbLine
 10
2091.699999999976
 20
2396.098484809719
 30
0.0
 11
2122.699999999978
 21
2396.098484809719
 31
0.0
  0
LINE
  5
340
330
1F
100
AcDbEntity
  8
LAY-10
  6
CONTINUOUS
 62
     7
100
AcDbLine
 10
2091.699999999976
 20
2396.098484809719
 30
0.0
 11
2091.699999999976
 21
2360.098484809715
 31
0.0
  0
LINE
  5
341
330
1F
100
AcDbEntity
  8
LAY-10
  6
CONTINUOUS
 62
     7
100
AcDbLine
 10
2122.699999999978
 20
2396.098484809719
 30
0.0
 11
2122.699999999978
 21
2360.098484809715
 31
0.0
  0
LINE
  5
342
330
1F
100
AcDbEntity
  8
LAY-10
  6
CONTINUOUS
 62
     7
100
AcDbLine
 10
2125.079161875754
 20
2359.649219560745
 30
0.0
 11
2125.135580749218
 21
2359.70563843421
 31
0.0
  0
LINE
  5
343
330
1F
100
AcDbEntity
  8
LAY-10
  6
CONTINUOUS
 62
     7
100
AcDbLine
 10
2124.608866693858
 20
2359.886031160041
 30
0.0
 11
2124.806186148729
 21
2360.083350614907
 31
0.0
  0
LINE
  5
344
330
1F
100
AcDbEntity
  8
LAY-10
  6
CONTINUOUS
 62
     7
100
AcDbLine
 10
2124.061246390349
 20
2360.045517637715
 30
0.0
 11
2124.476791548242
 21
2360.461062795607
 31
0.0
  0
LINE
  5
345
330
1F
100
AcDbEntity
  8
LAY-10
  6
CONTINUOUS
 62
     7
100
AcDbLine
 10
2123.407106781163
 20
2360.098484809719
 30
0.0
 11
2124.147396947763
 21
2360.838774976318
 31
0.0
  0
LINE
  5
346
330
1F
100
AcDbEntity
  8
LAY-10
  6
CONTINUOUS
 62
     7
100
AcDbLine
 10
2122.699999999981
 20
2360.098484809722
 30
0.0
 11
2123.818002347273
 21
2361.216487157016
 31
0.0
  0
LINE
  5
347
330
1F
100
AcDbEntity
  8
LAY-10
  6
CONTINUOUS
 62
     7
100
AcDbLine
 10
2122.699999999966
 20
2360.805591590893
 30
0.0
 11
2123.488607746787
 21
2361.594199337716
 31
0.0
  0
LINE
  5
348
330
1F
100
AcDbEntity
  8
LAY-10
  6
CONTINUOUS
 62
     7
100
AcDbLine
 10
2122.699999999971
 20
2361.512698372085
 30
0.0
 11
2123.159213146301
 21
2361.971911518413
 31
0.0
  0
LINE
  5
349
330
1F
100
AcDbEntity
  8
LAY-10
  6
CONTINUOUS
 62
     7
100
AcDbLine
 10
2122.699999999966
 20
2362.21980515327
 30
0.0
 11
2122.829818545834
 21
2362.349623699135
 31
0.0
  0
LINE
  5
34A
330
1F
100
AcDbEntity
  8
LAY-10
  6
CONTINUOUS
 62
     7
100
AcDbLine
 10
2122.699999999978
 20
2362.498484809717
 30
0.0
 11
2125.348924784951
 21
2359.460999812739
 31
0.0
  0
LINE
  5
34B
330
1F
100
AcDbEntity
  8
LAY-10
  6
CONTINUOUS
 62
     7
100
AcDbLine
 10
2089.470759825964
 20
2360.206404640169
 30
0.0
 11
2089.578679656417
 21
2360.098484809715
 31
0.0
  0
LINE
  5
34C
330
1F
100
AcDbEntity
  8
LAY-10
  6
CONTINUOUS
 62
     7
100
AcDbLine
 10
2089.82890481903
 20
2360.55536642829
 30
0.0
 11
2090.285786437601
 21
2360.098484809722
 31
0.0
  0
LINE
  5
34D
330
1F
100
AcDbEntity
  8
LAY-10
  6
CONTINUOUS
 62
     7
100
AcDbLine
 10
2090.187049812105
 20
2360.904328216401
 30
0.0
 11
2090.992893218793
 21
2360.098484809715
 31
0.0
  0
LINE
  5
34E
330
1F
100
AcDbEntity
  8
LAY-10
  6
CONTINUOUS
 62
     7
100
AcDbLine
 10
2090.54519480517
 20
2361.253290004523
 30
0.0
 11
2091.699999999985
 21
2360.098484809708
 31
0.0
  0
LINE
  5
34F
330
1F
100
AcDbEntity
  8
LAY-10
  6
CONTINUOUS
 62
     7
100
AcDbLine
 10
2090.903339798234
 20
2361.602251792644
 30
0.0
 11
2091.699999999981
 21
2360.8055915909
 31
0.0
  0
LINE
  5
350
330
1F
100
AcDbEntity
  8
LAY-10
  6
CONTINUOUS
 62
     7
100
AcDbLine
 10
2091.26148479131
 20
2361.951213580757
 30
0.0
 11
2091.69999999997
 21
2361.512698372092
 31
0.0
  0
LINE
  5
351
330
1F
100
AcDbEntity
  8
LAY-10
  6
CONTINUOUS
 62
     7
100
AcDbLine
 10
2091.619629784375
 20
2362.300175368878
 30
0.0
 11
2091.699999999981
 21
2362.219805153277
 31
0.0
  0
LINE
  5
352
330
1F
100
AcDbEntity
  8
LAY-10
  6
CONTINUOUS
 62
     7
100
AcDbLine
 10
2089.359999999975
 20
2360.098484809715
 30
0.0
 11
2091.699999999976
 21
2362.378484809718
 31
0.0
  0
LINE
  5
353
330
1F
100
AcDbEntity
  8
LAY-10
  6
CONTINUOUS
 62
     7
100
AcDbLine
 10
2117.299999999974
 20
1433.898484809717
 30
0.0
 11
2117.299999999974
 21
2299.898484809716
 31
0.0
  0
LINE
  5
354
330
1F
100
AcDbEntity
  8
LAY-10
  6
CONTINUOUS
 62
     7
100
AcDbLine
 10
2144.299999999976
 20
1427.898484809716
 30
0.0
 11
2144.299999999976
 21
2305.898484809716
 31
0.0
  0
ARC
  5
355
330
1F
100
AcDbEntity
  8
LAY-10
  6
CONTINUOUS
 62
     7
100
AcDbCircle
 10
2121.299999999974
 20
1433.898484809717
 30
0.0
 40
4.0
100
AcDbArc
 50
180.0
 51
270.0000000000002
  0
ARC
  5
356
330
1F
100
AcDbEntity
  8
LAY-10
  6
CONTINUOUS
 62
     7
100
AcDbCircle
 10
2142.299999999976
 20
1427.898484809716
 30
0.0
 40
2.0
100
AcDbArc
 50
0.0
 51
90.00000000000001
  0
LINE
  5
357
330
1F
100
AcDbEntity
  8
LAY-10
  6
CONTINUOUS
 62
     7
100
AcDbLine
 10
2144.299999999976
 20
1426.898484809716
 30
0.0
 11
2144.299999999976
 21
1427.898484809716
 31
0.0
  0
LINE
  5
358
330
1F
100
AcDbEntity
  8
LAY-10
  6
CONTINUOUS
 62
     7
100
AcDbLine
 10
2121.299999999974
 20
1429.898484809716
 30
0.0
 11
2142.299999999976
 21
1429.898484809716
 31
0.0
  0
LINE
  5
359
330
1F
100
AcDbEntity
  8
LAY-10
  6
CONTINUOUS
 62
     7
100
AcDbLine
 10
2114.299999999976
 20
1426.898484809716
 30
0.0
 11
2144.299999999976
 21
1426.898484809716
 31
0.0
  0
LINE
  5
35A
330
1F
100
AcDbEntity
  8
LAY-10
  6
CONTINUOUS
 62
     7
100
AcDbLine
 10
2156.499999999968
 20
1416.898484809716
 30
0.0
 11
2114.299999999976
 21
1416.898484809716
 31
0.0
  0
ARC
  5
35B
330
1F
100
AcDbEntity
  8
LAY-10
  6
CONTINUOUS
 62
     7
100
AcDbCircle
 10
2154.499999999969
 20
1415.898484809808
 30
0.0
 40
2.0
100
AcDbArc
 50
270.0000000000002
 51
0.0
  0
LINE
  5
35C
330
1F
100
AcDbEntity
  8
LAY-10
  6
CONTINUOUS
 62
     7
100
AcDbLine
 10
2156.499999999968
 20
1416.898484809808
 30
0.0
 11
2156.499999999968
 21
1415.898484809808
 31
0.0
  0
LINE
  5
35D
330
1F
100
AcDbEntity
  8
LAY-10
  6
CONTINUOUS
 62
     7
100
AcDbLine
 10
2133.49999999997
 20
1413.898484809807
 30
0.0
 11
2154.499999999969
 21
1413.898484809807
 31
0.0
  0
LINE
  5
35E
330
1F
100
AcDbEntity
  8
LAY-10
  6
CONTINUOUS
 62
     7
100
AcDbLine
 10
2123.299999999979
 20
1386.898484809716
 30
0.0
 11
2123.299999999979
 21
1376.898484809716
 31
0.0
  0
LINE
  5
35F
330
1F
100
AcDbEntity
  8
LAY-10
  6
CONTINUOUS
 62
     7
100
AcDbLine
 10
2123.299999999979
 20
1396.898484809716
 30
0.0
 11
2123.299999999979
 21
1426.898484809716
 31
0.0
  0
LINE
  5
360
330
1F
100
AcDbEntity
  8
LAY-10
  6
CONTINUOUS
 62
     7
100
AcDbLine
 10
2087.499999999976
 20
1376.898484809716
 30
0.0
 11
2123.299999999979
 21
1376.898484809716
 31
0.0
  0
LINE
  5
361
330
1F
100
AcDbEntity
  8
LAY-10
  6
CONTINUOUS
 62
     7
100
AcDbLine
 10
2087.699999999976
 20
1373.698484809717
 30
0.0
 11
2123.499999999978
 21
1373.698484809717
 31
0.0
  0
ARC
  5
362
330
1F
100
AcDbEntity
  8
LAY-10
  6
CONTINUOUS
 62
     7
100
AcDbCircle
 10
2133.49999999997
 20
1409.898484809808
 30
0.0
 40
4.0
100
AcDbArc
 50
90.00000000000001
 51
180.0
  0
LINE
  5
363
330
1F
100
AcDbEntity
  8
LAY-10
  6
CONTINUOUS
 62
     7
100
AcDbLine
 10
2129.49999999997
 20
1409.898484809808
 30
0.0
 11
2129.49999999997
 21
1401.898484809759
 31
0.0
  0
LINE
  5
364
330
1F
100
AcDbEntity
  8
LAY-10
  6
CONTINUOUS
 62
     7
100
AcDbLine
 10
2123.299999999979
 20
1413.898484809716
 30
0.0
 11
2114.299999999976
 21
1413.898484809716
 31
0.0
  0
ARC
  5
365
330
1F
100
AcDbEntity
  8
LAY-10
  6
CONTINUOUS
 62
     7
100
AcDbCircle
 10
2123.499999999978
 20
1376.698484809716
 30
0.0
 40
3.000000000000003
100
AcDbArc
 50
270.0000000000002
 51
0.0
  0
LINE
  5
366
330
1F
100
AcDbEntity
  8
LAY-10
  6
CONTINUOUS
 62
     7
100
AcDbLine
 10
2123.299999999979
 20
1379.898484809718
 30
0.0
 11
2114.099999999975
 21
1379.898484809718
 31
0.0
  0
ARC
  5
367
330
1F
100
AcDbEntity
  8
LAY-10
  6
CONTINUOUS
 62
     7
100
AcDbCircle
 10
2114.099999999975
 20
1382.898484809716
 30
0.0
 40
3.000000000000003
100
AcDbArc
 50
180.0
 51
270.0000000000002
  0
LINE
  5
368
330
1F
100
AcDbEntity
  8
LAY-10
  6
CONTINUOUS
 62
     7
100
AcDbLine
 10
2123.299999999979
 20
1382.898484809716
 30
0.0
 11
2114.299999999976
 21
1382.898484809716
 31
0.0
  0
LINE
  5
369
330
1F
100
AcDbEntity
  8
LAY-10
  6
CONTINUOUS
 62
     7
100
AcDbLine
 10
2114.299999999976
 20
1385.898484809715
 30
0.0
 11
2111.099999999977
 21
1385.898484809715
 31
0.0
  0
LINE
  5
36A
330
1F
100
AcDbEntity
  8
LAY-10
  6
CONTINUOUS
 62
     7
100
AcDbLine
 10
2114.299999999976
 20
1397.898484809716
 30
0.0
 11
2111.099999999977
 21
1397.898484809716
 31
0.0
  0
LINE
  5
36B
330
1F
100
AcDbEntity
  8
LAY-10
  6
CONTINUOUS
 62
     7
100
AcDbLine
 10
2123.299999999979
 20
1385.898484809715
 30
0.0
 11
2126.499999999976
 21
1385.898484809715
 31
0.0
  0
LINE
  5
36C
330
1F
100
AcDbEntity
  8
LAY-10
  6
CONTINUOUS
 62
     7
100
AcDbLine
 10
2123.299999999979
 20
1397.898484809716
 30
0.0
 11
2126.499999999976
 21
1397.898484809716
 31
0.0
  0
LINE
  5
36D
330
1F
100
AcDbEntity
  8
LAY-10
  6
CONTINUOUS
 62
     7
100
AcDbLine
 10
2114.299999999976
 20
1386.898484809716
 30
0.0
 11
2114.299999999976
 21
1382.898484809716
 31
0.0
  0
ARC
  5
36E
330
1F
100
AcDbEntity
  8
LAY-10
  6
CONTINUOUS
 62
     7
100
AcDbCircle
 10
2121.299999999974
 20
2299.898484809716
 30
0.0
 40
4.0
100
AcDbArc
 50
90.00000000000001
 51
180.0
  0
ARC
  5
36F
330
1F
100
AcDbEntity
  8
LAY-10
  6
CONTINUOUS
 62
     7
100
AcDbCircle
 10
2115.299999999976
 20
2278.898484809718
 30
0.0
 40
2.0
100
AcDbArc
 50
270.0000000000002
 51
0.0
  0
ARC
  5
370
330
1F
100
AcDbEntity
  8
LAY-10
  6
CONTINUOUS
 62
     7
100
AcDbCircle
 10
2142.299999999976
 20
2305.898484809716
 30
0.0
 40
2.0
100
AcDbArc
 50
270.0000000000002
 51
0.0
  0
LINE
  5
371
330
1F
100
AcDbEntity
  8
LAY-10
  6
CONTINUOUS
 62
     7
100
AcDbLine
 10
2144.299999999976
 20
2306.898484809716
 30
0.0
 11
2144.299999999976
 21
2305.898484809716
 31
0.0
  0
LINE
  5
372
330
1F
100
AcDbEntity
  8
LAY-10
  6
CONTINUOUS
 62
     7
100
AcDbLine
 10
2114.299999999976
 20
2276.898484809718
 30
0.0
 11
2115.299999999976
 21
2276.898484809718
 31
0.0
  0
LINE
  5
373
330
1F
100
AcDbEntity
  8
LAY-10
  6
CONTINUOUS
 62
     7
100
AcDbLine
 10
2121.299999999974
 20
2303.898484809718
 30
0.0
 11
2142.299999999976
 21
2303.898484809718
 31
0.0
  0
LINE
  5
374
330
1F
100
AcDbEntity
  8
LAY-10
  6
CONTINUOUS
 62
     7
100
AcDbLine
 10
2114.299999999976
 20
2306.898484809716
 30
0.0
 11
2144.299999999976
 21
2306.898484809716
 31
0.0
  0
LINE
  5
375
330
1F
100
AcDbEntity
  8
LAY-10
  6
CONTINUOUS
 62
     7
100
AcDbLine
 10
2156.49999999997
 20
2316.898484809718
 30
0.0
 11
2114.299999999976
 21
2316.898484809718
 31
0.0
  0
ARC
  5
376
330
1F
100
AcDbEntity
  8
LAY-10
  6
CONTINUOUS
 62
     7
100
AcDbCircle
 10
2154.499999999969
 20
2317.898484809627
 30
0.0
 40
2.0
100
AcDbArc
 50
0.0
 51
90.00000000000001
  0
LINE
  5
377
330
1F
100
AcDbEntity
  8
LAY-10
  6
CONTINUOUS
 62
     7
100
AcDbLine
 10
2156.49999999997
 20
2316.898484809627
 30
0.0
 11
2156.49999999997
 21
2317.898484809627
 31
0.0
  0
LINE
  5
378
330
1F
100
AcDbEntity
  8
LAY-10
  6
CONTINUOUS
 62
     7
100
AcDbLine
 10
2133.49999999997
 20
2319.898484809627
 30
0.0
 11
2154.499999999969
 21
2319.898484809627
 31
0.0
  0
ARC
  5
379
330
1F
100
AcDbEntity
  8
LAY-10
  6
CONTINUOUS
 62
     7
100
AcDbCircle
 10
2133.49999999997
 20
2323.898484809627
 30
0.0
 40
4.0
100
AcDbArc
 50
180.0
 51
270.0000000000002
  0
LINE
  5
37A
330
1F
100
AcDbEntity
  8
LAY-10
  6
CONTINUOUS
 62
     7
100
AcDbLine
 10
2129.49999999997
 20
2323.898484809627
 30
0.0
 11
2129.49999999997
 21
2331.898484809674
 31
0.0
  0
LINE
  5
37B
330
1F
100
AcDbEntity
  8
LAY-10
  6
CONTINUOUS
 62
     7
100
AcDbLine
 10
2123.299999999979
 20
2319.898484809718
 30
0.0
 11
2114.299999999976
 21
2319.898484809718
 31
0.0
  0
ARC
  5
37C
330
1F
100
AcDbEntity
  8
LAY-10
  6
CONTINUOUS
 62
     7
100
AcDbCircle
 10
2114.099999999975
 20
2350.898484809718
 30
0.0
 40
3.000000000000003
100
AcDbArc
 50
90.00000000000001
 51
180.0
  0
ARC
  5
37D
330
1F
100
AcDbEntity
  8
LAY-10
  6
CONTINUOUS
 62
     7
100
AcDbCircle
 10
2123.499999999978
 20
2357.098484809719
 30
0.0
 40
3.000000000000003
100
AcDbArc
 50
0.0
 51
90.00000000000001
  0
LINE
  5
37E
330
1F
100
AcDbEntity
  8
LAY-10
  6
CONTINUOUS
 62
     7
100
AcDbLine
 10
2123.299999999979
 20
2350.898484809718
 30
0.0
 11
2114.299999999976
 21
2350.898484809718
 31
0.0
  0
LINE
  5
37F
330
1F
100
AcDbEntity
  8
LAY-10
  6
CONTINUOUS
 62
     7
100
AcDbLine
 10
2123.299999999979
 20
2353.898484809718
 30
0.0
 11
2114.099999999975
 21
2353.898484809718
 31
0.0
  0
LINE
  5
380
330
1F
100
AcDbEntity
  8
LAY-10
  6
CONTINUOUS
 62
     7
100
AcDbLine
 10
2114.299999999976
 20
2347.898484809718
 30
0.0
 11
2111.099999999977
 21
2347.898484809718
 31
0.0
  0
LINE
  5
381
330
1F
100
AcDbEntity
  8
LAY-10
  6
CONTINUOUS
 62
     7
100
AcDbLine
 10
2114.299999999976
 20
2335.898484809718
 30
0.0
 11
2111.099999999977
 21
2335.898484809718
 31
0.0
  0
LINE
  5
382
330
1F
100
AcDbEntity
  8
LAY-10
  6
CONTINUOUS
 62
     7
100
AcDbLine
 10
2123.299999999979
 20
2347.898484809718
 30
0.0
 11
2126.499999999976
 21
2347.898484809718
 31
0.0
  0
LINE
  5
383
330
1F
100
AcDbEntity
  8
LAY-10
  6
CONTINUOUS
 62
     7
100
AcDbLine
 10
2123.299999999979
 20
2335.898484809718
 30
0.0
 11
2126.499999999976
 21
2335.898484809718
 31
0.0
  0
LINE
  5
384
330
1F
100
AcDbEntity
  8
LAY-10
  6
CONTINUOUS
 62
     7
100
AcDbLine
 10
2095.699999999977
 20
1337.012193308704
 30
0.0
 11
2095.699999999977
 21
1337.698484809717
 31
0.0
  0
LINE
  5
385
330
1F
100
AcDbEntity
  8
LAY-10
  6
CONTINUOUS
 62
     7
100
AcDbLine
 10
2091.699999999976
 20
1337.698484809717
 30
0.0
 11
2091.699999999976
 21
1373.698484809721
 31
0.0
  0
LINE
  5
386
330
1F
100
AcDbEntity
  8
LAY-10
  6
CONTINUOUS
 62
     7
100
AcDbLine
 10
2089.470759825964
 20
1373.590564979266
 30
0.0
 11
2089.578679656417
 21
1373.698484809721
 31
0.0
  0
LINE
  5
387
330
1F
100
AcDbEntity
  8
LAY-10
  6
CONTINUOUS
 62
     7
100
AcDbLine
 10
2089.82890481903
 20
1373.241603191146
 30
0.0
 11
2090.285786437601
 21
1373.698484809713
 31
0.0
  0
LINE
  5
388
330
1F
100
AcDbEntity
  8
LAY-10
  6
CONTINUOUS
 62
     7
100
AcDbLine
 10
2090.187049812105
 20
1372.892641403035
 30
0.0
 11
2090.992893218793
 21
1373.698484809721
 31
0.0
  0
LINE
  5
389
330
1F
100
AcDbEntity
  8
LAY-10
  6
CONTINUOUS
 62
     7
100
AcDbLine
 10
2090.54519480517
 20
1372.543679614912
 30
0.0
 11
2091.699999999985
 21
1373.698484809728
 31
0.0
  0
LINE
  5
38A
330
1F
100
AcDbEntity
  8
LAY-10
  6
CONTINUOUS
 62
     7
100
AcDbLine
 10
2090.903339798234
 20
1372.194717826791
 30
0.0
 11
2091.699999999981
 21
1372.991378028536
 31
0.0
  0
LINE
  5
38B
330
1F
100
AcDbEntity
  8
LAY-10
  6
CONTINUOUS
 62
     7
100
AcDbLine
 10
2091.26148479131
 20
1371.845756038678
 30
0.0
 11
2091.69999999997
 21
1372.284271247344
 31
0.0
  0
LINE
  5
38C
330
1F
100
AcDbEntity
  8
LAY-10
  6
CONTINUOUS
 62
     7
100
AcDbLine
 10
2091.619629784375
 20
1371.496794250558
 30
0.0
 11
2091.699999999981
 21
1371.577164466159
 31
0.0
  0
LINE
  5
38D
330
1F
100
AcDbEntity
  8
LAY-10
  6
CONTINUOUS
 62
     7
100
AcDbLine
 10
2089.359999999975
 20
1373.698484809721
 30
0.0
 11
2091.699999999976
 21
1371.418484809718
 31
0.0
  0
LINE
  5
38E
330
1F
100
AcDbEntity
  8
LAY-10
  6
CONTINUOUS
 62
     7
100
AcDbLine
 10
2091.699999999976
 20
2366.784776310734
 30
0.0
 11
2087.699999999976
 21
2366.784776310734
 31
0.0
  0
LINE
  5
38F
330
1F
100
AcDbEntity
  8
LAY-10
  6
CONTINUOUS
 62
     7
100
AcDbLine
 10
2091.699999999976
 20
1367.0121933087
 30
0.0
 11
2087.699999999976
 21
1367.0121933087
 31
0.0
  0
LINE
  5
390
330
1F
100
AcDbEntity
  8
LAY-10
  6
CONTINUOUS
 62
     7
100
AcDbLine
 10
2091.699999999976
 20
1337.698484809717
 30
0.0
 11
2122.699999999978
 21
1337.698484809717
 31
0.0
  0
LINE
  5
391
330
1F
100
AcDbEntity
  8
LAY-10
  6
CONTINUOUS
 62
     7
100
AcDbLine
 10
2017.500000000031
 20
1863.89848480969
 30
0.0
 11
2067.500000000028
 21
1863.898484809689
 31
0.0
  0
LINE
  5
392
330
1F
100
AcDbEntity
  8
LAY-10
  6
CONTINUOUS
 62
     7
100
AcDbLine
 10
2017.500000000031
 20
1869.898484809692
 30
0.0
 11
2067.500000000028
 21
1869.898484809692
 31
0.0
  0
LINE
  5
393
330
1F
100
AcDbEntity
  8
LAY-10
  6
CONTINUOUS
 62
     7
100
AcDbLine
 10
2068.000000000031
 20
1346.89848480969
 30
0.0
 11
2021.500000000031
 21
1346.89848480969
 31
0.0
  0
LINE
  5
394
330
1F
100
AcDbEntity
  8
LAY-10
  6
CONTINUOUS
 62
     7
100
AcDbLine
 10
2076.500000000031
 20
1355.39848480969
 30
0.0
 11
2076.500000000031
 21
1401.89848480969
 31
0.0
  0
LINE
  5
395
330
1F
100
AcDbEntity
  8
LAY-10
  6
CONTINUOUS
 62
     7
100
AcDbLine
 10
2082.500000000031
 20
1405.89848480969
 30
0.0
 11
2080.500000000031
 21
1405.89848480969
 31
0.0
  0
ARC
  5
396
330
1F
100
AcDbEntity
  8
LAY-10
  6
CONTINUOUS
 62
     7
100
AcDbCircle
 10
2080.500000000031
 20
1401.89848480969
 30
0.0
 40
4.0
100
AcDbArc
 50
90.00000000000001
 51
180.0
  0
ARC
  5
397
330
1F
100
AcDbEntity
  8
LAY-10
  6
CONTINUOUS
 62
     7
100
AcDbCircle
 10
2021.500000000031
 20
1342.89848480969
 30
0.0
 40
4.0
100
AcDbArc
 50
90.00000000000001
 51
180.0
  0
ARC
  5
398
330
1F
100
AcDbEntity
  8
LAY-10
  6
CONTINUOUS
 62
     7
100
AcDbCircle
 10
2068.000000000031
 20
1355.39848480969
 30
0.0
 40
8.5
100
AcDbArc
 50
270.0
 51
0.0
  0
LINE
  5
399
330
1F
100
AcDbEntity
  8
LAY-10
  6
CONTINUOUS
 62
     7
100
AcDbLine
 10
2011.500000000031
 20
1340.89848480969
 30
0.0
 11
2082.500000000031
 21
1340.89848480969
 31
0.0
  0
LINE
  5
39A
330
1F
100
AcDbEntity
  8
LAY-10
  6
CONTINUOUS
 62
     7
100
AcDbLine
 10
2068.000000000031
 20
2386.89848480969
 30
0.0
 11
2021.500000000032
 21
2386.89848480969
 31
0.0
  0
LINE
  5
39B
330
1F
100
AcDbEntity
  8
LAY-10
  6
CONTINUOUS
 62
     7
100
AcDbLine
 10
2076.500000000031
 20
2378.39848480969
 30
0.0
 11
2076.500000000031
 21
2331.89848480969
 31
0.0
  0
LINE
  5
39C
330
1F
100
AcDbEntity
  8
LAY-10
  6
CONTINUOUS
 62
     7
100
AcDbLine
 10
2082.500000000031
 20
2327.89848480969
 30
0.0
 11
2080.500000000031
 21
2327.89848480969
 31
0.0
  0
ARC
  5
39D
330
1F
100
AcDbEntity
  8
LAY-10
  6
CONTINUOUS
 62
     7
100
AcDbCircle
 10
2080.500000000031
 20
2331.89848480969
 30
0.0
 40
4.0
100
AcDbArc
 50
180.0
 51
270.0
  0
ARC
  5
39E
330
1F
100
AcDbEntity
  8
LAY-10
  6
CONTINUOUS
 62
     7
100
AcDbCircle
 10
2021.500000000032
 20
2390.89848480969
 30
0.0
 40
4.0
100
AcDbArc
 50
180.0
 51
270.0
  0
ARC
  5
39F
330
1F
100
AcDbEntity
  8
LAY-10
  6
CONTINUOUS
 62
     7
100
AcDbCircle
 10
2068.000000000031
 20
2378.39848480969
 30
0.0
 40
8.5
100
AcDbArc
 50
0.0
 51
90.00000000000001
  0
LINE
  5
3A0
330
1F
100
AcDbEntity
  8
LAY-10
  6
CONTINUOUS
 62
     7
100
AcDbLine
 10
2011.500000000032
 20
2392.89848480969
 30
0.0
 11
2082.500000000031
 21
2392.89848480969
 31
0.0
  0
LINE
  5
3A1
330
1F
100
AcDbEntity
  8
LAY-10
  6
CONTINUOUS
 62
     7
100
AcDbLine
 10
2017.500000000031
 20
1340.898484809691
 30
0.0
 11
2017.500000000031
 21
2392.898484809691
 31
0.0
  0
LINE
  5
3A2
330
1F
100
AcDbEntity
  8
LAY-10
  6
CONTINUOUS
 62
     7
100
AcDbLine
 10
2011.500000000031
 20
1340.898484809691
 30
0.0
 11
2011.500000000032
 21
2392.898484809691
 31
0.0
  0
LINE
  5
3A3
330
1F
100
AcDbEntity
  8
LAY-10
  6
CONTINUOUS
 62
     7
100
AcDbLine
 10
2067.500000000031
 20
2386.898484809689
 30
0.0
 11
2067.500000000031
 21
1346.89848480969
 31
0.0
  0
LINE
  5
3A4
330
1F
100
AcDbEntity
  8
LAY-10
  6
CONTINUOUS
 62
     7
100
AcDbLine
 10
2082.5
 20
1340.898484809675
 30
0.0
 11
2082.5
 21
2392.89848480969
 31
0.0
  0
LINE
  5
3A5
330
1F
100
AcDbEntity
  8
LAY-10
  6
CONTINUOUS
 62
     7
100
AcDbLine
 10
1592.000000000073
 20
811.2984848097558
 30
0.0
 11
621.0000000000858
 21
811.2984848097558
 31
0.0
  0
POLYLINE
  5
3A6
330
1F
100
AcDbEntity
  8
LAY-10
  6
CONTINUOUS
 62
     7
100
AcDb2dPolyline
 66
     1
 10
0.0
 20
0.0
 30
0.0
 70
   128
  0
VERTEX
  5
3A7
330
3A6
100
AcDbEntity
  8
LAY-10
  6
CONTINUOUS
 62
     7
100
AcDbVertex
100
AcDb2dVertex
 10
673.5000000000858
 20
805.098484809756
 30
0.0
  0
VERTEX
  5
3A8
330
3A6
100
AcDbEntity
  8
LAY-10
  6
CONTINUOUS
 62
     7
100
AcDbVertex
100
AcDb2dVertex
 10
803.000000000086
 20
805.0984848097569
 30
0.0
  0
VERTEX
  5
3A9
330
3A6
100
AcDbEntity
  8
LAY-10
  6
CONTINUOUS
 62
     7
100
AcDbVertex
100
AcDb2dVertex
 10
1539.500000000071
 20
805.0984848097569
 30
0.0
  0
SEQEND
  5
3AA
330
3A6
100
AcDbEntity
  8
LAY-10
  6
CONTINUOUS
 62
     7
  0
LINE
  5
3AB
330
1F
100
AcDbEntity
  8
LAY-10
  6
CONTINUOUS
 62
     7
100
AcDbLine
 10
636.5000000000858
 20
808.0984848097555
 30
0.0
 11
1556.500000000073
 21
808.0984848097569
 31
0.0
  0
LINE
  5
3AC
330
1F
100
AcDbEntity
  8
LAY-10
  6
CONTINUOUS
 62
     7
100
AcDbLine
 10
1545.500000000072
 20
778.0984848097569
 30
0.0
 11
666.5000000000867
 21
778.098484809756
 31
0.0
  0
LINE
  5
3AD
330
1F
100
AcDbEntity
  8
LAY-10
  6
HIDDEN
 62
     7
100
AcDbLine
 10
756.5000000000977
 20
778.0984848097578
 30
0.0
 11
756.5000000000977
 21
795.8984848097572
 31
0.0
  0
ARC
  5
3AE
330
1F
100
AcDbEntity
  8
LAY-10
  6
CONTINUOUS
 62
     7
100
AcDbCircle
 10
673.5000000000858
 20
801.098484809757
 30
0.0
 40
4.0
100
AcDbArc
 50
90.00000000000001
 51
180.0
  0
ARC
  5
3AF
330
1F
100
AcDbEntity
  8
LAY-10
  6
CONTINUOUS
 62
     7
100
AcDbCircle
 10
694.5000000000858
 20
807.0984848097564
 30
0.0
 40
2.0
100
AcDbArc
 50
270.0000000000002
 51
0.0
  0
ARC
  5
3B0
330
1F
100
AcDbEntity
  8
LAY-10
  6
CONTINUOUS
 62
     7
100
AcDbCircle
 10
667.5000000000867
 20
780.098484809756
 30
0.0
 40
2.0
100
AcDbArc
 50
270.0000000000002
 51
0.0
  0
LINE
  5
3B1
330
1F
100
AcDbEntity
  8
LAY-10
  6
CONTINUOUS
 62
     7
100
AcDbLine
 10
696.5000000000857
 20
808.0984848097555
 30
0.0
 11
696.5000000000857
 21
807.0984848097564
 31
0.0
  0
LINE
  5
3B2
330
1F
100
AcDbEntity
  8
LAY-10
  6
CONTINUOUS
 62
     7
100
AcDbLine
 10
669.5000000000858
 20
801.098484809757
 30
0.0
 11
669.5000000000858
 21
780.098484809756
 31
0.0
  0
LINE
  5
3B3
330
1F
100
AcDbEntity
  8
LAY-10
  6
CONTINUOUS
 62
     7
100
AcDbLine
 10
666.5000000000857
 20
808.0984848097555
 30
0.0
 11
666.5000000000857
 21
778.098484809756
 31
0.0
  0
LINE
  5
3B4
330
1F
100
AcDbEntity
  8
LAY-10
  6
CONTINUOUS
 62
     7
100
AcDbLine
 10
756.5000000000985
 20
765.8984848097526
 30
0.0
 11
756.5000000000994
 21
778.0984848097569
 31
0.0
  0
LINE
  5
3B5
330
1F
100
AcDbEntity
  8
LAY-10
  6
CONTINUOUS
 62
     7
100
AcDbLine
 10
656.5000000000985
 20
765.8984848097507
 30
0.0
 11
756.5000000000985
 21
765.8984848097526
 31
0.0
  0
LINE
  5
3B6
330
1F
100
AcDbEntity
  8
LAY-10
  6
CONTINUOUS
 62
     7
100
AcDbLine
 10
656.5000000000985
 20
765.8984848097507
 30
0.0
 11
656.5000000000994
 21
795.8984848097572
 31
0.0
  0
LINE
  5
3B7
330
1F
100
AcDbEntity
  8
LAY-10
  6
CONTINUOUS
 62
     7
100
AcDbLine
 10
613.5000000000867
 20
907.8984848097562
 30
0.0
 11
613.5000000000867
 21
799.0984848097569
 31
0.0
  0
LINE
  5
3B8
330
1F
100
AcDbEntity
  8
LAY-10
  6
CONTINUOUS
 62
     7
100
AcDbLine
 10
636.5000000000858
 20
799.098484809756
 30
0.0
 11
666.5000000000857
 21
799.098484809756
 31
0.0
  0
LINE
  5
3B9
330
1F
100
AcDbEntity
  8
LAY-10
  6
CONTINUOUS
 62
     7
100
AcDbLine
 10
666.5000000000857
 20
795.8984848097562
 30
0.0
 11
613.300000000086
 21
795.8984848097562
 31
0.0
  0
ARC
  5
3BA
330
1F
100
AcDbEntity
  8
LAY-10
  6
CONTINUOUS
 62
     7
100
AcDbCircle
 10
754.4991089991138
 20
814.2975938087866
 30
0.0
 40
2.999108999030569
100
AcDbArc
 50
180.0
 51
270.0000000000002
  0
LINE
  5
3BB
330
1F
100
AcDbEntity
  8
LAY-10
  6
CONTINUOUS
 62
     7
100
AcDbLine
 10
798.290867380006
 20
817.2971083471921
 30
0.0
 11
754.5908673800026
 21
817.2971083471921
 31
0.0
  0
ARC
  5
3BC
330
1F
100
AcDbEntity
  8
LAY-10
  6
CONTINUOUS
 62
     7
100
AcDbCircle
 10
754.500000000084
 20
814.2984848097558
 30
0.0
 40
3.000000000000003
100
AcDbArc
 50
88.26429541116052
 51
180.0
  0
LINE
  5
3BD
330
1F
100
AcDbEntity
  8
LAY-10
  6
CONTINUOUS
 62
     7
100
AcDbLine
 10
653.5000000000867
 20
799.098484809756
 30
0.0
 11
653.5000000000867
 21
808.0984848097569
 31
0.0
  0
ARC
  5
3BE
330
1F
100
AcDbEntity
  8
LAY-10
  6
CONTINUOUS
 62
     7
100
AcDbCircle
 10
613.300000000086
 20
798.8984848097562
 30
0.0
 40
3.000000000000003
100
AcDbArc
 50
180.0
 51
270.0000000000002
  0
LINE
  5
3BF
330
1F
100
AcDbEntity
  8
LAY-10
  6
CONTINUOUS
 62
     7
100
AcDbLine
 10
751.5000000000831
 20
812.2984848097559
 30
0.0
 11
751.5000000000831
 21
814.2984848097558
 31
0.0
  0
LINE
  5
3C0
330
1F
100
AcDbEntity
  8
LAY-10
  6
CONTINUOUS
 62
     7
100
AcDbLine
 10
741.500000000084
 20
812.2984848097572
 30
0.0
 11
741.500000000084
 21
811.2984848097558
 31
0.0
  0
LINE
  5
3C1
330
1F
100
AcDbEntity
  8
LAY-10
  6
CONTINUOUS
 62
     7
100
AcDbLine
 10
750.5000000000831
 20
812.2984848097559
 30
0.0
 11
741.500000000084
 21
812.2984848097572
 31
0.0
  0
LINE
  5
3C2
330
1F
100
AcDbEntity
  8
LAY-10
  6
CONTINUOUS
 62
     7
100
AcDbLine
 10
750.5000000000831
 20
814.2984848097558
 30
0.0
 11
750.5000000000831
 21
812.2984848097559
 31
0.0
  0
ARC
  5
3C3
330
1F
100
AcDbEntity
  8
LAY-10
  6
CONTINUOUS
 62
     7
100
AcDbCircle
 10
750.5000000000831
 20
812.2984848097559
 30
0.0
 40
1.0
100
AcDbArc
 50
270.0000000000002
 51
0.0
  0
ARC
  5
3C4
330
1F
100
AcDbEntity
  8
LAY-10
  6
CONTINUOUS
 62
     7
100
AcDbCircle
 10
754.500000000084
 20
814.2984848097558
 30
0.0
 40
4.0
100
AcDbArc
 50
48.56057832088622
 51
180.0
  0
CIRCLE
  5
3C5
330
1F
100
AcDbEntity
  8
LAY-10
  6
CONTINUOUS
 62
     7
100
AcDbCircle
 10
798.2000000000849
 20
814.2984848097558
 30
0.0
 40
3.000000000000003
  0
LINE
  5
3C6
330
1F
100
AcDbEntity
  8
LAY-10
  6
CONTINUOUS
 62
     7
100
AcDbLine
 10
610.3000000000851
 20
798.8984848097562
 30
0.0
 11
610.3000000000851
 21
907.8984848097562
 31
0.0
  0
ARC
  5
3C7
330
1F
100
AcDbEntity
  8
LAY-10
  6
CONTINUOUS
 62
     7
100
AcDbCircle
 10
622.5000000000858
 20
808.2984848097558
 30
0.0
 40
3.000000000000003
100
AcDbArc
 50
90.00000000000001
 51
180.0
  0
LINE
  5
3C8
330
1F
100
AcDbEntity
  8
LAY-10
  6
CONTINUOUS
 62
     7
100
AcDbLine
 10
613.5000000000867
 20
799.098484809756
 30
0.0
 11
626.5000000000858
 21
799.098484809756
 31
0.0
  0
LINE
  5
3C9
330
1F
100
AcDbEntity
  8
LAY-10
  6
CONTINUOUS
 62
     7
100
AcDbLine
 10
622.5000000000858
 20
799.098484809756
 30
0.0
 11
622.5000000000858
 21
808.0984848097555
 31
0.0
  0
LINE
  5
3CA
330
1F
100
AcDbEntity
  8
LAY-10
  6
CONTINUOUS
 62
     7
100
AcDbLine
 10
619.5000000000867
 20
799.098484809756
 30
0.0
 11
619.5000000000867
 21
808.2984848097558
 31
0.0
  0
LINE
  5
3CB
330
1F
100
AcDbEntity
  8
LAY-10
  6
CONTINUOUS
 62
     7
100
AcDbLine
 10
626.5000000000858
 20
808.0984848097555
 30
0.0
 11
622.5000000000858
 21
808.0984848097555
 31
0.0
  0
LINE
  5
3CC
330
1F
100
AcDbEntity
  8
LAY-10
  6
CONTINUOUS
 62
     7
100
AcDbLine
 10
625.5000000000849
 20
808.0984848097555
 30
0.0
 11
625.5000000000849
 21
811.2984848097558
 31
0.0
  0
LINE
  5
3CD
330
1F
100
AcDbEntity
  8
LAY-10
  6
CONTINUOUS
 62
     7
100
AcDbLine
 10
637.5000000000858
 20
808.0984848097555
 30
0.0
 11
637.5000000000858
 21
811.2984848097558
 31
0.0
  0
LINE
  5
3CE
330
1F
100
AcDbEntity
  8
LAY-10
  6
CONTINUOUS
 62
     7
100
AcDbLine
 10
625.5000000000849
 20
799.098484809756
 30
0.0
 11
625.5000000000849
 21
795.8984848097562
 31
0.0
  0
LINE
  5
3CF
330
1F
100
AcDbEntity
  8
LAY-10
  6
CONTINUOUS
 62
     7
100
AcDbLine
 10
637.5000000000858
 20
799.098484809756
 30
0.0
 11
637.5000000000858
 21
795.8984848097562
 31
0.0
  0
LINE
  5
3D0
330
1F
100
AcDbEntity
  8
LAY-10
  6
CONTINUOUS
 62
     7
100
AcDbLine
 10
656.5000000000857
 20
795.8984848097562
 30
0.0
 11
656.5000000000857
 21
808.0984848097555
 31
0.0
  0
LINE
  5
3D1
330
1F
100
AcDbEntity
  8
LAY-10
  6
HIDDEN
 62
     7
100
AcDbLine
 10
756.5000000001004
 20
795.8984848098072
 30
0.0
 11
666.5000000000903
 21
795.8984848098072
 31
0.0
  0
LINE
  5
3D2
330
1F
100
AcDbEntity
  8
LAY-10
  6
HIDDEN
 62
     7
100
AcDbLine
 10
1456.500000000083
 20
795.8984848097572
 30
0.0
 11
1546.500000000091
 21
795.8984848097572
 31
0.0
  0
LINE
  5
3D3
330
1F
100
AcDbEntity
  8
LAY-10
  6
HIDDEN
 62
     7
100
AcDbLine
 10
1456.500000000083
 20
778.0984848097578
 30
0.0
 11
1456.500000000083
 21
795.8984848097572
 31
0.0
  0
ARC
  5
3D4
330
1F
100
AcDbEntity
  8
LAY-10
  6
CONTINUOUS
 62
     7
100
AcDbCircle
 10
1539.500000000071
 20
801.098484809757
 30
0.0
 40
4.0
100
AcDbArc
 50
0.0
 51
90.00000000000001
  0
ARC
  5
3D5
330
1F
100
AcDbEntity
  8
LAY-10
  6
CONTINUOUS
 62
     7
100
AcDbCircle
 10
1518.500000000072
 20
807.0984848097569
 30
0.0
 40
2.0
100
AcDbArc
 50
180.0
 51
270.0000000000002
  0
ARC
  5
3D6
330
1F
100
AcDbEntity
  8
LAY-10
  6
CONTINUOUS
 62
     7
100
AcDbCircle
 10
1545.500000000072
 20
780.0984848097569
 30
0.0
 40
2.0
100
AcDbArc
 50
180.0
 51
270.0000000000002
  0
LINE
  5
3D7
330
1F
100
AcDbEntity
  8
LAY-10
  6
CONTINUOUS
 62
     7
100
AcDbLine
 10
1546.500000000073
 20
778.0984848097569
 30
0.0
 11
1545.500000000072
 21
778.0984848097569
 31
0.0
  0
LINE
  5
3D8
330
1F
100
AcDbEntity
  8
LAY-10
  6
CONTINUOUS
 62
     7
100
AcDbLine
 10
1516.500000000074
 20
808.0984848097569
 30
0.0
 11
1516.500000000074
 21
807.0984848097569
 31
0.0
  0
LINE
  5
3D9
330
1F
100
AcDbEntity
  8
LAY-10
  6
CONTINUOUS
 62
     7
100
AcDbLine
 10
1543.500000000073
 20
801.098484809757
 30
0.0
 11
1543.500000000073
 21
780.0984848097569
 31
0.0
  0
LINE
  5
3DA
330
1F
100
AcDbEntity
  8
LAY-10
  6
CONTINUOUS
 62
     7
100
AcDbLine
 10
1546.500000000073
 20
808.0984848097569
 30
0.0
 11
1546.500000000073
 21
778.0984848097569
 31
0.0
  0
LINE
  5
3DB
330
1F
100
AcDbEntity
  8
LAY-10
  6
CONTINUOUS
 62
     7
100
AcDbLine
 10
1556.500000000082
 20
765.8984848097507
 30
0.0
 11
1556.500000000082
 21
795.8984848097572
 31
0.0
  0
LINE
  5
3DC
330
1F
100
AcDbEntity
  8
LAY-10
  6
CONTINUOUS
 62
     7
100
AcDbLine
 10
1556.500000000082
 20
765.8984848097507
 30
0.0
 11
1456.500000000081
 21
765.8984848097526
 31
0.0
  0
LINE
  5
3DD
330
1F
100
AcDbEntity
  8
LAY-10
  6
CONTINUOUS
 62
     7
100
AcDbLine
 10
1456.500000000081
 20
765.8984848097526
 30
0.0
 11
1456.500000000081
 21
778.0984848097569
 31
0.0
  0
LINE
  5
3DE
330
1F
100
AcDbEntity
  8
LAY-10
  6
CONTINUOUS
 62
     7
100
AcDbLine
 10
1546.500000000073
 20
795.8984848097562
 30
0.0
 11
1599.700000000073
 21
795.8984848097562
 31
0.0
  0
LINE
  5
3DF
330
1F
100
AcDbEntity
  8
LAY-10
  6
CONTINUOUS
 62
     7
100
AcDbLine
 10
1599.500000000073
 20
907.8984848097562
 30
0.0
 11
1599.500000000073
 21
799.0984848097569
 31
0.0
  0
LINE
  5
3E0
330
1F
100
AcDbEntity
  8
LAY-10
  6
CONTINUOUS
 62
     7
100
AcDbLine
 10
1586.500000000073
 20
799.098484809756
 30
0.0
 11
1599.500000000073
 21
799.098484809756
 31
0.0
  0
LINE
  5
3E1
330
1F
100
AcDbEntity
  8
LAY-10
  6
CONTINUOUS
 62
     7
100
AcDbLine
 10
1576.500000000073
 20
799.098484809756
 30
0.0
 11
1546.500000000073
 21
799.098484809756
 31
0.0
  0
LINE
  5
3E2
330
1F
100
AcDbEntity
  8
LAY-10
  6
CONTINUOUS
 62
     7
100
AcDbLine
 10
1414.709132620151
 20
817.2971083471921
 30
0.0
 11
1458.409132620155
 21
817.2971083471921
 31
0.0
  0
ARC
  5
3E3
330
1F
100
AcDbEntity
  8
LAY-10
  6
CONTINUOUS
 62
     7
100
AcDbCircle
 10
1458.500000000073
 20
814.2984848097558
 30
0.0
 40
3.000000000000003
100
AcDbArc
 50
0.0
 51
91.73570458884814
  0
ARC
  5
3E4
330
1F
100
AcDbEntity
  8
LAY-10
  6
CONTINUOUS
 62
     7
100
AcDbCircle
 10
1458.500891001043
 20
814.2975938087866
 30
0.0
 40
2.999108999030569
100
AcDbArc
 50
270.0000000000002
 51
0.0
  0
LINE
  5
3E5
330
1F
100
AcDbEntity
  8
LAY-10
  6
CONTINUOUS
 62
     7
100
AcDbLine
 10
1559.500000000073
 20
799.098484809756
 30
0.0
 11
1559.500000000073
 21
808.0984848097569
 31
0.0
  0
ARC
  5
3E6
330
1F
100
AcDbEntity
  8
LAY-10
  6
CONTINUOUS
 62
     7
100
AcDbCircle
 10
1599.700000000073
 20
798.8984848097571
 30
0.0
 40
3.000000000000003
100
AcDbArc
 50
270.0000000000002
 51
0.0
  0
LINE
  5
3E7
330
1F
100
AcDbEntity
  8
LAY-10
  6
CONTINUOUS
 62
     7
100
AcDbLine
 10
1593.500000000072
 20
799.098484809756
 30
0.0
 11
1593.500000000072
 21
808.2984848097558
 31
0.0
  0
LINE
  5
3E8
330
1F
100
AcDbEntity
  8
LAY-10
  6
CONTINUOUS
 62
     7
100
AcDbLine
 10
1602.700000000074
 20
798.8984848097571
 30
0.0
 11
1602.700000000074
 21
907.8984848097562
 31
0.0
  0
LINE
  5
3E9
330
1F
100
AcDbEntity
  8
LAY-10
  6
CONTINUOUS
 62
     7
100
AcDbLine
 10
1461.500000000074
 20
812.2984848097559
 30
0.0
 11
1461.500000000074
 21
814.2984848097558
 31
0.0
  0
LINE
  5
3EA
330
1F
100
AcDbEntity
  8
LAY-10
  6
CONTINUOUS
 62
     7
100
AcDbLine
 10
1471.500000000074
 20
812.2984848097572
 30
0.0
 11
1471.500000000074
 21
811.2984848097558
 31
0.0
  0
LINE
  5
3EB
330
1F
100
AcDbEntity
  8
LAY-10
  6
CONTINUOUS
 62
     7
100
AcDbLine
 10
1462.500000000073
 20
812.2984848097559
 30
0.0
 11
1471.500000000074
 21
812.2984848097572
 31
0.0
  0
LINE
  5
3EC
330
1F
100
AcDbEntity
  8
LAY-10
  6
CONTINUOUS
 62
     7
100
AcDbLine
 10
1462.500000000073
 20
814.2984848097558
 30
0.0
 11
1462.500000000073
 21
812.2984848097559
 31
0.0
  0
ARC
  5
3ED
330
1F
100
AcDbEntity
  8
LAY-10
  6
CONTINUOUS
 62
     7
100
AcDbCircle
 10
1462.500000000073
 20
812.2984848097559
 30
0.0
 40
1.0
100
AcDbArc
 50
180.0
 51
270.0000000000002
  0
ARC
  5
3EE
330
1F
100
AcDbEntity
  8
LAY-10
  6
CONTINUOUS
 62
     7
100
AcDbCircle
 10
1458.500000000073
 20
814.2984848097558
 30
0.0
 40
4.0
100
AcDbArc
 50
0.0
 51
131.439421679092
  0
CIRCLE
  5
3EF
330
1F
100
AcDbEntity
  8
LAY-10
  6
CONTINUOUS
 62
     7
100
AcDbCircle
 10
1414.800000000074
 20
814.2984848097558
 30
0.0
 40
3.000000000000003
  0
ARC
  5
3F0
330
1F
100
AcDbEntity
  8
LAY-10
  6
CONTINUOUS
 62
     7
100
AcDbCircle
 10
1590.500000000072
 20
808.2984848097581
 30
0.0
 40
3.000000000000003
100
AcDbArc
 50
0.0
 51
90.00000000000001
  0
LINE
  5
3F1
330
1F
100
AcDbEntity
  8
LAY-10
  6
CONTINUOUS
 62
     7
100
AcDbLine
 10
1587.500000000074
 20
808.0984848097569
 30
0.0
 11
1586.500000000071
 21
808.0984848097569
 31
0.0
  0
LINE
  5
3F2
330
1F
100
AcDbEntity
  8
LAY-10
  6
CONTINUOUS
 62
     7
100
AcDbLine
 10
1575.500000000072
 20
808.0984848097569
 30
0.0
 11
1576.500000000073
 21
808.0984848097569
 31
0.0
  0
LINE
  5
3F3
330
1F
100
AcDbEntity
  8
LAY-10
  6
CONTINUOUS
 62
     7
100
AcDbLine
 10
1590.500000000072
 20
799.098484809756
 30
0.0
 11
1590.500000000072
 21
808.0984848097569
 31
0.0
  0
LINE
  5
3F4
330
1F
100
AcDbEntity
  8
LAY-10
  6
CONTINUOUS
 62
     7
100
AcDbLine
 10
1587.500000000074
 20
808.0984848097569
 30
0.0
 11
1590.500000000072
 21
808.0984848097569
 31
0.0
  0
LINE
  5
3F5
330
1F
100
AcDbEntity
  8
LAY-10
  6
CONTINUOUS
 62
     7
100
AcDbLine
 10
1587.500000000074
 20
808.0984848097569
 30
0.0
 11
1587.500000000074
 21
811.2984848097558
 31
0.0
  0
LINE
  5
3F6
330
1F
100
AcDbEntity
  8
LAY-10
  6
CONTINUOUS
 62
     7
100
AcDbLine
 10
1575.500000000072
 20
808.0984848097569
 30
0.0
 11
1575.500000000072
 21
811.2984848097558
 31
0.0
  0
LINE
  5
3F7
330
1F
100
AcDbEntity
  8
LAY-10
  6
CONTINUOUS
 62
     7
100
AcDbLine
 10
1587.500000000074
 20
799.098484809756
 30
0.0
 11
1587.500000000074
 21
795.8984848097562
 31
0.0
  0
LINE
  5
3F8
330
1F
100
AcDbEntity
  8
LAY-10
  6
CONTINUOUS
 62
     7
100
AcDbLine
 10
1575.500000000072
 20
799.098484809756
 30
0.0
 11
1575.500000000072
 21
795.8984848097562
 31
0.0
  0
LINE
  5
3F9
330
1F
100
AcDbEntity
  8
LAY-10
  6
CONTINUOUS
 62
     7
100
AcDbLine
 10
1558.000000000073
 20
808.0984848097569
 30
0.0
 11
1575.500000000072
 21
808.0984848097569
 31
0.0
  0
LINE
  5
3FA
330
1F
100
AcDbEntity
  8
LAY-10
  6
CONTINUOUS
 62
     7
100
AcDbLine
 10
1559.500000000073
 20
808.0984848097569
 30
0.0
 11
1556.500000000073
 21
808.0984848097569
 31
0.0
  0
LINE
  5
3FB
330
1F
100
AcDbEntity
  8
LAY-10
  6
CONTINUOUS
 62
     7
100
AcDbLine
 10
1556.500000000073
 20
795.8984848097562
 30
0.0
 11
1556.500000000073
 21
808.0984848097569
 31
0.0
  0
ARC
  5
3FC
330
1F
100
AcDbEntity
  8
LAY-10
  6
CONTINUOUS
 62
     7
100
AcDbCircle
 10
602.300000000076
 20
840.2121933086978
 30
0.0
 40
8.0
100
AcDbArc
 50
315.0000000000145
 51
0.0
  0
LINE
  5
3FD
330
1F
100
AcDbEntity
  8
LAY-10
  6
CONTINUOUS
 62
     7
100
AcDbLine
 10
602.300000000076
 20
866.8984848097139
 30
0.0
 11
610.3000000000769
 21
866.8984848097139
 31
0.0
  0
LINE
  5
3FE
330
1F
100
AcDbEntity
  8
LAY-10
  6
CONTINUOUS
 62
     7
100
AcDbLine
 10
602.300000000076
 20
840.2121933086978
 30
0.0
 11
602.300000000076
 21
866.8984848097139
 31
0.0
  0
LINE
  5
3FF
330
1F
100
AcDbEntity
  8
LAY-10
  6
CONTINUOUS
 62
     7
100
AcDbLine
 10
572.6015151902415
 20
799.1999999998793
 30
0.0
 11
607.9568542495684
 21
834.5553390592063
 31
0.0
  0
LINE
  5
400
330
1F
100
AcDbEntity
  8
LAY-10
  6
CONTINUOUS
 62
     7
100
AcDbLine
 10
572.6015151902415
 20
799.1999999998793
 30
0.0
 11
566.944660940749
 21
804.8568542493713
 31
0.0
  0
LINE
  5
401
330
1F
100
AcDbEntity
  8
LAY-10
  6
CONTINUOUS
 62
     7
100
AcDbLine
 10
566.944660940749
 20
804.8568542493713
 30
0.0
 11
602.300000000076
 21
840.2121933086978
 31
0.0
  0
ARC
  5
402
330
1F
100
AcDbEntity
  8
LAY-10
  6
CONTINUOUS
 62
     7
100
AcDbCircle
 10
1610.700000000071
 20
840.2121933086978
 30
0.0
 40
8.0
100
AcDbArc
 50
180.0
 51
224.9999999999971
  0
LINE
  5
403
330
1F
100
AcDbEntity
  8
LAY-10
  6
CONTINUOUS
 62
     7
100
AcDbLine
 10
1640.398484809908
 20
799.1999999998793
 30
0.0
 11
1646.055339059398
 21
804.8568542493713
 31
0.0
  0
LINE
  5
404
330
1F
100
AcDbEntity
  8
LAY-10
  6
CONTINUOUS
 62
     7
100
AcDbLine
 10
1640.398484809908
 20
799.1999999998793
 30
0.0
 11
1605.043145750579
 21
834.5553390592063
 31
0.0
  0
LINE
  5
405
330
1F
100
AcDbEntity
  8
LAY-10
  6
CONTINUOUS
 62
     7
100
AcDbLine
 10
1646.055339059398
 20
804.8568542493713
 30
0.0
 11
1610.700000000071
 21
840.2121933086978
 31
0.0
  0
LINE
  5
406
330
1F
100
AcDbEntity
  8
LAY-10
  6
CONTINUOUS
 62
     7
100
AcDbLine
 10
1610.700000000071
 20
840.2121933086978
 30
0.0
 11
1610.700000000071
 21
866.8984848097139
 31
0.0
  0
LINE
  5
407
330
1F
100
AcDbEntity
  8
LAY-10
  6
CONTINUOUS
 62
     7
100
AcDbLine
 10
1610.700000000071
 20
866.8984848097139
 30
0.0
 11
1602.70000000007
 21
866.8984848097139
 31
0.0
  0
LINE
  5
408
330
1F
100
AcDbEntity
  8
LAY-10
  6
CONTINUOUS
 62
     7
100
AcDbLine
 10
1099.50000000011
 20
854.89848480963
 30
0.0
 11
623.50000000011
 21
854.89848480963
 31
0.0
  0
LINE
  5
409
330
1F
100
AcDbEntity
  8
LAY-10
  6
CONTINUOUS
 62
     7
100
AcDbLine
 10
617.500000000111
 20
910.89848480963
 30
0.0
 11
1105.500000000111
 21
910.89848480963
 31
0.0
  0
LINE
  5
40A
330
1F
100
AcDbEntity
  8
LAY-10
  6
CONTINUOUS
 62
     7
100
AcDbLine
 10
617.500000000111
 20
904.89848480963
 30
0.0
 11
1105.500000000111
 21
904.89848480963
 31
0.0
  0
LINE
  5
40B
330
1F
100
AcDbEntity
  8
LAY-10
  6
CONTINUOUS
 62
     7
100
AcDbLine
 10
617.50000000011
 20
910.89848480963
 30
0.0
 11
617.50000000011
 21
839.8984848096296
 31
0.0
  0
ARC
  5
40C
330
1F
100
AcDbEntity
  8
LAY-10
  6
CONTINUOUS
 62
     7
100
AcDbCircle
 10
632.00000000011
 20
854.3984848096301
 30
0.0
 40
8.5
100
AcDbArc
 50
180.0
 51
270.0
  0
ARC
  5
40D
330
1F
100
AcDbEntity
  8
LAY-10
  6
CONTINUOUS
 62
     7
100
AcDbCircle
 10
619.50000000011
 20
900.89848480963
 30
0.0
 40
4.0
100
AcDbArc
 50
0.0
 51
90.00000000000001
  0
ARC
  5
40E
330
1F
100
AcDbEntity
  8
LAY-10
  6
CONTINUOUS
 62
     7
100
AcDbCircle
 10
678.50000000011
 20
841.8984848096301
 30
0.0
 40
4.0
100
AcDbArc
 50
0.0
 51
90.00000000000001
  0
LINE
  5
40F
330
1F
100
AcDbEntity
  8
LAY-10
  6
CONTINUOUS
 62
     7
100
AcDbLine
 10
682.50000000011
 20
839.89848480963
 30
0.0
 11
682.50000000011
 21
841.8984848096301
 31
0.0
  0
LINE
  5
410
330
1F
100
AcDbEntity
  8
LAY-10
  6
CONTINUOUS
 62
     7
100
AcDbLine
 10
632.00000000011
 20
845.89848480963
 30
0.0
 11
678.50000000011
 21
845.89848480963
 31
0.0
  0
LINE
  5
411
330
1F
100
AcDbEntity
  8
LAY-10
  6
CONTINUOUS
 62
     7
100
AcDbLine
 10
623.50000000011
 20
854.3984848096301
 30
0.0
 11
623.50000000011
 21
900.89848480963
 31
0.0
  0
LINE
  5
412
330
1F
100
AcDbEntity
  8
LAY-10
  6
CONTINUOUS
 62
     7
100
AcDbLine
 10
1105.50000000011
 20
910.8984848096295
 30
0.0
 11
1105.50000000011
 21
839.8984848096296
 31
0.0
  0
ARC
  5
413
330
1F
100
AcDbEntity
  8
LAY-10
  6
CONTINUOUS
 62
     7
100
AcDbCircle
 10
1091.00000000011
 20
854.3984848096295
 30
0.0
 40
8.5
100
AcDbArc
 50
270.0
 51
0.0
  0
ARC
  5
414
330
1F
100
AcDbEntity
  8
LAY-10
  6
CONTINUOUS
 62
     7
100
AcDbCircle
 10
1103.50000000011
 20
900.8984848096295
 30
0.0
 40
4.0
100
AcDbArc
 50
90.00000000000001
 51
180.0
  0
ARC
  5
415
330
1F
100
AcDbEntity
  8
LAY-10
  6
CONTINUOUS
 62
     7
100
AcDbCircle
 10
1044.50000000011
 20
841.8984848096301
 30
0.0
 40
4.0
100
AcDbArc
 50
90.00000000000001
 51
180.0
  0
LINE
  5
416
330
1F
100
AcDbEntity
  8
LAY-10
  6
CONTINUOUS
 62
     7
100
AcDbLine
 10
1040.50000000011
 20
839.89848480963
 30
0.0
 11
1040.50000000011
 21
841.8984848096301
 31
0.0
  0
LINE
  5
417
330
1F
100
AcDbEntity
  8
LAY-10
  6
CONTINUOUS
 62
     7
100
AcDbLine
 10
1091.00000000011
 20
845.8984848096295
 30
0.0
 11
1044.50000000011
 21
845.89848480963
 31
0.0
  0
LINE
  5
418
330
1F
100
AcDbEntity
  8
LAY-10
  6
CONTINUOUS
 62
     7
100
AcDbLine
 10
1099.50000000011
 20
854.3984848096295
 30
0.0
 11
1099.50000000011
 21
900.8984848096295
 31
0.0
  0
LINE
  5
419
330
1F
100
AcDbEntity
  8
LAY-10
  6
CONTINUOUS
 62
     7
100
AcDbLine
 10
758.5000000001086
 20
904.89848480963
 30
0.0
 11
758.5000000001082
 21
854.8984848096331
 31
0.0
  0
LINE
  5
41A
330
1F
100
AcDbEntity
  8
LAY-10
  6
CONTINUOUS
 62
     7
100
AcDbLine
 10
764.5000000001111
 20
904.89848480963
 30
0.0
 11
764.5000000001111
 21
854.8984848096331
 31
0.0
  0
LINE
  5
41B
330
1F
100
AcDbEntity
  8
LAY-10
  6
CONTINUOUS
 62
     7
100
AcDbLine
 10
964.5000000001119
 20
904.89848480963
 30
0.0
 11
964.5000000001119
 21
854.8984848096331
 31
0.0
  0
LINE
  5
41C
330
1F
100
AcDbEntity
  8
LAY-10
  6
CONTINUOUS
 62
     7
100
AcDbLine
 10
958.50000000011
 20
904.89848480963
 30
0.0
 11
958.5000000001097
 21
854.8984848096331
 31
0.0
  0
LINE
  5
41D
330
1F
100
AcDbEntity
  8
LAY-10
  6
CONTINUOUS
 62
     7
100
AcDbLine
 10
1589.5
 20
854.89848480963
 30
0.0
 11
1113.5
 21
854.89848480963
 31
0.0
  0
LINE
  5
41E
330
1F
100
AcDbEntity
  8
LAY-10
  6
CONTINUOUS
 62
     7
100
AcDbLine
 10
1107.500000000001
 20
910.89848480963
 30
0.0
 11
1595.500000000001
 21
910.89848480963
 31
0.0
  0
LINE
  5
41F
330
1F
100
AcDbEntity
  8
LAY-10
  6
CONTINUOUS
 62
     7
100
AcDbLine
 10
1107.5
 20
910.89848480963
 30
0.0
 11
1107.5
 21
839.8984848096296
 31
0.0
  0
ARC
  5
420
330
1F
100
AcDbEntity
  8
LAY-10
  6
CONTINUOUS
 62
     7
100
AcDbCircle
 10
1122.0
 20
854.3984848096301
 30
0.0
 40
8.5
100
AcDbArc
 50
180.0
 51
270.0
  0
ARC
  5
421
330
1F
100
AcDbEntity
  8
LAY-10
  6
CONTINUOUS
 62
     7
100
AcDbCircle
 10
1109.5
 20
900.89848480963
 30
0.0
 40
4.0
100
AcDbArc
 50
0.0
 51
90.00000000000001
  0
ARC
  5
422
330
1F
100
AcDbEntity
  8
LAY-10
  6
CONTINUOUS
 62
     7
100
AcDbCircle
 10
1168.5
 20
841.8984848096301
 30
0.0
 40
4.0
100
AcDbArc
 50
0.0
 51
90.00000000000001
  0
LINE
  5
423
330
1F
100
AcDbEntity
  8
LAY-10
  6
CONTINUOUS
 62
     7
100
AcDbLine
 10
1172.5
 20
839.89848480963
 30
0.0
 11
1172.5
 21
841.8984848096301
 31
0.0
  0
LINE
  5
424
330
1F
100
AcDbEntity
  8
LAY-10
  6
CONTINUOUS
 62
     7
100
AcDbLine
 10
1122.0
 20
845.89848480963
 30
0.0
 11
1168.5
 21
845.89848480963
 31
0.0
  0
LINE
  5
425
330
1F
100
AcDbEntity
  8
LAY-10
  6
CONTINUOUS
 62
     7
100
AcDbLine
 10
1113.5
 20
854.3984848096301
 30
0.0
 11
1113.5
 21
900.89848480963
 31
0.0
  0
LINE
  5
426
330
1F
100
AcDbEntity
  8
LAY-10
  6
CONTINUOUS
 62
     7
100
AcDbLine
 10
1595.5
 20
910.8984848096295
 30
0.0
 11
1595.5
 21
839.8984848096296
 31
0.0
  0
ARC
  5
427
330
1F
100
AcDbEntity
  8
LAY-10
  6
CONTINUOUS
 62
     7
100
AcDbCircle
 10
1581.0
 20
854.3984848096295
 30
0.0
 40
8.5
100
AcDbArc
 50
270.0
 51
0.0
  0
ARC
  5
428
330
1F
100
AcDbEntity
  8
LAY-10
  6
CONTINUOUS
 62
     7
100
AcDbCircle
 10
1593.5
 20
900.8984848096295
 30
0.0
 40
4.0
100
AcDbArc
 50
90.00000000000001
 51
180.0
  0
ARC
  5
429
330
1F
100
AcDbEntity
  8
LAY-10
  6
CONTINUOUS
 62
     7
100
AcDbCircle
 10
1534.5
 20
841.8984848096301
 30
0.0
 40
4.0
100
AcDbArc
 50
90.00000000000001
 51
180.0
  0
LINE
  5
42A
330
1F
100
AcDbEntity
  8
LAY-10
  6
CONTINUOUS
 62
     7
100
AcDbLine
 10
1530.5
 20
839.89848480963
 30
0.0
 11
1530.5
 21
841.8984848096301
 31
0.0
  0
LINE
  5
42B
330
1F
100
AcDbEntity
  8
LAY-10
  6
CONTINUOUS
 62
     7
100
AcDbLine
 10
1581.0
 20
845.8984848096295
 30
0.0
 11
1534.5
 21
845.89848480963
 31
0.0
  0
LINE
  5
42C
330
1F
100
AcDbEntity
  8
LAY-10
  6
CONTINUOUS
 62
     7
100
AcDbLine
 10
1589.5
 20
854.3984848096295
 30
0.0
 11
1589.5
 21
900.8984848096295
 31
0.0
  0
LINE
  5
42D
330
1F
100
AcDbEntity
  8
LAY-10
  6
CONTINUOUS
 62
     7
100
AcDbLine
 10
1248.499999999999
 20
904.89848480963
 30
0.0
 11
1248.499999999998
 21
854.8984848096331
 31
0.0
  0
LINE
  5
42E
330
1F
100
AcDbEntity
  8
LAY-10
  6
CONTINUOUS
 62
     7
100
AcDbLine
 10
1254.500000000001
 20
904.89848480963
 30
0.0
 11
1254.500000000001
 21
854.8984848096331
 31
0.0
  0
LINE
  5
42F
330
1F
100
AcDbEntity
  8
LAY-10
  6
CONTINUOUS
 62
     7
100
AcDbLine
 10
1454.500000000002
 20
904.89848480963
 30
0.0
 11
1454.500000000002
 21
854.8984848096331
 31
0.0
  0
LINE
  5
430
330
1F
100
AcDbEntity
  8
LAY-10
  6
CONTINUOUS
 62
     7
100
AcDbLine
 10
1448.5
 20
904.89848480963
 30
0.0
 11
1448.5
 21
854.8984848096331
 31
0.0
  0
LINE
  5
431
330
1F
100
AcDbEntity
  8
LAY-10
  6
CONTINUOUS
 62
     7
100
AcDbLine
 10
613.5000000000867
 20
839.8984848096302
 30
0.0
 11
1599.500000000073
 21
839.8984848096302
 31
0.0
  0
LINE
  5
432
330
1F
100
AcDbEntity
  8
LAY-10
  6
CONTINUOUS
 62
     7
100
AcDbLine
 10
1599.500000000073
 20
837.8984848096303
 30
0.0
 11
613.5000000000867
 21
837.8984848096303
 31
0.0
  0
ARC
  5
433
330
1F
100
AcDbEntity
  8
LAY-10
  6
CONTINUOUS
 62
     7
100
AcDbCircle
 10
2115.299999999976
 20
1454.898484809717
 30
0.0
 40
2.0
100
AcDbArc
 50
0.0
 51
90.00000000000001
  0
LINE
  5
434
330
1F
100
AcDbEntity
  8
LAY-10
  6
CONTINUOUS
 62
     7
100
AcDbLine
 10
2114.299999999976
 20
1456.898484809718
 30
0.0
 11
2115.299999999976
 21
1456.898484809718
 31
0.0
  0
LINE
  5
435
330
1F
100
AcDbEntity
  8
LAY-10
  6
CONTINUOUS
 62
     7
100
AcDbLine
 10
1107.500000000001
 20
904.89848480963
 30
0.0
 11
1595.500000000001
 21
904.89848480963
 31
0.0
  0
LINE
  5
436
330
1F
100
AcDbEntity
  8
LAY-10
  6
CENTER
 62
     2
100
AcDbLine
 10
842.9750000000372
 20
2367.898484809689
 30
0.0
 11
880.4750000000372
 21
2367.898484809689
 31
0.0
  0
LINE
  5
437
330
1F
100
AcDbEntity
  8
LAY-10
  6
CENTER
 62
     2
100
AcDbLine
 10
861.5000000000401
 20
2348.21483701325
 30
0.0
 11
861.5000000000401
 21
2385.81483701325
 31
0.0
  0
LINE
  5
438
330
1F
100
AcDbEntity
  8
LAY-10
  6
CENTER
 62
     2
100
AcDbLine
 10
1332.974999999997
 20
2367.898484809689
 30
0.0
 11
1370.474999999997
 21
2367.898484809689
 31
0.0
  0
LINE
  5
439
330
1F
100
AcDbEntity
  8
LAY-10
  6
CENTER
 62
     2
100
AcDbLine
 10
1351.5
 20
2348.21483701325
 30
0.0
 11
1351.5
 21
2385.81483701325
 31
0.0
  0
LINE
  5
43A
330
1F
100
AcDbEntity
  8
LAY-10
  6
CENTER
 62
     2
100
AcDbLine
 10
842.9750000000373
 20
1365.898484809784
 30
0.0
 11
880.4750000000373
 21
1365.898484809784
 31
0.0
  0
LINE
  5
43B
330
1F
100
AcDbEntity
  8
LAY-10
  6
CENTER
 62
     2
100
AcDbLine
 10
861.5000000000401
 20
1385.582132606223
 30
0.0
 11
861.5000000000401
 21
1347.982132606222
 31
0.0
  0
LINE
  5
43C
330
1F
100
AcDbEntity
  8
LAY-10
  6
CENTER
 62
     2
100
AcDbLine
 10
2088.401515190138
 20
2341.898484809718
 30
0.0
 11
2139.601515190141
 21
2341.898484809718
 31
0.0
  0
LINE
  5
43D
330
1F
100
AcDbEntity
  8
LAY-10
  6
CENTER
 62
     2
100
AcDbLine
 10
2107.199999999976
 20
2403.198484809714
 30
0.0
 11
2107.199999999976
 21
2354.698484809717
 31
0.0
  0
LINE
  5
43E
330
1F
100
AcDbEntity
  8
LAY-10
  6
CENTER
 62
     2
100
AcDbLine
 10
1981.401515190143
 20
1866.898484809718
 30
0.0
 11
2175.201515190141
 21
1866.898484809718
 31
0.0
  0
LINE
  5
43F
330
1F
100
AcDbEntity
  8
LAY-10
  6
CENTER
 62
     2
100
AcDbLine
 10
2088.401515190138
 20
1391.898484809715
 30
0.0
 11
2139.601515190141
 21
1391.898484809715
 31
0.0
  0
LINE
  5
440
330
1F
100
AcDbEntity
  8
LAY-10
  6
CENTER
 62
     2
100
AcDbLine
 10
2107.199999999976
 20
1330.598484809717
 30
0.0
 11
2107.199999999976
 21
1379.098484809717
 31
0.0
  0
LINE
  5
441
330
1F
100
AcDbEntity
  8
LAY-10
  6
CENTER
 62
     2
100
AcDbLine
 10
631.5000000000858
 20
833.996969619594
 30
0.0
 11
631.5000000000858
 21
782.7969696195942
 31
0.0
  0
LINE
  5
442
330
1F
100
AcDbEntity
  8
LAY-10
  6
CENTER
 62
     2
100
AcDbLine
 10
1581.500000000073
 20
829.6684848097575
 30
0.0
 11
1581.500000000073
 21
778.2784848097572
 31
0.0
  0
LINE
  5
443
330
1F
100
AcDbEntity
  8
LAY-10
  6
CENTER
 62
     2
100
AcDbLine
 10
1106.500000000041
 20
940.996969619664
 30
0.0
 11
1106.500000000041
 21
746.9969696196649
 31
0.0
  0
DIMENSION
  5
445
330
1F
100
AcDbEntity
  8
LAY-20
  6
CONTINUOUS
 62
     4
100
AcDbDimension
  2
*D27
 10
1611.5000000001
 20
1080.8984848098
 30
0.0
 11
1106.500000000096
 21
1105.8984848098
 31
0.0
 70
   160
  3
ISO-25
100
AcDbAlignedDimension
 13
601.5000000000906
 23
910.8984848097072
 33
0.0
 14
1611.5000000001
 24
910.8984848097072
 34
0.0
100
AcDbRotatedDimension
1001
ACAD
1000
DSTYLE
1002
{
1070
   270
1070
     2
1070
     6
1000
EX_BNORM
1070
     7
1000
EX_BNORM
1070
    41
1040
25.0
1070
    42
1040
15.0
1070
    44
1040
15.0
1070
    73
1070
     0
1070
    74
1070
     0
1070
    75
1070
     0
1070
    76
1070
     0
1070
    77
1070
     1
1070
    78
1070
     8
1070
   140
1040
31.181104
1070
   147
1040
0.0
1070
   173
1070
     1
1070
   176
1070
     4
1070
   177
1070
     4
1070
   178
1070
     7
1070
   271
1070
     1
1070
   277
1070
     2
1070
   279
1070
     2
1070
   280
1070
     0
1070
   287
1070
     5
1070
   340
1005
444
1002
}
  0
DIMENSION
  5
453
330
1F
100
AcDbEntity
  8
LAY-20
  6
CONTINUOUS
 62
     4
100
AcDbDimension
  2
*D28
 10
617.500000000076
 20
1010.89848480976
 30
0.0
 11
861.500000000076
 21
1035.89848480976
 31
0.0
 70
   160
  3
ISO-25
100
AcDbAlignedDimension
 13
1105.500000000075
 23
910.8984848097562
 33
0.0
 14
617.500000000076
 24
910.8984848097562
 34
0.0
100
AcDbRotatedDimension
1001
ACAD
1000
DSTYLE
1002
{
1070
   270
1070
     2
1070
     6
1000
EX_BNORM
1070
     7
1000
EX_BNORM
1070
    41
1040
25.0
1070
    42
1040
15.0
1070
    44
1040
15.0
1070
    73
1070
     0
1070
    74
1070
     0
1070
    75
1070
     0
1070
    76
1070
     0
1070
    77
1070
     1
1070
    78
1070
     8
1070
   140
1040
31.181104
1070
   147
1040
0.0
1070
   173
1070
     1
1070
   176
1070
     4
1070
   177
1070
     4
1070
   178
1070
     7
1070
   271
1070
     1
1070
   277
1070
     2
1070
   279
1070
     2
1070
   280
1070
     0
1070
   287
1070
     5
1070
   340
1005
444
1002
}
  0
DIMENSION
  5
460
330
1F
100
AcDbEntity
  8
LAY-20
  6
CONTINUOUS
 62
     4
100
AcDbDimension
  2
*D29
 10
1556.5000000001
 20
665.8984848097602
 30
0.0
 11
1106.5000000001
 21
690.8984848097602
 31
0.0
 70
   160
  3
ISO-25
100
AcDbAlignedDimension
 13
656.5000000001004
 23
765.8984848097072
 33
0.0
 14
1556.5000000001
 24
765.8984848097072
 34
0.0
100
AcDbRotatedDimension
1001
ACAD
1000
DSTYLE
1002
{
1070
   270
1070
     2
1070
     6
1000
EX_BNORM
1070
     7
1000
EX_BNORM
1070
    41
1040
25.0
1070
    42
1040
15.0
1070
    44
1040
15.0
1070
    73
1070
     0
1070
    74
1070
     0
1070
    75
1070
     0
1070
    76
1070
     0
1070
    77
1070
     1
1070
    78
1070
     8
1070
   140
1040
31.181104
1070
   147
1040
0.0
1070
   173
1070
     1
1070
   176
1070
     4
1070
   177
1070
     4
1070
   178
1070
     7
1070
   271
1070
     1
1070
   277
1070
     2
1070
   279
1070
     2
1070
   280
1070
     0
1070
   287
1070
     5
1070
   340
1005
444
1002
}
  0
DIMENSION
  5
46D
330
1F
100
AcDbEntity
  8
LAY-20
  6
CONTINUOUS
 62
     4
100
AcDbDimension
  2
*D30
 10
1739.0
 20
795.8984848097072
 30
0.0
 11
1714.000000000001
 21
853.3984848097068
 31
0.0
 70
   160
  3
ISO-25
100
AcDbAlignedDimension
 13
1611.5000000001
 23
910.8984848097072
 33
0.0
 14
1599.7000000001
 24
795.8984848097072
 34
0.0
 50
90.0
100
AcDbRotatedDimension
1001
ACAD
1000
DSTYLE
1002
{
1070
   270
1070
     2
1070
     6
1000
EX_BNORM
1070
     7
1000
EX_BNORM
1070
    41
1040
25.0
1070
    42
1040
15.0
1070
    44
1040
15.0
1070
    73
1070
     0
1070
    74
1070
     0
1070
    75
1070
     0
1070
    76
1070
     0
1070
    77
1070
     1
1070
    78
1070
     8
1070
   140
1040
31.181104
1070
   147
1040
0.0
1070
   173
1070
     1
1070
   176
1070
     4
1070
   177
1070
     4
1070
   178
1070
     7
1070
   271
1070
     1
1070
   277
1070
     2
1070
   279
1070
     2
1070
   280
1070
     0
1070
   287
1070
     5
1070
   340
1005
444
1002
}
  0
DIMENSION
  5
47A
330
1F
100
AcDbEntity
  8
LAY-20
  6
CONTINUOUS
 62
     4
100
AcDbDimension
  2
*D31
 10
1602.700000000101
 20
595.8984848097598
 30
0.0
 11
1106.50000000009
 21
620.8984848097598
 31
0.0
 70
   160
  3
ISO-25
100
AcDbAlignedDimension
 13
610.3000000000803
 23
798.8984848097602
 33
0.0
 14
1602.700000000101
 24
798.8984848097602
 34
0.0
100
AcDbRotatedDimension
1001
ACAD
1000
DSTYLE
1002
{
1070
   270
1070
     2
1070
     6
1000
EX_BNORM
1070
     7
1000
EX_BNORM
1070
    41
1040
25.0
1070
    42
1040
15.0
1070
    44
1040
15.0
1070
    73
1070
     0
1070
    74
1070
     0
1070
    75
1070
     0
1070
    76
1070
     0
1070
    77
1070
     1
1070
    78
1070
     0
1070
   140
1040
31.181104
1070
   147
1040
0.0
1070
   173
1070
     1
1070
   176
1070
     4
1070
   177
1070
     4
1070
   178
1070
     7
1070
   271
1070
     0
1070
   277
1070
     2
1070
   279
1070
     2
1070
   280
1070
     0
1070
   287
1070
     5
1070
   340
1005
444
1002
}
  0
DIMENSION
  5
487
330
1F
100
AcDbEntity
  8
LAY-20
  6
CONTINUOUS
 62
     4
100
AcDbDimension
  2
*D32
 10
1474.0
 20
910.8984848096799
 30
0.0
 11
1449.000000000001
 21
955.8984848096794
 31
0.0
 70
   160
  3
ISO-25
100
AcDbAlignedDimension
 13
1474.0
 23
904.8984848096298
 33
0.0
 14
1474.0
 24
910.8984848096799
 34
0.0
 50
90.0
100
AcDbRotatedDimension
1001
ACAD
1000
DSTYLE
1002
{
1070
   270
1070
     2
1070
     6
1000
EX_BNORM
1070
     7
1000
EX_BNORM
1070
    41
1040
25.0
1070
    42
1040
0.0
1070
    44
1040
0.0
1070
    73
1070
     0
1070
    74
1070
     0
1070
    75
1070
     1
1070
    76
1070
     1
1070
    77
1070
     1
1070
    78
1070
     8
1070
   140
1040
31.181104
1070
   147
1040
0.0
1070
   173
1070
     1
1070
   176
1070
     4
1070
   177
1070
     4
1070
   178
1070
     7
1070
   271
1070
     1
1070
   277
1070
     2
1070
   279
1070
     2
1070
   280
1070
     2
1070
   287
1070
     5
1070
   340
1005
444
1002
}
  0
DIMENSION
  5
494
330
1F
100
AcDbEntity
  8
LAY-20
  6
CONTINUOUS
 62
     4
100
AcDbDimension
  2
*D33
 10
1841.5
 20
1324.8984848097
 30
0.0
 11
1816.5
 21
1866.8984848097
 31
0.0
 70
   160
  3
ISO-25
100
AcDbAlignedDimension
 13
2011.5
 23
2408.8984848097
 33
0.0
 14
2011.5
 24
1324.8984848097
 34
0.0
 50
90.0
100
AcDbRotatedDimension
1001
ACAD
1000
DSTYLE
1002
{
1070
   270
1070
     2
1070
     6
1000
EX_BNORM
1070
     7
1000
EX_BNORM
1070
    41
1040
25.0
1070
    42
1040
15.0
1070
    44
1040
15.0
1070
    73
1070
     0
1070
    74
1070
     0
1070
    75
1070
     0
1070
    76
1070
     0
1070
    77
1070
     1
1070
    78
1070
     8
1070
   140
1040
31.181104
1070
   147
1040
0.0
1070
   173
1070
     1
1070
   176
1070
     4
1070
   177
1070
     4
1070
   178
1070
     7
1070
   271
1070
     1
1070
   277
1070
     2
1070
   279
1070
     2
1070
   280
1070
     0
1070
   287
1070
     5
1070
   340
1005
444
1002
}
  0
DIMENSION
  5
4A1
330
1F
100
AcDbEntity
  8
LAY-20
  6
CONTINUOUS
 62
     4
100
AcDbDimension
  2
*D34
 10
1911.5
 20
2392.898484809718
 30
0.0
 11
1886.5
 21
1866.898484809717
 31
0.0
 70
   160
  3
ISO-25
100
AcDbAlignedDimension
 13
2011.499999999979
 23
1340.898484809715
 33
0.0
 14
2011.499999999979
 24
2392.898484809718
 34
0.0
 50
90.0
100
AcDbRotatedDimension
1001
ACAD
1000
DSTYLE
1002
{
1070
   270
1070
     2
1070
     6
1000
EX_BNORM
1070
     7
1000
EX_BNORM
1070
    41
1040
25.0
1070
    42
1040
15.0
1070
    44
1040
15.0
1070
    73
1070
     0
1070
    74
1070
     0
1070
    75
1070
     0
1070
    76
1070
     0
1070
    77
1070
     1
1070
    78
1070
     8
1070
   140
1040
31.181104
1070
   147
1040
0.0
1070
   173
1070
     1
1070
   176
1070
     4
1070
   177
1070
     4
1070
   178
1070
     7
1070
   271
1070
     1
1070
   277
1070
     2
1070
   279
1070
     2
1070
   280
1070
     0
1070
   287
1070
     5
1070
   340
1005
444
1002
}
  0
DIMENSION
  5
4AE
330
1F
100
AcDbEntity
  8
LAY-20
  6
CONTINUOUS
 62
     4
100
AcDbDimension
  2
*D35
 10
2256.5
 20
1416.8984848097
 30
0.0
 11
2231.5
 21
1866.89848480965
 31
0.0
 70
   160
  3
ISO-25
100
AcDbAlignedDimension
 13
2156.5
 23
2316.8984848096
 33
0.0
 14
2156.5
 24
1416.8984848097
 34
0.0
 50
90.0
100
AcDbRotatedDimension
1001
ACAD
1000
DSTYLE
1002
{
1070
   270
1070
     2
1070
     6
1000
EX_BNORM
1070
     7
1000
EX_BNORM
1070
    41
1040
25.0
1070
    42
1040
15.0
1070
    44
1040
15.0
1070
    73
1070
     0
1070
    74
1070
     0
1070
    75
1070
     0
1070
    76
1070
     0
1070
    77
1070
     1
1070
    78
1070
     8
1070
   140
1040
31.181104
1070
   147
1040
0.0
1070
   173
1070
     1
1070
   176
1070
     4
1070
   177
1070
     4
1070
   178
1070
     7
1070
   271
1070
     1
1070
   277
1070
     2
1070
   279
1070
     2
1070
   280
1070
     0
1070
   287
1070
     5
1070
   340
1005
444
1002
}
  0
DIMENSION
  5
4BB
330
1F
100
AcDbEntity
  8
LAY-20
  6
CONTINUOUS
 62
     4
100
AcDbDimension
  2
*D36
 10
2326.500000000001
 20
1333.6984848097
 30
0.0
 11
2301.500000000001
 21
1866.8984848097
 31
0.0
 70
   160
  3
ISO-25
100
AcDbAlignedDimension
 13
2081.7
 23
2400.0984848097
 33
0.0
 14
2081.7
 24
1333.6984848097
 34
0.0
 50
90.0
100
AcDbRotatedDimension
1001
ACAD
1000
DSTYLE
1002
{
1070
   270
1070
     2
1070
     6
1000
EX_BNORM
1070
     7
1000
EX_BNORM
1070
    41
1040
25.0
1070
    42
1040
15.0
1070
    44
1040
15.0
1070
    73
1070
     0
1070
    74
1070
     0
1070
    75
1070
     0
1070
    76
1070
     0
1070
    77
1070
     1
1070
    78
1070
     0
1070
   140
1040
31.181104
1070
   147
1040
0.0
1070
   173
1070
     1
1070
   176
1070
     4
1070
   177
1070
     4
1070
   178
1070
     7
1070
   271
1070
     0
1070
   277
1070
     2
1070
   279
1070
     2
1070
   280
1070
     0
1070
   287
1070
     5
1070
   340
1005
444
1002
}
  0
LINE
  5
4C8
330
1F
100
AcDbEntity
  8
LAY-20
  6
CONTINUOUS
 62
     7
100
AcDbLine
 10
601.5000000000495
 20
1324.898484809737
 30
0.0
 11
1611.500000000032
 21
1324.898484809735
 31
0.0
  0
LINE
  5
4C9
330
1F
100
AcDbEntity
  8
LAY-20
  6
CONTINUOUS
 62
     7
100
AcDbLine
 10
1596.50000000003
 20
1339.898484809735
 30
0.0
 11
616.5000000000495
 21
1339.898484809737
 31
0.0
  0
LINE
  5
4CA
330
1F
100
AcDbEntity
  8
LAY-20
  6
CONTINUOUS
 62
     7
100
AcDbLine
 10
1596.50000000003
 20
2393.898484809738
 30
0.0
 11
616.5000000000495
 21
2393.898484809738
 31
0.0
  0
LINE
  5
4CB
330
1F
100
AcDbEntity
  8
LAY-20
  6
CONTINUOUS
 62
     7
100
AcDbLine
 10
601.5000000000495
 20
2408.898484809738
 30
0.0
 11
1611.500000000032
 21
2408.898484809738
 31
0.0
  0
LINE
  5
4CC
330
1F
100
AcDbEntity
  8
LAY-20
  6
CONTINUOUS
 62
     7
100
AcDbLine
 10
617.5000000000367
 20
2392.898484809669
 30
0.0
 11
1105.500000000037
 21
2392.898484809669
 31
0.0
  0
LINE
  5
4CD
330
1F
100
AcDbEntity
  8
LAY-20
  6
CONTINUOUS
 62
     7
100
AcDbLine
 10
616.5000000000495
 20
1339.898484809737
 30
0.0
 11
616.5000000000495
 21
2393.898484809738
 31
0.0
  0
LINE
  5
4CE
330
1F
100
AcDbEntity
  8
LAY-20
  6
CONTINUOUS
 62
     7
100
AcDbLine
 10
601.5000000000495
 20
1324.898484809737
 30
0.0
 11
601.5000000000495
 21
2408.898484809738
 31
0.0
  0
LINE
  5
4CF
330
1F
100
AcDbEntity
  8
LAY-20
  6
CONTINUOUS
 62
     7
100
AcDbLine
 10
617.5000000000367
 20
1340.898484809667
 30
0.0
 11
617.5000000000367
 21
2392.898484809669
 31
0.0
  0
LINE
  5
4D0
330
1F
100
AcDbEntity
  8
LAY-20
  6
CONTINUOUS
 62
     7
100
AcDbLine
 10
616.5000000000495
 20
1339.898484809737
 30
0.0
 11
601.5000000000495
 21
1324.898484809737
 31
0.0
  0
LINE
  5
4D1
330
1F
100
AcDbEntity
  8
LAY-20
  6
CONTINUOUS
 62
     7
100
AcDbLine
 10
601.5000000000495
 20
2408.898484809738
 30
0.0
 11
616.5000000000495
 21
2393.898484809738
 31
0.0
  0
LINE
  5
4D2
330
1F
100
AcDbEntity
  8
LAY-20
  6
CONTINUOUS
 62
     7
100
AcDbLine
 10
572.6015151902651
 20
1621.398484809804
 30
0.0
 11
572.6015151902651
 21
1612.398484809803
 31
0.0
  0
LINE
  5
4D3
330
1F
100
AcDbEntity
  8
LAY-20
  6
CONTINUOUS
 62
     7
100
AcDbLine
 10
601.5000000001022
 20
1612.398484809803
 30
0.0
 11
572.6015151902651
 21
1612.398484809803
 31
0.0
  0
LINE
  5
4D4
330
1F
100
AcDbEntity
  8
LAY-20
  6
CONTINUOUS
 62
     7
100
AcDbLine
 10
601.5000000001022
 20
1621.398484809804
 30
0.0
 11
572.6015151902651
 21
1621.398484809804
 31
0.0
  0
LINE
  5
4D5
330
1F
100
AcDbEntity
  8
LAY-20
  6
CONTINUOUS
 62
     7
100
AcDbLine
 10
572.6015151902651
 20
2112.398484809668
 30
0.0
 11
572.6015151902651
 21
2121.398484809669
 31
0.0
  0
LINE
  5
4D6
330
1F
100
AcDbEntity
  8
LAY-20
  6
CONTINUOUS
 62
     7
100
AcDbLine
 10
601.5000000001022
 20
2121.398484809669
 30
0.0
 11
572.6015151902651
 21
2121.398484809669
 31
0.0
  0
LINE
  5
4D7
330
1F
100
AcDbEntity
  8
LAY-20
  6
CONTINUOUS
 62
     7
100
AcDbLine
 10
601.5000000001022
 20
2112.398484809668
 30
0.0
 11
572.6015151902651
 21
2112.398484809668
 31
0.0
  0
LINE
  5
4D8
330
1F
100
AcDbEntity
  8
LAY-20
  6
CONTINUOUS
 62
     7
100
AcDbLine
 10
1596.50000000003
 20
2393.898484809738
 30
0.0
 11
1596.50000000003
 21
1339.898484809735
 31
0.0
  0
LINE
  5
4D9
330
1F
100
AcDbEntity
  8
LAY-20
  6
CONTINUOUS
 62
     7
100
AcDbLine
 10
1611.500000000032
 20
1324.898484809737
 30
0.0
 11
1611.500000000032
 21
2408.898484809738
 31
0.0
  0
LINE
  5
4DA
330
1F
100
AcDbEntity
  8
LAY-20
  6
CONTINUOUS
 62
     7
100
AcDbLine
 10
1596.50000000003
 20
1339.898484809737
 30
0.0
 11
1611.500000000032
 21
1324.898484809738
 31
0.0
  0
LINE
  5
4DB
330
1F
100
AcDbEntity
  8
LAY-20
  6
CONTINUOUS
 62
     7
100
AcDbLine
 10
1596.50000000003
 20
2393.898484809738
 30
0.0
 11
1611.500000000032
 21
2408.898484809738
 31
0.0
  0
LINE
  5
4DC
330
1F
100
AcDbEntity
  8
LAY-20
  6
CONTINUOUS
 62
     7
100
AcDbLine
 10
1640.398484809734
 20
1621.398484809804
 30
0.0
 11
1640.398484809734
 21
1612.398484809803
 31
0.0
  0
LINE
  5
4DD
330
1F
100
AcDbEntity
  8
LAY-20
  6
CONTINUOUS
 62
     7
100
AcDbLine
 10
1611.499999999897
 20
1612.398484809803
 30
0.0
 11
1640.398484809734
 21
1612.398484809803
 31
0.0
  0
LINE
  5
4DE
330
1F
100
AcDbEntity
  8
LAY-20
  6
CONTINUOUS
 62
     7
100
AcDbLine
 10
1611.499999999897
 20
1621.398484809804
 30
0.0
 11
1640.398484809734
 21
1621.398484809804
 31
0.0
  0
LINE
  5
4DF
330
1F
100
AcDbEntity
  8
LAY-20
  6
CONTINUOUS
 62
     7
100
AcDbLine
 10
1640.398484809734
 20
2112.398484809668
 30
0.0
 11
1640.398484809734
 21
2121.398484809669
 31
0.0
  0
LINE
  5
4E0
330
1F
100
AcDbEntity
  8
LAY-20
  6
CONTINUOUS
 62
     7
100
AcDbLine
 10
1611.499999999897
 20
2121.398484809669
 30
0.0
 11
1640.398484809734
 21
2121.398484809669
 31
0.0
  0
LINE
  5
4E1
330
1F
100
AcDbEntity
  8
LAY-20
  6
CONTINUOUS
 62
     7
100
AcDbLine
 10
1611.499999999897
 20
2112.398484809668
 30
0.0
 11
1640.398484809734
 21
2112.398484809668
 31
0.0
  0
LINE
  5
4E2
330
1F
100
AcDbEntity
  8
LAY-20
  6
CONTINUOUS
 62
     7
100
AcDbLine
 10
1593.50000000003
 20
1379.898484809687
 30
0.0
 11
1593.500000000029
 21
2353.898484809737
 31
0.0
  0
LINE
  5
4E3
330
1F
100
AcDbEntity
  8
LAY-20
  6
CONTINUOUS
 62
     7
100
AcDbLine
 10
1351.999999999982
 20
2408.898484809624
 30
0.0
 11
1351.999999999982
 21
2437.796969619461
 31
0.0
  0
LINE
  5
4E4
330
1F
100
AcDbEntity
  8
LAY-20
  6
CONTINUOUS
 62
     7
100
AcDbLine
 10
1360.999999999983
 20
2408.898484809624
 30
0.0
 11
1360.999999999983
 21
2437.796969619461
 31
0.0
  0
LINE
  5
4E5
330
1F
100
AcDbEntity
  8
LAY-20
  6
CONTINUOUS
 62
     7
100
AcDbLine
 10
1351.999999999982
 20
2437.796969619461
 30
0.0
 11
1360.999999999983
 21
2437.796969619461
 31
0.0
  0
LINE
  5
4E6
330
1F
100
AcDbEntity
  8
LAY-20
  6
CONTINUOUS
 62
     7
100
AcDbLine
 10
861.0000000000167
 20
2408.898484809624
 30
0.0
 11
861.0000000000167
 21
2437.796969619461
 31
0.0
  0
LINE
  5
4E7
330
1F
100
AcDbEntity
  8
LAY-20
  6
CONTINUOUS
 62
     7
100
AcDbLine
 10
852.0000000000158
 20
2408.898484809624
 30
0.0
 11
852.0000000000158
 21
2437.796969619461
 31
0.0
  0
LINE
  5
4E8
330
1F
100
AcDbEntity
  8
LAY-20
  6
CONTINUOUS
 62
     7
100
AcDbLine
 10
861.0000000000167
 20
2437.796969619461
 30
0.0
 11
852.0000000000158
 21
2437.796969619461
 31
0.0
  0
LINE
  5
4E9
330
1F
100
AcDbEntity
  8
LAY-20
  6
CONTINUOUS
 62
     7
100
AcDbLine
 10
1351.999999999982
 20
1324.898484809848
 30
0.0
 11
1351.999999999982
 21
1296.000000000011
 31
0.0
  0
LINE
  5
4EA
330
1F
100
AcDbEntity
  8
LAY-20
  6
CONTINUOUS
 62
     7
100
AcDbLine
 10
1360.999999999983
 20
1324.898484809848
 30
0.0
 11
1360.999999999983
 21
1296.000000000011
 31
0.0
  0
LINE
  5
4EB
330
1F
100
AcDbEntity
  8
LAY-20
  6
CONTINUOUS
 62
     7
100
AcDbLine
 10
1351.999999999982
 20
1296.000000000011
 30
0.0
 11
1360.999999999983
 21
1296.000000000011
 31
0.0
  0
LINE
  5
4EC
330
1F
100
AcDbEntity
  8
LAY-20
  6
CONTINUOUS
 62
     7
100
AcDbLine
 10
861.0000000000167
 20
1324.898484809848
 30
0.0
 11
861.0000000000167
 21
1296.000000000011
 31
0.0
  0
LINE
  5
4ED
330
1F
100
AcDbEntity
  8
LAY-20
  6
CONTINUOUS
 62
     7
100
AcDbLine
 10
852.0000000000158
 20
1324.898484809848
 30
0.0
 11
852.0000000000158
 21
1296.000000000011
 31
0.0
  0
LINE
  5
4EE
330
1F
100
AcDbEntity
  8
LAY-20
  6
CONTINUOUS
 62
     7
100
AcDbLine
 10
861.0000000000167
 20
1296.000000000011
 30
0.0
 11
852.0000000000158
 21
1296.000000000011
 31
0.0
  0
LINE
  5
4EF
330
1F
100
AcDbEntity
  8
LAY-20
  6
HIDDEN
 62
     7
100
AcDbLine
 10
1022.000000000038
 20
1337.698484809734
 30
0.0
 11
1022.000000000039
 21
1373.807118350773
 31
0.0
  0
LINE
  5
4F0
330
1F
100
AcDbEntity
  8
LAY-20
  6
HIDDEN
 62
     7
100
AcDbLine
 10
975.3000000000387
 20
1373.807118350773
 30
0.0
 11
1033.300000000039
 21
1373.807118350773
 31
0.0
  0
LINE
  5
4F1
330
1F
100
AcDbEntity
  8
LAY-20
  6
HIDDEN
 62
     7
100
AcDbLine
 10
991.0000000000404
 20
1337.698484809734
 30
0.0
 11
991.0000000000404
 21
1373.698484809733
 31
0.0
  0
LINE
  5
4F2
330
1F
100
AcDbEntity
  8
LAY-20
  6
HIDDEN
 62
     7
100
AcDbLine
 10
991.0000000000404
 20
1337.698484809734
 30
0.0
 11
1022.000000000038
 21
1337.698484809734
 31
0.0
  0
LINE
  5
4F3
330
1F
100
AcDbEntity
  8
LAY-20
  6
CONTINUOUS
 62
     7
100
AcDbLine
 10
1455.499999999996
 20
2060.398484809809
 30
0.0
 11
1417.499999999996
 21
2060.398484809807
 31
0.0
  0
LINE
  5
4F4
330
1F
100
AcDbEntity
  8
LAY-20
  6
CONTINUOUS
 62
     7
100
AcDbLine
 10
1445.499999999996
 20
2035.398484809806
 30
0.0
 11
1445.499999999996
 21
2055.398484809807
 31
0.0
  0
LINE
  5
4F5
330
1F
100
AcDbEntity
  8
LAY-20
  6
CONTINUOUS
 62
     7
100
AcDbLine
 10
1471.199999999997
 20
2035.398484809806
 30
0.0
 11
1445.499999999996
 21
2035.398484809806
 31
0.0
  0
LINE
  5
4F6
330
1F
100
AcDbEntity
  8
LAY-20
  6
CONTINUOUS
 62
     7
100
AcDbLine
 10
1455.499999999996
 20
2025.398484809809
 30
0.0
 11
1455.499999999996
 21
2035.398484809806
 31
0.0
  0
LINE
  5
4F7
330
1F
100
AcDbEntity
  8
LAY-20
  6
CONTINUOUS
 62
     7
100
AcDbLine
 10
1471.199999999997
 20
2035.398484809806
 30
0.0
 11
1471.199999999997
 21
2055.398484809807
 31
0.0
  0
LINE
  5
4F8
330
1F
100
AcDbEntity
  8
LAY-20
  6
CONTINUOUS
 62
     7
100
AcDbLine
 10
1471.199999999997
 20
2055.398484809807
 30
0.0
 11
1445.499999999996
 21
2055.398484809807
 31
0.0
  0
LINE
  5
4F9
330
1F
100
AcDbEntity
  8
LAY-20
  6
CONTINUOUS
 62
     7
100
AcDbLine
 10
1461.499999999996
 20
2060.398484809809
 30
0.0
 11
1461.499999999996
 21
2055.398484809807
 31
0.0
  0
ARC
  5
4FA
330
1F
100
AcDbEntity
  8
LAY-20
  6
CONTINUOUS
 62
     7
100
AcDbCircle
 10
1455.499999999996
 20
2060.398484809809
 30
0.0
 40
6.000000000000005
100
AcDbArc
 50
0.0
 51
90.00000000000001
  0
LINE
  5
4FB
330
1F
100
AcDbEntity
  8
LAY-20
  6
CONTINUOUS
 62
     7
100
AcDbLine
 10
1455.499999999996
 20
2066.398484809805
 30
0.0
 11
1417.499999999996
 21
2066.398484809805
 31
0.0
  0
ARC
  5
4FC
330
1F
100
AcDbEntity
  8
LAY-20
  6
CONTINUOUS
 62
     7
100
AcDbCircle
 10
1417.499999999996
 20
2066.398484809805
 30
0.0
 40
6.000000000000005
100
AcDbArc
 50
180.0
 51
270.0000000000002
  0
LINE
  5
4FD
330
1F
100
AcDbEntity
  8
LAY-20
  6
CONTINUOUS
 62
     7
100
AcDbLine
 10
1455.499999999996
 20
2154.398484809809
 30
0.0
 11
1417.499999999996
 21
2154.398484809807
 31
0.0
  0
LINE
  5
4FE
330
1F
100
AcDbEntity
  8
LAY-20
  6
CONTINUOUS
 62
     7
100
AcDbLine
 10
1455.499999999996
 20
2160.398484809809
 30
0.0
 11
1417.499999999996
 21
2160.398484809807
 31
0.0
  0
ARC
  5
4FF
330
1F
100
AcDbEntity
  8
LAY-20
  6
CONTINUOUS
 62
     7
100
AcDbCircle
 10
1417.499999999996
 20
2154.398484809807
 30
0.0
 40
6.000000000000005
100
AcDbArc
 50
90.00000000000001
 51
180.0
  0
ARC
  5
500
330
1F
100
AcDbEntity
  8
LAY-20
  6
CONTINUOUS
 62
     7
100
AcDbCircle
 10
1455.499999999996
 20
2160.398484809809
 30
0.0
 40
6.000000000000005
100
AcDbArc
 50
270.0000000000002
 51
0.0
  0
LINE
  5
501
330
1F
100
AcDbEntity
  8
LAY-20
  6
CONTINUOUS
 62
     7
100
AcDbLine
 10
1455.499999999996
 20
2195.398484809807
 30
0.0
 11
1455.499999999996
 21
2185.398484809808
 31
0.0
  0
LINE
  5
502
330
1F
100
AcDbEntity
  8
LAY-20
  6
CONTINUOUS
 62
     7
100
AcDbLine
 10
1461.499999999996
 20
2160.398484809809
 30
0.0
 11
1461.499999999996
 21
2165.398484809807
 31
0.0
  0
LINE
  5
503
330
1F
100
AcDbEntity
  8
LAY-20
  6
CONTINUOUS
 62
     7
100
AcDbLine
 10
1471.199999999997
 20
2165.398484809807
 30
0.0
 11
1445.499999999996
 21
2165.398484809807
 31
0.0
  0
LINE
  5
504
330
1F
100
AcDbEntity
  8
LAY-20
  6
CONTINUOUS
 62
     7
100
AcDbLine
 10
1445.499999999996
 20
2185.398484809808
 30
0.0
 11
1445.499999999996
 21
2165.398484809807
 31
0.0
  0
LINE
  5
505
330
1F
100
AcDbEntity
  8
LAY-20
  6
CONTINUOUS
 62
     7
100
AcDbLine
 10
1471.199999999997
 20
2185.398484809808
 30
0.0
 11
1445.499999999996
 21
2185.398484809808
 31
0.0
  0
LINE
  5
506
330
1F
100
AcDbEntity
  8
LAY-20
  6
CONTINUOUS
 62
     7
100
AcDbLine
 10
1461.499999999996
 20
2195.398484809807
 30
0.0
 11
1455.499999999996
 21
2195.398484809807
 31
0.0
  0
LINE
  5
507
330
1F
100
AcDbEntity
  8
LAY-20
  6
CONTINUOUS
 62
     7
100
AcDbLine
 10
1462.499999999996
 20
2165.398484809807
 30
0.0
 11
1462.499999999996
 21
2185.398484809808
 31
0.0
  0
LINE
  5
508
330
1F
100
AcDbEntity
  8
LAY-20
  6
CONTINUOUS
 62
     7
100
AcDbLine
 10
1462.499999999996
 20
2055.398484809807
 30
0.0
 11
1462.499999999996
 21
2035.398484809806
 31
0.0
  0
LINE
  5
509
330
1F
100
AcDbEntity
  8
LAY-20
  6
CONTINUOUS
 62
     7
100
AcDbLine
 10
1454.499999999996
 20
2035.398484809806
 30
0.0
 11
1454.499999999996
 21
2055.398484809807
 31
0.0
  0
LINE
  5
50A
330
1F
100
AcDbEntity
  8
LAY-20
  6
CONTINUOUS
 62
     7
100
AcDbLine
 10
1454.499999999996
 20
2165.398484809807
 30
0.0
 11
1454.499999999996
 21
2185.398484809808
 31
0.0
  0
LINE
  5
50B
330
1F
100
AcDbEntity
  8
LAY-20
  6
CONTINUOUS
 62
     7
100
AcDbLine
 10
1471.199999999997
 20
2165.398484809807
 30
0.0
 11
1471.199999999997
 21
2185.398484809808
 31
0.0
  0
LINE
  5
50C
330
1F
100
AcDbEntity
  8
LAY-20
  6
CONTINUOUS
 62
     7
100
AcDbLine
 10
1455.499999999996
 20
2055.398484809807
 30
0.0
 11
1455.499999999996
 21
2060.398484809809
 31
0.0
  0
LINE
  5
50D
330
1F
100
AcDbEntity
  8
LAY-20
  6
CONTINUOUS
 62
     7
100
AcDbLine
 10
1461.499999999996
 20
2035.398484809806
 30
0.0
 11
1461.499999999996
 21
2025.398484809809
 31
0.0
  0
LINE
  5
50E
330
1F
100
AcDbEntity
  8
LAY-20
  6
CONTINUOUS
 62
     7
100
AcDbLine
 10
1455.499999999996
 20
2165.398484809807
 30
0.0
 11
1455.499999999996
 21
2160.398484809809
 31
0.0
  0
LINE
  5
50F
330
1F
100
AcDbEntity
  8
LAY-20
  6
CONTINUOUS
 62
     7
100
AcDbLine
 10
1417.499999999996
 20
2154.398484809836
 30
0.0
 11
1417.499999999996
 21
2066.398484809805
 31
0.0
  0
LINE
  5
510
330
1F
100
AcDbEntity
  8
LAY-20
  6
CONTINUOUS
 62
     7
100
AcDbLine
 10
1411.499999999998
 20
2154.398484809836
 30
0.0
 11
1411.499999999998
 21
2066.398484809805
 31
0.0
  0
LINE
  5
511
330
1F
100
AcDbEntity
  8
LAY-20
  6
CONTINUOUS
 62
     7
100
AcDbLine
 10
1461.499999999996
 20
2185.398484809808
 30
0.0
 11
1461.499999999996
 21
2195.398484809806
 31
0.0
  0
LINE
  5
512
330
1F
100
AcDbEntity
  8
LAY-20
  6
CONTINUOUS
 62
     7
100
AcDbLine
 10
1461.499999999996
 20
2025.398484809809
 30
0.0
 11
1455.499999999996
 21
2025.398484809809
 31
0.0
  0
LINE
  5
513
330
1F
100
AcDbEntity
  8
LAY-20
  6
CONTINUOUS
 62
     7
100
AcDbLine
 10
1455.499999999996
 20
1673.398484809663
 30
0.0
 11
1417.499999999996
 21
1673.398484809665
 31
0.0
  0
LINE
  5
514
330
1F
100
AcDbEntity
  8
LAY-20
  6
CONTINUOUS
 62
     7
100
AcDbLine
 10
1445.499999999996
 20
1698.398484809666
 30
0.0
 11
1445.499999999996
 21
1678.398484809665
 31
0.0
  0
LINE
  5
515
330
1F
100
AcDbEntity
  8
LAY-20
  6
CONTINUOUS
 62
     7
100
AcDbLine
 10
1471.199999999997
 20
1698.398484809666
 30
0.0
 11
1445.499999999996
 21
1698.398484809666
 31
0.0
  0
LINE
  5
516
330
1F
100
AcDbEntity
  8
LAY-20
  6
CONTINUOUS
 62
     7
100
AcDbLine
 10
1455.499999999996
 20
1708.398484809663
 30
0.0
 11
1455.499999999996
 21
1698.398484809666
 31
0.0
  0
LINE
  5
517
330
1F
100
AcDbEntity
  8
LAY-20
  6
CONTINUOUS
 62
     7
100
AcDbLine
 10
1471.199999999997
 20
1698.398484809666
 30
0.0
 11
1471.199999999997
 21
1678.398484809665
 31
0.0
  0
LINE
  5
518
330
1F
100
AcDbEntity
  8
LAY-20
  6
CONTINUOUS
 62
     7
100
AcDbLine
 10
1471.199999999997
 20
1678.398484809665
 30
0.0
 11
1445.499999999996
 21
1678.398484809665
 31
0.0
  0
LINE
  5
519
330
1F
100
AcDbEntity
  8
LAY-20
  6
CONTINUOUS
 62
     7
100
AcDbLine
 10
1461.499999999996
 20
1673.398484809663
 30
0.0
 11
1461.499999999996
 21
1678.398484809665
 31
0.0
  0
ARC
  5
51A
330
1F
100
AcDbEntity
  8
LAY-20
  6
CONTINUOUS
 62
     7
100
AcDbCircle
 10
1455.499999999996
 20
1673.398484809663
 30
0.0
 40
6.000000000000005
100
AcDbArc
 50
270.0
 51
0.0
  0
LINE
  5
51B
330
1F
100
AcDbEntity
  8
LAY-20
  6
CONTINUOUS
 62
     7
100
AcDbLine
 10
1455.499999999996
 20
1667.398484809667
 30
0.0
 11
1417.499999999996
 21
1667.398484809667
 31
0.0
  0
ARC
  5
51C
330
1F
100
AcDbEntity
  8
LAY-20
  6
CONTINUOUS
 62
     7
100
AcDbCircle
 10
1417.499999999996
 20
1667.398484809667
 30
0.0
 40
6.000000000000005
100
AcDbArc
 50
90.00000000000001
 51
180.0
  0
LINE
  5
51D
330
1F
100
AcDbEntity
  8
LAY-20
  6
CONTINUOUS
 62
     7
100
AcDbLine
 10
1455.499999999996
 20
1579.398484809664
 30
0.0
 11
1417.499999999996
 21
1579.398484809665
 31
0.0
  0
LINE
  5
51E
330
1F
100
AcDbEntity
  8
LAY-20
  6
CONTINUOUS
 62
     7
100
AcDbLine
 10
1455.499999999996
 20
1573.398484809663
 30
0.0
 11
1417.499999999996
 21
1573.398484809665
 31
0.0
  0
ARC
  5
51F
330
1F
100
AcDbEntity
  8
LAY-20
  6
CONTINUOUS
 62
     7
100
AcDbCircle
 10
1417.499999999996
 20
1579.398484809665
 30
0.0
 40
6.000000000000005
100
AcDbArc
 50
180.0
 51
270.0
  0
ARC
  5
520
330
1F
100
AcDbEntity
  8
LAY-20
  6
CONTINUOUS
 62
     7
100
AcDbCircle
 10
1455.499999999996
 20
1573.398484809663
 30
0.0
 40
6.000000000000005
100
AcDbArc
 50
0.0
 51
90.00000000000001
  0
LINE
  5
521
330
1F
100
AcDbEntity
  8
LAY-20
  6
CONTINUOUS
 62
     7
100
AcDbLine
 10
1455.499999999996
 20
1538.398484809665
 30
0.0
 11
1455.499999999996
 21
1548.398484809665
 31
0.0
  0
LINE
  5
522
330
1F
100
AcDbEntity
  8
LAY-20
  6
CONTINUOUS
 62
     7
100
AcDbLine
 10
1461.499999999996
 20
1573.398484809663
 30
0.0
 11
1461.499999999996
 21
1568.398484809665
 31
0.0
  0
LINE
  5
523
330
1F
100
AcDbEntity
  8
LAY-20
  6
CONTINUOUS
 62
     7
100
AcDbLine
 10
1471.199999999997
 20
1568.398484809665
 30
0.0
 11
1445.499999999996
 21
1568.398484809665
 31
0.0
  0
LINE
  5
524
330
1F
100
AcDbEntity
  8
LAY-20
  6
CONTINUOUS
 62
     7
100
AcDbLine
 10
1445.499999999996
 20
1548.398484809665
 30
0.0
 11
1445.499999999996
 21
1568.398484809665
 31
0.0
  0
LINE
  5
525
330
1F
100
AcDbEntity
  8
LAY-20
  6
CONTINUOUS
 62
     7
100
AcDbLine
 10
1471.199999999997
 20
1548.398484809665
 30
0.0
 11
1445.499999999996
 21
1548.398484809665
 31
0.0
  0
LINE
  5
526
330
1F
100
AcDbEntity
  8
LAY-20
  6
CONTINUOUS
 62
     7
100
AcDbLine
 10
1461.499999999996
 20
1538.398484809665
 30
0.0
 11
1455.499999999996
 21
1538.398484809665
 31
0.0
  0
LINE
  5
527
330
1F
100
AcDbEntity
  8
LAY-20
  6
CONTINUOUS
 62
     7
100
AcDbLine
 10
1462.499999999996
 20
1568.398484809665
 30
0.0
 11
1462.499999999996
 21
1548.398484809665
 31
0.0
  0
LINE
  5
528
330
1F
100
AcDbEntity
  8
LAY-20
  6
CONTINUOUS
 62
     7
100
AcDbLine
 10
1462.499999999996
 20
1678.398484809665
 30
0.0
 11
1462.499999999996
 21
1698.398484809666
 31
0.0
  0
LINE
  5
529
330
1F
100
AcDbEntity
  8
LAY-20
  6
CONTINUOUS
 62
     7
100
AcDbLine
 10
1454.499999999996
 20
1698.398484809666
 30
0.0
 11
1454.499999999996
 21
1678.398484809665
 31
0.0
  0
LINE
  5
52A
330
1F
100
AcDbEntity
  8
LAY-20
  6
CONTINUOUS
 62
     7
100
AcDbLine
 10
1454.499999999996
 20
1568.398484809665
 30
0.0
 11
1454.499999999996
 21
1548.398484809665
 31
0.0
  0
LINE
  5
52B
330
1F
100
AcDbEntity
  8
LAY-20
  6
CONTINUOUS
 62
     7
100
AcDbLine
 10
1471.199999999997
 20
1568.398484809665
 30
0.0
 11
1471.199999999997
 21
1548.398484809665
 31
0.0
  0
LINE
  5
52C
330
1F
100
AcDbEntity
  8
LAY-20
  6
CONTINUOUS
 62
     7
100
AcDbLine
 10
1455.499999999996
 20
1678.398484809665
 30
0.0
 11
1455.499999999996
 21
1673.398484809663
 31
0.0
  0
LINE
  5
52D
330
1F
100
AcDbEntity
  8
LAY-20
  6
CONTINUOUS
 62
     7
100
AcDbLine
 10
1461.499999999996
 20
1698.398484809666
 30
0.0
 11
1461.499999999996
 21
1708.398484809663
 31
0.0
  0
LINE
  5
52E
330
1F
100
AcDbEntity
  8
LAY-20
  6
CONTINUOUS
 62
     7
100
AcDbLine
 10
1455.499999999996
 20
1568.398484809665
 30
0.0
 11
1455.499999999996
 21
1573.398484809663
 31
0.0
  0
LINE
  5
52F
330
1F
100
AcDbEntity
  8
LAY-20
  6
CONTINUOUS
 62
     7
100
AcDbLine
 10
1417.499999999996
 20
1579.398484809637
 30
0.0
 11
1417.499999999996
 21
1667.398484809667
 31
0.0
  0
LINE
  5
530
330
1F
100
AcDbEntity
  8
LAY-20
  6
CONTINUOUS
 62
     7
100
AcDbLine
 10
1411.499999999998
 20
1579.398484809637
 30
0.0
 11
1411.499999999998
 21
1667.398484809667
 31
0.0
  0
LINE
  5
531
330
1F
100
AcDbEntity
  8
LAY-20
  6
CONTINUOUS
 62
     7
100
AcDbLine
 10
1461.499999999996
 20
1548.398484809665
 30
0.0
 11
1461.499999999996
 21
1538.398484809667
 31
0.0
  0
LINE
  5
532
330
1F
100
AcDbEntity
  8
LAY-20
  6
CONTINUOUS
 62
     7
100
AcDbLine
 10
1461.499999999996
 20
1708.398484809663
 30
0.0
 11
1455.499999999996
 21
1708.398484809663
 31
0.0
  0
LINE
  5
533
330
1F
100
AcDbEntity
  8
LAY-20
  6
CONTINUOUS
 62
     7
100
AcDbLine
 10
1107.500000000038
 20
2392.898484809669
 30
0.0
 11
1357.734262169147
 21
2392.898484809667
 31
0.0
  0
LINE
  5
534
330
1F
100
AcDbEntity
  8
LAY-20
  6
CONTINUOUS
 62
     7
100
AcDbLine
 10
1593.50000000003
 20
2353.898484809737
 30
0.0
 11
1339.106626761199
 21
2353.898484809736
 31
0.0
  0
LINE
  5
535
330
1F
100
AcDbEntity
  8
LAY-20
  6
CONTINUOUS
 62
     7
100
AcDbLine
 10
1596.50000000003
 20
2356.898484809737
 30
0.0
 11
1340.539521792582
 21
2356.898484809735
 31
0.0
  0
LINE
  5
536
330
1F
100
AcDbEntity
  8
LAY-20
  6
CONTINUOUS
 62
     7
100
AcDbLine
 10
1107.500000000038
 20
1868.992148291288
 30
0.0
 11
1107.500000000038
 21
2392.898484809669
 31
0.0
  0
LINE
  5
537
330
1F
100
AcDbEntity
  8
LAY-20
  6
CONTINUOUS
 62
     7
100
AcDbLine
 10
1105.500000000037
 20
1864.804821328329
 30
0.0
 11
1105.500000000037
 21
2392.898484809669
 31
0.0
  0
LINE
  5
538
330
1F
100
AcDbEntity
  8
LAY-20
  6
CONTINUOUS
 62
     7
100
AcDbLine
 10
1593.50000000003
 20
1379.898484809735
 30
0.0
 11
873.8933732388069
 21
1379.898484809737
 31
0.0
  0
LINE
  5
539
330
1F
100
AcDbEntity
  8
LAY-20
  6
CONTINUOUS
 62
     7
100
AcDbLine
 10
1596.50000000003
 20
1376.898484809735
 30
0.0
 11
872.4604782074244
 21
1376.898484809738
 31
0.0
  0
LINE
  5
53A
330
1F
100
AcDbEntity
  8
LAY-20
  6
CONTINUOUS
 62
     7
100
AcDbLine
 10
854.7881061536981
 20
1339.898484809736
 30
0.0
 11
1358.21189384629
 21
2393.8984848097
 31
0.0
  0
LINE
  5
53B
330
1F
100
AcDbEntity
  8
LAY-20
  6
CONTINUOUS
 62
     7
100
AcDbLine
 10
617.5000000000367
 20
1340.898484809667
 30
0.0
 11
855.2657378308023
 21
1340.898484809687
 31
0.0
  0
LINE
  5
53C
330
1F
100
AcDbEntity
  8
LAY-20
  6
CENTER
 62
     2
100
AcDbLine
 10
601.5000000001022
 20
1616.898484809805
 30
0.0
 11
559.7000000001029
 21
1616.898484809805
 31
0.0
  0
LINE
  5
53D
330
1F
100
AcDbEntity
  8
LAY-20
  6
CENTER
 62
     2
100
AcDbLine
 10
601.5000000001022
 20
2116.898484809668
 30
0.0
 11
559.7000000001029
 21
2116.898484809668
 31
0.0
  0
LINE
  5
53E
330
1F
100
AcDbEntity
  8
LAY-20
  6
CENTER
 62
     2
100
AcDbLine
 10
1611.499999999897
 20
1616.898484809805
 30
0.0
 11
1653.299999999896
 21
1616.898484809805
 31
0.0
  0
LINE
  5
53F
330
1F
100
AcDbEntity
  8
LAY-20
  6
CENTER
 62
     2
100
AcDbLine
 10
1611.499999999897
 20
2116.898484809668
 30
0.0
 11
1653.299999999896
 21
2116.898484809668
 31
0.0
  0
LINE
  5
540
330
1F
100
AcDbEntity
  8
LAY-20
  6
CENTER
 62
     2
100
AcDbLine
 10
1106.5
 20
1280.999999999887
 30
0.0
 11
1106.5
 21
2452.796969619588
 31
0.0
  0
LINE
  5
541
330
1F
100
AcDbEntity
  8
LAY-20
  6
CENTER
 62
     2
100
AcDbLine
 10
557.6015151901496
 20
1866.898484809736
 30
0.0
 11
1655.398484809949
 21
1866.898484809736
 31
0.0
  0
LINE
  5
542
330
1F
100
AcDbEntity
  8
LAY-20
  6
CENTER
 62
     2
100
AcDbLine
 10
1594.900000000029
 20
1391.898484809683
 30
0.0
 11
1566.500000000029
 21
1391.898484809683
 31
0.0
  0
LINE
  5
543
330
1F
100
AcDbEntity
  8
LAY-20
  6
CENTER
 62
     2
100
AcDbLine
 10
1581.500000000028
 20
1376.898484809683
 30
0.0
 11
1581.500000000029
 21
1408.898484809682
 31
0.0
  0
LINE
  5
544
330
1F
100
AcDbEntity
  8
LAY-20
  6
CENTER
 62
     2
100
AcDbLine
 10
1594.900000000029
 20
2341.898484809789
 30
0.0
 11
1566.500000000029
 21
2341.898484809789
 31
0.0
  0
LINE
  5
545
330
1F
100
AcDbEntity
  8
LAY-20
  6
CENTER
 62
     2
100
AcDbLine
 10
1581.500000000027
 20
2356.898484809789
 30
0.0
 11
1581.500000000029
 21
2324.89848480979
 31
0.0
  0
LINE
  5
546
330
1F
100
AcDbEntity
  8
LAY-20
  6
CENTER
 62
     2
100
AcDbLine
 10
1581.500000000027
 20
1881.898484809739
 30
0.0
 11
1581.500000000029
 21
1849.89848480974
 31
0.0
  0
LINE
  5
547
330
1F
100
AcDbEntity
  8
LAY-20
  6
CENTER
 62
     2
100
AcDbLine
 10
1119.899999999998
 20
1391.898484809683
 30
0.0
 11
1091.499999999999
 21
1391.898484809683
 31
0.0
  0
LINE
  5
548
330
1F
100
AcDbEntity
  8
LAY-20
  6
CENTER
 62
     2
100
AcDbLine
 10
1356.499999999982
 20
2408.898484809624
 30
0.0
 11
1356.499999999982
 21
2450.698484809624
 31
0.0
  0
LINE
  5
549
330
1F
100
AcDbEntity
  8
LAY-20
  6
CENTER
 62
     2
100
AcDbLine
 10
856.5000000000168
 20
2408.898484809624
 30
0.0
 11
856.5000000000168
 21
2450.698484809624
 31
0.0
  0
LINE
  5
54A
330
1F
100
AcDbEntity
  8
LAY-20
  6
CENTER
 62
     2
100
AcDbLine
 10
1356.499999999982
 20
1324.898484809848
 30
0.0
 11
1356.499999999982
 21
1283.098484809849
 31
0.0
  0
LINE
  5
54B
330
1F
100
AcDbEntity
  8
LAY-20
  6
CENTER
 62
     2
100
AcDbLine
 10
856.5000000000168
 20
1324.898484809848
 30
0.0
 11
856.5000000000168
 21
1283.098484809849
 31
0.0
  0
LINE
  5
54C
330
1F
100
AcDbEntity
  8
LAY-20
  6
CENTER
 62
     2
100
AcDbLine
 10
1006.500000000049
 20
1373.752801580287
 30
0.0
 11
1006.500000000049
 21
1331.952801580288
 31
0.0
  0
LINE
  5
54D
330
1F
100
AcDbEntity
  8
LAY-255
  6
CONTINUOUS
 62
     7
100
AcDbLine
 10
3850.0
 20
219.9999999999999
 30
0.0
 11
2850.0
 21
219.9999999999999
 31
0.0
  0
LINE
  5
54E
330
1F
100
AcDbEntity
  8
LAY-255
  6
CONTINUOUS
 62
     7
100
AcDbLine
 10
2888.0
 20
160.0
 30
0.0
 11
2968.0
 21
210.0
 31
0.0
  0
LINE
  5
54F
330
1F
100
AcDbEntity
  8
LAY-255
  6
CONTINUOUS
 62
     7
100
AcDbLine
 10
2968.0
 20
210.0
 30
0.0
 11
3048.0
 21
160.0
 31
0.0
  0
LINE
  5
550
330
1F
100
AcDbEntity
  8
LAY-255
  6
CONTINUOUS
 62
     7
100
AcDbLine
 10
3048.0
 20
160.0
 30
0.0
 11
2968.0
 21
110.0
 31
0.0
  0
LINE
  5
551
330
1F
100
AcDbEntity
  8
LAY-255
  6
CONTINUOUS
 62
     7
100
AcDbLine
 10
2968.0
 20
110.0
 30
0.0
 11
2888.0
 21
160.0
 31
0.0
  0
LINE
  5
552
330
1F
100
AcDbEntity
  8
LAY-255
  6
CONTINUOUS
 62
     7
100
AcDbLine
 10
50.0
 20
100.0
 30
0.0
 11
3850.0
 21
100.0
 31
0.0
  0
LINE
  5
553
330
1F
100
AcDbEntity
  8
LAY-255
  6
CONTINUOUS
 62
     7
100
AcDbLine
 10
50.0
 20
2800.0
 30
0.0
 11
3850.0
 21
2800.0
 31
0.0
  0
LINE
  5
554
330
1F
100
AcDbEntity
  8
LAY-255
  6
CONTINUOUS
 62
     7
100
AcDbLine
 10
50.0
 20
100.0
 30
0.0
 11
50.0
 21
2800.0
 31
0.0
  0
LINE
  5
555
330
1F
100
AcDbEntity
  8
LAY-255
  6
CONTINUOUS
 62
     7
100
AcDbLine
 10
3850.0
 20
100.0
 30
0.0
 11
3850.0
 21
2800.0
 31
0.0
  0
LINE
  5
556
330
1F
100
AcDbEntity
  8
LAY-255
  6
CONTINUOUS
 62
     4
100
AcDbLine
 10
2850.0
 20
279.9999999999999
 30
0.0
 11
3850.0
 21
279.9999999999999
 31
0.0
  0
LINE
  5
557
330
1F
100
AcDbEntity
  8
LAY-255
  6
CONTINUOUS
 62
     7
100
AcDbLine
 10
2850.0
 20
100.0
 30
0.0
 11
2850.0
 21
670.0
 31
0.0
  0
POINT
  5
558
330
1F
100
AcDbEntity
  8
LAY-255
  6
CONTINUOUS
 62
     7
100
AcDbPoint
 10
2890.0
 20
399.9999999999999
 30
0.0
  0
LINE
  5
559
330
1F
100
AcDbEntity
  8
LAY-255
  6
CONTINUOUS
 62
     4
100
AcDbLine
 10
3350.0
 20
279.9999999999999
 30
0.0
 11
3350.0
 21
220.0
 31
0.0
  0
LINE
  5
55A
330
1F
100
AcDbEntity
  8
LAY-255
  6
CONTINUOUS
 62
     7
100
AcDbLine
 10
3850.0
 20
670.0
 30
0.0
 11
2850.0
 21
670.0
 31
0.0
  0
LINE
  5
55B
330
1F
100
AcDbEntity
  8
LAY-255
  6
CONTINUOUS
 62
     4
100
AcDbLine
 10
3830.0
 20
549.9999999999999
 30
0.0
 11
2870.0
 21
549.9999999999999
 31
0.0
  0
LINE
  5
55C
330
1F
100
AcDbEntity
  8
LAY-255
  6
CONTINUOUS
 62
     4
100
AcDbLine
 10
3830.0
 20
610.0
 30
0.0
 11
2870.0
 21
610.0
 31
0.0
  0
POINT
  5
55D
330
1F
100
AcDbEntity
  8
LAY-255
  6
CONTINUOUS
 62
     7
100
AcDbPoint
 10
2890.0
 20
499.9999999999999
 30
0.0
  0
POINT
  5
55E
330
1F
100
AcDbEntity
  8
LAY-255
  6
CONTINUOUS
 62
     7
100
AcDbPoint
 10
3000.0
 20
559.9999999999999
 30
0.0
  0
POINT
  5
55F
330
1F
100
AcDbEntity
  8
LAY-255
  6
CONTINUOUS
 62
     7
100
AcDbPoint
 10
3000.0
 20
620.0
 30
0.0
  0
POINT
  5
560
330
1F
100
AcDbEntity
  8
LAY-255
  6
CONTINUOUS
 62
     7
100
AcDbPoint
 10
2890.0
 20
349.9999999999999
 30
0.0
  0
POINT
  5
561
330
1F
100
AcDbEntity
  8
LAY-255
  6
CONTINUOUS
 62
     7
100
AcDbPoint
 10
2890.0
 20
449.9999999999999
 30
0.0
  0
POINT
  5
562
330
1F
100
AcDbEntity
  8
LAY-255
  6
CONTINUOUS
 62
     7
100
AcDbPoint
 10
2890.0
 20
299.9999999999998
 30
0.0
  0
TEXT
  5
563
330
1F
100
AcDbEntity
  8
LAY-255
  6
CONTINUOUS
 62
     7
100
AcDbText
 10
3081.3837890625
 20
155.4375
 30
0.0
 40
51.5625
  1
福西鋳物株式会社
 41
1.342691999659091
  7
EXCADSTD
100
AcDbText
  0
TEXT
  5
564
330
1F
100
AcDbEntity
  8
LAY-255
  6
CONTINUOUS
 62
     7
100
AcDbText
 10
3085.09375
 20
119.8125
 30
0.0
 40
17.1875
  1
ＦＵＫＵＮＩＳＨＩ
 41
1.204799226045263
  7
EXCADSTD
100
AcDbText
  0
TEXT
  5
565
330
1F
100
AcDbEntity
  8
LAY-255
  6
CONTINUOUS
 62
     7
100
AcDbText
 10
3327.191964285714
 20
119.8125
 30
0.0
 40
17.1875
  1
ＦＯＵＮＤＲＹ
 41
1.243252752978497
  7
EXCADSTD
100
AcDbText
  0
TEXT
  5
566
330
1F
100
AcDbEntity
  8
LAY-255
  6
CONTINUOUS
 62
     7
100
AcDbText
 10
3519.945914381009
 20
119.8125
 30
0.0
 40
17.1875
  1
ＣＯ.,ＬＴＤ.
 41
1.243831036226633
  7
EXCADSTD
100
AcDbText
  0
TEXT
  5
567
330
1F
100
AcDbEntity
  8
LAY-255
  6
CONTINUOUS
 62
     7
100
AcDbText
 10
2940.34375
 20
137.1875
 30
0.0
 40
51.5625
  1
S
 41
0.7582677563636363
  7
EXCADSTD
100
AcDbText
  0
TEXT
  5
568
330
1F
100
AcDbEntity
  8
LAY-255
  6
CONTINUOUS
 62
     7
100
AcDbText
 10
2971.046875
 20
137.4941037736
 30
0.0
 40
51.5625
  1
F
 41
0.7440945272727272
  7
EXCADSTD
100
AcDbText
  0
TEXT
  5
569
330
1F
100
AcDbEntity
  8
LAY-255
  6
CONTINUOUS
 62
     7
100
AcDbText
 10
3371.0546875
 20
244.2187499999999
 30
0.0
 40
25.78125
  1
縮尺
 41
1.080708718181818
  7
EXCADSTD
100
AcDbText
  0
TEXT
  5
56A
330
1F
100
AcDbEntity
  8
LAY-255
  6
CONTINUOUS
 62
     7
100
AcDbText
 10
2872.65625
 20
565.6249999999999
 30
0.0
 40
34.375
  1
型式
 41
1.056348480681818
  7
EXCADSTD
100
AcDbText
  0
TEXT
  5
56B
330
1F
100
AcDbEntity
  8
LAY-255
  6
CONTINUOUS
 62
     7
100
AcDbText
 10
2874.21875
 20
625.625
 30
0.0
 40
34.375
  1
品名
 41
0.9788386340909091
  7
EXCADSTD
100
AcDbText
  0
TEXT
  5
56C
330
1F
100
AcDbEntity
  8
LAY-255
  6
CONTINUOUS
 62
     7
100
AcDbText
 10
2871.5234375
 20
244.2187499999999
 30
0.0
 40
25.78125
  1
作成日
 41
1.000629973818182
  7
EXCADSTD
100
AcDbText
  0
TEXT
  5
56D
330
1F
100
AcDbEntity
  8
LAY-255
  6
CONTINUOUS
 62
     7
100
AcDbText
 10
2891.40625
 20
505.6249999999999
 30
0.0
 40
34.375
  1
材質：スチール
 41
1.029301719225037
  7
EXCADSTD
100
AcDbText
  0
TEXT
  5
56E
330
1F
100
AcDbEntity
  8
LAY-255
  6
CONTINUOUS
 62
     7
100
AcDbText
 10
3001.5625
 20
625.625
 30
0.0
 40
34.375
  1
縞鋼板製マシンハッチ
 41
1.016284949586777
  7
EXCADSTD
100
AcDbText
  0
TEXT
  5
56F
330
1F
100
AcDbEntity
  8
LAY-255
  6
CONTINUOUS
 62
     7
100
AcDbText
 10
2893.75
 20
455.6249999999999
 30
0.0
 40
34.375
  1
受枠目地：ステンレス鋼
 41
1.012216953889409
  7
EXCADSTD
100
AcDbText
  0
TEXT
  5
570
330
1F
100
AcDbEntity
  8
LAY-255
  6
CONTINUOUS
 62
     7
100
AcDbText
 10
3008.90625
 20
235.6249999999999
 30
0.0
 40
34.375
  1
０９／０３／１１
 41
0.9566929636363637
  7
EXCADSTD
100
AcDbText
  0
TEXT
  5
571
330
1F
100
AcDbEntity
  8
LAY-255
  6
CONTINUOUS
 62
     7
100
AcDbText
 10
2892.03125
 20
405.6249999999999
 30
0.0
 40
34.375
  1
適用荷重：Ｔ－６
 41
1.000225024415584
  7
EXCADSTD
100
AcDbText
  0
TEXT
  5
572
330
1F
100
AcDbEntity
  8
LAY-255
  6
CONTINUOUS
 62
     7
100
AcDbText
 10
3007.5
 20
565.6249999999999
 30
0.0
 40
34.375
  1
ＳＦ－９０ＣＭＰ－６型
 41
1.0041805868791
  7
EXCADSTD
100
AcDbText
  0
TEXT
  5
573
330
1F
100
AcDbEntity
  8
LAY-255
  6
CONTINUOUS
 62
     7
100
AcDbText
 10
3482.8125
 20
235.6249999999999
 30
0.0
 40
34.375
  1
１：１０
 41
0.9243863385026738
  7
EXCADSTD
100
AcDbText
  0
ENDSEC
  0
SECTION
  2
OBJECTS
  0
DICTIONARY
  5
C
330
0
100
AcDbDictionary
  3
ACAD_GROUP
350
D
  3
ACAD_LAYOUT
350
1A
  3
ACAD_MATERIAL
350
43
  3
ACAD_MLEADERSTYLE
350
6B
  3
ACAD_MLINESTYLE
350
17
  3
ACAD_PLOTSETTINGS
350
19
  3
ACAD_SCALELIST
350
47
  3
ACAD_VISUALSTYLE
350
2A
  3
ACDBHEADERROUNDTRIPXREC
350
574
  3
ACDBVARIABLEDICTIONARY
350
595
  0
DICTIONARY
  5
5A0
330
8
100
AcDbDictionary
280
     1
  3
ACAD_XREC_ROUNDTRIP
360
5A1
  0
DICTIONARY
  5
D
102
{ACAD_REACTORS
330
C
102
}
330
C
100
AcDbDictionary
  0
DICTIONARY
  5
1A
102
{ACAD_REACTORS
330
C
102
}
330
C
100
AcDbDictionary
  0
DICTIONARY
  5
43
102
{ACAD_REACTORS
330
C
102
}
330
C
100
AcDbDictionary
  3
BYBLOCK
350
45
  3
BYLAYER
350
44
  3
GLOBAL
350
46
  0
DICTIONARY
  5
6B
102
{ACAD_REACTORS
330
C
102
}
330
C
100
AcDbDictionary
  3
STANDARD
350
6C
  0
DICTIONARY
  5
17
102
{ACAD_REACTORS
330
C
102
}
330
C
100
AcDbDictionary
  3
STANDARD
350
18
  0
DICTIONARY
  5
19
102
{ACAD_REACTORS
330
C
102
}
330
C
100
AcDbDictionary
  0
DICTIONARY
  5
47
102
{ACAD_REACTORS
330
C
102
}
330
C
100
AcDbDictionary
  3
A0
350
48
  3
A1
350
49
  3
A2
350
4A
  3
A3
350
4B
  3
A4
350
4C
  3
A5
350
4D
  3
A6
350
4E
  3
A7
350
4F
  3
A8
350
50
  3
A9
350
51
  3
B0
350
52
  3
B1
350
53
  3
B2
350
54
  3
B3
350
55
  3
B4
350
56
  3
B5
350
57
  3
B6
350
58
  3
B7
350
59
  3
B8
350
5A
  3
B9
350
5B
  3
C0
350
5C
  3
C1
350
5D
  3
C2
350
5E
  3
C3
350
5F
  3
C4
350
60
  3
C5
350
61
  3
C6
350
62
  3
C7
350
63
  3
C8
350
64
  3
C9
350
65
  3
D0
350
66
  3
D1
350
67
  3
D2
350
68
  0
DICTIONARY
  5
2A
102
{ACAD_REACTORS
330
C
102
}
330
C
100
AcDbDictionary
  3
2DWIREFRAME
350
2F
  3
BASIC
350
32
  3
BRIGHTEN
350
36
  3
COLORCHANGE
350
3A
  3
CONCEPTUAL
350
34
  3
DIM
350
35
  3
EDGECOLOROFF
350
3D
  3
FACEPATTERN
350
39
  3
FLAT
350
2B
  3
FLATWITHEDGES
350
2C
  3
GOURAUD
350
2D
  3
GOURAUDWITHEDGES
350
2E
  3
HIDDEN
350
31
  3
JITTEROFF
350
3B
  3
LINEPATTERN
350
38
  3
OVERHANGOFF
350
3C
  3
REALISTIC
350
33
  3
SHADED
350
42
  3
SHADED_WITH_EDGES
350
41
  3
SHADES_OF_GRAY
350
3E
  3
SKETCHY
350
3F
  3
THICKEN
350
37
  3
WIREFRAME
350
30
  3
X-RAY
350
40
  0
DICTIONARY
  5
574
102
{ACAD_REACTORS
330
C
102
}
330
C
100
AcDbDictionary
  3
CEPSNID
350
57E
  3
CEPSNTYPE
350
57D
  3
DIMSTYLEDATA
350
594
  3
FINGERPRINTGUID
350
57F
  3
HYPERLINKBASE
350
577
  3
INSUNITS
350
57C
  3
LAYOUTDICT
350
579
  3
LWETCUNION
350
57B
  3
PLOTSETDICT
350
57A
  3
PSVPSCALE
350
581
  3
PUCSBASE
350
584
  3
PUCSORGBACK
350
58A
  3
PUCSORGBOTTOM
350
586
  3
PUCSORGFRONT
350
589
  3
PUCSORGLEFT
350
587
  3
PUCSORGRIGHT
350
588
  3
PUCSORGTOP
350
585
  3
PUCSORTHOREF
350
582
  3
PUCSORTHOVIEW
350
583
  3
STYLESHEET
350
578
  3
TSTACKALIGN
350
575
  3
TSTACKSIZE
350
576
  3
UCSBASE
350
58D
  3
UCSORGBACK
350
593
  3
UCSORGBOTTOM
350
58F
  3
UCSORGFRONT
350
592
  3
UCSORGLEFT
350
590
  3
UCSORGRIGHT
350
591
  3
UCSORGTOP
350
58E
  3
UCSORTHOREF
350
58B
  3
UCSORTHOVIEW
350
58C
  3
VERSIONGUID
350
580
  0
DICTIONARY
  5
595
102
{ACAD_REACTORS
330
C
102
}
330
C
100
AcDbDictionary
  3
CANNOSCALE
350
5A2
  3
CENTEREXE
350
59C
  3
CENTERLTYPEFILE
350
59D
  3
CMLEADERSTYLE
350
597
  3
CTABLESTYLE
350
596
  3
DIMASSOC
350
59E
  3
HIDETEXT
350
59F
  3
MSLTSCALE
350
5A3
  3
PSOLHEIGHT
350
599
  3
PSOLWIDTH
350
598
  0
XRECORD
  5
5A1
102
{ACAD_REACTORS
330
5A0
102
}
330
5A0
100
AcDbXrecord
102
VTR_0.000_0.000_1.000_1.000_VISUALSTYLE
340
2F
102
VTR_0.000_0.000_1.000_1.000_GRIDDISPLAY
 70
     3
102
VTR_0.000_0.000_1.000_1.000_GRIDMAJOR
 70
     5
102
VTR_0.000_0.000_1.000_1.000_DEFAULTLIGHTING
280
     1
102
VTR_0.000_0.000_1.000_1.000_DEFAULTLIGHTINGTYPE
 70
     1
102
VTR_0.000_0.000_1.000_1.000_BRIGHTNESS
141
0.0
102
VTR_0.000_0.000_1.000_1.000_CONTRAST
142
0.0
  0
MATERIAL
  5
45
102
{ACAD_REACTORS
330
43
102
}
102
{ACAD_XDICTIONARY
360
5A6
102
}
330
43
100
AcDbMaterial
  1
BYBLOCK
  0
MATERIAL
  5
44
102
{ACAD_REACTORS
330
43
102
}
102
{ACAD_XDICTIONARY
360
5A4
102
}
330
43
100
AcDbMaterial
  1
BYLAYER
  0
MATERIAL
  5
46
102
{ACAD_REACTORS
330
43
102
}
102
{ACAD_XDICTIONARY
360
5A8
102
}
330
43
100
AcDbMaterial
  1
GLOBAL
  0
ACAD_PROXY_OBJECT
  5
6C
102
{ACAD_REACTORS
330
6B
102
}
330
6B
100
AcDbProxyObject
 90
      499
 91
      505
 93
      610
310
40901902A4063FBFFFFFE0000000000000020400000000000020404214DD185B99185C990000000000000104090141901A00000000000004100000000000000041025764000000000000039000
340
14
340
0
340
11
340
0
 94
        0
1001
ACAD_MLEADERVER
1070
     2
  0
MLINESTYLE
  5
18
102
{ACAD_REACTORS
330
17
102
}
330
17
100
AcDbMlineStyle
  2
Standard
 70
     0
  3

 62
   256
 51
90.0
 52
90.0
 71
     2
 49
0.5
 62
   256
  6
BYLAYER
 49
-0.5
 62
   256
  6
BYLAYER
  0
ACAD_PROXY_OBJECT
  5
48
102
{ACAD_REACTORS
330
47
102
}
330
47
100
AcDbProxyObject
 90
      499
 91
      503
 93
       41
310
903313A31580
  0
ACAD_PROXY_OBJECT
  5
49
102
{ACAD_REACTORS
330
47
102
}
330
47
100
AcDbProxyObject
 90
      499
 91
      503
 93
      105
310
903313A324000000000000004000
  0
ACAD_PROXY_OBJECT
  5
4A
102
{ACAD_REACTORS
330
47
102
}
330
47
100
AcDbProxyObject
 90
      499
 91
      503
 93
      105
310
903313A344000000000000104000
  0
ACAD_PROXY_OBJECT
  5
4B
102
{ACAD_REACTORS
330
47
102
}
330
47
100
AcDbProxyObject
 90
      499
 91
      503
 93
      105
310
903313A354000000000000144000
  0
ACAD_PROXY_OBJECT
  5
4C
102
{ACAD_REACTORS
330
47
102
}
330
47
100
AcDbProxyObject
 90
      499
 91
      503
 93
      105
310
903313A384000000000000204000
  0
ACAD_PROXY_OBJECT
  5
4D
102
{ACAD_REACTORS
330
47
102
}
330
47
100
AcDbProxyObject
 90
      499
 91
      503
 93
      113
310
904313A31304000000000000244000
  0
ACAD_PROXY_OBJECT
  5
4E
102
{ACAD_REACTORS
330
47
102
}
330
47
100
AcDbProxyObject
 90
      499
 91
      503
 93
      113
310
904313A31364000000000000304000
  0
ACAD_PROXY_OBJECT
  5
4F
102
{ACAD_REACTORS
330
47
102
}
330
47
100
AcDbProxyObject
 90
      499
 91
      503
 93
      113
310
904313A32304000000000000344000
  0
ACAD_PROXY_OBJECT
  5
50
102
{ACAD_REACTORS
330
47
102
}
330
47
100
AcDbProxyObject
 90
      499
 91
      503
 93
      113
310
904313A333040000000000003E4000
  0
ACAD_PROXY_OBJECT
  5
51
102
{ACAD_REACTORS
330
47
102
}
330
47
100
AcDbProxyObject
 90
      499
 91
      503
 93
      113
310
904313A34304000000000000444000
  0
ACAD_PROXY_OBJECT
  5
52
102
{ACAD_REACTORS
330
47
102
}
330
47
100
AcDbProxyObject
 90
      499
 91
      503
 93
      113
310
904313A35304000000000000494000
  0
ACAD_PROXY_OBJECT
  5
53
102
{ACAD_REACTORS
330
47
102
}
330
47
100
AcDbProxyObject
 90
      499
 91
      503
 93
      121
310
905313A3130304000000000000594000
  0
ACAD_PROXY_OBJECT
  5
54
102
{ACAD_REACTORS
330
47
102
}
330
47
100
AcDbProxyObject
 90
      499
 91
      503
 93
      105
310
903323A310000000000000010100
  0
ACAD_PROXY_OBJECT
  5
55
102
{ACAD_REACTORS
330
47
102
}
330
47
100
AcDbProxyObject
 90
      499
 91
      503
 93
      105
310
903343A310000000000000410100
  0
ACAD_PROXY_OBJECT
  5
56
102
{ACAD_REACTORS
330
47
102
}
330
47
100
AcDbProxyObject
 90
      499
 91
      503
 93
      105
310
903383A310000000000000810100
  0
ACAD_PROXY_OBJECT
  5
57
102
{ACAD_REACTORS
330
47
102
}
330
47
100
AcDbProxyObject
 90
      499
 91
      503
 93
      113
310
90431303A310000000000000910100
  0
ACAD_PROXY_OBJECT
  5
58
102
{ACAD_REACTORS
330
47
102
}
330
47
100
AcDbProxyObject
 90
      499
 91
      503
 93
      121
310
9053130303A310000000000001650100
  0
ACAD_PROXY_OBJECT
  5
59
102
{ACAD_REACTORS
330
47
102
}
330
47
100
AcDbProxyObject
 90
      499
 91
      503
 93
      257
310
90E312F31323822203D2031272D3022000000000000200FC000000000000284000
  0
ACAD_PROXY_OBJECT
  5
5A
102
{ACAD_REACTORS
330
47
102
}
330
47
100
AcDbProxyObject
 90
      499
 91
      503
 93
      249
310
90D312F363422203D2031272D3022000000000000240FC000000000000284000
  0
ACAD_PROXY_OBJECT
  5
5B
102
{ACAD_REACTORS
330
47
102
}
330
47
100
AcDbProxyObject
 90
      499
 91
      503
 93
      249
310
90D312F333222203D2031272D3022000000000000280FC000000000000284000
  0
ACAD_PROXY_OBJECT
  5
5C
102
{ACAD_REACTORS
330
47
102
}
330
47
100
AcDbProxyObject
 90
      499
 91
      503
 93
      249
310
90D312F313622203D2031272D30220000000000002C0FC000000000000284000
  0
ACAD_PROXY_OBJECT
  5
5D
102
{ACAD_REACTORS
330
47
102
}
330
47
100
AcDbProxyObject
 90
      499
 91
      503
 93
      249
310
90D332F333222203D2031272D30220000000000002E0FC000000000000284000
  0
ACAD_PROXY_OBJECT
  5
5E
102
{ACAD_REACTORS
330
47
102
}
330
47
100
AcDbProxyObject
 90
      499
 91
      503
 93
      241
310
90C312F3822203D2031272D3022000000000000300FC000000000000284000
  0
ACAD_PROXY_OBJECT
  5
5F
102
{ACAD_REACTORS
330
47
102
}
330
47
100
AcDbProxyObject
 90
      499
 91
      503
 93
      249
310
90D332F313622203D2031272D3022000000000000320FC000000000000284000
  0
ACAD_PROXY_OBJECT
  5
60
102
{ACAD_REACTORS
330
47
102
}
330
47
100
AcDbProxyObject
 90
      499
 91
      503
 93
      241
310
90C312F3422203D2031272D3022000000000000340FC000000000000284000
  0
ACAD_PROXY_OBJECT
  5
61
102
{ACAD_REACTORS
330
47
102
}
330
47
100
AcDbProxyObject
 90
      499
 91
      503
 93
      241
310
90C332F3822203D2031272D3022000000000000360FC000000000000284000
  0
ACAD_PROXY_OBJECT
  5
62
102
{ACAD_REACTORS
330
47
102
}
330
47
100
AcDbProxyObject
 90
      499
 91
      503
 93
      241
310
90C312F3222203D2031272D3022000000000000380FC000000000000284000
  0
ACAD_PROXY_OBJECT
  5
63
102
{ACAD_REACTORS
330
47
102
}
330
47
100
AcDbProxyObject
 90
      499
 91
      503
 93
      241
310
90C332F3422203D2031272D30220000000000003A0FC000000000000284000
  0
ACAD_PROXY_OBJECT
  5
64
102
{ACAD_REACTORS
330
47
102
}
330
47
100
AcDbProxyObject
 90
      499
 91
      503
 93
      161
310
90A3122203D2031272D30224000000000000284000
  0
ACAD_PROXY_OBJECT
  5
65
102
{ACAD_REACTORS
330
47
102
}
330
47
100
AcDbProxyObject
 90
      499
 91
      503
 93
      257
310
90E312D312F3222203D2031272D30220000000000003E0FC000000000000284000
  0
ACAD_PROXY_OBJECT
  5
66
102
{ACAD_REACTORS
330
47
102
}
330
47
100
AcDbProxyObject
 90
      499
 91
      503
 93
      225
310
90A3322203D2031272D302200000000000002100000000000000284000
  0
ACAD_PROXY_OBJECT
  5
67
102
{ACAD_REACTORS
330
47
102
}
330
47
100
AcDbProxyObject
 90
      499
 91
      503
 93
      225
310
90A3622203D2031272D302200000000000006100000000000000284000
  0
ACAD_PROXY_OBJECT
  5
68
102
{ACAD_REACTORS
330
47
102
}
330
47
100
AcDbProxyObject
 90
      499
 91
      503
 93
      249
310
90D31272D3022203D2031272D30220000000000000A100000000000000284000
  0
ACAD_PROXY_OBJECT
  5
2F
102
{ACAD_REACTORS
330
2A
102
}
330
2A
100
AcDbProxyObject
 90
      499
 91
      501
 93
      436
310
42CC9915DA5C99599C985B595049028333333333333E33F0000000000000F90107901411070040501600405405064090741402480A0340
1001
ACAD
1000
AcDbSavedByObjectVersion
1070
     0
  0
ACAD_PROXY_OBJECT
  5
32
102
{ACAD_REACTORS
330
2A
102
}
330
2A
100
AcDbProxyObject
 90
      499
 91
      501
 93
      388
310
4150985CDA58D07406404333333333333E33F0000000000000F90107A41107004050150841D405064090741402480A0350
1001
ACAD
1000
AcDbSavedByObjectVersion
1070
     0
  0
ACAD_PROXY_OBJECT
  5
36
102
{ACAD_REACTORS
330
2A
102
}
330
2A
100
AcDbProxyObject
 90
      499
 91
      501
 93
      428
310
42109C9A59DA1D195B90C409028333333333333E33F0000000000000F9010790141107004050150841D405064090741402480A029950
1001
ACAD
1000
AcDbSavedByObjectVersion
1070
     0
  0
ACAD_PROXY_OBJECT
  5
3A
102
{ACAD_REACTORS
330
2A
102
}
330
2A
100
AcDbProxyObject
 90
      499
 91
      501
 93
      452
310
42D0DBDB1BDC90DA185B99D95104090240C333333333333E33F0000000000000F90108901411070040501508421405064090741402480A0350
1001
ACAD
1000
AcDbSavedByObjectVersion
1070
     0
  0
ACAD_PROXY_OBJECT
  5
34
102
{ACAD_REACTORS
330
2A
102
}
330
2A
100
AcDbProxyObject
 90
      499
 91
      501
 93
      500
310
4290DBDB98D95C1D1D585B10940D028333333333333E33F0000000000000F90107902409070040501000000000018199010841D405064090740C02480A0340
1001
ACAD
1000
AcDbSavedByObjectVersion
1070
     0
  0
ACAD_PROXY_OBJECT
  5
35
102
{ACAD_REACTORS
330
2A
102
}
330
2A
100
AcDbProxyObject
 90
      499
 91
      501
 93
      412
310
40D11A5B50B409028333333333333E33F0000000000000F9010790141107004050150841D405064090741402480A02677FFFFFD0
1001
ACAD
1000
AcDbSavedByObjectVersion
1070
     0
  0
ACAD_PROXY_OBJECT
  5
3D
102
{ACAD_REACTORS
330
2A
102
}
330
2A
100
AcDbProxyObject
 90
      499
 91
      501
 93
      452
310
43115919D950DBDB1BDC93D999916409028333333333333E33F0000000000000F9010790141107004050150841D405064090741402480A0350
1001
ACAD
1000
AcDbSavedByObjectVersion
1070
     0
  0
ACAD_PROXY_OBJECT
  5
39
102
{ACAD_REACTORS
330
2A
102
}
330
2A
100
AcDbProxyObject
 90
      499
 91
      501
 93
      444
310
42D19858D95C185D1D195C9B90F409028333333333333E33F0000000000000F9010790141107004050150841D405064090741402480A0350
1001
ACAD
1000
AcDbSavedByObjectVersion
1070
     0
  0
ACAD_PROXY_OBJECT
  5
2B
102
{ACAD_REACTORS
330
2A
102
}
330
2A
100
AcDbProxyObject
 90
      499
 91
      501
 93
      380
310
41119B185D240901404333333333333E33F0000000000000F9010740A907004050150841D405064090741402480A1B50
1001
ACAD
1000
AcDbSavedByObjectVersion
1070
     0
  0
ACAD_PROXY_OBJECT
  5
2C
102
{ACAD_REACTORS
330
2A
102
}
330
2A
100
AcDbProxyObject
 90
      499
 91
      501
 93
      468
310
43519B185D15DA5D1A115919D95CD0140901404333333333333E33F0000000000000F90107409019070040501600405405064090741402480A1B50
1001
ACAD
1000
AcDbSavedByObjectVersion
1070
     0
  0
ACAD_PROXY_OBJECT
  5
2D
102
{ACAD_REACTORS
330
2A
102
}
330
2A
100
AcDbProxyObject
 90
      499
 91
      501
 93
      404
310
41D1DBDD5C985D5910240902404333333333333E33F0000000000000F9010740A9070040501641D405064090741402480A1B50
1001
ACAD
1000
AcDbSavedByObjectVersion
1070
     0
  0
ACAD_PROXY_OBJECT
  5
2E
102
{ACAD_REACTORS
330
2A
102
}
330
2A
100
AcDbProxyObject
 90
      499
 91
      501
 93
      492
310
4411DBDD5C985D5915DA5D1A115919D95CD0340902404333333333333E33F0000000000000F90107409019070040501600405405064090741402480A1B50
1001
ACAD
1000
AcDbSavedByObjectVersion
1070
     0
  0
ACAD_PROXY_OBJECT
  5
31
102
{ACAD_REACTORS
330
2A
102
}
330
2A
100
AcDbProxyObject
 90
      499
 91
      501
 93
      476
310
41921A5919195B90640502408333333333333E33F0000000000000F901079024090700405020000000000001110200405405064090740C02480A0340
1001
ACAD
1000
AcDbSavedByObjectVersion
1070
     0
  0
ACAD_PROXY_OBJECT
  5
3B
102
{ACAD_REACTORS
330
2A
102
}
330
2A
100
AcDbProxyObject
 90
      499
 91
      501
 93
      428
310
42529A5D1D195C93D999914409028333333333333E33F0000000000000F9010790141107004050150A41D405064090741402480A0350
1001
ACAD
1000
AcDbSavedByObjectVersion
1070
     0
  0
ACAD_PROXY_OBJECT
  5
38
102
{ACAD_REACTORS
330
2A
102
}
330
2A
100
AcDbProxyObject
 90
      499
 91
      501
 93
      444
310
42D31A5B995C185D1D195C9B90E409028333333333333E33F0000000000000F9010790141107004050750841D405064090741402483A0350
1001
ACAD
1000
AcDbSavedByObjectVersion
1070
     0
  0
ACAD_PROXY_OBJECT
  5
3C
102
{ACAD_REACTORS
330
2A
102
}
330
2A
100
AcDbProxyObject
 90
      499
 91
      501
 93
      444
310
42D3DD995C9A185B99D3D999915409028333333333333E33F0000000000000F9010790141107004050150941D405064090741402480A0350
1001
ACAD
1000
AcDbSavedByObjectVersion
1070
     0
  0
ACAD_PROXY_OBJECT
  5
33
102
{ACAD_REACTORS
330
2A
102
}
330
2A
100
AcDbProxyObject
 90
      499
 91
      501
 93
      428
310
425499585B1A5CDD1A58D08409038333333333333E33F0000000000000F9010740A907004050150800405405064090740C02480A1B40
1001
ACAD
1000
AcDbSavedByObjectVersion
1070
     0
  0
ACAD_PROXY_OBJECT
  5
42
102
{ACAD_REACTORS
330
2A
102
}
330
2A
100
AcDbProxyObject
 90
      499
 91
      501
 93
      420
310
4194DA1859195911B40902404333333333333E33F0000000000000F9010740A41107004050150800405405064090840C02480A0B40
1001
ACAD
1000
AcDbSavedByObjectVersion
1070
     0
  0
ACAD_PROXY_OBJECT
  5
41
102
{ACAD_REACTORS
330
2A
102
}
330
2A
100
AcDbProxyObject
 90
      499
 91
      501
 93
      516
310
4454DA18591959081DDA5D1A08195919D95CD1A40902404333333333333E33F0000000000000F901074090142907004050250800405405064090740C02480A0B40
1001
ACAD
1000
AcDbSavedByObjectVersion
1070
     0
  0
ACAD_PROXY_OBJECT
  5
3E
102
{ACAD_REACTORS
330
2A
102
}
330
2A
100
AcDbProxyObject
 90
      499
 91
      501
 93
      532
310
4394DA1859195CC81BD98811DC985E5174090240C333333333333E33F0000000000000F901079024090741D01000000000000111010841D405064090740C02480A0340
1001
ACAD
1000
AcDbSavedByObjectVersion
1070
     0
  0
ACAD_PROXY_OBJECT
  5
3F
102
{ACAD_REACTORS
330
2A
102
}
330
2A
100
AcDbProxyObject
 90
      499
 91
      501
 93
      476
310
41D4DAD95D18DA1E51840502408333333333333E33F0000000000000F901079024090741D01000000000000111010B41D405064090741802480A0340
1001
ACAD
1000
AcDbSavedByObjectVersion
1070
     0
  0
ACAD_PROXY_OBJECT
  5
37
102
{ACAD_REACTORS
330
2A
102
}
330
2A
100
AcDbProxyObject
 90
      499
 91
      501
 93
      412
310
41D51A1A58DAD95B90D409028333333333333E33F0000000000000F9010790141107004050150C41D405064090741402480A0350
1001
ACAD
1000
AcDbSavedByObjectVersion
1070
     0
  0
ACAD_PROXY_OBJECT
  5
30
102
{ACAD_REACTORS
330
2A
102
}
330
2A
100
AcDbProxyObject
 90
      499
 91
      501
 93
      420
310
4255DA5C99599C985B595059028333333333333E33F0000000000000F90107901411070040501600405405064090740C02480A0340
1001
ACAD
1000
AcDbSavedByObjectVersion
1070
     0
  0
ACAD_PROXY_OBJECT
  5
40
102
{ACAD_REACTORS
330
2A
102
}
330
2A
100
AcDbProxyObject
 90
      499
 91
      501
 93
      404
310
41560B54985E51940902404000000000000E03F0000000000000F9010740501907004050150841D405064090740C02480A1B40
1001
ACAD
1000
AcDbSavedByObjectVersion
1070
     0
  0
XRECORD
  5
57E
102
{ACAD_REACTORS
330
574
102
}
330
574
100
AcDbXrecord
340
0
  0
XRECORD
  5
57D
102
{ACAD_REACTORS
330
574
102
}
330
574
100
AcDbXrecord
 90
        0
  0
XRECORD
  5
594
102
{ACAD_REACTORS
330
574
102
}
330
574
100
AcDbXrecord
1000
DSTYLE
1002
{
1070
   340
340
11
1002
}
  0
XRECORD
  5
57F
102
{ACAD_REACTORS
330
574
102
}
330
574
100
AcDbXrecord
  1
{7dfbe494-fc5f-4f8e-a448-3fdaab774460}
  0
XRECORD
  5
577
102
{ACAD_REACTORS
330
574
102
}
330
574
100
AcDbXrecord
  1

  0
XRECORD
  5
57C
102
{ACAD_REACTORS
330
574
102
}
330
574
100
AcDbXrecord
 90
        4
  0
XRECORD
  5
579
102
{ACAD_REACTORS
330
574
102
}
330
574
100
AcDbXrecord
340
1A
  0
XRECORD
  5
57B
102
{ACAD_REACTORS
330
574
102
}
330
574
100
AcDbXrecord
 90
    10781
  0
XRECORD
  5
57A
102
{ACAD_REACTORS
330
574
102
}
330
574
100
AcDbXrecord
340
19
  0
XRECORD
  5
581
102
{ACAD_REACTORS
330
574
102
}
330
574
100
AcDbXrecord
 40
0.0
  0
XRECORD
  5
584
102
{ACAD_REACTORS
330
574
102
}
330
574
100
AcDbXrecord
340
0
  0
XRECORD
  5
58A
102
{ACAD_REACTORS
330
574
102
}
330
574
100
AcDbXrecord
 10
0.0
 20
0.0
 30
0.0
  0
XRECORD
  5
586
102
{ACAD_REACTORS
330
574
102
}
330
574
100
AcDbXrecord
 10
0.0
 20
0.0
 30
0.0
  0
XRECORD
  5
589
102
{ACAD_REACTORS
330
574
102
}
330
574
100
AcDbXrecord
 10
0.0
 20
0.0
 30
0.0
  0
XRECORD
  5
587
102
{ACAD_REACTORS
330
574
102
}
330
574
100
AcDbXrecord
 10
0.0
 20
0.0
 30
0.0
  0
XRECORD
  5
588
102
{ACAD_REACTORS
330
574
102
}
330
574
100
AcDbXrecord
 10
0.0
 20
0.0
 30
0.0
  0
XRECORD
  5
585
102
{ACAD_REACTORS
330
574
102
}
330
574
100
AcDbXrecord
 10
0.0
 20
0.0
 30
0.0
  0
XRECORD
  5
582
102
{ACAD_REACTORS
330
574
102
}
330
574
100
AcDbXrecord
340
0
  0
XRECORD
  5
583
102
{ACAD_REACTORS
330
574
102
}
330
574
100
AcDbXrecord
 70
     0
  0
XRECORD
  5
578
102
{ACAD_REACTORS
330
574
102
}
330
574
100
AcDbXrecord
  1

  0
XRECORD
  5
575
102
{ACAD_REACTORS
330
574
102
}
330
574
100
AcDbXrecord
 90
        1
  0
XRECORD
  5
576
102
{ACAD_REACTORS
330
574
102
}
330
574
100
AcDbXrecord
 90
       70
  0
XRECORD
  5
58D
102
{ACAD_REACTORS
330
574
102
}
330
574
100
AcDbXrecord
340
0
  0
XRECORD
  5
593
102
{ACAD_REACTORS
330
574
102
}
330
574
100
AcDbXrecord
 10
0.0
 20
0.0
 30
0.0
  0
XRECORD
  5
58F
102
{ACAD_REACTORS
330
574
102
}
330
574
100
AcDbXrecord
 10
0.0
 20
0.0
 30
0.0
  0
XRECORD
  5
592
102
{ACAD_REACTORS
330
574
102
}
330
574
100
AcDbXrecord
 10
0.0
 20
0.0
 30
0.0
  0
XRECORD
  5
590
102
{ACAD_REACTORS
330
574
102
}
330
574
100
AcDbXrecord
 10
0.0
 20
0.0
 30
0.0
  0
XRECORD
  5
591
102
{ACAD_REACTORS
330
574
102
}
330
574
100
AcDbXrecord
 10
0.0
 20
0.0
 30
0.0
  0
XRECORD
  5
58E
102
{ACAD_REACTORS
330
574
102
}
330
574
100
AcDbXrecord
 10
0.0
 20
0.0
 30
0.0
  0
XRECORD
  5
58B
102
{ACAD_REACTORS
330
574
102
}
330
574
100
AcDbXrecord
340
0
  0
XRECORD
  5
58C
102
{ACAD_REACTORS
330
574
102
}
330
574
100
AcDbXrecord
 70
     0
  0
XRECORD
  5
580
102
{ACAD_REACTORS
330
574
102
}
330
574
100
AcDbXrecord
  1
{FAEB1C32-E019-11D5-929B-00C0DF256EC4}
  0
DICTIONARYVAR
  5
5A2
102
{ACAD_REACTORS
330
595
102
}
330
595
100
DictionaryVariables
280
     0
  1
1:1
  0
DICTIONARYVAR
  5
59C
102
{ACAD_REACTORS
330
595
102
}
330
595
100
DictionaryVariables
280
     0
  1
3.500000
  0
DICTIONARYVAR
  5
59D
102
{ACAD_REACTORS
330
595
102
}
330
595
100
DictionaryVariables
280
     0
  1
acadiso.lin
  0
DICTIONARYVAR
  5
597
102
{ACAD_REACTORS
330
595
102
}
330
595
100
DictionaryVariables
280
     0
  1
Standard
  0
DICTIONARYVAR
  5
596
102
{ACAD_REACTORS
330
595
102
}
330
595
100
DictionaryVariables
280
     0
  1
Standard
  0
DICTIONARYVAR
  5
59E
102
{ACAD_REACTORS
330
595
102
}
330
595
100
DictionaryVariables
280
     0
  1
2
  0
DICTIONARYVAR
  5
59F
102
{ACAD_REACTORS
330
595
102
}
330
595
100
DictionaryVariables
280
     0
  1
1
  0
DICTIONARYVAR
  5
5A3
102
{ACAD_REACTORS
330
595
102
}
330
595
100
DictionaryVariables
280
     0
  1
1
  0
DICTIONARYVAR
  5
599
102
{ACAD_REACTORS
330
595
102
}
330
595
100
DictionaryVariables
280
     0
  1
80.000000
  0
DICTIONARYVAR
  5
598
102
{ACAD_REACTORS
330
595
102
}
330
595
100
DictionaryVariables
280
     0
  1
5.000000
  0
DICTIONARY
  5
5A6
330
45
100
AcDbDictionary
280
     1
  3
ACAD_XREC_ROUNDTRIP
360
5A7
  0
DICTIONARY
  5
5A4
330
44
100
AcDbDictionary
280
     1
  3
ACAD_XREC_ROUNDTRIP
360
5A5
  0
DICTIONARY
  5
5A8
330
46
100
AcDbDictionary
280
     1
  3
ACAD_XREC_ROUNDTRIP
360
5A9
  0
XRECORD
  5
5A7
102
{ACAD_REACTORS
330
5A6
102
}
330
5A6
100
AcDbXrecord
102
MATERIAL
148
0.0
149
0.0
149
0.0
 93
        0
 94
      127
282
     0
 72
     1
 77
     1
171
     1
175
     1
179
     1
273
     0
  0
XRECORD
  5
5A5
102
{ACAD_REACTORS
330
5A4
102
}
330
5A4
100
AcDbXrecord
102
MATERIAL
148
0.0
149
0.0
149
0.0
 93
        0
 94
      127
282
     0
 72
     1
 77
     1
171
     1
175
     1
179
     1
273
     0
  0
XRECORD
  5
5A9
102
{ACAD_REACTORS
330
5A8
102
}
330
5A8
100
AcDbXrecord
102
MATERIAL
148
0.0
149
0.0
149
0.0
 93
        0
 94
      127
282
     0
 72
     1
 77
     1
171
     1
175
     1
179
     1
273
     0
  0
ENDSEC
  0
EOF
