  0
SECTION
  2
HEADER
  9
$ACADVER
  1
AC1014
  9
$ACADMAINTVER
 70
     9
  9
$DWGCODEPAGE
  3
ANSI_932
  9
$INSBASE
 10
0.0
 20
0.0
 30
0.0
  9
$EXTMIN
 10
10.0
 20
20.0
 30
0.0
  9
$EXTMAX
 10
770.0000000000001
 20
560.0
 30
0.0
  9
$LIMMIN
 10
0.0
 20
0.0
  9
$LIMMAX
 10
420.0
 20
297.0
  9
$ORTHOMODE
 70
     0
  9
$REGENMODE
 70
     1
  9
$FILLMODE
 70
     1
  9
$QTEXTMODE
 70
     0
  9
$MIRRTEXT
 70
     1
  9
$DRAGMODE
 70
     2
  9
$LTSCALE
 40
0.2
  9
$OSMODE
 70
    37
  9
$ATTMODE
 70
     1
  9
$TEXTSIZE
 40
2.5
  9
$TRACEWID
 40
1.0
  9
$TEXTSTYLE
  7
STANDARD
  9
$CLAYER
  8
LAY-10
  9
$CELTYPE
  6
BYLAYER
  9
$CECOLOR
 62
   256
  9
$CELTSCALE
 40
1.0
  9
$DELOBJ
 70
     1
  9
$DISPSILH
 70
     0
  9
$DIMSCALE
 40
1.0
  9
$DIMASZ
 40
2.5
  9
$DIMEXO
 40
0.625
  9
$DIMDLI
 40
3.75
  9
$DIMRND
 40
0.0
  9
$DIMDLE
 40
0.0
  9
$DIMEXE
 40
1.25
  9
$DIMTP
 40
0.0
  9
$DIMTM
 40
0.0
  9
$DIMTXT
 40
2.5
  9
$DIMCEN
 40
2.5
  9
$DIMTSZ
 40
0.0
  9
$DIMTOL
 70
     0
  9
$DIMLIM
 70
     0
  9
$DIMTIH
 70
     0
  9
$DIMTOH
 70
     0
  9
$DIMSE1
 70
     0
  9
$DIMSE2
 70
     0
  9
$DIMTAD
 70
     1
  9
$DIMZIN
 70
     8
  9
$DIMBLK
  1

  9
$DIMASO
 70
     1
  9
$DIMSHO
 70
     1
  9
$DIMPOST
  1

  9
$DIMAPOST
  1

  9
$DIMALT
 70
     0
  9
$DIMALTD
 70
     3
  9
$DIMALTF
 40
0.03937007874016
  9
$DIMLFAC
 40
1.0
  9
$DIMTOFL
 70
     1
  9
$DIMTVP
 40
0.0
  9
$DIMTIX
 70
     0
  9
$DIMSOXD
 70
     0
  9
$DIMSAH
 70
     0
  9
$DIMBLK1
  1

  9
$DIMBLK2
  1

  9
$DIMSTYLE
  2
ISO-25
  9
$DIMCLRD
 70
     0
  9
$DIMCLRE
 70
     0
  9
$DIMCLRT
 70
     0
  9
$DIMTFAC
 40
1.0
  9
$DIMGAP
 40
0.625
  9
$DIMJUST
 70
     0
  9
$DIMSD1
 70
     0
  9
$DIMSD2
 70
     0
  9
$DIMTOLJ
 70
     0
  9
$DIMTZIN
 70
     8
  9
$DIMALTZ
 70
     0
  9
$DIMALTTZ
 70
     0
  9
$DIMFIT
 70
     3
  9
$DIMUPT
 70
     0
  9
$DIMUNIT
 70
     2
  9
$DIMDEC
 70
     2
  9
$DIMTDEC
 70
     2
  9
$DIMALTU
 70
     2
  9
$DIMALTTD
 70
     3
  9
$DIMTXSTY
  7
STANDARD
  9
$DIMAUNIT
 70
     0
  9
$LUNITS
 70
     2
  9
$LUPREC
 70
     4
  9
$SKETCHINC
 40
1.0
  9
$FILLETRAD
 40
10.0
  9
$AUNITS
 70
     0
  9
$AUPREC
 70
     0
  9
$MENU
  1
.
  9
$ELEVATION
 40
0.0
  9
$PELEVATION
 40
0.0
  9
$THICKNESS
 40
0.0
  9
$LIMCHECK
 70
     0
  9
$CHAMFERA
 40
0.0
  9
$CHAMFERB
 40
0.0
  9
$CHAMFERC
 40
0.0
  9
$CHAMFERD
 40
0.0
  9
$SKPOLY
 70
     0
  9
$TDCREATE
 40
2459229.333933391
  9
$TDUPDATE
 40
2459229.333933715
  9
$TDINDWG
 40
0.0000000116
  9
$TDUSRTIMER
 40
0.0000000116
  9
$USRTIMER
 70
     1
  9
$ANGBASE
 50
0.0
  9
$ANGDIR
 70
     0
  9
$PDMODE
 70
     0
  9
$PDSIZE
 40
0.0
  9
$PLINEWID
 40
0.0
  9
$COORDS
 70
     1
  9
$SPLFRAME
 70
     0
  9
$SPLINETYPE
 70
     6
  9
$SPLINESEGS
 70
     8
  9
$ATTDIA
 70
     0
  9
$ATTREQ
 70
     1
  9
$HANDLING
 70
     1
  9
$HANDSEED
  5
303
  9
$SURFTAB1
 70
     6
  9
$SURFTAB2
 70
     6
  9
$SURFTYPE
 70
     6
  9
$SURFU
 70
     6
  9
$SURFV
 70
     6
  9
$UCSNAME
  2

  9
$UCSORG
 10
0.0
 20
0.0
 30
0.0
  9
$UCSXDIR
 10
1.0
 20
0.0
 30
0.0
  9
$UCSYDIR
 10
0.0
 20
1.0
 30
0.0
  9
$PUCSNAME
  2

  9
$PUCSORG
 10
0.0
 20
0.0
 30
0.0
  9
$PUCSXDIR
 10
1.0
 20
0.0
 30
0.0
  9
$PUCSYDIR
 10
0.0
 20
1.0
 30
0.0
  9
$USERI1
 70
     0
  9
$USERI2
 70
     0
  9
$USERI3
 70
     0
  9
$USERI4
 70
     0
  9
$USERI5
 70
     0
  9
$USERR1
 40
0.0
  9
$USERR2
 40
0.0
  9
$USERR3
 40
0.0
  9
$USERR4
 40
0.0
  9
$USERR5
 40
0.0
  9
$WORLDVIEW
 70
     1
  9
$SHADEDGE
 70
     3
  9
$SHADEDIF
 70
    70
  9
$TILEMODE
 70
     1
  9
$MAXACTVP
 70
    64
  9
$PINSBASE
 10
0.0
 20
0.0
 30
0.0
  9
$PLIMCHECK
 70
     0
  9
$PEXTMIN
 10
1.000000000000000E+20
 20
1.000000000000000E+20
 30
1.000000000000000E+20
  9
$PEXTMAX
 10
-1.000000000000000E+20
 20
-1.000000000000000E+20
 30
-1.000000000000000E+20
  9
$PLIMMIN
 10
0.0
 20
0.0
  9
$PLIMMAX
 10
420.0
 20
297.0
  9
$UNITMODE
 70
     0
  9
$VISRETAIN
 70
     1
  9
$PLINEGEN
 70
     0
  9
$PSLTSCALE
 70
     1
  9
$TREEDEPTH
 70
  3020
  9
$PICKSTYLE
 70
     1
  9
$CMLSTYLE
  2
STANDARD
  9
$CMLJUST
 70
     0
  9
$CMLSCALE
 40
20.0
  9
$PROXYGRAPHICS
 70
     1
  9
$MEASUREMENT
 70
     1
  0
ENDSEC
  0
SECTION
  2
CLASSES
  0
CLASS
  1
ACDBDICTIONARYWDFLT
  2
AcDbDictionaryWithDefault
  3
ObjectDBX Classes
 90
        0
280
     0
281
     0
  0
CLASS
  1
VISUALSTYLE
  2
AcDbVisualStyle
  3
ObjectDBX Classes
 90
     4095
280
     0
281
     0
  0
CLASS
  1
MATERIAL
  2
AcDbMaterial
  3
ObjectDBX Classes
 90
     1153
280
     0
281
     0
  0
CLASS
  1
SCALE
  2
AcDbScale
  3
ObjectDBX Classes
 90
     1153
280
     0
281
     0
  0
CLASS
  1
TABLESTYLE
  2
AcDbTableStyle
  3
ObjectDBX Classes
 90
     4095
280
     0
281
     0
  0
CLASS
  1
MLEADERSTYLE
  2
AcDbMLeaderStyle
  3
ACDB_MLEADERSTYLE_CLASS
 90
     4095
280
     0
281
     0
  0
CLASS
  1
SUN
  2
AcDbSun
  3
SCENEOE
 90
     1153
280
     0
281
     0
  0
CLASS
  1
DICTIONARYVAR
  2
AcDbDictionaryVar
  3
ObjectDBX Classes
 90
        0
280
     0
281
     0
  0
CLASS
  1
XRECORD
  2
AcDbXrecord
  3
ObjectDBX Classes
 90
        0
280
     0
281
     0
  0
CLASS
  1
LWPOLYLINE
  2
AcDbPolyline
  3
ObjectDBX Classes
 90
        0
280
     0
281
     1
  0
CLASS
  1
HATCH
  2
AcDbHatch
  3
ObjectDBX Classes
 90
        0
280
     0
281
     1
  0
CLASS
  1
ACDBPLACEHOLDER
  2
AcDbPlaceHolder
  3
ObjectDBX Classes
 90
        0
280
     0
281
     0
  0
CLASS
  1
LAYOUT
  2
AcDbLayout
  3
ObjectDBX Classes
 90
        0
280
     0
281
     0
  0
ENDSEC
  0
SECTION
  2
TABLES
  0
TABLE
  2
VPORT
  5
8
102
{ACAD_XDICTIONARY
360
2F8
102
}
330
0
100
AcDbSymbolTable
 70
     1
  0
VPORT
  5
29
330
8
100
AcDbSymbolTableRecord
100
AcDbViewportTableRecord
  2
*ACTIVE
 70
     0
 10
0.0
 20
0.0
 11
1.0
 21
1.0
 12
390.0000000000001
 22
290.0
 13
0.0
 23
0.0
 14
10.0
 24
10.0
 15
10.0
 25
10.0
 16
0.0
 26
0.0
 36
1.0
 17
0.0
 27
0.0
 37
0.0
 40
540.0
 41
1.407407407407408
 42
50.0
 43
0.0
 44
0.0
 50
0.0
 51
0.0
 71
     0
 72
  1000
 73
     1
 74
     3
 75
     0
 76
     0
 77
     0
 78
     0
  0
ENDTAB
  0
TABLE
  2
LTYPE
  5
5
330
0
100
AcDbSymbolTable
 70
     6
  0
LTYPE
  5
14
330
5
100
AcDbSymbolTableRecord
100
AcDbLinetypeTableRecord
  2
BYBLOCK
 70
     0
  3

 72
    65
 73
     0
 40
0.0
  0
LTYPE
  5
15
330
5
100
AcDbSymbolTableRecord
100
AcDbLinetypeTableRecord
  2
BYLAYER
 70
     0
  3

 72
    65
 73
     0
 40
0.0
  0
LTYPE
  5
16
330
5
100
AcDbSymbolTableRecord
100
AcDbLinetypeTableRecord
  2
CONTINUOUS
 70
     0
  3
Solid line
 72
    65
 73
     0
 40
0.0
  0
LTYPE
  5
6E
330
5
100
AcDbSymbolTableRecord
100
AcDbLinetypeTableRecord
  2
HIDDEN
 70
     0
  3
Hidden __ __ __ __ __ __ __ __ __ __ __ __ __ __
 72
    65
 73
     2
 40
9.524999999999999
 49
6.35
 74
     0
 49
-3.175
 74
     0
  0
LTYPE
  5
6F
330
5
100
AcDbSymbolTableRecord
100
AcDbLinetypeTableRecord
  2
CENTER
 70
     0
  3
Center ____ _ ____ _ ____ _ ____ _ ____ _ ____
 72
    65
 73
     4
 40
50.8
 49
31.75
 74
     0
 49
-6.35
 74
     0
 49
6.35
 74
     0
 49
-6.35
 74
     0
  0
LTYPE
  5
70
330
5
100
AcDbSymbolTableRecord
100
AcDbLinetypeTableRecord
  2
PHANTOM
 70
     0
  3
Phantom ______  __  __  ______  __  __  ______ 
 72
    65
 73
     6
 40
63.50000000000001
 49
31.75
 74
     0
 49
-6.35
 74
     0
 49
6.35
 74
     0
 49
-6.35
 74
     0
 49
6.35
 74
     0
 49
-6.35
 74
     0
  0
LTYPE
  5
71
330
5
100
AcDbSymbolTableRecord
100
AcDbLinetypeTableRecord
  2
ACAD_ISO06W100
 70
     0
  3
ISO long-dash triple-dot ____ ... ____ ... ____
 72
    65
 73
     8
 40
36.0
 49
24.0
 74
     0
 49
-3.0
 74
     0
 49
0.0
 74
     0
 49
-3.0
 74
     0
 49
0.0
 74
     0
 49
-3.0
 74
     0
 49
0.0
 74
     0
 49
-3.0
 74
     0
  0
LTYPE
  5
72
330
5
100
AcDbSymbolTableRecord
100
AcDbLinetypeTableRecord
  2
ACAD_ISO15W100
 70
     0
  3
ISO double-dash triple-dot __ __ . . . __ __ . .
 72
    65
 73
    10
 40
39.0
 49
12.0
 74
     0
 49
-3.0
 74
     0
 49
12.0
 74
     0
 49
-3.0
 74
     0
 49
0.0
 74
     0
 49
-3.0
 74
     0
 49
0.0
 74
     0
 49
-3.0
 74
     0
 49
0.0
 74
     0
 49
-3.0
 74
     0
  0
ENDTAB
  0
TABLE
  2
LAYER
  5
2
330
0
100
AcDbSymbolTable
 70
     5
  0
LAYER
  5
10
330
2
100
AcDbSymbolTableRecord
100
AcDbLayerTableRecord
  2
0
 70
     0
 62
     7
  6
CONTINUOUS
  0
LAYER
  5
75
330
2
100
AcDbSymbolTableRecord
100
AcDbLayerTableRecord
  2
LAY-10
 70
     0
 62
     7
  6
CONTINUOUS
  0
LAYER
  5
76
330
2
100
AcDbSymbolTableRecord
100
AcDbLayerTableRecord
  2
LAY-20
 70
     0
 62
     7
  6
CONTINUOUS
  0
LAYER
  5
77
330
2
100
AcDbSymbolTableRecord
100
AcDbLayerTableRecord
  2
LAY-255
 70
     0
 62
     7
  6
CONTINUOUS
  0
LAYER
  5
239
330
2
100
AcDbSymbolTableRecord
100
AcDbLayerTableRecord
  2
DEFPOINTS
 70
     0
 62
     7
  6
CONTINUOUS
  0
ENDTAB
  0
TABLE
  2
STYLE
  5
3
330
0
100
AcDbSymbolTable
 70
     4
  0
STYLE
  5
11
330
3
100
AcDbSymbolTableRecord
100
AcDbTextStyleTableRecord
  2
STANDARD
 70
     0
 40
0.0
 41
1.0
 50
0.0
 71
     0
 42
2.5
  3
simplex
  4
bigfont
  0
STYLE
  5
73
330
3
100
AcDbSymbolTableRecord
100
AcDbTextStyleTableRecord
  2
EXCADSTD
 70
     0
 40
0.0
 41
1.0
 50
0.0
 71
     0
 42
2.5
  3
simplex
  4
bigfont
  0
STYLE
  5
74
330
3
100
AcDbSymbolTableRecord
100
AcDbTextStyleTableRecord
  2
EXCADVERT
 70
     4
 40
0.0
 41
1.0
 50
0.0
 71
     0
 42
2.5
  3
simplex
  4
bigfont
  0
STYLE
  5
237
330
3
100
AcDbSymbolTableRecord
100
AcDbTextStyleTableRecord
  2
EXCADDIM1
 70
     0
 40
0.0
 41
0.84
 50
0.0
 71
     0
 42
2.5
  3
simplex
  4
bigfont
  0
ENDTAB
  0
TABLE
  2
VIEW
  5
6
330
0
100
AcDbSymbolTable
 70
     0
  0
ENDTAB
  0
TABLE
  2
UCS
  5
7
330
0
100
AcDbSymbolTable
 70
     0
  0
ENDTAB
  0
TABLE
  2
APPID
  5
9
330
0
100
AcDbSymbolTable
 70
     2
  0
APPID
  5
12
330
9
100
AcDbSymbolTableRecord
100
AcDbRegAppTableRecord
  2
ACAD
 70
     0
  0
APPID
  5
302
330
9
100
AcDbSymbolTableRecord
100
AcDbRegAppTableRecord
  2
ACAD_MLEADERVER
 70
     0
  0
ENDTAB
  0
TABLE
  2
DIMSTYLE
  5
A
330
0
100
AcDbSymbolTable
 70
     1
  0
DIMSTYLE
105
27
102
{ACAD_REACTORS
330
238
330
247
330
255
330
262
330
26F
330
27C
330
289
330
296
102
}
330
A
100
AcDbSymbolTableRecord
100
AcDbDimStyleTableRecord
  2
ISO-25
 70
     0
  3

  4

  5

  6

  7

 40
1.0
 41
2.5
 42
0.625
 43
3.75
 44
1.25
 45
0.0
 46
0.0
 47
0.0
 48
0.0
140
2.5
141
2.5
142
0.0
143
0.03937007874016
144
1.0
145
0.0
146
1.0
147
0.625
 71
     0
 72
     0
 73
     0
 74
     0
 75
     0
 76
     0
 77
     1
 78
     8
170
     0
171
     3
172
     1
173
     0
174
     0
175
     0
176
     0
177
     0
178
     0
270
     2
271
     2
272
     2
273
     2
274
     3
340
11
275
     0
280
     0
281
     0
282
     0
283
     0
284
     8
285
     0
286
     0
287
     5
288
     0
  0
ENDTAB
  0
TABLE
  2
BLOCK_RECORD
  5
1
330
0
100
AcDbSymbolTable
 70
    22
  0
BLOCK_RECORD
  5
1F
330
1
100
AcDbSymbolTableRecord
100
AcDbBlockTableRecord
  2
*MODEL_SPACE
  0
BLOCK_RECORD
  5
1B
330
1
100
AcDbSymbolTableRecord
100
AcDbBlockTableRecord
  2
*PAPER_SPACE
  0
BLOCK_RECORD
  5
78
330
1
100
AcDbSymbolTableRecord
100
AcDbBlockTableRecord
  2
EX_NORM
  0
BLOCK_RECORD
  5
7B
330
1
100
AcDbSymbolTableRecord
100
AcDbBlockTableRecord
  2
EX_BNORM
  0
BLOCK_RECORD
  5
7E
330
1
100
AcDbSymbolTableRecord
100
AcDbBlockTableRecord
  2
EX_BCIR
  0
BLOCK_RECORD
  5
81
330
1
100
AcDbSymbolTableRecord
100
AcDbBlockTableRecord
  2
EX_RCIVIL
  0
BLOCK_RECORD
  5
84
330
1
100
AcDbSymbolTableRecord
100
AcDbBlockTableRecord
  2
EX_SLANT
  0
BLOCK_RECORD
  5
87
330
1
100
AcDbSymbolTableRecord
100
AcDbBlockTableRecord
  2
EX_NONE
  0
BLOCK_RECORD
  5
8A
330
1
100
AcDbSymbolTableRecord
100
AcDbBlockTableRecord
  2
EX_CIVIL
  0
BLOCK_RECORD
  5
8D
330
1
100
AcDbSymbolTableRecord
100
AcDbBlockTableRecord
  2
EX_WCIR
  0
BLOCK_RECORD
  5
90
330
1
100
AcDbSymbolTableRecord
100
AcDbBlockTableRecord
  2
EX_WCIR2
  0
BLOCK_RECORD
  5
93
330
1
100
AcDbSymbolTableRecord
100
AcDbBlockTableRecord
  2
EX_WNORM
  0
BLOCK_RECORD
  5
96
330
1
100
AcDbSymbolTableRecord
100
AcDbBlockTableRecord
  2
EX_NNORM
  0
BLOCK_RECORD
  5
99
330
1
100
AcDbSymbolTableRecord
100
AcDbBlockTableRecord
  2
EX_BBOX
  0
BLOCK_RECORD
  5
9C
330
1
100
AcDbSymbolTableRecord
100
AcDbBlockTableRecord
  2
EX_WBOX
  0
BLOCK_RECORD
  5
9F
330
1
100
AcDbSymbolTableRecord
100
AcDbBlockTableRecord
  2
EX_INTEGRAL
  0
BLOCK_RECORD
  5
23A
330
1
100
AcDbSymbolTableRecord
100
AcDbBlockTableRecord
  2
*D15
  0
BLOCK_RECORD
  5
248
330
1
100
AcDbSymbolTableRecord
100
AcDbBlockTableRecord
  2
*D16
  0
BLOCK_RECORD
  5
256
330
1
100
AcDbSymbolTableRecord
100
AcDbBlockTableRecord
  2
*D17
  0
BLOCK_RECORD
  5
263
330
1
100
AcDbSymbolTableRecord
100
AcDbBlockTableRecord
  2
*D18
  0
BLOCK_RECORD
  5
270
330
1
100
AcDbSymbolTableRecord
100
AcDbBlockTableRecord
  2
*D19
  0
BLOCK_RECORD
  5
27D
330
1
100
AcDbSymbolTableRecord
100
AcDbBlockTableRecord
  2
*D20
  0
BLOCK_RECORD
  5
28A
330
1
100
AcDbSymbolTableRecord
100
AcDbBlockTableRecord
  2
*D21
  0
BLOCK_RECORD
  5
297
330
1
100
AcDbSymbolTableRecord
100
AcDbBlockTableRecord
  2
*D22
  0
ENDTAB
  0
ENDSEC
  0
SECTION
  2
BLOCKS
  0
BLOCK
  5
20
330
1F
100
AcDbEntity
  8
0
100
AcDbBlockBegin
  2
*MODEL_SPACE
 70
     0
 10
0.0
 20
0.0
 30
0.0
  3
*MODEL_SPACE
  1

  0
ENDBLK
  5
21
330
1F
100
AcDbEntity
  8
0
100
AcDbBlockEnd
  0
BLOCK
  5
1C
330
1B
100
AcDbEntity
 67
     1
  8
0
100
AcDbBlockBegin
  2
*PAPER_SPACE
 70
     0
 10
0.0
 20
0.0
 30
0.0
  3
*PAPER_SPACE
  1

  0
ENDBLK
  5
1D
330
1B
100
AcDbEntity
 67
     1
  8
0
100
AcDbBlockEnd
  0
BLOCK
  5
79
330
78
100
AcDbEntity
  8
0
100
AcDbBlockBegin
  2
EX_NORM
 70
     0
 10
0.0
 20
0.0
 30
0.0
  3
EX_NORM
  1

  0
LINE
  5
A2
330
78
100
AcDbEntity
  8
0
  6
CONTINUOUS
 62
     0
100
AcDbLine
 10
0.0
 20
0.0
 30
0.0
 11
-1.0
 21
0.0
 31
0.0
  0
LINE
  5
A3
330
78
100
AcDbEntity
  8
0
  6
CONTINUOUS
 62
     0
100
AcDbLine
 10
0.0
 20
0.0
 30
0.0
 11
-1.0
 21
0.166666667
 31
0.0
  0
LINE
  5
A4
330
78
100
AcDbEntity
  8
0
  6
CONTINUOUS
 62
     0
100
AcDbLine
 10
0.0
 20
0.0
 30
0.0
 11
-1.0
 21
-0.166666667
 31
0.0
  0
ENDBLK
  5
7A
330
78
100
AcDbEntity
  8
0
100
AcDbBlockEnd
  0
BLOCK
  5
7C
330
7B
100
AcDbEntity
  8
0
100
AcDbBlockBegin
  2
EX_BNORM
 70
     0
 10
0.0
 20
0.0
 30
0.0
  3
EX_BNORM
  1

  0
LINE
  5
A5
330
7B
100
AcDbEntity
  8
0
  6
CONTINUOUS
 62
     0
100
AcDbLine
 10
0.0
 20
0.0
 30
0.0
 11
-1.0
 21
0.0
 31
0.0
  0
LINE
  5
A6
330
7B
100
AcDbEntity
  8
0
  6
CONTINUOUS
 62
     0
100
AcDbLine
 10
0.0
 20
0.0
 30
0.0
 11
-1.0
 21
0.166666667
 31
0.0
  0
LINE
  5
A7
330
7B
100
AcDbEntity
  8
0
  6
CONTINUOUS
 62
     0
100
AcDbLine
 10
0.0
 20
0.0
 30
0.0
 11
-1.0
 21
-0.166666667
 31
0.0
  0
LINE
  5
A8
330
7B
100
AcDbEntity
  8
0
  6
CONTINUOUS
 62
     0
100
AcDbLine
 10
0.0
 20
0.0
 30
0.0
 11
-1.0
 21
0.083333333
 31
0.0
  0
LINE
  5
A9
330
7B
100
AcDbEntity
  8
0
  6
CONTINUOUS
 62
     0
100
AcDbLine
 10
0.0
 20
0.0
 30
0.0
 11
-1.0
 21
-0.083333333
 31
0.0
  0
LINE
  5
AA
330
7B
100
AcDbEntity
  8
0
  6
CONTINUOUS
 62
     0
100
AcDbLine
 10
-1.0
 20
0.166666667
 30
0.0
 11
-1.0
 21
-0.166666667
 31
0.0
  0
ENDBLK
  5
7D
330
7B
100
AcDbEntity
  8
0
100
AcDbBlockEnd
  0
BLOCK
  5
7F
330
7E
100
AcDbEntity
  8
0
100
AcDbBlockBegin
  2
EX_BCIR
 70
     0
 10
0.0
 20
0.0
 30
0.0
  3
EX_BCIR
  1

  0
LINE
  5
AB
330
7E
100
AcDbEntity
  8
0
  6
CONTINUOUS
 62
     0
100
AcDbLine
 10
0.0
 20
0.0
 30
0.0
 11
-1.0
 21
0.0
 31
0.0
  0
CIRCLE
  5
AC
330
7E
100
AcDbEntity
  8
0
  6
CONTINUOUS
 62
     0
100
AcDbCircle
 10
0.0
 20
0.0
 30
0.0
 40
0.5
  0
CIRCLE
  5
AD
330
7E
100
AcDbEntity
  8
0
  6
CONTINUOUS
 62
     0
100
AcDbCircle
 10
0.0
 20
0.0
 30
0.0
 40
0.25
  0
ENDBLK
  5
80
330
7E
100
AcDbEntity
  8
0
100
AcDbBlockEnd
  0
BLOCK
  5
82
330
81
100
AcDbEntity
  8
0
100
AcDbBlockBegin
  2
EX_RCIVIL
 70
     0
 10
0.0
 20
0.0
 30
0.0
  3
EX_RCIVIL
  1

  0
LINE
  5
AE
330
81
100
AcDbEntity
  8
0
  6
CONTINUOUS
 62
     0
100
AcDbLine
 10
0.0
 20
0.0
 30
0.0
 11
-1.0
 21
0.0
 31
0.0
  0
LINE
  5
AF
330
81
100
AcDbEntity
  8
0
  6
CONTINUOUS
 62
     0
100
AcDbLine
 10
-1.0
 20
-0.25
 30
0.0
 11
0.0
 21
-0.25
 31
0.0
  0
LINE
  5
B0
330
81
100
AcDbEntity
  8
0
  6
CONTINUOUS
 62
     0
100
AcDbLine
 10
-1.0
 20
-0.125
 30
0.0
 11
0.0
 21
-0.125
 31
0.0
  0
ENDBLK
  5
83
330
81
100
AcDbEntity
  8
0
100
AcDbBlockEnd
  0
BLOCK
  5
85
330
84
100
AcDbEntity
  8
0
100
AcDbBlockBegin
  2
EX_SLANT
 70
     0
 10
0.0
 20
0.0
 30
0.0
  3
EX_SLANT
  1

  0
LINE
  5
B1
330
84
100
AcDbEntity
  8
0
  6
CONTINUOUS
 62
     0
100
AcDbLine
 10
0.0
 20
0.0
 30
0.0
 11
-1.0
 21
0.0
 31
0.0
  0
LINE
  5
B2
330
84
100
AcDbEntity
  8
0
  6
CONTINUOUS
 62
     0
100
AcDbLine
 10
0.707106781
 20
0.707106781
 30
0.0
 11
-0.707106781
 21
-0.707106781
 31
0.0
  0
ENDBLK
  5
86
330
84
100
AcDbEntity
  8
0
100
AcDbBlockEnd
  0
BLOCK
  5
88
330
87
100
AcDbEntity
  8
0
100
AcDbBlockBegin
  2
EX_NONE
 70
     0
 10
0.0
 20
0.0
 30
0.0
  3
EX_NONE
  1

  0
LINE
  5
B3
330
87
100
AcDbEntity
  8
0
  6
CONTINUOUS
 62
     0
100
AcDbLine
 10
0.0
 20
0.0
 30
0.0
 11
-1.0
 21
0.0
 31
0.0
  0
ENDBLK
  5
89
330
87
100
AcDbEntity
  8
0
100
AcDbBlockEnd
  0
BLOCK
  5
8B
330
8A
100
AcDbEntity
  8
0
100
AcDbBlockBegin
  2
EX_CIVIL
 70
     0
 10
0.0
 20
0.0
 30
0.0
  3
EX_CIVIL
  1

  0
LINE
  5
B4
330
8A
100
AcDbEntity
  8
0
  6
CONTINUOUS
 62
     0
100
AcDbLine
 10
0.0
 20
0.0
 30
0.0
 11
-1.0
 21
0.0
 31
0.0
  0
LINE
  5
B5
330
8A
100
AcDbEntity
  8
0
  6
CONTINUOUS
 62
     0
100
AcDbLine
 10
-1.0
 20
0.25
 30
0.0
 11
0.0
 21
0.25
 31
0.0
  0
LINE
  5
B6
330
8A
100
AcDbEntity
  8
0
  6
CONTINUOUS
 62
     0
100
AcDbLine
 10
-1.0
 20
0.125
 30
0.0
 11
0.0
 21
0.125
 31
0.0
  0
ENDBLK
  5
8C
330
8A
100
AcDbEntity
  8
0
100
AcDbBlockEnd
  0
BLOCK
  5
8E
330
8D
100
AcDbEntity
  8
0
100
AcDbBlockBegin
  2
EX_WCIR
 70
     0
 10
0.0
 20
0.0
 30
0.0
  3
EX_WCIR
  1

  0
LINE
  5
B7
330
8D
100
AcDbEntity
  8
0
  6
CONTINUOUS
 62
     0
100
AcDbLine
 10
0.0
 20
0.0
 30
0.0
 11
-1.0
 21
0.0
 31
0.0
  0
CIRCLE
  5
B8
330
8D
100
AcDbEntity
  8
0
  6
CONTINUOUS
 62
     0
100
AcDbCircle
 10
0.0
 20
0.0
 30
0.0
 40
0.5
  0
ENDBLK
  5
8F
330
8D
100
AcDbEntity
  8
0
100
AcDbBlockEnd
  0
BLOCK
  5
91
330
90
100
AcDbEntity
  8
0
100
AcDbBlockBegin
  2
EX_WCIR2
 70
     0
 10
0.0
 20
0.0
 30
0.0
  3
EX_WCIR2
  1

  0
LINE
  5
B9
330
90
100
AcDbEntity
  8
0
  6
CONTINUOUS
 62
     0
100
AcDbLine
 10
-0.5
 20
0.0
 30
0.0
 11
-1.0
 21
0.0
 31
0.0
  0
CIRCLE
  5
BA
330
90
100
AcDbEntity
  8
0
  6
CONTINUOUS
 62
     0
100
AcDbCircle
 10
0.0
 20
0.0
 30
0.0
 40
0.5
  0
ENDBLK
  5
92
330
90
100
AcDbEntity
  8
0
100
AcDbBlockEnd
  0
BLOCK
  5
94
330
93
100
AcDbEntity
  8
0
100
AcDbBlockBegin
  2
EX_WNORM
 70
     0
 10
0.0
 20
0.0
 30
0.0
  3
EX_WNORM
  1

  0
LINE
  5
BB
330
93
100
AcDbEntity
  8
0
  6
CONTINUOUS
 62
     0
100
AcDbLine
 10
-1.0
 20
0.0
 30
0.0
 11
-1.0
 21
0.0
 31
0.0
  0
LINE
  5
BC
330
93
100
AcDbEntity
  8
0
  6
CONTINUOUS
 62
     0
100
AcDbLine
 10
0.0
 20
0.0
 30
0.0
 11
-1.0
 21
0.166666667
 31
0.0
  0
LINE
  5
BD
330
93
100
AcDbEntity
  8
0
  6
CONTINUOUS
 62
     0
100
AcDbLine
 10
0.0
 20
0.0
 30
0.0
 11
-1.0
 21
-0.166666667
 31
0.0
  0
LINE
  5
BE
330
93
100
AcDbEntity
  8
0
  6
CONTINUOUS
 62
     0
100
AcDbLine
 10
-1.0
 20
0.166666667
 30
0.0
 11
-1.0
 21
-0.166666667
 31
0.0
  0
ENDBLK
  5
95
330
93
100
AcDbEntity
  8
0
100
AcDbBlockEnd
  0
BLOCK
  5
97
330
96
100
AcDbEntity
  8
0
100
AcDbBlockBegin
  2
EX_NNORM
 70
     0
 10
0.0
 20
0.0
 30
0.0
  3
EX_NNORM
  1

  0
LINE
  5
BF
330
96
100
AcDbEntity
  8
0
  6
CONTINUOUS
 62
     0
100
AcDbLine
 10
0.0
 20
0.0
 30
0.0
 11
-1.0
 21
0.0
 31
0.0
  0
LINE
  5
C0
330
96
100
AcDbEntity
  8
0
  6
CONTINUOUS
 62
     0
100
AcDbLine
 10
0.0
 20
0.0
 30
0.0
 11
-1.0
 21
0.166666667
 31
0.0
  0
LINE
  5
C1
330
96
100
AcDbEntity
  8
0
  6
CONTINUOUS
 62
     0
100
AcDbLine
 10
0.0
 20
0.0
 30
0.0
 11
-1.0
 21
-0.166666667
 31
0.0
  0
LINE
  5
C2
330
96
100
AcDbEntity
  8
0
  6
CONTINUOUS
 62
     0
100
AcDbLine
 10
-1.0
 20
0.166666667
 30
0.0
 11
-1.0
 21
-0.166666667
 31
0.0
  0
ENDBLK
  5
98
330
96
100
AcDbEntity
  8
0
100
AcDbBlockEnd
  0
BLOCK
  5
9A
330
99
100
AcDbEntity
  8
0
100
AcDbBlockBegin
  2
EX_BBOX
 70
     0
 10
0.0
 20
0.0
 30
0.0
  3
EX_BBOX
  1

  0
LINE
  5
C3
330
99
100
AcDbEntity
  8
0
  6
CONTINUOUS
 62
     0
100
AcDbLine
 10
0.0
 20
0.0
 30
0.0
 11
-1.0
 21
0.0
 31
0.0
  0
LINE
  5
C4
330
99
100
AcDbEntity
  8
0
  6
CONTINUOUS
 62
     0
100
AcDbLine
 10
-0.5
 20
0.5
 30
0.0
 11
0.5
 21
0.5
 31
0.0
  0
LINE
  5
C5
330
99
100
AcDbEntity
  8
0
  6
CONTINUOUS
 62
     0
100
AcDbLine
 10
0.5
 20
0.5
 30
0.0
 11
0.5
 21
-0.5
 31
0.0
  0
LINE
  5
C6
330
99
100
AcDbEntity
  8
0
  6
CONTINUOUS
 62
     0
100
AcDbLine
 10
0.5
 20
-0.5
 30
0.0
 11
-0.5
 21
-0.5
 31
0.0
  0
LINE
  5
C7
330
99
100
AcDbEntity
  8
0
  6
CONTINUOUS
 62
     0
100
AcDbLine
 10
-0.5
 20
-0.5
 30
0.0
 11
-0.5
 21
0.5
 31
0.0
  0
LINE
  5
C8
330
99
100
AcDbEntity
  8
0
  6
CONTINUOUS
 62
     0
100
AcDbLine
 10
-0.25
 20
0.25
 30
0.0
 11
0.25
 21
0.25
 31
0.0
  0
LINE
  5
C9
330
99
100
AcDbEntity
  8
0
  6
CONTINUOUS
 62
     0
100
AcDbLine
 10
0.25
 20
0.25
 30
0.0
 11
0.25
 21
-0.25
 31
0.0
  0
LINE
  5
CA
330
99
100
AcDbEntity
  8
0
  6
CONTINUOUS
 62
     0
100
AcDbLine
 10
0.25
 20
-0.25
 30
0.0
 11
-0.25
 21
-0.25
 31
0.0
  0
LINE
  5
CB
330
99
100
AcDbEntity
  8
0
  6
CONTINUOUS
 62
     0
100
AcDbLine
 10
-0.25
 20
-0.25
 30
0.0
 11
-0.25
 21
0.25
 31
0.0
  0
ENDBLK
  5
9B
330
99
100
AcDbEntity
  8
0
100
AcDbBlockEnd
  0
BLOCK
  5
9D
330
9C
100
AcDbEntity
  8
0
100
AcDbBlockBegin
  2
EX_WBOX
 70
     0
 10
0.0
 20
0.0
 30
0.0
  3
EX_WBOX
  1

  0
LINE
  5
CC
330
9C
100
AcDbEntity
  8
0
  6
CONTINUOUS
 62
     0
100
AcDbLine
 10
-0.5
 20
0.0
 30
0.0
 11
-1.0
 21
0.0
 31
0.0
  0
LINE
  5
CD
330
9C
100
AcDbEntity
  8
0
  6
CONTINUOUS
 62
     0
100
AcDbLine
 10
-0.5
 20
0.5
 30
0.0
 11
0.5
 21
0.5
 31
0.0
  0
LINE
  5
CE
330
9C
100
AcDbEntity
  8
0
  6
CONTINUOUS
 62
     0
100
AcDbLine
 10
0.5
 20
0.5
 30
0.0
 11
0.5
 21
-0.5
 31
0.0
  0
LINE
  5
CF
330
9C
100
AcDbEntity
  8
0
  6
CONTINUOUS
 62
     0
100
AcDbLine
 10
0.5
 20
-0.5
 30
0.0
 11
-0.5
 21
-0.5
 31
0.0
  0
LINE
  5
D0
330
9C
100
AcDbEntity
  8
0
  6
CONTINUOUS
 62
     0
100
AcDbLine
 10
-0.5
 20
-0.5
 30
0.0
 11
-0.5
 21
0.5
 31
0.0
  0
ENDBLK
  5
9E
330
9C
100
AcDbEntity
  8
0
100
AcDbBlockEnd
  0
BLOCK
  5
A0
330
9F
100
AcDbEntity
  8
0
100
AcDbBlockBegin
  2
EX_INTEGRAL
 70
     0
 10
0.0
 20
0.0
 30
0.0
  3
EX_INTEGRAL
  1

  0
LINE
  5
D1
330
9F
100
AcDbEntity
  8
0
  6
CONTINUOUS
 62
     0
100
AcDbLine
 10
0.0
 20
0.0
 30
0.0
 11
-1.0
 21
0.0
 31
0.0
  0
ARC
  5
D2
330
9F
100
AcDbEntity
  8
0
  6
CONTINUOUS
 62
     0
100
AcDbCircle
 10
0.542115
 20
0.164992
 30
0.0
 40
0.56667
100
AcDbArc
 50
73.07249033629006
 51
196.9275130221199
  0
ARC
  5
D3
330
9F
100
AcDbEntity
  8
0
  6
CONTINUOUS
 62
     0
100
AcDbCircle
 10
-0.542115
 20
-0.164992
 30
0.0
 40
0.56667
100
AcDbArc
 50
253.0724869220464
 51
16.9275130559125
  0
ENDBLK
  5
A1
330
9F
100
AcDbEntity
  8
0
100
AcDbBlockEnd
  0
BLOCK
  5
23B
330
23A
100
AcDbEntity
  8
0
100
AcDbBlockBegin
  2
*D15
 70
     1
 10
0.0
 20
0.0
 30
0.0
  3
*D15
  1

  0
LINE
  5
23D
330
23A
100
AcDbEntity
  8
LAY-20
  6
CONTINUOUS
 62
     4
100
AcDbLine
 10
354.9999999999999
 20
48.00000000000009
 30
0.0
 11
448.0
 21
48.00000000000008
 31
0.0
  0
LINE
  5
23E
330
23A
100
AcDbEntity
  8
LAY-20
  6
CONTINUOUS
 62
     4
100
AcDbLine
 10
428.0
 20
98.00000000000007
 30
0.0
 11
448.0
 21
98.00000000000007
 31
0.0
  0
LINE
  5
23F
330
23A
100
AcDbEntity
  8
LAY-20
  6
CONTINUOUS
 62
     4
100
AcDbLine
 10
445.0
 20
53.00000000000008
 30
0.0
 11
445.0
 21
93.00000000000007
 31
0.0
  0
INSERT
  5
240
330
23A
100
AcDbEntity
  8
LAY-20
 62
     4
100
AcDbBlockReference
  2
EX_BNORM
 10
445.0
 20
48.00000000000008
 30
0.0
 41
5.0
 42
5.0
 43
5.0
 50
270.0
  0
INSERT
  5
241
330
23A
100
AcDbEntity
  8
LAY-20
 62
     4
100
AcDbBlockReference
  2
EX_BNORM
 10
445.0
 20
98.00000000000007
 30
0.0
 41
5.0
 42
5.0
 43
5.0
 50
90.0
  0
MTEXT
  5
242
330
23A
100
AcDbEntity
  8
LAY-20
 62
     7
100
AcDbMText
 10
440.0
 20
73.00000000000009
 30
0.0
 40
6.2362208
 41
0.0
 71
     5
 72
     1
  1
50
  7
EXCADDIM1
 11
0.0
 21
1.0
 31
0.0
  0
POINT
  5
243
330
23A
100
AcDbEntity
  8
DEFPOINTS
 62
     0
100
AcDbPoint
 10
351.9999999999999
 20
48.00000000000009
 30
0.0
  0
POINT
  5
244
330
23A
100
AcDbEntity
  8
DEFPOINTS
 62
     0
100
AcDbPoint
 10
425.0
 20
98.00000000000007
 30
0.0
  0
POINT
  5
245
330
23A
100
AcDbEntity
  8
DEFPOINTS
 62
     0
100
AcDbPoint
 10
445.0
 20
98.00000000000007
 30
0.0
  0
ENDBLK
  5
23C
330
23A
100
AcDbEntity
  8
0
100
AcDbBlockEnd
  0
BLOCK
  5
249
330
248
100
AcDbEntity
  8
0
100
AcDbBlockBegin
  2
*D16
 70
     1
 10
0.0
 20
0.0
 30
0.0
  3
*D16
  1

  0
LINE
  5
24B
330
248
100
AcDbEntity
  8
LAY-20
  6
CONTINUOUS
 62
     4
100
AcDbLine
 10
360.4999999999999
 20
200.0000000000002
 30
0.0
 11
448.0
 21
200.0000000000002
 31
0.0
  0
LINE
  5
24C
330
248
100
AcDbEntity
  8
LAY-20
  6
CONTINUOUS
 62
     4
100
AcDbLine
 10
352.4999999999999
 20
172.0000000000002
 30
0.0
 11
448.0
 21
172.0000000000002
 31
0.0
  0
LINE
  5
24D
330
248
100
AcDbEntity
  8
LAY-20
  6
CONTINUOUS
 62
     4
100
AcDbLine
 10
445.0
 20
195.0000000000002
 30
0.0
 11
445.0
 21
177.0000000000002
 31
0.0
  0
INSERT
  5
24E
330
248
100
AcDbEntity
  8
LAY-20
 62
     4
100
AcDbBlockReference
  2
EX_BNORM
 10
445.0
 20
200.0000000000002
 30
0.0
 41
5.0
 42
5.0
 43
5.0
 50
90.0
  0
INSERT
  5
24F
330
248
100
AcDbEntity
  8
LAY-20
 62
     4
100
AcDbBlockReference
  2
EX_BNORM
 10
445.0
 20
172.0000000000002
 30
0.0
 41
5.0
 42
5.0
 43
5.0
 50
270.0
  0
MTEXT
  5
250
330
248
100
AcDbEntity
  8
LAY-20
 62
     7
100
AcDbMText
 10
440.0
 20
186.0000000000002
 30
0.0
 40
6.2362208
 41
0.0
 71
     5
 72
     1
  1
28
  7
EXCADDIM1
 11
0.0
 21
1.0
 31
0.0
  0
POINT
  5
251
330
248
100
AcDbEntity
  8
DEFPOINTS
 62
     0
100
AcDbPoint
 10
357.4999999999999
 20
200.0000000000002
 30
0.0
  0
POINT
  5
252
330
248
100
AcDbEntity
  8
DEFPOINTS
 62
     0
100
AcDbPoint
 10
349.4999999999999
 20
172.0000000000002
 30
0.0
  0
POINT
  5
253
330
248
100
AcDbEntity
  8
DEFPOINTS
 62
     0
100
AcDbPoint
 10
445.0
 20
172.0000000000002
 30
0.0
  0
ENDBLK
  5
24A
330
248
100
AcDbEntity
  8
0
100
AcDbBlockEnd
  0
BLOCK
  5
257
330
256
100
AcDbEntity
  8
0
100
AcDbBlockBegin
  2
*D17
 70
     1
 10
0.0
 20
0.0
 30
0.0
  3
*D17
  1

  0
LINE
  5
259
330
256
100
AcDbEntity
  8
LAY-20
  6
CONTINUOUS
 62
     4
100
AcDbLine
 10
152.0
 20
98.00000000000013
 30
0.0
 11
131.9999999999999
 21
98.00000000000014
 31
0.0
  0
LINE
  5
25A
330
256
100
AcDbEntity
  8
LAY-20
  6
CONTINUOUS
 62
     4
100
AcDbLine
 10
219.5
 20
200.0000000000002
 30
0.0
 11
131.9999999999999
 21
200.0000000000002
 31
0.0
  0
LINE
  5
25B
330
256
100
AcDbEntity
  8
LAY-20
  6
CONTINUOUS
 62
     4
100
AcDbLine
 10
134.9999999999999
 20
103.0000000000001
 30
0.0
 11
134.9999999999999
 21
195.0000000000002
 31
0.0
  0
INSERT
  5
25C
330
256
100
AcDbEntity
  8
LAY-20
 62
     4
100
AcDbBlockReference
  2
EX_BNORM
 10
134.9999999999999
 20
98.00000000000014
 30
0.0
 41
5.0
 42
5.0
 43
5.0
 50
270.0
  0
INSERT
  5
25D
330
256
100
AcDbEntity
  8
LAY-20
 62
     4
100
AcDbBlockReference
  2
EX_BNORM
 10
134.9999999999999
 20
200.0000000000002
 30
0.0
 41
5.0
 42
5.0
 43
5.0
 50
90.0
  0
MTEXT
  5
25E
330
256
100
AcDbEntity
  8
LAY-20
 62
     7
100
AcDbMText
 10
129.9999999999999
 20
149.0000000000001
 30
0.0
 40
6.2362208
 41
0.0
 71
     5
 72
     1
  1
85～110
  7
EXCADDIM1
 11
0.0
 21
1.0
 31
0.0
  0
POINT
  5
25F
330
256
100
AcDbEntity
  8
DEFPOINTS
 62
     0
100
AcDbPoint
 10
155.0
 20
98.00000000000013
 30
0.0
  0
POINT
  5
260
330
256
100
AcDbEntity
  8
DEFPOINTS
 62
     0
100
AcDbPoint
 10
222.5
 20
200.0000000000002
 30
0.0
  0
POINT
  5
261
330
256
100
AcDbEntity
  8
DEFPOINTS
 62
     0
100
AcDbPoint
 10
134.9999999999999
 20
200.0000000000002
 30
0.0
  0
ENDBLK
  5
258
330
256
100
AcDbEntity
  8
0
100
AcDbBlockEnd
  0
BLOCK
  5
264
330
263
100
AcDbEntity
  8
0
100
AcDbBlockBegin
  2
*D18
 70
     1
 10
0.0
 20
0.0
 30
0.0
  3
*D18
  1

  0
LINE
  5
266
330
263
100
AcDbEntity
  8
LAY-20
  6
CONTINUOUS
 62
     4
100
AcDbLine
 10
233.4850033308
 20
45.000003118024
 30
0.0
 11
233.4850033308
 21
25.0
 31
0.0
  0
LINE
  5
267
330
263
100
AcDbEntity
  8
LAY-20
  6
CONTINUOUS
 62
     4
100
AcDbLine
 10
346.51499676664
 20
45.0
 30
0.0
 11
346.51499676664
 21
25.0
 31
0.0
  0
LINE
  5
268
330
263
100
AcDbEntity
  8
LAY-20
  6
CONTINUOUS
 62
     4
100
AcDbLine
 10
239.4850033308
 20
28.0
 30
0.0
 11
340.51499676664
 21
28.0
 31
0.0
  0
INSERT
  5
269
330
263
100
AcDbEntity
  8
LAY-20
 62
     4
100
AcDbBlockReference
  2
EX_BNORM
 10
233.4850033308
 20
28.0
 30
0.0
 41
6.0
 42
6.0
 43
6.0
 50
180.0
  0
INSERT
  5
26A
330
263
100
AcDbEntity
  8
LAY-20
 62
     4
100
AcDbBlockReference
  2
EX_BNORM
 10
346.51499676664
 20
28.0
 30
0.0
 41
6.0
 42
6.0
 43
6.0
  0
MTEXT
  5
26B
330
263
100
AcDbEntity
  8
LAY-20
 62
     7
100
AcDbMText
 10
290.00000004872
 20
33.0
 30
0.0
 40
6.2362208
 41
0.0
 71
     5
 72
     1
  1
Rｃ4（113.0）
  7
EXCADDIM1
  0
POINT
  5
26C
330
263
100
AcDbEntity
  8
DEFPOINTS
 62
     0
100
AcDbPoint
 10
233.4850033308
 20
48.000003118024
 30
0.0
  0
POINT
  5
26D
330
263
100
AcDbEntity
  8
DEFPOINTS
 62
     0
100
AcDbPoint
 10
346.51499676664
 20
48.0
 30
0.0
  0
POINT
  5
26E
330
263
100
AcDbEntity
  8
DEFPOINTS
 62
     0
100
AcDbPoint
 10
346.51499676664
 20
28.0
 30
0.0
  0
ENDBLK
  5
265
330
263
100
AcDbEntity
  8
0
100
AcDbBlockEnd
  0
BLOCK
  5
271
330
270
100
AcDbEntity
  8
0
100
AcDbBlockBegin
  2
*D19
 70
     1
 10
0.0
 20
0.0
 30
0.0
  3
*D19
  1

  0
LINE
  5
273
330
270
100
AcDbEntity
  8
LAY-20
  6
CONTINUOUS
 62
     4
100
AcDbLine
 10
155.0
 20
101.0
 30
0.0
 11
155.0
 21
251.0
 31
0.0
  0
LINE
  5
274
330
270
100
AcDbEntity
  8
LAY-20
  6
CONTINUOUS
 62
     4
100
AcDbLine
 10
425.0
 20
101.0
 30
0.0
 11
425.0
 21
251.0
 31
0.0
  0
LINE
  5
275
330
270
100
AcDbEntity
  8
LAY-20
  6
CONTINUOUS
 62
     4
100
AcDbLine
 10
161.0
 20
248.0
 30
0.0
 11
419.0
 21
248.0
 31
0.0
  0
INSERT
  5
276
330
270
100
AcDbEntity
  8
LAY-20
 62
     4
100
AcDbBlockReference
  2
EX_BNORM
 10
155.0
 20
248.0
 30
0.0
 41
6.0
 42
6.0
 43
6.0
 50
180.0
  0
INSERT
  5
277
330
270
100
AcDbEntity
  8
LAY-20
 62
     4
100
AcDbBlockReference
  2
EX_BNORM
 10
425.0
 20
248.0
 30
0.0
 41
6.0
 42
6.0
 43
6.0
  0
MTEXT
  5
278
330
270
100
AcDbEntity
  8
LAY-20
 62
     7
100
AcDbMText
 10
290.0
 20
253.0
 30
0.0
 40
6.2362208
 41
0.0
 71
     5
 72
     1
  1
%%c270
  7
EXCADDIM1
  0
POINT
  5
279
330
270
100
AcDbEntity
  8
DEFPOINTS
 62
     0
100
AcDbPoint
 10
155.0
 20
98.0
 30
0.0
  0
POINT
  5
27A
330
270
100
AcDbEntity
  8
DEFPOINTS
 62
     0
100
AcDbPoint
 10
425.0
 20
98.0
 30
0.0
  0
POINT
  5
27B
330
270
100
AcDbEntity
  8
DEFPOINTS
 62
     0
100
AcDbPoint
 10
425.0
 20
248.0
 30
0.0
  0
ENDBLK
  5
272
330
270
100
AcDbEntity
  8
0
100
AcDbBlockEnd
  0
BLOCK
  5
27E
330
27D
100
AcDbEntity
  8
0
100
AcDbBlockBegin
  2
*D20
 70
     1
 10
0.0
 20
0.0
 30
0.0
  3
*D20
  1

  0
LINE
  5
280
330
27D
100
AcDbEntity
  8
LAY-20
  6
CONTINUOUS
 62
     4
100
AcDbLine
 10
222.4999999999999
 20
203.0
 30
0.0
 11
222.4999999999999
 21
237.0
 31
0.0
  0
LINE
  5
281
330
27D
100
AcDbEntity
  8
LAY-20
  6
CONTINUOUS
 62
     4
100
AcDbLine
 10
357.4999999999999
 20
203.0
 30
0.0
 11
357.4999999999999
 21
237.0
 31
0.0
  0
LINE
  5
282
330
27D
100
AcDbEntity
  8
LAY-20
  6
CONTINUOUS
 62
     4
100
AcDbLine
 10
228.4999999999999
 20
234.0
 30
0.0
 11
351.4999999999999
 21
234.0
 31
0.0
  0
INSERT
  5
283
330
27D
100
AcDbEntity
  8
LAY-20
 62
     4
100
AcDbBlockReference
  2
EX_BNORM
 10
222.4999999999999
 20
234.0
 30
0.0
 41
6.0
 42
6.0
 43
6.0
 50
180.0
  0
INSERT
  5
284
330
27D
100
AcDbEntity
  8
LAY-20
 62
     4
100
AcDbBlockReference
  2
EX_BNORM
 10
357.4999999999999
 20
234.0
 30
0.0
 41
6.0
 42
6.0
 43
6.0
  0
MTEXT
  5
285
330
27D
100
AcDbEntity
  8
LAY-20
 62
     7
100
AcDbMText
 10
289.9999999999999
 20
239.0
 30
0.0
 40
6.2362208
 41
0.0
 71
     5
 72
     1
  1
%%c135
  7
EXCADDIM1
  0
POINT
  5
286
330
27D
100
AcDbEntity
  8
DEFPOINTS
 62
     0
100
AcDbPoint
 10
222.4999999999999
 20
200.0
 30
0.0
  0
POINT
  5
287
330
27D
100
AcDbEntity
  8
DEFPOINTS
 62
     0
100
AcDbPoint
 10
357.4999999999999
 20
200.0
 30
0.0
  0
POINT
  5
288
330
27D
100
AcDbEntity
  8
DEFPOINTS
 62
     0
100
AcDbPoint
 10
357.4999999999999
 20
234.0
 30
0.0
  0
ENDBLK
  5
27F
330
27D
100
AcDbEntity
  8
0
100
AcDbBlockEnd
  0
BLOCK
  5
28B
330
28A
100
AcDbEntity
  8
0
100
AcDbBlockBegin
  2
*D21
 70
     1
 10
0.0
 20
0.0
 30
0.0
  3
*D21
  1

  0
LINE
  5
28D
330
28A
100
AcDbEntity
  8
LAY-20
  6
CONTINUOUS
 62
     4
100
AcDbLine
 10
299.0
 20
196.0
 30
0.0
 11
299.0
 21
200.0
 31
0.0
  0
LINE
  5
28E
330
28A
100
AcDbEntity
  8
LAY-20
  6
CONTINUOUS
 62
     4
100
AcDbLine
 10
299.0
 20
191.0
 30
0.0
 11
299.0
 21
186.0
 31
0.0
  0
LINE
  5
28F
330
28A
100
AcDbEntity
  8
LAY-20
  6
CONTINUOUS
 62
     4
100
AcDbLine
 10
299.0
 20
205.0
 30
0.0
 11
299.0
 21
210.0
 31
0.0
  0
INSERT
  5
290
330
28A
100
AcDbEntity
  8
LAY-20
 62
     4
100
AcDbBlockReference
  2
EX_BNORM
 10
299.0
 20
196.0
 30
0.0
 41
5.0
 42
5.0
 43
5.0
 50
90.0
  0
INSERT
  5
291
330
28A
100
AcDbEntity
  8
LAY-20
 62
     4
100
AcDbBlockReference
  2
EX_BNORM
 10
299.0
 20
200.0
 30
0.0
 41
5.0
 42
5.0
 43
5.0
 50
270.0
  0
MTEXT
  5
292
330
28A
100
AcDbEntity
  8
LAY-20
 62
     7
100
AcDbMText
 10
305.0199999999999
 20
226.1399999999999
 30
0.0
 40
6.2362208
 41
0.0
 71
     5
 72
     1
  1
4
  7
EXCADDIM1
  0
POINT
  5
293
330
28A
100
AcDbEntity
  8
DEFPOINTS
 62
     0
100
AcDbPoint
 10
290.0
 20
196.0
 30
0.0
  0
POINT
  5
294
330
28A
100
AcDbEntity
  8
DEFPOINTS
 62
     0
100
AcDbPoint
 10
296.76
 20
200.0
 30
0.0
  0
POINT
  5
295
330
28A
100
AcDbEntity
  8
DEFPOINTS
 62
     0
100
AcDbPoint
 10
299.0
 20
200.0
 30
0.0
  0
ENDBLK
  5
28C
330
28A
100
AcDbEntity
  8
0
100
AcDbBlockEnd
  0
BLOCK
  5
298
330
297
100
AcDbEntity
  8
0
100
AcDbBlockBegin
  2
*D22
 70
     1
 10
0.0
 20
0.0
 30
0.0
  3
*D22
  1

  0
LINE
  5
29A
330
297
100
AcDbEntity
  8
LAY-20
  6
CONTINUOUS
 62
     4
100
AcDbLine
 10
389.58
 20
83.5
 30
0.0
 11
389.58
 21
89.0
 31
0.0
  0
LINE
  5
29B
330
297
100
AcDbEntity
  8
LAY-20
  6
CONTINUOUS
 62
     4
100
AcDbLine
 10
389.58
 20
78.5
 30
0.0
 11
389.58
 21
73.5
 31
0.0
  0
LINE
  5
29C
330
297
100
AcDbEntity
  8
LAY-20
  6
CONTINUOUS
 62
     4
100
AcDbLine
 10
389.58
 20
94.0
 30
0.0
 11
389.58
 21
99.0
 31
0.0
  0
INSERT
  5
29D
330
297
100
AcDbEntity
  8
LAY-20
 62
     4
100
AcDbBlockReference
  2
EX_BNORM
 10
389.58
 20
83.5
 30
0.0
 41
5.0
 42
5.0
 43
5.0
 50
90.0
  0
INSERT
  5
29E
330
297
100
AcDbEntity
  8
LAY-20
 62
     4
100
AcDbBlockReference
  2
EX_BNORM
 10
389.58
 20
89.0
 30
0.0
 41
5.0
 42
5.0
 43
5.0
 50
270.0
  0
MTEXT
  5
29F
330
297
100
AcDbEntity
  8
LAY-20
 62
     7
100
AcDbMText
 10
398.4999999999999
 20
116.82
 30
0.0
 40
6.2362208
 41
0.0
 71
     5
 72
     1
  1
5.5
  7
EXCADDIM1
  0
POINT
  5
2A0
330
297
100
AcDbEntity
  8
DEFPOINTS
 62
     0
100
AcDbPoint
 10
389.6
 20
83.5
 30
0.0
  0
POINT
  5
2A1
330
297
100
AcDbEntity
  8
DEFPOINTS
 62
     0
100
AcDbPoint
 10
389.6
 20
89.0
 30
0.0
  0
POINT
  5
2A2
330
297
100
AcDbEntity
  8
DEFPOINTS
 62
     0
100
AcDbPoint
 10
389.58
 20
89.0
 30
0.0
  0
ENDBLK
  5
299
330
297
100
AcDbEntity
  8
0
100
AcDbBlockEnd
  0
ENDSEC
  0
SECTION
  2
ENTITIES
  0
LINE
  5
D4
330
1F
100
AcDbEntity
  8
LAY-10
  6
CONTINUOUS
 62
     7
100
AcDbLine
 10
233.5000000000028
 20
187.5857864376298
 30
0.0
 11
234.9142135623726
 21
188.9999999999996
 31
0.0
  0
LINE
  5
D5
330
1F
100
AcDbEntity
  8
LAY-10
  6
CONTINUOUS
 62
     7
100
AcDbLine
 10
234.3284271247459
 20
186.9999999999997
 30
0.0
 11
236.3284271247441
 21
188.999999999998
 31
0.0
  0
LINE
  5
D6
330
1F
100
AcDbEntity
  8
LAY-10
  6
CONTINUOUS
 62
     7
100
AcDbLine
 10
235.7426406871173
 20
186.9999999999981
 30
0.0
 11
237.4999999999994
 21
188.7573593128801
 31
0.0
  0
LINE
  5
D7
330
1F
100
AcDbEntity
  8
LAY-10
  6
CONTINUOUS
 62
     7
100
AcDbLine
 10
237.1568542494919
 20
186.9999999999996
 30
0.0
 11
237.4999999999978
 21
187.3431457505055
 31
0.0
  0
LINE
  5
D8
330
1F
100
AcDbEntity
  8
LAY-10
  6
CONTINUOUS
 62
     7
100
AcDbLine
 10
342.5
 20
188.8901735623733
 30
0.0
 11
342.6098264376276
 21
189.0000000000009
 31
0.0
  0
LINE
  5
D9
330
1F
100
AcDbEntity
  8
LAY-10
  6
CONTINUOUS
 62
     7
100
AcDbLine
 10
342.5000000000016
 20
187.4759600000018
 30
0.0
 11
344.0240400000023
 21
189.0000000000024
 31
0.0
  0
LINE
  5
DA
330
1F
100
AcDbEntity
  8
LAY-10
  6
CONTINUOUS
 62
     7
100
AcDbLine
 10
343.4382535623724
 20
186.9999999999994
 30
0.0
 11
345.4382535623769
 21
189.0000000000039
 31
0.0
  0
LINE
  5
DB
330
1F
100
AcDbEntity
  8
LAY-10
  6
CONTINUOUS
 62
     7
100
AcDbLine
 10
344.8524671247438
 20
186.9999999999978
 30
0.0
 11
346.5000000000014
 21
188.6475328752553
 31
0.0
  0
LINE
  5
DC
330
1F
100
AcDbEntity
  8
LAY-10
  6
CONTINUOUS
 62
     7
100
AcDbLine
 10
346.2666806871184
 20
186.9999999999993
 30
0.0
 11
346.500000000003
 21
187.2333193128839
 31
0.0
  0
LINE
  5
DD
330
1F
100
AcDbEntity
  8
LAY-10
  6
CONTINUOUS
 62
     7
100
AcDbLine
 10
233.4999999999999
 20
188.970539
 30
0.0
 11
233.5294599999999
 21
189.0
 31
0.0
  0
LINE
  5
DE
330
1F
100
AcDbEntity
  8
LAY-10
  6
CONTINUOUS
 62
     7
100
AcDbLine
 10
346.4999999999999
 20
188.970539
 30
0.0
 11
346.4705389999999
 21
189.0
 31
0.0
  0
LINE
  5
DF
330
1F
100
AcDbEntity
  8
LAY-10
  6
CONTINUOUS
 62
     7
100
AcDbLine
 10
233.4999999999999
 20
197.0
 30
0.0
 11
233.4999999999999
 21
194.5
 31
0.0
  0
LINE
  5
E0
330
1F
100
AcDbEntity
  8
LAY-10
  6
CONTINUOUS
 62
     7
100
AcDbLine
 10
234.4999999999999
 20
194.5
 30
0.0
 11
234.4999999999999
 21
189.0
 31
0.0
  0
LINE
  5
E1
330
1F
100
AcDbEntity
  8
LAY-10
  6
CONTINUOUS
 62
     7
100
AcDbLine
 10
346.4999999999999
 20
197.0
 30
0.0
 11
346.4999999999999
 21
194.5
 31
0.0
  0
LINE
  5
E2
330
1F
100
AcDbEntity
  8
LAY-10
  6
CONTINUOUS
 62
     7
100
AcDbLine
 10
345.4999999999999
 20
194.5
 30
0.0
 11
345.4999999999999
 21
189.0
 31
0.0
  0
LINE
  5
E3
330
1F
100
AcDbEntity
  8
LAY-10
  6
CONTINUOUS
 62
     7
100
AcDbLine
 10
234.4999999999999
 20
184.0
 30
0.0
 11
233.4999999999999
 21
183.0
 31
0.0
  0
LINE
  5
E4
330
1F
100
AcDbEntity
  8
LAY-10
  6
CONTINUOUS
 62
     7
100
AcDbLine
 10
345.4999999999999
 20
184.0
 30
0.0
 11
346.4999999999999
 21
183.0
 31
0.0
  0
LINE
  5
E5
330
1F
100
AcDbEntity
  8
LAY-10
  6
CONTINUOUS
 62
     7
100
AcDbLine
 10
346.9999999999999
 20
197.5
 30
0.0
 11
345.4999999999999
 21
197.5
 31
0.0
  0
LINE
  5
E6
330
1F
100
AcDbEntity
  8
LAY-10
  6
CONTINUOUS
 62
     7
100
AcDbLine
 10
347.2499999999999
 20
197.0
 30
0.0
 11
345.4999999999999
 21
197.0
 31
0.0
  0
LINE
  5
E7
330
1F
100
AcDbEntity
  8
LAY-10
  6
CONTINUOUS
 62
     7
100
AcDbLine
 10
349.4999999999999
 20
172.0
 30
0.0
 11
345.4999999999999
 21
172.0
 31
0.0
  0
LINE
  5
E8
330
1F
100
AcDbEntity
  8
LAY-10
  6
CONTINUOUS
 62
     7
100
AcDbLine
 10
232.7499999999999
 20
197.0
 30
0.0
 11
234.4999999999999
 21
197.0
 31
0.0
  0
LINE
  5
E9
330
1F
100
AcDbEntity
  8
LAY-10
  6
CONTINUOUS
 62
     7
100
AcDbLine
 10
232.9999999999999
 20
197.5
 30
0.0
 11
234.4999999999999
 21
197.5
 31
0.0
  0
LINE
  5
EA
330
1F
100
AcDbEntity
  8
LAY-10
  6
CONTINUOUS
 62
     7
100
AcDbLine
 10
230.4999999999999
 20
172.0
 30
0.0
 11
234.4999999999999
 21
172.0
 31
0.0
  0
LINE
  5
EB
330
1F
100
AcDbEntity
  8
LAY-10
  6
CONTINUOUS
 62
     7
100
AcDbLine
 10
228.9999999999999
 20
192.0
 30
0.0
 11
228.9999999999999
 21
173.76449
 31
0.0
  0
LINE
  5
EC
330
1F
100
AcDbEntity
  8
LAY-10
  6
CONTINUOUS
 62
     7
100
AcDbLine
 10
230.4999999999999
 20
190.0
 30
0.0
 11
230.4999999999999
 21
172.0
 31
0.0
  0
LINE
  5
ED
330
1F
100
AcDbEntity
  8
LAY-10
  6
CONTINUOUS
 62
     7
100
AcDbLine
 10
230.4999999999999
 20
173.5
 30
0.0
 11
228.9999999999999
 21
173.76449
 31
0.0
  0
ARC
  5
EE
330
1F
100
AcDbEntity
  8
LAY-10
  6
CONTINUOUS
 62
     7
100
AcDbCircle
 10
225.4999999999999
 20
190.0
 30
0.0
 40
5.0
100
AcDbArc
 50
0.0
 51
90.00000000000001
  0
LINE
  5
EF
330
1F
100
AcDbEntity
  8
LAY-10
  6
CONTINUOUS
 62
     7
100
AcDbLine
 10
222.4999999999999
 20
200.0
 30
0.0
 11
222.4999999999999
 21
195.0
 31
0.0
  0
LINE
  5
F0
330
1F
100
AcDbEntity
  8
LAY-10
  6
CONTINUOUS
 62
     7
100
AcDbLine
 10
222.4999999999999
 20
195.0
 30
0.0
 11
225.4999999999999
 21
195.0
 31
0.0
  0
ARC
  5
F1
330
1F
100
AcDbEntity
  8
LAY-10
  6
CONTINUOUS
 62
     7
100
AcDbCircle
 10
225.9999999999999
 20
192.0
 30
0.0
 40
3.0
100
AcDbArc
 50
0.0
 51
57.75626399999948
  0
LINE
  5
F2
330
1F
100
AcDbEntity
  8
LAY-10
  6
CONTINUOUS
 62
     7
100
AcDbLine
 10
232.7499999999999
 20
200.0
 30
0.0
 11
232.7499999999999
 21
197.0
 31
0.0
  0
LINE
  5
F3
330
1F
100
AcDbEntity
  8
LAY-10
  6
CONTINUOUS
 62
     7
100
AcDbLine
 10
232.9999999999999
 20
200.0
 30
0.0
 11
232.9999999999999
 21
197.5
 31
0.0
  0
LINE
  5
F4
330
1F
100
AcDbEntity
  8
LAY-10
  6
CONTINUOUS
 62
     7
100
AcDbLine
 10
342.9999999999999
 20
187.0
 30
0.0
 11
342.9999999999999
 21
184.0
 31
0.0
  0
LINE
  5
F5
330
1F
100
AcDbEntity
  8
LAY-10
  6
CONTINUOUS
 62
     7
100
AcDbLine
 10
236.9999999999999
 20
187.0
 30
0.0
 11
236.9999999999999
 21
184.0
 31
0.0
  0
LINE
  5
F6
330
1F
100
AcDbEntity
  8
LAY-10
  6
CONTINUOUS
 62
     7
100
AcDbLine
 10
260.9999999999999
 20
192.0
 30
0.0
 11
268.9999999999999
 21
192.0
 31
0.0
  0
LINE
  5
F7
330
1F
100
AcDbEntity
  8
LAY-10
  6
CONTINUOUS
 62
     7
100
AcDbLine
 10
238.4999999999999
 20
196.0
 30
0.0
 11
258.9999999999999
 21
196.0
 31
0.0
  0
ARC
  5
F8
330
1F
100
AcDbEntity
  8
LAY-10
  6
CONTINUOUS
 62
     7
100
AcDbCircle
 10
238.4999999999999
 20
195.0
 30
0.0
 40
1.0
100
AcDbArc
 50
90.00000000000001
 51
180.0
  0
LINE
  5
F9
330
1F
100
AcDbEntity
  8
LAY-10
  6
CONTINUOUS
 62
     7
100
AcDbLine
 10
234.4999999999999
 20
197.5
 30
0.0
 11
234.4999999999999
 21
194.5
 31
0.0
  0
LINE
  5
FA
330
1F
100
AcDbEntity
  8
LAY-10
  6
CONTINUOUS
 62
     7
100
AcDbLine
 10
237.4999999999999
 20
195.0
 30
0.0
 11
237.4999999999999
 21
190.0
 31
0.0
  0
LINE
  5
FB
330
1F
100
AcDbEntity
  8
LAY-10
  6
CONTINUOUS
 62
     7
100
AcDbLine
 10
233.4999999999999
 20
194.5
 30
0.0
 11
233.4999999999999
 21
190.0
 31
0.0
  0
LINE
  5
FC
330
1F
100
AcDbEntity
  8
LAY-10
  6
CONTINUOUS
 62
     7
100
AcDbLine
 10
237.4999999999999
 20
190.0
 30
0.0
 11
236.4999999999999
 21
189.0
 31
0.0
  0
LINE
  5
FD
330
1F
100
AcDbEntity
  8
LAY-10
  6
CONTINUOUS
 62
     7
100
AcDbLine
 10
233.4999999999999
 20
190.0
 30
0.0
 11
234.4999999999999
 21
189.0
 31
0.0
  0
LINE
  5
FE
330
1F
100
AcDbEntity
  8
LAY-10
  6
CONTINUOUS
 62
     7
100
AcDbLine
 10
233.2499999999999
 20
190.0
 30
0.0
 11
233.2499999999999
 21
187.0
 31
0.0
  0
LINE
  5
FF
330
1F
100
AcDbEntity
  8
LAY-10
  6
CONTINUOUS
 62
     7
100
AcDbLine
 10
233.2499999999999
 20
190.0
 30
0.0
 11
233.4999999999999
 21
190.0
 31
0.0
  0
LINE
  5
100
330
1F
100
AcDbEntity
  8
LAY-10
  6
CONTINUOUS
 62
     7
100
AcDbLine
 10
233.4999999999999
 20
189.0
 30
0.0
 11
233.4999999999999
 21
187.0
 31
0.0
  0
LINE
  5
101
330
1F
100
AcDbEntity
  8
LAY-10
  6
CONTINUOUS
 62
     7
100
AcDbLine
 10
237.4999999999999
 20
189.0
 30
0.0
 11
237.4999999999999
 21
187.0
 31
0.0
  0
LINE
  5
102
330
1F
100
AcDbEntity
  8
LAY-10
  6
CONTINUOUS
 62
     7
100
AcDbLine
 10
233.4999999999999
 20
194.5
 30
0.0
 11
234.4999999999999
 21
194.5
 31
0.0
  0
ARC
  5
103
330
1F
100
AcDbEntity
  8
LAY-10
  6
CONTINUOUS
 62
     7
100
AcDbCircle
 10
258.9999999999999
 20
195.0
 30
0.0
 40
1.0
100
AcDbArc
 50
0.0
 51
90.00000000000001
  0
ARC
  5
104
330
1F
100
AcDbEntity
  8
LAY-10
  6
CONTINUOUS
 62
     7
100
AcDbCircle
 10
260.9999999999999
 20
193.0
 30
0.0
 40
1.0
100
AcDbArc
 50
180.0
 51
270.0
  0
LINE
  5
105
330
1F
100
AcDbEntity
  8
LAY-10
  6
CONTINUOUS
 62
     7
100
AcDbLine
 10
259.9999999999999
 20
195.0
 30
0.0
 11
259.9999999999999
 21
193.0
 31
0.0
  0
LINE
  5
106
330
1F
100
AcDbEntity
  8
LAY-10
  6
CONTINUOUS
 62
     7
100
AcDbLine
 10
264.9999999999999
 20
194.0
 30
0.0
 11
267.9999999999999
 21
196.0
 31
0.0
  0
LINE
  5
107
330
1F
100
AcDbEntity
  8
LAY-10
  6
CONTINUOUS
 62
     7
100
AcDbLine
 10
261.9999999999999
 20
196.0
 30
0.0
 11
264.9999999999999
 21
194.0
 31
0.0
  0
ARC
  5
108
330
1F
100
AcDbEntity
  8
LAY-10
  6
CONTINUOUS
 62
     7
100
AcDbCircle
 10
270.9999999999999
 20
195.0
 30
0.0
 40
1.0
100
AcDbArc
 50
90.00000000000001
 51
180.0
  0
ARC
  5
109
330
1F
100
AcDbEntity
  8
LAY-10
  6
CONTINUOUS
 62
     7
100
AcDbCircle
 10
268.9999999999999
 20
193.0
 30
0.0
 40
1.0
100
AcDbArc
 50
270.0
 51
0.0
  0
LINE
  5
10A
330
1F
100
AcDbEntity
  8
LAY-10
  6
CONTINUOUS
 62
     7
100
AcDbLine
 10
269.9999999999999
 20
195.0
 30
0.0
 11
269.9999999999999
 21
193.0
 31
0.0
  0
LINE
  5
10B
330
1F
100
AcDbEntity
  8
LAY-10
  6
CONTINUOUS
 62
     7
100
AcDbLine
 10
261.9999999999999
 20
196.0
 30
0.0
 11
267.9999999999999
 21
196.0
 31
0.0
  0
LINE
  5
10C
330
1F
100
AcDbEntity
  8
LAY-10
  6
CONTINUOUS
 62
     7
100
AcDbLine
 10
261.9999999999999
 20
200.0
 30
0.0
 11
261.9999999999999
 21
196.0
 31
0.0
  0
LINE
  5
10D
330
1F
100
AcDbEntity
  8
LAY-10
  6
CONTINUOUS
 62
     7
100
AcDbLine
 10
267.9999999999999
 20
200.0
 30
0.0
 11
267.9999999999999
 21
196.0
 31
0.0
  0
LINE
  5
10E
330
1F
100
AcDbEntity
  8
LAY-10
  6
CONTINUOUS
 62
     7
100
AcDbLine
 10
318.9999999999999
 20
192.0
 30
0.0
 11
310.9999999999999
 21
192.0
 31
0.0
  0
LINE
  5
10F
330
1F
100
AcDbEntity
  8
LAY-10
  6
CONTINUOUS
 62
     7
100
AcDbLine
 10
346.7499999999999
 20
187.0
 30
0.0
 11
289.9999999999999
 21
187.0
 31
0.0
  0
ARC
  5
110
330
1F
100
AcDbEntity
  8
LAY-10
  6
CONTINUOUS
 62
     7
100
AcDbCircle
 10
308.9999999999999
 20
195.0
 30
0.0
 40
1.0
100
AcDbArc
 50
0.0
 51
90.00000000000001
  0
LINE
  5
111
330
1F
100
AcDbEntity
  8
LAY-10
  6
CONTINUOUS
 62
     7
100
AcDbLine
 10
317.9999999999999
 20
196.0
 30
0.0
 11
314.9999999999999
 21
194.0
 31
0.0
  0
LINE
  5
112
330
1F
100
AcDbEntity
  8
LAY-10
  6
CONTINUOUS
 62
     7
100
AcDbLine
 10
314.9999999999999
 20
194.0
 30
0.0
 11
311.9999999999999
 21
196.0
 31
0.0
  0
ARC
  5
113
330
1F
100
AcDbEntity
  8
LAY-10
  6
CONTINUOUS
 62
     7
100
AcDbCircle
 10
310.9999999999999
 20
193.0
 30
0.0
 40
1.0
100
AcDbArc
 50
180.0
 51
270.0
  0
LINE
  5
114
330
1F
100
AcDbEntity
  8
LAY-10
  6
CONTINUOUS
 62
     7
100
AcDbLine
 10
309.9999999999999
 20
195.0
 30
0.0
 11
309.9999999999999
 21
193.0
 31
0.0
  0
LINE
  5
115
330
1F
100
AcDbEntity
  8
LAY-10
  6
CONTINUOUS
 62
     7
100
AcDbLine
 10
317.9999999999999
 20
196.0
 30
0.0
 11
311.9999999999999
 21
196.0
 31
0.0
  0
LINE
  5
116
330
1F
100
AcDbEntity
  8
LAY-10
  6
CONTINUOUS
 62
     7
100
AcDbLine
 10
311.9999999999999
 20
200.0
 30
0.0
 11
311.9999999999999
 21
196.0
 31
0.0
  0
LINE
  5
117
330
1F
100
AcDbEntity
  8
LAY-10
  6
CONTINUOUS
 62
     7
100
AcDbLine
 10
317.9999999999999
 20
200.0
 30
0.0
 11
317.9999999999999
 21
196.0
 31
0.0
  0
LINE
  5
118
330
1F
100
AcDbEntity
  8
LAY-10
  6
CONTINUOUS
 62
     7
100
AcDbLine
 10
341.4999999999999
 20
196.0
 30
0.0
 11
320.9999999999999
 21
196.0
 31
0.0
  0
ARC
  5
119
330
1F
100
AcDbEntity
  8
LAY-10
  6
CONTINUOUS
 62
     7
100
AcDbCircle
 10
320.9999999999999
 20
195.0
 30
0.0
 40
1.0
100
AcDbArc
 50
90.00000000000001
 51
180.0
  0
LINE
  5
11A
330
1F
100
AcDbEntity
  8
LAY-10
  6
CONTINUOUS
 62
     7
100
AcDbLine
 10
319.9999999999999
 20
195.0
 30
0.0
 11
319.9999999999999
 21
193.0
 31
0.0
  0
ARC
  5
11B
330
1F
100
AcDbEntity
  8
LAY-10
  6
CONTINUOUS
 62
     7
100
AcDbCircle
 10
318.9999999999999
 20
193.0
 30
0.0
 40
1.0
100
AcDbArc
 50
270.0
 51
0.0
  0
ARC
  5
11C
330
1F
100
AcDbEntity
  8
LAY-10
  6
CONTINUOUS
 62
     7
100
AcDbCircle
 10
341.4999999999999
 20
195.0
 30
0.0
 40
1.0
100
AcDbArc
 50
0.0
 51
90.00000000000001
  0
LINE
  5
11D
330
1F
100
AcDbEntity
  8
LAY-10
  6
CONTINUOUS
 62
     7
100
AcDbLine
 10
345.4999999999999
 20
197.5
 30
0.0
 11
345.4999999999999
 21
194.5
 31
0.0
  0
LINE
  5
11E
330
1F
100
AcDbEntity
  8
LAY-10
  6
CONTINUOUS
 62
     7
100
AcDbLine
 10
346.4999999999999
 20
194.5
 30
0.0
 11
346.4999999999999
 21
190.0
 31
0.0
  0
LINE
  5
11F
330
1F
100
AcDbEntity
  8
LAY-10
  6
CONTINUOUS
 62
     7
100
AcDbLine
 10
342.4999999999999
 20
195.0
 30
0.0
 11
342.4999999999999
 21
190.0
 31
0.0
  0
LINE
  5
120
330
1F
100
AcDbEntity
  8
LAY-10
  6
CONTINUOUS
 62
     7
100
AcDbLine
 10
342.4999999999999
 20
190.0
 30
0.0
 11
343.4999999999999
 21
189.0
 31
0.0
  0
LINE
  5
121
330
1F
100
AcDbEntity
  8
LAY-10
  6
CONTINUOUS
 62
     7
100
AcDbLine
 10
342.4999999999999
 20
189.0
 30
0.0
 11
342.4999999999999
 21
187.0
 31
0.0
  0
LINE
  5
122
330
1F
100
AcDbEntity
  8
LAY-10
  6
CONTINUOUS
 62
     7
100
AcDbLine
 10
346.4999999999999
 20
190.0
 30
0.0
 11
345.4999999999999
 21
189.0
 31
0.0
  0
LINE
  5
123
330
1F
100
AcDbEntity
  8
LAY-10
  6
CONTINUOUS
 62
     7
100
AcDbLine
 10
346.7499999999999
 20
190.0
 30
0.0
 11
346.7499999999999
 21
187.0
 31
0.0
  0
LINE
  5
124
330
1F
100
AcDbEntity
  8
LAY-10
  6
CONTINUOUS
 62
     7
100
AcDbLine
 10
346.7499999999999
 20
190.0
 30
0.0
 11
346.4999999999999
 21
190.0
 31
0.0
  0
LINE
  5
125
330
1F
100
AcDbEntity
  8
LAY-10
  6
CONTINUOUS
 62
     7
100
AcDbLine
 10
346.4999999999999
 20
189.0
 30
0.0
 11
346.4999999999999
 21
187.0
 31
0.0
  0
LINE
  5
126
330
1F
100
AcDbEntity
  8
LAY-10
  6
CONTINUOUS
 62
     7
100
AcDbLine
 10
346.4999999999999
 20
194.5
 30
0.0
 11
345.4999999999999
 21
194.5
 31
0.0
  0
LINE
  5
127
330
1F
100
AcDbEntity
  8
LAY-10
  6
CONTINUOUS
 62
     7
100
AcDbLine
 10
349.4999999999999
 20
190.0
 30
0.0
 11
349.4999999999999
 21
172.0
 31
0.0
  0
LINE
  5
128
330
1F
100
AcDbEntity
  8
LAY-10
  6
CONTINUOUS
 62
     7
100
AcDbLine
 10
350.9999999999999
 20
192.0
 30
0.0
 11
350.9999999999999
 21
173.76449
 31
0.0
  0
LINE
  5
129
330
1F
100
AcDbEntity
  8
LAY-10
  6
CONTINUOUS
 62
     7
100
AcDbLine
 10
349.4999999999999
 20
173.5
 30
0.0
 11
350.9999999999999
 21
173.76449
 31
0.0
  0
ARC
  5
12A
330
1F
100
AcDbEntity
  8
LAY-10
  6
CONTINUOUS
 62
     7
100
AcDbCircle
 10
354.4999999999999
 20
190.0
 30
0.0
 40
5.0
100
AcDbArc
 50
90.00000000000001
 51
180.0
  0
LINE
  5
12B
330
1F
100
AcDbEntity
  8
LAY-10
  6
CONTINUOUS
 62
     7
100
AcDbLine
 10
357.4999999999999
 20
200.0
 30
0.0
 11
357.4999999999999
 21
195.0
 31
0.0
  0
ARC
  5
12C
330
1F
100
AcDbEntity
  8
LAY-10
  6
CONTINUOUS
 62
     7
100
AcDbCircle
 10
353.9999999999999
 20
192.0
 30
0.0
 40
3.0
100
AcDbArc
 50
122.2437360000004
 51
180.0
  0
LINE
  5
12D
330
1F
100
AcDbEntity
  8
LAY-10
  6
CONTINUOUS
 62
     7
100
AcDbLine
 10
357.4999999999999
 20
195.0
 30
0.0
 11
354.4999999999999
 21
195.0
 31
0.0
  0
LINE
  5
12E
330
1F
100
AcDbEntity
  8
LAY-10
  6
CONTINUOUS
 62
     7
100
AcDbLine
 10
346.9999999999999
 20
200.0
 30
0.0
 11
346.9999999999999
 21
197.5
 31
0.0
  0
LINE
  5
12F
330
1F
100
AcDbEntity
  8
LAY-10
  6
CONTINUOUS
 62
     7
100
AcDbLine
 10
347.2499999999999
 20
200.0
 30
0.0
 11
347.2499999999999
 21
197.0
 31
0.0
  0
ARC
  5
130
330
1F
100
AcDbEntity
  8
LAY-10
  6
CONTINUOUS
 62
     7
100
AcDbCircle
 10
289.9999999999999
 20
410.0
 30
0.0
 40
67.5
100
AcDbArc
 50
70.46836528261683
 51
119.9999999169744
  0
CIRCLE
  5
131
330
1F
100
AcDbEntity
  8
LAY-10
  6
CONTINUOUS
 62
     7
100
AcDbCircle
 10
289.9999999999999
 20
410.0
 30
0.0
 40
57.25
  0
CIRCLE
  5
132
330
1F
100
AcDbEntity
  8
LAY-10
  6
CONTINUOUS
 62
     7
100
AcDbCircle
 10
289.9999999999999
 20
410.0
 30
0.0
 40
57.0
  0
CIRCLE
  5
133
330
1F
100
AcDbEntity
  8
LAY-10
  6
CONTINUOUS
 62
     7
100
AcDbCircle
 10
264.9999999999999
 20
410.0
 30
0.0
 40
3.0
  0
CIRCLE
  5
134
330
1F
100
AcDbEntity
  8
LAY-10
  6
CONTINUOUS
 62
     7
100
AcDbCircle
 10
314.9999999999999
 20
410.0
 30
0.0
 40
3.0
  0
CIRCLE
  5
135
330
1F
100
AcDbEntity
  8
LAY-10
  6
CONTINUOUS
 62
     7
100
AcDbCircle
 10
289.9999999999999
 20
410.0
 30
0.0
 40
135.0
  0
CIRCLE
  5
136
330
1F
100
AcDbEntity
  8
LAY-10
  6
CONTINUOUS
 62
     7
100
AcDbCircle
 10
289.9999999999999
 20
410.0
 30
0.0
 40
131.0
  0
CIRCLE
  5
137
330
1F
100
AcDbEntity
  8
LAY-10
  6
CONTINUOUS
 62
     7
100
AcDbCircle
 10
289.9999999999999
 20
410.0
 30
0.0
 40
115.411543
  0
LINE
  5
138
330
1F
100
AcDbEntity
  8
LAY-10
  6
CONTINUOUS
 62
     7
100
AcDbLine
 10
207.3045320000001
 20
429.6585749999998
 30
0.0
 11
212.2376470000001
 21
428.7887339999999
 31
0.0
  0
ARC
  5
139
330
1F
100
AcDbEntity
  8
LAY-10
  6
CONTINUOUS
 62
     7
100
AcDbCircle
 10
220.5513009999999
 20
422.2456799999999
 30
0.0
 40
15.179852
100
AcDbArc
 50
150.7686109999996
 51
169.9999999999995
  0
ARC
  5
13A
330
1F
100
AcDbEntity
  8
LAY-10
  6
CONTINUOUS
 62
     7
100
AcDbCircle
 10
188.987626
 20
427.8112069999999
 30
0.0
 40
23.27056200000001
100
AcDbArc
 50
350.0000000000003
 51
2.407533999999933
  0
LINE
  5
13B
330
1F
100
AcDbEntity
  8
LAY-10
  6
CONTINUOUS
 62
     7
100
AcDbLine
 10
243.243466
 20
480.984692
 30
0.0
 11
245.7480739999999
 21
476.6465839999999
 31
0.0
  0
ARC
  5
13C
330
1F
100
AcDbEntity
  8
LAY-10
  6
CONTINUOUS
 62
     7
100
AcDbCircle
 10
254.7399709999999
 20
471.0721609999998
 30
0.0
 40
15.179852
100
AcDbArc
 50
119.9999999999999
 51
139.2313889999997
  0
ARC
  5
13D
330
1F
100
AcDbEntity
  8
LAY-10
  6
CONTINUOUS
 62
     7
100
AcDbCircle
 10
238.7146739999999
 20
498.828791
 30
0.0
 40
23.27056200000001
100
AcDbArc
 50
287.5924660000003
 51
300.0
  0
ARC
  5
13E
330
1F
100
AcDbEntity
  8
LAY-10
  6
CONTINUOUS
 62
     7
100
AcDbCircle
 10
254.7399709999999
 20
471.0721609999998
 30
0.0
 40
15.179852
100
AcDbArc
 50
100.7686109999999
 51
119.9999999999999
  0
ARC
  5
13F
330
1F
100
AcDbEntity
  8
LAY-10
  6
CONTINUOUS
 62
     7
100
AcDbCircle
 10
238.7146739999999
 20
498.828791
 30
0.0
 40
23.27056200000001
100
AcDbArc
 50
300.0
 51
312.4075339999996
  0
LINE
  5
140
330
1F
100
AcDbEntity
  8
LAY-10
  6
CONTINUOUS
 62
     7
100
AcDbLine
 10
251.90372
 20
485.9846919999999
 30
0.0
 11
254.4083279999999
 21
481.6465839999998
 31
0.0
  0
LINE
  5
141
330
1F
100
AcDbEntity
  8
LAY-10
  6
CONTINUOUS
 62
     7
100
AcDbLine
 10
314.3229079999998
 20
491.445664
 30
0.0
 11
312.6096549999999
 21
486.7385399999998
 31
0.0
  0
ARC
  5
142
330
1F
100
AcDbEntity
  8
LAY-10
  6
CONTINUOUS
 62
     7
100
AcDbCircle
 10
314.1192799999998
 20
476.2671779999998
 30
0.0
 40
15.179852
100
AcDbArc
 50
69.99999999999996
 51
89.2313890000001
  0
ARC
  5
143
330
1F
100
AcDbEntity
  8
LAY-10
  6
CONTINUOUS
 62
     7
100
AcDbCircle
 10
325.0812289999998
 20
506.3848849999999
 30
0.0
 40
23.27056200000001
100
AcDbArc
 50
237.5924660000004
 51
249.9999999999996
  0
ARC
  5
144
330
1F
100
AcDbEntity
  8
LAY-10
  6
CONTINUOUS
 62
     7
100
AcDbCircle
 10
289.9999999999999
 20
410.0
 30
0.0
 40
85.699909
100
AcDbArc
 50
69.9999999999995
 51
170.0
  0
ARC
  5
145
330
1F
100
AcDbEntity
  8
LAY-10
  6
CONTINUOUS
 62
     7
100
AcDbCircle
 10
289.9999999999999
 20
410.0
 30
0.0
 40
85.0
100
AcDbArc
 50
73.37228699999979
 51
116.6277134986676
  0
ARC
  5
146
330
1F
100
AcDbEntity
  8
LAY-10
  6
CONTINUOUS
 62
     7
100
AcDbCircle
 10
289.9999999999999
 20
410.0
 30
0.0
 40
80.0
100
AcDbArc
 50
73.5833219999999
 51
116.416677830823
  0
ARC
  5
147
330
1F
100
AcDbEntity
  8
LAY-10
  6
CONTINUOUS
 62
     7
100
AcDbCircle
 10
289.9999999999999
 20
410.0
 30
0.0
 40
79.300091
100
AcDbArc
 50
69.99999999999962
 51
170.0
  0
ARC
  5
148
330
1F
100
AcDbEntity
  8
LAY-10
  6
CONTINUOUS
 62
     7
100
AcDbCircle
 10
289.9999999999999
 20
410.0
 30
0.0
 40
80.0
100
AcDbArc
 50
193.583322
 51
236.4166778836055
  0
ARC
  5
149
330
1F
100
AcDbEntity
  8
LAY-10
  6
CONTINUOUS
 62
     7
100
AcDbCircle
 10
289.9999999999999
 20
410.0
 30
0.0
 40
85.0
100
AcDbArc
 50
193.372287
 51
236.6277131565952
  0
ARC
  5
14A
330
1F
100
AcDbEntity
  8
LAY-10
  6
CONTINUOUS
 62
     7
100
AcDbCircle
 10
289.9999999999999
 20
410.0
 30
0.0
 40
79.300091
100
AcDbArc
 50
189.9999999999999
 51
290.0000000000001
  0
ARC
  5
14B
330
1F
100
AcDbEntity
  8
LAY-10
  6
CONTINUOUS
 62
     7
100
AcDbCircle
 10
289.9999999999999
 20
410.0
 30
0.0
 40
85.699909
100
AcDbArc
 50
189.9999999999999
 51
290.0000000000001
  0
LINE
  5
14C
330
1F
100
AcDbEntity
  8
LAY-10
  6
CONTINUOUS
 62
     7
100
AcDbLine
 10
207.3045320000001
 20
390.341425
 30
0.0
 11
212.2376470000001
 21
391.211266
 31
0.0
  0
ARC
  5
14D
330
1F
100
AcDbEntity
  8
LAY-10
  6
CONTINUOUS
 62
     7
100
AcDbCircle
 10
188.987626
 20
392.1887929999999
 30
0.0
 40
23.27056200000001
100
AcDbArc
 50
357.5924660000001
 51
10.00000000000006
  0
ARC
  5
14E
330
1F
100
AcDbEntity
  8
LAY-10
  6
CONTINUOUS
 62
     7
100
AcDbCircle
 10
220.5513009999999
 20
397.7543209999999
 30
0.0
 40
15.179852
100
AcDbArc
 50
189.9999999999999
 51
209.2313890000001
  0
LINE
  5
14F
330
1F
100
AcDbEntity
  8
LAY-10
  6
CONTINUOUS
 62
     7
100
AcDbLine
 10
243.243466
 20
339.015308
 30
0.0
 11
245.7480739999999
 21
343.3534169999999
 31
0.0
  0
ARC
  5
150
330
1F
100
AcDbEntity
  8
LAY-10
  6
CONTINUOUS
 62
     7
100
AcDbCircle
 10
254.7399709999999
 20
348.9278389999999
 30
0.0
 40
15.179852
100
AcDbArc
 50
220.7686109999997
 51
240.0000000000001
  0
ARC
  5
151
330
1F
100
AcDbEntity
  8
LAY-10
  6
CONTINUOUS
 62
     7
100
AcDbCircle
 10
254.7399709999999
 20
348.9278389999999
 30
0.0
 40
15.179852
100
AcDbArc
 50
240.0000000000001
 51
259.2313890000005
  0
ARC
  5
152
330
1F
100
AcDbEntity
  8
LAY-10
  6
CONTINUOUS
 62
     7
100
AcDbCircle
 10
238.7146739999999
 20
321.17121
 30
0.0
 40
23.27056200000001
100
AcDbArc
 50
60.00000000000014
 51
72.40753399999996
  0
ARC
  5
153
330
1F
100
AcDbEntity
  8
LAY-10
  6
CONTINUOUS
 62
     7
100
AcDbCircle
 10
238.7146739999999
 20
321.17121
 30
0.0
 40
23.27056200000001
100
AcDbArc
 50
47.59246599999973
 51
60.00000000000014
  0
LINE
  5
154
330
1F
100
AcDbEntity
  8
LAY-10
  6
CONTINUOUS
 62
     7
100
AcDbLine
 10
251.90372
 20
334.0153079999999
 30
0.0
 11
254.4083279999999
 21
338.353417
 31
0.0
  0
LINE
  5
155
330
1F
100
AcDbEntity
  8
LAY-10
  6
CONTINUOUS
 62
     7
100
AcDbLine
 10
314.3229079999998
 20
328.554337
 30
0.0
 11
312.6096549999999
 21
333.2614599999999
 31
0.0
  0
ARC
  5
156
330
1F
100
AcDbEntity
  8
LAY-10
  6
CONTINUOUS
 62
     7
100
AcDbCircle
 10
314.1192799999998
 20
343.732823
 30
0.0
 40
15.179852
100
AcDbArc
 50
270.7686110000001
 51
290.0
  0
ARC
  5
157
330
1F
100
AcDbEntity
  8
LAY-10
  6
CONTINUOUS
 62
     7
100
AcDbCircle
 10
325.0812289999998
 20
313.6151149999998
 30
0.0
 40
23.27056200000001
100
AcDbArc
 50
110.0
 51
122.4075339999999
  0
ARC
  5
158
330
1F
100
AcDbEntity
  8
LAY-10
  6
CONTINUOUS
 62
     7
100
AcDbCircle
 10
289.9999999999999
 20
410.0
 30
0.0
 40
80.0
100
AcDbArc
 50
313.5833219999999
 51
356.4166783015282
  0
ARC
  5
159
330
1F
100
AcDbEntity
  8
LAY-10
  6
CONTINUOUS
 62
     7
100
AcDbCircle
 10
289.9999999999999
 20
410.0
 30
0.0
 40
85.0
100
AcDbArc
 50
313.3722869999999
 51
356.6277140554715
  0
ARC
  5
15A
330
1F
100
AcDbEntity
  8
LAY-10
  6
CONTINUOUS
 62
     7
100
AcDbCircle
 10
289.9999999999999
 20
410.0
 30
0.0
 40
79.300091
100
AcDbArc
 50
309.9999999999999
 51
49.99999999999984
  0
ARC
  5
15B
330
1F
100
AcDbEntity
  8
LAY-10
  6
CONTINUOUS
 62
     7
100
AcDbCircle
 10
289.9999999999999
 20
410.0
 30
0.0
 40
85.699909
100
AcDbArc
 50
310.0
 51
49.9999999999999
  0
LINE
  5
15C
330
1F
100
AcDbEntity
  8
LAY-10
  6
CONTINUOUS
 62
     7
100
AcDbLine
 10
348.3725589999999
 20
348.2129119999998
 30
0.0
 11
345.1526969999999
 21
352.0501939999998
 31
0.0
  0
ARC
  5
15D
330
1F
100
AcDbEntity
  8
LAY-10
  6
CONTINUOUS
 62
     7
100
AcDbCircle
 10
355.9311439999998
 20
331.426322
 30
0.0
 40
23.27056200000001
100
AcDbArc
 50
117.592466
 51
130.0
  0
ARC
  5
15E
330
1F
100
AcDbEntity
  8
LAY-10
  6
CONTINUOUS
 62
     7
100
AcDbCircle
 10
335.3294189999999
 20
355.9785019999998
 30
0.0
 40
15.179852
100
AcDbArc
 50
310.0000000000004
 51
329.2313890000005
  0
LINE
  5
15F
330
1F
100
AcDbEntity
  8
LAY-10
  6
CONTINUOUS
 62
     7
100
AcDbLine
 10
374.852814
 20
404.9999999999999
 30
0.0
 11
369.843597
 21
404.9999999999999
 31
0.0
  0
ARC
  5
160
330
1F
100
AcDbEntity
  8
LAY-10
  6
CONTINUOUS
 62
     7
100
AcDbCircle
 10
360.5200569999999
 20
410.0
 30
0.0
 40
15.179852
100
AcDbArc
 50
340.7686109999997
 51
0.0
  0
ARC
  5
161
330
1F
100
AcDbEntity
  8
LAY-10
  6
CONTINUOUS
 62
     7
100
AcDbCircle
 10
360.5200569999999
 20
410.0
 30
0.0
 40
15.179852
100
AcDbArc
 50
0.0
 51
19.23138899999955
  0
ARC
  5
162
330
1F
100
AcDbEntity
  8
LAY-10
  6
CONTINUOUS
 62
     7
100
AcDbCircle
 10
392.5706519999998
 20
410.0
 30
0.0
 40
23.27056200000001
100
AcDbArc
 50
180.0
 51
192.4075340000003
  0
ARC
  5
163
330
1F
100
AcDbEntity
  8
LAY-10
  6
CONTINUOUS
 62
     7
100
AcDbCircle
 10
392.5706519999998
 20
410.0
 30
0.0
 40
23.27056200000001
100
AcDbArc
 50
167.5924660000001
 51
180.0
  0
LINE
  5
164
330
1F
100
AcDbEntity
  8
LAY-10
  6
CONTINUOUS
 62
     7
100
AcDbLine
 10
374.852814
 20
414.9999999999999
 30
0.0
 11
369.843597
 21
414.9999999999999
 31
0.0
  0
LINE
  5
165
330
1F
100
AcDbEntity
  8
LAY-10
  6
CONTINUOUS
 62
     7
100
AcDbLine
 10
348.3725589999999
 20
471.7870889999999
 30
0.0
 11
345.1526969999999
 21
467.949806
 31
0.0
  0
ARC
  5
166
330
1F
100
AcDbEntity
  8
LAY-10
  6
CONTINUOUS
 62
     7
100
AcDbCircle
 10
335.3294189999999
 20
464.021498
 30
0.0
 40
15.179852
100
AcDbArc
 50
30.76861099999942
 51
49.99999999999961
  0
ARC
  5
167
330
1F
100
AcDbEntity
  8
LAY-10
  6
CONTINUOUS
 62
     7
100
AcDbCircle
 10
355.9311439999998
 20
488.5736779999997
 30
0.0
 40
23.27056200000001
100
AcDbArc
 50
229.9999999999998
 51
242.407534
  0
LINE
  5
168
330
1F
100
AcDbEntity
  8
LAY-10
  6
CONTINUOUS
 62
     7
100
AcDbLine
 10
210.6999089999999
 20
417.9999999999999
 30
0.0
 11
221.1149590000001
 21
417.9999999999999
 31
0.0
  0
LINE
  5
169
330
1F
100
AcDbEntity
  8
LAY-10
  6
CONTINUOUS
 62
     7
100
AcDbLine
 10
210.6999089999999
 20
401.9999999999999
 30
0.0
 11
221.1149590000001
 21
401.9999999999999
 31
0.0
  0
ARC
  5
16A
330
1F
100
AcDbEntity
  8
LAY-10
  6
CONTINUOUS
 62
     7
100
AcDbCircle
 10
210.6999089999999
 20
410.0
 30
0.0
 40
8.0
100
AcDbArc
 50
90.00000000000001
 51
270.0
  0
ARC
  5
16B
330
1F
100
AcDbEntity
  8
LAY-10
  6
CONTINUOUS
 62
     7
100
AcDbCircle
 10
210.6999089999999
 20
410.0
 30
0.0
 40
9.399819000000004
100
AcDbArc
 50
90.00000000000001
 51
270.0
  0
LINE
  5
16C
330
1F
100
AcDbEntity
  8
LAY-10
  6
CONTINUOUS
 62
     7
100
AcDbLine
 10
210.6999089999999
 20
419.3998189999999
 30
0.0
 11
221.353126
 21
419.3998189999999
 31
0.0
  0
LINE
  5
16D
330
1F
100
AcDbEntity
  8
LAY-10
  6
CONTINUOUS
 62
     7
100
AcDbLine
 10
210.6999089999999
 20
400.600182
 30
0.0
 11
221.353126
 21
400.600182
 31
0.0
  0
ARC
  5
16E
330
1F
100
AcDbEntity
  8
LAY-10
  6
CONTINUOUS
 62
     7
100
AcDbCircle
 10
221.353126
 20
422.3998189999999
 30
0.0
 40
3.0
100
AcDbArc
 50
270.0
 51
309.394649993717
  0
ARC
  5
16F
330
1F
100
AcDbEntity
  8
LAY-10
  6
CONTINUOUS
 62
     7
100
AcDbCircle
 10
221.353126
 20
397.600182
 30
0.0
 40
3.0
100
AcDbArc
 50
50.60535426791549
 51
90.00000000000001
  0
ARC
  5
170
330
1F
100
AcDbEntity
  8
LAY-10
  6
CONTINUOUS
 62
     7
100
AcDbCircle
 10
221.1149590000001
 20
420.9999999999999
 30
0.0
 40
3.0
100
AcDbArc
 50
270.0
 51
310.5609493387065
  0
ARC
  5
171
330
1F
100
AcDbEntity
  8
LAY-10
  6
CONTINUOUS
 62
     7
100
AcDbCircle
 10
221.1149590000001
 20
398.9999999999999
 30
0.0
 40
3.0
100
AcDbArc
 50
49.43905066129359
 51
90.00000000000001
  0
LINE
  5
172
330
1F
100
AcDbEntity
  8
LAY-10
  6
CONTINUOUS
 62
     7
100
AcDbLine
 10
321.509563
 20
336.6241979999999
 30
0.0
 11
316.1829549999999
 21
345.850154
 31
0.0
  0
LINE
  5
173
330
1F
100
AcDbEntity
  8
LAY-10
  6
CONTINUOUS
 62
     7
100
AcDbLine
 10
322.7218419999999
 20
337.3241069999999
 30
0.0
 11
317.5143169999998
 21
346.3438049999999
 31
0.0
  0
ARC
  5
174
330
1F
100
AcDbEntity
  8
LAY-10
  6
CONTINUOUS
 62
     7
100
AcDbCircle
 10
329.650045
 20
341.3241069999999
 30
0.0
 40
9.399819000000004
100
AcDbArc
 50
209.9999999999991
 51
29.99999999999984
  0
ARC
  5
175
330
1F
100
AcDbEntity
  8
LAY-10
  6
CONTINUOUS
 62
     7
100
AcDbCircle
 10
329.650045
 20
341.3241069999999
 30
0.0
 40
8.0
100
AcDbArc
 50
209.9999999999995
 51
29.99999999999898
  0
LINE
  5
176
330
1F
100
AcDbEntity
  8
LAY-10
  6
CONTINUOUS
 62
     7
100
AcDbLine
 10
337.7905269999998
 20
346.024016
 30
0.0
 11
332.463919
 21
355.2499729999998
 31
0.0
  0
LINE
  5
177
330
1F
100
AcDbEntity
  8
LAY-10
  6
CONTINUOUS
 62
     7
100
AcDbLine
 10
336.578248
 20
345.3241069999998
 30
0.0
 11
331.3707229999999
 21
354.3438049999999
 31
0.0
  0
ARC
  5
178
330
1F
100
AcDbEntity
  8
LAY-10
  6
CONTINUOUS
 62
     7
100
AcDbCircle
 10
333.9687999999998
 20
355.8438049999999
 30
0.0
 40
3.0
100
AcDbArc
 50
169.4390597723344
 51
210.0
  0
ARC
  5
179
330
1F
100
AcDbEntity
  8
LAY-10
  6
CONTINUOUS
 62
     7
100
AcDbCircle
 10
335.061995
 20
356.7499729999998
 30
0.0
 40
3.0
100
AcDbArc
 50
170.6053606879616
 51
210.0
  0
ARC
  5
17A
330
1F
100
AcDbEntity
  8
LAY-10
  6
CONTINUOUS
 62
     7
100
AcDbCircle
 10
314.9162409999998
 20
344.8438049999999
 30
0.0
 40
3.0
100
AcDbArc
 50
29.99999999999995
 51
70.56093692920797
  0
ARC
  5
17B
330
1F
100
AcDbEntity
  8
LAY-10
  6
CONTINUOUS
 62
     7
100
AcDbCircle
 10
313.5848789999999
 20
344.350154
 30
0.0
 40
3.0
100
AcDbArc
 50
29.99999999999995
 51
69.39464537465076
  0
LINE
  5
17C
330
1F
100
AcDbEntity
  8
LAY-10
  6
CONTINUOUS
 62
     7
100
AcDbLine
 10
337.7905269999998
 20
473.9759839999998
 30
0.0
 11
332.463919
 21
464.7500279999999
 31
0.0
  0
LINE
  5
17D
330
1F
100
AcDbEntity
  8
LAY-10
  6
CONTINUOUS
 62
     7
100
AcDbLine
 10
336.578248
 20
474.675893
 30
0.0
 11
331.3707229999999
 21
465.656195
 31
0.0
  0
ARC
  5
17E
330
1F
100
AcDbEntity
  8
LAY-10
  6
CONTINUOUS
 62
     7
100
AcDbCircle
 10
329.650045
 20
478.6758929999999
 30
0.0
 40
9.399819000000004
100
AcDbArc
 50
330.0000000000005
 51
149.9999999999993
  0
ARC
  5
17F
330
1F
100
AcDbEntity
  8
LAY-10
  6
CONTINUOUS
 62
     7
100
AcDbCircle
 10
329.650045
 20
478.6758929999999
 30
0.0
 40
8.0
100
AcDbArc
 50
330.000000000001
 51
150.0
  0
LINE
  5
180
330
1F
100
AcDbEntity
  8
LAY-10
  6
CONTINUOUS
 62
     7
100
AcDbLine
 10
321.509563
 20
483.3758029999999
 30
0.0
 11
316.1829549999999
 21
474.149846
 31
0.0
  0
LINE
  5
181
330
1F
100
AcDbEntity
  8
LAY-10
  6
CONTINUOUS
 62
     7
100
AcDbLine
 10
322.7218419999999
 20
482.6758929999999
 30
0.0
 11
317.5143169999998
 21
473.6561949999999
 31
0.0
  0
ARC
  5
182
330
1F
100
AcDbEntity
  8
LAY-10
  6
CONTINUOUS
 62
     7
100
AcDbCircle
 10
314.9162409999998
 20
475.1561949999999
 30
0.0
 40
3.0
100
AcDbArc
 50
289.4390630707989
 51
330.0000003254396
  0
ARC
  5
183
330
1F
100
AcDbEntity
  8
LAY-10
  6
CONTINUOUS
 62
     7
100
AcDbCircle
 10
313.5848789999999
 20
475.649846
 30
0.0
 40
3.0
100
AcDbArc
 50
290.6053546253527
 51
330.0
  0
ARC
  5
184
330
1F
100
AcDbEntity
  8
LAY-10
  6
CONTINUOUS
 62
     7
100
AcDbCircle
 10
333.9687999999998
 20
464.156195
 30
0.0
 40
3.0
100
AcDbArc
 50
150.0
 51
190.5609402276589
  0
ARC
  5
185
330
1F
100
AcDbEntity
  8
LAY-10
  6
CONTINUOUS
 62
     7
100
AcDbCircle
 10
335.061995
 20
463.2500279999999
 30
0.0
 40
3.0
100
AcDbArc
 50
150.0
 51
189.394661614916
  0
ARC
  5
186
330
1F
100
AcDbEntity
  8
LAY-10
  6
CONTINUOUS
 62
     7
100
AcDbCircle
 10
289.9999999999999
 20
410.0
 30
0.0
 40
85.0
100
AcDbArc
 50
123.3722868434048
 51
166.6277129999999
  0
ARC
  5
187
330
1F
100
AcDbEntity
  8
LAY-10
  6
CONTINUOUS
 62
     7
100
AcDbCircle
 10
289.9999999999999
 20
410.0
 30
0.0
 40
80.0
100
AcDbArc
 50
123.5833217863884
 51
166.416678
  0
ARC
  5
188
330
1F
100
AcDbEntity
  8
LAY-10
  6
CONTINUOUS
 62
     7
100
AcDbCircle
 10
289.9999999999999
 20
410.0
 30
0.0
 40
80.0
100
AcDbArc
 50
3.583321698471836
 51
46.41667799999968
  0
ARC
  5
189
330
1F
100
AcDbEntity
  8
LAY-10
  6
CONTINUOUS
 62
     7
100
AcDbCircle
 10
289.9999999999999
 20
410.0
 30
0.0
 40
85.0
100
AcDbArc
 50
3.372285944528433
 51
46.62771299999979
  0
ARC
  5
18A
330
1F
100
AcDbEntity
  8
LAY-10
  6
CONTINUOUS
 62
     7
100
AcDbCircle
 10
289.9999999999999
 20
410.0
 30
0.0
 40
85.0
100
AcDbArc
 50
243.3722865013327
 51
286.627713
  0
ARC
  5
18B
330
1F
100
AcDbEntity
  8
LAY-10
  6
CONTINUOUS
 62
     7
100
AcDbCircle
 10
289.9999999999999
 20
410.0
 30
0.0
 40
80.0
100
AcDbArc
 50
243.5833212570308
 51
286.416678
  0
LINE
  5
18C
330
1F
100
AcDbEntity
  8
LAY-10
  6
CONTINUOUS
 62
     7
100
AcDbLine
 10
196.041232
 20
83.49999999999994
 30
0.0
 11
219.312496
 21
83.49999999999994
 31
0.0
  0
LINE
  5
18D
330
1F
100
AcDbEntity
  8
LAY-10
  6
CONTINUOUS
 62
     7
100
AcDbLine
 10
215.0
 20
96.99999999999994
 30
0.0
 11
223.6614752437634
 21
96.99999999999994
 31
0.0
  0
LINE
  5
18E
330
1F
100
AcDbEntity
  8
LAY-10
  6
CONTINUOUS
 62
     7
100
AcDbLine
 10
201.551097
 20
89.0
 30
0.0
 11
218.49739
 21
89.0
 31
0.0
  0
LINE
  5
18F
330
1F
100
AcDbEntity
  8
LAY-10
  6
CONTINUOUS
 62
     7
100
AcDbLine
 10
202.0
 20
73.49999999999994
 30
0.0
 11
220.1873829999999
 21
73.49999999999994
 31
0.0
  0
LINE
  5
190
330
1F
100
AcDbEntity
  8
LAY-10
  6
CONTINUOUS
 62
     7
100
AcDbLine
 10
202.0
 20
73.49999999999994
 30
0.0
 11
200.965271
 21
79.36824099999995
 31
0.0
  0
LINE
  5
191
330
1F
100
AcDbEntity
  8
LAY-10
  6
CONTINUOUS
 62
     7
100
AcDbLine
 10
156.5
 20
93.09252299999997
 30
0.0
 11
170.7942279999999
 21
84.83974599999999
 31
0.0
  0
LINE
  5
192
330
1F
100
AcDbEntity
  8
LAY-10
  6
CONTINUOUS
 62
     7
100
AcDbLine
 10
159.0
 20
98.0
 30
0.0
 11
172.2679489999999
 21
90.33974600000005
 31
0.0
  0
ARC
  5
193
330
1F
100
AcDbEntity
  8
LAY-10
  6
CONTINUOUS
 62
     7
100
AcDbCircle
 10
158.0
 20
95.6905989999999
 30
0.0
 40
3.0
100
AcDbArc
 50
180.0
 51
240.0000000000001
  0
LINE
  5
194
330
1F
100
AcDbEntity
  8
LAY-10
  6
CONTINUOUS
 62
     7
100
AcDbLine
 10
155.0
 20
98.0
 30
0.0
 11
159.0
 21
98.0
 31
0.0
  0
LINE
  5
195
330
1F
100
AcDbEntity
  8
LAY-10
  6
CONTINUOUS
 62
     7
100
AcDbLine
 10
155.0
 20
98.0
 30
0.0
 11
155.0
 21
95.6905989999999
 31
0.0
  0
LINE
  5
196
330
1F
100
AcDbEntity
  8
LAY-10
  6
CONTINUOUS
 62
     7
100
AcDbLine
 10
175.7942279999999
 20
83.49999999999994
 30
0.0
 11
196.041232
 21
83.49999999999994
 31
0.0
  0
LINE
  5
197
330
1F
100
AcDbEntity
  8
LAY-10
  6
CONTINUOUS
 62
     7
100
AcDbLine
 10
177.2679489999999
 20
89.0
 30
0.0
 11
198.551097
 21
89.0
 31
0.0
  0
ARC
  5
198
330
1F
100
AcDbEntity
  8
LAY-10
  6
CONTINUOUS
 62
     7
100
AcDbCircle
 10
175.7942279999999
 20
93.5
 30
0.0
 40
10.0
100
AcDbArc
 50
239.9999999999998
 51
270.0
  0
ARC
  5
199
330
1F
100
AcDbEntity
  8
LAY-10
  6
CONTINUOUS
 62
     7
100
AcDbCircle
 10
177.2679489999999
 20
98.99999999999994
 30
0.0
 40
10.0
100
AcDbArc
 50
239.9999999999992
 51
270.0
  0
ARC
  5
19A
330
1F
100
AcDbEntity
  8
LAY-10
  6
CONTINUOUS
 62
     7
100
AcDbCircle
 10
198.551097
 20
92.0
 30
0.0
 40
3.0
100
AcDbArc
 50
270.0
 51
355.0000000000003
  0
LINE
  5
19B
330
1F
100
AcDbEntity
  8
LAY-10
  6
CONTINUOUS
 62
     7
100
AcDbLine
 10
198.551097
 20
89.0
 30
0.0
 11
201.551097
 21
89.0
 31
0.0
  0
ARC
  5
19C
330
1F
100
AcDbEntity
  8
LAY-10
  6
CONTINUOUS
 62
     7
100
AcDbCircle
 10
196.041232
 20
78.5
 30
0.0
 40
5.0
100
AcDbArc
 50
9.999999999999831
 51
90.00000000000001
  0
LINE
  5
19D
330
1F
100
AcDbEntity
  8
LAY-10
  6
CONTINUOUS
 62
     7
100
AcDbLine
 10
202.0
 20
96.99999999999994
 30
0.0
 11
201.5396809999999
 21
91.73853300000002
 31
0.0
  0
LINE
  5
19E
330
1F
100
AcDbEntity
  8
LAY-10
  6
CONTINUOUS
 62
     7
100
AcDbLine
 10
202.0
 20
96.99999999999994
 30
0.0
 11
215.0
 21
96.99999999999994
 31
0.0
  0
LINE
  5
19F
330
1F
100
AcDbEntity
  8
LAY-10
  6
CONTINUOUS
 62
     7
100
AcDbLine
 10
361.1293359999999
 20
89.01395299999996
 30
0.0
 11
347.530246
 21
75.41486300000003
 31
0.0
  0
LINE
  5
1A0
330
1F
100
AcDbEntity
  8
LAY-10
  6
CONTINUOUS
 62
     7
100
AcDbLine
 10
358.3905219999999
 20
63.71909499999998
 30
0.0
 11
359.881536
 21
80.76146699999998
 31
0.0
  0
ARC
  5
1A1
330
1F
100
AcDbEntity
  8
LAY-10
  6
CONTINUOUS
 62
     7
100
AcDbCircle
 10
360.6875029999998
 20
78.5
 30
0.0
 40
5.0
100
AcDbArc
 50
90.00000000000001
 51
174.9999999999995
  0
ARC
  5
1A2
330
1F
100
AcDbEntity
  8
LAY-10
  6
CONTINUOUS
 62
     7
100
AcDbCircle
 10
219.312496
 20
78.5
 30
0.0
 40
5.0
100
AcDbArc
 50
5.000000000000431
 51
90.00000000000001
  0
LINE
  5
1A3
330
1F
100
AcDbEntity
  8
LAY-10
  6
CONTINUOUS
 62
     7
100
AcDbLine
 10
227.0
 20
47.99999999999994
 30
0.0
 11
225.168357
 21
68.93577899999991
 31
0.0
  0
LINE
  5
1A4
330
1F
100
AcDbEntity
  8
LAY-10
  6
CONTINUOUS
 62
     7
100
AcDbLine
 10
225.646735
 20
63.46788899999996
 30
0.0
 11
224.2934699999999
 21
78.93577899999997
 31
0.0
  0
ARC
  5
1A5
330
1F
100
AcDbEntity
  8
LAY-10
  6
CONTINUOUS
 62
     7
100
AcDbCircle
 10
220.1873829999999
 20
68.49999999999994
 30
0.0
 40
5.0
100
AcDbArc
 50
5.000000000000431
 51
90.00000000000001
  0
LINE
  5
1A6
330
1F
100
AcDbEntity
  8
LAY-10
  6
CONTINUOUS
 62
     7
100
AcDbLine
 10
353.087156
 20
48.99619499999994
 30
0.0
 11
355.7065299999999
 21
78.93577899999997
 31
0.0
  0
LINE
  5
1A7
330
1F
100
AcDbEntity
  8
LAY-10
  6
CONTINUOUS
 62
     7
100
AcDbLine
 10
353.087156
 20
48.99619499999994
 30
0.0
 11
352.0
 21
47.99999999999994
 31
0.0
  0
ARC
  5
1A8
330
1F
100
AcDbEntity
  8
LAY-10
  6
CONTINUOUS
 62
     7
100
AcDbCircle
 10
342.5016430000001
 20
74.99999999999994
 30
0.0
 40
5.0
100
AcDbArc
 50
270.0
 51
357.0000000000009
  0
LINE
  5
1A9
330
1F
100
AcDbEntity
  8
LAY-10
  6
CONTINUOUS
 62
     7
100
AcDbLine
 10
354.3123299999999
 20
62.99999999999994
 30
0.0
 11
358.3905219999999
 21
63.71909499999998
 31
0.0
  0
LINE
  5
1AA
330
1F
100
AcDbEntity
  8
LAY-10
  6
CONTINUOUS
 62
     7
100
AcDbLine
 10
232.849967
 20
113.0
 30
0.0
 11
224.5
 21
113.0
 31
0.0
  0
ARC
  5
1AB
330
1F
100
AcDbEntity
  8
LAY-10
  6
CONTINUOUS
 62
     7
100
AcDbCircle
 10
378.4489029999999
 20
92.0
 30
0.0
 40
3.0
100
AcDbArc
 50
184.9999999999998
 51
270.0
  0
LINE
  5
1AC
330
1F
100
AcDbEntity
  8
LAY-10
  6
CONTINUOUS
 62
     7
100
AcDbLine
 10
383.958768
 20
83.49999999999994
 30
0.0
 11
360.6875029999998
 21
83.49999999999994
 31
0.0
  0
LINE
  5
1AD
330
1F
100
AcDbEntity
  8
LAY-10
  6
CONTINUOUS
 62
     7
100
AcDbLine
 10
356.6081599999999
 20
92.97805799999992
 30
0.0
 11
347.9995349999999
 21
84.36943300000001
 31
0.0
  0
ARC
  5
1AE
330
1F
100
AcDbEntity
  8
LAY-10
  6
CONTINUOUS
 62
     7
100
AcDbCircle
 10
366.551097
 20
92.0
 30
0.0
 40
3.0
100
AcDbArc
 50
270.0
 51
355.0000000000003
  0
ARC
  5
1AF
330
1F
100
AcDbEntity
  8
LAY-10
  6
CONTINUOUS
 62
     7
100
AcDbCircle
 10
362.87012
 20
80.49999999999994
 30
0.0
 40
3.0
100
AcDbArc
 50
90.00000000000001
 51
175.0000000000001
  0
LINE
  5
1B0
330
1F
100
AcDbEntity
  8
LAY-10
  6
CONTINUOUS
 62
     7
100
AcDbLine
 10
374.9999999999999
 20
96.99999999999994
 30
0.0
 11
356.3385239999999
 21
96.99999999999994
 31
0.0
  0
LINE
  5
1B1
330
1F
100
AcDbEntity
  8
LAY-10
  6
CONTINUOUS
 62
     7
100
AcDbLine
 10
370.0
 20
96.99999999999994
 30
0.0
 11
369.5396809999999
 21
91.73853300000002
 31
0.0
  0
LINE
  5
1B2
330
1F
100
AcDbEntity
  8
LAY-10
  6
CONTINUOUS
 62
     7
100
AcDbLine
 10
374.9999999999999
 20
96.99999999999994
 30
0.0
 11
375.460319
 21
91.73853300000002
 31
0.0
  0
ARC
  5
1B3
330
1F
100
AcDbEntity
  8
LAY-10
  6
CONTINUOUS
 62
     7
100
AcDbCircle
 10
402.732051
 20
98.99999999999994
 30
0.0
 40
10.0
100
AcDbArc
 50
270.0
 51
300.0
  0
ARC
  5
1B4
330
1F
100
AcDbEntity
  8
LAY-10
  6
CONTINUOUS
 62
     7
100
AcDbCircle
 10
404.2057709999999
 20
93.5
 30
0.0
 40
10.0
100
AcDbArc
 50
270.0
 51
300.0000000000008
  0
LINE
  5
1B5
330
1F
100
AcDbEntity
  8
LAY-10
  6
CONTINUOUS
 62
     7
100
AcDbLine
 10
402.732051
 20
89.0
 30
0.0
 11
378.4489029999999
 21
89.0
 31
0.0
  0
LINE
  5
1B6
330
1F
100
AcDbEntity
  8
LAY-10
  6
CONTINUOUS
 62
     7
100
AcDbLine
 10
404.2057709999999
 20
83.49999999999994
 30
0.0
 11
383.958768
 21
83.49999999999994
 31
0.0
  0
LINE
  5
1B7
330
1F
100
AcDbEntity
  8
LAY-10
  6
CONTINUOUS
 62
     7
100
AcDbLine
 10
421.0
 20
98.0
 30
0.0
 11
407.7320509999999
 21
90.33974600000005
 31
0.0
  0
LINE
  5
1B8
330
1F
100
AcDbEntity
  8
LAY-10
  6
CONTINUOUS
 62
     7
100
AcDbLine
 10
423.4999999999999
 20
93.09252299999997
 30
0.0
 11
409.2057709999999
 21
84.83974599999999
 31
0.0
  0
LINE
  5
1B9
330
1F
100
AcDbEntity
  8
LAY-10
  6
CONTINUOUS
 62
     7
100
AcDbLine
 10
424.9999999999999
 20
98.0
 30
0.0
 11
421.0
 21
98.0
 31
0.0
  0
ARC
  5
1BA
330
1F
100
AcDbEntity
  8
LAY-10
  6
CONTINUOUS
 62
     7
100
AcDbCircle
 10
421.9999999999999
 20
95.6905989999999
 30
0.0
 40
3.0
100
AcDbArc
 50
300.0
 51
0.0
  0
LINE
  5
1BB
330
1F
100
AcDbEntity
  8
LAY-10
  6
CONTINUOUS
 62
     7
100
AcDbLine
 10
424.9999999999999
 20
98.0
 30
0.0
 11
424.9999999999999
 21
95.6905989999999
 31
0.0
  0
LINE
  5
1BC
330
1F
100
AcDbEntity
  8
LAY-10
  6
CONTINUOUS
 62
     7
100
AcDbLine
 10
224.5
 20
113.0
 30
0.0
 11
223.81047
 21
99.84299199999998
 31
0.0
  0
LINE
  5
1BD
330
1F
100
AcDbEntity
  8
LAY-10
  6
CONTINUOUS
 62
     7
100
AcDbLine
 10
230.5
 20
113.0
 30
0.0
 11
232.50521
 21
74.73831999999999
 31
0.0
  0
ARC
  5
1BE
330
1F
100
AcDbEntity
  8
LAY-10
  6
CONTINUOUS
 62
     7
100
AcDbCircle
 10
237.4983569999999
 20
74.99999999999994
 30
0.0
 40
5.0
100
AcDbArc
 50
182.9999999999991
 51
270.0
  0
ARC
  5
1BF
330
1F
100
AcDbEntity
  8
LAY-10
  6
CONTINUOUS
 62
     7
100
AcDbCircle
 10
218.49739
 20
93.99999999999994
 30
0.0
 40
5.0
100
AcDbArc
 50
270.0
 51
357.000000000001
  0
LINE
  5
1C0
330
1F
100
AcDbEntity
  8
LAY-10
  6
CONTINUOUS
 62
     7
100
AcDbLine
 10
223.81047
 20
99.84299199999998
 30
0.0
 11
223.490538
 21
93.73831999999993
 31
0.0
  0
LINE
  5
1C1
330
1F
100
AcDbEntity
  8
LAY-10
  6
CONTINUOUS
 62
     7
100
AcDbLine
 10
356.1895289999999
 20
99.84299199999998
 30
0.0
 11
356.509462
 21
93.73831999999993
 31
0.0
  0
LINE
  5
1C2
330
1F
100
AcDbEntity
  8
LAY-10
  6
CONTINUOUS
 62
     7
100
AcDbLine
 10
355.4999999999999
 20
113.0
 30
0.0
 11
355.7391049999999
 21
108.437597
 31
0.0
  0
LINE
  5
1C3
330
1F
100
AcDbEntity
  8
LAY-10
  6
CONTINUOUS
 62
     7
100
AcDbLine
 10
347.1499670000001
 20
113.0
 30
0.0
 11
355.4999999999999
 21
113.0
 31
0.0
  0
LINE
  5
1C4
330
1F
100
AcDbEntity
  8
LAY-10
  6
CONTINUOUS
 62
     7
100
AcDbLine
 10
349.4999999999999
 20
113.0
 30
0.0
 11
349.260894
 21
108.437597
 31
0.0
  0
ARC
  5
1C5
330
1F
100
AcDbEntity
  8
LAY-10
  6
CONTINUOUS
 62
     7
100
AcDbCircle
 10
361.5026089999998
 20
93.99999999999994
 30
0.0
 40
5.0
100
AcDbArc
 50
182.9999999999991
 51
270.0
  0
LINE
  5
1C6
330
1F
100
AcDbEntity
  8
LAY-10
  6
CONTINUOUS
 62
     7
100
AcDbLine
 10
366.551097
 20
89.0
 30
0.0
 11
361.5026089999998
 21
89.0
 31
0.0
  0
LINE
  5
1C7
330
1F
100
AcDbEntity
  8
LAY-10
  6
CONTINUOUS
 62
     7
100
AcDbLine
 10
348.9988559999999
 20
103.437597
 30
0.0
 11
347.4947899999999
 21
74.73831999999999
 31
0.0
  0
LINE
  5
1C8
330
1F
100
AcDbEntity
  8
LAY-10
  6
CONTINUOUS
 62
     7
100
AcDbLine
 10
356.001144
 20
103.437597
 30
0.0
 11
356.1895289999999
 21
99.84299199999998
 31
0.0
  0
LINE
  5
1C9
330
1F
100
AcDbEntity
  8
LAY-10
  6
CONTINUOUS
 62
     7
100
AcDbLine
 10
233.5
 20
182.0
 30
0.0
 11
233.5
 21
160.727197
 31
0.0
  0
LINE
  5
1CA
330
1F
100
AcDbEntity
  8
LAY-10
  6
CONTINUOUS
 62
     7
100
AcDbLine
 10
237.349967
 20
92.99999999999994
 30
0.0
 11
237.349967
 21
183.0
 31
0.0
  0
LINE
  5
1CB
330
1F
100
AcDbEntity
  8
LAY-10
  6
CONTINUOUS
 62
     7
100
AcDbLine
 10
232.849967
 20
160.0971600000001
 30
0.0
 11
232.849967
 21
131.0
 31
0.0
  0
LINE
  5
1CC
330
1F
100
AcDbEntity
  8
LAY-10
  6
CONTINUOUS
 62
     7
100
AcDbLine
 10
232.849967
 20
92.99999999999994
 30
0.0
 11
232.849967
 21
131.0
 31
0.0
  0
LINE
  5
1CD
330
1F
100
AcDbEntity
  8
LAY-10
  6
CONTINUOUS
 62
     7
100
AcDbLine
 10
234.5
 20
161.696435
 30
0.0
 11
232.849967
 21
160.0971600000001
 31
0.0
  0
LINE
  5
1CE
330
1F
100
AcDbEntity
  8
LAY-10
  6
CONTINUOUS
 62
     7
100
AcDbLine
 10
238.5
 20
183.0
 30
0.0
 11
233.5
 21
183.0
 31
0.0
  0
LINE
  5
1CF
330
1F
100
AcDbEntity
  8
LAY-10
  6
CONTINUOUS
 62
     7
100
AcDbLine
 10
346.4999999999999
 20
183.0
 30
0.0
 11
234.5
 21
183.0
 31
0.0
  0
LINE
  5
1D0
330
1F
100
AcDbEntity
  8
LAY-10
  6
CONTINUOUS
 62
     7
100
AcDbLine
 10
234.5
 20
183.0
 30
0.0
 11
233.5
 21
182.0
 31
0.0
  0
LINE
  5
1D1
330
1F
100
AcDbEntity
  8
LAY-10
  6
CONTINUOUS
 62
     7
100
AcDbLine
 10
233.5
 20
183.0
 30
0.0
 11
233.5
 21
180.0
 31
0.0
  0
LINE
  5
1D2
330
1F
100
AcDbEntity
  8
LAY-10
  6
CONTINUOUS
 62
     7
100
AcDbLine
 10
346.4999999999999
 20
182.0
 30
0.0
 11
346.4999999999999
 21
160.727197
 31
0.0
  0
LINE
  5
1D3
330
1F
100
AcDbEntity
  8
LAY-10
  6
CONTINUOUS
 62
     7
100
AcDbLine
 10
342.6499670000001
 20
92.99999999999994
 30
0.0
 11
342.6499670000001
 21
183.0
 31
0.0
  0
LINE
  5
1D4
330
1F
100
AcDbEntity
  8
LAY-10
  6
CONTINUOUS
 62
     7
100
AcDbLine
 10
289.9999669999999
 20
92.99999999999994
 30
0.0
 11
347.1499670000001
 21
92.99999999999994
 31
0.0
  0
LINE
  5
1D5
330
1F
100
AcDbEntity
  8
LAY-10
  6
CONTINUOUS
 62
     7
100
AcDbLine
 10
344.9999999999999
 20
92.99999999999994
 30
0.0
 11
232.849967
 21
92.99999999999994
 31
0.0
  0
LINE
  5
1D6
330
1F
100
AcDbEntity
  8
LAY-10
  6
CONTINUOUS
 62
     7
100
AcDbLine
 10
347.1499670000001
 20
160.0971600000001
 30
0.0
 11
347.1499670000001
 21
131.0
 31
0.0
  0
LINE
  5
1D7
330
1F
100
AcDbEntity
  8
LAY-10
  6
CONTINUOUS
 62
     7
100
AcDbLine
 10
347.1499670000001
 20
92.99999999999994
 30
0.0
 11
347.1499670000001
 21
131.0
 31
0.0
  0
LINE
  5
1D8
330
1F
100
AcDbEntity
  8
LAY-10
  6
CONTINUOUS
 62
     7
100
AcDbLine
 10
345.4999999999999
 20
161.696435
 30
0.0
 11
347.150032
 21
160.0971600000001
 31
0.0
  0
LINE
  5
1D9
330
1F
100
AcDbEntity
  8
LAY-10
  6
CONTINUOUS
 62
     7
100
AcDbLine
 10
345.4999999999999
 20
183.0
 30
0.0
 11
346.4999999999999
 21
182.0
 31
0.0
  0
LINE
  5
1DA
330
1F
100
AcDbEntity
  8
LAY-10
  6
CONTINUOUS
 62
     7
100
AcDbLine
 10
346.4999999999999
 20
183.0
 30
0.0
 11
346.4999999999999
 21
180.0
 31
0.0
  0
LINE
  5
1DB
330
1F
100
AcDbEntity
  8
LAY-10
  6
CONTINUOUS
 62
     7
100
AcDbLine
 10
289.9999999999999
 20
69.99999999999994
 30
0.0
 11
237.349967
 21
69.99999999999994
 31
0.0
  0
LINE
  5
1DC
330
1F
100
AcDbEntity
  8
LAY-10
  6
CONTINUOUS
 62
     7
100
AcDbLine
 10
234.5167414903226
 20
49.00000007103733
 30
0.0
 11
235.1906260040759
 21
70.56441913043483
 31
0.0
  0
LINE
  5
1DD
330
1F
100
AcDbEntity
  8
LAY-10
  6
CONTINUOUS
 62
     7
100
AcDbLine
 10
344.8093739999999
 20
70.56441899999999
 30
0.0
 11
345.4832586071167
 21
48.99999695301193
 31
0.0
  0
LINE
  5
1DE
330
1F
100
AcDbEntity
  8
LAY-10
  6
CONTINUOUS
 62
     7
100
AcDbLine
 10
234.5
 20
183.0
 30
0.0
 11
234.5
 21
161.696435
 31
0.0
  0
LINE
  5
1DF
330
1F
100
AcDbEntity
  8
LAY-10
  6
CONTINUOUS
 62
     7
100
AcDbLine
 10
345.4999999999999
 20
183.0
 30
0.0
 11
345.4999999999999
 21
161.696435
 31
0.0
  0
LINE
  5
1E0
330
1F
100
AcDbEntity
  8
LAY-10
  6
CONTINUOUS
 62
     7
100
AcDbLine
 10
233.4850032333573
 20
47.99999999999994
 30
0.0
 11
234.2110179999999
 21
71.23258700000002
 31
0.0
  0
LINE
  5
1E1
330
1F
100
AcDbEntity
  8
LAY-10
  6
CONTINUOUS
 62
     7
100
AcDbLine
 10
346.5149967666417
 20
47.99999999999994
 30
0.0
 11
345.788982
 21
71.23258700000002
 31
0.0
  0
LINE
  5
1E2
330
1F
100
AcDbEntity
  8
LAY-10
  6
CONTINUOUS
 62
     7
100
AcDbLine
 10
345.4832587666417
 20
49.0
 30
0.0
 11
346.5149967666417
 21
47.99999999999994
 31
0.0
  0
LINE
  5
1E3
330
1F
100
AcDbEntity
  8
LAY-10
  6
CONTINUOUS
 62
     7
100
AcDbLine
 10
234.5167381138111
 20
49.0
 30
0.0
 11
233.4850001138111
 21
47.99999999999994
 31
0.0
  0
LINE
  5
1E4
330
1F
100
AcDbEntity
  8
LAY-10
  6
CONTINUOUS
 62
     7
100
AcDbLine
 10
234.5167382902777
 20
49.00000017103815
 30
0.0
 11
345.4832618071605
 21
49.00000017103815
 31
0.0
  0
LINE
  5
1E5
330
1F
100
AcDbEntity
  8
LAY-10
  6
CONTINUOUS
 62
     7
100
AcDbLine
 10
421.0
 20
98.0
 30
0.0
 11
356.3385242219441
 21
98.0
 31
0.0
  0
LINE
  5
1E6
330
1F
100
AcDbEntity
  8
LAY-10
  6
CONTINUOUS
 62
     7
100
AcDbLine
 10
159.0
 20
98.0
 30
0.0
 11
223.81047
 21
98.0
 31
0.0
  0
ARC
  5
1E7
330
1F
100
AcDbEntity
  8
LAY-10
  6
CONTINUOUS
 62
     7
100
AcDbCircle
 10
289.9999999999999
 20
410.0
 30
0.0
 40
67.5
100
AcDbArc
 50
122.5473181825703
 51
289.3375879973914
  0
ARC
  5
1E8
330
1F
100
AcDbEntity
  8
LAY-10
  6
CONTINUOUS
 62
     7
100
AcDbCircle
 10
289.9999999999999
 20
410.0
 30
0.0
 40
67.5
100
AcDbArc
 50
119.9999999169744
 51
122.5473181825703
  0
ARC
  5
1E9
330
1F
100
AcDbEntity
  8
LAY-10
  6
CONTINUOUS
 62
     7
100
AcDbCircle
 10
289.9999999999999
 20
410.0000000000001
 30
0.0
 40
67.49999999999997
100
AcDbArc
 50
289.3375879973914
 51
70.46836528261672
  0
LINE
  5
1EA
330
1F
100
AcDbEntity
  8
LAY-10
  6
CONTINUOUS
 62
     7
100
AcDbLine
 10
222.4999999999999
 20
200.0
 30
0.0
 11
357.4999999999999
 21
200.0
 31
0.0
  0
LINE
  5
1EB
330
1F
100
AcDbEntity
  8
LAY-10
  6
CONTINUOUS
 62
     7
100
AcDbLine
 10
270.9999999999999
 20
196.0
 30
0.0
 11
308.9999999999999
 21
196.0
 31
0.0
  0
LINE
  5
1EC
330
1F
100
AcDbEntity
  8
LAY-10
  6
CONTINUOUS
 62
     7
100
AcDbLine
 10
233.4999999999999
 20
189.0
 30
0.0
 11
346.4999999999999
 21
189.0
 31
0.0
  0
LINE
  5
1ED
330
1F
100
AcDbEntity
  8
LAY-10
  6
CONTINUOUS
 62
     7
100
AcDbLine
 10
233.2499999999999
 20
187.0
 30
0.0
 11
346.4999999999999
 21
187.0
 31
0.0
  0
LINE
  5
1EE
330
1F
100
AcDbEntity
  8
LAY-10
  6
CONTINUOUS
 62
     7
100
AcDbLine
 10
234.4999999999999
 20
184.0
 30
0.0
 11
345.4999999999999
 21
184.0
 31
0.0
  0
LINE
  5
1EF
330
1F
100
AcDbEntity
  8
LAY-10
  6
CONTINUOUS
 62
     7
100
AcDbLine
 10
237.4983569999999
 20
69.99999999999994
 30
0.0
 11
342.5016430000001
 21
69.99999999999994
 31
0.0
  0
LINE
  5
1F0
330
1F
100
AcDbEntity
  8
LAY-10
  6
CONTINUOUS
 62
     7
100
AcDbLine
 10
226.9999999999999
 20
47.99999999999994
 30
0.0
 11
351.9999999999999
 21
47.99999999999994
 31
0.0
  0
LINE
  5
1F1
330
1F
100
AcDbEntity
  8
LAY-10
  6
CONTINUOUS
 62
     7
100
AcDbLine
 10
347.6499669999763
 20
108.9375970001434
 30
0.0
 11
347.649967000017
 21
102.9375970001434
 31
0.0
  0
LINE
  5
1F2
330
1F
100
AcDbEntity
  8
LAY-10
  6
CONTINUOUS
 62
     7
100
AcDbLine
 10
347.1499670000136
 20
103.4375970001399
 30
0.0
 11
347.649967000017
 21
102.9375970001434
 31
0.0
  0
LINE
  5
1F3
330
1F
100
AcDbEntity
  8
LAY-10
  6
CONTINUOUS
 62
     7
100
AcDbLine
 10
347.1499669999799
 20
108.4375970001399
 30
0.0
 11
347.6499669999763
 21
108.9375970001434
 31
0.0
  0
LINE
  5
1F4
330
1F
100
AcDbEntity
  8
LAY-10
  6
CONTINUOUS
 62
     7
100
AcDbLine
 10
363.1499669999802
 20
99.93759700014984
 30
0.0
 11
363.1499669999802
 21
111.9375970001498
 31
0.0
  0
LINE
  5
1F5
330
1F
100
AcDbEntity
  8
LAY-10
  6
CONTINUOUS
 62
     7
100
AcDbLine
 10
363.1499669999802
 20
111.9375970001498
 30
0.0
 11
366.7099669999801
 21
111.9375970001498
 31
0.0
  0
LINE
  5
1F6
330
1F
100
AcDbEntity
  8
LAY-10
  6
CONTINUOUS
 62
     7
100
AcDbLine
 10
363.1499669999802
 20
99.93759700014984
 30
0.0
 11
366.7099669999801
 21
99.93759700014984
 31
0.0
  0
ARC
  5
1F7
330
1F
100
AcDbEntity
  8
LAY-10
  6
CONTINUOUS
 62
     7
100
AcDbCircle
 10
364.3731488181619
 20
110.4375970001498
 30
0.0
 40
2.776818181818187
100
AcDbArc
 50
327.3036569052982
 51
32.69634309470211
  0
ARC
  5
1F8
330
1F
100
AcDbEntity
  8
LAY-10
  6
CONTINUOUS
 62
     7
100
AcDbCircle
 10
356.7026942727074
 20
105.9375970001498
 30
0.0
 40
10.44727272727273
100
AcDbArc
 50
343.3122168319341
 51
16.68778316806589
  0
ARC
  5
1F9
330
1F
100
AcDbEntity
  8
LAY-10
  6
CONTINUOUS
 62
     7
100
AcDbCircle
 10
364.3731488181619
 20
101.4375970001498
 30
0.0
 40
2.776818181818183
100
AcDbArc
 50
327.3036569052982
 51
32.69634309470211
  0
LINE
  5
1FA
330
1F
100
AcDbEntity
  8
LAY-10
  6
CONTINUOUS
 62
     7
100
AcDbLine
 10
367.1499669999802
 20
110.4375970001498
 30
0.0
 11
367.1499669999802
 21
101.4375970001498
 31
0.0
  0
LINE
  5
1FB
330
1F
100
AcDbEntity
  8
LAY-10
  6
CONTINUOUS
 62
     7
100
AcDbLine
 10
362.5499669999803
 20
102.9375970001498
 30
0.0
 11
362.5499669999803
 21
108.9375970001498
 31
0.0
  0
LINE
  5
1FC
330
1F
100
AcDbEntity
  8
LAY-10
  6
CONTINUOUS
 62
     7
100
AcDbLine
 10
362.5499669999896
 20
108.4375970002185
 30
0.0
 11
347.1499669999799
 21
108.4375970001399
 31
0.0
  0
LINE
  5
1FD
330
1F
100
AcDbEntity
  8
LAY-10
  6
CONTINUOUS
 62
     7
100
AcDbLine
 10
362.5499669999905
 20
103.4375970002185
 30
0.0
 11
347.1499670000136
 21
103.4375970001399
 31
0.0
  0
LINE
  5
1FE
330
1F
100
AcDbEntity
  8
LAY-10
  6
CONTINUOUS
 62
     7
100
AcDbLine
 10
366.7099669999901
 20
102.9375970002395
 30
0.0
 11
347.649967000017
 21
102.9375970001434
 31
0.0
  0
LINE
  5
1FF
330
1F
100
AcDbEntity
  8
LAY-10
  6
CONTINUOUS
 62
     7
100
AcDbLine
 10
366.7099669999901
 20
108.9375970002395
 30
0.0
 11
347.6499669999763
 21
108.9375970001434
 31
0.0
  0
LINE
  5
200
330
1F
100
AcDbEntity
  8
LAY-10
  6
CONTINUOUS
 62
     7
100
AcDbLine
 10
362.54996699999
 20
103.43759700022
 30
0.0
 11
363.1499669999902
 21
102.93759700024
 31
0.0
  0
LINE
  5
201
330
1F
100
AcDbEntity
  8
LAY-10
  6
CONTINUOUS
 62
     7
100
AcDbLine
 10
362.54996699999
 20
108.43759700022
 30
0.0
 11
363.1499669999902
 21
108.93759700024
 31
0.0
  0
LINE
  5
202
330
1F
100
AcDbEntity
  8
LAY-10
  6
CONTINUOUS
 62
     7
100
AcDbLine
 10
363.1499669999799
 20
403.9999999999998
 30
0.0
 11
363.1499669999799
 21
415.9999999999998
 31
0.0
  0
LINE
  5
203
330
1F
100
AcDbEntity
  8
LAY-10
  6
CONTINUOUS
 62
     7
100
AcDbLine
 10
363.1499669999799
 20
415.9999999999998
 30
0.0
 11
366.7099669999798
 21
415.9999999999998
 31
0.0
  0
LINE
  5
204
330
1F
100
AcDbEntity
  8
LAY-10
  6
CONTINUOUS
 62
     7
100
AcDbLine
 10
363.1499669999799
 20
403.9999999999998
 30
0.0
 11
366.7099669999798
 21
403.9999999999998
 31
0.0
  0
ARC
  5
205
330
1F
100
AcDbEntity
  8
LAY-10
  6
CONTINUOUS
 62
     7
100
AcDbCircle
 10
364.3731488181616
 20
414.4999999999998
 30
0.0
 40
2.776818181818187
100
AcDbArc
 50
327.3036569052982
 51
32.69634309470211
  0
ARC
  5
206
330
1F
100
AcDbEntity
  8
LAY-10
  6
CONTINUOUS
 62
     7
100
AcDbCircle
 10
356.7026942727071
 20
409.9999999999998
 30
0.0
 40
10.44727272727273
100
AcDbArc
 50
343.3122168319341
 51
16.68778316806589
  0
ARC
  5
207
330
1F
100
AcDbEntity
  8
LAY-10
  6
CONTINUOUS
 62
     7
100
AcDbCircle
 10
364.3731488181616
 20
405.4999999999998
 30
0.0
 40
2.776818181818183
100
AcDbArc
 50
327.3036569052982
 51
32.69634309470211
  0
LINE
  5
208
330
1F
100
AcDbEntity
  8
LAY-10
  6
CONTINUOUS
 62
     7
100
AcDbLine
 10
367.1499669999799
 20
414.4999999999998
 30
0.0
 11
367.1499669999799
 21
405.4999999999998
 31
0.0
  0
LINE
  5
209
330
1F
100
AcDbEntity
  8
LAY-10
  6
CONTINUOUS
 62
     7
100
AcDbLine
 10
362.54996699998
 20
406.9999999999998
 30
0.0
 11
362.54996699998
 21
412.9999999999998
 31
0.0
  0
LINE
  5
20A
330
1F
100
AcDbEntity
  8
LAY-10
  6
CONTINUOUS
 62
     7
100
AcDbLine
 10
362.5499669999897
 20
407.5000000000699
 30
0.0
 11
363.1499669999899
 21
407.0000000000899
 31
0.0
  0
LINE
  5
20B
330
1F
100
AcDbEntity
  8
LAY-10
  6
CONTINUOUS
 62
     7
100
AcDbLine
 10
362.5499669999897
 20
412.5000000000699
 30
0.0
 11
363.1499669999899
 21
413.0000000000899
 31
0.0
  0
LINE
  5
20C
330
1F
100
AcDbEntity
  8
LAY-10
  6
CONTINUOUS
 62
     7
100
AcDbLine
 10
362.549966999988
 20
412.5000000000684
 30
0.0
 11
357.4536878161576
 21
412.5000000000684
 31
0.0
  0
LINE
  5
20D
330
1F
100
AcDbEntity
  8
LAY-10
  6
CONTINUOUS
 62
     7
100
AcDbLine
 10
366.70996699998
 20
413.0000000000895
 30
0.0
 11
357.433300378963
 21
413.0000000000895
 31
0.0
  0
LINE
  5
20E
330
1F
100
AcDbEntity
  8
LAY-10
  6
CONTINUOUS
 62
     7
100
AcDbLine
 10
362.5499669999915
 20
407.5000000000684
 30
0.0
 11
357.4536878161626
 21
407.5000000000684
 31
0.0
  0
LINE
  5
20F
330
1F
100
AcDbEntity
  8
LAY-10
  6
CONTINUOUS
 62
     7
100
AcDbLine
 10
366.70996699998
 20
407.0000000000895
 30
0.0
 11
357.433300378971
 21
407.0000000000895
 31
0.0
  0
LINE
  5
210
330
1F
100
AcDbEntity
  8
LAY-10
  6
CONTINUOUS
 62
     7
100
AcDbLine
 10
258.6211689227169
 20
476.3497297079761
 30
0.0
 11
248.2288640773036
 21
470.3497297079761
 31
0.0
  0
LINE
  5
211
330
1F
100
AcDbEntity
  8
LAY-10
  6
CONTINUOUS
 62
     7
100
AcDbLine
 10
248.2288640773036
 20
470.3497297079761
 30
0.0
 11
246.4488640773037
 21
473.4327801454486
 31
0.0
  0
LINE
  5
212
330
1F
100
AcDbEntity
  8
LAY-10
  6
CONTINUOUS
 62
     7
100
AcDbLine
 10
258.6211689227169
 20
476.3497297079761
 30
0.0
 11
256.8411689227169
 21
479.4327801454486
 31
0.0
  0
ARC
  5
213
330
1F
100
AcDbEntity
  8
LAY-10
  6
CONTINUOUS
 62
     7
100
AcDbCircle
 10
248.9163112738894
 20
472.1590362359686
 30
0.0
 40
2.776818181818187
100
AcDbArc
 50
87.3036569052981
 51
152.6963430947021
  0
ARC
  5
214
330
1F
100
AcDbEntity
  8
LAY-10
  6
CONTINUOUS
 62
     7
100
AcDbCircle
 10
256.6486528636466
 20
467.7662277410312
 30
0.0
 40
10.44727272727273
100
AcDbArc
 50
103.3122168319342
 51
136.6877831680659
  0
ARC
  5
215
330
1F
100
AcDbEntity
  8
LAY-10
  6
CONTINUOUS
 62
     7
100
AcDbCircle
 10
256.7105399079494
 20
476.6590362359686
 30
0.0
 40
2.776818181818183
100
AcDbArc
 50
87.3036569052981
 51
152.6963430947021
  0
LINE
  5
216
330
1F
100
AcDbEntity
  8
LAY-10
  6
CONTINUOUS
 62
     7
100
AcDbLine
 10
247.5279021829803
 20
474.5638313231138
 30
0.0
 11
255.3221308170403
 21
479.0638313231138
 31
0.0
  0
LINE
  5
217
330
1F
100
AcDbEntity
  8
LAY-10
  6
CONTINUOUS
 62
     7
100
AcDbLine
 10
256.3230927113635
 20
474.3301144657055
 30
0.0
 11
251.1269402886569
 21
471.3301144657055
 31
0.0
  0
LINE
  5
218
330
1F
100
AcDbEntity
  8
LAY-10
  6
CONTINUOUS
 62
     7
100
AcDbLine
 10
255.8900800094057
 20
474.0801144656789
 30
0.0
 11
256.0230927112805
 21
474.8497297079397
 31
0.0
  0
LINE
  5
219
330
1F
100
AcDbEntity
  8
LAY-10
  6
CONTINUOUS
 62
     7
100
AcDbLine
 10
251.5599529904835
 20
471.5801144656789
 30
0.0
 11
250.8269402885739
 21
471.8497297079397
 31
0.0
  0
LINE
  5
21A
330
1F
100
AcDbEntity
  8
LAY-10
  6
CONTINUOUS
 62
     7
100
AcDbLine
 10
251.5599529904857
 20
471.5801144656781
 30
0.0
 11
254.1080925824008
 21
467.1666072277031
 31
0.0
  0
LINE
  5
21B
330
1F
100
AcDbEntity
  8
LAY-10
  6
CONTINUOUS
 62
     7
100
AcDbLine
 10
249.0469402885792
 20
474.9327801454039
 30
0.0
 11
253.6852735990877
 21
466.8989511891641
 31
0.0
  0
LINE
  5
21C
330
1F
100
AcDbEntity
  8
LAY-10
  6
CONTINUOUS
 62
     7
100
AcDbLine
 10
255.8900800094061
 20
474.0801144656812
 30
0.0
 11
258.4382196013205
 21
469.6666072277075
 31
0.0
  0
LINE
  5
21D
330
1F
100
AcDbEntity
  8
LAY-10
  6
CONTINUOUS
 62
     7
100
AcDbLine
 10
254.2430927112858
 20
477.9327801454039
 30
0.0
 11
258.8814260217904
 21
469.8989511891709
 31
0.0
  0
LINE
  5
21E
330
1F
100
AcDbEntity
  8
LAY-10
  6
CONTINUOUS
 62
     7
100
AcDbLine
 10
248.2288640773032
 20
349.6502702920242
 30
0.0
 11
258.6211689227164
 21
343.6502702920242
 31
0.0
  0
LINE
  5
21F
330
1F
100
AcDbEntity
  8
LAY-10
  6
CONTINUOUS
 62
     7
100
AcDbLine
 10
258.6211689227164
 20
343.6502702920242
 30
0.0
 11
256.8411689227165
 21
340.5672198545516
 31
0.0
  0
LINE
  5
220
330
1F
100
AcDbEntity
  8
LAY-10
  6
CONTINUOUS
 62
     7
100
AcDbLine
 10
248.2288640773032
 20
349.6502702920242
 30
0.0
 11
246.4488640773032
 21
346.5672198545516
 31
0.0
  0
ARC
  5
221
330
1F
100
AcDbEntity
  8
LAY-10
  6
CONTINUOUS
 62
     7
100
AcDbCircle
 10
256.7105399079489
 20
343.3409637640316
 30
0.0
 40
2.776818181818187
100
AcDbArc
 50
207.3036569052981
 51
272.6963430947022
  0
ARC
  5
222
330
1F
100
AcDbEntity
  8
LAY-10
  6
CONTINUOUS
 62
     7
100
AcDbCircle
 10
256.6486528636462
 20
352.233772258969
 30
0.0
 40
10.44727272727273
100
AcDbArc
 50
223.3122168319341
 51
256.6877831680659
  0
ARC
  5
223
330
1F
100
AcDbEntity
  8
LAY-10
  6
CONTINUOUS
 62
     7
100
AcDbCircle
 10
248.916311273889
 20
347.8409637640316
 30
0.0
 40
2.776818181818183
100
AcDbArc
 50
207.3036569052981
 51
272.6963430947022
  0
LINE
  5
224
330
1F
100
AcDbEntity
  8
LAY-10
  6
CONTINUOUS
 62
     7
100
AcDbLine
 10
255.3221308170398
 20
340.9361686768864
 30
0.0
 11
247.5279021829799
 21
345.4361686768864
 31
0.0
  0
LINE
  5
225
330
1F
100
AcDbEntity
  8
LAY-10
  6
CONTINUOUS
 62
     7
100
AcDbLine
 10
251.1269402886565
 20
348.6698855342948
 30
0.0
 11
256.3230927113631
 21
345.6698855342948
 31
0.0
  0
LINE
  5
226
330
1F
100
AcDbEntity
  8
LAY-10
  6
CONTINUOUS
 62
     7
100
AcDbLine
 10
251.5599529906045
 20
348.4198855342513
 30
0.0
 11
250.8269402887296
 21
348.1502702919705
 31
0.0
  0
LINE
  5
227
330
1F
100
AcDbEntity
  8
LAY-10
  6
CONTINUOUS
 62
     7
100
AcDbLine
 10
255.8900800095267
 20
345.9198855342513
 30
0.0
 11
256.0230927114362
 21
345.1502702919705
 31
0.0
  0
LINE
  5
228
330
1F
100
AcDbEntity
  8
LAY-10
  6
CONTINUOUS
 62
     7
100
AcDbLine
 10
255.8900800095263
 20
345.9198855342535
 30
0.0
 11
258.4382196014416
 21
350.3333927722285
 31
0.0
  0
LINE
  5
229
330
1F
100
AcDbEntity
  8
LAY-10
  6
CONTINUOUS
 62
     7
100
AcDbLine
 10
254.2430927114408
 20
342.0672198545067
 30
0.0
 11
258.8814260219493
 21
350.1010488107465
 31
0.0
  0
LINE
  5
22A
330
1F
100
AcDbEntity
  8
LAY-10
  6
CONTINUOUS
 62
     7
100
AcDbLine
 10
251.5599529906024
 20
348.4198855342505
 30
0.0
 11
254.1080925825168
 21
352.8333927722241
 31
0.0
  0
LINE
  5
22B
330
1F
100
AcDbEntity
  8
LAY-10
  6
CONTINUOUS
 62
     7
100
AcDbLine
 10
249.0469402887341
 20
345.0672198545067
 30
0.0
 11
253.6852735992387
 21
353.1010488107396
 31
0.0
  0
LINE
  5
22C
330
1F
100
AcDbEntity
  8
LAY-10
  6
CENTER
 62
     2
100
AcDbLine
 10
264.9999999999999
 20
201.783972
 30
0.0
 11
264.9999999999999
 21
192.658148
 31
0.0
  0
LINE
  5
22D
330
1F
100
AcDbEntity
  8
LAY-10
  6
CENTER
 62
     2
100
AcDbLine
 10
314.9999999999999
 20
201.783972
 30
0.0
 11
314.9999999999999
 21
192.658148
 31
0.0
  0
LINE
  5
22E
330
1F
100
AcDbEntity
  8
LAY-10
  6
CENTER
 62
     2
100
AcDbLine
 10
264.9999999999999
 20
415.79791
 30
0.0
 11
264.9999999999999
 21
404.202091
 31
0.0
  0
LINE
  5
22F
330
1F
100
AcDbEntity
  8
LAY-10
  6
CENTER
 62
     2
100
AcDbLine
 10
314.9999999999999
 20
415.79791
 30
0.0
 11
314.9999999999999
 21
404.202091
 31
0.0
  0
LINE
  5
230
330
1F
100
AcDbEntity
  8
LAY-10
  6
CENTER
 62
     2
100
AcDbLine
 10
149.6
 20
410.0
 30
0.0
 11
430.2999999999999
 21
410.0
 31
0.0
  0
LINE
  5
231
330
1F
100
AcDbEntity
  8
LAY-10
  6
CENTER
 62
     2
100
AcDbLine
 10
289.9999999999999
 20
548.5999999999998
 30
0.0
 11
289.9999999999999
 21
270.2
 31
0.0
  0
LINE
  5
232
330
1F
100
AcDbEntity
  8
LAY-10
  6
CENTER
 62
     2
100
AcDbLine
 10
343.82327
 20
75.95052699999997
 30
0.0
 11
361.5093979999999
 21
93.63665499999996
 31
0.0
  0
LINE
  5
233
330
1F
100
AcDbEntity
  8
LAY-10
  6
CENTER
 62
     2
100
AcDbLine
 10
289.9999999999999
 20
208.3059599999999
 30
0.0
 11
289.9999999999999
 21
42.40595999999994
 31
0.0
  0
LINE
  5
234
330
1F
100
AcDbEntity
  8
LAY-10
  6
CENTER
 62
     2
100
AcDbLine
 10
344.9348199999999
 20
105.937597
 30
0.0
 11
368.56
 21
105.937597
 31
0.0
  0
LINE
  5
235
330
1F
100
AcDbEntity
  8
LAY-10
  6
CENTER
 62
     2
100
AcDbLine
 10
256.9851671658448
 20
467.1833680354397
 30
0.0
 11
250.9514057740998
 21
477.634149592069
 31
0.0
  0
LINE
  5
236
330
1F
100
AcDbEntity
  8
LAY-10
  6
CENTER
 62
     2
100
AcDbLine
 10
256.8649040971207
 20
352.6083308773185
 30
0.0
 11
250.8872898698591
 21
342.2547995521713
 31
0.0
  0
DIMENSION
  5
238
330
1F
100
AcDbEntity
  8
LAY-20
  6
CONTINUOUS
 62
     4
100
AcDbDimension
  2
*D15
 10
445.0
 20
98.00000000000007
 30
0.0
 11
440.0
 21
73.00000000000009
 31
0.0
 70
   160
  3
ISO-25
100
AcDbAlignedDimension
 13
351.9999999999999
 23
48.00000000000009
 33
0.0
 14
425.0
 24
98.00000000000007
 34
0.0
 50
90.0
100
AcDbRotatedDimension
1001
ACAD
1000
DSTYLE
1002
{
1070
   270
1070
     2
1070
     6
1000
EX_BNORM
1070
     7
1000
EX_BNORM
1070
    41
1040
5.0
1070
    42
1040
3.0
1070
    44
1040
3.0
1070
    73
1070
     0
1070
    74
1070
     0
1070
    75
1070
     0
1070
    76
1070
     0
1070
    77
1070
     1
1070
    78
1070
     8
1070
   140
1040
6.2362208
1070
   147
1040
0.0
1070
   173
1070
     1
1070
   176
1070
     4
1070
   177
1070
     4
1070
   178
1070
     7
1070
   271
1070
     1
1070
   277
1070
     2
1070
   279
1070
     2
1070
   280
1070
     0
1070
   287
1070
     5
1070
   340
1005
237
1002
}
  0
LINE
  5
246
330
1F
100
AcDbEntity
  8
LAY-20
  6
CONTINUOUS
 62
     4
100
AcDbLine
 10
389.6000000000001
 20
111.9059600000001
 30
0.0
 11
408.3000000000001
 21
111.9059600000001
 31
0.0
  0
DIMENSION
  5
247
330
1F
100
AcDbEntity
  8
LAY-20
  6
CONTINUOUS
 62
     4
100
AcDbDimension
  2
*D16
 10
445.0
 20
172.0000000000002
 30
0.0
 11
440.0
 21
186.0000000000002
 31
0.0
 70
   160
  3
ISO-25
100
AcDbAlignedDimension
 13
357.4999999999999
 23
200.0000000000002
 33
0.0
 14
349.4999999999999
 24
172.0000000000002
 34
0.0
 50
90.0
100
AcDbRotatedDimension
1001
ACAD
1000
DSTYLE
1002
{
1070
   270
1070
     2
1070
     6
1000
EX_BNORM
1070
     7
1000
EX_BNORM
1070
    41
1040
5.0
1070
    42
1040
3.0
1070
    44
1040
3.0
1070
    73
1070
     0
1070
    74
1070
     0
1070
    75
1070
     0
1070
    76
1070
     0
1070
    77
1070
     1
1070
    78
1070
     8
1070
   140
1040
6.2362208
1070
   147
1040
0.0
1070
   173
1070
     1
1070
   176
1070
     4
1070
   177
1070
     4
1070
   178
1070
     7
1070
   271
1070
     1
1070
   277
1070
     2
1070
   279
1070
     2
1070
   280
1070
     0
1070
   287
1070
     5
1070
   340
1005
237
1002
}
  0
LINE
  5
254
330
1F
100
AcDbEntity
  8
LAY-20
  6
CONTINUOUS
 62
     4
100
AcDbLine
 10
299.0000000000001
 20
220.0000000000002
 30
0.0
 11
312.1
 21
220.0000000000002
 31
0.0
  0
DIMENSION
  5
255
330
1F
100
AcDbEntity
  8
LAY-20
  6
CONTINUOUS
 62
     4
100
AcDbDimension
  2
*D17
 10
134.9999999999999
 20
200.0000000000002
 30
0.0
 11
129.9999999999999
 21
149.0000000000001
 31
0.0
 70
   160
  1
85～110
  3
ISO-25
100
AcDbAlignedDimension
 13
155.0
 23
98.00000000000013
 33
0.0
 14
222.5
 24
200.0000000000002
 34
0.0
 50
90.0
100
AcDbRotatedDimension
1001
ACAD
1000
DSTYLE
1002
{
1070
   270
1070
     2
1070
     6
1000
EX_BNORM
1070
     7
1000
EX_BNORM
1070
    41
1040
5.0
1070
    42
1040
3.0
1070
    44
1040
3.0
1070
    73
1070
     0
1070
    74
1070
     0
1070
    75
1070
     0
1070
    76
1070
     0
1070
    77
1070
     1
1070
    78
1070
     8
1070
   140
1040
6.2362208
1070
   147
1040
0.0
1070
   173
1070
     1
1070
   176
1070
     4
1070
   177
1070
     4
1070
   178
1070
     7
1070
   271
1070
     1
1070
   277
1070
     2
1070
   279
1070
     2
1070
   280
1070
     0
1070
   287
1070
     5
1070
   340
1005
237
1002
}
  0
DIMENSION
  5
262
330
1F
100
AcDbEntity
  8
LAY-20
  6
CONTINUOUS
 62
     4
100
AcDbDimension
  2
*D18
 10
346.51499676664
 20
28.0
 30
0.0
 11
290.00000004872
 21
33.0
 31
0.0
 70
   160
  1
Rｃ4（<>）
  3
ISO-25
100
AcDbAlignedDimension
 13
233.4850033308
 23
48.000003118024
 33
0.0
 14
346.51499676664
 24
48.0
 34
0.0
100
AcDbRotatedDimension
1001
ACAD
1000
DSTYLE
1002
{
1070
   270
1070
     2
1070
     6
1000
EX_BNORM
1070
     7
1000
EX_BNORM
1070
    41
1040
6.0
1070
    42
1040
3.0
1070
    44
1040
3.0
1070
    73
1070
     0
1070
    74
1070
     0
1070
    75
1070
     0
1070
    76
1070
     0
1070
    77
1070
     1
1070
    78
1070
     0
1070
   140
1040
6.2362208
1070
   147
1040
0.0
1070
   173
1070
     1
1070
   176
1070
     4
1070
   177
1070
     4
1070
   178
1070
     7
1070
   271
1070
     1
1070
   277
1070
     2
1070
   279
1070
     2
1070
   280
1070
     0
1070
   287
1070
     5
1070
   340
1005
237
1002
}
  0
DIMENSION
  5
26F
330
1F
100
AcDbEntity
  8
LAY-20
  6
CONTINUOUS
 62
     4
100
AcDbDimension
  2
*D19
 10
425.0
 20
248.0
 30
0.0
 11
290.0
 21
253.0
 31
0.0
 70
   160
  1
%%c<>
  3
ISO-25
100
AcDbAlignedDimension
 13
155.0
 23
98.0
 33
0.0
 14
425.0
 24
98.0
 34
0.0
100
AcDbRotatedDimension
1001
ACAD
1000
DSTYLE
1002
{
1070
   270
1070
     2
1070
     6
1000
EX_BNORM
1070
     7
1000
EX_BNORM
1070
    41
1040
6.0
1070
    42
1040
3.0
1070
    44
1040
3.0
1070
    73
1070
     0
1070
    74
1070
     0
1070
    75
1070
     0
1070
    76
1070
     0
1070
    77
1070
     1
1070
    78
1070
     8
1070
   140
1040
6.2362208
1070
   147
1040
0.0
1070
   173
1070
     1
1070
   176
1070
     4
1070
   177
1070
     4
1070
   178
1070
     7
1070
   271
1070
     1
1070
   277
1070
     2
1070
   279
1070
     2
1070
   280
1070
     0
1070
   287
1070
     5
1070
   340
1005
237
1002
}
  0
DIMENSION
  5
27C
330
1F
100
AcDbEntity
  8
LAY-20
  6
CONTINUOUS
 62
     4
100
AcDbDimension
  2
*D20
 10
357.4999999999999
 20
234.0
 30
0.0
 11
289.9999999999999
 21
239.0
 31
0.0
 70
   160
  1
%%c<>
  3
ISO-25
100
AcDbAlignedDimension
 13
222.4999999999999
 23
200.0
 33
0.0
 14
357.4999999999999
 24
200.0
 34
0.0
100
AcDbRotatedDimension
1001
ACAD
1000
DSTYLE
1002
{
1070
   270
1070
     2
1070
     6
1000
EX_BNORM
1070
     7
1000
EX_BNORM
1070
    41
1040
6.0
1070
    42
1040
3.0
1070
    44
1040
3.0
1070
    73
1070
     0
1070
    74
1070
     0
1070
    75
1070
     0
1070
    76
1070
     0
1070
    77
1070
     1
1070
    78
1070
     8
1070
   140
1040
6.2362208
1070
   147
1040
0.0
1070
   173
1070
     1
1070
   176
1070
     4
1070
   177
1070
     4
1070
   178
1070
     7
1070
   271
1070
     1
1070
   277
1070
     2
1070
   279
1070
     2
1070
   280
1070
     0
1070
   287
1070
     5
1070
   340
1005
237
1002
}
  0
DIMENSION
  5
289
330
1F
100
AcDbEntity
  8
LAY-20
  6
CONTINUOUS
 62
     4
100
AcDbDimension
  2
*D21
 10
299.0
 20
200.0
 30
0.0
 11
305.0199999999999
 21
226.1399999999999
 31
0.0
 70
   160
  3
ISO-25
100
AcDbAlignedDimension
 13
290.0
 23
196.0
 33
0.0
 14
296.76
 24
200.0
 34
0.0
 50
90.0
100
AcDbRotatedDimension
1001
ACAD
1000
DSTYLE
1002
{
1070
   270
1070
     2
1070
     6
1000
EX_BNORM
1070
     7
1000
EX_BNORM
1070
    41
1040
5.0
1070
    42
1040
0.0
1070
    44
1040
0.0
1070
    73
1070
     1
1070
    74
1070
     1
1070
    75
1070
     1
1070
    76
1070
     1
1070
    77
1070
     1
1070
    78
1070
     8
1070
   140
1040
6.2362208
1070
   147
1040
0.0
1070
   173
1070
     1
1070
   176
1070
     4
1070
   177
1070
     4
1070
   178
1070
     7
1070
   271
1070
     1
1070
   277
1070
     2
1070
   279
1070
     2
1070
   280
1070
     0
1070
   287
1070
     5
1070
   340
1005
237
1002
}
  0
DIMENSION
  5
296
330
1F
100
AcDbEntity
  8
LAY-20
  6
CONTINUOUS
 62
     4
100
AcDbDimension
  2
*D22
 10
389.58
 20
89.0
 30
0.0
 11
398.4999999999999
 21
116.82
 31
0.0
 70
   160
  3
ISO-25
100
AcDbAlignedDimension
 13
389.6
 23
83.5
 33
0.0
 14
389.6
 24
89.0
 34
0.0
 50
90.0
100
AcDbRotatedDimension
1001
ACAD
1000
DSTYLE
1002
{
1070
   270
1070
     2
1070
     6
1000
EX_BNORM
1070
     7
1000
EX_BNORM
1070
    41
1040
5.0
1070
    42
1040
0.0
1070
    44
1040
0.0
1070
    73
1070
     1
1070
    74
1070
     1
1070
    75
1070
     1
1070
    76
1070
     1
1070
    77
1070
     1
1070
    78
1070
     8
1070
   140
1040
6.2362208
1070
   147
1040
0.0
1070
   173
1070
     1
1070
   176
1070
     4
1070
   177
1070
     4
1070
   178
1070
     7
1070
   271
1070
     1
1070
   277
1070
     2
1070
   279
1070
     2
1070
   280
1070
     0
1070
   287
1070
     5
1070
   340
1005
237
1002
}
  0
LINE
  5
2A3
330
1F
100
AcDbEntity
  8
LAY-255
  6
CONTINUOUS
 62
     7
100
AcDbLine
 10
770.0
 20
43.99999999999999
 30
0.0
 11
570.0
 21
43.99999999999999
 31
0.0
  0
LINE
  5
2A4
330
1F
100
AcDbEntity
  8
LAY-255
  6
CONTINUOUS
 62
     7
100
AcDbLine
 10
577.6
 20
32.0
 30
0.0
 11
593.6
 21
42.0
 31
0.0
  0
LINE
  5
2A5
330
1F
100
AcDbEntity
  8
LAY-255
  6
CONTINUOUS
 62
     7
100
AcDbLine
 10
593.6
 20
42.0
 30
0.0
 11
609.6
 21
32.0
 31
0.0
  0
LINE
  5
2A6
330
1F
100
AcDbEntity
  8
LAY-255
  6
CONTINUOUS
 62
     7
100
AcDbLine
 10
609.6
 20
32.0
 30
0.0
 11
593.6
 21
22.0
 31
0.0
  0
LINE
  5
2A7
330
1F
100
AcDbEntity
  8
LAY-255
  6
CONTINUOUS
 62
     7
100
AcDbLine
 10
593.6
 20
22.0
 30
0.0
 11
577.6
 21
32.0
 31
0.0
  0
LINE
  5
2A8
330
1F
100
AcDbEntity
  8
LAY-255
  6
CONTINUOUS
 62
     7
100
AcDbLine
 10
10.0
 20
20.0
 30
0.0
 11
770.0000000000001
 21
20.0
 31
0.0
  0
LINE
  5
2A9
330
1F
100
AcDbEntity
  8
LAY-255
  6
CONTINUOUS
 62
     7
100
AcDbLine
 10
10.0
 20
560.0
 30
0.0
 11
770.0000000000001
 21
560.0
 31
0.0
  0
LINE
  5
2AA
330
1F
100
AcDbEntity
  8
LAY-255
  6
CONTINUOUS
 62
     7
100
AcDbLine
 10
10.0
 20
20.0
 30
0.0
 11
10.0
 21
560.0
 31
0.0
  0
LINE
  5
2AB
330
1F
100
AcDbEntity
  8
LAY-255
  6
CONTINUOUS
 62
     7
100
AcDbLine
 10
770.0
 20
20.0
 30
0.0
 11
770.0
 21
560.0
 31
0.0
  0
LINE
  5
2AC
330
1F
100
AcDbEntity
  8
LAY-255
  6
CONTINUOUS
 62
     4
100
AcDbLine
 10
570.0
 20
55.99999999999999
 30
0.0
 11
770.0000000000001
 21
55.99999999999999
 31
0.0
  0
LINE
  5
2AD
330
1F
100
AcDbEntity
  8
LAY-255
  6
CONTINUOUS
 62
     4
100
AcDbLine
 10
670.0
 20
55.99999999999999
 30
0.0
 11
670.0
 21
44.0
 31
0.0
  0
LINE
  5
2AE
330
1F
100
AcDbEntity
  8
LAY-255
  6
CONTINUOUS
 62
     7
100
AcDbLine
 10
770.0000000000001
 20
125.8
 30
0.0
 11
570.0
 21
125.8
 31
0.0
  0
LINE
  5
2AF
330
1F
100
AcDbEntity
  8
LAY-255
  6
CONTINUOUS
 62
     4
100
AcDbLine
 10
766.0
 20
101.8
 30
0.0
 11
574.0
 21
101.8
 31
0.0
  0
LINE
  5
2B0
330
1F
100
AcDbEntity
  8
LAY-255
  6
CONTINUOUS
 62
     4
100
AcDbLine
 10
766.0
 20
113.8
 30
0.0
 11
574.0
 21
113.8
 31
0.0
  0
LINE
  5
2B1
330
1F
100
AcDbEntity
  8
LAY-255
  6
CONTINUOUS
 62
     7
100
AcDbLine
 10
570.0
 20
20.0
 30
0.0
 11
570.0
 21
125.8
 31
0.0
  0
TEXT
  5
2B2
330
1F
100
AcDbEntity
  8
LAY-255
  6
CONTINUOUS
 62
     7
100
AcDbText
 10
588.06875
 20
27.4375
 30
0.0
 40
10.3125
  1
S
 41
0.7582677563636363
  7
EXCADSTD
100
AcDbText
  0
TEXT
  5
2B3
330
1F
100
AcDbEntity
  8
LAY-255
  6
CONTINUOUS
 62
     7
100
AcDbText
 10
594.209375
 20
27.49882075472
 30
0.0
 40
10.3125
  1
F
 41
0.7440945272727272
  7
EXCADSTD
100
AcDbText
  0
TEXT
  5
2B4
330
1F
100
AcDbEntity
  8
LAY-255
  6
CONTINUOUS
 62
     7
100
AcDbText
 10
616.2767545898438
 20
31.0875
 30
0.0
 40
10.3125
  1
福西鋳物株式会社
 41
1.342685605887664
  7
EXCADSTD
100
AcDbText
  0
TEXT
  5
2B5
330
1F
100
AcDbEntity
  8
LAY-255
  6
CONTINUOUS
 62
     7
100
AcDbText
 10
617.0187500000001
 20
23.9625
 30
0.0
 40
3.4375
  1
ＦＵＫＵＮＩＳＨＩ
 41
1.204799226045263
  7
EXCADSTD
100
AcDbText
  0
TEXT
  5
2B6
330
1F
100
AcDbEntity
  8
LAY-255
  6
CONTINUOUS
 62
     7
100
AcDbText
 10
665.4082589285714
 20
23.9625
 30
0.0
 40
3.4375
  1
ＦＯＵＮＤＲＹ
 41
1.217206955080903
  7
EXCADSTD
100
AcDbText
  0
TEXT
  5
2B7
330
1F
100
AcDbEntity
  8
LAY-255
  6
CONTINUOUS
 62
     7
100
AcDbText
 10
703.8489633413461
 20
23.9625
 30
0.0
 40
3.4375
  1
ＣＯ.,ＬＴＤ.
 41
1.097167799789941
  7
EXCADSTD
100
AcDbText
  0
POINT
  5
2B8
330
1F
100
AcDbEntity
  8
LAY-255
  6
CONTINUOUS
 62
     7
100
AcDbPoint
 10
578.0
 20
80.0
 30
0.0
  0
POINT
  5
2B9
330
1F
100
AcDbEntity
  8
LAY-255
  6
CONTINUOUS
 62
     7
100
AcDbPoint
 10
578.0
 20
90.0
 30
0.0
  0
POINT
  5
2BA
330
1F
100
AcDbEntity
  8
LAY-255
  6
CONTINUOUS
 62
     7
100
AcDbPoint
 10
578.0
 20
69.99999999999999
 30
0.0
  0
POINT
  5
2BB
330
1F
100
AcDbEntity
  8
LAY-255
  6
CONTINUOUS
 62
     7
100
AcDbPoint
 10
578.0
 20
59.99999999999997
 30
0.0
  0
TEXT
  5
2BC
330
1F
100
AcDbEntity
  8
LAY-255
  6
CONTINUOUS
 62
     7
100
AcDbText
 10
578.75
 20
81.12500000000003
 30
0.0
 40
6.875
  1
防水：防水用
 41
1.010523977972028
  7
EXCADSTD
100
AcDbText
  0
TEXT
  5
2BD
330
1F
100
AcDbEntity
  8
LAY-255
  6
CONTINUOUS
 62
     7
100
AcDbText
 10
578.28125
 20
91.12500000000003
 30
0.0
 40
6.875
  1
種別：掃除口
 41
1.010523977972028
  7
EXCADSTD
100
AcDbText
  0
TEXT
  5
2BE
330
1F
100
AcDbEntity
  8
LAY-255
  6
CONTINUOUS
 62
     7
100
AcDbText
 10
578.53125
 20
71.12500000000003
 30
0.0
 40
6.875
  1
上部：ＣＯＡ型
 41
1.020007798509687
  7
EXCADSTD
100
AcDbText
  0
TEXT
  5
2BF
330
1F
100
AcDbEntity
  8
LAY-255
  6
CONTINUOUS
 62
     7
100
AcDbText
 10
578.4375
 20
61.12500000000001
 30
0.0
 40
6.875
  1
接続：管用テーパねじ
 41
1.013063761157025
  7
EXCADSTD
100
AcDbText
  0
POINT
  5
2C0
330
1F
100
AcDbEntity
  8
LAY-255
  6
CONTINUOUS
 62
     7
100
AcDbPoint
 10
578.0
 20
98.39999999999999
 30
0.0
  0
POINT
  5
2C1
330
1F
100
AcDbEntity
  8
LAY-255
  6
CONTINUOUS
 62
     7
100
AcDbPoint
 10
578.0
 20
108.4
 30
0.0
  0
TEXT
  5
2C2
330
1F
100
AcDbEntity
  8
LAY-255
  6
CONTINUOUS
 62
     7
100
AcDbText
 10
574.53125
 20
104.925
 30
0.0
 40
6.875
  1
型式
 41
1.056348480681818
  7
EXCADSTD
100
AcDbText
  0
TEXT
  5
2C3
330
1F
100
AcDbEntity
  8
LAY-255
  6
CONTINUOUS
 62
     7
100
AcDbText
 10
574.84375
 20
116.925
 30
0.0
 40
6.875
  1
品名
 41
0.978838634090909
  7
EXCADSTD
100
AcDbText
  0
POINT
  5
2C4
330
1F
100
AcDbEntity
  8
LAY-255
  6
CONTINUOUS
 62
     7
100
AcDbPoint
 10
600.0
 20
103.8
 30
0.0
  0
POINT
  5
2C5
330
1F
100
AcDbEntity
  8
LAY-255
  6
CONTINUOUS
 62
     7
100
AcDbPoint
 10
600.0
 20
115.8
 30
0.0
  0
TEXT
  5
2C6
330
1F
100
AcDbEntity
  8
LAY-255
  6
CONTINUOUS
 62
     7
100
AcDbText
 10
601.59375
 20
104.925
 30
0.0
 40
6.875
  1
ＣＯＢ－１００型
 41
1.001237397922078
  7
EXCADSTD
100
AcDbText
  0
TEXT
  5
2C7
330
1F
100
AcDbEntity
  8
LAY-255
  6
CONTINUOUS
 62
     7
100
AcDbText
 10
600.375
 20
116.925
 30
0.0
 40
6.875
  1
掃除口
 41
1.009133911272727
  7
EXCADSTD
100
AcDbText
  0
TEXT
  5
2C8
330
1F
100
AcDbEntity
  8
LAY-255
  6
CONTINUOUS
 62
     7
100
AcDbText
 10
696.5625
 20
47.12499999999998
 30
0.0
 40
6.875
  1
１：２
 41
0.888661464
  7
EXCADSTD
100
AcDbText
  0
TEXT
  5
2C9
330
1F
100
AcDbEntity
  8
LAY-255
  6
CONTINUOUS
 62
     7
100
AcDbText
 10
602.5625
 20
47.12499999999998
 30
0.0
 40
6.875
  1
１３／０７／０９
 41
0.9642857649350649
  7
EXCADSTD
100
AcDbText
  0
TEXT
  5
2CA
330
1F
100
AcDbEntity
  8
LAY-255
  6
CONTINUOUS
 62
     7
100
AcDbText
 10
574.3046875
 20
48.84374999999998
 30
0.0
 40
5.15625
  1
作成日
 41
1.000629973818182
  7
EXCADSTD
100
AcDbText
  0
TEXT
  5
2CB
330
1F
100
AcDbEntity
  8
LAY-255
  6
CONTINUOUS
 62
     7
100
AcDbText
 10
674.2109375
 20
48.84374999999998
 30
0.0
 40
5.15625
  1
縮尺
 41
1.080708718181818
  7
EXCADSTD
100
AcDbText
  0
ENDSEC
  0
SECTION
  2
OBJECTS
  0
DICTIONARY
  5
C
330
0
100
AcDbDictionary
  3
ACAD_GROUP
350
D
  3
ACAD_LAYOUT
350
1A
  3
ACAD_MATERIAL
350
43
  3
ACAD_MLEADERSTYLE
350
6B
  3
ACAD_MLINESTYLE
350
17
  3
ACAD_PLOTSETTINGS
350
19
  3
ACAD_SCALELIST
350
47
  3
ACAD_VISUALSTYLE
350
2A
  3
ACDBHEADERROUNDTRIPXREC
350
2CC
  3
ACDBVARIABLEDICTIONARY
350
2ED
  0
DICTIONARY
  5
2F8
330
8
100
AcDbDictionary
280
     1
  3
ACAD_XREC_ROUNDTRIP
360
2F9
  0
DICTIONARY
  5
D
102
{ACAD_REACTORS
330
C
102
}
330
C
100
AcDbDictionary
  0
DICTIONARY
  5
1A
102
{ACAD_REACTORS
330
C
102
}
330
C
100
AcDbDictionary
  0
DICTIONARY
  5
43
102
{ACAD_REACTORS
330
C
102
}
330
C
100
AcDbDictionary
  3
BYBLOCK
350
45
  3
BYLAYER
350
44
  3
GLOBAL
350
46
  0
DICTIONARY
  5
6B
102
{ACAD_REACTORS
330
C
102
}
330
C
100
AcDbDictionary
  3
STANDARD
350
6C
  0
DICTIONARY
  5
17
102
{ACAD_REACTORS
330
C
102
}
330
C
100
AcDbDictionary
  3
STANDARD
350
18
  0
DICTIONARY
  5
19
102
{ACAD_REACTORS
330
C
102
}
330
C
100
AcDbDictionary
  0
DICTIONARY
  5
47
102
{ACAD_REACTORS
330
C
102
}
330
C
100
AcDbDictionary
  3
A0
350
48
  3
A1
350
49
  3
A2
350
4A
  3
A3
350
4B
  3
A4
350
4C
  3
A5
350
4D
  3
A6
350
4E
  3
A7
350
4F
  3
A8
350
50
  3
A9
350
51
  3
B0
350
52
  3
B1
350
53
  3
B2
350
54
  3
B3
350
55
  3
B4
350
56
  3
B5
350
57
  3
B6
350
58
  3
B7
350
59
  3
B8
350
5A
  3
B9
350
5B
  3
C0
350
5C
  3
C1
350
5D
  3
C2
350
5E
  3
C3
350
5F
  3
C4
350
60
  3
C5
350
61
  3
C6
350
62
  3
C7
350
63
  3
C8
350
64
  3
C9
350
65
  3
D0
350
66
  3
D1
350
67
  3
D2
350
68
  0
DICTIONARY
  5
2A
102
{ACAD_REACTORS
330
C
102
}
330
C
100
AcDbDictionary
  3
2DWIREFRAME
350
2F
  3
BASIC
350
32
  3
BRIGHTEN
350
36
  3
COLORCHANGE
350
3A
  3
CONCEPTUAL
350
34
  3
DIM
350
35
  3
EDGECOLOROFF
350
3D
  3
FACEPATTERN
350
39
  3
FLAT
350
2B
  3
FLATWITHEDGES
350
2C
  3
GOURAUD
350
2D
  3
GOURAUDWITHEDGES
350
2E
  3
HIDDEN
350
31
  3
JITTEROFF
350
3B
  3
LINEPATTERN
350
38
  3
OVERHANGOFF
350
3C
  3
REALISTIC
350
33
  3
SHADED
350
42
  3
SHADED_WITH_EDGES
350
41
  3
SHADES_OF_GRAY
350
3E
  3
SKETCHY
350
3F
  3
THICKEN
350
37
  3
WIREFRAME
350
30
  3
X-RAY
350
40
  0
DICTIONARY
  5
2CC
102
{ACAD_REACTORS
330
C
102
}
330
C
100
AcDbDictionary
  3
CEPSNID
350
2D6
  3
CEPSNTYPE
350
2D5
  3
DIMSTYLEDATA
350
2EC
  3
FINGERPRINTGUID
350
2D7
  3
HYPERLINKBASE
350
2CF
  3
INSUNITS
350
2D4
  3
LAYOUTDICT
350
2D1
  3
LWETCUNION
350
2D3
  3
PLOTSETDICT
350
2D2
  3
PSVPSCALE
350
2D9
  3
PUCSBASE
350
2DC
  3
PUCSORGBACK
350
2E2
  3
PUCSORGBOTTOM
350
2DE
  3
PUCSORGFRONT
350
2E1
  3
PUCSORGLEFT
350
2DF
  3
PUCSORGRIGHT
350
2E0
  3
PUCSORGTOP
350
2DD
  3
PUCSORTHOREF
350
2DA
  3
PUCSORTHOVIEW
350
2DB
  3
STYLESHEET
350
2D0
  3
TSTACKALIGN
350
2CD
  3
TSTACKSIZE
350
2CE
  3
UCSBASE
350
2E5
  3
UCSORGBACK
350
2EB
  3
UCSORGBOTTOM
350
2E7
  3
UCSORGFRONT
350
2EA
  3
UCSORGLEFT
350
2E8
  3
UCSORGRIGHT
350
2E9
  3
UCSORGTOP
350
2E6
  3
UCSORTHOREF
350
2E3
  3
UCSORTHOVIEW
350
2E4
  3
VERSIONGUID
350
2D8
  0
DICTIONARY
  5
2ED
102
{ACAD_REACTORS
330
C
102
}
330
C
100
AcDbDictionary
  3
CANNOSCALE
350
2FA
  3
CENTEREXE
350
2F4
  3
CENTERLTYPEFILE
350
2F5
  3
CMLEADERSTYLE
350
2EF
  3
CTABLESTYLE
350
2EE
  3
DIMASSOC
350
2F6
  3
HIDETEXT
350
2F7
  3
MSLTSCALE
350
2FB
  3
PSOLHEIGHT
350
2F1
  3
PSOLWIDTH
350
2F0
  0
XRECORD
  5
2F9
102
{ACAD_REACTORS
330
2F8
102
}
330
2F8
100
AcDbXrecord
102
VTR_0.000_0.000_1.000_1.000_VISUALSTYLE
340
2F
102
VTR_0.000_0.000_1.000_1.000_GRIDDISPLAY
 70
     3
102
VTR_0.000_0.000_1.000_1.000_GRIDMAJOR
 70
     5
102
VTR_0.000_0.000_1.000_1.000_DEFAULTLIGHTING
280
     1
102
VTR_0.000_0.000_1.000_1.000_DEFAULTLIGHTINGTYPE
 70
     1
102
VTR_0.000_0.000_1.000_1.000_BRIGHTNESS
141
0.0
102
VTR_0.000_0.000_1.000_1.000_CONTRAST
142
0.0
  0
MATERIAL
  5
45
102
{ACAD_REACTORS
330
43
102
}
102
{ACAD_XDICTIONARY
360
2FE
102
}
330
43
100
AcDbMaterial
  1
BYBLOCK
  0
MATERIAL
  5
44
102
{ACAD_REACTORS
330
43
102
}
102
{ACAD_XDICTIONARY
360
2FC
102
}
330
43
100
AcDbMaterial
  1
BYLAYER
  0
MATERIAL
  5
46
102
{ACAD_REACTORS
330
43
102
}
102
{ACAD_XDICTIONARY
360
300
102
}
330
43
100
AcDbMaterial
  1
GLOBAL
  0
ACAD_PROXY_OBJECT
  5
6C
102
{ACAD_REACTORS
330
6B
102
}
330
6B
100
AcDbProxyObject
 90
      499
 91
      505
 93
      610
310
40901902A4063FBFFFFFE0000000000000020400000000000020404214DD185B99185C990000000000000104090141901A00000000000004100000000000000041025764000000000000039000
340
14
340
0
340
11
340
0
 94
        0
1001
ACAD_MLEADERVER
1070
     2
  0
MLINESTYLE
  5
18
102
{ACAD_REACTORS
330
17
102
}
330
17
100
AcDbMlineStyle
  2
Standard
 70
     0
  3

 62
   256
 51
90.0
 52
90.0
 71
     2
 49
0.5
 62
   256
  6
BYLAYER
 49
-0.5
 62
   256
  6
BYLAYER
  0
ACAD_PROXY_OBJECT
  5
48
102
{ACAD_REACTORS
330
47
102
}
330
47
100
AcDbProxyObject
 90
      499
 91
      503
 93
       41
310
903313A31580
  0
ACAD_PROXY_OBJECT
  5
49
102
{ACAD_REACTORS
330
47
102
}
330
47
100
AcDbProxyObject
 90
      499
 91
      503
 93
      105
310
903313A324000000000000004000
  0
ACAD_PROXY_OBJECT
  5
4A
102
{ACAD_REACTORS
330
47
102
}
330
47
100
AcDbProxyObject
 90
      499
 91
      503
 93
      105
310
903313A344000000000000104000
  0
ACAD_PROXY_OBJECT
  5
4B
102
{ACAD_REACTORS
330
47
102
}
330
47
100
AcDbProxyObject
 90
      499
 91
      503
 93
      105
310
903313A354000000000000144000
  0
ACAD_PROXY_OBJECT
  5
4C
102
{ACAD_REACTORS
330
47
102
}
330
47
100
AcDbProxyObject
 90
      499
 91
      503
 93
      105
310
903313A384000000000000204000
  0
ACAD_PROXY_OBJECT
  5
4D
102
{ACAD_REACTORS
330
47
102
}
330
47
100
AcDbProxyObject
 90
      499
 91
      503
 93
      113
310
904313A31304000000000000244000
  0
ACAD_PROXY_OBJECT
  5
4E
102
{ACAD_REACTORS
330
47
102
}
330
47
100
AcDbProxyObject
 90
      499
 91
      503
 93
      113
310
904313A31364000000000000304000
  0
ACAD_PROXY_OBJECT
  5
4F
102
{ACAD_REACTORS
330
47
102
}
330
47
100
AcDbProxyObject
 90
      499
 91
      503
 93
      113
310
904313A32304000000000000344000
  0
ACAD_PROXY_OBJECT
  5
50
102
{ACAD_REACTORS
330
47
102
}
330
47
100
AcDbProxyObject
 90
      499
 91
      503
 93
      113
310
904313A333040000000000003E4000
  0
ACAD_PROXY_OBJECT
  5
51
102
{ACAD_REACTORS
330
47
102
}
330
47
100
AcDbProxyObject
 90
      499
 91
      503
 93
      113
310
904313A34304000000000000444000
  0
ACAD_PROXY_OBJECT
  5
52
102
{ACAD_REACTORS
330
47
102
}
330
47
100
AcDbProxyObject
 90
      499
 91
      503
 93
      113
310
904313A35304000000000000494000
  0
ACAD_PROXY_OBJECT
  5
53
102
{ACAD_REACTORS
330
47
102
}
330
47
100
AcDbProxyObject
 90
      499
 91
      503
 93
      121
310
905313A3130304000000000000594000
  0
ACAD_PROXY_OBJECT
  5
54
102
{ACAD_REACTORS
330
47
102
}
330
47
100
AcDbProxyObject
 90
      499
 91
      503
 93
      105
310
903323A310000000000000010100
  0
ACAD_PROXY_OBJECT
  5
55
102
{ACAD_REACTORS
330
47
102
}
330
47
100
AcDbProxyObject
 90
      499
 91
      503
 93
      105
310
903343A310000000000000410100
  0
ACAD_PROXY_OBJECT
  5
56
102
{ACAD_REACTORS
330
47
102
}
330
47
100
AcDbProxyObject
 90
      499
 91
      503
 93
      105
310
903383A310000000000000810100
  0
ACAD_PROXY_OBJECT
  5
57
102
{ACAD_REACTORS
330
47
102
}
330
47
100
AcDbProxyObject
 90
      499
 91
      503
 93
      113
310
90431303A310000000000000910100
  0
ACAD_PROXY_OBJECT
  5
58
102
{ACAD_REACTORS
330
47
102
}
330
47
100
AcDbProxyObject
 90
      499
 91
      503
 93
      121
310
9053130303A310000000000001650100
  0
ACAD_PROXY_OBJECT
  5
59
102
{ACAD_REACTORS
330
47
102
}
330
47
100
AcDbProxyObject
 90
      499
 91
      503
 93
      257
310
90E312F31323822203D2031272D3022000000000000200FC000000000000284000
  0
ACAD_PROXY_OBJECT
  5
5A
102
{ACAD_REACTORS
330
47
102
}
330
47
100
AcDbProxyObject
 90
      499
 91
      503
 93
      249
310
90D312F363422203D2031272D3022000000000000240FC000000000000284000
  0
ACAD_PROXY_OBJECT
  5
5B
102
{ACAD_REACTORS
330
47
102
}
330
47
100
AcDbProxyObject
 90
      499
 91
      503
 93
      249
310
90D312F333222203D2031272D3022000000000000280FC000000000000284000
  0
ACAD_PROXY_OBJECT
  5
5C
102
{ACAD_REACTORS
330
47
102
}
330
47
100
AcDbProxyObject
 90
      499
 91
      503
 93
      249
310
90D312F313622203D2031272D30220000000000002C0FC000000000000284000
  0
ACAD_PROXY_OBJECT
  5
5D
102
{ACAD_REACTORS
330
47
102
}
330
47
100
AcDbProxyObject
 90
      499
 91
      503
 93
      249
310
90D332F333222203D2031272D30220000000000002E0FC000000000000284000
  0
ACAD_PROXY_OBJECT
  5
5E
102
{ACAD_REACTORS
330
47
102
}
330
47
100
AcDbProxyObject
 90
      499
 91
      503
 93
      241
310
90C312F3822203D2031272D3022000000000000300FC000000000000284000
  0
ACAD_PROXY_OBJECT
  5
5F
102
{ACAD_REACTORS
330
47
102
}
330
47
100
AcDbProxyObject
 90
      499
 91
      503
 93
      249
310
90D332F313622203D2031272D3022000000000000320FC000000000000284000
  0
ACAD_PROXY_OBJECT
  5
60
102
{ACAD_REACTORS
330
47
102
}
330
47
100
AcDbProxyObject
 90
      499
 91
      503
 93
      241
310
90C312F3422203D2031272D3022000000000000340FC000000000000284000
  0
ACAD_PROXY_OBJECT
  5
61
102
{ACAD_REACTORS
330
47
102
}
330
47
100
AcDbProxyObject
 90
      499
 91
      503
 93
      241
310
90C332F3822203D2031272D3022000000000000360FC000000000000284000
  0
ACAD_PROXY_OBJECT
  5
62
102
{ACAD_REACTORS
330
47
102
}
330
47
100
AcDbProxyObject
 90
      499
 91
      503
 93
      241
310
90C312F3222203D2031272D3022000000000000380FC000000000000284000
  0
ACAD_PROXY_OBJECT
  5
63
102
{ACAD_REACTORS
330
47
102
}
330
47
100
AcDbProxyObject
 90
      499
 91
      503
 93
      241
310
90C332F3422203D2031272D30220000000000003A0FC000000000000284000
  0
ACAD_PROXY_OBJECT
  5
64
102
{ACAD_REACTORS
330
47
102
}
330
47
100
AcDbProxyObject
 90
      499
 91
      503
 93
      161
310
90A3122203D2031272D30224000000000000284000
  0
ACAD_PROXY_OBJECT
  5
65
102
{ACAD_REACTORS
330
47
102
}
330
47
100
AcDbProxyObject
 90
      499
 91
      503
 93
      257
310
90E312D312F3222203D2031272D30220000000000003E0FC000000000000284000
  0
ACAD_PROXY_OBJECT
  5
66
102
{ACAD_REACTORS
330
47
102
}
330
47
100
AcDbProxyObject
 90
      499
 91
      503
 93
      225
310
90A3322203D2031272D302200000000000002100000000000000284000
  0
ACAD_PROXY_OBJECT
  5
67
102
{ACAD_REACTORS
330
47
102
}
330
47
100
AcDbProxyObject
 90
      499
 91
      503
 93
      225
310
90A3622203D2031272D302200000000000006100000000000000284000
  0
ACAD_PROXY_OBJECT
  5
68
102
{ACAD_REACTORS
330
47
102
}
330
47
100
AcDbProxyObject
 90
      499
 91
      503
 93
      249
310
90D31272D3022203D2031272D30220000000000000A100000000000000284000
  0
ACAD_PROXY_OBJECT
  5
2F
102
{ACAD_REACTORS
330
2A
102
}
330
2A
100
AcDbProxyObject
 90
      499
 91
      501
 93
      436
310
42CC9915DA5C99599C985B595049028333333333333E33F0000000000000F90107901411070040501600405405064090741402480A0340
1001
ACAD
1000
AcDbSavedByObjectVersion
1070
     0
  0
ACAD_PROXY_OBJECT
  5
32
102
{ACAD_REACTORS
330
2A
102
}
330
2A
100
AcDbProxyObject
 90
      499
 91
      501
 93
      388
310
4150985CDA58D07406404333333333333E33F0000000000000F90107A41107004050150841D405064090741402480A0350
1001
ACAD
1000
AcDbSavedByObjectVersion
1070
     0
  0
ACAD_PROXY_OBJECT
  5
36
102
{ACAD_REACTORS
330
2A
102
}
330
2A
100
AcDbProxyObject
 90
      499
 91
      501
 93
      428
310
42109C9A59DA1D195B90C409028333333333333E33F0000000000000F9010790141107004050150841D405064090741402480A029950
1001
ACAD
1000
AcDbSavedByObjectVersion
1070
     0
  0
ACAD_PROXY_OBJECT
  5
3A
102
{ACAD_REACTORS
330
2A
102
}
330
2A
100
AcDbProxyObject
 90
      499
 91
      501
 93
      452
310
42D0DBDB1BDC90DA185B99D95104090240C333333333333E33F0000000000000F90108901411070040501508421405064090741402480A0350
1001
ACAD
1000
AcDbSavedByObjectVersion
1070
     0
  0
ACAD_PROXY_OBJECT
  5
34
102
{ACAD_REACTORS
330
2A
102
}
330
2A
100
AcDbProxyObject
 90
      499
 91
      501
 93
      500
310
4290DBDB98D95C1D1D585B10940D028333333333333E33F0000000000000F90107902409070040501000000000018199010841D405064090740C02480A0340
1001
ACAD
1000
AcDbSavedByObjectVersion
1070
     0
  0
ACAD_PROXY_OBJECT
  5
35
102
{ACAD_REACTORS
330
2A
102
}
330
2A
100
AcDbProxyObject
 90
      499
 91
      501
 93
      412
310
40D11A5B50B409028333333333333E33F0000000000000F9010790141107004050150841D405064090741402480A02677FFFFFD0
1001
ACAD
1000
AcDbSavedByObjectVersion
1070
     0
  0
ACAD_PROXY_OBJECT
  5
3D
102
{ACAD_REACTORS
330
2A
102
}
330
2A
100
AcDbProxyObject
 90
      499
 91
      501
 93
      452
310
43115919D950DBDB1BDC93D999916409028333333333333E33F0000000000000F9010790141107004050150841D405064090741402480A0350
1001
ACAD
1000
AcDbSavedByObjectVersion
1070
     0
  0
ACAD_PROXY_OBJECT
  5
39
102
{ACAD_REACTORS
330
2A
102
}
330
2A
100
AcDbProxyObject
 90
      499
 91
      501
 93
      444
310
42D19858D95C185D1D195C9B90F409028333333333333E33F0000000000000F9010790141107004050150841D405064090741402480A0350
1001
ACAD
1000
AcDbSavedByObjectVersion
1070
     0
  0
ACAD_PROXY_OBJECT
  5
2B
102
{ACAD_REACTORS
330
2A
102
}
330
2A
100
AcDbProxyObject
 90
      499
 91
      501
 93
      380
310
41119B185D240901404333333333333E33F0000000000000F9010740A907004050150841D405064090741402480A1B50
1001
ACAD
1000
AcDbSavedByObjectVersion
1070
     0
  0
ACAD_PROXY_OBJECT
  5
2C
102
{ACAD_REACTORS
330
2A
102
}
330
2A
100
AcDbProxyObject
 90
      499
 91
      501
 93
      468
310
43519B185D15DA5D1A115919D95CD0140901404333333333333E33F0000000000000F90107409019070040501600405405064090741402480A1B50
1001
ACAD
1000
AcDbSavedByObjectVersion
1070
     0
  0
ACAD_PROXY_OBJECT
  5
2D
102
{ACAD_REACTORS
330
2A
102
}
330
2A
100
AcDbProxyObject
 90
      499
 91
      501
 93
      404
310
41D1DBDD5C985D5910240902404333333333333E33F0000000000000F9010740A9070040501641D405064090741402480A1B50
1001
ACAD
1000
AcDbSavedByObjectVersion
1070
     0
  0
ACAD_PROXY_OBJECT
  5
2E
102
{ACAD_REACTORS
330
2A
102
}
330
2A
100
AcDbProxyObject
 90
      499
 91
      501
 93
      492
310
4411DBDD5C985D5915DA5D1A115919D95CD0340902404333333333333E33F0000000000000F90107409019070040501600405405064090741402480A1B50
1001
ACAD
1000
AcDbSavedByObjectVersion
1070
     0
  0
ACAD_PROXY_OBJECT
  5
31
102
{ACAD_REACTORS
330
2A
102
}
330
2A
100
AcDbProxyObject
 90
      499
 91
      501
 93
      476
310
41921A5919195B90640502408333333333333E33F0000000000000F901079024090700405020000000000001110200405405064090740C02480A0340
1001
ACAD
1000
AcDbSavedByObjectVersion
1070
     0
  0
ACAD_PROXY_OBJECT
  5
3B
102
{ACAD_REACTORS
330
2A
102
}
330
2A
100
AcDbProxyObject
 90
      499
 91
      501
 93
      428
310
42529A5D1D195C93D999914409028333333333333E33F0000000000000F9010790141107004050150A41D405064090741402480A0350
1001
ACAD
1000
AcDbSavedByObjectVersion
1070
     0
  0
ACAD_PROXY_OBJECT
  5
38
102
{ACAD_REACTORS
330
2A
102
}
330
2A
100
AcDbProxyObject
 90
      499
 91
      501
 93
      444
310
42D31A5B995C185D1D195C9B90E409028333333333333E33F0000000000000F9010790141107004050750841D405064090741402483A0350
1001
ACAD
1000
AcDbSavedByObjectVersion
1070
     0
  0
ACAD_PROXY_OBJECT
  5
3C
102
{ACAD_REACTORS
330
2A
102
}
330
2A
100
AcDbProxyObject
 90
      499
 91
      501
 93
      444
310
42D3DD995C9A185B99D3D999915409028333333333333E33F0000000000000F9010790141107004050150941D405064090741402480A0350
1001
ACAD
1000
AcDbSavedByObjectVersion
1070
     0
  0
ACAD_PROXY_OBJECT
  5
33
102
{ACAD_REACTORS
330
2A
102
}
330
2A
100
AcDbProxyObject
 90
      499
 91
      501
 93
      428
310
425499585B1A5CDD1A58D08409038333333333333E33F0000000000000F9010740A907004050150800405405064090740C02480A1B40
1001
ACAD
1000
AcDbSavedByObjectVersion
1070
     0
  0
ACAD_PROXY_OBJECT
  5
42
102
{ACAD_REACTORS
330
2A
102
}
330
2A
100
AcDbProxyObject
 90
      499
 91
      501
 93
      420
310
4194DA1859195911B40902404333333333333E33F0000000000000F9010740A41107004050150800405405064090840C02480A0B40
1001
ACAD
1000
AcDbSavedByObjectVersion
1070
     0
  0
ACAD_PROXY_OBJECT
  5
41
102
{ACAD_REACTORS
330
2A
102
}
330
2A
100
AcDbProxyObject
 90
      499
 91
      501
 93
      516
310
4454DA18591959081DDA5D1A08195919D95CD1A40902404333333333333E33F0000000000000F901074090142907004050250800405405064090740C02480A0B40
1001
ACAD
1000
AcDbSavedByObjectVersion
1070
     0
  0
ACAD_PROXY_OBJECT
  5
3E
102
{ACAD_REACTORS
330
2A
102
}
330
2A
100
AcDbProxyObject
 90
      499
 91
      501
 93
      532
310
4394DA1859195CC81BD98811DC985E5174090240C333333333333E33F0000000000000F901079024090741D01000000000000111010841D405064090740C02480A0340
1001
ACAD
1000
AcDbSavedByObjectVersion
1070
     0
  0
ACAD_PROXY_OBJECT
  5
3F
102
{ACAD_REACTORS
330
2A
102
}
330
2A
100
AcDbProxyObject
 90
      499
 91
      501
 93
      476
310
41D4DAD95D18DA1E51840502408333333333333E33F0000000000000F901079024090741D01000000000000111010B41D405064090741802480A0340
1001
ACAD
1000
AcDbSavedByObjectVersion
1070
     0
  0
ACAD_PROXY_OBJECT
  5
37
102
{ACAD_REACTORS
330
2A
102
}
330
2A
100
AcDbProxyObject
 90
      499
 91
      501
 93
      412
310
41D51A1A58DAD95B90D409028333333333333E33F0000000000000F9010790141107004050150C41D405064090741402480A0350
1001
ACAD
1000
AcDbSavedByObjectVersion
1070
     0
  0
ACAD_PROXY_OBJECT
  5
30
102
{ACAD_REACTORS
330
2A
102
}
330
2A
100
AcDbProxyObject
 90
      499
 91
      501
 93
      420
310
4255DA5C99599C985B595059028333333333333E33F0000000000000F90107901411070040501600405405064090740C02480A0340
1001
ACAD
1000
AcDbSavedByObjectVersion
1070
     0
  0
ACAD_PROXY_OBJECT
  5
40
102
{ACAD_REACTORS
330
2A
102
}
330
2A
100
AcDbProxyObject
 90
      499
 91
      501
 93
      404
310
41560B54985E51940902404000000000000E03F0000000000000F9010740501907004050150841D405064090740C02480A1B40
1001
ACAD
1000
AcDbSavedByObjectVersion
1070
     0
  0
XRECORD
  5
2D6
102
{ACAD_REACTORS
330
2CC
102
}
330
2CC
100
AcDbXrecord
340
0
  0
XRECORD
  5
2D5
102
{ACAD_REACTORS
330
2CC
102
}
330
2CC
100
AcDbXrecord
 90
        0
  0
XRECORD
  5
2EC
102
{ACAD_REACTORS
330
2CC
102
}
330
2CC
100
AcDbXrecord
1000
DSTYLE
1002
{
1070
   340
340
11
1002
}
  0
XRECORD
  5
2D7
102
{ACAD_REACTORS
330
2CC
102
}
330
2CC
100
AcDbXrecord
  1
{95721f7e-e829-4ac5-aa25-a2813cb48bac}
  0
XRECORD
  5
2CF
102
{ACAD_REACTORS
330
2CC
102
}
330
2CC
100
AcDbXrecord
  1

  0
XRECORD
  5
2D4
102
{ACAD_REACTORS
330
2CC
102
}
330
2CC
100
AcDbXrecord
 90
        4
  0
XRECORD
  5
2D1
102
{ACAD_REACTORS
330
2CC
102
}
330
2CC
100
AcDbXrecord
340
1A
  0
XRECORD
  5
2D3
102
{ACAD_REACTORS
330
2CC
102
}
330
2CC
100
AcDbXrecord
 90
    10781
  0
XRECORD
  5
2D2
102
{ACAD_REACTORS
330
2CC
102
}
330
2CC
100
AcDbXrecord
340
19
  0
XRECORD
  5
2D9
102
{ACAD_REACTORS
330
2CC
102
}
330
2CC
100
AcDbXrecord
 40
0.0
  0
XRECORD
  5
2DC
102
{ACAD_REACTORS
330
2CC
102
}
330
2CC
100
AcDbXrecord
340
0
  0
XRECORD
  5
2E2
102
{ACAD_REACTORS
330
2CC
102
}
330
2CC
100
AcDbXrecord
 10
0.0
 20
0.0
 30
0.0
  0
XRECORD
  5
2DE
102
{ACAD_REACTORS
330
2CC
102
}
330
2CC
100
AcDbXrecord
 10
0.0
 20
0.0
 30
0.0
  0
XRECORD
  5
2E1
102
{ACAD_REACTORS
330
2CC
102
}
330
2CC
100
AcDbXrecord
 10
0.0
 20
0.0
 30
0.0
  0
XRECORD
  5
2DF
102
{ACAD_REACTORS
330
2CC
102
}
330
2CC
100
AcDbXrecord
 10
0.0
 20
0.0
 30
0.0
  0
XRECORD
  5
2E0
102
{ACAD_REACTORS
330
2CC
102
}
330
2CC
100
AcDbXrecord
 10
0.0
 20
0.0
 30
0.0
  0
XRECORD
  5
2DD
102
{ACAD_REACTORS
330
2CC
102
}
330
2CC
100
AcDbXrecord
 10
0.0
 20
0.0
 30
0.0
  0
XRECORD
  5
2DA
102
{ACAD_REACTORS
330
2CC
102
}
330
2CC
100
AcDbXrecord
340
0
  0
XRECORD
  5
2DB
102
{ACAD_REACTORS
330
2CC
102
}
330
2CC
100
AcDbXrecord
 70
     0
  0
XRECORD
  5
2D0
102
{ACAD_REACTORS
330
2CC
102
}
330
2CC
100
AcDbXrecord
  1

  0
XRECORD
  5
2CD
102
{ACAD_REACTORS
330
2CC
102
}
330
2CC
100
AcDbXrecord
 90
        1
  0
XRECORD
  5
2CE
102
{ACAD_REACTORS
330
2CC
102
}
330
2CC
100
AcDbXrecord
 90
       70
  0
XRECORD
  5
2E5
102
{ACAD_REACTORS
330
2CC
102
}
330
2CC
100
AcDbXrecord
340
0
  0
XRECORD
  5
2EB
102
{ACAD_REACTORS
330
2CC
102
}
330
2CC
100
AcDbXrecord
 10
0.0
 20
0.0
 30
0.0
  0
XRECORD
  5
2E7
102
{ACAD_REACTORS
330
2CC
102
}
330
2CC
100
AcDbXrecord
 10
0.0
 20
0.0
 30
0.0
  0
XRECORD
  5
2EA
102
{ACAD_REACTORS
330
2CC
102
}
330
2CC
100
AcDbXrecord
 10
0.0
 20
0.0
 30
0.0
  0
XRECORD
  5
2E8
102
{ACAD_REACTORS
330
2CC
102
}
330
2CC
100
AcDbXrecord
 10
0.0
 20
0.0
 30
0.0
  0
XRECORD
  5
2E9
102
{ACAD_REACTORS
330
2CC
102
}
330
2CC
100
AcDbXrecord
 10
0.0
 20
0.0
 30
0.0
  0
XRECORD
  5
2E6
102
{ACAD_REACTORS
330
2CC
102
}
330
2CC
100
AcDbXrecord
 10
0.0
 20
0.0
 30
0.0
  0
XRECORD
  5
2E3
102
{ACAD_REACTORS
330
2CC
102
}
330
2CC
100
AcDbXrecord
340
0
  0
XRECORD
  5
2E4
102
{ACAD_REACTORS
330
2CC
102
}
330
2CC
100
AcDbXrecord
 70
     0
  0
XRECORD
  5
2D8
102
{ACAD_REACTORS
330
2CC
102
}
330
2CC
100
AcDbXrecord
  1
{FAEB1C32-E019-11D5-929B-00C0DF256EC4}
  0
DICTIONARYVAR
  5
2FA
102
{ACAD_REACTORS
330
2ED
102
}
330
2ED
100
DictionaryVariables
280
     0
  1
1:1
  0
DICTIONARYVAR
  5
2F4
102
{ACAD_REACTORS
330
2ED
102
}
330
2ED
100
DictionaryVariables
280
     0
  1
3.500000
  0
DICTIONARYVAR
  5
2F5
102
{ACAD_REACTORS
330
2ED
102
}
330
2ED
100
DictionaryVariables
280
     0
  1
acadiso.lin
  0
DICTIONARYVAR
  5
2EF
102
{ACAD_REACTORS
330
2ED
102
}
330
2ED
100
DictionaryVariables
280
     0
  1
Standard
  0
DICTIONARYVAR
  5
2EE
102
{ACAD_REACTORS
330
2ED
102
}
330
2ED
100
DictionaryVariables
280
     0
  1
Standard
  0
DICTIONARYVAR
  5
2F6
102
{ACAD_REACTORS
330
2ED
102
}
330
2ED
100
DictionaryVariables
280
     0
  1
2
  0
DICTIONARYVAR
  5
2F7
102
{ACAD_REACTORS
330
2ED
102
}
330
2ED
100
DictionaryVariables
280
     0
  1
1
  0
DICTIONARYVAR
  5
2FB
102
{ACAD_REACTORS
330
2ED
102
}
330
2ED
100
DictionaryVariables
280
     0
  1
1
  0
DICTIONARYVAR
  5
2F1
102
{ACAD_REACTORS
330
2ED
102
}
330
2ED
100
DictionaryVariables
280
     0
  1
80.000000
  0
DICTIONARYVAR
  5
2F0
102
{ACAD_REACTORS
330
2ED
102
}
330
2ED
100
DictionaryVariables
280
     0
  1
5.000000
  0
DICTIONARY
  5
2FE
330
45
100
AcDbDictionary
280
     1
  3
ACAD_XREC_ROUNDTRIP
360
2FF
  0
DICTIONARY
  5
2FC
330
44
100
AcDbDictionary
280
     1
  3
ACAD_XREC_ROUNDTRIP
360
2FD
  0
DICTIONARY
  5
300
330
46
100
AcDbDictionary
280
     1
  3
ACAD_XREC_ROUNDTRIP
360
301
  0
XRECORD
  5
2FF
102
{ACAD_REACTORS
330
2FE
102
}
330
2FE
100
AcDbXrecord
102
MATERIAL
148
0.0
149
0.0
149
0.0
 93
        0
 94
      127
282
     0
 72
     1
 77
     1
171
     1
175
     1
179
     1
273
     0
  0
XRECORD
  5
2FD
102
{ACAD_REACTORS
330
2FC
102
}
330
2FC
100
AcDbXrecord
102
MATERIAL
148
0.0
149
0.0
149
0.0
 93
        0
 94
      127
282
     0
 72
     1
 77
     1
171
     1
175
     1
179
     1
273
     0
  0
XRECORD
  5
301
102
{ACAD_REACTORS
330
300
102
}
330
300
100
AcDbXrecord
102
MATERIAL
148
0.0
149
0.0
149
0.0
 93
        0
 94
      127
282
     0
 72
     1
 77
     1
171
     1
175
     1
179
     1
273
     0
  0
ENDSEC
  0
EOF
