  0
SECTION
  2
HEADER
  9
$ACADVER
  1
AC1014
  9
$ACADMAINTVER
 70
     9
  9
$DWGCODEPAGE
  3
ANSI_932
  9
$INSBASE
 10
0.0
 20
0.0
 30
0.0
  9
$EXTMIN
 10
15.0
 20
30.0
 30
0.0
  9
$EXTMAX
 10
1155.0
 20
840.0
 30
0.0
  9
$LIMMIN
 10
0.0
 20
0.0
  9
$LIMMAX
 10
420.0
 20
297.0
  9
$ORTHOMODE
 70
     0
  9
$REGENMODE
 70
     1
  9
$FILLMODE
 70
     1
  9
$QTEXTMODE
 70
     0
  9
$MIRRTEXT
 70
     1
  9
$DRAGMODE
 70
     2
  9
$LTSCALE
 40
0.2
  9
$OSMODE
 70
    37
  9
$ATTMODE
 70
     1
  9
$TEXTSIZE
 40
2.5
  9
$TRACEWID
 40
1.0
  9
$TEXTSTYLE
  7
STANDARD
  9
$CLAYER
  8
LAY-10
  9
$CELTYPE
  6
BYLAYER
  9
$CECOLOR
 62
   256
  9
$CELTSCALE
 40
1.0
  9
$DELOBJ
 70
     1
  9
$DISPSILH
 70
     0
  9
$DIMSCALE
 40
1.0
  9
$DIMASZ
 40
2.5
  9
$DIMEXO
 40
0.625
  9
$DIMDLI
 40
3.75
  9
$DIMRND
 40
0.0
  9
$DIMDLE
 40
0.0
  9
$DIMEXE
 40
1.25
  9
$DIMTP
 40
0.0
  9
$DIMTM
 40
0.0
  9
$DIMTXT
 40
2.5
  9
$DIMCEN
 40
2.5
  9
$DIMTSZ
 40
0.0
  9
$DIMTOL
 70
     0
  9
$DIMLIM
 70
     0
  9
$DIMTIH
 70
     0
  9
$DIMTOH
 70
     0
  9
$DIMSE1
 70
     0
  9
$DIMSE2
 70
     0
  9
$DIMTAD
 70
     1
  9
$DIMZIN
 70
     8
  9
$DIMBLK
  1

  9
$DIMASO
 70
     1
  9
$DIMSHO
 70
     1
  9
$DIMPOST
  1

  9
$DIMAPOST
  1

  9
$DIMALT
 70
     0
  9
$DIMALTD
 70
     3
  9
$DIMALTF
 40
0.03937007874016
  9
$DIMLFAC
 40
1.0
  9
$DIMTOFL
 70
     1
  9
$DIMTVP
 40
0.0
  9
$DIMTIX
 70
     0
  9
$DIMSOXD
 70
     0
  9
$DIMSAH
 70
     0
  9
$DIMBLK1
  1

  9
$DIMBLK2
  1

  9
$DIMSTYLE
  2
ISO-25
  9
$DIMCLRD
 70
     0
  9
$DIMCLRE
 70
     0
  9
$DIMCLRT
 70
     0
  9
$DIMTFAC
 40
1.0
  9
$DIMGAP
 40
0.625
  9
$DIMJUST
 70
     0
  9
$DIMSD1
 70
     0
  9
$DIMSD2
 70
     0
  9
$DIMTOLJ
 70
     0
  9
$DIMTZIN
 70
     8
  9
$DIMALTZ
 70
     0
  9
$DIMALTTZ
 70
     0
  9
$DIMFIT
 70
     3
  9
$DIMUPT
 70
     0
  9
$DIMUNIT
 70
     2
  9
$DIMDEC
 70
     2
  9
$DIMTDEC
 70
     2
  9
$DIMALTU
 70
     2
  9
$DIMALTTD
 70
     3
  9
$DIMTXSTY
  7
STANDARD
  9
$DIMAUNIT
 70
     0
  9
$LUNITS
 70
     2
  9
$LUPREC
 70
     4
  9
$SKETCHINC
 40
1.0
  9
$FILLETRAD
 40
10.0
  9
$AUNITS
 70
     0
  9
$AUPREC
 70
     0
  9
$MENU
  1
.
  9
$ELEVATION
 40
0.0
  9
$PELEVATION
 40
0.0
  9
$THICKNESS
 40
0.0
  9
$LIMCHECK
 70
     0
  9
$CHAMFERA
 40
0.0
  9
$CHAMFERB
 40
0.0
  9
$CHAMFERC
 40
0.0
  9
$CHAMFERD
 40
0.0
  9
$SKPOLY
 70
     0
  9
$TDCREATE
 40
2459390.613812037
  9
$TDUPDATE
 40
2459390.613812384
  9
$TDINDWG
 40
0.0000000116
  9
$TDUSRTIMER
 40
0.0000000116
  9
$USRTIMER
 70
     1
  9
$ANGBASE
 50
0.0
  9
$ANGDIR
 70
     0
  9
$PDMODE
 70
     0
  9
$PDSIZE
 40
0.0
  9
$PLINEWID
 40
0.0
  9
$COORDS
 70
     1
  9
$SPLFRAME
 70
     0
  9
$SPLINETYPE
 70
     6
  9
$SPLINESEGS
 70
     8
  9
$ATTDIA
 70
     0
  9
$ATTREQ
 70
     1
  9
$HANDLING
 70
     1
  9
$HANDSEED
  5
4D0
  9
$SURFTAB1
 70
     6
  9
$SURFTAB2
 70
     6
  9
$SURFTYPE
 70
     6
  9
$SURFU
 70
     6
  9
$SURFV
 70
     6
  9
$UCSNAME
  2

  9
$UCSORG
 10
0.0
 20
0.0
 30
0.0
  9
$UCSXDIR
 10
1.0
 20
0.0
 30
0.0
  9
$UCSYDIR
 10
0.0
 20
1.0
 30
0.0
  9
$PUCSNAME
  2

  9
$PUCSORG
 10
0.0
 20
0.0
 30
0.0
  9
$PUCSXDIR
 10
1.0
 20
0.0
 30
0.0
  9
$PUCSYDIR
 10
0.0
 20
1.0
 30
0.0
  9
$USERI1
 70
     0
  9
$USERI2
 70
     0
  9
$USERI3
 70
     0
  9
$USERI4
 70
     0
  9
$USERI5
 70
     0
  9
$USERR1
 40
0.0
  9
$USERR2
 40
0.0
  9
$USERR3
 40
0.0
  9
$USERR4
 40
0.0
  9
$USERR5
 40
0.0
  9
$WORLDVIEW
 70
     1
  9
$SHADEDGE
 70
     3
  9
$SHADEDIF
 70
    70
  9
$TILEMODE
 70
     1
  9
$MAXACTVP
 70
    64
  9
$PINSBASE
 10
0.0
 20
0.0
 30
0.0
  9
$PLIMCHECK
 70
     0
  9
$PEXTMIN
 10
1.000000000000000E+20
 20
1.000000000000000E+20
 30
1.000000000000000E+20
  9
$PEXTMAX
 10
-1.000000000000000E+20
 20
-1.000000000000000E+20
 30
-1.000000000000000E+20
  9
$PLIMMIN
 10
0.0
 20
0.0
  9
$PLIMMAX
 10
420.0
 20
297.0
  9
$UNITMODE
 70
     0
  9
$VISRETAIN
 70
     1
  9
$PLINEGEN
 70
     0
  9
$PSLTSCALE
 70
     1
  9
$TREEDEPTH
 70
  3020
  9
$PICKSTYLE
 70
     1
  9
$CMLSTYLE
  2
STANDARD
  9
$CMLJUST
 70
     0
  9
$CMLSCALE
 40
20.0
  9
$PROXYGRAPHICS
 70
     1
  9
$MEASUREMENT
 70
     1
  0
ENDSEC
  0
SECTION
  2
CLASSES
  0
CLASS
  1
ACDBDICTIONARYWDFLT
  2
AcDbDictionaryWithDefault
  3
ObjectDBX Classes
 90
        0
280
     0
281
     0
  0
CLASS
  1
VISUALSTYLE
  2
AcDbVisualStyle
  3
ObjectDBX Classes
 90
     4095
280
     0
281
     0
  0
CLASS
  1
MATERIAL
  2
AcDbMaterial
  3
ObjectDBX Classes
 90
     1153
280
     0
281
     0
  0
CLASS
  1
SCALE
  2
AcDbScale
  3
ObjectDBX Classes
 90
     1153
280
     0
281
     0
  0
CLASS
  1
TABLESTYLE
  2
AcDbTableStyle
  3
ObjectDBX Classes
 90
     4095
280
     0
281
     0
  0
CLASS
  1
MLEADERSTYLE
  2
AcDbMLeaderStyle
  3
ACDB_MLEADERSTYLE_CLASS
 90
     4095
280
     0
281
     0
  0
CLASS
  1
SUN
  2
AcDbSun
  3
SCENEOE
 90
     1153
280
     0
281
     0
  0
CLASS
  1
DICTIONARYVAR
  2
AcDbDictionaryVar
  3
ObjectDBX Classes
 90
        0
280
     0
281
     0
  0
CLASS
  1
XRECORD
  2
AcDbXrecord
  3
ObjectDBX Classes
 90
        0
280
     0
281
     0
  0
CLASS
  1
LWPOLYLINE
  2
AcDbPolyline
  3
ObjectDBX Classes
 90
        0
280
     0
281
     1
  0
CLASS
  1
HATCH
  2
AcDbHatch
  3
ObjectDBX Classes
 90
        0
280
     0
281
     1
  0
CLASS
  1
ACDBPLACEHOLDER
  2
AcDbPlaceHolder
  3
ObjectDBX Classes
 90
        0
280
     0
281
     0
  0
CLASS
  1
LAYOUT
  2
AcDbLayout
  3
ObjectDBX Classes
 90
        0
280
     0
281
     0
  0
ENDSEC
  0
SECTION
  2
TABLES
  0
TABLE
  2
VPORT
  5
8
102
{ACAD_XDICTIONARY
360
4C5
102
}
330
0
100
AcDbSymbolTable
 70
     1
  0
VPORT
  5
29
330
8
100
AcDbSymbolTableRecord
100
AcDbViewportTableRecord
  2
*ACTIVE
 70
     0
 10
0.0
 20
0.0
 11
1.0
 21
1.0
 12
585.0000000000001
 22
435.0
 13
0.0
 23
0.0
 14
10.0
 24
10.0
 15
10.0
 25
10.0
 16
0.0
 26
0.0
 36
1.0
 17
0.0
 27
0.0
 37
0.0
 40
810.0
 41
1.407407407407408
 42
50.0
 43
0.0
 44
0.0
 50
0.0
 51
0.0
 71
     0
 72
  1000
 73
     1
 74
     3
 75
     0
 76
     0
 77
     0
 78
     0
  0
ENDTAB
  0
TABLE
  2
LTYPE
  5
5
330
0
100
AcDbSymbolTable
 70
     6
  0
LTYPE
  5
14
330
5
100
AcDbSymbolTableRecord
100
AcDbLinetypeTableRecord
  2
BYBLOCK
 70
     0
  3

 72
    65
 73
     0
 40
0.0
  0
LTYPE
  5
15
330
5
100
AcDbSymbolTableRecord
100
AcDbLinetypeTableRecord
  2
BYLAYER
 70
     0
  3

 72
    65
 73
     0
 40
0.0
  0
LTYPE
  5
16
330
5
100
AcDbSymbolTableRecord
100
AcDbLinetypeTableRecord
  2
CONTINUOUS
 70
     0
  3
Solid line
 72
    65
 73
     0
 40
0.0
  0
LTYPE
  5
6E
330
5
100
AcDbSymbolTableRecord
100
AcDbLinetypeTableRecord
  2
HIDDEN
 70
     0
  3
Hidden __ __ __ __ __ __ __ __ __ __ __ __ __ __
 72
    65
 73
     2
 40
9.524999999999999
 49
6.35
 74
     0
 49
-3.175
 74
     0
  0
LTYPE
  5
6F
330
5
100
AcDbSymbolTableRecord
100
AcDbLinetypeTableRecord
  2
CENTER
 70
     0
  3
Center ____ _ ____ _ ____ _ ____ _ ____ _ ____
 72
    65
 73
     4
 40
50.8
 49
31.75
 74
     0
 49
-6.35
 74
     0
 49
6.35
 74
     0
 49
-6.35
 74
     0
  0
LTYPE
  5
70
330
5
100
AcDbSymbolTableRecord
100
AcDbLinetypeTableRecord
  2
PHANTOM
 70
     0
  3
Phantom ______  __  __  ______  __  __  ______ 
 72
    65
 73
     6
 40
63.50000000000001
 49
31.75
 74
     0
 49
-6.35
 74
     0
 49
6.35
 74
     0
 49
-6.35
 74
     0
 49
6.35
 74
     0
 49
-6.35
 74
     0
  0
LTYPE
  5
71
330
5
100
AcDbSymbolTableRecord
100
AcDbLinetypeTableRecord
  2
ACAD_ISO06W100
 70
     0
  3
ISO long-dash triple-dot ____ ... ____ ... ____
 72
    65
 73
     8
 40
36.0
 49
24.0
 74
     0
 49
-3.0
 74
     0
 49
0.0
 74
     0
 49
-3.0
 74
     0
 49
0.0
 74
     0
 49
-3.0
 74
     0
 49
0.0
 74
     0
 49
-3.0
 74
     0
  0
LTYPE
  5
72
330
5
100
AcDbSymbolTableRecord
100
AcDbLinetypeTableRecord
  2
ACAD_ISO15W100
 70
     0
  3
ISO double-dash triple-dot __ __ . . . __ __ . .
 72
    65
 73
    10
 40
39.0
 49
12.0
 74
     0
 49
-3.0
 74
     0
 49
12.0
 74
     0
 49
-3.0
 74
     0
 49
0.0
 74
     0
 49
-3.0
 74
     0
 49
0.0
 74
     0
 49
-3.0
 74
     0
 49
0.0
 74
     0
 49
-3.0
 74
     0
  0
ENDTAB
  0
TABLE
  2
LAYER
  5
2
330
0
100
AcDbSymbolTable
 70
     5
  0
LAYER
  5
10
330
2
100
AcDbSymbolTableRecord
100
AcDbLayerTableRecord
  2
0
 70
     0
 62
     7
  6
CONTINUOUS
  0
LAYER
  5
75
330
2
100
AcDbSymbolTableRecord
100
AcDbLayerTableRecord
  2
LAY-10
 70
     0
 62
     7
  6
CONTINUOUS
  0
LAYER
  5
76
330
2
100
AcDbSymbolTableRecord
100
AcDbLayerTableRecord
  2
LAY-20
 70
     0
 62
     7
  6
CONTINUOUS
  0
LAYER
  5
77
330
2
100
AcDbSymbolTableRecord
100
AcDbLayerTableRecord
  2
LAY-255
 70
     0
 62
     7
  6
CONTINUOUS
  0
LAYER
  5
426
330
2
100
AcDbSymbolTableRecord
100
AcDbLayerTableRecord
  2
DEFPOINTS
 70
     0
 62
     7
  6
CONTINUOUS
  0
ENDTAB
  0
TABLE
  2
STYLE
  5
3
330
0
100
AcDbSymbolTable
 70
     4
  0
STYLE
  5
11
330
3
100
AcDbSymbolTableRecord
100
AcDbTextStyleTableRecord
  2
STANDARD
 70
     0
 40
0.0
 41
1.0
 50
0.0
 71
     0
 42
2.5
  3
simplex
  4
bigfont
  0
STYLE
  5
73
330
3
100
AcDbSymbolTableRecord
100
AcDbTextStyleTableRecord
  2
EXCADSTD
 70
     0
 40
0.0
 41
1.0
 50
0.0
 71
     0
 42
2.5
  3
simplex
  4
bigfont
  0
STYLE
  5
74
330
3
100
AcDbSymbolTableRecord
100
AcDbTextStyleTableRecord
  2
EXCADVERT
 70
     4
 40
0.0
 41
1.0
 50
0.0
 71
     0
 42
2.5
  3
simplex
  4
bigfont
  0
STYLE
  5
424
330
3
100
AcDbSymbolTableRecord
100
AcDbTextStyleTableRecord
  2
EXCADDIM1
 70
     0
 40
0.0
 41
0.84
 50
0.0
 71
     0
 42
2.5
  3
simplex
  4
bigfont
  0
ENDTAB
  0
TABLE
  2
VIEW
  5
6
330
0
100
AcDbSymbolTable
 70
     0
  0
ENDTAB
  0
TABLE
  2
UCS
  5
7
330
0
100
AcDbSymbolTable
 70
     0
  0
ENDTAB
  0
TABLE
  2
APPID
  5
9
330
0
100
AcDbSymbolTable
 70
     2
  0
APPID
  5
12
330
9
100
AcDbSymbolTableRecord
100
AcDbRegAppTableRecord
  2
ACAD
 70
     0
  0
APPID
  5
4CF
330
9
100
AcDbSymbolTableRecord
100
AcDbRegAppTableRecord
  2
ACAD_MLEADERVER
 70
     0
  0
ENDTAB
  0
TABLE
  2
DIMSTYLE
  5
A
330
0
100
AcDbSymbolTable
 70
     1
  0
DIMSTYLE
105
27
102
{ACAD_REACTORS
330
425
330
433
330
440
330
44C
330
459
330
466
102
}
330
A
100
AcDbSymbolTableRecord
100
AcDbDimStyleTableRecord
  2
ISO-25
 70
     0
  3

  4

  5

  6

  7

 40
1.0
 41
2.5
 42
0.625
 43
3.75
 44
1.25
 45
0.0
 46
0.0
 47
0.0
 48
0.0
140
2.5
141
2.5
142
0.0
143
0.03937007874016
144
1.0
145
0.0
146
1.0
147
0.625
 71
     0
 72
     0
 73
     0
 74
     0
 75
     0
 76
     0
 77
     1
 78
     8
170
     0
171
     3
172
     1
173
     0
174
     0
175
     0
176
     0
177
     0
178
     0
270
     2
271
     2
272
     2
273
     2
274
     3
340
11
275
     0
280
     0
281
     0
282
     0
283
     0
284
     8
285
     0
286
     0
287
     5
288
     0
  0
ENDTAB
  0
TABLE
  2
BLOCK_RECORD
  5
1
330
0
100
AcDbSymbolTable
 70
    22
  0
BLOCK_RECORD
  5
1F
330
1
100
AcDbSymbolTableRecord
100
AcDbBlockTableRecord
  2
*MODEL_SPACE
  0
BLOCK_RECORD
  5
1B
330
1
100
AcDbSymbolTableRecord
100
AcDbBlockTableRecord
  2
*PAPER_SPACE
  0
BLOCK_RECORD
  5
78
330
1
100
AcDbSymbolTableRecord
100
AcDbBlockTableRecord
  2
EX_NORM
  0
BLOCK_RECORD
  5
7B
330
1
100
AcDbSymbolTableRecord
100
AcDbBlockTableRecord
  2
EX_BNORM
  0
BLOCK_RECORD
  5
7E
330
1
100
AcDbSymbolTableRecord
100
AcDbBlockTableRecord
  2
EX_BCIR
  0
BLOCK_RECORD
  5
81
330
1
100
AcDbSymbolTableRecord
100
AcDbBlockTableRecord
  2
EX_RCIVIL
  0
BLOCK_RECORD
  5
84
330
1
100
AcDbSymbolTableRecord
100
AcDbBlockTableRecord
  2
EX_SLANT
  0
BLOCK_RECORD
  5
87
330
1
100
AcDbSymbolTableRecord
100
AcDbBlockTableRecord
  2
EX_NONE
  0
BLOCK_RECORD
  5
8A
330
1
100
AcDbSymbolTableRecord
100
AcDbBlockTableRecord
  2
EX_CIVIL
  0
BLOCK_RECORD
  5
8D
330
1
100
AcDbSymbolTableRecord
100
AcDbBlockTableRecord
  2
EX_WCIR
  0
BLOCK_RECORD
  5
90
330
1
100
AcDbSymbolTableRecord
100
AcDbBlockTableRecord
  2
EX_WCIR2
  0
BLOCK_RECORD
  5
93
330
1
100
AcDbSymbolTableRecord
100
AcDbBlockTableRecord
  2
EX_WNORM
  0
BLOCK_RECORD
  5
96
330
1
100
AcDbSymbolTableRecord
100
AcDbBlockTableRecord
  2
EX_NNORM
  0
BLOCK_RECORD
  5
99
330
1
100
AcDbSymbolTableRecord
100
AcDbBlockTableRecord
  2
EX_BBOX
  0
BLOCK_RECORD
  5
9C
330
1
100
AcDbSymbolTableRecord
100
AcDbBlockTableRecord
  2
EX_WBOX
  0
BLOCK_RECORD
  5
9F
330
1
100
AcDbSymbolTableRecord
100
AcDbBlockTableRecord
  2
EX_INTEGRAL
  0
BLOCK_RECORD
  5
A2
330
1
100
AcDbSymbolTableRecord
100
AcDbBlockTableRecord
  2
SYM-1
  0
BLOCK_RECORD
  5
A5
330
1
100
AcDbSymbolTableRecord
100
AcDbBlockTableRecord
  2
SYM-2
  0
BLOCK_RECORD
  5
427
330
1
100
AcDbSymbolTableRecord
100
AcDbBlockTableRecord
  2
*D17
  0
BLOCK_RECORD
  5
434
330
1
100
AcDbSymbolTableRecord
100
AcDbBlockTableRecord
  2
*D18
  0
BLOCK_RECORD
  5
441
330
1
100
AcDbSymbolTableRecord
100
AcDbBlockTableRecord
  2
*D19
  0
BLOCK_RECORD
  5
44D
330
1
100
AcDbSymbolTableRecord
100
AcDbBlockTableRecord
  2
*D20
  0
BLOCK_RECORD
  5
45A
330
1
100
AcDbSymbolTableRecord
100
AcDbBlockTableRecord
  2
*D21
  0
BLOCK_RECORD
  5
467
330
1
100
AcDbSymbolTableRecord
100
AcDbBlockTableRecord
  2
*D22
  0
ENDTAB
  0
ENDSEC
  0
SECTION
  2
BLOCKS
  0
BLOCK
  5
20
330
1F
100
AcDbEntity
  8
0
100
AcDbBlockBegin
  2
*MODEL_SPACE
 70
     0
 10
0.0
 20
0.0
 30
0.0
  3
*MODEL_SPACE
  1

  0
ENDBLK
  5
21
330
1F
100
AcDbEntity
  8
0
100
AcDbBlockEnd
  0
BLOCK
  5
1C
330
1B
100
AcDbEntity
 67
     1
  8
0
100
AcDbBlockBegin
  2
*PAPER_SPACE
 70
     0
 10
0.0
 20
0.0
 30
0.0
  3
*PAPER_SPACE
  1

  0
ENDBLK
  5
1D
330
1B
100
AcDbEntity
 67
     1
  8
0
100
AcDbBlockEnd
  0
BLOCK
  5
79
330
78
100
AcDbEntity
  8
0
100
AcDbBlockBegin
  2
EX_NORM
 70
     0
 10
0.0
 20
0.0
 30
0.0
  3
EX_NORM
  1

  0
LINE
  5
A8
330
78
100
AcDbEntity
  8
0
  6
CONTINUOUS
 62
     0
100
AcDbLine
 10
0.0
 20
0.0
 30
0.0
 11
-1.0
 21
0.0
 31
0.0
  0
LINE
  5
A9
330
78
100
AcDbEntity
  8
0
  6
CONTINUOUS
 62
     0
100
AcDbLine
 10
0.0
 20
0.0
 30
0.0
 11
-1.0
 21
0.166666667
 31
0.0
  0
LINE
  5
AA
330
78
100
AcDbEntity
  8
0
  6
CONTINUOUS
 62
     0
100
AcDbLine
 10
0.0
 20
0.0
 30
0.0
 11
-1.0
 21
-0.166666667
 31
0.0
  0
ENDBLK
  5
7A
330
78
100
AcDbEntity
  8
0
100
AcDbBlockEnd
  0
BLOCK
  5
7C
330
7B
100
AcDbEntity
  8
0
100
AcDbBlockBegin
  2
EX_BNORM
 70
     0
 10
0.0
 20
0.0
 30
0.0
  3
EX_BNORM
  1

  0
LINE
  5
AB
330
7B
100
AcDbEntity
  8
0
  6
CONTINUOUS
 62
     0
100
AcDbLine
 10
0.0
 20
0.0
 30
0.0
 11
-1.0
 21
0.0
 31
0.0
  0
LINE
  5
AC
330
7B
100
AcDbEntity
  8
0
  6
CONTINUOUS
 62
     0
100
AcDbLine
 10
0.0
 20
0.0
 30
0.0
 11
-1.0
 21
0.166666667
 31
0.0
  0
LINE
  5
AD
330
7B
100
AcDbEntity
  8
0
  6
CONTINUOUS
 62
     0
100
AcDbLine
 10
0.0
 20
0.0
 30
0.0
 11
-1.0
 21
-0.166666667
 31
0.0
  0
LINE
  5
AE
330
7B
100
AcDbEntity
  8
0
  6
CONTINUOUS
 62
     0
100
AcDbLine
 10
0.0
 20
0.0
 30
0.0
 11
-1.0
 21
0.083333333
 31
0.0
  0
LINE
  5
AF
330
7B
100
AcDbEntity
  8
0
  6
CONTINUOUS
 62
     0
100
AcDbLine
 10
0.0
 20
0.0
 30
0.0
 11
-1.0
 21
-0.083333333
 31
0.0
  0
LINE
  5
B0
330
7B
100
AcDbEntity
  8
0
  6
CONTINUOUS
 62
     0
100
AcDbLine
 10
-1.0
 20
0.166666667
 30
0.0
 11
-1.0
 21
-0.166666667
 31
0.0
  0
ENDBLK
  5
7D
330
7B
100
AcDbEntity
  8
0
100
AcDbBlockEnd
  0
BLOCK
  5
7F
330
7E
100
AcDbEntity
  8
0
100
AcDbBlockBegin
  2
EX_BCIR
 70
     0
 10
0.0
 20
0.0
 30
0.0
  3
EX_BCIR
  1

  0
LINE
  5
B1
330
7E
100
AcDbEntity
  8
0
  6
CONTINUOUS
 62
     0
100
AcDbLine
 10
0.0
 20
0.0
 30
0.0
 11
-1.0
 21
0.0
 31
0.0
  0
CIRCLE
  5
B2
330
7E
100
AcDbEntity
  8
0
  6
CONTINUOUS
 62
     0
100
AcDbCircle
 10
0.0
 20
0.0
 30
0.0
 40
0.5
  0
CIRCLE
  5
B3
330
7E
100
AcDbEntity
  8
0
  6
CONTINUOUS
 62
     0
100
AcDbCircle
 10
0.0
 20
0.0
 30
0.0
 40
0.25
  0
ENDBLK
  5
80
330
7E
100
AcDbEntity
  8
0
100
AcDbBlockEnd
  0
BLOCK
  5
82
330
81
100
AcDbEntity
  8
0
100
AcDbBlockBegin
  2
EX_RCIVIL
 70
     0
 10
0.0
 20
0.0
 30
0.0
  3
EX_RCIVIL
  1

  0
LINE
  5
B4
330
81
100
AcDbEntity
  8
0
  6
CONTINUOUS
 62
     0
100
AcDbLine
 10
0.0
 20
0.0
 30
0.0
 11
-1.0
 21
0.0
 31
0.0
  0
LINE
  5
B5
330
81
100
AcDbEntity
  8
0
  6
CONTINUOUS
 62
     0
100
AcDbLine
 10
-1.0
 20
-0.25
 30
0.0
 11
0.0
 21
-0.25
 31
0.0
  0
LINE
  5
B6
330
81
100
AcDbEntity
  8
0
  6
CONTINUOUS
 62
     0
100
AcDbLine
 10
-1.0
 20
-0.125
 30
0.0
 11
0.0
 21
-0.125
 31
0.0
  0
ENDBLK
  5
83
330
81
100
AcDbEntity
  8
0
100
AcDbBlockEnd
  0
BLOCK
  5
85
330
84
100
AcDbEntity
  8
0
100
AcDbBlockBegin
  2
EX_SLANT
 70
     0
 10
0.0
 20
0.0
 30
0.0
  3
EX_SLANT
  1

  0
LINE
  5
B7
330
84
100
AcDbEntity
  8
0
  6
CONTINUOUS
 62
     0
100
AcDbLine
 10
0.0
 20
0.0
 30
0.0
 11
-1.0
 21
0.0
 31
0.0
  0
LINE
  5
B8
330
84
100
AcDbEntity
  8
0
  6
CONTINUOUS
 62
     0
100
AcDbLine
 10
0.707106781
 20
0.707106781
 30
0.0
 11
-0.707106781
 21
-0.707106781
 31
0.0
  0
ENDBLK
  5
86
330
84
100
AcDbEntity
  8
0
100
AcDbBlockEnd
  0
BLOCK
  5
88
330
87
100
AcDbEntity
  8
0
100
AcDbBlockBegin
  2
EX_NONE
 70
     0
 10
0.0
 20
0.0
 30
0.0
  3
EX_NONE
  1

  0
LINE
  5
B9
330
87
100
AcDbEntity
  8
0
  6
CONTINUOUS
 62
     0
100
AcDbLine
 10
0.0
 20
0.0
 30
0.0
 11
-1.0
 21
0.0
 31
0.0
  0
ENDBLK
  5
89
330
87
100
AcDbEntity
  8
0
100
AcDbBlockEnd
  0
BLOCK
  5
8B
330
8A
100
AcDbEntity
  8
0
100
AcDbBlockBegin
  2
EX_CIVIL
 70
     0
 10
0.0
 20
0.0
 30
0.0
  3
EX_CIVIL
  1

  0
LINE
  5
BA
330
8A
100
AcDbEntity
  8
0
  6
CONTINUOUS
 62
     0
100
AcDbLine
 10
0.0
 20
0.0
 30
0.0
 11
-1.0
 21
0.0
 31
0.0
  0
LINE
  5
BB
330
8A
100
AcDbEntity
  8
0
  6
CONTINUOUS
 62
     0
100
AcDbLine
 10
-1.0
 20
0.25
 30
0.0
 11
0.0
 21
0.25
 31
0.0
  0
LINE
  5
BC
330
8A
100
AcDbEntity
  8
0
  6
CONTINUOUS
 62
     0
100
AcDbLine
 10
-1.0
 20
0.125
 30
0.0
 11
0.0
 21
0.125
 31
0.0
  0
ENDBLK
  5
8C
330
8A
100
AcDbEntity
  8
0
100
AcDbBlockEnd
  0
BLOCK
  5
8E
330
8D
100
AcDbEntity
  8
0
100
AcDbBlockBegin
  2
EX_WCIR
 70
     0
 10
0.0
 20
0.0
 30
0.0
  3
EX_WCIR
  1

  0
LINE
  5
BD
330
8D
100
AcDbEntity
  8
0
  6
CONTINUOUS
 62
     0
100
AcDbLine
 10
0.0
 20
0.0
 30
0.0
 11
-1.0
 21
0.0
 31
0.0
  0
CIRCLE
  5
BE
330
8D
100
AcDbEntity
  8
0
  6
CONTINUOUS
 62
     0
100
AcDbCircle
 10
0.0
 20
0.0
 30
0.0
 40
0.5
  0
ENDBLK
  5
8F
330
8D
100
AcDbEntity
  8
0
100
AcDbBlockEnd
  0
BLOCK
  5
91
330
90
100
AcDbEntity
  8
0
100
AcDbBlockBegin
  2
EX_WCIR2
 70
     0
 10
0.0
 20
0.0
 30
0.0
  3
EX_WCIR2
  1

  0
LINE
  5
BF
330
90
100
AcDbEntity
  8
0
  6
CONTINUOUS
 62
     0
100
AcDbLine
 10
-0.5
 20
0.0
 30
0.0
 11
-1.0
 21
0.0
 31
0.0
  0
CIRCLE
  5
C0
330
90
100
AcDbEntity
  8
0
  6
CONTINUOUS
 62
     0
100
AcDbCircle
 10
0.0
 20
0.0
 30
0.0
 40
0.5
  0
ENDBLK
  5
92
330
90
100
AcDbEntity
  8
0
100
AcDbBlockEnd
  0
BLOCK
  5
94
330
93
100
AcDbEntity
  8
0
100
AcDbBlockBegin
  2
EX_WNORM
 70
     0
 10
0.0
 20
0.0
 30
0.0
  3
EX_WNORM
  1

  0
LINE
  5
C1
330
93
100
AcDbEntity
  8
0
  6
CONTINUOUS
 62
     0
100
AcDbLine
 10
-1.0
 20
0.0
 30
0.0
 11
-1.0
 21
0.0
 31
0.0
  0
LINE
  5
C2
330
93
100
AcDbEntity
  8
0
  6
CONTINUOUS
 62
     0
100
AcDbLine
 10
0.0
 20
0.0
 30
0.0
 11
-1.0
 21
0.166666667
 31
0.0
  0
LINE
  5
C3
330
93
100
AcDbEntity
  8
0
  6
CONTINUOUS
 62
     0
100
AcDbLine
 10
0.0
 20
0.0
 30
0.0
 11
-1.0
 21
-0.166666667
 31
0.0
  0
LINE
  5
C4
330
93
100
AcDbEntity
  8
0
  6
CONTINUOUS
 62
     0
100
AcDbLine
 10
-1.0
 20
0.166666667
 30
0.0
 11
-1.0
 21
-0.166666667
 31
0.0
  0
ENDBLK
  5
95
330
93
100
AcDbEntity
  8
0
100
AcDbBlockEnd
  0
BLOCK
  5
97
330
96
100
AcDbEntity
  8
0
100
AcDbBlockBegin
  2
EX_NNORM
 70
     0
 10
0.0
 20
0.0
 30
0.0
  3
EX_NNORM
  1

  0
LINE
  5
C5
330
96
100
AcDbEntity
  8
0
  6
CONTINUOUS
 62
     0
100
AcDbLine
 10
0.0
 20
0.0
 30
0.0
 11
-1.0
 21
0.0
 31
0.0
  0
LINE
  5
C6
330
96
100
AcDbEntity
  8
0
  6
CONTINUOUS
 62
     0
100
AcDbLine
 10
0.0
 20
0.0
 30
0.0
 11
-1.0
 21
0.166666667
 31
0.0
  0
LINE
  5
C7
330
96
100
AcDbEntity
  8
0
  6
CONTINUOUS
 62
     0
100
AcDbLine
 10
0.0
 20
0.0
 30
0.0
 11
-1.0
 21
-0.166666667
 31
0.0
  0
LINE
  5
C8
330
96
100
AcDbEntity
  8
0
  6
CONTINUOUS
 62
     0
100
AcDbLine
 10
-1.0
 20
0.166666667
 30
0.0
 11
-1.0
 21
-0.166666667
 31
0.0
  0
ENDBLK
  5
98
330
96
100
AcDbEntity
  8
0
100
AcDbBlockEnd
  0
BLOCK
  5
9A
330
99
100
AcDbEntity
  8
0
100
AcDbBlockBegin
  2
EX_BBOX
 70
     0
 10
0.0
 20
0.0
 30
0.0
  3
EX_BBOX
  1

  0
LINE
  5
C9
330
99
100
AcDbEntity
  8
0
  6
CONTINUOUS
 62
     0
100
AcDbLine
 10
0.0
 20
0.0
 30
0.0
 11
-1.0
 21
0.0
 31
0.0
  0
LINE
  5
CA
330
99
100
AcDbEntity
  8
0
  6
CONTINUOUS
 62
     0
100
AcDbLine
 10
-0.5
 20
0.5
 30
0.0
 11
0.5
 21
0.5
 31
0.0
  0
LINE
  5
CB
330
99
100
AcDbEntity
  8
0
  6
CONTINUOUS
 62
     0
100
AcDbLine
 10
0.5
 20
0.5
 30
0.0
 11
0.5
 21
-0.5
 31
0.0
  0
LINE
  5
CC
330
99
100
AcDbEntity
  8
0
  6
CONTINUOUS
 62
     0
100
AcDbLine
 10
0.5
 20
-0.5
 30
0.0
 11
-0.5
 21
-0.5
 31
0.0
  0
LINE
  5
CD
330
99
100
AcDbEntity
  8
0
  6
CONTINUOUS
 62
     0
100
AcDbLine
 10
-0.5
 20
-0.5
 30
0.0
 11
-0.5
 21
0.5
 31
0.0
  0
LINE
  5
CE
330
99
100
AcDbEntity
  8
0
  6
CONTINUOUS
 62
     0
100
AcDbLine
 10
-0.25
 20
0.25
 30
0.0
 11
0.25
 21
0.25
 31
0.0
  0
LINE
  5
CF
330
99
100
AcDbEntity
  8
0
  6
CONTINUOUS
 62
     0
100
AcDbLine
 10
0.25
 20
0.25
 30
0.0
 11
0.25
 21
-0.25
 31
0.0
  0
LINE
  5
D0
330
99
100
AcDbEntity
  8
0
  6
CONTINUOUS
 62
     0
100
AcDbLine
 10
0.25
 20
-0.25
 30
0.0
 11
-0.25
 21
-0.25
 31
0.0
  0
LINE
  5
D1
330
99
100
AcDbEntity
  8
0
  6
CONTINUOUS
 62
     0
100
AcDbLine
 10
-0.25
 20
-0.25
 30
0.0
 11
-0.25
 21
0.25
 31
0.0
  0
ENDBLK
  5
9B
330
99
100
AcDbEntity
  8
0
100
AcDbBlockEnd
  0
BLOCK
  5
9D
330
9C
100
AcDbEntity
  8
0
100
AcDbBlockBegin
  2
EX_WBOX
 70
     0
 10
0.0
 20
0.0
 30
0.0
  3
EX_WBOX
  1

  0
LINE
  5
D2
330
9C
100
AcDbEntity
  8
0
  6
CONTINUOUS
 62
     0
100
AcDbLine
 10
-0.5
 20
0.0
 30
0.0
 11
-1.0
 21
0.0
 31
0.0
  0
LINE
  5
D3
330
9C
100
AcDbEntity
  8
0
  6
CONTINUOUS
 62
     0
100
AcDbLine
 10
-0.5
 20
0.5
 30
0.0
 11
0.5
 21
0.5
 31
0.0
  0
LINE
  5
D4
330
9C
100
AcDbEntity
  8
0
  6
CONTINUOUS
 62
     0
100
AcDbLine
 10
0.5
 20
0.5
 30
0.0
 11
0.5
 21
-0.5
 31
0.0
  0
LINE
  5
D5
330
9C
100
AcDbEntity
  8
0
  6
CONTINUOUS
 62
     0
100
AcDbLine
 10
0.5
 20
-0.5
 30
0.0
 11
-0.5
 21
-0.5
 31
0.0
  0
LINE
  5
D6
330
9C
100
AcDbEntity
  8
0
  6
CONTINUOUS
 62
     0
100
AcDbLine
 10
-0.5
 20
-0.5
 30
0.0
 11
-0.5
 21
0.5
 31
0.0
  0
ENDBLK
  5
9E
330
9C
100
AcDbEntity
  8
0
100
AcDbBlockEnd
  0
BLOCK
  5
A0
330
9F
100
AcDbEntity
  8
0
100
AcDbBlockBegin
  2
EX_INTEGRAL
 70
     0
 10
0.0
 20
0.0
 30
0.0
  3
EX_INTEGRAL
  1

  0
LINE
  5
D7
330
9F
100
AcDbEntity
  8
0
  6
CONTINUOUS
 62
     0
100
AcDbLine
 10
0.0
 20
0.0
 30
0.0
 11
-1.0
 21
0.0
 31
0.0
  0
ARC
  5
D8
330
9F
100
AcDbEntity
  8
0
  6
CONTINUOUS
 62
     0
100
AcDbCircle
 10
0.542115
 20
0.164992
 30
0.0
 40
0.56667
100
AcDbArc
 50
73.07249033629006
 51
196.9275130221199
  0
ARC
  5
D9
330
9F
100
AcDbEntity
  8
0
  6
CONTINUOUS
 62
     0
100
AcDbCircle
 10
-0.542115
 20
-0.164992
 30
0.0
 40
0.56667
100
AcDbArc
 50
253.0724869220464
 51
16.9275130559125
  0
ENDBLK
  5
A1
330
9F
100
AcDbEntity
  8
0
100
AcDbBlockEnd
  0
BLOCK
  5
A3
330
A2
100
AcDbEntity
  8
0
100
AcDbBlockBegin
  2
SYM-1
 70
     0
 10
0.0
 20
0.0
 30
0.0
  3
SYM-1
  1

  0
ARC
  5
DA
330
A2
100
AcDbEntity
  8
0
  6
CONTINUOUS
 62
     7
100
AcDbCircle
 10
422.3830895436602
 20
647.8394177426919
 30
0.0
 40
14.10335854404936
100
AcDbArc
 50
0.8304248962062368
 51
18.97823271790446
  0
ARC
  5
DB
330
A2
100
AcDbEntity
  8
0
  6
CONTINUOUS
 62
     7
100
AcDbCircle
 10
431.4997392965859
 20
648.2976357435889
 30
0.0
 40
0.414350522696645
100
AcDbArc
 50
131.8191890287569
 51
309.3319487860998
  0
ARC
  5
DC
330
A2
100
AcDbEntity
  8
0
  6
CONTINUOUS
 62
     7
100
AcDbCircle
 10
421.8797758800491
 20
660.0375720705288
 30
0.0
 40
15.59228849517438
100
AcDbArc
 50
309.3319487861029
 51
321.0835017043498
  0
ARC
  5
DD
330
A2
100
AcDbEntity
  8
0
  6
CONTINUOUS
 62
     7
100
AcDbCircle
 10
426.6484300273785
 20
648.421157634948
 30
0.0
 40
8.76616406654373
100
AcDbArc
 50
357.6278281131208
 51
14.54198578470514
  0
ARC
  5
DE
330
A2
100
AcDbEntity
  8
0
  6
CONTINUOUS
 62
     7
100
AcDbCircle
 10
418.975379375527
 20
662.2959320093535
 30
0.0
 40
18.36893698977974
100
AcDbArc
 50
311.8191890287524
 51
330.8934742977154
  0
LINE
  5
DF
330
A2
100
AcDbEntity
  8
0
  6
CONTINUOUS
 62
     7
100
AcDbLine
 10
435.2303995448409
 20
653.9939375957954
 30
0.0
 11
435.0246287029889
 21
653.3606400633976
 31
0.0
  0
LINE
  5
E0
330
A2
100
AcDbEntity
  8
0
  6
CONTINUOUS
 62
     7
100
AcDbLine
 10
435.7198204628588
 20
652.4259557193036
 30
0.0
 11
436.1339032353215
 21
653.7003714511393
 31
0.0
  0
LINE
  5
E1
330
A2
100
AcDbEntity
  8
0
  6
CONTINUOUS
 62
     7
100
AcDbLine
 10
436.4243792100335
 20
654.5943645764567
 30
0.0
 11
438.0584636368374
 21
654.0634183608806
 31
0.0
  0
LINE
  5
E2
330
A2
100
AcDbEntity
  8
0
  6
CONTINUOUS
 62
     7
100
AcDbLine
 10
437.7679876621253
 20
653.169425235563
 30
0.0
 11
436.1339032353215
 21
653.7003714511393
 31
0.0
  0
ARC
  5
E3
330
A2
100
AcDbEntity
  8
0
  6
CONTINUOUS
 62
     7
100
AcDbCircle
 10
437.9132256494802
 20
653.6164217982171
 30
0.0
 40
0.4699999999949109
100
AcDbArc
 50
252.0000000000002
 51
72.00000000000003
  0
ARC
  5
E4
330
A2
100
AcDbEntity
  8
0
  6
CONTINUOUS
 62
     7
100
AcDbCircle
 10
433.6918148707471
 20
654.9880413061173
 30
0.0
 40
0.4699999999949109
100
AcDbArc
 50
72.00000000000003
 51
252.0000000000002
  0
LINE
  5
E5
330
A2
100
AcDbEntity
  8
0
  6
CONTINUOUS
 62
     7
100
AcDbLine
 10
433.8370528581048
 20
655.4350378687807
 30
0.0
 11
435.5208755195534
 21
654.8879307211128
 31
0.0
  0
LINE
  5
E6
330
A2
100
AcDbEntity
  8
0
  6
CONTINUOUS
 62
     7
100
AcDbLine
 10
435.2303995448409
 20
653.9939375957954
 30
0.0
 11
433.5465768833927
 21
654.5410447434633
 31
0.0
  0
ARC
  5
E7
330
A2
100
AcDbEntity
  8
0
  6
CONTINUOUS
 62
     7
100
AcDbCircle
 10
436.7288948087569
 20
657.0686995107612
 30
0.0
 40
0.475000000003547
100
AcDbArc
 50
342.0000000000002
 51
162.0
  0
LINE
  5
E8
330
A2
100
AcDbEntity
  8
0
  6
CONTINUOUS
 62
     7
100
AcDbLine
 10
436.4243792100335
 20
654.5943645764567
 30
0.0
 11
437.1806466539936
 21
656.9219164384342
 31
0.0
  0
LINE
  5
E9
330
A2
100
AcDbEntity
  8
0
  6
CONTINUOUS
 62
     7
100
AcDbLine
 10
436.2771429635129
 20
657.2154825830905
 30
0.0
 11
435.5208755195534
 21
654.8879307211128
 31
0.0
  0
ARC
  5
EA
330
A2
100
AcDbEntity
  8
0
  6
CONTINUOUS
 62
     7
100
AcDbCircle
 10
435.9458216494484
 20
648.0360049819019
 30
0.0
 40
0.539201780136166
100
AcDbArc
 50
177.6278281131152
 51
0.8304248962068671
  0
ARC
  5
EB
330
A2
100
AcDbEntity
  8
0
  6
CONTINUOUS
 62
     7
100
AcDbCircle
 10
432.2956213010345
 20
643.4244866202773
 30
0.0
 40
0.475000000004911
100
AcDbArc
 50
162.0
 51
342.0000000000002
  0
LINE
  5
EC
330
A2
100
AcDbEntity
  8
0
  6
CONTINUOUS
 62
     7
100
AcDbLine
 10
432.7473731462795
 20
643.2777035479478
 30
0.0
 11
435.1337604242543
 21
650.6222483866941
 31
0.0
  0
LINE
  5
ED
330
A2
100
AcDbEntity
  8
0
  6
CONTINUOUS
 62
     7
100
AcDbLine
 10
434.0115476441358
 20
650.242697166741
 30
0.0
 11
431.8438694557993
 21
643.5712696926041
 31
0.0
  0
LINE
  5
EE
330
A2
100
AcDbEntity
  8
0
  6
CONTINUOUS
 62
     7
100
AcDbLine
 10
438.8592736301651
 20
650.4490549257882
 30
0.0
 11
439.749233511189
 21
650.1598894315866
 31
0.0
  0
LINE
  5
EF
330
A2
100
AcDbEntity
  8
0
  6
CONTINUOUS
 62
     7
100
AcDbLine
 10
438.7965600961495
 20
651.3000869453585
 30
0.0
 11
440.3320495844289
 21
650.8011761672581
 31
0.0
  0
LINE
  5
F0
330
A2
100
AcDbEntity
  8
0
  6
CONTINUOUS
 62
     7
100
AcDbLine
 10
439.9595319323988
 20
649.7471555408299
 30
0.0
 11
438.8840292173489
 21
646.4370985405337
 31
0.0
  0
LINE
  5
F1
330
A2
100
AcDbEntity
  8
0
  6
CONTINUOUS
 62
     7
100
AcDbLine
 10
438.4224145439683
 20
650.2264641035279
 30
0.0
 11
437.3789616298952
 21
647.0150462480681
 31
0.0
  0
LINE
  5
F2
330
A2
100
AcDbEntity
  8
0
  6
CONTINUOUS
 62
     7
100
AcDbLine
 10
437.5950863252445
 20
646.5908776504773
 30
0.0
 11
438.5664243701306
 21
646.2752707879933
 31
0.0
  0
LINE
  5
F3
330
A2
100
AcDbEntity
  8
0
  6
CONTINUOUS
 62
     7
100
AcDbLine
 10
436.5136722046775
 20
646.9408136111831
 30
0.0
 11
437.7581765326857
 21
650.7710040934371
 31
0.0
  0
LINE
  5
F4
330
A2
100
AcDbEntity
  8
0
  6
CONTINUOUS
 62
     7
100
AcDbLine
 10
438.6261812254386
 20
645.4146848293283
 30
0.0
 11
437.0264264973592
 21
645.9344766496229
 31
0.0
  0
LINE
  5
F5
330
A2
100
AcDbEntity
  8
0
  6
CONTINUOUS
 62
     7
100
AcDbLine
 10
439.5199322145425
 20
645.8700737037875
 30
0.0
 11
440.8144940972541
 21
649.8543254980636
 31
0.0
  0
ARC
  5
F6
330
A2
100
AcDbEntity
  8
0
  6
CONTINUOUS
 62
     7
100
AcDbCircle
 10
438.8453622827608
 20
646.0892547611097
 30
0.0
 40
0.709284800875302
100
AcDbArc
 50
252.0000000000002
 51
342.0000000000002
  0
ARC
  5
F7
330
A2
100
AcDbEntity
  8
0
  6
CONTINUOUS
 62
     7
100
AcDbCircle
 10
438.6443129174693
 20
646.5149870878727
 30
0.0
 40
0.252052633857211
100
AcDbArc
 50
252.0000000000002
 51
342.0000000000002
  0
ARC
  5
F8
330
A2
100
AcDbEntity
  8
0
  6
CONTINUOUS
 62
     7
100
AcDbCircle
 10
437.6991082763651
 20
646.9110242969473
 30
0.0
 40
0.336622104979685
100
AcDbArc
 50
162.0
 51
252.0000000000002
  0
ARC
  5
F9
330
A2
100
AcDbEntity
  8
0
  6
CONTINUOUS
 62
     7
100
AcDbCircle
 10
437.2732178317985
 20
646.6940222767439
 30
0.0
 40
0.798633534503153
100
AcDbArc
 50
162.0
 51
252.0000000000002
  0
ARC
  5
FA
330
A2
100
AcDbEntity
  8
0
  6
CONTINUOUS
 62
     7
100
AcDbCircle
 10
438.7521394981966
 20
650.1193299715596
 30
0.0
 40
0.346693333760068
100
AcDbArc
 50
72.00000000000003
 51
162.0
  0
ARC
  5
FB
330
A2
100
AcDbEntity
  8
0
  6
CONTINUOUS
 62
     7
100
AcDbCircle
 10
438.5419097403781
 20
650.5163537376659
 30
0.0
 40
0.82406586176984
100
AcDbArc
 50
72.00000000000003
 51
162.0
  0
ARC
  5
FC
330
A2
100
AcDbEntity
  8
0
  6
CONTINUOUS
 62
     7
100
AcDbCircle
 10
439.6480157764151
 20
649.8483732756035
 30
0.0
 40
0.327547470256045
100
AcDbArc
 50
342.0000000000002
 51
72.0000000000001
  0
ARC
  5
FD
330
A2
100
AcDbEntity
  8
0
  6
CONTINUOUS
 62
     7
100
AcDbCircle
 10
440.0998465062441
 20
650.0865285762482
 30
0.0
 40
0.751424945589715
100
AcDbArc
 50
342.0000000000002
 51
72.00000000000003
  0
ARC
  5
FE
330
A2
100
AcDbEntity
  8
0
  6
CONTINUOUS
 62
     7
100
AcDbCircle
 10
441.7185427855478
 20
650.8716153008886
 30
0.0
 40
0.644558441227374
100
AcDbArc
 50
342.0000000000002
 51
72.00000000000003
  0
ARC
  5
FF
330
A2
100
AcDbEntity
  8
0
  6
CONTINUOUS
 62
     7
100
AcDbCircle
 10
442.5720648051709
 20
651.2906344017238
 30
0.0
 40
0.9022947857894209
100
AcDbArc
 50
357.5769152948426
 51
72.00000000000003
  0
ARC
  5
100
330
A2
100
AcDbEntity
  8
0
  6
CONTINUOUS
 62
     7
100
AcDbCircle
 10
439.8007960134503
 20
657.180874461746
 30
0.0
 40
4.8588639251563
100
AcDbArc
 50
289.7223669035534
 51
317.9802711951957
  0
LINE
  5
101
330
A2
100
AcDbEntity
  8
0
  6
CONTINUOUS
 62
     7
100
AcDbLine
 10
441.4404816457384
 20
652.6070369405334
 30
0.0
 11
442.8508892279154
 21
652.1487677373677
 31
0.0
  0
ARC
  5
102
330
A2
100
AcDbEntity
  8
0
  6
CONTINUOUS
 62
     7
100
AcDbCircle
 10
440.6169890544746
 20
652.4145158059923
 30
0.0
 40
0.4824283150279889
100
AcDbArc
 50
117.9231774103835
 51
252.0000000000002
  0
ARC
  5
103
330
A2
100
AcDbEntity
  8
0
  6
CONTINUOUS
 62
     7
100
AcDbCircle
 10
437.0815249519508
 20
659.0853188061856
 30
0.0
 40
7.067347780169658
100
AcDbArc
 50
297.9231774103888
 51
317.3399032397576
  0
LINE
  5
104
330
A2
100
AcDbEntity
  8
0
  6
CONTINUOUS
 62
     7
100
AcDbLine
 10
440.4679105065632
 20
651.9556992133398
 30
0.0
 11
441.9177222977548
 21
651.484626806551
 31
0.0
  0
LINE
  5
105
330
A2
100
AcDbEntity
  8
0
  6
CONTINUOUS
 62
     7
100
AcDbLine
 10
443.4105158839237
 20
653.9284167602696
 30
0.0
 11
448.0368440376158
 21
652.4252316218983
 31
0.0
  0
ARC
  5
106
330
A2
100
AcDbEntity
  8
0
  6
CONTINUOUS
 62
     7
100
AcDbCircle
 10
448.1781450021202
 20
652.8601112741405
 30
0.0
 40
0.4572595264227179
100
AcDbArc
 50
252.0000000000002
 51
72.00000000000003
  0
ARC
  5
107
330
A2
100
AcDbEntity
  8
0
  6
CONTINUOUS
 62
     7
100
AcDbCircle
 10
439.4198059875815
 20
655.7058681262492
 30
0.0
 40
0.4572595264227179
100
AcDbArc
 50
72.00000000000003
 51
252.0000000000002
  0
LINE
  5
108
330
A2
100
AcDbEntity
  8
0
  6
CONTINUOUS
 62
     7
100
AcDbLine
 10
439.5611069520845
 20
656.1407477784855
 30
0.0
 11
448.3194459666227
 21
653.2949909263771
 31
0.0
  0
LINE
  5
109
330
A2
100
AcDbEntity
  8
0
  6
CONTINUOUS
 62
     7
100
AcDbLine
 10
439.2785050230776
 20
655.2709884740068
 30
0.0
 11
442.2787586295324
 21
654.2961469835757
 31
0.0
  0
ARC
  5
10A
330
A2
100
AcDbEntity
  8
0
  6
CONTINUOUS
 62
     7
100
AcDbCircle
 10
436.9257379586646
 20
644.0827193777191
 30
0.0
 40
0.40501131260404
100
AcDbArc
 50
60.95226904466591
 51
238.0470313642132
  0
LINE
  5
10B
330
A2
100
AcDbEntity
  8
0
  6
CONTINUOUS
 62
     7
100
AcDbLine
 10
443.2578577517723
 20
650.481400800832
 30
0.0
 11
441.0597029582893
 21
643.716175980768
 31
0.0
  0
ARC
  5
10C
330
A2
100
AcDbEntity
  8
0
  6
CONTINUOUS
 62
     7
100
AcDbCircle
 10
440.5854105283213
 20
649.9501314642268
 30
0.0
 40
7.320192287099126
100
AcDbArc
 50
238.0470313642036
 51
260.9520969440036
  0
LINE
  5
10D
330
A2
100
AcDbEntity
  8
0
  6
CONTINUOUS
 62
     7
100
AcDbLine
 10
442.3315542912104
 20
650.6724357886815
 30
0.0
 11
440.3184016680378
 21
644.4765891025218
 31
0.0
  0
ARC
  5
10E
330
A2
100
AcDbEntity
  8
0
  6
CONTINUOUS
 62
     7
100
AcDbCircle
 10
440.144865074494
 20
649.8787858719436
 30
0.0
 40
6.225008762278335
100
AcDbArc
 50
240.9522690446702
 51
260.3734201029327
  0
ARC
  5
10F
330
A2
100
AcDbEntity
  8
0
  6
CONTINUOUS
 62
     7
100
AcDbCircle
 10
439.6648749442896
 20
644.1693830753738
 30
0.0
 40
1.466608966030219
100
AcDbArc
 50
260.9520969440009
 51
342.0000000000002
  0
ARC
  5
110
330
A2
100
AcDbEntity
  8
0
  6
CONTINUOUS
 62
     7
100
AcDbCircle
 10
439.2854983223359
 20
644.8121997438452
 30
0.0
 40
1.086058849294678
100
AcDbArc
 50
260.3734201029306
 51
342.0000000000002
  0
ARC
  5
111
330
A2
100
AcDbEntity
  8
0
  6
CONTINUOUS
 62
     7
100
AcDbCircle
 10
443.9951315944243
 20
649.0792366901928
 30
0.0
 40
0.416785883562613
100
AcDbArc
 50
9.933547224811555
 51
189.2005863060979
  0
ARC
  5
112
330
A2
100
AcDbEntity
  8
0
  6
CONTINUOUS
 62
     7
100
AcDbCircle
 10
439.2621996503843
 20
643.5260267900005
 30
0.0
 40
5.95571527631418
100
AcDbArc
 50
350.6869922625251
 51
1.709001849836979
  0
ARC
  5
113
330
A2
100
AcDbEntity
  8
0
  6
CONTINUOUS
 62
     7
100
AcDbCircle
 10
444.6661842026604
 20
642.6398305807354
 30
0.0
 40
0.479549394736534
100
AcDbArc
 50
181.5896374340759
 51
350.6869922625175
  0
ARC
  5
114
330
A2
100
AcDbEntity
  8
0
  6
CONTINUOUS
 62
     7
100
AcDbCircle
 10
441.6954095616459
 20
643.3757547108999
 30
0.0
 40
0.4180143640272059
100
AcDbArc
 50
121.0880021203127
 51
299.9168331287915
  0
ARC
  5
115
330
A2
100
AcDbEntity
  8
0
  6
CONTINUOUS
 62
     7
100
AcDbCircle
 10
435.7497708780309
 20
653.7085112564453
 30
0.0
 40
12.33927592418281
100
AcDbArc
 50
299.916833128792
 51
312.5285653668578
  0
ARC
  5
116
330
A2
100
AcDbEntity
  8
0
  6
CONTINUOUS
 62
     7
100
AcDbCircle
 10
395.8811834376618
 20
641.2859722610317
 30
0.0
 40
48.32423357330144
100
AcDbArc
 50
1.589637434080841
 51
3.950438601949015
  0
ARC
  5
117
330
A2
100
AcDbEntity
  8
0
  6
CONTINUOUS
 62
     7
100
AcDbCircle
 10
395.8811834376618
 20
641.2859722610317
 30
0.0
 40
48.32423357330144
100
AcDbArc
 50
5.305401841365966
 51
9.200586306100869
  0
ARC
  5
118
330
A2
100
AcDbEntity
  8
0
  6
CONTINUOUS
 62
     7
100
AcDbCircle
 10
435.2148794650237
 20
654.123740213729
 30
0.0
 40
12.13254190660281
100
AcDbArc
 50
301.0880021203172
 51
316.3826798131257
  0
ARC
  5
119
330
A2
100
AcDbEntity
  8
0
  6
CONTINUOUS
 62
     7
100
AcDbCircle
 10
339.4043589646465
 20
630.7621140286917
 30
0.0
 40
106.599396050625
100
AcDbArc
 50
6.973105129445193
 51
7.956024509279418
  0
ARC
  5
11A
330
A2
100
AcDbEntity
  8
0
  6
CONTINUOUS
 62
     7
100
AcDbCircle
 10
339.4043589646465
 20
630.7621140286917
 30
0.0
 40
106.599396050625
100
AcDbArc
 50
8.595420518008966
 51
9.933547224814307
  0
LINE
  5
11B
330
A2
100
AcDbEntity
  8
0
  6
CONTINUOUS
 62
     7
100
AcDbLine
 10
443.2578577517723
 20
650.481400800832
 30
0.0
 11
446.0108296043498
 21
649.5869060227546
 31
0.0
  0
ARC
  5
11C
330
A2
100
AcDbEntity
  8
0
  6
CONTINUOUS
 62
     7
100
AcDbCircle
 10
435.2148794650237
 20
654.123740213729
 30
0.0
 40
12.13254190660281
100
AcDbArc
 50
322.2385226796263
 51
335.3408647851242
  0
ARC
  5
11D
330
A2
100
AcDbEntity
  8
0
  6
CONTINUOUS
 62
     7
100
AcDbCircle
 10
435.7497708780309
 20
653.7085112564453
 30
0.0
 40
12.33927592418281
100
AcDbArc
 50
318.4044397247221
 51
338.3532771309872
  0
LINE
  5
11E
330
A2
100
AcDbEntity
  8
0
  6
CONTINUOUS
 62
     7
100
AcDbLine
 10
446.7312669939964
 20
650.1939915043465
 30
0.0
 11
443.4735528285581
 21
651.2524870013945
 31
0.0
  0
ARC
  5
11F
330
A2
100
AcDbEntity
  8
0
  6
CONTINUOUS
 62
     7
100
AcDbCircle
 10
445.892240483561
 20
649.2219262380149
 30
0.0
 40
0.383762456264428
100
AcDbArc
 50
335.3408647851306
 51
72.0000000000001
  0
ARC
  5
120
330
A2
100
AcDbEntity
  8
0
  6
CONTINUOUS
 62
     7
100
AcDbCircle
 10
446.4884375400441
 20
649.4466392915772
 30
0.0
 40
0.785812619927898
100
AcDbArc
 50
338.3532771309889
 51
72.0000000000001
  0
ARC
  5
121
330
A2
100
AcDbEntity
  8
0
  6
CONTINUOUS
 62
     7
100
AcDbCircle
 10
434.6974591088203
 20
642.8488139425822
 30
0.0
 40
0.4556698729766139
100
AcDbArc
 50
72.00000000000003
 51
252.0000000000002
  0
ARC
  5
122
330
A2
100
AcDbEntity
  8
0
  6
CONTINUOUS
 62
     7
100
AcDbCircle
 10
444.0004255742195
 20
639.8260969045871
 30
0.0
 40
0.4556698729765
100
AcDbArc
 50
252.0000000000002
 51
72.00000000000003
  0
LINE
  5
123
330
A2
100
AcDbEntity
  8
0
  6
CONTINUOUS
 62
     7
100
AcDbLine
 10
444.1412353087938
 20
640.259464706561
 30
0.0
 11
434.838268843397
 21
643.2821817445626
 31
0.0
  0
LINE
  5
124
330
A2
100
AcDbEntity
  8
0
  6
CONTINUOUS
 62
     7
100
AcDbLine
 10
443.8596158396429
 20
639.3927291026068
 30
0.0
 11
434.556649374246
 21
642.4154461406085
 31
0.0
  0
ENDBLK
  5
A4
330
A2
100
AcDbEntity
  8
0
100
AcDbBlockEnd
  0
BLOCK
  5
A6
330
A5
100
AcDbEntity
  8
0
100
AcDbBlockBegin
  2
SYM-2
 70
     0
 10
0.0
 20
0.0
 30
0.0
  3
SYM-2
  1

  0
ARC
  5
125
330
A5
100
AcDbEntity
  8
0
  6
CONTINUOUS
 62
     7
100
AcDbCircle
 10
409.1065791024687
 20
654.3477374764386
 30
0.0
 40
0.4697366595926619
100
AcDbArc
 50
17.99999999999998
 51
108.0000000000001
  0
ARC
  5
126
330
A5
100
AcDbEntity
  8
0
  6
CONTINUOUS
 62
     7
100
AcDbCircle
 10
409.3179719277594
 20
654.5134134136258
 30
0.0
 40
1.157493455452444
100
AcDbArc
 50
17.99999999999998
 51
108.0000000000001
  0
LINE
  5
127
330
A5
100
AcDbEntity
  8
0
  6
CONTINUOUS
 62
     7
100
AcDbLine
 10
410.4188136211358
 20
654.8710985622386
 30
0.0
 11
411.0019068281924
 21
653.0765221982415
 31
0.0
  0
LINE
  5
128
330
A5
100
AcDbEntity
  8
0
  6
CONTINUOUS
 62
     7
100
AcDbLine
 10
410.1079137028754
 20
652.7860462235292
 30
0.0
 11
409.5533252135172
 21
654.4928940871337
 31
0.0
  0
ARC
  5
129
330
A5
100
AcDbEntity
  8
0
  6
CONTINUOUS
 62
     7
100
AcDbCircle
 10
410.5549102655389
 20
652.931284210887
 30
0.0
 40
0.469999999994798
100
AcDbArc
 50
198.0000000000001
 51
17.99999999999998
  0
LINE
  5
12A
330
A5
100
AcDbEntity
  8
0
  6
CONTINUOUS
 62
     7
100
AcDbLine
 10
405.308836331539
 20
652.5246803108855
 30
0.0
 11
408.4139981145452
 21
653.5336085341739
 31
0.0
  0
LINE
  5
12B
330
A5
100
AcDbEntity
  8
0
  6
CONTINUOUS
 62
     7
100
AcDbLine
 10
405.5498695871545
 20
651.7828562281645
 30
0.0
 11
408.6550313701608
 21
652.7917844514529
 31
0.0
  0
LINE
  5
12C
330
A5
100
AcDbEntity
  8
0
  6
CONTINUOUS
 62
     7
100
AcDbLine
 10
405.8310750520512
 20
650.9173947983527
 30
0.0
 11
408.9362368350392
 21
651.9263230216354
 31
0.0
  0
LINE
  5
12D
330
A5
100
AcDbEntity
  8
0
  6
CONTINUOUS
 62
     7
100
AcDbLine
 10
406.0721083076671
 20
650.1755707156317
 30
0.0
 11
409.1772700906556
 21
651.1844989389144
 31
0.0
  0
ARC
  5
12E
330
A5
100
AcDbEntity
  8
0
  6
CONTINUOUS
 62
     7
100
AcDbCircle
 10
408.534514742353
 20
653.162696492813
 30
0.0
 40
0.3900000000051019
100
AcDbArc
 50
288.0000000000003
 51
108.0000000000001
  0
ARC
  5
12F
330
A5
100
AcDbEntity
  8
0
  6
CONTINUOUS
 62
     7
100
AcDbCircle
 10
409.0567534628478
 20
651.5554109802731
 30
0.0
 40
0.3900000000038519
100
AcDbArc
 50
288.0000000000003
 51
108.0000000000001
  0
ARC
  5
130
330
A5
100
AcDbEntity
  8
0
  6
CONTINUOUS
 62
     7
100
AcDbCircle
 10
405.9515916798599
 20
650.5464827569906
 30
0.0
 40
0.3900000000038519
100
AcDbArc
 50
108.0000000000001
 51
288.0000000000003
  0
ARC
  5
131
330
A5
100
AcDbEntity
  8
0
  6
CONTINUOUS
 62
     7
100
AcDbCircle
 10
405.4293529593468
 20
652.1537682695246
 30
0.0
 40
0.3900000000051019
100
AcDbArc
 50
108.0000000000001
 51
288.0000000000003
  0
ARC
  5
132
330
A5
100
AcDbEntity
  8
0
  6
CONTINUOUS
 62
     7
100
AcDbCircle
 10
402.289948606692
 20
649.3567428019435
 30
0.0
 40
0.3900000000038519
100
AcDbArc
 50
288.0000000000003
 51
108.0000000000001
  0
ARC
  5
133
330
A5
100
AcDbEntity
  8
0
  6
CONTINUOUS
 62
     7
100
AcDbCircle
 10
401.7677098862166
 20
650.9640283144897
 30
0.0
 40
0.3900000000051019
100
AcDbArc
 50
288.0000000000003
 51
108.0000000000001
  0
ARC
  5
134
330
A5
100
AcDbEntity
  8
0
  6
CONTINUOUS
 62
     7
100
AcDbCircle
 10
404.3000000000155
 20
649.4000000000331
 30
0.0
 40
0.4499999999839019
100
AcDbArc
 50
198.0000000000001
 51
17.99999999999998
  0
ARC
  5
135
330
A5
100
AcDbEntity
  8
0
  6
CONTINUOUS
 62
     7
100
AcDbCircle
 10
407.7817166624853
 20
656.787478554575
 30
0.0
 40
0.390000000005784
100
AcDbArc
 50
288.0000000000003
 51
108.0000000000001
  0
LINE
  5
136
330
A5
100
AcDbEntity
  8
0
  6
CONTINUOUS
 62
     7
100
AcDbLine
 10
403.0098409436148
 20
654.8269318780794
 30
0.0
 11
407.9022332902931
 21
656.4165665132143
 31
0.0
  0
LINE
  5
137
330
A5
100
AcDbEntity
  8
0
  6
CONTINUOUS
 62
     7
100
AcDbLine
 10
403.3466694674797
 20
653.7902802753283
 30
0.0
 11
408.9602867791462
 21
655.6142551070029
 31
0.0
  0
LINE
  5
138
330
A5
100
AcDbEntity
  8
0
  6
CONTINUOUS
 62
     7
100
AcDbLine
 10
403.0098409436148
 20
654.8269318780794
 30
0.0
 11
403.3466694674797
 21
653.7902802753283
 31
0.0
  0
LINE
  5
139
330
A5
100
AcDbEntity
  8
0
  6
CONTINUOUS
 62
     7
100
AcDbLine
 10
403.5877027230956
 20
653.0484561926073
 30
0.0
 11
404.7279754323333
 21
649.5390576474967
 31
0.0
  0
LINE
  5
13A
330
A5
100
AcDbEntity
  8
0
  6
CONTINUOUS
 62
     7
100
AcDbLine
 10
403.8720245676766
 20
649.2609423525621
 30
0.0
 11
402.7317518584389
 21
652.7703408976729
 31
0.0
  0
LINE
  5
13B
330
A5
100
AcDbEntity
  8
0
  6
CONTINUOUS
 62
     7
100
AcDbLine
 10
402.4907186028229
 20
653.5121649803939
 30
0.0
 11
402.1538900789577
 21
654.5488165831448
 31
0.0
  0
LINE
  5
13C
330
A5
100
AcDbEntity
  8
0
  6
CONTINUOUS
 62
     7
100
AcDbLine
 10
403.5877027230956
 20
653.0484561926073
 30
0.0
 11
408.9614224917739
 21
654.7944835874871
 31
0.0
  0
LINE
  5
13D
330
A5
100
AcDbEntity
  8
0
  6
CONTINUOUS
 62
     7
100
AcDbLine
 10
404.2986775258649
 20
647.5595114096964
 30
0.0
 11
404.7158504682677
 21
646.2755851127088
 31
0.0
  0
LINE
  5
13E
330
A5
100
AcDbEntity
  8
0
  6
CONTINUOUS
 62
     7
100
AcDbLine
 10
405.1546283905398
 20
647.8376267046367
 30
0.0
 11
405.5718013329422
 21
646.5537004076491
 31
0.0
  0
LINE
  5
13F
330
A5
100
AcDbEntity
  8
0
  6
CONTINUOUS
 62
     7
100
AcDbLine
 10
404.9568837238838
 20
645.5337610299878
 30
0.0
 11
405.4111387056117
 21
644.1357079510444
 31
0.0
  0
LINE
  5
140
330
A5
100
AcDbEntity
  8
0
  6
CONTINUOUS
 62
     7
100
AcDbLine
 10
405.8128345885587
 20
645.8118763249281
 30
0.0
 11
406.2670895702861
 21
644.4138232459848
 31
0.0
  0
LINE
  5
141
330
A5
100
AcDbEntity
  8
0
  6
CONTINUOUS
 62
     7
100
AcDbLine
 10
406.5081228259021
 20
643.6719991632638
 30
0.0
 11
411.4080405976691
 21
645.2640789572324
 31
0.0
  0
LINE
  5
142
330
A5
100
AcDbEntity
  8
0
  6
CONTINUOUS
 62
     7
100
AcDbLine
 10
406.2670895702861
 20
644.4138232459848
 30
0.0
 11
410.9253420805915
 21
645.9273812366093
 31
0.0
  0
ARC
  5
143
330
A5
100
AcDbEntity
  8
0
  6
CONTINUOUS
 62
     7
100
AcDbCircle
 10
410.7949296611412
 20
646.3287493929945
 30
0.0
 40
0.4220234544511089
100
AcDbArc
 50
288.0000000000003
 51
17.99999999999998
  0
ARC
  5
144
330
A5
100
AcDbEntity
  8
0
  6
CONTINUOUS
 62
     7
100
AcDbCircle
 10
411.0718543467381
 20
646.2987538471475
 30
0.0
 40
1.087921561113444
100
AcDbArc
 50
288.0000000000003
 51
17.99999999999998
  0
LINE
  5
145
330
A5
100
AcDbEntity
  8
0
  6
CONTINUOUS
 62
     7
100
AcDbLine
 10
405.5718013329422
 20
646.5537004076491
 30
0.0
 11
410.6314219996328
 21
648.197670817724
 31
0.0
  0
LINE
  5
146
330
A5
100
AcDbEntity
  8
0
  6
CONTINUOUS
 62
     7
100
AcDbLine
 10
410.8724552552487
 20
647.455846735003
 30
0.0
 11
411.1962978175264
 21
646.4591618124448
 31
0.0
  0
LINE
  5
147
330
A5
100
AcDbEntity
  8
0
  6
CONTINUOUS
 62
     7
100
AcDbLine
 10
405.8128345885587
 20
645.8118763249281
 30
0.0
 11
410.8724552552487
 21
647.455846735003
 31
0.0
  0
LINE
  5
148
330
A5
100
AcDbEntity
  8
0
  6
CONTINUOUS
 62
     7
100
AcDbLine
 10
405.1546283905398
 20
647.8376267046367
 30
0.0
 11
409.7237404596069
 21
649.3222212101723
 31
0.0
  0
LINE
  5
149
330
A5
100
AcDbEntity
  8
0
  6
CONTINUOUS
 62
     7
100
AcDbLine
 10
410.3736249617694
 20
648.9910885170884
 30
0.0
 11
410.6314219996328
 21
648.197670817724
 31
0.0
  0
LINE
  5
14A
330
A5
100
AcDbEntity
  8
0
  6
CONTINUOUS
 62
     7
100
AcDbLine
 10
411.1929556449866
 20
649.4466305011488
 30
0.0
 11
412.1065292366528
 21
646.6349400980785
 31
0.0
  0
ARC
  5
14B
330
A5
100
AcDbEntity
  8
0
  6
CONTINUOUS
 62
     7
100
AcDbCircle
 10
409.8831163641465
 20
648.8317126125489
 30
0.0
 40
0.515751261064901
100
AcDbArc
 50
17.99999999999998
 51
108.0000000000001
  0
ARC
  5
14C
330
A5
100
AcDbEntity
  8
0
  6
CONTINUOUS
 62
     7
100
AcDbCircle
 10
410.1318693138776
 20
649.101862652768
 30
0.0
 40
1.115692193816303
100
AcDbArc
 50
17.99999999999998
 51
108.0000000000001
  0
LINE
  5
14D
330
A5
100
AcDbEntity
  8
0
  6
CONTINUOUS
 62
     7
100
AcDbLine
 10
412.9564548010874
 20
644.6987124558714
 30
0.0
 11
412.6473897602907
 21
645.6499168438484
 31
0.0
  0
LINE
  5
14E
330
A5
100
AcDbEntity
  8
0
  6
CONTINUOUS
 62
     7
100
AcDbLine
 10
413.408234973326
 20
645.8971304393481
 30
0.0
 11
413.7913318019899
 21
644.7180796366256
 31
0.0
  0
ARC
  5
14F
330
A5
100
AcDbEntity
  8
0
  6
CONTINUOUS
 62
     7
100
AcDbCircle
 10
412.5153374780933
 20
644.5553847492808
 30
0.0
 40
0.463818201585873
100
AcDbArc
 50
288.0000000000003
 51
17.99999999999998
  0
ARC
  5
150
330
A5
100
AcDbEntity
  8
0
  6
CONTINUOUS
 62
     7
100
AcDbCircle
 10
412.83623681102
 20
644.407750462286
 30
0.0
 40
1.004246303564246
100
AcDbArc
 50
288.0000000000003
 51
17.99999999999998
  0
ARC
  5
151
330
A5
100
AcDbEntity
  8
0
  6
CONTINUOUS
 62
     7
100
AcDbCircle
 10
413.0278123668148
 20
645.7735236416004
 30
0.0
 40
0.4000000000062299
100
AcDbArc
 50
17.99999999999998
 51
198.0000000000001
  0
LINE
  5
152
330
A5
100
AcDbEntity
  8
0
  6
CONTINUOUS
 62
     7
100
AcDbLine
 10
406.5081228259021
 20
643.6719991632638
 30
0.0
 11
406.8309376669702
 21
642.6784772413528
 31
0.0
  0
LINE
  5
153
330
A5
100
AcDbEntity
  8
0
  6
CONTINUOUS
 62
     7
100
AcDbLine
 10
407.3795096997681
 20
642.3989658297612
 30
0.0
 11
412.6586651846836
 21
644.1142674262862
 31
0.0
  0
LINE
  5
154
330
A5
100
AcDbEntity
  8
0
  6
CONTINUOUS
 62
     7
100
AcDbLine
 10
407.3165310480288
 20
641.558362290451
 30
0.0
 11
413.1465659853591
 21
643.4526554713157
 31
0.0
  0
LINE
  5
155
330
A5
100
AcDbEntity
  8
0
  6
CONTINUOUS
 62
     7
100
AcDbLine
 10
405.6521719612272
 20
643.3938838683234
 30
0.0
 11
406.0366842195602
 21
642.2104768210104
 31
0.0
  0
ARC
  5
156
330
A5
100
AcDbEntity
  8
0
  6
CONTINUOUS
 62
     7
100
AcDbCircle
 10
407.2449793891654
 20
642.8130075519559
 30
0.0
 40
0.4353492301462539
100
AcDbArc
 50
198.0000000000003
 51
288.0000000000003
  0
ARC
  5
157
330
A5
100
AcDbEntity
  8
0
  6
CONTINUOUS
 62
     7
100
AcDbCircle
 10
407.002664899074
 20
642.5243429699649
 30
0.0
 40
1.015692193852813
100
AcDbArc
 50
198.0000000000001
 51
288.0000000000003
  0
ARC
  5
158
330
A5
100
AcDbEntity
  8
0
  6
CONTINUOUS
 62
     7
100
AcDbCircle
 10
399.3559769966371
 20
648.4034376376485
 30
0.0
 40
0.3900000000038519
100
AcDbArc
 50
108.0000000000001
 51
288.0000000000003
  0
ARC
  5
159
330
A5
100
AcDbEntity
  8
0
  6
CONTINUOUS
 62
     7
100
AcDbCircle
 10
398.7766748851662
 20
649.9921821305263
 30
0.0
 40
0.3900000000051019
100
AcDbArc
 50
108.0000000000001
 51
288.0000000000003
  0
LINE
  5
15A
330
A5
100
AcDbEntity
  8
0
  6
CONTINUOUS
 62
     7
100
AcDbLine
 10
401.6471932584088
 20
651.3349403558507
 30
0.0
 11
398.6561582573579
 21
650.3630941718875
 31
0.0
  0
LINE
  5
15B
330
A5
100
AcDbEntity
  8
0
  6
CONTINUOUS
 62
     7
100
AcDbLine
 10
401.8882265140244
 20
650.5931162731297
 30
0.0
 11
398.897191512974
 21
649.6212700891665
 31
0.0
  0
LINE
  5
15C
330
A5
100
AcDbEntity
  8
0
  6
CONTINUOUS
 62
     7
100
AcDbLine
 10
402.1694319788838
 20
649.7276548433058
 30
0.0
 11
399.2354603688285
 21
648.7743496790108
 31
0.0
  0
LINE
  5
15D
330
A5
100
AcDbEntity
  8
0
  6
CONTINUOUS
 62
     7
100
AcDbLine
 10
402.4104652344993
 20
648.9858307605848
 30
0.0
 11
399.4764936244445
 21
648.0325255962898
 31
0.0
  0
ARC
  5
15E
330
A5
100
AcDbEntity
  8
0
  6
CONTINUOUS
 62
     7
100
AcDbCircle
 10
397.6458471779077
 20
650.6239199409038
 30
0.0
 40
0.4697366595926619
100
AcDbArc
 50
108.0000000000001
 51
198.0000000000001
  0
LINE
  5
15F
330
A5
100
AcDbEntity
  8
0
  6
CONTINUOUS
 62
     7
100
AcDbLine
 10
396.2766032238439
 20
650.2760158558883
 30
0.0
 11
396.8596964309002
 21
648.4814394918915
 31
0.0
  0
LINE
  5
160
330
A5
100
AcDbEntity
  8
0
  6
CONTINUOUS
 62
     7
100
AcDbLine
 10
397.7536895562178
 20
648.771915466604
 30
0.0
 11
397.1991010668596
 21
650.4787633302085
 31
0.0
  0
ARC
  5
161
330
A5
100
AcDbEntity
  8
0
  6
CONTINUOUS
 62
     7
100
AcDbCircle
 10
397.3066929935538
 20
648.6266774792462
 30
0.0
 40
0.469999999994798
100
AcDbArc
 50
198.0000000000001
 51
17.99999999999998
  0
LINE
  5
162
330
A5
100
AcDbEntity
  8
0
  6
CONTINUOUS
 62
     7
100
AcDbLine
 10
397.5006905672129
 20
651.070666051952
 30
0.0
 11
402.7317518584389
 21
652.7703408976729
 31
0.0
  0
LINE
  5
163
330
A5
100
AcDbEntity
  8
0
  6
CONTINUOUS
 62
     7
100
AcDbLine
 10
397.0197597686081
 20
651.7345426978779
 30
0.0
 11
402.4907186028229
 21
653.5121649803939
 31
0.0
  0
ARC
  5
164
330
A5
100
AcDbEntity
  8
0
  6
CONTINUOUS
 62
     7
100
AcDbCircle
 10
397.3774449172204
 20
650.6337010045008
 30
0.0
 40
1.157493455452444
100
AcDbArc
 50
108.0000000000001
 51
198.0000000000001
  0
ARC
  5
165
330
A5
100
AcDbEntity
  8
0
  6
CONTINUOUS
 62
     7
100
AcDbCircle
 10
397.1980444954563
 20
653.3486350090352
 30
0.0
 40
0.390000000005784
100
AcDbArc
 50
108.0000000000001
 51
288.0000000000003
  0
LINE
  5
166
330
A5
100
AcDbEntity
  8
0
  6
CONTINUOUS
 62
     7
100
AcDbLine
 10
397.0775278676481
 20
653.7195470503957
 30
0.0
 11
407.6612000346775
 21
657.1583905959353
 31
0.0
  0
LINE
  5
167
330
A5
100
AcDbEntity
  8
0
  6
CONTINUOUS
 62
     7
100
AcDbLine
 10
397.3185611232646
 20
652.9777229676747
 30
0.0
 11
402.1538900789577
 21
654.5488165831448
 31
0.0
  0
LINE
  5
168
330
A5
100
AcDbEntity
  8
0
  6
CONTINUOUS
 62
     7
100
AcDbLine
 10
399.8844833654973
 20
644.7057787812869
 30
0.0
 11
404.7158504682677
 21
646.2755851127088
 31
0.0
  0
LINE
  5
169
330
A5
100
AcDbEntity
  8
0
  6
CONTINUOUS
 62
     7
100
AcDbLine
 10
400.1255166211134
 20
643.9639546985659
 30
0.0
 11
404.9568837238838
 21
645.5337610299878
 31
0.0
  0
LINE
  5
16A
330
A5
100
AcDbEntity
  8
0
  6
CONTINUOUS
 62
     7
100
AcDbLine
 10
401.0139433227421
 20
642.7069725629658
 30
0.0
 11
405.4111387056117
 21
644.1357079510444
 31
0.0
  0
LINE
  5
16B
330
A5
100
AcDbEntity
  8
0
  6
CONTINUOUS
 62
     7
100
AcDbLine
 10
400.4387006594977
 20
643.0000733395236
 30
0.0
 11
400.1255166211134
 21
643.9639546985659
 31
0.0
  0
LINE
  5
16C
330
A5
100
AcDbEntity
  8
0
  6
CONTINUOUS
 62
     7
100
AcDbLine
 10
400.962962432742
 20
641.8702673327555
 30
0.0
 11
405.6521719612272
 21
643.3938838683234
 31
0.0
  0
LINE
  5
16D
330
A5
100
AcDbEntity
  8
0
  6
CONTINUOUS
 62
     7
100
AcDbLine
 10
399.9343296908212
 20
646.1414488368791
 30
0.0
 11
404.2986775258649
 21
647.5595114096964
 31
0.0
  0
LINE
  5
16E
330
A5
100
AcDbEntity
  8
0
  6
CONTINUOUS
 62
     7
100
AcDbLine
 10
399.8844833654973
 20
644.7057787812869
 30
0.0
 11
399.6190541816994
 21
645.5226858105482
 31
0.0
  0
LINE
  5
16F
330
A5
100
AcDbEntity
  8
0
  6
CONTINUOUS
 62
     7
100
AcDbLine
 10
399.456177613309
 20
646.8062283440186
 30
0.0
 11
409.7871014654973
 21
650.1629489838767
 31
0.0
  0
LINE
  5
170
330
A5
100
AcDbEntity
  8
0
  6
CONTINUOUS
 62
     7
100
AcDbLine
 10
398.6910388046779
 20
645.3045588800289
 30
0.0
 11
399.5775452274673
 21
642.5761726570106
 31
0.0
  0
ARC
  5
171
330
A5
100
AcDbEntity
  8
0
  6
CONTINUOUS
 62
     7
100
AcDbCircle
 10
400.0860734494261
 20
645.6744295691528
 30
0.0
 40
0.491053118005737
100
AcDbArc
 50
108.0000000000001
 51
198.0000000000001
  0
ARC
  5
172
330
A5
100
AcDbEntity
  8
0
  6
CONTINUOUS
 62
     7
100
AcDbCircle
 10
400.872872379399
 20
643.1411442828669
 30
0.0
 40
0.45651516230845
100
AcDbArc
 50
198.0000000000003
 51
288.0000000000003
  0
ARC
  5
173
330
A5
100
AcDbEntity
  8
0
  6
CONTINUOUS
 62
     7
100
AcDbCircle
 10
400.6232064922322
 20
642.9159285975206
 30
0.0
 40
1.099473319249735
100
AcDbArc
 50
198.0000000000001
 51
288.0000000000003
  0
ARC
  5
174
330
A5
100
AcDbEntity
  8
0
  6
CONTINUOUS
 62
     7
100
AcDbCircle
 10
399.8244429409881
 20
645.6728242077081
 30
0.0
 40
1.191731634125835
100
AcDbArc
 50
108.0000000000001
 51
198.0000000000001
  0
ENDBLK
  5
A7
330
A5
100
AcDbEntity
  8
0
100
AcDbBlockEnd
  0
BLOCK
  5
428
330
427
100
AcDbEntity
  8
0
100
AcDbBlockBegin
  2
*D17
 70
     1
 10
0.0
 20
0.0
 30
0.0
  3
*D17
  1

  0
LINE
  5
42A
330
427
100
AcDbEntity
  8
LAY-20
  6
CONTINUOUS
 62
     4
100
AcDbLine
 10
530.00000000002
 20
350.5
 30
0.0
 11
530.00000000002
 21
378.4999999999999
 31
0.0
  0
LINE
  5
42B
330
427
100
AcDbEntity
  8
LAY-20
  6
CONTINUOUS
 62
     4
100
AcDbLine
 10
314.0000000000201
 20
350.5
 30
0.0
 11
314.0000000000201
 21
378.4999999999999
 31
0.0
  0
LINE
  5
42C
330
427
100
AcDbEntity
  8
LAY-20
  6
CONTINUOUS
 62
     4
100
AcDbLine
 10
521.00000000002
 20
373.9999999999999
 30
0.0
 11
323.0000000000201
 21
373.9999999999999
 31
0.0
  0
INSERT
  5
42D
330
427
100
AcDbEntity
  8
LAY-20
 62
     4
100
AcDbBlockReference
  2
EX_BNORM
 10
530.00000000002
 20
373.9999999999999
 30
0.0
 41
9.0
 42
9.0
 43
9.0
  0
INSERT
  5
42E
330
427
100
AcDbEntity
  8
LAY-20
 62
     4
100
AcDbBlockReference
  2
EX_BNORM
 10
314.0000000000201
 20
373.9999999999999
 30
0.0
 41
9.0
 42
9.0
 43
9.0
 50
180.0
  0
MTEXT
  5
42F
330
427
100
AcDbEntity
  8
LAY-20
 62
     7
100
AcDbMText
 10
422.00000000002
 20
381.4999999999999
 30
0.0
 40
9.3543312
 41
0.0
 71
     5
 72
     1
  1
%%c216
  7
EXCADDIM1
  0
POINT
  5
430
330
427
100
AcDbEntity
  8
DEFPOINTS
 62
     0
100
AcDbPoint
 10
530.00000000002
 20
346.0
 30
0.0
  0
POINT
  5
431
330
427
100
AcDbEntity
  8
DEFPOINTS
 62
     0
100
AcDbPoint
 10
314.0000000000201
 20
346.0
 30
0.0
  0
POINT
  5
432
330
427
100
AcDbEntity
  8
DEFPOINTS
 62
     0
100
AcDbPoint
 10
314.0000000000201
 20
373.9999999999999
 30
0.0
  0
ENDBLK
  5
429
330
427
100
AcDbEntity
  8
0
100
AcDbBlockEnd
  0
BLOCK
  5
435
330
434
100
AcDbEntity
  8
0
100
AcDbBlockBegin
  2
*D18
 70
     1
 10
0.0
 20
0.0
 30
0.0
  3
*D18
  1

  0
LINE
  5
437
330
434
100
AcDbEntity
  8
LAY-20
  6
CONTINUOUS
 62
     4
100
AcDbLine
 10
542.0
 20
350.5
 30
0.0
 11
542.0
 21
398.4999999999999
 31
0.0
  0
LINE
  5
438
330
434
100
AcDbEntity
  8
LAY-20
  6
CONTINUOUS
 62
     4
100
AcDbLine
 10
302.0
 20
350.5
 30
0.0
 11
302.0
 21
398.4999999999999
 31
0.0
  0
LINE
  5
439
330
434
100
AcDbEntity
  8
LAY-20
  6
CONTINUOUS
 62
     4
100
AcDbLine
 10
533.0
 20
393.9999999999999
 30
0.0
 11
311.0
 21
393.9999999999999
 31
0.0
  0
INSERT
  5
43A
330
434
100
AcDbEntity
  8
LAY-20
 62
     4
100
AcDbBlockReference
  2
EX_BNORM
 10
542.0
 20
393.9999999999999
 30
0.0
 41
9.0
 42
9.0
 43
9.0
  0
INSERT
  5
43B
330
434
100
AcDbEntity
  8
LAY-20
 62
     4
100
AcDbBlockReference
  2
EX_BNORM
 10
302.0
 20
393.9999999999999
 30
0.0
 41
9.0
 42
9.0
 43
9.0
 50
180.0
  0
MTEXT
  5
43C
330
434
100
AcDbEntity
  8
LAY-20
 62
     7
100
AcDbMText
 10
422.0
 20
401.4999999999999
 30
0.0
 40
9.3543312
 41
0.0
 71
     5
 72
     1
  1
%%c240
  7
EXCADDIM1
  0
POINT
  5
43D
330
434
100
AcDbEntity
  8
DEFPOINTS
 62
     0
100
AcDbPoint
 10
542.0
 20
346.0
 30
0.0
  0
POINT
  5
43E
330
434
100
AcDbEntity
  8
DEFPOINTS
 62
     0
100
AcDbPoint
 10
302.0
 20
346.0
 30
0.0
  0
POINT
  5
43F
330
434
100
AcDbEntity
  8
DEFPOINTS
 62
     0
100
AcDbPoint
 10
302.0
 20
393.9999999999999
 30
0.0
  0
ENDBLK
  5
436
330
434
100
AcDbEntity
  8
0
100
AcDbBlockEnd
  0
BLOCK
  5
442
330
441
100
AcDbEntity
  8
0
100
AcDbBlockBegin
  2
*D19
 70
     1
 10
0.0
 20
0.0
 30
0.0
  3
*D19
  1

  0
LINE
  5
444
330
441
100
AcDbEntity
  8
LAY-20
  6
CONTINUOUS
 62
     4
100
AcDbLine
 10
542.2
 20
281.0
 30
0.0
 11
594.5
 21
281.0
 31
0.0
  0
LINE
  5
445
330
441
100
AcDbEntity
  8
LAY-20
  6
CONTINUOUS
 62
     4
100
AcDbLine
 10
590.0
 20
337.0
 30
0.0
 11
590.0
 21
290.0
 31
0.0
  0
INSERT
  5
446
330
441
100
AcDbEntity
  8
LAY-20
 62
     4
100
AcDbBlockReference
  2
EX_BNORM
 10
590.0
 20
346.0
 30
0.0
 41
9.0
 42
9.0
 43
9.0
 50
90.0
  0
INSERT
  5
447
330
441
100
AcDbEntity
  8
LAY-20
 62
     4
100
AcDbBlockReference
  2
EX_BNORM
 10
590.0
 20
281.0
 30
0.0
 41
9.0
 42
9.0
 43
9.0
 50
270.0
  0
MTEXT
  5
448
330
441
100
AcDbEntity
  8
LAY-20
 62
     7
100
AcDbMText
 10
582.5
 20
313.5
 30
0.0
 40
9.3543312
 41
0.0
 71
     5
 72
     1
  1
65
  7
EXCADDIM1
 11
0.0
 21
1.0
 31
0.0
  0
POINT
  5
449
330
441
100
AcDbEntity
  8
DEFPOINTS
 62
     0
100
AcDbPoint
 10
590.0
 20
346.0
 30
0.0
  0
POINT
  5
44A
330
441
100
AcDbEntity
  8
DEFPOINTS
 62
     0
100
AcDbPoint
 10
537.7
 20
281.0
 30
0.0
  0
POINT
  5
44B
330
441
100
AcDbEntity
  8
DEFPOINTS
 62
     0
100
AcDbPoint
 10
590.0
 20
281.0
 30
0.0
  0
ENDBLK
  5
443
330
441
100
AcDbEntity
  8
0
100
AcDbBlockEnd
  0
BLOCK
  5
44E
330
44D
100
AcDbEntity
  8
0
100
AcDbBlockBegin
  2
*D20
 70
     1
 10
0.0
 20
0.0
 30
0.0
  3
*D20
  1

  0
LINE
  5
450
330
44D
100
AcDbEntity
  8
LAY-20
  6
CONTINUOUS
 62
     4
100
AcDbLine
 10
546.5
 20
346.0
 30
0.0
 11
614.5
 21
346.0
 31
0.0
  0
LINE
  5
451
330
44D
100
AcDbEntity
  8
LAY-20
  6
CONTINUOUS
 62
     4
100
AcDbLine
 10
462.0
 20
186.0
 30
0.0
 11
614.5
 21
186.0
 31
0.0
  0
LINE
  5
452
330
44D
100
AcDbEntity
  8
LAY-20
  6
CONTINUOUS
 62
     4
100
AcDbLine
 10
610.0
 20
337.0
 30
0.0
 11
610.0
 21
195.0
 31
0.0
  0
INSERT
  5
453
330
44D
100
AcDbEntity
  8
LAY-20
 62
     4
100
AcDbBlockReference
  2
EX_BNORM
 10
610.0
 20
346.0
 30
0.0
 41
9.0
 42
9.0
 43
9.0
 50
90.0
  0
INSERT
  5
454
330
44D
100
AcDbEntity
  8
LAY-20
 62
     4
100
AcDbBlockReference
  2
EX_BNORM
 10
610.0
 20
186.0
 30
0.0
 41
9.0
 42
9.0
 43
9.0
 50
270.0
  0
MTEXT
  5
455
330
44D
100
AcDbEntity
  8
LAY-20
 62
     7
100
AcDbMText
 10
602.5
 20
266.0
 30
0.0
 40
9.3543312
 41
0.0
 71
     5
 72
     1
  1
160
  7
EXCADDIM1
 11
0.0
 21
1.0
 31
0.0
  0
POINT
  5
456
330
44D
100
AcDbEntity
  8
DEFPOINTS
 62
     0
100
AcDbPoint
 10
542.0
 20
346.0
 30
0.0
  0
POINT
  5
457
330
44D
100
AcDbEntity
  8
DEFPOINTS
 62
     0
100
AcDbPoint
 10
457.5
 20
186.0
 30
0.0
  0
POINT
  5
458
330
44D
100
AcDbEntity
  8
DEFPOINTS
 62
     0
100
AcDbPoint
 10
610.0
 20
186.0
 30
0.0
  0
ENDBLK
  5
44F
330
44D
100
AcDbEntity
  8
0
100
AcDbBlockEnd
  0
BLOCK
  5
45B
330
45A
100
AcDbEntity
  8
0
100
AcDbBlockBegin
  2
*D21
 70
     1
 10
0.0
 20
0.0
 30
0.0
  3
*D21
  1

  0
LINE
  5
45D
330
45A
100
AcDbEntity
  8
LAY-20
  6
CONTINUOUS
 62
     4
100
AcDbLine
 10
531.5
 20
294.5
 30
0.0
 11
574.5
 21
294.5
 31
0.0
  0
LINE
  5
45E
330
45A
100
AcDbEntity
  8
LAY-20
  6
CONTINUOUS
 62
     4
100
AcDbLine
 10
531.5
 20
267.5
 30
0.0
 11
574.5
 21
267.5
 31
0.0
  0
LINE
  5
45F
330
45A
100
AcDbEntity
  8
LAY-20
  6
CONTINUOUS
 62
     4
100
AcDbLine
 10
570.0
 20
285.5
 30
0.0
 11
570.0
 21
276.5
 31
0.0
  0
INSERT
  5
460
330
45A
100
AcDbEntity
  8
LAY-20
 62
     4
100
AcDbBlockReference
  2
EX_BNORM
 10
570.0
 20
294.5
 30
0.0
 41
9.0
 42
9.0
 43
9.0
 50
90.0
  0
INSERT
  5
461
330
45A
100
AcDbEntity
  8
LAY-20
 62
     4
100
AcDbBlockReference
  2
EX_BNORM
 10
570.0
 20
267.5
 30
0.0
 41
9.0
 42
9.0
 43
9.0
 50
270.0
  0
MTEXT
  5
462
330
45A
100
AcDbEntity
  8
LAY-20
 62
     7
100
AcDbMText
 10
562.5
 20
281.0
 30
0.0
 40
9.3543312
 41
0.0
 71
     5
 72
     1
  1
%%c27
  7
EXCADDIM1
 11
0.0
 21
1.0
 31
0.0
  0
POINT
  5
463
330
45A
100
AcDbEntity
  8
DEFPOINTS
 62
     0
100
AcDbPoint
 10
527.0
 20
294.5
 30
0.0
  0
POINT
  5
464
330
45A
100
AcDbEntity
  8
DEFPOINTS
 62
     0
100
AcDbPoint
 10
527.0
 20
267.5
 30
0.0
  0
POINT
  5
465
330
45A
100
AcDbEntity
  8
DEFPOINTS
 62
     0
100
AcDbPoint
 10
570.0
 20
267.5
 30
0.0
  0
ENDBLK
  5
45C
330
45A
100
AcDbEntity
  8
0
100
AcDbBlockEnd
  0
BLOCK
  5
468
330
467
100
AcDbEntity
  8
0
100
AcDbBlockBegin
  2
*D22
 70
     1
 10
0.0
 20
0.0
 30
0.0
  3
*D22
  1

  0
LINE
  5
46A
330
467
100
AcDbEntity
  8
LAY-20
  6
CONTINUOUS
 62
     4
100
AcDbLine
 10
392.2
 20
181.49999999999
 30
0.0
 11
392.2
 21
153.5
 31
0.0
  0
LINE
  5
46B
330
467
100
AcDbEntity
  8
LAY-20
  6
CONTINUOUS
 62
     4
100
AcDbLine
 10
451.7999999999999
 20
181.49999999999
 30
0.0
 11
451.7999999999999
 21
153.5
 31
0.0
  0
LINE
  5
46C
330
467
100
AcDbEntity
  8
LAY-20
  6
CONTINUOUS
 62
     4
100
AcDbLine
 10
401.2
 20
158.0
 30
0.0
 11
442.7999999999999
 21
158.0
 31
0.0
  0
INSERT
  5
46D
330
467
100
AcDbEntity
  8
LAY-20
 62
     4
100
AcDbBlockReference
  2
EX_BNORM
 10
392.2
 20
158.0
 30
0.0
 41
9.0
 42
9.0
 43
9.0
 50
180.0
  0
INSERT
  5
46E
330
467
100
AcDbEntity
  8
LAY-20
 62
     4
100
AcDbBlockReference
  2
EX_BNORM
 10
451.7999999999999
 20
158.0
 30
0.0
 41
9.0
 42
9.0
 43
9.0
  0
MTEXT
  5
46F
330
467
100
AcDbEntity
  8
LAY-20
 62
     7
100
AcDbMText
 10
422.0
 20
165.5
 30
0.0
 40
9.3543312
 41
0.0
 71
     5
 72
     1
  1
Rp2（59.6）
  7
EXCADDIM1
  0
POINT
  5
470
330
467
100
AcDbEntity
  8
DEFPOINTS
 62
     0
100
AcDbPoint
 10
392.2
 20
185.99999999999
 30
0.0
  0
POINT
  5
471
330
467
100
AcDbEntity
  8
DEFPOINTS
 62
     0
100
AcDbPoint
 10
451.7999999999999
 20
185.99999999999
 30
0.0
  0
POINT
  5
472
330
467
100
AcDbEntity
  8
DEFPOINTS
 62
     0
100
AcDbPoint
 10
451.7999999999999
 20
158.0
 30
0.0
  0
ENDBLK
  5
469
330
467
100
AcDbEntity
  8
0
100
AcDbBlockEnd
  0
ENDSEC
  0
SECTION
  2
ENTITIES
  0
INSERT
  5
175
330
1F
100
AcDbEntity
  8
LAY-10
  6
CONTINUOUS
 62
     0
100
AcDbBlockReference
  2
SYM-1
 10
0.0
 20
0.0
 30
0.0
  0
INSERT
  5
176
330
1F
100
AcDbEntity
  8
LAY-10
  6
CONTINUOUS
 62
     0
100
AcDbBlockReference
  2
SYM-2
 10
0.0
 20
0.0
 30
0.0
  0
LINE
  5
177
330
1F
100
AcDbEntity
  8
LAY-10
  6
CONTINUOUS
 62
     7
100
AcDbLine
 10
313.0000000000035
 20
335.8284271247423
 30
0.0
 11
313.1715728752478
 21
335.9999999999864
 31
0.0
  0
LINE
  5
178
330
1F
100
AcDbEntity
  8
LAY-10
  6
CONTINUOUS
 62
     7
100
AcDbLine
 10
313.0000000000035
 20
334.4142135623695
 30
0.0
 11
314.585786437622
 21
335.9999999999879
 31
0.0
  0
LINE
  5
179
330
1F
100
AcDbEntity
  8
LAY-10
  6
CONTINUOUS
 62
     7
100
AcDbLine
 10
313.0000000000035
 20
332.9999999999964
 30
0.0
 11
315.9999999999967
 21
335.9999999999893
 31
0.0
  0
LINE
  5
17A
330
1F
100
AcDbEntity
  8
LAY-10
  6
CONTINUOUS
 62
     7
100
AcDbLine
 10
314.4142135623769
 20
332.9999999999964
 30
0.0
 11
317.4142135623712
 21
335.9999999999907
 31
0.0
  0
LINE
  5
17B
330
1F
100
AcDbEntity
  8
LAY-10
  6
CONTINUOUS
 62
     7
100
AcDbLine
 10
315.82842712475
 20
332.9999999999964
 30
0.0
 11
318.8284271247459
 21
335.9999999999923
 31
0.0
  0
LINE
  5
17C
330
1F
100
AcDbEntity
  8
LAY-10
  6
CONTINUOUS
 62
     7
100
AcDbLine
 10
317.2426406871228
 20
332.9999999999964
 30
0.0
 11
320.2426406871201
 21
335.9999999999936
 31
0.0
  0
LINE
  5
17D
330
1F
100
AcDbEntity
  8
LAY-10
  6
CONTINUOUS
 62
     7
100
AcDbLine
 10
318.6568542494962
 20
332.9999999999964
 30
0.0
 11
321.6568542494948
 21
335.999999999995
 31
0.0
  0
LINE
  5
17E
330
1F
100
AcDbEntity
  8
LAY-10
  6
CONTINUOUS
 62
     7
100
AcDbLine
 10
320.0710678118693
 20
332.9999999999964
 30
0.0
 11
323.0000000000038
 21
335.9289321881308
 31
0.0
  0
LINE
  5
17F
330
1F
100
AcDbEntity
  8
LAY-10
  6
CONTINUOUS
 62
     7
100
AcDbLine
 10
321.4852813742422
 20
332.9999999999964
 30
0.0
 11
323.0000000000038
 21
334.5147186257577
 31
0.0
  0
LINE
  5
180
330
1F
100
AcDbEntity
  8
LAY-10
  6
CONTINUOUS
 62
     7
100
AcDbLine
 10
322.8994949366153
 20
332.9999999999964
 30
0.0
 11
323.0000000000038
 21
333.1005050633846
 31
0.0
  0
LINE
  5
181
330
1F
100
AcDbEntity
  8
LAY-10
  6
CONTINUOUS
 62
     7
100
AcDbLine
 10
521.0000000000034
 20
335.8284271247423
 30
0.0
 11
521.1715728752476
 21
335.9999999999864
 31
0.0
  0
LINE
  5
182
330
1F
100
AcDbEntity
  8
LAY-10
  6
CONTINUOUS
 62
     7
100
AcDbLine
 10
521.0000000000034
 20
334.4142135623695
 30
0.0
 11
522.5857864376219
 21
335.9999999999879
 31
0.0
  0
LINE
  5
183
330
1F
100
AcDbEntity
  8
LAY-10
  6
CONTINUOUS
 62
     7
100
AcDbLine
 10
521.0000000000034
 20
332.9999999999964
 30
0.0
 11
523.9999999999966
 21
335.9999999999893
 31
0.0
  0
LINE
  5
184
330
1F
100
AcDbEntity
  8
LAY-10
  6
CONTINUOUS
 62
     7
100
AcDbLine
 10
522.4142135623767
 20
332.9999999999964
 30
0.0
 11
525.4142135623711
 21
335.9999999999907
 31
0.0
  0
LINE
  5
185
330
1F
100
AcDbEntity
  8
LAY-10
  6
CONTINUOUS
 62
     7
100
AcDbLine
 10
523.8284271247499
 20
332.9999999999964
 30
0.0
 11
526.8284271247458
 21
335.9999999999923
 31
0.0
  0
LINE
  5
186
330
1F
100
AcDbEntity
  8
LAY-10
  6
CONTINUOUS
 62
     7
100
AcDbLine
 10
525.2426406871227
 20
332.9999999999964
 30
0.0
 11
528.24264068712
 21
335.9999999999936
 31
0.0
  0
LINE
  5
187
330
1F
100
AcDbEntity
  8
LAY-10
  6
CONTINUOUS
 62
     7
100
AcDbLine
 10
526.6568542494961
 20
332.9999999999964
 30
0.0
 11
529.6568542494947
 21
335.999999999995
 31
0.0
  0
LINE
  5
188
330
1F
100
AcDbEntity
  8
LAY-10
  6
CONTINUOUS
 62
     7
100
AcDbLine
 10
528.0710678118692
 20
332.9999999999964
 30
0.0
 11
531.0000000000036
 21
335.9289321881308
 31
0.0
  0
LINE
  5
189
330
1F
100
AcDbEntity
  8
LAY-10
  6
CONTINUOUS
 62
     7
100
AcDbLine
 10
529.485281374242
 20
332.9999999999964
 30
0.0
 11
531.0000000000036
 21
334.5147186257577
 31
0.0
  0
LINE
  5
18A
330
1F
100
AcDbEntity
  8
LAY-10
  6
CONTINUOUS
 62
     7
100
AcDbLine
 10
530.8994949366152
 20
332.9999999999964
 30
0.0
 11
531.0000000000036
 21
333.1005050633846
 31
0.0
  0
LINE
  5
18B
330
1F
100
AcDbEntity
  8
LAY-10
  6
CONTINUOUS
 62
     7
100
AcDbLine
 10
517.0
 20
233.0
 30
0.0
 11
327.0
 21
233.0
 31
0.0
  0
LINE
  5
18C
330
1F
100
AcDbEntity
  8
LAY-10
  6
CONTINUOUS
 62
     7
100
AcDbLine
 10
338.0
 20
228.0
 30
0.0
 11
338.0
 21
206.0
 31
0.0
  0
ARC
  5
18D
330
1F
100
AcDbEntity
  8
LAY-10
  6
CONTINUOUS
 62
     7
100
AcDbCircle
 10
333.0
 20
228.0
 30
0.0
 40
5.0
100
AcDbArc
 50
0.0
 51
90.00000000000004
  0
ARC
  5
18E
330
1F
100
AcDbEntity
  8
LAY-10
  6
CONTINUOUS
 62
     7
100
AcDbCircle
 10
327.0
 20
238.0
 30
0.0
 40
5.0
100
AcDbArc
 50
180.0
 51
270.0000000000002
  0
ARC
  5
18F
330
1F
100
AcDbEntity
  8
LAY-10
  6
CONTINUOUS
 62
     7
100
AcDbCircle
 10
299.0
 20
249.102070866566
 30
0.0
 40
2.0
100
AcDbArc
 50
92.99999999999969
 51
180.0
  0
LINE
  5
190
330
1F
100
AcDbEntity
  8
LAY-10
  6
CONTINUOUS
 62
     7
100
AcDbLine
 10
297.0
 20
249.102070866566
 30
0.0
 11
297.0
 21
247.8979291334315
 31
0.0
  0
ARC
  5
191
330
1F
100
AcDbEntity
  8
LAY-10
  6
CONTINUOUS
 62
     7
100
AcDbCircle
 10
299.0
 20
247.8979291334315
 30
0.0
 40
2.0
100
AcDbArc
 50
180.0
 51
267.0000000000005
  0
ARC
  5
192
330
1F
100
AcDbEntity
  8
LAY-10
  6
CONTINUOUS
 62
     7
100
AcDbCircle
 10
314.0
 20
254.8950492858011
 30
0.0
 40
3.000000000000002
100
AcDbArc
 50
272.9999999999998
 51
0.0
  0
ARC
  5
193
330
1F
100
AcDbEntity
  8
LAY-10
  6
CONTINUOUS
 62
     7
100
AcDbCircle
 10
314.0
 20
242.1049507141964
 30
0.0
 40
3.000000000000002
100
AcDbArc
 50
0.0
 51
87.00000000000036
  0
LINE
  5
194
330
1F
100
AcDbEntity
  8
LAY-10
  6
CONTINUOUS
 62
     7
100
AcDbLine
 10
336.0
 20
333.0
 30
0.0
 11
336.0
 21
315.8468937001442
 31
0.0
  0
ARC
  5
195
330
1F
100
AcDbEntity
  8
LAY-10
  6
CONTINUOUS
 62
     7
100
AcDbCircle
 10
333.0
 20
315.8468937001442
 30
0.0
 40
3.000000000000002
100
AcDbArc
 50
273.0000000000007
 51
0.0
  0
LINE
  5
196
330
1F
100
AcDbEntity
  8
LAY-10
  6
CONTINUOUS
 62
     7
100
AcDbLine
 10
322.0
 20
309.4193973898922
 30
0.0
 11
322.0
 21
238.0
 31
0.0
  0
ARC
  5
197
330
1F
100
AcDbEntity
  8
LAY-10
  6
CONTINUOUS
 62
     7
100
AcDbCircle
 10
325.0
 20
309.4193973898922
 30
0.0
 40
3.000000000000002
100
AcDbArc
 50
93.00000000000072
 51
180.0
  0
LINE
  5
198
330
1F
100
AcDbEntity
  8
LAY-10
  6
CONTINUOUS
 62
     7
100
AcDbLine
 10
324.8429921312711
 20
312.415285994156
 30
0.0
 11
333.1570078687289
 21
312.8510050958805
 31
0.0
  0
ARC
  5
199
330
1F
100
AcDbEntity
  8
LAY-10
  6
CONTINUOUS
 62
     7
100
AcDbCircle
 10
501.0
 20
206.0
 30
0.0
 40
5.0
100
AcDbArc
 50
269.9999999999993
 51
0.0
  0
LINE
  5
19A
330
1F
100
AcDbEntity
  8
LAY-10
  6
CONTINUOUS
 62
     7
100
AcDbLine
 10
506.0
 20
228.0
 30
0.0
 11
506.0
 21
206.0
 31
0.0
  0
ARC
  5
19B
330
1F
100
AcDbEntity
  8
LAY-10
  6
CONTINUOUS
 62
     7
100
AcDbCircle
 10
510.9999999999999
 20
228.0
 30
0.0
 40
5.0
100
AcDbArc
 50
90.00000000000004
 51
179.9999999999999
  0
ARC
  5
19C
330
1F
100
AcDbEntity
  8
LAY-10
  6
CONTINUOUS
 62
     7
100
AcDbCircle
 10
517.0
 20
238.0
 30
0.0
 40
5.0
100
AcDbArc
 50
270.0000000000002
 51
0.0
  0
ARC
  5
19D
330
1F
100
AcDbEntity
  8
LAY-10
  6
CONTINUOUS
 62
     7
100
AcDbCircle
 10
514.0
 20
225.0
 30
0.0
 40
3.000000000000002
100
AcDbArc
 50
90.00000000000004
 51
180.0
  0
LINE
  5
19E
330
1F
100
AcDbEntity
  8
LAY-10
  6
CONTINUOUS
 62
     7
100
AcDbLine
 10
514.0
 20
228.0
 30
0.0
 11
517.0
 21
228.0
 31
0.0
  0
ARC
  5
19F
330
1F
100
AcDbEntity
  8
LAY-10
  6
CONTINUOUS
 62
     7
100
AcDbCircle
 10
517.0
 20
238.0
 30
0.0
 40
10.0
100
AcDbArc
 50
270.0000000000002
 51
0.0
  0
LINE
  5
1A0
330
1F
100
AcDbEntity
  8
LAY-10
  6
CONTINUOUS
 62
     7
100
AcDbLine
 10
510.9999999999999
 20
225.0
 30
0.0
 11
510.9999999999999
 21
206.0
 31
0.0
  0
ARC
  5
1A1
330
1F
100
AcDbEntity
  8
LAY-10
  6
CONTINUOUS
 62
     7
100
AcDbCircle
 10
501.0
 20
206.0
 30
0.0
 40
10.0
100
AcDbArc
 50
269.9999999999997
 51
0.0
  0
ARC
  5
1A2
330
1F
100
AcDbEntity
  8
LAY-10
  6
CONTINUOUS
 62
     7
100
AcDbCircle
 10
545.0
 20
249.1020708665659
 30
0.0
 40
2.0
100
AcDbArc
 50
0.0
 51
87.00000000000094
  0
LINE
  5
1A3
330
1F
100
AcDbEntity
  8
LAY-10
  6
CONTINUOUS
 62
     7
100
AcDbLine
 10
547.0
 20
249.1020708665659
 30
0.0
 11
547.0
 21
247.8979291334315
 31
0.0
  0
ARC
  5
1A4
330
1F
100
AcDbEntity
  8
LAY-10
  6
CONTINUOUS
 62
     7
100
AcDbCircle
 10
545.0
 20
247.8979291334315
 30
0.0
 40
2.0
100
AcDbArc
 50
272.9999999999994
 51
0.0
  0
LINE
  5
1A5
330
1F
100
AcDbEntity
  8
LAY-10
  6
CONTINUOUS
 62
     7
100
AcDbLine
 10
545.1046719124859
 20
251.0993299360751
 30
0.0
 11
529.8429921312711
 21
251.8991606815374
 31
0.0
  0
ARC
  5
1A6
330
1F
100
AcDbEntity
  8
LAY-10
  6
CONTINUOUS
 62
     7
100
AcDbCircle
 10
530.0
 20
254.8950492858011
 30
0.0
 40
3.000000000000002
100
AcDbArc
 50
180.0
 51
267.000000000001
  0
LINE
  5
1A7
330
1F
100
AcDbEntity
  8
LAY-10
  6
CONTINUOUS
 62
     7
100
AcDbLine
 10
529.8429921312711
 20
245.1008393184601
 30
0.0
 11
545.1046719124859
 21
245.9006700639223
 31
0.0
  0
ARC
  5
1A8
330
1F
100
AcDbEntity
  8
LAY-10
  6
CONTINUOUS
 62
     7
100
AcDbCircle
 10
530.0
 20
242.1049507141964
 30
0.0
 40
3.000000000000002
100
AcDbArc
 50
92.99999999999913
 51
180.0
  0
LINE
  5
1A9
330
1F
100
AcDbEntity
  8
LAY-10
  6
CONTINUOUS
 62
     7
100
AcDbLine
 10
301.9999999999999
 20
346.0
 30
0.0
 11
301.9999999999999
 21
340.9999999999999
 31
0.0
  0
LINE
  5
1AA
330
1F
100
AcDbEntity
  8
LAY-10
  6
CONTINUOUS
 62
     7
100
AcDbLine
 10
303.1570078687287
 20
340.9393637869867
 30
0.0
 11
301.9999999999999
 21
340.9999999999999
 31
0.0
  0
ARC
  5
1AB
330
1F
100
AcDbEntity
  8
LAY-10
  6
CONTINUOUS
 62
     7
100
AcDbCircle
 10
302.9999999999999
 20
337.9434751827231
 30
0.0
 40
3.000000000000002
100
AcDbArc
 50
0.0
 51
86.99999999999928
  0
LINE
  5
1AC
330
1F
100
AcDbEntity
  8
LAY-10
  6
CONTINUOUS
 62
     7
100
AcDbLine
 10
305.9999999999999
 20
337.9434751827231
 30
0.0
 11
305.9999999999999
 21
330.8468937001443
 31
0.0
  0
ARC
  5
1AD
330
1F
100
AcDbEntity
  8
LAY-10
  6
CONTINUOUS
 62
     7
100
AcDbCircle
 10
308.9999999999999
 20
330.8468937001443
 30
0.0
 40
3.000000000000002
100
AcDbArc
 50
180.0
 51
266.9999999999993
  0
LINE
  5
1AE
330
1F
100
AcDbEntity
  8
LAY-10
  6
CONTINUOUS
 62
     7
100
AcDbLine
 10
317.0
 20
324.5766207277416
 30
0.0
 11
317.0
 21
254.8950492858011
 31
0.0
  0
LINE
  5
1AF
330
1F
100
AcDbEntity
  8
LAY-10
  6
CONTINUOUS
 62
     7
100
AcDbLine
 10
542.0
 20
346.0
 30
0.0
 11
542.0
 21
340.9999999999999
 31
0.0
  0
LINE
  5
1B0
330
1F
100
AcDbEntity
  8
LAY-10
  6
CONTINUOUS
 62
     7
100
AcDbLine
 10
540.8429921312713
 20
340.9393637869867
 30
0.0
 11
542.0
 21
340.9999999999999
 31
0.0
  0
ARC
  5
1B1
330
1F
100
AcDbEntity
  8
LAY-10
  6
CONTINUOUS
 62
     7
100
AcDbCircle
 10
541.0
 20
337.9434751827231
 30
0.0
 40
3.000000000000002
100
AcDbArc
 50
93.00000000000021
 51
180.0
  0
LINE
  5
1B2
330
1F
100
AcDbEntity
  8
LAY-10
  6
CONTINUOUS
 62
     7
100
AcDbLine
 10
538.0
 20
337.9434751827231
 30
0.0
 11
538.0
 21
330.8468937001443
 31
0.0
  0
ARC
  5
1B3
330
1F
100
AcDbEntity
  8
LAY-10
  6
CONTINUOUS
 62
     7
100
AcDbCircle
 10
535.0
 20
330.8468937001443
 30
0.0
 40
3.000000000000002
100
AcDbArc
 50
273.0000000000013
 51
0.0
  0
LINE
  5
1B4
330
1F
100
AcDbEntity
  8
LAY-10
  6
CONTINUOUS
 62
     7
100
AcDbLine
 10
529.8429921312711
 20
327.5725093320052
 30
0.0
 11
535.1570078687289
 21
327.8510050958805
 31
0.0
  0
ARC
  5
1B5
330
1F
100
AcDbEntity
  8
LAY-10
  6
CONTINUOUS
 62
     7
100
AcDbCircle
 10
530.0
 20
324.5766207277416
 30
0.0
 40
3.000000000000002
100
AcDbArc
 50
93.00000000000021
 51
180.0
  0
LINE
  5
1B6
330
1F
100
AcDbEntity
  8
LAY-10
  6
CONTINUOUS
 62
     7
100
AcDbLine
 10
527.0
 20
324.57662072774
 30
0.0
 11
527.0
 21
254.8950492858011
 31
0.0
  0
LINE
  5
1B7
330
1F
100
AcDbEntity
  8
LAY-10
  6
HIDDEN
 62
     4
100
AcDbLine
 10
330.0
 20
228.0
 30
0.0
 11
327.0
 21
228.0
 31
0.0
  0
ARC
  5
1B8
330
1F
100
AcDbEntity
  8
LAY-10
  6
HIDDEN
 62
     4
100
AcDbCircle
 10
330.0
 20
225.0
 30
0.0
 40
3.000000000000002
100
AcDbArc
 50
0.0
 51
90.00000000000004
  0
LINE
  5
1B9
330
1F
100
AcDbEntity
  8
LAY-10
  6
HIDDEN
 62
     4
100
AcDbLine
 10
333.0
 20
225.0
 30
0.0
 11
333.0
 21
206.0
 31
0.0
  0
LINE
  5
1BA
330
1F
100
AcDbEntity
  8
LAY-10
  6
CONTINUOUS
 62
     7
100
AcDbLine
 10
317.0
 20
242.1049507141964
 30
0.0
 11
317.0
 21
238.0
 31
0.0
  0
LINE
  5
1BB
330
1F
100
AcDbEntity
  8
LAY-10
  6
CONTINUOUS
 62
     7
100
AcDbLine
 10
527.0
 20
242.1049507141964
 30
0.0
 11
527.0
 21
238.0
 31
0.0
  0
ARC
  5
1BC
330
1F
100
AcDbEntity
  8
LAY-10
  6
CONTINUOUS
 62
     7
100
AcDbCircle
 10
327.0
 20
238.0
 30
0.0
 40
10.0
100
AcDbArc
 50
180.0
 51
237.4210296071961
  0
LINE
  5
1BD
330
1F
100
AcDbEntity
  8
LAY-10
  6
CONTINUOUS
 62
     7
100
AcDbLine
 10
323.0
 20
227.0455488498967
 30
0.0
 11
323.0
 21
199.0
 31
0.0
  0
ARC
  5
1BE
330
1F
100
AcDbEntity
  8
LAY-10
  6
CONTINUOUS
 62
     7
100
AcDbCircle
 10
320.0
 20
227.0455488498967
 30
0.0
 40
3.000000000000002
100
AcDbArc
 50
0.0
 51
57.42102960719598
  0
ARC
  5
1BF
330
1F
100
AcDbEntity
  8
LAY-10
  6
HIDDEN
 62
     4
100
AcDbCircle
 10
327.0
 20
238.0
 30
0.0
 40
10.0
100
AcDbArc
 50
237.4210296071961
 51
270.0000000000002
  0
LINE
  5
1C0
330
1F
100
AcDbEntity
  8
LAY-10
  6
CONTINUOUS
 62
     7
100
AcDbLine
 10
501.0
 20
196.0
 30
0.0
 11
461.4999999999999
 21
196.0
 31
0.0
  0
LINE
  5
1C1
330
1F
100
AcDbEntity
  8
LAY-10
  6
CONTINUOUS
 62
     7
100
AcDbLine
 10
501.0
 20
201.0
 30
0.0
 11
461.4999999999999
 21
201.0
 31
0.0
  0
LINE
  5
1C2
330
1F
100
AcDbEntity
  8
LAY-10
  6
CONTINUOUS
 62
     7
100
AcDbLine
 10
343.0
 20
201.0
 30
0.0
 11
382.5
 21
201.0
 31
0.0
  0
LINE
  5
1C3
330
1F
100
AcDbEntity
  8
LAY-10
  6
CONTINUOUS
 62
     7
100
AcDbLine
 10
298.8953280875141
 20
251.0993299360752
 30
0.0
 11
314.1570078687288
 21
251.8991606815374
 31
0.0
  0
LINE
  5
1C4
330
1F
100
AcDbEntity
  8
LAY-10
  6
CONTINUOUS
 62
     7
100
AcDbLine
 10
314.1570078687288
 20
245.1008393184601
 30
0.0
 11
298.8953280875141
 21
245.9006700639223
 31
0.0
  0
LINE
  5
1C5
330
1F
100
AcDbEntity
  8
LAY-10
  6
CONTINUOUS
 62
     7
100
AcDbLine
 10
527.0
 20
294.5000000000002
 30
0.0
 11
522.0
 21
294.5000000000002
 31
0.0
  0
LINE
  5
1C6
330
1F
100
AcDbEntity
  8
LAY-10
  6
CONTINUOUS
 62
     7
100
AcDbLine
 10
527.0
 20
267.4999999999999
 30
0.0
 11
522.0
 21
267.4999999999999
 31
0.0
  0
ARC
  5
1C7
330
1F
100
AcDbEntity
  8
LAY-10
  6
CONTINUOUS
 62
     7
100
AcDbCircle
 10
463.8210473326228
 20
327.9999999999999
 30
0.0
 40
10.0
100
AcDbArc
 50
90.00000000000004
 51
166.5522729554908
  0
ARC
  5
1C8
330
1F
100
AcDbEntity
  8
LAY-10
  6
CONTINUOUS
 62
     7
100
AcDbCircle
 10
421.9999999999697
 20
338.0
 30
0.0
 40
33.00000000000002
100
AcDbArc
 50
193.4477270445093
 51
346.5522729554908
  0
ARC
  5
1C9
330
1F
100
AcDbEntity
  8
LAY-10
  6
CONTINUOUS
 62
     7
100
AcDbCircle
 10
380.1789526673169
 20
328.0
 30
0.0
 40
10.0
100
AcDbArc
 50
13.44772704450934
 51
90.00000000000004
  0
LINE
  5
1CA
330
1F
100
AcDbEntity
  8
LAY-10
  6
CONTINUOUS
 62
     7
100
AcDbLine
 10
529.4759222071891
 20
336.0
 30
0.0
 11
457.8210473326228
 21
336.0
 31
0.0
  0
LINE
  5
1CB
330
1F
100
AcDbEntity
  8
LAY-10
  6
CONTINUOUS
 62
     7
100
AcDbLine
 10
454.4999999999698
 20
346.0000000000002
 30
0.0
 11
454.4999999999698
 21
340.0000000000001
 31
0.0
  0
LINE
  5
1CC
330
1F
100
AcDbEntity
  8
LAY-10
  6
CONTINUOUS
 62
     7
100
AcDbLine
 10
449.9999999999698
 20
340.0000000000001
 30
0.0
 11
454.4999999999698
 21
340.0000000000001
 31
0.0
  0
ARC
  5
1CD
330
1F
100
AcDbEntity
  8
LAY-10
  6
CONTINUOUS
 62
     7
100
AcDbCircle
 10
421.9999999999697
 20
338.0
 30
0.0
 40
28.00000000000002
100
AcDbArc
 50
180.0
 51
0.0
  0
LINE
  5
1CE
330
1F
100
AcDbEntity
  8
LAY-10
  6
CONTINUOUS
 62
     7
100
AcDbLine
 10
449.9999999999698
 20
340.0000000000001
 30
0.0
 11
449.9999999999698
 21
338.0
 31
0.0
  0
LINE
  5
1CF
330
1F
100
AcDbEntity
  8
LAY-10
  6
CONTINUOUS
 62
     7
100
AcDbLine
 10
416.9999999999698
 20
340.0000000000001
 30
0.0
 11
426.9999999999698
 21
340.0000000000001
 31
0.0
  0
LINE
  5
1D0
330
1F
100
AcDbEntity
  8
LAY-10
  6
CONTINUOUS
 62
     7
100
AcDbLine
 10
416.9999999999698
 20
333.0
 30
0.0
 11
416.9999999999698
 21
340.0000000000001
 31
0.0
  0
ARC
  5
1D1
330
1F
100
AcDbEntity
  8
LAY-10
  6
CONTINUOUS
 62
     7
100
AcDbCircle
 10
419.9999999999698
 20
333.0
 30
0.0
 40
3.000000000000002
100
AcDbArc
 50
180.0
 51
270.0000000000002
  0
LINE
  5
1D2
330
1F
100
AcDbEntity
  8
LAY-10
  6
CONTINUOUS
 62
     7
100
AcDbLine
 10
426.9999999999698
 20
333.0
 30
0.0
 11
426.9999999999698
 21
340.0000000000001
 31
0.0
  0
LINE
  5
1D3
330
1F
100
AcDbEntity
  8
LAY-10
  6
CONTINUOUS
 62
     7
100
AcDbLine
 10
419.9999999999698
 20
330.0
 30
0.0
 11
423.9999999999698
 21
330.0
 31
0.0
  0
ARC
  5
1D4
330
1F
100
AcDbEntity
  8
LAY-10
  6
CONTINUOUS
 62
     7
100
AcDbCircle
 10
423.9999999999698
 20
333.0
 30
0.0
 40
3.000000000000002
100
AcDbArc
 50
270.0000000000002
 51
0.0
  0
LINE
  5
1D5
330
1F
100
AcDbEntity
  8
LAY-10
  6
CONTINUOUS
 62
     7
100
AcDbLine
 10
393.9999999999698
 20
340.0000000000001
 30
0.0
 11
393.9999999999698
 21
338.0
 31
0.0
  0
LINE
  5
1D6
330
1F
100
AcDbEntity
  8
LAY-10
  6
CONTINUOUS
 62
     7
100
AcDbLine
 10
389.4999999999698
 20
340.0000000000001
 30
0.0
 11
393.9999999999698
 21
340.0000000000001
 31
0.0
  0
LINE
  5
1D7
330
1F
100
AcDbEntity
  8
LAY-10
  6
CONTINUOUS
 62
     7
100
AcDbLine
 10
389.4999999999698
 20
346.0000000000002
 30
0.0
 11
389.4999999999698
 21
340.0000000000001
 31
0.0
  0
LINE
  5
1D8
330
1F
100
AcDbEntity
  8
LAY-10
  6
CONTINUOUS
 62
     7
100
AcDbLine
 10
522.0
 20
333.0
 30
0.0
 11
522.0
 21
238.0
 31
0.0
  0
LINE
  5
1D9
330
1F
100
AcDbEntity
  8
LAY-10
  6
CONTINUOUS
 62
     7
100
AcDbLine
 10
327.999999999996
 20
317.2679491924207
 30
0.0
 11
324.9999999999965
 21
318.9999999999895
 31
0.0
  0
LINE
  5
1DA
330
1F
100
AcDbEntity
  8
LAY-10
  6
CONTINUOUS
 62
     7
100
AcDbLine
 10
328.0000000000042
 20
317.2679491924207
 30
0.0
 11
331.0000000000042
 21
318.9999999999895
 31
0.0
  0
LINE
  5
1DB
330
1F
100
AcDbEntity
  8
LAY-10
  6
CONTINUOUS
 62
     7
100
AcDbLine
 10
331.0000000000001
 20
318.9999999999957
 30
0.0
 11
325.0000000000006
 21
318.9999999999957
 31
0.0
  0
LINE
  5
1DC
330
1F
100
AcDbEntity
  8
LAY-10
  6
CONTINUOUS
 62
     7
100
AcDbLine
 10
331.0000000000001
 20
325.99999999998
 30
0.0
 11
331.0000000000001
 21
318.99999999999
 31
0.0
  0
LINE
  5
1DD
330
1F
100
AcDbEntity
  8
LAY-10
  6
CONTINUOUS
 62
     7
100
AcDbLine
 10
325.0000000000006
 20
325.99999999998
 30
0.0
 11
325.0000000000006
 21
319.0
 31
0.0
  0
LINE
  5
1DE
330
1F
100
AcDbEntity
  8
LAY-10
  6
CONTINUOUS
 62
     7
100
AcDbLine
 10
455.1607932947785
 20
333.0
 30
0.0
 11
532.0
 21
333.0
 31
0.0
  0
LINE
  5
1DF
330
1F
100
AcDbEntity
  8
LAY-10
  6
CONTINUOUS
 62
     7
100
AcDbLine
 10
332.0000000001336
 20
333.0
 30
0.0
 11
388.83920670516
 21
333.0
 31
0.0
  0
LINE
  5
1E0
330
1F
100
AcDbEntity
  8
LAY-10
  6
CONTINUOUS
 62
     7
100
AcDbLine
 10
327.4999999999998
 20
210.999999999999
 30
0.0
 11
327.4999999999998
 21
217.3030344885259
 31
0.0
  0
LINE
  5
1E1
330
1F
100
AcDbEntity
  8
LAY-10
  6
CONTINUOUS
 62
     7
100
AcDbLine
 10
332.4999999999998
 20
210.999999999999
 30
0.0
 11
332.4999999999998
 21
217.3030344885259
 31
0.0
  0
LINE
  5
1E2
330
1F
100
AcDbEntity
  8
LAY-10
  6
CONTINUOUS
 62
     7
100
AcDbLine
 10
332.9999999999998
 20
182.439999999999
 30
0.0
 11
332.9999999999998
 21
210.399999999999
 31
0.0
  0
LINE
  5
1E3
330
1F
100
AcDbEntity
  8
LAY-10
  6
CONTINUOUS
 62
     7
100
AcDbLine
 10
326.9999999999998
 20
182.439999999999
 30
0.0
 11
326.9999999999998
 21
210.399999999999
 31
0.0
  0
LINE
  5
1E4
330
1F
100
AcDbEntity
  8
LAY-10
  6
CONTINUOUS
 62
     7
100
AcDbLine
 10
325.4999999999998
 20
181.999999999999
 30
0.0
 11
334.4999999999998
 21
181.999999999999
 31
0.0
  0
ARC
  5
1E5
330
1F
100
AcDbEntity
  8
LAY-10
  6
CONTINUOUS
 62
     7
100
AcDbCircle
 10
334.4999999999998
 20
184.7768181818172
 30
0.0
 40
2.776818181818183
100
AcDbArc
 50
237.303656905298
 51
302.6963430947024
  0
ARC
  5
1E6
330
1F
100
AcDbEntity
  8
LAY-10
  6
CONTINUOUS
 62
     7
100
AcDbCircle
 10
329.9999999999998
 20
192.4472727272717
 30
0.0
 40
10.44727272727273
100
AcDbArc
 50
253.3122168319343
 51
286.6877831680661
  0
ARC
  5
1E7
330
1F
100
AcDbEntity
  8
LAY-10
  6
CONTINUOUS
 62
     7
100
AcDbCircle
 10
325.4999999999998
 20
184.7768181818172
 30
0.0
 40
2.776818181818187
100
AcDbArc
 50
237.303656905298
 51
302.6963430947024
  0
LINE
  5
1E8
330
1F
100
AcDbEntity
  8
LAY-10
  6
CONTINUOUS
 62
     7
100
AcDbLine
 10
335.9999999999998
 20
185.999999999999
 30
0.0
 11
335.9999999999998
 21
182.439999999999
 31
0.0
  0
LINE
  5
1E9
330
1F
100
AcDbEntity
  8
LAY-10
  6
CONTINUOUS
 62
     7
100
AcDbLine
 10
323.9999999999998
 20
185.999999999999
 30
0.0
 11
323.9999999999998
 21
182.439999999999
 31
0.0
  0
LINE
  5
1EA
330
1F
100
AcDbEntity
  8
LAY-10
  6
CONTINUOUS
 62
     7
100
AcDbLine
 10
327.4999999999848
 20
217.3030344885515
 30
0.0
 11
329.9999999999661
 21
218.7464101615148
 31
0.0
  0
LINE
  5
1EB
330
1F
100
AcDbEntity
  8
LAY-10
  6
CONTINUOUS
 62
     7
100
AcDbLine
 10
332.4999999999998
 20
217.3030344885215
 30
0.0
 11
329.9999999999661
 21
218.7464101615148
 31
0.0
  0
LINE
  5
1EC
330
1F
100
AcDbEntity
  8
LAY-10
  6
CONTINUOUS
 62
     7
100
AcDbLine
 10
332.9999999999998
 20
196.0
 30
0.0
 11
382.5
 21
196.0
 31
0.0
  0
LINE
  5
1ED
330
1F
100
AcDbEntity
  8
LAY-10
  6
CONTINUOUS
 62
     7
100
AcDbLine
 10
532.0
 20
346.0
 30
0.0
 11
542.0
 21
346.0
 31
0.0
  0
LINE
  5
1EE
330
1F
100
AcDbEntity
  8
LAY-10
  6
CONTINUOUS
 62
     7
100
AcDbLine
 10
301.9999999999999
 20
346.0
 30
0.0
 11
311.9999999999999
 21
346.0
 31
0.0
  0
LINE
  5
1EF
330
1F
100
AcDbEntity
  8
LAY-10
  6
CONTINUOUS
 62
     7
100
AcDbLine
 10
314.00000000002
 20
346.0
 30
0.0
 11
530.0000000000196
 21
346.0
 31
0.0
  0
CIRCLE
  5
1F0
330
1F
100
AcDbEntity
  8
LAY-10
  6
CONTINUOUS
 62
     7
100
AcDbCircle
 10
422.0000000000001
 20
586.00000000003
 30
0.0
 40
120.0000000000001
  0
CIRCLE
  5
1F1
330
1F
100
AcDbEntity
  8
LAY-10
  6
CONTINUOUS
 62
     7
100
AcDbCircle
 10
422.0000000000499
 20
586.00000000003
 30
0.0
 40
108.0000000000001
  0
TEXT
  5
1F2
330
1F
100
AcDbEntity
  8
LAY-10
  6
CONTINUOUS
 62
     7
100
AcDbText
 10
380.7523040160394
 20
493.6530567099506
 30
0.0
 40
5.456692828292274
  1
ＳＦ
 50
338.4521876576003
 41
0.903571411784813
  7
EXCADSTD
100
AcDbText
  0
TEXT
  5
1F3
330
1F
100
AcDbEntity
  8
LAY-10
  6
CONTINUOUS
 62
     7
100
AcDbText
 10
397.7731969618019
 20
487.1155794041599
 30
0.0
 40
7.24960682868309
  1
Ｆ
 50
348.69816
 41
1.2
  7
EXCADSTD
100
AcDbText
  0
TEXT
  5
1F4
330
1F
100
AcDbEntity
  8
LAY-10
  6
CONTINUOUS
 62
     7
100
AcDbText
 10
405.3488725254783
 20
485.5980627812243
 30
0.0
 40
7.24960682868309
  1
Ｕ
 50
352.9502043199001
 41
1.2
  7
EXCADSTD
100
AcDbText
  0
TEXT
  5
1F5
330
1F
100
AcDbEntity
  8
LAY-10
  6
CONTINUOUS
 62
     7
100
AcDbText
 10
413.0162112083947
 20
484.6464145187185
 30
0.0
 40
7.24960682868309
  1
Ｋ
 50
357.2022487970003
 41
1.2
  7
EXCADSTD
100
AcDbText
  0
TEXT
  5
1F6
330
1F
100
AcDbEntity
  8
LAY-10
  6
CONTINUOUS
 62
     7
100
AcDbText
 10
420.7330049288077
 20
484.2658733633906
 30
0.0
 40
7.24960682868309
  1
Ｕ
 50
1.454293274200017
 41
1.2
  7
EXCADSTD
100
AcDbText
  0
TEXT
  5
1F7
330
1F
100
AcDbEntity
  8
LAY-10
  6
CONTINUOUS
 62
     7
100
AcDbText
 10
428.4567733555562
 20
484.458534163829
 30
0.0
 40
7.24960682868309
  1
Ｎ
 50
5.706337751299983
 41
1.2
  7
EXCADSTD
100
AcDbText
  0
TEXT
  5
1F8
330
1F
100
AcDbEntity
  8
LAY-10
  6
CONTINUOUS
 62
     7
100
AcDbText
 10
436.1449977623357
 20
485.2233363377601
 30
0.0
 40
7.24960682868309
  1
Ｉ
 50
9.958382228499982
 41
1.2
  7
EXCADSTD
100
AcDbText
  0
TEXT
  5
1F9
330
1F
100
AcDbEntity
  8
LAY-10
  6
CONTINUOUS
 62
     7
100
AcDbText
 10
443.7553550897792
 20
486.5560697104946
 30
0.0
 40
7.24960682868309
  1
Ｓ
 50
14.21042670569999
 41
1.2
  7
EXCADSTD
100
AcDbText
  0
TEXT
  5
1FA
330
1F
100
AcDbEntity
  8
LAY-10
  6
CONTINUOUS
 62
     7
100
AcDbText
 10
451.2459509305775
 20
488.4493976915925
 30
0.0
 40
7.24960682868309
  1
Ｈ
 50
18.46247118280001
 41
1.2
  7
EXCADSTD
100
AcDbText
  0
TEXT
  5
1FB
330
1F
100
AcDbEntity
  8
LAY-10
  6
CONTINUOUS
 62
     7
100
AcDbText
 10
458.5755501547945
 20
490.8928976622288
 30
0.0
 40
7.24960682868309
  1
Ｉ
 50
22.71451565990009
 41
1.2
  7
EXCADSTD
100
AcDbText
  0
CIRCLE
  5
1FC
330
1F
100
AcDbEntity
  8
LAY-10
  6
CONTINUOUS
 62
     7
100
AcDbCircle
 10
422.0000000000001
 20
586.00000000003
 30
0.0
 40
110.0000000000001
  0
CIRCLE
  5
1FD
330
1F
100
AcDbEntity
  8
LAY-10
  6
CONTINUOUS
 62
     7
100
AcDbCircle
 10
488.4680374315886
 20
519.5319625685116
 30
0.0
 40
8.0
  0
LINE
  5
1FE
330
1F
100
AcDbEntity
  8
LAY-10
  6
CONTINUOUS
 62
     7
100
AcDbLine
 10
490.968037431605
 20
520.9753382415076
 30
0.0
 11
490.968037431605
 21
518.0885868955124
 31
0.0
  0
LINE
  5
1FF
330
1F
100
AcDbEntity
  8
LAY-10
  6
CONTINUOUS
 62
     7
100
AcDbLine
 10
488.468037431604
 20
522.4187139144823
 30
0.0
 11
490.968037431605
 21
520.9753382415076
 31
0.0
  0
LINE
  5
200
330
1F
100
AcDbEntity
  8
LAY-10
  6
CONTINUOUS
 62
     7
100
AcDbLine
 10
488.4680374316434
 20
522.4187139144595
 30
0.0
 11
485.9680374316025
 21
520.9753382414618
 31
0.0
  0
LINE
  5
201
330
1F
100
AcDbEntity
  8
LAY-10
  6
CONTINUOUS
 62
     7
100
AcDbLine
 10
485.9680374316025
 20
520.9753382414618
 30
0.0
 11
485.9680374316025
 21
518.0885868955581
 31
0.0
  0
LINE
  5
202
330
1F
100
AcDbEntity
  8
LAY-10
  6
CONTINUOUS
 62
     7
100
AcDbLine
 10
485.9680374316025
 20
518.0885868955581
 30
0.0
 11
488.4680374316434
 21
516.6452112225605
 31
0.0
  0
LINE
  5
203
330
1F
100
AcDbEntity
  8
LAY-10
  6
CONTINUOUS
 62
     7
100
AcDbLine
 10
490.968037431605
 20
518.0885868955124
 30
0.0
 11
488.4680374316434
 21
516.6452112225605
 31
0.0
  0
CIRCLE
  5
204
330
1F
100
AcDbEntity
  8
LAY-10
  6
CONTINUOUS
 62
     7
100
AcDbCircle
 10
488.4680374315786
 20
652.4680374315716
 30
0.0
 40
8.0
  0
LINE
  5
205
330
1F
100
AcDbEntity
  8
LAY-10
  6
CONTINUOUS
 62
     7
100
AcDbLine
 10
490.968037431595
 20
653.9114131045676
 30
0.0
 11
490.968037431595
 21
651.0246617585724
 31
0.0
  0
LINE
  5
206
330
1F
100
AcDbEntity
  8
LAY-10
  6
CONTINUOUS
 62
     7
100
AcDbLine
 10
488.4680374315941
 20
655.3547887775422
 30
0.0
 11
490.968037431595
 21
653.9114131045676
 31
0.0
  0
LINE
  5
207
330
1F
100
AcDbEntity
  8
LAY-10
  6
CONTINUOUS
 62
     7
100
AcDbLine
 10
488.4680374316334
 20
655.3547887775195
 30
0.0
 11
485.9680374315925
 21
653.9114131045218
 31
0.0
  0
LINE
  5
208
330
1F
100
AcDbEntity
  8
LAY-10
  6
CONTINUOUS
 62
     7
100
AcDbLine
 10
485.9680374315925
 20
653.9114131045218
 30
0.0
 11
485.9680374315925
 21
651.0246617586181
 31
0.0
  0
LINE
  5
209
330
1F
100
AcDbEntity
  8
LAY-10
  6
CONTINUOUS
 62
     7
100
AcDbLine
 10
485.9680374315925
 20
651.0246617586181
 30
0.0
 11
488.4680374316334
 21
649.5812860856205
 31
0.0
  0
LINE
  5
20A
330
1F
100
AcDbEntity
  8
LAY-10
  6
CONTINUOUS
 62
     7
100
AcDbLine
 10
490.968037431595
 20
651.0246617585724
 30
0.0
 11
488.4680374316334
 21
649.5812860856205
 31
0.0
  0
CIRCLE
  5
20B
330
1F
100
AcDbEntity
  8
LAY-10
  6
CONTINUOUS
 62
     7
100
AcDbCircle
 10
355.5319625685186
 20
652.4680374315716
 30
0.0
 40
8.0
  0
LINE
  5
20C
330
1F
100
AcDbEntity
  8
LAY-10
  6
CONTINUOUS
 62
     7
100
AcDbLine
 10
358.031962568535
 20
653.9114131045676
 30
0.0
 11
358.031962568535
 21
651.0246617585724
 31
0.0
  0
LINE
  5
20D
330
1F
100
AcDbEntity
  8
LAY-10
  6
CONTINUOUS
 62
     7
100
AcDbLine
 10
355.5319625685341
 20
655.3547887775422
 30
0.0
 11
358.031962568535
 21
653.9114131045676
 31
0.0
  0
LINE
  5
20E
330
1F
100
AcDbEntity
  8
LAY-10
  6
CONTINUOUS
 62
     7
100
AcDbLine
 10
355.5319625685734
 20
655.3547887775195
 30
0.0
 11
353.0319625685325
 21
653.9114131045218
 31
0.0
  0
LINE
  5
20F
330
1F
100
AcDbEntity
  8
LAY-10
  6
CONTINUOUS
 62
     7
100
AcDbLine
 10
353.0319625685325
 20
653.9114131045218
 30
0.0
 11
353.0319625685325
 21
651.0246617586181
 31
0.0
  0
LINE
  5
210
330
1F
100
AcDbEntity
  8
LAY-10
  6
CONTINUOUS
 62
     7
100
AcDbLine
 10
353.0319625685325
 20
651.0246617586181
 30
0.0
 11
355.5319625685734
 21
649.5812860856205
 31
0.0
  0
LINE
  5
211
330
1F
100
AcDbEntity
  8
LAY-10
  6
CONTINUOUS
 62
     7
100
AcDbLine
 10
358.031962568535
 20
651.0246617585724
 30
0.0
 11
355.5319625685734
 21
649.5812860856205
 31
0.0
  0
CIRCLE
  5
212
330
1F
100
AcDbEntity
  8
LAY-10
  6
CONTINUOUS
 62
     7
100
AcDbCircle
 10
355.5319625684986
 20
519.5319625685116
 30
0.0
 40
8.0
  0
LINE
  5
213
330
1F
100
AcDbEntity
  8
LAY-10
  6
CONTINUOUS
 62
     7
100
AcDbLine
 10
358.031962568515
 20
520.9753382415076
 30
0.0
 11
358.031962568515
 21
518.0885868955124
 31
0.0
  0
LINE
  5
214
330
1F
100
AcDbEntity
  8
LAY-10
  6
CONTINUOUS
 62
     7
100
AcDbLine
 10
355.5319625685141
 20
522.4187139144823
 30
0.0
 11
358.031962568515
 21
520.9753382415076
 31
0.0
  0
LINE
  5
215
330
1F
100
AcDbEntity
  8
LAY-10
  6
CONTINUOUS
 62
     7
100
AcDbLine
 10
355.5319625685534
 20
522.4187139144595
 30
0.0
 11
353.0319625685125
 21
520.9753382414618
 31
0.0
  0
LINE
  5
216
330
1F
100
AcDbEntity
  8
LAY-10
  6
CONTINUOUS
 62
     7
100
AcDbLine
 10
353.0319625685125
 20
520.9753382414618
 30
0.0
 11
353.0319625685125
 21
518.0885868955581
 31
0.0
  0
LINE
  5
217
330
1F
100
AcDbEntity
  8
LAY-10
  6
CONTINUOUS
 62
     7
100
AcDbLine
 10
353.0319625685125
 20
518.0885868955581
 30
0.0
 11
355.5319625685534
 21
516.6452112225605
 31
0.0
  0
LINE
  5
218
330
1F
100
AcDbEntity
  8
LAY-10
  6
CONTINUOUS
 62
     7
100
AcDbLine
 10
358.031962568515
 20
518.0885868955124
 30
0.0
 11
355.5319625685534
 21
516.6452112225605
 31
0.0
  0
CIRCLE
  5
219
330
1F
100
AcDbEntity
  8
LAY-10
  6
CONTINUOUS
 62
     7
100
AcDbCircle
 10
422.0000000000001
 20
586.00000000003
 30
0.0
 40
124.9999999999999
  0
LINE
  5
21A
330
1F
100
AcDbEntity
  8
LAY-10
  6
CONTINUOUS
 62
     7
100
AcDbLine
 10
851.8500000000039
 20
595.8999999999999
 30
0.0
 11
851.8500000000039
 21
589.8999999999976
 31
0.0
  0
LINE
  5
21B
330
1F
100
AcDbEntity
  8
LAY-10
  6
CONTINUOUS
 62
     7
100
AcDbLine
 10
875.6000000000641
 20
595.8999999999999
 30
0.0
 11
880.6000000000084
 21
595.8999999999999
 31
0.0
  0
LINE
  5
21C
330
1F
100
AcDbEntity
  8
LAY-10
  6
CONTINUOUS
 62
     7
100
AcDbLine
 10
851.8500000000042
 20
595.8999999999999
 30
0.0
 11
857.6000000000907
 21
595.8999999999999
 31
0.0
  0
LINE
  5
21D
330
1F
100
AcDbEntity
  8
LAY-10
  6
CONTINUOUS
 62
     7
100
AcDbLine
 10
864.6000000001079
 20
595.8999999999999
 30
0.0
 11
869.6000000000624
 21
595.8999999999999
 31
0.0
  0
LINE
  5
21E
330
1F
100
AcDbEntity
  8
LAY-10
  6
CONTINUOUS
 62
     7
100
AcDbLine
 10
857.8500000001048
 20
594.8999999999985
 30
0.0
 11
857.6000000000907
 21
595.8999999999999
 31
0.0
  0
LINE
  5
21F
330
1F
100
AcDbEntity
  8
LAY-10
  6
CONTINUOUS
 62
     7
100
AcDbLine
 10
864.3500000001204
 20
594.8999999999985
 30
0.0
 11
864.6000000001079
 21
595.8999999999999
 31
0.0
  0
LINE
  5
220
330
1F
100
AcDbEntity
  8
LAY-10
  6
CONTINUOUS
 62
     7
100
AcDbLine
 10
869.6000000000624
 20
595.8999999999999
 30
0.0
 11
869.8500000000765
 21
594.8999999999985
 31
0.0
  0
LINE
  5
221
330
1F
100
AcDbEntity
  8
LAY-10
  6
CONTINUOUS
 62
     7
100
AcDbLine
 10
875.350000000077
 20
594.8999999999985
 30
0.0
 11
875.6000000000645
 21
595.8999999999999
 31
0.0
  0
LINE
  5
222
330
1F
100
AcDbEntity
  8
LAY-10
  6
CONTINUOUS
 62
     7
100
AcDbLine
 10
880.6000000000084
 20
595.8999999999999
 30
0.0
 11
880.849999999999
 21
594.8999999999985
 31
0.0
  0
LINE
  5
223
330
1F
100
AcDbEntity
  8
LAY-10
  6
CONTINUOUS
 62
     7
100
AcDbLine
 10
869.8500000000765
 20
594.8999999999985
 30
0.0
 11
875.350000000077
 21
594.8999999999985
 31
0.0
  0
LINE
  5
224
330
1F
100
AcDbEntity
  8
LAY-10
  6
CONTINUOUS
 62
     7
100
AcDbLine
 10
857.8500000001048
 20
594.8999999999985
 30
0.0
 11
864.3500000001204
 21
594.8999999999985
 31
0.0
  0
ARC
  5
225
330
1F
100
AcDbEntity
  8
LAY-10
  6
CONTINUOUS
 62
     7
100
AcDbCircle
 10
866.1000000000035
 20
588.8999999999351
 30
0.0
 40
1.0
100
AcDbArc
 50
180.0
 51
270.0000000000001
  0
ARC
  5
226
330
1F
100
AcDbEntity
  8
LAY-10
  6
CONTINUOUS
 62
     7
100
AcDbCircle
 10
866.1000000000035
 20
588.8999999999978
 30
0.0
 40
1.0
100
AcDbArc
 50
90.00000000000004
 51
180.0
  0
ARC
  5
227
330
1F
100
AcDbEntity
  8
LAY-10
  6
CONTINUOUS
 62
     7
100
AcDbCircle
 10
857.1000000000022
 20
587.8999999999987
 30
0.0
 40
2.0
100
AcDbArc
 50
270.0000000000001
 51
0.0
  0
ARC
  5
228
330
1F
100
AcDbEntity
  8
LAY-10
  6
CONTINUOUS
 62
     7
100
AcDbCircle
 10
857.1000000000022
 20
587.8999999999976
 30
0.0
 40
2.0
100
AcDbArc
 50
0.0
 51
90.00000000000004
  0
LINE
  5
229
330
1F
100
AcDbEntity
  8
LAY-10
  6
CONTINUOUS
 62
     7
100
AcDbLine
 10
857.3321489268681
 20
585.8999999999985
 30
0.0
 11
857.1000000000022
 21
585.8999999999985
 31
0.0
  0
ARC
  5
22A
330
1F
100
AcDbEntity
  8
LAY-10
  6
CONTINUOUS
 62
     7
100
AcDbCircle
 10
857.3321489268681
 20
584.3999999999985
 30
0.0
 40
1.5
100
AcDbArc
 50
90.00000000000004
 51
187.5895423917131
  0
ARC
  5
22B
330
1F
100
AcDbEntity
  8
LAY-10
  6
CONTINUOUS
 62
     7
100
AcDbCircle
 10
864.7254139117987
 20
579.9000000000021
 30
0.0
 40
2.0
100
AcDbArc
 50
90.00000000000004
 51
202.9696765721373
  0
LINE
  5
22C
330
1F
100
AcDbEntity
  8
LAY-10
  6
CONTINUOUS
 62
     7
100
AcDbLine
 10
864.7254139117987
 20
581.9000000000021
 30
0.0
 11
871.045850889981
 21
581.9000000000021
 31
0.0
  0
ARC
  5
22D
330
1F
100
AcDbEntity
  8
LAY-10
  6
CONTINUOUS
 62
     7
100
AcDbCircle
 10
871.045850889981
 20
579.9000000000021
 30
0.0
 40
2.0
100
AcDbArc
 50
35.00000000000193
 51
90.00000000000004
  0
LINE
  5
22E
330
1F
100
AcDbEntity
  8
LAY-10
  6
CONTINUOUS
 62
     7
100
AcDbLine
 10
872.6841549785593
 20
581.0471528727041
 30
0.0
 11
876.0824946728651
 21
576.1938208120481
 31
0.0
  0
ARC
  5
22F
330
1F
100
AcDbEntity
  8
LAY-10
  6
CONTINUOUS
 62
     7
100
AcDbCircle
 10
874.4441905842872
 20
575.0466679393462
 30
0.0
 40
2.0
100
AcDbArc
 50
324.9999999999956
 51
35.00000000000457
  0
ARC
  5
230
330
1F
100
AcDbEntity
  8
LAY-10
  6
CONTINUOUS
 62
     7
100
AcDbCircle
 10
878.7169016449583
 20
575.0466679393656
 30
0.0
 40
4.0
100
AcDbArc
 50
325.0000000000064
 51
34.99999999999873
  0
LINE
  5
231
330
1F
100
AcDbEntity
  8
LAY-10
  6
CONTINUOUS
 62
     7
100
AcDbLine
 10
866.1000000000035
 20
587.899999999935
 30
0.0
 11
872.5177317978743
 21
587.899999999935
 31
0.0
  0
LINE
  5
232
330
1F
100
AcDbEntity
  8
LAY-10
  6
CONTINUOUS
 62
     7
100
AcDbLine
 10
881.9935098221144
 20
577.3409736847698
 30
0.0
 11
875.7943399750304
 21
586.1943057453393
 31
0.0
  0
ARC
  5
233
330
1F
100
AcDbEntity
  8
LAY-10
  6
CONTINUOUS
 62
     7
100
AcDbCircle
 10
872.5177317978743
 20
583.8999999999351
 30
0.0
 40
4.0
100
AcDbArc
 50
34.99999999999511
 51
90.00000000000004
  0
ARC
  5
234
330
1F
100
AcDbEntity
  8
LAY-10
  6
CONTINUOUS
 62
     7
100
AcDbCircle
 10
883.600000000004
 20
587.899999999935
 30
0.0
 40
22.5
100
AcDbArc
 50
202.9696765721388
 51
214.357612979814
  0
ARC
  5
235
330
1F
100
AcDbEntity
  8
LAY-10
  6
CONTINUOUS
 62
     7
100
AcDbCircle
 10
862.7553364142234
 20
573.6500000000883
 30
0.0
 40
2.75
100
AcDbArc
 50
270.0000000000001
 51
34.35761297981725
  0
ARC
  5
236
330
1F
100
AcDbEntity
  8
LAY-10
  6
CONTINUOUS
 62
     7
100
AcDbCircle
 10
883.600000000004
 20
587.899999999935
 30
0.0
 40
28.0
100
AcDbArc
 50
187.5895423917189
 51
214.3576129798143
  0
ARC
  5
237
330
1F
100
AcDbEntity
  8
LAY-10
  6
CONTINUOUS
 62
     7
100
AcDbCircle
 10
862.7553364142234
 20
573.6500000000883
 30
0.0
 40
2.75
100
AcDbArc
 50
214.357612979814
 51
270.0000000000001
  0
LINE
  5
238
330
1F
100
AcDbEntity
  8
LAY-10
  6
CONTINUOUS
 62
     7
100
AcDbLine
 10
875.611829263184
 20
573.2273351999659
 30
0.0
 11
876.0824946728651
 21
573.8995150666443
 31
0.0
  0
ARC
  5
239
330
1F
100
AcDbEntity
  8
LAY-10
  6
CONTINUOUS
 62
     7
100
AcDbCircle
 10
877.8644973849788
 20
571.6500000000005
 30
0.0
 40
2.75
100
AcDbArc
 50
145.0000000000024
 51
270.0000000000001
  0
LINE
  5
23A
330
1F
100
AcDbEntity
  8
LAY-10
  6
CONTINUOUS
 62
     7
100
AcDbLine
 10
880.1171655067665
 20
570.0726648000352
 30
0.0
 11
881.9935098221144
 21
572.7523621939617
 31
0.0
  0
ARC
  5
23B
330
1F
100
AcDbEntity
  8
LAY-10
  6
CONTINUOUS
 62
     7
100
AcDbCircle
 10
877.8644973849716
 20
571.6500000000005
 30
0.0
 40
2.75
100
AcDbArc
 50
270.0000000000001
 51
324.9999999999991
  0
LINE
  5
23C
330
1F
100
AcDbEntity
  8
LAY-10
  6
CONTINUOUS
 62
     7
100
AcDbLine
 10
851.8500000000042
 20
589.8999999999976
 30
0.0
 11
857.1000000000022
 21
589.8999999999976
 31
0.0
  0
LINE
  5
23D
330
1F
100
AcDbEntity
  8
LAY-10
  6
CONTINUOUS
 62
     7
100
AcDbLine
 10
915.3500000000041
 20
595.8999999999999
 30
0.0
 11
915.3500000000041
 21
589.8999999999976
 31
0.0
  0
LINE
  5
23E
330
1F
100
AcDbEntity
  8
LAY-10
  6
CONTINUOUS
 62
     7
100
AcDbLine
 10
891.5999999999439
 20
595.8999999999999
 30
0.0
 11
886.5999999999996
 21
595.8999999999999
 31
0.0
  0
LINE
  5
23F
330
1F
100
AcDbEntity
  8
LAY-10
  6
CONTINUOUS
 62
     7
100
AcDbLine
 10
915.3500000000038
 20
595.8999999999999
 30
0.0
 11
909.5999999999173
 21
595.8999999999999
 31
0.0
  0
LINE
  5
240
330
1F
100
AcDbEntity
  8
LAY-10
  6
CONTINUOUS
 62
     7
100
AcDbLine
 10
902.5999999999001
 20
595.8999999999999
 30
0.0
 11
897.5999999999456
 21
595.8999999999999
 31
0.0
  0
LINE
  5
241
330
1F
100
AcDbEntity
  8
LAY-10
  6
CONTINUOUS
 62
     7
100
AcDbLine
 10
909.3499999999032
 20
594.8999999999985
 30
0.0
 11
909.5999999999173
 21
595.8999999999999
 31
0.0
  0
LINE
  5
242
330
1F
100
AcDbEntity
  8
LAY-10
  6
CONTINUOUS
 62
     7
100
AcDbLine
 10
902.8499999998876
 20
594.8999999999985
 30
0.0
 11
902.5999999999001
 21
595.8999999999999
 31
0.0
  0
LINE
  5
243
330
1F
100
AcDbEntity
  8
LAY-10
  6
CONTINUOUS
 62
     7
100
AcDbLine
 10
897.5999999999456
 20
595.8999999999999
 30
0.0
 11
897.3499999999315
 21
594.8999999999985
 31
0.0
  0
LINE
  5
244
330
1F
100
AcDbEntity
  8
LAY-10
  6
CONTINUOUS
 62
     7
100
AcDbLine
 10
891.849999999931
 20
594.8999999999985
 30
0.0
 11
891.5999999999435
 21
595.8999999999999
 31
0.0
  0
LINE
  5
245
330
1F
100
AcDbEntity
  8
LAY-10
  6
CONTINUOUS
 62
     7
100
AcDbLine
 10
886.5999999999996
 20
595.8999999999999
 30
0.0
 11
886.350000000009
 21
594.8999999999985
 31
0.0
  0
LINE
  5
246
330
1F
100
AcDbEntity
  8
LAY-10
  6
CONTINUOUS
 62
     7
100
AcDbLine
 10
897.3499999999315
 20
594.8999999999985
 30
0.0
 11
891.849999999931
 21
594.8999999999985
 31
0.0
  0
LINE
  5
247
330
1F
100
AcDbEntity
  8
LAY-10
  6
CONTINUOUS
 62
     7
100
AcDbLine
 10
909.3499999999032
 20
594.8999999999985
 30
0.0
 11
902.8499999998876
 21
594.8999999999985
 31
0.0
  0
ARC
  5
248
330
1F
100
AcDbEntity
  8
LAY-10
  6
CONTINUOUS
 62
     7
100
AcDbCircle
 10
901.1000000000045
 20
588.8999999999351
 30
0.0
 40
1.0
100
AcDbArc
 50
270.0000000000001
 51
0.0
  0
ARC
  5
249
330
1F
100
AcDbEntity
  8
LAY-10
  6
CONTINUOUS
 62
     7
100
AcDbCircle
 10
901.1000000000045
 20
588.8999999999978
 30
0.0
 40
1.0
100
AcDbArc
 50
0.0
 51
90.00000000000004
  0
ARC
  5
24A
330
1F
100
AcDbEntity
  8
LAY-10
  6
CONTINUOUS
 62
     7
100
AcDbCircle
 10
910.1000000000058
 20
587.8999999999987
 30
0.0
 40
2.0
100
AcDbArc
 50
180.0
 51
270.0000000000001
  0
ARC
  5
24B
330
1F
100
AcDbEntity
  8
LAY-10
  6
CONTINUOUS
 62
     7
100
AcDbCircle
 10
910.1000000000058
 20
587.8999999999976
 30
0.0
 40
2.0
100
AcDbArc
 50
90.00000000000004
 51
180.0
  0
LINE
  5
24C
330
1F
100
AcDbEntity
  8
LAY-10
  6
CONTINUOUS
 62
     7
100
AcDbLine
 10
909.86785107314
 20
585.8999999999985
 30
0.0
 11
910.1000000000058
 21
585.8999999999985
 31
0.0
  0
ARC
  5
24D
330
1F
100
AcDbEntity
  8
LAY-10
  6
CONTINUOUS
 62
     7
100
AcDbCircle
 10
909.86785107314
 20
584.3999999999985
 30
0.0
 40
1.5
100
AcDbArc
 50
352.4104576082865
 51
90.00000000000004
  0
ARC
  5
24E
330
1F
100
AcDbEntity
  8
LAY-10
  6
CONTINUOUS
 62
     7
100
AcDbCircle
 10
902.4745860882093
 20
579.9000000000021
 30
0.0
 40
2.0
100
AcDbArc
 50
337.0303234278616
 51
90.00000000000004
  0
LINE
  5
24F
330
1F
100
AcDbEntity
  8
LAY-10
  6
CONTINUOUS
 62
     7
100
AcDbLine
 10
902.4745860882093
 20
581.9000000000021
 30
0.0
 11
896.154149110027
 21
581.9000000000021
 31
0.0
  0
ARC
  5
250
330
1F
100
AcDbEntity
  8
LAY-10
  6
CONTINUOUS
 62
     7
100
AcDbCircle
 10
896.154149110027
 20
579.9000000000021
 30
0.0
 40
2.0
100
AcDbArc
 50
90.00000000000004
 51
145.0000000000118
  0
LINE
  5
251
330
1F
100
AcDbEntity
  8
LAY-10
  6
CONTINUOUS
 62
     7
100
AcDbLine
 10
894.5158450214487
 20
581.0471528727041
 30
0.0
 11
891.1175053271429
 21
576.1938208120481
 31
0.0
  0
ARC
  5
252
330
1F
100
AcDbEntity
  8
LAY-10
  6
CONTINUOUS
 62
     7
100
AcDbCircle
 10
892.7558094157208
 20
575.0466679393462
 30
0.0
 40
2.0
100
AcDbArc
 50
145.0000000000118
 51
214.9999999999975
  0
ARC
  5
253
330
1F
100
AcDbEntity
  8
LAY-10
  6
CONTINUOUS
 62
     7
100
AcDbCircle
 10
888.4830983550497
 20
575.0466679393656
 30
0.0
 40
4.0
100
AcDbArc
 50
145.0000000000036
 51
214.9999999999952
  0
LINE
  5
254
330
1F
100
AcDbEntity
  8
LAY-10
  6
CONTINUOUS
 62
     7
100
AcDbLine
 10
901.1000000000045
 20
587.899999999935
 30
0.0
 11
894.6822682021337
 21
587.899999999935
 31
0.0
  0
LINE
  5
255
330
1F
100
AcDbEntity
  8
LAY-10
  6
CONTINUOUS
 62
     7
100
AcDbLine
 10
885.2064901778936
 20
577.3409736847698
 30
0.0
 11
891.4056600249776
 21
586.1943057453393
 31
0.0
  0
ARC
  5
256
330
1F
100
AcDbEntity
  8
LAY-10
  6
CONTINUOUS
 62
     7
100
AcDbCircle
 10
894.6822682021337
 20
583.8999999999351
 30
0.0
 40
4.0
100
AcDbArc
 50
90.00000000000004
 51
145.0000000000049
  0
ARC
  5
257
330
1F
100
AcDbEntity
  8
LAY-10
  6
CONTINUOUS
 62
     7
100
AcDbCircle
 10
883.600000000004
 20
587.899999999935
 30
0.0
 40
22.5
100
AcDbArc
 50
325.6423870201849
 51
337.0303234278607
  0
ARC
  5
258
330
1F
100
AcDbEntity
  8
LAY-10
  6
CONTINUOUS
 62
     7
100
AcDbCircle
 10
904.4446635857846
 20
573.6500000000883
 30
0.0
 40
2.75
100
AcDbArc
 50
145.6423870201861
 51
270.0000000000001
  0
ARC
  5
259
330
1F
100
AcDbEntity
  8
LAY-10
  6
CONTINUOUS
 62
     7
100
AcDbCircle
 10
883.600000000004
 20
587.899999999935
 30
0.0
 40
28.0
100
AcDbArc
 50
325.6423870201853
 51
352.4104576082811
  0
ARC
  5
25A
330
1F
100
AcDbEntity
  8
LAY-10
  6
CONTINUOUS
 62
     7
100
AcDbCircle
 10
904.4446635857846
 20
573.6500000000883
 30
0.0
 40
2.75
100
AcDbArc
 50
270.0000000000001
 51
325.6423870201879
  0
LINE
  5
25B
330
1F
100
AcDbEntity
  8
LAY-10
  6
CONTINUOUS
 62
     7
100
AcDbLine
 10
891.588170736824
 20
573.2273351999659
 30
0.0
 11
891.1175053271429
 21
573.8995150666443
 31
0.0
  0
ARC
  5
25C
330
1F
100
AcDbEntity
  8
LAY-10
  6
CONTINUOUS
 62
     7
100
AcDbCircle
 10
889.3355026150292
 20
571.6500000000005
 30
0.0
 40
2.75
100
AcDbArc
 50
270.0000000000001
 51
34.99999999999769
  0
LINE
  5
25D
330
1F
100
AcDbEntity
  8
LAY-10
  6
CONTINUOUS
 62
     7
100
AcDbLine
 10
887.0828344932415
 20
570.0726648000352
 30
0.0
 11
885.2064901778936
 21
572.7523621939617
 31
0.0
  0
ARC
  5
25E
330
1F
100
AcDbEntity
  8
LAY-10
  6
CONTINUOUS
 62
     7
100
AcDbCircle
 10
889.3355026150364
 20
571.6500000000005
 30
0.0
 40
2.75
100
AcDbArc
 50
214.9999999999977
 51
270.0000000000001
  0
LINE
  5
25F
330
1F
100
AcDbEntity
  8
LAY-10
  6
CONTINUOUS
 62
     7
100
AcDbLine
 10
915.3500000000038
 20
589.8999999999976
 30
0.0
 11
910.1000000000058
 21
589.8999999999976
 31
0.0
  0
LINE
  5
260
330
1F
100
AcDbEntity
  8
LAY-10
  6
CONTINUOUS
 62
     7
100
AcDbLine
 10
880.849999999999
 20
594.8999999999985
 30
0.0
 11
886.350000000009
 21
594.8999999999985
 31
0.0
  0
LINE
  5
261
330
1F
100
AcDbEntity
  8
LAY-10
  6
CONTINUOUS
 62
     7
100
AcDbLine
 10
866.1000000000035
 20
589.8999999999976
 30
0.0
 11
901.1000000000045
 21
589.8999999999976
 31
0.0
  0
LINE
  5
262
330
1F
100
AcDbEntity
  8
LAY-10
  6
CONTINUOUS
 62
     7
100
AcDbLine
 10
915.3499999999952
 20
642.7545967956529
 30
0.0
 11
915.3499999999952
 21
635.7545967956592
 31
0.0
  0
LINE
  5
263
330
1F
100
AcDbEntity
  8
LAY-10
  6
CONTINUOUS
 62
     7
100
AcDbLine
 10
909.5999999999623
 20
642.7545967956506
 30
0.0
 11
909.5999999999616
 21
616.7545967956636
 31
0.0
  0
LINE
  5
264
330
1F
100
AcDbEntity
  8
LAY-10
  6
CONTINUOUS
 62
     7
100
AcDbLine
 10
902.599999999959
 20
642.7545967956517
 30
0.0
 11
902.5999999999577
 21
616.7545967956639
 31
0.0
  0
LINE
  5
265
330
1F
100
AcDbEntity
  8
LAY-10
  6
CONTINUOUS
 62
     7
100
AcDbLine
 10
897.5999999999524
 20
642.7545967956522
 30
0.0
 11
897.599999999951
 21
616.7545967956646
 31
0.0
  0
LINE
  5
266
330
1F
100
AcDbEntity
  8
LAY-10
  6
CONTINUOUS
 62
     7
100
AcDbLine
 10
891.5999999999544
 20
642.7545967956517
 30
0.0
 11
891.5999999999538
 21
616.7545967956646
 31
0.0
  0
LINE
  5
267
330
1F
100
AcDbEntity
  8
LAY-10
  6
CONTINUOUS
 62
     7
100
AcDbLine
 10
886.5999999999926
 20
642.7545967956526
 30
0.0
 11
886.5999999999914
 21
616.754596795665
 31
0.0
  0
LINE
  5
268
330
1F
100
AcDbEntity
  8
LAY-10
  6
CONTINUOUS
 62
     7
100
AcDbLine
 10
880.5999999999927
 20
642.7545967956526
 30
0.0
 11
880.5999999999927
 21
616.754596795665
 31
0.0
  0
LINE
  5
269
330
1F
100
AcDbEntity
  8
LAY-10
  6
CONTINUOUS
 62
     7
100
AcDbLine
 10
875.600000000031
 20
642.7545967956522
 30
0.0
 11
875.6000000000306
 21
616.754596795665
 31
0.0
  0
LINE
  5
26A
330
1F
100
AcDbEntity
  8
LAY-10
  6
CONTINUOUS
 62
     7
100
AcDbLine
 10
869.6000000000331
 20
642.7545967956529
 30
0.0
 11
869.6000000000331
 21
616.7545967956653
 31
0.0
  0
LINE
  5
26B
330
1F
100
AcDbEntity
  8
LAY-10
  6
CONTINUOUS
 62
     7
100
AcDbLine
 10
864.6000000000261
 20
642.7545967956526
 30
0.0
 11
864.6000000000261
 21
616.754596795665
 31
0.0
  0
LINE
  5
26C
330
1F
100
AcDbEntity
  8
LAY-10
  6
CONTINUOUS
 62
     7
100
AcDbLine
 10
857.6000000000228
 20
642.7545967956522
 30
0.0
 11
857.6000000000224
 21
616.754596795665
 31
0.0
  0
LINE
  5
26D
330
1F
100
AcDbEntity
  8
LAY-10
  6
CONTINUOUS
 62
     7
100
AcDbLine
 10
851.8500000000134
 20
642.7545967956522
 30
0.0
 11
851.8500000000133
 21
635.7545967956592
 31
0.0
  0
LINE
  5
26E
330
1F
100
AcDbEntity
  8
LAY-10
  6
CONTINUOUS
 62
     7
100
AcDbLine
 10
851.8500000000128
 20
642.7545967956529
 30
0.0
 11
915.3499999999952
 21
642.7545967956529
 31
0.0
  0
LINE
  5
26F
330
1F
100
AcDbEntity
  8
LAY-10
  6
CONTINUOUS
 62
     7
100
AcDbLine
 10
851.8500000000131
 20
616.754596795665
 30
0.0
 11
915.3499999999952
 21
616.7545967956653
 31
0.0
  0
LINE
  5
270
330
1F
100
AcDbEntity
  8
LAY-10
  6
CONTINUOUS
 62
     7
100
AcDbLine
 10
914.3499999999951
 20
623.7545967956592
 30
0.0
 11
914.3499999999951
 21
635.7545967956592
 31
0.0
  0
LINE
  5
271
330
1F
100
AcDbEntity
  8
LAY-10
  6
CONTINUOUS
 62
     7
100
AcDbLine
 10
914.3499999999951
 20
635.7545967956592
 30
0.0
 11
915.3499999999952
 21
635.7545967956592
 31
0.0
  0
LINE
  5
272
330
1F
100
AcDbEntity
  8
LAY-10
  6
CONTINUOUS
 62
     7
100
AcDbLine
 10
914.3499999999951
 20
623.7545967956592
 30
0.0
 11
915.3499999999952
 21
623.7545967956592
 31
0.0
  0
LINE
  5
273
330
1F
100
AcDbEntity
  8
LAY-10
  6
CONTINUOUS
 62
     7
100
AcDbLine
 10
915.3499999999952
 20
623.7545967956592
 30
0.0
 11
915.3499999999952
 21
616.7545967956653
 31
0.0
  0
LINE
  5
274
330
1F
100
AcDbEntity
  8
LAY-10
  6
CONTINUOUS
 62
     7
100
AcDbLine
 10
852.8500000000132
 20
635.7545967956592
 30
0.0
 11
851.8500000000133
 21
635.7545967956592
 31
0.0
  0
LINE
  5
275
330
1F
100
AcDbEntity
  8
LAY-10
  6
CONTINUOUS
 62
     7
100
AcDbLine
 10
852.8500000000132
 20
623.7545967956592
 30
0.0
 11
851.8500000000131
 21
623.7545967956592
 31
0.0
  0
LINE
  5
276
330
1F
100
AcDbEntity
  8
LAY-10
  6
CONTINUOUS
 62
     7
100
AcDbLine
 10
851.8500000000131
 20
623.7545967956592
 30
0.0
 11
851.8500000000131
 21
616.754596795665
 31
0.0
  0
LINE
  5
277
330
1F
100
AcDbEntity
  8
LAY-10
  6
CONTINUOUS
 62
     7
100
AcDbLine
 10
852.8500000000132
 20
623.7545967956592
 30
0.0
 11
852.8500000000132
 21
635.7545967956592
 31
0.0
  0
LINE
  5
278
330
1F
100
AcDbEntity
  8
LAY-10
  6
CONTINUOUS
 62
     7
100
AcDbLine
 10
857.8500000001048
 20
616.754596795665
 30
0.0
 11
857.8500000001048
 21
642.7545967956529
 31
0.0
  0
LINE
  5
279
330
1F
100
AcDbEntity
  8
LAY-10
  6
CONTINUOUS
 62
     7
100
AcDbLine
 10
864.3500000001204
 20
616.754596795665
 30
0.0
 11
864.3500000001204
 21
642.7545967956529
 31
0.0
  0
LINE
  5
27A
330
1F
100
AcDbEntity
  8
LAY-10
  6
CONTINUOUS
 62
     7
100
AcDbLine
 10
869.8500000000765
 20
616.7545967956651
 30
0.0
 11
869.8500000000765
 21
642.7545967956529
 31
0.0
  0
LINE
  5
27B
330
1F
100
AcDbEntity
  8
LAY-10
  6
CONTINUOUS
 62
     7
100
AcDbLine
 10
875.350000000077
 20
616.7545967956651
 30
0.0
 11
875.350000000077
 21
642.7545967956529
 31
0.0
  0
LINE
  5
27C
330
1F
100
AcDbEntity
  8
LAY-10
  6
CONTINUOUS
 62
     7
100
AcDbLine
 10
880.849999999999
 20
616.7545967956651
 30
0.0
 11
880.849999999999
 21
642.7545967956529
 31
0.0
  0
LINE
  5
27D
330
1F
100
AcDbEntity
  8
LAY-10
  6
CONTINUOUS
 62
     7
100
AcDbLine
 10
886.350000000009
 20
616.7545967956652
 30
0.0
 11
886.350000000009
 21
642.7545967956529
 31
0.0
  0
LINE
  5
27E
330
1F
100
AcDbEntity
  8
LAY-10
  6
CONTINUOUS
 62
     7
100
AcDbLine
 10
891.849999999931
 20
616.7545967956652
 30
0.0
 11
891.849999999931
 21
642.7545967956529
 31
0.0
  0
LINE
  5
27F
330
1F
100
AcDbEntity
  8
LAY-10
  6
CONTINUOUS
 62
     7
100
AcDbLine
 10
897.3499999999315
 20
616.7545967956652
 30
0.0
 11
897.3499999999315
 21
642.7545967956529
 31
0.0
  0
LINE
  5
280
330
1F
100
AcDbEntity
  8
LAY-10
  6
CONTINUOUS
 62
     7
100
AcDbLine
 10
902.8499999998876
 20
616.7545967956653
 30
0.0
 11
902.8499999998876
 21
642.7545967956529
 31
0.0
  0
LINE
  5
281
330
1F
100
AcDbEntity
  8
LAY-10
  6
CONTINUOUS
 62
     7
100
AcDbLine
 10
909.3499999999032
 20
616.7545967956653
 30
0.0
 11
909.3499999999032
 21
642.7545967956529
 31
0.0
  0
TEXT
  5
282
330
1F
100
AcDbEntity
  8
LAY-10
  6
CONTINUOUS
 62
     7
100
AcDbText
 10
845.125440000004
 20
544.0312995999999
 30
0.0
 40
9.3543312
  1
   Ｎｏ.３
 41
0.8671145454545455
  7
EXCADSTD
100
AcDbText
  0
TEXT
  5
283
330
1F
100
AcDbEntity
  8
LAY-10
  6
CONTINUOUS
 62
     7
100
AcDbText
 10
844.275000000004
 20
532.0312995999999
 30
0.0
 40
9.3543312
  1
把手カバ－（小）
 41
1.12
  7
EXCADSTD
100
AcDbText
  0
LINE
  5
284
330
1F
100
AcDbEntity
  8
LAY-10
  6
CONTINUOUS
 62
     7
100
AcDbLine
 10
384.0000000000412
 20
605.0000000000705
 30
0.0
 11
384.0000000000402
 21
567.0000000000689
 31
0.0
  0
LINE
  5
285
330
1F
100
AcDbEntity
  8
LAY-10
  6
CONTINUOUS
 62
     7
100
AcDbLine
 10
384.0000000000402
 20
567.0000000000689
 30
0.0
 11
460.0000000000393
 21
567.0000000000693
 31
0.0
  0
LINE
  5
286
330
1F
100
AcDbEntity
  8
LAY-10
  6
CONTINUOUS
 62
     7
100
AcDbLine
 10
460.0000000000389
 20
605.00000000007
 30
0.0
 11
384.0000000000412
 21
605.0000000000705
 31
0.0
  0
LINE
  5
287
330
1F
100
AcDbEntity
  8
LAY-10
  6
CONTINUOUS
 62
     7
100
AcDbLine
 10
389.0000000000712
 20
572.0000000000698
 30
0.0
 11
455.0000000000698
 21
572.00000000007
 31
0.0
  0
LINE
  5
288
330
1F
100
AcDbEntity
  8
LAY-10
  6
CONTINUOUS
 62
     7
100
AcDbLine
 10
389.0000000000708
 20
600.0000000000703
 30
0.0
 11
455.0000000000694
 21
600.00000000007
 31
0.0
  0
LINE
  5
289
330
1F
100
AcDbEntity
  8
LAY-10
  6
CONTINUOUS
 62
     7
100
AcDbLine
 10
389.0000000000712
 20
572.0000000000698
 30
0.0
 11
389.0000000000708
 21
600.0000000000703
 31
0.0
  0
LINE
  5
28A
330
1F
100
AcDbEntity
  8
LAY-10
  6
CONTINUOUS
 62
     7
100
AcDbLine
 10
394.0000000000726
 20
572.0000000000693
 30
0.0
 11
394.0000000000726
 21
600.00000000007
 31
0.0
  0
LINE
  5
28B
330
1F
100
AcDbEntity
  8
LAY-10
  6
CONTINUOUS
 62
     7
100
AcDbLine
 10
417.0000000000708
 20
600.0000000000703
 30
0.0
 11
417.0000000000708
 21
572.0000000000696
 31
0.0
  0
LINE
  5
28C
330
1F
100
AcDbEntity
  8
LAY-10
  6
CONTINUOUS
 62
     7
100
AcDbLine
 10
427.0000000000699
 20
572.0000000000698
 30
0.0
 11
427.0000000000703
 21
600.0000000000703
 31
0.0
  0
LINE
  5
28D
330
1F
100
AcDbEntity
  8
LAY-10
  6
CONTINUOUS
 62
     7
100
AcDbLine
 10
413.3397459622049
 20
607.0000000001439
 30
0.0
 11
414.4944465006268
 21
605.0000000000703
 31
0.0
  0
LINE
  5
28E
330
1F
100
AcDbEntity
  8
LAY-10
  6
CONTINUOUS
 62
     7
100
AcDbLine
 10
401.2153903092229
 20
628.0000000001432
 30
0.0
 11
409.8756443470673
 21
613.0000000001437
 31
0.0
  0
LINE
  5
28F
330
1F
100
AcDbEntity
  8
LAY-10
  6
CONTINUOUS
 62
     7
100
AcDbLine
 10
422.0000000000499
 20
622.0000000001442
 30
0.0
 11
413.3397459622049
 21
607.0000000001439
 31
0.0
  0
LINE
  5
290
330
1F
100
AcDbEntity
  8
LAY-10
  6
CONTINUOUS
 62
     7
100
AcDbLine
 10
382.1628314259659
 20
523.0000000001453
 30
0.0
 11
373.5025773881205
 21
508.0000000001435
 31
0.0
  0
LINE
  5
291
330
1F
100
AcDbEntity
  8
LAY-10
  6
CONTINUOUS
 62
     7
100
AcDbLine
 10
367.4811974631246
 20
518.4293359619116
 30
0.0
 11
373.5025773881205
 21
508.0000000001437
 31
0.0
  0
LINE
  5
292
330
1F
100
AcDbEntity
  8
LAY-10
  6
CONTINUOUS
 62
     7
100
AcDbLine
 10
397.7512886940852
 20
664.0000000001442
 30
0.0
 11
399.6411253461972
 21
660.7267069006793
 31
0.0
  0
LINE
  5
293
330
1F
100
AcDbEntity
  8
LAY-10
  6
CONTINUOUS
 62
     7
100
AcDbLine
 10
397.7512886940852
 20
664.0000000001444
 30
0.0
 11
394.9583473616688
 21
659.1624837098375
 31
0.0
  0
LINE
  5
294
330
1F
100
AcDbEntity
  8
LAY-10
  6
CONTINUOUS
 62
     7
100
AcDbLine
 10
446.2487113060145
 20
664.0000000001439
 30
0.0
 11
449.0416526384595
 21
659.16248370979
 31
0.0
  0
LINE
  5
295
330
1F
100
AcDbEntity
  8
LAY-10
  6
CONTINUOUS
 62
     7
100
AcDbLine
 10
446.2487113060145
 20
664.0000000001439
 30
0.0
 11
444.3588746538871
 21
660.7267069006539
 31
0.0
  0
LINE
  5
296
330
1F
100
AcDbEntity
  8
LAY-10
  6
CONTINUOUS
 62
     7
100
AcDbLine
 10
442.7846096908768
 20
670.0000000001439
 30
0.0
 11
438.3233409397187
 21
662.2728558569186
 31
0.0
  0
LINE
  5
297
330
1F
100
AcDbEntity
  8
LAY-10
  6
CONTINUOUS
 62
     7
100
AcDbLine
 10
425.4641016151879
 20
670.0000000001439
 30
0.0
 11
429.1160022980296
 21
663.6747224732674
 31
0.0
  0
LINE
  5
298
330
1F
100
AcDbEntity
  8
LAY-10
  6
CONTINUOUS
 62
     7
100
AcDbLine
 10
418.5358983849117
 20
670.0000000001437
 30
0.0
 11
414.883997702076
 21
663.6747224732769
 31
0.0
  0
LINE
  5
299
330
1F
100
AcDbEntity
  8
LAY-10
  6
CONTINUOUS
 62
     7
100
AcDbLine
 10
401.2153903092229
 20
670.0000000001439
 30
0.0
 11
405.6766590603704
 21
662.2728558569377
 31
0.0
  0
LINE
  5
29A
330
1F
100
AcDbEntity
  8
LAY-10
  6
CONTINUOUS
 62
     7
100
AcDbLine
 10
394.2871870789475
 20
670.0000000001439
 30
0.0
 11
385.6269330411026
 21
655.0000000001431
 31
0.0
  0
LINE
  5
29B
330
1F
100
AcDbEntity
  8
LAY-10
  6
CONTINUOUS
 62
     7
100
AcDbLine
 10
376.9666790032578
 20
670.0000000001432
 30
0.0
 11
385.6269330411026
 21
655.0000000001431
 31
0.0
  0
LINE
  5
29C
330
1F
100
AcDbEntity
  8
LAY-10
  6
CONTINUOUS
 62
     7
100
AcDbLine
 10
373.502577388121
 20
664.0000000001442
 30
0.0
 11
380.4307806184318
 21
652.0000000000837
 31
0.0
  0
LINE
  5
29D
330
1F
100
AcDbEntity
  8
LAY-10
  6
CONTINUOUS
 62
     7
100
AcDbLine
 10
382.1628314259254
 20
649.0000000000746
 30
0.0
 11
373.5025773881205
 21
634.0000000001439
 31
0.0
  0
LINE
  5
29E
330
1F
100
AcDbEntity
  8
LAY-10
  6
CONTINUOUS
 62
     7
100
AcDbLine
 10
380.4307806183727
 20
652.0000000000464
 30
0.0
 11
393.4452290838377
 21
629.458314025375
 31
0.0
  0
LINE
  5
29F
330
1F
100
AcDbEntity
  8
LAY-10
  6
CONTINUOUS
 62
     7
100
AcDbLine
 10
397.7512886940856
 20
622.0000000001442
 30
0.0
 11
406.4115427319301
 21
607.0000000001448
 31
0.0
  0
LINE
  5
2A0
330
1F
100
AcDbEntity
  8
LAY-10
  6
CONTINUOUS
 62
     7
100
AcDbLine
 10
393.4452290838956
 20
629.4583140254131
 30
0.0
 11
394.2871870789475
 21
628.0000000001446
 31
0.0
  0
LINE
  5
2A1
330
1F
100
AcDbEntity
  8
LAY-10
  6
CONTINUOUS
 62
     7
100
AcDbLine
 10
394.2871870789475
 20
628.0000000001446
 30
0.0
 11
385.6269330411026
 21
613.0000000001444
 31
0.0
  0
LINE
  5
2A2
330
1F
100
AcDbEntity
  8
LAY-10
  6
CONTINUOUS
 62
     7
100
AcDbLine
 10
385.6269330410631
 20
643.0000000000753
 30
0.0
 11
376.9666790032582
 21
628.0000000001444
 31
0.0
  0
LINE
  5
2A3
330
1F
100
AcDbEntity
  8
LAY-10
  6
CONTINUOUS
 62
     7
100
AcDbLine
 10
405.4223927743076
 20
635.2867420172365
 30
0.0
 11
401.2153903092229
 21
628.0000000001432
 31
0.0
  0
LINE
  5
2A4
330
1F
100
AcDbEntity
  8
LAY-10
  6
CONTINUOUS
 62
     7
100
AcDbLine
 10
413.1958354329243
 20
637.2492603486032
 30
0.0
 11
418.5358983849121
 21
628.0000000001439
 31
0.0
  0
LINE
  5
2A5
330
1F
100
AcDbEntity
  8
LAY-10
  6
CONTINUOUS
 62
     7
100
AcDbLine
 10
419.7194845015977
 20
637.9499687109113
 30
0.0
 11
422.0000000000499
 21
634.0000000001439
 31
0.0
  0
LINE
  5
2A6
330
1F
100
AcDbEntity
  8
LAY-10
  6
CONTINUOUS
 62
     7
100
AcDbLine
 10
424.2805154984994
 20
637.949968710907
 30
0.0
 11
422.0000000000499
 21
634.0000000001439
 31
0.0
  0
LINE
  5
2A7
330
1F
100
AcDbEntity
  8
LAY-10
  6
CONTINUOUS
 62
     7
100
AcDbLine
 10
430.8041645671667
 20
637.2492603485875
 30
0.0
 11
425.4641016151875
 21
628.0000000001439
 31
0.0
  0
ARC
  5
2A8
330
1F
100
AcDbEntity
  8
LAY-10
  6
CONTINUOUS
 62
     7
100
AcDbCircle
 10
421.9999999999998
 20
586.00000000003
 30
0.0
 40
52.00000000000003
100
AcDbArc
 50
56.6926378203252
 51
123.3073621796366
  0
LINE
  5
2A9
330
1F
100
AcDbEntity
  8
LAY-10
  6
CONTINUOUS
 62
     7
100
AcDbLine
 10
438.5776072258172
 20
635.2867420171945
 30
0.0
 11
442.7846096908768
 21
628.0000000001432
 31
0.0
  0
LINE
  5
2AA
330
1F
100
AcDbEntity
  8
LAY-10
  6
CONTINUOUS
 62
     7
100
AcDbLine
 10
449.7128129211624
 20
628.0000000001276
 30
0.0
 11
458.373066958997
 21
613.0000000001444
 31
0.0
  0
LINE
  5
2AB
330
1F
100
AcDbEntity
  8
LAY-10
  6
CONTINUOUS
 62
     7
100
AcDbLine
 10
449.7128129211624
 20
628.0000000001276
 30
0.0
 11
463.5692193816561
 21
652.000000000028
 31
0.0
  0
LINE
  5
2AC
330
1F
100
AcDbEntity
  8
LAY-10
  6
CONTINUOUS
 62
     7
100
AcDbLine
 10
461.8371685741448
 20
649.0000000001276
 30
0.0
 11
470.4974226119792
 21
634.0000000001442
 31
0.0
  0
LINE
  5
2AD
330
1F
100
AcDbEntity
  8
LAY-10
  6
CONTINUOUS
 62
     7
100
AcDbLine
 10
470.4974226119792
 20
664.0000000001439
 30
0.0
 11
463.569219381642
 21
652.0000000000371
 31
0.0
  0
LINE
  5
2AE
330
1F
100
AcDbEntity
  8
LAY-10
  6
CONTINUOUS
 62
     7
100
AcDbLine
 10
467.0333209968414
 20
670.0000000001435
 30
0.0
 11
458.3730669589973
 21
655.0000000001432
 31
0.0
  0
LINE
  5
2AF
330
1F
100
AcDbEntity
  8
LAY-10
  6
CONTINUOUS
 62
     7
100
AcDbLine
 10
449.7128129211522
 20
670.0000000001442
 30
0.0
 11
458.3730669591135
 21
654.9999999999418
 31
0.0
  0
ARC
  5
2B0
330
1F
100
AcDbEntity
  8
LAY-10
  6
CONTINUOUS
 62
     7
100
AcDbCircle
 10
421.9999999999998
 20
586.00000000003
 30
0.0
 40
78.00000000000007
100
AcDbArc
 50
57.79577249602519
 51
122.2042275039494
  0
LINE
  5
2B1
330
1F
100
AcDbEntity
  8
LAY-10
  6
CONTINUOUS
 62
     7
100
AcDbLine
 10
384.5000000000264
 20
650.9519052838782
 30
0.0
 11
394.5000000000367
 21
633.6313972081723
 31
0.0
  0
ARC
  5
2B2
330
1F
100
AcDbEntity
  8
LAY-10
  6
CONTINUOUS
 62
     7
100
AcDbCircle
 10
421.9999999999998
 20
586.00000000003
 30
0.0
 40
55.00000000000003
100
AcDbArc
 50
59.99999999999618
 51
119.9999999999679
  0
LINE
  5
2B3
330
1F
100
AcDbEntity
  8
LAY-10
  6
CONTINUOUS
 62
     7
100
AcDbLine
 10
459.500000000003
 20
650.9519052838609
 30
0.0
 11
449.500000000003
 21
633.6313972081723
 31
0.0
  0
ARC
  5
2B4
330
1F
100
AcDbEntity
  8
LAY-10
  6
CONTINUOUS
 62
     7
100
AcDbCircle
 10
421.9999999999998
 20
586.00000000003
 30
0.0
 40
75.00000000000007
100
AcDbArc
 50
59.99999999999623
 51
119.9999999999679
  0
LINE
  5
2B5
330
1F
100
AcDbEntity
  8
LAY-10
  6
CONTINUOUS
 62
     7
100
AcDbLine
 10
454.9089653438589
 20
565.0000000001453
 30
0.0
 11
446.248711306014
 21
550.0000000001444
 31
0.0
  0
LINE
  5
2B6
330
1F
100
AcDbEntity
  8
LAY-10
  6
CONTINUOUS
 62
     7
100
AcDbLine
 10
434.1243556530324
 20
559.0000000001446
 30
0.0
 11
442.7846096908768
 21
544.0000000001448
 31
0.0
  0
LINE
  5
2B7
330
1F
100
AcDbEntity
  8
LAY-10
  6
CONTINUOUS
 62
     7
100
AcDbLine
 10
429.5055534995589
 20
567.0000000000691
 30
0.0
 11
430.6602540378943
 21
565.0000000001451
 31
0.0
  0
LINE
  5
2B8
330
1F
100
AcDbEntity
  8
LAY-10
  6
CONTINUOUS
 62
     7
100
AcDbLine
 10
430.6602540378943
 20
565.0000000001451
 30
0.0
 11
422.0000000000499
 21
550.0000000001444
 31
0.0
  0
LINE
  5
2B9
330
1F
100
AcDbEntity
  8
LAY-10
  6
CONTINUOUS
 62
     7
100
AcDbLine
 10
434.1243556530324
 20
559.0000000001446
 30
0.0
 11
425.4641016151875
 21
544.0000000001442
 31
0.0
  0
LINE
  5
2BA
330
1F
100
AcDbEntity
  8
LAY-10
  6
CONTINUOUS
 62
     7
100
AcDbLine
 10
438.743157806506
 20
567.0000000000691
 30
0.0
 11
437.5884572681696
 21
565.0000000001437
 31
0.0
  0
LINE
  5
2BB
330
1F
100
AcDbEntity
  8
LAY-10
  6
CONTINUOUS
 62
     7
100
AcDbLine
 10
437.5884572681696
 20
565.0000000001439
 30
0.0
 11
446.248711306014
 21
550.0000000001444
 31
0.0
  0
LINE
  5
2BC
330
1F
100
AcDbEntity
  8
LAY-10
  6
CONTINUOUS
 62
     7
100
AcDbLine
 10
409.8756443470673
 20
559.0000000001444
 30
0.0
 11
401.2153903092229
 21
544.0000000001448
 31
0.0
  0
LINE
  5
2BD
330
1F
100
AcDbEntity
  8
LAY-10
  6
CONTINUOUS
 62
     7
100
AcDbLine
 10
414.4944465005408
 20
567.0000000000691
 30
0.0
 11
413.3397459622049
 21
565.0000000001444
 31
0.0
  0
LINE
  5
2BE
330
1F
100
AcDbEntity
  8
LAY-10
  6
CONTINUOUS
 62
     7
100
AcDbLine
 10
413.3397459622049
 20
565.0000000001446
 30
0.0
 11
422.0000000000499
 21
550.0000000001442
 31
0.0
  0
LINE
  5
2BF
330
1F
100
AcDbEntity
  8
LAY-10
  6
CONTINUOUS
 62
     7
100
AcDbLine
 10
409.8756443470673
 20
559.0000000001444
 30
0.0
 11
418.5358983849121
 21
544.0000000001442
 31
0.0
  0
LINE
  5
2C0
330
1F
100
AcDbEntity
  8
LAY-10
  6
CONTINUOUS
 62
     7
100
AcDbLine
 10
405.2568421935937
 20
567.0000000000689
 30
0.0
 11
406.4115427319296
 21
565.0000000001442
 31
0.0
  0
LINE
  5
2C1
330
1F
100
AcDbEntity
  8
LAY-10
  6
CONTINUOUS
 62
     7
100
AcDbLine
 10
406.4115427319296
 20
565.0000000001442
 30
0.0
 11
397.7512886940856
 21
550.0000000001444
 31
0.0
  0
LINE
  5
2C2
330
1F
100
AcDbEntity
  8
LAY-10
  6
CONTINUOUS
 62
     7
100
AcDbLine
 10
385.6269330411026
 20
559.0000000001442
 30
0.0
 11
376.9666790032578
 21
544.0000000001439
 31
0.0
  0
LINE
  5
2C3
330
1F
100
AcDbEntity
  8
LAY-10
  6
CONTINUOUS
 62
     7
100
AcDbLine
 10
390.2457351945762
 20
567.0000000000689
 30
0.0
 11
389.0910346562408
 21
565.0000000001448
 31
0.0
  0
LINE
  5
2C4
330
1F
100
AcDbEntity
  8
LAY-10
  6
CONTINUOUS
 62
     7
100
AcDbLine
 10
389.0910346562408
 20
565.0000000001448
 30
0.0
 11
397.7512886940856
 21
550.0000000001444
 31
0.0
  0
LINE
  5
2C5
330
1F
100
AcDbEntity
  8
LAY-10
  6
CONTINUOUS
 62
     7
100
AcDbLine
 10
397.7512886940856
 20
622.0000000001442
 30
0.0
 11
389.0910346562408
 21
607.0000000001439
 31
0.0
  0
LINE
  5
2C6
330
1F
100
AcDbEntity
  8
LAY-10
  6
CONTINUOUS
 62
     7
100
AcDbLine
 10
389.0910346562408
 20
607.0000000001437
 30
0.0
 11
390.2457351946621
 21
605.0000000000705
 31
0.0
  0
LINE
  5
2C7
330
1F
100
AcDbEntity
  8
LAY-10
  6
CONTINUOUS
 62
     7
100
AcDbLine
 10
376.9666790032582
 20
628.0000000001444
 30
0.0
 11
385.6269330411026
 21
613.0000000001442
 31
0.0
  0
LINE
  5
2C8
330
1F
100
AcDbEntity
  8
LAY-10
  6
CONTINUOUS
 62
     7
100
AcDbLine
 10
406.4115427319301
 20
607.0000000001448
 30
0.0
 11
405.2568421935077
 21
605.0000000000703
 31
0.0
  0
LINE
  5
2C9
330
1F
100
AcDbEntity
  8
LAY-10
  6
CONTINUOUS
 62
     7
100
AcDbLine
 10
418.5358983849121
 20
628.0000000001442
 30
0.0
 11
409.8756443470673
 21
613.0000000001437
 31
0.0
  0
LINE
  5
2CA
330
1F
100
AcDbEntity
  8
LAY-10
  6
CONTINUOUS
 62
     7
100
AcDbLine
 10
422.0000000000499
 20
622.0000000001442
 30
0.0
 11
430.6602540378947
 21
607.0000000001439
 31
0.0
  0
LINE
  5
2CB
330
1F
100
AcDbEntity
  8
LAY-10
  6
CONTINUOUS
 62
     7
100
AcDbLine
 10
446.2487113060145
 20
622.0000000001439
 30
0.0
 11
437.5884572681701
 21
607.0000000001444
 31
0.0
  0
LINE
  5
2CC
330
1F
100
AcDbEntity
  8
LAY-10
  6
CONTINUOUS
 62
     7
100
AcDbLine
 10
430.6602540378947
 20
607.0000000001439
 30
0.0
 11
429.5055534994729
 21
605.0000000000703
 31
0.0
  0
LINE
  5
2CD
330
1F
100
AcDbEntity
  8
LAY-10
  6
CONTINUOUS
 62
     7
100
AcDbLine
 10
442.7846096908768
 20
628.0000000001435
 30
0.0
 11
434.1243556530324
 21
613.0000000001437
 31
0.0
  0
LINE
  5
2CE
330
1F
100
AcDbEntity
  8
LAY-10
  6
CONTINUOUS
 62
     7
100
AcDbLine
 10
437.5884572681701
 20
607.0000000001442
 30
0.0
 11
438.7431578065919
 21
605.00000000007
 31
0.0
  0
LINE
  5
2CF
330
1F
100
AcDbEntity
  8
LAY-10
  6
CONTINUOUS
 62
     7
100
AcDbLine
 10
425.4641016151875
 20
628.0000000001439
 30
0.0
 11
434.1243556530324
 21
613.0000000001435
 31
0.0
  0
LINE
  5
2D0
330
1F
100
AcDbEntity
  8
LAY-10
  6
CONTINUOUS
 62
     7
100
AcDbLine
 10
446.2487113060145
 20
622.0000000001437
 30
0.0
 11
454.9089653438589
 21
607.0000000001432
 31
0.0
  0
LINE
  5
2D1
330
1F
100
AcDbEntity
  8
LAY-10
  6
CONTINUOUS
 62
     7
100
AcDbLine
 10
384.0000000000412
 20
598.1820693125126
 30
0.0
 11
376.9666790032587
 21
586.0000000001442
 31
0.0
  0
LINE
  5
2D2
330
1F
100
AcDbEntity
  8
LAY-10
  6
CONTINUOUS
 62
     7
100
AcDbLine
 10
376.9666790032587
 20
586.0000000001442
 30
0.0
 11
384.0000000000402
 21
573.8179306877778
 31
0.0
  0
LINE
  5
2D3
330
1F
100
AcDbEntity
  8
LAY-10
  6
CONTINUOUS
 62
     7
100
AcDbLine
 10
448.7232843900418
 20
680.2860863087215
 30
0.0
 11
446.2487113060145
 21
676.0000000001439
 31
0.0
  0
LINE
  5
2D4
330
1F
100
AcDbEntity
  8
LAY-10
  6
CONTINUOUS
 62
     7
100
AcDbLine
 10
442.9361360973533
 20
681.7375485654384
 30
0.0
 11
446.2487113060145
 21
676.0000000001439
 31
0.0
  0
LINE
  5
2D5
330
1F
100
AcDbEntity
  8
LAY-10
  6
CONTINUOUS
 62
     7
100
AcDbLine
 10
454.5779210470398
 20
678.4266144584972
 30
0.0
 11
449.7128129211522
 21
670.0000000001439
 31
0.0
  0
LINE
  5
2D6
330
1F
100
AcDbEntity
  8
LAY-10
  6
CONTINUOUS
 62
     7
100
AcDbLine
 10
435.2187829715693
 20
683.1043962792464
 30
0.0
 11
442.7846096908768
 21
670.0000000001437
 31
0.0
  0
LINE
  5
2D7
330
1F
100
AcDbEntity
  8
LAY-10
  6
CONTINUOUS
 62
     7
100
AcDbLine
 10
373.502577388121
 20
538.0000000001455
 30
0.0
 11
366.1106725320208
 21
525.1968452246654
 31
0.0
  0
LINE
  5
2D8
330
1F
100
AcDbEntity
  8
LAY-10
  6
CONTINUOUS
 62
     7
100
AcDbLine
 10
373.502577388121
 20
538.0000000001455
 30
0.0
 11
382.1628314259659
 21
523.0000000001451
 31
0.0
  0
LINE
  5
2D9
330
1F
100
AcDbEntity
  8
LAY-10
  6
CONTINUOUS
 62
     7
100
AcDbLine
 10
376.9666790032578
 20
544.0000000001439
 30
0.0
 11
385.6269330411026
 21
529.0000000001435
 31
0.0
  0
LINE
  5
2DA
330
1F
100
AcDbEntity
  8
LAY-10
  6
CONTINUOUS
 62
     7
100
AcDbLine
 10
366.1106725320845
 20
646.8031547755133
 30
0.0
 11
373.5025773881205
 21
634.0000000001439
 31
0.0
  0
LINE
  5
2DB
330
1F
100
AcDbEntity
  8
LAY-10
  6
CONTINUOUS
 62
     7
100
AcDbLine
 10
373.502577388121
 20
664.0000000001444
 30
0.0
 11
367.4811974631069
 21
653.5706640383451
 31
0.0
  0
LINE
  5
2DC
330
1F
100
AcDbEntity
  8
LAY-10
  6
CONTINUOUS
 62
     7
100
AcDbLine
 10
379.4336391230307
 20
674.2729002678357
 30
0.0
 11
376.9666790032578
 21
670.000000000143
 31
0.0
  0
LINE
  5
2DD
330
1F
100
AcDbEntity
  8
LAY-10
  6
CONTINUOUS
 62
     7
100
AcDbLine
 10
408.7812170285354
 20
683.1043962792553
 30
0.0
 11
401.2153903092229
 21
670.0000000001439
 31
0.0
  0
LINE
  5
2DE
330
1F
100
AcDbEntity
  8
LAY-10
  6
CONTINUOUS
 62
     7
100
AcDbLine
 10
389.4220789530498
 20
678.4266144585147
 30
0.0
 11
394.2871870789475
 21
670.0000000001439
 31
0.0
  0
LINE
  5
2DF
330
1F
100
AcDbEntity
  8
LAY-10
  6
CONTINUOUS
 62
     7
100
AcDbLine
 10
401.0638639027554
 20
681.7375485654536
 30
0.0
 11
397.7512886940852
 21
676.0000000001437
 31
0.0
  0
LINE
  5
2E0
330
1F
100
AcDbEntity
  8
LAY-10
  6
CONTINUOUS
 62
     7
100
AcDbLine
 10
395.2767156100492
 20
680.286086308736
 30
0.0
 11
397.7512886940852
 21
676.0000000001437
 31
0.0
  0
LINE
  5
2E1
330
1F
100
AcDbEntity
  8
LAY-10
  6
CONTINUOUS
 62
     7
100
AcDbLine
 10
433.177762227045
 20
683.3604520922224
 30
0.0
 11
425.4641016151879
 21
670.0000000001437
 31
0.0
  0
LINE
  5
2E2
330
1F
100
AcDbEntity
  8
LAY-10
  6
CONTINUOUS
 62
     7
100
AcDbLine
 10
410.8222377730511
 20
683.360452092229
 30
0.0
 11
418.5358983849117
 21
670.0000000001437
 31
0.0
  0
LINE
  5
2E3
330
1F
100
AcDbEntity
  8
LAY-10
  6
CONTINUOUS
 62
     7
100
AcDbLine
 10
426.5575829769089
 20
683.8939652757751
 30
0.0
 11
422.0000000000499
 21
676.0000000001444
 31
0.0
  0
LINE
  5
2E4
330
1F
100
AcDbEntity
  8
LAY-10
  6
CONTINUOUS
 62
     7
100
AcDbLine
 10
417.4424170231894
 20
683.8939652757779
 30
0.0
 11
422.0000000000499
 21
676.0000000001444
 31
0.0
  0
LINE
  5
2E5
330
1F
100
AcDbEntity
  8
LAY-10
  6
CONTINUOUS
 62
     7
100
AcDbLine
 10
458.373066958997
 20
559.0000000001442
 30
0.0
 11
449.7128129211522
 21
544.0000000001437
 31
0.0
  0
LINE
  5
2E6
330
1F
100
AcDbEntity
  8
LAY-10
  6
CONTINUOUS
 62
     7
100
AcDbLine
 10
446.248711306015
 20
538.0000000001442
 30
0.0
 11
454.9089653438594
 21
523.0000000001442
 31
0.0
  0
LINE
  5
2E7
330
1F
100
AcDbEntity
  8
LAY-10
  6
CONTINUOUS
 62
     7
100
AcDbLine
 10
446.248711306015
 20
538.0000000001444
 30
0.0
 11
437.5884572681701
 21
523.0000000001442
 31
0.0
  0
LINE
  5
2E8
330
1F
100
AcDbEntity
  8
LAY-10
  6
CONTINUOUS
 62
     7
100
AcDbLine
 10
449.7128129211522
 20
544.0000000001439
 30
0.0
 11
458.373066958997
 21
529.0000000001439
 31
0.0
  0
LINE
  5
2E9
330
1F
100
AcDbEntity
  8
LAY-10
  6
CONTINUOUS
 62
     7
100
AcDbLine
 10
442.7846096908768
 20
544.0000000001448
 30
0.0
 11
434.124355653032
 21
529.0000000001446
 31
0.0
  0
LINE
  5
2EA
330
1F
100
AcDbEntity
  8
LAY-10
  6
CONTINUOUS
 62
     7
100
AcDbLine
 10
422.0000000000499
 20
538.0000000001444
 30
0.0
 11
413.3397459622054
 21
523.0000000001448
 31
0.0
  0
LINE
  5
2EB
330
1F
100
AcDbEntity
  8
LAY-10
  6
CONTINUOUS
 62
     7
100
AcDbLine
 10
422.0000000000499
 20
538.0000000001444
 30
0.0
 11
430.6602540378943
 21
523.0000000001446
 31
0.0
  0
LINE
  5
2EC
330
1F
100
AcDbEntity
  8
LAY-10
  6
CONTINUOUS
 62
     7
100
AcDbLine
 10
418.5358983849121
 20
544.0000000001444
 30
0.0
 11
409.8756443470677
 21
529.0000000001446
 31
0.0
  0
LINE
  5
2ED
330
1F
100
AcDbEntity
  8
LAY-10
  6
CONTINUOUS
 62
     7
100
AcDbLine
 10
425.4641016151875
 20
544.0000000001442
 30
0.0
 11
434.124355653032
 21
529.0000000001446
 31
0.0
  0
LINE
  5
2EE
330
1F
100
AcDbEntity
  8
LAY-10
  6
CONTINUOUS
 62
     7
100
AcDbLine
 10
385.6269330411026
 20
559.0000000001442
 30
0.0
 11
394.2871870789475
 21
544.0000000001437
 31
0.0
  0
LINE
  5
2EF
330
1F
100
AcDbEntity
  8
LAY-10
  6
CONTINUOUS
 62
     7
100
AcDbLine
 10
385.6269330411035
 20
517.000000000146
 30
0.0
 11
381.6242469661009
 21
510.067144351493
 31
0.0
  0
LINE
  5
2F0
330
1F
100
AcDbEntity
  8
LAY-10
  6
CONTINUOUS
 62
     7
100
AcDbLine
 10
397.7512886940847
 20
538.0000000001442
 30
0.0
 11
389.0910346562403
 21
523.0000000001442
 31
0.0
  0
LINE
  5
2F1
330
1F
100
AcDbEntity
  8
LAY-10
  6
CONTINUOUS
 62
     7
100
AcDbLine
 10
385.6269330411035
 20
517.0000000001457
 30
0.0
 11
392.4104208545426
 21
505.2506544547455
 31
0.0
  0
LINE
  5
2F2
330
1F
100
AcDbEntity
  8
LAY-10
  6
CONTINUOUS
 62
     7
100
AcDbLine
 10
394.2871870789475
 20
544.0000000001437
 30
0.0
 11
385.6269330411026
 21
529.0000000001435
 31
0.0
  0
LINE
  5
2F3
330
1F
100
AcDbEntity
  8
LAY-10
  6
CONTINUOUS
 62
     7
100
AcDbLine
 10
389.0910346562403
 20
523.0000000001439
 30
0.0
 11
397.7512886940847
 21
508.0000000001439
 31
0.0
  0
LINE
  5
2F4
330
1F
100
AcDbEntity
  8
LAY-10
  6
CONTINUOUS
 62
     7
100
AcDbLine
 10
397.7512886940847
 20
538.0000000001444
 30
0.0
 11
406.4115427319296
 21
523.0000000001439
 31
0.0
  0
LINE
  5
2F5
330
1F
100
AcDbEntity
  8
LAY-10
  6
CONTINUOUS
 62
     7
100
AcDbLine
 10
401.2153903092229
 20
544.0000000001448
 30
0.0
 11
409.8756443470677
 21
529.0000000001446
 31
0.0
  0
LINE
  5
2F6
330
1F
100
AcDbEntity
  8
LAY-10
  6
CONTINUOUS
 62
     7
100
AcDbLine
 10
406.4115427319296
 20
523.0000000001442
 30
0.0
 11
397.7512886940847
 21
508.0000000001437
 31
0.0
  0
LINE
  5
2F7
330
1F
100
AcDbEntity
  8
LAY-10
  6
CONTINUOUS
 62
     7
100
AcDbLine
 10
409.8756443470673
 20
517.0000000001442
 30
0.0
 11
418.5358983849117
 21
502.0000000001444
 31
0.0
  0
LINE
  5
2F8
330
1F
100
AcDbEntity
  8
LAY-10
  6
CONTINUOUS
 62
     7
100
AcDbLine
 10
409.8756443470673
 20
517.0000000001442
 30
0.0
 11
401.4929640466929
 21
502.4807718162892
 31
0.0
  0
LINE
  5
2F9
330
1F
100
AcDbEntity
  8
LAY-10
  6
CONTINUOUS
 62
     7
100
AcDbLine
 10
413.3397459622054
 20
523.0000000001448
 30
0.0
 11
422.0000000000499
 21
508.0000000001448
 31
0.0
  0
LINE
  5
2FA
330
1F
100
AcDbEntity
  8
LAY-10
  6
CONTINUOUS
 62
     7
100
AcDbLine
 10
434.1243556530324
 20
517.0000000001442
 30
0.0
 11
425.4641016151879
 21
502.0000000001444
 31
0.0
  0
LINE
  5
2FB
330
1F
100
AcDbEntity
  8
LAY-10
  6
CONTINUOUS
 62
     7
100
AcDbLine
 10
418.5358983849117
 20
502.0000000001444
 30
0.0
 11
417.4507164556887
 21
500.1204097632746
 31
0.0
  0
LINE
  5
2FC
330
1F
100
AcDbEntity
  8
LAY-10
  6
CONTINUOUS
 62
     7
100
AcDbLine
 10
430.6602540378943
 20
523.0000000001446
 30
0.0
 11
422.0000000000499
 21
508.0000000001448
 31
0.0
  0
LINE
  5
2FD
330
1F
100
AcDbEntity
  8
LAY-10
  6
CONTINUOUS
 62
     7
100
AcDbLine
 10
425.4641016151879
 20
502.0000000001444
 30
0.0
 11
426.5492835444109
 21
500.1204097632746
 31
0.0
  0
LINE
  5
2FE
330
1F
100
AcDbEntity
  8
LAY-10
  6
CONTINUOUS
 62
     7
100
AcDbLine
 10
434.1243556530324
 20
517.0000000001442
 30
0.0
 11
442.5070359534068
 21
502.4807718162892
 31
0.0
  0
LINE
  5
2FF
330
1F
100
AcDbEntity
  8
LAY-10
  6
CONTINUOUS
 62
     7
100
AcDbLine
 10
437.5884572681701
 20
523.0000000001442
 30
0.0
 11
446.248711306015
 21
508.0000000001439
 31
0.0
  0
LINE
  5
300
330
1F
100
AcDbEntity
  8
LAY-10
  6
CONTINUOUS
 62
     7
100
AcDbLine
 10
454.9089653438594
 20
523.0000000001442
 30
0.0
 11
446.248711306015
 21
508.0000000001442
 31
0.0
  0
LINE
  5
301
330
1F
100
AcDbEntity
  8
LAY-10
  6
CONTINUOUS
 62
     7
100
AcDbLine
 10
470.4974226119792
 20
538.0000000001444
 30
0.0
 11
477.8893274680784
 21
525.1968452246658
 31
0.0
  0
LINE
  5
302
330
1F
100
AcDbEntity
  8
LAY-10
  6
CONTINUOUS
 62
     7
100
AcDbLine
 10
470.4974226119792
 20
538.0000000001442
 30
0.0
 11
461.8371685741348
 21
523.0000000001442
 31
0.0
  0
LINE
  5
303
330
1F
100
AcDbEntity
  8
LAY-10
  6
CONTINUOUS
 62
     7
100
AcDbLine
 10
458.373066958997
 20
517.0000000001444
 30
0.0
 11
462.3757530339988
 21
510.067144351493
 31
0.0
  0
LINE
  5
304
330
1F
100
AcDbEntity
  8
LAY-10
  6
CONTINUOUS
 62
     7
100
AcDbLine
 10
458.373066958997
 20
517.0000000001444
 30
0.0
 11
451.5895791455594
 21
505.2506544547462
 31
0.0
  0
LINE
  5
305
330
1F
100
AcDbEntity
  8
LAY-10
  6
CONTINUOUS
 62
     7
100
AcDbLine
 10
461.8371685741348
 20
523.0000000001442
 30
0.0
 11
470.4974226119796
 21
508.0000000001439
 31
0.0
  0
LINE
  5
306
330
1F
100
AcDbEntity
  8
LAY-10
  6
CONTINUOUS
 62
     7
100
AcDbLine
 10
476.5188025369746
 20
518.4293359619103
 30
0.0
 11
470.4974226119796
 21
508.0000000001439
 31
0.0
  0
LINE
  5
307
330
1F
100
AcDbEntity
  8
LAY-10
  6
CONTINUOUS
 62
     7
100
AcDbLine
 10
477.8893274680152
 20
646.8031547755131
 30
0.0
 11
470.4974226119792
 21
634.0000000001439
 31
0.0
  0
LINE
  5
308
330
1F
100
AcDbEntity
  8
LAY-10
  6
CONTINUOUS
 62
     7
100
AcDbLine
 10
470.4974226119792
 20
664.0000000001439
 30
0.0
 11
476.5188025369928
 21
653.5706640383448
 31
0.0
  0
LINE
  5
309
330
1F
100
AcDbEntity
  8
LAY-10
  6
CONTINUOUS
 62
     7
100
AcDbLine
 10
464.5663608770922
 20
674.2729002677954
 30
0.0
 11
467.0333209968414
 21
670.0000000001435
 31
0.0
  0
LINE
  5
30A
330
1F
100
AcDbEntity
  8
LAY-10
  6
CONTINUOUS
 62
     7
100
AcDbLine
 10
369.2112770079946
 20
668.5672497112273
 30
0.0
 11
364.512002237256
 21
660.4278670495814
 31
0.0
  0
LINE
  5
30B
330
1F
100
AcDbEntity
  8
LAY-10
  6
CONTINUOUS
 62
     7
100
AcDbLine
 10
474.7887229921405
 20
668.5672497111666
 30
0.0
 11
479.4879977628441
 21
660.4278670495817
 31
0.0
  0
LINE
  5
30C
330
1F
100
AcDbEntity
  8
LAY-10
  6
CONTINUOUS
 62
     7
100
AcDbLine
 10
364.5120022373351
 20
511.5721329505689
 30
0.0
 11
369.0665961890662
 21
503.6833448183251
 31
0.0
  0
LINE
  5
30D
330
1F
100
AcDbEntity
  8
LAY-10
  6
CONTINUOUS
 62
     7
100
AcDbLine
 10
479.4879977627641
 20
511.5721329505682
 30
0.0
 11
474.9334038110572
 21
503.6833448183656
 31
0.0
  0
ARC
  5
30E
330
1F
100
AcDbEntity
  8
LAY-10
  6
CONTINUOUS
 62
     7
100
AcDbCircle
 10
377.8710655644848
 20
508.7106919064674
 30
0.0
 40
3.000000000000002
100
AcDbArc
 50
60.27545585389861
 51
151.5631098511461
  0
LINE
  5
30F
330
1F
100
AcDbEntity
  8
LAY-10
  6
CONTINUOUS
 62
     7
100
AcDbLine
 10
372.5258803559389
 20
505.1401738473392
 30
0.0
 11
375.2330390912537
 21
510.1392633350388
 31
0.0
  0
ARC
  5
310
330
1F
100
AcDbEntity
  8
LAY-10
  6
CONTINUOUS
 62
     7
100
AcDbCircle
 10
422.0000000000499
 20
586.00000000003
 30
0.0
 40
86.00000000000007
100
AcDbArc
 50
240.2754558539005
 51
299.7245441460995
  0
ARC
  5
311
330
1F
100
AcDbEntity
  8
LAY-10
  6
CONTINUOUS
 62
     7
100
AcDbCircle
 10
466.1289344356144
 20
508.7106919064674
 30
0.0
 40
3.000000000000002
100
AcDbArc
 50
28.43689014885585
 51
119.7245441461014
  0
LINE
  5
312
330
1F
100
AcDbEntity
  8
LAY-10
  6
CONTINUOUS
 62
     7
100
AcDbLine
 10
471.4741196441449
 20
505.1401738473685
 30
0.0
 11
468.7669609088459
 21
510.1392633350389
 31
0.0
  0
ARC
  5
313
330
1F
100
AcDbEntity
  8
LAY-10
  6
CONTINUOUS
 62
     7
100
AcDbCircle
 10
474.1121461173759
 20
506.5687452759398
 30
0.0
 40
3.000000000000002
100
AcDbArc
 50
208.4368901488539
 51
303.2675187409127
  0
ARC
  5
314
330
1F
100
AcDbEntity
  8
LAY-10
  6
CONTINUOUS
 62
     7
100
AcDbCircle
 10
422.0000000000198
 20
586.00000000003
 30
0.0
 40
98.00000000000006
100
AcDbArc
 50
303.2675187409118
 51
305.9160262758401
  0
ARC
  5
315
330
1F
100
AcDbEntity
  8
LAY-10
  6
CONTINUOUS
 62
     7
100
AcDbCircle
 10
369.8878538827074
 20
506.5687452759107
 30
0.0
 40
3.000000000000002
100
AcDbArc
 50
236.7324812591191
 51
331.5631098511442
  0
ARC
  5
316
330
1F
100
AcDbEntity
  8
LAY-10
  6
CONTINUOUS
 62
     7
100
AcDbCircle
 10
422.0000000000198
 20
586.00000000003
 30
0.0
 40
98.00000000000006
100
AcDbArc
 50
234.0839737241889
 51
236.73248125912
  0
ARC
  5
317
330
1F
100
AcDbEntity
  8
LAY-10
  6
CONTINUOUS
 62
     7
100
AcDbCircle
 10
366.2731034000806
 20
509.0616285892724
 30
0.0
 40
3.000000000000002
100
AcDbArc
 50
135.731455351472
 51
234.0839737241893
  0
ARC
  5
318
330
1F
100
AcDbEntity
  8
LAY-10
  6
CONTINUOUS
 62
     7
100
AcDbCircle
 10
477.7268966000182
 20
509.0616285892722
 30
0.0
 40
3.000000000000002
100
AcDbArc
 50
305.9160262758107
 51
44.26854464852797
  0
ARC
  5
319
330
1F
100
AcDbEntity
  8
LAY-10
  6
CONTINUOUS
 62
     7
100
AcDbCircle
 10
422.0000000000198
 20
586.00000000003
 30
0.0
 40
98.00000000000006
100
AcDbArc
 50
54.08397372417659
 51
125.9160262758108
  0
ARC
  5
31A
330
1F
100
AcDbEntity
  8
LAY-10
  6
CONTINUOUS
 62
     7
100
AcDbCircle
 10
477.7268966000186
 20
662.9383714107878
 30
0.0
 40
3.000000000000002
100
AcDbArc
 50
315.7314553514721
 51
54.08397372418925
  0
ARC
  5
31B
330
1F
100
AcDbEntity
  8
LAY-10
  6
CONTINUOUS
 62
     7
100
AcDbCircle
 10
366.2731034000811
 20
662.9383714107878
 30
0.0
 40
3.000000000000002
100
AcDbArc
 50
125.9160262758108
 51
224.2685446485281
  0
LINE
  5
31C
330
1F
100
AcDbEntity
  8
LAY-10
  6
CONTINUOUS
 62
     7
100
AcDbLine
 10
393.8293993291994
 20
491.6816741657574
 30
0.0
 11
384.6916372168251
 21
489.91424564463
 31
0.0
  0
LINE
  5
31D
330
1F
100
AcDbEntity
  8
LAY-10
  6
CONTINUOUS
 62
     7
100
AcDbLine
 10
384.6916372168323
 20
489.9142456446368
 30
0.0
 11
379.2266502691953
 21
497.4479311744851
 31
0.0
  0
LINE
  5
31E
330
1F
100
AcDbEntity
  8
LAY-10
  6
CONTINUOUS
 62
     7
100
AcDbLine
 10
379.2266502692026
 20
497.4479311744778
 30
0.0
 11
388.3644123816183
 21
499.21535969559
 31
0.0
  0
LINE
  5
31F
330
1F
100
AcDbEntity
  8
LAY-10
  6
CONTINUOUS
 62
     7
100
AcDbLine
 10
388.3644123816183
 20
499.21535969559
 30
0.0
 11
393.8293993291994
 21
491.6816741657574
 31
0.0
  0
ARC
  5
320
330
1F
100
AcDbEntity
  8
LAY-10
  6
CONTINUOUS
 62
     7
100
AcDbCircle
 10
376.0876108505207
 20
494.9173313819981
 30
0.0
 40
3.000000000000002
100
AcDbArc
 50
151.5631098511451
 51
243.2485228913686
  0
ARC
  5
321
330
1F
100
AcDbEntity
  8
LAY-10
  6
CONTINUOUS
 62
     7
100
AcDbCircle
 10
422.0000000000499
 20
586.00000000003
 30
0.0
 40
105.0000000000001
100
AcDbArc
 50
243.2485228913678
 51
296.7514771086319
  0
LINE
  5
322
330
1F
100
AcDbEntity
  8
LAY-10
  6
CONTINUOUS
 62
     7
100
AcDbLine
 10
373.4495843772896
 20
496.3459028105694
 30
0.0
 11
377.2608973985533
 21
503.3839440640754
 31
0.0
  0
ARC
  5
323
330
1F
100
AcDbEntity
  8
LAY-10
  6
CONTINUOUS
 62
     7
100
AcDbCircle
 10
379.8989238717848
 20
501.9553726355041
 30
0.0
 40
3.000000000000002
100
AcDbArc
 50
63.39200912272899
 51
151.5631098511461
  0
ARC
  5
324
330
1F
100
AcDbEntity
  8
LAY-10
  6
CONTINUOUS
 62
     7
100
AcDbCircle
 10
422.0000000000499
 20
586.00000000003
 30
0.0
 40
91.00000000000007
100
AcDbArc
 50
243.3920091227296
 51
296.6079908772703
  0
ARC
  5
325
330
1F
100
AcDbEntity
  8
LAY-10
  6
CONTINUOUS
 62
     7
100
AcDbCircle
 10
467.9123891495786
 20
494.9173313819978
 30
0.0
 40
3.000000000000002
100
AcDbArc
 50
296.7514771086313
 51
28.43689014885488
  0
LINE
  5
326
330
1F
100
AcDbEntity
  8
LAY-10
  6
CONTINUOUS
 62
     7
100
AcDbLine
 10
470.5504156228096
 20
496.3459028105692
 30
0.0
 11
466.739102601546
 21
503.3839440640752
 31
0.0
  0
ARC
  5
327
330
1F
100
AcDbEntity
  8
LAY-10
  6
CONTINUOUS
 62
     7
100
AcDbCircle
 10
464.1010761283149
 20
501.9553726355039
 30
0.0
 40
3.000000000000002
100
AcDbArc
 50
28.43689014885488
 51
116.6079908772706
  0
ARC
  5
328
330
1F
100
AcDbEntity
  8
LAY-10
  6
CONTINUOUS
 62
     7
100
AcDbCircle
 10
467.9123891495786
 20
494.9173313819978
 30
0.0
 40
2.0
100
AcDbArc
 50
296.7514771086336
 51
28.43689014885533
  0
ARC
  5
329
330
1F
100
AcDbEntity
  8
LAY-10
  6
CONTINUOUS
 62
     7
100
AcDbCircle
 10
422.0000000000499
 20
586.00000000003
 30
0.0
 40
104.0000000000001
100
AcDbArc
 50
243.2485228913677
 51
296.7514771086322
  0
LINE
  5
32A
330
1F
100
AcDbEntity
  8
LAY-10
  6
CONTINUOUS
 62
     7
100
AcDbLine
 10
465.8597604438026
 20
502.9077535878848
 30
0.0
 11
469.6710734650662
 21
495.8697123343788
 31
0.0
  0
ARC
  5
32B
330
1F
100
AcDbEntity
  8
LAY-10
  6
CONTINUOUS
 62
     7
100
AcDbCircle
 10
464.1010761283149
 20
501.9553726355039
 30
0.0
 40
2.0
100
AcDbArc
 50
28.43689014885533
 51
116.607990877271
  0
ARC
  5
32C
330
1F
100
AcDbEntity
  8
LAY-10
  6
CONTINUOUS
 62
     7
100
AcDbCircle
 10
422.0000000000499
 20
586.00000000003
 30
0.0
 40
92.00000000000007
100
AcDbArc
 50
243.3920091227296
 51
296.6079908772703
  0
ARC
  5
32D
330
1F
100
AcDbEntity
  8
LAY-10
  6
CONTINUOUS
 62
     7
100
AcDbCircle
 10
376.0876108505207
 20
494.9173313819981
 30
0.0
 40
2.0
100
AcDbArc
 50
151.5631098511463
 51
243.2485228913668
  0
LINE
  5
32E
330
1F
100
AcDbEntity
  8
LAY-10
  6
CONTINUOUS
 62
     7
100
AcDbLine
 10
378.1402395562971
 20
502.907753587885
 30
0.0
 11
374.328926535033
 21
495.8697123343791
 31
0.0
  0
ARC
  5
32F
330
1F
100
AcDbEntity
  8
LAY-10
  6
CONTINUOUS
 62
     7
100
AcDbCircle
 10
379.8989238717848
 20
501.9553726355041
 30
0.0
 40
2.0
100
AcDbArc
 50
63.39200912272899
 51
151.5631098511447
  0
LINE
  5
330
330
1F
100
AcDbEntity
  8
LAY-10
  6
CONTINUOUS
 62
     7
100
AcDbLine
 10
482.6217782649622
 20
601.0000000001444
 30
0.0
 11
473.9615242271173
 21
586.0000000001442
 31
0.0
  0
LINE
  5
331
330
1F
100
AcDbEntity
  8
LAY-10
  6
CONTINUOUS
 62
     7
100
AcDbLine
 10
494.7461339179438
 20
622.000000000143
 30
0.0
 11
486.0858798800994
 21
607.0000000001435
 31
0.0
  0
LINE
  5
332
330
1F
100
AcDbEntity
  8
LAY-10
  6
CONTINUOUS
 62
     7
100
AcDbLine
 10
482.6217782649622
 20
601.0000000001442
 30
0.0
 11
491.2820323028066
 21
586.0000000001444
 31
0.0
  0
LINE
  5
333
330
1F
100
AcDbEntity
  8
LAY-10
  6
CONTINUOUS
 62
     7
100
AcDbLine
 10
491.2820323028057
 20
628.0000000001439
 30
0.0
 11
482.6217782649613
 21
613.0000000001444
 31
0.0
  0
LINE
  5
334
330
1F
100
AcDbEntity
  8
LAY-10
  6
CONTINUOUS
 62
     7
100
AcDbLine
 10
486.0858798800994
 20
607.0000000001437
 30
0.0
 11
494.7461339179438
 21
592.0000000001439
 31
0.0
  0
LINE
  5
335
330
1F
100
AcDbEntity
  8
LAY-10
  6
CONTINUOUS
 62
     7
100
AcDbLine
 10
473.9615242271169
 20
628.0000000001444
 30
0.0
 11
482.6217782649613
 21
613.0000000001444
 31
0.0
  0
LINE
  5
336
330
1F
100
AcDbEntity
  8
LAY-10
  6
CONTINUOUS
 62
     7
100
AcDbLine
 10
491.2820323028066
 20
586.0000000001446
 30
0.0
 11
482.6217782649617
 21
571.0000000001442
 31
0.0
  0
LINE
  5
337
330
1F
100
AcDbEntity
  8
LAY-10
  6
CONTINUOUS
 62
     7
100
AcDbLine
 10
503.4063879557883
 20
607.0000000001435
 30
0.0
 11
494.7461339179438
 21
592.0000000001439
 31
0.0
  0
LINE
  5
338
330
1F
100
AcDbEntity
  8
LAY-10
  6
CONTINUOUS
 62
     7
100
AcDbLine
 10
498.2102355330819
 20
586.0000000001437
 30
0.0
 11
506.8704895709263
 21
571.0000000001442
 31
0.0
  0
LINE
  5
339
330
1F
100
AcDbEntity
  8
LAY-10
  6
CONTINUOUS
 62
     7
100
AcDbLine
 10
494.7461339179443
 20
580.0000000001442
 30
0.0
 11
486.0858798800999
 21
565.0000000001444
 31
0.0
  0
LINE
  5
33A
330
1F
100
AcDbEntity
  8
LAY-10
  6
CONTINUOUS
 62
     7
100
AcDbLine
 10
506.8704895709263
 20
601.0000000001437
 30
0.0
 11
498.2102355330819
 21
586.0000000001439
 31
0.0
  0
LINE
  5
33B
330
1F
100
AcDbEntity
  8
LAY-10
  6
CONTINUOUS
 62
     7
100
AcDbLine
 10
494.7461339179443
 20
580.0000000001442
 30
0.0
 11
503.4063879557887
 21
565.0000000001446
 31
0.0
  0
LINE
  5
33C
330
1F
100
AcDbEntity
  8
LAY-10
  6
CONTINUOUS
 62
     7
100
AcDbLine
 10
482.6217782649617
 20
559.0000000001437
 30
0.0
 11
473.9615242271173
 21
544.0000000001442
 31
0.0
  0
LINE
  5
33D
330
1F
100
AcDbEntity
  8
LAY-10
  6
CONTINUOUS
 62
     7
100
AcDbLine
 10
482.6217782649617
 20
559.0000000001437
 30
0.0
 11
491.2820323028061
 21
544.0000000001435
 31
0.0
  0
LINE
  5
33E
330
1F
100
AcDbEntity
  8
LAY-10
  6
CONTINUOUS
 62
     7
100
AcDbLine
 10
486.0858798800999
 20
565.0000000001442
 30
0.0
 11
494.7461339179443
 21
550.0000000001442
 31
0.0
  0
LINE
  5
33F
330
1F
100
AcDbEntity
  8
LAY-10
  6
CONTINUOUS
 62
     7
100
AcDbLine
 10
473.9615242271173
 20
586.0000000001442
 30
0.0
 11
482.6217782649617
 21
571.0000000001444
 31
0.0
  0
LINE
  5
340
330
1F
100
AcDbEntity
  8
LAY-10
  6
CONTINUOUS
 62
     7
100
AcDbLine
 10
473.9615242271173
 20
544.0000000001439
 30
0.0
 11
482.185378837414
 21
529.7558659810506
 31
0.0
  0
LINE
  5
341
330
1F
100
AcDbEntity
  8
LAY-10
  6
CONTINUOUS
 62
     7
100
AcDbLine
 10
491.2820323028061
 20
544.0000000001435
 30
0.0
 11
483.4483226364725
 21
530.4316168463104
 31
0.0
  0
LINE
  5
342
330
1F
100
AcDbEntity
  8
LAY-10
  6
CONTINUOUS
 62
     7
100
AcDbLine
 10
503.4063879557887
 20
565.0000000001444
 30
0.0
 11
494.7461339179443
 21
550.0000000001442
 31
0.0
  0
LINE
  5
343
330
1F
100
AcDbEntity
  8
LAY-10
  6
CONTINUOUS
 62
     7
100
AcDbLine
 10
494.7461339179443
 20
538.0000000001435
 30
0.0
 11
490.8714322560966
 21
531.288819857652
 31
0.0
  0
LINE
  5
344
330
1F
100
AcDbEntity
  8
LAY-10
  6
CONTINUOUS
 62
     7
100
AcDbLine
 10
506.8704895709268
 20
559.0000000001439
 30
0.0
 11
498.2102355330824
 21
544.0000000001439
 31
0.0
  0
LINE
  5
345
330
1F
100
AcDbEntity
  8
LAY-10
  6
CONTINUOUS
 62
     7
100
AcDbLine
 10
494.7461339179443
 20
538.0000000001432
 30
0.0
 11
500.7277437223186
 21
527.6395479079151
 31
0.0
  0
LINE
  5
346
330
1F
100
AcDbEntity
  8
LAY-10
  6
CONTINUOUS
 62
     7
100
AcDbLine
 10
498.2102355330824
 20
544.0000000001439
 30
0.0
 11
504.4998693175947
 21
533.106034724367
 31
0.0
  0
LINE
  5
347
330
1F
100
AcDbEntity
  8
LAY-10
  6
CONTINUOUS
 62
     7
100
AcDbLine
 10
506.8704895709268
 20
559.0000000001442
 30
0.0
 11
512.704265482748
 21
548.8956037208986
 31
0.0
  0
LINE
  5
348
330
1F
100
AcDbEntity
  8
LAY-10
  6
CONTINUOUS
 62
     7
100
AcDbLine
 10
518.9948452239089
 20
580.000000000143
 30
0.0
 11
510.3345911860645
 21
565.0000000001435
 31
0.0
  0
LINE
  5
349
330
1F
100
AcDbEntity
  8
LAY-10
  6
CONTINUOUS
 62
     7
100
AcDbLine
 10
515.5307436087708
 20
586.0000000001439
 30
0.0
 11
506.8704895709263
 21
571.0000000001439
 31
0.0
  0
LINE
  5
34A
330
1F
100
AcDbEntity
  8
LAY-10
  6
CONTINUOUS
 62
     7
100
AcDbLine
 10
510.3345911860645
 20
565.0000000001435
 30
0.0
 11
515.379217202377
 21
556.2624514347067
 31
0.0
  0
LINE
  5
34B
330
1F
100
AcDbEntity
  8
LAY-10
  6
CONTINUOUS
 62
     7
100
AcDbLine
 10
518.9948452239089
 20
580.0000000001432
 30
0.0
 11
519.729754536171
 21
578.7270997323501
 31
0.0
  0
LINE
  5
34C
330
1F
100
AcDbEntity
  8
LAY-10
  6
CONTINUOUS
 62
     7
100
AcDbLine
 10
506.8704895709263
 20
601.0000000001435
 30
0.0
 11
515.5307436087708
 21
586.0000000001439
 31
0.0
  0
LINE
  5
34D
330
1F
100
AcDbEntity
  8
LAY-10
  6
CONTINUOUS
 62
     7
100
AcDbLine
 10
510.3345911860645
 20
607.0000000001448
 30
0.0
 11
518.9948452239089
 21
592.0000000001451
 31
0.0
  0
LINE
  5
34E
330
1F
100
AcDbEntity
  8
LAY-10
  6
CONTINUOUS
 62
     7
100
AcDbLine
 10
519.729754536156
 20
593.2729002679123
 30
0.0
 11
518.9948452239089
 21
592.0000000001448
 31
0.0
  0
LINE
  5
34F
330
1F
100
AcDbEntity
  8
LAY-10
  6
CONTINUOUS
 62
     7
100
AcDbLine
 10
494.7461339179438
 20
622.0000000001432
 30
0.0
 11
503.4063879557883
 21
607.0000000001437
 31
0.0
  0
LINE
  5
350
330
1F
100
AcDbEntity
  8
LAY-10
  6
CONTINUOUS
 62
     7
100
AcDbLine
 10
515.3792172023302
 20
615.7375485655004
 30
0.0
 11
510.3345911860645
 21
607.0000000001446
 31
0.0
  0
LINE
  5
351
330
1F
100
AcDbEntity
  8
LAY-10
  6
CONTINUOUS
 62
     7
100
AcDbLine
 10
512.704265482693
 20
623.1043962792949
 30
0.0
 11
506.8704895709268
 21
613.0000000001446
 31
0.0
  0
LINE
  5
352
330
1F
100
AcDbEntity
  8
LAY-10
  6
CONTINUOUS
 62
     7
100
AcDbLine
 10
498.2102355330824
 20
628.0000000001444
 30
0.0
 11
506.8704895709268
 21
613.0000000001446
 31
0.0
  0
LINE
  5
353
330
1F
100
AcDbEntity
  8
LAY-10
  6
CONTINUOUS
 62
     7
100
AcDbLine
 10
504.4998693175255
 20
638.8939652758013
 30
0.0
 11
498.2102355330824
 21
628.0000000001444
 31
0.0
  0
LINE
  5
354
330
1F
100
AcDbEntity
  8
LAY-10
  6
CONTINUOUS
 62
     7
100
AcDbLine
 10
483.4483226366504
 20
641.568383153668
 30
0.0
 11
491.2820323028057
 21
628.0000000001439
 31
0.0
  0
LINE
  5
355
330
1F
100
AcDbEntity
  8
LAY-10
  6
CONTINUOUS
 62
     7
100
AcDbLine
 10
500.7277437222445
 20
644.3604520922449
 30
0.0
 11
494.7461339179443
 21
634.0000000001451
 31
0.0
  0
LINE
  5
356
330
1F
100
AcDbEntity
  8
LAY-10
  6
CONTINUOUS
 62
     7
100
AcDbLine
 10
490.8714322562149
 20
640.7111801424321
 30
0.0
 11
494.7461339179443
 21
634.0000000001451
 31
0.0
  0
LINE
  5
357
330
1F
100
AcDbEntity
  8
LAY-10
  6
CONTINUOUS
 62
     7
100
AcDbLine
 10
482.1853788373166
 20
642.2441340190694
 30
0.0
 11
473.9615242271169
 21
628.0000000001442
 31
0.0
  0
ARC
  5
358
330
1F
100
AcDbEntity
  8
LAY-10
  6
CONTINUOUS
 62
     7
100
AcDbCircle
 10
422.0000000000198
 20
586.00000000003
 30
0.0
 40
98.00000000000006
100
AcDbArc
 50
324.0839737241844
 51
35.91602627581576
  0
ARC
  5
359
330
1F
100
AcDbEntity
  8
LAY-10
  6
CONTINUOUS
 62
     7
100
AcDbCircle
 10
498.9383714108124
 20
530.2731034000562
 30
0.0
 40
3.000000000000002
100
AcDbArc
 50
225.7314553514445
 51
324.0839737241603
  0
ARC
  5
35A
330
1F
100
AcDbEntity
  8
LAY-10
  6
CONTINUOUS
 62
     7
100
AcDbCircle
 10
498.9383714108124
 20
641.7268966000038
 30
0.0
 40
3.000000000000002
100
AcDbArc
 50
35.91602627583724
 51
134.2685446485556
  0
LINE
  5
35B
330
1F
100
AcDbEntity
  8
LAY-10
  6
CONTINUOUS
 62
     7
100
AcDbLine
 10
460.0000000000393
 20
567.0000000000693
 30
0.0
 11
460.0000000000389
 21
605.00000000007
 31
0.0
  0
LINE
  5
35C
330
1F
100
AcDbEntity
  8
LAY-10
  6
CONTINUOUS
 62
     7
100
AcDbLine
 10
455.0000000000698
 20
572.00000000007
 30
0.0
 11
455.0000000000694
 21
600.00000000007
 31
0.0
  0
LINE
  5
35D
330
1F
100
AcDbEntity
  8
LAY-10
  6
CONTINUOUS
 62
     7
100
AcDbLine
 10
450.000000000068
 20
572.0000000000698
 30
0.0
 11
450.0000000000671
 21
600.0000000000696
 31
0.0
  0
LINE
  5
35E
330
1F
100
AcDbEntity
  8
LAY-10
  6
CONTINUOUS
 62
     7
100
AcDbLine
 10
458.3730669590068
 20
643.0000000001276
 30
0.0
 11
467.0333209968414
 21
628.0000000001444
 31
0.0
  0
LINE
  5
35F
330
1F
100
AcDbEntity
  8
LAY-10
  6
CONTINUOUS
 62
     7
100
AcDbLine
 10
458.373066958997
 20
559.0000000001442
 30
0.0
 11
467.0333209968414
 21
544.0000000001442
 31
0.0
  0
LINE
  5
360
330
1F
100
AcDbEntity
  8
LAY-10
  6
CONTINUOUS
 62
     7
100
AcDbLine
 10
453.7542648055235
 20
567.0000000000693
 30
0.0
 11
454.9089653438589
 21
565.0000000001453
 31
0.0
  0
LINE
  5
361
330
1F
100
AcDbEntity
  8
LAY-10
  6
CONTINUOUS
 62
     7
100
AcDbLine
 10
454.9089653438589
 20
607.0000000001432
 30
0.0
 11
453.7542648054371
 21
605.00000000007
 31
0.0
  0
LINE
  5
362
330
1F
100
AcDbEntity
  8
LAY-10
  6
CONTINUOUS
 62
     7
100
AcDbLine
 10
467.0333209968414
 20
628.0000000001444
 30
0.0
 11
458.373066958997
 21
613.0000000001444
 31
0.0
  0
LINE
  5
363
330
1F
100
AcDbEntity
  8
LAY-10
  6
CONTINUOUS
 62
     7
100
AcDbLine
 10
467.033320996841
 20
586.0000000001442
 30
0.0
 11
460.0000000000393
 21
573.8179306877423
 31
0.0
  0
LINE
  5
364
330
1F
100
AcDbEntity
  8
LAY-10
  6
CONTINUOUS
 62
     7
100
AcDbLine
 10
460.0000000000389
 20
598.1820693125458
 30
0.0
 11
467.033320996841
 21
586.0000000001442
 31
0.0
  0
LINE
  5
365
330
1F
100
AcDbEntity
  8
LAY-10
  6
CONTINUOUS
 62
     7
100
AcDbLine
 10
461.8371685741348
 20
607.0000000001446
 30
0.0
 11
470.4974226119792
 21
592.0000000001448
 31
0.0
  0
LINE
  5
366
330
1F
100
AcDbEntity
  8
LAY-10
  6
CONTINUOUS
 62
     7
100
AcDbLine
 10
470.4974226119792
 20
622.0000000001446
 30
0.0
 11
461.8371685741348
 21
607.0000000001448
 31
0.0
  0
LINE
  5
367
330
1F
100
AcDbEntity
  8
LAY-10
  6
CONTINUOUS
 62
     7
100
AcDbLine
 10
470.4974226119792
 20
622.0000000001446
 30
0.0
 11
479.1576766498236
 21
607.0000000001451
 31
0.0
  0
LINE
  5
368
330
1F
100
AcDbEntity
  8
LAY-10
  6
CONTINUOUS
 62
     7
100
AcDbLine
 10
479.1576766498236
 20
607.0000000001448
 30
0.0
 11
470.4974226119792
 21
592.0000000001448
 31
0.0
  0
LINE
  5
369
330
1F
100
AcDbEntity
  8
LAY-10
  6
CONTINUOUS
 62
     7
100
AcDbLine
 10
470.4974226119792
 20
580.0000000001437
 30
0.0
 11
479.1576766498236
 21
565.0000000001437
 31
0.0
  0
LINE
  5
36A
330
1F
100
AcDbEntity
  8
LAY-10
  6
CONTINUOUS
 62
     7
100
AcDbLine
 10
479.1576766498236
 20
565.0000000001437
 30
0.0
 11
470.4974226119792
 21
550.0000000001437
 31
0.0
  0
LINE
  5
36B
330
1F
100
AcDbEntity
  8
LAY-10
  6
CONTINUOUS
 62
     7
100
AcDbLine
 10
470.4974226119792
 20
580.0000000001437
 30
0.0
 11
461.8371685741348
 21
565.0000000001439
 31
0.0
  0
LINE
  5
36C
330
1F
100
AcDbEntity
  8
LAY-10
  6
CONTINUOUS
 62
     7
100
AcDbLine
 10
461.8371685741348
 20
565.0000000001439
 30
0.0
 11
470.4974226119792
 21
550.0000000001439
 31
0.0
  0
LINE
  5
36D
330
1F
100
AcDbEntity
  8
LAY-10
  6
CONTINUOUS
 62
     7
100
AcDbLine
 10
467.0333209968414
 20
544.0000000001439
 30
0.0
 11
458.373066958997
 21
529.0000000001439
 31
0.0
  0
LINE
  5
36E
330
1F
100
AcDbEntity
  8
LAY-10
  6
CONTINUOUS
 62
     7
100
AcDbLine
 10
353.1285677438853
 20
640.7111801424321
 30
0.0
 11
349.2538660821554
 21
634.0000000001448
 31
0.0
  0
LINE
  5
36F
330
1F
100
AcDbEntity
  8
LAY-10
  6
CONTINUOUS
 62
     7
100
AcDbLine
 10
361.378221735138
 20
601.0000000001444
 30
0.0
 11
352.7179676972931
 21
586.0000000001442
 31
0.0
  0
LINE
  5
370
330
1F
100
AcDbEntity
  8
LAY-10
  6
CONTINUOUS
 62
     7
100
AcDbLine
 10
349.2538660821559
 20
622.0000000001437
 30
0.0
 11
357.9141201200003
 21
607.0000000001439
 31
0.0
  0
LINE
  5
371
330
1F
100
AcDbEntity
  8
LAY-10
  6
CONTINUOUS
 62
     7
100
AcDbLine
 10
357.9141201200003
 20
607.0000000001439
 30
0.0
 11
349.2538660821554
 21
592.0000000001437
 31
0.0
  0
LINE
  5
372
330
1F
100
AcDbEntity
  8
LAY-10
  6
CONTINUOUS
 62
     7
100
AcDbLine
 10
352.7179676972935
 20
628.0000000001442
 30
0.0
 11
361.378221735138
 21
613.0000000001442
 31
0.0
  0
LINE
  5
373
330
1F
100
AcDbEntity
  8
LAY-10
  6
CONTINUOUS
 62
     7
100
AcDbLine
 10
349.2538660821559
 20
622.0000000001439
 30
0.0
 11
340.593612044311
 21
607.0000000001435
 31
0.0
  0
LINE
  5
374
330
1F
100
AcDbEntity
  8
LAY-10
  6
CONTINUOUS
 62
     7
100
AcDbLine
 10
360.5516773634488
 20
641.5683831536678
 30
0.0
 11
352.7179676972935
 21
628.0000000001439
 31
0.0
  0
LINE
  5
375
330
1F
100
AcDbEntity
  8
LAY-10
  6
CONTINUOUS
 62
     7
100
AcDbLine
 10
343.2722562778288
 20
644.3604520922904
 30
0.0
 11
349.2538660821554
 21
634.0000000001448
 31
0.0
  0
LINE
  5
376
330
1F
100
AcDbEntity
  8
LAY-10
  6
CONTINUOUS
 62
     7
100
AcDbLine
 10
339.5001306825459
 20
638.8939652758506
 30
0.0
 11
345.7897644670173
 21
628.0000000001446
 31
0.0
  0
LINE
  5
377
330
1F
100
AcDbEntity
  8
LAY-10
  6
CONTINUOUS
 62
     7
100
AcDbLine
 10
345.7897644670173
 20
628.0000000001444
 30
0.0
 11
337.1295104291729
 21
613.0000000001444
 31
0.0
  0
LINE
  5
378
330
1F
100
AcDbEntity
  8
LAY-10
  6
CONTINUOUS
 62
     7
100
AcDbLine
 10
337.1295104291729
 20
559.0000000001439
 30
0.0
 11
331.2957345173166
 21
548.8956037208379
 31
0.0
  0
LINE
  5
379
330
1F
100
AcDbEntity
  8
LAY-10
  6
CONTINUOUS
 62
     7
100
AcDbLine
 10
349.2538660821559
 20
580.0000000001451
 30
0.0
 11
340.593612044311
 21
565.0000000001446
 31
0.0
  0
LINE
  5
37A
330
1F
100
AcDbEntity
  8
LAY-10
  6
CONTINUOUS
 62
     7
100
AcDbLine
 10
337.1295104291729
 20
559.0000000001439
 30
0.0
 11
345.7897644670173
 21
544.0000000001439
 31
0.0
  0
LINE
  5
37B
330
1F
100
AcDbEntity
  8
LAY-10
  6
CONTINUOUS
 62
     7
100
AcDbLine
 10
325.0051547761907
 20
580.0000000001432
 30
0.0
 11
333.6654088140352
 21
565.0000000001435
 31
0.0
  0
LINE
  5
37C
330
1F
100
AcDbEntity
  8
LAY-10
  6
CONTINUOUS
 62
     7
100
AcDbLine
 10
333.6654088140352
 20
565.0000000001435
 30
0.0
 11
328.6207827976839
 21
556.2624514346396
 31
0.0
  0
LINE
  5
37D
330
1F
100
AcDbEntity
  8
LAY-10
  6
CONTINUOUS
 62
     7
100
AcDbLine
 10
345.7897644670182
 20
586.0000000001444
 30
0.0
 11
337.1295104291733
 21
571.0000000001439
 31
0.0
  0
LINE
  5
37E
330
1F
100
AcDbEntity
  8
LAY-10
  6
CONTINUOUS
 62
     7
100
AcDbLine
 10
340.593612044311
 20
565.0000000001444
 30
0.0
 11
349.2538660821554
 21
550.0000000001444
 31
0.0
  0
LINE
  5
37F
330
1F
100
AcDbEntity
  8
LAY-10
  6
CONTINUOUS
 62
     7
100
AcDbLine
 10
328.4692563913289
 20
586.0000000001442
 30
0.0
 11
337.1295104291733
 21
571.0000000001442
 31
0.0
  0
LINE
  5
380
330
1F
100
AcDbEntity
  8
LAY-10
  6
CONTINUOUS
 62
     7
100
AcDbLine
 10
325.0051547761907
 20
580.0000000001435
 30
0.0
 11
324.2702454638755
 21
578.727099732258
 31
0.0
  0
LINE
  5
381
330
1F
100
AcDbEntity
  8
LAY-10
  6
CONTINUOUS
 62
     7
100
AcDbLine
 10
337.1295104291733
 20
601.0000000001439
 30
0.0
 11
328.4692563913289
 21
586.0000000001442
 31
0.0
  0
LINE
  5
382
330
1F
100
AcDbEntity
  8
LAY-10
  6
CONTINUOUS
 62
     7
100
AcDbLine
 10
333.6654088140352
 20
607.0000000001446
 30
0.0
 11
325.0051547761907
 21
592.0000000001446
 31
0.0
  0
LINE
  5
383
330
1F
100
AcDbEntity
  8
LAY-10
  6
CONTINUOUS
 62
     7
100
AcDbLine
 10
324.2702454638905
 20
593.2729002680044
 30
0.0
 11
325.0051547761907
 21
592.0000000001446
 31
0.0
  0
LINE
  5
384
330
1F
100
AcDbEntity
  8
LAY-10
  6
CONTINUOUS
 62
     7
100
AcDbLine
 10
340.593612044311
 20
607.0000000001437
 30
0.0
 11
349.2538660821554
 21
592.0000000001437
 31
0.0
  0
LINE
  5
385
330
1F
100
AcDbEntity
  8
LAY-10
  6
CONTINUOUS
 62
     7
100
AcDbLine
 10
331.2957345173716
 20
623.1043962793558
 30
0.0
 11
337.1295104291729
 21
613.0000000001444
 31
0.0
  0
LINE
  5
386
330
1F
100
AcDbEntity
  8
LAY-10
  6
CONTINUOUS
 62
     7
100
AcDbLine
 10
337.1295104291733
 20
601.0000000001442
 30
0.0
 11
345.7897644670182
 21
586.0000000001444
 31
0.0
  0
LINE
  5
387
330
1F
100
AcDbEntity
  8
LAY-10
  6
CONTINUOUS
 62
     7
100
AcDbLine
 10
328.6207827977308
 20
615.7375485655675
 30
0.0
 11
333.6654088140352
 21
607.0000000001448
 31
0.0
  0
LINE
  5
388
330
1F
100
AcDbEntity
  8
LAY-10
  6
CONTINUOUS
 62
     7
100
AcDbLine
 10
349.2538660821559
 20
580.0000000001448
 30
0.0
 11
357.9141201200003
 21
565.0000000001453
 31
0.0
  0
LINE
  5
389
330
1F
100
AcDbEntity
  8
LAY-10
  6
CONTINUOUS
 62
     7
100
AcDbLine
 10
352.7179676972931
 20
586.0000000001442
 30
0.0
 11
361.3782217351375
 21
571.0000000001442
 31
0.0
  0
LINE
  5
38A
330
1F
100
AcDbEntity
  8
LAY-10
  6
CONTINUOUS
 62
     7
100
AcDbLine
 10
361.3782217351384
 20
559.0000000001446
 30
0.0
 11
352.7179676972935
 21
544.0000000001439
 31
0.0
  0
LINE
  5
38B
330
1F
100
AcDbEntity
  8
LAY-10
  6
CONTINUOUS
 62
     7
100
AcDbLine
 10
357.9141201200003
 20
565.0000000001451
 30
0.0
 11
349.2538660821554
 21
550.0000000001446
 31
0.0
  0
LINE
  5
38C
330
1F
100
AcDbEntity
  8
LAY-10
  6
CONTINUOUS
 62
     7
100
AcDbLine
 10
349.2538660821554
 20
538.0000000001432
 30
0.0
 11
343.2722562777547
 21
527.6395479078694
 31
0.0
  0
LINE
  5
38D
330
1F
100
AcDbEntity
  8
LAY-10
  6
CONTINUOUS
 62
     7
100
AcDbLine
 10
349.2538660821554
 20
538.0000000001432
 30
0.0
 11
353.1285677440026
 21
531.2888198576522
 31
0.0
  0
LINE
  5
38E
330
1F
100
AcDbEntity
  8
LAY-10
  6
CONTINUOUS
 62
     7
100
AcDbLine
 10
345.7897644670173
 20
544.0000000001439
 30
0.0
 11
339.5001306824764
 21
533.1060347243176
 31
0.0
  0
LINE
  5
38F
330
1F
100
AcDbEntity
  8
LAY-10
  6
CONTINUOUS
 62
     7
100
AcDbLine
 10
352.7179676972935
 20
544.0000000001439
 30
0.0
 11
360.5516773636276
 21
530.4316168463099
 31
0.0
  0
ARC
  5
390
330
1F
100
AcDbEntity
  8
LAY-10
  6
CONTINUOUS
 62
     7
100
AcDbCircle
 10
422.0000000000198
 20
586.00000000003
 30
0.0
 40
98.00000000000006
100
AcDbArc
 50
144.0839737241633
 51
215.9160262758367
  0
ARC
  5
391
330
1F
100
AcDbEntity
  8
LAY-10
  6
CONTINUOUS
 62
     7
100
AcDbCircle
 10
345.0616285892873
 20
530.2731034000565
 30
0.0
 40
3.000000000000002
100
AcDbArc
 50
215.9160262758373
 51
314.2685446485558
  0
ARC
  5
392
330
1F
100
AcDbEntity
  8
LAY-10
  6
CONTINUOUS
 62
     7
100
AcDbCircle
 10
345.0616285892873
 20
641.7268966000038
 30
0.0
 40
3.000000000000002
100
AcDbArc
 50
45.73145535144438
 51
144.0839737241628
  0
LINE
  5
393
330
1F
100
AcDbEntity
  8
LAY-10
  6
CONTINUOUS
 62
     7
100
AcDbLine
 10
382.162831425965
 20
565.0000000001437
 30
0.0
 11
373.5025773881201
 21
550.0000000001435
 31
0.0
  0
LINE
  5
394
330
1F
100
AcDbEntity
  8
LAY-10
  6
CONTINUOUS
 62
     7
100
AcDbLine
 10
373.5025773881205
 20
580.0000000001439
 30
0.0
 11
382.162831425965
 21
565.0000000001437
 31
0.0
  0
LINE
  5
395
330
1F
100
AcDbEntity
  8
LAY-10
  6
CONTINUOUS
 62
     7
100
AcDbLine
 10
382.1628314259645
 20
607.0000000001437
 30
0.0
 11
373.5025773881205
 21
592.0000000001448
 31
0.0
  0
LINE
  5
396
330
1F
100
AcDbEntity
  8
LAY-10
  6
CONTINUOUS
 62
     7
100
AcDbLine
 10
373.5025773881201
 20
622.0000000001439
 30
0.0
 11
382.1628314259645
 21
607.0000000001437
 31
0.0
  0
LINE
  5
397
330
1F
100
AcDbEntity
  8
LAY-10
  6
CONTINUOUS
 62
     7
100
AcDbLine
 10
373.5025773881205
 20
580.0000000001439
 30
0.0
 11
364.8423233502756
 21
565.0000000001435
 31
0.0
  0
LINE
  5
398
330
1F
100
AcDbEntity
  8
LAY-10
  6
CONTINUOUS
 62
     7
100
AcDbLine
 10
361.378221735138
 20
601.0000000001444
 30
0.0
 11
370.0384757729824
 21
586.0000000001444
 31
0.0
  0
LINE
  5
399
330
1F
100
AcDbEntity
  8
LAY-10
  6
CONTINUOUS
 62
     7
100
AcDbLine
 10
370.0384757729824
 20
586.0000000001446
 30
0.0
 11
361.3782217351375
 21
571.0000000001442
 31
0.0
  0
LINE
  5
39A
330
1F
100
AcDbEntity
  8
LAY-10
  6
CONTINUOUS
 62
     7
100
AcDbLine
 10
364.8423233502756
 20
607.0000000001446
 30
0.0
 11
373.5025773881205
 21
592.0000000001446
 31
0.0
  0
LINE
  5
39B
330
1F
100
AcDbEntity
  8
LAY-10
  6
CONTINUOUS
 62
     7
100
AcDbLine
 10
373.5025773881201
 20
622.0000000001439
 30
0.0
 11
364.8423233502756
 21
607.0000000001444
 31
0.0
  0
LINE
  5
39C
330
1F
100
AcDbEntity
  8
LAY-10
  6
CONTINUOUS
 62
     7
100
AcDbLine
 10
370.0384757729824
 20
628.0000000001437
 30
0.0
 11
361.378221735138
 21
613.0000000001442
 31
0.0
  0
LINE
  5
39D
330
1F
100
AcDbEntity
  8
LAY-10
  6
CONTINUOUS
 62
     7
100
AcDbLine
 10
364.8423233502756
 20
565.0000000001435
 30
0.0
 11
373.5025773881201
 21
550.0000000001437
 31
0.0
  0
LINE
  5
39E
330
1F
100
AcDbEntity
  8
LAY-10
  6
CONTINUOUS
 62
     7
100
AcDbLine
 10
361.3782217351384
 20
559.0000000001446
 30
0.0
 11
370.0384757729833
 21
544.0000000001448
 31
0.0
  0
LINE
  5
39F
330
1F
100
AcDbEntity
  8
LAY-10
  6
CONTINUOUS
 62
     7
100
AcDbLine
 10
370.0384757729833
 20
544.0000000001451
 30
0.0
 11
361.8146211626857
 21
529.7558659810504
 31
0.0
  0
LINE
  5
3A0
330
1F
100
AcDbEntity
  8
LAY-10
  6
CONTINUOUS
 62
     7
100
AcDbLine
 10
361.8146211627825
 20
642.2441340190692
 30
0.0
 11
370.0384757729824
 21
628.0000000001437
 31
0.0
  0
ARC
  5
3A1
330
1F
100
AcDbEntity
  8
LAY-10
  6
CONTINUOUS
 62
     7
100
AcDbCircle
 10
355.5319625685195
 20
519.5319625685004
 30
0.0
 40
12.00000000000001
100
AcDbArc
 50
315.7314553514717
 51
134.2685446485538
  0
ARC
  5
3A2
330
1F
100
AcDbEntity
  8
LAY-10
  6
CONTINUOUS
 62
     7
100
AcDbCircle
 10
355.53196256852
 20
652.4680374315599
 30
0.0
 40
12.00000000000001
100
AcDbArc
 50
225.7314553514459
 51
44.26854464852837
  0
ARC
  5
3A3
330
1F
100
AcDbEntity
  8
LAY-10
  6
CONTINUOUS
 62
     7
100
AcDbCircle
 10
488.4680374315797
 20
652.4680374315599
 30
0.0
 40
12.00000000000001
100
AcDbArc
 50
135.7314553514717
 51
314.268544648554
  0
LINE
  5
3A4
330
1F
100
AcDbEntity
  8
LAY-10
  6
CONTINUOUS
 62
     7
100
AcDbLine
 10
311.9999999999999
 20
333.0
 30
0.0
 11
311.9999999999999
 21
346.0
 31
0.0
  0
LINE
  5
3A5
330
1F
100
AcDbEntity
  8
LAY-10
  6
CONTINUOUS
 62
     7
100
AcDbLine
 10
314.1570078687289
 20
327.5725093320052
 30
0.0
 11
308.842992131271
 21
327.8510050958806
 31
0.0
  0
ARC
  5
3A6
330
1F
100
AcDbEntity
  8
LAY-10
  6
CONTINUOUS
 62
     7
100
AcDbCircle
 10
314.0
 20
324.5766207277416
 30
0.0
 40
3.000000000000002
100
AcDbArc
 50
0.0
 51
86.99999999999928
  0
LINE
  5
3A7
330
1F
100
AcDbEntity
  8
LAY-10
  6
PHANTOM
 62
     7
100
AcDbLine
 10
384.0000000000384
 20
346.0
 30
0.0
 11
383.7375340094607
 21
342.9999999999999
 31
0.0
  0
LINE
  5
3A8
330
1F
100
AcDbEntity
  8
LAY-10
  6
CONTINUOUS
 62
     7
100
AcDbLine
 10
314.5240777928504
 20
336.0
 30
0.0
 11
314.00000000002
 21
346.0
 31
0.0
  0
LINE
  5
3A9
330
1F
100
AcDbEntity
  8
LAY-10
  6
PHANTOM
 62
     7
100
AcDbLine
 10
340.0000000000143
 20
346.0000000000002
 30
0.0
 11
340.2624659905921
 21
342.9999999999999
 31
0.0
  0
LINE
  5
3AA
330
1F
100
AcDbEntity
  8
LAY-10
  6
PHANTOM
 62
     7
100
AcDbLine
 10
340.26246599059
 20
342.9999999999999
 30
0.0
 11
383.7375340094607
 21
342.9999999999999
 31
0.0
  0
LINE
  5
3AB
330
1F
100
AcDbEntity
  8
LAY-10
  6
CONTINUOUS
 62
     7
100
AcDbLine
 10
332.9999999999997
 20
341.9999999999992
 30
0.0
 11
332.9999999999997
 21
335.9999999999966
 31
0.0
  0
LINE
  5
3AC
330
1F
100
AcDbEntity
  8
LAY-10
  6
CONTINUOUS
 62
     7
100
AcDbLine
 10
336.0000000000003
 20
345.9999999999966
 30
0.0
 11
336.0000000000003
 21
344.9999999999966
 31
0.0
  0
LINE
  5
3AD
330
1F
100
AcDbEntity
  8
LAY-10
  6
CONTINUOUS
 62
     7
100
AcDbLine
 10
332.9999999999997
 20
341.9999999999989
 30
0.0
 11
336.0000000000003
 21
344.9999999999992
 31
0.0
  0
LINE
  5
3AE
330
1F
100
AcDbEntity
  8
LAY-10
  6
CONTINUOUS
 62
     7
100
AcDbLine
 10
320.0000000000003
 20
345.9999999999966
 30
0.0
 11
320.0000000000003
 21
344.9999999999966
 31
0.0
  0
LINE
  5
3AF
330
1F
100
AcDbEntity
  8
LAY-10
  6
CONTINUOUS
 62
     7
100
AcDbLine
 10
323.0000000000006
 20
341.9999999999989
 30
0.0
 11
320.0000000000003
 21
344.9999999999992
 31
0.0
  0
LINE
  5
3B0
330
1F
100
AcDbEntity
  8
LAY-10
  6
CONTINUOUS
 62
     7
100
AcDbLine
 10
323.0000000000006
 20
341.9999999999992
 30
0.0
 11
323.0000000000006
 21
335.9999999999966
 31
0.0
  0
LINE
  5
3B1
330
1F
100
AcDbEntity
  8
LAY-10
  6
CONTINUOUS
 62
     7
100
AcDbLine
 10
320.5000000001338
 20
345.9999999999799
 30
0.0
 11
320.5000000001338
 21
345.45999999998
 31
0.0
  0
LINE
  5
3B2
330
1F
100
AcDbEntity
  8
LAY-10
  6
CONTINUOUS
 62
     7
100
AcDbLine
 10
324.0000000001338
 20
340.99999999998
 30
0.0
 11
332.0000000001336
 21
340.99999999998
 31
0.0
  0
LINE
  5
3B3
330
1F
100
AcDbEntity
  8
LAY-10
  6
CONTINUOUS
 62
     7
100
AcDbLine
 10
320.5000000001338
 20
345.4599999999797
 30
0.0
 11
324.0000000001338
 21
340.9999999999798
 31
0.0
  0
LINE
  5
3B4
330
1F
100
AcDbEntity
  8
LAY-10
  6
CONTINUOUS
 62
     7
100
AcDbLine
 10
335.5000000001338
 20
345.4599999999797
 30
0.0
 11
332.0000000001336
 21
340.9999999999798
 31
0.0
  0
LINE
  5
3B5
330
1F
100
AcDbEntity
  8
LAY-10
  6
CONTINUOUS
 62
     7
100
AcDbLine
 10
335.5000000001338
 20
345.9999999999799
 30
0.0
 11
335.5000000001338
 21
345.45999999998
 31
0.0
  0
LINE
  5
3B6
330
1F
100
AcDbEntity
  8
LAY-10
  6
CONTINUOUS
 62
     7
100
AcDbLine
 10
331.0000000001324
 20
339.9999999999807
 30
0.0
 11
332.0000000001329
 21
340.9999999999809
 31
0.0
  0
LINE
  5
3B7
330
1F
100
AcDbEntity
  8
LAY-10
  6
CONTINUOUS
 62
     7
100
AcDbLine
 10
325.0000000001352
 20
339.9999999999807
 30
0.0
 11
324.0000000001347
 21
340.9999999999809
 31
0.0
  0
LINE
  5
3B8
330
1F
100
AcDbEntity
  8
LAY-10
  6
CONTINUOUS
 62
     7
100
AcDbLine
 10
331.0000000001338
 20
339.9999999999799
 30
0.0
 11
325.0000000001338
 21
339.9999999999799
 31
0.0
  0
LINE
  5
3B9
330
1F
100
AcDbEntity
  8
LAY-10
  6
CONTINUOUS
 62
     7
100
AcDbLine
 10
324.0000000001338
 20
326.99999999998
 30
0.0
 11
332.0000000001336
 21
326.99999999998
 31
0.0
  0
LINE
  5
3BA
330
1F
100
AcDbEntity
  8
LAY-10
  6
CONTINUOUS
 62
     7
100
AcDbLine
 10
331.0000000001345
 20
325.9999999999789
 30
0.0
 11
332.0000000001347
 21
326.9999999999789
 31
0.0
  0
LINE
  5
3BB
330
1F
100
AcDbEntity
  8
LAY-10
  6
CONTINUOUS
 62
     7
100
AcDbLine
 10
325.0000000001329
 20
325.9999999999789
 30
0.0
 11
324.0000000001327
 21
326.9999999999789
 31
0.0
  0
LINE
  5
3BC
330
1F
100
AcDbEntity
  8
LAY-10
  6
CONTINUOUS
 62
     7
100
AcDbLine
 10
331.0000000001359
 20
325.99999999998
 30
0.0
 11
325.0000000001315
 21
325.99999999998
 31
0.0
  0
LINE
  5
3BD
330
1F
100
AcDbEntity
  8
LAY-10
  6
CONTINUOUS
 62
     7
100
AcDbLine
 10
331.0000000001331
 20
339.9999999999799
 30
0.0
 11
331.0000000001331
 21
325.9999999999798
 31
0.0
  0
LINE
  5
3BE
330
1F
100
AcDbEntity
  8
LAY-10
  6
CONTINUOUS
 62
     7
100
AcDbLine
 10
332.0000000001336
 20
340.99999999998
 30
0.0
 11
332.0000000001336
 21
326.9999999999798
 31
0.0
  0
LINE
  5
3BF
330
1F
100
AcDbEntity
  8
LAY-10
  6
CONTINUOUS
 62
     7
100
AcDbLine
 10
324.0000000001338
 20
340.99999999998
 30
0.0
 11
324.0000000001338
 21
326.9999999999798
 31
0.0
  0
LINE
  5
3C0
330
1F
100
AcDbEntity
  8
LAY-10
  6
CONTINUOUS
 62
     7
100
AcDbLine
 10
325.0000000001343
 20
339.9999999999799
 30
0.0
 11
325.0000000001343
 21
325.9999999999798
 31
0.0
  0
LINE
  5
3C1
330
1F
100
AcDbEntity
  8
LAY-10
  6
CONTINUOUS
 62
     7
100
AcDbLine
 10
333.0000000000003
 20
341.9999999999966
 30
0.0
 11
332.7847533633757
 21
341.9999999999966
 31
0.0
  0
LINE
  5
3C2
330
1F
100
AcDbEntity
  8
LAY-10
  6
CONTINUOUS
 62
     7
100
AcDbLine
 10
323.2152466368917
 20
341.9999999999966
 30
0.0
 11
323.0000000000003
 21
341.9999999999966
 31
0.0
  0
LINE
  5
3C3
330
1F
100
AcDbEntity
  8
LAY-10
  6
CONTINUOUS
 62
     7
100
AcDbLine
 10
336.0000000000003
 20
344.9999999999966
 30
0.0
 11
335.1390134530619
 21
344.9999999999966
 31
0.0
  0
LINE
  5
3C4
330
1F
100
AcDbEntity
  8
LAY-10
  6
CONTINUOUS
 62
     7
100
AcDbLine
 10
320.8609865472057
 20
344.9999999999966
 30
0.0
 11
320.0000000000003
 21
344.9999999999966
 31
0.0
  0
LINE
  5
3C5
330
1F
100
AcDbEntity
  8
LAY-10
  6
CONTINUOUS
 62
     7
100
AcDbLine
 10
323.0000000000038
 20
335.9999999999964
 30
0.0
 11
323.0000000000038
 21
332.9999999999966
 31
0.0
  0
LINE
  5
3C6
330
1F
100
AcDbEntity
  8
LAY-10
  6
CONTINUOUS
 62
     7
100
AcDbLine
 10
315.5240777928237
 20
335.9999999999864
 30
0.0
 11
313.0000000000001
 21
335.9999999999864
 31
0.0
  0
LINE
  5
3C7
330
1F
100
AcDbEntity
  8
LAY-10
  6
CONTINUOUS
 62
     7
100
AcDbLine
 10
332.0000000000085
 20
321.9999999999957
 30
0.0
 11
323.9999999999922
 21
321.9999999999957
 31
0.0
  0
LINE
  5
3C8
330
1F
100
AcDbEntity
  8
LAY-10
  6
CONTINUOUS
 62
     7
100
AcDbLine
 10
324.9999999999926
 20
320.9999999999952
 30
0.0
 11
331.0000000000081
 21
320.9999999999952
 31
0.0
  0
LINE
  5
3C9
330
1F
100
AcDbEntity
  8
LAY-10
  6
CONTINUOUS
 62
     7
100
AcDbLine
 10
324.9999999999958
 20
320.9999999999923
 30
0.0
 11
323.9999999999956
 21
321.999999999992
 31
0.0
  0
LINE
  5
3CA
330
1F
100
AcDbEntity
  8
LAY-10
  6
CONTINUOUS
 62
     7
100
AcDbLine
 10
331.0000000000049
 20
320.9999999999923
 30
0.0
 11
332.0000000000047
 21
321.999999999992
 31
0.0
  0
LINE
  5
3CB
330
1F
100
AcDbEntity
  8
LAY-10
  6
CONTINUOUS
 62
     7
100
AcDbLine
 10
332.0000000000013
 20
326.9999999999834
 30
0.0
 11
332.0000000000013
 21
322.0
 31
0.0
  0
LINE
  5
3CC
330
1F
100
AcDbEntity
  8
LAY-10
  6
CONTINUOUS
 62
     7
100
AcDbLine
 10
323.9999999999997
 20
327.0000000001121
 30
0.0
 11
323.9999999999997
 21
322.0
 31
0.0
  0
LINE
  5
3CD
330
1F
100
AcDbEntity
  8
LAY-10
  6
CONTINUOUS
 62
     7
100
AcDbLine
 10
335.5000000001002
 20
345.45999999998
 30
0.0
 11
320.5000000001338
 21
345.45999999998
 31
0.0
  0
LINE
  5
3CE
330
1F
100
AcDbEntity
  8
LAY-10
  6
HIDDEN
 62
     7
100
AcDbLine
 10
330.5000000000003
 20
344.03666666666
 30
0.0
 11
328.0000000000008
 21
342.9866666666603
 31
0.0
  0
LINE
  5
3CF
330
1F
100
AcDbEntity
  8
LAY-10
  6
HIDDEN
 62
     7
100
AcDbLine
 10
325.5000000000001
 20
344.03666666666
 30
0.0
 11
327.9999999999994
 21
342.9866666666603
 31
0.0
  0
LINE
  5
3D0
330
1F
100
AcDbEntity
  8
LAY-10
  6
HIDDEN
 62
     7
100
AcDbLine
 10
330.4999999999999
 20
345.9999999999966
 30
0.0
 11
330.4999999999999
 21
344.0366666666598
 31
0.0
  0
LINE
  5
3D1
330
1F
100
AcDbEntity
  8
LAY-10
  6
HIDDEN
 62
     7
100
AcDbLine
 10
325.5000000000003
 20
345.9999999999966
 30
0.0
 11
325.5000000000003
 21
344.0366666666598
 31
0.0
  0
ARC
  5
3D2
330
1F
100
AcDbEntity
  8
LAY-10
  6
CONTINUOUS
 62
     7
100
AcDbCircle
 10
339.6180339887698
 20
336.9999999999997
 30
0.0
 40
1.0
100
AcDbArc
 50
90.00000000000001
 51
153.4349488229242
  0
LINE
  5
3D3
330
1F
100
AcDbEntity
  8
LAY-10
  6
CONTINUOUS
 62
     7
100
AcDbLine
 10
338.72360679777
 20
337.4472135954994
 30
0.0
 11
338.0000000000202
 21
335.9999999999997
 31
0.0
  0
LINE
  5
3D4
330
1F
100
AcDbEntity
  8
LAY-10
  6
CONTINUOUS
 62
     7
100
AcDbLine
 10
380.1789526673169
 20
338.0
 30
0.0
 11
339.61803398877
 21
338.0
 31
0.0
  0
LINE
  5
3D5
330
1F
100
AcDbEntity
  8
LAY-10
  6
CONTINUOUS
 62
     7
100
AcDbLine
 10
386.1789526673169
 20
336.0
 30
0.0
 11
332.0000000001336
 21
336.0
 31
0.0
  0
LINE
  5
3D6
330
1F
100
AcDbEntity
  8
LAY-10
  6
CONTINUOUS
 62
     7
100
AcDbLine
 10
324.0000000001338
 20
336.0
 30
0.0
 11
314.5240777928504
 21
336.0
 31
0.0
  0
LINE
  5
3D7
330
1F
100
AcDbEntity
  8
LAY-10
  6
CONTINUOUS
 62
     7
100
AcDbLine
 10
312.0
 20
333.0
 30
0.0
 11
324.0000000001338
 21
333.0
 31
0.0
  0
LINE
  5
3D8
330
1F
100
AcDbEntity
  8
LAY-10
  6
CONTINUOUS
 62
     7
100
AcDbLine
 10
313.0000000000042
 20
333.0
 30
0.0
 11
313.0000000000042
 21
335.9999999999864
 31
0.0
  0
LINE
  5
3D9
330
1F
100
AcDbEntity
  8
LAY-10
  6
CONTINUOUS
 62
     7
100
AcDbLine
 10
532.0
 20
333.0
 30
0.0
 11
532.0
 21
346.0
 31
0.0
  0
ARC
  5
3DA
330
1F
100
AcDbEntity
  8
LAY-10
  6
CONTINUOUS
 62
     7
100
AcDbCircle
 10
517.8578882184399
 20
337.0
 30
0.0
 40
1.0
100
AcDbArc
 50
26.56505117707948
 51
90.00000000000001
  0
LINE
  5
3DB
330
1F
100
AcDbEntity
  8
LAY-10
  6
PHANTOM
 62
     7
100
AcDbLine
 10
460.0000000000011
 20
346.0
 30
0.0
 11
460.2624659905788
 21
342.9999999999999
 31
0.0
  0
LINE
  5
3DC
330
1F
100
AcDbEntity
  8
LAY-10
  6
CONTINUOUS
 62
     7
100
AcDbLine
 10
517.8578882184399
 20
338.0
 30
0.0
 11
463.8210473326228
 21
338.0
 31
0.0
  0
LINE
  5
3DD
330
1F
100
AcDbEntity
  8
LAY-10
  6
CONTINUOUS
 62
     7
100
AcDbLine
 10
529.4759222071891
 20
336.0
 30
0.0
 11
530.0000000000196
 21
346.0
 31
0.0
  0
LINE
  5
3DE
330
1F
100
AcDbEntity
  8
LAY-10
  6
CONTINUOUS
 62
     7
100
AcDbLine
 10
518.4759222071898
 20
338.0
 30
0.0
 11
519.4759222071898
 21
336.0
 31
0.0
  0
LINE
  5
3DF
330
1F
100
AcDbEntity
  8
LAY-10
  6
PHANTOM
 62
     7
100
AcDbLine
 10
520.0000000000152
 20
346.0000000000002
 30
0.0
 11
519.7375340094375
 21
342.9999999999999
 31
0.0
  0
LINE
  5
3E0
330
1F
100
AcDbEntity
  8
LAY-10
  6
PHANTOM
 62
     7
100
AcDbLine
 10
460.2624659905788
 20
343.0
 30
0.0
 11
519.7375340094397
 21
343.0
 31
0.0
  0
LINE
  5
3E1
330
1F
100
AcDbEntity
  8
LAY-10
  6
CONTINUOUS
 62
     7
100
AcDbLine
 10
520.9999999999961
 20
335.9999999999964
 30
0.0
 11
520.9999999999961
 21
332.9999999999966
 31
0.0
  0
LINE
  5
3E2
330
1F
100
AcDbEntity
  8
LAY-10
  6
CONTINUOUS
 62
     7
100
AcDbLine
 10
530.9999999999957
 20
333.0
 30
0.0
 11
530.9999999999957
 21
335.9999999999864
 31
0.0
  0
LINE
  5
3E3
330
1F
100
AcDbEntity
  8
LAY-10
  6
CONTINUOUS
 62
     7
100
AcDbLine
 10
529.47592220719
 20
336.0
 30
0.0
 11
531.0
 21
336.0
 31
0.0
  0
LINE
  5
3E4
330
1F
100
AcDbEntity
  8
LAY-10
  6
CONTINUOUS
 62
     7
100
AcDbLine
 10
451.79999999999
 20
185.99999999999
 30
0.0
 11
451.79999999999
 21
205.99999999999
 31
0.0
  0
ARC
  5
3E5
330
1F
100
AcDbEntity
  8
LAY-10
  6
CONTINUOUS
 62
     7
100
AcDbCircle
 10
461.4999999999999
 20
194.0
 30
0.0
 40
2.0
100
AcDbArc
 50
90.00000000000001
 51
180.0
  0
LINE
  5
3E6
330
1F
100
AcDbEntity
  8
LAY-10
  6
CONTINUOUS
 62
     7
100
AcDbLine
 10
459.5
 20
188.0
 30
0.0
 11
459.5
 21
194.0
 31
0.0
  0
ARC
  5
3E7
330
1F
100
AcDbEntity
  8
LAY-10
  6
CONTINUOUS
 62
     7
100
AcDbCircle
 10
461.4999999999999
 20
203.0
 30
0.0
 40
2.0
100
AcDbArc
 50
180.0
 51
270.0000000000002
  0
LINE
  5
3E8
330
1F
100
AcDbEntity
  8
LAY-10
  6
CONTINUOUS
 62
     7
100
AcDbLine
 10
459.5
 20
203.0
 30
0.0
 11
459.5
 21
204.0
 31
0.0
  0
ARC
  5
3E9
330
1F
100
AcDbEntity
  8
LAY-10
  6
CONTINUOUS
 62
     7
100
AcDbCircle
 10
457.5
 20
188.0
 30
0.0
 40
2.0
100
AcDbArc
 50
270.0000000000002
 51
0.0
  0
ARC
  5
3EA
330
1F
100
AcDbEntity
  8
LAY-10
  6
CONTINUOUS
 62
     7
100
AcDbCircle
 10
457.5
 20
204.0
 30
0.0
 40
2.0
100
AcDbArc
 50
0.0
 51
90.00000000000001
  0
LINE
  5
3EB
330
1F
100
AcDbEntity
  8
LAY-10
  6
CONTINUOUS
 62
     7
100
AcDbLine
 10
392.20000000001
 20
185.99999999999
 30
0.0
 11
392.20000000001
 21
205.99999999999
 31
0.0
  0
LINE
  5
3EC
330
1F
100
AcDbEntity
  8
LAY-10
  6
CONTINUOUS
 62
     7
100
AcDbLine
 10
384.5
 20
188.0
 30
0.0
 11
384.5
 21
194.0
 31
0.0
  0
ARC
  5
3ED
330
1F
100
AcDbEntity
  8
LAY-10
  6
CONTINUOUS
 62
     7
100
AcDbCircle
 10
382.5
 20
203.0
 30
0.0
 40
2.0
100
AcDbArc
 50
270.0000000000002
 51
0.0
  0
LINE
  5
3EE
330
1F
100
AcDbEntity
  8
LAY-10
  6
CONTINUOUS
 62
     7
100
AcDbLine
 10
384.5
 20
203.0
 30
0.0
 11
384.5
 21
204.0
 31
0.0
  0
ARC
  5
3EF
330
1F
100
AcDbEntity
  8
LAY-10
  6
CONTINUOUS
 62
     7
100
AcDbCircle
 10
386.4999999999999
 20
188.0
 30
0.0
 40
2.0
100
AcDbArc
 50
180.0
 51
270.0000000000002
  0
ARC
  5
3F0
330
1F
100
AcDbEntity
  8
LAY-10
  6
CONTINUOUS
 62
     7
100
AcDbCircle
 10
386.4999999999999
 20
204.0
 30
0.0
 40
2.0
100
AcDbArc
 50
90.00000000000001
 51
180.0
  0
ARC
  5
3F1
330
1F
100
AcDbEntity
  8
LAY-10
  6
CONTINUOUS
 62
     7
100
AcDbCircle
 10
382.5
 20
194.0
 30
0.0
 40
2.0
100
AcDbArc
 50
0.0
 51
90.00000000000001
  0
LINE
  5
3F2
330
1F
100
AcDbEntity
  8
LAY-10
  6
CONTINUOUS
 62
     7
100
AcDbLine
 10
457.5
 20
186.0
 30
0.0
 11
386.4999999999999
 21
186.0
 31
0.0
  0
LINE
  5
3F3
330
1F
100
AcDbEntity
  8
LAY-10
  6
CONTINUOUS
 62
     7
100
AcDbLine
 10
386.4999999999999
 20
206.0
 30
0.0
 11
457.5
 21
206.0
 31
0.0
  0
LINE
  5
3F4
330
1F
100
AcDbEntity
  8
LAY-10
  6
CONTINUOUS
 62
     7
100
AcDbLine
 10
392.20000000001
 20
185.99999999999
 30
0.0
 11
393.20195122138
 21
187.0
 31
0.0
  0
LINE
  5
3F5
330
1F
100
AcDbEntity
  8
LAY-10
  6
CONTINUOUS
 62
     7
100
AcDbLine
 10
451.79999999999
 20
186.0
 30
0.0
 11
450.7980487786199
 21
187.0
 31
0.0
  0
LINE
  5
3F6
330
1F
100
AcDbEntity
  8
LAY-10
  6
CONTINUOUS
 62
     7
100
AcDbLine
 10
450.7980487786199
 20
187.0
 30
0.0
 11
393.20195122138
 21
187.0
 31
0.0
  0
LINE
  5
3F7
330
1F
100
AcDbEntity
  8
LAY-10
  6
CONTINUOUS
 62
     7
100
AcDbLine
 10
392.20000000001
 20
206.0
 30
0.0
 11
393.20195122138
 21
205.0
 31
0.0
  0
LINE
  5
3F8
330
1F
100
AcDbEntity
  8
LAY-10
  6
CONTINUOUS
 62
     7
100
AcDbLine
 10
393.20195122138
 20
187.0000000000001
 30
0.0
 11
393.20195122138
 21
205.0
 31
0.0
  0
LINE
  5
3F9
330
1F
100
AcDbEntity
  8
LAY-10
  6
CONTINUOUS
 62
     7
100
AcDbLine
 10
450.7980487786199
 20
205.0
 30
0.0
 11
451.79999999999
 21
206.0
 31
0.0
  0
LINE
  5
3FA
330
1F
100
AcDbEntity
  8
LAY-10
  6
CONTINUOUS
 62
     7
100
AcDbLine
 10
393.20195122138
 20
205.0
 30
0.0
 11
450.7980487786199
 21
205.0
 31
0.0
  0
LINE
  5
3FB
330
1F
100
AcDbEntity
  8
LAY-10
  6
CONTINUOUS
 62
     7
100
AcDbLine
 10
450.7980487786199
 20
187.0
 30
0.0
 11
450.7980487786199
 21
205.0
 31
0.0
  0
ARC
  5
3FC
330
1F
100
AcDbEntity
  8
LAY-10
  6
CONTINUOUS
 62
     7
100
AcDbCircle
 10
343.0
 20
206.0
 30
0.0
 40
5.0
100
AcDbArc
 50
180.0
 51
270.0000000000002
  0
ARC
  5
3FD
330
1F
100
AcDbEntity
  8
LAY-10
  6
HIDDEN
 62
     7
100
AcDbCircle
 10
343.0
 20
206.0
 30
0.0
 40
10.0
100
AcDbArc
 50
180.0
 51
270.0000000000002
  0
ARC
  5
3FE
330
1F
100
AcDbEntity
  8
LAY-10
  6
CONTINUOUS
 62
     7
100
AcDbCircle
 10
326.0
 20
199.0
 30
0.0
 40
3.000000000000002
100
AcDbArc
 50
180.0
 51
270.0000000000002
  0
LINE
  5
3FF
330
1F
100
AcDbEntity
  8
LAY-10
  6
CONTINUOUS
 62
     7
100
AcDbLine
 10
326.9999999999998
 20
215.3999999999992
 30
0.0
 11
326.9999999999998
 21
210.3999999999988
 31
0.0
  0
LINE
  5
400
330
1F
100
AcDbEntity
  8
LAY-10
  6
CONTINUOUS
 62
     7
100
AcDbLine
 10
332.9999999999998
 20
215.3999999999992
 30
0.0
 11
332.9999999999998
 21
210.3999999999988
 31
0.0
  0
LINE
  5
401
330
1F
100
AcDbEntity
  8
LAY-10
  6
CONTINUOUS
 62
     7
100
AcDbLine
 10
332.3999999999999
 20
210.999999999999
 30
0.0
 11
332.3999999999999
 21
186.599999999999
 31
0.0
  0
LINE
  5
402
330
1F
100
AcDbEntity
  8
LAY-10
  6
CONTINUOUS
 62
     7
100
AcDbLine
 10
327.5999999999997
 20
210.999999999999
 30
0.0
 11
327.5999999999997
 21
186.599999999999
 31
0.0
  0
LINE
  5
403
330
1F
100
AcDbEntity
  8
LAY-10
  6
CONTINUOUS
 62
     7
100
AcDbLine
 10
332.3999999999999
 20
186.599999999999
 30
0.0
 11
332.9999999999998
 21
185.999999999999
 31
0.0
  0
LINE
  5
404
330
1F
100
AcDbEntity
  8
LAY-10
  6
CONTINUOUS
 62
     7
100
AcDbLine
 10
327.5999999999997
 20
186.599999999999
 30
0.0
 11
326.9999999999998
 21
185.999999999999
 31
0.0
  0
LINE
  5
405
330
1F
100
AcDbEntity
  8
LAY-10
  6
CONTINUOUS
 62
     7
100
AcDbLine
 10
332.9999999999998
 20
186.599999999999
 30
0.0
 11
326.9999999999998
 21
186.599999999999
 31
0.0
  0
LINE
  5
406
330
1F
100
AcDbEntity
  8
LAY-10
  6
CONTINUOUS
 62
     7
100
AcDbLine
 10
327.5999999999997
 20
210.999999999999
 30
0.0
 11
332.3999999999999
 21
210.999999999999
 31
0.0
  0
LINE
  5
407
330
1F
100
AcDbEntity
  8
LAY-10
  6
CONTINUOUS
 62
     7
100
AcDbLine
 10
332.9999999999998
 20
210.399999999999
 30
0.0
 11
332.3999999999999
 21
210.999999999999
 31
0.0
  0
LINE
  5
408
330
1F
100
AcDbEntity
  8
LAY-10
  6
CONTINUOUS
 62
     7
100
AcDbLine
 10
326.9999999999998
 20
210.399999999999
 30
0.0
 11
327.5999999999997
 21
210.999999999999
 31
0.0
  0
LINE
  5
409
330
1F
100
AcDbEntity
  8
LAY-10
  6
CONTINUOUS
 62
     7
100
AcDbLine
 10
326.9999999999998
 20
210.399999999999
 30
0.0
 11
332.9999999999998
 21
210.399999999999
 31
0.0
  0
LINE
  5
40A
330
1F
100
AcDbEntity
  8
LAY-10
  6
CONTINUOUS
 62
     7
100
AcDbLine
 10
335.9999999999998
 20
185.999999999999
 30
0.0
 11
323.9999999999998
 21
185.999999999999
 31
0.0
  0
LINE
  5
40B
330
1F
100
AcDbEntity
  8
LAY-10
  6
CONTINUOUS
 62
     7
100
AcDbLine
 10
326.9999999999998
 20
215.3999999999992
 30
0.0
 11
332.9999999999998
 21
215.3999999999992
 31
0.0
  0
LINE
  5
40C
330
1F
100
AcDbEntity
  8
LAY-10
  6
CONTINUOUS
 62
     7
100
AcDbLine
 10
327.4999999999998
 20
216.1999999999991
 30
0.0
 11
332.4999999999998
 21
216.1999999999991
 31
0.0
  0
LINE
  5
40D
330
1F
100
AcDbEntity
  8
LAY-10
  6
CONTINUOUS
 62
     7
100
AcDbLine
 10
327.4999999999998
 20
216.1999999999958
 30
0.0
 11
326.9999999999998
 21
215.3999999999959
 31
0.0
  0
LINE
  5
40E
330
1F
100
AcDbEntity
  8
LAY-10
  6
CONTINUOUS
 62
     7
100
AcDbLine
 10
332.4999999999998
 20
216.1999999999958
 30
0.0
 11
332.9999999999998
 21
215.3999999999959
 31
0.0
  0
LINE
  5
40F
330
1F
100
AcDbEntity
  8
LAY-10
  6
CONTINUOUS
 62
     7
100
AcDbLine
 10
326.0
 20
196.0
 30
0.0
 11
326.9999999999998
 21
196.0
 31
0.0
  0
LINE
  5
410
330
1F
100
AcDbEntity
  8
LAY-10
  6
CENTER
 62
     2
100
AcDbLine
 10
422.0
 20
454.2256341095301
 30
0.0
 11
422.0
 21
723.2256341095299
 31
0.0
  0
LINE
  5
411
330
1F
100
AcDbEntity
  8
LAY-10
  6
CENTER
 62
     2
100
AcDbLine
 10
287.3016140969301
 20
586.0000000000202
 30
0.0
 11
556.30161409693
 21
586.00000000002
 31
0.0
  0
LINE
  5
412
330
1F
100
AcDbEntity
  8
LAY-10
  6
CENTER
 62
     2
100
AcDbLine
 10
422.0
 20
349.77436589049
 30
0.0
 11
422.0
 21
182.67436589049
 31
0.0
  0
LINE
  5
413
330
1F
100
AcDbEntity
  8
LAY-10
  6
CENTER
 62
     2
100
AcDbLine
 10
510.9999999999999
 20
281.0000000000001
 30
0.0
 11
537.7
 21
281.0000000000001
 31
0.0
  0
LINE
  5
414
330
1F
100
AcDbEntity
  8
LAY-10
  6
CENTER
 62
     2
100
AcDbLine
 10
328.000000000004
 20
317.17436589049
 30
0.0
 11
328.0000000000043
 21
349.67436589049
 31
0.0
  0
LINE
  5
415
330
1F
100
AcDbEntity
  8
LAY-10
  6
CENTER
 62
     2
100
AcDbLine
 10
329.9999999999998
 20
219.3743658904892
 30
0.0
 11
329.9999999999998
 21
180.0999999999989
 31
0.0
  0
LINE
  5
416
330
1F
100
AcDbEntity
  8
LAY-10
  6
CENTER
 62
     2
100
AcDbLine
 10
422.0000000000001
 20
454.2256341095401
 30
0.0
 11
422.0000000000001
 21
723.22563410954
 31
0.0
  0
LINE
  5
417
330
1F
100
AcDbEntity
  8
LAY-10
  6
CENTER
 62
     2
100
AcDbLine
 10
287.3016140969301
 20
586.0000000000302
 30
0.0
 11
556.30161409693
 21
586.00000000003
 31
0.0
  0
LINE
  5
418
330
1F
100
AcDbEntity
  8
LAY-10
  6
CENTER
 62
     2
100
AcDbLine
 10
348.3806306808113
 20
512.3806306808694
 30
0.0
 11
362.7806306808114
 21
526.7806306808695
 31
0.0
  0
ARC
  5
419
330
1F
100
AcDbEntity
  8
LAY-10
  6
CENTER
 62
     2
100
AcDbCircle
 10
422.0000000000001
 20
586.0000000000301
 30
0.0
 40
93.99999999995691
100
AcDbArc
 50
219.0567495543952
 51
231.1065579143895
  0
ARC
  5
41A
330
1F
100
AcDbEntity
  8
LAY-10
  6
CENTER
 62
     2
100
AcDbCircle
 10
422.0000000000001
 20
586.0000000000301
 30
0.0
 40
93.99999999995691
100
AcDbArc
 50
308.8934420856106
 51
320.9432504456046
  0
ARC
  5
41B
330
1F
100
AcDbEntity
  8
LAY-10
  6
CENTER
 62
     2
100
AcDbCircle
 10
422.0000000000001
 20
586.00000000003
 30
0.0
 40
93.99999999995691
100
AcDbArc
 50
39.05674955439541
 51
51.10655791438938
  0
ARC
  5
41C
330
1F
100
AcDbEntity
  8
LAY-10
  6
CENTER
 62
     2
100
AcDbCircle
 10
422.0000000000001
 20
586.00000000003
 30
0.0
 40
93.99999999995691
100
AcDbArc
 50
128.8934420856106
 51
140.9432504456047
  0
LINE
  5
41D
330
1F
100
AcDbEntity
  8
LAY-10
  6
CENTER
 62
     2
100
AcDbLine
 10
495.6193693191888
 20
512.3806306808694
 30
0.0
 11
481.2193693191887
 21
526.7806306808695
 31
0.0
  0
LINE
  5
41E
330
1F
100
AcDbEntity
  8
LAY-10
  6
CENTER
 62
     2
100
AcDbLine
 10
348.3806306808406
 20
659.619369319191
 30
0.0
 11
362.7806306808407
 21
645.219369319191
 31
0.0
  0
LINE
  5
41F
330
1F
100
AcDbEntity
  8
LAY-10
  6
CENTER
 62
     2
100
AcDbLine
 10
495.6193693191888
 20
659.619369319191
 30
0.0
 11
481.2193693191887
 21
645.219369319191
 31
0.0
  0
LINE
  5
420
330
1F
100
AcDbEntity
  8
LAY-10
  6
CENTER
 62
     2
100
AcDbLine
 10
917.648881245405
 20
629.7545967956592
 30
0.0
 11
849.448881245405
 21
629.7545967956592
 31
0.0
  0
LINE
  5
421
330
1F
100
AcDbEntity
  8
LAY-10
  6
CENTER
 62
     2
100
AcDbLine
 10
883.600000000004
 20
598.125
 30
0.0
 11
883.600000000004
 21
566.625
 31
0.0
  0
LINE
  5
422
330
1F
100
AcDbEntity
  8
LAY-10
  6
CENTER
 62
     2
100
AcDbLine
 10
883.600000000004
 20
645.325
 30
0.0
 11
883.600000000004
 21
614.225
 31
0.0
  0
ARC
  5
423
330
1F
100
AcDbEntity
  8
LAY-10
  6
CONTINUOUS
 62
     7
100
AcDbCircle
 10
488.4680374315793
 20
519.5319625685001
 30
0.0
 40
12.00000000000001
100
AcDbArc
 50
45.73145535144518
 51
224.2685446485283
  0
DIMENSION
  5
425
330
1F
100
AcDbEntity
  8
LAY-20
  6
CONTINUOUS
 62
     4
100
AcDbDimension
  2
*D17
 10
314.0000000000201
 20
373.9999999999999
 30
0.0
 11
422.00000000002
 21
381.4999999999999
 31
0.0
 70
   160
  1
%%c216
  3
ISO-25
100
AcDbAlignedDimension
 13
530.00000000002
 23
346.0
 33
0.0
 14
314.0000000000201
 24
346.0
 34
0.0
100
AcDbRotatedDimension
1001
ACAD
1000
DSTYLE
1002
{
1070
   270
1070
     2
1070
     6
1000
EX_BNORM
1070
     7
1000
EX_BNORM
1070
    41
1040
9.0
1070
    42
1040
4.5
1070
    44
1040
4.5
1070
    73
1070
     0
1070
    74
1070
     0
1070
    75
1070
     0
1070
    76
1070
     0
1070
    77
1070
     1
1070
    78
1070
     8
1070
   140
1040
9.3543312
1070
   147
1040
0.0
1070
   173
1070
     1
1070
   176
1070
     4
1070
   177
1070
     4
1070
   178
1070
     7
1070
   271
1070
     1
1070
   277
1070
     2
1070
   279
1070
     2
1070
   280
1070
     0
1070
   287
1070
     5
1070
   340
1005
424
1002
}
  0
DIMENSION
  5
433
330
1F
100
AcDbEntity
  8
LAY-20
  6
CONTINUOUS
 62
     4
100
AcDbDimension
  2
*D18
 10
302.0
 20
393.9999999999999
 30
0.0
 11
422.0
 21
401.4999999999999
 31
0.0
 70
   160
  1
%%c240
  3
ISO-25
100
AcDbAlignedDimension
 13
542.0
 23
346.0
 33
0.0
 14
302.0
 24
346.0
 34
0.0
100
AcDbRotatedDimension
1001
ACAD
1000
DSTYLE
1002
{
1070
   270
1070
     2
1070
     6
1000
EX_BNORM
1070
     7
1000
EX_BNORM
1070
    41
1040
9.0
1070
    42
1040
4.5
1070
    44
1040
4.5
1070
    73
1070
     0
1070
    74
1070
     0
1070
    75
1070
     0
1070
    76
1070
     0
1070
    77
1070
     1
1070
    78
1070
     8
1070
   140
1040
9.3543312
1070
   147
1040
0.0
1070
   173
1070
     1
1070
   176
1070
     4
1070
   177
1070
     4
1070
   178
1070
     7
1070
   271
1070
     1
1070
   277
1070
     2
1070
   279
1070
     2
1070
   280
1070
     0
1070
   287
1070
     5
1070
   340
1005
424
1002
}
  0
DIMENSION
  5
440
330
1F
100
AcDbEntity
  8
LAY-20
  6
CONTINUOUS
 62
     4
100
AcDbDimension
  2
*D19
 10
590.0
 20
281.0
 30
0.0
 11
582.5
 21
313.5
 31
0.0
 70
   160
  1
65
  3
ISO-25
100
AcDbAlignedDimension
 13
590.0
 23
346.0
 33
0.0
 14
537.7
 24
281.0
 34
0.0
 50
90.0
100
AcDbRotatedDimension
1001
ACAD
1000
DSTYLE
1002
{
1070
   270
1070
     2
1070
     6
1000
EX_BNORM
1070
     7
1000
EX_BNORM
1070
    41
1040
9.0
1070
    42
1040
4.5
1070
    44
1040
4.5
1070
    73
1070
     0
1070
    74
1070
     0
1070
    75
1070
     1
1070
    76
1070
     0
1070
    77
1070
     1
1070
    78
1070
     8
1070
   140
1040
9.3543312
1070
   147
1040
0.0
1070
   173
1070
     1
1070
   176
1070
     4
1070
   177
1070
     4
1070
   178
1070
     7
1070
   271
1070
     1
1070
   277
1070
     2
1070
   279
1070
     2
1070
   280
1070
     0
1070
   287
1070
     5
1070
   340
1005
424
1002
}
  0
DIMENSION
  5
44C
330
1F
100
AcDbEntity
  8
LAY-20
  6
CONTINUOUS
 62
     4
100
AcDbDimension
  2
*D20
 10
610.0
 20
186.0
 30
0.0
 11
602.5
 21
266.0
 31
0.0
 70
   160
  1
160
  3
ISO-25
100
AcDbAlignedDimension
 13
542.0
 23
346.0
 33
0.0
 14
457.5
 24
186.0
 34
0.0
 50
90.0
100
AcDbRotatedDimension
1001
ACAD
1000
DSTYLE
1002
{
1070
   270
1070
     2
1070
     6
1000
EX_BNORM
1070
     7
1000
EX_BNORM
1070
    41
1040
9.0
1070
    42
1040
4.5
1070
    44
1040
4.5
1070
    73
1070
     0
1070
    74
1070
     0
1070
    75
1070
     0
1070
    76
1070
     0
1070
    77
1070
     1
1070
    78
1070
     8
1070
   140
1040
9.3543312
1070
   147
1040
0.0
1070
   173
1070
     1
1070
   176
1070
     4
1070
   177
1070
     4
1070
   178
1070
     7
1070
   271
1070
     1
1070
   277
1070
     2
1070
   279
1070
     2
1070
   280
1070
     0
1070
   287
1070
     5
1070
   340
1005
424
1002
}
  0
DIMENSION
  5
459
330
1F
100
AcDbEntity
  8
LAY-20
  6
CONTINUOUS
 62
     4
100
AcDbDimension
  2
*D21
 10
570.0
 20
267.5
 30
0.0
 11
562.5
 21
281.0
 31
0.0
 70
   160
  1
%%c27
  3
ISO-25
100
AcDbAlignedDimension
 13
527.0
 23
294.5
 33
0.0
 14
527.0
 24
267.5
 34
0.0
 50
90.0
100
AcDbRotatedDimension
1001
ACAD
1000
DSTYLE
1002
{
1070
   270
1070
     2
1070
     6
1000
EX_BNORM
1070
     7
1000
EX_BNORM
1070
    41
1040
9.0
1070
    42
1040
4.5
1070
    44
1040
4.5
1070
    73
1070
     0
1070
    74
1070
     0
1070
    75
1070
     0
1070
    76
1070
     0
1070
    77
1070
     1
1070
    78
1070
     8
1070
   140
1040
9.3543312
1070
   147
1040
0.0
1070
   173
1070
     1
1070
   176
1070
     4
1070
   177
1070
     4
1070
   178
1070
     7
1070
   271
1070
     1
1070
   277
1070
     2
1070
   279
1070
     2
1070
   280
1070
     0
1070
   287
1070
     5
1070
   340
1005
424
1002
}
  0
DIMENSION
  5
466
330
1F
100
AcDbEntity
  8
LAY-20
  6
CONTINUOUS
 62
     4
100
AcDbDimension
  2
*D22
 10
451.7999999999999
 20
158.0
 30
0.0
 11
422.0
 21
165.5
 31
0.0
 70
   160
  1
Rp2（59.6）
  3
ISO-25
100
AcDbAlignedDimension
 13
392.2
 23
185.99999999999
 33
0.0
 14
451.7999999999999
 24
185.99999999999
 34
0.0
100
AcDbRotatedDimension
1001
ACAD
1000
DSTYLE
1002
{
1070
   270
1070
     2
1070
     6
1000
EX_BNORM
1070
     7
1000
EX_BNORM
1070
    41
1040
9.0
1070
    42
1040
4.5
1070
    44
1040
4.5
1070
    73
1070
     0
1070
    74
1070
     0
1070
    75
1070
     0
1070
    76
1070
     0
1070
    77
1070
     1
1070
    78
1070
     8
1070
   140
1040
9.3543312
1070
   147
1040
0.0
1070
   173
1070
     1
1070
   176
1070
     4
1070
   177
1070
     4
1070
   178
1070
     7
1070
   271
1070
     1
1070
   277
1070
     2
1070
   279
1070
     2
1070
   280
1070
     0
1070
   287
1070
     5
1070
   340
1005
424
1002
}
  0
LINE
  5
473
330
1F
100
AcDbEntity
  8
LAY-255
  6
CONTINUOUS
 62
     7
100
AcDbLine
 10
1155.0
 20
66.0
 30
0.0
 11
855.0
 21
66.0
 31
0.0
  0
LINE
  5
474
330
1F
100
AcDbEntity
  8
LAY-255
  6
CONTINUOUS
 62
     7
100
AcDbLine
 10
15.0
 20
30.0
 30
0.0
 11
1155.0
 21
30.0
 31
0.0
  0
LINE
  5
475
330
1F
100
AcDbEntity
  8
LAY-255
  6
CONTINUOUS
 62
     7
100
AcDbLine
 10
15.0
 20
840.0
 30
0.0
 11
1155.0
 21
840.0
 31
0.0
  0
LINE
  5
476
330
1F
100
AcDbEntity
  8
LAY-255
  6
CONTINUOUS
 62
     7
100
AcDbLine
 10
15.0
 20
30.0
 30
0.0
 11
15.0
 21
840.0
 31
0.0
  0
LINE
  5
477
330
1F
100
AcDbEntity
  8
LAY-255
  6
CONTINUOUS
 62
     7
100
AcDbLine
 10
1155.0
 20
30.0
 30
0.0
 11
1155.0
 21
840.0
 31
0.0
  0
LINE
  5
478
330
1F
100
AcDbEntity
  8
LAY-255
  6
CONTINUOUS
 62
     4
100
AcDbLine
 10
855.0
 20
84.0
 30
0.0
 11
1155.0
 21
84.0
 31
0.0
  0
LINE
  5
479
330
1F
100
AcDbEntity
  8
LAY-255
  6
CONTINUOUS
 62
     7
100
AcDbLine
 10
855.0
 20
30.0
 30
0.0
 11
855.0
 21
201.0
 31
0.0
  0
LINE
  5
47A
330
1F
100
AcDbEntity
  8
LAY-255
  6
CONTINUOUS
 62
     4
100
AcDbLine
 10
1005.0
 20
84.0
 30
0.0
 11
1005.0
 21
66.0
 31
0.0
  0
LINE
  5
47B
330
1F
100
AcDbEntity
  8
LAY-255
  6
CONTINUOUS
 62
     7
100
AcDbLine
 10
1155.0
 20
201.0
 30
0.0
 11
855.0
 21
201.0
 31
0.0
  0
LINE
  5
47C
330
1F
100
AcDbEntity
  8
LAY-255
  6
CONTINUOUS
 62
     4
100
AcDbLine
 10
1149.0
 20
165.0
 30
0.0
 11
861.0
 21
165.0
 31
0.0
  0
LINE
  5
47D
330
1F
100
AcDbEntity
  8
LAY-255
  6
CONTINUOUS
 62
     4
100
AcDbLine
 10
1149.0
 20
183.0
 30
0.0
 11
861.0
 21
183.0
 31
0.0
  0
POINT
  5
47E
330
1F
100
AcDbEntity
  8
LAY-255
  6
CONTINUOUS
 62
     7
100
AcDbPoint
 10
867.0
 20
150.0
 30
0.0
  0
POINT
  5
47F
330
1F
100
AcDbEntity
  8
LAY-255
  6
CONTINUOUS
 62
     7
100
AcDbPoint
 10
867.0
 20
120.0
 30
0.0
  0
POINT
  5
480
330
1F
100
AcDbEntity
  8
LAY-255
  6
CONTINUOUS
 62
     7
100
AcDbPoint
 10
867.0
 20
135.0
 30
0.0
  0
POINT
  5
481
330
1F
100
AcDbEntity
  8
LAY-255
  6
CONTINUOUS
 62
     7
100
AcDbPoint
 10
867.0
 20
105.0
 30
0.0
  0
POINT
  5
482
330
1F
100
AcDbEntity
  8
LAY-255
  6
CONTINUOUS
 62
     7
100
AcDbPoint
 10
867.0
 20
89.99999999999996
 30
0.0
  0
LINE
  5
483
330
1F
100
AcDbEntity
  8
LAY-255
  6
CONTINUOUS
 62
     7
100
AcDbLine
 10
866.4000000000001
 20
48.0
 30
0.0
 11
890.4000000000001
 21
63.0
 31
0.0
  0
LINE
  5
484
330
1F
100
AcDbEntity
  8
LAY-255
  6
CONTINUOUS
 62
     7
100
AcDbLine
 10
890.4000000000001
 20
63.0
 30
0.0
 11
914.4000000000001
 21
48.0
 31
0.0
  0
LINE
  5
485
330
1F
100
AcDbEntity
  8
LAY-255
  6
CONTINUOUS
 62
     7
100
AcDbLine
 10
914.4000000000001
 20
48.0
 30
0.0
 11
890.4000000000001
 21
33.0
 31
0.0
  0
LINE
  5
486
330
1F
100
AcDbEntity
  8
LAY-255
  6
CONTINUOUS
 62
     7
100
AcDbLine
 10
890.4000000000001
 20
33.0
 30
0.0
 11
866.4000000000001
 21
48.0
 31
0.0
  0
TEXT
  5
487
330
1F
100
AcDbEntity
  8
LAY-255
  6
CONTINUOUS
 62
     7
100
AcDbText
 10
924.415136826172
 20
46.63125
 30
0.0
 40
15.46875
  1
福西鋳物株式会社
 41
1.342692141742901
  7
EXCADSTD
100
AcDbText
  0
TEXT
  5
488
330
1F
100
AcDbEntity
  8
LAY-255
  6
CONTINUOUS
 62
     7
100
AcDbText
 10
925.528125
 20
35.94375
 30
0.0
 40
5.15625
  1
ＦＵＫＵＮＩＳＨＩ
 41
1.204799226045263
  7
EXCADSTD
100
AcDbText
  0
TEXT
  5
489
330
1F
100
AcDbEntity
  8
LAY-255
  6
CONTINUOUS
 62
     7
100
AcDbText
 10
998.1575892857143
 20
35.94375
 30
0.0
 40
5.15625
  1
ＦＯＵＮＤＲＹ
 41
1.243252752978497
  7
EXCADSTD
100
AcDbText
  0
TEXT
  5
48A
330
1F
100
AcDbEntity
  8
LAY-255
  6
CONTINUOUS
 62
     7
100
AcDbText
 10
1055.983774651442
 20
35.94375
 30
0.0
 40
5.15625
  1
ＣＯ.,ＬＴＤ.
 41
1.243831271314936
  7
EXCADSTD
100
AcDbText
  0
TEXT
  5
48B
330
1F
100
AcDbEntity
  8
LAY-255
  6
CONTINUOUS
 62
     7
100
AcDbText
 10
882.1031250000001
 20
41.15625
 30
0.0
 40
15.46875
  1
S
 41
0.7582677563636363
  7
EXCADSTD
100
AcDbText
  0
TEXT
  5
48C
330
1F
100
AcDbEntity
  8
LAY-255
  6
CONTINUOUS
 62
     7
100
AcDbText
 10
891.3140625000001
 20
41.24823113208
 30
0.0
 40
15.46875
  1
F
 41
0.7440945272727273
  7
EXCADSTD
100
AcDbText
  0
LINE
  5
48D
330
1F
100
AcDbEntity
  8
LAY-255
  6
CONTINUOUS
 62
     4
100
AcDbLine
 10
1005.0
 20
84.0
 30
0.0
 11
1005.0
 21
66.0
 31
0.0
  0
TEXT
  5
48E
330
1F
100
AcDbEntity
  8
LAY-255
  6
CONTINUOUS
 62
     7
100
AcDbText
 10
1011.31640625
 20
73.26562499999997
 30
0.0
 40
7.734375
  1
縮尺
 41
1.080708718181818
  7
EXCADSTD
100
AcDbText
  0
TEXT
  5
48F
330
1F
100
AcDbEntity
  8
LAY-255
  6
CONTINUOUS
 62
     7
100
AcDbText
 10
861.45703125
 20
73.26562499999997
 30
0.0
 40
7.734375
  1
作成日
 41
1.000629973818182
  7
EXCADSTD
100
AcDbText
  0
TEXT
  5
490
330
1F
100
AcDbEntity
  8
LAY-255
  6
CONTINUOUS
 62
     7
100
AcDbText
 10
902.671875
 20
70.68749999999997
 30
0.0
 40
10.3125
  1
０７／０６／２７
 41
0.9733971264935064
  7
EXCADSTD
100
AcDbText
  0
TEXT
  5
491
330
1F
100
AcDbEntity
  8
LAY-255
  6
CONTINUOUS
 62
     7
100
AcDbText
 10
1044.84375
 20
70.68749999999997
 30
0.0
 40
10.3125
  1
１：３
 41
0.8844094952727272
  7
EXCADSTD
100
AcDbText
  0
TEXT
  5
492
330
1F
100
AcDbEntity
  8
LAY-255
  6
CONTINUOUS
 62
     7
100
AcDbText
 10
862.8209838867188
 20
187.6875
 30
0.0
 40
10.3125
  1
品名
 41
1.132958659410511
  7
EXCADSTD
100
AcDbText
  0
TEXT
  5
493
330
1F
100
AcDbEntity
  8
LAY-255
  6
CONTINUOUS
 62
     7
100
AcDbText
 10
862.1486206054688
 20
169.6875
 30
0.0
 40
10.3125
  1
型式
 41
1.244136845614346
  7
EXCADSTD
100
AcDbText
  0
POINT
  5
494
330
1F
100
AcDbEntity
  8
LAY-255
  6
CONTINUOUS
 62
     7
100
AcDbPoint
 10
906.6
 20
168.0
 30
0.0
  0
POINT
  5
495
330
1F
100
AcDbEntity
  8
LAY-255
  6
CONTINUOUS
 62
     7
100
AcDbPoint
 10
906.6
 20
186.0
 30
0.0
  0
TEXT
  5
496
330
1F
100
AcDbEntity
  8
LAY-255
  6
CONTINUOUS
 62
     7
100
AcDbText
 10
868.4970593554688
 20
151.6875
 30
0.0
 40
10.3125
  1
防水：簡易防水型
 41
1.132769949403411
  7
EXCADSTD
100
AcDbText
  0
TEXT
  5
497
330
1F
100
AcDbEntity
  8
LAY-255
  6
CONTINUOUS
 62
     7
100
AcDbText
 10
907.8879749609375
 20
169.6875
 30
0.0
 40
10.3125
  1
EHB－N型
 41
1.012820002274283
  7
EXCADSTD
100
AcDbText
  0
TEXT
  5
498
330
1F
100
AcDbEntity
  8
LAY-255
  6
CONTINUOUS
 62
     7
100
AcDbText
 10
907.854883125
 20
187.6875
 30
0.0
 40
10.3125
  1
電極保持用ボックス
 41
1.133434812723421
  7
EXCADSTD
100
AcDbText
  0
ENDSEC
  0
SECTION
  2
OBJECTS
  0
DICTIONARY
  5
C
330
0
100
AcDbDictionary
  3
ACAD_GROUP
350
D
  3
ACAD_LAYOUT
350
1A
  3
ACAD_MATERIAL
350
43
  3
ACAD_MLEADERSTYLE
350
6B
  3
ACAD_MLINESTYLE
350
17
  3
ACAD_PLOTSETTINGS
350
19
  3
ACAD_SCALELIST
350
47
  3
ACAD_VISUALSTYLE
350
2A
  3
ACDBHEADERROUNDTRIPXREC
350
499
  3
ACDBVARIABLEDICTIONARY
350
4BA
  0
DICTIONARY
  5
4C5
330
8
100
AcDbDictionary
280
     1
  3
ACAD_XREC_ROUNDTRIP
360
4C6
  0
DICTIONARY
  5
D
102
{ACAD_REACTORS
330
C
102
}
330
C
100
AcDbDictionary
  0
DICTIONARY
  5
1A
102
{ACAD_REACTORS
330
C
102
}
330
C
100
AcDbDictionary
  0
DICTIONARY
  5
43
102
{ACAD_REACTORS
330
C
102
}
330
C
100
AcDbDictionary
  3
BYBLOCK
350
45
  3
BYLAYER
350
44
  3
GLOBAL
350
46
  0
DICTIONARY
  5
6B
102
{ACAD_REACTORS
330
C
102
}
330
C
100
AcDbDictionary
  3
STANDARD
350
6C
  0
DICTIONARY
  5
17
102
{ACAD_REACTORS
330
C
102
}
330
C
100
AcDbDictionary
  3
STANDARD
350
18
  0
DICTIONARY
  5
19
102
{ACAD_REACTORS
330
C
102
}
330
C
100
AcDbDictionary
  0
DICTIONARY
  5
47
102
{ACAD_REACTORS
330
C
102
}
330
C
100
AcDbDictionary
  3
A0
350
48
  3
A1
350
49
  3
A2
350
4A
  3
A3
350
4B
  3
A4
350
4C
  3
A5
350
4D
  3
A6
350
4E
  3
A7
350
4F
  3
A8
350
50
  3
A9
350
51
  3
B0
350
52
  3
B1
350
53
  3
B2
350
54
  3
B3
350
55
  3
B4
350
56
  3
B5
350
57
  3
B6
350
58
  3
B7
350
59
  3
B8
350
5A
  3
B9
350
5B
  3
C0
350
5C
  3
C1
350
5D
  3
C2
350
5E
  3
C3
350
5F
  3
C4
350
60
  3
C5
350
61
  3
C6
350
62
  3
C7
350
63
  3
C8
350
64
  3
C9
350
65
  3
D0
350
66
  3
D1
350
67
  3
D2
350
68
  0
DICTIONARY
  5
2A
102
{ACAD_REACTORS
330
C
102
}
330
C
100
AcDbDictionary
  3
2DWIREFRAME
350
2F
  3
BASIC
350
32
  3
BRIGHTEN
350
36
  3
COLORCHANGE
350
3A
  3
CONCEPTUAL
350
34
  3
DIM
350
35
  3
EDGECOLOROFF
350
3D
  3
FACEPATTERN
350
39
  3
FLAT
350
2B
  3
FLATWITHEDGES
350
2C
  3
GOURAUD
350
2D
  3
GOURAUDWITHEDGES
350
2E
  3
HIDDEN
350
31
  3
JITTEROFF
350
3B
  3
LINEPATTERN
350
38
  3
OVERHANGOFF
350
3C
  3
REALISTIC
350
33
  3
SHADED
350
42
  3
SHADED_WITH_EDGES
350
41
  3
SHADES_OF_GRAY
350
3E
  3
SKETCHY
350
3F
  3
THICKEN
350
37
  3
WIREFRAME
350
30
  3
X-RAY
350
40
  0
DICTIONARY
  5
499
102
{ACAD_REACTORS
330
C
102
}
330
C
100
AcDbDictionary
  3
CEPSNID
350
4A3
  3
CEPSNTYPE
350
4A2
  3
DIMSTYLEDATA
350
4B9
  3
FINGERPRINTGUID
350
4A4
  3
HYPERLINKBASE
350
49C
  3
INSUNITS
350
4A1
  3
LAYOUTDICT
350
49E
  3
LWETCUNION
350
4A0
  3
PLOTSETDICT
350
49F
  3
PSVPSCALE
350
4A6
  3
PUCSBASE
350
4A9
  3
PUCSORGBACK
350
4AF
  3
PUCSORGBOTTOM
350
4AB
  3
PUCSORGFRONT
350
4AE
  3
PUCSORGLEFT
350
4AC
  3
PUCSORGRIGHT
350
4AD
  3
PUCSORGTOP
350
4AA
  3
PUCSORTHOREF
350
4A7
  3
PUCSORTHOVIEW
350
4A8
  3
STYLESHEET
350
49D
  3
TSTACKALIGN
350
49A
  3
TSTACKSIZE
350
49B
  3
UCSBASE
350
4B2
  3
UCSORGBACK
350
4B8
  3
UCSORGBOTTOM
350
4B4
  3
UCSORGFRONT
350
4B7
  3
UCSORGLEFT
350
4B5
  3
UCSORGRIGHT
350
4B6
  3
UCSORGTOP
350
4B3
  3
UCSORTHOREF
350
4B0
  3
UCSORTHOVIEW
350
4B1
  3
VERSIONGUID
350
4A5
  0
DICTIONARY
  5
4BA
102
{ACAD_REACTORS
330
C
102
}
330
C
100
AcDbDictionary
  3
CANNOSCALE
350
4C7
  3
CENTEREXE
350
4C1
  3
CENTERLTYPEFILE
350
4C2
  3
CMLEADERSTYLE
350
4BC
  3
CTABLESTYLE
350
4BB
  3
DIMASSOC
350
4C3
  3
HIDETEXT
350
4C4
  3
MSLTSCALE
350
4C8
  3
PSOLHEIGHT
350
4BE
  3
PSOLWIDTH
350
4BD
  0
XRECORD
  5
4C6
102
{ACAD_REACTORS
330
4C5
102
}
330
4C5
100
AcDbXrecord
102
VTR_0.000_0.000_1.000_1.000_VISUALSTYLE
340
2F
102
VTR_0.000_0.000_1.000_1.000_GRIDDISPLAY
 70
     3
102
VTR_0.000_0.000_1.000_1.000_GRIDMAJOR
 70
     5
102
VTR_0.000_0.000_1.000_1.000_DEFAULTLIGHTING
280
     1
102
VTR_0.000_0.000_1.000_1.000_DEFAULTLIGHTINGTYPE
 70
     1
102
VTR_0.000_0.000_1.000_1.000_BRIGHTNESS
141
0.0
102
VTR_0.000_0.000_1.000_1.000_CONTRAST
142
0.0
  0
MATERIAL
  5
45
102
{ACAD_REACTORS
330
43
102
}
102
{ACAD_XDICTIONARY
360
4CB
102
}
330
43
100
AcDbMaterial
  1
BYBLOCK
  0
MATERIAL
  5
44
102
{ACAD_REACTORS
330
43
102
}
102
{ACAD_XDICTIONARY
360
4C9
102
}
330
43
100
AcDbMaterial
  1
BYLAYER
  0
MATERIAL
  5
46
102
{ACAD_REACTORS
330
43
102
}
102
{ACAD_XDICTIONARY
360
4CD
102
}
330
43
100
AcDbMaterial
  1
GLOBAL
  0
ACAD_PROXY_OBJECT
  5
6C
102
{ACAD_REACTORS
330
6B
102
}
330
6B
100
AcDbProxyObject
 90
      499
 91
      505
 93
      610
310
40901902A4063FBFFFFFE0000000000000020400000000000020404214DD185B99185C990000000000000104090141901A00000000000004100000000000000041025764000000000000039000
340
14
340
0
340
11
340
0
 94
        0
1001
ACAD_MLEADERVER
1070
     2
  0
MLINESTYLE
  5
18
102
{ACAD_REACTORS
330
17
102
}
330
17
100
AcDbMlineStyle
  2
Standard
 70
     0
  3

 62
   256
 51
90.0
 52
90.0
 71
     2
 49
0.5
 62
   256
  6
BYLAYER
 49
-0.5
 62
   256
  6
BYLAYER
  0
ACAD_PROXY_OBJECT
  5
48
102
{ACAD_REACTORS
330
47
102
}
330
47
100
AcDbProxyObject
 90
      499
 91
      503
 93
       41
310
903313A31580
  0
ACAD_PROXY_OBJECT
  5
49
102
{ACAD_REACTORS
330
47
102
}
330
47
100
AcDbProxyObject
 90
      499
 91
      503
 93
      105
310
903313A324000000000000004000
  0
ACAD_PROXY_OBJECT
  5
4A
102
{ACAD_REACTORS
330
47
102
}
330
47
100
AcDbProxyObject
 90
      499
 91
      503
 93
      105
310
903313A344000000000000104000
  0
ACAD_PROXY_OBJECT
  5
4B
102
{ACAD_REACTORS
330
47
102
}
330
47
100
AcDbProxyObject
 90
      499
 91
      503
 93
      105
310
903313A354000000000000144000
  0
ACAD_PROXY_OBJECT
  5
4C
102
{ACAD_REACTORS
330
47
102
}
330
47
100
AcDbProxyObject
 90
      499
 91
      503
 93
      105
310
903313A384000000000000204000
  0
ACAD_PROXY_OBJECT
  5
4D
102
{ACAD_REACTORS
330
47
102
}
330
47
100
AcDbProxyObject
 90
      499
 91
      503
 93
      113
310
904313A31304000000000000244000
  0
ACAD_PROXY_OBJECT
  5
4E
102
{ACAD_REACTORS
330
47
102
}
330
47
100
AcDbProxyObject
 90
      499
 91
      503
 93
      113
310
904313A31364000000000000304000
  0
ACAD_PROXY_OBJECT
  5
4F
102
{ACAD_REACTORS
330
47
102
}
330
47
100
AcDbProxyObject
 90
      499
 91
      503
 93
      113
310
904313A32304000000000000344000
  0
ACAD_PROXY_OBJECT
  5
50
102
{ACAD_REACTORS
330
47
102
}
330
47
100
AcDbProxyObject
 90
      499
 91
      503
 93
      113
310
904313A333040000000000003E4000
  0
ACAD_PROXY_OBJECT
  5
51
102
{ACAD_REACTORS
330
47
102
}
330
47
100
AcDbProxyObject
 90
      499
 91
      503
 93
      113
310
904313A34304000000000000444000
  0
ACAD_PROXY_OBJECT
  5
52
102
{ACAD_REACTORS
330
47
102
}
330
47
100
AcDbProxyObject
 90
      499
 91
      503
 93
      113
310
904313A35304000000000000494000
  0
ACAD_PROXY_OBJECT
  5
53
102
{ACAD_REACTORS
330
47
102
}
330
47
100
AcDbProxyObject
 90
      499
 91
      503
 93
      121
310
905313A3130304000000000000594000
  0
ACAD_PROXY_OBJECT
  5
54
102
{ACAD_REACTORS
330
47
102
}
330
47
100
AcDbProxyObject
 90
      499
 91
      503
 93
      105
310
903323A310000000000000010100
  0
ACAD_PROXY_OBJECT
  5
55
102
{ACAD_REACTORS
330
47
102
}
330
47
100
AcDbProxyObject
 90
      499
 91
      503
 93
      105
310
903343A310000000000000410100
  0
ACAD_PROXY_OBJECT
  5
56
102
{ACAD_REACTORS
330
47
102
}
330
47
100
AcDbProxyObject
 90
      499
 91
      503
 93
      105
310
903383A310000000000000810100
  0
ACAD_PROXY_OBJECT
  5
57
102
{ACAD_REACTORS
330
47
102
}
330
47
100
AcDbProxyObject
 90
      499
 91
      503
 93
      113
310
90431303A310000000000000910100
  0
ACAD_PROXY_OBJECT
  5
58
102
{ACAD_REACTORS
330
47
102
}
330
47
100
AcDbProxyObject
 90
      499
 91
      503
 93
      121
310
9053130303A310000000000001650100
  0
ACAD_PROXY_OBJECT
  5
59
102
{ACAD_REACTORS
330
47
102
}
330
47
100
AcDbProxyObject
 90
      499
 91
      503
 93
      257
310
90E312F31323822203D2031272D3022000000000000200FC000000000000284000
  0
ACAD_PROXY_OBJECT
  5
5A
102
{ACAD_REACTORS
330
47
102
}
330
47
100
AcDbProxyObject
 90
      499
 91
      503
 93
      249
310
90D312F363422203D2031272D3022000000000000240FC000000000000284000
  0
ACAD_PROXY_OBJECT
  5
5B
102
{ACAD_REACTORS
330
47
102
}
330
47
100
AcDbProxyObject
 90
      499
 91
      503
 93
      249
310
90D312F333222203D2031272D3022000000000000280FC000000000000284000
  0
ACAD_PROXY_OBJECT
  5
5C
102
{ACAD_REACTORS
330
47
102
}
330
47
100
AcDbProxyObject
 90
      499
 91
      503
 93
      249
310
90D312F313622203D2031272D30220000000000002C0FC000000000000284000
  0
ACAD_PROXY_OBJECT
  5
5D
102
{ACAD_REACTORS
330
47
102
}
330
47
100
AcDbProxyObject
 90
      499
 91
      503
 93
      249
310
90D332F333222203D2031272D30220000000000002E0FC000000000000284000
  0
ACAD_PROXY_OBJECT
  5
5E
102
{ACAD_REACTORS
330
47
102
}
330
47
100
AcDbProxyObject
 90
      499
 91
      503
 93
      241
310
90C312F3822203D2031272D3022000000000000300FC000000000000284000
  0
ACAD_PROXY_OBJECT
  5
5F
102
{ACAD_REACTORS
330
47
102
}
330
47
100
AcDbProxyObject
 90
      499
 91
      503
 93
      249
310
90D332F313622203D2031272D3022000000000000320FC000000000000284000
  0
ACAD_PROXY_OBJECT
  5
60
102
{ACAD_REACTORS
330
47
102
}
330
47
100
AcDbProxyObject
 90
      499
 91
      503
 93
      241
310
90C312F3422203D2031272D3022000000000000340FC000000000000284000
  0
ACAD_PROXY_OBJECT
  5
61
102
{ACAD_REACTORS
330
47
102
}
330
47
100
AcDbProxyObject
 90
      499
 91
      503
 93
      241
310
90C332F3822203D2031272D3022000000000000360FC000000000000284000
  0
ACAD_PROXY_OBJECT
  5
62
102
{ACAD_REACTORS
330
47
102
}
330
47
100
AcDbProxyObject
 90
      499
 91
      503
 93
      241
310
90C312F3222203D2031272D3022000000000000380FC000000000000284000
  0
ACAD_PROXY_OBJECT
  5
63
102
{ACAD_REACTORS
330
47
102
}
330
47
100
AcDbProxyObject
 90
      499
 91
      503
 93
      241
310
90C332F3422203D2031272D30220000000000003A0FC000000000000284000
  0
ACAD_PROXY_OBJECT
  5
64
102
{ACAD_REACTORS
330
47
102
}
330
47
100
AcDbProxyObject
 90
      499
 91
      503
 93
      161
310
90A3122203D2031272D30224000000000000284000
  0
ACAD_PROXY_OBJECT
  5
65
102
{ACAD_REACTORS
330
47
102
}
330
47
100
AcDbProxyObject
 90
      499
 91
      503
 93
      257
310
90E312D312F3222203D2031272D30220000000000003E0FC000000000000284000
  0
ACAD_PROXY_OBJECT
  5
66
102
{ACAD_REACTORS
330
47
102
}
330
47
100
AcDbProxyObject
 90
      499
 91
      503
 93
      225
310
90A3322203D2031272D302200000000000002100000000000000284000
  0
ACAD_PROXY_OBJECT
  5
67
102
{ACAD_REACTORS
330
47
102
}
330
47
100
AcDbProxyObject
 90
      499
 91
      503
 93
      225
310
90A3622203D2031272D302200000000000006100000000000000284000
  0
ACAD_PROXY_OBJECT
  5
68
102
{ACAD_REACTORS
330
47
102
}
330
47
100
AcDbProxyObject
 90
      499
 91
      503
 93
      249
310
90D31272D3022203D2031272D30220000000000000A100000000000000284000
  0
ACAD_PROXY_OBJECT
  5
2F
102
{ACAD_REACTORS
330
2A
102
}
330
2A
100
AcDbProxyObject
 90
      499
 91
      501
 93
      436
310
42CC9915DA5C99599C985B595049028333333333333E33F0000000000000F90107901411070040501600405405064090741402480A0340
1001
ACAD
1000
AcDbSavedByObjectVersion
1070
     0
  0
ACAD_PROXY_OBJECT
  5
32
102
{ACAD_REACTORS
330
2A
102
}
330
2A
100
AcDbProxyObject
 90
      499
 91
      501
 93
      388
310
4150985CDA58D07406404333333333333E33F0000000000000F90107A41107004050150841D405064090741402480A0350
1001
ACAD
1000
AcDbSavedByObjectVersion
1070
     0
  0
ACAD_PROXY_OBJECT
  5
36
102
{ACAD_REACTORS
330
2A
102
}
330
2A
100
AcDbProxyObject
 90
      499
 91
      501
 93
      428
310
42109C9A59DA1D195B90C409028333333333333E33F0000000000000F9010790141107004050150841D405064090741402480A029950
1001
ACAD
1000
AcDbSavedByObjectVersion
1070
     0
  0
ACAD_PROXY_OBJECT
  5
3A
102
{ACAD_REACTORS
330
2A
102
}
330
2A
100
AcDbProxyObject
 90
      499
 91
      501
 93
      452
310
42D0DBDB1BDC90DA185B99D95104090240C333333333333E33F0000000000000F90108901411070040501508421405064090741402480A0350
1001
ACAD
1000
AcDbSavedByObjectVersion
1070
     0
  0
ACAD_PROXY_OBJECT
  5
34
102
{ACAD_REACTORS
330
2A
102
}
330
2A
100
AcDbProxyObject
 90
      499
 91
      501
 93
      500
310
4290DBDB98D95C1D1D585B10940D028333333333333E33F0000000000000F90107902409070040501000000000018199010841D405064090740C02480A0340
1001
ACAD
1000
AcDbSavedByObjectVersion
1070
     0
  0
ACAD_PROXY_OBJECT
  5
35
102
{ACAD_REACTORS
330
2A
102
}
330
2A
100
AcDbProxyObject
 90
      499
 91
      501
 93
      412
310
40D11A5B50B409028333333333333E33F0000000000000F9010790141107004050150841D405064090741402480A02677FFFFFD0
1001
ACAD
1000
AcDbSavedByObjectVersion
1070
     0
  0
ACAD_PROXY_OBJECT
  5
3D
102
{ACAD_REACTORS
330
2A
102
}
330
2A
100
AcDbProxyObject
 90
      499
 91
      501
 93
      452
310
43115919D950DBDB1BDC93D999916409028333333333333E33F0000000000000F9010790141107004050150841D405064090741402480A0350
1001
ACAD
1000
AcDbSavedByObjectVersion
1070
     0
  0
ACAD_PROXY_OBJECT
  5
39
102
{ACAD_REACTORS
330
2A
102
}
330
2A
100
AcDbProxyObject
 90
      499
 91
      501
 93
      444
310
42D19858D95C185D1D195C9B90F409028333333333333E33F0000000000000F9010790141107004050150841D405064090741402480A0350
1001
ACAD
1000
AcDbSavedByObjectVersion
1070
     0
  0
ACAD_PROXY_OBJECT
  5
2B
102
{ACAD_REACTORS
330
2A
102
}
330
2A
100
AcDbProxyObject
 90
      499
 91
      501
 93
      380
310
41119B185D240901404333333333333E33F0000000000000F9010740A907004050150841D405064090741402480A1B50
1001
ACAD
1000
AcDbSavedByObjectVersion
1070
     0
  0
ACAD_PROXY_OBJECT
  5
2C
102
{ACAD_REACTORS
330
2A
102
}
330
2A
100
AcDbProxyObject
 90
      499
 91
      501
 93
      468
310
43519B185D15DA5D1A115919D95CD0140901404333333333333E33F0000000000000F90107409019070040501600405405064090741402480A1B50
1001
ACAD
1000
AcDbSavedByObjectVersion
1070
     0
  0
ACAD_PROXY_OBJECT
  5
2D
102
{ACAD_REACTORS
330
2A
102
}
330
2A
100
AcDbProxyObject
 90
      499
 91
      501
 93
      404
310
41D1DBDD5C985D5910240902404333333333333E33F0000000000000F9010740A9070040501641D405064090741402480A1B50
1001
ACAD
1000
AcDbSavedByObjectVersion
1070
     0
  0
ACAD_PROXY_OBJECT
  5
2E
102
{ACAD_REACTORS
330
2A
102
}
330
2A
100
AcDbProxyObject
 90
      499
 91
      501
 93
      492
310
4411DBDD5C985D5915DA5D1A115919D95CD0340902404333333333333E33F0000000000000F90107409019070040501600405405064090741402480A1B50
1001
ACAD
1000
AcDbSavedByObjectVersion
1070
     0
  0
ACAD_PROXY_OBJECT
  5
31
102
{ACAD_REACTORS
330
2A
102
}
330
2A
100
AcDbProxyObject
 90
      499
 91
      501
 93
      476
310
41921A5919195B90640502408333333333333E33F0000000000000F901079024090700405020000000000001110200405405064090740C02480A0340
1001
ACAD
1000
AcDbSavedByObjectVersion
1070
     0
  0
ACAD_PROXY_OBJECT
  5
3B
102
{ACAD_REACTORS
330
2A
102
}
330
2A
100
AcDbProxyObject
 90
      499
 91
      501
 93
      428
310
42529A5D1D195C93D999914409028333333333333E33F0000000000000F9010790141107004050150A41D405064090741402480A0350
1001
ACAD
1000
AcDbSavedByObjectVersion
1070
     0
  0
ACAD_PROXY_OBJECT
  5
38
102
{ACAD_REACTORS
330
2A
102
}
330
2A
100
AcDbProxyObject
 90
      499
 91
      501
 93
      444
310
42D31A5B995C185D1D195C9B90E409028333333333333E33F0000000000000F9010790141107004050750841D405064090741402483A0350
1001
ACAD
1000
AcDbSavedByObjectVersion
1070
     0
  0
ACAD_PROXY_OBJECT
  5
3C
102
{ACAD_REACTORS
330
2A
102
}
330
2A
100
AcDbProxyObject
 90
      499
 91
      501
 93
      444
310
42D3DD995C9A185B99D3D999915409028333333333333E33F0000000000000F9010790141107004050150941D405064090741402480A0350
1001
ACAD
1000
AcDbSavedByObjectVersion
1070
     0
  0
ACAD_PROXY_OBJECT
  5
33
102
{ACAD_REACTORS
330
2A
102
}
330
2A
100
AcDbProxyObject
 90
      499
 91
      501
 93
      428
310
425499585B1A5CDD1A58D08409038333333333333E33F0000000000000F9010740A907004050150800405405064090740C02480A1B40
1001
ACAD
1000
AcDbSavedByObjectVersion
1070
     0
  0
ACAD_PROXY_OBJECT
  5
42
102
{ACAD_REACTORS
330
2A
102
}
330
2A
100
AcDbProxyObject
 90
      499
 91
      501
 93
      420
310
4194DA1859195911B40902404333333333333E33F0000000000000F9010740A41107004050150800405405064090840C02480A0B40
1001
ACAD
1000
AcDbSavedByObjectVersion
1070
     0
  0
ACAD_PROXY_OBJECT
  5
41
102
{ACAD_REACTORS
330
2A
102
}
330
2A
100
AcDbProxyObject
 90
      499
 91
      501
 93
      516
310
4454DA18591959081DDA5D1A08195919D95CD1A40902404333333333333E33F0000000000000F901074090142907004050250800405405064090740C02480A0B40
1001
ACAD
1000
AcDbSavedByObjectVersion
1070
     0
  0
ACAD_PROXY_OBJECT
  5
3E
102
{ACAD_REACTORS
330
2A
102
}
330
2A
100
AcDbProxyObject
 90
      499
 91
      501
 93
      532
310
4394DA1859195CC81BD98811DC985E5174090240C333333333333E33F0000000000000F901079024090741D01000000000000111010841D405064090740C02480A0340
1001
ACAD
1000
AcDbSavedByObjectVersion
1070
     0
  0
ACAD_PROXY_OBJECT
  5
3F
102
{ACAD_REACTORS
330
2A
102
}
330
2A
100
AcDbProxyObject
 90
      499
 91
      501
 93
      476
310
41D4DAD95D18DA1E51840502408333333333333E33F0000000000000F901079024090741D01000000000000111010B41D405064090741802480A0340
1001
ACAD
1000
AcDbSavedByObjectVersion
1070
     0
  0
ACAD_PROXY_OBJECT
  5
37
102
{ACAD_REACTORS
330
2A
102
}
330
2A
100
AcDbProxyObject
 90
      499
 91
      501
 93
      412
310
41D51A1A58DAD95B90D409028333333333333E33F0000000000000F9010790141107004050150C41D405064090741402480A0350
1001
ACAD
1000
AcDbSavedByObjectVersion
1070
     0
  0
ACAD_PROXY_OBJECT
  5
30
102
{ACAD_REACTORS
330
2A
102
}
330
2A
100
AcDbProxyObject
 90
      499
 91
      501
 93
      420
310
4255DA5C99599C985B595059028333333333333E33F0000000000000F90107901411070040501600405405064090740C02480A0340
1001
ACAD
1000
AcDbSavedByObjectVersion
1070
     0
  0
ACAD_PROXY_OBJECT
  5
40
102
{ACAD_REACTORS
330
2A
102
}
330
2A
100
AcDbProxyObject
 90
      499
 91
      501
 93
      404
310
41560B54985E51940902404000000000000E03F0000000000000F9010740501907004050150841D405064090740C02480A1B40
1001
ACAD
1000
AcDbSavedByObjectVersion
1070
     0
  0
XRECORD
  5
4A3
102
{ACAD_REACTORS
330
499
102
}
330
499
100
AcDbXrecord
340
0
  0
XRECORD
  5
4A2
102
{ACAD_REACTORS
330
499
102
}
330
499
100
AcDbXrecord
 90
        0
  0
XRECORD
  5
4B9
102
{ACAD_REACTORS
330
499
102
}
330
499
100
AcDbXrecord
1000
DSTYLE
1002
{
1070
   340
340
11
1002
}
  0
XRECORD
  5
4A4
102
{ACAD_REACTORS
330
499
102
}
330
499
100
AcDbXrecord
  1
{a65490b6-79c3-40a7-93fd-ef1c5f6e19eb}
  0
XRECORD
  5
49C
102
{ACAD_REACTORS
330
499
102
}
330
499
100
AcDbXrecord
  1

  0
XRECORD
  5
4A1
102
{ACAD_REACTORS
330
499
102
}
330
499
100
AcDbXrecord
 90
        4
  0
XRECORD
  5
49E
102
{ACAD_REACTORS
330
499
102
}
330
499
100
AcDbXrecord
340
1A
  0
XRECORD
  5
4A0
102
{ACAD_REACTORS
330
499
102
}
330
499
100
AcDbXrecord
 90
    10781
  0
XRECORD
  5
49F
102
{ACAD_REACTORS
330
499
102
}
330
499
100
AcDbXrecord
340
19
  0
XRECORD
  5
4A6
102
{ACAD_REACTORS
330
499
102
}
330
499
100
AcDbXrecord
 40
0.0
  0
XRECORD
  5
4A9
102
{ACAD_REACTORS
330
499
102
}
330
499
100
AcDbXrecord
340
0
  0
XRECORD
  5
4AF
102
{ACAD_REACTORS
330
499
102
}
330
499
100
AcDbXrecord
 10
0.0
 20
0.0
 30
0.0
  0
XRECORD
  5
4AB
102
{ACAD_REACTORS
330
499
102
}
330
499
100
AcDbXrecord
 10
0.0
 20
0.0
 30
0.0
  0
XRECORD
  5
4AE
102
{ACAD_REACTORS
330
499
102
}
330
499
100
AcDbXrecord
 10
0.0
 20
0.0
 30
0.0
  0
XRECORD
  5
4AC
102
{ACAD_REACTORS
330
499
102
}
330
499
100
AcDbXrecord
 10
0.0
 20
0.0
 30
0.0
  0
XRECORD
  5
4AD
102
{ACAD_REACTORS
330
499
102
}
330
499
100
AcDbXrecord
 10
0.0
 20
0.0
 30
0.0
  0
XRECORD
  5
4AA
102
{ACAD_REACTORS
330
499
102
}
330
499
100
AcDbXrecord
 10
0.0
 20
0.0
 30
0.0
  0
XRECORD
  5
4A7
102
{ACAD_REACTORS
330
499
102
}
330
499
100
AcDbXrecord
340
0
  0
XRECORD
  5
4A8
102
{ACAD_REACTORS
330
499
102
}
330
499
100
AcDbXrecord
 70
     0
  0
XRECORD
  5
49D
102
{ACAD_REACTORS
330
499
102
}
330
499
100
AcDbXrecord
  1

  0
XRECORD
  5
49A
102
{ACAD_REACTORS
330
499
102
}
330
499
100
AcDbXrecord
 90
        1
  0
XRECORD
  5
49B
102
{ACAD_REACTORS
330
499
102
}
330
499
100
AcDbXrecord
 90
       70
  0
XRECORD
  5
4B2
102
{ACAD_REACTORS
330
499
102
}
330
499
100
AcDbXrecord
340
0
  0
XRECORD
  5
4B8
102
{ACAD_REACTORS
330
499
102
}
330
499
100
AcDbXrecord
 10
0.0
 20
0.0
 30
0.0
  0
XRECORD
  5
4B4
102
{ACAD_REACTORS
330
499
102
}
330
499
100
AcDbXrecord
 10
0.0
 20
0.0
 30
0.0
  0
XRECORD
  5
4B7
102
{ACAD_REACTORS
330
499
102
}
330
499
100
AcDbXrecord
 10
0.0
 20
0.0
 30
0.0
  0
XRECORD
  5
4B5
102
{ACAD_REACTORS
330
499
102
}
330
499
100
AcDbXrecord
 10
0.0
 20
0.0
 30
0.0
  0
XRECORD
  5
4B6
102
{ACAD_REACTORS
330
499
102
}
330
499
100
AcDbXrecord
 10
0.0
 20
0.0
 30
0.0
  0
XRECORD
  5
4B3
102
{ACAD_REACTORS
330
499
102
}
330
499
100
AcDbXrecord
 10
0.0
 20
0.0
 30
0.0
  0
XRECORD
  5
4B0
102
{ACAD_REACTORS
330
499
102
}
330
499
100
AcDbXrecord
340
0
  0
XRECORD
  5
4B1
102
{ACAD_REACTORS
330
499
102
}
330
499
100
AcDbXrecord
 70
     0
  0
XRECORD
  5
4A5
102
{ACAD_REACTORS
330
499
102
}
330
499
100
AcDbXrecord
  1
{FAEB1C32-E019-11D5-929B-00C0DF256EC4}
  0
DICTIONARYVAR
  5
4C7
102
{ACAD_REACTORS
330
4BA
102
}
330
4BA
100
DictionaryVariables
280
     0
  1
1:1
  0
DICTIONARYVAR
  5
4C1
102
{ACAD_REACTORS
330
4BA
102
}
330
4BA
100
DictionaryVariables
280
     0
  1
3.500000
  0
DICTIONARYVAR
  5
4C2
102
{ACAD_REACTORS
330
4BA
102
}
330
4BA
100
DictionaryVariables
280
     0
  1
acadiso.lin
  0
DICTIONARYVAR
  5
4BC
102
{ACAD_REACTORS
330
4BA
102
}
330
4BA
100
DictionaryVariables
280
     0
  1
Standard
  0
DICTIONARYVAR
  5
4BB
102
{ACAD_REACTORS
330
4BA
102
}
330
4BA
100
DictionaryVariables
280
     0
  1
Standard
  0
DICTIONARYVAR
  5
4C3
102
{ACAD_REACTORS
330
4BA
102
}
330
4BA
100
DictionaryVariables
280
     0
  1
2
  0
DICTIONARYVAR
  5
4C4
102
{ACAD_REACTORS
330
4BA
102
}
330
4BA
100
DictionaryVariables
280
     0
  1
1
  0
DICTIONARYVAR
  5
4C8
102
{ACAD_REACTORS
330
4BA
102
}
330
4BA
100
DictionaryVariables
280
     0
  1
1
  0
DICTIONARYVAR
  5
4BE
102
{ACAD_REACTORS
330
4BA
102
}
330
4BA
100
DictionaryVariables
280
     0
  1
80.000000
  0
DICTIONARYVAR
  5
4BD
102
{ACAD_REACTORS
330
4BA
102
}
330
4BA
100
DictionaryVariables
280
     0
  1
5.000000
  0
DICTIONARY
  5
4CB
330
45
100
AcDbDictionary
280
     1
  3
ACAD_XREC_ROUNDTRIP
360
4CC
  0
DICTIONARY
  5
4C9
330
44
100
AcDbDictionary
280
     1
  3
ACAD_XREC_ROUNDTRIP
360
4CA
  0
DICTIONARY
  5
4CD
330
46
100
AcDbDictionary
280
     1
  3
ACAD_XREC_ROUNDTRIP
360
4CE
  0
XRECORD
  5
4CC
102
{ACAD_REACTORS
330
4CB
102
}
330
4CB
100
AcDbXrecord
102
MATERIAL
148
0.0
149
0.0
149
0.0
 93
        0
 94
      127
282
     0
 72
     1
 77
     1
171
     1
175
     1
179
     1
273
     0
  0
XRECORD
  5
4CA
102
{ACAD_REACTORS
330
4C9
102
}
330
4C9
100
AcDbXrecord
102
MATERIAL
148
0.0
149
0.0
149
0.0
 93
        0
 94
      127
282
     0
 72
     1
 77
     1
171
     1
175
     1
179
     1
273
     0
  0
XRECORD
  5
4CE
102
{ACAD_REACTORS
330
4CD
102
}
330
4CD
100
AcDbXrecord
102
MATERIAL
148
0.0
149
0.0
149
0.0
 93
        0
 94
      127
282
     0
 72
     1
 77
     1
171
     1
175
     1
179
     1
273
     0
  0
ENDSEC
  0
EOF
