  0
SECTION
  2
HEADER
  9
$ACADVER
  1
AC1014
  9
$ACADMAINTVER
 70
     9
  9
$DWGCODEPAGE
  3
ANSI_932
  9
$INSBASE
 10
0.0
 20
0.0
 30
0.0
  9
$EXTMIN
 10
25.0
 20
50.0
 30
0.0
  9
$EXTMAX
 10
1925.0
 20
1400.0
 30
0.0
  9
$LIMMIN
 10
0.0
 20
0.0
  9
$LIMMAX
 10
420.0
 20
297.0
  9
$ORTHOMODE
 70
     0
  9
$REGENMODE
 70
     1
  9
$FILLMODE
 70
     1
  9
$QTEXTMODE
 70
     0
  9
$MIRRTEXT
 70
     1
  9
$DRAGMODE
 70
     2
  9
$LTSCALE
 40
0.2
  9
$OSMODE
 70
    37
  9
$ATTMODE
 70
     1
  9
$TEXTSIZE
 40
2.5
  9
$TRACEWID
 40
1.0
  9
$TEXTSTYLE
  7
STANDARD
  9
$CLAYER
  8
LAY-10
  9
$CELTYPE
  6
BYLAYER
  9
$CECOLOR
 62
   256
  9
$CELTSCALE
 40
1.0
  9
$DELOBJ
 70
     1
  9
$DISPSILH
 70
     0
  9
$DIMSCALE
 40
1.0
  9
$DIMASZ
 40
2.5
  9
$DIMEXO
 40
0.625
  9
$DIMDLI
 40
3.75
  9
$DIMRND
 40
0.0
  9
$DIMDLE
 40
0.0
  9
$DIMEXE
 40
1.25
  9
$DIMTP
 40
0.0
  9
$DIMTM
 40
0.0
  9
$DIMTXT
 40
2.5
  9
$DIMCEN
 40
2.5
  9
$DIMTSZ
 40
0.0
  9
$DIMTOL
 70
     0
  9
$DIMLIM
 70
     0
  9
$DIMTIH
 70
     0
  9
$DIMTOH
 70
     0
  9
$DIMSE1
 70
     0
  9
$DIMSE2
 70
     0
  9
$DIMTAD
 70
     1
  9
$DIMZIN
 70
     8
  9
$DIMBLK
  1

  9
$DIMASO
 70
     1
  9
$DIMSHO
 70
     1
  9
$DIMPOST
  1

  9
$DIMAPOST
  1

  9
$DIMALT
 70
     0
  9
$DIMALTD
 70
     3
  9
$DIMALTF
 40
0.03937007874016
  9
$DIMLFAC
 40
1.0
  9
$DIMTOFL
 70
     1
  9
$DIMTVP
 40
0.0
  9
$DIMTIX
 70
     0
  9
$DIMSOXD
 70
     0
  9
$DIMSAH
 70
     0
  9
$DIMBLK1
  1

  9
$DIMBLK2
  1

  9
$DIMSTYLE
  2
ISO-25
  9
$DIMCLRD
 70
     0
  9
$DIMCLRE
 70
     0
  9
$DIMCLRT
 70
     0
  9
$DIMTFAC
 40
1.0
  9
$DIMGAP
 40
0.625
  9
$DIMJUST
 70
     0
  9
$DIMSD1
 70
     0
  9
$DIMSD2
 70
     0
  9
$DIMTOLJ
 70
     0
  9
$DIMTZIN
 70
     8
  9
$DIMALTZ
 70
     0
  9
$DIMALTTZ
 70
     0
  9
$DIMFIT
 70
     3
  9
$DIMUPT
 70
     0
  9
$DIMUNIT
 70
     2
  9
$DIMDEC
 70
     2
  9
$DIMTDEC
 70
     2
  9
$DIMALTU
 70
     2
  9
$DIMALTTD
 70
     3
  9
$DIMTXSTY
  7
STANDARD
  9
$DIMAUNIT
 70
     0
  9
$LUNITS
 70
     2
  9
$LUPREC
 70
     4
  9
$SKETCHINC
 40
1.0
  9
$FILLETRAD
 40
10.0
  9
$AUNITS
 70
     0
  9
$AUPREC
 70
     0
  9
$MENU
  1
.
  9
$ELEVATION
 40
0.0
  9
$PELEVATION
 40
0.0
  9
$THICKNESS
 40
0.0
  9
$LIMCHECK
 70
     0
  9
$CHAMFERA
 40
0.0
  9
$CHAMFERB
 40
0.0
  9
$CHAMFERC
 40
0.0
  9
$CHAMFERD
 40
0.0
  9
$SKPOLY
 70
     0
  9
$TDCREATE
 40
2459233.665842326
  9
$TDUPDATE
 40
2459233.665843356
  9
$TDINDWG
 40
0.0000000116
  9
$TDUSRTIMER
 40
0.0000000116
  9
$USRTIMER
 70
     1
  9
$ANGBASE
 50
0.0
  9
$ANGDIR
 70
     0
  9
$PDMODE
 70
     0
  9
$PDSIZE
 40
0.0
  9
$PLINEWID
 40
0.0
  9
$COORDS
 70
     1
  9
$SPLFRAME
 70
     0
  9
$SPLINETYPE
 70
     6
  9
$SPLINESEGS
 70
     8
  9
$ATTDIA
 70
     0
  9
$ATTREQ
 70
     1
  9
$HANDLING
 70
     1
  9
$HANDSEED
  5
69B
  9
$SURFTAB1
 70
     6
  9
$SURFTAB2
 70
     6
  9
$SURFTYPE
 70
     6
  9
$SURFU
 70
     6
  9
$SURFV
 70
     6
  9
$UCSNAME
  2

  9
$UCSORG
 10
0.0
 20
0.0
 30
0.0
  9
$UCSXDIR
 10
1.0
 20
0.0
 30
0.0
  9
$UCSYDIR
 10
0.0
 20
1.0
 30
0.0
  9
$PUCSNAME
  2

  9
$PUCSORG
 10
0.0
 20
0.0
 30
0.0
  9
$PUCSXDIR
 10
1.0
 20
0.0
 30
0.0
  9
$PUCSYDIR
 10
0.0
 20
1.0
 30
0.0
  9
$USERI1
 70
     0
  9
$USERI2
 70
     0
  9
$USERI3
 70
     0
  9
$USERI4
 70
     0
  9
$USERI5
 70
     0
  9
$USERR1
 40
0.0
  9
$USERR2
 40
0.0
  9
$USERR3
 40
0.0
  9
$USERR4
 40
0.0
  9
$USERR5
 40
0.0
  9
$WORLDVIEW
 70
     1
  9
$SHADEDGE
 70
     3
  9
$SHADEDIF
 70
    70
  9
$TILEMODE
 70
     1
  9
$MAXACTVP
 70
    64
  9
$PINSBASE
 10
0.0
 20
0.0
 30
0.0
  9
$PLIMCHECK
 70
     0
  9
$PEXTMIN
 10
1.000000000000000E+20
 20
1.000000000000000E+20
 30
1.000000000000000E+20
  9
$PEXTMAX
 10
-1.000000000000000E+20
 20
-1.000000000000000E+20
 30
-1.000000000000000E+20
  9
$PLIMMIN
 10
0.0
 20
0.0
  9
$PLIMMAX
 10
420.0
 20
297.0
  9
$UNITMODE
 70
     0
  9
$VISRETAIN
 70
     1
  9
$PLINEGEN
 70
     0
  9
$PSLTSCALE
 70
     1
  9
$TREEDEPTH
 70
  3020
  9
$PICKSTYLE
 70
     1
  9
$CMLSTYLE
  2
STANDARD
  9
$CMLJUST
 70
     0
  9
$CMLSCALE
 40
20.0
  9
$PROXYGRAPHICS
 70
     1
  9
$MEASUREMENT
 70
     1
  0
ENDSEC
  0
SECTION
  2
CLASSES
  0
CLASS
  1
ACDBDICTIONARYWDFLT
  2
AcDbDictionaryWithDefault
  3
ObjectDBX Classes
 90
        0
280
     0
281
     0
  0
CLASS
  1
VISUALSTYLE
  2
AcDbVisualStyle
  3
ObjectDBX Classes
 90
     4095
280
     0
281
     0
  0
CLASS
  1
MATERIAL
  2
AcDbMaterial
  3
ObjectDBX Classes
 90
     1153
280
     0
281
     0
  0
CLASS
  1
SCALE
  2
AcDbScale
  3
ObjectDBX Classes
 90
     1153
280
     0
281
     0
  0
CLASS
  1
TABLESTYLE
  2
AcDbTableStyle
  3
ObjectDBX Classes
 90
     4095
280
     0
281
     0
  0
CLASS
  1
MLEADERSTYLE
  2
AcDbMLeaderStyle
  3
ACDB_MLEADERSTYLE_CLASS
 90
     4095
280
     0
281
     0
  0
CLASS
  1
SUN
  2
AcDbSun
  3
SCENEOE
 90
     1153
280
     0
281
     0
  0
CLASS
  1
DICTIONARYVAR
  2
AcDbDictionaryVar
  3
ObjectDBX Classes
 90
        0
280
     0
281
     0
  0
CLASS
  1
XRECORD
  2
AcDbXrecord
  3
ObjectDBX Classes
 90
        0
280
     0
281
     0
  0
CLASS
  1
LWPOLYLINE
  2
AcDbPolyline
  3
ObjectDBX Classes
 90
        0
280
     0
281
     1
  0
CLASS
  1
HATCH
  2
AcDbHatch
  3
ObjectDBX Classes
 90
        0
280
     0
281
     1
  0
CLASS
  1
ACDBPLACEHOLDER
  2
AcDbPlaceHolder
  3
ObjectDBX Classes
 90
        0
280
     0
281
     0
  0
CLASS
  1
LAYOUT
  2
AcDbLayout
  3
ObjectDBX Classes
 90
        0
280
     0
281
     0
  0
ENDSEC
  0
SECTION
  2
TABLES
  0
TABLE
  2
VPORT
  5
8
102
{ACAD_XDICTIONARY
360
690
102
}
330
0
100
AcDbSymbolTable
 70
     1
  0
VPORT
  5
29
330
8
100
AcDbSymbolTableRecord
100
AcDbViewportTableRecord
  2
*ACTIVE
 70
     0
 10
0.0
 20
0.0
 11
1.0
 21
1.0
 12
975.0000000000001
 22
725.0
 13
0.0
 23
0.0
 14
10.0
 24
10.0
 15
10.0
 25
10.0
 16
0.0
 26
0.0
 36
1.0
 17
0.0
 27
0.0
 37
0.0
 40
1350.0
 41
1.407407407407408
 42
50.0
 43
0.0
 44
0.0
 50
0.0
 51
0.0
 71
     0
 72
  1000
 73
     1
 74
     3
 75
     0
 76
     0
 77
     0
 78
     0
  0
ENDTAB
  0
TABLE
  2
LTYPE
  5
5
330
0
100
AcDbSymbolTable
 70
     6
  0
LTYPE
  5
14
330
5
100
AcDbSymbolTableRecord
100
AcDbLinetypeTableRecord
  2
BYBLOCK
 70
     0
  3

 72
    65
 73
     0
 40
0.0
  0
LTYPE
  5
15
330
5
100
AcDbSymbolTableRecord
100
AcDbLinetypeTableRecord
  2
BYLAYER
 70
     0
  3

 72
    65
 73
     0
 40
0.0
  0
LTYPE
  5
16
330
5
100
AcDbSymbolTableRecord
100
AcDbLinetypeTableRecord
  2
CONTINUOUS
 70
     0
  3
Solid line
 72
    65
 73
     0
 40
0.0
  0
LTYPE
  5
6E
330
5
100
AcDbSymbolTableRecord
100
AcDbLinetypeTableRecord
  2
HIDDEN
 70
     0
  3
Hidden __ __ __ __ __ __ __ __ __ __ __ __ __ __
 72
    65
 73
     2
 40
9.524999999999999
 49
6.35
 74
     0
 49
-3.175
 74
     0
  0
LTYPE
  5
6F
330
5
100
AcDbSymbolTableRecord
100
AcDbLinetypeTableRecord
  2
CENTER
 70
     0
  3
Center ____ _ ____ _ ____ _ ____ _ ____ _ ____
 72
    65
 73
     4
 40
50.8
 49
31.75
 74
     0
 49
-6.35
 74
     0
 49
6.35
 74
     0
 49
-6.35
 74
     0
  0
LTYPE
  5
70
330
5
100
AcDbSymbolTableRecord
100
AcDbLinetypeTableRecord
  2
PHANTOM
 70
     0
  3
Phantom ______  __  __  ______  __  __  ______ 
 72
    65
 73
     6
 40
63.50000000000001
 49
31.75
 74
     0
 49
-6.35
 74
     0
 49
6.35
 74
     0
 49
-6.35
 74
     0
 49
6.35
 74
     0
 49
-6.35
 74
     0
  0
LTYPE
  5
71
330
5
100
AcDbSymbolTableRecord
100
AcDbLinetypeTableRecord
  2
ACAD_ISO06W100
 70
     0
  3
ISO long-dash triple-dot ____ ... ____ ... ____
 72
    65
 73
     8
 40
36.0
 49
24.0
 74
     0
 49
-3.0
 74
     0
 49
0.0
 74
     0
 49
-3.0
 74
     0
 49
0.0
 74
     0
 49
-3.0
 74
     0
 49
0.0
 74
     0
 49
-3.0
 74
     0
  0
LTYPE
  5
72
330
5
100
AcDbSymbolTableRecord
100
AcDbLinetypeTableRecord
  2
ACAD_ISO15W100
 70
     0
  3
ISO double-dash triple-dot __ __ . . . __ __ . .
 72
    65
 73
    10
 40
39.0
 49
12.0
 74
     0
 49
-3.0
 74
     0
 49
12.0
 74
     0
 49
-3.0
 74
     0
 49
0.0
 74
     0
 49
-3.0
 74
     0
 49
0.0
 74
     0
 49
-3.0
 74
     0
 49
0.0
 74
     0
 49
-3.0
 74
     0
  0
ENDTAB
  0
TABLE
  2
LAYER
  5
2
330
0
100
AcDbSymbolTable
 70
     5
  0
LAYER
  5
10
330
2
100
AcDbSymbolTableRecord
100
AcDbLayerTableRecord
  2
0
 70
     0
 62
     7
  6
CONTINUOUS
  0
LAYER
  5
75
330
2
100
AcDbSymbolTableRecord
100
AcDbLayerTableRecord
  2
LAY-10
 70
     0
 62
     7
  6
CONTINUOUS
  0
LAYER
  5
76
330
2
100
AcDbSymbolTableRecord
100
AcDbLayerTableRecord
  2
LAY-20
 70
     0
 62
     7
  6
CONTINUOUS
  0
LAYER
  5
77
330
2
100
AcDbSymbolTableRecord
100
AcDbLayerTableRecord
  2
LAY-255
 70
     0
 62
     7
  6
CONTINUOUS
  0
LAYER
  5
57D
330
2
100
AcDbSymbolTableRecord
100
AcDbLayerTableRecord
  2
DEFPOINTS
 70
     0
 62
     7
  6
CONTINUOUS
  0
ENDTAB
  0
TABLE
  2
STYLE
  5
3
330
0
100
AcDbSymbolTable
 70
     4
  0
STYLE
  5
11
330
3
100
AcDbSymbolTableRecord
100
AcDbTextStyleTableRecord
  2
STANDARD
 70
     0
 40
0.0
 41
1.0
 50
0.0
 71
     0
 42
2.5
  3
simplex
  4
bigfont
  0
STYLE
  5
73
330
3
100
AcDbSymbolTableRecord
100
AcDbTextStyleTableRecord
  2
EXCADSTD
 70
     0
 40
0.0
 41
1.0
 50
0.0
 71
     0
 42
2.5
  3
simplex
  4
bigfont
  0
STYLE
  5
74
330
3
100
AcDbSymbolTableRecord
100
AcDbTextStyleTableRecord
  2
EXCADVERT
 70
     4
 40
0.0
 41
1.0
 50
0.0
 71
     0
 42
2.5
  3
simplex
  4
bigfont
  0
STYLE
  5
57B
330
3
100
AcDbSymbolTableRecord
100
AcDbTextStyleTableRecord
  2
EXCADDIM1
 70
     0
 40
0.0
 41
0.84
 50
0.0
 71
     0
 42
2.5
  3
simplex
  4
bigfont
  0
ENDTAB
  0
TABLE
  2
VIEW
  5
6
330
0
100
AcDbSymbolTable
 70
     0
  0
ENDTAB
  0
TABLE
  2
UCS
  5
7
330
0
100
AcDbSymbolTable
 70
     0
  0
ENDTAB
  0
TABLE
  2
APPID
  5
9
330
0
100
AcDbSymbolTable
 70
     2
  0
APPID
  5
12
330
9
100
AcDbSymbolTableRecord
100
AcDbRegAppTableRecord
  2
ACAD
 70
     0
  0
APPID
  5
69A
330
9
100
AcDbSymbolTableRecord
100
AcDbRegAppTableRecord
  2
ACAD_MLEADERVER
 70
     0
  0
ENDTAB
  0
TABLE
  2
DIMSTYLE
  5
A
330
0
100
AcDbSymbolTable
 70
     1
  0
DIMSTYLE
105
27
102
{ACAD_REACTORS
330
57C
330
58A
330
597
330
5A2
330
5AF
330
5BB
330
5C7
330
5D3
330
5E0
330
5EC
330
5F7
330
603
330
610
330
61D
330
62A
102
}
330
A
100
AcDbSymbolTableRecord
100
AcDbDimStyleTableRecord
  2
ISO-25
 70
     0
  3

  4

  5

  6

  7

 40
1.0
 41
2.5
 42
0.625
 43
3.75
 44
1.25
 45
0.0
 46
0.0
 47
0.0
 48
0.0
140
2.5
141
2.5
142
0.0
143
0.03937007874016
144
1.0
145
0.0
146
1.0
147
0.625
 71
     0
 72
     0
 73
     0
 74
     0
 75
     0
 76
     0
 77
     1
 78
     8
170
     0
171
     3
172
     1
173
     0
174
     0
175
     0
176
     0
177
     0
178
     0
270
     2
271
     2
272
     2
273
     2
274
     3
340
11
275
     0
280
     0
281
     0
282
     0
283
     0
284
     8
285
     0
286
     0
287
     5
288
     0
  0
ENDTAB
  0
TABLE
  2
BLOCK_RECORD
  5
1
330
0
100
AcDbSymbolTable
 70
    29
  0
BLOCK_RECORD
  5
1F
330
1
100
AcDbSymbolTableRecord
100
AcDbBlockTableRecord
  2
*MODEL_SPACE
  0
BLOCK_RECORD
  5
1B
330
1
100
AcDbSymbolTableRecord
100
AcDbBlockTableRecord
  2
*PAPER_SPACE
  0
BLOCK_RECORD
  5
78
330
1
100
AcDbSymbolTableRecord
100
AcDbBlockTableRecord
  2
EX_NORM
  0
BLOCK_RECORD
  5
7B
330
1
100
AcDbSymbolTableRecord
100
AcDbBlockTableRecord
  2
EX_BNORM
  0
BLOCK_RECORD
  5
7E
330
1
100
AcDbSymbolTableRecord
100
AcDbBlockTableRecord
  2
EX_BCIR
  0
BLOCK_RECORD
  5
81
330
1
100
AcDbSymbolTableRecord
100
AcDbBlockTableRecord
  2
EX_RCIVIL
  0
BLOCK_RECORD
  5
84
330
1
100
AcDbSymbolTableRecord
100
AcDbBlockTableRecord
  2
EX_SLANT
  0
BLOCK_RECORD
  5
87
330
1
100
AcDbSymbolTableRecord
100
AcDbBlockTableRecord
  2
EX_NONE
  0
BLOCK_RECORD
  5
8A
330
1
100
AcDbSymbolTableRecord
100
AcDbBlockTableRecord
  2
EX_CIVIL
  0
BLOCK_RECORD
  5
8D
330
1
100
AcDbSymbolTableRecord
100
AcDbBlockTableRecord
  2
EX_WCIR
  0
BLOCK_RECORD
  5
90
330
1
100
AcDbSymbolTableRecord
100
AcDbBlockTableRecord
  2
EX_WCIR2
  0
BLOCK_RECORD
  5
93
330
1
100
AcDbSymbolTableRecord
100
AcDbBlockTableRecord
  2
EX_WNORM
  0
BLOCK_RECORD
  5
96
330
1
100
AcDbSymbolTableRecord
100
AcDbBlockTableRecord
  2
EX_NNORM
  0
BLOCK_RECORD
  5
99
330
1
100
AcDbSymbolTableRecord
100
AcDbBlockTableRecord
  2
EX_BBOX
  0
BLOCK_RECORD
  5
9C
330
1
100
AcDbSymbolTableRecord
100
AcDbBlockTableRecord
  2
EX_WBOX
  0
BLOCK_RECORD
  5
9F
330
1
100
AcDbSymbolTableRecord
100
AcDbBlockTableRecord
  2
EX_INTEGRAL
  0
BLOCK_RECORD
  5
57E
330
1
100
AcDbSymbolTableRecord
100
AcDbBlockTableRecord
  2
*D15
  0
BLOCK_RECORD
  5
58B
330
1
100
AcDbSymbolTableRecord
100
AcDbBlockTableRecord
  2
*D16
  0
BLOCK_RECORD
  5
598
330
1
100
AcDbSymbolTableRecord
100
AcDbBlockTableRecord
  2
*D17
  0
BLOCK_RECORD
  5
5A3
330
1
100
AcDbSymbolTableRecord
100
AcDbBlockTableRecord
  2
*D18
  0
BLOCK_RECORD
  5
5B0
330
1
100
AcDbSymbolTableRecord
100
AcDbBlockTableRecord
  2
*D19
  0
BLOCK_RECORD
  5
5BC
330
1
100
AcDbSymbolTableRecord
100
AcDbBlockTableRecord
  2
*D20
  0
BLOCK_RECORD
  5
5C8
330
1
100
AcDbSymbolTableRecord
100
AcDbBlockTableRecord
  2
*D21
  0
BLOCK_RECORD
  5
5D4
330
1
100
AcDbSymbolTableRecord
100
AcDbBlockTableRecord
  2
*D22
  0
BLOCK_RECORD
  5
5E1
330
1
100
AcDbSymbolTableRecord
100
AcDbBlockTableRecord
  2
*D23
  0
BLOCK_RECORD
  5
5ED
330
1
100
AcDbSymbolTableRecord
100
AcDbBlockTableRecord
  2
*D24
  0
BLOCK_RECORD
  5
5F8
330
1
100
AcDbSymbolTableRecord
100
AcDbBlockTableRecord
  2
*D25
  0
BLOCK_RECORD
  5
604
330
1
100
AcDbSymbolTableRecord
100
AcDbBlockTableRecord
  2
*D26
  0
BLOCK_RECORD
  5
611
330
1
100
AcDbSymbolTableRecord
100
AcDbBlockTableRecord
  2
*D27
  0
BLOCK_RECORD
  5
61E
330
1
100
AcDbSymbolTableRecord
100
AcDbBlockTableRecord
  2
*D28
  0
BLOCK_RECORD
  5
62B
330
1
100
AcDbSymbolTableRecord
100
AcDbBlockTableRecord
  2
*D29
  0
ENDTAB
  0
ENDSEC
  0
SECTION
  2
BLOCKS
  0
BLOCK
  5
20
330
1F
100
AcDbEntity
  8
0
100
AcDbBlockBegin
  2
*MODEL_SPACE
 70
     0
 10
0.0
 20
0.0
 30
0.0
  3
*MODEL_SPACE
  1

  0
ENDBLK
  5
21
330
1F
100
AcDbEntity
  8
0
100
AcDbBlockEnd
  0
BLOCK
  5
1C
330
1B
100
AcDbEntity
 67
     1
  8
0
100
AcDbBlockBegin
  2
*PAPER_SPACE
 70
     0
 10
0.0
 20
0.0
 30
0.0
  3
*PAPER_SPACE
  1

  0
ENDBLK
  5
1D
330
1B
100
AcDbEntity
 67
     1
  8
0
100
AcDbBlockEnd
  0
BLOCK
  5
79
330
78
100
AcDbEntity
  8
0
100
AcDbBlockBegin
  2
EX_NORM
 70
     0
 10
0.0
 20
0.0
 30
0.0
  3
EX_NORM
  1

  0
LINE
  5
A2
330
78
100
AcDbEntity
  8
0
  6
CONTINUOUS
 62
     0
100
AcDbLine
 10
0.0
 20
0.0
 30
0.0
 11
-1.0
 21
0.0
 31
0.0
  0
LINE
  5
A3
330
78
100
AcDbEntity
  8
0
  6
CONTINUOUS
 62
     0
100
AcDbLine
 10
0.0
 20
0.0
 30
0.0
 11
-1.0
 21
0.166666667
 31
0.0
  0
LINE
  5
A4
330
78
100
AcDbEntity
  8
0
  6
CONTINUOUS
 62
     0
100
AcDbLine
 10
0.0
 20
0.0
 30
0.0
 11
-1.0
 21
-0.166666667
 31
0.0
  0
ENDBLK
  5
7A
330
78
100
AcDbEntity
  8
0
100
AcDbBlockEnd
  0
BLOCK
  5
7C
330
7B
100
AcDbEntity
  8
0
100
AcDbBlockBegin
  2
EX_BNORM
 70
     0
 10
0.0
 20
0.0
 30
0.0
  3
EX_BNORM
  1

  0
LINE
  5
A5
330
7B
100
AcDbEntity
  8
0
  6
CONTINUOUS
 62
     0
100
AcDbLine
 10
0.0
 20
0.0
 30
0.0
 11
-1.0
 21
0.0
 31
0.0
  0
LINE
  5
A6
330
7B
100
AcDbEntity
  8
0
  6
CONTINUOUS
 62
     0
100
AcDbLine
 10
0.0
 20
0.0
 30
0.0
 11
-1.0
 21
0.166666667
 31
0.0
  0
LINE
  5
A7
330
7B
100
AcDbEntity
  8
0
  6
CONTINUOUS
 62
     0
100
AcDbLine
 10
0.0
 20
0.0
 30
0.0
 11
-1.0
 21
-0.166666667
 31
0.0
  0
LINE
  5
A8
330
7B
100
AcDbEntity
  8
0
  6
CONTINUOUS
 62
     0
100
AcDbLine
 10
0.0
 20
0.0
 30
0.0
 11
-1.0
 21
0.083333333
 31
0.0
  0
LINE
  5
A9
330
7B
100
AcDbEntity
  8
0
  6
CONTINUOUS
 62
     0
100
AcDbLine
 10
0.0
 20
0.0
 30
0.0
 11
-1.0
 21
-0.083333333
 31
0.0
  0
LINE
  5
AA
330
7B
100
AcDbEntity
  8
0
  6
CONTINUOUS
 62
     0
100
AcDbLine
 10
-1.0
 20
0.166666667
 30
0.0
 11
-1.0
 21
-0.166666667
 31
0.0
  0
ENDBLK
  5
7D
330
7B
100
AcDbEntity
  8
0
100
AcDbBlockEnd
  0
BLOCK
  5
7F
330
7E
100
AcDbEntity
  8
0
100
AcDbBlockBegin
  2
EX_BCIR
 70
     0
 10
0.0
 20
0.0
 30
0.0
  3
EX_BCIR
  1

  0
LINE
  5
AB
330
7E
100
AcDbEntity
  8
0
  6
CONTINUOUS
 62
     0
100
AcDbLine
 10
0.0
 20
0.0
 30
0.0
 11
-1.0
 21
0.0
 31
0.0
  0
CIRCLE
  5
AC
330
7E
100
AcDbEntity
  8
0
  6
CONTINUOUS
 62
     0
100
AcDbCircle
 10
0.0
 20
0.0
 30
0.0
 40
0.5
  0
CIRCLE
  5
AD
330
7E
100
AcDbEntity
  8
0
  6
CONTINUOUS
 62
     0
100
AcDbCircle
 10
0.0
 20
0.0
 30
0.0
 40
0.25
  0
ENDBLK
  5
80
330
7E
100
AcDbEntity
  8
0
100
AcDbBlockEnd
  0
BLOCK
  5
82
330
81
100
AcDbEntity
  8
0
100
AcDbBlockBegin
  2
EX_RCIVIL
 70
     0
 10
0.0
 20
0.0
 30
0.0
  3
EX_RCIVIL
  1

  0
LINE
  5
AE
330
81
100
AcDbEntity
  8
0
  6
CONTINUOUS
 62
     0
100
AcDbLine
 10
0.0
 20
0.0
 30
0.0
 11
-1.0
 21
0.0
 31
0.0
  0
LINE
  5
AF
330
81
100
AcDbEntity
  8
0
  6
CONTINUOUS
 62
     0
100
AcDbLine
 10
-1.0
 20
-0.25
 30
0.0
 11
0.0
 21
-0.25
 31
0.0
  0
LINE
  5
B0
330
81
100
AcDbEntity
  8
0
  6
CONTINUOUS
 62
     0
100
AcDbLine
 10
-1.0
 20
-0.125
 30
0.0
 11
0.0
 21
-0.125
 31
0.0
  0
ENDBLK
  5
83
330
81
100
AcDbEntity
  8
0
100
AcDbBlockEnd
  0
BLOCK
  5
85
330
84
100
AcDbEntity
  8
0
100
AcDbBlockBegin
  2
EX_SLANT
 70
     0
 10
0.0
 20
0.0
 30
0.0
  3
EX_SLANT
  1

  0
LINE
  5
B1
330
84
100
AcDbEntity
  8
0
  6
CONTINUOUS
 62
     0
100
AcDbLine
 10
0.0
 20
0.0
 30
0.0
 11
-1.0
 21
0.0
 31
0.0
  0
LINE
  5
B2
330
84
100
AcDbEntity
  8
0
  6
CONTINUOUS
 62
     0
100
AcDbLine
 10
0.707106781
 20
0.707106781
 30
0.0
 11
-0.707106781
 21
-0.707106781
 31
0.0
  0
ENDBLK
  5
86
330
84
100
AcDbEntity
  8
0
100
AcDbBlockEnd
  0
BLOCK
  5
88
330
87
100
AcDbEntity
  8
0
100
AcDbBlockBegin
  2
EX_NONE
 70
     0
 10
0.0
 20
0.0
 30
0.0
  3
EX_NONE
  1

  0
LINE
  5
B3
330
87
100
AcDbEntity
  8
0
  6
CONTINUOUS
 62
     0
100
AcDbLine
 10
0.0
 20
0.0
 30
0.0
 11
-1.0
 21
0.0
 31
0.0
  0
ENDBLK
  5
89
330
87
100
AcDbEntity
  8
0
100
AcDbBlockEnd
  0
BLOCK
  5
8B
330
8A
100
AcDbEntity
  8
0
100
AcDbBlockBegin
  2
EX_CIVIL
 70
     0
 10
0.0
 20
0.0
 30
0.0
  3
EX_CIVIL
  1

  0
LINE
  5
B4
330
8A
100
AcDbEntity
  8
0
  6
CONTINUOUS
 62
     0
100
AcDbLine
 10
0.0
 20
0.0
 30
0.0
 11
-1.0
 21
0.0
 31
0.0
  0
LINE
  5
B5
330
8A
100
AcDbEntity
  8
0
  6
CONTINUOUS
 62
     0
100
AcDbLine
 10
-1.0
 20
0.25
 30
0.0
 11
0.0
 21
0.25
 31
0.0
  0
LINE
  5
B6
330
8A
100
AcDbEntity
  8
0
  6
CONTINUOUS
 62
     0
100
AcDbLine
 10
-1.0
 20
0.125
 30
0.0
 11
0.0
 21
0.125
 31
0.0
  0
ENDBLK
  5
8C
330
8A
100
AcDbEntity
  8
0
100
AcDbBlockEnd
  0
BLOCK
  5
8E
330
8D
100
AcDbEntity
  8
0
100
AcDbBlockBegin
  2
EX_WCIR
 70
     0
 10
0.0
 20
0.0
 30
0.0
  3
EX_WCIR
  1

  0
LINE
  5
B7
330
8D
100
AcDbEntity
  8
0
  6
CONTINUOUS
 62
     0
100
AcDbLine
 10
0.0
 20
0.0
 30
0.0
 11
-1.0
 21
0.0
 31
0.0
  0
CIRCLE
  5
B8
330
8D
100
AcDbEntity
  8
0
  6
CONTINUOUS
 62
     0
100
AcDbCircle
 10
0.0
 20
0.0
 30
0.0
 40
0.5
  0
ENDBLK
  5
8F
330
8D
100
AcDbEntity
  8
0
100
AcDbBlockEnd
  0
BLOCK
  5
91
330
90
100
AcDbEntity
  8
0
100
AcDbBlockBegin
  2
EX_WCIR2
 70
     0
 10
0.0
 20
0.0
 30
0.0
  3
EX_WCIR2
  1

  0
LINE
  5
B9
330
90
100
AcDbEntity
  8
0
  6
CONTINUOUS
 62
     0
100
AcDbLine
 10
-0.5
 20
0.0
 30
0.0
 11
-1.0
 21
0.0
 31
0.0
  0
CIRCLE
  5
BA
330
90
100
AcDbEntity
  8
0
  6
CONTINUOUS
 62
     0
100
AcDbCircle
 10
0.0
 20
0.0
 30
0.0
 40
0.5
  0
ENDBLK
  5
92
330
90
100
AcDbEntity
  8
0
100
AcDbBlockEnd
  0
BLOCK
  5
94
330
93
100
AcDbEntity
  8
0
100
AcDbBlockBegin
  2
EX_WNORM
 70
     0
 10
0.0
 20
0.0
 30
0.0
  3
EX_WNORM
  1

  0
LINE
  5
BB
330
93
100
AcDbEntity
  8
0
  6
CONTINUOUS
 62
     0
100
AcDbLine
 10
-1.0
 20
0.0
 30
0.0
 11
-1.0
 21
0.0
 31
0.0
  0
LINE
  5
BC
330
93
100
AcDbEntity
  8
0
  6
CONTINUOUS
 62
     0
100
AcDbLine
 10
0.0
 20
0.0
 30
0.0
 11
-1.0
 21
0.166666667
 31
0.0
  0
LINE
  5
BD
330
93
100
AcDbEntity
  8
0
  6
CONTINUOUS
 62
     0
100
AcDbLine
 10
0.0
 20
0.0
 30
0.0
 11
-1.0
 21
-0.166666667
 31
0.0
  0
LINE
  5
BE
330
93
100
AcDbEntity
  8
0
  6
CONTINUOUS
 62
     0
100
AcDbLine
 10
-1.0
 20
0.166666667
 30
0.0
 11
-1.0
 21
-0.166666667
 31
0.0
  0
ENDBLK
  5
95
330
93
100
AcDbEntity
  8
0
100
AcDbBlockEnd
  0
BLOCK
  5
97
330
96
100
AcDbEntity
  8
0
100
AcDbBlockBegin
  2
EX_NNORM
 70
     0
 10
0.0
 20
0.0
 30
0.0
  3
EX_NNORM
  1

  0
LINE
  5
BF
330
96
100
AcDbEntity
  8
0
  6
CONTINUOUS
 62
     0
100
AcDbLine
 10
0.0
 20
0.0
 30
0.0
 11
-1.0
 21
0.0
 31
0.0
  0
LINE
  5
C0
330
96
100
AcDbEntity
  8
0
  6
CONTINUOUS
 62
     0
100
AcDbLine
 10
0.0
 20
0.0
 30
0.0
 11
-1.0
 21
0.166666667
 31
0.0
  0
LINE
  5
C1
330
96
100
AcDbEntity
  8
0
  6
CONTINUOUS
 62
     0
100
AcDbLine
 10
0.0
 20
0.0
 30
0.0
 11
-1.0
 21
-0.166666667
 31
0.0
  0
LINE
  5
C2
330
96
100
AcDbEntity
  8
0
  6
CONTINUOUS
 62
     0
100
AcDbLine
 10
-1.0
 20
0.166666667
 30
0.0
 11
-1.0
 21
-0.166666667
 31
0.0
  0
ENDBLK
  5
98
330
96
100
AcDbEntity
  8
0
100
AcDbBlockEnd
  0
BLOCK
  5
9A
330
99
100
AcDbEntity
  8
0
100
AcDbBlockBegin
  2
EX_BBOX
 70
     0
 10
0.0
 20
0.0
 30
0.0
  3
EX_BBOX
  1

  0
LINE
  5
C3
330
99
100
AcDbEntity
  8
0
  6
CONTINUOUS
 62
     0
100
AcDbLine
 10
0.0
 20
0.0
 30
0.0
 11
-1.0
 21
0.0
 31
0.0
  0
LINE
  5
C4
330
99
100
AcDbEntity
  8
0
  6
CONTINUOUS
 62
     0
100
AcDbLine
 10
-0.5
 20
0.5
 30
0.0
 11
0.5
 21
0.5
 31
0.0
  0
LINE
  5
C5
330
99
100
AcDbEntity
  8
0
  6
CONTINUOUS
 62
     0
100
AcDbLine
 10
0.5
 20
0.5
 30
0.0
 11
0.5
 21
-0.5
 31
0.0
  0
LINE
  5
C6
330
99
100
AcDbEntity
  8
0
  6
CONTINUOUS
 62
     0
100
AcDbLine
 10
0.5
 20
-0.5
 30
0.0
 11
-0.5
 21
-0.5
 31
0.0
  0
LINE
  5
C7
330
99
100
AcDbEntity
  8
0
  6
CONTINUOUS
 62
     0
100
AcDbLine
 10
-0.5
 20
-0.5
 30
0.0
 11
-0.5
 21
0.5
 31
0.0
  0
LINE
  5
C8
330
99
100
AcDbEntity
  8
0
  6
CONTINUOUS
 62
     0
100
AcDbLine
 10
-0.25
 20
0.25
 30
0.0
 11
0.25
 21
0.25
 31
0.0
  0
LINE
  5
C9
330
99
100
AcDbEntity
  8
0
  6
CONTINUOUS
 62
     0
100
AcDbLine
 10
0.25
 20
0.25
 30
0.0
 11
0.25
 21
-0.25
 31
0.0
  0
LINE
  5
CA
330
99
100
AcDbEntity
  8
0
  6
CONTINUOUS
 62
     0
100
AcDbLine
 10
0.25
 20
-0.25
 30
0.0
 11
-0.25
 21
-0.25
 31
0.0
  0
LINE
  5
CB
330
99
100
AcDbEntity
  8
0
  6
CONTINUOUS
 62
     0
100
AcDbLine
 10
-0.25
 20
-0.25
 30
0.0
 11
-0.25
 21
0.25
 31
0.0
  0
ENDBLK
  5
9B
330
99
100
AcDbEntity
  8
0
100
AcDbBlockEnd
  0
BLOCK
  5
9D
330
9C
100
AcDbEntity
  8
0
100
AcDbBlockBegin
  2
EX_WBOX
 70
     0
 10
0.0
 20
0.0
 30
0.0
  3
EX_WBOX
  1

  0
LINE
  5
CC
330
9C
100
AcDbEntity
  8
0
  6
CONTINUOUS
 62
     0
100
AcDbLine
 10
-0.5
 20
0.0
 30
0.0
 11
-1.0
 21
0.0
 31
0.0
  0
LINE
  5
CD
330
9C
100
AcDbEntity
  8
0
  6
CONTINUOUS
 62
     0
100
AcDbLine
 10
-0.5
 20
0.5
 30
0.0
 11
0.5
 21
0.5
 31
0.0
  0
LINE
  5
CE
330
9C
100
AcDbEntity
  8
0
  6
CONTINUOUS
 62
     0
100
AcDbLine
 10
0.5
 20
0.5
 30
0.0
 11
0.5
 21
-0.5
 31
0.0
  0
LINE
  5
CF
330
9C
100
AcDbEntity
  8
0
  6
CONTINUOUS
 62
     0
100
AcDbLine
 10
0.5
 20
-0.5
 30
0.0
 11
-0.5
 21
-0.5
 31
0.0
  0
LINE
  5
D0
330
9C
100
AcDbEntity
  8
0
  6
CONTINUOUS
 62
     0
100
AcDbLine
 10
-0.5
 20
-0.5
 30
0.0
 11
-0.5
 21
0.5
 31
0.0
  0
ENDBLK
  5
9E
330
9C
100
AcDbEntity
  8
0
100
AcDbBlockEnd
  0
BLOCK
  5
A0
330
9F
100
AcDbEntity
  8
0
100
AcDbBlockBegin
  2
EX_INTEGRAL
 70
     0
 10
0.0
 20
0.0
 30
0.0
  3
EX_INTEGRAL
  1

  0
LINE
  5
D1
330
9F
100
AcDbEntity
  8
0
  6
CONTINUOUS
 62
     0
100
AcDbLine
 10
0.0
 20
0.0
 30
0.0
 11
-1.0
 21
0.0
 31
0.0
  0
ARC
  5
D2
330
9F
100
AcDbEntity
  8
0
  6
CONTINUOUS
 62
     0
100
AcDbCircle
 10
0.542115
 20
0.164992
 30
0.0
 40
0.56667
100
AcDbArc
 50
73.07249033629006
 51
196.9275130221199
  0
ARC
  5
D3
330
9F
100
AcDbEntity
  8
0
  6
CONTINUOUS
 62
     0
100
AcDbCircle
 10
-0.542115
 20
-0.164992
 30
0.0
 40
0.56667
100
AcDbArc
 50
253.0724869220464
 51
16.9275130559125
  0
ENDBLK
  5
A1
330
9F
100
AcDbEntity
  8
0
100
AcDbBlockEnd
  0
BLOCK
  5
57F
330
57E
100
AcDbEntity
  8
0
100
AcDbBlockBegin
  2
*D15
 70
     1
 10
0.0
 20
0.0
 30
0.0
  3
*D15
  1

  0
LINE
  5
581
330
57E
100
AcDbEntity
  8
LAY-20
  6
CONTINUOUS
 62
     4
100
AcDbLine
 10
225.0000000000005
 20
1170.7000000001
 30
0.0
 11
225.0000000000005
 21
1255.700000000105
 31
0.0
  0
LINE
  5
582
330
57E
100
AcDbEntity
  8
LAY-20
  6
CONTINUOUS
 62
     4
100
AcDbLine
 10
1224.99999999996
 20
1170.7000000001
 30
0.0
 11
1224.99999999996
 21
1255.700000000105
 31
0.0
  0
LINE
  5
583
330
57E
100
AcDbEntity
  8
LAY-20
  6
CONTINUOUS
 62
     4
100
AcDbLine
 10
237.5000000000005
 20
1248.200000000105
 30
0.0
 11
1212.49999999996
 21
1248.200000000105
 31
0.0
  0
INSERT
  5
584
330
57E
100
AcDbEntity
  8
LAY-20
 62
     4
100
AcDbBlockReference
  2
EX_BNORM
 10
225.0000000000005
 20
1248.200000000105
 30
0.0
 41
12.5
 42
12.5
 43
12.5
 50
180.0
  0
INSERT
  5
585
330
57E
100
AcDbEntity
  8
LAY-20
 62
     4
100
AcDbBlockReference
  2
EX_BNORM
 10
1224.99999999996
 20
1248.200000000105
 30
0.0
 41
12.5
 42
12.5
 43
12.5
  0
MTEXT
  5
586
330
57E
100
AcDbEntity
  8
LAY-20
 62
     7
100
AcDbMText
 10
724.9999999999803
 20
1260.700000000105
 30
0.0
 40
15.590552
 41
0.0
 71
     5
 72
     1
  1
1000
  7
EXCADDIM1
  0
POINT
  5
587
330
57E
100
AcDbEntity
  8
DEFPOINTS
 62
     0
100
AcDbPoint
 10
225.0000000000005
 20
1163.2000000001
 30
0.0
  0
POINT
  5
588
330
57E
100
AcDbEntity
  8
DEFPOINTS
 62
     0
100
AcDbPoint
 10
1224.99999999996
 20
1163.2000000001
 30
0.0
  0
POINT
  5
589
330
57E
100
AcDbEntity
  8
DEFPOINTS
 62
     0
100
AcDbPoint
 10
1224.99999999996
 20
1248.200000000105
 30
0.0
  0
ENDBLK
  5
580
330
57E
100
AcDbEntity
  8
0
100
AcDbBlockEnd
  0
BLOCK
  5
58C
330
58B
100
AcDbEntity
  8
0
100
AcDbBlockBegin
  2
*D16
 70
     1
 10
0.0
 20
0.0
 30
0.0
  3
*D16
  1

  0
LINE
  5
58E
330
58B
100
AcDbEntity
  8
LAY-20
  6
CONTINUOUS
 62
     4
100
AcDbLine
 10
1532.49999999996
 20
940.0000000000949
 30
0.0
 11
1637.49999999995
 21
940.000000000095
 31
0.0
  0
LINE
  5
58F
330
58B
100
AcDbEntity
  8
LAY-20
  6
CONTINUOUS
 62
     4
100
AcDbLine
 10
1532.49999999996
 20
1159.999999999995
 30
0.0
 11
1637.49999999995
 21
1159.999999999995
 31
0.0
  0
LINE
  5
590
330
58B
100
AcDbEntity
  8
LAY-20
  6
CONTINUOUS
 62
     4
100
AcDbLine
 10
1629.99999999995
 20
952.500000000095
 30
0.0
 11
1629.99999999995
 21
1147.499999999995
 31
0.0
  0
INSERT
  5
591
330
58B
100
AcDbEntity
  8
LAY-20
 62
     4
100
AcDbBlockReference
  2
EX_BNORM
 10
1629.99999999995
 20
940.000000000095
 30
0.0
 41
12.5
 42
12.5
 43
12.5
 50
270.0
  0
INSERT
  5
592
330
58B
100
AcDbEntity
  8
LAY-20
 62
     4
100
AcDbBlockReference
  2
EX_BNORM
 10
1629.99999999995
 20
1159.999999999995
 30
0.0
 41
12.5
 42
12.5
 43
12.5
 50
90.0
  0
MTEXT
  5
593
330
58B
100
AcDbEntity
  8
LAY-20
 62
     7
100
AcDbMText
 10
1617.49999999995
 20
1050.000000000045
 30
0.0
 40
15.590552
 41
0.0
 71
     5
 72
     1
  1
220
  7
EXCADDIM1
 11
0.0
 21
1.0
 31
0.0
  0
POINT
  5
594
330
58B
100
AcDbEntity
  8
DEFPOINTS
 62
     0
100
AcDbPoint
 10
1524.99999999996
 20
940.0000000000949
 30
0.0
  0
POINT
  5
595
330
58B
100
AcDbEntity
  8
DEFPOINTS
 62
     0
100
AcDbPoint
 10
1524.99999999996
 20
1159.999999999995
 30
0.0
  0
POINT
  5
596
330
58B
100
AcDbEntity
  8
DEFPOINTS
 62
     0
100
AcDbPoint
 10
1629.99999999995
 20
1159.999999999995
 30
0.0
  0
ENDBLK
  5
58D
330
58B
100
AcDbEntity
  8
0
100
AcDbBlockEnd
  0
BLOCK
  5
599
330
598
100
AcDbEntity
  8
0
100
AcDbBlockBegin
  2
*D17
 70
     1
 10
0.0
 20
0.0
 30
0.0
  3
*D17
  1

  0
LINE
  5
59B
330
598
100
AcDbEntity
  8
LAY-20
  6
CONTINUOUS
 62
     4
100
AcDbLine
 10
1594.99999999995
 20
957.500000000095
 30
0.0
 11
1594.99999999995
 21
1142.500000000095
 31
0.0
  0
INSERT
  5
59C
330
598
100
AcDbEntity
  8
LAY-20
 62
     4
100
AcDbBlockReference
  2
EX_BNORM
 10
1594.99999999995
 20
945.000000000095
 30
0.0
 41
12.5
 42
12.5
 43
12.5
 50
270.0
  0
INSERT
  5
59D
330
598
100
AcDbEntity
  8
LAY-20
 62
     4
100
AcDbBlockReference
  2
EX_BNORM
 10
1594.99999999995
 20
1155.000000000095
 30
0.0
 41
12.5
 42
12.5
 43
12.5
 50
90.0
  0
MTEXT
  5
59E
330
598
100
AcDbEntity
  8
LAY-20
 62
     7
100
AcDbMText
 10
1582.49999999995
 20
1050.000000000095
 30
0.0
 40
15.590552
 41
0.0
 71
     5
 72
     1
  1
210
  7
EXCADDIM1
 11
0.0
 21
1.0
 31
0.0
  0
POINT
  5
59F
330
598
100
AcDbEntity
  8
DEFPOINTS
 62
     0
100
AcDbPoint
 10
1484.99999999996
 20
945.0000000000949
 30
0.0
  0
POINT
  5
5A0
330
598
100
AcDbEntity
  8
DEFPOINTS
 62
     0
100
AcDbPoint
 10
1484.99999999996
 20
1155.000000000095
 30
0.0
  0
POINT
  5
5A1
330
598
100
AcDbEntity
  8
DEFPOINTS
 62
     0
100
AcDbPoint
 10
1594.99999999995
 20
1155.000000000095
 30
0.0
  0
ENDBLK
  5
59A
330
598
100
AcDbEntity
  8
0
100
AcDbBlockEnd
  0
BLOCK
  5
5A4
330
5A3
100
AcDbEntity
  8
0
100
AcDbBlockBegin
  2
*D18
 70
     1
 10
0.0
 20
0.0
 30
0.0
  3
*D18
  1

  0
LINE
  5
5A6
330
5A3
100
AcDbEntity
  8
LAY-20
  6
CONTINUOUS
 62
     4
100
AcDbLine
 10
225.0000000000005
 20
929.299999999895
 30
0.0
 11
225.0000000000005
 21
879.2999999999051
 31
0.0
  0
LINE
  5
5A7
330
5A3
100
AcDbEntity
  8
LAY-20
  6
CONTINUOUS
 62
     4
100
AcDbLine
 10
324.9999999999604
 20
910.835077728895
 30
0.0
 11
324.9999999999604
 21
879.2999999999051
 31
0.0
  0
LINE
  5
5A8
330
5A3
100
AcDbEntity
  8
LAY-20
  6
CONTINUOUS
 62
     4
100
AcDbLine
 10
237.5000000000005
 20
886.7999999999051
 30
0.0
 11
312.4999999999604
 21
886.7999999999051
 31
0.0
  0
INSERT
  5
5A9
330
5A3
100
AcDbEntity
  8
LAY-20
 62
     4
100
AcDbBlockReference
  2
EX_BNORM
 10
225.0000000000005
 20
886.7999999999051
 30
0.0
 41
12.5
 42
12.5
 43
12.5
 50
180.0
  0
INSERT
  5
5AA
330
5A3
100
AcDbEntity
  8
LAY-20
 62
     4
100
AcDbBlockReference
  2
EX_BNORM
 10
324.9999999999604
 20
886.7999999999051
 30
0.0
 41
12.5
 42
12.5
 43
12.5
  0
MTEXT
  5
5AB
330
5A3
100
AcDbEntity
  8
LAY-20
 62
     7
100
AcDbMText
 10
274.9999999999805
 20
899.2999999999051
 30
0.0
 40
15.590552
 41
0.0
 71
     5
 72
     1
  1
100
  7
EXCADDIM1
  0
POINT
  5
5AC
330
5A3
100
AcDbEntity
  8
DEFPOINTS
 62
     0
100
AcDbPoint
 10
225.0000000000005
 20
936.799999999895
 30
0.0
  0
POINT
  5
5AD
330
5A3
100
AcDbEntity
  8
DEFPOINTS
 62
     0
100
AcDbPoint
 10
324.9999999999604
 20
918.335077728895
 30
0.0
  0
POINT
  5
5AE
330
5A3
100
AcDbEntity
  8
DEFPOINTS
 62
     0
100
AcDbPoint
 10
324.9999999999604
 20
886.7999999999051
 30
0.0
  0
ENDBLK
  5
5A5
330
5A3
100
AcDbEntity
  8
0
100
AcDbBlockEnd
  0
BLOCK
  5
5B1
330
5B0
100
AcDbEntity
  8
0
100
AcDbBlockBegin
  2
*D19
 70
     1
 10
0.0
 20
0.0
 30
0.0
  3
*D19
  1

  0
LINE
  5
5B3
330
5B0
100
AcDbEntity
  8
LAY-20
  6
CONTINUOUS
 62
     4
100
AcDbLine
 10
724.9999999999604
 20
910.835077728895
 30
0.0
 11
724.9999999999604
 21
879.2999999999051
 31
0.0
  0
LINE
  5
5B4
330
5B0
100
AcDbEntity
  8
LAY-20
  6
CONTINUOUS
 62
     4
100
AcDbLine
 10
337.4999999999604
 20
886.7999999999051
 30
0.0
 11
712.4999999999604
 21
886.7999999999051
 31
0.0
  0
INSERT
  5
5B5
330
5B0
100
AcDbEntity
  8
LAY-20
 62
     4
100
AcDbBlockReference
  2
EX_BNORM
 10
324.9999999999604
 20
886.7999999999051
 30
0.0
 41
12.5
 42
12.5
 43
12.5
 50
180.0
  0
INSERT
  5
5B6
330
5B0
100
AcDbEntity
  8
LAY-20
 62
     4
100
AcDbBlockReference
  2
EX_BNORM
 10
724.9999999999604
 20
886.7999999999051
 30
0.0
 41
12.5
 42
12.5
 43
12.5
  0
MTEXT
  5
5B7
330
5B0
100
AcDbEntity
  8
LAY-20
 62
     7
100
AcDbMText
 10
524.9999999999606
 20
899.2999999999051
 30
0.0
 40
15.590552
 41
0.0
 71
     5
 72
     1
  1
400
  7
EXCADDIM1
  0
POINT
  5
5B8
330
5B0
100
AcDbEntity
  8
DEFPOINTS
 62
     0
100
AcDbPoint
 10
324.9999999999604
 20
918.335077728895
 30
0.0
  0
POINT
  5
5B9
330
5B0
100
AcDbEntity
  8
DEFPOINTS
 62
     0
100
AcDbPoint
 10
724.9999999999604
 20
918.335077728895
 30
0.0
  0
POINT
  5
5BA
330
5B0
100
AcDbEntity
  8
DEFPOINTS
 62
     0
100
AcDbPoint
 10
724.9999999999604
 20
886.7999999999051
 30
0.0
  0
ENDBLK
  5
5B2
330
5B0
100
AcDbEntity
  8
0
100
AcDbBlockEnd
  0
BLOCK
  5
5BD
330
5BC
100
AcDbEntity
  8
0
100
AcDbBlockBegin
  2
*D20
 70
     1
 10
0.0
 20
0.0
 30
0.0
  3
*D20
  1

  0
LINE
  5
5BF
330
5BC
100
AcDbEntity
  8
LAY-20
  6
CONTINUOUS
 62
     4
100
AcDbLine
 10
1124.99999999996
 20
910.835077728895
 30
0.0
 11
1124.99999999996
 21
879.2999999999051
 31
0.0
  0
LINE
  5
5C0
330
5BC
100
AcDbEntity
  8
LAY-20
  6
CONTINUOUS
 62
     4
100
AcDbLine
 10
737.4999999999604
 20
886.7999999999051
 30
0.0
 11
1112.49999999996
 21
886.7999999999051
 31
0.0
  0
INSERT
  5
5C1
330
5BC
100
AcDbEntity
  8
LAY-20
 62
     4
100
AcDbBlockReference
  2
EX_BNORM
 10
724.9999999999604
 20
886.7999999999051
 30
0.0
 41
12.5
 42
12.5
 43
12.5
 50
180.0
  0
INSERT
  5
5C2
330
5BC
100
AcDbEntity
  8
LAY-20
 62
     4
100
AcDbBlockReference
  2
EX_BNORM
 10
1124.99999999996
 20
886.7999999999051
 30
0.0
 41
12.5
 42
12.5
 43
12.5
  0
MTEXT
  5
5C3
330
5BC
100
AcDbEntity
  8
LAY-20
 62
     7
100
AcDbMText
 10
924.9999999999604
 20
899.2999999999051
 30
0.0
 40
15.590552
 41
0.0
 71
     5
 72
     1
  1
400
  7
EXCADDIM1
  0
POINT
  5
5C4
330
5BC
100
AcDbEntity
  8
DEFPOINTS
 62
     0
100
AcDbPoint
 10
724.9999999999604
 20
918.335077728895
 30
0.0
  0
POINT
  5
5C5
330
5BC
100
AcDbEntity
  8
DEFPOINTS
 62
     0
100
AcDbPoint
 10
1124.99999999996
 20
918.335077728895
 30
0.0
  0
POINT
  5
5C6
330
5BC
100
AcDbEntity
  8
DEFPOINTS
 62
     0
100
AcDbPoint
 10
1124.99999999996
 20
886.7999999999051
 30
0.0
  0
ENDBLK
  5
5BE
330
5BC
100
AcDbEntity
  8
0
100
AcDbBlockEnd
  0
BLOCK
  5
5C9
330
5C8
100
AcDbEntity
  8
0
100
AcDbBlockBegin
  2
*D21
 70
     1
 10
0.0
 20
0.0
 30
0.0
  3
*D21
  1

  0
LINE
  5
5CB
330
5C8
100
AcDbEntity
  8
LAY-20
  6
CONTINUOUS
 62
     4
100
AcDbLine
 10
1224.99999999996
 20
929.299999999895
 30
0.0
 11
1224.99999999996
 21
879.2999999999051
 31
0.0
  0
LINE
  5
5CC
330
5C8
100
AcDbEntity
  8
LAY-20
  6
CONTINUOUS
 62
     4
100
AcDbLine
 10
1137.49999999996
 20
886.7999999999051
 30
0.0
 11
1212.49999999996
 21
886.7999999999051
 31
0.0
  0
INSERT
  5
5CD
330
5C8
100
AcDbEntity
  8
LAY-20
 62
     4
100
AcDbBlockReference
  2
EX_BNORM
 10
1124.99999999996
 20
886.7999999999051
 30
0.0
 41
12.5
 42
12.5
 43
12.5
 50
180.0
  0
INSERT
  5
5CE
330
5C8
100
AcDbEntity
  8
LAY-20
 62
     4
100
AcDbBlockReference
  2
EX_BNORM
 10
1224.99999999996
 20
886.7999999999051
 30
0.0
 41
12.5
 42
12.5
 43
12.5
  0
MTEXT
  5
5CF
330
5C8
100
AcDbEntity
  8
LAY-20
 62
     7
100
AcDbMText
 10
1174.99999999996
 20
899.2999999999051
 30
0.0
 40
15.590552
 41
0.0
 71
     5
 72
     1
  1
100
  7
EXCADDIM1
  0
POINT
  5
5D0
330
5C8
100
AcDbEntity
  8
DEFPOINTS
 62
     0
100
AcDbPoint
 10
1124.99999999996
 20
918.335077728895
 30
0.0
  0
POINT
  5
5D1
330
5C8
100
AcDbEntity
  8
DEFPOINTS
 62
     0
100
AcDbPoint
 10
1224.99999999996
 20
936.799999999895
 30
0.0
  0
POINT
  5
5D2
330
5C8
100
AcDbEntity
  8
DEFPOINTS
 62
     0
100
AcDbPoint
 10
1224.99999999996
 20
886.7999999999051
 30
0.0
  0
ENDBLK
  5
5CA
330
5C8
100
AcDbEntity
  8
0
100
AcDbBlockEnd
  0
BLOCK
  5
5D5
330
5D4
100
AcDbEntity
  8
0
100
AcDbBlockBegin
  2
*D22
 70
     1
 10
0.0
 20
0.0
 30
0.0
  3
*D22
  1

  0
LINE
  5
5D7
330
5D4
100
AcDbEntity
  8
LAY-20
  6
CONTINUOUS
 62
     4
100
AcDbLine
 10
1375.00000000006
 20
1101.000000000085
 30
0.0
 11
1375.00000000006
 21
1290.700000000105
 31
0.0
  0
LINE
  5
5D8
330
5D4
100
AcDbEntity
  8
LAY-20
  6
CONTINUOUS
 62
     4
100
AcDbLine
 10
1524.99999999996
 20
1171.999999999995
 30
0.0
 11
1524.99999999996
 21
1290.700000000105
 31
0.0
  0
LINE
  5
5D9
330
5D4
100
AcDbEntity
  8
LAY-20
  6
CONTINUOUS
 62
     4
100
AcDbLine
 10
1387.50000000006
 20
1283.200000000105
 30
0.0
 11
1512.49999999996
 21
1283.200000000105
 31
0.0
  0
INSERT
  5
5DA
330
5D4
100
AcDbEntity
  8
LAY-20
 62
     4
100
AcDbBlockReference
  2
EX_BNORM
 10
1375.00000000006
 20
1283.200000000105
 30
0.0
 41
12.5
 42
12.5
 43
12.5
 50
180.0
  0
INSERT
  5
5DB
330
5D4
100
AcDbEntity
  8
LAY-20
 62
     4
100
AcDbBlockReference
  2
EX_BNORM
 10
1524.99999999996
 20
1283.200000000105
 30
0.0
 41
12.5
 42
12.5
 43
12.5
  0
MTEXT
  5
5DC
330
5D4
100
AcDbEntity
  8
LAY-20
 62
     7
100
AcDbMText
 10
1450.00000000001
 20
1295.700000000105
 30
0.0
 40
15.590552
 41
0.0
 71
     5
 72
     1
  1
150
  7
EXCADDIM1
  0
POINT
  5
5DD
330
5D4
100
AcDbEntity
  8
DEFPOINTS
 62
     0
100
AcDbPoint
 10
1375.00000000006
 20
1093.500000000085
 30
0.0
  0
POINT
  5
5DE
330
5D4
100
AcDbEntity
  8
DEFPOINTS
 62
     0
100
AcDbPoint
 10
1524.99999999996
 20
1164.499999999995
 30
0.0
  0
POINT
  5
5DF
330
5D4
100
AcDbEntity
  8
DEFPOINTS
 62
     0
100
AcDbPoint
 10
1524.99999999996
 20
1283.200000000105
 30
0.0
  0
ENDBLK
  5
5D6
330
5D4
100
AcDbEntity
  8
0
100
AcDbBlockEnd
  0
BLOCK
  5
5E2
330
5E1
100
AcDbEntity
  8
0
100
AcDbBlockBegin
  2
*D23
 70
     1
 10
0.0
 20
0.0
 30
0.0
  3
*D23
  1

  0
LINE
  5
5E4
330
5E1
100
AcDbEntity
  8
LAY-20
  6
CONTINUOUS
 62
     4
100
AcDbLine
 10
1485.00000000006
 20
1166.499999999995
 30
0.0
 11
1485.00000000006
 21
1255.700000000105
 31
0.0
  0
LINE
  5
5E5
330
5E1
100
AcDbEntity
  8
LAY-20
  6
CONTINUOUS
 62
     4
100
AcDbLine
 10
1472.50000000006
 20
1248.200000000105
 30
0.0
 11
1387.50000000006
 21
1248.200000000105
 31
0.0
  0
INSERT
  5
5E6
330
5E1
100
AcDbEntity
  8
LAY-20
 62
     4
100
AcDbBlockReference
  2
EX_BNORM
 10
1485.00000000006
 20
1248.200000000105
 30
0.0
 41
12.5
 42
12.5
 43
12.5
  0
INSERT
  5
5E7
330
5E1
100
AcDbEntity
  8
LAY-20
 62
     4
100
AcDbBlockReference
  2
EX_BNORM
 10
1375.00000000006
 20
1248.200000000105
 30
0.0
 41
12.5
 42
12.5
 43
12.5
 50
180.0
  0
MTEXT
  5
5E8
330
5E1
100
AcDbEntity
  8
LAY-20
 62
     7
100
AcDbMText
 10
1430.00000000006
 20
1260.700000000105
 30
0.0
 40
15.590552
 41
0.0
 71
     5
 72
     1
  1
110
  7
EXCADDIM1
  0
POINT
  5
5E9
330
5E1
100
AcDbEntity
  8
DEFPOINTS
 62
     0
100
AcDbPoint
 10
1485.00000000006
 20
1158.999999999995
 30
0.0
  0
POINT
  5
5EA
330
5E1
100
AcDbEntity
  8
DEFPOINTS
 62
     0
100
AcDbPoint
 10
1375.00000000006
 20
1263.664922271095
 30
0.0
  0
POINT
  5
5EB
330
5E1
100
AcDbEntity
  8
DEFPOINTS
 62
     0
100
AcDbPoint
 10
1375.00000000006
 20
1248.200000000105
 30
0.0
  0
ENDBLK
  5
5E3
330
5E1
100
AcDbEntity
  8
0
100
AcDbBlockEnd
  0
BLOCK
  5
5EE
330
5ED
100
AcDbEntity
  8
0
100
AcDbBlockBegin
  2
*D24
 70
     1
 10
0.0
 20
0.0
 30
0.0
  3
*D24
  1

  0
LINE
  5
5F0
330
5ED
100
AcDbEntity
  8
LAY-20
  6
CONTINUOUS
 62
     4
100
AcDbLine
 10
1497.50000000006
 20
1248.200000000105
 30
0.0
 11
1512.49999999996
 21
1248.200000000105
 31
0.0
  0
INSERT
  5
5F1
330
5ED
100
AcDbEntity
  8
LAY-20
 62
     4
100
AcDbBlockReference
  2
EX_BNORM
 10
1485.00000000006
 20
1248.200000000105
 30
0.0
 41
12.5
 42
12.5
 43
12.5
 50
180.0
  0
INSERT
  5
5F2
330
5ED
100
AcDbEntity
  8
LAY-20
 62
     4
100
AcDbBlockReference
  2
EX_BNORM
 10
1524.99999999996
 20
1248.200000000105
 30
0.0
 41
12.5
 42
12.5
 43
12.5
  0
MTEXT
  5
5F3
330
5ED
100
AcDbEntity
  8
LAY-20
 62
     7
100
AcDbMText
 10
1505.00000000001
 20
1260.700000000105
 30
0.0
 40
15.590552
 41
0.0
 71
     5
 72
     1
  1
40
  7
EXCADDIM1
  0
POINT
  5
5F4
330
5ED
100
AcDbEntity
  8
DEFPOINTS
 62
     0
100
AcDbPoint
 10
1485.00000000006
 20
1263.664922271095
 30
0.0
  0
POINT
  5
5F5
330
5ED
100
AcDbEntity
  8
DEFPOINTS
 62
     0
100
AcDbPoint
 10
1524.99999999996
 20
1263.664922271095
 30
0.0
  0
POINT
  5
5F6
330
5ED
100
AcDbEntity
  8
DEFPOINTS
 62
     0
100
AcDbPoint
 10
1524.99999999996
 20
1248.200000000105
 30
0.0
  0
ENDBLK
  5
5EF
330
5ED
100
AcDbEntity
  8
0
100
AcDbBlockEnd
  0
BLOCK
  5
5F9
330
5F8
100
AcDbEntity
  8
0
100
AcDbBlockBegin
  2
*D25
 70
     1
 10
0.0
 20
0.0
 30
0.0
  3
*D25
  1

  0
LINE
  5
5FB
330
5F8
100
AcDbEntity
  8
LAY-20
  6
CONTINUOUS
 62
     4
100
AcDbLine
 10
1480.50000000006
 20
1166.999999999995
 30
0.0
 11
1480.50000000006
 21
1220.700000000105
 31
0.0
  0
LINE
  5
5FC
330
5F8
100
AcDbEntity
  8
LAY-20
  6
CONTINUOUS
 62
     4
100
AcDbLine
 10
1468.00000000006
 20
1213.200000000105
 30
0.0
 11
1387.50000000006
 21
1213.200000000105
 31
0.0
  0
INSERT
  5
5FD
330
5F8
100
AcDbEntity
  8
LAY-20
 62
     4
100
AcDbBlockReference
  2
EX_BNORM
 10
1480.50000000006
 20
1213.200000000105
 30
0.0
 41
12.5
 42
12.5
 43
12.5
  0
INSERT
  5
5FE
330
5F8
100
AcDbEntity
  8
LAY-20
 62
     4
100
AcDbBlockReference
  2
EX_BNORM
 10
1375.00000000006
 20
1213.200000000105
 30
0.0
 41
12.5
 42
12.5
 43
12.5
 50
180.0
  0
MTEXT
  5
5FF
330
5F8
100
AcDbEntity
  8
LAY-20
 62
     7
100
AcDbMText
 10
1427.75000000006
 20
1225.700000000105
 30
0.0
 40
15.590552
 41
0.0
 71
     5
 72
     1
  1
105.5
  7
EXCADDIM1
  0
POINT
  5
600
330
5F8
100
AcDbEntity
  8
DEFPOINTS
 62
     0
100
AcDbPoint
 10
1480.50000000006
 20
1159.499999999995
 30
0.0
  0
POINT
  5
601
330
5F8
100
AcDbEntity
  8
DEFPOINTS
 62
     0
100
AcDbPoint
 10
1375.00000000006
 20
1228.664922271095
 30
0.0
  0
POINT
  5
602
330
5F8
100
AcDbEntity
  8
DEFPOINTS
 62
     0
100
AcDbPoint
 10
1375.00000000006
 20
1213.200000000105
 30
0.0
  0
ENDBLK
  5
5FA
330
5F8
100
AcDbEntity
  8
0
100
AcDbBlockEnd
  0
BLOCK
  5
605
330
604
100
AcDbEntity
  8
0
100
AcDbBlockBegin
  2
*D26
 70
     1
 10
0.0
 20
0.0
 30
0.0
  3
*D26
  1

  0
LINE
  5
607
330
604
100
AcDbEntity
  8
LAY-20
  6
CONTINUOUS
 62
     4
100
AcDbLine
 10
1492.5
 20
975.0000000000451
 30
0.0
 11
1567.5
 21
975.0000000000452
 31
0.0
  0
LINE
  5
608
330
604
100
AcDbEntity
  8
LAY-20
  6
CONTINUOUS
 62
     4
100
AcDbLine
 10
1492.5
 20
1125.000000000005
 30
0.0
 11
1567.5
 21
1125.000000000005
 31
0.0
  0
LINE
  5
609
330
604
100
AcDbEntity
  8
LAY-20
  6
CONTINUOUS
 62
     4
100
AcDbLine
 10
1560.0
 20
987.5000000000452
 30
0.0
 11
1560.0
 21
1112.500000000005
 31
0.0
  0
INSERT
  5
60A
330
604
100
AcDbEntity
  8
LAY-20
 62
     4
100
AcDbBlockReference
  2
EX_BNORM
 10
1560.0
 20
975.0000000000452
 30
0.0
 41
12.5
 42
12.5
 43
12.5
 50
270.0
  0
INSERT
  5
60B
330
604
100
AcDbEntity
  8
LAY-20
 62
     4
100
AcDbBlockReference
  2
EX_BNORM
 10
1560.0
 20
1125.000000000005
 30
0.0
 41
12.5
 42
12.5
 43
12.5
 50
90.0
  0
MTEXT
  5
60C
330
604
100
AcDbEntity
  8
LAY-20
 62
     7
100
AcDbMText
 10
1547.5
 20
1050.000000000025
 30
0.0
 40
15.590552
 41
0.0
 71
     5
 72
     1
  1
溝幅150
  7
EXCADDIM1
 11
0.0
 21
1.0
 31
0.0
  0
POINT
  5
60D
330
604
100
AcDbEntity
  8
DEFPOINTS
 62
     0
100
AcDbPoint
 10
1485.0
 20
975.0000000000451
 30
0.0
  0
POINT
  5
60E
330
604
100
AcDbEntity
  8
DEFPOINTS
 62
     0
100
AcDbPoint
 10
1485.0
 20
1125.000000000005
 30
0.0
  0
POINT
  5
60F
330
604
100
AcDbEntity
  8
DEFPOINTS
 62
     0
100
AcDbPoint
 10
1560.0
 20
1125.000000000005
 30
0.0
  0
ENDBLK
  5
606
330
604
100
AcDbEntity
  8
0
100
AcDbBlockEnd
  0
BLOCK
  5
612
330
611
100
AcDbEntity
  8
0
100
AcDbBlockBegin
  2
*D27
 70
     1
 10
0.0
 20
0.0
 30
0.0
  3
*D27
  1

  0
LINE
  5
614
330
611
100
AcDbEntity
  8
LAY-20
  6
CONTINUOUS
 62
     4
100
AcDbLine
 10
1223.99999999998
 20
1094.499980369746
 30
0.0
 11
1223.99999999998
 21
1220.700000000095
 31
0.0
  0
LINE
  5
615
330
611
100
AcDbEntity
  8
LAY-20
  6
CONTINUOUS
 62
     4
100
AcDbLine
 10
226.0000000000296
 20
1094.499980369746
 30
0.0
 11
226.0000000000296
 21
1220.700000000095
 31
0.0
  0
LINE
  5
616
330
611
100
AcDbEntity
  8
LAY-20
  6
CONTINUOUS
 62
     4
100
AcDbLine
 10
1208.99999999998
 20
1213.200000000095
 30
0.0
 11
241.0000000000296
 21
1213.200000000095
 31
0.0
  0
INSERT
  5
617
330
611
100
AcDbEntity
  8
LAY-20
 62
     4
100
AcDbBlockReference
  2
EX_BNORM
 10
1223.99999999998
 20
1213.200000000095
 30
0.0
 41
15.0
 42
15.0
 43
15.0
  0
INSERT
  5
618
330
611
100
AcDbEntity
  8
LAY-20
 62
     4
100
AcDbBlockReference
  2
EX_BNORM
 10
226.0000000000296
 20
1213.200000000095
 30
0.0
 41
15.0
 42
15.0
 43
15.0
 50
180.0
  0
MTEXT
  5
619
330
611
100
AcDbEntity
  8
LAY-20
 62
     7
100
AcDbMText
 10
725.0000000000049
 20
1225.700000000095
 30
0.0
 40
15.590552
 41
0.0
 71
     5
 72
     1
  1
998
  7
EXCADDIM1
  0
POINT
  5
61A
330
611
100
AcDbEntity
  8
DEFPOINTS
 62
     0
100
AcDbPoint
 10
1223.99999999998
 20
1086.999980369746
 30
0.0
  0
POINT
  5
61B
330
611
100
AcDbEntity
  8
DEFPOINTS
 62
     0
100
AcDbPoint
 10
226.0000000000296
 20
1086.999980369746
 30
0.0
  0
POINT
  5
61C
330
611
100
AcDbEntity
  8
DEFPOINTS
 62
     0
100
AcDbPoint
 10
226.0000000000296
 20
1213.200000000095
 30
0.0
  0
ENDBLK
  5
613
330
611
100
AcDbEntity
  8
0
100
AcDbBlockEnd
  0
BLOCK
  5
61F
330
61E
100
AcDbEntity
  8
0
100
AcDbBlockBegin
  2
*D28
 70
     1
 10
0.0
 20
0.0
 30
0.0
  3
*D28
  1

  0
LINE
  5
621
330
61E
100
AcDbEntity
  8
LAY-20
  6
CONTINUOUS
 62
     4
100
AcDbLine
 10
1367.5
 20
1093.500000000045
 30
0.0
 11
1282.5
 21
1093.500000000045
 31
0.0
  0
LINE
  5
622
330
61E
100
AcDbEntity
  8
LAY-20
  6
CONTINUOUS
 62
     4
100
AcDbLine
 10
1367.5
 20
1006.497416355625
 30
0.0
 11
1282.5
 21
1006.497416355625
 31
0.0
  0
LINE
  5
623
330
61E
100
AcDbEntity
  8
LAY-20
  6
CONTINUOUS
 62
     4
100
AcDbLine
 10
1290.0
 20
1078.500000000045
 30
0.0
 11
1290.0
 21
1021.497416355625
 31
0.0
  0
INSERT
  5
624
330
61E
100
AcDbEntity
  8
LAY-20
 62
     4
100
AcDbBlockReference
  2
EX_BNORM
 10
1290.0
 20
1093.500000000045
 30
0.0
 41
15.0
 42
15.0
 43
15.0
 50
90.0
  0
INSERT
  5
625
330
61E
100
AcDbEntity
  8
LAY-20
 62
     4
100
AcDbBlockReference
  2
EX_BNORM
 10
1290.0
 20
1006.497416355625
 30
0.0
 41
15.0
 42
15.0
 43
15.0
 50
270.0
  0
MTEXT
  5
626
330
61E
100
AcDbEntity
  8
LAY-20
 62
     7
100
AcDbMText
 10
1277.5
 20
1049.998708177835
 30
0.0
 40
15.590552
 41
0.0
 71
     5
 72
     1
  1
87
  7
EXCADDIM1
 11
0.0
 21
1.0
 31
0.0
  0
POINT
  5
627
330
61E
100
AcDbEntity
  8
DEFPOINTS
 62
     0
100
AcDbPoint
 10
1375.0
 20
1093.500000000045
 30
0.0
  0
POINT
  5
628
330
61E
100
AcDbEntity
  8
DEFPOINTS
 62
     0
100
AcDbPoint
 10
1375.0
 20
1006.497416355625
 30
0.0
  0
POINT
  5
629
330
61E
100
AcDbEntity
  8
DEFPOINTS
 62
     0
100
AcDbPoint
 10
1290.0
 20
1006.497416355625
 30
0.0
  0
ENDBLK
  5
620
330
61E
100
AcDbEntity
  8
0
100
AcDbBlockEnd
  0
BLOCK
  5
62C
330
62B
100
AcDbEntity
  8
0
100
AcDbBlockBegin
  2
*D29
 70
     1
 10
0.0
 20
0.0
 30
0.0
  3
*D29
  1

  0
LINE
  5
62E
330
62B
100
AcDbEntity
  8
LAY-20
  6
CONTINUOUS
 62
     4
100
AcDbLine
 10
1372.5000560688
 20
1087.000000000045
 30
0.0
 11
1317.5
 21
1087.000000000045
 31
0.0
  0
LINE
  5
62F
330
62B
100
AcDbEntity
  8
LAY-20
  6
CONTINUOUS
 62
     4
100
AcDbLine
 10
1372.5000560688
 20
1012.997416355625
 30
0.0
 11
1317.5
 21
1012.997416355625
 31
0.0
  0
LINE
  5
630
330
62B
100
AcDbEntity
  8
LAY-20
  6
CONTINUOUS
 62
     4
100
AcDbLine
 10
1325.0
 20
1072.000000000045
 30
0.0
 11
1325.0
 21
1027.997416355625
 31
0.0
  0
INSERT
  5
631
330
62B
100
AcDbEntity
  8
LAY-20
 62
     4
100
AcDbBlockReference
  2
EX_BNORM
 10
1325.0
 20
1087.000000000045
 30
0.0
 41
15.0
 42
15.0
 43
15.0
 50
90.0
  0
INSERT
  5
632
330
62B
100
AcDbEntity
  8
LAY-20
 62
     4
100
AcDbBlockReference
  2
EX_BNORM
 10
1325.0
 20
1012.997416355625
 30
0.0
 41
15.0
 42
15.0
 43
15.0
 50
270.0
  0
MTEXT
  5
633
330
62B
100
AcDbEntity
  8
LAY-20
 62
     7
100
AcDbMText
 10
1312.5
 20
1049.998708177835
 30
0.0
 40
15.590552
 41
0.0
 71
     5
 72
     1
  1
74
  7
EXCADDIM1
 11
0.0
 21
1.0
 31
0.0
  0
POINT
  5
634
330
62B
100
AcDbEntity
  8
DEFPOINTS
 62
     0
100
AcDbPoint
 10
1380.0000560688
 20
1087.000000000045
 30
0.0
  0
POINT
  5
635
330
62B
100
AcDbEntity
  8
DEFPOINTS
 62
     0
100
AcDbPoint
 10
1380.0000560688
 20
1012.997416355625
 30
0.0
  0
POINT
  5
636
330
62B
100
AcDbEntity
  8
DEFPOINTS
 62
     0
100
AcDbPoint
 10
1325.0
 20
1012.997416355625
 30
0.0
  0
ENDBLK
  5
62D
330
62B
100
AcDbEntity
  8
0
100
AcDbBlockEnd
  0
ENDSEC
  0
SECTION
  2
ENTITIES
  0
LINE
  5
D4
330
1F
100
AcDbEntity
  8
LAY-10
  6
CONTINUOUS
 62
     7
100
AcDbLine
 10
1518.598846298227
 20
945.0000000000424
 30
0.0
 11
1488.482754482155
 21
975.1160918161142
 31
0.0
  0
LINE
  5
D5
330
1F
100
AcDbEntity
  8
LAY-10
  6
CONTINUOUS
 62
     7
100
AcDbLine
 10
1539.812049733823
 20
945.0000000000424
 30
0.0
 11
1509.011661032726
 21
975.8003887011394
 31
0.0
  0
LINE
  5
D6
330
1F
100
AcDbEntity
  8
LAY-10
  6
CONTINUOUS
 62
     7
100
AcDbLine
 10
1631.735931288074
 20
945.0000000000424
 30
0.0
 11
1597.97025608523
 21
978.7656752028867
 31
0.0
  0
LINE
  5
D7
330
1F
100
AcDbEntity
  8
LAY-10
  6
CONTINUOUS
 62
     7
100
AcDbLine
 10
1494.478280854422
 20
1124.684057304888
 30
0.0
 11
1485.000000000001
 21
1134.162338159309
 31
0.0
  0
LINE
  5
D8
330
1F
100
AcDbEntity
  8
LAY-10
  6
CONTINUOUS
 62
     7
100
AcDbLine
 10
1669.999999999995
 20
1041.086219713566
 30
0.0
 11
1635.000000000008
 21
1076.086219713553
 31
0.0
  0
LINE
  5
D9
330
1F
100
AcDbEntity
  8
LAY-10
  6
CONTINUOUS
 62
     7
100
AcDbLine
 10
1589.571951427772
 20
1121.51426828579
 30
0.0
 11
1556.086219713515
 21
1155.000000000046
 31
0.0
  0
LINE
  5
DA
330
1F
100
AcDbEntity
  8
LAY-10
  6
CONTINUOUS
 62
     7
100
AcDbLine
 10
1670.0
 20
1083.512626584753
 30
0.0
 11
1598.512626584708
 21
1155.000000000045
 31
0.0
  0
LINE
  5
DB
330
1F
100
AcDbEntity
  8
LAY-10
  6
CONTINUOUS
 62
     7
100
AcDbLine
 10
1612.190568448439
 20
1120.108854700718
 30
0.0
 11
1577.299423149112
 21
1155.000000000046
 31
0.0
  0
LINE
  5
DC
330
1F
100
AcDbEntity
  8
LAY-10
  6
CONTINUOUS
 62
     7
100
AcDbLine
 10
1670.0
 20
1062.299423149157
 30
0.0
 11
1634.12551674028
 21
1098.173906408878
 31
0.0
  0
LINE
  5
DD
330
1F
100
AcDbEntity
  8
LAY-10
  6
CONTINUOUS
 62
     7
100
AcDbLine
 10
1659.581169079648
 20
959.5811690796617
 30
0.0
 11
1628.629440452377
 21
990.532897706932
 31
0.0
  0
LINE
  5
DE
330
1F
100
AcDbEntity
  8
LAY-10
  6
CONTINUOUS
 62
     7
100
AcDbLine
 10
1648.974567361849
 20
948.9745673618639
 30
0.0
 11
1616.599337001068
 21
981.3497977226458
 31
0.0
  0
LINE
  5
DF
330
1F
100
AcDbEntity
  8
LAY-10
  6
CONTINUOUS
 62
     7
100
AcDbLine
 10
1145.0
 20
714.99999999995
 30
0.0
 11
1145.0
 21
674.99999999995
 31
0.0
  0
LINE
  5
E0
330
1F
100
AcDbEntity
  8
LAY-10
  6
CONTINUOUS
 62
     7
100
AcDbLine
 10
1140.0
 20
705.4999999999499
 30
0.0
 11
1140.0
 21
677.9999999999499
 31
0.0
  0
LINE
  5
E1
330
1F
100
AcDbEntity
  8
LAY-10
  6
CONTINUOUS
 62
     7
100
AcDbLine
 10
1135.5
 20
709.99999999995
 30
0.0
 11
1108.0
 21
709.99999999995
 31
0.0
  0
LINE
  5
E2
330
1F
100
AcDbEntity
  8
LAY-10
  6
CONTINUOUS
 62
     7
100
AcDbLine
 10
1105.0
 20
714.99999999995
 30
0.0
 11
1105.0
 21
712.9999999999499
 31
0.0
  0
ARC
  5
E3
330
1F
100
AcDbEntity
  8
LAY-10
  6
CONTINUOUS
 62
     7
100
AcDbCircle
 10
1108.0
 20
712.9999999999499
 30
0.0
 40
3.000000000000003
100
AcDbArc
 50
180.0
 51
270.0
  0
ARC
  5
E4
330
1F
100
AcDbEntity
  8
LAY-10
  6
CONTINUOUS
 62
     7
100
AcDbCircle
 10
1143.0
 20
677.9999999999499
 30
0.0
 40
3.000000000000003
100
AcDbArc
 50
180.0
 51
270.0
  0
ARC
  5
E5
330
1F
100
AcDbEntity
  8
LAY-10
  6
CONTINUOUS
 62
     7
100
AcDbCircle
 10
1135.5
 20
705.4999999999499
 30
0.0
 40
4.5
100
AcDbArc
 50
0.0
 51
90.00000000000014
  0
LINE
  5
E6
330
1F
100
AcDbEntity
  8
LAY-10
  6
CONTINUOUS
 62
     7
100
AcDbLine
 10
744.9999999999998
 20
714.99999999995
 30
0.0
 11
744.9999999999998
 21
674.99999999995
 31
0.0
  0
LINE
  5
E7
330
1F
100
AcDbEntity
  8
LAY-10
  6
CONTINUOUS
 62
     7
100
AcDbLine
 10
739.9999999999998
 20
705.4999999999499
 30
0.0
 11
739.9999999999998
 21
677.9999999999499
 31
0.0
  0
LINE
  5
E8
330
1F
100
AcDbEntity
  8
LAY-10
  6
CONTINUOUS
 62
     7
100
AcDbLine
 10
735.4999999999999
 20
709.99999999995
 30
0.0
 11
707.9999999999999
 21
709.99999999995
 31
0.0
  0
LINE
  5
E9
330
1F
100
AcDbEntity
  8
LAY-10
  6
CONTINUOUS
 62
     7
100
AcDbLine
 10
704.9999999999998
 20
714.99999999995
 30
0.0
 11
704.9999999999998
 21
712.9999999999499
 31
0.0
  0
ARC
  5
EA
330
1F
100
AcDbEntity
  8
LAY-10
  6
CONTINUOUS
 62
     7
100
AcDbCircle
 10
707.9999999999999
 20
712.9999999999499
 30
0.0
 40
3.000000000000003
100
AcDbArc
 50
180.0
 51
270.0
  0
ARC
  5
EB
330
1F
100
AcDbEntity
  8
LAY-10
  6
CONTINUOUS
 62
     7
100
AcDbCircle
 10
742.9999999999999
 20
677.9999999999499
 30
0.0
 40
3.000000000000003
100
AcDbArc
 50
180.0
 51
270.0
  0
ARC
  5
EC
330
1F
100
AcDbEntity
  8
LAY-10
  6
CONTINUOUS
 62
     7
100
AcDbCircle
 10
735.4999999999999
 20
705.4999999999499
 30
0.0
 40
4.5
100
AcDbArc
 50
0.0
 51
90.00000000000014
  0
LINE
  5
ED
330
1F
100
AcDbEntity
  8
LAY-10
  6
CONTINUOUS
 62
     7
100
AcDbLine
 10
345.0
 20
714.99999999995
 30
0.0
 11
345.0
 21
674.99999999995
 31
0.0
  0
LINE
  5
EE
330
1F
100
AcDbEntity
  8
LAY-10
  6
CONTINUOUS
 62
     7
100
AcDbLine
 10
340.0
 20
705.4999999999499
 30
0.0
 11
340.0
 21
677.9999999999499
 31
0.0
  0
LINE
  5
EF
330
1F
100
AcDbEntity
  8
LAY-10
  6
CONTINUOUS
 62
     7
100
AcDbLine
 10
335.5
 20
709.99999999995
 30
0.0
 11
308.0
 21
709.99999999995
 31
0.0
  0
LINE
  5
F0
330
1F
100
AcDbEntity
  8
LAY-10
  6
CONTINUOUS
 62
     7
100
AcDbLine
 10
305.0
 20
714.99999999995
 30
0.0
 11
305.0
 21
712.9999999999499
 31
0.0
  0
ARC
  5
F1
330
1F
100
AcDbEntity
  8
LAY-10
  6
CONTINUOUS
 62
     7
100
AcDbCircle
 10
308.0
 20
712.9999999999499
 30
0.0
 40
3.000000000000003
100
AcDbArc
 50
180.0
 51
270.0
  0
ARC
  5
F2
330
1F
100
AcDbEntity
  8
LAY-10
  6
CONTINUOUS
 62
     7
100
AcDbCircle
 10
343.0
 20
677.9999999999499
 30
0.0
 40
3.000000000000003
100
AcDbArc
 50
180.0
 51
270.0
  0
ARC
  5
F3
330
1F
100
AcDbEntity
  8
LAY-10
  6
CONTINUOUS
 62
     7
100
AcDbCircle
 10
335.5
 20
705.4999999999499
 30
0.0
 40
4.5
100
AcDbArc
 50
0.0
 51
90.00000000000014
  0
LINE
  5
F4
330
1F
100
AcDbEntity
  8
LAY-10
  6
CONTINUOUS
 62
     7
100
AcDbLine
 10
224.9999999999977
 20
1089.000000000098
 30
0.0
 11
1224.999999999998
 21
1089.000000000099
 31
0.0
  0
LINE
  5
F5
330
1F
100
AcDbEntity
  8
LAY-10
  6
CONTINUOUS
 62
     7
100
AcDbLine
 10
224.9999999999977
 20
1010.999960739598
 30
0.0
 11
1224.999999999998
 21
1010.9999607396
 31
0.0
  0
LINE
  5
F6
330
1F
100
AcDbEntity
  8
LAY-10
  6
CONTINUOUS
 62
     7
100
AcDbLine
 10
1525.000000000011
 20
1115.000000000045
 30
0.0
 11
1485.00000000001
 21
1115.000000000045
 31
0.0
  0
LINE
  5
F7
330
1F
100
AcDbEntity
  8
LAY-10
  6
CONTINUOUS
 62
     7
100
AcDbLine
 10
1525.000000000011
 20
985.0000000000445
 30
0.0
 11
1485.00000000001
 21
985.0000000000445
 31
0.0
  0
LINE
  5
F8
330
1F
100
AcDbEntity
  8
LAY-10
  6
CONTINUOUS
 62
     7
100
AcDbLine
 10
1525.000000000011
 20
1115.000000000045
 30
0.0
 11
1525.000000000011
 21
985.0000000000445
 31
0.0
  0
LINE
  5
F9
330
1F
100
AcDbEntity
  8
LAY-10
  6
CONTINUOUS
 62
     7
100
AcDbLine
 10
225.0
 20
1163.2000000001
 30
0.0
 11
1224.99999999996
 21
1163.2000000001
 31
0.0
  0
ARC
  5
FA
330
1F
100
AcDbEntity
  8
LAY-10
  6
CONTINUOUS
 62
     7
100
AcDbCircle
 10
730.6291651245946
 20
1166.233171380849
 30
0.0
 40
3.322569572950003
100
AcDbArc
 50
55.61575253194604
 51
124.384247468054
  0
LINE
  5
FB
330
1F
100
AcDbEntity
  8
LAY-10
  6
CONTINUOUS
 62
     7
100
AcDbLine
 10
731.2499999999964
 20
1169.700078521098
 30
0.0
 11
732.5055534994616
 21
1168.975184370199
 31
0.0
  0
ARC
  5
FC
330
1F
100
AcDbEntity
  8
LAY-10
  6
CONTINUOUS
 62
     7
100
AcDbCircle
 10
724.9999999999662
 20
1157.136297537211
 30
0.0
 40
12.41944341658879
100
AcDbArc
 50
72.41204622614313
 51
107.587953773584
  0
LINE
  5
FD
330
1F
100
AcDbEntity
  8
LAY-10
  6
CONTINUOUS
 62
     7
100
AcDbLine
 10
717.494446500531
 20
1168.975184370199
 30
0.0
 11
718.7499999999964
 21
1169.700078521098
 31
0.0
  0
ARC
  5
FE
330
1F
100
AcDbEntity
  8
LAY-10
  6
CONTINUOUS
 62
     7
100
AcDbCircle
 10
719.370834875397
 20
1166.233171380849
 30
0.0
 40
3.322569572950376
100
AcDbArc
 50
55.61575253194609
 51
124.3842474680539
  0
LINE
  5
FF
330
1F
100
AcDbEntity
  8
LAY-10
  6
CONTINUOUS
 62
     7
100
AcDbLine
 10
718.7499999999964
 20
1169.700078521098
 30
0.0
 11
731.2499999999964
 21
1169.700078521098
 31
0.0
  0
LINE
  5
100
330
1F
100
AcDbEntity
  8
LAY-10
  6
CONTINUOUS
 62
     7
100
AcDbLine
 10
732.5055534994616
 20
1163.200078521098
 30
0.0
 11
732.5055534994616
 21
1168.975184370199
 31
0.0
  0
LINE
  5
101
330
1F
100
AcDbEntity
  8
LAY-10
  6
CONTINUOUS
 62
     7
100
AcDbLine
 10
728.7527767497298
 20
1168.975184370199
 30
0.0
 11
728.7527767497298
 21
1163.200078521098
 31
0.0
  0
LINE
  5
102
330
1F
100
AcDbEntity
  8
LAY-10
  6
CONTINUOUS
 62
     7
100
AcDbLine
 10
721.247223250264
 20
1168.975184370199
 30
0.0
 11
721.247223250264
 21
1163.200078521098
 31
0.0
  0
LINE
  5
103
330
1F
100
AcDbEntity
  8
LAY-10
  6
CONTINUOUS
 62
     7
100
AcDbLine
 10
717.494446500531
 20
1168.975184370199
 30
0.0
 11
717.494446500531
 21
1163.200078521096
 31
0.0
  0
ARC
  5
104
330
1F
100
AcDbEntity
  8
LAY-10
  6
CONTINUOUS
 62
     7
100
AcDbCircle
 10
319.3708348753994
 20
1166.233171380849
 30
0.0
 40
3.322569572950003
100
AcDbArc
 50
55.61575253194604
 51
124.384247468054
  0
LINE
  5
105
330
1F
100
AcDbEntity
  8
LAY-10
  6
CONTINUOUS
 62
     7
100
AcDbLine
 10
318.7499999999986
 20
1169.700078521098
 30
0.0
 11
317.4944465005324
 21
1168.975184370199
 31
0.0
  0
ARC
  5
106
330
1F
100
AcDbEntity
  8
LAY-10
  6
CONTINUOUS
 62
     7
100
AcDbCircle
 10
325.0000000000286
 20
1157.136297537211
 30
0.0
 40
12.41944341658879
100
AcDbArc
 50
72.41204622641602
 51
107.5879537738569
  0
LINE
  5
107
330
1F
100
AcDbEntity
  8
LAY-10
  6
CONTINUOUS
 62
     7
100
AcDbLine
 10
332.5055534994631
 20
1168.975184370199
 30
0.0
 11
331.2499999999986
 21
1169.700078521098
 31
0.0
  0
ARC
  5
108
330
1F
100
AcDbEntity
  8
LAY-10
  6
CONTINUOUS
 62
     7
100
AcDbCircle
 10
330.6291651245978
 20
1166.233171380849
 30
0.0
 40
3.322569572950376
100
AcDbArc
 50
55.61575253194609
 51
124.3842474680539
  0
LINE
  5
109
330
1F
100
AcDbEntity
  8
LAY-10
  6
CONTINUOUS
 62
     7
100
AcDbLine
 10
331.2499999999986
 20
1169.700078521098
 30
0.0
 11
318.7499999999986
 21
1169.700078521098
 31
0.0
  0
LINE
  5
10A
330
1F
100
AcDbEntity
  8
LAY-10
  6
CONTINUOUS
 62
     7
100
AcDbLine
 10
317.4944465005324
 20
1163.200078521098
 30
0.0
 11
317.4944465005324
 21
1168.975184370199
 31
0.0
  0
LINE
  5
10B
330
1F
100
AcDbEntity
  8
LAY-10
  6
CONTINUOUS
 62
     7
100
AcDbLine
 10
321.2472232502655
 20
1168.975184370199
 30
0.0
 11
321.2472232502655
 21
1163.200078521098
 31
0.0
  0
LINE
  5
10C
330
1F
100
AcDbEntity
  8
LAY-10
  6
CONTINUOUS
 62
     7
100
AcDbLine
 10
328.7527767497308
 20
1168.975184370199
 30
0.0
 11
328.7527767497308
 21
1163.200078521098
 31
0.0
  0
LINE
  5
10D
330
1F
100
AcDbEntity
  8
LAY-10
  6
CONTINUOUS
 62
     7
100
AcDbLine
 10
332.5055534994631
 20
1168.975184370199
 30
0.0
 11
332.5055534994631
 21
1163.200078521096
 31
0.0
  0
ARC
  5
10E
330
1F
100
AcDbEntity
  8
LAY-10
  6
CONTINUOUS
 62
     7
100
AcDbCircle
 10
1130.629165124595
 20
1166.23317138085
 30
0.0
 40
3.322569572950003
100
AcDbArc
 50
55.61575253194712
 51
124.3842474680529
  0
LINE
  5
10F
330
1F
100
AcDbEntity
  8
LAY-10
  6
CONTINUOUS
 62
     7
100
AcDbLine
 10
1131.249999999996
 20
1169.700078521098
 30
0.0
 11
1132.505553499462
 21
1168.975184370199
 31
0.0
  0
ARC
  5
110
330
1F
100
AcDbEntity
  8
LAY-10
  6
CONTINUOUS
 62
     7
100
AcDbCircle
 10
1124.999999999966
 20
1157.136297537211
 30
0.0
 40
12.41944341658879
100
AcDbArc
 50
72.41204622614313
 51
107.587953773584
  0
LINE
  5
111
330
1F
100
AcDbEntity
  8
LAY-10
  6
CONTINUOUS
 62
     7
100
AcDbLine
 10
1117.494446500531
 20
1168.975184370199
 30
0.0
 11
1118.749999999996
 21
1169.700078521098
 31
0.0
  0
ARC
  5
112
330
1F
100
AcDbEntity
  8
LAY-10
  6
CONTINUOUS
 62
     7
100
AcDbCircle
 10
1119.370834875397
 20
1166.23317138085
 30
0.0
 40
3.322569572950376
100
AcDbArc
 50
55.61575253194609
 51
124.3842474680539
  0
LINE
  5
113
330
1F
100
AcDbEntity
  8
LAY-10
  6
CONTINUOUS
 62
     7
100
AcDbLine
 10
1118.749999999996
 20
1169.700078521098
 30
0.0
 11
1131.249999999996
 21
1169.700078521098
 31
0.0
  0
LINE
  5
114
330
1F
100
AcDbEntity
  8
LAY-10
  6
CONTINUOUS
 62
     7
100
AcDbLine
 10
1132.505553499462
 20
1163.200078521098
 30
0.0
 11
1132.505553499462
 21
1168.975184370199
 31
0.0
  0
LINE
  5
115
330
1F
100
AcDbEntity
  8
LAY-10
  6
CONTINUOUS
 62
     7
100
AcDbLine
 10
1128.752776749729
 20
1168.975184370199
 30
0.0
 11
1128.752776749729
 21
1163.200078521098
 31
0.0
  0
LINE
  5
116
330
1F
100
AcDbEntity
  8
LAY-10
  6
CONTINUOUS
 62
     7
100
AcDbLine
 10
1121.247223250264
 20
1168.975184370199
 30
0.0
 11
1121.247223250264
 21
1163.200078521098
 31
0.0
  0
LINE
  5
117
330
1F
100
AcDbEntity
  8
LAY-10
  6
CONTINUOUS
 62
     7
100
AcDbLine
 10
1117.494446500531
 20
1168.975184370199
 30
0.0
 11
1117.494446500531
 21
1163.200078521096
 31
0.0
  0
LINE
  5
118
330
1F
100
AcDbEntity
  8
LAY-10
  6
CONTINUOUS
 62
     7
100
AcDbLine
 10
1117.494446500496
 20
1173.164922271112
 30
0.0
 11
1132.505553499426
 21
1173.164922271112
 31
0.0
  0
LINE
  5
119
330
1F
100
AcDbEntity
  8
LAY-10
  6
CONTINUOUS
 62
     7
100
AcDbLine
 10
1120.999999999961
 20
1173.164922271112
 30
0.0
 11
1120.999999999959
 21
1169.700078521072
 31
0.0
  0
LINE
  5
11A
330
1F
100
AcDbEntity
  8
LAY-10
  6
CONTINUOUS
 62
     7
100
AcDbLine
 10
1128.999999999958
 20
1169.700078521072
 30
0.0
 11
1128.99999999996
 21
1173.164922271112
 31
0.0
  0
LINE
  5
11B
330
1F
100
AcDbEntity
  8
LAY-10
  6
CONTINUOUS
 62
     7
100
AcDbLine
 10
717.4944465004959
 20
1173.164922271112
 30
0.0
 11
732.5055534994262
 21
1173.164922271112
 31
0.0
  0
LINE
  5
11C
330
1F
100
AcDbEntity
  8
LAY-10
  6
CONTINUOUS
 62
     7
100
AcDbLine
 10
720.9999999999608
 20
1173.164922271112
 30
0.0
 11
720.9999999999585
 21
1169.700078521072
 31
0.0
  0
LINE
  5
11D
330
1F
100
AcDbEntity
  8
LAY-10
  6
CONTINUOUS
 62
     7
100
AcDbLine
 10
728.999999999958
 20
1169.700078521072
 30
0.0
 11
728.9999999999603
 21
1173.164922271112
 31
0.0
  0
LINE
  5
11E
330
1F
100
AcDbEntity
  8
LAY-10
  6
CONTINUOUS
 62
     7
100
AcDbLine
 10
317.494446500496
 20
1173.164922271112
 30
0.0
 11
332.5055534994262
 21
1173.164922271112
 31
0.0
  0
LINE
  5
11F
330
1F
100
AcDbEntity
  8
LAY-10
  6
CONTINUOUS
 62
     7
100
AcDbLine
 10
320.9999999999609
 20
1173.164922271112
 30
0.0
 11
320.9999999999586
 21
1169.700078521072
 31
0.0
  0
LINE
  5
120
330
1F
100
AcDbEntity
  8
LAY-10
  6
CONTINUOUS
 62
     7
100
AcDbLine
 10
328.9999999999582
 20
1169.700078521072
 30
0.0
 11
328.9999999999604
 21
1173.164922271112
 31
0.0
  0
ARC
  5
121
330
1F
100
AcDbEntity
  8
LAY-10
  6
CONTINUOUS
 62
     7
100
AcDbCircle
 10
1485.50000000001
 20
1159.500000000042
 30
0.0
 40
5.0
100
AcDbArc
 50
90.00000000000001
 51
180.0
  0
LINE
  5
122
330
1F
100
AcDbEntity
  8
LAY-10
  6
CONTINUOUS
 62
     7
100
AcDbLine
 10
1486.00000000001
 20
1160.000000000042
 30
0.0
 11
1525.000000000004
 21
1160.000000000042
 31
0.0
  0
LINE
  5
123
330
1F
100
AcDbEntity
  8
LAY-10
  6
CONTINUOUS
 62
     7
100
AcDbLine
 10
1485.50000000001
 20
1164.500000000042
 30
0.0
 11
1525.000000000004
 21
1164.500000000042
 31
0.0
  0
ARC
  5
124
330
1F
100
AcDbEntity
  8
LAY-10
  6
CONTINUOUS
 62
     7
100
AcDbCircle
 10
1486.00000000001
 20
1159.000000000042
 30
0.0
 40
1.0
100
AcDbArc
 50
90.00000000000001
 51
180.0
  0
LINE
  5
125
330
1F
100
AcDbEntity
  8
LAY-10
  6
CONTINUOUS
 62
     7
100
AcDbLine
 10
1525.000000000005
 20
1160.000000000045
 30
0.0
 11
1525.000000000005
 21
1164.500000000045
 31
0.0
  0
LINE
  5
126
330
1F
100
AcDbEntity
  8
LAY-10
  6
CONTINUOUS
 62
     7
100
AcDbLine
 10
1513.005553499474
 20
1164.500000000022
 30
0.0
 11
1513.005553499474
 21
1170.275105849124
 31
0.0
  0
ARC
  5
127
330
1F
100
AcDbEntity
  8
LAY-10
  6
CONTINUOUS
 62
     7
100
AcDbCircle
 10
1511.129165124608
 20
1167.533092859775
 30
0.0
 40
3.322569572950003
100
AcDbArc
 50
55.61575253194717
 51
124.3842474680529
  0
LINE
  5
128
330
1F
100
AcDbEntity
  8
LAY-10
  6
CONTINUOUS
 62
     7
100
AcDbLine
 10
1509.252776749741
 20
1170.275105849124
 30
0.0
 11
1509.252776749741
 21
1164.500000000022
 31
0.0
  0
LINE
  5
129
330
1F
100
AcDbEntity
  8
LAY-10
  6
CONTINUOUS
 62
     7
100
AcDbLine
 10
1511.750000000009
 20
1171.000000000022
 30
0.0
 11
1513.005553499474
 21
1170.275105849124
 31
0.0
  0
LINE
  5
12A
330
1F
100
AcDbEntity
  8
LAY-10
  6
CONTINUOUS
 62
     7
100
AcDbLine
 10
1501.747223250275
 20
1170.275105849124
 30
0.0
 11
1501.747223250275
 21
1164.500000000022
 31
0.0
  0
ARC
  5
12B
330
1F
100
AcDbEntity
  8
LAY-10
  6
CONTINUOUS
 62
     7
100
AcDbCircle
 10
1505.499999999979
 20
1158.436219016136
 30
0.0
 40
12.41944341658879
100
AcDbArc
 50
72.41204622614198
 51
107.5879537735841
  0
LINE
  5
12C
330
1F
100
AcDbEntity
  8
LAY-10
  6
CONTINUOUS
 62
     7
100
AcDbLine
 10
1497.994446500542
 20
1170.275105849124
 30
0.0
 11
1497.994446500542
 21
1164.500000000021
 31
0.0
  0
LINE
  5
12D
330
1F
100
AcDbEntity
  8
LAY-10
  6
CONTINUOUS
 62
     7
100
AcDbLine
 10
1497.994446500542
 20
1170.275105849124
 30
0.0
 11
1499.250000000009
 21
1171.000000000022
 31
0.0
  0
ARC
  5
12E
330
1F
100
AcDbEntity
  8
LAY-10
  6
CONTINUOUS
 62
     7
100
AcDbCircle
 10
1499.870834875408
 20
1167.533092859775
 30
0.0
 40
3.322569572950376
100
AcDbArc
 50
55.61575253194609
 51
124.384247468054
  0
LINE
  5
12F
330
1F
100
AcDbEntity
  8
LAY-10
  6
CONTINUOUS
 62
     7
100
AcDbLine
 10
1499.250000000009
 20
1171.000000000022
 30
0.0
 11
1511.750000000009
 21
1171.000000000022
 31
0.0
  0
LINE
  5
130
330
1F
100
AcDbEntity
  8
LAY-10
  6
CONTINUOUS
 62
     7
100
AcDbLine
 10
1132.505553499426
 20
1173.164922271112
 30
0.0
 11
1132.505553499426
 21
1178.475184370214
 31
0.0
  0
LINE
  5
131
330
1F
100
AcDbEntity
  8
LAY-10
  6
CONTINUOUS
 62
     7
100
AcDbLine
 10
1128.752776749693
 20
1178.475184370214
 30
0.0
 11
1128.752776749693
 21
1173.164922271112
 31
0.0
  0
LINE
  5
132
330
1F
100
AcDbEntity
  8
LAY-10
  6
CONTINUOUS
 62
     7
100
AcDbLine
 10
1131.249999999962
 20
1179.200078521112
 30
0.0
 11
1132.505553499426
 21
1178.475184370214
 31
0.0
  0
ARC
  5
133
330
1F
100
AcDbEntity
  8
LAY-10
  6
CONTINUOUS
 62
     7
100
AcDbCircle
 10
1130.62916512456
 20
1175.733171380865
 30
0.0
 40
3.322569572950003
100
AcDbArc
 50
55.61575253194717
 51
124.3842474680529
  0
LINE
  5
134
330
1F
100
AcDbEntity
  8
LAY-10
  6
CONTINUOUS
 62
     7
100
AcDbLine
 10
1121.247223250228
 20
1178.475184370214
 30
0.0
 11
1121.247223250228
 21
1173.164922271112
 31
0.0
  0
ARC
  5
135
330
1F
100
AcDbEntity
  8
LAY-10
  6
CONTINUOUS
 62
     7
100
AcDbCircle
 10
1124.999999999931
 20
1166.636297537227
 30
0.0
 40
12.41944341658879
100
AcDbArc
 50
72.41204622614198
 51
107.5879537735841
  0
LINE
  5
136
330
1F
100
AcDbEntity
  8
LAY-10
  6
CONTINUOUS
 62
     7
100
AcDbLine
 10
1117.494446500496
 20
1178.475184370214
 30
0.0
 11
1117.494446500496
 21
1173.164922271112
 31
0.0
  0
LINE
  5
137
330
1F
100
AcDbEntity
  8
LAY-10
  6
CONTINUOUS
 62
     7
100
AcDbLine
 10
1117.494446500496
 20
1178.475184370214
 30
0.0
 11
1118.749999999962
 21
1179.200078521112
 31
0.0
  0
ARC
  5
138
330
1F
100
AcDbEntity
  8
LAY-10
  6
CONTINUOUS
 62
     7
100
AcDbCircle
 10
1119.370834875361
 20
1175.733171380865
 30
0.0
 40
3.322569572950376
100
AcDbArc
 50
55.61575253194609
 51
124.384247468054
  0
LINE
  5
139
330
1F
100
AcDbEntity
  8
LAY-10
  6
CONTINUOUS
 62
     7
100
AcDbLine
 10
1118.749999999962
 20
1179.200078521112
 30
0.0
 11
1131.249999999962
 21
1179.200078521112
 31
0.0
  0
LINE
  5
13A
330
1F
100
AcDbEntity
  8
LAY-10
  6
CONTINUOUS
 62
     7
100
AcDbLine
 10
732.5055534994262
 20
1173.164922271112
 30
0.0
 11
732.5055534994262
 21
1178.475184370214
 31
0.0
  0
LINE
  5
13B
330
1F
100
AcDbEntity
  8
LAY-10
  6
CONTINUOUS
 62
     7
100
AcDbLine
 10
728.7527767496935
 20
1178.475184370214
 30
0.0
 11
728.7527767496935
 21
1173.164922271112
 31
0.0
  0
LINE
  5
13C
330
1F
100
AcDbEntity
  8
LAY-10
  6
CONTINUOUS
 62
     7
100
AcDbLine
 10
731.2499999999617
 20
1179.200078521112
 30
0.0
 11
732.5055534994262
 21
1178.475184370214
 31
0.0
  0
ARC
  5
13D
330
1F
100
AcDbEntity
  8
LAY-10
  6
CONTINUOUS
 62
     7
100
AcDbCircle
 10
730.6291651245605
 20
1175.733171380865
 30
0.0
 40
3.322569572950003
100
AcDbArc
 50
55.61575253194717
 51
124.3842474680529
  0
LINE
  5
13E
330
1F
100
AcDbEntity
  8
LAY-10
  6
CONTINUOUS
 62
     7
100
AcDbLine
 10
721.2472232502276
 20
1178.475184370214
 30
0.0
 11
721.2472232502276
 21
1173.164922271112
 31
0.0
  0
ARC
  5
13F
330
1F
100
AcDbEntity
  8
LAY-10
  6
CONTINUOUS
 62
     7
100
AcDbCircle
 10
724.9999999999309
 20
1166.636297537227
 30
0.0
 40
12.41944341658879
100
AcDbArc
 50
72.41204622614198
 51
107.5879537735841
  0
LINE
  5
140
330
1F
100
AcDbEntity
  8
LAY-10
  6
CONTINUOUS
 62
     7
100
AcDbLine
 10
717.4944465004959
 20
1178.475184370214
 30
0.0
 11
717.4944465004959
 21
1173.164922271112
 31
0.0
  0
LINE
  5
141
330
1F
100
AcDbEntity
  8
LAY-10
  6
CONTINUOUS
 62
     7
100
AcDbLine
 10
717.4944465004959
 20
1178.475184370214
 30
0.0
 11
718.7499999999617
 21
1179.200078521112
 31
0.0
  0
ARC
  5
142
330
1F
100
AcDbEntity
  8
LAY-10
  6
CONTINUOUS
 62
     7
100
AcDbCircle
 10
719.3708348753606
 20
1175.733171380865
 30
0.0
 40
3.322569572950376
100
AcDbArc
 50
55.61575253194609
 51
124.384247468054
  0
LINE
  5
143
330
1F
100
AcDbEntity
  8
LAY-10
  6
CONTINUOUS
 62
     7
100
AcDbLine
 10
718.7499999999617
 20
1179.200078521112
 30
0.0
 11
731.2499999999617
 21
1179.200078521112
 31
0.0
  0
LINE
  5
144
330
1F
100
AcDbEntity
  8
LAY-10
  6
CONTINUOUS
 62
     7
100
AcDbLine
 10
332.5055534994262
 20
1173.164922271112
 30
0.0
 11
332.5055534994262
 21
1178.475184370214
 31
0.0
  0
LINE
  5
145
330
1F
100
AcDbEntity
  8
LAY-10
  6
CONTINUOUS
 62
     7
100
AcDbLine
 10
328.7527767496931
 20
1178.475184370214
 30
0.0
 11
328.7527767496931
 21
1173.164922271112
 31
0.0
  0
LINE
  5
146
330
1F
100
AcDbEntity
  8
LAY-10
  6
CONTINUOUS
 62
     7
100
AcDbLine
 10
331.2499999999618
 20
1179.200078521112
 30
0.0
 11
332.5055534994262
 21
1178.475184370214
 31
0.0
  0
ARC
  5
147
330
1F
100
AcDbEntity
  8
LAY-10
  6
CONTINUOUS
 62
     7
100
AcDbCircle
 10
330.6291651245601
 20
1175.733171380865
 30
0.0
 40
3.322569572950003
100
AcDbArc
 50
55.61575253194717
 51
124.3842474680529
  0
LINE
  5
148
330
1F
100
AcDbEntity
  8
LAY-10
  6
CONTINUOUS
 62
     7
100
AcDbLine
 10
321.2472232502278
 20
1178.475184370214
 30
0.0
 11
321.2472232502278
 21
1173.164922271112
 31
0.0
  0
ARC
  5
149
330
1F
100
AcDbEntity
  8
LAY-10
  6
CONTINUOUS
 62
     7
100
AcDbCircle
 10
324.9999999999308
 20
1166.636297537227
 30
0.0
 40
12.41944341658879
100
AcDbArc
 50
72.41204622614198
 51
107.5879537735841
  0
LINE
  5
14A
330
1F
100
AcDbEntity
  8
LAY-10
  6
CONTINUOUS
 62
     7
100
AcDbLine
 10
317.494446500496
 20
1178.475184370214
 30
0.0
 11
317.494446500496
 21
1173.164922271112
 31
0.0
  0
LINE
  5
14B
330
1F
100
AcDbEntity
  8
LAY-10
  6
CONTINUOUS
 62
     7
100
AcDbLine
 10
317.494446500496
 20
1178.475184370214
 30
0.0
 11
318.7499999999618
 21
1179.200078521112
 31
0.0
  0
ARC
  5
14C
330
1F
100
AcDbEntity
  8
LAY-10
  6
CONTINUOUS
 62
     7
100
AcDbCircle
 10
319.3708348753607
 20
1175.733171380865
 30
0.0
 40
3.322569572950376
100
AcDbArc
 50
55.61575253194609
 51
124.384247468054
  0
LINE
  5
14D
330
1F
100
AcDbEntity
  8
LAY-10
  6
CONTINUOUS
 62
     7
100
AcDbLine
 10
318.7499999999618
 20
1179.200078521112
 30
0.0
 11
331.2499999999618
 21
1179.200078521112
 31
0.0
  0
LINE
  5
14E
330
1F
100
AcDbEntity
  8
LAY-10
  6
CONTINUOUS
 62
     7
100
AcDbLine
 10
1513.005553499476
 20
1175.000000000062
 30
0.0
 11
1513.005553499476
 21
1179.775105849165
 31
0.0
  0
LINE
  5
14F
330
1F
100
AcDbEntity
  8
LAY-10
  6
CONTINUOUS
 62
     7
100
AcDbLine
 10
1509.252776749743
 20
1179.775105849165
 30
0.0
 11
1509.252776749743
 21
1175.000000000062
 31
0.0
  0
LINE
  5
150
330
1F
100
AcDbEntity
  8
LAY-10
  6
CONTINUOUS
 62
     7
100
AcDbLine
 10
1511.750000000011
 20
1180.500000000063
 30
0.0
 11
1513.005553499476
 21
1179.775105849165
 31
0.0
  0
ARC
  5
151
330
1F
100
AcDbEntity
  8
LAY-10
  6
CONTINUOUS
 62
     7
100
AcDbCircle
 10
1511.12916512461
 20
1177.033092859815
 30
0.0
 40
3.322569572950003
100
AcDbArc
 50
55.61575253194717
 51
124.3842474680529
  0
LINE
  5
152
330
1F
100
AcDbEntity
  8
LAY-10
  6
CONTINUOUS
 62
     7
100
AcDbLine
 10
1501.747223250277
 20
1179.775105849165
 30
0.0
 11
1501.747223250277
 21
1175.000000000062
 31
0.0
  0
ARC
  5
153
330
1F
100
AcDbEntity
  8
LAY-10
  6
CONTINUOUS
 62
     7
100
AcDbCircle
 10
1505.49999999998
 20
1167.936219016177
 30
0.0
 40
12.41944341658879
100
AcDbArc
 50
72.41204622614198
 51
107.5879537735841
  0
LINE
  5
154
330
1F
100
AcDbEntity
  8
LAY-10
  6
CONTINUOUS
 62
     7
100
AcDbLine
 10
1497.994446500546
 20
1179.775105849165
 30
0.0
 11
1497.994446500546
 21
1175.000000000062
 31
0.0
  0
LINE
  5
155
330
1F
100
AcDbEntity
  8
LAY-10
  6
CONTINUOUS
 62
     7
100
AcDbLine
 10
1497.994446500546
 20
1179.775105849165
 30
0.0
 11
1499.250000000011
 21
1180.500000000063
 31
0.0
  0
ARC
  5
156
330
1F
100
AcDbEntity
  8
LAY-10
  6
CONTINUOUS
 62
     7
100
AcDbCircle
 10
1499.87083487541
 20
1177.033092859815
 30
0.0
 40
3.322569572950376
100
AcDbArc
 50
55.61575253194609
 51
124.384247468054
  0
LINE
  5
157
330
1F
100
AcDbEntity
  8
LAY-10
  6
CONTINUOUS
 62
     7
100
AcDbLine
 10
1499.250000000011
 20
1180.500000000063
 30
0.0
 11
1511.750000000011
 21
1180.500000000063
 31
0.0
  0
LINE
  5
158
330
1F
100
AcDbEntity
  8
LAY-10
  6
CONTINUOUS
 62
     7
100
AcDbLine
 10
1497.994446500546
 20
1175.000000000062
 30
0.0
 11
1513.005553499476
 21
1175.000000000062
 31
0.0
  0
LINE
  5
159
330
1F
100
AcDbEntity
  8
LAY-10
  6
CONTINUOUS
 62
     7
100
AcDbLine
 10
1501.50000000001
 20
1175.000000000062
 30
0.0
 11
1501.500000000008
 21
1171.000000000022
 31
0.0
  0
LINE
  5
15A
330
1F
100
AcDbEntity
  8
LAY-10
  6
CONTINUOUS
 62
     7
100
AcDbLine
 10
1509.500000000008
 20
1171.000000000022
 30
0.0
 11
1509.50000000001
 21
1175.000000000062
 31
0.0
  0
LINE
  5
15B
330
1F
100
AcDbEntity
  8
LAY-10
  6
CONTINUOUS
 62
     7
100
AcDbLine
 10
1509.500000000012
 20
1155.625000000051
 30
0.0
 11
1509.500000000012
 21
1160.000000000063
 31
0.0
  0
LINE
  5
15C
330
1F
100
AcDbEntity
  8
LAY-10
  6
CONTINUOUS
 62
     7
100
AcDbLine
 10
1501.500000000012
 20
1160.000000000063
 30
0.0
 11
1501.500000000012
 21
1155.625000000051
 31
0.0
  0
LINE
  5
15D
330
1F
100
AcDbEntity
  8
LAY-10
  6
CONTINUOUS
 62
     7
100
AcDbLine
 10
1501.500000000012
 20
1155.625000000051
 30
0.0
 11
1509.500000000012
 21
1155.625000000051
 31
0.0
  0
LINE
  5
15E
330
1F
100
AcDbEntity
  8
LAY-10
  6
CONTINUOUS
 62
     7
100
AcDbLine
 10
1509.500000000012
 20
1155.625000000051
 30
0.0
 11
1508.875000000012
 21
1155.000000000051
 31
0.0
  0
LINE
  5
15F
330
1F
100
AcDbEntity
  8
LAY-10
  6
CONTINUOUS
 62
     7
100
AcDbLine
 10
1502.125000000012
 20
1155.000000000051
 30
0.0
 11
1508.875000000012
 21
1155.000000000051
 31
0.0
  0
LINE
  5
160
330
1F
100
AcDbEntity
  8
LAY-10
  6
CONTINUOUS
 62
     7
100
AcDbLine
 10
1502.125000000012
 20
1155.000000000051
 30
0.0
 11
1501.500000000012
 21
1155.625000000051
 31
0.0
  0
LINE
  5
161
330
1F
100
AcDbEntity
  8
LAY-10
  6
CONTINUOUS
 62
     7
100
AcDbLine
 10
224.9999999999977
 20
936.7999999998984
 30
0.0
 11
1224.999999999994
 21
936.7999999998991
 31
0.0
  0
ARC
  5
162
330
1F
100
AcDbEntity
  8
LAY-10
  6
CONTINUOUS
 62
     7
100
AcDbCircle
 10
1485.50000000001
 20
940.5000000000474
 30
0.0
 40
5.0
100
AcDbArc
 50
180.0
 51
270.0
  0
ARC
  5
163
330
1F
100
AcDbEntity
  8
LAY-10
  6
CONTINUOUS
 62
     7
100
AcDbCircle
 10
1486.00000000001
 20
941.0000000000476
 30
0.0
 40
1.0
100
AcDbArc
 50
180.0
 51
270.0
  0
LINE
  5
164
330
1F
100
AcDbEntity
  8
LAY-10
  6
CONTINUOUS
 62
     7
100
AcDbLine
 10
1525.000000000005
 20
940.0000000000451
 30
0.0
 11
1525.000000000005
 21
935.5000000000451
 31
0.0
  0
LINE
  5
165
330
1F
100
AcDbEntity
  8
LAY-10
  6
CONTINUOUS
 62
     7
100
AcDbLine
 10
1486.00000000001
 20
940.0000000000479
 30
0.0
 11
1525.000000000004
 21
940.0000000000479
 31
0.0
  0
LINE
  5
166
330
1F
100
AcDbEntity
  8
LAY-10
  6
CONTINUOUS
 62
     7
100
AcDbLine
 10
1485.50000000001
 20
935.5000000000474
 30
0.0
 11
1525.000000000004
 21
935.5000000000474
 31
0.0
  0
ARC
  5
167
330
1F
100
AcDbEntity
  8
LAY-10
  6
CONTINUOUS
 62
     7
100
AcDbCircle
 10
730.6291651245946
 20
933.7668286191479
 30
0.0
 40
3.322569572950003
100
AcDbArc
 50
235.6157525319471
 51
304.3842474680529
  0
LINE
  5
168
330
1F
100
AcDbEntity
  8
LAY-10
  6
CONTINUOUS
 62
     7
100
AcDbLine
 10
731.2499999999968
 20
930.2999214788988
 30
0.0
 11
732.5055534994616
 21
931.0248156297976
 31
0.0
  0
ARC
  5
169
330
1F
100
AcDbEntity
  8
LAY-10
  6
CONTINUOUS
 62
     7
100
AcDbCircle
 10
724.9999999999662
 20
942.863702462786
 30
0.0
 40
12.41944341658879
100
AcDbArc
 50
252.4120462264162
 51
287.5879537738567
  0
LINE
  5
16A
330
1F
100
AcDbEntity
  8
LAY-10
  6
CONTINUOUS
 62
     7
100
AcDbLine
 10
717.4944465005315
 20
931.0248156297974
 30
0.0
 11
718.7499999999968
 21
930.2999214788987
 31
0.0
  0
ARC
  5
16B
330
1F
100
AcDbEntity
  8
LAY-10
  6
CONTINUOUS
 62
     7
100
AcDbCircle
 10
719.370834875397
 20
933.7668286191479
 30
0.0
 40
3.322569572950376
100
AcDbArc
 50
235.6157525319461
 51
304.3842474680539
  0
LINE
  5
16C
330
1F
100
AcDbEntity
  8
LAY-10
  6
CONTINUOUS
 62
     7
100
AcDbLine
 10
718.7499999999968
 20
930.2999214788987
 30
0.0
 11
731.2499999999968
 21
930.2999214788988
 31
0.0
  0
LINE
  5
16D
330
1F
100
AcDbEntity
  8
LAY-10
  6
CONTINUOUS
 62
     7
100
AcDbLine
 10
732.5055534994616
 20
936.7999214788993
 30
0.0
 11
732.5055534994616
 21
931.0248156297976
 31
0.0
  0
LINE
  5
16E
330
1F
100
AcDbEntity
  8
LAY-10
  6
CONTINUOUS
 62
     7
100
AcDbLine
 10
728.7527767497298
 20
931.0248156297976
 30
0.0
 11
728.7527767497298
 21
936.7999214788993
 31
0.0
  0
LINE
  5
16F
330
1F
100
AcDbEntity
  8
LAY-10
  6
CONTINUOUS
 62
     7
100
AcDbLine
 10
721.247223250264
 20
931.0248156297974
 30
0.0
 11
721.247223250264
 21
936.7999214788991
 31
0.0
  0
LINE
  5
170
330
1F
100
AcDbEntity
  8
LAY-10
  6
CONTINUOUS
 62
     7
100
AcDbLine
 10
717.4944465005315
 20
931.0248156297974
 30
0.0
 11
717.4944465005315
 21
936.799921478901
 31
0.0
  0
ARC
  5
171
330
1F
100
AcDbEntity
  8
LAY-10
  6
CONTINUOUS
 62
     7
100
AcDbCircle
 10
319.3708348753999
 20
933.7668286191473
 30
0.0
 40
3.322569572950003
100
AcDbArc
 50
235.6157525319471
 51
304.3842474680529
  0
LINE
  5
172
330
1F
100
AcDbEntity
  8
LAY-10
  6
CONTINUOUS
 62
     7
100
AcDbLine
 10
318.7499999999986
 20
930.2999214788981
 30
0.0
 11
317.4944465005328
 21
931.0248156297969
 31
0.0
  0
ARC
  5
173
330
1F
100
AcDbEntity
  8
LAY-10
  6
CONTINUOUS
 62
     7
100
AcDbCircle
 10
325.0000000000286
 20
942.8637024627853
 30
0.0
 40
12.41944341658879
100
AcDbArc
 50
252.4120462261434
 51
287.587953773584
  0
LINE
  5
174
330
1F
100
AcDbEntity
  8
LAY-10
  6
CONTINUOUS
 62
     7
100
AcDbLine
 10
332.5055534994635
 20
931.0248156297969
 30
0.0
 11
331.2499999999986
 21
930.2999214788981
 31
0.0
  0
ARC
  5
175
330
1F
100
AcDbEntity
  8
LAY-10
  6
CONTINUOUS
 62
     7
100
AcDbCircle
 10
330.6291651245978
 20
933.7668286191473
 30
0.0
 40
3.322569572950376
100
AcDbArc
 50
235.6157525319461
 51
304.3842474680539
  0
LINE
  5
176
330
1F
100
AcDbEntity
  8
LAY-10
  6
CONTINUOUS
 62
     7
100
AcDbLine
 10
331.2499999999986
 20
930.2999214788981
 30
0.0
 11
318.7499999999986
 21
930.2999214788981
 31
0.0
  0
LINE
  5
177
330
1F
100
AcDbEntity
  8
LAY-10
  6
CONTINUOUS
 62
     7
100
AcDbLine
 10
317.4944465005328
 20
936.7999214788986
 30
0.0
 11
317.4944465005328
 21
931.0248156297969
 31
0.0
  0
LINE
  5
178
330
1F
100
AcDbEntity
  8
LAY-10
  6
CONTINUOUS
 62
     7
100
AcDbLine
 10
321.2472232502655
 20
931.0248156297969
 30
0.0
 11
321.2472232502655
 21
936.7999214788986
 31
0.0
  0
LINE
  5
179
330
1F
100
AcDbEntity
  8
LAY-10
  6
CONTINUOUS
 62
     7
100
AcDbLine
 10
328.7527767497308
 20
931.0248156297969
 30
0.0
 11
328.7527767497308
 21
936.7999214788986
 31
0.0
  0
LINE
  5
17A
330
1F
100
AcDbEntity
  8
LAY-10
  6
CONTINUOUS
 62
     7
100
AcDbLine
 10
332.5055534994635
 20
931.0248156297969
 30
0.0
 11
332.5055534994635
 21
936.7999214789004
 31
0.0
  0
ARC
  5
17B
330
1F
100
AcDbEntity
  8
LAY-10
  6
CONTINUOUS
 62
     7
100
AcDbCircle
 10
1130.629165124595
 20
933.7668286191475
 30
0.0
 40
3.322569572950003
100
AcDbArc
 50
235.6157525319471
 51
304.3842474680529
  0
LINE
  5
17C
330
1F
100
AcDbEntity
  8
LAY-10
  6
CONTINUOUS
 62
     7
100
AcDbLine
 10
1131.249999999997
 20
930.2999214788994
 30
0.0
 11
1132.505553499462
 21
931.0248156297981
 31
0.0
  0
ARC
  5
17D
330
1F
100
AcDbEntity
  8
LAY-10
  6
CONTINUOUS
 62
     7
100
AcDbCircle
 10
1124.999999999967
 20
942.8637024627866
 30
0.0
 40
12.41944341658879
100
AcDbArc
 50
252.412046226416
 51
287.5879537738567
  0
LINE
  5
17E
330
1F
100
AcDbEntity
  8
LAY-10
  6
CONTINUOUS
 62
     7
100
AcDbLine
 10
1117.494446500531
 20
931.0248156297981
 30
0.0
 11
1118.749999999997
 21
930.2999214788994
 31
0.0
  0
ARC
  5
17F
330
1F
100
AcDbEntity
  8
LAY-10
  6
CONTINUOUS
 62
     7
100
AcDbCircle
 10
1119.370834875398
 20
933.7668286191475
 30
0.0
 40
3.322569572950376
100
AcDbArc
 50
235.6157525319461
 51
304.3842474680539
  0
LINE
  5
180
330
1F
100
AcDbEntity
  8
LAY-10
  6
CONTINUOUS
 62
     7
100
AcDbLine
 10
1118.749999999997
 20
930.2999214788994
 30
0.0
 11
1131.249999999997
 21
930.2999214788994
 31
0.0
  0
LINE
  5
181
330
1F
100
AcDbEntity
  8
LAY-10
  6
CONTINUOUS
 62
     7
100
AcDbLine
 10
1132.505553499462
 20
936.7999214788995
 30
0.0
 11
1132.505553499462
 21
931.0248156297981
 31
0.0
  0
LINE
  5
182
330
1F
100
AcDbEntity
  8
LAY-10
  6
CONTINUOUS
 62
     7
100
AcDbLine
 10
1128.75277674973
 20
931.0248156297981
 30
0.0
 11
1128.75277674973
 21
936.7999214788995
 31
0.0
  0
LINE
  5
183
330
1F
100
AcDbEntity
  8
LAY-10
  6
CONTINUOUS
 62
     7
100
AcDbLine
 10
1121.247223250265
 20
931.0248156297981
 30
0.0
 11
1121.247223250265
 21
936.7999214788995
 31
0.0
  0
LINE
  5
184
330
1F
100
AcDbEntity
  8
LAY-10
  6
CONTINUOUS
 62
     7
100
AcDbLine
 10
1117.494446500531
 20
931.0248156297981
 30
0.0
 11
1117.494446500531
 21
936.7999214789012
 31
0.0
  0
LINE
  5
185
330
1F
100
AcDbEntity
  8
LAY-10
  6
CONTINUOUS
 62
     7
100
AcDbLine
 10
1117.494446500496
 20
926.8350777288856
 30
0.0
 11
1132.505553499427
 21
926.8350777288856
 31
0.0
  0
LINE
  5
186
330
1F
100
AcDbEntity
  8
LAY-10
  6
CONTINUOUS
 62
     7
100
AcDbLine
 10
1120.999999999961
 20
926.8350777288856
 30
0.0
 11
1120.999999999959
 21
930.2999214789255
 31
0.0
  0
LINE
  5
187
330
1F
100
AcDbEntity
  8
LAY-10
  6
CONTINUOUS
 62
     7
100
AcDbLine
 10
1128.999999999959
 20
930.2999214789255
 30
0.0
 11
1128.99999999996
 21
926.8350777288856
 31
0.0
  0
LINE
  5
188
330
1F
100
AcDbEntity
  8
LAY-10
  6
CONTINUOUS
 62
     7
100
AcDbLine
 10
717.4944465004959
 20
926.8350777288848
 30
0.0
 11
732.5055534994267
 21
926.835077728885
 31
0.0
  0
LINE
  5
189
330
1F
100
AcDbEntity
  8
LAY-10
  6
CONTINUOUS
 62
     7
100
AcDbLine
 10
720.9999999999608
 20
926.8350777288848
 30
0.0
 11
720.9999999999585
 21
930.2999214789248
 31
0.0
  0
LINE
  5
18A
330
1F
100
AcDbEntity
  8
LAY-10
  6
CONTINUOUS
 62
     7
100
AcDbLine
 10
728.999999999958
 20
930.299921478925
 30
0.0
 11
728.9999999999603
 21
926.835077728885
 31
0.0
  0
LINE
  5
18B
330
1F
100
AcDbEntity
  8
LAY-10
  6
CONTINUOUS
 62
     7
100
AcDbLine
 10
317.494446500496
 20
926.8350777288842
 30
0.0
 11
332.5055534994267
 21
926.8350777288842
 31
0.0
  0
LINE
  5
18C
330
1F
100
AcDbEntity
  8
LAY-10
  6
CONTINUOUS
 62
     7
100
AcDbLine
 10
320.9999999999613
 20
926.8350777288842
 30
0.0
 11
320.9999999999586
 21
930.2999214789243
 31
0.0
  0
LINE
  5
18D
330
1F
100
AcDbEntity
  8
LAY-10
  6
CONTINUOUS
 62
     7
100
AcDbLine
 10
328.9999999999586
 20
930.2999214789243
 30
0.0
 11
328.9999999999604
 21
926.8350777288842
 31
0.0
  0
LINE
  5
18E
330
1F
100
AcDbEntity
  8
LAY-10
  6
CONTINUOUS
 62
     7
100
AcDbLine
 10
1132.505553499427
 20
926.8350777288856
 30
0.0
 11
1132.505553499427
 21
921.5248156297832
 31
0.0
  0
LINE
  5
18F
330
1F
100
AcDbEntity
  8
LAY-10
  6
CONTINUOUS
 62
     7
100
AcDbLine
 10
1128.752776749694
 20
921.5248156297832
 30
0.0
 11
1128.752776749694
 21
926.8350777288856
 31
0.0
  0
LINE
  5
190
330
1F
100
AcDbEntity
  8
LAY-10
  6
CONTINUOUS
 62
     7
100
AcDbLine
 10
1131.249999999962
 20
920.7999214788853
 30
0.0
 11
1132.505553499427
 21
921.5248156297832
 31
0.0
  0
ARC
  5
191
330
1F
100
AcDbEntity
  8
LAY-10
  6
CONTINUOUS
 62
     7
100
AcDbCircle
 10
1130.629165124561
 20
924.2668286191328
 30
0.0
 40
3.322569572950003
100
AcDbArc
 50
235.6157525319471
 51
304.3842474680529
  0
LINE
  5
192
330
1F
100
AcDbEntity
  8
LAY-10
  6
CONTINUOUS
 62
     7
100
AcDbLine
 10
1121.247223250228
 20
921.5248156297832
 30
0.0
 11
1121.247223250228
 21
926.8350777288856
 31
0.0
  0
ARC
  5
193
330
1F
100
AcDbEntity
  8
LAY-10
  6
CONTINUOUS
 62
     7
100
AcDbCircle
 10
1124.999999999931
 20
933.3637024627709
 30
0.0
 40
12.41944341658879
100
AcDbArc
 50
252.412046226416
 51
287.587953773858
  0
LINE
  5
194
330
1F
100
AcDbEntity
  8
LAY-10
  6
CONTINUOUS
 62
     7
100
AcDbLine
 10
1117.494446500496
 20
921.5248156297832
 30
0.0
 11
1117.494446500496
 21
926.8350777288856
 31
0.0
  0
LINE
  5
195
330
1F
100
AcDbEntity
  8
LAY-10
  6
CONTINUOUS
 62
     7
100
AcDbLine
 10
1117.494446500496
 20
921.5248156297832
 30
0.0
 11
1118.749999999962
 21
920.7999214788853
 31
0.0
  0
ARC
  5
196
330
1F
100
AcDbEntity
  8
LAY-10
  6
CONTINUOUS
 62
     7
100
AcDbCircle
 10
1119.370834875361
 20
924.2668286191328
 30
0.0
 40
3.322569572950376
100
AcDbArc
 50
235.6157525319461
 51
304.3842474680539
  0
LINE
  5
197
330
1F
100
AcDbEntity
  8
LAY-10
  6
CONTINUOUS
 62
     7
100
AcDbLine
 10
1118.749999999962
 20
920.7999214788853
 30
0.0
 11
1131.249999999962
 21
920.7999214788853
 31
0.0
  0
LINE
  5
198
330
1F
100
AcDbEntity
  8
LAY-10
  6
CONTINUOUS
 62
     7
100
AcDbLine
 10
732.5055534994267
 20
926.835077728885
 30
0.0
 11
732.5055534994267
 21
921.5248156297827
 31
0.0
  0
LINE
  5
199
330
1F
100
AcDbEntity
  8
LAY-10
  6
CONTINUOUS
 62
     7
100
AcDbLine
 10
728.7527767496935
 20
921.5248156297827
 30
0.0
 11
728.7527767496935
 21
926.835077728885
 31
0.0
  0
LINE
  5
19A
330
1F
100
AcDbEntity
  8
LAY-10
  6
CONTINUOUS
 62
     7
100
AcDbLine
 10
731.2499999999617
 20
920.7999214788847
 30
0.0
 11
732.5055534994267
 21
921.5248156297827
 31
0.0
  0
ARC
  5
19B
330
1F
100
AcDbEntity
  8
LAY-10
  6
CONTINUOUS
 62
     7
100
AcDbCircle
 10
730.6291651245605
 20
924.2668286191322
 30
0.0
 40
3.322569572950003
100
AcDbArc
 50
235.6157525319471
 51
304.3842474680529
  0
LINE
  5
19C
330
1F
100
AcDbEntity
  8
LAY-10
  6
CONTINUOUS
 62
     7
100
AcDbLine
 10
721.2472232502276
 20
921.5248156297824
 30
0.0
 11
721.2472232502276
 21
926.8350777288848
 31
0.0
  0
ARC
  5
19D
330
1F
100
AcDbEntity
  8
LAY-10
  6
CONTINUOUS
 62
     7
100
AcDbCircle
 10
724.9999999999313
 20
933.3637024627703
 30
0.0
 40
12.41944341658879
100
AcDbArc
 50
252.4120462264162
 51
287.587953773858
  0
LINE
  5
19E
330
1F
100
AcDbEntity
  8
LAY-10
  6
CONTINUOUS
 62
     7
100
AcDbLine
 10
717.4944465004959
 20
921.5248156297824
 30
0.0
 11
717.4944465004959
 21
926.8350777288848
 31
0.0
  0
LINE
  5
19F
330
1F
100
AcDbEntity
  8
LAY-10
  6
CONTINUOUS
 62
     7
100
AcDbLine
 10
717.4944465004959
 20
921.5248156297824
 30
0.0
 11
718.7499999999617
 21
920.7999214788846
 31
0.0
  0
ARC
  5
1A0
330
1F
100
AcDbEntity
  8
LAY-10
  6
CONTINUOUS
 62
     7
100
AcDbCircle
 10
719.3708348753606
 20
924.2668286191321
 30
0.0
 40
3.322569572950376
100
AcDbArc
 50
235.6157525319461
 51
304.3842474680539
  0
LINE
  5
1A1
330
1F
100
AcDbEntity
  8
LAY-10
  6
CONTINUOUS
 62
     7
100
AcDbLine
 10
718.7499999999617
 20
920.7999214788846
 30
0.0
 11
731.2499999999617
 21
920.7999214788847
 31
0.0
  0
LINE
  5
1A2
330
1F
100
AcDbEntity
  8
LAY-10
  6
CONTINUOUS
 62
     7
100
AcDbLine
 10
332.5055534994267
 20
926.8350777288842
 30
0.0
 11
332.5055534994267
 21
921.5248156297819
 31
0.0
  0
LINE
  5
1A3
330
1F
100
AcDbEntity
  8
LAY-10
  6
CONTINUOUS
 62
     7
100
AcDbLine
 10
328.7527767496936
 20
921.5248156297819
 30
0.0
 11
328.7527767496936
 21
926.8350777288842
 31
0.0
  0
LINE
  5
1A4
330
1F
100
AcDbEntity
  8
LAY-10
  6
CONTINUOUS
 62
     7
100
AcDbLine
 10
331.2499999999623
 20
920.799921478884
 30
0.0
 11
332.5055534994267
 21
921.5248156297819
 31
0.0
  0
ARC
  5
1A5
330
1F
100
AcDbEntity
  8
LAY-10
  6
CONTINUOUS
 62
     7
100
AcDbCircle
 10
330.6291651245606
 20
924.2668286191315
 30
0.0
 40
3.322569572950003
100
AcDbArc
 50
235.6157525319471
 51
304.3842474680529
  0
LINE
  5
1A6
330
1F
100
AcDbEntity
  8
LAY-10
  6
CONTINUOUS
 62
     7
100
AcDbLine
 10
321.2472232502282
 20
921.5248156297819
 30
0.0
 11
321.2472232502282
 21
926.8350777288842
 31
0.0
  0
ARC
  5
1A7
330
1F
100
AcDbEntity
  8
LAY-10
  6
CONTINUOUS
 62
     7
100
AcDbCircle
 10
324.9999999999313
 20
933.3637024627697
 30
0.0
 40
12.41944341658879
100
AcDbArc
 50
252.412046226416
 51
287.587953773858
  0
LINE
  5
1A8
330
1F
100
AcDbEntity
  8
LAY-10
  6
CONTINUOUS
 62
     7
100
AcDbLine
 10
317.494446500496
 20
921.5248156297819
 30
0.0
 11
317.494446500496
 21
926.8350777288842
 31
0.0
  0
LINE
  5
1A9
330
1F
100
AcDbEntity
  8
LAY-10
  6
CONTINUOUS
 62
     7
100
AcDbLine
 10
317.494446500496
 20
921.5248156297819
 30
0.0
 11
318.7499999999623
 21
920.799921478884
 31
0.0
  0
ARC
  5
1AA
330
1F
100
AcDbEntity
  8
LAY-10
  6
CONTINUOUS
 62
     7
100
AcDbCircle
 10
319.3708348753612
 20
924.2668286191315
 30
0.0
 40
3.322569572950376
100
AcDbArc
 50
235.6157525319461
 51
304.3842474680539
  0
LINE
  5
1AB
330
1F
100
AcDbEntity
  8
LAY-10
  6
CONTINUOUS
 62
     7
100
AcDbLine
 10
318.7499999999623
 20
920.799921478884
 30
0.0
 11
331.2499999999623
 21
920.799921478884
 31
0.0
  0
LINE
  5
1AC
330
1F
100
AcDbEntity
  8
LAY-10
  6
CONTINUOUS
 62
     7
100
AcDbLine
 10
1513.005553499474
 20
935.4999999999762
 30
0.0
 11
1513.005553499474
 21
929.7248941508741
 31
0.0
  0
ARC
  5
1AD
330
1F
100
AcDbEntity
  8
LAY-10
  6
CONTINUOUS
 62
     7
100
AcDbCircle
 10
1511.129165124608
 20
932.4669071402235
 30
0.0
 40
3.322569572950003
100
AcDbArc
 50
235.6157525319471
 51
304.3842474680529
  0
LINE
  5
1AE
330
1F
100
AcDbEntity
  8
LAY-10
  6
CONTINUOUS
 62
     7
100
AcDbLine
 10
1509.252776749741
 20
929.7248941508741
 30
0.0
 11
1509.252776749741
 21
935.4999999999762
 31
0.0
  0
LINE
  5
1AF
330
1F
100
AcDbEntity
  8
LAY-10
  6
CONTINUOUS
 62
     7
100
AcDbLine
 10
1511.750000000009
 20
928.999999999976
 30
0.0
 11
1513.005553499474
 21
929.7248941508741
 31
0.0
  0
LINE
  5
1B0
330
1F
100
AcDbEntity
  8
LAY-10
  6
CONTINUOUS
 62
     7
100
AcDbLine
 10
1501.747223250275
 20
929.7248941508741
 30
0.0
 11
1501.747223250275
 21
935.4999999999762
 31
0.0
  0
ARC
  5
1B1
330
1F
100
AcDbEntity
  8
LAY-10
  6
CONTINUOUS
 62
     7
100
AcDbCircle
 10
1505.499999999979
 20
941.5637809838623
 30
0.0
 40
12.41944341658879
100
AcDbArc
 50
252.412046226416
 51
287.587953773858
  0
LINE
  5
1B2
330
1F
100
AcDbEntity
  8
LAY-10
  6
CONTINUOUS
 62
     7
100
AcDbLine
 10
1497.994446500542
 20
929.7248941508741
 30
0.0
 11
1497.994446500542
 21
935.4999999999769
 31
0.0
  0
LINE
  5
1B3
330
1F
100
AcDbEntity
  8
LAY-10
  6
CONTINUOUS
 62
     7
100
AcDbLine
 10
1497.994446500542
 20
929.7248941508741
 30
0.0
 11
1499.250000000009
 21
928.999999999976
 31
0.0
  0
ARC
  5
1B4
330
1F
100
AcDbEntity
  8
LAY-10
  6
CONTINUOUS
 62
     7
100
AcDbCircle
 10
1499.870834875408
 20
932.4669071402235
 30
0.0
 40
3.322569572950376
100
AcDbArc
 50
235.6157525319461
 51
304.3842474680539
  0
LINE
  5
1B5
330
1F
100
AcDbEntity
  8
LAY-10
  6
CONTINUOUS
 62
     7
100
AcDbLine
 10
1499.250000000009
 20
928.999999999976
 30
0.0
 11
1511.750000000009
 21
928.999999999976
 31
0.0
  0
LINE
  5
1B6
330
1F
100
AcDbEntity
  8
LAY-10
  6
CONTINUOUS
 62
     7
100
AcDbLine
 10
1513.005553499476
 20
924.999999999936
 30
0.0
 11
1513.005553499476
 21
920.2248941508336
 31
0.0
  0
LINE
  5
1B7
330
1F
100
AcDbEntity
  8
LAY-10
  6
CONTINUOUS
 62
     7
100
AcDbLine
 10
1509.252776749743
 20
920.2248941508336
 30
0.0
 11
1509.252776749743
 21
924.999999999936
 31
0.0
  0
LINE
  5
1B8
330
1F
100
AcDbEntity
  8
LAY-10
  6
CONTINUOUS
 62
     7
100
AcDbLine
 10
1511.750000000011
 20
919.4999999999357
 30
0.0
 11
1513.005553499476
 21
920.2248941508336
 31
0.0
  0
ARC
  5
1B9
330
1F
100
AcDbEntity
  8
LAY-10
  6
CONTINUOUS
 62
     7
100
AcDbCircle
 10
1511.12916512461
 20
922.9669071401835
 30
0.0
 40
3.322569572950003
100
AcDbArc
 50
235.6157525319471
 51
304.3842474680529
  0
LINE
  5
1BA
330
1F
100
AcDbEntity
  8
LAY-10
  6
CONTINUOUS
 62
     7
100
AcDbLine
 10
1501.747223250277
 20
920.2248941508336
 30
0.0
 11
1501.747223250277
 21
924.999999999936
 31
0.0
  0
ARC
  5
1BB
330
1F
100
AcDbEntity
  8
LAY-10
  6
CONTINUOUS
 62
     7
100
AcDbCircle
 10
1505.49999999998
 20
932.0637809838214
 30
0.0
 40
12.41944341658879
100
AcDbArc
 50
252.412046226416
 51
287.587953773858
  0
LINE
  5
1BC
330
1F
100
AcDbEntity
  8
LAY-10
  6
CONTINUOUS
 62
     7
100
AcDbLine
 10
1497.994446500546
 20
920.2248941508336
 30
0.0
 11
1497.994446500546
 21
924.999999999936
 31
0.0
  0
LINE
  5
1BD
330
1F
100
AcDbEntity
  8
LAY-10
  6
CONTINUOUS
 62
     7
100
AcDbLine
 10
1497.994446500546
 20
920.2248941508336
 30
0.0
 11
1499.250000000011
 21
919.4999999999357
 31
0.0
  0
ARC
  5
1BE
330
1F
100
AcDbEntity
  8
LAY-10
  6
CONTINUOUS
 62
     7
100
AcDbCircle
 10
1499.87083487541
 20
922.9669071401835
 30
0.0
 40
3.322569572950376
100
AcDbArc
 50
235.6157525319461
 51
304.3842474680539
  0
LINE
  5
1BF
330
1F
100
AcDbEntity
  8
LAY-10
  6
CONTINUOUS
 62
     7
100
AcDbLine
 10
1499.250000000011
 20
919.4999999999357
 30
0.0
 11
1511.750000000011
 21
919.4999999999357
 31
0.0
  0
LINE
  5
1C0
330
1F
100
AcDbEntity
  8
LAY-10
  6
CONTINUOUS
 62
     7
100
AcDbLine
 10
1497.994446500546
 20
924.999999999936
 30
0.0
 11
1513.005553499476
 21
924.999999999936
 31
0.0
  0
LINE
  5
1C1
330
1F
100
AcDbEntity
  8
LAY-10
  6
CONTINUOUS
 62
     7
100
AcDbLine
 10
1501.50000000001
 20
924.999999999936
 30
0.0
 11
1501.500000000008
 21
928.999999999976
 31
0.0
  0
LINE
  5
1C2
330
1F
100
AcDbEntity
  8
LAY-10
  6
CONTINUOUS
 62
     7
100
AcDbLine
 10
1509.500000000008
 20
928.999999999976
 30
0.0
 11
1509.50000000001
 21
924.999999999936
 31
0.0
  0
LINE
  5
1C3
330
1F
100
AcDbEntity
  8
LAY-10
  6
CONTINUOUS
 62
     7
100
AcDbLine
 10
1509.500000000012
 20
944.3749999999474
 30
0.0
 11
1509.500000000012
 21
939.9999999999358
 31
0.0
  0
LINE
  5
1C4
330
1F
100
AcDbEntity
  8
LAY-10
  6
CONTINUOUS
 62
     7
100
AcDbLine
 10
1501.500000000012
 20
939.9999999999358
 30
0.0
 11
1501.500000000012
 21
944.3749999999474
 31
0.0
  0
LINE
  5
1C5
330
1F
100
AcDbEntity
  8
LAY-10
  6
CONTINUOUS
 62
     7
100
AcDbLine
 10
1501.500000000012
 20
944.3749999999474
 30
0.0
 11
1509.500000000012
 21
944.3749999999474
 31
0.0
  0
LINE
  5
1C6
330
1F
100
AcDbEntity
  8
LAY-10
  6
CONTINUOUS
 62
     7
100
AcDbLine
 10
1509.500000000012
 20
944.3749999999474
 30
0.0
 11
1508.875000000012
 21
944.9999999999474
 31
0.0
  0
LINE
  5
1C7
330
1F
100
AcDbEntity
  8
LAY-10
  6
CONTINUOUS
 62
     7
100
AcDbLine
 10
1502.125000000012
 20
944.9999999999474
 30
0.0
 11
1508.875000000012
 21
944.9999999999474
 31
0.0
  0
LINE
  5
1C8
330
1F
100
AcDbEntity
  8
LAY-10
  6
CONTINUOUS
 62
     7
100
AcDbLine
 10
1502.125000000012
 20
944.9999999999474
 30
0.0
 11
1501.500000000012
 21
944.3749999999474
 31
0.0
  0
ARC
  5
1C9
330
1F
100
AcDbEntity
  8
LAY-10
  6
CONTINUOUS
 62
     7
100
AcDbCircle
 10
1480.00000000001
 20
1094.000000000041
 30
0.0
 40
5.0
100
AcDbArc
 50
270.0
 51
0.0
  0
ARC
  5
1CA
330
1F
100
AcDbEntity
  8
LAY-10
  6
CONTINUOUS
 62
     7
100
AcDbCircle
 10
1479.50000000001
 20
1094.50000000004
 30
0.0
 40
1.0
100
AcDbArc
 50
270.0
 51
0.0
  0
LINE
  5
1CB
330
1F
100
AcDbEntity
  8
LAY-10
  6
CONTINUOUS
 62
     7
100
AcDbLine
 10
1375.000000000026
 20
1093.500000000041
 30
0.0
 11
1479.50000000001
 21
1093.500000000041
 31
0.0
  0
LINE
  5
1CC
330
1F
100
AcDbEntity
  8
LAY-10
  6
CONTINUOUS
 62
     7
100
AcDbLine
 10
1375.000000000031
 20
1089.000000000043
 30
0.0
 11
1480.00000000001
 21
1089.000000000043
 31
0.0
  0
LINE
  5
1CD
330
1F
100
AcDbEntity
  8
LAY-10
  6
CONTINUOUS
 62
     7
100
AcDbLine
 10
1480.50000000001
 20
1159.500000000045
 30
0.0
 11
1480.50000000001
 21
1094.50000000004
 31
0.0
  0
ARC
  5
1CE
330
1F
100
AcDbEntity
  8
LAY-10
  6
CONTINUOUS
 62
     7
100
AcDbCircle
 10
1480.00000000001
 20
1006.000000000039
 30
0.0
 40
5.0
100
AcDbArc
 50
0.0
 51
90.00000000000001
  0
ARC
  5
1CF
330
1F
100
AcDbEntity
  8
LAY-10
  6
CONTINUOUS
 62
     7
100
AcDbCircle
 10
1479.50000000001
 20
1005.50000000004
 30
0.0
 40
1.0
100
AcDbArc
 50
0.0
 51
90.00000000000001
  0
LINE
  5
1D0
330
1F
100
AcDbEntity
  8
LAY-10
  6
CONTINUOUS
 62
     7
100
AcDbLine
 10
1375.000000000026
 20
1011.000000000039
 30
0.0
 11
1480.00000000001
 21
1011.000000000039
 31
0.0
  0
LINE
  5
1D1
330
1F
100
AcDbEntity
  8
LAY-10
  6
CONTINUOUS
 62
     7
100
AcDbLine
 10
1375.000000000026
 20
1006.50000000004
 30
0.0
 11
1479.50000000001
 21
1006.50000000004
 31
0.0
  0
LINE
  5
1D2
330
1F
100
AcDbEntity
  8
LAY-10
  6
CONTINUOUS
 62
     7
100
AcDbLine
 10
1480.50000000001
 20
940.2999999999475
 30
0.0
 11
1480.50000000001
 21
1005.500000000041
 31
0.0
  0
LINE
  5
1D3
330
1F
100
AcDbEntity
  8
LAY-10
  6
CONTINUOUS
 62
     7
100
AcDbLine
 10
1485.00000000001
 20
941.0000000000449
 30
0.0
 11
1485.00000000001
 21
1159.000000000045
 31
0.0
  0
LINE
  5
1D4
330
1F
100
AcDbEntity
  8
LAY-10
  6
CONTINUOUS
 62
     7
100
AcDbLine
 10
224.9999999999977
 20
1093.500000000048
 30
0.0
 11
1224.999999999998
 21
1093.500000000049
 31
0.0
  0
LINE
  5
1D5
330
1F
100
AcDbEntity
  8
LAY-10
  6
CONTINUOUS
 62
     7
100
AcDbLine
 10
224.9999999999977
 20
1006.500000000048
 30
0.0
 11
1224.999999999998
 21
1006.500000000049
 31
0.0
  0
LINE
  5
1D6
330
1F
100
AcDbEntity
  8
LAY-10
  6
CONTINUOUS
 62
     7
100
AcDbLine
 10
1224.999999999998
 20
936.7999999998991
 30
0.0
 11
1224.999999999998
 21
1010.9999607396
 31
0.0
  0
LINE
  5
1D7
330
1F
100
AcDbEntity
  8
LAY-10
  6
CONTINUOUS
 62
     7
100
AcDbLine
 10
1224.999999999998
 20
1089.0000000001
 30
0.0
 11
1224.999999999998
 21
1163.200000000095
 31
0.0
  0
LINE
  5
1D8
330
1F
100
AcDbEntity
  8
LAY-10
  6
CONTINUOUS
 62
     7
100
AcDbLine
 10
225.0000000000045
 20
1163.200000000095
 30
0.0
 11
225.0000000000045
 21
1089.000000000098
 31
0.0
  0
LINE
  5
1D9
330
1F
100
AcDbEntity
  8
LAY-10
  6
CONTINUOUS
 62
     7
100
AcDbLine
 10
225.0000000000045
 20
1010.999960739598
 30
0.0
 11
225.0000000000045
 21
936.799999999895
 31
0.0
  0
LINE
  5
1DA
330
1F
100
AcDbEntity
  8
LAY-10
  6
CONTINUOUS
 62
     7
100
AcDbLine
 10
717.4999999999814
 20
1026.999980369745
 30
0.0
 11
717.4999999999814
 21
1032.999980369745
 31
0.0
  0
LINE
  5
1DB
330
1F
100
AcDbEntity
  8
LAY-10
  6
CONTINUOUS
 62
     7
100
AcDbLine
 10
717.4999999999814
 20
1066.999980369845
 30
0.0
 11
717.4999999999814
 21
1072.999980369845
 31
0.0
  0
LINE
  5
1DC
330
1F
100
AcDbEntity
  8
LAY-10
  6
CONTINUOUS
 62
     7
100
AcDbLine
 10
732.4999999999814
 20
1026.999980369745
 30
0.0
 11
732.4999999999814
 21
1032.999980369745
 31
0.0
  0
LINE
  5
1DD
330
1F
100
AcDbEntity
  8
LAY-10
  6
CONTINUOUS
 62
     7
100
AcDbLine
 10
732.4999999999814
 20
1066.999980369845
 30
0.0
 11
732.4999999999814
 21
1072.999980369845
 31
0.0
  0
ARC
  5
1DE
330
1F
100
AcDbEntity
  8
LAY-10
  6
CONTINUOUS
 62
     7
100
AcDbCircle
 10
724.9999999999814
 20
1049.999980369795
 30
0.0
 40
5.0
100
AcDbArc
 50
53.13010235410481
 51
126.8698976459003
  0
ARC
  5
1DF
330
1F
100
AcDbEntity
  8
LAY-10
  6
CONTINUOUS
 62
     7
100
AcDbCircle
 10
724.9999999999814
 20
1049.999980369795
 30
0.0
 40
4.0
100
AcDbArc
 50
48.59037789393994
 51
131.4096221060601
  0
ARC
  5
1E0
330
1F
100
AcDbEntity
  8
LAY-10
  6
CONTINUOUS
 62
     7
100
AcDbCircle
 10
724.9999999999814
 20
1049.999980369795
 30
0.0
 40
4.0
100
AcDbArc
 50
228.5903778939492
 51
311.4096221060509
  0
ARC
  5
1E1
330
1F
100
AcDbEntity
  8
LAY-10
  6
CONTINUOUS
 62
     7
100
AcDbCircle
 10
724.9999999999814
 20
1049.999980369795
 30
0.0
 40
5.0
100
AcDbArc
 50
233.1301023541225
 51
306.8698976458775
  0
ARC
  5
1E2
330
1F
100
AcDbEntity
  8
LAY-10
  6
CONTINUOUS
 62
     7
100
AcDbCircle
 10
324.9999999999709
 20
1049.999980369795
 30
0.0
 40
5.0
100
AcDbArc
 50
53.13010235410481
 51
126.8698976459003
  0
ARC
  5
1E3
330
1F
100
AcDbEntity
  8
LAY-10
  6
CONTINUOUS
 62
     7
100
AcDbCircle
 10
324.9999999999709
 20
1049.999980369795
 30
0.0
 40
4.0
100
AcDbArc
 50
48.59037789393994
 51
131.4096221060601
  0
ARC
  5
1E4
330
1F
100
AcDbEntity
  8
LAY-10
  6
CONTINUOUS
 62
     7
100
AcDbCircle
 10
324.9999999999709
 20
1049.999980369795
 30
0.0
 40
4.0
100
AcDbArc
 50
228.5903778939492
 51
311.4096221060509
  0
ARC
  5
1E5
330
1F
100
AcDbEntity
  8
LAY-10
  6
CONTINUOUS
 62
     7
100
AcDbCircle
 10
324.9999999999709
 20
1049.999980369795
 30
0.0
 40
5.0
100
AcDbArc
 50
233.1301023541225
 51
306.8698976458775
  0
LINE
  5
1E6
330
1F
100
AcDbEntity
  8
LAY-10
  6
CONTINUOUS
 62
     7
100
AcDbLine
 10
418.9999999999809
 20
1026.999980369745
 30
0.0
 11
418.9999999999809
 21
1032.999980369745
 31
0.0
  0
LINE
  5
1E7
330
1F
100
AcDbEntity
  8
LAY-10
  6
CONTINUOUS
 62
     7
100
AcDbLine
 10
430.9999999999809
 20
1026.999980369745
 30
0.0
 11
430.9999999999809
 21
1032.999980369745
 31
0.0
  0
LINE
  5
1E8
330
1F
100
AcDbEntity
  8
LAY-10
  6
CONTINUOUS
 62
     7
100
AcDbLine
 10
418.9999999999809
 20
1046.999980369945
 30
0.0
 11
418.9999999999809
 21
1052.999980369945
 31
0.0
  0
LINE
  5
1E9
330
1F
100
AcDbEntity
  8
LAY-10
  6
CONTINUOUS
 62
     7
100
AcDbLine
 10
430.9999999999809
 20
1046.999980369945
 30
0.0
 11
430.9999999999809
 21
1052.999980369945
 31
0.0
  0
LINE
  5
1EA
330
1F
100
AcDbEntity
  8
LAY-10
  6
CONTINUOUS
 62
     7
100
AcDbLine
 10
418.9999999999809
 20
1066.999980369845
 30
0.0
 11
418.9999999999809
 21
1072.999980369845
 31
0.0
  0
LINE
  5
1EB
330
1F
100
AcDbEntity
  8
LAY-10
  6
CONTINUOUS
 62
     7
100
AcDbLine
 10
430.9999999999809
 20
1066.999980369845
 30
0.0
 11
430.9999999999809
 21
1072.999980369845
 31
0.0
  0
ARC
  5
1EC
330
1F
100
AcDbEntity
  8
LAY-10
  6
CONTINUOUS
 62
     7
100
AcDbCircle
 10
524.9999999999509
 20
1049.999980369795
 30
0.0
 40
5.0
100
AcDbArc
 50
53.13010235409815
 51
126.8698976458961
  0
ARC
  5
1ED
330
1F
100
AcDbEntity
  8
LAY-10
  6
CONTINUOUS
 62
     7
100
AcDbCircle
 10
524.9999999999509
 20
1049.999980369795
 30
0.0
 40
4.0
100
AcDbArc
 50
48.59037789393748
 51
131.4096221060625
  0
ARC
  5
1EE
330
1F
100
AcDbEntity
  8
LAY-10
  6
CONTINUOUS
 62
     7
100
AcDbCircle
 10
524.9999999999509
 20
1049.999980369795
 30
0.0
 40
4.0
100
AcDbArc
 50
228.5903778939515
 51
311.4096221060485
  0
ARC
  5
1EF
330
1F
100
AcDbEntity
  8
LAY-10
  6
CONTINUOUS
 62
     7
100
AcDbCircle
 10
524.9999999999509
 20
1049.999980369795
 30
0.0
 40
5.0
100
AcDbArc
 50
233.1301023541234
 51
306.8698976458766
  0
LINE
  5
1F0
330
1F
100
AcDbEntity
  8
LAY-10
  6
CONTINUOUS
 62
     7
100
AcDbLine
 10
327.9999999999741
 20
1053.999980369793
 30
0.0
 11
521.9999999999482
 21
1053.999980369793
 31
0.0
  0
LINE
  5
1F1
330
1F
100
AcDbEntity
  8
LAY-10
  6
CONTINUOUS
 62
     7
100
AcDbLine
 10
521.9999999999491
 20
1045.999980369797
 30
0.0
 11
327.9999999999732
 21
1045.999980369797
 31
0.0
  0
LINE
  5
1F2
330
1F
100
AcDbEntity
  8
LAY-10
  6
CONTINUOUS
 62
     7
100
AcDbLine
 10
527.9999999999536
 20
1053.999980369793
 30
0.0
 11
721.9999999999786
 21
1053.999980369793
 31
0.0
  0
LINE
  5
1F3
330
1F
100
AcDbEntity
  8
LAY-10
  6
CONTINUOUS
 62
     7
100
AcDbLine
 10
721.9999999999791
 20
1045.999980369797
 30
0.0
 11
527.9999999999527
 21
1045.999980369797
 31
0.0
  0
LINE
  5
1F4
330
1F
100
AcDbEntity
  8
LAY-10
  6
CONTINUOUS
 62
     7
100
AcDbLine
 10
618.9999999999809
 20
1026.999980369745
 30
0.0
 11
618.9999999999809
 21
1032.999980369745
 31
0.0
  0
LINE
  5
1F5
330
1F
100
AcDbEntity
  8
LAY-10
  6
CONTINUOUS
 62
     7
100
AcDbLine
 10
630.9999999999809
 20
1026.999980369745
 30
0.0
 11
630.9999999999809
 21
1032.999980369745
 31
0.0
  0
LINE
  5
1F6
330
1F
100
AcDbEntity
  8
LAY-10
  6
CONTINUOUS
 62
     7
100
AcDbLine
 10
618.9999999999809
 20
1046.999980369645
 30
0.0
 11
618.9999999999809
 21
1052.999980369645
 31
0.0
  0
LINE
  5
1F7
330
1F
100
AcDbEntity
  8
LAY-10
  6
CONTINUOUS
 62
     7
100
AcDbLine
 10
630.9999999999809
 20
1046.999980369645
 30
0.0
 11
630.9999999999809
 21
1052.999980369645
 31
0.0
  0
LINE
  5
1F8
330
1F
100
AcDbEntity
  8
LAY-10
  6
CONTINUOUS
 62
     7
100
AcDbLine
 10
618.9999999999809
 20
1066.999980369845
 30
0.0
 11
618.9999999999809
 21
1072.999980369845
 31
0.0
  0
LINE
  5
1F9
330
1F
100
AcDbEntity
  8
LAY-10
  6
CONTINUOUS
 62
     7
100
AcDbLine
 10
630.9999999999809
 20
1066.999980369845
 30
0.0
 11
630.9999999999809
 21
1072.999980369845
 31
0.0
  0
LINE
  5
1FA
330
1F
100
AcDbEntity
  8
LAY-10
  6
CONTINUOUS
 62
     7
100
AcDbLine
 10
830.9999999999818
 20
1026.999980369745
 30
0.0
 11
830.9999999999818
 21
1032.999980369745
 31
0.0
  0
LINE
  5
1FB
330
1F
100
AcDbEntity
  8
LAY-10
  6
CONTINUOUS
 62
     7
100
AcDbLine
 10
818.9999999999818
 20
1026.999980369745
 30
0.0
 11
818.9999999999818
 21
1032.999980369745
 31
0.0
  0
LINE
  5
1FC
330
1F
100
AcDbEntity
  8
LAY-10
  6
CONTINUOUS
 62
     7
100
AcDbLine
 10
830.9999999999818
 20
1046.999980369645
 30
0.0
 11
830.9999999999818
 21
1052.999980369645
 31
0.0
  0
LINE
  5
1FD
330
1F
100
AcDbEntity
  8
LAY-10
  6
CONTINUOUS
 62
     7
100
AcDbLine
 10
818.9999999999818
 20
1046.999980369645
 30
0.0
 11
818.9999999999818
 21
1052.999980369645
 31
0.0
  0
LINE
  5
1FE
330
1F
100
AcDbEntity
  8
LAY-10
  6
CONTINUOUS
 62
     7
100
AcDbLine
 10
830.9999999999818
 20
1066.999980369845
 30
0.0
 11
830.9999999999818
 21
1072.999980369845
 31
0.0
  0
LINE
  5
1FF
330
1F
100
AcDbEntity
  8
LAY-10
  6
CONTINUOUS
 62
     7
100
AcDbLine
 10
818.9999999999818
 20
1066.999980369845
 30
0.0
 11
818.9999999999818
 21
1072.999980369845
 31
0.0
  0
ARC
  5
200
330
1F
100
AcDbEntity
  8
LAY-10
  6
CONTINUOUS
 62
     7
100
AcDbCircle
 10
925.0000000000119
 20
1049.999980369795
 30
0.0
 40
5.0
100
AcDbArc
 50
53.13010235410388
 51
126.8698976459016
  0
ARC
  5
201
330
1F
100
AcDbEntity
  8
LAY-10
  6
CONTINUOUS
 62
     7
100
AcDbCircle
 10
925.0000000000119
 20
1049.999980369795
 30
0.0
 40
4.0
100
AcDbArc
 50
48.59037789393644
 51
131.4096221060624
  0
ARC
  5
202
330
1F
100
AcDbEntity
  8
LAY-10
  6
CONTINUOUS
 62
     7
100
AcDbCircle
 10
925.0000000000119
 20
1049.999980369795
 30
0.0
 40
4.0
100
AcDbArc
 50
228.5903778939526
 51
311.4096221060499
  0
ARC
  5
203
330
1F
100
AcDbEntity
  8
LAY-10
  6
CONTINUOUS
 62
     7
100
AcDbCircle
 10
925.0000000000119
 20
1049.999980369795
 30
0.0
 40
5.0
100
AcDbArc
 50
233.1301023541234
 51
306.8698976458766
  0
LINE
  5
204
330
1F
100
AcDbEntity
  8
LAY-10
  6
CONTINUOUS
 62
     7
100
AcDbLine
 10
922.0000000000095
 20
1045.999980369797
 30
0.0
 11
727.9999999999836
 21
1045.999980369797
 31
0.0
  0
LINE
  5
205
330
1F
100
AcDbEntity
  8
LAY-10
  6
CONTINUOUS
 62
     7
100
AcDbLine
 10
727.999999999984
 20
1053.999980369793
 30
0.0
 11
922.0000000000086
 21
1053.999980369793
 31
0.0
  0
LINE
  5
206
330
1F
100
AcDbEntity
  8
LAY-10
  6
CONTINUOUS
 62
     7
100
AcDbLine
 10
1030.999999999982
 20
1026.999980369745
 30
0.0
 11
1030.999999999982
 21
1032.999980369745
 31
0.0
  0
LINE
  5
207
330
1F
100
AcDbEntity
  8
LAY-10
  6
CONTINUOUS
 62
     7
100
AcDbLine
 10
1018.999999999982
 20
1026.999980369745
 30
0.0
 11
1018.999999999982
 21
1032.999980369745
 31
0.0
  0
LINE
  5
208
330
1F
100
AcDbEntity
  8
LAY-10
  6
CONTINUOUS
 62
     7
100
AcDbLine
 10
1030.999999999982
 20
1046.999980369945
 30
0.0
 11
1030.999999999982
 21
1052.999980369945
 31
0.0
  0
LINE
  5
209
330
1F
100
AcDbEntity
  8
LAY-10
  6
CONTINUOUS
 62
     7
100
AcDbLine
 10
1018.999999999982
 20
1046.999980369945
 30
0.0
 11
1018.999999999982
 21
1052.999980369945
 31
0.0
  0
LINE
  5
20A
330
1F
100
AcDbEntity
  8
LAY-10
  6
CONTINUOUS
 62
     7
100
AcDbLine
 10
1030.999999999982
 20
1066.999980369845
 30
0.0
 11
1030.999999999982
 21
1072.999980369845
 31
0.0
  0
LINE
  5
20B
330
1F
100
AcDbEntity
  8
LAY-10
  6
CONTINUOUS
 62
     7
100
AcDbLine
 10
1018.999999999982
 20
1066.999980369845
 30
0.0
 11
1018.999999999982
 21
1072.999980369845
 31
0.0
  0
ARC
  5
20C
330
1F
100
AcDbEntity
  8
LAY-10
  6
CONTINUOUS
 62
     7
100
AcDbCircle
 10
1124.999999999992
 20
1049.999980369795
 30
0.0
 40
5.0
100
AcDbArc
 50
53.13010235409919
 51
126.8698976458951
  0
ARC
  5
20D
330
1F
100
AcDbEntity
  8
LAY-10
  6
CONTINUOUS
 62
     7
100
AcDbCircle
 10
1124.999999999992
 20
1049.999980369795
 30
0.0
 40
4.0
100
AcDbArc
 50
48.59037789393874
 51
131.4096221060601
  0
ARC
  5
20E
330
1F
100
AcDbEntity
  8
LAY-10
  6
CONTINUOUS
 62
     7
100
AcDbCircle
 10
1124.999999999992
 20
1049.999980369795
 30
0.0
 40
4.0
100
AcDbArc
 50
228.5903778939492
 51
311.4096221060509
  0
ARC
  5
20F
330
1F
100
AcDbEntity
  8
LAY-10
  6
CONTINUOUS
 62
     7
100
AcDbCircle
 10
1124.999999999992
 20
1049.999980369795
 30
0.0
 40
5.0
100
AcDbArc
 50
233.1301023541234
 51
306.8698976458777
  0
LINE
  5
210
330
1F
100
AcDbEntity
  8
LAY-10
  6
CONTINUOUS
 62
     7
100
AcDbLine
 10
928.000000000015
 20
1053.999980369793
 30
0.0
 11
1121.999999999989
 21
1053.999980369793
 31
0.0
  0
LINE
  5
211
330
1F
100
AcDbEntity
  8
LAY-10
  6
CONTINUOUS
 62
     7
100
AcDbLine
 10
1121.999999999989
 20
1045.999980369797
 30
0.0
 11
928.0000000000138
 21
1045.999980369797
 31
0.0
  0
LINE
  5
212
330
1F
100
AcDbEntity
  8
LAY-10
  6
CONTINUOUS
 62
     7
100
AcDbLine
 10
226.9999999999809
 20
1085.999980369795
 30
0.0
 11
226.9999999999809
 21
1073.999980369795
 31
0.0
  0
LINE
  5
213
330
1F
100
AcDbEntity
  8
LAY-10
  6
CONTINUOUS
 62
     7
100
AcDbLine
 10
225.9999999999809
 20
1086.999980369795
 30
0.0
 11
226.9999999999809
 21
1085.999980369795
 31
0.0
  0
LINE
  5
214
330
1F
100
AcDbEntity
  8
LAY-10
  6
CONTINUOUS
 62
     7
100
AcDbLine
 10
226.9999999999809
 20
1065.999980369795
 30
0.0
 11
226.9999999999809
 21
1053.999980369795
 31
0.0
  0
LINE
  5
215
330
1F
100
AcDbEntity
  8
LAY-10
  6
CONTINUOUS
 62
     7
100
AcDbLine
 10
226.9999999999809
 20
1033.999980369795
 30
0.0
 11
226.9999999999809
 21
1045.999980369795
 31
0.0
  0
LINE
  5
216
330
1F
100
AcDbEntity
  8
LAY-10
  6
CONTINUOUS
 62
     7
100
AcDbLine
 10
226.9999999999809
 20
1013.999980369895
 30
0.0
 11
226.9999999999809
 21
1025.999980369695
 31
0.0
  0
LINE
  5
217
330
1F
100
AcDbEntity
  8
LAY-10
  6
CONTINUOUS
 62
     7
100
AcDbLine
 10
226.9999999999809
 20
1013.999980369895
 30
0.0
 11
225.9999999999809
 21
1012.999980369845
 31
0.0
  0
LINE
  5
218
330
1F
100
AcDbEntity
  8
LAY-10
  6
CONTINUOUS
 62
     7
100
AcDbLine
 10
321.9999999999686
 20
1045.999980369797
 30
0.0
 11
226.9999999999809
 21
1045.999980369797
 31
0.0
  0
LINE
  5
219
330
1F
100
AcDbEntity
  8
LAY-10
  6
CONTINUOUS
 62
     7
100
AcDbLine
 10
226.9999999999809
 20
1053.999980369793
 30
0.0
 11
321.9999999999677
 21
1053.999980369793
 31
0.0
  0
LINE
  5
21A
330
1F
100
AcDbEntity
  8
LAY-10
  6
CONTINUOUS
 62
     7
100
AcDbLine
 10
1222.999999999981
 20
1033.999980369795
 30
0.0
 11
1222.999999999981
 21
1045.999980369795
 31
0.0
  0
LINE
  5
21B
330
1F
100
AcDbEntity
  8
LAY-10
  6
CONTINUOUS
 62
     7
100
AcDbLine
 10
1222.999999999981
 20
1065.999980369795
 30
0.0
 11
1222.999999999981
 21
1053.999980369795
 31
0.0
  0
LINE
  5
21C
330
1F
100
AcDbEntity
  8
LAY-10
  6
CONTINUOUS
 62
     7
100
AcDbLine
 10
1222.999999999981
 20
1085.999980369795
 30
0.0
 11
1222.999999999981
 21
1073.999980369795
 31
0.0
  0
LINE
  5
21D
330
1F
100
AcDbEntity
  8
LAY-10
  6
CONTINUOUS
 62
     7
100
AcDbLine
 10
1222.999999999981
 20
1013.999980369895
 30
0.0
 11
1223.999999999981
 21
1012.999980369845
 31
0.0
  0
LINE
  5
21E
330
1F
100
AcDbEntity
  8
LAY-10
  6
CONTINUOUS
 62
     7
100
AcDbLine
 10
1222.99999999998
 20
1013.999980369895
 30
0.0
 11
1222.99999999998
 21
1025.999980369695
 31
0.0
  0
LINE
  5
21F
330
1F
100
AcDbEntity
  8
LAY-10
  6
CONTINUOUS
 62
     7
100
AcDbLine
 10
1222.99999999998
 20
1033.999980369795
 30
0.0
 11
1222.99999999998
 21
1045.999980369795
 31
0.0
  0
LINE
  5
220
330
1F
100
AcDbEntity
  8
LAY-10
  6
CONTINUOUS
 62
     7
100
AcDbLine
 10
1222.99999999998
 20
1065.999980369795
 30
0.0
 11
1222.99999999998
 21
1053.999980369795
 31
0.0
  0
LINE
  5
221
330
1F
100
AcDbEntity
  8
LAY-10
  6
CONTINUOUS
 62
     7
100
AcDbLine
 10
1222.999999999981
 20
1085.999980369795
 30
0.0
 11
1223.999999999981
 21
1086.999980369795
 31
0.0
  0
LINE
  5
222
330
1F
100
AcDbEntity
  8
LAY-10
  6
CONTINUOUS
 62
     7
100
AcDbLine
 10
1222.99999999998
 20
1085.999980369795
 30
0.0
 11
1222.99999999998
 21
1073.999980369795
 31
0.0
  0
LINE
  5
223
330
1F
100
AcDbEntity
  8
LAY-10
  6
CONTINUOUS
 62
     7
100
AcDbLine
 10
1127.999999999995
 20
1053.999980369793
 30
0.0
 11
1222.99999999998
 21
1053.999980369793
 31
0.0
  0
LINE
  5
224
330
1F
100
AcDbEntity
  8
LAY-10
  6
CONTINUOUS
 62
     7
100
AcDbLine
 10
1222.999999999981
 20
1045.999980369797
 30
0.0
 11
1127.999999999994
 21
1045.999980369797
 31
0.0
  0
LINE
  5
225
330
1F
100
AcDbEntity
  8
LAY-10
  6
CONTINUOUS
 62
     7
100
AcDbLine
 10
226.9999999999809
 20
1013.999980369893
 30
0.0
 11
1222.999999999981
 21
1013.999980369893
 31
0.0
  0
LINE
  5
226
330
1F
100
AcDbEntity
  8
LAY-10
  6
CONTINUOUS
 62
     7
100
AcDbLine
 10
226.9999999999809
 20
1033.999980369793
 30
0.0
 11
1222.999999999981
 21
1033.999980369793
 31
0.0
  0
LINE
  5
227
330
1F
100
AcDbEntity
  8
LAY-10
  6
CONTINUOUS
 62
     7
100
AcDbLine
 10
1222.999999999981
 20
1065.999980369797
 30
0.0
 11
226.9999999999809
 21
1065.999980369797
 31
0.0
  0
LINE
  5
228
330
1F
100
AcDbEntity
  8
LAY-10
  6
CONTINUOUS
 62
     7
100
AcDbLine
 10
1222.999999999981
 20
1085.999980369746
 30
0.0
 11
226.9999999999809
 21
1085.999980369746
 31
0.0
  0
LINE
  5
229
330
1F
100
AcDbEntity
  8
LAY-10
  6
CONTINUOUS
 62
     7
100
AcDbLine
 10
517.4999999999409
 20
1026.999980369745
 30
0.0
 11
517.4999999999409
 21
1032.999980369745
 31
0.0
  0
LINE
  5
22A
330
1F
100
AcDbEntity
  8
LAY-10
  6
CONTINUOUS
 62
     7
100
AcDbLine
 10
532.4999999999409
 20
1026.999980369745
 30
0.0
 11
532.4999999999409
 21
1032.999980369745
 31
0.0
  0
LINE
  5
22B
330
1F
100
AcDbEntity
  8
LAY-10
  6
CONTINUOUS
 62
     7
100
AcDbLine
 10
532.4999999999409
 20
1066.999980369845
 30
0.0
 11
532.4999999999409
 21
1072.999980369845
 31
0.0
  0
LINE
  5
22C
330
1F
100
AcDbEntity
  8
LAY-10
  6
CONTINUOUS
 62
     7
100
AcDbLine
 10
517.4999999999409
 20
1066.999980369845
 30
0.0
 11
517.4999999999409
 21
1072.999980369845
 31
0.0
  0
LINE
  5
22D
330
1F
100
AcDbEntity
  8
LAY-10
  6
CONTINUOUS
 62
     7
100
AcDbLine
 10
317.4999999999513
 20
1066.999980369845
 30
0.0
 11
317.4999999999513
 21
1072.999980369845
 31
0.0
  0
LINE
  5
22E
330
1F
100
AcDbEntity
  8
LAY-10
  6
CONTINUOUS
 62
     7
100
AcDbLine
 10
332.4999999999513
 20
1066.999980369845
 30
0.0
 11
332.4999999999513
 21
1072.999980369845
 31
0.0
  0
LINE
  5
22F
330
1F
100
AcDbEntity
  8
LAY-10
  6
CONTINUOUS
 62
     7
100
AcDbLine
 10
317.4999999999513
 20
1026.999980369745
 30
0.0
 11
317.4999999999513
 21
1032.999980369745
 31
0.0
  0
LINE
  5
230
330
1F
100
AcDbEntity
  8
LAY-10
  6
CONTINUOUS
 62
     7
100
AcDbLine
 10
332.4999999999513
 20
1026.999980369745
 30
0.0
 11
332.4999999999513
 21
1032.999980369745
 31
0.0
  0
LINE
  5
231
330
1F
100
AcDbEntity
  8
LAY-10
  6
CONTINUOUS
 62
     7
100
AcDbLine
 10
917.5000000000218
 20
1066.999980369845
 30
0.0
 11
917.5000000000218
 21
1072.999980369845
 31
0.0
  0
LINE
  5
232
330
1F
100
AcDbEntity
  8
LAY-10
  6
CONTINUOUS
 62
     7
100
AcDbLine
 10
932.5000000000218
 20
1066.999980369845
 30
0.0
 11
932.5000000000218
 21
1072.999980369845
 31
0.0
  0
LINE
  5
233
330
1F
100
AcDbEntity
  8
LAY-10
  6
CONTINUOUS
 62
     7
100
AcDbLine
 10
932.5000000000218
 20
1026.999980369745
 30
0.0
 11
932.5000000000218
 21
1032.999980369745
 31
0.0
  0
LINE
  5
234
330
1F
100
AcDbEntity
  8
LAY-10
  6
CONTINUOUS
 62
     7
100
AcDbLine
 10
917.5000000000218
 20
1026.999980369745
 30
0.0
 11
917.5000000000218
 21
1032.999980369745
 31
0.0
  0
LINE
  5
235
330
1F
100
AcDbEntity
  8
LAY-10
  6
CONTINUOUS
 62
     7
100
AcDbLine
 10
1132.500000000012
 20
1026.999980369745
 30
0.0
 11
1132.500000000012
 21
1032.999980369745
 31
0.0
  0
LINE
  5
236
330
1F
100
AcDbEntity
  8
LAY-10
  6
CONTINUOUS
 62
     7
100
AcDbLine
 10
1117.500000000012
 20
1026.999980369745
 30
0.0
 11
1117.500000000012
 21
1032.999980369745
 31
0.0
  0
LINE
  5
237
330
1F
100
AcDbEntity
  8
LAY-10
  6
CONTINUOUS
 62
     7
100
AcDbLine
 10
1117.500000000012
 20
1066.999980369845
 30
0.0
 11
1117.500000000012
 21
1072.999980369845
 31
0.0
  0
LINE
  5
238
330
1F
100
AcDbEntity
  8
LAY-10
  6
CONTINUOUS
 62
     7
100
AcDbLine
 10
1132.500000000012
 20
1066.999980369845
 30
0.0
 11
1132.500000000012
 21
1072.999980369845
 31
0.0
  0
LINE
  5
239
330
1F
100
AcDbEntity
  8
LAY-10
  6
CONTINUOUS
 62
     7
100
AcDbLine
 10
1223.999999999983
 20
1012.999980369843
 30
0.0
 11
225.9999999999791
 21
1012.999980369843
 31
0.0
  0
LINE
  5
23A
330
1F
100
AcDbEntity
  8
LAY-10
  6
CONTINUOUS
 62
     7
100
AcDbLine
 10
1223.99999999998
 20
1086.999980369746
 30
0.0
 11
226.0000000000296
 21
1086.999980369746
 31
0.0
  0
LINE
  5
23B
330
1F
100
AcDbEntity
  8
LAY-10
  6
CONTINUOUS
 62
     7
100
AcDbLine
 10
226.5999999999713
 20
1073.599980369767
 30
0.0
 11
238.399999999981
 21
1073.599980369767
 31
0.0
  0
LINE
  5
23C
330
1F
100
AcDbEntity
  8
LAY-10
  6
CONTINUOUS
 62
     7
100
AcDbLine
 10
226.5999999999713
 20
1073.599980369767
 30
0.0
 11
226.5999999999713
 21
1066.399980369726
 31
0.0
  0
LINE
  5
23D
330
1F
100
AcDbEntity
  8
LAY-10
  6
CONTINUOUS
 62
     7
100
AcDbLine
 10
226.6000000000013
 20
1066.399980369727
 30
0.0
 11
238.399999999981
 21
1066.399980369727
 31
0.0
  0
LINE
  5
23E
330
1F
100
AcDbEntity
  8
LAY-10
  6
CONTINUOUS
 62
     7
100
AcDbLine
 10
238.399999999981
 20
1073.599980369767
 30
0.0
 11
238.399999999981
 21
1066.399980369727
 31
0.0
  0
LINE
  5
23F
330
1F
100
AcDbEntity
  8
LAY-10
  6
CONTINUOUS
 62
     7
100
AcDbLine
 10
238.399999999981
 20
1073.599980369767
 30
0.0
 11
238.9999999999809
 21
1072.999980369746
 31
0.0
  0
LINE
  5
240
330
1F
100
AcDbEntity
  8
LAY-10
  6
CONTINUOUS
 62
     7
100
AcDbLine
 10
238.400000000001
 20
1066.399980369727
 30
0.0
 11
239.0000000000009
 21
1066.999980369746
 31
0.0
  0
LINE
  5
241
330
1F
100
AcDbEntity
  8
LAY-10
  6
CONTINUOUS
 62
     7
100
AcDbLine
 10
226.9999999999809
 20
1073.999980369795
 30
0.0
 11
226.5999999999522
 21
1073.599980369767
 31
0.0
  0
LINE
  5
242
330
1F
100
AcDbEntity
  8
LAY-10
  6
CONTINUOUS
 62
     7
100
AcDbLine
 10
226.9999999999809
 20
1065.999980369795
 30
0.0
 11
226.5999999999713
 21
1066.399980369825
 31
0.0
  0
LINE
  5
243
330
1F
100
AcDbEntity
  8
LAY-10
  6
CONTINUOUS
 62
     7
100
AcDbLine
 10
238.9999999998809
 20
1072.999980369845
 30
0.0
 11
238.9999999998809
 21
1066.999980369845
 31
0.0
  0
LINE
  5
244
330
1F
100
AcDbEntity
  8
LAY-10
  6
CONTINUOUS
 62
     7
100
AcDbLine
 10
226.5999999999713
 20
1053.599980369767
 30
0.0
 11
238.399999999981
 21
1053.599980369767
 31
0.0
  0
LINE
  5
245
330
1F
100
AcDbEntity
  8
LAY-10
  6
CONTINUOUS
 62
     7
100
AcDbLine
 10
226.5999999999713
 20
1053.599980369767
 30
0.0
 11
226.5999999999713
 21
1046.399980369726
 31
0.0
  0
LINE
  5
246
330
1F
100
AcDbEntity
  8
LAY-10
  6
CONTINUOUS
 62
     7
100
AcDbLine
 10
226.6000000000013
 20
1046.399980369727
 30
0.0
 11
238.399999999981
 21
1046.399980369727
 31
0.0
  0
LINE
  5
247
330
1F
100
AcDbEntity
  8
LAY-10
  6
CONTINUOUS
 62
     7
100
AcDbLine
 10
238.399999999981
 20
1053.599980369767
 30
0.0
 11
238.399999999981
 21
1046.399980369727
 31
0.0
  0
LINE
  5
248
330
1F
100
AcDbEntity
  8
LAY-10
  6
CONTINUOUS
 62
     7
100
AcDbLine
 10
238.399999999981
 20
1053.599980369767
 30
0.0
 11
238.9999999999809
 21
1052.999980369746
 31
0.0
  0
LINE
  5
249
330
1F
100
AcDbEntity
  8
LAY-10
  6
CONTINUOUS
 62
     7
100
AcDbLine
 10
238.400000000001
 20
1046.399980369727
 30
0.0
 11
239.0000000000009
 21
1046.999980369746
 31
0.0
  0
LINE
  5
24A
330
1F
100
AcDbEntity
  8
LAY-10
  6
CONTINUOUS
 62
     7
100
AcDbLine
 10
226.9999999999809
 20
1053.999980369795
 30
0.0
 11
226.5999999998921
 21
1053.599980369767
 31
0.0
  0
LINE
  5
24B
330
1F
100
AcDbEntity
  8
LAY-10
  6
CONTINUOUS
 62
     7
100
AcDbLine
 10
226.9999999999809
 20
1045.999980369795
 30
0.0
 11
226.5999999999713
 21
1046.399980369745
 31
0.0
  0
LINE
  5
24C
330
1F
100
AcDbEntity
  8
LAY-10
  6
CONTINUOUS
 62
     7
100
AcDbLine
 10
322.3542486890746
 20
1052.999980369943
 30
0.0
 11
238.999999999784
 21
1052.999980369943
 31
0.0
  0
LINE
  5
24D
330
1F
100
AcDbEntity
  8
LAY-10
  6
CONTINUOUS
 62
     7
100
AcDbLine
 10
322.3542486890751
 20
1046.999980369646
 30
0.0
 11
238.9999999999009
 21
1046.999980369646
 31
0.0
  0
LINE
  5
24E
330
1F
100
AcDbEntity
  8
LAY-10
  6
CONTINUOUS
 62
     7
100
AcDbLine
 10
238.9999999997808
 20
1052.999980369945
 30
0.0
 11
238.9999999997808
 21
1046.999980369646
 31
0.0
  0
LINE
  5
24F
330
1F
100
AcDbEntity
  8
LAY-10
  6
CONTINUOUS
 62
     7
100
AcDbLine
 10
226.5999999999713
 20
1033.599980369767
 30
0.0
 11
238.399999999981
 21
1033.599980369767
 31
0.0
  0
LINE
  5
250
330
1F
100
AcDbEntity
  8
LAY-10
  6
CONTINUOUS
 62
     7
100
AcDbLine
 10
226.5999999999713
 20
1033.599980369767
 30
0.0
 11
226.5999999999713
 21
1026.399980369726
 31
0.0
  0
LINE
  5
251
330
1F
100
AcDbEntity
  8
LAY-10
  6
CONTINUOUS
 62
     7
100
AcDbLine
 10
226.6000000000013
 20
1026.399980369727
 30
0.0
 11
238.399999999981
 21
1026.399980369727
 31
0.0
  0
LINE
  5
252
330
1F
100
AcDbEntity
  8
LAY-10
  6
CONTINUOUS
 62
     7
100
AcDbLine
 10
238.399999999981
 20
1033.599980369767
 30
0.0
 11
238.399999999981
 21
1026.399980369727
 31
0.0
  0
LINE
  5
253
330
1F
100
AcDbEntity
  8
LAY-10
  6
CONTINUOUS
 62
     7
100
AcDbLine
 10
238.399999999981
 20
1033.599980369767
 30
0.0
 11
238.9999999999809
 21
1032.999980369746
 31
0.0
  0
LINE
  5
254
330
1F
100
AcDbEntity
  8
LAY-10
  6
CONTINUOUS
 62
     7
100
AcDbLine
 10
238.400000000001
 20
1026.399980369727
 30
0.0
 11
239.0000000000009
 21
1026.999980369746
 31
0.0
  0
LINE
  5
255
330
1F
100
AcDbEntity
  8
LAY-10
  6
CONTINUOUS
 62
     7
100
AcDbLine
 10
226.9999999999809
 20
1033.999980369795
 30
0.0
 11
226.5999999999713
 21
1033.599980369765
 31
0.0
  0
LINE
  5
256
330
1F
100
AcDbEntity
  8
LAY-10
  6
CONTINUOUS
 62
     7
100
AcDbLine
 10
226.9999999999809
 20
1025.999980369695
 30
0.0
 11
226.5999999999694
 21
1026.399980369727
 31
0.0
  0
LINE
  5
257
330
1F
100
AcDbEntity
  8
LAY-10
  6
CONTINUOUS
 62
     7
100
AcDbLine
 10
238.9999999999809
 20
1032.999980369745
 30
0.0
 11
238.9999999999809
 21
1026.999980369747
 31
0.0
  0
LINE
  5
258
330
1F
100
AcDbEntity
  8
LAY-10
  6
CONTINUOUS
 62
     7
100
AcDbLine
 10
1223.399999999991
 20
1026.399980369723
 30
0.0
 11
1211.599999999981
 21
1026.399980369723
 31
0.0
  0
LINE
  5
259
330
1F
100
AcDbEntity
  8
LAY-10
  6
CONTINUOUS
 62
     7
100
AcDbLine
 10
1223.399999999991
 20
1026.399980369723
 30
0.0
 11
1223.399999999991
 21
1033.599980369764
 31
0.0
  0
LINE
  5
25A
330
1F
100
AcDbEntity
  8
LAY-10
  6
CONTINUOUS
 62
     7
100
AcDbLine
 10
1223.399999999961
 20
1033.599980369763
 30
0.0
 11
1211.599999999981
 21
1033.599980369763
 31
0.0
  0
LINE
  5
25B
330
1F
100
AcDbEntity
  8
LAY-10
  6
CONTINUOUS
 62
     7
100
AcDbLine
 10
1211.599999999981
 20
1026.399980369723
 30
0.0
 11
1211.599999999981
 21
1033.599980369763
 31
0.0
  0
LINE
  5
25C
330
1F
100
AcDbEntity
  8
LAY-10
  6
CONTINUOUS
 62
     7
100
AcDbLine
 10
1211.599999999981
 20
1026.399980369723
 30
0.0
 11
1210.999999999981
 21
1026.999980369743
 31
0.0
  0
LINE
  5
25D
330
1F
100
AcDbEntity
  8
LAY-10
  6
CONTINUOUS
 62
     7
100
AcDbLine
 10
1211.599999999961
 20
1033.599980369763
 30
0.0
 11
1210.999999999961
 21
1032.999980369743
 31
0.0
  0
LINE
  5
25E
330
1F
100
AcDbEntity
  8
LAY-10
  6
CONTINUOUS
 62
     7
100
AcDbLine
 10
1223.399999999991
 20
1046.399980369823
 30
0.0
 11
1211.599999999981
 21
1046.399980369823
 31
0.0
  0
LINE
  5
25F
330
1F
100
AcDbEntity
  8
LAY-10
  6
CONTINUOUS
 62
     7
100
AcDbLine
 10
1223.399999999991
 20
1046.399980369823
 30
0.0
 11
1223.399999999991
 21
1053.599980369864
 31
0.0
  0
LINE
  5
260
330
1F
100
AcDbEntity
  8
LAY-10
  6
CONTINUOUS
 62
     7
100
AcDbLine
 10
1223.399999999961
 20
1053.599980369863
 30
0.0
 11
1211.599999999981
 21
1053.599980369863
 31
0.0
  0
LINE
  5
261
330
1F
100
AcDbEntity
  8
LAY-10
  6
CONTINUOUS
 62
     7
100
AcDbLine
 10
1211.599999999981
 20
1046.399980369823
 30
0.0
 11
1211.599999999981
 21
1053.599980369863
 31
0.0
  0
LINE
  5
262
330
1F
100
AcDbEntity
  8
LAY-10
  6
CONTINUOUS
 62
     7
100
AcDbLine
 10
1211.599999999981
 20
1046.399980369823
 30
0.0
 11
1210.999999999981
 21
1046.999980369843
 31
0.0
  0
LINE
  5
263
330
1F
100
AcDbEntity
  8
LAY-10
  6
CONTINUOUS
 62
     7
100
AcDbLine
 10
1211.599999999961
 20
1053.599980369863
 30
0.0
 11
1210.999999999961
 21
1052.999980369843
 31
0.0
  0
LINE
  5
264
330
1F
100
AcDbEntity
  8
LAY-10
  6
CONTINUOUS
 62
     7
100
AcDbLine
 10
1223.399999999991
 20
1066.399980369823
 30
0.0
 11
1211.599999999981
 21
1066.399980369823
 31
0.0
  0
LINE
  5
265
330
1F
100
AcDbEntity
  8
LAY-10
  6
CONTINUOUS
 62
     7
100
AcDbLine
 10
1223.399999999991
 20
1066.399980369823
 30
0.0
 11
1223.399999999991
 21
1073.599980369864
 31
0.0
  0
LINE
  5
266
330
1F
100
AcDbEntity
  8
LAY-10
  6
CONTINUOUS
 62
     7
100
AcDbLine
 10
1223.399999999961
 20
1073.599980369863
 30
0.0
 11
1211.599999999981
 21
1073.599980369863
 31
0.0
  0
LINE
  5
267
330
1F
100
AcDbEntity
  8
LAY-10
  6
CONTINUOUS
 62
     7
100
AcDbLine
 10
1211.599999999981
 20
1066.399980369823
 30
0.0
 11
1211.599999999981
 21
1073.599980369863
 31
0.0
  0
LINE
  5
268
330
1F
100
AcDbEntity
  8
LAY-10
  6
CONTINUOUS
 62
     7
100
AcDbLine
 10
1211.599999999981
 20
1066.399980369823
 30
0.0
 11
1210.999999999981
 21
1066.999980369843
 31
0.0
  0
LINE
  5
269
330
1F
100
AcDbEntity
  8
LAY-10
  6
CONTINUOUS
 62
     7
100
AcDbLine
 10
1211.599999999961
 20
1073.599980369863
 30
0.0
 11
1210.999999999961
 21
1072.999980369843
 31
0.0
  0
LINE
  5
26A
330
1F
100
AcDbEntity
  8
LAY-10
  6
CONTINUOUS
 62
     7
100
AcDbLine
 10
1222.999999999981
 20
1073.999980369795
 30
0.0
 11
1223.399999999991
 21
1073.599980369785
 31
0.0
  0
LINE
  5
26B
330
1F
100
AcDbEntity
  8
LAY-10
  6
CONTINUOUS
 62
     7
100
AcDbLine
 10
1222.999999999981
 20
1065.999980369795
 30
0.0
 11
1223.399999999991
 21
1066.399980369825
 31
0.0
  0
LINE
  5
26C
330
1F
100
AcDbEntity
  8
LAY-10
  6
CONTINUOUS
 62
     7
100
AcDbLine
 10
1222.999999999981
 20
1045.999980369795
 30
0.0
 11
1223.400000000009
 21
1046.399980369823
 31
0.0
  0
LINE
  5
26D
330
1F
100
AcDbEntity
  8
LAY-10
  6
CONTINUOUS
 62
     7
100
AcDbLine
 10
1222.999999999981
 20
1053.999980369795
 30
0.0
 11
1223.399999999991
 21
1053.599980369845
 31
0.0
  0
LINE
  5
26E
330
1F
100
AcDbEntity
  8
LAY-10
  6
CONTINUOUS
 62
     7
100
AcDbLine
 10
1211.000000000177
 20
1046.999980369646
 30
0.0
 11
1127.645751310888
 21
1046.999980369646
 31
0.0
  0
LINE
  5
26F
330
1F
100
AcDbEntity
  8
LAY-10
  6
CONTINUOUS
 62
     7
100
AcDbLine
 10
1211.000000000061
 20
1052.999980369943
 30
0.0
 11
1127.645751310888
 21
1052.999980369943
 31
0.0
  0
LINE
  5
270
330
1F
100
AcDbEntity
  8
LAY-10
  6
CONTINUOUS
 62
     7
100
AcDbLine
 10
1222.999999999981
 20
1025.999980369695
 30
0.0
 11
1223.399999999991
 21
1026.399980369725
 31
0.0
  0
LINE
  5
271
330
1F
100
AcDbEntity
  8
LAY-10
  6
CONTINUOUS
 62
     7
100
AcDbLine
 10
1222.999999999981
 20
1033.999980369795
 30
0.0
 11
1223.399999999993
 21
1033.599980369763
 31
0.0
  0
LINE
  5
272
330
1F
100
AcDbEntity
  8
LAY-10
  6
CONTINUOUS
 62
     7
100
AcDbLine
 10
1210.999999999961
 20
1072.999980369845
 30
0.0
 11
1210.999999999961
 21
1066.999980369845
 31
0.0
  0
LINE
  5
273
330
1F
100
AcDbEntity
  8
LAY-10
  6
CONTINUOUS
 62
     7
100
AcDbLine
 10
1210.999999999961
 20
1052.999980369845
 30
0.0
 11
1210.999999999961
 21
1046.999980369646
 31
0.0
  0
LINE
  5
274
330
1F
100
AcDbEntity
  8
LAY-10
  6
CONTINUOUS
 62
     7
100
AcDbLine
 10
1210.999999999961
 20
1032.999980369745
 30
0.0
 11
1210.999999999961
 21
1026.999980369747
 31
0.0
  0
LINE
  5
275
330
1F
100
AcDbEntity
  8
LAY-10
  6
CONTINUOUS
 62
     7
100
AcDbLine
 10
630.9999999999809
 20
1066.999980369845
 30
0.0
 11
630.9999999999809
 21
1072.999980369845
 31
0.0
  0
LINE
  5
276
330
1F
100
AcDbEntity
  8
LAY-10
  6
CONTINUOUS
 62
     7
100
AcDbLine
 10
618.9999999999809
 20
1046.999980369945
 30
0.0
 11
618.9999999999809
 21
1052.999980369945
 31
0.0
  0
LINE
  5
277
330
1F
100
AcDbEntity
  8
LAY-10
  6
CONTINUOUS
 62
     7
100
AcDbLine
 10
830.9999999999809
 20
1066.999980369845
 30
0.0
 11
830.9999999999809
 21
1072.999980369845
 31
0.0
  0
LINE
  5
278
330
1F
100
AcDbEntity
  8
LAY-10
  6
CONTINUOUS
 62
     7
100
AcDbLine
 10
818.999999999981
 20
1046.999980369945
 30
0.0
 11
818.999999999981
 21
1052.999980369945
 31
0.0
  0
LINE
  5
279
330
1F
100
AcDbEntity
  8
LAY-10
  6
CONTINUOUS
 62
     7
100
AcDbLine
 10
1030.999999999981
 20
1066.999980369845
 30
0.0
 11
1030.999999999981
 21
1072.999980369845
 31
0.0
  0
LINE
  5
27A
330
1F
100
AcDbEntity
  8
LAY-10
  6
CONTINUOUS
 62
     7
100
AcDbLine
 10
1018.999999999981
 20
1046.999980369945
 30
0.0
 11
1018.999999999981
 21
1052.999980369945
 31
0.0
  0
LINE
  5
27B
330
1F
100
AcDbEntity
  8
LAY-10
  6
CONTINUOUS
 62
     7
100
AcDbLine
 10
225.9999999999814
 20
1086.999980369745
 30
0.0
 11
225.9999999999814
 21
1012.999980369843
 31
0.0
  0
LINE
  5
27C
330
1F
100
AcDbEntity
  8
LAY-10
  6
CONTINUOUS
 62
     7
100
AcDbLine
 10
1223.99999999998
 20
1086.999980369745
 30
0.0
 11
1223.99999999998
 21
1012.999980369843
 31
0.0
  0
LINE
  5
27D
330
1F
100
AcDbEntity
  8
LAY-10
  6
CONTINUOUS
 62
     7
100
AcDbLine
 10
1210.999999999961
 20
1066.999980369845
 30
0.0
 11
239.0000000000991
 21
1066.999980369845
 31
0.0
  0
LINE
  5
27E
330
1F
100
AcDbEntity
  8
LAY-10
  6
CONTINUOUS
 62
     7
100
AcDbLine
 10
522.3542486890542
 20
1052.999980369943
 30
0.0
 11
327.6457513108676
 21
1052.999980369943
 31
0.0
  0
LINE
  5
27F
330
1F
100
AcDbEntity
  8
LAY-10
  6
CONTINUOUS
 62
     7
100
AcDbLine
 10
522.3542486890547
 20
1046.999980369646
 30
0.0
 11
327.6457513108666
 21
1046.999980369646
 31
0.0
  0
LINE
  5
280
330
1F
100
AcDbEntity
  8
LAY-10
  6
CONTINUOUS
 62
     7
100
AcDbLine
 10
1122.354248689096
 20
1052.999980369943
 30
0.0
 11
927.645751310908
 21
1052.999980369943
 31
0.0
  0
LINE
  5
281
330
1F
100
AcDbEntity
  8
LAY-10
  6
CONTINUOUS
 62
     7
100
AcDbLine
 10
1122.354248689096
 20
1046.999980369646
 30
0.0
 11
927.645751310908
 21
1046.999980369646
 31
0.0
  0
LINE
  5
282
330
1F
100
AcDbEntity
  8
LAY-10
  6
CONTINUOUS
 62
     7
100
AcDbLine
 10
1210.999999999961
 20
1032.999980369746
 30
0.0
 11
238.9999999999827
 21
1032.999980369746
 31
0.0
  0
LINE
  5
283
330
1F
100
AcDbEntity
  8
LAY-10
  6
CONTINUOUS
 62
     7
100
AcDbLine
 10
727.6457513112158
 20
1052.999980369645
 30
0.0
 11
922.3542486887773
 21
1052.999980369645
 31
0.0
  0
LINE
  5
284
330
1F
100
AcDbEntity
  8
LAY-10
  6
CONTINUOUS
 62
     7
100
AcDbLine
 10
727.6457513108758
 20
1046.999980369645
 30
0.0
 11
922.3542486891174
 21
1046.999980369645
 31
0.0
  0
LINE
  5
285
330
1F
100
AcDbEntity
  8
LAY-10
  6
CONTINUOUS
 62
     7
100
AcDbLine
 10
722.3542486890847
 20
1052.999980369943
 30
0.0
 11
527.6457513108471
 21
1052.999980369943
 31
0.0
  0
LINE
  5
286
330
1F
100
AcDbEntity
  8
LAY-10
  6
CONTINUOUS
 62
     7
100
AcDbLine
 10
722.354248689085
 20
1046.999980369646
 30
0.0
 11
527.6457513108471
 21
1046.999980369646
 31
0.0
  0
CIRCLE
  5
287
330
1F
100
AcDbEntity
  8
LAY-10
  6
CONTINUOUS
 62
     7
100
AcDbCircle
 10
1125.000000000222
 20
1072.499980369784
 30
0.0
 40
2.3
  0
CIRCLE
  5
288
330
1F
100
AcDbEntity
  8
LAY-10
  6
CONTINUOUS
 62
     7
100
AcDbCircle
 10
1125.000000000222
 20
1027.499980369806
 30
0.0
 40
2.3
  0
CIRCLE
  5
289
330
1F
100
AcDbEntity
  8
LAY-10
  6
CONTINUOUS
 62
     7
100
AcDbCircle
 10
925.0000000004725
 20
1072.499980369784
 30
0.0
 40
2.3
  0
CIRCLE
  5
28A
330
1F
100
AcDbEntity
  8
LAY-10
  6
CONTINUOUS
 62
     7
100
AcDbCircle
 10
925.0000000004725
 20
1027.499980369806
 30
0.0
 40
2.3
  0
CIRCLE
  5
28B
330
1F
100
AcDbEntity
  8
LAY-10
  6
CONTINUOUS
 62
     7
100
AcDbCircle
 10
725.0000000002124
 20
1072.499980369784
 30
0.0
 40
2.3
  0
CIRCLE
  5
28C
330
1F
100
AcDbEntity
  8
LAY-10
  6
CONTINUOUS
 62
     7
100
AcDbCircle
 10
725.0000000002124
 20
1027.499980369806
 30
0.0
 40
2.3
  0
CIRCLE
  5
28D
330
1F
100
AcDbEntity
  8
LAY-10
  6
CONTINUOUS
 62
     7
100
AcDbCircle
 10
525.0000000001824
 20
1072.499980369784
 30
0.0
 40
2.3
  0
CIRCLE
  5
28E
330
1F
100
AcDbEntity
  8
LAY-10
  6
CONTINUOUS
 62
     7
100
AcDbCircle
 10
525.0000000001824
 20
1027.499980369806
 30
0.0
 40
2.3
  0
CIRCLE
  5
28F
330
1F
100
AcDbEntity
  8
LAY-10
  6
CONTINUOUS
 62
     7
100
AcDbCircle
 10
325.0000000002024
 20
1072.499980369784
 30
0.0
 40
2.3
  0
CIRCLE
  5
290
330
1F
100
AcDbEntity
  8
LAY-10
  6
CONTINUOUS
 62
     7
100
AcDbCircle
 10
325.0000000002024
 20
1027.499980369806
 30
0.0
 40
2.3
  0
LINE
  5
291
330
1F
100
AcDbEntity
  8
LAY-10
  6
CONTINUOUS
 62
     7
100
AcDbLine
 10
226.9999999999809
 20
1073.999980369843
 30
0.0
 11
323.256440422836
 21
1073.999980369843
 31
0.0
  0
LINE
  5
292
330
1F
100
AcDbEntity
  8
LAY-10
  6
CONTINUOUS
 62
     7
100
AcDbLine
 10
322.7550055681509
 20
1072.999980369843
 30
0.0
 11
238.9999999998845
 21
1072.999980369843
 31
0.0
  0
LINE
  5
293
330
1F
100
AcDbEntity
  8
LAY-10
  6
CONTINUOUS
 62
     7
100
AcDbLine
 10
323.2564404228806
 20
1025.999980369696
 30
0.0
 11
226.9999999999809
 21
1025.999980369696
 31
0.0
  0
LINE
  5
294
330
1F
100
AcDbEntity
  8
LAY-10
  6
CONTINUOUS
 62
     7
100
AcDbLine
 10
322.7550055681513
 20
1026.999980369747
 30
0.0
 11
239.0000000000018
 21
1026.999980369747
 31
0.0
  0
LINE
  5
295
330
1F
100
AcDbEntity
  8
LAY-10
  6
CONTINUOUS
 62
     7
100
AcDbLine
 10
326.7435595775682
 20
1073.999980369843
 30
0.0
 11
523.256440422816
 21
1073.999980369843
 31
0.0
  0
LINE
  5
296
330
1F
100
AcDbEntity
  8
LAY-10
  6
CONTINUOUS
 62
     7
100
AcDbLine
 10
522.7550055681309
 20
1072.999980369843
 30
0.0
 11
327.2449944322534
 21
1072.999980369843
 31
0.0
  0
LINE
  5
297
330
1F
100
AcDbEntity
  8
LAY-10
  6
CONTINUOUS
 62
     7
100
AcDbLine
 10
523.2564404228606
 20
1025.999980369696
 30
0.0
 11
326.7435595775241
 21
1025.999980369696
 31
0.0
  0
LINE
  5
298
330
1F
100
AcDbEntity
  8
LAY-10
  6
CONTINUOUS
 62
     7
100
AcDbLine
 10
522.7550055681313
 20
1026.999980369747
 30
0.0
 11
327.2449944322534
 21
1026.999980369747
 31
0.0
  0
LINE
  5
299
330
1F
100
AcDbEntity
  8
LAY-10
  6
CONTINUOUS
 62
     7
100
AcDbLine
 10
723.2564404228905
 20
1025.999980369696
 30
0.0
 11
526.7435595775041
 21
1025.999980369696
 31
0.0
  0
LINE
  5
29A
330
1F
100
AcDbEntity
  8
LAY-10
  6
CONTINUOUS
 62
     7
100
AcDbLine
 10
722.7550055681613
 20
1026.999980369747
 30
0.0
 11
527.2449944322334
 21
1026.999980369747
 31
0.0
  0
LINE
  5
29B
330
1F
100
AcDbEntity
  8
LAY-10
  6
CONTINUOUS
 62
     7
100
AcDbLine
 10
526.7435595775482
 20
1073.999980369843
 30
0.0
 11
723.2564404228465
 21
1073.999980369843
 31
0.0
  0
LINE
  5
29C
330
1F
100
AcDbEntity
  8
LAY-10
  6
CONTINUOUS
 62
     7
100
AcDbLine
 10
722.7550055681613
 20
1072.999980369843
 30
0.0
 11
527.2449944322334
 21
1072.999980369843
 31
0.0
  0
LINE
  5
29D
330
1F
100
AcDbEntity
  8
LAY-10
  6
CONTINUOUS
 62
     7
100
AcDbLine
 10
726.7435595775783
 20
1073.999980369843
 30
0.0
 11
923.2564404231061
 21
1073.999980369843
 31
0.0
  0
LINE
  5
29E
330
1F
100
AcDbEntity
  8
LAY-10
  6
CONTINUOUS
 62
     7
100
AcDbLine
 10
922.755005568421
 20
1072.999980369843
 30
0.0
 11
727.2449944322634
 21
1072.999980369843
 31
0.0
  0
LINE
  5
29F
330
1F
100
AcDbEntity
  8
LAY-10
  6
CONTINUOUS
 62
     7
100
AcDbLine
 10
923.2564404231507
 20
1025.999980369696
 30
0.0
 11
726.7435595775341
 21
1025.999980369696
 31
0.0
  0
LINE
  5
2A0
330
1F
100
AcDbEntity
  8
LAY-10
  6
CONTINUOUS
 62
     7
100
AcDbLine
 10
922.755005568421
 20
1026.999980369747
 30
0.0
 11
727.2449944322634
 21
1026.999980369747
 31
0.0
  0
LINE
  5
2A1
330
1F
100
AcDbEntity
  8
LAY-10
  6
CONTINUOUS
 62
     7
100
AcDbLine
 10
1222.999999999981
 20
1025.999980369696
 30
0.0
 11
1126.743559577544
 21
1025.999980369696
 31
0.0
  0
LINE
  5
2A2
330
1F
100
AcDbEntity
  8
LAY-10
  6
CONTINUOUS
 62
     7
100
AcDbLine
 10
1123.256440422901
 20
1025.999980369696
 30
0.0
 11
926.7435595777943
 21
1025.999980369696
 31
0.0
  0
LINE
  5
2A3
330
1F
100
AcDbEntity
  8
LAY-10
  6
CONTINUOUS
 62
     7
100
AcDbLine
 10
1122.755005568171
 20
1026.999980369747
 30
0.0
 11
927.2449944325235
 21
1026.999980369747
 31
0.0
  0
LINE
  5
2A4
330
1F
100
AcDbEntity
  8
LAY-10
  6
CONTINUOUS
 62
     7
100
AcDbLine
 10
1210.999999999961
 20
1026.999980369747
 30
0.0
 11
1127.244994432273
 21
1026.999980369747
 31
0.0
  0
LINE
  5
2A5
330
1F
100
AcDbEntity
  8
LAY-10
  6
CONTINUOUS
 62
     7
100
AcDbLine
 10
1126.743559577588
 20
1073.999980369843
 30
0.0
 11
1222.999999999981
 21
1073.999980369843
 31
0.0
  0
LINE
  5
2A6
330
1F
100
AcDbEntity
  8
LAY-10
  6
CONTINUOUS
 62
     7
100
AcDbLine
 10
926.7435595778384
 20
1073.999980369843
 30
0.0
 11
1123.256440422856
 21
1073.999980369843
 31
0.0
  0
LINE
  5
2A7
330
1F
100
AcDbEntity
  8
LAY-10
  6
CONTINUOUS
 62
     7
100
AcDbLine
 10
1122.755005568171
 20
1072.999980369843
 30
0.0
 11
927.2449944325235
 21
1072.999980369843
 31
0.0
  0
LINE
  5
2A8
330
1F
100
AcDbEntity
  8
LAY-10
  6
CONTINUOUS
 62
     7
100
AcDbLine
 10
1210.999999999961
 20
1072.999980369843
 30
0.0
 11
1127.244994432273
 21
1072.999980369843
 31
0.0
  0
LINE
  5
2A9
330
1F
100
AcDbEntity
  8
LAY-10
  6
CONTINUOUS
 62
     7
100
AcDbLine
 10
1374.999999999973
 20
1006.497416355629
 30
0.0
 11
1374.999999999973
 21
1010.997416355629
 31
0.0
  0
LINE
  5
2AA
330
1F
100
AcDbEntity
  8
LAY-10
  6
CONTINUOUS
 62
     7
100
AcDbLine
 10
1374.999999999973
 20
1093.500000000049
 30
0.0
 11
1374.999999999973
 21
1089.000000000049
 31
0.0
  0
LINE
  5
2AB
330
1F
100
AcDbEntity
  8
LAY-10
  6
CONTINUOUS
 62
     7
100
AcDbLine
 10
1401.997114317034
 20
1052.998708177829
 30
0.0
 11
1408.999999999997
 21
1052.998708177829
 31
0.0
  0
LINE
  5
2AC
330
1F
100
AcDbEntity
  8
LAY-10
  6
CONTINUOUS
 62
     7
100
AcDbLine
 10
1401.997114317034
 20
1046.998708177829
 30
0.0
 11
1408.999999999997
 21
1046.998708177829
 31
0.0
  0
LINE
  5
2AD
330
1F
100
AcDbEntity
  8
LAY-10
  6
CONTINUOUS
 62
     7
100
AcDbLine
 10
1401.997114317034
 20
1039.998708177829
 30
0.0
 11
1401.997114317034
 21
1059.998708178004
 31
0.0
  0
LINE
  5
2AE
330
1F
100
AcDbEntity
  8
LAY-10
  6
CONTINUOUS
 62
     7
100
AcDbLine
 10
1396.997114317034
 20
1078.857067917978
 30
0.0
 11
1396.997114317034
 21
1075.998708177829
 31
0.0
  0
LINE
  5
2AF
330
1F
100
AcDbEntity
  8
LAY-10
  6
CONTINUOUS
 62
     7
100
AcDbLine
 10
1408.999999999997
 20
1035.998708177829
 30
0.0
 11
1397.169711451782
 21
1035.998708177829
 31
0.0
  0
LINE
  5
2B0
330
1F
100
AcDbEntity
  8
LAY-10
  6
CONTINUOUS
 62
     7
100
AcDbLine
 10
1419.978616041775
 20
1035.998708177829
 30
0.0
 11
1412.99711431704
 21
1035.998708177829
 31
0.0
  0
LINE
  5
2B1
330
1F
100
AcDbEntity
  8
LAY-10
  6
CONTINUOUS
 62
     7
100
AcDbLine
 10
1412.99711431704
 20
1023.998708177829
 30
0.0
 11
1419.967793805396
 21
1023.998708177829
 31
0.0
  0
LINE
  5
2B2
330
1F
100
AcDbEntity
  8
LAY-10
  6
CONTINUOUS
 62
     7
100
AcDbLine
 10
1399.730045018073
 20
1023.998708177829
 30
0.0
 11
1408.999999999997
 21
1023.998708177829
 31
0.0
  0
ARC
  5
2B3
330
1F
100
AcDbEntity
  8
LAY-10
  6
CONTINUOUS
 62
     7
100
AcDbCircle
 10
1397.909606189592
 20
1024.398708177831
 30
0.0
 40
1.9
100
AcDbArc
 50
270.0
 51
342.1256432009552
  0
ARC
  5
2B4
330
1F
100
AcDbEntity
  8
LAY-10
  6
CONTINUOUS
 62
     7
100
AcDbCircle
 10
1388.297114317034
 20
1027.498708177829
 30
0.0
 40
12.0
100
AcDbArc
 50
342.1256432009546
 51
357.1340160174004
  0
LINE
  5
2B5
330
1F
100
AcDbEntity
  8
LAY-10
  6
CONTINUOUS
 62
     7
100
AcDbLine
 10
1397.909606189592
 20
1022.498708177829
 30
0.0
 11
1396.997114317034
 21
1022.498708177829
 31
0.0
  0
ARC
  5
2B6
330
1F
100
AcDbEntity
  8
LAY-10
  6
CONTINUOUS
 62
     7
100
AcDbCircle
 10
1397.909606189592
 20
1030.598708177832
 30
0.0
 40
1.9
100
AcDbArc
 50
17.8743567990519
 51
90.00000000000001
  0
LINE
  5
2B7
330
1F
100
AcDbEntity
  8
LAY-10
  6
CONTINUOUS
 62
     7
100
AcDbLine
 10
1397.909606189592
 20
1032.498708177829
 30
0.0
 11
1396.997114317034
 21
1032.498708177829
 31
0.0
  0
ARC
  5
2B8
330
1F
100
AcDbEntity
  8
LAY-10
  6
CONTINUOUS
 62
     7
100
AcDbCircle
 10
1388.297114317034
 20
1027.498708177829
 30
0.0
 40
12.0
100
AcDbArc
 50
2.865983982599606
 51
17.87435679905081
  0
LINE
  5
2B9
330
1F
100
AcDbEntity
  8
LAY-10
  6
CONTINUOUS
 62
     7
100
AcDbLine
 10
1420.997114317038
 20
1025.028028689469
 30
0.0
 11
1419.967793805396
 21
1023.998708177829
 31
0.0
  0
LINE
  5
2BA
330
1F
100
AcDbEntity
  8
LAY-10
  6
CONTINUOUS
 62
     7
100
AcDbLine
 10
1419.978616041776
 20
1035.998708177826
 30
0.0
 11
1420.997114317038
 21
1034.980209902564
 31
0.0
  0
LINE
  5
2BB
330
1F
100
AcDbEntity
  8
LAY-10
  6
CONTINUOUS
 62
     7
100
AcDbLine
 10
1420.997114317038
 20
1025.028028689473
 30
0.0
 11
1420.997114317038
 21
1034.980209902564
 31
0.0
  0
LINE
  5
2BC
330
1F
100
AcDbEntity
  8
LAY-10
  6
CONTINUOUS
 62
     7
100
AcDbLine
 10
1420.997114317038
 20
1034.980209902564
 30
0.0
 11
1420.997114317038
 21
1025.028028689473
 31
0.0
  0
LINE
  5
2BD
330
1F
100
AcDbEntity
  8
LAY-10
  6
CONTINUOUS
 62
     7
100
AcDbLine
 10
1420.997114317038
 20
1025.028028689473
 30
0.0
 11
1420.997114317038
 21
1034.980209902564
 31
0.0
  0
LINE
  5
2BE
330
1F
100
AcDbEntity
  8
LAY-10
  6
CONTINUOUS
 62
     7
100
AcDbLine
 10
1419.978616041776
 20
1035.998708177826
 30
0.0
 11
1420.997114317038
 21
1034.980209902564
 31
0.0
  0
LINE
  5
2BF
330
1F
100
AcDbEntity
  8
LAY-10
  6
CONTINUOUS
 62
     7
100
AcDbLine
 10
1420.997114317038
 20
1025.028028689469
 30
0.0
 11
1419.967793805396
 21
1023.998708177829
 31
0.0
  0
LINE
  5
2C0
330
1F
100
AcDbEntity
  8
LAY-10
  6
CONTINUOUS
 62
     7
100
AcDbLine
 10
1396.997114317034
 20
1031.998708177829
 30
0.0
 11
1396.997114317034
 21
1022.99870817783
 31
0.0
  0
LINE
  5
2C1
330
1F
100
AcDbEntity
  8
LAY-10
  6
CONTINUOUS
 62
     7
100
AcDbLine
 10
1400.282104930296
 20
1026.898708177827
 30
0.0
 11
1398.697114317033
 21
1026.898708177827
 31
0.0
  0
LINE
  5
2C2
330
1F
100
AcDbEntity
  8
LAY-10
  6
CONTINUOUS
 62
     7
100
AcDbLine
 10
1400.282104930296
 20
1028.098708177828
 30
0.0
 11
1398.697114317033
 21
1028.098708177828
 31
0.0
  0
LINE
  5
2C3
330
1F
100
AcDbEntity
  8
LAY-10
  6
CONTINUOUS
 62
     7
100
AcDbLine
 10
1398.697114317033
 20
1026.898708177827
 30
0.0
 11
1398.697114317033
 21
1028.098708177828
 31
0.0
  0
ARC
  5
2C4
330
1F
100
AcDbEntity
  8
LAY-10
  6
CONTINUOUS
 62
     7
100
AcDbCircle
 10
1398.497114317034
 20
1035.300137040921
 30
0.0
 40
1.5
100
AcDbArc
 50
120.9637565320733
 51
180.0000000000001
  0
LINE
  5
2C5
330
1F
100
AcDbEntity
  8
LAY-10
  6
CONTINUOUS
 62
     7
100
AcDbLine
 10
1394.997114317034
 20
1078.748551605948
 30
0.0
 11
1394.997114317034
 21
1021.248864749703
 31
0.0
  0
LINE
  5
2C6
330
1F
100
AcDbEntity
  8
LAY-10
  6
CONTINUOUS
 62
     7
100
AcDbLine
 10
1380.000000000008
 20
1064.976362827003
 30
0.0
 11
1380.000000000008
 21
1075.093197629502
 31
0.0
  0
LINE
  5
2C7
330
1F
100
AcDbEntity
  8
LAY-10
  6
CONTINUOUS
 62
     7
100
AcDbLine
 10
1392.261467228255
 20
1062.987292272201
 30
0.0
 11
1380.912844257252
 21
1063.980168128905
 31
0.0
  0
ARC
  5
2C8
330
1F
100
AcDbEntity
  8
LAY-10
  6
CONTINUOUS
 62
     7
100
AcDbCircle
 10
1381.000000000008
 20
1064.976362826996
 30
0.0
 40
1.0
100
AcDbArc
 50
180.0000000000001
 51
264.9999999994349
  0
ARC
  5
2C9
330
1F
100
AcDbEntity
  8
LAY-10
  6
CONTINUOUS
 62
     7
100
AcDbCircle
 10
1383.000000000008
 20
1075.093197629622
 30
0.0
 40
3.000000000000003
100
AcDbArc
 50
93.10571804253416
 51
180.0000000000001
  0
LINE
  5
2CA
330
1F
100
AcDbEntity
  8
LAY-10
  6
CONTINUOUS
 62
     7
100
AcDbLine
 10
1382.837464603957
 20
1078.088791434735
 30
0.0
 11
1399.032241294009
 21
1078.967490155001
 31
0.0
  0
ARC
  5
2CB
330
1F
100
AcDbEntity
  8
LAY-10
  6
CONTINUOUS
 62
     7
100
AcDbCircle
 10
1392.000000000008
 20
1059.998708177928
 30
0.0
 40
3.000000000000003
100
AcDbArc
 50
274.9999999999999
 51
84.99999999932946
  0
ARC
  5
2CC
330
1F
100
AcDbEntity
  8
LAY-10
  6
CONTINUOUS
 62
     7
100
AcDbCircle
 10
1388.297114317034
 20
1072.498708177822
 30
0.0
 40
12.0
100
AcDbArc
 50
16.95776330003925
 51
17.87435679904559
  0
LINE
  5
2CD
330
1F
100
AcDbEntity
  8
LAY-10
  6
CONTINUOUS
 62
     7
100
AcDbLine
 10
1412.99711431704
 20
1075.998708177829
 30
0.0
 11
1412.99711431704
 21
1084.998708178004
 31
0.0
  0
LINE
  5
2CE
330
1F
100
AcDbEntity
  8
LAY-10
  6
CONTINUOUS
 62
     7
100
AcDbLine
 10
1412.99711431704
 20
1014.998708177826
 30
0.0
 11
1412.99711431704
 21
1063.998708177829
 31
0.0
  0
LINE
  5
2CF
330
1F
100
AcDbEntity
  8
LAY-10
  6
CONTINUOUS
 62
     7
100
AcDbLine
 10
1408.999999999997
 20
1063.998708177829
 30
0.0
 11
1408.999999999997
 21
1010.99741635562
 31
0.0
  0
LINE
  5
2D0
330
1F
100
AcDbEntity
  8
LAY-10
  6
CONTINUOUS
 62
     7
100
AcDbLine
 10
1408.999999999997
 20
1089.00000000006
 30
0.0
 11
1408.999999999997
 21
1075.998708177829
 31
0.0
  0
LINE
  5
2D1
330
1F
100
AcDbEntity
  8
LAY-10
  6
CONTINUOUS
 62
     7
100
AcDbLine
 10
1420.997114317038
 20
1065.017206453095
 30
0.0
 11
1420.997114317038
 21
1074.969387666186
 31
0.0
  0
LINE
  5
2D2
330
1F
100
AcDbEntity
  8
LAY-10
  6
CONTINUOUS
 62
     7
100
AcDbLine
 10
1419.978616041776
 20
1063.998708177833
 30
0.0
 11
1420.997114317038
 21
1065.017206453095
 31
0.0
  0
LINE
  5
2D3
330
1F
100
AcDbEntity
  8
LAY-10
  6
CONTINUOUS
 62
     7
100
AcDbLine
 10
1420.997114317038
 20
1074.969387666186
 30
0.0
 11
1419.967793805396
 21
1075.998708177829
 31
0.0
  0
LINE
  5
2D4
330
1F
100
AcDbEntity
  8
LAY-10
  6
CONTINUOUS
 62
     7
100
AcDbLine
 10
1412.99711431704
 20
1052.998708177829
 30
0.0
 11
1421.197114317039
 21
1052.998708177829
 31
0.0
  0
LINE
  5
2D5
330
1F
100
AcDbEntity
  8
LAY-10
  6
CONTINUOUS
 62
     7
100
AcDbLine
 10
1412.99711431704
 20
1046.998708177829
 30
0.0
 11
1421.197114317039
 21
1046.998708177829
 31
0.0
  0
LINE
  5
2D6
330
1F
100
AcDbEntity
  8
LAY-10
  6
CONTINUOUS
 62
     7
100
AcDbLine
 10
1396.997114317034
 20
1021.140348437674
 30
0.0
 11
1396.997114317034
 21
1035.300137040921
 31
0.0
  0
ARC
  5
2D7
330
1F
100
AcDbEntity
  8
LAY-10
  6
CONTINUOUS
 62
     7
100
AcDbCircle
 10
1392.000000000008
 20
1039.998708177724
 30
0.0
 40
3.000000000000003
100
AcDbArc
 50
275.0000000004268
 51
85.00000000000028
  0
ARC
  5
2D8
330
1F
100
AcDbEntity
  8
LAY-10
  6
CONTINUOUS
 62
     7
100
AcDbCircle
 10
1381.000000000008
 20
1035.021053528656
 30
0.0
 40
1.0
100
AcDbArc
 50
95.00000000056534
 51
180.0000000000001
  0
LINE
  5
2D9
330
1F
100
AcDbEntity
  8
LAY-10
  6
CONTINUOUS
 62
     7
100
AcDbLine
 10
1392.261467228255
 20
1037.010124083451
 30
0.0
 11
1380.912844257252
 21
1036.017248226747
 31
0.0
  0
ARC
  5
2DA
330
1F
100
AcDbEntity
  8
LAY-10
  6
CONTINUOUS
 62
     7
100
AcDbCircle
 10
1383.000000000008
 20
1024.90421872603
 30
0.0
 40
3.000000000000003
100
AcDbArc
 50
180.0000000000001
 51
266.8942819574661
  0
LINE
  5
2DB
330
1F
100
AcDbEntity
  8
LAY-10
  6
CONTINUOUS
 62
     7
100
AcDbLine
 10
1380.000000000008
 20
1035.021053528503
 30
0.0
 11
1380.000000000008
 21
1024.904218726004
 31
0.0
  0
LINE
  5
2DC
330
1F
100
AcDbEntity
  8
LAY-10
  6
CONTINUOUS
 62
     7
100
AcDbLine
 10
1382.837464603964
 20
1021.908624920916
 30
0.0
 11
1399.032241294009
 21
1021.029926200647
 31
0.0
  0
LINE
  5
2DD
330
1F
100
AcDbEntity
  8
LAY-10
  6
CONTINUOUS
 62
     7
100
AcDbLine
 10
1408.997114317038
 20
1085.998708177829
 30
0.0
 11
1408.999999999997
 21
1085.998708177829
 31
0.0
  0
LINE
  5
2DE
330
1F
100
AcDbEntity
  8
LAY-10
  6
CONTINUOUS
 62
     7
100
AcDbLine
 10
1408.997114317038
 20
1013.998708177829
 30
0.0
 11
1408.999999999997
 21
1013.998708177829
 31
0.0
  0
LINE
  5
2DF
330
1F
100
AcDbEntity
  8
LAY-10
  6
CONTINUOUS
 62
     7
100
AcDbLine
 10
1412.997114317073
 20
1014.998708177826
 30
0.0
 11
1408.997114317073
 21
1014.998708177826
 31
0.0
  0
LINE
  5
2E0
330
1F
100
AcDbEntity
  8
LAY-10
  6
CONTINUOUS
 62
     7
100
AcDbLine
 10
1412.997114317073
 20
1084.998708177826
 30
0.0
 11
1408.997114317073
 21
1084.998708177826
 31
0.0
  0
LINE
  5
2E1
330
1F
100
AcDbEntity
  8
LAY-10
  6
CONTINUOUS
 62
     7
100
AcDbLine
 10
1399.997114317038
 20
1044.748708177829
 30
0.0
 11
1399.997114317038
 21
1055.248708177829
 31
0.0
  0
ARC
  5
2E2
330
1F
100
AcDbEntity
  8
LAY-10
  6
CONTINUOUS
 62
     7
100
AcDbCircle
 10
1397.997114317038
 20
1046.248708177829
 30
0.0
 40
1.0
100
AcDbArc
 50
180.0000000000001
 51
241.927513064142
  0
ARC
  5
2E3
330
1F
100
AcDbEntity
  8
LAY-10
  6
CONTINUOUS
 62
     7
100
AcDbCircle
 10
1399.997114317038
 20
1049.998708177829
 30
0.0
 40
5.25
100
AcDbArc
 50
241.9275130641421
 51
269.9999999999997
  0
LINE
  5
2E4
330
1F
100
AcDbEntity
  8
LAY-10
  6
CONTINUOUS
 62
     7
100
AcDbLine
 10
1396.997114317038
 20
1053.748708177829
 30
0.0
 11
1396.997114317038
 21
1046.248708177829
 31
0.0
  0
ARC
  5
2E5
330
1F
100
AcDbEntity
  8
LAY-10
  6
CONTINUOUS
 62
     7
100
AcDbCircle
 10
1397.997114317038
 20
1053.748708177829
 30
0.0
 40
1.0
100
AcDbArc
 50
118.0724869358582
 51
180.0000000000001
  0
ARC
  5
2E6
330
1F
100
AcDbEntity
  8
LAY-10
  6
CONTINUOUS
 62
     7
100
AcDbCircle
 10
1399.997114317038
 20
1049.998708177829
 30
0.0
 40
5.25
100
AcDbArc
 50
90.00000000000112
 51
118.072486935858
  0
LINE
  5
2E7
330
1F
100
AcDbEntity
  8
LAY-10
  6
CONTINUOUS
 62
     7
100
AcDbLine
 10
1399.999999999997
 20
1080.000000000028
 30
0.0
 11
1408.999999999997
 21
1080.000000000028
 31
0.0
  0
LINE
  5
2E8
330
1F
100
AcDbEntity
  8
LAY-10
  6
CONTINUOUS
 62
     7
100
AcDbLine
 10
1399.999999999997
 20
1089.000000000035
 30
0.0
 11
1399.999999999997
 21
1079.800000000031
 31
0.0
  0
LINE
  5
2E9
330
1F
100
AcDbEntity
  8
LAY-10
  6
CONTINUOUS
 62
     7
100
AcDbLine
 10
1399.999999999997
 20
1010.99741635562
 30
0.0
 11
1399.999999999997
 21
1020.197416355617
 31
0.0
  0
LINE
  5
2EA
330
1F
100
AcDbEntity
  8
LAY-10
  6
CONTINUOUS
 62
     7
100
AcDbLine
 10
1399.999999999997
 20
1019.99741635562
 30
0.0
 11
1408.999999999997
 21
1019.99741635562
 31
0.0
  0
ARC
  5
2EB
330
1F
100
AcDbEntity
  8
LAY-10
  6
CONTINUOUS
 62
     7
100
AcDbCircle
 10
1397.909606189592
 20
1075.598708177821
 30
0.0
 40
1.9
100
AcDbArc
 50
17.87435679904485
 51
90.00000000000001
  0
LINE
  5
2EC
330
1F
100
AcDbEntity
  8
LAY-10
  6
CONTINUOUS
 62
     7
100
AcDbLine
 10
1397.909606189592
 20
1077.498708177822
 30
0.0
 11
1396.997114317034
 21
1077.498708177822
 31
0.0
  0
LINE
  5
2ED
330
1F
100
AcDbEntity
  8
LAY-10
  6
CONTINUOUS
 62
     7
100
AcDbLine
 10
1380.000056068783
 20
1087.000000000031
 30
0.0
 11
1374.999999999983
 21
1086.000000000024
 31
0.0
  0
LINE
  5
2EE
330
1F
100
AcDbEntity
  8
LAY-10
  6
CONTINUOUS
 62
     7
100
AcDbLine
 10
1374.999999999983
 20
1074.000000000024
 30
0.0
 11
1380.000000000005
 21
1072.998708177873
 31
0.0
  0
LINE
  5
2EF
330
1F
100
AcDbEntity
  8
LAY-10
  6
CONTINUOUS
 62
     7
100
AcDbLine
 10
1374.999999999983
 20
1065.998708177873
 30
0.0
 11
1380.000000000005
 21
1066.998708177873
 31
0.0
  0
LINE
  5
2F0
330
1F
100
AcDbEntity
  8
LAY-10
  6
CONTINUOUS
 62
     7
100
AcDbLine
 10
1374.999999999983
 20
1053.998708177971
 30
0.0
 11
1380.000000000005
 21
1052.998708177971
 31
0.0
  0
LINE
  5
2F1
330
1F
100
AcDbEntity
  8
LAY-10
  6
CONTINUOUS
 62
     7
100
AcDbLine
 10
1374.999999999983
 20
1033.998708177779
 30
0.0
 11
1380.000000000005
 21
1032.998708177779
 31
0.0
  0
LINE
  5
2F2
330
1F
100
AcDbEntity
  8
LAY-10
  6
CONTINUOUS
 62
     7
100
AcDbLine
 10
1374.999999999983
 20
1045.99870817768
 30
0.0
 11
1380.000000000005
 21
1046.99870817768
 31
0.0
  0
LINE
  5
2F3
330
1F
100
AcDbEntity
  8
LAY-10
  6
CONTINUOUS
 62
     7
100
AcDbLine
 10
1374.999999999983
 20
1025.997416355628
 30
0.0
 11
1380.000000000005
 21
1026.998708177779
 31
0.0
  0
LINE
  5
2F4
330
1F
100
AcDbEntity
  8
LAY-10
  6
CONTINUOUS
 62
     7
100
AcDbLine
 10
1380.000056068783
 20
1012.99741635562
 30
0.0
 11
1374.999999999983
 21
1013.997416355628
 31
0.0
  0
ARC
  5
2F5
330
1F
100
AcDbEntity
  8
LAY-10
  6
CONTINUOUS
 62
     7
100
AcDbCircle
 10
1398.999999999997
 20
1079.966970269341
 30
0.0
 40
1.0
100
AcDbArc
 50
271.8476102659964
 51
0.0
  0
ARC
  5
2F6
330
1F
100
AcDbEntity
  8
LAY-10
  6
CONTINUOUS
 62
     7
100
AcDbCircle
 10
1398.999999999997
 20
1020.03044608631
 30
0.0
 40
1.0
100
AcDbArc
 50
0.0000000000001719
 51
88.15238973400399
  0
LINE
  5
2F7
330
1F
100
AcDbEntity
  8
LAY-10
  6
CONTINUOUS
 62
     7
100
AcDbLine
 10
1380.000000000008
 20
1013.998708177877
 30
0.0
 11
1399.050827527971
 21
1014.968436234349
 31
0.0
  0
ARC
  5
2F8
330
1F
100
AcDbEntity
  8
LAY-10
  6
CONTINUOUS
 62
     7
100
AcDbCircle
 10
1398.999999999997
 20
1015.966970269443
 30
0.0
 40
1.0
100
AcDbArc
 50
271.8476102659964
 51
0.0000000000001719
  0
ARC
  5
2F9
330
1F
100
AcDbEntity
  8
LAY-10
  6
CONTINUOUS
 62
     7
100
AcDbCircle
 10
1398.999999999997
 20
1084.030446086212
 30
0.0
 40
1.0
100
AcDbArc
 50
0.0
 51
88.15238973400399
  0
LINE
  5
2FA
330
1F
100
AcDbEntity
  8
LAY-10
  6
CONTINUOUS
 62
     7
100
AcDbLine
 10
1380.000000000008
 20
1085.998708177775
 30
0.0
 11
1399.032241294012
 21
1085.029926200549
 31
0.0
  0
LINE
  5
2FB
330
1F
100
AcDbEntity
  8
LAY-10
  6
CONTINUOUS
 62
     7
100
AcDbLine
 10
1380.000000000008
 20
1044.976362826796
 30
0.0
 11
1380.000000000008
 21
1055.021053528859
 31
0.0
  0
LINE
  5
2FC
330
1F
100
AcDbEntity
  8
LAY-10
  6
CONTINUOUS
 62
     7
100
AcDbLine
 10
1399.997114317034
 20
1052.998708177829
 30
0.0
 11
1399.997114317034
 21
1059.149422609377
 31
0.0
  0
LINE
  5
2FD
330
1F
100
AcDbEntity
  8
LAY-10
  6
CONTINUOUS
 62
     7
100
AcDbLine
 10
1399.997114317034
 20
1040.847993746282
 30
0.0
 11
1399.997114317034
 21
1046.998708177829
 31
0.0
  0
ARC
  5
2FE
330
1F
100
AcDbEntity
  8
LAY-10
  6
CONTINUOUS
 62
     7
100
AcDbCircle
 10
1396.497114317034
 20
1063.847993746282
 30
0.0
 40
1.5
100
AcDbArc
 50
180.0000000000001
 51
239.0362434679267
  0
LINE
  5
2FF
330
1F
100
AcDbEntity
  8
LAY-10
  6
CONTINUOUS
 62
     7
100
AcDbLine
 10
1395.725370683892
 20
1062.561754357712
 30
0.0
 11
1399.268857950175
 21
1060.435661997947
 31
0.0
  0
ARC
  5
300
330
1F
100
AcDbEntity
  8
LAY-10
  6
CONTINUOUS
 62
     7
100
AcDbCircle
 10
1398.497114317034
 20
1059.149422609377
 30
0.0
 40
1.5
100
AcDbArc
 50
0.0000000000001719
 51
59.03624346792686
  0
ARC
  5
301
330
1F
100
AcDbEntity
  8
LAY-10
  6
CONTINUOUS
 62
     7
100
AcDbCircle
 10
1398.497114317034
 20
1040.847993746282
 30
0.0
 40
1.5
100
AcDbArc
 50
300.9637565320735
 51
0.0000000000001719
  0
LINE
  5
302
330
1F
100
AcDbEntity
  8
LAY-10
  6
CONTINUOUS
 62
     7
100
AcDbLine
 10
1395.725370683892
 20
1037.435661997947
 30
0.0
 11
1399.268857950175
 21
1039.561754357712
 31
0.0
  0
ARC
  5
303
330
1F
100
AcDbEntity
  8
LAY-10
  6
CONTINUOUS
 62
     7
100
AcDbCircle
 10
1396.497114317034
 20
1036.149422609377
 30
0.0
 40
1.5
100
AcDbArc
 50
120.9637565320733
 51
180.0000000000001
  0
LINE
  5
304
330
1F
100
AcDbEntity
  8
LAY-10
  6
CONTINUOUS
 62
     7
100
AcDbLine
 10
1397.725370683892
 20
1036.58637642949
 30
0.0
 11
1401.268857950175
 21
1038.71246878926
 31
0.0
  0
ARC
  5
305
330
1F
100
AcDbEntity
  8
LAY-10
  6
CONTINUOUS
 62
     7
100
AcDbCircle
 10
1400.497114317034
 20
1039.998708177829
 30
0.0
 40
1.5
100
AcDbArc
 50
300.9637565320738
 51
0.0000000000001719
  0
LINE
  5
306
330
1F
100
AcDbEntity
  8
LAY-10
  6
CONTINUOUS
 62
     7
100
AcDbLine
 10
1397.725370683892
 20
1063.411039926169
 30
0.0
 11
1401.268857950175
 21
1061.284947566399
 31
0.0
  0
ARC
  5
307
330
1F
100
AcDbEntity
  8
LAY-10
  6
CONTINUOUS
 62
     7
100
AcDbCircle
 10
1400.497114317034
 20
1059.998708177829
 30
0.0
 40
1.5
100
AcDbArc
 50
0.0000000000001719
 51
59.03624346792686
  0
LINE
  5
308
330
1F
100
AcDbEntity
  8
LAY-10
  6
CONTINUOUS
 62
     7
100
AcDbLine
 10
1421.197114317039
 20
1047.135459523781
 30
0.0
 11
1425.825114317039
 21
1047.135459523781
 31
0.0
  0
LINE
  5
309
330
1F
100
AcDbEntity
  8
LAY-10
  6
CONTINUOUS
 62
     7
100
AcDbLine
 10
1421.197114317039
 20
1044.248708177829
 30
0.0
 11
1425.825114317039
 21
1044.248708177829
 31
0.0
  0
LINE
  5
30A
330
1F
100
AcDbEntity
  8
LAY-10
  6
CONTINUOUS
 62
     7
100
AcDbLine
 10
1421.197114317039
 20
1052.861956831878
 30
0.0
 11
1425.825114317039
 21
1052.861956831878
 31
0.0
  0
ARC
  5
30B
330
1F
100
AcDbEntity
  8
LAY-10
  6
CONTINUOUS
 62
     7
100
AcDbCircle
 10
1418.94486182148
 20
1049.998708177829
 30
0.0
 40
7.4522524955587
100
AcDbArc
 50
337.4051392327526
 51
22.59486076724778
  0
LINE
  5
30C
330
1F
100
AcDbEntity
  8
LAY-10
  6
CONTINUOUS
 62
     7
100
AcDbLine
 10
1421.197114317039
 20
1055.748708177829
 30
0.0
 11
1425.825114317039
 21
1055.748708177829
 31
0.0
  0
LINE
  5
30D
330
1F
100
AcDbEntity
  8
LAY-10
  6
CONTINUOUS
 62
     7
100
AcDbLine
 10
1421.197114317039
 20
1055.748708177829
 30
0.0
 11
1421.197114317039
 21
1044.248708177829
 31
0.0
  0
ARC
  5
30E
330
1F
100
AcDbEntity
  8
LAY-10
  6
CONTINUOUS
 62
     7
100
AcDbCircle
 10
1426.859136362838
 20
1054.748708177829
 30
0.0
 40
0.5
100
AcDbArc
 50
189.7915975264292
 51
270.0000000000002
  0
LINE
  5
30F
330
1F
100
AcDbEntity
  8
LAY-10
  6
CONTINUOUS
 62
     7
100
AcDbLine
 10
1426.397114317039
 20
1054.248708177829
 30
0.0
 11
1426.396353342184
 21
1054.248708177829
 31
0.0
  0
ARC
  5
310
330
1F
100
AcDbEntity
  8
LAY-10
  6
CONTINUOUS
 62
     7
100
AcDbCircle
 10
1424.290018745941
 20
1045.692083850804
 30
0.0
 40
2.107095571097913
100
AcDbArc
 50
316.7638252773315
 51
43.23617472266898
  0
ARC
  5
311
330
1F
100
AcDbEntity
  8
LAY-10
  6
CONTINUOUS
 62
     7
100
AcDbCircle
 10
1426.859136362838
 20
1045.248708177829
 30
0.0
 40
0.5
100
AcDbArc
 50
90.00000000000026
 51
170.2084024735711
  0
LINE
  5
312
330
1F
100
AcDbEntity
  8
LAY-10
  6
CONTINUOUS
 62
     7
100
AcDbLine
 10
1426.397114317039
 20
1045.748708177829
 30
0.0
 11
1426.396353342184
 21
1045.748708177829
 31
0.0
  0
ARC
  5
313
330
1F
100
AcDbEntity
  8
LAY-10
  6
CONTINUOUS
 62
     7
100
AcDbCircle
 10
1424.290018745941
 20
1054.305332504855
 30
0.0
 40
2.107095571097882
100
AcDbArc
 50
316.763825277331
 51
43.23617472266933
  0
ARC
  5
314
330
1F
100
AcDbEntity
  8
LAY-10
  6
CONTINUOUS
 62
     7
100
AcDbCircle
 10
1427.496152422716
 20
1046.748708177829
 30
0.0
 40
1.0
100
AcDbArc
 50
270.0000000000002
 51
291.7867892982636
  0
LINE
  5
315
330
1F
100
AcDbEntity
  8
LAY-10
  6
CONTINUOUS
 62
     7
100
AcDbLine
 10
1427.496152422716
 20
1045.748708177829
 30
0.0
 11
1426.859136362838
 21
1045.748708177829
 31
0.0
  0
ARC
  5
316
330
1F
100
AcDbEntity
  8
LAY-10
  6
CONTINUOUS
 62
     7
100
AcDbCircle
 10
1426.197114317039
 20
1049.998708177829
 30
0.0
 40
4.5
100
AcDbArc
 50
291.7867892982638
 51
68.21321070173653
  0
LINE
  5
317
330
1F
100
AcDbEntity
  8
LAY-10
  6
CONTINUOUS
 62
     7
100
AcDbLine
 10
1427.496152422716
 20
1054.248708177829
 30
0.0
 11
1426.859136362838
 21
1054.248708177829
 31
0.0
  0
ARC
  5
318
330
1F
100
AcDbEntity
  8
LAY-10
  6
CONTINUOUS
 62
     7
100
AcDbCircle
 10
1427.496152422716
 20
1053.248708177829
 30
0.0
 40
1.0
100
AcDbArc
 50
68.21321070173653
 51
90.00000000000026
  0
LINE
  5
319
330
1F
100
AcDbEntity
  8
LAY-10
  6
CONTINUOUS
 62
     7
100
AcDbLine
 10
1394.002651736018
 20
1086.287237792616
 30
0.0
 11
1380.000056068789
 21
1087.000000000035
 31
0.0
  0
ARC
  5
31A
330
1F
100
AcDbEntity
  8
LAY-10
  6
CONTINUOUS
 62
     7
100
AcDbCircle
 10
1395.001358733757
 20
1086.23640146047
 30
0.0
 40
1.0
100
AcDbArc
 50
177.0860366934871
 51
267.086036693205
  0
LINE
  5
31B
330
1F
100
AcDbEntity
  8
LAY-10
  6
CONTINUOUS
 62
     7
100
AcDbLine
 10
1394.002651736018
 20
1013.710178563035
 30
0.0
 11
1380.000056068789
 21
1012.997416355617
 31
0.0
  0
ARC
  5
31C
330
1F
100
AcDbEntity
  8
LAY-10
  6
CONTINUOUS
 62
     7
100
AcDbCircle
 10
1395.001358733757
 20
1013.761014895181
 30
0.0
 40
1.0
100
AcDbArc
 50
92.91396330679483
 51
182.9139633065131
  0
ARC
  5
31D
330
1F
100
AcDbEntity
  8
LAY-10
  6
CONTINUOUS
 62
     7
100
AcDbCircle
 10
1381.000000000008
 20
1044.976362826796
 30
0.0
 40
1.0
100
AcDbArc
 50
180.0000000000001
 51
264.9999999994349
  0
LINE
  5
31E
330
1F
100
AcDbEntity
  8
LAY-10
  6
CONTINUOUS
 62
     7
100
AcDbLine
 10
1392.261467228255
 20
1042.987292272001
 30
0.0
 11
1380.912844257252
 21
1043.980168128705
 31
0.0
  0
ARC
  5
31F
330
1F
100
AcDbEntity
  8
LAY-10
  6
CONTINUOUS
 62
     7
100
AcDbCircle
 10
1381.000000000008
 20
1055.021053528856
 30
0.0
 40
1.0
100
AcDbArc
 50
95.00000000056534
 51
180.0000000000001
  0
LINE
  5
320
330
1F
100
AcDbEntity
  8
LAY-10
  6
CONTINUOUS
 62
     7
100
AcDbLine
 10
1392.261467228255
 20
1057.010124083651
 30
0.0
 11
1380.912844257252
 21
1056.017248226947
 31
0.0
  0
LINE
  5
321
330
1F
100
AcDbEntity
  8
LAY-10
  6
CONTINUOUS
 62
     7
100
AcDbLine
 10
1393.000000000008
 20
1085.338274920416
 30
0.0
 11
1393.000000000008
 21
1085.33698024414
 31
0.0
  0
LINE
  5
322
330
1F
100
AcDbEntity
  8
LAY-10
  6
CONTINUOUS
 62
     7
100
AcDbLine
 10
1393.000000000008
 20
1013.449800925019
 30
0.0
 11
1393.000000000008
 21
1013.417542860504
 31
0.0
  0
LINE
  5
323
330
1F
100
AcDbEntity
  8
LAY-10
  6
CONTINUOUS
 62
     7
100
AcDbLine
 10
1380.000000000008
 20
1012.998708177877
 30
0.0
 11
1380.000000000008
 21
1013.998708177877
 31
0.0
  0
LINE
  5
324
330
1F
100
AcDbEntity
  8
LAY-10
  6
CONTINUOUS
 62
     7
100
AcDbLine
 10
1380.000000000008
 20
1012.998708177877
 30
0.0
 11
1380.000000000008
 21
1013.998708177877
 31
0.0
  0
LINE
  5
325
330
1F
100
AcDbEntity
  8
LAY-10
  6
CONTINUOUS
 62
     7
100
AcDbLine
 10
1380.000000000008
 20
1086.998708177775
 30
0.0
 11
1380.000000000008
 21
1085.998708177775
 31
0.0
  0
LINE
  5
326
330
1F
100
AcDbEntity
  8
LAY-10
  6
CONTINUOUS
 62
     7
100
AcDbLine
 10
1374.999999999988
 20
1074.00000000002
 30
0.0
 11
1374.999999999988
 21
1086.00000000002
 31
0.0
  0
LINE
  5
327
330
1F
100
AcDbEntity
  8
LAY-10
  6
CONTINUOUS
 62
     7
100
AcDbLine
 10
1374.999999999988
 20
1065.99870817787
 30
0.0
 11
1374.999999999988
 21
1053.998708177971
 31
0.0
  0
LINE
  5
328
330
1F
100
AcDbEntity
  8
LAY-10
  6
CONTINUOUS
 62
     7
100
AcDbLine
 10
1374.999999999988
 20
1045.998708177677
 30
0.0
 11
1374.999999999988
 21
1033.998708177779
 31
0.0
  0
LINE
  5
329
330
1F
100
AcDbEntity
  8
LAY-10
  6
CONTINUOUS
 62
     7
100
AcDbLine
 10
1374.999999999988
 20
1013.997416355631
 30
0.0
 11
1374.999999999988
 21
1025.997416355628
 31
0.0
  0
LINE
  5
32A
330
1F
100
AcDbEntity
  8
LAY-10
  6
CONTINUOUS
 62
     7
100
AcDbLine
 10
1396.997114317034
 20
1064.697279314738
 30
0.0
 11
1396.997114317034
 21
1076.998708177822
 31
0.0
  0
ARC
  5
32B
330
1F
100
AcDbEntity
  8
LAY-10
  6
CONTINUOUS
 62
     7
100
AcDbCircle
 10
1398.497114317034
 20
1064.697279314738
 30
0.0
 40
1.5
100
AcDbArc
 50
179.9999999995571
 51
239.0362434679244
  0
LINE
  5
32C
330
1F
100
AcDbEntity
  8
LAY-10
  6
CONTINUOUS
 62
     7
100
AcDbLine
 10
1419.978616041774
 20
1063.998708177829
 30
0.0
 11
1397.169711451783
 21
1063.998708177829
 31
0.0
  0
LINE
  5
32D
330
1F
100
AcDbEntity
  8
LAY-10
  6
CONTINUOUS
 62
     7
100
AcDbLine
 10
1396.997114317034
 20
1075.998708177829
 30
0.0
 11
1419.967793805396
 21
1075.998708177829
 31
0.0
  0
ARC
  5
32E
330
1F
100
AcDbEntity
  8
LAY-10
  6
CONTINUOUS
 62
     7
100
AcDbCircle
 10
624.999999999989
 20
809.9999999999596
 30
0.0
 40
5.0
100
AcDbArc
 50
185.5757227313749
 51
354.4242772686251
  0
LINE
  5
32F
330
1F
100
AcDbEntity
  8
LAY-10
  6
CONTINUOUS
 62
     7
100
AcDbLine
 10
618.9999999999876
 20
819.9999999999596
 30
0.0
 11
620.0236567084979
 21
809.5141940250655
 31
0.0
  0
LINE
  5
330
330
1F
100
AcDbEntity
  8
LAY-10
  6
CONTINUOUS
 62
     7
100
AcDbLine
 10
630.9999999999894
 20
819.9999999999596
 30
0.0
 11
629.9763432914791
 21
809.5141940250655
 31
0.0
  0
ARC
  5
331
330
1F
100
AcDbEntity
  8
LAY-10
  6
CONTINUOUS
 62
     7
100
AcDbCircle
 10
229.9403285601459
 20
800.9999999999504
 30
0.0
 40
1.0
100
AcDbArc
 50
185.8093648644375
 51
270.0
  0
LINE
  5
332
330
1F
100
AcDbEntity
  8
LAY-10
  6
CONTINUOUS
 62
     7
100
AcDbLine
 10
227.0020790043116
 20
819.9999999999505
 30
0.0
 11
228.9454643820275
 21
800.8987810931362
 31
0.0
  0
LINE
  5
333
330
1F
100
AcDbEntity
  8
LAY-10
  6
CONTINUOUS
 62
     7
100
AcDbLine
 10
226.9999999999884
 20
824.9999999999801
 30
0.0
 11
225.9999999999884
 21
819.9999999999495
 31
0.0
  0
LINE
  5
334
330
1F
100
AcDbEntity
  8
LAY-10
  6
CONTINUOUS
 62
     7
100
AcDbLine
 10
1222.999999999989
 20
824.9999999999836
 30
0.0
 11
226.9999999999893
 21
824.9999999999841
 31
0.0
  0
LINE
  5
335
330
1F
100
AcDbEntity
  8
LAY-10
  6
CONTINUOUS
 62
     7
100
AcDbLine
 10
321.9999999999802
 20
824.9999999999795
 30
0.0
 11
322.3542486890803
 21
819.9999999999495
 31
0.0
  0
LINE
  5
336
330
1F
100
AcDbEntity
  8
LAY-10
  6
CONTINUOUS
 62
     7
100
AcDbLine
 10
327.6457513108801
 20
819.9999999999495
 30
0.0
 11
327.9999999999802
 21
824.9999999999795
 31
0.0
  0
LINE
  5
337
330
1F
100
AcDbEntity
  8
LAY-10
  6
CONTINUOUS
 62
     7
100
AcDbLine
 10
521.9999999999599
 20
824.9999999999795
 30
0.0
 11
522.35424868906
 21
819.9999999999495
 31
0.0
  0
LINE
  5
338
330
1F
100
AcDbEntity
  8
LAY-10
  6
CONTINUOUS
 62
     7
100
AcDbLine
 10
527.6457513108597
 20
819.9999999999495
 30
0.0
 11
527.9999999999599
 21
824.9999999999795
 31
0.0
  0
LINE
  5
339
330
1F
100
AcDbEntity
  8
LAY-10
  6
CONTINUOUS
 62
     7
100
AcDbLine
 10
721.9999999999899
 20
824.9999999999795
 30
0.0
 11
722.3542486890898
 21
819.9999999999495
 31
0.0
  0
ARC
  5
33A
330
1F
100
AcDbEntity
  8
LAY-10
  6
CONTINUOUS
 62
     7
100
AcDbCircle
 10
316.85410196626
 20
801.999999999951
 30
0.0
 40
3.0
100
AcDbArc
 50
90.00000000000001
 51
153.434948822922
  0
ARC
  5
33B
330
1F
100
AcDbEntity
  8
LAY-10
  6
CONTINUOUS
 62
     7
100
AcDbCircle
 10
333.14589803374
 20
801.999999999951
 30
0.0
 40
3.0
100
AcDbArc
 50
26.5650511770785
 51
90.00000000000001
  0
LINE
  5
33C
330
1F
100
AcDbEntity
  8
LAY-10
  6
CONTINUOUS
 62
     7
100
AcDbLine
 10
229.9403285601459
 20
799.9999999999505
 30
0.0
 11
310.6458980337609
 21
799.9999999999505
 31
0.0
  0
LINE
  5
33D
330
1F
100
AcDbEntity
  8
LAY-10
  6
CONTINUOUS
 62
     7
100
AcDbLine
 10
313.3291796067604
 20
801.6583592134507
 30
0.0
 11
314.1708203932606
 21
803.3416407864507
 31
0.0
  0
ARC
  5
33E
330
1F
100
AcDbEntity
  8
LAY-10
  6
CONTINUOUS
 62
     7
100
AcDbCircle
 10
310.6458980337609
 20
802.9999999999504
 30
0.0
 40
3.0
100
AcDbArc
 50
270.0
 51
333.4349488229226
  0
LINE
  5
33F
330
1F
100
AcDbEntity
  8
LAY-10
  6
CONTINUOUS
 62
     7
100
AcDbLine
 10
336.6708203932392
 20
801.6583592134507
 30
0.0
 11
335.8291796067394
 21
803.3416407864507
 31
0.0
  0
ARC
  5
340
330
1F
100
AcDbEntity
  8
LAY-10
  6
CONTINUOUS
 62
     7
100
AcDbCircle
 10
339.3541019662391
 20
802.9999999999504
 30
0.0
 40
3.0
100
AcDbArc
 50
206.5650511770775
 51
270.0
  0
ARC
  5
341
330
1F
100
AcDbEntity
  8
LAY-10
  6
CONTINUOUS
 62
     7
100
AcDbCircle
 10
516.8541019662492
 20
801.9999999999513
 30
0.0
 40
3.0
100
AcDbArc
 50
90.00000000000001
 51
153.4349488229225
  0
ARC
  5
342
330
1F
100
AcDbEntity
  8
LAY-10
  6
CONTINUOUS
 62
     7
100
AcDbCircle
 10
533.1458980337292
 20
801.9999999999513
 30
0.0
 40
3.0
100
AcDbArc
 50
26.56505117707752
 51
90.00000000000001
  0
LINE
  5
343
330
1F
100
AcDbEntity
  8
LAY-10
  6
CONTINUOUS
 62
     7
100
AcDbLine
 10
513.3291796067496
 20
801.6583592134507
 30
0.0
 11
514.1708203932498
 21
803.3416407864511
 31
0.0
  0
ARC
  5
344
330
1F
100
AcDbEntity
  8
LAY-10
  6
CONTINUOUS
 62
     7
100
AcDbCircle
 10
510.6458980337501
 20
802.9999999999504
 30
0.0
 40
3.0
100
AcDbArc
 50
270.0
 51
333.4349488229226
  0
LINE
  5
345
330
1F
100
AcDbEntity
  8
LAY-10
  6
CONTINUOUS
 62
     7
100
AcDbLine
 10
536.6708203932288
 20
801.6583592134507
 30
0.0
 11
535.8291796067286
 21
803.3416407864511
 31
0.0
  0
ARC
  5
346
330
1F
100
AcDbEntity
  8
LAY-10
  6
CONTINUOUS
 62
     7
100
AcDbCircle
 10
539.3541019662283
 20
802.9999999999504
 30
0.0
 40
3.0
100
AcDbArc
 50
206.5650511770775
 51
270.0
  0
ARC
  5
347
330
1F
100
AcDbEntity
  8
LAY-10
  6
CONTINUOUS
 62
     7
100
AcDbCircle
 10
716.8541019662497
 20
801.9999999999513
 30
0.0
 40
3.0
100
AcDbArc
 50
90.00000000000001
 51
153.434948822921
  0
LINE
  5
348
330
1F
100
AcDbEntity
  8
LAY-10
  6
CONTINUOUS
 62
     7
100
AcDbLine
 10
539.3541019662283
 20
799.9999999999505
 30
0.0
 11
710.6458980337502
 21
799.9999999999505
 31
0.0
  0
LINE
  5
349
330
1F
100
AcDbEntity
  8
LAY-10
  6
CONTINUOUS
 62
     7
100
AcDbLine
 10
713.3291796067502
 20
801.6583592134507
 30
0.0
 11
714.1708203932504
 21
803.3416407864511
 31
0.0
  0
ARC
  5
34A
330
1F
100
AcDbEntity
  8
LAY-10
  6
CONTINUOUS
 62
     7
100
AcDbCircle
 10
710.6458980337502
 20
802.9999999999504
 30
0.0
 40
3.0
100
AcDbArc
 50
270.0
 51
333.434948822922
  0
ARC
  5
34B
330
1F
100
AcDbEntity
  8
LAY-10
  6
CONTINUOUS
 62
     7
100
AcDbCircle
 10
424.9999999999892
 20
809.9999999999596
 30
0.0
 40
5.0
100
AcDbArc
 50
185.5757227313749
 51
354.4242772686251
  0
LINE
  5
34C
330
1F
100
AcDbEntity
  8
LAY-10
  6
CONTINUOUS
 62
     7
100
AcDbLine
 10
418.9999999999878
 20
819.9999999999596
 30
0.0
 11
420.0236567084982
 21
809.5141940250655
 31
0.0
  0
LINE
  5
34D
330
1F
100
AcDbEntity
  8
LAY-10
  6
CONTINUOUS
 62
     7
100
AcDbLine
 10
430.9999999999897
 20
819.9999999999596
 30
0.0
 11
429.9763432914793
 21
809.5141940250655
 31
0.0
  0
LINE
  5
34E
330
1F
100
AcDbEntity
  8
LAY-10
  6
CONTINUOUS
 62
     7
100
AcDbLine
 10
228.5137937550369
 20
804.9999999999505
 30
0.0
 11
228.52820049467
 21
804.9999999999505
 31
0.0
  0
LINE
  5
34F
330
1F
100
AcDbEntity
  8
LAY-10
  6
CONTINUOUS
 62
     7
100
AcDbLine
 10
238.9999999999907
 20
819.9999999999596
 30
0.0
 11
237.9763432914804
 21
809.5141940250655
 31
0.0
  0
ARC
  5
350
330
1F
100
AcDbEntity
  8
LAY-10
  6
CONTINUOUS
 62
     7
100
AcDbCircle
 10
232.9999999999902
 20
809.9999999999596
 30
0.0
 40
5.0
100
AcDbArc
 50
193.5083662909427
 51
354.4242772686251
  0
LINE
  5
351
330
1F
100
AcDbEntity
  8
LAY-10
  6
CONTINUOUS
 62
     7
100
AcDbLine
 10
238.3999999999944
 20
822.9999999999495
 30
0.0
 11
226.5999999999847
 21
822.9999999999495
 31
0.0
  0
LINE
  5
352
330
1F
100
AcDbEntity
  8
LAY-10
  6
CONTINUOUS
 62
     7
100
AcDbLine
 10
238.3999999999944
 20
822.9999999999495
 30
0.0
 11
238.9999999999907
 21
819.99999999995
 31
0.0
  0
LINE
  5
353
330
1F
100
AcDbEntity
  8
LAY-10
  6
CONTINUOUS
 62
     7
100
AcDbLine
 10
339.3541019662391
 20
799.9999999999505
 30
0.0
 11
510.6458980337501
 21
799.9999999999505
 31
0.0
  0
ARC
  5
354
330
1F
100
AcDbEntity
  8
LAY-10
  6
CONTINUOUS
 62
     7
100
AcDbCircle
 10
824.999999999989
 20
809.9999999999596
 30
0.0
 40
5.0
100
AcDbArc
 50
185.5757227313739
 51
354.4242772686262
  0
LINE
  5
355
330
1F
100
AcDbEntity
  8
LAY-10
  6
CONTINUOUS
 62
     7
100
AcDbLine
 10
830.9999999999903
 20
819.9999999999596
 30
0.0
 11
829.9763432914801
 21
809.5141940250655
 31
0.0
  0
LINE
  5
356
330
1F
100
AcDbEntity
  8
LAY-10
  6
CONTINUOUS
 62
     7
100
AcDbLine
 10
818.9999999999885
 20
819.9999999999596
 30
0.0
 11
820.0236567084988
 21
809.5141940250655
 31
0.0
  0
ARC
  5
357
330
1F
100
AcDbEntity
  8
LAY-10
  6
CONTINUOUS
 62
     7
100
AcDbCircle
 10
1220.059671439832
 20
800.9999999999504
 30
0.0
 40
1.0
100
AcDbArc
 50
270.0
 51
354.1906351355561
  0
LINE
  5
358
330
1F
100
AcDbEntity
  8
LAY-10
  6
CONTINUOUS
 62
     7
100
AcDbLine
 10
1222.997920995666
 20
819.9999999999505
 30
0.0
 11
1221.05453561795
 21
800.8987810931362
 31
0.0
  0
LINE
  5
359
330
1F
100
AcDbEntity
  8
LAY-10
  6
CONTINUOUS
 62
     7
100
AcDbLine
 10
1222.99999999999
 20
824.9999999999801
 30
0.0
 11
1223.99999999999
 21
819.9999999999495
 31
0.0
  0
LINE
  5
35A
330
1F
100
AcDbEntity
  8
LAY-10
  6
CONTINUOUS
 62
     7
100
AcDbLine
 10
1127.999999999998
 20
824.9999999999795
 30
0.0
 11
1127.645751310898
 21
819.9999999999495
 31
0.0
  0
LINE
  5
35B
330
1F
100
AcDbEntity
  8
LAY-10
  6
CONTINUOUS
 62
     7
100
AcDbLine
 10
1122.354248689098
 20
819.9999999999495
 30
0.0
 11
1121.999999999998
 21
824.9999999999795
 31
0.0
  0
LINE
  5
35C
330
1F
100
AcDbEntity
  8
LAY-10
  6
CONTINUOUS
 62
     7
100
AcDbLine
 10
928.0000000000181
 20
824.9999999999795
 30
0.0
 11
927.645751310918
 21
819.9999999999495
 31
0.0
  0
LINE
  5
35D
330
1F
100
AcDbEntity
  8
LAY-10
  6
CONTINUOUS
 62
     7
100
AcDbLine
 10
922.3542486891182
 20
819.9999999999495
 30
0.0
 11
922.0000000000181
 21
824.9999999999795
 31
0.0
  0
LINE
  5
35E
330
1F
100
AcDbEntity
  8
LAY-10
  6
CONTINUOUS
 62
     7
100
AcDbLine
 10
727.9999999999878
 20
824.9999999999795
 30
0.0
 11
727.6457513108878
 21
819.9999999999495
 31
0.0
  0
ARC
  5
35F
330
1F
100
AcDbEntity
  8
LAY-10
  6
CONTINUOUS
 62
     7
100
AcDbCircle
 10
1133.145898033718
 20
801.999999999951
 30
0.0
 40
3.0
100
AcDbArc
 50
26.56505117707798
 51
90.00000000000001
  0
ARC
  5
360
330
1F
100
AcDbEntity
  8
LAY-10
  6
CONTINUOUS
 62
     7
100
AcDbCircle
 10
1116.854101966238
 20
801.999999999951
 30
0.0
 40
3.0
100
AcDbArc
 50
90.00000000000001
 51
153.4349488229201
  0
LINE
  5
361
330
1F
100
AcDbEntity
  8
LAY-10
  6
CONTINUOUS
 62
     7
100
AcDbLine
 10
1220.059671439832
 20
799.9999999999505
 30
0.0
 11
1139.354101966217
 21
799.9999999999505
 31
0.0
  0
LINE
  5
362
330
1F
100
AcDbEntity
  8
LAY-10
  6
CONTINUOUS
 62
     7
100
AcDbLine
 10
1136.670820393218
 20
801.6583592134507
 30
0.0
 11
1135.829179606718
 21
803.3416407864507
 31
0.0
  0
ARC
  5
363
330
1F
100
AcDbEntity
  8
LAY-10
  6
CONTINUOUS
 62
     7
100
AcDbCircle
 10
1139.354101966217
 20
802.9999999999504
 30
0.0
 40
3.0
100
AcDbArc
 50
206.565051177076
 51
270.0
  0
LINE
  5
364
330
1F
100
AcDbEntity
  8
LAY-10
  6
CONTINUOUS
 62
     7
100
AcDbLine
 10
1113.329179606739
 20
801.6583592134507
 30
0.0
 11
1114.170820393239
 21
803.3416407864507
 31
0.0
  0
ARC
  5
365
330
1F
100
AcDbEntity
  8
LAY-10
  6
CONTINUOUS
 62
     7
100
AcDbCircle
 10
1110.645898033739
 20
802.9999999999504
 30
0.0
 40
3.0
100
AcDbArc
 50
270.0
 51
333.4349488229259
  0
ARC
  5
366
330
1F
100
AcDbEntity
  8
LAY-10
  6
CONTINUOUS
 62
     7
100
AcDbCircle
 10
933.1458980337288
 20
801.9999999999513
 30
0.0
 40
3.0
100
AcDbArc
 50
26.56505117707507
 51
90.00000000000001
  0
ARC
  5
367
330
1F
100
AcDbEntity
  8
LAY-10
  6
CONTINUOUS
 62
     7
100
AcDbCircle
 10
916.8541019662488
 20
801.9999999999513
 30
0.0
 40
3.0
100
AcDbArc
 50
90.00000000000001
 51
153.434948822921
  0
LINE
  5
368
330
1F
100
AcDbEntity
  8
LAY-10
  6
CONTINUOUS
 62
     7
100
AcDbLine
 10
936.6708203932285
 20
801.6583592134507
 30
0.0
 11
935.8291796067283
 21
803.3416407864511
 31
0.0
  0
ARC
  5
369
330
1F
100
AcDbEntity
  8
LAY-10
  6
CONTINUOUS
 62
     7
100
AcDbCircle
 10
939.354101966228
 20
802.9999999999504
 30
0.0
 40
3.0
100
AcDbArc
 50
206.5650511770751
 51
270.0
  0
LINE
  5
36A
330
1F
100
AcDbEntity
  8
LAY-10
  6
CONTINUOUS
 62
     7
100
AcDbLine
 10
913.3291796067491
 20
801.6583592134507
 30
0.0
 11
914.1708203932493
 21
803.3416407864511
 31
0.0
  0
ARC
  5
36B
330
1F
100
AcDbEntity
  8
LAY-10
  6
CONTINUOUS
 62
     7
100
AcDbCircle
 10
910.6458980337496
 20
802.9999999999504
 30
0.0
 40
3.0
100
AcDbArc
 50
270.0
 51
333.434948822925
  0
ARC
  5
36C
330
1F
100
AcDbEntity
  8
LAY-10
  6
CONTINUOUS
 62
     7
100
AcDbCircle
 10
733.145898033728
 20
801.9999999999513
 30
0.0
 40
3.0
100
AcDbArc
 50
26.56505117707993
 51
90.00000000000001
  0
LINE
  5
36D
330
1F
100
AcDbEntity
  8
LAY-10
  6
CONTINUOUS
 62
     7
100
AcDbLine
 10
910.6458980337496
 20
799.9999999999505
 30
0.0
 11
739.3541019662276
 21
799.9999999999505
 31
0.0
  0
LINE
  5
36E
330
1F
100
AcDbEntity
  8
LAY-10
  6
CONTINUOUS
 62
     7
100
AcDbLine
 10
736.6708203932277
 20
801.6583592134507
 30
0.0
 11
735.8291796067275
 21
803.3416407864511
 31
0.0
  0
ARC
  5
36F
330
1F
100
AcDbEntity
  8
LAY-10
  6
CONTINUOUS
 62
     7
100
AcDbCircle
 10
739.3541019662276
 20
802.9999999999504
 30
0.0
 40
3.0
100
AcDbArc
 50
206.5650511770799
 51
270.0
  0
ARC
  5
370
330
1F
100
AcDbEntity
  8
LAY-10
  6
CONTINUOUS
 62
     7
100
AcDbCircle
 10
1024.999999999989
 20
809.9999999999596
 30
0.0
 40
5.0
100
AcDbArc
 50
185.5757227313738
 51
354.4242772686262
  0
LINE
  5
371
330
1F
100
AcDbEntity
  8
LAY-10
  6
CONTINUOUS
 62
     7
100
AcDbLine
 10
1030.99999999999
 20
819.9999999999596
 30
0.0
 11
1029.97634329148
 21
809.5141940250655
 31
0.0
  0
LINE
  5
372
330
1F
100
AcDbEntity
  8
LAY-10
  6
CONTINUOUS
 62
     7
100
AcDbLine
 10
1018.999999999988
 20
819.9999999999596
 30
0.0
 11
1020.023656708499
 21
809.5141940250655
 31
0.0
  0
LINE
  5
373
330
1F
100
AcDbEntity
  8
LAY-10
  6
CONTINUOUS
 62
     7
100
AcDbLine
 10
1221.486206244941
 20
804.9999999999505
 30
0.0
 11
1221.471799505308
 21
804.9999999999505
 31
0.0
  0
LINE
  5
374
330
1F
100
AcDbEntity
  8
LAY-10
  6
CONTINUOUS
 62
     7
100
AcDbLine
 10
1210.999999999987
 20
819.9999999999596
 30
0.0
 11
1212.023656708498
 21
809.5141940250655
 31
0.0
  0
ARC
  5
375
330
1F
100
AcDbEntity
  8
LAY-10
  6
CONTINUOUS
 62
     7
100
AcDbCircle
 10
1216.999999999988
 20
809.9999999999596
 30
0.0
 40
5.0
100
AcDbArc
 50
185.5757227313739
 51
346.491633709059
  0
LINE
  5
376
330
1F
100
AcDbEntity
  8
LAY-10
  6
CONTINUOUS
 62
     7
100
AcDbLine
 10
1211.599999999984
 20
822.9999999999495
 30
0.0
 11
1223.399999999993
 21
822.9999999999495
 31
0.0
  0
LINE
  5
377
330
1F
100
AcDbEntity
  8
LAY-10
  6
CONTINUOUS
 62
     7
100
AcDbLine
 10
1211.599999999984
 20
822.9999999999495
 30
0.0
 11
1210.999999999987
 21
819.99999999995
 31
0.0
  0
LINE
  5
378
330
1F
100
AcDbEntity
  8
LAY-10
  6
CONTINUOUS
 62
     7
100
AcDbLine
 10
1110.645898033739
 20
799.9999999999505
 30
0.0
 11
939.354101966228
 21
799.9999999999505
 31
0.0
  0
LINE
  5
379
330
1F
100
AcDbEntity
  8
LAY-10
  6
CONTINUOUS
 62
     7
100
AcDbLine
 10
232.9999999999893
 20
804.9999999999505
 30
0.0
 11
1216.999999999988
 21
804.9999999999505
 31
0.0
  0
LINE
  5
37A
330
1F
100
AcDbEntity
  8
LAY-10
  6
CONTINUOUS
 62
     7
100
AcDbLine
 10
320.0000000001002
 20
790.9971143169997
 30
0.0
 11
320.0000000001002
 21
786.9999999999
 31
0.0
  0
LINE
  5
37B
330
1F
100
AcDbEntity
  8
LAY-10
  6
CONTINUOUS
 62
     7
100
AcDbLine
 10
330.0000000001002
 20
790.9971143169997
 30
0.0
 11
330.0000000001002
 21
786.9999999999
 31
0.0
  0
LINE
  5
37C
330
1F
100
AcDbEntity
  8
LAY-10
  6
CONTINUOUS
 62
     7
100
AcDbLine
 10
320.0000000001002
 20
790.9971143169737
 30
0.0
 11
330.0000000001002
 21
790.9971143169737
 31
0.0
  0
LINE
  5
37D
330
1F
100
AcDbEntity
  8
LAY-10
  6
CONTINUOUS
 62
     7
100
AcDbLine
 10
320.0000000001002
 20
786.9999999998945
 30
0.0
 11
330.0000000001002
 21
786.9999999998945
 31
0.0
  0
LINE
  5
37E
330
1F
100
AcDbEntity
  8
LAY-10
  6
CONTINUOUS
 62
     7
100
AcDbLine
 10
317.4999999999993
 20
805.0
 30
0.0
 11
332.4999999999993
 21
805.0
 31
0.0
  0
LINE
  5
37F
330
1F
100
AcDbEntity
  8
LAY-10
  6
CONTINUOUS
 62
     7
100
AcDbLine
 10
332.5000000000002
 20
779.0000000000045
 30
0.0
 11
330.5000000000002
 21
779.0000000000045
 31
0.0
  0
LINE
  5
380
330
1F
100
AcDbEntity
  8
LAY-10
  6
CONTINUOUS
 62
     7
100
AcDbLine
 10
332.5000000000002
 20
800.0
 30
0.0
 11
317.4999999999986
 21
800.0
 31
0.0
  0
LINE
  5
381
330
1F
100
AcDbEntity
  8
LAY-10
  6
CONTINUOUS
 62
     7
100
AcDbLine
 10
317.5000000000002
 20
798.0000000000001
 30
0.0
 11
332.5000000000002
 21
798.0000000000001
 31
0.0
  0
LINE
  5
382
330
1F
100
AcDbEntity
  8
LAY-10
  6
CONTINUOUS
 62
     7
100
AcDbLine
 10
330.5000000000005
 20
779.0
 30
0.0
 11
330.5000000000005
 21
798.0000000000001
 31
0.0
  0
LINE
  5
383
330
1F
100
AcDbEntity
  8
LAY-10
  6
CONTINUOUS
 62
     7
100
AcDbLine
 10
319.7499999999698
 20
799.9999999999619
 30
0.0
 11
330.2499999999698
 21
799.9999999999619
 31
0.0
  0
ARC
  5
384
330
1F
100
AcDbEntity
  8
LAY-10
  6
CONTINUOUS
 62
     7
100
AcDbCircle
 10
321.2499999999698
 20
801.9999999999618
 30
0.0
 40
1.0
100
AcDbArc
 50
90.00000000000009
 51
151.9275130641421
  0
ARC
  5
385
330
1F
100
AcDbEntity
  8
LAY-10
  6
CONTINUOUS
 62
     7
100
AcDbCircle
 10
324.9999999999698
 20
799.9999999999619
 30
0.0
 40
5.25
100
AcDbArc
 50
151.9275130641422
 51
179.9999999999997
  0
LINE
  5
386
330
1F
100
AcDbEntity
  8
LAY-10
  6
CONTINUOUS
 62
     7
100
AcDbLine
 10
328.7499999999698
 20
802.9999999999618
 30
0.0
 11
321.2499999999698
 21
802.9999999999618
 31
0.0
  0
ARC
  5
387
330
1F
100
AcDbEntity
  8
LAY-10
  6
CONTINUOUS
 62
     7
100
AcDbCircle
 10
328.7499999999698
 20
801.9999999999618
 30
0.0
 40
1.0
100
AcDbArc
 50
28.07248693585815
 51
90.00000000000009
  0
ARC
  5
388
330
1F
100
AcDbEntity
  8
LAY-10
  6
CONTINUOUS
 62
     7
100
AcDbCircle
 10
324.9999999999698
 20
799.9999999999619
 30
0.0
 40
5.25
100
AcDbArc
 50
0.0000000000011459
 51
28.07248693585798
  0
LINE
  5
389
330
1F
100
AcDbEntity
  8
LAY-10
  6
CONTINUOUS
 62
     7
100
AcDbLine
 10
327.9999999999698
 20
797.9999999999654
 30
0.0
 11
327.9999999999698
 21
790.9971143170023
 31
0.0
  0
LINE
  5
38A
330
1F
100
AcDbEntity
  8
LAY-10
  6
CONTINUOUS
 62
     7
100
AcDbLine
 10
321.9999999999698
 20
797.9999999999654
 30
0.0
 11
321.9999999999698
 21
790.9971143170023
 31
0.0
  0
LINE
  5
38B
330
1F
100
AcDbEntity
  8
LAY-10
  6
CONTINUOUS
 62
     7
100
AcDbLine
 10
327.9999999999698
 20
786.9999999999601
 30
0.0
 11
327.9999999999698
 21
778.7999999999611
 31
0.0
  0
LINE
  5
38C
330
1F
100
AcDbEntity
  8
LAY-10
  6
CONTINUOUS
 62
     7
100
AcDbLine
 10
321.9999999999698
 20
786.9999999999601
 30
0.0
 11
321.9999999999698
 21
778.7999999999611
 31
0.0
  0
LINE
  5
38D
330
1F
100
AcDbEntity
  8
LAY-10
  6
CONTINUOUS
 62
     7
100
AcDbLine
 10
322.1367513459215
 20
778.7999999999611
 30
0.0
 11
322.1367513459215
 21
774.1719999999606
 31
0.0
  0
LINE
  5
38E
330
1F
100
AcDbEntity
  8
LAY-10
  6
CONTINUOUS
 62
     7
100
AcDbLine
 10
319.2499999999698
 20
778.7999999999611
 30
0.0
 11
319.2499999999698
 21
774.1719999999606
 31
0.0
  0
LINE
  5
38F
330
1F
100
AcDbEntity
  8
LAY-10
  6
CONTINUOUS
 62
     7
100
AcDbLine
 10
327.863248654018
 20
778.7999999999611
 30
0.0
 11
327.863248654018
 21
774.1719999999606
 31
0.0
  0
ARC
  5
390
330
1F
100
AcDbEntity
  8
LAY-10
  6
CONTINUOUS
 62
     7
100
AcDbCircle
 10
324.9999999999698
 20
781.0522524955195
 30
0.0
 40
7.4522524955587
100
AcDbArc
 50
247.4051392327525
 51
292.5948607672478
  0
LINE
  5
391
330
1F
100
AcDbEntity
  8
LAY-10
  6
CONTINUOUS
 62
     7
100
AcDbLine
 10
330.7499999999698
 20
778.7999999999611
 30
0.0
 11
330.7499999999698
 21
774.1719999999606
 31
0.0
  0
LINE
  5
392
330
1F
100
AcDbEntity
  8
LAY-10
  6
CONTINUOUS
 62
     7
100
AcDbLine
 10
330.7499999999698
 20
778.7999999999611
 30
0.0
 11
319.2499999999698
 21
778.7999999999611
 31
0.0
  0
ARC
  5
393
330
1F
100
AcDbEntity
  8
LAY-10
  6
CONTINUOUS
 62
     7
100
AcDbCircle
 10
329.7499999999697
 20
773.1379779541621
 30
0.0
 40
0.5
100
AcDbArc
 50
99.79159752642917
 51
180.0000000000002
  0
LINE
  5
394
330
1F
100
AcDbEntity
  8
LAY-10
  6
CONTINUOUS
 62
     7
100
AcDbLine
 10
329.2499999999698
 20
773.5999999999603
 30
0.0
 11
329.2499999999698
 21
773.6007609748158
 31
0.0
  0
ARC
  5
395
330
1F
100
AcDbEntity
  8
LAY-10
  6
CONTINUOUS
 62
     7
100
AcDbCircle
 10
320.6933756729438
 20
775.7070955710589
 30
0.0
 40
2.107095571097913
100
AcDbArc
 50
226.7638252773316
 51
313.236174722669
  0
ARC
  5
396
330
1F
100
AcDbEntity
  8
LAY-10
  6
CONTINUOUS
 62
     7
100
AcDbCircle
 10
320.2499999999698
 20
773.1379779541621
 30
0.0
 40
0.5
100
AcDbArc
 50
0.0000000000002292
 51
80.20840247357106
  0
LINE
  5
397
330
1F
100
AcDbEntity
  8
LAY-10
  6
CONTINUOUS
 62
     7
100
AcDbLine
 10
320.7499999999698
 20
773.5999999999603
 30
0.0
 11
320.7499999999698
 21
773.6007609748158
 31
0.0
  0
ARC
  5
398
330
1F
100
AcDbEntity
  8
LAY-10
  6
CONTINUOUS
 62
     7
100
AcDbCircle
 10
329.3066243269957
 20
775.7070955710589
 30
0.0
 40
2.107095571097882
100
AcDbArc
 50
226.763825277331
 51
313.2361747226693
  0
ARC
  5
399
330
1F
100
AcDbEntity
  8
LAY-10
  6
CONTINUOUS
 62
     7
100
AcDbCircle
 10
321.7499999999698
 20
772.500961894284
 30
0.0
 40
1.0
100
AcDbArc
 50
180.0000000000002
 51
201.7867892982636
  0
LINE
  5
39A
330
1F
100
AcDbEntity
  8
LAY-10
  6
CONTINUOUS
 62
     7
100
AcDbLine
 10
320.7499999999698
 20
772.500961894284
 30
0.0
 11
320.7499999999698
 21
773.1379779541621
 31
0.0
  0
ARC
  5
39B
330
1F
100
AcDbEntity
  8
LAY-10
  6
CONTINUOUS
 62
     7
100
AcDbCircle
 10
324.9999999999698
 20
773.7999999999611
 30
0.0
 40
4.5
100
AcDbArc
 50
201.7867892982638
 51
338.2132107017366
  0
LINE
  5
39C
330
1F
100
AcDbEntity
  8
LAY-10
  6
CONTINUOUS
 62
     7
100
AcDbLine
 10
329.2499999999698
 20
772.500961894284
 30
0.0
 11
329.2499999999698
 21
773.1379779541621
 31
0.0
  0
ARC
  5
39D
330
1F
100
AcDbEntity
  8
LAY-10
  6
CONTINUOUS
 62
     7
100
AcDbCircle
 10
328.2499999999698
 20
772.500961894284
 30
0.0
 40
1.0
100
AcDbArc
 50
338.2132107017366
 51
0.0000000000002292
  0
LINE
  5
39E
330
1F
100
AcDbEntity
  8
LAY-10
  6
CONTINUOUS
 62
     7
100
AcDbLine
 10
317.4999999999993
 20
798.0000000000001
 30
0.0
 11
317.4999999999993
 21
805.0
 31
0.0
  0
LINE
  5
39F
330
1F
100
AcDbEntity
  8
LAY-10
  6
CONTINUOUS
 62
     7
100
AcDbLine
 10
332.4999999999993
 20
798.0000000000001
 30
0.0
 11
332.4999999999993
 21
805.0
 31
0.0
  0
LINE
  5
3A0
330
1F
100
AcDbEntity
  8
LAY-10
  6
CONTINUOUS
 62
     7
100
AcDbLine
 10
332.5000000000002
 20
798.0000000000001
 30
0.0
 11
332.5000000000002
 21
779.0
 31
0.0
  0
LINE
  5
3A1
330
1F
100
AcDbEntity
  8
LAY-10
  6
CONTINUOUS
 62
     7
100
AcDbLine
 10
1120.00000000016
 20
790.9971143169997
 30
0.0
 11
1120.00000000016
 21
786.9999999999
 31
0.0
  0
LINE
  5
3A2
330
1F
100
AcDbEntity
  8
LAY-10
  6
CONTINUOUS
 62
     7
100
AcDbLine
 10
1130.00000000016
 20
790.9971143169997
 30
0.0
 11
1130.00000000016
 21
786.9999999999
 31
0.0
  0
LINE
  5
3A3
330
1F
100
AcDbEntity
  8
LAY-10
  6
CONTINUOUS
 62
     7
100
AcDbLine
 10
1120.00000000016
 20
790.9971143169737
 30
0.0
 11
1130.00000000016
 21
790.9971143169737
 31
0.0
  0
LINE
  5
3A4
330
1F
100
AcDbEntity
  8
LAY-10
  6
CONTINUOUS
 62
     7
100
AcDbLine
 10
1120.00000000016
 20
786.9999999998945
 30
0.0
 11
1130.00000000016
 21
786.9999999998945
 31
0.0
  0
LINE
  5
3A5
330
1F
100
AcDbEntity
  8
LAY-10
  6
CONTINUOUS
 62
     7
100
AcDbLine
 10
1117.500000000059
 20
805.0
 30
0.0
 11
1132.500000000059
 21
805.0
 31
0.0
  0
LINE
  5
3A6
330
1F
100
AcDbEntity
  8
LAY-10
  6
CONTINUOUS
 62
     7
100
AcDbLine
 10
1132.50000000006
 20
779.0000000000045
 30
0.0
 11
1130.50000000006
 21
779.0000000000045
 31
0.0
  0
LINE
  5
3A7
330
1F
100
AcDbEntity
  8
LAY-10
  6
CONTINUOUS
 62
     7
100
AcDbLine
 10
1132.50000000006
 20
800.0
 30
0.0
 11
1117.500000000059
 21
800.0
 31
0.0
  0
LINE
  5
3A8
330
1F
100
AcDbEntity
  8
LAY-10
  6
CONTINUOUS
 62
     7
100
AcDbLine
 10
1117.50000000006
 20
798.0000000000001
 30
0.0
 11
1132.50000000006
 21
798.0000000000001
 31
0.0
  0
LINE
  5
3A9
330
1F
100
AcDbEntity
  8
LAY-10
  6
CONTINUOUS
 62
     7
100
AcDbLine
 10
1130.500000000061
 20
779.0
 30
0.0
 11
1130.500000000061
 21
798.0000000000001
 31
0.0
  0
LINE
  5
3AA
330
1F
100
AcDbEntity
  8
LAY-10
  6
CONTINUOUS
 62
     7
100
AcDbLine
 10
1119.75000000003
 20
799.9999999999619
 30
0.0
 11
1130.25000000003
 21
799.9999999999619
 31
0.0
  0
ARC
  5
3AB
330
1F
100
AcDbEntity
  8
LAY-10
  6
CONTINUOUS
 62
     7
100
AcDbCircle
 10
1121.25000000003
 20
801.9999999999618
 30
0.0
 40
1.0
100
AcDbArc
 50
90.00000000000009
 51
151.9275130641421
  0
ARC
  5
3AC
330
1F
100
AcDbEntity
  8
LAY-10
  6
CONTINUOUS
 62
     7
100
AcDbCircle
 10
1125.00000000003
 20
799.9999999999619
 30
0.0
 40
5.25
100
AcDbArc
 50
151.9275130641422
 51
179.9999999999997
  0
LINE
  5
3AD
330
1F
100
AcDbEntity
  8
LAY-10
  6
CONTINUOUS
 62
     7
100
AcDbLine
 10
1128.75000000003
 20
802.9999999999618
 30
0.0
 11
1121.25000000003
 21
802.9999999999618
 31
0.0
  0
ARC
  5
3AE
330
1F
100
AcDbEntity
  8
LAY-10
  6
CONTINUOUS
 62
     7
100
AcDbCircle
 10
1128.75000000003
 20
801.9999999999618
 30
0.0
 40
1.0
100
AcDbArc
 50
28.07248693585815
 51
90.00000000000009
  0
ARC
  5
3AF
330
1F
100
AcDbEntity
  8
LAY-10
  6
CONTINUOUS
 62
     7
100
AcDbCircle
 10
1125.00000000003
 20
799.9999999999619
 30
0.0
 40
5.25
100
AcDbArc
 50
0.0000000000011459
 51
28.07248693585798
  0
LINE
  5
3B0
330
1F
100
AcDbEntity
  8
LAY-10
  6
CONTINUOUS
 62
     7
100
AcDbLine
 10
1128.00000000003
 20
797.9999999999654
 30
0.0
 11
1128.00000000003
 21
790.9971143170023
 31
0.0
  0
LINE
  5
3B1
330
1F
100
AcDbEntity
  8
LAY-10
  6
CONTINUOUS
 62
     7
100
AcDbLine
 10
1122.00000000003
 20
797.9999999999654
 30
0.0
 11
1122.00000000003
 21
790.9971143170023
 31
0.0
  0
LINE
  5
3B2
330
1F
100
AcDbEntity
  8
LAY-10
  6
CONTINUOUS
 62
     7
100
AcDbLine
 10
1128.00000000003
 20
786.9999999999601
 30
0.0
 11
1128.00000000003
 21
778.7999999999611
 31
0.0
  0
LINE
  5
3B3
330
1F
100
AcDbEntity
  8
LAY-10
  6
CONTINUOUS
 62
     7
100
AcDbLine
 10
1122.00000000003
 20
786.9999999999601
 30
0.0
 11
1122.00000000003
 21
778.7999999999611
 31
0.0
  0
LINE
  5
3B4
330
1F
100
AcDbEntity
  8
LAY-10
  6
CONTINUOUS
 62
     7
100
AcDbLine
 10
1122.136751345982
 20
778.7999999999611
 30
0.0
 11
1122.136751345982
 21
774.1719999999606
 31
0.0
  0
LINE
  5
3B5
330
1F
100
AcDbEntity
  8
LAY-10
  6
CONTINUOUS
 62
     7
100
AcDbLine
 10
1119.25000000003
 20
778.7999999999611
 30
0.0
 11
1119.25000000003
 21
774.1719999999606
 31
0.0
  0
LINE
  5
3B6
330
1F
100
AcDbEntity
  8
LAY-10
  6
CONTINUOUS
 62
     7
100
AcDbLine
 10
1127.863248654078
 20
778.7999999999611
 30
0.0
 11
1127.863248654078
 21
774.1719999999606
 31
0.0
  0
ARC
  5
3B7
330
1F
100
AcDbEntity
  8
LAY-10
  6
CONTINUOUS
 62
     7
100
AcDbCircle
 10
1125.00000000003
 20
781.0522524955195
 30
0.0
 40
7.4522524955587
100
AcDbArc
 50
247.4051392327525
 51
292.5948607672478
  0
LINE
  5
3B8
330
1F
100
AcDbEntity
  8
LAY-10
  6
CONTINUOUS
 62
     7
100
AcDbLine
 10
1130.75000000003
 20
778.7999999999611
 30
0.0
 11
1130.75000000003
 21
774.1719999999606
 31
0.0
  0
LINE
  5
3B9
330
1F
100
AcDbEntity
  8
LAY-10
  6
CONTINUOUS
 62
     7
100
AcDbLine
 10
1130.75000000003
 20
778.7999999999611
 30
0.0
 11
1119.25000000003
 21
778.7999999999611
 31
0.0
  0
ARC
  5
3BA
330
1F
100
AcDbEntity
  8
LAY-10
  6
CONTINUOUS
 62
     7
100
AcDbCircle
 10
1129.75000000003
 20
773.1379779541621
 30
0.0
 40
0.5
100
AcDbArc
 50
99.79159752642917
 51
180.0000000000002
  0
ARC
  5
3BB
330
1F
100
AcDbEntity
  8
LAY-10
  6
CONTINUOUS
 62
     7
100
AcDbCircle
 10
1120.693375673004
 20
775.7070955710589
 30
0.0
 40
2.107095571097913
100
AcDbArc
 50
226.7638252773316
 51
313.236174722669
  0
ARC
  5
3BC
330
1F
100
AcDbEntity
  8
LAY-10
  6
CONTINUOUS
 62
     7
100
AcDbCircle
 10
1120.25000000003
 20
773.1379779541621
 30
0.0
 40
0.5
100
AcDbArc
 50
0.0000000000002292
 51
80.20840247357106
  0
LINE
  5
3BD
330
1F
100
AcDbEntity
  8
LAY-10
  6
CONTINUOUS
 62
     7
100
AcDbLine
 10
1120.75000000003
 20
773.5999999999603
 30
0.0
 11
1120.75000000003
 21
773.6007609748158
 31
0.0
  0
ARC
  5
3BE
330
1F
100
AcDbEntity
  8
LAY-10
  6
CONTINUOUS
 62
     7
100
AcDbCircle
 10
1129.306624327056
 20
775.7070955710589
 30
0.0
 40
2.107095571097882
100
AcDbArc
 50
226.763825277331
 51
313.2361747226693
  0
ARC
  5
3BF
330
1F
100
AcDbEntity
  8
LAY-10
  6
CONTINUOUS
 62
     7
100
AcDbCircle
 10
1121.75000000003
 20
772.500961894284
 30
0.0
 40
1.0
100
AcDbArc
 50
180.0000000000002
 51
201.7867892982636
  0
LINE
  5
3C0
330
1F
100
AcDbEntity
  8
LAY-10
  6
CONTINUOUS
 62
     7
100
AcDbLine
 10
1120.75000000003
 20
772.500961894284
 30
0.0
 11
1120.75000000003
 21
773.1379779541621
 31
0.0
  0
ARC
  5
3C1
330
1F
100
AcDbEntity
  8
LAY-10
  6
CONTINUOUS
 62
     7
100
AcDbCircle
 10
1125.00000000003
 20
773.7999999999611
 30
0.0
 40
4.5
100
AcDbArc
 50
201.7867892982638
 51
338.2132107017366
  0
LINE
  5
3C2
330
1F
100
AcDbEntity
  8
LAY-10
  6
CONTINUOUS
 62
     7
100
AcDbLine
 10
1129.25000000003
 20
772.500961894284
 30
0.0
 11
1129.25000000003
 21
773.1379779541621
 31
0.0
  0
ARC
  5
3C3
330
1F
100
AcDbEntity
  8
LAY-10
  6
CONTINUOUS
 62
     7
100
AcDbCircle
 10
1128.25000000003
 20
772.500961894284
 30
0.0
 40
1.0
100
AcDbArc
 50
338.2132107017366
 51
0.0000000000002292
  0
LINE
  5
3C4
330
1F
100
AcDbEntity
  8
LAY-10
  6
CONTINUOUS
 62
     7
100
AcDbLine
 10
1117.500000000059
 20
798.0000000000001
 30
0.0
 11
1117.500000000059
 21
805.0
 31
0.0
  0
LINE
  5
3C5
330
1F
100
AcDbEntity
  8
LAY-10
  6
CONTINUOUS
 62
     7
100
AcDbLine
 10
1132.500000000059
 20
798.0000000000001
 30
0.0
 11
1132.500000000059
 21
805.0
 31
0.0
  0
LINE
  5
3C6
330
1F
100
AcDbEntity
  8
LAY-10
  6
CONTINUOUS
 62
     7
100
AcDbLine
 10
1132.50000000006
 20
798.0000000000001
 30
0.0
 11
1132.50000000006
 21
779.0
 31
0.0
  0
LINE
  5
3C7
330
1F
100
AcDbEntity
  8
LAY-10
  6
CONTINUOUS
 62
     7
100
AcDbLine
 10
1223.99999999999
 20
819.9999999999509
 30
0.0
 11
1222.997920995666
 21
819.9999999999509
 31
0.0
  0
LINE
  5
3C8
330
1F
100
AcDbEntity
  8
LAY-10
  6
CONTINUOUS
 62
     7
100
AcDbLine
 10
1210.999999999988
 20
819.9999999999509
 30
0.0
 11
238.99999999999
 21
819.9999999999509
 31
0.0
  0
LINE
  5
3C9
330
1F
100
AcDbEntity
  8
LAY-10
  6
CONTINUOUS
 62
     7
100
AcDbLine
 10
227.0020790043116
 20
819.9999999999509
 30
0.0
 11
225.9999999999884
 21
819.9999999999509
 31
0.0
  0
LINE
  5
3CA
330
1F
100
AcDbEntity
  8
LAY-10
  6
CONTINUOUS
 62
     7
100
AcDbLine
 10
228.0
 20
800.00000000005
 30
0.0
 11
228.0
 21
791.00000000005
 31
0.0
  0
LINE
  5
3CB
330
1F
100
AcDbEntity
  8
LAY-10
  6
CONTINUOUS
 62
     7
100
AcDbLine
 10
330.5000000000005
 20
791.0
 30
0.0
 11
228.0
 21
791.0
 31
0.0
  0
LINE
  5
3CC
330
1F
100
AcDbEntity
  8
LAY-10
  6
CONTINUOUS
 62
     7
100
AcDbLine
 10
1225.000000000001
 20
824.9999999999923
 30
0.0
 11
225.0
 21
824.9999999999923
 31
0.0
  0
LINE
  5
3CD
330
1F
100
AcDbEntity
  8
LAY-10
  6
CONTINUOUS
 62
     7
100
AcDbLine
 10
1222.000000000004
 20
800.00000000005
 30
0.0
 11
1222.000000000004
 21
791.00000000005
 31
0.0
  0
LINE
  5
3CE
330
1F
100
AcDbEntity
  8
LAY-10
  6
CONTINUOUS
 62
     7
100
AcDbLine
 10
1222.000000000004
 20
800.0
 30
0.0
 11
228.0
 21
800.0
 31
0.0
  0
LINE
  5
3CF
330
1F
100
AcDbEntity
  8
LAY-10
  6
CONTINUOUS
 62
     7
100
AcDbLine
 10
1222.000000000004
 20
791.0
 30
0.0
 11
1132.50000000006
 21
791.0
 31
0.0
  0
LINE
  5
3D0
330
1F
100
AcDbEntity
  8
LAY-10
  6
CONTINUOUS
 62
     7
100
AcDbLine
 10
1225.0
 20
674.9999999999498
 30
0.0
 11
225.0
 21
674.9999999999498
 31
0.0
  0
LINE
  5
3D1
330
1F
100
AcDbEntity
  8
LAY-10
  6
CONTINUOUS
 62
     7
100
AcDbLine
 10
225.0
 20
674.99999999995
 30
0.0
 11
225.0
 21
824.99999999995
 31
0.0
  0
LINE
  5
3D2
330
1F
100
AcDbEntity
  8
LAY-10
  6
CONTINUOUS
 62
     7
100
AcDbLine
 10
1225.000000000001
 20
674.99999999995
 30
0.0
 11
1225.000000000001
 21
824.99999999995
 31
0.0
  0
LINE
  5
3D3
330
1F
100
AcDbEntity
  8
LAY-10
  6
CONTINUOUS
 62
     7
100
AcDbLine
 10
1225.000000000001
 20
714.99999999995
 30
0.0
 11
225.0
 21
714.99999999995
 31
0.0
  0
CIRCLE
  5
3D4
330
1F
100
AcDbEntity
  8
LAY-10
  6
CONTINUOUS
 62
     7
100
AcDbCircle
 10
1125.0
 20
694.49999999995
 30
0.0
 40
4.000000000002842
  0
CIRCLE
  5
3D5
330
1F
100
AcDbEntity
  8
LAY-10
  6
CONTINUOUS
 62
     7
100
AcDbCircle
 10
724.9999999999998
 20
694.49999999995
 30
0.0
 40
4.000000000002842
  0
CIRCLE
  5
3D6
330
1F
100
AcDbEntity
  8
LAY-10
  6
CONTINUOUS
 62
     7
100
AcDbCircle
 10
325.0
 20
694.49999999995
 30
0.0
 40
4.000000000002842
  0
LINE
  5
3D7
330
1F
100
AcDbEntity
  8
LAY-10
  6
CONTINUOUS
 62
     7
100
AcDbLine
 10
1408.99711431715
 20
1079.998708177754
 30
0.0
 11
1412.99711431715
 21
1079.998708177754
 31
0.0
  0
LINE
  5
3D8
330
1F
100
AcDbEntity
  8
LAY-10
  6
CONTINUOUS
 62
     7
100
AcDbLine
 10
1130.500000000061
 20
791.0000000000002
 30
0.0
 11
332.5000000000002
 21
791.0
 31
0.0
  0
LINE
  5
3D9
330
1F
100
AcDbEntity
  8
LAY-10
  6
CONTINUOUS
 62
     7
100
AcDbLine
 10
1132.499999999961
 20
1046.999980369646
 30
0.0
 11
1132.499999999961
 21
1052.999980369943
 31
0.0
  0
LINE
  5
3DA
330
1F
100
AcDbEntity
  8
LAY-10
  6
CONTINUOUS
 62
     7
100
AcDbLine
 10
1117.499999999961
 20
1052.999980369943
 30
0.0
 11
1117.499999999961
 21
1046.999980369646
 31
0.0
  0
ARC
  5
3DB
330
1F
100
AcDbEntity
  8
LAY-10
  6
CONTINUOUS
 62
     7
100
AcDbCircle
 10
1125.0
 20
1049.9999803698
 30
0.0
 40
5.25
100
AcDbArc
 50
325.1500954189107
 51
34.84990458095251
  0
ARC
  5
3DC
330
1F
100
AcDbEntity
  8
LAY-10
  6
CONTINUOUS
 62
     7
100
AcDbCircle
 10
1125.0
 20
1049.9999803698
 30
0.0
 40
5.25
100
AcDbArc
 50
145.1500954190466
 51
214.8499045810893
  0
LINE
  5
3DD
330
1F
100
AcDbEntity
  8
LAY-10
  6
CONTINUOUS
 62
     7
100
AcDbLine
 10
332.4999999999311
 20
1046.999980369646
 30
0.0
 11
332.4999999999311
 21
1052.999980369943
 31
0.0
  0
ARC
  5
3DE
330
1F
100
AcDbEntity
  8
LAY-10
  6
CONTINUOUS
 62
     7
100
AcDbCircle
 10
324.99999999997
 20
1049.9999803698
 30
0.0
 40
5.25
100
AcDbArc
 50
325.1500954189107
 51
34.84990458095251
  0
ARC
  5
3DF
330
1F
100
AcDbEntity
  8
LAY-10
  6
CONTINUOUS
 62
     7
100
AcDbCircle
 10
324.99999999997
 20
1049.9999803698
 30
0.0
 40
5.25
100
AcDbArc
 50
145.1500954190466
 51
214.8499045810893
  0
LINE
  5
3E0
330
1F
100
AcDbEntity
  8
LAY-10
  6
CONTINUOUS
 62
     7
100
AcDbLine
 10
317.4999999999312
 20
1052.999980369943
 30
0.0
 11
317.4999999999312
 21
1046.999980369646
 31
0.0
  0
LINE
  5
3E1
330
1F
100
AcDbEntity
  8
LAY-10
  6
CENTER
 62
     2
100
AcDbLine
 10
331.000000000003
 20
694.49999999995
 30
0.0
 11
318.999999999997
 21
694.49999999995
 31
0.0
  0
LINE
  5
3E2
330
1F
100
AcDbEntity
  8
LAY-10
  6
CENTER
 62
     2
100
AcDbLine
 10
325.0
 20
700.4999999999529
 30
0.0
 11
325.0
 21
688.499999999947
 31
0.0
  0
LINE
  5
3E3
330
1F
100
AcDbEntity
  8
LAY-10
  6
CENTER
 62
     2
100
AcDbLine
 10
731.0000000000028
 20
694.49999999995
 30
0.0
 11
718.9999999999969
 21
694.49999999995
 31
0.0
  0
LINE
  5
3E4
330
1F
100
AcDbEntity
  8
LAY-10
  6
CENTER
 62
     2
100
AcDbLine
 10
724.9999999999998
 20
700.4999999999529
 30
0.0
 11
724.9999999999998
 21
688.499999999947
 31
0.0
  0
LINE
  5
3E5
330
1F
100
AcDbEntity
  8
LAY-10
  6
CENTER
 62
     2
100
AcDbLine
 10
1131.000000000003
 20
694.49999999995
 30
0.0
 11
1118.999999999997
 21
694.49999999995
 31
0.0
  0
LINE
  5
3E6
330
1F
100
AcDbEntity
  8
LAY-10
  6
CENTER
 62
     2
100
AcDbLine
 10
1125.0
 20
700.4999999999529
 30
0.0
 11
1125.0
 21
688.499999999947
 31
0.0
  0
LINE
  5
3E7
330
1F
100
AcDbEntity
  8
LAY-10
  6
CENTER
 62
     2
100
AcDbLine
 10
1125.00000000006
 20
767.2999999999997
 30
0.0
 11
1125.00000000006
 21
805.0
 31
0.0
  0
LINE
  5
3E8
330
1F
100
AcDbEntity
  8
LAY-10
  6
CENTER
 62
     2
100
AcDbLine
 10
324.9999999999998
 20
767.2999999999997
 30
0.0
 11
324.9999999999998
 21
805.0
 31
0.0
  0
LINE
  5
3E9
330
1F
100
AcDbEntity
  8
LAY-10
  6
CENTER
 62
     2
100
AcDbLine
 10
1364.999999999966
 20
1050.000000000045
 30
0.0
 11
1535.0
 21
1050.000000000045
 31
0.0
  0
LINE
  5
3EA
330
1F
100
AcDbEntity
  8
LAY-10
  6
CENTER
 62
     2
100
AcDbLine
 10
1234.999999999995
 20
1049.999999999999
 30
0.0
 11
215.0000000000045
 21
1049.999999999998
 31
0.0
  0
LINE
  5
3EB
330
1F
100
AcDbEntity
  8
LAY-10
  6
CENTER
 62
     2
100
AcDbLine
 10
1505.500000000013
 20
947.9999999999533
 30
0.0
 11
1505.500000000013
 21
916.4999999999535
 31
0.0
  0
LINE
  5
3EC
330
1F
100
AcDbEntity
  8
LAY-10
  6
CENTER
 62
     2
100
AcDbLine
 10
1124.999999999964
 20
949.2999214789029
 30
0.0
 11
1124.999999999964
 21
917.7999214789031
 31
0.0
  0
LINE
  5
3ED
330
1F
100
AcDbEntity
  8
LAY-10
  6
CENTER
 62
     2
100
AcDbLine
 10
724.999999999964
 20
949.2999214789023
 30
0.0
 11
724.999999999964
 21
917.7999214789025
 31
0.0
  0
LINE
  5
3EE
330
1F
100
AcDbEntity
  8
LAY-10
  6
CENTER
 62
     2
100
AcDbLine
 10
324.9999999999641
 20
949.2999214789015
 30
0.0
 11
324.9999999999641
 21
917.7999214789018
 31
0.0
  0
LINE
  5
3EF
330
1F
100
AcDbEntity
  8
LAY-10
  6
CENTER
 62
     2
100
AcDbLine
 10
1505.500000000013
 20
1152.000000000045
 30
0.0
 11
1505.500000000013
 21
1183.500000000045
 31
0.0
  0
LINE
  5
3F0
330
1F
100
AcDbEntity
  8
LAY-10
  6
CENTER
 62
     2
100
AcDbLine
 10
1124.999999999964
 20
1150.700078521095
 30
0.0
 11
1124.999999999964
 21
1182.200078521095
 31
0.0
  0
LINE
  5
3F1
330
1F
100
AcDbEntity
  8
LAY-10
  6
CENTER
 62
     2
100
AcDbLine
 10
724.9999999999636
 20
1150.700078521095
 30
0.0
 11
724.9999999999636
 21
1182.200078521095
 31
0.0
  0
LINE
  5
3F2
330
1F
100
AcDbEntity
  8
LAY-10
  6
CENTER
 62
     2
100
AcDbLine
 10
324.9999999999636
 20
1150.700078521095
 30
0.0
 11
324.9999999999636
 21
1182.200078521095
 31
0.0
  0
LINE
  5
3F3
330
1F
100
AcDbEntity
  8
LAY-10
  6
HIDDEN
 62
     7
100
AcDbLine
 10
345.0000000000005
 20
1114.999999999995
 30
0.0
 11
305.0000000000005
 21
1114.999999999995
 31
0.0
  0
LINE
  5
3F4
330
1F
100
AcDbEntity
  8
LAY-10
  6
HIDDEN
 62
     7
100
AcDbLine
 10
745.0000000000003
 20
1114.999999999995
 30
0.0
 11
705.0000000000003
 21
1114.999999999995
 31
0.0
  0
LINE
  5
3F5
330
1F
100
AcDbEntity
  8
LAY-10
  6
HIDDEN
 62
     7
100
AcDbLine
 10
1144.999999999961
 20
1114.999999999995
 30
0.0
 11
1104.99999999996
 21
1114.999999999995
 31
0.0
  0
LINE
  5
3F6
330
1F
100
AcDbEntity
  8
LAY-10
  6
HIDDEN
 62
     7
100
AcDbLine
 10
1144.999999999961
 20
1114.999999999995
 30
0.0
 11
1104.99999999996
 21
1114.999999999995
 31
0.0
  0
LINE
  5
3F7
330
1F
100
AcDbEntity
  8
LAY-10
  6
HIDDEN
 62
     7
100
AcDbLine
 10
345.0000000000005
 20
984.9999999999944
 30
0.0
 11
305.0000000000005
 21
984.9999999999944
 31
0.0
  0
LINE
  5
3F8
330
1F
100
AcDbEntity
  8
LAY-10
  6
HIDDEN
 62
     7
100
AcDbLine
 10
745.0000000000003
 20
984.9999999999944
 30
0.0
 11
705.0000000000003
 21
984.9999999999944
 31
0.0
  0
LINE
  5
3F9
330
1F
100
AcDbEntity
  8
LAY-10
  6
HIDDEN
 62
     7
100
AcDbLine
 10
1144.999999999961
 20
984.9999999999944
 30
0.0
 11
1104.99999999996
 21
984.9999999999944
 31
0.0
  0
LINE
  5
3FA
330
1F
100
AcDbEntity
  8
LAY-10
  6
HIDDEN
 62
     7
100
AcDbLine
 10
1144.999999999961
 20
984.9999999999944
 30
0.0
 11
1104.99999999996
 21
984.9999999999944
 31
0.0
  0
LINE
  5
3FB
330
1F
100
AcDbEntity
  8
LAY-10
  6
HIDDEN
 62
     7
100
AcDbLine
 10
745.0000000000003
 20
984.9999999999951
 30
0.0
 11
745.0000000000003
 21
1114.999999999995
 31
0.0
  0
LINE
  5
3FC
330
1F
100
AcDbEntity
  8
LAY-10
  6
HIDDEN
 62
     7
100
AcDbLine
 10
705.0000000000003
 20
984.9999999999951
 30
0.0
 11
705.0000000000003
 21
1114.999999999995
 31
0.0
  0
LINE
  5
3FD
330
1F
100
AcDbEntity
  8
LAY-10
  6
HIDDEN
 62
     7
100
AcDbLine
 10
345.0000000000005
 20
984.9999999999951
 30
0.0
 11
345.0000000000005
 21
1114.999999999995
 31
0.0
  0
LINE
  5
3FE
330
1F
100
AcDbEntity
  8
LAY-10
  6
HIDDEN
 62
     7
100
AcDbLine
 10
305.0000000000005
 20
984.9999999999951
 30
0.0
 11
305.0000000000005
 21
1114.999999999995
 31
0.0
  0
LINE
  5
3FF
330
1F
100
AcDbEntity
  8
LAY-10
  6
CONTINUOUS
 62
     7
100
AcDbLine
 10
1121.624999999961
 20
1173.164922271112
 30
0.0
 11
1121.624999999959
 21
1169.700078521115
 31
0.0
  0
LINE
  5
400
330
1F
100
AcDbEntity
  8
LAY-10
  6
CONTINUOUS
 62
     7
100
AcDbLine
 10
1128.374999999958
 20
1169.700078521072
 30
0.0
 11
1128.37499999996
 21
1173.164922271112
 31
0.0
  0
LINE
  5
401
330
1F
100
AcDbEntity
  8
LAY-10
  6
CONTINUOUS
 62
     7
100
AcDbLine
 10
721.6249999999608
 20
1173.164922271112
 30
0.0
 11
721.6249999999585
 21
1169.700078521115
 31
0.0
  0
LINE
  5
402
330
1F
100
AcDbEntity
  8
LAY-10
  6
CONTINUOUS
 62
     7
100
AcDbLine
 10
728.374999999958
 20
1169.700078521072
 30
0.0
 11
728.3749999999603
 21
1173.164922271112
 31
0.0
  0
LINE
  5
403
330
1F
100
AcDbEntity
  8
LAY-10
  6
CONTINUOUS
 62
     7
100
AcDbLine
 10
321.6249999999609
 20
1173.164922271112
 30
0.0
 11
321.6249999999586
 21
1169.700078521115
 31
0.0
  0
LINE
  5
404
330
1F
100
AcDbEntity
  8
LAY-10
  6
CONTINUOUS
 62
     7
100
AcDbLine
 10
328.3749999999582
 20
1169.700078521072
 30
0.0
 11
328.3749999999604
 21
1173.164922271112
 31
0.0
  0
LINE
  5
405
330
1F
100
AcDbEntity
  8
LAY-10
  6
CONTINUOUS
 62
     7
100
AcDbLine
 10
1502.12500000001
 20
1175.000000000062
 30
0.0
 11
1502.125000000008
 21
1171.000000000065
 31
0.0
  0
LINE
  5
406
330
1F
100
AcDbEntity
  8
LAY-10
  6
CONTINUOUS
 62
     7
100
AcDbLine
 10
1508.875000000008
 20
1171.000000000022
 30
0.0
 11
1508.87500000001
 21
1175.000000000062
 31
0.0
  0
LINE
  5
407
330
1F
100
AcDbEntity
  8
LAY-10
  6
CONTINUOUS
 62
     7
100
AcDbLine
 10
1502.125000000012
 20
1160.000000000063
 30
0.0
 11
1502.125000000012
 21
1155.00000000005
 31
0.0
  0
LINE
  5
408
330
1F
100
AcDbEntity
  8
LAY-10
  6
CONTINUOUS
 62
     7
100
AcDbLine
 10
1508.875000000012
 20
1155.000000000051
 30
0.0
 11
1508.875000000012
 21
1160.000000000063
 31
0.0
  0
LINE
  5
409
330
1F
100
AcDbEntity
  8
LAY-10
  6
CONTINUOUS
 62
     7
100
AcDbLine
 10
1121.624999999961
 20
926.8350777288856
 30
0.0
 11
1121.624999999959
 21
930.2999214788827
 31
0.0
  0
LINE
  5
40A
330
1F
100
AcDbEntity
  8
LAY-10
  6
CONTINUOUS
 62
     7
100
AcDbLine
 10
1128.374999999959
 20
930.2999214789255
 30
0.0
 11
1128.37499999996
 21
926.8350777288856
 31
0.0
  0
LINE
  5
40B
330
1F
100
AcDbEntity
  8
LAY-10
  6
CONTINUOUS
 62
     7
100
AcDbLine
 10
721.6249999999608
 20
926.8350777288848
 30
0.0
 11
721.6249999999585
 21
930.2999214788819
 31
0.0
  0
LINE
  5
40C
330
1F
100
AcDbEntity
  8
LAY-10
  6
CONTINUOUS
 62
     7
100
AcDbLine
 10
728.374999999958
 20
930.299921478925
 30
0.0
 11
728.3749999999603
 21
926.835077728885
 31
0.0
  0
LINE
  5
40D
330
1F
100
AcDbEntity
  8
LAY-10
  6
CONTINUOUS
 62
     7
100
AcDbLine
 10
321.6249999999613
 20
926.8350777288842
 30
0.0
 11
321.6249999999586
 21
930.2999214788813
 31
0.0
  0
LINE
  5
40E
330
1F
100
AcDbEntity
  8
LAY-10
  6
CONTINUOUS
 62
     7
100
AcDbLine
 10
328.3749999999586
 20
930.2999214789243
 30
0.0
 11
328.3749999999604
 21
926.8350777288842
 31
0.0
  0
LINE
  5
40F
330
1F
100
AcDbEntity
  8
LAY-10
  6
CONTINUOUS
 62
     7
100
AcDbLine
 10
1502.12500000001
 20
924.999999999936
 30
0.0
 11
1502.125000000008
 21
928.9999999999333
 31
0.0
  0
LINE
  5
410
330
1F
100
AcDbEntity
  8
LAY-10
  6
CONTINUOUS
 62
     7
100
AcDbLine
 10
1508.875000000008
 20
928.999999999976
 30
0.0
 11
1508.87500000001
 21
924.999999999936
 31
0.0
  0
LINE
  5
411
330
1F
100
AcDbEntity
  8
LAY-10
  6
CONTINUOUS
 62
     7
100
AcDbLine
 10
1502.125000000012
 20
939.9999999999358
 30
0.0
 11
1502.125000000012
 21
944.999999999948
 31
0.0
  0
LINE
  5
412
330
1F
100
AcDbEntity
  8
LAY-10
  6
CONTINUOUS
 62
     7
100
AcDbLine
 10
1508.875000000012
 20
944.9999999999474
 30
0.0
 11
1508.875000000012
 21
939.9999999999358
 31
0.0
  0
LINE
  5
413
330
1F
100
AcDbEntity
  8
LAY-10
  6
CONTINUOUS
 62
     7
100
AcDbLine
 10
1645.0
 20
945.0000000000452
 30
0.0
 11
1485.0
 21
945.0000000000452
 31
0.0
  0
ARC
  5
414
330
1F
100
AcDbEntity
  8
LAY-10
  6
CONTINUOUS
 62
     7
100
AcDbCircle
 10
1605.0
 20
1009.016662039652
 30
0.0
 40
30.0
100
AcDbArc
 50
271.9091524329962
 51
0.0
  0
LINE
  5
415
330
1F
100
AcDbEntity
  8
LAY-10
  6
CONTINUOUS
 62
     7
100
AcDbLine
 10
1605.99944490698
 20
979.0333148302778
 30
0.0
 11
1485.0
 21
975.0000000000452
 31
0.0
  0
LINE
  5
416
330
1F
100
AcDbEntity
  8
LAY-10
  6
CONTINUOUS
 62
     7
100
AcDbLine
 10
1635.0
 20
1090.983337960438
 30
0.0
 11
1635.0
 21
1009.016662039652
 31
0.0
  0
LINE
  5
417
330
1F
100
AcDbEntity
  8
LAY-10
  6
CONTINUOUS
 62
     7
100
AcDbLine
 10
1645.000000000017
 20
945.0000000000288
 30
0.0
 11
1670.000000000016
 21
970.0000000000288
 31
0.0
  0
LINE
  5
418
330
1F
100
AcDbEntity
  8
LAY-10
  6
CONTINUOUS
 62
     7
100
AcDbLine
 10
1670.0
 20
1130.000000000045
 30
0.0
 11
1670.0
 21
970.0000000000452
 31
0.0
  0
ARC
  5
419
330
1F
100
AcDbEntity
  8
LAY-10
  6
CONTINUOUS
 62
     7
100
AcDbCircle
 10
1605.0
 20
1090.983337960438
 30
0.0
 40
30.0
100
AcDbArc
 50
0.0
 51
88.09084756696596
  0
LINE
  5
41A
330
1F
100
AcDbEntity
  8
LAY-10
  6
CONTINUOUS
 62
     7
100
AcDbLine
 10
1605.99944490698
 20
1120.966685169813
 30
0.0
 11
1485.0
 21
1125.000000000045
 31
0.0
  0
LINE
  5
41B
330
1F
100
AcDbEntity
  8
LAY-10
  6
CONTINUOUS
 62
     7
100
AcDbLine
 10
1645.0
 20
1155.000000000045
 30
0.0
 11
1485.0
 21
1155.000000000045
 31
0.0
  0
LINE
  5
41C
330
1F
100
AcDbEntity
  8
LAY-10
  6
CONTINUOUS
 62
     7
100
AcDbLine
 10
1644.999999999999
 20
1155.000000000044
 30
0.0
 11
1669.999999999998
 21
1130.000000000044
 31
0.0
  0
LINE
  5
41D
330
1F
100
AcDbEntity
  8
LAY-10
  6
HIDDEN
 62
     7
100
AcDbLine
 10
1490.00000000001
 20
1115.000000000045
 30
0.0
 11
1490.00000000001
 21
985.0000000000445
 31
0.0
  0
LINE
  5
41E
330
1F
100
AcDbEntity
  8
LAY-10
  6
HIDDEN
 62
     7
100
AcDbLine
 10
1104.99999999996
 20
984.9999999999951
 30
0.0
 11
1104.999999999959
 21
1114.999999999995
 31
0.0
  0
LINE
  5
41F
330
1F
100
AcDbEntity
  8
LAY-10
  6
HIDDEN
 62
     7
100
AcDbLine
 10
1144.999999999961
 20
984.9999999999951
 30
0.0
 11
1144.99999999996
 21
1114.999999999995
 31
0.0
  0
LINE
  5
420
330
1F
100
AcDbEntity
  8
LAY-10
  6
CONTINUOUS
 62
     7
100
AcDbLine
 10
1408.999999999997
 20
1052.398708177827
 30
0.0
 11
1401.997114317034
 21
1052.398708177827
 31
0.0
  0
LINE
  5
421
330
1F
100
AcDbEntity
  8
LAY-10
  6
CONTINUOUS
 62
     7
100
AcDbLine
 10
1408.999999999997
 20
1047.598708177828
 30
0.0
 11
1401.997114317034
 21
1047.598708177828
 31
0.0
  0
LINE
  5
422
330
1F
100
AcDbEntity
  8
LAY-10
  6
CONTINUOUS
 62
     7
100
AcDbLine
 10
1421.197114317039
 20
1052.398708177827
 30
0.0
 11
1412.99711431704
 21
1052.398708177827
 31
0.0
  0
LINE
  5
423
330
1F
100
AcDbEntity
  8
LAY-10
  6
CONTINUOUS
 62
     7
100
AcDbLine
 10
1421.197114317039
 20
1047.598708177828
 30
0.0
 11
1412.99711431704
 21
1047.598708177828
 31
0.0
  0
LINE
  5
424
330
1F
100
AcDbEntity
  8
LAY-10
  6
HIDDEN
 62
     7
100
AcDbLine
 10
1140.0
 20
984.99999999999
 30
0.0
 11
1140.0
 21
1115.0
 31
0.0
  0
LINE
  5
425
330
1F
100
AcDbEntity
  8
LAY-10
  6
HIDDEN
 62
     7
100
AcDbLine
 10
740.0
 20
984.99999999999
 30
0.0
 11
740.0
 21
1115.0
 31
0.0
  0
LINE
  5
426
330
1F
100
AcDbEntity
  8
LAY-10
  6
HIDDEN
 62
     7
100
AcDbLine
 10
340.0
 20
984.99999999999
 30
0.0
 11
340.0
 21
1115.0
 31
0.0
  0
LINE
  5
427
330
1F
100
AcDbEntity
  8
LAY-10
  6
CONTINUOUS
 62
     7
100
AcDbLine
 10
327.3999999999676
 20
790.9971143170023
 30
0.0
 11
327.3999999999676
 21
797.9999999999654
 31
0.0
  0
LINE
  5
428
330
1F
100
AcDbEntity
  8
LAY-10
  6
CONTINUOUS
 62
     7
100
AcDbLine
 10
322.5999999999682
 20
790.9971143170023
 30
0.0
 11
322.5999999999682
 21
797.9999999999654
 31
0.0
  0
LINE
  5
429
330
1F
100
AcDbEntity
  8
LAY-10
  6
CONTINUOUS
 62
     7
100
AcDbLine
 10
327.3999999999676
 20
778.7999999999611
 30
0.0
 11
327.3999999999676
 21
786.9999999999601
 31
0.0
  0
LINE
  5
42A
330
1F
100
AcDbEntity
  8
LAY-10
  6
CONTINUOUS
 62
     7
100
AcDbLine
 10
322.5999999999682
 20
778.7999999999611
 30
0.0
 11
322.5999999999682
 21
786.9999999999601
 31
0.0
  0
LINE
  5
42B
330
1F
100
AcDbEntity
  8
LAY-10
  6
PHANTOM
 62
     7
100
AcDbLine
 10
317.4999999999984
 20
779.0000000000045
 30
0.0
 11
319.4999999999984
 21
779.0000000000045
 31
0.0
  0
LINE
  5
42C
330
1F
100
AcDbEntity
  8
LAY-10
  6
PHANTOM
 62
     7
100
AcDbLine
 10
319.4999999999984
 20
779.0
 30
0.0
 11
319.4999999999984
 21
798.0000000000001
 31
0.0
  0
LINE
  5
42D
330
1F
100
AcDbEntity
  8
LAY-10
  6
PHANTOM
 62
     7
100
AcDbLine
 10
317.4999999999986
 20
798.0000000000001
 30
0.0
 11
317.4999999999986
 21
779.0000000000045
 31
0.0
  0
LINE
  5
42E
330
1F
100
AcDbEntity
  8
LAY-10
  6
CONTINUOUS
 62
     7
100
AcDbLine
 10
1127.400000000028
 20
790.9971143170023
 30
0.0
 11
1127.400000000028
 21
797.9999999999654
 31
0.0
  0
LINE
  5
42F
330
1F
100
AcDbEntity
  8
LAY-10
  6
CONTINUOUS
 62
     7
100
AcDbLine
 10
1122.600000000028
 20
790.9971143170023
 30
0.0
 11
1122.600000000028
 21
797.9999999999654
 31
0.0
  0
LINE
  5
430
330
1F
100
AcDbEntity
  8
LAY-10
  6
CONTINUOUS
 62
     7
100
AcDbLine
 10
1127.400000000028
 20
778.7999999999611
 30
0.0
 11
1127.400000000028
 21
786.9999999999601
 31
0.0
  0
LINE
  5
431
330
1F
100
AcDbEntity
  8
LAY-10
  6
CONTINUOUS
 62
     7
100
AcDbLine
 10
1122.600000000028
 20
778.7999999999611
 30
0.0
 11
1122.600000000028
 21
786.9999999999601
 31
0.0
  0
LINE
  5
432
330
1F
100
AcDbEntity
  8
LAY-10
  6
PHANTOM
 62
     7
100
AcDbLine
 10
1117.500000000058
 20
779.0000000000045
 30
0.0
 11
1119.500000000058
 21
779.0000000000045
 31
0.0
  0
LINE
  5
433
330
1F
100
AcDbEntity
  8
LAY-10
  6
PHANTOM
 62
     7
100
AcDbLine
 10
1119.500000000058
 20
779.0
 30
0.0
 11
1119.500000000058
 21
798.0000000000001
 31
0.0
  0
LINE
  5
434
330
1F
100
AcDbEntity
  8
LAY-10
  6
PHANTOM
 62
     7
100
AcDbLine
 10
1117.500000000059
 20
798.0000000000001
 30
0.0
 11
1117.500000000059
 21
779.0000000000045
 31
0.0
  0
CIRCLE
  5
435
330
1F
100
AcDbEntity
  8
LAY-10
  6
CONTINUOUS
 62
     7
100
AcDbCircle
 10
1125.0
 20
694.49999999995
 30
0.0
 40
3.37500000001171
  0
CIRCLE
  5
436
330
1F
100
AcDbEntity
  8
LAY-10
  6
CONTINUOUS
 62
     7
100
AcDbCircle
 10
724.9999999999998
 20
694.49999999995
 30
0.0
 40
3.37500000001171
  0
CIRCLE
  5
437
330
1F
100
AcDbEntity
  8
LAY-10
  6
CONTINUOUS
 62
     7
100
AcDbCircle
 10
325.0
 20
694.49999999995
 30
0.0
 40
3.37500000001171
  0
LINE
  5
438
330
1F
100
AcDbEntity
  8
LAY-10
  6
CONTINUOUS
 62
     7
100
AcDbLine
 10
334.7355712752174
 20
1037.485551644926
 30
0.0
 11
336.9999999999868
 21
1039.749980369696
 31
0.0
  0
LINE
  5
439
330
1F
100
AcDbEntity
  8
LAY-10
  6
CONTINUOUS
 62
     7
100
AcDbLine
 10
342.9999999999868
 20
1080.249980369885
 30
0.0
 11
342.9999999999868
 21
1085.090663129943
 31
0.0
  0
LINE
  5
43A
330
1F
100
AcDbEntity
  8
LAY-10
  6
CONTINUOUS
 62
     7
100
AcDbLine
 10
343.1149924493293
 20
1085.134987920542
 30
0.0
 11
347.9999999999868
 21
1080.249980369885
 31
0.0
  0
LINE
  5
43B
330
1F
100
AcDbEntity
  8
LAY-10
  6
CONTINUOUS
 62
     7
100
AcDbLine
 10
347.9999999999868
 20
1085.249980369885
 30
0.0
 11
343.4205572760893
 21
1085.249980369885
 31
0.0
  0
LINE
  5
43C
330
1F
100
AcDbEntity
  8
LAY-10
  6
CONTINUOUS
 62
     7
100
AcDbLine
 10
342.4999999999868
 20
1084.891166620994
 30
0.0
 11
342.4999999999868
 21
1080.249980369885
 31
0.0
  0
LINE
  5
43D
330
1F
100
AcDbEntity
  8
LAY-10
  6
CONTINUOUS
 62
     7
100
AcDbLine
 10
341.8768532110694
 20
1084.626833580967
 30
0.0
 11
337.4999999999868
 21
1080.249980369885
 31
0.0
  0
LINE
  5
43E
330
1F
100
AcDbEntity
  8
LAY-10
  6
CONTINUOUS
 62
     7
100
AcDbLine
 10
337.4999999999868
 20
1080.249980369885
 30
0.0
 11
337.4999999999868
 21
1082.225393919935
 31
0.0
  0
LINE
  5
43F
330
1F
100
AcDbEntity
  8
LAY-10
  6
CONTINUOUS
 62
     7
100
AcDbLine
 10
339.3726726672057
 20
1083.377307702666
 30
0.0
 11
342.4999999999868
 21
1080.249980369885
 31
0.0
  0
LINE
  5
440
330
1F
100
AcDbEntity
  8
LAY-10
  6
CONTINUOUS
 62
     7
100
AcDbLine
 10
336.9999999999868
 20
1081.882441243695
 30
0.0
 11
336.9999999999868
 21
1080.249980369885
 31
0.0
  0
LINE
  5
441
330
1F
100
AcDbEntity
  8
LAY-10
  6
CONTINUOUS
 62
     7
100
AcDbLine
 10
336.0581242985613
 20
1081.19185607131
 30
0.0
 11
336.9999999999868
 21
1080.249980369885
 31
0.0
  0
LINE
  5
442
330
1F
100
AcDbEntity
  8
LAY-10
  6
CONTINUOUS
 62
     7
100
AcDbLine
 10
334.3230961227182
 20
1079.749980369885
 30
0.0
 11
336.9999999999868
 21
1079.749980369885
 31
0.0
  0
LINE
  5
443
330
1F
100
AcDbEntity
  8
LAY-10
  6
CONTINUOUS
 62
     7
100
AcDbLine
 10
336.9999999999868
 20
1080.249980369885
 30
0.0
 11
334.8932389540923
 21
1080.249980369885
 31
0.0
  0
LINE
  5
444
330
1F
100
AcDbEntity
  8
LAY-10
  6
CONTINUOUS
 62
     7
100
AcDbLine
 10
333.1349805667969
 20
1078.614999803074
 30
0.0
 11
336.9999999999868
 21
1074.749980369885
 31
0.0
  0
LINE
  5
445
330
1F
100
AcDbEntity
  8
LAY-10
  6
CONTINUOUS
 62
     7
100
AcDbLine
 10
331.9999999999868
 20
1077.395678797003
 30
0.0
 11
331.9999999999868
 21
1074.749980369885
 31
0.0
  0
LINE
  5
446
330
1F
100
AcDbEntity
  8
LAY-10
  6
CONTINUOUS
 62
     7
100
AcDbLine
 10
331.4999999999868
 20
1076.809699967715
 30
0.0
 11
331.4999999999868
 21
1074.749980369885
 31
0.0
  0
LINE
  5
447
330
1F
100
AcDbEntity
  8
LAY-10
  6
CONTINUOUS
 62
     7
100
AcDbLine
 10
330.5929353589918
 20
1075.65704501088
 30
0.0
 11
331.4999999999868
 21
1074.749980369885
 31
0.0
  0
LINE
  5
448
330
1F
100
AcDbEntity
  8
LAY-10
  6
CONTINUOUS
 62
     7
100
AcDbLine
 10
331.4999999999868
 20
1074.749980369885
 30
0.0
 11
329.9440867736034
 21
1074.749980369885
 31
0.0
  0
LINE
  5
449
330
1F
100
AcDbEntity
  8
LAY-10
  6
CONTINUOUS
 62
     7
100
AcDbLine
 10
325.9999999999868
 20
1065.249980369895
 30
0.0
 11
325.7475410938041
 21
1065.249980369895
 31
0.0
  0
LINE
  5
44A
330
1F
100
AcDbEntity
  8
LAY-10
  6
CONTINUOUS
 62
     7
100
AcDbLine
 10
325.9999999999868
 20
1065.249980369895
 30
0.0
 11
325.6726930057976
 21
1064.922673375705
 31
0.0
  0
LINE
  5
44B
330
1F
100
AcDbEntity
  8
LAY-10
  6
CONTINUOUS
 62
     7
100
AcDbLine
 10
325.0982349135201
 20
1061.151745456361
 30
0.0
 11
325.9999999999868
 21
1060.249980369895
 31
0.0
  0
LINE
  5
44C
330
1F
100
AcDbEntity
  8
LAY-10
  6
CONTINUOUS
 62
     7
100
AcDbLine
 10
325.9999999999868
 20
1060.249980369895
 30
0.0
 11
325.0373030411164
 21
1060.249980369895
 31
0.0
  0
LINE
  5
44D
330
1F
100
AcDbEntity
  8
LAY-10
  6
CONTINUOUS
 62
     7
100
AcDbLine
 10
325.0160063156754
 20
1059.749980369895
 30
0.0
 11
325.9999999999868
 21
1059.749980369895
 31
0.0
  0
LINE
  5
44E
330
1F
100
AcDbEntity
  8
LAY-10
  6
CONTINUOUS
 62
     7
100
AcDbLine
 10
325.9999999999868
 20
1059.749980369895
 30
0.0
 11
325.0000442478859
 21
1058.750024617794
 31
0.0
  0
LINE
  5
44F
330
1F
100
AcDbEntity
  8
LAY-10
  6
CONTINUOUS
 62
     7
100
AcDbLine
 10
325.1863206918733
 20
1055.563659678008
 30
0.0
 11
325.9999999999868
 21
1054.749980369895
 31
0.0
  0
LINE
  5
450
330
1F
100
AcDbEntity
  8
LAY-10
  6
CONTINUOUS
 62
     7
100
AcDbLine
 10
325.9999999999868
 20
1054.749980369895
 30
0.0
 11
325.2923397612853
 21
1054.749980369895
 31
0.0
  0
LINE
  5
451
330
1F
100
AcDbEntity
  8
LAY-10
  6
CONTINUOUS
 62
     7
100
AcDbLine
 10
331.4999999999868
 20
1045.249980369696
 30
0.0
 11
328.4686939286084
 21
1045.249980369696
 31
0.0
  0
LINE
  5
452
330
1F
100
AcDbEntity
  8
LAY-10
  6
CONTINUOUS
 62
     7
100
AcDbLine
 10
329.6054104807881
 20
1043.355390850497
 30
0.0
 11
331.4999999999868
 21
1045.249980369696
 31
0.0
  0
LINE
  5
453
330
1F
100
AcDbEntity
  8
LAY-10
  6
CONTINUOUS
 62
     7
100
AcDbLine
 10
331.4999999999868
 20
1040.790260771775
 30
0.0
 11
331.4999999999868
 21
1045.249980369696
 31
0.0
  0
LINE
  5
454
330
1F
100
AcDbEntity
  8
LAY-10
  6
CONTINUOUS
 62
     7
100
AcDbLine
 10
336.9999999999868
 20
1039.749980369696
 30
0.0
 11
332.4072729062259
 21
1039.749980369696
 31
0.0
  0
LINE
  5
455
330
1F
100
AcDbEntity
  8
LAY-10
  6
CONTINUOUS
 62
     7
100
AcDbLine
 10
337.4999999999868
 20
1039.749980369696
 30
0.0
 11
337.4999999999868
 21
1035.374566819555
 31
0.0
  0
LINE
  5
456
330
1F
100
AcDbEntity
  8
LAY-10
  6
CONTINUOUS
 62
     7
100
AcDbLine
 10
337.8765545491938
 20
1035.126534918903
 30
0.0
 11
342.4999999999868
 21
1039.749980369696
 31
0.0
  0
LINE
  5
457
330
1F
100
AcDbEntity
  8
LAY-10
  6
CONTINUOUS
 62
     7
100
AcDbLine
 10
342.4999999999868
 20
1034.749980369696
 30
0.0
 11
338.4745967798689
 21
1034.749980369696
 31
0.0
  0
LINE
  5
458
330
1F
100
AcDbEntity
  8
LAY-10
  6
CONTINUOUS
 62
     7
100
AcDbLine
 10
336.9999999999868
 20
1035.717519495794
 30
0.0
 11
336.9999999999868
 21
1039.749980369696
 31
0.0
  0
LINE
  5
459
330
1F
100
AcDbEntity
  8
LAY-10
  6
CONTINUOUS
 62
     7
100
AcDbLine
 10
369.9999999999868
 20
1036.150477063998
 30
0.0
 11
369.9999999999868
 21
1039.749980369696
 31
0.0
  0
LINE
  5
45A
330
1F
100
AcDbEntity
  8
LAY-10
  6
CONTINUOUS
 62
     7
100
AcDbLine
 10
367.9254032200924
 20
1034.749980369696
 30
0.0
 11
364.9999999999868
 21
1034.749980369696
 31
0.0
  0
LINE
  5
45B
330
1F
100
AcDbEntity
  8
LAY-10
  6
CONTINUOUS
 62
     7
100
AcDbLine
 10
369.1831456287146
 20
1035.566834740968
 30
0.0
 11
364.9999999999868
 21
1039.749980369696
 31
0.0
  0
LINE
  5
45C
330
1F
100
AcDbEntity
  8
LAY-10
  6
CONTINUOUS
 62
     7
100
AcDbLine
 10
370.4999999999868
 20
1039.749980369696
 30
0.0
 11
370.4999999999868
 21
1036.53004547992
 31
0.0
  0
LINE
  5
45D
330
1F
100
AcDbEntity
  8
LAY-10
  6
CONTINUOUS
 62
     7
100
AcDbLine
 10
372.2462041552953
 20
1038.003776214387
 30
0.0
 11
370.4999999999868
 21
1039.749980369696
 31
0.0
  0
LINE
  5
45E
330
1F
100
AcDbEntity
  8
LAY-10
  6
CONTINUOUS
 62
     7
100
AcDbLine
 10
373.9927270937359
 20
1039.749980369696
 30
0.0
 11
370.4999999999868
 21
1039.749980369696
 31
0.0
  0
LINE
  5
45F
330
1F
100
AcDbEntity
  8
LAY-10
  6
CONTINUOUS
 62
     7
100
AcDbLine
 10
370.4999999999868
 20
1040.249980369696
 30
0.0
 11
374.4399976458239
 21
1040.249980369696
 31
0.0
  0
LINE
  5
460
330
1F
100
AcDbEntity
  8
LAY-10
  6
CONTINUOUS
 62
     7
100
AcDbLine
 10
374.927062235372
 20
1040.82291813431
 30
0.0
 11
370.4999999999868
 21
1045.249980369696
 31
0.0
  0
LINE
  5
461
330
1F
100
AcDbEntity
  8
LAY-10
  6
CONTINUOUS
 62
     7
100
AcDbLine
 10
375.4999999999868
 20
1041.538752140068
 30
0.0
 11
375.4999999999868
 21
1045.249980369696
 31
0.0
  0
LINE
  5
462
330
1F
100
AcDbEntity
  8
LAY-10
  6
CONTINUOUS
 62
     7
100
AcDbLine
 10
375.9999999999868
 20
1042.204800346708
 30
0.0
 11
375.9999999999868
 21
1045.249980369696
 31
0.0
  0
LINE
  5
463
330
1F
100
AcDbEntity
  8
LAY-10
  6
CONTINUOUS
 62
     7
100
AcDbLine
 10
377.2216330840492
 20
1044.028347285633
 30
0.0
 11
375.9999999999868
 21
1045.249980369696
 31
0.0
  0
LINE
  5
464
330
1F
100
AcDbEntity
  8
LAY-10
  6
CONTINUOUS
 62
     7
100
AcDbLine
 10
377.9313060713534
 20
1045.249980369696
 30
0.0
 11
375.9999999999868
 21
1045.249980369696
 31
0.0
  0
LINE
  5
465
330
1F
100
AcDbEntity
  8
LAY-10
  6
CONTINUOUS
 62
     7
100
AcDbLine
 10
375.9999999999868
 20
1060.249980369896
 30
0.0
 11
380.7173387626863
 21
1064.967319132595
 31
0.0
  0
LINE
  5
466
330
1F
100
AcDbEntity
  8
LAY-10
  6
CONTINUOUS
 62
     7
100
AcDbLine
 10
380.6524589061573
 20
1065.249980369896
 30
0.0
 11
375.9999999999868
 21
1065.249980369896
 31
0.0
  0
LINE
  5
467
330
1F
100
AcDbEntity
  8
LAY-10
  6
CONTINUOUS
 62
     7
100
AcDbLine
 10
380.9999999999868
 20
1060.249980369896
 30
0.0
 11
380.9999999999868
 21
1063.5328441959
 31
0.0
  0
LINE
  5
468
330
1F
100
AcDbEntity
  8
LAY-10
  6
CONTINUOUS
 62
     7
100
AcDbLine
 10
376.4559132263576
 20
1074.749980369886
 30
0.0
 11
375.9999999999868
 21
1074.749980369886
 31
0.0
  0
LINE
  5
469
330
1F
100
AcDbEntity
  8
LAY-10
  6
CONTINUOUS
 62
     7
100
AcDbLine
 10
375.9999999999868
 20
1075.395160392781
 30
0.0
 11
375.9999999999868
 21
1074.749980369886
 31
0.0
  0
LINE
  5
46A
330
1F
100
AcDbEntity
  8
LAY-10
  6
CONTINUOUS
 62
     7
100
AcDbLine
 10
375.9999999999868
 20
1074.749980369886
 30
0.0
 11
376.2690671704131
 21
1075.019047540311
 31
0.0
  0
LINE
  5
46B
330
1F
100
AcDbEntity
  8
LAY-10
  6
CONTINUOUS
 62
     7
100
AcDbLine
 10
375.4999999999868
 20
1074.749980369886
 30
0.0
 11
375.4999999999868
 21
1076.061208599422
 31
0.0
  0
LINE
  5
46C
330
1F
100
AcDbEntity
  8
LAY-10
  6
CONTINUOUS
 62
     7
100
AcDbLine
 10
370.4999999999868
 20
1080.249980369886
 30
0.0
 11
371.5067610458686
 21
1080.249980369886
 31
0.0
  0
LINE
  5
46D
330
1F
100
AcDbEntity
  8
LAY-10
  6
CONTINUOUS
 62
     7
100
AcDbLine
 10
370.4999999999868
 20
1074.749980369886
 30
0.0
 11
373.8039832905565
 21
1078.053963660455
 31
0.0
  0
LINE
  5
46E
330
1F
100
AcDbEntity
  8
LAY-10
  6
CONTINUOUS
 62
     7
100
AcDbLine
 10
372.0769038772423
 20
1079.749980369886
 30
0.0
 11
370.4999999999868
 21
1079.749980369886
 31
0.0
  0
LINE
  5
46F
330
1F
100
AcDbEntity
  8
LAY-10
  6
CONTINUOUS
 62
     7
100
AcDbLine
 10
370.4999999999868
 20
1080.249980369886
 30
0.0
 11
370.9571550769178
 21
1080.707135446817
 31
0.0
  0
LINE
  5
470
330
1F
100
AcDbEntity
  8
LAY-10
  6
CONTINUOUS
 62
     7
100
AcDbLine
 10
370.4999999999868
 20
1080.249980369886
 30
0.0
 11
370.4999999999868
 21
1081.06991525957
 31
0.0
  0
LINE
  5
471
330
1F
100
AcDbEntity
  8
LAY-10
  6
CONTINUOUS
 62
     7
100
AcDbLine
 10
369.9999999999868
 20
1080.249980369886
 30
0.0
 11
369.9999999999868
 21
1081.449483675493
 31
0.0
  0
LINE
  5
472
330
1F
100
AcDbEntity
  8
LAY-10
  6
CONTINUOUS
 62
     7
100
AcDbLine
 10
364.9999999999868
 20
1080.249980369886
 30
0.0
 11
367.7228519478167
 21
1082.972832317716
 31
0.0
  0
LINE
  5
473
330
1F
100
AcDbEntity
  8
LAY-10
  6
CONTINUOUS
 62
     7
100
AcDbLine
 10
369.9999999999868
 20
1080.249980369886
 30
0.0
 11
366.681031981379
 21
1083.568948388493
 31
0.0
  0
LINE
  5
474
330
1F
100
AcDbEntity
  8
LAY-10
  6
CONTINUOUS
 62
     7
100
AcDbLine
 10
364.9999999999868
 20
1080.249980369886
 30
0.0
 11
364.9999999999868
 21
1084.41247731942
 31
0.0
  0
LINE
  5
475
330
1F
100
AcDbEntity
  8
LAY-10
  6
CONTINUOUS
 62
     7
100
AcDbLine
 10
364.4999999999868
 20
1080.249980369886
 30
0.0
 11
364.4999999999868
 21
1084.636969358347
 31
0.0
  0
LINE
  5
476
330
1F
100
AcDbEntity
  8
LAY-10
  6
CONTINUOUS
 62
     7
100
AcDbLine
 10
359.4999999999868
 20
1080.249980369886
 30
0.0
 11
364.0705787383977
 21
1084.820559108296
 31
0.0
  0
LINE
  5
477
330
1F
100
AcDbEntity
  8
LAY-10
  6
CONTINUOUS
 62
     7
100
AcDbLine
 10
362.9794427238699
 20
1085.249980369886
 30
0.0
 11
359.4999999999868
 21
1085.249980369886
 31
0.0
  0
CIRCLE
  5
478
330
1F
100
AcDbEntity
  8
LAY-10
  6
CONTINUOUS
 62
     7
100
AcDbCircle
 10
353.1999999999807
 20
1058.799980369745
 30
0.0
 40
28.19999999995139
  0
LINE
  5
479
330
1F
100
AcDbEntity
  8
LAY-10
  6
CONTINUOUS
 62
     7
100
AcDbLine
 10
353.9999999999868
 20
1080.249980369886
 30
0.0
 11
358.9999999999868
 21
1085.249980369886
 31
0.0
  0
LINE
  5
47A
330
1F
100
AcDbEntity
  8
LAY-10
  6
CONTINUOUS
 62
     7
100
AcDbLine
 10
348.4999999999868
 20
1080.249980369886
 30
0.0
 11
353.4999999999868
 21
1085.249980369886
 31
0.0
  0
LINE
  5
47B
330
1F
100
AcDbEntity
  8
LAY-10
  6
CONTINUOUS
 62
     7
100
AcDbLine
 10
348.4999999999868
 20
1074.749980369886
 30
0.0
 11
353.4999999999868
 21
1079.749980369886
 31
0.0
  0
LINE
  5
47C
330
1F
100
AcDbEntity
  8
LAY-10
  6
CONTINUOUS
 62
     7
100
AcDbLine
 10
353.9999999999868
 20
1074.749980369886
 30
0.0
 11
358.9999999999868
 21
1079.749980369886
 31
0.0
  0
LINE
  5
47D
330
1F
100
AcDbEntity
  8
LAY-10
  6
CONTINUOUS
 62
     7
100
AcDbLine
 10
353.4999999999868
 20
1080.249980369886
 30
0.0
 11
348.4999999999868
 21
1085.249980369886
 31
0.0
  0
LINE
  5
47E
330
1F
100
AcDbEntity
  8
LAY-10
  6
CONTINUOUS
 62
     7
100
AcDbLine
 10
358.9999999999868
 20
1080.249980369886
 30
0.0
 11
353.9999999999868
 21
1085.249980369886
 31
0.0
  0
LINE
  5
47F
330
1F
100
AcDbEntity
  8
LAY-10
  6
CONTINUOUS
 62
     7
100
AcDbLine
 10
353.4999999999868
 20
1074.749980369886
 30
0.0
 11
348.4999999999868
 21
1079.749980369886
 31
0.0
  0
LINE
  5
480
330
1F
100
AcDbEntity
  8
LAY-10
  6
CONTINUOUS
 62
     7
100
AcDbLine
 10
358.9999999999868
 20
1074.749980369886
 30
0.0
 11
353.9999999999868
 21
1079.749980369886
 31
0.0
  0
LINE
  5
481
330
1F
100
AcDbEntity
  8
LAY-10
  6
CONTINUOUS
 62
     7
100
AcDbLine
 10
353.4999999999868
 20
1085.249980369886
 30
0.0
 11
348.4999999999868
 21
1085.249980369886
 31
0.0
  0
LINE
  5
482
330
1F
100
AcDbEntity
  8
LAY-10
  6
CONTINUOUS
 62
     7
100
AcDbLine
 10
353.4999999999868
 20
1080.249980369886
 30
0.0
 11
353.4999999999868
 21
1085.249980369886
 31
0.0
  0
LINE
  5
483
330
1F
100
AcDbEntity
  8
LAY-10
  6
CONTINUOUS
 62
     7
100
AcDbLine
 10
348.4999999999868
 20
1080.249980369886
 30
0.0
 11
348.4999999999868
 21
1085.249980369886
 31
0.0
  0
LINE
  5
484
330
1F
100
AcDbEntity
  8
LAY-10
  6
CONTINUOUS
 62
     7
100
AcDbLine
 10
348.4999999999868
 20
1080.249980369886
 30
0.0
 11
353.4999999999868
 21
1080.249980369886
 31
0.0
  0
LINE
  5
485
330
1F
100
AcDbEntity
  8
LAY-10
  6
CONTINUOUS
 62
     7
100
AcDbLine
 10
358.9999999999868
 20
1085.249980369886
 30
0.0
 11
353.9999999999868
 21
1085.249980369886
 31
0.0
  0
LINE
  5
486
330
1F
100
AcDbEntity
  8
LAY-10
  6
CONTINUOUS
 62
     7
100
AcDbLine
 10
358.9999999999868
 20
1080.249980369886
 30
0.0
 11
358.9999999999868
 21
1085.249980369886
 31
0.0
  0
LINE
  5
487
330
1F
100
AcDbEntity
  8
LAY-10
  6
CONTINUOUS
 62
     7
100
AcDbLine
 10
353.9999999999868
 20
1080.249980369886
 30
0.0
 11
353.9999999999868
 21
1085.249980369886
 31
0.0
  0
LINE
  5
488
330
1F
100
AcDbEntity
  8
LAY-10
  6
CONTINUOUS
 62
     7
100
AcDbLine
 10
353.9999999999868
 20
1080.249980369886
 30
0.0
 11
358.9999999999868
 21
1080.249980369886
 31
0.0
  0
LINE
  5
489
330
1F
100
AcDbEntity
  8
LAY-10
  6
CONTINUOUS
 62
     7
100
AcDbLine
 10
348.4999999999868
 20
1079.749980369886
 30
0.0
 11
348.4999999999868
 21
1074.749980369886
 31
0.0
  0
LINE
  5
48A
330
1F
100
AcDbEntity
  8
LAY-10
  6
CONTINUOUS
 62
     7
100
AcDbLine
 10
353.4999999999868
 20
1079.749980369886
 30
0.0
 11
348.4999999999868
 21
1079.749980369886
 31
0.0
  0
LINE
  5
48B
330
1F
100
AcDbEntity
  8
LAY-10
  6
CONTINUOUS
 62
     7
100
AcDbLine
 10
353.4999999999868
 20
1074.749980369886
 30
0.0
 11
348.4999999999868
 21
1074.749980369886
 31
0.0
  0
LINE
  5
48C
330
1F
100
AcDbEntity
  8
LAY-10
  6
CONTINUOUS
 62
     7
100
AcDbLine
 10
353.4999999999868
 20
1074.749980369886
 30
0.0
 11
353.4999999999868
 21
1079.749980369886
 31
0.0
  0
LINE
  5
48D
330
1F
100
AcDbEntity
  8
LAY-10
  6
CONTINUOUS
 62
     7
100
AcDbLine
 10
353.9999999999868
 20
1079.749980369886
 30
0.0
 11
353.9999999999868
 21
1074.749980369886
 31
0.0
  0
LINE
  5
48E
330
1F
100
AcDbEntity
  8
LAY-10
  6
CONTINUOUS
 62
     7
100
AcDbLine
 10
358.9999999999868
 20
1079.749980369886
 30
0.0
 11
353.9999999999868
 21
1079.749980369886
 31
0.0
  0
LINE
  5
48F
330
1F
100
AcDbEntity
  8
LAY-10
  6
CONTINUOUS
 62
     7
100
AcDbLine
 10
358.9999999999868
 20
1074.749980369886
 30
0.0
 11
353.9999999999868
 21
1074.749980369886
 31
0.0
  0
LINE
  5
490
330
1F
100
AcDbEntity
  8
LAY-10
  6
CONTINUOUS
 62
     7
100
AcDbLine
 10
358.9999999999868
 20
1074.749980369886
 30
0.0
 11
358.9999999999868
 21
1079.749980369886
 31
0.0
  0
LINE
  5
491
330
1F
100
AcDbEntity
  8
LAY-10
  6
CONTINUOUS
 62
     7
100
AcDbLine
 10
364.4999999999868
 20
1074.749980369886
 30
0.0
 11
364.4999999999868
 21
1079.749980369886
 31
0.0
  0
LINE
  5
492
330
1F
100
AcDbEntity
  8
LAY-10
  6
CONTINUOUS
 62
     7
100
AcDbLine
 10
364.4999999999868
 20
1074.749980369886
 30
0.0
 11
359.4999999999868
 21
1074.749980369886
 31
0.0
  0
LINE
  5
493
330
1F
100
AcDbEntity
  8
LAY-10
  6
CONTINUOUS
 62
     7
100
AcDbLine
 10
364.4999999999868
 20
1079.749980369886
 30
0.0
 11
359.4999999999868
 21
1079.749980369886
 31
0.0
  0
LINE
  5
494
330
1F
100
AcDbEntity
  8
LAY-10
  6
CONTINUOUS
 62
     7
100
AcDbLine
 10
359.4999999999868
 20
1079.749980369886
 30
0.0
 11
359.4999999999868
 21
1074.749980369886
 31
0.0
  0
LINE
  5
495
330
1F
100
AcDbEntity
  8
LAY-10
  6
CONTINUOUS
 62
     7
100
AcDbLine
 10
359.4999999999868
 20
1080.249980369886
 30
0.0
 11
364.4999999999868
 21
1080.249980369886
 31
0.0
  0
LINE
  5
496
330
1F
100
AcDbEntity
  8
LAY-10
  6
CONTINUOUS
 62
     7
100
AcDbLine
 10
359.4999999999868
 20
1080.249980369886
 30
0.0
 11
359.4999999999868
 21
1085.249980369886
 31
0.0
  0
LINE
  5
497
330
1F
100
AcDbEntity
  8
LAY-10
  6
CONTINUOUS
 62
     7
100
AcDbLine
 10
364.4999999999868
 20
1074.749980369886
 30
0.0
 11
359.4999999999868
 21
1079.749980369886
 31
0.0
  0
LINE
  5
498
330
1F
100
AcDbEntity
  8
LAY-10
  6
CONTINUOUS
 62
     7
100
AcDbLine
 10
364.4999999999868
 20
1080.249980369886
 30
0.0
 11
359.4999999999868
 21
1085.249980369886
 31
0.0
  0
LINE
  5
499
330
1F
100
AcDbEntity
  8
LAY-10
  6
CONTINUOUS
 62
     7
100
AcDbLine
 10
359.4999999999868
 20
1074.749980369886
 30
0.0
 11
364.4999999999868
 21
1079.749980369886
 31
0.0
  0
LINE
  5
49A
330
1F
100
AcDbEntity
  8
LAY-10
  6
CONTINUOUS
 62
     7
100
AcDbLine
 10
364.9999999999868
 20
1074.749980369886
 30
0.0
 11
369.9999999999868
 21
1079.749980369886
 31
0.0
  0
LINE
  5
49B
330
1F
100
AcDbEntity
  8
LAY-10
  6
CONTINUOUS
 62
     7
100
AcDbLine
 10
369.9999999999868
 20
1074.749980369886
 30
0.0
 11
364.9999999999868
 21
1079.749980369886
 31
0.0
  0
LINE
  5
49C
330
1F
100
AcDbEntity
  8
LAY-10
  6
CONTINUOUS
 62
     7
100
AcDbLine
 10
375.4999999999868
 20
1074.749980369886
 30
0.0
 11
370.4999999999868
 21
1079.749980369886
 31
0.0
  0
LINE
  5
49D
330
1F
100
AcDbEntity
  8
LAY-10
  6
CONTINUOUS
 62
     7
100
AcDbLine
 10
364.9999999999868
 20
1080.249980369886
 30
0.0
 11
369.9999999999868
 21
1080.249980369886
 31
0.0
  0
LINE
  5
49E
330
1F
100
AcDbEntity
  8
LAY-10
  6
CONTINUOUS
 62
     7
100
AcDbLine
 10
364.9999999999868
 20
1079.749980369886
 30
0.0
 11
364.9999999999868
 21
1074.749980369886
 31
0.0
  0
LINE
  5
49F
330
1F
100
AcDbEntity
  8
LAY-10
  6
CONTINUOUS
 62
     7
100
AcDbLine
 10
369.9999999999868
 20
1079.749980369886
 30
0.0
 11
364.9999999999868
 21
1079.749980369886
 31
0.0
  0
LINE
  5
4A0
330
1F
100
AcDbEntity
  8
LAY-10
  6
CONTINUOUS
 62
     7
100
AcDbLine
 10
369.9999999999868
 20
1074.749980369886
 30
0.0
 11
364.9999999999868
 21
1074.749980369886
 31
0.0
  0
LINE
  5
4A1
330
1F
100
AcDbEntity
  8
LAY-10
  6
CONTINUOUS
 62
     7
100
AcDbLine
 10
369.9999999999868
 20
1074.749980369886
 30
0.0
 11
369.9999999999868
 21
1079.749980369886
 31
0.0
  0
LINE
  5
4A2
330
1F
100
AcDbEntity
  8
LAY-10
  6
CONTINUOUS
 62
     7
100
AcDbLine
 10
370.4999999999868
 20
1079.749980369886
 30
0.0
 11
370.4999999999868
 21
1074.749980369886
 31
0.0
  0
LINE
  5
4A3
330
1F
100
AcDbEntity
  8
LAY-10
  6
CONTINUOUS
 62
     7
100
AcDbLine
 10
375.4999999999868
 20
1074.749980369886
 30
0.0
 11
370.4999999999868
 21
1074.749980369886
 31
0.0
  0
LINE
  5
4A4
330
1F
100
AcDbEntity
  8
LAY-10
  6
CONTINUOUS
 62
     7
100
AcDbLine
 10
353.9999999999868
 20
1060.249980369896
 30
0.0
 11
358.9999999999868
 21
1065.249980369896
 31
0.0
  0
LINE
  5
4A5
330
1F
100
AcDbEntity
  8
LAY-10
  6
CONTINUOUS
 62
     7
100
AcDbLine
 10
348.4999999999868
 20
1060.249980369896
 30
0.0
 11
353.4999999999868
 21
1065.249980369896
 31
0.0
  0
LINE
  5
4A6
330
1F
100
AcDbEntity
  8
LAY-10
  6
CONTINUOUS
 62
     7
100
AcDbLine
 10
348.4999999999868
 20
1054.749980369896
 30
0.0
 11
353.4999999999868
 21
1059.749980369896
 31
0.0
  0
LINE
  5
4A7
330
1F
100
AcDbEntity
  8
LAY-10
  6
CONTINUOUS
 62
     7
100
AcDbLine
 10
353.9999999999868
 20
1054.749980369896
 30
0.0
 11
358.9999999999868
 21
1059.749980369896
 31
0.0
  0
LINE
  5
4A8
330
1F
100
AcDbEntity
  8
LAY-10
  6
CONTINUOUS
 62
     7
100
AcDbLine
 10
353.4999999999868
 20
1060.249980369896
 30
0.0
 11
348.4999999999868
 21
1065.249980369896
 31
0.0
  0
LINE
  5
4A9
330
1F
100
AcDbEntity
  8
LAY-10
  6
CONTINUOUS
 62
     7
100
AcDbLine
 10
358.9999999999868
 20
1060.249980369896
 30
0.0
 11
353.9999999999868
 21
1065.249980369896
 31
0.0
  0
LINE
  5
4AA
330
1F
100
AcDbEntity
  8
LAY-10
  6
CONTINUOUS
 62
     7
100
AcDbLine
 10
353.4999999999868
 20
1054.749980369896
 30
0.0
 11
348.4999999999868
 21
1059.749980369896
 31
0.0
  0
LINE
  5
4AB
330
1F
100
AcDbEntity
  8
LAY-10
  6
CONTINUOUS
 62
     7
100
AcDbLine
 10
358.9999999999868
 20
1054.749980369896
 30
0.0
 11
353.9999999999868
 21
1059.749980369896
 31
0.0
  0
LINE
  5
4AC
330
1F
100
AcDbEntity
  8
LAY-10
  6
CONTINUOUS
 62
     7
100
AcDbLine
 10
353.4999999999868
 20
1065.249980369896
 30
0.0
 11
348.4999999999868
 21
1065.249980369896
 31
0.0
  0
LINE
  5
4AD
330
1F
100
AcDbEntity
  8
LAY-10
  6
CONTINUOUS
 62
     7
100
AcDbLine
 10
353.4999999999868
 20
1060.249980369896
 30
0.0
 11
353.4999999999868
 21
1065.249980369896
 31
0.0
  0
LINE
  5
4AE
330
1F
100
AcDbEntity
  8
LAY-10
  6
CONTINUOUS
 62
     7
100
AcDbLine
 10
348.4999999999868
 20
1060.249980369896
 30
0.0
 11
348.4999999999868
 21
1065.249980369896
 31
0.0
  0
LINE
  5
4AF
330
1F
100
AcDbEntity
  8
LAY-10
  6
CONTINUOUS
 62
     7
100
AcDbLine
 10
348.4999999999868
 20
1060.249980369896
 30
0.0
 11
353.4999999999868
 21
1060.249980369896
 31
0.0
  0
LINE
  5
4B0
330
1F
100
AcDbEntity
  8
LAY-10
  6
CONTINUOUS
 62
     7
100
AcDbLine
 10
358.9999999999868
 20
1065.249980369896
 30
0.0
 11
353.9999999999868
 21
1065.249980369896
 31
0.0
  0
LINE
  5
4B1
330
1F
100
AcDbEntity
  8
LAY-10
  6
CONTINUOUS
 62
     7
100
AcDbLine
 10
358.9999999999868
 20
1060.249980369896
 30
0.0
 11
358.9999999999868
 21
1065.249980369896
 31
0.0
  0
LINE
  5
4B2
330
1F
100
AcDbEntity
  8
LAY-10
  6
CONTINUOUS
 62
     7
100
AcDbLine
 10
353.9999999999868
 20
1060.249980369896
 30
0.0
 11
353.9999999999868
 21
1065.249980369896
 31
0.0
  0
LINE
  5
4B3
330
1F
100
AcDbEntity
  8
LAY-10
  6
CONTINUOUS
 62
     7
100
AcDbLine
 10
353.9999999999868
 20
1060.249980369896
 30
0.0
 11
358.9999999999868
 21
1060.249980369896
 31
0.0
  0
LINE
  5
4B4
330
1F
100
AcDbEntity
  8
LAY-10
  6
CONTINUOUS
 62
     7
100
AcDbLine
 10
348.4999999999868
 20
1059.749980369896
 30
0.0
 11
348.4999999999868
 21
1054.749980369896
 31
0.0
  0
LINE
  5
4B5
330
1F
100
AcDbEntity
  8
LAY-10
  6
CONTINUOUS
 62
     7
100
AcDbLine
 10
353.4999999999868
 20
1059.749980369896
 30
0.0
 11
348.4999999999868
 21
1059.749980369896
 31
0.0
  0
LINE
  5
4B6
330
1F
100
AcDbEntity
  8
LAY-10
  6
CONTINUOUS
 62
     7
100
AcDbLine
 10
353.4999999999868
 20
1054.749980369896
 30
0.0
 11
348.4999999999868
 21
1054.749980369896
 31
0.0
  0
LINE
  5
4B7
330
1F
100
AcDbEntity
  8
LAY-10
  6
CONTINUOUS
 62
     7
100
AcDbLine
 10
353.4999999999868
 20
1054.749980369896
 30
0.0
 11
353.4999999999868
 21
1059.749980369896
 31
0.0
  0
LINE
  5
4B8
330
1F
100
AcDbEntity
  8
LAY-10
  6
CONTINUOUS
 62
     7
100
AcDbLine
 10
353.9999999999868
 20
1059.749980369896
 30
0.0
 11
353.9999999999868
 21
1054.749980369896
 31
0.0
  0
LINE
  5
4B9
330
1F
100
AcDbEntity
  8
LAY-10
  6
CONTINUOUS
 62
     7
100
AcDbLine
 10
358.9999999999868
 20
1059.749980369896
 30
0.0
 11
353.9999999999868
 21
1059.749980369896
 31
0.0
  0
LINE
  5
4BA
330
1F
100
AcDbEntity
  8
LAY-10
  6
CONTINUOUS
 62
     7
100
AcDbLine
 10
358.9999999999868
 20
1054.749980369896
 30
0.0
 11
353.9999999999868
 21
1054.749980369896
 31
0.0
  0
LINE
  5
4BB
330
1F
100
AcDbEntity
  8
LAY-10
  6
CONTINUOUS
 62
     7
100
AcDbLine
 10
358.9999999999868
 20
1054.749980369896
 30
0.0
 11
358.9999999999868
 21
1059.749980369896
 31
0.0
  0
LINE
  5
4BC
330
1F
100
AcDbEntity
  8
LAY-10
  6
CONTINUOUS
 62
     7
100
AcDbLine
 10
364.4999999999868
 20
1054.749980369896
 30
0.0
 11
364.4999999999868
 21
1059.749980369896
 31
0.0
  0
LINE
  5
4BD
330
1F
100
AcDbEntity
  8
LAY-10
  6
CONTINUOUS
 62
     7
100
AcDbLine
 10
364.4999999999868
 20
1054.749980369896
 30
0.0
 11
359.4999999999868
 21
1054.749980369896
 31
0.0
  0
LINE
  5
4BE
330
1F
100
AcDbEntity
  8
LAY-10
  6
CONTINUOUS
 62
     7
100
AcDbLine
 10
364.4999999999868
 20
1059.749980369896
 30
0.0
 11
359.4999999999868
 21
1059.749980369896
 31
0.0
  0
LINE
  5
4BF
330
1F
100
AcDbEntity
  8
LAY-10
  6
CONTINUOUS
 62
     7
100
AcDbLine
 10
359.4999999999868
 20
1059.749980369896
 30
0.0
 11
359.4999999999868
 21
1054.749980369896
 31
0.0
  0
LINE
  5
4C0
330
1F
100
AcDbEntity
  8
LAY-10
  6
CONTINUOUS
 62
     7
100
AcDbLine
 10
359.4999999999868
 20
1060.249980369896
 30
0.0
 11
364.4999999999868
 21
1060.249980369896
 31
0.0
  0
LINE
  5
4C1
330
1F
100
AcDbEntity
  8
LAY-10
  6
CONTINUOUS
 62
     7
100
AcDbLine
 10
359.4999999999868
 20
1060.249980369896
 30
0.0
 11
359.4999999999868
 21
1065.249980369896
 31
0.0
  0
LINE
  5
4C2
330
1F
100
AcDbEntity
  8
LAY-10
  6
CONTINUOUS
 62
     7
100
AcDbLine
 10
364.4999999999868
 20
1060.249980369896
 30
0.0
 11
364.4999999999868
 21
1065.249980369896
 31
0.0
  0
LINE
  5
4C3
330
1F
100
AcDbEntity
  8
LAY-10
  6
CONTINUOUS
 62
     7
100
AcDbLine
 10
364.4999999999868
 20
1065.249980369896
 30
0.0
 11
359.4999999999868
 21
1065.249980369896
 31
0.0
  0
LINE
  5
4C4
330
1F
100
AcDbEntity
  8
LAY-10
  6
CONTINUOUS
 62
     7
100
AcDbLine
 10
364.4999999999868
 20
1054.749980369896
 30
0.0
 11
359.4999999999868
 21
1059.749980369896
 31
0.0
  0
LINE
  5
4C5
330
1F
100
AcDbEntity
  8
LAY-10
  6
CONTINUOUS
 62
     7
100
AcDbLine
 10
364.4999999999868
 20
1060.249980369896
 30
0.0
 11
359.4999999999868
 21
1065.249980369896
 31
0.0
  0
LINE
  5
4C6
330
1F
100
AcDbEntity
  8
LAY-10
  6
CONTINUOUS
 62
     7
100
AcDbLine
 10
359.4999999999868
 20
1054.749980369896
 30
0.0
 11
364.4999999999868
 21
1059.749980369896
 31
0.0
  0
LINE
  5
4C7
330
1F
100
AcDbEntity
  8
LAY-10
  6
CONTINUOUS
 62
     7
100
AcDbLine
 10
359.4999999999868
 20
1060.249980369896
 30
0.0
 11
364.4999999999868
 21
1065.249980369896
 31
0.0
  0
LINE
  5
4C8
330
1F
100
AcDbEntity
  8
LAY-10
  6
CONTINUOUS
 62
     7
100
AcDbLine
 10
370.4999999999868
 20
1060.249980369896
 30
0.0
 11
375.4999999999868
 21
1065.249980369896
 31
0.0
  0
LINE
  5
4C9
330
1F
100
AcDbEntity
  8
LAY-10
  6
CONTINUOUS
 62
     7
100
AcDbLine
 10
364.9999999999868
 20
1060.249980369896
 30
0.0
 11
369.9999999999868
 21
1065.249980369896
 31
0.0
  0
LINE
  5
4CA
330
1F
100
AcDbEntity
  8
LAY-10
  6
CONTINUOUS
 62
     7
100
AcDbLine
 10
364.9999999999868
 20
1054.749980369896
 30
0.0
 11
369.9999999999868
 21
1059.749980369896
 31
0.0
  0
LINE
  5
4CB
330
1F
100
AcDbEntity
  8
LAY-10
  6
CONTINUOUS
 62
     7
100
AcDbLine
 10
370.4999999999868
 20
1054.749980369896
 30
0.0
 11
375.4999999999868
 21
1059.749980369896
 31
0.0
  0
LINE
  5
4CC
330
1F
100
AcDbEntity
  8
LAY-10
  6
CONTINUOUS
 62
     7
100
AcDbLine
 10
375.9999999999868
 20
1054.749980369896
 30
0.0
 11
380.9999999999868
 21
1059.749980369896
 31
0.0
  0
LINE
  5
4CD
330
1F
100
AcDbEntity
  8
LAY-10
  6
CONTINUOUS
 62
     7
100
AcDbLine
 10
369.9999999999868
 20
1060.249980369896
 30
0.0
 11
364.9999999999868
 21
1065.249980369896
 31
0.0
  0
LINE
  5
4CE
330
1F
100
AcDbEntity
  8
LAY-10
  6
CONTINUOUS
 62
     7
100
AcDbLine
 10
375.4999999999868
 20
1060.249980369896
 30
0.0
 11
370.4999999999868
 21
1065.249980369896
 31
0.0
  0
LINE
  5
4CF
330
1F
100
AcDbEntity
  8
LAY-10
  6
CONTINUOUS
 62
     7
100
AcDbLine
 10
380.9999999999868
 20
1060.249980369896
 30
0.0
 11
375.9999999999868
 21
1065.249980369896
 31
0.0
  0
LINE
  5
4D0
330
1F
100
AcDbEntity
  8
LAY-10
  6
CONTINUOUS
 62
     7
100
AcDbLine
 10
369.9999999999868
 20
1054.749980369896
 30
0.0
 11
364.9999999999868
 21
1059.749980369896
 31
0.0
  0
LINE
  5
4D1
330
1F
100
AcDbEntity
  8
LAY-10
  6
CONTINUOUS
 62
     7
100
AcDbLine
 10
375.4999999999868
 20
1054.749980369896
 30
0.0
 11
370.4999999999868
 21
1059.749980369896
 31
0.0
  0
LINE
  5
4D2
330
1F
100
AcDbEntity
  8
LAY-10
  6
CONTINUOUS
 62
     7
100
AcDbLine
 10
380.9999999999868
 20
1054.749980369896
 30
0.0
 11
375.9999999999868
 21
1059.749980369896
 31
0.0
  0
LINE
  5
4D3
330
1F
100
AcDbEntity
  8
LAY-10
  6
CONTINUOUS
 62
     7
100
AcDbLine
 10
369.9999999999868
 20
1065.249980369896
 30
0.0
 11
364.9999999999868
 21
1065.249980369896
 31
0.0
  0
LINE
  5
4D4
330
1F
100
AcDbEntity
  8
LAY-10
  6
CONTINUOUS
 62
     7
100
AcDbLine
 10
369.9999999999868
 20
1060.249980369896
 30
0.0
 11
369.9999999999868
 21
1065.249980369896
 31
0.0
  0
LINE
  5
4D5
330
1F
100
AcDbEntity
  8
LAY-10
  6
CONTINUOUS
 62
     7
100
AcDbLine
 10
364.9999999999868
 20
1060.249980369896
 30
0.0
 11
364.9999999999868
 21
1065.249980369896
 31
0.0
  0
LINE
  5
4D6
330
1F
100
AcDbEntity
  8
LAY-10
  6
CONTINUOUS
 62
     7
100
AcDbLine
 10
364.9999999999868
 20
1060.249980369896
 30
0.0
 11
369.9999999999868
 21
1060.249980369896
 31
0.0
  0
LINE
  5
4D7
330
1F
100
AcDbEntity
  8
LAY-10
  6
CONTINUOUS
 62
     7
100
AcDbLine
 10
375.4999999999868
 20
1065.249980369896
 30
0.0
 11
370.4999999999868
 21
1065.249980369896
 31
0.0
  0
LINE
  5
4D8
330
1F
100
AcDbEntity
  8
LAY-10
  6
CONTINUOUS
 62
     7
100
AcDbLine
 10
375.4999999999868
 20
1060.249980369896
 30
0.0
 11
375.4999999999868
 21
1065.249980369896
 31
0.0
  0
LINE
  5
4D9
330
1F
100
AcDbEntity
  8
LAY-10
  6
CONTINUOUS
 62
     7
100
AcDbLine
 10
370.4999999999868
 20
1060.249980369896
 30
0.0
 11
370.4999999999868
 21
1065.249980369896
 31
0.0
  0
LINE
  5
4DA
330
1F
100
AcDbEntity
  8
LAY-10
  6
CONTINUOUS
 62
     7
100
AcDbLine
 10
370.4999999999868
 20
1060.249980369896
 30
0.0
 11
375.4999999999868
 21
1060.249980369896
 31
0.0
  0
LINE
  5
4DB
330
1F
100
AcDbEntity
  8
LAY-10
  6
CONTINUOUS
 62
     7
100
AcDbLine
 10
375.9999999999868
 20
1060.249980369896
 30
0.0
 11
375.9999999999868
 21
1065.249980369896
 31
0.0
  0
LINE
  5
4DC
330
1F
100
AcDbEntity
  8
LAY-10
  6
CONTINUOUS
 62
     7
100
AcDbLine
 10
375.9999999999868
 20
1060.249980369896
 30
0.0
 11
380.9999999999868
 21
1060.249980369896
 31
0.0
  0
LINE
  5
4DD
330
1F
100
AcDbEntity
  8
LAY-10
  6
CONTINUOUS
 62
     7
100
AcDbLine
 10
364.9999999999868
 20
1059.749980369896
 30
0.0
 11
364.9999999999868
 21
1054.749980369896
 31
0.0
  0
LINE
  5
4DE
330
1F
100
AcDbEntity
  8
LAY-10
  6
CONTINUOUS
 62
     7
100
AcDbLine
 10
369.9999999999868
 20
1059.749980369896
 30
0.0
 11
364.9999999999868
 21
1059.749980369896
 31
0.0
  0
LINE
  5
4DF
330
1F
100
AcDbEntity
  8
LAY-10
  6
CONTINUOUS
 62
     7
100
AcDbLine
 10
369.9999999999868
 20
1054.749980369896
 30
0.0
 11
364.9999999999868
 21
1054.749980369896
 31
0.0
  0
LINE
  5
4E0
330
1F
100
AcDbEntity
  8
LAY-10
  6
CONTINUOUS
 62
     7
100
AcDbLine
 10
369.9999999999868
 20
1054.749980369896
 30
0.0
 11
369.9999999999868
 21
1059.749980369896
 31
0.0
  0
LINE
  5
4E1
330
1F
100
AcDbEntity
  8
LAY-10
  6
CONTINUOUS
 62
     7
100
AcDbLine
 10
370.4999999999868
 20
1059.749980369896
 30
0.0
 11
370.4999999999868
 21
1054.749980369896
 31
0.0
  0
LINE
  5
4E2
330
1F
100
AcDbEntity
  8
LAY-10
  6
CONTINUOUS
 62
     7
100
AcDbLine
 10
375.4999999999868
 20
1059.749980369896
 30
0.0
 11
370.4999999999868
 21
1059.749980369896
 31
0.0
  0
LINE
  5
4E3
330
1F
100
AcDbEntity
  8
LAY-10
  6
CONTINUOUS
 62
     7
100
AcDbLine
 10
375.4999999999868
 20
1054.749980369896
 30
0.0
 11
370.4999999999868
 21
1054.749980369896
 31
0.0
  0
LINE
  5
4E4
330
1F
100
AcDbEntity
  8
LAY-10
  6
CONTINUOUS
 62
     7
100
AcDbLine
 10
375.4999999999868
 20
1054.749980369896
 30
0.0
 11
375.4999999999868
 21
1059.749980369896
 31
0.0
  0
LINE
  5
4E5
330
1F
100
AcDbEntity
  8
LAY-10
  6
CONTINUOUS
 62
     7
100
AcDbLine
 10
375.9999999999868
 20
1059.749980369896
 30
0.0
 11
375.9999999999868
 21
1054.749980369896
 31
0.0
  0
LINE
  5
4E6
330
1F
100
AcDbEntity
  8
LAY-10
  6
CONTINUOUS
 62
     7
100
AcDbLine
 10
380.9999999999868
 20
1059.749980369896
 30
0.0
 11
375.9999999999868
 21
1059.749980369896
 31
0.0
  0
LINE
  5
4E7
330
1F
100
AcDbEntity
  8
LAY-10
  6
CONTINUOUS
 62
     7
100
AcDbLine
 10
380.9999999999868
 20
1054.749980369896
 30
0.0
 11
375.9999999999868
 21
1054.749980369896
 31
0.0
  0
LINE
  5
4E8
330
1F
100
AcDbEntity
  8
LAY-10
  6
CONTINUOUS
 62
     7
100
AcDbLine
 10
380.9999999999868
 20
1054.749980369896
 30
0.0
 11
380.9999999999868
 21
1059.749980369896
 31
0.0
  0
LINE
  5
4E9
330
1F
100
AcDbEntity
  8
LAY-10
  6
CONTINUOUS
 62
     7
100
AcDbLine
 10
353.9999999999868
 20
1040.249980369696
 30
0.0
 11
358.9999999999868
 21
1045.249980369696
 31
0.0
  0
LINE
  5
4EA
330
1F
100
AcDbEntity
  8
LAY-10
  6
CONTINUOUS
 62
     7
100
AcDbLine
 10
348.4999999999868
 20
1040.249980369696
 30
0.0
 11
353.4999999999868
 21
1045.249980369696
 31
0.0
  0
LINE
  5
4EB
330
1F
100
AcDbEntity
  8
LAY-10
  6
CONTINUOUS
 62
     7
100
AcDbLine
 10
348.4999999999868
 20
1034.749980369696
 30
0.0
 11
353.4999999999868
 21
1039.749980369696
 31
0.0
  0
LINE
  5
4EC
330
1F
100
AcDbEntity
  8
LAY-10
  6
CONTINUOUS
 62
     7
100
AcDbLine
 10
353.9999999999868
 20
1034.749980369696
 30
0.0
 11
358.9999999999868
 21
1039.749980369696
 31
0.0
  0
LINE
  5
4ED
330
1F
100
AcDbEntity
  8
LAY-10
  6
CONTINUOUS
 62
     7
100
AcDbLine
 10
353.4999999999868
 20
1040.249980369696
 30
0.0
 11
348.4999999999868
 21
1045.249980369696
 31
0.0
  0
LINE
  5
4EE
330
1F
100
AcDbEntity
  8
LAY-10
  6
CONTINUOUS
 62
     7
100
AcDbLine
 10
358.9999999999868
 20
1040.249980369696
 30
0.0
 11
353.9999999999868
 21
1045.249980369696
 31
0.0
  0
LINE
  5
4EF
330
1F
100
AcDbEntity
  8
LAY-10
  6
CONTINUOUS
 62
     7
100
AcDbLine
 10
353.4999999999868
 20
1034.749980369696
 30
0.0
 11
348.4999999999868
 21
1039.749980369696
 31
0.0
  0
LINE
  5
4F0
330
1F
100
AcDbEntity
  8
LAY-10
  6
CONTINUOUS
 62
     7
100
AcDbLine
 10
358.9999999999868
 20
1034.749980369696
 30
0.0
 11
353.9999999999868
 21
1039.749980369696
 31
0.0
  0
LINE
  5
4F1
330
1F
100
AcDbEntity
  8
LAY-10
  6
CONTINUOUS
 62
     7
100
AcDbLine
 10
353.4999999999868
 20
1045.249980369696
 30
0.0
 11
348.4999999999868
 21
1045.249980369696
 31
0.0
  0
LINE
  5
4F2
330
1F
100
AcDbEntity
  8
LAY-10
  6
CONTINUOUS
 62
     7
100
AcDbLine
 10
353.4999999999868
 20
1040.249980369696
 30
0.0
 11
353.4999999999868
 21
1045.249980369696
 31
0.0
  0
LINE
  5
4F3
330
1F
100
AcDbEntity
  8
LAY-10
  6
CONTINUOUS
 62
     7
100
AcDbLine
 10
348.4999999999868
 20
1040.249980369696
 30
0.0
 11
348.4999999999868
 21
1045.249980369696
 31
0.0
  0
LINE
  5
4F4
330
1F
100
AcDbEntity
  8
LAY-10
  6
CONTINUOUS
 62
     7
100
AcDbLine
 10
348.4999999999868
 20
1040.249980369696
 30
0.0
 11
353.4999999999868
 21
1040.249980369696
 31
0.0
  0
LINE
  5
4F5
330
1F
100
AcDbEntity
  8
LAY-10
  6
CONTINUOUS
 62
     7
100
AcDbLine
 10
358.9999999999868
 20
1045.249980369696
 30
0.0
 11
353.9999999999868
 21
1045.249980369696
 31
0.0
  0
LINE
  5
4F6
330
1F
100
AcDbEntity
  8
LAY-10
  6
CONTINUOUS
 62
     7
100
AcDbLine
 10
358.9999999999868
 20
1040.249980369696
 30
0.0
 11
358.9999999999868
 21
1045.249980369696
 31
0.0
  0
LINE
  5
4F7
330
1F
100
AcDbEntity
  8
LAY-10
  6
CONTINUOUS
 62
     7
100
AcDbLine
 10
353.9999999999868
 20
1040.249980369696
 30
0.0
 11
353.9999999999868
 21
1045.249980369696
 31
0.0
  0
LINE
  5
4F8
330
1F
100
AcDbEntity
  8
LAY-10
  6
CONTINUOUS
 62
     7
100
AcDbLine
 10
353.9999999999868
 20
1040.249980369696
 30
0.0
 11
358.9999999999868
 21
1040.249980369696
 31
0.0
  0
LINE
  5
4F9
330
1F
100
AcDbEntity
  8
LAY-10
  6
CONTINUOUS
 62
     7
100
AcDbLine
 10
348.4999999999868
 20
1039.749980369696
 30
0.0
 11
348.4999999999868
 21
1034.749980369696
 31
0.0
  0
LINE
  5
4FA
330
1F
100
AcDbEntity
  8
LAY-10
  6
CONTINUOUS
 62
     7
100
AcDbLine
 10
353.4999999999868
 20
1039.749980369696
 30
0.0
 11
348.4999999999868
 21
1039.749980369696
 31
0.0
  0
LINE
  5
4FB
330
1F
100
AcDbEntity
  8
LAY-10
  6
CONTINUOUS
 62
     7
100
AcDbLine
 10
353.4999999999868
 20
1034.749980369696
 30
0.0
 11
348.4999999999868
 21
1034.749980369696
 31
0.0
  0
LINE
  5
4FC
330
1F
100
AcDbEntity
  8
LAY-10
  6
CONTINUOUS
 62
     7
100
AcDbLine
 10
353.4999999999868
 20
1034.749980369696
 30
0.0
 11
353.4999999999868
 21
1039.749980369696
 31
0.0
  0
LINE
  5
4FD
330
1F
100
AcDbEntity
  8
LAY-10
  6
CONTINUOUS
 62
     7
100
AcDbLine
 10
353.9999999999868
 20
1039.749980369696
 30
0.0
 11
353.9999999999868
 21
1034.749980369696
 31
0.0
  0
LINE
  5
4FE
330
1F
100
AcDbEntity
  8
LAY-10
  6
CONTINUOUS
 62
     7
100
AcDbLine
 10
358.9999999999868
 20
1039.749980369696
 30
0.0
 11
353.9999999999868
 21
1039.749980369696
 31
0.0
  0
LINE
  5
4FF
330
1F
100
AcDbEntity
  8
LAY-10
  6
CONTINUOUS
 62
     7
100
AcDbLine
 10
358.9999999999868
 20
1034.749980369696
 30
0.0
 11
353.9999999999868
 21
1034.749980369696
 31
0.0
  0
LINE
  5
500
330
1F
100
AcDbEntity
  8
LAY-10
  6
CONTINUOUS
 62
     7
100
AcDbLine
 10
358.9999999999868
 20
1034.749980369696
 30
0.0
 11
358.9999999999868
 21
1039.749980369696
 31
0.0
  0
LINE
  5
501
330
1F
100
AcDbEntity
  8
LAY-10
  6
CONTINUOUS
 62
     7
100
AcDbLine
 10
364.4999999999868
 20
1034.749980369696
 30
0.0
 11
364.4999999999868
 21
1039.749980369696
 31
0.0
  0
LINE
  5
502
330
1F
100
AcDbEntity
  8
LAY-10
  6
CONTINUOUS
 62
     7
100
AcDbLine
 10
364.4999999999868
 20
1034.749980369696
 30
0.0
 11
359.4999999999868
 21
1034.749980369696
 31
0.0
  0
LINE
  5
503
330
1F
100
AcDbEntity
  8
LAY-10
  6
CONTINUOUS
 62
     7
100
AcDbLine
 10
364.4999999999868
 20
1039.749980369696
 30
0.0
 11
359.4999999999868
 21
1039.749980369696
 31
0.0
  0
LINE
  5
504
330
1F
100
AcDbEntity
  8
LAY-10
  6
CONTINUOUS
 62
     7
100
AcDbLine
 10
359.4999999999868
 20
1039.749980369696
 30
0.0
 11
359.4999999999868
 21
1034.749980369696
 31
0.0
  0
LINE
  5
505
330
1F
100
AcDbEntity
  8
LAY-10
  6
CONTINUOUS
 62
     7
100
AcDbLine
 10
359.4999999999868
 20
1040.249980369696
 30
0.0
 11
364.4999999999868
 21
1040.249980369696
 31
0.0
  0
LINE
  5
506
330
1F
100
AcDbEntity
  8
LAY-10
  6
CONTINUOUS
 62
     7
100
AcDbLine
 10
359.4999999999868
 20
1040.249980369696
 30
0.0
 11
359.4999999999868
 21
1045.249980369696
 31
0.0
  0
LINE
  5
507
330
1F
100
AcDbEntity
  8
LAY-10
  6
CONTINUOUS
 62
     7
100
AcDbLine
 10
364.4999999999868
 20
1040.249980369696
 30
0.0
 11
364.4999999999868
 21
1045.249980369696
 31
0.0
  0
LINE
  5
508
330
1F
100
AcDbEntity
  8
LAY-10
  6
CONTINUOUS
 62
     7
100
AcDbLine
 10
364.4999999999868
 20
1045.249980369696
 30
0.0
 11
359.4999999999868
 21
1045.249980369696
 31
0.0
  0
LINE
  5
509
330
1F
100
AcDbEntity
  8
LAY-10
  6
CONTINUOUS
 62
     7
100
AcDbLine
 10
364.4999999999868
 20
1034.749980369696
 30
0.0
 11
359.4999999999868
 21
1039.749980369696
 31
0.0
  0
LINE
  5
50A
330
1F
100
AcDbEntity
  8
LAY-10
  6
CONTINUOUS
 62
     7
100
AcDbLine
 10
364.4999999999868
 20
1040.249980369696
 30
0.0
 11
359.4999999999868
 21
1045.249980369696
 31
0.0
  0
LINE
  5
50B
330
1F
100
AcDbEntity
  8
LAY-10
  6
CONTINUOUS
 62
     7
100
AcDbLine
 10
359.4999999999868
 20
1034.749980369696
 30
0.0
 11
364.4999999999868
 21
1039.749980369696
 31
0.0
  0
LINE
  5
50C
330
1F
100
AcDbEntity
  8
LAY-10
  6
CONTINUOUS
 62
     7
100
AcDbLine
 10
359.4999999999868
 20
1040.249980369696
 30
0.0
 11
364.4999999999868
 21
1045.249980369696
 31
0.0
  0
LINE
  5
50D
330
1F
100
AcDbEntity
  8
LAY-10
  6
CONTINUOUS
 62
     7
100
AcDbLine
 10
370.4999999999868
 20
1040.249980369696
 30
0.0
 11
375.4999999999868
 21
1045.249980369696
 31
0.0
  0
LINE
  5
50E
330
1F
100
AcDbEntity
  8
LAY-10
  6
CONTINUOUS
 62
     7
100
AcDbLine
 10
364.9999999999868
 20
1040.249980369696
 30
0.0
 11
369.9999999999868
 21
1045.249980369696
 31
0.0
  0
LINE
  5
50F
330
1F
100
AcDbEntity
  8
LAY-10
  6
CONTINUOUS
 62
     7
100
AcDbLine
 10
364.9999999999868
 20
1034.749980369696
 30
0.0
 11
369.9999999999868
 21
1039.749980369696
 31
0.0
  0
LINE
  5
510
330
1F
100
AcDbEntity
  8
LAY-10
  6
CONTINUOUS
 62
     7
100
AcDbLine
 10
369.9999999999868
 20
1040.249980369696
 30
0.0
 11
364.9999999999868
 21
1045.249980369696
 31
0.0
  0
LINE
  5
511
330
1F
100
AcDbEntity
  8
LAY-10
  6
CONTINUOUS
 62
     7
100
AcDbLine
 10
369.9999999999868
 20
1045.249980369696
 30
0.0
 11
364.9999999999868
 21
1045.249980369696
 31
0.0
  0
LINE
  5
512
330
1F
100
AcDbEntity
  8
LAY-10
  6
CONTINUOUS
 62
     7
100
AcDbLine
 10
369.9999999999868
 20
1040.249980369696
 30
0.0
 11
369.9999999999868
 21
1045.249980369696
 31
0.0
  0
LINE
  5
513
330
1F
100
AcDbEntity
  8
LAY-10
  6
CONTINUOUS
 62
     7
100
AcDbLine
 10
364.9999999999868
 20
1040.249980369696
 30
0.0
 11
364.9999999999868
 21
1045.249980369696
 31
0.0
  0
LINE
  5
514
330
1F
100
AcDbEntity
  8
LAY-10
  6
CONTINUOUS
 62
     7
100
AcDbLine
 10
364.9999999999868
 20
1040.249980369696
 30
0.0
 11
369.9999999999868
 21
1040.249980369696
 31
0.0
  0
LINE
  5
515
330
1F
100
AcDbEntity
  8
LAY-10
  6
CONTINUOUS
 62
     7
100
AcDbLine
 10
375.4999999999868
 20
1045.249980369696
 30
0.0
 11
370.4999999999868
 21
1045.249980369696
 31
0.0
  0
LINE
  5
516
330
1F
100
AcDbEntity
  8
LAY-10
  6
CONTINUOUS
 62
     7
100
AcDbLine
 10
370.4999999999868
 20
1040.249980369696
 30
0.0
 11
370.4999999999868
 21
1045.249980369696
 31
0.0
  0
LINE
  5
517
330
1F
100
AcDbEntity
  8
LAY-10
  6
CONTINUOUS
 62
     7
100
AcDbLine
 10
364.9999999999868
 20
1039.749980369696
 30
0.0
 11
364.9999999999868
 21
1034.749980369696
 31
0.0
  0
LINE
  5
518
330
1F
100
AcDbEntity
  8
LAY-10
  6
CONTINUOUS
 62
     7
100
AcDbLine
 10
369.9999999999868
 20
1039.749980369696
 30
0.0
 11
364.9999999999868
 21
1039.749980369696
 31
0.0
  0
LINE
  5
519
330
1F
100
AcDbEntity
  8
LAY-10
  6
CONTINUOUS
 62
     7
100
AcDbLine
 10
331.9999999999868
 20
1040.249980369696
 30
0.0
 11
336.9999999999868
 21
1045.249980369696
 31
0.0
  0
LINE
  5
51A
330
1F
100
AcDbEntity
  8
LAY-10
  6
CONTINUOUS
 62
     7
100
AcDbLine
 10
336.9999999999868
 20
1040.249980369696
 30
0.0
 11
331.9999999999868
 21
1045.249980369696
 31
0.0
  0
LINE
  5
51B
330
1F
100
AcDbEntity
  8
LAY-10
  6
CONTINUOUS
 62
     7
100
AcDbLine
 10
336.9999999999868
 20
1045.249980369696
 30
0.0
 11
331.9999999999868
 21
1045.249980369696
 31
0.0
  0
LINE
  5
51C
330
1F
100
AcDbEntity
  8
LAY-10
  6
CONTINUOUS
 62
     7
100
AcDbLine
 10
336.9999999999868
 20
1040.249980369696
 30
0.0
 11
336.9999999999868
 21
1045.249980369696
 31
0.0
  0
LINE
  5
51D
330
1F
100
AcDbEntity
  8
LAY-10
  6
CONTINUOUS
 62
     7
100
AcDbLine
 10
331.9999999999868
 20
1040.249980369696
 30
0.0
 11
331.9999999999868
 21
1045.249980369696
 31
0.0
  0
LINE
  5
51E
330
1F
100
AcDbEntity
  8
LAY-10
  6
CONTINUOUS
 62
     7
100
AcDbLine
 10
331.9999999999868
 20
1040.249980369696
 30
0.0
 11
336.9999999999868
 21
1040.249980369696
 31
0.0
  0
LINE
  5
51F
330
1F
100
AcDbEntity
  8
LAY-10
  6
CONTINUOUS
 62
     7
100
AcDbLine
 10
331.9999999999868
 20
1059.749980369895
 30
0.0
 11
336.9999999999868
 21
1054.749980369895
 31
0.0
  0
LINE
  5
520
330
1F
100
AcDbEntity
  8
LAY-10
  6
CONTINUOUS
 62
     7
100
AcDbLine
 10
326.4999999999868
 20
1059.749980369895
 30
0.0
 11
331.4999999999868
 21
1054.749980369895
 31
0.0
  0
LINE
  5
521
330
1F
100
AcDbEntity
  8
LAY-10
  6
CONTINUOUS
 62
     7
100
AcDbLine
 10
326.4999999999868
 20
1065.249980369895
 30
0.0
 11
331.4999999999868
 21
1060.249980369895
 31
0.0
  0
LINE
  5
522
330
1F
100
AcDbEntity
  8
LAY-10
  6
CONTINUOUS
 62
     7
100
AcDbLine
 10
331.9999999999868
 20
1065.249980369895
 30
0.0
 11
336.9999999999868
 21
1060.249980369895
 31
0.0
  0
LINE
  5
523
330
1F
100
AcDbEntity
  8
LAY-10
  6
CONTINUOUS
 62
     7
100
AcDbLine
 10
331.4999999999868
 20
1059.749980369895
 30
0.0
 11
326.4999999999868
 21
1054.749980369895
 31
0.0
  0
LINE
  5
524
330
1F
100
AcDbEntity
  8
LAY-10
  6
CONTINUOUS
 62
     7
100
AcDbLine
 10
336.9999999999868
 20
1059.749980369895
 30
0.0
 11
331.9999999999868
 21
1054.749980369895
 31
0.0
  0
LINE
  5
525
330
1F
100
AcDbEntity
  8
LAY-10
  6
CONTINUOUS
 62
     7
100
AcDbLine
 10
331.4999999999868
 20
1065.249980369895
 30
0.0
 11
326.4999999999868
 21
1060.249980369895
 31
0.0
  0
LINE
  5
526
330
1F
100
AcDbEntity
  8
LAY-10
  6
CONTINUOUS
 62
     7
100
AcDbLine
 10
336.9999999999868
 20
1065.249980369895
 30
0.0
 11
331.9999999999868
 21
1060.249980369895
 31
0.0
  0
LINE
  5
527
330
1F
100
AcDbEntity
  8
LAY-10
  6
CONTINUOUS
 62
     7
100
AcDbLine
 10
325.9999999999868
 20
1059.749980369895
 30
0.0
 11
325.9999999999868
 21
1054.749980369895
 31
0.0
  0
LINE
  5
528
330
1F
100
AcDbEntity
  8
LAY-10
  6
CONTINUOUS
 62
     7
100
AcDbLine
 10
331.4999999999868
 20
1054.749980369895
 30
0.0
 11
326.4999999999868
 21
1054.749980369895
 31
0.0
  0
LINE
  5
529
330
1F
100
AcDbEntity
  8
LAY-10
  6
CONTINUOUS
 62
     7
100
AcDbLine
 10
331.4999999999868
 20
1059.749980369895
 30
0.0
 11
331.4999999999868
 21
1054.749980369895
 31
0.0
  0
LINE
  5
52A
330
1F
100
AcDbEntity
  8
LAY-10
  6
CONTINUOUS
 62
     7
100
AcDbLine
 10
326.4999999999868
 20
1059.749980369895
 30
0.0
 11
326.4999999999868
 21
1054.749980369895
 31
0.0
  0
LINE
  5
52B
330
1F
100
AcDbEntity
  8
LAY-10
  6
CONTINUOUS
 62
     7
100
AcDbLine
 10
326.4999999999868
 20
1059.749980369895
 30
0.0
 11
331.4999999999868
 21
1059.749980369895
 31
0.0
  0
LINE
  5
52C
330
1F
100
AcDbEntity
  8
LAY-10
  6
CONTINUOUS
 62
     7
100
AcDbLine
 10
336.9999999999868
 20
1054.749980369895
 30
0.0
 11
331.9999999999868
 21
1054.749980369895
 31
0.0
  0
LINE
  5
52D
330
1F
100
AcDbEntity
  8
LAY-10
  6
CONTINUOUS
 62
     7
100
AcDbLine
 10
336.9999999999868
 20
1059.749980369895
 30
0.0
 11
336.9999999999868
 21
1054.749980369895
 31
0.0
  0
LINE
  5
52E
330
1F
100
AcDbEntity
  8
LAY-10
  6
CONTINUOUS
 62
     7
100
AcDbLine
 10
331.9999999999868
 20
1059.749980369895
 30
0.0
 11
331.9999999999868
 21
1054.749980369895
 31
0.0
  0
LINE
  5
52F
330
1F
100
AcDbEntity
  8
LAY-10
  6
CONTINUOUS
 62
     7
100
AcDbLine
 10
331.9999999999868
 20
1059.749980369895
 30
0.0
 11
336.9999999999868
 21
1059.749980369895
 31
0.0
  0
LINE
  5
530
330
1F
100
AcDbEntity
  8
LAY-10
  6
CONTINUOUS
 62
     7
100
AcDbLine
 10
325.9999999999868
 20
1065.249980369895
 30
0.0
 11
325.9999999999868
 21
1060.249980369895
 31
0.0
  0
LINE
  5
531
330
1F
100
AcDbEntity
  8
LAY-10
  6
CONTINUOUS
 62
     7
100
AcDbLine
 10
326.4999999999868
 20
1060.249980369895
 30
0.0
 11
326.4999999999868
 21
1065.249980369895
 31
0.0
  0
LINE
  5
532
330
1F
100
AcDbEntity
  8
LAY-10
  6
CONTINUOUS
 62
     7
100
AcDbLine
 10
331.4999999999868
 20
1060.249980369895
 30
0.0
 11
326.4999999999868
 21
1060.249980369895
 31
0.0
  0
LINE
  5
533
330
1F
100
AcDbEntity
  8
LAY-10
  6
CONTINUOUS
 62
     7
100
AcDbLine
 10
331.4999999999868
 20
1065.249980369895
 30
0.0
 11
326.4999999999868
 21
1065.249980369895
 31
0.0
  0
LINE
  5
534
330
1F
100
AcDbEntity
  8
LAY-10
  6
CONTINUOUS
 62
     7
100
AcDbLine
 10
331.4999999999868
 20
1065.249980369895
 30
0.0
 11
331.4999999999868
 21
1060.249980369895
 31
0.0
  0
LINE
  5
535
330
1F
100
AcDbEntity
  8
LAY-10
  6
CONTINUOUS
 62
     7
100
AcDbLine
 10
331.9999999999868
 20
1060.249980369895
 30
0.0
 11
331.9999999999868
 21
1065.249980369895
 31
0.0
  0
LINE
  5
536
330
1F
100
AcDbEntity
  8
LAY-10
  6
CONTINUOUS
 62
     7
100
AcDbLine
 10
336.9999999999868
 20
1060.249980369895
 30
0.0
 11
331.9999999999868
 21
1060.249980369895
 31
0.0
  0
LINE
  5
537
330
1F
100
AcDbEntity
  8
LAY-10
  6
CONTINUOUS
 62
     7
100
AcDbLine
 10
336.9999999999868
 20
1065.249980369895
 30
0.0
 11
331.9999999999868
 21
1065.249980369895
 31
0.0
  0
LINE
  5
538
330
1F
100
AcDbEntity
  8
LAY-10
  6
CONTINUOUS
 62
     7
100
AcDbLine
 10
336.9999999999868
 20
1065.249980369895
 30
0.0
 11
336.9999999999868
 21
1060.249980369895
 31
0.0
  0
LINE
  5
539
330
1F
100
AcDbEntity
  8
LAY-10
  6
CONTINUOUS
 62
     7
100
AcDbLine
 10
336.9999999999868
 20
1079.749980369885
 30
0.0
 11
331.9999999999868
 21
1074.749980369885
 31
0.0
  0
LINE
  5
53A
330
1F
100
AcDbEntity
  8
LAY-10
  6
CONTINUOUS
 62
     7
100
AcDbLine
 10
336.9999999999868
 20
1074.749980369885
 30
0.0
 11
331.9999999999868
 21
1074.749980369885
 31
0.0
  0
LINE
  5
53B
330
1F
100
AcDbEntity
  8
LAY-10
  6
CONTINUOUS
 62
     7
100
AcDbLine
 10
336.9999999999868
 20
1079.749980369885
 30
0.0
 11
336.9999999999868
 21
1074.749980369885
 31
0.0
  0
LINE
  5
53C
330
1F
100
AcDbEntity
  8
LAY-10
  6
CONTINUOUS
 62
     7
100
AcDbLine
 10
342.4999999999868
 20
1034.749980369696
 30
0.0
 11
342.4999999999868
 21
1039.749980369696
 31
0.0
  0
LINE
  5
53D
330
1F
100
AcDbEntity
  8
LAY-10
  6
CONTINUOUS
 62
     7
100
AcDbLine
 10
342.4999999999868
 20
1039.749980369696
 30
0.0
 11
337.4999999999868
 21
1039.749980369696
 31
0.0
  0
LINE
  5
53E
330
1F
100
AcDbEntity
  8
LAY-10
  6
CONTINUOUS
 62
     7
100
AcDbLine
 10
337.4999999999868
 20
1040.249980369696
 30
0.0
 11
342.4999999999868
 21
1040.249980369696
 31
0.0
  0
LINE
  5
53F
330
1F
100
AcDbEntity
  8
LAY-10
  6
CONTINUOUS
 62
     7
100
AcDbLine
 10
337.4999999999868
 20
1040.249980369696
 30
0.0
 11
337.4999999999868
 21
1045.249980369696
 31
0.0
  0
LINE
  5
540
330
1F
100
AcDbEntity
  8
LAY-10
  6
CONTINUOUS
 62
     7
100
AcDbLine
 10
342.4999999999868
 20
1040.249980369696
 30
0.0
 11
342.4999999999868
 21
1045.249980369696
 31
0.0
  0
LINE
  5
541
330
1F
100
AcDbEntity
  8
LAY-10
  6
CONTINUOUS
 62
     7
100
AcDbLine
 10
342.4999999999868
 20
1045.249980369696
 30
0.0
 11
337.4999999999868
 21
1045.249980369696
 31
0.0
  0
LINE
  5
542
330
1F
100
AcDbEntity
  8
LAY-10
  6
CONTINUOUS
 62
     7
100
AcDbLine
 10
342.4999999999868
 20
1034.749980369696
 30
0.0
 11
337.4999999999868
 21
1039.749980369696
 31
0.0
  0
LINE
  5
543
330
1F
100
AcDbEntity
  8
LAY-10
  6
CONTINUOUS
 62
     7
100
AcDbLine
 10
342.4999999999868
 20
1040.249980369696
 30
0.0
 11
337.4999999999868
 21
1045.249980369696
 31
0.0
  0
LINE
  5
544
330
1F
100
AcDbEntity
  8
LAY-10
  6
CONTINUOUS
 62
     7
100
AcDbLine
 10
337.4999999999868
 20
1040.249980369696
 30
0.0
 11
342.4999999999868
 21
1045.249980369696
 31
0.0
  0
LINE
  5
545
330
1F
100
AcDbEntity
  8
LAY-10
  6
CONTINUOUS
 62
     7
100
AcDbLine
 10
342.9999999999868
 20
1040.249980369696
 30
0.0
 11
347.9999999999868
 21
1045.249980369696
 31
0.0
  0
LINE
  5
546
330
1F
100
AcDbEntity
  8
LAY-10
  6
CONTINUOUS
 62
     7
100
AcDbLine
 10
342.9999999999868
 20
1034.749980369696
 30
0.0
 11
347.9999999999868
 21
1039.749980369696
 31
0.0
  0
LINE
  5
547
330
1F
100
AcDbEntity
  8
LAY-10
  6
CONTINUOUS
 62
     7
100
AcDbLine
 10
347.9999999999868
 20
1040.249980369696
 30
0.0
 11
342.9999999999868
 21
1045.249980369696
 31
0.0
  0
LINE
  5
548
330
1F
100
AcDbEntity
  8
LAY-10
  6
CONTINUOUS
 62
     7
100
AcDbLine
 10
347.9999999999868
 20
1034.749980369696
 30
0.0
 11
342.9999999999868
 21
1039.749980369696
 31
0.0
  0
LINE
  5
549
330
1F
100
AcDbEntity
  8
LAY-10
  6
CONTINUOUS
 62
     7
100
AcDbLine
 10
347.9999999999868
 20
1045.249980369696
 30
0.0
 11
342.9999999999868
 21
1045.249980369696
 31
0.0
  0
LINE
  5
54A
330
1F
100
AcDbEntity
  8
LAY-10
  6
CONTINUOUS
 62
     7
100
AcDbLine
 10
347.9999999999868
 20
1040.249980369696
 30
0.0
 11
347.9999999999868
 21
1045.249980369696
 31
0.0
  0
LINE
  5
54B
330
1F
100
AcDbEntity
  8
LAY-10
  6
CONTINUOUS
 62
     7
100
AcDbLine
 10
342.9999999999868
 20
1040.249980369696
 30
0.0
 11
342.9999999999868
 21
1045.249980369696
 31
0.0
  0
LINE
  5
54C
330
1F
100
AcDbEntity
  8
LAY-10
  6
CONTINUOUS
 62
     7
100
AcDbLine
 10
342.9999999999868
 20
1040.249980369696
 30
0.0
 11
347.9999999999868
 21
1040.249980369696
 31
0.0
  0
LINE
  5
54D
330
1F
100
AcDbEntity
  8
LAY-10
  6
CONTINUOUS
 62
     7
100
AcDbLine
 10
342.9999999999868
 20
1039.749980369696
 30
0.0
 11
342.9999999999868
 21
1034.749980369696
 31
0.0
  0
LINE
  5
54E
330
1F
100
AcDbEntity
  8
LAY-10
  6
CONTINUOUS
 62
     7
100
AcDbLine
 10
347.9999999999868
 20
1039.749980369696
 30
0.0
 11
342.9999999999868
 21
1039.749980369696
 31
0.0
  0
LINE
  5
54F
330
1F
100
AcDbEntity
  8
LAY-10
  6
CONTINUOUS
 62
     7
100
AcDbLine
 10
347.9999999999868
 20
1034.749980369696
 30
0.0
 11
342.9999999999868
 21
1034.749980369696
 31
0.0
  0
LINE
  5
550
330
1F
100
AcDbEntity
  8
LAY-10
  6
CONTINUOUS
 62
     7
100
AcDbLine
 10
347.9999999999868
 20
1034.749980369696
 30
0.0
 11
347.9999999999868
 21
1039.749980369696
 31
0.0
  0
LINE
  5
551
330
1F
100
AcDbEntity
  8
LAY-10
  6
CONTINUOUS
 62
     7
100
AcDbLine
 10
342.4999999999868
 20
1065.249980369895
 30
0.0
 11
342.4999999999868
 21
1060.249980369895
 31
0.0
  0
LINE
  5
552
330
1F
100
AcDbEntity
  8
LAY-10
  6
CONTINUOUS
 62
     7
100
AcDbLine
 10
342.4999999999868
 20
1065.249980369895
 30
0.0
 11
337.4999999999868
 21
1065.249980369895
 31
0.0
  0
LINE
  5
553
330
1F
100
AcDbEntity
  8
LAY-10
  6
CONTINUOUS
 62
     7
100
AcDbLine
 10
342.4999999999868
 20
1060.249980369895
 30
0.0
 11
337.4999999999868
 21
1060.249980369895
 31
0.0
  0
LINE
  5
554
330
1F
100
AcDbEntity
  8
LAY-10
  6
CONTINUOUS
 62
     7
100
AcDbLine
 10
337.4999999999868
 20
1060.249980369895
 30
0.0
 11
337.4999999999868
 21
1065.249980369895
 31
0.0
  0
LINE
  5
555
330
1F
100
AcDbEntity
  8
LAY-10
  6
CONTINUOUS
 62
     7
100
AcDbLine
 10
337.4999999999868
 20
1059.749980369895
 30
0.0
 11
342.4999999999868
 21
1059.749980369895
 31
0.0
  0
LINE
  5
556
330
1F
100
AcDbEntity
  8
LAY-10
  6
CONTINUOUS
 62
     7
100
AcDbLine
 10
337.4999999999868
 20
1059.749980369895
 30
0.0
 11
337.4999999999868
 21
1054.749980369895
 31
0.0
  0
LINE
  5
557
330
1F
100
AcDbEntity
  8
LAY-10
  6
CONTINUOUS
 62
     7
100
AcDbLine
 10
342.4999999999868
 20
1059.749980369895
 30
0.0
 11
342.4999999999868
 21
1054.749980369895
 31
0.0
  0
LINE
  5
558
330
1F
100
AcDbEntity
  8
LAY-10
  6
CONTINUOUS
 62
     7
100
AcDbLine
 10
342.4999999999868
 20
1054.749980369895
 30
0.0
 11
337.4999999999868
 21
1054.749980369895
 31
0.0
  0
LINE
  5
559
330
1F
100
AcDbEntity
  8
LAY-10
  6
CONTINUOUS
 62
     7
100
AcDbLine
 10
342.4999999999868
 20
1065.249980369895
 30
0.0
 11
337.4999999999868
 21
1060.249980369895
 31
0.0
  0
LINE
  5
55A
330
1F
100
AcDbEntity
  8
LAY-10
  6
CONTINUOUS
 62
     7
100
AcDbLine
 10
342.4999999999868
 20
1059.749980369895
 30
0.0
 11
337.4999999999868
 21
1054.749980369895
 31
0.0
  0
LINE
  5
55B
330
1F
100
AcDbEntity
  8
LAY-10
  6
CONTINUOUS
 62
     7
100
AcDbLine
 10
337.4999999999868
 20
1065.249980369895
 30
0.0
 11
342.4999999999868
 21
1060.249980369895
 31
0.0
  0
LINE
  5
55C
330
1F
100
AcDbEntity
  8
LAY-10
  6
CONTINUOUS
 62
     7
100
AcDbLine
 10
337.4999999999868
 20
1059.749980369895
 30
0.0
 11
342.4999999999868
 21
1054.749980369895
 31
0.0
  0
LINE
  5
55D
330
1F
100
AcDbEntity
  8
LAY-10
  6
CONTINUOUS
 62
     7
100
AcDbLine
 10
342.9999999999868
 20
1059.749980369895
 30
0.0
 11
347.9999999999868
 21
1054.749980369895
 31
0.0
  0
LINE
  5
55E
330
1F
100
AcDbEntity
  8
LAY-10
  6
CONTINUOUS
 62
     7
100
AcDbLine
 10
342.9999999999868
 20
1065.249980369895
 30
0.0
 11
347.9999999999868
 21
1060.249980369895
 31
0.0
  0
LINE
  5
55F
330
1F
100
AcDbEntity
  8
LAY-10
  6
CONTINUOUS
 62
     7
100
AcDbLine
 10
347.9999999999868
 20
1059.749980369895
 30
0.0
 11
342.9999999999868
 21
1054.749980369895
 31
0.0
  0
LINE
  5
560
330
1F
100
AcDbEntity
  8
LAY-10
  6
CONTINUOUS
 62
     7
100
AcDbLine
 10
347.9999999999868
 20
1065.249980369895
 30
0.0
 11
342.9999999999868
 21
1060.249980369895
 31
0.0
  0
LINE
  5
561
330
1F
100
AcDbEntity
  8
LAY-10
  6
CONTINUOUS
 62
     7
100
AcDbLine
 10
347.9999999999868
 20
1054.749980369895
 30
0.0
 11
342.9999999999868
 21
1054.749980369895
 31
0.0
  0
LINE
  5
562
330
1F
100
AcDbEntity
  8
LAY-10
  6
CONTINUOUS
 62
     7
100
AcDbLine
 10
347.9999999999868
 20
1059.749980369895
 30
0.0
 11
347.9999999999868
 21
1054.749980369895
 31
0.0
  0
LINE
  5
563
330
1F
100
AcDbEntity
  8
LAY-10
  6
CONTINUOUS
 62
     7
100
AcDbLine
 10
342.9999999999868
 20
1059.749980369895
 30
0.0
 11
342.9999999999868
 21
1054.749980369895
 31
0.0
  0
LINE
  5
564
330
1F
100
AcDbEntity
  8
LAY-10
  6
CONTINUOUS
 62
     7
100
AcDbLine
 10
342.9999999999868
 20
1059.749980369895
 30
0.0
 11
347.9999999999868
 21
1059.749980369895
 31
0.0
  0
LINE
  5
565
330
1F
100
AcDbEntity
  8
LAY-10
  6
CONTINUOUS
 62
     7
100
AcDbLine
 10
342.9999999999868
 20
1060.249980369895
 30
0.0
 11
342.9999999999868
 21
1065.249980369895
 31
0.0
  0
LINE
  5
566
330
1F
100
AcDbEntity
  8
LAY-10
  6
CONTINUOUS
 62
     7
100
AcDbLine
 10
347.9999999999868
 20
1060.249980369895
 30
0.0
 11
342.9999999999868
 21
1060.249980369895
 31
0.0
  0
LINE
  5
567
330
1F
100
AcDbEntity
  8
LAY-10
  6
CONTINUOUS
 62
     7
100
AcDbLine
 10
347.9999999999868
 20
1065.249980369895
 30
0.0
 11
342.9999999999868
 21
1065.249980369895
 31
0.0
  0
LINE
  5
568
330
1F
100
AcDbEntity
  8
LAY-10
  6
CONTINUOUS
 62
     7
100
AcDbLine
 10
347.9999999999868
 20
1065.249980369895
 30
0.0
 11
347.9999999999868
 21
1060.249980369895
 31
0.0
  0
LINE
  5
569
330
1F
100
AcDbEntity
  8
LAY-10
  6
CONTINUOUS
 62
     7
100
AcDbLine
 10
342.4999999999868
 20
1080.249980369885
 30
0.0
 11
337.4999999999868
 21
1080.249980369885
 31
0.0
  0
LINE
  5
56A
330
1F
100
AcDbEntity
  8
LAY-10
  6
CONTINUOUS
 62
     7
100
AcDbLine
 10
337.4999999999868
 20
1079.749980369885
 30
0.0
 11
342.4999999999868
 21
1079.749980369885
 31
0.0
  0
LINE
  5
56B
330
1F
100
AcDbEntity
  8
LAY-10
  6
CONTINUOUS
 62
     7
100
AcDbLine
 10
337.4999999999868
 20
1079.749980369885
 30
0.0
 11
337.4999999999868
 21
1074.749980369885
 31
0.0
  0
LINE
  5
56C
330
1F
100
AcDbEntity
  8
LAY-10
  6
CONTINUOUS
 62
     7
100
AcDbLine
 10
342.4999999999868
 20
1079.749980369885
 30
0.0
 11
342.4999999999868
 21
1074.749980369885
 31
0.0
  0
LINE
  5
56D
330
1F
100
AcDbEntity
  8
LAY-10
  6
CONTINUOUS
 62
     7
100
AcDbLine
 10
342.4999999999868
 20
1074.749980369885
 30
0.0
 11
337.4999999999868
 21
1074.749980369885
 31
0.0
  0
LINE
  5
56E
330
1F
100
AcDbEntity
  8
LAY-10
  6
CONTINUOUS
 62
     7
100
AcDbLine
 10
342.4999999999868
 20
1079.749980369885
 30
0.0
 11
337.4999999999868
 21
1074.749980369885
 31
0.0
  0
LINE
  5
56F
330
1F
100
AcDbEntity
  8
LAY-10
  6
CONTINUOUS
 62
     7
100
AcDbLine
 10
337.4999999999868
 20
1079.749980369885
 30
0.0
 11
342.4999999999868
 21
1074.749980369885
 31
0.0
  0
LINE
  5
570
330
1F
100
AcDbEntity
  8
LAY-10
  6
CONTINUOUS
 62
     7
100
AcDbLine
 10
342.9999999999868
 20
1079.749980369885
 30
0.0
 11
347.9999999999868
 21
1074.749980369885
 31
0.0
  0
LINE
  5
571
330
1F
100
AcDbEntity
  8
LAY-10
  6
CONTINUOUS
 62
     7
100
AcDbLine
 10
347.9999999999868
 20
1079.749980369885
 30
0.0
 11
342.9999999999868
 21
1074.749980369885
 31
0.0
  0
LINE
  5
572
330
1F
100
AcDbEntity
  8
LAY-10
  6
CONTINUOUS
 62
     7
100
AcDbLine
 10
347.9999999999868
 20
1085.249980369885
 30
0.0
 11
342.9999999999868
 21
1080.249980369885
 31
0.0
  0
LINE
  5
573
330
1F
100
AcDbEntity
  8
LAY-10
  6
CONTINUOUS
 62
     7
100
AcDbLine
 10
347.9999999999868
 20
1074.749980369885
 30
0.0
 11
342.9999999999868
 21
1074.749980369885
 31
0.0
  0
LINE
  5
574
330
1F
100
AcDbEntity
  8
LAY-10
  6
CONTINUOUS
 62
     7
100
AcDbLine
 10
347.9999999999868
 20
1079.749980369885
 30
0.0
 11
347.9999999999868
 21
1074.749980369885
 31
0.0
  0
LINE
  5
575
330
1F
100
AcDbEntity
  8
LAY-10
  6
CONTINUOUS
 62
     7
100
AcDbLine
 10
342.9999999999868
 20
1079.749980369885
 30
0.0
 11
342.9999999999868
 21
1074.749980369885
 31
0.0
  0
LINE
  5
576
330
1F
100
AcDbEntity
  8
LAY-10
  6
CONTINUOUS
 62
     7
100
AcDbLine
 10
342.9999999999868
 20
1079.749980369885
 30
0.0
 11
347.9999999999868
 21
1079.749980369885
 31
0.0
  0
LINE
  5
577
330
1F
100
AcDbEntity
  8
LAY-10
  6
CONTINUOUS
 62
     7
100
AcDbLine
 10
347.9999999999868
 20
1080.249980369885
 30
0.0
 11
342.9999999999868
 21
1080.249980369885
 31
0.0
  0
LINE
  5
578
330
1F
100
AcDbEntity
  8
LAY-10
  6
CONTINUOUS
 62
     7
100
AcDbLine
 10
347.9999999999868
 20
1085.249980369885
 30
0.0
 11
347.9999999999868
 21
1080.249980369885
 31
0.0
  0
LEADER
  5
579
330
1F
100
AcDbEntity
  8
LAY-20
  6
CONTINUOUS
 62
     7
100
AcDbLeader
  3
ISO-25
 76
     3
 10
1613.50000000001
 20
945.0000000000648
 30
0.0
 10
1582.84936490541
 20
891.911542731985
 30
0.0
 10
1519.00000000001
 20
891.911542731985
 30
0.0
1001
ACAD
1000
DSTYLE
1002
{
1070
     5
1000
EX_BNORM
1070
    41
1040
15.0
1070
   341
1005
7B
1002
}
  0
TEXT
  5
57A
330
1F
100
AcDbEntity
  8
LAY-20
  6
CONTINUOUS
 62
     7
100
AcDbText
 10
1532.09655745271
 20
897.224042731985
 30
0.0
 40
17.1875
  1
別途
 41
1.07185045
  7
EXCADSTD
100
AcDbText
  0
DIMENSION
  5
57C
330
1F
100
AcDbEntity
  8
LAY-20
  6
CONTINUOUS
 62
     4
100
AcDbDimension
  2
*D15
 10
1224.99999999996
 20
1248.200000000105
 30
0.0
 11
724.9999999999803
 21
1260.700000000105
 31
0.0
 70
   160
  3
ISO-25
100
AcDbAlignedDimension
 13
225.0000000000005
 23
1163.2000000001
 33
0.0
 14
1224.99999999996
 24
1163.2000000001
 34
0.0
100
AcDbRotatedDimension
1001
ACAD
1000
DSTYLE
1002
{
1070
   270
1070
     2
1070
     6
1000
EX_BNORM
1070
     7
1000
EX_BNORM
1070
    41
1040
12.5
1070
    42
1040
7.5
1070
    44
1040
7.5
1070
    73
1070
     0
1070
    74
1070
     0
1070
    75
1070
     0
1070
    76
1070
     0
1070
    77
1070
     1
1070
    78
1070
     8
1070
   140
1040
15.590552
1070
   147
1040
0.0
1070
   173
1070
     1
1070
   176
1070
     4
1070
   177
1070
     4
1070
   178
1070
     7
1070
   271
1070
     1
1070
   277
1070
     2
1070
   279
1070
     2
1070
   280
1070
     0
1070
   287
1070
     5
1070
   340
1005
57B
1002
}
  0
DIMENSION
  5
58A
330
1F
100
AcDbEntity
  8
LAY-20
  6
CONTINUOUS
 62
     4
100
AcDbDimension
  2
*D16
 10
1629.99999999995
 20
1159.999999999995
 30
0.0
 11
1617.49999999995
 21
1050.000000000045
 31
0.0
 70
   160
  3
ISO-25
100
AcDbAlignedDimension
 13
1524.99999999996
 23
940.0000000000949
 33
0.0
 14
1524.99999999996
 24
1159.999999999995
 34
0.0
 50
90.0
100
AcDbRotatedDimension
1001
ACAD
1000
DSTYLE
1002
{
1070
   270
1070
     2
1070
     6
1000
EX_BNORM
1070
     7
1000
EX_BNORM
1070
    41
1040
12.5
1070
    42
1040
7.5
1070
    44
1040
7.5
1070
    73
1070
     0
1070
    74
1070
     0
1070
    75
1070
     0
1070
    76
1070
     0
1070
    77
1070
     1
1070
    78
1070
     8
1070
   140
1040
15.590552
1070
   147
1040
0.0
1070
   173
1070
     1
1070
   176
1070
     4
1070
   177
1070
     4
1070
   178
1070
     7
1070
   271
1070
     1
1070
   277
1070
     2
1070
   279
1070
     2
1070
   280
1070
     0
1070
   287
1070
     5
1070
   340
1005
57B
1002
}
  0
DIMENSION
  5
597
330
1F
100
AcDbEntity
  8
LAY-20
  6
CONTINUOUS
 62
     4
100
AcDbDimension
  2
*D17
 10
1594.99999999995
 20
1155.000000000095
 30
0.0
 11
1582.49999999995
 21
1050.000000000095
 31
0.0
 70
   160
  3
ISO-25
100
AcDbAlignedDimension
 13
1484.99999999996
 23
945.0000000000949
 33
0.0
 14
1484.99999999996
 24
1155.000000000095
 34
0.0
 50
90.0
100
AcDbRotatedDimension
1001
ACAD
1000
DSTYLE
1002
{
1070
   270
1070
     2
1070
     6
1000
EX_BNORM
1070
     7
1000
EX_BNORM
1070
    41
1040
12.5
1070
    42
1040
0.0
1070
    44
1040
0.0
1070
    73
1070
     0
1070
    74
1070
     0
1070
    75
1070
     1
1070
    76
1070
     1
1070
    77
1070
     1
1070
    78
1070
     8
1070
   140
1040
15.590552
1070
   147
1040
0.0
1070
   173
1070
     1
1070
   176
1070
     4
1070
   177
1070
     4
1070
   178
1070
     7
1070
   271
1070
     1
1070
   277
1070
     2
1070
   279
1070
     2
1070
   280
1070
     0
1070
   287
1070
     5
1070
   340
1005
57B
1002
}
  0
DIMENSION
  5
5A2
330
1F
100
AcDbEntity
  8
LAY-20
  6
CONTINUOUS
 62
     4
100
AcDbDimension
  2
*D18
 10
324.9999999999604
 20
886.7999999999051
 30
0.0
 11
274.9999999999805
 21
899.2999999999051
 31
0.0
 70
   160
  3
ISO-25
100
AcDbAlignedDimension
 13
225.0000000000005
 23
936.799999999895
 33
0.0
 14
324.9999999999604
 24
918.335077728895
 34
0.0
100
AcDbRotatedDimension
1001
ACAD
1000
DSTYLE
1002
{
1070
   270
1070
     2
1070
     6
1000
EX_BNORM
1070
     7
1000
EX_BNORM
1070
    41
1040
12.5
1070
    42
1040
7.5
1070
    44
1040
7.5
1070
    73
1070
     0
1070
    74
1070
     0
1070
    75
1070
     0
1070
    76
1070
     0
1070
    77
1070
     1
1070
    78
1070
     8
1070
   140
1040
15.590552
1070
   147
1040
0.0
1070
   173
1070
     1
1070
   176
1070
     4
1070
   177
1070
     4
1070
   178
1070
     7
1070
   271
1070
     1
1070
   277
1070
     2
1070
   279
1070
     2
1070
   280
1070
     0
1070
   287
1070
     5
1070
   340
1005
57B
1002
}
  0
DIMENSION
  5
5AF
330
1F
100
AcDbEntity
  8
LAY-20
  6
CONTINUOUS
 62
     4
100
AcDbDimension
  2
*D19
 10
724.9999999999604
 20
886.7999999999051
 30
0.0
 11
524.9999999999606
 21
899.2999999999051
 31
0.0
 70
   160
  3
ISO-25
100
AcDbAlignedDimension
 13
324.9999999999604
 23
918.335077728895
 33
0.0
 14
724.9999999999604
 24
918.335077728895
 34
0.0
100
AcDbRotatedDimension
1001
ACAD
1000
DSTYLE
1002
{
1070
   270
1070
     2
1070
     6
1000
EX_BNORM
1070
     7
1000
EX_BNORM
1070
    41
1040
12.5
1070
    42
1040
7.5
1070
    44
1040
7.5
1070
    73
1070
     0
1070
    74
1070
     0
1070
    75
1070
     1
1070
    76
1070
     0
1070
    77
1070
     1
1070
    78
1070
     8
1070
   140
1040
15.590552
1070
   147
1040
0.0
1070
   173
1070
     1
1070
   176
1070
     4
1070
   177
1070
     4
1070
   178
1070
     7
1070
   271
1070
     1
1070
   277
1070
     2
1070
   279
1070
     2
1070
   280
1070
     0
1070
   287
1070
     5
1070
   340
1005
57B
1002
}
  0
DIMENSION
  5
5BB
330
1F
100
AcDbEntity
  8
LAY-20
  6
CONTINUOUS
 62
     4
100
AcDbDimension
  2
*D20
 10
1124.99999999996
 20
886.7999999999051
 30
0.0
 11
924.9999999999604
 21
899.2999999999051
 31
0.0
 70
   160
  3
ISO-25
100
AcDbAlignedDimension
 13
724.9999999999604
 23
918.335077728895
 33
0.0
 14
1124.99999999996
 24
918.335077728895
 34
0.0
100
AcDbRotatedDimension
1001
ACAD
1000
DSTYLE
1002
{
1070
   270
1070
     2
1070
     6
1000
EX_BNORM
1070
     7
1000
EX_BNORM
1070
    41
1040
12.5
1070
    42
1040
7.5
1070
    44
1040
7.5
1070
    73
1070
     0
1070
    74
1070
     0
1070
    75
1070
     1
1070
    76
1070
     0
1070
    77
1070
     1
1070
    78
1070
     8
1070
   140
1040
15.590552
1070
   147
1040
0.0
1070
   173
1070
     1
1070
   176
1070
     4
1070
   177
1070
     4
1070
   178
1070
     7
1070
   271
1070
     1
1070
   277
1070
     2
1070
   279
1070
     2
1070
   280
1070
     0
1070
   287
1070
     5
1070
   340
1005
57B
1002
}
  0
DIMENSION
  5
5C7
330
1F
100
AcDbEntity
  8
LAY-20
  6
CONTINUOUS
 62
     4
100
AcDbDimension
  2
*D21
 10
1224.99999999996
 20
886.7999999999051
 30
0.0
 11
1174.99999999996
 21
899.2999999999051
 31
0.0
 70
   160
  3
ISO-25
100
AcDbAlignedDimension
 13
1124.99999999996
 23
918.335077728895
 33
0.0
 14
1224.99999999996
 24
936.799999999895
 34
0.0
100
AcDbRotatedDimension
1001
ACAD
1000
DSTYLE
1002
{
1070
   270
1070
     2
1070
     6
1000
EX_BNORM
1070
     7
1000
EX_BNORM
1070
    41
1040
12.5
1070
    42
1040
7.5
1070
    44
1040
7.5
1070
    73
1070
     0
1070
    74
1070
     0
1070
    75
1070
     1
1070
    76
1070
     0
1070
    77
1070
     1
1070
    78
1070
     8
1070
   140
1040
15.590552
1070
   147
1040
0.0
1070
   173
1070
     1
1070
   176
1070
     4
1070
   177
1070
     4
1070
   178
1070
     7
1070
   271
1070
     1
1070
   277
1070
     2
1070
   279
1070
     2
1070
   280
1070
     0
1070
   287
1070
     5
1070
   340
1005
57B
1002
}
  0
DIMENSION
  5
5D3
330
1F
100
AcDbEntity
  8
LAY-20
  6
CONTINUOUS
 62
     4
100
AcDbDimension
  2
*D22
 10
1524.99999999996
 20
1283.200000000105
 30
0.0
 11
1450.00000000001
 21
1295.700000000105
 31
0.0
 70
   160
  3
ISO-25
100
AcDbAlignedDimension
 13
1375.00000000006
 23
1093.500000000085
 33
0.0
 14
1524.99999999996
 24
1164.499999999995
 34
0.0
100
AcDbRotatedDimension
1001
ACAD
1000
DSTYLE
1002
{
1070
   270
1070
     2
1070
     6
1000
EX_BNORM
1070
     7
1000
EX_BNORM
1070
    41
1040
12.5
1070
    42
1040
7.5
1070
    44
1040
7.5
1070
    73
1070
     0
1070
    74
1070
     0
1070
    75
1070
     0
1070
    76
1070
     0
1070
    77
1070
     1
1070
    78
1070
     8
1070
   140
1040
15.590552
1070
   147
1040
0.0
1070
   173
1070
     1
1070
   176
1070
     4
1070
   177
1070
     4
1070
   178
1070
     7
1070
   271
1070
     1
1070
   277
1070
     2
1070
   279
1070
     2
1070
   280
1070
     0
1070
   287
1070
     5
1070
   340
1005
57B
1002
}
  0
DIMENSION
  5
5E0
330
1F
100
AcDbEntity
  8
LAY-20
  6
CONTINUOUS
 62
     4
100
AcDbDimension
  2
*D23
 10
1375.00000000006
 20
1248.200000000105
 30
0.0
 11
1430.00000000006
 21
1260.700000000105
 31
0.0
 70
   160
  3
ISO-25
100
AcDbAlignedDimension
 13
1485.00000000006
 23
1158.999999999995
 33
0.0
 14
1375.00000000006
 24
1263.664922271095
 34
0.0
100
AcDbRotatedDimension
1001
ACAD
1000
DSTYLE
1002
{
1070
   270
1070
     2
1070
     6
1000
EX_BNORM
1070
     7
1000
EX_BNORM
1070
    41
1040
12.5
1070
    42
1040
7.5
1070
    44
1040
7.5
1070
    73
1070
     0
1070
    74
1070
     0
1070
    75
1070
     0
1070
    76
1070
     1
1070
    77
1070
     1
1070
    78
1070
     8
1070
   140
1040
15.590552
1070
   147
1040
0.0
1070
   173
1070
     1
1070
   176
1070
     4
1070
   177
1070
     4
1070
   178
1070
     7
1070
   271
1070
     1
1070
   277
1070
     2
1070
   279
1070
     2
1070
   280
1070
     0
1070
   287
1070
     5
1070
   340
1005
57B
1002
}
  0
DIMENSION
  5
5EC
330
1F
100
AcDbEntity
  8
LAY-20
  6
CONTINUOUS
 62
     4
100
AcDbDimension
  2
*D24
 10
1524.99999999996
 20
1248.200000000105
 30
0.0
 11
1505.00000000001
 21
1260.700000000105
 31
0.0
 70
   160
  3
ISO-25
100
AcDbAlignedDimension
 13
1485.00000000006
 23
1263.664922271095
 33
0.0
 14
1524.99999999996
 24
1263.664922271095
 34
0.0
100
AcDbRotatedDimension
1001
ACAD
1000
DSTYLE
1002
{
1070
   270
1070
     2
1070
     6
1000
EX_BNORM
1070
     7
1000
EX_BNORM
1070
    41
1040
12.5
1070
    42
1040
0.0
1070
    44
1040
0.0
1070
    73
1070
     0
1070
    74
1070
     0
1070
    75
1070
     1
1070
    76
1070
     1
1070
    77
1070
     1
1070
    78
1070
     8
1070
   140
1040
15.590552
1070
   147
1040
0.0
1070
   173
1070
     1
1070
   176
1070
     4
1070
   177
1070
     4
1070
   178
1070
     7
1070
   271
1070
     1
1070
   277
1070
     2
1070
   279
1070
     2
1070
   280
1070
     0
1070
   287
1070
     5
1070
   340
1005
57B
1002
}
  0
DIMENSION
  5
5F7
330
1F
100
AcDbEntity
  8
LAY-20
  6
CONTINUOUS
 62
     4
100
AcDbDimension
  2
*D25
 10
1375.00000000006
 20
1213.200000000105
 30
0.0
 11
1427.75000000006
 21
1225.700000000105
 31
0.0
 70
   160
  3
ISO-25
100
AcDbAlignedDimension
 13
1480.50000000006
 23
1159.499999999995
 33
0.0
 14
1375.00000000006
 24
1228.664922271095
 34
0.0
100
AcDbRotatedDimension
1001
ACAD
1000
DSTYLE
1002
{
1070
   270
1070
     2
1070
     6
1000
EX_BNORM
1070
     7
1000
EX_BNORM
1070
    41
1040
12.5
1070
    42
1040
7.5
1070
    44
1040
7.5
1070
    73
1070
     0
1070
    74
1070
     0
1070
    75
1070
     0
1070
    76
1070
     1
1070
    77
1070
     1
1070
    78
1070
     8
1070
   140
1040
15.590552
1070
   147
1040
0.0
1070
   173
1070
     1
1070
   176
1070
     4
1070
   177
1070
     4
1070
   178
1070
     7
1070
   271
1070
     1
1070
   277
1070
     2
1070
   279
1070
     2
1070
   280
1070
     0
1070
   287
1070
     5
1070
   340
1005
57B
1002
}
  0
DIMENSION
  5
603
330
1F
100
AcDbEntity
  8
LAY-20
  6
CONTINUOUS
 62
     4
100
AcDbDimension
  2
*D26
 10
1560.0
 20
1125.000000000005
 30
0.0
 11
1547.5
 21
1050.000000000025
 31
0.0
 70
   160
  1
溝幅<>
  3
ISO-25
100
AcDbAlignedDimension
 13
1485.0
 23
975.0000000000451
 33
0.0
 14
1485.0
 24
1125.000000000005
 34
0.0
 50
90.0
100
AcDbRotatedDimension
1001
ACAD
1000
DSTYLE
1002
{
1070
   270
1070
     2
1070
     6
1000
EX_BNORM
1070
     7
1000
EX_BNORM
1070
    41
1040
12.5
1070
    42
1040
7.5
1070
    44
1040
7.5
1070
    73
1070
     0
1070
    74
1070
     0
1070
    75
1070
     0
1070
    76
1070
     0
1070
    77
1070
     1
1070
    78
1070
     8
1070
   140
1040
15.590552
1070
   147
1040
0.0
1070
   173
1070
     1
1070
   176
1070
     4
1070
   177
1070
     4
1070
   178
1070
     7
1070
   271
1070
     1
1070
   277
1070
     2
1070
   279
1070
     2
1070
   280
1070
     0
1070
   287
1070
     5
1070
   340
1005
57B
1002
}
  0
DIMENSION
  5
610
330
1F
100
AcDbEntity
  8
LAY-20
  6
CONTINUOUS
 62
     4
100
AcDbDimension
  2
*D27
 10
226.0000000000296
 20
1213.200000000095
 30
0.0
 11
725.0000000000049
 21
1225.700000000095
 31
0.0
 70
   160
  3
ISO-25
100
AcDbAlignedDimension
 13
1223.99999999998
 23
1086.999980369746
 33
0.0
 14
226.0000000000296
 24
1086.999980369746
 34
0.0
100
AcDbRotatedDimension
1001
ACAD
1000
DSTYLE
1002
{
1070
   270
1070
     2
1070
     6
1000
EX_BNORM
1070
     7
1000
EX_BNORM
1070
    41
1040
15.0
1070
    42
1040
7.5
1070
    44
1040
7.5
1070
    73
1070
     0
1070
    74
1070
     0
1070
    75
1070
     0
1070
    76
1070
     0
1070
    77
1070
     1
1070
    78
1070
     8
1070
   140
1040
15.590552
1070
   147
1040
0.0
1070
   173
1070
     1
1070
   176
1070
     4
1070
   177
1070
     4
1070
   178
1070
     7
1070
   271
1070
     1
1070
   277
1070
     2
1070
   279
1070
     2
1070
   280
1070
     0
1070
   287
1070
     5
1070
   340
1005
57B
1002
}
  0
DIMENSION
  5
61D
330
1F
100
AcDbEntity
  8
LAY-20
  6
CONTINUOUS
 62
     4
100
AcDbDimension
  2
*D28
 10
1290.0
 20
1006.497416355625
 30
0.0
 11
1277.5
 21
1049.998708177835
 31
0.0
 70
   160
  3
ISO-25
100
AcDbAlignedDimension
 13
1375.0
 23
1093.500000000045
 33
0.0
 14
1375.0
 24
1006.497416355625
 34
0.0
 50
90.0
100
AcDbRotatedDimension
1001
ACAD
1000
DSTYLE
1002
{
1070
   270
1070
     2
1070
     6
1000
EX_BNORM
1070
     7
1000
EX_BNORM
1070
    41
1040
15.0
1070
    42
1040
7.5
1070
    44
1040
7.5
1070
    73
1070
     0
1070
    74
1070
     0
1070
    75
1070
     0
1070
    76
1070
     0
1070
    77
1070
     1
1070
    78
1070
     8
1070
   140
1040
15.590552
1070
   147
1040
0.0
1070
   173
1070
     1
1070
   176
1070
     4
1070
   177
1070
     4
1070
   178
1070
     7
1070
   271
1070
     1
1070
   277
1070
     2
1070
   279
1070
     2
1070
   280
1070
     0
1070
   287
1070
     5
1070
   340
1005
57B
1002
}
  0
DIMENSION
  5
62A
330
1F
100
AcDbEntity
  8
LAY-20
  6
CONTINUOUS
 62
     4
100
AcDbDimension
  2
*D29
 10
1325.0
 20
1012.997416355625
 30
0.0
 11
1312.5
 21
1049.998708177835
 31
0.0
 70
   160
  3
ISO-25
100
AcDbAlignedDimension
 13
1380.0000560688
 23
1087.000000000045
 33
0.0
 14
1380.0000560688
 24
1012.997416355625
 34
0.0
 50
90.0
100
AcDbRotatedDimension
1001
ACAD
1000
DSTYLE
1002
{
1070
   270
1070
     2
1070
     6
1000
EX_BNORM
1070
     7
1000
EX_BNORM
1070
    41
1040
15.0
1070
    42
1040
7.5
1070
    44
1040
7.5
1070
    73
1070
     0
1070
    74
1070
     0
1070
    75
1070
     0
1070
    76
1070
     0
1070
    77
1070
     1
1070
    78
1070
     8
1070
   140
1040
15.590552
1070
   147
1040
0.0
1070
   173
1070
     1
1070
   176
1070
     4
1070
   177
1070
     4
1070
   178
1070
     7
1070
   271
1070
     1
1070
   277
1070
     2
1070
   279
1070
     2
1070
   280
1070
     0
1070
   287
1070
     5
1070
   340
1005
57B
1002
}
  0
LINE
  5
637
330
1F
100
AcDbEntity
  8
LAY-255
  6
CONTINUOUS
 62
     7
100
AcDbLine
 10
1925.0
 20
110.0
 30
0.0
 11
1425.0
 21
110.0
 31
0.0
  0
LINE
  5
638
330
1F
100
AcDbEntity
  8
LAY-255
  6
CONTINUOUS
 62
     7
100
AcDbLine
 10
1444.0
 20
79.99999999999999
 30
0.0
 11
1484.0
 21
105.0
 31
0.0
  0
LINE
  5
639
330
1F
100
AcDbEntity
  8
LAY-255
  6
CONTINUOUS
 62
     7
100
AcDbLine
 10
1484.0
 20
105.0
 30
0.0
 11
1524.0
 21
79.99999999999999
 31
0.0
  0
LINE
  5
63A
330
1F
100
AcDbEntity
  8
LAY-255
  6
CONTINUOUS
 62
     7
100
AcDbLine
 10
1524.0
 20
79.99999999999999
 30
0.0
 11
1484.0
 21
55.0
 31
0.0
  0
LINE
  5
63B
330
1F
100
AcDbEntity
  8
LAY-255
  6
CONTINUOUS
 62
     7
100
AcDbLine
 10
1484.0
 20
55.0
 30
0.0
 11
1444.0
 21
79.99999999999999
 31
0.0
  0
LINE
  5
63C
330
1F
100
AcDbEntity
  8
LAY-255
  6
CONTINUOUS
 62
     7
100
AcDbLine
 10
25.0
 20
50.0
 30
0.0
 11
1925.0
 21
50.0
 31
0.0
  0
LINE
  5
63D
330
1F
100
AcDbEntity
  8
LAY-255
  6
CONTINUOUS
 62
     7
100
AcDbLine
 10
25.0
 20
1400.0
 30
0.0
 11
1925.0
 21
1400.0
 31
0.0
  0
LINE
  5
63E
330
1F
100
AcDbEntity
  8
LAY-255
  6
CONTINUOUS
 62
     7
100
AcDbLine
 10
25.0
 20
50.0
 30
0.0
 11
25.0
 21
1400.0
 31
0.0
  0
LINE
  5
63F
330
1F
100
AcDbEntity
  8
LAY-255
  6
CONTINUOUS
 62
     4
100
AcDbLine
 10
1425.0
 20
140.0
 30
0.0
 11
1925.0
 21
140.0
 31
0.0
  0
LINE
  5
640
330
1F
100
AcDbEntity
  8
LAY-255
  6
CONTINUOUS
 62
     4
100
AcDbLine
 10
1675.0
 20
140.0
 30
0.0
 11
1675.0
 21
110.0
 31
0.0
  0
POINT
  5
641
330
1F
100
AcDbEntity
  8
LAY-255
  6
CONTINUOUS
 62
     7
100
AcDbPoint
 10
1445.0
 20
275.0000000000003
 30
0.0
  0
POINT
  5
642
330
1F
100
AcDbEntity
  8
LAY-255
  6
CONTINUOUS
 62
     7
100
AcDbPoint
 10
1445.0
 20
225.0000000000002
 30
0.0
  0
POINT
  5
643
330
1F
100
AcDbEntity
  8
LAY-255
  6
CONTINUOUS
 62
     7
100
AcDbPoint
 10
1445.0
 20
250.0000000000002
 30
0.0
  0
POINT
  5
644
330
1F
100
AcDbEntity
  8
LAY-255
  6
CONTINUOUS
 62
     7
100
AcDbPoint
 10
1445.0
 20
200.0000000000002
 30
0.0
  0
POINT
  5
645
330
1F
100
AcDbEntity
  8
LAY-255
  6
CONTINUOUS
 62
     7
100
AcDbPoint
 10
1445.0
 20
175.0000000000001
 30
0.0
  0
POINT
  5
646
330
1F
100
AcDbEntity
  8
LAY-255
  6
CONTINUOUS
 62
     7
100
AcDbPoint
 10
1445.0
 20
150.0000000000001
 30
0.0
  0
LINE
  5
647
330
1F
100
AcDbEntity
  8
LAY-255
  6
CONTINUOUS
 62
     7
100
AcDbLine
 10
1925.0
 20
50.0
 30
0.0
 11
1925.0
 21
1400.0
 31
0.0
  0
LINE
  5
648
330
1F
100
AcDbEntity
  8
LAY-255
  6
CONTINUOUS
 62
     7
100
AcDbLine
 10
1425.0
 20
50.0
 30
0.0
 11
1425.0
 21
385.0000000000003
 31
0.0
  0
LINE
  5
649
330
1F
100
AcDbEntity
  8
LAY-255
  6
CONTINUOUS
 62
     7
100
AcDbLine
 10
1925.0
 20
385.0000000000003
 30
0.0
 11
1425.0
 21
385.0000000000003
 31
0.0
  0
LINE
  5
64A
330
1F
100
AcDbEntity
  8
LAY-255
  6
CONTINUOUS
 62
     4
100
AcDbLine
 10
1915.0
 20
325.0000000000003
 30
0.0
 11
1435.0
 21
325.0000000000003
 31
0.0
  0
LINE
  5
64B
330
1F
100
AcDbEntity
  8
LAY-255
  6
CONTINUOUS
 62
     4
100
AcDbLine
 10
1915.0
 20
355.0000000000003
 30
0.0
 11
1435.0
 21
355.0000000000003
 31
0.0
  0
POINT
  5
64C
330
1F
100
AcDbEntity
  8
LAY-255
  6
CONTINUOUS
 62
     7
100
AcDbPoint
 10
1500.0
 20
330.0000000000003
 30
0.0
  0
POINT
  5
64D
330
1F
100
AcDbEntity
  8
LAY-255
  6
CONTINUOUS
 62
     7
100
AcDbPoint
 10
1500.0
 20
360.0000000000003
 30
0.0
  0
POINT
  5
64E
330
1F
100
AcDbEntity
  8
LAY-255
  6
CONTINUOUS
 62
     7
100
AcDbPoint
 10
1445.0
 20
300.0000000000003
 30
0.0
  0
TEXT
  5
64F
330
1F
100
AcDbEntity
  8
LAY-255
  6
CONTINUOUS
 62
     7
100
AcDbText
 10
1540.691894370117
 20
77.71874999999999
 30
0.0
 40
25.78125
  1
福西鋳物株式会社
 41
1.342691871783662
  7
EXCADSTD
100
AcDbText
  0
TEXT
  5
650
330
1F
100
AcDbEntity
  8
LAY-255
  6
CONTINUOUS
 62
     7
100
AcDbText
 10
1542.546875
 20
59.90624999999999
 30
0.0
 40
8.59375
  1
ＦＵＫＵＮＩＳＨＩ
 41
1.204799226045263
  7
EXCADSTD
100
AcDbText
  0
TEXT
  5
651
330
1F
100
AcDbEntity
  8
LAY-255
  6
CONTINUOUS
 62
     7
100
AcDbText
 10
1663.595982142857
 20
59.90624999999999
 30
0.0
 40
8.59375
  1
ＦＯＵＮＤＲＹ
 41
1.243252752978497
  7
EXCADSTD
100
AcDbText
  0
TEXT
  5
652
330
1F
100
AcDbEntity
  8
LAY-255
  6
CONTINUOUS
 62
     7
100
AcDbText
 10
1759.97295734375
 20
59.90624999999999
 30
0.0
 40
8.59375
  1
ＣＯ.,ＬＴＤ.
 41
1.243831100341625
  7
EXCADSTD
100
AcDbText
  0
TEXT
  5
653
330
1F
100
AcDbEntity
  8
LAY-255
  6
CONTINUOUS
 62
     7
100
AcDbText
 10
1470.171875
 20
68.59375
 30
0.0
 40
25.78125
  1
S
 41
0.7582677563636363
  7
EXCADSTD
100
AcDbText
  0
TEXT
  5
654
330
1F
100
AcDbEntity
  8
LAY-255
  6
CONTINUOUS
 62
     7
100
AcDbText
 10
1485.5234375
 20
68.7470518868
 30
0.0
 40
25.78125
  1
F
 41
0.7440945272727272
  7
EXCADSTD
100
AcDbText
  0
TEXT
  5
655
330
1F
100
AcDbEntity
  8
LAY-255
  6
CONTINUOUS
 62
     7
100
AcDbText
 10
1685.52734375
 20
122.1093749999999
 30
0.0
 40
12.890625
  1
縮尺
 41
1.080708718181818
  7
EXCADSTD
100
AcDbText
  0
TEXT
  5
656
330
1F
100
AcDbEntity
  8
LAY-255
  6
CONTINUOUS
 62
     7
100
AcDbText
 10
1435.76171875
 20
122.1093749999999
 30
0.0
 40
12.890625
  1
作成日
 41
1.000629973818182
  7
EXCADSTD
100
AcDbText
  0
TEXT
  5
657
330
1F
100
AcDbEntity
  8
LAY-255
  6
CONTINUOUS
 62
     7
100
AcDbText
 10
1728.40625
 20
117.8124999999999
 30
0.0
 40
17.1875
  1
１：５,１：１
 41
0.8819559783040489
  7
EXCADSTD
100
AcDbText
  0
TEXT
  5
658
330
1F
100
AcDbEntity
  8
LAY-255
  6
CONTINUOUS
 62
     7
100
AcDbText
 10
1445.703125
 20
252.8125000000003
 30
0.0
 40
17.1875
  1
構造：ガタツキ防止式
 41
1.019908786570248
  7
EXCADSTD
100
AcDbText
  0
TEXT
  5
659
330
1F
100
AcDbEntity
  8
LAY-255
  6
CONTINUOUS
 62
     7
100
AcDbText
 10
1446.5625
 20
227.8125000000002
 30
0.0
 40
17.1875
  1
スキマ：６
 41
0.9896539615221989
  7
EXCADSTD
100
AcDbText
  0
TEXT
  5
65A
330
1F
100
AcDbEntity
  8
LAY-255
  6
CONTINUOUS
 62
     7
100
AcDbText
 10
1446.171875
 20
202.8125
 30
0.0
 40
17.1875
  1
表面：すべり止めクリスタル模様
 41
1.015836889542037
  7
EXCADSTD
100
AcDbText
  0
TEXT
  5
65B
330
1F
100
AcDbEntity
  8
LAY-255
  6
CONTINUOUS
 62
     7
100
AcDbText
 10
1446.171875
 20
277.8125000000003
 30
0.0
 40
17.1875
  1
用途：Ｕ形側溝用
 41
1.014398253506493
  7
EXCADSTD
100
AcDbText
  0
TEXT
  5
65C
330
1F
100
AcDbEntity
  8
LAY-255
  6
CONTINUOUS
 62
     7
100
AcDbText
 10
1436.328125
 20
332.8125000000003
 30
0.0
 40
17.1875
  1
型式
 41
1.056348480681818
  7
EXCADSTD
100
AcDbText
  0
TEXT
  5
65D
330
1F
100
AcDbEntity
  8
LAY-255
  6
CONTINUOUS
 62
     7
100
AcDbText
 10
1437.109375
 20
362.8125000000003
 30
0.0
 40
17.1875
  1
品名
 41
0.9788386340909091
  7
EXCADSTD
100
AcDbText
  0
TEXT
  5
65E
330
1F
100
AcDbEntity
  8
LAY-255
  6
CONTINUOUS
 62
     7
100
AcDbText
 10
1501.015625
 20
362.8125000000003
 30
0.0
 40
17.1875
  1
鋳鉄製ライナー側溝グレーチング
 41
1.017435374025974
  7
EXCADSTD
100
AcDbText
  0
TEXT
  5
65F
330
1F
100
AcDbEntity
  8
LAY-255
  6
CONTINUOUS
 62
     7
100
AcDbText
 10
1446.015625
 20
302.8125000000003
 30
0.0
 40
17.1875
  1
適用溝幅：１５０用
 41
1.014552031760644
  7
EXCADSTD
100
AcDbText
  0
TEXT
  5
660
330
1F
100
AcDbEntity
  8
LAY-255
  6
CONTINUOUS
 62
     7
100
AcDbText
 10
1446.875
 20
177.8124999999999
 30
0.0
 40
17.1875
  1
受枠：スチール（溶融亜鉛めっき）
 41
0.9724132705505761
  7
EXCADSTD
100
AcDbText
  0
TEXT
  5
661
330
1F
100
AcDbEntity
  8
LAY-255
  6
CONTINUOUS
 62
     7
100
AcDbText
 10
1505.625
 20
332.8125000000003
 30
0.0
 40
17.1875
  1
Ｆ２０Ｌ－１５ＺＵＢ型
 41
0.9954136410496718
  7
EXCADSTD
100
AcDbText
  0
TEXT
  5
662
330
1F
100
AcDbEntity
  8
LAY-255
  6
CONTINUOUS
 62
     7
100
AcDbText
 10
1506.40625
 20
117.8124999999999
 30
0.0
 40
17.1875
  1
１９／１１／１２
 41
0.9652981384415584
  7
EXCADSTD
100
AcDbText
  0
TEXT
  5
663
330
1F
100
AcDbEntity
  8
LAY-255
  6
CONTINUOUS
 62
     7
100
AcDbText
 10
1446.015625
 20
152.8124999999999
 30
0.0
 40
17.1875
  1
適用荷重：歩行用・Ｔ－２（レベルＤ）
 41
0.9788386340909091
  7
EXCADSTD
100
AcDbText
  0
ENDSEC
  0
SECTION
  2
OBJECTS
  0
DICTIONARY
  5
C
330
0
100
AcDbDictionary
  3
ACAD_GROUP
350
D
  3
ACAD_LAYOUT
350
1A
  3
ACAD_MATERIAL
350
43
  3
ACAD_MLEADERSTYLE
350
6B
  3
ACAD_MLINESTYLE
350
17
  3
ACAD_PLOTSETTINGS
350
19
  3
ACAD_SCALELIST
350
47
  3
ACAD_VISUALSTYLE
350
2A
  3
ACDBHEADERROUNDTRIPXREC
350
664
  3
ACDBVARIABLEDICTIONARY
350
685
  0
DICTIONARY
  5
690
330
8
100
AcDbDictionary
280
     1
  3
ACAD_XREC_ROUNDTRIP
360
691
  0
DICTIONARY
  5
D
102
{ACAD_REACTORS
330
C
102
}
330
C
100
AcDbDictionary
  0
DICTIONARY
  5
1A
102
{ACAD_REACTORS
330
C
102
}
330
C
100
AcDbDictionary
  0
DICTIONARY
  5
43
102
{ACAD_REACTORS
330
C
102
}
330
C
100
AcDbDictionary
  3
BYBLOCK
350
45
  3
BYLAYER
350
44
  3
GLOBAL
350
46
  0
DICTIONARY
  5
6B
102
{ACAD_REACTORS
330
C
102
}
330
C
100
AcDbDictionary
  3
STANDARD
350
6C
  0
DICTIONARY
  5
17
102
{ACAD_REACTORS
330
C
102
}
330
C
100
AcDbDictionary
  3
STANDARD
350
18
  0
DICTIONARY
  5
19
102
{ACAD_REACTORS
330
C
102
}
330
C
100
AcDbDictionary
  0
DICTIONARY
  5
47
102
{ACAD_REACTORS
330
C
102
}
330
C
100
AcDbDictionary
  3
A0
350
48
  3
A1
350
49
  3
A2
350
4A
  3
A3
350
4B
  3
A4
350
4C
  3
A5
350
4D
  3
A6
350
4E
  3
A7
350
4F
  3
A8
350
50
  3
A9
350
51
  3
B0
350
52
  3
B1
350
53
  3
B2
350
54
  3
B3
350
55
  3
B4
350
56
  3
B5
350
57
  3
B6
350
58
  3
B7
350
59
  3
B8
350
5A
  3
B9
350
5B
  3
C0
350
5C
  3
C1
350
5D
  3
C2
350
5E
  3
C3
350
5F
  3
C4
350
60
  3
C5
350
61
  3
C6
350
62
  3
C7
350
63
  3
C8
350
64
  3
C9
350
65
  3
D0
350
66
  3
D1
350
67
  3
D2
350
68
  0
DICTIONARY
  5
2A
102
{ACAD_REACTORS
330
C
102
}
330
C
100
AcDbDictionary
  3
2DWIREFRAME
350
2F
  3
BASIC
350
32
  3
BRIGHTEN
350
36
  3
COLORCHANGE
350
3A
  3
CONCEPTUAL
350
34
  3
DIM
350
35
  3
EDGECOLOROFF
350
3D
  3
FACEPATTERN
350
39
  3
FLAT
350
2B
  3
FLATWITHEDGES
350
2C
  3
GOURAUD
350
2D
  3
GOURAUDWITHEDGES
350
2E
  3
HIDDEN
350
31
  3
JITTEROFF
350
3B
  3
LINEPATTERN
350
38
  3
OVERHANGOFF
350
3C
  3
REALISTIC
350
33
  3
SHADED
350
42
  3
SHADED_WITH_EDGES
350
41
  3
SHADES_OF_GRAY
350
3E
  3
SKETCHY
350
3F
  3
THICKEN
350
37
  3
WIREFRAME
350
30
  3
X-RAY
350
40
  0
DICTIONARY
  5
664
102
{ACAD_REACTORS
330
C
102
}
330
C
100
AcDbDictionary
  3
CEPSNID
350
66E
  3
CEPSNTYPE
350
66D
  3
DIMSTYLEDATA
350
684
  3
FINGERPRINTGUID
350
66F
  3
HYPERLINKBASE
350
667
  3
INSUNITS
350
66C
  3
LAYOUTDICT
350
669
  3
LWETCUNION
350
66B
  3
PLOTSETDICT
350
66A
  3
PSVPSCALE
350
671
  3
PUCSBASE
350
674
  3
PUCSORGBACK
350
67A
  3
PUCSORGBOTTOM
350
676
  3
PUCSORGFRONT
350
679
  3
PUCSORGLEFT
350
677
  3
PUCSORGRIGHT
350
678
  3
PUCSORGTOP
350
675
  3
PUCSORTHOREF
350
672
  3
PUCSORTHOVIEW
350
673
  3
STYLESHEET
350
668
  3
TSTACKALIGN
350
665
  3
TSTACKSIZE
350
666
  3
UCSBASE
350
67D
  3
UCSORGBACK
350
683
  3
UCSORGBOTTOM
350
67F
  3
UCSORGFRONT
350
682
  3
UCSORGLEFT
350
680
  3
UCSORGRIGHT
350
681
  3
UCSORGTOP
350
67E
  3
UCSORTHOREF
350
67B
  3
UCSORTHOVIEW
350
67C
  3
VERSIONGUID
350
670
  0
DICTIONARY
  5
685
102
{ACAD_REACTORS
330
C
102
}
330
C
100
AcDbDictionary
  3
CANNOSCALE
350
692
  3
CENTEREXE
350
68C
  3
CENTERLTYPEFILE
350
68D
  3
CMLEADERSTYLE
350
687
  3
CTABLESTYLE
350
686
  3
DIMASSOC
350
68E
  3
HIDETEXT
350
68F
  3
MSLTSCALE
350
693
  3
PSOLHEIGHT
350
689
  3
PSOLWIDTH
350
688
  0
XRECORD
  5
691
102
{ACAD_REACTORS
330
690
102
}
330
690
100
AcDbXrecord
102
VTR_0.000_0.000_1.000_1.000_VISUALSTYLE
340
2F
102
VTR_0.000_0.000_1.000_1.000_GRIDDISPLAY
 70
     3
102
VTR_0.000_0.000_1.000_1.000_GRIDMAJOR
 70
     5
102
VTR_0.000_0.000_1.000_1.000_DEFAULTLIGHTING
280
     1
102
VTR_0.000_0.000_1.000_1.000_DEFAULTLIGHTINGTYPE
 70
     1
102
VTR_0.000_0.000_1.000_1.000_BRIGHTNESS
141
0.0
102
VTR_0.000_0.000_1.000_1.000_CONTRAST
142
0.0
  0
MATERIAL
  5
45
102
{ACAD_REACTORS
330
43
102
}
102
{ACAD_XDICTIONARY
360
696
102
}
330
43
100
AcDbMaterial
  1
BYBLOCK
  0
MATERIAL
  5
44
102
{ACAD_REACTORS
330
43
102
}
102
{ACAD_XDICTIONARY
360
694
102
}
330
43
100
AcDbMaterial
  1
BYLAYER
  0
MATERIAL
  5
46
102
{ACAD_REACTORS
330
43
102
}
102
{ACAD_XDICTIONARY
360
698
102
}
330
43
100
AcDbMaterial
  1
GLOBAL
  0
ACAD_PROXY_OBJECT
  5
6C
102
{ACAD_REACTORS
330
6B
102
}
330
6B
100
AcDbProxyObject
 90
      499
 91
      505
 93
      610
310
40901902A4063FBFFFFFE0000000000000020400000000000020404214DD185B99185C990000000000000104090141901A00000000000004100000000000000041025764000000000000039000
340
14
340
0
340
11
340
0
 94
        0
1001
ACAD_MLEADERVER
1070
     2
  0
MLINESTYLE
  5
18
102
{ACAD_REACTORS
330
17
102
}
330
17
100
AcDbMlineStyle
  2
Standard
 70
     0
  3

 62
   256
 51
90.0
 52
90.0
 71
     2
 49
0.5
 62
   256
  6
BYLAYER
 49
-0.5
 62
   256
  6
BYLAYER
  0
ACAD_PROXY_OBJECT
  5
48
102
{ACAD_REACTORS
330
47
102
}
330
47
100
AcDbProxyObject
 90
      499
 91
      503
 93
       41
310
903313A31580
  0
ACAD_PROXY_OBJECT
  5
49
102
{ACAD_REACTORS
330
47
102
}
330
47
100
AcDbProxyObject
 90
      499
 91
      503
 93
      105
310
903313A324000000000000004000
  0
ACAD_PROXY_OBJECT
  5
4A
102
{ACAD_REACTORS
330
47
102
}
330
47
100
AcDbProxyObject
 90
      499
 91
      503
 93
      105
310
903313A344000000000000104000
  0
ACAD_PROXY_OBJECT
  5
4B
102
{ACAD_REACTORS
330
47
102
}
330
47
100
AcDbProxyObject
 90
      499
 91
      503
 93
      105
310
903313A354000000000000144000
  0
ACAD_PROXY_OBJECT
  5
4C
102
{ACAD_REACTORS
330
47
102
}
330
47
100
AcDbProxyObject
 90
      499
 91
      503
 93
      105
310
903313A384000000000000204000
  0
ACAD_PROXY_OBJECT
  5
4D
102
{ACAD_REACTORS
330
47
102
}
330
47
100
AcDbProxyObject
 90
      499
 91
      503
 93
      113
310
904313A31304000000000000244000
  0
ACAD_PROXY_OBJECT
  5
4E
102
{ACAD_REACTORS
330
47
102
}
330
47
100
AcDbProxyObject
 90
      499
 91
      503
 93
      113
310
904313A31364000000000000304000
  0
ACAD_PROXY_OBJECT
  5
4F
102
{ACAD_REACTORS
330
47
102
}
330
47
100
AcDbProxyObject
 90
      499
 91
      503
 93
      113
310
904313A32304000000000000344000
  0
ACAD_PROXY_OBJECT
  5
50
102
{ACAD_REACTORS
330
47
102
}
330
47
100
AcDbProxyObject
 90
      499
 91
      503
 93
      113
310
904313A333040000000000003E4000
  0
ACAD_PROXY_OBJECT
  5
51
102
{ACAD_REACTORS
330
47
102
}
330
47
100
AcDbProxyObject
 90
      499
 91
      503
 93
      113
310
904313A34304000000000000444000
  0
ACAD_PROXY_OBJECT
  5
52
102
{ACAD_REACTORS
330
47
102
}
330
47
100
AcDbProxyObject
 90
      499
 91
      503
 93
      113
310
904313A35304000000000000494000
  0
ACAD_PROXY_OBJECT
  5
53
102
{ACAD_REACTORS
330
47
102
}
330
47
100
AcDbProxyObject
 90
      499
 91
      503
 93
      121
310
905313A3130304000000000000594000
  0
ACAD_PROXY_OBJECT
  5
54
102
{ACAD_REACTORS
330
47
102
}
330
47
100
AcDbProxyObject
 90
      499
 91
      503
 93
      105
310
903323A310000000000000010100
  0
ACAD_PROXY_OBJECT
  5
55
102
{ACAD_REACTORS
330
47
102
}
330
47
100
AcDbProxyObject
 90
      499
 91
      503
 93
      105
310
903343A310000000000000410100
  0
ACAD_PROXY_OBJECT
  5
56
102
{ACAD_REACTORS
330
47
102
}
330
47
100
AcDbProxyObject
 90
      499
 91
      503
 93
      105
310
903383A310000000000000810100
  0
ACAD_PROXY_OBJECT
  5
57
102
{ACAD_REACTORS
330
47
102
}
330
47
100
AcDbProxyObject
 90
      499
 91
      503
 93
      113
310
90431303A310000000000000910100
  0
ACAD_PROXY_OBJECT
  5
58
102
{ACAD_REACTORS
330
47
102
}
330
47
100
AcDbProxyObject
 90
      499
 91
      503
 93
      121
310
9053130303A310000000000001650100
  0
ACAD_PROXY_OBJECT
  5
59
102
{ACAD_REACTORS
330
47
102
}
330
47
100
AcDbProxyObject
 90
      499
 91
      503
 93
      257
310
90E312F31323822203D2031272D3022000000000000200FC000000000000284000
  0
ACAD_PROXY_OBJECT
  5
5A
102
{ACAD_REACTORS
330
47
102
}
330
47
100
AcDbProxyObject
 90
      499
 91
      503
 93
      249
310
90D312F363422203D2031272D3022000000000000240FC000000000000284000
  0
ACAD_PROXY_OBJECT
  5
5B
102
{ACAD_REACTORS
330
47
102
}
330
47
100
AcDbProxyObject
 90
      499
 91
      503
 93
      249
310
90D312F333222203D2031272D3022000000000000280FC000000000000284000
  0
ACAD_PROXY_OBJECT
  5
5C
102
{ACAD_REACTORS
330
47
102
}
330
47
100
AcDbProxyObject
 90
      499
 91
      503
 93
      249
310
90D312F313622203D2031272D30220000000000002C0FC000000000000284000
  0
ACAD_PROXY_OBJECT
  5
5D
102
{ACAD_REACTORS
330
47
102
}
330
47
100
AcDbProxyObject
 90
      499
 91
      503
 93
      249
310
90D332F333222203D2031272D30220000000000002E0FC000000000000284000
  0
ACAD_PROXY_OBJECT
  5
5E
102
{ACAD_REACTORS
330
47
102
}
330
47
100
AcDbProxyObject
 90
      499
 91
      503
 93
      241
310
90C312F3822203D2031272D3022000000000000300FC000000000000284000
  0
ACAD_PROXY_OBJECT
  5
5F
102
{ACAD_REACTORS
330
47
102
}
330
47
100
AcDbProxyObject
 90
      499
 91
      503
 93
      249
310
90D332F313622203D2031272D3022000000000000320FC000000000000284000
  0
ACAD_PROXY_OBJECT
  5
60
102
{ACAD_REACTORS
330
47
102
}
330
47
100
AcDbProxyObject
 90
      499
 91
      503
 93
      241
310
90C312F3422203D2031272D3022000000000000340FC000000000000284000
  0
ACAD_PROXY_OBJECT
  5
61
102
{ACAD_REACTORS
330
47
102
}
330
47
100
AcDbProxyObject
 90
      499
 91
      503
 93
      241
310
90C332F3822203D2031272D3022000000000000360FC000000000000284000
  0
ACAD_PROXY_OBJECT
  5
62
102
{ACAD_REACTORS
330
47
102
}
330
47
100
AcDbProxyObject
 90
      499
 91
      503
 93
      241
310
90C312F3222203D2031272D3022000000000000380FC000000000000284000
  0
ACAD_PROXY_OBJECT
  5
63
102
{ACAD_REACTORS
330
47
102
}
330
47
100
AcDbProxyObject
 90
      499
 91
      503
 93
      241
310
90C332F3422203D2031272D30220000000000003A0FC000000000000284000
  0
ACAD_PROXY_OBJECT
  5
64
102
{ACAD_REACTORS
330
47
102
}
330
47
100
AcDbProxyObject
 90
      499
 91
      503
 93
      161
310
90A3122203D2031272D30224000000000000284000
  0
ACAD_PROXY_OBJECT
  5
65
102
{ACAD_REACTORS
330
47
102
}
330
47
100
AcDbProxyObject
 90
      499
 91
      503
 93
      257
310
90E312D312F3222203D2031272D30220000000000003E0FC000000000000284000
  0
ACAD_PROXY_OBJECT
  5
66
102
{ACAD_REACTORS
330
47
102
}
330
47
100
AcDbProxyObject
 90
      499
 91
      503
 93
      225
310
90A3322203D2031272D302200000000000002100000000000000284000
  0
ACAD_PROXY_OBJECT
  5
67
102
{ACAD_REACTORS
330
47
102
}
330
47
100
AcDbProxyObject
 90
      499
 91
      503
 93
      225
310
90A3622203D2031272D302200000000000006100000000000000284000
  0
ACAD_PROXY_OBJECT
  5
68
102
{ACAD_REACTORS
330
47
102
}
330
47
100
AcDbProxyObject
 90
      499
 91
      503
 93
      249
310
90D31272D3022203D2031272D30220000000000000A100000000000000284000
  0
ACAD_PROXY_OBJECT
  5
2F
102
{ACAD_REACTORS
330
2A
102
}
330
2A
100
AcDbProxyObject
 90
      499
 91
      501
 93
      436
310
42CC9915DA5C99599C985B595049028333333333333E33F0000000000000F90107901411070040501600405405064090741402480A0340
1001
ACAD
1000
AcDbSavedByObjectVersion
1070
     0
  0
ACAD_PROXY_OBJECT
  5
32
102
{ACAD_REACTORS
330
2A
102
}
330
2A
100
AcDbProxyObject
 90
      499
 91
      501
 93
      388
310
4150985CDA58D07406404333333333333E33F0000000000000F90107A41107004050150841D405064090741402480A0350
1001
ACAD
1000
AcDbSavedByObjectVersion
1070
     0
  0
ACAD_PROXY_OBJECT
  5
36
102
{ACAD_REACTORS
330
2A
102
}
330
2A
100
AcDbProxyObject
 90
      499
 91
      501
 93
      428
310
42109C9A59DA1D195B90C409028333333333333E33F0000000000000F9010790141107004050150841D405064090741402480A029950
1001
ACAD
1000
AcDbSavedByObjectVersion
1070
     0
  0
ACAD_PROXY_OBJECT
  5
3A
102
{ACAD_REACTORS
330
2A
102
}
330
2A
100
AcDbProxyObject
 90
      499
 91
      501
 93
      452
310
42D0DBDB1BDC90DA185B99D95104090240C333333333333E33F0000000000000F90108901411070040501508421405064090741402480A0350
1001
ACAD
1000
AcDbSavedByObjectVersion
1070
     0
  0
ACAD_PROXY_OBJECT
  5
34
102
{ACAD_REACTORS
330
2A
102
}
330
2A
100
AcDbProxyObject
 90
      499
 91
      501
 93
      500
310
4290DBDB98D95C1D1D585B10940D028333333333333E33F0000000000000F90107902409070040501000000000018199010841D405064090740C02480A0340
1001
ACAD
1000
AcDbSavedByObjectVersion
1070
     0
  0
ACAD_PROXY_OBJECT
  5
35
102
{ACAD_REACTORS
330
2A
102
}
330
2A
100
AcDbProxyObject
 90
      499
 91
      501
 93
      412
310
40D11A5B50B409028333333333333E33F0000000000000F9010790141107004050150841D405064090741402480A02677FFFFFD0
1001
ACAD
1000
AcDbSavedByObjectVersion
1070
     0
  0
ACAD_PROXY_OBJECT
  5
3D
102
{ACAD_REACTORS
330
2A
102
}
330
2A
100
AcDbProxyObject
 90
      499
 91
      501
 93
      452
310
43115919D950DBDB1BDC93D999916409028333333333333E33F0000000000000F9010790141107004050150841D405064090741402480A0350
1001
ACAD
1000
AcDbSavedByObjectVersion
1070
     0
  0
ACAD_PROXY_OBJECT
  5
39
102
{ACAD_REACTORS
330
2A
102
}
330
2A
100
AcDbProxyObject
 90
      499
 91
      501
 93
      444
310
42D19858D95C185D1D195C9B90F409028333333333333E33F0000000000000F9010790141107004050150841D405064090741402480A0350
1001
ACAD
1000
AcDbSavedByObjectVersion
1070
     0
  0
ACAD_PROXY_OBJECT
  5
2B
102
{ACAD_REACTORS
330
2A
102
}
330
2A
100
AcDbProxyObject
 90
      499
 91
      501
 93
      380
310
41119B185D240901404333333333333E33F0000000000000F9010740A907004050150841D405064090741402480A1B50
1001
ACAD
1000
AcDbSavedByObjectVersion
1070
     0
  0
ACAD_PROXY_OBJECT
  5
2C
102
{ACAD_REACTORS
330
2A
102
}
330
2A
100
AcDbProxyObject
 90
      499
 91
      501
 93
      468
310
43519B185D15DA5D1A115919D95CD0140901404333333333333E33F0000000000000F90107409019070040501600405405064090741402480A1B50
1001
ACAD
1000
AcDbSavedByObjectVersion
1070
     0
  0
ACAD_PROXY_OBJECT
  5
2D
102
{ACAD_REACTORS
330
2A
102
}
330
2A
100
AcDbProxyObject
 90
      499
 91
      501
 93
      404
310
41D1DBDD5C985D5910240902404333333333333E33F0000000000000F9010740A9070040501641D405064090741402480A1B50
1001
ACAD
1000
AcDbSavedByObjectVersion
1070
     0
  0
ACAD_PROXY_OBJECT
  5
2E
102
{ACAD_REACTORS
330
2A
102
}
330
2A
100
AcDbProxyObject
 90
      499
 91
      501
 93
      492
310
4411DBDD5C985D5915DA5D1A115919D95CD0340902404333333333333E33F0000000000000F90107409019070040501600405405064090741402480A1B50
1001
ACAD
1000
AcDbSavedByObjectVersion
1070
     0
  0
ACAD_PROXY_OBJECT
  5
31
102
{ACAD_REACTORS
330
2A
102
}
330
2A
100
AcDbProxyObject
 90
      499
 91
      501
 93
      476
310
41921A5919195B90640502408333333333333E33F0000000000000F901079024090700405020000000000001110200405405064090740C02480A0340
1001
ACAD
1000
AcDbSavedByObjectVersion
1070
     0
  0
ACAD_PROXY_OBJECT
  5
3B
102
{ACAD_REACTORS
330
2A
102
}
330
2A
100
AcDbProxyObject
 90
      499
 91
      501
 93
      428
310
42529A5D1D195C93D999914409028333333333333E33F0000000000000F9010790141107004050150A41D405064090741402480A0350
1001
ACAD
1000
AcDbSavedByObjectVersion
1070
     0
  0
ACAD_PROXY_OBJECT
  5
38
102
{ACAD_REACTORS
330
2A
102
}
330
2A
100
AcDbProxyObject
 90
      499
 91
      501
 93
      444
310
42D31A5B995C185D1D195C9B90E409028333333333333E33F0000000000000F9010790141107004050750841D405064090741402483A0350
1001
ACAD
1000
AcDbSavedByObjectVersion
1070
     0
  0
ACAD_PROXY_OBJECT
  5
3C
102
{ACAD_REACTORS
330
2A
102
}
330
2A
100
AcDbProxyObject
 90
      499
 91
      501
 93
      444
310
42D3DD995C9A185B99D3D999915409028333333333333E33F0000000000000F9010790141107004050150941D405064090741402480A0350
1001
ACAD
1000
AcDbSavedByObjectVersion
1070
     0
  0
ACAD_PROXY_OBJECT
  5
33
102
{ACAD_REACTORS
330
2A
102
}
330
2A
100
AcDbProxyObject
 90
      499
 91
      501
 93
      428
310
425499585B1A5CDD1A58D08409038333333333333E33F0000000000000F9010740A907004050150800405405064090740C02480A1B40
1001
ACAD
1000
AcDbSavedByObjectVersion
1070
     0
  0
ACAD_PROXY_OBJECT
  5
42
102
{ACAD_REACTORS
330
2A
102
}
330
2A
100
AcDbProxyObject
 90
      499
 91
      501
 93
      420
310
4194DA1859195911B40902404333333333333E33F0000000000000F9010740A41107004050150800405405064090840C02480A0B40
1001
ACAD
1000
AcDbSavedByObjectVersion
1070
     0
  0
ACAD_PROXY_OBJECT
  5
41
102
{ACAD_REACTORS
330
2A
102
}
330
2A
100
AcDbProxyObject
 90
      499
 91
      501
 93
      516
310
4454DA18591959081DDA5D1A08195919D95CD1A40902404333333333333E33F0000000000000F901074090142907004050250800405405064090740C02480A0B40
1001
ACAD
1000
AcDbSavedByObjectVersion
1070
     0
  0
ACAD_PROXY_OBJECT
  5
3E
102
{ACAD_REACTORS
330
2A
102
}
330
2A
100
AcDbProxyObject
 90
      499
 91
      501
 93
      532
310
4394DA1859195CC81BD98811DC985E5174090240C333333333333E33F0000000000000F901079024090741D01000000000000111010841D405064090740C02480A0340
1001
ACAD
1000
AcDbSavedByObjectVersion
1070
     0
  0
ACAD_PROXY_OBJECT
  5
3F
102
{ACAD_REACTORS
330
2A
102
}
330
2A
100
AcDbProxyObject
 90
      499
 91
      501
 93
      476
310
41D4DAD95D18DA1E51840502408333333333333E33F0000000000000F901079024090741D01000000000000111010B41D405064090741802480A0340
1001
ACAD
1000
AcDbSavedByObjectVersion
1070
     0
  0
ACAD_PROXY_OBJECT
  5
37
102
{ACAD_REACTORS
330
2A
102
}
330
2A
100
AcDbProxyObject
 90
      499
 91
      501
 93
      412
310
41D51A1A58DAD95B90D409028333333333333E33F0000000000000F9010790141107004050150C41D405064090741402480A0350
1001
ACAD
1000
AcDbSavedByObjectVersion
1070
     0
  0
ACAD_PROXY_OBJECT
  5
30
102
{ACAD_REACTORS
330
2A
102
}
330
2A
100
AcDbProxyObject
 90
      499
 91
      501
 93
      420
310
4255DA5C99599C985B595059028333333333333E33F0000000000000F90107901411070040501600405405064090740C02480A0340
1001
ACAD
1000
AcDbSavedByObjectVersion
1070
     0
  0
ACAD_PROXY_OBJECT
  5
40
102
{ACAD_REACTORS
330
2A
102
}
330
2A
100
AcDbProxyObject
 90
      499
 91
      501
 93
      404
310
41560B54985E51940902404000000000000E03F0000000000000F9010740501907004050150841D405064090740C02480A1B40
1001
ACAD
1000
AcDbSavedByObjectVersion
1070
     0
  0
XRECORD
  5
66E
102
{ACAD_REACTORS
330
664
102
}
330
664
100
AcDbXrecord
340
0
  0
XRECORD
  5
66D
102
{ACAD_REACTORS
330
664
102
}
330
664
100
AcDbXrecord
 90
        0
  0
XRECORD
  5
684
102
{ACAD_REACTORS
330
664
102
}
330
664
100
AcDbXrecord
1000
DSTYLE
1002
{
1070
   340
340
11
1002
}
  0
XRECORD
  5
66F
102
{ACAD_REACTORS
330
664
102
}
330
664
100
AcDbXrecord
  1
{44017312-33f4-4f2c-8eff-4d82e815996f}
  0
XRECORD
  5
667
102
{ACAD_REACTORS
330
664
102
}
330
664
100
AcDbXrecord
  1

  0
XRECORD
  5
66C
102
{ACAD_REACTORS
330
664
102
}
330
664
100
AcDbXrecord
 90
        4
  0
XRECORD
  5
669
102
{ACAD_REACTORS
330
664
102
}
330
664
100
AcDbXrecord
340
1A
  0
XRECORD
  5
66B
102
{ACAD_REACTORS
330
664
102
}
330
664
100
AcDbXrecord
 90
    10781
  0
XRECORD
  5
66A
102
{ACAD_REACTORS
330
664
102
}
330
664
100
AcDbXrecord
340
19
  0
XRECORD
  5
671
102
{ACAD_REACTORS
330
664
102
}
330
664
100
AcDbXrecord
 40
0.0
  0
XRECORD
  5
674
102
{ACAD_REACTORS
330
664
102
}
330
664
100
AcDbXrecord
340
0
  0
XRECORD
  5
67A
102
{ACAD_REACTORS
330
664
102
}
330
664
100
AcDbXrecord
 10
0.0
 20
0.0
 30
0.0
  0
XRECORD
  5
676
102
{ACAD_REACTORS
330
664
102
}
330
664
100
AcDbXrecord
 10
0.0
 20
0.0
 30
0.0
  0
XRECORD
  5
679
102
{ACAD_REACTORS
330
664
102
}
330
664
100
AcDbXrecord
 10
0.0
 20
0.0
 30
0.0
  0
XRECORD
  5
677
102
{ACAD_REACTORS
330
664
102
}
330
664
100
AcDbXrecord
 10
0.0
 20
0.0
 30
0.0
  0
XRECORD
  5
678
102
{ACAD_REACTORS
330
664
102
}
330
664
100
AcDbXrecord
 10
0.0
 20
0.0
 30
0.0
  0
XRECORD
  5
675
102
{ACAD_REACTORS
330
664
102
}
330
664
100
AcDbXrecord
 10
0.0
 20
0.0
 30
0.0
  0
XRECORD
  5
672
102
{ACAD_REACTORS
330
664
102
}
330
664
100
AcDbXrecord
340
0
  0
XRECORD
  5
673
102
{ACAD_REACTORS
330
664
102
}
330
664
100
AcDbXrecord
 70
     0
  0
XRECORD
  5
668
102
{ACAD_REACTORS
330
664
102
}
330
664
100
AcDbXrecord
  1

  0
XRECORD
  5
665
102
{ACAD_REACTORS
330
664
102
}
330
664
100
AcDbXrecord
 90
        1
  0
XRECORD
  5
666
102
{ACAD_REACTORS
330
664
102
}
330
664
100
AcDbXrecord
 90
       70
  0
XRECORD
  5
67D
102
{ACAD_REACTORS
330
664
102
}
330
664
100
AcDbXrecord
340
0
  0
XRECORD
  5
683
102
{ACAD_REACTORS
330
664
102
}
330
664
100
AcDbXrecord
 10
0.0
 20
0.0
 30
0.0
  0
XRECORD
  5
67F
102
{ACAD_REACTORS
330
664
102
}
330
664
100
AcDbXrecord
 10
0.0
 20
0.0
 30
0.0
  0
XRECORD
  5
682
102
{ACAD_REACTORS
330
664
102
}
330
664
100
AcDbXrecord
 10
0.0
 20
0.0
 30
0.0
  0
XRECORD
  5
680
102
{ACAD_REACTORS
330
664
102
}
330
664
100
AcDbXrecord
 10
0.0
 20
0.0
 30
0.0
  0
XRECORD
  5
681
102
{ACAD_REACTORS
330
664
102
}
330
664
100
AcDbXrecord
 10
0.0
 20
0.0
 30
0.0
  0
XRECORD
  5
67E
102
{ACAD_REACTORS
330
664
102
}
330
664
100
AcDbXrecord
 10
0.0
 20
0.0
 30
0.0
  0
XRECORD
  5
67B
102
{ACAD_REACTORS
330
664
102
}
330
664
100
AcDbXrecord
340
0
  0
XRECORD
  5
67C
102
{ACAD_REACTORS
330
664
102
}
330
664
100
AcDbXrecord
 70
     0
  0
XRECORD
  5
670
102
{ACAD_REACTORS
330
664
102
}
330
664
100
AcDbXrecord
  1
{FAEB1C32-E019-11D5-929B-00C0DF256EC4}
  0
DICTIONARYVAR
  5
692
102
{ACAD_REACTORS
330
685
102
}
330
685
100
DictionaryVariables
280
     0
  1
1:1
  0
DICTIONARYVAR
  5
68C
102
{ACAD_REACTORS
330
685
102
}
330
685
100
DictionaryVariables
280
     0
  1
3.500000
  0
DICTIONARYVAR
  5
68D
102
{ACAD_REACTORS
330
685
102
}
330
685
100
DictionaryVariables
280
     0
  1
acadiso.lin
  0
DICTIONARYVAR
  5
687
102
{ACAD_REACTORS
330
685
102
}
330
685
100
DictionaryVariables
280
     0
  1
Standard
  0
DICTIONARYVAR
  5
686
102
{ACAD_REACTORS
330
685
102
}
330
685
100
DictionaryVariables
280
     0
  1
Standard
  0
DICTIONARYVAR
  5
68E
102
{ACAD_REACTORS
330
685
102
}
330
685
100
DictionaryVariables
280
     0
  1
2
  0
DICTIONARYVAR
  5
68F
102
{ACAD_REACTORS
330
685
102
}
330
685
100
DictionaryVariables
280
     0
  1
1
  0
DICTIONARYVAR
  5
693
102
{ACAD_REACTORS
330
685
102
}
330
685
100
DictionaryVariables
280
     0
  1
1
  0
DICTIONARYVAR
  5
689
102
{ACAD_REACTORS
330
685
102
}
330
685
100
DictionaryVariables
280
     0
  1
80.000000
  0
DICTIONARYVAR
  5
688
102
{ACAD_REACTORS
330
685
102
}
330
685
100
DictionaryVariables
280
     0
  1
5.000000
  0
DICTIONARY
  5
696
330
45
100
AcDbDictionary
280
     1
  3
ACAD_XREC_ROUNDTRIP
360
697
  0
DICTIONARY
  5
694
330
44
100
AcDbDictionary
280
     1
  3
ACAD_XREC_ROUNDTRIP
360
695
  0
DICTIONARY
  5
698
330
46
100
AcDbDictionary
280
     1
  3
ACAD_XREC_ROUNDTRIP
360
699
  0
XRECORD
  5
697
102
{ACAD_REACTORS
330
696
102
}
330
696
100
AcDbXrecord
102
MATERIAL
148
0.0
149
0.0
149
0.0
 93
        0
 94
      127
282
     0
 72
     1
 77
     1
171
     1
175
     1
179
     1
273
     0
  0
XRECORD
  5
695
102
{ACAD_REACTORS
330
694
102
}
330
694
100
AcDbXrecord
102
MATERIAL
148
0.0
149
0.0
149
0.0
 93
        0
 94
      127
282
     0
 72
     1
 77
     1
171
     1
175
     1
179
     1
273
     0
  0
XRECORD
  5
699
102
{ACAD_REACTORS
330
698
102
}
330
698
100
AcDbXrecord
102
MATERIAL
148
0.0
149
0.0
149
0.0
 93
        0
 94
      127
282
     0
 72
     1
 77
     1
171
     1
175
     1
179
     1
273
     0
  0
ENDSEC
  0
EOF
