  0
SECTION
  2
HEADER
  9
$ACADVER
  1
AC1014
  9
$ACADMAINTVER
 70
     9
  9
$DWGCODEPAGE
  3
ANSI_932
  9
$INSBASE
 10
0.0
 20
0.0
 30
0.0
  9
$EXTMIN
 10
25.0
 20
50.0
 30
0.0
  9
$EXTMAX
 10
1925.0
 20
1400.0
 30
0.0
  9
$LIMMIN
 10
0.0
 20
0.0
  9
$LIMMAX
 10
420.0
 20
297.0
  9
$ORTHOMODE
 70
     0
  9
$REGENMODE
 70
     1
  9
$FILLMODE
 70
     1
  9
$QTEXTMODE
 70
     0
  9
$MIRRTEXT
 70
     1
  9
$DRAGMODE
 70
     2
  9
$LTSCALE
 40
0.2
  9
$OSMODE
 70
    37
  9
$ATTMODE
 70
     1
  9
$TEXTSIZE
 40
2.5
  9
$TRACEWID
 40
1.0
  9
$TEXTSTYLE
  7
STANDARD
  9
$CLAYER
  8
LAY-10
  9
$CELTYPE
  6
BYLAYER
  9
$CECOLOR
 62
   256
  9
$CELTSCALE
 40
1.0
  9
$DELOBJ
 70
     1
  9
$DISPSILH
 70
     0
  9
$DIMSCALE
 40
1.0
  9
$DIMASZ
 40
2.5
  9
$DIMEXO
 40
0.625
  9
$DIMDLI
 40
3.75
  9
$DIMRND
 40
0.0
  9
$DIMDLE
 40
0.0
  9
$DIMEXE
 40
1.25
  9
$DIMTP
 40
0.0
  9
$DIMTM
 40
0.0
  9
$DIMTXT
 40
2.5
  9
$DIMCEN
 40
2.5
  9
$DIMTSZ
 40
0.0
  9
$DIMTOL
 70
     0
  9
$DIMLIM
 70
     0
  9
$DIMTIH
 70
     0
  9
$DIMTOH
 70
     0
  9
$DIMSE1
 70
     0
  9
$DIMSE2
 70
     0
  9
$DIMTAD
 70
     1
  9
$DIMZIN
 70
     8
  9
$DIMBLK
  1

  9
$DIMASO
 70
     1
  9
$DIMSHO
 70
     1
  9
$DIMPOST
  1

  9
$DIMAPOST
  1

  9
$DIMALT
 70
     0
  9
$DIMALTD
 70
     3
  9
$DIMALTF
 40
0.03937007874016
  9
$DIMLFAC
 40
1.0
  9
$DIMTOFL
 70
     1
  9
$DIMTVP
 40
0.0
  9
$DIMTIX
 70
     0
  9
$DIMSOXD
 70
     0
  9
$DIMSAH
 70
     0
  9
$DIMBLK1
  1

  9
$DIMBLK2
  1

  9
$DIMSTYLE
  2
ISO-25
  9
$DIMCLRD
 70
     0
  9
$DIMCLRE
 70
     0
  9
$DIMCLRT
 70
     0
  9
$DIMTFAC
 40
1.0
  9
$DIMGAP
 40
0.625
  9
$DIMJUST
 70
     0
  9
$DIMSD1
 70
     0
  9
$DIMSD2
 70
     0
  9
$DIMTOLJ
 70
     0
  9
$DIMTZIN
 70
     8
  9
$DIMALTZ
 70
     0
  9
$DIMALTTZ
 70
     0
  9
$DIMFIT
 70
     3
  9
$DIMUPT
 70
     0
  9
$DIMUNIT
 70
     2
  9
$DIMDEC
 70
     2
  9
$DIMTDEC
 70
     2
  9
$DIMALTU
 70
     2
  9
$DIMALTTD
 70
     3
  9
$DIMTXSTY
  7
STANDARD
  9
$DIMAUNIT
 70
     0
  9
$LUNITS
 70
     2
  9
$LUPREC
 70
     4
  9
$SKETCHINC
 40
1.0
  9
$FILLETRAD
 40
10.0
  9
$AUNITS
 70
     0
  9
$AUPREC
 70
     0
  9
$MENU
  1
.
  9
$ELEVATION
 40
0.0
  9
$PELEVATION
 40
0.0
  9
$THICKNESS
 40
0.0
  9
$LIMCHECK
 70
     0
  9
$CHAMFERA
 40
0.0
  9
$CHAMFERB
 40
0.0
  9
$CHAMFERC
 40
0.0
  9
$CHAMFERD
 40
0.0
  9
$SKPOLY
 70
     0
  9
$TDCREATE
 40
2459229.334420868
  9
$TDUPDATE
 40
2459229.334421609
  9
$TDINDWG
 40
0.0000000116
  9
$TDUSRTIMER
 40
0.0000000116
  9
$USRTIMER
 70
     1
  9
$ANGBASE
 50
0.0
  9
$ANGDIR
 70
     0
  9
$PDMODE
 70
     0
  9
$PDSIZE
 40
0.0
  9
$PLINEWID
 40
0.0
  9
$COORDS
 70
     1
  9
$SPLFRAME
 70
     0
  9
$SPLINETYPE
 70
     6
  9
$SPLINESEGS
 70
     8
  9
$ATTDIA
 70
     0
  9
$ATTREQ
 70
     1
  9
$HANDLING
 70
     1
  9
$HANDSEED
  5
65B
  9
$SURFTAB1
 70
     6
  9
$SURFTAB2
 70
     6
  9
$SURFTYPE
 70
     6
  9
$SURFU
 70
     6
  9
$SURFV
 70
     6
  9
$UCSNAME
  2

  9
$UCSORG
 10
0.0
 20
0.0
 30
0.0
  9
$UCSXDIR
 10
1.0
 20
0.0
 30
0.0
  9
$UCSYDIR
 10
0.0
 20
1.0
 30
0.0
  9
$PUCSNAME
  2

  9
$PUCSORG
 10
0.0
 20
0.0
 30
0.0
  9
$PUCSXDIR
 10
1.0
 20
0.0
 30
0.0
  9
$PUCSYDIR
 10
0.0
 20
1.0
 30
0.0
  9
$USERI1
 70
     0
  9
$USERI2
 70
     0
  9
$USERI3
 70
     0
  9
$USERI4
 70
     0
  9
$USERI5
 70
     0
  9
$USERR1
 40
0.0
  9
$USERR2
 40
0.0
  9
$USERR3
 40
0.0
  9
$USERR4
 40
0.0
  9
$USERR5
 40
0.0
  9
$WORLDVIEW
 70
     1
  9
$SHADEDGE
 70
     3
  9
$SHADEDIF
 70
    70
  9
$TILEMODE
 70
     1
  9
$MAXACTVP
 70
    64
  9
$PINSBASE
 10
0.0
 20
0.0
 30
0.0
  9
$PLIMCHECK
 70
     0
  9
$PEXTMIN
 10
1.000000000000000E+20
 20
1.000000000000000E+20
 30
1.000000000000000E+20
  9
$PEXTMAX
 10
-1.000000000000000E+20
 20
-1.000000000000000E+20
 30
-1.000000000000000E+20
  9
$PLIMMIN
 10
0.0
 20
0.0
  9
$PLIMMAX
 10
420.0
 20
297.0
  9
$UNITMODE
 70
     0
  9
$VISRETAIN
 70
     1
  9
$PLINEGEN
 70
     0
  9
$PSLTSCALE
 70
     1
  9
$TREEDEPTH
 70
  3020
  9
$PICKSTYLE
 70
     1
  9
$CMLSTYLE
  2
STANDARD
  9
$CMLJUST
 70
     0
  9
$CMLSCALE
 40
20.0
  9
$PROXYGRAPHICS
 70
     1
  9
$MEASUREMENT
 70
     1
  0
ENDSEC
  0
SECTION
  2
CLASSES
  0
CLASS
  1
ACDBDICTIONARYWDFLT
  2
AcDbDictionaryWithDefault
  3
ObjectDBX Classes
 90
        0
280
     0
281
     0
  0
CLASS
  1
VISUALSTYLE
  2
AcDbVisualStyle
  3
ObjectDBX Classes
 90
     4095
280
     0
281
     0
  0
CLASS
  1
MATERIAL
  2
AcDbMaterial
  3
ObjectDBX Classes
 90
     1153
280
     0
281
     0
  0
CLASS
  1
SCALE
  2
AcDbScale
  3
ObjectDBX Classes
 90
     1153
280
     0
281
     0
  0
CLASS
  1
TABLESTYLE
  2
AcDbTableStyle
  3
ObjectDBX Classes
 90
     4095
280
     0
281
     0
  0
CLASS
  1
MLEADERSTYLE
  2
AcDbMLeaderStyle
  3
ACDB_MLEADERSTYLE_CLASS
 90
     4095
280
     0
281
     0
  0
CLASS
  1
SUN
  2
AcDbSun
  3
SCENEOE
 90
     1153
280
     0
281
     0
  0
CLASS
  1
DICTIONARYVAR
  2
AcDbDictionaryVar
  3
ObjectDBX Classes
 90
        0
280
     0
281
     0
  0
CLASS
  1
XRECORD
  2
AcDbXrecord
  3
ObjectDBX Classes
 90
        0
280
     0
281
     0
  0
CLASS
  1
LWPOLYLINE
  2
AcDbPolyline
  3
ObjectDBX Classes
 90
        0
280
     0
281
     1
  0
CLASS
  1
HATCH
  2
AcDbHatch
  3
ObjectDBX Classes
 90
        0
280
     0
281
     1
  0
CLASS
  1
ACDBPLACEHOLDER
  2
AcDbPlaceHolder
  3
ObjectDBX Classes
 90
        0
280
     0
281
     0
  0
CLASS
  1
LAYOUT
  2
AcDbLayout
  3
ObjectDBX Classes
 90
        0
280
     0
281
     0
  0
ENDSEC
  0
SECTION
  2
TABLES
  0
TABLE
  2
VPORT
  5
8
102
{ACAD_XDICTIONARY
360
650
102
}
330
0
100
AcDbSymbolTable
 70
     1
  0
VPORT
  5
29
330
8
100
AcDbSymbolTableRecord
100
AcDbViewportTableRecord
  2
*ACTIVE
 70
     0
 10
0.0
 20
0.0
 11
1.0
 21
1.0
 12
975.0000000000001
 22
725.0
 13
0.0
 23
0.0
 14
10.0
 24
10.0
 15
10.0
 25
10.0
 16
0.0
 26
0.0
 36
1.0
 17
0.0
 27
0.0
 37
0.0
 40
1350.0
 41
1.407407407407408
 42
50.0
 43
0.0
 44
0.0
 50
0.0
 51
0.0
 71
     0
 72
  1000
 73
     1
 74
     3
 75
     0
 76
     0
 77
     0
 78
     0
  0
ENDTAB
  0
TABLE
  2
LTYPE
  5
5
330
0
100
AcDbSymbolTable
 70
     6
  0
LTYPE
  5
14
330
5
100
AcDbSymbolTableRecord
100
AcDbLinetypeTableRecord
  2
BYBLOCK
 70
     0
  3

 72
    65
 73
     0
 40
0.0
  0
LTYPE
  5
15
330
5
100
AcDbSymbolTableRecord
100
AcDbLinetypeTableRecord
  2
BYLAYER
 70
     0
  3

 72
    65
 73
     0
 40
0.0
  0
LTYPE
  5
16
330
5
100
AcDbSymbolTableRecord
100
AcDbLinetypeTableRecord
  2
CONTINUOUS
 70
     0
  3
Solid line
 72
    65
 73
     0
 40
0.0
  0
LTYPE
  5
6E
330
5
100
AcDbSymbolTableRecord
100
AcDbLinetypeTableRecord
  2
HIDDEN
 70
     0
  3
Hidden __ __ __ __ __ __ __ __ __ __ __ __ __ __
 72
    65
 73
     2
 40
9.524999999999999
 49
6.35
 74
     0
 49
-3.175
 74
     0
  0
LTYPE
  5
6F
330
5
100
AcDbSymbolTableRecord
100
AcDbLinetypeTableRecord
  2
CENTER
 70
     0
  3
Center ____ _ ____ _ ____ _ ____ _ ____ _ ____
 72
    65
 73
     4
 40
50.8
 49
31.75
 74
     0
 49
-6.35
 74
     0
 49
6.35
 74
     0
 49
-6.35
 74
     0
  0
LTYPE
  5
70
330
5
100
AcDbSymbolTableRecord
100
AcDbLinetypeTableRecord
  2
PHANTOM
 70
     0
  3
Phantom ______  __  __  ______  __  __  ______ 
 72
    65
 73
     6
 40
63.50000000000001
 49
31.75
 74
     0
 49
-6.35
 74
     0
 49
6.35
 74
     0
 49
-6.35
 74
     0
 49
6.35
 74
     0
 49
-6.35
 74
     0
  0
LTYPE
  5
71
330
5
100
AcDbSymbolTableRecord
100
AcDbLinetypeTableRecord
  2
ACAD_ISO06W100
 70
     0
  3
ISO long-dash triple-dot ____ ... ____ ... ____
 72
    65
 73
     8
 40
36.0
 49
24.0
 74
     0
 49
-3.0
 74
     0
 49
0.0
 74
     0
 49
-3.0
 74
     0
 49
0.0
 74
     0
 49
-3.0
 74
     0
 49
0.0
 74
     0
 49
-3.0
 74
     0
  0
LTYPE
  5
72
330
5
100
AcDbSymbolTableRecord
100
AcDbLinetypeTableRecord
  2
ACAD_ISO15W100
 70
     0
  3
ISO double-dash triple-dot __ __ . . . __ __ . .
 72
    65
 73
    10
 40
39.0
 49
12.0
 74
     0
 49
-3.0
 74
     0
 49
12.0
 74
     0
 49
-3.0
 74
     0
 49
0.0
 74
     0
 49
-3.0
 74
     0
 49
0.0
 74
     0
 49
-3.0
 74
     0
 49
0.0
 74
     0
 49
-3.0
 74
     0
  0
ENDTAB
  0
TABLE
  2
LAYER
  5
2
330
0
100
AcDbSymbolTable
 70
     5
  0
LAYER
  5
10
330
2
100
AcDbSymbolTableRecord
100
AcDbLayerTableRecord
  2
0
 70
     0
 62
     7
  6
CONTINUOUS
  0
LAYER
  5
75
330
2
100
AcDbSymbolTableRecord
100
AcDbLayerTableRecord
  2
LAY-10
 70
     0
 62
     7
  6
CONTINUOUS
  0
LAYER
  5
76
330
2
100
AcDbSymbolTableRecord
100
AcDbLayerTableRecord
  2
LAY-20
 70
     0
 62
     7
  6
CONTINUOUS
  0
LAYER
  5
77
330
2
100
AcDbSymbolTableRecord
100
AcDbLayerTableRecord
  2
LAY-255
 70
     0
 62
     7
  6
CONTINUOUS
  0
LAYER
  5
524
330
2
100
AcDbSymbolTableRecord
100
AcDbLayerTableRecord
  2
DEFPOINTS
 70
     0
 62
     7
  6
CONTINUOUS
  0
ENDTAB
  0
TABLE
  2
STYLE
  5
3
330
0
100
AcDbSymbolTable
 70
     4
  0
STYLE
  5
11
330
3
100
AcDbSymbolTableRecord
100
AcDbTextStyleTableRecord
  2
STANDARD
 70
     0
 40
0.0
 41
1.0
 50
0.0
 71
     0
 42
2.5
  3
simplex
  4
bigfont
  0
STYLE
  5
73
330
3
100
AcDbSymbolTableRecord
100
AcDbTextStyleTableRecord
  2
EXCADSTD
 70
     0
 40
0.0
 41
1.0
 50
0.0
 71
     0
 42
2.5
  3
simplex
  4
bigfont
  0
STYLE
  5
74
330
3
100
AcDbSymbolTableRecord
100
AcDbTextStyleTableRecord
  2
EXCADVERT
 70
     4
 40
0.0
 41
1.0
 50
0.0
 71
     0
 42
2.5
  3
simplex
  4
bigfont
  0
STYLE
  5
522
330
3
100
AcDbSymbolTableRecord
100
AcDbTextStyleTableRecord
  2
EXCADDIM1
 70
     0
 40
0.0
 41
0.84
 50
0.0
 71
     0
 42
2.5
  3
simplex
  4
bigfont
  0
ENDTAB
  0
TABLE
  2
VIEW
  5
6
330
0
100
AcDbSymbolTable
 70
     0
  0
ENDTAB
  0
TABLE
  2
UCS
  5
7
330
0
100
AcDbSymbolTable
 70
     0
  0
ENDTAB
  0
TABLE
  2
APPID
  5
9
330
0
100
AcDbSymbolTable
 70
     2
  0
APPID
  5
12
330
9
100
AcDbSymbolTableRecord
100
AcDbRegAppTableRecord
  2
ACAD
 70
     0
  0
APPID
  5
65A
330
9
100
AcDbSymbolTableRecord
100
AcDbRegAppTableRecord
  2
ACAD_MLEADERVER
 70
     0
  0
ENDTAB
  0
TABLE
  2
DIMSTYLE
  5
A
330
0
100
AcDbSymbolTable
 70
     1
  0
DIMSTYLE
105
27
102
{ACAD_REACTORS
330
523
330
531
330
53C
330
549
330
556
330
563
330
570
330
57D
330
58A
330
596
330
5A3
330
5AF
330
5BB
330
5C7
330
5D4
330
5E0
330
5EB
102
}
330
A
100
AcDbSymbolTableRecord
100
AcDbDimStyleTableRecord
  2
ISO-25
 70
     0
  3

  4

  5

  6

  7

 40
1.0
 41
2.5
 42
0.625
 43
3.75
 44
1.25
 45
0.0
 46
0.0
 47
0.0
 48
0.0
140
2.5
141
2.5
142
0.0
143
0.03937007874016
144
1.0
145
0.0
146
1.0
147
0.625
 71
     0
 72
     0
 73
     0
 74
     0
 75
     0
 76
     0
 77
     1
 78
     8
170
     0
171
     3
172
     1
173
     0
174
     0
175
     0
176
     0
177
     0
178
     0
270
     2
271
     2
272
     2
273
     2
274
     3
340
11
275
     0
280
     0
281
     0
282
     0
283
     0
284
     8
285
     0
286
     0
287
     5
288
     0
  0
ENDTAB
  0
TABLE
  2
BLOCK_RECORD
  5
1
330
0
100
AcDbSymbolTable
 70
    31
  0
BLOCK_RECORD
  5
1F
330
1
100
AcDbSymbolTableRecord
100
AcDbBlockTableRecord
  2
*MODEL_SPACE
  0
BLOCK_RECORD
  5
1B
330
1
100
AcDbSymbolTableRecord
100
AcDbBlockTableRecord
  2
*PAPER_SPACE
  0
BLOCK_RECORD
  5
78
330
1
100
AcDbSymbolTableRecord
100
AcDbBlockTableRecord
  2
EX_NORM
  0
BLOCK_RECORD
  5
7B
330
1
100
AcDbSymbolTableRecord
100
AcDbBlockTableRecord
  2
EX_BNORM
  0
BLOCK_RECORD
  5
7E
330
1
100
AcDbSymbolTableRecord
100
AcDbBlockTableRecord
  2
EX_BCIR
  0
BLOCK_RECORD
  5
81
330
1
100
AcDbSymbolTableRecord
100
AcDbBlockTableRecord
  2
EX_RCIVIL
  0
BLOCK_RECORD
  5
84
330
1
100
AcDbSymbolTableRecord
100
AcDbBlockTableRecord
  2
EX_SLANT
  0
BLOCK_RECORD
  5
87
330
1
100
AcDbSymbolTableRecord
100
AcDbBlockTableRecord
  2
EX_NONE
  0
BLOCK_RECORD
  5
8A
330
1
100
AcDbSymbolTableRecord
100
AcDbBlockTableRecord
  2
EX_CIVIL
  0
BLOCK_RECORD
  5
8D
330
1
100
AcDbSymbolTableRecord
100
AcDbBlockTableRecord
  2
EX_WCIR
  0
BLOCK_RECORD
  5
90
330
1
100
AcDbSymbolTableRecord
100
AcDbBlockTableRecord
  2
EX_WCIR2
  0
BLOCK_RECORD
  5
93
330
1
100
AcDbSymbolTableRecord
100
AcDbBlockTableRecord
  2
EX_WNORM
  0
BLOCK_RECORD
  5
96
330
1
100
AcDbSymbolTableRecord
100
AcDbBlockTableRecord
  2
EX_NNORM
  0
BLOCK_RECORD
  5
99
330
1
100
AcDbSymbolTableRecord
100
AcDbBlockTableRecord
  2
EX_BBOX
  0
BLOCK_RECORD
  5
9C
330
1
100
AcDbSymbolTableRecord
100
AcDbBlockTableRecord
  2
EX_WBOX
  0
BLOCK_RECORD
  5
9F
330
1
100
AcDbSymbolTableRecord
100
AcDbBlockTableRecord
  2
EX_INTEGRAL
  0
BLOCK_RECORD
  5
525
330
1
100
AcDbSymbolTableRecord
100
AcDbBlockTableRecord
  2
*D15
  0
BLOCK_RECORD
  5
532
330
1
100
AcDbSymbolTableRecord
100
AcDbBlockTableRecord
  2
*D16
  0
BLOCK_RECORD
  5
53D
330
1
100
AcDbSymbolTableRecord
100
AcDbBlockTableRecord
  2
*D17
  0
BLOCK_RECORD
  5
54A
330
1
100
AcDbSymbolTableRecord
100
AcDbBlockTableRecord
  2
*D18
  0
BLOCK_RECORD
  5
557
330
1
100
AcDbSymbolTableRecord
100
AcDbBlockTableRecord
  2
*D19
  0
BLOCK_RECORD
  5
564
330
1
100
AcDbSymbolTableRecord
100
AcDbBlockTableRecord
  2
*D20
  0
BLOCK_RECORD
  5
571
330
1
100
AcDbSymbolTableRecord
100
AcDbBlockTableRecord
  2
*D21
  0
BLOCK_RECORD
  5
57E
330
1
100
AcDbSymbolTableRecord
100
AcDbBlockTableRecord
  2
*D22
  0
BLOCK_RECORD
  5
58B
330
1
100
AcDbSymbolTableRecord
100
AcDbBlockTableRecord
  2
*D23
  0
BLOCK_RECORD
  5
597
330
1
100
AcDbSymbolTableRecord
100
AcDbBlockTableRecord
  2
*D24
  0
BLOCK_RECORD
  5
5A4
330
1
100
AcDbSymbolTableRecord
100
AcDbBlockTableRecord
  2
*D25
  0
BLOCK_RECORD
  5
5B0
330
1
100
AcDbSymbolTableRecord
100
AcDbBlockTableRecord
  2
*D26
  0
BLOCK_RECORD
  5
5BC
330
1
100
AcDbSymbolTableRecord
100
AcDbBlockTableRecord
  2
*D27
  0
BLOCK_RECORD
  5
5C8
330
1
100
AcDbSymbolTableRecord
100
AcDbBlockTableRecord
  2
*D28
  0
BLOCK_RECORD
  5
5D5
330
1
100
AcDbSymbolTableRecord
100
AcDbBlockTableRecord
  2
*D29
  0
BLOCK_RECORD
  5
5E1
330
1
100
AcDbSymbolTableRecord
100
AcDbBlockTableRecord
  2
*D30
  0
BLOCK_RECORD
  5
5EC
330
1
100
AcDbSymbolTableRecord
100
AcDbBlockTableRecord
  2
*D31
  0
ENDTAB
  0
ENDSEC
  0
SECTION
  2
BLOCKS
  0
BLOCK
  5
20
330
1F
100
AcDbEntity
  8
0
100
AcDbBlockBegin
  2
*MODEL_SPACE
 70
     0
 10
0.0
 20
0.0
 30
0.0
  3
*MODEL_SPACE
  1

  0
ENDBLK
  5
21
330
1F
100
AcDbEntity
  8
0
100
AcDbBlockEnd
  0
BLOCK
  5
1C
330
1B
100
AcDbEntity
 67
     1
  8
0
100
AcDbBlockBegin
  2
*PAPER_SPACE
 70
     0
 10
0.0
 20
0.0
 30
0.0
  3
*PAPER_SPACE
  1

  0
ENDBLK
  5
1D
330
1B
100
AcDbEntity
 67
     1
  8
0
100
AcDbBlockEnd
  0
BLOCK
  5
79
330
78
100
AcDbEntity
  8
0
100
AcDbBlockBegin
  2
EX_NORM
 70
     0
 10
0.0
 20
0.0
 30
0.0
  3
EX_NORM
  1

  0
LINE
  5
A2
330
78
100
AcDbEntity
  8
0
  6
CONTINUOUS
 62
     0
100
AcDbLine
 10
0.0
 20
0.0
 30
0.0
 11
-1.0
 21
0.0
 31
0.0
  0
LINE
  5
A3
330
78
100
AcDbEntity
  8
0
  6
CONTINUOUS
 62
     0
100
AcDbLine
 10
0.0
 20
0.0
 30
0.0
 11
-1.0
 21
0.166666667
 31
0.0
  0
LINE
  5
A4
330
78
100
AcDbEntity
  8
0
  6
CONTINUOUS
 62
     0
100
AcDbLine
 10
0.0
 20
0.0
 30
0.0
 11
-1.0
 21
-0.166666667
 31
0.0
  0
ENDBLK
  5
7A
330
78
100
AcDbEntity
  8
0
100
AcDbBlockEnd
  0
BLOCK
  5
7C
330
7B
100
AcDbEntity
  8
0
100
AcDbBlockBegin
  2
EX_BNORM
 70
     0
 10
0.0
 20
0.0
 30
0.0
  3
EX_BNORM
  1

  0
LINE
  5
A5
330
7B
100
AcDbEntity
  8
0
  6
CONTINUOUS
 62
     0
100
AcDbLine
 10
0.0
 20
0.0
 30
0.0
 11
-1.0
 21
0.0
 31
0.0
  0
LINE
  5
A6
330
7B
100
AcDbEntity
  8
0
  6
CONTINUOUS
 62
     0
100
AcDbLine
 10
0.0
 20
0.0
 30
0.0
 11
-1.0
 21
0.166666667
 31
0.0
  0
LINE
  5
A7
330
7B
100
AcDbEntity
  8
0
  6
CONTINUOUS
 62
     0
100
AcDbLine
 10
0.0
 20
0.0
 30
0.0
 11
-1.0
 21
-0.166666667
 31
0.0
  0
LINE
  5
A8
330
7B
100
AcDbEntity
  8
0
  6
CONTINUOUS
 62
     0
100
AcDbLine
 10
0.0
 20
0.0
 30
0.0
 11
-1.0
 21
0.083333333
 31
0.0
  0
LINE
  5
A9
330
7B
100
AcDbEntity
  8
0
  6
CONTINUOUS
 62
     0
100
AcDbLine
 10
0.0
 20
0.0
 30
0.0
 11
-1.0
 21
-0.083333333
 31
0.0
  0
LINE
  5
AA
330
7B
100
AcDbEntity
  8
0
  6
CONTINUOUS
 62
     0
100
AcDbLine
 10
-1.0
 20
0.166666667
 30
0.0
 11
-1.0
 21
-0.166666667
 31
0.0
  0
ENDBLK
  5
7D
330
7B
100
AcDbEntity
  8
0
100
AcDbBlockEnd
  0
BLOCK
  5
7F
330
7E
100
AcDbEntity
  8
0
100
AcDbBlockBegin
  2
EX_BCIR
 70
     0
 10
0.0
 20
0.0
 30
0.0
  3
EX_BCIR
  1

  0
LINE
  5
AB
330
7E
100
AcDbEntity
  8
0
  6
CONTINUOUS
 62
     0
100
AcDbLine
 10
0.0
 20
0.0
 30
0.0
 11
-1.0
 21
0.0
 31
0.0
  0
CIRCLE
  5
AC
330
7E
100
AcDbEntity
  8
0
  6
CONTINUOUS
 62
     0
100
AcDbCircle
 10
0.0
 20
0.0
 30
0.0
 40
0.5
  0
CIRCLE
  5
AD
330
7E
100
AcDbEntity
  8
0
  6
CONTINUOUS
 62
     0
100
AcDbCircle
 10
0.0
 20
0.0
 30
0.0
 40
0.25
  0
ENDBLK
  5
80
330
7E
100
AcDbEntity
  8
0
100
AcDbBlockEnd
  0
BLOCK
  5
82
330
81
100
AcDbEntity
  8
0
100
AcDbBlockBegin
  2
EX_RCIVIL
 70
     0
 10
0.0
 20
0.0
 30
0.0
  3
EX_RCIVIL
  1

  0
LINE
  5
AE
330
81
100
AcDbEntity
  8
0
  6
CONTINUOUS
 62
     0
100
AcDbLine
 10
0.0
 20
0.0
 30
0.0
 11
-1.0
 21
0.0
 31
0.0
  0
LINE
  5
AF
330
81
100
AcDbEntity
  8
0
  6
CONTINUOUS
 62
     0
100
AcDbLine
 10
-1.0
 20
-0.25
 30
0.0
 11
0.0
 21
-0.25
 31
0.0
  0
LINE
  5
B0
330
81
100
AcDbEntity
  8
0
  6
CONTINUOUS
 62
     0
100
AcDbLine
 10
-1.0
 20
-0.125
 30
0.0
 11
0.0
 21
-0.125
 31
0.0
  0
ENDBLK
  5
83
330
81
100
AcDbEntity
  8
0
100
AcDbBlockEnd
  0
BLOCK
  5
85
330
84
100
AcDbEntity
  8
0
100
AcDbBlockBegin
  2
EX_SLANT
 70
     0
 10
0.0
 20
0.0
 30
0.0
  3
EX_SLANT
  1

  0
LINE
  5
B1
330
84
100
AcDbEntity
  8
0
  6
CONTINUOUS
 62
     0
100
AcDbLine
 10
0.0
 20
0.0
 30
0.0
 11
-1.0
 21
0.0
 31
0.0
  0
LINE
  5
B2
330
84
100
AcDbEntity
  8
0
  6
CONTINUOUS
 62
     0
100
AcDbLine
 10
0.707106781
 20
0.707106781
 30
0.0
 11
-0.707106781
 21
-0.707106781
 31
0.0
  0
ENDBLK
  5
86
330
84
100
AcDbEntity
  8
0
100
AcDbBlockEnd
  0
BLOCK
  5
88
330
87
100
AcDbEntity
  8
0
100
AcDbBlockBegin
  2
EX_NONE
 70
     0
 10
0.0
 20
0.0
 30
0.0
  3
EX_NONE
  1

  0
LINE
  5
B3
330
87
100
AcDbEntity
  8
0
  6
CONTINUOUS
 62
     0
100
AcDbLine
 10
0.0
 20
0.0
 30
0.0
 11
-1.0
 21
0.0
 31
0.0
  0
ENDBLK
  5
89
330
87
100
AcDbEntity
  8
0
100
AcDbBlockEnd
  0
BLOCK
  5
8B
330
8A
100
AcDbEntity
  8
0
100
AcDbBlockBegin
  2
EX_CIVIL
 70
     0
 10
0.0
 20
0.0
 30
0.0
  3
EX_CIVIL
  1

  0
LINE
  5
B4
330
8A
100
AcDbEntity
  8
0
  6
CONTINUOUS
 62
     0
100
AcDbLine
 10
0.0
 20
0.0
 30
0.0
 11
-1.0
 21
0.0
 31
0.0
  0
LINE
  5
B5
330
8A
100
AcDbEntity
  8
0
  6
CONTINUOUS
 62
     0
100
AcDbLine
 10
-1.0
 20
0.25
 30
0.0
 11
0.0
 21
0.25
 31
0.0
  0
LINE
  5
B6
330
8A
100
AcDbEntity
  8
0
  6
CONTINUOUS
 62
     0
100
AcDbLine
 10
-1.0
 20
0.125
 30
0.0
 11
0.0
 21
0.125
 31
0.0
  0
ENDBLK
  5
8C
330
8A
100
AcDbEntity
  8
0
100
AcDbBlockEnd
  0
BLOCK
  5
8E
330
8D
100
AcDbEntity
  8
0
100
AcDbBlockBegin
  2
EX_WCIR
 70
     0
 10
0.0
 20
0.0
 30
0.0
  3
EX_WCIR
  1

  0
LINE
  5
B7
330
8D
100
AcDbEntity
  8
0
  6
CONTINUOUS
 62
     0
100
AcDbLine
 10
0.0
 20
0.0
 30
0.0
 11
-1.0
 21
0.0
 31
0.0
  0
CIRCLE
  5
B8
330
8D
100
AcDbEntity
  8
0
  6
CONTINUOUS
 62
     0
100
AcDbCircle
 10
0.0
 20
0.0
 30
0.0
 40
0.5
  0
ENDBLK
  5
8F
330
8D
100
AcDbEntity
  8
0
100
AcDbBlockEnd
  0
BLOCK
  5
91
330
90
100
AcDbEntity
  8
0
100
AcDbBlockBegin
  2
EX_WCIR2
 70
     0
 10
0.0
 20
0.0
 30
0.0
  3
EX_WCIR2
  1

  0
LINE
  5
B9
330
90
100
AcDbEntity
  8
0
  6
CONTINUOUS
 62
     0
100
AcDbLine
 10
-0.5
 20
0.0
 30
0.0
 11
-1.0
 21
0.0
 31
0.0
  0
CIRCLE
  5
BA
330
90
100
AcDbEntity
  8
0
  6
CONTINUOUS
 62
     0
100
AcDbCircle
 10
0.0
 20
0.0
 30
0.0
 40
0.5
  0
ENDBLK
  5
92
330
90
100
AcDbEntity
  8
0
100
AcDbBlockEnd
  0
BLOCK
  5
94
330
93
100
AcDbEntity
  8
0
100
AcDbBlockBegin
  2
EX_WNORM
 70
     0
 10
0.0
 20
0.0
 30
0.0
  3
EX_WNORM
  1

  0
LINE
  5
BB
330
93
100
AcDbEntity
  8
0
  6
CONTINUOUS
 62
     0
100
AcDbLine
 10
-1.0
 20
0.0
 30
0.0
 11
-1.0
 21
0.0
 31
0.0
  0
LINE
  5
BC
330
93
100
AcDbEntity
  8
0
  6
CONTINUOUS
 62
     0
100
AcDbLine
 10
0.0
 20
0.0
 30
0.0
 11
-1.0
 21
0.166666667
 31
0.0
  0
LINE
  5
BD
330
93
100
AcDbEntity
  8
0
  6
CONTINUOUS
 62
     0
100
AcDbLine
 10
0.0
 20
0.0
 30
0.0
 11
-1.0
 21
-0.166666667
 31
0.0
  0
LINE
  5
BE
330
93
100
AcDbEntity
  8
0
  6
CONTINUOUS
 62
     0
100
AcDbLine
 10
-1.0
 20
0.166666667
 30
0.0
 11
-1.0
 21
-0.166666667
 31
0.0
  0
ENDBLK
  5
95
330
93
100
AcDbEntity
  8
0
100
AcDbBlockEnd
  0
BLOCK
  5
97
330
96
100
AcDbEntity
  8
0
100
AcDbBlockBegin
  2
EX_NNORM
 70
     0
 10
0.0
 20
0.0
 30
0.0
  3
EX_NNORM
  1

  0
LINE
  5
BF
330
96
100
AcDbEntity
  8
0
  6
CONTINUOUS
 62
     0
100
AcDbLine
 10
0.0
 20
0.0
 30
0.0
 11
-1.0
 21
0.0
 31
0.0
  0
LINE
  5
C0
330
96
100
AcDbEntity
  8
0
  6
CONTINUOUS
 62
     0
100
AcDbLine
 10
0.0
 20
0.0
 30
0.0
 11
-1.0
 21
0.166666667
 31
0.0
  0
LINE
  5
C1
330
96
100
AcDbEntity
  8
0
  6
CONTINUOUS
 62
     0
100
AcDbLine
 10
0.0
 20
0.0
 30
0.0
 11
-1.0
 21
-0.166666667
 31
0.0
  0
LINE
  5
C2
330
96
100
AcDbEntity
  8
0
  6
CONTINUOUS
 62
     0
100
AcDbLine
 10
-1.0
 20
0.166666667
 30
0.0
 11
-1.0
 21
-0.166666667
 31
0.0
  0
ENDBLK
  5
98
330
96
100
AcDbEntity
  8
0
100
AcDbBlockEnd
  0
BLOCK
  5
9A
330
99
100
AcDbEntity
  8
0
100
AcDbBlockBegin
  2
EX_BBOX
 70
     0
 10
0.0
 20
0.0
 30
0.0
  3
EX_BBOX
  1

  0
LINE
  5
C3
330
99
100
AcDbEntity
  8
0
  6
CONTINUOUS
 62
     0
100
AcDbLine
 10
0.0
 20
0.0
 30
0.0
 11
-1.0
 21
0.0
 31
0.0
  0
LINE
  5
C4
330
99
100
AcDbEntity
  8
0
  6
CONTINUOUS
 62
     0
100
AcDbLine
 10
-0.5
 20
0.5
 30
0.0
 11
0.5
 21
0.5
 31
0.0
  0
LINE
  5
C5
330
99
100
AcDbEntity
  8
0
  6
CONTINUOUS
 62
     0
100
AcDbLine
 10
0.5
 20
0.5
 30
0.0
 11
0.5
 21
-0.5
 31
0.0
  0
LINE
  5
C6
330
99
100
AcDbEntity
  8
0
  6
CONTINUOUS
 62
     0
100
AcDbLine
 10
0.5
 20
-0.5
 30
0.0
 11
-0.5
 21
-0.5
 31
0.0
  0
LINE
  5
C7
330
99
100
AcDbEntity
  8
0
  6
CONTINUOUS
 62
     0
100
AcDbLine
 10
-0.5
 20
-0.5
 30
0.0
 11
-0.5
 21
0.5
 31
0.0
  0
LINE
  5
C8
330
99
100
AcDbEntity
  8
0
  6
CONTINUOUS
 62
     0
100
AcDbLine
 10
-0.25
 20
0.25
 30
0.0
 11
0.25
 21
0.25
 31
0.0
  0
LINE
  5
C9
330
99
100
AcDbEntity
  8
0
  6
CONTINUOUS
 62
     0
100
AcDbLine
 10
0.25
 20
0.25
 30
0.0
 11
0.25
 21
-0.25
 31
0.0
  0
LINE
  5
CA
330
99
100
AcDbEntity
  8
0
  6
CONTINUOUS
 62
     0
100
AcDbLine
 10
0.25
 20
-0.25
 30
0.0
 11
-0.25
 21
-0.25
 31
0.0
  0
LINE
  5
CB
330
99
100
AcDbEntity
  8
0
  6
CONTINUOUS
 62
     0
100
AcDbLine
 10
-0.25
 20
-0.25
 30
0.0
 11
-0.25
 21
0.25
 31
0.0
  0
ENDBLK
  5
9B
330
99
100
AcDbEntity
  8
0
100
AcDbBlockEnd
  0
BLOCK
  5
9D
330
9C
100
AcDbEntity
  8
0
100
AcDbBlockBegin
  2
EX_WBOX
 70
     0
 10
0.0
 20
0.0
 30
0.0
  3
EX_WBOX
  1

  0
LINE
  5
CC
330
9C
100
AcDbEntity
  8
0
  6
CONTINUOUS
 62
     0
100
AcDbLine
 10
-0.5
 20
0.0
 30
0.0
 11
-1.0
 21
0.0
 31
0.0
  0
LINE
  5
CD
330
9C
100
AcDbEntity
  8
0
  6
CONTINUOUS
 62
     0
100
AcDbLine
 10
-0.5
 20
0.5
 30
0.0
 11
0.5
 21
0.5
 31
0.0
  0
LINE
  5
CE
330
9C
100
AcDbEntity
  8
0
  6
CONTINUOUS
 62
     0
100
AcDbLine
 10
0.5
 20
0.5
 30
0.0
 11
0.5
 21
-0.5
 31
0.0
  0
LINE
  5
CF
330
9C
100
AcDbEntity
  8
0
  6
CONTINUOUS
 62
     0
100
AcDbLine
 10
0.5
 20
-0.5
 30
0.0
 11
-0.5
 21
-0.5
 31
0.0
  0
LINE
  5
D0
330
9C
100
AcDbEntity
  8
0
  6
CONTINUOUS
 62
     0
100
AcDbLine
 10
-0.5
 20
-0.5
 30
0.0
 11
-0.5
 21
0.5
 31
0.0
  0
ENDBLK
  5
9E
330
9C
100
AcDbEntity
  8
0
100
AcDbBlockEnd
  0
BLOCK
  5
A0
330
9F
100
AcDbEntity
  8
0
100
AcDbBlockBegin
  2
EX_INTEGRAL
 70
     0
 10
0.0
 20
0.0
 30
0.0
  3
EX_INTEGRAL
  1

  0
LINE
  5
D1
330
9F
100
AcDbEntity
  8
0
  6
CONTINUOUS
 62
     0
100
AcDbLine
 10
0.0
 20
0.0
 30
0.0
 11
-1.0
 21
0.0
 31
0.0
  0
ARC
  5
D2
330
9F
100
AcDbEntity
  8
0
  6
CONTINUOUS
 62
     0
100
AcDbCircle
 10
0.542115
 20
0.164992
 30
0.0
 40
0.56667
100
AcDbArc
 50
73.07249033629006
 51
196.9275130221199
  0
ARC
  5
D3
330
9F
100
AcDbEntity
  8
0
  6
CONTINUOUS
 62
     0
100
AcDbCircle
 10
-0.542115
 20
-0.164992
 30
0.0
 40
0.56667
100
AcDbArc
 50
253.0724869220464
 51
16.9275130559125
  0
ENDBLK
  5
A1
330
9F
100
AcDbEntity
  8
0
100
AcDbBlockEnd
  0
BLOCK
  5
526
330
525
100
AcDbEntity
  8
0
100
AcDbBlockBegin
  2
*D15
 70
     1
 10
0.0
 20
0.0
 30
0.0
  3
*D15
  1

  0
LINE
  5
528
330
525
100
AcDbEntity
  8
LAY-20
  6
CONTINUOUS
 62
     4
100
AcDbLine
 10
1492.499999999995
 20
925.00000000002
 30
0.0
 11
1567.499999999995
 21
925.0000000000201
 31
0.0
  0
LINE
  5
529
330
525
100
AcDbEntity
  8
LAY-20
  6
CONTINUOUS
 62
     4
100
AcDbLine
 10
1492.499999999995
 20
1075.00000000002
 30
0.0
 11
1567.499999999995
 21
1075.00000000002
 31
0.0
  0
LINE
  5
52A
330
525
100
AcDbEntity
  8
LAY-20
  6
CONTINUOUS
 62
     4
100
AcDbLine
 10
1559.999999999995
 20
937.5000000000201
 30
0.0
 11
1559.999999999995
 21
1062.50000000002
 31
0.0
  0
INSERT
  5
52B
330
525
100
AcDbEntity
  8
LAY-20
 62
     4
100
AcDbBlockReference
  2
EX_BNORM
 10
1559.999999999995
 20
925.0000000000201
 30
0.0
 41
12.5
 42
12.5
 43
12.5
 50
270.0
  0
INSERT
  5
52C
330
525
100
AcDbEntity
  8
LAY-20
 62
     4
100
AcDbBlockReference
  2
EX_BNORM
 10
1559.999999999995
 20
1075.00000000002
 30
0.0
 41
12.5
 42
12.5
 43
12.5
 50
90.0
  0
MTEXT
  5
52D
330
525
100
AcDbEntity
  8
LAY-20
 62
     7
100
AcDbMText
 10
1547.499999999995
 20
1000.00000000002
 30
0.0
 40
15.590552
 41
0.0
 71
     5
 72
     1
  1
溝幅150
  7
EXCADDIM1
 11
0.0
 21
1.0
 31
0.0
  0
POINT
  5
52E
330
525
100
AcDbEntity
  8
DEFPOINTS
 62
     0
100
AcDbPoint
 10
1484.999999999995
 20
925.00000000002
 30
0.0
  0
POINT
  5
52F
330
525
100
AcDbEntity
  8
DEFPOINTS
 62
     0
100
AcDbPoint
 10
1484.999999999995
 20
1075.00000000002
 30
0.0
  0
POINT
  5
530
330
525
100
AcDbEntity
  8
DEFPOINTS
 62
     0
100
AcDbPoint
 10
1559.999999999995
 20
1075.00000000002
 30
0.0
  0
ENDBLK
  5
527
330
525
100
AcDbEntity
  8
0
100
AcDbBlockEnd
  0
BLOCK
  5
533
330
532
100
AcDbEntity
  8
0
100
AcDbBlockBegin
  2
*D16
 70
     1
 10
0.0
 20
0.0
 30
0.0
  3
*D16
  1

  0
LINE
  5
535
330
532
100
AcDbEntity
  8
LAY-20
  6
CONTINUOUS
 62
     4
100
AcDbLine
 10
1594.999999999995
 20
1092.50000000002
 30
0.0
 11
1594.999999999995
 21
907.50000000002
 31
0.0
  0
INSERT
  5
536
330
532
100
AcDbEntity
  8
LAY-20
 62
     4
100
AcDbBlockReference
  2
EX_BNORM
 10
1594.999999999995
 20
1105.00000000002
 30
0.0
 41
12.5
 42
12.5
 43
12.5
 50
90.0
  0
INSERT
  5
537
330
532
100
AcDbEntity
  8
LAY-20
 62
     4
100
AcDbBlockReference
  2
EX_BNORM
 10
1594.999999999995
 20
895.00000000002
 30
0.0
 41
12.5
 42
12.5
 43
12.5
 50
270.0
  0
MTEXT
  5
538
330
532
100
AcDbEntity
  8
LAY-20
 62
     7
100
AcDbMText
 10
1582.499999999995
 20
1000.00000000002
 30
0.0
 40
15.590552
 41
0.0
 71
     5
 72
     1
  1
210
  7
EXCADDIM1
 11
0.0
 21
1.0
 31
0.0
  0
POINT
  5
539
330
532
100
AcDbEntity
  8
DEFPOINTS
 62
     0
100
AcDbPoint
 10
1594.999999999995
 20
1105.00000000002
 30
0.0
  0
POINT
  5
53A
330
532
100
AcDbEntity
  8
DEFPOINTS
 62
     0
100
AcDbPoint
 10
1594.999999999995
 20
895.00000000002
 30
0.0
  0
POINT
  5
53B
330
532
100
AcDbEntity
  8
DEFPOINTS
 62
     0
100
AcDbPoint
 10
1594.999999999995
 20
895.00000000002
 30
0.0
  0
ENDBLK
  5
534
330
532
100
AcDbEntity
  8
0
100
AcDbBlockEnd
  0
BLOCK
  5
53E
330
53D
100
AcDbEntity
  8
0
100
AcDbBlockBegin
  2
*D17
 70
     1
 10
0.0
 20
0.0
 30
0.0
  3
*D17
  1

  0
LINE
  5
540
330
53D
100
AcDbEntity
  8
LAY-20
  6
CONTINUOUS
 62
     4
100
AcDbLine
 10
1532.499999999995
 20
1108.30000000002
 30
0.0
 11
1637.499999999995
 21
1108.30000000002
 31
0.0
  0
LINE
  5
541
330
53D
100
AcDbEntity
  8
LAY-20
  6
CONTINUOUS
 62
     4
100
AcDbLine
 10
1532.499999999995
 20
890.00000000002
 30
0.0
 11
1637.499999999995
 21
890.00000000002
 31
0.0
  0
LINE
  5
542
330
53D
100
AcDbEntity
  8
LAY-20
  6
CONTINUOUS
 62
     4
100
AcDbLine
 10
1629.999999999995
 20
1095.80000000002
 30
0.0
 11
1629.999999999995
 21
902.50000000002
 31
0.0
  0
INSERT
  5
543
330
53D
100
AcDbEntity
  8
LAY-20
 62
     4
100
AcDbBlockReference
  2
EX_BNORM
 10
1629.999999999995
 20
1108.30000000002
 30
0.0
 41
12.5
 42
12.5
 43
12.5
 50
90.0
  0
INSERT
  5
544
330
53D
100
AcDbEntity
  8
LAY-20
 62
     4
100
AcDbBlockReference
  2
EX_BNORM
 10
1629.999999999995
 20
890.00000000002
 30
0.0
 41
12.5
 42
12.5
 43
12.5
 50
270.0
  0
MTEXT
  5
545
330
53D
100
AcDbEntity
  8
LAY-20
 62
     7
100
AcDbMText
 10
1617.499999999995
 20
999.1500000000196
 30
0.0
 40
15.590552
 41
0.0
 71
     5
 72
     1
  1
218
  7
EXCADDIM1
 11
0.0
 21
1.0
 31
0.0
  0
POINT
  5
546
330
53D
100
AcDbEntity
  8
DEFPOINTS
 62
     0
100
AcDbPoint
 10
1524.999999999995
 20
1108.30000000002
 30
0.0
  0
POINT
  5
547
330
53D
100
AcDbEntity
  8
DEFPOINTS
 62
     0
100
AcDbPoint
 10
1524.999999999995
 20
890.00000000002
 30
0.0
  0
POINT
  5
548
330
53D
100
AcDbEntity
  8
DEFPOINTS
 62
     0
100
AcDbPoint
 10
1629.999999999995
 20
890.00000000002
 30
0.0
  0
ENDBLK
  5
53F
330
53D
100
AcDbEntity
  8
0
100
AcDbBlockEnd
  0
BLOCK
  5
54B
330
54A
100
AcDbEntity
  8
0
100
AcDbBlockBegin
  2
*D18
 70
     1
 10
0.0
 20
0.0
 30
0.0
  3
*D18
  1

  0
LINE
  5
54D
330
54A
100
AcDbEntity
  8
LAY-20
  6
CONTINUOUS
 62
     4
100
AcDbLine
 10
1223.99999999997
 20
1105.999999999906
 30
0.0
 11
1223.99999999997
 21
1169.0
 31
0.0
  0
LINE
  5
54E
330
54A
100
AcDbEntity
  8
LAY-20
  6
CONTINUOUS
 62
     4
100
AcDbLine
 10
226.0000000000196
 20
1105.999999999906
 30
0.0
 11
226.0000000000196
 21
1169.0
 31
0.0
  0
LINE
  5
54F
330
54A
100
AcDbEntity
  8
LAY-20
  6
CONTINUOUS
 62
     4
100
AcDbLine
 10
1208.99999999997
 20
1161.5
 30
0.0
 11
241.0000000000196
 21
1161.5
 31
0.0
  0
INSERT
  5
550
330
54A
100
AcDbEntity
  8
LAY-20
 62
     4
100
AcDbBlockReference
  2
EX_BNORM
 10
1223.99999999997
 20
1161.5
 30
0.0
 41
15.0
 42
15.0
 43
15.0
  0
INSERT
  5
551
330
54A
100
AcDbEntity
  8
LAY-20
 62
     4
100
AcDbBlockReference
  2
EX_BNORM
 10
226.0000000000196
 20
1161.5
 30
0.0
 41
15.0
 42
15.0
 43
15.0
 50
180.0
  0
MTEXT
  5
552
330
54A
100
AcDbEntity
  8
LAY-20
 62
     7
100
AcDbMText
 10
724.999999999995
 20
1174.0
 30
0.0
 40
15.590552
 41
0.0
 71
     5
 72
     1
  1
998
  7
EXCADDIM1
  0
POINT
  5
553
330
54A
100
AcDbEntity
  8
DEFPOINTS
 62
     0
100
AcDbPoint
 10
1223.99999999997
 20
1098.499999999906
 30
0.0
  0
POINT
  5
554
330
54A
100
AcDbEntity
  8
DEFPOINTS
 62
     0
100
AcDbPoint
 10
226.0000000000196
 20
1098.499999999906
 30
0.0
  0
POINT
  5
555
330
54A
100
AcDbEntity
  8
DEFPOINTS
 62
     0
100
AcDbPoint
 10
226.0000000000196
 20
1161.5
 30
0.0
  0
ENDBLK
  5
54C
330
54A
100
AcDbEntity
  8
0
100
AcDbBlockEnd
  0
BLOCK
  5
558
330
557
100
AcDbEntity
  8
0
100
AcDbBlockBegin
  2
*D19
 70
     1
 10
0.0
 20
0.0
 30
0.0
  3
*D19
  1

  0
LINE
  5
55A
330
557
100
AcDbEntity
  8
LAY-20
  6
CONTINUOUS
 62
     4
100
AcDbLine
 10
1367.499999999995
 20
1105.0
 30
0.0
 11
1282.499999999995
 21
1105.0
 31
0.0
  0
LINE
  5
55B
330
557
100
AcDbEntity
  8
LAY-20
  6
CONTINUOUS
 62
     4
100
AcDbLine
 10
1367.499999999995
 20
1018.0
 30
0.0
 11
1282.499999999995
 21
1018.0
 31
0.0
  0
LINE
  5
55C
330
557
100
AcDbEntity
  8
LAY-20
  6
CONTINUOUS
 62
     4
100
AcDbLine
 10
1289.999999999995
 20
1090.0
 30
0.0
 11
1289.999999999995
 21
1033.0
 31
0.0
  0
INSERT
  5
55D
330
557
100
AcDbEntity
  8
LAY-20
 62
     4
100
AcDbBlockReference
  2
EX_BNORM
 10
1289.999999999995
 20
1105.0
 30
0.0
 41
15.0
 42
15.0
 43
15.0
 50
90.0
  0
INSERT
  5
55E
330
557
100
AcDbEntity
  8
LAY-20
 62
     4
100
AcDbBlockReference
  2
EX_BNORM
 10
1289.999999999995
 20
1018.0
 30
0.0
 41
15.0
 42
15.0
 43
15.0
 50
270.0
  0
MTEXT
  5
55F
330
557
100
AcDbEntity
  8
LAY-20
 62
     7
100
AcDbMText
 10
1277.499999999995
 20
1061.5
 30
0.0
 40
15.590552
 41
0.0
 71
     5
 72
     1
  1
87
  7
EXCADDIM1
 11
0.0
 21
1.0
 31
0.0
  0
POINT
  5
560
330
557
100
AcDbEntity
  8
DEFPOINTS
 62
     0
100
AcDbPoint
 10
1374.999999999995
 20
1105.0
 30
0.0
  0
POINT
  5
561
330
557
100
AcDbEntity
  8
DEFPOINTS
 62
     0
100
AcDbPoint
 10
1374.999999999995
 20
1018.0
 30
0.0
  0
POINT
  5
562
330
557
100
AcDbEntity
  8
DEFPOINTS
 62
     0
100
AcDbPoint
 10
1289.999999999995
 20
1018.0
 30
0.0
  0
ENDBLK
  5
559
330
557
100
AcDbEntity
  8
0
100
AcDbBlockEnd
  0
BLOCK
  5
565
330
564
100
AcDbEntity
  8
0
100
AcDbBlockBegin
  2
*D20
 70
     1
 10
0.0
 20
0.0
 30
0.0
  3
*D20
  1

  0
LINE
  5
567
330
564
100
AcDbEntity
  8
LAY-20
  6
CONTINUOUS
 62
     4
100
AcDbLine
 10
1372.500056068795
 20
1098.49999999999
 30
0.0
 11
1317.499999999995
 21
1098.49999999999
 31
0.0
  0
LINE
  5
568
330
564
100
AcDbEntity
  8
LAY-20
  6
CONTINUOUS
 62
     4
100
AcDbLine
 10
1372.500056068795
 20
1024.49741635558
 30
0.0
 11
1317.499999999995
 21
1024.49741635558
 31
0.0
  0
LINE
  5
569
330
564
100
AcDbEntity
  8
LAY-20
  6
CONTINUOUS
 62
     4
100
AcDbLine
 10
1324.999999999995
 20
1083.49999999999
 30
0.0
 11
1324.999999999995
 21
1039.49741635558
 31
0.0
  0
INSERT
  5
56A
330
564
100
AcDbEntity
  8
LAY-20
 62
     4
100
AcDbBlockReference
  2
EX_BNORM
 10
1324.999999999995
 20
1098.49999999999
 30
0.0
 41
15.0
 42
15.0
 43
15.0
 50
90.0
  0
INSERT
  5
56B
330
564
100
AcDbEntity
  8
LAY-20
 62
     4
100
AcDbBlockReference
  2
EX_BNORM
 10
1324.999999999995
 20
1024.49741635558
 30
0.0
 41
15.0
 42
15.0
 43
15.0
 50
270.0
  0
MTEXT
  5
56C
330
564
100
AcDbEntity
  8
LAY-20
 62
     7
100
AcDbMText
 10
1312.499999999995
 20
1061.498708177785
 30
0.0
 40
15.590552
 41
0.0
 71
     5
 72
     1
  1
74
  7
EXCADDIM1
 11
0.0
 21
1.0
 31
0.0
  0
POINT
  5
56D
330
564
100
AcDbEntity
  8
DEFPOINTS
 62
     0
100
AcDbPoint
 10
1380.000056068795
 20
1098.49999999999
 30
0.0
  0
POINT
  5
56E
330
564
100
AcDbEntity
  8
DEFPOINTS
 62
     0
100
AcDbPoint
 10
1380.000056068795
 20
1024.49741635558
 30
0.0
  0
POINT
  5
56F
330
564
100
AcDbEntity
  8
DEFPOINTS
 62
     0
100
AcDbPoint
 10
1324.999999999995
 20
1024.49741635558
 30
0.0
  0
ENDBLK
  5
566
330
564
100
AcDbEntity
  8
0
100
AcDbBlockEnd
  0
BLOCK
  5
572
330
571
100
AcDbEntity
  8
0
100
AcDbBlockBegin
  2
*D21
 70
     1
 10
0.0
 20
0.0
 30
0.0
  3
*D21
  1

  0
LINE
  5
574
330
571
100
AcDbEntity
  8
LAY-20
  6
CONTINUOUS
 62
     4
100
AcDbLine
 10
1224.999999999955
 20
1119.0
 30
0.0
 11
1224.999999999955
 21
1204.0
 31
0.0
  0
LINE
  5
575
330
571
100
AcDbEntity
  8
LAY-20
  6
CONTINUOUS
 62
     4
100
AcDbLine
 10
224.9999999999951
 20
1119.0
 30
0.0
 11
224.9999999999951
 21
1204.0
 31
0.0
  0
LINE
  5
576
330
571
100
AcDbEntity
  8
LAY-20
  6
CONTINUOUS
 62
     4
100
AcDbLine
 10
1209.999999999955
 20
1196.5
 30
0.0
 11
239.9999999999951
 21
1196.5
 31
0.0
  0
INSERT
  5
577
330
571
100
AcDbEntity
  8
LAY-20
 62
     4
100
AcDbBlockReference
  2
EX_BNORM
 10
1224.999999999955
 20
1196.5
 30
0.0
 41
15.0
 42
15.0
 43
15.0
  0
INSERT
  5
578
330
571
100
AcDbEntity
  8
LAY-20
 62
     4
100
AcDbBlockReference
  2
EX_BNORM
 10
224.9999999999951
 20
1196.5
 30
0.0
 41
15.0
 42
15.0
 43
15.0
 50
180.0
  0
MTEXT
  5
579
330
571
100
AcDbEntity
  8
LAY-20
 62
     7
100
AcDbMText
 10
724.9999999999752
 20
1209.0
 30
0.0
 40
15.590552
 41
0.0
 71
     5
 72
     1
  1
1000
  7
EXCADDIM1
  0
POINT
  5
57A
330
571
100
AcDbEntity
  8
DEFPOINTS
 62
     0
100
AcDbPoint
 10
1224.999999999955
 20
1111.5
 30
0.0
  0
POINT
  5
57B
330
571
100
AcDbEntity
  8
DEFPOINTS
 62
     0
100
AcDbPoint
 10
224.9999999999951
 20
1111.5
 30
0.0
  0
POINT
  5
57C
330
571
100
AcDbEntity
  8
DEFPOINTS
 62
     0
100
AcDbPoint
 10
224.9999999999951
 20
1196.5
 30
0.0
  0
ENDBLK
  5
573
330
571
100
AcDbEntity
  8
0
100
AcDbBlockEnd
  0
BLOCK
  5
57F
330
57E
100
AcDbEntity
  8
0
100
AcDbBlockBegin
  2
*D22
 70
     1
 10
0.0
 20
0.0
 30
0.0
  3
*D22
  1

  0
LINE
  5
581
330
57E
100
AcDbEntity
  8
LAY-20
  6
CONTINUOUS
 62
     4
100
AcDbLine
 10
1375.0
 20
1112.5
 30
0.0
 11
1375.0
 21
1169.0
 31
0.0
  0
LINE
  5
582
330
57E
100
AcDbEntity
  8
LAY-20
  6
CONTINUOUS
 62
     4
100
AcDbLine
 10
1484.999999999982
 20
1113.799999999982
 30
0.0
 11
1484.999999999982
 21
1169.0
 31
0.0
  0
LINE
  5
583
330
57E
100
AcDbEntity
  8
LAY-20
  6
CONTINUOUS
 62
     4
100
AcDbLine
 10
1390.0
 20
1161.5
 30
0.0
 11
1469.999999999982
 21
1161.5
 31
0.0
  0
INSERT
  5
584
330
57E
100
AcDbEntity
  8
LAY-20
 62
     4
100
AcDbBlockReference
  2
EX_BNORM
 10
1375.0
 20
1161.5
 30
0.0
 41
15.0
 42
15.0
 43
15.0
 50
180.0
  0
INSERT
  5
585
330
57E
100
AcDbEntity
  8
LAY-20
 62
     4
100
AcDbBlockReference
  2
EX_BNORM
 10
1484.999999999982
 20
1161.5
 30
0.0
 41
15.0
 42
15.0
 43
15.0
  0
MTEXT
  5
586
330
57E
100
AcDbEntity
  8
LAY-20
 62
     7
100
AcDbMText
 10
1429.999999999991
 20
1174.0
 30
0.0
 40
15.590552
 41
0.0
 71
     5
 72
     1
  1
110
  7
EXCADDIM1
  0
POINT
  5
587
330
57E
100
AcDbEntity
  8
DEFPOINTS
 62
     0
100
AcDbPoint
 10
1375.0
 20
1105.0
 30
0.0
  0
POINT
  5
588
330
57E
100
AcDbEntity
  8
DEFPOINTS
 62
     0
100
AcDbPoint
 10
1484.999999999982
 20
1106.299999999982
 30
0.0
  0
POINT
  5
589
330
57E
100
AcDbEntity
  8
DEFPOINTS
 62
     0
100
AcDbPoint
 10
1484.999999999982
 20
1161.5
 30
0.0
  0
ENDBLK
  5
580
330
57E
100
AcDbEntity
  8
0
100
AcDbBlockEnd
  0
BLOCK
  5
58C
330
58B
100
AcDbEntity
  8
0
100
AcDbBlockBegin
  2
*D23
 70
     1
 10
0.0
 20
0.0
 30
0.0
  3
*D23
  1

  0
LINE
  5
58E
330
58B
100
AcDbEntity
  8
LAY-20
  6
CONTINUOUS
 62
     4
100
AcDbLine
 10
1525.0
 20
1119.0
 30
0.0
 11
1525.0
 21
1169.0
 31
0.0
  0
LINE
  5
58F
330
58B
100
AcDbEntity
  8
LAY-20
  6
CONTINUOUS
 62
     4
100
AcDbLine
 10
1500.0
 20
1161.5
 30
0.0
 11
1510.0
 21
1161.5
 31
0.0
  0
INSERT
  5
590
330
58B
100
AcDbEntity
  8
LAY-20
 62
     4
100
AcDbBlockReference
  2
EX_BNORM
 10
1485.0
 20
1161.5
 30
0.0
 41
15.0
 42
15.0
 43
15.0
 50
180.0
  0
INSERT
  5
591
330
58B
100
AcDbEntity
  8
LAY-20
 62
     4
100
AcDbBlockReference
  2
EX_BNORM
 10
1525.0
 20
1161.5
 30
0.0
 41
15.0
 42
15.0
 43
15.0
  0
MTEXT
  5
592
330
58B
100
AcDbEntity
  8
LAY-20
 62
     7
100
AcDbMText
 10
1505.0
 20
1174.0
 30
0.0
 40
15.590552
 41
0.0
 71
     5
 72
     1
  1
40
  7
EXCADDIM1
  0
POINT
  5
593
330
58B
100
AcDbEntity
  8
DEFPOINTS
 62
     0
100
AcDbPoint
 10
1485.0
 20
1161.5
 30
0.0
  0
POINT
  5
594
330
58B
100
AcDbEntity
  8
DEFPOINTS
 62
     0
100
AcDbPoint
 10
1525.0
 20
1111.5
 30
0.0
  0
POINT
  5
595
330
58B
100
AcDbEntity
  8
DEFPOINTS
 62
     0
100
AcDbPoint
 10
1525.0
 20
1161.5
 30
0.0
  0
ENDBLK
  5
58D
330
58B
100
AcDbEntity
  8
0
100
AcDbBlockEnd
  0
BLOCK
  5
598
330
597
100
AcDbEntity
  8
0
100
AcDbBlockBegin
  2
*D24
 70
     1
 10
0.0
 20
0.0
 30
0.0
  3
*D24
  1

  0
LINE
  5
59A
330
597
100
AcDbEntity
  8
LAY-20
  6
CONTINUOUS
 62
     4
100
AcDbLine
 10
324.99999999996
 20
858.99992147903
 30
0.0
 11
324.99999999996
 21
828.0000000000001
 31
0.0
  0
LINE
  5
59B
330
597
100
AcDbEntity
  8
LAY-20
  6
CONTINUOUS
 62
     4
100
AcDbLine
 10
724.99999999996
 20
858.99992147903
 30
0.0
 11
724.99999999996
 21
828.0000000000001
 31
0.0
  0
LINE
  5
59C
330
597
100
AcDbEntity
  8
LAY-20
  6
CONTINUOUS
 62
     4
100
AcDbLine
 10
339.99999999996
 20
835.5000000000001
 30
0.0
 11
709.99999999996
 21
835.5000000000001
 31
0.0
  0
INSERT
  5
59D
330
597
100
AcDbEntity
  8
LAY-20
 62
     4
100
AcDbBlockReference
  2
EX_BNORM
 10
324.99999999996
 20
835.5000000000001
 30
0.0
 41
15.0
 42
15.0
 43
15.0
 50
180.0
  0
INSERT
  5
59E
330
597
100
AcDbEntity
  8
LAY-20
 62
     4
100
AcDbBlockReference
  2
EX_BNORM
 10
724.99999999996
 20
835.5000000000001
 30
0.0
 41
15.0
 42
15.0
 43
15.0
  0
MTEXT
  5
59F
330
597
100
AcDbEntity
  8
LAY-20
 62
     7
100
AcDbMText
 10
524.99999999996
 20
848.0000000000001
 30
0.0
 40
15.590552
 41
0.0
 71
     5
 72
     1
  1
400
  7
EXCADDIM1
  0
POINT
  5
5A0
330
597
100
AcDbEntity
  8
DEFPOINTS
 62
     0
100
AcDbPoint
 10
324.99999999996
 20
866.49992147903
 30
0.0
  0
POINT
  5
5A1
330
597
100
AcDbEntity
  8
DEFPOINTS
 62
     0
100
AcDbPoint
 10
724.99999999996
 20
866.49992147903
 30
0.0
  0
POINT
  5
5A2
330
597
100
AcDbEntity
  8
DEFPOINTS
 62
     0
100
AcDbPoint
 10
724.99999999996
 20
835.5000000000001
 30
0.0
  0
ENDBLK
  5
599
330
597
100
AcDbEntity
  8
0
100
AcDbBlockEnd
  0
BLOCK
  5
5A5
330
5A4
100
AcDbEntity
  8
0
100
AcDbBlockBegin
  2
*D25
 70
     1
 10
0.0
 20
0.0
 30
0.0
  3
*D25
  1

  0
LINE
  5
5A7
330
5A4
100
AcDbEntity
  8
LAY-20
  6
CONTINUOUS
 62
     4
100
AcDbLine
 10
1124.9999999999
 20
858.99992147903
 30
0.0
 11
1124.9999999999
 21
828.0000000000001
 31
0.0
  0
LINE
  5
5A8
330
5A4
100
AcDbEntity
  8
LAY-20
  6
CONTINUOUS
 62
     4
100
AcDbLine
 10
739.99999999996
 20
835.5000000000001
 30
0.0
 11
1109.9999999999
 21
835.5000000000001
 31
0.0
  0
INSERT
  5
5A9
330
5A4
100
AcDbEntity
  8
LAY-20
 62
     4
100
AcDbBlockReference
  2
EX_BNORM
 10
724.99999999996
 20
835.5000000000001
 30
0.0
 41
15.0
 42
15.0
 43
15.0
 50
180.0
  0
INSERT
  5
5AA
330
5A4
100
AcDbEntity
  8
LAY-20
 62
     4
100
AcDbBlockReference
  2
EX_BNORM
 10
1124.9999999999
 20
835.5000000000001
 30
0.0
 41
15.0
 42
15.0
 43
15.0
  0
MTEXT
  5
5AB
330
5A4
100
AcDbEntity
  8
LAY-20
 62
     7
100
AcDbMText
 10
924.9999999999301
 20
848.0000000000001
 30
0.0
 40
15.590552
 41
0.0
 71
     5
 72
     1
  1
400
  7
EXCADDIM1
  0
POINT
  5
5AC
330
5A4
100
AcDbEntity
  8
DEFPOINTS
 62
     0
100
AcDbPoint
 10
724.99999999996
 20
835.5000000000001
 30
0.0
  0
POINT
  5
5AD
330
5A4
100
AcDbEntity
  8
DEFPOINTS
 62
     0
100
AcDbPoint
 10
1124.9999999999
 20
866.49992147903
 30
0.0
  0
POINT
  5
5AE
330
5A4
100
AcDbEntity
  8
DEFPOINTS
 62
     0
100
AcDbPoint
 10
1124.9999999999
 20
835.5000000000001
 30
0.0
  0
ENDBLK
  5
5A6
330
5A4
100
AcDbEntity
  8
0
100
AcDbBlockEnd
  0
BLOCK
  5
5B1
330
5B0
100
AcDbEntity
  8
0
100
AcDbBlockBegin
  2
*D26
 70
     1
 10
0.0
 20
0.0
 30
0.0
  3
*D26
  1

  0
LINE
  5
5B3
330
5B0
100
AcDbEntity
  8
LAY-20
  6
CONTINUOUS
 62
     4
100
AcDbLine
 10
1225.0
 20
878.0000000000001
 30
0.0
 11
1225.0
 21
828.0000000000001
 31
0.0
  0
LINE
  5
5B4
330
5B0
100
AcDbEntity
  8
LAY-20
  6
CONTINUOUS
 62
     4
100
AcDbLine
 10
1139.9999999999
 20
835.5000000000001
 30
0.0
 11
1210.0
 21
835.5000000000001
 31
0.0
  0
INSERT
  5
5B5
330
5B0
100
AcDbEntity
  8
LAY-20
 62
     4
100
AcDbBlockReference
  2
EX_BNORM
 10
1124.9999999999
 20
835.5000000000001
 30
0.0
 41
15.0
 42
15.0
 43
15.0
 50
180.0
  0
INSERT
  5
5B6
330
5B0
100
AcDbEntity
  8
LAY-20
 62
     4
100
AcDbBlockReference
  2
EX_BNORM
 10
1225.0
 20
835.5000000000001
 30
0.0
 41
15.0
 42
15.0
 43
15.0
  0
MTEXT
  5
5B7
330
5B0
100
AcDbEntity
  8
LAY-20
 62
     7
100
AcDbMText
 10
1174.99999999995
 20
848.0000000000001
 30
0.0
 40
15.590552
 41
0.0
 71
     5
 72
     1
  1
100
  7
EXCADDIM1
  0
POINT
  5
5B8
330
5B0
100
AcDbEntity
  8
DEFPOINTS
 62
     0
100
AcDbPoint
 10
1124.9999999999
 20
835.5000000000001
 30
0.0
  0
POINT
  5
5B9
330
5B0
100
AcDbEntity
  8
DEFPOINTS
 62
     0
100
AcDbPoint
 10
1225.0
 20
885.5000000000001
 30
0.0
  0
POINT
  5
5BA
330
5B0
100
AcDbEntity
  8
DEFPOINTS
 62
     0
100
AcDbPoint
 10
1225.0
 20
835.5000000000001
 30
0.0
  0
ENDBLK
  5
5B2
330
5B0
100
AcDbEntity
  8
0
100
AcDbBlockEnd
  0
BLOCK
  5
5BD
330
5BC
100
AcDbEntity
  8
0
100
AcDbBlockBegin
  2
*D27
 70
     1
 10
0.0
 20
0.0
 30
0.0
  3
*D27
  1

  0
LINE
  5
5BF
330
5BC
100
AcDbEntity
  8
LAY-20
  6
CONTINUOUS
 62
     4
100
AcDbLine
 10
224.99999999999
 20
878.0000000000001
 30
0.0
 11
224.99999999999
 21
828.0000000000001
 31
0.0
  0
LINE
  5
5C0
330
5BC
100
AcDbEntity
  8
LAY-20
  6
CONTINUOUS
 62
     4
100
AcDbLine
 10
309.99999999996
 20
835.5000000000001
 30
0.0
 11
239.99999999999
 21
835.5000000000001
 31
0.0
  0
INSERT
  5
5C1
330
5BC
100
AcDbEntity
  8
LAY-20
 62
     4
100
AcDbBlockReference
  2
EX_BNORM
 10
324.99999999996
 20
835.5000000000001
 30
0.0
 41
15.0
 42
15.0
 43
15.0
  0
INSERT
  5
5C2
330
5BC
100
AcDbEntity
  8
LAY-20
 62
     4
100
AcDbBlockReference
  2
EX_BNORM
 10
224.99999999999
 20
835.5000000000001
 30
0.0
 41
15.0
 42
15.0
 43
15.0
 50
180.0
  0
MTEXT
  5
5C3
330
5BC
100
AcDbEntity
  8
LAY-20
 62
     7
100
AcDbMText
 10
274.999999999975
 20
848.0000000000001
 30
0.0
 40
15.590552
 41
0.0
 71
     5
 72
     1
  1
100
  7
EXCADDIM1
  0
POINT
  5
5C4
330
5BC
100
AcDbEntity
  8
DEFPOINTS
 62
     0
100
AcDbPoint
 10
324.99999999996
 20
835.5000000000001
 30
0.0
  0
POINT
  5
5C5
330
5BC
100
AcDbEntity
  8
DEFPOINTS
 62
     0
100
AcDbPoint
 10
224.99999999999
 20
885.5000000000001
 30
0.0
  0
POINT
  5
5C6
330
5BC
100
AcDbEntity
  8
DEFPOINTS
 62
     0
100
AcDbPoint
 10
224.99999999999
 20
835.5000000000001
 30
0.0
  0
ENDBLK
  5
5BE
330
5BC
100
AcDbEntity
  8
0
100
AcDbBlockEnd
  0
BLOCK
  5
5C9
330
5C8
100
AcDbEntity
  8
0
100
AcDbBlockBegin
  2
*D28
 70
     1
 10
0.0
 20
0.0
 30
0.0
  3
*D28
  1

  0
LINE
  5
5CB
330
5C8
100
AcDbEntity
  8
LAY-20
  6
CONTINUOUS
 62
     4
100
AcDbLine
 10
1375.0
 20
1010.49741635558
 30
0.0
 11
1375.0
 21
757.9999999999999
 31
0.0
  0
LINE
  5
5CC
330
5C8
100
AcDbEntity
  8
LAY-20
  6
CONTINUOUS
 62
     4
100
AcDbLine
 10
1525.0
 20
877.99999999998
 30
0.0
 11
1525.0
 21
757.9999999999999
 31
0.0
  0
LINE
  5
5CD
330
5C8
100
AcDbEntity
  8
LAY-20
  6
CONTINUOUS
 62
     4
100
AcDbLine
 10
1390.0
 20
765.4999999999999
 30
0.0
 11
1510.0
 21
765.4999999999999
 31
0.0
  0
INSERT
  5
5CE
330
5C8
100
AcDbEntity
  8
LAY-20
 62
     4
100
AcDbBlockReference
  2
EX_BNORM
 10
1375.0
 20
765.4999999999999
 30
0.0
 41
15.0
 42
15.0
 43
15.0
 50
180.0
  0
INSERT
  5
5CF
330
5C8
100
AcDbEntity
  8
LAY-20
 62
     4
100
AcDbBlockReference
  2
EX_BNORM
 10
1525.0
 20
765.4999999999999
 30
0.0
 41
15.0
 42
15.0
 43
15.0
  0
MTEXT
  5
5D0
330
5C8
100
AcDbEntity
  8
LAY-20
 62
     7
100
AcDbMText
 10
1450.0
 20
777.9999999999999
 30
0.0
 40
15.590552
 41
0.0
 71
     5
 72
     1
  1
150
  7
EXCADDIM1
  0
POINT
  5
5D1
330
5C8
100
AcDbEntity
  8
DEFPOINTS
 62
     0
100
AcDbPoint
 10
1375.0
 20
1017.99741635558
 30
0.0
  0
POINT
  5
5D2
330
5C8
100
AcDbEntity
  8
DEFPOINTS
 62
     0
100
AcDbPoint
 10
1525.0
 20
885.49999999998
 30
0.0
  0
POINT
  5
5D3
330
5C8
100
AcDbEntity
  8
DEFPOINTS
 62
     0
100
AcDbPoint
 10
1525.0
 20
765.4999999999999
 30
0.0
  0
ENDBLK
  5
5CA
330
5C8
100
AcDbEntity
  8
0
100
AcDbBlockEnd
  0
BLOCK
  5
5D6
330
5D5
100
AcDbEntity
  8
0
100
AcDbBlockBegin
  2
*D29
 70
     1
 10
0.0
 20
0.0
 30
0.0
  3
*D29
  1

  0
LINE
  5
5D8
330
5D5
100
AcDbEntity
  8
LAY-20
  6
CONTINUOUS
 62
     4
100
AcDbLine
 10
1484.999999999982
 20
883.499999999985
 30
0.0
 11
1484.999999999982
 21
792.9999999999999
 31
0.0
  0
LINE
  5
5D9
330
5D5
100
AcDbEntity
  8
LAY-20
  6
CONTINUOUS
 62
     4
100
AcDbLine
 10
1390.0
 20
800.4999999999999
 30
0.0
 11
1469.999999999982
 21
800.4999999999999
 31
0.0
  0
INSERT
  5
5DA
330
5D5
100
AcDbEntity
  8
LAY-20
 62
     4
100
AcDbBlockReference
  2
EX_BNORM
 10
1375.0
 20
800.4999999999999
 30
0.0
 41
15.0
 42
15.0
 43
15.0
 50
180.0
  0
INSERT
  5
5DB
330
5D5
100
AcDbEntity
  8
LAY-20
 62
     4
100
AcDbBlockReference
  2
EX_BNORM
 10
1484.999999999982
 20
800.4999999999999
 30
0.0
 41
15.0
 42
15.0
 43
15.0
  0
MTEXT
  5
5DC
330
5D5
100
AcDbEntity
  8
LAY-20
 62
     7
100
AcDbMText
 10
1429.999999999991
 20
812.9999999999999
 30
0.0
 40
15.590552
 41
0.0
 71
     5
 72
     1
  1
110
  7
EXCADDIM1
  0
POINT
  5
5DD
330
5D5
100
AcDbEntity
  8
DEFPOINTS
 62
     0
100
AcDbPoint
 10
1375.0
 20
800.4999999999999
 30
0.0
  0
POINT
  5
5DE
330
5D5
100
AcDbEntity
  8
DEFPOINTS
 62
     0
100
AcDbPoint
 10
1484.999999999982
 20
890.999999999985
 30
0.0
  0
POINT
  5
5DF
330
5D5
100
AcDbEntity
  8
DEFPOINTS
 62
     0
100
AcDbPoint
 10
1484.999999999982
 20
800.4999999999999
 30
0.0
  0
ENDBLK
  5
5D7
330
5D5
100
AcDbEntity
  8
0
100
AcDbBlockEnd
  0
BLOCK
  5
5E2
330
5E1
100
AcDbEntity
  8
0
100
AcDbBlockBegin
  2
*D30
 70
     1
 10
0.0
 20
0.0
 30
0.0
  3
*D30
  1

  0
LINE
  5
5E4
330
5E1
100
AcDbEntity
  8
LAY-20
  6
CONTINUOUS
 62
     4
100
AcDbLine
 10
1500.0
 20
800.4999999999999
 30
0.0
 11
1510.0
 21
800.4999999999999
 31
0.0
  0
INSERT
  5
5E5
330
5E1
100
AcDbEntity
  8
LAY-20
 62
     4
100
AcDbBlockReference
  2
EX_BNORM
 10
1485.0
 20
800.4999999999999
 30
0.0
 41
15.0
 42
15.0
 43
15.0
 50
180.0
  0
INSERT
  5
5E6
330
5E1
100
AcDbEntity
  8
LAY-20
 62
     4
100
AcDbBlockReference
  2
EX_BNORM
 10
1525.0
 20
800.4999999999999
 30
0.0
 41
15.0
 42
15.0
 43
15.0
  0
MTEXT
  5
5E7
330
5E1
100
AcDbEntity
  8
LAY-20
 62
     7
100
AcDbMText
 10
1505.0
 20
812.9999999999999
 30
0.0
 40
15.590552
 41
0.0
 71
     5
 72
     1
  1
40
  7
EXCADDIM1
  0
POINT
  5
5E8
330
5E1
100
AcDbEntity
  8
DEFPOINTS
 62
     0
100
AcDbPoint
 10
1485.0
 20
800.4999999999999
 30
0.0
  0
POINT
  5
5E9
330
5E1
100
AcDbEntity
  8
DEFPOINTS
 62
     0
100
AcDbPoint
 10
1525.0
 20
800.4999999999999
 30
0.0
  0
POINT
  5
5EA
330
5E1
100
AcDbEntity
  8
DEFPOINTS
 62
     0
100
AcDbPoint
 10
1525.0
 20
800.4999999999999
 30
0.0
  0
ENDBLK
  5
5E3
330
5E1
100
AcDbEntity
  8
0
100
AcDbBlockEnd
  0
BLOCK
  5
5ED
330
5EC
100
AcDbEntity
  8
0
100
AcDbBlockBegin
  2
*D31
 70
     1
 10
0.0
 20
0.0
 30
0.0
  3
*D31
  1

  0
LINE
  5
5EF
330
5EC
100
AcDbEntity
  8
LAY-20
  6
CONTINUOUS
 62
     4
100
AcDbLine
 10
1480.499999999983
 20
882.9999999999843
 30
0.0
 11
1480.499999999983
 21
828.0000000000001
 31
0.0
  0
LINE
  5
5F0
330
5EC
100
AcDbEntity
  8
LAY-20
  6
CONTINUOUS
 62
     4
100
AcDbLine
 10
1390.0
 20
835.5000000000001
 30
0.0
 11
1465.499999999983
 21
835.5000000000001
 31
0.0
  0
INSERT
  5
5F1
330
5EC
100
AcDbEntity
  8
LAY-20
 62
     4
100
AcDbBlockReference
  2
EX_BNORM
 10
1375.0
 20
835.5000000000001
 30
0.0
 41
15.0
 42
15.0
 43
15.0
 50
180.0
  0
INSERT
  5
5F2
330
5EC
100
AcDbEntity
  8
LAY-20
 62
     4
100
AcDbBlockReference
  2
EX_BNORM
 10
1480.499999999983
 20
835.5000000000001
 30
0.0
 41
15.0
 42
15.0
 43
15.0
  0
MTEXT
  5
5F3
330
5EC
100
AcDbEntity
  8
LAY-20
 62
     7
100
AcDbMText
 10
1427.749999999992
 20
848.0000000000001
 30
0.0
 40
15.590552
 41
0.0
 71
     5
 72
     1
  1
105.5
  7
EXCADDIM1
  0
POINT
  5
5F4
330
5EC
100
AcDbEntity
  8
DEFPOINTS
 62
     0
100
AcDbPoint
 10
1375.0
 20
835.5000000000001
 30
0.0
  0
POINT
  5
5F5
330
5EC
100
AcDbEntity
  8
DEFPOINTS
 62
     0
100
AcDbPoint
 10
1480.499999999983
 20
890.4999999999843
 30
0.0
  0
POINT
  5
5F6
330
5EC
100
AcDbEntity
  8
DEFPOINTS
 62
     0
100
AcDbPoint
 10
1480.499999999983
 20
835.5000000000001
 30
0.0
  0
ENDBLK
  5
5EE
330
5EC
100
AcDbEntity
  8
0
100
AcDbBlockEnd
  0
ENDSEC
  0
SECTION
  2
ENTITIES
  0
LINE
  5
D4
330
1F
100
AcDbEntity
  8
LAY-10
  6
CONTINUOUS
 62
     7
100
AcDbLine
 10
1518.598846298241
 20
895.0000000000366
 30
0.0
 11
1488.48275448217
 21
925.1160918161083
 31
0.0
  0
LINE
  5
D5
330
1F
100
AcDbEntity
  8
LAY-10
  6
CONTINUOUS
 62
     7
100
AcDbLine
 10
1539.812049733837
 20
895.0000000000366
 30
0.0
 11
1509.011661032741
 21
925.8003887011336
 31
0.0
  0
LINE
  5
D6
330
1F
100
AcDbEntity
  8
LAY-10
  6
CONTINUOUS
 62
     7
100
AcDbLine
 10
1631.735931288088
 20
895.0000000000366
 30
0.0
 11
1597.970256085245
 21
928.7656752028809
 31
0.0
  0
LINE
  5
D7
330
1F
100
AcDbEntity
  8
LAY-10
  6
CONTINUOUS
 62
     7
100
AcDbLine
 10
1494.478280854437
 20
1074.684057304882
 30
0.0
 11
1485.000000000016
 21
1084.162338159303
 31
0.0
  0
LINE
  5
D8
330
1F
100
AcDbEntity
  8
LAY-10
  6
CONTINUOUS
 62
     7
100
AcDbLine
 10
1670.00000000001
 20
991.0862197135606
 30
0.0
 11
1635.000000000022
 21
1026.086219713548
 31
0.0
  0
LINE
  5
D9
330
1F
100
AcDbEntity
  8
LAY-10
  6
CONTINUOUS
 62
     7
100
AcDbLine
 10
1589.571951427787
 20
1071.514268285784
 30
0.0
 11
1556.08621971353
 21
1105.00000000004
 31
0.0
  0
LINE
  5
DA
330
1F
100
AcDbEntity
  8
LAY-10
  6
CONTINUOUS
 62
     7
100
AcDbLine
 10
1670.000000000015
 20
1033.512626584747
 30
0.0
 11
1598.512626584723
 21
1105.00000000004
 31
0.0
  0
LINE
  5
DB
330
1F
100
AcDbEntity
  8
LAY-10
  6
CONTINUOUS
 62
     7
100
AcDbLine
 10
1612.190568448454
 20
1070.108854700712
 30
0.0
 11
1577.299423149126
 21
1105.00000000004
 31
0.0
  0
LINE
  5
DC
330
1F
100
AcDbEntity
  8
LAY-10
  6
CONTINUOUS
 62
     7
100
AcDbLine
 10
1670.000000000015
 20
1012.299423149151
 30
0.0
 11
1634.125516740295
 21
1048.173906408872
 31
0.0
  0
LINE
  5
DD
330
1F
100
AcDbEntity
  8
LAY-10
  6
CONTINUOUS
 62
     7
100
AcDbLine
 10
1659.581169079662
 20
909.5811690796559
 30
0.0
 11
1628.629440452393
 21
940.5328977069263
 31
0.0
  0
LINE
  5
DE
330
1F
100
AcDbEntity
  8
LAY-10
  6
CONTINUOUS
 62
     7
100
AcDbLine
 10
1648.974567361864
 20
898.9745673618581
 30
0.0
 11
1616.599337001082
 21
931.34979772264
 31
0.0
  0
LINE
  5
DF
330
1F
100
AcDbEntity
  8
LAY-10
  6
CONTINUOUS
 62
     7
100
AcDbLine
 10
1144.99999999996
 20
640.00000000002
 30
0.0
 11
1144.99999999996
 21
600.00000000002
 31
0.0
  0
LINE
  5
E0
330
1F
100
AcDbEntity
  8
LAY-10
  6
CONTINUOUS
 62
     7
100
AcDbLine
 10
1139.99999999996
 20
630.50000000002
 30
0.0
 11
1139.99999999996
 21
603.00000000002
 31
0.0
  0
LINE
  5
E1
330
1F
100
AcDbEntity
  8
LAY-10
  6
CONTINUOUS
 62
     7
100
AcDbLine
 10
1135.49999999996
 20
635.00000000002
 30
0.0
 11
1107.99999999996
 21
635.00000000002
 31
0.0
  0
LINE
  5
E2
330
1F
100
AcDbEntity
  8
LAY-10
  6
CONTINUOUS
 62
     7
100
AcDbLine
 10
1104.99999999996
 20
640.00000000002
 30
0.0
 11
1104.99999999996
 21
638.00000000002
 31
0.0
  0
ARC
  5
E3
330
1F
100
AcDbEntity
  8
LAY-10
  6
CONTINUOUS
 62
     7
100
AcDbCircle
 10
1107.99999999996
 20
638.00000000002
 30
0.0
 40
3.000000000000003
100
AcDbArc
 50
180.0
 51
270.0
  0
ARC
  5
E4
330
1F
100
AcDbEntity
  8
LAY-10
  6
CONTINUOUS
 62
     7
100
AcDbCircle
 10
1142.99999999996
 20
603.00000000002
 30
0.0
 40
3.000000000000003
100
AcDbArc
 50
180.0
 51
270.0
  0
ARC
  5
E5
330
1F
100
AcDbEntity
  8
LAY-10
  6
CONTINUOUS
 62
     7
100
AcDbCircle
 10
1135.49999999996
 20
630.50000000002
 30
0.0
 40
4.5
100
AcDbArc
 50
0.0
 51
90.00000000000014
  0
LINE
  5
E6
330
1F
100
AcDbEntity
  8
LAY-10
  6
CONTINUOUS
 62
     7
100
AcDbLine
 10
745.0000000000002
 20
640.00000000002
 30
0.0
 11
745.0000000000002
 21
600.00000000002
 31
0.0
  0
LINE
  5
E7
330
1F
100
AcDbEntity
  8
LAY-10
  6
CONTINUOUS
 62
     7
100
AcDbLine
 10
740.0000000000002
 20
630.50000000002
 30
0.0
 11
740.0000000000002
 21
603.00000000002
 31
0.0
  0
LINE
  5
E8
330
1F
100
AcDbEntity
  8
LAY-10
  6
CONTINUOUS
 62
     7
100
AcDbLine
 10
735.5000000000002
 20
635.00000000002
 30
0.0
 11
708.0000000000002
 21
635.00000000002
 31
0.0
  0
LINE
  5
E9
330
1F
100
AcDbEntity
  8
LAY-10
  6
CONTINUOUS
 62
     7
100
AcDbLine
 10
705.0000000000002
 20
640.00000000002
 30
0.0
 11
705.0000000000002
 21
638.00000000002
 31
0.0
  0
ARC
  5
EA
330
1F
100
AcDbEntity
  8
LAY-10
  6
CONTINUOUS
 62
     7
100
AcDbCircle
 10
708.0000000000002
 20
638.00000000002
 30
0.0
 40
3.000000000000003
100
AcDbArc
 50
180.0
 51
270.0
  0
ARC
  5
EB
330
1F
100
AcDbEntity
  8
LAY-10
  6
CONTINUOUS
 62
     7
100
AcDbCircle
 10
743.0000000000002
 20
603.00000000002
 30
0.0
 40
3.000000000000003
100
AcDbArc
 50
180.0
 51
270.0
  0
ARC
  5
EC
330
1F
100
AcDbEntity
  8
LAY-10
  6
CONTINUOUS
 62
     7
100
AcDbCircle
 10
735.5000000000001
 20
630.50000000002
 30
0.0
 40
4.5
100
AcDbArc
 50
0.0
 51
90.00000000000014
  0
LINE
  5
ED
330
1F
100
AcDbEntity
  8
LAY-10
  6
CONTINUOUS
 62
     7
100
AcDbLine
 10
345.0000000000002
 20
640.00000000002
 30
0.0
 11
345.0000000000002
 21
600.00000000002
 31
0.0
  0
LINE
  5
EE
330
1F
100
AcDbEntity
  8
LAY-10
  6
CONTINUOUS
 62
     7
100
AcDbLine
 10
340.0000000000002
 20
630.50000000002
 30
0.0
 11
340.0000000000002
 21
603.00000000002
 31
0.0
  0
LINE
  5
EF
330
1F
100
AcDbEntity
  8
LAY-10
  6
CONTINUOUS
 62
     7
100
AcDbLine
 10
335.5000000000002
 20
635.00000000002
 30
0.0
 11
308.0000000000002
 21
635.00000000002
 31
0.0
  0
LINE
  5
F0
330
1F
100
AcDbEntity
  8
LAY-10
  6
CONTINUOUS
 62
     7
100
AcDbLine
 10
305.0000000000002
 20
640.00000000002
 30
0.0
 11
305.0000000000002
 21
638.00000000002
 31
0.0
  0
ARC
  5
F1
330
1F
100
AcDbEntity
  8
LAY-10
  6
CONTINUOUS
 62
     7
100
AcDbCircle
 10
308.0000000000002
 20
638.00000000002
 30
0.0
 40
3.000000000000003
100
AcDbArc
 50
180.0
 51
270.0
  0
ARC
  5
F2
330
1F
100
AcDbEntity
  8
LAY-10
  6
CONTINUOUS
 62
     7
100
AcDbCircle
 10
343.0000000000002
 20
603.00000000002
 30
0.0
 40
3.000000000000003
100
AcDbArc
 50
180.0
 51
270.0
  0
ARC
  5
F3
330
1F
100
AcDbEntity
  8
LAY-10
  6
CONTINUOUS
 62
     7
100
AcDbCircle
 10
335.5000000000002
 20
630.50000000002
 30
0.0
 40
4.5
100
AcDbArc
 50
0.0
 51
90.00000000000014
  0
LINE
  5
F4
330
1F
100
AcDbEntity
  8
LAY-10
  6
CENTER
 62
     2
100
AcDbLine
 10
1504.799999999982
 20
1102.00000000002
 30
0.0
 11
1504.799999999982
 21
1120.00000000002
 31
0.0
  0
LINE
  5
F5
330
1F
100
AcDbEntity
  8
LAY-10
  6
CENTER
 62
     2
100
AcDbLine
 10
1124.999999999995
 20
1120.00000000002
 30
0.0
 11
1124.999999999995
 21
1101.086208177904
 31
0.0
  0
LINE
  5
F6
330
1F
100
AcDbEntity
  8
LAY-10
  6
CENTER
 62
     2
100
AcDbLine
 10
324.999999999995
 20
1120.00000000002
 30
0.0
 11
324.999999999995
 21
1101.086208177904
 31
0.0
  0
LINE
  5
F7
330
1F
100
AcDbEntity
  8
LAY-10
  6
CENTER
 62
     2
100
AcDbLine
 10
724.999999999995
 20
1120.00000000002
 30
0.0
 11
724.999999999995
 21
1101.086208177904
 31
0.0
  0
LINE
  5
F8
330
1F
100
AcDbEntity
  8
LAY-10
  6
CENTER
 62
     2
100
AcDbLine
 10
1506.799999999969
 20
898.0000000000198
 30
0.0
 11
1506.799999999969
 21
866.5000000000209
 31
0.0
  0
LINE
  5
F9
330
1F
100
AcDbEntity
  8
LAY-10
  6
CENTER
 62
     2
100
AcDbLine
 10
1124.999999999919
 20
898.0000000000196
 30
0.0
 11
1124.999999999919
 21
866.4999214790278
 31
0.0
  0
LINE
  5
FA
330
1F
100
AcDbEntity
  8
LAY-10
  6
CENTER
 62
     2
100
AcDbLine
 10
724.9999999999586
 20
898.0000000000196
 30
0.0
 11
724.9999999999586
 21
866.4999214790278
 31
0.0
  0
LINE
  5
FB
330
1F
100
AcDbEntity
  8
LAY-10
  6
CENTER
 62
     2
100
AcDbLine
 10
324.9999999999586
 20
898.0000000000196
 30
0.0
 11
324.9999999999586
 21
866.4999214790278
 31
0.0
  0
LINE
  5
FC
330
1F
100
AcDbEntity
  8
LAY-10
  6
CENTER
 62
     2
100
AcDbLine
 10
1365.000000000005
 20
999.9999999999816
 30
0.0
 11
1535.000000000004
 21
999.9999999999816
 31
0.0
  0
LINE
  5
FD
330
1F
100
AcDbEntity
  8
LAY-10
  6
CENTER
 62
     2
100
AcDbLine
 10
1234.999999999955
 20
1000.000000000017
 30
0.0
 11
214.999999999995
 21
1000.000000000017
 31
0.0
  0
LINE
  5
FE
330
1F
100
AcDbEntity
  8
LAY-10
  6
CENTER
 62
     2
100
AcDbLine
 10
1372.999999999993
 20
1061.498708177804
 30
0.0
 11
1432.697114317
 21
1061.498708177799
 31
0.0
  0
LINE
  5
FF
330
1F
100
AcDbEntity
  8
LAY-10
  6
CONTINUOUS
 62
     7
100
AcDbLine
 10
224.9999999999923
 20
1105.000000000004
 30
0.0
 11
1224.999999999992
 21
1105.000000000005
 31
0.0
  0
LINE
  5
100
330
1F
100
AcDbEntity
  8
LAY-10
  6
CONTINUOUS
 62
     7
100
AcDbLine
 10
1224.999999999955
 20
1111.5
 30
0.0
 11
224.999999999995
 21
1111.5
 31
0.0
  0
LINE
  5
101
330
1F
100
AcDbEntity
  8
LAY-10
  6
CONTINUOUS
 62
     7
100
AcDbLine
 10
1121.000000000004
 20
1117.000000000024
 30
0.0
 11
1129.000000000004
 21
1117.000000000024
 31
0.0
  0
LINE
  5
102
330
1F
100
AcDbEntity
  8
LAY-10
  6
CONTINUOUS
 62
     7
100
AcDbLine
 10
721.000000000004
 20
1117.000000000024
 30
0.0
 11
729.0000000000041
 21
1117.000000000024
 31
0.0
  0
LINE
  5
103
330
1F
100
AcDbEntity
  8
LAY-10
  6
CONTINUOUS
 62
     7
100
AcDbLine
 10
321.0000000000041
 20
1117.000000000024
 30
0.0
 11
329.0000000000041
 21
1117.000000000024
 31
0.0
  0
LINE
  5
104
330
1F
100
AcDbEntity
  8
LAY-10
  6
CONTINUOUS
 62
     7
100
AcDbLine
 10
1121.500000000005
 20
1111.5
 30
0.0
 11
1121.500000000005
 21
1117.000000000024
 31
0.0
  0
LINE
  5
105
330
1F
100
AcDbEntity
  8
LAY-10
  6
CONTINUOUS
 62
     7
100
AcDbLine
 10
1121.000000000005
 20
1111.5
 30
0.0
 11
1121.000000000005
 21
1117.000000000024
 31
0.0
  0
LINE
  5
106
330
1F
100
AcDbEntity
  8
LAY-10
  6
CONTINUOUS
 62
     7
100
AcDbLine
 10
1128.500000000005
 20
1111.5
 30
0.0
 11
1128.500000000005
 21
1117.000000000024
 31
0.0
  0
LINE
  5
107
330
1F
100
AcDbEntity
  8
LAY-10
  6
CONTINUOUS
 62
     7
100
AcDbLine
 10
1129.000000000005
 20
1111.5
 30
0.0
 11
1129.000000000005
 21
1117.000000000024
 31
0.0
  0
LINE
  5
108
330
1F
100
AcDbEntity
  8
LAY-10
  6
CONTINUOUS
 62
     7
100
AcDbLine
 10
721.500000000005
 20
1111.5
 30
0.0
 11
721.500000000005
 21
1117.000000000024
 31
0.0
  0
LINE
  5
109
330
1F
100
AcDbEntity
  8
LAY-10
  6
CONTINUOUS
 62
     7
100
AcDbLine
 10
721.000000000005
 20
1111.5
 30
0.0
 11
721.000000000005
 21
1117.000000000024
 31
0.0
  0
LINE
  5
10A
330
1F
100
AcDbEntity
  8
LAY-10
  6
CONTINUOUS
 62
     7
100
AcDbLine
 10
728.5000000000045
 20
1111.5
 30
0.0
 11
728.5000000000045
 21
1117.000000000024
 31
0.0
  0
LINE
  5
10B
330
1F
100
AcDbEntity
  8
LAY-10
  6
CONTINUOUS
 62
     7
100
AcDbLine
 10
729.0000000000045
 20
1111.5
 30
0.0
 11
729.0000000000045
 21
1117.000000000024
 31
0.0
  0
LINE
  5
10C
330
1F
100
AcDbEntity
  8
LAY-10
  6
CONTINUOUS
 62
     7
100
AcDbLine
 10
321.500000000005
 20
1111.5
 30
0.0
 11
321.500000000005
 21
1117.000000000024
 31
0.0
  0
LINE
  5
10D
330
1F
100
AcDbEntity
  8
LAY-10
  6
CONTINUOUS
 62
     7
100
AcDbLine
 10
321.0000000000049
 20
1111.5
 30
0.0
 11
321.0000000000049
 21
1117.000000000024
 31
0.0
  0
LINE
  5
10E
330
1F
100
AcDbEntity
  8
LAY-10
  6
CONTINUOUS
 62
     7
100
AcDbLine
 10
328.5000000000041
 20
1111.5
 30
0.0
 11
328.5000000000041
 21
1117.000000000024
 31
0.0
  0
LINE
  5
10F
330
1F
100
AcDbEntity
  8
LAY-10
  6
CONTINUOUS
 62
     7
100
AcDbLine
 10
329.0000000000041
 20
1111.5
 30
0.0
 11
329.0000000000041
 21
1117.000000000024
 31
0.0
  0
LINE
  5
110
330
1F
100
AcDbEntity
  8
LAY-10
  6
CONTINUOUS
 62
     7
100
AcDbLine
 10
224.9999999999996
 20
1111.5
 30
0.0
 11
224.9999999999996
 21
1067.5
 31
0.0
  0
LINE
  5
111
330
1F
100
AcDbEntity
  8
LAY-10
  6
CONTINUOUS
 62
     7
100
AcDbLine
 10
1224.999999999992
 20
1067.5
 30
0.0
 11
1224.999999999992
 21
1111.5
 31
0.0
  0
LINE
  5
112
330
1F
100
AcDbEntity
  8
LAY-10
  6
HIDDEN
 62
     7
100
AcDbLine
 10
304.999999999995
 20
936.5000000000202
 30
0.0
 11
344.999999999995
 21
936.5000000000202
 31
0.0
  0
LINE
  5
113
330
1F
100
AcDbEntity
  8
LAY-10
  6
HIDDEN
 62
     7
100
AcDbLine
 10
704.999999999995
 20
936.5000000000202
 30
0.0
 11
744.999999999995
 21
936.5000000000202
 31
0.0
  0
LINE
  5
114
330
1F
100
AcDbEntity
  8
LAY-10
  6
HIDDEN
 62
     7
100
AcDbLine
 10
1104.999999999955
 20
936.5000000000202
 30
0.0
 11
1144.999999999955
 21
936.5000000000202
 31
0.0
  0
LINE
  5
115
330
1F
100
AcDbEntity
  8
LAY-10
  6
CONTINUOUS
 62
     7
100
AcDbLine
 10
224.9999999999923
 20
885.5000000000039
 30
0.0
 11
1224.999999999989
 21
885.5000000000041
 31
0.0
  0
ARC
  5
116
330
1F
100
AcDbEntity
  8
LAY-10
  6
CONTINUOUS
 62
     7
100
AcDbCircle
 10
1130.629165124551
 20
881.8911258902729
 30
0.0
 40
3.322569572950003
100
AcDbArc
 50
235.6157525319471
 51
304.3842474680529
  0
LINE
  5
117
330
1F
100
AcDbEntity
  8
LAY-10
  6
CONTINUOUS
 62
     7
100
AcDbLine
 10
1131.249999999951
 20
878.424218750024
 30
0.0
 11
1132.505553499418
 21
879.1491129009228
 31
0.0
  0
ARC
  5
118
330
1F
100
AcDbEntity
  8
LAY-10
  6
CONTINUOUS
 62
     7
100
AcDbCircle
 10
1124.999999999922
 20
890.9879997339112
 30
0.0
 40
12.41944341658879
100
AcDbArc
 50
252.412046226416
 51
287.587953773857
  0
LINE
  5
119
330
1F
100
AcDbEntity
  8
LAY-10
  6
CONTINUOUS
 62
     7
100
AcDbLine
 10
1117.494446500487
 20
879.1491129009228
 30
0.0
 11
1118.749999999951
 21
878.4242187500247
 31
0.0
  0
ARC
  5
11A
330
1F
100
AcDbEntity
  8
LAY-10
  6
CONTINUOUS
 62
     7
100
AcDbCircle
 10
1119.370834875353
 20
881.8911258902731
 30
0.0
 40
3.322569572950376
100
AcDbArc
 50
235.6157525319461
 51
304.3842474680539
  0
LINE
  5
11B
330
1F
100
AcDbEntity
  8
LAY-10
  6
CONTINUOUS
 62
     7
100
AcDbLine
 10
1118.749999999951
 20
878.4242187500247
 30
0.0
 11
1131.249999999951
 21
878.424218750024
 31
0.0
  0
LINE
  5
11C
330
1F
100
AcDbEntity
  8
LAY-10
  6
CONTINUOUS
 62
     7
100
AcDbLine
 10
1132.505553499418
 20
884.9242187500245
 30
0.0
 11
1132.505553499418
 21
879.1491129009228
 31
0.0
  0
LINE
  5
11D
330
1F
100
AcDbEntity
  8
LAY-10
  6
CONTINUOUS
 62
     7
100
AcDbLine
 10
1128.752776749684
 20
879.1491129009228
 30
0.0
 11
1128.752776749684
 21
884.9242187500245
 31
0.0
  0
LINE
  5
11E
330
1F
100
AcDbEntity
  8
LAY-10
  6
CONTINUOUS
 62
     7
100
AcDbLine
 10
1121.24722325022
 20
879.1491129009228
 30
0.0
 11
1121.24722325022
 21
884.9242187500247
 31
0.0
  0
LINE
  5
11F
330
1F
100
AcDbEntity
  8
LAY-10
  6
CONTINUOUS
 62
     7
100
AcDbLine
 10
1117.494446500487
 20
879.1491129009228
 30
0.0
 11
1117.494446500487
 21
884.9242187500267
 31
0.0
  0
LINE
  5
120
330
1F
100
AcDbEntity
  8
LAY-10
  6
CONTINUOUS
 62
     7
100
AcDbLine
 10
1117.494446500549
 20
875.0000000000023
 30
0.0
 11
1117.494446500549
 21
870.2248941508999
 31
0.0
  0
LINE
  5
121
330
1F
100
AcDbEntity
  8
LAY-10
  6
CONTINUOUS
 62
     7
100
AcDbLine
 10
1121.247223250282
 20
870.2248941508999
 30
0.0
 11
1121.247223250282
 21
875.0000000000023
 31
0.0
  0
LINE
  5
122
330
1F
100
AcDbEntity
  8
LAY-10
  6
CONTINUOUS
 62
     7
100
AcDbLine
 10
1118.750000000014
 20
869.5000000000023
 30
0.0
 11
1117.494446500549
 21
870.2248941508999
 31
0.0
  0
ARC
  5
123
330
1F
100
AcDbEntity
  8
LAY-10
  6
CONTINUOUS
 62
     7
100
AcDbCircle
 10
1119.370834875415
 20
872.9669071402493
 30
0.0
 40
3.322569572950003
100
AcDbArc
 50
235.6157525319472
 51
304.3842474680529
  0
LINE
  5
124
330
1F
100
AcDbEntity
  8
LAY-10
  6
CONTINUOUS
 62
     7
100
AcDbLine
 10
1128.752776749748
 20
870.2248941508999
 30
0.0
 11
1128.752776749748
 21
875.0000000000023
 31
0.0
  0
ARC
  5
125
330
1F
100
AcDbEntity
  8
LAY-10
  6
CONTINUOUS
 62
     7
100
AcDbCircle
 10
1125.000000000045
 20
882.0637809838877
 30
0.0
 40
12.41944341658879
100
AcDbArc
 50
252.412046226142
 51
287.5879537735842
  0
LINE
  5
126
330
1F
100
AcDbEntity
  8
LAY-10
  6
CONTINUOUS
 62
     7
100
AcDbLine
 10
1132.505553499479
 20
870.2248941508999
 30
0.0
 11
1132.505553499479
 21
875.0000000000023
 31
0.0
  0
LINE
  5
127
330
1F
100
AcDbEntity
  8
LAY-10
  6
CONTINUOUS
 62
     7
100
AcDbLine
 10
1132.505553499479
 20
870.2248941508999
 30
0.0
 11
1131.250000000014
 21
869.5000000000023
 31
0.0
  0
ARC
  5
128
330
1F
100
AcDbEntity
  8
LAY-10
  6
CONTINUOUS
 62
     7
100
AcDbCircle
 10
1130.629165124615
 20
872.9669071402493
 30
0.0
 40
3.322569572950376
100
AcDbArc
 50
235.6157525319461
 51
304.384247468054
  0
LINE
  5
129
330
1F
100
AcDbEntity
  8
LAY-10
  6
CONTINUOUS
 62
     7
100
AcDbLine
 10
1131.250000000014
 20
869.5000000000023
 30
0.0
 11
1118.750000000014
 21
869.5000000000023
 31
0.0
  0
LINE
  5
12A
330
1F
100
AcDbEntity
  8
LAY-10
  6
CONTINUOUS
 62
     7
100
AcDbLine
 10
1132.505553499479
 20
875.0000000000023
 30
0.0
 11
1117.494446500549
 21
875.0000000000023
 31
0.0
  0
LINE
  5
12B
330
1F
100
AcDbEntity
  8
LAY-10
  6
CONTINUOUS
 62
     7
100
AcDbLine
 10
1129.000000000015
 20
875.0000000000023
 30
0.0
 11
1129.000000000017
 21
878.4242187500422
 31
0.0
  0
LINE
  5
12C
330
1F
100
AcDbEntity
  8
LAY-10
  6
CONTINUOUS
 62
     7
100
AcDbLine
 10
1128.375000000015
 20
875.0000000000023
 30
0.0
 11
1128.375000000017
 21
878.4242187499997
 31
0.0
  0
LINE
  5
12D
330
1F
100
AcDbEntity
  8
LAY-10
  6
CONTINUOUS
 62
     7
100
AcDbLine
 10
1121.625000000017
 20
878.4242187500422
 30
0.0
 11
1121.625000000015
 21
875.0000000000023
 31
0.0
  0
LINE
  5
12E
330
1F
100
AcDbEntity
  8
LAY-10
  6
CONTINUOUS
 62
     7
100
AcDbLine
 10
1121.000000000017
 20
878.4242187500422
 30
0.0
 11
1121.000000000015
 21
875.0000000000023
 31
0.0
  0
ARC
  5
12F
330
1F
100
AcDbEntity
  8
LAY-10
  6
CONTINUOUS
 62
     7
100
AcDbCircle
 10
730.62916512459
 20
881.8911258902729
 30
0.0
 40
3.322569572950003
100
AcDbArc
 50
235.6157525319471
 51
304.3842474680529
  0
LINE
  5
130
330
1F
100
AcDbEntity
  8
LAY-10
  6
CONTINUOUS
 62
     7
100
AcDbLine
 10
731.2499999999912
 20
878.424218750024
 30
0.0
 11
732.505553499457
 21
879.1491129009228
 31
0.0
  0
ARC
  5
131
330
1F
100
AcDbEntity
  8
LAY-10
  6
CONTINUOUS
 62
     7
100
AcDbCircle
 10
724.9999999999613
 20
890.9879997339112
 30
0.0
 40
12.41944341658879
100
AcDbArc
 50
252.412046226416
 51
287.587953773857
  0
LINE
  5
132
330
1F
100
AcDbEntity
  8
LAY-10
  6
CONTINUOUS
 62
     7
100
AcDbLine
 10
717.4944465005269
 20
879.1491129009228
 30
0.0
 11
718.7499999999912
 21
878.4242187500247
 31
0.0
  0
ARC
  5
133
330
1F
100
AcDbEntity
  8
LAY-10
  6
CONTINUOUS
 62
     7
100
AcDbCircle
 10
719.3708348753921
 20
881.8911258902731
 30
0.0
 40
3.322569572950376
100
AcDbArc
 50
235.6157525319461
 51
304.3842474680539
  0
LINE
  5
134
330
1F
100
AcDbEntity
  8
LAY-10
  6
CONTINUOUS
 62
     7
100
AcDbLine
 10
718.7499999999912
 20
878.4242187500247
 30
0.0
 11
731.2499999999912
 21
878.424218750024
 31
0.0
  0
LINE
  5
135
330
1F
100
AcDbEntity
  8
LAY-10
  6
CONTINUOUS
 62
     7
100
AcDbLine
 10
732.505553499457
 20
884.9242187500245
 30
0.0
 11
732.505553499457
 21
879.1491129009228
 31
0.0
  0
LINE
  5
136
330
1F
100
AcDbEntity
  8
LAY-10
  6
CONTINUOUS
 62
     7
100
AcDbLine
 10
728.7527767497245
 20
879.1491129009228
 30
0.0
 11
728.7527767497245
 21
884.9242187500245
 31
0.0
  0
LINE
  5
137
330
1F
100
AcDbEntity
  8
LAY-10
  6
CONTINUOUS
 62
     7
100
AcDbLine
 10
721.2472232502591
 20
879.1491129009228
 30
0.0
 11
721.2472232502591
 21
884.9242187500247
 31
0.0
  0
LINE
  5
138
330
1F
100
AcDbEntity
  8
LAY-10
  6
CONTINUOUS
 62
     7
100
AcDbLine
 10
717.4944465005269
 20
879.1491129009228
 30
0.0
 11
717.4944465005269
 21
884.9242187500267
 31
0.0
  0
LINE
  5
139
330
1F
100
AcDbEntity
  8
LAY-10
  6
CONTINUOUS
 62
     7
100
AcDbLine
 10
717.4944465005891
 20
875.0000000000023
 30
0.0
 11
717.4944465005891
 21
870.2248941508999
 31
0.0
  0
LINE
  5
13A
330
1F
100
AcDbEntity
  8
LAY-10
  6
CONTINUOUS
 62
     7
100
AcDbLine
 10
721.2472232503223
 20
870.2248941508999
 30
0.0
 11
721.2472232503223
 21
875.0000000000023
 31
0.0
  0
LINE
  5
13B
330
1F
100
AcDbEntity
  8
LAY-10
  6
CONTINUOUS
 62
     7
100
AcDbLine
 10
718.7500000000537
 20
869.5000000000023
 30
0.0
 11
717.4944465005891
 21
870.2248941508999
 31
0.0
  0
ARC
  5
13C
330
1F
100
AcDbEntity
  8
LAY-10
  6
CONTINUOUS
 62
     7
100
AcDbCircle
 10
719.3708348754553
 20
872.9669071402493
 30
0.0
 40
3.322569572950003
100
AcDbArc
 50
235.6157525319472
 51
304.3842474680529
  0
LINE
  5
13D
330
1F
100
AcDbEntity
  8
LAY-10
  6
CONTINUOUS
 62
     7
100
AcDbLine
 10
728.7527767497877
 20
870.2248941508999
 30
0.0
 11
728.7527767497877
 21
875.0000000000023
 31
0.0
  0
ARC
  5
13E
330
1F
100
AcDbEntity
  8
LAY-10
  6
CONTINUOUS
 62
     7
100
AcDbCircle
 10
725.0000000000845
 20
882.0637809838877
 30
0.0
 40
12.41944341658879
100
AcDbArc
 50
252.412046226142
 51
287.5879537735842
  0
LINE
  5
13F
330
1F
100
AcDbEntity
  8
LAY-10
  6
CONTINUOUS
 62
     7
100
AcDbLine
 10
732.5055534995195
 20
870.2248941508999
 30
0.0
 11
732.5055534995195
 21
875.0000000000023
 31
0.0
  0
LINE
  5
140
330
1F
100
AcDbEntity
  8
LAY-10
  6
CONTINUOUS
 62
     7
100
AcDbLine
 10
732.5055534995195
 20
870.2248941508999
 30
0.0
 11
731.2500000000537
 21
869.5000000000023
 31
0.0
  0
ARC
  5
141
330
1F
100
AcDbEntity
  8
LAY-10
  6
CONTINUOUS
 62
     7
100
AcDbCircle
 10
730.6291651246547
 20
872.9669071402493
 30
0.0
 40
3.322569572950376
100
AcDbArc
 50
235.6157525319461
 51
304.384247468054
  0
LINE
  5
142
330
1F
100
AcDbEntity
  8
LAY-10
  6
CONTINUOUS
 62
     7
100
AcDbLine
 10
731.2500000000537
 20
869.5000000000023
 30
0.0
 11
718.7500000000537
 21
869.5000000000023
 31
0.0
  0
LINE
  5
143
330
1F
100
AcDbEntity
  8
LAY-10
  6
CONTINUOUS
 62
     7
100
AcDbLine
 10
732.5055534995195
 20
875.0000000000023
 30
0.0
 11
717.4944465005891
 21
875.0000000000023
 31
0.0
  0
LINE
  5
144
330
1F
100
AcDbEntity
  8
LAY-10
  6
CONTINUOUS
 62
     7
100
AcDbLine
 10
729.0000000000546
 20
875.0000000000023
 30
0.0
 11
729.0000000000568
 21
878.4242187500422
 31
0.0
  0
LINE
  5
145
330
1F
100
AcDbEntity
  8
LAY-10
  6
CONTINUOUS
 62
     7
100
AcDbLine
 10
728.3750000000546
 20
875.0000000000023
 30
0.0
 11
728.3750000000568
 21
878.4242187499997
 31
0.0
  0
LINE
  5
146
330
1F
100
AcDbEntity
  8
LAY-10
  6
CONTINUOUS
 62
     7
100
AcDbLine
 10
721.6250000000573
 20
878.4242187500422
 30
0.0
 11
721.625000000055
 21
875.0000000000023
 31
0.0
  0
LINE
  5
147
330
1F
100
AcDbEntity
  8
LAY-10
  6
CONTINUOUS
 62
     7
100
AcDbLine
 10
721.0000000000573
 20
878.4242187500422
 30
0.0
 11
721.000000000055
 21
875.0000000000023
 31
0.0
  0
ARC
  5
148
330
1F
100
AcDbEntity
  8
LAY-10
  6
CONTINUOUS
 62
     7
100
AcDbCircle
 10
330.6291651245901
 20
881.8911258902729
 30
0.0
 40
3.322569572950003
100
AcDbArc
 50
235.6157525319471
 51
304.3842474680529
  0
LINE
  5
149
330
1F
100
AcDbEntity
  8
LAY-10
  6
CONTINUOUS
 62
     7
100
AcDbLine
 10
331.2499999999914
 20
878.424218750024
 30
0.0
 11
332.5055534994572
 21
879.1491129009228
 31
0.0
  0
ARC
  5
14A
330
1F
100
AcDbEntity
  8
LAY-10
  6
CONTINUOUS
 62
     7
100
AcDbCircle
 10
324.9999999999613
 20
890.9879997339112
 30
0.0
 40
12.41944341658879
100
AcDbArc
 50
252.412046226416
 51
287.587953773857
  0
LINE
  5
14B
330
1F
100
AcDbEntity
  8
LAY-10
  6
CONTINUOUS
 62
     7
100
AcDbLine
 10
317.4944465005269
 20
879.1491129009228
 30
0.0
 11
318.7499999999914
 21
878.4242187500247
 31
0.0
  0
ARC
  5
14C
330
1F
100
AcDbEntity
  8
LAY-10
  6
CONTINUOUS
 62
     7
100
AcDbCircle
 10
319.3708348753921
 20
881.8911258902731
 30
0.0
 40
3.322569572950376
100
AcDbArc
 50
235.6157525319461
 51
304.3842474680539
  0
LINE
  5
14D
330
1F
100
AcDbEntity
  8
LAY-10
  6
CONTINUOUS
 62
     7
100
AcDbLine
 10
318.7499999999914
 20
878.4242187500247
 30
0.0
 11
331.2499999999914
 21
878.424218750024
 31
0.0
  0
LINE
  5
14E
330
1F
100
AcDbEntity
  8
LAY-10
  6
CONTINUOUS
 62
     7
100
AcDbLine
 10
332.5055534994572
 20
884.9242187500245
 30
0.0
 11
332.5055534994572
 21
879.1491129009228
 31
0.0
  0
LINE
  5
14F
330
1F
100
AcDbEntity
  8
LAY-10
  6
CONTINUOUS
 62
     7
100
AcDbLine
 10
328.7527767497245
 20
879.1491129009228
 30
0.0
 11
328.7527767497245
 21
884.9242187500245
 31
0.0
  0
LINE
  5
150
330
1F
100
AcDbEntity
  8
LAY-10
  6
CONTINUOUS
 62
     7
100
AcDbLine
 10
321.2472232502591
 20
879.1491129009228
 30
0.0
 11
321.2472232502591
 21
884.9242187500247
 31
0.0
  0
LINE
  5
151
330
1F
100
AcDbEntity
  8
LAY-10
  6
CONTINUOUS
 62
     7
100
AcDbLine
 10
317.4944465005269
 20
879.1491129009228
 30
0.0
 11
317.4944465005269
 21
884.9242187500267
 31
0.0
  0
LINE
  5
152
330
1F
100
AcDbEntity
  8
LAY-10
  6
CONTINUOUS
 62
     7
100
AcDbLine
 10
317.4944465005892
 20
875.0000000000023
 30
0.0
 11
317.4944465005892
 21
870.2248941508999
 31
0.0
  0
LINE
  5
153
330
1F
100
AcDbEntity
  8
LAY-10
  6
CONTINUOUS
 62
     7
100
AcDbLine
 10
321.2472232503223
 20
870.2248941508999
 30
0.0
 11
321.2472232503223
 21
875.0000000000023
 31
0.0
  0
LINE
  5
154
330
1F
100
AcDbEntity
  8
LAY-10
  6
CONTINUOUS
 62
     7
100
AcDbLine
 10
318.7500000000537
 20
869.5000000000023
 30
0.0
 11
317.4944465005892
 21
870.2248941508999
 31
0.0
  0
ARC
  5
155
330
1F
100
AcDbEntity
  8
LAY-10
  6
CONTINUOUS
 62
     7
100
AcDbCircle
 10
319.3708348754553
 20
872.9669071402493
 30
0.0
 40
3.322569572950003
100
AcDbArc
 50
235.6157525319472
 51
304.3842474680529
  0
LINE
  5
156
330
1F
100
AcDbEntity
  8
LAY-10
  6
CONTINUOUS
 62
     7
100
AcDbLine
 10
328.7527767497876
 20
870.2248941508999
 30
0.0
 11
328.7527767497876
 21
875.0000000000023
 31
0.0
  0
ARC
  5
157
330
1F
100
AcDbEntity
  8
LAY-10
  6
CONTINUOUS
 62
     7
100
AcDbCircle
 10
325.0000000000846
 20
882.0637809838877
 30
0.0
 40
12.41944341658879
100
AcDbArc
 50
252.412046226142
 51
287.5879537735842
  0
LINE
  5
158
330
1F
100
AcDbEntity
  8
LAY-10
  6
CONTINUOUS
 62
     7
100
AcDbLine
 10
332.5055534995194
 20
870.2248941508999
 30
0.0
 11
332.5055534995194
 21
875.0000000000023
 31
0.0
  0
LINE
  5
159
330
1F
100
AcDbEntity
  8
LAY-10
  6
CONTINUOUS
 62
     7
100
AcDbLine
 10
332.5055534995194
 20
870.2248941508999
 30
0.0
 11
331.2500000000536
 21
869.5000000000023
 31
0.0
  0
ARC
  5
15A
330
1F
100
AcDbEntity
  8
LAY-10
  6
CONTINUOUS
 62
     7
100
AcDbCircle
 10
330.6291651246547
 20
872.9669071402493
 30
0.0
 40
3.322569572950376
100
AcDbArc
 50
235.6157525319461
 51
304.384247468054
  0
LINE
  5
15B
330
1F
100
AcDbEntity
  8
LAY-10
  6
CONTINUOUS
 62
     7
100
AcDbLine
 10
331.2500000000536
 20
869.5000000000023
 30
0.0
 11
318.7500000000537
 21
869.5000000000023
 31
0.0
  0
LINE
  5
15C
330
1F
100
AcDbEntity
  8
LAY-10
  6
CONTINUOUS
 62
     7
100
AcDbLine
 10
332.5055534995194
 20
875.0000000000023
 30
0.0
 11
317.4944465005892
 21
875.0000000000023
 31
0.0
  0
LINE
  5
15D
330
1F
100
AcDbEntity
  8
LAY-10
  6
CONTINUOUS
 62
     7
100
AcDbLine
 10
329.0000000000545
 20
875.0000000000023
 30
0.0
 11
329.0000000000568
 21
878.4242187500422
 31
0.0
  0
LINE
  5
15E
330
1F
100
AcDbEntity
  8
LAY-10
  6
CONTINUOUS
 62
     7
100
AcDbLine
 10
328.3750000000545
 20
875.0000000000023
 30
0.0
 11
328.3750000000568
 21
878.4242187499997
 31
0.0
  0
LINE
  5
15F
330
1F
100
AcDbEntity
  8
LAY-10
  6
CONTINUOUS
 62
     7
100
AcDbLine
 10
321.6250000000572
 20
878.4242187500422
 30
0.0
 11
321.625000000055
 21
875.0000000000023
 31
0.0
  0
LINE
  5
160
330
1F
100
AcDbEntity
  8
LAY-10
  6
CONTINUOUS
 62
     7
100
AcDbLine
 10
321.0000000000572
 20
878.4242187500422
 30
0.0
 11
321.000000000055
 21
875.0000000000023
 31
0.0
  0
LINE
  5
161
330
1F
100
AcDbEntity
  8
LAY-10
  6
CONTINUOUS
 62
     7
100
AcDbLine
 10
224.9999999999923
 20
1100.500000000004
 30
0.0
 11
1224.999999999992
 21
1100.500000000005
 31
0.0
  0
LINE
  5
162
330
1F
100
AcDbEntity
  8
LAY-10
  6
CONTINUOUS
 62
     7
100
AcDbLine
 10
225.9999999999959
 20
1067.5
 30
0.0
 11
224.9999999999996
 21
1067.5
 31
0.0
  0
LINE
  5
163
330
1F
100
AcDbEntity
  8
LAY-10
  6
HIDDEN
 62
     7
100
AcDbLine
 10
704.999999999995
 20
936.4999999999802
 30
0.0
 11
704.999999999995
 21
1067.50000000002
 31
0.0
  0
LINE
  5
164
330
1F
100
AcDbEntity
  8
LAY-10
  6
HIDDEN
 62
     7
100
AcDbLine
 10
744.999999999995
 20
936.4999999999802
 30
0.0
 11
744.999999999995
 21
1067.50000000002
 31
0.0
  0
LINE
  5
165
330
1F
100
AcDbEntity
  8
LAY-10
  6
HIDDEN
 62
     7
100
AcDbLine
 10
344.999999999995
 20
936.4999999999807
 30
0.0
 11
344.999999999995
 21
1067.50000000002
 31
0.0
  0
LINE
  5
166
330
1F
100
AcDbEntity
  8
LAY-10
  6
HIDDEN
 62
     7
100
AcDbLine
 10
304.999999999995
 20
936.4999999999807
 30
0.0
 11
304.999999999995
 21
1067.50000000002
 31
0.0
  0
LINE
  5
167
330
1F
100
AcDbEntity
  8
LAY-10
  6
CONTINUOUS
 62
     7
100
AcDbLine
 10
224.9999999999923
 20
1018.000000000003
 30
0.0
 11
1224.999999999992
 21
1018.000000000004
 31
0.0
  0
LINE
  5
168
330
1F
100
AcDbEntity
  8
LAY-10
  6
CONTINUOUS
 62
     7
100
AcDbLine
 10
224.9999999999923
 20
1022.500000000013
 30
0.0
 11
1224.999999999992
 21
1022.500000000014
 31
0.0
  0
LINE
  5
169
330
1F
100
AcDbEntity
  8
LAY-10
  6
CONTINUOUS
 62
     7
100
AcDbLine
 10
1224.999999999993
 20
885.5000000000042
 30
0.0
 11
1224.999999999993
 21
1022.500000000014
 31
0.0
  0
LINE
  5
16A
330
1F
100
AcDbEntity
  8
LAY-10
  6
CONTINUOUS
 62
     7
100
AcDbLine
 10
224.9999999999996
 20
1022.500000000013
 30
0.0
 11
224.9999999999996
 21
885.5000000000002
 31
0.0
  0
LINE
  5
16B
330
1F
100
AcDbEntity
  8
LAY-10
  6
HIDDEN
 62
     7
100
AcDbLine
 10
1104.99999999999
 20
936.4999999999802
 30
0.0
 11
1104.99999999999
 21
1067.5
 31
0.0
  0
LINE
  5
16C
330
1F
100
AcDbEntity
  8
LAY-10
  6
HIDDEN
 62
     7
100
AcDbLine
 10
1144.99999999999
 20
936.4999999999802
 30
0.0
 11
1144.99999999999
 21
1067.5
 31
0.0
  0
LINE
  5
16D
330
1F
100
AcDbEntity
  8
LAY-10
  6
CONTINUOUS
 62
     7
100
AcDbLine
 10
717.4999999999714
 20
1038.499999999905
 30
0.0
 11
717.4999999999714
 21
1044.499999999905
 31
0.0
  0
LINE
  5
16E
330
1F
100
AcDbEntity
  8
LAY-10
  6
CONTINUOUS
 62
     7
100
AcDbLine
 10
717.4999999999714
 20
1078.500000000005
 30
0.0
 11
717.4999999999714
 21
1084.500000000005
 31
0.0
  0
LINE
  5
16F
330
1F
100
AcDbEntity
  8
LAY-10
  6
CONTINUOUS
 62
     7
100
AcDbLine
 10
732.4999999999714
 20
1038.499999999905
 30
0.0
 11
732.4999999999714
 21
1044.499999999905
 31
0.0
  0
LINE
  5
170
330
1F
100
AcDbEntity
  8
LAY-10
  6
CONTINUOUS
 62
     7
100
AcDbLine
 10
732.4999999999714
 20
1078.500000000005
 30
0.0
 11
732.4999999999714
 21
1084.500000000005
 31
0.0
  0
ARC
  5
171
330
1F
100
AcDbEntity
  8
LAY-10
  6
CONTINUOUS
 62
     7
100
AcDbCircle
 10
724.9999999999714
 20
1061.499999999955
 30
0.0
 40
5.0
100
AcDbArc
 50
53.13010235410481
 51
126.8698976459003
  0
ARC
  5
172
330
1F
100
AcDbEntity
  8
LAY-10
  6
CONTINUOUS
 62
     7
100
AcDbCircle
 10
724.9999999999714
 20
1061.499999999955
 30
0.0
 40
4.0
100
AcDbArc
 50
48.59037789393994
 51
131.4096221060601
  0
ARC
  5
173
330
1F
100
AcDbEntity
  8
LAY-10
  6
CONTINUOUS
 62
     7
100
AcDbCircle
 10
724.9999999999714
 20
1061.499999999955
 30
0.0
 40
4.0
100
AcDbArc
 50
228.5903778939492
 51
311.4096221060509
  0
ARC
  5
174
330
1F
100
AcDbEntity
  8
LAY-10
  6
CONTINUOUS
 62
     7
100
AcDbCircle
 10
724.9999999999714
 20
1061.499999999955
 30
0.0
 40
5.0
100
AcDbArc
 50
233.1301023541225
 51
306.8698976458775
  0
ARC
  5
175
330
1F
100
AcDbEntity
  8
LAY-10
  6
CONTINUOUS
 62
     7
100
AcDbCircle
 10
324.9999999999609
 20
1061.499999999955
 30
0.0
 40
5.0
100
AcDbArc
 50
53.13010235410481
 51
126.8698976459003
  0
ARC
  5
176
330
1F
100
AcDbEntity
  8
LAY-10
  6
CONTINUOUS
 62
     7
100
AcDbCircle
 10
324.9999999999609
 20
1061.499999999955
 30
0.0
 40
4.0
100
AcDbArc
 50
48.59037789393994
 51
131.4096221060601
  0
ARC
  5
177
330
1F
100
AcDbEntity
  8
LAY-10
  6
CONTINUOUS
 62
     7
100
AcDbCircle
 10
324.9999999999609
 20
1061.499999999955
 30
0.0
 40
4.0
100
AcDbArc
 50
228.5903778939492
 51
311.4096221060509
  0
ARC
  5
178
330
1F
100
AcDbEntity
  8
LAY-10
  6
CONTINUOUS
 62
     7
100
AcDbCircle
 10
324.9999999999609
 20
1061.499999999955
 30
0.0
 40
5.0
100
AcDbArc
 50
233.1301023541225
 51
306.8698976458775
  0
LINE
  5
179
330
1F
100
AcDbEntity
  8
LAY-10
  6
CONTINUOUS
 62
     7
100
AcDbLine
 10
418.9999999999709
 20
1038.499999999905
 30
0.0
 11
418.9999999999709
 21
1044.499999999905
 31
0.0
  0
LINE
  5
17A
330
1F
100
AcDbEntity
  8
LAY-10
  6
CONTINUOUS
 62
     7
100
AcDbLine
 10
430.999999999971
 20
1038.499999999905
 30
0.0
 11
430.999999999971
 21
1044.499999999905
 31
0.0
  0
LINE
  5
17B
330
1F
100
AcDbEntity
  8
LAY-10
  6
CONTINUOUS
 62
     7
100
AcDbLine
 10
418.9999999999709
 20
1058.500000000105
 30
0.0
 11
418.9999999999709
 21
1064.500000000105
 31
0.0
  0
LINE
  5
17C
330
1F
100
AcDbEntity
  8
LAY-10
  6
CONTINUOUS
 62
     7
100
AcDbLine
 10
430.999999999971
 20
1058.500000000105
 30
0.0
 11
430.999999999971
 21
1064.500000000105
 31
0.0
  0
LINE
  5
17D
330
1F
100
AcDbEntity
  8
LAY-10
  6
CONTINUOUS
 62
     7
100
AcDbLine
 10
418.9999999999709
 20
1078.500000000005
 30
0.0
 11
418.9999999999709
 21
1084.500000000005
 31
0.0
  0
LINE
  5
17E
330
1F
100
AcDbEntity
  8
LAY-10
  6
CONTINUOUS
 62
     7
100
AcDbLine
 10
430.999999999971
 20
1078.500000000005
 30
0.0
 11
430.999999999971
 21
1084.500000000005
 31
0.0
  0
ARC
  5
17F
330
1F
100
AcDbEntity
  8
LAY-10
  6
CONTINUOUS
 62
     7
100
AcDbCircle
 10
524.9999999999409
 20
1061.499999999955
 30
0.0
 40
5.0
100
AcDbArc
 50
53.13010235409815
 51
126.8698976458961
  0
ARC
  5
180
330
1F
100
AcDbEntity
  8
LAY-10
  6
CONTINUOUS
 62
     7
100
AcDbCircle
 10
524.9999999999409
 20
1061.499999999955
 30
0.0
 40
4.0
100
AcDbArc
 50
48.59037789393748
 51
131.4096221060625
  0
ARC
  5
181
330
1F
100
AcDbEntity
  8
LAY-10
  6
CONTINUOUS
 62
     7
100
AcDbCircle
 10
524.9999999999409
 20
1061.499999999955
 30
0.0
 40
4.0
100
AcDbArc
 50
228.5903778939515
 51
311.4096221060485
  0
ARC
  5
182
330
1F
100
AcDbEntity
  8
LAY-10
  6
CONTINUOUS
 62
     7
100
AcDbCircle
 10
524.9999999999409
 20
1061.499999999955
 30
0.0
 40
5.0
100
AcDbArc
 50
233.1301023541234
 51
306.8698976458766
  0
LINE
  5
183
330
1F
100
AcDbEntity
  8
LAY-10
  6
CONTINUOUS
 62
     7
100
AcDbLine
 10
327.9999999999641
 20
1065.499999999953
 30
0.0
 11
521.9999999999382
 21
1065.499999999953
 31
0.0
  0
LINE
  5
184
330
1F
100
AcDbEntity
  8
LAY-10
  6
CONTINUOUS
 62
     7
100
AcDbLine
 10
521.9999999999391
 20
1057.499999999956
 30
0.0
 11
327.9999999999632
 21
1057.499999999956
 31
0.0
  0
LINE
  5
185
330
1F
100
AcDbEntity
  8
LAY-10
  6
CONTINUOUS
 62
     7
100
AcDbLine
 10
527.9999999999436
 20
1065.499999999953
 30
0.0
 11
721.9999999999686
 21
1065.499999999953
 31
0.0
  0
LINE
  5
186
330
1F
100
AcDbEntity
  8
LAY-10
  6
CONTINUOUS
 62
     7
100
AcDbLine
 10
721.999999999969
 20
1057.499999999956
 30
0.0
 11
527.9999999999427
 21
1057.499999999956
 31
0.0
  0
LINE
  5
187
330
1F
100
AcDbEntity
  8
LAY-10
  6
CONTINUOUS
 62
     7
100
AcDbLine
 10
618.9999999999709
 20
1038.499999999905
 30
0.0
 11
618.9999999999709
 21
1044.499999999905
 31
0.0
  0
LINE
  5
188
330
1F
100
AcDbEntity
  8
LAY-10
  6
CONTINUOUS
 62
     7
100
AcDbLine
 10
630.9999999999709
 20
1038.499999999905
 30
0.0
 11
630.9999999999709
 21
1044.499999999905
 31
0.0
  0
LINE
  5
189
330
1F
100
AcDbEntity
  8
LAY-10
  6
CONTINUOUS
 62
     7
100
AcDbLine
 10
618.9999999999709
 20
1058.499999999805
 30
0.0
 11
618.9999999999709
 21
1064.499999999805
 31
0.0
  0
LINE
  5
18A
330
1F
100
AcDbEntity
  8
LAY-10
  6
CONTINUOUS
 62
     7
100
AcDbLine
 10
630.9999999999709
 20
1058.499999999805
 30
0.0
 11
630.9999999999709
 21
1064.499999999805
 31
0.0
  0
LINE
  5
18B
330
1F
100
AcDbEntity
  8
LAY-10
  6
CONTINUOUS
 62
     7
100
AcDbLine
 10
618.9999999999709
 20
1078.500000000005
 30
0.0
 11
618.9999999999709
 21
1084.500000000005
 31
0.0
  0
LINE
  5
18C
330
1F
100
AcDbEntity
  8
LAY-10
  6
CONTINUOUS
 62
     7
100
AcDbLine
 10
630.9999999999709
 20
1078.500000000005
 30
0.0
 11
630.9999999999709
 21
1084.500000000005
 31
0.0
  0
LINE
  5
18D
330
1F
100
AcDbEntity
  8
LAY-10
  6
CONTINUOUS
 62
     7
100
AcDbLine
 10
830.9999999999718
 20
1038.499999999905
 30
0.0
 11
830.9999999999718
 21
1044.499999999905
 31
0.0
  0
LINE
  5
18E
330
1F
100
AcDbEntity
  8
LAY-10
  6
CONTINUOUS
 62
     7
100
AcDbLine
 10
818.9999999999719
 20
1038.499999999905
 30
0.0
 11
818.9999999999719
 21
1044.499999999905
 31
0.0
  0
LINE
  5
18F
330
1F
100
AcDbEntity
  8
LAY-10
  6
CONTINUOUS
 62
     7
100
AcDbLine
 10
830.9999999999718
 20
1058.499999999805
 30
0.0
 11
830.9999999999718
 21
1064.499999999805
 31
0.0
  0
LINE
  5
190
330
1F
100
AcDbEntity
  8
LAY-10
  6
CONTINUOUS
 62
     7
100
AcDbLine
 10
818.9999999999719
 20
1058.499999999805
 30
0.0
 11
818.9999999999719
 21
1064.499999999805
 31
0.0
  0
LINE
  5
191
330
1F
100
AcDbEntity
  8
LAY-10
  6
CONTINUOUS
 62
     7
100
AcDbLine
 10
830.9999999999718
 20
1078.500000000005
 30
0.0
 11
830.9999999999718
 21
1084.500000000005
 31
0.0
  0
LINE
  5
192
330
1F
100
AcDbEntity
  8
LAY-10
  6
CONTINUOUS
 62
     7
100
AcDbLine
 10
818.9999999999719
 20
1078.500000000005
 30
0.0
 11
818.9999999999719
 21
1084.500000000005
 31
0.0
  0
ARC
  5
193
330
1F
100
AcDbEntity
  8
LAY-10
  6
CONTINUOUS
 62
     7
100
AcDbCircle
 10
925.0000000000018
 20
1061.499999999955
 30
0.0
 40
5.0
100
AcDbArc
 50
53.13010235410388
 51
126.8698976459016
  0
ARC
  5
194
330
1F
100
AcDbEntity
  8
LAY-10
  6
CONTINUOUS
 62
     7
100
AcDbCircle
 10
925.0000000000018
 20
1061.499999999955
 30
0.0
 40
4.0
100
AcDbArc
 50
48.59037789393644
 51
131.4096221060624
  0
ARC
  5
195
330
1F
100
AcDbEntity
  8
LAY-10
  6
CONTINUOUS
 62
     7
100
AcDbCircle
 10
925.0000000000018
 20
1061.499999999955
 30
0.0
 40
4.0
100
AcDbArc
 50
228.5903778939526
 51
311.4096221060499
  0
ARC
  5
196
330
1F
100
AcDbEntity
  8
LAY-10
  6
CONTINUOUS
 62
     7
100
AcDbCircle
 10
925.0000000000018
 20
1061.499999999955
 30
0.0
 40
5.0
100
AcDbArc
 50
233.1301023541234
 51
306.8698976458766
  0
LINE
  5
197
330
1F
100
AcDbEntity
  8
LAY-10
  6
CONTINUOUS
 62
     7
100
AcDbLine
 10
921.9999999999995
 20
1057.499999999956
 30
0.0
 11
727.9999999999736
 21
1057.499999999956
 31
0.0
  0
LINE
  5
198
330
1F
100
AcDbEntity
  8
LAY-10
  6
CONTINUOUS
 62
     7
100
AcDbLine
 10
727.9999999999741
 20
1065.499999999953
 30
0.0
 11
921.9999999999987
 21
1065.499999999953
 31
0.0
  0
LINE
  5
199
330
1F
100
AcDbEntity
  8
LAY-10
  6
CONTINUOUS
 62
     7
100
AcDbLine
 10
1030.999999999972
 20
1038.499999999905
 30
0.0
 11
1030.999999999972
 21
1044.499999999905
 31
0.0
  0
LINE
  5
19A
330
1F
100
AcDbEntity
  8
LAY-10
  6
CONTINUOUS
 62
     7
100
AcDbLine
 10
1018.999999999972
 20
1038.499999999905
 30
0.0
 11
1018.999999999972
 21
1044.499999999905
 31
0.0
  0
LINE
  5
19B
330
1F
100
AcDbEntity
  8
LAY-10
  6
CONTINUOUS
 62
     7
100
AcDbLine
 10
1030.999999999972
 20
1058.500000000105
 30
0.0
 11
1030.999999999972
 21
1064.500000000105
 31
0.0
  0
LINE
  5
19C
330
1F
100
AcDbEntity
  8
LAY-10
  6
CONTINUOUS
 62
     7
100
AcDbLine
 10
1018.999999999972
 20
1058.500000000105
 30
0.0
 11
1018.999999999972
 21
1064.500000000105
 31
0.0
  0
LINE
  5
19D
330
1F
100
AcDbEntity
  8
LAY-10
  6
CONTINUOUS
 62
     7
100
AcDbLine
 10
1030.999999999972
 20
1078.500000000005
 30
0.0
 11
1030.999999999972
 21
1084.500000000005
 31
0.0
  0
LINE
  5
19E
330
1F
100
AcDbEntity
  8
LAY-10
  6
CONTINUOUS
 62
     7
100
AcDbLine
 10
1018.999999999972
 20
1078.500000000005
 30
0.0
 11
1018.999999999972
 21
1084.500000000005
 31
0.0
  0
ARC
  5
19F
330
1F
100
AcDbEntity
  8
LAY-10
  6
CONTINUOUS
 62
     7
100
AcDbCircle
 10
1124.999999999982
 20
1061.499999999955
 30
0.0
 40
5.0
100
AcDbArc
 50
53.13010235409919
 51
126.8698976458951
  0
ARC
  5
1A0
330
1F
100
AcDbEntity
  8
LAY-10
  6
CONTINUOUS
 62
     7
100
AcDbCircle
 10
1124.999999999982
 20
1061.499999999955
 30
0.0
 40
4.0
100
AcDbArc
 50
48.59037789393874
 51
131.4096221060601
  0
ARC
  5
1A1
330
1F
100
AcDbEntity
  8
LAY-10
  6
CONTINUOUS
 62
     7
100
AcDbCircle
 10
1124.999999999982
 20
1061.499999999955
 30
0.0
 40
4.0
100
AcDbArc
 50
228.5903778939492
 51
311.4096221060509
  0
ARC
  5
1A2
330
1F
100
AcDbEntity
  8
LAY-10
  6
CONTINUOUS
 62
     7
100
AcDbCircle
 10
1124.999999999982
 20
1061.499999999955
 30
0.0
 40
5.0
100
AcDbArc
 50
233.1301023541234
 51
306.8698976458777
  0
LINE
  5
1A3
330
1F
100
AcDbEntity
  8
LAY-10
  6
CONTINUOUS
 62
     7
100
AcDbLine
 10
928.000000000005
 20
1065.499999999953
 30
0.0
 11
1121.999999999979
 21
1065.499999999953
 31
0.0
  0
LINE
  5
1A4
330
1F
100
AcDbEntity
  8
LAY-10
  6
CONTINUOUS
 62
     7
100
AcDbLine
 10
1121.999999999979
 20
1057.499999999956
 30
0.0
 11
928.0000000000036
 21
1057.499999999956
 31
0.0
  0
LINE
  5
1A5
330
1F
100
AcDbEntity
  8
LAY-10
  6
CONTINUOUS
 62
     7
100
AcDbLine
 10
226.9999999999709
 20
1097.499999999955
 30
0.0
 11
226.9999999999709
 21
1085.499999999955
 31
0.0
  0
LINE
  5
1A6
330
1F
100
AcDbEntity
  8
LAY-10
  6
CONTINUOUS
 62
     7
100
AcDbLine
 10
225.9999999999709
 20
1098.499999999955
 30
0.0
 11
226.9999999999709
 21
1097.499999999955
 31
0.0
  0
LINE
  5
1A7
330
1F
100
AcDbEntity
  8
LAY-10
  6
CONTINUOUS
 62
     7
100
AcDbLine
 10
226.9999999999709
 20
1077.499999999955
 30
0.0
 11
226.9999999999709
 21
1065.499999999955
 31
0.0
  0
LINE
  5
1A8
330
1F
100
AcDbEntity
  8
LAY-10
  6
CONTINUOUS
 62
     7
100
AcDbLine
 10
226.9999999999709
 20
1045.499999999955
 30
0.0
 11
226.9999999999709
 21
1057.499999999955
 31
0.0
  0
LINE
  5
1A9
330
1F
100
AcDbEntity
  8
LAY-10
  6
CONTINUOUS
 62
     7
100
AcDbLine
 10
226.9999999999709
 20
1025.500000000055
 30
0.0
 11
226.9999999999709
 21
1037.499999999855
 31
0.0
  0
LINE
  5
1AA
330
1F
100
AcDbEntity
  8
LAY-10
  6
CONTINUOUS
 62
     7
100
AcDbLine
 10
226.9999999999709
 20
1025.500000000055
 30
0.0
 11
225.9999999999709
 21
1024.500000000005
 31
0.0
  0
LINE
  5
1AB
330
1F
100
AcDbEntity
  8
LAY-10
  6
CONTINUOUS
 62
     7
100
AcDbLine
 10
321.9999999999586
 20
1057.499999999956
 30
0.0
 11
226.9999999999709
 21
1057.499999999956
 31
0.0
  0
LINE
  5
1AC
330
1F
100
AcDbEntity
  8
LAY-10
  6
CONTINUOUS
 62
     7
100
AcDbLine
 10
226.9999999999709
 20
1065.499999999953
 30
0.0
 11
321.9999999999577
 21
1065.499999999953
 31
0.0
  0
LINE
  5
1AD
330
1F
100
AcDbEntity
  8
LAY-10
  6
CONTINUOUS
 62
     7
100
AcDbLine
 10
1222.999999999971
 20
1045.499999999955
 30
0.0
 11
1222.999999999971
 21
1057.499999999955
 31
0.0
  0
LINE
  5
1AE
330
1F
100
AcDbEntity
  8
LAY-10
  6
CONTINUOUS
 62
     7
100
AcDbLine
 10
1222.999999999971
 20
1077.499999999955
 30
0.0
 11
1222.999999999971
 21
1065.499999999955
 31
0.0
  0
LINE
  5
1AF
330
1F
100
AcDbEntity
  8
LAY-10
  6
CONTINUOUS
 62
     7
100
AcDbLine
 10
1222.999999999971
 20
1097.499999999955
 30
0.0
 11
1222.999999999971
 21
1085.499999999955
 31
0.0
  0
LINE
  5
1B0
330
1F
100
AcDbEntity
  8
LAY-10
  6
CONTINUOUS
 62
     7
100
AcDbLine
 10
1222.999999999971
 20
1025.500000000055
 30
0.0
 11
1223.999999999971
 21
1024.500000000005
 31
0.0
  0
LINE
  5
1B1
330
1F
100
AcDbEntity
  8
LAY-10
  6
CONTINUOUS
 62
     7
100
AcDbLine
 10
1222.99999999997
 20
1025.500000000055
 30
0.0
 11
1222.99999999997
 21
1037.499999999855
 31
0.0
  0
LINE
  5
1B2
330
1F
100
AcDbEntity
  8
LAY-10
  6
CONTINUOUS
 62
     7
100
AcDbLine
 10
1222.99999999997
 20
1045.499999999955
 30
0.0
 11
1222.99999999997
 21
1057.499999999955
 31
0.0
  0
LINE
  5
1B3
330
1F
100
AcDbEntity
  8
LAY-10
  6
CONTINUOUS
 62
     7
100
AcDbLine
 10
1222.99999999997
 20
1077.499999999955
 30
0.0
 11
1222.99999999997
 21
1065.499999999955
 31
0.0
  0
LINE
  5
1B4
330
1F
100
AcDbEntity
  8
LAY-10
  6
CONTINUOUS
 62
     7
100
AcDbLine
 10
1222.999999999971
 20
1097.499999999955
 30
0.0
 11
1223.999999999971
 21
1098.499999999955
 31
0.0
  0
LINE
  5
1B5
330
1F
100
AcDbEntity
  8
LAY-10
  6
CONTINUOUS
 62
     7
100
AcDbLine
 10
1222.99999999997
 20
1097.499999999955
 30
0.0
 11
1222.99999999997
 21
1085.499999999955
 31
0.0
  0
LINE
  5
1B6
330
1F
100
AcDbEntity
  8
LAY-10
  6
CONTINUOUS
 62
     7
100
AcDbLine
 10
1127.999999999985
 20
1065.499999999953
 30
0.0
 11
1222.99999999997
 21
1065.499999999953
 31
0.0
  0
LINE
  5
1B7
330
1F
100
AcDbEntity
  8
LAY-10
  6
CONTINUOUS
 62
     7
100
AcDbLine
 10
1222.999999999971
 20
1057.499999999956
 30
0.0
 11
1127.999999999984
 21
1057.499999999956
 31
0.0
  0
LINE
  5
1B8
330
1F
100
AcDbEntity
  8
LAY-10
  6
CONTINUOUS
 62
     7
100
AcDbLine
 10
226.9999999999709
 20
1025.500000000053
 30
0.0
 11
1222.999999999971
 21
1025.500000000053
 31
0.0
  0
LINE
  5
1B9
330
1F
100
AcDbEntity
  8
LAY-10
  6
CONTINUOUS
 62
     7
100
AcDbLine
 10
226.9999999999709
 20
1045.499999999953
 30
0.0
 11
1222.999999999971
 21
1045.499999999953
 31
0.0
  0
LINE
  5
1BA
330
1F
100
AcDbEntity
  8
LAY-10
  6
CONTINUOUS
 62
     7
100
AcDbLine
 10
1222.999999999971
 20
1077.499999999956
 30
0.0
 11
226.9999999999709
 21
1077.499999999956
 31
0.0
  0
LINE
  5
1BB
330
1F
100
AcDbEntity
  8
LAY-10
  6
CONTINUOUS
 62
     7
100
AcDbLine
 10
1222.999999999971
 20
1097.499999999906
 30
0.0
 11
226.9999999999709
 21
1097.499999999906
 31
0.0
  0
LINE
  5
1BC
330
1F
100
AcDbEntity
  8
LAY-10
  6
CONTINUOUS
 62
     7
100
AcDbLine
 10
517.4999999999309
 20
1038.499999999905
 30
0.0
 11
517.4999999999309
 21
1044.499999999905
 31
0.0
  0
LINE
  5
1BD
330
1F
100
AcDbEntity
  8
LAY-10
  6
CONTINUOUS
 62
     7
100
AcDbLine
 10
532.4999999999309
 20
1038.499999999905
 30
0.0
 11
532.4999999999309
 21
1044.499999999905
 31
0.0
  0
LINE
  5
1BE
330
1F
100
AcDbEntity
  8
LAY-10
  6
CONTINUOUS
 62
     7
100
AcDbLine
 10
532.4999999999309
 20
1078.500000000005
 30
0.0
 11
532.4999999999309
 21
1084.500000000005
 31
0.0
  0
LINE
  5
1BF
330
1F
100
AcDbEntity
  8
LAY-10
  6
CONTINUOUS
 62
     7
100
AcDbLine
 10
517.4999999999309
 20
1078.500000000005
 30
0.0
 11
517.4999999999309
 21
1084.500000000005
 31
0.0
  0
LINE
  5
1C0
330
1F
100
AcDbEntity
  8
LAY-10
  6
CONTINUOUS
 62
     7
100
AcDbLine
 10
317.4999999999413
 20
1078.500000000005
 30
0.0
 11
317.4999999999413
 21
1084.500000000005
 31
0.0
  0
LINE
  5
1C1
330
1F
100
AcDbEntity
  8
LAY-10
  6
CONTINUOUS
 62
     7
100
AcDbLine
 10
332.4999999999413
 20
1078.500000000005
 30
0.0
 11
332.4999999999413
 21
1084.500000000005
 31
0.0
  0
LINE
  5
1C2
330
1F
100
AcDbEntity
  8
LAY-10
  6
CONTINUOUS
 62
     7
100
AcDbLine
 10
317.4999999999413
 20
1038.499999999905
 30
0.0
 11
317.4999999999413
 21
1044.499999999905
 31
0.0
  0
LINE
  5
1C3
330
1F
100
AcDbEntity
  8
LAY-10
  6
CONTINUOUS
 62
     7
100
AcDbLine
 10
332.4999999999413
 20
1038.499999999905
 30
0.0
 11
332.4999999999413
 21
1044.499999999905
 31
0.0
  0
LINE
  5
1C4
330
1F
100
AcDbEntity
  8
LAY-10
  6
CONTINUOUS
 62
     7
100
AcDbLine
 10
917.5000000000119
 20
1078.500000000005
 30
0.0
 11
917.5000000000119
 21
1084.500000000005
 31
0.0
  0
LINE
  5
1C5
330
1F
100
AcDbEntity
  8
LAY-10
  6
CONTINUOUS
 62
     7
100
AcDbLine
 10
932.5000000000119
 20
1078.500000000005
 30
0.0
 11
932.5000000000119
 21
1084.500000000005
 31
0.0
  0
LINE
  5
1C6
330
1F
100
AcDbEntity
  8
LAY-10
  6
CONTINUOUS
 62
     7
100
AcDbLine
 10
932.5000000000119
 20
1038.499999999905
 30
0.0
 11
932.5000000000119
 21
1044.499999999905
 31
0.0
  0
LINE
  5
1C7
330
1F
100
AcDbEntity
  8
LAY-10
  6
CONTINUOUS
 62
     7
100
AcDbLine
 10
917.5000000000119
 20
1038.499999999905
 30
0.0
 11
917.5000000000119
 21
1044.499999999905
 31
0.0
  0
LINE
  5
1C8
330
1F
100
AcDbEntity
  8
LAY-10
  6
CONTINUOUS
 62
     7
100
AcDbLine
 10
1132.500000000002
 20
1038.499999999905
 30
0.0
 11
1132.500000000002
 21
1044.499999999905
 31
0.0
  0
LINE
  5
1C9
330
1F
100
AcDbEntity
  8
LAY-10
  6
CONTINUOUS
 62
     7
100
AcDbLine
 10
1117.500000000002
 20
1038.499999999905
 30
0.0
 11
1117.500000000002
 21
1044.499999999905
 31
0.0
  0
LINE
  5
1CA
330
1F
100
AcDbEntity
  8
LAY-10
  6
CONTINUOUS
 62
     7
100
AcDbLine
 10
1117.500000000002
 20
1078.500000000005
 30
0.0
 11
1117.500000000002
 21
1084.500000000005
 31
0.0
  0
LINE
  5
1CB
330
1F
100
AcDbEntity
  8
LAY-10
  6
CONTINUOUS
 62
     7
100
AcDbLine
 10
1132.500000000002
 20
1078.500000000005
 30
0.0
 11
1132.500000000002
 21
1084.500000000005
 31
0.0
  0
LINE
  5
1CC
330
1F
100
AcDbEntity
  8
LAY-10
  6
CONTINUOUS
 62
     7
100
AcDbLine
 10
1223.999999999973
 20
1024.500000000003
 30
0.0
 11
225.9999999999691
 21
1024.500000000003
 31
0.0
  0
LINE
  5
1CD
330
1F
100
AcDbEntity
  8
LAY-10
  6
CONTINUOUS
 62
     7
100
AcDbLine
 10
1223.99999999997
 20
1098.499999999906
 30
0.0
 11
226.0000000000196
 21
1098.499999999906
 31
0.0
  0
LINE
  5
1CE
330
1F
100
AcDbEntity
  8
LAY-10
  6
CONTINUOUS
 62
     7
100
AcDbLine
 10
226.5999999999613
 20
1085.099999999927
 30
0.0
 11
238.399999999971
 21
1085.099999999927
 31
0.0
  0
LINE
  5
1CF
330
1F
100
AcDbEntity
  8
LAY-10
  6
CONTINUOUS
 62
     7
100
AcDbLine
 10
226.5999999999613
 20
1085.099999999927
 30
0.0
 11
226.5999999999613
 21
1077.899999999886
 31
0.0
  0
LINE
  5
1D0
330
1F
100
AcDbEntity
  8
LAY-10
  6
CONTINUOUS
 62
     7
100
AcDbLine
 10
226.5999999999913
 20
1077.899999999886
 30
0.0
 11
238.399999999971
 21
1077.899999999886
 31
0.0
  0
LINE
  5
1D1
330
1F
100
AcDbEntity
  8
LAY-10
  6
CONTINUOUS
 62
     7
100
AcDbLine
 10
238.399999999971
 20
1085.099999999927
 30
0.0
 11
238.399999999971
 21
1077.899999999886
 31
0.0
  0
LINE
  5
1D2
330
1F
100
AcDbEntity
  8
LAY-10
  6
CONTINUOUS
 62
     7
100
AcDbLine
 10
238.399999999971
 20
1085.099999999927
 30
0.0
 11
238.9999999999709
 21
1084.499999999906
 31
0.0
  0
LINE
  5
1D3
330
1F
100
AcDbEntity
  8
LAY-10
  6
CONTINUOUS
 62
     7
100
AcDbLine
 10
238.399999999991
 20
1077.899999999886
 30
0.0
 11
238.9999999999909
 21
1078.499999999906
 31
0.0
  0
LINE
  5
1D4
330
1F
100
AcDbEntity
  8
LAY-10
  6
CONTINUOUS
 62
     7
100
AcDbLine
 10
226.9999999999709
 20
1085.499999999955
 30
0.0
 11
226.5999999999422
 21
1085.099999999927
 31
0.0
  0
LINE
  5
1D5
330
1F
100
AcDbEntity
  8
LAY-10
  6
CONTINUOUS
 62
     7
100
AcDbLine
 10
226.9999999999709
 20
1077.499999999955
 30
0.0
 11
226.5999999999613
 21
1077.899999999985
 31
0.0
  0
LINE
  5
1D6
330
1F
100
AcDbEntity
  8
LAY-10
  6
CONTINUOUS
 62
     7
100
AcDbLine
 10
238.9999999998709
 20
1084.500000000005
 30
0.0
 11
238.9999999998709
 21
1078.500000000005
 31
0.0
  0
LINE
  5
1D7
330
1F
100
AcDbEntity
  8
LAY-10
  6
CONTINUOUS
 62
     7
100
AcDbLine
 10
226.5999999999613
 20
1065.099999999927
 30
0.0
 11
238.399999999971
 21
1065.099999999927
 31
0.0
  0
LINE
  5
1D8
330
1F
100
AcDbEntity
  8
LAY-10
  6
CONTINUOUS
 62
     7
100
AcDbLine
 10
226.5999999999613
 20
1065.099999999927
 30
0.0
 11
226.5999999999613
 21
1057.899999999886
 31
0.0
  0
LINE
  5
1D9
330
1F
100
AcDbEntity
  8
LAY-10
  6
CONTINUOUS
 62
     7
100
AcDbLine
 10
226.5999999999913
 20
1057.899999999886
 30
0.0
 11
238.399999999971
 21
1057.899999999886
 31
0.0
  0
LINE
  5
1DA
330
1F
100
AcDbEntity
  8
LAY-10
  6
CONTINUOUS
 62
     7
100
AcDbLine
 10
238.399999999971
 20
1065.099999999927
 30
0.0
 11
238.399999999971
 21
1057.899999999886
 31
0.0
  0
LINE
  5
1DB
330
1F
100
AcDbEntity
  8
LAY-10
  6
CONTINUOUS
 62
     7
100
AcDbLine
 10
238.399999999971
 20
1065.099999999927
 30
0.0
 11
238.9999999999709
 21
1064.499999999906
 31
0.0
  0
LINE
  5
1DC
330
1F
100
AcDbEntity
  8
LAY-10
  6
CONTINUOUS
 62
     7
100
AcDbLine
 10
238.399999999991
 20
1057.899999999886
 30
0.0
 11
238.9999999999909
 21
1058.499999999906
 31
0.0
  0
LINE
  5
1DD
330
1F
100
AcDbEntity
  8
LAY-10
  6
CONTINUOUS
 62
     7
100
AcDbLine
 10
226.9999999999709
 20
1065.499999999955
 30
0.0
 11
226.5999999998822
 21
1065.099999999927
 31
0.0
  0
LINE
  5
1DE
330
1F
100
AcDbEntity
  8
LAY-10
  6
CONTINUOUS
 62
     7
100
AcDbLine
 10
226.9999999999709
 20
1057.499999999955
 30
0.0
 11
226.5999999999613
 21
1057.899999999905
 31
0.0
  0
LINE
  5
1DF
330
1F
100
AcDbEntity
  8
LAY-10
  6
CONTINUOUS
 62
     7
100
AcDbLine
 10
322.3542486890647
 20
1064.500000000103
 30
0.0
 11
238.999999999774
 21
1064.500000000103
 31
0.0
  0
LINE
  5
1E0
330
1F
100
AcDbEntity
  8
LAY-10
  6
CONTINUOUS
 62
     7
100
AcDbLine
 10
322.3542486890651
 20
1058.499999999806
 30
0.0
 11
238.9999999998909
 21
1058.499999999806
 31
0.0
  0
LINE
  5
1E1
330
1F
100
AcDbEntity
  8
LAY-10
  6
CONTINUOUS
 62
     7
100
AcDbLine
 10
238.9999999997708
 20
1064.500000000105
 30
0.0
 11
238.9999999997708
 21
1058.499999999806
 31
0.0
  0
LINE
  5
1E2
330
1F
100
AcDbEntity
  8
LAY-10
  6
CONTINUOUS
 62
     7
100
AcDbLine
 10
226.5999999999613
 20
1045.099999999927
 30
0.0
 11
238.399999999971
 21
1045.099999999927
 31
0.0
  0
LINE
  5
1E3
330
1F
100
AcDbEntity
  8
LAY-10
  6
CONTINUOUS
 62
     7
100
AcDbLine
 10
226.5999999999613
 20
1045.099999999927
 30
0.0
 11
226.5999999999613
 21
1037.899999999886
 31
0.0
  0
LINE
  5
1E4
330
1F
100
AcDbEntity
  8
LAY-10
  6
CONTINUOUS
 62
     7
100
AcDbLine
 10
226.5999999999913
 20
1037.899999999886
 30
0.0
 11
238.399999999971
 21
1037.899999999886
 31
0.0
  0
LINE
  5
1E5
330
1F
100
AcDbEntity
  8
LAY-10
  6
CONTINUOUS
 62
     7
100
AcDbLine
 10
238.399999999971
 20
1045.099999999927
 30
0.0
 11
238.399999999971
 21
1037.899999999886
 31
0.0
  0
LINE
  5
1E6
330
1F
100
AcDbEntity
  8
LAY-10
  6
CONTINUOUS
 62
     7
100
AcDbLine
 10
238.399999999971
 20
1045.099999999927
 30
0.0
 11
238.9999999999709
 21
1044.499999999906
 31
0.0
  0
LINE
  5
1E7
330
1F
100
AcDbEntity
  8
LAY-10
  6
CONTINUOUS
 62
     7
100
AcDbLine
 10
238.399999999991
 20
1037.899999999886
 30
0.0
 11
238.9999999999909
 21
1038.499999999906
 31
0.0
  0
LINE
  5
1E8
330
1F
100
AcDbEntity
  8
LAY-10
  6
CONTINUOUS
 62
     7
100
AcDbLine
 10
226.9999999999709
 20
1045.499999999955
 30
0.0
 11
226.5999999999613
 21
1045.099999999925
 31
0.0
  0
LINE
  5
1E9
330
1F
100
AcDbEntity
  8
LAY-10
  6
CONTINUOUS
 62
     7
100
AcDbLine
 10
226.9999999999709
 20
1037.499999999855
 30
0.0
 11
226.5999999999595
 21
1037.899999999886
 31
0.0
  0
LINE
  5
1EA
330
1F
100
AcDbEntity
  8
LAY-10
  6
CONTINUOUS
 62
     7
100
AcDbLine
 10
238.9999999999709
 20
1044.499999999905
 30
0.0
 11
238.9999999999709
 21
1038.499999999907
 31
0.0
  0
LINE
  5
1EB
330
1F
100
AcDbEntity
  8
LAY-10
  6
CONTINUOUS
 62
     7
100
AcDbLine
 10
1223.399999999981
 20
1037.899999999883
 30
0.0
 11
1211.599999999971
 21
1037.899999999883
 31
0.0
  0
LINE
  5
1EC
330
1F
100
AcDbEntity
  8
LAY-10
  6
CONTINUOUS
 62
     7
100
AcDbLine
 10
1223.399999999981
 20
1037.899999999883
 30
0.0
 11
1223.399999999981
 21
1045.099999999924
 31
0.0
  0
LINE
  5
1ED
330
1F
100
AcDbEntity
  8
LAY-10
  6
CONTINUOUS
 62
     7
100
AcDbLine
 10
1223.399999999951
 20
1045.099999999923
 30
0.0
 11
1211.599999999971
 21
1045.099999999923
 31
0.0
  0
LINE
  5
1EE
330
1F
100
AcDbEntity
  8
LAY-10
  6
CONTINUOUS
 62
     7
100
AcDbLine
 10
1211.599999999971
 20
1037.899999999883
 30
0.0
 11
1211.599999999971
 21
1045.099999999923
 31
0.0
  0
LINE
  5
1EF
330
1F
100
AcDbEntity
  8
LAY-10
  6
CONTINUOUS
 62
     7
100
AcDbLine
 10
1211.599999999971
 20
1037.899999999883
 30
0.0
 11
1210.999999999971
 21
1038.499999999903
 31
0.0
  0
LINE
  5
1F0
330
1F
100
AcDbEntity
  8
LAY-10
  6
CONTINUOUS
 62
     7
100
AcDbLine
 10
1211.599999999951
 20
1045.099999999923
 30
0.0
 11
1210.999999999951
 21
1044.499999999903
 31
0.0
  0
LINE
  5
1F1
330
1F
100
AcDbEntity
  8
LAY-10
  6
CONTINUOUS
 62
     7
100
AcDbLine
 10
1223.399999999981
 20
1057.899999999983
 30
0.0
 11
1211.599999999971
 21
1057.899999999983
 31
0.0
  0
LINE
  5
1F2
330
1F
100
AcDbEntity
  8
LAY-10
  6
CONTINUOUS
 62
     7
100
AcDbLine
 10
1223.399999999981
 20
1057.899999999983
 30
0.0
 11
1223.399999999981
 21
1065.100000000024
 31
0.0
  0
LINE
  5
1F3
330
1F
100
AcDbEntity
  8
LAY-10
  6
CONTINUOUS
 62
     7
100
AcDbLine
 10
1223.399999999951
 20
1065.100000000023
 30
0.0
 11
1211.599999999971
 21
1065.100000000023
 31
0.0
  0
LINE
  5
1F4
330
1F
100
AcDbEntity
  8
LAY-10
  6
CONTINUOUS
 62
     7
100
AcDbLine
 10
1211.599999999971
 20
1057.899999999983
 30
0.0
 11
1211.599999999971
 21
1065.100000000023
 31
0.0
  0
LINE
  5
1F5
330
1F
100
AcDbEntity
  8
LAY-10
  6
CONTINUOUS
 62
     7
100
AcDbLine
 10
1211.599999999971
 20
1057.899999999983
 30
0.0
 11
1210.999999999971
 21
1058.500000000003
 31
0.0
  0
LINE
  5
1F6
330
1F
100
AcDbEntity
  8
LAY-10
  6
CONTINUOUS
 62
     7
100
AcDbLine
 10
1211.599999999951
 20
1065.100000000023
 30
0.0
 11
1210.999999999951
 21
1064.500000000003
 31
0.0
  0
LINE
  5
1F7
330
1F
100
AcDbEntity
  8
LAY-10
  6
CONTINUOUS
 62
     7
100
AcDbLine
 10
1223.399999999981
 20
1077.899999999983
 30
0.0
 11
1211.599999999971
 21
1077.899999999983
 31
0.0
  0
LINE
  5
1F8
330
1F
100
AcDbEntity
  8
LAY-10
  6
CONTINUOUS
 62
     7
100
AcDbLine
 10
1223.399999999981
 20
1077.899999999983
 30
0.0
 11
1223.399999999981
 21
1085.100000000024
 31
0.0
  0
LINE
  5
1F9
330
1F
100
AcDbEntity
  8
LAY-10
  6
CONTINUOUS
 62
     7
100
AcDbLine
 10
1223.399999999951
 20
1085.100000000023
 30
0.0
 11
1211.599999999971
 21
1085.100000000023
 31
0.0
  0
LINE
  5
1FA
330
1F
100
AcDbEntity
  8
LAY-10
  6
CONTINUOUS
 62
     7
100
AcDbLine
 10
1211.599999999971
 20
1077.899999999983
 30
0.0
 11
1211.599999999971
 21
1085.100000000023
 31
0.0
  0
LINE
  5
1FB
330
1F
100
AcDbEntity
  8
LAY-10
  6
CONTINUOUS
 62
     7
100
AcDbLine
 10
1211.599999999971
 20
1077.899999999983
 30
0.0
 11
1210.999999999971
 21
1078.500000000003
 31
0.0
  0
LINE
  5
1FC
330
1F
100
AcDbEntity
  8
LAY-10
  6
CONTINUOUS
 62
     7
100
AcDbLine
 10
1211.599999999951
 20
1085.100000000023
 30
0.0
 11
1210.999999999951
 21
1084.500000000003
 31
0.0
  0
LINE
  5
1FD
330
1F
100
AcDbEntity
  8
LAY-10
  6
CONTINUOUS
 62
     7
100
AcDbLine
 10
1222.999999999971
 20
1085.499999999955
 30
0.0
 11
1223.399999999981
 21
1085.099999999945
 31
0.0
  0
LINE
  5
1FE
330
1F
100
AcDbEntity
  8
LAY-10
  6
CONTINUOUS
 62
     7
100
AcDbLine
 10
1222.999999999971
 20
1077.499999999955
 30
0.0
 11
1223.399999999981
 21
1077.899999999985
 31
0.0
  0
LINE
  5
1FF
330
1F
100
AcDbEntity
  8
LAY-10
  6
CONTINUOUS
 62
     7
100
AcDbLine
 10
1222.999999999971
 20
1057.499999999955
 30
0.0
 11
1223.399999999999
 21
1057.899999999983
 31
0.0
  0
LINE
  5
200
330
1F
100
AcDbEntity
  8
LAY-10
  6
CONTINUOUS
 62
     7
100
AcDbLine
 10
1222.999999999971
 20
1065.499999999955
 30
0.0
 11
1223.399999999981
 21
1065.100000000005
 31
0.0
  0
LINE
  5
201
330
1F
100
AcDbEntity
  8
LAY-10
  6
CONTINUOUS
 62
     7
100
AcDbLine
 10
1211.000000000167
 20
1058.499999999806
 30
0.0
 11
1127.645751310878
 21
1058.499999999806
 31
0.0
  0
LINE
  5
202
330
1F
100
AcDbEntity
  8
LAY-10
  6
CONTINUOUS
 62
     7
100
AcDbLine
 10
1211.000000000051
 20
1064.500000000103
 30
0.0
 11
1127.645751310878
 21
1064.500000000103
 31
0.0
  0
LINE
  5
203
330
1F
100
AcDbEntity
  8
LAY-10
  6
CONTINUOUS
 62
     7
100
AcDbLine
 10
1222.999999999971
 20
1037.499999999855
 30
0.0
 11
1223.399999999981
 21
1037.899999999885
 31
0.0
  0
LINE
  5
204
330
1F
100
AcDbEntity
  8
LAY-10
  6
CONTINUOUS
 62
     7
100
AcDbLine
 10
1222.999999999971
 20
1045.499999999955
 30
0.0
 11
1223.399999999983
 21
1045.099999999923
 31
0.0
  0
LINE
  5
205
330
1F
100
AcDbEntity
  8
LAY-10
  6
CONTINUOUS
 62
     7
100
AcDbLine
 10
1210.999999999951
 20
1084.500000000005
 30
0.0
 11
1210.999999999951
 21
1078.500000000005
 31
0.0
  0
LINE
  5
206
330
1F
100
AcDbEntity
  8
LAY-10
  6
CONTINUOUS
 62
     7
100
AcDbLine
 10
1210.999999999951
 20
1064.500000000005
 30
0.0
 11
1210.999999999951
 21
1058.499999999806
 31
0.0
  0
LINE
  5
207
330
1F
100
AcDbEntity
  8
LAY-10
  6
CONTINUOUS
 62
     7
100
AcDbLine
 10
1210.999999999951
 20
1044.499999999905
 30
0.0
 11
1210.999999999951
 21
1038.499999999907
 31
0.0
  0
LINE
  5
208
330
1F
100
AcDbEntity
  8
LAY-10
  6
CONTINUOUS
 62
     7
100
AcDbLine
 10
630.9999999999709
 20
1078.500000000005
 30
0.0
 11
630.9999999999709
 21
1084.500000000005
 31
0.0
  0
LINE
  5
209
330
1F
100
AcDbEntity
  8
LAY-10
  6
CONTINUOUS
 62
     7
100
AcDbLine
 10
618.9999999999709
 20
1058.500000000105
 30
0.0
 11
618.9999999999709
 21
1064.500000000105
 31
0.0
  0
LINE
  5
20A
330
1F
100
AcDbEntity
  8
LAY-10
  6
CONTINUOUS
 62
     7
100
AcDbLine
 10
830.9999999999709
 20
1078.500000000005
 30
0.0
 11
830.9999999999709
 21
1084.500000000005
 31
0.0
  0
LINE
  5
20B
330
1F
100
AcDbEntity
  8
LAY-10
  6
CONTINUOUS
 62
     7
100
AcDbLine
 10
818.9999999999709
 20
1058.500000000105
 30
0.0
 11
818.9999999999709
 21
1064.500000000105
 31
0.0
  0
LINE
  5
20C
330
1F
100
AcDbEntity
  8
LAY-10
  6
CONTINUOUS
 62
     7
100
AcDbLine
 10
1030.999999999971
 20
1078.500000000005
 30
0.0
 11
1030.999999999971
 21
1084.500000000005
 31
0.0
  0
LINE
  5
20D
330
1F
100
AcDbEntity
  8
LAY-10
  6
CONTINUOUS
 62
     7
100
AcDbLine
 10
1018.999999999971
 20
1058.500000000105
 30
0.0
 11
1018.999999999971
 21
1064.500000000105
 31
0.0
  0
LINE
  5
20E
330
1F
100
AcDbEntity
  8
LAY-10
  6
CONTINUOUS
 62
     7
100
AcDbLine
 10
225.9999999999714
 20
1098.499999999905
 30
0.0
 11
225.9999999999714
 21
1024.500000000003
 31
0.0
  0
LINE
  5
20F
330
1F
100
AcDbEntity
  8
LAY-10
  6
CONTINUOUS
 62
     7
100
AcDbLine
 10
1223.99999999997
 20
1098.499999999905
 30
0.0
 11
1223.99999999997
 21
1024.500000000003
 31
0.0
  0
LINE
  5
210
330
1F
100
AcDbEntity
  8
LAY-10
  6
CONTINUOUS
 62
     7
100
AcDbLine
 10
1210.999999999951
 20
1078.500000000005
 30
0.0
 11
239.0000000000892
 21
1078.500000000005
 31
0.0
  0
LINE
  5
211
330
1F
100
AcDbEntity
  8
LAY-10
  6
CONTINUOUS
 62
     7
100
AcDbLine
 10
522.3542486890442
 20
1064.500000000103
 30
0.0
 11
327.6457513108575
 21
1064.500000000103
 31
0.0
  0
LINE
  5
212
330
1F
100
AcDbEntity
  8
LAY-10
  6
CONTINUOUS
 62
     7
100
AcDbLine
 10
522.3542486890447
 20
1058.499999999806
 30
0.0
 11
327.6457513108567
 21
1058.499999999806
 31
0.0
  0
LINE
  5
213
330
1F
100
AcDbEntity
  8
LAY-10
  6
CONTINUOUS
 62
     7
100
AcDbLine
 10
1122.354248689086
 20
1064.500000000103
 30
0.0
 11
927.645751310898
 21
1064.500000000103
 31
0.0
  0
LINE
  5
214
330
1F
100
AcDbEntity
  8
LAY-10
  6
CONTINUOUS
 62
     7
100
AcDbLine
 10
1122.354248689086
 20
1058.499999999806
 30
0.0
 11
927.645751310898
 21
1058.499999999806
 31
0.0
  0
LINE
  5
215
330
1F
100
AcDbEntity
  8
LAY-10
  6
CONTINUOUS
 62
     7
100
AcDbLine
 10
1210.999999999951
 20
1044.499999999905
 30
0.0
 11
238.9999999999727
 21
1044.499999999905
 31
0.0
  0
LINE
  5
216
330
1F
100
AcDbEntity
  8
LAY-10
  6
CONTINUOUS
 62
     7
100
AcDbLine
 10
727.6457513112059
 20
1064.499999999804
 30
0.0
 11
922.3542486887673
 21
1064.499999999804
 31
0.0
  0
LINE
  5
217
330
1F
100
AcDbEntity
  8
LAY-10
  6
CONTINUOUS
 62
     7
100
AcDbLine
 10
727.6457513108656
 20
1058.499999999804
 30
0.0
 11
922.3542486891074
 21
1058.499999999804
 31
0.0
  0
LINE
  5
218
330
1F
100
AcDbEntity
  8
LAY-10
  6
CONTINUOUS
 62
     7
100
AcDbLine
 10
722.3542486890747
 20
1064.500000000103
 30
0.0
 11
527.6457513108371
 21
1064.500000000103
 31
0.0
  0
LINE
  5
219
330
1F
100
AcDbEntity
  8
LAY-10
  6
CONTINUOUS
 62
     7
100
AcDbLine
 10
722.3542486890751
 20
1058.499999999806
 30
0.0
 11
527.6457513108371
 21
1058.499999999806
 31
0.0
  0
CIRCLE
  5
21A
330
1F
100
AcDbEntity
  8
LAY-10
  6
CONTINUOUS
 62
     7
100
AcDbCircle
 10
1125.000000000212
 20
1083.999999999944
 30
0.0
 40
2.3
  0
CIRCLE
  5
21B
330
1F
100
AcDbEntity
  8
LAY-10
  6
CONTINUOUS
 62
     7
100
AcDbCircle
 10
1125.000000000212
 20
1038.999999999966
 30
0.0
 40
2.3
  0
CIRCLE
  5
21C
330
1F
100
AcDbEntity
  8
LAY-10
  6
CONTINUOUS
 62
     7
100
AcDbCircle
 10
925.0000000004625
 20
1083.999999999944
 30
0.0
 40
2.3
  0
CIRCLE
  5
21D
330
1F
100
AcDbEntity
  8
LAY-10
  6
CONTINUOUS
 62
     7
100
AcDbCircle
 10
925.0000000004625
 20
1038.999999999966
 30
0.0
 40
2.3
  0
CIRCLE
  5
21E
330
1F
100
AcDbEntity
  8
LAY-10
  6
CONTINUOUS
 62
     7
100
AcDbCircle
 10
725.0000000002024
 20
1083.999999999944
 30
0.0
 40
2.3
  0
CIRCLE
  5
21F
330
1F
100
AcDbEntity
  8
LAY-10
  6
CONTINUOUS
 62
     7
100
AcDbCircle
 10
725.0000000002024
 20
1038.999999999966
 30
0.0
 40
2.3
  0
CIRCLE
  5
220
330
1F
100
AcDbEntity
  8
LAY-10
  6
CONTINUOUS
 62
     7
100
AcDbCircle
 10
525.0000000001723
 20
1083.999999999944
 30
0.0
 40
2.3
  0
CIRCLE
  5
221
330
1F
100
AcDbEntity
  8
LAY-10
  6
CONTINUOUS
 62
     7
100
AcDbCircle
 10
525.0000000001723
 20
1038.999999999966
 30
0.0
 40
2.3
  0
CIRCLE
  5
222
330
1F
100
AcDbEntity
  8
LAY-10
  6
CONTINUOUS
 62
     7
100
AcDbCircle
 10
325.0000000001923
 20
1083.999999999944
 30
0.0
 40
2.3
  0
CIRCLE
  5
223
330
1F
100
AcDbEntity
  8
LAY-10
  6
CONTINUOUS
 62
     7
100
AcDbCircle
 10
325.0000000001923
 20
1038.999999999966
 30
0.0
 40
2.3
  0
LINE
  5
224
330
1F
100
AcDbEntity
  8
LAY-10
  6
CONTINUOUS
 62
     7
100
AcDbLine
 10
226.9999999999709
 20
1085.500000000003
 30
0.0
 11
323.256440422826
 21
1085.500000000003
 31
0.0
  0
LINE
  5
225
330
1F
100
AcDbEntity
  8
LAY-10
  6
CONTINUOUS
 62
     7
100
AcDbLine
 10
322.7550055681409
 20
1084.500000000003
 30
0.0
 11
238.9999999998745
 21
1084.500000000003
 31
0.0
  0
LINE
  5
226
330
1F
100
AcDbEntity
  8
LAY-10
  6
CONTINUOUS
 62
     7
100
AcDbLine
 10
323.2564404228706
 20
1037.499999999856
 30
0.0
 11
226.9999999999709
 21
1037.499999999856
 31
0.0
  0
LINE
  5
227
330
1F
100
AcDbEntity
  8
LAY-10
  6
CONTINUOUS
 62
     7
100
AcDbLine
 10
322.7550055681413
 20
1038.499999999907
 30
0.0
 11
238.9999999999918
 21
1038.499999999907
 31
0.0
  0
LINE
  5
228
330
1F
100
AcDbEntity
  8
LAY-10
  6
CONTINUOUS
 62
     7
100
AcDbLine
 10
326.7435595775582
 20
1085.500000000003
 30
0.0
 11
523.256440422806
 21
1085.500000000003
 31
0.0
  0
LINE
  5
229
330
1F
100
AcDbEntity
  8
LAY-10
  6
CONTINUOUS
 62
     7
100
AcDbLine
 10
522.7550055681209
 20
1084.500000000003
 30
0.0
 11
327.2449944322433
 21
1084.500000000003
 31
0.0
  0
LINE
  5
22A
330
1F
100
AcDbEntity
  8
LAY-10
  6
CONTINUOUS
 62
     7
100
AcDbLine
 10
523.2564404228506
 20
1037.499999999856
 30
0.0
 11
326.7435595775141
 21
1037.499999999856
 31
0.0
  0
LINE
  5
22B
330
1F
100
AcDbEntity
  8
LAY-10
  6
CONTINUOUS
 62
     7
100
AcDbLine
 10
522.7550055681213
 20
1038.499999999907
 30
0.0
 11
327.2449944322433
 21
1038.499999999907
 31
0.0
  0
LINE
  5
22C
330
1F
100
AcDbEntity
  8
LAY-10
  6
CONTINUOUS
 62
     7
100
AcDbLine
 10
723.2564404228806
 20
1037.499999999856
 30
0.0
 11
526.7435595774941
 21
1037.499999999856
 31
0.0
  0
LINE
  5
22D
330
1F
100
AcDbEntity
  8
LAY-10
  6
CONTINUOUS
 62
     7
100
AcDbLine
 10
722.7550055681513
 20
1038.499999999907
 30
0.0
 11
527.2449944322234
 21
1038.499999999907
 31
0.0
  0
LINE
  5
22E
330
1F
100
AcDbEntity
  8
LAY-10
  6
CONTINUOUS
 62
     7
100
AcDbLine
 10
526.7435595775382
 20
1085.500000000003
 30
0.0
 11
723.2564404228365
 21
1085.500000000003
 31
0.0
  0
LINE
  5
22F
330
1F
100
AcDbEntity
  8
LAY-10
  6
CONTINUOUS
 62
     7
100
AcDbLine
 10
722.7550055681513
 20
1084.500000000003
 30
0.0
 11
527.2449944322234
 21
1084.500000000003
 31
0.0
  0
LINE
  5
230
330
1F
100
AcDbEntity
  8
LAY-10
  6
CONTINUOUS
 62
     7
100
AcDbLine
 10
726.7435595775682
 20
1085.500000000003
 30
0.0
 11
923.2564404230961
 21
1085.500000000003
 31
0.0
  0
LINE
  5
231
330
1F
100
AcDbEntity
  8
LAY-10
  6
CONTINUOUS
 62
     7
100
AcDbLine
 10
922.7550055684111
 20
1084.500000000003
 30
0.0
 11
727.2449944322534
 21
1084.500000000003
 31
0.0
  0
LINE
  5
232
330
1F
100
AcDbEntity
  8
LAY-10
  6
CONTINUOUS
 62
     7
100
AcDbLine
 10
923.2564404231408
 20
1037.499999999856
 30
0.0
 11
726.743559577524
 21
1037.499999999856
 31
0.0
  0
LINE
  5
233
330
1F
100
AcDbEntity
  8
LAY-10
  6
CONTINUOUS
 62
     7
100
AcDbLine
 10
922.7550055684111
 20
1038.499999999907
 30
0.0
 11
727.2449944322534
 21
1038.499999999907
 31
0.0
  0
LINE
  5
234
330
1F
100
AcDbEntity
  8
LAY-10
  6
CONTINUOUS
 62
     7
100
AcDbLine
 10
1222.999999999971
 20
1037.499999999856
 30
0.0
 11
1126.743559577534
 21
1037.499999999856
 31
0.0
  0
LINE
  5
235
330
1F
100
AcDbEntity
  8
LAY-10
  6
CONTINUOUS
 62
     7
100
AcDbLine
 10
1123.256440422891
 20
1037.499999999856
 30
0.0
 11
926.7435595777843
 21
1037.499999999856
 31
0.0
  0
LINE
  5
236
330
1F
100
AcDbEntity
  8
LAY-10
  6
CONTINUOUS
 62
     7
100
AcDbLine
 10
1122.755005568161
 20
1038.499999999907
 30
0.0
 11
927.2449944325135
 21
1038.499999999907
 31
0.0
  0
LINE
  5
237
330
1F
100
AcDbEntity
  8
LAY-10
  6
CONTINUOUS
 62
     7
100
AcDbLine
 10
1210.999999999951
 20
1038.499999999907
 30
0.0
 11
1127.244994432263
 21
1038.499999999907
 31
0.0
  0
LINE
  5
238
330
1F
100
AcDbEntity
  8
LAY-10
  6
CONTINUOUS
 62
     7
100
AcDbLine
 10
1126.743559577578
 20
1085.500000000003
 30
0.0
 11
1222.999999999971
 21
1085.500000000003
 31
0.0
  0
LINE
  5
239
330
1F
100
AcDbEntity
  8
LAY-10
  6
CONTINUOUS
 62
     7
100
AcDbLine
 10
926.7435595778284
 20
1085.500000000003
 30
0.0
 11
1123.256440422846
 21
1085.500000000003
 31
0.0
  0
LINE
  5
23A
330
1F
100
AcDbEntity
  8
LAY-10
  6
CONTINUOUS
 62
     7
100
AcDbLine
 10
1122.755005568161
 20
1084.500000000003
 30
0.0
 11
927.2449944325135
 21
1084.500000000003
 31
0.0
  0
LINE
  5
23B
330
1F
100
AcDbEntity
  8
LAY-10
  6
CONTINUOUS
 62
     7
100
AcDbLine
 10
1210.999999999951
 20
1084.500000000003
 30
0.0
 11
1127.244994432263
 21
1084.500000000003
 31
0.0
  0
LINE
  5
23C
330
1F
100
AcDbEntity
  8
LAY-10
  6
CONTINUOUS
 62
     7
100
AcDbLine
 10
1224.999999999955
 20
1067.5
 30
0.0
 11
1223.999999999995
 21
1067.5
 31
0.0
  0
LINE
  5
23D
330
1F
100
AcDbEntity
  8
LAY-10
  6
HIDDEN
 62
     7
100
AcDbLine
 10
225.999999999995
 20
1067.5
 30
0.0
 11
1223.999999999995
 21
1067.5
 31
0.0
  0
LINE
  5
23E
330
1F
100
AcDbEntity
  8
LAY-10
  6
HIDDEN
 62
     7
100
AcDbLine
 10
1140.0
 20
936.49999999998
 30
0.0
 11
1140.0
 21
1067.5
 31
0.0
  0
LINE
  5
23F
330
1F
100
AcDbEntity
  8
LAY-10
  6
HIDDEN
 62
     7
100
AcDbLine
 10
740.0
 20
936.49999999998
 30
0.0
 11
740.0
 21
1067.5
 31
0.0
  0
LINE
  5
240
330
1F
100
AcDbEntity
  8
LAY-10
  6
HIDDEN
 62
     7
100
AcDbLine
 10
340.0
 20
936.49999999998
 30
0.0
 11
340.0
 21
1067.5
 31
0.0
  0
LINE
  5
241
330
1F
100
AcDbEntity
  8
LAY-10
  6
CONTINUOUS
 62
     7
100
AcDbLine
 10
1117.5
 20
1064.500000000103
 30
0.0
 11
1117.5
 21
1058.499999999806
 31
0.0
  0
LINE
  5
242
330
1F
100
AcDbEntity
  8
LAY-10
  6
CONTINUOUS
 62
     7
100
AcDbLine
 10
1132.5
 20
1058.4999999998
 30
0.0
 11
1132.5
 21
1064.5000000001
 31
0.0
  0
ARC
  5
243
330
1F
100
AcDbEntity
  8
LAY-10
  6
CONTINUOUS
 62
     7
100
AcDbCircle
 10
1125.0
 20
1061.5
 30
0.0
 40
5.25
100
AcDbArc
 50
325.150095418378
 51
34.84990458041988
  0
ARC
  5
244
330
1F
100
AcDbEntity
  8
LAY-10
  6
CONTINUOUS
 62
     7
100
AcDbCircle
 10
1125.0
 20
1061.5
 30
0.0
 40
5.25
100
AcDbArc
 50
145.1500954195802
 51
214.8499045816219
  0
LINE
  5
245
330
1F
100
AcDbEntity
  8
LAY-10
  6
CONTINUOUS
 62
     7
100
AcDbLine
 10
332.49999999996
 20
1058.4999999998
 30
0.0
 11
332.49999999996
 21
1064.5000000001
 31
0.0
  0
ARC
  5
246
330
1F
100
AcDbEntity
  8
LAY-10
  6
CONTINUOUS
 62
     7
100
AcDbCircle
 10
324.99999999996
 20
1061.5
 30
0.0
 40
5.25
100
AcDbArc
 50
325.150095418378
 51
34.84990458041988
  0
ARC
  5
247
330
1F
100
AcDbEntity
  8
LAY-10
  6
CONTINUOUS
 62
     7
100
AcDbCircle
 10
324.99999999996
 20
1061.5
 30
0.0
 40
5.25
100
AcDbArc
 50
145.1500954195802
 51
214.8499045816219
  0
LINE
  5
248
330
1F
100
AcDbEntity
  8
LAY-10
  6
CONTINUOUS
 62
     7
100
AcDbLine
 10
317.49999999996
 20
1064.500000000103
 30
0.0
 11
317.49999999996
 21
1058.499999999806
 31
0.0
  0
ARC
  5
249
330
1F
100
AcDbEntity
  8
LAY-10
  6
CONTINUOUS
 62
     7
100
AcDbCircle
 10
1486.999999999982
 20
1106.299999999982
 30
0.0
 40
2.0
100
AcDbArc
 50
90.00000000000001
 51
180.0
  0
ARC
  5
24A
330
1F
100
AcDbEntity
  8
LAY-10
  6
CONTINUOUS
 62
     7
100
AcDbCircle
 10
1487.799999999982
 20
1105.499999999982
 30
0.0
 40
6.000000000000001
100
AcDbArc
 50
90.00000000000001
 51
180.0
  0
LINE
  5
24B
330
1F
100
AcDbEntity
  8
LAY-10
  6
CONTINUOUS
 62
     7
100
AcDbLine
 10
1375.000000000005
 20
1100.5
 30
0.0
 11
1481.799999999982
 21
1100.49999999999
 31
0.0
  0
LINE
  5
24C
330
1F
100
AcDbEntity
  8
LAY-10
  6
CONTINUOUS
 62
     7
100
AcDbLine
 10
1375.000000000001
 20
1104.999999999999
 30
0.0
 11
1481.799999999982
 21
1104.99999999999
 31
0.0
  0
LINE
  5
24D
330
1F
100
AcDbEntity
  8
LAY-10
  6
CONTINUOUS
 62
     7
100
AcDbLine
 10
1525.000000000005
 20
1111.500000000022
 30
0.0
 11
1525.000000000005
 21
1108.300000000022
 31
0.0
  0
LINE
  5
24E
330
1F
100
AcDbEntity
  8
LAY-10
  6
CONTINUOUS
 62
     7
100
AcDbLine
 10
1486.999999999982
 20
1108.299999999982
 30
0.0
 11
1501.300000000005
 21
1108.299999999982
 31
0.0
  0
LINE
  5
24F
330
1F
100
AcDbEntity
  8
LAY-10
  6
CONTINUOUS
 62
     7
100
AcDbLine
 10
1508.300000000003
 20
1108.299999999982
 30
0.0
 11
1525.000000000005
 21
1108.299999999982
 31
0.0
  0
LINE
  5
250
330
1F
100
AcDbEntity
  8
LAY-10
  6
CONTINUOUS
 62
     7
100
AcDbLine
 10
1508.300000000003
 20
1111.499999999982
 30
0.0
 11
1525.000000000005
 21
1111.499999999982
 31
0.0
  0
LINE
  5
251
330
1F
100
AcDbEntity
  8
LAY-10
  6
CONTINUOUS
 62
     7
100
AcDbLine
 10
1487.799999999982
 20
1111.499999999982
 30
0.0
 11
1501.300000000005
 21
1111.499999999982
 31
0.0
  0
LINE
  5
252
330
1F
100
AcDbEntity
  8
LAY-10
  6
CONTINUOUS
 62
     7
100
AcDbLine
 10
1503.799999999954
 20
1105.00000000002
 30
0.0
 11
1505.800000000054
 21
1105.00000000002
 31
0.0
  0
LINE
  5
253
330
1F
100
AcDbEntity
  8
LAY-10
  6
CONTINUOUS
 62
     7
100
AcDbLine
 10
1500.800000000003
 20
1117.000000000024
 30
0.0
 11
1508.800000000003
 21
1117.000000000024
 31
0.0
  0
LINE
  5
254
330
1F
100
AcDbEntity
  8
LAY-10
  6
CONTINUOUS
 62
     7
100
AcDbLine
 10
1503.800000000003
 20
1105.000000000024
 30
0.0
 11
1500.800000000005
 21
1108.000000000023
 31
0.0
  0
LINE
  5
255
330
1F
100
AcDbEntity
  8
LAY-10
  6
CONTINUOUS
 62
     7
100
AcDbLine
 10
1500.800000000005
 20
1108.000000000023
 30
0.0
 11
1500.800000000005
 21
1117.000000000024
 31
0.0
  0
LINE
  5
256
330
1F
100
AcDbEntity
  8
LAY-10
  6
CONTINUOUS
 62
     7
100
AcDbLine
 10
1501.300000000005
 20
1107.500000000023
 30
0.0
 11
1501.300000000005
 21
1117.000000000024
 31
0.0
  0
LINE
  5
257
330
1F
100
AcDbEntity
  8
LAY-10
  6
CONTINUOUS
 62
     7
100
AcDbLine
 10
1505.800000000005
 20
1105.000000000024
 30
0.0
 11
1508.800000000003
 21
1108.000000000023
 31
0.0
  0
LINE
  5
258
330
1F
100
AcDbEntity
  8
LAY-10
  6
CONTINUOUS
 62
     7
100
AcDbLine
 10
1508.800000000003
 20
1108.000000000023
 30
0.0
 11
1508.800000000003
 21
1117.000000000024
 31
0.0
  0
LINE
  5
259
330
1F
100
AcDbEntity
  8
LAY-10
  6
CONTINUOUS
 62
     7
100
AcDbLine
 10
1508.300000000003
 20
1107.500000000023
 30
0.0
 11
1508.300000000003
 21
1117.000000000024
 31
0.0
  0
ARC
  5
25A
330
1F
100
AcDbEntity
  8
LAY-10
  6
CONTINUOUS
 62
     7
100
AcDbCircle
 10
1486.999999999982
 20
1072.699999999982
 30
0.0
 40
2.0
100
AcDbArc
 50
180.0
 51
270.0
  0
ARC
  5
25B
330
1F
100
AcDbEntity
  8
LAY-10
  6
CONTINUOUS
 62
     7
100
AcDbCircle
 10
1487.799999999982
 20
1073.499999999982
 30
0.0
 40
6.000000000000002
100
AcDbArc
 50
180.0
 51
270.0
  0
LINE
  5
25C
330
1F
100
AcDbEntity
  8
LAY-10
  6
CONTINUOUS
 62
     7
100
AcDbLine
 10
1481.799999999982
 20
1105.499999999982
 30
0.0
 11
1481.799999999982
 21
1073.499999999982
 31
0.0
  0
LINE
  5
25D
330
1F
100
AcDbEntity
  8
LAY-10
  6
CONTINUOUS
 62
     7
100
AcDbLine
 10
1485.000000000005
 20
1072.700000000001
 30
0.0
 11
1485.000000000005
 21
1106.300000000001
 31
0.0
  0
LINE
  5
25E
330
1F
100
AcDbEntity
  8
LAY-10
  6
CONTINUOUS
 62
     7
100
AcDbLine
 10
1524.999999999981
 20
1067.499999999982
 30
0.0
 11
1524.999999999981
 21
1070.699999999982
 31
0.0
  0
LINE
  5
25F
330
1F
100
AcDbEntity
  8
LAY-10
  6
CONTINUOUS
 62
     7
100
AcDbLine
 10
1486.999999999982
 20
1070.699999999982
 30
0.0
 11
1524.999999999981
 21
1070.699999999982
 31
0.0
  0
LINE
  5
260
330
1F
100
AcDbEntity
  8
LAY-10
  6
CONTINUOUS
 62
     7
100
AcDbLine
 10
1484.999999999982
 20
1067.499999999982
 30
0.0
 11
1524.999999999981
 21
1067.499999999982
 31
0.0
  0
LINE
  5
261
330
1F
100
AcDbEntity
  8
LAY-10
  6
CONTINUOUS
 62
     7
100
AcDbLine
 10
1524.999999999982
 20
936.4999999999827
 30
0.0
 11
1484.999999999982
 21
936.4999999999827
 31
0.0
  0
LINE
  5
262
330
1F
100
AcDbEntity
  8
LAY-10
  6
CONTINUOUS
 62
     7
100
AcDbLine
 10
1524.999999999982
 20
1067.5
 30
0.0
 11
1524.999999999982
 21
936.5000000000005
 31
0.0
  0
LINE
  5
263
330
1F
100
AcDbEntity
  8
LAY-10
  6
CONTINUOUS
 62
     7
100
AcDbLine
 10
1524.99999999997
 20
889.9999999999818
 30
0.0
 11
1524.99999999997
 21
885.499999999982
 31
0.0
  0
LINE
  5
264
330
1F
100
AcDbEntity
  8
LAY-10
  6
CONTINUOUS
 62
     7
100
AcDbLine
 10
1485.499999999983
 20
885.4999999999843
 30
0.0
 11
1524.999999999969
 21
885.4999999999843
 31
0.0
  0
ARC
  5
265
330
1F
100
AcDbEntity
  8
LAY-10
  6
CONTINUOUS
 62
     7
100
AcDbCircle
 10
1485.999999999982
 20
890.999999999985
 30
0.0
 40
1.0
100
AcDbArc
 50
180.0000000000001
 51
270.0
  0
LINE
  5
266
330
1F
100
AcDbEntity
  8
LAY-10
  6
CONTINUOUS
 62
     7
100
AcDbLine
 10
1485.999999999982
 20
889.9999999999848
 30
0.0
 11
1524.999999999969
 21
889.9999999999848
 31
0.0
  0
ARC
  5
267
330
1F
100
AcDbEntity
  8
LAY-10
  6
CONTINUOUS
 62
     7
100
AcDbCircle
 10
1485.499999999983
 20
890.4999999999843
 30
0.0
 40
5.0
100
AcDbArc
 50
180.0000000000001
 51
270.0
  0
LINE
  5
268
330
1F
100
AcDbEntity
  8
LAY-10
  6
CONTINUOUS
 62
     7
100
AcDbLine
 10
1500.549999999965
 20
879.0000000000437
 30
0.0
 11
1513.049999999965
 21
879.0000000000437
 31
0.0
  0
ARC
  5
269
330
1F
100
AcDbEntity
  8
LAY-10
  6
CONTINUOUS
 62
     7
100
AcDbCircle
 10
1501.170834875364
 20
882.4669071402909
 30
0.0
 40
3.322569572950376
100
AcDbArc
 50
235.6157525319461
 51
304.3842474680539
  0
LINE
  5
26A
330
1F
100
AcDbEntity
  8
LAY-10
  6
CONTINUOUS
 62
     7
100
AcDbLine
 10
1499.294446500498
 20
879.7248941509415
 30
0.0
 11
1500.549999999965
 21
879.0000000000437
 31
0.0
  0
LINE
  5
26B
330
1F
100
AcDbEntity
  8
LAY-10
  6
CONTINUOUS
 62
     7
100
AcDbLine
 10
1499.294446500498
 20
879.7248941509415
 30
0.0
 11
1499.294446500498
 21
885.5000000000446
 31
0.0
  0
ARC
  5
26C
330
1F
100
AcDbEntity
  8
LAY-10
  6
CONTINUOUS
 62
     7
100
AcDbCircle
 10
1506.799999999934
 20
891.5637809839297
 30
0.0
 40
12.41944341658879
100
AcDbArc
 50
252.412046226416
 51
287.587953773858
  0
LINE
  5
26D
330
1F
100
AcDbEntity
  8
LAY-10
  6
CONTINUOUS
 62
     7
100
AcDbLine
 10
1503.047223250231
 20
879.7248941509415
 30
0.0
 11
1503.047223250231
 21
885.5000000000437
 31
0.0
  0
LINE
  5
26E
330
1F
100
AcDbEntity
  8
LAY-10
  6
CONTINUOUS
 62
     7
100
AcDbLine
 10
1513.049999999965
 20
879.0000000000437
 30
0.0
 11
1514.30555349943
 21
879.7248941509415
 31
0.0
  0
LINE
  5
26F
330
1F
100
AcDbEntity
  8
LAY-10
  6
CONTINUOUS
 62
     7
100
AcDbLine
 10
1510.552776749696
 20
879.7248941509415
 30
0.0
 11
1510.552776749696
 21
885.5000000000437
 31
0.0
  0
ARC
  5
270
330
1F
100
AcDbEntity
  8
LAY-10
  6
CONTINUOUS
 62
     7
100
AcDbCircle
 10
1512.429165124563
 20
882.4669071402909
 30
0.0
 40
3.322569572950003
100
AcDbArc
 50
235.6157525319471
 51
304.3842474680529
  0
LINE
  5
271
330
1F
100
AcDbEntity
  8
LAY-10
  6
CONTINUOUS
 62
     7
100
AcDbLine
 10
1514.30555349943
 20
885.5000000000437
 30
0.0
 11
1514.30555349943
 21
879.7248941509415
 31
0.0
  0
LINE
  5
272
330
1F
100
AcDbEntity
  8
LAY-10
  6
CONTINUOUS
 62
     7
100
AcDbLine
 10
1510.799999999963
 20
879.000000000043
 30
0.0
 11
1510.799999999965
 21
875.000000000003
 31
0.0
  0
LINE
  5
273
330
1F
100
AcDbEntity
  8
LAY-10
  6
CONTINUOUS
 62
     7
100
AcDbLine
 10
1510.174999999962
 20
879.000000000043
 30
0.0
 11
1510.174999999965
 21
875.000000000003
 31
0.0
  0
LINE
  5
274
330
1F
100
AcDbEntity
  8
LAY-10
  6
CONTINUOUS
 62
     7
100
AcDbLine
 10
1503.424999999965
 20
875.000000000003
 30
0.0
 11
1503.424999999963
 21
879.0000000000007
 31
0.0
  0
LINE
  5
275
330
1F
100
AcDbEntity
  8
LAY-10
  6
CONTINUOUS
 62
     7
100
AcDbLine
 10
1502.799999999965
 20
875.000000000003
 30
0.0
 11
1502.799999999963
 21
879.000000000043
 31
0.0
  0
LINE
  5
276
330
1F
100
AcDbEntity
  8
LAY-10
  6
CONTINUOUS
 62
     7
100
AcDbLine
 10
1499.294446500501
 20
875.000000000003
 30
0.0
 11
1514.305553499431
 21
875.000000000003
 31
0.0
  0
LINE
  5
277
330
1F
100
AcDbEntity
  8
LAY-10
  6
CONTINUOUS
 62
     7
100
AcDbLine
 10
1500.549999999967
 20
869.5000000000025
 30
0.0
 11
1513.049999999967
 21
869.5000000000025
 31
0.0
  0
ARC
  5
278
330
1F
100
AcDbEntity
  8
LAY-10
  6
CONTINUOUS
 62
     7
100
AcDbCircle
 10
1501.170834875365
 20
872.9669071402504
 30
0.0
 40
3.322569572950376
100
AcDbArc
 50
235.6157525319493
 51
304.3842474680572
  0
LINE
  5
279
330
1F
100
AcDbEntity
  8
LAY-10
  6
CONTINUOUS
 62
     7
100
AcDbLine
 10
1499.294446500501
 20
870.224894150901
 30
0.0
 11
1500.549999999967
 21
869.5000000000025
 31
0.0
  0
LINE
  5
27A
330
1F
100
AcDbEntity
  8
LAY-10
  6
CONTINUOUS
 62
     7
100
AcDbLine
 10
1499.294446500501
 20
870.224894150901
 30
0.0
 11
1499.294446500501
 21
875.000000000003
 31
0.0
  0
ARC
  5
27B
330
1F
100
AcDbEntity
  8
LAY-10
  6
CONTINUOUS
 62
     7
100
AcDbCircle
 10
1506.799999999936
 20
882.0637809838884
 30
0.0
 40
12.41944341658879
100
AcDbArc
 50
252.412046226417
 51
287.5879537738591
  0
LINE
  5
27C
330
1F
100
AcDbEntity
  8
LAY-10
  6
CONTINUOUS
 62
     7
100
AcDbLine
 10
1503.047223250233
 20
870.224894150901
 30
0.0
 11
1503.047223250232
 21
875.000000000003
 31
0.0
  0
ARC
  5
27D
330
1F
100
AcDbEntity
  8
LAY-10
  6
CONTINUOUS
 62
     7
100
AcDbCircle
 10
1512.429165124564
 20
872.9669071402504
 30
0.0
 40
3.322569572950003
100
AcDbArc
 50
235.6157525319504
 51
304.3842474680561
  0
LINE
  5
27E
330
1F
100
AcDbEntity
  8
LAY-10
  6
CONTINUOUS
 62
     7
100
AcDbLine
 10
1513.049999999967
 20
869.5000000000025
 30
0.0
 11
1514.305553499431
 21
870.224894150901
 31
0.0
  0
LINE
  5
27F
330
1F
100
AcDbEntity
  8
LAY-10
  6
CONTINUOUS
 62
     7
100
AcDbLine
 10
1510.552776749697
 20
870.224894150901
 30
0.0
 11
1510.552776749697
 21
875.000000000003
 31
0.0
  0
LINE
  5
280
330
1F
100
AcDbEntity
  8
LAY-10
  6
CONTINUOUS
 62
     7
100
AcDbLine
 10
1514.305553499431
 20
875.000000000003
 30
0.0
 11
1514.305553499431
 21
870.224894150901
 31
0.0
  0
LINE
  5
281
330
1F
100
AcDbEntity
  8
LAY-10
  6
CONTINUOUS
 62
     7
100
AcDbLine
 10
1503.424999999967
 20
890.0000000000032
 30
0.0
 11
1503.424999999967
 21
895.0000000000155
 31
0.0
  0
LINE
  5
282
330
1F
100
AcDbEntity
  8
LAY-10
  6
CONTINUOUS
 62
     7
100
AcDbLine
 10
1510.799999999968
 20
894.3750000000143
 30
0.0
 11
1510.799999999968
 21
890.0000000000032
 31
0.0
  0
LINE
  5
283
330
1F
100
AcDbEntity
  8
LAY-10
  6
CONTINUOUS
 62
     7
100
AcDbLine
 10
1502.799999999967
 20
890.0000000000032
 30
0.0
 11
1502.799999999967
 21
894.3750000000143
 31
0.0
  0
LINE
  5
284
330
1F
100
AcDbEntity
  8
LAY-10
  6
CONTINUOUS
 62
     7
100
AcDbLine
 10
1510.174999999967
 20
895.0000000000143
 30
0.0
 11
1510.174999999967
 21
890.0000000000032
 31
0.0
  0
LINE
  5
285
330
1F
100
AcDbEntity
  8
LAY-10
  6
CONTINUOUS
 62
     7
100
AcDbLine
 10
1502.799999999967
 20
894.3750000000143
 30
0.0
 11
1510.799999999968
 21
894.3750000000143
 31
0.0
  0
LINE
  5
286
330
1F
100
AcDbEntity
  8
LAY-10
  6
CONTINUOUS
 62
     7
100
AcDbLine
 10
1510.799999999968
 20
894.3750000000143
 30
0.0
 11
1510.174999999967
 21
895.0000000000143
 31
0.0
  0
LINE
  5
287
330
1F
100
AcDbEntity
  8
LAY-10
  6
CONTINUOUS
 62
     7
100
AcDbLine
 10
1503.424999999967
 20
895.0000000000143
 30
0.0
 11
1510.174999999967
 21
895.0000000000143
 31
0.0
  0
LINE
  5
288
330
1F
100
AcDbEntity
  8
LAY-10
  6
CONTINUOUS
 62
     7
100
AcDbLine
 10
1503.424999999967
 20
895.0000000000143
 30
0.0
 11
1502.799999999967
 21
894.3750000000143
 31
0.0
  0
LINE
  5
289
330
1F
100
AcDbEntity
  8
LAY-10
  6
CONTINUOUS
 62
     7
100
AcDbLine
 10
1375.0
 20
1022.499999999995
 30
0.0
 11
1479.999999999979
 21
1022.499999999986
 31
0.0
  0
LINE
  5
28A
330
1F
100
AcDbEntity
  8
LAY-10
  6
CONTINUOUS
 62
     7
100
AcDbLine
 10
1375.0
 20
1017.999999999997
 30
0.0
 11
1479.499999999982
 21
1017.999999999987
 31
0.0
  0
ARC
  5
28B
330
1F
100
AcDbEntity
  8
LAY-10
  6
CONTINUOUS
 62
     7
100
AcDbCircle
 10
1479.999999999982
 20
1017.499999999985
 30
0.0
 40
5.0
100
AcDbArc
 50
0.0
 51
90.00000000000001
  0
ARC
  5
28C
330
1F
100
AcDbEntity
  8
LAY-10
  6
CONTINUOUS
 62
     7
100
AcDbCircle
 10
1479.499999999982
 20
1016.999999999987
 30
0.0
 40
1.0
100
AcDbArc
 50
0.0
 51
90.00000000000001
  0
LINE
  5
28D
330
1F
100
AcDbEntity
  8
LAY-10
  6
HIDDEN
 62
     7
100
AcDbLine
 10
1489.999999999982
 20
936.4999999999823
 30
0.0
 11
1489.999999999982
 21
1067.499999999981
 31
0.0
  0
LINE
  5
28E
330
1F
100
AcDbEntity
  8
LAY-10
  6
CONTINUOUS
 62
     7
100
AcDbLine
 10
1480.499999999983
 20
890.2999999998844
 30
0.0
 11
1480.499999999982
 21
1016.999999999987
 31
0.0
  0
LINE
  5
28F
330
1F
100
AcDbEntity
  8
LAY-10
  6
CONTINUOUS
 62
     7
100
AcDbLine
 10
1484.999999999982
 20
890.9999999999822
 30
0.0
 11
1484.999999999982
 21
1067.499999999981
 31
0.0
  0
LINE
  5
290
330
1F
100
AcDbEntity
  8
LAY-10
  6
CONTINUOUS
 62
     7
100
AcDbLine
 10
1374.999999999973
 20
1017.997416355629
 30
0.0
 11
1374.999999999973
 21
1022.497416355629
 31
0.0
  0
LINE
  5
291
330
1F
100
AcDbEntity
  8
LAY-10
  6
CONTINUOUS
 62
     7
100
AcDbLine
 10
1374.999999999973
 20
1105.000000000049
 30
0.0
 11
1374.999999999973
 21
1100.500000000049
 31
0.0
  0
LINE
  5
292
330
1F
100
AcDbEntity
  8
LAY-10
  6
CONTINUOUS
 62
     7
100
AcDbLine
 10
1401.997114317034
 20
1064.498708177829
 30
0.0
 11
1408.999999999997
 21
1064.498708177829
 31
0.0
  0
LINE
  5
293
330
1F
100
AcDbEntity
  8
LAY-10
  6
CONTINUOUS
 62
     7
100
AcDbLine
 10
1408.999999999997
 20
1063.898708177827
 30
0.0
 11
1401.997114317034
 21
1063.898708177827
 31
0.0
  0
LINE
  5
294
330
1F
100
AcDbEntity
  8
LAY-10
  6
CONTINUOUS
 62
     7
100
AcDbLine
 10
1401.997114317034
 20
1058.498708177829
 30
0.0
 11
1408.999999999997
 21
1058.498708177829
 31
0.0
  0
LINE
  5
295
330
1F
100
AcDbEntity
  8
LAY-10
  6
CONTINUOUS
 62
     7
100
AcDbLine
 10
1408.999999999997
 20
1059.098708177828
 30
0.0
 11
1401.997114317034
 21
1059.098708177828
 31
0.0
  0
LINE
  5
296
330
1F
100
AcDbEntity
  8
LAY-10
  6
CONTINUOUS
 62
     7
100
AcDbLine
 10
1401.997114317034
 20
1051.498708177829
 30
0.0
 11
1401.997114317034
 21
1071.498708178004
 31
0.0
  0
LINE
  5
297
330
1F
100
AcDbEntity
  8
LAY-10
  6
CONTINUOUS
 62
     7
100
AcDbLine
 10
1396.997114317034
 20
1090.357067917978
 30
0.0
 11
1396.997114317034
 21
1087.498708177829
 31
0.0
  0
LINE
  5
298
330
1F
100
AcDbEntity
  8
LAY-10
  6
CONTINUOUS
 62
     7
100
AcDbLine
 10
1408.999999999997
 20
1047.498708177829
 30
0.0
 11
1397.169711451782
 21
1047.498708177829
 31
0.0
  0
LINE
  5
299
330
1F
100
AcDbEntity
  8
LAY-10
  6
CONTINUOUS
 62
     7
100
AcDbLine
 10
1419.978616041775
 20
1047.498708177829
 30
0.0
 11
1412.99711431704
 21
1047.498708177829
 31
0.0
  0
LINE
  5
29A
330
1F
100
AcDbEntity
  8
LAY-10
  6
CONTINUOUS
 62
     7
100
AcDbLine
 10
1412.99711431704
 20
1035.498708177829
 30
0.0
 11
1419.967793805396
 21
1035.498708177829
 31
0.0
  0
LINE
  5
29B
330
1F
100
AcDbEntity
  8
LAY-10
  6
CONTINUOUS
 62
     7
100
AcDbLine
 10
1399.730045018073
 20
1035.498708177829
 30
0.0
 11
1408.999999999997
 21
1035.498708177829
 31
0.0
  0
ARC
  5
29C
330
1F
100
AcDbEntity
  8
LAY-10
  6
CONTINUOUS
 62
     7
100
AcDbCircle
 10
1397.909606189592
 20
1035.898708177831
 30
0.0
 40
1.9
100
AcDbArc
 50
270.0
 51
342.1256432009552
  0
ARC
  5
29D
330
1F
100
AcDbEntity
  8
LAY-10
  6
CONTINUOUS
 62
     7
100
AcDbCircle
 10
1388.297114317034
 20
1038.998708177829
 30
0.0
 40
12.0
100
AcDbArc
 50
342.1256432009546
 51
357.1340160174004
  0
LINE
  5
29E
330
1F
100
AcDbEntity
  8
LAY-10
  6
CONTINUOUS
 62
     7
100
AcDbLine
 10
1397.909606189592
 20
1033.998708177829
 30
0.0
 11
1396.997114317034
 21
1033.998708177829
 31
0.0
  0
ARC
  5
29F
330
1F
100
AcDbEntity
  8
LAY-10
  6
CONTINUOUS
 62
     7
100
AcDbCircle
 10
1397.909606189592
 20
1042.098708177832
 30
0.0
 40
1.9
100
AcDbArc
 50
17.8743567990519
 51
90.00000000000001
  0
LINE
  5
2A0
330
1F
100
AcDbEntity
  8
LAY-10
  6
CONTINUOUS
 62
     7
100
AcDbLine
 10
1397.909606189592
 20
1043.998708177829
 30
0.0
 11
1396.997114317034
 21
1043.998708177829
 31
0.0
  0
ARC
  5
2A1
330
1F
100
AcDbEntity
  8
LAY-10
  6
CONTINUOUS
 62
     7
100
AcDbCircle
 10
1388.297114317034
 20
1038.998708177829
 30
0.0
 40
12.0
100
AcDbArc
 50
2.865983982599606
 51
17.87435679905081
  0
LINE
  5
2A2
330
1F
100
AcDbEntity
  8
LAY-10
  6
CONTINUOUS
 62
     7
100
AcDbLine
 10
1420.997114317038
 20
1036.528028689469
 30
0.0
 11
1419.967793805396
 21
1035.498708177829
 31
0.0
  0
LINE
  5
2A3
330
1F
100
AcDbEntity
  8
LAY-10
  6
CONTINUOUS
 62
     7
100
AcDbLine
 10
1419.978616041776
 20
1047.498708177826
 30
0.0
 11
1420.997114317038
 21
1046.480209902564
 31
0.0
  0
LINE
  5
2A4
330
1F
100
AcDbEntity
  8
LAY-10
  6
CONTINUOUS
 62
     7
100
AcDbLine
 10
1420.997114317038
 20
1036.528028689473
 30
0.0
 11
1420.997114317038
 21
1046.480209902564
 31
0.0
  0
LINE
  5
2A5
330
1F
100
AcDbEntity
  8
LAY-10
  6
CONTINUOUS
 62
     7
100
AcDbLine
 10
1420.997114317038
 20
1046.480209902564
 30
0.0
 11
1420.997114317038
 21
1036.528028689473
 31
0.0
  0
LINE
  5
2A6
330
1F
100
AcDbEntity
  8
LAY-10
  6
CONTINUOUS
 62
     7
100
AcDbLine
 10
1420.997114317038
 20
1036.528028689473
 30
0.0
 11
1420.997114317038
 21
1046.480209902564
 31
0.0
  0
LINE
  5
2A7
330
1F
100
AcDbEntity
  8
LAY-10
  6
CONTINUOUS
 62
     7
100
AcDbLine
 10
1419.978616041776
 20
1047.498708177826
 30
0.0
 11
1420.997114317038
 21
1046.480209902564
 31
0.0
  0
LINE
  5
2A8
330
1F
100
AcDbEntity
  8
LAY-10
  6
CONTINUOUS
 62
     7
100
AcDbLine
 10
1420.997114317038
 20
1036.528028689469
 30
0.0
 11
1419.967793805396
 21
1035.498708177829
 31
0.0
  0
LINE
  5
2A9
330
1F
100
AcDbEntity
  8
LAY-10
  6
CONTINUOUS
 62
     7
100
AcDbLine
 10
1396.997114317034
 20
1043.498708177829
 30
0.0
 11
1396.997114317034
 21
1034.498708177829
 31
0.0
  0
LINE
  5
2AA
330
1F
100
AcDbEntity
  8
LAY-10
  6
CONTINUOUS
 62
     7
100
AcDbLine
 10
1400.282104930296
 20
1038.398708177827
 30
0.0
 11
1398.697114317033
 21
1038.398708177827
 31
0.0
  0
LINE
  5
2AB
330
1F
100
AcDbEntity
  8
LAY-10
  6
CONTINUOUS
 62
     7
100
AcDbLine
 10
1400.282104930296
 20
1039.598708177828
 30
0.0
 11
1398.697114317033
 21
1039.598708177828
 31
0.0
  0
LINE
  5
2AC
330
1F
100
AcDbEntity
  8
LAY-10
  6
CONTINUOUS
 62
     7
100
AcDbLine
 10
1398.697114317033
 20
1038.398708177827
 30
0.0
 11
1398.697114317033
 21
1039.598708177828
 31
0.0
  0
ARC
  5
2AD
330
1F
100
AcDbEntity
  8
LAY-10
  6
CONTINUOUS
 62
     7
100
AcDbCircle
 10
1398.497114317034
 20
1046.800137040921
 30
0.0
 40
1.5
100
AcDbArc
 50
120.9637565320733
 51
180.0000000000001
  0
LINE
  5
2AE
330
1F
100
AcDbEntity
  8
LAY-10
  6
CONTINUOUS
 62
     7
100
AcDbLine
 10
1394.997114317034
 20
1090.248551605948
 30
0.0
 11
1394.997114317034
 21
1032.748864749703
 31
0.0
  0
LINE
  5
2AF
330
1F
100
AcDbEntity
  8
LAY-10
  6
CONTINUOUS
 62
     7
100
AcDbLine
 10
1380.000000000008
 20
1076.476362827003
 30
0.0
 11
1380.000000000008
 21
1086.593197629502
 31
0.0
  0
LINE
  5
2B0
330
1F
100
AcDbEntity
  8
LAY-10
  6
CONTINUOUS
 62
     7
100
AcDbLine
 10
1392.261467228255
 20
1074.487292272201
 30
0.0
 11
1380.912844257252
 21
1075.480168128905
 31
0.0
  0
ARC
  5
2B1
330
1F
100
AcDbEntity
  8
LAY-10
  6
CONTINUOUS
 62
     7
100
AcDbCircle
 10
1381.000000000008
 20
1076.476362826996
 30
0.0
 40
1.0
100
AcDbArc
 50
180.0000000000001
 51
264.9999999994349
  0
ARC
  5
2B2
330
1F
100
AcDbEntity
  8
LAY-10
  6
CONTINUOUS
 62
     7
100
AcDbCircle
 10
1383.000000000008
 20
1086.593197629622
 30
0.0
 40
3.000000000000003
100
AcDbArc
 50
93.10571804253416
 51
180.0000000000001
  0
LINE
  5
2B3
330
1F
100
AcDbEntity
  8
LAY-10
  6
CONTINUOUS
 62
     7
100
AcDbLine
 10
1382.837464603957
 20
1089.588791434735
 30
0.0
 11
1399.032241294009
 21
1090.467490155001
 31
0.0
  0
ARC
  5
2B4
330
1F
100
AcDbEntity
  8
LAY-10
  6
CONTINUOUS
 62
     7
100
AcDbCircle
 10
1392.000000000008
 20
1071.498708177928
 30
0.0
 40
3.000000000000003
100
AcDbArc
 50
274.9999999999999
 51
84.99999999932946
  0
ARC
  5
2B5
330
1F
100
AcDbEntity
  8
LAY-10
  6
CONTINUOUS
 62
     7
100
AcDbCircle
 10
1388.297114317034
 20
1083.998708177822
 30
0.0
 40
12.0
100
AcDbArc
 50
16.95776330003925
 51
17.87435679904559
  0
LINE
  5
2B6
330
1F
100
AcDbEntity
  8
LAY-10
  6
CONTINUOUS
 62
     7
100
AcDbLine
 10
1412.99711431704
 20
1087.498708177829
 30
0.0
 11
1412.99711431704
 21
1096.498708178004
 31
0.0
  0
LINE
  5
2B7
330
1F
100
AcDbEntity
  8
LAY-10
  6
CONTINUOUS
 62
     7
100
AcDbLine
 10
1412.99711431704
 20
1026.498708177826
 30
0.0
 11
1412.99711431704
 21
1075.498708177829
 31
0.0
  0
LINE
  5
2B8
330
1F
100
AcDbEntity
  8
LAY-10
  6
CONTINUOUS
 62
     7
100
AcDbLine
 10
1408.999999999997
 20
1075.498708177829
 30
0.0
 11
1408.999999999997
 21
1022.49741635562
 31
0.0
  0
LINE
  5
2B9
330
1F
100
AcDbEntity
  8
LAY-10
  6
CONTINUOUS
 62
     7
100
AcDbLine
 10
1408.999999999997
 20
1100.50000000006
 30
0.0
 11
1408.999999999997
 21
1087.498708177829
 31
0.0
  0
LINE
  5
2BA
330
1F
100
AcDbEntity
  8
LAY-10
  6
CONTINUOUS
 62
     7
100
AcDbLine
 10
1420.997114317038
 20
1076.517206453095
 30
0.0
 11
1420.997114317038
 21
1086.469387666186
 31
0.0
  0
LINE
  5
2BB
330
1F
100
AcDbEntity
  8
LAY-10
  6
CONTINUOUS
 62
     7
100
AcDbLine
 10
1419.978616041776
 20
1075.498708177833
 30
0.0
 11
1420.997114317038
 21
1076.517206453095
 31
0.0
  0
LINE
  5
2BC
330
1F
100
AcDbEntity
  8
LAY-10
  6
CONTINUOUS
 62
     7
100
AcDbLine
 10
1420.997114317038
 20
1086.469387666186
 30
0.0
 11
1419.967793805396
 21
1087.498708177829
 31
0.0
  0
LINE
  5
2BD
330
1F
100
AcDbEntity
  8
LAY-10
  6
CONTINUOUS
 62
     7
100
AcDbLine
 10
1421.197114317039
 20
1063.898708177827
 30
0.0
 11
1412.99711431704
 21
1063.898708177827
 31
0.0
  0
LINE
  5
2BE
330
1F
100
AcDbEntity
  8
LAY-10
  6
CONTINUOUS
 62
     7
100
AcDbLine
 10
1412.99711431704
 20
1064.498708177829
 30
0.0
 11
1421.197114317039
 21
1064.498708177829
 31
0.0
  0
LINE
  5
2BF
330
1F
100
AcDbEntity
  8
LAY-10
  6
CONTINUOUS
 62
     7
100
AcDbLine
 10
1412.99711431704
 20
1058.498708177829
 30
0.0
 11
1421.197114317039
 21
1058.498708177829
 31
0.0
  0
LINE
  5
2C0
330
1F
100
AcDbEntity
  8
LAY-10
  6
CONTINUOUS
 62
     7
100
AcDbLine
 10
1421.197114317039
 20
1059.098708177828
 30
0.0
 11
1412.99711431704
 21
1059.098708177828
 31
0.0
  0
LINE
  5
2C1
330
1F
100
AcDbEntity
  8
LAY-10
  6
CONTINUOUS
 62
     7
100
AcDbLine
 10
1396.997114317034
 20
1032.640348437674
 30
0.0
 11
1396.997114317034
 21
1046.800137040921
 31
0.0
  0
ARC
  5
2C2
330
1F
100
AcDbEntity
  8
LAY-10
  6
CONTINUOUS
 62
     7
100
AcDbCircle
 10
1392.000000000008
 20
1051.498708177724
 30
0.0
 40
3.000000000000003
100
AcDbArc
 50
275.0000000004268
 51
85.00000000000028
  0
ARC
  5
2C3
330
1F
100
AcDbEntity
  8
LAY-10
  6
CONTINUOUS
 62
     7
100
AcDbCircle
 10
1381.000000000008
 20
1046.521053528656
 30
0.0
 40
1.0
100
AcDbArc
 50
95.00000000056534
 51
180.0000000000001
  0
LINE
  5
2C4
330
1F
100
AcDbEntity
  8
LAY-10
  6
CONTINUOUS
 62
     7
100
AcDbLine
 10
1392.261467228255
 20
1048.510124083451
 30
0.0
 11
1380.912844257252
 21
1047.517248226747
 31
0.0
  0
ARC
  5
2C5
330
1F
100
AcDbEntity
  8
LAY-10
  6
CONTINUOUS
 62
     7
100
AcDbCircle
 10
1383.000000000008
 20
1036.40421872603
 30
0.0
 40
3.000000000000003
100
AcDbArc
 50
180.0000000000001
 51
266.8942819574661
  0
LINE
  5
2C6
330
1F
100
AcDbEntity
  8
LAY-10
  6
CONTINUOUS
 62
     7
100
AcDbLine
 10
1380.000000000008
 20
1046.521053528503
 30
0.0
 11
1380.000000000008
 21
1036.404218726004
 31
0.0
  0
LINE
  5
2C7
330
1F
100
AcDbEntity
  8
LAY-10
  6
CONTINUOUS
 62
     7
100
AcDbLine
 10
1382.837464603964
 20
1033.408624920916
 30
0.0
 11
1399.032241294009
 21
1032.529926200647
 31
0.0
  0
LINE
  5
2C8
330
1F
100
AcDbEntity
  8
LAY-10
  6
CONTINUOUS
 62
     7
100
AcDbLine
 10
1408.997114317038
 20
1097.498708177829
 30
0.0
 11
1408.999999999997
 21
1097.498708177829
 31
0.0
  0
LINE
  5
2C9
330
1F
100
AcDbEntity
  8
LAY-10
  6
CONTINUOUS
 62
     7
100
AcDbLine
 10
1408.997114317038
 20
1025.498708177829
 30
0.0
 11
1408.999999999997
 21
1025.498708177829
 31
0.0
  0
LINE
  5
2CA
330
1F
100
AcDbEntity
  8
LAY-10
  6
CONTINUOUS
 62
     7
100
AcDbLine
 10
1412.997114317073
 20
1026.498708177826
 30
0.0
 11
1408.997114317073
 21
1026.498708177826
 31
0.0
  0
LINE
  5
2CB
330
1F
100
AcDbEntity
  8
LAY-10
  6
CONTINUOUS
 62
     7
100
AcDbLine
 10
1412.997114317073
 20
1096.498708177826
 30
0.0
 11
1408.997114317073
 21
1096.498708177826
 31
0.0
  0
LINE
  5
2CC
330
1F
100
AcDbEntity
  8
LAY-10
  6
CONTINUOUS
 62
     7
100
AcDbLine
 10
1399.997114317038
 20
1056.248708177829
 30
0.0
 11
1399.997114317038
 21
1066.748708177829
 31
0.0
  0
ARC
  5
2CD
330
1F
100
AcDbEntity
  8
LAY-10
  6
CONTINUOUS
 62
     7
100
AcDbCircle
 10
1397.997114317038
 20
1057.748708177829
 30
0.0
 40
1.0
100
AcDbArc
 50
180.0000000000001
 51
241.927513064142
  0
ARC
  5
2CE
330
1F
100
AcDbEntity
  8
LAY-10
  6
CONTINUOUS
 62
     7
100
AcDbCircle
 10
1399.997114317038
 20
1061.498708177829
 30
0.0
 40
5.25
100
AcDbArc
 50
241.9275130641421
 51
269.9999999999997
  0
LINE
  5
2CF
330
1F
100
AcDbEntity
  8
LAY-10
  6
CONTINUOUS
 62
     7
100
AcDbLine
 10
1396.997114317038
 20
1065.248708177829
 30
0.0
 11
1396.997114317038
 21
1057.748708177829
 31
0.0
  0
ARC
  5
2D0
330
1F
100
AcDbEntity
  8
LAY-10
  6
CONTINUOUS
 62
     7
100
AcDbCircle
 10
1397.997114317038
 20
1065.248708177829
 30
0.0
 40
1.0
100
AcDbArc
 50
118.0724869358582
 51
180.0000000000001
  0
ARC
  5
2D1
330
1F
100
AcDbEntity
  8
LAY-10
  6
CONTINUOUS
 62
     7
100
AcDbCircle
 10
1399.997114317038
 20
1061.498708177829
 30
0.0
 40
5.25
100
AcDbArc
 50
90.00000000000112
 51
118.072486935858
  0
LINE
  5
2D2
330
1F
100
AcDbEntity
  8
LAY-10
  6
CONTINUOUS
 62
     7
100
AcDbLine
 10
1399.999999999997
 20
1091.500000000028
 30
0.0
 11
1408.999999999997
 21
1091.500000000028
 31
0.0
  0
LINE
  5
2D3
330
1F
100
AcDbEntity
  8
LAY-10
  6
CONTINUOUS
 62
     7
100
AcDbLine
 10
1399.999999999997
 20
1100.500000000035
 30
0.0
 11
1399.999999999997
 21
1091.300000000031
 31
0.0
  0
LINE
  5
2D4
330
1F
100
AcDbEntity
  8
LAY-10
  6
CONTINUOUS
 62
     7
100
AcDbLine
 10
1399.999999999997
 20
1022.49741635562
 30
0.0
 11
1399.999999999997
 21
1031.697416355617
 31
0.0
  0
LINE
  5
2D5
330
1F
100
AcDbEntity
  8
LAY-10
  6
CONTINUOUS
 62
     7
100
AcDbLine
 10
1399.999999999997
 20
1031.49741635562
 30
0.0
 11
1408.999999999997
 21
1031.49741635562
 31
0.0
  0
ARC
  5
2D6
330
1F
100
AcDbEntity
  8
LAY-10
  6
CONTINUOUS
 62
     7
100
AcDbCircle
 10
1397.909606189592
 20
1087.098708177821
 30
0.0
 40
1.9
100
AcDbArc
 50
17.87435679904485
 51
90.00000000000001
  0
LINE
  5
2D7
330
1F
100
AcDbEntity
  8
LAY-10
  6
CONTINUOUS
 62
     7
100
AcDbLine
 10
1397.909606189592
 20
1088.998708177822
 30
0.0
 11
1396.997114317034
 21
1088.998708177822
 31
0.0
  0
LINE
  5
2D8
330
1F
100
AcDbEntity
  8
LAY-10
  6
CONTINUOUS
 62
     7
100
AcDbLine
 10
1380.000056068783
 20
1098.500000000031
 30
0.0
 11
1374.999999999983
 21
1097.500000000024
 31
0.0
  0
LINE
  5
2D9
330
1F
100
AcDbEntity
  8
LAY-10
  6
CONTINUOUS
 62
     7
100
AcDbLine
 10
1374.999999999983
 20
1085.500000000024
 30
0.0
 11
1380.000000000005
 21
1084.498708177873
 31
0.0
  0
LINE
  5
2DA
330
1F
100
AcDbEntity
  8
LAY-10
  6
CONTINUOUS
 62
     7
100
AcDbLine
 10
1374.999999999983
 20
1077.498708177873
 30
0.0
 11
1380.000000000005
 21
1078.498708177873
 31
0.0
  0
LINE
  5
2DB
330
1F
100
AcDbEntity
  8
LAY-10
  6
CONTINUOUS
 62
     7
100
AcDbLine
 10
1374.999999999983
 20
1065.498708177971
 30
0.0
 11
1380.000000000005
 21
1064.498708177971
 31
0.0
  0
LINE
  5
2DC
330
1F
100
AcDbEntity
  8
LAY-10
  6
CONTINUOUS
 62
     7
100
AcDbLine
 10
1374.999999999983
 20
1045.498708177779
 30
0.0
 11
1380.000000000005
 21
1044.498708177779
 31
0.0
  0
LINE
  5
2DD
330
1F
100
AcDbEntity
  8
LAY-10
  6
CONTINUOUS
 62
     7
100
AcDbLine
 10
1374.999999999983
 20
1057.49870817768
 30
0.0
 11
1380.000000000005
 21
1058.49870817768
 31
0.0
  0
LINE
  5
2DE
330
1F
100
AcDbEntity
  8
LAY-10
  6
CONTINUOUS
 62
     7
100
AcDbLine
 10
1374.999999999983
 20
1037.497416355628
 30
0.0
 11
1380.000000000005
 21
1038.498708177779
 31
0.0
  0
LINE
  5
2DF
330
1F
100
AcDbEntity
  8
LAY-10
  6
CONTINUOUS
 62
     7
100
AcDbLine
 10
1380.000056068783
 20
1024.49741635562
 30
0.0
 11
1374.999999999983
 21
1025.497416355628
 31
0.0
  0
ARC
  5
2E0
330
1F
100
AcDbEntity
  8
LAY-10
  6
CONTINUOUS
 62
     7
100
AcDbCircle
 10
1398.999999999997
 20
1091.466970269341
 30
0.0
 40
1.0
100
AcDbArc
 50
271.8476102659964
 51
0.0
  0
ARC
  5
2E1
330
1F
100
AcDbEntity
  8
LAY-10
  6
CONTINUOUS
 62
     7
100
AcDbCircle
 10
1398.999999999997
 20
1031.53044608631
 30
0.0
 40
1.0
100
AcDbArc
 50
0.0000000000001719
 51
88.15238973400399
  0
LINE
  5
2E2
330
1F
100
AcDbEntity
  8
LAY-10
  6
CONTINUOUS
 62
     7
100
AcDbLine
 10
1380.000000000008
 20
1025.498708177877
 30
0.0
 11
1399.050827527971
 21
1026.468436234349
 31
0.0
  0
ARC
  5
2E3
330
1F
100
AcDbEntity
  8
LAY-10
  6
CONTINUOUS
 62
     7
100
AcDbCircle
 10
1398.999999999997
 20
1027.466970269443
 30
0.0
 40
1.0
100
AcDbArc
 50
271.8476102659964
 51
0.0000000000001719
  0
ARC
  5
2E4
330
1F
100
AcDbEntity
  8
LAY-10
  6
CONTINUOUS
 62
     7
100
AcDbCircle
 10
1398.999999999997
 20
1095.530446086212
 30
0.0
 40
1.0
100
AcDbArc
 50
0.0
 51
88.15238973400399
  0
LINE
  5
2E5
330
1F
100
AcDbEntity
  8
LAY-10
  6
CONTINUOUS
 62
     7
100
AcDbLine
 10
1380.000000000008
 20
1097.498708177775
 30
0.0
 11
1399.032241294012
 21
1096.529926200549
 31
0.0
  0
LINE
  5
2E6
330
1F
100
AcDbEntity
  8
LAY-10
  6
CONTINUOUS
 62
     7
100
AcDbLine
 10
1380.000000000008
 20
1056.476362826796
 30
0.0
 11
1380.000000000008
 21
1066.521053528859
 31
0.0
  0
LINE
  5
2E7
330
1F
100
AcDbEntity
  8
LAY-10
  6
CONTINUOUS
 62
     7
100
AcDbLine
 10
1399.997114317034
 20
1064.498708177829
 30
0.0
 11
1399.997114317034
 21
1070.649422609377
 31
0.0
  0
LINE
  5
2E8
330
1F
100
AcDbEntity
  8
LAY-10
  6
CONTINUOUS
 62
     7
100
AcDbLine
 10
1399.997114317034
 20
1052.347993746282
 30
0.0
 11
1399.997114317034
 21
1058.498708177829
 31
0.0
  0
ARC
  5
2E9
330
1F
100
AcDbEntity
  8
LAY-10
  6
CONTINUOUS
 62
     7
100
AcDbCircle
 10
1396.497114317034
 20
1075.347993746282
 30
0.0
 40
1.5
100
AcDbArc
 50
180.0000000000001
 51
239.0362434679267
  0
LINE
  5
2EA
330
1F
100
AcDbEntity
  8
LAY-10
  6
CONTINUOUS
 62
     7
100
AcDbLine
 10
1395.725370683892
 20
1074.061754357712
 30
0.0
 11
1399.268857950175
 21
1071.935661997947
 31
0.0
  0
ARC
  5
2EB
330
1F
100
AcDbEntity
  8
LAY-10
  6
CONTINUOUS
 62
     7
100
AcDbCircle
 10
1398.497114317034
 20
1070.649422609377
 30
0.0
 40
1.5
100
AcDbArc
 50
0.0000000000001719
 51
59.03624346792686
  0
ARC
  5
2EC
330
1F
100
AcDbEntity
  8
LAY-10
  6
CONTINUOUS
 62
     7
100
AcDbCircle
 10
1398.497114317034
 20
1052.347993746282
 30
0.0
 40
1.5
100
AcDbArc
 50
300.9637565320735
 51
0.0000000000001719
  0
LINE
  5
2ED
330
1F
100
AcDbEntity
  8
LAY-10
  6
CONTINUOUS
 62
     7
100
AcDbLine
 10
1395.725370683892
 20
1048.935661997947
 30
0.0
 11
1399.268857950175
 21
1051.061754357712
 31
0.0
  0
ARC
  5
2EE
330
1F
100
AcDbEntity
  8
LAY-10
  6
CONTINUOUS
 62
     7
100
AcDbCircle
 10
1396.497114317034
 20
1047.649422609377
 30
0.0
 40
1.5
100
AcDbArc
 50
120.9637565320733
 51
180.0000000000001
  0
LINE
  5
2EF
330
1F
100
AcDbEntity
  8
LAY-10
  6
CONTINUOUS
 62
     7
100
AcDbLine
 10
1397.725370683892
 20
1048.08637642949
 30
0.0
 11
1401.268857950175
 21
1050.21246878926
 31
0.0
  0
ARC
  5
2F0
330
1F
100
AcDbEntity
  8
LAY-10
  6
CONTINUOUS
 62
     7
100
AcDbCircle
 10
1400.497114317034
 20
1051.498708177829
 30
0.0
 40
1.5
100
AcDbArc
 50
300.9637565320738
 51
0.0000000000001719
  0
LINE
  5
2F1
330
1F
100
AcDbEntity
  8
LAY-10
  6
CONTINUOUS
 62
     7
100
AcDbLine
 10
1397.725370683892
 20
1074.911039926169
 30
0.0
 11
1401.268857950175
 21
1072.784947566399
 31
0.0
  0
ARC
  5
2F2
330
1F
100
AcDbEntity
  8
LAY-10
  6
CONTINUOUS
 62
     7
100
AcDbCircle
 10
1400.497114317034
 20
1071.498708177829
 30
0.0
 40
1.5
100
AcDbArc
 50
0.0000000000001719
 51
59.03624346792686
  0
LINE
  5
2F3
330
1F
100
AcDbEntity
  8
LAY-10
  6
CONTINUOUS
 62
     7
100
AcDbLine
 10
1421.197114317039
 20
1058.635459523781
 30
0.0
 11
1425.825114317039
 21
1058.635459523781
 31
0.0
  0
LINE
  5
2F4
330
1F
100
AcDbEntity
  8
LAY-10
  6
CONTINUOUS
 62
     7
100
AcDbLine
 10
1421.197114317039
 20
1055.748708177829
 30
0.0
 11
1425.825114317039
 21
1055.748708177829
 31
0.0
  0
LINE
  5
2F5
330
1F
100
AcDbEntity
  8
LAY-10
  6
CONTINUOUS
 62
     7
100
AcDbLine
 10
1421.197114317039
 20
1064.361956831878
 30
0.0
 11
1425.825114317039
 21
1064.361956831878
 31
0.0
  0
ARC
  5
2F6
330
1F
100
AcDbEntity
  8
LAY-10
  6
CONTINUOUS
 62
     7
100
AcDbCircle
 10
1418.94486182148
 20
1061.498708177829
 30
0.0
 40
7.4522524955587
100
AcDbArc
 50
337.4051392327526
 51
22.59486076724778
  0
LINE
  5
2F7
330
1F
100
AcDbEntity
  8
LAY-10
  6
CONTINUOUS
 62
     7
100
AcDbLine
 10
1421.197114317039
 20
1067.248708177829
 30
0.0
 11
1425.825114317039
 21
1067.248708177829
 31
0.0
  0
LINE
  5
2F8
330
1F
100
AcDbEntity
  8
LAY-10
  6
CONTINUOUS
 62
     7
100
AcDbLine
 10
1421.197114317039
 20
1067.248708177829
 30
0.0
 11
1421.197114317039
 21
1055.748708177829
 31
0.0
  0
ARC
  5
2F9
330
1F
100
AcDbEntity
  8
LAY-10
  6
CONTINUOUS
 62
     7
100
AcDbCircle
 10
1426.859136362838
 20
1066.248708177829
 30
0.0
 40
0.5
100
AcDbArc
 50
189.7915975264292
 51
270.0000000000002
  0
LINE
  5
2FA
330
1F
100
AcDbEntity
  8
LAY-10
  6
CONTINUOUS
 62
     7
100
AcDbLine
 10
1426.397114317039
 20
1065.748708177829
 30
0.0
 11
1426.396353342184
 21
1065.748708177829
 31
0.0
  0
ARC
  5
2FB
330
1F
100
AcDbEntity
  8
LAY-10
  6
CONTINUOUS
 62
     7
100
AcDbCircle
 10
1424.290018745941
 20
1057.192083850804
 30
0.0
 40
2.107095571097913
100
AcDbArc
 50
316.7638252773315
 51
43.23617472266898
  0
ARC
  5
2FC
330
1F
100
AcDbEntity
  8
LAY-10
  6
CONTINUOUS
 62
     7
100
AcDbCircle
 10
1426.859136362838
 20
1056.748708177829
 30
0.0
 40
0.5
100
AcDbArc
 50
90.00000000000026
 51
170.2084024735711
  0
LINE
  5
2FD
330
1F
100
AcDbEntity
  8
LAY-10
  6
CONTINUOUS
 62
     7
100
AcDbLine
 10
1426.397114317039
 20
1057.248708177829
 30
0.0
 11
1426.396353342184
 21
1057.248708177829
 31
0.0
  0
ARC
  5
2FE
330
1F
100
AcDbEntity
  8
LAY-10
  6
CONTINUOUS
 62
     7
100
AcDbCircle
 10
1424.290018745941
 20
1065.805332504855
 30
0.0
 40
2.107095571097882
100
AcDbArc
 50
316.763825277331
 51
43.23617472266933
  0
ARC
  5
2FF
330
1F
100
AcDbEntity
  8
LAY-10
  6
CONTINUOUS
 62
     7
100
AcDbCircle
 10
1427.496152422716
 20
1058.248708177829
 30
0.0
 40
1.0
100
AcDbArc
 50
270.0000000000002
 51
291.7867892982636
  0
LINE
  5
300
330
1F
100
AcDbEntity
  8
LAY-10
  6
CONTINUOUS
 62
     7
100
AcDbLine
 10
1427.496152422716
 20
1057.248708177829
 30
0.0
 11
1426.859136362838
 21
1057.248708177829
 31
0.0
  0
ARC
  5
301
330
1F
100
AcDbEntity
  8
LAY-10
  6
CONTINUOUS
 62
     7
100
AcDbCircle
 10
1426.197114317039
 20
1061.498708177829
 30
0.0
 40
4.5
100
AcDbArc
 50
291.7867892982638
 51
68.21321070173653
  0
LINE
  5
302
330
1F
100
AcDbEntity
  8
LAY-10
  6
CONTINUOUS
 62
     7
100
AcDbLine
 10
1427.496152422716
 20
1065.748708177829
 30
0.0
 11
1426.859136362838
 21
1065.748708177829
 31
0.0
  0
ARC
  5
303
330
1F
100
AcDbEntity
  8
LAY-10
  6
CONTINUOUS
 62
     7
100
AcDbCircle
 10
1427.496152422716
 20
1064.748708177829
 30
0.0
 40
1.0
100
AcDbArc
 50
68.21321070173653
 51
90.00000000000026
  0
LINE
  5
304
330
1F
100
AcDbEntity
  8
LAY-10
  6
CONTINUOUS
 62
     7
100
AcDbLine
 10
1394.002651736018
 20
1097.787237792616
 30
0.0
 11
1380.000056068789
 21
1098.500000000035
 31
0.0
  0
ARC
  5
305
330
1F
100
AcDbEntity
  8
LAY-10
  6
CONTINUOUS
 62
     7
100
AcDbCircle
 10
1395.001358733757
 20
1097.73640146047
 30
0.0
 40
1.0
100
AcDbArc
 50
177.0860366934871
 51
267.086036693205
  0
LINE
  5
306
330
1F
100
AcDbEntity
  8
LAY-10
  6
CONTINUOUS
 62
     7
100
AcDbLine
 10
1394.002651736018
 20
1025.210178563035
 30
0.0
 11
1380.000056068789
 21
1024.497416355617
 31
0.0
  0
ARC
  5
307
330
1F
100
AcDbEntity
  8
LAY-10
  6
CONTINUOUS
 62
     7
100
AcDbCircle
 10
1395.001358733757
 20
1025.261014895181
 30
0.0
 40
1.0
100
AcDbArc
 50
92.91396330679483
 51
182.9139633065131
  0
ARC
  5
308
330
1F
100
AcDbEntity
  8
LAY-10
  6
CONTINUOUS
 62
     7
100
AcDbCircle
 10
1381.000000000008
 20
1056.476362826796
 30
0.0
 40
1.0
100
AcDbArc
 50
180.0000000000001
 51
264.9999999994349
  0
LINE
  5
309
330
1F
100
AcDbEntity
  8
LAY-10
  6
CONTINUOUS
 62
     7
100
AcDbLine
 10
1392.261467228255
 20
1054.487292272001
 30
0.0
 11
1380.912844257252
 21
1055.480168128705
 31
0.0
  0
ARC
  5
30A
330
1F
100
AcDbEntity
  8
LAY-10
  6
CONTINUOUS
 62
     7
100
AcDbCircle
 10
1381.000000000008
 20
1066.521053528856
 30
0.0
 40
1.0
100
AcDbArc
 50
95.00000000056534
 51
180.0000000000001
  0
LINE
  5
30B
330
1F
100
AcDbEntity
  8
LAY-10
  6
CONTINUOUS
 62
     7
100
AcDbLine
 10
1392.261467228255
 20
1068.510124083651
 30
0.0
 11
1380.912844257252
 21
1067.517248226947
 31
0.0
  0
LINE
  5
30C
330
1F
100
AcDbEntity
  8
LAY-10
  6
CONTINUOUS
 62
     7
100
AcDbLine
 10
1393.000000000008
 20
1096.838274920416
 30
0.0
 11
1393.000000000008
 21
1096.83698024414
 31
0.0
  0
LINE
  5
30D
330
1F
100
AcDbEntity
  8
LAY-10
  6
CONTINUOUS
 62
     7
100
AcDbLine
 10
1393.000000000008
 20
1024.949800925019
 30
0.0
 11
1393.000000000008
 21
1024.917542860504
 31
0.0
  0
LINE
  5
30E
330
1F
100
AcDbEntity
  8
LAY-10
  6
CONTINUOUS
 62
     7
100
AcDbLine
 10
1380.000000000008
 20
1024.498708177877
 30
0.0
 11
1380.000000000008
 21
1025.498708177877
 31
0.0
  0
LINE
  5
30F
330
1F
100
AcDbEntity
  8
LAY-10
  6
CONTINUOUS
 62
     7
100
AcDbLine
 10
1380.000000000008
 20
1024.498708177877
 30
0.0
 11
1380.000000000008
 21
1025.498708177877
 31
0.0
  0
LINE
  5
310
330
1F
100
AcDbEntity
  8
LAY-10
  6
CONTINUOUS
 62
     7
100
AcDbLine
 10
1380.000000000008
 20
1098.498708177775
 30
0.0
 11
1380.000000000008
 21
1097.498708177775
 31
0.0
  0
LINE
  5
311
330
1F
100
AcDbEntity
  8
LAY-10
  6
CONTINUOUS
 62
     7
100
AcDbLine
 10
1374.999999999988
 20
1085.50000000002
 30
0.0
 11
1374.999999999988
 21
1097.50000000002
 31
0.0
  0
LINE
  5
312
330
1F
100
AcDbEntity
  8
LAY-10
  6
CONTINUOUS
 62
     7
100
AcDbLine
 10
1374.999999999988
 20
1077.49870817787
 30
0.0
 11
1374.999999999988
 21
1065.498708177971
 31
0.0
  0
LINE
  5
313
330
1F
100
AcDbEntity
  8
LAY-10
  6
CONTINUOUS
 62
     7
100
AcDbLine
 10
1374.999999999988
 20
1057.498708177677
 30
0.0
 11
1374.999999999988
 21
1045.498708177779
 31
0.0
  0
LINE
  5
314
330
1F
100
AcDbEntity
  8
LAY-10
  6
CONTINUOUS
 62
     7
100
AcDbLine
 10
1374.999999999988
 20
1025.497416355631
 30
0.0
 11
1374.999999999988
 21
1037.497416355628
 31
0.0
  0
LINE
  5
315
330
1F
100
AcDbEntity
  8
LAY-10
  6
CONTINUOUS
 62
     7
100
AcDbLine
 10
1396.997114317034
 20
1076.197279314738
 30
0.0
 11
1396.997114317034
 21
1088.498708177822
 31
0.0
  0
ARC
  5
316
330
1F
100
AcDbEntity
  8
LAY-10
  6
CONTINUOUS
 62
     7
100
AcDbCircle
 10
1398.497114317034
 20
1076.197279314738
 30
0.0
 40
1.5
100
AcDbArc
 50
179.9999999995571
 51
239.0362434679244
  0
LINE
  5
317
330
1F
100
AcDbEntity
  8
LAY-10
  6
CONTINUOUS
 62
     7
100
AcDbLine
 10
1419.978616041774
 20
1075.498708177829
 30
0.0
 11
1397.169711451783
 21
1075.498708177829
 31
0.0
  0
LINE
  5
318
330
1F
100
AcDbEntity
  8
LAY-10
  6
CONTINUOUS
 62
     7
100
AcDbLine
 10
1396.997114317034
 20
1087.498708177829
 30
0.0
 11
1419.967793805396
 21
1087.498708177829
 31
0.0
  0
LINE
  5
319
330
1F
100
AcDbEntity
  8
LAY-10
  6
CONTINUOUS
 62
     7
100
AcDbLine
 10
1408.99711431715
 20
1091.498708177754
 30
0.0
 11
1412.99711431715
 21
1091.498708177754
 31
0.0
  0
LINE
  5
31A
330
1F
100
AcDbEntity
  8
LAY-10
  6
CONTINUOUS
 62
     7
100
AcDbLine
 10
1605.999444906994
 20
1070.966685169807
 30
0.0
 11
1485.000000000015
 21
1075.00000000004
 31
0.0
  0
LINE
  5
31B
330
1F
100
AcDbEntity
  8
LAY-10
  6
CONTINUOUS
 62
     7
100
AcDbLine
 10
1645.000000000015
 20
1105.00000000004
 30
0.0
 11
1485.000000000015
 21
1105.00000000004
 31
0.0
  0
LINE
  5
31C
330
1F
100
AcDbEntity
  8
LAY-10
  6
CONTINUOUS
 62
     7
100
AcDbLine
 10
1645.000000000013
 20
1105.000000000038
 30
0.0
 11
1670.000000000013
 21
1080.000000000038
 31
0.0
  0
LINE
  5
31D
330
1F
100
AcDbEntity
  8
LAY-10
  6
CONTINUOUS
 62
     7
100
AcDbLine
 10
1670.000000000015
 20
1080.00000000004
 30
0.0
 11
1670.000000000015
 21
920.0000000000393
 31
0.0
  0
ARC
  5
31E
330
1F
100
AcDbEntity
  8
LAY-10
  6
CONTINUOUS
 62
     7
100
AcDbCircle
 10
1605.000000000015
 20
1040.983337960432
 30
0.0
 40
30.0
100
AcDbArc
 50
0.0
 51
88.09084756696596
  0
LINE
  5
31F
330
1F
100
AcDbEntity
  8
LAY-10
  6
CONTINUOUS
 62
     7
100
AcDbLine
 10
1635.000000000015
 20
1040.983337960432
 30
0.0
 11
1635.000000000015
 21
959.0166620396468
 31
0.0
  0
ARC
  5
320
330
1F
100
AcDbEntity
  8
LAY-10
  6
CONTINUOUS
 62
     7
100
AcDbCircle
 10
1605.000000000015
 20
959.0166620396468
 30
0.0
 40
30.0
100
AcDbArc
 50
271.9091524329962
 51
0.0
  0
LINE
  5
321
330
1F
100
AcDbEntity
  8
LAY-10
  6
CONTINUOUS
 62
     7
100
AcDbLine
 10
1605.999444906994
 20
929.0333148302722
 30
0.0
 11
1485.000000000015
 21
925.0000000000393
 31
0.0
  0
LINE
  5
322
330
1F
100
AcDbEntity
  8
LAY-10
  6
CONTINUOUS
 62
     7
100
AcDbLine
 10
1645.000000000015
 20
895.0000000000396
 30
0.0
 11
1485.000000000015
 21
895.0000000000396
 31
0.0
  0
LINE
  5
323
330
1F
100
AcDbEntity
  8
LAY-10
  6
CONTINUOUS
 62
     7
100
AcDbLine
 10
1645.000000000031
 20
895.000000000023
 30
0.0
 11
1670.000000000031
 21
920.000000000023
 31
0.0
  0
LINE
  5
324
330
1F
100
AcDbEntity
  8
LAY-10
  6
CONTINUOUS
 62
     7
100
AcDbLine
 10
347.9999999999768
 20
1096.750000000045
 30
0.0
 11
347.9999999999768
 21
1091.750000000045
 31
0.0
  0
LINE
  5
325
330
1F
100
AcDbEntity
  8
LAY-10
  6
CONTINUOUS
 62
     7
100
AcDbLine
 10
347.9999999999768
 20
1091.750000000045
 30
0.0
 11
342.9999999999768
 21
1091.750000000045
 31
0.0
  0
LINE
  5
326
330
1F
100
AcDbEntity
  8
LAY-10
  6
CONTINUOUS
 62
     7
100
AcDbLine
 10
342.9999999999768
 20
1091.250000000045
 30
0.0
 11
347.9999999999768
 21
1091.250000000045
 31
0.0
  0
LINE
  5
327
330
1F
100
AcDbEntity
  8
LAY-10
  6
CONTINUOUS
 62
     7
100
AcDbLine
 10
342.9999999999768
 20
1091.250000000045
 30
0.0
 11
342.9999999999768
 21
1086.250000000045
 31
0.0
  0
LINE
  5
328
330
1F
100
AcDbEntity
  8
LAY-10
  6
CONTINUOUS
 62
     7
100
AcDbLine
 10
347.9999999999768
 20
1091.250000000045
 30
0.0
 11
347.9999999999768
 21
1086.250000000045
 31
0.0
  0
LINE
  5
329
330
1F
100
AcDbEntity
  8
LAY-10
  6
CONTINUOUS
 62
     7
100
AcDbLine
 10
347.9999999999768
 20
1086.250000000045
 30
0.0
 11
342.9999999999768
 21
1086.250000000045
 31
0.0
  0
LINE
  5
32A
330
1F
100
AcDbEntity
  8
LAY-10
  6
CONTINUOUS
 62
     7
100
AcDbLine
 10
347.9999999999768
 20
1096.750000000045
 30
0.0
 11
342.9999999999768
 21
1091.750000000045
 31
0.0
  0
LINE
  5
32B
330
1F
100
AcDbEntity
  8
LAY-10
  6
CONTINUOUS
 62
     7
100
AcDbLine
 10
347.9999999999768
 20
1091.250000000045
 30
0.0
 11
342.9999999999768
 21
1086.250000000045
 31
0.0
  0
LINE
  5
32C
330
1F
100
AcDbEntity
  8
LAY-10
  6
CONTINUOUS
 62
     7
100
AcDbLine
 10
342.9999999999768
 20
1091.250000000045
 30
0.0
 11
347.9999999999768
 21
1086.250000000045
 31
0.0
  0
LINE
  5
32D
330
1F
100
AcDbEntity
  8
LAY-10
  6
CONTINUOUS
 62
     7
100
AcDbLine
 10
337.4999999999768
 20
1091.250000000045
 30
0.0
 11
342.4999999999768
 21
1086.250000000045
 31
0.0
  0
LINE
  5
32E
330
1F
100
AcDbEntity
  8
LAY-10
  6
CONTINUOUS
 62
     7
100
AcDbLine
 10
342.4999999999768
 20
1091.250000000045
 30
0.0
 11
337.4999999999768
 21
1086.250000000045
 31
0.0
  0
LINE
  5
32F
330
1F
100
AcDbEntity
  8
LAY-10
  6
CONTINUOUS
 62
     7
100
AcDbLine
 10
342.4999999999768
 20
1086.250000000045
 30
0.0
 11
337.4999999999768
 21
1086.250000000045
 31
0.0
  0
LINE
  5
330
330
1F
100
AcDbEntity
  8
LAY-10
  6
CONTINUOUS
 62
     7
100
AcDbLine
 10
342.4999999999768
 20
1091.250000000045
 30
0.0
 11
342.4999999999768
 21
1086.250000000045
 31
0.0
  0
LINE
  5
331
330
1F
100
AcDbEntity
  8
LAY-10
  6
CONTINUOUS
 62
     7
100
AcDbLine
 10
337.4999999999768
 20
1091.250000000045
 30
0.0
 11
337.4999999999768
 21
1086.250000000045
 31
0.0
  0
LINE
  5
332
330
1F
100
AcDbEntity
  8
LAY-10
  6
CONTINUOUS
 62
     7
100
AcDbLine
 10
337.4999999999768
 20
1091.250000000045
 30
0.0
 11
342.4999999999768
 21
1091.250000000045
 31
0.0
  0
LINE
  5
333
330
1F
100
AcDbEntity
  8
LAY-10
  6
CONTINUOUS
 62
     7
100
AcDbLine
 10
342.4999999999768
 20
1091.750000000045
 30
0.0
 11
337.4999999999768
 21
1091.750000000045
 31
0.0
  0
LINE
  5
334
330
1F
100
AcDbEntity
  8
LAY-10
  6
CONTINUOUS
 62
     7
100
AcDbLine
 10
347.9999999999768
 20
1076.750000000055
 30
0.0
 11
347.9999999999768
 21
1071.750000000055
 31
0.0
  0
LINE
  5
335
330
1F
100
AcDbEntity
  8
LAY-10
  6
CONTINUOUS
 62
     7
100
AcDbLine
 10
347.9999999999768
 20
1076.750000000055
 30
0.0
 11
342.9999999999768
 21
1076.750000000055
 31
0.0
  0
LINE
  5
336
330
1F
100
AcDbEntity
  8
LAY-10
  6
CONTINUOUS
 62
     7
100
AcDbLine
 10
347.9999999999768
 20
1071.750000000055
 30
0.0
 11
342.9999999999768
 21
1071.750000000055
 31
0.0
  0
LINE
  5
337
330
1F
100
AcDbEntity
  8
LAY-10
  6
CONTINUOUS
 62
     7
100
AcDbLine
 10
342.9999999999768
 20
1071.750000000055
 30
0.0
 11
342.9999999999768
 21
1076.750000000055
 31
0.0
  0
LINE
  5
338
330
1F
100
AcDbEntity
  8
LAY-10
  6
CONTINUOUS
 62
     7
100
AcDbLine
 10
342.9999999999768
 20
1071.250000000055
 30
0.0
 11
347.9999999999768
 21
1071.250000000055
 31
0.0
  0
LINE
  5
339
330
1F
100
AcDbEntity
  8
LAY-10
  6
CONTINUOUS
 62
     7
100
AcDbLine
 10
342.9999999999768
 20
1071.250000000055
 30
0.0
 11
342.9999999999768
 21
1066.250000000055
 31
0.0
  0
LINE
  5
33A
330
1F
100
AcDbEntity
  8
LAY-10
  6
CONTINUOUS
 62
     7
100
AcDbLine
 10
347.9999999999768
 20
1071.250000000055
 30
0.0
 11
347.9999999999768
 21
1066.250000000055
 31
0.0
  0
LINE
  5
33B
330
1F
100
AcDbEntity
  8
LAY-10
  6
CONTINUOUS
 62
     7
100
AcDbLine
 10
347.9999999999768
 20
1066.250000000055
 30
0.0
 11
342.9999999999768
 21
1066.250000000055
 31
0.0
  0
LINE
  5
33C
330
1F
100
AcDbEntity
  8
LAY-10
  6
CONTINUOUS
 62
     7
100
AcDbLine
 10
347.9999999999768
 20
1076.750000000055
 30
0.0
 11
342.9999999999768
 21
1071.750000000055
 31
0.0
  0
LINE
  5
33D
330
1F
100
AcDbEntity
  8
LAY-10
  6
CONTINUOUS
 62
     7
100
AcDbLine
 10
347.9999999999768
 20
1071.250000000055
 30
0.0
 11
342.9999999999768
 21
1066.250000000055
 31
0.0
  0
LINE
  5
33E
330
1F
100
AcDbEntity
  8
LAY-10
  6
CONTINUOUS
 62
     7
100
AcDbLine
 10
342.9999999999768
 20
1076.750000000055
 30
0.0
 11
347.9999999999768
 21
1071.750000000055
 31
0.0
  0
LINE
  5
33F
330
1F
100
AcDbEntity
  8
LAY-10
  6
CONTINUOUS
 62
     7
100
AcDbLine
 10
342.9999999999768
 20
1071.250000000055
 30
0.0
 11
347.9999999999768
 21
1066.250000000055
 31
0.0
  0
LINE
  5
340
330
1F
100
AcDbEntity
  8
LAY-10
  6
CONTINUOUS
 62
     7
100
AcDbLine
 10
337.4999999999768
 20
1071.250000000055
 30
0.0
 11
342.4999999999768
 21
1066.250000000055
 31
0.0
  0
LINE
  5
341
330
1F
100
AcDbEntity
  8
LAY-10
  6
CONTINUOUS
 62
     7
100
AcDbLine
 10
337.4999999999768
 20
1076.750000000055
 30
0.0
 11
342.4999999999768
 21
1071.750000000055
 31
0.0
  0
LINE
  5
342
330
1F
100
AcDbEntity
  8
LAY-10
  6
CONTINUOUS
 62
     7
100
AcDbLine
 10
342.4999999999768
 20
1071.250000000055
 30
0.0
 11
337.4999999999768
 21
1066.250000000055
 31
0.0
  0
LINE
  5
343
330
1F
100
AcDbEntity
  8
LAY-10
  6
CONTINUOUS
 62
     7
100
AcDbLine
 10
342.4999999999768
 20
1076.750000000055
 30
0.0
 11
337.4999999999768
 21
1071.750000000055
 31
0.0
  0
LINE
  5
344
330
1F
100
AcDbEntity
  8
LAY-10
  6
CONTINUOUS
 62
     7
100
AcDbLine
 10
342.4999999999768
 20
1066.250000000055
 30
0.0
 11
337.4999999999768
 21
1066.250000000055
 31
0.0
  0
LINE
  5
345
330
1F
100
AcDbEntity
  8
LAY-10
  6
CONTINUOUS
 62
     7
100
AcDbLine
 10
342.4999999999768
 20
1071.250000000055
 30
0.0
 11
342.4999999999768
 21
1066.250000000055
 31
0.0
  0
LINE
  5
346
330
1F
100
AcDbEntity
  8
LAY-10
  6
CONTINUOUS
 62
     7
100
AcDbLine
 10
337.4999999999768
 20
1071.250000000055
 30
0.0
 11
337.4999999999768
 21
1066.250000000055
 31
0.0
  0
LINE
  5
347
330
1F
100
AcDbEntity
  8
LAY-10
  6
CONTINUOUS
 62
     7
100
AcDbLine
 10
337.4999999999768
 20
1071.250000000055
 30
0.0
 11
342.4999999999768
 21
1071.250000000055
 31
0.0
  0
LINE
  5
348
330
1F
100
AcDbEntity
  8
LAY-10
  6
CONTINUOUS
 62
     7
100
AcDbLine
 10
337.4999999999768
 20
1071.750000000055
 30
0.0
 11
337.4999999999768
 21
1076.750000000055
 31
0.0
  0
LINE
  5
349
330
1F
100
AcDbEntity
  8
LAY-10
  6
CONTINUOUS
 62
     7
100
AcDbLine
 10
342.4999999999768
 20
1071.750000000055
 30
0.0
 11
337.4999999999768
 21
1071.750000000055
 31
0.0
  0
LINE
  5
34A
330
1F
100
AcDbEntity
  8
LAY-10
  6
CONTINUOUS
 62
     7
100
AcDbLine
 10
342.4999999999768
 20
1076.750000000055
 30
0.0
 11
337.4999999999768
 21
1076.750000000055
 31
0.0
  0
LINE
  5
34B
330
1F
100
AcDbEntity
  8
LAY-10
  6
CONTINUOUS
 62
     7
100
AcDbLine
 10
342.4999999999768
 20
1076.750000000055
 30
0.0
 11
342.4999999999768
 21
1071.750000000055
 31
0.0
  0
LINE
  5
34C
330
1F
100
AcDbEntity
  8
LAY-10
  6
CONTINUOUS
 62
     7
100
AcDbLine
 10
347.9999999999768
 20
1046.249999999855
 30
0.0
 11
347.9999999999768
 21
1051.249999999855
 31
0.0
  0
LINE
  5
34D
330
1F
100
AcDbEntity
  8
LAY-10
  6
CONTINUOUS
 62
     7
100
AcDbLine
 10
347.9999999999768
 20
1046.249999999855
 30
0.0
 11
342.9999999999768
 21
1046.249999999855
 31
0.0
  0
LINE
  5
34E
330
1F
100
AcDbEntity
  8
LAY-10
  6
CONTINUOUS
 62
     7
100
AcDbLine
 10
347.9999999999768
 20
1051.249999999855
 30
0.0
 11
342.9999999999768
 21
1051.249999999855
 31
0.0
  0
LINE
  5
34F
330
1F
100
AcDbEntity
  8
LAY-10
  6
CONTINUOUS
 62
     7
100
AcDbLine
 10
342.9999999999768
 20
1051.249999999855
 30
0.0
 11
342.9999999999768
 21
1046.249999999855
 31
0.0
  0
LINE
  5
350
330
1F
100
AcDbEntity
  8
LAY-10
  6
CONTINUOUS
 62
     7
100
AcDbLine
 10
342.9999999999768
 20
1051.749999999855
 30
0.0
 11
347.9999999999768
 21
1051.749999999855
 31
0.0
  0
LINE
  5
351
330
1F
100
AcDbEntity
  8
LAY-10
  6
CONTINUOUS
 62
     7
100
AcDbLine
 10
342.9999999999768
 20
1051.749999999855
 30
0.0
 11
342.9999999999768
 21
1056.749999999855
 31
0.0
  0
LINE
  5
352
330
1F
100
AcDbEntity
  8
LAY-10
  6
CONTINUOUS
 62
     7
100
AcDbLine
 10
347.9999999999768
 20
1051.749999999855
 30
0.0
 11
347.9999999999768
 21
1056.749999999855
 31
0.0
  0
LINE
  5
353
330
1F
100
AcDbEntity
  8
LAY-10
  6
CONTINUOUS
 62
     7
100
AcDbLine
 10
347.9999999999768
 20
1056.749999999855
 30
0.0
 11
342.9999999999768
 21
1056.749999999855
 31
0.0
  0
LINE
  5
354
330
1F
100
AcDbEntity
  8
LAY-10
  6
CONTINUOUS
 62
     7
100
AcDbLine
 10
347.9999999999768
 20
1046.249999999855
 30
0.0
 11
342.9999999999768
 21
1051.249999999855
 31
0.0
  0
LINE
  5
355
330
1F
100
AcDbEntity
  8
LAY-10
  6
CONTINUOUS
 62
     7
100
AcDbLine
 10
347.9999999999768
 20
1051.749999999855
 30
0.0
 11
342.9999999999768
 21
1056.749999999855
 31
0.0
  0
LINE
  5
356
330
1F
100
AcDbEntity
  8
LAY-10
  6
CONTINUOUS
 62
     7
100
AcDbLine
 10
342.9999999999768
 20
1046.249999999855
 30
0.0
 11
347.9999999999768
 21
1051.249999999855
 31
0.0
  0
LINE
  5
357
330
1F
100
AcDbEntity
  8
LAY-10
  6
CONTINUOUS
 62
     7
100
AcDbLine
 10
342.9999999999768
 20
1051.749999999855
 30
0.0
 11
347.9999999999768
 21
1056.749999999855
 31
0.0
  0
LINE
  5
358
330
1F
100
AcDbEntity
  8
LAY-10
  6
CONTINUOUS
 62
     7
100
AcDbLine
 10
337.4999999999768
 20
1051.749999999855
 30
0.0
 11
342.4999999999768
 21
1056.749999999855
 31
0.0
  0
LINE
  5
359
330
1F
100
AcDbEntity
  8
LAY-10
  6
CONTINUOUS
 62
     7
100
AcDbLine
 10
342.4999999999768
 20
1051.749999999855
 30
0.0
 11
337.4999999999768
 21
1056.749999999855
 31
0.0
  0
LINE
  5
35A
330
1F
100
AcDbEntity
  8
LAY-10
  6
CONTINUOUS
 62
     7
100
AcDbLine
 10
342.4999999999768
 20
1046.249999999855
 30
0.0
 11
337.4999999999768
 21
1051.249999999855
 31
0.0
  0
LINE
  5
35B
330
1F
100
AcDbEntity
  8
LAY-10
  6
CONTINUOUS
 62
     7
100
AcDbLine
 10
342.4999999999768
 20
1056.749999999855
 30
0.0
 11
337.4999999999768
 21
1056.749999999855
 31
0.0
  0
LINE
  5
35C
330
1F
100
AcDbEntity
  8
LAY-10
  6
CONTINUOUS
 62
     7
100
AcDbLine
 10
342.4999999999768
 20
1051.749999999855
 30
0.0
 11
342.4999999999768
 21
1056.749999999855
 31
0.0
  0
LINE
  5
35D
330
1F
100
AcDbEntity
  8
LAY-10
  6
CONTINUOUS
 62
     7
100
AcDbLine
 10
337.4999999999768
 20
1051.749999999855
 30
0.0
 11
337.4999999999768
 21
1056.749999999855
 31
0.0
  0
LINE
  5
35E
330
1F
100
AcDbEntity
  8
LAY-10
  6
CONTINUOUS
 62
     7
100
AcDbLine
 10
337.4999999999768
 20
1051.749999999855
 30
0.0
 11
342.4999999999768
 21
1051.749999999855
 31
0.0
  0
LINE
  5
35F
330
1F
100
AcDbEntity
  8
LAY-10
  6
CONTINUOUS
 62
     7
100
AcDbLine
 10
342.4999999999768
 20
1051.249999999855
 30
0.0
 11
337.4999999999768
 21
1051.249999999855
 31
0.0
  0
LINE
  5
360
330
1F
100
AcDbEntity
  8
LAY-10
  6
CONTINUOUS
 62
     7
100
AcDbLine
 10
342.4999999999768
 20
1046.249999999855
 30
0.0
 11
342.4999999999768
 21
1051.249999999855
 31
0.0
  0
LINE
  5
361
330
1F
100
AcDbEntity
  8
LAY-10
  6
CONTINUOUS
 62
     7
100
AcDbLine
 10
336.9999999999768
 20
1091.250000000045
 30
0.0
 11
336.9999999999768
 21
1086.250000000045
 31
0.0
  0
LINE
  5
362
330
1F
100
AcDbEntity
  8
LAY-10
  6
CONTINUOUS
 62
     7
100
AcDbLine
 10
336.9999999999768
 20
1086.250000000045
 30
0.0
 11
331.9999999999768
 21
1086.250000000045
 31
0.0
  0
LINE
  5
363
330
1F
100
AcDbEntity
  8
LAY-10
  6
CONTINUOUS
 62
     7
100
AcDbLine
 10
336.9999999999768
 20
1091.250000000045
 30
0.0
 11
331.9999999999768
 21
1086.250000000045
 31
0.0
  0
LINE
  5
364
330
1F
100
AcDbEntity
  8
LAY-10
  6
CONTINUOUS
 62
     7
100
AcDbLine
 10
336.9999999999768
 20
1076.750000000055
 30
0.0
 11
336.9999999999768
 21
1071.750000000055
 31
0.0
  0
LINE
  5
365
330
1F
100
AcDbEntity
  8
LAY-10
  6
CONTINUOUS
 62
     7
100
AcDbLine
 10
336.9999999999768
 20
1076.750000000055
 30
0.0
 11
331.9999999999768
 21
1076.750000000055
 31
0.0
  0
LINE
  5
366
330
1F
100
AcDbEntity
  8
LAY-10
  6
CONTINUOUS
 62
     7
100
AcDbLine
 10
336.9999999999768
 20
1071.750000000055
 30
0.0
 11
331.9999999999768
 21
1071.750000000055
 31
0.0
  0
LINE
  5
367
330
1F
100
AcDbEntity
  8
LAY-10
  6
CONTINUOUS
 62
     7
100
AcDbLine
 10
331.9999999999768
 20
1071.750000000055
 30
0.0
 11
331.9999999999768
 21
1076.750000000055
 31
0.0
  0
LINE
  5
368
330
1F
100
AcDbEntity
  8
LAY-10
  6
CONTINUOUS
 62
     7
100
AcDbLine
 10
331.4999999999768
 20
1076.750000000055
 30
0.0
 11
331.4999999999768
 21
1071.750000000055
 31
0.0
  0
LINE
  5
369
330
1F
100
AcDbEntity
  8
LAY-10
  6
CONTINUOUS
 62
     7
100
AcDbLine
 10
331.4999999999768
 20
1076.750000000055
 30
0.0
 11
326.4999999999768
 21
1076.750000000055
 31
0.0
  0
LINE
  5
36A
330
1F
100
AcDbEntity
  8
LAY-10
  6
CONTINUOUS
 62
     7
100
AcDbLine
 10
331.4999999999768
 20
1071.750000000055
 30
0.0
 11
326.4999999999768
 21
1071.750000000055
 31
0.0
  0
LINE
  5
36B
330
1F
100
AcDbEntity
  8
LAY-10
  6
CONTINUOUS
 62
     7
100
AcDbLine
 10
326.4999999999768
 20
1071.750000000055
 30
0.0
 11
326.4999999999768
 21
1076.750000000055
 31
0.0
  0
LINE
  5
36C
330
1F
100
AcDbEntity
  8
LAY-10
  6
CONTINUOUS
 62
     7
100
AcDbLine
 10
325.9999999999768
 20
1076.750000000055
 30
0.0
 11
325.9999999999768
 21
1071.750000000055
 31
0.0
  0
LINE
  5
36D
330
1F
100
AcDbEntity
  8
LAY-10
  6
CONTINUOUS
 62
     7
100
AcDbLine
 10
331.9999999999768
 20
1071.250000000055
 30
0.0
 11
336.9999999999768
 21
1071.250000000055
 31
0.0
  0
LINE
  5
36E
330
1F
100
AcDbEntity
  8
LAY-10
  6
CONTINUOUS
 62
     7
100
AcDbLine
 10
331.9999999999768
 20
1071.250000000055
 30
0.0
 11
331.9999999999768
 21
1066.250000000055
 31
0.0
  0
LINE
  5
36F
330
1F
100
AcDbEntity
  8
LAY-10
  6
CONTINUOUS
 62
     7
100
AcDbLine
 10
336.9999999999768
 20
1071.250000000055
 30
0.0
 11
336.9999999999768
 21
1066.250000000055
 31
0.0
  0
LINE
  5
370
330
1F
100
AcDbEntity
  8
LAY-10
  6
CONTINUOUS
 62
     7
100
AcDbLine
 10
336.9999999999768
 20
1066.250000000055
 30
0.0
 11
331.9999999999768
 21
1066.250000000055
 31
0.0
  0
LINE
  5
371
330
1F
100
AcDbEntity
  8
LAY-10
  6
CONTINUOUS
 62
     7
100
AcDbLine
 10
326.4999999999768
 20
1071.250000000055
 30
0.0
 11
331.4999999999768
 21
1071.250000000055
 31
0.0
  0
LINE
  5
372
330
1F
100
AcDbEntity
  8
LAY-10
  6
CONTINUOUS
 62
     7
100
AcDbLine
 10
326.4999999999768
 20
1071.250000000055
 30
0.0
 11
326.4999999999768
 21
1066.250000000055
 31
0.0
  0
LINE
  5
373
330
1F
100
AcDbEntity
  8
LAY-10
  6
CONTINUOUS
 62
     7
100
AcDbLine
 10
331.4999999999768
 20
1071.250000000055
 30
0.0
 11
331.4999999999768
 21
1066.250000000055
 31
0.0
  0
LINE
  5
374
330
1F
100
AcDbEntity
  8
LAY-10
  6
CONTINUOUS
 62
     7
100
AcDbLine
 10
331.4999999999768
 20
1066.250000000055
 30
0.0
 11
326.4999999999768
 21
1066.250000000055
 31
0.0
  0
LINE
  5
375
330
1F
100
AcDbEntity
  8
LAY-10
  6
CONTINUOUS
 62
     7
100
AcDbLine
 10
325.9999999999768
 20
1071.250000000055
 30
0.0
 11
325.9999999999768
 21
1066.250000000055
 31
0.0
  0
LINE
  5
376
330
1F
100
AcDbEntity
  8
LAY-10
  6
CONTINUOUS
 62
     7
100
AcDbLine
 10
336.9999999999768
 20
1076.750000000055
 30
0.0
 11
331.9999999999768
 21
1071.750000000055
 31
0.0
  0
LINE
  5
377
330
1F
100
AcDbEntity
  8
LAY-10
  6
CONTINUOUS
 62
     7
100
AcDbLine
 10
331.4999999999768
 20
1076.750000000055
 30
0.0
 11
326.4999999999768
 21
1071.750000000055
 31
0.0
  0
LINE
  5
378
330
1F
100
AcDbEntity
  8
LAY-10
  6
CONTINUOUS
 62
     7
100
AcDbLine
 10
336.9999999999768
 20
1071.250000000055
 30
0.0
 11
331.9999999999768
 21
1066.250000000055
 31
0.0
  0
LINE
  5
379
330
1F
100
AcDbEntity
  8
LAY-10
  6
CONTINUOUS
 62
     7
100
AcDbLine
 10
331.4999999999768
 20
1071.250000000055
 30
0.0
 11
326.4999999999768
 21
1066.250000000055
 31
0.0
  0
LINE
  5
37A
330
1F
100
AcDbEntity
  8
LAY-10
  6
CONTINUOUS
 62
     7
100
AcDbLine
 10
331.9999999999768
 20
1076.750000000055
 30
0.0
 11
336.9999999999768
 21
1071.750000000055
 31
0.0
  0
LINE
  5
37B
330
1F
100
AcDbEntity
  8
LAY-10
  6
CONTINUOUS
 62
     7
100
AcDbLine
 10
326.4999999999768
 20
1076.750000000055
 30
0.0
 11
331.4999999999768
 21
1071.750000000055
 31
0.0
  0
LINE
  5
37C
330
1F
100
AcDbEntity
  8
LAY-10
  6
CONTINUOUS
 62
     7
100
AcDbLine
 10
326.4999999999768
 20
1071.250000000055
 30
0.0
 11
331.4999999999768
 21
1066.250000000055
 31
0.0
  0
LINE
  5
37D
330
1F
100
AcDbEntity
  8
LAY-10
  6
CONTINUOUS
 62
     7
100
AcDbLine
 10
331.9999999999768
 20
1071.250000000055
 30
0.0
 11
336.9999999999768
 21
1066.250000000055
 31
0.0
  0
LINE
  5
37E
330
1F
100
AcDbEntity
  8
LAY-10
  6
CONTINUOUS
 62
     7
100
AcDbLine
 10
331.9999999999768
 20
1051.749999999855
 30
0.0
 11
336.9999999999768
 21
1051.749999999855
 31
0.0
  0
LINE
  5
37F
330
1F
100
AcDbEntity
  8
LAY-10
  6
CONTINUOUS
 62
     7
100
AcDbLine
 10
331.9999999999768
 20
1051.749999999855
 30
0.0
 11
331.9999999999768
 21
1056.749999999855
 31
0.0
  0
LINE
  5
380
330
1F
100
AcDbEntity
  8
LAY-10
  6
CONTINUOUS
 62
     7
100
AcDbLine
 10
336.9999999999768
 20
1051.749999999855
 30
0.0
 11
336.9999999999768
 21
1056.749999999855
 31
0.0
  0
LINE
  5
381
330
1F
100
AcDbEntity
  8
LAY-10
  6
CONTINUOUS
 62
     7
100
AcDbLine
 10
336.9999999999768
 20
1056.749999999855
 30
0.0
 11
331.9999999999768
 21
1056.749999999855
 31
0.0
  0
LINE
  5
382
330
1F
100
AcDbEntity
  8
LAY-10
  6
CONTINUOUS
 62
     7
100
AcDbLine
 10
336.9999999999768
 20
1051.749999999855
 30
0.0
 11
331.9999999999768
 21
1056.749999999855
 31
0.0
  0
LINE
  5
383
330
1F
100
AcDbEntity
  8
LAY-10
  6
CONTINUOUS
 62
     7
100
AcDbLine
 10
331.9999999999768
 20
1051.749999999855
 30
0.0
 11
336.9999999999768
 21
1056.749999999855
 31
0.0
  0
LINE
  5
384
330
1F
100
AcDbEntity
  8
LAY-10
  6
CONTINUOUS
 62
     7
100
AcDbLine
 10
369.9999999999768
 20
1051.249999999855
 30
0.0
 11
364.9999999999768
 21
1051.249999999855
 31
0.0
  0
LINE
  5
385
330
1F
100
AcDbEntity
  8
LAY-10
  6
CONTINUOUS
 62
     7
100
AcDbLine
 10
364.9999999999768
 20
1051.249999999855
 30
0.0
 11
364.9999999999768
 21
1046.249999999855
 31
0.0
  0
LINE
  5
386
330
1F
100
AcDbEntity
  8
LAY-10
  6
CONTINUOUS
 62
     7
100
AcDbLine
 10
370.4999999999768
 20
1051.749999999855
 30
0.0
 11
370.4999999999768
 21
1056.749999999855
 31
0.0
  0
LINE
  5
387
330
1F
100
AcDbEntity
  8
LAY-10
  6
CONTINUOUS
 62
     7
100
AcDbLine
 10
375.4999999999768
 20
1056.749999999855
 30
0.0
 11
370.4999999999768
 21
1056.749999999855
 31
0.0
  0
LINE
  5
388
330
1F
100
AcDbEntity
  8
LAY-10
  6
CONTINUOUS
 62
     7
100
AcDbLine
 10
364.9999999999768
 20
1051.749999999855
 30
0.0
 11
369.9999999999768
 21
1051.749999999855
 31
0.0
  0
LINE
  5
389
330
1F
100
AcDbEntity
  8
LAY-10
  6
CONTINUOUS
 62
     7
100
AcDbLine
 10
364.9999999999768
 20
1051.749999999855
 30
0.0
 11
364.9999999999768
 21
1056.749999999855
 31
0.0
  0
LINE
  5
38A
330
1F
100
AcDbEntity
  8
LAY-10
  6
CONTINUOUS
 62
     7
100
AcDbLine
 10
369.9999999999768
 20
1051.749999999855
 30
0.0
 11
369.9999999999768
 21
1056.749999999855
 31
0.0
  0
LINE
  5
38B
330
1F
100
AcDbEntity
  8
LAY-10
  6
CONTINUOUS
 62
     7
100
AcDbLine
 10
369.9999999999768
 20
1056.749999999855
 30
0.0
 11
364.9999999999768
 21
1056.749999999855
 31
0.0
  0
LINE
  5
38C
330
1F
100
AcDbEntity
  8
LAY-10
  6
CONTINUOUS
 62
     7
100
AcDbLine
 10
369.9999999999768
 20
1051.749999999855
 30
0.0
 11
364.9999999999768
 21
1056.749999999855
 31
0.0
  0
LINE
  5
38D
330
1F
100
AcDbEntity
  8
LAY-10
  6
CONTINUOUS
 62
     7
100
AcDbLine
 10
364.9999999999768
 20
1046.249999999855
 30
0.0
 11
369.9999999999768
 21
1051.249999999855
 31
0.0
  0
LINE
  5
38E
330
1F
100
AcDbEntity
  8
LAY-10
  6
CONTINUOUS
 62
     7
100
AcDbLine
 10
364.9999999999768
 20
1051.749999999855
 30
0.0
 11
369.9999999999768
 21
1056.749999999855
 31
0.0
  0
LINE
  5
38F
330
1F
100
AcDbEntity
  8
LAY-10
  6
CONTINUOUS
 62
     7
100
AcDbLine
 10
370.4999999999768
 20
1051.749999999855
 30
0.0
 11
375.4999999999768
 21
1056.749999999855
 31
0.0
  0
LINE
  5
390
330
1F
100
AcDbEntity
  8
LAY-10
  6
CONTINUOUS
 62
     7
100
AcDbLine
 10
359.4999999999768
 20
1051.749999999855
 30
0.0
 11
364.4999999999768
 21
1056.749999999855
 31
0.0
  0
LINE
  5
391
330
1F
100
AcDbEntity
  8
LAY-10
  6
CONTINUOUS
 62
     7
100
AcDbLine
 10
359.4999999999768
 20
1046.249999999855
 30
0.0
 11
364.4999999999768
 21
1051.249999999855
 31
0.0
  0
LINE
  5
392
330
1F
100
AcDbEntity
  8
LAY-10
  6
CONTINUOUS
 62
     7
100
AcDbLine
 10
364.4999999999768
 20
1051.749999999855
 30
0.0
 11
359.4999999999768
 21
1056.749999999855
 31
0.0
  0
LINE
  5
393
330
1F
100
AcDbEntity
  8
LAY-10
  6
CONTINUOUS
 62
     7
100
AcDbLine
 10
364.4999999999768
 20
1046.249999999855
 30
0.0
 11
359.4999999999768
 21
1051.249999999855
 31
0.0
  0
LINE
  5
394
330
1F
100
AcDbEntity
  8
LAY-10
  6
CONTINUOUS
 62
     7
100
AcDbLine
 10
364.4999999999768
 20
1056.749999999855
 30
0.0
 11
359.4999999999768
 21
1056.749999999855
 31
0.0
  0
LINE
  5
395
330
1F
100
AcDbEntity
  8
LAY-10
  6
CONTINUOUS
 62
     7
100
AcDbLine
 10
364.4999999999768
 20
1051.749999999855
 30
0.0
 11
364.4999999999768
 21
1056.749999999855
 31
0.0
  0
LINE
  5
396
330
1F
100
AcDbEntity
  8
LAY-10
  6
CONTINUOUS
 62
     7
100
AcDbLine
 10
359.4999999999768
 20
1051.749999999855
 30
0.0
 11
359.4999999999768
 21
1056.749999999855
 31
0.0
  0
LINE
  5
397
330
1F
100
AcDbEntity
  8
LAY-10
  6
CONTINUOUS
 62
     7
100
AcDbLine
 10
359.4999999999768
 20
1051.749999999855
 30
0.0
 11
364.4999999999768
 21
1051.749999999855
 31
0.0
  0
LINE
  5
398
330
1F
100
AcDbEntity
  8
LAY-10
  6
CONTINUOUS
 62
     7
100
AcDbLine
 10
359.4999999999768
 20
1051.249999999855
 30
0.0
 11
359.4999999999768
 21
1046.249999999855
 31
0.0
  0
LINE
  5
399
330
1F
100
AcDbEntity
  8
LAY-10
  6
CONTINUOUS
 62
     7
100
AcDbLine
 10
364.4999999999768
 20
1051.249999999855
 30
0.0
 11
359.4999999999768
 21
1051.249999999855
 31
0.0
  0
LINE
  5
39A
330
1F
100
AcDbEntity
  8
LAY-10
  6
CONTINUOUS
 62
     7
100
AcDbLine
 10
364.4999999999768
 20
1046.249999999855
 30
0.0
 11
359.4999999999768
 21
1046.249999999855
 31
0.0
  0
LINE
  5
39B
330
1F
100
AcDbEntity
  8
LAY-10
  6
CONTINUOUS
 62
     7
100
AcDbLine
 10
364.4999999999768
 20
1046.249999999855
 30
0.0
 11
364.4999999999768
 21
1051.249999999855
 31
0.0
  0
LINE
  5
39C
330
1F
100
AcDbEntity
  8
LAY-10
  6
CONTINUOUS
 62
     7
100
AcDbLine
 10
358.9999999999768
 20
1046.249999999855
 30
0.0
 11
358.9999999999768
 21
1051.249999999855
 31
0.0
  0
LINE
  5
39D
330
1F
100
AcDbEntity
  8
LAY-10
  6
CONTINUOUS
 62
     7
100
AcDbLine
 10
358.9999999999768
 20
1046.249999999855
 30
0.0
 11
353.9999999999768
 21
1046.249999999855
 31
0.0
  0
LINE
  5
39E
330
1F
100
AcDbEntity
  8
LAY-10
  6
CONTINUOUS
 62
     7
100
AcDbLine
 10
358.9999999999768
 20
1051.249999999855
 30
0.0
 11
353.9999999999768
 21
1051.249999999855
 31
0.0
  0
LINE
  5
39F
330
1F
100
AcDbEntity
  8
LAY-10
  6
CONTINUOUS
 62
     7
100
AcDbLine
 10
353.9999999999768
 20
1051.249999999855
 30
0.0
 11
353.9999999999768
 21
1046.249999999855
 31
0.0
  0
LINE
  5
3A0
330
1F
100
AcDbEntity
  8
LAY-10
  6
CONTINUOUS
 62
     7
100
AcDbLine
 10
353.4999999999768
 20
1046.249999999855
 30
0.0
 11
353.4999999999768
 21
1051.249999999855
 31
0.0
  0
LINE
  5
3A1
330
1F
100
AcDbEntity
  8
LAY-10
  6
CONTINUOUS
 62
     7
100
AcDbLine
 10
353.4999999999768
 20
1046.249999999855
 30
0.0
 11
348.4999999999768
 21
1046.249999999855
 31
0.0
  0
LINE
  5
3A2
330
1F
100
AcDbEntity
  8
LAY-10
  6
CONTINUOUS
 62
     7
100
AcDbLine
 10
353.4999999999768
 20
1051.249999999855
 30
0.0
 11
348.4999999999768
 21
1051.249999999855
 31
0.0
  0
LINE
  5
3A3
330
1F
100
AcDbEntity
  8
LAY-10
  6
CONTINUOUS
 62
     7
100
AcDbLine
 10
348.4999999999768
 20
1051.249999999855
 30
0.0
 11
348.4999999999768
 21
1046.249999999855
 31
0.0
  0
LINE
  5
3A4
330
1F
100
AcDbEntity
  8
LAY-10
  6
CONTINUOUS
 62
     7
100
AcDbLine
 10
353.9999999999768
 20
1051.749999999855
 30
0.0
 11
358.9999999999768
 21
1051.749999999855
 31
0.0
  0
LINE
  5
3A5
330
1F
100
AcDbEntity
  8
LAY-10
  6
CONTINUOUS
 62
     7
100
AcDbLine
 10
353.9999999999768
 20
1051.749999999855
 30
0.0
 11
353.9999999999768
 21
1056.749999999855
 31
0.0
  0
LINE
  5
3A6
330
1F
100
AcDbEntity
  8
LAY-10
  6
CONTINUOUS
 62
     7
100
AcDbLine
 10
358.9999999999768
 20
1051.749999999855
 30
0.0
 11
358.9999999999768
 21
1056.749999999855
 31
0.0
  0
LINE
  5
3A7
330
1F
100
AcDbEntity
  8
LAY-10
  6
CONTINUOUS
 62
     7
100
AcDbLine
 10
358.9999999999768
 20
1056.749999999855
 30
0.0
 11
353.9999999999768
 21
1056.749999999855
 31
0.0
  0
LINE
  5
3A8
330
1F
100
AcDbEntity
  8
LAY-10
  6
CONTINUOUS
 62
     7
100
AcDbLine
 10
348.4999999999768
 20
1051.749999999855
 30
0.0
 11
353.4999999999768
 21
1051.749999999855
 31
0.0
  0
LINE
  5
3A9
330
1F
100
AcDbEntity
  8
LAY-10
  6
CONTINUOUS
 62
     7
100
AcDbLine
 10
348.4999999999768
 20
1051.749999999855
 30
0.0
 11
348.4999999999768
 21
1056.749999999855
 31
0.0
  0
LINE
  5
3AA
330
1F
100
AcDbEntity
  8
LAY-10
  6
CONTINUOUS
 62
     7
100
AcDbLine
 10
353.4999999999768
 20
1051.749999999855
 30
0.0
 11
353.4999999999768
 21
1056.749999999855
 31
0.0
  0
LINE
  5
3AB
330
1F
100
AcDbEntity
  8
LAY-10
  6
CONTINUOUS
 62
     7
100
AcDbLine
 10
353.4999999999768
 20
1056.749999999855
 30
0.0
 11
348.4999999999768
 21
1056.749999999855
 31
0.0
  0
LINE
  5
3AC
330
1F
100
AcDbEntity
  8
LAY-10
  6
CONTINUOUS
 62
     7
100
AcDbLine
 10
358.9999999999768
 20
1046.249999999855
 30
0.0
 11
353.9999999999768
 21
1051.249999999855
 31
0.0
  0
LINE
  5
3AD
330
1F
100
AcDbEntity
  8
LAY-10
  6
CONTINUOUS
 62
     7
100
AcDbLine
 10
353.4999999999768
 20
1046.249999999855
 30
0.0
 11
348.4999999999768
 21
1051.249999999855
 31
0.0
  0
LINE
  5
3AE
330
1F
100
AcDbEntity
  8
LAY-10
  6
CONTINUOUS
 62
     7
100
AcDbLine
 10
358.9999999999768
 20
1051.749999999855
 30
0.0
 11
353.9999999999768
 21
1056.749999999855
 31
0.0
  0
LINE
  5
3AF
330
1F
100
AcDbEntity
  8
LAY-10
  6
CONTINUOUS
 62
     7
100
AcDbLine
 10
353.4999999999768
 20
1051.749999999855
 30
0.0
 11
348.4999999999768
 21
1056.749999999855
 31
0.0
  0
LINE
  5
3B0
330
1F
100
AcDbEntity
  8
LAY-10
  6
CONTINUOUS
 62
     7
100
AcDbLine
 10
353.9999999999768
 20
1046.249999999855
 30
0.0
 11
358.9999999999768
 21
1051.249999999855
 31
0.0
  0
LINE
  5
3B1
330
1F
100
AcDbEntity
  8
LAY-10
  6
CONTINUOUS
 62
     7
100
AcDbLine
 10
348.4999999999768
 20
1046.249999999855
 30
0.0
 11
353.4999999999768
 21
1051.249999999855
 31
0.0
  0
LINE
  5
3B2
330
1F
100
AcDbEntity
  8
LAY-10
  6
CONTINUOUS
 62
     7
100
AcDbLine
 10
348.4999999999768
 20
1051.749999999855
 30
0.0
 11
353.4999999999768
 21
1056.749999999855
 31
0.0
  0
LINE
  5
3B3
330
1F
100
AcDbEntity
  8
LAY-10
  6
CONTINUOUS
 62
     7
100
AcDbLine
 10
353.9999999999768
 20
1051.749999999855
 30
0.0
 11
358.9999999999768
 21
1056.749999999855
 31
0.0
  0
LINE
  5
3B4
330
1F
100
AcDbEntity
  8
LAY-10
  6
CONTINUOUS
 62
     7
100
AcDbLine
 10
380.9999999999768
 20
1066.250000000055
 30
0.0
 11
380.9999999999768
 21
1071.250000000055
 31
0.0
  0
LINE
  5
3B5
330
1F
100
AcDbEntity
  8
LAY-10
  6
CONTINUOUS
 62
     7
100
AcDbLine
 10
380.9999999999768
 20
1066.250000000055
 30
0.0
 11
375.9999999999768
 21
1066.250000000055
 31
0.0
  0
LINE
  5
3B6
330
1F
100
AcDbEntity
  8
LAY-10
  6
CONTINUOUS
 62
     7
100
AcDbLine
 10
380.9999999999768
 20
1071.250000000055
 30
0.0
 11
375.9999999999768
 21
1071.250000000055
 31
0.0
  0
LINE
  5
3B7
330
1F
100
AcDbEntity
  8
LAY-10
  6
CONTINUOUS
 62
     7
100
AcDbLine
 10
375.9999999999768
 20
1071.250000000055
 30
0.0
 11
375.9999999999768
 21
1066.250000000055
 31
0.0
  0
LINE
  5
3B8
330
1F
100
AcDbEntity
  8
LAY-10
  6
CONTINUOUS
 62
     7
100
AcDbLine
 10
375.4999999999768
 20
1066.250000000055
 30
0.0
 11
375.4999999999768
 21
1071.250000000055
 31
0.0
  0
LINE
  5
3B9
330
1F
100
AcDbEntity
  8
LAY-10
  6
CONTINUOUS
 62
     7
100
AcDbLine
 10
375.4999999999768
 20
1066.250000000055
 30
0.0
 11
370.4999999999768
 21
1066.250000000055
 31
0.0
  0
LINE
  5
3BA
330
1F
100
AcDbEntity
  8
LAY-10
  6
CONTINUOUS
 62
     7
100
AcDbLine
 10
375.4999999999768
 20
1071.250000000055
 30
0.0
 11
370.4999999999768
 21
1071.250000000055
 31
0.0
  0
LINE
  5
3BB
330
1F
100
AcDbEntity
  8
LAY-10
  6
CONTINUOUS
 62
     7
100
AcDbLine
 10
370.4999999999768
 20
1071.250000000055
 30
0.0
 11
370.4999999999768
 21
1066.250000000055
 31
0.0
  0
LINE
  5
3BC
330
1F
100
AcDbEntity
  8
LAY-10
  6
CONTINUOUS
 62
     7
100
AcDbLine
 10
369.9999999999768
 20
1066.250000000055
 30
0.0
 11
369.9999999999768
 21
1071.250000000055
 31
0.0
  0
LINE
  5
3BD
330
1F
100
AcDbEntity
  8
LAY-10
  6
CONTINUOUS
 62
     7
100
AcDbLine
 10
369.9999999999768
 20
1066.250000000055
 30
0.0
 11
364.9999999999768
 21
1066.250000000055
 31
0.0
  0
LINE
  5
3BE
330
1F
100
AcDbEntity
  8
LAY-10
  6
CONTINUOUS
 62
     7
100
AcDbLine
 10
369.9999999999768
 20
1071.250000000055
 30
0.0
 11
364.9999999999768
 21
1071.250000000055
 31
0.0
  0
LINE
  5
3BF
330
1F
100
AcDbEntity
  8
LAY-10
  6
CONTINUOUS
 62
     7
100
AcDbLine
 10
364.9999999999768
 20
1071.250000000055
 30
0.0
 11
364.9999999999768
 21
1066.250000000055
 31
0.0
  0
LINE
  5
3C0
330
1F
100
AcDbEntity
  8
LAY-10
  6
CONTINUOUS
 62
     7
100
AcDbLine
 10
375.9999999999768
 20
1071.750000000055
 30
0.0
 11
380.9999999999768
 21
1071.750000000055
 31
0.0
  0
LINE
  5
3C1
330
1F
100
AcDbEntity
  8
LAY-10
  6
CONTINUOUS
 62
     7
100
AcDbLine
 10
375.9999999999768
 20
1071.750000000055
 30
0.0
 11
375.9999999999768
 21
1076.750000000055
 31
0.0
  0
LINE
  5
3C2
330
1F
100
AcDbEntity
  8
LAY-10
  6
CONTINUOUS
 62
     7
100
AcDbLine
 10
370.4999999999768
 20
1071.750000000055
 30
0.0
 11
375.4999999999768
 21
1071.750000000055
 31
0.0
  0
LINE
  5
3C3
330
1F
100
AcDbEntity
  8
LAY-10
  6
CONTINUOUS
 62
     7
100
AcDbLine
 10
370.4999999999768
 20
1071.750000000055
 30
0.0
 11
370.4999999999768
 21
1076.750000000055
 31
0.0
  0
LINE
  5
3C4
330
1F
100
AcDbEntity
  8
LAY-10
  6
CONTINUOUS
 62
     7
100
AcDbLine
 10
375.4999999999768
 20
1071.750000000055
 30
0.0
 11
375.4999999999768
 21
1076.750000000055
 31
0.0
  0
LINE
  5
3C5
330
1F
100
AcDbEntity
  8
LAY-10
  6
CONTINUOUS
 62
     7
100
AcDbLine
 10
375.4999999999768
 20
1076.750000000055
 30
0.0
 11
370.4999999999768
 21
1076.750000000055
 31
0.0
  0
LINE
  5
3C6
330
1F
100
AcDbEntity
  8
LAY-10
  6
CONTINUOUS
 62
     7
100
AcDbLine
 10
364.9999999999768
 20
1071.750000000055
 30
0.0
 11
369.9999999999768
 21
1071.750000000055
 31
0.0
  0
LINE
  5
3C7
330
1F
100
AcDbEntity
  8
LAY-10
  6
CONTINUOUS
 62
     7
100
AcDbLine
 10
364.9999999999768
 20
1071.750000000055
 30
0.0
 11
364.9999999999768
 21
1076.750000000055
 31
0.0
  0
LINE
  5
3C8
330
1F
100
AcDbEntity
  8
LAY-10
  6
CONTINUOUS
 62
     7
100
AcDbLine
 10
369.9999999999768
 20
1071.750000000055
 30
0.0
 11
369.9999999999768
 21
1076.750000000055
 31
0.0
  0
LINE
  5
3C9
330
1F
100
AcDbEntity
  8
LAY-10
  6
CONTINUOUS
 62
     7
100
AcDbLine
 10
369.9999999999768
 20
1076.750000000055
 30
0.0
 11
364.9999999999768
 21
1076.750000000055
 31
0.0
  0
LINE
  5
3CA
330
1F
100
AcDbEntity
  8
LAY-10
  6
CONTINUOUS
 62
     7
100
AcDbLine
 10
380.9999999999768
 20
1066.250000000055
 30
0.0
 11
375.9999999999768
 21
1071.250000000055
 31
0.0
  0
LINE
  5
3CB
330
1F
100
AcDbEntity
  8
LAY-10
  6
CONTINUOUS
 62
     7
100
AcDbLine
 10
375.4999999999768
 20
1066.250000000055
 30
0.0
 11
370.4999999999768
 21
1071.250000000055
 31
0.0
  0
LINE
  5
3CC
330
1F
100
AcDbEntity
  8
LAY-10
  6
CONTINUOUS
 62
     7
100
AcDbLine
 10
369.9999999999768
 20
1066.250000000055
 30
0.0
 11
364.9999999999768
 21
1071.250000000055
 31
0.0
  0
LINE
  5
3CD
330
1F
100
AcDbEntity
  8
LAY-10
  6
CONTINUOUS
 62
     7
100
AcDbLine
 10
380.9999999999768
 20
1071.750000000055
 30
0.0
 11
375.9999999999768
 21
1076.750000000055
 31
0.0
  0
LINE
  5
3CE
330
1F
100
AcDbEntity
  8
LAY-10
  6
CONTINUOUS
 62
     7
100
AcDbLine
 10
375.4999999999768
 20
1071.750000000055
 30
0.0
 11
370.4999999999768
 21
1076.750000000055
 31
0.0
  0
LINE
  5
3CF
330
1F
100
AcDbEntity
  8
LAY-10
  6
CONTINUOUS
 62
     7
100
AcDbLine
 10
369.9999999999768
 20
1071.750000000055
 30
0.0
 11
364.9999999999768
 21
1076.750000000055
 31
0.0
  0
LINE
  5
3D0
330
1F
100
AcDbEntity
  8
LAY-10
  6
CONTINUOUS
 62
     7
100
AcDbLine
 10
375.9999999999768
 20
1066.250000000055
 30
0.0
 11
380.9999999999768
 21
1071.250000000055
 31
0.0
  0
LINE
  5
3D1
330
1F
100
AcDbEntity
  8
LAY-10
  6
CONTINUOUS
 62
     7
100
AcDbLine
 10
370.4999999999768
 20
1066.250000000055
 30
0.0
 11
375.4999999999768
 21
1071.250000000055
 31
0.0
  0
LINE
  5
3D2
330
1F
100
AcDbEntity
  8
LAY-10
  6
CONTINUOUS
 62
     7
100
AcDbLine
 10
364.9999999999768
 20
1066.250000000055
 30
0.0
 11
369.9999999999768
 21
1071.250000000055
 31
0.0
  0
LINE
  5
3D3
330
1F
100
AcDbEntity
  8
LAY-10
  6
CONTINUOUS
 62
     7
100
AcDbLine
 10
364.9999999999768
 20
1071.750000000055
 30
0.0
 11
369.9999999999768
 21
1076.750000000055
 31
0.0
  0
LINE
  5
3D4
330
1F
100
AcDbEntity
  8
LAY-10
  6
CONTINUOUS
 62
     7
100
AcDbLine
 10
370.4999999999768
 20
1071.750000000055
 30
0.0
 11
375.4999999999768
 21
1076.750000000055
 31
0.0
  0
LINE
  5
3D5
330
1F
100
AcDbEntity
  8
LAY-10
  6
CONTINUOUS
 62
     7
100
AcDbLine
 10
359.4999999999768
 20
1071.750000000055
 30
0.0
 11
364.4999999999768
 21
1076.750000000055
 31
0.0
  0
LINE
  5
3D6
330
1F
100
AcDbEntity
  8
LAY-10
  6
CONTINUOUS
 62
     7
100
AcDbLine
 10
359.4999999999768
 20
1066.250000000055
 30
0.0
 11
364.4999999999768
 21
1071.250000000055
 31
0.0
  0
LINE
  5
3D7
330
1F
100
AcDbEntity
  8
LAY-10
  6
CONTINUOUS
 62
     7
100
AcDbLine
 10
364.4999999999768
 20
1071.750000000055
 30
0.0
 11
359.4999999999768
 21
1076.750000000055
 31
0.0
  0
LINE
  5
3D8
330
1F
100
AcDbEntity
  8
LAY-10
  6
CONTINUOUS
 62
     7
100
AcDbLine
 10
364.4999999999768
 20
1066.250000000055
 30
0.0
 11
359.4999999999768
 21
1071.250000000055
 31
0.0
  0
LINE
  5
3D9
330
1F
100
AcDbEntity
  8
LAY-10
  6
CONTINUOUS
 62
     7
100
AcDbLine
 10
364.4999999999768
 20
1076.750000000055
 30
0.0
 11
359.4999999999768
 21
1076.750000000055
 31
0.0
  0
LINE
  5
3DA
330
1F
100
AcDbEntity
  8
LAY-10
  6
CONTINUOUS
 62
     7
100
AcDbLine
 10
364.4999999999768
 20
1071.750000000055
 30
0.0
 11
364.4999999999768
 21
1076.750000000055
 31
0.0
  0
LINE
  5
3DB
330
1F
100
AcDbEntity
  8
LAY-10
  6
CONTINUOUS
 62
     7
100
AcDbLine
 10
359.4999999999768
 20
1071.750000000055
 30
0.0
 11
359.4999999999768
 21
1076.750000000055
 31
0.0
  0
LINE
  5
3DC
330
1F
100
AcDbEntity
  8
LAY-10
  6
CONTINUOUS
 62
     7
100
AcDbLine
 10
359.4999999999768
 20
1071.750000000055
 30
0.0
 11
364.4999999999768
 21
1071.750000000055
 31
0.0
  0
LINE
  5
3DD
330
1F
100
AcDbEntity
  8
LAY-10
  6
CONTINUOUS
 62
     7
100
AcDbLine
 10
359.4999999999768
 20
1071.250000000055
 30
0.0
 11
359.4999999999768
 21
1066.250000000055
 31
0.0
  0
LINE
  5
3DE
330
1F
100
AcDbEntity
  8
LAY-10
  6
CONTINUOUS
 62
     7
100
AcDbLine
 10
364.4999999999768
 20
1071.250000000055
 30
0.0
 11
359.4999999999768
 21
1071.250000000055
 31
0.0
  0
LINE
  5
3DF
330
1F
100
AcDbEntity
  8
LAY-10
  6
CONTINUOUS
 62
     7
100
AcDbLine
 10
364.4999999999768
 20
1066.250000000055
 30
0.0
 11
359.4999999999768
 21
1066.250000000055
 31
0.0
  0
LINE
  5
3E0
330
1F
100
AcDbEntity
  8
LAY-10
  6
CONTINUOUS
 62
     7
100
AcDbLine
 10
364.4999999999768
 20
1066.250000000055
 30
0.0
 11
364.4999999999768
 21
1071.250000000055
 31
0.0
  0
LINE
  5
3E1
330
1F
100
AcDbEntity
  8
LAY-10
  6
CONTINUOUS
 62
     7
100
AcDbLine
 10
358.9999999999768
 20
1066.250000000055
 30
0.0
 11
358.9999999999768
 21
1071.250000000055
 31
0.0
  0
LINE
  5
3E2
330
1F
100
AcDbEntity
  8
LAY-10
  6
CONTINUOUS
 62
     7
100
AcDbLine
 10
358.9999999999768
 20
1066.250000000055
 30
0.0
 11
353.9999999999768
 21
1066.250000000055
 31
0.0
  0
LINE
  5
3E3
330
1F
100
AcDbEntity
  8
LAY-10
  6
CONTINUOUS
 62
     7
100
AcDbLine
 10
358.9999999999768
 20
1071.250000000055
 30
0.0
 11
353.9999999999768
 21
1071.250000000055
 31
0.0
  0
LINE
  5
3E4
330
1F
100
AcDbEntity
  8
LAY-10
  6
CONTINUOUS
 62
     7
100
AcDbLine
 10
353.9999999999768
 20
1071.250000000055
 30
0.0
 11
353.9999999999768
 21
1066.250000000055
 31
0.0
  0
LINE
  5
3E5
330
1F
100
AcDbEntity
  8
LAY-10
  6
CONTINUOUS
 62
     7
100
AcDbLine
 10
353.4999999999768
 20
1066.250000000055
 30
0.0
 11
353.4999999999768
 21
1071.250000000055
 31
0.0
  0
LINE
  5
3E6
330
1F
100
AcDbEntity
  8
LAY-10
  6
CONTINUOUS
 62
     7
100
AcDbLine
 10
353.4999999999768
 20
1066.250000000055
 30
0.0
 11
348.4999999999768
 21
1066.250000000055
 31
0.0
  0
LINE
  5
3E7
330
1F
100
AcDbEntity
  8
LAY-10
  6
CONTINUOUS
 62
     7
100
AcDbLine
 10
353.4999999999768
 20
1071.250000000055
 30
0.0
 11
348.4999999999768
 21
1071.250000000055
 31
0.0
  0
LINE
  5
3E8
330
1F
100
AcDbEntity
  8
LAY-10
  6
CONTINUOUS
 62
     7
100
AcDbLine
 10
348.4999999999768
 20
1071.250000000055
 30
0.0
 11
348.4999999999768
 21
1066.250000000055
 31
0.0
  0
LINE
  5
3E9
330
1F
100
AcDbEntity
  8
LAY-10
  6
CONTINUOUS
 62
     7
100
AcDbLine
 10
353.9999999999768
 20
1071.750000000055
 30
0.0
 11
358.9999999999768
 21
1071.750000000055
 31
0.0
  0
LINE
  5
3EA
330
1F
100
AcDbEntity
  8
LAY-10
  6
CONTINUOUS
 62
     7
100
AcDbLine
 10
353.9999999999768
 20
1071.750000000055
 30
0.0
 11
353.9999999999768
 21
1076.750000000055
 31
0.0
  0
LINE
  5
3EB
330
1F
100
AcDbEntity
  8
LAY-10
  6
CONTINUOUS
 62
     7
100
AcDbLine
 10
358.9999999999768
 20
1071.750000000055
 30
0.0
 11
358.9999999999768
 21
1076.750000000055
 31
0.0
  0
LINE
  5
3EC
330
1F
100
AcDbEntity
  8
LAY-10
  6
CONTINUOUS
 62
     7
100
AcDbLine
 10
358.9999999999768
 20
1076.750000000055
 30
0.0
 11
353.9999999999768
 21
1076.750000000055
 31
0.0
  0
LINE
  5
3ED
330
1F
100
AcDbEntity
  8
LAY-10
  6
CONTINUOUS
 62
     7
100
AcDbLine
 10
348.4999999999768
 20
1071.750000000055
 30
0.0
 11
353.4999999999768
 21
1071.750000000055
 31
0.0
  0
LINE
  5
3EE
330
1F
100
AcDbEntity
  8
LAY-10
  6
CONTINUOUS
 62
     7
100
AcDbLine
 10
348.4999999999768
 20
1071.750000000055
 30
0.0
 11
348.4999999999768
 21
1076.750000000055
 31
0.0
  0
LINE
  5
3EF
330
1F
100
AcDbEntity
  8
LAY-10
  6
CONTINUOUS
 62
     7
100
AcDbLine
 10
353.4999999999768
 20
1071.750000000055
 30
0.0
 11
353.4999999999768
 21
1076.750000000055
 31
0.0
  0
LINE
  5
3F0
330
1F
100
AcDbEntity
  8
LAY-10
  6
CONTINUOUS
 62
     7
100
AcDbLine
 10
353.4999999999768
 20
1076.750000000055
 30
0.0
 11
348.4999999999768
 21
1076.750000000055
 31
0.0
  0
LINE
  5
3F1
330
1F
100
AcDbEntity
  8
LAY-10
  6
CONTINUOUS
 62
     7
100
AcDbLine
 10
358.9999999999768
 20
1066.250000000055
 30
0.0
 11
353.9999999999768
 21
1071.250000000055
 31
0.0
  0
LINE
  5
3F2
330
1F
100
AcDbEntity
  8
LAY-10
  6
CONTINUOUS
 62
     7
100
AcDbLine
 10
353.4999999999768
 20
1066.250000000055
 30
0.0
 11
348.4999999999768
 21
1071.250000000055
 31
0.0
  0
LINE
  5
3F3
330
1F
100
AcDbEntity
  8
LAY-10
  6
CONTINUOUS
 62
     7
100
AcDbLine
 10
358.9999999999768
 20
1071.750000000055
 30
0.0
 11
353.9999999999768
 21
1076.750000000055
 31
0.0
  0
LINE
  5
3F4
330
1F
100
AcDbEntity
  8
LAY-10
  6
CONTINUOUS
 62
     7
100
AcDbLine
 10
353.4999999999768
 20
1071.750000000055
 30
0.0
 11
348.4999999999768
 21
1076.750000000055
 31
0.0
  0
LINE
  5
3F5
330
1F
100
AcDbEntity
  8
LAY-10
  6
CONTINUOUS
 62
     7
100
AcDbLine
 10
353.9999999999768
 20
1066.250000000055
 30
0.0
 11
358.9999999999768
 21
1071.250000000055
 31
0.0
  0
LINE
  5
3F6
330
1F
100
AcDbEntity
  8
LAY-10
  6
CONTINUOUS
 62
     7
100
AcDbLine
 10
348.4999999999768
 20
1066.250000000055
 30
0.0
 11
353.4999999999768
 21
1071.250000000055
 31
0.0
  0
LINE
  5
3F7
330
1F
100
AcDbEntity
  8
LAY-10
  6
CONTINUOUS
 62
     7
100
AcDbLine
 10
348.4999999999768
 20
1071.750000000055
 30
0.0
 11
353.4999999999768
 21
1076.750000000055
 31
0.0
  0
LINE
  5
3F8
330
1F
100
AcDbEntity
  8
LAY-10
  6
CONTINUOUS
 62
     7
100
AcDbLine
 10
353.9999999999768
 20
1071.750000000055
 30
0.0
 11
358.9999999999768
 21
1076.750000000055
 31
0.0
  0
LINE
  5
3F9
330
1F
100
AcDbEntity
  8
LAY-10
  6
CONTINUOUS
 62
     7
100
AcDbLine
 10
375.4999999999768
 20
1086.250000000045
 30
0.0
 11
370.4999999999768
 21
1086.250000000045
 31
0.0
  0
LINE
  5
3FA
330
1F
100
AcDbEntity
  8
LAY-10
  6
CONTINUOUS
 62
     7
100
AcDbLine
 10
370.4999999999768
 20
1091.250000000045
 30
0.0
 11
370.4999999999768
 21
1086.250000000045
 31
0.0
  0
LINE
  5
3FB
330
1F
100
AcDbEntity
  8
LAY-10
  6
CONTINUOUS
 62
     7
100
AcDbLine
 10
369.9999999999768
 20
1086.250000000045
 30
0.0
 11
369.9999999999768
 21
1091.250000000045
 31
0.0
  0
LINE
  5
3FC
330
1F
100
AcDbEntity
  8
LAY-10
  6
CONTINUOUS
 62
     7
100
AcDbLine
 10
369.9999999999768
 20
1086.250000000045
 30
0.0
 11
364.9999999999768
 21
1086.250000000045
 31
0.0
  0
LINE
  5
3FD
330
1F
100
AcDbEntity
  8
LAY-10
  6
CONTINUOUS
 62
     7
100
AcDbLine
 10
369.9999999999768
 20
1091.250000000045
 30
0.0
 11
364.9999999999768
 21
1091.250000000045
 31
0.0
  0
LINE
  5
3FE
330
1F
100
AcDbEntity
  8
LAY-10
  6
CONTINUOUS
 62
     7
100
AcDbLine
 10
364.9999999999768
 20
1091.250000000045
 30
0.0
 11
364.9999999999768
 21
1086.250000000045
 31
0.0
  0
LINE
  5
3FF
330
1F
100
AcDbEntity
  8
LAY-10
  6
CONTINUOUS
 62
     7
100
AcDbLine
 10
364.9999999999768
 20
1091.750000000045
 30
0.0
 11
369.9999999999768
 21
1091.750000000045
 31
0.0
  0
LINE
  5
400
330
1F
100
AcDbEntity
  8
LAY-10
  6
CONTINUOUS
 62
     7
100
AcDbLine
 10
375.4999999999768
 20
1086.250000000045
 30
0.0
 11
370.4999999999768
 21
1091.250000000045
 31
0.0
  0
LINE
  5
401
330
1F
100
AcDbEntity
  8
LAY-10
  6
CONTINUOUS
 62
     7
100
AcDbLine
 10
369.9999999999768
 20
1086.250000000045
 30
0.0
 11
364.9999999999768
 21
1091.250000000045
 31
0.0
  0
LINE
  5
402
330
1F
100
AcDbEntity
  8
LAY-10
  6
CONTINUOUS
 62
     7
100
AcDbLine
 10
364.9999999999768
 20
1086.250000000045
 30
0.0
 11
369.9999999999768
 21
1091.250000000045
 31
0.0
  0
LINE
  5
403
330
1F
100
AcDbEntity
  8
LAY-10
  6
CONTINUOUS
 62
     7
100
AcDbLine
 10
359.4999999999768
 20
1086.250000000045
 30
0.0
 11
364.4999999999768
 21
1091.250000000045
 31
0.0
  0
LINE
  5
404
330
1F
100
AcDbEntity
  8
LAY-10
  6
CONTINUOUS
 62
     7
100
AcDbLine
 10
364.4999999999768
 20
1091.750000000045
 30
0.0
 11
359.4999999999768
 21
1096.750000000045
 31
0.0
  0
LINE
  5
405
330
1F
100
AcDbEntity
  8
LAY-10
  6
CONTINUOUS
 62
     7
100
AcDbLine
 10
364.4999999999768
 20
1086.250000000045
 30
0.0
 11
359.4999999999768
 21
1091.250000000045
 31
0.0
  0
LINE
  5
406
330
1F
100
AcDbEntity
  8
LAY-10
  6
CONTINUOUS
 62
     7
100
AcDbLine
 10
359.4999999999768
 20
1091.750000000045
 30
0.0
 11
359.4999999999768
 21
1096.750000000045
 31
0.0
  0
LINE
  5
407
330
1F
100
AcDbEntity
  8
LAY-10
  6
CONTINUOUS
 62
     7
100
AcDbLine
 10
359.4999999999768
 20
1091.750000000045
 30
0.0
 11
364.4999999999768
 21
1091.750000000045
 31
0.0
  0
LINE
  5
408
330
1F
100
AcDbEntity
  8
LAY-10
  6
CONTINUOUS
 62
     7
100
AcDbLine
 10
359.4999999999768
 20
1091.250000000045
 30
0.0
 11
359.4999999999768
 21
1086.250000000045
 31
0.0
  0
LINE
  5
409
330
1F
100
AcDbEntity
  8
LAY-10
  6
CONTINUOUS
 62
     7
100
AcDbLine
 10
364.4999999999768
 20
1091.250000000045
 30
0.0
 11
359.4999999999768
 21
1091.250000000045
 31
0.0
  0
LINE
  5
40A
330
1F
100
AcDbEntity
  8
LAY-10
  6
CONTINUOUS
 62
     7
100
AcDbLine
 10
364.4999999999768
 20
1086.250000000045
 30
0.0
 11
359.4999999999768
 21
1086.250000000045
 31
0.0
  0
LINE
  5
40B
330
1F
100
AcDbEntity
  8
LAY-10
  6
CONTINUOUS
 62
     7
100
AcDbLine
 10
364.4999999999768
 20
1086.250000000045
 30
0.0
 11
364.4999999999768
 21
1091.250000000045
 31
0.0
  0
LINE
  5
40C
330
1F
100
AcDbEntity
  8
LAY-10
  6
CONTINUOUS
 62
     7
100
AcDbLine
 10
358.9999999999768
 20
1086.250000000045
 30
0.0
 11
358.9999999999768
 21
1091.250000000045
 31
0.0
  0
LINE
  5
40D
330
1F
100
AcDbEntity
  8
LAY-10
  6
CONTINUOUS
 62
     7
100
AcDbLine
 10
358.9999999999768
 20
1086.250000000045
 30
0.0
 11
353.9999999999768
 21
1086.250000000045
 31
0.0
  0
LINE
  5
40E
330
1F
100
AcDbEntity
  8
LAY-10
  6
CONTINUOUS
 62
     7
100
AcDbLine
 10
358.9999999999768
 20
1091.250000000045
 30
0.0
 11
353.9999999999768
 21
1091.250000000045
 31
0.0
  0
LINE
  5
40F
330
1F
100
AcDbEntity
  8
LAY-10
  6
CONTINUOUS
 62
     7
100
AcDbLine
 10
353.9999999999768
 20
1091.250000000045
 30
0.0
 11
353.9999999999768
 21
1086.250000000045
 31
0.0
  0
LINE
  5
410
330
1F
100
AcDbEntity
  8
LAY-10
  6
CONTINUOUS
 62
     7
100
AcDbLine
 10
353.4999999999768
 20
1086.250000000045
 30
0.0
 11
353.4999999999768
 21
1091.250000000045
 31
0.0
  0
LINE
  5
411
330
1F
100
AcDbEntity
  8
LAY-10
  6
CONTINUOUS
 62
     7
100
AcDbLine
 10
353.4999999999768
 20
1086.250000000045
 30
0.0
 11
348.4999999999768
 21
1086.250000000045
 31
0.0
  0
LINE
  5
412
330
1F
100
AcDbEntity
  8
LAY-10
  6
CONTINUOUS
 62
     7
100
AcDbLine
 10
353.4999999999768
 20
1091.250000000045
 30
0.0
 11
348.4999999999768
 21
1091.250000000045
 31
0.0
  0
LINE
  5
413
330
1F
100
AcDbEntity
  8
LAY-10
  6
CONTINUOUS
 62
     7
100
AcDbLine
 10
348.4999999999768
 20
1091.250000000045
 30
0.0
 11
348.4999999999768
 21
1086.250000000045
 31
0.0
  0
LINE
  5
414
330
1F
100
AcDbEntity
  8
LAY-10
  6
CONTINUOUS
 62
     7
100
AcDbLine
 10
353.9999999999768
 20
1091.750000000045
 30
0.0
 11
358.9999999999768
 21
1091.750000000045
 31
0.0
  0
LINE
  5
415
330
1F
100
AcDbEntity
  8
LAY-10
  6
CONTINUOUS
 62
     7
100
AcDbLine
 10
353.9999999999768
 20
1091.750000000045
 30
0.0
 11
353.9999999999768
 21
1096.750000000045
 31
0.0
  0
LINE
  5
416
330
1F
100
AcDbEntity
  8
LAY-10
  6
CONTINUOUS
 62
     7
100
AcDbLine
 10
358.9999999999768
 20
1091.750000000045
 30
0.0
 11
358.9999999999768
 21
1096.750000000045
 31
0.0
  0
LINE
  5
417
330
1F
100
AcDbEntity
  8
LAY-10
  6
CONTINUOUS
 62
     7
100
AcDbLine
 10
358.9999999999768
 20
1096.750000000045
 30
0.0
 11
353.9999999999768
 21
1096.750000000045
 31
0.0
  0
LINE
  5
418
330
1F
100
AcDbEntity
  8
LAY-10
  6
CONTINUOUS
 62
     7
100
AcDbLine
 10
348.4999999999768
 20
1091.750000000045
 30
0.0
 11
353.4999999999768
 21
1091.750000000045
 31
0.0
  0
LINE
  5
419
330
1F
100
AcDbEntity
  8
LAY-10
  6
CONTINUOUS
 62
     7
100
AcDbLine
 10
348.4999999999768
 20
1091.750000000045
 30
0.0
 11
348.4999999999768
 21
1096.750000000045
 31
0.0
  0
LINE
  5
41A
330
1F
100
AcDbEntity
  8
LAY-10
  6
CONTINUOUS
 62
     7
100
AcDbLine
 10
353.4999999999768
 20
1091.750000000045
 30
0.0
 11
353.4999999999768
 21
1096.750000000045
 31
0.0
  0
LINE
  5
41B
330
1F
100
AcDbEntity
  8
LAY-10
  6
CONTINUOUS
 62
     7
100
AcDbLine
 10
353.4999999999768
 20
1096.750000000045
 30
0.0
 11
348.4999999999768
 21
1096.750000000045
 31
0.0
  0
LINE
  5
41C
330
1F
100
AcDbEntity
  8
LAY-10
  6
CONTINUOUS
 62
     7
100
AcDbLine
 10
358.9999999999768
 20
1086.250000000045
 30
0.0
 11
353.9999999999768
 21
1091.250000000045
 31
0.0
  0
LINE
  5
41D
330
1F
100
AcDbEntity
  8
LAY-10
  6
CONTINUOUS
 62
     7
100
AcDbLine
 10
353.4999999999768
 20
1086.250000000045
 30
0.0
 11
348.4999999999768
 21
1091.250000000045
 31
0.0
  0
LINE
  5
41E
330
1F
100
AcDbEntity
  8
LAY-10
  6
CONTINUOUS
 62
     7
100
AcDbLine
 10
358.9999999999768
 20
1091.750000000045
 30
0.0
 11
353.9999999999768
 21
1096.750000000045
 31
0.0
  0
LINE
  5
41F
330
1F
100
AcDbEntity
  8
LAY-10
  6
CONTINUOUS
 62
     7
100
AcDbLine
 10
353.4999999999768
 20
1091.750000000045
 30
0.0
 11
348.4999999999768
 21
1096.750000000045
 31
0.0
  0
LINE
  5
420
330
1F
100
AcDbEntity
  8
LAY-10
  6
CONTINUOUS
 62
     7
100
AcDbLine
 10
353.9999999999768
 20
1086.250000000045
 30
0.0
 11
358.9999999999768
 21
1091.250000000045
 31
0.0
  0
LINE
  5
421
330
1F
100
AcDbEntity
  8
LAY-10
  6
CONTINUOUS
 62
     7
100
AcDbLine
 10
348.4999999999768
 20
1086.250000000045
 30
0.0
 11
353.4999999999768
 21
1091.250000000045
 31
0.0
  0
LINE
  5
422
330
1F
100
AcDbEntity
  8
LAY-10
  6
CONTINUOUS
 62
     7
100
AcDbLine
 10
348.4999999999768
 20
1091.750000000045
 30
0.0
 11
353.4999999999768
 21
1096.750000000045
 31
0.0
  0
LINE
  5
423
330
1F
100
AcDbEntity
  8
LAY-10
  6
CONTINUOUS
 62
     7
100
AcDbLine
 10
353.9999999999768
 20
1091.750000000045
 30
0.0
 11
358.9999999999768
 21
1096.750000000045
 31
0.0
  0
CIRCLE
  5
424
330
1F
100
AcDbEntity
  8
LAY-10
  6
CONTINUOUS
 62
     7
100
AcDbCircle
 10
353.1999999999707
 20
1070.299999999905
 30
0.0
 40
28.19999999995139
  0
LINE
  5
425
330
1F
100
AcDbEntity
  8
LAY-10
  6
CONTINUOUS
 62
     7
100
AcDbLine
 10
362.9794427238598
 20
1096.750000000045
 30
0.0
 11
359.4999999999768
 21
1096.750000000045
 31
0.0
  0
LINE
  5
426
330
1F
100
AcDbEntity
  8
LAY-10
  6
CONTINUOUS
 62
     7
100
AcDbLine
 10
359.4999999999768
 20
1091.750000000045
 30
0.0
 11
364.0705787383877
 21
1096.320578738456
 31
0.0
  0
LINE
  5
427
330
1F
100
AcDbEntity
  8
LAY-10
  6
CONTINUOUS
 62
     7
100
AcDbLine
 10
364.4999999999768
 20
1091.750000000045
 30
0.0
 11
364.4999999999768
 21
1096.136988988506
 31
0.0
  0
LINE
  5
428
330
1F
100
AcDbEntity
  8
LAY-10
  6
CONTINUOUS
 62
     7
100
AcDbLine
 10
364.9999999999768
 20
1091.750000000045
 30
0.0
 11
364.9999999999768
 21
1095.91249694958
 31
0.0
  0
LINE
  5
429
330
1F
100
AcDbEntity
  8
LAY-10
  6
CONTINUOUS
 62
     7
100
AcDbLine
 10
369.9999999999768
 20
1091.750000000045
 30
0.0
 11
366.681031981369
 21
1095.068968018653
 31
0.0
  0
LINE
  5
42A
330
1F
100
AcDbEntity
  8
LAY-10
  6
CONTINUOUS
 62
     7
100
AcDbLine
 10
364.9999999999768
 20
1091.750000000045
 30
0.0
 11
367.7228519478067
 21
1094.472851947875
 31
0.0
  0
LINE
  5
42B
330
1F
100
AcDbEntity
  8
LAY-10
  6
CONTINUOUS
 62
     7
100
AcDbLine
 10
369.9999999999768
 20
1091.750000000045
 30
0.0
 11
369.9999999999768
 21
1092.949503305652
 31
0.0
  0
LINE
  5
42C
330
1F
100
AcDbEntity
  8
LAY-10
  6
CONTINUOUS
 62
     7
100
AcDbLine
 10
370.4999999999768
 20
1091.750000000045
 30
0.0
 11
370.4999999999768
 21
1092.56993488973
 31
0.0
  0
LINE
  5
42D
330
1F
100
AcDbEntity
  8
LAY-10
  6
CONTINUOUS
 62
     7
100
AcDbLine
 10
370.4999999999768
 20
1091.750000000045
 30
0.0
 11
370.9571550769078
 21
1092.207155076977
 31
0.0
  0
LINE
  5
42E
330
1F
100
AcDbEntity
  8
LAY-10
  6
CONTINUOUS
 62
     7
100
AcDbLine
 10
372.0769038772323
 20
1091.250000000045
 30
0.0
 11
370.4999999999768
 21
1091.250000000045
 31
0.0
  0
LINE
  5
42F
330
1F
100
AcDbEntity
  8
LAY-10
  6
CONTINUOUS
 62
     7
100
AcDbLine
 10
370.4999999999768
 20
1086.250000000045
 30
0.0
 11
373.8039832905465
 21
1089.553983290615
 31
0.0
  0
LINE
  5
430
330
1F
100
AcDbEntity
  8
LAY-10
  6
CONTINUOUS
 62
     7
100
AcDbLine
 10
370.4999999999768
 20
1091.750000000045
 30
0.0
 11
371.5067610458586
 21
1091.750000000045
 31
0.0
  0
LINE
  5
431
330
1F
100
AcDbEntity
  8
LAY-10
  6
CONTINUOUS
 62
     7
100
AcDbLine
 10
375.4999999999768
 20
1086.250000000045
 30
0.0
 11
375.4999999999768
 21
1087.561228229582
 31
0.0
  0
LINE
  5
432
330
1F
100
AcDbEntity
  8
LAY-10
  6
CONTINUOUS
 62
     7
100
AcDbLine
 10
375.9999999999768
 20
1086.250000000045
 30
0.0
 11
376.2690671704031
 21
1086.519067170471
 31
0.0
  0
LINE
  5
433
330
1F
100
AcDbEntity
  8
LAY-10
  6
CONTINUOUS
 62
     7
100
AcDbLine
 10
375.9999999999768
 20
1086.895180022941
 30
0.0
 11
375.9999999999768
 21
1086.250000000045
 31
0.0
  0
LINE
  5
434
330
1F
100
AcDbEntity
  8
LAY-10
  6
CONTINUOUS
 62
     7
100
AcDbLine
 10
376.4559132263475
 20
1086.250000000045
 30
0.0
 11
375.9999999999768
 21
1086.250000000045
 31
0.0
  0
LINE
  5
435
330
1F
100
AcDbEntity
  8
LAY-10
  6
CONTINUOUS
 62
     7
100
AcDbLine
 10
380.9999999999768
 20
1071.750000000055
 30
0.0
 11
380.9999999999768
 21
1075.03286382606
 31
0.0
  0
LINE
  5
436
330
1F
100
AcDbEntity
  8
LAY-10
  6
CONTINUOUS
 62
     7
100
AcDbLine
 10
380.6524589061473
 20
1076.750000000055
 30
0.0
 11
375.9999999999768
 21
1076.750000000055
 31
0.0
  0
LINE
  5
437
330
1F
100
AcDbEntity
  8
LAY-10
  6
CONTINUOUS
 62
     7
100
AcDbLine
 10
375.9999999999768
 20
1071.750000000055
 30
0.0
 11
380.7173387626763
 21
1076.467338762755
 31
0.0
  0
LINE
  5
438
330
1F
100
AcDbEntity
  8
LAY-10
  6
CONTINUOUS
 62
     7
100
AcDbLine
 10
377.9313060713434
 20
1056.749999999855
 30
0.0
 11
375.9999999999768
 21
1056.749999999855
 31
0.0
  0
LINE
  5
439
330
1F
100
AcDbEntity
  8
LAY-10
  6
CONTINUOUS
 62
     7
100
AcDbLine
 10
377.2216330840392
 20
1055.528366915793
 30
0.0
 11
375.9999999999768
 21
1056.749999999855
 31
0.0
  0
LINE
  5
43A
330
1F
100
AcDbEntity
  8
LAY-10
  6
CONTINUOUS
 62
     7
100
AcDbLine
 10
375.9999999999768
 20
1053.704819976868
 30
0.0
 11
375.9999999999768
 21
1056.749999999855
 31
0.0
  0
LINE
  5
43B
330
1F
100
AcDbEntity
  8
LAY-10
  6
CONTINUOUS
 62
     7
100
AcDbLine
 10
375.4999999999768
 20
1053.038771770228
 30
0.0
 11
375.4999999999768
 21
1056.749999999855
 31
0.0
  0
LINE
  5
43C
330
1F
100
AcDbEntity
  8
LAY-10
  6
CONTINUOUS
 62
     7
100
AcDbLine
 10
374.9270622353619
 20
1052.32293776447
 30
0.0
 11
370.4999999999768
 21
1056.749999999855
 31
0.0
  0
LINE
  5
43D
330
1F
100
AcDbEntity
  8
LAY-10
  6
CONTINUOUS
 62
     7
100
AcDbLine
 10
370.4999999999768
 20
1051.749999999855
 30
0.0
 11
374.4399976458139
 21
1051.749999999855
 31
0.0
  0
LINE
  5
43E
330
1F
100
AcDbEntity
  8
LAY-10
  6
CONTINUOUS
 62
     7
100
AcDbLine
 10
373.992727093726
 20
1051.249999999855
 30
0.0
 11
370.4999999999768
 21
1051.249999999855
 31
0.0
  0
LINE
  5
43F
330
1F
100
AcDbEntity
  8
LAY-10
  6
CONTINUOUS
 62
     7
100
AcDbLine
 10
372.2462041552853
 20
1049.503795844547
 30
0.0
 11
370.4999999999768
 21
1051.249999999855
 31
0.0
  0
LINE
  5
440
330
1F
100
AcDbEntity
  8
LAY-10
  6
CONTINUOUS
 62
     7
100
AcDbLine
 10
370.4999999999768
 20
1051.249999999855
 30
0.0
 11
370.4999999999768
 21
1048.03006511008
 31
0.0
  0
LINE
  5
441
330
1F
100
AcDbEntity
  8
LAY-10
  6
CONTINUOUS
 62
     7
100
AcDbLine
 10
369.1831456287046
 20
1047.066854371128
 30
0.0
 11
364.9999999999768
 21
1051.249999999855
 31
0.0
  0
LINE
  5
442
330
1F
100
AcDbEntity
  8
LAY-10
  6
CONTINUOUS
 62
     7
100
AcDbLine
 10
367.9254032200824
 20
1046.249999999855
 30
0.0
 11
364.9999999999768
 21
1046.249999999855
 31
0.0
  0
LINE
  5
443
330
1F
100
AcDbEntity
  8
LAY-10
  6
CONTINUOUS
 62
     7
100
AcDbLine
 10
369.9999999999768
 20
1047.650496694157
 30
0.0
 11
369.9999999999768
 21
1051.249999999855
 31
0.0
  0
LINE
  5
444
330
1F
100
AcDbEntity
  8
LAY-10
  6
CONTINUOUS
 62
     7
100
AcDbLine
 10
336.9999999999768
 20
1047.217539125954
 30
0.0
 11
336.9999999999768
 21
1051.249999999855
 31
0.0
  0
LINE
  5
445
330
1F
100
AcDbEntity
  8
LAY-10
  6
CONTINUOUS
 62
     7
100
AcDbLine
 10
342.4999999999768
 20
1046.249999999855
 30
0.0
 11
338.474596779859
 21
1046.249999999855
 31
0.0
  0
LINE
  5
446
330
1F
100
AcDbEntity
  8
LAY-10
  6
CONTINUOUS
 62
     7
100
AcDbLine
 10
337.8765545491838
 20
1046.626554549062
 30
0.0
 11
342.4999999999768
 21
1051.249999999855
 31
0.0
  0
LINE
  5
447
330
1F
100
AcDbEntity
  8
LAY-10
  6
CONTINUOUS
 62
     7
100
AcDbLine
 10
337.4999999999768
 20
1051.249999999855
 30
0.0
 11
337.4999999999768
 21
1046.874586449715
 31
0.0
  0
LINE
  5
448
330
1F
100
AcDbEntity
  8
LAY-10
  6
CONTINUOUS
 62
     7
100
AcDbLine
 10
336.9999999999768
 20
1051.249999999855
 30
0.0
 11
332.4072729062159
 21
1051.249999999855
 31
0.0
  0
LINE
  5
449
330
1F
100
AcDbEntity
  8
LAY-10
  6
CONTINUOUS
 62
     7
100
AcDbLine
 10
331.4999999999768
 20
1052.290280401935
 30
0.0
 11
331.4999999999768
 21
1056.749999999855
 31
0.0
  0
LINE
  5
44A
330
1F
100
AcDbEntity
  8
LAY-10
  6
CONTINUOUS
 62
     7
100
AcDbLine
 10
329.6054104807781
 20
1054.855410480657
 30
0.0
 11
331.4999999999768
 21
1056.749999999855
 31
0.0
  0
LINE
  5
44B
330
1F
100
AcDbEntity
  8
LAY-10
  6
CONTINUOUS
 62
     7
100
AcDbLine
 10
331.4999999999768
 20
1056.749999999855
 30
0.0
 11
328.4686939285984
 21
1056.749999999855
 31
0.0
  0
LINE
  5
44C
330
1F
100
AcDbEntity
  8
LAY-10
  6
CONTINUOUS
 62
     7
100
AcDbLine
 10
325.9999999999768
 20
1066.250000000055
 30
0.0
 11
325.2923397612753
 21
1066.250000000055
 31
0.0
  0
LINE
  5
44D
330
1F
100
AcDbEntity
  8
LAY-10
  6
CONTINUOUS
 62
     7
100
AcDbLine
 10
325.1863206918633
 20
1067.063679308168
 30
0.0
 11
325.9999999999768
 21
1066.250000000055
 31
0.0
  0
LINE
  5
44E
330
1F
100
AcDbEntity
  8
LAY-10
  6
CONTINUOUS
 62
     7
100
AcDbLine
 10
325.9999999999768
 20
1071.250000000055
 30
0.0
 11
325.0000442478758
 21
1070.250044247954
 31
0.0
  0
LINE
  5
44F
330
1F
100
AcDbEntity
  8
LAY-10
  6
CONTINUOUS
 62
     7
100
AcDbLine
 10
325.0160063156654
 20
1071.250000000055
 30
0.0
 11
325.9999999999768
 21
1071.250000000055
 31
0.0
  0
LINE
  5
450
330
1F
100
AcDbEntity
  8
LAY-10
  6
CONTINUOUS
 62
     7
100
AcDbLine
 10
325.9999999999768
 20
1071.750000000055
 30
0.0
 11
325.0373030411065
 21
1071.750000000055
 31
0.0
  0
LINE
  5
451
330
1F
100
AcDbEntity
  8
LAY-10
  6
CONTINUOUS
 62
     7
100
AcDbLine
 10
325.0982349135102
 20
1072.651765086521
 30
0.0
 11
325.9999999999768
 21
1071.750000000055
 31
0.0
  0
LINE
  5
452
330
1F
100
AcDbEntity
  8
LAY-10
  6
CONTINUOUS
 62
     7
100
AcDbLine
 10
325.9999999999768
 20
1076.750000000055
 30
0.0
 11
325.6726930057876
 21
1076.422693005865
 31
0.0
  0
LINE
  5
453
330
1F
100
AcDbEntity
  8
LAY-10
  6
CONTINUOUS
 62
     7
100
AcDbLine
 10
325.9999999999768
 20
1076.750000000055
 30
0.0
 11
325.7475410937941
 21
1076.750000000055
 31
0.0
  0
LINE
  5
454
330
1F
100
AcDbEntity
  8
LAY-10
  6
CONTINUOUS
 62
     7
100
AcDbLine
 10
331.4999999999768
 20
1086.250000000045
 30
0.0
 11
329.9440867735934
 21
1086.250000000045
 31
0.0
  0
LINE
  5
455
330
1F
100
AcDbEntity
  8
LAY-10
  6
CONTINUOUS
 62
     7
100
AcDbLine
 10
330.5929353589818
 20
1087.15706464104
 30
0.0
 11
331.4999999999768
 21
1086.250000000045
 31
0.0
  0
LINE
  5
456
330
1F
100
AcDbEntity
  8
LAY-10
  6
CONTINUOUS
 62
     7
100
AcDbLine
 10
331.4999999999768
 20
1088.309719597875
 30
0.0
 11
331.4999999999768
 21
1086.250000000045
 31
0.0
  0
LINE
  5
457
330
1F
100
AcDbEntity
  8
LAY-10
  6
CONTINUOUS
 62
     7
100
AcDbLine
 10
331.9999999999768
 20
1088.895698427163
 30
0.0
 11
331.9999999999768
 21
1086.250000000045
 31
0.0
  0
LINE
  5
458
330
1F
100
AcDbEntity
  8
LAY-10
  6
CONTINUOUS
 62
     7
100
AcDbLine
 10
333.1349805667869
 20
1090.115019433234
 30
0.0
 11
336.9999999999768
 21
1086.250000000045
 31
0.0
  0
LINE
  5
459
330
1F
100
AcDbEntity
  8
LAY-10
  6
CONTINUOUS
 62
     7
100
AcDbLine
 10
336.9999999999768
 20
1091.750000000045
 30
0.0
 11
334.8932389540823
 21
1091.750000000045
 31
0.0
  0
LINE
  5
45A
330
1F
100
AcDbEntity
  8
LAY-10
  6
CONTINUOUS
 62
     7
100
AcDbLine
 10
334.3230961227082
 20
1091.250000000045
 30
0.0
 11
336.9999999999768
 21
1091.250000000045
 31
0.0
  0
LINE
  5
45B
330
1F
100
AcDbEntity
  8
LAY-10
  6
CONTINUOUS
 62
     7
100
AcDbLine
 10
336.0581242985513
 20
1092.69187570147
 30
0.0
 11
336.9999999999768
 21
1091.750000000045
 31
0.0
  0
LINE
  5
45C
330
1F
100
AcDbEntity
  8
LAY-10
  6
CONTINUOUS
 62
     7
100
AcDbLine
 10
336.9999999999768
 20
1093.382460873855
 30
0.0
 11
336.9999999999768
 21
1091.750000000045
 31
0.0
  0
LINE
  5
45D
330
1F
100
AcDbEntity
  8
LAY-10
  6
CONTINUOUS
 62
     7
100
AcDbLine
 10
339.3726726671957
 20
1094.877327332826
 30
0.0
 11
342.4999999999768
 21
1091.750000000045
 31
0.0
  0
LINE
  5
45E
330
1F
100
AcDbEntity
  8
LAY-10
  6
CONTINUOUS
 62
     7
100
AcDbLine
 10
337.4999999999768
 20
1091.750000000045
 30
0.0
 11
337.4999999999768
 21
1093.725413550095
 31
0.0
  0
LINE
  5
45F
330
1F
100
AcDbEntity
  8
LAY-10
  6
CONTINUOUS
 62
     7
100
AcDbLine
 10
341.8768532110594
 20
1096.126853211127
 30
0.0
 11
337.4999999999768
 21
1091.750000000045
 31
0.0
  0
LINE
  5
460
330
1F
100
AcDbEntity
  8
LAY-10
  6
CONTINUOUS
 62
     7
100
AcDbLine
 10
342.4999999999768
 20
1096.391186251154
 30
0.0
 11
342.4999999999768
 21
1091.750000000045
 31
0.0
  0
LINE
  5
461
330
1F
100
AcDbEntity
  8
LAY-10
  6
CONTINUOUS
 62
     7
100
AcDbLine
 10
347.9999999999768
 20
1096.750000000045
 30
0.0
 11
343.4205572760793
 21
1096.750000000045
 31
0.0
  0
LINE
  5
462
330
1F
100
AcDbEntity
  8
LAY-10
  6
CONTINUOUS
 62
     7
100
AcDbLine
 10
343.1149924493193
 20
1096.635007550702
 30
0.0
 11
347.9999999999768
 21
1091.750000000045
 31
0.0
  0
LINE
  5
463
330
1F
100
AcDbEntity
  8
LAY-10
  6
CONTINUOUS
 62
     7
100
AcDbLine
 10
342.9999999999768
 20
1091.750000000045
 30
0.0
 11
342.9999999999768
 21
1096.590682760103
 31
0.0
  0
LINE
  5
464
330
1F
100
AcDbEntity
  8
LAY-10
  6
CONTINUOUS
 62
     7
100
AcDbLine
 10
334.7355712752073
 20
1048.985571275086
 30
0.0
 11
336.9999999999768
 21
1051.249999999855
 31
0.0
  0
LINE
  5
465
330
1F
100
AcDbEntity
  8
LAY-10
  6
CENTER
 62
     2
100
AcDbLine
 10
324.9999999999998
 20
692.3000000000198
 30
0.0
 11
324.9999999999998
 21
730.0000000000202
 31
0.0
  0
LINE
  5
466
330
1F
100
AcDbEntity
  8
LAY-10
  6
CENTER
 62
     2
100
AcDbLine
 10
1125.00000000006
 20
692.3000000000198
 30
0.0
 11
1125.00000000006
 21
730.0000000000202
 31
0.0
  0
LINE
  5
467
330
1F
100
AcDbEntity
  8
LAY-10
  6
CONTINUOUS
 62
     7
100
AcDbLine
 10
225.0
 20
750.00000000002
 30
0.0
 11
225.0
 21
600.00000000003
 31
0.0
  0
LINE
  5
468
330
1F
100
AcDbEntity
  8
LAY-10
  6
CONTINUOUS
 62
     7
100
AcDbLine
 10
225.0
 20
600.00000000003
 30
0.0
 11
1224.99999999996
 21
600.00000000003
 31
0.0
  0
LINE
  5
469
330
1F
100
AcDbEntity
  8
LAY-10
  6
CONTINUOUS
 62
     7
100
AcDbLine
 10
1224.99999999996
 20
750.00000000002
 30
0.0
 11
1224.99999999996
 21
600.00000000003
 31
0.0
  0
LINE
  5
46A
330
1F
100
AcDbEntity
  8
LAY-10
  6
CONTINUOUS
 62
     7
100
AcDbLine
 10
1224.99999999996
 20
643.2000000000202
 30
0.0
 11
225.0
 21
643.2000000000202
 31
0.0
  0
LINE
  5
46B
330
1F
100
AcDbEntity
  8
LAY-10
  6
CONTINUOUS
 62
     7
100
AcDbLine
 10
1104.99999999996
 20
640.00000000002
 30
0.0
 11
1144.99999999996
 21
640.00000000002
 31
0.0
  0
LINE
  5
46C
330
1F
100
AcDbEntity
  8
LAY-10
  6
CONTINUOUS
 62
     7
100
AcDbLine
 10
704.9999999999998
 20
640.00000000002
 30
0.0
 11
744.9999999999998
 21
640.00000000002
 31
0.0
  0
LINE
  5
46D
330
1F
100
AcDbEntity
  8
LAY-10
  6
CONTINUOUS
 62
     7
100
AcDbLine
 10
304.9999999999998
 20
640.00000000002
 30
0.0
 11
344.9999999999998
 21
640.00000000002
 31
0.0
  0
LINE
  5
46E
330
1F
100
AcDbEntity
  8
LAY-10
  6
HIDDEN
 62
     7
100
AcDbLine
 10
1225.0
 20
640.0000000000202
 30
0.0
 11
225.0
 21
640.0000000000202
 31
0.0
  0
ARC
  5
46F
330
1F
100
AcDbEntity
  8
LAY-10
  6
CONTINUOUS
 62
     7
100
AcDbCircle
 10
624.999999999989
 20
734.9999999999798
 30
0.0
 40
5.0
100
AcDbArc
 50
185.5757227313749
 51
354.4242772686251
  0
LINE
  5
470
330
1F
100
AcDbEntity
  8
LAY-10
  6
CONTINUOUS
 62
     7
100
AcDbLine
 10
618.9999999999876
 20
744.9999999999798
 30
0.0
 11
620.0236567084979
 21
734.5141940250858
 31
0.0
  0
LINE
  5
471
330
1F
100
AcDbEntity
  8
LAY-10
  6
CONTINUOUS
 62
     7
100
AcDbLine
 10
630.9999999999894
 20
744.9999999999798
 30
0.0
 11
629.9763432914791
 21
734.5141940250858
 31
0.0
  0
ARC
  5
472
330
1F
100
AcDbEntity
  8
LAY-10
  6
CONTINUOUS
 62
     7
100
AcDbCircle
 10
229.9403285601459
 20
725.9999999999707
 30
0.0
 40
1.0
100
AcDbArc
 50
185.8093648644375
 51
270.0
  0
LINE
  5
473
330
1F
100
AcDbEntity
  8
LAY-10
  6
CONTINUOUS
 62
     7
100
AcDbLine
 10
227.0020790043116
 20
744.9999999999707
 30
0.0
 11
228.9454643820275
 21
725.8987810931565
 31
0.0
  0
LINE
  5
474
330
1F
100
AcDbEntity
  8
LAY-10
  6
CONTINUOUS
 62
     7
100
AcDbLine
 10
226.9999999999884
 20
750.0000000000002
 30
0.0
 11
225.9999999999884
 21
744.9999999999696
 31
0.0
  0
LINE
  5
475
330
1F
100
AcDbEntity
  8
LAY-10
  6
CONTINUOUS
 62
     7
100
AcDbLine
 10
1222.999999999989
 20
750.0000000000038
 30
0.0
 11
226.9999999999893
 21
750.0000000000043
 31
0.0
  0
LINE
  5
476
330
1F
100
AcDbEntity
  8
LAY-10
  6
CONTINUOUS
 62
     7
100
AcDbLine
 10
321.9999999999802
 20
749.9999999999998
 30
0.0
 11
322.3542486890803
 21
744.9999999999696
 31
0.0
  0
LINE
  5
477
330
1F
100
AcDbEntity
  8
LAY-10
  6
CONTINUOUS
 62
     7
100
AcDbLine
 10
327.6457513108801
 20
744.9999999999696
 30
0.0
 11
327.9999999999802
 21
749.9999999999998
 31
0.0
  0
LINE
  5
478
330
1F
100
AcDbEntity
  8
LAY-10
  6
CONTINUOUS
 62
     7
100
AcDbLine
 10
521.9999999999599
 20
749.9999999999998
 30
0.0
 11
522.35424868906
 21
744.9999999999696
 31
0.0
  0
LINE
  5
479
330
1F
100
AcDbEntity
  8
LAY-10
  6
CONTINUOUS
 62
     7
100
AcDbLine
 10
527.6457513108597
 20
744.9999999999696
 30
0.0
 11
527.9999999999599
 21
749.9999999999998
 31
0.0
  0
LINE
  5
47A
330
1F
100
AcDbEntity
  8
LAY-10
  6
CONTINUOUS
 62
     7
100
AcDbLine
 10
721.9999999999899
 20
749.9999999999998
 30
0.0
 11
722.3542486890898
 21
744.9999999999696
 31
0.0
  0
ARC
  5
47B
330
1F
100
AcDbEntity
  8
LAY-10
  6
CONTINUOUS
 62
     7
100
AcDbCircle
 10
316.85410196626
 20
726.9999999999711
 30
0.0
 40
3.0
100
AcDbArc
 50
90.00000000000001
 51
153.434948822922
  0
ARC
  5
47C
330
1F
100
AcDbEntity
  8
LAY-10
  6
CONTINUOUS
 62
     7
100
AcDbCircle
 10
333.14589803374
 20
726.9999999999711
 30
0.0
 40
3.0
100
AcDbArc
 50
26.5650511770785
 51
90.00000000000001
  0
LINE
  5
47D
330
1F
100
AcDbEntity
  8
LAY-10
  6
CONTINUOUS
 62
     7
100
AcDbLine
 10
229.9403285601459
 20
724.9999999999707
 30
0.0
 11
310.6458980337609
 21
724.9999999999707
 31
0.0
  0
LINE
  5
47E
330
1F
100
AcDbEntity
  8
LAY-10
  6
CONTINUOUS
 62
     7
100
AcDbLine
 10
313.3291796067604
 20
726.6583592134709
 30
0.0
 11
314.1708203932606
 21
728.3416407864709
 31
0.0
  0
ARC
  5
47F
330
1F
100
AcDbEntity
  8
LAY-10
  6
CONTINUOUS
 62
     7
100
AcDbCircle
 10
310.6458980337609
 20
727.9999999999707
 30
0.0
 40
3.0
100
AcDbArc
 50
270.0
 51
333.4349488229226
  0
LINE
  5
480
330
1F
100
AcDbEntity
  8
LAY-10
  6
CONTINUOUS
 62
     7
100
AcDbLine
 10
336.6708203932392
 20
726.6583592134709
 30
0.0
 11
335.8291796067394
 21
728.3416407864709
 31
0.0
  0
ARC
  5
481
330
1F
100
AcDbEntity
  8
LAY-10
  6
CONTINUOUS
 62
     7
100
AcDbCircle
 10
339.3541019662391
 20
727.9999999999707
 30
0.0
 40
3.0
100
AcDbArc
 50
206.5650511770775
 51
270.0
  0
ARC
  5
482
330
1F
100
AcDbEntity
  8
LAY-10
  6
CONTINUOUS
 62
     7
100
AcDbCircle
 10
516.8541019662492
 20
726.9999999999716
 30
0.0
 40
3.0
100
AcDbArc
 50
90.00000000000001
 51
153.4349488229225
  0
ARC
  5
483
330
1F
100
AcDbEntity
  8
LAY-10
  6
CONTINUOUS
 62
     7
100
AcDbCircle
 10
533.1458980337292
 20
726.9999999999716
 30
0.0
 40
3.0
100
AcDbArc
 50
26.56505117707752
 51
90.00000000000001
  0
LINE
  5
484
330
1F
100
AcDbEntity
  8
LAY-10
  6
CONTINUOUS
 62
     7
100
AcDbLine
 10
513.3291796067496
 20
726.6583592134709
 30
0.0
 11
514.1708203932498
 21
728.3416407864713
 31
0.0
  0
ARC
  5
485
330
1F
100
AcDbEntity
  8
LAY-10
  6
CONTINUOUS
 62
     7
100
AcDbCircle
 10
510.6458980337501
 20
727.9999999999707
 30
0.0
 40
3.0
100
AcDbArc
 50
270.0
 51
333.4349488229226
  0
LINE
  5
486
330
1F
100
AcDbEntity
  8
LAY-10
  6
CONTINUOUS
 62
     7
100
AcDbLine
 10
536.6708203932288
 20
726.6583592134709
 30
0.0
 11
535.8291796067286
 21
728.3416407864713
 31
0.0
  0
ARC
  5
487
330
1F
100
AcDbEntity
  8
LAY-10
  6
CONTINUOUS
 62
     7
100
AcDbCircle
 10
539.3541019662283
 20
727.9999999999707
 30
0.0
 40
3.0
100
AcDbArc
 50
206.5650511770775
 51
270.0
  0
ARC
  5
488
330
1F
100
AcDbEntity
  8
LAY-10
  6
CONTINUOUS
 62
     7
100
AcDbCircle
 10
716.8541019662497
 20
726.9999999999716
 30
0.0
 40
3.0
100
AcDbArc
 50
90.00000000000001
 51
153.434948822921
  0
LINE
  5
489
330
1F
100
AcDbEntity
  8
LAY-10
  6
CONTINUOUS
 62
     7
100
AcDbLine
 10
539.3541019662283
 20
724.9999999999707
 30
0.0
 11
710.6458980337502
 21
724.9999999999707
 31
0.0
  0
LINE
  5
48A
330
1F
100
AcDbEntity
  8
LAY-10
  6
CONTINUOUS
 62
     7
100
AcDbLine
 10
713.3291796067502
 20
726.6583592134709
 30
0.0
 11
714.1708203932504
 21
728.3416407864713
 31
0.0
  0
ARC
  5
48B
330
1F
100
AcDbEntity
  8
LAY-10
  6
CONTINUOUS
 62
     7
100
AcDbCircle
 10
710.6458980337502
 20
727.9999999999707
 30
0.0
 40
3.0
100
AcDbArc
 50
270.0
 51
333.434948822922
  0
ARC
  5
48C
330
1F
100
AcDbEntity
  8
LAY-10
  6
CONTINUOUS
 62
     7
100
AcDbCircle
 10
424.9999999999892
 20
734.9999999999798
 30
0.0
 40
5.0
100
AcDbArc
 50
185.5757227313749
 51
354.4242772686251
  0
LINE
  5
48D
330
1F
100
AcDbEntity
  8
LAY-10
  6
CONTINUOUS
 62
     7
100
AcDbLine
 10
418.9999999999878
 20
744.9999999999798
 30
0.0
 11
420.0236567084982
 21
734.5141940250858
 31
0.0
  0
LINE
  5
48E
330
1F
100
AcDbEntity
  8
LAY-10
  6
CONTINUOUS
 62
     7
100
AcDbLine
 10
430.9999999999897
 20
744.9999999999798
 30
0.0
 11
429.9763432914793
 21
734.5141940250858
 31
0.0
  0
LINE
  5
48F
330
1F
100
AcDbEntity
  8
LAY-10
  6
CONTINUOUS
 62
     7
100
AcDbLine
 10
228.5137937550369
 20
729.9999999999707
 30
0.0
 11
228.52820049467
 21
729.9999999999707
 31
0.0
  0
LINE
  5
490
330
1F
100
AcDbEntity
  8
LAY-10
  6
CONTINUOUS
 62
     7
100
AcDbLine
 10
238.9999999999907
 20
744.9999999999798
 30
0.0
 11
237.9763432914804
 21
734.5141940250858
 31
0.0
  0
ARC
  5
491
330
1F
100
AcDbEntity
  8
LAY-10
  6
CONTINUOUS
 62
     7
100
AcDbCircle
 10
232.9999999999902
 20
734.9999999999798
 30
0.0
 40
5.0
100
AcDbArc
 50
193.5083662909427
 51
354.4242772686251
  0
LINE
  5
492
330
1F
100
AcDbEntity
  8
LAY-10
  6
CONTINUOUS
 62
     7
100
AcDbLine
 10
238.3999999999944
 20
747.9999999999698
 30
0.0
 11
226.5999999999847
 21
747.9999999999698
 31
0.0
  0
LINE
  5
493
330
1F
100
AcDbEntity
  8
LAY-10
  6
CONTINUOUS
 62
     7
100
AcDbLine
 10
238.3999999999944
 20
747.9999999999698
 30
0.0
 11
238.9999999999907
 21
744.9999999999702
 31
0.0
  0
LINE
  5
494
330
1F
100
AcDbEntity
  8
LAY-10
  6
CONTINUOUS
 62
     7
100
AcDbLine
 10
339.3541019662391
 20
724.9999999999707
 30
0.0
 11
510.6458980337501
 21
724.9999999999707
 31
0.0
  0
ARC
  5
495
330
1F
100
AcDbEntity
  8
LAY-10
  6
CONTINUOUS
 62
     7
100
AcDbCircle
 10
824.999999999989
 20
734.9999999999798
 30
0.0
 40
5.0
100
AcDbArc
 50
185.5757227313739
 51
354.4242772686262
  0
LINE
  5
496
330
1F
100
AcDbEntity
  8
LAY-10
  6
CONTINUOUS
 62
     7
100
AcDbLine
 10
830.9999999999903
 20
744.9999999999798
 30
0.0
 11
829.9763432914801
 21
734.5141940250858
 31
0.0
  0
LINE
  5
497
330
1F
100
AcDbEntity
  8
LAY-10
  6
CONTINUOUS
 62
     7
100
AcDbLine
 10
818.9999999999885
 20
744.9999999999798
 30
0.0
 11
820.0236567084988
 21
734.5141940250858
 31
0.0
  0
ARC
  5
498
330
1F
100
AcDbEntity
  8
LAY-10
  6
CONTINUOUS
 62
     7
100
AcDbCircle
 10
1220.059671439832
 20
725.9999999999707
 30
0.0
 40
1.0
100
AcDbArc
 50
270.0
 51
354.1906351355561
  0
LINE
  5
499
330
1F
100
AcDbEntity
  8
LAY-10
  6
CONTINUOUS
 62
     7
100
AcDbLine
 10
1222.997920995666
 20
744.9999999999707
 30
0.0
 11
1221.05453561795
 21
725.8987810931565
 31
0.0
  0
LINE
  5
49A
330
1F
100
AcDbEntity
  8
LAY-10
  6
CONTINUOUS
 62
     7
100
AcDbLine
 10
1222.99999999999
 20
750.0000000000002
 30
0.0
 11
1223.99999999999
 21
744.9999999999696
 31
0.0
  0
LINE
  5
49B
330
1F
100
AcDbEntity
  8
LAY-10
  6
CONTINUOUS
 62
     7
100
AcDbLine
 10
1127.999999999998
 20
749.9999999999998
 30
0.0
 11
1127.645751310898
 21
744.9999999999696
 31
0.0
  0
LINE
  5
49C
330
1F
100
AcDbEntity
  8
LAY-10
  6
CONTINUOUS
 62
     7
100
AcDbLine
 10
1122.354248689098
 20
744.9999999999696
 30
0.0
 11
1121.999999999998
 21
749.9999999999998
 31
0.0
  0
LINE
  5
49D
330
1F
100
AcDbEntity
  8
LAY-10
  6
CONTINUOUS
 62
     7
100
AcDbLine
 10
928.0000000000181
 20
749.9999999999998
 30
0.0
 11
927.645751310918
 21
744.9999999999696
 31
0.0
  0
LINE
  5
49E
330
1F
100
AcDbEntity
  8
LAY-10
  6
CONTINUOUS
 62
     7
100
AcDbLine
 10
922.3542486891182
 20
744.9999999999696
 30
0.0
 11
922.0000000000181
 21
749.9999999999998
 31
0.0
  0
LINE
  5
49F
330
1F
100
AcDbEntity
  8
LAY-10
  6
CONTINUOUS
 62
     7
100
AcDbLine
 10
727.9999999999878
 20
749.9999999999998
 30
0.0
 11
727.6457513108878
 21
744.9999999999696
 31
0.0
  0
ARC
  5
4A0
330
1F
100
AcDbEntity
  8
LAY-10
  6
CONTINUOUS
 62
     7
100
AcDbCircle
 10
1133.145898033718
 20
726.9999999999711
 30
0.0
 40
3.0
100
AcDbArc
 50
26.56505117707798
 51
90.00000000000001
  0
ARC
  5
4A1
330
1F
100
AcDbEntity
  8
LAY-10
  6
CONTINUOUS
 62
     7
100
AcDbCircle
 10
1116.854101966238
 20
726.9999999999711
 30
0.0
 40
3.0
100
AcDbArc
 50
90.00000000000001
 51
153.4349488229201
  0
LINE
  5
4A2
330
1F
100
AcDbEntity
  8
LAY-10
  6
CONTINUOUS
 62
     7
100
AcDbLine
 10
1220.059671439832
 20
724.9999999999707
 30
0.0
 11
1139.354101966218
 21
724.9999999999707
 31
0.0
  0
LINE
  5
4A3
330
1F
100
AcDbEntity
  8
LAY-10
  6
CONTINUOUS
 62
     7
100
AcDbLine
 10
1136.670820393218
 20
726.6583592134709
 30
0.0
 11
1135.829179606718
 21
728.3416407864709
 31
0.0
  0
ARC
  5
4A4
330
1F
100
AcDbEntity
  8
LAY-10
  6
CONTINUOUS
 62
     7
100
AcDbCircle
 10
1139.354101966218
 20
727.9999999999707
 30
0.0
 40
3.0
100
AcDbArc
 50
206.565051177076
 51
270.0
  0
LINE
  5
4A5
330
1F
100
AcDbEntity
  8
LAY-10
  6
CONTINUOUS
 62
     7
100
AcDbLine
 10
1113.329179606739
 20
726.6583592134709
 30
0.0
 11
1114.170820393239
 21
728.3416407864709
 31
0.0
  0
ARC
  5
4A6
330
1F
100
AcDbEntity
  8
LAY-10
  6
CONTINUOUS
 62
     7
100
AcDbCircle
 10
1110.645898033739
 20
727.9999999999707
 30
0.0
 40
3.0
100
AcDbArc
 50
270.0
 51
333.4349488229259
  0
ARC
  5
4A7
330
1F
100
AcDbEntity
  8
LAY-10
  6
CONTINUOUS
 62
     7
100
AcDbCircle
 10
933.1458980337288
 20
726.9999999999716
 30
0.0
 40
3.0
100
AcDbArc
 50
26.56505117707507
 51
90.00000000000001
  0
ARC
  5
4A8
330
1F
100
AcDbEntity
  8
LAY-10
  6
CONTINUOUS
 62
     7
100
AcDbCircle
 10
916.8541019662488
 20
726.9999999999716
 30
0.0
 40
3.0
100
AcDbArc
 50
90.00000000000001
 51
153.434948822921
  0
LINE
  5
4A9
330
1F
100
AcDbEntity
  8
LAY-10
  6
CONTINUOUS
 62
     7
100
AcDbLine
 10
936.6708203932285
 20
726.6583592134709
 30
0.0
 11
935.8291796067283
 21
728.3416407864713
 31
0.0
  0
ARC
  5
4AA
330
1F
100
AcDbEntity
  8
LAY-10
  6
CONTINUOUS
 62
     7
100
AcDbCircle
 10
939.354101966228
 20
727.9999999999707
 30
0.0
 40
3.0
100
AcDbArc
 50
206.5650511770751
 51
270.0
  0
LINE
  5
4AB
330
1F
100
AcDbEntity
  8
LAY-10
  6
CONTINUOUS
 62
     7
100
AcDbLine
 10
913.3291796067491
 20
726.6583592134709
 30
0.0
 11
914.1708203932493
 21
728.3416407864713
 31
0.0
  0
ARC
  5
4AC
330
1F
100
AcDbEntity
  8
LAY-10
  6
CONTINUOUS
 62
     7
100
AcDbCircle
 10
910.6458980337496
 20
727.9999999999707
 30
0.0
 40
3.0
100
AcDbArc
 50
270.0
 51
333.434948822925
  0
ARC
  5
4AD
330
1F
100
AcDbEntity
  8
LAY-10
  6
CONTINUOUS
 62
     7
100
AcDbCircle
 10
733.145898033728
 20
726.9999999999716
 30
0.0
 40
3.0
100
AcDbArc
 50
26.56505117707993
 51
90.00000000000001
  0
LINE
  5
4AE
330
1F
100
AcDbEntity
  8
LAY-10
  6
CONTINUOUS
 62
     7
100
AcDbLine
 10
910.6458980337496
 20
724.9999999999707
 30
0.0
 11
739.3541019662276
 21
724.9999999999707
 31
0.0
  0
LINE
  5
4AF
330
1F
100
AcDbEntity
  8
LAY-10
  6
CONTINUOUS
 62
     7
100
AcDbLine
 10
736.6708203932277
 20
726.6583592134709
 30
0.0
 11
735.8291796067275
 21
728.3416407864713
 31
0.0
  0
ARC
  5
4B0
330
1F
100
AcDbEntity
  8
LAY-10
  6
CONTINUOUS
 62
     7
100
AcDbCircle
 10
739.3541019662276
 20
727.9999999999707
 30
0.0
 40
3.0
100
AcDbArc
 50
206.5650511770799
 51
270.0
  0
ARC
  5
4B1
330
1F
100
AcDbEntity
  8
LAY-10
  6
CONTINUOUS
 62
     7
100
AcDbCircle
 10
1024.999999999989
 20
734.9999999999798
 30
0.0
 40
5.0
100
AcDbArc
 50
185.5757227313738
 51
354.4242772686262
  0
LINE
  5
4B2
330
1F
100
AcDbEntity
  8
LAY-10
  6
CONTINUOUS
 62
     7
100
AcDbLine
 10
1030.99999999999
 20
744.9999999999798
 30
0.0
 11
1029.97634329148
 21
734.5141940250858
 31
0.0
  0
LINE
  5
4B3
330
1F
100
AcDbEntity
  8
LAY-10
  6
CONTINUOUS
 62
     7
100
AcDbLine
 10
1018.999999999988
 20
744.9999999999798
 30
0.0
 11
1020.023656708499
 21
734.5141940250858
 31
0.0
  0
LINE
  5
4B4
330
1F
100
AcDbEntity
  8
LAY-10
  6
CONTINUOUS
 62
     7
100
AcDbLine
 10
1221.486206244941
 20
729.9999999999707
 30
0.0
 11
1221.471799505308
 21
729.9999999999707
 31
0.0
  0
LINE
  5
4B5
330
1F
100
AcDbEntity
  8
LAY-10
  6
CONTINUOUS
 62
     7
100
AcDbLine
 10
1210.999999999987
 20
744.9999999999798
 30
0.0
 11
1212.023656708498
 21
734.5141940250858
 31
0.0
  0
ARC
  5
4B6
330
1F
100
AcDbEntity
  8
LAY-10
  6
CONTINUOUS
 62
     7
100
AcDbCircle
 10
1216.999999999988
 20
734.9999999999798
 30
0.0
 40
5.0
100
AcDbArc
 50
185.5757227313739
 51
346.491633709059
  0
LINE
  5
4B7
330
1F
100
AcDbEntity
  8
LAY-10
  6
CONTINUOUS
 62
     7
100
AcDbLine
 10
1211.599999999984
 20
747.9999999999698
 30
0.0
 11
1223.399999999993
 21
747.9999999999698
 31
0.0
  0
LINE
  5
4B8
330
1F
100
AcDbEntity
  8
LAY-10
  6
CONTINUOUS
 62
     7
100
AcDbLine
 10
1211.599999999984
 20
747.9999999999698
 30
0.0
 11
1210.999999999987
 21
744.9999999999702
 31
0.0
  0
LINE
  5
4B9
330
1F
100
AcDbEntity
  8
LAY-10
  6
CONTINUOUS
 62
     7
100
AcDbLine
 10
1110.645898033739
 20
724.9999999999707
 30
0.0
 11
939.354101966228
 21
724.9999999999707
 31
0.0
  0
LINE
  5
4BA
330
1F
100
AcDbEntity
  8
LAY-10
  6
CONTINUOUS
 62
     7
100
AcDbLine
 10
232.9999999999893
 20
729.9999999999707
 30
0.0
 11
1216.999999999988
 21
729.9999999999707
 31
0.0
  0
LINE
  5
4BB
330
1F
100
AcDbEntity
  8
LAY-10
  6
CONTINUOUS
 62
     7
100
AcDbLine
 10
320.0000000001002
 20
715.9971143170199
 30
0.0
 11
320.0000000001002
 21
711.9999999999201
 31
0.0
  0
LINE
  5
4BC
330
1F
100
AcDbEntity
  8
LAY-10
  6
CONTINUOUS
 62
     7
100
AcDbLine
 10
330.0000000001002
 20
715.9971143170199
 30
0.0
 11
330.0000000001002
 21
711.9999999999201
 31
0.0
  0
LINE
  5
4BD
330
1F
100
AcDbEntity
  8
LAY-10
  6
CONTINUOUS
 62
     7
100
AcDbLine
 10
320.0000000001002
 20
715.9971143169938
 30
0.0
 11
330.0000000001002
 21
715.9971143169938
 31
0.0
  0
LINE
  5
4BE
330
1F
100
AcDbEntity
  8
LAY-10
  6
CONTINUOUS
 62
     7
100
AcDbLine
 10
320.0000000001002
 20
711.9999999999147
 30
0.0
 11
330.0000000001002
 21
711.9999999999147
 31
0.0
  0
LINE
  5
4BF
330
1F
100
AcDbEntity
  8
LAY-10
  6
CONTINUOUS
 62
     7
100
AcDbLine
 10
317.4999999999993
 20
730.0000000000202
 30
0.0
 11
332.4999999999993
 21
730.0000000000202
 31
0.0
  0
LINE
  5
4C0
330
1F
100
AcDbEntity
  8
LAY-10
  6
CONTINUOUS
 62
     7
100
AcDbLine
 10
332.5000000000002
 20
704.0000000000248
 30
0.0
 11
330.5000000000002
 21
704.0000000000248
 31
0.0
  0
LINE
  5
4C1
330
1F
100
AcDbEntity
  8
LAY-10
  6
CONTINUOUS
 62
     7
100
AcDbLine
 10
332.5000000000002
 20
725.0000000000202
 30
0.0
 11
317.4999999999986
 21
725.0000000000202
 31
0.0
  0
LINE
  5
4C2
330
1F
100
AcDbEntity
  8
LAY-10
  6
CONTINUOUS
 62
     7
100
AcDbLine
 10
317.5000000000002
 20
723.0000000000202
 30
0.0
 11
332.5000000000002
 21
723.0000000000202
 31
0.0
  0
LINE
  5
4C3
330
1F
100
AcDbEntity
  8
LAY-10
  6
CONTINUOUS
 62
     7
100
AcDbLine
 10
330.5000000000005
 20
704.0000000000202
 30
0.0
 11
330.5000000000005
 21
723.0000000000202
 31
0.0
  0
LINE
  5
4C4
330
1F
100
AcDbEntity
  8
LAY-10
  6
CONTINUOUS
 62
     7
100
AcDbLine
 10
319.7499999999698
 20
724.999999999982
 30
0.0
 11
330.2499999999698
 21
724.999999999982
 31
0.0
  0
ARC
  5
4C5
330
1F
100
AcDbEntity
  8
LAY-10
  6
CONTINUOUS
 62
     7
100
AcDbCircle
 10
321.2499999999698
 20
726.999999999982
 30
0.0
 40
1.0
100
AcDbArc
 50
90.00000000000009
 51
151.9275130641421
  0
ARC
  5
4C6
330
1F
100
AcDbEntity
  8
LAY-10
  6
CONTINUOUS
 62
     7
100
AcDbCircle
 10
324.9999999999698
 20
724.999999999982
 30
0.0
 40
5.25
100
AcDbArc
 50
151.9275130641422
 51
179.9999999999997
  0
LINE
  5
4C7
330
1F
100
AcDbEntity
  8
LAY-10
  6
CONTINUOUS
 62
     7
100
AcDbLine
 10
328.7499999999698
 20
727.999999999982
 30
0.0
 11
321.2499999999698
 21
727.999999999982
 31
0.0
  0
ARC
  5
4C8
330
1F
100
AcDbEntity
  8
LAY-10
  6
CONTINUOUS
 62
     7
100
AcDbCircle
 10
328.7499999999698
 20
726.999999999982
 30
0.0
 40
1.0
100
AcDbArc
 50
28.07248693585815
 51
90.00000000000009
  0
ARC
  5
4C9
330
1F
100
AcDbEntity
  8
LAY-10
  6
CONTINUOUS
 62
     7
100
AcDbCircle
 10
324.9999999999698
 20
724.999999999982
 30
0.0
 40
5.25
100
AcDbArc
 50
0.0000000000011459
 51
28.07248693585798
  0
LINE
  5
4CA
330
1F
100
AcDbEntity
  8
LAY-10
  6
CONTINUOUS
 62
     7
100
AcDbLine
 10
327.9999999999698
 20
722.9999999999857
 30
0.0
 11
327.9999999999698
 21
715.9971143170226
 31
0.0
  0
LINE
  5
4CB
330
1F
100
AcDbEntity
  8
LAY-10
  6
CONTINUOUS
 62
     7
100
AcDbLine
 10
327.3999999999676
 20
715.9971143170226
 30
0.0
 11
327.3999999999676
 21
722.9999999999857
 31
0.0
  0
LINE
  5
4CC
330
1F
100
AcDbEntity
  8
LAY-10
  6
CONTINUOUS
 62
     7
100
AcDbLine
 10
321.9999999999698
 20
722.9999999999857
 30
0.0
 11
321.9999999999698
 21
715.9971143170226
 31
0.0
  0
LINE
  5
4CD
330
1F
100
AcDbEntity
  8
LAY-10
  6
CONTINUOUS
 62
     7
100
AcDbLine
 10
322.5999999999682
 20
715.9971143170226
 30
0.0
 11
322.5999999999682
 21
722.9999999999857
 31
0.0
  0
LINE
  5
4CE
330
1F
100
AcDbEntity
  8
LAY-10
  6
CONTINUOUS
 62
     7
100
AcDbLine
 10
327.3999999999676
 20
703.7999999999813
 30
0.0
 11
327.3999999999676
 21
711.9999999999802
 31
0.0
  0
LINE
  5
4CF
330
1F
100
AcDbEntity
  8
LAY-10
  6
CONTINUOUS
 62
     7
100
AcDbLine
 10
327.9999999999698
 20
711.9999999999802
 30
0.0
 11
327.9999999999698
 21
703.7999999999813
 31
0.0
  0
LINE
  5
4D0
330
1F
100
AcDbEntity
  8
LAY-10
  6
CONTINUOUS
 62
     7
100
AcDbLine
 10
321.9999999999698
 20
711.9999999999802
 30
0.0
 11
321.9999999999698
 21
703.7999999999813
 31
0.0
  0
LINE
  5
4D1
330
1F
100
AcDbEntity
  8
LAY-10
  6
CONTINUOUS
 62
     7
100
AcDbLine
 10
322.5999999999682
 20
703.7999999999813
 30
0.0
 11
322.5999999999682
 21
711.9999999999802
 31
0.0
  0
LINE
  5
4D2
330
1F
100
AcDbEntity
  8
LAY-10
  6
CONTINUOUS
 62
     7
100
AcDbLine
 10
322.1367513459215
 20
703.7999999999813
 30
0.0
 11
322.1367513459215
 21
699.1719999999807
 31
0.0
  0
LINE
  5
4D3
330
1F
100
AcDbEntity
  8
LAY-10
  6
CONTINUOUS
 62
     7
100
AcDbLine
 10
319.2499999999698
 20
703.7999999999813
 30
0.0
 11
319.2499999999698
 21
699.1719999999807
 31
0.0
  0
LINE
  5
4D4
330
1F
100
AcDbEntity
  8
LAY-10
  6
CONTINUOUS
 62
     7
100
AcDbLine
 10
327.863248654018
 20
703.7999999999813
 30
0.0
 11
327.863248654018
 21
699.1719999999807
 31
0.0
  0
ARC
  5
4D5
330
1F
100
AcDbEntity
  8
LAY-10
  6
CONTINUOUS
 62
     7
100
AcDbCircle
 10
324.9999999999698
 20
706.0522524955397
 30
0.0
 40
7.4522524955587
100
AcDbArc
 50
247.4051392327525
 51
292.5948607672478
  0
LINE
  5
4D6
330
1F
100
AcDbEntity
  8
LAY-10
  6
CONTINUOUS
 62
     7
100
AcDbLine
 10
330.7499999999698
 20
703.7999999999813
 30
0.0
 11
330.7499999999698
 21
699.1719999999807
 31
0.0
  0
LINE
  5
4D7
330
1F
100
AcDbEntity
  8
LAY-10
  6
CONTINUOUS
 62
     7
100
AcDbLine
 10
330.7499999999698
 20
703.7999999999813
 30
0.0
 11
319.2499999999698
 21
703.7999999999813
 31
0.0
  0
ARC
  5
4D8
330
1F
100
AcDbEntity
  8
LAY-10
  6
CONTINUOUS
 62
     7
100
AcDbCircle
 10
329.7499999999697
 20
698.1379779541824
 30
0.0
 40
0.5
100
AcDbArc
 50
99.79159752642917
 51
180.0000000000002
  0
LINE
  5
4D9
330
1F
100
AcDbEntity
  8
LAY-10
  6
CONTINUOUS
 62
     7
100
AcDbLine
 10
329.2499999999698
 20
698.5999999999806
 30
0.0
 11
329.2499999999698
 21
698.6007609748359
 31
0.0
  0
ARC
  5
4DA
330
1F
100
AcDbEntity
  8
LAY-10
  6
CONTINUOUS
 62
     7
100
AcDbCircle
 10
320.6933756729438
 20
700.707095571079
 30
0.0
 40
2.107095571097913
100
AcDbArc
 50
226.7638252773316
 51
313.236174722669
  0
ARC
  5
4DB
330
1F
100
AcDbEntity
  8
LAY-10
  6
CONTINUOUS
 62
     7
100
AcDbCircle
 10
320.2499999999698
 20
698.1379779541824
 30
0.0
 40
0.5
100
AcDbArc
 50
0.0000000000002292
 51
80.20840247357106
  0
LINE
  5
4DC
330
1F
100
AcDbEntity
  8
LAY-10
  6
CONTINUOUS
 62
     7
100
AcDbLine
 10
320.7499999999698
 20
698.5999999999806
 30
0.0
 11
320.7499999999698
 21
698.6007609748359
 31
0.0
  0
ARC
  5
4DD
330
1F
100
AcDbEntity
  8
LAY-10
  6
CONTINUOUS
 62
     7
100
AcDbCircle
 10
329.3066243269957
 20
700.707095571079
 30
0.0
 40
2.107095571097882
100
AcDbArc
 50
226.763825277331
 51
313.2361747226693
  0
ARC
  5
4DE
330
1F
100
AcDbEntity
  8
LAY-10
  6
CONTINUOUS
 62
     7
100
AcDbCircle
 10
321.7499999999698
 20
697.5009618943043
 30
0.0
 40
1.0
100
AcDbArc
 50
180.0000000000002
 51
201.7867892982636
  0
LINE
  5
4DF
330
1F
100
AcDbEntity
  8
LAY-10
  6
CONTINUOUS
 62
     7
100
AcDbLine
 10
320.7499999999698
 20
697.5009618943043
 30
0.0
 11
320.7499999999698
 21
698.1379779541824
 31
0.0
  0
ARC
  5
4E0
330
1F
100
AcDbEntity
  8
LAY-10
  6
CONTINUOUS
 62
     7
100
AcDbCircle
 10
324.9999999999698
 20
698.7999999999813
 30
0.0
 40
4.5
100
AcDbArc
 50
201.7867892982638
 51
338.2132107017366
  0
LINE
  5
4E1
330
1F
100
AcDbEntity
  8
LAY-10
  6
CONTINUOUS
 62
     7
100
AcDbLine
 10
329.2499999999698
 20
697.5009618943043
 30
0.0
 11
329.2499999999698
 21
698.1379779541824
 31
0.0
  0
ARC
  5
4E2
330
1F
100
AcDbEntity
  8
LAY-10
  6
CONTINUOUS
 62
     7
100
AcDbCircle
 10
328.2499999999698
 20
697.5009618943043
 30
0.0
 40
1.0
100
AcDbArc
 50
338.2132107017366
 51
0.0000000000002292
  0
LINE
  5
4E3
330
1F
100
AcDbEntity
  8
LAY-10
  6
PHANTOM
 62
     7
100
AcDbLine
 10
317.4999999999984
 20
704.0000000000248
 30
0.0
 11
319.4999999999984
 21
704.0000000000248
 31
0.0
  0
LINE
  5
4E4
330
1F
100
AcDbEntity
  8
LAY-10
  6
PHANTOM
 62
     7
100
AcDbLine
 10
319.4999999999984
 20
704.0000000000202
 30
0.0
 11
319.4999999999984
 21
723.0000000000202
 31
0.0
  0
LINE
  5
4E5
330
1F
100
AcDbEntity
  8
LAY-10
  6
PHANTOM
 62
     7
100
AcDbLine
 10
317.4999999999986
 20
723.0000000000202
 30
0.0
 11
317.4999999999986
 21
704.0000000000248
 31
0.0
  0
LINE
  5
4E6
330
1F
100
AcDbEntity
  8
LAY-10
  6
CONTINUOUS
 62
     7
100
AcDbLine
 10
317.4999999999993
 20
723.0000000000202
 30
0.0
 11
317.4999999999993
 21
730.0000000000202
 31
0.0
  0
LINE
  5
4E7
330
1F
100
AcDbEntity
  8
LAY-10
  6
CONTINUOUS
 62
     7
100
AcDbLine
 10
332.4999999999993
 20
723.0000000000202
 30
0.0
 11
332.4999999999993
 21
730.0000000000202
 31
0.0
  0
LINE
  5
4E8
330
1F
100
AcDbEntity
  8
LAY-10
  6
CONTINUOUS
 62
     7
100
AcDbLine
 10
332.5000000000002
 20
723.0000000000202
 30
0.0
 11
332.5000000000002
 21
704.0000000000202
 31
0.0
  0
LINE
  5
4E9
330
1F
100
AcDbEntity
  8
LAY-10
  6
CONTINUOUS
 62
     7
100
AcDbLine
 10
1120.000000000161
 20
715.9971143170199
 30
0.0
 11
1120.000000000161
 21
711.9999999999201
 31
0.0
  0
LINE
  5
4EA
330
1F
100
AcDbEntity
  8
LAY-10
  6
CONTINUOUS
 62
     7
100
AcDbLine
 10
1130.000000000161
 20
715.9971143170199
 30
0.0
 11
1130.000000000161
 21
711.9999999999201
 31
0.0
  0
LINE
  5
4EB
330
1F
100
AcDbEntity
  8
LAY-10
  6
CONTINUOUS
 62
     7
100
AcDbLine
 10
1120.000000000161
 20
715.9971143169938
 30
0.0
 11
1130.000000000161
 21
715.9971143169938
 31
0.0
  0
LINE
  5
4EC
330
1F
100
AcDbEntity
  8
LAY-10
  6
CONTINUOUS
 62
     7
100
AcDbLine
 10
1120.000000000161
 20
711.9999999999147
 30
0.0
 11
1130.000000000161
 21
711.9999999999147
 31
0.0
  0
LINE
  5
4ED
330
1F
100
AcDbEntity
  8
LAY-10
  6
CONTINUOUS
 62
     7
100
AcDbLine
 10
1117.50000000006
 20
730.0000000000202
 30
0.0
 11
1132.50000000006
 21
730.0000000000202
 31
0.0
  0
LINE
  5
4EE
330
1F
100
AcDbEntity
  8
LAY-10
  6
CONTINUOUS
 62
     7
100
AcDbLine
 10
1132.50000000006
 20
704.0000000000248
 30
0.0
 11
1130.50000000006
 21
704.0000000000248
 31
0.0
  0
LINE
  5
4EF
330
1F
100
AcDbEntity
  8
LAY-10
  6
CONTINUOUS
 62
     7
100
AcDbLine
 10
1132.50000000006
 20
725.0000000000202
 30
0.0
 11
1117.500000000059
 21
725.0000000000202
 31
0.0
  0
LINE
  5
4F0
330
1F
100
AcDbEntity
  8
LAY-10
  6
CONTINUOUS
 62
     7
100
AcDbLine
 10
1117.50000000006
 20
723.0000000000202
 30
0.0
 11
1132.50000000006
 21
723.0000000000202
 31
0.0
  0
LINE
  5
4F1
330
1F
100
AcDbEntity
  8
LAY-10
  6
CONTINUOUS
 62
     7
100
AcDbLine
 10
1130.500000000061
 20
704.0000000000202
 30
0.0
 11
1130.500000000061
 21
723.0000000000202
 31
0.0
  0
LINE
  5
4F2
330
1F
100
AcDbEntity
  8
LAY-10
  6
CONTINUOUS
 62
     7
100
AcDbLine
 10
1119.75000000003
 20
724.999999999982
 30
0.0
 11
1130.25000000003
 21
724.999999999982
 31
0.0
  0
ARC
  5
4F3
330
1F
100
AcDbEntity
  8
LAY-10
  6
CONTINUOUS
 62
     7
100
AcDbCircle
 10
1121.25000000003
 20
726.999999999982
 30
0.0
 40
1.0
100
AcDbArc
 50
90.00000000000009
 51
151.9275130641421
  0
ARC
  5
4F4
330
1F
100
AcDbEntity
  8
LAY-10
  6
CONTINUOUS
 62
     7
100
AcDbCircle
 10
1125.00000000003
 20
724.999999999982
 30
0.0
 40
5.25
100
AcDbArc
 50
151.9275130641422
 51
179.9999999999997
  0
LINE
  5
4F5
330
1F
100
AcDbEntity
  8
LAY-10
  6
CONTINUOUS
 62
     7
100
AcDbLine
 10
1128.75000000003
 20
727.999999999982
 30
0.0
 11
1121.25000000003
 21
727.999999999982
 31
0.0
  0
ARC
  5
4F6
330
1F
100
AcDbEntity
  8
LAY-10
  6
CONTINUOUS
 62
     7
100
AcDbCircle
 10
1128.75000000003
 20
726.999999999982
 30
0.0
 40
1.0
100
AcDbArc
 50
28.07248693585815
 51
90.00000000000009
  0
ARC
  5
4F7
330
1F
100
AcDbEntity
  8
LAY-10
  6
CONTINUOUS
 62
     7
100
AcDbCircle
 10
1125.00000000003
 20
724.999999999982
 30
0.0
 40
5.25
100
AcDbArc
 50
0.0000000000011459
 51
28.07248693585798
  0
LINE
  5
4F8
330
1F
100
AcDbEntity
  8
LAY-10
  6
CONTINUOUS
 62
     7
100
AcDbLine
 10
1128.00000000003
 20
722.9999999999857
 30
0.0
 11
1128.00000000003
 21
715.9971143170226
 31
0.0
  0
LINE
  5
4F9
330
1F
100
AcDbEntity
  8
LAY-10
  6
CONTINUOUS
 62
     7
100
AcDbLine
 10
1127.400000000028
 20
715.9971143170226
 30
0.0
 11
1127.400000000028
 21
722.9999999999857
 31
0.0
  0
LINE
  5
4FA
330
1F
100
AcDbEntity
  8
LAY-10
  6
CONTINUOUS
 62
     7
100
AcDbLine
 10
1122.00000000003
 20
722.9999999999857
 30
0.0
 11
1122.00000000003
 21
715.9971143170226
 31
0.0
  0
LINE
  5
4FB
330
1F
100
AcDbEntity
  8
LAY-10
  6
CONTINUOUS
 62
     7
100
AcDbLine
 10
1122.600000000029
 20
715.9971143170226
 30
0.0
 11
1122.600000000029
 21
722.9999999999857
 31
0.0
  0
LINE
  5
4FC
330
1F
100
AcDbEntity
  8
LAY-10
  6
CONTINUOUS
 62
     7
100
AcDbLine
 10
1127.400000000028
 20
703.7999999999813
 30
0.0
 11
1127.400000000028
 21
711.9999999999802
 31
0.0
  0
LINE
  5
4FD
330
1F
100
AcDbEntity
  8
LAY-10
  6
CONTINUOUS
 62
     7
100
AcDbLine
 10
1128.00000000003
 20
711.9999999999802
 30
0.0
 11
1128.00000000003
 21
703.7999999999813
 31
0.0
  0
LINE
  5
4FE
330
1F
100
AcDbEntity
  8
LAY-10
  6
CONTINUOUS
 62
     7
100
AcDbLine
 10
1122.00000000003
 20
711.9999999999802
 30
0.0
 11
1122.00000000003
 21
703.7999999999813
 31
0.0
  0
LINE
  5
4FF
330
1F
100
AcDbEntity
  8
LAY-10
  6
CONTINUOUS
 62
     7
100
AcDbLine
 10
1122.600000000029
 20
703.7999999999813
 30
0.0
 11
1122.600000000029
 21
711.9999999999802
 31
0.0
  0
LINE
  5
500
330
1F
100
AcDbEntity
  8
LAY-10
  6
CONTINUOUS
 62
     7
100
AcDbLine
 10
1122.136751345982
 20
703.7999999999813
 30
0.0
 11
1122.136751345982
 21
699.1719999999807
 31
0.0
  0
LINE
  5
501
330
1F
100
AcDbEntity
  8
LAY-10
  6
CONTINUOUS
 62
     7
100
AcDbLine
 10
1119.25000000003
 20
703.7999999999813
 30
0.0
 11
1119.25000000003
 21
699.1719999999807
 31
0.0
  0
LINE
  5
502
330
1F
100
AcDbEntity
  8
LAY-10
  6
CONTINUOUS
 62
     7
100
AcDbLine
 10
1127.863248654078
 20
703.7999999999813
 30
0.0
 11
1127.863248654078
 21
699.1719999999807
 31
0.0
  0
ARC
  5
503
330
1F
100
AcDbEntity
  8
LAY-10
  6
CONTINUOUS
 62
     7
100
AcDbCircle
 10
1125.00000000003
 20
706.0522524955397
 30
0.0
 40
7.4522524955587
100
AcDbArc
 50
247.4051392327525
 51
292.5948607672478
  0
LINE
  5
504
330
1F
100
AcDbEntity
  8
LAY-10
  6
CONTINUOUS
 62
     7
100
AcDbLine
 10
1130.75000000003
 20
703.7999999999813
 30
0.0
 11
1130.75000000003
 21
699.1719999999807
 31
0.0
  0
LINE
  5
505
330
1F
100
AcDbEntity
  8
LAY-10
  6
CONTINUOUS
 62
     7
100
AcDbLine
 10
1130.75000000003
 20
703.7999999999813
 30
0.0
 11
1119.25000000003
 21
703.7999999999813
 31
0.0
  0
ARC
  5
506
330
1F
100
AcDbEntity
  8
LAY-10
  6
CONTINUOUS
 62
     7
100
AcDbCircle
 10
1129.75000000003
 20
698.1379779541824
 30
0.0
 40
0.5
100
AcDbArc
 50
99.79159752642917
 51
180.0000000000002
  0
ARC
  5
507
330
1F
100
AcDbEntity
  8
LAY-10
  6
CONTINUOUS
 62
     7
100
AcDbCircle
 10
1120.693375673004
 20
700.707095571079
 30
0.0
 40
2.107095571097913
100
AcDbArc
 50
226.7638252773316
 51
313.236174722669
  0
ARC
  5
508
330
1F
100
AcDbEntity
  8
LAY-10
  6
CONTINUOUS
 62
     7
100
AcDbCircle
 10
1120.25000000003
 20
698.1379779541824
 30
0.0
 40
0.5
100
AcDbArc
 50
0.0000000000002292
 51
80.20840247357106
  0
LINE
  5
509
330
1F
100
AcDbEntity
  8
LAY-10
  6
CONTINUOUS
 62
     7
100
AcDbLine
 10
1120.75000000003
 20
698.5999999999806
 30
0.0
 11
1120.75000000003
 21
698.6007609748359
 31
0.0
  0
ARC
  5
50A
330
1F
100
AcDbEntity
  8
LAY-10
  6
CONTINUOUS
 62
     7
100
AcDbCircle
 10
1129.306624327056
 20
700.707095571079
 30
0.0
 40
2.107095571097882
100
AcDbArc
 50
226.763825277331
 51
313.2361747226693
  0
ARC
  5
50B
330
1F
100
AcDbEntity
  8
LAY-10
  6
CONTINUOUS
 62
     7
100
AcDbCircle
 10
1121.75000000003
 20
697.5009618943043
 30
0.0
 40
1.0
100
AcDbArc
 50
180.0000000000002
 51
201.7867892982636
  0
LINE
  5
50C
330
1F
100
AcDbEntity
  8
LAY-10
  6
CONTINUOUS
 62
     7
100
AcDbLine
 10
1120.75000000003
 20
697.5009618943043
 30
0.0
 11
1120.75000000003
 21
698.1379779541824
 31
0.0
  0
ARC
  5
50D
330
1F
100
AcDbEntity
  8
LAY-10
  6
CONTINUOUS
 62
     7
100
AcDbCircle
 10
1125.00000000003
 20
698.7999999999813
 30
0.0
 40
4.5
100
AcDbArc
 50
201.7867892982638
 51
338.2132107017366
  0
LINE
  5
50E
330
1F
100
AcDbEntity
  8
LAY-10
  6
CONTINUOUS
 62
     7
100
AcDbLine
 10
1129.25000000003
 20
697.5009618943043
 30
0.0
 11
1129.25000000003
 21
698.1379779541824
 31
0.0
  0
ARC
  5
50F
330
1F
100
AcDbEntity
  8
LAY-10
  6
CONTINUOUS
 62
     7
100
AcDbCircle
 10
1128.25000000003
 20
697.5009618943043
 30
0.0
 40
1.0
100
AcDbArc
 50
338.2132107017366
 51
0.0000000000002292
  0
LINE
  5
510
330
1F
100
AcDbEntity
  8
LAY-10
  6
PHANTOM
 62
     7
100
AcDbLine
 10
1117.500000000059
 20
704.0000000000248
 30
0.0
 11
1119.500000000059
 21
704.0000000000248
 31
0.0
  0
LINE
  5
511
330
1F
100
AcDbEntity
  8
LAY-10
  6
PHANTOM
 62
     7
100
AcDbLine
 10
1119.500000000059
 20
704.0000000000202
 30
0.0
 11
1119.500000000059
 21
723.0000000000202
 31
0.0
  0
LINE
  5
512
330
1F
100
AcDbEntity
  8
LAY-10
  6
PHANTOM
 62
     7
100
AcDbLine
 10
1117.500000000059
 20
723.0000000000202
 30
0.0
 11
1117.500000000059
 21
704.0000000000248
 31
0.0
  0
LINE
  5
513
330
1F
100
AcDbEntity
  8
LAY-10
  6
CONTINUOUS
 62
     7
100
AcDbLine
 10
1117.50000000006
 20
723.0000000000202
 30
0.0
 11
1117.50000000006
 21
730.0000000000202
 31
0.0
  0
LINE
  5
514
330
1F
100
AcDbEntity
  8
LAY-10
  6
CONTINUOUS
 62
     7
100
AcDbLine
 10
1132.50000000006
 20
723.0000000000202
 30
0.0
 11
1132.50000000006
 21
730.0000000000202
 31
0.0
  0
LINE
  5
515
330
1F
100
AcDbEntity
  8
LAY-10
  6
CONTINUOUS
 62
     7
100
AcDbLine
 10
1132.50000000006
 20
723.0000000000202
 30
0.0
 11
1132.50000000006
 21
704.0000000000202
 31
0.0
  0
LINE
  5
516
330
1F
100
AcDbEntity
  8
LAY-10
  6
CONTINUOUS
 62
     7
100
AcDbLine
 10
1223.99999999999
 20
744.9999999999711
 30
0.0
 11
1222.997920995666
 21
744.9999999999711
 31
0.0
  0
LINE
  5
517
330
1F
100
AcDbEntity
  8
LAY-10
  6
CONTINUOUS
 62
     7
100
AcDbLine
 10
1210.999999999988
 20
744.9999999999711
 30
0.0
 11
238.99999999999
 21
744.9999999999711
 31
0.0
  0
LINE
  5
518
330
1F
100
AcDbEntity
  8
LAY-10
  6
CONTINUOUS
 62
     7
100
AcDbLine
 10
227.0020790043116
 20
744.9999999999711
 30
0.0
 11
225.9999999999884
 21
744.9999999999711
 31
0.0
  0
LINE
  5
519
330
1F
100
AcDbEntity
  8
LAY-10
  6
CONTINUOUS
 62
     7
100
AcDbLine
 10
228.0
 20
725.0000000000703
 30
0.0
 11
228.0
 21
716.0000000000703
 31
0.0
  0
LINE
  5
51A
330
1F
100
AcDbEntity
  8
LAY-10
  6
CONTINUOUS
 62
     7
100
AcDbLine
 10
330.5000000000005
 20
716.0000000000202
 30
0.0
 11
228.0
 21
716.0000000000202
 31
0.0
  0
LINE
  5
51B
330
1F
100
AcDbEntity
  8
LAY-10
  6
CONTINUOUS
 62
     7
100
AcDbLine
 10
1225.000000000001
 20
750.0000000000125
 30
0.0
 11
225.0
 21
750.0000000000125
 31
0.0
  0
LINE
  5
51C
330
1F
100
AcDbEntity
  8
LAY-10
  6
CONTINUOUS
 62
     7
100
AcDbLine
 10
1222.000000000005
 20
725.0000000000703
 30
0.0
 11
1222.000000000005
 21
716.0000000000703
 31
0.0
  0
LINE
  5
51D
330
1F
100
AcDbEntity
  8
LAY-10
  6
CONTINUOUS
 62
     7
100
AcDbLine
 10
1222.000000000005
 20
725.0000000000202
 30
0.0
 11
228.0
 21
725.0000000000202
 31
0.0
  0
LINE
  5
51E
330
1F
100
AcDbEntity
  8
LAY-10
  6
CONTINUOUS
 62
     7
100
AcDbLine
 10
1222.000000000005
 20
716.0000000000202
 30
0.0
 11
1132.50000000006
 21
716.0000000000202
 31
0.0
  0
LINE
  5
51F
330
1F
100
AcDbEntity
  8
LAY-10
  6
CONTINUOUS
 62
     7
100
AcDbLine
 10
1130.500000000061
 20
716.0000000000202
 30
0.0
 11
332.5000000000002
 21
716.0000000000202
 31
0.0
  0
LEADER
  5
520
330
1F
100
AcDbEntity
  8
LAY-20
  6
CONTINUOUS
 62
     7
100
AcDbLeader
  3
ISO-25
 76
     3
 10
1613.500000000024
 20
895.0000000000589
 30
0.0
 10
1582.849364905425
 20
841.9115427319792
 30
0.0
 10
1519.000000000024
 20
841.9115427319792
 30
0.0
1001
ACAD
1000
DSTYLE
1002
{
1070
     5
1000
EX_BNORM
1070
    41
1040
15.0
1070
   341
1005
7B
1002
}
  0
TEXT
  5
521
330
1F
100
AcDbEntity
  8
LAY-20
  6
CONTINUOUS
 62
     7
100
AcDbText
 10
1532.096557452725
 20
847.2240427319792
 30
0.0
 40
17.1875
  1
別途
 41
1.07185045
  7
EXCADSTD
100
AcDbText
  0
DIMENSION
  5
523
330
1F
100
AcDbEntity
  8
LAY-20
  6
CONTINUOUS
 62
     4
100
AcDbDimension
  2
*D15
 10
1559.999999999995
 20
1075.00000000002
 30
0.0
 11
1547.499999999995
 21
1000.00000000002
 31
0.0
 70
   160
  1
溝幅<>
  3
ISO-25
100
AcDbAlignedDimension
 13
1484.999999999995
 23
925.00000000002
 33
0.0
 14
1484.999999999995
 24
1075.00000000002
 34
0.0
 50
90.0
100
AcDbRotatedDimension
1001
ACAD
1000
DSTYLE
1002
{
1070
   270
1070
     2
1070
     6
1000
EX_BNORM
1070
     7
1000
EX_BNORM
1070
    41
1040
12.5
1070
    42
1040
7.5
1070
    44
1040
7.5
1070
    73
1070
     0
1070
    74
1070
     0
1070
    75
1070
     0
1070
    76
1070
     0
1070
    77
1070
     1
1070
    78
1070
     8
1070
   140
1040
15.590552
1070
   147
1040
0.0
1070
   173
1070
     1
1070
   176
1070
     4
1070
   177
1070
     4
1070
   178
1070
     7
1070
   271
1070
     1
1070
   277
1070
     2
1070
   279
1070
     2
1070
   280
1070
     0
1070
   287
1070
     5
1070
   340
1005
522
1002
}
  0
DIMENSION
  5
531
330
1F
100
AcDbEntity
  8
LAY-20
  6
CONTINUOUS
 62
     4
100
AcDbDimension
  2
*D16
 10
1594.999999999995
 20
895.00000000002
 30
0.0
 11
1582.499999999995
 21
1000.00000000002
 31
0.0
 70
   160
  3
ISO-25
100
AcDbAlignedDimension
 13
1594.999999999995
 23
1105.00000000002
 33
0.0
 14
1594.999999999995
 24
895.00000000002
 34
0.0
 50
90.0
100
AcDbRotatedDimension
1001
ACAD
1000
DSTYLE
1002
{
1070
   270
1070
     2
1070
     6
1000
EX_BNORM
1070
     7
1000
EX_BNORM
1070
    41
1040
12.5
1070
    42
1040
0.0
1070
    44
1040
0.0
1070
    73
1070
     0
1070
    74
1070
     0
1070
    75
1070
     1
1070
    76
1070
     1
1070
    77
1070
     1
1070
    78
1070
     8
1070
   140
1040
15.590552
1070
   147
1040
0.0
1070
   173
1070
     1
1070
   176
1070
     4
1070
   177
1070
     4
1070
   178
1070
     7
1070
   271
1070
     1
1070
   277
1070
     2
1070
   279
1070
     2
1070
   280
1070
     0
1070
   287
1070
     5
1070
   340
1005
522
1002
}
  0
DIMENSION
  5
53C
330
1F
100
AcDbEntity
  8
LAY-20
  6
CONTINUOUS
 62
     4
100
AcDbDimension
  2
*D17
 10
1629.999999999995
 20
890.00000000002
 30
0.0
 11
1617.499999999995
 21
999.1500000000196
 31
0.0
 70
   160
  3
ISO-25
100
AcDbAlignedDimension
 13
1524.999999999995
 23
1108.30000000002
 33
0.0
 14
1524.999999999995
 24
890.00000000002
 34
0.0
 50
90.0
100
AcDbRotatedDimension
1001
ACAD
1000
DSTYLE
1002
{
1070
   270
1070
     2
1070
     6
1000
EX_BNORM
1070
     7
1000
EX_BNORM
1070
    41
1040
12.5
1070
    42
1040
7.5
1070
    44
1040
7.5
1070
    73
1070
     0
1070
    74
1070
     0
1070
    75
1070
     0
1070
    76
1070
     0
1070
    77
1070
     1
1070
    78
1070
     0
1070
   140
1040
15.590552
1070
   147
1040
0.0
1070
   173
1070
     1
1070
   176
1070
     4
1070
   177
1070
     4
1070
   178
1070
     7
1070
   271
1070
     0
1070
   277
1070
     2
1070
   279
1070
     2
1070
   280
1070
     0
1070
   287
1070
     5
1070
   340
1005
522
1002
}
  0
DIMENSION
  5
549
330
1F
100
AcDbEntity
  8
LAY-20
  6
CONTINUOUS
 62
     4
100
AcDbDimension
  2
*D18
 10
226.0000000000196
 20
1161.5
 30
0.0
 11
724.999999999995
 21
1174.0
 31
0.0
 70
   160
  3
ISO-25
100
AcDbAlignedDimension
 13
1223.99999999997
 23
1098.499999999906
 33
0.0
 14
226.0000000000196
 24
1098.499999999906
 34
0.0
100
AcDbRotatedDimension
1001
ACAD
1000
DSTYLE
1002
{
1070
   270
1070
     2
1070
     6
1000
EX_BNORM
1070
     7
1000
EX_BNORM
1070
    41
1040
15.0
1070
    42
1040
7.5
1070
    44
1040
7.5
1070
    73
1070
     0
1070
    74
1070
     0
1070
    75
1070
     0
1070
    76
1070
     0
1070
    77
1070
     1
1070
    78
1070
     8
1070
   140
1040
15.590552
1070
   147
1040
0.0
1070
   173
1070
     1
1070
   176
1070
     4
1070
   177
1070
     4
1070
   178
1070
     7
1070
   271
1070
     1
1070
   277
1070
     2
1070
   279
1070
     2
1070
   280
1070
     0
1070
   287
1070
     5
1070
   340
1005
522
1002
}
  0
DIMENSION
  5
556
330
1F
100
AcDbEntity
  8
LAY-20
  6
CONTINUOUS
 62
     4
100
AcDbDimension
  2
*D19
 10
1289.999999999995
 20
1018.0
 30
0.0
 11
1277.499999999995
 21
1061.5
 31
0.0
 70
   160
  3
ISO-25
100
AcDbAlignedDimension
 13
1374.999999999995
 23
1105.0
 33
0.0
 14
1374.999999999995
 24
1018.0
 34
0.0
 50
90.0
100
AcDbRotatedDimension
1001
ACAD
1000
DSTYLE
1002
{
1070
   270
1070
     2
1070
     6
1000
EX_BNORM
1070
     7
1000
EX_BNORM
1070
    41
1040
15.0
1070
    42
1040
7.5
1070
    44
1040
7.5
1070
    73
1070
     0
1070
    74
1070
     0
1070
    75
1070
     0
1070
    76
1070
     0
1070
    77
1070
     1
1070
    78
1070
     8
1070
   140
1040
15.590552
1070
   147
1040
0.0
1070
   173
1070
     1
1070
   176
1070
     4
1070
   177
1070
     4
1070
   178
1070
     7
1070
   271
1070
     1
1070
   277
1070
     2
1070
   279
1070
     2
1070
   280
1070
     0
1070
   287
1070
     5
1070
   340
1005
522
1002
}
  0
DIMENSION
  5
563
330
1F
100
AcDbEntity
  8
LAY-20
  6
CONTINUOUS
 62
     4
100
AcDbDimension
  2
*D20
 10
1324.999999999995
 20
1024.49741635558
 30
0.0
 11
1312.499999999995
 21
1061.498708177785
 31
0.0
 70
   160
  3
ISO-25
100
AcDbAlignedDimension
 13
1380.000056068795
 23
1098.49999999999
 33
0.0
 14
1380.000056068795
 24
1024.49741635558
 34
0.0
 50
90.0
100
AcDbRotatedDimension
1001
ACAD
1000
DSTYLE
1002
{
1070
   270
1070
     2
1070
     6
1000
EX_BNORM
1070
     7
1000
EX_BNORM
1070
    41
1040
15.0
1070
    42
1040
7.5
1070
    44
1040
7.5
1070
    73
1070
     0
1070
    74
1070
     0
1070
    75
1070
     0
1070
    76
1070
     0
1070
    77
1070
     1
1070
    78
1070
     8
1070
   140
1040
15.590552
1070
   147
1040
0.0
1070
   173
1070
     1
1070
   176
1070
     4
1070
   177
1070
     4
1070
   178
1070
     7
1070
   271
1070
     1
1070
   277
1070
     2
1070
   279
1070
     2
1070
   280
1070
     0
1070
   287
1070
     5
1070
   340
1005
522
1002
}
  0
DIMENSION
  5
570
330
1F
100
AcDbEntity
  8
LAY-20
  6
CONTINUOUS
 62
     4
100
AcDbDimension
  2
*D21
 10
224.9999999999951
 20
1196.5
 30
0.0
 11
724.9999999999752
 21
1209.0
 31
0.0
 70
   160
  3
ISO-25
100
AcDbAlignedDimension
 13
1224.999999999955
 23
1111.5
 33
0.0
 14
224.9999999999951
 24
1111.5
 34
0.0
100
AcDbRotatedDimension
1001
ACAD
1000
DSTYLE
1002
{
1070
   270
1070
     2
1070
     6
1000
EX_BNORM
1070
     7
1000
EX_BNORM
1070
    41
1040
15.0
1070
    42
1040
7.5
1070
    44
1040
7.5
1070
    73
1070
     0
1070
    74
1070
     0
1070
    75
1070
     0
1070
    76
1070
     0
1070
    77
1070
     1
1070
    78
1070
     8
1070
   140
1040
15.590552
1070
   147
1040
0.0
1070
   173
1070
     1
1070
   176
1070
     4
1070
   177
1070
     4
1070
   178
1070
     7
1070
   271
1070
     1
1070
   277
1070
     2
1070
   279
1070
     2
1070
   280
1070
     0
1070
   287
1070
     5
1070
   340
1005
522
1002
}
  0
DIMENSION
  5
57D
330
1F
100
AcDbEntity
  8
LAY-20
  6
CONTINUOUS
 62
     4
100
AcDbDimension
  2
*D22
 10
1484.999999999982
 20
1161.5
 30
0.0
 11
1429.999999999991
 21
1174.0
 31
0.0
 70
   160
  3
ISO-25
100
AcDbAlignedDimension
 13
1375.0
 23
1105.0
 33
0.0
 14
1484.999999999982
 24
1106.299999999982
 34
0.0
100
AcDbRotatedDimension
1001
ACAD
1000
DSTYLE
1002
{
1070
   270
1070
     2
1070
     6
1000
EX_BNORM
1070
     7
1000
EX_BNORM
1070
    41
1040
15.0
1070
    42
1040
7.5
1070
    44
1040
7.5
1070
    73
1070
     0
1070
    74
1070
     0
1070
    75
1070
     0
1070
    76
1070
     0
1070
    77
1070
     1
1070
    78
1070
     8
1070
   140
1040
15.590552
1070
   147
1040
0.0
1070
   173
1070
     1
1070
   176
1070
     4
1070
   177
1070
     4
1070
   178
1070
     7
1070
   271
1070
     1
1070
   277
1070
     2
1070
   279
1070
     2
1070
   280
1070
     0
1070
   287
1070
     5
1070
   340
1005
522
1002
}
  0
DIMENSION
  5
58A
330
1F
100
AcDbEntity
  8
LAY-20
  6
CONTINUOUS
 62
     4
100
AcDbDimension
  2
*D23
 10
1525.0
 20
1161.5
 30
0.0
 11
1505.0
 21
1174.0
 31
0.0
 70
   160
  3
ISO-25
100
AcDbAlignedDimension
 13
1485.0
 23
1161.5
 33
0.0
 14
1525.0
 24
1111.5
 34
0.0
100
AcDbRotatedDimension
1001
ACAD
1000
DSTYLE
1002
{
1070
   270
1070
     2
1070
     6
1000
EX_BNORM
1070
     7
1000
EX_BNORM
1070
    41
1040
15.0
1070
    42
1040
7.5
1070
    44
1040
7.5
1070
    73
1070
     0
1070
    74
1070
     0
1070
    75
1070
     1
1070
    76
1070
     0
1070
    77
1070
     1
1070
    78
1070
     8
1070
   140
1040
15.590552
1070
   147
1040
0.0
1070
   173
1070
     1
1070
   176
1070
     4
1070
   177
1070
     4
1070
   178
1070
     7
1070
   271
1070
     1
1070
   277
1070
     2
1070
   279
1070
     2
1070
   280
1070
     0
1070
   287
1070
     5
1070
   340
1005
522
1002
}
  0
DIMENSION
  5
596
330
1F
100
AcDbEntity
  8
LAY-20
  6
CONTINUOUS
 62
     4
100
AcDbDimension
  2
*D24
 10
724.99999999996
 20
835.5000000000001
 30
0.0
 11
524.99999999996
 21
848.0000000000001
 31
0.0
 70
   160
  3
ISO-25
100
AcDbAlignedDimension
 13
324.99999999996
 23
866.49992147903
 33
0.0
 14
724.99999999996
 24
866.49992147903
 34
0.0
100
AcDbRotatedDimension
1001
ACAD
1000
DSTYLE
1002
{
1070
   270
1070
     2
1070
     6
1000
EX_BNORM
1070
     7
1000
EX_BNORM
1070
    41
1040
15.0
1070
    42
1040
7.5
1070
    44
1040
7.5
1070
    73
1070
     0
1070
    74
1070
     0
1070
    75
1070
     0
1070
    76
1070
     0
1070
    77
1070
     1
1070
    78
1070
     8
1070
   140
1040
15.590552
1070
   147
1040
0.0
1070
   173
1070
     1
1070
   176
1070
     4
1070
   177
1070
     4
1070
   178
1070
     7
1070
   271
1070
     1
1070
   277
1070
     2
1070
   279
1070
     2
1070
   280
1070
     0
1070
   287
1070
     5
1070
   340
1005
522
1002
}
  0
DIMENSION
  5
5A3
330
1F
100
AcDbEntity
  8
LAY-20
  6
CONTINUOUS
 62
     4
100
AcDbDimension
  2
*D25
 10
1124.9999999999
 20
835.5000000000001
 30
0.0
 11
924.9999999999301
 21
848.0000000000001
 31
0.0
 70
   160
  3
ISO-25
100
AcDbAlignedDimension
 13
724.99999999996
 23
835.5000000000001
 33
0.0
 14
1124.9999999999
 24
866.49992147903
 34
0.0
100
AcDbRotatedDimension
1001
ACAD
1000
DSTYLE
1002
{
1070
   270
1070
     2
1070
     6
1000
EX_BNORM
1070
     7
1000
EX_BNORM
1070
    41
1040
15.0
1070
    42
1040
7.5
1070
    44
1040
7.5
1070
    73
1070
     0
1070
    74
1070
     0
1070
    75
1070
     1
1070
    76
1070
     0
1070
    77
1070
     1
1070
    78
1070
     8
1070
   140
1040
15.590552
1070
   147
1040
0.0
1070
   173
1070
     1
1070
   176
1070
     4
1070
   177
1070
     4
1070
   178
1070
     7
1070
   271
1070
     1
1070
   277
1070
     2
1070
   279
1070
     2
1070
   280
1070
     0
1070
   287
1070
     5
1070
   340
1005
522
1002
}
  0
DIMENSION
  5
5AF
330
1F
100
AcDbEntity
  8
LAY-20
  6
CONTINUOUS
 62
     4
100
AcDbDimension
  2
*D26
 10
1225.0
 20
835.5000000000001
 30
0.0
 11
1174.99999999995
 21
848.0000000000001
 31
0.0
 70
   160
  3
ISO-25
100
AcDbAlignedDimension
 13
1124.9999999999
 23
835.5000000000001
 33
0.0
 14
1225.0
 24
885.5000000000001
 34
0.0
100
AcDbRotatedDimension
1001
ACAD
1000
DSTYLE
1002
{
1070
   270
1070
     2
1070
     6
1000
EX_BNORM
1070
     7
1000
EX_BNORM
1070
    41
1040
15.0
1070
    42
1040
7.5
1070
    44
1040
7.5
1070
    73
1070
     0
1070
    74
1070
     0
1070
    75
1070
     1
1070
    76
1070
     0
1070
    77
1070
     1
1070
    78
1070
     8
1070
   140
1040
15.590552
1070
   147
1040
0.0
1070
   173
1070
     1
1070
   176
1070
     4
1070
   177
1070
     4
1070
   178
1070
     7
1070
   271
1070
     1
1070
   277
1070
     2
1070
   279
1070
     2
1070
   280
1070
     0
1070
   287
1070
     5
1070
   340
1005
522
1002
}
  0
DIMENSION
  5
5BB
330
1F
100
AcDbEntity
  8
LAY-20
  6
CONTINUOUS
 62
     4
100
AcDbDimension
  2
*D27
 10
224.99999999999
 20
835.5000000000001
 30
0.0
 11
274.999999999975
 21
848.0000000000001
 31
0.0
 70
   160
  3
ISO-25
100
AcDbAlignedDimension
 13
324.99999999996
 23
835.5000000000001
 33
0.0
 14
224.99999999999
 24
885.5000000000001
 34
0.0
100
AcDbRotatedDimension
1001
ACAD
1000
DSTYLE
1002
{
1070
   270
1070
     2
1070
     6
1000
EX_BNORM
1070
     7
1000
EX_BNORM
1070
    41
1040
15.0
1070
    42
1040
7.5
1070
    44
1040
7.5
1070
    73
1070
     0
1070
    74
1070
     0
1070
    75
1070
     1
1070
    76
1070
     0
1070
    77
1070
     1
1070
    78
1070
     8
1070
   140
1040
15.590552
1070
   147
1040
0.0
1070
   173
1070
     1
1070
   176
1070
     4
1070
   177
1070
     4
1070
   178
1070
     7
1070
   271
1070
     1
1070
   277
1070
     2
1070
   279
1070
     2
1070
   280
1070
     0
1070
   287
1070
     5
1070
   340
1005
522
1002
}
  0
DIMENSION
  5
5C7
330
1F
100
AcDbEntity
  8
LAY-20
  6
CONTINUOUS
 62
     4
100
AcDbDimension
  2
*D28
 10
1525.0
 20
765.4999999999999
 30
0.0
 11
1450.0
 21
777.9999999999999
 31
0.0
 70
   160
  3
ISO-25
100
AcDbAlignedDimension
 13
1375.0
 23
1017.99741635558
 33
0.0
 14
1525.0
 24
885.49999999998
 34
0.0
100
AcDbRotatedDimension
1001
ACAD
1000
DSTYLE
1002
{
1070
   270
1070
     2
1070
     6
1000
EX_BNORM
1070
     7
1000
EX_BNORM
1070
    41
1040
15.0
1070
    42
1040
7.5
1070
    44
1040
7.5
1070
    73
1070
     0
1070
    74
1070
     0
1070
    75
1070
     0
1070
    76
1070
     0
1070
    77
1070
     1
1070
    78
1070
     8
1070
   140
1040
15.590552
1070
   147
1040
0.0
1070
   173
1070
     1
1070
   176
1070
     4
1070
   177
1070
     4
1070
   178
1070
     7
1070
   271
1070
     1
1070
   277
1070
     2
1070
   279
1070
     2
1070
   280
1070
     0
1070
   287
1070
     5
1070
   340
1005
522
1002
}
  0
DIMENSION
  5
5D4
330
1F
100
AcDbEntity
  8
LAY-20
  6
CONTINUOUS
 62
     4
100
AcDbDimension
  2
*D29
 10
1484.999999999982
 20
800.4999999999999
 30
0.0
 11
1429.999999999991
 21
812.9999999999999
 31
0.0
 70
   160
  3
ISO-25
100
AcDbAlignedDimension
 13
1375.0
 23
800.4999999999999
 33
0.0
 14
1484.999999999982
 24
890.999999999985
 34
0.0
100
AcDbRotatedDimension
1001
ACAD
1000
DSTYLE
1002
{
1070
   270
1070
     2
1070
     6
1000
EX_BNORM
1070
     7
1000
EX_BNORM
1070
    41
1040
15.0
1070
    42
1040
7.5
1070
    44
1040
7.5
1070
    73
1070
     0
1070
    74
1070
     0
1070
    75
1070
     1
1070
    76
1070
     0
1070
    77
1070
     1
1070
    78
1070
     8
1070
   140
1040
15.590552
1070
   147
1040
0.0
1070
   173
1070
     1
1070
   176
1070
     4
1070
   177
1070
     4
1070
   178
1070
     7
1070
   271
1070
     1
1070
   277
1070
     2
1070
   279
1070
     2
1070
   280
1070
     0
1070
   287
1070
     5
1070
   340
1005
522
1002
}
  0
DIMENSION
  5
5E0
330
1F
100
AcDbEntity
  8
LAY-20
  6
CONTINUOUS
 62
     4
100
AcDbDimension
  2
*D30
 10
1525.0
 20
800.4999999999999
 30
0.0
 11
1505.0
 21
812.9999999999999
 31
0.0
 70
   160
  3
ISO-25
100
AcDbAlignedDimension
 13
1485.0
 23
800.4999999999999
 33
0.0
 14
1525.0
 24
800.4999999999999
 34
0.0
100
AcDbRotatedDimension
1001
ACAD
1000
DSTYLE
1002
{
1070
   270
1070
     2
1070
     6
1000
EX_BNORM
1070
     7
1000
EX_BNORM
1070
    41
1040
15.0
1070
    42
1040
0.0
1070
    44
1040
0.0
1070
    73
1070
     0
1070
    74
1070
     0
1070
    75
1070
     1
1070
    76
1070
     1
1070
    77
1070
     1
1070
    78
1070
     8
1070
   140
1040
15.590552
1070
   147
1040
0.0
1070
   173
1070
     1
1070
   176
1070
     4
1070
   177
1070
     4
1070
   178
1070
     7
1070
   271
1070
     1
1070
   277
1070
     2
1070
   279
1070
     2
1070
   280
1070
     0
1070
   287
1070
     5
1070
   340
1005
522
1002
}
  0
DIMENSION
  5
5EB
330
1F
100
AcDbEntity
  8
LAY-20
  6
CONTINUOUS
 62
     4
100
AcDbDimension
  2
*D31
 10
1480.499999999983
 20
835.5000000000001
 30
0.0
 11
1427.749999999992
 21
848.0000000000001
 31
0.0
 70
   160
  3
ISO-25
100
AcDbAlignedDimension
 13
1375.0
 23
835.5000000000001
 33
0.0
 14
1480.499999999983
 24
890.4999999999843
 34
0.0
100
AcDbRotatedDimension
1001
ACAD
1000
DSTYLE
1002
{
1070
   270
1070
     2
1070
     6
1000
EX_BNORM
1070
     7
1000
EX_BNORM
1070
    41
1040
15.0
1070
    42
1040
7.5
1070
    44
1040
7.5
1070
    73
1070
     0
1070
    74
1070
     0
1070
    75
1070
     1
1070
    76
1070
     0
1070
    77
1070
     1
1070
    78
1070
     8
1070
   140
1040
15.590552
1070
   147
1040
0.0
1070
   173
1070
     1
1070
   176
1070
     4
1070
   177
1070
     4
1070
   178
1070
     7
1070
   271
1070
     1
1070
   277
1070
     2
1070
   279
1070
     2
1070
   280
1070
     0
1070
   287
1070
     5
1070
   340
1005
522
1002
}
  0
LINE
  5
5F7
330
1F
100
AcDbEntity
  8
LAY-255
  6
CONTINUOUS
 62
     7
100
AcDbLine
 10
1925.0
 20
110.0
 30
0.0
 11
1425.0
 21
110.0
 31
0.0
  0
LINE
  5
5F8
330
1F
100
AcDbEntity
  8
LAY-255
  6
CONTINUOUS
 62
     7
100
AcDbLine
 10
1444.0
 20
79.99999999999999
 30
0.0
 11
1484.0
 21
105.0
 31
0.0
  0
LINE
  5
5F9
330
1F
100
AcDbEntity
  8
LAY-255
  6
CONTINUOUS
 62
     7
100
AcDbLine
 10
1484.0
 20
105.0
 30
0.0
 11
1524.0
 21
79.99999999999999
 31
0.0
  0
LINE
  5
5FA
330
1F
100
AcDbEntity
  8
LAY-255
  6
CONTINUOUS
 62
     7
100
AcDbLine
 10
1524.0
 20
79.99999999999999
 30
0.0
 11
1484.0
 21
55.0
 31
0.0
  0
LINE
  5
5FB
330
1F
100
AcDbEntity
  8
LAY-255
  6
CONTINUOUS
 62
     7
100
AcDbLine
 10
1484.0
 20
55.0
 30
0.0
 11
1444.0
 21
79.99999999999999
 31
0.0
  0
LINE
  5
5FC
330
1F
100
AcDbEntity
  8
LAY-255
  6
CONTINUOUS
 62
     7
100
AcDbLine
 10
25.0
 20
50.0
 30
0.0
 11
1925.0
 21
50.0
 31
0.0
  0
LINE
  5
5FD
330
1F
100
AcDbEntity
  8
LAY-255
  6
CONTINUOUS
 62
     7
100
AcDbLine
 10
25.0
 20
1400.0
 30
0.0
 11
1925.0
 21
1400.0
 31
0.0
  0
LINE
  5
5FE
330
1F
100
AcDbEntity
  8
LAY-255
  6
CONTINUOUS
 62
     7
100
AcDbLine
 10
25.0
 20
50.0
 30
0.0
 11
25.0
 21
1400.0
 31
0.0
  0
LINE
  5
5FF
330
1F
100
AcDbEntity
  8
LAY-255
  6
CONTINUOUS
 62
     4
100
AcDbLine
 10
1425.0
 20
140.0
 30
0.0
 11
1925.0
 21
140.0
 31
0.0
  0
LINE
  5
600
330
1F
100
AcDbEntity
  8
LAY-255
  6
CONTINUOUS
 62
     4
100
AcDbLine
 10
1675.0
 20
140.0
 30
0.0
 11
1675.0
 21
110.0
 31
0.0
  0
POINT
  5
601
330
1F
100
AcDbEntity
  8
LAY-255
  6
CONTINUOUS
 62
     7
100
AcDbPoint
 10
1445.0
 20
275.0000000000003
 30
0.0
  0
POINT
  5
602
330
1F
100
AcDbEntity
  8
LAY-255
  6
CONTINUOUS
 62
     7
100
AcDbPoint
 10
1445.0
 20
225.0000000000002
 30
0.0
  0
POINT
  5
603
330
1F
100
AcDbEntity
  8
LAY-255
  6
CONTINUOUS
 62
     7
100
AcDbPoint
 10
1445.0
 20
250.0000000000002
 30
0.0
  0
POINT
  5
604
330
1F
100
AcDbEntity
  8
LAY-255
  6
CONTINUOUS
 62
     7
100
AcDbPoint
 10
1445.0
 20
200.0000000000002
 30
0.0
  0
POINT
  5
605
330
1F
100
AcDbEntity
  8
LAY-255
  6
CONTINUOUS
 62
     7
100
AcDbPoint
 10
1445.0
 20
175.0000000000001
 30
0.0
  0
POINT
  5
606
330
1F
100
AcDbEntity
  8
LAY-255
  6
CONTINUOUS
 62
     7
100
AcDbPoint
 10
1445.0
 20
150.0000000000001
 30
0.0
  0
LINE
  5
607
330
1F
100
AcDbEntity
  8
LAY-255
  6
CONTINUOUS
 62
     7
100
AcDbLine
 10
1925.0
 20
50.0
 30
0.0
 11
1925.0
 21
1400.0
 31
0.0
  0
LINE
  5
608
330
1F
100
AcDbEntity
  8
LAY-255
  6
CONTINUOUS
 62
     7
100
AcDbLine
 10
1425.0
 20
50.0
 30
0.0
 11
1425.0
 21
385.0000000000003
 31
0.0
  0
LINE
  5
609
330
1F
100
AcDbEntity
  8
LAY-255
  6
CONTINUOUS
 62
     7
100
AcDbLine
 10
1925.0
 20
385.0000000000003
 30
0.0
 11
1425.0
 21
385.0000000000003
 31
0.0
  0
LINE
  5
60A
330
1F
100
AcDbEntity
  8
LAY-255
  6
CONTINUOUS
 62
     4
100
AcDbLine
 10
1915.0
 20
325.0000000000003
 30
0.0
 11
1435.0
 21
325.0000000000003
 31
0.0
  0
LINE
  5
60B
330
1F
100
AcDbEntity
  8
LAY-255
  6
CONTINUOUS
 62
     4
100
AcDbLine
 10
1915.0
 20
355.0000000000003
 30
0.0
 11
1435.0
 21
355.0000000000003
 31
0.0
  0
POINT
  5
60C
330
1F
100
AcDbEntity
  8
LAY-255
  6
CONTINUOUS
 62
     7
100
AcDbPoint
 10
1500.0
 20
330.0000000000003
 30
0.0
  0
POINT
  5
60D
330
1F
100
AcDbEntity
  8
LAY-255
  6
CONTINUOUS
 62
     7
100
AcDbPoint
 10
1500.0
 20
360.0000000000003
 30
0.0
  0
POINT
  5
60E
330
1F
100
AcDbEntity
  8
LAY-255
  6
CONTINUOUS
 62
     7
100
AcDbPoint
 10
1445.0
 20
300.0000000000003
 30
0.0
  0
TEXT
  5
60F
330
1F
100
AcDbEntity
  8
LAY-255
  6
CONTINUOUS
 62
     7
100
AcDbText
 10
1540.691894370117
 20
77.71874999999999
 30
0.0
 40
25.78125
  1
福西鋳物株式会社
 41
1.342691871783662
  7
EXCADSTD
100
AcDbText
  0
TEXT
  5
610
330
1F
100
AcDbEntity
  8
LAY-255
  6
CONTINUOUS
 62
     7
100
AcDbText
 10
1542.546875
 20
59.90624999999999
 30
0.0
 40
8.59375
  1
ＦＵＫＵＮＩＳＨＩ
 41
1.204799226045263
  7
EXCADSTD
100
AcDbText
  0
TEXT
  5
611
330
1F
100
AcDbEntity
  8
LAY-255
  6
CONTINUOUS
 62
     7
100
AcDbText
 10
1663.595982142857
 20
59.90624999999999
 30
0.0
 40
8.59375
  1
ＦＯＵＮＤＲＹ
 41
1.243252752978497
  7
EXCADSTD
100
AcDbText
  0
TEXT
  5
612
330
1F
100
AcDbEntity
  8
LAY-255
  6
CONTINUOUS
 62
     7
100
AcDbText
 10
1759.97295734375
 20
59.90624999999999
 30
0.0
 40
8.59375
  1
ＣＯ.,ＬＴＤ.
 41
1.243831100341625
  7
EXCADSTD
100
AcDbText
  0
TEXT
  5
613
330
1F
100
AcDbEntity
  8
LAY-255
  6
CONTINUOUS
 62
     7
100
AcDbText
 10
1470.171875
 20
68.59375
 30
0.0
 40
25.78125
  1
S
 41
0.7582677563636363
  7
EXCADSTD
100
AcDbText
  0
TEXT
  5
614
330
1F
100
AcDbEntity
  8
LAY-255
  6
CONTINUOUS
 62
     7
100
AcDbText
 10
1485.5234375
 20
68.7470518868
 30
0.0
 40
25.78125
  1
F
 41
0.7440945272727272
  7
EXCADSTD
100
AcDbText
  0
TEXT
  5
615
330
1F
100
AcDbEntity
  8
LAY-255
  6
CONTINUOUS
 62
     7
100
AcDbText
 10
1685.52734375
 20
122.1093749999999
 30
0.0
 40
12.890625
  1
縮尺
 41
1.080708718181818
  7
EXCADSTD
100
AcDbText
  0
TEXT
  5
616
330
1F
100
AcDbEntity
  8
LAY-255
  6
CONTINUOUS
 62
     7
100
AcDbText
 10
1435.76171875
 20
122.1093749999999
 30
0.0
 40
12.890625
  1
作成日
 41
1.000629973818182
  7
EXCADSTD
100
AcDbText
  0
TEXT
  5
617
330
1F
100
AcDbEntity
  8
LAY-255
  6
CONTINUOUS
 62
     7
100
AcDbText
 10
1728.40625
 20
117.8124999999999
 30
0.0
 40
17.1875
  1
１：５,１：１
 41
0.8819559783040489
  7
EXCADSTD
100
AcDbText
  0
TEXT
  5
618
330
1F
100
AcDbEntity
  8
LAY-255
  6
CONTINUOUS
 62
     7
100
AcDbText
 10
1445.703125
 20
252.8125000000003
 30
0.0
 40
17.1875
  1
構造：ガタツキ防止式
 41
1.019908786570248
  7
EXCADSTD
100
AcDbText
  0
TEXT
  5
619
330
1F
100
AcDbEntity
  8
LAY-255
  6
CONTINUOUS
 62
     7
100
AcDbText
 10
1446.5625
 20
227.8125000000002
 30
0.0
 40
17.1875
  1
スキマ：６
 41
0.9896539615221989
  7
EXCADSTD
100
AcDbText
  0
TEXT
  5
61A
330
1F
100
AcDbEntity
  8
LAY-255
  6
CONTINUOUS
 62
     7
100
AcDbText
 10
1446.171875
 20
202.8125
 30
0.0
 40
17.1875
  1
表面：すべり止めクリスタル模様
 41
1.015836889542037
  7
EXCADSTD
100
AcDbText
  0
TEXT
  5
61B
330
1F
100
AcDbEntity
  8
LAY-255
  6
CONTINUOUS
 62
     7
100
AcDbText
 10
1446.171875
 20
277.8125000000003
 30
0.0
 40
17.1875
  1
用途：Ｕ形側溝用
 41
1.014398253506493
  7
EXCADSTD
100
AcDbText
  0
TEXT
  5
61C
330
1F
100
AcDbEntity
  8
LAY-255
  6
CONTINUOUS
 62
     7
100
AcDbText
 10
1436.328125
 20
332.8125000000003
 30
0.0
 40
17.1875
  1
型式
 41
1.056348480681818
  7
EXCADSTD
100
AcDbText
  0
TEXT
  5
61D
330
1F
100
AcDbEntity
  8
LAY-255
  6
CONTINUOUS
 62
     7
100
AcDbText
 10
1437.109375
 20
362.8125000000003
 30
0.0
 40
17.1875
  1
品名
 41
0.9788386340909091
  7
EXCADSTD
100
AcDbText
  0
TEXT
  5
61E
330
1F
100
AcDbEntity
  8
LAY-255
  6
CONTINUOUS
 62
     7
100
AcDbText
 10
1501.015625
 20
362.8125000000003
 30
0.0
 40
17.1875
  1
鋳鉄製ライナー側溝グレーチング
 41
1.017435374025974
  7
EXCADSTD
100
AcDbText
  0
TEXT
  5
61F
330
1F
100
AcDbEntity
  8
LAY-255
  6
CONTINUOUS
 62
     7
100
AcDbText
 10
1446.015625
 20
302.8125000000003
 30
0.0
 40
17.1875
  1
適用溝幅：１５０用
 41
1.014552031760644
  7
EXCADSTD
100
AcDbText
  0
TEXT
  5
620
330
1F
100
AcDbEntity
  8
LAY-255
  6
CONTINUOUS
 62
     7
100
AcDbText
 10
1446.875
 20
177.8124999999999
 30
0.0
 40
17.1875
  1
受枠：スチール（溶融亜鉛めっき）
 41
0.9724132705505761
  7
EXCADSTD
100
AcDbText
  0
TEXT
  5
621
330
1F
100
AcDbEntity
  8
LAY-255
  6
CONTINUOUS
 62
     7
100
AcDbText
 10
1505.625
 20
332.8125000000003
 30
0.0
 40
17.1875
  1
Ｆ２０Ｌ－１５ＺＵＢ－Ｔ型
 41
0.9973639688537548
  7
EXCADSTD
100
AcDbText
  0
TEXT
  5
622
330
1F
100
AcDbEntity
  8
LAY-255
  6
CONTINUOUS
 62
     7
100
AcDbText
 10
1506.40625
 20
117.8124999999999
 30
0.0
 40
17.1875
  1
１９／１１／１２
 41
0.9652981384415584
  7
EXCADSTD
100
AcDbText
  0
TEXT
  5
623
330
1F
100
AcDbEntity
  8
LAY-255
  6
CONTINUOUS
 62
     7
100
AcDbText
 10
1446.015625
 20
152.8124999999999
 30
0.0
 40
17.1875
  1
適用荷重：歩行用・Ｔ－２（レベルＤ）
 41
0.9788386340909091
  7
EXCADSTD
100
AcDbText
  0
ENDSEC
  0
SECTION
  2
OBJECTS
  0
DICTIONARY
  5
C
330
0
100
AcDbDictionary
  3
ACAD_GROUP
350
D
  3
ACAD_LAYOUT
350
1A
  3
ACAD_MATERIAL
350
43
  3
ACAD_MLEADERSTYLE
350
6B
  3
ACAD_MLINESTYLE
350
17
  3
ACAD_PLOTSETTINGS
350
19
  3
ACAD_SCALELIST
350
47
  3
ACAD_VISUALSTYLE
350
2A
  3
ACDBHEADERROUNDTRIPXREC
350
624
  3
ACDBVARIABLEDICTIONARY
350
645
  0
DICTIONARY
  5
650
330
8
100
AcDbDictionary
280
     1
  3
ACAD_XREC_ROUNDTRIP
360
651
  0
DICTIONARY
  5
D
102
{ACAD_REACTORS
330
C
102
}
330
C
100
AcDbDictionary
  0
DICTIONARY
  5
1A
102
{ACAD_REACTORS
330
C
102
}
330
C
100
AcDbDictionary
  0
DICTIONARY
  5
43
102
{ACAD_REACTORS
330
C
102
}
330
C
100
AcDbDictionary
  3
BYBLOCK
350
45
  3
BYLAYER
350
44
  3
GLOBAL
350
46
  0
DICTIONARY
  5
6B
102
{ACAD_REACTORS
330
C
102
}
330
C
100
AcDbDictionary
  3
STANDARD
350
6C
  0
DICTIONARY
  5
17
102
{ACAD_REACTORS
330
C
102
}
330
C
100
AcDbDictionary
  3
STANDARD
350
18
  0
DICTIONARY
  5
19
102
{ACAD_REACTORS
330
C
102
}
330
C
100
AcDbDictionary
  0
DICTIONARY
  5
47
102
{ACAD_REACTORS
330
C
102
}
330
C
100
AcDbDictionary
  3
A0
350
48
  3
A1
350
49
  3
A2
350
4A
  3
A3
350
4B
  3
A4
350
4C
  3
A5
350
4D
  3
A6
350
4E
  3
A7
350
4F
  3
A8
350
50
  3
A9
350
51
  3
B0
350
52
  3
B1
350
53
  3
B2
350
54
  3
B3
350
55
  3
B4
350
56
  3
B5
350
57
  3
B6
350
58
  3
B7
350
59
  3
B8
350
5A
  3
B9
350
5B
  3
C0
350
5C
  3
C1
350
5D
  3
C2
350
5E
  3
C3
350
5F
  3
C4
350
60
  3
C5
350
61
  3
C6
350
62
  3
C7
350
63
  3
C8
350
64
  3
C9
350
65
  3
D0
350
66
  3
D1
350
67
  3
D2
350
68
  0
DICTIONARY
  5
2A
102
{ACAD_REACTORS
330
C
102
}
330
C
100
AcDbDictionary
  3
2DWIREFRAME
350
2F
  3
BASIC
350
32
  3
BRIGHTEN
350
36
  3
COLORCHANGE
350
3A
  3
CONCEPTUAL
350
34
  3
DIM
350
35
  3
EDGECOLOROFF
350
3D
  3
FACEPATTERN
350
39
  3
FLAT
350
2B
  3
FLATWITHEDGES
350
2C
  3
GOURAUD
350
2D
  3
GOURAUDWITHEDGES
350
2E
  3
HIDDEN
350
31
  3
JITTEROFF
350
3B
  3
LINEPATTERN
350
38
  3
OVERHANGOFF
350
3C
  3
REALISTIC
350
33
  3
SHADED
350
42
  3
SHADED_WITH_EDGES
350
41
  3
SHADES_OF_GRAY
350
3E
  3
SKETCHY
350
3F
  3
THICKEN
350
37
  3
WIREFRAME
350
30
  3
X-RAY
350
40
  0
DICTIONARY
  5
624
102
{ACAD_REACTORS
330
C
102
}
330
C
100
AcDbDictionary
  3
CEPSNID
350
62E
  3
CEPSNTYPE
350
62D
  3
DIMSTYLEDATA
350
644
  3
FINGERPRINTGUID
350
62F
  3
HYPERLINKBASE
350
627
  3
INSUNITS
350
62C
  3
LAYOUTDICT
350
629
  3
LWETCUNION
350
62B
  3
PLOTSETDICT
350
62A
  3
PSVPSCALE
350
631
  3
PUCSBASE
350
634
  3
PUCSORGBACK
350
63A
  3
PUCSORGBOTTOM
350
636
  3
PUCSORGFRONT
350
639
  3
PUCSORGLEFT
350
637
  3
PUCSORGRIGHT
350
638
  3
PUCSORGTOP
350
635
  3
PUCSORTHOREF
350
632
  3
PUCSORTHOVIEW
350
633
  3
STYLESHEET
350
628
  3
TSTACKALIGN
350
625
  3
TSTACKSIZE
350
626
  3
UCSBASE
350
63D
  3
UCSORGBACK
350
643
  3
UCSORGBOTTOM
350
63F
  3
UCSORGFRONT
350
642
  3
UCSORGLEFT
350
640
  3
UCSORGRIGHT
350
641
  3
UCSORGTOP
350
63E
  3
UCSORTHOREF
350
63B
  3
UCSORTHOVIEW
350
63C
  3
VERSIONGUID
350
630
  0
DICTIONARY
  5
645
102
{ACAD_REACTORS
330
C
102
}
330
C
100
AcDbDictionary
  3
CANNOSCALE
350
652
  3
CENTEREXE
350
64C
  3
CENTERLTYPEFILE
350
64D
  3
CMLEADERSTYLE
350
647
  3
CTABLESTYLE
350
646
  3
DIMASSOC
350
64E
  3
HIDETEXT
350
64F
  3
MSLTSCALE
350
653
  3
PSOLHEIGHT
350
649
  3
PSOLWIDTH
350
648
  0
XRECORD
  5
651
102
{ACAD_REACTORS
330
650
102
}
330
650
100
AcDbXrecord
102
VTR_0.000_0.000_1.000_1.000_VISUALSTYLE
340
2F
102
VTR_0.000_0.000_1.000_1.000_GRIDDISPLAY
 70
     3
102
VTR_0.000_0.000_1.000_1.000_GRIDMAJOR
 70
     5
102
VTR_0.000_0.000_1.000_1.000_DEFAULTLIGHTING
280
     1
102
VTR_0.000_0.000_1.000_1.000_DEFAULTLIGHTINGTYPE
 70
     1
102
VTR_0.000_0.000_1.000_1.000_BRIGHTNESS
141
0.0
102
VTR_0.000_0.000_1.000_1.000_CONTRAST
142
0.0
  0
MATERIAL
  5
45
102
{ACAD_REACTORS
330
43
102
}
102
{ACAD_XDICTIONARY
360
656
102
}
330
43
100
AcDbMaterial
  1
BYBLOCK
  0
MATERIAL
  5
44
102
{ACAD_REACTORS
330
43
102
}
102
{ACAD_XDICTIONARY
360
654
102
}
330
43
100
AcDbMaterial
  1
BYLAYER
  0
MATERIAL
  5
46
102
{ACAD_REACTORS
330
43
102
}
102
{ACAD_XDICTIONARY
360
658
102
}
330
43
100
AcDbMaterial
  1
GLOBAL
  0
ACAD_PROXY_OBJECT
  5
6C
102
{ACAD_REACTORS
330
6B
102
}
330
6B
100
AcDbProxyObject
 90
      499
 91
      505
 93
      610
310
40901902A4063FBFFFFFE0000000000000020400000000000020404214DD185B99185C990000000000000104090141901A00000000000004100000000000000041025764000000000000039000
340
14
340
0
340
11
340
0
 94
        0
1001
ACAD_MLEADERVER
1070
     2
  0
MLINESTYLE
  5
18
102
{ACAD_REACTORS
330
17
102
}
330
17
100
AcDbMlineStyle
  2
Standard
 70
     0
  3

 62
   256
 51
90.0
 52
90.0
 71
     2
 49
0.5
 62
   256
  6
BYLAYER
 49
-0.5
 62
   256
  6
BYLAYER
  0
ACAD_PROXY_OBJECT
  5
48
102
{ACAD_REACTORS
330
47
102
}
330
47
100
AcDbProxyObject
 90
      499
 91
      503
 93
       41
310
903313A31580
  0
ACAD_PROXY_OBJECT
  5
49
102
{ACAD_REACTORS
330
47
102
}
330
47
100
AcDbProxyObject
 90
      499
 91
      503
 93
      105
310
903313A324000000000000004000
  0
ACAD_PROXY_OBJECT
  5
4A
102
{ACAD_REACTORS
330
47
102
}
330
47
100
AcDbProxyObject
 90
      499
 91
      503
 93
      105
310
903313A344000000000000104000
  0
ACAD_PROXY_OBJECT
  5
4B
102
{ACAD_REACTORS
330
47
102
}
330
47
100
AcDbProxyObject
 90
      499
 91
      503
 93
      105
310
903313A354000000000000144000
  0
ACAD_PROXY_OBJECT
  5
4C
102
{ACAD_REACTORS
330
47
102
}
330
47
100
AcDbProxyObject
 90
      499
 91
      503
 93
      105
310
903313A384000000000000204000
  0
ACAD_PROXY_OBJECT
  5
4D
102
{ACAD_REACTORS
330
47
102
}
330
47
100
AcDbProxyObject
 90
      499
 91
      503
 93
      113
310
904313A31304000000000000244000
  0
ACAD_PROXY_OBJECT
  5
4E
102
{ACAD_REACTORS
330
47
102
}
330
47
100
AcDbProxyObject
 90
      499
 91
      503
 93
      113
310
904313A31364000000000000304000
  0
ACAD_PROXY_OBJECT
  5
4F
102
{ACAD_REACTORS
330
47
102
}
330
47
100
AcDbProxyObject
 90
      499
 91
      503
 93
      113
310
904313A32304000000000000344000
  0
ACAD_PROXY_OBJECT
  5
50
102
{ACAD_REACTORS
330
47
102
}
330
47
100
AcDbProxyObject
 90
      499
 91
      503
 93
      113
310
904313A333040000000000003E4000
  0
ACAD_PROXY_OBJECT
  5
51
102
{ACAD_REACTORS
330
47
102
}
330
47
100
AcDbProxyObject
 90
      499
 91
      503
 93
      113
310
904313A34304000000000000444000
  0
ACAD_PROXY_OBJECT
  5
52
102
{ACAD_REACTORS
330
47
102
}
330
47
100
AcDbProxyObject
 90
      499
 91
      503
 93
      113
310
904313A35304000000000000494000
  0
ACAD_PROXY_OBJECT
  5
53
102
{ACAD_REACTORS
330
47
102
}
330
47
100
AcDbProxyObject
 90
      499
 91
      503
 93
      121
310
905313A3130304000000000000594000
  0
ACAD_PROXY_OBJECT
  5
54
102
{ACAD_REACTORS
330
47
102
}
330
47
100
AcDbProxyObject
 90
      499
 91
      503
 93
      105
310
903323A310000000000000010100
  0
ACAD_PROXY_OBJECT
  5
55
102
{ACAD_REACTORS
330
47
102
}
330
47
100
AcDbProxyObject
 90
      499
 91
      503
 93
      105
310
903343A310000000000000410100
  0
ACAD_PROXY_OBJECT
  5
56
102
{ACAD_REACTORS
330
47
102
}
330
47
100
AcDbProxyObject
 90
      499
 91
      503
 93
      105
310
903383A310000000000000810100
  0
ACAD_PROXY_OBJECT
  5
57
102
{ACAD_REACTORS
330
47
102
}
330
47
100
AcDbProxyObject
 90
      499
 91
      503
 93
      113
310
90431303A310000000000000910100
  0
ACAD_PROXY_OBJECT
  5
58
102
{ACAD_REACTORS
330
47
102
}
330
47
100
AcDbProxyObject
 90
      499
 91
      503
 93
      121
310
9053130303A310000000000001650100
  0
ACAD_PROXY_OBJECT
  5
59
102
{ACAD_REACTORS
330
47
102
}
330
47
100
AcDbProxyObject
 90
      499
 91
      503
 93
      257
310
90E312F31323822203D2031272D3022000000000000200FC000000000000284000
  0
ACAD_PROXY_OBJECT
  5
5A
102
{ACAD_REACTORS
330
47
102
}
330
47
100
AcDbProxyObject
 90
      499
 91
      503
 93
      249
310
90D312F363422203D2031272D3022000000000000240FC000000000000284000
  0
ACAD_PROXY_OBJECT
  5
5B
102
{ACAD_REACTORS
330
47
102
}
330
47
100
AcDbProxyObject
 90
      499
 91
      503
 93
      249
310
90D312F333222203D2031272D3022000000000000280FC000000000000284000
  0
ACAD_PROXY_OBJECT
  5
5C
102
{ACAD_REACTORS
330
47
102
}
330
47
100
AcDbProxyObject
 90
      499
 91
      503
 93
      249
310
90D312F313622203D2031272D30220000000000002C0FC000000000000284000
  0
ACAD_PROXY_OBJECT
  5
5D
102
{ACAD_REACTORS
330
47
102
}
330
47
100
AcDbProxyObject
 90
      499
 91
      503
 93
      249
310
90D332F333222203D2031272D30220000000000002E0FC000000000000284000
  0
ACAD_PROXY_OBJECT
  5
5E
102
{ACAD_REACTORS
330
47
102
}
330
47
100
AcDbProxyObject
 90
      499
 91
      503
 93
      241
310
90C312F3822203D2031272D3022000000000000300FC000000000000284000
  0
ACAD_PROXY_OBJECT
  5
5F
102
{ACAD_REACTORS
330
47
102
}
330
47
100
AcDbProxyObject
 90
      499
 91
      503
 93
      249
310
90D332F313622203D2031272D3022000000000000320FC000000000000284000
  0
ACAD_PROXY_OBJECT
  5
60
102
{ACAD_REACTORS
330
47
102
}
330
47
100
AcDbProxyObject
 90
      499
 91
      503
 93
      241
310
90C312F3422203D2031272D3022000000000000340FC000000000000284000
  0
ACAD_PROXY_OBJECT
  5
61
102
{ACAD_REACTORS
330
47
102
}
330
47
100
AcDbProxyObject
 90
      499
 91
      503
 93
      241
310
90C332F3822203D2031272D3022000000000000360FC000000000000284000
  0
ACAD_PROXY_OBJECT
  5
62
102
{ACAD_REACTORS
330
47
102
}
330
47
100
AcDbProxyObject
 90
      499
 91
      503
 93
      241
310
90C312F3222203D2031272D3022000000000000380FC000000000000284000
  0
ACAD_PROXY_OBJECT
  5
63
102
{ACAD_REACTORS
330
47
102
}
330
47
100
AcDbProxyObject
 90
      499
 91
      503
 93
      241
310
90C332F3422203D2031272D30220000000000003A0FC000000000000284000
  0
ACAD_PROXY_OBJECT
  5
64
102
{ACAD_REACTORS
330
47
102
}
330
47
100
AcDbProxyObject
 90
      499
 91
      503
 93
      161
310
90A3122203D2031272D30224000000000000284000
  0
ACAD_PROXY_OBJECT
  5
65
102
{ACAD_REACTORS
330
47
102
}
330
47
100
AcDbProxyObject
 90
      499
 91
      503
 93
      257
310
90E312D312F3222203D2031272D30220000000000003E0FC000000000000284000
  0
ACAD_PROXY_OBJECT
  5
66
102
{ACAD_REACTORS
330
47
102
}
330
47
100
AcDbProxyObject
 90
      499
 91
      503
 93
      225
310
90A3322203D2031272D302200000000000002100000000000000284000
  0
ACAD_PROXY_OBJECT
  5
67
102
{ACAD_REACTORS
330
47
102
}
330
47
100
AcDbProxyObject
 90
      499
 91
      503
 93
      225
310
90A3622203D2031272D302200000000000006100000000000000284000
  0
ACAD_PROXY_OBJECT
  5
68
102
{ACAD_REACTORS
330
47
102
}
330
47
100
AcDbProxyObject
 90
      499
 91
      503
 93
      249
310
90D31272D3022203D2031272D30220000000000000A100000000000000284000
  0
ACAD_PROXY_OBJECT
  5
2F
102
{ACAD_REACTORS
330
2A
102
}
330
2A
100
AcDbProxyObject
 90
      499
 91
      501
 93
      436
310
42CC9915DA5C99599C985B595049028333333333333E33F0000000000000F90107901411070040501600405405064090741402480A0340
1001
ACAD
1000
AcDbSavedByObjectVersion
1070
     0
  0
ACAD_PROXY_OBJECT
  5
32
102
{ACAD_REACTORS
330
2A
102
}
330
2A
100
AcDbProxyObject
 90
      499
 91
      501
 93
      388
310
4150985CDA58D07406404333333333333E33F0000000000000F90107A41107004050150841D405064090741402480A0350
1001
ACAD
1000
AcDbSavedByObjectVersion
1070
     0
  0
ACAD_PROXY_OBJECT
  5
36
102
{ACAD_REACTORS
330
2A
102
}
330
2A
100
AcDbProxyObject
 90
      499
 91
      501
 93
      428
310
42109C9A59DA1D195B90C409028333333333333E33F0000000000000F9010790141107004050150841D405064090741402480A029950
1001
ACAD
1000
AcDbSavedByObjectVersion
1070
     0
  0
ACAD_PROXY_OBJECT
  5
3A
102
{ACAD_REACTORS
330
2A
102
}
330
2A
100
AcDbProxyObject
 90
      499
 91
      501
 93
      452
310
42D0DBDB1BDC90DA185B99D95104090240C333333333333E33F0000000000000F90108901411070040501508421405064090741402480A0350
1001
ACAD
1000
AcDbSavedByObjectVersion
1070
     0
  0
ACAD_PROXY_OBJECT
  5
34
102
{ACAD_REACTORS
330
2A
102
}
330
2A
100
AcDbProxyObject
 90
      499
 91
      501
 93
      500
310
4290DBDB98D95C1D1D585B10940D028333333333333E33F0000000000000F90107902409070040501000000000018199010841D405064090740C02480A0340
1001
ACAD
1000
AcDbSavedByObjectVersion
1070
     0
  0
ACAD_PROXY_OBJECT
  5
35
102
{ACAD_REACTORS
330
2A
102
}
330
2A
100
AcDbProxyObject
 90
      499
 91
      501
 93
      412
310
40D11A5B50B409028333333333333E33F0000000000000F9010790141107004050150841D405064090741402480A02677FFFFFD0
1001
ACAD
1000
AcDbSavedByObjectVersion
1070
     0
  0
ACAD_PROXY_OBJECT
  5
3D
102
{ACAD_REACTORS
330
2A
102
}
330
2A
100
AcDbProxyObject
 90
      499
 91
      501
 93
      452
310
43115919D950DBDB1BDC93D999916409028333333333333E33F0000000000000F9010790141107004050150841D405064090741402480A0350
1001
ACAD
1000
AcDbSavedByObjectVersion
1070
     0
  0
ACAD_PROXY_OBJECT
  5
39
102
{ACAD_REACTORS
330
2A
102
}
330
2A
100
AcDbProxyObject
 90
      499
 91
      501
 93
      444
310
42D19858D95C185D1D195C9B90F409028333333333333E33F0000000000000F9010790141107004050150841D405064090741402480A0350
1001
ACAD
1000
AcDbSavedByObjectVersion
1070
     0
  0
ACAD_PROXY_OBJECT
  5
2B
102
{ACAD_REACTORS
330
2A
102
}
330
2A
100
AcDbProxyObject
 90
      499
 91
      501
 93
      380
310
41119B185D240901404333333333333E33F0000000000000F9010740A907004050150841D405064090741402480A1B50
1001
ACAD
1000
AcDbSavedByObjectVersion
1070
     0
  0
ACAD_PROXY_OBJECT
  5
2C
102
{ACAD_REACTORS
330
2A
102
}
330
2A
100
AcDbProxyObject
 90
      499
 91
      501
 93
      468
310
43519B185D15DA5D1A115919D95CD0140901404333333333333E33F0000000000000F90107409019070040501600405405064090741402480A1B50
1001
ACAD
1000
AcDbSavedByObjectVersion
1070
     0
  0
ACAD_PROXY_OBJECT
  5
2D
102
{ACAD_REACTORS
330
2A
102
}
330
2A
100
AcDbProxyObject
 90
      499
 91
      501
 93
      404
310
41D1DBDD5C985D5910240902404333333333333E33F0000000000000F9010740A9070040501641D405064090741402480A1B50
1001
ACAD
1000
AcDbSavedByObjectVersion
1070
     0
  0
ACAD_PROXY_OBJECT
  5
2E
102
{ACAD_REACTORS
330
2A
102
}
330
2A
100
AcDbProxyObject
 90
      499
 91
      501
 93
      492
310
4411DBDD5C985D5915DA5D1A115919D95CD0340902404333333333333E33F0000000000000F90107409019070040501600405405064090741402480A1B50
1001
ACAD
1000
AcDbSavedByObjectVersion
1070
     0
  0
ACAD_PROXY_OBJECT
  5
31
102
{ACAD_REACTORS
330
2A
102
}
330
2A
100
AcDbProxyObject
 90
      499
 91
      501
 93
      476
310
41921A5919195B90640502408333333333333E33F0000000000000F901079024090700405020000000000001110200405405064090740C02480A0340
1001
ACAD
1000
AcDbSavedByObjectVersion
1070
     0
  0
ACAD_PROXY_OBJECT
  5
3B
102
{ACAD_REACTORS
330
2A
102
}
330
2A
100
AcDbProxyObject
 90
      499
 91
      501
 93
      428
310
42529A5D1D195C93D999914409028333333333333E33F0000000000000F9010790141107004050150A41D405064090741402480A0350
1001
ACAD
1000
AcDbSavedByObjectVersion
1070
     0
  0
ACAD_PROXY_OBJECT
  5
38
102
{ACAD_REACTORS
330
2A
102
}
330
2A
100
AcDbProxyObject
 90
      499
 91
      501
 93
      444
310
42D31A5B995C185D1D195C9B90E409028333333333333E33F0000000000000F9010790141107004050750841D405064090741402483A0350
1001
ACAD
1000
AcDbSavedByObjectVersion
1070
     0
  0
ACAD_PROXY_OBJECT
  5
3C
102
{ACAD_REACTORS
330
2A
102
}
330
2A
100
AcDbProxyObject
 90
      499
 91
      501
 93
      444
310
42D3DD995C9A185B99D3D999915409028333333333333E33F0000000000000F9010790141107004050150941D405064090741402480A0350
1001
ACAD
1000
AcDbSavedByObjectVersion
1070
     0
  0
ACAD_PROXY_OBJECT
  5
33
102
{ACAD_REACTORS
330
2A
102
}
330
2A
100
AcDbProxyObject
 90
      499
 91
      501
 93
      428
310
425499585B1A5CDD1A58D08409038333333333333E33F0000000000000F9010740A907004050150800405405064090740C02480A1B40
1001
ACAD
1000
AcDbSavedByObjectVersion
1070
     0
  0
ACAD_PROXY_OBJECT
  5
42
102
{ACAD_REACTORS
330
2A
102
}
330
2A
100
AcDbProxyObject
 90
      499
 91
      501
 93
      420
310
4194DA1859195911B40902404333333333333E33F0000000000000F9010740A41107004050150800405405064090840C02480A0B40
1001
ACAD
1000
AcDbSavedByObjectVersion
1070
     0
  0
ACAD_PROXY_OBJECT
  5
41
102
{ACAD_REACTORS
330
2A
102
}
330
2A
100
AcDbProxyObject
 90
      499
 91
      501
 93
      516
310
4454DA18591959081DDA5D1A08195919D95CD1A40902404333333333333E33F0000000000000F901074090142907004050250800405405064090740C02480A0B40
1001
ACAD
1000
AcDbSavedByObjectVersion
1070
     0
  0
ACAD_PROXY_OBJECT
  5
3E
102
{ACAD_REACTORS
330
2A
102
}
330
2A
100
AcDbProxyObject
 90
      499
 91
      501
 93
      532
310
4394DA1859195CC81BD98811DC985E5174090240C333333333333E33F0000000000000F901079024090741D01000000000000111010841D405064090740C02480A0340
1001
ACAD
1000
AcDbSavedByObjectVersion
1070
     0
  0
ACAD_PROXY_OBJECT
  5
3F
102
{ACAD_REACTORS
330
2A
102
}
330
2A
100
AcDbProxyObject
 90
      499
 91
      501
 93
      476
310
41D4DAD95D18DA1E51840502408333333333333E33F0000000000000F901079024090741D01000000000000111010B41D405064090741802480A0340
1001
ACAD
1000
AcDbSavedByObjectVersion
1070
     0
  0
ACAD_PROXY_OBJECT
  5
37
102
{ACAD_REACTORS
330
2A
102
}
330
2A
100
AcDbProxyObject
 90
      499
 91
      501
 93
      412
310
41D51A1A58DAD95B90D409028333333333333E33F0000000000000F9010790141107004050150C41D405064090741402480A0350
1001
ACAD
1000
AcDbSavedByObjectVersion
1070
     0
  0
ACAD_PROXY_OBJECT
  5
30
102
{ACAD_REACTORS
330
2A
102
}
330
2A
100
AcDbProxyObject
 90
      499
 91
      501
 93
      420
310
4255DA5C99599C985B595059028333333333333E33F0000000000000F90107901411070040501600405405064090740C02480A0340
1001
ACAD
1000
AcDbSavedByObjectVersion
1070
     0
  0
ACAD_PROXY_OBJECT
  5
40
102
{ACAD_REACTORS
330
2A
102
}
330
2A
100
AcDbProxyObject
 90
      499
 91
      501
 93
      404
310
41560B54985E51940902404000000000000E03F0000000000000F9010740501907004050150841D405064090740C02480A1B40
1001
ACAD
1000
AcDbSavedByObjectVersion
1070
     0
  0
XRECORD
  5
62E
102
{ACAD_REACTORS
330
624
102
}
330
624
100
AcDbXrecord
340
0
  0
XRECORD
  5
62D
102
{ACAD_REACTORS
330
624
102
}
330
624
100
AcDbXrecord
 90
        0
  0
XRECORD
  5
644
102
{ACAD_REACTORS
330
624
102
}
330
624
100
AcDbXrecord
1000
DSTYLE
1002
{
1070
   340
340
11
1002
}
  0
XRECORD
  5
62F
102
{ACAD_REACTORS
330
624
102
}
330
624
100
AcDbXrecord
  1
{869d5c90-7324-4fba-9a94-30ab73219ec2}
  0
XRECORD
  5
627
102
{ACAD_REACTORS
330
624
102
}
330
624
100
AcDbXrecord
  1

  0
XRECORD
  5
62C
102
{ACAD_REACTORS
330
624
102
}
330
624
100
AcDbXrecord
 90
        4
  0
XRECORD
  5
629
102
{ACAD_REACTORS
330
624
102
}
330
624
100
AcDbXrecord
340
1A
  0
XRECORD
  5
62B
102
{ACAD_REACTORS
330
624
102
}
330
624
100
AcDbXrecord
 90
    10781
  0
XRECORD
  5
62A
102
{ACAD_REACTORS
330
624
102
}
330
624
100
AcDbXrecord
340
19
  0
XRECORD
  5
631
102
{ACAD_REACTORS
330
624
102
}
330
624
100
AcDbXrecord
 40
0.0
  0
XRECORD
  5
634
102
{ACAD_REACTORS
330
624
102
}
330
624
100
AcDbXrecord
340
0
  0
XRECORD
  5
63A
102
{ACAD_REACTORS
330
624
102
}
330
624
100
AcDbXrecord
 10
0.0
 20
0.0
 30
0.0
  0
XRECORD
  5
636
102
{ACAD_REACTORS
330
624
102
}
330
624
100
AcDbXrecord
 10
0.0
 20
0.0
 30
0.0
  0
XRECORD
  5
639
102
{ACAD_REACTORS
330
624
102
}
330
624
100
AcDbXrecord
 10
0.0
 20
0.0
 30
0.0
  0
XRECORD
  5
637
102
{ACAD_REACTORS
330
624
102
}
330
624
100
AcDbXrecord
 10
0.0
 20
0.0
 30
0.0
  0
XRECORD
  5
638
102
{ACAD_REACTORS
330
624
102
}
330
624
100
AcDbXrecord
 10
0.0
 20
0.0
 30
0.0
  0
XRECORD
  5
635
102
{ACAD_REACTORS
330
624
102
}
330
624
100
AcDbXrecord
 10
0.0
 20
0.0
 30
0.0
  0
XRECORD
  5
632
102
{ACAD_REACTORS
330
624
102
}
330
624
100
AcDbXrecord
340
0
  0
XRECORD
  5
633
102
{ACAD_REACTORS
330
624
102
}
330
624
100
AcDbXrecord
 70
     0
  0
XRECORD
  5
628
102
{ACAD_REACTORS
330
624
102
}
330
624
100
AcDbXrecord
  1

  0
XRECORD
  5
625
102
{ACAD_REACTORS
330
624
102
}
330
624
100
AcDbXrecord
 90
        1
  0
XRECORD
  5
626
102
{ACAD_REACTORS
330
624
102
}
330
624
100
AcDbXrecord
 90
       70
  0
XRECORD
  5
63D
102
{ACAD_REACTORS
330
624
102
}
330
624
100
AcDbXrecord
340
0
  0
XRECORD
  5
643
102
{ACAD_REACTORS
330
624
102
}
330
624
100
AcDbXrecord
 10
0.0
 20
0.0
 30
0.0
  0
XRECORD
  5
63F
102
{ACAD_REACTORS
330
624
102
}
330
624
100
AcDbXrecord
 10
0.0
 20
0.0
 30
0.0
  0
XRECORD
  5
642
102
{ACAD_REACTORS
330
624
102
}
330
624
100
AcDbXrecord
 10
0.0
 20
0.0
 30
0.0
  0
XRECORD
  5
640
102
{ACAD_REACTORS
330
624
102
}
330
624
100
AcDbXrecord
 10
0.0
 20
0.0
 30
0.0
  0
XRECORD
  5
641
102
{ACAD_REACTORS
330
624
102
}
330
624
100
AcDbXrecord
 10
0.0
 20
0.0
 30
0.0
  0
XRECORD
  5
63E
102
{ACAD_REACTORS
330
624
102
}
330
624
100
AcDbXrecord
 10
0.0
 20
0.0
 30
0.0
  0
XRECORD
  5
63B
102
{ACAD_REACTORS
330
624
102
}
330
624
100
AcDbXrecord
340
0
  0
XRECORD
  5
63C
102
{ACAD_REACTORS
330
624
102
}
330
624
100
AcDbXrecord
 70
     0
  0
XRECORD
  5
630
102
{ACAD_REACTORS
330
624
102
}
330
624
100
AcDbXrecord
  1
{FAEB1C32-E019-11D5-929B-00C0DF256EC4}
  0
DICTIONARYVAR
  5
652
102
{ACAD_REACTORS
330
645
102
}
330
645
100
DictionaryVariables
280
     0
  1
1:1
  0
DICTIONARYVAR
  5
64C
102
{ACAD_REACTORS
330
645
102
}
330
645
100
DictionaryVariables
280
     0
  1
3.500000
  0
DICTIONARYVAR
  5
64D
102
{ACAD_REACTORS
330
645
102
}
330
645
100
DictionaryVariables
280
     0
  1
acadiso.lin
  0
DICTIONARYVAR
  5
647
102
{ACAD_REACTORS
330
645
102
}
330
645
100
DictionaryVariables
280
     0
  1
Standard
  0
DICTIONARYVAR
  5
646
102
{ACAD_REACTORS
330
645
102
}
330
645
100
DictionaryVariables
280
     0
  1
Standard
  0
DICTIONARYVAR
  5
64E
102
{ACAD_REACTORS
330
645
102
}
330
645
100
DictionaryVariables
280
     0
  1
2
  0
DICTIONARYVAR
  5
64F
102
{ACAD_REACTORS
330
645
102
}
330
645
100
DictionaryVariables
280
     0
  1
1
  0
DICTIONARYVAR
  5
653
102
{ACAD_REACTORS
330
645
102
}
330
645
100
DictionaryVariables
280
     0
  1
1
  0
DICTIONARYVAR
  5
649
102
{ACAD_REACTORS
330
645
102
}
330
645
100
DictionaryVariables
280
     0
  1
80.000000
  0
DICTIONARYVAR
  5
648
102
{ACAD_REACTORS
330
645
102
}
330
645
100
DictionaryVariables
280
     0
  1
5.000000
  0
DICTIONARY
  5
656
330
45
100
AcDbDictionary
280
     1
  3
ACAD_XREC_ROUNDTRIP
360
657
  0
DICTIONARY
  5
654
330
44
100
AcDbDictionary
280
     1
  3
ACAD_XREC_ROUNDTRIP
360
655
  0
DICTIONARY
  5
658
330
46
100
AcDbDictionary
280
     1
  3
ACAD_XREC_ROUNDTRIP
360
659
  0
XRECORD
  5
657
102
{ACAD_REACTORS
330
656
102
}
330
656
100
AcDbXrecord
102
MATERIAL
148
0.0
149
0.0
149
0.0
 93
        0
 94
      127
282
     0
 72
     1
 77
     1
171
     1
175
     1
179
     1
273
     0
  0
XRECORD
  5
655
102
{ACAD_REACTORS
330
654
102
}
330
654
100
AcDbXrecord
102
MATERIAL
148
0.0
149
0.0
149
0.0
 93
        0
 94
      127
282
     0
 72
     1
 77
     1
171
     1
175
     1
179
     1
273
     0
  0
XRECORD
  5
659
102
{ACAD_REACTORS
330
658
102
}
330
658
100
AcDbXrecord
102
MATERIAL
148
0.0
149
0.0
149
0.0
 93
        0
 94
      127
282
     0
 72
     1
 77
     1
171
     1
175
     1
179
     1
273
     0
  0
ENDSEC
  0
EOF
