  0
SECTION
  2
HEADER
  9
$ACADVER
  1
AC1014
  9
$ACADMAINTVER
 70
     9
  9
$DWGCODEPAGE
  3
ANSI_932
  9
$INSBASE
 10
0.0
 20
0.0
 30
0.0
  9
$EXTMIN
 10
25.0
 20
50.0
 30
0.0
  9
$EXTMAX
 10
1925.0
 20
1400.0
 30
0.0
  9
$LIMMIN
 10
0.0
 20
0.0
  9
$LIMMAX
 10
420.0
 20
297.0
  9
$ORTHOMODE
 70
     0
  9
$REGENMODE
 70
     1
  9
$FILLMODE
 70
     1
  9
$QTEXTMODE
 70
     0
  9
$MIRRTEXT
 70
     1
  9
$DRAGMODE
 70
     2
  9
$LTSCALE
 40
0.2
  9
$OSMODE
 70
    37
  9
$ATTMODE
 70
     1
  9
$TEXTSIZE
 40
2.5
  9
$TRACEWID
 40
1.0
  9
$TEXTSTYLE
  7
STANDARD
  9
$CLAYER
  8
LAY-10
  9
$CELTYPE
  6
BYLAYER
  9
$CECOLOR
 62
   256
  9
$CELTSCALE
 40
1.0
  9
$DELOBJ
 70
     1
  9
$DISPSILH
 70
     0
  9
$DIMSCALE
 40
1.0
  9
$DIMASZ
 40
2.5
  9
$DIMEXO
 40
0.625
  9
$DIMDLI
 40
3.75
  9
$DIMRND
 40
0.0
  9
$DIMDLE
 40
0.0
  9
$DIMEXE
 40
1.25
  9
$DIMTP
 40
0.0
  9
$DIMTM
 40
0.0
  9
$DIMTXT
 40
2.5
  9
$DIMCEN
 40
2.5
  9
$DIMTSZ
 40
0.0
  9
$DIMTOL
 70
     0
  9
$DIMLIM
 70
     0
  9
$DIMTIH
 70
     0
  9
$DIMTOH
 70
     0
  9
$DIMSE1
 70
     0
  9
$DIMSE2
 70
     0
  9
$DIMTAD
 70
     1
  9
$DIMZIN
 70
     8
  9
$DIMBLK
  1

  9
$DIMASO
 70
     1
  9
$DIMSHO
 70
     1
  9
$DIMPOST
  1

  9
$DIMAPOST
  1

  9
$DIMALT
 70
     0
  9
$DIMALTD
 70
     3
  9
$DIMALTF
 40
0.03937007874016
  9
$DIMLFAC
 40
1.0
  9
$DIMTOFL
 70
     1
  9
$DIMTVP
 40
0.0
  9
$DIMTIX
 70
     0
  9
$DIMSOXD
 70
     0
  9
$DIMSAH
 70
     0
  9
$DIMBLK1
  1

  9
$DIMBLK2
  1

  9
$DIMSTYLE
  2
ISO-25
  9
$DIMCLRD
 70
     0
  9
$DIMCLRE
 70
     0
  9
$DIMCLRT
 70
     0
  9
$DIMTFAC
 40
1.0
  9
$DIMGAP
 40
0.625
  9
$DIMJUST
 70
     0
  9
$DIMSD1
 70
     0
  9
$DIMSD2
 70
     0
  9
$DIMTOLJ
 70
     0
  9
$DIMTZIN
 70
     8
  9
$DIMALTZ
 70
     0
  9
$DIMALTTZ
 70
     0
  9
$DIMFIT
 70
     3
  9
$DIMUPT
 70
     0
  9
$DIMUNIT
 70
     2
  9
$DIMDEC
 70
     2
  9
$DIMTDEC
 70
     2
  9
$DIMALTU
 70
     2
  9
$DIMALTTD
 70
     3
  9
$DIMTXSTY
  7
STANDARD
  9
$DIMAUNIT
 70
     0
  9
$LUNITS
 70
     2
  9
$LUPREC
 70
     4
  9
$SKETCHINC
 40
1.0
  9
$FILLETRAD
 40
10.0
  9
$AUNITS
 70
     0
  9
$AUPREC
 70
     0
  9
$MENU
  1
.
  9
$ELEVATION
 40
0.0
  9
$PELEVATION
 40
0.0
  9
$THICKNESS
 40
0.0
  9
$LIMCHECK
 70
     0
  9
$CHAMFERA
 40
0.0
  9
$CHAMFERB
 40
0.0
  9
$CHAMFERC
 40
0.0
  9
$CHAMFERD
 40
0.0
  9
$SKPOLY
 70
     0
  9
$TDCREATE
 40
2459229.334423357
  9
$TDUPDATE
 40
2459229.334424213
  9
$TDINDWG
 40
0.0000000116
  9
$TDUSRTIMER
 40
0.0000000116
  9
$USRTIMER
 70
     1
  9
$ANGBASE
 50
0.0
  9
$ANGDIR
 70
     0
  9
$PDMODE
 70
     0
  9
$PDSIZE
 40
0.0
  9
$PLINEWID
 40
0.0
  9
$COORDS
 70
     1
  9
$SPLFRAME
 70
     0
  9
$SPLINETYPE
 70
     6
  9
$SPLINESEGS
 70
     8
  9
$ATTDIA
 70
     0
  9
$ATTREQ
 70
     1
  9
$HANDLING
 70
     1
  9
$HANDSEED
  5
6CF
  9
$SURFTAB1
 70
     6
  9
$SURFTAB2
 70
     6
  9
$SURFTYPE
 70
     6
  9
$SURFU
 70
     6
  9
$SURFV
 70
     6
  9
$UCSNAME
  2

  9
$UCSORG
 10
0.0
 20
0.0
 30
0.0
  9
$UCSXDIR
 10
1.0
 20
0.0
 30
0.0
  9
$UCSYDIR
 10
0.0
 20
1.0
 30
0.0
  9
$PUCSNAME
  2

  9
$PUCSORG
 10
0.0
 20
0.0
 30
0.0
  9
$PUCSXDIR
 10
1.0
 20
0.0
 30
0.0
  9
$PUCSYDIR
 10
0.0
 20
1.0
 30
0.0
  9
$USERI1
 70
     0
  9
$USERI2
 70
     0
  9
$USERI3
 70
     0
  9
$USERI4
 70
     0
  9
$USERI5
 70
     0
  9
$USERR1
 40
0.0
  9
$USERR2
 40
0.0
  9
$USERR3
 40
0.0
  9
$USERR4
 40
0.0
  9
$USERR5
 40
0.0
  9
$WORLDVIEW
 70
     1
  9
$SHADEDGE
 70
     3
  9
$SHADEDIF
 70
    70
  9
$TILEMODE
 70
     1
  9
$MAXACTVP
 70
    64
  9
$PINSBASE
 10
0.0
 20
0.0
 30
0.0
  9
$PLIMCHECK
 70
     0
  9
$PEXTMIN
 10
1.000000000000000E+20
 20
1.000000000000000E+20
 30
1.000000000000000E+20
  9
$PEXTMAX
 10
-1.000000000000000E+20
 20
-1.000000000000000E+20
 30
-1.000000000000000E+20
  9
$PLIMMIN
 10
0.0
 20
0.0
  9
$PLIMMAX
 10
420.0
 20
297.0
  9
$UNITMODE
 70
     0
  9
$VISRETAIN
 70
     1
  9
$PLINEGEN
 70
     0
  9
$PSLTSCALE
 70
     1
  9
$TREEDEPTH
 70
  3020
  9
$PICKSTYLE
 70
     1
  9
$CMLSTYLE
  2
STANDARD
  9
$CMLJUST
 70
     0
  9
$CMLSCALE
 40
20.0
  9
$PROXYGRAPHICS
 70
     1
  9
$MEASUREMENT
 70
     1
  0
ENDSEC
  0
SECTION
  2
CLASSES
  0
CLASS
  1
ACDBDICTIONARYWDFLT
  2
AcDbDictionaryWithDefault
  3
ObjectDBX Classes
 90
        0
280
     0
281
     0
  0
CLASS
  1
VISUALSTYLE
  2
AcDbVisualStyle
  3
ObjectDBX Classes
 90
     4095
280
     0
281
     0
  0
CLASS
  1
MATERIAL
  2
AcDbMaterial
  3
ObjectDBX Classes
 90
     1153
280
     0
281
     0
  0
CLASS
  1
SCALE
  2
AcDbScale
  3
ObjectDBX Classes
 90
     1153
280
     0
281
     0
  0
CLASS
  1
TABLESTYLE
  2
AcDbTableStyle
  3
ObjectDBX Classes
 90
     4095
280
     0
281
     0
  0
CLASS
  1
MLEADERSTYLE
  2
AcDbMLeaderStyle
  3
ACDB_MLEADERSTYLE_CLASS
 90
     4095
280
     0
281
     0
  0
CLASS
  1
SUN
  2
AcDbSun
  3
SCENEOE
 90
     1153
280
     0
281
     0
  0
CLASS
  1
DICTIONARYVAR
  2
AcDbDictionaryVar
  3
ObjectDBX Classes
 90
        0
280
     0
281
     0
  0
CLASS
  1
XRECORD
  2
AcDbXrecord
  3
ObjectDBX Classes
 90
        0
280
     0
281
     0
  0
CLASS
  1
LWPOLYLINE
  2
AcDbPolyline
  3
ObjectDBX Classes
 90
        0
280
     0
281
     1
  0
CLASS
  1
HATCH
  2
AcDbHatch
  3
ObjectDBX Classes
 90
        0
280
     0
281
     1
  0
CLASS
  1
ACDBPLACEHOLDER
  2
AcDbPlaceHolder
  3
ObjectDBX Classes
 90
        0
280
     0
281
     0
  0
CLASS
  1
LAYOUT
  2
AcDbLayout
  3
ObjectDBX Classes
 90
        0
280
     0
281
     0
  0
ENDSEC
  0
SECTION
  2
TABLES
  0
TABLE
  2
VPORT
  5
8
102
{ACAD_XDICTIONARY
360
6C4
102
}
330
0
100
AcDbSymbolTable
 70
     1
  0
VPORT
  5
29
330
8
100
AcDbSymbolTableRecord
100
AcDbViewportTableRecord
  2
*ACTIVE
 70
     0
 10
0.0
 20
0.0
 11
1.0
 21
1.0
 12
975.0000000000001
 22
725.0
 13
0.0
 23
0.0
 14
10.0
 24
10.0
 15
10.0
 25
10.0
 16
0.0
 26
0.0
 36
1.0
 17
0.0
 27
0.0
 37
0.0
 40
1350.0
 41
1.407407407407408
 42
50.0
 43
0.0
 44
0.0
 50
0.0
 51
0.0
 71
     0
 72
  1000
 73
     1
 74
     3
 75
     0
 76
     0
 77
     0
 78
     0
  0
ENDTAB
  0
TABLE
  2
LTYPE
  5
5
330
0
100
AcDbSymbolTable
 70
     6
  0
LTYPE
  5
14
330
5
100
AcDbSymbolTableRecord
100
AcDbLinetypeTableRecord
  2
BYBLOCK
 70
     0
  3

 72
    65
 73
     0
 40
0.0
  0
LTYPE
  5
15
330
5
100
AcDbSymbolTableRecord
100
AcDbLinetypeTableRecord
  2
BYLAYER
 70
     0
  3

 72
    65
 73
     0
 40
0.0
  0
LTYPE
  5
16
330
5
100
AcDbSymbolTableRecord
100
AcDbLinetypeTableRecord
  2
CONTINUOUS
 70
     0
  3
Solid line
 72
    65
 73
     0
 40
0.0
  0
LTYPE
  5
6E
330
5
100
AcDbSymbolTableRecord
100
AcDbLinetypeTableRecord
  2
HIDDEN
 70
     0
  3
Hidden __ __ __ __ __ __ __ __ __ __ __ __ __ __
 72
    65
 73
     2
 40
9.524999999999999
 49
6.35
 74
     0
 49
-3.175
 74
     0
  0
LTYPE
  5
6F
330
5
100
AcDbSymbolTableRecord
100
AcDbLinetypeTableRecord
  2
CENTER
 70
     0
  3
Center ____ _ ____ _ ____ _ ____ _ ____ _ ____
 72
    65
 73
     4
 40
50.8
 49
31.75
 74
     0
 49
-6.35
 74
     0
 49
6.35
 74
     0
 49
-6.35
 74
     0
  0
LTYPE
  5
70
330
5
100
AcDbSymbolTableRecord
100
AcDbLinetypeTableRecord
  2
PHANTOM
 70
     0
  3
Phantom ______  __  __  ______  __  __  ______ 
 72
    65
 73
     6
 40
63.50000000000001
 49
31.75
 74
     0
 49
-6.35
 74
     0
 49
6.35
 74
     0
 49
-6.35
 74
     0
 49
6.35
 74
     0
 49
-6.35
 74
     0
  0
LTYPE
  5
71
330
5
100
AcDbSymbolTableRecord
100
AcDbLinetypeTableRecord
  2
ACAD_ISO06W100
 70
     0
  3
ISO long-dash triple-dot ____ ... ____ ... ____
 72
    65
 73
     8
 40
36.0
 49
24.0
 74
     0
 49
-3.0
 74
     0
 49
0.0
 74
     0
 49
-3.0
 74
     0
 49
0.0
 74
     0
 49
-3.0
 74
     0
 49
0.0
 74
     0
 49
-3.0
 74
     0
  0
LTYPE
  5
72
330
5
100
AcDbSymbolTableRecord
100
AcDbLinetypeTableRecord
  2
ACAD_ISO15W100
 70
     0
  3
ISO double-dash triple-dot __ __ . . . __ __ . .
 72
    65
 73
    10
 40
39.0
 49
12.0
 74
     0
 49
-3.0
 74
     0
 49
12.0
 74
     0
 49
-3.0
 74
     0
 49
0.0
 74
     0
 49
-3.0
 74
     0
 49
0.0
 74
     0
 49
-3.0
 74
     0
 49
0.0
 74
     0
 49
-3.0
 74
     0
  0
ENDTAB
  0
TABLE
  2
LAYER
  5
2
330
0
100
AcDbSymbolTable
 70
     5
  0
LAYER
  5
10
330
2
100
AcDbSymbolTableRecord
100
AcDbLayerTableRecord
  2
0
 70
     0
 62
     7
  6
CONTINUOUS
  0
LAYER
  5
75
330
2
100
AcDbSymbolTableRecord
100
AcDbLayerTableRecord
  2
LAY-10
 70
     0
 62
     7
  6
CONTINUOUS
  0
LAYER
  5
76
330
2
100
AcDbSymbolTableRecord
100
AcDbLayerTableRecord
  2
LAY-20
 70
     0
 62
     7
  6
CONTINUOUS
  0
LAYER
  5
77
330
2
100
AcDbSymbolTableRecord
100
AcDbLayerTableRecord
  2
LAY-255
 70
     0
 62
     7
  6
CONTINUOUS
  0
LAYER
  5
581
330
2
100
AcDbSymbolTableRecord
100
AcDbLayerTableRecord
  2
DEFPOINTS
 70
     0
 62
     7
  6
CONTINUOUS
  0
ENDTAB
  0
TABLE
  2
STYLE
  5
3
330
0
100
AcDbSymbolTable
 70
     4
  0
STYLE
  5
11
330
3
100
AcDbSymbolTableRecord
100
AcDbTextStyleTableRecord
  2
STANDARD
 70
     0
 40
0.0
 41
1.0
 50
0.0
 71
     0
 42
2.5
  3
simplex
  4
bigfont
  0
STYLE
  5
73
330
3
100
AcDbSymbolTableRecord
100
AcDbTextStyleTableRecord
  2
EXCADSTD
 70
     0
 40
0.0
 41
1.0
 50
0.0
 71
     0
 42
2.5
  3
simplex
  4
bigfont
  0
STYLE
  5
74
330
3
100
AcDbSymbolTableRecord
100
AcDbTextStyleTableRecord
  2
EXCADVERT
 70
     4
 40
0.0
 41
1.0
 50
0.0
 71
     0
 42
2.5
  3
simplex
  4
bigfont
  0
STYLE
  5
57F
330
3
100
AcDbSymbolTableRecord
100
AcDbTextStyleTableRecord
  2
EXCADDIM1
 70
     0
 40
0.0
 41
0.84
 50
0.0
 71
     0
 42
2.5
  3
simplex
  4
bigfont
  0
ENDTAB
  0
TABLE
  2
VIEW
  5
6
330
0
100
AcDbSymbolTable
 70
     0
  0
ENDTAB
  0
TABLE
  2
UCS
  5
7
330
0
100
AcDbSymbolTable
 70
     0
  0
ENDTAB
  0
TABLE
  2
APPID
  5
9
330
0
100
AcDbSymbolTable
 70
     2
  0
APPID
  5
12
330
9
100
AcDbSymbolTableRecord
100
AcDbRegAppTableRecord
  2
ACAD
 70
     0
  0
APPID
  5
6CE
330
9
100
AcDbSymbolTableRecord
100
AcDbRegAppTableRecord
  2
ACAD_MLEADERVER
 70
     0
  0
ENDTAB
  0
TABLE
  2
DIMSTYLE
  5
A
330
0
100
AcDbSymbolTable
 70
     1
  0
DIMSTYLE
105
27
102
{ACAD_REACTORS
330
580
330
58E
330
59B
330
5A7
330
5B3
330
5BF
330
5CC
330
5D8
330
5E3
330
5EF
330
5FC
330
607
330
614
330
621
330
62D
330
639
330
644
330
651
330
65E
102
}
330
A
100
AcDbSymbolTableRecord
100
AcDbDimStyleTableRecord
  2
ISO-25
 70
     0
  3

  4

  5

  6

  7

 40
1.0
 41
2.5
 42
0.625
 43
3.75
 44
1.25
 45
0.0
 46
0.0
 47
0.0
 48
0.0
140
2.5
141
2.5
142
0.0
143
0.03937007874016
144
1.0
145
0.0
146
1.0
147
0.625
 71
     0
 72
     0
 73
     0
 74
     0
 75
     0
 76
     0
 77
     1
 78
     8
170
     0
171
     3
172
     1
173
     0
174
     0
175
     0
176
     0
177
     0
178
     0
270
     2
271
     2
272
     2
273
     2
274
     3
340
11
275
     0
280
     0
281
     0
282
     0
283
     0
284
     8
285
     0
286
     0
287
     5
288
     0
  0
ENDTAB
  0
TABLE
  2
BLOCK_RECORD
  5
1
330
0
100
AcDbSymbolTable
 70
    33
  0
BLOCK_RECORD
  5
1F
330
1
100
AcDbSymbolTableRecord
100
AcDbBlockTableRecord
  2
*MODEL_SPACE
  0
BLOCK_RECORD
  5
1B
330
1
100
AcDbSymbolTableRecord
100
AcDbBlockTableRecord
  2
*PAPER_SPACE
  0
BLOCK_RECORD
  5
78
330
1
100
AcDbSymbolTableRecord
100
AcDbBlockTableRecord
  2
EX_NORM
  0
BLOCK_RECORD
  5
7B
330
1
100
AcDbSymbolTableRecord
100
AcDbBlockTableRecord
  2
EX_BNORM
  0
BLOCK_RECORD
  5
7E
330
1
100
AcDbSymbolTableRecord
100
AcDbBlockTableRecord
  2
EX_BCIR
  0
BLOCK_RECORD
  5
81
330
1
100
AcDbSymbolTableRecord
100
AcDbBlockTableRecord
  2
EX_RCIVIL
  0
BLOCK_RECORD
  5
84
330
1
100
AcDbSymbolTableRecord
100
AcDbBlockTableRecord
  2
EX_SLANT
  0
BLOCK_RECORD
  5
87
330
1
100
AcDbSymbolTableRecord
100
AcDbBlockTableRecord
  2
EX_NONE
  0
BLOCK_RECORD
  5
8A
330
1
100
AcDbSymbolTableRecord
100
AcDbBlockTableRecord
  2
EX_CIVIL
  0
BLOCK_RECORD
  5
8D
330
1
100
AcDbSymbolTableRecord
100
AcDbBlockTableRecord
  2
EX_WCIR
  0
BLOCK_RECORD
  5
90
330
1
100
AcDbSymbolTableRecord
100
AcDbBlockTableRecord
  2
EX_WCIR2
  0
BLOCK_RECORD
  5
93
330
1
100
AcDbSymbolTableRecord
100
AcDbBlockTableRecord
  2
EX_WNORM
  0
BLOCK_RECORD
  5
96
330
1
100
AcDbSymbolTableRecord
100
AcDbBlockTableRecord
  2
EX_NNORM
  0
BLOCK_RECORD
  5
99
330
1
100
AcDbSymbolTableRecord
100
AcDbBlockTableRecord
  2
EX_BBOX
  0
BLOCK_RECORD
  5
9C
330
1
100
AcDbSymbolTableRecord
100
AcDbBlockTableRecord
  2
EX_WBOX
  0
BLOCK_RECORD
  5
9F
330
1
100
AcDbSymbolTableRecord
100
AcDbBlockTableRecord
  2
EX_INTEGRAL
  0
BLOCK_RECORD
  5
582
330
1
100
AcDbSymbolTableRecord
100
AcDbBlockTableRecord
  2
*D15
  0
BLOCK_RECORD
  5
58F
330
1
100
AcDbSymbolTableRecord
100
AcDbBlockTableRecord
  2
*D16
  0
BLOCK_RECORD
  5
59C
330
1
100
AcDbSymbolTableRecord
100
AcDbBlockTableRecord
  2
*D17
  0
BLOCK_RECORD
  5
5A8
330
1
100
AcDbSymbolTableRecord
100
AcDbBlockTableRecord
  2
*D18
  0
BLOCK_RECORD
  5
5B4
330
1
100
AcDbSymbolTableRecord
100
AcDbBlockTableRecord
  2
*D19
  0
BLOCK_RECORD
  5
5C0
330
1
100
AcDbSymbolTableRecord
100
AcDbBlockTableRecord
  2
*D20
  0
BLOCK_RECORD
  5
5CD
330
1
100
AcDbSymbolTableRecord
100
AcDbBlockTableRecord
  2
*D21
  0
BLOCK_RECORD
  5
5D9
330
1
100
AcDbSymbolTableRecord
100
AcDbBlockTableRecord
  2
*D22
  0
BLOCK_RECORD
  5
5E4
330
1
100
AcDbSymbolTableRecord
100
AcDbBlockTableRecord
  2
*D23
  0
BLOCK_RECORD
  5
5F0
330
1
100
AcDbSymbolTableRecord
100
AcDbBlockTableRecord
  2
*D24
  0
BLOCK_RECORD
  5
5FD
330
1
100
AcDbSymbolTableRecord
100
AcDbBlockTableRecord
  2
*D25
  0
BLOCK_RECORD
  5
608
330
1
100
AcDbSymbolTableRecord
100
AcDbBlockTableRecord
  2
*D26
  0
BLOCK_RECORD
  5
615
330
1
100
AcDbSymbolTableRecord
100
AcDbBlockTableRecord
  2
*D27
  0
BLOCK_RECORD
  5
622
330
1
100
AcDbSymbolTableRecord
100
AcDbBlockTableRecord
  2
*D28
  0
BLOCK_RECORD
  5
62E
330
1
100
AcDbSymbolTableRecord
100
AcDbBlockTableRecord
  2
*D29
  0
BLOCK_RECORD
  5
63A
330
1
100
AcDbSymbolTableRecord
100
AcDbBlockTableRecord
  2
*D30
  0
BLOCK_RECORD
  5
645
330
1
100
AcDbSymbolTableRecord
100
AcDbBlockTableRecord
  2
*D31
  0
BLOCK_RECORD
  5
652
330
1
100
AcDbSymbolTableRecord
100
AcDbBlockTableRecord
  2
*D32
  0
BLOCK_RECORD
  5
65F
330
1
100
AcDbSymbolTableRecord
100
AcDbBlockTableRecord
  2
*D33
  0
ENDTAB
  0
ENDSEC
  0
SECTION
  2
BLOCKS
  0
BLOCK
  5
20
330
1F
100
AcDbEntity
  8
0
100
AcDbBlockBegin
  2
*MODEL_SPACE
 70
     0
 10
0.0
 20
0.0
 30
0.0
  3
*MODEL_SPACE
  1

  0
ENDBLK
  5
21
330
1F
100
AcDbEntity
  8
0
100
AcDbBlockEnd
  0
BLOCK
  5
1C
330
1B
100
AcDbEntity
 67
     1
  8
0
100
AcDbBlockBegin
  2
*PAPER_SPACE
 70
     0
 10
0.0
 20
0.0
 30
0.0
  3
*PAPER_SPACE
  1

  0
ENDBLK
  5
1D
330
1B
100
AcDbEntity
 67
     1
  8
0
100
AcDbBlockEnd
  0
BLOCK
  5
79
330
78
100
AcDbEntity
  8
0
100
AcDbBlockBegin
  2
EX_NORM
 70
     0
 10
0.0
 20
0.0
 30
0.0
  3
EX_NORM
  1

  0
LINE
  5
A2
330
78
100
AcDbEntity
  8
0
  6
CONTINUOUS
 62
     0
100
AcDbLine
 10
0.0
 20
0.0
 30
0.0
 11
-1.0
 21
0.0
 31
0.0
  0
LINE
  5
A3
330
78
100
AcDbEntity
  8
0
  6
CONTINUOUS
 62
     0
100
AcDbLine
 10
0.0
 20
0.0
 30
0.0
 11
-1.0
 21
0.166666667
 31
0.0
  0
LINE
  5
A4
330
78
100
AcDbEntity
  8
0
  6
CONTINUOUS
 62
     0
100
AcDbLine
 10
0.0
 20
0.0
 30
0.0
 11
-1.0
 21
-0.166666667
 31
0.0
  0
ENDBLK
  5
7A
330
78
100
AcDbEntity
  8
0
100
AcDbBlockEnd
  0
BLOCK
  5
7C
330
7B
100
AcDbEntity
  8
0
100
AcDbBlockBegin
  2
EX_BNORM
 70
     0
 10
0.0
 20
0.0
 30
0.0
  3
EX_BNORM
  1

  0
LINE
  5
A5
330
7B
100
AcDbEntity
  8
0
  6
CONTINUOUS
 62
     0
100
AcDbLine
 10
0.0
 20
0.0
 30
0.0
 11
-1.0
 21
0.0
 31
0.0
  0
LINE
  5
A6
330
7B
100
AcDbEntity
  8
0
  6
CONTINUOUS
 62
     0
100
AcDbLine
 10
0.0
 20
0.0
 30
0.0
 11
-1.0
 21
0.166666667
 31
0.0
  0
LINE
  5
A7
330
7B
100
AcDbEntity
  8
0
  6
CONTINUOUS
 62
     0
100
AcDbLine
 10
0.0
 20
0.0
 30
0.0
 11
-1.0
 21
-0.166666667
 31
0.0
  0
LINE
  5
A8
330
7B
100
AcDbEntity
  8
0
  6
CONTINUOUS
 62
     0
100
AcDbLine
 10
0.0
 20
0.0
 30
0.0
 11
-1.0
 21
0.083333333
 31
0.0
  0
LINE
  5
A9
330
7B
100
AcDbEntity
  8
0
  6
CONTINUOUS
 62
     0
100
AcDbLine
 10
0.0
 20
0.0
 30
0.0
 11
-1.0
 21
-0.083333333
 31
0.0
  0
LINE
  5
AA
330
7B
100
AcDbEntity
  8
0
  6
CONTINUOUS
 62
     0
100
AcDbLine
 10
-1.0
 20
0.166666667
 30
0.0
 11
-1.0
 21
-0.166666667
 31
0.0
  0
ENDBLK
  5
7D
330
7B
100
AcDbEntity
  8
0
100
AcDbBlockEnd
  0
BLOCK
  5
7F
330
7E
100
AcDbEntity
  8
0
100
AcDbBlockBegin
  2
EX_BCIR
 70
     0
 10
0.0
 20
0.0
 30
0.0
  3
EX_BCIR
  1

  0
LINE
  5
AB
330
7E
100
AcDbEntity
  8
0
  6
CONTINUOUS
 62
     0
100
AcDbLine
 10
0.0
 20
0.0
 30
0.0
 11
-1.0
 21
0.0
 31
0.0
  0
CIRCLE
  5
AC
330
7E
100
AcDbEntity
  8
0
  6
CONTINUOUS
 62
     0
100
AcDbCircle
 10
0.0
 20
0.0
 30
0.0
 40
0.5
  0
CIRCLE
  5
AD
330
7E
100
AcDbEntity
  8
0
  6
CONTINUOUS
 62
     0
100
AcDbCircle
 10
0.0
 20
0.0
 30
0.0
 40
0.25
  0
ENDBLK
  5
80
330
7E
100
AcDbEntity
  8
0
100
AcDbBlockEnd
  0
BLOCK
  5
82
330
81
100
AcDbEntity
  8
0
100
AcDbBlockBegin
  2
EX_RCIVIL
 70
     0
 10
0.0
 20
0.0
 30
0.0
  3
EX_RCIVIL
  1

  0
LINE
  5
AE
330
81
100
AcDbEntity
  8
0
  6
CONTINUOUS
 62
     0
100
AcDbLine
 10
0.0
 20
0.0
 30
0.0
 11
-1.0
 21
0.0
 31
0.0
  0
LINE
  5
AF
330
81
100
AcDbEntity
  8
0
  6
CONTINUOUS
 62
     0
100
AcDbLine
 10
-1.0
 20
-0.25
 30
0.0
 11
0.0
 21
-0.25
 31
0.0
  0
LINE
  5
B0
330
81
100
AcDbEntity
  8
0
  6
CONTINUOUS
 62
     0
100
AcDbLine
 10
-1.0
 20
-0.125
 30
0.0
 11
0.0
 21
-0.125
 31
0.0
  0
ENDBLK
  5
83
330
81
100
AcDbEntity
  8
0
100
AcDbBlockEnd
  0
BLOCK
  5
85
330
84
100
AcDbEntity
  8
0
100
AcDbBlockBegin
  2
EX_SLANT
 70
     0
 10
0.0
 20
0.0
 30
0.0
  3
EX_SLANT
  1

  0
LINE
  5
B1
330
84
100
AcDbEntity
  8
0
  6
CONTINUOUS
 62
     0
100
AcDbLine
 10
0.0
 20
0.0
 30
0.0
 11
-1.0
 21
0.0
 31
0.0
  0
LINE
  5
B2
330
84
100
AcDbEntity
  8
0
  6
CONTINUOUS
 62
     0
100
AcDbLine
 10
0.707106781
 20
0.707106781
 30
0.0
 11
-0.707106781
 21
-0.707106781
 31
0.0
  0
ENDBLK
  5
86
330
84
100
AcDbEntity
  8
0
100
AcDbBlockEnd
  0
BLOCK
  5
88
330
87
100
AcDbEntity
  8
0
100
AcDbBlockBegin
  2
EX_NONE
 70
     0
 10
0.0
 20
0.0
 30
0.0
  3
EX_NONE
  1

  0
LINE
  5
B3
330
87
100
AcDbEntity
  8
0
  6
CONTINUOUS
 62
     0
100
AcDbLine
 10
0.0
 20
0.0
 30
0.0
 11
-1.0
 21
0.0
 31
0.0
  0
ENDBLK
  5
89
330
87
100
AcDbEntity
  8
0
100
AcDbBlockEnd
  0
BLOCK
  5
8B
330
8A
100
AcDbEntity
  8
0
100
AcDbBlockBegin
  2
EX_CIVIL
 70
     0
 10
0.0
 20
0.0
 30
0.0
  3
EX_CIVIL
  1

  0
LINE
  5
B4
330
8A
100
AcDbEntity
  8
0
  6
CONTINUOUS
 62
     0
100
AcDbLine
 10
0.0
 20
0.0
 30
0.0
 11
-1.0
 21
0.0
 31
0.0
  0
LINE
  5
B5
330
8A
100
AcDbEntity
  8
0
  6
CONTINUOUS
 62
     0
100
AcDbLine
 10
-1.0
 20
0.25
 30
0.0
 11
0.0
 21
0.25
 31
0.0
  0
LINE
  5
B6
330
8A
100
AcDbEntity
  8
0
  6
CONTINUOUS
 62
     0
100
AcDbLine
 10
-1.0
 20
0.125
 30
0.0
 11
0.0
 21
0.125
 31
0.0
  0
ENDBLK
  5
8C
330
8A
100
AcDbEntity
  8
0
100
AcDbBlockEnd
  0
BLOCK
  5
8E
330
8D
100
AcDbEntity
  8
0
100
AcDbBlockBegin
  2
EX_WCIR
 70
     0
 10
0.0
 20
0.0
 30
0.0
  3
EX_WCIR
  1

  0
LINE
  5
B7
330
8D
100
AcDbEntity
  8
0
  6
CONTINUOUS
 62
     0
100
AcDbLine
 10
0.0
 20
0.0
 30
0.0
 11
-1.0
 21
0.0
 31
0.0
  0
CIRCLE
  5
B8
330
8D
100
AcDbEntity
  8
0
  6
CONTINUOUS
 62
     0
100
AcDbCircle
 10
0.0
 20
0.0
 30
0.0
 40
0.5
  0
ENDBLK
  5
8F
330
8D
100
AcDbEntity
  8
0
100
AcDbBlockEnd
  0
BLOCK
  5
91
330
90
100
AcDbEntity
  8
0
100
AcDbBlockBegin
  2
EX_WCIR2
 70
     0
 10
0.0
 20
0.0
 30
0.0
  3
EX_WCIR2
  1

  0
LINE
  5
B9
330
90
100
AcDbEntity
  8
0
  6
CONTINUOUS
 62
     0
100
AcDbLine
 10
-0.5
 20
0.0
 30
0.0
 11
-1.0
 21
0.0
 31
0.0
  0
CIRCLE
  5
BA
330
90
100
AcDbEntity
  8
0
  6
CONTINUOUS
 62
     0
100
AcDbCircle
 10
0.0
 20
0.0
 30
0.0
 40
0.5
  0
ENDBLK
  5
92
330
90
100
AcDbEntity
  8
0
100
AcDbBlockEnd
  0
BLOCK
  5
94
330
93
100
AcDbEntity
  8
0
100
AcDbBlockBegin
  2
EX_WNORM
 70
     0
 10
0.0
 20
0.0
 30
0.0
  3
EX_WNORM
  1

  0
LINE
  5
BB
330
93
100
AcDbEntity
  8
0
  6
CONTINUOUS
 62
     0
100
AcDbLine
 10
-1.0
 20
0.0
 30
0.0
 11
-1.0
 21
0.0
 31
0.0
  0
LINE
  5
BC
330
93
100
AcDbEntity
  8
0
  6
CONTINUOUS
 62
     0
100
AcDbLine
 10
0.0
 20
0.0
 30
0.0
 11
-1.0
 21
0.166666667
 31
0.0
  0
LINE
  5
BD
330
93
100
AcDbEntity
  8
0
  6
CONTINUOUS
 62
     0
100
AcDbLine
 10
0.0
 20
0.0
 30
0.0
 11
-1.0
 21
-0.166666667
 31
0.0
  0
LINE
  5
BE
330
93
100
AcDbEntity
  8
0
  6
CONTINUOUS
 62
     0
100
AcDbLine
 10
-1.0
 20
0.166666667
 30
0.0
 11
-1.0
 21
-0.166666667
 31
0.0
  0
ENDBLK
  5
95
330
93
100
AcDbEntity
  8
0
100
AcDbBlockEnd
  0
BLOCK
  5
97
330
96
100
AcDbEntity
  8
0
100
AcDbBlockBegin
  2
EX_NNORM
 70
     0
 10
0.0
 20
0.0
 30
0.0
  3
EX_NNORM
  1

  0
LINE
  5
BF
330
96
100
AcDbEntity
  8
0
  6
CONTINUOUS
 62
     0
100
AcDbLine
 10
0.0
 20
0.0
 30
0.0
 11
-1.0
 21
0.0
 31
0.0
  0
LINE
  5
C0
330
96
100
AcDbEntity
  8
0
  6
CONTINUOUS
 62
     0
100
AcDbLine
 10
0.0
 20
0.0
 30
0.0
 11
-1.0
 21
0.166666667
 31
0.0
  0
LINE
  5
C1
330
96
100
AcDbEntity
  8
0
  6
CONTINUOUS
 62
     0
100
AcDbLine
 10
0.0
 20
0.0
 30
0.0
 11
-1.0
 21
-0.166666667
 31
0.0
  0
LINE
  5
C2
330
96
100
AcDbEntity
  8
0
  6
CONTINUOUS
 62
     0
100
AcDbLine
 10
-1.0
 20
0.166666667
 30
0.0
 11
-1.0
 21
-0.166666667
 31
0.0
  0
ENDBLK
  5
98
330
96
100
AcDbEntity
  8
0
100
AcDbBlockEnd
  0
BLOCK
  5
9A
330
99
100
AcDbEntity
  8
0
100
AcDbBlockBegin
  2
EX_BBOX
 70
     0
 10
0.0
 20
0.0
 30
0.0
  3
EX_BBOX
  1

  0
LINE
  5
C3
330
99
100
AcDbEntity
  8
0
  6
CONTINUOUS
 62
     0
100
AcDbLine
 10
0.0
 20
0.0
 30
0.0
 11
-1.0
 21
0.0
 31
0.0
  0
LINE
  5
C4
330
99
100
AcDbEntity
  8
0
  6
CONTINUOUS
 62
     0
100
AcDbLine
 10
-0.5
 20
0.5
 30
0.0
 11
0.5
 21
0.5
 31
0.0
  0
LINE
  5
C5
330
99
100
AcDbEntity
  8
0
  6
CONTINUOUS
 62
     0
100
AcDbLine
 10
0.5
 20
0.5
 30
0.0
 11
0.5
 21
-0.5
 31
0.0
  0
LINE
  5
C6
330
99
100
AcDbEntity
  8
0
  6
CONTINUOUS
 62
     0
100
AcDbLine
 10
0.5
 20
-0.5
 30
0.0
 11
-0.5
 21
-0.5
 31
0.0
  0
LINE
  5
C7
330
99
100
AcDbEntity
  8
0
  6
CONTINUOUS
 62
     0
100
AcDbLine
 10
-0.5
 20
-0.5
 30
0.0
 11
-0.5
 21
0.5
 31
0.0
  0
LINE
  5
C8
330
99
100
AcDbEntity
  8
0
  6
CONTINUOUS
 62
     0
100
AcDbLine
 10
-0.25
 20
0.25
 30
0.0
 11
0.25
 21
0.25
 31
0.0
  0
LINE
  5
C9
330
99
100
AcDbEntity
  8
0
  6
CONTINUOUS
 62
     0
100
AcDbLine
 10
0.25
 20
0.25
 30
0.0
 11
0.25
 21
-0.25
 31
0.0
  0
LINE
  5
CA
330
99
100
AcDbEntity
  8
0
  6
CONTINUOUS
 62
     0
100
AcDbLine
 10
0.25
 20
-0.25
 30
0.0
 11
-0.25
 21
-0.25
 31
0.0
  0
LINE
  5
CB
330
99
100
AcDbEntity
  8
0
  6
CONTINUOUS
 62
     0
100
AcDbLine
 10
-0.25
 20
-0.25
 30
0.0
 11
-0.25
 21
0.25
 31
0.0
  0
ENDBLK
  5
9B
330
99
100
AcDbEntity
  8
0
100
AcDbBlockEnd
  0
BLOCK
  5
9D
330
9C
100
AcDbEntity
  8
0
100
AcDbBlockBegin
  2
EX_WBOX
 70
     0
 10
0.0
 20
0.0
 30
0.0
  3
EX_WBOX
  1

  0
LINE
  5
CC
330
9C
100
AcDbEntity
  8
0
  6
CONTINUOUS
 62
     0
100
AcDbLine
 10
-0.5
 20
0.0
 30
0.0
 11
-1.0
 21
0.0
 31
0.0
  0
LINE
  5
CD
330
9C
100
AcDbEntity
  8
0
  6
CONTINUOUS
 62
     0
100
AcDbLine
 10
-0.5
 20
0.5
 30
0.0
 11
0.5
 21
0.5
 31
0.0
  0
LINE
  5
CE
330
9C
100
AcDbEntity
  8
0
  6
CONTINUOUS
 62
     0
100
AcDbLine
 10
0.5
 20
0.5
 30
0.0
 11
0.5
 21
-0.5
 31
0.0
  0
LINE
  5
CF
330
9C
100
AcDbEntity
  8
0
  6
CONTINUOUS
 62
     0
100
AcDbLine
 10
0.5
 20
-0.5
 30
0.0
 11
-0.5
 21
-0.5
 31
0.0
  0
LINE
  5
D0
330
9C
100
AcDbEntity
  8
0
  6
CONTINUOUS
 62
     0
100
AcDbLine
 10
-0.5
 20
-0.5
 30
0.0
 11
-0.5
 21
0.5
 31
0.0
  0
ENDBLK
  5
9E
330
9C
100
AcDbEntity
  8
0
100
AcDbBlockEnd
  0
BLOCK
  5
A0
330
9F
100
AcDbEntity
  8
0
100
AcDbBlockBegin
  2
EX_INTEGRAL
 70
     0
 10
0.0
 20
0.0
 30
0.0
  3
EX_INTEGRAL
  1

  0
LINE
  5
D1
330
9F
100
AcDbEntity
  8
0
  6
CONTINUOUS
 62
     0
100
AcDbLine
 10
0.0
 20
0.0
 30
0.0
 11
-1.0
 21
0.0
 31
0.0
  0
ARC
  5
D2
330
9F
100
AcDbEntity
  8
0
  6
CONTINUOUS
 62
     0
100
AcDbCircle
 10
0.542115
 20
0.164992
 30
0.0
 40
0.56667
100
AcDbArc
 50
73.07249033629006
 51
196.9275130221199
  0
ARC
  5
D3
330
9F
100
AcDbEntity
  8
0
  6
CONTINUOUS
 62
     0
100
AcDbCircle
 10
-0.542115
 20
-0.164992
 30
0.0
 40
0.56667
100
AcDbArc
 50
253.0724869220464
 51
16.9275130559125
  0
ENDBLK
  5
A1
330
9F
100
AcDbEntity
  8
0
100
AcDbBlockEnd
  0
BLOCK
  5
583
330
582
100
AcDbEntity
  8
0
100
AcDbBlockBegin
  2
*D15
 70
     1
 10
0.0
 20
0.0
 30
0.0
  3
*D15
  1

  0
LINE
  5
585
330
582
100
AcDbEntity
  8
LAY-20
  6
CONTINUOUS
 62
     4
100
AcDbLine
 10
224.9999999999932
 20
1163.500000000105
 30
0.0
 11
224.9999999999932
 21
1248.5000000001
 31
0.0
  0
LINE
  5
586
330
582
100
AcDbEntity
  8
LAY-20
  6
CONTINUOUS
 62
     4
100
AcDbLine
 10
1224.999999999954
 20
1163.500000000105
 30
0.0
 11
1224.999999999954
 21
1248.5000000001
 31
0.0
  0
LINE
  5
587
330
582
100
AcDbEntity
  8
LAY-20
  6
CONTINUOUS
 62
     4
100
AcDbLine
 10
237.4999999999932
 20
1241.0000000001
 30
0.0
 11
1212.499999999954
 21
1241.0000000001
 31
0.0
  0
INSERT
  5
588
330
582
100
AcDbEntity
  8
LAY-20
 62
     4
100
AcDbBlockReference
  2
EX_BNORM
 10
224.9999999999932
 20
1241.0000000001
 30
0.0
 41
12.5
 42
12.5
 43
12.5
 50
180.0
  0
INSERT
  5
589
330
582
100
AcDbEntity
  8
LAY-20
 62
     4
100
AcDbBlockReference
  2
EX_BNORM
 10
1224.999999999954
 20
1241.0000000001
 30
0.0
 41
12.5
 42
12.5
 43
12.5
  0
MTEXT
  5
58A
330
582
100
AcDbEntity
  8
LAY-20
 62
     7
100
AcDbMText
 10
724.9999999999735
 20
1253.5000000001
 30
0.0
 40
15.590552
 41
0.0
 71
     5
 72
     1
  1
1000
  7
EXCADDIM1
  0
POINT
  5
58B
330
582
100
AcDbEntity
  8
DEFPOINTS
 62
     0
100
AcDbPoint
 10
224.9999999999932
 20
1156.000000000105
 30
0.0
  0
POINT
  5
58C
330
582
100
AcDbEntity
  8
DEFPOINTS
 62
     0
100
AcDbPoint
 10
1224.999999999954
 20
1156.000000000105
 30
0.0
  0
POINT
  5
58D
330
582
100
AcDbEntity
  8
DEFPOINTS
 62
     0
100
AcDbPoint
 10
1224.999999999954
 20
1241.0000000001
 30
0.0
  0
ENDBLK
  5
584
330
582
100
AcDbEntity
  8
0
100
AcDbBlockEnd
  0
BLOCK
  5
590
330
58F
100
AcDbEntity
  8
0
100
AcDbBlockBegin
  2
*D16
 70
     1
 10
0.0
 20
0.0
 30
0.0
  3
*D16
  1

  0
LINE
  5
592
330
58F
100
AcDbEntity
  8
LAY-20
  6
CONTINUOUS
 62
     4
100
AcDbLine
 10
225.0000000000095
 20
929.0000000001999
 30
0.0
 11
225.0000000000095
 21
879.0000000001999
 31
0.0
  0
LINE
  5
593
330
58F
100
AcDbEntity
  8
LAY-20
  6
CONTINUOUS
 62
     4
100
AcDbLine
 10
324.9999999999295
 20
910.0000000000498
 30
0.0
 11
324.9999999999295
 21
879.0000000001999
 31
0.0
  0
LINE
  5
594
330
58F
100
AcDbEntity
  8
LAY-20
  6
CONTINUOUS
 62
     4
100
AcDbLine
 10
237.5000000000095
 20
886.5000000001999
 30
0.0
 11
312.4999999999295
 21
886.5000000001999
 31
0.0
  0
INSERT
  5
595
330
58F
100
AcDbEntity
  8
LAY-20
 62
     4
100
AcDbBlockReference
  2
EX_BNORM
 10
225.0000000000095
 20
886.5000000001999
 30
0.0
 41
12.5
 42
12.5
 43
12.5
 50
180.0
  0
INSERT
  5
596
330
58F
100
AcDbEntity
  8
LAY-20
 62
     4
100
AcDbBlockReference
  2
EX_BNORM
 10
324.9999999999295
 20
886.5000000001999
 30
0.0
 41
12.5
 42
12.5
 43
12.5
  0
MTEXT
  5
597
330
58F
100
AcDbEntity
  8
LAY-20
 62
     7
100
AcDbMText
 10
274.9999999999695
 20
899.0000000001999
 30
0.0
 40
15.590552
 41
0.0
 71
     5
 72
     1
  1
100
  7
EXCADDIM1
  0
POINT
  5
598
330
58F
100
AcDbEntity
  8
DEFPOINTS
 62
     0
100
AcDbPoint
 10
225.0000000000095
 20
936.5000000001999
 30
0.0
  0
POINT
  5
599
330
58F
100
AcDbEntity
  8
DEFPOINTS
 62
     0
100
AcDbPoint
 10
324.9999999999295
 20
917.5000000000498
 30
0.0
  0
POINT
  5
59A
330
58F
100
AcDbEntity
  8
DEFPOINTS
 62
     0
100
AcDbPoint
 10
324.9999999999295
 20
886.5000000001999
 30
0.0
  0
ENDBLK
  5
591
330
58F
100
AcDbEntity
  8
0
100
AcDbBlockEnd
  0
BLOCK
  5
59D
330
59C
100
AcDbEntity
  8
0
100
AcDbBlockBegin
  2
*D17
 70
     1
 10
0.0
 20
0.0
 30
0.0
  3
*D17
  1

  0
LINE
  5
59F
330
59C
100
AcDbEntity
  8
LAY-20
  6
CONTINUOUS
 62
     4
100
AcDbLine
 10
724.9999999999491
 20
910.0000000000498
 30
0.0
 11
724.9999999999491
 21
879.0000000001999
 31
0.0
  0
LINE
  5
5A0
330
59C
100
AcDbEntity
  8
LAY-20
  6
CONTINUOUS
 62
     4
100
AcDbLine
 10
337.4999999999295
 20
886.5000000001999
 30
0.0
 11
712.4999999999491
 21
886.5000000001999
 31
0.0
  0
INSERT
  5
5A1
330
59C
100
AcDbEntity
  8
LAY-20
 62
     4
100
AcDbBlockReference
  2
EX_BNORM
 10
324.9999999999295
 20
886.5000000001999
 30
0.0
 41
12.5
 42
12.5
 43
12.5
 50
180.0
  0
INSERT
  5
5A2
330
59C
100
AcDbEntity
  8
LAY-20
 62
     4
100
AcDbBlockReference
  2
EX_BNORM
 10
724.9999999999491
 20
886.5000000001999
 30
0.0
 41
12.5
 42
12.5
 43
12.5
  0
MTEXT
  5
5A3
330
59C
100
AcDbEntity
  8
LAY-20
 62
     7
100
AcDbMText
 10
524.9999999999394
 20
899.0000000001999
 30
0.0
 40
15.590552
 41
0.0
 71
     5
 72
     1
  1
400
  7
EXCADDIM1
  0
POINT
  5
5A4
330
59C
100
AcDbEntity
  8
DEFPOINTS
 62
     0
100
AcDbPoint
 10
324.9999999999295
 20
916.5000000000998
 30
0.0
  0
POINT
  5
5A5
330
59C
100
AcDbEntity
  8
DEFPOINTS
 62
     0
100
AcDbPoint
 10
724.9999999999491
 20
917.5000000000498
 30
0.0
  0
POINT
  5
5A6
330
59C
100
AcDbEntity
  8
DEFPOINTS
 62
     0
100
AcDbPoint
 10
724.9999999999491
 20
886.5000000001999
 30
0.0
  0
ENDBLK
  5
59E
330
59C
100
AcDbEntity
  8
0
100
AcDbBlockEnd
  0
BLOCK
  5
5A9
330
5A8
100
AcDbEntity
  8
0
100
AcDbBlockBegin
  2
*D18
 70
     1
 10
0.0
 20
0.0
 30
0.0
  3
*D18
  1

  0
LINE
  5
5AB
330
5A8
100
AcDbEntity
  8
LAY-20
  6
CONTINUOUS
 62
     4
100
AcDbLine
 10
1124.99999999992
 20
910.0000000000498
 30
0.0
 11
1124.99999999992
 21
879.0000000001999
 31
0.0
  0
LINE
  5
5AC
330
5A8
100
AcDbEntity
  8
LAY-20
  6
CONTINUOUS
 62
     4
100
AcDbLine
 10
737.4999999999491
 20
886.5000000001999
 30
0.0
 11
1112.49999999992
 21
886.5000000001999
 31
0.0
  0
INSERT
  5
5AD
330
5A8
100
AcDbEntity
  8
LAY-20
 62
     4
100
AcDbBlockReference
  2
EX_BNORM
 10
724.9999999999491
 20
886.5000000001999
 30
0.0
 41
12.5
 42
12.5
 43
12.5
 50
180.0
  0
INSERT
  5
5AE
330
5A8
100
AcDbEntity
  8
LAY-20
 62
     4
100
AcDbBlockReference
  2
EX_BNORM
 10
1124.99999999992
 20
886.5000000001999
 30
0.0
 41
12.5
 42
12.5
 43
12.5
  0
MTEXT
  5
5AF
330
5A8
100
AcDbEntity
  8
LAY-20
 62
     7
100
AcDbMText
 10
924.9999999999343
 20
899.0000000001999
 30
0.0
 40
15.590552
 41
0.0
 71
     5
 72
     1
  1
400
  7
EXCADDIM1
  0
POINT
  5
5B0
330
5A8
100
AcDbEntity
  8
DEFPOINTS
 62
     0
100
AcDbPoint
 10
724.9999999999491
 20
916.5000000000998
 30
0.0
  0
POINT
  5
5B1
330
5A8
100
AcDbEntity
  8
DEFPOINTS
 62
     0
100
AcDbPoint
 10
1124.99999999992
 20
917.5000000000498
 30
0.0
  0
POINT
  5
5B2
330
5A8
100
AcDbEntity
  8
DEFPOINTS
 62
     0
100
AcDbPoint
 10
1124.99999999992
 20
886.5000000001999
 30
0.0
  0
ENDBLK
  5
5AA
330
5A8
100
AcDbEntity
  8
0
100
AcDbBlockEnd
  0
BLOCK
  5
5B5
330
5B4
100
AcDbEntity
  8
0
100
AcDbBlockBegin
  2
*D19
 70
     1
 10
0.0
 20
0.0
 30
0.0
  3
*D19
  1

  0
LINE
  5
5B7
330
5B4
100
AcDbEntity
  8
LAY-20
  6
CONTINUOUS
 62
     4
100
AcDbLine
 10
1225.00000000002
 20
929.0000000001999
 30
0.0
 11
1225.00000000002
 21
879.0000000001999
 31
0.0
  0
LINE
  5
5B8
330
5B4
100
AcDbEntity
  8
LAY-20
  6
CONTINUOUS
 62
     4
100
AcDbLine
 10
1137.49999999992
 20
886.5000000001999
 30
0.0
 11
1212.50000000002
 21
886.5000000001999
 31
0.0
  0
INSERT
  5
5B9
330
5B4
100
AcDbEntity
  8
LAY-20
 62
     4
100
AcDbBlockReference
  2
EX_BNORM
 10
1124.99999999992
 20
886.5000000001999
 30
0.0
 41
12.5
 42
12.5
 43
12.5
 50
180.0
  0
INSERT
  5
5BA
330
5B4
100
AcDbEntity
  8
LAY-20
 62
     4
100
AcDbBlockReference
  2
EX_BNORM
 10
1225.00000000002
 20
886.5000000001999
 30
0.0
 41
12.5
 42
12.5
 43
12.5
  0
MTEXT
  5
5BB
330
5B4
100
AcDbEntity
  8
LAY-20
 62
     7
100
AcDbMText
 10
1174.99999999997
 20
899.0000000001999
 30
0.0
 40
15.590552
 41
0.0
 71
     5
 72
     1
  1
100
  7
EXCADDIM1
  0
POINT
  5
5BC
330
5B4
100
AcDbEntity
  8
DEFPOINTS
 62
     0
100
AcDbPoint
 10
1124.99999999992
 20
916.5000000000998
 30
0.0
  0
POINT
  5
5BD
330
5B4
100
AcDbEntity
  8
DEFPOINTS
 62
     0
100
AcDbPoint
 10
1225.00000000002
 20
936.5000000001999
 30
0.0
  0
POINT
  5
5BE
330
5B4
100
AcDbEntity
  8
DEFPOINTS
 62
     0
100
AcDbPoint
 10
1225.00000000002
 20
886.5000000001999
 30
0.0
  0
ENDBLK
  5
5B6
330
5B4
100
AcDbEntity
  8
0
100
AcDbBlockEnd
  0
BLOCK
  5
5C1
330
5C0
100
AcDbEntity
  8
0
100
AcDbBlockBegin
  2
*D20
 70
     1
 10
0.0
 20
0.0
 30
0.0
  3
*D20
  1

  0
LINE
  5
5C3
330
5C0
100
AcDbEntity
  8
LAY-20
  6
CONTINUOUS
 62
     4
100
AcDbLine
 10
1374.99999999997
 20
1061.50000000013
 30
0.0
 11
1374.99999999997
 21
809.0000000001999
 31
0.0
  0
LINE
  5
5C4
330
5C0
100
AcDbEntity
  8
LAY-20
  6
CONTINUOUS
 62
     4
100
AcDbLine
 10
1544.999999999969
 20
929.0000000001999
 30
0.0
 11
1544.999999999969
 21
809.0000000001999
 31
0.0
  0
LINE
  5
5C5
330
5C0
100
AcDbEntity
  8
LAY-20
  6
CONTINUOUS
 62
     4
100
AcDbLine
 10
1387.49999999997
 20
816.5000000001999
 30
0.0
 11
1532.499999999969
 21
816.5000000001999
 31
0.0
  0
INSERT
  5
5C6
330
5C0
100
AcDbEntity
  8
LAY-20
 62
     4
100
AcDbBlockReference
  2
EX_BNORM
 10
1374.99999999997
 20
816.5000000001999
 30
0.0
 41
12.5
 42
12.5
 43
12.5
 50
180.0
  0
INSERT
  5
5C7
330
5C0
100
AcDbEntity
  8
LAY-20
 62
     4
100
AcDbBlockReference
  2
EX_BNORM
 10
1544.999999999969
 20
816.5000000001999
 30
0.0
 41
12.5
 42
12.5
 43
12.5
  0
MTEXT
  5
5C8
330
5C0
100
AcDbEntity
  8
LAY-20
 62
     7
100
AcDbMText
 10
1459.999999999969
 20
829.0000000001999
 30
0.0
 40
15.590552
 41
0.0
 71
     5
 72
     1
  1
170
  7
EXCADDIM1
  0
POINT
  5
5C9
330
5C0
100
AcDbEntity
  8
DEFPOINTS
 62
     0
100
AcDbPoint
 10
1374.99999999997
 20
1069.00000000013
 30
0.0
  0
POINT
  5
5CA
330
5C0
100
AcDbEntity
  8
DEFPOINTS
 62
     0
100
AcDbPoint
 10
1544.999999999969
 20
936.5000000001999
 30
0.0
  0
POINT
  5
5CB
330
5C0
100
AcDbEntity
  8
DEFPOINTS
 62
     0
100
AcDbPoint
 10
1544.999999999969
 20
816.5000000001999
 30
0.0
  0
ENDBLK
  5
5C2
330
5C0
100
AcDbEntity
  8
0
100
AcDbBlockEnd
  0
BLOCK
  5
5CE
330
5CD
100
AcDbEntity
  8
0
100
AcDbBlockBegin
  2
*D21
 70
     1
 10
0.0
 20
0.0
 30
0.0
  3
*D21
  1

  0
LINE
  5
5D0
330
5CD
100
AcDbEntity
  8
LAY-20
  6
CONTINUOUS
 62
     4
100
AcDbLine
 10
1504.99999999997
 20
933.5000000001999
 30
0.0
 11
1504.99999999997
 21
844.0000000001999
 31
0.0
  0
LINE
  5
5D1
330
5CD
100
AcDbEntity
  8
LAY-20
  6
CONTINUOUS
 62
     4
100
AcDbLine
 10
1492.49999999997
 20
851.5000000001999
 30
0.0
 11
1387.49999999997
 21
851.5000000001999
 31
0.0
  0
INSERT
  5
5D2
330
5CD
100
AcDbEntity
  8
LAY-20
 62
     4
100
AcDbBlockReference
  2
EX_BNORM
 10
1504.99999999997
 20
851.5000000001999
 30
0.0
 41
12.5
 42
12.5
 43
12.5
  0
INSERT
  5
5D3
330
5CD
100
AcDbEntity
  8
LAY-20
 62
     4
100
AcDbBlockReference
  2
EX_BNORM
 10
1374.99999999997
 20
851.5000000001999
 30
0.0
 41
12.5
 42
12.5
 43
12.5
 50
180.0
  0
MTEXT
  5
5D4
330
5CD
100
AcDbEntity
  8
LAY-20
 62
     7
100
AcDbMText
 10
1439.99999999997
 20
864.0000000001999
 30
0.0
 40
15.590552
 41
0.0
 71
     5
 72
     1
  1
130
  7
EXCADDIM1
  0
POINT
  5
5D5
330
5CD
100
AcDbEntity
  8
DEFPOINTS
 62
     0
100
AcDbPoint
 10
1504.99999999997
 20
941.0000000001999
 30
0.0
  0
POINT
  5
5D6
330
5CD
100
AcDbEntity
  8
DEFPOINTS
 62
     0
100
AcDbPoint
 10
1374.99999999997
 20
851.5000000001999
 30
0.0
  0
POINT
  5
5D7
330
5CD
100
AcDbEntity
  8
DEFPOINTS
 62
     0
100
AcDbPoint
 10
1374.99999999997
 20
851.5000000001999
 30
0.0
  0
ENDBLK
  5
5CF
330
5CD
100
AcDbEntity
  8
0
100
AcDbBlockEnd
  0
BLOCK
  5
5DA
330
5D9
100
AcDbEntity
  8
0
100
AcDbBlockBegin
  2
*D22
 70
     1
 10
0.0
 20
0.0
 30
0.0
  3
*D22
  1

  0
LINE
  5
5DC
330
5D9
100
AcDbEntity
  8
LAY-20
  6
CONTINUOUS
 62
     4
100
AcDbLine
 10
1517.49999999997
 20
851.5000000001999
 30
0.0
 11
1532.499999999969
 21
851.5000000001999
 31
0.0
  0
INSERT
  5
5DD
330
5D9
100
AcDbEntity
  8
LAY-20
 62
     4
100
AcDbBlockReference
  2
EX_BNORM
 10
1504.99999999997
 20
851.5000000001999
 30
0.0
 41
12.5
 42
12.5
 43
12.5
 50
180.0
  0
INSERT
  5
5DE
330
5D9
100
AcDbEntity
  8
LAY-20
 62
     4
100
AcDbBlockReference
  2
EX_BNORM
 10
1544.999999999969
 20
851.5000000001999
 30
0.0
 41
12.5
 42
12.5
 43
12.5
  0
MTEXT
  5
5DF
330
5D9
100
AcDbEntity
  8
LAY-20
 62
     7
100
AcDbMText
 10
1524.999999999969
 20
864.0000000001999
 30
0.0
 40
15.590552
 41
0.0
 71
     5
 72
     1
  1
40
  7
EXCADDIM1
  0
POINT
  5
5E0
330
5D9
100
AcDbEntity
  8
DEFPOINTS
 62
     0
100
AcDbPoint
 10
1504.99999999997
 20
851.5000000001999
 30
0.0
  0
POINT
  5
5E1
330
5D9
100
AcDbEntity
  8
DEFPOINTS
 62
     0
100
AcDbPoint
 10
1544.999999999969
 20
851.5000000001999
 30
0.0
  0
POINT
  5
5E2
330
5D9
100
AcDbEntity
  8
DEFPOINTS
 62
     0
100
AcDbPoint
 10
1544.999999999969
 20
851.5000000001999
 30
0.0
  0
ENDBLK
  5
5DB
330
5D9
100
AcDbEntity
  8
0
100
AcDbBlockEnd
  0
BLOCK
  5
5E5
330
5E4
100
AcDbEntity
  8
0
100
AcDbBlockBegin
  2
*D23
 70
     1
 10
0.0
 20
0.0
 30
0.0
  3
*D23
  1

  0
LINE
  5
5E7
330
5E4
100
AcDbEntity
  8
LAY-20
  6
CONTINUOUS
 62
     4
100
AcDbLine
 10
1464.99999999997
 20
929.0000000001999
 30
0.0
 11
1464.99999999997
 21
879.0000000001999
 31
0.0
  0
LINE
  5
5E8
330
5E4
100
AcDbEntity
  8
LAY-20
  6
CONTINUOUS
 62
     4
100
AcDbLine
 10
1452.49999999997
 20
886.5000000001999
 30
0.0
 11
1387.49999999997
 21
886.5000000001999
 31
0.0
  0
INSERT
  5
5E9
330
5E4
100
AcDbEntity
  8
LAY-20
 62
     4
100
AcDbBlockReference
  2
EX_BNORM
 10
1464.99999999997
 20
886.5000000001999
 30
0.0
 41
12.5
 42
12.5
 43
12.5
  0
INSERT
  5
5EA
330
5E4
100
AcDbEntity
  8
LAY-20
 62
     4
100
AcDbBlockReference
  2
EX_BNORM
 10
1374.99999999997
 20
886.5000000001999
 30
0.0
 41
12.5
 42
12.5
 43
12.5
 50
180.0
  0
MTEXT
  5
5EB
330
5E4
100
AcDbEntity
  8
LAY-20
 62
     7
100
AcDbMText
 10
1419.99999999997
 20
899.0000000001999
 30
0.0
 40
15.590552
 41
0.0
 71
     5
 72
     1
  1
90
  7
EXCADDIM1
  0
POINT
  5
5EC
330
5E4
100
AcDbEntity
  8
DEFPOINTS
 62
     0
100
AcDbPoint
 10
1464.99999999997
 20
936.5000000001999
 30
0.0
  0
POINT
  5
5ED
330
5E4
100
AcDbEntity
  8
DEFPOINTS
 62
     0
100
AcDbPoint
 10
1374.99999999997
 20
886.5000000001999
 30
0.0
  0
POINT
  5
5EE
330
5E4
100
AcDbEntity
  8
DEFPOINTS
 62
     0
100
AcDbPoint
 10
1374.99999999997
 20
886.5000000001999
 30
0.0
  0
ENDBLK
  5
5E6
330
5E4
100
AcDbEntity
  8
0
100
AcDbBlockEnd
  0
BLOCK
  5
5F1
330
5F0
100
AcDbEntity
  8
0
100
AcDbBlockBegin
  2
*D24
 70
     1
 10
0.0
 20
0.0
 30
0.0
  3
*D24
  1

  0
LINE
  5
5F3
330
5F0
100
AcDbEntity
  8
LAY-20
  6
CONTINUOUS
 62
     4
100
AcDbLine
 10
1512.50000000002
 20
976.0000000000997
 30
0.0
 11
1587.50000000012
 21
976.0000000000998
 31
0.0
  0
LINE
  5
5F4
330
5F0
100
AcDbEntity
  8
LAY-20
  6
CONTINUOUS
 62
     4
100
AcDbLine
 10
1512.50000000002
 20
1126.0000000001
 30
0.0
 11
1587.50000000012
 21
1126.0000000001
 31
0.0
  0
LINE
  5
5F5
330
5F0
100
AcDbEntity
  8
LAY-20
  6
CONTINUOUS
 62
     4
100
AcDbLine
 10
1580.00000000012
 20
988.5000000000998
 30
0.0
 11
1580.00000000012
 21
1113.5000000001
 31
0.0
  0
INSERT
  5
5F6
330
5F0
100
AcDbEntity
  8
LAY-20
 62
     4
100
AcDbBlockReference
  2
EX_BNORM
 10
1580.00000000012
 20
976.0000000000998
 30
0.0
 41
12.5
 42
12.5
 43
12.5
 50
270.0
  0
INSERT
  5
5F7
330
5F0
100
AcDbEntity
  8
LAY-20
 62
     4
100
AcDbBlockReference
  2
EX_BNORM
 10
1580.00000000012
 20
1126.0000000001
 30
0.0
 41
12.5
 42
12.5
 43
12.5
 50
90.0
  0
MTEXT
  5
5F8
330
5F0
100
AcDbEntity
  8
LAY-20
 62
     7
100
AcDbMText
 10
1567.50000000012
 20
1051.0000000001
 30
0.0
 40
15.590552
 41
0.0
 71
     5
 72
     1
  1
溝幅150
  7
EXCADDIM1
 11
0.0
 21
1.0
 31
0.0
  0
POINT
  5
5F9
330
5F0
100
AcDbEntity
  8
DEFPOINTS
 62
     0
100
AcDbPoint
 10
1505.00000000002
 20
976.0000000000997
 30
0.0
  0
POINT
  5
5FA
330
5F0
100
AcDbEntity
  8
DEFPOINTS
 62
     0
100
AcDbPoint
 10
1505.00000000002
 20
1126.0000000001
 30
0.0
  0
POINT
  5
5FB
330
5F0
100
AcDbEntity
  8
DEFPOINTS
 62
     0
100
AcDbPoint
 10
1580.00000000012
 20
1126.0000000001
 30
0.0
  0
ENDBLK
  5
5F2
330
5F0
100
AcDbEntity
  8
0
100
AcDbBlockEnd
  0
BLOCK
  5
5FE
330
5FD
100
AcDbEntity
  8
0
100
AcDbBlockBegin
  2
*D25
 70
     1
 10
0.0
 20
0.0
 30
0.0
  3
*D25
  1

  0
LINE
  5
600
330
5FD
100
AcDbEntity
  8
LAY-20
  6
CONTINUOUS
 62
     4
100
AcDbLine
 10
1615.00000000002
 20
1143.5000000001
 30
0.0
 11
1615.00000000002
 21
958.5000000000997
 31
0.0
  0
INSERT
  5
601
330
5FD
100
AcDbEntity
  8
LAY-20
 62
     4
100
AcDbBlockReference
  2
EX_BNORM
 10
1615.00000000002
 20
1156.0000000001
 30
0.0
 41
12.5
 42
12.5
 43
12.5
 50
90.0
  0
INSERT
  5
602
330
5FD
100
AcDbEntity
  8
LAY-20
 62
     4
100
AcDbBlockReference
  2
EX_BNORM
 10
1615.00000000002
 20
946.0000000000997
 30
0.0
 41
12.5
 42
12.5
 43
12.5
 50
270.0
  0
MTEXT
  5
603
330
5FD
100
AcDbEntity
  8
LAY-20
 62
     7
100
AcDbMText
 10
1602.50000000002
 20
1051.0000000001
 30
0.0
 40
15.590552
 41
0.0
 71
     5
 72
     1
  1
210
  7
EXCADDIM1
 11
0.0
 21
1.0
 31
0.0
  0
POINT
  5
604
330
5FD
100
AcDbEntity
  8
DEFPOINTS
 62
     0
100
AcDbPoint
 10
1615.00000000002
 20
1156.0000000001
 30
0.0
  0
POINT
  5
605
330
5FD
100
AcDbEntity
  8
DEFPOINTS
 62
     0
100
AcDbPoint
 10
1615.00000000002
 20
946.0000000000997
 30
0.0
  0
POINT
  5
606
330
5FD
100
AcDbEntity
  8
DEFPOINTS
 62
     0
100
AcDbPoint
 10
1615.00000000002
 20
946.0000000000997
 30
0.0
  0
ENDBLK
  5
5FF
330
5FD
100
AcDbEntity
  8
0
100
AcDbBlockEnd
  0
BLOCK
  5
609
330
608
100
AcDbEntity
  8
0
100
AcDbBlockBegin
  2
*D26
 70
     1
 10
0.0
 20
0.0
 30
0.0
  3
*D26
  1

  0
LINE
  5
60B
330
608
100
AcDbEntity
  8
LAY-20
  6
CONTINUOUS
 62
     4
100
AcDbLine
 10
1552.499999999969
 20
1159.0000000001
 30
0.0
 11
1657.499999999969
 21
1159.0000000001
 31
0.0
  0
LINE
  5
60C
330
608
100
AcDbEntity
  8
LAY-20
  6
CONTINUOUS
 62
     4
100
AcDbLine
 10
1552.499999999969
 20
941.0000000001999
 30
0.0
 11
1657.499999999969
 21
941.0000000001999
 31
0.0
  0
LINE
  5
60D
330
608
100
AcDbEntity
  8
LAY-20
  6
CONTINUOUS
 62
     4
100
AcDbLine
 10
1649.999999999969
 20
1146.5000000001
 30
0.0
 11
1649.999999999969
 21
953.5000000001999
 31
0.0
  0
INSERT
  5
60E
330
608
100
AcDbEntity
  8
LAY-20
 62
     4
100
AcDbBlockReference
  2
EX_BNORM
 10
1649.999999999969
 20
1159.0000000001
 30
0.0
 41
12.5
 42
12.5
 43
12.5
 50
90.0
  0
INSERT
  5
60F
330
608
100
AcDbEntity
  8
LAY-20
 62
     4
100
AcDbBlockReference
  2
EX_BNORM
 10
1649.999999999969
 20
941.0000000001999
 30
0.0
 41
12.5
 42
12.5
 43
12.5
 50
270.0
  0
MTEXT
  5
610
330
608
100
AcDbEntity
  8
LAY-20
 62
     7
100
AcDbMText
 10
1637.499999999969
 20
1050.00000000015
 30
0.0
 40
15.590552
 41
0.0
 71
     5
 72
     1
  1
218
  7
EXCADDIM1
 11
0.0
 21
1.0
 31
0.0
  0
POINT
  5
611
330
608
100
AcDbEntity
  8
DEFPOINTS
 62
     0
100
AcDbPoint
 10
1544.999999999969
 20
1159.0000000001
 30
0.0
  0
POINT
  5
612
330
608
100
AcDbEntity
  8
DEFPOINTS
 62
     0
100
AcDbPoint
 10
1544.999999999969
 20
941.0000000001999
 30
0.0
  0
POINT
  5
613
330
608
100
AcDbEntity
  8
DEFPOINTS
 62
     0
100
AcDbPoint
 10
1649.999999999969
 20
941.0000000001999
 30
0.0
  0
ENDBLK
  5
60A
330
608
100
AcDbEntity
  8
0
100
AcDbBlockEnd
  0
BLOCK
  5
616
330
615
100
AcDbEntity
  8
0
100
AcDbBlockBegin
  2
*D27
 70
     1
 10
0.0
 20
0.0
 30
0.0
  3
*D27
  1

  0
LINE
  5
618
330
615
100
AcDbEntity
  8
LAY-20
  6
CONTINUOUS
 62
     4
100
AcDbLine
 10
1475.0
 20
1169.5000000001
 30
0.0
 11
1475.0
 21
1248.5000000001
 31
0.0
  0
LINE
  5
619
330
615
100
AcDbEntity
  8
LAY-20
  6
CONTINUOUS
 62
     4
100
AcDbLine
 10
1545.0
 20
1169.5000000001
 30
0.0
 11
1545.0
 21
1248.5000000001
 31
0.0
  0
LINE
  5
61A
330
615
100
AcDbEntity
  8
LAY-20
  6
CONTINUOUS
 62
     4
100
AcDbLine
 10
1487.5
 20
1241.0000000001
 30
0.0
 11
1532.5
 21
1241.0000000001
 31
0.0
  0
INSERT
  5
61B
330
615
100
AcDbEntity
  8
LAY-20
 62
     4
100
AcDbBlockReference
  2
EX_BNORM
 10
1475.0
 20
1241.0000000001
 30
0.0
 41
12.5
 42
12.5
 43
12.5
 50
180.0
  0
INSERT
  5
61C
330
615
100
AcDbEntity
  8
LAY-20
 62
     4
100
AcDbBlockReference
  2
EX_BNORM
 10
1545.0
 20
1241.0000000001
 30
0.0
 41
12.5
 42
12.5
 43
12.5
  0
MTEXT
  5
61D
330
615
100
AcDbEntity
  8
LAY-20
 62
     7
100
AcDbMText
 10
1510.0
 20
1253.5000000001
 30
0.0
 40
15.590552
 41
0.0
 71
     5
 72
     1
  1
70
  7
EXCADDIM1
  0
POINT
  5
61E
330
615
100
AcDbEntity
  8
DEFPOINTS
 62
     0
100
AcDbPoint
 10
1475.0
 20
1162.0000000001
 30
0.0
  0
POINT
  5
61F
330
615
100
AcDbEntity
  8
DEFPOINTS
 62
     0
100
AcDbPoint
 10
1545.0
 20
1162.0000000001
 30
0.0
  0
POINT
  5
620
330
615
100
AcDbEntity
  8
DEFPOINTS
 62
     0
100
AcDbPoint
 10
1545.0
 20
1241.0000000001
 30
0.0
  0
ENDBLK
  5
617
330
615
100
AcDbEntity
  8
0
100
AcDbBlockEnd
  0
BLOCK
  5
623
330
622
100
AcDbEntity
  8
0
100
AcDbBlockBegin
  2
*D28
 70
     1
 10
0.0
 20
0.0
 30
0.0
  3
*D28
  1

  0
LINE
  5
625
330
622
100
AcDbEntity
  8
LAY-20
  6
CONTINUOUS
 62
     4
100
AcDbLine
 10
1375.0
 20
1163.5000000001
 30
0.0
 11
1375.0
 21
1248.5000000001
 31
0.0
  0
LINE
  5
626
330
622
100
AcDbEntity
  8
LAY-20
  6
CONTINUOUS
 62
     4
100
AcDbLine
 10
1387.5
 20
1241.0000000001
 30
0.0
 11
1462.5
 21
1241.0000000001
 31
0.0
  0
INSERT
  5
627
330
622
100
AcDbEntity
  8
LAY-20
 62
     4
100
AcDbBlockReference
  2
EX_BNORM
 10
1375.0
 20
1241.0000000001
 30
0.0
 41
12.5
 42
12.5
 43
12.5
 50
180.0
  0
INSERT
  5
628
330
622
100
AcDbEntity
  8
LAY-20
 62
     4
100
AcDbBlockReference
  2
EX_BNORM
 10
1475.0
 20
1241.0000000001
 30
0.0
 41
12.5
 42
12.5
 43
12.5
  0
MTEXT
  5
629
330
622
100
AcDbEntity
  8
LAY-20
 62
     7
100
AcDbMText
 10
1425.0
 20
1253.5000000001
 30
0.0
 40
15.590552
 41
0.0
 71
     5
 72
     1
  1
100
  7
EXCADDIM1
  0
POINT
  5
62A
330
622
100
AcDbEntity
  8
DEFPOINTS
 62
     0
100
AcDbPoint
 10
1375.0
 20
1156.0000000001
 30
0.0
  0
POINT
  5
62B
330
622
100
AcDbEntity
  8
DEFPOINTS
 62
     0
100
AcDbPoint
 10
1475.0
 20
1241.0000000001
 30
0.0
  0
POINT
  5
62C
330
622
100
AcDbEntity
  8
DEFPOINTS
 62
     0
100
AcDbPoint
 10
1475.0
 20
1241.0000000001
 30
0.0
  0
ENDBLK
  5
624
330
622
100
AcDbEntity
  8
0
100
AcDbBlockEnd
  0
BLOCK
  5
62F
330
62E
100
AcDbEntity
  8
0
100
AcDbBlockBegin
  2
*D29
 70
     1
 10
0.0
 20
0.0
 30
0.0
  3
*D29
  1

  0
LINE
  5
631
330
62E
100
AcDbEntity
  8
LAY-20
  6
CONTINUOUS
 62
     4
100
AcDbLine
 10
1505.0
 20
1166.5000000001
 30
0.0
 11
1505.0
 21
1213.5000000001
 31
0.0
  0
LINE
  5
632
330
62E
100
AcDbEntity
  8
LAY-20
  6
CONTINUOUS
 62
     4
100
AcDbLine
 10
1517.5
 20
1206.0000000001
 30
0.0
 11
1532.5
 21
1206.0000000001
 31
0.0
  0
INSERT
  5
633
330
62E
100
AcDbEntity
  8
LAY-20
 62
     4
100
AcDbBlockReference
  2
EX_BNORM
 10
1505.0
 20
1206.0000000001
 30
0.0
 41
12.5
 42
12.5
 43
12.5
 50
180.0
  0
INSERT
  5
634
330
62E
100
AcDbEntity
  8
LAY-20
 62
     4
100
AcDbBlockReference
  2
EX_BNORM
 10
1545.0
 20
1206.0000000001
 30
0.0
 41
12.5
 42
12.5
 43
12.5
  0
MTEXT
  5
635
330
62E
100
AcDbEntity
  8
LAY-20
 62
     7
100
AcDbMText
 10
1525.0
 20
1218.5000000001
 30
0.0
 40
15.590552
 41
0.0
 71
     5
 72
     1
  1
40
  7
EXCADDIM1
  0
POINT
  5
636
330
62E
100
AcDbEntity
  8
DEFPOINTS
 62
     0
100
AcDbPoint
 10
1505.0
 20
1159.0000000001
 30
0.0
  0
POINT
  5
637
330
62E
100
AcDbEntity
  8
DEFPOINTS
 62
     0
100
AcDbPoint
 10
1545.0
 20
1206.0000000001
 30
0.0
  0
POINT
  5
638
330
62E
100
AcDbEntity
  8
DEFPOINTS
 62
     0
100
AcDbPoint
 10
1545.0
 20
1206.0000000001
 30
0.0
  0
ENDBLK
  5
630
330
62E
100
AcDbEntity
  8
0
100
AcDbBlockEnd
  0
BLOCK
  5
63B
330
63A
100
AcDbEntity
  8
0
100
AcDbBlockBegin
  2
*D30
 70
     1
 10
0.0
 20
0.0
 30
0.0
  3
*D30
  1

  0
LINE
  5
63D
330
63A
100
AcDbEntity
  8
LAY-20
  6
CONTINUOUS
 62
     4
100
AcDbLine
 10
1492.5
 20
1206.0000000001
 30
0.0
 11
1387.5
 21
1206.0000000001
 31
0.0
  0
INSERT
  5
63E
330
63A
100
AcDbEntity
  8
LAY-20
 62
     4
100
AcDbBlockReference
  2
EX_BNORM
 10
1505.0
 20
1206.0000000001
 30
0.0
 41
12.5
 42
12.5
 43
12.5
  0
INSERT
  5
63F
330
63A
100
AcDbEntity
  8
LAY-20
 62
     4
100
AcDbBlockReference
  2
EX_BNORM
 10
1375.0
 20
1206.0000000001
 30
0.0
 41
12.5
 42
12.5
 43
12.5
 50
180.0
  0
MTEXT
  5
640
330
63A
100
AcDbEntity
  8
LAY-20
 62
     7
100
AcDbMText
 10
1440.0
 20
1218.5000000001
 30
0.0
 40
15.590552
 41
0.0
 71
     5
 72
     1
  1
130
  7
EXCADDIM1
  0
POINT
  5
641
330
63A
100
AcDbEntity
  8
DEFPOINTS
 62
     0
100
AcDbPoint
 10
1505.0
 20
1206.0000000001
 30
0.0
  0
POINT
  5
642
330
63A
100
AcDbEntity
  8
DEFPOINTS
 62
     0
100
AcDbPoint
 10
1375.0
 20
1206.0000000001
 30
0.0
  0
POINT
  5
643
330
63A
100
AcDbEntity
  8
DEFPOINTS
 62
     0
100
AcDbPoint
 10
1375.0
 20
1206.0000000001
 30
0.0
  0
ENDBLK
  5
63C
330
63A
100
AcDbEntity
  8
0
100
AcDbBlockEnd
  0
BLOCK
  5
646
330
645
100
AcDbEntity
  8
0
100
AcDbBlockBegin
  2
*D31
 70
     1
 10
0.0
 20
0.0
 30
0.0
  3
*D31
  1

  0
LINE
  5
648
330
645
100
AcDbEntity
  8
LAY-20
  6
CONTINUOUS
 62
     4
100
AcDbLine
 10
1223.99999999998
 20
1156.999980369848
 30
0.0
 11
1223.99999999998
 21
1213.5000000001
 31
0.0
  0
LINE
  5
649
330
645
100
AcDbEntity
  8
LAY-20
  6
CONTINUOUS
 62
     4
100
AcDbLine
 10
226.0000000000291
 20
1156.999980369848
 30
0.0
 11
226.0000000000291
 21
1213.5000000001
 31
0.0
  0
LINE
  5
64A
330
645
100
AcDbEntity
  8
LAY-20
  6
CONTINUOUS
 62
     4
100
AcDbLine
 10
1208.99999999998
 20
1206.0000000001
 30
0.0
 11
241.0000000000291
 21
1206.0000000001
 31
0.0
  0
INSERT
  5
64B
330
645
100
AcDbEntity
  8
LAY-20
 62
     4
100
AcDbBlockReference
  2
EX_BNORM
 10
1223.99999999998
 20
1206.0000000001
 30
0.0
 41
15.0
 42
15.0
 43
15.0
  0
INSERT
  5
64C
330
645
100
AcDbEntity
  8
LAY-20
 62
     4
100
AcDbBlockReference
  2
EX_BNORM
 10
226.0000000000291
 20
1206.0000000001
 30
0.0
 41
15.0
 42
15.0
 43
15.0
 50
180.0
  0
MTEXT
  5
64D
330
645
100
AcDbEntity
  8
LAY-20
 62
     7
100
AcDbMText
 10
725.0000000000045
 20
1218.5000000001
 30
0.0
 40
15.590552
 41
0.0
 71
     5
 72
     1
  1
998
  7
EXCADDIM1
  0
POINT
  5
64E
330
645
100
AcDbEntity
  8
DEFPOINTS
 62
     0
100
AcDbPoint
 10
1223.99999999998
 20
1149.499980369848
 30
0.0
  0
POINT
  5
64F
330
645
100
AcDbEntity
  8
DEFPOINTS
 62
     0
100
AcDbPoint
 10
226.0000000000291
 20
1149.499980369848
 30
0.0
  0
POINT
  5
650
330
645
100
AcDbEntity
  8
DEFPOINTS
 62
     0
100
AcDbPoint
 10
226.0000000000291
 20
1206.0000000001
 30
0.0
  0
ENDBLK
  5
647
330
645
100
AcDbEntity
  8
0
100
AcDbBlockEnd
  0
BLOCK
  5
653
330
652
100
AcDbEntity
  8
0
100
AcDbBlockBegin
  2
*D32
 70
     1
 10
0.0
 20
0.0
 30
0.0
  3
*D32
  1

  0
LINE
  5
655
330
652
100
AcDbEntity
  8
LAY-20
  6
CONTINUOUS
 62
     4
100
AcDbLine
 10
1367.5
 20
1156.0000000001
 30
0.0
 11
1282.5
 21
1156.0000000001
 31
0.0
  0
LINE
  5
656
330
652
100
AcDbEntity
  8
LAY-20
  6
CONTINUOUS
 62
     4
100
AcDbLine
 10
1367.5
 20
1068.99741635567
 30
0.0
 11
1282.5
 21
1068.99741635567
 31
0.0
  0
LINE
  5
657
330
652
100
AcDbEntity
  8
LAY-20
  6
CONTINUOUS
 62
     4
100
AcDbLine
 10
1290.0
 20
1141.0000000001
 30
0.0
 11
1290.0
 21
1083.99741635567
 31
0.0
  0
INSERT
  5
658
330
652
100
AcDbEntity
  8
LAY-20
 62
     4
100
AcDbBlockReference
  2
EX_BNORM
 10
1290.0
 20
1156.0000000001
 30
0.0
 41
15.0
 42
15.0
 43
15.0
 50
90.0
  0
INSERT
  5
659
330
652
100
AcDbEntity
  8
LAY-20
 62
     4
100
AcDbBlockReference
  2
EX_BNORM
 10
1290.0
 20
1068.99741635567
 30
0.0
 41
15.0
 42
15.0
 43
15.0
 50
270.0
  0
MTEXT
  5
65A
330
652
100
AcDbEntity
  8
LAY-20
 62
     7
100
AcDbMText
 10
1277.5
 20
1112.498708177885
 30
0.0
 40
15.590552
 41
0.0
 71
     5
 72
     1
  1
87
  7
EXCADDIM1
 11
0.0
 21
1.0
 31
0.0
  0
POINT
  5
65B
330
652
100
AcDbEntity
  8
DEFPOINTS
 62
     0
100
AcDbPoint
 10
1375.0
 20
1156.0000000001
 30
0.0
  0
POINT
  5
65C
330
652
100
AcDbEntity
  8
DEFPOINTS
 62
     0
100
AcDbPoint
 10
1375.0
 20
1068.99741635567
 30
0.0
  0
POINT
  5
65D
330
652
100
AcDbEntity
  8
DEFPOINTS
 62
     0
100
AcDbPoint
 10
1290.0
 20
1068.99741635567
 30
0.0
  0
ENDBLK
  5
654
330
652
100
AcDbEntity
  8
0
100
AcDbBlockEnd
  0
BLOCK
  5
660
330
65F
100
AcDbEntity
  8
0
100
AcDbBlockBegin
  2
*D33
 70
     1
 10
0.0
 20
0.0
 30
0.0
  3
*D33
  1

  0
LINE
  5
662
330
65F
100
AcDbEntity
  8
LAY-20
  6
CONTINUOUS
 62
     4
100
AcDbLine
 10
1372.5000560688
 20
1149.5000000001
 30
0.0
 11
1317.5
 21
1149.5000000001
 31
0.0
  0
LINE
  5
663
330
65F
100
AcDbEntity
  8
LAY-20
  6
CONTINUOUS
 62
     4
100
AcDbLine
 10
1372.5000560688
 20
1075.49741635567
 30
0.0
 11
1317.5
 21
1075.49741635567
 31
0.0
  0
LINE
  5
664
330
65F
100
AcDbEntity
  8
LAY-20
  6
CONTINUOUS
 62
     4
100
AcDbLine
 10
1325.0
 20
1134.5000000001
 30
0.0
 11
1325.0
 21
1090.49741635567
 31
0.0
  0
INSERT
  5
665
330
65F
100
AcDbEntity
  8
LAY-20
 62
     4
100
AcDbBlockReference
  2
EX_BNORM
 10
1325.0
 20
1149.5000000001
 30
0.0
 41
15.0
 42
15.0
 43
15.0
 50
90.0
  0
INSERT
  5
666
330
65F
100
AcDbEntity
  8
LAY-20
 62
     4
100
AcDbBlockReference
  2
EX_BNORM
 10
1325.0
 20
1075.49741635567
 30
0.0
 41
15.0
 42
15.0
 43
15.0
 50
270.0
  0
MTEXT
  5
667
330
65F
100
AcDbEntity
  8
LAY-20
 62
     7
100
AcDbMText
 10
1312.5
 20
1112.498708177885
 30
0.0
 40
15.590552
 41
0.0
 71
     5
 72
     1
  1
74
  7
EXCADDIM1
 11
0.0
 21
1.0
 31
0.0
  0
POINT
  5
668
330
65F
100
AcDbEntity
  8
DEFPOINTS
 62
     0
100
AcDbPoint
 10
1380.0000560688
 20
1149.5000000001
 30
0.0
  0
POINT
  5
669
330
65F
100
AcDbEntity
  8
DEFPOINTS
 62
     0
100
AcDbPoint
 10
1380.0000560688
 20
1075.49741635567
 30
0.0
  0
POINT
  5
66A
330
65F
100
AcDbEntity
  8
DEFPOINTS
 62
     0
100
AcDbPoint
 10
1325.0
 20
1075.49741635567
 30
0.0
  0
ENDBLK
  5
661
330
65F
100
AcDbEntity
  8
0
100
AcDbBlockEnd
  0
ENDSEC
  0
SECTION
  2
ENTITIES
  0
LINE
  5
D4
330
1F
100
AcDbEntity
  8
LAY-10
  6
CONTINUOUS
 62
     7
100
AcDbLine
 10
1538.598846298246
 20
946.0000000001169
 30
0.0
 11
1508.482754482174
 21
976.1160918161886
 31
0.0
  0
LINE
  5
D5
330
1F
100
AcDbEntity
  8
LAY-10
  6
CONTINUOUS
 62
     7
100
AcDbLine
 10
1559.812049733843
 20
946.0000000001169
 30
0.0
 11
1529.011661032746
 21
976.8003887012137
 31
0.0
  0
LINE
  5
D6
330
1F
100
AcDbEntity
  8
LAY-10
  6
CONTINUOUS
 62
     7
100
AcDbLine
 10
1651.735931288093
 20
946.0000000001169
 30
0.0
 11
1617.970256085249
 21
979.7656752029611
 31
0.0
  0
LINE
  5
D7
330
1F
100
AcDbEntity
  8
LAY-10
  6
CONTINUOUS
 62
     7
100
AcDbLine
 10
1514.478280854441
 20
1125.684057304962
 30
0.0
 11
1505.00000000002
 21
1135.162338159383
 31
0.0
  0
LINE
  5
D8
330
1F
100
AcDbEntity
  8
LAY-10
  6
CONTINUOUS
 62
     7
100
AcDbLine
 10
1690.000000000014
 20
1042.086219713641
 30
0.0
 11
1655.000000000027
 21
1077.086219713628
 31
0.0
  0
LINE
  5
D9
330
1F
100
AcDbEntity
  8
LAY-10
  6
CONTINUOUS
 62
     7
100
AcDbLine
 10
1609.571951427791
 20
1122.514268285864
 30
0.0
 11
1576.086219713534
 21
1156.000000000121
 31
0.0
  0
LINE
  5
DA
330
1F
100
AcDbEntity
  8
LAY-10
  6
CONTINUOUS
 62
     7
100
AcDbLine
 10
1690.00000000002
 20
1084.512626584827
 30
0.0
 11
1618.512626584727
 21
1156.00000000012
 31
0.0
  0
LINE
  5
DB
330
1F
100
AcDbEntity
  8
LAY-10
  6
CONTINUOUS
 62
     7
100
AcDbLine
 10
1632.190568448458
 20
1121.108854700792
 30
0.0
 11
1597.29942314913
 21
1156.000000000121
 31
0.0
  0
LINE
  5
DC
330
1F
100
AcDbEntity
  8
LAY-10
  6
CONTINUOUS
 62
     7
100
AcDbLine
 10
1690.00000000002
 20
1063.299423149231
 30
0.0
 11
1654.125516740299
 21
1099.173906408952
 31
0.0
  0
LINE
  5
DD
330
1F
100
AcDbEntity
  8
LAY-10
  6
CONTINUOUS
 62
     7
100
AcDbLine
 10
1679.581169079667
 20
960.5811690797361
 30
0.0
 11
1648.629440452397
 21
991.5328977070064
 31
0.0
  0
LINE
  5
DE
330
1F
100
AcDbEntity
  8
LAY-10
  6
CONTINUOUS
 62
     7
100
AcDbLine
 10
1668.974567361868
 20
949.9745673619384
 30
0.0
 11
1636.599337001087
 21
982.3497977227203
 31
0.0
  0
LINE
  5
DF
330
1F
100
AcDbEntity
  8
LAY-10
  6
CONTINUOUS
 62
     7
100
AcDbLine
 10
224.9999999999932
 20
1156.000000000105
 30
0.0
 11
1224.999999999954
 21
1156.000000000105
 31
0.0
  0
LINE
  5
E0
330
1F
100
AcDbEntity
  8
LAY-10
  6
CONTINUOUS
 62
     7
100
AcDbLine
 10
1108.99999999991
 20
1159.000000000103
 30
0.0
 11
1140.99999999992
 21
1159.000000000103
 31
0.0
  0
LINE
  5
E1
330
1F
100
AcDbEntity
  8
LAY-10
  6
CONTINUOUS
 62
     7
100
AcDbLine
 10
1140.999999999954
 20
1162.0000000001
 30
0.0
 11
1108.999999999954
 21
1162.0000000001
 31
0.0
  0
LINE
  5
E2
330
1F
100
AcDbEntity
  8
LAY-10
  6
CONTINUOUS
 62
     7
100
AcDbLine
 10
1140.99999999992
 20
1162.0000000001
 30
0.0
 11
1140.99999999992
 21
1156.000000000103
 31
0.0
  0
LINE
  5
E3
330
1F
100
AcDbEntity
  8
LAY-10
  6
CONTINUOUS
 62
     7
100
AcDbLine
 10
1108.999999999911
 20
1162.0000000001
 30
0.0
 11
1108.999999999911
 21
1156.000000000103
 31
0.0
  0
LINE
  5
E4
330
1F
100
AcDbEntity
  8
LAY-10
  6
CONTINUOUS
 62
     7
100
AcDbLine
 10
308.99999999991
 20
1159.000000000103
 30
0.0
 11
340.99999999992
 21
1159.000000000103
 31
0.0
  0
LINE
  5
E5
330
1F
100
AcDbEntity
  8
LAY-10
  6
CONTINUOUS
 62
     7
100
AcDbLine
 10
340.9999999999526
 20
1162.0000000001
 30
0.0
 11
308.9999999999527
 21
1162.0000000001
 31
0.0
  0
LINE
  5
E6
330
1F
100
AcDbEntity
  8
LAY-10
  6
CONTINUOUS
 62
     7
100
AcDbLine
 10
340.99999999992
 20
1162.0000000001
 30
0.0
 11
340.99999999992
 21
1156.000000000103
 31
0.0
  0
LINE
  5
E7
330
1F
100
AcDbEntity
  8
LAY-10
  6
CONTINUOUS
 62
     7
100
AcDbLine
 10
308.9999999999104
 20
1162.0000000001
 30
0.0
 11
308.9999999999104
 21
1156.000000000103
 31
0.0
  0
LINE
  5
E8
330
1F
100
AcDbEntity
  8
LAY-10
  6
CONTINUOUS
 62
     7
100
AcDbLine
 10
708.9999999999399
 20
1159.000000000103
 30
0.0
 11
740.99999999995
 21
1159.000000000103
 31
0.0
  0
LINE
  5
E9
330
1F
100
AcDbEntity
  8
LAY-10
  6
CONTINUOUS
 62
     7
100
AcDbLine
 10
740.9999999999827
 20
1162.0000000001
 30
0.0
 11
708.9999999999827
 21
1162.0000000001
 31
0.0
  0
LINE
  5
EA
330
1F
100
AcDbEntity
  8
LAY-10
  6
CONTINUOUS
 62
     7
100
AcDbLine
 10
740.99999999995
 20
1162.0000000001
 30
0.0
 11
740.99999999995
 21
1156.000000000103
 31
0.0
  0
LINE
  5
EB
330
1F
100
AcDbEntity
  8
LAY-10
  6
CONTINUOUS
 62
     7
100
AcDbLine
 10
708.9999999999409
 20
1162.0000000001
 30
0.0
 11
708.9999999999409
 21
1156.000000000103
 31
0.0
  0
LINE
  5
EC
330
1F
100
AcDbEntity
  8
LAY-10
  6
CONTINUOUS
 62
     7
100
AcDbLine
 10
225.0000000000005
 20
936.5000000002035
 30
0.0
 11
1224.999999999997
 21
936.5000000002042
 31
0.0
  0
LINE
  5
ED
330
1F
100
AcDbEntity
  8
LAY-10
  6
CONTINUOUS
 62
     7
100
AcDbLine
 10
1118.749999999889
 20
930.0000000002635
 30
0.0
 11
1131.249999999889
 21
930.0000000002635
 31
0.0
  0
ARC
  5
EE
330
1F
100
AcDbEntity
  8
LAY-10
  6
CONTINUOUS
 62
     7
100
AcDbCircle
 10
1119.370834875288
 20
933.4669071405108
 30
0.0
 40
3.322569572950376
100
AcDbArc
 50
235.6157525319461
 51
304.3842474680539
  0
LINE
  5
EF
330
1F
100
AcDbEntity
  8
LAY-10
  6
CONTINUOUS
 62
     7
100
AcDbLine
 10
1117.494446500423
 20
930.7248941511614
 30
0.0
 11
1118.749999999889
 21
930.0000000002635
 31
0.0
  0
LINE
  5
F0
330
1F
100
AcDbEntity
  8
LAY-10
  6
CONTINUOUS
 62
     7
100
AcDbLine
 10
1117.494446500423
 20
930.7248941511614
 30
0.0
 11
1117.494446500423
 21
936.5000000002644
 31
0.0
  0
ARC
  5
F1
330
1F
100
AcDbEntity
  8
LAY-10
  6
CONTINUOUS
 62
     7
100
AcDbCircle
 10
1124.999999999859
 20
942.5637809841496
 30
0.0
 40
12.41944341658879
100
AcDbArc
 50
252.412046226416
 51
287.587953773858
  0
LINE
  5
F2
330
1F
100
AcDbEntity
  8
LAY-10
  6
CONTINUOUS
 62
     7
100
AcDbLine
 10
1121.247223250155
 20
930.7248941511614
 30
0.0
 11
1121.247223250155
 21
936.5000000002635
 31
0.0
  0
LINE
  5
F3
330
1F
100
AcDbEntity
  8
LAY-10
  6
CONTINUOUS
 62
     7
100
AcDbLine
 10
1131.249999999889
 20
930.0000000002635
 30
0.0
 11
1132.505553499354
 21
930.7248941511614
 31
0.0
  0
LINE
  5
F4
330
1F
100
AcDbEntity
  8
LAY-10
  6
CONTINUOUS
 62
     7
100
AcDbLine
 10
1128.752776749621
 20
930.7248941511614
 30
0.0
 11
1128.752776749621
 21
936.5000000002635
 31
0.0
  0
ARC
  5
F5
330
1F
100
AcDbEntity
  8
LAY-10
  6
CONTINUOUS
 62
     7
100
AcDbCircle
 10
1130.629165124488
 20
933.4669071405108
 30
0.0
 40
3.322569572950003
100
AcDbArc
 50
235.6157525319471
 51
304.3842474680529
  0
LINE
  5
F6
330
1F
100
AcDbEntity
  8
LAY-10
  6
CONTINUOUS
 62
     7
100
AcDbLine
 10
1132.505553499354
 20
936.5000000002635
 30
0.0
 11
1132.505553499354
 21
930.7248941511614
 31
0.0
  0
LINE
  5
F7
330
1F
100
AcDbEntity
  8
LAY-10
  6
CONTINUOUS
 62
     7
100
AcDbLine
 10
718.7499999999495
 20
930.0000000002635
 30
0.0
 11
731.2499999999495
 21
930.0000000002635
 31
0.0
  0
ARC
  5
F8
330
1F
100
AcDbEntity
  8
LAY-10
  6
CONTINUOUS
 62
     7
100
AcDbCircle
 10
719.3708348753485
 20
933.4669071405108
 30
0.0
 40
3.322569572950376
100
AcDbArc
 50
235.6157525319461
 51
304.3842474680539
  0
LINE
  5
F9
330
1F
100
AcDbEntity
  8
LAY-10
  6
CONTINUOUS
 62
     7
100
AcDbLine
 10
717.4944465004828
 20
930.7248941511614
 30
0.0
 11
718.7499999999495
 21
930.0000000002635
 31
0.0
  0
LINE
  5
FA
330
1F
100
AcDbEntity
  8
LAY-10
  6
CONTINUOUS
 62
     7
100
AcDbLine
 10
717.4944465004828
 20
930.7248941511614
 30
0.0
 11
717.4944465004828
 21
936.5000000002644
 31
0.0
  0
ARC
  5
FB
330
1F
100
AcDbEntity
  8
LAY-10
  6
CONTINUOUS
 62
     7
100
AcDbCircle
 10
724.999999999919
 20
942.5637809841496
 30
0.0
 40
12.41944341658879
100
AcDbArc
 50
252.412046226416
 51
287.587953773858
  0
LINE
  5
FC
330
1F
100
AcDbEntity
  8
LAY-10
  6
CONTINUOUS
 62
     7
100
AcDbLine
 10
721.2472232502155
 20
930.7248941511614
 30
0.0
 11
721.2472232502155
 21
936.5000000002635
 31
0.0
  0
LINE
  5
FD
330
1F
100
AcDbEntity
  8
LAY-10
  6
CONTINUOUS
 62
     7
100
AcDbLine
 10
731.2499999999495
 20
930.0000000002635
 30
0.0
 11
732.5055534994144
 21
930.7248941511614
 31
0.0
  0
LINE
  5
FE
330
1F
100
AcDbEntity
  8
LAY-10
  6
CONTINUOUS
 62
     7
100
AcDbLine
 10
728.7527767496813
 20
930.7248941511614
 30
0.0
 11
728.7527767496813
 21
936.5000000002635
 31
0.0
  0
ARC
  5
FF
330
1F
100
AcDbEntity
  8
LAY-10
  6
CONTINUOUS
 62
     7
100
AcDbCircle
 10
730.6291651245483
 20
933.4669071405108
 30
0.0
 40
3.322569572950003
100
AcDbArc
 50
235.6157525319471
 51
304.3842474680529
  0
LINE
  5
100
330
1F
100
AcDbEntity
  8
LAY-10
  6
CONTINUOUS
 62
     7
100
AcDbLine
 10
732.5055534994144
 20
936.5000000002635
 30
0.0
 11
732.5055534994144
 21
930.7248941511614
 31
0.0
  0
LINE
  5
101
330
1F
100
AcDbEntity
  8
LAY-10
  6
CONTINUOUS
 62
     7
100
AcDbLine
 10
318.7499999999291
 20
930.0000000002635
 30
0.0
 11
331.2499999999291
 21
930.0000000002635
 31
0.0
  0
ARC
  5
102
330
1F
100
AcDbEntity
  8
LAY-10
  6
CONTINUOUS
 62
     7
100
AcDbCircle
 10
319.370834875328
 20
933.4669071405108
 30
0.0
 40
3.322569572950376
100
AcDbArc
 50
235.6157525319461
 51
304.3842474680539
  0
LINE
  5
103
330
1F
100
AcDbEntity
  8
LAY-10
  6
CONTINUOUS
 62
     7
100
AcDbLine
 10
317.4944465004628
 20
930.7248941511614
 30
0.0
 11
318.7499999999291
 21
930.0000000002635
 31
0.0
  0
LINE
  5
104
330
1F
100
AcDbEntity
  8
LAY-10
  6
CONTINUOUS
 62
     7
100
AcDbLine
 10
317.4944465004628
 20
930.7248941511614
 30
0.0
 11
317.4944465004628
 21
936.5000000002644
 31
0.0
  0
ARC
  5
105
330
1F
100
AcDbEntity
  8
LAY-10
  6
CONTINUOUS
 62
     7
100
AcDbCircle
 10
324.999999999899
 20
942.5637809841496
 30
0.0
 40
12.41944341658879
100
AcDbArc
 50
252.412046226416
 51
287.587953773858
  0
LINE
  5
106
330
1F
100
AcDbEntity
  8
LAY-10
  6
CONTINUOUS
 62
     7
100
AcDbLine
 10
321.247223250195
 20
930.7248941511614
 30
0.0
 11
321.247223250195
 21
936.5000000002635
 31
0.0
  0
LINE
  5
107
330
1F
100
AcDbEntity
  8
LAY-10
  6
CONTINUOUS
 62
     7
100
AcDbLine
 10
331.2499999999291
 20
930.0000000002635
 30
0.0
 11
332.5055534993944
 21
930.7248941511614
 31
0.0
  0
LINE
  5
108
330
1F
100
AcDbEntity
  8
LAY-10
  6
CONTINUOUS
 62
     7
100
AcDbLine
 10
328.7527767496613
 20
930.7248941511614
 30
0.0
 11
328.7527767496613
 21
936.5000000002635
 31
0.0
  0
ARC
  5
109
330
1F
100
AcDbEntity
  8
LAY-10
  6
CONTINUOUS
 62
     7
100
AcDbCircle
 10
330.6291651245283
 20
933.4669071405108
 30
0.0
 40
3.322569572950003
100
AcDbArc
 50
235.6157525319471
 51
304.3842474680529
  0
LINE
  5
10A
330
1F
100
AcDbEntity
  8
LAY-10
  6
CONTINUOUS
 62
     7
100
AcDbLine
 10
332.5055534993944
 20
936.5000000002635
 30
0.0
 11
332.5055534993944
 21
930.7248941511614
 31
0.0
  0
LINE
  5
10B
330
1F
100
AcDbEntity
  8
LAY-10
  6
CONTINUOUS
 62
     7
100
AcDbLine
 10
320.9999999999582
 20
1168.000000000104
 30
0.0
 11
328.9999999999582
 21
1168.000000000104
 31
0.0
  0
LINE
  5
10C
330
1F
100
AcDbEntity
  8
LAY-10
  6
CONTINUOUS
 62
     7
100
AcDbLine
 10
320.9999999999595
 20
1162.0000000001
 30
0.0
 11
320.9999999999595
 21
1168.000000000104
 31
0.0
  0
LINE
  5
10D
330
1F
100
AcDbEntity
  8
LAY-10
  6
CONTINUOUS
 62
     7
100
AcDbLine
 10
328.9999999999586
 20
1162.0000000001
 30
0.0
 11
328.9999999999586
 21
1168.000000000104
 31
0.0
  0
LINE
  5
10E
330
1F
100
AcDbEntity
  8
LAY-10
  6
CONTINUOUS
 62
     7
100
AcDbLine
 10
720.9999999999881
 20
1168.000000000104
 30
0.0
 11
728.9999999999882
 21
1168.000000000104
 31
0.0
  0
LINE
  5
10F
330
1F
100
AcDbEntity
  8
LAY-10
  6
CONTINUOUS
 62
     7
100
AcDbLine
 10
720.9999999999891
 20
1162.0000000001
 30
0.0
 11
720.9999999999891
 21
1168.000000000104
 31
0.0
  0
LINE
  5
110
330
1F
100
AcDbEntity
  8
LAY-10
  6
CONTINUOUS
 62
     7
100
AcDbLine
 10
728.9999999999882
 20
1162.0000000001
 30
0.0
 11
728.9999999999882
 21
1168.000000000104
 31
0.0
  0
LINE
  5
111
330
1F
100
AcDbEntity
  8
LAY-10
  6
CONTINUOUS
 62
     7
100
AcDbLine
 10
1120.999999999928
 20
1168.000000000104
 30
0.0
 11
1128.999999999928
 21
1168.000000000104
 31
0.0
  0
LINE
  5
112
330
1F
100
AcDbEntity
  8
LAY-10
  6
CONTINUOUS
 62
     7
100
AcDbLine
 10
1120.99999999993
 20
1162.0000000001
 30
0.0
 11
1120.99999999993
 21
1168.000000000104
 31
0.0
  0
LINE
  5
113
330
1F
100
AcDbEntity
  8
LAY-10
  6
CONTINUOUS
 62
     7
100
AcDbLine
 10
1128.999999999929
 20
1162.0000000001
 30
0.0
 11
1128.999999999929
 21
1168.000000000104
 31
0.0
  0
LINE
  5
114
330
1F
100
AcDbEntity
  8
LAY-10
  6
CONTINUOUS
 62
     7
100
AcDbLine
 10
1128.999999999888
 20
930.0000000002628
 30
0.0
 11
1128.99999999989
 21
926.0000000000728
 31
0.0
  0
LINE
  5
115
330
1F
100
AcDbEntity
  8
LAY-10
  6
CONTINUOUS
 62
     7
100
AcDbLine
 10
1120.99999999989
 20
926.0000000000728
 30
0.0
 11
1120.999999999887
 21
930.0000000002628
 31
0.0
  0
LINE
  5
116
330
1F
100
AcDbEntity
  8
LAY-10
  6
CONTINUOUS
 62
     7
100
AcDbLine
 10
1117.494446500425
 20
926.0000000000728
 30
0.0
 11
1132.505553499356
 21
926.0000000000728
 31
0.0
  0
LINE
  5
117
330
1F
100
AcDbEntity
  8
LAY-10
  6
CONTINUOUS
 62
     7
100
AcDbLine
 10
1118.749999999892
 20
920.5000000000724
 30
0.0
 11
1131.249999999892
 21
920.5000000000724
 31
0.0
  0
ARC
  5
118
330
1F
100
AcDbEntity
  8
LAY-10
  6
CONTINUOUS
 62
     7
100
AcDbCircle
 10
1119.37083487529
 20
923.9669071403202
 30
0.0
 40
3.322569572950376
100
AcDbArc
 50
235.6157525319493
 51
304.3842474680572
  0
LINE
  5
119
330
1F
100
AcDbEntity
  8
LAY-10
  6
CONTINUOUS
 62
     7
100
AcDbLine
 10
1117.494446500426
 20
921.2248941509708
 30
0.0
 11
1118.749999999892
 21
920.5000000000724
 31
0.0
  0
LINE
  5
11A
330
1F
100
AcDbEntity
  8
LAY-10
  6
CONTINUOUS
 62
     7
100
AcDbLine
 10
1117.494446500426
 20
921.2248941509708
 30
0.0
 11
1117.494446500425
 21
926.0000000000728
 31
0.0
  0
ARC
  5
11B
330
1F
100
AcDbEntity
  8
LAY-10
  6
CONTINUOUS
 62
     7
100
AcDbCircle
 10
1124.99999999986
 20
933.0637809839582
 30
0.0
 40
12.41944341658879
100
AcDbArc
 50
252.412046226417
 51
287.5879537738591
  0
LINE
  5
11C
330
1F
100
AcDbEntity
  8
LAY-10
  6
CONTINUOUS
 62
     7
100
AcDbLine
 10
1121.247223250158
 20
921.2248941509708
 30
0.0
 11
1121.247223250157
 21
926.0000000000728
 31
0.0
  0
ARC
  5
11D
330
1F
100
AcDbEntity
  8
LAY-10
  6
CONTINUOUS
 62
     7
100
AcDbCircle
 10
1130.629165124489
 20
923.9669071403202
 30
0.0
 40
3.322569572950003
100
AcDbArc
 50
235.6157525319504
 51
304.3842474680561
  0
LINE
  5
11E
330
1F
100
AcDbEntity
  8
LAY-10
  6
CONTINUOUS
 62
     7
100
AcDbLine
 10
1131.249999999892
 20
920.5000000000724
 30
0.0
 11
1132.505553499356
 21
921.2248941509708
 31
0.0
  0
LINE
  5
11F
330
1F
100
AcDbEntity
  8
LAY-10
  6
CONTINUOUS
 62
     7
100
AcDbLine
 10
1128.752776749622
 20
921.2248941509708
 30
0.0
 11
1128.752776749622
 21
926.0000000000728
 31
0.0
  0
LINE
  5
120
330
1F
100
AcDbEntity
  8
LAY-10
  6
CONTINUOUS
 62
     7
100
AcDbLine
 10
1132.505553499356
 20
926.0000000000728
 30
0.0
 11
1132.505553499356
 21
921.2248941509708
 31
0.0
  0
LINE
  5
121
330
1F
100
AcDbEntity
  8
LAY-10
  6
CONTINUOUS
 62
     7
100
AcDbLine
 10
728.9999999999482
 20
930.0000000002628
 30
0.0
 11
728.9999999999504
 21
926.0000000000728
 31
0.0
  0
LINE
  5
122
330
1F
100
AcDbEntity
  8
LAY-10
  6
CONTINUOUS
 62
     7
100
AcDbLine
 10
720.99999999995
 20
926.0000000000728
 30
0.0
 11
720.9999999999477
 21
930.0000000002628
 31
0.0
  0
LINE
  5
123
330
1F
100
AcDbEntity
  8
LAY-10
  6
CONTINUOUS
 62
     7
100
AcDbLine
 10
717.4944465004851
 20
926.0000000000728
 30
0.0
 11
732.5055534994161
 21
926.0000000000728
 31
0.0
  0
LINE
  5
124
330
1F
100
AcDbEntity
  8
LAY-10
  6
CONTINUOUS
 62
     7
100
AcDbLine
 10
718.7499999999526
 20
920.5000000000724
 30
0.0
 11
731.2499999999526
 21
920.5000000000724
 31
0.0
  0
ARC
  5
125
330
1F
100
AcDbEntity
  8
LAY-10
  6
CONTINUOUS
 62
     7
100
AcDbCircle
 10
719.3708348753498
 20
923.9669071403202
 30
0.0
 40
3.322569572950376
100
AcDbArc
 50
235.6157525319493
 51
304.3842474680572
  0
LINE
  5
126
330
1F
100
AcDbEntity
  8
LAY-10
  6
CONTINUOUS
 62
     7
100
AcDbLine
 10
717.4944465004864
 20
921.2248941509708
 30
0.0
 11
718.7499999999526
 21
920.5000000000724
 31
0.0
  0
LINE
  5
127
330
1F
100
AcDbEntity
  8
LAY-10
  6
CONTINUOUS
 62
     7
100
AcDbLine
 10
717.4944465004864
 20
921.2248941509708
 30
0.0
 11
717.4944465004851
 21
926.0000000000728
 31
0.0
  0
ARC
  5
128
330
1F
100
AcDbEntity
  8
LAY-10
  6
CONTINUOUS
 62
     7
100
AcDbCircle
 10
724.9999999999208
 20
933.0637809839582
 30
0.0
 40
12.41944341658879
100
AcDbArc
 50
252.412046226417
 51
287.5879537738591
  0
LINE
  5
129
330
1F
100
AcDbEntity
  8
LAY-10
  6
CONTINUOUS
 62
     7
100
AcDbLine
 10
721.2472232502186
 20
921.2248941509708
 30
0.0
 11
721.2472232502168
 21
926.0000000000728
 31
0.0
  0
ARC
  5
12A
330
1F
100
AcDbEntity
  8
LAY-10
  6
CONTINUOUS
 62
     7
100
AcDbCircle
 10
730.6291651245497
 20
923.9669071403202
 30
0.0
 40
3.322569572950003
100
AcDbArc
 50
235.6157525319504
 51
304.3842474680561
  0
LINE
  5
12B
330
1F
100
AcDbEntity
  8
LAY-10
  6
CONTINUOUS
 62
     7
100
AcDbLine
 10
731.2499999999526
 20
920.5000000000724
 30
0.0
 11
732.5055534994167
 21
921.2248941509708
 31
0.0
  0
LINE
  5
12C
330
1F
100
AcDbEntity
  8
LAY-10
  6
CONTINUOUS
 62
     7
100
AcDbLine
 10
728.7527767496827
 20
921.2248941509708
 30
0.0
 11
728.7527767496827
 21
926.0000000000728
 31
0.0
  0
LINE
  5
12D
330
1F
100
AcDbEntity
  8
LAY-10
  6
CONTINUOUS
 62
     7
100
AcDbLine
 10
732.5055534994161
 20
926.0000000000728
 30
0.0
 11
732.5055534994167
 21
921.2248941509708
 31
0.0
  0
LINE
  5
12E
330
1F
100
AcDbEntity
  8
LAY-10
  6
CONTINUOUS
 62
     7
100
AcDbLine
 10
328.9999999999281
 20
930.0000000002628
 30
0.0
 11
328.99999999993
 21
926.0000000000728
 31
0.0
  0
LINE
  5
12F
330
1F
100
AcDbEntity
  8
LAY-10
  6
CONTINUOUS
 62
     7
100
AcDbLine
 10
320.9999999999299
 20
926.0000000000728
 30
0.0
 11
320.9999999999272
 21
930.0000000002628
 31
0.0
  0
LINE
  5
130
330
1F
100
AcDbEntity
  8
LAY-10
  6
CONTINUOUS
 62
     7
100
AcDbLine
 10
317.4944465004646
 20
926.0000000000728
 30
0.0
 11
332.5055534993958
 21
926.0000000000728
 31
0.0
  0
LINE
  5
131
330
1F
100
AcDbEntity
  8
LAY-10
  6
CONTINUOUS
 62
     7
100
AcDbLine
 10
318.7499999999322
 20
920.5000000000724
 30
0.0
 11
331.2499999999322
 21
920.5000000000724
 31
0.0
  0
ARC
  5
132
330
1F
100
AcDbEntity
  8
LAY-10
  6
CONTINUOUS
 62
     7
100
AcDbCircle
 10
319.3708348753298
 20
923.9669071403202
 30
0.0
 40
3.322569572950376
100
AcDbArc
 50
235.6157525319493
 51
304.3842474680572
  0
LINE
  5
133
330
1F
100
AcDbEntity
  8
LAY-10
  6
CONTINUOUS
 62
     7
100
AcDbLine
 10
317.4944465004664
 20
921.2248941509708
 30
0.0
 11
318.7499999999322
 21
920.5000000000724
 31
0.0
  0
LINE
  5
134
330
1F
100
AcDbEntity
  8
LAY-10
  6
CONTINUOUS
 62
     7
100
AcDbLine
 10
317.4944465004664
 20
921.2248941509708
 30
0.0
 11
317.4944465004646
 21
926.0000000000728
 31
0.0
  0
ARC
  5
135
330
1F
100
AcDbEntity
  8
LAY-10
  6
CONTINUOUS
 62
     7
100
AcDbCircle
 10
324.9999999999004
 20
933.0637809839582
 30
0.0
 40
12.41944341658879
100
AcDbArc
 50
252.412046226417
 51
287.5879537738591
  0
LINE
  5
136
330
1F
100
AcDbEntity
  8
LAY-10
  6
CONTINUOUS
 62
     7
100
AcDbLine
 10
321.2472232501982
 20
921.2248941509708
 30
0.0
 11
321.2472232501968
 21
926.0000000000728
 31
0.0
  0
ARC
  5
137
330
1F
100
AcDbEntity
  8
LAY-10
  6
CONTINUOUS
 62
     7
100
AcDbCircle
 10
330.6291651245292
 20
923.9669071403202
 30
0.0
 40
3.322569572950003
100
AcDbArc
 50
235.6157525319504
 51
304.3842474680561
  0
LINE
  5
138
330
1F
100
AcDbEntity
  8
LAY-10
  6
CONTINUOUS
 62
     7
100
AcDbLine
 10
331.2499999999322
 20
920.5000000000724
 30
0.0
 11
332.5055534993962
 21
921.2248941509708
 31
0.0
  0
LINE
  5
139
330
1F
100
AcDbEntity
  8
LAY-10
  6
CONTINUOUS
 62
     7
100
AcDbLine
 10
328.7527767496622
 20
921.2248941509708
 30
0.0
 11
328.7527767496622
 21
926.0000000000728
 31
0.0
  0
LINE
  5
13A
330
1F
100
AcDbEntity
  8
LAY-10
  6
CONTINUOUS
 62
     7
100
AcDbLine
 10
332.5055534993958
 20
926.0000000000728
 30
0.0
 11
332.5055534993962
 21
921.2248941509708
 31
0.0
  0
LINE
  5
13B
330
1F
100
AcDbEntity
  8
LAY-10
  6
CONTINUOUS
 62
     7
100
AcDbLine
 10
1545.000000000006
 20
1162.0000000001
 30
0.0
 11
1545.000000000006
 21
1159.000000000095
 31
0.0
  0
LINE
  5
13C
330
1F
100
AcDbEntity
  8
LAY-10
  6
CONTINUOUS
 62
     7
100
AcDbLine
 10
1474.999999999993
 20
1156.0000000001
 30
0.0
 11
1474.999999999993
 21
1162.0000000001
 31
0.0
  0
LINE
  5
13D
330
1F
100
AcDbEntity
  8
LAY-10
  6
CONTINUOUS
 62
     7
100
AcDbLine
 10
1375.000000000023
 20
1151.500000000108
 30
0.0
 11
1505.000000000003
 21
1151.500000000108
 31
0.0
  0
LINE
  5
13E
330
1F
100
AcDbEntity
  8
LAY-10
  6
CONTINUOUS
 62
     7
100
AcDbLine
 10
1375.000000000018
 20
1156.000000000106
 30
0.0
 11
1505.000000000003
 21
1156.000000000106
 31
0.0
  0
LINE
  5
13F
330
1F
100
AcDbEntity
  8
LAY-10
  6
CONTINUOUS
 62
     7
100
AcDbLine
 10
1544.999999999998
 20
941.0000000001601
 30
0.0
 11
1544.999999999998
 21
936.5000000001601
 31
0.0
  0
LINE
  5
140
330
1F
100
AcDbEntity
  8
LAY-10
  6
CONTINUOUS
 62
     7
100
AcDbLine
 10
1519.24999999994
 20
930.0000000002635
 30
0.0
 11
1531.74999999994
 21
930.0000000002635
 31
0.0
  0
ARC
  5
141
330
1F
100
AcDbEntity
  8
LAY-10
  6
CONTINUOUS
 62
     7
100
AcDbCircle
 10
1519.870834875338
 20
933.4669071405108
 30
0.0
 40
3.322569572950376
100
AcDbArc
 50
235.6157525319461
 51
304.3842474680539
  0
LINE
  5
142
330
1F
100
AcDbEntity
  8
LAY-10
  6
CONTINUOUS
 62
     7
100
AcDbLine
 10
1517.994446500473
 20
930.7248941511614
 30
0.0
 11
1519.24999999994
 21
930.0000000002635
 31
0.0
  0
LINE
  5
143
330
1F
100
AcDbEntity
  8
LAY-10
  6
CONTINUOUS
 62
     7
100
AcDbLine
 10
1517.994446500473
 20
930.7248941511614
 30
0.0
 11
1517.994446500473
 21
936.5000000002644
 31
0.0
  0
ARC
  5
144
330
1F
100
AcDbEntity
  8
LAY-10
  6
CONTINUOUS
 62
     7
100
AcDbCircle
 10
1525.499999999909
 20
942.5637809841496
 30
0.0
 40
12.41944341658879
100
AcDbArc
 50
252.412046226416
 51
287.587953773858
  0
LINE
  5
145
330
1F
100
AcDbEntity
  8
LAY-10
  6
CONTINUOUS
 62
     7
100
AcDbLine
 10
1521.747223250205
 20
930.7248941511614
 30
0.0
 11
1521.747223250205
 21
936.5000000002635
 31
0.0
  0
LINE
  5
146
330
1F
100
AcDbEntity
  8
LAY-10
  6
CONTINUOUS
 62
     7
100
AcDbLine
 10
1531.74999999994
 20
930.0000000002635
 30
0.0
 11
1533.005553499404
 21
930.7248941511614
 31
0.0
  0
LINE
  5
147
330
1F
100
AcDbEntity
  8
LAY-10
  6
CONTINUOUS
 62
     7
100
AcDbLine
 10
1529.252776749671
 20
930.7248941511614
 30
0.0
 11
1529.252776749671
 21
936.5000000002635
 31
0.0
  0
ARC
  5
148
330
1F
100
AcDbEntity
  8
LAY-10
  6
CONTINUOUS
 62
     7
100
AcDbCircle
 10
1531.129165124538
 20
933.4669071405108
 30
0.0
 40
3.322569572950003
100
AcDbArc
 50
235.6157525319471
 51
304.3842474680529
  0
LINE
  5
149
330
1F
100
AcDbEntity
  8
LAY-10
  6
CONTINUOUS
 62
     7
100
AcDbLine
 10
1533.005553499404
 20
936.5000000002635
 30
0.0
 11
1533.005553499404
 21
930.7248941511614
 31
0.0
  0
LINE
  5
14A
330
1F
100
AcDbEntity
  8
LAY-10
  6
CONTINUOUS
 62
     7
100
AcDbLine
 10
1521.99999999998
 20
1159.000000000096
 30
0.0
 11
1474.999999999993
 21
1159.0000000001
 31
0.0
  0
LINE
  5
14B
330
1F
100
AcDbEntity
  8
LAY-10
  6
CONTINUOUS
 62
     7
100
AcDbLine
 10
1545.000000000009
 20
1159.000000000095
 30
0.0
 11
1528.999999999979
 21
1159.000000000096
 31
0.0
  0
LINE
  5
14C
330
1F
100
AcDbEntity
  8
LAY-10
  6
CONTINUOUS
 62
     7
100
AcDbLine
 10
1545.000000000009
 20
1162.000000000095
 30
0.0
 11
1528.99999999998
 21
1162.000000000096
 31
0.0
  0
LINE
  5
14D
330
1F
100
AcDbEntity
  8
LAY-10
  6
CONTINUOUS
 62
     7
100
AcDbLine
 10
1521.99999999998
 20
1162.000000000097
 30
0.0
 11
1474.999999999993
 21
1162.0000000001
 31
0.0
  0
LINE
  5
14E
330
1F
100
AcDbEntity
  8
LAY-10
  6
CONTINUOUS
 62
     7
100
AcDbLine
 10
1524.49999999988
 20
1156.0000000001
 30
0.0
 11
1526.49999999998
 21
1156.0000000001
 31
0.0
  0
LINE
  5
14F
330
1F
100
AcDbEntity
  8
LAY-10
  6
CONTINUOUS
 62
     7
100
AcDbLine
 10
1521.499999999929
 20
1168.000000000103
 30
0.0
 11
1529.499999999929
 21
1168.000000000103
 31
0.0
  0
LINE
  5
150
330
1F
100
AcDbEntity
  8
LAY-10
  6
CONTINUOUS
 62
     7
100
AcDbLine
 10
1524.499999999928
 20
1156.000000000103
 30
0.0
 11
1521.49999999993
 21
1159.000000000102
 31
0.0
  0
LINE
  5
151
330
1F
100
AcDbEntity
  8
LAY-10
  6
CONTINUOUS
 62
     7
100
AcDbLine
 10
1521.49999999993
 20
1159.000000000102
 30
0.0
 11
1521.49999999993
 21
1168.000000000103
 31
0.0
  0
LINE
  5
152
330
1F
100
AcDbEntity
  8
LAY-10
  6
CONTINUOUS
 62
     7
100
AcDbLine
 10
1526.499999999931
 20
1156.000000000103
 30
0.0
 11
1529.499999999929
 21
1159.000000000102
 31
0.0
  0
LINE
  5
153
330
1F
100
AcDbEntity
  8
LAY-10
  6
CONTINUOUS
 62
     7
100
AcDbLine
 10
1529.499999999929
 20
1159.000000000102
 30
0.0
 11
1529.499999999929
 21
1168.000000000103
 31
0.0
  0
LINE
  5
154
330
1F
100
AcDbEntity
  8
LAY-10
  6
CONTINUOUS
 62
     7
100
AcDbLine
 10
1529.499999999938
 20
930.0000000002628
 30
0.0
 11
1529.499999999941
 21
926.0000000000726
 31
0.0
  0
LINE
  5
155
330
1F
100
AcDbEntity
  8
LAY-10
  6
CONTINUOUS
 62
     7
100
AcDbLine
 10
1521.49999999994
 20
926.0000000000726
 30
0.0
 11
1521.499999999938
 21
930.0000000002628
 31
0.0
  0
LINE
  5
156
330
1F
100
AcDbEntity
  8
LAY-10
  6
CONTINUOUS
 62
     7
100
AcDbLine
 10
1517.994446500475
 20
926.0000000000726
 30
0.0
 11
1533.005553499406
 21
926.0000000000726
 31
0.0
  0
LINE
  5
157
330
1F
100
AcDbEntity
  8
LAY-10
  6
CONTINUOUS
 62
     7
100
AcDbLine
 10
1519.249999999943
 20
920.5000000000723
 30
0.0
 11
1531.749999999943
 21
920.5000000000723
 31
0.0
  0
ARC
  5
158
330
1F
100
AcDbEntity
  8
LAY-10
  6
CONTINUOUS
 62
     7
100
AcDbCircle
 10
1519.87083487534
 20
923.9669071403201
 30
0.0
 40
3.322569572950376
100
AcDbArc
 50
235.6157525319493
 51
304.3842474680572
  0
LINE
  5
159
330
1F
100
AcDbEntity
  8
LAY-10
  6
CONTINUOUS
 62
     7
100
AcDbLine
 10
1517.994446500477
 20
921.2248941509707
 30
0.0
 11
1519.249999999943
 21
920.5000000000723
 31
0.0
  0
LINE
  5
15A
330
1F
100
AcDbEntity
  8
LAY-10
  6
CONTINUOUS
 62
     7
100
AcDbLine
 10
1517.994446500477
 20
921.2248941509707
 30
0.0
 11
1517.994446500475
 21
926.0000000000726
 31
0.0
  0
ARC
  5
15B
330
1F
100
AcDbEntity
  8
LAY-10
  6
CONTINUOUS
 62
     7
100
AcDbCircle
 10
1525.499999999911
 20
933.063780983958
 30
0.0
 40
12.41944341658879
100
AcDbArc
 50
252.412046226417
 51
287.5879537738591
  0
LINE
  5
15C
330
1F
100
AcDbEntity
  8
LAY-10
  6
CONTINUOUS
 62
     7
100
AcDbLine
 10
1521.747223250209
 20
921.2248941509707
 30
0.0
 11
1521.747223250207
 21
926.0000000000726
 31
0.0
  0
ARC
  5
15D
330
1F
100
AcDbEntity
  8
LAY-10
  6
CONTINUOUS
 62
     7
100
AcDbCircle
 10
1531.129165124539
 20
923.9669071403201
 30
0.0
 40
3.322569572950003
100
AcDbArc
 50
235.6157525319504
 51
304.3842474680561
  0
LINE
  5
15E
330
1F
100
AcDbEntity
  8
LAY-10
  6
CONTINUOUS
 62
     7
100
AcDbLine
 10
1531.749999999943
 20
920.5000000000723
 30
0.0
 11
1533.005553499406
 21
921.2248941509707
 31
0.0
  0
LINE
  5
15F
330
1F
100
AcDbEntity
  8
LAY-10
  6
CONTINUOUS
 62
     7
100
AcDbLine
 10
1529.252776749672
 20
921.2248941509707
 30
0.0
 11
1529.252776749672
 21
926.0000000000726
 31
0.0
  0
LINE
  5
160
330
1F
100
AcDbEntity
  8
LAY-10
  6
CONTINUOUS
 62
     7
100
AcDbLine
 10
1533.005553499406
 20
926.0000000000726
 30
0.0
 11
1533.005553499406
 21
921.2248941509707
 31
0.0
  0
LINE
  5
161
330
1F
100
AcDbEntity
  8
LAY-10
  6
CONTINUOUS
 62
     7
100
AcDbLine
 10
1529.499999999943
 20
945.375000000084
 30
0.0
 11
1529.499999999943
 21
941.000000000223
 31
0.0
  0
LINE
  5
162
330
1F
100
AcDbEntity
  8
LAY-10
  6
CONTINUOUS
 62
     7
100
AcDbLine
 10
1521.499999999942
 20
941.000000000223
 30
0.0
 11
1521.499999999942
 21
945.375000000084
 31
0.0
  0
LINE
  5
163
330
1F
100
AcDbEntity
  8
LAY-10
  6
CONTINUOUS
 62
     7
100
AcDbLine
 10
1521.499999999942
 20
945.375000000084
 30
0.0
 11
1529.499999999943
 21
945.375000000084
 31
0.0
  0
LINE
  5
164
330
1F
100
AcDbEntity
  8
LAY-10
  6
CONTINUOUS
 62
     7
100
AcDbLine
 10
1529.499999999943
 20
945.375000000084
 30
0.0
 11
1528.874999999942
 21
946.000000000084
 31
0.0
  0
LINE
  5
165
330
1F
100
AcDbEntity
  8
LAY-10
  6
CONTINUOUS
 62
     7
100
AcDbLine
 10
1522.124999999942
 20
946.000000000084
 30
0.0
 11
1528.874999999942
 21
946.000000000084
 31
0.0
  0
LINE
  5
166
330
1F
100
AcDbEntity
  8
LAY-10
  6
CONTINUOUS
 62
     7
100
AcDbLine
 10
1522.124999999942
 20
946.000000000084
 30
0.0
 11
1521.499999999942
 21
945.375000000084
 31
0.0
  0
LINE
  5
167
330
1F
100
AcDbEntity
  8
LAY-10
  6
CONTINUOUS
 62
     7
100
AcDbLine
 10
1465.000000000004
 20
1073.500000000123
 30
0.0
 11
1465.000000000005
 21
1151.500000000108
 31
0.0
  0
LINE
  5
168
330
1F
100
AcDbEntity
  8
LAY-10
  6
CONTINUOUS
 62
     7
100
AcDbLine
 10
1505.000000000003
 20
941.0000000001628
 30
0.0
 11
1505.000000000019
 21
1159.000000000098
 31
0.0
  0
LINE
  5
169
330
1F
100
AcDbEntity
  8
LAY-10
  6
CONTINUOUS
 62
     7
100
AcDbLine
 10
1465.000000000003
 20
936.500000000163
 30
0.0
 11
1465.000000000004
 21
1069.000000000125
 31
0.0
  0
LINE
  5
16A
330
1F
100
AcDbEntity
  8
LAY-10
  6
CONTINUOUS
 62
     7
100
AcDbLine
 10
224.99999999999
 20
1151.500000000103
 30
0.0
 11
1224.999999999991
 21
1151.500000000104
 31
0.0
  0
LINE
  5
16B
330
1F
100
AcDbEntity
  8
LAY-10
  6
CONTINUOUS
 62
     7
100
AcDbLine
 10
224.99999999999
 20
1073.499960739603
 30
0.0
 11
1224.999999999991
 21
1073.499960739604
 31
0.0
  0
LINE
  5
16C
330
1F
100
AcDbEntity
  8
LAY-10
  6
CONTINUOUS
 62
     7
100
AcDbLine
 10
224.9999999999905
 20
1069.000000000132
 30
0.0
 11
1224.999999999991
 21
1069.000000000134
 31
0.0
  0
LINE
  5
16D
330
1F
100
AcDbEntity
  8
LAY-10
  6
CONTINUOUS
 62
     7
100
AcDbLine
 10
1154.999999999951
 20
1069.000000000132
 30
0.0
 11
1154.999999999962
 21
936.4999214792178
 31
0.0
  0
LINE
  5
16E
330
1F
100
AcDbEntity
  8
LAY-10
  6
CONTINUOUS
 62
     7
100
AcDbLine
 10
1194.999999999953
 20
1069.000000000132
 30
0.0
 11
1194.999999999962
 21
936.4999214792176
 31
0.0
  0
LINE
  5
16F
330
1F
100
AcDbEntity
  8
LAY-10
  6
CONTINUOUS
 62
     7
100
AcDbLine
 10
854.9999999999918
 20
1069.000000000133
 30
0.0
 11
855.0000000000018
 21
936.4999214792178
 31
0.0
  0
LINE
  5
170
330
1F
100
AcDbEntity
  8
LAY-10
  6
CONTINUOUS
 62
     7
100
AcDbLine
 10
894.9999999999927
 20
1069.000000000133
 30
0.0
 11
895.0000000000018
 21
936.4999214792176
 31
0.0
  0
LINE
  5
171
330
1F
100
AcDbEntity
  8
LAY-10
  6
CONTINUOUS
 62
     7
100
AcDbLine
 10
554.9999999999918
 20
1069.000000000133
 30
0.0
 11
555.0000000000018
 21
936.4999214792178
 31
0.0
  0
LINE
  5
172
330
1F
100
AcDbEntity
  8
LAY-10
  6
CONTINUOUS
 62
     7
100
AcDbLine
 10
594.9999999999927
 20
1069.000000000133
 30
0.0
 11
595.0000000000018
 21
936.4999214792176
 31
0.0
  0
LINE
  5
173
330
1F
100
AcDbEntity
  8
LAY-10
  6
CONTINUOUS
 62
     7
100
AcDbLine
 10
254.9999999999918
 20
1069.000000000133
 30
0.0
 11
255.0000000000018
 21
936.4999214792178
 31
0.0
  0
LINE
  5
174
330
1F
100
AcDbEntity
  8
LAY-10
  6
CONTINUOUS
 62
     7
100
AcDbLine
 10
294.9999999999927
 20
1069.000000000133
 30
0.0
 11
295.0000000000018
 21
936.4999214792176
 31
0.0
  0
ARC
  5
175
330
1F
100
AcDbEntity
  8
LAY-10
  6
CONTINUOUS
 62
     7
100
AcDbCircle
 10
1496.499999999969
 20
941.5000000002017
 30
0.0
 40
5.0
100
AcDbArc
 50
180.0000000000001
 51
270.0
  0
ARC
  5
176
330
1F
100
AcDbEntity
  8
LAY-10
  6
CONTINUOUS
 62
     7
100
AcDbCircle
 10
1496.999999999969
 20
942.0000000002019
 30
0.0
 40
1.0
100
AcDbArc
 50
180.0000000000001
 51
270.0
  0
LINE
  5
177
330
1F
100
AcDbEntity
  8
LAY-10
  6
CONTINUOUS
 62
     7
100
AcDbLine
 10
1495.999999999969
 20
946.0000000001642
 30
0.0
 11
1505.000000000003
 21
946.000000000163
 31
0.0
  0
LINE
  5
178
330
1F
100
AcDbEntity
  8
LAY-10
  6
CONTINUOUS
 62
     7
100
AcDbLine
 10
1465.000000000003
 20
936.500000000163
 30
0.0
 11
1544.999999999997
 21
936.5000000001623
 31
0.0
  0
LINE
  5
179
330
1F
100
AcDbEntity
  8
LAY-10
  6
CONTINUOUS
 62
     7
100
AcDbLine
 10
1496.99999999997
 20
941.0000000001626
 30
0.0
 11
1544.999999999997
 21
941.0000000001628
 31
0.0
  0
ARC
  5
17A
330
1F
100
AcDbEntity
  8
LAY-10
  6
CONTINUOUS
 62
     7
100
AcDbCircle
 10
1490.999999999968
 20
1068.500000000123
 30
0.0
 40
5.0
100
AcDbArc
 50
0.0
 51
90.00000000000001
  0
ARC
  5
17B
330
1F
100
AcDbEntity
  8
LAY-10
  6
CONTINUOUS
 62
     7
100
AcDbCircle
 10
1490.499999999968
 20
1068.000000000125
 30
0.0
 40
1.0
100
AcDbArc
 50
0.0
 51
90.00000000000001
  0
LINE
  5
17C
330
1F
100
AcDbEntity
  8
LAY-10
  6
CONTINUOUS
 62
     7
100
AcDbLine
 10
1375.000000000018
 20
1069.000000000126
 30
0.0
 11
1490.49999999997
 21
1069.000000000125
 31
0.0
  0
LINE
  5
17D
330
1F
100
AcDbEntity
  8
LAY-10
  6
CONTINUOUS
 62
     7
100
AcDbLine
 10
1375.000000000018
 20
1073.500000000124
 30
0.0
 11
1490.99999999997
 21
1073.500000000123
 31
0.0
  0
LINE
  5
17E
330
1F
100
AcDbEntity
  8
LAY-10
  6
CONTINUOUS
 62
     7
100
AcDbLine
 10
1495.999999999969
 20
942.0000000001996
 30
0.0
 11
1495.999999999969
 21
1068.500000000119
 31
0.0
  0
LINE
  5
17F
330
1F
100
AcDbEntity
  8
LAY-10
  6
CONTINUOUS
 62
     7
100
AcDbLine
 10
1491.499999999969
 20
941.0000000002021
 30
0.0
 11
1491.499999999969
 21
1068.000000000129
 31
0.0
  0
LINE
  5
180
330
1F
100
AcDbEntity
  8
LAY-10
  6
CONTINUOUS
 62
     7
100
AcDbLine
 10
1505.000000000005
 20
976.0000000001637
 30
0.0
 11
1495.999999999969
 21
976.0000000001637
 31
0.0
  0
LINE
  5
181
330
1F
100
AcDbEntity
  8
LAY-10
  6
CONTINUOUS
 62
     7
100
AcDbLine
 10
1408.999999999999
 20
1148.500000000108
 30
0.0
 11
1465.0
 21
1148.500000000108
 31
0.0
  0
LINE
  5
182
330
1F
100
AcDbEntity
  8
LAY-10
  6
CONTINUOUS
 62
     7
100
AcDbLine
 10
1408.999999999999
 20
1076.500000000123
 30
0.0
 11
1465.0
 21
1076.500000000123
 31
0.0
  0
LINE
  5
183
330
1F
100
AcDbEntity
  8
LAY-10
  6
CONTINUOUS
 62
     7
100
AcDbLine
 10
1224.999999999991
 20
1151.500000000103
 30
0.0
 11
1224.999999999991
 21
1156.0000000001
 31
0.0
  0
LINE
  5
184
330
1F
100
AcDbEntity
  8
LAY-10
  6
CONTINUOUS
 62
     7
100
AcDbLine
 10
1225.000000000001
 20
936.5000000002042
 30
0.0
 11
1224.999999999991
 21
1073.499960739674
 31
0.0
  0
LINE
  5
185
330
1F
100
AcDbEntity
  8
LAY-10
  6
CONTINUOUS
 62
     7
100
AcDbLine
 10
224.9999999999977
 20
1156.0000000001
 30
0.0
 11
224.9999999999977
 21
1151.500000000103
 31
0.0
  0
LINE
  5
186
330
1F
100
AcDbEntity
  8
LAY-10
  6
CONTINUOUS
 62
     7
100
AcDbLine
 10
224.9999999999982
 20
1073.499960739603
 30
0.0
 11
225.0000000000073
 21
936.5000000002001
 31
0.0
  0
LINE
  5
187
330
1F
100
AcDbEntity
  8
LAY-10
  6
CONTINUOUS
 62
     7
100
AcDbLine
 10
717.4999999999809
 20
1089.499980369847
 30
0.0
 11
717.4999999999809
 21
1095.499980369847
 31
0.0
  0
LINE
  5
188
330
1F
100
AcDbEntity
  8
LAY-10
  6
CONTINUOUS
 62
     7
100
AcDbLine
 10
717.4999999999809
 20
1129.499980369947
 30
0.0
 11
717.4999999999809
 21
1135.499980369947
 31
0.0
  0
LINE
  5
189
330
1F
100
AcDbEntity
  8
LAY-10
  6
CONTINUOUS
 62
     7
100
AcDbLine
 10
732.4999999999809
 20
1089.499980369847
 30
0.0
 11
732.4999999999809
 21
1095.499980369847
 31
0.0
  0
LINE
  5
18A
330
1F
100
AcDbEntity
  8
LAY-10
  6
CONTINUOUS
 62
     7
100
AcDbLine
 10
732.4999999999809
 20
1129.499980369947
 30
0.0
 11
732.4999999999809
 21
1135.499980369947
 31
0.0
  0
ARC
  5
18B
330
1F
100
AcDbEntity
  8
LAY-10
  6
CONTINUOUS
 62
     7
100
AcDbCircle
 10
724.9999999999809
 20
1112.499980369897
 30
0.0
 40
5.0
100
AcDbArc
 50
53.13010235410481
 51
126.8698976459003
  0
ARC
  5
18C
330
1F
100
AcDbEntity
  8
LAY-10
  6
CONTINUOUS
 62
     7
100
AcDbCircle
 10
724.9999999999809
 20
1112.499980369897
 30
0.0
 40
4.0
100
AcDbArc
 50
48.59037789393994
 51
131.4096221060601
  0
ARC
  5
18D
330
1F
100
AcDbEntity
  8
LAY-10
  6
CONTINUOUS
 62
     7
100
AcDbCircle
 10
724.9999999999809
 20
1112.499980369897
 30
0.0
 40
4.0
100
AcDbArc
 50
228.5903778939492
 51
311.4096221060509
  0
ARC
  5
18E
330
1F
100
AcDbEntity
  8
LAY-10
  6
CONTINUOUS
 62
     7
100
AcDbCircle
 10
724.9999999999809
 20
1112.499980369897
 30
0.0
 40
5.0
100
AcDbArc
 50
233.1301023541225
 51
306.8698976458775
  0
ARC
  5
18F
330
1F
100
AcDbEntity
  8
LAY-10
  6
CONTINUOUS
 62
     7
100
AcDbCircle
 10
324.9999999999704
 20
1112.499980369897
 30
0.0
 40
5.0
100
AcDbArc
 50
53.13010235410481
 51
126.8698976459003
  0
ARC
  5
190
330
1F
100
AcDbEntity
  8
LAY-10
  6
CONTINUOUS
 62
     7
100
AcDbCircle
 10
324.9999999999704
 20
1112.499980369897
 30
0.0
 40
4.0
100
AcDbArc
 50
48.59037789393994
 51
131.4096221060601
  0
ARC
  5
191
330
1F
100
AcDbEntity
  8
LAY-10
  6
CONTINUOUS
 62
     7
100
AcDbCircle
 10
324.9999999999704
 20
1112.499980369897
 30
0.0
 40
4.0
100
AcDbArc
 50
228.5903778939492
 51
311.4096221060509
  0
ARC
  5
192
330
1F
100
AcDbEntity
  8
LAY-10
  6
CONTINUOUS
 62
     7
100
AcDbCircle
 10
324.9999999999704
 20
1112.499980369897
 30
0.0
 40
5.0
100
AcDbArc
 50
233.1301023541225
 51
306.8698976458775
  0
LINE
  5
193
330
1F
100
AcDbEntity
  8
LAY-10
  6
CONTINUOUS
 62
     7
100
AcDbLine
 10
418.9999999999804
 20
1089.499980369847
 30
0.0
 11
418.9999999999804
 21
1095.499980369847
 31
0.0
  0
LINE
  5
194
330
1F
100
AcDbEntity
  8
LAY-10
  6
CONTINUOUS
 62
     7
100
AcDbLine
 10
430.9999999999804
 20
1089.499980369847
 30
0.0
 11
430.9999999999804
 21
1095.499980369847
 31
0.0
  0
LINE
  5
195
330
1F
100
AcDbEntity
  8
LAY-10
  6
CONTINUOUS
 62
     7
100
AcDbLine
 10
418.9999999999804
 20
1109.499980370047
 30
0.0
 11
418.9999999999804
 21
1115.499980370047
 31
0.0
  0
LINE
  5
196
330
1F
100
AcDbEntity
  8
LAY-10
  6
CONTINUOUS
 62
     7
100
AcDbLine
 10
430.9999999999804
 20
1109.499980370047
 30
0.0
 11
430.9999999999804
 21
1115.499980370047
 31
0.0
  0
LINE
  5
197
330
1F
100
AcDbEntity
  8
LAY-10
  6
CONTINUOUS
 62
     7
100
AcDbLine
 10
418.9999999999804
 20
1129.499980369947
 30
0.0
 11
418.9999999999804
 21
1135.499980369947
 31
0.0
  0
LINE
  5
198
330
1F
100
AcDbEntity
  8
LAY-10
  6
CONTINUOUS
 62
     7
100
AcDbLine
 10
430.9999999999804
 20
1129.499980369947
 30
0.0
 11
430.9999999999804
 21
1135.499980369947
 31
0.0
  0
ARC
  5
199
330
1F
100
AcDbEntity
  8
LAY-10
  6
CONTINUOUS
 62
     7
100
AcDbCircle
 10
524.9999999999504
 20
1112.499980369897
 30
0.0
 40
5.0
100
AcDbArc
 50
53.13010235409815
 51
126.8698976458961
  0
ARC
  5
19A
330
1F
100
AcDbEntity
  8
LAY-10
  6
CONTINUOUS
 62
     7
100
AcDbCircle
 10
524.9999999999504
 20
1112.499980369897
 30
0.0
 40
4.0
100
AcDbArc
 50
48.59037789393748
 51
131.4096221060625
  0
ARC
  5
19B
330
1F
100
AcDbEntity
  8
LAY-10
  6
CONTINUOUS
 62
     7
100
AcDbCircle
 10
524.9999999999504
 20
1112.499980369897
 30
0.0
 40
4.0
100
AcDbArc
 50
228.5903778939515
 51
311.4096221060485
  0
ARC
  5
19C
330
1F
100
AcDbEntity
  8
LAY-10
  6
CONTINUOUS
 62
     7
100
AcDbCircle
 10
524.9999999999504
 20
1112.499980369897
 30
0.0
 40
5.0
100
AcDbArc
 50
233.1301023541234
 51
306.8698976458766
  0
LINE
  5
19D
330
1F
100
AcDbEntity
  8
LAY-10
  6
CONTINUOUS
 62
     7
100
AcDbLine
 10
327.9999999999736
 20
1116.499980369895
 30
0.0
 11
521.9999999999477
 21
1116.499980369895
 31
0.0
  0
LINE
  5
19E
330
1F
100
AcDbEntity
  8
LAY-10
  6
CONTINUOUS
 62
     7
100
AcDbLine
 10
521.9999999999486
 20
1108.499980369898
 30
0.0
 11
327.9999999999727
 21
1108.499980369898
 31
0.0
  0
LINE
  5
19F
330
1F
100
AcDbEntity
  8
LAY-10
  6
CONTINUOUS
 62
     7
100
AcDbLine
 10
527.9999999999532
 20
1116.499980369895
 30
0.0
 11
721.9999999999781
 21
1116.499980369895
 31
0.0
  0
LINE
  5
1A0
330
1F
100
AcDbEntity
  8
LAY-10
  6
CONTINUOUS
 62
     7
100
AcDbLine
 10
721.9999999999786
 20
1108.499980369898
 30
0.0
 11
527.9999999999523
 21
1108.499980369898
 31
0.0
  0
LINE
  5
1A1
330
1F
100
AcDbEntity
  8
LAY-10
  6
CONTINUOUS
 62
     7
100
AcDbLine
 10
618.9999999999804
 20
1089.499980369847
 30
0.0
 11
618.9999999999804
 21
1095.499980369847
 31
0.0
  0
LINE
  5
1A2
330
1F
100
AcDbEntity
  8
LAY-10
  6
CONTINUOUS
 62
     7
100
AcDbLine
 10
630.9999999999804
 20
1089.499980369847
 30
0.0
 11
630.9999999999804
 21
1095.499980369847
 31
0.0
  0
LINE
  5
1A3
330
1F
100
AcDbEntity
  8
LAY-10
  6
CONTINUOUS
 62
     7
100
AcDbLine
 10
618.9999999999804
 20
1109.499980369747
 30
0.0
 11
618.9999999999804
 21
1115.499980369747
 31
0.0
  0
LINE
  5
1A4
330
1F
100
AcDbEntity
  8
LAY-10
  6
CONTINUOUS
 62
     7
100
AcDbLine
 10
630.9999999999804
 20
1109.499980369747
 30
0.0
 11
630.9999999999804
 21
1115.499980369747
 31
0.0
  0
LINE
  5
1A5
330
1F
100
AcDbEntity
  8
LAY-10
  6
CONTINUOUS
 62
     7
100
AcDbLine
 10
618.9999999999804
 20
1129.499980369947
 30
0.0
 11
618.9999999999804
 21
1135.499980369947
 31
0.0
  0
LINE
  5
1A6
330
1F
100
AcDbEntity
  8
LAY-10
  6
CONTINUOUS
 62
     7
100
AcDbLine
 10
630.9999999999804
 20
1129.499980369947
 30
0.0
 11
630.9999999999804
 21
1135.499980369947
 31
0.0
  0
LINE
  5
1A7
330
1F
100
AcDbEntity
  8
LAY-10
  6
CONTINUOUS
 62
     7
100
AcDbLine
 10
830.9999999999815
 20
1089.499980369847
 30
0.0
 11
830.9999999999815
 21
1095.499980369847
 31
0.0
  0
LINE
  5
1A8
330
1F
100
AcDbEntity
  8
LAY-10
  6
CONTINUOUS
 62
     7
100
AcDbLine
 10
818.9999999999814
 20
1089.499980369847
 30
0.0
 11
818.9999999999814
 21
1095.499980369847
 31
0.0
  0
LINE
  5
1A9
330
1F
100
AcDbEntity
  8
LAY-10
  6
CONTINUOUS
 62
     7
100
AcDbLine
 10
830.9999999999815
 20
1109.499980369747
 30
0.0
 11
830.9999999999815
 21
1115.499980369747
 31
0.0
  0
LINE
  5
1AA
330
1F
100
AcDbEntity
  8
LAY-10
  6
CONTINUOUS
 62
     7
100
AcDbLine
 10
818.9999999999814
 20
1109.499980369747
 30
0.0
 11
818.9999999999814
 21
1115.499980369747
 31
0.0
  0
LINE
  5
1AB
330
1F
100
AcDbEntity
  8
LAY-10
  6
CONTINUOUS
 62
     7
100
AcDbLine
 10
830.9999999999815
 20
1129.499980369947
 30
0.0
 11
830.9999999999815
 21
1135.499980369947
 31
0.0
  0
LINE
  5
1AC
330
1F
100
AcDbEntity
  8
LAY-10
  6
CONTINUOUS
 62
     7
100
AcDbLine
 10
818.9999999999814
 20
1129.499980369947
 30
0.0
 11
818.9999999999814
 21
1135.499980369947
 31
0.0
  0
ARC
  5
1AD
330
1F
100
AcDbEntity
  8
LAY-10
  6
CONTINUOUS
 62
     7
100
AcDbCircle
 10
925.0000000000114
 20
1112.499980369897
 30
0.0
 40
5.0
100
AcDbArc
 50
53.13010235410388
 51
126.8698976459016
  0
ARC
  5
1AE
330
1F
100
AcDbEntity
  8
LAY-10
  6
CONTINUOUS
 62
     7
100
AcDbCircle
 10
925.0000000000114
 20
1112.499980369897
 30
0.0
 40
4.0
100
AcDbArc
 50
48.59037789393644
 51
131.4096221060624
  0
ARC
  5
1AF
330
1F
100
AcDbEntity
  8
LAY-10
  6
CONTINUOUS
 62
     7
100
AcDbCircle
 10
925.0000000000114
 20
1112.499980369897
 30
0.0
 40
4.0
100
AcDbArc
 50
228.5903778939526
 51
311.4096221060499
  0
ARC
  5
1B0
330
1F
100
AcDbEntity
  8
LAY-10
  6
CONTINUOUS
 62
     7
100
AcDbCircle
 10
925.0000000000114
 20
1112.499980369897
 30
0.0
 40
5.0
100
AcDbArc
 50
233.1301023541234
 51
306.8698976458766
  0
LINE
  5
1B1
330
1F
100
AcDbEntity
  8
LAY-10
  6
CONTINUOUS
 62
     7
100
AcDbLine
 10
922.0000000000091
 20
1108.499980369898
 30
0.0
 11
727.9999999999832
 21
1108.499980369898
 31
0.0
  0
LINE
  5
1B2
330
1F
100
AcDbEntity
  8
LAY-10
  6
CONTINUOUS
 62
     7
100
AcDbLine
 10
727.9999999999836
 20
1116.499980369895
 30
0.0
 11
922.0000000000082
 21
1116.499980369895
 31
0.0
  0
LINE
  5
1B3
330
1F
100
AcDbEntity
  8
LAY-10
  6
CONTINUOUS
 62
     7
100
AcDbLine
 10
1030.999999999981
 20
1089.499980369847
 30
0.0
 11
1030.999999999981
 21
1095.499980369847
 31
0.0
  0
LINE
  5
1B4
330
1F
100
AcDbEntity
  8
LAY-10
  6
CONTINUOUS
 62
     7
100
AcDbLine
 10
1018.999999999981
 20
1089.499980369847
 30
0.0
 11
1018.999999999981
 21
1095.499980369847
 31
0.0
  0
LINE
  5
1B5
330
1F
100
AcDbEntity
  8
LAY-10
  6
CONTINUOUS
 62
     7
100
AcDbLine
 10
1030.999999999981
 20
1109.499980370047
 30
0.0
 11
1030.999999999981
 21
1115.499980370047
 31
0.0
  0
LINE
  5
1B6
330
1F
100
AcDbEntity
  8
LAY-10
  6
CONTINUOUS
 62
     7
100
AcDbLine
 10
1018.999999999981
 20
1109.499980370047
 30
0.0
 11
1018.999999999981
 21
1115.499980370047
 31
0.0
  0
LINE
  5
1B7
330
1F
100
AcDbEntity
  8
LAY-10
  6
CONTINUOUS
 62
     7
100
AcDbLine
 10
1030.999999999981
 20
1129.499980369947
 30
0.0
 11
1030.999999999981
 21
1135.499980369947
 31
0.0
  0
LINE
  5
1B8
330
1F
100
AcDbEntity
  8
LAY-10
  6
CONTINUOUS
 62
     7
100
AcDbLine
 10
1018.999999999981
 20
1129.499980369947
 30
0.0
 11
1018.999999999981
 21
1135.499980369947
 31
0.0
  0
ARC
  5
1B9
330
1F
100
AcDbEntity
  8
LAY-10
  6
CONTINUOUS
 62
     7
100
AcDbCircle
 10
1124.999999999991
 20
1112.499980369897
 30
0.0
 40
5.0
100
AcDbArc
 50
53.13010235409919
 51
126.8698976458951
  0
ARC
  5
1BA
330
1F
100
AcDbEntity
  8
LAY-10
  6
CONTINUOUS
 62
     7
100
AcDbCircle
 10
1124.999999999991
 20
1112.499980369897
 30
0.0
 40
4.0
100
AcDbArc
 50
48.59037789393874
 51
131.4096221060601
  0
ARC
  5
1BB
330
1F
100
AcDbEntity
  8
LAY-10
  6
CONTINUOUS
 62
     7
100
AcDbCircle
 10
1124.999999999991
 20
1112.499980369897
 30
0.0
 40
4.0
100
AcDbArc
 50
228.5903778939492
 51
311.4096221060509
  0
ARC
  5
1BC
330
1F
100
AcDbEntity
  8
LAY-10
  6
CONTINUOUS
 62
     7
100
AcDbCircle
 10
1124.999999999991
 20
1112.499980369897
 30
0.0
 40
5.0
100
AcDbArc
 50
233.1301023541234
 51
306.8698976458777
  0
LINE
  5
1BD
330
1F
100
AcDbEntity
  8
LAY-10
  6
CONTINUOUS
 62
     7
100
AcDbLine
 10
928.0000000000146
 20
1116.499980369895
 30
0.0
 11
1121.999999999989
 21
1116.499980369895
 31
0.0
  0
LINE
  5
1BE
330
1F
100
AcDbEntity
  8
LAY-10
  6
CONTINUOUS
 62
     7
100
AcDbLine
 10
1121.999999999989
 20
1108.499980369898
 30
0.0
 11
928.0000000000132
 21
1108.499980369898
 31
0.0
  0
LINE
  5
1BF
330
1F
100
AcDbEntity
  8
LAY-10
  6
CONTINUOUS
 62
     7
100
AcDbLine
 10
226.9999999999804
 20
1148.499980369897
 30
0.0
 11
226.9999999999804
 21
1136.499980369897
 31
0.0
  0
LINE
  5
1C0
330
1F
100
AcDbEntity
  8
LAY-10
  6
CONTINUOUS
 62
     7
100
AcDbLine
 10
225.9999999999805
 20
1149.499980369897
 30
0.0
 11
226.9999999999804
 21
1148.499980369897
 31
0.0
  0
LINE
  5
1C1
330
1F
100
AcDbEntity
  8
LAY-10
  6
CONTINUOUS
 62
     7
100
AcDbLine
 10
226.9999999999804
 20
1128.499980369897
 30
0.0
 11
226.9999999999804
 21
1116.499980369897
 31
0.0
  0
LINE
  5
1C2
330
1F
100
AcDbEntity
  8
LAY-10
  6
CONTINUOUS
 62
     7
100
AcDbLine
 10
226.9999999999804
 20
1096.499980369897
 30
0.0
 11
226.9999999999804
 21
1108.499980369897
 31
0.0
  0
LINE
  5
1C3
330
1F
100
AcDbEntity
  8
LAY-10
  6
CONTINUOUS
 62
     7
100
AcDbLine
 10
226.9999999999804
 20
1076.499980369997
 30
0.0
 11
226.9999999999804
 21
1088.499980369797
 31
0.0
  0
LINE
  5
1C4
330
1F
100
AcDbEntity
  8
LAY-10
  6
CONTINUOUS
 62
     7
100
AcDbLine
 10
226.9999999999804
 20
1076.499980369997
 30
0.0
 11
225.9999999999805
 21
1075.499980369947
 31
0.0
  0
LINE
  5
1C5
330
1F
100
AcDbEntity
  8
LAY-10
  6
CONTINUOUS
 62
     7
100
AcDbLine
 10
321.9999999999682
 20
1108.499980369898
 30
0.0
 11
226.9999999999804
 21
1108.499980369898
 31
0.0
  0
LINE
  5
1C6
330
1F
100
AcDbEntity
  8
LAY-10
  6
CONTINUOUS
 62
     7
100
AcDbLine
 10
226.9999999999804
 20
1116.499980369895
 30
0.0
 11
321.9999999999673
 21
1116.499980369895
 31
0.0
  0
LINE
  5
1C7
330
1F
100
AcDbEntity
  8
LAY-10
  6
CONTINUOUS
 62
     7
100
AcDbLine
 10
1222.99999999998
 20
1096.499980369897
 30
0.0
 11
1222.99999999998
 21
1108.499980369897
 31
0.0
  0
LINE
  5
1C8
330
1F
100
AcDbEntity
  8
LAY-10
  6
CONTINUOUS
 62
     7
100
AcDbLine
 10
1222.99999999998
 20
1128.499980369897
 30
0.0
 11
1222.99999999998
 21
1116.499980369897
 31
0.0
  0
LINE
  5
1C9
330
1F
100
AcDbEntity
  8
LAY-10
  6
CONTINUOUS
 62
     7
100
AcDbLine
 10
1222.99999999998
 20
1148.499980369897
 30
0.0
 11
1222.99999999998
 21
1136.499980369897
 31
0.0
  0
LINE
  5
1CA
330
1F
100
AcDbEntity
  8
LAY-10
  6
CONTINUOUS
 62
     7
100
AcDbLine
 10
1222.99999999998
 20
1076.499980369997
 30
0.0
 11
1223.99999999998
 21
1075.499980369947
 31
0.0
  0
LINE
  5
1CB
330
1F
100
AcDbEntity
  8
LAY-10
  6
CONTINUOUS
 62
     7
100
AcDbLine
 10
1222.99999999998
 20
1076.499980369997
 30
0.0
 11
1222.99999999998
 21
1088.499980369797
 31
0.0
  0
LINE
  5
1CC
330
1F
100
AcDbEntity
  8
LAY-10
  6
CONTINUOUS
 62
     7
100
AcDbLine
 10
1222.99999999998
 20
1096.499980369897
 30
0.0
 11
1222.99999999998
 21
1108.499980369897
 31
0.0
  0
LINE
  5
1CD
330
1F
100
AcDbEntity
  8
LAY-10
  6
CONTINUOUS
 62
     7
100
AcDbLine
 10
1222.99999999998
 20
1128.499980369897
 30
0.0
 11
1222.99999999998
 21
1116.499980369897
 31
0.0
  0
LINE
  5
1CE
330
1F
100
AcDbEntity
  8
LAY-10
  6
CONTINUOUS
 62
     7
100
AcDbLine
 10
1222.99999999998
 20
1148.499980369897
 30
0.0
 11
1223.99999999998
 21
1149.499980369897
 31
0.0
  0
LINE
  5
1CF
330
1F
100
AcDbEntity
  8
LAY-10
  6
CONTINUOUS
 62
     7
100
AcDbLine
 10
1222.99999999998
 20
1148.499980369897
 30
0.0
 11
1222.99999999998
 21
1136.499980369897
 31
0.0
  0
LINE
  5
1D0
330
1F
100
AcDbEntity
  8
LAY-10
  6
CONTINUOUS
 62
     7
100
AcDbLine
 10
1127.999999999994
 20
1116.499980369895
 30
0.0
 11
1222.99999999998
 21
1116.499980369895
 31
0.0
  0
LINE
  5
1D1
330
1F
100
AcDbEntity
  8
LAY-10
  6
CONTINUOUS
 62
     7
100
AcDbLine
 10
1222.99999999998
 20
1108.499980369898
 30
0.0
 11
1127.999999999993
 21
1108.499980369898
 31
0.0
  0
LINE
  5
1D2
330
1F
100
AcDbEntity
  8
LAY-10
  6
CONTINUOUS
 62
     7
100
AcDbLine
 10
226.9999999999804
 20
1076.499980369995
 30
0.0
 11
1222.99999999998
 21
1076.499980369995
 31
0.0
  0
LINE
  5
1D3
330
1F
100
AcDbEntity
  8
LAY-10
  6
CONTINUOUS
 62
     7
100
AcDbLine
 10
226.9999999999804
 20
1096.499980369895
 30
0.0
 11
1222.99999999998
 21
1096.499980369895
 31
0.0
  0
LINE
  5
1D4
330
1F
100
AcDbEntity
  8
LAY-10
  6
CONTINUOUS
 62
     7
100
AcDbLine
 10
1222.99999999998
 20
1128.499980369898
 30
0.0
 11
226.9999999999804
 21
1128.499980369898
 31
0.0
  0
LINE
  5
1D5
330
1F
100
AcDbEntity
  8
LAY-10
  6
CONTINUOUS
 62
     7
100
AcDbLine
 10
1222.99999999998
 20
1148.499980369848
 30
0.0
 11
226.9999999999804
 21
1148.499980369848
 31
0.0
  0
LINE
  5
1D6
330
1F
100
AcDbEntity
  8
LAY-10
  6
CONTINUOUS
 62
     7
100
AcDbLine
 10
517.4999999999404
 20
1089.499980369847
 30
0.0
 11
517.4999999999404
 21
1095.499980369847
 31
0.0
  0
LINE
  5
1D7
330
1F
100
AcDbEntity
  8
LAY-10
  6
CONTINUOUS
 62
     7
100
AcDbLine
 10
532.4999999999404
 20
1089.499980369847
 30
0.0
 11
532.4999999999404
 21
1095.499980369847
 31
0.0
  0
LINE
  5
1D8
330
1F
100
AcDbEntity
  8
LAY-10
  6
CONTINUOUS
 62
     7
100
AcDbLine
 10
532.4999999999404
 20
1129.499980369947
 30
0.0
 11
532.4999999999404
 21
1135.499980369947
 31
0.0
  0
LINE
  5
1D9
330
1F
100
AcDbEntity
  8
LAY-10
  6
CONTINUOUS
 62
     7
100
AcDbLine
 10
517.4999999999404
 20
1129.499980369947
 30
0.0
 11
517.4999999999404
 21
1135.499980369947
 31
0.0
  0
LINE
  5
1DA
330
1F
100
AcDbEntity
  8
LAY-10
  6
CONTINUOUS
 62
     7
100
AcDbLine
 10
317.4999999999509
 20
1129.499980369947
 30
0.0
 11
317.4999999999509
 21
1135.499980369947
 31
0.0
  0
LINE
  5
1DB
330
1F
100
AcDbEntity
  8
LAY-10
  6
CONTINUOUS
 62
     7
100
AcDbLine
 10
332.4999999999509
 20
1129.499980369947
 30
0.0
 11
332.4999999999509
 21
1135.499980369947
 31
0.0
  0
LINE
  5
1DC
330
1F
100
AcDbEntity
  8
LAY-10
  6
CONTINUOUS
 62
     7
100
AcDbLine
 10
317.4999999999509
 20
1089.499980369847
 30
0.0
 11
317.4999999999509
 21
1095.499980369847
 31
0.0
  0
LINE
  5
1DD
330
1F
100
AcDbEntity
  8
LAY-10
  6
CONTINUOUS
 62
     7
100
AcDbLine
 10
332.4999999999509
 20
1089.499980369847
 30
0.0
 11
332.4999999999509
 21
1095.499980369847
 31
0.0
  0
LINE
  5
1DE
330
1F
100
AcDbEntity
  8
LAY-10
  6
CONTINUOUS
 62
     7
100
AcDbLine
 10
917.5000000000214
 20
1129.499980369947
 30
0.0
 11
917.5000000000214
 21
1135.499980369947
 31
0.0
  0
LINE
  5
1DF
330
1F
100
AcDbEntity
  8
LAY-10
  6
CONTINUOUS
 62
     7
100
AcDbLine
 10
932.5000000000214
 20
1129.499980369947
 30
0.0
 11
932.5000000000214
 21
1135.499980369947
 31
0.0
  0
LINE
  5
1E0
330
1F
100
AcDbEntity
  8
LAY-10
  6
CONTINUOUS
 62
     7
100
AcDbLine
 10
932.5000000000214
 20
1089.499980369847
 30
0.0
 11
932.5000000000214
 21
1095.499980369847
 31
0.0
  0
LINE
  5
1E1
330
1F
100
AcDbEntity
  8
LAY-10
  6
CONTINUOUS
 62
     7
100
AcDbLine
 10
917.5000000000214
 20
1089.499980369847
 30
0.0
 11
917.5000000000214
 21
1095.499980369847
 31
0.0
  0
LINE
  5
1E2
330
1F
100
AcDbEntity
  8
LAY-10
  6
CONTINUOUS
 62
     7
100
AcDbLine
 10
1132.500000000011
 20
1089.499980369847
 30
0.0
 11
1132.500000000011
 21
1095.499980369847
 31
0.0
  0
LINE
  5
1E3
330
1F
100
AcDbEntity
  8
LAY-10
  6
CONTINUOUS
 62
     7
100
AcDbLine
 10
1117.500000000011
 20
1089.499980369847
 30
0.0
 11
1117.500000000011
 21
1095.499980369847
 31
0.0
  0
LINE
  5
1E4
330
1F
100
AcDbEntity
  8
LAY-10
  6
CONTINUOUS
 62
     7
100
AcDbLine
 10
1117.500000000011
 20
1129.499980369947
 30
0.0
 11
1117.500000000011
 21
1135.499980369947
 31
0.0
  0
LINE
  5
1E5
330
1F
100
AcDbEntity
  8
LAY-10
  6
CONTINUOUS
 62
     7
100
AcDbLine
 10
1132.500000000011
 20
1129.499980369947
 30
0.0
 11
1132.500000000011
 21
1135.499980369947
 31
0.0
  0
LINE
  5
1E6
330
1F
100
AcDbEntity
  8
LAY-10
  6
CONTINUOUS
 62
     7
100
AcDbLine
 10
1223.999999999982
 20
1075.499980369945
 30
0.0
 11
225.9999999999786
 21
1075.499980369945
 31
0.0
  0
LINE
  5
1E7
330
1F
100
AcDbEntity
  8
LAY-10
  6
CONTINUOUS
 62
     7
100
AcDbLine
 10
1223.99999999998
 20
1149.499980369848
 30
0.0
 11
226.0000000000291
 21
1149.499980369848
 31
0.0
  0
LINE
  5
1E8
330
1F
100
AcDbEntity
  8
LAY-10
  6
CONTINUOUS
 62
     7
100
AcDbLine
 10
226.5999999999708
 20
1136.099980369869
 30
0.0
 11
238.3999999999806
 21
1136.099980369869
 31
0.0
  0
LINE
  5
1E9
330
1F
100
AcDbEntity
  8
LAY-10
  6
CONTINUOUS
 62
     7
100
AcDbLine
 10
226.5999999999708
 20
1136.099980369869
 30
0.0
 11
226.5999999999708
 21
1128.899980369828
 31
0.0
  0
LINE
  5
1EA
330
1F
100
AcDbEntity
  8
LAY-10
  6
CONTINUOUS
 62
     7
100
AcDbLine
 10
226.6000000000008
 20
1128.899980369828
 30
0.0
 11
238.3999999999806
 21
1128.899980369828
 31
0.0
  0
LINE
  5
1EB
330
1F
100
AcDbEntity
  8
LAY-10
  6
CONTINUOUS
 62
     7
100
AcDbLine
 10
238.3999999999806
 20
1136.099980369869
 30
0.0
 11
238.3999999999806
 21
1128.899980369828
 31
0.0
  0
LINE
  5
1EC
330
1F
100
AcDbEntity
  8
LAY-10
  6
CONTINUOUS
 62
     7
100
AcDbLine
 10
238.3999999999806
 20
1136.099980369869
 30
0.0
 11
238.9999999999804
 21
1135.499980369848
 31
0.0
  0
LINE
  5
1ED
330
1F
100
AcDbEntity
  8
LAY-10
  6
CONTINUOUS
 62
     7
100
AcDbLine
 10
238.4000000000005
 20
1128.899980369828
 30
0.0
 11
239.0000000000005
 21
1129.499980369848
 31
0.0
  0
LINE
  5
1EE
330
1F
100
AcDbEntity
  8
LAY-10
  6
CONTINUOUS
 62
     7
100
AcDbLine
 10
226.9999999999804
 20
1136.499980369897
 30
0.0
 11
226.5999999999517
 21
1136.099980369869
 31
0.0
  0
LINE
  5
1EF
330
1F
100
AcDbEntity
  8
LAY-10
  6
CONTINUOUS
 62
     7
100
AcDbLine
 10
226.9999999999804
 20
1128.499980369897
 30
0.0
 11
226.5999999999708
 21
1128.899980369927
 31
0.0
  0
LINE
  5
1F0
330
1F
100
AcDbEntity
  8
LAY-10
  6
CONTINUOUS
 62
     7
100
AcDbLine
 10
238.9999999998804
 20
1135.499980369947
 30
0.0
 11
238.9999999998804
 21
1129.499980369947
 31
0.0
  0
LINE
  5
1F1
330
1F
100
AcDbEntity
  8
LAY-10
  6
CONTINUOUS
 62
     7
100
AcDbLine
 10
226.5999999999708
 20
1116.099980369869
 30
0.0
 11
238.3999999999806
 21
1116.099980369869
 31
0.0
  0
LINE
  5
1F2
330
1F
100
AcDbEntity
  8
LAY-10
  6
CONTINUOUS
 62
     7
100
AcDbLine
 10
226.5999999999708
 20
1116.099980369869
 30
0.0
 11
226.5999999999708
 21
1108.899980369828
 31
0.0
  0
LINE
  5
1F3
330
1F
100
AcDbEntity
  8
LAY-10
  6
CONTINUOUS
 62
     7
100
AcDbLine
 10
226.6000000000008
 20
1108.899980369828
 30
0.0
 11
238.3999999999806
 21
1108.899980369828
 31
0.0
  0
LINE
  5
1F4
330
1F
100
AcDbEntity
  8
LAY-10
  6
CONTINUOUS
 62
     7
100
AcDbLine
 10
238.3999999999806
 20
1116.099980369869
 30
0.0
 11
238.3999999999806
 21
1108.899980369828
 31
0.0
  0
LINE
  5
1F5
330
1F
100
AcDbEntity
  8
LAY-10
  6
CONTINUOUS
 62
     7
100
AcDbLine
 10
238.3999999999806
 20
1116.099980369869
 30
0.0
 11
238.9999999999804
 21
1115.499980369848
 31
0.0
  0
LINE
  5
1F6
330
1F
100
AcDbEntity
  8
LAY-10
  6
CONTINUOUS
 62
     7
100
AcDbLine
 10
238.4000000000005
 20
1108.899980369828
 30
0.0
 11
239.0000000000005
 21
1109.499980369848
 31
0.0
  0
LINE
  5
1F7
330
1F
100
AcDbEntity
  8
LAY-10
  6
CONTINUOUS
 62
     7
100
AcDbLine
 10
226.9999999999804
 20
1116.499980369897
 30
0.0
 11
226.5999999998917
 21
1116.099980369869
 31
0.0
  0
LINE
  5
1F8
330
1F
100
AcDbEntity
  8
LAY-10
  6
CONTINUOUS
 62
     7
100
AcDbLine
 10
226.9999999999804
 20
1108.499980369897
 30
0.0
 11
226.5999999999708
 21
1108.899980369847
 31
0.0
  0
LINE
  5
1F9
330
1F
100
AcDbEntity
  8
LAY-10
  6
CONTINUOUS
 62
     7
100
AcDbLine
 10
322.3542486890742
 20
1115.499980370045
 30
0.0
 11
238.9999999997835
 21
1115.499980370045
 31
0.0
  0
LINE
  5
1FA
330
1F
100
AcDbEntity
  8
LAY-10
  6
CONTINUOUS
 62
     7
100
AcDbLine
 10
322.3542486890746
 20
1109.499980369748
 30
0.0
 11
238.9999999999004
 21
1109.499980369748
 31
0.0
  0
LINE
  5
1FB
330
1F
100
AcDbEntity
  8
LAY-10
  6
CONTINUOUS
 62
     7
100
AcDbLine
 10
238.9999999997804
 20
1115.499980370047
 30
0.0
 11
238.9999999997804
 21
1109.499980369748
 31
0.0
  0
LINE
  5
1FC
330
1F
100
AcDbEntity
  8
LAY-10
  6
CONTINUOUS
 62
     7
100
AcDbLine
 10
226.5999999999708
 20
1096.099980369869
 30
0.0
 11
238.3999999999806
 21
1096.099980369869
 31
0.0
  0
LINE
  5
1FD
330
1F
100
AcDbEntity
  8
LAY-10
  6
CONTINUOUS
 62
     7
100
AcDbLine
 10
226.5999999999708
 20
1096.099980369869
 30
0.0
 11
226.5999999999708
 21
1088.899980369828
 31
0.0
  0
LINE
  5
1FE
330
1F
100
AcDbEntity
  8
LAY-10
  6
CONTINUOUS
 62
     7
100
AcDbLine
 10
226.6000000000008
 20
1088.899980369828
 30
0.0
 11
238.3999999999806
 21
1088.899980369828
 31
0.0
  0
LINE
  5
1FF
330
1F
100
AcDbEntity
  8
LAY-10
  6
CONTINUOUS
 62
     7
100
AcDbLine
 10
238.3999999999806
 20
1096.099980369869
 30
0.0
 11
238.3999999999806
 21
1088.899980369828
 31
0.0
  0
LINE
  5
200
330
1F
100
AcDbEntity
  8
LAY-10
  6
CONTINUOUS
 62
     7
100
AcDbLine
 10
238.3999999999806
 20
1096.099980369869
 30
0.0
 11
238.9999999999804
 21
1095.499980369848
 31
0.0
  0
LINE
  5
201
330
1F
100
AcDbEntity
  8
LAY-10
  6
CONTINUOUS
 62
     7
100
AcDbLine
 10
238.4000000000005
 20
1088.899980369828
 30
0.0
 11
239.0000000000005
 21
1089.499980369848
 31
0.0
  0
LINE
  5
202
330
1F
100
AcDbEntity
  8
LAY-10
  6
CONTINUOUS
 62
     7
100
AcDbLine
 10
226.9999999999804
 20
1096.499980369897
 30
0.0
 11
226.5999999999708
 21
1096.099980369867
 31
0.0
  0
LINE
  5
203
330
1F
100
AcDbEntity
  8
LAY-10
  6
CONTINUOUS
 62
     7
100
AcDbLine
 10
226.9999999999804
 20
1088.499980369797
 30
0.0
 11
226.599999999969
 21
1088.899980369828
 31
0.0
  0
LINE
  5
204
330
1F
100
AcDbEntity
  8
LAY-10
  6
CONTINUOUS
 62
     7
100
AcDbLine
 10
238.9999999999804
 20
1095.499980369847
 30
0.0
 11
238.9999999999804
 21
1089.499980369849
 31
0.0
  0
LINE
  5
205
330
1F
100
AcDbEntity
  8
LAY-10
  6
CONTINUOUS
 62
     7
100
AcDbLine
 10
1223.39999999999
 20
1088.899980369825
 30
0.0
 11
1211.59999999998
 21
1088.899980369825
 31
0.0
  0
LINE
  5
206
330
1F
100
AcDbEntity
  8
LAY-10
  6
CONTINUOUS
 62
     7
100
AcDbLine
 10
1223.39999999999
 20
1088.899980369825
 30
0.0
 11
1223.39999999999
 21
1096.099980369866
 31
0.0
  0
LINE
  5
207
330
1F
100
AcDbEntity
  8
LAY-10
  6
CONTINUOUS
 62
     7
100
AcDbLine
 10
1223.39999999996
 20
1096.099980369865
 30
0.0
 11
1211.59999999998
 21
1096.099980369865
 31
0.0
  0
LINE
  5
208
330
1F
100
AcDbEntity
  8
LAY-10
  6
CONTINUOUS
 62
     7
100
AcDbLine
 10
1211.59999999998
 20
1088.899980369825
 30
0.0
 11
1211.59999999998
 21
1096.099980369865
 31
0.0
  0
LINE
  5
209
330
1F
100
AcDbEntity
  8
LAY-10
  6
CONTINUOUS
 62
     7
100
AcDbLine
 10
1211.59999999998
 20
1088.899980369825
 30
0.0
 11
1210.99999999998
 21
1089.499980369845
 31
0.0
  0
LINE
  5
20A
330
1F
100
AcDbEntity
  8
LAY-10
  6
CONTINUOUS
 62
     7
100
AcDbLine
 10
1211.59999999996
 20
1096.099980369865
 30
0.0
 11
1210.99999999996
 21
1095.499980369845
 31
0.0
  0
LINE
  5
20B
330
1F
100
AcDbEntity
  8
LAY-10
  6
CONTINUOUS
 62
     7
100
AcDbLine
 10
1223.39999999999
 20
1108.899980369925
 30
0.0
 11
1211.59999999998
 21
1108.899980369925
 31
0.0
  0
LINE
  5
20C
330
1F
100
AcDbEntity
  8
LAY-10
  6
CONTINUOUS
 62
     7
100
AcDbLine
 10
1223.39999999999
 20
1108.899980369925
 30
0.0
 11
1223.39999999999
 21
1116.099980369966
 31
0.0
  0
LINE
  5
20D
330
1F
100
AcDbEntity
  8
LAY-10
  6
CONTINUOUS
 62
     7
100
AcDbLine
 10
1223.39999999996
 20
1116.099980369965
 30
0.0
 11
1211.59999999998
 21
1116.099980369965
 31
0.0
  0
LINE
  5
20E
330
1F
100
AcDbEntity
  8
LAY-10
  6
CONTINUOUS
 62
     7
100
AcDbLine
 10
1211.59999999998
 20
1108.899980369925
 30
0.0
 11
1211.59999999998
 21
1116.099980369965
 31
0.0
  0
LINE
  5
20F
330
1F
100
AcDbEntity
  8
LAY-10
  6
CONTINUOUS
 62
     7
100
AcDbLine
 10
1211.59999999998
 20
1108.899980369925
 30
0.0
 11
1210.99999999998
 21
1109.499980369945
 31
0.0
  0
LINE
  5
210
330
1F
100
AcDbEntity
  8
LAY-10
  6
CONTINUOUS
 62
     7
100
AcDbLine
 10
1211.59999999996
 20
1116.099980369965
 30
0.0
 11
1210.99999999996
 21
1115.499980369945
 31
0.0
  0
LINE
  5
211
330
1F
100
AcDbEntity
  8
LAY-10
  6
CONTINUOUS
 62
     7
100
AcDbLine
 10
1223.39999999999
 20
1128.899980369925
 30
0.0
 11
1211.59999999998
 21
1128.899980369925
 31
0.0
  0
LINE
  5
212
330
1F
100
AcDbEntity
  8
LAY-10
  6
CONTINUOUS
 62
     7
100
AcDbLine
 10
1223.39999999999
 20
1128.899980369925
 30
0.0
 11
1223.39999999999
 21
1136.099980369966
 31
0.0
  0
LINE
  5
213
330
1F
100
AcDbEntity
  8
LAY-10
  6
CONTINUOUS
 62
     7
100
AcDbLine
 10
1223.39999999996
 20
1136.099980369965
 30
0.0
 11
1211.59999999998
 21
1136.099980369965
 31
0.0
  0
LINE
  5
214
330
1F
100
AcDbEntity
  8
LAY-10
  6
CONTINUOUS
 62
     7
100
AcDbLine
 10
1211.59999999998
 20
1128.899980369925
 30
0.0
 11
1211.59999999998
 21
1136.099980369965
 31
0.0
  0
LINE
  5
215
330
1F
100
AcDbEntity
  8
LAY-10
  6
CONTINUOUS
 62
     7
100
AcDbLine
 10
1211.59999999998
 20
1128.899980369925
 30
0.0
 11
1210.99999999998
 21
1129.499980369945
 31
0.0
  0
LINE
  5
216
330
1F
100
AcDbEntity
  8
LAY-10
  6
CONTINUOUS
 62
     7
100
AcDbLine
 10
1211.59999999996
 20
1136.099980369965
 30
0.0
 11
1210.99999999996
 21
1135.499980369945
 31
0.0
  0
LINE
  5
217
330
1F
100
AcDbEntity
  8
LAY-10
  6
CONTINUOUS
 62
     7
100
AcDbLine
 10
1222.99999999998
 20
1136.499980369897
 30
0.0
 11
1223.39999999999
 21
1136.099980369887
 31
0.0
  0
LINE
  5
218
330
1F
100
AcDbEntity
  8
LAY-10
  6
CONTINUOUS
 62
     7
100
AcDbLine
 10
1222.99999999998
 20
1128.499980369897
 30
0.0
 11
1223.39999999999
 21
1128.899980369927
 31
0.0
  0
LINE
  5
219
330
1F
100
AcDbEntity
  8
LAY-10
  6
CONTINUOUS
 62
     7
100
AcDbLine
 10
1222.99999999998
 20
1108.499980369897
 30
0.0
 11
1223.400000000008
 21
1108.899980369925
 31
0.0
  0
LINE
  5
21A
330
1F
100
AcDbEntity
  8
LAY-10
  6
CONTINUOUS
 62
     7
100
AcDbLine
 10
1222.99999999998
 20
1116.499980369897
 30
0.0
 11
1223.39999999999
 21
1116.099980369947
 31
0.0
  0
LINE
  5
21B
330
1F
100
AcDbEntity
  8
LAY-10
  6
CONTINUOUS
 62
     7
100
AcDbLine
 10
1211.000000000177
 20
1109.499980369748
 30
0.0
 11
1127.645751310888
 21
1109.499980369748
 31
0.0
  0
LINE
  5
21C
330
1F
100
AcDbEntity
  8
LAY-10
  6
CONTINUOUS
 62
     7
100
AcDbLine
 10
1211.00000000006
 20
1115.499980370045
 30
0.0
 11
1127.645751310888
 21
1115.499980370045
 31
0.0
  0
LINE
  5
21D
330
1F
100
AcDbEntity
  8
LAY-10
  6
CONTINUOUS
 62
     7
100
AcDbLine
 10
1222.99999999998
 20
1088.499980369797
 30
0.0
 11
1223.39999999999
 21
1088.899980369827
 31
0.0
  0
LINE
  5
21E
330
1F
100
AcDbEntity
  8
LAY-10
  6
CONTINUOUS
 62
     7
100
AcDbLine
 10
1222.99999999998
 20
1096.499980369897
 30
0.0
 11
1223.399999999992
 21
1096.099980369865
 31
0.0
  0
LINE
  5
21F
330
1F
100
AcDbEntity
  8
LAY-10
  6
CONTINUOUS
 62
     7
100
AcDbLine
 10
1210.99999999996
 20
1135.499980369947
 30
0.0
 11
1210.99999999996
 21
1129.499980369947
 31
0.0
  0
LINE
  5
220
330
1F
100
AcDbEntity
  8
LAY-10
  6
CONTINUOUS
 62
     7
100
AcDbLine
 10
1210.99999999996
 20
1115.499980369947
 30
0.0
 11
1210.99999999996
 21
1109.499980369748
 31
0.0
  0
LINE
  5
221
330
1F
100
AcDbEntity
  8
LAY-10
  6
CONTINUOUS
 62
     7
100
AcDbLine
 10
1210.99999999996
 20
1095.499980369847
 30
0.0
 11
1210.99999999996
 21
1089.499980369849
 31
0.0
  0
LINE
  5
222
330
1F
100
AcDbEntity
  8
LAY-10
  6
CONTINUOUS
 62
     7
100
AcDbLine
 10
630.9999999999804
 20
1129.499980369947
 30
0.0
 11
630.9999999999804
 21
1135.499980369947
 31
0.0
  0
LINE
  5
223
330
1F
100
AcDbEntity
  8
LAY-10
  6
CONTINUOUS
 62
     7
100
AcDbLine
 10
618.9999999999804
 20
1109.499980370047
 30
0.0
 11
618.9999999999804
 21
1115.499980370047
 31
0.0
  0
LINE
  5
224
330
1F
100
AcDbEntity
  8
LAY-10
  6
CONTINUOUS
 62
     7
100
AcDbLine
 10
830.9999999999804
 20
1129.499980369947
 30
0.0
 11
830.9999999999804
 21
1135.499980369947
 31
0.0
  0
LINE
  5
225
330
1F
100
AcDbEntity
  8
LAY-10
  6
CONTINUOUS
 62
     7
100
AcDbLine
 10
818.9999999999804
 20
1109.499980370047
 30
0.0
 11
818.9999999999804
 21
1115.499980370047
 31
0.0
  0
LINE
  5
226
330
1F
100
AcDbEntity
  8
LAY-10
  6
CONTINUOUS
 62
     7
100
AcDbLine
 10
1030.99999999998
 20
1129.499980369947
 30
0.0
 11
1030.99999999998
 21
1135.499980369947
 31
0.0
  0
LINE
  5
227
330
1F
100
AcDbEntity
  8
LAY-10
  6
CONTINUOUS
 62
     7
100
AcDbLine
 10
1018.99999999998
 20
1109.499980370047
 30
0.0
 11
1018.99999999998
 21
1115.499980370047
 31
0.0
  0
LINE
  5
228
330
1F
100
AcDbEntity
  8
LAY-10
  6
CONTINUOUS
 62
     7
100
AcDbLine
 10
225.9999999999809
 20
1149.499980369847
 30
0.0
 11
225.9999999999809
 21
1075.499980369945
 31
0.0
  0
LINE
  5
229
330
1F
100
AcDbEntity
  8
LAY-10
  6
CONTINUOUS
 62
     7
100
AcDbLine
 10
1223.99999999998
 20
1149.499980369847
 30
0.0
 11
1223.99999999998
 21
1075.499980369945
 31
0.0
  0
LINE
  5
22A
330
1F
100
AcDbEntity
  8
LAY-10
  6
CONTINUOUS
 62
     7
100
AcDbLine
 10
1210.99999999996
 20
1129.499980369947
 30
0.0
 11
239.0000000000987
 21
1129.499980369947
 31
0.0
  0
LINE
  5
22B
330
1F
100
AcDbEntity
  8
LAY-10
  6
CONTINUOUS
 62
     7
100
AcDbLine
 10
522.3542486890537
 20
1115.499980370045
 30
0.0
 11
327.6457513108671
 21
1115.499980370045
 31
0.0
  0
LINE
  5
22C
330
1F
100
AcDbEntity
  8
LAY-10
  6
CONTINUOUS
 62
     7
100
AcDbLine
 10
522.3542486890542
 20
1109.499980369748
 30
0.0
 11
327.6457513108662
 21
1109.499980369748
 31
0.0
  0
LINE
  5
22D
330
1F
100
AcDbEntity
  8
LAY-10
  6
CONTINUOUS
 62
     7
100
AcDbLine
 10
1122.354248689095
 20
1115.499980370045
 30
0.0
 11
927.6457513109076
 21
1115.499980370045
 31
0.0
  0
LINE
  5
22E
330
1F
100
AcDbEntity
  8
LAY-10
  6
CONTINUOUS
 62
     7
100
AcDbLine
 10
1122.354248689095
 20
1109.499980369748
 30
0.0
 11
927.6457513109076
 21
1109.499980369748
 31
0.0
  0
LINE
  5
22F
330
1F
100
AcDbEntity
  8
LAY-10
  6
CONTINUOUS
 62
     7
100
AcDbLine
 10
1210.99999999996
 20
1095.499980369847
 30
0.0
 11
238.9999999999823
 21
1095.499980369847
 31
0.0
  0
LINE
  5
230
330
1F
100
AcDbEntity
  8
LAY-10
  6
CONTINUOUS
 62
     7
100
AcDbLine
 10
727.6457513112155
 20
1115.499980369746
 30
0.0
 11
922.3542486887768
 21
1115.499980369746
 31
0.0
  0
LINE
  5
231
330
1F
100
AcDbEntity
  8
LAY-10
  6
CONTINUOUS
 62
     7
100
AcDbLine
 10
727.6457513108753
 20
1109.499980369746
 30
0.0
 11
922.3542486891171
 21
1109.499980369746
 31
0.0
  0
LINE
  5
232
330
1F
100
AcDbEntity
  8
LAY-10
  6
CONTINUOUS
 62
     7
100
AcDbLine
 10
722.3542486890842
 20
1115.499980370045
 30
0.0
 11
527.6457513108467
 21
1115.499980370045
 31
0.0
  0
LINE
  5
233
330
1F
100
AcDbEntity
  8
LAY-10
  6
CONTINUOUS
 62
     7
100
AcDbLine
 10
722.3542486890847
 20
1109.499980369748
 30
0.0
 11
527.6457513108467
 21
1109.499980369748
 31
0.0
  0
CIRCLE
  5
234
330
1F
100
AcDbEntity
  8
LAY-10
  6
CONTINUOUS
 62
     7
100
AcDbCircle
 10
1125.000000000222
 20
1134.999980369886
 30
0.0
 40
2.3
  0
CIRCLE
  5
235
330
1F
100
AcDbEntity
  8
LAY-10
  6
CONTINUOUS
 62
     7
100
AcDbCircle
 10
1125.000000000222
 20
1089.999980369908
 30
0.0
 40
2.3
  0
CIRCLE
  5
236
330
1F
100
AcDbEntity
  8
LAY-10
  6
CONTINUOUS
 62
     7
100
AcDbCircle
 10
925.000000000472
 20
1134.999980369886
 30
0.0
 40
2.3
  0
CIRCLE
  5
237
330
1F
100
AcDbEntity
  8
LAY-10
  6
CONTINUOUS
 62
     7
100
AcDbCircle
 10
925.000000000472
 20
1089.999980369908
 30
0.0
 40
2.3
  0
CIRCLE
  5
238
330
1F
100
AcDbEntity
  8
LAY-10
  6
CONTINUOUS
 62
     7
100
AcDbCircle
 10
725.0000000002118
 20
1134.999980369886
 30
0.0
 40
2.3
  0
CIRCLE
  5
239
330
1F
100
AcDbEntity
  8
LAY-10
  6
CONTINUOUS
 62
     7
100
AcDbCircle
 10
725.0000000002118
 20
1089.999980369908
 30
0.0
 40
2.3
  0
CIRCLE
  5
23A
330
1F
100
AcDbEntity
  8
LAY-10
  6
CONTINUOUS
 62
     7
100
AcDbCircle
 10
525.0000000001819
 20
1134.999980369886
 30
0.0
 40
2.3
  0
CIRCLE
  5
23B
330
1F
100
AcDbEntity
  8
LAY-10
  6
CONTINUOUS
 62
     7
100
AcDbCircle
 10
525.0000000001819
 20
1089.999980369908
 30
0.0
 40
2.3
  0
CIRCLE
  5
23C
330
1F
100
AcDbEntity
  8
LAY-10
  6
CONTINUOUS
 62
     7
100
AcDbCircle
 10
325.0000000002019
 20
1134.999980369886
 30
0.0
 40
2.3
  0
CIRCLE
  5
23D
330
1F
100
AcDbEntity
  8
LAY-10
  6
CONTINUOUS
 62
     7
100
AcDbCircle
 10
325.0000000002019
 20
1089.999980369908
 30
0.0
 40
2.3
  0
LINE
  5
23E
330
1F
100
AcDbEntity
  8
LAY-10
  6
CONTINUOUS
 62
     7
100
AcDbLine
 10
226.9999999999804
 20
1136.499980369945
 30
0.0
 11
323.2564404228356
 21
1136.499980369945
 31
0.0
  0
LINE
  5
23F
330
1F
100
AcDbEntity
  8
LAY-10
  6
CONTINUOUS
 62
     7
100
AcDbLine
 10
322.7550055681504
 20
1135.499980369945
 30
0.0
 11
238.999999999884
 21
1135.499980369945
 31
0.0
  0
LINE
  5
240
330
1F
100
AcDbEntity
  8
LAY-10
  6
CONTINUOUS
 62
     7
100
AcDbLine
 10
323.2564404228801
 20
1088.499980369798
 30
0.0
 11
226.9999999999804
 21
1088.499980369798
 31
0.0
  0
LINE
  5
241
330
1F
100
AcDbEntity
  8
LAY-10
  6
CONTINUOUS
 62
     7
100
AcDbLine
 10
322.7550055681509
 20
1089.499980369849
 30
0.0
 11
239.0000000000014
 21
1089.499980369849
 31
0.0
  0
LINE
  5
242
330
1F
100
AcDbEntity
  8
LAY-10
  6
CONTINUOUS
 62
     7
100
AcDbLine
 10
326.7435595775678
 20
1136.499980369945
 30
0.0
 11
523.2564404228156
 21
1136.499980369945
 31
0.0
  0
LINE
  5
243
330
1F
100
AcDbEntity
  8
LAY-10
  6
CONTINUOUS
 62
     7
100
AcDbLine
 10
522.7550055681304
 20
1135.499980369945
 30
0.0
 11
327.244994432253
 21
1135.499980369945
 31
0.0
  0
LINE
  5
244
330
1F
100
AcDbEntity
  8
LAY-10
  6
CONTINUOUS
 62
     7
100
AcDbLine
 10
523.2564404228601
 20
1088.499980369798
 30
0.0
 11
326.7435595775237
 21
1088.499980369798
 31
0.0
  0
LINE
  5
245
330
1F
100
AcDbEntity
  8
LAY-10
  6
CONTINUOUS
 62
     7
100
AcDbLine
 10
522.7550055681309
 20
1089.499980369849
 30
0.0
 11
327.244994432253
 21
1089.499980369849
 31
0.0
  0
LINE
  5
246
330
1F
100
AcDbEntity
  8
LAY-10
  6
CONTINUOUS
 62
     7
100
AcDbLine
 10
723.2564404228901
 20
1088.499980369798
 30
0.0
 11
526.7435595775037
 21
1088.499980369798
 31
0.0
  0
LINE
  5
247
330
1F
100
AcDbEntity
  8
LAY-10
  6
CONTINUOUS
 62
     7
100
AcDbLine
 10
722.7550055681608
 20
1089.499980369849
 30
0.0
 11
527.2449944322329
 21
1089.499980369849
 31
0.0
  0
LINE
  5
248
330
1F
100
AcDbEntity
  8
LAY-10
  6
CONTINUOUS
 62
     7
100
AcDbLine
 10
526.7435595775478
 20
1136.499980369945
 30
0.0
 11
723.256440422846
 21
1136.499980369945
 31
0.0
  0
LINE
  5
249
330
1F
100
AcDbEntity
  8
LAY-10
  6
CONTINUOUS
 62
     7
100
AcDbLine
 10
722.7550055681608
 20
1135.499980369945
 30
0.0
 11
527.2449944322329
 21
1135.499980369945
 31
0.0
  0
LINE
  5
24A
330
1F
100
AcDbEntity
  8
LAY-10
  6
CONTINUOUS
 62
     7
100
AcDbLine
 10
726.7435595775778
 20
1136.499980369945
 30
0.0
 11
923.2564404231057
 21
1136.499980369945
 31
0.0
  0
LINE
  5
24B
330
1F
100
AcDbEntity
  8
LAY-10
  6
CONTINUOUS
 62
     7
100
AcDbLine
 10
922.7550055684205
 20
1135.499980369945
 30
0.0
 11
727.2449944322628
 21
1135.499980369945
 31
0.0
  0
LINE
  5
24C
330
1F
100
AcDbEntity
  8
LAY-10
  6
CONTINUOUS
 62
     7
100
AcDbLine
 10
923.2564404231503
 20
1088.499980369798
 30
0.0
 11
726.7435595775337
 21
1088.499980369798
 31
0.0
  0
LINE
  5
24D
330
1F
100
AcDbEntity
  8
LAY-10
  6
CONTINUOUS
 62
     7
100
AcDbLine
 10
922.7550055684205
 20
1089.499980369849
 30
0.0
 11
727.2449944322628
 21
1089.499980369849
 31
0.0
  0
LINE
  5
24E
330
1F
100
AcDbEntity
  8
LAY-10
  6
CONTINUOUS
 62
     7
100
AcDbLine
 10
1222.99999999998
 20
1088.499980369798
 30
0.0
 11
1126.743559577544
 21
1088.499980369798
 31
0.0
  0
LINE
  5
24F
330
1F
100
AcDbEntity
  8
LAY-10
  6
CONTINUOUS
 62
     7
100
AcDbLine
 10
1123.2564404229
 20
1088.499980369798
 30
0.0
 11
926.7435595777938
 21
1088.499980369798
 31
0.0
  0
LINE
  5
250
330
1F
100
AcDbEntity
  8
LAY-10
  6
CONTINUOUS
 62
     7
100
AcDbLine
 10
1122.755005568171
 20
1089.499980369849
 30
0.0
 11
927.2449944325231
 21
1089.499980369849
 31
0.0
  0
LINE
  5
251
330
1F
100
AcDbEntity
  8
LAY-10
  6
CONTINUOUS
 62
     7
100
AcDbLine
 10
1210.99999999996
 20
1089.499980369849
 30
0.0
 11
1127.244994432273
 21
1089.499980369849
 31
0.0
  0
LINE
  5
252
330
1F
100
AcDbEntity
  8
LAY-10
  6
CONTINUOUS
 62
     7
100
AcDbLine
 10
1126.743559577588
 20
1136.499980369945
 30
0.0
 11
1222.99999999998
 21
1136.499980369945
 31
0.0
  0
LINE
  5
253
330
1F
100
AcDbEntity
  8
LAY-10
  6
CONTINUOUS
 62
     7
100
AcDbLine
 10
926.743559577838
 20
1136.499980369945
 30
0.0
 11
1123.256440422856
 21
1136.499980369945
 31
0.0
  0
LINE
  5
254
330
1F
100
AcDbEntity
  8
LAY-10
  6
CONTINUOUS
 62
     7
100
AcDbLine
 10
1122.755005568171
 20
1135.499980369945
 30
0.0
 11
927.2449944325231
 21
1135.499980369945
 31
0.0
  0
LINE
  5
255
330
1F
100
AcDbEntity
  8
LAY-10
  6
CONTINUOUS
 62
     7
100
AcDbLine
 10
1210.99999999996
 20
1135.499980369945
 30
0.0
 11
1127.244994432273
 21
1135.499980369945
 31
0.0
  0
LINE
  5
256
330
1F
100
AcDbEntity
  8
LAY-10
  6
CONTINUOUS
 62
     7
100
AcDbLine
 10
1374.999999999973
 20
1068.997416355729
 30
0.0
 11
1374.999999999973
 21
1073.497416355729
 31
0.0
  0
LINE
  5
257
330
1F
100
AcDbEntity
  8
LAY-10
  6
CONTINUOUS
 62
     7
100
AcDbLine
 10
1374.999999999973
 20
1156.000000000149
 30
0.0
 11
1374.999999999973
 21
1151.500000000149
 31
0.0
  0
LINE
  5
258
330
1F
100
AcDbEntity
  8
LAY-10
  6
CONTINUOUS
 62
     7
100
AcDbLine
 10
1401.997114317034
 20
1115.49870817793
 30
0.0
 11
1408.999999999997
 21
1115.49870817793
 31
0.0
  0
LINE
  5
259
330
1F
100
AcDbEntity
  8
LAY-10
  6
CONTINUOUS
 62
     7
100
AcDbLine
 10
1401.997114317034
 20
1109.49870817793
 30
0.0
 11
1408.999999999997
 21
1109.49870817793
 31
0.0
  0
LINE
  5
25A
330
1F
100
AcDbEntity
  8
LAY-10
  6
CONTINUOUS
 62
     7
100
AcDbLine
 10
1401.997114317034
 20
1102.49870817793
 30
0.0
 11
1401.997114317034
 21
1122.498708178104
 31
0.0
  0
LINE
  5
25B
330
1F
100
AcDbEntity
  8
LAY-10
  6
CONTINUOUS
 62
     7
100
AcDbLine
 10
1396.997114317034
 20
1141.357067918078
 30
0.0
 11
1396.997114317034
 21
1138.49870817793
 31
0.0
  0
LINE
  5
25C
330
1F
100
AcDbEntity
  8
LAY-10
  6
CONTINUOUS
 62
     7
100
AcDbLine
 10
1408.999999999997
 20
1098.49870817793
 30
0.0
 11
1397.169711451782
 21
1098.49870817793
 31
0.0
  0
LINE
  5
25D
330
1F
100
AcDbEntity
  8
LAY-10
  6
CONTINUOUS
 62
     7
100
AcDbLine
 10
1419.978616041775
 20
1098.49870817793
 30
0.0
 11
1412.99711431704
 21
1098.49870817793
 31
0.0
  0
LINE
  5
25E
330
1F
100
AcDbEntity
  8
LAY-10
  6
CONTINUOUS
 62
     7
100
AcDbLine
 10
1412.99711431704
 20
1086.49870817793
 30
0.0
 11
1419.967793805396
 21
1086.49870817793
 31
0.0
  0
LINE
  5
25F
330
1F
100
AcDbEntity
  8
LAY-10
  6
CONTINUOUS
 62
     7
100
AcDbLine
 10
1399.730045018073
 20
1086.49870817793
 30
0.0
 11
1408.999999999997
 21
1086.49870817793
 31
0.0
  0
ARC
  5
260
330
1F
100
AcDbEntity
  8
LAY-10
  6
CONTINUOUS
 62
     7
100
AcDbCircle
 10
1397.909606189592
 20
1086.898708177931
 30
0.0
 40
1.9
100
AcDbArc
 50
270.0
 51
342.1256432009552
  0
ARC
  5
261
330
1F
100
AcDbEntity
  8
LAY-10
  6
CONTINUOUS
 62
     7
100
AcDbCircle
 10
1388.297114317034
 20
1089.99870817793
 30
0.0
 40
12.0
100
AcDbArc
 50
342.1256432009546
 51
357.1340160174004
  0
LINE
  5
262
330
1F
100
AcDbEntity
  8
LAY-10
  6
CONTINUOUS
 62
     7
100
AcDbLine
 10
1397.909606189592
 20
1084.99870817793
 30
0.0
 11
1396.997114317034
 21
1084.99870817793
 31
0.0
  0
ARC
  5
263
330
1F
100
AcDbEntity
  8
LAY-10
  6
CONTINUOUS
 62
     7
100
AcDbCircle
 10
1397.909606189592
 20
1093.098708177932
 30
0.0
 40
1.9
100
AcDbArc
 50
17.8743567990519
 51
90.00000000000001
  0
LINE
  5
264
330
1F
100
AcDbEntity
  8
LAY-10
  6
CONTINUOUS
 62
     7
100
AcDbLine
 10
1397.909606189592
 20
1094.99870817793
 30
0.0
 11
1396.997114317034
 21
1094.99870817793
 31
0.0
  0
ARC
  5
265
330
1F
100
AcDbEntity
  8
LAY-10
  6
CONTINUOUS
 62
     7
100
AcDbCircle
 10
1388.297114317034
 20
1089.99870817793
 30
0.0
 40
12.0
100
AcDbArc
 50
2.865983982599606
 51
17.87435679905081
  0
LINE
  5
266
330
1F
100
AcDbEntity
  8
LAY-10
  6
CONTINUOUS
 62
     7
100
AcDbLine
 10
1420.997114317038
 20
1087.528028689569
 30
0.0
 11
1419.967793805396
 21
1086.49870817793
 31
0.0
  0
LINE
  5
267
330
1F
100
AcDbEntity
  8
LAY-10
  6
CONTINUOUS
 62
     7
100
AcDbLine
 10
1419.978616041776
 20
1098.498708177926
 30
0.0
 11
1420.997114317038
 21
1097.480209902664
 31
0.0
  0
LINE
  5
268
330
1F
100
AcDbEntity
  8
LAY-10
  6
CONTINUOUS
 62
     7
100
AcDbLine
 10
1420.997114317038
 20
1087.528028689573
 30
0.0
 11
1420.997114317038
 21
1097.480209902664
 31
0.0
  0
LINE
  5
269
330
1F
100
AcDbEntity
  8
LAY-10
  6
CONTINUOUS
 62
     7
100
AcDbLine
 10
1420.997114317038
 20
1097.480209902664
 30
0.0
 11
1420.997114317038
 21
1087.528028689573
 31
0.0
  0
LINE
  5
26A
330
1F
100
AcDbEntity
  8
LAY-10
  6
CONTINUOUS
 62
     7
100
AcDbLine
 10
1420.997114317038
 20
1087.528028689573
 30
0.0
 11
1420.997114317038
 21
1097.480209902664
 31
0.0
  0
LINE
  5
26B
330
1F
100
AcDbEntity
  8
LAY-10
  6
CONTINUOUS
 62
     7
100
AcDbLine
 10
1419.978616041776
 20
1098.498708177926
 30
0.0
 11
1420.997114317038
 21
1097.480209902664
 31
0.0
  0
LINE
  5
26C
330
1F
100
AcDbEntity
  8
LAY-10
  6
CONTINUOUS
 62
     7
100
AcDbLine
 10
1420.997114317038
 20
1087.528028689569
 30
0.0
 11
1419.967793805396
 21
1086.49870817793
 31
0.0
  0
LINE
  5
26D
330
1F
100
AcDbEntity
  8
LAY-10
  6
CONTINUOUS
 62
     7
100
AcDbLine
 10
1396.997114317034
 20
1094.49870817793
 30
0.0
 11
1396.997114317034
 21
1085.49870817793
 31
0.0
  0
LINE
  5
26E
330
1F
100
AcDbEntity
  8
LAY-10
  6
CONTINUOUS
 62
     7
100
AcDbLine
 10
1400.282104930296
 20
1089.398708177927
 30
0.0
 11
1398.697114317033
 21
1089.398708177927
 31
0.0
  0
LINE
  5
26F
330
1F
100
AcDbEntity
  8
LAY-10
  6
CONTINUOUS
 62
     7
100
AcDbLine
 10
1400.282104930296
 20
1090.598708177928
 30
0.0
 11
1398.697114317033
 21
1090.598708177928
 31
0.0
  0
LINE
  5
270
330
1F
100
AcDbEntity
  8
LAY-10
  6
CONTINUOUS
 62
     7
100
AcDbLine
 10
1398.697114317033
 20
1089.398708177927
 30
0.0
 11
1398.697114317033
 21
1090.598708177928
 31
0.0
  0
ARC
  5
271
330
1F
100
AcDbEntity
  8
LAY-10
  6
CONTINUOUS
 62
     7
100
AcDbCircle
 10
1398.497114317034
 20
1097.800137041021
 30
0.0
 40
1.5
100
AcDbArc
 50
120.9637565320733
 51
180.0000000000001
  0
LINE
  5
272
330
1F
100
AcDbEntity
  8
LAY-10
  6
CONTINUOUS
 62
     7
100
AcDbLine
 10
1394.997114317034
 20
1141.248551606048
 30
0.0
 11
1394.997114317034
 21
1083.748864749803
 31
0.0
  0
LINE
  5
273
330
1F
100
AcDbEntity
  8
LAY-10
  6
CONTINUOUS
 62
     7
100
AcDbLine
 10
1380.000000000008
 20
1127.476362827103
 30
0.0
 11
1380.000000000008
 21
1137.593197629602
 31
0.0
  0
LINE
  5
274
330
1F
100
AcDbEntity
  8
LAY-10
  6
CONTINUOUS
 62
     7
100
AcDbLine
 10
1392.261467228255
 20
1125.487292272301
 30
0.0
 11
1380.912844257252
 21
1126.480168129005
 31
0.0
  0
ARC
  5
275
330
1F
100
AcDbEntity
  8
LAY-10
  6
CONTINUOUS
 62
     7
100
AcDbCircle
 10
1381.000000000008
 20
1127.476362827096
 30
0.0
 40
1.0
100
AcDbArc
 50
180.0000000000001
 51
264.9999999994349
  0
ARC
  5
276
330
1F
100
AcDbEntity
  8
LAY-10
  6
CONTINUOUS
 62
     7
100
AcDbCircle
 10
1383.000000000008
 20
1137.593197629722
 30
0.0
 40
3.000000000000003
100
AcDbArc
 50
93.10571804253416
 51
180.0000000000001
  0
LINE
  5
277
330
1F
100
AcDbEntity
  8
LAY-10
  6
CONTINUOUS
 62
     7
100
AcDbLine
 10
1382.837464603957
 20
1140.588791434835
 30
0.0
 11
1399.032241294009
 21
1141.467490155101
 31
0.0
  0
ARC
  5
278
330
1F
100
AcDbEntity
  8
LAY-10
  6
CONTINUOUS
 62
     7
100
AcDbCircle
 10
1392.000000000008
 20
1122.498708178028
 30
0.0
 40
3.000000000000003
100
AcDbArc
 50
274.9999999999999
 51
84.99999999932946
  0
ARC
  5
279
330
1F
100
AcDbEntity
  8
LAY-10
  6
CONTINUOUS
 62
     7
100
AcDbCircle
 10
1388.297114317034
 20
1134.998708177922
 30
0.0
 40
12.0
100
AcDbArc
 50
16.95776330003925
 51
17.87435679904559
  0
LINE
  5
27A
330
1F
100
AcDbEntity
  8
LAY-10
  6
CONTINUOUS
 62
     7
100
AcDbLine
 10
1412.99711431704
 20
1138.49870817793
 30
0.0
 11
1412.99711431704
 21
1147.498708178104
 31
0.0
  0
LINE
  5
27B
330
1F
100
AcDbEntity
  8
LAY-10
  6
CONTINUOUS
 62
     7
100
AcDbLine
 10
1412.99711431704
 20
1077.498708177926
 30
0.0
 11
1412.99711431704
 21
1126.49870817793
 31
0.0
  0
LINE
  5
27C
330
1F
100
AcDbEntity
  8
LAY-10
  6
CONTINUOUS
 62
     7
100
AcDbLine
 10
1408.999999999997
 20
1126.49870817793
 30
0.0
 11
1408.999999999997
 21
1073.49741635572
 31
0.0
  0
LINE
  5
27D
330
1F
100
AcDbEntity
  8
LAY-10
  6
CONTINUOUS
 62
     7
100
AcDbLine
 10
1408.999999999997
 20
1151.500000000161
 30
0.0
 11
1408.999999999997
 21
1138.49870817793
 31
0.0
  0
LINE
  5
27E
330
1F
100
AcDbEntity
  8
LAY-10
  6
CONTINUOUS
 62
     7
100
AcDbLine
 10
1420.997114317038
 20
1127.517206453195
 30
0.0
 11
1420.997114317038
 21
1137.469387666286
 31
0.0
  0
LINE
  5
27F
330
1F
100
AcDbEntity
  8
LAY-10
  6
CONTINUOUS
 62
     7
100
AcDbLine
 10
1419.978616041776
 20
1126.498708177933
 30
0.0
 11
1420.997114317038
 21
1127.517206453195
 31
0.0
  0
LINE
  5
280
330
1F
100
AcDbEntity
  8
LAY-10
  6
CONTINUOUS
 62
     7
100
AcDbLine
 10
1420.997114317038
 20
1137.469387666286
 30
0.0
 11
1419.967793805396
 21
1138.49870817793
 31
0.0
  0
LINE
  5
281
330
1F
100
AcDbEntity
  8
LAY-10
  6
CONTINUOUS
 62
     7
100
AcDbLine
 10
1412.99711431704
 20
1115.49870817793
 30
0.0
 11
1421.197114317039
 21
1115.49870817793
 31
0.0
  0
LINE
  5
282
330
1F
100
AcDbEntity
  8
LAY-10
  6
CONTINUOUS
 62
     7
100
AcDbLine
 10
1412.99711431704
 20
1109.49870817793
 30
0.0
 11
1421.197114317039
 21
1109.49870817793
 31
0.0
  0
LINE
  5
283
330
1F
100
AcDbEntity
  8
LAY-10
  6
CONTINUOUS
 62
     7
100
AcDbLine
 10
1396.997114317034
 20
1083.640348437774
 30
0.0
 11
1396.997114317034
 21
1097.800137041021
 31
0.0
  0
ARC
  5
284
330
1F
100
AcDbEntity
  8
LAY-10
  6
CONTINUOUS
 62
     7
100
AcDbCircle
 10
1392.000000000008
 20
1102.498708177824
 30
0.0
 40
3.000000000000003
100
AcDbArc
 50
275.0000000004268
 51
85.00000000000028
  0
ARC
  5
285
330
1F
100
AcDbEntity
  8
LAY-10
  6
CONTINUOUS
 62
     7
100
AcDbCircle
 10
1381.000000000008
 20
1097.521053528756
 30
0.0
 40
1.0
100
AcDbArc
 50
95.00000000056534
 51
180.0000000000001
  0
LINE
  5
286
330
1F
100
AcDbEntity
  8
LAY-10
  6
CONTINUOUS
 62
     7
100
AcDbLine
 10
1392.261467228255
 20
1099.510124083551
 30
0.0
 11
1380.912844257252
 21
1098.517248226847
 31
0.0
  0
ARC
  5
287
330
1F
100
AcDbEntity
  8
LAY-10
  6
CONTINUOUS
 62
     7
100
AcDbCircle
 10
1383.000000000008
 20
1087.40421872613
 30
0.0
 40
3.000000000000003
100
AcDbArc
 50
180.0000000000001
 51
266.8942819574661
  0
LINE
  5
288
330
1F
100
AcDbEntity
  8
LAY-10
  6
CONTINUOUS
 62
     7
100
AcDbLine
 10
1380.000000000008
 20
1097.521053528603
 30
0.0
 11
1380.000000000008
 21
1087.404218726104
 31
0.0
  0
LINE
  5
289
330
1F
100
AcDbEntity
  8
LAY-10
  6
CONTINUOUS
 62
     7
100
AcDbLine
 10
1382.837464603964
 20
1084.408624921016
 30
0.0
 11
1399.032241294009
 21
1083.529926200747
 31
0.0
  0
LINE
  5
28A
330
1F
100
AcDbEntity
  8
LAY-10
  6
CONTINUOUS
 62
     7
100
AcDbLine
 10
1408.997114317038
 20
1148.49870817793
 30
0.0
 11
1408.999999999997
 21
1148.49870817793
 31
0.0
  0
LINE
  5
28B
330
1F
100
AcDbEntity
  8
LAY-10
  6
CONTINUOUS
 62
     7
100
AcDbLine
 10
1408.997114317038
 20
1076.49870817793
 30
0.0
 11
1408.999999999997
 21
1076.49870817793
 31
0.0
  0
LINE
  5
28C
330
1F
100
AcDbEntity
  8
LAY-10
  6
CONTINUOUS
 62
     7
100
AcDbLine
 10
1412.997114317073
 20
1077.498708177926
 30
0.0
 11
1408.997114317073
 21
1077.498708177926
 31
0.0
  0
LINE
  5
28D
330
1F
100
AcDbEntity
  8
LAY-10
  6
CONTINUOUS
 62
     7
100
AcDbLine
 10
1412.997114317073
 20
1147.498708177926
 30
0.0
 11
1408.997114317073
 21
1147.498708177926
 31
0.0
  0
LINE
  5
28E
330
1F
100
AcDbEntity
  8
LAY-10
  6
CONTINUOUS
 62
     7
100
AcDbLine
 10
1399.997114317038
 20
1107.24870817793
 30
0.0
 11
1399.997114317038
 21
1117.74870817793
 31
0.0
  0
ARC
  5
28F
330
1F
100
AcDbEntity
  8
LAY-10
  6
CONTINUOUS
 62
     7
100
AcDbCircle
 10
1397.997114317038
 20
1108.74870817793
 30
0.0
 40
1.0
100
AcDbArc
 50
180.0000000000001
 51
241.927513064142
  0
ARC
  5
290
330
1F
100
AcDbEntity
  8
LAY-10
  6
CONTINUOUS
 62
     7
100
AcDbCircle
 10
1399.997114317038
 20
1112.49870817793
 30
0.0
 40
5.25
100
AcDbArc
 50
241.9275130641421
 51
269.9999999999997
  0
LINE
  5
291
330
1F
100
AcDbEntity
  8
LAY-10
  6
CONTINUOUS
 62
     7
100
AcDbLine
 10
1396.997114317038
 20
1116.24870817793
 30
0.0
 11
1396.997114317038
 21
1108.74870817793
 31
0.0
  0
ARC
  5
292
330
1F
100
AcDbEntity
  8
LAY-10
  6
CONTINUOUS
 62
     7
100
AcDbCircle
 10
1397.997114317038
 20
1116.24870817793
 30
0.0
 40
1.0
100
AcDbArc
 50
118.0724869358582
 51
180.0000000000001
  0
ARC
  5
293
330
1F
100
AcDbEntity
  8
LAY-10
  6
CONTINUOUS
 62
     7
100
AcDbCircle
 10
1399.997114317038
 20
1112.49870817793
 30
0.0
 40
5.25
100
AcDbArc
 50
90.00000000000112
 51
118.072486935858
  0
LINE
  5
294
330
1F
100
AcDbEntity
  8
LAY-10
  6
CONTINUOUS
 62
     7
100
AcDbLine
 10
1399.999999999997
 20
1142.500000000128
 30
0.0
 11
1408.999999999997
 21
1142.500000000128
 31
0.0
  0
LINE
  5
295
330
1F
100
AcDbEntity
  8
LAY-10
  6
CONTINUOUS
 62
     7
100
AcDbLine
 10
1399.999999999997
 20
1151.500000000135
 30
0.0
 11
1399.999999999997
 21
1142.300000000131
 31
0.0
  0
LINE
  5
296
330
1F
100
AcDbEntity
  8
LAY-10
  6
CONTINUOUS
 62
     7
100
AcDbLine
 10
1399.999999999997
 20
1073.49741635572
 30
0.0
 11
1399.999999999997
 21
1082.697416355717
 31
0.0
  0
LINE
  5
297
330
1F
100
AcDbEntity
  8
LAY-10
  6
CONTINUOUS
 62
     7
100
AcDbLine
 10
1399.999999999997
 20
1082.49741635572
 30
0.0
 11
1408.999999999997
 21
1082.49741635572
 31
0.0
  0
ARC
  5
298
330
1F
100
AcDbEntity
  8
LAY-10
  6
CONTINUOUS
 62
     7
100
AcDbCircle
 10
1397.909606189592
 20
1138.098708177921
 30
0.0
 40
1.9
100
AcDbArc
 50
17.87435679904485
 51
90.00000000000001
  0
LINE
  5
299
330
1F
100
AcDbEntity
  8
LAY-10
  6
CONTINUOUS
 62
     7
100
AcDbLine
 10
1397.909606189592
 20
1139.998708177922
 30
0.0
 11
1396.997114317034
 21
1139.998708177922
 31
0.0
  0
LINE
  5
29A
330
1F
100
AcDbEntity
  8
LAY-10
  6
CONTINUOUS
 62
     7
100
AcDbLine
 10
1380.000056068783
 20
1149.500000000131
 30
0.0
 11
1374.999999999983
 21
1148.500000000124
 31
0.0
  0
LINE
  5
29B
330
1F
100
AcDbEntity
  8
LAY-10
  6
CONTINUOUS
 62
     7
100
AcDbLine
 10
1374.999999999983
 20
1136.500000000124
 30
0.0
 11
1380.000000000005
 21
1135.498708177973
 31
0.0
  0
LINE
  5
29C
330
1F
100
AcDbEntity
  8
LAY-10
  6
CONTINUOUS
 62
     7
100
AcDbLine
 10
1374.999999999983
 20
1128.498708177973
 30
0.0
 11
1380.000000000005
 21
1129.498708177973
 31
0.0
  0
LINE
  5
29D
330
1F
100
AcDbEntity
  8
LAY-10
  6
CONTINUOUS
 62
     7
100
AcDbLine
 10
1374.999999999983
 20
1116.498708178071
 30
0.0
 11
1380.000000000005
 21
1115.498708178071
 31
0.0
  0
LINE
  5
29E
330
1F
100
AcDbEntity
  8
LAY-10
  6
CONTINUOUS
 62
     7
100
AcDbLine
 10
1374.999999999983
 20
1096.498708177879
 30
0.0
 11
1380.000000000005
 21
1095.498708177879
 31
0.0
  0
LINE
  5
29F
330
1F
100
AcDbEntity
  8
LAY-10
  6
CONTINUOUS
 62
     7
100
AcDbLine
 10
1374.999999999983
 20
1108.49870817778
 30
0.0
 11
1380.000000000005
 21
1109.49870817778
 31
0.0
  0
LINE
  5
2A0
330
1F
100
AcDbEntity
  8
LAY-10
  6
CONTINUOUS
 62
     7
100
AcDbLine
 10
1374.999999999983
 20
1088.497416355728
 30
0.0
 11
1380.000000000005
 21
1089.498708177879
 31
0.0
  0
LINE
  5
2A1
330
1F
100
AcDbEntity
  8
LAY-10
  6
CONTINUOUS
 62
     7
100
AcDbLine
 10
1380.000056068783
 20
1075.49741635572
 30
0.0
 11
1374.999999999983
 21
1076.497416355728
 31
0.0
  0
ARC
  5
2A2
330
1F
100
AcDbEntity
  8
LAY-10
  6
CONTINUOUS
 62
     7
100
AcDbCircle
 10
1398.999999999997
 20
1142.466970269441
 30
0.0
 40
1.0
100
AcDbArc
 50
271.8476102659964
 51
0.0
  0
ARC
  5
2A3
330
1F
100
AcDbEntity
  8
LAY-10
  6
CONTINUOUS
 62
     7
100
AcDbCircle
 10
1398.999999999997
 20
1082.53044608641
 30
0.0
 40
1.0
100
AcDbArc
 50
0.0000000000001719
 51
88.15238973400399
  0
LINE
  5
2A4
330
1F
100
AcDbEntity
  8
LAY-10
  6
CONTINUOUS
 62
     7
100
AcDbLine
 10
1380.000000000008
 20
1076.498708177977
 30
0.0
 11
1399.050827527971
 21
1077.468436234449
 31
0.0
  0
ARC
  5
2A5
330
1F
100
AcDbEntity
  8
LAY-10
  6
CONTINUOUS
 62
     7
100
AcDbCircle
 10
1398.999999999997
 20
1078.466970269543
 30
0.0
 40
1.0
100
AcDbArc
 50
271.8476102659964
 51
0.0000000000001719
  0
ARC
  5
2A6
330
1F
100
AcDbEntity
  8
LAY-10
  6
CONTINUOUS
 62
     7
100
AcDbCircle
 10
1398.999999999997
 20
1146.530446086312
 30
0.0
 40
1.0
100
AcDbArc
 50
0.0
 51
88.15238973400399
  0
LINE
  5
2A7
330
1F
100
AcDbEntity
  8
LAY-10
  6
CONTINUOUS
 62
     7
100
AcDbLine
 10
1380.000000000008
 20
1148.498708177875
 30
0.0
 11
1399.032241294012
 21
1147.529926200649
 31
0.0
  0
LINE
  5
2A8
330
1F
100
AcDbEntity
  8
LAY-10
  6
CONTINUOUS
 62
     7
100
AcDbLine
 10
1380.000000000008
 20
1107.476362826896
 30
0.0
 11
1380.000000000008
 21
1117.521053528959
 31
0.0
  0
LINE
  5
2A9
330
1F
100
AcDbEntity
  8
LAY-10
  6
CONTINUOUS
 62
     7
100
AcDbLine
 10
1399.997114317034
 20
1115.49870817793
 30
0.0
 11
1399.997114317034
 21
1121.649422609477
 31
0.0
  0
LINE
  5
2AA
330
1F
100
AcDbEntity
  8
LAY-10
  6
CONTINUOUS
 62
     7
100
AcDbLine
 10
1399.997114317034
 20
1103.347993746382
 30
0.0
 11
1399.997114317034
 21
1109.49870817793
 31
0.0
  0
ARC
  5
2AB
330
1F
100
AcDbEntity
  8
LAY-10
  6
CONTINUOUS
 62
     7
100
AcDbCircle
 10
1396.497114317034
 20
1126.347993746382
 30
0.0
 40
1.5
100
AcDbArc
 50
180.0000000000001
 51
239.0362434679267
  0
LINE
  5
2AC
330
1F
100
AcDbEntity
  8
LAY-10
  6
CONTINUOUS
 62
     7
100
AcDbLine
 10
1395.725370683892
 20
1125.061754357812
 30
0.0
 11
1399.268857950175
 21
1122.935661998047
 31
0.0
  0
ARC
  5
2AD
330
1F
100
AcDbEntity
  8
LAY-10
  6
CONTINUOUS
 62
     7
100
AcDbCircle
 10
1398.497114317034
 20
1121.649422609477
 30
0.0
 40
1.5
100
AcDbArc
 50
0.0000000000001719
 51
59.03624346792686
  0
ARC
  5
2AE
330
1F
100
AcDbEntity
  8
LAY-10
  6
CONTINUOUS
 62
     7
100
AcDbCircle
 10
1398.497114317034
 20
1103.347993746382
 30
0.0
 40
1.5
100
AcDbArc
 50
300.9637565320735
 51
0.0000000000001719
  0
LINE
  5
2AF
330
1F
100
AcDbEntity
  8
LAY-10
  6
CONTINUOUS
 62
     7
100
AcDbLine
 10
1395.725370683892
 20
1099.935661998047
 30
0.0
 11
1399.268857950175
 21
1102.061754357812
 31
0.0
  0
ARC
  5
2B0
330
1F
100
AcDbEntity
  8
LAY-10
  6
CONTINUOUS
 62
     7
100
AcDbCircle
 10
1396.497114317034
 20
1098.649422609477
 30
0.0
 40
1.5
100
AcDbArc
 50
120.9637565320733
 51
180.0000000000001
  0
LINE
  5
2B1
330
1F
100
AcDbEntity
  8
LAY-10
  6
CONTINUOUS
 62
     7
100
AcDbLine
 10
1397.725370683892
 20
1099.08637642959
 30
0.0
 11
1401.268857950175
 21
1101.21246878936
 31
0.0
  0
ARC
  5
2B2
330
1F
100
AcDbEntity
  8
LAY-10
  6
CONTINUOUS
 62
     7
100
AcDbCircle
 10
1400.497114317034
 20
1102.49870817793
 30
0.0
 40
1.5
100
AcDbArc
 50
300.9637565320738
 51
0.0000000000001719
  0
LINE
  5
2B3
330
1F
100
AcDbEntity
  8
LAY-10
  6
CONTINUOUS
 62
     7
100
AcDbLine
 10
1397.725370683892
 20
1125.911039926269
 30
0.0
 11
1401.268857950175
 21
1123.784947566499
 31
0.0
  0
ARC
  5
2B4
330
1F
100
AcDbEntity
  8
LAY-10
  6
CONTINUOUS
 62
     7
100
AcDbCircle
 10
1400.497114317034
 20
1122.49870817793
 30
0.0
 40
1.5
100
AcDbArc
 50
0.0000000000001719
 51
59.03624346792686
  0
LINE
  5
2B5
330
1F
100
AcDbEntity
  8
LAY-10
  6
CONTINUOUS
 62
     7
100
AcDbLine
 10
1421.197114317039
 20
1109.635459523881
 30
0.0
 11
1425.825114317039
 21
1109.635459523881
 31
0.0
  0
LINE
  5
2B6
330
1F
100
AcDbEntity
  8
LAY-10
  6
CONTINUOUS
 62
     7
100
AcDbLine
 10
1421.197114317039
 20
1106.74870817793
 30
0.0
 11
1425.825114317039
 21
1106.74870817793
 31
0.0
  0
LINE
  5
2B7
330
1F
100
AcDbEntity
  8
LAY-10
  6
CONTINUOUS
 62
     7
100
AcDbLine
 10
1421.197114317039
 20
1115.361956831978
 30
0.0
 11
1425.825114317039
 21
1115.361956831978
 31
0.0
  0
ARC
  5
2B8
330
1F
100
AcDbEntity
  8
LAY-10
  6
CONTINUOUS
 62
     7
100
AcDbCircle
 10
1418.94486182148
 20
1112.49870817793
 30
0.0
 40
7.4522524955587
100
AcDbArc
 50
337.4051392327526
 51
22.59486076724778
  0
LINE
  5
2B9
330
1F
100
AcDbEntity
  8
LAY-10
  6
CONTINUOUS
 62
     7
100
AcDbLine
 10
1421.197114317039
 20
1118.24870817793
 30
0.0
 11
1425.825114317039
 21
1118.24870817793
 31
0.0
  0
LINE
  5
2BA
330
1F
100
AcDbEntity
  8
LAY-10
  6
CONTINUOUS
 62
     7
100
AcDbLine
 10
1421.197114317039
 20
1118.24870817793
 30
0.0
 11
1421.197114317039
 21
1106.74870817793
 31
0.0
  0
ARC
  5
2BB
330
1F
100
AcDbEntity
  8
LAY-10
  6
CONTINUOUS
 62
     7
100
AcDbCircle
 10
1426.859136362838
 20
1117.24870817793
 30
0.0
 40
0.5
100
AcDbArc
 50
189.7915975264292
 51
270.0000000000002
  0
LINE
  5
2BC
330
1F
100
AcDbEntity
  8
LAY-10
  6
CONTINUOUS
 62
     7
100
AcDbLine
 10
1426.397114317039
 20
1116.74870817793
 30
0.0
 11
1426.396353342184
 21
1116.74870817793
 31
0.0
  0
ARC
  5
2BD
330
1F
100
AcDbEntity
  8
LAY-10
  6
CONTINUOUS
 62
     7
100
AcDbCircle
 10
1424.290018745941
 20
1108.192083850904
 30
0.0
 40
2.107095571097913
100
AcDbArc
 50
316.7638252773315
 51
43.23617472266898
  0
ARC
  5
2BE
330
1F
100
AcDbEntity
  8
LAY-10
  6
CONTINUOUS
 62
     7
100
AcDbCircle
 10
1426.859136362838
 20
1107.74870817793
 30
0.0
 40
0.5
100
AcDbArc
 50
90.00000000000026
 51
170.2084024735711
  0
LINE
  5
2BF
330
1F
100
AcDbEntity
  8
LAY-10
  6
CONTINUOUS
 62
     7
100
AcDbLine
 10
1426.397114317039
 20
1108.24870817793
 30
0.0
 11
1426.396353342184
 21
1108.24870817793
 31
0.0
  0
ARC
  5
2C0
330
1F
100
AcDbEntity
  8
LAY-10
  6
CONTINUOUS
 62
     7
100
AcDbCircle
 10
1424.290018745941
 20
1116.805332504955
 30
0.0
 40
2.107095571097882
100
AcDbArc
 50
316.763825277331
 51
43.23617472266933
  0
ARC
  5
2C1
330
1F
100
AcDbEntity
  8
LAY-10
  6
CONTINUOUS
 62
     7
100
AcDbCircle
 10
1427.496152422716
 20
1109.24870817793
 30
0.0
 40
1.0
100
AcDbArc
 50
270.0000000000002
 51
291.7867892982636
  0
LINE
  5
2C2
330
1F
100
AcDbEntity
  8
LAY-10
  6
CONTINUOUS
 62
     7
100
AcDbLine
 10
1427.496152422716
 20
1108.24870817793
 30
0.0
 11
1426.859136362838
 21
1108.24870817793
 31
0.0
  0
ARC
  5
2C3
330
1F
100
AcDbEntity
  8
LAY-10
  6
CONTINUOUS
 62
     7
100
AcDbCircle
 10
1426.197114317039
 20
1112.49870817793
 30
0.0
 40
4.5
100
AcDbArc
 50
291.7867892982638
 51
68.21321070173653
  0
LINE
  5
2C4
330
1F
100
AcDbEntity
  8
LAY-10
  6
CONTINUOUS
 62
     7
100
AcDbLine
 10
1427.496152422716
 20
1116.74870817793
 30
0.0
 11
1426.859136362838
 21
1116.74870817793
 31
0.0
  0
ARC
  5
2C5
330
1F
100
AcDbEntity
  8
LAY-10
  6
CONTINUOUS
 62
     7
100
AcDbCircle
 10
1427.496152422716
 20
1115.74870817793
 30
0.0
 40
1.0
100
AcDbArc
 50
68.21321070173653
 51
90.00000000000026
  0
LINE
  5
2C6
330
1F
100
AcDbEntity
  8
LAY-10
  6
CONTINUOUS
 62
     7
100
AcDbLine
 10
1394.002651736018
 20
1148.787237792716
 30
0.0
 11
1380.000056068789
 21
1149.500000000135
 31
0.0
  0
ARC
  5
2C7
330
1F
100
AcDbEntity
  8
LAY-10
  6
CONTINUOUS
 62
     7
100
AcDbCircle
 10
1395.001358733757
 20
1148.736401460571
 30
0.0
 40
1.0
100
AcDbArc
 50
177.0860366934871
 51
267.086036693205
  0
LINE
  5
2C8
330
1F
100
AcDbEntity
  8
LAY-10
  6
CONTINUOUS
 62
     7
100
AcDbLine
 10
1394.002651736018
 20
1076.210178563135
 30
0.0
 11
1380.000056068789
 21
1075.497416355717
 31
0.0
  0
ARC
  5
2C9
330
1F
100
AcDbEntity
  8
LAY-10
  6
CONTINUOUS
 62
     7
100
AcDbCircle
 10
1395.001358733757
 20
1076.261014895281
 30
0.0
 40
1.0
100
AcDbArc
 50
92.91396330679483
 51
182.9139633065131
  0
ARC
  5
2CA
330
1F
100
AcDbEntity
  8
LAY-10
  6
CONTINUOUS
 62
     7
100
AcDbCircle
 10
1381.000000000008
 20
1107.476362826896
 30
0.0
 40
1.0
100
AcDbArc
 50
180.0000000000001
 51
264.9999999994349
  0
LINE
  5
2CB
330
1F
100
AcDbEntity
  8
LAY-10
  6
CONTINUOUS
 62
     7
100
AcDbLine
 10
1392.261467228255
 20
1105.487292272101
 30
0.0
 11
1380.912844257252
 21
1106.480168128805
 31
0.0
  0
ARC
  5
2CC
330
1F
100
AcDbEntity
  8
LAY-10
  6
CONTINUOUS
 62
     7
100
AcDbCircle
 10
1381.000000000008
 20
1117.521053528956
 30
0.0
 40
1.0
100
AcDbArc
 50
95.00000000056534
 51
180.0000000000001
  0
LINE
  5
2CD
330
1F
100
AcDbEntity
  8
LAY-10
  6
CONTINUOUS
 62
     7
100
AcDbLine
 10
1392.261467228255
 20
1119.510124083751
 30
0.0
 11
1380.912844257252
 21
1118.517248227047
 31
0.0
  0
LINE
  5
2CE
330
1F
100
AcDbEntity
  8
LAY-10
  6
CONTINUOUS
 62
     7
100
AcDbLine
 10
1393.000000000008
 20
1147.838274920516
 30
0.0
 11
1393.000000000008
 21
1147.83698024424
 31
0.0
  0
LINE
  5
2CF
330
1F
100
AcDbEntity
  8
LAY-10
  6
CONTINUOUS
 62
     7
100
AcDbLine
 10
1393.000000000008
 20
1075.949800925119
 30
0.0
 11
1393.000000000008
 21
1075.917542860604
 31
0.0
  0
LINE
  5
2D0
330
1F
100
AcDbEntity
  8
LAY-10
  6
CONTINUOUS
 62
     7
100
AcDbLine
 10
1380.000000000008
 20
1075.498708177977
 30
0.0
 11
1380.000000000008
 21
1076.498708177977
 31
0.0
  0
LINE
  5
2D1
330
1F
100
AcDbEntity
  8
LAY-10
  6
CONTINUOUS
 62
     7
100
AcDbLine
 10
1380.000000000008
 20
1075.498708177977
 30
0.0
 11
1380.000000000008
 21
1076.498708177977
 31
0.0
  0
LINE
  5
2D2
330
1F
100
AcDbEntity
  8
LAY-10
  6
CONTINUOUS
 62
     7
100
AcDbLine
 10
1380.000000000008
 20
1149.498708177875
 30
0.0
 11
1380.000000000008
 21
1148.498708177875
 31
0.0
  0
LINE
  5
2D3
330
1F
100
AcDbEntity
  8
LAY-10
  6
CONTINUOUS
 62
     7
100
AcDbLine
 10
1374.999999999988
 20
1136.500000000121
 30
0.0
 11
1374.999999999988
 21
1148.500000000121
 31
0.0
  0
LINE
  5
2D4
330
1F
100
AcDbEntity
  8
LAY-10
  6
CONTINUOUS
 62
     7
100
AcDbLine
 10
1374.999999999988
 20
1128.49870817797
 30
0.0
 11
1374.999999999988
 21
1116.498708178071
 31
0.0
  0
LINE
  5
2D5
330
1F
100
AcDbEntity
  8
LAY-10
  6
CONTINUOUS
 62
     7
100
AcDbLine
 10
1374.999999999988
 20
1108.498708177777
 30
0.0
 11
1374.999999999988
 21
1096.498708177879
 31
0.0
  0
LINE
  5
2D6
330
1F
100
AcDbEntity
  8
LAY-10
  6
CONTINUOUS
 62
     7
100
AcDbLine
 10
1374.999999999988
 20
1076.497416355731
 30
0.0
 11
1374.999999999988
 21
1088.497416355728
 31
0.0
  0
LINE
  5
2D7
330
1F
100
AcDbEntity
  8
LAY-10
  6
CONTINUOUS
 62
     7
100
AcDbLine
 10
1396.997114317034
 20
1127.197279314838
 30
0.0
 11
1396.997114317034
 21
1139.498708177922
 31
0.0
  0
ARC
  5
2D8
330
1F
100
AcDbEntity
  8
LAY-10
  6
CONTINUOUS
 62
     7
100
AcDbCircle
 10
1398.497114317034
 20
1127.197279314838
 30
0.0
 40
1.5
100
AcDbArc
 50
179.9999999995571
 51
239.0362434679244
  0
LINE
  5
2D9
330
1F
100
AcDbEntity
  8
LAY-10
  6
CONTINUOUS
 62
     7
100
AcDbLine
 10
1419.978616041774
 20
1126.49870817793
 30
0.0
 11
1397.169711451783
 21
1126.49870817793
 31
0.0
  0
LINE
  5
2DA
330
1F
100
AcDbEntity
  8
LAY-10
  6
CONTINUOUS
 62
     7
100
AcDbLine
 10
1396.997114317034
 20
1138.49870817793
 30
0.0
 11
1419.967793805396
 21
1138.49870817793
 31
0.0
  0
LINE
  5
2DB
330
1F
100
AcDbEntity
  8
LAY-10
  6
CONTINUOUS
 62
     7
100
AcDbLine
 10
1408.99711431715
 20
1142.498708177854
 30
0.0
 11
1412.99711431715
 21
1142.498708177854
 31
0.0
  0
LINE
  5
2DC
330
1F
100
AcDbEntity
  8
LAY-10
  6
CONTINUOUS
 62
     7
100
AcDbLine
 10
1117.5
 20
1109.4999803697
 30
0.0
 11
1117.5
 21
1115.49998037
 31
0.0
  0
LINE
  5
2DD
330
1F
100
AcDbEntity
  8
LAY-10
  6
CONTINUOUS
 62
     7
100
AcDbLine
 10
1132.5
 20
1115.49998037
 30
0.0
 11
1132.5
 21
1109.4999803697
 31
0.0
  0
ARC
  5
2DE
330
1F
100
AcDbEntity
  8
LAY-10
  6
CONTINUOUS
 62
     7
100
AcDbCircle
 10
1125.0
 20
1112.4999803699
 30
0.0
 40
5.25
100
AcDbArc
 50
325.1500954189352
 51
34.84990458097789
  0
ARC
  5
2DF
330
1F
100
AcDbEntity
  8
LAY-10
  6
CONTINUOUS
 62
     7
100
AcDbCircle
 10
1125.0
 20
1112.4999803699
 30
0.0
 40
5.25
100
AcDbArc
 50
145.1500954190221
 51
214.8499045810649
  0
LINE
  5
2E0
330
1F
100
AcDbEntity
  8
LAY-10
  6
CONTINUOUS
 62
     7
100
AcDbLine
 10
332.49999999997
 20
1115.49998037
 30
0.0
 11
332.49999999997
 21
1109.4999803697
 31
0.0
  0
ARC
  5
2E1
330
1F
100
AcDbEntity
  8
LAY-10
  6
CONTINUOUS
 62
     7
100
AcDbCircle
 10
324.99999999997
 20
1112.4999803699
 30
0.0
 40
5.25
100
AcDbArc
 50
325.1500954189352
 51
34.84990458097789
  0
ARC
  5
2E2
330
1F
100
AcDbEntity
  8
LAY-10
  6
CONTINUOUS
 62
     7
100
AcDbCircle
 10
324.99999999997
 20
1112.4999803699
 30
0.0
 40
5.25
100
AcDbArc
 50
145.1500954190221
 51
214.8499045810649
  0
LINE
  5
2E3
330
1F
100
AcDbEntity
  8
LAY-10
  6
CONTINUOUS
 62
     7
100
AcDbLine
 10
317.49999999997
 20
1109.4999803697
 30
0.0
 11
317.49999999997
 21
1115.49998037
 31
0.0
  0
LINE
  5
2E4
330
1F
100
AcDbEntity
  8
LAY-10
  6
CONTINUOUS
 62
     7
100
AcDbLine
 10
347.9999999999864
 20
1147.749980369987
 30
0.0
 11
347.9999999999864
 21
1142.749980369987
 31
0.0
  0
LINE
  5
2E5
330
1F
100
AcDbEntity
  8
LAY-10
  6
CONTINUOUS
 62
     7
100
AcDbLine
 10
347.9999999999864
 20
1142.749980369987
 30
0.0
 11
342.9999999999864
 21
1142.749980369987
 31
0.0
  0
LINE
  5
2E6
330
1F
100
AcDbEntity
  8
LAY-10
  6
CONTINUOUS
 62
     7
100
AcDbLine
 10
342.9999999999864
 20
1142.249980369987
 30
0.0
 11
347.9999999999864
 21
1142.249980369987
 31
0.0
  0
LINE
  5
2E7
330
1F
100
AcDbEntity
  8
LAY-10
  6
CONTINUOUS
 62
     7
100
AcDbLine
 10
342.9999999999864
 20
1142.249980369987
 30
0.0
 11
342.9999999999864
 21
1137.249980369987
 31
0.0
  0
LINE
  5
2E8
330
1F
100
AcDbEntity
  8
LAY-10
  6
CONTINUOUS
 62
     7
100
AcDbLine
 10
347.9999999999864
 20
1142.249980369987
 30
0.0
 11
347.9999999999864
 21
1137.249980369987
 31
0.0
  0
LINE
  5
2E9
330
1F
100
AcDbEntity
  8
LAY-10
  6
CONTINUOUS
 62
     7
100
AcDbLine
 10
347.9999999999864
 20
1137.249980369987
 30
0.0
 11
342.9999999999864
 21
1137.249980369987
 31
0.0
  0
LINE
  5
2EA
330
1F
100
AcDbEntity
  8
LAY-10
  6
CONTINUOUS
 62
     7
100
AcDbLine
 10
347.9999999999864
 20
1147.749980369987
 30
0.0
 11
342.9999999999864
 21
1142.749980369987
 31
0.0
  0
LINE
  5
2EB
330
1F
100
AcDbEntity
  8
LAY-10
  6
CONTINUOUS
 62
     7
100
AcDbLine
 10
347.9999999999864
 20
1142.249980369987
 30
0.0
 11
342.9999999999864
 21
1137.249980369987
 31
0.0
  0
LINE
  5
2EC
330
1F
100
AcDbEntity
  8
LAY-10
  6
CONTINUOUS
 62
     7
100
AcDbLine
 10
342.9999999999864
 20
1142.249980369987
 30
0.0
 11
347.9999999999864
 21
1137.249980369987
 31
0.0
  0
LINE
  5
2ED
330
1F
100
AcDbEntity
  8
LAY-10
  6
CONTINUOUS
 62
     7
100
AcDbLine
 10
337.4999999999864
 20
1142.249980369987
 30
0.0
 11
342.4999999999864
 21
1137.249980369987
 31
0.0
  0
LINE
  5
2EE
330
1F
100
AcDbEntity
  8
LAY-10
  6
CONTINUOUS
 62
     7
100
AcDbLine
 10
342.4999999999864
 20
1142.249980369987
 30
0.0
 11
337.4999999999864
 21
1137.249980369987
 31
0.0
  0
LINE
  5
2EF
330
1F
100
AcDbEntity
  8
LAY-10
  6
CONTINUOUS
 62
     7
100
AcDbLine
 10
342.4999999999864
 20
1137.249980369987
 30
0.0
 11
337.4999999999864
 21
1137.249980369987
 31
0.0
  0
LINE
  5
2F0
330
1F
100
AcDbEntity
  8
LAY-10
  6
CONTINUOUS
 62
     7
100
AcDbLine
 10
342.4999999999864
 20
1142.249980369987
 30
0.0
 11
342.4999999999864
 21
1137.249980369987
 31
0.0
  0
LINE
  5
2F1
330
1F
100
AcDbEntity
  8
LAY-10
  6
CONTINUOUS
 62
     7
100
AcDbLine
 10
337.4999999999864
 20
1142.249980369987
 30
0.0
 11
337.4999999999864
 21
1137.249980369987
 31
0.0
  0
LINE
  5
2F2
330
1F
100
AcDbEntity
  8
LAY-10
  6
CONTINUOUS
 62
     7
100
AcDbLine
 10
337.4999999999864
 20
1142.249980369987
 30
0.0
 11
342.4999999999864
 21
1142.249980369987
 31
0.0
  0
LINE
  5
2F3
330
1F
100
AcDbEntity
  8
LAY-10
  6
CONTINUOUS
 62
     7
100
AcDbLine
 10
342.4999999999864
 20
1142.749980369987
 30
0.0
 11
337.4999999999864
 21
1142.749980369987
 31
0.0
  0
LINE
  5
2F4
330
1F
100
AcDbEntity
  8
LAY-10
  6
CONTINUOUS
 62
     7
100
AcDbLine
 10
347.9999999999864
 20
1127.749980369997
 30
0.0
 11
347.9999999999864
 21
1122.749980369997
 31
0.0
  0
LINE
  5
2F5
330
1F
100
AcDbEntity
  8
LAY-10
  6
CONTINUOUS
 62
     7
100
AcDbLine
 10
347.9999999999864
 20
1127.749980369997
 30
0.0
 11
342.9999999999864
 21
1127.749980369997
 31
0.0
  0
LINE
  5
2F6
330
1F
100
AcDbEntity
  8
LAY-10
  6
CONTINUOUS
 62
     7
100
AcDbLine
 10
347.9999999999864
 20
1122.749980369997
 30
0.0
 11
342.9999999999864
 21
1122.749980369997
 31
0.0
  0
LINE
  5
2F7
330
1F
100
AcDbEntity
  8
LAY-10
  6
CONTINUOUS
 62
     7
100
AcDbLine
 10
342.9999999999864
 20
1122.749980369997
 30
0.0
 11
342.9999999999864
 21
1127.749980369997
 31
0.0
  0
LINE
  5
2F8
330
1F
100
AcDbEntity
  8
LAY-10
  6
CONTINUOUS
 62
     7
100
AcDbLine
 10
342.9999999999864
 20
1122.249980369997
 30
0.0
 11
347.9999999999864
 21
1122.249980369997
 31
0.0
  0
LINE
  5
2F9
330
1F
100
AcDbEntity
  8
LAY-10
  6
CONTINUOUS
 62
     7
100
AcDbLine
 10
342.9999999999864
 20
1122.249980369997
 30
0.0
 11
342.9999999999864
 21
1117.249980369997
 31
0.0
  0
LINE
  5
2FA
330
1F
100
AcDbEntity
  8
LAY-10
  6
CONTINUOUS
 62
     7
100
AcDbLine
 10
347.9999999999864
 20
1122.249980369997
 30
0.0
 11
347.9999999999864
 21
1117.249980369997
 31
0.0
  0
LINE
  5
2FB
330
1F
100
AcDbEntity
  8
LAY-10
  6
CONTINUOUS
 62
     7
100
AcDbLine
 10
347.9999999999864
 20
1117.249980369997
 30
0.0
 11
342.9999999999864
 21
1117.249980369997
 31
0.0
  0
LINE
  5
2FC
330
1F
100
AcDbEntity
  8
LAY-10
  6
CONTINUOUS
 62
     7
100
AcDbLine
 10
347.9999999999864
 20
1127.749980369997
 30
0.0
 11
342.9999999999864
 21
1122.749980369997
 31
0.0
  0
LINE
  5
2FD
330
1F
100
AcDbEntity
  8
LAY-10
  6
CONTINUOUS
 62
     7
100
AcDbLine
 10
347.9999999999864
 20
1122.249980369997
 30
0.0
 11
342.9999999999864
 21
1117.249980369997
 31
0.0
  0
LINE
  5
2FE
330
1F
100
AcDbEntity
  8
LAY-10
  6
CONTINUOUS
 62
     7
100
AcDbLine
 10
342.9999999999864
 20
1127.749980369997
 30
0.0
 11
347.9999999999864
 21
1122.749980369997
 31
0.0
  0
LINE
  5
2FF
330
1F
100
AcDbEntity
  8
LAY-10
  6
CONTINUOUS
 62
     7
100
AcDbLine
 10
342.9999999999864
 20
1122.249980369997
 30
0.0
 11
347.9999999999864
 21
1117.249980369997
 31
0.0
  0
LINE
  5
300
330
1F
100
AcDbEntity
  8
LAY-10
  6
CONTINUOUS
 62
     7
100
AcDbLine
 10
337.4999999999864
 20
1122.249980369997
 30
0.0
 11
342.4999999999864
 21
1117.249980369997
 31
0.0
  0
LINE
  5
301
330
1F
100
AcDbEntity
  8
LAY-10
  6
CONTINUOUS
 62
     7
100
AcDbLine
 10
337.4999999999864
 20
1127.749980369997
 30
0.0
 11
342.4999999999864
 21
1122.749980369997
 31
0.0
  0
LINE
  5
302
330
1F
100
AcDbEntity
  8
LAY-10
  6
CONTINUOUS
 62
     7
100
AcDbLine
 10
342.4999999999864
 20
1122.249980369997
 30
0.0
 11
337.4999999999864
 21
1117.249980369997
 31
0.0
  0
LINE
  5
303
330
1F
100
AcDbEntity
  8
LAY-10
  6
CONTINUOUS
 62
     7
100
AcDbLine
 10
342.4999999999864
 20
1127.749980369997
 30
0.0
 11
337.4999999999864
 21
1122.749980369997
 31
0.0
  0
LINE
  5
304
330
1F
100
AcDbEntity
  8
LAY-10
  6
CONTINUOUS
 62
     7
100
AcDbLine
 10
342.4999999999864
 20
1117.249980369997
 30
0.0
 11
337.4999999999864
 21
1117.249980369997
 31
0.0
  0
LINE
  5
305
330
1F
100
AcDbEntity
  8
LAY-10
  6
CONTINUOUS
 62
     7
100
AcDbLine
 10
342.4999999999864
 20
1122.249980369997
 30
0.0
 11
342.4999999999864
 21
1117.249980369997
 31
0.0
  0
LINE
  5
306
330
1F
100
AcDbEntity
  8
LAY-10
  6
CONTINUOUS
 62
     7
100
AcDbLine
 10
337.4999999999864
 20
1122.249980369997
 30
0.0
 11
337.4999999999864
 21
1117.249980369997
 31
0.0
  0
LINE
  5
307
330
1F
100
AcDbEntity
  8
LAY-10
  6
CONTINUOUS
 62
     7
100
AcDbLine
 10
337.4999999999864
 20
1122.249980369997
 30
0.0
 11
342.4999999999864
 21
1122.249980369997
 31
0.0
  0
LINE
  5
308
330
1F
100
AcDbEntity
  8
LAY-10
  6
CONTINUOUS
 62
     7
100
AcDbLine
 10
337.4999999999864
 20
1122.749980369997
 30
0.0
 11
337.4999999999864
 21
1127.749980369997
 31
0.0
  0
LINE
  5
309
330
1F
100
AcDbEntity
  8
LAY-10
  6
CONTINUOUS
 62
     7
100
AcDbLine
 10
342.4999999999864
 20
1122.749980369997
 30
0.0
 11
337.4999999999864
 21
1122.749980369997
 31
0.0
  0
LINE
  5
30A
330
1F
100
AcDbEntity
  8
LAY-10
  6
CONTINUOUS
 62
     7
100
AcDbLine
 10
342.4999999999864
 20
1127.749980369997
 30
0.0
 11
337.4999999999864
 21
1127.749980369997
 31
0.0
  0
LINE
  5
30B
330
1F
100
AcDbEntity
  8
LAY-10
  6
CONTINUOUS
 62
     7
100
AcDbLine
 10
342.4999999999864
 20
1127.749980369997
 30
0.0
 11
342.4999999999864
 21
1122.749980369997
 31
0.0
  0
LINE
  5
30C
330
1F
100
AcDbEntity
  8
LAY-10
  6
CONTINUOUS
 62
     7
100
AcDbLine
 10
347.9999999999864
 20
1097.249980369797
 30
0.0
 11
347.9999999999864
 21
1102.249980369797
 31
0.0
  0
LINE
  5
30D
330
1F
100
AcDbEntity
  8
LAY-10
  6
CONTINUOUS
 62
     7
100
AcDbLine
 10
347.9999999999864
 20
1097.249980369797
 30
0.0
 11
342.9999999999864
 21
1097.249980369797
 31
0.0
  0
LINE
  5
30E
330
1F
100
AcDbEntity
  8
LAY-10
  6
CONTINUOUS
 62
     7
100
AcDbLine
 10
347.9999999999864
 20
1102.249980369797
 30
0.0
 11
342.9999999999864
 21
1102.249980369797
 31
0.0
  0
LINE
  5
30F
330
1F
100
AcDbEntity
  8
LAY-10
  6
CONTINUOUS
 62
     7
100
AcDbLine
 10
342.9999999999864
 20
1102.249980369797
 30
0.0
 11
342.9999999999864
 21
1097.249980369797
 31
0.0
  0
LINE
  5
310
330
1F
100
AcDbEntity
  8
LAY-10
  6
CONTINUOUS
 62
     7
100
AcDbLine
 10
342.9999999999864
 20
1102.749980369797
 30
0.0
 11
347.9999999999864
 21
1102.749980369797
 31
0.0
  0
LINE
  5
311
330
1F
100
AcDbEntity
  8
LAY-10
  6
CONTINUOUS
 62
     7
100
AcDbLine
 10
342.9999999999864
 20
1102.749980369797
 30
0.0
 11
342.9999999999864
 21
1107.749980369797
 31
0.0
  0
LINE
  5
312
330
1F
100
AcDbEntity
  8
LAY-10
  6
CONTINUOUS
 62
     7
100
AcDbLine
 10
347.9999999999864
 20
1102.749980369797
 30
0.0
 11
347.9999999999864
 21
1107.749980369797
 31
0.0
  0
LINE
  5
313
330
1F
100
AcDbEntity
  8
LAY-10
  6
CONTINUOUS
 62
     7
100
AcDbLine
 10
347.9999999999864
 20
1107.749980369797
 30
0.0
 11
342.9999999999864
 21
1107.749980369797
 31
0.0
  0
LINE
  5
314
330
1F
100
AcDbEntity
  8
LAY-10
  6
CONTINUOUS
 62
     7
100
AcDbLine
 10
347.9999999999864
 20
1097.249980369797
 30
0.0
 11
342.9999999999864
 21
1102.249980369797
 31
0.0
  0
LINE
  5
315
330
1F
100
AcDbEntity
  8
LAY-10
  6
CONTINUOUS
 62
     7
100
AcDbLine
 10
347.9999999999864
 20
1102.749980369797
 30
0.0
 11
342.9999999999864
 21
1107.749980369797
 31
0.0
  0
LINE
  5
316
330
1F
100
AcDbEntity
  8
LAY-10
  6
CONTINUOUS
 62
     7
100
AcDbLine
 10
342.9999999999864
 20
1097.249980369797
 30
0.0
 11
347.9999999999864
 21
1102.249980369797
 31
0.0
  0
LINE
  5
317
330
1F
100
AcDbEntity
  8
LAY-10
  6
CONTINUOUS
 62
     7
100
AcDbLine
 10
342.9999999999864
 20
1102.749980369797
 30
0.0
 11
347.9999999999864
 21
1107.749980369797
 31
0.0
  0
LINE
  5
318
330
1F
100
AcDbEntity
  8
LAY-10
  6
CONTINUOUS
 62
     7
100
AcDbLine
 10
337.4999999999864
 20
1102.749980369797
 30
0.0
 11
342.4999999999864
 21
1107.749980369797
 31
0.0
  0
LINE
  5
319
330
1F
100
AcDbEntity
  8
LAY-10
  6
CONTINUOUS
 62
     7
100
AcDbLine
 10
342.4999999999864
 20
1102.749980369797
 30
0.0
 11
337.4999999999864
 21
1107.749980369797
 31
0.0
  0
LINE
  5
31A
330
1F
100
AcDbEntity
  8
LAY-10
  6
CONTINUOUS
 62
     7
100
AcDbLine
 10
342.4999999999864
 20
1097.249980369797
 30
0.0
 11
337.4999999999864
 21
1102.249980369797
 31
0.0
  0
LINE
  5
31B
330
1F
100
AcDbEntity
  8
LAY-10
  6
CONTINUOUS
 62
     7
100
AcDbLine
 10
342.4999999999864
 20
1107.749980369797
 30
0.0
 11
337.4999999999864
 21
1107.749980369797
 31
0.0
  0
LINE
  5
31C
330
1F
100
AcDbEntity
  8
LAY-10
  6
CONTINUOUS
 62
     7
100
AcDbLine
 10
342.4999999999864
 20
1102.749980369797
 30
0.0
 11
342.4999999999864
 21
1107.749980369797
 31
0.0
  0
LINE
  5
31D
330
1F
100
AcDbEntity
  8
LAY-10
  6
CONTINUOUS
 62
     7
100
AcDbLine
 10
337.4999999999864
 20
1102.749980369797
 30
0.0
 11
337.4999999999864
 21
1107.749980369797
 31
0.0
  0
LINE
  5
31E
330
1F
100
AcDbEntity
  8
LAY-10
  6
CONTINUOUS
 62
     7
100
AcDbLine
 10
337.4999999999864
 20
1102.749980369797
 30
0.0
 11
342.4999999999864
 21
1102.749980369797
 31
0.0
  0
LINE
  5
31F
330
1F
100
AcDbEntity
  8
LAY-10
  6
CONTINUOUS
 62
     7
100
AcDbLine
 10
342.4999999999864
 20
1102.249980369797
 30
0.0
 11
337.4999999999864
 21
1102.249980369797
 31
0.0
  0
LINE
  5
320
330
1F
100
AcDbEntity
  8
LAY-10
  6
CONTINUOUS
 62
     7
100
AcDbLine
 10
342.4999999999864
 20
1097.249980369797
 30
0.0
 11
342.4999999999864
 21
1102.249980369797
 31
0.0
  0
LINE
  5
321
330
1F
100
AcDbEntity
  8
LAY-10
  6
CONTINUOUS
 62
     7
100
AcDbLine
 10
336.9999999999864
 20
1142.249980369987
 30
0.0
 11
336.9999999999864
 21
1137.249980369987
 31
0.0
  0
LINE
  5
322
330
1F
100
AcDbEntity
  8
LAY-10
  6
CONTINUOUS
 62
     7
100
AcDbLine
 10
336.9999999999864
 20
1137.249980369987
 30
0.0
 11
331.9999999999864
 21
1137.249980369987
 31
0.0
  0
LINE
  5
323
330
1F
100
AcDbEntity
  8
LAY-10
  6
CONTINUOUS
 62
     7
100
AcDbLine
 10
336.9999999999864
 20
1142.249980369987
 30
0.0
 11
331.9999999999864
 21
1137.249980369987
 31
0.0
  0
LINE
  5
324
330
1F
100
AcDbEntity
  8
LAY-10
  6
CONTINUOUS
 62
     7
100
AcDbLine
 10
336.9999999999864
 20
1127.749980369997
 30
0.0
 11
336.9999999999864
 21
1122.749980369997
 31
0.0
  0
LINE
  5
325
330
1F
100
AcDbEntity
  8
LAY-10
  6
CONTINUOUS
 62
     7
100
AcDbLine
 10
336.9999999999864
 20
1127.749980369997
 30
0.0
 11
331.9999999999864
 21
1127.749980369997
 31
0.0
  0
LINE
  5
326
330
1F
100
AcDbEntity
  8
LAY-10
  6
CONTINUOUS
 62
     7
100
AcDbLine
 10
336.9999999999864
 20
1122.749980369997
 30
0.0
 11
331.9999999999864
 21
1122.749980369997
 31
0.0
  0
LINE
  5
327
330
1F
100
AcDbEntity
  8
LAY-10
  6
CONTINUOUS
 62
     7
100
AcDbLine
 10
331.9999999999864
 20
1122.749980369997
 30
0.0
 11
331.9999999999864
 21
1127.749980369997
 31
0.0
  0
LINE
  5
328
330
1F
100
AcDbEntity
  8
LAY-10
  6
CONTINUOUS
 62
     7
100
AcDbLine
 10
331.4999999999863
 20
1127.749980369997
 30
0.0
 11
331.4999999999863
 21
1122.749980369997
 31
0.0
  0
LINE
  5
329
330
1F
100
AcDbEntity
  8
LAY-10
  6
CONTINUOUS
 62
     7
100
AcDbLine
 10
331.4999999999863
 20
1127.749980369997
 30
0.0
 11
326.4999999999863
 21
1127.749980369997
 31
0.0
  0
LINE
  5
32A
330
1F
100
AcDbEntity
  8
LAY-10
  6
CONTINUOUS
 62
     7
100
AcDbLine
 10
331.4999999999863
 20
1122.749980369997
 30
0.0
 11
326.4999999999863
 21
1122.749980369997
 31
0.0
  0
LINE
  5
32B
330
1F
100
AcDbEntity
  8
LAY-10
  6
CONTINUOUS
 62
     7
100
AcDbLine
 10
326.4999999999863
 20
1122.749980369997
 30
0.0
 11
326.4999999999863
 21
1127.749980369997
 31
0.0
  0
LINE
  5
32C
330
1F
100
AcDbEntity
  8
LAY-10
  6
CONTINUOUS
 62
     7
100
AcDbLine
 10
325.9999999999864
 20
1127.749980369997
 30
0.0
 11
325.9999999999864
 21
1122.749980369997
 31
0.0
  0
LINE
  5
32D
330
1F
100
AcDbEntity
  8
LAY-10
  6
CONTINUOUS
 62
     7
100
AcDbLine
 10
331.9999999999864
 20
1122.249980369997
 30
0.0
 11
336.9999999999864
 21
1122.249980369997
 31
0.0
  0
LINE
  5
32E
330
1F
100
AcDbEntity
  8
LAY-10
  6
CONTINUOUS
 62
     7
100
AcDbLine
 10
331.9999999999864
 20
1122.249980369997
 30
0.0
 11
331.9999999999864
 21
1117.249980369997
 31
0.0
  0
LINE
  5
32F
330
1F
100
AcDbEntity
  8
LAY-10
  6
CONTINUOUS
 62
     7
100
AcDbLine
 10
336.9999999999864
 20
1122.249980369997
 30
0.0
 11
336.9999999999864
 21
1117.249980369997
 31
0.0
  0
LINE
  5
330
330
1F
100
AcDbEntity
  8
LAY-10
  6
CONTINUOUS
 62
     7
100
AcDbLine
 10
336.9999999999864
 20
1117.249980369997
 30
0.0
 11
331.9999999999864
 21
1117.249980369997
 31
0.0
  0
LINE
  5
331
330
1F
100
AcDbEntity
  8
LAY-10
  6
CONTINUOUS
 62
     7
100
AcDbLine
 10
326.4999999999863
 20
1122.249980369997
 30
0.0
 11
331.4999999999863
 21
1122.249980369997
 31
0.0
  0
LINE
  5
332
330
1F
100
AcDbEntity
  8
LAY-10
  6
CONTINUOUS
 62
     7
100
AcDbLine
 10
326.4999999999863
 20
1122.249980369997
 30
0.0
 11
326.4999999999863
 21
1117.249980369997
 31
0.0
  0
LINE
  5
333
330
1F
100
AcDbEntity
  8
LAY-10
  6
CONTINUOUS
 62
     7
100
AcDbLine
 10
331.4999999999863
 20
1122.249980369997
 30
0.0
 11
331.4999999999863
 21
1117.249980369997
 31
0.0
  0
LINE
  5
334
330
1F
100
AcDbEntity
  8
LAY-10
  6
CONTINUOUS
 62
     7
100
AcDbLine
 10
331.4999999999863
 20
1117.249980369997
 30
0.0
 11
326.4999999999863
 21
1117.249980369997
 31
0.0
  0
LINE
  5
335
330
1F
100
AcDbEntity
  8
LAY-10
  6
CONTINUOUS
 62
     7
100
AcDbLine
 10
325.9999999999864
 20
1122.249980369997
 30
0.0
 11
325.9999999999864
 21
1117.249980369997
 31
0.0
  0
LINE
  5
336
330
1F
100
AcDbEntity
  8
LAY-10
  6
CONTINUOUS
 62
     7
100
AcDbLine
 10
336.9999999999864
 20
1127.749980369997
 30
0.0
 11
331.9999999999864
 21
1122.749980369997
 31
0.0
  0
LINE
  5
337
330
1F
100
AcDbEntity
  8
LAY-10
  6
CONTINUOUS
 62
     7
100
AcDbLine
 10
331.4999999999863
 20
1127.749980369997
 30
0.0
 11
326.4999999999863
 21
1122.749980369997
 31
0.0
  0
LINE
  5
338
330
1F
100
AcDbEntity
  8
LAY-10
  6
CONTINUOUS
 62
     7
100
AcDbLine
 10
336.9999999999864
 20
1122.249980369997
 30
0.0
 11
331.9999999999864
 21
1117.249980369997
 31
0.0
  0
LINE
  5
339
330
1F
100
AcDbEntity
  8
LAY-10
  6
CONTINUOUS
 62
     7
100
AcDbLine
 10
331.4999999999863
 20
1122.249980369997
 30
0.0
 11
326.4999999999863
 21
1117.249980369997
 31
0.0
  0
LINE
  5
33A
330
1F
100
AcDbEntity
  8
LAY-10
  6
CONTINUOUS
 62
     7
100
AcDbLine
 10
331.9999999999864
 20
1127.749980369997
 30
0.0
 11
336.9999999999864
 21
1122.749980369997
 31
0.0
  0
LINE
  5
33B
330
1F
100
AcDbEntity
  8
LAY-10
  6
CONTINUOUS
 62
     7
100
AcDbLine
 10
326.4999999999863
 20
1127.749980369997
 30
0.0
 11
331.4999999999863
 21
1122.749980369997
 31
0.0
  0
LINE
  5
33C
330
1F
100
AcDbEntity
  8
LAY-10
  6
CONTINUOUS
 62
     7
100
AcDbLine
 10
326.4999999999863
 20
1122.249980369997
 30
0.0
 11
331.4999999999863
 21
1117.249980369997
 31
0.0
  0
LINE
  5
33D
330
1F
100
AcDbEntity
  8
LAY-10
  6
CONTINUOUS
 62
     7
100
AcDbLine
 10
331.9999999999864
 20
1122.249980369997
 30
0.0
 11
336.9999999999864
 21
1117.249980369997
 31
0.0
  0
LINE
  5
33E
330
1F
100
AcDbEntity
  8
LAY-10
  6
CONTINUOUS
 62
     7
100
AcDbLine
 10
331.9999999999864
 20
1102.749980369797
 30
0.0
 11
336.9999999999864
 21
1102.749980369797
 31
0.0
  0
LINE
  5
33F
330
1F
100
AcDbEntity
  8
LAY-10
  6
CONTINUOUS
 62
     7
100
AcDbLine
 10
331.9999999999864
 20
1102.749980369797
 30
0.0
 11
331.9999999999864
 21
1107.749980369797
 31
0.0
  0
LINE
  5
340
330
1F
100
AcDbEntity
  8
LAY-10
  6
CONTINUOUS
 62
     7
100
AcDbLine
 10
336.9999999999864
 20
1102.749980369797
 30
0.0
 11
336.9999999999864
 21
1107.749980369797
 31
0.0
  0
LINE
  5
341
330
1F
100
AcDbEntity
  8
LAY-10
  6
CONTINUOUS
 62
     7
100
AcDbLine
 10
336.9999999999864
 20
1107.749980369797
 30
0.0
 11
331.9999999999864
 21
1107.749980369797
 31
0.0
  0
LINE
  5
342
330
1F
100
AcDbEntity
  8
LAY-10
  6
CONTINUOUS
 62
     7
100
AcDbLine
 10
336.9999999999864
 20
1102.749980369797
 30
0.0
 11
331.9999999999864
 21
1107.749980369797
 31
0.0
  0
LINE
  5
343
330
1F
100
AcDbEntity
  8
LAY-10
  6
CONTINUOUS
 62
     7
100
AcDbLine
 10
331.9999999999864
 20
1102.749980369797
 30
0.0
 11
336.9999999999864
 21
1107.749980369797
 31
0.0
  0
LINE
  5
344
330
1F
100
AcDbEntity
  8
LAY-10
  6
CONTINUOUS
 62
     7
100
AcDbLine
 10
369.9999999999864
 20
1102.249980369797
 30
0.0
 11
364.9999999999864
 21
1102.249980369797
 31
0.0
  0
LINE
  5
345
330
1F
100
AcDbEntity
  8
LAY-10
  6
CONTINUOUS
 62
     7
100
AcDbLine
 10
364.9999999999864
 20
1102.249980369797
 30
0.0
 11
364.9999999999864
 21
1097.249980369797
 31
0.0
  0
LINE
  5
346
330
1F
100
AcDbEntity
  8
LAY-10
  6
CONTINUOUS
 62
     7
100
AcDbLine
 10
370.4999999999864
 20
1102.749980369797
 30
0.0
 11
370.4999999999864
 21
1107.749980369797
 31
0.0
  0
LINE
  5
347
330
1F
100
AcDbEntity
  8
LAY-10
  6
CONTINUOUS
 62
     7
100
AcDbLine
 10
375.4999999999864
 20
1107.749980369797
 30
0.0
 11
370.4999999999864
 21
1107.749980369797
 31
0.0
  0
LINE
  5
348
330
1F
100
AcDbEntity
  8
LAY-10
  6
CONTINUOUS
 62
     7
100
AcDbLine
 10
364.9999999999864
 20
1102.749980369797
 30
0.0
 11
369.9999999999864
 21
1102.749980369797
 31
0.0
  0
LINE
  5
349
330
1F
100
AcDbEntity
  8
LAY-10
  6
CONTINUOUS
 62
     7
100
AcDbLine
 10
364.9999999999864
 20
1102.749980369797
 30
0.0
 11
364.9999999999864
 21
1107.749980369797
 31
0.0
  0
LINE
  5
34A
330
1F
100
AcDbEntity
  8
LAY-10
  6
CONTINUOUS
 62
     7
100
AcDbLine
 10
369.9999999999864
 20
1102.749980369797
 30
0.0
 11
369.9999999999864
 21
1107.749980369797
 31
0.0
  0
LINE
  5
34B
330
1F
100
AcDbEntity
  8
LAY-10
  6
CONTINUOUS
 62
     7
100
AcDbLine
 10
369.9999999999864
 20
1107.749980369797
 30
0.0
 11
364.9999999999864
 21
1107.749980369797
 31
0.0
  0
LINE
  5
34C
330
1F
100
AcDbEntity
  8
LAY-10
  6
CONTINUOUS
 62
     7
100
AcDbLine
 10
369.9999999999864
 20
1102.749980369797
 30
0.0
 11
364.9999999999864
 21
1107.749980369797
 31
0.0
  0
LINE
  5
34D
330
1F
100
AcDbEntity
  8
LAY-10
  6
CONTINUOUS
 62
     7
100
AcDbLine
 10
364.9999999999864
 20
1097.249980369797
 30
0.0
 11
369.9999999999864
 21
1102.249980369797
 31
0.0
  0
LINE
  5
34E
330
1F
100
AcDbEntity
  8
LAY-10
  6
CONTINUOUS
 62
     7
100
AcDbLine
 10
364.9999999999864
 20
1102.749980369797
 30
0.0
 11
369.9999999999864
 21
1107.749980369797
 31
0.0
  0
LINE
  5
34F
330
1F
100
AcDbEntity
  8
LAY-10
  6
CONTINUOUS
 62
     7
100
AcDbLine
 10
370.4999999999864
 20
1102.749980369797
 30
0.0
 11
375.4999999999864
 21
1107.749980369797
 31
0.0
  0
LINE
  5
350
330
1F
100
AcDbEntity
  8
LAY-10
  6
CONTINUOUS
 62
     7
100
AcDbLine
 10
359.4999999999864
 20
1102.749980369797
 30
0.0
 11
364.4999999999864
 21
1107.749980369797
 31
0.0
  0
LINE
  5
351
330
1F
100
AcDbEntity
  8
LAY-10
  6
CONTINUOUS
 62
     7
100
AcDbLine
 10
359.4999999999864
 20
1097.249980369797
 30
0.0
 11
364.4999999999864
 21
1102.249980369797
 31
0.0
  0
LINE
  5
352
330
1F
100
AcDbEntity
  8
LAY-10
  6
CONTINUOUS
 62
     7
100
AcDbLine
 10
364.4999999999864
 20
1102.749980369797
 30
0.0
 11
359.4999999999864
 21
1107.749980369797
 31
0.0
  0
LINE
  5
353
330
1F
100
AcDbEntity
  8
LAY-10
  6
CONTINUOUS
 62
     7
100
AcDbLine
 10
364.4999999999864
 20
1097.249980369797
 30
0.0
 11
359.4999999999864
 21
1102.249980369797
 31
0.0
  0
LINE
  5
354
330
1F
100
AcDbEntity
  8
LAY-10
  6
CONTINUOUS
 62
     7
100
AcDbLine
 10
364.4999999999864
 20
1107.749980369797
 30
0.0
 11
359.4999999999864
 21
1107.749980369797
 31
0.0
  0
LINE
  5
355
330
1F
100
AcDbEntity
  8
LAY-10
  6
CONTINUOUS
 62
     7
100
AcDbLine
 10
364.4999999999864
 20
1102.749980369797
 30
0.0
 11
364.4999999999864
 21
1107.749980369797
 31
0.0
  0
LINE
  5
356
330
1F
100
AcDbEntity
  8
LAY-10
  6
CONTINUOUS
 62
     7
100
AcDbLine
 10
359.4999999999864
 20
1102.749980369797
 30
0.0
 11
359.4999999999864
 21
1107.749980369797
 31
0.0
  0
LINE
  5
357
330
1F
100
AcDbEntity
  8
LAY-10
  6
CONTINUOUS
 62
     7
100
AcDbLine
 10
359.4999999999864
 20
1102.749980369797
 30
0.0
 11
364.4999999999864
 21
1102.749980369797
 31
0.0
  0
LINE
  5
358
330
1F
100
AcDbEntity
  8
LAY-10
  6
CONTINUOUS
 62
     7
100
AcDbLine
 10
359.4999999999864
 20
1102.249980369797
 30
0.0
 11
359.4999999999864
 21
1097.249980369797
 31
0.0
  0
LINE
  5
359
330
1F
100
AcDbEntity
  8
LAY-10
  6
CONTINUOUS
 62
     7
100
AcDbLine
 10
364.4999999999864
 20
1102.249980369797
 30
0.0
 11
359.4999999999864
 21
1102.249980369797
 31
0.0
  0
LINE
  5
35A
330
1F
100
AcDbEntity
  8
LAY-10
  6
CONTINUOUS
 62
     7
100
AcDbLine
 10
364.4999999999864
 20
1097.249980369797
 30
0.0
 11
359.4999999999864
 21
1097.249980369797
 31
0.0
  0
LINE
  5
35B
330
1F
100
AcDbEntity
  8
LAY-10
  6
CONTINUOUS
 62
     7
100
AcDbLine
 10
364.4999999999864
 20
1097.249980369797
 30
0.0
 11
364.4999999999864
 21
1102.249980369797
 31
0.0
  0
LINE
  5
35C
330
1F
100
AcDbEntity
  8
LAY-10
  6
CONTINUOUS
 62
     7
100
AcDbLine
 10
358.9999999999863
 20
1097.249980369797
 30
0.0
 11
358.9999999999863
 21
1102.249980369797
 31
0.0
  0
LINE
  5
35D
330
1F
100
AcDbEntity
  8
LAY-10
  6
CONTINUOUS
 62
     7
100
AcDbLine
 10
358.9999999999863
 20
1097.249980369797
 30
0.0
 11
353.9999999999863
 21
1097.249980369797
 31
0.0
  0
LINE
  5
35E
330
1F
100
AcDbEntity
  8
LAY-10
  6
CONTINUOUS
 62
     7
100
AcDbLine
 10
358.9999999999863
 20
1102.249980369797
 30
0.0
 11
353.9999999999863
 21
1102.249980369797
 31
0.0
  0
LINE
  5
35F
330
1F
100
AcDbEntity
  8
LAY-10
  6
CONTINUOUS
 62
     7
100
AcDbLine
 10
353.9999999999863
 20
1102.249980369797
 30
0.0
 11
353.9999999999863
 21
1097.249980369797
 31
0.0
  0
LINE
  5
360
330
1F
100
AcDbEntity
  8
LAY-10
  6
CONTINUOUS
 62
     7
100
AcDbLine
 10
353.4999999999864
 20
1097.249980369797
 30
0.0
 11
353.4999999999864
 21
1102.249980369797
 31
0.0
  0
LINE
  5
361
330
1F
100
AcDbEntity
  8
LAY-10
  6
CONTINUOUS
 62
     7
100
AcDbLine
 10
353.4999999999864
 20
1097.249980369797
 30
0.0
 11
348.4999999999864
 21
1097.249980369797
 31
0.0
  0
LINE
  5
362
330
1F
100
AcDbEntity
  8
LAY-10
  6
CONTINUOUS
 62
     7
100
AcDbLine
 10
353.4999999999864
 20
1102.249980369797
 30
0.0
 11
348.4999999999864
 21
1102.249980369797
 31
0.0
  0
LINE
  5
363
330
1F
100
AcDbEntity
  8
LAY-10
  6
CONTINUOUS
 62
     7
100
AcDbLine
 10
348.4999999999864
 20
1102.249980369797
 30
0.0
 11
348.4999999999864
 21
1097.249980369797
 31
0.0
  0
LINE
  5
364
330
1F
100
AcDbEntity
  8
LAY-10
  6
CONTINUOUS
 62
     7
100
AcDbLine
 10
353.9999999999863
 20
1102.749980369797
 30
0.0
 11
358.9999999999863
 21
1102.749980369797
 31
0.0
  0
LINE
  5
365
330
1F
100
AcDbEntity
  8
LAY-10
  6
CONTINUOUS
 62
     7
100
AcDbLine
 10
353.9999999999863
 20
1102.749980369797
 30
0.0
 11
353.9999999999863
 21
1107.749980369797
 31
0.0
  0
LINE
  5
366
330
1F
100
AcDbEntity
  8
LAY-10
  6
CONTINUOUS
 62
     7
100
AcDbLine
 10
358.9999999999863
 20
1102.749980369797
 30
0.0
 11
358.9999999999863
 21
1107.749980369797
 31
0.0
  0
LINE
  5
367
330
1F
100
AcDbEntity
  8
LAY-10
  6
CONTINUOUS
 62
     7
100
AcDbLine
 10
358.9999999999863
 20
1107.749980369797
 30
0.0
 11
353.9999999999863
 21
1107.749980369797
 31
0.0
  0
LINE
  5
368
330
1F
100
AcDbEntity
  8
LAY-10
  6
CONTINUOUS
 62
     7
100
AcDbLine
 10
348.4999999999864
 20
1102.749980369797
 30
0.0
 11
353.4999999999864
 21
1102.749980369797
 31
0.0
  0
LINE
  5
369
330
1F
100
AcDbEntity
  8
LAY-10
  6
CONTINUOUS
 62
     7
100
AcDbLine
 10
348.4999999999864
 20
1102.749980369797
 30
0.0
 11
348.4999999999864
 21
1107.749980369797
 31
0.0
  0
LINE
  5
36A
330
1F
100
AcDbEntity
  8
LAY-10
  6
CONTINUOUS
 62
     7
100
AcDbLine
 10
353.4999999999864
 20
1102.749980369797
 30
0.0
 11
353.4999999999864
 21
1107.749980369797
 31
0.0
  0
LINE
  5
36B
330
1F
100
AcDbEntity
  8
LAY-10
  6
CONTINUOUS
 62
     7
100
AcDbLine
 10
353.4999999999864
 20
1107.749980369797
 30
0.0
 11
348.4999999999864
 21
1107.749980369797
 31
0.0
  0
LINE
  5
36C
330
1F
100
AcDbEntity
  8
LAY-10
  6
CONTINUOUS
 62
     7
100
AcDbLine
 10
358.9999999999863
 20
1097.249980369797
 30
0.0
 11
353.9999999999863
 21
1102.249980369797
 31
0.0
  0
LINE
  5
36D
330
1F
100
AcDbEntity
  8
LAY-10
  6
CONTINUOUS
 62
     7
100
AcDbLine
 10
353.4999999999864
 20
1097.249980369797
 30
0.0
 11
348.4999999999864
 21
1102.249980369797
 31
0.0
  0
LINE
  5
36E
330
1F
100
AcDbEntity
  8
LAY-10
  6
CONTINUOUS
 62
     7
100
AcDbLine
 10
358.9999999999863
 20
1102.749980369797
 30
0.0
 11
353.9999999999863
 21
1107.749980369797
 31
0.0
  0
LINE
  5
36F
330
1F
100
AcDbEntity
  8
LAY-10
  6
CONTINUOUS
 62
     7
100
AcDbLine
 10
353.4999999999864
 20
1102.749980369797
 30
0.0
 11
348.4999999999864
 21
1107.749980369797
 31
0.0
  0
LINE
  5
370
330
1F
100
AcDbEntity
  8
LAY-10
  6
CONTINUOUS
 62
     7
100
AcDbLine
 10
353.9999999999863
 20
1097.249980369797
 30
0.0
 11
358.9999999999863
 21
1102.249980369797
 31
0.0
  0
LINE
  5
371
330
1F
100
AcDbEntity
  8
LAY-10
  6
CONTINUOUS
 62
     7
100
AcDbLine
 10
348.4999999999864
 20
1097.249980369797
 30
0.0
 11
353.4999999999864
 21
1102.249980369797
 31
0.0
  0
LINE
  5
372
330
1F
100
AcDbEntity
  8
LAY-10
  6
CONTINUOUS
 62
     7
100
AcDbLine
 10
348.4999999999864
 20
1102.749980369797
 30
0.0
 11
353.4999999999864
 21
1107.749980369797
 31
0.0
  0
LINE
  5
373
330
1F
100
AcDbEntity
  8
LAY-10
  6
CONTINUOUS
 62
     7
100
AcDbLine
 10
353.9999999999863
 20
1102.749980369797
 30
0.0
 11
358.9999999999863
 21
1107.749980369797
 31
0.0
  0
LINE
  5
374
330
1F
100
AcDbEntity
  8
LAY-10
  6
CONTINUOUS
 62
     7
100
AcDbLine
 10
380.9999999999864
 20
1117.249980369998
 30
0.0
 11
380.9999999999864
 21
1122.249980369998
 31
0.0
  0
LINE
  5
375
330
1F
100
AcDbEntity
  8
LAY-10
  6
CONTINUOUS
 62
     7
100
AcDbLine
 10
380.9999999999864
 20
1117.249980369998
 30
0.0
 11
375.9999999999864
 21
1117.249980369998
 31
0.0
  0
LINE
  5
376
330
1F
100
AcDbEntity
  8
LAY-10
  6
CONTINUOUS
 62
     7
100
AcDbLine
 10
380.9999999999864
 20
1122.249980369998
 30
0.0
 11
375.9999999999864
 21
1122.249980369998
 31
0.0
  0
LINE
  5
377
330
1F
100
AcDbEntity
  8
LAY-10
  6
CONTINUOUS
 62
     7
100
AcDbLine
 10
375.9999999999864
 20
1122.249980369998
 30
0.0
 11
375.9999999999864
 21
1117.249980369998
 31
0.0
  0
LINE
  5
378
330
1F
100
AcDbEntity
  8
LAY-10
  6
CONTINUOUS
 62
     7
100
AcDbLine
 10
375.4999999999864
 20
1117.249980369998
 30
0.0
 11
375.4999999999864
 21
1122.249980369998
 31
0.0
  0
LINE
  5
379
330
1F
100
AcDbEntity
  8
LAY-10
  6
CONTINUOUS
 62
     7
100
AcDbLine
 10
375.4999999999864
 20
1117.249980369998
 30
0.0
 11
370.4999999999864
 21
1117.249980369998
 31
0.0
  0
LINE
  5
37A
330
1F
100
AcDbEntity
  8
LAY-10
  6
CONTINUOUS
 62
     7
100
AcDbLine
 10
375.4999999999864
 20
1122.249980369998
 30
0.0
 11
370.4999999999864
 21
1122.249980369998
 31
0.0
  0
LINE
  5
37B
330
1F
100
AcDbEntity
  8
LAY-10
  6
CONTINUOUS
 62
     7
100
AcDbLine
 10
370.4999999999864
 20
1122.249980369998
 30
0.0
 11
370.4999999999864
 21
1117.249980369998
 31
0.0
  0
LINE
  5
37C
330
1F
100
AcDbEntity
  8
LAY-10
  6
CONTINUOUS
 62
     7
100
AcDbLine
 10
369.9999999999864
 20
1117.249980369998
 30
0.0
 11
369.9999999999864
 21
1122.249980369998
 31
0.0
  0
LINE
  5
37D
330
1F
100
AcDbEntity
  8
LAY-10
  6
CONTINUOUS
 62
     7
100
AcDbLine
 10
369.9999999999864
 20
1117.249980369998
 30
0.0
 11
364.9999999999864
 21
1117.249980369998
 31
0.0
  0
LINE
  5
37E
330
1F
100
AcDbEntity
  8
LAY-10
  6
CONTINUOUS
 62
     7
100
AcDbLine
 10
369.9999999999864
 20
1122.249980369998
 30
0.0
 11
364.9999999999864
 21
1122.249980369998
 31
0.0
  0
LINE
  5
37F
330
1F
100
AcDbEntity
  8
LAY-10
  6
CONTINUOUS
 62
     7
100
AcDbLine
 10
364.9999999999864
 20
1122.249980369998
 30
0.0
 11
364.9999999999864
 21
1117.249980369998
 31
0.0
  0
LINE
  5
380
330
1F
100
AcDbEntity
  8
LAY-10
  6
CONTINUOUS
 62
     7
100
AcDbLine
 10
375.9999999999864
 20
1122.749980369998
 30
0.0
 11
380.9999999999864
 21
1122.749980369998
 31
0.0
  0
LINE
  5
381
330
1F
100
AcDbEntity
  8
LAY-10
  6
CONTINUOUS
 62
     7
100
AcDbLine
 10
375.9999999999864
 20
1122.749980369998
 30
0.0
 11
375.9999999999864
 21
1127.749980369998
 31
0.0
  0
LINE
  5
382
330
1F
100
AcDbEntity
  8
LAY-10
  6
CONTINUOUS
 62
     7
100
AcDbLine
 10
370.4999999999864
 20
1122.749980369998
 30
0.0
 11
375.4999999999864
 21
1122.749980369998
 31
0.0
  0
LINE
  5
383
330
1F
100
AcDbEntity
  8
LAY-10
  6
CONTINUOUS
 62
     7
100
AcDbLine
 10
370.4999999999864
 20
1122.749980369998
 30
0.0
 11
370.4999999999864
 21
1127.749980369998
 31
0.0
  0
LINE
  5
384
330
1F
100
AcDbEntity
  8
LAY-10
  6
CONTINUOUS
 62
     7
100
AcDbLine
 10
375.4999999999864
 20
1122.749980369998
 30
0.0
 11
375.4999999999864
 21
1127.749980369998
 31
0.0
  0
LINE
  5
385
330
1F
100
AcDbEntity
  8
LAY-10
  6
CONTINUOUS
 62
     7
100
AcDbLine
 10
375.4999999999864
 20
1127.749980369998
 30
0.0
 11
370.4999999999864
 21
1127.749980369998
 31
0.0
  0
LINE
  5
386
330
1F
100
AcDbEntity
  8
LAY-10
  6
CONTINUOUS
 62
     7
100
AcDbLine
 10
364.9999999999864
 20
1122.749980369998
 30
0.0
 11
369.9999999999864
 21
1122.749980369998
 31
0.0
  0
LINE
  5
387
330
1F
100
AcDbEntity
  8
LAY-10
  6
CONTINUOUS
 62
     7
100
AcDbLine
 10
364.9999999999864
 20
1122.749980369998
 30
0.0
 11
364.9999999999864
 21
1127.749980369998
 31
0.0
  0
LINE
  5
388
330
1F
100
AcDbEntity
  8
LAY-10
  6
CONTINUOUS
 62
     7
100
AcDbLine
 10
369.9999999999864
 20
1122.749980369998
 30
0.0
 11
369.9999999999864
 21
1127.749980369998
 31
0.0
  0
LINE
  5
389
330
1F
100
AcDbEntity
  8
LAY-10
  6
CONTINUOUS
 62
     7
100
AcDbLine
 10
369.9999999999864
 20
1127.749980369998
 30
0.0
 11
364.9999999999864
 21
1127.749980369998
 31
0.0
  0
LINE
  5
38A
330
1F
100
AcDbEntity
  8
LAY-10
  6
CONTINUOUS
 62
     7
100
AcDbLine
 10
380.9999999999864
 20
1117.249980369998
 30
0.0
 11
375.9999999999864
 21
1122.249980369998
 31
0.0
  0
LINE
  5
38B
330
1F
100
AcDbEntity
  8
LAY-10
  6
CONTINUOUS
 62
     7
100
AcDbLine
 10
375.4999999999864
 20
1117.249980369998
 30
0.0
 11
370.4999999999864
 21
1122.249980369998
 31
0.0
  0
LINE
  5
38C
330
1F
100
AcDbEntity
  8
LAY-10
  6
CONTINUOUS
 62
     7
100
AcDbLine
 10
369.9999999999864
 20
1117.249980369998
 30
0.0
 11
364.9999999999864
 21
1122.249980369998
 31
0.0
  0
LINE
  5
38D
330
1F
100
AcDbEntity
  8
LAY-10
  6
CONTINUOUS
 62
     7
100
AcDbLine
 10
380.9999999999864
 20
1122.749980369998
 30
0.0
 11
375.9999999999864
 21
1127.749980369998
 31
0.0
  0
LINE
  5
38E
330
1F
100
AcDbEntity
  8
LAY-10
  6
CONTINUOUS
 62
     7
100
AcDbLine
 10
375.4999999999864
 20
1122.749980369998
 30
0.0
 11
370.4999999999864
 21
1127.749980369998
 31
0.0
  0
LINE
  5
38F
330
1F
100
AcDbEntity
  8
LAY-10
  6
CONTINUOUS
 62
     7
100
AcDbLine
 10
369.9999999999864
 20
1122.749980369998
 30
0.0
 11
364.9999999999864
 21
1127.749980369998
 31
0.0
  0
LINE
  5
390
330
1F
100
AcDbEntity
  8
LAY-10
  6
CONTINUOUS
 62
     7
100
AcDbLine
 10
375.9999999999864
 20
1117.249980369998
 30
0.0
 11
380.9999999999864
 21
1122.249980369998
 31
0.0
  0
LINE
  5
391
330
1F
100
AcDbEntity
  8
LAY-10
  6
CONTINUOUS
 62
     7
100
AcDbLine
 10
370.4999999999864
 20
1117.249980369998
 30
0.0
 11
375.4999999999864
 21
1122.249980369998
 31
0.0
  0
LINE
  5
392
330
1F
100
AcDbEntity
  8
LAY-10
  6
CONTINUOUS
 62
     7
100
AcDbLine
 10
364.9999999999864
 20
1117.249980369998
 30
0.0
 11
369.9999999999864
 21
1122.249980369998
 31
0.0
  0
LINE
  5
393
330
1F
100
AcDbEntity
  8
LAY-10
  6
CONTINUOUS
 62
     7
100
AcDbLine
 10
364.9999999999864
 20
1122.749980369998
 30
0.0
 11
369.9999999999864
 21
1127.749980369998
 31
0.0
  0
LINE
  5
394
330
1F
100
AcDbEntity
  8
LAY-10
  6
CONTINUOUS
 62
     7
100
AcDbLine
 10
370.4999999999864
 20
1122.749980369998
 30
0.0
 11
375.4999999999864
 21
1127.749980369998
 31
0.0
  0
LINE
  5
395
330
1F
100
AcDbEntity
  8
LAY-10
  6
CONTINUOUS
 62
     7
100
AcDbLine
 10
359.4999999999864
 20
1122.749980369998
 30
0.0
 11
364.4999999999864
 21
1127.749980369998
 31
0.0
  0
LINE
  5
396
330
1F
100
AcDbEntity
  8
LAY-10
  6
CONTINUOUS
 62
     7
100
AcDbLine
 10
359.4999999999864
 20
1117.249980369998
 30
0.0
 11
364.4999999999864
 21
1122.249980369998
 31
0.0
  0
LINE
  5
397
330
1F
100
AcDbEntity
  8
LAY-10
  6
CONTINUOUS
 62
     7
100
AcDbLine
 10
364.4999999999864
 20
1122.749980369998
 30
0.0
 11
359.4999999999864
 21
1127.749980369998
 31
0.0
  0
LINE
  5
398
330
1F
100
AcDbEntity
  8
LAY-10
  6
CONTINUOUS
 62
     7
100
AcDbLine
 10
364.4999999999864
 20
1117.249980369998
 30
0.0
 11
359.4999999999864
 21
1122.249980369998
 31
0.0
  0
LINE
  5
399
330
1F
100
AcDbEntity
  8
LAY-10
  6
CONTINUOUS
 62
     7
100
AcDbLine
 10
364.4999999999864
 20
1127.749980369998
 30
0.0
 11
359.4999999999864
 21
1127.749980369998
 31
0.0
  0
LINE
  5
39A
330
1F
100
AcDbEntity
  8
LAY-10
  6
CONTINUOUS
 62
     7
100
AcDbLine
 10
364.4999999999864
 20
1122.749980369998
 30
0.0
 11
364.4999999999864
 21
1127.749980369998
 31
0.0
  0
LINE
  5
39B
330
1F
100
AcDbEntity
  8
LAY-10
  6
CONTINUOUS
 62
     7
100
AcDbLine
 10
359.4999999999864
 20
1122.749980369998
 30
0.0
 11
359.4999999999864
 21
1127.749980369998
 31
0.0
  0
LINE
  5
39C
330
1F
100
AcDbEntity
  8
LAY-10
  6
CONTINUOUS
 62
     7
100
AcDbLine
 10
359.4999999999864
 20
1122.749980369998
 30
0.0
 11
364.4999999999864
 21
1122.749980369998
 31
0.0
  0
LINE
  5
39D
330
1F
100
AcDbEntity
  8
LAY-10
  6
CONTINUOUS
 62
     7
100
AcDbLine
 10
359.4999999999864
 20
1122.249980369998
 30
0.0
 11
359.4999999999864
 21
1117.249980369998
 31
0.0
  0
LINE
  5
39E
330
1F
100
AcDbEntity
  8
LAY-10
  6
CONTINUOUS
 62
     7
100
AcDbLine
 10
364.4999999999864
 20
1122.249980369998
 30
0.0
 11
359.4999999999864
 21
1122.249980369998
 31
0.0
  0
LINE
  5
39F
330
1F
100
AcDbEntity
  8
LAY-10
  6
CONTINUOUS
 62
     7
100
AcDbLine
 10
364.4999999999864
 20
1117.249980369998
 30
0.0
 11
359.4999999999864
 21
1117.249980369998
 31
0.0
  0
LINE
  5
3A0
330
1F
100
AcDbEntity
  8
LAY-10
  6
CONTINUOUS
 62
     7
100
AcDbLine
 10
364.4999999999864
 20
1117.249980369998
 30
0.0
 11
364.4999999999864
 21
1122.249980369998
 31
0.0
  0
LINE
  5
3A1
330
1F
100
AcDbEntity
  8
LAY-10
  6
CONTINUOUS
 62
     7
100
AcDbLine
 10
358.9999999999863
 20
1117.249980369998
 30
0.0
 11
358.9999999999863
 21
1122.249980369998
 31
0.0
  0
LINE
  5
3A2
330
1F
100
AcDbEntity
  8
LAY-10
  6
CONTINUOUS
 62
     7
100
AcDbLine
 10
358.9999999999863
 20
1117.249980369998
 30
0.0
 11
353.9999999999863
 21
1117.249980369998
 31
0.0
  0
LINE
  5
3A3
330
1F
100
AcDbEntity
  8
LAY-10
  6
CONTINUOUS
 62
     7
100
AcDbLine
 10
358.9999999999863
 20
1122.249980369998
 30
0.0
 11
353.9999999999863
 21
1122.249980369998
 31
0.0
  0
LINE
  5
3A4
330
1F
100
AcDbEntity
  8
LAY-10
  6
CONTINUOUS
 62
     7
100
AcDbLine
 10
353.9999999999863
 20
1122.249980369998
 30
0.0
 11
353.9999999999863
 21
1117.249980369998
 31
0.0
  0
LINE
  5
3A5
330
1F
100
AcDbEntity
  8
LAY-10
  6
CONTINUOUS
 62
     7
100
AcDbLine
 10
353.4999999999864
 20
1117.249980369998
 30
0.0
 11
353.4999999999864
 21
1122.249980369998
 31
0.0
  0
LINE
  5
3A6
330
1F
100
AcDbEntity
  8
LAY-10
  6
CONTINUOUS
 62
     7
100
AcDbLine
 10
353.4999999999864
 20
1117.249980369998
 30
0.0
 11
348.4999999999864
 21
1117.249980369998
 31
0.0
  0
LINE
  5
3A7
330
1F
100
AcDbEntity
  8
LAY-10
  6
CONTINUOUS
 62
     7
100
AcDbLine
 10
353.4999999999864
 20
1122.249980369998
 30
0.0
 11
348.4999999999864
 21
1122.249980369998
 31
0.0
  0
LINE
  5
3A8
330
1F
100
AcDbEntity
  8
LAY-10
  6
CONTINUOUS
 62
     7
100
AcDbLine
 10
348.4999999999864
 20
1122.249980369998
 30
0.0
 11
348.4999999999864
 21
1117.249980369998
 31
0.0
  0
LINE
  5
3A9
330
1F
100
AcDbEntity
  8
LAY-10
  6
CONTINUOUS
 62
     7
100
AcDbLine
 10
353.9999999999863
 20
1122.749980369998
 30
0.0
 11
358.9999999999863
 21
1122.749980369998
 31
0.0
  0
LINE
  5
3AA
330
1F
100
AcDbEntity
  8
LAY-10
  6
CONTINUOUS
 62
     7
100
AcDbLine
 10
353.9999999999863
 20
1122.749980369998
 30
0.0
 11
353.9999999999863
 21
1127.749980369998
 31
0.0
  0
LINE
  5
3AB
330
1F
100
AcDbEntity
  8
LAY-10
  6
CONTINUOUS
 62
     7
100
AcDbLine
 10
358.9999999999863
 20
1122.749980369998
 30
0.0
 11
358.9999999999863
 21
1127.749980369998
 31
0.0
  0
LINE
  5
3AC
330
1F
100
AcDbEntity
  8
LAY-10
  6
CONTINUOUS
 62
     7
100
AcDbLine
 10
358.9999999999863
 20
1127.749980369998
 30
0.0
 11
353.9999999999863
 21
1127.749980369998
 31
0.0
  0
LINE
  5
3AD
330
1F
100
AcDbEntity
  8
LAY-10
  6
CONTINUOUS
 62
     7
100
AcDbLine
 10
348.4999999999864
 20
1122.749980369998
 30
0.0
 11
353.4999999999864
 21
1122.749980369998
 31
0.0
  0
LINE
  5
3AE
330
1F
100
AcDbEntity
  8
LAY-10
  6
CONTINUOUS
 62
     7
100
AcDbLine
 10
348.4999999999864
 20
1122.749980369998
 30
0.0
 11
348.4999999999864
 21
1127.749980369998
 31
0.0
  0
LINE
  5
3AF
330
1F
100
AcDbEntity
  8
LAY-10
  6
CONTINUOUS
 62
     7
100
AcDbLine
 10
353.4999999999864
 20
1122.749980369998
 30
0.0
 11
353.4999999999864
 21
1127.749980369998
 31
0.0
  0
LINE
  5
3B0
330
1F
100
AcDbEntity
  8
LAY-10
  6
CONTINUOUS
 62
     7
100
AcDbLine
 10
353.4999999999864
 20
1127.749980369998
 30
0.0
 11
348.4999999999864
 21
1127.749980369998
 31
0.0
  0
LINE
  5
3B1
330
1F
100
AcDbEntity
  8
LAY-10
  6
CONTINUOUS
 62
     7
100
AcDbLine
 10
358.9999999999863
 20
1117.249980369998
 30
0.0
 11
353.9999999999863
 21
1122.249980369998
 31
0.0
  0
LINE
  5
3B2
330
1F
100
AcDbEntity
  8
LAY-10
  6
CONTINUOUS
 62
     7
100
AcDbLine
 10
353.4999999999864
 20
1117.249980369998
 30
0.0
 11
348.4999999999864
 21
1122.249980369998
 31
0.0
  0
LINE
  5
3B3
330
1F
100
AcDbEntity
  8
LAY-10
  6
CONTINUOUS
 62
     7
100
AcDbLine
 10
358.9999999999863
 20
1122.749980369998
 30
0.0
 11
353.9999999999863
 21
1127.749980369998
 31
0.0
  0
LINE
  5
3B4
330
1F
100
AcDbEntity
  8
LAY-10
  6
CONTINUOUS
 62
     7
100
AcDbLine
 10
353.4999999999864
 20
1122.749980369998
 30
0.0
 11
348.4999999999864
 21
1127.749980369998
 31
0.0
  0
LINE
  5
3B5
330
1F
100
AcDbEntity
  8
LAY-10
  6
CONTINUOUS
 62
     7
100
AcDbLine
 10
353.9999999999863
 20
1117.249980369998
 30
0.0
 11
358.9999999999863
 21
1122.249980369998
 31
0.0
  0
LINE
  5
3B6
330
1F
100
AcDbEntity
  8
LAY-10
  6
CONTINUOUS
 62
     7
100
AcDbLine
 10
348.4999999999864
 20
1117.249980369998
 30
0.0
 11
353.4999999999864
 21
1122.249980369998
 31
0.0
  0
LINE
  5
3B7
330
1F
100
AcDbEntity
  8
LAY-10
  6
CONTINUOUS
 62
     7
100
AcDbLine
 10
348.4999999999864
 20
1122.749980369998
 30
0.0
 11
353.4999999999864
 21
1127.749980369998
 31
0.0
  0
LINE
  5
3B8
330
1F
100
AcDbEntity
  8
LAY-10
  6
CONTINUOUS
 62
     7
100
AcDbLine
 10
353.9999999999863
 20
1122.749980369998
 30
0.0
 11
358.9999999999863
 21
1127.749980369998
 31
0.0
  0
LINE
  5
3B9
330
1F
100
AcDbEntity
  8
LAY-10
  6
CONTINUOUS
 62
     7
100
AcDbLine
 10
375.4999999999864
 20
1137.249980369987
 30
0.0
 11
370.4999999999864
 21
1137.249980369987
 31
0.0
  0
LINE
  5
3BA
330
1F
100
AcDbEntity
  8
LAY-10
  6
CONTINUOUS
 62
     7
100
AcDbLine
 10
370.4999999999864
 20
1142.249980369987
 30
0.0
 11
370.4999999999864
 21
1137.249980369987
 31
0.0
  0
LINE
  5
3BB
330
1F
100
AcDbEntity
  8
LAY-10
  6
CONTINUOUS
 62
     7
100
AcDbLine
 10
369.9999999999864
 20
1137.249980369987
 30
0.0
 11
369.9999999999864
 21
1142.249980369987
 31
0.0
  0
LINE
  5
3BC
330
1F
100
AcDbEntity
  8
LAY-10
  6
CONTINUOUS
 62
     7
100
AcDbLine
 10
369.9999999999864
 20
1137.249980369987
 30
0.0
 11
364.9999999999864
 21
1137.249980369987
 31
0.0
  0
LINE
  5
3BD
330
1F
100
AcDbEntity
  8
LAY-10
  6
CONTINUOUS
 62
     7
100
AcDbLine
 10
369.9999999999864
 20
1142.249980369987
 30
0.0
 11
364.9999999999864
 21
1142.249980369987
 31
0.0
  0
LINE
  5
3BE
330
1F
100
AcDbEntity
  8
LAY-10
  6
CONTINUOUS
 62
     7
100
AcDbLine
 10
364.9999999999864
 20
1142.249980369987
 30
0.0
 11
364.9999999999864
 21
1137.249980369987
 31
0.0
  0
LINE
  5
3BF
330
1F
100
AcDbEntity
  8
LAY-10
  6
CONTINUOUS
 62
     7
100
AcDbLine
 10
364.9999999999864
 20
1142.749980369987
 30
0.0
 11
369.9999999999864
 21
1142.749980369987
 31
0.0
  0
LINE
  5
3C0
330
1F
100
AcDbEntity
  8
LAY-10
  6
CONTINUOUS
 62
     7
100
AcDbLine
 10
375.4999999999864
 20
1137.249980369987
 30
0.0
 11
370.4999999999864
 21
1142.249980369987
 31
0.0
  0
LINE
  5
3C1
330
1F
100
AcDbEntity
  8
LAY-10
  6
CONTINUOUS
 62
     7
100
AcDbLine
 10
369.9999999999864
 20
1137.249980369987
 30
0.0
 11
364.9999999999864
 21
1142.249980369987
 31
0.0
  0
LINE
  5
3C2
330
1F
100
AcDbEntity
  8
LAY-10
  6
CONTINUOUS
 62
     7
100
AcDbLine
 10
364.9999999999864
 20
1137.249980369987
 30
0.0
 11
369.9999999999864
 21
1142.249980369987
 31
0.0
  0
LINE
  5
3C3
330
1F
100
AcDbEntity
  8
LAY-10
  6
CONTINUOUS
 62
     7
100
AcDbLine
 10
359.4999999999864
 20
1137.249980369987
 30
0.0
 11
364.4999999999864
 21
1142.249980369987
 31
0.0
  0
LINE
  5
3C4
330
1F
100
AcDbEntity
  8
LAY-10
  6
CONTINUOUS
 62
     7
100
AcDbLine
 10
364.4999999999864
 20
1142.749980369987
 30
0.0
 11
359.4999999999864
 21
1147.749980369987
 31
0.0
  0
LINE
  5
3C5
330
1F
100
AcDbEntity
  8
LAY-10
  6
CONTINUOUS
 62
     7
100
AcDbLine
 10
364.4999999999864
 20
1137.249980369987
 30
0.0
 11
359.4999999999864
 21
1142.249980369987
 31
0.0
  0
LINE
  5
3C6
330
1F
100
AcDbEntity
  8
LAY-10
  6
CONTINUOUS
 62
     7
100
AcDbLine
 10
359.4999999999864
 20
1142.749980369987
 30
0.0
 11
359.4999999999864
 21
1147.749980369987
 31
0.0
  0
LINE
  5
3C7
330
1F
100
AcDbEntity
  8
LAY-10
  6
CONTINUOUS
 62
     7
100
AcDbLine
 10
359.4999999999864
 20
1142.749980369987
 30
0.0
 11
364.4999999999864
 21
1142.749980369987
 31
0.0
  0
LINE
  5
3C8
330
1F
100
AcDbEntity
  8
LAY-10
  6
CONTINUOUS
 62
     7
100
AcDbLine
 10
359.4999999999864
 20
1142.249980369987
 30
0.0
 11
359.4999999999864
 21
1137.249980369987
 31
0.0
  0
LINE
  5
3C9
330
1F
100
AcDbEntity
  8
LAY-10
  6
CONTINUOUS
 62
     7
100
AcDbLine
 10
364.4999999999864
 20
1142.249980369987
 30
0.0
 11
359.4999999999864
 21
1142.249980369987
 31
0.0
  0
LINE
  5
3CA
330
1F
100
AcDbEntity
  8
LAY-10
  6
CONTINUOUS
 62
     7
100
AcDbLine
 10
364.4999999999864
 20
1137.249980369987
 30
0.0
 11
359.4999999999864
 21
1137.249980369987
 31
0.0
  0
LINE
  5
3CB
330
1F
100
AcDbEntity
  8
LAY-10
  6
CONTINUOUS
 62
     7
100
AcDbLine
 10
364.4999999999864
 20
1137.249980369987
 30
0.0
 11
364.4999999999864
 21
1142.249980369987
 31
0.0
  0
LINE
  5
3CC
330
1F
100
AcDbEntity
  8
LAY-10
  6
CONTINUOUS
 62
     7
100
AcDbLine
 10
358.9999999999863
 20
1137.249980369987
 30
0.0
 11
358.9999999999863
 21
1142.249980369987
 31
0.0
  0
LINE
  5
3CD
330
1F
100
AcDbEntity
  8
LAY-10
  6
CONTINUOUS
 62
     7
100
AcDbLine
 10
358.9999999999863
 20
1137.249980369987
 30
0.0
 11
353.9999999999863
 21
1137.249980369987
 31
0.0
  0
LINE
  5
3CE
330
1F
100
AcDbEntity
  8
LAY-10
  6
CONTINUOUS
 62
     7
100
AcDbLine
 10
358.9999999999863
 20
1142.249980369987
 30
0.0
 11
353.9999999999863
 21
1142.249980369987
 31
0.0
  0
LINE
  5
3CF
330
1F
100
AcDbEntity
  8
LAY-10
  6
CONTINUOUS
 62
     7
100
AcDbLine
 10
353.9999999999863
 20
1142.249980369987
 30
0.0
 11
353.9999999999863
 21
1137.249980369987
 31
0.0
  0
LINE
  5
3D0
330
1F
100
AcDbEntity
  8
LAY-10
  6
CONTINUOUS
 62
     7
100
AcDbLine
 10
353.4999999999864
 20
1137.249980369987
 30
0.0
 11
353.4999999999864
 21
1142.249980369987
 31
0.0
  0
LINE
  5
3D1
330
1F
100
AcDbEntity
  8
LAY-10
  6
CONTINUOUS
 62
     7
100
AcDbLine
 10
353.4999999999864
 20
1137.249980369987
 30
0.0
 11
348.4999999999864
 21
1137.249980369987
 31
0.0
  0
LINE
  5
3D2
330
1F
100
AcDbEntity
  8
LAY-10
  6
CONTINUOUS
 62
     7
100
AcDbLine
 10
353.4999999999864
 20
1142.249980369987
 30
0.0
 11
348.4999999999864
 21
1142.249980369987
 31
0.0
  0
LINE
  5
3D3
330
1F
100
AcDbEntity
  8
LAY-10
  6
CONTINUOUS
 62
     7
100
AcDbLine
 10
348.4999999999864
 20
1142.249980369987
 30
0.0
 11
348.4999999999864
 21
1137.249980369987
 31
0.0
  0
LINE
  5
3D4
330
1F
100
AcDbEntity
  8
LAY-10
  6
CONTINUOUS
 62
     7
100
AcDbLine
 10
353.9999999999863
 20
1142.749980369987
 30
0.0
 11
358.9999999999863
 21
1142.749980369987
 31
0.0
  0
LINE
  5
3D5
330
1F
100
AcDbEntity
  8
LAY-10
  6
CONTINUOUS
 62
     7
100
AcDbLine
 10
353.9999999999863
 20
1142.749980369987
 30
0.0
 11
353.9999999999863
 21
1147.749980369987
 31
0.0
  0
LINE
  5
3D6
330
1F
100
AcDbEntity
  8
LAY-10
  6
CONTINUOUS
 62
     7
100
AcDbLine
 10
358.9999999999863
 20
1142.749980369987
 30
0.0
 11
358.9999999999863
 21
1147.749980369987
 31
0.0
  0
LINE
  5
3D7
330
1F
100
AcDbEntity
  8
LAY-10
  6
CONTINUOUS
 62
     7
100
AcDbLine
 10
358.9999999999863
 20
1147.749980369987
 30
0.0
 11
353.9999999999863
 21
1147.749980369987
 31
0.0
  0
LINE
  5
3D8
330
1F
100
AcDbEntity
  8
LAY-10
  6
CONTINUOUS
 62
     7
100
AcDbLine
 10
348.4999999999864
 20
1142.749980369987
 30
0.0
 11
353.4999999999864
 21
1142.749980369987
 31
0.0
  0
LINE
  5
3D9
330
1F
100
AcDbEntity
  8
LAY-10
  6
CONTINUOUS
 62
     7
100
AcDbLine
 10
348.4999999999864
 20
1142.749980369987
 30
0.0
 11
348.4999999999864
 21
1147.749980369987
 31
0.0
  0
LINE
  5
3DA
330
1F
100
AcDbEntity
  8
LAY-10
  6
CONTINUOUS
 62
     7
100
AcDbLine
 10
353.4999999999864
 20
1142.749980369987
 30
0.0
 11
353.4999999999864
 21
1147.749980369987
 31
0.0
  0
LINE
  5
3DB
330
1F
100
AcDbEntity
  8
LAY-10
  6
CONTINUOUS
 62
     7
100
AcDbLine
 10
353.4999999999864
 20
1147.749980369987
 30
0.0
 11
348.4999999999864
 21
1147.749980369987
 31
0.0
  0
LINE
  5
3DC
330
1F
100
AcDbEntity
  8
LAY-10
  6
CONTINUOUS
 62
     7
100
AcDbLine
 10
358.9999999999863
 20
1137.249980369987
 30
0.0
 11
353.9999999999863
 21
1142.249980369987
 31
0.0
  0
LINE
  5
3DD
330
1F
100
AcDbEntity
  8
LAY-10
  6
CONTINUOUS
 62
     7
100
AcDbLine
 10
353.4999999999864
 20
1137.249980369987
 30
0.0
 11
348.4999999999864
 21
1142.249980369987
 31
0.0
  0
LINE
  5
3DE
330
1F
100
AcDbEntity
  8
LAY-10
  6
CONTINUOUS
 62
     7
100
AcDbLine
 10
358.9999999999863
 20
1142.749980369987
 30
0.0
 11
353.9999999999863
 21
1147.749980369987
 31
0.0
  0
LINE
  5
3DF
330
1F
100
AcDbEntity
  8
LAY-10
  6
CONTINUOUS
 62
     7
100
AcDbLine
 10
353.4999999999864
 20
1142.749980369987
 30
0.0
 11
348.4999999999864
 21
1147.749980369987
 31
0.0
  0
LINE
  5
3E0
330
1F
100
AcDbEntity
  8
LAY-10
  6
CONTINUOUS
 62
     7
100
AcDbLine
 10
353.9999999999863
 20
1137.249980369987
 30
0.0
 11
358.9999999999863
 21
1142.249980369987
 31
0.0
  0
LINE
  5
3E1
330
1F
100
AcDbEntity
  8
LAY-10
  6
CONTINUOUS
 62
     7
100
AcDbLine
 10
348.4999999999864
 20
1137.249980369987
 30
0.0
 11
353.4999999999864
 21
1142.249980369987
 31
0.0
  0
LINE
  5
3E2
330
1F
100
AcDbEntity
  8
LAY-10
  6
CONTINUOUS
 62
     7
100
AcDbLine
 10
348.4999999999864
 20
1142.749980369987
 30
0.0
 11
353.4999999999864
 21
1147.749980369987
 31
0.0
  0
LINE
  5
3E3
330
1F
100
AcDbEntity
  8
LAY-10
  6
CONTINUOUS
 62
     7
100
AcDbLine
 10
353.9999999999863
 20
1142.749980369987
 30
0.0
 11
358.9999999999863
 21
1147.749980369987
 31
0.0
  0
CIRCLE
  5
3E4
330
1F
100
AcDbEntity
  8
LAY-10
  6
CONTINUOUS
 62
     7
100
AcDbCircle
 10
353.1999999999802
 20
1121.299980369847
 30
0.0
 40
28.19999999995139
  0
LINE
  5
3E5
330
1F
100
AcDbEntity
  8
LAY-10
  6
CONTINUOUS
 62
     7
100
AcDbLine
 10
362.9794427238694
 20
1147.749980369987
 30
0.0
 11
359.4999999999864
 21
1147.749980369987
 31
0.0
  0
LINE
  5
3E6
330
1F
100
AcDbEntity
  8
LAY-10
  6
CONTINUOUS
 62
     7
100
AcDbLine
 10
359.4999999999864
 20
1142.749980369987
 30
0.0
 11
364.0705787383972
 21
1147.320559108398
 31
0.0
  0
LINE
  5
3E7
330
1F
100
AcDbEntity
  8
LAY-10
  6
CONTINUOUS
 62
     7
100
AcDbLine
 10
364.4999999999864
 20
1142.749980369987
 30
0.0
 11
364.4999999999864
 21
1147.136969358448
 31
0.0
  0
LINE
  5
3E8
330
1F
100
AcDbEntity
  8
LAY-10
  6
CONTINUOUS
 62
     7
100
AcDbLine
 10
364.9999999999864
 20
1142.749980369987
 30
0.0
 11
364.9999999999864
 21
1146.912477319522
 31
0.0
  0
LINE
  5
3E9
330
1F
100
AcDbEntity
  8
LAY-10
  6
CONTINUOUS
 62
     7
100
AcDbLine
 10
369.9999999999864
 20
1142.749980369987
 30
0.0
 11
366.6810319813785
 21
1146.068948388595
 31
0.0
  0
LINE
  5
3EA
330
1F
100
AcDbEntity
  8
LAY-10
  6
CONTINUOUS
 62
     7
100
AcDbLine
 10
364.9999999999864
 20
1142.749980369987
 30
0.0
 11
367.7228519478162
 21
1145.472832317817
 31
0.0
  0
LINE
  5
3EB
330
1F
100
AcDbEntity
  8
LAY-10
  6
CONTINUOUS
 62
     7
100
AcDbLine
 10
369.9999999999864
 20
1142.749980369987
 30
0.0
 11
369.9999999999864
 21
1143.949483675594
 31
0.0
  0
LINE
  5
3EC
330
1F
100
AcDbEntity
  8
LAY-10
  6
CONTINUOUS
 62
     7
100
AcDbLine
 10
370.4999999999864
 20
1142.749980369987
 30
0.0
 11
370.4999999999864
 21
1143.569915259672
 31
0.0
  0
LINE
  5
3ED
330
1F
100
AcDbEntity
  8
LAY-10
  6
CONTINUOUS
 62
     7
100
AcDbLine
 10
370.4999999999864
 20
1142.749980369987
 30
0.0
 11
370.9571550769174
 21
1143.207135446919
 31
0.0
  0
LINE
  5
3EE
330
1F
100
AcDbEntity
  8
LAY-10
  6
CONTINUOUS
 62
     7
100
AcDbLine
 10
372.0769038772419
 20
1142.249980369987
 30
0.0
 11
370.4999999999864
 21
1142.249980369987
 31
0.0
  0
LINE
  5
3EF
330
1F
100
AcDbEntity
  8
LAY-10
  6
CONTINUOUS
 62
     7
100
AcDbLine
 10
370.4999999999864
 20
1137.249980369987
 30
0.0
 11
373.8039832905561
 21
1140.553963660557
 31
0.0
  0
LINE
  5
3F0
330
1F
100
AcDbEntity
  8
LAY-10
  6
CONTINUOUS
 62
     7
100
AcDbLine
 10
370.4999999999864
 20
1142.749980369987
 30
0.0
 11
371.5067610458682
 21
1142.749980369987
 31
0.0
  0
LINE
  5
3F1
330
1F
100
AcDbEntity
  8
LAY-10
  6
CONTINUOUS
 62
     7
100
AcDbLine
 10
375.4999999999864
 20
1137.249980369987
 30
0.0
 11
375.4999999999864
 21
1138.561208599524
 31
0.0
  0
LINE
  5
3F2
330
1F
100
AcDbEntity
  8
LAY-10
  6
CONTINUOUS
 62
     7
100
AcDbLine
 10
375.9999999999864
 20
1137.249980369987
 30
0.0
 11
376.2690671704127
 21
1137.519047540413
 31
0.0
  0
LINE
  5
3F3
330
1F
100
AcDbEntity
  8
LAY-10
  6
CONTINUOUS
 62
     7
100
AcDbLine
 10
375.9999999999864
 20
1137.895160392883
 30
0.0
 11
375.9999999999864
 21
1137.249980369987
 31
0.0
  0
LINE
  5
3F4
330
1F
100
AcDbEntity
  8
LAY-10
  6
CONTINUOUS
 62
     7
100
AcDbLine
 10
376.4559132263571
 20
1137.249980369987
 30
0.0
 11
375.9999999999864
 21
1137.249980369987
 31
0.0
  0
LINE
  5
3F5
330
1F
100
AcDbEntity
  8
LAY-10
  6
CONTINUOUS
 62
     7
100
AcDbLine
 10
380.9999999999864
 20
1122.749980369998
 30
0.0
 11
380.9999999999864
 21
1126.032844196002
 31
0.0
  0
LINE
  5
3F6
330
1F
100
AcDbEntity
  8
LAY-10
  6
CONTINUOUS
 62
     7
100
AcDbLine
 10
380.6524589061569
 20
1127.749980369998
 30
0.0
 11
375.9999999999864
 21
1127.749980369998
 31
0.0
  0
LINE
  5
3F7
330
1F
100
AcDbEntity
  8
LAY-10
  6
CONTINUOUS
 62
     7
100
AcDbLine
 10
375.9999999999864
 20
1122.749980369998
 30
0.0
 11
380.7173387626858
 21
1127.467319132697
 31
0.0
  0
LINE
  5
3F8
330
1F
100
AcDbEntity
  8
LAY-10
  6
CONTINUOUS
 62
     7
100
AcDbLine
 10
377.931306071353
 20
1107.749980369797
 30
0.0
 11
375.9999999999864
 21
1107.749980369797
 31
0.0
  0
LINE
  5
3F9
330
1F
100
AcDbEntity
  8
LAY-10
  6
CONTINUOUS
 62
     7
100
AcDbLine
 10
377.2216330840488
 20
1106.528347285735
 30
0.0
 11
375.9999999999864
 21
1107.749980369797
 31
0.0
  0
LINE
  5
3FA
330
1F
100
AcDbEntity
  8
LAY-10
  6
CONTINUOUS
 62
     7
100
AcDbLine
 10
375.9999999999864
 20
1104.70480034681
 30
0.0
 11
375.9999999999864
 21
1107.749980369797
 31
0.0
  0
LINE
  5
3FB
330
1F
100
AcDbEntity
  8
LAY-10
  6
CONTINUOUS
 62
     7
100
AcDbLine
 10
375.4999999999864
 20
1104.03875214017
 30
0.0
 11
375.4999999999864
 21
1107.749980369797
 31
0.0
  0
LINE
  5
3FC
330
1F
100
AcDbEntity
  8
LAY-10
  6
CONTINUOUS
 62
     7
100
AcDbLine
 10
374.9270622353715
 20
1103.322918134412
 30
0.0
 11
370.4999999999864
 21
1107.749980369797
 31
0.0
  0
LINE
  5
3FD
330
1F
100
AcDbEntity
  8
LAY-10
  6
CONTINUOUS
 62
     7
100
AcDbLine
 10
370.4999999999864
 20
1102.749980369797
 30
0.0
 11
374.4399976458235
 21
1102.749980369797
 31
0.0
  0
LINE
  5
3FE
330
1F
100
AcDbEntity
  8
LAY-10
  6
CONTINUOUS
 62
     7
100
AcDbLine
 10
373.9927270937355
 20
1102.249980369797
 30
0.0
 11
370.4999999999864
 21
1102.249980369797
 31
0.0
  0
LINE
  5
3FF
330
1F
100
AcDbEntity
  8
LAY-10
  6
CONTINUOUS
 62
     7
100
AcDbLine
 10
372.2462041552949
 20
1100.503776214488
 30
0.0
 11
370.4999999999864
 21
1102.249980369797
 31
0.0
  0
LINE
  5
400
330
1F
100
AcDbEntity
  8
LAY-10
  6
CONTINUOUS
 62
     7
100
AcDbLine
 10
370.4999999999864
 20
1102.249980369797
 30
0.0
 11
370.4999999999864
 21
1099.030045480022
 31
0.0
  0
LINE
  5
401
330
1F
100
AcDbEntity
  8
LAY-10
  6
CONTINUOUS
 62
     7
100
AcDbLine
 10
369.183145628714
 20
1098.06683474107
 30
0.0
 11
364.9999999999864
 21
1102.249980369797
 31
0.0
  0
LINE
  5
402
330
1F
100
AcDbEntity
  8
LAY-10
  6
CONTINUOUS
 62
     7
100
AcDbLine
 10
367.925403220092
 20
1097.249980369797
 30
0.0
 11
364.9999999999864
 21
1097.249980369797
 31
0.0
  0
LINE
  5
403
330
1F
100
AcDbEntity
  8
LAY-10
  6
CONTINUOUS
 62
     7
100
AcDbLine
 10
369.9999999999864
 20
1098.6504770641
 30
0.0
 11
369.9999999999864
 21
1102.249980369797
 31
0.0
  0
LINE
  5
404
330
1F
100
AcDbEntity
  8
LAY-10
  6
CONTINUOUS
 62
     7
100
AcDbLine
 10
336.9999999999864
 20
1098.217519495896
 30
0.0
 11
336.9999999999864
 21
1102.249980369797
 31
0.0
  0
LINE
  5
405
330
1F
100
AcDbEntity
  8
LAY-10
  6
CONTINUOUS
 62
     7
100
AcDbLine
 10
342.4999999999864
 20
1097.249980369797
 30
0.0
 11
338.4745967798685
 21
1097.249980369797
 31
0.0
  0
LINE
  5
406
330
1F
100
AcDbEntity
  8
LAY-10
  6
CONTINUOUS
 62
     7
100
AcDbLine
 10
337.8765545491933
 20
1097.626534919004
 30
0.0
 11
342.4999999999864
 21
1102.249980369797
 31
0.0
  0
LINE
  5
407
330
1F
100
AcDbEntity
  8
LAY-10
  6
CONTINUOUS
 62
     7
100
AcDbLine
 10
337.4999999999864
 20
1102.249980369797
 30
0.0
 11
337.4999999999864
 21
1097.874566819657
 31
0.0
  0
LINE
  5
408
330
1F
100
AcDbEntity
  8
LAY-10
  6
CONTINUOUS
 62
     7
100
AcDbLine
 10
336.9999999999864
 20
1102.249980369797
 30
0.0
 11
332.4072729062254
 21
1102.249980369797
 31
0.0
  0
LINE
  5
409
330
1F
100
AcDbEntity
  8
LAY-10
  6
CONTINUOUS
 62
     7
100
AcDbLine
 10
331.4999999999863
 20
1103.290260771877
 30
0.0
 11
331.4999999999863
 21
1107.749980369797
 31
0.0
  0
LINE
  5
40A
330
1F
100
AcDbEntity
  8
LAY-10
  6
CONTINUOUS
 62
     7
100
AcDbLine
 10
329.6054104807877
 20
1105.855390850599
 30
0.0
 11
331.4999999999863
 21
1107.749980369797
 31
0.0
  0
LINE
  5
40B
330
1F
100
AcDbEntity
  8
LAY-10
  6
CONTINUOUS
 62
     7
100
AcDbLine
 10
331.4999999999863
 20
1107.749980369797
 30
0.0
 11
328.468693928608
 21
1107.749980369797
 31
0.0
  0
LINE
  5
40C
330
1F
100
AcDbEntity
  8
LAY-10
  6
CONTINUOUS
 62
     7
100
AcDbLine
 10
325.9999999999864
 20
1117.249980369997
 30
0.0
 11
325.2923397612848
 21
1117.249980369997
 31
0.0
  0
LINE
  5
40D
330
1F
100
AcDbEntity
  8
LAY-10
  6
CONTINUOUS
 62
     7
100
AcDbLine
 10
325.1863206918729
 20
1118.06365967811
 30
0.0
 11
325.9999999999864
 21
1117.249980369997
 31
0.0
  0
LINE
  5
40E
330
1F
100
AcDbEntity
  8
LAY-10
  6
CONTINUOUS
 62
     7
100
AcDbLine
 10
325.9999999999864
 20
1122.249980369997
 30
0.0
 11
325.0000442478854
 21
1121.250024617896
 31
0.0
  0
LINE
  5
40F
330
1F
100
AcDbEntity
  8
LAY-10
  6
CONTINUOUS
 62
     7
100
AcDbLine
 10
325.016006315675
 20
1122.249980369997
 30
0.0
 11
325.9999999999864
 21
1122.249980369997
 31
0.0
  0
LINE
  5
410
330
1F
100
AcDbEntity
  8
LAY-10
  6
CONTINUOUS
 62
     7
100
AcDbLine
 10
325.9999999999864
 20
1122.749980369997
 30
0.0
 11
325.037303041116
 21
1122.749980369997
 31
0.0
  0
LINE
  5
411
330
1F
100
AcDbEntity
  8
LAY-10
  6
CONTINUOUS
 62
     7
100
AcDbLine
 10
325.0982349135197
 20
1123.651745456463
 30
0.0
 11
325.9999999999864
 21
1122.749980369997
 31
0.0
  0
LINE
  5
412
330
1F
100
AcDbEntity
  8
LAY-10
  6
CONTINUOUS
 62
     7
100
AcDbLine
 10
325.9999999999864
 20
1127.749980369997
 30
0.0
 11
325.6726930057971
 21
1127.422673375807
 31
0.0
  0
LINE
  5
413
330
1F
100
AcDbEntity
  8
LAY-10
  6
CONTINUOUS
 62
     7
100
AcDbLine
 10
325.9999999999864
 20
1127.749980369997
 30
0.0
 11
325.7475410938036
 21
1127.749980369997
 31
0.0
  0
LINE
  5
414
330
1F
100
AcDbEntity
  8
LAY-10
  6
CONTINUOUS
 62
     7
100
AcDbLine
 10
331.4999999999863
 20
1137.249980369987
 30
0.0
 11
329.944086773603
 21
1137.249980369987
 31
0.0
  0
LINE
  5
415
330
1F
100
AcDbEntity
  8
LAY-10
  6
CONTINUOUS
 62
     7
100
AcDbLine
 10
330.5929353589913
 20
1138.157045010982
 30
0.0
 11
331.4999999999863
 21
1137.249980369987
 31
0.0
  0
LINE
  5
416
330
1F
100
AcDbEntity
  8
LAY-10
  6
CONTINUOUS
 62
     7
100
AcDbLine
 10
331.4999999999863
 20
1139.309699967817
 30
0.0
 11
331.4999999999863
 21
1137.249980369987
 31
0.0
  0
LINE
  5
417
330
1F
100
AcDbEntity
  8
LAY-10
  6
CONTINUOUS
 62
     7
100
AcDbLine
 10
331.9999999999864
 20
1139.895678797105
 30
0.0
 11
331.9999999999864
 21
1137.249980369987
 31
0.0
  0
LINE
  5
418
330
1F
100
AcDbEntity
  8
LAY-10
  6
CONTINUOUS
 62
     7
100
AcDbLine
 10
333.1349805667965
 20
1141.114999803176
 30
0.0
 11
336.9999999999864
 21
1137.249980369987
 31
0.0
  0
LINE
  5
419
330
1F
100
AcDbEntity
  8
LAY-10
  6
CONTINUOUS
 62
     7
100
AcDbLine
 10
336.9999999999864
 20
1142.749980369987
 30
0.0
 11
334.8932389540919
 21
1142.749980369987
 31
0.0
  0
LINE
  5
41A
330
1F
100
AcDbEntity
  8
LAY-10
  6
CONTINUOUS
 62
     7
100
AcDbLine
 10
334.3230961227177
 20
1142.249980369987
 30
0.0
 11
336.9999999999864
 21
1142.249980369987
 31
0.0
  0
LINE
  5
41B
330
1F
100
AcDbEntity
  8
LAY-10
  6
CONTINUOUS
 62
     7
100
AcDbLine
 10
336.0581242985609
 20
1143.691856071412
 30
0.0
 11
336.9999999999864
 21
1142.749980369987
 31
0.0
  0
LINE
  5
41C
330
1F
100
AcDbEntity
  8
LAY-10
  6
CONTINUOUS
 62
     7
100
AcDbLine
 10
336.9999999999864
 20
1144.382441243797
 30
0.0
 11
336.9999999999864
 21
1142.749980369987
 31
0.0
  0
LINE
  5
41D
330
1F
100
AcDbEntity
  8
LAY-10
  6
CONTINUOUS
 62
     7
100
AcDbLine
 10
339.3726726672053
 20
1145.877307702768
 30
0.0
 11
342.4999999999864
 21
1142.749980369987
 31
0.0
  0
LINE
  5
41E
330
1F
100
AcDbEntity
  8
LAY-10
  6
CONTINUOUS
 62
     7
100
AcDbLine
 10
337.4999999999864
 20
1142.749980369987
 30
0.0
 11
337.4999999999864
 21
1144.725393920037
 31
0.0
  0
LINE
  5
41F
330
1F
100
AcDbEntity
  8
LAY-10
  6
CONTINUOUS
 62
     7
100
AcDbLine
 10
341.8768532110689
 20
1147.126833581069
 30
0.0
 11
337.4999999999864
 21
1142.749980369987
 31
0.0
  0
LINE
  5
420
330
1F
100
AcDbEntity
  8
LAY-10
  6
CONTINUOUS
 62
     7
100
AcDbLine
 10
342.4999999999864
 20
1147.391166621096
 30
0.0
 11
342.4999999999864
 21
1142.749980369987
 31
0.0
  0
LINE
  5
421
330
1F
100
AcDbEntity
  8
LAY-10
  6
CONTINUOUS
 62
     7
100
AcDbLine
 10
347.9999999999864
 20
1147.749980369987
 30
0.0
 11
343.4205572760889
 21
1147.749980369987
 31
0.0
  0
LINE
  5
422
330
1F
100
AcDbEntity
  8
LAY-10
  6
CONTINUOUS
 62
     7
100
AcDbLine
 10
343.1149924493288
 20
1147.634987920644
 30
0.0
 11
347.9999999999864
 21
1142.749980369987
 31
0.0
  0
LINE
  5
423
330
1F
100
AcDbEntity
  8
LAY-10
  6
CONTINUOUS
 62
     7
100
AcDbLine
 10
342.9999999999864
 20
1142.749980369987
 30
0.0
 11
342.9999999999864
 21
1147.590663130045
 31
0.0
  0
LINE
  5
424
330
1F
100
AcDbEntity
  8
LAY-10
  6
CONTINUOUS
 62
     7
100
AcDbLine
 10
334.7355712752169
 20
1099.985551645028
 30
0.0
 11
336.9999999999864
 21
1102.249980369797
 31
0.0
  0
LINE
  5
425
330
1F
100
AcDbEntity
  8
LAY-10
  6
CONTINUOUS
 62
     7
100
AcDbLine
 10
1625.999444906998
 20
980.0333148303523
 30
0.0
 11
1505.00000000002
 21
976.0000000001196
 31
0.0
  0
ARC
  5
426
330
1F
100
AcDbEntity
  8
LAY-10
  6
CONTINUOUS
 62
     7
100
AcDbCircle
 10
1625.00000000002
 20
1010.016662039727
 30
0.0
 40
30.0
100
AcDbArc
 50
271.9091524329962
 51
0.0
  0
LINE
  5
427
330
1F
100
AcDbEntity
  8
LAY-10
  6
CONTINUOUS
 62
     7
100
AcDbLine
 10
1665.00000000002
 20
946.0000000001198
 30
0.0
 11
1505.00000000002
 21
946.0000000001198
 31
0.0
  0
LINE
  5
428
330
1F
100
AcDbEntity
  8
LAY-10
  6
CONTINUOUS
 62
     7
100
AcDbLine
 10
1665.000000000036
 20
946.0000000001032
 30
0.0
 11
1690.000000000035
 21
971.0000000001032
 31
0.0
  0
LINE
  5
429
330
1F
100
AcDbEntity
  8
LAY-10
  6
CONTINUOUS
 62
     7
100
AcDbLine
 10
1690.00000000002
 20
1131.00000000012
 30
0.0
 11
1690.00000000002
 21
971.0000000001196
 31
0.0
  0
LINE
  5
42A
330
1F
100
AcDbEntity
  8
LAY-10
  6
CONTINUOUS
 62
     7
100
AcDbLine
 10
1655.00000000002
 20
1091.983337960512
 30
0.0
 11
1655.00000000002
 21
1010.016662039727
 31
0.0
  0
ARC
  5
42B
330
1F
100
AcDbEntity
  8
LAY-10
  6
CONTINUOUS
 62
     7
100
AcDbCircle
 10
1625.00000000002
 20
1091.983337960512
 30
0.0
 40
30.0
100
AcDbArc
 50
0.0
 51
88.09084756696596
  0
LINE
  5
42C
330
1F
100
AcDbEntity
  8
LAY-10
  6
CONTINUOUS
 62
     7
100
AcDbLine
 10
1625.999444906998
 20
1121.966685169887
 30
0.0
 11
1505.00000000002
 21
1126.00000000012
 31
0.0
  0
LINE
  5
42D
330
1F
100
AcDbEntity
  8
LAY-10
  6
CONTINUOUS
 62
     7
100
AcDbLine
 10
1665.00000000002
 20
1156.00000000012
 30
0.0
 11
1505.00000000002
 21
1156.00000000012
 31
0.0
  0
LINE
  5
42E
330
1F
100
AcDbEntity
  8
LAY-10
  6
CONTINUOUS
 62
     7
100
AcDbLine
 10
1665.000000000018
 20
1156.000000000118
 30
0.0
 11
1690.000000000017
 21
1131.000000000118
 31
0.0
  0
LINE
  5
42F
330
1F
100
AcDbEntity
  8
LAY-10
  6
CONTINUOUS
 62
     7
100
AcDbLine
 10
1521.99999999993
 20
1158.500000000102
 30
0.0
 11
1521.99999999993
 21
1168.000000000103
 31
0.0
  0
LINE
  5
430
330
1F
100
AcDbEntity
  8
LAY-10
  6
CONTINUOUS
 62
     7
100
AcDbLine
 10
1528.999999999929
 20
1158.500000000102
 30
0.0
 11
1528.999999999929
 21
1168.000000000103
 31
0.0
  0
LINE
  5
431
330
1F
100
AcDbEntity
  8
LAY-10
  6
CONTINUOUS
 62
     7
100
AcDbLine
 10
1528.874999999937
 20
930.0000000002628
 30
0.0
 11
1528.87499999994
 21
926.0000000000726
 31
0.0
  0
LINE
  5
432
330
1F
100
AcDbEntity
  8
LAY-10
  6
CONTINUOUS
 62
     7
100
AcDbLine
 10
1522.12499999994
 20
926.0000000000726
 30
0.0
 11
1522.124999999938
 21
930.0000000002206
 31
0.0
  0
LINE
  5
433
330
1F
100
AcDbEntity
  8
LAY-10
  6
CONTINUOUS
 62
     7
100
AcDbLine
 10
1522.124999999942
 20
941.000000000223
 30
0.0
 11
1522.124999999942
 21
946.0000000000852
 31
0.0
  0
LINE
  5
434
330
1F
100
AcDbEntity
  8
LAY-10
  6
CONTINUOUS
 62
     7
100
AcDbLine
 10
1528.874999999942
 20
946.000000000084
 30
0.0
 11
1528.874999999942
 21
941.000000000223
 31
0.0
  0
LINE
  5
435
330
1F
100
AcDbEntity
  8
LAY-10
  6
CONTINUOUS
 62
     7
100
AcDbLine
 10
1408.999999999997
 20
1114.898708177927
 30
0.0
 11
1401.997114317034
 21
1114.898708177927
 31
0.0
  0
LINE
  5
436
330
1F
100
AcDbEntity
  8
LAY-10
  6
CONTINUOUS
 62
     7
100
AcDbLine
 10
1408.999999999997
 20
1110.098708177928
 30
0.0
 11
1401.997114317034
 21
1110.098708177928
 31
0.0
  0
LINE
  5
437
330
1F
100
AcDbEntity
  8
LAY-10
  6
CONTINUOUS
 62
     7
100
AcDbLine
 10
1421.197114317039
 20
1114.898708177927
 30
0.0
 11
1412.99711431704
 21
1114.898708177927
 31
0.0
  0
LINE
  5
438
330
1F
100
AcDbEntity
  8
LAY-10
  6
CONTINUOUS
 62
     7
100
AcDbLine
 10
1421.197114317039
 20
1110.098708177928
 30
0.0
 11
1412.99711431704
 21
1110.098708177928
 31
0.0
  0
LINE
  5
439
330
1F
100
AcDbEntity
  8
LAY-10
  6
HIDDEN
 62
     7
100
AcDbLine
 10
354.9999999999509
 20
1156.000000000103
 30
0.0
 11
354.9999999999513
 21
1156.000078521089
 31
0.0
  0
LINE
  5
43A
330
1F
100
AcDbEntity
  8
LAY-10
  6
HIDDEN
 62
     7
100
AcDbLine
 10
704.9999999999809
 20
1156.000000000103
 30
0.0
 11
704.9999999999818
 21
1156.000078521089
 31
0.0
  0
LINE
  5
43B
330
1F
100
AcDbEntity
  8
LAY-10
  6
HIDDEN
 62
     7
100
AcDbLine
 10
744.9999999999827
 20
1156.000000000103
 30
0.0
 11
744.9999999999818
 21
1156.000078521089
 31
0.0
  0
LINE
  5
43C
330
1F
100
AcDbEntity
  8
LAY-10
  6
HIDDEN
 62
     7
100
AcDbLine
 10
754.9999999999809
 20
1156.000000000103
 30
0.0
 11
754.9999999999818
 21
1156.000078521089
 31
0.0
  0
LINE
  5
43D
330
1F
100
AcDbEntity
  8
LAY-10
  6
CONTINUOUS
 62
     7
100
AcDbLine
 10
321.4999999999595
 20
1162.0000000001
 30
0.0
 11
321.4999999999595
 21
1168.000000000104
 31
0.0
  0
LINE
  5
43E
330
1F
100
AcDbEntity
  8
LAY-10
  6
CONTINUOUS
 62
     7
100
AcDbLine
 10
328.4999999999582
 20
1162.0000000001
 30
0.0
 11
328.4999999999582
 21
1168.000000000104
 31
0.0
  0
LINE
  5
43F
330
1F
100
AcDbEntity
  8
LAY-10
  6
CONTINUOUS
 62
     7
100
AcDbLine
 10
721.4999999999891
 20
1162.0000000001
 30
0.0
 11
721.4999999999891
 21
1168.000000000104
 31
0.0
  0
LINE
  5
440
330
1F
100
AcDbEntity
  8
LAY-10
  6
CONTINUOUS
 62
     7
100
AcDbLine
 10
728.4999999999881
 20
1162.0000000001
 30
0.0
 11
728.4999999999881
 21
1168.000000000104
 31
0.0
  0
LINE
  5
441
330
1F
100
AcDbEntity
  8
LAY-10
  6
CONTINUOUS
 62
     7
100
AcDbLine
 10
1121.49999999993
 20
1162.0000000001
 30
0.0
 11
1121.49999999993
 21
1168.000000000104
 31
0.0
  0
LINE
  5
442
330
1F
100
AcDbEntity
  8
LAY-10
  6
CONTINUOUS
 62
     7
100
AcDbLine
 10
1128.499999999929
 20
1162.0000000001
 30
0.0
 11
1128.499999999929
 21
1168.000000000104
 31
0.0
  0
LINE
  5
443
330
1F
100
AcDbEntity
  8
LAY-10
  6
CONTINUOUS
 62
     7
100
AcDbLine
 10
1128.374999999887
 20
930.0000000002628
 30
0.0
 11
1128.374999999889
 21
926.0000000000728
 31
0.0
  0
LINE
  5
444
330
1F
100
AcDbEntity
  8
LAY-10
  6
CONTINUOUS
 62
     7
100
AcDbLine
 10
1121.62499999989
 20
926.0000000000728
 30
0.0
 11
1121.624999999887
 21
930.0000000002206
 31
0.0
  0
LINE
  5
445
330
1F
100
AcDbEntity
  8
LAY-10
  6
CONTINUOUS
 62
     7
100
AcDbLine
 10
728.3749999999472
 20
930.0000000002628
 30
0.0
 11
728.3749999999495
 21
926.0000000000728
 31
0.0
  0
LINE
  5
446
330
1F
100
AcDbEntity
  8
LAY-10
  6
CONTINUOUS
 62
     7
100
AcDbLine
 10
721.62499999995
 20
926.0000000000728
 30
0.0
 11
721.6249999999477
 21
930.0000000002206
 31
0.0
  0
LINE
  5
447
330
1F
100
AcDbEntity
  8
LAY-10
  6
CONTINUOUS
 62
     7
100
AcDbLine
 10
328.3749999999272
 20
930.0000000002628
 30
0.0
 11
328.3749999999291
 21
926.0000000000728
 31
0.0
  0
LINE
  5
448
330
1F
100
AcDbEntity
  8
LAY-10
  6
CONTINUOUS
 62
     7
100
AcDbLine
 10
321.6249999999299
 20
926.0000000000728
 30
0.0
 11
321.6249999999272
 21
930.0000000002206
 31
0.0
  0
LINE
  5
449
330
1F
100
AcDbEntity
  8
LAY-10
  6
HIDDEN
 62
     7
100
AcDbLine
 10
854.9999999999895
 20
1069.00000000013
 30
0.0
 11
854.9999999999895
 21
1151.500000000103
 31
0.0
  0
LINE
  5
44A
330
1F
100
AcDbEntity
  8
LAY-10
  6
HIDDEN
 62
     7
100
AcDbLine
 10
894.9999999999895
 20
1069.00000000013
 30
0.0
 11
894.9999999999895
 21
1151.500000000103
 31
0.0
  0
LINE
  5
44B
330
1F
100
AcDbEntity
  8
LAY-10
  6
HIDDEN
 62
     7
100
AcDbLine
 10
554.9999999999895
 20
1069.00000000013
 30
0.0
 11
554.9999999999895
 21
1151.500000000103
 31
0.0
  0
LINE
  5
44C
330
1F
100
AcDbEntity
  8
LAY-10
  6
HIDDEN
 62
     7
100
AcDbLine
 10
594.9999999999895
 20
1069.00000000013
 30
0.0
 11
594.9999999999895
 21
1151.500000000103
 31
0.0
  0
LINE
  5
44D
330
1F
100
AcDbEntity
  8
LAY-10
  6
HIDDEN
 62
     7
100
AcDbLine
 10
254.9999999999895
 20
1069.00000000013
 30
0.0
 11
254.9999999999895
 21
1151.500000000103
 31
0.0
  0
LINE
  5
44E
330
1F
100
AcDbEntity
  8
LAY-10
  6
HIDDEN
 62
     7
100
AcDbLine
 10
294.9999999999895
 20
1069.00000000013
 30
0.0
 11
294.9999999999895
 21
1151.500000000103
 31
0.0
  0
LINE
  5
44F
330
1F
100
AcDbEntity
  8
LAY-10
  6
HIDDEN
 62
     7
100
AcDbLine
 10
1154.999999999961
 20
941.0000000002117
 30
0.0
 11
1145.999999999961
 21
941.0000000002115
 31
0.0
  0
LINE
  5
450
330
1F
100
AcDbEntity
  8
LAY-10
  6
HIDDEN
 62
     7
100
AcDbLine
 10
1145.999999999999
 20
971.0000000002101
 30
0.0
 11
1154.999999999999
 21
971.0000000002103
 31
0.0
  0
LINE
  5
451
330
1F
100
AcDbEntity
  8
LAY-10
  6
HIDDEN
 62
     7
100
AcDbLine
 10
1146.0
 20
971.00000000021
 30
0.0
 11
1146.0
 21
941.0000000002101
 31
0.0
  0
LINE
  5
452
330
1F
100
AcDbEntity
  8
LAY-10
  6
HIDDEN
 62
     7
100
AcDbLine
 10
854.9999999999609
 20
941.0000000002117
 30
0.0
 11
845.999999999961
 21
941.0000000002115
 31
0.0
  0
LINE
  5
453
330
1F
100
AcDbEntity
  8
LAY-10
  6
HIDDEN
 62
     7
100
AcDbLine
 10
845.9999999999986
 20
971.0000000002101
 30
0.0
 11
854.9999999999986
 21
971.0000000002103
 31
0.0
  0
LINE
  5
454
330
1F
100
AcDbEntity
  8
LAY-10
  6
HIDDEN
 62
     7
100
AcDbLine
 10
845.9999999999997
 20
971.00000000021
 30
0.0
 11
845.9999999999997
 21
941.0000000002101
 31
0.0
  0
LINE
  5
455
330
1F
100
AcDbEntity
  8
LAY-10
  6
HIDDEN
 62
     7
100
AcDbLine
 10
554.9999999999609
 20
941.0000000002117
 30
0.0
 11
545.9999999999609
 21
941.0000000002115
 31
0.0
  0
LINE
  5
456
330
1F
100
AcDbEntity
  8
LAY-10
  6
HIDDEN
 62
     7
100
AcDbLine
 10
545.9999999999986
 20
971.0000000002101
 30
0.0
 11
554.9999999999986
 21
971.0000000002103
 31
0.0
  0
LINE
  5
457
330
1F
100
AcDbEntity
  8
LAY-10
  6
HIDDEN
 62
     7
100
AcDbLine
 10
545.9999999999995
 20
971.00000000021
 30
0.0
 11
545.9999999999995
 21
941.0000000002101
 31
0.0
  0
LINE
  5
458
330
1F
100
AcDbEntity
  8
LAY-10
  6
HIDDEN
 62
     7
100
AcDbLine
 10
595.0000000000414
 20
941.0000000002117
 30
0.0
 11
604.0000000000414
 21
941.0000000002128
 31
0.0
  0
LINE
  5
459
330
1F
100
AcDbEntity
  8
LAY-10
  6
HIDDEN
 62
     7
100
AcDbLine
 10
603.9999999999995
 20
971.0000000002115
 30
0.0
 11
594.9999999999995
 21
971.0000000002103
 31
0.0
  0
LINE
  5
45A
330
1F
100
AcDbEntity
  8
LAY-10
  6
HIDDEN
 62
     7
100
AcDbLine
 10
603.9999999999986
 20
971.0000000002112
 30
0.0
 11
604.0000000000027
 21
941.0000000002115
 31
0.0
  0
LINE
  5
45B
330
1F
100
AcDbEntity
  8
LAY-10
  6
HIDDEN
 62
     7
100
AcDbLine
 10
295.0000000000414
 20
941.0000000002117
 30
0.0
 11
304.0000000000414
 21
941.0000000002128
 31
0.0
  0
LINE
  5
45C
330
1F
100
AcDbEntity
  8
LAY-10
  6
HIDDEN
 62
     7
100
AcDbLine
 10
303.9999999999995
 20
971.0000000002115
 30
0.0
 11
294.9999999999995
 21
971.0000000002103
 31
0.0
  0
LINE
  5
45D
330
1F
100
AcDbEntity
  8
LAY-10
  6
HIDDEN
 62
     7
100
AcDbLine
 10
303.9999999999986
 20
971.0000000002112
 30
0.0
 11
304.0000000000027
 21
941.0000000002115
 31
0.0
  0
LINE
  5
45E
330
1F
100
AcDbEntity
  8
LAY-10
  6
HIDDEN
 62
     7
100
AcDbLine
 10
895.0000000000415
 20
941.0000000002117
 30
0.0
 11
904.0000000000414
 21
941.0000000002128
 31
0.0
  0
LINE
  5
45F
330
1F
100
AcDbEntity
  8
LAY-10
  6
HIDDEN
 62
     7
100
AcDbLine
 10
903.9999999999995
 20
971.0000000002115
 30
0.0
 11
894.9999999999995
 21
971.0000000002103
 31
0.0
  0
LINE
  5
460
330
1F
100
AcDbEntity
  8
LAY-10
  6
HIDDEN
 62
     7
100
AcDbLine
 10
903.9999999999986
 20
971.0000000002112
 30
0.0
 11
904.0000000000027
 21
941.0000000002115
 31
0.0
  0
LINE
  5
461
330
1F
100
AcDbEntity
  8
LAY-10
  6
HIDDEN
 62
     7
100
AcDbLine
 10
1155.00000000002
 20
1151.500000000104
 30
0.0
 11
1155.00000000002
 21
1069.00000000013
 31
0.0
  0
LINE
  5
462
330
1F
100
AcDbEntity
  8
LAY-10
  6
HIDDEN
 62
     7
100
AcDbLine
 10
1195.00000000002
 20
1151.500000000104
 30
0.0
 11
1195.00000000002
 21
1069.00000000013
 31
0.0
  0
LINE
  5
463
330
1F
100
AcDbEntity
  8
LAY-10
  6
CENTER
 62
     2
100
AcDbLine
 10
1525.499999999907
 20
1153.0000000001
 30
0.0
 11
1525.499999999907
 21
1171.0000000001
 31
0.0
  0
LINE
  5
464
330
1F
100
AcDbEntity
  8
LAY-10
  6
CENTER
 62
     2
100
AcDbLine
 10
1525.499999999943
 20
949.0000000000896
 30
0.0
 11
1525.499999999943
 21
917.5000000000906
 31
0.0
  0
LINE
  5
465
330
1F
100
AcDbEntity
  8
LAY-10
  6
CENTER
 62
     2
100
AcDbLine
 10
1554.99999999995
 20
1050.000000000096
 30
0.0
 11
1364.999999999955
 21
1050.000000000097
 31
0.0
  0
LINE
  5
466
330
1F
100
AcDbEntity
  8
LAY-10
  6
CENTER
 62
     2
100
AcDbLine
 10
1432.6971141316
 20
1112.5000000001
 30
0.0
 11
1372.999999999993
 21
1112.500000000106
 31
0.0
  0
LINE
  5
467
330
1F
100
AcDbEntity
  8
LAY-10
  6
CENTER
 62
     2
100
AcDbLine
 10
1235.00000000002
 20
1050.000000000098
 30
0.0
 11
214.9999999999996
 21
1050.000000000102
 31
0.0
  0
LINE
  5
468
330
1F
100
AcDbEntity
  8
LAY-10
  6
CENTER
 62
     2
100
AcDbLine
 10
324.9999999999368
 20
1153.0000000001
 30
0.0
 11
324.9999999999368
 21
1171.0000000001
 31
0.0
  0
LINE
  5
469
330
1F
100
AcDbEntity
  8
LAY-10
  6
CENTER
 62
     2
100
AcDbLine
 10
724.9999999999662
 20
1153.0000000001
 30
0.0
 11
724.9999999999662
 21
1171.0000000001
 31
0.0
  0
LINE
  5
46A
330
1F
100
AcDbEntity
  8
LAY-10
  6
CENTER
 62
     2
100
AcDbLine
 10
1124.999999999907
 20
1153.0000000001
 30
0.0
 11
1124.999999999907
 21
1171.0000000001
 31
0.0
  0
LINE
  5
46B
330
1F
100
AcDbEntity
  8
LAY-10
  6
CENTER
 62
     2
100
AcDbLine
 10
1124.999999999894
 20
948.0000000001396
 30
0.0
 11
1124.999999999894
 21
917.5000000000907
 31
0.0
  0
LINE
  5
46C
330
1F
100
AcDbEntity
  8
LAY-10
  6
CENTER
 62
     2
100
AcDbLine
 10
724.9999999999536
 20
948.0000000001396
 30
0.0
 11
724.9999999999536
 21
917.5000000000907
 31
0.0
  0
LINE
  5
46D
330
1F
100
AcDbEntity
  8
LAY-10
  6
CENTER
 62
     2
100
AcDbLine
 10
324.9999999999336
 20
948.0000000001396
 30
0.0
 11
324.9999999999336
 21
917.5000000000907
 31
0.0
  0
ARC
  5
46E
330
1F
100
AcDbEntity
  8
LAY-10
  6
CONTINUOUS
 62
     7
100
AcDbCircle
 10
291.00000000003
 20
674.0000000000999
 30
0.0
 40
4.0
100
AcDbArc
 50
270.0
 51
0.0
  0
ARC
  5
46F
330
1F
100
AcDbEntity
  8
LAY-10
  6
CONTINUOUS
 62
     7
100
AcDbCircle
 10
259.00000000003
 20
674.0000000000999
 30
0.0
 40
4.0
100
AcDbArc
 50
180.0
 51
270.0
  0
ARC
  5
470
330
1F
100
AcDbEntity
  8
LAY-10
  6
CONTINUOUS
 62
     7
100
AcDbCircle
 10
291.00000000003
 20
706.0000000000999
 30
0.0
 40
4.0
100
AcDbArc
 50
0.0
 51
90.00000000000001
  0
ARC
  5
471
330
1F
100
AcDbEntity
  8
LAY-10
  6
CONTINUOUS
 62
     7
100
AcDbCircle
 10
259.00000000003
 20
706.0000000000999
 30
0.0
 40
4.0
100
AcDbArc
 50
90.00000000000001
 51
180.0
  0
ARC
  5
472
330
1F
100
AcDbEntity
  8
LAY-10
  6
CONTINUOUS
 62
     7
100
AcDbCircle
 10
259.2000000000303
 20
674.2000000001002
 30
0.0
 40
1.0
100
AcDbArc
 50
180.0
 51
270.0
  0
LINE
  5
473
330
1F
100
AcDbEntity
  8
LAY-10
  6
CONTINUOUS
 62
     7
100
AcDbLine
 10
290.8000000000302
 20
673.2000000001002
 30
0.0
 11
259.2000000000303
 21
673.2000000001002
 31
0.0
  0
ARC
  5
474
330
1F
100
AcDbEntity
  8
LAY-10
  6
CONTINUOUS
 62
     7
100
AcDbCircle
 10
290.8000000000302
 20
674.2000000001002
 30
0.0
 40
1.0
100
AcDbArc
 50
270.0
 51
0.0
  0
ARC
  5
475
330
1F
100
AcDbEntity
  8
LAY-10
  6
CONTINUOUS
 62
     7
100
AcDbCircle
 10
290.8000000000302
 20
705.8000000001001
 30
0.0
 40
1.0
100
AcDbArc
 50
0.0
 51
90.00000000000001
  0
LINE
  5
476
330
1F
100
AcDbEntity
  8
LAY-10
  6
CONTINUOUS
 62
     7
100
AcDbLine
 10
290.8000000000302
 20
706.8000000001001
 30
0.0
 11
259.2000000000303
 21
706.8000000001001
 31
0.0
  0
ARC
  5
477
330
1F
100
AcDbEntity
  8
LAY-10
  6
CONTINUOUS
 62
     7
100
AcDbCircle
 10
259.2000000000303
 20
705.8000000001001
 30
0.0
 40
1.0
100
AcDbArc
 50
90.00000000000001
 51
180.0
  0
ARC
  5
478
330
1F
100
AcDbEntity
  8
LAY-10
  6
CONTINUOUS
 62
     7
100
AcDbCircle
 10
591.00000000003
 20
674.0000000000999
 30
0.0
 40
4.0
100
AcDbArc
 50
270.0
 51
0.0
  0
ARC
  5
479
330
1F
100
AcDbEntity
  8
LAY-10
  6
CONTINUOUS
 62
     7
100
AcDbCircle
 10
559.00000000003
 20
674.0000000000999
 30
0.0
 40
4.0
100
AcDbArc
 50
180.0
 51
270.0
  0
ARC
  5
47A
330
1F
100
AcDbEntity
  8
LAY-10
  6
CONTINUOUS
 62
     7
100
AcDbCircle
 10
591.00000000003
 20
706.0000000000999
 30
0.0
 40
4.0
100
AcDbArc
 50
0.0
 51
90.00000000000001
  0
ARC
  5
47B
330
1F
100
AcDbEntity
  8
LAY-10
  6
CONTINUOUS
 62
     7
100
AcDbCircle
 10
559.00000000003
 20
706.0000000000999
 30
0.0
 40
4.0
100
AcDbArc
 50
90.00000000000001
 51
180.0
  0
ARC
  5
47C
330
1F
100
AcDbEntity
  8
LAY-10
  6
CONTINUOUS
 62
     7
100
AcDbCircle
 10
559.2000000000303
 20
674.2000000001002
 30
0.0
 40
1.0
100
AcDbArc
 50
180.0
 51
270.0
  0
LINE
  5
47D
330
1F
100
AcDbEntity
  8
LAY-10
  6
CONTINUOUS
 62
     7
100
AcDbLine
 10
590.8000000000302
 20
673.2000000001002
 30
0.0
 11
559.2000000000303
 21
673.2000000001002
 31
0.0
  0
ARC
  5
47E
330
1F
100
AcDbEntity
  8
LAY-10
  6
CONTINUOUS
 62
     7
100
AcDbCircle
 10
590.8000000000302
 20
674.2000000001002
 30
0.0
 40
1.0
100
AcDbArc
 50
270.0
 51
0.0
  0
ARC
  5
47F
330
1F
100
AcDbEntity
  8
LAY-10
  6
CONTINUOUS
 62
     7
100
AcDbCircle
 10
590.8000000000302
 20
705.8000000001001
 30
0.0
 40
1.0
100
AcDbArc
 50
0.0
 51
90.00000000000001
  0
LINE
  5
480
330
1F
100
AcDbEntity
  8
LAY-10
  6
CONTINUOUS
 62
     7
100
AcDbLine
 10
590.8000000000302
 20
706.8000000001001
 30
0.0
 11
559.2000000000303
 21
706.8000000001001
 31
0.0
  0
ARC
  5
481
330
1F
100
AcDbEntity
  8
LAY-10
  6
CONTINUOUS
 62
     7
100
AcDbCircle
 10
559.2000000000303
 20
705.8000000001001
 30
0.0
 40
1.0
100
AcDbArc
 50
90.00000000000001
 51
180.0
  0
ARC
  5
482
330
1F
100
AcDbEntity
  8
LAY-10
  6
CONTINUOUS
 62
     7
100
AcDbCircle
 10
891.0000000000299
 20
674.0000000000999
 30
0.0
 40
4.0
100
AcDbArc
 50
270.0
 51
0.0
  0
ARC
  5
483
330
1F
100
AcDbEntity
  8
LAY-10
  6
CONTINUOUS
 62
     7
100
AcDbCircle
 10
859.0000000000299
 20
674.0000000000999
 30
0.0
 40
4.0
100
AcDbArc
 50
180.0
 51
270.0
  0
ARC
  5
484
330
1F
100
AcDbEntity
  8
LAY-10
  6
CONTINUOUS
 62
     7
100
AcDbCircle
 10
891.0000000000299
 20
706.0000000000999
 30
0.0
 40
4.0
100
AcDbArc
 50
0.0
 51
90.00000000000001
  0
ARC
  5
485
330
1F
100
AcDbEntity
  8
LAY-10
  6
CONTINUOUS
 62
     7
100
AcDbCircle
 10
859.0000000000299
 20
706.0000000000999
 30
0.0
 40
4.0
100
AcDbArc
 50
90.00000000000001
 51
180.0
  0
ARC
  5
486
330
1F
100
AcDbEntity
  8
LAY-10
  6
CONTINUOUS
 62
     7
100
AcDbCircle
 10
859.2000000000297
 20
674.2000000001002
 30
0.0
 40
1.0
100
AcDbArc
 50
180.0
 51
270.0
  0
LINE
  5
487
330
1F
100
AcDbEntity
  8
LAY-10
  6
CONTINUOUS
 62
     7
100
AcDbLine
 10
890.8000000000301
 20
673.2000000001002
 30
0.0
 11
859.2000000000297
 21
673.2000000001002
 31
0.0
  0
ARC
  5
488
330
1F
100
AcDbEntity
  8
LAY-10
  6
CONTINUOUS
 62
     7
100
AcDbCircle
 10
890.8000000000301
 20
674.2000000001002
 30
0.0
 40
1.0
100
AcDbArc
 50
270.0
 51
0.0
  0
ARC
  5
489
330
1F
100
AcDbEntity
  8
LAY-10
  6
CONTINUOUS
 62
     7
100
AcDbCircle
 10
890.8000000000301
 20
705.8000000001001
 30
0.0
 40
1.0
100
AcDbArc
 50
0.0
 51
90.00000000000001
  0
LINE
  5
48A
330
1F
100
AcDbEntity
  8
LAY-10
  6
CONTINUOUS
 62
     7
100
AcDbLine
 10
890.8000000000301
 20
706.8000000001001
 30
0.0
 11
859.2000000000297
 21
706.8000000001001
 31
0.0
  0
ARC
  5
48B
330
1F
100
AcDbEntity
  8
LAY-10
  6
CONTINUOUS
 62
     7
100
AcDbCircle
 10
859.2000000000297
 20
705.8000000001001
 30
0.0
 40
1.0
100
AcDbArc
 50
90.00000000000001
 51
180.0
  0
ARC
  5
48C
330
1F
100
AcDbEntity
  8
LAY-10
  6
CONTINUOUS
 62
     7
100
AcDbCircle
 10
1191.0
 20
674.0000000000999
 30
0.0
 40
4.0
100
AcDbArc
 50
270.0
 51
0.0
  0
ARC
  5
48D
330
1F
100
AcDbEntity
  8
LAY-10
  6
CONTINUOUS
 62
     7
100
AcDbCircle
 10
1159.0
 20
674.0000000000999
 30
0.0
 40
4.0
100
AcDbArc
 50
180.0
 51
270.0
  0
ARC
  5
48E
330
1F
100
AcDbEntity
  8
LAY-10
  6
CONTINUOUS
 62
     7
100
AcDbCircle
 10
1191.0
 20
706.0000000000999
 30
0.0
 40
4.0
100
AcDbArc
 50
0.0
 51
90.00000000000001
  0
ARC
  5
48F
330
1F
100
AcDbEntity
  8
LAY-10
  6
CONTINUOUS
 62
     7
100
AcDbCircle
 10
1159.0
 20
706.0000000000999
 30
0.0
 40
4.0
100
AcDbArc
 50
90.00000000000001
 51
180.0
  0
ARC
  5
490
330
1F
100
AcDbEntity
  8
LAY-10
  6
CONTINUOUS
 62
     7
100
AcDbCircle
 10
1159.2
 20
674.2000000001002
 30
0.0
 40
1.0
100
AcDbArc
 50
180.0
 51
270.0
  0
LINE
  5
491
330
1F
100
AcDbEntity
  8
LAY-10
  6
CONTINUOUS
 62
     7
100
AcDbLine
 10
1190.8
 20
673.2000000001002
 30
0.0
 11
1159.2
 21
673.2000000001002
 31
0.0
  0
ARC
  5
492
330
1F
100
AcDbEntity
  8
LAY-10
  6
CONTINUOUS
 62
     7
100
AcDbCircle
 10
1190.8
 20
674.2000000001002
 30
0.0
 40
1.0
100
AcDbArc
 50
270.0
 51
0.0
  0
ARC
  5
493
330
1F
100
AcDbEntity
  8
LAY-10
  6
CONTINUOUS
 62
     7
100
AcDbCircle
 10
1190.8
 20
705.8000000001001
 30
0.0
 40
1.0
100
AcDbArc
 50
0.0
 51
90.00000000000001
  0
LINE
  5
494
330
1F
100
AcDbEntity
  8
LAY-10
  6
CONTINUOUS
 62
     7
100
AcDbLine
 10
1190.8
 20
706.8000000001001
 30
0.0
 11
1159.2
 21
706.8000000001001
 31
0.0
  0
ARC
  5
495
330
1F
100
AcDbEntity
  8
LAY-10
  6
CONTINUOUS
 62
     7
100
AcDbCircle
 10
1159.2
 20
705.8000000001001
 30
0.0
 40
1.0
100
AcDbArc
 50
90.00000000000001
 51
180.0
  0
LINE
  5
496
330
1F
100
AcDbEntity
  8
LAY-10
  6
CONTINUOUS
 62
     7
100
AcDbLine
 10
1225.0
 20
800.0000000001
 30
0.0
 11
225.00000000004
 21
800.0000000001
 31
0.0
  0
LINE
  5
497
330
1F
100
AcDbEntity
  8
LAY-10
  6
CONTINUOUS
 62
     7
100
AcDbLine
 10
309.0000000000425
 20
670.0000000000998
 30
0.0
 11
309.0000000000425
 21
630.0000000001099
 31
0.0
  0
LINE
  5
498
330
1F
100
AcDbEntity
  8
LAY-10
  6
CONTINUOUS
 62
     7
100
AcDbLine
 10
341.0000000000377
 20
670.0000000000998
 30
0.0
 11
341.0000000000377
 21
630.0000000001099
 31
0.0
  0
LINE
  5
499
330
1F
100
AcDbEntity
  8
LAY-10
  6
CONTINUOUS
 62
     7
100
AcDbLine
 10
309.0000000000425
 20
630.0000000001099
 30
0.0
 11
341.0000000000377
 21
630.0000000001099
 31
0.0
  0
LINE
  5
49A
330
1F
100
AcDbEntity
  8
LAY-10
  6
CONTINUOUS
 62
     7
100
AcDbLine
 10
709.0000000000425
 20
670.0000000000998
 30
0.0
 11
709.0000000000425
 21
630.0000000001099
 31
0.0
  0
LINE
  5
49B
330
1F
100
AcDbEntity
  8
LAY-10
  6
CONTINUOUS
 62
     7
100
AcDbLine
 10
741.0000000000377
 20
670.0000000000998
 30
0.0
 11
741.0000000000377
 21
630.0000000001099
 31
0.0
  0
LINE
  5
49C
330
1F
100
AcDbEntity
  8
LAY-10
  6
CONTINUOUS
 62
     7
100
AcDbLine
 10
709.0000000000425
 20
630.0000000001099
 30
0.0
 11
741.0000000000377
 21
630.0000000001099
 31
0.0
  0
LINE
  5
49D
330
1F
100
AcDbEntity
  8
LAY-10
  6
CONTINUOUS
 62
     7
100
AcDbLine
 10
1109.000000000003
 20
670.0000000000998
 30
0.0
 11
1109.000000000003
 21
630.0000000001099
 31
0.0
  0
LINE
  5
49E
330
1F
100
AcDbEntity
  8
LAY-10
  6
CONTINUOUS
 62
     7
100
AcDbLine
 10
1140.999999999998
 20
670.0000000000998
 30
0.0
 11
1140.999999999998
 21
630.0000000001099
 31
0.0
  0
LINE
  5
49F
330
1F
100
AcDbEntity
  8
LAY-10
  6
CONTINUOUS
 62
     7
100
AcDbLine
 10
1109.000000000003
 20
630.0000000001099
 30
0.0
 11
1140.999999999998
 21
630.0000000001099
 31
0.0
  0
LINE
  5
4A0
330
1F
100
AcDbEntity
  8
LAY-10
  6
CONTINUOUS
 62
     7
100
AcDbLine
 10
255.00000000003
 20
706.0000000000999
 30
0.0
 11
255.00000000003
 21
674.0000000000999
 31
0.0
  0
LINE
  5
4A1
330
1F
100
AcDbEntity
  8
LAY-10
  6
CONTINUOUS
 62
     7
100
AcDbLine
 10
258.2000000000303
 20
705.8000000000999
 30
0.0
 11
258.2000000000303
 21
674.2000000001
 31
0.0
  0
LINE
  5
4A2
330
1F
100
AcDbEntity
  8
LAY-10
  6
CONTINUOUS
 62
     7
100
AcDbLine
 10
291.8000000000302
 20
705.8000000000999
 30
0.0
 11
291.8000000000302
 21
674.2000000001
 31
0.0
  0
LINE
  5
4A3
330
1F
100
AcDbEntity
  8
LAY-10
  6
CONTINUOUS
 62
     7
100
AcDbLine
 10
558.2000000000303
 20
705.8000000000999
 30
0.0
 11
558.2000000000303
 21
674.2000000001
 31
0.0
  0
LINE
  5
4A4
330
1F
100
AcDbEntity
  8
LAY-10
  6
CONTINUOUS
 62
     7
100
AcDbLine
 10
591.8000000000302
 20
705.8000000000999
 30
0.0
 11
591.8000000000302
 21
674.2000000001
 31
0.0
  0
LINE
  5
4A5
330
1F
100
AcDbEntity
  8
LAY-10
  6
CONTINUOUS
 62
     7
100
AcDbLine
 10
858.2000000000297
 20
705.8000000000999
 30
0.0
 11
858.2000000000297
 21
674.2000000001
 31
0.0
  0
LINE
  5
4A6
330
1F
100
AcDbEntity
  8
LAY-10
  6
CONTINUOUS
 62
     7
100
AcDbLine
 10
891.8000000000302
 20
705.8000000000999
 30
0.0
 11
891.8000000000302
 21
674.2000000001
 31
0.0
  0
LINE
  5
4A7
330
1F
100
AcDbEntity
  8
LAY-10
  6
CONTINUOUS
 62
     7
100
AcDbLine
 10
1195.0
 20
706.0000000000999
 30
0.0
 11
1195.0
 21
674.0000000000999
 31
0.0
  0
LINE
  5
4A8
330
1F
100
AcDbEntity
  8
LAY-10
  6
CONTINUOUS
 62
     7
100
AcDbLine
 10
1158.2
 20
705.8000000000999
 30
0.0
 11
1158.2
 21
674.2000000001
 31
0.0
  0
LINE
  5
4A9
330
1F
100
AcDbEntity
  8
LAY-10
  6
CONTINUOUS
 62
     7
100
AcDbLine
 10
1191.8
 20
705.8000000000999
 30
0.0
 11
1191.8
 21
674.2000000001
 31
0.0
  0
LINE
  5
4AA
330
1F
100
AcDbEntity
  8
LAY-10
  6
CONTINUOUS
 62
     7
100
AcDbLine
 10
225.00000000004
 20
800.0000000001
 30
0.0
 11
225.00000000004
 21
670.0000000000998
 31
0.0
  0
LINE
  5
4AB
330
1F
100
AcDbEntity
  8
LAY-10
  6
CONTINUOUS
 62
     7
100
AcDbLine
 10
1225.0
 20
800.0000000001
 30
0.0
 11
1225.0
 21
670.0000000000998
 31
0.0
  0
LINE
  5
4AC
330
1F
100
AcDbEntity
  8
LAY-10
  6
CONTINUOUS
 62
     7
100
AcDbLine
 10
1225.0
 20
670.0000000000998
 30
0.0
 11
225.00000000004
 21
670.0000000000998
 31
0.0
  0
LINE
  5
4AD
330
1F
100
AcDbEntity
  8
LAY-10
  6
CONTINUOUS
 62
     7
100
AcDbLine
 10
291.00000000003
 20
710.0000000000998
 30
0.0
 11
259.00000000003
 21
710.0000000000998
 31
0.0
  0
LINE
  5
4AE
330
1F
100
AcDbEntity
  8
LAY-10
  6
CONTINUOUS
 62
     7
100
AcDbLine
 10
591.00000000003
 20
710.0000000000998
 30
0.0
 11
559.00000000003
 21
710.0000000000998
 31
0.0
  0
LINE
  5
4AF
330
1F
100
AcDbEntity
  8
LAY-10
  6
CONTINUOUS
 62
     7
100
AcDbLine
 10
891.0000000000299
 20
710.0000000000998
 30
0.0
 11
859.0000000000299
 21
710.0000000000998
 31
0.0
  0
LINE
  5
4B0
330
1F
100
AcDbEntity
  8
LAY-10
  6
CONTINUOUS
 62
     7
100
AcDbLine
 10
1191.0
 20
710.0000000000998
 30
0.0
 11
1159.0
 21
710.0000000000998
 31
0.0
  0
LINE
  5
4B1
330
1F
100
AcDbEntity
  8
LAY-10
  6
CONTINUOUS
 62
     7
100
AcDbLine
 10
1184.5
 20
710.0000000000998
 30
0.0
 11
1184.5
 21
766.0000000000999
 31
0.0
  0
LINE
  5
4B2
330
1F
100
AcDbEntity
  8
LAY-10
  6
CONTINUOUS
 62
     7
100
AcDbLine
 10
1165.5
 20
710.0000000000998
 30
0.0
 11
1165.5
 21
766.0000000000999
 31
0.0
  0
LINE
  5
4B3
330
1F
100
AcDbEntity
  8
LAY-10
  6
CONTINUOUS
 62
     7
100
AcDbLine
 10
865.5000000000302
 20
710.0000000000998
 30
0.0
 11
865.5000000000302
 21
766.0000000000999
 31
0.0
  0
LINE
  5
4B4
330
1F
100
AcDbEntity
  8
LAY-10
  6
CONTINUOUS
 62
     7
100
AcDbLine
 10
884.5000000000301
 20
710.0000000000998
 30
0.0
 11
884.5000000000301
 21
766.0000000000999
 31
0.0
  0
LINE
  5
4B5
330
1F
100
AcDbEntity
  8
LAY-10
  6
CONTINUOUS
 62
     7
100
AcDbLine
 10
565.5000000000301
 20
710.0000000000998
 30
0.0
 11
565.5000000000301
 21
766.0000000000999
 31
0.0
  0
LINE
  5
4B6
330
1F
100
AcDbEntity
  8
LAY-10
  6
CONTINUOUS
 62
     7
100
AcDbLine
 10
584.5000000000301
 20
710.0000000000998
 30
0.0
 11
584.5000000000301
 21
766.0000000000999
 31
0.0
  0
LINE
  5
4B7
330
1F
100
AcDbEntity
  8
LAY-10
  6
CONTINUOUS
 62
     7
100
AcDbLine
 10
265.5000000000301
 20
710.0000000000998
 30
0.0
 11
265.5000000000301
 21
766.0000000000999
 31
0.0
  0
LINE
  5
4B8
330
1F
100
AcDbEntity
  8
LAY-10
  6
CONTINUOUS
 62
     7
100
AcDbLine
 10
284.5000000000301
 20
710.0000000000998
 30
0.0
 11
284.5000000000301
 21
766.0000000000999
 31
0.0
  0
CIRCLE
  5
4B9
330
1F
100
AcDbEntity
  8
LAY-10
  6
CONTINUOUS
 62
     7
100
AcDbCircle
 10
325.0000000000398
 20
649.5000000001002
 30
0.0
 40
4.000000000002842
  0
CIRCLE
  5
4BA
330
1F
100
AcDbEntity
  8
LAY-10
  6
CONTINUOUS
 62
     7
100
AcDbCircle
 10
725.0000000000399
 20
649.5000000001002
 30
0.0
 40
4.000000000002842
  0
CIRCLE
  5
4BB
330
1F
100
AcDbEntity
  8
LAY-10
  6
CONTINUOUS
 62
     7
100
AcDbCircle
 10
1125.0
 20
649.5000000001002
 30
0.0
 40
4.000000000002842
  0
ARC
  5
4BC
330
1F
100
AcDbEntity
  8
LAY-10
  6
CONTINUOUS
 62
     7
100
AcDbCircle
 10
624.999999999989
 20
785.0000000000899
 30
0.0
 40
5.0
100
AcDbArc
 50
185.5757227313749
 51
354.4242772686251
  0
LINE
  5
4BD
330
1F
100
AcDbEntity
  8
LAY-10
  6
CONTINUOUS
 62
     7
100
AcDbLine
 10
618.9999999999876
 20
795.0000000000899
 30
0.0
 11
620.0236567084979
 21
784.514194025196
 31
0.0
  0
LINE
  5
4BE
330
1F
100
AcDbEntity
  8
LAY-10
  6
CONTINUOUS
 62
     7
100
AcDbLine
 10
630.9999999999894
 20
795.0000000000899
 30
0.0
 11
629.9763432914791
 21
784.514194025196
 31
0.0
  0
ARC
  5
4BF
330
1F
100
AcDbEntity
  8
LAY-10
  6
CONTINUOUS
 62
     7
100
AcDbCircle
 10
229.9403285601459
 20
776.000000000081
 30
0.0
 40
1.0
100
AcDbArc
 50
185.8093648644375
 51
270.0
  0
LINE
  5
4C0
330
1F
100
AcDbEntity
  8
LAY-10
  6
CONTINUOUS
 62
     7
100
AcDbLine
 10
227.0020790043116
 20
795.0000000000808
 30
0.0
 11
228.9454643820275
 21
775.8987810932666
 31
0.0
  0
LINE
  5
4C1
330
1F
100
AcDbEntity
  8
LAY-10
  6
CONTINUOUS
 62
     7
100
AcDbLine
 10
226.9999999999884
 20
800.0000000001104
 30
0.0
 11
225.9999999999884
 21
795.0000000000799
 31
0.0
  0
LINE
  5
4C2
330
1F
100
AcDbEntity
  8
LAY-10
  6
CONTINUOUS
 62
     7
100
AcDbLine
 10
1222.999999999989
 20
800.000000000114
 30
0.0
 11
226.9999999999893
 21
800.0000000001145
 31
0.0
  0
LINE
  5
4C3
330
1F
100
AcDbEntity
  8
LAY-10
  6
CONTINUOUS
 62
     7
100
AcDbLine
 10
321.9999999999802
 20
800.0000000001099
 30
0.0
 11
322.3542486890803
 21
795.0000000000799
 31
0.0
  0
LINE
  5
4C4
330
1F
100
AcDbEntity
  8
LAY-10
  6
CONTINUOUS
 62
     7
100
AcDbLine
 10
327.6457513108801
 20
795.0000000000799
 30
0.0
 11
327.9999999999802
 21
800.0000000001099
 31
0.0
  0
LINE
  5
4C5
330
1F
100
AcDbEntity
  8
LAY-10
  6
CONTINUOUS
 62
     7
100
AcDbLine
 10
521.9999999999599
 20
800.0000000001099
 30
0.0
 11
522.35424868906
 21
795.0000000000799
 31
0.0
  0
LINE
  5
4C6
330
1F
100
AcDbEntity
  8
LAY-10
  6
CONTINUOUS
 62
     7
100
AcDbLine
 10
527.6457513108597
 20
795.0000000000799
 30
0.0
 11
527.9999999999599
 21
800.0000000001099
 31
0.0
  0
LINE
  5
4C7
330
1F
100
AcDbEntity
  8
LAY-10
  6
CONTINUOUS
 62
     7
100
AcDbLine
 10
721.9999999999899
 20
800.0000000001099
 30
0.0
 11
722.3542486890898
 21
795.0000000000799
 31
0.0
  0
ARC
  5
4C8
330
1F
100
AcDbEntity
  8
LAY-10
  6
CONTINUOUS
 62
     7
100
AcDbCircle
 10
316.85410196626
 20
777.0000000000813
 30
0.0
 40
3.0
100
AcDbArc
 50
90.00000000000001
 51
153.434948822922
  0
ARC
  5
4C9
330
1F
100
AcDbEntity
  8
LAY-10
  6
CONTINUOUS
 62
     7
100
AcDbCircle
 10
333.14589803374
 20
777.0000000000813
 30
0.0
 40
3.0
100
AcDbArc
 50
26.5650511770785
 51
90.00000000000001
  0
LINE
  5
4CA
330
1F
100
AcDbEntity
  8
LAY-10
  6
CONTINUOUS
 62
     7
100
AcDbLine
 10
229.9403285601459
 20
775.0000000000808
 30
0.0
 11
310.6458980337609
 21
775.0000000000808
 31
0.0
  0
LINE
  5
4CB
330
1F
100
AcDbEntity
  8
LAY-10
  6
CONTINUOUS
 62
     7
100
AcDbLine
 10
313.3291796067604
 20
776.6583592135811
 30
0.0
 11
314.1708203932606
 21
778.341640786581
 31
0.0
  0
ARC
  5
4CC
330
1F
100
AcDbEntity
  8
LAY-10
  6
CONTINUOUS
 62
     7
100
AcDbCircle
 10
310.6458980337609
 20
778.0000000000808
 30
0.0
 40
3.0
100
AcDbArc
 50
270.0
 51
333.4349488229226
  0
LINE
  5
4CD
330
1F
100
AcDbEntity
  8
LAY-10
  6
CONTINUOUS
 62
     7
100
AcDbLine
 10
336.6708203932392
 20
776.6583592135811
 30
0.0
 11
335.8291796067394
 21
778.341640786581
 31
0.0
  0
ARC
  5
4CE
330
1F
100
AcDbEntity
  8
LAY-10
  6
CONTINUOUS
 62
     7
100
AcDbCircle
 10
339.3541019662391
 20
778.0000000000808
 30
0.0
 40
3.0
100
AcDbArc
 50
206.5650511770775
 51
270.0
  0
ARC
  5
4CF
330
1F
100
AcDbEntity
  8
LAY-10
  6
CONTINUOUS
 62
     7
100
AcDbCircle
 10
516.8541019662492
 20
777.0000000000817
 30
0.0
 40
3.0
100
AcDbArc
 50
90.00000000000001
 51
153.4349488229225
  0
ARC
  5
4D0
330
1F
100
AcDbEntity
  8
LAY-10
  6
CONTINUOUS
 62
     7
100
AcDbCircle
 10
533.1458980337292
 20
777.0000000000817
 30
0.0
 40
3.0
100
AcDbArc
 50
26.56505117707752
 51
90.00000000000001
  0
LINE
  5
4D1
330
1F
100
AcDbEntity
  8
LAY-10
  6
CONTINUOUS
 62
     7
100
AcDbLine
 10
513.3291796067496
 20
776.6583592135811
 30
0.0
 11
514.1708203932498
 21
778.3416407865815
 31
0.0
  0
ARC
  5
4D2
330
1F
100
AcDbEntity
  8
LAY-10
  6
CONTINUOUS
 62
     7
100
AcDbCircle
 10
510.6458980337501
 20
778.0000000000808
 30
0.0
 40
3.0
100
AcDbArc
 50
270.0
 51
333.4349488229226
  0
LINE
  5
4D3
330
1F
100
AcDbEntity
  8
LAY-10
  6
CONTINUOUS
 62
     7
100
AcDbLine
 10
536.6708203932288
 20
776.6583592135811
 30
0.0
 11
535.8291796067286
 21
778.3416407865815
 31
0.0
  0
ARC
  5
4D4
330
1F
100
AcDbEntity
  8
LAY-10
  6
CONTINUOUS
 62
     7
100
AcDbCircle
 10
539.3541019662283
 20
778.0000000000808
 30
0.0
 40
3.0
100
AcDbArc
 50
206.5650511770775
 51
270.0
  0
ARC
  5
4D5
330
1F
100
AcDbEntity
  8
LAY-10
  6
CONTINUOUS
 62
     7
100
AcDbCircle
 10
716.8541019662497
 20
777.0000000000817
 30
0.0
 40
3.0
100
AcDbArc
 50
90.00000000000001
 51
153.434948822921
  0
LINE
  5
4D6
330
1F
100
AcDbEntity
  8
LAY-10
  6
CONTINUOUS
 62
     7
100
AcDbLine
 10
539.3541019662283
 20
775.0000000000808
 30
0.0
 11
710.6458980337502
 21
775.0000000000808
 31
0.0
  0
LINE
  5
4D7
330
1F
100
AcDbEntity
  8
LAY-10
  6
CONTINUOUS
 62
     7
100
AcDbLine
 10
713.3291796067502
 20
776.6583592135811
 30
0.0
 11
714.1708203932504
 21
778.3416407865815
 31
0.0
  0
ARC
  5
4D8
330
1F
100
AcDbEntity
  8
LAY-10
  6
CONTINUOUS
 62
     7
100
AcDbCircle
 10
710.6458980337502
 20
778.0000000000808
 30
0.0
 40
3.0
100
AcDbArc
 50
270.0
 51
333.434948822922
  0
ARC
  5
4D9
330
1F
100
AcDbEntity
  8
LAY-10
  6
CONTINUOUS
 62
     7
100
AcDbCircle
 10
424.9999999999893
 20
785.0000000000899
 30
0.0
 40
5.0
100
AcDbArc
 50
185.5757227313749
 51
354.4242772686251
  0
LINE
  5
4DA
330
1F
100
AcDbEntity
  8
LAY-10
  6
CONTINUOUS
 62
     7
100
AcDbLine
 10
418.9999999999879
 20
795.0000000000899
 30
0.0
 11
420.0236567084983
 21
784.514194025196
 31
0.0
  0
LINE
  5
4DB
330
1F
100
AcDbEntity
  8
LAY-10
  6
CONTINUOUS
 62
     7
100
AcDbLine
 10
430.9999999999898
 20
795.0000000000899
 30
0.0
 11
429.9763432914795
 21
784.514194025196
 31
0.0
  0
LINE
  5
4DC
330
1F
100
AcDbEntity
  8
LAY-10
  6
CONTINUOUS
 62
     7
100
AcDbLine
 10
228.5137937550369
 20
780.0000000000808
 30
0.0
 11
228.52820049467
 21
780.0000000000808
 31
0.0
  0
LINE
  5
4DD
330
1F
100
AcDbEntity
  8
LAY-10
  6
CONTINUOUS
 62
     7
100
AcDbLine
 10
238.9999999999907
 20
795.0000000000899
 30
0.0
 11
237.9763432914804
 21
784.514194025196
 31
0.0
  0
ARC
  5
4DE
330
1F
100
AcDbEntity
  8
LAY-10
  6
CONTINUOUS
 62
     7
100
AcDbCircle
 10
232.9999999999902
 20
785.0000000000899
 30
0.0
 40
5.0
100
AcDbArc
 50
193.5083662909427
 51
354.4242772686251
  0
LINE
  5
4DF
330
1F
100
AcDbEntity
  8
LAY-10
  6
CONTINUOUS
 62
     7
100
AcDbLine
 10
238.3999999999944
 20
798.0000000000799
 30
0.0
 11
226.5999999999847
 21
798.0000000000799
 31
0.0
  0
LINE
  5
4E0
330
1F
100
AcDbEntity
  8
LAY-10
  6
CONTINUOUS
 62
     7
100
AcDbLine
 10
238.3999999999944
 20
798.0000000000799
 30
0.0
 11
238.9999999999907
 21
795.0000000000804
 31
0.0
  0
LINE
  5
4E1
330
1F
100
AcDbEntity
  8
LAY-10
  6
CONTINUOUS
 62
     7
100
AcDbLine
 10
339.3541019662391
 20
775.0000000000808
 30
0.0
 11
510.6458980337501
 21
775.0000000000808
 31
0.0
  0
ARC
  5
4E2
330
1F
100
AcDbEntity
  8
LAY-10
  6
CONTINUOUS
 62
     7
100
AcDbCircle
 10
824.999999999989
 20
785.0000000000899
 30
0.0
 40
5.0
100
AcDbArc
 50
185.5757227313739
 51
354.4242772686262
  0
LINE
  5
4E3
330
1F
100
AcDbEntity
  8
LAY-10
  6
CONTINUOUS
 62
     7
100
AcDbLine
 10
830.9999999999903
 20
795.0000000000899
 30
0.0
 11
829.9763432914801
 21
784.514194025196
 31
0.0
  0
LINE
  5
4E4
330
1F
100
AcDbEntity
  8
LAY-10
  6
CONTINUOUS
 62
     7
100
AcDbLine
 10
818.9999999999885
 20
795.0000000000899
 30
0.0
 11
820.0236567084988
 21
784.514194025196
 31
0.0
  0
ARC
  5
4E5
330
1F
100
AcDbEntity
  8
LAY-10
  6
CONTINUOUS
 62
     7
100
AcDbCircle
 10
1220.059671439832
 20
776.000000000081
 30
0.0
 40
1.0
100
AcDbArc
 50
270.0
 51
354.1906351355561
  0
LINE
  5
4E6
330
1F
100
AcDbEntity
  8
LAY-10
  6
CONTINUOUS
 62
     7
100
AcDbLine
 10
1222.997920995666
 20
795.0000000000808
 30
0.0
 11
1221.05453561795
 21
775.8987810932666
 31
0.0
  0
LINE
  5
4E7
330
1F
100
AcDbEntity
  8
LAY-10
  6
CONTINUOUS
 62
     7
100
AcDbLine
 10
1222.99999999999
 20
800.0000000001104
 30
0.0
 11
1223.99999999999
 21
795.0000000000799
 31
0.0
  0
LINE
  5
4E8
330
1F
100
AcDbEntity
  8
LAY-10
  6
CONTINUOUS
 62
     7
100
AcDbLine
 10
1127.999999999998
 20
800.0000000001099
 30
0.0
 11
1127.645751310898
 21
795.0000000000799
 31
0.0
  0
LINE
  5
4E9
330
1F
100
AcDbEntity
  8
LAY-10
  6
CONTINUOUS
 62
     7
100
AcDbLine
 10
1122.354248689098
 20
795.0000000000799
 30
0.0
 11
1121.999999999998
 21
800.0000000001099
 31
0.0
  0
LINE
  5
4EA
330
1F
100
AcDbEntity
  8
LAY-10
  6
CONTINUOUS
 62
     7
100
AcDbLine
 10
928.0000000000181
 20
800.0000000001099
 30
0.0
 11
927.645751310918
 21
795.0000000000799
 31
0.0
  0
LINE
  5
4EB
330
1F
100
AcDbEntity
  8
LAY-10
  6
CONTINUOUS
 62
     7
100
AcDbLine
 10
922.3542486891182
 20
795.0000000000799
 30
0.0
 11
922.0000000000181
 21
800.0000000001099
 31
0.0
  0
LINE
  5
4EC
330
1F
100
AcDbEntity
  8
LAY-10
  6
CONTINUOUS
 62
     7
100
AcDbLine
 10
727.9999999999878
 20
800.0000000001099
 30
0.0
 11
727.6457513108878
 21
795.0000000000799
 31
0.0
  0
ARC
  5
4ED
330
1F
100
AcDbEntity
  8
LAY-10
  6
CONTINUOUS
 62
     7
100
AcDbCircle
 10
1133.145898033718
 20
777.0000000000813
 30
0.0
 40
3.0
100
AcDbArc
 50
26.56505117707798
 51
90.00000000000001
  0
ARC
  5
4EE
330
1F
100
AcDbEntity
  8
LAY-10
  6
CONTINUOUS
 62
     7
100
AcDbCircle
 10
1116.854101966238
 20
777.0000000000813
 30
0.0
 40
3.0
100
AcDbArc
 50
90.00000000000001
 51
153.4349488229201
  0
LINE
  5
4EF
330
1F
100
AcDbEntity
  8
LAY-10
  6
CONTINUOUS
 62
     7
100
AcDbLine
 10
1220.059671439832
 20
775.0000000000808
 30
0.0
 11
1139.354101966217
 21
775.0000000000808
 31
0.0
  0
LINE
  5
4F0
330
1F
100
AcDbEntity
  8
LAY-10
  6
CONTINUOUS
 62
     7
100
AcDbLine
 10
1136.670820393218
 20
776.6583592135811
 30
0.0
 11
1135.829179606718
 21
778.341640786581
 31
0.0
  0
ARC
  5
4F1
330
1F
100
AcDbEntity
  8
LAY-10
  6
CONTINUOUS
 62
     7
100
AcDbCircle
 10
1139.354101966217
 20
778.0000000000808
 30
0.0
 40
3.0
100
AcDbArc
 50
206.565051177076
 51
270.0
  0
LINE
  5
4F2
330
1F
100
AcDbEntity
  8
LAY-10
  6
CONTINUOUS
 62
     7
100
AcDbLine
 10
1113.329179606739
 20
776.6583592135811
 30
0.0
 11
1114.170820393239
 21
778.341640786581
 31
0.0
  0
ARC
  5
4F3
330
1F
100
AcDbEntity
  8
LAY-10
  6
CONTINUOUS
 62
     7
100
AcDbCircle
 10
1110.645898033739
 20
778.0000000000808
 30
0.0
 40
3.0
100
AcDbArc
 50
270.0
 51
333.4349488229259
  0
ARC
  5
4F4
330
1F
100
AcDbEntity
  8
LAY-10
  6
CONTINUOUS
 62
     7
100
AcDbCircle
 10
933.1458980337288
 20
777.0000000000817
 30
0.0
 40
3.0
100
AcDbArc
 50
26.56505117707507
 51
90.00000000000001
  0
ARC
  5
4F5
330
1F
100
AcDbEntity
  8
LAY-10
  6
CONTINUOUS
 62
     7
100
AcDbCircle
 10
916.8541019662488
 20
777.0000000000817
 30
0.0
 40
3.0
100
AcDbArc
 50
90.00000000000001
 51
153.434948822921
  0
LINE
  5
4F6
330
1F
100
AcDbEntity
  8
LAY-10
  6
CONTINUOUS
 62
     7
100
AcDbLine
 10
936.6708203932285
 20
776.6583592135811
 30
0.0
 11
935.8291796067283
 21
778.3416407865815
 31
0.0
  0
ARC
  5
4F7
330
1F
100
AcDbEntity
  8
LAY-10
  6
CONTINUOUS
 62
     7
100
AcDbCircle
 10
939.354101966228
 20
778.0000000000808
 30
0.0
 40
3.0
100
AcDbArc
 50
206.5650511770751
 51
270.0
  0
LINE
  5
4F8
330
1F
100
AcDbEntity
  8
LAY-10
  6
CONTINUOUS
 62
     7
100
AcDbLine
 10
913.3291796067491
 20
776.6583592135811
 30
0.0
 11
914.1708203932493
 21
778.3416407865815
 31
0.0
  0
ARC
  5
4F9
330
1F
100
AcDbEntity
  8
LAY-10
  6
CONTINUOUS
 62
     7
100
AcDbCircle
 10
910.6458980337496
 20
778.0000000000808
 30
0.0
 40
3.0
100
AcDbArc
 50
270.0
 51
333.434948822925
  0
ARC
  5
4FA
330
1F
100
AcDbEntity
  8
LAY-10
  6
CONTINUOUS
 62
     7
100
AcDbCircle
 10
733.145898033728
 20
777.0000000000817
 30
0.0
 40
3.0
100
AcDbArc
 50
26.56505117707993
 51
90.00000000000001
  0
LINE
  5
4FB
330
1F
100
AcDbEntity
  8
LAY-10
  6
CONTINUOUS
 62
     7
100
AcDbLine
 10
910.6458980337496
 20
775.0000000000808
 30
0.0
 11
739.3541019662276
 21
775.0000000000808
 31
0.0
  0
LINE
  5
4FC
330
1F
100
AcDbEntity
  8
LAY-10
  6
CONTINUOUS
 62
     7
100
AcDbLine
 10
736.6708203932277
 20
776.6583592135811
 30
0.0
 11
735.8291796067275
 21
778.3416407865815
 31
0.0
  0
ARC
  5
4FD
330
1F
100
AcDbEntity
  8
LAY-10
  6
CONTINUOUS
 62
     7
100
AcDbCircle
 10
739.3541019662276
 20
778.0000000000808
 30
0.0
 40
3.0
100
AcDbArc
 50
206.5650511770799
 51
270.0
  0
ARC
  5
4FE
330
1F
100
AcDbEntity
  8
LAY-10
  6
CONTINUOUS
 62
     7
100
AcDbCircle
 10
1024.999999999989
 20
785.0000000000899
 30
0.0
 40
5.0
100
AcDbArc
 50
185.5757227313738
 51
354.4242772686262
  0
LINE
  5
4FF
330
1F
100
AcDbEntity
  8
LAY-10
  6
CONTINUOUS
 62
     7
100
AcDbLine
 10
1030.99999999999
 20
795.0000000000899
 30
0.0
 11
1029.97634329148
 21
784.514194025196
 31
0.0
  0
LINE
  5
500
330
1F
100
AcDbEntity
  8
LAY-10
  6
CONTINUOUS
 62
     7
100
AcDbLine
 10
1018.999999999988
 20
795.0000000000899
 30
0.0
 11
1020.023656708498
 21
784.514194025196
 31
0.0
  0
LINE
  5
501
330
1F
100
AcDbEntity
  8
LAY-10
  6
CONTINUOUS
 62
     7
100
AcDbLine
 10
1221.486206244941
 20
780.0000000000808
 30
0.0
 11
1221.471799505308
 21
780.0000000000808
 31
0.0
  0
LINE
  5
502
330
1F
100
AcDbEntity
  8
LAY-10
  6
CONTINUOUS
 62
     7
100
AcDbLine
 10
1210.999999999987
 20
795.0000000000899
 30
0.0
 11
1212.023656708498
 21
784.514194025196
 31
0.0
  0
ARC
  5
503
330
1F
100
AcDbEntity
  8
LAY-10
  6
CONTINUOUS
 62
     7
100
AcDbCircle
 10
1216.999999999988
 20
785.0000000000899
 30
0.0
 40
5.0
100
AcDbArc
 50
185.5757227313739
 51
346.491633709059
  0
LINE
  5
504
330
1F
100
AcDbEntity
  8
LAY-10
  6
CONTINUOUS
 62
     7
100
AcDbLine
 10
1211.599999999984
 20
798.0000000000799
 30
0.0
 11
1223.399999999993
 21
798.0000000000799
 31
0.0
  0
LINE
  5
505
330
1F
100
AcDbEntity
  8
LAY-10
  6
CONTINUOUS
 62
     7
100
AcDbLine
 10
1211.599999999984
 20
798.0000000000799
 30
0.0
 11
1210.999999999987
 21
795.0000000000804
 31
0.0
  0
LINE
  5
506
330
1F
100
AcDbEntity
  8
LAY-10
  6
CONTINUOUS
 62
     7
100
AcDbLine
 10
1110.645898033739
 20
775.0000000000808
 30
0.0
 11
939.354101966228
 21
775.0000000000808
 31
0.0
  0
LINE
  5
507
330
1F
100
AcDbEntity
  8
LAY-10
  6
CONTINUOUS
 62
     7
100
AcDbLine
 10
232.9999999999893
 20
780.0000000000808
 30
0.0
 11
1216.999999999988
 21
780.0000000000808
 31
0.0
  0
LINE
  5
508
330
1F
100
AcDbEntity
  8
LAY-10
  6
CONTINUOUS
 62
     7
100
AcDbLine
 10
320.0000000001002
 20
765.99711431713
 30
0.0
 11
320.0000000001002
 21
762.0000000000304
 31
0.0
  0
LINE
  5
509
330
1F
100
AcDbEntity
  8
LAY-10
  6
CONTINUOUS
 62
     7
100
AcDbLine
 10
330.0000000001002
 20
765.99711431713
 30
0.0
 11
330.0000000001002
 21
762.0000000000304
 31
0.0
  0
LINE
  5
50A
330
1F
100
AcDbEntity
  8
LAY-10
  6
CONTINUOUS
 62
     7
100
AcDbLine
 10
320.0000000001002
 20
765.9971143171041
 30
0.0
 11
330.0000000001002
 21
765.9971143171041
 31
0.0
  0
LINE
  5
50B
330
1F
100
AcDbEntity
  8
LAY-10
  6
CONTINUOUS
 62
     7
100
AcDbLine
 10
320.0000000001002
 20
762.0000000000249
 30
0.0
 11
330.0000000001002
 21
762.0000000000249
 31
0.0
  0
LINE
  5
50C
330
1F
100
AcDbEntity
  8
LAY-10
  6
CONTINUOUS
 62
     7
100
AcDbLine
 10
317.4999999999993
 20
780.0000000001304
 30
0.0
 11
332.4999999999993
 21
780.0000000001304
 31
0.0
  0
LINE
  5
50D
330
1F
100
AcDbEntity
  8
LAY-10
  6
CONTINUOUS
 62
     7
100
AcDbLine
 10
332.5000000000002
 20
754.0000000001348
 30
0.0
 11
330.5000000000002
 21
754.0000000001348
 31
0.0
  0
LINE
  5
50E
330
1F
100
AcDbEntity
  8
LAY-10
  6
CONTINUOUS
 62
     7
100
AcDbLine
 10
332.5000000000002
 20
775.0000000001304
 30
0.0
 11
317.4999999999986
 21
775.0000000001304
 31
0.0
  0
LINE
  5
50F
330
1F
100
AcDbEntity
  8
LAY-10
  6
CONTINUOUS
 62
     7
100
AcDbLine
 10
317.5000000000002
 20
773.0000000001304
 30
0.0
 11
332.5000000000002
 21
773.0000000001304
 31
0.0
  0
LINE
  5
510
330
1F
100
AcDbEntity
  8
LAY-10
  6
CONTINUOUS
 62
     7
100
AcDbLine
 10
330.5000000000005
 20
754.0000000001303
 30
0.0
 11
330.5000000000005
 21
773.0000000001304
 31
0.0
  0
LINE
  5
511
330
1F
100
AcDbEntity
  8
LAY-10
  6
CONTINUOUS
 62
     7
100
AcDbLine
 10
319.7499999999698
 20
775.0000000000922
 30
0.0
 11
330.2499999999698
 21
775.0000000000922
 31
0.0
  0
ARC
  5
512
330
1F
100
AcDbEntity
  8
LAY-10
  6
CONTINUOUS
 62
     7
100
AcDbCircle
 10
321.2499999999698
 20
777.0000000000922
 30
0.0
 40
1.0
100
AcDbArc
 50
90.00000000000009
 51
151.9275130641421
  0
ARC
  5
513
330
1F
100
AcDbEntity
  8
LAY-10
  6
CONTINUOUS
 62
     7
100
AcDbCircle
 10
324.9999999999698
 20
775.0000000000922
 30
0.0
 40
5.25
100
AcDbArc
 50
151.9275130641422
 51
179.9999999999997
  0
LINE
  5
514
330
1F
100
AcDbEntity
  8
LAY-10
  6
CONTINUOUS
 62
     7
100
AcDbLine
 10
328.7499999999698
 20
778.0000000000922
 30
0.0
 11
321.2499999999698
 21
778.0000000000922
 31
0.0
  0
ARC
  5
515
330
1F
100
AcDbEntity
  8
LAY-10
  6
CONTINUOUS
 62
     7
100
AcDbCircle
 10
328.7499999999698
 20
777.0000000000922
 30
0.0
 40
1.0
100
AcDbArc
 50
28.07248693585815
 51
90.00000000000009
  0
ARC
  5
516
330
1F
100
AcDbEntity
  8
LAY-10
  6
CONTINUOUS
 62
     7
100
AcDbCircle
 10
324.9999999999698
 20
775.0000000000922
 30
0.0
 40
5.25
100
AcDbArc
 50
0.0000000000011459
 51
28.07248693585798
  0
LINE
  5
517
330
1F
100
AcDbEntity
  8
LAY-10
  6
CONTINUOUS
 62
     7
100
AcDbLine
 10
327.9999999999698
 20
773.0000000000958
 30
0.0
 11
327.9999999999698
 21
765.9971143171327
 31
0.0
  0
LINE
  5
518
330
1F
100
AcDbEntity
  8
LAY-10
  6
CONTINUOUS
 62
     7
100
AcDbLine
 10
321.9999999999698
 20
773.0000000000958
 30
0.0
 11
321.9999999999698
 21
765.9971143171327
 31
0.0
  0
LINE
  5
519
330
1F
100
AcDbEntity
  8
LAY-10
  6
CONTINUOUS
 62
     7
100
AcDbLine
 10
327.9999999999698
 20
762.0000000000904
 30
0.0
 11
327.9999999999698
 21
753.8000000000915
 31
0.0
  0
LINE
  5
51A
330
1F
100
AcDbEntity
  8
LAY-10
  6
CONTINUOUS
 62
     7
100
AcDbLine
 10
321.9999999999698
 20
762.0000000000904
 30
0.0
 11
321.9999999999698
 21
753.8000000000915
 31
0.0
  0
LINE
  5
51B
330
1F
100
AcDbEntity
  8
LAY-10
  6
CONTINUOUS
 62
     7
100
AcDbLine
 10
322.1367513459215
 20
753.8000000000915
 30
0.0
 11
322.1367513459215
 21
749.1720000000909
 31
0.0
  0
LINE
  5
51C
330
1F
100
AcDbEntity
  8
LAY-10
  6
CONTINUOUS
 62
     7
100
AcDbLine
 10
319.2499999999698
 20
753.8000000000915
 30
0.0
 11
319.2499999999698
 21
749.1720000000909
 31
0.0
  0
LINE
  5
51D
330
1F
100
AcDbEntity
  8
LAY-10
  6
CONTINUOUS
 62
     7
100
AcDbLine
 10
327.863248654018
 20
753.8000000000915
 30
0.0
 11
327.863248654018
 21
749.1720000000909
 31
0.0
  0
ARC
  5
51E
330
1F
100
AcDbEntity
  8
LAY-10
  6
CONTINUOUS
 62
     7
100
AcDbCircle
 10
324.9999999999698
 20
756.0522524956499
 30
0.0
 40
7.4522524955587
100
AcDbArc
 50
247.4051392327525
 51
292.5948607672478
  0
LINE
  5
51F
330
1F
100
AcDbEntity
  8
LAY-10
  6
CONTINUOUS
 62
     7
100
AcDbLine
 10
330.7499999999698
 20
753.8000000000915
 30
0.0
 11
330.7499999999698
 21
749.1720000000909
 31
0.0
  0
LINE
  5
520
330
1F
100
AcDbEntity
  8
LAY-10
  6
CONTINUOUS
 62
     7
100
AcDbLine
 10
330.7499999999698
 20
753.8000000000915
 30
0.0
 11
319.2499999999698
 21
753.8000000000915
 31
0.0
  0
ARC
  5
521
330
1F
100
AcDbEntity
  8
LAY-10
  6
CONTINUOUS
 62
     7
100
AcDbCircle
 10
329.7499999999697
 20
748.1379779542925
 30
0.0
 40
0.5
100
AcDbArc
 50
99.79159752642917
 51
180.0000000000002
  0
LINE
  5
522
330
1F
100
AcDbEntity
  8
LAY-10
  6
CONTINUOUS
 62
     7
100
AcDbLine
 10
329.2499999999698
 20
748.6000000000907
 30
0.0
 11
329.2499999999698
 21
748.6007609749462
 31
0.0
  0
ARC
  5
523
330
1F
100
AcDbEntity
  8
LAY-10
  6
CONTINUOUS
 62
     7
100
AcDbCircle
 10
320.6933756729438
 20
750.7070955711891
 30
0.0
 40
2.107095571097913
100
AcDbArc
 50
226.7638252773316
 51
313.236174722669
  0
ARC
  5
524
330
1F
100
AcDbEntity
  8
LAY-10
  6
CONTINUOUS
 62
     7
100
AcDbCircle
 10
320.2499999999698
 20
748.1379779542925
 30
0.0
 40
0.5
100
AcDbArc
 50
0.0000000000002292
 51
80.20840247357106
  0
LINE
  5
525
330
1F
100
AcDbEntity
  8
LAY-10
  6
CONTINUOUS
 62
     7
100
AcDbLine
 10
320.7499999999698
 20
748.6000000000907
 30
0.0
 11
320.7499999999698
 21
748.6007609749462
 31
0.0
  0
ARC
  5
526
330
1F
100
AcDbEntity
  8
LAY-10
  6
CONTINUOUS
 62
     7
100
AcDbCircle
 10
329.3066243269957
 20
750.7070955711891
 30
0.0
 40
2.107095571097882
100
AcDbArc
 50
226.763825277331
 51
313.2361747226693
  0
ARC
  5
527
330
1F
100
AcDbEntity
  8
LAY-10
  6
CONTINUOUS
 62
     7
100
AcDbCircle
 10
321.7499999999698
 20
747.5009618944144
 30
0.0
 40
1.0
100
AcDbArc
 50
180.0000000000002
 51
201.7867892982636
  0
LINE
  5
528
330
1F
100
AcDbEntity
  8
LAY-10
  6
CONTINUOUS
 62
     7
100
AcDbLine
 10
320.7499999999698
 20
747.5009618944144
 30
0.0
 11
320.7499999999698
 21
748.1379779542925
 31
0.0
  0
ARC
  5
529
330
1F
100
AcDbEntity
  8
LAY-10
  6
CONTINUOUS
 62
     7
100
AcDbCircle
 10
324.9999999999698
 20
748.8000000000915
 30
0.0
 40
4.5
100
AcDbArc
 50
201.7867892982638
 51
338.2132107017366
  0
LINE
  5
52A
330
1F
100
AcDbEntity
  8
LAY-10
  6
CONTINUOUS
 62
     7
100
AcDbLine
 10
329.2499999999698
 20
747.5009618944144
 30
0.0
 11
329.2499999999698
 21
748.1379779542925
 31
0.0
  0
ARC
  5
52B
330
1F
100
AcDbEntity
  8
LAY-10
  6
CONTINUOUS
 62
     7
100
AcDbCircle
 10
328.2499999999698
 20
747.5009618944144
 30
0.0
 40
1.0
100
AcDbArc
 50
338.2132107017366
 51
0.0000000000002292
  0
LINE
  5
52C
330
1F
100
AcDbEntity
  8
LAY-10
  6
CONTINUOUS
 62
     7
100
AcDbLine
 10
317.4999999999993
 20
773.0000000001304
 30
0.0
 11
317.4999999999993
 21
780.0000000001304
 31
0.0
  0
LINE
  5
52D
330
1F
100
AcDbEntity
  8
LAY-10
  6
CONTINUOUS
 62
     7
100
AcDbLine
 10
332.4999999999993
 20
773.0000000001304
 30
0.0
 11
332.4999999999993
 21
780.0000000001304
 31
0.0
  0
LINE
  5
52E
330
1F
100
AcDbEntity
  8
LAY-10
  6
CONTINUOUS
 62
     7
100
AcDbLine
 10
332.5000000000002
 20
773.0000000001304
 30
0.0
 11
332.5000000000002
 21
754.0000000001303
 31
0.0
  0
LINE
  5
52F
330
1F
100
AcDbEntity
  8
LAY-10
  6
CONTINUOUS
 62
     7
100
AcDbLine
 10
1120.00000000016
 20
765.99711431713
 30
0.0
 11
1120.00000000016
 21
762.0000000000304
 31
0.0
  0
LINE
  5
530
330
1F
100
AcDbEntity
  8
LAY-10
  6
CONTINUOUS
 62
     7
100
AcDbLine
 10
1130.00000000016
 20
765.99711431713
 30
0.0
 11
1130.00000000016
 21
762.0000000000304
 31
0.0
  0
LINE
  5
531
330
1F
100
AcDbEntity
  8
LAY-10
  6
CONTINUOUS
 62
     7
100
AcDbLine
 10
1120.00000000016
 20
765.9971143171041
 30
0.0
 11
1130.00000000016
 21
765.9971143171041
 31
0.0
  0
LINE
  5
532
330
1F
100
AcDbEntity
  8
LAY-10
  6
CONTINUOUS
 62
     7
100
AcDbLine
 10
1120.00000000016
 20
762.0000000000249
 30
0.0
 11
1130.00000000016
 21
762.0000000000249
 31
0.0
  0
LINE
  5
533
330
1F
100
AcDbEntity
  8
LAY-10
  6
CONTINUOUS
 62
     7
100
AcDbLine
 10
1117.500000000059
 20
780.0000000001304
 30
0.0
 11
1132.500000000059
 21
780.0000000001304
 31
0.0
  0
LINE
  5
534
330
1F
100
AcDbEntity
  8
LAY-10
  6
CONTINUOUS
 62
     7
100
AcDbLine
 10
1132.50000000006
 20
754.0000000001348
 30
0.0
 11
1130.50000000006
 21
754.0000000001348
 31
0.0
  0
LINE
  5
535
330
1F
100
AcDbEntity
  8
LAY-10
  6
CONTINUOUS
 62
     7
100
AcDbLine
 10
1132.50000000006
 20
775.0000000001304
 30
0.0
 11
1117.500000000059
 21
775.0000000001304
 31
0.0
  0
LINE
  5
536
330
1F
100
AcDbEntity
  8
LAY-10
  6
CONTINUOUS
 62
     7
100
AcDbLine
 10
1117.50000000006
 20
773.0000000001304
 30
0.0
 11
1132.50000000006
 21
773.0000000001304
 31
0.0
  0
LINE
  5
537
330
1F
100
AcDbEntity
  8
LAY-10
  6
CONTINUOUS
 62
     7
100
AcDbLine
 10
1130.500000000061
 20
754.0000000001303
 30
0.0
 11
1130.500000000061
 21
773.0000000001304
 31
0.0
  0
LINE
  5
538
330
1F
100
AcDbEntity
  8
LAY-10
  6
CONTINUOUS
 62
     7
100
AcDbLine
 10
1119.75000000003
 20
775.0000000000922
 30
0.0
 11
1130.25000000003
 21
775.0000000000922
 31
0.0
  0
ARC
  5
539
330
1F
100
AcDbEntity
  8
LAY-10
  6
CONTINUOUS
 62
     7
100
AcDbCircle
 10
1121.25000000003
 20
777.0000000000922
 30
0.0
 40
1.0
100
AcDbArc
 50
90.00000000000009
 51
151.9275130641421
  0
ARC
  5
53A
330
1F
100
AcDbEntity
  8
LAY-10
  6
CONTINUOUS
 62
     7
100
AcDbCircle
 10
1125.00000000003
 20
775.0000000000922
 30
0.0
 40
5.25
100
AcDbArc
 50
151.9275130641422
 51
179.9999999999997
  0
LINE
  5
53B
330
1F
100
AcDbEntity
  8
LAY-10
  6
CONTINUOUS
 62
     7
100
AcDbLine
 10
1128.75000000003
 20
778.0000000000922
 30
0.0
 11
1121.25000000003
 21
778.0000000000922
 31
0.0
  0
ARC
  5
53C
330
1F
100
AcDbEntity
  8
LAY-10
  6
CONTINUOUS
 62
     7
100
AcDbCircle
 10
1128.75000000003
 20
777.0000000000922
 30
0.0
 40
1.0
100
AcDbArc
 50
28.07248693585815
 51
90.00000000000009
  0
ARC
  5
53D
330
1F
100
AcDbEntity
  8
LAY-10
  6
CONTINUOUS
 62
     7
100
AcDbCircle
 10
1125.00000000003
 20
775.0000000000922
 30
0.0
 40
5.25
100
AcDbArc
 50
0.0000000000011459
 51
28.07248693585798
  0
LINE
  5
53E
330
1F
100
AcDbEntity
  8
LAY-10
  6
CONTINUOUS
 62
     7
100
AcDbLine
 10
1128.00000000003
 20
773.0000000000958
 30
0.0
 11
1128.00000000003
 21
765.9971143171327
 31
0.0
  0
LINE
  5
53F
330
1F
100
AcDbEntity
  8
LAY-10
  6
CONTINUOUS
 62
     7
100
AcDbLine
 10
1122.00000000003
 20
773.0000000000958
 30
0.0
 11
1122.00000000003
 21
765.9971143171327
 31
0.0
  0
LINE
  5
540
330
1F
100
AcDbEntity
  8
LAY-10
  6
CONTINUOUS
 62
     7
100
AcDbLine
 10
1128.00000000003
 20
762.0000000000904
 30
0.0
 11
1128.00000000003
 21
753.8000000000915
 31
0.0
  0
LINE
  5
541
330
1F
100
AcDbEntity
  8
LAY-10
  6
CONTINUOUS
 62
     7
100
AcDbLine
 10
1122.00000000003
 20
762.0000000000904
 30
0.0
 11
1122.00000000003
 21
753.8000000000915
 31
0.0
  0
LINE
  5
542
330
1F
100
AcDbEntity
  8
LAY-10
  6
CONTINUOUS
 62
     7
100
AcDbLine
 10
1122.136751345982
 20
753.8000000000915
 30
0.0
 11
1122.136751345982
 21
749.1720000000909
 31
0.0
  0
LINE
  5
543
330
1F
100
AcDbEntity
  8
LAY-10
  6
CONTINUOUS
 62
     7
100
AcDbLine
 10
1119.25000000003
 20
753.8000000000915
 30
0.0
 11
1119.25000000003
 21
749.1720000000909
 31
0.0
  0
LINE
  5
544
330
1F
100
AcDbEntity
  8
LAY-10
  6
CONTINUOUS
 62
     7
100
AcDbLine
 10
1127.863248654078
 20
753.8000000000915
 30
0.0
 11
1127.863248654078
 21
749.1720000000909
 31
0.0
  0
ARC
  5
545
330
1F
100
AcDbEntity
  8
LAY-10
  6
CONTINUOUS
 62
     7
100
AcDbCircle
 10
1125.00000000003
 20
756.0522524956499
 30
0.0
 40
7.4522524955587
100
AcDbArc
 50
247.4051392327525
 51
292.5948607672478
  0
LINE
  5
546
330
1F
100
AcDbEntity
  8
LAY-10
  6
CONTINUOUS
 62
     7
100
AcDbLine
 10
1130.75000000003
 20
753.8000000000915
 30
0.0
 11
1130.75000000003
 21
749.1720000000909
 31
0.0
  0
LINE
  5
547
330
1F
100
AcDbEntity
  8
LAY-10
  6
CONTINUOUS
 62
     7
100
AcDbLine
 10
1130.75000000003
 20
753.8000000000915
 30
0.0
 11
1119.25000000003
 21
753.8000000000915
 31
0.0
  0
ARC
  5
548
330
1F
100
AcDbEntity
  8
LAY-10
  6
CONTINUOUS
 62
     7
100
AcDbCircle
 10
1129.75000000003
 20
748.1379779542925
 30
0.0
 40
0.5
100
AcDbArc
 50
99.79159752642917
 51
180.0000000000002
  0
ARC
  5
549
330
1F
100
AcDbEntity
  8
LAY-10
  6
CONTINUOUS
 62
     7
100
AcDbCircle
 10
1120.693375673004
 20
750.7070955711891
 30
0.0
 40
2.107095571097913
100
AcDbArc
 50
226.7638252773316
 51
313.236174722669
  0
ARC
  5
54A
330
1F
100
AcDbEntity
  8
LAY-10
  6
CONTINUOUS
 62
     7
100
AcDbCircle
 10
1120.25000000003
 20
748.1379779542925
 30
0.0
 40
0.5
100
AcDbArc
 50
0.0000000000002292
 51
80.20840247357106
  0
LINE
  5
54B
330
1F
100
AcDbEntity
  8
LAY-10
  6
CONTINUOUS
 62
     7
100
AcDbLine
 10
1120.75000000003
 20
748.6000000000907
 30
0.0
 11
1120.75000000003
 21
748.6007609749462
 31
0.0
  0
ARC
  5
54C
330
1F
100
AcDbEntity
  8
LAY-10
  6
CONTINUOUS
 62
     7
100
AcDbCircle
 10
1129.306624327056
 20
750.7070955711891
 30
0.0
 40
2.107095571097882
100
AcDbArc
 50
226.763825277331
 51
313.2361747226693
  0
ARC
  5
54D
330
1F
100
AcDbEntity
  8
LAY-10
  6
CONTINUOUS
 62
     7
100
AcDbCircle
 10
1121.75000000003
 20
747.5009618944144
 30
0.0
 40
1.0
100
AcDbArc
 50
180.0000000000002
 51
201.7867892982636
  0
LINE
  5
54E
330
1F
100
AcDbEntity
  8
LAY-10
  6
CONTINUOUS
 62
     7
100
AcDbLine
 10
1120.75000000003
 20
747.5009618944144
 30
0.0
 11
1120.75000000003
 21
748.1379779542925
 31
0.0
  0
ARC
  5
54F
330
1F
100
AcDbEntity
  8
LAY-10
  6
CONTINUOUS
 62
     7
100
AcDbCircle
 10
1125.00000000003
 20
748.8000000000915
 30
0.0
 40
4.5
100
AcDbArc
 50
201.7867892982638
 51
338.2132107017366
  0
LINE
  5
550
330
1F
100
AcDbEntity
  8
LAY-10
  6
CONTINUOUS
 62
     7
100
AcDbLine
 10
1129.25000000003
 20
747.5009618944144
 30
0.0
 11
1129.25000000003
 21
748.1379779542925
 31
0.0
  0
ARC
  5
551
330
1F
100
AcDbEntity
  8
LAY-10
  6
CONTINUOUS
 62
     7
100
AcDbCircle
 10
1128.25000000003
 20
747.5009618944144
 30
0.0
 40
1.0
100
AcDbArc
 50
338.2132107017366
 51
0.0000000000002292
  0
LINE
  5
552
330
1F
100
AcDbEntity
  8
LAY-10
  6
CONTINUOUS
 62
     7
100
AcDbLine
 10
1117.500000000059
 20
773.0000000001304
 30
0.0
 11
1117.500000000059
 21
780.0000000001304
 31
0.0
  0
LINE
  5
553
330
1F
100
AcDbEntity
  8
LAY-10
  6
CONTINUOUS
 62
     7
100
AcDbLine
 10
1132.500000000059
 20
773.0000000001304
 30
0.0
 11
1132.500000000059
 21
780.0000000001304
 31
0.0
  0
LINE
  5
554
330
1F
100
AcDbEntity
  8
LAY-10
  6
CONTINUOUS
 62
     7
100
AcDbLine
 10
1132.50000000006
 20
773.0000000001304
 30
0.0
 11
1132.50000000006
 21
754.0000000001303
 31
0.0
  0
LINE
  5
555
330
1F
100
AcDbEntity
  8
LAY-10
  6
CONTINUOUS
 62
     7
100
AcDbLine
 10
1223.99999999999
 20
795.0000000000813
 30
0.0
 11
1222.997920995666
 21
795.0000000000813
 31
0.0
  0
LINE
  5
556
330
1F
100
AcDbEntity
  8
LAY-10
  6
CONTINUOUS
 62
     7
100
AcDbLine
 10
1210.999999999988
 20
795.0000000000813
 30
0.0
 11
238.99999999999
 21
795.0000000000813
 31
0.0
  0
LINE
  5
557
330
1F
100
AcDbEntity
  8
LAY-10
  6
CONTINUOUS
 62
     7
100
AcDbLine
 10
227.0020790043116
 20
795.0000000000813
 30
0.0
 11
225.9999999999884
 21
795.0000000000813
 31
0.0
  0
LINE
  5
558
330
1F
100
AcDbEntity
  8
LAY-10
  6
CONTINUOUS
 62
     7
100
AcDbLine
 10
228.0
 20
775.0000000001804
 30
0.0
 11
228.0
 21
766.0000000001804
 31
0.0
  0
LINE
  5
559
330
1F
100
AcDbEntity
  8
LAY-10
  6
CONTINUOUS
 62
     7
100
AcDbLine
 10
330.5000000000005
 20
766.0000000001304
 30
0.0
 11
228.0
 21
766.0000000001304
 31
0.0
  0
LINE
  5
55A
330
1F
100
AcDbEntity
  8
LAY-10
  6
CONTINUOUS
 62
     7
100
AcDbLine
 10
1222.000000000004
 20
775.0000000001804
 30
0.0
 11
1222.000000000004
 21
766.0000000001804
 31
0.0
  0
LINE
  5
55B
330
1F
100
AcDbEntity
  8
LAY-10
  6
CONTINUOUS
 62
     7
100
AcDbLine
 10
1222.000000000004
 20
775.0000000001304
 30
0.0
 11
228.0
 21
775.0000000001304
 31
0.0
  0
LINE
  5
55C
330
1F
100
AcDbEntity
  8
LAY-10
  6
CONTINUOUS
 62
     7
100
AcDbLine
 10
1222.000000000004
 20
766.0000000001304
 30
0.0
 11
1132.50000000006
 21
766.0000000001304
 31
0.0
  0
LINE
  5
55D
330
1F
100
AcDbEntity
  8
LAY-10
  6
CONTINUOUS
 62
     7
100
AcDbLine
 10
1130.500000000061
 20
766.0000000001305
 30
0.0
 11
332.5000000000002
 21
766.0000000001304
 31
0.0
  0
CIRCLE
  5
55E
330
1F
100
AcDbEntity
  8
LAY-10
  6
CONTINUOUS
 62
     7
100
AcDbCircle
 10
325.0000000000398
 20
649.5000000001002
 30
0.0
 40
3.37500000001171
  0
CIRCLE
  5
55F
330
1F
100
AcDbEntity
  8
LAY-10
  6
CONTINUOUS
 62
     7
100
AcDbCircle
 10
725.0000000000399
 20
649.5000000001002
 30
0.0
 40
3.37500000001171
  0
CIRCLE
  5
560
330
1F
100
AcDbEntity
  8
LAY-10
  6
CONTINUOUS
 62
     7
100
AcDbCircle
 10
1125.0
 20
649.5000000001002
 30
0.0
 40
3.37500000001171
  0
LINE
  5
561
330
1F
100
AcDbEntity
  8
LAY-10
  6
CONTINUOUS
 62
     7
100
AcDbLine
 10
327.3999999999676
 20
765.9971143171327
 30
0.0
 11
327.3999999999676
 21
773.0000000000958
 31
0.0
  0
LINE
  5
562
330
1F
100
AcDbEntity
  8
LAY-10
  6
CONTINUOUS
 62
     7
100
AcDbLine
 10
322.5999999999682
 20
765.9971143171327
 30
0.0
 11
322.5999999999682
 21
773.0000000000958
 31
0.0
  0
LINE
  5
563
330
1F
100
AcDbEntity
  8
LAY-10
  6
CONTINUOUS
 62
     7
100
AcDbLine
 10
327.3999999999676
 20
753.8000000000915
 30
0.0
 11
327.3999999999676
 21
762.0000000000904
 31
0.0
  0
LINE
  5
564
330
1F
100
AcDbEntity
  8
LAY-10
  6
CONTINUOUS
 62
     7
100
AcDbLine
 10
322.5999999999682
 20
753.8000000000915
 30
0.0
 11
322.5999999999682
 21
762.0000000000904
 31
0.0
  0
LINE
  5
565
330
1F
100
AcDbEntity
  8
LAY-10
  6
PHANTOM
 62
     7
100
AcDbLine
 10
317.4999999999984
 20
754.0000000001348
 30
0.0
 11
319.4999999999984
 21
754.0000000001348
 31
0.0
  0
LINE
  5
566
330
1F
100
AcDbEntity
  8
LAY-10
  6
PHANTOM
 62
     7
100
AcDbLine
 10
319.4999999999984
 20
754.0000000001303
 30
0.0
 11
319.4999999999984
 21
773.0000000001304
 31
0.0
  0
LINE
  5
567
330
1F
100
AcDbEntity
  8
LAY-10
  6
PHANTOM
 62
     7
100
AcDbLine
 10
317.4999999999986
 20
773.0000000001304
 30
0.0
 11
317.4999999999986
 21
754.0000000001348
 31
0.0
  0
LINE
  5
568
330
1F
100
AcDbEntity
  8
LAY-10
  6
CONTINUOUS
 62
     7
100
AcDbLine
 10
1127.400000000028
 20
765.9971143171327
 30
0.0
 11
1127.400000000028
 21
773.0000000000958
 31
0.0
  0
LINE
  5
569
330
1F
100
AcDbEntity
  8
LAY-10
  6
CONTINUOUS
 62
     7
100
AcDbLine
 10
1122.600000000028
 20
765.9971143171327
 30
0.0
 11
1122.600000000028
 21
773.0000000000958
 31
0.0
  0
LINE
  5
56A
330
1F
100
AcDbEntity
  8
LAY-10
  6
CONTINUOUS
 62
     7
100
AcDbLine
 10
1127.400000000028
 20
753.8000000000915
 30
0.0
 11
1127.400000000028
 21
762.0000000000904
 31
0.0
  0
LINE
  5
56B
330
1F
100
AcDbEntity
  8
LAY-10
  6
CONTINUOUS
 62
     7
100
AcDbLine
 10
1122.600000000028
 20
753.8000000000915
 30
0.0
 11
1122.600000000028
 21
762.0000000000904
 31
0.0
  0
LINE
  5
56C
330
1F
100
AcDbEntity
  8
LAY-10
  6
PHANTOM
 62
     7
100
AcDbLine
 10
1117.500000000058
 20
754.0000000001348
 30
0.0
 11
1119.500000000058
 21
754.0000000001348
 31
0.0
  0
LINE
  5
56D
330
1F
100
AcDbEntity
  8
LAY-10
  6
PHANTOM
 62
     7
100
AcDbLine
 10
1119.500000000058
 20
754.0000000001303
 30
0.0
 11
1119.500000000058
 21
773.0000000001304
 31
0.0
  0
LINE
  5
56E
330
1F
100
AcDbEntity
  8
LAY-10
  6
PHANTOM
 62
     7
100
AcDbLine
 10
1117.500000000059
 20
773.0000000001304
 30
0.0
 11
1117.500000000059
 21
754.0000000001348
 31
0.0
  0
LINE
  5
56F
330
1F
100
AcDbEntity
  8
LAY-10
  6
CENTER
 62
     2
100
AcDbLine
 10
325.0000000000396
 20
655.5000000001031
 30
0.0
 11
325.0000000000396
 21
643.5000000000974
 31
0.0
  0
LINE
  5
570
330
1F
100
AcDbEntity
  8
LAY-10
  6
CENTER
 62
     2
100
AcDbLine
 10
331.0000000000427
 20
649.5000000001002
 30
0.0
 11
319.0000000000368
 21
649.5000000001002
 31
0.0
  0
LINE
  5
571
330
1F
100
AcDbEntity
  8
LAY-10
  6
CENTER
 62
     2
100
AcDbLine
 10
725.0000000000398
 20
655.5000000001031
 30
0.0
 11
725.0000000000398
 21
643.5000000000974
 31
0.0
  0
LINE
  5
572
330
1F
100
AcDbEntity
  8
LAY-10
  6
CENTER
 62
     2
100
AcDbLine
 10
731.0000000000429
 20
649.5000000001002
 30
0.0
 11
719.000000000037
 21
649.5000000001002
 31
0.0
  0
LINE
  5
573
330
1F
100
AcDbEntity
  8
LAY-10
  6
CENTER
 62
     2
100
AcDbLine
 10
1125.0
 20
655.5000000001031
 30
0.0
 11
1125.0
 21
643.5000000000974
 31
0.0
  0
LINE
  5
574
330
1F
100
AcDbEntity
  8
LAY-10
  6
CENTER
 62
     2
100
AcDbLine
 10
1131.000000000003
 20
649.5000000001002
 30
0.0
 11
1118.999999999997
 21
649.5000000001002
 31
0.0
  0
LINE
  5
575
330
1F
100
AcDbEntity
  8
LAY-10
  6
CENTER
 62
     2
100
AcDbLine
 10
324.9999999999998
 20
742.3000000001301
 30
0.0
 11
324.9999999999998
 21
780.0000000001304
 31
0.0
  0
LINE
  5
576
330
1F
100
AcDbEntity
  8
LAY-10
  6
CENTER
 62
     2
100
AcDbLine
 10
1125.00000000006
 20
742.3000000001301
 30
0.0
 11
1125.00000000006
 21
780.0000000001304
 31
0.0
  0
LINE
  5
577
330
1F
100
AcDbEntity
  8
LAY-10
  6
CONTINUOUS
 62
     7
100
AcDbLine
 10
295.00000000003
 20
706.0000000000999
 30
0.0
 11
295.00000000003
 21
674.0000000000999
 31
0.0
  0
LINE
  5
578
330
1F
100
AcDbEntity
  8
LAY-10
  6
CONTINUOUS
 62
     7
100
AcDbLine
 10
555.00000000003
 20
706.0000000000999
 30
0.0
 11
555.00000000003
 21
674.0000000000999
 31
0.0
  0
LINE
  5
579
330
1F
100
AcDbEntity
  8
LAY-10
  6
CONTINUOUS
 62
     7
100
AcDbLine
 10
595.00000000003
 20
706.0000000000999
 30
0.0
 11
595.00000000003
 21
674.0000000000999
 31
0.0
  0
LINE
  5
57A
330
1F
100
AcDbEntity
  8
LAY-10
  6
CONTINUOUS
 62
     7
100
AcDbLine
 10
855.0000000000299
 20
706.0000000000999
 30
0.0
 11
855.0000000000299
 21
674.0000000000999
 31
0.0
  0
LINE
  5
57B
330
1F
100
AcDbEntity
  8
LAY-10
  6
CONTINUOUS
 62
     7
100
AcDbLine
 10
895.0000000000299
 20
706.0000000000999
 30
0.0
 11
895.0000000000299
 21
674.0000000000999
 31
0.0
  0
LINE
  5
57C
330
1F
100
AcDbEntity
  8
LAY-10
  6
CONTINUOUS
 62
     7
100
AcDbLine
 10
1155.0
 20
706.0000000000999
 30
0.0
 11
1155.0
 21
674.0000000000999
 31
0.0
  0
LEADER
  5
57D
330
1F
100
AcDbEntity
  8
LAY-20
  6
CONTINUOUS
 62
     7
100
AcDbLeader
  3
ISO-25
 76
     3
 10
1633.500000000029
 20
946.0000000001392
 30
0.0
 10
1602.849364905429
 20
892.9115427320594
 30
0.0
 10
1539.000000000029
 20
892.9115427320594
 30
0.0
1001
ACAD
1000
DSTYLE
1002
{
1070
     5
1000
EX_BNORM
1070
    41
1040
15.0
1070
   341
1005
7B
1002
}
  0
TEXT
  5
57E
330
1F
100
AcDbEntity
  8
LAY-20
  6
CONTINUOUS
 62
     7
100
AcDbText
 10
1552.096557452729
 20
898.2240427320594
 30
0.0
 40
17.1875
  1
別途
 41
1.07185045
  7
EXCADSTD
100
AcDbText
  0
DIMENSION
  5
580
330
1F
100
AcDbEntity
  8
LAY-20
  6
CONTINUOUS
 62
     4
100
AcDbDimension
  2
*D15
 10
1224.999999999954
 20
1241.0000000001
 30
0.0
 11
724.9999999999735
 21
1253.5000000001
 31
0.0
 70
   160
  3
ISO-25
100
AcDbAlignedDimension
 13
224.9999999999932
 23
1156.000000000105
 33
0.0
 14
1224.999999999954
 24
1156.000000000105
 34
0.0
100
AcDbRotatedDimension
1001
ACAD
1000
DSTYLE
1002
{
1070
   270
1070
     2
1070
     6
1000
EX_BNORM
1070
     7
1000
EX_BNORM
1070
    41
1040
12.5
1070
    42
1040
7.5
1070
    44
1040
7.5
1070
    73
1070
     0
1070
    74
1070
     0
1070
    75
1070
     0
1070
    76
1070
     0
1070
    77
1070
     1
1070
    78
1070
     8
1070
   140
1040
15.590552
1070
   147
1040
0.0
1070
   173
1070
     1
1070
   176
1070
     4
1070
   177
1070
     4
1070
   178
1070
     7
1070
   271
1070
     1
1070
   277
1070
     2
1070
   279
1070
     2
1070
   280
1070
     0
1070
   287
1070
     5
1070
   340
1005
57F
1002
}
  0
DIMENSION
  5
58E
330
1F
100
AcDbEntity
  8
LAY-20
  6
CONTINUOUS
 62
     4
100
AcDbDimension
  2
*D16
 10
324.9999999999295
 20
886.5000000001999
 30
0.0
 11
274.9999999999695
 21
899.0000000001999
 31
0.0
 70
   160
  3
ISO-25
100
AcDbAlignedDimension
 13
225.0000000000095
 23
936.5000000001999
 33
0.0
 14
324.9999999999295
 24
917.5000000000498
 34
0.0
100
AcDbRotatedDimension
1001
ACAD
1000
DSTYLE
1002
{
1070
   270
1070
     2
1070
     6
1000
EX_BNORM
1070
     7
1000
EX_BNORM
1070
    41
1040
12.5
1070
    42
1040
7.5
1070
    44
1040
7.5
1070
    73
1070
     0
1070
    74
1070
     0
1070
    75
1070
     0
1070
    76
1070
     0
1070
    77
1070
     1
1070
    78
1070
     8
1070
   140
1040
15.590552
1070
   147
1040
0.0
1070
   173
1070
     1
1070
   176
1070
     4
1070
   177
1070
     4
1070
   178
1070
     7
1070
   271
1070
     1
1070
   277
1070
     2
1070
   279
1070
     2
1070
   280
1070
     0
1070
   287
1070
     5
1070
   340
1005
57F
1002
}
  0
DIMENSION
  5
59B
330
1F
100
AcDbEntity
  8
LAY-20
  6
CONTINUOUS
 62
     4
100
AcDbDimension
  2
*D17
 10
724.9999999999491
 20
886.5000000001999
 30
0.0
 11
524.9999999999394
 21
899.0000000001999
 31
0.0
 70
   160
  3
ISO-25
100
AcDbAlignedDimension
 13
324.9999999999295
 23
916.5000000000998
 33
0.0
 14
724.9999999999491
 24
917.5000000000498
 34
0.0
100
AcDbRotatedDimension
1001
ACAD
1000
DSTYLE
1002
{
1070
   270
1070
     2
1070
     6
1000
EX_BNORM
1070
     7
1000
EX_BNORM
1070
    41
1040
12.5
1070
    42
1040
7.5
1070
    44
1040
7.5
1070
    73
1070
     0
1070
    74
1070
     0
1070
    75
1070
     1
1070
    76
1070
     0
1070
    77
1070
     1
1070
    78
1070
     8
1070
   140
1040
15.590552
1070
   147
1040
0.0
1070
   173
1070
     1
1070
   176
1070
     4
1070
   177
1070
     4
1070
   178
1070
     7
1070
   271
1070
     1
1070
   277
1070
     2
1070
   279
1070
     2
1070
   280
1070
     0
1070
   287
1070
     5
1070
   340
1005
57F
1002
}
  0
DIMENSION
  5
5A7
330
1F
100
AcDbEntity
  8
LAY-20
  6
CONTINUOUS
 62
     4
100
AcDbDimension
  2
*D18
 10
1124.99999999992
 20
886.5000000001999
 30
0.0
 11
924.9999999999343
 21
899.0000000001999
 31
0.0
 70
   160
  3
ISO-25
100
AcDbAlignedDimension
 13
724.9999999999491
 23
916.5000000000998
 33
0.0
 14
1124.99999999992
 24
917.5000000000498
 34
0.0
100
AcDbRotatedDimension
1001
ACAD
1000
DSTYLE
1002
{
1070
   270
1070
     2
1070
     6
1000
EX_BNORM
1070
     7
1000
EX_BNORM
1070
    41
1040
12.5
1070
    42
1040
7.5
1070
    44
1040
7.5
1070
    73
1070
     0
1070
    74
1070
     0
1070
    75
1070
     1
1070
    76
1070
     0
1070
    77
1070
     1
1070
    78
1070
     8
1070
   140
1040
15.590552
1070
   147
1040
0.0
1070
   173
1070
     1
1070
   176
1070
     4
1070
   177
1070
     4
1070
   178
1070
     7
1070
   271
1070
     1
1070
   277
1070
     2
1070
   279
1070
     2
1070
   280
1070
     0
1070
   287
1070
     5
1070
   340
1005
57F
1002
}
  0
DIMENSION
  5
5B3
330
1F
100
AcDbEntity
  8
LAY-20
  6
CONTINUOUS
 62
     4
100
AcDbDimension
  2
*D19
 10
1225.00000000002
 20
886.5000000001999
 30
0.0
 11
1174.99999999997
 21
899.0000000001999
 31
0.0
 70
   160
  3
ISO-25
100
AcDbAlignedDimension
 13
1124.99999999992
 23
916.5000000000998
 33
0.0
 14
1225.00000000002
 24
936.5000000001999
 34
0.0
100
AcDbRotatedDimension
1001
ACAD
1000
DSTYLE
1002
{
1070
   270
1070
     2
1070
     6
1000
EX_BNORM
1070
     7
1000
EX_BNORM
1070
    41
1040
12.5
1070
    42
1040
7.5
1070
    44
1040
7.5
1070
    73
1070
     0
1070
    74
1070
     0
1070
    75
1070
     1
1070
    76
1070
     0
1070
    77
1070
     1
1070
    78
1070
     8
1070
   140
1040
15.590552
1070
   147
1040
0.0
1070
   173
1070
     1
1070
   176
1070
     4
1070
   177
1070
     4
1070
   178
1070
     7
1070
   271
1070
     1
1070
   277
1070
     2
1070
   279
1070
     2
1070
   280
1070
     0
1070
   287
1070
     5
1070
   340
1005
57F
1002
}
  0
DIMENSION
  5
5BF
330
1F
100
AcDbEntity
  8
LAY-20
  6
CONTINUOUS
 62
     4
100
AcDbDimension
  2
*D20
 10
1544.999999999969
 20
816.5000000001999
 30
0.0
 11
1459.999999999969
 21
829.0000000001999
 31
0.0
 70
   160
  3
ISO-25
100
AcDbAlignedDimension
 13
1374.99999999997
 23
1069.00000000013
 33
0.0
 14
1544.999999999969
 24
936.5000000001999
 34
0.0
100
AcDbRotatedDimension
1001
ACAD
1000
DSTYLE
1002
{
1070
   270
1070
     2
1070
     6
1000
EX_BNORM
1070
     7
1000
EX_BNORM
1070
    41
1040
12.5
1070
    42
1040
7.5
1070
    44
1040
7.5
1070
    73
1070
     0
1070
    74
1070
     0
1070
    75
1070
     0
1070
    76
1070
     0
1070
    77
1070
     1
1070
    78
1070
     8
1070
   140
1040
15.590552
1070
   147
1040
0.0
1070
   173
1070
     1
1070
   176
1070
     4
1070
   177
1070
     4
1070
   178
1070
     7
1070
   271
1070
     1
1070
   277
1070
     2
1070
   279
1070
     2
1070
   280
1070
     0
1070
   287
1070
     5
1070
   340
1005
57F
1002
}
  0
DIMENSION
  5
5CC
330
1F
100
AcDbEntity
  8
LAY-20
  6
CONTINUOUS
 62
     4
100
AcDbDimension
  2
*D21
 10
1374.99999999997
 20
851.5000000001999
 30
0.0
 11
1439.99999999997
 21
864.0000000001999
 31
0.0
 70
   160
  3
ISO-25
100
AcDbAlignedDimension
 13
1504.99999999997
 23
941.0000000001999
 33
0.0
 14
1374.99999999997
 24
851.5000000001999
 34
0.0
100
AcDbRotatedDimension
1001
ACAD
1000
DSTYLE
1002
{
1070
   270
1070
     2
1070
     6
1000
EX_BNORM
1070
     7
1000
EX_BNORM
1070
    41
1040
12.5
1070
    42
1040
7.5
1070
    44
1040
7.5
1070
    73
1070
     0
1070
    74
1070
     0
1070
    75
1070
     0
1070
    76
1070
     1
1070
    77
1070
     1
1070
    78
1070
     8
1070
   140
1040
15.590552
1070
   147
1040
0.0
1070
   173
1070
     1
1070
   176
1070
     4
1070
   177
1070
     4
1070
   178
1070
     7
1070
   271
1070
     1
1070
   277
1070
     2
1070
   279
1070
     2
1070
   280
1070
     0
1070
   287
1070
     5
1070
   340
1005
57F
1002
}
  0
DIMENSION
  5
5D8
330
1F
100
AcDbEntity
  8
LAY-20
  6
CONTINUOUS
 62
     4
100
AcDbDimension
  2
*D22
 10
1544.999999999969
 20
851.5000000001999
 30
0.0
 11
1524.999999999969
 21
864.0000000001999
 31
0.0
 70
   160
  3
ISO-25
100
AcDbAlignedDimension
 13
1504.99999999997
 23
851.5000000001999
 33
0.0
 14
1544.999999999969
 24
851.5000000001999
 34
0.0
100
AcDbRotatedDimension
1001
ACAD
1000
DSTYLE
1002
{
1070
   270
1070
     2
1070
     6
1000
EX_BNORM
1070
     7
1000
EX_BNORM
1070
    41
1040
12.5
1070
    42
1040
0.0
1070
    44
1040
0.0
1070
    73
1070
     0
1070
    74
1070
     0
1070
    75
1070
     1
1070
    76
1070
     1
1070
    77
1070
     1
1070
    78
1070
     8
1070
   140
1040
15.590552
1070
   147
1040
0.0
1070
   173
1070
     1
1070
   176
1070
     4
1070
   177
1070
     4
1070
   178
1070
     7
1070
   271
1070
     1
1070
   277
1070
     2
1070
   279
1070
     2
1070
   280
1070
     0
1070
   287
1070
     5
1070
   340
1005
57F
1002
}
  0
DIMENSION
  5
5E3
330
1F
100
AcDbEntity
  8
LAY-20
  6
CONTINUOUS
 62
     4
100
AcDbDimension
  2
*D23
 10
1374.99999999997
 20
886.5000000001999
 30
0.0
 11
1419.99999999997
 21
899.0000000001999
 31
0.0
 70
   160
  3
ISO-25
100
AcDbAlignedDimension
 13
1464.99999999997
 23
936.5000000001999
 33
0.0
 14
1374.99999999997
 24
886.5000000001999
 34
0.0
100
AcDbRotatedDimension
1001
ACAD
1000
DSTYLE
1002
{
1070
   270
1070
     2
1070
     6
1000
EX_BNORM
1070
     7
1000
EX_BNORM
1070
    41
1040
12.5
1070
    42
1040
7.5
1070
    44
1040
7.5
1070
    73
1070
     0
1070
    74
1070
     0
1070
    75
1070
     0
1070
    76
1070
     1
1070
    77
1070
     1
1070
    78
1070
     8
1070
   140
1040
15.590552
1070
   147
1040
0.0
1070
   173
1070
     1
1070
   176
1070
     4
1070
   177
1070
     4
1070
   178
1070
     7
1070
   271
1070
     1
1070
   277
1070
     2
1070
   279
1070
     2
1070
   280
1070
     0
1070
   287
1070
     5
1070
   340
1005
57F
1002
}
  0
DIMENSION
  5
5EF
330
1F
100
AcDbEntity
  8
LAY-20
  6
CONTINUOUS
 62
     4
100
AcDbDimension
  2
*D24
 10
1580.00000000012
 20
1126.0000000001
 30
0.0
 11
1567.50000000012
 21
1051.0000000001
 31
0.0
 70
   160
  1
溝幅<>
  3
ISO-25
100
AcDbAlignedDimension
 13
1505.00000000002
 23
976.0000000000997
 33
0.0
 14
1505.00000000002
 24
1126.0000000001
 34
0.0
 50
90.0
100
AcDbRotatedDimension
1001
ACAD
1000
DSTYLE
1002
{
1070
   270
1070
     2
1070
     6
1000
EX_BNORM
1070
     7
1000
EX_BNORM
1070
    41
1040
12.5
1070
    42
1040
7.5
1070
    44
1040
7.5
1070
    73
1070
     0
1070
    74
1070
     0
1070
    75
1070
     0
1070
    76
1070
     0
1070
    77
1070
     1
1070
    78
1070
     8
1070
   140
1040
15.590552
1070
   147
1040
0.0
1070
   173
1070
     1
1070
   176
1070
     4
1070
   177
1070
     4
1070
   178
1070
     7
1070
   271
1070
     1
1070
   277
1070
     2
1070
   279
1070
     2
1070
   280
1070
     0
1070
   287
1070
     5
1070
   340
1005
57F
1002
}
  0
DIMENSION
  5
5FC
330
1F
100
AcDbEntity
  8
LAY-20
  6
CONTINUOUS
 62
     4
100
AcDbDimension
  2
*D25
 10
1615.00000000002
 20
946.0000000000997
 30
0.0
 11
1602.50000000002
 21
1051.0000000001
 31
0.0
 70
   160
  3
ISO-25
100
AcDbAlignedDimension
 13
1615.00000000002
 23
1156.0000000001
 33
0.0
 14
1615.00000000002
 24
946.0000000000997
 34
0.0
 50
90.0
100
AcDbRotatedDimension
1001
ACAD
1000
DSTYLE
1002
{
1070
   270
1070
     2
1070
     6
1000
EX_BNORM
1070
     7
1000
EX_BNORM
1070
    41
1040
12.5
1070
    42
1040
0.0
1070
    44
1040
0.0
1070
    73
1070
     0
1070
    74
1070
     0
1070
    75
1070
     1
1070
    76
1070
     1
1070
    77
1070
     1
1070
    78
1070
     8
1070
   140
1040
15.590552
1070
   147
1040
0.0
1070
   173
1070
     1
1070
   176
1070
     4
1070
   177
1070
     4
1070
   178
1070
     7
1070
   271
1070
     1
1070
   277
1070
     2
1070
   279
1070
     2
1070
   280
1070
     0
1070
   287
1070
     5
1070
   340
1005
57F
1002
}
  0
DIMENSION
  5
607
330
1F
100
AcDbEntity
  8
LAY-20
  6
CONTINUOUS
 62
     4
100
AcDbDimension
  2
*D26
 10
1649.999999999969
 20
941.0000000001999
 30
0.0
 11
1637.499999999969
 21
1050.00000000015
 31
0.0
 70
   160
  3
ISO-25
100
AcDbAlignedDimension
 13
1544.999999999969
 23
1159.0000000001
 33
0.0
 14
1544.999999999969
 24
941.0000000001999
 34
0.0
 50
90.0
100
AcDbRotatedDimension
1001
ACAD
1000
DSTYLE
1002
{
1070
   270
1070
     2
1070
     6
1000
EX_BNORM
1070
     7
1000
EX_BNORM
1070
    41
1040
12.5
1070
    42
1040
7.5
1070
    44
1040
7.5
1070
    73
1070
     0
1070
    74
1070
     0
1070
    75
1070
     0
1070
    76
1070
     0
1070
    77
1070
     1
1070
    78
1070
     8
1070
   140
1040
15.590552
1070
   147
1040
0.0
1070
   173
1070
     1
1070
   176
1070
     4
1070
   177
1070
     4
1070
   178
1070
     7
1070
   271
1070
     1
1070
   277
1070
     2
1070
   279
1070
     2
1070
   280
1070
     0
1070
   287
1070
     5
1070
   340
1005
57F
1002
}
  0
DIMENSION
  5
614
330
1F
100
AcDbEntity
  8
LAY-20
  6
CONTINUOUS
 62
     4
100
AcDbDimension
  2
*D27
 10
1545.0
 20
1241.0000000001
 30
0.0
 11
1510.0
 21
1253.5000000001
 31
0.0
 70
   160
  3
ISO-25
100
AcDbAlignedDimension
 13
1475.0
 23
1162.0000000001
 33
0.0
 14
1545.0
 24
1162.0000000001
 34
0.0
100
AcDbRotatedDimension
1001
ACAD
1000
DSTYLE
1002
{
1070
   270
1070
     2
1070
     6
1000
EX_BNORM
1070
     7
1000
EX_BNORM
1070
    41
1040
12.5
1070
    42
1040
7.5
1070
    44
1040
7.5
1070
    73
1070
     0
1070
    74
1070
     0
1070
    75
1070
     0
1070
    76
1070
     0
1070
    77
1070
     1
1070
    78
1070
     8
1070
   140
1040
15.590552
1070
   147
1040
0.0
1070
   173
1070
     1
1070
   176
1070
     4
1070
   177
1070
     4
1070
   178
1070
     7
1070
   271
1070
     1
1070
   277
1070
     2
1070
   279
1070
     2
1070
   280
1070
     0
1070
   287
1070
     5
1070
   340
1005
57F
1002
}
  0
DIMENSION
  5
621
330
1F
100
AcDbEntity
  8
LAY-20
  6
CONTINUOUS
 62
     4
100
AcDbDimension
  2
*D28
 10
1475.0
 20
1241.0000000001
 30
0.0
 11
1425.0
 21
1253.5000000001
 31
0.0
 70
   160
  3
ISO-25
100
AcDbAlignedDimension
 13
1375.0
 23
1156.0000000001
 33
0.0
 14
1475.0
 24
1241.0000000001
 34
0.0
100
AcDbRotatedDimension
1001
ACAD
1000
DSTYLE
1002
{
1070
   270
1070
     2
1070
     6
1000
EX_BNORM
1070
     7
1000
EX_BNORM
1070
    41
1040
12.5
1070
    42
1040
7.5
1070
    44
1040
7.5
1070
    73
1070
     0
1070
    74
1070
     0
1070
    75
1070
     0
1070
    76
1070
     1
1070
    77
1070
     1
1070
    78
1070
     8
1070
   140
1040
15.590552
1070
   147
1040
0.0
1070
   173
1070
     1
1070
   176
1070
     4
1070
   177
1070
     4
1070
   178
1070
     7
1070
   271
1070
     1
1070
   277
1070
     2
1070
   279
1070
     2
1070
   280
1070
     0
1070
   287
1070
     5
1070
   340
1005
57F
1002
}
  0
DIMENSION
  5
62D
330
1F
100
AcDbEntity
  8
LAY-20
  6
CONTINUOUS
 62
     4
100
AcDbDimension
  2
*D29
 10
1545.0
 20
1206.0000000001
 30
0.0
 11
1525.0
 21
1218.5000000001
 31
0.0
 70
   160
  3
ISO-25
100
AcDbAlignedDimension
 13
1505.0
 23
1159.0000000001
 33
0.0
 14
1545.0
 24
1206.0000000001
 34
0.0
100
AcDbRotatedDimension
1001
ACAD
1000
DSTYLE
1002
{
1070
   270
1070
     2
1070
     6
1000
EX_BNORM
1070
     7
1000
EX_BNORM
1070
    41
1040
12.5
1070
    42
1040
7.5
1070
    44
1040
7.5
1070
    73
1070
     0
1070
    74
1070
     0
1070
    75
1070
     0
1070
    76
1070
     1
1070
    77
1070
     1
1070
    78
1070
     8
1070
   140
1040
15.590552
1070
   147
1040
0.0
1070
   173
1070
     1
1070
   176
1070
     4
1070
   177
1070
     4
1070
   178
1070
     7
1070
   271
1070
     1
1070
   277
1070
     2
1070
   279
1070
     2
1070
   280
1070
     0
1070
   287
1070
     5
1070
   340
1005
57F
1002
}
  0
DIMENSION
  5
639
330
1F
100
AcDbEntity
  8
LAY-20
  6
CONTINUOUS
 62
     4
100
AcDbDimension
  2
*D30
 10
1375.0
 20
1206.0000000001
 30
0.0
 11
1440.0
 21
1218.5000000001
 31
0.0
 70
   160
  3
ISO-25
100
AcDbAlignedDimension
 13
1505.0
 23
1206.0000000001
 33
0.0
 14
1375.0
 24
1206.0000000001
 34
0.0
100
AcDbRotatedDimension
1001
ACAD
1000
DSTYLE
1002
{
1070
   270
1070
     2
1070
     6
1000
EX_BNORM
1070
     7
1000
EX_BNORM
1070
    41
1040
12.5
1070
    42
1040
0.0
1070
    44
1040
0.0
1070
    73
1070
     0
1070
    74
1070
     0
1070
    75
1070
     1
1070
    76
1070
     1
1070
    77
1070
     1
1070
    78
1070
     8
1070
   140
1040
15.590552
1070
   147
1040
0.0
1070
   173
1070
     1
1070
   176
1070
     4
1070
   177
1070
     4
1070
   178
1070
     7
1070
   271
1070
     1
1070
   277
1070
     2
1070
   279
1070
     2
1070
   280
1070
     0
1070
   287
1070
     5
1070
   340
1005
57F
1002
}
  0
DIMENSION
  5
644
330
1F
100
AcDbEntity
  8
LAY-20
  6
CONTINUOUS
 62
     4
100
AcDbDimension
  2
*D31
 10
226.0000000000291
 20
1206.0000000001
 30
0.0
 11
725.0000000000045
 21
1218.5000000001
 31
0.0
 70
   160
  3
ISO-25
100
AcDbAlignedDimension
 13
1223.99999999998
 23
1149.499980369848
 33
0.0
 14
226.0000000000291
 24
1149.499980369848
 34
0.0
100
AcDbRotatedDimension
1001
ACAD
1000
DSTYLE
1002
{
1070
   270
1070
     2
1070
     6
1000
EX_BNORM
1070
     7
1000
EX_BNORM
1070
    41
1040
15.0
1070
    42
1040
7.5
1070
    44
1040
7.5
1070
    73
1070
     0
1070
    74
1070
     0
1070
    75
1070
     0
1070
    76
1070
     0
1070
    77
1070
     1
1070
    78
1070
     8
1070
   140
1040
15.590552
1070
   147
1040
0.0
1070
   173
1070
     1
1070
   176
1070
     4
1070
   177
1070
     4
1070
   178
1070
     7
1070
   271
1070
     1
1070
   277
1070
     2
1070
   279
1070
     2
1070
   280
1070
     0
1070
   287
1070
     5
1070
   340
1005
57F
1002
}
  0
DIMENSION
  5
651
330
1F
100
AcDbEntity
  8
LAY-20
  6
CONTINUOUS
 62
     4
100
AcDbDimension
  2
*D32
 10
1290.0
 20
1068.99741635567
 30
0.0
 11
1277.5
 21
1112.498708177885
 31
0.0
 70
   160
  3
ISO-25
100
AcDbAlignedDimension
 13
1375.0
 23
1156.0000000001
 33
0.0
 14
1375.0
 24
1068.99741635567
 34
0.0
 50
90.0
100
AcDbRotatedDimension
1001
ACAD
1000
DSTYLE
1002
{
1070
   270
1070
     2
1070
     6
1000
EX_BNORM
1070
     7
1000
EX_BNORM
1070
    41
1040
15.0
1070
    42
1040
7.5
1070
    44
1040
7.5
1070
    73
1070
     0
1070
    74
1070
     0
1070
    75
1070
     0
1070
    76
1070
     0
1070
    77
1070
     1
1070
    78
1070
     8
1070
   140
1040
15.590552
1070
   147
1040
0.0
1070
   173
1070
     1
1070
   176
1070
     4
1070
   177
1070
     4
1070
   178
1070
     7
1070
   271
1070
     1
1070
   277
1070
     2
1070
   279
1070
     2
1070
   280
1070
     0
1070
   287
1070
     5
1070
   340
1005
57F
1002
}
  0
DIMENSION
  5
65E
330
1F
100
AcDbEntity
  8
LAY-20
  6
CONTINUOUS
 62
     4
100
AcDbDimension
  2
*D33
 10
1325.0
 20
1075.49741635567
 30
0.0
 11
1312.5
 21
1112.498708177885
 31
0.0
 70
   160
  3
ISO-25
100
AcDbAlignedDimension
 13
1380.0000560688
 23
1149.5000000001
 33
0.0
 14
1380.0000560688
 24
1075.49741635567
 34
0.0
 50
90.0
100
AcDbRotatedDimension
1001
ACAD
1000
DSTYLE
1002
{
1070
   270
1070
     2
1070
     6
1000
EX_BNORM
1070
     7
1000
EX_BNORM
1070
    41
1040
15.0
1070
    42
1040
7.5
1070
    44
1040
7.5
1070
    73
1070
     0
1070
    74
1070
     0
1070
    75
1070
     0
1070
    76
1070
     0
1070
    77
1070
     1
1070
    78
1070
     8
1070
   140
1040
15.590552
1070
   147
1040
0.0
1070
   173
1070
     1
1070
   176
1070
     4
1070
   177
1070
     4
1070
   178
1070
     7
1070
   271
1070
     1
1070
   277
1070
     2
1070
   279
1070
     2
1070
   280
1070
     0
1070
   287
1070
     5
1070
   340
1005
57F
1002
}
  0
LINE
  5
66B
330
1F
100
AcDbEntity
  8
LAY-255
  6
CONTINUOUS
 62
     7
100
AcDbLine
 10
1925.0
 20
110.0
 30
0.0
 11
1425.0
 21
110.0
 31
0.0
  0
LINE
  5
66C
330
1F
100
AcDbEntity
  8
LAY-255
  6
CONTINUOUS
 62
     7
100
AcDbLine
 10
1444.0
 20
79.99999999999999
 30
0.0
 11
1484.0
 21
105.0
 31
0.0
  0
LINE
  5
66D
330
1F
100
AcDbEntity
  8
LAY-255
  6
CONTINUOUS
 62
     7
100
AcDbLine
 10
1484.0
 20
105.0
 30
0.0
 11
1524.0
 21
79.99999999999999
 31
0.0
  0
LINE
  5
66E
330
1F
100
AcDbEntity
  8
LAY-255
  6
CONTINUOUS
 62
     7
100
AcDbLine
 10
1524.0
 20
79.99999999999999
 30
0.0
 11
1484.0
 21
55.0
 31
0.0
  0
LINE
  5
66F
330
1F
100
AcDbEntity
  8
LAY-255
  6
CONTINUOUS
 62
     7
100
AcDbLine
 10
1484.0
 20
55.0
 30
0.0
 11
1444.0
 21
79.99999999999999
 31
0.0
  0
LINE
  5
670
330
1F
100
AcDbEntity
  8
LAY-255
  6
CONTINUOUS
 62
     7
100
AcDbLine
 10
25.0
 20
50.0
 30
0.0
 11
1925.0
 21
50.0
 31
0.0
  0
LINE
  5
671
330
1F
100
AcDbEntity
  8
LAY-255
  6
CONTINUOUS
 62
     7
100
AcDbLine
 10
25.0
 20
1400.0
 30
0.0
 11
1925.0
 21
1400.0
 31
0.0
  0
LINE
  5
672
330
1F
100
AcDbEntity
  8
LAY-255
  6
CONTINUOUS
 62
     7
100
AcDbLine
 10
25.0
 20
50.0
 30
0.0
 11
25.0
 21
1400.0
 31
0.0
  0
LINE
  5
673
330
1F
100
AcDbEntity
  8
LAY-255
  6
CONTINUOUS
 62
     4
100
AcDbLine
 10
1425.0
 20
140.0
 30
0.0
 11
1925.0
 21
140.0
 31
0.0
  0
LINE
  5
674
330
1F
100
AcDbEntity
  8
LAY-255
  6
CONTINUOUS
 62
     4
100
AcDbLine
 10
1675.0
 20
140.0
 30
0.0
 11
1675.0
 21
110.0
 31
0.0
  0
POINT
  5
675
330
1F
100
AcDbEntity
  8
LAY-255
  6
CONTINUOUS
 62
     7
100
AcDbPoint
 10
1445.0
 20
275.0000000000003
 30
0.0
  0
POINT
  5
676
330
1F
100
AcDbEntity
  8
LAY-255
  6
CONTINUOUS
 62
     7
100
AcDbPoint
 10
1445.0
 20
225.0000000000002
 30
0.0
  0
POINT
  5
677
330
1F
100
AcDbEntity
  8
LAY-255
  6
CONTINUOUS
 62
     7
100
AcDbPoint
 10
1445.0
 20
250.0000000000002
 30
0.0
  0
POINT
  5
678
330
1F
100
AcDbEntity
  8
LAY-255
  6
CONTINUOUS
 62
     7
100
AcDbPoint
 10
1445.0
 20
200.0000000000002
 30
0.0
  0
POINT
  5
679
330
1F
100
AcDbEntity
  8
LAY-255
  6
CONTINUOUS
 62
     7
100
AcDbPoint
 10
1445.0
 20
175.0000000000001
 30
0.0
  0
POINT
  5
67A
330
1F
100
AcDbEntity
  8
LAY-255
  6
CONTINUOUS
 62
     7
100
AcDbPoint
 10
1445.0
 20
150.0000000000001
 30
0.0
  0
LINE
  5
67B
330
1F
100
AcDbEntity
  8
LAY-255
  6
CONTINUOUS
 62
     7
100
AcDbLine
 10
1925.0
 20
50.0
 30
0.0
 11
1925.0
 21
1400.0
 31
0.0
  0
LINE
  5
67C
330
1F
100
AcDbEntity
  8
LAY-255
  6
CONTINUOUS
 62
     7
100
AcDbLine
 10
1425.0
 20
50.0
 30
0.0
 11
1425.0
 21
385.0000000000003
 31
0.0
  0
LINE
  5
67D
330
1F
100
AcDbEntity
  8
LAY-255
  6
CONTINUOUS
 62
     7
100
AcDbLine
 10
1925.0
 20
385.0000000000003
 30
0.0
 11
1425.0
 21
385.0000000000003
 31
0.0
  0
LINE
  5
67E
330
1F
100
AcDbEntity
  8
LAY-255
  6
CONTINUOUS
 62
     4
100
AcDbLine
 10
1915.0
 20
325.0000000000003
 30
0.0
 11
1435.0
 21
325.0000000000003
 31
0.0
  0
LINE
  5
67F
330
1F
100
AcDbEntity
  8
LAY-255
  6
CONTINUOUS
 62
     4
100
AcDbLine
 10
1915.0
 20
355.0000000000003
 30
0.0
 11
1435.0
 21
355.0000000000003
 31
0.0
  0
POINT
  5
680
330
1F
100
AcDbEntity
  8
LAY-255
  6
CONTINUOUS
 62
     7
100
AcDbPoint
 10
1500.0
 20
330.0000000000003
 30
0.0
  0
POINT
  5
681
330
1F
100
AcDbEntity
  8
LAY-255
  6
CONTINUOUS
 62
     7
100
AcDbPoint
 10
1500.0
 20
360.0000000000003
 30
0.0
  0
POINT
  5
682
330
1F
100
AcDbEntity
  8
LAY-255
  6
CONTINUOUS
 62
     7
100
AcDbPoint
 10
1445.0
 20
300.0000000000003
 30
0.0
  0
TEXT
  5
683
330
1F
100
AcDbEntity
  8
LAY-255
  6
CONTINUOUS
 62
     7
100
AcDbText
 10
1540.691894370117
 20
77.71874999999999
 30
0.0
 40
25.78125
  1
福西鋳物株式会社
 41
1.342691871783662
  7
EXCADSTD
100
AcDbText
  0
TEXT
  5
684
330
1F
100
AcDbEntity
  8
LAY-255
  6
CONTINUOUS
 62
     7
100
AcDbText
 10
1542.546875
 20
59.90624999999999
 30
0.0
 40
8.59375
  1
ＦＵＫＵＮＩＳＨＩ
 41
1.204799226045263
  7
EXCADSTD
100
AcDbText
  0
TEXT
  5
685
330
1F
100
AcDbEntity
  8
LAY-255
  6
CONTINUOUS
 62
     7
100
AcDbText
 10
1663.595982142857
 20
59.90624999999999
 30
0.0
 40
8.59375
  1
ＦＯＵＮＤＲＹ
 41
1.243252752978497
  7
EXCADSTD
100
AcDbText
  0
TEXT
  5
686
330
1F
100
AcDbEntity
  8
LAY-255
  6
CONTINUOUS
 62
     7
100
AcDbText
 10
1759.97295734375
 20
59.90624999999999
 30
0.0
 40
8.59375
  1
ＣＯ.,ＬＴＤ.
 41
1.243831100341625
  7
EXCADSTD
100
AcDbText
  0
TEXT
  5
687
330
1F
100
AcDbEntity
  8
LAY-255
  6
CONTINUOUS
 62
     7
100
AcDbText
 10
1470.171875
 20
68.59375
 30
0.0
 40
25.78125
  1
S
 41
0.7582677563636363
  7
EXCADSTD
100
AcDbText
  0
TEXT
  5
688
330
1F
100
AcDbEntity
  8
LAY-255
  6
CONTINUOUS
 62
     7
100
AcDbText
 10
1485.5234375
 20
68.7470518868
 30
0.0
 40
25.78125
  1
F
 41
0.7440945272727272
  7
EXCADSTD
100
AcDbText
  0
TEXT
  5
689
330
1F
100
AcDbEntity
  8
LAY-255
  6
CONTINUOUS
 62
     7
100
AcDbText
 10
1685.52734375
 20
122.1093749999999
 30
0.0
 40
12.890625
  1
縮尺
 41
1.080708718181818
  7
EXCADSTD
100
AcDbText
  0
TEXT
  5
68A
330
1F
100
AcDbEntity
  8
LAY-255
  6
CONTINUOUS
 62
     7
100
AcDbText
 10
1435.76171875
 20
122.1093749999999
 30
0.0
 40
12.890625
  1
作成日
 41
1.000629973818182
  7
EXCADSTD
100
AcDbText
  0
TEXT
  5
68B
330
1F
100
AcDbEntity
  8
LAY-255
  6
CONTINUOUS
 62
     7
100
AcDbText
 10
1728.40625
 20
117.8124999999999
 30
0.0
 40
17.1875
  1
１：５,１：１
 41
0.8819559783040489
  7
EXCADSTD
100
AcDbText
  0
TEXT
  5
68C
330
1F
100
AcDbEntity
  8
LAY-255
  6
CONTINUOUS
 62
     7
100
AcDbText
 10
1445.703125
 20
252.8125000000003
 30
0.0
 40
17.1875
  1
構造：ガタツキ防止式
 41
1.019908786570248
  7
EXCADSTD
100
AcDbText
  0
TEXT
  5
68D
330
1F
100
AcDbEntity
  8
LAY-255
  6
CONTINUOUS
 62
     7
100
AcDbText
 10
1446.5625
 20
227.8125000000002
 30
0.0
 40
17.1875
  1
スキマ：６
 41
0.9896539615221989
  7
EXCADSTD
100
AcDbText
  0
TEXT
  5
68E
330
1F
100
AcDbEntity
  8
LAY-255
  6
CONTINUOUS
 62
     7
100
AcDbText
 10
1446.171875
 20
202.8125
 30
0.0
 40
17.1875
  1
表面：すべり止めクリスタル模様
 41
1.015836889542037
  7
EXCADSTD
100
AcDbText
  0
TEXT
  5
68F
330
1F
100
AcDbEntity
  8
LAY-255
  6
CONTINUOUS
 62
     7
100
AcDbText
 10
1446.171875
 20
277.8125000000003
 30
0.0
 40
17.1875
  1
用途：Ｕ形側溝用
 41
1.014398253506493
  7
EXCADSTD
100
AcDbText
  0
TEXT
  5
690
330
1F
100
AcDbEntity
  8
LAY-255
  6
CONTINUOUS
 62
     7
100
AcDbText
 10
1436.328125
 20
332.8125000000003
 30
0.0
 40
17.1875
  1
型式
 41
1.056348480681818
  7
EXCADSTD
100
AcDbText
  0
TEXT
  5
691
330
1F
100
AcDbEntity
  8
LAY-255
  6
CONTINUOUS
 62
     7
100
AcDbText
 10
1437.109375
 20
362.8125000000003
 30
0.0
 40
17.1875
  1
品名
 41
0.9788386340909091
  7
EXCADSTD
100
AcDbText
  0
TEXT
  5
692
330
1F
100
AcDbEntity
  8
LAY-255
  6
CONTINUOUS
 62
     7
100
AcDbText
 10
1501.015625
 20
362.8125000000003
 30
0.0
 40
17.1875
  1
鋳鉄製ライナー側溝グレーチング
 41
1.017435374025974
  7
EXCADSTD
100
AcDbText
  0
TEXT
  5
693
330
1F
100
AcDbEntity
  8
LAY-255
  6
CONTINUOUS
 62
     7
100
AcDbText
 10
1446.015625
 20
302.8125000000003
 30
0.0
 40
17.1875
  1
適用溝幅：１５０用
 41
1.014552031760644
  7
EXCADSTD
100
AcDbText
  0
TEXT
  5
694
330
1F
100
AcDbEntity
  8
LAY-255
  6
CONTINUOUS
 62
     7
100
AcDbText
 10
1446.875
 20
177.8124999999999
 30
0.0
 40
17.1875
  1
受枠：スチール（溶融亜鉛めっき）
 41
0.9724132705505761
  7
EXCADSTD
100
AcDbText
  0
TEXT
  5
695
330
1F
100
AcDbEntity
  8
LAY-255
  6
CONTINUOUS
 62
     7
100
AcDbText
 10
1505.625
 20
332.8125000000003
 30
0.0
 40
17.1875
  1
Ｆ２０Ｌ－１５ＺＵＣ－Ｔ型
 41
0.9973639688537548
  7
EXCADSTD
100
AcDbText
  0
TEXT
  5
696
330
1F
100
AcDbEntity
  8
LAY-255
  6
CONTINUOUS
 62
     7
100
AcDbText
 10
1506.40625
 20
117.8124999999999
 30
0.0
 40
17.1875
  1
１９／１１／１２
 41
0.9652981384415584
  7
EXCADSTD
100
AcDbText
  0
TEXT
  5
697
330
1F
100
AcDbEntity
  8
LAY-255
  6
CONTINUOUS
 62
     7
100
AcDbText
 10
1446.015625
 20
152.8124999999999
 30
0.0
 40
17.1875
  1
適用荷重：Ｔ－１４（レベルＤ）
 41
0.9729442225563909
  7
EXCADSTD
100
AcDbText
  0
ENDSEC
  0
SECTION
  2
OBJECTS
  0
DICTIONARY
  5
C
330
0
100
AcDbDictionary
  3
ACAD_GROUP
350
D
  3
ACAD_LAYOUT
350
1A
  3
ACAD_MATERIAL
350
43
  3
ACAD_MLEADERSTYLE
350
6B
  3
ACAD_MLINESTYLE
350
17
  3
ACAD_PLOTSETTINGS
350
19
  3
ACAD_SCALELIST
350
47
  3
ACAD_VISUALSTYLE
350
2A
  3
ACDBHEADERROUNDTRIPXREC
350
698
  3
ACDBVARIABLEDICTIONARY
350
6B9
  0
DICTIONARY
  5
6C4
330
8
100
AcDbDictionary
280
     1
  3
ACAD_XREC_ROUNDTRIP
360
6C5
  0
DICTIONARY
  5
D
102
{ACAD_REACTORS
330
C
102
}
330
C
100
AcDbDictionary
  0
DICTIONARY
  5
1A
102
{ACAD_REACTORS
330
C
102
}
330
C
100
AcDbDictionary
  0
DICTIONARY
  5
43
102
{ACAD_REACTORS
330
C
102
}
330
C
100
AcDbDictionary
  3
BYBLOCK
350
45
  3
BYLAYER
350
44
  3
GLOBAL
350
46
  0
DICTIONARY
  5
6B
102
{ACAD_REACTORS
330
C
102
}
330
C
100
AcDbDictionary
  3
STANDARD
350
6C
  0
DICTIONARY
  5
17
102
{ACAD_REACTORS
330
C
102
}
330
C
100
AcDbDictionary
  3
STANDARD
350
18
  0
DICTIONARY
  5
19
102
{ACAD_REACTORS
330
C
102
}
330
C
100
AcDbDictionary
  0
DICTIONARY
  5
47
102
{ACAD_REACTORS
330
C
102
}
330
C
100
AcDbDictionary
  3
A0
350
48
  3
A1
350
49
  3
A2
350
4A
  3
A3
350
4B
  3
A4
350
4C
  3
A5
350
4D
  3
A6
350
4E
  3
A7
350
4F
  3
A8
350
50
  3
A9
350
51
  3
B0
350
52
  3
B1
350
53
  3
B2
350
54
  3
B3
350
55
  3
B4
350
56
  3
B5
350
57
  3
B6
350
58
  3
B7
350
59
  3
B8
350
5A
  3
B9
350
5B
  3
C0
350
5C
  3
C1
350
5D
  3
C2
350
5E
  3
C3
350
5F
  3
C4
350
60
  3
C5
350
61
  3
C6
350
62
  3
C7
350
63
  3
C8
350
64
  3
C9
350
65
  3
D0
350
66
  3
D1
350
67
  3
D2
350
68
  0
DICTIONARY
  5
2A
102
{ACAD_REACTORS
330
C
102
}
330
C
100
AcDbDictionary
  3
2DWIREFRAME
350
2F
  3
BASIC
350
32
  3
BRIGHTEN
350
36
  3
COLORCHANGE
350
3A
  3
CONCEPTUAL
350
34
  3
DIM
350
35
  3
EDGECOLOROFF
350
3D
  3
FACEPATTERN
350
39
  3
FLAT
350
2B
  3
FLATWITHEDGES
350
2C
  3
GOURAUD
350
2D
  3
GOURAUDWITHEDGES
350
2E
  3
HIDDEN
350
31
  3
JITTEROFF
350
3B
  3
LINEPATTERN
350
38
  3
OVERHANGOFF
350
3C
  3
REALISTIC
350
33
  3
SHADED
350
42
  3
SHADED_WITH_EDGES
350
41
  3
SHADES_OF_GRAY
350
3E
  3
SKETCHY
350
3F
  3
THICKEN
350
37
  3
WIREFRAME
350
30
  3
X-RAY
350
40
  0
DICTIONARY
  5
698
102
{ACAD_REACTORS
330
C
102
}
330
C
100
AcDbDictionary
  3
CEPSNID
350
6A2
  3
CEPSNTYPE
350
6A1
  3
DIMSTYLEDATA
350
6B8
  3
FINGERPRINTGUID
350
6A3
  3
HYPERLINKBASE
350
69B
  3
INSUNITS
350
6A0
  3
LAYOUTDICT
350
69D
  3
LWETCUNION
350
69F
  3
PLOTSETDICT
350
69E
  3
PSVPSCALE
350
6A5
  3
PUCSBASE
350
6A8
  3
PUCSORGBACK
350
6AE
  3
PUCSORGBOTTOM
350
6AA
  3
PUCSORGFRONT
350
6AD
  3
PUCSORGLEFT
350
6AB
  3
PUCSORGRIGHT
350
6AC
  3
PUCSORGTOP
350
6A9
  3
PUCSORTHOREF
350
6A6
  3
PUCSORTHOVIEW
350
6A7
  3
STYLESHEET
350
69C
  3
TSTACKALIGN
350
699
  3
TSTACKSIZE
350
69A
  3
UCSBASE
350
6B1
  3
UCSORGBACK
350
6B7
  3
UCSORGBOTTOM
350
6B3
  3
UCSORGFRONT
350
6B6
  3
UCSORGLEFT
350
6B4
  3
UCSORGRIGHT
350
6B5
  3
UCSORGTOP
350
6B2
  3
UCSORTHOREF
350
6AF
  3
UCSORTHOVIEW
350
6B0
  3
VERSIONGUID
350
6A4
  0
DICTIONARY
  5
6B9
102
{ACAD_REACTORS
330
C
102
}
330
C
100
AcDbDictionary
  3
CANNOSCALE
350
6C6
  3
CENTEREXE
350
6C0
  3
CENTERLTYPEFILE
350
6C1
  3
CMLEADERSTYLE
350
6BB
  3
CTABLESTYLE
350
6BA
  3
DIMASSOC
350
6C2
  3
HIDETEXT
350
6C3
  3
MSLTSCALE
350
6C7
  3
PSOLHEIGHT
350
6BD
  3
PSOLWIDTH
350
6BC
  0
XRECORD
  5
6C5
102
{ACAD_REACTORS
330
6C4
102
}
330
6C4
100
AcDbXrecord
102
VTR_0.000_0.000_1.000_1.000_VISUALSTYLE
340
2F
102
VTR_0.000_0.000_1.000_1.000_GRIDDISPLAY
 70
     3
102
VTR_0.000_0.000_1.000_1.000_GRIDMAJOR
 70
     5
102
VTR_0.000_0.000_1.000_1.000_DEFAULTLIGHTING
280
     1
102
VTR_0.000_0.000_1.000_1.000_DEFAULTLIGHTINGTYPE
 70
     1
102
VTR_0.000_0.000_1.000_1.000_BRIGHTNESS
141
0.0
102
VTR_0.000_0.000_1.000_1.000_CONTRAST
142
0.0
  0
MATERIAL
  5
45
102
{ACAD_REACTORS
330
43
102
}
102
{ACAD_XDICTIONARY
360
6CA
102
}
330
43
100
AcDbMaterial
  1
BYBLOCK
  0
MATERIAL
  5
44
102
{ACAD_REACTORS
330
43
102
}
102
{ACAD_XDICTIONARY
360
6C8
102
}
330
43
100
AcDbMaterial
  1
BYLAYER
  0
MATERIAL
  5
46
102
{ACAD_REACTORS
330
43
102
}
102
{ACAD_XDICTIONARY
360
6CC
102
}
330
43
100
AcDbMaterial
  1
GLOBAL
  0
ACAD_PROXY_OBJECT
  5
6C
102
{ACAD_REACTORS
330
6B
102
}
330
6B
100
AcDbProxyObject
 90
      499
 91
      505
 93
      610
310
40901902A4063FBFFFFFE0000000000000020400000000000020404214DD185B99185C990000000000000104090141901A00000000000004100000000000000041025764000000000000039000
340
14
340
0
340
11
340
0
 94
        0
1001
ACAD_MLEADERVER
1070
     2
  0
MLINESTYLE
  5
18
102
{ACAD_REACTORS
330
17
102
}
330
17
100
AcDbMlineStyle
  2
Standard
 70
     0
  3

 62
   256
 51
90.0
 52
90.0
 71
     2
 49
0.5
 62
   256
  6
BYLAYER
 49
-0.5
 62
   256
  6
BYLAYER
  0
ACAD_PROXY_OBJECT
  5
48
102
{ACAD_REACTORS
330
47
102
}
330
47
100
AcDbProxyObject
 90
      499
 91
      503
 93
       41
310
903313A31580
  0
ACAD_PROXY_OBJECT
  5
49
102
{ACAD_REACTORS
330
47
102
}
330
47
100
AcDbProxyObject
 90
      499
 91
      503
 93
      105
310
903313A324000000000000004000
  0
ACAD_PROXY_OBJECT
  5
4A
102
{ACAD_REACTORS
330
47
102
}
330
47
100
AcDbProxyObject
 90
      499
 91
      503
 93
      105
310
903313A344000000000000104000
  0
ACAD_PROXY_OBJECT
  5
4B
102
{ACAD_REACTORS
330
47
102
}
330
47
100
AcDbProxyObject
 90
      499
 91
      503
 93
      105
310
903313A354000000000000144000
  0
ACAD_PROXY_OBJECT
  5
4C
102
{ACAD_REACTORS
330
47
102
}
330
47
100
AcDbProxyObject
 90
      499
 91
      503
 93
      105
310
903313A384000000000000204000
  0
ACAD_PROXY_OBJECT
  5
4D
102
{ACAD_REACTORS
330
47
102
}
330
47
100
AcDbProxyObject
 90
      499
 91
      503
 93
      113
310
904313A31304000000000000244000
  0
ACAD_PROXY_OBJECT
  5
4E
102
{ACAD_REACTORS
330
47
102
}
330
47
100
AcDbProxyObject
 90
      499
 91
      503
 93
      113
310
904313A31364000000000000304000
  0
ACAD_PROXY_OBJECT
  5
4F
102
{ACAD_REACTORS
330
47
102
}
330
47
100
AcDbProxyObject
 90
      499
 91
      503
 93
      113
310
904313A32304000000000000344000
  0
ACAD_PROXY_OBJECT
  5
50
102
{ACAD_REACTORS
330
47
102
}
330
47
100
AcDbProxyObject
 90
      499
 91
      503
 93
      113
310
904313A333040000000000003E4000
  0
ACAD_PROXY_OBJECT
  5
51
102
{ACAD_REACTORS
330
47
102
}
330
47
100
AcDbProxyObject
 90
      499
 91
      503
 93
      113
310
904313A34304000000000000444000
  0
ACAD_PROXY_OBJECT
  5
52
102
{ACAD_REACTORS
330
47
102
}
330
47
100
AcDbProxyObject
 90
      499
 91
      503
 93
      113
310
904313A35304000000000000494000
  0
ACAD_PROXY_OBJECT
  5
53
102
{ACAD_REACTORS
330
47
102
}
330
47
100
AcDbProxyObject
 90
      499
 91
      503
 93
      121
310
905313A3130304000000000000594000
  0
ACAD_PROXY_OBJECT
  5
54
102
{ACAD_REACTORS
330
47
102
}
330
47
100
AcDbProxyObject
 90
      499
 91
      503
 93
      105
310
903323A310000000000000010100
  0
ACAD_PROXY_OBJECT
  5
55
102
{ACAD_REACTORS
330
47
102
}
330
47
100
AcDbProxyObject
 90
      499
 91
      503
 93
      105
310
903343A310000000000000410100
  0
ACAD_PROXY_OBJECT
  5
56
102
{ACAD_REACTORS
330
47
102
}
330
47
100
AcDbProxyObject
 90
      499
 91
      503
 93
      105
310
903383A310000000000000810100
  0
ACAD_PROXY_OBJECT
  5
57
102
{ACAD_REACTORS
330
47
102
}
330
47
100
AcDbProxyObject
 90
      499
 91
      503
 93
      113
310
90431303A310000000000000910100
  0
ACAD_PROXY_OBJECT
  5
58
102
{ACAD_REACTORS
330
47
102
}
330
47
100
AcDbProxyObject
 90
      499
 91
      503
 93
      121
310
9053130303A310000000000001650100
  0
ACAD_PROXY_OBJECT
  5
59
102
{ACAD_REACTORS
330
47
102
}
330
47
100
AcDbProxyObject
 90
      499
 91
      503
 93
      257
310
90E312F31323822203D2031272D3022000000000000200FC000000000000284000
  0
ACAD_PROXY_OBJECT
  5
5A
102
{ACAD_REACTORS
330
47
102
}
330
47
100
AcDbProxyObject
 90
      499
 91
      503
 93
      249
310
90D312F363422203D2031272D3022000000000000240FC000000000000284000
  0
ACAD_PROXY_OBJECT
  5
5B
102
{ACAD_REACTORS
330
47
102
}
330
47
100
AcDbProxyObject
 90
      499
 91
      503
 93
      249
310
90D312F333222203D2031272D3022000000000000280FC000000000000284000
  0
ACAD_PROXY_OBJECT
  5
5C
102
{ACAD_REACTORS
330
47
102
}
330
47
100
AcDbProxyObject
 90
      499
 91
      503
 93
      249
310
90D312F313622203D2031272D30220000000000002C0FC000000000000284000
  0
ACAD_PROXY_OBJECT
  5
5D
102
{ACAD_REACTORS
330
47
102
}
330
47
100
AcDbProxyObject
 90
      499
 91
      503
 93
      249
310
90D332F333222203D2031272D30220000000000002E0FC000000000000284000
  0
ACAD_PROXY_OBJECT
  5
5E
102
{ACAD_REACTORS
330
47
102
}
330
47
100
AcDbProxyObject
 90
      499
 91
      503
 93
      241
310
90C312F3822203D2031272D3022000000000000300FC000000000000284000
  0
ACAD_PROXY_OBJECT
  5
5F
102
{ACAD_REACTORS
330
47
102
}
330
47
100
AcDbProxyObject
 90
      499
 91
      503
 93
      249
310
90D332F313622203D2031272D3022000000000000320FC000000000000284000
  0
ACAD_PROXY_OBJECT
  5
60
102
{ACAD_REACTORS
330
47
102
}
330
47
100
AcDbProxyObject
 90
      499
 91
      503
 93
      241
310
90C312F3422203D2031272D3022000000000000340FC000000000000284000
  0
ACAD_PROXY_OBJECT
  5
61
102
{ACAD_REACTORS
330
47
102
}
330
47
100
AcDbProxyObject
 90
      499
 91
      503
 93
      241
310
90C332F3822203D2031272D3022000000000000360FC000000000000284000
  0
ACAD_PROXY_OBJECT
  5
62
102
{ACAD_REACTORS
330
47
102
}
330
47
100
AcDbProxyObject
 90
      499
 91
      503
 93
      241
310
90C312F3222203D2031272D3022000000000000380FC000000000000284000
  0
ACAD_PROXY_OBJECT
  5
63
102
{ACAD_REACTORS
330
47
102
}
330
47
100
AcDbProxyObject
 90
      499
 91
      503
 93
      241
310
90C332F3422203D2031272D30220000000000003A0FC000000000000284000
  0
ACAD_PROXY_OBJECT
  5
64
102
{ACAD_REACTORS
330
47
102
}
330
47
100
AcDbProxyObject
 90
      499
 91
      503
 93
      161
310
90A3122203D2031272D30224000000000000284000
  0
ACAD_PROXY_OBJECT
  5
65
102
{ACAD_REACTORS
330
47
102
}
330
47
100
AcDbProxyObject
 90
      499
 91
      503
 93
      257
310
90E312D312F3222203D2031272D30220000000000003E0FC000000000000284000
  0
ACAD_PROXY_OBJECT
  5
66
102
{ACAD_REACTORS
330
47
102
}
330
47
100
AcDbProxyObject
 90
      499
 91
      503
 93
      225
310
90A3322203D2031272D302200000000000002100000000000000284000
  0
ACAD_PROXY_OBJECT
  5
67
102
{ACAD_REACTORS
330
47
102
}
330
47
100
AcDbProxyObject
 90
      499
 91
      503
 93
      225
310
90A3622203D2031272D302200000000000006100000000000000284000
  0
ACAD_PROXY_OBJECT
  5
68
102
{ACAD_REACTORS
330
47
102
}
330
47
100
AcDbProxyObject
 90
      499
 91
      503
 93
      249
310
90D31272D3022203D2031272D30220000000000000A100000000000000284000
  0
ACAD_PROXY_OBJECT
  5
2F
102
{ACAD_REACTORS
330
2A
102
}
330
2A
100
AcDbProxyObject
 90
      499
 91
      501
 93
      436
310
42CC9915DA5C99599C985B595049028333333333333E33F0000000000000F90107901411070040501600405405064090741402480A0340
1001
ACAD
1000
AcDbSavedByObjectVersion
1070
     0
  0
ACAD_PROXY_OBJECT
  5
32
102
{ACAD_REACTORS
330
2A
102
}
330
2A
100
AcDbProxyObject
 90
      499
 91
      501
 93
      388
310
4150985CDA58D07406404333333333333E33F0000000000000F90107A41107004050150841D405064090741402480A0350
1001
ACAD
1000
AcDbSavedByObjectVersion
1070
     0
  0
ACAD_PROXY_OBJECT
  5
36
102
{ACAD_REACTORS
330
2A
102
}
330
2A
100
AcDbProxyObject
 90
      499
 91
      501
 93
      428
310
42109C9A59DA1D195B90C409028333333333333E33F0000000000000F9010790141107004050150841D405064090741402480A029950
1001
ACAD
1000
AcDbSavedByObjectVersion
1070
     0
  0
ACAD_PROXY_OBJECT
  5
3A
102
{ACAD_REACTORS
330
2A
102
}
330
2A
100
AcDbProxyObject
 90
      499
 91
      501
 93
      452
310
42D0DBDB1BDC90DA185B99D95104090240C333333333333E33F0000000000000F90108901411070040501508421405064090741402480A0350
1001
ACAD
1000
AcDbSavedByObjectVersion
1070
     0
  0
ACAD_PROXY_OBJECT
  5
34
102
{ACAD_REACTORS
330
2A
102
}
330
2A
100
AcDbProxyObject
 90
      499
 91
      501
 93
      500
310
4290DBDB98D95C1D1D585B10940D028333333333333E33F0000000000000F90107902409070040501000000000018199010841D405064090740C02480A0340
1001
ACAD
1000
AcDbSavedByObjectVersion
1070
     0
  0
ACAD_PROXY_OBJECT
  5
35
102
{ACAD_REACTORS
330
2A
102
}
330
2A
100
AcDbProxyObject
 90
      499
 91
      501
 93
      412
310
40D11A5B50B409028333333333333E33F0000000000000F9010790141107004050150841D405064090741402480A02677FFFFFD0
1001
ACAD
1000
AcDbSavedByObjectVersion
1070
     0
  0
ACAD_PROXY_OBJECT
  5
3D
102
{ACAD_REACTORS
330
2A
102
}
330
2A
100
AcDbProxyObject
 90
      499
 91
      501
 93
      452
310
43115919D950DBDB1BDC93D999916409028333333333333E33F0000000000000F9010790141107004050150841D405064090741402480A0350
1001
ACAD
1000
AcDbSavedByObjectVersion
1070
     0
  0
ACAD_PROXY_OBJECT
  5
39
102
{ACAD_REACTORS
330
2A
102
}
330
2A
100
AcDbProxyObject
 90
      499
 91
      501
 93
      444
310
42D19858D95C185D1D195C9B90F409028333333333333E33F0000000000000F9010790141107004050150841D405064090741402480A0350
1001
ACAD
1000
AcDbSavedByObjectVersion
1070
     0
  0
ACAD_PROXY_OBJECT
  5
2B
102
{ACAD_REACTORS
330
2A
102
}
330
2A
100
AcDbProxyObject
 90
      499
 91
      501
 93
      380
310
41119B185D240901404333333333333E33F0000000000000F9010740A907004050150841D405064090741402480A1B50
1001
ACAD
1000
AcDbSavedByObjectVersion
1070
     0
  0
ACAD_PROXY_OBJECT
  5
2C
102
{ACAD_REACTORS
330
2A
102
}
330
2A
100
AcDbProxyObject
 90
      499
 91
      501
 93
      468
310
43519B185D15DA5D1A115919D95CD0140901404333333333333E33F0000000000000F90107409019070040501600405405064090741402480A1B50
1001
ACAD
1000
AcDbSavedByObjectVersion
1070
     0
  0
ACAD_PROXY_OBJECT
  5
2D
102
{ACAD_REACTORS
330
2A
102
}
330
2A
100
AcDbProxyObject
 90
      499
 91
      501
 93
      404
310
41D1DBDD5C985D5910240902404333333333333E33F0000000000000F9010740A9070040501641D405064090741402480A1B50
1001
ACAD
1000
AcDbSavedByObjectVersion
1070
     0
  0
ACAD_PROXY_OBJECT
  5
2E
102
{ACAD_REACTORS
330
2A
102
}
330
2A
100
AcDbProxyObject
 90
      499
 91
      501
 93
      492
310
4411DBDD5C985D5915DA5D1A115919D95CD0340902404333333333333E33F0000000000000F90107409019070040501600405405064090741402480A1B50
1001
ACAD
1000
AcDbSavedByObjectVersion
1070
     0
  0
ACAD_PROXY_OBJECT
  5
31
102
{ACAD_REACTORS
330
2A
102
}
330
2A
100
AcDbProxyObject
 90
      499
 91
      501
 93
      476
310
41921A5919195B90640502408333333333333E33F0000000000000F901079024090700405020000000000001110200405405064090740C02480A0340
1001
ACAD
1000
AcDbSavedByObjectVersion
1070
     0
  0
ACAD_PROXY_OBJECT
  5
3B
102
{ACAD_REACTORS
330
2A
102
}
330
2A
100
AcDbProxyObject
 90
      499
 91
      501
 93
      428
310
42529A5D1D195C93D999914409028333333333333E33F0000000000000F9010790141107004050150A41D405064090741402480A0350
1001
ACAD
1000
AcDbSavedByObjectVersion
1070
     0
  0
ACAD_PROXY_OBJECT
  5
38
102
{ACAD_REACTORS
330
2A
102
}
330
2A
100
AcDbProxyObject
 90
      499
 91
      501
 93
      444
310
42D31A5B995C185D1D195C9B90E409028333333333333E33F0000000000000F9010790141107004050750841D405064090741402483A0350
1001
ACAD
1000
AcDbSavedByObjectVersion
1070
     0
  0
ACAD_PROXY_OBJECT
  5
3C
102
{ACAD_REACTORS
330
2A
102
}
330
2A
100
AcDbProxyObject
 90
      499
 91
      501
 93
      444
310
42D3DD995C9A185B99D3D999915409028333333333333E33F0000000000000F9010790141107004050150941D405064090741402480A0350
1001
ACAD
1000
AcDbSavedByObjectVersion
1070
     0
  0
ACAD_PROXY_OBJECT
  5
33
102
{ACAD_REACTORS
330
2A
102
}
330
2A
100
AcDbProxyObject
 90
      499
 91
      501
 93
      428
310
425499585B1A5CDD1A58D08409038333333333333E33F0000000000000F9010740A907004050150800405405064090740C02480A1B40
1001
ACAD
1000
AcDbSavedByObjectVersion
1070
     0
  0
ACAD_PROXY_OBJECT
  5
42
102
{ACAD_REACTORS
330
2A
102
}
330
2A
100
AcDbProxyObject
 90
      499
 91
      501
 93
      420
310
4194DA1859195911B40902404333333333333E33F0000000000000F9010740A41107004050150800405405064090840C02480A0B40
1001
ACAD
1000
AcDbSavedByObjectVersion
1070
     0
  0
ACAD_PROXY_OBJECT
  5
41
102
{ACAD_REACTORS
330
2A
102
}
330
2A
100
AcDbProxyObject
 90
      499
 91
      501
 93
      516
310
4454DA18591959081DDA5D1A08195919D95CD1A40902404333333333333E33F0000000000000F901074090142907004050250800405405064090740C02480A0B40
1001
ACAD
1000
AcDbSavedByObjectVersion
1070
     0
  0
ACAD_PROXY_OBJECT
  5
3E
102
{ACAD_REACTORS
330
2A
102
}
330
2A
100
AcDbProxyObject
 90
      499
 91
      501
 93
      532
310
4394DA1859195CC81BD98811DC985E5174090240C333333333333E33F0000000000000F901079024090741D01000000000000111010841D405064090740C02480A0340
1001
ACAD
1000
AcDbSavedByObjectVersion
1070
     0
  0
ACAD_PROXY_OBJECT
  5
3F
102
{ACAD_REACTORS
330
2A
102
}
330
2A
100
AcDbProxyObject
 90
      499
 91
      501
 93
      476
310
41D4DAD95D18DA1E51840502408333333333333E33F0000000000000F901079024090741D01000000000000111010B41D405064090741802480A0340
1001
ACAD
1000
AcDbSavedByObjectVersion
1070
     0
  0
ACAD_PROXY_OBJECT
  5
37
102
{ACAD_REACTORS
330
2A
102
}
330
2A
100
AcDbProxyObject
 90
      499
 91
      501
 93
      412
310
41D51A1A58DAD95B90D409028333333333333E33F0000000000000F9010790141107004050150C41D405064090741402480A0350
1001
ACAD
1000
AcDbSavedByObjectVersion
1070
     0
  0
ACAD_PROXY_OBJECT
  5
30
102
{ACAD_REACTORS
330
2A
102
}
330
2A
100
AcDbProxyObject
 90
      499
 91
      501
 93
      420
310
4255DA5C99599C985B595059028333333333333E33F0000000000000F90107901411070040501600405405064090740C02480A0340
1001
ACAD
1000
AcDbSavedByObjectVersion
1070
     0
  0
ACAD_PROXY_OBJECT
  5
40
102
{ACAD_REACTORS
330
2A
102
}
330
2A
100
AcDbProxyObject
 90
      499
 91
      501
 93
      404
310
41560B54985E51940902404000000000000E03F0000000000000F9010740501907004050150841D405064090740C02480A1B40
1001
ACAD
1000
AcDbSavedByObjectVersion
1070
     0
  0
XRECORD
  5
6A2
102
{ACAD_REACTORS
330
698
102
}
330
698
100
AcDbXrecord
340
0
  0
XRECORD
  5
6A1
102
{ACAD_REACTORS
330
698
102
}
330
698
100
AcDbXrecord
 90
        0
  0
XRECORD
  5
6B8
102
{ACAD_REACTORS
330
698
102
}
330
698
100
AcDbXrecord
1000
DSTYLE
1002
{
1070
   340
340
11
1002
}
  0
XRECORD
  5
6A3
102
{ACAD_REACTORS
330
698
102
}
330
698
100
AcDbXrecord
  1
{5e44f2fb-83b2-4f17-97bf-0a398d43fab8}
  0
XRECORD
  5
69B
102
{ACAD_REACTORS
330
698
102
}
330
698
100
AcDbXrecord
  1

  0
XRECORD
  5
6A0
102
{ACAD_REACTORS
330
698
102
}
330
698
100
AcDbXrecord
 90
        4
  0
XRECORD
  5
69D
102
{ACAD_REACTORS
330
698
102
}
330
698
100
AcDbXrecord
340
1A
  0
XRECORD
  5
69F
102
{ACAD_REACTORS
330
698
102
}
330
698
100
AcDbXrecord
 90
    10781
  0
XRECORD
  5
69E
102
{ACAD_REACTORS
330
698
102
}
330
698
100
AcDbXrecord
340
19
  0
XRECORD
  5
6A5
102
{ACAD_REACTORS
330
698
102
}
330
698
100
AcDbXrecord
 40
0.0
  0
XRECORD
  5
6A8
102
{ACAD_REACTORS
330
698
102
}
330
698
100
AcDbXrecord
340
0
  0
XRECORD
  5
6AE
102
{ACAD_REACTORS
330
698
102
}
330
698
100
AcDbXrecord
 10
0.0
 20
0.0
 30
0.0
  0
XRECORD
  5
6AA
102
{ACAD_REACTORS
330
698
102
}
330
698
100
AcDbXrecord
 10
0.0
 20
0.0
 30
0.0
  0
XRECORD
  5
6AD
102
{ACAD_REACTORS
330
698
102
}
330
698
100
AcDbXrecord
 10
0.0
 20
0.0
 30
0.0
  0
XRECORD
  5
6AB
102
{ACAD_REACTORS
330
698
102
}
330
698
100
AcDbXrecord
 10
0.0
 20
0.0
 30
0.0
  0
XRECORD
  5
6AC
102
{ACAD_REACTORS
330
698
102
}
330
698
100
AcDbXrecord
 10
0.0
 20
0.0
 30
0.0
  0
XRECORD
  5
6A9
102
{ACAD_REACTORS
330
698
102
}
330
698
100
AcDbXrecord
 10
0.0
 20
0.0
 30
0.0
  0
XRECORD
  5
6A6
102
{ACAD_REACTORS
330
698
102
}
330
698
100
AcDbXrecord
340
0
  0
XRECORD
  5
6A7
102
{ACAD_REACTORS
330
698
102
}
330
698
100
AcDbXrecord
 70
     0
  0
XRECORD
  5
69C
102
{ACAD_REACTORS
330
698
102
}
330
698
100
AcDbXrecord
  1

  0
XRECORD
  5
699
102
{ACAD_REACTORS
330
698
102
}
330
698
100
AcDbXrecord
 90
        1
  0
XRECORD
  5
69A
102
{ACAD_REACTORS
330
698
102
}
330
698
100
AcDbXrecord
 90
       70
  0
XRECORD
  5
6B1
102
{ACAD_REACTORS
330
698
102
}
330
698
100
AcDbXrecord
340
0
  0
XRECORD
  5
6B7
102
{ACAD_REACTORS
330
698
102
}
330
698
100
AcDbXrecord
 10
0.0
 20
0.0
 30
0.0
  0
XRECORD
  5
6B3
102
{ACAD_REACTORS
330
698
102
}
330
698
100
AcDbXrecord
 10
0.0
 20
0.0
 30
0.0
  0
XRECORD
  5
6B6
102
{ACAD_REACTORS
330
698
102
}
330
698
100
AcDbXrecord
 10
0.0
 20
0.0
 30
0.0
  0
XRECORD
  5
6B4
102
{ACAD_REACTORS
330
698
102
}
330
698
100
AcDbXrecord
 10
0.0
 20
0.0
 30
0.0
  0
XRECORD
  5
6B5
102
{ACAD_REACTORS
330
698
102
}
330
698
100
AcDbXrecord
 10
0.0
 20
0.0
 30
0.0
  0
XRECORD
  5
6B2
102
{ACAD_REACTORS
330
698
102
}
330
698
100
AcDbXrecord
 10
0.0
 20
0.0
 30
0.0
  0
XRECORD
  5
6AF
102
{ACAD_REACTORS
330
698
102
}
330
698
100
AcDbXrecord
340
0
  0
XRECORD
  5
6B0
102
{ACAD_REACTORS
330
698
102
}
330
698
100
AcDbXrecord
 70
     0
  0
XRECORD
  5
6A4
102
{ACAD_REACTORS
330
698
102
}
330
698
100
AcDbXrecord
  1
{FAEB1C32-E019-11D5-929B-00C0DF256EC4}
  0
DICTIONARYVAR
  5
6C6
102
{ACAD_REACTORS
330
6B9
102
}
330
6B9
100
DictionaryVariables
280
     0
  1
1:1
  0
DICTIONARYVAR
  5
6C0
102
{ACAD_REACTORS
330
6B9
102
}
330
6B9
100
DictionaryVariables
280
     0
  1
3.500000
  0
DICTIONARYVAR
  5
6C1
102
{ACAD_REACTORS
330
6B9
102
}
330
6B9
100
DictionaryVariables
280
     0
  1
acadiso.lin
  0
DICTIONARYVAR
  5
6BB
102
{ACAD_REACTORS
330
6B9
102
}
330
6B9
100
DictionaryVariables
280
     0
  1
Standard
  0
DICTIONARYVAR
  5
6BA
102
{ACAD_REACTORS
330
6B9
102
}
330
6B9
100
DictionaryVariables
280
     0
  1
Standard
  0
DICTIONARYVAR
  5
6C2
102
{ACAD_REACTORS
330
6B9
102
}
330
6B9
100
DictionaryVariables
280
     0
  1
2
  0
DICTIONARYVAR
  5
6C3
102
{ACAD_REACTORS
330
6B9
102
}
330
6B9
100
DictionaryVariables
280
     0
  1
1
  0
DICTIONARYVAR
  5
6C7
102
{ACAD_REACTORS
330
6B9
102
}
330
6B9
100
DictionaryVariables
280
     0
  1
1
  0
DICTIONARYVAR
  5
6BD
102
{ACAD_REACTORS
330
6B9
102
}
330
6B9
100
DictionaryVariables
280
     0
  1
80.000000
  0
DICTIONARYVAR
  5
6BC
102
{ACAD_REACTORS
330
6B9
102
}
330
6B9
100
DictionaryVariables
280
     0
  1
5.000000
  0
DICTIONARY
  5
6CA
330
45
100
AcDbDictionary
280
     1
  3
ACAD_XREC_ROUNDTRIP
360
6CB
  0
DICTIONARY
  5
6C8
330
44
100
AcDbDictionary
280
     1
  3
ACAD_XREC_ROUNDTRIP
360
6C9
  0
DICTIONARY
  5
6CC
330
46
100
AcDbDictionary
280
     1
  3
ACAD_XREC_ROUNDTRIP
360
6CD
  0
XRECORD
  5
6CB
102
{ACAD_REACTORS
330
6CA
102
}
330
6CA
100
AcDbXrecord
102
MATERIAL
148
0.0
149
0.0
149
0.0
 93
        0
 94
      127
282
     0
 72
     1
 77
     1
171
     1
175
     1
179
     1
273
     0
  0
XRECORD
  5
6C9
102
{ACAD_REACTORS
330
6C8
102
}
330
6C8
100
AcDbXrecord
102
MATERIAL
148
0.0
149
0.0
149
0.0
 93
        0
 94
      127
282
     0
 72
     1
 77
     1
171
     1
175
     1
179
     1
273
     0
  0
XRECORD
  5
6CD
102
{ACAD_REACTORS
330
6CC
102
}
330
6CC
100
AcDbXrecord
102
MATERIAL
148
0.0
149
0.0
149
0.0
 93
        0
 94
      127
282
     0
 72
     1
 77
     1
171
     1
175
     1
179
     1
273
     0
  0
ENDSEC
  0
EOF
