  0
SECTION
  2
HEADER
  9
$ACADVER
  1
AC1014
  9
$ACADMAINTVER
 70
     9
  9
$DWGCODEPAGE
  3
ANSI_932
  9
$INSBASE
 10
0.0
 20
0.0
 30
0.0
  9
$EXTMIN
 10
25.0
 20
50.0
 30
0.0
  9
$EXTMAX
 10
1925.0
 20
1400.0
 30
0.0
  9
$LIMMIN
 10
0.0
 20
0.0
  9
$LIMMAX
 10
420.0
 20
297.0
  9
$ORTHOMODE
 70
     0
  9
$REGENMODE
 70
     1
  9
$FILLMODE
 70
     1
  9
$QTEXTMODE
 70
     0
  9
$MIRRTEXT
 70
     1
  9
$DRAGMODE
 70
     2
  9
$LTSCALE
 40
0.2
  9
$OSMODE
 70
    37
  9
$ATTMODE
 70
     1
  9
$TEXTSIZE
 40
2.5
  9
$TRACEWID
 40
1.0
  9
$TEXTSTYLE
  7
STANDARD
  9
$CLAYER
  8
LAY-10
  9
$CELTYPE
  6
BYLAYER
  9
$CECOLOR
 62
   256
  9
$CELTSCALE
 40
1.0
  9
$DELOBJ
 70
     1
  9
$DISPSILH
 70
     0
  9
$DIMSCALE
 40
1.0
  9
$DIMASZ
 40
2.5
  9
$DIMEXO
 40
0.625
  9
$DIMDLI
 40
3.75
  9
$DIMRND
 40
0.0
  9
$DIMDLE
 40
0.0
  9
$DIMEXE
 40
1.25
  9
$DIMTP
 40
0.0
  9
$DIMTM
 40
0.0
  9
$DIMTXT
 40
2.5
  9
$DIMCEN
 40
2.5
  9
$DIMTSZ
 40
0.0
  9
$DIMTOL
 70
     0
  9
$DIMLIM
 70
     0
  9
$DIMTIH
 70
     0
  9
$DIMTOH
 70
     0
  9
$DIMSE1
 70
     0
  9
$DIMSE2
 70
     0
  9
$DIMTAD
 70
     1
  9
$DIMZIN
 70
     8
  9
$DIMBLK
  1

  9
$DIMASO
 70
     1
  9
$DIMSHO
 70
     1
  9
$DIMPOST
  1

  9
$DIMAPOST
  1

  9
$DIMALT
 70
     0
  9
$DIMALTD
 70
     3
  9
$DIMALTF
 40
0.03937007874016
  9
$DIMLFAC
 40
1.0
  9
$DIMTOFL
 70
     1
  9
$DIMTVP
 40
0.0
  9
$DIMTIX
 70
     0
  9
$DIMSOXD
 70
     0
  9
$DIMSAH
 70
     0
  9
$DIMBLK1
  1

  9
$DIMBLK2
  1

  9
$DIMSTYLE
  2
ISO-25
  9
$DIMCLRD
 70
     0
  9
$DIMCLRE
 70
     0
  9
$DIMCLRT
 70
     0
  9
$DIMTFAC
 40
1.0
  9
$DIMGAP
 40
0.625
  9
$DIMJUST
 70
     0
  9
$DIMSD1
 70
     0
  9
$DIMSD2
 70
     0
  9
$DIMTOLJ
 70
     0
  9
$DIMTZIN
 70
     8
  9
$DIMALTZ
 70
     0
  9
$DIMALTTZ
 70
     0
  9
$DIMFIT
 70
     3
  9
$DIMUPT
 70
     0
  9
$DIMUNIT
 70
     2
  9
$DIMDEC
 70
     2
  9
$DIMTDEC
 70
     2
  9
$DIMALTU
 70
     2
  9
$DIMALTTD
 70
     3
  9
$DIMTXSTY
  7
STANDARD
  9
$DIMAUNIT
 70
     0
  9
$LUNITS
 70
     2
  9
$LUPREC
 70
     4
  9
$SKETCHINC
 40
1.0
  9
$FILLETRAD
 40
10.0
  9
$AUNITS
 70
     0
  9
$AUPREC
 70
     0
  9
$MENU
  1
.
  9
$ELEVATION
 40
0.0
  9
$PELEVATION
 40
0.0
  9
$THICKNESS
 40
0.0
  9
$LIMCHECK
 70
     0
  9
$CHAMFERA
 40
0.0
  9
$CHAMFERB
 40
0.0
  9
$CHAMFERC
 40
0.0
  9
$CHAMFERD
 40
0.0
  9
$SKPOLY
 70
     0
  9
$TDCREATE
 40
2459321.480812292
  9
$TDUPDATE
 40
2459321.480813692
  9
$TDINDWG
 40
0.0000000116
  9
$TDUSRTIMER
 40
0.0000000116
  9
$USRTIMER
 70
     1
  9
$ANGBASE
 50
0.0
  9
$ANGDIR
 70
     0
  9
$PDMODE
 70
     0
  9
$PDSIZE
 40
0.0
  9
$PLINEWID
 40
0.0
  9
$COORDS
 70
     1
  9
$SPLFRAME
 70
     0
  9
$SPLINETYPE
 70
     6
  9
$SPLINESEGS
 70
     8
  9
$ATTDIA
 70
     0
  9
$ATTREQ
 70
     1
  9
$HANDLING
 70
     1
  9
$HANDSEED
  5
6AB
  9
$SURFTAB1
 70
     6
  9
$SURFTAB2
 70
     6
  9
$SURFTYPE
 70
     6
  9
$SURFU
 70
     6
  9
$SURFV
 70
     6
  9
$UCSNAME
  2

  9
$UCSORG
 10
0.0
 20
0.0
 30
0.0
  9
$UCSXDIR
 10
1.0
 20
0.0
 30
0.0
  9
$UCSYDIR
 10
0.0
 20
1.0
 30
0.0
  9
$PUCSNAME
  2

  9
$PUCSORG
 10
0.0
 20
0.0
 30
0.0
  9
$PUCSXDIR
 10
1.0
 20
0.0
 30
0.0
  9
$PUCSYDIR
 10
0.0
 20
1.0
 30
0.0
  9
$USERI1
 70
     0
  9
$USERI2
 70
     0
  9
$USERI3
 70
     0
  9
$USERI4
 70
     0
  9
$USERI5
 70
     0
  9
$USERR1
 40
0.0
  9
$USERR2
 40
0.0
  9
$USERR3
 40
0.0
  9
$USERR4
 40
0.0
  9
$USERR5
 40
0.0
  9
$WORLDVIEW
 70
     1
  9
$SHADEDGE
 70
     3
  9
$SHADEDIF
 70
    70
  9
$TILEMODE
 70
     1
  9
$MAXACTVP
 70
    64
  9
$PINSBASE
 10
0.0
 20
0.0
 30
0.0
  9
$PLIMCHECK
 70
     0
  9
$PEXTMIN
 10
1.000000000000000E+20
 20
1.000000000000000E+20
 30
1.000000000000000E+20
  9
$PEXTMAX
 10
-1.000000000000000E+20
 20
-1.000000000000000E+20
 30
-1.000000000000000E+20
  9
$PLIMMIN
 10
0.0
 20
0.0
  9
$PLIMMAX
 10
420.0
 20
297.0
  9
$UNITMODE
 70
     0
  9
$VISRETAIN
 70
     1
  9
$PLINEGEN
 70
     0
  9
$PSLTSCALE
 70
     1
  9
$TREEDEPTH
 70
  3020
  9
$PICKSTYLE
 70
     1
  9
$CMLSTYLE
  2
STANDARD
  9
$CMLJUST
 70
     0
  9
$CMLSCALE
 40
20.0
  9
$PROXYGRAPHICS
 70
     1
  9
$MEASUREMENT
 70
     1
  0
ENDSEC
  0
SECTION
  2
CLASSES
  0
CLASS
  1
ACDBDICTIONARYWDFLT
  2
AcDbDictionaryWithDefault
  3
ObjectDBX Classes
 90
        0
280
     0
281
     0
  0
CLASS
  1
VISUALSTYLE
  2
AcDbVisualStyle
  3
ObjectDBX Classes
 90
     4095
280
     0
281
     0
  0
CLASS
  1
MATERIAL
  2
AcDbMaterial
  3
ObjectDBX Classes
 90
     1153
280
     0
281
     0
  0
CLASS
  1
SCALE
  2
AcDbScale
  3
ObjectDBX Classes
 90
     1153
280
     0
281
     0
  0
CLASS
  1
TABLESTYLE
  2
AcDbTableStyle
  3
ObjectDBX Classes
 90
     4095
280
     0
281
     0
  0
CLASS
  1
MLEADERSTYLE
  2
AcDbMLeaderStyle
  3
ACDB_MLEADERSTYLE_CLASS
 90
     4095
280
     0
281
     0
  0
CLASS
  1
SUN
  2
AcDbSun
  3
SCENEOE
 90
     1153
280
     0
281
     0
  0
CLASS
  1
DICTIONARYVAR
  2
AcDbDictionaryVar
  3
ObjectDBX Classes
 90
        0
280
     0
281
     0
  0
CLASS
  1
XRECORD
  2
AcDbXrecord
  3
ObjectDBX Classes
 90
        0
280
     0
281
     0
  0
CLASS
  1
LWPOLYLINE
  2
AcDbPolyline
  3
ObjectDBX Classes
 90
        0
280
     0
281
     1
  0
CLASS
  1
HATCH
  2
AcDbHatch
  3
ObjectDBX Classes
 90
        0
280
     0
281
     1
  0
CLASS
  1
ACDBPLACEHOLDER
  2
AcDbPlaceHolder
  3
ObjectDBX Classes
 90
        0
280
     0
281
     0
  0
CLASS
  1
LAYOUT
  2
AcDbLayout
  3
ObjectDBX Classes
 90
        0
280
     0
281
     0
  0
ENDSEC
  0
SECTION
  2
TABLES
  0
TABLE
  2
VPORT
  5
8
102
{ACAD_XDICTIONARY
360
6A0
102
}
330
0
100
AcDbSymbolTable
 70
     1
  0
VPORT
  5
29
330
8
100
AcDbSymbolTableRecord
100
AcDbViewportTableRecord
  2
*ACTIVE
 70
     0
 10
0.0
 20
0.0
 11
1.0
 21
1.0
 12
975.0000000000001
 22
725.0
 13
0.0
 23
0.0
 14
10.0
 24
10.0
 15
10.0
 25
10.0
 16
0.0
 26
0.0
 36
1.0
 17
0.0
 27
0.0
 37
0.0
 40
1350.0
 41
1.407407407407408
 42
50.0
 43
0.0
 44
0.0
 50
0.0
 51
0.0
 71
     0
 72
  1000
 73
     1
 74
     3
 75
     0
 76
     0
 77
     0
 78
     0
  0
ENDTAB
  0
TABLE
  2
LTYPE
  5
5
330
0
100
AcDbSymbolTable
 70
     6
  0
LTYPE
  5
14
330
5
100
AcDbSymbolTableRecord
100
AcDbLinetypeTableRecord
  2
BYBLOCK
 70
     0
  3

 72
    65
 73
     0
 40
0.0
  0
LTYPE
  5
15
330
5
100
AcDbSymbolTableRecord
100
AcDbLinetypeTableRecord
  2
BYLAYER
 70
     0
  3

 72
    65
 73
     0
 40
0.0
  0
LTYPE
  5
16
330
5
100
AcDbSymbolTableRecord
100
AcDbLinetypeTableRecord
  2
CONTINUOUS
 70
     0
  3
Solid line
 72
    65
 73
     0
 40
0.0
  0
LTYPE
  5
6E
330
5
100
AcDbSymbolTableRecord
100
AcDbLinetypeTableRecord
  2
HIDDEN
 70
     0
  3
Hidden __ __ __ __ __ __ __ __ __ __ __ __ __ __
 72
    65
 73
     2
 40
9.524999999999999
 49
6.35
 74
     0
 49
-3.175
 74
     0
  0
LTYPE
  5
6F
330
5
100
AcDbSymbolTableRecord
100
AcDbLinetypeTableRecord
  2
CENTER
 70
     0
  3
Center ____ _ ____ _ ____ _ ____ _ ____ _ ____
 72
    65
 73
     4
 40
50.8
 49
31.75
 74
     0
 49
-6.35
 74
     0
 49
6.35
 74
     0
 49
-6.35
 74
     0
  0
LTYPE
  5
70
330
5
100
AcDbSymbolTableRecord
100
AcDbLinetypeTableRecord
  2
PHANTOM
 70
     0
  3
Phantom ______  __  __  ______  __  __  ______ 
 72
    65
 73
     6
 40
63.50000000000001
 49
31.75
 74
     0
 49
-6.35
 74
     0
 49
6.35
 74
     0
 49
-6.35
 74
     0
 49
6.35
 74
     0
 49
-6.35
 74
     0
  0
LTYPE
  5
71
330
5
100
AcDbSymbolTableRecord
100
AcDbLinetypeTableRecord
  2
ACAD_ISO06W100
 70
     0
  3
ISO long-dash triple-dot ____ ... ____ ... ____
 72
    65
 73
     8
 40
36.0
 49
24.0
 74
     0
 49
-3.0
 74
     0
 49
0.0
 74
     0
 49
-3.0
 74
     0
 49
0.0
 74
     0
 49
-3.0
 74
     0
 49
0.0
 74
     0
 49
-3.0
 74
     0
  0
LTYPE
  5
72
330
5
100
AcDbSymbolTableRecord
100
AcDbLinetypeTableRecord
  2
ACAD_ISO15W100
 70
     0
  3
ISO double-dash triple-dot __ __ . . . __ __ . .
 72
    65
 73
    10
 40
39.0
 49
12.0
 74
     0
 49
-3.0
 74
     0
 49
12.0
 74
     0
 49
-3.0
 74
     0
 49
0.0
 74
     0
 49
-3.0
 74
     0
 49
0.0
 74
     0
 49
-3.0
 74
     0
 49
0.0
 74
     0
 49
-3.0
 74
     0
  0
ENDTAB
  0
TABLE
  2
LAYER
  5
2
330
0
100
AcDbSymbolTable
 70
     5
  0
LAYER
  5
10
330
2
100
AcDbSymbolTableRecord
100
AcDbLayerTableRecord
  2
0
 70
     0
 62
     7
  6
CONTINUOUS
  0
LAYER
  5
75
330
2
100
AcDbSymbolTableRecord
100
AcDbLayerTableRecord
  2
LAY-10
 70
     0
 62
     7
  6
CONTINUOUS
  0
LAYER
  5
76
330
2
100
AcDbSymbolTableRecord
100
AcDbLayerTableRecord
  2
LAY-20
 70
     0
 62
     7
  6
CONTINUOUS
  0
LAYER
  5
77
330
2
100
AcDbSymbolTableRecord
100
AcDbLayerTableRecord
  2
LAY-255
 70
     0
 62
     7
  6
CONTINUOUS
  0
LAYER
  5
587
330
2
100
AcDbSymbolTableRecord
100
AcDbLayerTableRecord
  2
DEFPOINTS
 70
     0
 62
     7
  6
CONTINUOUS
  0
ENDTAB
  0
TABLE
  2
STYLE
  5
3
330
0
100
AcDbSymbolTable
 70
     4
  0
STYLE
  5
11
330
3
100
AcDbSymbolTableRecord
100
AcDbTextStyleTableRecord
  2
STANDARD
 70
     0
 40
0.0
 41
1.0
 50
0.0
 71
     0
 42
2.5
  3
simplex
  4
bigfont
  0
STYLE
  5
73
330
3
100
AcDbSymbolTableRecord
100
AcDbTextStyleTableRecord
  2
EXCADSTD
 70
     0
 40
0.0
 41
1.0
 50
0.0
 71
     0
 42
2.5
  3
simplex
  4
bigfont
  0
STYLE
  5
74
330
3
100
AcDbSymbolTableRecord
100
AcDbTextStyleTableRecord
  2
EXCADVERT
 70
     4
 40
0.0
 41
1.0
 50
0.0
 71
     0
 42
2.5
  3
simplex
  4
bigfont
  0
STYLE
  5
585
330
3
100
AcDbSymbolTableRecord
100
AcDbTextStyleTableRecord
  2
EXCADDIM1
 70
     0
 40
0.0
 41
0.84
 50
0.0
 71
     0
 42
2.5
  3
simplex
  4
bigfont
  0
ENDTAB
  0
TABLE
  2
VIEW
  5
6
330
0
100
AcDbSymbolTable
 70
     0
  0
ENDTAB
  0
TABLE
  2
UCS
  5
7
330
0
100
AcDbSymbolTable
 70
     0
  0
ENDTAB
  0
TABLE
  2
APPID
  5
9
330
0
100
AcDbSymbolTable
 70
     2
  0
APPID
  5
12
330
9
100
AcDbSymbolTableRecord
100
AcDbRegAppTableRecord
  2
ACAD
 70
     0
  0
APPID
  5
6AA
330
9
100
AcDbSymbolTableRecord
100
AcDbRegAppTableRecord
  2
ACAD_MLEADERVER
 70
     0
  0
ENDTAB
  0
TABLE
  2
DIMSTYLE
  5
A
330
0
100
AcDbSymbolTable
 70
     1
  0
DIMSTYLE
105
27
102
{ACAD_REACTORS
330
586
330
594
330
5A0
330
5AD
330
5BA
330
5C7
330
5D4
330
5E0
330
5ED
330
5FA
330
607
330
613
330
61E
330
62B
330
638
102
}
330
A
100
AcDbSymbolTableRecord
100
AcDbDimStyleTableRecord
  2
ISO-25
 70
     0
  3

  4

  5

  6

  7

 40
1.0
 41
2.5
 42
0.625
 43
3.75
 44
1.25
 45
0.0
 46
0.0
 47
0.0
 48
0.0
140
2.5
141
2.5
142
0.0
143
0.03937007874016
144
1.0
145
0.0
146
1.0
147
0.625
 71
     0
 72
     0
 73
     0
 74
     0
 75
     0
 76
     0
 77
     1
 78
     8
170
     0
171
     3
172
     1
173
     0
174
     0
175
     0
176
     0
177
     0
178
     0
270
     2
271
     2
272
     2
273
     2
274
     3
340
11
275
     0
280
     0
281
     0
282
     0
283
     0
284
     8
285
     0
286
     0
287
     5
288
     0
  0
ENDTAB
  0
TABLE
  2
BLOCK_RECORD
  5
1
330
0
100
AcDbSymbolTable
 70
    29
  0
BLOCK_RECORD
  5
1F
330
1
100
AcDbSymbolTableRecord
100
AcDbBlockTableRecord
  2
*MODEL_SPACE
  0
BLOCK_RECORD
  5
1B
330
1
100
AcDbSymbolTableRecord
100
AcDbBlockTableRecord
  2
*PAPER_SPACE
  0
BLOCK_RECORD
  5
78
330
1
100
AcDbSymbolTableRecord
100
AcDbBlockTableRecord
  2
EX_NORM
  0
BLOCK_RECORD
  5
7B
330
1
100
AcDbSymbolTableRecord
100
AcDbBlockTableRecord
  2
EX_BNORM
  0
BLOCK_RECORD
  5
7E
330
1
100
AcDbSymbolTableRecord
100
AcDbBlockTableRecord
  2
EX_BCIR
  0
BLOCK_RECORD
  5
81
330
1
100
AcDbSymbolTableRecord
100
AcDbBlockTableRecord
  2
EX_RCIVIL
  0
BLOCK_RECORD
  5
84
330
1
100
AcDbSymbolTableRecord
100
AcDbBlockTableRecord
  2
EX_SLANT
  0
BLOCK_RECORD
  5
87
330
1
100
AcDbSymbolTableRecord
100
AcDbBlockTableRecord
  2
EX_NONE
  0
BLOCK_RECORD
  5
8A
330
1
100
AcDbSymbolTableRecord
100
AcDbBlockTableRecord
  2
EX_CIVIL
  0
BLOCK_RECORD
  5
8D
330
1
100
AcDbSymbolTableRecord
100
AcDbBlockTableRecord
  2
EX_WCIR
  0
BLOCK_RECORD
  5
90
330
1
100
AcDbSymbolTableRecord
100
AcDbBlockTableRecord
  2
EX_WCIR2
  0
BLOCK_RECORD
  5
93
330
1
100
AcDbSymbolTableRecord
100
AcDbBlockTableRecord
  2
EX_WNORM
  0
BLOCK_RECORD
  5
96
330
1
100
AcDbSymbolTableRecord
100
AcDbBlockTableRecord
  2
EX_NNORM
  0
BLOCK_RECORD
  5
99
330
1
100
AcDbSymbolTableRecord
100
AcDbBlockTableRecord
  2
EX_BBOX
  0
BLOCK_RECORD
  5
9C
330
1
100
AcDbSymbolTableRecord
100
AcDbBlockTableRecord
  2
EX_WBOX
  0
BLOCK_RECORD
  5
9F
330
1
100
AcDbSymbolTableRecord
100
AcDbBlockTableRecord
  2
EX_INTEGRAL
  0
BLOCK_RECORD
  5
588
330
1
100
AcDbSymbolTableRecord
100
AcDbBlockTableRecord
  2
*D15
  0
BLOCK_RECORD
  5
595
330
1
100
AcDbSymbolTableRecord
100
AcDbBlockTableRecord
  2
*D16
  0
BLOCK_RECORD
  5
5A1
330
1
100
AcDbSymbolTableRecord
100
AcDbBlockTableRecord
  2
*D17
  0
BLOCK_RECORD
  5
5AE
330
1
100
AcDbSymbolTableRecord
100
AcDbBlockTableRecord
  2
*D18
  0
BLOCK_RECORD
  5
5BB
330
1
100
AcDbSymbolTableRecord
100
AcDbBlockTableRecord
  2
*D19
  0
BLOCK_RECORD
  5
5C8
330
1
100
AcDbSymbolTableRecord
100
AcDbBlockTableRecord
  2
*D20
  0
BLOCK_RECORD
  5
5D5
330
1
100
AcDbSymbolTableRecord
100
AcDbBlockTableRecord
  2
*D21
  0
BLOCK_RECORD
  5
5E1
330
1
100
AcDbSymbolTableRecord
100
AcDbBlockTableRecord
  2
*D22
  0
BLOCK_RECORD
  5
5EE
330
1
100
AcDbSymbolTableRecord
100
AcDbBlockTableRecord
  2
*D23
  0
BLOCK_RECORD
  5
5FB
330
1
100
AcDbSymbolTableRecord
100
AcDbBlockTableRecord
  2
*D24
  0
BLOCK_RECORD
  5
608
330
1
100
AcDbSymbolTableRecord
100
AcDbBlockTableRecord
  2
*D25
  0
BLOCK_RECORD
  5
614
330
1
100
AcDbSymbolTableRecord
100
AcDbBlockTableRecord
  2
*D26
  0
BLOCK_RECORD
  5
61F
330
1
100
AcDbSymbolTableRecord
100
AcDbBlockTableRecord
  2
*D27
  0
BLOCK_RECORD
  5
62C
330
1
100
AcDbSymbolTableRecord
100
AcDbBlockTableRecord
  2
*D28
  0
BLOCK_RECORD
  5
639
330
1
100
AcDbSymbolTableRecord
100
AcDbBlockTableRecord
  2
*D29
  0
ENDTAB
  0
ENDSEC
  0
SECTION
  2
BLOCKS
  0
BLOCK
  5
20
330
1F
100
AcDbEntity
  8
0
100
AcDbBlockBegin
  2
*MODEL_SPACE
 70
     0
 10
0.0
 20
0.0
 30
0.0
  3
*MODEL_SPACE
  1

  0
ENDBLK
  5
21
330
1F
100
AcDbEntity
  8
0
100
AcDbBlockEnd
  0
BLOCK
  5
1C
330
1B
100
AcDbEntity
 67
     1
  8
0
100
AcDbBlockBegin
  2
*PAPER_SPACE
 70
     0
 10
0.0
 20
0.0
 30
0.0
  3
*PAPER_SPACE
  1

  0
ENDBLK
  5
1D
330
1B
100
AcDbEntity
 67
     1
  8
0
100
AcDbBlockEnd
  0
BLOCK
  5
79
330
78
100
AcDbEntity
  8
0
100
AcDbBlockBegin
  2
EX_NORM
 70
     0
 10
0.0
 20
0.0
 30
0.0
  3
EX_NORM
  1

  0
LINE
  5
A2
330
78
100
AcDbEntity
  8
0
  6
CONTINUOUS
 62
     0
100
AcDbLine
 10
0.0
 20
0.0
 30
0.0
 11
-1.0
 21
0.0
 31
0.0
  0
LINE
  5
A3
330
78
100
AcDbEntity
  8
0
  6
CONTINUOUS
 62
     0
100
AcDbLine
 10
0.0
 20
0.0
 30
0.0
 11
-1.0
 21
0.166666667
 31
0.0
  0
LINE
  5
A4
330
78
100
AcDbEntity
  8
0
  6
CONTINUOUS
 62
     0
100
AcDbLine
 10
0.0
 20
0.0
 30
0.0
 11
-1.0
 21
-0.166666667
 31
0.0
  0
ENDBLK
  5
7A
330
78
100
AcDbEntity
  8
0
100
AcDbBlockEnd
  0
BLOCK
  5
7C
330
7B
100
AcDbEntity
  8
0
100
AcDbBlockBegin
  2
EX_BNORM
 70
     0
 10
0.0
 20
0.0
 30
0.0
  3
EX_BNORM
  1

  0
LINE
  5
A5
330
7B
100
AcDbEntity
  8
0
  6
CONTINUOUS
 62
     0
100
AcDbLine
 10
0.0
 20
0.0
 30
0.0
 11
-1.0
 21
0.0
 31
0.0
  0
LINE
  5
A6
330
7B
100
AcDbEntity
  8
0
  6
CONTINUOUS
 62
     0
100
AcDbLine
 10
0.0
 20
0.0
 30
0.0
 11
-1.0
 21
0.166666667
 31
0.0
  0
LINE
  5
A7
330
7B
100
AcDbEntity
  8
0
  6
CONTINUOUS
 62
     0
100
AcDbLine
 10
0.0
 20
0.0
 30
0.0
 11
-1.0
 21
-0.166666667
 31
0.0
  0
LINE
  5
A8
330
7B
100
AcDbEntity
  8
0
  6
CONTINUOUS
 62
     0
100
AcDbLine
 10
0.0
 20
0.0
 30
0.0
 11
-1.0
 21
0.083333333
 31
0.0
  0
LINE
  5
A9
330
7B
100
AcDbEntity
  8
0
  6
CONTINUOUS
 62
     0
100
AcDbLine
 10
0.0
 20
0.0
 30
0.0
 11
-1.0
 21
-0.083333333
 31
0.0
  0
LINE
  5
AA
330
7B
100
AcDbEntity
  8
0
  6
CONTINUOUS
 62
     0
100
AcDbLine
 10
-1.0
 20
0.166666667
 30
0.0
 11
-1.0
 21
-0.166666667
 31
0.0
  0
ENDBLK
  5
7D
330
7B
100
AcDbEntity
  8
0
100
AcDbBlockEnd
  0
BLOCK
  5
7F
330
7E
100
AcDbEntity
  8
0
100
AcDbBlockBegin
  2
EX_BCIR
 70
     0
 10
0.0
 20
0.0
 30
0.0
  3
EX_BCIR
  1

  0
LINE
  5
AB
330
7E
100
AcDbEntity
  8
0
  6
CONTINUOUS
 62
     0
100
AcDbLine
 10
0.0
 20
0.0
 30
0.0
 11
-1.0
 21
0.0
 31
0.0
  0
CIRCLE
  5
AC
330
7E
100
AcDbEntity
  8
0
  6
CONTINUOUS
 62
     0
100
AcDbCircle
 10
0.0
 20
0.0
 30
0.0
 40
0.5
  0
CIRCLE
  5
AD
330
7E
100
AcDbEntity
  8
0
  6
CONTINUOUS
 62
     0
100
AcDbCircle
 10
0.0
 20
0.0
 30
0.0
 40
0.25
  0
ENDBLK
  5
80
330
7E
100
AcDbEntity
  8
0
100
AcDbBlockEnd
  0
BLOCK
  5
82
330
81
100
AcDbEntity
  8
0
100
AcDbBlockBegin
  2
EX_RCIVIL
 70
     0
 10
0.0
 20
0.0
 30
0.0
  3
EX_RCIVIL
  1

  0
LINE
  5
AE
330
81
100
AcDbEntity
  8
0
  6
CONTINUOUS
 62
     0
100
AcDbLine
 10
0.0
 20
0.0
 30
0.0
 11
-1.0
 21
0.0
 31
0.0
  0
LINE
  5
AF
330
81
100
AcDbEntity
  8
0
  6
CONTINUOUS
 62
     0
100
AcDbLine
 10
-1.0
 20
-0.25
 30
0.0
 11
0.0
 21
-0.25
 31
0.0
  0
LINE
  5
B0
330
81
100
AcDbEntity
  8
0
  6
CONTINUOUS
 62
     0
100
AcDbLine
 10
-1.0
 20
-0.125
 30
0.0
 11
0.0
 21
-0.125
 31
0.0
  0
ENDBLK
  5
83
330
81
100
AcDbEntity
  8
0
100
AcDbBlockEnd
  0
BLOCK
  5
85
330
84
100
AcDbEntity
  8
0
100
AcDbBlockBegin
  2
EX_SLANT
 70
     0
 10
0.0
 20
0.0
 30
0.0
  3
EX_SLANT
  1

  0
LINE
  5
B1
330
84
100
AcDbEntity
  8
0
  6
CONTINUOUS
 62
     0
100
AcDbLine
 10
0.0
 20
0.0
 30
0.0
 11
-1.0
 21
0.0
 31
0.0
  0
LINE
  5
B2
330
84
100
AcDbEntity
  8
0
  6
CONTINUOUS
 62
     0
100
AcDbLine
 10
0.707106781
 20
0.707106781
 30
0.0
 11
-0.707106781
 21
-0.707106781
 31
0.0
  0
ENDBLK
  5
86
330
84
100
AcDbEntity
  8
0
100
AcDbBlockEnd
  0
BLOCK
  5
88
330
87
100
AcDbEntity
  8
0
100
AcDbBlockBegin
  2
EX_NONE
 70
     0
 10
0.0
 20
0.0
 30
0.0
  3
EX_NONE
  1

  0
LINE
  5
B3
330
87
100
AcDbEntity
  8
0
  6
CONTINUOUS
 62
     0
100
AcDbLine
 10
0.0
 20
0.0
 30
0.0
 11
-1.0
 21
0.0
 31
0.0
  0
ENDBLK
  5
89
330
87
100
AcDbEntity
  8
0
100
AcDbBlockEnd
  0
BLOCK
  5
8B
330
8A
100
AcDbEntity
  8
0
100
AcDbBlockBegin
  2
EX_CIVIL
 70
     0
 10
0.0
 20
0.0
 30
0.0
  3
EX_CIVIL
  1

  0
LINE
  5
B4
330
8A
100
AcDbEntity
  8
0
  6
CONTINUOUS
 62
     0
100
AcDbLine
 10
0.0
 20
0.0
 30
0.0
 11
-1.0
 21
0.0
 31
0.0
  0
LINE
  5
B5
330
8A
100
AcDbEntity
  8
0
  6
CONTINUOUS
 62
     0
100
AcDbLine
 10
-1.0
 20
0.25
 30
0.0
 11
0.0
 21
0.25
 31
0.0
  0
LINE
  5
B6
330
8A
100
AcDbEntity
  8
0
  6
CONTINUOUS
 62
     0
100
AcDbLine
 10
-1.0
 20
0.125
 30
0.0
 11
0.0
 21
0.125
 31
0.0
  0
ENDBLK
  5
8C
330
8A
100
AcDbEntity
  8
0
100
AcDbBlockEnd
  0
BLOCK
  5
8E
330
8D
100
AcDbEntity
  8
0
100
AcDbBlockBegin
  2
EX_WCIR
 70
     0
 10
0.0
 20
0.0
 30
0.0
  3
EX_WCIR
  1

  0
LINE
  5
B7
330
8D
100
AcDbEntity
  8
0
  6
CONTINUOUS
 62
     0
100
AcDbLine
 10
0.0
 20
0.0
 30
0.0
 11
-1.0
 21
0.0
 31
0.0
  0
CIRCLE
  5
B8
330
8D
100
AcDbEntity
  8
0
  6
CONTINUOUS
 62
     0
100
AcDbCircle
 10
0.0
 20
0.0
 30
0.0
 40
0.5
  0
ENDBLK
  5
8F
330
8D
100
AcDbEntity
  8
0
100
AcDbBlockEnd
  0
BLOCK
  5
91
330
90
100
AcDbEntity
  8
0
100
AcDbBlockBegin
  2
EX_WCIR2
 70
     0
 10
0.0
 20
0.0
 30
0.0
  3
EX_WCIR2
  1

  0
LINE
  5
B9
330
90
100
AcDbEntity
  8
0
  6
CONTINUOUS
 62
     0
100
AcDbLine
 10
-0.5
 20
0.0
 30
0.0
 11
-1.0
 21
0.0
 31
0.0
  0
CIRCLE
  5
BA
330
90
100
AcDbEntity
  8
0
  6
CONTINUOUS
 62
     0
100
AcDbCircle
 10
0.0
 20
0.0
 30
0.0
 40
0.5
  0
ENDBLK
  5
92
330
90
100
AcDbEntity
  8
0
100
AcDbBlockEnd
  0
BLOCK
  5
94
330
93
100
AcDbEntity
  8
0
100
AcDbBlockBegin
  2
EX_WNORM
 70
     0
 10
0.0
 20
0.0
 30
0.0
  3
EX_WNORM
  1

  0
LINE
  5
BB
330
93
100
AcDbEntity
  8
0
  6
CONTINUOUS
 62
     0
100
AcDbLine
 10
-1.0
 20
0.0
 30
0.0
 11
-1.0
 21
0.0
 31
0.0
  0
LINE
  5
BC
330
93
100
AcDbEntity
  8
0
  6
CONTINUOUS
 62
     0
100
AcDbLine
 10
0.0
 20
0.0
 30
0.0
 11
-1.0
 21
0.166666667
 31
0.0
  0
LINE
  5
BD
330
93
100
AcDbEntity
  8
0
  6
CONTINUOUS
 62
     0
100
AcDbLine
 10
0.0
 20
0.0
 30
0.0
 11
-1.0
 21
-0.166666667
 31
0.0
  0
LINE
  5
BE
330
93
100
AcDbEntity
  8
0
  6
CONTINUOUS
 62
     0
100
AcDbLine
 10
-1.0
 20
0.166666667
 30
0.0
 11
-1.0
 21
-0.166666667
 31
0.0
  0
ENDBLK
  5
95
330
93
100
AcDbEntity
  8
0
100
AcDbBlockEnd
  0
BLOCK
  5
97
330
96
100
AcDbEntity
  8
0
100
AcDbBlockBegin
  2
EX_NNORM
 70
     0
 10
0.0
 20
0.0
 30
0.0
  3
EX_NNORM
  1

  0
LINE
  5
BF
330
96
100
AcDbEntity
  8
0
  6
CONTINUOUS
 62
     0
100
AcDbLine
 10
0.0
 20
0.0
 30
0.0
 11
-1.0
 21
0.0
 31
0.0
  0
LINE
  5
C0
330
96
100
AcDbEntity
  8
0
  6
CONTINUOUS
 62
     0
100
AcDbLine
 10
0.0
 20
0.0
 30
0.0
 11
-1.0
 21
0.166666667
 31
0.0
  0
LINE
  5
C1
330
96
100
AcDbEntity
  8
0
  6
CONTINUOUS
 62
     0
100
AcDbLine
 10
0.0
 20
0.0
 30
0.0
 11
-1.0
 21
-0.166666667
 31
0.0
  0
LINE
  5
C2
330
96
100
AcDbEntity
  8
0
  6
CONTINUOUS
 62
     0
100
AcDbLine
 10
-1.0
 20
0.166666667
 30
0.0
 11
-1.0
 21
-0.166666667
 31
0.0
  0
ENDBLK
  5
98
330
96
100
AcDbEntity
  8
0
100
AcDbBlockEnd
  0
BLOCK
  5
9A
330
99
100
AcDbEntity
  8
0
100
AcDbBlockBegin
  2
EX_BBOX
 70
     0
 10
0.0
 20
0.0
 30
0.0
  3
EX_BBOX
  1

  0
LINE
  5
C3
330
99
100
AcDbEntity
  8
0
  6
CONTINUOUS
 62
     0
100
AcDbLine
 10
0.0
 20
0.0
 30
0.0
 11
-1.0
 21
0.0
 31
0.0
  0
LINE
  5
C4
330
99
100
AcDbEntity
  8
0
  6
CONTINUOUS
 62
     0
100
AcDbLine
 10
-0.5
 20
0.5
 30
0.0
 11
0.5
 21
0.5
 31
0.0
  0
LINE
  5
C5
330
99
100
AcDbEntity
  8
0
  6
CONTINUOUS
 62
     0
100
AcDbLine
 10
0.5
 20
0.5
 30
0.0
 11
0.5
 21
-0.5
 31
0.0
  0
LINE
  5
C6
330
99
100
AcDbEntity
  8
0
  6
CONTINUOUS
 62
     0
100
AcDbLine
 10
0.5
 20
-0.5
 30
0.0
 11
-0.5
 21
-0.5
 31
0.0
  0
LINE
  5
C7
330
99
100
AcDbEntity
  8
0
  6
CONTINUOUS
 62
     0
100
AcDbLine
 10
-0.5
 20
-0.5
 30
0.0
 11
-0.5
 21
0.5
 31
0.0
  0
LINE
  5
C8
330
99
100
AcDbEntity
  8
0
  6
CONTINUOUS
 62
     0
100
AcDbLine
 10
-0.25
 20
0.25
 30
0.0
 11
0.25
 21
0.25
 31
0.0
  0
LINE
  5
C9
330
99
100
AcDbEntity
  8
0
  6
CONTINUOUS
 62
     0
100
AcDbLine
 10
0.25
 20
0.25
 30
0.0
 11
0.25
 21
-0.25
 31
0.0
  0
LINE
  5
CA
330
99
100
AcDbEntity
  8
0
  6
CONTINUOUS
 62
     0
100
AcDbLine
 10
0.25
 20
-0.25
 30
0.0
 11
-0.25
 21
-0.25
 31
0.0
  0
LINE
  5
CB
330
99
100
AcDbEntity
  8
0
  6
CONTINUOUS
 62
     0
100
AcDbLine
 10
-0.25
 20
-0.25
 30
0.0
 11
-0.25
 21
0.25
 31
0.0
  0
ENDBLK
  5
9B
330
99
100
AcDbEntity
  8
0
100
AcDbBlockEnd
  0
BLOCK
  5
9D
330
9C
100
AcDbEntity
  8
0
100
AcDbBlockBegin
  2
EX_WBOX
 70
     0
 10
0.0
 20
0.0
 30
0.0
  3
EX_WBOX
  1

  0
LINE
  5
CC
330
9C
100
AcDbEntity
  8
0
  6
CONTINUOUS
 62
     0
100
AcDbLine
 10
-0.5
 20
0.0
 30
0.0
 11
-1.0
 21
0.0
 31
0.0
  0
LINE
  5
CD
330
9C
100
AcDbEntity
  8
0
  6
CONTINUOUS
 62
     0
100
AcDbLine
 10
-0.5
 20
0.5
 30
0.0
 11
0.5
 21
0.5
 31
0.0
  0
LINE
  5
CE
330
9C
100
AcDbEntity
  8
0
  6
CONTINUOUS
 62
     0
100
AcDbLine
 10
0.5
 20
0.5
 30
0.0
 11
0.5
 21
-0.5
 31
0.0
  0
LINE
  5
CF
330
9C
100
AcDbEntity
  8
0
  6
CONTINUOUS
 62
     0
100
AcDbLine
 10
0.5
 20
-0.5
 30
0.0
 11
-0.5
 21
-0.5
 31
0.0
  0
LINE
  5
D0
330
9C
100
AcDbEntity
  8
0
  6
CONTINUOUS
 62
     0
100
AcDbLine
 10
-0.5
 20
-0.5
 30
0.0
 11
-0.5
 21
0.5
 31
0.0
  0
ENDBLK
  5
9E
330
9C
100
AcDbEntity
  8
0
100
AcDbBlockEnd
  0
BLOCK
  5
A0
330
9F
100
AcDbEntity
  8
0
100
AcDbBlockBegin
  2
EX_INTEGRAL
 70
     0
 10
0.0
 20
0.0
 30
0.0
  3
EX_INTEGRAL
  1

  0
LINE
  5
D1
330
9F
100
AcDbEntity
  8
0
  6
CONTINUOUS
 62
     0
100
AcDbLine
 10
0.0
 20
0.0
 30
0.0
 11
-1.0
 21
0.0
 31
0.0
  0
ARC
  5
D2
330
9F
100
AcDbEntity
  8
0
  6
CONTINUOUS
 62
     0
100
AcDbCircle
 10
0.542115
 20
0.164992
 30
0.0
 40
0.56667
100
AcDbArc
 50
73.07249033629006
 51
196.9275130221199
  0
ARC
  5
D3
330
9F
100
AcDbEntity
  8
0
  6
CONTINUOUS
 62
     0
100
AcDbCircle
 10
-0.542115
 20
-0.164992
 30
0.0
 40
0.56667
100
AcDbArc
 50
253.0724869220464
 51
16.9275130559125
  0
ENDBLK
  5
A1
330
9F
100
AcDbEntity
  8
0
100
AcDbBlockEnd
  0
BLOCK
  5
589
330
588
100
AcDbEntity
  8
0
100
AcDbBlockBegin
  2
*D15
 70
     1
 10
0.0
 20
0.0
 30
0.0
  3
*D15
  1

  0
LINE
  5
58B
330
588
100
AcDbEntity
  8
LAY-20
  6
CONTINUOUS
 62
     4
100
AcDbLine
 10
1175.0
 20
1212.50000000001
 30
0.0
 11
1175.0
 21
1274.5
 31
0.0
  0
LINE
  5
58C
330
588
100
AcDbEntity
  8
LAY-20
  6
CONTINUOUS
 62
     4
100
AcDbLine
 10
1285.0
 20
1215.50000000001
 30
0.0
 11
1285.0
 21
1274.5
 31
0.0
  0
LINE
  5
58D
330
588
100
AcDbEntity
  8
LAY-20
  6
CONTINUOUS
 62
     4
100
AcDbLine
 10
1187.5
 20
1267.0
 30
0.0
 11
1272.5
 21
1267.0
 31
0.0
  0
INSERT
  5
58E
330
588
100
AcDbEntity
  8
LAY-20
 62
     4
100
AcDbBlockReference
  2
EX_BNORM
 10
1175.0
 20
1267.0
 30
0.0
 41
12.5
 42
12.5
 43
12.5
 50
180.0
  0
INSERT
  5
58F
330
588
100
AcDbEntity
  8
LAY-20
 62
     4
100
AcDbBlockReference
  2
EX_BNORM
 10
1285.0
 20
1267.0
 30
0.0
 41
12.5
 42
12.5
 43
12.5
  0
MTEXT
  5
590
330
588
100
AcDbEntity
  8
LAY-20
 62
     7
100
AcDbMText
 10
1230.0
 20
1279.5
 30
0.0
 40
15.590552
 41
0.0
 71
     5
 72
     1
  1
110
  7
EXCADDIM1
  0
POINT
  5
591
330
588
100
AcDbEntity
  8
DEFPOINTS
 62
     0
100
AcDbPoint
 10
1175.0
 20
1205.00000000001
 30
0.0
  0
POINT
  5
592
330
588
100
AcDbEntity
  8
DEFPOINTS
 62
     0
100
AcDbPoint
 10
1285.0
 20
1208.00000000001
 30
0.0
  0
POINT
  5
593
330
588
100
AcDbEntity
  8
DEFPOINTS
 62
     0
100
AcDbPoint
 10
1285.0
 20
1267.0
 30
0.0
  0
ENDBLK
  5
58A
330
588
100
AcDbEntity
  8
0
100
AcDbBlockEnd
  0
BLOCK
  5
596
330
595
100
AcDbEntity
  8
0
100
AcDbBlockBegin
  2
*D16
 70
     1
 10
0.0
 20
0.0
 30
0.0
  3
*D16
  1

  0
LINE
  5
598
330
595
100
AcDbEntity
  8
LAY-20
  6
CONTINUOUS
 62
     4
100
AcDbLine
 10
1325.0
 20
1218.50000000001
 30
0.0
 11
1325.0
 21
1274.5
 31
0.0
  0
LINE
  5
599
330
595
100
AcDbEntity
  8
LAY-20
  6
CONTINUOUS
 62
     4
100
AcDbLine
 10
1312.5
 20
1267.0
 30
0.0
 11
1297.5
 21
1267.0
 31
0.0
  0
INSERT
  5
59A
330
595
100
AcDbEntity
  8
LAY-20
 62
     4
100
AcDbBlockReference
  2
EX_BNORM
 10
1325.0
 20
1267.0
 30
0.0
 41
12.5
 42
12.5
 43
12.5
  0
INSERT
  5
59B
330
595
100
AcDbEntity
  8
LAY-20
 62
     4
100
AcDbBlockReference
  2
EX_BNORM
 10
1285.0
 20
1267.0
 30
0.0
 41
12.5
 42
12.5
 43
12.5
 50
180.0
  0
MTEXT
  5
59C
330
595
100
AcDbEntity
  8
LAY-20
 62
     7
100
AcDbMText
 10
1305.0
 20
1279.5
 30
0.0
 40
15.590552
 41
0.0
 71
     5
 72
     1
  1
40
  7
EXCADDIM1
  0
POINT
  5
59D
330
595
100
AcDbEntity
  8
DEFPOINTS
 62
     0
100
AcDbPoint
 10
1325.0
 20
1211.00000000001
 30
0.0
  0
POINT
  5
59E
330
595
100
AcDbEntity
  8
DEFPOINTS
 62
     0
100
AcDbPoint
 10
1285.0
 20
1280.50000000001
 30
0.0
  0
POINT
  5
59F
330
595
100
AcDbEntity
  8
DEFPOINTS
 62
     0
100
AcDbPoint
 10
1285.0
 20
1267.0
 30
0.0
  0
ENDBLK
  5
597
330
595
100
AcDbEntity
  8
0
100
AcDbBlockEnd
  0
BLOCK
  5
5A2
330
5A1
100
AcDbEntity
  8
0
100
AcDbBlockBegin
  2
*D17
 70
     1
 10
0.0
 20
0.0
 30
0.0
  3
*D17
  1

  0
LINE
  5
5A4
330
5A1
100
AcDbEntity
  8
LAY-20
  6
CONTINUOUS
 62
     4
100
AcDbLine
 10
1332.5000000001
 20
1208.00000000001
 30
0.0
 11
1562.5
 21
1208.00000000001
 31
0.0
  0
LINE
  5
5A5
330
5A1
100
AcDbEntity
  8
LAY-20
  6
CONTINUOUS
 62
     4
100
AcDbLine
 10
1332.5000000001
 20
992.0000000000101
 30
0.0
 11
1562.5
 21
992.0000000000101
 31
0.0
  0
LINE
  5
5A6
330
5A1
100
AcDbEntity
  8
LAY-20
  6
CONTINUOUS
 62
     4
100
AcDbLine
 10
1555.0
 20
1195.50000000001
 30
0.0
 11
1555.0
 21
1004.50000000001
 31
0.0
  0
INSERT
  5
5A7
330
5A1
100
AcDbEntity
  8
LAY-20
 62
     4
100
AcDbBlockReference
  2
EX_BNORM
 10
1555.0
 20
1208.00000000001
 30
0.0
 41
12.5
 42
12.5
 43
12.5
 50
90.0
  0
INSERT
  5
5A8
330
5A1
100
AcDbEntity
  8
LAY-20
 62
     4
100
AcDbBlockReference
  2
EX_BNORM
 10
1555.0
 20
992.0000000000101
 30
0.0
 41
12.5
 42
12.5
 43
12.5
 50
270.0
  0
MTEXT
  5
5A9
330
5A1
100
AcDbEntity
  8
LAY-20
 62
     7
100
AcDbMText
 10
1542.5
 20
1100.00000000001
 30
0.0
 40
15.590552
 41
0.0
 71
     5
 72
     1
  1
216
  7
EXCADDIM1
 11
0.0
 21
1.0
 31
0.0
  0
POINT
  5
5AA
330
5A1
100
AcDbEntity
  8
DEFPOINTS
 62
     0
100
AcDbPoint
 10
1325.0000000001
 20
1208.00000000001
 30
0.0
  0
POINT
  5
5AB
330
5A1
100
AcDbEntity
  8
DEFPOINTS
 62
     0
100
AcDbPoint
 10
1325.0000000001
 20
992.0000000000101
 30
0.0
  0
POINT
  5
5AC
330
5A1
100
AcDbEntity
  8
DEFPOINTS
 62
     0
100
AcDbPoint
 10
1555.0
 20
992.0000000000101
 30
0.0
  0
ENDBLK
  5
5A3
330
5A1
100
AcDbEntity
  8
0
100
AcDbBlockEnd
  0
BLOCK
  5
5AF
330
5AE
100
AcDbEntity
  8
0
100
AcDbBlockBegin
  2
*D18
 70
     1
 10
0.0
 20
0.0
 30
0.0
  3
*D18
  1

  0
LINE
  5
5B1
330
5AE
100
AcDbEntity
  8
LAY-20
  6
CONTINUOUS
 62
     4
100
AcDbLine
 10
1452.5
 20
995.00000000001
 30
0.0
 11
1527.5
 21
995.0000000000101
 31
0.0
  0
LINE
  5
5B2
330
5AE
100
AcDbEntity
  8
LAY-20
  6
CONTINUOUS
 62
     4
100
AcDbLine
 10
1452.5
 20
1205.00000000001
 30
0.0
 11
1527.5
 21
1205.00000000001
 31
0.0
  0
LINE
  5
5B3
330
5AE
100
AcDbEntity
  8
LAY-20
  6
CONTINUOUS
 62
     4
100
AcDbLine
 10
1520.0
 20
1007.50000000001
 30
0.0
 11
1520.0
 21
1192.50000000001
 31
0.0
  0
INSERT
  5
5B4
330
5AE
100
AcDbEntity
  8
LAY-20
 62
     4
100
AcDbBlockReference
  2
EX_BNORM
 10
1520.0
 20
995.0000000000101
 30
0.0
 41
12.5
 42
12.5
 43
12.5
 50
270.0
  0
INSERT
  5
5B5
330
5AE
100
AcDbEntity
  8
LAY-20
 62
     4
100
AcDbBlockReference
  2
EX_BNORM
 10
1520.0
 20
1205.00000000001
 30
0.0
 41
12.5
 42
12.5
 43
12.5
 50
90.0
  0
MTEXT
  5
5B6
330
5AE
100
AcDbEntity
  8
LAY-20
 62
     7
100
AcDbMText
 10
1507.5
 20
1100.00000000001
 30
0.0
 40
15.590552
 41
0.0
 71
     5
 72
     1
  1
210
  7
EXCADDIM1
 11
0.0
 21
1.0
 31
0.0
  0
POINT
  5
5B7
330
5AE
100
AcDbEntity
  8
DEFPOINTS
 62
     0
100
AcDbPoint
 10
1445.0
 20
995.00000000001
 30
0.0
  0
POINT
  5
5B8
330
5AE
100
AcDbEntity
  8
DEFPOINTS
 62
     0
100
AcDbPoint
 10
1445.0
 20
1205.00000000001
 30
0.0
  0
POINT
  5
5B9
330
5AE
100
AcDbEntity
  8
DEFPOINTS
 62
     0
100
AcDbPoint
 10
1520.0
 20
1205.00000000001
 30
0.0
  0
ENDBLK
  5
5B0
330
5AE
100
AcDbEntity
  8
0
100
AcDbBlockEnd
  0
BLOCK
  5
5BC
330
5BB
100
AcDbEntity
  8
0
100
AcDbBlockBegin
  2
*D19
 70
     1
 10
0.0
 20
0.0
 30
0.0
  3
*D19
  1

  0
LINE
  5
5BE
330
5BB
100
AcDbEntity
  8
LAY-20
  6
CONTINUOUS
 62
     4
100
AcDbLine
 10
1292.5
 20
1175.00000000001
 30
0.0
 11
1382.5
 21
1175.00000000001
 31
0.0
  0
LINE
  5
5BF
330
5BB
100
AcDbEntity
  8
LAY-20
  6
CONTINUOUS
 62
     4
100
AcDbLine
 10
1292.5
 20
1025.00000000001
 30
0.0
 11
1382.5
 21
1025.00000000001
 31
0.0
  0
LINE
  5
5C0
330
5BB
100
AcDbEntity
  8
LAY-20
  6
CONTINUOUS
 62
     4
100
AcDbLine
 10
1375.0
 20
1162.50000000001
 30
0.0
 11
1375.0
 21
1037.50000000001
 31
0.0
  0
INSERT
  5
5C1
330
5BB
100
AcDbEntity
  8
LAY-20
 62
     4
100
AcDbBlockReference
  2
EX_BNORM
 10
1375.0
 20
1175.00000000001
 30
0.0
 41
12.5
 42
12.5
 43
12.5
 50
90.0
  0
INSERT
  5
5C2
330
5BB
100
AcDbEntity
  8
LAY-20
 62
     4
100
AcDbBlockReference
  2
EX_BNORM
 10
1375.0
 20
1025.00000000001
 30
0.0
 41
12.5
 42
12.5
 43
12.5
 50
270.0
  0
MTEXT
  5
5C3
330
5BB
100
AcDbEntity
  8
LAY-20
 62
     7
100
AcDbMText
 10
1362.5
 20
1100.00000000001
 30
0.0
 40
15.590552
 41
0.0
 71
     5
 72
     1
  1
溝幅150
  7
EXCADDIM1
 11
0.0
 21
1.0
 31
0.0
  0
POINT
  5
5C4
330
5BB
100
AcDbEntity
  8
DEFPOINTS
 62
     0
100
AcDbPoint
 10
1285.0
 20
1175.00000000001
 30
0.0
  0
POINT
  5
5C5
330
5BB
100
AcDbEntity
  8
DEFPOINTS
 62
     0
100
AcDbPoint
 10
1285.0
 20
1025.00000000001
 30
0.0
  0
POINT
  5
5C6
330
5BB
100
AcDbEntity
  8
DEFPOINTS
 62
     0
100
AcDbPoint
 10
1375.0
 20
1025.00000000001
 30
0.0
  0
ENDBLK
  5
5BD
330
5BB
100
AcDbEntity
  8
0
100
AcDbBlockEnd
  0
BLOCK
  5
5C9
330
5C8
100
AcDbEntity
  8
0
100
AcDbBlockBegin
  2
*D20
 70
     1
 10
0.0
 20
0.0
 30
0.0
  3
*D20
  1

  0
LINE
  5
5CB
330
5C8
100
AcDbEntity
  8
LAY-20
  6
CONTINUOUS
 62
     4
100
AcDbLine
 10
1255.0
 20
998.4999999999101
 30
0.0
 11
1255.0
 21
877.0000000000099
 31
0.0
  0
LINE
  5
5CC
330
5C8
100
AcDbEntity
  8
LAY-20
  6
CONTINUOUS
 62
     4
100
AcDbLine
 10
1175.0
 20
987.49999999999
 30
0.0
 11
1175.0
 21
877.0000000000099
 31
0.0
  0
LINE
  5
5CD
330
5C8
100
AcDbEntity
  8
LAY-20
  6
CONTINUOUS
 62
     4
100
AcDbLine
 10
1242.5
 20
884.5000000000099
 30
0.0
 11
1187.5
 21
884.5000000000099
 31
0.0
  0
INSERT
  5
5CE
330
5C8
100
AcDbEntity
  8
LAY-20
 62
     4
100
AcDbBlockReference
  2
EX_BNORM
 10
1255.0
 20
884.5000000000099
 30
0.0
 41
12.5
 42
12.5
 43
12.5
  0
INSERT
  5
5CF
330
5C8
100
AcDbEntity
  8
LAY-20
 62
     4
100
AcDbBlockReference
  2
EX_BNORM
 10
1175.0
 20
884.5000000000099
 30
0.0
 41
12.5
 42
12.5
 43
12.5
 50
180.0
  0
MTEXT
  5
5D0
330
5C8
100
AcDbEntity
  8
LAY-20
 62
     7
100
AcDbMText
 10
1215.0
 20
897.0000000000099
 30
0.0
 40
15.590552
 41
0.0
 71
     5
 72
     1
  1
80
  7
EXCADDIM1
  0
POINT
  5
5D1
330
5C8
100
AcDbEntity
  8
DEFPOINTS
 62
     0
100
AcDbPoint
 10
1255.0
 20
1005.99999999991
 30
0.0
  0
POINT
  5
5D2
330
5C8
100
AcDbEntity
  8
DEFPOINTS
 62
     0
100
AcDbPoint
 10
1175.0
 20
994.99999999999
 30
0.0
  0
POINT
  5
5D3
330
5C8
100
AcDbEntity
  8
DEFPOINTS
 62
     0
100
AcDbPoint
 10
1175.0
 20
884.5000000000099
 30
0.0
  0
ENDBLK
  5
5CA
330
5C8
100
AcDbEntity
  8
0
100
AcDbBlockEnd
  0
BLOCK
  5
5D6
330
5D5
100
AcDbEntity
  8
0
100
AcDbBlockBegin
  2
*D21
 70
     1
 10
0.0
 20
0.0
 30
0.0
  3
*D21
  1

  0
LINE
  5
5D8
330
5D5
100
AcDbEntity
  8
LAY-20
  6
CONTINUOUS
 62
     4
100
AcDbLine
 10
1244.9999999999
 20
1034.57275688646
 30
0.0
 11
1244.9999999999
 21
912.0000000000101
 31
0.0
  0
LINE
  5
5D9
330
5D5
100
AcDbEntity
  8
LAY-20
  6
CONTINUOUS
 62
     4
100
AcDbLine
 10
1232.4999999999
 20
919.5000000000101
 30
0.0
 11
1187.5
 21
919.5000000000101
 31
0.0
  0
INSERT
  5
5DA
330
5D5
100
AcDbEntity
  8
LAY-20
 62
     4
100
AcDbBlockReference
  2
EX_BNORM
 10
1244.9999999999
 20
919.5000000000101
 30
0.0
 41
12.5
 42
12.5
 43
12.5
  0
INSERT
  5
5DB
330
5D5
100
AcDbEntity
  8
LAY-20
 62
     4
100
AcDbBlockReference
  2
EX_BNORM
 10
1175.0
 20
919.5000000000101
 30
0.0
 41
12.5
 42
12.5
 43
12.5
 50
180.0
  0
MTEXT
  5
5DC
330
5D5
100
AcDbEntity
  8
LAY-20
 62
     7
100
AcDbMText
 10
1209.99999999995
 20
932.0000000000101
 30
0.0
 40
15.590552
 41
0.0
 71
     5
 72
     1
  1
70
  7
EXCADDIM1
  0
POINT
  5
5DD
330
5D5
100
AcDbEntity
  8
DEFPOINTS
 62
     0
100
AcDbPoint
 10
1244.9999999999
 20
1042.07275688646
 30
0.0
  0
POINT
  5
5DE
330
5D5
100
AcDbEntity
  8
DEFPOINTS
 62
     0
100
AcDbPoint
 10
1175.0
 20
919.5000000000101
 30
0.0
  0
POINT
  5
5DF
330
5D5
100
AcDbEntity
  8
DEFPOINTS
 62
     0
100
AcDbPoint
 10
1175.0
 20
919.5000000000101
 30
0.0
  0
ENDBLK
  5
5D7
330
5D5
100
AcDbEntity
  8
0
100
AcDbBlockEnd
  0
BLOCK
  5
5E2
330
5E1
100
AcDbEntity
  8
0
100
AcDbBlockBegin
  2
*D22
 70
     1
 10
0.0
 20
0.0
 30
0.0
  3
*D22
  1

  0
LINE
  5
5E4
330
5E1
100
AcDbEntity
  8
LAY-20
  6
CONTINUOUS
 62
     4
100
AcDbLine
 10
925.0000000000023
 20
987.5000000000109
 30
0.0
 11
925.0000000000023
 21
842.0
 31
0.0
  0
LINE
  5
5E5
330
5E1
100
AcDbEntity
  8
LAY-20
  6
CONTINUOUS
 62
     4
100
AcDbLine
 10
325.0000000000017
 20
987.5000000000109
 30
0.0
 11
325.0000000000017
 21
842.0
 31
0.0
  0
LINE
  5
5E6
330
5E1
100
AcDbEntity
  8
LAY-20
  6
CONTINUOUS
 62
     4
100
AcDbLine
 10
912.5000000000023
 20
849.5
 30
0.0
 11
337.5000000000017
 21
849.5
 31
0.0
  0
INSERT
  5
5E7
330
5E1
100
AcDbEntity
  8
LAY-20
 62
     4
100
AcDbBlockReference
  2
EX_BNORM
 10
925.0000000000023
 20
849.5
 30
0.0
 41
12.5
 42
12.5
 43
12.5
  0
INSERT
  5
5E8
330
5E1
100
AcDbEntity
  8
LAY-20
 62
     4
100
AcDbBlockReference
  2
EX_BNORM
 10
325.0000000000017
 20
849.5
 30
0.0
 41
12.5
 42
12.5
 43
12.5
 50
180.0
  0
MTEXT
  5
5E9
330
5E1
100
AcDbEntity
  8
LAY-20
 62
     7
100
AcDbMText
 10
625.000000000002
 20
862.0
 30
0.0
 40
15.590552
 41
0.0
 71
     5
 72
     1
  1
600
  7
EXCADDIM1
  0
POINT
  5
5EA
330
5E1
100
AcDbEntity
  8
DEFPOINTS
 62
     0
100
AcDbPoint
 10
925.0000000000023
 20
995.0000000000109
 30
0.0
  0
POINT
  5
5EB
330
5E1
100
AcDbEntity
  8
DEFPOINTS
 62
     0
100
AcDbPoint
 10
325.0000000000017
 20
995.0000000000109
 30
0.0
  0
POINT
  5
5EC
330
5E1
100
AcDbEntity
  8
DEFPOINTS
 62
     0
100
AcDbPoint
 10
325.0000000000017
 20
849.5
 30
0.0
  0
ENDBLK
  5
5E3
330
5E1
100
AcDbEntity
  8
0
100
AcDbBlockEnd
  0
BLOCK
  5
5EF
330
5EE
100
AcDbEntity
  8
0
100
AcDbBlockBegin
  2
*D23
 70
     1
 10
0.0
 20
0.0
 30
0.0
  3
*D23
  1

  0
LINE
  5
5F1
330
5EE
100
AcDbEntity
  8
LAY-20
  6
CONTINUOUS
 62
     4
100
AcDbLine
 10
331.4999999999912
 20
994.0000000000107
 30
0.0
 11
331.4999999999912
 21
877.0
 31
0.0
  0
LINE
  5
5F2
330
5EE
100
AcDbEntity
  8
LAY-20
  6
CONTINUOUS
 62
     4
100
AcDbLine
 10
918.4999999999923
 20
994.0000000000107
 30
0.0
 11
918.4999999999923
 21
877.0
 31
0.0
  0
LINE
  5
5F3
330
5EE
100
AcDbEntity
  8
LAY-20
  6
CONTINUOUS
 62
     4
100
AcDbLine
 10
343.9999999999912
 20
884.5
 30
0.0
 11
905.9999999999923
 21
884.5
 31
0.0
  0
INSERT
  5
5F4
330
5EE
100
AcDbEntity
  8
LAY-20
 62
     4
100
AcDbBlockReference
  2
EX_BNORM
 10
331.4999999999912
 20
884.5
 30
0.0
 41
12.5
 42
12.5
 43
12.5
 50
180.0
  0
INSERT
  5
5F5
330
5EE
100
AcDbEntity
  8
LAY-20
 62
     4
100
AcDbBlockReference
  2
EX_BNORM
 10
918.4999999999923
 20
884.5
 30
0.0
 41
12.5
 42
12.5
 43
12.5
  0
MTEXT
  5
5F6
330
5EE
100
AcDbEntity
  8
LAY-20
 62
     7
100
AcDbMText
 10
624.9999999999918
 20
897.0
 30
0.0
 40
15.590552
 41
0.0
 71
     5
 72
     1
  1
587
  7
EXCADDIM1
  0
POINT
  5
5F7
330
5EE
100
AcDbEntity
  8
DEFPOINTS
 62
     0
100
AcDbPoint
 10
331.4999999999912
 20
1001.500000000011
 30
0.0
  0
POINT
  5
5F8
330
5EE
100
AcDbEntity
  8
DEFPOINTS
 62
     0
100
AcDbPoint
 10
918.4999999999923
 20
1001.500000000011
 30
0.0
  0
POINT
  5
5F9
330
5EE
100
AcDbEntity
  8
DEFPOINTS
 62
     0
100
AcDbPoint
 10
918.4999999999923
 20
884.5
 30
0.0
  0
ENDBLK
  5
5F0
330
5EE
100
AcDbEntity
  8
0
100
AcDbBlockEnd
  0
BLOCK
  5
5FC
330
5FB
100
AcDbEntity
  8
0
100
AcDbBlockBegin
  2
*D24
 70
     1
 10
0.0
 20
0.0
 30
0.0
  3
*D24
  1

  0
LINE
  5
5FE
330
5FB
100
AcDbEntity
  8
LAY-20
  6
CONTINUOUS
 62
     4
100
AcDbLine
 10
335.9999999999912
 20
998.5000000000105
 30
0.0
 11
335.9999999999912
 21
912.0
 31
0.0
  0
LINE
  5
5FF
330
5FB
100
AcDbEntity
  8
LAY-20
  6
CONTINUOUS
 62
     4
100
AcDbLine
 10
913.9999999999924
 20
998.5000000000105
 30
0.0
 11
913.9999999999924
 21
912.0
 31
0.0
  0
LINE
  5
600
330
5FB
100
AcDbEntity
  8
LAY-20
  6
CONTINUOUS
 62
     4
100
AcDbLine
 10
348.4999999999912
 20
919.5
 30
0.0
 11
901.4999999999924
 21
919.5
 31
0.0
  0
INSERT
  5
601
330
5FB
100
AcDbEntity
  8
LAY-20
 62
     4
100
AcDbBlockReference
  2
EX_BNORM
 10
335.9999999999912
 20
919.5
 30
0.0
 41
12.5
 42
12.5
 43
12.5
 50
180.0
  0
INSERT
  5
602
330
5FB
100
AcDbEntity
  8
LAY-20
 62
     4
100
AcDbBlockReference
  2
EX_BNORM
 10
913.9999999999924
 20
919.5
 30
0.0
 41
12.5
 42
12.5
 43
12.5
  0
MTEXT
  5
603
330
5FB
100
AcDbEntity
  8
LAY-20
 62
     7
100
AcDbMText
 10
624.9999999999918
 20
932.0
 30
0.0
 40
15.590552
 41
0.0
 71
     5
 72
     1
  1
578
  7
EXCADDIM1
  0
POINT
  5
604
330
5FB
100
AcDbEntity
  8
DEFPOINTS
 62
     0
100
AcDbPoint
 10
335.9999999999912
 20
1006.00000000001
 30
0.0
  0
POINT
  5
605
330
5FB
100
AcDbEntity
  8
DEFPOINTS
 62
     0
100
AcDbPoint
 10
913.9999999999924
 20
1006.00000000001
 30
0.0
  0
POINT
  5
606
330
5FB
100
AcDbEntity
  8
DEFPOINTS
 62
     0
100
AcDbPoint
 10
913.9999999999924
 20
919.5
 30
0.0
  0
ENDBLK
  5
5FD
330
5FB
100
AcDbEntity
  8
0
100
AcDbBlockEnd
  0
BLOCK
  5
609
330
608
100
AcDbEntity
  8
0
100
AcDbBlockBegin
  2
*D25
 70
     1
 10
0.0
 20
0.0
 30
0.0
  3
*D25
  1

  0
LINE
  5
60B
330
608
100
AcDbEntity
  8
LAY-20
  6
CONTINUOUS
 62
     4
100
AcDbLine
 10
1172.5
 20
1124.49999999995
 30
0.0
 11
1117.5
 21
1124.49999999995
 31
0.0
  0
LINE
  5
60C
330
608
100
AcDbEntity
  8
LAY-20
  6
CONTINUOUS
 62
     4
100
AcDbLine
 10
1125.0
 20
1136.99999999995
 30
0.0
 11
1125.0
 21
1185.99999999995
 31
0.0
  0
INSERT
  5
60D
330
608
100
AcDbEntity
  8
LAY-20
 62
     4
100
AcDbBlockReference
  2
EX_BNORM
 10
1125.0
 20
1124.49999999995
 30
0.0
 41
12.5
 42
12.5
 43
12.5
 50
270.0
  0
INSERT
  5
60E
330
608
100
AcDbEntity
  8
LAY-20
 62
     4
100
AcDbBlockReference
  2
EX_BNORM
 10
1125.0
 20
1198.49999999995
 30
0.0
 41
12.5
 42
12.5
 43
12.5
 50
90.0
  0
MTEXT
  5
60F
330
608
100
AcDbEntity
  8
LAY-20
 62
     7
100
AcDbMText
 10
1112.5
 20
1161.49999999995
 30
0.0
 40
15.590552
 41
0.0
 71
     5
 72
     1
  1
74
  7
EXCADDIM1
 11
0.0
 21
1.0
 31
0.0
  0
POINT
  5
610
330
608
100
AcDbEntity
  8
DEFPOINTS
 62
     0
100
AcDbPoint
 10
1180.0
 20
1124.49999999995
 30
0.0
  0
POINT
  5
611
330
608
100
AcDbEntity
  8
DEFPOINTS
 62
     0
100
AcDbPoint
 10
1125.0
 20
1198.49999999995
 30
0.0
  0
POINT
  5
612
330
608
100
AcDbEntity
  8
DEFPOINTS
 62
     0
100
AcDbPoint
 10
1125.0
 20
1198.49999999995
 30
0.0
  0
ENDBLK
  5
60A
330
608
100
AcDbEntity
  8
0
100
AcDbBlockEnd
  0
BLOCK
  5
615
330
614
100
AcDbEntity
  8
0
100
AcDbBlockBegin
  2
*D26
 70
     1
 10
0.0
 20
0.0
 30
0.0
  3
*D26
  1

  0
LINE
  5
617
330
614
100
AcDbEntity
  8
LAY-20
  6
CONTINUOUS
 62
     4
100
AcDbLine
 10
1090.0
 20
1130.49999999993
 30
0.0
 11
1090.0
 21
1185.99999999993
 31
0.0
  0
INSERT
  5
618
330
614
100
AcDbEntity
  8
LAY-20
 62
     4
100
AcDbBlockReference
  2
EX_BNORM
 10
1090.0
 20
1117.99999999993
 30
0.0
 41
12.5
 42
12.5
 43
12.5
 50
270.0
  0
INSERT
  5
619
330
614
100
AcDbEntity
  8
LAY-20
 62
     4
100
AcDbBlockReference
  2
EX_BNORM
 10
1090.0
 20
1198.49999999993
 30
0.0
 41
12.5
 42
12.5
 43
12.5
 50
90.0
  0
MTEXT
  5
61A
330
614
100
AcDbEntity
  8
LAY-20
 62
     7
100
AcDbMText
 10
1077.5
 20
1158.24999999993
 30
0.0
 40
15.590552
 41
0.0
 71
     5
 72
     1
  1
80.5
  7
EXCADDIM1
 11
0.0
 21
1.0
 31
0.0
  0
POINT
  5
61B
330
614
100
AcDbEntity
  8
DEFPOINTS
 62
     0
100
AcDbPoint
 10
1055.0
 20
1117.99999999993
 30
0.0
  0
POINT
  5
61C
330
614
100
AcDbEntity
  8
DEFPOINTS
 62
     0
100
AcDbPoint
 10
1055.0
 20
1198.49999999993
 30
0.0
  0
POINT
  5
61D
330
614
100
AcDbEntity
  8
DEFPOINTS
 62
     0
100
AcDbPoint
 10
1090.0
 20
1198.49999999993
 30
0.0
  0
ENDBLK
  5
616
330
614
100
AcDbEntity
  8
0
100
AcDbBlockEnd
  0
BLOCK
  5
620
330
61F
100
AcDbEntity
  8
0
100
AcDbBlockBegin
  2
*D27
 70
     1
 10
0.0
 20
0.0
 30
0.0
  3
*D27
  1

  0
LINE
  5
622
330
61F
100
AcDbEntity
  8
LAY-20
  6
CONTINUOUS
 62
     4
100
AcDbLine
 10
1167.5
 20
1117.99999999993
 30
0.0
 11
1082.5
 21
1117.99999999993
 31
0.0
  0
LINE
  5
623
330
61F
100
AcDbEntity
  8
LAY-20
  6
CONTINUOUS
 62
     4
100
AcDbLine
 10
1167.5
 20
1005.99999999993
 30
0.0
 11
1082.5
 21
1005.99999999993
 31
0.0
  0
LINE
  5
624
330
61F
100
AcDbEntity
  8
LAY-20
  6
CONTINUOUS
 62
     4
100
AcDbLine
 10
1090.0
 20
1105.49999999993
 30
0.0
 11
1090.0
 21
1018.49999999993
 31
0.0
  0
INSERT
  5
625
330
61F
100
AcDbEntity
  8
LAY-20
 62
     4
100
AcDbBlockReference
  2
EX_BNORM
 10
1090.0
 20
1117.99999999993
 30
0.0
 41
12.5
 42
12.5
 43
12.5
 50
90.0
  0
INSERT
  5
626
330
61F
100
AcDbEntity
  8
LAY-20
 62
     4
100
AcDbBlockReference
  2
EX_BNORM
 10
1090.0
 20
1005.99999999993
 30
0.0
 41
12.5
 42
12.5
 43
12.5
 50
270.0
  0
MTEXT
  5
627
330
61F
100
AcDbEntity
  8
LAY-20
 62
     7
100
AcDbMText
 10
1077.5
 20
1061.99999999993
 30
0.0
 40
15.590552
 41
0.0
 71
     5
 72
     1
  1
112
  7
EXCADDIM1
 11
0.0
 21
1.0
 31
0.0
  0
POINT
  5
628
330
61F
100
AcDbEntity
  8
DEFPOINTS
 62
     0
100
AcDbPoint
 10
1175.0
 20
1117.99999999993
 30
0.0
  0
POINT
  5
629
330
61F
100
AcDbEntity
  8
DEFPOINTS
 62
     0
100
AcDbPoint
 10
1175.0
 20
1005.99999999993
 30
0.0
  0
POINT
  5
62A
330
61F
100
AcDbEntity
  8
DEFPOINTS
 62
     0
100
AcDbPoint
 10
1090.0
 20
1005.99999999993
 30
0.0
  0
ENDBLK
  5
621
330
61F
100
AcDbEntity
  8
0
100
AcDbBlockEnd
  0
BLOCK
  5
62D
330
62C
100
AcDbEntity
  8
0
100
AcDbBlockBegin
  2
*D28
 70
     1
 10
0.0
 20
0.0
 30
0.0
  3
*D28
  1

  0
LINE
  5
62F
330
62C
100
AcDbEntity
  8
LAY-20
  6
CONTINUOUS
 62
     4
100
AcDbLine
 10
1167.5
 20
1001.49999999991
 30
0.0
 11
1047.5
 21
1001.49999999991
 31
0.0
  0
LINE
  5
630
330
62C
100
AcDbEntity
  8
LAY-20
  6
CONTINUOUS
 62
     4
100
AcDbLine
 10
1167.5
 20
1198.49999999993
 30
0.0
 11
1047.5
 21
1198.49999999993
 31
0.0
  0
LINE
  5
631
330
62C
100
AcDbEntity
  8
LAY-20
  6
CONTINUOUS
 62
     4
100
AcDbLine
 10
1055.0
 20
1013.99999999991
 30
0.0
 11
1055.0
 21
1185.99999999993
 31
0.0
  0
INSERT
  5
632
330
62C
100
AcDbEntity
  8
LAY-20
 62
     4
100
AcDbBlockReference
  2
EX_BNORM
 10
1055.0
 20
1001.49999999991
 30
0.0
 41
12.5
 42
12.5
 43
12.5
 50
270.0
  0
INSERT
  5
633
330
62C
100
AcDbEntity
  8
LAY-20
 62
     4
100
AcDbBlockReference
  2
EX_BNORM
 10
1055.0
 20
1198.49999999993
 30
0.0
 41
12.5
 42
12.5
 43
12.5
 50
90.0
  0
MTEXT
  5
634
330
62C
100
AcDbEntity
  8
LAY-20
 62
     7
100
AcDbMText
 10
1042.5
 20
1099.99999999992
 30
0.0
 40
15.590552
 41
0.0
 71
     5
 72
     1
  1
197
  7
EXCADDIM1
 11
0.0
 21
1.0
 31
0.0
  0
POINT
  5
635
330
62C
100
AcDbEntity
  8
DEFPOINTS
 62
     0
100
AcDbPoint
 10
1175.0
 20
1001.49999999991
 30
0.0
  0
POINT
  5
636
330
62C
100
AcDbEntity
  8
DEFPOINTS
 62
     0
100
AcDbPoint
 10
1175.0
 20
1198.49999999993
 30
0.0
  0
POINT
  5
637
330
62C
100
AcDbEntity
  8
DEFPOINTS
 62
     0
100
AcDbPoint
 10
1055.0
 20
1198.49999999993
 30
0.0
  0
ENDBLK
  5
62E
330
62C
100
AcDbEntity
  8
0
100
AcDbBlockEnd
  0
BLOCK
  5
63A
330
639
100
AcDbEntity
  8
0
100
AcDbBlockBegin
  2
*D29
 70
     1
 10
0.0
 20
0.0
 30
0.0
  3
*D29
  1

  0
LINE
  5
63C
330
639
100
AcDbEntity
  8
LAY-20
  6
CONTINUOUS
 62
     4
100
AcDbLine
 10
1167.5
 20
1204.99999999993
 30
0.0
 11
1012.5
 21
1204.99999999993
 31
0.0
  0
LINE
  5
63D
330
639
100
AcDbEntity
  8
LAY-20
  6
CONTINUOUS
 62
     4
100
AcDbLine
 10
1167.5
 20
994.9999999999102
 30
0.0
 11
1012.5
 21
994.9999999999102
 31
0.0
  0
LINE
  5
63E
330
639
100
AcDbEntity
  8
LAY-20
  6
CONTINUOUS
 62
     4
100
AcDbLine
 10
1020.0
 20
1192.49999999993
 30
0.0
 11
1020.0
 21
1007.49999999991
 31
0.0
  0
INSERT
  5
63F
330
639
100
AcDbEntity
  8
LAY-20
 62
     4
100
AcDbBlockReference
  2
EX_BNORM
 10
1020.0
 20
1204.99999999993
 30
0.0
 41
12.5
 42
12.5
 43
12.5
 50
90.0
  0
INSERT
  5
640
330
639
100
AcDbEntity
  8
LAY-20
 62
     4
100
AcDbBlockReference
  2
EX_BNORM
 10
1020.0
 20
994.9999999999102
 30
0.0
 41
12.5
 42
12.5
 43
12.5
 50
270.0
  0
MTEXT
  5
641
330
639
100
AcDbEntity
  8
LAY-20
 62
     7
100
AcDbMText
 10
1007.5
 20
1099.99999999992
 30
0.0
 40
15.590552
 41
0.0
 71
     5
 72
     1
  1
210
  7
EXCADDIM1
 11
0.0
 21
1.0
 31
0.0
  0
POINT
  5
642
330
639
100
AcDbEntity
  8
DEFPOINTS
 62
     0
100
AcDbPoint
 10
1175.0
 20
1204.99999999993
 30
0.0
  0
POINT
  5
643
330
639
100
AcDbEntity
  8
DEFPOINTS
 62
     0
100
AcDbPoint
 10
1175.0
 20
994.9999999999102
 30
0.0
  0
POINT
  5
644
330
639
100
AcDbEntity
  8
DEFPOINTS
 62
     0
100
AcDbPoint
 10
1020.0
 20
994.9999999999102
 30
0.0
  0
ENDBLK
  5
63B
330
639
100
AcDbEntity
  8
0
100
AcDbBlockEnd
  0
ENDSEC
  0
SECTION
  2
ENTITIES
  0
LINE
  5
D4
330
1F
100
AcDbEntity
  8
LAY-10
  6
CONTINUOUS
 62
     7
100
AcDbLine
 10
1278.5
 20
1024.041630560203
 30
0.0
 11
1279.458369439754
 21
1024.999999999957
 31
0.0
  0
LINE
  5
D5
330
1F
100
AcDbEntity
  8
LAY-10
  6
CONTINUOUS
 62
     7
100
AcDbLine
 10
1278.499999999997
 20
1022.627416997828
 30
0.0
 11
1280.5
 21
1024.627416997831
 31
0.0
  0
LINE
  5
D6
330
1F
100
AcDbEntity
  8
LAY-10
  6
CONTINUOUS
 62
     7
100
AcDbLine
 10
1278.500000000001
 20
1021.213203435459
 30
0.0
 11
1280.499999999997
 21
1023.213203435455
 31
0.0
  0
LINE
  5
D7
330
1F
100
AcDbEntity
  8
LAY-10
  6
CONTINUOUS
 62
     7
100
AcDbLine
 10
1278.499999999998
 20
1019.798989873083
 30
0.0
 11
1280.500000000001
 21
1021.798989873086
 31
0.0
  0
LINE
  5
D8
330
1F
100
AcDbEntity
  8
LAY-10
  6
CONTINUOUS
 62
     7
100
AcDbLine
 10
1278.500000000003
 20
1018.384776310714
 30
0.0
 11
1280.499999999999
 21
1020.38477631071
 31
0.0
  0
LINE
  5
D9
330
1F
100
AcDbEntity
  8
LAY-10
  6
CONTINUOUS
 62
     7
100
AcDbLine
 10
1278.5
 20
1016.970562748338
 30
0.0
 11
1280.499999999996
 21
1018.970562748335
 31
0.0
  0
LINE
  5
DA
330
1F
100
AcDbEntity
  8
LAY-10
  6
CONTINUOUS
 62
     7
100
AcDbLine
 10
1278.499999999997
 20
1015.556349185963
 30
0.0
 11
1280.5
 21
1017.556349185965
 31
0.0
  0
LINE
  5
DB
330
1F
100
AcDbEntity
  8
LAY-10
  6
CONTINUOUS
 62
     7
100
AcDbLine
 10
1278.500000000001
 20
1014.142135623593
 30
0.0
 11
1280.499999999997
 21
1016.14213562359
 31
0.0
  0
LINE
  5
DC
330
1F
100
AcDbEntity
  8
LAY-10
  6
CONTINUOUS
 62
     7
100
AcDbLine
 10
1278.499999999998
 20
1012.727922061217
 30
0.0
 11
1280.500000000001
 21
1014.727922061221
 31
0.0
  0
LINE
  5
DD
330
1F
100
AcDbEntity
  8
LAY-10
  6
CONTINUOUS
 62
     7
100
AcDbLine
 10
1278.500000000002
 20
1011.313708498849
 30
0.0
 11
1280.499999999999
 21
1013.313708498845
 31
0.0
  0
LINE
  5
DE
330
1F
100
AcDbEntity
  8
LAY-10
  6
CONTINUOUS
 62
     7
100
AcDbLine
 10
1278.499999999999
 20
1009.899494936473
 30
0.0
 11
1280.499999999996
 21
1011.899494936469
 31
0.0
  0
LINE
  5
DF
330
1F
100
AcDbEntity
  8
LAY-10
  6
CONTINUOUS
 62
     7
100
AcDbLine
 10
1278.500000000003
 20
1008.485281374104
 30
0.0
 11
1280.5
 21
1010.4852813741
 31
0.0
  0
LINE
  5
E0
330
1F
100
AcDbEntity
  8
LAY-10
  6
CONTINUOUS
 62
     7
100
AcDbLine
 10
1278.500000000001
 20
1007.071067811728
 30
0.0
 11
1280.499999999997
 21
1009.071067811725
 31
0.0
  0
LINE
  5
E1
330
1F
100
AcDbEntity
  8
LAY-10
  6
CONTINUOUS
 62
     7
100
AcDbLine
 10
1278.499999999998
 20
1005.656854249353
 30
0.0
 11
1280.500000000001
 21
1007.656854249355
 31
0.0
  0
LINE
  5
E2
330
1F
100
AcDbEntity
  8
LAY-10
  6
CONTINUOUS
 62
     7
100
AcDbLine
 10
1278.500000000002
 20
1004.242640686983
 30
0.0
 11
1280.499999999998
 21
1006.24264068698
 31
0.0
  0
LINE
  5
E3
330
1F
100
AcDbEntity
  8
LAY-10
  6
CONTINUOUS
 62
     7
100
AcDbLine
 10
1278.499999999999
 20
1002.828427124608
 30
0.0
 11
1280.499999999996
 21
1004.828427124604
 31
0.0
  0
LINE
  5
E4
330
1F
100
AcDbEntity
  8
LAY-10
  6
CONTINUOUS
 62
     7
100
AcDbLine
 10
1278.500000000003
 20
1001.414213562239
 30
0.0
 11
1280.5
 21
1003.414213562235
 31
0.0
  0
LINE
  5
E5
330
1F
100
AcDbEntity
  8
LAY-10
  6
CONTINUOUS
 62
     7
100
AcDbLine
 10
1278.499999999975
 20
999.999999999837
 30
0.0
 11
1280.499999999997
 21
1001.999999999859
 31
0.0
  0
LINE
  5
E6
330
1F
100
AcDbEntity
  8
LAY-10
  6
CONTINUOUS
 62
     7
100
AcDbLine
 10
1279.914213562344
 20
999.9999999998329
 30
0.0
 11
1280.499999999995
 21
1000.585786437484
 31
0.0
  0
LINE
  5
E7
330
1F
100
AcDbEntity
  8
LAY-10
  6
CONTINUOUS
 62
     7
100
AcDbLine
 10
1278.5
 20
1199.041630560353
 30
0.0
 11
1279.458369439741
 21
1200.000000000094
 31
0.0
  0
LINE
  5
E8
330
1F
100
AcDbEntity
  8
LAY-10
  6
CONTINUOUS
 62
     7
100
AcDbLine
 10
1278.499999999997
 20
1197.627416997977
 30
0.0
 11
1280.5
 21
1199.62741699798
 31
0.0
  0
LINE
  5
E9
330
1F
100
AcDbEntity
  8
LAY-10
  6
CONTINUOUS
 62
     7
100
AcDbLine
 10
1278.500000000001
 20
1196.213203435608
 30
0.0
 11
1280.500000000004
 21
1198.213203435611
 31
0.0
  0
LINE
  5
EA
330
1F
100
AcDbEntity
  8
LAY-10
  6
CONTINUOUS
 62
     7
100
AcDbLine
 10
1278.499999999998
 20
1194.798989873232
 30
0.0
 11
1280.500000000001
 21
1196.798989873235
 31
0.0
  0
LINE
  5
EB
330
1F
100
AcDbEntity
  8
LAY-10
  6
CONTINUOUS
 62
     7
100
AcDbLine
 10
1278.500000000002
 20
1193.384776310863
 30
0.0
 11
1280.499999999999
 21
1195.38477631086
 31
0.0
  0
LINE
  5
EC
330
1F
100
AcDbEntity
  8
LAY-10
  6
CONTINUOUS
 62
     7
100
AcDbLine
 10
1278.499999999999
 20
1191.970562748488
 30
0.0
 11
1280.500000000002
 21
1193.970562748491
 31
0.0
  0
LINE
  5
ED
330
1F
100
AcDbEntity
  8
LAY-10
  6
CONTINUOUS
 62
     7
100
AcDbLine
 10
1278.499999999997
 20
1190.556349186112
 30
0.0
 11
1280.5
 21
1192.556349186115
 31
0.0
  0
LINE
  5
EE
330
1F
100
AcDbEntity
  8
LAY-10
  6
CONTINUOUS
 62
     7
100
AcDbLine
 10
1278.5
 20
1189.142135623743
 30
0.0
 11
1280.500000000004
 21
1191.142135623746
 31
0.0
  0
LINE
  5
EF
330
1F
100
AcDbEntity
  8
LAY-10
  6
CONTINUOUS
 62
     7
100
AcDbLine
 10
1278.499999999998
 20
1187.727922061367
 30
0.0
 11
1280.500000000001
 21
1189.72792206137
 31
0.0
  0
LINE
  5
F0
330
1F
100
AcDbEntity
  8
LAY-10
  6
CONTINUOUS
 62
     7
100
AcDbLine
 10
1278.500000000002
 20
1186.313708498998
 30
0.0
 11
1280.499999999998
 21
1188.313708498995
 31
0.0
  0
LINE
  5
F1
330
1F
100
AcDbEntity
  8
LAY-10
  6
CONTINUOUS
 62
     7
100
AcDbLine
 10
1278.499999999999
 20
1184.899494936622
 30
0.0
 11
1280.500000000002
 21
1186.899494936625
 31
0.0
  0
LINE
  5
F2
330
1F
100
AcDbEntity
  8
LAY-10
  6
CONTINUOUS
 62
     7
100
AcDbLine
 10
1278.500000000003
 20
1183.485281374253
 30
0.0
 11
1280.5
 21
1185.485281374249
 31
0.0
  0
LINE
  5
F3
330
1F
100
AcDbEntity
  8
LAY-10
  6
CONTINUOUS
 62
     7
100
AcDbLine
 10
1278.5
 20
1182.071067811878
 30
0.0
 11
1280.500000000003
 21
1184.071067811881
 31
0.0
  0
LINE
  5
F4
330
1F
100
AcDbEntity
  8
LAY-10
  6
CONTINUOUS
 62
     7
100
AcDbLine
 10
1278.499999999998
 20
1180.656854249502
 30
0.0
 11
1280.500000000001
 21
1182.656854249504
 31
0.0
  0
LINE
  5
F5
330
1F
100
AcDbEntity
  8
LAY-10
  6
CONTINUOUS
 62
     7
100
AcDbLine
 10
1278.500000000002
 20
1179.242640687133
 30
0.0
 11
1280.500000000004
 21
1181.242640687136
 31
0.0
  0
LINE
  5
F6
330
1F
100
AcDbEntity
  8
LAY-10
  6
CONTINUOUS
 62
     7
100
AcDbLine
 10
1278.499999999999
 20
1177.828427124757
 30
0.0
 11
1280.500000000002
 21
1179.82842712476
 31
0.0
  0
LINE
  5
F7
330
1F
100
AcDbEntity
  8
LAY-10
  6
CONTINUOUS
 62
     7
100
AcDbLine
 10
1278.500000000003
 20
1176.414213562388
 30
0.0
 11
1280.499999999999
 21
1178.414213562384
 31
0.0
  0
LINE
  5
F8
330
1F
100
AcDbEntity
  8
LAY-10
  6
CONTINUOUS
 62
     7
100
AcDbLine
 10
1278.5
 20
1175.000000000012
 30
0.0
 11
1280.500000000003
 21
1177.000000000015
 31
0.0
  0
LINE
  5
F9
330
1F
100
AcDbEntity
  8
LAY-10
  6
CONTINUOUS
 62
     7
100
AcDbLine
 10
1279.914213562376
 20
1175.000000000015
 30
0.0
 11
1280.5
 21
1175.58578643764
 31
0.0
  0
LINE
  5
FA
330
1F
100
AcDbEntity
  8
LAY-10
  6
CONTINUOUS
 62
     7
100
AcDbLine
 10
1318.598846298227
 20
995.0000000000075
 30
0.0
 11
1288.482754482155
 21
1025.11609181608
 31
0.0
  0
LINE
  5
FB
330
1F
100
AcDbEntity
  8
LAY-10
  6
CONTINUOUS
 62
     7
100
AcDbLine
 10
1339.812049733823
 20
995.0000000000075
 30
0.0
 11
1309.011661032726
 21
1025.800388701105
 31
0.0
  0
LINE
  5
FC
330
1F
100
AcDbEntity
  8
LAY-10
  6
CONTINUOUS
 62
     7
100
AcDbLine
 10
1431.735931288073
 20
995.0000000000075
 30
0.0
 11
1397.97025608523
 21
1028.765675202852
 31
0.0
  0
LINE
  5
FD
330
1F
100
AcDbEntity
  8
LAY-10
  6
CONTINUOUS
 62
     7
100
AcDbLine
 10
1294.478280854422
 20
1174.684057304853
 30
0.0
 11
1285.000000000001
 21
1184.162338159274
 31
0.0
  0
LINE
  5
FE
330
1F
100
AcDbEntity
  8
LAY-10
  6
CONTINUOUS
 62
     7
100
AcDbLine
 10
1469.999999999994
 20
1091.086219713531
 30
0.0
 11
1435.000000000007
 21
1126.086219713519
 31
0.0
  0
LINE
  5
FF
330
1F
100
AcDbEntity
  8
LAY-10
  6
CONTINUOUS
 62
     7
100
AcDbLine
 10
1389.571951427771
 20
1171.514268285755
 30
0.0
 11
1356.086219713515
 21
1205.000000000011
 31
0.0
  0
LINE
  5
100
330
1F
100
AcDbEntity
  8
LAY-10
  6
CONTINUOUS
 62
     7
100
AcDbLine
 10
1470.0
 20
1133.512626584718
 30
0.0
 11
1398.512626584708
 21
1205.00000000001
 31
0.0
  0
LINE
  5
101
330
1F
100
AcDbEntity
  8
LAY-10
  6
CONTINUOUS
 62
     7
100
AcDbLine
 10
1412.190568448439
 20
1170.108854700683
 30
0.0
 11
1377.299423149111
 21
1205.000000000011
 31
0.0
  0
LINE
  5
102
330
1F
100
AcDbEntity
  8
LAY-10
  6
CONTINUOUS
 62
     7
100
AcDbLine
 10
1470.0
 20
1112.299423149122
 30
0.0
 11
1434.125516740279
 21
1148.173906408844
 31
0.0
  0
LINE
  5
103
330
1F
100
AcDbEntity
  8
LAY-10
  6
CONTINUOUS
 62
     7
100
AcDbLine
 10
1459.581169079648
 20
1009.581169079627
 30
0.0
 11
1428.629440452377
 21
1040.532897706897
 31
0.0
  0
LINE
  5
104
330
1F
100
AcDbEntity
  8
LAY-10
  6
CONTINUOUS
 62
     7
100
AcDbLine
 10
1448.974567361849
 20
998.9745673618293
 30
0.0
 11
1416.599337001068
 21
1031.349797722611
 31
0.0
  0
LINE
  5
105
330
1F
100
AcDbEntity
  8
LAY-10
  6
CONTINUOUS
 62
     7
100
AcDbLine
 10
1284.99999999997
 20
1205.000000000053
 30
0.0
 11
1284.99999999997
 21
1207.999999999992
 31
0.0
  0
LINE
  5
106
330
1F
100
AcDbEntity
  8
LAY-10
  6
CONTINUOUS
 62
     7
100
AcDbLine
 10
1255.0
 20
1207.999999999992
 30
0.0
 11
1325.000000000069
 21
1207.999999999992
 31
0.0
  0
LINE
  5
107
330
1F
100
AcDbEntity
  8
LAY-10
  6
CONTINUOUS
 62
     7
100
AcDbLine
 10
1280.5
 20
1200.499999999993
 30
0.0
 11
1175.0
 21
1200.499999999993
 31
0.0
  0
LINE
  5
108
330
1F
100
AcDbEntity
  8
LAY-10
  6
CONTINUOUS
 62
     7
100
AcDbLine
 10
1175.0
 20
1204.999999999993
 30
0.0
 11
1284.99999999997
 21
1204.999999999993
 31
0.0
  0
ARC
  5
109
330
1F
100
AcDbEntity
  8
LAY-10
  6
CONTINUOUS
 62
     7
100
AcDbCircle
 10
1280.5
 20
1200.499999999987
 30
0.0
 40
4.5
100
AcDbArc
 50
0.0
 51
90.00000000000001
  0
LINE
  5
10A
330
1F
100
AcDbEntity
  8
LAY-10
  6
CONTINUOUS
 62
     7
100
AcDbLine
 10
1325.000000000038
 20
1208.00000000001
 30
0.0
 11
1325.000000000038
 21
1211.000000000009
 31
0.0
  0
LINE
  5
10B
330
1F
100
AcDbEntity
  8
LAY-10
  6
CONTINUOUS
 62
     7
100
AcDbLine
 10
1255.0
 20
1204.999999999993
 30
0.0
 11
1255.0
 21
1211.000000000009
 31
0.0
  0
LINE
  5
10C
330
1F
100
AcDbEntity
  8
LAY-10
  6
CONTINUOUS
 62
     7
100
AcDbLine
 10
1325.000000000038
 20
1211.000000000009
 30
0.0
 11
1255.0
 21
1211.000000000009
 31
0.0
  0
LINE
  5
10D
330
1F
100
AcDbEntity
  8
LAY-10
  6
CONTINUOUS
 62
     7
100
AcDbLine
 10
1174.999999999999
 20
1200.499999999992
 30
0.0
 11
1174.999999999999
 21
1204.99999999999
 31
0.0
  0
LINE
  5
10E
330
1F
100
AcDbEntity
  8
LAY-10
  6
CONTINUOUS
 62
     7
100
AcDbLine
 10
1259.499999999999
 20
1193.99999999999
 30
0.0
 11
1278.5
 21
1193.99999999999
 31
0.0
  0
ARC
  5
10F
330
1F
100
AcDbEntity
  8
LAY-10
  6
CONTINUOUS
 62
     7
100
AcDbCircle
 10
1280.5
 20
999.4999999999939
 30
0.0
 40
4.5
100
AcDbArc
 50
270.0
 51
0.0
  0
LINE
  5
110
330
1F
100
AcDbEntity
  8
LAY-10
  6
CONTINUOUS
 62
     7
100
AcDbLine
 10
1284.999999999969
 20
994.9999999999284
 30
0.0
 11
1284.999999999969
 21
991.9999999999885
 31
0.0
  0
LINE
  5
111
330
1F
100
AcDbEntity
  8
LAY-10
  6
CONTINUOUS
 62
     7
100
AcDbLine
 10
1254.999999999999
 20
991.9999999999885
 30
0.0
 11
1325.000000000069
 21
991.9999999999885
 31
0.0
  0
LINE
  5
112
330
1F
100
AcDbEntity
  8
LAY-10
  6
CONTINUOUS
 62
     7
100
AcDbLine
 10
1175.0
 20
999.4999999999939
 30
0.0
 11
1280.5
 21
999.4999999999931
 31
0.0
  0
LINE
  5
113
330
1F
100
AcDbEntity
  8
LAY-10
  6
CONTINUOUS
 62
     7
100
AcDbLine
 10
1175.0
 20
994.9999999999939
 30
0.0
 11
1284.999999999969
 21
994.9999999999939
 31
0.0
  0
LINE
  5
114
330
1F
100
AcDbEntity
  8
LAY-10
  6
CONTINUOUS
 62
     7
100
AcDbLine
 10
1325.000000000038
 20
991.9999999999711
 30
0.0
 11
1325.000000000038
 21
988.9999999999708
 31
0.0
  0
LINE
  5
115
330
1F
100
AcDbEntity
  8
LAY-10
  6
CONTINUOUS
 62
     7
100
AcDbLine
 10
1254.999999999999
 20
994.9999999999875
 30
0.0
 11
1254.999999999999
 21
988.9999999999708
 31
0.0
  0
LINE
  5
116
330
1F
100
AcDbEntity
  8
LAY-10
  6
CONTINUOUS
 62
     7
100
AcDbLine
 10
1325.000000000037
 20
988.9999999999708
 30
0.0
 11
1254.999999999999
 21
988.9999999999708
 31
0.0
  0
LINE
  5
117
330
1F
100
AcDbEntity
  8
LAY-10
  6
CONTINUOUS
 62
     7
100
AcDbLine
 10
1175.0
 20
995.0000000000002
 30
0.0
 11
1175.0
 21
999.4999999999939
 31
0.0
  0
LINE
  5
118
330
1F
100
AcDbEntity
  8
LAY-10
  6
CONTINUOUS
 62
     7
100
AcDbLine
 10
1259.499999999999
 20
1005.99999999999
 30
0.0
 11
1278.5
 21
1005.99999999999
 31
0.0
  0
LINE
  5
119
330
1F
100
AcDbEntity
  8
LAY-10
  6
CONTINUOUS
 62
     7
100
AcDbLine
 10
1312.505553499473
 20
989.0000000000039
 30
0.0
 11
1312.505553499473
 21
983.2248941509017
 31
0.0
  0
ARC
  5
11A
330
1F
100
AcDbEntity
  8
LAY-10
  6
CONTINUOUS
 62
     7
100
AcDbCircle
 10
1310.629165124607
 20
985.9669071402516
 30
0.0
 40
3.322569572950003
100
AcDbArc
 50
235.6157525319471
 51
304.3842474680529
  0
LINE
  5
11B
330
1F
100
AcDbEntity
  8
LAY-10
  6
CONTINUOUS
 62
     7
100
AcDbLine
 10
1308.75277674974
 20
983.2248941509017
 30
0.0
 11
1308.75277674974
 21
989.0000000000039
 31
0.0
  0
LINE
  5
11C
330
1F
100
AcDbEntity
  8
LAY-10
  6
CONTINUOUS
 62
     7
100
AcDbLine
 10
1311.250000000008
 20
982.500000000004
 30
0.0
 11
1312.505553499473
 21
983.2248941509017
 31
0.0
  0
LINE
  5
11D
330
1F
100
AcDbEntity
  8
LAY-10
  6
CONTINUOUS
 62
     7
100
AcDbLine
 10
1301.247223250274
 20
983.2248941509017
 30
0.0
 11
1301.247223250274
 21
989.0000000000039
 31
0.0
  0
ARC
  5
11E
330
1F
100
AcDbEntity
  8
LAY-10
  6
CONTINUOUS
 62
     7
100
AcDbCircle
 10
1304.999999999978
 20
995.0637809838902
 30
0.0
 40
12.41944341658879
100
AcDbArc
 50
252.412046226416
 51
287.587953773858
  0
LINE
  5
11F
330
1F
100
AcDbEntity
  8
LAY-10
  6
CONTINUOUS
 62
     7
100
AcDbLine
 10
1297.494446500542
 20
983.2248941509017
 30
0.0
 11
1297.494446500542
 21
989.0000000000049
 31
0.0
  0
LINE
  5
120
330
1F
100
AcDbEntity
  8
LAY-10
  6
CONTINUOUS
 62
     7
100
AcDbLine
 10
1297.494446500542
 20
983.2248941509017
 30
0.0
 11
1298.750000000008
 21
982.500000000004
 31
0.0
  0
ARC
  5
121
330
1F
100
AcDbEntity
  8
LAY-10
  6
CONTINUOUS
 62
     7
100
AcDbCircle
 10
1299.370834875407
 20
985.9669071402516
 30
0.0
 40
3.322569572950376
100
AcDbArc
 50
235.6157525319461
 51
304.3842474680539
  0
LINE
  5
122
330
1F
100
AcDbEntity
  8
LAY-10
  6
CONTINUOUS
 62
     7
100
AcDbLine
 10
1298.750000000008
 20
982.500000000004
 30
0.0
 11
1311.250000000008
 21
982.500000000004
 31
0.0
  0
LINE
  5
123
330
1F
100
AcDbEntity
  8
LAY-10
  6
CONTINUOUS
 62
     7
100
AcDbLine
 10
1312.505553499475
 20
974.9999999999638
 30
0.0
 11
1312.505553499475
 21
970.2248941508617
 31
0.0
  0
LINE
  5
124
330
1F
100
AcDbEntity
  8
LAY-10
  6
CONTINUOUS
 62
     7
100
AcDbLine
 10
1308.752776749742
 20
970.2248941508617
 30
0.0
 11
1308.752776749742
 21
974.9999999999638
 31
0.0
  0
LINE
  5
125
330
1F
100
AcDbEntity
  8
LAY-10
  6
CONTINUOUS
 62
     7
100
AcDbLine
 10
1311.25000000001
 20
969.4999999999629
 30
0.0
 11
1312.505553499475
 21
970.2248941508617
 31
0.0
  0
ARC
  5
126
330
1F
100
AcDbEntity
  8
LAY-10
  6
CONTINUOUS
 62
     7
100
AcDbCircle
 10
1310.629165124609
 20
972.9669071402111
 30
0.0
 40
3.322569572950003
100
AcDbArc
 50
235.6157525319471
 51
304.3842474680529
  0
LINE
  5
127
330
1F
100
AcDbEntity
  8
LAY-10
  6
CONTINUOUS
 62
     7
100
AcDbLine
 10
1301.247223250276
 20
970.2248941508617
 30
0.0
 11
1301.247223250276
 21
974.9999999999638
 31
0.0
  0
ARC
  5
128
330
1F
100
AcDbEntity
  8
LAY-10
  6
CONTINUOUS
 62
     7
100
AcDbCircle
 10
1304.99999999998
 20
982.0637809838493
 30
0.0
 40
12.41944341658879
100
AcDbArc
 50
252.412046226416
 51
287.587953773858
  0
LINE
  5
129
330
1F
100
AcDbEntity
  8
LAY-10
  6
CONTINUOUS
 62
     7
100
AcDbLine
 10
1297.494446500544
 20
970.2248941508617
 30
0.0
 11
1297.494446500544
 21
974.9999999999638
 31
0.0
  0
LINE
  5
12A
330
1F
100
AcDbEntity
  8
LAY-10
  6
CONTINUOUS
 62
     7
100
AcDbLine
 10
1297.494446500544
 20
970.2248941508617
 30
0.0
 11
1298.75000000001
 21
969.4999999999629
 31
0.0
  0
ARC
  5
12B
330
1F
100
AcDbEntity
  8
LAY-10
  6
CONTINUOUS
 62
     7
100
AcDbCircle
 10
1299.370834875409
 20
972.9669071402111
 30
0.0
 40
3.322569572950376
100
AcDbArc
 50
235.6157525319461
 51
304.3842474680539
  0
LINE
  5
12C
330
1F
100
AcDbEntity
  8
LAY-10
  6
CONTINUOUS
 62
     7
100
AcDbLine
 10
1298.75000000001
 20
969.4999999999629
 30
0.0
 11
1311.25000000001
 21
969.4999999999629
 31
0.0
  0
LINE
  5
12D
330
1F
100
AcDbEntity
  8
LAY-10
  6
CONTINUOUS
 62
     7
100
AcDbLine
 10
1297.494446500544
 20
974.9999999999638
 30
0.0
 11
1312.505553499475
 21
974.9999999999638
 31
0.0
  0
LINE
  5
12E
330
1F
100
AcDbEntity
  8
LAY-10
  6
CONTINUOUS
 62
     7
100
AcDbLine
 10
1301.000000000009
 20
974.9999999999638
 30
0.0
 11
1301.000000000007
 21
982.500000000004
 31
0.0
  0
LINE
  5
12F
330
1F
100
AcDbEntity
  8
LAY-10
  6
CONTINUOUS
 62
     7
100
AcDbLine
 10
1309.000000000007
 20
982.500000000004
 30
0.0
 11
1309.000000000009
 21
974.9999999999638
 31
0.0
  0
LINE
  5
130
330
1F
100
AcDbEntity
  8
LAY-10
  6
CONTINUOUS
 62
     7
100
AcDbLine
 10
1301.625000000011
 20
994.9999999999744
 30
0.0
 11
1301.000000000011
 21
994.3749999999744
 31
0.0
  0
LINE
  5
131
330
1F
100
AcDbEntity
  8
LAY-10
  6
CONTINUOUS
 62
     7
100
AcDbLine
 10
1301.625000000011
 20
994.9999999999744
 30
0.0
 11
1308.375000000011
 21
994.9999999999744
 31
0.0
  0
LINE
  5
132
330
1F
100
AcDbEntity
  8
LAY-10
  6
CONTINUOUS
 62
     7
100
AcDbLine
 10
1309.000000000011
 20
994.3749999999744
 30
0.0
 11
1308.375000000011
 21
994.9999999999744
 31
0.0
  0
LINE
  5
133
330
1F
100
AcDbEntity
  8
LAY-10
  6
CONTINUOUS
 62
     7
100
AcDbLine
 10
1301.000000000011
 20
994.3749999999744
 30
0.0
 11
1309.000000000011
 21
994.3749999999744
 31
0.0
  0
LINE
  5
134
330
1F
100
AcDbEntity
  8
LAY-10
  6
CONTINUOUS
 62
     7
100
AcDbLine
 10
1301.000000000011
 20
991.9999999999885
 30
0.0
 11
1301.000000000011
 21
994.3749999999744
 31
0.0
  0
LINE
  5
135
330
1F
100
AcDbEntity
  8
LAY-10
  6
CONTINUOUS
 62
     7
100
AcDbLine
 10
1309.000000000011
 20
994.3749999999744
 30
0.0
 11
1309.000000000011
 21
991.9999999999885
 31
0.0
  0
LINE
  5
136
330
1F
100
AcDbEntity
  8
LAY-10
  6
CONTINUOUS
 62
     7
100
AcDbLine
 10
1280.5
 20
999.4999999999931
 30
0.0
 11
1280.5
 21
1200.499999999993
 31
0.0
  0
LINE
  5
137
330
1F
100
AcDbEntity
  8
LAY-10
  6
CONTINUOUS
 62
     7
100
AcDbLine
 10
1285.0
 20
999.4999999999939
 30
0.0
 11
1285.0
 21
1200.499999999991
 31
0.0
  0
LINE
  5
138
330
1F
100
AcDbEntity
  8
LAY-10
  6
CONTINUOUS
 62
     7
100
AcDbLine
 10
925.000000000002
 20
1205.000000000011
 30
0.0
 11
325.0000000000016
 21
1205.000000000011
 31
0.0
  0
LINE
  5
139
330
1F
100
AcDbEntity
  8
LAY-10
  6
CONTINUOUS
 62
     7
100
AcDbLine
 10
800.0
 20
1208.000000000011
 30
0.0
 11
850.0000000000097
 21
1208.000000000011
 31
0.0
  0
LINE
  5
13A
330
1F
100
AcDbEntity
  8
LAY-10
  6
CONTINUOUS
 62
     7
100
AcDbLine
 10
450.0000000000076
 20
1208.000000000011
 30
0.0
 11
399.9999999999975
 21
1208.000000000011
 31
0.0
  0
LINE
  5
13B
330
1F
100
AcDbEntity
  8
LAY-10
  6
CONTINUOUS
 62
     7
100
AcDbLine
 10
850.000000000002
 20
1211.000000000045
 30
0.0
 11
800.0000000000023
 21
1211.000000000045
 31
0.0
  0
LINE
  5
13C
330
1F
100
AcDbEntity
  8
LAY-10
  6
CONTINUOUS
 62
     7
100
AcDbLine
 10
850.0000000000051
 20
1205.000000000011
 30
0.0
 11
850.0000000000051
 21
1211.000000000045
 31
0.0
  0
LINE
  5
13D
330
1F
100
AcDbEntity
  8
LAY-10
  6
CONTINUOUS
 62
     7
100
AcDbLine
 10
800.0000000000023
 20
1211.000000000045
 30
0.0
 11
800.0000000000023
 21
1205.000000000011
 31
0.0
  0
LINE
  5
13E
330
1F
100
AcDbEntity
  8
LAY-10
  6
CONTINUOUS
 62
     7
100
AcDbLine
 10
400.0000000000048
 20
1211.000000000045
 30
0.0
 11
450.0000000000043
 21
1211.000000000045
 31
0.0
  0
LINE
  5
13F
330
1F
100
AcDbEntity
  8
LAY-10
  6
CONTINUOUS
 62
     7
100
AcDbLine
 10
400.000000000002
 20
1205.000000000011
 30
0.0
 11
400.000000000002
 21
1211.000000000045
 31
0.0
  0
LINE
  5
140
330
1F
100
AcDbEntity
  8
LAY-10
  6
CONTINUOUS
 62
     7
100
AcDbLine
 10
450.0000000000043
 20
1211.000000000045
 30
0.0
 11
450.0000000000043
 21
1205.000000000011
 31
0.0
  0
LINE
  5
141
330
1F
100
AcDbEntity
  8
LAY-10
  6
CONTINUOUS
 62
     7
100
AcDbLine
 10
924.9999999999998
 20
1200.500000000011
 30
0.0
 11
324.9999999999996
 21
1200.500000000011
 31
0.0
  0
LINE
  5
142
330
1F
100
AcDbEntity
  8
LAY-10
  6
CONTINUOUS
 62
     7
100
AcDbLine
 10
925.000000000002
 20
1122.500000000144
 30
0.0
 11
920.5000000000024
 21
1122.500000000144
 31
0.0
  0
LINE
  5
143
330
1F
100
AcDbEntity
  8
LAY-10
  6
CONTINUOUS
 62
     7
100
AcDbLine
 10
925.000000000002
 20
1200.500000000144
 30
0.0
 11
920.5000000000024
 21
1200.500000000144
 31
0.0
  0
LINE
  5
144
330
1F
100
AcDbEntity
  8
LAY-10
  6
CONTINUOUS
 62
     7
100
AcDbLine
 10
329.5000000000016
 20
1200.500000000144
 30
0.0
 11
325.0000000000015
 21
1200.500000000144
 31
0.0
  0
LINE
  5
145
330
1F
100
AcDbEntity
  8
LAY-10
  6
CONTINUOUS
 62
     7
100
AcDbLine
 10
329.5000000000016
 20
1122.500000000144
 30
0.0
 11
325.0000000000015
 21
1122.500000000144
 31
0.0
  0
LINE
  5
146
330
1F
100
AcDbEntity
  8
LAY-10
  6
CONTINUOUS
 62
     7
100
AcDbLine
 10
913.9999999999882
 20
1118.000000000144
 30
0.0
 11
335.9999999999911
 21
1118.000000000145
 31
0.0
  0
LINE
  5
147
330
1F
100
AcDbEntity
  8
LAY-10
  6
CONTINUOUS
 62
     7
100
AcDbLine
 10
918.499999999992
 20
1200.500000000144
 30
0.0
 11
331.499999999991
 21
1200.500000000144
 31
0.0
  0
LINE
  5
148
330
1F
100
AcDbEntity
  8
LAY-10
  6
CONTINUOUS
 62
     7
100
AcDbLine
 10
918.499999999992
 20
1122.500000000144
 30
0.0
 11
331.499999999991
 21
1122.500000000144
 31
0.0
  0
LINE
  5
149
330
1F
100
AcDbEntity
  8
LAY-10
  6
CONTINUOUS
 62
     7
100
AcDbLine
 10
913.9999999999918
 20
1205.000000000144
 30
0.0
 11
335.9999999999911
 21
1205.000000000144
 31
0.0
  0
LINE
  5
14A
330
1F
100
AcDbEntity
  8
LAY-10
  6
CONTINUOUS
 62
     7
100
AcDbLine
 10
335.9999999999898
 20
1118.00000000014
 30
0.0
 11
335.9999999999898
 21
1122.500000000144
 31
0.0
  0
LINE
  5
14B
330
1F
100
AcDbEntity
  8
LAY-10
  6
CONTINUOUS
 62
     7
100
AcDbLine
 10
913.9999999999961
 20
1118.00000000014
 30
0.0
 11
913.9999999999961
 21
1122.500000000144
 31
0.0
  0
LINE
  5
14C
330
1F
100
AcDbEntity
  8
LAY-10
  6
CONTINUOUS
 62
     7
100
AcDbLine
 10
925.000000000002
 20
995.0000000000109
 30
0.0
 11
325.0000000000016
 21
995.0000000000109
 31
0.0
  0
LINE
  5
14D
330
1F
100
AcDbEntity
  8
LAY-10
  6
CONTINUOUS
 62
     7
100
AcDbLine
 10
329.5000000000016
 20
999.5000000000114
 30
0.0
 11
920.5000000000024
 21
999.5000000000114
 31
0.0
  0
LINE
  5
14E
330
1F
100
AcDbEntity
  8
LAY-10
  6
CONTINUOUS
 62
     7
100
AcDbLine
 10
325.0000000000016
 20
995.0000000000109
 30
0.0
 11
329.5000000000005
 21
999.5000000000102
 31
0.0
  0
LINE
  5
14F
330
1F
100
AcDbEntity
  8
LAY-10
  6
CONTINUOUS
 62
     7
100
AcDbLine
 10
924.9999999999994
 20
995.0000000000109
 30
0.0
 11
920.4999999999993
 21
999.5000000000114
 31
0.0
  0
LINE
  5
150
330
1F
100
AcDbEntity
  8
LAY-10
  6
CONTINUOUS
 62
     7
100
AcDbLine
 10
450.0000000000076
 20
992.0000000000118
 30
0.0
 11
399.9999999999975
 21
992.0000000000118
 31
0.0
  0
LINE
  5
151
330
1F
100
AcDbEntity
  8
LAY-10
  6
CONTINUOUS
 62
     7
100
AcDbLine
 10
800.0
 20
992.0000000000118
 30
0.0
 11
850.0000000000097
 21
992.0000000000118
 31
0.0
  0
LINE
  5
152
330
1F
100
AcDbEntity
  8
LAY-10
  6
CONTINUOUS
 62
     7
100
AcDbLine
 10
400.0000000000048
 20
989.0000000000782
 30
0.0
 11
450.0000000000043
 21
989.0000000000782
 31
0.0
  0
LINE
  5
153
330
1F
100
AcDbEntity
  8
LAY-10
  6
CONTINUOUS
 62
     7
100
AcDbLine
 10
400.000000000002
 20
995.000000000012
 30
0.0
 11
400.000000000002
 21
989.0000000000782
 31
0.0
  0
LINE
  5
154
330
1F
100
AcDbEntity
  8
LAY-10
  6
CONTINUOUS
 62
     7
100
AcDbLine
 10
450.0000000000043
 20
989.0000000000782
 30
0.0
 11
450.0000000000043
 21
995.000000000012
 31
0.0
  0
LINE
  5
155
330
1F
100
AcDbEntity
  8
LAY-10
  6
CONTINUOUS
 62
     7
100
AcDbLine
 10
850.000000000002
 20
989.0000000000778
 30
0.0
 11
800.0000000000023
 21
989.0000000000778
 31
0.0
  0
LINE
  5
156
330
1F
100
AcDbEntity
  8
LAY-10
  6
CONTINUOUS
 62
     7
100
AcDbLine
 10
850.0000000000051
 20
995.000000000012
 30
0.0
 11
850.0000000000051
 21
989.0000000000778
 31
0.0
  0
LINE
  5
157
330
1F
100
AcDbEntity
  8
LAY-10
  6
CONTINUOUS
 62
     7
100
AcDbLine
 10
800.0000000000023
 20
989.0000000000778
 30
0.0
 11
800.0000000000023
 21
995.000000000012
 31
0.0
  0
LINE
  5
158
330
1F
100
AcDbEntity
  8
LAY-10
  6
CONTINUOUS
 62
     7
100
AcDbLine
 10
331.4999999999911
 20
1001.500000000011
 30
0.0
 11
918.499999999992
 21
1001.500000000011
 31
0.0
  0
LINE
  5
159
330
1F
100
AcDbEntity
  8
LAY-10
  6
CONTINUOUS
 62
     7
100
AcDbLine
 10
335.9999999999911
 20
1006.00000000001
 30
0.0
 11
913.9999999999924
 21
1006.00000000001
 31
0.0
  0
LINE
  5
15A
330
1F
100
AcDbEntity
  8
LAY-10
  6
CONTINUOUS
 62
     7
100
AcDbLine
 10
335.9999999999883
 20
1006.000000000011
 30
0.0
 11
331.4999999999884
 21
1001.500000000012
 31
0.0
  0
LINE
  5
15B
330
1F
100
AcDbEntity
  8
LAY-10
  6
CONTINUOUS
 62
     7
100
AcDbLine
 10
913.9999999999981
 20
1006.000000000011
 30
0.0
 11
918.4999999999977
 21
1001.500000000012
 31
0.0
  0
LINE
  5
15C
330
1F
100
AcDbEntity
  8
LAY-10
  6
CONTINUOUS
 62
     7
100
AcDbLine
 10
832.5055534994743
 20
989.0000000000255
 30
0.0
 11
832.5055534994743
 21
983.2248941509233
 31
0.0
  0
ARC
  5
15D
330
1F
100
AcDbEntity
  8
LAY-10
  6
CONTINUOUS
 62
     7
100
AcDbCircle
 10
830.6291651246079
 20
985.9669071402732
 30
0.0
 40
3.322569572950003
100
AcDbArc
 50
235.6157525319471
 51
304.3842474680529
  0
LINE
  5
15E
330
1F
100
AcDbEntity
  8
LAY-10
  6
CONTINUOUS
 62
     7
100
AcDbLine
 10
828.7527767497409
 20
983.2248941509233
 30
0.0
 11
828.7527767497409
 21
989.0000000000255
 31
0.0
  0
LINE
  5
15F
330
1F
100
AcDbEntity
  8
LAY-10
  6
CONTINUOUS
 62
     7
100
AcDbLine
 10
831.2500000000091
 20
982.5000000000257
 30
0.0
 11
832.5055534994743
 21
983.2248941509233
 31
0.0
  0
LINE
  5
160
330
1F
100
AcDbEntity
  8
LAY-10
  6
CONTINUOUS
 62
     7
100
AcDbLine
 10
821.247223250275
 20
983.2248941509233
 30
0.0
 11
821.247223250275
 21
989.0000000000255
 31
0.0
  0
ARC
  5
161
330
1F
100
AcDbEntity
  8
LAY-10
  6
CONTINUOUS
 62
     7
100
AcDbCircle
 10
824.999999999979
 20
995.0637809839118
 30
0.0
 40
12.41944341658879
100
AcDbArc
 50
252.412046226416
 51
287.587953773858
  0
LINE
  5
162
330
1F
100
AcDbEntity
  8
LAY-10
  6
CONTINUOUS
 62
     7
100
AcDbLine
 10
817.4944465005427
 20
983.2248941509233
 30
0.0
 11
817.4944465005427
 21
989.0000000000266
 31
0.0
  0
LINE
  5
163
330
1F
100
AcDbEntity
  8
LAY-10
  6
CONTINUOUS
 62
     7
100
AcDbLine
 10
817.4944465005427
 20
983.2248941509233
 30
0.0
 11
818.7500000000091
 21
982.5000000000257
 31
0.0
  0
ARC
  5
164
330
1F
100
AcDbEntity
  8
LAY-10
  6
CONTINUOUS
 62
     7
100
AcDbCircle
 10
819.370834875408
 20
985.9669071402732
 30
0.0
 40
3.322569572950376
100
AcDbArc
 50
235.6157525319461
 51
304.3842474680539
  0
LINE
  5
165
330
1F
100
AcDbEntity
  8
LAY-10
  6
CONTINUOUS
 62
     7
100
AcDbLine
 10
818.7500000000091
 20
982.5000000000257
 30
0.0
 11
831.2500000000091
 21
982.5000000000257
 31
0.0
  0
LINE
  5
166
330
1F
100
AcDbEntity
  8
LAY-10
  6
CONTINUOUS
 62
     7
100
AcDbLine
 10
832.5055534994755
 20
974.9999999999859
 30
0.0
 11
832.5055534994755
 21
970.2248941508833
 31
0.0
  0
LINE
  5
167
330
1F
100
AcDbEntity
  8
LAY-10
  6
CONTINUOUS
 62
     7
100
AcDbLine
 10
828.7527767497426
 20
970.2248941508833
 30
0.0
 11
828.7527767497426
 21
974.9999999999859
 31
0.0
  0
LINE
  5
168
330
1F
100
AcDbEntity
  8
LAY-10
  6
CONTINUOUS
 62
     7
100
AcDbLine
 10
831.2500000000114
 20
969.4999999999845
 30
0.0
 11
832.5055534994755
 21
970.2248941508833
 31
0.0
  0
ARC
  5
169
330
1F
100
AcDbEntity
  8
LAY-10
  6
CONTINUOUS
 62
     7
100
AcDbCircle
 10
830.6291651246096
 20
972.9669071402327
 30
0.0
 40
3.322569572950003
100
AcDbArc
 50
235.6157525319471
 51
304.3842474680529
  0
LINE
  5
16A
330
1F
100
AcDbEntity
  8
LAY-10
  6
CONTINUOUS
 62
     7
100
AcDbLine
 10
821.2472232502773
 20
970.2248941508833
 30
0.0
 11
821.2472232502773
 21
974.9999999999859
 31
0.0
  0
ARC
  5
16B
330
1F
100
AcDbEntity
  8
LAY-10
  6
CONTINUOUS
 62
     7
100
AcDbCircle
 10
824.9999999999801
 20
982.0637809838713
 30
0.0
 40
12.41944341658879
100
AcDbArc
 50
252.412046226416
 51
287.587953773858
  0
LINE
  5
16C
330
1F
100
AcDbEntity
  8
LAY-10
  6
CONTINUOUS
 62
     7
100
AcDbLine
 10
817.4944465005456
 20
970.2248941508833
 30
0.0
 11
817.4944465005456
 21
974.9999999999859
 31
0.0
  0
LINE
  5
16D
330
1F
100
AcDbEntity
  8
LAY-10
  6
CONTINUOUS
 62
     7
100
AcDbLine
 10
817.4944465005456
 20
970.2248941508833
 30
0.0
 11
818.7500000000114
 21
969.4999999999845
 31
0.0
  0
ARC
  5
16E
330
1F
100
AcDbEntity
  8
LAY-10
  6
CONTINUOUS
 62
     7
100
AcDbCircle
 10
819.3708348754103
 20
972.9669071402327
 30
0.0
 40
3.322569572950376
100
AcDbArc
 50
235.6157525319461
 51
304.3842474680539
  0
LINE
  5
16F
330
1F
100
AcDbEntity
  8
LAY-10
  6
CONTINUOUS
 62
     7
100
AcDbLine
 10
818.7500000000114
 20
969.4999999999845
 30
0.0
 11
831.2500000000114
 21
969.4999999999845
 31
0.0
  0
LINE
  5
170
330
1F
100
AcDbEntity
  8
LAY-10
  6
CONTINUOUS
 62
     7
100
AcDbLine
 10
817.4944465005456
 20
974.9999999999859
 30
0.0
 11
832.5055534994755
 21
974.9999999999859
 31
0.0
  0
LINE
  5
171
330
1F
100
AcDbEntity
  8
LAY-10
  6
CONTINUOUS
 62
     7
100
AcDbLine
 10
821.0000000000105
 20
974.9999999999859
 30
0.0
 11
821.0000000000082
 21
982.5000000000257
 31
0.0
  0
LINE
  5
172
330
1F
100
AcDbEntity
  8
LAY-10
  6
CONTINUOUS
 62
     7
100
AcDbLine
 10
829.0000000000077
 20
982.5000000000257
 30
0.0
 11
829.00000000001
 21
974.9999999999859
 31
0.0
  0
LINE
  5
173
330
1F
100
AcDbEntity
  8
LAY-10
  6
CONTINUOUS
 62
     7
100
AcDbLine
 10
417.4944465005332
 20
989.0000000000255
 30
0.0
 11
417.4944465005332
 21
983.2248941509233
 31
0.0
  0
ARC
  5
174
330
1F
100
AcDbEntity
  8
LAY-10
  6
CONTINUOUS
 62
     7
100
AcDbCircle
 10
419.3708348753994
 20
985.9669071402727
 30
0.0
 40
3.322569572950003
100
AcDbArc
 50
235.6157525319479
 51
304.3842474680521
  0
LINE
  5
175
330
1F
100
AcDbEntity
  8
LAY-10
  6
CONTINUOUS
 62
     7
100
AcDbLine
 10
421.2472232502664
 20
983.2248941509233
 30
0.0
 11
421.2472232502664
 21
989.0000000000255
 31
0.0
  0
LINE
  5
176
330
1F
100
AcDbEntity
  8
LAY-10
  6
CONTINUOUS
 62
     7
100
AcDbLine
 10
418.7499999999982
 20
982.5000000000257
 30
0.0
 11
417.4944465005332
 21
983.2248941509233
 31
0.0
  0
LINE
  5
177
330
1F
100
AcDbEntity
  8
LAY-10
  6
CONTINUOUS
 62
     7
100
AcDbLine
 10
428.7527767497322
 20
983.2248941509233
 30
0.0
 11
428.7527767497322
 21
989.0000000000255
 31
0.0
  0
ARC
  5
178
330
1F
100
AcDbEntity
  8
LAY-10
  6
CONTINUOUS
 62
     7
100
AcDbCircle
 10
425.0000000000286
 20
995.0637809839118
 30
0.0
 40
12.41944341658879
100
AcDbArc
 50
252.412046226142
 51
287.587953773584
  0
LINE
  5
179
330
1F
100
AcDbEntity
  8
LAY-10
  6
CONTINUOUS
 62
     7
100
AcDbLine
 10
432.5055534994648
 20
983.2248941509233
 30
0.0
 11
432.5055534994648
 21
989.0000000000266
 31
0.0
  0
LINE
  5
17A
330
1F
100
AcDbEntity
  8
LAY-10
  6
CONTINUOUS
 62
     7
100
AcDbLine
 10
432.5055534994648
 20
983.2248941509233
 30
0.0
 11
431.2499999999982
 21
982.5000000000257
 31
0.0
  0
ARC
  5
17B
330
1F
100
AcDbEntity
  8
LAY-10
  6
CONTINUOUS
 62
     7
100
AcDbCircle
 10
430.6291651245992
 20
985.9669071402727
 30
0.0
 40
3.322569572950376
100
AcDbArc
 50
235.6157525319461
 51
304.3842474680539
  0
LINE
  5
17C
330
1F
100
AcDbEntity
  8
LAY-10
  6
CONTINUOUS
 62
     7
100
AcDbLine
 10
431.2499999999982
 20
982.5000000000257
 30
0.0
 11
418.7499999999982
 21
982.5000000000257
 31
0.0
  0
LINE
  5
17D
330
1F
100
AcDbEntity
  8
LAY-10
  6
CONTINUOUS
 62
     7
100
AcDbLine
 10
417.4944465005315
 20
974.9999999999859
 30
0.0
 11
417.4944465005315
 21
970.2248941508828
 31
0.0
  0
LINE
  5
17E
330
1F
100
AcDbEntity
  8
LAY-10
  6
CONTINUOUS
 62
     7
100
AcDbLine
 10
421.247223250265
 20
970.2248941508828
 30
0.0
 11
421.247223250265
 21
974.9999999999859
 31
0.0
  0
LINE
  5
17F
330
1F
100
AcDbEntity
  8
LAY-10
  6
CONTINUOUS
 62
     7
100
AcDbLine
 10
418.7499999999959
 20
969.4999999999845
 30
0.0
 11
417.4944465005315
 21
970.2248941508828
 31
0.0
  0
ARC
  5
180
330
1F
100
AcDbEntity
  8
LAY-10
  6
CONTINUOUS
 62
     7
100
AcDbCircle
 10
419.370834875398
 20
972.9669071402323
 30
0.0
 40
3.322569572950003
100
AcDbArc
 50
235.6157525319479
 51
304.3842474680521
  0
LINE
  5
181
330
1F
100
AcDbEntity
  8
LAY-10
  6
CONTINUOUS
 62
     7
100
AcDbLine
 10
428.7527767497299
 20
970.2248941508828
 30
0.0
 11
428.7527767497299
 21
974.9999999999859
 31
0.0
  0
ARC
  5
182
330
1F
100
AcDbEntity
  8
LAY-10
  6
CONTINUOUS
 62
     7
100
AcDbCircle
 10
425.0000000000269
 20
982.0637809838713
 30
0.0
 40
12.41944341658879
100
AcDbArc
 50
252.412046226142
 51
287.587953773584
  0
LINE
  5
183
330
1F
100
AcDbEntity
  8
LAY-10
  6
CONTINUOUS
 62
     7
100
AcDbLine
 10
432.5055534994617
 20
970.2248941508828
 30
0.0
 11
432.5055534994617
 21
974.9999999999859
 31
0.0
  0
LINE
  5
184
330
1F
100
AcDbEntity
  8
LAY-10
  6
CONTINUOUS
 62
     7
100
AcDbLine
 10
432.5055534994617
 20
970.2248941508828
 30
0.0
 11
431.2499999999959
 21
969.4999999999845
 31
0.0
  0
ARC
  5
185
330
1F
100
AcDbEntity
  8
LAY-10
  6
CONTINUOUS
 62
     7
100
AcDbCircle
 10
430.629165124597
 20
972.9669071402323
 30
0.0
 40
3.322569572950376
100
AcDbArc
 50
235.6157525319461
 51
304.3842474680539
  0
LINE
  5
186
330
1F
100
AcDbEntity
  8
LAY-10
  6
CONTINUOUS
 62
     7
100
AcDbLine
 10
431.2499999999959
 20
969.4999999999845
 30
0.0
 11
418.7499999999959
 21
969.4999999999845
 31
0.0
  0
LINE
  5
187
330
1F
100
AcDbEntity
  8
LAY-10
  6
CONTINUOUS
 62
     7
100
AcDbLine
 10
432.5055534994617
 20
974.9999999999859
 30
0.0
 11
417.4944465005315
 21
974.9999999999859
 31
0.0
  0
LINE
  5
188
330
1F
100
AcDbEntity
  8
LAY-10
  6
CONTINUOUS
 62
     7
100
AcDbLine
 10
428.9999999999968
 20
974.9999999999859
 30
0.0
 11
428.9999999999991
 21
982.500000000025
 31
0.0
  0
LINE
  5
189
330
1F
100
AcDbEntity
  8
LAY-10
  6
CONTINUOUS
 62
     7
100
AcDbLine
 10
420.9999999999995
 20
982.500000000025
 30
0.0
 11
420.9999999999973
 21
974.9999999999859
 31
0.0
  0
LINE
  5
18A
330
1F
100
AcDbEntity
  8
LAY-10
  6
CONTINUOUS
 62
     7
100
AcDbLine
 10
913.999999999995
 20
1124.500000000128
 30
0.0
 11
913.999999999995
 21
1006.00000000001
 31
0.0
  0
LINE
  5
18B
330
1F
100
AcDbEntity
  8
LAY-10
  6
CONTINUOUS
 62
     7
100
AcDbLine
 10
335.9999999999911
 20
1124.500000000128
 30
0.0
 11
335.9999999999911
 21
1006.00000000001
 31
0.0
  0
LINE
  5
18C
330
1F
100
AcDbEntity
  8
LAY-10
  6
CONTINUOUS
 62
     7
100
AcDbLine
 10
325.0000000000015
 20
995.0000000000109
 30
0.0
 11
325.0000000000015
 21
1204.999999999997
 31
0.0
  0
LINE
  5
18D
330
1F
100
AcDbEntity
  8
LAY-10
  6
CONTINUOUS
 62
     7
100
AcDbLine
 10
925.000000000002
 20
995.0000000000109
 30
0.0
 11
925.000000000002
 21
1204.999999999997
 31
0.0
  0
ARC
  5
18E
330
1F
100
AcDbEntity
  8
LAY-10
  6
CONTINUOUS
 62
     7
100
AcDbCircle
 10
1252.999999999897
 20
1074.572756886484
 30
0.0
 40
2.0
100
AcDbArc
 50
0.0
 51
90.00000000000001
  0
ARC
  5
18F
330
1F
100
AcDbEntity
  8
LAY-10
  6
CONTINUOUS
 62
     7
100
AcDbCircle
 10
1252.999999999897
 20
1049.572756886451
 30
0.0
 40
2.0
100
AcDbArc
 50
270.0
 51
0.0
  0
LINE
  5
190
330
1F
100
AcDbEntity
  8
LAY-10
  6
CONTINUOUS
 62
     7
100
AcDbLine
 10
1252.999999999897
 20
1074.572756886469
 30
0.0
 11
1252.999999999897
 21
1049.572756886469
 31
0.0
  0
LINE
  5
191
330
1F
100
AcDbEntity
  8
LAY-10
  6
CONTINUOUS
 62
     7
100
AcDbLine
 10
1246.999999999897
 20
1076.572756886485
 30
0.0
 11
1252.999999999897
 21
1076.572756886485
 31
0.0
  0
LINE
  5
192
330
1F
100
AcDbEntity
  8
LAY-10
  6
CONTINUOUS
 62
     7
100
AcDbLine
 10
1246.999999999897
 20
1074.572756886469
 30
0.0
 11
1252.999999999897
 21
1074.572756886469
 31
0.0
  0
ARC
  5
193
330
1F
100
AcDbEntity
  8
LAY-10
  6
CONTINUOUS
 62
     7
100
AcDbCircle
 10
1246.999999999897
 20
1076.57275688647
 30
0.0
 40
2.0
100
AcDbArc
 50
180.0
 51
270.0
  0
LINE
  5
194
330
1F
100
AcDbEntity
  8
LAY-10
  6
CONTINUOUS
 62
     7
100
AcDbLine
 10
1246.999999999897
 20
1047.572756886451
 30
0.0
 11
1252.999999999897
 21
1047.572756886451
 31
0.0
  0
LINE
  5
195
330
1F
100
AcDbEntity
  8
LAY-10
  6
CONTINUOUS
 62
     7
100
AcDbLine
 10
1246.999999999897
 20
1049.572756886465
 30
0.0
 11
1252.999999999897
 21
1049.572756886465
 31
0.0
  0
ARC
  5
196
330
1F
100
AcDbEntity
  8
LAY-10
  6
CONTINUOUS
 62
     7
100
AcDbCircle
 10
1246.999999999897
 20
1047.572756886465
 30
0.0
 40
2.0
100
AcDbArc
 50
90.00000000000001
 51
180.0
  0
LINE
  5
197
330
1F
100
AcDbEntity
  8
LAY-10
  6
CONTINUOUS
 62
     7
100
AcDbLine
 10
1244.999999999897
 20
1042.072756886465
 30
0.0
 11
1246.999999999897
 21
1042.072756886465
 31
0.0
  0
LINE
  5
198
330
1F
100
AcDbEntity
  8
LAY-10
  6
CONTINUOUS
 62
     7
100
AcDbLine
 10
1244.999999999897
 20
1082.072756886469
 30
0.0
 11
1246.999999999897
 21
1082.072756886469
 31
0.0
  0
LINE
  5
199
330
1F
100
AcDbEntity
  8
LAY-10
  6
CONTINUOUS
 62
     7
100
AcDbLine
 10
1246.999999999898
 20
1042.072756886465
 30
0.0
 11
1246.999999999898
 21
1047.572756886441
 31
0.0
  0
LINE
  5
19A
330
1F
100
AcDbEntity
  8
LAY-10
  6
CONTINUOUS
 62
     7
100
AcDbLine
 10
1244.999999999898
 20
1042.072756886465
 30
0.0
 11
1244.999999999898
 21
1047.572756886441
 31
0.0
  0
LINE
  5
19B
330
1F
100
AcDbEntity
  8
LAY-10
  6
CONTINUOUS
 62
     7
100
AcDbLine
 10
1246.999999999898
 20
1082.072756886468
 30
0.0
 11
1246.999999999898
 21
1076.572756886441
 31
0.0
  0
LINE
  5
19C
330
1F
100
AcDbEntity
  8
LAY-10
  6
CONTINUOUS
 62
     7
100
AcDbLine
 10
1244.999999999898
 20
1076.572756886441
 30
0.0
 11
1244.999999999898
 21
1082.072756886468
 31
0.0
  0
LINE
  5
19D
330
1F
100
AcDbEntity
  8
LAY-10
  6
CONTINUOUS
 62
     7
100
AcDbLine
 10
1175.000000000001
 20
1005.999999999912
 30
0.0
 11
1255.0
 21
1005.999999999912
 31
0.0
  0
LINE
  5
19E
330
1F
100
AcDbEntity
  8
LAY-10
  6
CONTINUOUS
 62
     7
100
AcDbLine
 10
1255.0
 20
1001.499999999912
 30
0.0
 11
1175.000000000001
 21
1001.499999999912
 31
0.0
  0
ARC
  5
19F
330
1F
100
AcDbEntity
  8
LAY-10
  6
CONTINUOUS
 62
     7
100
AcDbCircle
 10
1255.0
 20
1005.999999999912
 30
0.0
 40
4.5
100
AcDbArc
 50
270.0
 51
0.0
  0
LINE
  5
1A0
330
1F
100
AcDbEntity
  8
LAY-10
  6
CONTINUOUS
 62
     7
100
AcDbLine
 10
920.5000000000024
 20
999.5000000000114
 30
0.0
 11
920.5000000000024
 21
1124.50000000013
 31
0.0
  0
LINE
  5
1A1
330
1F
100
AcDbEntity
  8
LAY-10
  6
CONTINUOUS
 62
     7
100
AcDbLine
 10
920.5000000000024
 20
1198.50000000005
 30
0.0
 11
920.5000000000024
 21
1200.50000000001
 31
0.0
  0
LINE
  5
1A2
330
1F
100
AcDbEntity
  8
LAY-10
  6
CONTINUOUS
 62
     7
100
AcDbLine
 10
918.4999999999951
 20
1124.50000000013
 30
0.0
 11
918.4999999999951
 21
1001.500000000011
 31
0.0
  0
LINE
  5
1A3
330
1F
100
AcDbEntity
  8
LAY-10
  6
CONTINUOUS
 62
     7
100
AcDbLine
 10
329.5000000000016
 20
1200.50000000001
 30
0.0
 11
329.5000000000016
 21
1198.50000000005
 31
0.0
  0
LINE
  5
1A4
330
1F
100
AcDbEntity
  8
LAY-10
  6
CONTINUOUS
 62
     7
100
AcDbLine
 10
329.5000000000016
 20
1124.50000000013
 30
0.0
 11
329.5000000000016
 21
999.5000000000114
 31
0.0
  0
LINE
  5
1A5
330
1F
100
AcDbEntity
  8
LAY-10
  6
CONTINUOUS
 62
     7
100
AcDbLine
 10
331.499999999991
 20
1124.50000000013
 30
0.0
 11
331.499999999991
 21
1001.500000000011
 31
0.0
  0
LINE
  5
1A6
330
1F
100
AcDbEntity
  8
LAY-10
  6
CONTINUOUS
 62
     7
100
AcDbLine
 10
1175.000000000002
 20
1122.499999999946
 30
0.0
 11
1175.000000000001
 21
1001.499999999912
 31
0.0
  0
ARC
  5
1A7
330
1F
100
AcDbEntity
  8
LAY-10
  6
CONTINUOUS
 62
     7
100
AcDbCircle
 10
1255.000000000001
 20
1193.999999999928
 30
0.0
 40
4.5
100
AcDbArc
 50
0.0
 51
90.00000000000001
  0
LINE
  5
1A8
330
1F
100
AcDbEntity
  8
LAY-10
  6
CONTINUOUS
 62
     7
100
AcDbLine
 10
1200.000000000086
 20
1198.499999999928
 30
0.0
 11
1255.000000000001
 21
1198.499999999928
 31
0.0
  0
LINE
  5
1A9
330
1F
100
AcDbEntity
  8
LAY-10
  6
CONTINUOUS
 62
     7
100
AcDbLine
 10
1209.00000000011
 20
1193.999999999927
 30
0.0
 11
1255.000000000002
 21
1193.999999999927
 31
0.0
  0
LINE
  5
1AA
330
1F
100
AcDbEntity
  8
LAY-10
  6
CONTINUOUS
 62
     7
100
AcDbLine
 10
1259.5
 20
1184.999999999861
 30
0.0
 11
1255.000000000001
 21
1184.999999999861
 31
0.0
  0
LINE
  5
1AB
330
1F
100
AcDbEntity
  8
LAY-10
  6
CONTINUOUS
 62
     7
100
AcDbLine
 10
1259.5
 20
1134.999999999863
 30
0.0
 11
1255.0
 21
1134.999999999863
 31
0.0
  0
LINE
  5
1AC
330
1F
100
AcDbEntity
  8
LAY-10
  6
CONTINUOUS
 62
     7
100
AcDbLine
 10
1175.00000000003
 20
1117.999999999862
 30
0.0
 11
1255.000000000001
 21
1117.999999999862
 31
0.0
  0
LINE
  5
1AD
330
1F
100
AcDbEntity
  8
LAY-10
  6
CONTINUOUS
 62
     7
100
AcDbLine
 10
1175.0
 20
1122.4999999999
 30
0.0
 11
1255.0
 21
1122.4999999999
 31
0.0
  0
LINE
  5
1AE
330
1F
100
AcDbEntity
  8
LAY-10
  6
CONTINUOUS
 62
     7
100
AcDbLine
 10
1255.0
 20
1005.999999999908
 30
0.0
 11
1255.0
 21
1193.999999999927
 31
0.0
  0
LINE
  5
1AF
330
1F
100
AcDbEntity
  8
LAY-10
  6
CONTINUOUS
 62
     7
100
AcDbLine
 10
1259.5
 20
1005.999999999912
 30
0.0
 11
1259.5
 21
1193.999999999928
 31
0.0
  0
LINE
  5
1B0
330
1F
100
AcDbEntity
  8
LAY-10
  6
CONTINUOUS
 62
     7
100
AcDbLine
 10
1301.000000000108
 20
1216.99999999998
 30
0.0
 11
1309.000000000108
 21
1216.99999999998
 31
0.0
  0
LINE
  5
1B1
330
1F
100
AcDbEntity
  8
LAY-10
  6
CONTINUOUS
 62
     7
100
AcDbLine
 10
1304.000000000108
 20
1204.99999999998
 30
0.0
 11
1301.00000000011
 21
1207.999999999979
 31
0.0
  0
LINE
  5
1B2
330
1F
100
AcDbEntity
  8
LAY-10
  6
CONTINUOUS
 62
     7
100
AcDbLine
 10
1306.00000000011
 20
1204.99999999998
 30
0.0
 11
1309.000000000109
 21
1207.999999999979
 31
0.0
  0
LINE
  5
1B3
330
1F
100
AcDbEntity
  8
LAY-10
  6
CONTINUOUS
 62
     7
100
AcDbLine
 10
1304.000000000108
 20
1204.999999999977
 30
0.0
 11
1306.000000000108
 21
1204.999999999977
 31
0.0
  0
LINE
  5
1B4
330
1F
100
AcDbEntity
  8
LAY-10
  6
CONTINUOUS
 62
     7
100
AcDbLine
 10
1301.00000000011
 20
1211.000000000009
 30
0.0
 11
1301.00000000011
 21
1216.99999999998
 31
0.0
  0
LINE
  5
1B5
330
1F
100
AcDbEntity
  8
LAY-10
  6
CONTINUOUS
 62
     7
100
AcDbLine
 10
1309.000000000109
 20
1211.000000000009
 30
0.0
 11
1309.000000000109
 21
1216.99999999998
 31
0.0
  0
LINE
  5
1B6
330
1F
100
AcDbEntity
  8
LAY-10
  6
CONTINUOUS
 62
     7
100
AcDbLine
 10
821.0000000000084
 20
1216.99999999998
 30
0.0
 11
829.0000000000084
 21
1216.99999999998
 31
0.0
  0
LINE
  5
1B7
330
1F
100
AcDbEntity
  8
LAY-10
  6
CONTINUOUS
 62
     7
100
AcDbLine
 10
821.0000000000095
 20
1211.000000000009
 30
0.0
 11
821.0000000000095
 21
1216.99999999998
 31
0.0
  0
LINE
  5
1B8
330
1F
100
AcDbEntity
  8
LAY-10
  6
CONTINUOUS
 62
     7
100
AcDbLine
 10
829.0000000000091
 20
1211.000000000009
 30
0.0
 11
829.0000000000091
 21
1216.99999999998
 31
0.0
  0
LINE
  5
1B9
330
1F
100
AcDbEntity
  8
LAY-10
  6
CONTINUOUS
 62
     7
100
AcDbLine
 10
420.9999999999985
 20
1216.99999999998
 30
0.0
 11
428.9999999999985
 21
1216.99999999998
 31
0.0
  0
LINE
  5
1BA
330
1F
100
AcDbEntity
  8
LAY-10
  6
CONTINUOUS
 62
     7
100
AcDbLine
 10
420.9999999999997
 20
1211.000000000009
 30
0.0
 11
420.9999999999997
 21
1216.99999999998
 31
0.0
  0
LINE
  5
1BB
330
1F
100
AcDbEntity
  8
LAY-10
  6
CONTINUOUS
 62
     7
100
AcDbLine
 10
428.9999999999992
 20
1211.000000000009
 30
0.0
 11
428.9999999999992
 21
1216.99999999998
 31
0.0
  0
LINE
  5
1BC
330
1F
100
AcDbEntity
  8
LAY-10
  6
CONTINUOUS
 62
     7
100
AcDbLine
 10
1280.5
 20
1174.99999999999
 30
0.0
 11
1285.0
 21
1174.99999999999
 31
0.0
  0
LINE
  5
1BD
330
1F
100
AcDbEntity
  8
LAY-10
  6
CONTINUOUS
 62
     7
100
AcDbLine
 10
1280.5
 20
1175.00000000001
 30
0.0
 11
1278.5
 21
1175.00000000001
 31
0.0
  0
LINE
  5
1BE
330
1F
100
AcDbEntity
  8
LAY-10
  6
CONTINUOUS
 62
     7
100
AcDbLine
 10
1278.5
 20
1200.000000000096
 30
0.0
 11
1280.5
 21
1200.000000000096
 31
0.0
  0
LINE
  5
1BF
330
1F
100
AcDbEntity
  8
LAY-10
  6
CONTINUOUS
 62
     7
100
AcDbLine
 10
1280.5
 20
1024.99999999998
 30
0.0
 11
1285.0
 21
1024.99999999998
 31
0.0
  0
LINE
  5
1C0
330
1F
100
AcDbEntity
  8
LAY-10
  6
CONTINUOUS
 62
     7
100
AcDbLine
 10
1280.5
 20
1024.99999999996
 30
0.0
 11
1278.5
 21
1024.99999999996
 31
0.0
  0
LINE
  5
1C1
330
1F
100
AcDbEntity
  8
LAY-10
  6
CONTINUOUS
 62
     7
100
AcDbLine
 10
1280.5
 20
1024.999999999919
 30
0.0
 11
1278.5
 21
1024.999999999919
 31
0.0
  0
LINE
  5
1C2
330
1F
100
AcDbEntity
  8
LAY-10
  6
CONTINUOUS
 62
     7
100
AcDbLine
 10
1278.5
 20
999.9999999998338
 30
0.0
 11
1280.5
 21
999.9999999998338
 31
0.0
  0
LINE
  5
1C3
330
1F
100
AcDbEntity
  8
LAY-10
  6
CONTINUOUS
 62
     7
100
AcDbLine
 10
1278.499999999999
 20
999.9999999998338
 30
0.0
 11
1278.499999999999
 21
1200.000000000096
 31
0.0
  0
LINE
  5
1C4
330
1F
100
AcDbEntity
  8
LAY-10
  6
CONTINUOUS
 62
     7
100
AcDbLine
 10
1180.00000000002
 20
1198.499999999897
 30
0.0
 11
1180.00000000002
 21
1197.499999999897
 31
0.0
  0
ARC
  5
1C5
330
1F
100
AcDbEntity
  8
LAY-10
  6
CONTINUOUS
 62
     7
100
AcDbCircle
 10
1199.00000000001
 20
1195.548750780175
 30
0.0
 40
1.0
100
AcDbArc
 50
0.0
 51
87.13759477388678
  0
ARC
  5
1C6
330
1F
100
AcDbEntity
  8
LAY-10
  6
CONTINUOUS
 62
     7
100
AcDbCircle
 10
1199.00000000001
 20
1191.451249219725
 30
0.0
 40
1.0
100
AcDbArc
 50
272.8624052261135
 51
0.0
  0
ARC
  5
1C7
330
1F
100
AcDbEntity
  8
LAY-10
  6
CONTINUOUS
 62
     7
100
AcDbCircle
 10
1197.00000000002
 20
1188.347501560551
 30
0.0
 40
2.0
100
AcDbArc
 50
92.86240522611305
 51
180.0
  0
ARC
  5
1C8
330
1F
100
AcDbEntity
  8
LAY-10
  6
CONTINUOUS
 62
     7
100
AcDbCircle
 10
1197.00000000002
 20
1134.652498439342
 30
0.0
 40
2.0
100
AcDbArc
 50
180.0
 51
267.1375947738866
  0
ARC
  5
1C9
330
1F
100
AcDbEntity
  8
LAY-10
  6
CONTINUOUS
 62
     7
100
AcDbCircle
 10
1199.00000000001
 20
1131.548750780168
 30
0.0
 40
1.0
100
AcDbArc
 50
0.0
 51
87.13759477388751
  0
ARC
  5
1CA
330
1F
100
AcDbEntity
  8
LAY-10
  6
CONTINUOUS
 62
     7
100
AcDbCircle
 10
1199.00000000001
 20
1127.451249219718
 30
0.0
 40
1.0
100
AcDbArc
 50
272.8624052261126
 51
0.0
  0
LINE
  5
1CB
330
1F
100
AcDbEntity
  8
LAY-10
  6
CONTINUOUS
 62
     7
100
AcDbLine
 10
1199.049937616955
 20
1126.45249688084
 30
0.0
 11
1180.000000000015
 21
1125.499999999993
 31
0.0
  0
LINE
  5
1CC
330
1F
100
AcDbEntity
  8
LAY-10
  6
CONTINUOUS
 62
     7
100
AcDbLine
 10
1180.00000000002
 20
1124.499999999996
 30
0.0
 11
1180.00000000002
 21
1125.499999999996
 31
0.0
  0
LINE
  5
1CD
330
1F
100
AcDbEntity
  8
LAY-10
  6
CONTINUOUS
 62
     7
100
AcDbLine
 10
1180.00000000002
 20
1166.522345350972
 30
0.0
 11
1180.00000000002
 21
1156.477654648811
 31
0.0
  0
ARC
  5
1CE
330
1F
100
AcDbEntity
  8
LAY-10
  6
CONTINUOUS
 62
     7
100
AcDbCircle
 10
1181.00000000002
 20
1156.477654648811
 30
0.0
 40
1.0
100
AcDbArc
 50
180.0
 51
265.0000000000003
  0
LINE
  5
1CF
330
1F
100
AcDbEntity
  8
LAY-10
  6
CONTINUOUS
 62
     7
100
AcDbLine
 10
1192.261467228258
 20
1154.488584094128
 30
0.0
 11
1180.912844257272
 21
1155.481459950719
 31
0.0
  0
ARC
  5
1D0
330
1F
100
AcDbEntity
  8
LAY-10
  6
CONTINUOUS
 62
     7
100
AcDbCircle
 10
1181.00000000002
 20
1166.522345351082
 30
0.0
 40
1.0
100
AcDbArc
 50
94.99999999999976
 51
180.0
  0
LINE
  5
1D1
330
1F
100
AcDbEntity
  8
LAY-10
  6
CONTINUOUS
 62
     7
100
AcDbLine
 10
1192.261467228258
 20
1168.511415905765
 30
0.0
 11
1180.912844257272
 21
1167.518540049173
 31
0.0
  0
LINE
  5
1D2
330
1F
100
AcDbEntity
  8
LAY-10
  6
CONTINUOUS
 62
     7
100
AcDbLine
 10
1199.049937616955
 20
1196.547503119053
 30
0.0
 11
1180.000000000015
 21
1197.4999999999
 31
0.0
  0
LINE
  5
1D3
330
1F
100
AcDbEntity
  8
LAY-10
  6
CONTINUOUS
 62
     7
100
AcDbLine
 10
1175.0
 20
1185.5
 30
0.0
 11
1175.0
 21
1197.499999999901
 31
0.0
  0
LINE
  5
1D4
330
1F
100
AcDbEntity
  8
LAY-10
  6
CONTINUOUS
 62
     7
100
AcDbLine
 10
1174.999999999995
 20
1197.4999999999
 30
0.0
 11
1180.000000000015
 21
1198.4999999999
 31
0.0
  0
LINE
  5
1D5
330
1F
100
AcDbEntity
  8
LAY-10
  6
CONTINUOUS
 62
     7
100
AcDbLine
 10
1174.999999999995
 20
1185.5
 30
0.0
 11
1180.000000000015
 21
1184.5
 31
0.0
  0
LINE
  5
1D6
330
1F
100
AcDbEntity
  8
LAY-10
  6
CONTINUOUS
 62
     7
100
AcDbLine
 10
1180.000000000015
 20
1178.49999999999
 30
0.0
 11
1174.999999999995
 21
1177.5
 31
0.0
  0
LINE
  5
1D7
330
1F
100
AcDbEntity
  8
LAY-10
  6
CONTINUOUS
 62
     7
100
AcDbLine
 10
1180.000000000015
 20
1164.500000000103
 30
0.0
 11
1174.999999999995
 21
1165.500000000093
 31
0.0
  0
LINE
  5
1D8
330
1F
100
AcDbEntity
  8
LAY-10
  6
CONTINUOUS
 62
     7
100
AcDbLine
 10
1175.0
 20
1177.5
 30
0.0
 11
1175.0
 21
1165.50000000009
 31
0.0
  0
LINE
  5
1D9
330
1F
100
AcDbEntity
  8
LAY-10
  6
CONTINUOUS
 62
     7
100
AcDbLine
 10
1180.000000000015
 20
1158.49999999979
 30
0.0
 11
1174.999999999995
 21
1157.4999999998
 31
0.0
  0
LINE
  5
1DA
330
1F
100
AcDbEntity
  8
LAY-10
  6
CONTINUOUS
 62
     7
100
AcDbLine
 10
1180.000000000015
 20
1144.499999999903
 30
0.0
 11
1174.999999999995
 21
1145.499999999893
 31
0.0
  0
LINE
  5
1DB
330
1F
100
AcDbEntity
  8
LAY-10
  6
CONTINUOUS
 62
     7
100
AcDbLine
 10
1174.999999999995
 20
1137.499999999893
 30
0.0
 11
1180.000000000015
 21
1138.499999999893
 31
0.0
  0
LINE
  5
1DC
330
1F
100
AcDbEntity
  8
LAY-10
  6
CONTINUOUS
 62
     7
100
AcDbLine
 10
1174.999999999995
 20
1125.499999999993
 30
0.0
 11
1180.000000000015
 21
1124.499999999993
 31
0.0
  0
LINE
  5
1DD
330
1F
100
AcDbEntity
  8
LAY-10
  6
CONTINUOUS
 62
     7
100
AcDbLine
 10
1175.0
 20
1157.4999999998
 30
0.0
 11
1175.0
 21
1145.49999999989
 31
0.0
  0
LINE
  5
1DE
330
1F
100
AcDbEntity
  8
LAY-10
  6
CONTINUOUS
 62
     7
100
AcDbLine
 10
1175.0
 20
1125.49999999999
 30
0.0
 11
1175.0
 21
1137.49999999989
 31
0.0
  0
ARC
  5
1DF
330
1F
100
AcDbEntity
  8
LAY-10
  6
CONTINUOUS
 62
     7
100
AcDbCircle
 10
1192.000000000015
 20
1151.49999999985
 30
0.0
 40
3.0
100
AcDbArc
 50
274.9999999999186
 51
85.00000000006428
  0
ARC
  5
1E0
330
1F
100
AcDbEntity
  8
LAY-10
  6
CONTINUOUS
 62
     7
100
AcDbCircle
 10
1192.000000000015
 20
1171.500000000043
 30
0.0
 40
3.0
100
AcDbArc
 50
274.9999999999358
 51
85.00000000007654
  0
LINE
  5
1E1
330
1F
100
AcDbEntity
  8
LAY-10
  6
CONTINUOUS
 62
     7
100
AcDbLine
 10
1182.850187149185
 20
1133.357490642434
 30
0.0
 11
1199.049937616955
 21
1132.547503119045
 31
0.0
  0
ARC
  5
1E2
330
1F
100
AcDbEntity
  8
LAY-10
  6
CONTINUOUS
 62
     7
100
AcDbCircle
 10
1183.00000000002
 20
1136.353747659068
 30
0.0
 40
3.0
100
AcDbArc
 50
180.0
 51
267.1375947738265
  0
ARC
  5
1E3
330
1F
100
AcDbEntity
  8
LAY-10
  6
CONTINUOUS
 62
     7
100
AcDbCircle
 10
1181.00000000002
 20
1146.522345350882
 30
0.0
 40
1.0
100
AcDbArc
 50
94.99999999986586
 51
180.0000000001075
  0
LINE
  5
1E4
330
1F
100
AcDbEntity
  8
LAY-10
  6
CONTINUOUS
 62
     7
100
AcDbLine
 10
1192.261467228258
 20
1148.511415905565
 30
0.0
 11
1180.912844257272
 21
1147.518540048974
 31
0.0
  0
ARC
  5
1E5
330
1F
100
AcDbEntity
  8
LAY-10
  6
CONTINUOUS
 62
     7
100
AcDbCircle
 10
1181.00000000002
 20
1176.477654649011
 30
0.0
 40
1.0
100
AcDbArc
 50
179.9999999998926
 51
265.0000000001343
  0
LINE
  5
1E6
330
1F
100
AcDbEntity
  8
LAY-10
  6
CONTINUOUS
 62
     7
100
AcDbLine
 10
1192.261467228258
 20
1174.488584094328
 30
0.0
 11
1180.912844257272
 21
1175.481459950919
 31
0.0
  0
ARC
  5
1E7
330
1F
100
AcDbEntity
  8
LAY-10
  6
CONTINUOUS
 62
     7
100
AcDbCircle
 10
1183.00000000002
 20
1186.646252340825
 30
0.0
 40
3.0
100
AcDbArc
 50
92.86240522617351
 51
180.0
  0
LINE
  5
1E8
330
1F
100
AcDbEntity
  8
LAY-10
  6
CONTINUOUS
 62
     7
100
AcDbLine
 10
1182.850187149185
 20
1189.642509357458
 30
0.0
 11
1199.049937616955
 21
1190.452496880848
 31
0.0
  0
LINE
  5
1E9
330
1F
100
AcDbEntity
  8
LAY-10
  6
CONTINUOUS
 62
     7
100
AcDbLine
 10
1180.00000000002
 20
1176.47765464901
 30
0.0
 11
1180.00000000002
 21
1186.64625234083
 31
0.0
  0
LINE
  5
1EA
330
1F
100
AcDbEntity
  8
LAY-10
  6
CONTINUOUS
 62
     7
100
AcDbLine
 10
1180.00000000002
 20
1146.52234535088
 30
0.0
 11
1180.00000000002
 21
1136.35374765907
 31
0.0
  0
LINE
  5
1EB
330
1F
100
AcDbEntity
  8
LAY-10
  6
CONTINUOUS
 62
     7
100
AcDbLine
 10
1195.00000000002
 20
1134.652498439342
 30
0.0
 11
1195.00000000002
 21
1188.347501560551
 31
0.0
  0
ARC
  5
1EC
330
1F
100
AcDbEntity
  8
LAY-10
  6
CONTINUOUS
 62
     7
100
AcDbCircle
 10
1197.909606189599
 20
1187.099999999944
 30
0.0
 40
1.9
100
AcDbArc
 50
17.87435679904485
 51
90.00000000000001
  0
LINE
  5
1ED
330
1F
100
AcDbEntity
  8
LAY-10
  6
CONTINUOUS
 62
     7
100
AcDbLine
 10
1197.909606189599
 20
1188.999999999944
 30
0.0
 11
1196.99711431704
 21
1188.999999999944
 31
0.0
  0
ARC
  5
1EE
330
1F
100
AcDbEntity
  8
LAY-10
  6
CONTINUOUS
 62
     7
100
AcDbCircle
 10
1197.909606189599
 20
1135.899999999951
 30
0.0
 40
1.9
100
AcDbArc
 50
270.0
 51
342.1256432009552
  0
ARC
  5
1EF
330
1F
100
AcDbEntity
  8
LAY-10
  6
CONTINUOUS
 62
     7
100
AcDbCircle
 10
1188.29711431704
 20
1138.999999999951
 30
0.0
 40
12.0
100
AcDbArc
 50
342.1256432009546
 51
357.1340160174004
  0
LINE
  5
1F0
330
1F
100
AcDbEntity
  8
LAY-10
  6
CONTINUOUS
 62
     7
100
AcDbLine
 10
1197.909606189599
 20
1133.999999999951
 30
0.0
 11
1196.99711431704
 21
1133.999999999951
 31
0.0
  0
ARC
  5
1F1
330
1F
100
AcDbEntity
  8
LAY-10
  6
CONTINUOUS
 62
     7
100
AcDbCircle
 10
1197.909606189599
 20
1142.099999999951
 30
0.0
 40
1.9
100
AcDbArc
 50
17.8743567990519
 51
90.00000000000001
  0
LINE
  5
1F2
330
1F
100
AcDbEntity
  8
LAY-10
  6
CONTINUOUS
 62
     7
100
AcDbLine
 10
1197.909606189599
 20
1143.999999999951
 30
0.0
 11
1196.99711431704
 21
1143.999999999951
 31
0.0
  0
ARC
  5
1F3
330
1F
100
AcDbEntity
  8
LAY-10
  6
CONTINUOUS
 62
     7
100
AcDbCircle
 10
1188.29711431704
 20
1138.999999999951
 30
0.0
 40
12.0
100
AcDbArc
 50
2.865983982599606
 51
17.87435679905081
  0
LINE
  5
1F4
330
1F
100
AcDbEntity
  8
LAY-10
  6
CONTINUOUS
 62
     7
100
AcDbLine
 10
1199.99711431704
 20
1164.499999999951
 30
0.0
 11
1199.99711431704
 21
1158.499999999951
 31
0.0
  0
LINE
  5
1F5
330
1F
100
AcDbEntity
  8
LAY-10
  6
CONTINUOUS
 62
     7
100
AcDbLine
 10
1199.99711431704
 20
1164.499999999951
 30
0.0
 11
1199.99711431704
 21
1170.650714431497
 31
0.0
  0
LINE
  5
1F6
330
1F
100
AcDbEntity
  8
LAY-10
  6
CONTINUOUS
 62
     7
100
AcDbLine
 10
1199.99711431704
 20
1152.349285568404
 30
0.0
 11
1199.99711431704
 21
1158.499999999951
 31
0.0
  0
LINE
  5
1F7
330
1F
100
AcDbEntity
  8
LAY-10
  6
CONTINUOUS
 62
     7
100
AcDbLine
 10
1200.282104930303
 20
1138.399999999951
 30
0.0
 11
1198.69711431704
 21
1138.399999999951
 31
0.0
  0
LINE
  5
1F8
330
1F
100
AcDbEntity
  8
LAY-10
  6
CONTINUOUS
 62
     7
100
AcDbLine
 10
1200.282104930303
 20
1139.599999999951
 30
0.0
 11
1198.69711431704
 21
1139.599999999951
 31
0.0
  0
LINE
  5
1F9
330
1F
100
AcDbEntity
  8
LAY-10
  6
CONTINUOUS
 62
     7
100
AcDbLine
 10
1198.69711431704
 20
1138.399999999951
 30
0.0
 11
1198.69711431704
 21
1139.599999999951
 31
0.0
  0
ARC
  5
1FA
330
1F
100
AcDbEntity
  8
LAY-10
  6
CONTINUOUS
 62
     7
100
AcDbCircle
 10
1196.49711431704
 20
1175.349285568404
 30
0.0
 40
1.5
100
AcDbArc
 50
180.0000000000001
 51
239.0362434679267
  0
LINE
  5
1FB
330
1F
100
AcDbEntity
  8
LAY-10
  6
CONTINUOUS
 62
     7
100
AcDbLine
 10
1195.725370683899
 20
1174.063046179836
 30
0.0
 11
1199.268857950182
 21
1171.936953820066
 31
0.0
  0
ARC
  5
1FC
330
1F
100
AcDbEntity
  8
LAY-10
  6
CONTINUOUS
 62
     7
100
AcDbCircle
 10
1198.49711431704
 20
1170.650714431497
 30
0.0
 40
1.5
100
AcDbArc
 50
0.0000000000001719
 51
59.03624346792686
  0
ARC
  5
1FD
330
1F
100
AcDbEntity
  8
LAY-10
  6
CONTINUOUS
 62
     7
100
AcDbCircle
 10
1198.49711431704
 20
1152.349285568404
 30
0.0
 40
1.5
100
AcDbArc
 50
300.9637565320735
 51
0.0000000000001719
  0
LINE
  5
1FE
330
1F
100
AcDbEntity
  8
LAY-10
  6
CONTINUOUS
 62
     7
100
AcDbLine
 10
1195.725370683899
 20
1148.936953820066
 30
0.0
 11
1199.268857950182
 21
1151.063046179836
 31
0.0
  0
ARC
  5
1FF
330
1F
100
AcDbEntity
  8
LAY-10
  6
CONTINUOUS
 62
     7
100
AcDbCircle
 10
1196.49711431704
 20
1147.650714431497
 30
0.0
 40
1.5
100
AcDbArc
 50
120.9637565320733
 51
180.0000000000001
  0
LINE
  5
200
330
1F
100
AcDbEntity
  8
LAY-10
  6
CONTINUOUS
 62
     7
100
AcDbLine
 10
1197.725370683899
 20
1148.087668251613
 30
0.0
 11
1201.268857950181
 21
1150.213760611382
 31
0.0
  0
ARC
  5
201
330
1F
100
AcDbEntity
  8
LAY-10
  6
CONTINUOUS
 62
     7
100
AcDbCircle
 10
1198.49711431704
 20
1146.801428863044
 30
0.0
 40
1.5
100
AcDbArc
 50
120.9637565320733
 51
180.0000000000001
  0
ARC
  5
202
330
1F
100
AcDbEntity
  8
LAY-10
  6
CONTINUOUS
 62
     7
100
AcDbCircle
 10
1200.49711431704
 20
1151.499999999951
 30
0.0
 40
1.5
100
AcDbArc
 50
300.9637565320738
 51
0.0000000000001719
  0
ARC
  5
203
330
1F
100
AcDbEntity
  8
LAY-10
  6
CONTINUOUS
 62
     7
100
AcDbCircle
 10
1198.49711431704
 20
1176.198571136858
 30
0.0
 40
1.5
100
AcDbArc
 50
180.0000000000001
 51
239.0362434679267
  0
LINE
  5
204
330
1F
100
AcDbEntity
  8
LAY-10
  6
CONTINUOUS
 62
     7
100
AcDbLine
 10
1197.725370683899
 20
1174.912331748289
 30
0.0
 11
1201.268857950181
 21
1172.786239388519
 31
0.0
  0
ARC
  5
205
330
1F
100
AcDbEntity
  8
LAY-10
  6
CONTINUOUS
 62
     7
100
AcDbCircle
 10
1200.49711431704
 20
1171.49999999995
 30
0.0
 40
1.5
100
AcDbArc
 50
0.0000000000001719
 51
59.03624346792686
  0
LINE
  5
206
330
1F
100
AcDbEntity
  8
LAY-10
  6
CONTINUOUS
 62
     7
100
AcDbLine
 10
1221.197114317045
 20
1158.636751345901
 30
0.0
 11
1225.825114317045
 21
1158.636751345901
 31
0.0
  0
LINE
  5
207
330
1F
100
AcDbEntity
  8
LAY-10
  6
CONTINUOUS
 62
     7
100
AcDbLine
 10
1221.197114317045
 20
1155.749999999951
 30
0.0
 11
1225.825114317045
 21
1155.749999999951
 31
0.0
  0
LINE
  5
208
330
1F
100
AcDbEntity
  8
LAY-10
  6
CONTINUOUS
 62
     7
100
AcDbLine
 10
1221.197114317045
 20
1164.363248654001
 30
0.0
 11
1225.825114317045
 21
1164.363248654001
 31
0.0
  0
ARC
  5
209
330
1F
100
AcDbEntity
  8
LAY-10
  6
CONTINUOUS
 62
     7
100
AcDbCircle
 10
1218.944861821487
 20
1161.499999999951
 30
0.0
 40
7.4522524955587
100
AcDbArc
 50
337.4051392327526
 51
22.59486076724778
  0
LINE
  5
20A
330
1F
100
AcDbEntity
  8
LAY-10
  6
CONTINUOUS
 62
     7
100
AcDbLine
 10
1221.197114317045
 20
1167.249999999951
 30
0.0
 11
1225.825114317045
 21
1167.249999999951
 31
0.0
  0
LINE
  5
20B
330
1F
100
AcDbEntity
  8
LAY-10
  6
CONTINUOUS
 62
     7
100
AcDbLine
 10
1221.197114317045
 20
1167.249999999951
 30
0.0
 11
1221.197114317045
 21
1155.749999999951
 31
0.0
  0
ARC
  5
20C
330
1F
100
AcDbEntity
  8
LAY-10
  6
CONTINUOUS
 62
     7
100
AcDbCircle
 10
1226.859136362845
 20
1166.249999999951
 30
0.0
 40
0.5
100
AcDbArc
 50
189.7915975264292
 51
270.0000000000002
  0
LINE
  5
20D
330
1F
100
AcDbEntity
  8
LAY-10
  6
CONTINUOUS
 62
     7
100
AcDbLine
 10
1226.397114317045
 20
1165.749999999951
 30
0.0
 11
1226.39635334219
 21
1165.749999999951
 31
0.0
  0
ARC
  5
20E
330
1F
100
AcDbEntity
  8
LAY-10
  6
CONTINUOUS
 62
     7
100
AcDbCircle
 10
1224.290018745947
 20
1157.193375672926
 30
0.0
 40
2.107095571097913
100
AcDbArc
 50
316.7638252773315
 51
43.23617472266898
  0
ARC
  5
20F
330
1F
100
AcDbEntity
  8
LAY-10
  6
CONTINUOUS
 62
     7
100
AcDbCircle
 10
1226.859136362845
 20
1156.749999999951
 30
0.0
 40
0.5
100
AcDbArc
 50
90.00000000000026
 51
170.2084024735711
  0
LINE
  5
210
330
1F
100
AcDbEntity
  8
LAY-10
  6
CONTINUOUS
 62
     7
100
AcDbLine
 10
1226.397114317045
 20
1157.249999999951
 30
0.0
 11
1226.39635334219
 21
1157.249999999951
 31
0.0
  0
ARC
  5
211
330
1F
100
AcDbEntity
  8
LAY-10
  6
CONTINUOUS
 62
     7
100
AcDbCircle
 10
1224.290018745947
 20
1165.806624326976
 30
0.0
 40
2.107095571097882
100
AcDbArc
 50
316.763825277331
 51
43.23617472266933
  0
ARC
  5
212
330
1F
100
AcDbEntity
  8
LAY-10
  6
CONTINUOUS
 62
     7
100
AcDbCircle
 10
1227.496152422722
 20
1158.249999999951
 30
0.0
 40
1.0
100
AcDbArc
 50
270.0000000000002
 51
291.7867892982636
  0
LINE
  5
213
330
1F
100
AcDbEntity
  8
LAY-10
  6
CONTINUOUS
 62
     7
100
AcDbLine
 10
1227.496152422722
 20
1157.249999999951
 30
0.0
 11
1226.859136362845
 21
1157.249999999951
 31
0.0
  0
ARC
  5
214
330
1F
100
AcDbEntity
  8
LAY-10
  6
CONTINUOUS
 62
     7
100
AcDbCircle
 10
1226.197114317046
 20
1161.499999999951
 30
0.0
 40
4.5
100
AcDbArc
 50
291.7867892982638
 51
68.21321070173653
  0
LINE
  5
215
330
1F
100
AcDbEntity
  8
LAY-10
  6
CONTINUOUS
 62
     7
100
AcDbLine
 10
1227.496152422722
 20
1165.749999999951
 30
0.0
 11
1226.859136362845
 21
1165.749999999951
 31
0.0
  0
ARC
  5
216
330
1F
100
AcDbEntity
  8
LAY-10
  6
CONTINUOUS
 62
     7
100
AcDbCircle
 10
1227.496152422722
 20
1164.749999999951
 30
0.0
 40
1.0
100
AcDbArc
 50
68.21321070173653
 51
90.00000000000026
  0
ARC
  5
217
330
1F
100
AcDbEntity
  8
LAY-10
  6
CONTINUOUS
 62
     7
100
AcDbCircle
 10
1199.247114317045
 20
1164.749999999951
 30
0.0
 40
0.25
100
AcDbArc
 50
180.0000000000001
 51
270.0000000000002
  0
LINE
  5
218
330
1F
100
AcDbEntity
  8
LAY-10
  6
CONTINUOUS
 62
     7
100
AcDbLine
 10
1198.997114317045
 20
1156.249999999951
 30
0.0
 11
1198.997114317045
 21
1166.749999999951
 31
0.0
  0
ARC
  5
219
330
1F
100
AcDbEntity
  8
LAY-10
  6
CONTINUOUS
 62
     7
100
AcDbCircle
 10
1199.247114317045
 20
1158.249999999951
 30
0.0
 40
0.25
100
AcDbArc
 50
90.0000000000002
 51
180.0000000000001
  0
ARC
  5
21A
330
1F
100
AcDbEntity
  8
LAY-10
  6
CONTINUOUS
 62
     7
100
AcDbCircle
 10
1196.997114317045
 20
1157.749999999951
 30
0.0
 40
1.0
100
AcDbArc
 50
180.0000000000001
 51
241.927513064142
  0
ARC
  5
21B
330
1F
100
AcDbEntity
  8
LAY-10
  6
CONTINUOUS
 62
     7
100
AcDbCircle
 10
1198.997114317045
 20
1161.499999999951
 30
0.0
 40
5.25
100
AcDbArc
 50
241.9275130641421
 51
269.9999999999997
  0
LINE
  5
21C
330
1F
100
AcDbEntity
  8
LAY-10
  6
CONTINUOUS
 62
     7
100
AcDbLine
 10
1195.997114317045
 20
1165.249999999951
 30
0.0
 11
1195.997114317045
 21
1157.749999999951
 31
0.0
  0
ARC
  5
21D
330
1F
100
AcDbEntity
  8
LAY-10
  6
CONTINUOUS
 62
     7
100
AcDbCircle
 10
1196.997114317045
 20
1165.249999999951
 30
0.0
 40
1.0
100
AcDbArc
 50
118.0724869358582
 51
180.0000000000001
  0
ARC
  5
21E
330
1F
100
AcDbEntity
  8
LAY-10
  6
CONTINUOUS
 62
     7
100
AcDbCircle
 10
1198.997114317045
 20
1161.499999999951
 30
0.0
 40
5.25
100
AcDbArc
 50
90.00000000000112
 51
118.072486935858
  0
LINE
  5
21F
330
1F
100
AcDbEntity
  8
LAY-10
  6
CONTINUOUS
 62
     7
100
AcDbLine
 10
1212.997114317045
 20
1158.499999999951
 30
0.0
 11
1221.197114317046
 21
1158.499999999951
 31
0.0
  0
LINE
  5
220
330
1F
100
AcDbEntity
  8
LAY-10
  6
CONTINUOUS
 62
     7
100
AcDbLine
 10
1212.997114317045
 20
1164.499999999951
 30
0.0
 11
1221.197114317046
 21
1164.499999999951
 31
0.0
  0
LINE
  5
221
330
1F
100
AcDbEntity
  8
LAY-10
  6
CONTINUOUS
 62
     7
100
AcDbLine
 10
1201.99711431704
 20
1151.499999999951
 30
0.0
 11
1201.99711431704
 21
1171.49999999995
 31
0.0
  0
LINE
  5
222
330
1F
100
AcDbEntity
  8
LAY-10
  6
CONTINUOUS
 62
     7
100
AcDbLine
 10
1199.247114317045
 20
1158.499999999951
 30
0.0
 11
1199.99711431704
 21
1158.499999999951
 31
0.0
  0
LINE
  5
223
330
1F
100
AcDbEntity
  8
LAY-10
  6
CONTINUOUS
 62
     7
100
AcDbLine
 10
1201.99711431704
 20
1158.499999999951
 30
0.0
 11
1209.000000000005
 21
1158.499999999951
 31
0.0
  0
LINE
  5
224
330
1F
100
AcDbEntity
  8
LAY-10
  6
CONTINUOUS
 62
     7
100
AcDbLine
 10
1199.247114317045
 20
1164.499999999951
 30
0.0
 11
1199.99711431704
 21
1164.499999999951
 31
0.0
  0
LINE
  5
225
330
1F
100
AcDbEntity
  8
LAY-10
  6
CONTINUOUS
 62
     7
100
AcDbLine
 10
1201.99711431704
 20
1164.499999999951
 30
0.0
 11
1209.000000000005
 21
1164.499999999951
 31
0.0
  0
LINE
  5
226
330
1F
100
AcDbEntity
  8
LAY-10
  6
CONTINUOUS
 62
     7
100
AcDbLine
 10
1196.99711431704
 20
1132.641640259797
 30
0.0
 11
1196.99711431704
 21
1146.801428863044
 31
0.0
  0
LINE
  5
227
330
1F
100
AcDbEntity
  8
LAY-10
  6
CONTINUOUS
 62
     7
100
AcDbLine
 10
1199.73004501808
 20
1135.499999999951
 30
0.0
 11
1209.000000000005
 21
1135.499999999951
 31
0.0
  0
LINE
  5
228
330
1F
100
AcDbEntity
  8
LAY-10
  6
CONTINUOUS
 62
     7
100
AcDbLine
 10
1209.000000000005
 20
1147.499999999951
 30
0.0
 11
1197.169711451788
 21
1147.499999999951
 31
0.0
  0
LINE
  5
229
330
1F
100
AcDbEntity
  8
LAY-10
  6
CONTINUOUS
 62
     7
100
AcDbLine
 10
1220.997114317045
 20
1136.529320511593
 30
0.0
 11
1220.997114317045
 21
1146.481501724686
 31
0.0
  0
LINE
  5
22A
330
1F
100
AcDbEntity
  8
LAY-10
  6
CONTINUOUS
 62
     7
100
AcDbLine
 10
1219.978616041783
 20
1147.499999999949
 30
0.0
 11
1220.997114317045
 21
1146.481501724686
 31
0.0
  0
LINE
  5
22B
330
1F
100
AcDbEntity
  8
LAY-10
  6
CONTINUOUS
 62
     7
100
AcDbLine
 10
1220.997114317044
 20
1136.529320511592
 30
0.0
 11
1219.967793805404
 21
1135.499999999951
 31
0.0
  0
LINE
  5
22C
330
1F
100
AcDbEntity
  8
LAY-10
  6
CONTINUOUS
 62
     7
100
AcDbLine
 10
1212.997114317045
 20
1135.499999999951
 30
0.0
 11
1219.967793805403
 21
1135.499999999951
 31
0.0
  0
LINE
  5
22D
330
1F
100
AcDbEntity
  8
LAY-10
  6
CONTINUOUS
 62
     7
100
AcDbLine
 10
1219.978616041781
 20
1147.499999999951
 30
0.0
 11
1212.997114317045
 21
1147.499999999951
 31
0.0
  0
LINE
  5
22E
330
1F
100
AcDbEntity
  8
LAY-10
  6
CONTINUOUS
 62
     7
100
AcDbLine
 10
1220.997114317045
 20
1186.470679488309
 30
0.0
 11
1220.997114317045
 21
1176.518498275215
 31
0.0
  0
LINE
  5
22F
330
1F
100
AcDbEntity
  8
LAY-10
  6
CONTINUOUS
 62
     7
100
AcDbLine
 10
1219.978616041783
 20
1175.499999999953
 30
0.0
 11
1220.997114317045
 21
1176.518498275215
 31
0.0
  0
LINE
  5
230
330
1F
100
AcDbEntity
  8
LAY-10
  6
CONTINUOUS
 62
     7
100
AcDbLine
 10
1220.997114317044
 20
1186.47067948831
 30
0.0
 11
1219.967793805404
 21
1187.499999999951
 31
0.0
  0
LINE
  5
231
330
1F
100
AcDbEntity
  8
LAY-10
  6
CONTINUOUS
 62
     7
100
AcDbLine
 10
1219.978616041781
 20
1175.499999999951
 30
0.0
 11
1197.169711451788
 21
1175.499999999951
 31
0.0
  0
LINE
  5
232
330
1F
100
AcDbEntity
  8
LAY-10
  6
CONTINUOUS
 62
     7
100
AcDbLine
 10
1196.99711431704
 20
1190.358359740098
 30
0.0
 11
1196.99711431704
 21
1176.198571136858
 31
0.0
  0
LINE
  5
233
330
1F
100
AcDbEntity
  8
LAY-10
  6
CONTINUOUS
 62
     7
100
AcDbLine
 10
1196.99711431704
 20
1187.499999999951
 30
0.0
 11
1219.967793805404
 21
1187.499999999951
 31
0.0
  0
ARC
  5
234
330
1F
100
AcDbEntity
  8
LAY-10
  6
CONTINUOUS
 62
     7
100
AcDbCircle
 10
1188.29711431704
 20
1183.999999999944
 30
0.0
 40
12.0
100
AcDbArc
 50
16.95776330003828
 51
17.87435679904559
  0
LINE
  5
235
330
1F
100
AcDbEntity
  8
LAY-10
  6
CONTINUOUS
 62
     7
100
AcDbLine
 10
1209.000000000005
 20
1175.499999999951
 30
0.0
 11
1209.000000000005
 21
1122.499999999953
 31
0.0
  0
LINE
  5
236
330
1F
100
AcDbEntity
  8
LAY-10
  6
CONTINUOUS
 62
     7
100
AcDbLine
 10
1200.00000000001
 20
1122.499999999953
 30
0.0
 11
1200.00000000001
 21
1131.548750780168
 31
0.0
  0
LINE
  5
237
330
1F
100
AcDbEntity
  8
LAY-10
  6
CONTINUOUS
 62
     7
100
AcDbLine
 10
1209.000000000005
 20
1131.499999999945
 30
0.0
 11
1200.00000000001
 21
1131.499999999945
 31
0.0
  0
LINE
  5
238
330
1F
100
AcDbEntity
  8
LAY-10
  6
CONTINUOUS
 62
     7
100
AcDbLine
 10
1200.00000000001
 20
1189.499999999948
 30
0.0
 11
1209.000000000005
 21
1189.499999999948
 31
0.0
  0
LINE
  5
239
330
1F
100
AcDbEntity
  8
LAY-10
  6
CONTINUOUS
 62
     7
100
AcDbLine
 10
1200.00000000001
 20
1198.499999999948
 30
0.0
 11
1200.00000000001
 21
1189.499999999948
 31
0.0
  0
LINE
  5
23A
330
1F
100
AcDbEntity
  8
LAY-10
  6
CONTINUOUS
 62
     7
100
AcDbLine
 10
1209.000000000005
 20
1198.499999999948
 30
0.0
 11
1209.000000000005
 21
1187.499999999951
 31
0.0
  0
LINE
  5
23B
330
1F
100
AcDbEntity
  8
LAY-10
  6
CONTINUOUS
 62
     7
100
AcDbLine
 10
1212.997114317045
 20
1187.499999999951
 30
0.0
 11
1212.997114317045
 21
1193.999999999948
 31
0.0
  0
LINE
  5
23C
330
1F
100
AcDbEntity
  8
LAY-10
  6
CONTINUOUS
 62
     7
100
AcDbLine
 10
1212.997114317022
 20
1130.84792389086
 30
0.0
 11
1208.999999999982
 21
1130.84792389086
 31
0.0
  0
LINE
  5
23D
330
1F
100
AcDbEntity
  8
LAY-10
  6
CONTINUOUS
 62
     7
100
AcDbLine
 10
1212.997114317022
 20
1128.99354088856
 30
0.0
 11
1208.999999999982
 21
1128.99354088856
 31
0.0
  0
LINE
  5
23E
330
1F
100
AcDbEntity
  8
LAY-10
  6
CONTINUOUS
 62
     7
100
AcDbLine
 10
1212.997114317022
 20
1191.21226404346
 30
0.0
 11
1209.000000000005
 21
1191.21226404346
 31
0.0
  0
LINE
  5
23F
330
1F
100
AcDbEntity
  8
LAY-10
  6
CONTINUOUS
 62
     7
100
AcDbLine
 10
1212.997114317045
 20
1128.99354088856
 30
0.0
 11
1212.997114317045
 21
1175.499999999951
 31
0.0
  0
LINE
  5
240
330
1F
100
AcDbEntity
  8
LAY-10
  6
CONTINUOUS
 62
     7
100
AcDbLine
 10
1195.000000000005
 20
1125.263532231069
 30
0.0
 11
1180.0
 21
1124.49999999995
 31
0.0
  0
ARC
  5
241
330
1F
100
AcDbEntity
  8
LAY-10
  6
CONTINUOUS
 62
     7
100
AcDbCircle
 10
1196.000000000005
 20
1125.298750780218
 30
0.0
 40
1.0
100
AcDbArc
 50
92.86240522611266
 51
180.0
  0
LINE
  5
242
330
1F
100
AcDbEntity
  8
LAY-10
  6
CONTINUOUS
 62
     7
100
AcDbLine
 10
1195.000000000005
 20
1125.263532231073
 30
0.0
 11
1195.000000000005
 21
1125.298750780218
 31
0.0
  0
ARC
  5
243
330
1F
100
AcDbEntity
  8
LAY-10
  6
CONTINUOUS
 62
     7
100
AcDbCircle
 10
1196.000000000005
 20
1197.701249219574
 30
0.0
 40
1.0
100
AcDbArc
 50
180.0
 51
267.1375947738874
  0
LINE
  5
244
330
1F
100
AcDbEntity
  8
LAY-10
  6
CONTINUOUS
 62
     7
100
AcDbLine
 10
1195.000000000005
 20
1197.73646776872
 30
0.0
 11
1195.000000000005
 21
1197.701249219574
 31
0.0
  0
LINE
  5
245
330
1F
100
AcDbEntity
  8
LAY-10
  6
CONTINUOUS
 62
     7
100
AcDbLine
 10
1195.000000000004
 20
1197.736467768724
 30
0.0
 11
1180.0
 21
1198.499999999842
 31
0.0
  0
LINE
  5
246
330
1F
100
AcDbEntity
  8
LAY-10
  6
CONTINUOUS
 62
     7
100
AcDbLine
 10
817.5000000000014
 20
1138.500000000055
 30
0.0
 11
817.5000000000014
 21
1144.500000000055
 31
0.0
  0
LINE
  5
247
330
1F
100
AcDbEntity
  8
LAY-10
  6
CONTINUOUS
 62
     7
100
AcDbLine
 10
817.5000000000014
 20
1178.500000000156
 30
0.0
 11
817.5000000000014
 21
1184.500000000156
 31
0.0
  0
LINE
  5
248
330
1F
100
AcDbEntity
  8
LAY-10
  6
CONTINUOUS
 62
     7
100
AcDbLine
 10
832.5000000000014
 20
1138.500000000055
 30
0.0
 11
832.5000000000014
 21
1144.500000000055
 31
0.0
  0
LINE
  5
249
330
1F
100
AcDbEntity
  8
LAY-10
  6
CONTINUOUS
 62
     7
100
AcDbLine
 10
832.5000000000014
 20
1178.500000000156
 30
0.0
 11
832.5000000000014
 21
1184.500000000156
 31
0.0
  0
ARC
  5
24A
330
1F
100
AcDbEntity
  8
LAY-10
  6
CONTINUOUS
 62
     7
100
AcDbCircle
 10
825.0000000000014
 20
1161.500000000106
 30
0.0
 40
5.0
100
AcDbArc
 50
53.13010235410481
 51
126.8698976459003
  0
ARC
  5
24B
330
1F
100
AcDbEntity
  8
LAY-10
  6
CONTINUOUS
 62
     7
100
AcDbCircle
 10
825.0000000000014
 20
1161.500000000105
 30
0.0
 40
4.0
100
AcDbArc
 50
48.59037789393994
 51
131.4096221060601
  0
ARC
  5
24C
330
1F
100
AcDbEntity
  8
LAY-10
  6
CONTINUOUS
 62
     7
100
AcDbCircle
 10
825.0000000000014
 20
1161.500000000105
 30
0.0
 40
4.0
100
AcDbArc
 50
228.5903778939492
 51
311.4096221060509
  0
ARC
  5
24D
330
1F
100
AcDbEntity
  8
LAY-10
  6
CONTINUOUS
 62
     7
100
AcDbCircle
 10
825.0000000000014
 20
1161.500000000106
 30
0.0
 40
5.0
100
AcDbArc
 50
233.1301023541225
 51
306.8698976458775
  0
ARC
  5
24E
330
1F
100
AcDbEntity
  8
LAY-10
  6
CONTINUOUS
 62
     7
100
AcDbCircle
 10
424.9999999999911
 20
1161.500000000106
 30
0.0
 40
5.0
100
AcDbArc
 50
53.13010235410481
 51
126.8698976459003
  0
ARC
  5
24F
330
1F
100
AcDbEntity
  8
LAY-10
  6
CONTINUOUS
 62
     7
100
AcDbCircle
 10
424.9999999999911
 20
1161.500000000105
 30
0.0
 40
4.0
100
AcDbArc
 50
48.59037789393994
 51
131.4096221060601
  0
ARC
  5
250
330
1F
100
AcDbEntity
  8
LAY-10
  6
CONTINUOUS
 62
     7
100
AcDbCircle
 10
424.9999999999911
 20
1161.500000000105
 30
0.0
 40
4.0
100
AcDbArc
 50
228.5903778939492
 51
311.4096221060509
  0
ARC
  5
251
330
1F
100
AcDbEntity
  8
LAY-10
  6
CONTINUOUS
 62
     7
100
AcDbCircle
 10
424.9999999999911
 20
1161.500000000106
 30
0.0
 40
5.0
100
AcDbArc
 50
233.1301023541225
 51
306.8698976458775
  0
LINE
  5
252
330
1F
100
AcDbEntity
  8
LAY-10
  6
CONTINUOUS
 62
     7
100
AcDbLine
 10
519.0000000000009
 20
1138.500000000055
 30
0.0
 11
519.0000000000009
 21
1144.500000000055
 31
0.0
  0
LINE
  5
253
330
1F
100
AcDbEntity
  8
LAY-10
  6
CONTINUOUS
 62
     7
100
AcDbLine
 10
531.0000000000009
 20
1138.500000000055
 30
0.0
 11
531.0000000000009
 21
1144.500000000055
 31
0.0
  0
LINE
  5
254
330
1F
100
AcDbEntity
  8
LAY-10
  6
CONTINUOUS
 62
     7
100
AcDbLine
 10
519.0000000000009
 20
1158.500000000256
 30
0.0
 11
519.0000000000009
 21
1164.500000000256
 31
0.0
  0
LINE
  5
255
330
1F
100
AcDbEntity
  8
LAY-10
  6
CONTINUOUS
 62
     7
100
AcDbLine
 10
531.0000000000009
 20
1158.500000000256
 30
0.0
 11
531.0000000000009
 21
1164.500000000256
 31
0.0
  0
LINE
  5
256
330
1F
100
AcDbEntity
  8
LAY-10
  6
CONTINUOUS
 62
     7
100
AcDbLine
 10
519.0000000000009
 20
1178.500000000156
 30
0.0
 11
519.0000000000009
 21
1184.500000000156
 31
0.0
  0
LINE
  5
257
330
1F
100
AcDbEntity
  8
LAY-10
  6
CONTINUOUS
 62
     7
100
AcDbLine
 10
531.0000000000009
 20
1178.500000000156
 30
0.0
 11
531.0000000000009
 21
1184.500000000156
 31
0.0
  0
ARC
  5
258
330
1F
100
AcDbEntity
  8
LAY-10
  6
CONTINUOUS
 62
     7
100
AcDbCircle
 10
624.9999999999709
 20
1161.500000000106
 30
0.0
 40
5.0
100
AcDbArc
 50
53.13010235409815
 51
126.8698976458961
  0
ARC
  5
259
330
1F
100
AcDbEntity
  8
LAY-10
  6
CONTINUOUS
 62
     7
100
AcDbCircle
 10
624.9999999999709
 20
1161.500000000105
 30
0.0
 40
4.0
100
AcDbArc
 50
48.59037789393748
 51
131.4096221060625
  0
ARC
  5
25A
330
1F
100
AcDbEntity
  8
LAY-10
  6
CONTINUOUS
 62
     7
100
AcDbCircle
 10
624.9999999999709
 20
1161.500000000105
 30
0.0
 40
4.0
100
AcDbArc
 50
228.5903778939515
 51
311.4096221060485
  0
ARC
  5
25B
330
1F
100
AcDbEntity
  8
LAY-10
  6
CONTINUOUS
 62
     7
100
AcDbCircle
 10
624.9999999999709
 20
1161.500000000106
 30
0.0
 40
5.0
100
AcDbArc
 50
233.1301023541234
 51
306.8698976458766
  0
LINE
  5
25C
330
1F
100
AcDbEntity
  8
LAY-10
  6
CONTINUOUS
 62
     7
100
AcDbLine
 10
427.9999999999943
 20
1165.500000000103
 30
0.0
 11
621.9999999999682
 21
1165.500000000103
 31
0.0
  0
LINE
  5
25D
330
1F
100
AcDbEntity
  8
LAY-10
  6
CONTINUOUS
 62
     7
100
AcDbLine
 10
621.9999999999691
 20
1157.500000000107
 30
0.0
 11
427.9999999999933
 21
1157.500000000107
 31
0.0
  0
LINE
  5
25E
330
1F
100
AcDbEntity
  8
LAY-10
  6
CONTINUOUS
 62
     7
100
AcDbLine
 10
627.9999999999736
 20
1165.500000000103
 30
0.0
 11
821.9999999999987
 21
1165.500000000103
 31
0.0
  0
LINE
  5
25F
330
1F
100
AcDbEntity
  8
LAY-10
  6
CONTINUOUS
 62
     7
100
AcDbLine
 10
821.9999999999991
 20
1157.500000000107
 30
0.0
 11
627.9999999999727
 21
1157.500000000107
 31
0.0
  0
LINE
  5
260
330
1F
100
AcDbEntity
  8
LAY-10
  6
CONTINUOUS
 62
     7
100
AcDbLine
 10
719.0000000000009
 20
1138.500000000055
 30
0.0
 11
719.0000000000009
 21
1144.500000000055
 31
0.0
  0
LINE
  5
261
330
1F
100
AcDbEntity
  8
LAY-10
  6
CONTINUOUS
 62
     7
100
AcDbLine
 10
731.0000000000009
 20
1138.500000000055
 30
0.0
 11
731.0000000000009
 21
1144.500000000055
 31
0.0
  0
LINE
  5
262
330
1F
100
AcDbEntity
  8
LAY-10
  6
CONTINUOUS
 62
     7
100
AcDbLine
 10
731.0000000000009
 20
1158.499999999955
 30
0.0
 11
731.0000000000009
 21
1164.499999999955
 31
0.0
  0
LINE
  5
263
330
1F
100
AcDbEntity
  8
LAY-10
  6
CONTINUOUS
 62
     7
100
AcDbLine
 10
719.0000000000009
 20
1178.500000000156
 30
0.0
 11
719.0000000000009
 21
1184.500000000156
 31
0.0
  0
LINE
  5
264
330
1F
100
AcDbEntity
  8
LAY-10
  6
CONTINUOUS
 62
     7
100
AcDbLine
 10
919.0000000000018
 20
1138.500000000055
 30
0.0
 11
919.0000000000018
 21
1144.500000000055
 31
0.0
  0
LINE
  5
265
330
1F
100
AcDbEntity
  8
LAY-10
  6
CONTINUOUS
 62
     7
100
AcDbLine
 10
919.0000000000018
 20
1178.500000000156
 30
0.0
 11
919.0000000000018
 21
1184.500000000156
 31
0.0
  0
LINE
  5
266
330
1F
100
AcDbEntity
  8
LAY-10
  6
CONTINUOUS
 62
     7
100
AcDbLine
 10
327.0000000000011
 20
1197.500000000106
 30
0.0
 11
327.0000000000011
 21
1185.500000000106
 31
0.0
  0
LINE
  5
267
330
1F
100
AcDbEntity
  8
LAY-10
  6
CONTINUOUS
 62
     7
100
AcDbLine
 10
326.0000000000011
 20
1198.500000000106
 30
0.0
 11
327.0000000000011
 21
1197.500000000106
 31
0.0
  0
LINE
  5
268
330
1F
100
AcDbEntity
  8
LAY-10
  6
CONTINUOUS
 62
     7
100
AcDbLine
 10
327.0000000000011
 20
1177.500000000106
 30
0.0
 11
327.0000000000011
 21
1165.500000000106
 31
0.0
  0
LINE
  5
269
330
1F
100
AcDbEntity
  8
LAY-10
  6
CONTINUOUS
 62
     7
100
AcDbLine
 10
327.0000000000011
 20
1145.500000000106
 30
0.0
 11
327.0000000000011
 21
1157.500000000106
 31
0.0
  0
LINE
  5
26A
330
1F
100
AcDbEntity
  8
LAY-10
  6
CONTINUOUS
 62
     7
100
AcDbLine
 10
327.0000000000011
 20
1125.500000000205
 30
0.0
 11
327.0000000000011
 21
1137.500000000005
 31
0.0
  0
LINE
  5
26B
330
1F
100
AcDbEntity
  8
LAY-10
  6
CONTINUOUS
 62
     7
100
AcDbLine
 10
327.0000000000011
 20
1125.500000000205
 30
0.0
 11
326.0000000000011
 21
1124.500000000155
 31
0.0
  0
LINE
  5
26C
330
1F
100
AcDbEntity
  8
LAY-10
  6
CONTINUOUS
 62
     7
100
AcDbLine
 10
421.9999999999888
 20
1157.500000000107
 30
0.0
 11
327.0000000000011
 21
1157.500000000107
 31
0.0
  0
LINE
  5
26D
330
1F
100
AcDbEntity
  8
LAY-10
  6
CONTINUOUS
 62
     7
100
AcDbLine
 10
327.0000000000011
 20
1165.500000000103
 30
0.0
 11
421.9999999999879
 21
1165.500000000103
 31
0.0
  0
LINE
  5
26E
330
1F
100
AcDbEntity
  8
LAY-10
  6
CONTINUOUS
 62
     7
100
AcDbLine
 10
617.4999999999609
 20
1138.500000000055
 30
0.0
 11
617.4999999999609
 21
1144.500000000055
 31
0.0
  0
LINE
  5
26F
330
1F
100
AcDbEntity
  8
LAY-10
  6
CONTINUOUS
 62
     7
100
AcDbLine
 10
632.4999999999609
 20
1138.500000000055
 30
0.0
 11
632.4999999999609
 21
1144.500000000055
 31
0.0
  0
LINE
  5
270
330
1F
100
AcDbEntity
  8
LAY-10
  6
CONTINUOUS
 62
     7
100
AcDbLine
 10
632.4999999999609
 20
1178.500000000156
 30
0.0
 11
632.4999999999609
 21
1184.500000000156
 31
0.0
  0
LINE
  5
271
330
1F
100
AcDbEntity
  8
LAY-10
  6
CONTINUOUS
 62
     7
100
AcDbLine
 10
617.4999999999609
 20
1178.500000000156
 30
0.0
 11
617.4999999999609
 21
1184.500000000156
 31
0.0
  0
LINE
  5
272
330
1F
100
AcDbEntity
  8
LAY-10
  6
CONTINUOUS
 62
     7
100
AcDbLine
 10
417.4999999999716
 20
1178.500000000156
 30
0.0
 11
417.4999999999716
 21
1184.500000000156
 31
0.0
  0
LINE
  5
273
330
1F
100
AcDbEntity
  8
LAY-10
  6
CONTINUOUS
 62
     7
100
AcDbLine
 10
432.4999999999716
 20
1178.500000000156
 30
0.0
 11
432.4999999999716
 21
1184.500000000156
 31
0.0
  0
LINE
  5
274
330
1F
100
AcDbEntity
  8
LAY-10
  6
CONTINUOUS
 62
     7
100
AcDbLine
 10
417.4999999999716
 20
1138.500000000055
 30
0.0
 11
417.4999999999716
 21
1144.500000000055
 31
0.0
  0
LINE
  5
275
330
1F
100
AcDbEntity
  8
LAY-10
  6
CONTINUOUS
 62
     7
100
AcDbLine
 10
432.4999999999716
 20
1138.500000000055
 30
0.0
 11
432.4999999999716
 21
1144.500000000055
 31
0.0
  0
LINE
  5
276
330
1F
100
AcDbEntity
  8
LAY-10
  6
CONTINUOUS
 62
     7
100
AcDbLine
 10
326.5999999999914
 20
1185.100000000077
 30
0.0
 11
338.4000000000012
 21
1185.100000000077
 31
0.0
  0
LINE
  5
277
330
1F
100
AcDbEntity
  8
LAY-10
  6
CONTINUOUS
 62
     7
100
AcDbLine
 10
326.5999999999914
 20
1185.100000000077
 30
0.0
 11
326.5999999999914
 21
1177.900000000036
 31
0.0
  0
LINE
  5
278
330
1F
100
AcDbEntity
  8
LAY-10
  6
CONTINUOUS
 62
     7
100
AcDbLine
 10
326.6000000000215
 20
1177.900000000037
 30
0.0
 11
338.4000000000012
 21
1177.900000000037
 31
0.0
  0
LINE
  5
279
330
1F
100
AcDbEntity
  8
LAY-10
  6
CONTINUOUS
 62
     7
100
AcDbLine
 10
338.4000000000012
 20
1185.100000000077
 30
0.0
 11
338.4000000000012
 21
1177.900000000037
 31
0.0
  0
LINE
  5
27A
330
1F
100
AcDbEntity
  8
LAY-10
  6
CONTINUOUS
 62
     7
100
AcDbLine
 10
338.4000000000012
 20
1185.100000000077
 30
0.0
 11
339.0000000000011
 21
1184.500000000057
 31
0.0
  0
LINE
  5
27B
330
1F
100
AcDbEntity
  8
LAY-10
  6
CONTINUOUS
 62
     7
100
AcDbLine
 10
338.4000000000212
 20
1177.900000000037
 30
0.0
 11
339.0000000000211
 21
1178.500000000057
 31
0.0
  0
LINE
  5
27C
330
1F
100
AcDbEntity
  8
LAY-10
  6
CONTINUOUS
 62
     7
100
AcDbLine
 10
327.0000000000011
 20
1185.500000000106
 30
0.0
 11
326.5999999999723
 21
1185.100000000077
 31
0.0
  0
LINE
  5
27D
330
1F
100
AcDbEntity
  8
LAY-10
  6
CONTINUOUS
 62
     7
100
AcDbLine
 10
327.0000000000011
 20
1177.500000000106
 30
0.0
 11
326.5999999999914
 21
1177.900000000136
 31
0.0
  0
LINE
  5
27E
330
1F
100
AcDbEntity
  8
LAY-10
  6
CONTINUOUS
 62
     7
100
AcDbLine
 10
338.999999999901
 20
1184.500000000155
 30
0.0
 11
338.999999999901
 21
1178.500000000155
 31
0.0
  0
LINE
  5
27F
330
1F
100
AcDbEntity
  8
LAY-10
  6
CONTINUOUS
 62
     7
100
AcDbLine
 10
326.5999999999914
 20
1165.100000000077
 30
0.0
 11
338.4000000000012
 21
1165.100000000077
 31
0.0
  0
LINE
  5
280
330
1F
100
AcDbEntity
  8
LAY-10
  6
CONTINUOUS
 62
     7
100
AcDbLine
 10
326.5999999999914
 20
1165.100000000077
 30
0.0
 11
326.5999999999914
 21
1157.900000000036
 31
0.0
  0
LINE
  5
281
330
1F
100
AcDbEntity
  8
LAY-10
  6
CONTINUOUS
 62
     7
100
AcDbLine
 10
326.6000000000215
 20
1157.900000000037
 30
0.0
 11
338.4000000000012
 21
1157.900000000037
 31
0.0
  0
LINE
  5
282
330
1F
100
AcDbEntity
  8
LAY-10
  6
CONTINUOUS
 62
     7
100
AcDbLine
 10
338.4000000000012
 20
1165.100000000077
 30
0.0
 11
338.4000000000012
 21
1157.900000000037
 31
0.0
  0
LINE
  5
283
330
1F
100
AcDbEntity
  8
LAY-10
  6
CONTINUOUS
 62
     7
100
AcDbLine
 10
338.4000000000012
 20
1165.100000000077
 30
0.0
 11
339.0000000000011
 21
1164.500000000057
 31
0.0
  0
LINE
  5
284
330
1F
100
AcDbEntity
  8
LAY-10
  6
CONTINUOUS
 62
     7
100
AcDbLine
 10
338.4000000000212
 20
1157.900000000037
 30
0.0
 11
339.0000000000211
 21
1158.500000000057
 31
0.0
  0
LINE
  5
285
330
1F
100
AcDbEntity
  8
LAY-10
  6
CONTINUOUS
 62
     7
100
AcDbLine
 10
327.0000000000011
 20
1165.500000000106
 30
0.0
 11
326.5999999999123
 21
1165.100000000077
 31
0.0
  0
LINE
  5
286
330
1F
100
AcDbEntity
  8
LAY-10
  6
CONTINUOUS
 62
     7
100
AcDbLine
 10
327.0000000000011
 20
1157.500000000106
 30
0.0
 11
326.5999999999914
 21
1157.900000000056
 31
0.0
  0
LINE
  5
287
330
1F
100
AcDbEntity
  8
LAY-10
  6
CONTINUOUS
 62
     7
100
AcDbLine
 10
422.3542486890949
 20
1164.500000000254
 30
0.0
 11
338.9999999998041
 21
1164.500000000254
 31
0.0
  0
LINE
  5
288
330
1F
100
AcDbEntity
  8
LAY-10
  6
CONTINUOUS
 62
     7
100
AcDbLine
 10
422.3542486890953
 20
1158.499999999956
 30
0.0
 11
338.999999999921
 21
1158.499999999957
 31
0.0
  0
LINE
  5
289
330
1F
100
AcDbEntity
  8
LAY-10
  6
CONTINUOUS
 62
     7
100
AcDbLine
 10
338.999999999801
 20
1164.500000000255
 30
0.0
 11
338.999999999801
 21
1158.499999999957
 31
0.0
  0
LINE
  5
28A
330
1F
100
AcDbEntity
  8
LAY-10
  6
CONTINUOUS
 62
     7
100
AcDbLine
 10
326.5999999999914
 20
1145.100000000077
 30
0.0
 11
338.4000000000012
 21
1145.100000000077
 31
0.0
  0
LINE
  5
28B
330
1F
100
AcDbEntity
  8
LAY-10
  6
CONTINUOUS
 62
     7
100
AcDbLine
 10
326.5999999999914
 20
1145.100000000077
 30
0.0
 11
326.5999999999914
 21
1137.900000000036
 31
0.0
  0
LINE
  5
28C
330
1F
100
AcDbEntity
  8
LAY-10
  6
CONTINUOUS
 62
     7
100
AcDbLine
 10
326.6000000000215
 20
1137.900000000037
 30
0.0
 11
338.4000000000012
 21
1137.900000000037
 31
0.0
  0
LINE
  5
28D
330
1F
100
AcDbEntity
  8
LAY-10
  6
CONTINUOUS
 62
     7
100
AcDbLine
 10
338.4000000000012
 20
1145.100000000077
 30
0.0
 11
338.4000000000012
 21
1137.900000000037
 31
0.0
  0
LINE
  5
28E
330
1F
100
AcDbEntity
  8
LAY-10
  6
CONTINUOUS
 62
     7
100
AcDbLine
 10
338.4000000000012
 20
1145.100000000077
 30
0.0
 11
339.0000000000011
 21
1144.500000000057
 31
0.0
  0
LINE
  5
28F
330
1F
100
AcDbEntity
  8
LAY-10
  6
CONTINUOUS
 62
     7
100
AcDbLine
 10
338.4000000000212
 20
1137.900000000037
 30
0.0
 11
339.0000000000211
 21
1138.500000000057
 31
0.0
  0
LINE
  5
290
330
1F
100
AcDbEntity
  8
LAY-10
  6
CONTINUOUS
 62
     7
100
AcDbLine
 10
327.0000000000011
 20
1145.500000000106
 30
0.0
 11
326.5999999999914
 21
1145.100000000076
 31
0.0
  0
LINE
  5
291
330
1F
100
AcDbEntity
  8
LAY-10
  6
CONTINUOUS
 62
     7
100
AcDbLine
 10
327.0000000000011
 20
1137.500000000005
 30
0.0
 11
326.5999999999896
 21
1137.900000000037
 31
0.0
  0
LINE
  5
292
330
1F
100
AcDbEntity
  8
LAY-10
  6
CONTINUOUS
 62
     7
100
AcDbLine
 10
339.0000000000011
 20
1144.500000000055
 30
0.0
 11
339.0000000000011
 21
1138.500000000058
 31
0.0
  0
LINE
  5
293
330
1F
100
AcDbEntity
  8
LAY-10
  6
CONTINUOUS
 62
     7
100
AcDbLine
 10
731.0000000000009
 20
1178.500000000156
 30
0.0
 11
731.0000000000009
 21
1184.500000000156
 31
0.0
  0
LINE
  5
294
330
1F
100
AcDbEntity
  8
LAY-10
  6
CONTINUOUS
 62
     7
100
AcDbLine
 10
719.0000000000009
 20
1158.500000000256
 30
0.0
 11
719.0000000000009
 21
1164.500000000256
 31
0.0
  0
LINE
  5
295
330
1F
100
AcDbEntity
  8
LAY-10
  6
CONTINUOUS
 62
     7
100
AcDbLine
 10
919.0000000000009
 20
1158.500000000256
 30
0.0
 11
919.0000000000009
 21
1164.500000000256
 31
0.0
  0
LINE
  5
296
330
1F
100
AcDbEntity
  8
LAY-10
  6
CONTINUOUS
 62
     7
100
AcDbLine
 10
326.0000000000015
 20
1198.500000000055
 30
0.0
 11
326.0000000000015
 21
1124.500000000153
 31
0.0
  0
LINE
  5
297
330
1F
100
AcDbEntity
  8
LAY-10
  6
CONTINUOUS
 62
     7
100
AcDbLine
 10
622.3542486890742
 20
1164.500000000253
 30
0.0
 11
427.6457513108878
 21
1164.500000000253
 31
0.0
  0
LINE
  5
298
330
1F
100
AcDbEntity
  8
LAY-10
  6
CONTINUOUS
 62
     7
100
AcDbLine
 10
622.3542486890747
 20
1158.499999999956
 30
0.0
 11
427.6457513108869
 21
1158.499999999956
 31
0.0
  0
LINE
  5
299
330
1F
100
AcDbEntity
  8
LAY-10
  6
CONTINUOUS
 62
     7
100
AcDbLine
 10
822.3542486891047
 20
1164.500000000253
 30
0.0
 11
627.6457513108671
 21
1164.500000000253
 31
0.0
  0
LINE
  5
29A
330
1F
100
AcDbEntity
  8
LAY-10
  6
CONTINUOUS
 62
     7
100
AcDbLine
 10
822.3542486891051
 20
1158.499999999956
 30
0.0
 11
627.6457513108671
 21
1158.499999999956
 31
0.0
  0
CIRCLE
  5
29B
330
1F
100
AcDbEntity
  8
LAY-10
  6
CONTINUOUS
 62
     7
100
AcDbCircle
 10
825.0000000002325
 20
1184.000000000095
 30
0.0
 40
2.3
  0
CIRCLE
  5
29C
330
1F
100
AcDbEntity
  8
LAY-10
  6
CONTINUOUS
 62
     7
100
AcDbCircle
 10
825.0000000002325
 20
1139.000000000116
 30
0.0
 40
2.3
  0
CIRCLE
  5
29D
330
1F
100
AcDbEntity
  8
LAY-10
  6
CONTINUOUS
 62
     7
100
AcDbCircle
 10
625.0000000002024
 20
1184.000000000095
 30
0.0
 40
2.3
  0
CIRCLE
  5
29E
330
1F
100
AcDbEntity
  8
LAY-10
  6
CONTINUOUS
 62
     7
100
AcDbCircle
 10
625.0000000002024
 20
1139.000000000116
 30
0.0
 40
2.3
  0
CIRCLE
  5
29F
330
1F
100
AcDbEntity
  8
LAY-10
  6
CONTINUOUS
 62
     7
100
AcDbCircle
 10
425.0000000002225
 20
1184.000000000095
 30
0.0
 40
2.3
  0
CIRCLE
  5
2A0
330
1F
100
AcDbEntity
  8
LAY-10
  6
CONTINUOUS
 62
     7
100
AcDbCircle
 10
425.0000000002225
 20
1139.000000000116
 30
0.0
 40
2.3
  0
LINE
  5
2A1
330
1F
100
AcDbEntity
  8
LAY-10
  6
CONTINUOUS
 62
     7
100
AcDbLine
 10
327.0000000000011
 20
1185.500000000153
 30
0.0
 11
423.2564404228562
 21
1185.500000000153
 31
0.0
  0
LINE
  5
2A2
330
1F
100
AcDbEntity
  8
LAY-10
  6
CONTINUOUS
 62
     7
100
AcDbLine
 10
422.755005568171
 20
1184.500000000153
 30
0.0
 11
338.9999999999047
 21
1184.500000000153
 31
0.0
  0
LINE
  5
2A3
330
1F
100
AcDbEntity
  8
LAY-10
  6
CONTINUOUS
 62
     7
100
AcDbLine
 10
423.2564404229008
 20
1137.500000000007
 30
0.0
 11
327.0000000000011
 21
1137.500000000007
 31
0.0
  0
LINE
  5
2A4
330
1F
100
AcDbEntity
  8
LAY-10
  6
CONTINUOUS
 62
     7
100
AcDbLine
 10
422.7550055681715
 20
1138.500000000058
 30
0.0
 11
339.000000000022
 21
1138.500000000058
 31
0.0
  0
LINE
  5
2A5
330
1F
100
AcDbEntity
  8
LAY-10
  6
CONTINUOUS
 62
     7
100
AcDbLine
 10
426.7435595775885
 20
1185.500000000153
 30
0.0
 11
623.256440422836
 21
1185.500000000153
 31
0.0
  0
LINE
  5
2A6
330
1F
100
AcDbEntity
  8
LAY-10
  6
CONTINUOUS
 62
     7
100
AcDbLine
 10
622.7550055681509
 20
1184.500000000153
 30
0.0
 11
427.2449944322736
 21
1184.500000000153
 31
0.0
  0
LINE
  5
2A7
330
1F
100
AcDbEntity
  8
LAY-10
  6
CONTINUOUS
 62
     7
100
AcDbLine
 10
623.2564404228806
 20
1137.500000000007
 30
0.0
 11
426.7435595775443
 21
1137.500000000006
 31
0.0
  0
LINE
  5
2A8
330
1F
100
AcDbEntity
  8
LAY-10
  6
CONTINUOUS
 62
     7
100
AcDbLine
 10
622.7550055681513
 20
1138.500000000057
 30
0.0
 11
427.2449944322736
 21
1138.500000000057
 31
0.0
  0
LINE
  5
2A9
330
1F
100
AcDbEntity
  8
LAY-10
  6
CONTINUOUS
 62
     7
100
AcDbLine
 10
823.2564404229106
 20
1137.500000000006
 30
0.0
 11
626.7435595775241
 21
1137.500000000006
 31
0.0
  0
LINE
  5
2AA
330
1F
100
AcDbEntity
  8
LAY-10
  6
CONTINUOUS
 62
     7
100
AcDbLine
 10
822.7550055681814
 20
1138.500000000057
 30
0.0
 11
627.2449944322534
 21
1138.500000000057
 31
0.0
  0
LINE
  5
2AB
330
1F
100
AcDbEntity
  8
LAY-10
  6
CONTINUOUS
 62
     7
100
AcDbLine
 10
626.7435595775682
 20
1185.500000000153
 30
0.0
 11
823.2564404228665
 21
1185.500000000153
 31
0.0
  0
LINE
  5
2AC
330
1F
100
AcDbEntity
  8
LAY-10
  6
CONTINUOUS
 62
     7
100
AcDbLine
 10
822.7550055681814
 20
1184.500000000154
 30
0.0
 11
627.2449944322534
 21
1184.500000000154
 31
0.0
  0
LINE
  5
2AD
330
1F
100
AcDbEntity
  8
LAY-10
  6
CONTINUOUS
 62
     7
100
AcDbLine
 10
924.0000000000003
 20
1157.500000000107
 30
0.0
 11
828.0000000000036
 21
1157.500000000107
 31
0.0
  0
LINE
  5
2AE
330
1F
100
AcDbEntity
  8
LAY-10
  6
CONTINUOUS
 62
     7
100
AcDbLine
 10
828.0000000000041
 20
1165.500000000103
 30
0.0
 11
924.0
 21
1165.500000000103
 31
0.0
  0
LINE
  5
2AF
330
1F
100
AcDbEntity
  8
LAY-10
  6
CONTINUOUS
 62
     7
100
AcDbLine
 10
327.0000000000011
 20
1125.500000000203
 30
0.0
 11
924.0000000000003
 21
1125.500000000204
 31
0.0
  0
LINE
  5
2B0
330
1F
100
AcDbEntity
  8
LAY-10
  6
CONTINUOUS
 62
     7
100
AcDbLine
 10
327.0000000000011
 20
1145.500000000103
 30
0.0
 11
924.0000000000003
 21
1145.500000000104
 31
0.0
  0
LINE
  5
2B1
330
1F
100
AcDbEntity
  8
LAY-10
  6
CONTINUOUS
 62
     7
100
AcDbLine
 10
924.0
 20
1177.500000000107
 30
0.0
 11
327.0000000000011
 21
1177.500000000107
 31
0.0
  0
LINE
  5
2B2
330
1F
100
AcDbEntity
  8
LAY-10
  6
CONTINUOUS
 62
     7
100
AcDbLine
 10
924.0
 20
1197.500000000057
 30
0.0
 11
327.0000000000011
 21
1197.500000000057
 31
0.0
  0
LINE
  5
2B3
330
1F
100
AcDbEntity
  8
LAY-10
  6
CONTINUOUS
 62
     7
100
AcDbLine
 10
924.0000000000003
 20
1124.500000000154
 30
0.0
 11
325.9999999999993
 21
1124.500000000153
 31
0.0
  0
LINE
  5
2B4
330
1F
100
AcDbEntity
  8
LAY-10
  6
CONTINUOUS
 62
     7
100
AcDbLine
 10
924.0
 20
1198.50000000006
 30
0.0
 11
326.0000000000497
 21
1198.500000000057
 31
0.0
  0
LINE
  5
2B5
330
1F
100
AcDbEntity
  8
LAY-10
  6
CONTINUOUS
 62
     7
100
AcDbLine
 10
924.0
 20
1178.500000000156
 30
0.0
 11
339.0000000001193
 21
1178.500000000155
 31
0.0
  0
LINE
  5
2B6
330
1F
100
AcDbEntity
  8
LAY-10
  6
CONTINUOUS
 62
     7
100
AcDbLine
 10
924.0000000000003
 20
1144.500000000056
 30
0.0
 11
339.0000000000028
 21
1144.500000000056
 31
0.0
  0
LINE
  5
2B7
330
1F
100
AcDbEntity
  8
LAY-10
  6
CONTINUOUS
 62
     7
100
AcDbLine
 10
827.6457513112359
 20
1164.499999999955
 30
0.0
 11
924.0
 21
1164.499999999955
 31
0.0
  0
LINE
  5
2B8
330
1F
100
AcDbEntity
  8
LAY-10
  6
CONTINUOUS
 62
     7
100
AcDbLine
 10
827.6457513108958
 20
1158.499999999955
 30
0.0
 11
924.0000000000003
 21
1158.499999999955
 31
0.0
  0
LINE
  5
2B9
330
1F
100
AcDbEntity
  8
LAY-10
  6
CONTINUOUS
 62
     7
100
AcDbLine
 10
826.7435595775983
 20
1185.500000000153
 30
0.0
 11
924.0
 21
1185.500000000153
 31
0.0
  0
LINE
  5
2BA
330
1F
100
AcDbEntity
  8
LAY-10
  6
CONTINUOUS
 62
     7
100
AcDbLine
 10
924.0
 20
1184.500000000153
 30
0.0
 11
827.2449944322835
 21
1184.500000000154
 31
0.0
  0
LINE
  5
2BB
330
1F
100
AcDbEntity
  8
LAY-10
  6
CONTINUOUS
 62
     7
100
AcDbLine
 10
924.0000000000003
 20
1137.500000000007
 30
0.0
 11
826.7435595775542
 21
1137.500000000006
 31
0.0
  0
LINE
  5
2BC
330
1F
100
AcDbEntity
  8
LAY-10
  6
CONTINUOUS
 62
     7
100
AcDbLine
 10
924.0000000000003
 20
1138.500000000058
 30
0.0
 11
827.2449944322835
 21
1138.500000000057
 31
0.0
  0
LINE
  5
2BD
330
1F
100
AcDbEntity
  8
LAY-10
  6
CONTINUOUS
 62
     7
100
AcDbLine
 10
924.0
 20
1198.50000000006
 30
0.0
 11
924.0
 21
1124.50000000015
 31
0.0
  0
LINE
  5
2BE
330
1F
100
AcDbEntity
  8
LAY-10
  6
CONTINUOUS
 62
     7
100
AcDbLine
 10
329.5000000000001
 20
669.5000000000199
 30
0.0
 11
331.5000000000002
 21
671.5000000000203
 31
0.0
  0
LINE
  5
2BF
330
1F
100
AcDbEntity
  8
LAY-10
  6
CONTINUOUS
 62
     7
100
AcDbLine
 10
336.5710678118656
 20
669.5000000000199
 30
0.0
 11
338.5710678118658
 21
671.5000000000203
 31
0.0
  0
LINE
  5
2C0
330
1F
100
AcDbEntity
  8
LAY-10
  6
CONTINUOUS
 62
     7
100
AcDbLine
 10
343.6421356237311
 20
669.5000000000199
 30
0.0
 11
345.6421356237312
 21
671.5000000000203
 31
0.0
  0
LINE
  5
2C1
330
1F
100
AcDbEntity
  8
LAY-10
  6
CONTINUOUS
 62
     7
100
AcDbLine
 10
350.7132034355965
 20
669.5000000000199
 30
0.0
 11
352.7132034355968
 21
671.5000000000199
 31
0.0
  0
LINE
  5
2C2
330
1F
100
AcDbEntity
  8
LAY-10
  6
CONTINUOUS
 62
     7
100
AcDbLine
 10
357.7842712474619
 20
669.5000000000199
 30
0.0
 11
359.7842712474622
 21
671.5000000000203
 31
0.0
  0
LINE
  5
2C3
330
1F
100
AcDbEntity
  8
LAY-10
  6
CONTINUOUS
 62
     7
100
AcDbLine
 10
364.8553390593274
 20
669.5000000000199
 30
0.0
 11
366.8553390593278
 21
671.5000000000203
 31
0.0
  0
LINE
  5
2C4
330
1F
100
AcDbEntity
  8
LAY-10
  6
CONTINUOUS
 62
     7
100
AcDbLine
 10
371.926406871193
 20
669.5000000000199
 30
0.0
 11
373.9264068711933
 21
671.5000000000199
 31
0.0
  0
LINE
  5
2C5
330
1F
100
AcDbEntity
  8
LAY-10
  6
CONTINUOUS
 62
     7
100
AcDbLine
 10
378.9974746830585
 20
669.5000000000199
 30
0.0
 11
380.9974746830587
 21
671.5000000000199
 31
0.0
  0
LINE
  5
2C6
330
1F
100
AcDbEntity
  8
LAY-10
  6
CONTINUOUS
 62
     7
100
AcDbLine
 10
386.0685424949239
 20
669.5000000000199
 30
0.0
 11
388.068542494924
 21
671.5000000000199
 31
0.0
  0
LINE
  5
2C7
330
1F
100
AcDbEntity
  8
LAY-10
  6
CONTINUOUS
 62
     7
100
AcDbLine
 10
393.1396103067894
 20
669.5000000000199
 30
0.0
 11
395.1396103067896
 21
671.5000000000203
 31
0.0
  0
LINE
  5
2C8
330
1F
100
AcDbEntity
  8
LAY-10
  6
CONTINUOUS
 62
     7
100
AcDbLine
 10
400.2106781186549
 20
669.5000000000199
 30
0.0
 11
402.2106781186551
 21
671.5000000000203
 31
0.0
  0
LINE
  5
2C9
330
1F
100
AcDbEntity
  8
LAY-10
  6
CONTINUOUS
 62
     7
100
AcDbLine
 10
407.2817459305205
 20
669.5000000000199
 30
0.0
 11
409.2817459305205
 21
671.5000000000203
 31
0.0
  0
LINE
  5
2CA
330
1F
100
AcDbEntity
  8
LAY-10
  6
CONTINUOUS
 62
     7
100
AcDbLine
 10
414.352813742386
 20
669.5000000000199
 30
0.0
 11
416.3528137423859
 21
671.5000000000203
 31
0.0
  0
LINE
  5
2CB
330
1F
100
AcDbEntity
  8
LAY-10
  6
CONTINUOUS
 62
     7
100
AcDbLine
 10
421.4238815542511
 20
669.5000000000199
 30
0.0
 11
423.4238815542515
 21
671.5000000000203
 31
0.0
  0
LINE
  5
2CC
330
1F
100
AcDbEntity
  8
LAY-10
  6
CONTINUOUS
 62
     7
100
AcDbLine
 10
428.4949493661167
 20
669.5000000000199
 30
0.0
 11
430.494949366117
 21
671.5000000000203
 31
0.0
  0
LINE
  5
2CD
330
1F
100
AcDbEntity
  8
LAY-10
  6
CONTINUOUS
 62
     7
100
AcDbLine
 10
435.5660171779822
 20
669.5000000000199
 30
0.0
 11
437.5660171779825
 21
671.5000000000203
 31
0.0
  0
LINE
  5
2CE
330
1F
100
AcDbEntity
  8
LAY-10
  6
CONTINUOUS
 62
     7
100
AcDbLine
 10
442.6370849898477
 20
669.5000000000199
 30
0.0
 11
444.6370849898481
 21
671.5000000000199
 31
0.0
  0
LINE
  5
2CF
330
1F
100
AcDbEntity
  8
LAY-10
  6
CONTINUOUS
 62
     7
100
AcDbLine
 10
449.7081528017133
 20
669.5000000000199
 30
0.0
 11
451.7081528017135
 21
671.5000000000199
 31
0.0
  0
LINE
  5
2D0
330
1F
100
AcDbEntity
  8
LAY-10
  6
CONTINUOUS
 62
     7
100
AcDbLine
 10
456.7792206135786
 20
669.5000000000199
 30
0.0
 11
458.7792206135788
 21
671.5000000000199
 31
0.0
  0
LINE
  5
2D1
330
1F
100
AcDbEntity
  8
LAY-10
  6
CONTINUOUS
 62
     7
100
AcDbLine
 10
463.8502884254441
 20
669.5000000000199
 30
0.0
 11
465.8502884254443
 21
671.5000000000203
 31
0.0
  0
LINE
  5
2D2
330
1F
100
AcDbEntity
  8
LAY-10
  6
CONTINUOUS
 62
     7
100
AcDbLine
 10
470.9213562373097
 20
669.5000000000199
 30
0.0
 11
472.9213562373099
 21
671.5000000000203
 31
0.0
  0
LINE
  5
2D3
330
1F
100
AcDbEntity
  8
LAY-10
  6
CONTINUOUS
 62
     7
100
AcDbLine
 10
477.9924240491752
 20
669.5000000000199
 30
0.0
 11
479.9924240491754
 21
671.5000000000199
 31
0.0
  0
LINE
  5
2D4
330
1F
100
AcDbEntity
  8
LAY-10
  6
CONTINUOUS
 62
     7
100
AcDbLine
 10
485.0634918610407
 20
669.5000000000199
 30
0.0
 11
487.0634918610409
 21
671.5000000000199
 31
0.0
  0
LINE
  5
2D5
330
1F
100
AcDbEntity
  8
LAY-10
  6
CONTINUOUS
 62
     7
100
AcDbLine
 10
492.134559672906
 20
669.5000000000199
 30
0.0
 11
494.1345596729062
 21
671.5000000000199
 31
0.0
  0
LINE
  5
2D6
330
1F
100
AcDbEntity
  8
LAY-10
  6
CONTINUOUS
 62
     7
100
AcDbLine
 10
499.2056274847715
 20
669.5000000000199
 30
0.0
 11
501.2056274847718
 21
671.5000000000203
 31
0.0
  0
LINE
  5
2D7
330
1F
100
AcDbEntity
  8
LAY-10
  6
CONTINUOUS
 62
     7
100
AcDbLine
 10
506.2766952966371
 20
669.5000000000199
 30
0.0
 11
508.2766952966373
 21
671.5000000000199
 31
0.0
  0
LINE
  5
2D8
330
1F
100
AcDbEntity
  8
LAY-10
  6
CONTINUOUS
 62
     7
100
AcDbLine
 10
513.3477631085025
 20
669.5000000000199
 30
0.0
 11
515.3477631085027
 21
671.5000000000199
 31
0.0
  0
LINE
  5
2D9
330
1F
100
AcDbEntity
  8
LAY-10
  6
CONTINUOUS
 62
     7
100
AcDbLine
 10
520.418830920368
 20
669.5000000000199
 30
0.0
 11
522.4188309203682
 21
671.5000000000199
 31
0.0
  0
LINE
  5
2DA
330
1F
100
AcDbEntity
  8
LAY-10
  6
CONTINUOUS
 62
     7
100
AcDbLine
 10
527.4898987322333
 20
669.5000000000199
 30
0.0
 11
529.4898987322335
 21
671.5000000000199
 31
0.0
  0
LINE
  5
2DB
330
1F
100
AcDbEntity
  8
LAY-10
  6
CONTINUOUS
 62
     7
100
AcDbLine
 10
534.5609665440988
 20
669.5000000000199
 30
0.0
 11
536.5609665440991
 21
671.5000000000203
 31
0.0
  0
LINE
  5
2DC
330
1F
100
AcDbEntity
  8
LAY-10
  6
CONTINUOUS
 62
     7
100
AcDbLine
 10
541.6320343559644
 20
669.5000000000199
 30
0.0
 11
543.6320343559646
 21
671.5000000000199
 31
0.0
  0
LINE
  5
2DD
330
1F
100
AcDbEntity
  8
LAY-10
  6
CONTINUOUS
 62
     7
100
AcDbLine
 10
548.7031021678299
 20
669.5000000000199
 30
0.0
 11
550.7031021678301
 21
671.5000000000199
 31
0.0
  0
LINE
  5
2DE
330
1F
100
AcDbEntity
  8
LAY-10
  6
CONTINUOUS
 62
     7
100
AcDbLine
 10
555.7741699796954
 20
669.5000000000199
 30
0.0
 11
557.7741699796957
 21
671.5000000000199
 31
0.0
  0
LINE
  5
2DF
330
1F
100
AcDbEntity
  8
LAY-10
  6
CONTINUOUS
 62
     7
100
AcDbLine
 10
562.8452377915607
 20
669.5000000000194
 30
0.0
 11
564.8452377915612
 21
671.5000000000199
 31
0.0
  0
LINE
  5
2E0
330
1F
100
AcDbEntity
  8
LAY-10
  6
CONTINUOUS
 62
     7
100
AcDbLine
 10
569.9163056034262
 20
669.5000000000199
 30
0.0
 11
571.9163056034266
 21
671.5000000000203
 31
0.0
  0
LINE
  5
2E1
330
1F
100
AcDbEntity
  8
LAY-10
  6
CONTINUOUS
 62
     7
100
AcDbLine
 10
576.9873734152917
 20
669.5000000000199
 30
0.0
 11
578.9873734152918
 21
671.5000000000203
 31
0.0
  0
LINE
  5
2E2
330
1F
100
AcDbEntity
  8
LAY-10
  6
CONTINUOUS
 62
     7
100
AcDbLine
 10
584.0584412271573
 20
669.5000000000199
 30
0.0
 11
586.0584412271573
 21
671.5000000000203
 31
0.0
  0
LINE
  5
2E3
330
1F
100
AcDbEntity
  8
LAY-10
  6
CONTINUOUS
 62
     7
100
AcDbLine
 10
591.1295090390229
 20
669.5000000000199
 30
0.0
 11
593.1295090390229
 21
671.5000000000203
 31
0.0
  0
LINE
  5
2E4
330
1F
100
AcDbEntity
  8
LAY-10
  6
CONTINUOUS
 62
     7
100
AcDbLine
 10
598.2005768508882
 20
669.5000000000199
 30
0.0
 11
600.2005768508884
 21
671.5000000000197
 31
0.0
  0
LINE
  5
2E5
330
1F
100
AcDbEntity
  8
LAY-10
  6
CONTINUOUS
 62
     7
100
AcDbLine
 10
605.2716446627537
 20
669.5000000000199
 30
0.0
 11
607.2716446627539
 21
671.5000000000199
 31
0.0
  0
LINE
  5
2E6
330
1F
100
AcDbEntity
  8
LAY-10
  6
CONTINUOUS
 62
     7
100
AcDbLine
 10
612.342712474619
 20
669.5000000000199
 30
0.0
 11
614.3427124746195
 21
671.5000000000199
 31
0.0
  0
LINE
  5
2E7
330
1F
100
AcDbEntity
  8
LAY-10
  6
CONTINUOUS
 62
     7
100
AcDbLine
 10
619.4137802864846
 20
669.5000000000199
 30
0.0
 11
621.413780286485
 21
671.5000000000199
 31
0.0
  0
LINE
  5
2E8
330
1F
100
AcDbEntity
  8
LAY-10
  6
CONTINUOUS
 62
     7
100
AcDbLine
 10
626.4848480983501
 20
669.5000000000199
 30
0.0
 11
628.4848480983505
 21
671.5000000000199
 31
0.0
  0
LINE
  5
2E9
330
1F
100
AcDbEntity
  8
LAY-10
  6
CONTINUOUS
 62
     7
100
AcDbLine
 10
633.5559159102154
 20
669.5000000000194
 30
0.0
 11
635.5559159102158
 21
671.5000000000199
 31
0.0
  0
LINE
  5
2EA
330
1F
100
AcDbEntity
  8
LAY-10
  6
CONTINUOUS
 62
     7
100
AcDbLine
 10
640.6269837220808
 20
669.5000000000199
 30
0.0
 11
642.6269837220813
 21
671.5000000000203
 31
0.0
  0
LINE
  5
2EB
330
1F
100
AcDbEntity
  8
LAY-10
  6
CONTINUOUS
 62
     7
100
AcDbLine
 10
647.6980515339463
 20
669.5000000000199
 30
0.0
 11
649.6980515339467
 21
671.5000000000203
 31
0.0
  0
LINE
  5
2EC
330
1F
100
AcDbEntity
  8
LAY-10
  6
CONTINUOUS
 62
     7
100
AcDbLine
 10
654.7691193458119
 20
669.5000000000199
 30
0.0
 11
656.7691193458122
 21
671.5000000000203
 31
0.0
  0
LINE
  5
2ED
330
1F
100
AcDbEntity
  8
LAY-10
  6
CONTINUOUS
 62
     7
100
AcDbLine
 10
661.8401871576774
 20
669.5000000000199
 30
0.0
 11
663.8401871576777
 21
671.5000000000203
 31
0.0
  0
LINE
  5
2EE
330
1F
100
AcDbEntity
  8
LAY-10
  6
CONTINUOUS
 62
     7
100
AcDbLine
 10
668.9112549695428
 20
669.5000000000199
 30
0.0
 11
670.911254969543
 21
671.5000000000197
 31
0.0
  0
LINE
  5
2EF
330
1F
100
AcDbEntity
  8
LAY-10
  6
CONTINUOUS
 62
     7
100
AcDbLine
 10
675.9823227814084
 20
669.5000000000199
 30
0.0
 11
677.9823227814086
 21
671.5000000000199
 31
0.0
  0
LINE
  5
2F0
330
1F
100
AcDbEntity
  8
LAY-10
  6
CONTINUOUS
 62
     7
100
AcDbLine
 10
683.0533905932739
 20
669.5000000000199
 30
0.0
 11
685.0533905932741
 21
671.5000000000199
 31
0.0
  0
LINE
  5
2F1
330
1F
100
AcDbEntity
  8
LAY-10
  6
CONTINUOUS
 62
     7
100
AcDbLine
 10
690.1244584051392
 20
669.5000000000199
 30
0.0
 11
692.1244584051396
 21
671.5000000000199
 31
0.0
  0
LINE
  5
2F2
330
1F
100
AcDbEntity
  8
LAY-10
  6
CONTINUOUS
 62
     7
100
AcDbLine
 10
697.1955262170047
 20
669.5000000000199
 30
0.0
 11
699.1955262170052
 21
671.5000000000199
 31
0.0
  0
LINE
  5
2F3
330
1F
100
AcDbEntity
  8
LAY-10
  6
CONTINUOUS
 62
     7
100
AcDbLine
 10
704.2665940288703
 20
669.5000000000194
 30
0.0
 11
706.2665940288707
 21
671.5000000000199
 31
0.0
  0
LINE
  5
2F4
330
1F
100
AcDbEntity
  8
LAY-10
  6
CONTINUOUS
 62
     7
100
AcDbLine
 10
711.3376618407358
 20
669.5000000000199
 30
0.0
 11
713.3376618407362
 21
671.5000000000203
 31
0.0
  0
LINE
  5
2F5
330
1F
100
AcDbEntity
  8
LAY-10
  6
CONTINUOUS
 62
     7
100
AcDbLine
 10
718.4087296526013
 20
669.5000000000199
 30
0.0
 11
720.4087296526013
 21
671.5000000000203
 31
0.0
  0
LINE
  5
2F6
330
1F
100
AcDbEntity
  8
LAY-10
  6
CONTINUOUS
 62
     7
100
AcDbLine
 10
725.4797974644669
 20
669.5000000000199
 30
0.0
 11
727.4797974644669
 21
671.5000000000203
 31
0.0
  0
LINE
  5
2F7
330
1F
100
AcDbEntity
  8
LAY-10
  6
CONTINUOUS
 62
     7
100
AcDbLine
 10
732.5508652763324
 20
669.5000000000199
 30
0.0
 11
734.5508652763324
 21
671.5000000000197
 31
0.0
  0
LINE
  5
2F8
330
1F
100
AcDbEntity
  8
LAY-10
  6
CONTINUOUS
 62
     7
100
AcDbLine
 10
739.6219330881979
 20
669.5000000000199
 30
0.0
 11
741.6219330881979
 21
671.5000000000199
 31
0.0
  0
LINE
  5
2F9
330
1F
100
AcDbEntity
  8
LAY-10
  6
CONTINUOUS
 62
     7
100
AcDbLine
 10
746.6930009000632
 20
669.5000000000199
 30
0.0
 11
748.6930009000635
 21
671.5000000000199
 31
0.0
  0
LINE
  5
2FA
330
1F
100
AcDbEntity
  8
LAY-10
  6
CONTINUOUS
 62
     7
100
AcDbLine
 10
753.7640687119288
 20
669.5000000000199
 30
0.0
 11
755.764068711929
 21
671.5000000000199
 31
0.0
  0
LINE
  5
2FB
330
1F
100
AcDbEntity
  8
LAY-10
  6
CONTINUOUS
 62
     7
100
AcDbLine
 10
760.8351365237941
 20
669.5000000000199
 30
0.0
 11
762.8351365237942
 21
671.5000000000199
 31
0.0
  0
LINE
  5
2FC
330
1F
100
AcDbEntity
  8
LAY-10
  6
CONTINUOUS
 62
     7
100
AcDbLine
 10
767.9062043356596
 20
669.5000000000199
 30
0.0
 11
769.9062043356599
 21
671.5000000000199
 31
0.0
  0
LINE
  5
2FD
330
1F
100
AcDbEntity
  8
LAY-10
  6
CONTINUOUS
 62
     7
100
AcDbLine
 10
774.9772721475251
 20
669.5000000000199
 30
0.0
 11
776.9772721475255
 21
671.5000000000199
 31
0.0
  0
LINE
  5
2FE
330
1F
100
AcDbEntity
  8
LAY-10
  6
CONTINUOUS
 62
     7
100
AcDbLine
 10
782.0483399593907
 20
669.5000000000199
 30
0.0
 11
784.048339959391
 21
671.5000000000199
 31
0.0
  0
LINE
  5
2FF
330
1F
100
AcDbEntity
  8
LAY-10
  6
CONTINUOUS
 62
     7
100
AcDbLine
 10
789.1194077712562
 20
669.5000000000199
 30
0.0
 11
791.1194077712562
 21
671.5000000000203
 31
0.0
  0
LINE
  5
300
330
1F
100
AcDbEntity
  8
LAY-10
  6
CONTINUOUS
 62
     7
100
AcDbLine
 10
796.1904755831217
 20
669.5000000000199
 30
0.0
 11
798.1904755831217
 21
671.5000000000203
 31
0.0
  0
LINE
  5
301
330
1F
100
AcDbEntity
  8
LAY-10
  6
CONTINUOUS
 62
     7
100
AcDbLine
 10
803.2615433949873
 20
669.5000000000199
 30
0.0
 11
805.2615433949873
 21
671.5000000000197
 31
0.0
  0
LINE
  5
302
330
1F
100
AcDbEntity
  8
LAY-10
  6
CONTINUOUS
 62
     7
100
AcDbLine
 10
810.3326112068527
 20
669.5000000000201
 30
0.0
 11
812.3326112068528
 21
671.5000000000199
 31
0.0
  0
LINE
  5
303
330
1F
100
AcDbEntity
  8
LAY-10
  6
CONTINUOUS
 62
     7
100
AcDbLine
 10
817.4036790187179
 20
669.5000000000201
 30
0.0
 11
819.4036790187181
 21
671.5000000000199
 31
0.0
  0
LINE
  5
304
330
1F
100
AcDbEntity
  8
LAY-10
  6
CONTINUOUS
 62
     7
100
AcDbLine
 10
824.4747468305834
 20
669.5000000000199
 30
0.0
 11
826.4747468305836
 21
671.5000000000199
 31
0.0
  0
LINE
  5
305
330
1F
100
AcDbEntity
  8
LAY-10
  6
CONTINUOUS
 62
     7
100
AcDbLine
 10
831.5458146424489
 20
669.5000000000199
 30
0.0
 11
833.5458146424492
 21
671.5000000000199
 31
0.0
  0
LINE
  5
306
330
1F
100
AcDbEntity
  8
LAY-10
  6
CONTINUOUS
 62
     7
100
AcDbLine
 10
838.6168824543145
 20
669.5000000000199
 30
0.0
 11
840.6168824543147
 21
671.5000000000199
 31
0.0
  0
LINE
  5
307
330
1F
100
AcDbEntity
  8
LAY-10
  6
CONTINUOUS
 62
     7
100
AcDbLine
 10
845.68795026618
 20
669.5000000000199
 30
0.0
 11
847.6879502661802
 21
671.5000000000199
 31
0.0
  0
LINE
  5
308
330
1F
100
AcDbEntity
  8
LAY-10
  6
CONTINUOUS
 62
     7
100
AcDbLine
 10
852.7590180780455
 20
669.5000000000199
 30
0.0
 11
854.7590180780458
 21
671.5000000000199
 31
0.0
  0
LINE
  5
309
330
1F
100
AcDbEntity
  8
LAY-10
  6
CONTINUOUS
 62
     7
100
AcDbLine
 10
859.8300858899111
 20
669.5000000000199
 30
0.0
 11
861.8300858899108
 21
671.5000000000203
 31
0.0
  0
LINE
  5
30A
330
1F
100
AcDbEntity
  8
LAY-10
  6
CONTINUOUS
 62
     7
100
AcDbLine
 10
866.9011537017766
 20
669.5000000000199
 30
0.0
 11
868.9011537017764
 21
671.5000000000203
 31
0.0
  0
LINE
  5
30B
330
1F
100
AcDbEntity
  8
LAY-10
  6
CONTINUOUS
 62
     7
100
AcDbLine
 10
873.9722215136421
 20
669.5000000000199
 30
0.0
 11
875.9722215136419
 21
671.5000000000197
 31
0.0
  0
LINE
  5
30C
330
1F
100
AcDbEntity
  8
LAY-10
  6
CONTINUOUS
 62
     7
100
AcDbLine
 10
881.0432893255074
 20
669.5000000000201
 30
0.0
 11
883.0432893255074
 21
671.5000000000199
 31
0.0
  0
LINE
  5
30D
330
1F
100
AcDbEntity
  8
LAY-10
  6
CONTINUOUS
 62
     7
100
AcDbLine
 10
888.1143571373727
 20
669.5000000000201
 30
0.0
 11
890.114357137373
 21
671.5000000000199
 31
0.0
  0
LINE
  5
30E
330
1F
100
AcDbEntity
  8
LAY-10
  6
CONTINUOUS
 62
     7
100
AcDbLine
 10
895.1854249492383
 20
669.5000000000199
 30
0.0
 11
897.1854249492385
 21
671.5000000000199
 31
0.0
  0
LINE
  5
30F
330
1F
100
AcDbEntity
  8
LAY-10
  6
CONTINUOUS
 62
     7
100
AcDbLine
 10
902.2564927611036
 20
669.5000000000199
 30
0.0
 11
904.2564927611039
 21
671.5000000000199
 31
0.0
  0
LINE
  5
310
330
1F
100
AcDbEntity
  8
LAY-10
  6
CONTINUOUS
 62
     7
100
AcDbLine
 10
909.3275605729691
 20
669.5000000000199
 30
0.0
 11
911.3275605729694
 21
671.5000000000199
 31
0.0
  0
LINE
  5
311
330
1F
100
AcDbEntity
  8
LAY-10
  6
CONTINUOUS
 62
     7
100
AcDbLine
 10
916.3986283848346
 20
669.5000000000199
 30
0.0
 11
918.398628384835
 21
671.5000000000199
 31
0.0
  0
LINE
  5
312
330
1F
100
AcDbEntity
  8
LAY-10
  6
CONTINUOUS
 62
     7
100
AcDbLine
 10
329.5000000000018
 20
669.500000000004
 30
0.0
 11
920.5000000000024
 21
669.500000000004
 31
0.0
  0
LINE
  5
313
330
1F
100
AcDbEntity
  8
LAY-10
  6
CONTINUOUS
 62
     7
100
AcDbLine
 10
800.000000000003
 20
665.000000000004
 30
0.0
 11
800.000000000003
 21
625.000000000004
 31
0.0
  0
LINE
  5
314
330
1F
100
AcDbEntity
  8
LAY-10
  6
CONTINUOUS
 62
     7
100
AcDbLine
 10
850.0000000000023
 20
665.000000000004
 30
0.0
 11
850.0000000000023
 21
625.000000000004
 31
0.0
  0
LINE
  5
315
330
1F
100
AcDbEntity
  8
LAY-10
  6
CONTINUOUS
 62
     7
100
AcDbLine
 10
800.000000000003
 20
625.000000000004
 30
0.0
 11
850.0000000000023
 21
625.000000000004
 31
0.0
  0
LINE
  5
316
330
1F
100
AcDbEntity
  8
LAY-10
  6
CONTINUOUS
 62
     7
100
AcDbLine
 10
450.0000000000017
 20
665.000000000004
 30
0.0
 11
450.0000000000017
 21
625.000000000004
 31
0.0
  0
LINE
  5
317
330
1F
100
AcDbEntity
  8
LAY-10
  6
CONTINUOUS
 62
     7
100
AcDbLine
 10
400.0000000000017
 20
665.000000000004
 30
0.0
 11
400.0000000000017
 21
625.0000000000049
 31
0.0
  0
LINE
  5
318
330
1F
100
AcDbEntity
  8
LAY-10
  6
CONTINUOUS
 62
     7
100
AcDbLine
 10
450.0000000000017
 20
625.0000000000049
 30
0.0
 11
400.0000000000017
 21
625.0000000000049
 31
0.0
  0
LINE
  5
319
330
1F
100
AcDbEntity
  8
LAY-10
  6
CONTINUOUS
 62
     7
100
AcDbLine
 10
924.9999999999991
 20
665.000000000004
 30
0.0
 11
325.0000000000036
 21
665.000000000004
 31
0.0
  0
LINE
  5
31A
330
1F
100
AcDbEntity
  8
LAY-10
  6
CONTINUOUS
 62
     7
100
AcDbLine
 10
925.0000000000023
 20
775.0000000000072
 30
0.0
 11
925.0000000000023
 21
664.9999999999822
 31
0.0
  0
LINE
  5
31B
330
1F
100
AcDbEntity
  8
LAY-10
  6
CONTINUOUS
 62
     7
100
AcDbLine
 10
325.0000000000018
 20
775.000000000004
 30
0.0
 11
325.0000000000018
 21
664.9999999999822
 31
0.0
  0
CIRCLE
  5
31C
330
1F
100
AcDbEntity
  8
LAY-10
  6
CONTINUOUS
 62
     7
100
AcDbCircle
 10
425.0000000000001
 20
645.0000000000697
 30
0.0
 40
4.000000000002842
  0
CIRCLE
  5
31D
330
1F
100
AcDbEntity
  8
LAY-10
  6
CONTINUOUS
 62
     7
100
AcDbCircle
 10
825.0000000000002
 20
645.0000000000697
 30
0.0
 40
4.000000000002842
  0
LINE
  5
31E
330
1F
100
AcDbEntity
  8
LAY-10
  6
CONTINUOUS
 62
     7
100
AcDbLine
 10
329.5000000000017
 20
775.000000000004
 30
0.0
 11
325.0000000000018
 21
775.000000000004
 31
0.0
  0
LINE
  5
31F
330
1F
100
AcDbEntity
  8
LAY-10
  6
CONTINUOUS
 62
     7
100
AcDbLine
 10
925.0
 20
775.000000000004
 30
0.0
 11
920.5000000000024
 21
775.000000000004
 31
0.0
  0
LINE
  5
320
330
1F
100
AcDbEntity
  8
LAY-10
  6
CONTINUOUS
 62
     7
100
AcDbLine
 10
336.0000000000015
 20
694.9999999999952
 30
0.0
 11
914.0000000000027
 21
694.9999999999952
 31
0.0
  0
ARC
  5
321
330
1F
100
AcDbEntity
  8
LAY-10
  6
CONTINUOUS
 62
     7
100
AcDbCircle
 10
336.0000000000015
 20
694.9999999999952
 30
0.0
 40
4.5
100
AcDbArc
 50
180.0
 51
270.0
  0
LINE
  5
322
330
1F
100
AcDbEntity
  8
LAY-10
  6
CONTINUOUS
 62
     7
100
AcDbLine
 10
335.9999999999988
 20
690.4999999999925
 30
0.0
 11
914.0000000000027
 21
690.4999999999925
 31
0.0
  0
ARC
  5
323
330
1F
100
AcDbEntity
  8
LAY-10
  6
CONTINUOUS
 62
     7
100
AcDbCircle
 10
914.0000000000027
 20
694.9999999999926
 30
0.0
 40
4.5
100
AcDbArc
 50
270.0
 51
0.0
  0
LINE
  5
324
330
1F
100
AcDbEntity
  8
LAY-10
  6
CONTINUOUS
 62
     7
100
AcDbLine
 10
649.9999999999939
 20
694.9999999999972
 30
0.0
 11
649.9999999999939
 21
690.4999999999962
 31
0.0
  0
LINE
  5
325
330
1F
100
AcDbEntity
  8
LAY-10
  6
CONTINUOUS
 62
     7
100
AcDbLine
 10
599.9999999999939
 20
694.9999999999972
 30
0.0
 11
599.9999999999939
 21
690.4999999999962
 31
0.0
  0
LINE
  5
326
330
1F
100
AcDbEntity
  8
LAY-10
  6
CONTINUOUS
 62
     7
100
AcDbLine
 10
849.9999999999937
 20
694.9999999999972
 30
0.0
 11
849.9999999999937
 21
690.4999999999962
 31
0.0
  0
LINE
  5
327
330
1F
100
AcDbEntity
  8
LAY-10
  6
CONTINUOUS
 62
     7
100
AcDbLine
 10
799.9999999999941
 20
694.9999999999972
 30
0.0
 11
799.9999999999941
 21
690.4999999999962
 31
0.0
  0
LINE
  5
328
330
1F
100
AcDbEntity
  8
LAY-10
  6
CONTINUOUS
 62
     7
100
AcDbLine
 10
400.0000000000115
 20
694.9999999999972
 30
0.0
 11
400.0000000000115
 21
690.4999999999962
 31
0.0
  0
LINE
  5
329
330
1F
100
AcDbEntity
  8
LAY-10
  6
CONTINUOUS
 62
     7
100
AcDbLine
 10
450.0000000000115
 20
694.9999999999972
 30
0.0
 11
450.0000000000115
 21
690.4999999999962
 31
0.0
  0
LINE
  5
32A
330
1F
100
AcDbEntity
  8
LAY-10
  6
CONTINUOUS
 62
     7
100
AcDbLine
 10
634.5000000000034
 20
690.4999999999925
 30
0.0
 11
634.5000000000034
 21
671.5000000000044
 31
0.0
  0
LINE
  5
32B
330
1F
100
AcDbEntity
  8
LAY-10
  6
CONTINUOUS
 62
     7
100
AcDbLine
 10
615.5000000000034
 20
690.4999999999925
 30
0.0
 11
615.5000000000034
 21
671.5000000000044
 31
0.0
  0
LINE
  5
32C
330
1F
100
AcDbEntity
  8
LAY-10
  6
CONTINUOUS
 62
     7
100
AcDbLine
 10
617.1000000000033
 20
688.8999999999922
 30
0.0
 11
617.1000000000033
 21
673.1000000000038
 31
0.0
  0
LINE
  5
32D
330
1F
100
AcDbEntity
  8
LAY-10
  6
CONTINUOUS
 62
     7
100
AcDbLine
 10
632.900000000003
 20
688.8999999999922
 30
0.0
 11
632.900000000003
 21
673.1000000000038
 31
0.0
  0
LINE
  5
32E
330
1F
100
AcDbEntity
  8
LAY-10
  6
CONTINUOUS
 62
     7
100
AcDbLine
 10
617.0999999999997
 20
688.8999999999922
 30
0.0
 11
632.8999999999994
 21
688.8999999999922
 31
0.0
  0
LINE
  5
32F
330
1F
100
AcDbEntity
  8
LAY-10
  6
CONTINUOUS
 62
     7
100
AcDbLine
 10
632.8999999999994
 20
673.1000000000038
 30
0.0
 11
617.0999999999997
 21
673.1000000000038
 31
0.0
  0
LINE
  5
330
330
1F
100
AcDbEntity
  8
LAY-10
  6
CONTINUOUS
 62
     7
100
AcDbLine
 10
634.5000000000002
 20
671.4999999999999
 30
0.0
 11
615.5000000000002
 21
671.4999999999999
 31
0.0
  0
POLYLINE
  5
331
330
1F
100
AcDbEntity
  8
LAY-10
  6
CONTINUOUS
 62
     7
100
AcDb2dPolyline
 66
     1
 10
0.0
 20
0.0
 30
0.0
 70
   128
  0
VERTEX
  5
332
330
331
100
AcDbEntity
  8
LAY-10
  6
CONTINUOUS
 62
     7
100
AcDbVertex
100
AcDb2dVertex
 10
335.4999999999997
 20
690.4999999999908
 30
0.0
  0
VERTEX
  5
333
330
331
100
AcDbEntity
  8
LAY-10
  6
CONTINUOUS
 62
     7
100
AcDbVertex
100
AcDb2dVertex
 10
335.4999999999997
 20
671.4999999999908
 30
0.0
  0
SEQEND
  5
334
330
331
100
AcDbEntity
  8
LAY-10
  6
CONTINUOUS
 62
     7
  0
LINE
  5
335
330
1F
100
AcDbEntity
  8
LAY-10
  6
CONTINUOUS
 62
     7
100
AcDbLine
 10
354.5000000000033
 20
690.4999999999925
 30
0.0
 11
354.5000000000033
 21
671.5000000000044
 31
0.0
  0
LINE
  5
336
330
1F
100
AcDbEntity
  8
LAY-10
  6
CONTINUOUS
 62
     7
100
AcDbLine
 10
337.1000000000033
 20
688.8999999999922
 30
0.0
 11
337.1000000000033
 21
673.1000000000038
 31
0.0
  0
LINE
  5
337
330
1F
100
AcDbEntity
  8
LAY-10
  6
CONTINUOUS
 62
     7
100
AcDbLine
 10
352.9000000000029
 20
688.8999999999922
 30
0.0
 11
352.9000000000029
 21
673.1000000000038
 31
0.0
  0
LINE
  5
338
330
1F
100
AcDbEntity
  8
LAY-10
  6
CONTINUOUS
 62
     7
100
AcDbLine
 10
337.0999999999996
 20
688.8999999999922
 30
0.0
 11
352.8999999999992
 21
688.8999999999922
 31
0.0
  0
LINE
  5
339
330
1F
100
AcDbEntity
  8
LAY-10
  6
CONTINUOUS
 62
     7
100
AcDbLine
 10
352.8999999999992
 20
673.1000000000038
 30
0.0
 11
337.0999999999996
 21
673.1000000000038
 31
0.0
  0
LINE
  5
33A
330
1F
100
AcDbEntity
  8
LAY-10
  6
CONTINUOUS
 62
     7
100
AcDbLine
 10
354.5000000000499
 20
671.4999999999999
 30
0.0
 11
335.4999999999501
 21
671.4999999999999
 31
0.0
  0
POLYLINE
  5
33B
330
1F
100
AcDbEntity
  8
LAY-10
  6
CONTINUOUS
 62
     7
100
AcDb2dPolyline
 66
     1
 10
0.0
 20
0.0
 30
0.0
 70
   128
  0
VERTEX
  5
33C
330
33B
100
AcDbEntity
  8
LAY-10
  6
CONTINUOUS
 62
     7
100
AcDbVertex
100
AcDb2dVertex
 10
914.5000000000064
 20
690.4999999999908
 30
0.0
  0
VERTEX
  5
33D
330
33B
100
AcDbEntity
  8
LAY-10
  6
CONTINUOUS
 62
     7
100
AcDbVertex
100
AcDb2dVertex
 10
914.5000000000064
 20
671.4999999999908
 30
0.0
  0
SEQEND
  5
33E
330
33B
100
AcDbEntity
  8
LAY-10
  6
CONTINUOUS
 62
     7
  0
LINE
  5
33F
330
1F
100
AcDbEntity
  8
LAY-10
  6
CONTINUOUS
 62
     7
100
AcDbLine
 10
895.5000000000027
 20
690.4999999999925
 30
0.0
 11
895.5000000000027
 21
671.5000000000044
 31
0.0
  0
LINE
  5
340
330
1F
100
AcDbEntity
  8
LAY-10
  6
CONTINUOUS
 62
     7
100
AcDbLine
 10
912.9000000000028
 20
688.8999999999922
 30
0.0
 11
912.9000000000028
 21
673.1000000000038
 31
0.0
  0
LINE
  5
341
330
1F
100
AcDbEntity
  8
LAY-10
  6
CONTINUOUS
 62
     7
100
AcDbLine
 10
897.1000000000032
 20
688.8999999999922
 30
0.0
 11
897.1000000000032
 21
673.1000000000038
 31
0.0
  0
LINE
  5
342
330
1F
100
AcDbEntity
  8
LAY-10
  6
CONTINUOUS
 62
     7
100
AcDbLine
 10
912.9000000000065
 20
688.8999999999922
 30
0.0
 11
897.1000000000067
 21
688.8999999999922
 31
0.0
  0
LINE
  5
343
330
1F
100
AcDbEntity
  8
LAY-10
  6
CONTINUOUS
 62
     7
100
AcDbLine
 10
897.1000000000067
 20
673.1000000000038
 30
0.0
 11
912.9000000000065
 21
673.1000000000038
 31
0.0
  0
LINE
  5
344
330
1F
100
AcDbEntity
  8
LAY-10
  6
CONTINUOUS
 62
     7
100
AcDbLine
 10
895.4999999999561
 20
671.4999999999999
 30
0.0
 11
914.5000000000559
 21
671.4999999999999
 31
0.0
  0
LINE
  5
345
330
1F
100
AcDbEntity
  8
LAY-10
  6
CONTINUOUS
 62
     7
100
AcDbLine
 10
336.0000000000015
 20
740.9971143170077
 30
0.0
 11
336.0000000000015
 21
694.9999999999952
 31
0.0
  0
LINE
  5
346
330
1F
100
AcDbEntity
  8
LAY-10
  6
CONTINUOUS
 62
     7
100
AcDbLine
 10
914.0000000000027
 20
694.9999999999952
 30
0.0
 11
914.0000000000026
 21
740.9971143170077
 31
0.0
  0
LINE
  5
347
330
1F
100
AcDbEntity
  8
LAY-10
  6
CONTINUOUS
 62
     7
100
AcDbLine
 10
329.4999999999999
 20
671.5000000000194
 30
0.0
 11
920.5000000000001
 21
671.5000000000194
 31
0.0
  0
ARC
  5
348
330
1F
100
AcDbEntity
  8
LAY-10
  6
CONTINUOUS
 62
     7
100
AcDbCircle
 10
724.999999999989
 20
759.999999999979
 30
0.0
 40
5.0
100
AcDbArc
 50
185.5757227313749
 51
354.4242772686251
  0
LINE
  5
349
330
1F
100
AcDbEntity
  8
LAY-10
  6
CONTINUOUS
 62
     7
100
AcDbLine
 10
718.9999999999876
 20
769.999999999979
 30
0.0
 11
720.023656708498
 21
759.514194025085
 31
0.0
  0
LINE
  5
34A
330
1F
100
AcDbEntity
  8
LAY-10
  6
CONTINUOUS
 62
     7
100
AcDbLine
 10
730.9999999999895
 20
769.999999999979
 30
0.0
 11
729.9763432914792
 21
759.514194025085
 31
0.0
  0
ARC
  5
34B
330
1F
100
AcDbEntity
  8
LAY-10
  6
CONTINUOUS
 62
     7
100
AcDbCircle
 10
329.9403285601459
 20
750.9999999999699
 30
0.0
 40
1.0
100
AcDbArc
 50
185.8093648644375
 51
270.0
  0
LINE
  5
34C
330
1F
100
AcDbEntity
  8
LAY-10
  6
CONTINUOUS
 62
     7
100
AcDbLine
 10
327.0020790043116
 20
769.9999999999699
 30
0.0
 11
328.9454643820275
 21
750.8987810931555
 31
0.0
  0
LINE
  5
34D
330
1F
100
AcDbEntity
  8
LAY-10
  6
CONTINUOUS
 62
     7
100
AcDbLine
 10
326.9999999999884
 20
775.0
 30
0.0
 11
325.9999999999885
 21
769.999999999969
 31
0.0
  0
LINE
  5
34E
330
1F
100
AcDbEntity
  8
LAY-10
  6
CONTINUOUS
 62
     7
100
AcDbLine
 10
421.9999999999803
 20
774.999999999999
 30
0.0
 11
422.3542486890804
 21
769.999999999969
 31
0.0
  0
LINE
  5
34F
330
1F
100
AcDbEntity
  8
LAY-10
  6
CONTINUOUS
 62
     7
100
AcDbLine
 10
427.6457513108801
 20
769.999999999969
 30
0.0
 11
427.9999999999802
 21
774.999999999999
 31
0.0
  0
LINE
  5
350
330
1F
100
AcDbEntity
  8
LAY-10
  6
CONTINUOUS
 62
     7
100
AcDbLine
 10
621.99999999996
 20
774.999999999999
 30
0.0
 11
622.3542486890601
 21
769.999999999969
 31
0.0
  0
LINE
  5
351
330
1F
100
AcDbEntity
  8
LAY-10
  6
CONTINUOUS
 62
     7
100
AcDbLine
 10
627.6457513108599
 20
769.999999999969
 30
0.0
 11
627.99999999996
 21
774.999999999999
 31
0.0
  0
LINE
  5
352
330
1F
100
AcDbEntity
  8
LAY-10
  6
CONTINUOUS
 62
     7
100
AcDbLine
 10
821.99999999999
 20
774.999999999999
 30
0.0
 11
822.3542486890899
 21
769.999999999969
 31
0.0
  0
ARC
  5
353
330
1F
100
AcDbEntity
  8
LAY-10
  6
CONTINUOUS
 62
     7
100
AcDbCircle
 10
416.8541019662601
 20
751.9999999999707
 30
0.0
 40
3.0
100
AcDbArc
 50
90.00000000000001
 51
153.434948822922
  0
ARC
  5
354
330
1F
100
AcDbEntity
  8
LAY-10
  6
CONTINUOUS
 62
     7
100
AcDbCircle
 10
433.14589803374
 20
751.9999999999707
 30
0.0
 40
3.0
100
AcDbArc
 50
26.5650511770785
 51
90.00000000000001
  0
LINE
  5
355
330
1F
100
AcDbEntity
  8
LAY-10
  6
CONTINUOUS
 62
     7
100
AcDbLine
 10
413.3291796067604
 20
751.65835921347
 30
0.0
 11
414.1708203932606
 21
753.3416407864704
 31
0.0
  0
ARC
  5
356
330
1F
100
AcDbEntity
  8
LAY-10
  6
CONTINUOUS
 62
     7
100
AcDbCircle
 10
410.6458980337609
 20
752.9999999999698
 30
0.0
 40
3.0
100
AcDbArc
 50
270.0
 51
333.4349488229226
  0
LINE
  5
357
330
1F
100
AcDbEntity
  8
LAY-10
  6
CONTINUOUS
 62
     7
100
AcDbLine
 10
436.6708203932392
 20
751.65835921347
 30
0.0
 11
435.8291796067394
 21
753.3416407864704
 31
0.0
  0
ARC
  5
358
330
1F
100
AcDbEntity
  8
LAY-10
  6
CONTINUOUS
 62
     7
100
AcDbCircle
 10
439.3541019662391
 20
752.9999999999698
 30
0.0
 40
3.0
100
AcDbArc
 50
206.5650511770775
 51
270.0
  0
ARC
  5
359
330
1F
100
AcDbEntity
  8
LAY-10
  6
CONTINUOUS
 62
     7
100
AcDbCircle
 10
616.8541019662493
 20
751.9999999999707
 30
0.0
 40
3.0
100
AcDbArc
 50
90.00000000000001
 51
153.4349488229225
  0
ARC
  5
35A
330
1F
100
AcDbEntity
  8
LAY-10
  6
CONTINUOUS
 62
     7
100
AcDbCircle
 10
633.1458980337293
 20
751.9999999999707
 30
0.0
 40
3.0
100
AcDbArc
 50
26.56505117707752
 51
90.00000000000001
  0
LINE
  5
35B
330
1F
100
AcDbEntity
  8
LAY-10
  6
CONTINUOUS
 62
     7
100
AcDbLine
 10
613.3291796067497
 20
751.65835921347
 30
0.0
 11
614.1708203932499
 21
753.3416407864704
 31
0.0
  0
ARC
  5
35C
330
1F
100
AcDbEntity
  8
LAY-10
  6
CONTINUOUS
 62
     7
100
AcDbCircle
 10
610.6458980337502
 20
752.9999999999698
 30
0.0
 40
3.0
100
AcDbArc
 50
270.0
 51
333.4349488229226
  0
LINE
  5
35D
330
1F
100
AcDbEntity
  8
LAY-10
  6
CONTINUOUS
 62
     7
100
AcDbLine
 10
636.670820393229
 20
751.65835921347
 30
0.0
 11
635.8291796067288
 21
753.3416407864704
 31
0.0
  0
ARC
  5
35E
330
1F
100
AcDbEntity
  8
LAY-10
  6
CONTINUOUS
 62
     7
100
AcDbCircle
 10
639.3541019662284
 20
752.9999999999698
 30
0.0
 40
3.0
100
AcDbArc
 50
206.5650511770775
 51
270.0
  0
ARC
  5
35F
330
1F
100
AcDbEntity
  8
LAY-10
  6
CONTINUOUS
 62
     7
100
AcDbCircle
 10
816.8541019662498
 20
751.9999999999707
 30
0.0
 40
3.0
100
AcDbArc
 50
90.00000000000001
 51
153.434948822921
  0
LINE
  5
360
330
1F
100
AcDbEntity
  8
LAY-10
  6
CONTINUOUS
 62
     7
100
AcDbLine
 10
639.3541019662284
 20
749.9999999999699
 30
0.0
 11
810.6458980337504
 21
749.9999999999699
 31
0.0
  0
LINE
  5
361
330
1F
100
AcDbEntity
  8
LAY-10
  6
CONTINUOUS
 62
     7
100
AcDbLine
 10
813.3291796067505
 20
751.65835921347
 30
0.0
 11
814.1708203932507
 21
753.3416407864704
 31
0.0
  0
ARC
  5
362
330
1F
100
AcDbEntity
  8
LAY-10
  6
CONTINUOUS
 62
     7
100
AcDbCircle
 10
810.6458980337504
 20
752.9999999999698
 30
0.0
 40
3.0
100
AcDbArc
 50
270.0
 51
333.434948822922
  0
ARC
  5
363
330
1F
100
AcDbEntity
  8
LAY-10
  6
CONTINUOUS
 62
     7
100
AcDbCircle
 10
524.9999999999893
 20
759.999999999979
 30
0.0
 40
5.0
100
AcDbArc
 50
185.5757227313749
 51
354.4242772686251
  0
LINE
  5
364
330
1F
100
AcDbEntity
  8
LAY-10
  6
CONTINUOUS
 62
     7
100
AcDbLine
 10
518.999999999988
 20
769.999999999979
 30
0.0
 11
520.0236567084983
 21
759.514194025085
 31
0.0
  0
LINE
  5
365
330
1F
100
AcDbEntity
  8
LAY-10
  6
CONTINUOUS
 62
     7
100
AcDbLine
 10
530.9999999999898
 20
769.999999999979
 30
0.0
 11
529.9763432914795
 21
759.514194025085
 31
0.0
  0
LINE
  5
366
330
1F
100
AcDbEntity
  8
LAY-10
  6
CONTINUOUS
 62
     7
100
AcDbLine
 10
328.5137937550369
 20
754.9999999999699
 30
0.0
 11
328.5282004946701
 21
754.9999999999699
 31
0.0
  0
LINE
  5
367
330
1F
100
AcDbEntity
  8
LAY-10
  6
CONTINUOUS
 62
     7
100
AcDbLine
 10
338.9999999999907
 20
769.999999999979
 30
0.0
 11
337.9763432914804
 21
759.514194025085
 31
0.0
  0
ARC
  5
368
330
1F
100
AcDbEntity
  8
LAY-10
  6
CONTINUOUS
 62
     7
100
AcDbCircle
 10
332.9999999999903
 20
759.999999999979
 30
0.0
 40
5.0
100
AcDbArc
 50
193.5083662909427
 51
354.4242772686251
  0
LINE
  5
369
330
1F
100
AcDbEntity
  8
LAY-10
  6
CONTINUOUS
 62
     7
100
AcDbLine
 10
338.3999999999945
 20
772.999999999969
 30
0.0
 11
326.5999999999847
 21
772.999999999969
 31
0.0
  0
LINE
  5
36A
330
1F
100
AcDbEntity
  8
LAY-10
  6
CONTINUOUS
 62
     7
100
AcDbLine
 10
338.3999999999945
 20
772.999999999969
 30
0.0
 11
338.9999999999907
 21
769.9999999999699
 31
0.0
  0
LINE
  5
36B
330
1F
100
AcDbEntity
  8
LAY-10
  6
CONTINUOUS
 62
     7
100
AcDbLine
 10
439.3541019662391
 20
749.9999999999699
 30
0.0
 11
610.6458980337502
 21
749.9999999999699
 31
0.0
  0
LINE
  5
36C
330
1F
100
AcDbEntity
  8
LAY-10
  6
CONTINUOUS
 62
     7
100
AcDbLine
 10
918.9999999999886
 20
769.999999999979
 30
0.0
 11
920.023656708499
 21
759.514194025085
 31
0.0
  0
LINE
  5
36D
330
1F
100
AcDbEntity
  8
LAY-10
  6
CONTINUOUS
 62
     7
100
AcDbLine
 10
827.999999999988
 20
774.999999999999
 30
0.0
 11
827.645751310888
 21
769.999999999969
 31
0.0
  0
ARC
  5
36E
330
1F
100
AcDbEntity
  8
LAY-10
  6
CONTINUOUS
 62
     7
100
AcDbCircle
 10
833.1458980337283
 20
751.9999999999707
 30
0.0
 40
3.0
100
AcDbArc
 50
26.56505117707993
 51
90.00000000000001
  0
LINE
  5
36F
330
1F
100
AcDbEntity
  8
LAY-10
  6
CONTINUOUS
 62
     7
100
AcDbLine
 10
836.6708203932279
 20
751.65835921347
 30
0.0
 11
835.8291796067277
 21
753.3416407864704
 31
0.0
  0
ARC
  5
370
330
1F
100
AcDbEntity
  8
LAY-10
  6
CONTINUOUS
 62
     7
100
AcDbCircle
 10
839.3541019662277
 20
752.9999999999698
 30
0.0
 40
3.0
100
AcDbArc
 50
206.5650511770799
 51
270.0
  0
LINE
  5
371
330
1F
100
AcDbEntity
  8
LAY-10
  6
CONTINUOUS
 62
     7
100
AcDbLine
 10
420.0000000001003
 20
740.9971143170194
 30
0.0
 11
420.0000000001003
 21
736.9999999999199
 31
0.0
  0
LINE
  5
372
330
1F
100
AcDbEntity
  8
LAY-10
  6
CONTINUOUS
 62
     7
100
AcDbLine
 10
430.0000000001003
 20
740.9971143170194
 30
0.0
 11
430.0000000001003
 21
736.9999999999199
 31
0.0
  0
LINE
  5
373
330
1F
100
AcDbEntity
  8
LAY-10
  6
CONTINUOUS
 62
     7
100
AcDbLine
 10
420.0000000001003
 20
740.9971143169931
 30
0.0
 11
430.0000000001003
 21
740.9971143169931
 31
0.0
  0
LINE
  5
374
330
1F
100
AcDbEntity
  8
LAY-10
  6
CONTINUOUS
 62
     7
100
AcDbLine
 10
420.0000000001003
 20
736.9999999999144
 30
0.0
 11
430.0000000001003
 21
736.9999999999144
 31
0.0
  0
LINE
  5
375
330
1F
100
AcDbEntity
  8
LAY-10
  6
CONTINUOUS
 62
     7
100
AcDbLine
 10
417.4999999999993
 20
755.0000000000199
 30
0.0
 11
432.4999999999993
 21
755.0000000000199
 31
0.0
  0
LINE
  5
376
330
1F
100
AcDbEntity
  8
LAY-10
  6
CONTINUOUS
 62
     7
100
AcDbLine
 10
432.5000000000003
 20
729.0000000000244
 30
0.0
 11
430.5000000000002
 21
729.0000000000244
 31
0.0
  0
LINE
  5
377
330
1F
100
AcDbEntity
  8
LAY-10
  6
CONTINUOUS
 62
     7
100
AcDbLine
 10
432.5000000000003
 20
750.0000000000199
 30
0.0
 11
417.4999999999986
 21
750.0000000000199
 31
0.0
  0
LINE
  5
378
330
1F
100
AcDbEntity
  8
LAY-10
  6
CONTINUOUS
 62
     7
100
AcDbLine
 10
417.5000000000003
 20
748.0000000000198
 30
0.0
 11
432.5000000000003
 21
748.0000000000198
 31
0.0
  0
LINE
  5
379
330
1F
100
AcDbEntity
  8
LAY-10
  6
CONTINUOUS
 62
     7
100
AcDbLine
 10
430.5000000000005
 20
729.0000000000199
 30
0.0
 11
430.5000000000005
 21
748.0000000000198
 31
0.0
  0
LINE
  5
37A
330
1F
100
AcDbEntity
  8
LAY-10
  6
CONTINUOUS
 62
     7
100
AcDbLine
 10
419.7499999999698
 20
749.9999999999816
 30
0.0
 11
430.2499999999698
 21
749.9999999999816
 31
0.0
  0
ARC
  5
37B
330
1F
100
AcDbEntity
  8
LAY-10
  6
CONTINUOUS
 62
     7
100
AcDbCircle
 10
421.2499999999698
 20
751.9999999999817
 30
0.0
 40
1.0
100
AcDbArc
 50
90.00000000000009
 51
151.9275130641421
  0
ARC
  5
37C
330
1F
100
AcDbEntity
  8
LAY-10
  6
CONTINUOUS
 62
     7
100
AcDbCircle
 10
424.9999999999698
 20
749.9999999999816
 30
0.0
 40
5.25
100
AcDbArc
 50
151.9275130641422
 51
179.9999999999997
  0
LINE
  5
37D
330
1F
100
AcDbEntity
  8
LAY-10
  6
CONTINUOUS
 62
     7
100
AcDbLine
 10
428.7499999999698
 20
752.9999999999817
 30
0.0
 11
421.2499999999698
 21
752.9999999999817
 31
0.0
  0
ARC
  5
37E
330
1F
100
AcDbEntity
  8
LAY-10
  6
CONTINUOUS
 62
     7
100
AcDbCircle
 10
428.7499999999698
 20
751.9999999999817
 30
0.0
 40
1.0
100
AcDbArc
 50
28.07248693585815
 51
90.00000000000009
  0
ARC
  5
37F
330
1F
100
AcDbEntity
  8
LAY-10
  6
CONTINUOUS
 62
     7
100
AcDbCircle
 10
424.9999999999698
 20
749.9999999999816
 30
0.0
 40
5.25
100
AcDbArc
 50
0.0000000000011459
 51
28.07248693585798
  0
LINE
  5
380
330
1F
100
AcDbEntity
  8
LAY-10
  6
CONTINUOUS
 62
     7
100
AcDbLine
 10
427.9999999999698
 20
747.9999999999853
 30
0.0
 11
427.9999999999698
 21
740.9971143170222
 31
0.0
  0
LINE
  5
381
330
1F
100
AcDbEntity
  8
LAY-10
  6
CONTINUOUS
 62
     7
100
AcDbLine
 10
421.9999999999698
 20
747.9999999999853
 30
0.0
 11
421.9999999999698
 21
740.9971143170222
 31
0.0
  0
LINE
  5
382
330
1F
100
AcDbEntity
  8
LAY-10
  6
CONTINUOUS
 62
     7
100
AcDbLine
 10
427.9999999999698
 20
736.9999999999798
 30
0.0
 11
427.9999999999698
 21
728.799999999981
 31
0.0
  0
LINE
  5
383
330
1F
100
AcDbEntity
  8
LAY-10
  6
CONTINUOUS
 62
     7
100
AcDbLine
 10
421.9999999999698
 20
736.9999999999798
 30
0.0
 11
421.9999999999698
 21
728.799999999981
 31
0.0
  0
LINE
  5
384
330
1F
100
AcDbEntity
  8
LAY-10
  6
CONTINUOUS
 62
     7
100
AcDbLine
 10
422.1367513459215
 20
728.799999999981
 30
0.0
 11
422.1367513459215
 21
724.1719999999802
 31
0.0
  0
LINE
  5
385
330
1F
100
AcDbEntity
  8
LAY-10
  6
CONTINUOUS
 62
     7
100
AcDbLine
 10
419.2499999999698
 20
728.799999999981
 30
0.0
 11
419.2499999999698
 21
724.1719999999802
 31
0.0
  0
LINE
  5
386
330
1F
100
AcDbEntity
  8
LAY-10
  6
CONTINUOUS
 62
     7
100
AcDbLine
 10
427.863248654018
 20
728.799999999981
 30
0.0
 11
427.863248654018
 21
724.1719999999802
 31
0.0
  0
ARC
  5
387
330
1F
100
AcDbEntity
  8
LAY-10
  6
CONTINUOUS
 62
     7
100
AcDbCircle
 10
424.9999999999698
 20
731.0522524955394
 30
0.0
 40
7.4522524955587
100
AcDbArc
 50
247.4051392327525
 51
292.5948607672478
  0
LINE
  5
388
330
1F
100
AcDbEntity
  8
LAY-10
  6
CONTINUOUS
 62
     7
100
AcDbLine
 10
430.7499999999698
 20
728.799999999981
 30
0.0
 11
430.7499999999698
 21
724.1719999999802
 31
0.0
  0
LINE
  5
389
330
1F
100
AcDbEntity
  8
LAY-10
  6
CONTINUOUS
 62
     7
100
AcDbLine
 10
430.7499999999698
 20
728.799999999981
 30
0.0
 11
419.2499999999698
 21
728.799999999981
 31
0.0
  0
ARC
  5
38A
330
1F
100
AcDbEntity
  8
LAY-10
  6
CONTINUOUS
 62
     7
100
AcDbCircle
 10
429.7499999999698
 20
723.137977954182
 30
0.0
 40
0.5
100
AcDbArc
 50
99.79159752642917
 51
180.0000000000002
  0
LINE
  5
38B
330
1F
100
AcDbEntity
  8
LAY-10
  6
CONTINUOUS
 62
     7
100
AcDbLine
 10
429.2499999999698
 20
723.5999999999802
 30
0.0
 11
429.2499999999698
 21
723.6007609748357
 31
0.0
  0
ARC
  5
38C
330
1F
100
AcDbEntity
  8
LAY-10
  6
CONTINUOUS
 62
     7
100
AcDbCircle
 10
420.6933756729438
 20
725.7070955710785
 30
0.0
 40
2.107095571097913
100
AcDbArc
 50
226.7638252773316
 51
313.236174722669
  0
ARC
  5
38D
330
1F
100
AcDbEntity
  8
LAY-10
  6
CONTINUOUS
 62
     7
100
AcDbCircle
 10
420.2499999999698
 20
723.137977954182
 30
0.0
 40
0.5
100
AcDbArc
 50
0.0000000000002292
 51
80.20840247357106
  0
LINE
  5
38E
330
1F
100
AcDbEntity
  8
LAY-10
  6
CONTINUOUS
 62
     7
100
AcDbLine
 10
420.7499999999698
 20
723.5999999999802
 30
0.0
 11
420.7499999999698
 21
723.6007609748357
 31
0.0
  0
ARC
  5
38F
330
1F
100
AcDbEntity
  8
LAY-10
  6
CONTINUOUS
 62
     7
100
AcDbCircle
 10
429.3066243269957
 20
725.7070955710785
 30
0.0
 40
2.107095571097882
100
AcDbArc
 50
226.763825277331
 51
313.2361747226693
  0
ARC
  5
390
330
1F
100
AcDbEntity
  8
LAY-10
  6
CONTINUOUS
 62
     7
100
AcDbCircle
 10
421.7499999999698
 20
722.5009618943039
 30
0.0
 40
1.0
100
AcDbArc
 50
180.0000000000002
 51
201.7867892982636
  0
LINE
  5
391
330
1F
100
AcDbEntity
  8
LAY-10
  6
CONTINUOUS
 62
     7
100
AcDbLine
 10
420.7499999999698
 20
722.5009618943039
 30
0.0
 11
420.7499999999698
 21
723.137977954182
 31
0.0
  0
ARC
  5
392
330
1F
100
AcDbEntity
  8
LAY-10
  6
CONTINUOUS
 62
     7
100
AcDbCircle
 10
424.9999999999698
 20
723.799999999981
 30
0.0
 40
4.5
100
AcDbArc
 50
201.7867892982638
 51
338.2132107017366
  0
LINE
  5
393
330
1F
100
AcDbEntity
  8
LAY-10
  6
CONTINUOUS
 62
     7
100
AcDbLine
 10
429.2499999999698
 20
722.5009618943039
 30
0.0
 11
429.2499999999698
 21
723.137977954182
 31
0.0
  0
ARC
  5
394
330
1F
100
AcDbEntity
  8
LAY-10
  6
CONTINUOUS
 62
     7
100
AcDbCircle
 10
428.2499999999698
 20
722.5009618943039
 30
0.0
 40
1.0
100
AcDbArc
 50
338.2132107017366
 51
0.0000000000002292
  0
LINE
  5
395
330
1F
100
AcDbEntity
  8
LAY-10
  6
CONTINUOUS
 62
     7
100
AcDbLine
 10
417.4999999999993
 20
748.0000000000198
 30
0.0
 11
417.4999999999993
 21
755.0000000000199
 31
0.0
  0
LINE
  5
396
330
1F
100
AcDbEntity
  8
LAY-10
  6
CONTINUOUS
 62
     7
100
AcDbLine
 10
432.4999999999993
 20
748.0000000000198
 30
0.0
 11
432.4999999999993
 21
755.0000000000199
 31
0.0
  0
LINE
  5
397
330
1F
100
AcDbEntity
  8
LAY-10
  6
CONTINUOUS
 62
     7
100
AcDbLine
 10
432.5000000000003
 20
748.0000000000198
 30
0.0
 11
432.5000000000003
 21
729.0000000000199
 31
0.0
  0
LINE
  5
398
330
1F
100
AcDbEntity
  8
LAY-10
  6
CONTINUOUS
 62
     7
100
AcDbLine
 10
820.0000000001103
 20
740.9971143170194
 30
0.0
 11
820.0000000001103
 21
736.9999999999199
 31
0.0
  0
LINE
  5
399
330
1F
100
AcDbEntity
  8
LAY-10
  6
CONTINUOUS
 62
     7
100
AcDbLine
 10
830.0000000001103
 20
740.9971143170194
 30
0.0
 11
830.0000000001103
 21
736.9999999999199
 31
0.0
  0
LINE
  5
39A
330
1F
100
AcDbEntity
  8
LAY-10
  6
CONTINUOUS
 62
     7
100
AcDbLine
 10
820.0000000001103
 20
740.9971143169931
 30
0.0
 11
830.0000000001103
 21
740.9971143169931
 31
0.0
  0
LINE
  5
39B
330
1F
100
AcDbEntity
  8
LAY-10
  6
CONTINUOUS
 62
     7
100
AcDbLine
 10
820.0000000001103
 20
736.9999999999144
 30
0.0
 11
830.0000000001103
 21
736.9999999999144
 31
0.0
  0
LINE
  5
39C
330
1F
100
AcDbEntity
  8
LAY-10
  6
CONTINUOUS
 62
     7
100
AcDbLine
 10
817.5000000000093
 20
755.0000000000199
 30
0.0
 11
832.5000000000093
 21
755.0000000000199
 31
0.0
  0
LINE
  5
39D
330
1F
100
AcDbEntity
  8
LAY-10
  6
CONTINUOUS
 62
     7
100
AcDbLine
 10
832.5000000000102
 20
729.0000000000244
 30
0.0
 11
830.5000000000103
 21
729.0000000000244
 31
0.0
  0
LINE
  5
39E
330
1F
100
AcDbEntity
  8
LAY-10
  6
CONTINUOUS
 62
     7
100
AcDbLine
 10
832.5000000000102
 20
750.0000000000199
 30
0.0
 11
817.5000000000086
 21
750.0000000000199
 31
0.0
  0
LINE
  5
39F
330
1F
100
AcDbEntity
  8
LAY-10
  6
CONTINUOUS
 62
     7
100
AcDbLine
 10
817.5000000000102
 20
748.0000000000198
 30
0.0
 11
832.5000000000102
 21
748.0000000000198
 31
0.0
  0
LINE
  5
3A0
330
1F
100
AcDbEntity
  8
LAY-10
  6
CONTINUOUS
 62
     7
100
AcDbLine
 10
830.5000000000105
 20
729.0000000000199
 30
0.0
 11
830.5000000000105
 21
748.0000000000198
 31
0.0
  0
LINE
  5
3A1
330
1F
100
AcDbEntity
  8
LAY-10
  6
CONTINUOUS
 62
     7
100
AcDbLine
 10
819.7499999999798
 20
749.9999999999816
 30
0.0
 11
830.2499999999799
 21
749.9999999999816
 31
0.0
  0
ARC
  5
3A2
330
1F
100
AcDbEntity
  8
LAY-10
  6
CONTINUOUS
 62
     7
100
AcDbCircle
 10
821.2499999999798
 20
751.9999999999817
 30
0.0
 40
1.0
100
AcDbArc
 50
90.00000000000009
 51
151.9275130641421
  0
ARC
  5
3A3
330
1F
100
AcDbEntity
  8
LAY-10
  6
CONTINUOUS
 62
     7
100
AcDbCircle
 10
824.9999999999798
 20
749.9999999999816
 30
0.0
 40
5.25
100
AcDbArc
 50
151.9275130641422
 51
179.9999999999997
  0
LINE
  5
3A4
330
1F
100
AcDbEntity
  8
LAY-10
  6
CONTINUOUS
 62
     7
100
AcDbLine
 10
828.7499999999798
 20
752.9999999999817
 30
0.0
 11
821.2499999999798
 21
752.9999999999817
 31
0.0
  0
ARC
  5
3A5
330
1F
100
AcDbEntity
  8
LAY-10
  6
CONTINUOUS
 62
     7
100
AcDbCircle
 10
828.7499999999798
 20
751.9999999999817
 30
0.0
 40
1.0
100
AcDbArc
 50
28.07248693585815
 51
90.00000000000009
  0
ARC
  5
3A6
330
1F
100
AcDbEntity
  8
LAY-10
  6
CONTINUOUS
 62
     7
100
AcDbCircle
 10
824.9999999999798
 20
749.9999999999816
 30
0.0
 40
5.25
100
AcDbArc
 50
0.0000000000011459
 51
28.07248693585798
  0
LINE
  5
3A7
330
1F
100
AcDbEntity
  8
LAY-10
  6
CONTINUOUS
 62
     7
100
AcDbLine
 10
827.9999999999798
 20
747.9999999999853
 30
0.0
 11
827.9999999999798
 21
740.9971143170222
 31
0.0
  0
LINE
  5
3A8
330
1F
100
AcDbEntity
  8
LAY-10
  6
CONTINUOUS
 62
     7
100
AcDbLine
 10
821.9999999999798
 20
747.9999999999853
 30
0.0
 11
821.9999999999798
 21
740.9971143170222
 31
0.0
  0
LINE
  5
3A9
330
1F
100
AcDbEntity
  8
LAY-10
  6
CONTINUOUS
 62
     7
100
AcDbLine
 10
827.9999999999798
 20
736.9999999999798
 30
0.0
 11
827.9999999999798
 21
728.799999999981
 31
0.0
  0
LINE
  5
3AA
330
1F
100
AcDbEntity
  8
LAY-10
  6
CONTINUOUS
 62
     7
100
AcDbLine
 10
821.9999999999798
 20
736.9999999999798
 30
0.0
 11
821.9999999999798
 21
728.799999999981
 31
0.0
  0
LINE
  5
3AB
330
1F
100
AcDbEntity
  8
LAY-10
  6
CONTINUOUS
 62
     7
100
AcDbLine
 10
822.1367513459315
 20
728.799999999981
 30
0.0
 11
822.1367513459315
 21
724.1719999999802
 31
0.0
  0
LINE
  5
3AC
330
1F
100
AcDbEntity
  8
LAY-10
  6
CONTINUOUS
 62
     7
100
AcDbLine
 10
819.2499999999798
 20
728.799999999981
 30
0.0
 11
819.2499999999798
 21
724.1719999999802
 31
0.0
  0
LINE
  5
3AD
330
1F
100
AcDbEntity
  8
LAY-10
  6
CONTINUOUS
 62
     7
100
AcDbLine
 10
827.863248654028
 20
728.799999999981
 30
0.0
 11
827.863248654028
 21
724.1719999999802
 31
0.0
  0
ARC
  5
3AE
330
1F
100
AcDbEntity
  8
LAY-10
  6
CONTINUOUS
 62
     7
100
AcDbCircle
 10
824.9999999999798
 20
731.0522524955394
 30
0.0
 40
7.4522524955587
100
AcDbArc
 50
247.4051392327525
 51
292.5948607672478
  0
LINE
  5
3AF
330
1F
100
AcDbEntity
  8
LAY-10
  6
CONTINUOUS
 62
     7
100
AcDbLine
 10
830.7499999999798
 20
728.799999999981
 30
0.0
 11
830.7499999999798
 21
724.1719999999802
 31
0.0
  0
LINE
  5
3B0
330
1F
100
AcDbEntity
  8
LAY-10
  6
CONTINUOUS
 62
     7
100
AcDbLine
 10
830.7499999999798
 20
728.799999999981
 30
0.0
 11
819.2499999999798
 21
728.799999999981
 31
0.0
  0
ARC
  5
3B1
330
1F
100
AcDbEntity
  8
LAY-10
  6
CONTINUOUS
 62
     7
100
AcDbCircle
 10
829.7499999999798
 20
723.137977954182
 30
0.0
 40
0.5
100
AcDbArc
 50
99.79159752642917
 51
180.0000000000002
  0
ARC
  5
3B2
330
1F
100
AcDbEntity
  8
LAY-10
  6
CONTINUOUS
 62
     7
100
AcDbCircle
 10
820.6933756729538
 20
725.7070955710785
 30
0.0
 40
2.107095571097913
100
AcDbArc
 50
226.7638252773316
 51
313.236174722669
  0
ARC
  5
3B3
330
1F
100
AcDbEntity
  8
LAY-10
  6
CONTINUOUS
 62
     7
100
AcDbCircle
 10
820.2499999999799
 20
723.137977954182
 30
0.0
 40
0.5
100
AcDbArc
 50
0.0000000000002292
 51
80.20840247357106
  0
ARC
  5
3B4
330
1F
100
AcDbEntity
  8
LAY-10
  6
CONTINUOUS
 62
     7
100
AcDbCircle
 10
829.3066243270057
 20
725.7070955710785
 30
0.0
 40
2.107095571097882
100
AcDbArc
 50
226.763825277331
 51
313.2361747226693
  0
ARC
  5
3B5
330
1F
100
AcDbEntity
  8
LAY-10
  6
CONTINUOUS
 62
     7
100
AcDbCircle
 10
821.7499999999798
 20
722.5009618943039
 30
0.0
 40
1.0
100
AcDbArc
 50
180.0000000000002
 51
201.7867892982636
  0
LINE
  5
3B6
330
1F
100
AcDbEntity
  8
LAY-10
  6
CONTINUOUS
 62
     7
100
AcDbLine
 10
820.7499999999798
 20
722.5009618943039
 30
0.0
 11
820.7499999999798
 21
723.137977954182
 31
0.0
  0
ARC
  5
3B7
330
1F
100
AcDbEntity
  8
LAY-10
  6
CONTINUOUS
 62
     7
100
AcDbCircle
 10
824.9999999999798
 20
723.799999999981
 30
0.0
 40
4.5
100
AcDbArc
 50
201.7867892982638
 51
338.2132107017366
  0
LINE
  5
3B8
330
1F
100
AcDbEntity
  8
LAY-10
  6
CONTINUOUS
 62
     7
100
AcDbLine
 10
829.2499999999798
 20
722.5009618943039
 30
0.0
 11
829.2499999999798
 21
723.137977954182
 31
0.0
  0
ARC
  5
3B9
330
1F
100
AcDbEntity
  8
LAY-10
  6
CONTINUOUS
 62
     7
100
AcDbCircle
 10
828.2499999999798
 20
722.5009618943039
 30
0.0
 40
1.0
100
AcDbArc
 50
338.2132107017366
 51
0.0000000000002292
  0
LINE
  5
3BA
330
1F
100
AcDbEntity
  8
LAY-10
  6
CONTINUOUS
 62
     7
100
AcDbLine
 10
817.5000000000093
 20
748.0000000000198
 30
0.0
 11
817.5000000000093
 21
755.0000000000199
 31
0.0
  0
LINE
  5
3BB
330
1F
100
AcDbEntity
  8
LAY-10
  6
CONTINUOUS
 62
     7
100
AcDbLine
 10
832.5000000000093
 20
748.0000000000198
 30
0.0
 11
832.5000000000093
 21
755.0000000000199
 31
0.0
  0
LINE
  5
3BC
330
1F
100
AcDbEntity
  8
LAY-10
  6
CONTINUOUS
 62
     7
100
AcDbLine
 10
832.5000000000102
 20
748.0000000000198
 30
0.0
 11
832.5000000000102
 21
729.0000000000199
 31
0.0
  0
LINE
  5
3BD
330
1F
100
AcDbEntity
  8
LAY-10
  6
CONTINUOUS
 62
     7
100
AcDbLine
 10
830.5000000000105
 20
741.0000000000199
 30
0.0
 11
432.5000000000003
 21
741.0000000000199
 31
0.0
  0
LINE
  5
3BE
330
1F
100
AcDbEntity
  8
LAY-10
  6
CONTINUOUS
 62
     7
100
AcDbLine
 10
327.0020790043116
 20
769.9999999999708
 30
0.0
 11
325.9999999999885
 21
769.9999999999708
 31
0.0
  0
LINE
  5
3BF
330
1F
100
AcDbEntity
  8
LAY-10
  6
CONTINUOUS
 62
     7
100
AcDbLine
 10
924.0000000000026
 20
769.9999999999708
 30
0.0
 11
338.99999999999
 21
769.9999999999708
 31
0.0
  0
ARC
  5
3C0
330
1F
100
AcDbEntity
  8
LAY-10
  6
CONTINUOUS
 62
     7
100
AcDbCircle
 10
924.9999999999892
 20
759.9999999999793
 30
0.0
 40
5.0
100
AcDbArc
 50
185.5757227313739
 51
258.4630409673416
  0
LINE
  5
3C1
330
1F
100
AcDbEntity
  8
LAY-10
  6
CONTINUOUS
 62
     7
100
AcDbLine
 10
332.9999999999894
 20
754.9999999999702
 30
0.0
 11
924.0000000000026
 21
754.9999999999702
 31
0.0
  0
LINE
  5
3C2
330
1F
100
AcDbEntity
  8
LAY-10
  6
CONTINUOUS
 62
     7
100
AcDbLine
 10
924.0000000000026
 20
750.0000000000199
 30
0.0
 11
924.0000000000026
 21
775.0000000000035
 31
0.0
  0
LINE
  5
3C3
330
1F
100
AcDbEntity
  8
LAY-10
  6
CONTINUOUS
 62
     7
100
AcDbLine
 10
331.5000000000015
 20
740.9971143170077
 30
0.0
 11
430.5000000000005
 21
740.9971143170077
 31
0.0
  0
LINE
  5
3C4
330
1F
100
AcDbEntity
  8
LAY-10
  6
CONTINUOUS
 62
     7
100
AcDbLine
 10
432.5000000000003
 20
740.9971143170077
 30
0.0
 11
830.5000000000105
 21
740.9971143170077
 31
0.0
  0
LINE
  5
3C5
330
1F
100
AcDbEntity
  8
LAY-10
  6
CONTINUOUS
 62
     7
100
AcDbLine
 10
832.5000000000102
 20
740.9971143170077
 30
0.0
 11
918.5000000000027
 21
740.9971143170077
 31
0.0
  0
LINE
  5
3C6
330
1F
100
AcDbEntity
  8
LAY-10
  6
CONTINUOUS
 62
     7
100
AcDbLine
 10
326.9999999999899
 20
775.0000000000199
 30
0.0
 11
924.0
 21
775.0000000000199
 31
0.0
  0
LINE
  5
3C7
330
1F
100
AcDbEntity
  8
LAY-10
  6
CONTINUOUS
 62
     7
100
AcDbLine
 10
918.5000000000027
 20
749.9999999999881
 30
0.0
 11
918.5000000000027
 21
694.9999999999926
 31
0.0
  0
LINE
  5
3C8
330
1F
100
AcDbEntity
  8
LAY-10
  6
CONTINUOUS
 62
     7
100
AcDbLine
 10
920.5000000000024
 20
664.9999999999822
 30
0.0
 11
920.5000000000024
 21
750.0000000000199
 31
0.0
  0
LINE
  5
3C9
330
1F
100
AcDbEntity
  8
LAY-10
  6
CONTINUOUS
 62
     7
100
AcDbLine
 10
331.5000000000015
 20
749.9999999999881
 30
0.0
 11
925.0000000000023
 21
749.9999999999881
 31
0.0
  0
LINE
  5
3CA
330
1F
100
AcDbEntity
  8
LAY-10
  6
CONTINUOUS
 62
     7
100
AcDbLine
 10
329.5000000000017
 20
749.9999999999881
 30
0.0
 11
329.5000000000017
 21
665.000000000004
 31
0.0
  0
LINE
  5
3CB
330
1F
100
AcDbEntity
  8
LAY-10
  6
CONTINUOUS
 62
     7
100
AcDbLine
 10
331.5000000000015
 20
749.9999999999881
 30
0.0
 11
331.5000000000015
 21
694.9999999999956
 31
0.0
  0
LINE
  5
3CC
330
1F
100
AcDbEntity
  8
LAY-10
  6
CONTINUOUS
 62
     7
100
AcDbLine
 10
325.0000000000018
 20
749.9999999999699
 30
0.0
 11
410.6458980337609
 21
749.9999999999699
 31
0.0
  0
ARC
  5
3CD
330
1F
100
AcDbEntity
  8
LAY-10
  6
CONTINUOUS
 62
     7
100
AcDbCircle
 10
825.0
 20
1161.50000000011
 30
0.0
 40
5.25
100
AcDbArc
 50
145.1500954190454
 51
214.8499045810927
  0
LINE
  5
3CE
330
1F
100
AcDbEntity
  8
LAY-10
  6
CONTINUOUS
 62
     7
100
AcDbLine
 10
817.4999999999598
 20
1164.500000000253
 30
0.0
 11
817.4999999999598
 21
1158.499999999956
 31
0.0
  0
ARC
  5
3CF
330
1F
100
AcDbEntity
  8
LAY-10
  6
CONTINUOUS
 62
     7
100
AcDbCircle
 10
825.0
 20
1161.50000000011
 30
0.0
 40
5.25
100
AcDbArc
 50
325.1500954189072
 51
34.84990458094907
  0
LINE
  5
3D0
330
1F
100
AcDbEntity
  8
LAY-10
  6
CONTINUOUS
 62
     7
100
AcDbLine
 10
832.4999999999594
 20
1164.50000000025
 30
0.0
 11
832.4999999999594
 21
1158.49999999996
 31
0.0
  0
ARC
  5
3D1
330
1F
100
AcDbEntity
  8
LAY-10
  6
CONTINUOUS
 62
     7
100
AcDbCircle
 10
424.9999999999901
 20
1161.50000000011
 30
0.0
 40
5.25
100
AcDbArc
 50
145.1500954190454
 51
214.8499045810927
  0
LINE
  5
3D2
330
1F
100
AcDbEntity
  8
LAY-10
  6
CONTINUOUS
 62
     7
100
AcDbLine
 10
417.4999999999498
 20
1164.500000000253
 30
0.0
 11
417.4999999999498
 21
1158.499999999956
 31
0.0
  0
ARC
  5
3D3
330
1F
100
AcDbEntity
  8
LAY-10
  6
CONTINUOUS
 62
     7
100
AcDbCircle
 10
424.9999999999901
 20
1161.50000000011
 30
0.0
 40
5.25
100
AcDbArc
 50
325.1500954189072
 51
34.84990458094907
  0
LINE
  5
3D4
330
1F
100
AcDbEntity
  8
LAY-10
  6
CONTINUOUS
 62
     7
100
AcDbLine
 10
432.4999999999494
 20
1164.50000000025
 30
0.0
 11
432.4999999999494
 21
1158.49999999996
 31
0.0
  0
LINE
  5
3D5
330
1F
100
AcDbEntity
  8
LAY-10
  6
CONTINUOUS
 62
     7
100
AcDbLine
 10
400.9999999999972
 20
1107.500000000078
 30
0.0
 11
400.9999999999972
 21
1118.000000000078
 31
0.0
  0
LINE
  5
3D6
330
1F
100
AcDbEntity
  8
LAY-10
  6
CONTINUOUS
 62
     7
100
AcDbLine
 10
394.9999999999964
 20
1112.000000000078
 30
0.0
 11
394.9999999999964
 21
1118.000000000078
 31
0.0
  0
LINE
  5
3D7
330
1F
100
AcDbEntity
  8
LAY-10
  6
CONTINUOUS
 62
     7
100
AcDbLine
 10
401.0000000000009
 20
1107.500000000078
 30
0.0
 11
335.9999999999966
 21
1107.500000000078
 31
0.0
  0
LINE
  5
3D8
330
1F
100
AcDbEntity
  8
LAY-10
  6
CONTINUOUS
 62
     7
100
AcDbLine
 10
335.9999999999966
 20
1112.000000000078
 30
0.0
 11
401.0000000000009
 21
1112.000000000078
 31
0.0
  0
LINE
  5
3D9
330
1F
100
AcDbEntity
  8
LAY-10
  6
CONTINUOUS
 62
     7
100
AcDbLine
 10
356.9999999999935
 20
1112.000000000078
 30
0.0
 11
356.9999999999935
 21
1118.000000000078
 31
0.0
  0
LINE
  5
3DA
330
1F
100
AcDbEntity
  8
LAY-10
  6
CONTINUOUS
 62
     7
100
AcDbLine
 10
350.9999999999937
 20
1112.000000000078
 30
0.0
 11
350.9999999999937
 21
1118.000000000078
 31
0.0
  0
LINE
  5
3DB
330
1F
100
AcDbEntity
  8
LAY-10
  6
CONTINUOUS
 62
     7
100
AcDbLine
 10
848.999999999993
 20
1016.500000000022
 30
0.0
 11
848.999999999993
 21
1006.000000000022
 31
0.0
  0
LINE
  5
3DC
330
1F
100
AcDbEntity
  8
LAY-10
  6
CONTINUOUS
 62
     7
100
AcDbLine
 10
854.9999999999937
 20
1012.000000000022
 30
0.0
 11
854.9999999999937
 21
1006.000000000022
 31
0.0
  0
LINE
  5
3DD
330
1F
100
AcDbEntity
  8
LAY-10
  6
CONTINUOUS
 62
     7
100
AcDbLine
 10
848.9999999999891
 20
1016.500000000022
 30
0.0
 11
913.9999999999935
 21
1016.500000000022
 31
0.0
  0
LINE
  5
3DE
330
1F
100
AcDbEntity
  8
LAY-10
  6
CONTINUOUS
 62
     7
100
AcDbLine
 10
913.9999999999935
 20
1012.000000000022
 30
0.0
 11
848.9999999999891
 21
1012.000000000022
 31
0.0
  0
LINE
  5
3DF
330
1F
100
AcDbEntity
  8
LAY-10
  6
CONTINUOUS
 62
     7
100
AcDbLine
 10
892.9999999999965
 20
1012.000000000022
 30
0.0
 11
892.9999999999965
 21
1006.000000000022
 31
0.0
  0
LINE
  5
3E0
330
1F
100
AcDbEntity
  8
LAY-10
  6
CONTINUOUS
 62
     7
100
AcDbLine
 10
898.9999999999964
 20
1012.000000000022
 30
0.0
 11
898.9999999999964
 21
1006.000000000022
 31
0.0
  0
LINE
  5
3E1
330
1F
100
AcDbEntity
  8
LAY-10
  6
CONTINUOUS
 62
     7
100
AcDbLine
 10
849.0000000000094
 20
1107.500000000077
 30
0.0
 11
849.0000000000094
 21
1118.000000000078
 31
0.0
  0
LINE
  5
3E2
330
1F
100
AcDbEntity
  8
LAY-10
  6
CONTINUOUS
 62
     7
100
AcDbLine
 10
855.0000000000102
 20
1112.000000000077
 30
0.0
 11
855.0000000000102
 21
1118.000000000078
 31
0.0
  0
LINE
  5
3E3
330
1F
100
AcDbEntity
  8
LAY-10
  6
CONTINUOUS
 62
     7
100
AcDbLine
 10
849.0000000000057
 20
1107.500000000077
 30
0.0
 11
914.00000000001
 21
1107.500000000078
 31
0.0
  0
LINE
  5
3E4
330
1F
100
AcDbEntity
  8
LAY-10
  6
CONTINUOUS
 62
     7
100
AcDbLine
 10
914.00000000001
 20
1112.000000000078
 30
0.0
 11
849.0000000000057
 21
1112.000000000077
 31
0.0
  0
LINE
  5
3E5
330
1F
100
AcDbEntity
  8
LAY-10
  6
CONTINUOUS
 62
     7
100
AcDbLine
 10
893.000000000013
 20
1112.000000000077
 30
0.0
 11
893.000000000013
 21
1118.000000000078
 31
0.0
  0
LINE
  5
3E6
330
1F
100
AcDbEntity
  8
LAY-10
  6
CONTINUOUS
 62
     7
100
AcDbLine
 10
899.000000000013
 20
1112.000000000077
 30
0.0
 11
899.000000000013
 21
1118.000000000078
 31
0.0
  0
LINE
  5
3E7
330
1F
100
AcDbEntity
  8
LAY-10
  6
CONTINUOUS
 62
     7
100
AcDbLine
 10
401.0000000000135
 20
1016.500000000023
 30
0.0
 11
401.0000000000134
 21
1006.000000000022
 31
0.0
  0
LINE
  5
3E8
330
1F
100
AcDbEntity
  8
LAY-10
  6
CONTINUOUS
 62
     7
100
AcDbLine
 10
395.0000000000128
 20
1012.000000000023
 30
0.0
 11
395.0000000000128
 21
1006.000000000022
 31
0.0
  0
LINE
  5
3E9
330
1F
100
AcDbEntity
  8
LAY-10
  6
CONTINUOUS
 62
     7
100
AcDbLine
 10
401.0000000000173
 20
1016.500000000023
 30
0.0
 11
336.0000000000129
 21
1016.500000000023
 31
0.0
  0
LINE
  5
3EA
330
1F
100
AcDbEntity
  8
LAY-10
  6
CONTINUOUS
 62
     7
100
AcDbLine
 10
336.000000000013
 20
1012.000000000023
 30
0.0
 11
401.0000000000173
 21
1012.000000000023
 31
0.0
  0
LINE
  5
3EB
330
1F
100
AcDbEntity
  8
LAY-10
  6
CONTINUOUS
 62
     7
100
AcDbLine
 10
357.0000000000099
 20
1012.000000000023
 30
0.0
 11
357.0000000000099
 21
1006.000000000022
 31
0.0
  0
LINE
  5
3EC
330
1F
100
AcDbEntity
  8
LAY-10
  6
CONTINUOUS
 62
     7
100
AcDbLine
 10
351.0000000000101
 20
1012.000000000023
 30
0.0
 11
351.0000000000101
 21
1006.000000000022
 31
0.0
  0
LINE
  5
3ED
330
1F
100
AcDbEntity
  8
LAY-10
  6
CONTINUOUS
 62
     7
100
AcDbLine
 10
404.9999999999953
 20
1082.000000000074
 30
0.0
 11
404.9999999999953
 21
1042.000000000074
 31
0.0
  0
LINE
  5
3EE
330
1F
100
AcDbEntity
  8
LAY-10
  6
CONTINUOUS
 62
     7
100
AcDbLine
 10
444.9999999999958
 20
1082.000000000074
 30
0.0
 11
444.9999999999958
 21
1042.000000000074
 31
0.0
  0
LINE
  5
3EF
330
1F
100
AcDbEntity
  8
LAY-10
  6
CONTINUOUS
 62
     7
100
AcDbLine
 10
404.9999999999953
 20
1082.000000000074
 30
0.0
 11
444.9999999999958
 21
1082.000000000074
 31
0.0
  0
LINE
  5
3F0
330
1F
100
AcDbEntity
  8
LAY-10
  6
CONTINUOUS
 62
     7
100
AcDbLine
 10
404.9999999999953
 20
1074.500000000074
 30
0.0
 11
444.9999999999958
 21
1074.500000000074
 31
0.0
  0
LINE
  5
3F1
330
1F
100
AcDbEntity
  8
LAY-10
  6
CONTINUOUS
 62
     7
100
AcDbLine
 10
404.9999999999953
 20
1049.500000000074
 30
0.0
 11
444.9999999999958
 21
1049.500000000074
 31
0.0
  0
LINE
  5
3F2
330
1F
100
AcDbEntity
  8
LAY-10
  6
CONTINUOUS
 62
     7
100
AcDbLine
 10
404.9999999999953
 20
1042.000000000074
 30
0.0
 11
444.9999999999958
 21
1042.000000000074
 31
0.0
  0
LINE
  5
3F3
330
1F
100
AcDbEntity
  8
LAY-10
  6
CONTINUOUS
 62
     7
100
AcDbLine
 10
845.0000000000111
 20
1082.000000000074
 30
0.0
 11
845.0000000000111
 21
1042.000000000074
 31
0.0
  0
LINE
  5
3F4
330
1F
100
AcDbEntity
  8
LAY-10
  6
CONTINUOUS
 62
     7
100
AcDbLine
 10
805.0000000000108
 20
1082.000000000074
 30
0.0
 11
805.0000000000108
 21
1042.000000000074
 31
0.0
  0
LINE
  5
3F5
330
1F
100
AcDbEntity
  8
LAY-10
  6
CONTINUOUS
 62
     7
100
AcDbLine
 10
845.0000000000111
 20
1082.000000000074
 30
0.0
 11
805.0000000000108
 21
1082.000000000074
 31
0.0
  0
LINE
  5
3F6
330
1F
100
AcDbEntity
  8
LAY-10
  6
CONTINUOUS
 62
     7
100
AcDbLine
 10
845.0000000000111
 20
1074.500000000074
 30
0.0
 11
805.0000000000108
 21
1074.500000000074
 31
0.0
  0
LINE
  5
3F7
330
1F
100
AcDbEntity
  8
LAY-10
  6
CONTINUOUS
 62
     7
100
AcDbLine
 10
845.0000000000111
 20
1049.500000000074
 30
0.0
 11
805.0000000000108
 21
1049.500000000074
 31
0.0
  0
LINE
  5
3F8
330
1F
100
AcDbEntity
  8
LAY-10
  6
CONTINUOUS
 62
     7
100
AcDbLine
 10
845.0000000000111
 20
1042.000000000074
 30
0.0
 11
805.0000000000108
 21
1042.000000000074
 31
0.0
  0
LINE
  5
3F9
330
1F
100
AcDbEntity
  8
LAY-10
  6
CONTINUOUS
 62
     7
100
AcDbLine
 10
1175.0
 20
1107.5000000001
 30
0.0
 11
1255.0
 21
1107.5000000001
 31
0.0
  0
LINE
  5
3FA
330
1F
100
AcDbEntity
  8
LAY-10
  6
CONTINUOUS
 62
     7
100
AcDbLine
 10
1175.0
 20
1016.499999999997
 30
0.0
 11
1255.0
 21
1016.499999999997
 31
0.0
  0
LINE
  5
3FB
330
1F
100
AcDbEntity
  8
LAY-10
  6
CENTER
 62
     2
100
AcDbLine
 10
1165.0
 20
1099.99999999999
 30
0.0
 11
1335.000000000151
 21
1099.99999999999
 31
0.0
  0
LINE
  5
3FC
330
1F
100
AcDbEntity
  8
LAY-10
  6
CENTER
 62
     2
100
AcDbLine
 10
1305.000000000012
 20
997.9999999999808
 30
0.0
 11
1305.000000000012
 21
966.4999999999811
 31
0.0
  0
LINE
  5
3FD
330
1F
100
AcDbEntity
  8
LAY-10
  6
CENTER
 62
     2
100
AcDbLine
 10
314.9999999999998
 20
1100.000000000011
 30
0.0
 11
934.9999999999995
 21
1100.000000000011
 31
0.0
  0
LINE
  5
3FE
330
1F
100
AcDbEntity
  8
LAY-10
  6
CENTER
 62
     2
100
AcDbLine
 10
825.0000000000131
 20
998.0000000000036
 30
0.0
 11
825.0000000000131
 21
966.5000000000027
 31
0.0
  0
LINE
  5
3FF
330
1F
100
AcDbEntity
  8
LAY-10
  6
CENTER
 62
     2
100
AcDbLine
 10
424.9999999999945
 20
998.0000000000036
 30
0.0
 11
424.9999999999945
 21
966.5000000000027
 31
0.0
  0
LINE
  5
400
330
1F
100
AcDbEntity
  8
LAY-10
  6
CENTER
 62
     2
100
AcDbLine
 10
625.0000000000032
 20
985.0000000000296
 30
0.0
 11
625.0000000000033
 21
1215.00000000003
 31
0.0
  0
LINE
  5
401
330
1F
100
AcDbEntity
  8
LAY-10
  6
CENTER
 62
     2
100
AcDbLine
 10
1170.000000000003
 20
1161.499999999814
 30
0.0
 11
1235.697114317
 21
1161.499999999814
 31
0.0
  0
LINE
  5
402
330
1F
100
AcDbEntity
  8
LAY-10
  6
CENTER
 62
     2
100
AcDbLine
 10
1305.000000000109
 20
1202.00000000005
 30
0.0
 11
1305.000000000109
 21
1219.99999999995
 31
0.0
  0
LINE
  5
403
330
1F
100
AcDbEntity
  8
LAY-10
  6
CENTER
 62
     2
100
AcDbLine
 10
825.0000000000093
 20
1202.00000000005
 30
0.0
 11
825.0000000000093
 21
1219.99999999995
 31
0.0
  0
LINE
  5
404
330
1F
100
AcDbEntity
  8
LAY-10
  6
CENTER
 62
     2
100
AcDbLine
 10
424.9999999999994
 20
1202.00000000005
 30
0.0
 11
424.9999999999994
 21
1219.99999999995
 31
0.0
  0
LINE
  5
405
330
1F
100
AcDbEntity
  8
LAY-10
  6
CENTER
 62
     2
100
AcDbLine
 10
625.0000000000032
 20
785.000000000004
 30
0.0
 11
625.0000000000032
 21
655.000000000004
 31
0.0
  0
LINE
  5
406
330
1F
100
AcDbEntity
  8
LAY-10
  6
CENTER
 62
     2
100
AcDbLine
 10
425.0000000000001
 20
651.0000000000726
 30
0.0
 11
425.0000000000001
 21
639.0000000000667
 31
0.0
  0
LINE
  5
407
330
1F
100
AcDbEntity
  8
LAY-10
  6
CENTER
 62
     2
100
AcDbLine
 10
431.0000000000031
 20
645.0000000000697
 30
0.0
 11
418.9999999999972
 21
645.0000000000697
 31
0.0
  0
LINE
  5
408
330
1F
100
AcDbEntity
  8
LAY-10
  6
CENTER
 62
     2
100
AcDbLine
 10
825.0000000000002
 20
651.0000000000726
 30
0.0
 11
825.0000000000002
 21
639.0000000000667
 31
0.0
  0
LINE
  5
409
330
1F
100
AcDbEntity
  8
LAY-10
  6
CENTER
 62
     2
100
AcDbLine
 10
831.0000000000032
 20
645.0000000000697
 30
0.0
 11
818.9999999999973
 21
645.0000000000697
 31
0.0
  0
LINE
  5
40A
330
1F
100
AcDbEntity
  8
LAY-10
  6
CENTER
 62
     2
100
AcDbLine
 10
424.9999999999998
 20
717.3000000000193
 30
0.0
 11
424.9999999999998
 21
755.0000000000199
 31
0.0
  0
LINE
  5
40B
330
1F
100
AcDbEntity
  8
LAY-10
  6
CENTER
 62
     2
100
AcDbLine
 10
825.0000000000098
 20
717.3000000000193
 30
0.0
 11
825.0000000000098
 21
755.0000000000199
 31
0.0
  0
LINE
  5
40C
330
1F
100
AcDbEntity
  8
LAY-10
  6
CONTINUOUS
 62
     7
100
AcDbLine
 10
448.000000000007
 20
1196.750000000195
 30
0.0
 11
448.000000000007
 21
1191.750000000195
 31
0.0
  0
LINE
  5
40D
330
1F
100
AcDbEntity
  8
LAY-10
  6
CONTINUOUS
 62
     7
100
AcDbLine
 10
448.000000000007
 20
1191.750000000195
 30
0.0
 11
443.000000000007
 21
1191.750000000195
 31
0.0
  0
LINE
  5
40E
330
1F
100
AcDbEntity
  8
LAY-10
  6
CONTINUOUS
 62
     7
100
AcDbLine
 10
443.000000000007
 20
1191.250000000195
 30
0.0
 11
448.000000000007
 21
1191.250000000195
 31
0.0
  0
LINE
  5
40F
330
1F
100
AcDbEntity
  8
LAY-10
  6
CONTINUOUS
 62
     7
100
AcDbLine
 10
443.000000000007
 20
1191.250000000195
 30
0.0
 11
443.000000000007
 21
1186.250000000195
 31
0.0
  0
LINE
  5
410
330
1F
100
AcDbEntity
  8
LAY-10
  6
CONTINUOUS
 62
     7
100
AcDbLine
 10
448.000000000007
 20
1191.250000000195
 30
0.0
 11
448.000000000007
 21
1186.250000000195
 31
0.0
  0
LINE
  5
411
330
1F
100
AcDbEntity
  8
LAY-10
  6
CONTINUOUS
 62
     7
100
AcDbLine
 10
448.000000000007
 20
1186.250000000195
 30
0.0
 11
443.000000000007
 21
1186.250000000195
 31
0.0
  0
LINE
  5
412
330
1F
100
AcDbEntity
  8
LAY-10
  6
CONTINUOUS
 62
     7
100
AcDbLine
 10
448.000000000007
 20
1196.750000000195
 30
0.0
 11
443.000000000007
 21
1191.750000000195
 31
0.0
  0
LINE
  5
413
330
1F
100
AcDbEntity
  8
LAY-10
  6
CONTINUOUS
 62
     7
100
AcDbLine
 10
448.000000000007
 20
1191.250000000195
 30
0.0
 11
443.000000000007
 21
1186.250000000195
 31
0.0
  0
LINE
  5
414
330
1F
100
AcDbEntity
  8
LAY-10
  6
CONTINUOUS
 62
     7
100
AcDbLine
 10
443.000000000007
 20
1191.250000000195
 30
0.0
 11
448.000000000007
 21
1186.250000000195
 31
0.0
  0
LINE
  5
415
330
1F
100
AcDbEntity
  8
LAY-10
  6
CONTINUOUS
 62
     7
100
AcDbLine
 10
437.500000000007
 20
1191.250000000195
 30
0.0
 11
442.500000000007
 21
1186.250000000195
 31
0.0
  0
LINE
  5
416
330
1F
100
AcDbEntity
  8
LAY-10
  6
CONTINUOUS
 62
     7
100
AcDbLine
 10
442.500000000007
 20
1191.250000000195
 30
0.0
 11
437.500000000007
 21
1186.250000000195
 31
0.0
  0
LINE
  5
417
330
1F
100
AcDbEntity
  8
LAY-10
  6
CONTINUOUS
 62
     7
100
AcDbLine
 10
442.500000000007
 20
1186.250000000195
 30
0.0
 11
437.500000000007
 21
1186.250000000195
 31
0.0
  0
LINE
  5
418
330
1F
100
AcDbEntity
  8
LAY-10
  6
CONTINUOUS
 62
     7
100
AcDbLine
 10
442.500000000007
 20
1191.250000000195
 30
0.0
 11
442.500000000007
 21
1186.250000000195
 31
0.0
  0
LINE
  5
419
330
1F
100
AcDbEntity
  8
LAY-10
  6
CONTINUOUS
 62
     7
100
AcDbLine
 10
437.500000000007
 20
1191.250000000195
 30
0.0
 11
437.500000000007
 21
1186.250000000195
 31
0.0
  0
LINE
  5
41A
330
1F
100
AcDbEntity
  8
LAY-10
  6
CONTINUOUS
 62
     7
100
AcDbLine
 10
437.500000000007
 20
1191.250000000195
 30
0.0
 11
442.500000000007
 21
1191.250000000195
 31
0.0
  0
LINE
  5
41B
330
1F
100
AcDbEntity
  8
LAY-10
  6
CONTINUOUS
 62
     7
100
AcDbLine
 10
442.500000000007
 20
1191.750000000195
 30
0.0
 11
437.500000000007
 21
1191.750000000195
 31
0.0
  0
LINE
  5
41C
330
1F
100
AcDbEntity
  8
LAY-10
  6
CONTINUOUS
 62
     7
100
AcDbLine
 10
448.000000000007
 20
1176.750000000205
 30
0.0
 11
448.000000000007
 21
1171.750000000205
 31
0.0
  0
LINE
  5
41D
330
1F
100
AcDbEntity
  8
LAY-10
  6
CONTINUOUS
 62
     7
100
AcDbLine
 10
448.000000000007
 20
1176.750000000205
 30
0.0
 11
443.000000000007
 21
1176.750000000205
 31
0.0
  0
LINE
  5
41E
330
1F
100
AcDbEntity
  8
LAY-10
  6
CONTINUOUS
 62
     7
100
AcDbLine
 10
448.000000000007
 20
1171.750000000205
 30
0.0
 11
443.000000000007
 21
1171.750000000205
 31
0.0
  0
LINE
  5
41F
330
1F
100
AcDbEntity
  8
LAY-10
  6
CONTINUOUS
 62
     7
100
AcDbLine
 10
443.000000000007
 20
1171.750000000205
 30
0.0
 11
443.000000000007
 21
1176.750000000205
 31
0.0
  0
LINE
  5
420
330
1F
100
AcDbEntity
  8
LAY-10
  6
CONTINUOUS
 62
     7
100
AcDbLine
 10
443.000000000007
 20
1171.250000000205
 30
0.0
 11
448.000000000007
 21
1171.250000000205
 31
0.0
  0
LINE
  5
421
330
1F
100
AcDbEntity
  8
LAY-10
  6
CONTINUOUS
 62
     7
100
AcDbLine
 10
443.000000000007
 20
1171.250000000205
 30
0.0
 11
443.000000000007
 21
1166.250000000205
 31
0.0
  0
LINE
  5
422
330
1F
100
AcDbEntity
  8
LAY-10
  6
CONTINUOUS
 62
     7
100
AcDbLine
 10
448.000000000007
 20
1171.250000000205
 30
0.0
 11
448.000000000007
 21
1166.250000000205
 31
0.0
  0
LINE
  5
423
330
1F
100
AcDbEntity
  8
LAY-10
  6
CONTINUOUS
 62
     7
100
AcDbLine
 10
448.000000000007
 20
1166.250000000205
 30
0.0
 11
443.000000000007
 21
1166.250000000205
 31
0.0
  0
LINE
  5
424
330
1F
100
AcDbEntity
  8
LAY-10
  6
CONTINUOUS
 62
     7
100
AcDbLine
 10
448.000000000007
 20
1176.750000000205
 30
0.0
 11
443.000000000007
 21
1171.750000000205
 31
0.0
  0
LINE
  5
425
330
1F
100
AcDbEntity
  8
LAY-10
  6
CONTINUOUS
 62
     7
100
AcDbLine
 10
448.000000000007
 20
1171.250000000205
 30
0.0
 11
443.000000000007
 21
1166.250000000205
 31
0.0
  0
LINE
  5
426
330
1F
100
AcDbEntity
  8
LAY-10
  6
CONTINUOUS
 62
     7
100
AcDbLine
 10
443.000000000007
 20
1176.750000000205
 30
0.0
 11
448.000000000007
 21
1171.750000000205
 31
0.0
  0
LINE
  5
427
330
1F
100
AcDbEntity
  8
LAY-10
  6
CONTINUOUS
 62
     7
100
AcDbLine
 10
443.000000000007
 20
1171.250000000205
 30
0.0
 11
448.000000000007
 21
1166.250000000205
 31
0.0
  0
LINE
  5
428
330
1F
100
AcDbEntity
  8
LAY-10
  6
CONTINUOUS
 62
     7
100
AcDbLine
 10
437.500000000007
 20
1171.250000000205
 30
0.0
 11
442.500000000007
 21
1166.250000000205
 31
0.0
  0
LINE
  5
429
330
1F
100
AcDbEntity
  8
LAY-10
  6
CONTINUOUS
 62
     7
100
AcDbLine
 10
437.500000000007
 20
1176.750000000205
 30
0.0
 11
442.500000000007
 21
1171.750000000205
 31
0.0
  0
LINE
  5
42A
330
1F
100
AcDbEntity
  8
LAY-10
  6
CONTINUOUS
 62
     7
100
AcDbLine
 10
442.500000000007
 20
1171.250000000205
 30
0.0
 11
437.500000000007
 21
1166.250000000205
 31
0.0
  0
LINE
  5
42B
330
1F
100
AcDbEntity
  8
LAY-10
  6
CONTINUOUS
 62
     7
100
AcDbLine
 10
442.500000000007
 20
1176.750000000205
 30
0.0
 11
437.500000000007
 21
1171.750000000205
 31
0.0
  0
LINE
  5
42C
330
1F
100
AcDbEntity
  8
LAY-10
  6
CONTINUOUS
 62
     7
100
AcDbLine
 10
442.500000000007
 20
1166.250000000205
 30
0.0
 11
437.500000000007
 21
1166.250000000205
 31
0.0
  0
LINE
  5
42D
330
1F
100
AcDbEntity
  8
LAY-10
  6
CONTINUOUS
 62
     7
100
AcDbLine
 10
442.500000000007
 20
1171.250000000205
 30
0.0
 11
442.500000000007
 21
1166.250000000205
 31
0.0
  0
LINE
  5
42E
330
1F
100
AcDbEntity
  8
LAY-10
  6
CONTINUOUS
 62
     7
100
AcDbLine
 10
437.500000000007
 20
1171.250000000205
 30
0.0
 11
437.500000000007
 21
1166.250000000205
 31
0.0
  0
LINE
  5
42F
330
1F
100
AcDbEntity
  8
LAY-10
  6
CONTINUOUS
 62
     7
100
AcDbLine
 10
437.500000000007
 20
1171.250000000205
 30
0.0
 11
442.500000000007
 21
1171.250000000205
 31
0.0
  0
LINE
  5
430
330
1F
100
AcDbEntity
  8
LAY-10
  6
CONTINUOUS
 62
     7
100
AcDbLine
 10
437.500000000007
 20
1171.750000000205
 30
0.0
 11
437.500000000007
 21
1176.750000000205
 31
0.0
  0
LINE
  5
431
330
1F
100
AcDbEntity
  8
LAY-10
  6
CONTINUOUS
 62
     7
100
AcDbLine
 10
442.500000000007
 20
1171.750000000205
 30
0.0
 11
437.500000000007
 21
1171.750000000205
 31
0.0
  0
LINE
  5
432
330
1F
100
AcDbEntity
  8
LAY-10
  6
CONTINUOUS
 62
     7
100
AcDbLine
 10
442.500000000007
 20
1176.750000000205
 30
0.0
 11
437.500000000007
 21
1176.750000000205
 31
0.0
  0
LINE
  5
433
330
1F
100
AcDbEntity
  8
LAY-10
  6
CONTINUOUS
 62
     7
100
AcDbLine
 10
442.500000000007
 20
1176.750000000205
 30
0.0
 11
442.500000000007
 21
1171.750000000205
 31
0.0
  0
LINE
  5
434
330
1F
100
AcDbEntity
  8
LAY-10
  6
CONTINUOUS
 62
     7
100
AcDbLine
 10
448.000000000007
 20
1146.250000000006
 30
0.0
 11
448.000000000007
 21
1151.250000000006
 31
0.0
  0
LINE
  5
435
330
1F
100
AcDbEntity
  8
LAY-10
  6
CONTINUOUS
 62
     7
100
AcDbLine
 10
448.000000000007
 20
1146.250000000006
 30
0.0
 11
443.000000000007
 21
1146.250000000006
 31
0.0
  0
LINE
  5
436
330
1F
100
AcDbEntity
  8
LAY-10
  6
CONTINUOUS
 62
     7
100
AcDbLine
 10
448.000000000007
 20
1151.250000000006
 30
0.0
 11
443.000000000007
 21
1151.250000000006
 31
0.0
  0
LINE
  5
437
330
1F
100
AcDbEntity
  8
LAY-10
  6
CONTINUOUS
 62
     7
100
AcDbLine
 10
443.000000000007
 20
1151.250000000006
 30
0.0
 11
443.000000000007
 21
1146.250000000006
 31
0.0
  0
LINE
  5
438
330
1F
100
AcDbEntity
  8
LAY-10
  6
CONTINUOUS
 62
     7
100
AcDbLine
 10
443.000000000007
 20
1151.750000000006
 30
0.0
 11
448.000000000007
 21
1151.750000000006
 31
0.0
  0
LINE
  5
439
330
1F
100
AcDbEntity
  8
LAY-10
  6
CONTINUOUS
 62
     7
100
AcDbLine
 10
443.000000000007
 20
1151.750000000006
 30
0.0
 11
443.000000000007
 21
1156.750000000006
 31
0.0
  0
LINE
  5
43A
330
1F
100
AcDbEntity
  8
LAY-10
  6
CONTINUOUS
 62
     7
100
AcDbLine
 10
448.000000000007
 20
1151.750000000006
 30
0.0
 11
448.000000000007
 21
1156.750000000006
 31
0.0
  0
LINE
  5
43B
330
1F
100
AcDbEntity
  8
LAY-10
  6
CONTINUOUS
 62
     7
100
AcDbLine
 10
448.000000000007
 20
1156.750000000006
 30
0.0
 11
443.000000000007
 21
1156.750000000006
 31
0.0
  0
LINE
  5
43C
330
1F
100
AcDbEntity
  8
LAY-10
  6
CONTINUOUS
 62
     7
100
AcDbLine
 10
448.000000000007
 20
1146.250000000006
 30
0.0
 11
443.000000000007
 21
1151.250000000006
 31
0.0
  0
LINE
  5
43D
330
1F
100
AcDbEntity
  8
LAY-10
  6
CONTINUOUS
 62
     7
100
AcDbLine
 10
448.000000000007
 20
1151.750000000006
 30
0.0
 11
443.000000000007
 21
1156.750000000006
 31
0.0
  0
LINE
  5
43E
330
1F
100
AcDbEntity
  8
LAY-10
  6
CONTINUOUS
 62
     7
100
AcDbLine
 10
443.000000000007
 20
1146.250000000006
 30
0.0
 11
448.000000000007
 21
1151.250000000006
 31
0.0
  0
LINE
  5
43F
330
1F
100
AcDbEntity
  8
LAY-10
  6
CONTINUOUS
 62
     7
100
AcDbLine
 10
443.000000000007
 20
1151.750000000006
 30
0.0
 11
448.000000000007
 21
1156.750000000006
 31
0.0
  0
LINE
  5
440
330
1F
100
AcDbEntity
  8
LAY-10
  6
CONTINUOUS
 62
     7
100
AcDbLine
 10
437.500000000007
 20
1151.750000000006
 30
0.0
 11
442.500000000007
 21
1156.750000000006
 31
0.0
  0
LINE
  5
441
330
1F
100
AcDbEntity
  8
LAY-10
  6
CONTINUOUS
 62
     7
100
AcDbLine
 10
442.500000000007
 20
1151.750000000006
 30
0.0
 11
437.500000000007
 21
1156.750000000006
 31
0.0
  0
LINE
  5
442
330
1F
100
AcDbEntity
  8
LAY-10
  6
CONTINUOUS
 62
     7
100
AcDbLine
 10
442.500000000007
 20
1146.250000000006
 30
0.0
 11
437.500000000007
 21
1151.250000000006
 31
0.0
  0
LINE
  5
443
330
1F
100
AcDbEntity
  8
LAY-10
  6
CONTINUOUS
 62
     7
100
AcDbLine
 10
442.500000000007
 20
1156.750000000006
 30
0.0
 11
437.500000000007
 21
1156.750000000006
 31
0.0
  0
LINE
  5
444
330
1F
100
AcDbEntity
  8
LAY-10
  6
CONTINUOUS
 62
     7
100
AcDbLine
 10
442.500000000007
 20
1151.750000000006
 30
0.0
 11
442.500000000007
 21
1156.750000000006
 31
0.0
  0
LINE
  5
445
330
1F
100
AcDbEntity
  8
LAY-10
  6
CONTINUOUS
 62
     7
100
AcDbLine
 10
437.500000000007
 20
1151.750000000006
 30
0.0
 11
437.500000000007
 21
1156.750000000006
 31
0.0
  0
LINE
  5
446
330
1F
100
AcDbEntity
  8
LAY-10
  6
CONTINUOUS
 62
     7
100
AcDbLine
 10
437.500000000007
 20
1151.750000000006
 30
0.0
 11
442.500000000007
 21
1151.750000000006
 31
0.0
  0
LINE
  5
447
330
1F
100
AcDbEntity
  8
LAY-10
  6
CONTINUOUS
 62
     7
100
AcDbLine
 10
442.500000000007
 20
1151.250000000006
 30
0.0
 11
437.500000000007
 21
1151.250000000006
 31
0.0
  0
LINE
  5
448
330
1F
100
AcDbEntity
  8
LAY-10
  6
CONTINUOUS
 62
     7
100
AcDbLine
 10
442.500000000007
 20
1146.250000000006
 30
0.0
 11
442.500000000007
 21
1151.250000000006
 31
0.0
  0
LINE
  5
449
330
1F
100
AcDbEntity
  8
LAY-10
  6
CONTINUOUS
 62
     7
100
AcDbLine
 10
437.000000000007
 20
1191.250000000195
 30
0.0
 11
437.000000000007
 21
1186.250000000195
 31
0.0
  0
LINE
  5
44A
330
1F
100
AcDbEntity
  8
LAY-10
  6
CONTINUOUS
 62
     7
100
AcDbLine
 10
437.000000000007
 20
1186.250000000195
 30
0.0
 11
432.000000000007
 21
1186.250000000195
 31
0.0
  0
LINE
  5
44B
330
1F
100
AcDbEntity
  8
LAY-10
  6
CONTINUOUS
 62
     7
100
AcDbLine
 10
437.000000000007
 20
1191.250000000195
 30
0.0
 11
432.000000000007
 21
1186.250000000195
 31
0.0
  0
LINE
  5
44C
330
1F
100
AcDbEntity
  8
LAY-10
  6
CONTINUOUS
 62
     7
100
AcDbLine
 10
437.000000000007
 20
1176.750000000205
 30
0.0
 11
437.000000000007
 21
1171.750000000205
 31
0.0
  0
LINE
  5
44D
330
1F
100
AcDbEntity
  8
LAY-10
  6
CONTINUOUS
 62
     7
100
AcDbLine
 10
437.000000000007
 20
1176.750000000205
 30
0.0
 11
432.000000000007
 21
1176.750000000205
 31
0.0
  0
LINE
  5
44E
330
1F
100
AcDbEntity
  8
LAY-10
  6
CONTINUOUS
 62
     7
100
AcDbLine
 10
437.000000000007
 20
1171.750000000205
 30
0.0
 11
432.000000000007
 21
1171.750000000205
 31
0.0
  0
LINE
  5
44F
330
1F
100
AcDbEntity
  8
LAY-10
  6
CONTINUOUS
 62
     7
100
AcDbLine
 10
432.000000000007
 20
1171.750000000205
 30
0.0
 11
432.000000000007
 21
1176.750000000205
 31
0.0
  0
LINE
  5
450
330
1F
100
AcDbEntity
  8
LAY-10
  6
CONTINUOUS
 62
     7
100
AcDbLine
 10
431.500000000007
 20
1176.750000000205
 30
0.0
 11
431.500000000007
 21
1171.750000000205
 31
0.0
  0
LINE
  5
451
330
1F
100
AcDbEntity
  8
LAY-10
  6
CONTINUOUS
 62
     7
100
AcDbLine
 10
431.500000000007
 20
1176.750000000205
 30
0.0
 11
426.500000000007
 21
1176.750000000205
 31
0.0
  0
LINE
  5
452
330
1F
100
AcDbEntity
  8
LAY-10
  6
CONTINUOUS
 62
     7
100
AcDbLine
 10
431.500000000007
 20
1171.750000000205
 30
0.0
 11
426.500000000007
 21
1171.750000000205
 31
0.0
  0
LINE
  5
453
330
1F
100
AcDbEntity
  8
LAY-10
  6
CONTINUOUS
 62
     7
100
AcDbLine
 10
426.500000000007
 20
1171.750000000205
 30
0.0
 11
426.500000000007
 21
1176.750000000205
 31
0.0
  0
LINE
  5
454
330
1F
100
AcDbEntity
  8
LAY-10
  6
CONTINUOUS
 62
     7
100
AcDbLine
 10
426.000000000007
 20
1176.750000000205
 30
0.0
 11
426.000000000007
 21
1171.750000000205
 31
0.0
  0
LINE
  5
455
330
1F
100
AcDbEntity
  8
LAY-10
  6
CONTINUOUS
 62
     7
100
AcDbLine
 10
432.000000000007
 20
1171.250000000205
 30
0.0
 11
437.000000000007
 21
1171.250000000205
 31
0.0
  0
LINE
  5
456
330
1F
100
AcDbEntity
  8
LAY-10
  6
CONTINUOUS
 62
     7
100
AcDbLine
 10
432.000000000007
 20
1171.250000000205
 30
0.0
 11
432.000000000007
 21
1166.250000000205
 31
0.0
  0
LINE
  5
457
330
1F
100
AcDbEntity
  8
LAY-10
  6
CONTINUOUS
 62
     7
100
AcDbLine
 10
437.000000000007
 20
1171.250000000205
 30
0.0
 11
437.000000000007
 21
1166.250000000205
 31
0.0
  0
LINE
  5
458
330
1F
100
AcDbEntity
  8
LAY-10
  6
CONTINUOUS
 62
     7
100
AcDbLine
 10
437.000000000007
 20
1166.250000000205
 30
0.0
 11
432.000000000007
 21
1166.250000000205
 31
0.0
  0
LINE
  5
459
330
1F
100
AcDbEntity
  8
LAY-10
  6
CONTINUOUS
 62
     7
100
AcDbLine
 10
426.500000000007
 20
1171.250000000205
 30
0.0
 11
431.500000000007
 21
1171.250000000205
 31
0.0
  0
LINE
  5
45A
330
1F
100
AcDbEntity
  8
LAY-10
  6
CONTINUOUS
 62
     7
100
AcDbLine
 10
426.500000000007
 20
1171.250000000205
 30
0.0
 11
426.500000000007
 21
1166.250000000205
 31
0.0
  0
LINE
  5
45B
330
1F
100
AcDbEntity
  8
LAY-10
  6
CONTINUOUS
 62
     7
100
AcDbLine
 10
431.500000000007
 20
1171.250000000205
 30
0.0
 11
431.500000000007
 21
1166.250000000205
 31
0.0
  0
LINE
  5
45C
330
1F
100
AcDbEntity
  8
LAY-10
  6
CONTINUOUS
 62
     7
100
AcDbLine
 10
431.500000000007
 20
1166.250000000205
 30
0.0
 11
426.500000000007
 21
1166.250000000205
 31
0.0
  0
LINE
  5
45D
330
1F
100
AcDbEntity
  8
LAY-10
  6
CONTINUOUS
 62
     7
100
AcDbLine
 10
426.000000000007
 20
1171.250000000205
 30
0.0
 11
426.000000000007
 21
1166.250000000205
 31
0.0
  0
LINE
  5
45E
330
1F
100
AcDbEntity
  8
LAY-10
  6
CONTINUOUS
 62
     7
100
AcDbLine
 10
437.000000000007
 20
1176.750000000205
 30
0.0
 11
432.000000000007
 21
1171.750000000205
 31
0.0
  0
LINE
  5
45F
330
1F
100
AcDbEntity
  8
LAY-10
  6
CONTINUOUS
 62
     7
100
AcDbLine
 10
431.500000000007
 20
1176.750000000205
 30
0.0
 11
426.500000000007
 21
1171.750000000205
 31
0.0
  0
LINE
  5
460
330
1F
100
AcDbEntity
  8
LAY-10
  6
CONTINUOUS
 62
     7
100
AcDbLine
 10
437.000000000007
 20
1171.250000000205
 30
0.0
 11
432.000000000007
 21
1166.250000000205
 31
0.0
  0
LINE
  5
461
330
1F
100
AcDbEntity
  8
LAY-10
  6
CONTINUOUS
 62
     7
100
AcDbLine
 10
431.500000000007
 20
1171.250000000205
 30
0.0
 11
426.500000000007
 21
1166.250000000205
 31
0.0
  0
LINE
  5
462
330
1F
100
AcDbEntity
  8
LAY-10
  6
CONTINUOUS
 62
     7
100
AcDbLine
 10
432.000000000007
 20
1176.750000000205
 30
0.0
 11
437.000000000007
 21
1171.750000000205
 31
0.0
  0
LINE
  5
463
330
1F
100
AcDbEntity
  8
LAY-10
  6
CONTINUOUS
 62
     7
100
AcDbLine
 10
426.500000000007
 20
1176.750000000205
 30
0.0
 11
431.500000000007
 21
1171.750000000205
 31
0.0
  0
LINE
  5
464
330
1F
100
AcDbEntity
  8
LAY-10
  6
CONTINUOUS
 62
     7
100
AcDbLine
 10
426.500000000007
 20
1171.250000000205
 30
0.0
 11
431.500000000007
 21
1166.250000000205
 31
0.0
  0
LINE
  5
465
330
1F
100
AcDbEntity
  8
LAY-10
  6
CONTINUOUS
 62
     7
100
AcDbLine
 10
432.000000000007
 20
1171.250000000205
 30
0.0
 11
437.000000000007
 21
1166.250000000205
 31
0.0
  0
LINE
  5
466
330
1F
100
AcDbEntity
  8
LAY-10
  6
CONTINUOUS
 62
     7
100
AcDbLine
 10
432.000000000007
 20
1151.750000000006
 30
0.0
 11
437.000000000007
 21
1151.750000000006
 31
0.0
  0
LINE
  5
467
330
1F
100
AcDbEntity
  8
LAY-10
  6
CONTINUOUS
 62
     7
100
AcDbLine
 10
432.000000000007
 20
1151.750000000006
 30
0.0
 11
432.000000000007
 21
1156.750000000006
 31
0.0
  0
LINE
  5
468
330
1F
100
AcDbEntity
  8
LAY-10
  6
CONTINUOUS
 62
     7
100
AcDbLine
 10
437.000000000007
 20
1151.750000000006
 30
0.0
 11
437.000000000007
 21
1156.750000000006
 31
0.0
  0
LINE
  5
469
330
1F
100
AcDbEntity
  8
LAY-10
  6
CONTINUOUS
 62
     7
100
AcDbLine
 10
437.000000000007
 20
1156.750000000006
 30
0.0
 11
432.000000000007
 21
1156.750000000006
 31
0.0
  0
LINE
  5
46A
330
1F
100
AcDbEntity
  8
LAY-10
  6
CONTINUOUS
 62
     7
100
AcDbLine
 10
437.000000000007
 20
1151.750000000006
 30
0.0
 11
432.000000000007
 21
1156.750000000006
 31
0.0
  0
LINE
  5
46B
330
1F
100
AcDbEntity
  8
LAY-10
  6
CONTINUOUS
 62
     7
100
AcDbLine
 10
432.000000000007
 20
1151.750000000006
 30
0.0
 11
437.000000000007
 21
1156.750000000006
 31
0.0
  0
LINE
  5
46C
330
1F
100
AcDbEntity
  8
LAY-10
  6
CONTINUOUS
 62
     7
100
AcDbLine
 10
470.0000000000069
 20
1151.250000000006
 30
0.0
 11
465.0000000000069
 21
1151.250000000006
 31
0.0
  0
LINE
  5
46D
330
1F
100
AcDbEntity
  8
LAY-10
  6
CONTINUOUS
 62
     7
100
AcDbLine
 10
465.0000000000069
 20
1151.250000000006
 30
0.0
 11
465.0000000000069
 21
1146.250000000006
 31
0.0
  0
LINE
  5
46E
330
1F
100
AcDbEntity
  8
LAY-10
  6
CONTINUOUS
 62
     7
100
AcDbLine
 10
470.5000000000069
 20
1151.750000000006
 30
0.0
 11
470.5000000000069
 21
1156.750000000006
 31
0.0
  0
LINE
  5
46F
330
1F
100
AcDbEntity
  8
LAY-10
  6
CONTINUOUS
 62
     7
100
AcDbLine
 10
475.5000000000069
 20
1156.750000000006
 30
0.0
 11
470.5000000000069
 21
1156.750000000006
 31
0.0
  0
LINE
  5
470
330
1F
100
AcDbEntity
  8
LAY-10
  6
CONTINUOUS
 62
     7
100
AcDbLine
 10
465.0000000000069
 20
1151.750000000006
 30
0.0
 11
470.0000000000069
 21
1151.750000000006
 31
0.0
  0
LINE
  5
471
330
1F
100
AcDbEntity
  8
LAY-10
  6
CONTINUOUS
 62
     7
100
AcDbLine
 10
465.0000000000069
 20
1151.750000000006
 30
0.0
 11
465.0000000000069
 21
1156.750000000006
 31
0.0
  0
LINE
  5
472
330
1F
100
AcDbEntity
  8
LAY-10
  6
CONTINUOUS
 62
     7
100
AcDbLine
 10
470.0000000000069
 20
1151.750000000006
 30
0.0
 11
470.0000000000069
 21
1156.750000000006
 31
0.0
  0
LINE
  5
473
330
1F
100
AcDbEntity
  8
LAY-10
  6
CONTINUOUS
 62
     7
100
AcDbLine
 10
470.0000000000069
 20
1156.750000000006
 30
0.0
 11
465.0000000000069
 21
1156.750000000006
 31
0.0
  0
LINE
  5
474
330
1F
100
AcDbEntity
  8
LAY-10
  6
CONTINUOUS
 62
     7
100
AcDbLine
 10
470.0000000000069
 20
1151.750000000006
 30
0.0
 11
465.0000000000069
 21
1156.750000000006
 31
0.0
  0
LINE
  5
475
330
1F
100
AcDbEntity
  8
LAY-10
  6
CONTINUOUS
 62
     7
100
AcDbLine
 10
465.0000000000069
 20
1146.250000000006
 30
0.0
 11
470.0000000000069
 21
1151.250000000006
 31
0.0
  0
LINE
  5
476
330
1F
100
AcDbEntity
  8
LAY-10
  6
CONTINUOUS
 62
     7
100
AcDbLine
 10
465.0000000000069
 20
1151.750000000006
 30
0.0
 11
470.0000000000069
 21
1156.750000000006
 31
0.0
  0
LINE
  5
477
330
1F
100
AcDbEntity
  8
LAY-10
  6
CONTINUOUS
 62
     7
100
AcDbLine
 10
470.5000000000069
 20
1151.750000000006
 30
0.0
 11
475.5000000000069
 21
1156.750000000006
 31
0.0
  0
LINE
  5
478
330
1F
100
AcDbEntity
  8
LAY-10
  6
CONTINUOUS
 62
     7
100
AcDbLine
 10
459.5000000000069
 20
1151.750000000006
 30
0.0
 11
464.5000000000069
 21
1156.750000000006
 31
0.0
  0
LINE
  5
479
330
1F
100
AcDbEntity
  8
LAY-10
  6
CONTINUOUS
 62
     7
100
AcDbLine
 10
459.5000000000069
 20
1146.250000000006
 30
0.0
 11
464.5000000000069
 21
1151.250000000006
 31
0.0
  0
LINE
  5
47A
330
1F
100
AcDbEntity
  8
LAY-10
  6
CONTINUOUS
 62
     7
100
AcDbLine
 10
464.5000000000069
 20
1151.750000000006
 30
0.0
 11
459.5000000000069
 21
1156.750000000006
 31
0.0
  0
LINE
  5
47B
330
1F
100
AcDbEntity
  8
LAY-10
  6
CONTINUOUS
 62
     7
100
AcDbLine
 10
464.5000000000069
 20
1146.250000000006
 30
0.0
 11
459.5000000000069
 21
1151.250000000006
 31
0.0
  0
LINE
  5
47C
330
1F
100
AcDbEntity
  8
LAY-10
  6
CONTINUOUS
 62
     7
100
AcDbLine
 10
464.5000000000069
 20
1156.750000000006
 30
0.0
 11
459.5000000000069
 21
1156.750000000006
 31
0.0
  0
LINE
  5
47D
330
1F
100
AcDbEntity
  8
LAY-10
  6
CONTINUOUS
 62
     7
100
AcDbLine
 10
464.5000000000069
 20
1151.750000000006
 30
0.0
 11
464.5000000000069
 21
1156.750000000006
 31
0.0
  0
LINE
  5
47E
330
1F
100
AcDbEntity
  8
LAY-10
  6
CONTINUOUS
 62
     7
100
AcDbLine
 10
459.5000000000069
 20
1151.750000000006
 30
0.0
 11
459.5000000000069
 21
1156.750000000006
 31
0.0
  0
LINE
  5
47F
330
1F
100
AcDbEntity
  8
LAY-10
  6
CONTINUOUS
 62
     7
100
AcDbLine
 10
459.5000000000069
 20
1151.750000000006
 30
0.0
 11
464.5000000000069
 21
1151.750000000006
 31
0.0
  0
LINE
  5
480
330
1F
100
AcDbEntity
  8
LAY-10
  6
CONTINUOUS
 62
     7
100
AcDbLine
 10
459.5000000000069
 20
1151.250000000006
 30
0.0
 11
459.5000000000069
 21
1146.250000000006
 31
0.0
  0
LINE
  5
481
330
1F
100
AcDbEntity
  8
LAY-10
  6
CONTINUOUS
 62
     7
100
AcDbLine
 10
464.5000000000069
 20
1151.250000000006
 30
0.0
 11
459.5000000000069
 21
1151.250000000006
 31
0.0
  0
LINE
  5
482
330
1F
100
AcDbEntity
  8
LAY-10
  6
CONTINUOUS
 62
     7
100
AcDbLine
 10
464.5000000000069
 20
1146.250000000006
 30
0.0
 11
459.5000000000069
 21
1146.250000000006
 31
0.0
  0
LINE
  5
483
330
1F
100
AcDbEntity
  8
LAY-10
  6
CONTINUOUS
 62
     7
100
AcDbLine
 10
464.5000000000069
 20
1146.250000000006
 30
0.0
 11
464.5000000000069
 21
1151.250000000006
 31
0.0
  0
LINE
  5
484
330
1F
100
AcDbEntity
  8
LAY-10
  6
CONTINUOUS
 62
     7
100
AcDbLine
 10
459.0000000000069
 20
1146.250000000006
 30
0.0
 11
459.0000000000069
 21
1151.250000000006
 31
0.0
  0
LINE
  5
485
330
1F
100
AcDbEntity
  8
LAY-10
  6
CONTINUOUS
 62
     7
100
AcDbLine
 10
459.0000000000069
 20
1146.250000000006
 30
0.0
 11
454.0000000000069
 21
1146.250000000006
 31
0.0
  0
LINE
  5
486
330
1F
100
AcDbEntity
  8
LAY-10
  6
CONTINUOUS
 62
     7
100
AcDbLine
 10
459.0000000000069
 20
1151.250000000006
 30
0.0
 11
454.0000000000069
 21
1151.250000000006
 31
0.0
  0
LINE
  5
487
330
1F
100
AcDbEntity
  8
LAY-10
  6
CONTINUOUS
 62
     7
100
AcDbLine
 10
454.0000000000069
 20
1151.250000000006
 30
0.0
 11
454.0000000000069
 21
1146.250000000006
 31
0.0
  0
LINE
  5
488
330
1F
100
AcDbEntity
  8
LAY-10
  6
CONTINUOUS
 62
     7
100
AcDbLine
 10
453.500000000007
 20
1146.250000000006
 30
0.0
 11
453.500000000007
 21
1151.250000000006
 31
0.0
  0
LINE
  5
489
330
1F
100
AcDbEntity
  8
LAY-10
  6
CONTINUOUS
 62
     7
100
AcDbLine
 10
453.500000000007
 20
1146.250000000006
 30
0.0
 11
448.500000000007
 21
1146.250000000006
 31
0.0
  0
LINE
  5
48A
330
1F
100
AcDbEntity
  8
LAY-10
  6
CONTINUOUS
 62
     7
100
AcDbLine
 10
453.500000000007
 20
1151.250000000006
 30
0.0
 11
448.500000000007
 21
1151.250000000006
 31
0.0
  0
LINE
  5
48B
330
1F
100
AcDbEntity
  8
LAY-10
  6
CONTINUOUS
 62
     7
100
AcDbLine
 10
448.500000000007
 20
1151.250000000006
 30
0.0
 11
448.500000000007
 21
1146.250000000006
 31
0.0
  0
LINE
  5
48C
330
1F
100
AcDbEntity
  8
LAY-10
  6
CONTINUOUS
 62
     7
100
AcDbLine
 10
454.0000000000069
 20
1151.750000000006
 30
0.0
 11
459.0000000000069
 21
1151.750000000006
 31
0.0
  0
LINE
  5
48D
330
1F
100
AcDbEntity
  8
LAY-10
  6
CONTINUOUS
 62
     7
100
AcDbLine
 10
454.0000000000069
 20
1151.750000000006
 30
0.0
 11
454.0000000000069
 21
1156.750000000006
 31
0.0
  0
LINE
  5
48E
330
1F
100
AcDbEntity
  8
LAY-10
  6
CONTINUOUS
 62
     7
100
AcDbLine
 10
459.0000000000069
 20
1151.750000000006
 30
0.0
 11
459.0000000000069
 21
1156.750000000006
 31
0.0
  0
LINE
  5
48F
330
1F
100
AcDbEntity
  8
LAY-10
  6
CONTINUOUS
 62
     7
100
AcDbLine
 10
459.0000000000069
 20
1156.750000000006
 30
0.0
 11
454.0000000000069
 21
1156.750000000006
 31
0.0
  0
LINE
  5
490
330
1F
100
AcDbEntity
  8
LAY-10
  6
CONTINUOUS
 62
     7
100
AcDbLine
 10
448.500000000007
 20
1151.750000000006
 30
0.0
 11
453.500000000007
 21
1151.750000000006
 31
0.0
  0
LINE
  5
491
330
1F
100
AcDbEntity
  8
LAY-10
  6
CONTINUOUS
 62
     7
100
AcDbLine
 10
448.500000000007
 20
1151.750000000006
 30
0.0
 11
448.500000000007
 21
1156.750000000006
 31
0.0
  0
LINE
  5
492
330
1F
100
AcDbEntity
  8
LAY-10
  6
CONTINUOUS
 62
     7
100
AcDbLine
 10
453.500000000007
 20
1151.750000000006
 30
0.0
 11
453.500000000007
 21
1156.750000000006
 31
0.0
  0
LINE
  5
493
330
1F
100
AcDbEntity
  8
LAY-10
  6
CONTINUOUS
 62
     7
100
AcDbLine
 10
453.500000000007
 20
1156.750000000006
 30
0.0
 11
448.500000000007
 21
1156.750000000006
 31
0.0
  0
LINE
  5
494
330
1F
100
AcDbEntity
  8
LAY-10
  6
CONTINUOUS
 62
     7
100
AcDbLine
 10
459.0000000000069
 20
1146.250000000006
 30
0.0
 11
454.0000000000069
 21
1151.250000000006
 31
0.0
  0
LINE
  5
495
330
1F
100
AcDbEntity
  8
LAY-10
  6
CONTINUOUS
 62
     7
100
AcDbLine
 10
453.500000000007
 20
1146.250000000006
 30
0.0
 11
448.500000000007
 21
1151.250000000006
 31
0.0
  0
LINE
  5
496
330
1F
100
AcDbEntity
  8
LAY-10
  6
CONTINUOUS
 62
     7
100
AcDbLine
 10
459.0000000000069
 20
1151.750000000006
 30
0.0
 11
454.0000000000069
 21
1156.750000000006
 31
0.0
  0
LINE
  5
497
330
1F
100
AcDbEntity
  8
LAY-10
  6
CONTINUOUS
 62
     7
100
AcDbLine
 10
453.500000000007
 20
1151.750000000006
 30
0.0
 11
448.500000000007
 21
1156.750000000006
 31
0.0
  0
LINE
  5
498
330
1F
100
AcDbEntity
  8
LAY-10
  6
CONTINUOUS
 62
     7
100
AcDbLine
 10
454.0000000000069
 20
1146.250000000006
 30
0.0
 11
459.0000000000069
 21
1151.250000000006
 31
0.0
  0
LINE
  5
499
330
1F
100
AcDbEntity
  8
LAY-10
  6
CONTINUOUS
 62
     7
100
AcDbLine
 10
448.500000000007
 20
1146.250000000006
 30
0.0
 11
453.500000000007
 21
1151.250000000006
 31
0.0
  0
LINE
  5
49A
330
1F
100
AcDbEntity
  8
LAY-10
  6
CONTINUOUS
 62
     7
100
AcDbLine
 10
448.500000000007
 20
1151.750000000006
 30
0.0
 11
453.500000000007
 21
1156.750000000006
 31
0.0
  0
LINE
  5
49B
330
1F
100
AcDbEntity
  8
LAY-10
  6
CONTINUOUS
 62
     7
100
AcDbLine
 10
454.0000000000069
 20
1151.750000000006
 30
0.0
 11
459.0000000000069
 21
1156.750000000006
 31
0.0
  0
LINE
  5
49C
330
1F
100
AcDbEntity
  8
LAY-10
  6
CONTINUOUS
 62
     7
100
AcDbLine
 10
481.0000000000069
 20
1166.250000000206
 30
0.0
 11
481.0000000000069
 21
1171.250000000206
 31
0.0
  0
LINE
  5
49D
330
1F
100
AcDbEntity
  8
LAY-10
  6
CONTINUOUS
 62
     7
100
AcDbLine
 10
481.0000000000069
 20
1166.250000000206
 30
0.0
 11
476.0000000000069
 21
1166.250000000206
 31
0.0
  0
LINE
  5
49E
330
1F
100
AcDbEntity
  8
LAY-10
  6
CONTINUOUS
 62
     7
100
AcDbLine
 10
481.0000000000069
 20
1171.250000000206
 30
0.0
 11
476.0000000000069
 21
1171.250000000206
 31
0.0
  0
LINE
  5
49F
330
1F
100
AcDbEntity
  8
LAY-10
  6
CONTINUOUS
 62
     7
100
AcDbLine
 10
476.0000000000069
 20
1171.250000000206
 30
0.0
 11
476.0000000000069
 21
1166.250000000206
 31
0.0
  0
LINE
  5
4A0
330
1F
100
AcDbEntity
  8
LAY-10
  6
CONTINUOUS
 62
     7
100
AcDbLine
 10
475.5000000000069
 20
1166.250000000206
 30
0.0
 11
475.5000000000069
 21
1171.250000000206
 31
0.0
  0
LINE
  5
4A1
330
1F
100
AcDbEntity
  8
LAY-10
  6
CONTINUOUS
 62
     7
100
AcDbLine
 10
475.5000000000069
 20
1166.250000000206
 30
0.0
 11
470.5000000000069
 21
1166.250000000206
 31
0.0
  0
LINE
  5
4A2
330
1F
100
AcDbEntity
  8
LAY-10
  6
CONTINUOUS
 62
     7
100
AcDbLine
 10
475.5000000000069
 20
1171.250000000206
 30
0.0
 11
470.5000000000069
 21
1171.250000000206
 31
0.0
  0
LINE
  5
4A3
330
1F
100
AcDbEntity
  8
LAY-10
  6
CONTINUOUS
 62
     7
100
AcDbLine
 10
470.5000000000069
 20
1171.250000000206
 30
0.0
 11
470.5000000000069
 21
1166.250000000206
 31
0.0
  0
LINE
  5
4A4
330
1F
100
AcDbEntity
  8
LAY-10
  6
CONTINUOUS
 62
     7
100
AcDbLine
 10
470.0000000000069
 20
1166.250000000206
 30
0.0
 11
470.0000000000069
 21
1171.250000000206
 31
0.0
  0
LINE
  5
4A5
330
1F
100
AcDbEntity
  8
LAY-10
  6
CONTINUOUS
 62
     7
100
AcDbLine
 10
470.0000000000069
 20
1166.250000000206
 30
0.0
 11
465.0000000000069
 21
1166.250000000206
 31
0.0
  0
LINE
  5
4A6
330
1F
100
AcDbEntity
  8
LAY-10
  6
CONTINUOUS
 62
     7
100
AcDbLine
 10
470.0000000000069
 20
1171.250000000206
 30
0.0
 11
465.0000000000069
 21
1171.250000000206
 31
0.0
  0
LINE
  5
4A7
330
1F
100
AcDbEntity
  8
LAY-10
  6
CONTINUOUS
 62
     7
100
AcDbLine
 10
465.0000000000069
 20
1171.250000000206
 30
0.0
 11
465.0000000000069
 21
1166.250000000206
 31
0.0
  0
LINE
  5
4A8
330
1F
100
AcDbEntity
  8
LAY-10
  6
CONTINUOUS
 62
     7
100
AcDbLine
 10
476.0000000000069
 20
1171.750000000206
 30
0.0
 11
481.0000000000069
 21
1171.750000000206
 31
0.0
  0
LINE
  5
4A9
330
1F
100
AcDbEntity
  8
LAY-10
  6
CONTINUOUS
 62
     7
100
AcDbLine
 10
476.0000000000069
 20
1171.750000000206
 30
0.0
 11
476.0000000000069
 21
1176.750000000206
 31
0.0
  0
LINE
  5
4AA
330
1F
100
AcDbEntity
  8
LAY-10
  6
CONTINUOUS
 62
     7
100
AcDbLine
 10
470.5000000000069
 20
1171.750000000206
 30
0.0
 11
475.5000000000069
 21
1171.750000000206
 31
0.0
  0
LINE
  5
4AB
330
1F
100
AcDbEntity
  8
LAY-10
  6
CONTINUOUS
 62
     7
100
AcDbLine
 10
470.5000000000069
 20
1171.750000000206
 30
0.0
 11
470.5000000000069
 21
1176.750000000206
 31
0.0
  0
LINE
  5
4AC
330
1F
100
AcDbEntity
  8
LAY-10
  6
CONTINUOUS
 62
     7
100
AcDbLine
 10
475.5000000000069
 20
1171.750000000206
 30
0.0
 11
475.5000000000069
 21
1176.750000000206
 31
0.0
  0
LINE
  5
4AD
330
1F
100
AcDbEntity
  8
LAY-10
  6
CONTINUOUS
 62
     7
100
AcDbLine
 10
475.5000000000069
 20
1176.750000000206
 30
0.0
 11
470.5000000000069
 21
1176.750000000206
 31
0.0
  0
LINE
  5
4AE
330
1F
100
AcDbEntity
  8
LAY-10
  6
CONTINUOUS
 62
     7
100
AcDbLine
 10
465.0000000000069
 20
1171.750000000206
 30
0.0
 11
470.0000000000069
 21
1171.750000000206
 31
0.0
  0
LINE
  5
4AF
330
1F
100
AcDbEntity
  8
LAY-10
  6
CONTINUOUS
 62
     7
100
AcDbLine
 10
465.0000000000069
 20
1171.750000000206
 30
0.0
 11
465.0000000000069
 21
1176.750000000206
 31
0.0
  0
LINE
  5
4B0
330
1F
100
AcDbEntity
  8
LAY-10
  6
CONTINUOUS
 62
     7
100
AcDbLine
 10
470.0000000000069
 20
1171.750000000206
 30
0.0
 11
470.0000000000069
 21
1176.750000000206
 31
0.0
  0
LINE
  5
4B1
330
1F
100
AcDbEntity
  8
LAY-10
  6
CONTINUOUS
 62
     7
100
AcDbLine
 10
470.0000000000069
 20
1176.750000000206
 30
0.0
 11
465.0000000000069
 21
1176.750000000206
 31
0.0
  0
LINE
  5
4B2
330
1F
100
AcDbEntity
  8
LAY-10
  6
CONTINUOUS
 62
     7
100
AcDbLine
 10
481.0000000000069
 20
1166.250000000206
 30
0.0
 11
476.0000000000069
 21
1171.250000000206
 31
0.0
  0
LINE
  5
4B3
330
1F
100
AcDbEntity
  8
LAY-10
  6
CONTINUOUS
 62
     7
100
AcDbLine
 10
475.5000000000069
 20
1166.250000000206
 30
0.0
 11
470.5000000000069
 21
1171.250000000206
 31
0.0
  0
LINE
  5
4B4
330
1F
100
AcDbEntity
  8
LAY-10
  6
CONTINUOUS
 62
     7
100
AcDbLine
 10
470.0000000000069
 20
1166.250000000206
 30
0.0
 11
465.0000000000069
 21
1171.250000000206
 31
0.0
  0
LINE
  5
4B5
330
1F
100
AcDbEntity
  8
LAY-10
  6
CONTINUOUS
 62
     7
100
AcDbLine
 10
481.0000000000069
 20
1171.750000000206
 30
0.0
 11
476.0000000000069
 21
1176.750000000206
 31
0.0
  0
LINE
  5
4B6
330
1F
100
AcDbEntity
  8
LAY-10
  6
CONTINUOUS
 62
     7
100
AcDbLine
 10
475.5000000000069
 20
1171.750000000206
 30
0.0
 11
470.5000000000069
 21
1176.750000000206
 31
0.0
  0
LINE
  5
4B7
330
1F
100
AcDbEntity
  8
LAY-10
  6
CONTINUOUS
 62
     7
100
AcDbLine
 10
470.0000000000069
 20
1171.750000000206
 30
0.0
 11
465.0000000000069
 21
1176.750000000206
 31
0.0
  0
LINE
  5
4B8
330
1F
100
AcDbEntity
  8
LAY-10
  6
CONTINUOUS
 62
     7
100
AcDbLine
 10
476.0000000000069
 20
1166.250000000206
 30
0.0
 11
481.0000000000069
 21
1171.250000000206
 31
0.0
  0
LINE
  5
4B9
330
1F
100
AcDbEntity
  8
LAY-10
  6
CONTINUOUS
 62
     7
100
AcDbLine
 10
470.5000000000069
 20
1166.250000000206
 30
0.0
 11
475.5000000000069
 21
1171.250000000206
 31
0.0
  0
LINE
  5
4BA
330
1F
100
AcDbEntity
  8
LAY-10
  6
CONTINUOUS
 62
     7
100
AcDbLine
 10
465.0000000000069
 20
1166.250000000206
 30
0.0
 11
470.0000000000069
 21
1171.250000000206
 31
0.0
  0
LINE
  5
4BB
330
1F
100
AcDbEntity
  8
LAY-10
  6
CONTINUOUS
 62
     7
100
AcDbLine
 10
465.0000000000069
 20
1171.750000000206
 30
0.0
 11
470.0000000000069
 21
1176.750000000206
 31
0.0
  0
LINE
  5
4BC
330
1F
100
AcDbEntity
  8
LAY-10
  6
CONTINUOUS
 62
     7
100
AcDbLine
 10
470.5000000000069
 20
1171.750000000206
 30
0.0
 11
475.5000000000069
 21
1176.750000000206
 31
0.0
  0
LINE
  5
4BD
330
1F
100
AcDbEntity
  8
LAY-10
  6
CONTINUOUS
 62
     7
100
AcDbLine
 10
459.5000000000069
 20
1171.750000000206
 30
0.0
 11
464.5000000000069
 21
1176.750000000206
 31
0.0
  0
LINE
  5
4BE
330
1F
100
AcDbEntity
  8
LAY-10
  6
CONTINUOUS
 62
     7
100
AcDbLine
 10
459.5000000000069
 20
1166.250000000206
 30
0.0
 11
464.5000000000069
 21
1171.250000000206
 31
0.0
  0
LINE
  5
4BF
330
1F
100
AcDbEntity
  8
LAY-10
  6
CONTINUOUS
 62
     7
100
AcDbLine
 10
464.5000000000069
 20
1171.750000000206
 30
0.0
 11
459.5000000000069
 21
1176.750000000206
 31
0.0
  0
LINE
  5
4C0
330
1F
100
AcDbEntity
  8
LAY-10
  6
CONTINUOUS
 62
     7
100
AcDbLine
 10
464.5000000000069
 20
1166.250000000206
 30
0.0
 11
459.5000000000069
 21
1171.250000000206
 31
0.0
  0
LINE
  5
4C1
330
1F
100
AcDbEntity
  8
LAY-10
  6
CONTINUOUS
 62
     7
100
AcDbLine
 10
464.5000000000069
 20
1176.750000000206
 30
0.0
 11
459.5000000000069
 21
1176.750000000206
 31
0.0
  0
LINE
  5
4C2
330
1F
100
AcDbEntity
  8
LAY-10
  6
CONTINUOUS
 62
     7
100
AcDbLine
 10
464.5000000000069
 20
1171.750000000206
 30
0.0
 11
464.5000000000069
 21
1176.750000000206
 31
0.0
  0
LINE
  5
4C3
330
1F
100
AcDbEntity
  8
LAY-10
  6
CONTINUOUS
 62
     7
100
AcDbLine
 10
459.5000000000069
 20
1171.750000000206
 30
0.0
 11
459.5000000000069
 21
1176.750000000206
 31
0.0
  0
LINE
  5
4C4
330
1F
100
AcDbEntity
  8
LAY-10
  6
CONTINUOUS
 62
     7
100
AcDbLine
 10
459.5000000000069
 20
1171.750000000206
 30
0.0
 11
464.5000000000069
 21
1171.750000000206
 31
0.0
  0
LINE
  5
4C5
330
1F
100
AcDbEntity
  8
LAY-10
  6
CONTINUOUS
 62
     7
100
AcDbLine
 10
459.5000000000069
 20
1171.250000000206
 30
0.0
 11
459.5000000000069
 21
1166.250000000206
 31
0.0
  0
LINE
  5
4C6
330
1F
100
AcDbEntity
  8
LAY-10
  6
CONTINUOUS
 62
     7
100
AcDbLine
 10
464.5000000000069
 20
1171.250000000206
 30
0.0
 11
459.5000000000069
 21
1171.250000000206
 31
0.0
  0
LINE
  5
4C7
330
1F
100
AcDbEntity
  8
LAY-10
  6
CONTINUOUS
 62
     7
100
AcDbLine
 10
464.5000000000069
 20
1166.250000000206
 30
0.0
 11
459.5000000000069
 21
1166.250000000206
 31
0.0
  0
LINE
  5
4C8
330
1F
100
AcDbEntity
  8
LAY-10
  6
CONTINUOUS
 62
     7
100
AcDbLine
 10
464.5000000000069
 20
1166.250000000206
 30
0.0
 11
464.5000000000069
 21
1171.250000000206
 31
0.0
  0
LINE
  5
4C9
330
1F
100
AcDbEntity
  8
LAY-10
  6
CONTINUOUS
 62
     7
100
AcDbLine
 10
459.0000000000069
 20
1166.250000000206
 30
0.0
 11
459.0000000000069
 21
1171.250000000206
 31
0.0
  0
LINE
  5
4CA
330
1F
100
AcDbEntity
  8
LAY-10
  6
CONTINUOUS
 62
     7
100
AcDbLine
 10
459.0000000000069
 20
1166.250000000206
 30
0.0
 11
454.0000000000069
 21
1166.250000000206
 31
0.0
  0
LINE
  5
4CB
330
1F
100
AcDbEntity
  8
LAY-10
  6
CONTINUOUS
 62
     7
100
AcDbLine
 10
459.0000000000069
 20
1171.250000000206
 30
0.0
 11
454.0000000000069
 21
1171.250000000206
 31
0.0
  0
LINE
  5
4CC
330
1F
100
AcDbEntity
  8
LAY-10
  6
CONTINUOUS
 62
     7
100
AcDbLine
 10
454.0000000000069
 20
1171.250000000206
 30
0.0
 11
454.0000000000069
 21
1166.250000000206
 31
0.0
  0
LINE
  5
4CD
330
1F
100
AcDbEntity
  8
LAY-10
  6
CONTINUOUS
 62
     7
100
AcDbLine
 10
453.500000000007
 20
1166.250000000206
 30
0.0
 11
453.500000000007
 21
1171.250000000206
 31
0.0
  0
LINE
  5
4CE
330
1F
100
AcDbEntity
  8
LAY-10
  6
CONTINUOUS
 62
     7
100
AcDbLine
 10
453.500000000007
 20
1166.250000000206
 30
0.0
 11
448.500000000007
 21
1166.250000000206
 31
0.0
  0
LINE
  5
4CF
330
1F
100
AcDbEntity
  8
LAY-10
  6
CONTINUOUS
 62
     7
100
AcDbLine
 10
453.500000000007
 20
1171.250000000206
 30
0.0
 11
448.500000000007
 21
1171.250000000206
 31
0.0
  0
LINE
  5
4D0
330
1F
100
AcDbEntity
  8
LAY-10
  6
CONTINUOUS
 62
     7
100
AcDbLine
 10
448.500000000007
 20
1171.250000000206
 30
0.0
 11
448.500000000007
 21
1166.250000000206
 31
0.0
  0
LINE
  5
4D1
330
1F
100
AcDbEntity
  8
LAY-10
  6
CONTINUOUS
 62
     7
100
AcDbLine
 10
454.0000000000069
 20
1171.750000000206
 30
0.0
 11
459.0000000000069
 21
1171.750000000206
 31
0.0
  0
LINE
  5
4D2
330
1F
100
AcDbEntity
  8
LAY-10
  6
CONTINUOUS
 62
     7
100
AcDbLine
 10
454.0000000000069
 20
1171.750000000206
 30
0.0
 11
454.0000000000069
 21
1176.750000000206
 31
0.0
  0
LINE
  5
4D3
330
1F
100
AcDbEntity
  8
LAY-10
  6
CONTINUOUS
 62
     7
100
AcDbLine
 10
459.0000000000069
 20
1171.750000000206
 30
0.0
 11
459.0000000000069
 21
1176.750000000206
 31
0.0
  0
LINE
  5
4D4
330
1F
100
AcDbEntity
  8
LAY-10
  6
CONTINUOUS
 62
     7
100
AcDbLine
 10
459.0000000000069
 20
1176.750000000206
 30
0.0
 11
454.0000000000069
 21
1176.750000000206
 31
0.0
  0
LINE
  5
4D5
330
1F
100
AcDbEntity
  8
LAY-10
  6
CONTINUOUS
 62
     7
100
AcDbLine
 10
448.500000000007
 20
1171.750000000206
 30
0.0
 11
453.500000000007
 21
1171.750000000206
 31
0.0
  0
LINE
  5
4D6
330
1F
100
AcDbEntity
  8
LAY-10
  6
CONTINUOUS
 62
     7
100
AcDbLine
 10
448.500000000007
 20
1171.750000000206
 30
0.0
 11
448.500000000007
 21
1176.750000000206
 31
0.0
  0
LINE
  5
4D7
330
1F
100
AcDbEntity
  8
LAY-10
  6
CONTINUOUS
 62
     7
100
AcDbLine
 10
453.500000000007
 20
1171.750000000206
 30
0.0
 11
453.500000000007
 21
1176.750000000206
 31
0.0
  0
LINE
  5
4D8
330
1F
100
AcDbEntity
  8
LAY-10
  6
CONTINUOUS
 62
     7
100
AcDbLine
 10
453.500000000007
 20
1176.750000000206
 30
0.0
 11
448.500000000007
 21
1176.750000000206
 31
0.0
  0
LINE
  5
4D9
330
1F
100
AcDbEntity
  8
LAY-10
  6
CONTINUOUS
 62
     7
100
AcDbLine
 10
459.0000000000069
 20
1166.250000000206
 30
0.0
 11
454.0000000000069
 21
1171.250000000206
 31
0.0
  0
LINE
  5
4DA
330
1F
100
AcDbEntity
  8
LAY-10
  6
CONTINUOUS
 62
     7
100
AcDbLine
 10
453.500000000007
 20
1166.250000000206
 30
0.0
 11
448.500000000007
 21
1171.250000000206
 31
0.0
  0
LINE
  5
4DB
330
1F
100
AcDbEntity
  8
LAY-10
  6
CONTINUOUS
 62
     7
100
AcDbLine
 10
459.0000000000069
 20
1171.750000000206
 30
0.0
 11
454.0000000000069
 21
1176.750000000206
 31
0.0
  0
LINE
  5
4DC
330
1F
100
AcDbEntity
  8
LAY-10
  6
CONTINUOUS
 62
     7
100
AcDbLine
 10
453.500000000007
 20
1171.750000000206
 30
0.0
 11
448.500000000007
 21
1176.750000000206
 31
0.0
  0
LINE
  5
4DD
330
1F
100
AcDbEntity
  8
LAY-10
  6
CONTINUOUS
 62
     7
100
AcDbLine
 10
454.0000000000069
 20
1166.250000000206
 30
0.0
 11
459.0000000000069
 21
1171.250000000206
 31
0.0
  0
LINE
  5
4DE
330
1F
100
AcDbEntity
  8
LAY-10
  6
CONTINUOUS
 62
     7
100
AcDbLine
 10
448.500000000007
 20
1166.250000000206
 30
0.0
 11
453.500000000007
 21
1171.250000000206
 31
0.0
  0
LINE
  5
4DF
330
1F
100
AcDbEntity
  8
LAY-10
  6
CONTINUOUS
 62
     7
100
AcDbLine
 10
448.500000000007
 20
1171.750000000206
 30
0.0
 11
453.500000000007
 21
1176.750000000206
 31
0.0
  0
LINE
  5
4E0
330
1F
100
AcDbEntity
  8
LAY-10
  6
CONTINUOUS
 62
     7
100
AcDbLine
 10
454.0000000000069
 20
1171.750000000206
 30
0.0
 11
459.0000000000069
 21
1176.750000000206
 31
0.0
  0
LINE
  5
4E1
330
1F
100
AcDbEntity
  8
LAY-10
  6
CONTINUOUS
 62
     7
100
AcDbLine
 10
475.5000000000069
 20
1186.250000000196
 30
0.0
 11
470.5000000000069
 21
1186.250000000196
 31
0.0
  0
LINE
  5
4E2
330
1F
100
AcDbEntity
  8
LAY-10
  6
CONTINUOUS
 62
     7
100
AcDbLine
 10
470.5000000000069
 20
1191.250000000196
 30
0.0
 11
470.5000000000069
 21
1186.250000000196
 31
0.0
  0
LINE
  5
4E3
330
1F
100
AcDbEntity
  8
LAY-10
  6
CONTINUOUS
 62
     7
100
AcDbLine
 10
470.0000000000069
 20
1186.250000000196
 30
0.0
 11
470.0000000000069
 21
1191.250000000196
 31
0.0
  0
LINE
  5
4E4
330
1F
100
AcDbEntity
  8
LAY-10
  6
CONTINUOUS
 62
     7
100
AcDbLine
 10
470.0000000000069
 20
1186.250000000196
 30
0.0
 11
465.0000000000069
 21
1186.250000000196
 31
0.0
  0
LINE
  5
4E5
330
1F
100
AcDbEntity
  8
LAY-10
  6
CONTINUOUS
 62
     7
100
AcDbLine
 10
470.0000000000069
 20
1191.250000000196
 30
0.0
 11
465.0000000000069
 21
1191.250000000196
 31
0.0
  0
LINE
  5
4E6
330
1F
100
AcDbEntity
  8
LAY-10
  6
CONTINUOUS
 62
     7
100
AcDbLine
 10
465.0000000000069
 20
1191.250000000196
 30
0.0
 11
465.0000000000069
 21
1186.250000000196
 31
0.0
  0
LINE
  5
4E7
330
1F
100
AcDbEntity
  8
LAY-10
  6
CONTINUOUS
 62
     7
100
AcDbLine
 10
465.0000000000069
 20
1191.750000000196
 30
0.0
 11
470.0000000000069
 21
1191.750000000196
 31
0.0
  0
LINE
  5
4E8
330
1F
100
AcDbEntity
  8
LAY-10
  6
CONTINUOUS
 62
     7
100
AcDbLine
 10
475.5000000000069
 20
1186.250000000196
 30
0.0
 11
470.5000000000069
 21
1191.250000000196
 31
0.0
  0
LINE
  5
4E9
330
1F
100
AcDbEntity
  8
LAY-10
  6
CONTINUOUS
 62
     7
100
AcDbLine
 10
470.0000000000069
 20
1186.250000000196
 30
0.0
 11
465.0000000000069
 21
1191.250000000196
 31
0.0
  0
LINE
  5
4EA
330
1F
100
AcDbEntity
  8
LAY-10
  6
CONTINUOUS
 62
     7
100
AcDbLine
 10
465.0000000000069
 20
1186.250000000196
 30
0.0
 11
470.0000000000069
 21
1191.250000000196
 31
0.0
  0
LINE
  5
4EB
330
1F
100
AcDbEntity
  8
LAY-10
  6
CONTINUOUS
 62
     7
100
AcDbLine
 10
459.5000000000069
 20
1186.250000000196
 30
0.0
 11
464.5000000000069
 21
1191.250000000196
 31
0.0
  0
LINE
  5
4EC
330
1F
100
AcDbEntity
  8
LAY-10
  6
CONTINUOUS
 62
     7
100
AcDbLine
 10
464.5000000000069
 20
1191.750000000196
 30
0.0
 11
459.5000000000069
 21
1196.750000000196
 31
0.0
  0
LINE
  5
4ED
330
1F
100
AcDbEntity
  8
LAY-10
  6
CONTINUOUS
 62
     7
100
AcDbLine
 10
464.5000000000069
 20
1186.250000000196
 30
0.0
 11
459.5000000000069
 21
1191.250000000196
 31
0.0
  0
LINE
  5
4EE
330
1F
100
AcDbEntity
  8
LAY-10
  6
CONTINUOUS
 62
     7
100
AcDbLine
 10
459.5000000000069
 20
1191.750000000196
 30
0.0
 11
459.5000000000069
 21
1196.750000000196
 31
0.0
  0
LINE
  5
4EF
330
1F
100
AcDbEntity
  8
LAY-10
  6
CONTINUOUS
 62
     7
100
AcDbLine
 10
459.5000000000069
 20
1191.750000000196
 30
0.0
 11
464.5000000000069
 21
1191.750000000196
 31
0.0
  0
LINE
  5
4F0
330
1F
100
AcDbEntity
  8
LAY-10
  6
CONTINUOUS
 62
     7
100
AcDbLine
 10
459.5000000000069
 20
1191.250000000196
 30
0.0
 11
459.5000000000069
 21
1186.250000000196
 31
0.0
  0
LINE
  5
4F1
330
1F
100
AcDbEntity
  8
LAY-10
  6
CONTINUOUS
 62
     7
100
AcDbLine
 10
464.5000000000069
 20
1191.250000000196
 30
0.0
 11
459.5000000000069
 21
1191.250000000196
 31
0.0
  0
LINE
  5
4F2
330
1F
100
AcDbEntity
  8
LAY-10
  6
CONTINUOUS
 62
     7
100
AcDbLine
 10
464.5000000000069
 20
1186.250000000196
 30
0.0
 11
459.5000000000069
 21
1186.250000000196
 31
0.0
  0
LINE
  5
4F3
330
1F
100
AcDbEntity
  8
LAY-10
  6
CONTINUOUS
 62
     7
100
AcDbLine
 10
464.5000000000069
 20
1186.250000000196
 30
0.0
 11
464.5000000000069
 21
1191.250000000196
 31
0.0
  0
LINE
  5
4F4
330
1F
100
AcDbEntity
  8
LAY-10
  6
CONTINUOUS
 62
     7
100
AcDbLine
 10
459.0000000000069
 20
1186.250000000196
 30
0.0
 11
459.0000000000069
 21
1191.250000000196
 31
0.0
  0
LINE
  5
4F5
330
1F
100
AcDbEntity
  8
LAY-10
  6
CONTINUOUS
 62
     7
100
AcDbLine
 10
459.0000000000069
 20
1186.250000000196
 30
0.0
 11
454.0000000000069
 21
1186.250000000196
 31
0.0
  0
LINE
  5
4F6
330
1F
100
AcDbEntity
  8
LAY-10
  6
CONTINUOUS
 62
     7
100
AcDbLine
 10
459.0000000000069
 20
1191.250000000196
 30
0.0
 11
454.0000000000069
 21
1191.250000000196
 31
0.0
  0
LINE
  5
4F7
330
1F
100
AcDbEntity
  8
LAY-10
  6
CONTINUOUS
 62
     7
100
AcDbLine
 10
454.0000000000069
 20
1191.250000000196
 30
0.0
 11
454.0000000000069
 21
1186.250000000196
 31
0.0
  0
LINE
  5
4F8
330
1F
100
AcDbEntity
  8
LAY-10
  6
CONTINUOUS
 62
     7
100
AcDbLine
 10
453.500000000007
 20
1186.250000000196
 30
0.0
 11
453.500000000007
 21
1191.250000000196
 31
0.0
  0
LINE
  5
4F9
330
1F
100
AcDbEntity
  8
LAY-10
  6
CONTINUOUS
 62
     7
100
AcDbLine
 10
453.500000000007
 20
1186.250000000196
 30
0.0
 11
448.500000000007
 21
1186.250000000196
 31
0.0
  0
LINE
  5
4FA
330
1F
100
AcDbEntity
  8
LAY-10
  6
CONTINUOUS
 62
     7
100
AcDbLine
 10
453.500000000007
 20
1191.250000000196
 30
0.0
 11
448.500000000007
 21
1191.250000000196
 31
0.0
  0
LINE
  5
4FB
330
1F
100
AcDbEntity
  8
LAY-10
  6
CONTINUOUS
 62
     7
100
AcDbLine
 10
448.500000000007
 20
1191.250000000196
 30
0.0
 11
448.500000000007
 21
1186.250000000196
 31
0.0
  0
LINE
  5
4FC
330
1F
100
AcDbEntity
  8
LAY-10
  6
CONTINUOUS
 62
     7
100
AcDbLine
 10
454.0000000000069
 20
1191.750000000196
 30
0.0
 11
459.0000000000069
 21
1191.750000000196
 31
0.0
  0
LINE
  5
4FD
330
1F
100
AcDbEntity
  8
LAY-10
  6
CONTINUOUS
 62
     7
100
AcDbLine
 10
454.0000000000069
 20
1191.750000000196
 30
0.0
 11
454.0000000000069
 21
1196.750000000196
 31
0.0
  0
LINE
  5
4FE
330
1F
100
AcDbEntity
  8
LAY-10
  6
CONTINUOUS
 62
     7
100
AcDbLine
 10
459.0000000000069
 20
1191.750000000196
 30
0.0
 11
459.0000000000069
 21
1196.750000000196
 31
0.0
  0
LINE
  5
4FF
330
1F
100
AcDbEntity
  8
LAY-10
  6
CONTINUOUS
 62
     7
100
AcDbLine
 10
459.0000000000069
 20
1196.750000000196
 30
0.0
 11
454.0000000000069
 21
1196.750000000196
 31
0.0
  0
LINE
  5
500
330
1F
100
AcDbEntity
  8
LAY-10
  6
CONTINUOUS
 62
     7
100
AcDbLine
 10
448.500000000007
 20
1191.750000000196
 30
0.0
 11
453.500000000007
 21
1191.750000000196
 31
0.0
  0
LINE
  5
501
330
1F
100
AcDbEntity
  8
LAY-10
  6
CONTINUOUS
 62
     7
100
AcDbLine
 10
448.500000000007
 20
1191.750000000196
 30
0.0
 11
448.500000000007
 21
1196.750000000196
 31
0.0
  0
LINE
  5
502
330
1F
100
AcDbEntity
  8
LAY-10
  6
CONTINUOUS
 62
     7
100
AcDbLine
 10
453.500000000007
 20
1191.750000000196
 30
0.0
 11
453.500000000007
 21
1196.750000000196
 31
0.0
  0
LINE
  5
503
330
1F
100
AcDbEntity
  8
LAY-10
  6
CONTINUOUS
 62
     7
100
AcDbLine
 10
453.500000000007
 20
1196.750000000196
 30
0.0
 11
448.500000000007
 21
1196.750000000196
 31
0.0
  0
LINE
  5
504
330
1F
100
AcDbEntity
  8
LAY-10
  6
CONTINUOUS
 62
     7
100
AcDbLine
 10
459.0000000000069
 20
1186.250000000196
 30
0.0
 11
454.0000000000069
 21
1191.250000000196
 31
0.0
  0
LINE
  5
505
330
1F
100
AcDbEntity
  8
LAY-10
  6
CONTINUOUS
 62
     7
100
AcDbLine
 10
453.500000000007
 20
1186.250000000196
 30
0.0
 11
448.500000000007
 21
1191.250000000196
 31
0.0
  0
LINE
  5
506
330
1F
100
AcDbEntity
  8
LAY-10
  6
CONTINUOUS
 62
     7
100
AcDbLine
 10
459.0000000000069
 20
1191.750000000196
 30
0.0
 11
454.0000000000069
 21
1196.750000000196
 31
0.0
  0
LINE
  5
507
330
1F
100
AcDbEntity
  8
LAY-10
  6
CONTINUOUS
 62
     7
100
AcDbLine
 10
453.500000000007
 20
1191.750000000196
 30
0.0
 11
448.500000000007
 21
1196.750000000196
 31
0.0
  0
LINE
  5
508
330
1F
100
AcDbEntity
  8
LAY-10
  6
CONTINUOUS
 62
     7
100
AcDbLine
 10
454.0000000000069
 20
1186.250000000196
 30
0.0
 11
459.0000000000069
 21
1191.250000000196
 31
0.0
  0
LINE
  5
509
330
1F
100
AcDbEntity
  8
LAY-10
  6
CONTINUOUS
 62
     7
100
AcDbLine
 10
448.500000000007
 20
1186.250000000196
 30
0.0
 11
453.500000000007
 21
1191.250000000196
 31
0.0
  0
LINE
  5
50A
330
1F
100
AcDbEntity
  8
LAY-10
  6
CONTINUOUS
 62
     7
100
AcDbLine
 10
448.500000000007
 20
1191.750000000196
 30
0.0
 11
453.500000000007
 21
1196.750000000196
 31
0.0
  0
LINE
  5
50B
330
1F
100
AcDbEntity
  8
LAY-10
  6
CONTINUOUS
 62
     7
100
AcDbLine
 10
454.0000000000069
 20
1191.750000000196
 30
0.0
 11
459.0000000000069
 21
1196.750000000196
 31
0.0
  0
CIRCLE
  5
50C
330
1F
100
AcDbEntity
  8
LAY-10
  6
CONTINUOUS
 62
     7
100
AcDbCircle
 10
453.2000000000009
 20
1170.300000000055
 30
0.0
 40
28.19999999995139
  0
LINE
  5
50D
330
1F
100
AcDbEntity
  8
LAY-10
  6
CONTINUOUS
 62
     7
100
AcDbLine
 10
462.9794427238899
 20
1196.750000000196
 30
0.0
 11
459.5000000000069
 21
1196.750000000196
 31
0.0
  0
LINE
  5
50E
330
1F
100
AcDbEntity
  8
LAY-10
  6
CONTINUOUS
 62
     7
100
AcDbLine
 10
459.5000000000069
 20
1191.750000000196
 30
0.0
 11
464.0705787384178
 21
1196.320578738606
 31
0.0
  0
LINE
  5
50F
330
1F
100
AcDbEntity
  8
LAY-10
  6
CONTINUOUS
 62
     7
100
AcDbLine
 10
464.5000000000069
 20
1191.750000000196
 30
0.0
 11
464.5000000000069
 21
1196.136988988657
 31
0.0
  0
LINE
  5
510
330
1F
100
AcDbEntity
  8
LAY-10
  6
CONTINUOUS
 62
     7
100
AcDbLine
 10
465.0000000000069
 20
1191.750000000196
 30
0.0
 11
465.0000000000069
 21
1195.912496949731
 31
0.0
  0
LINE
  5
511
330
1F
100
AcDbEntity
  8
LAY-10
  6
CONTINUOUS
 62
     7
100
AcDbLine
 10
470.0000000000069
 20
1191.750000000196
 30
0.0
 11
466.681031981399
 21
1195.068968018804
 31
0.0
  0
LINE
  5
512
330
1F
100
AcDbEntity
  8
LAY-10
  6
CONTINUOUS
 62
     7
100
AcDbLine
 10
465.0000000000069
 20
1191.750000000196
 30
0.0
 11
467.7228519478368
 21
1194.472851948026
 31
0.0
  0
LINE
  5
513
330
1F
100
AcDbEntity
  8
LAY-10
  6
CONTINUOUS
 62
     7
100
AcDbLine
 10
470.0000000000069
 20
1191.750000000196
 30
0.0
 11
470.0000000000069
 21
1192.949503305803
 31
0.0
  0
LINE
  5
514
330
1F
100
AcDbEntity
  8
LAY-10
  6
CONTINUOUS
 62
     7
100
AcDbLine
 10
470.5000000000069
 20
1191.750000000196
 30
0.0
 11
470.5000000000069
 21
1192.569934889881
 31
0.0
  0
LINE
  5
515
330
1F
100
AcDbEntity
  8
LAY-10
  6
CONTINUOUS
 62
     7
100
AcDbLine
 10
470.5000000000069
 20
1191.750000000196
 30
0.0
 11
470.957155076938
 21
1192.207155077127
 31
0.0
  0
LINE
  5
516
330
1F
100
AcDbEntity
  8
LAY-10
  6
CONTINUOUS
 62
     7
100
AcDbLine
 10
472.0769038772625
 20
1191.250000000196
 30
0.0
 11
470.5000000000069
 21
1191.250000000196
 31
0.0
  0
LINE
  5
517
330
1F
100
AcDbEntity
  8
LAY-10
  6
CONTINUOUS
 62
     7
100
AcDbLine
 10
470.5000000000069
 20
1186.250000000196
 30
0.0
 11
473.8039832905766
 21
1189.553983290766
 31
0.0
  0
LINE
  5
518
330
1F
100
AcDbEntity
  8
LAY-10
  6
CONTINUOUS
 62
     7
100
AcDbLine
 10
470.5000000000069
 20
1191.750000000196
 30
0.0
 11
471.5067610458887
 21
1191.750000000196
 31
0.0
  0
LINE
  5
519
330
1F
100
AcDbEntity
  8
LAY-10
  6
CONTINUOUS
 62
     7
100
AcDbLine
 10
475.5000000000069
 20
1186.250000000196
 30
0.0
 11
475.5000000000069
 21
1187.561228229732
 31
0.0
  0
LINE
  5
51A
330
1F
100
AcDbEntity
  8
LAY-10
  6
CONTINUOUS
 62
     7
100
AcDbLine
 10
476.0000000000069
 20
1186.250000000196
 30
0.0
 11
476.2690671704332
 21
1186.519067170622
 31
0.0
  0
LINE
  5
51B
330
1F
100
AcDbEntity
  8
LAY-10
  6
CONTINUOUS
 62
     7
100
AcDbLine
 10
476.0000000000069
 20
1186.895180023092
 30
0.0
 11
476.0000000000069
 21
1186.250000000196
 31
0.0
  0
LINE
  5
51C
330
1F
100
AcDbEntity
  8
LAY-10
  6
CONTINUOUS
 62
     7
100
AcDbLine
 10
476.4559132263776
 20
1186.250000000196
 30
0.0
 11
476.0000000000069
 21
1186.250000000196
 31
0.0
  0
LINE
  5
51D
330
1F
100
AcDbEntity
  8
LAY-10
  6
CONTINUOUS
 62
     7
100
AcDbLine
 10
481.0000000000069
 20
1171.750000000206
 30
0.0
 11
481.0000000000069
 21
1175.032863826211
 31
0.0
  0
LINE
  5
51E
330
1F
100
AcDbEntity
  8
LAY-10
  6
CONTINUOUS
 62
     7
100
AcDbLine
 10
480.6524589061775
 20
1176.750000000206
 30
0.0
 11
476.0000000000069
 21
1176.750000000206
 31
0.0
  0
LINE
  5
51F
330
1F
100
AcDbEntity
  8
LAY-10
  6
CONTINUOUS
 62
     7
100
AcDbLine
 10
476.0000000000069
 20
1171.750000000206
 30
0.0
 11
480.7173387627063
 21
1176.467338762905
 31
0.0
  0
LINE
  5
520
330
1F
100
AcDbEntity
  8
LAY-10
  6
CONTINUOUS
 62
     7
100
AcDbLine
 10
477.9313060713736
 20
1156.750000000006
 30
0.0
 11
476.0000000000069
 21
1156.750000000006
 31
0.0
  0
LINE
  5
521
330
1F
100
AcDbEntity
  8
LAY-10
  6
CONTINUOUS
 62
     7
100
AcDbLine
 10
477.2216330840693
 20
1155.528366915943
 30
0.0
 11
476.0000000000069
 21
1156.750000000006
 31
0.0
  0
LINE
  5
522
330
1F
100
AcDbEntity
  8
LAY-10
  6
CONTINUOUS
 62
     7
100
AcDbLine
 10
476.0000000000069
 20
1153.704819977019
 30
0.0
 11
476.0000000000069
 21
1156.750000000006
 31
0.0
  0
LINE
  5
523
330
1F
100
AcDbEntity
  8
LAY-10
  6
CONTINUOUS
 62
     7
100
AcDbLine
 10
475.5000000000069
 20
1153.038771770378
 30
0.0
 11
475.5000000000069
 21
1156.750000000006
 31
0.0
  0
LINE
  5
524
330
1F
100
AcDbEntity
  8
LAY-10
  6
CONTINUOUS
 62
     7
100
AcDbLine
 10
474.927062235392
 20
1152.32293776462
 30
0.0
 11
470.5000000000069
 21
1156.750000000006
 31
0.0
  0
LINE
  5
525
330
1F
100
AcDbEntity
  8
LAY-10
  6
CONTINUOUS
 62
     7
100
AcDbLine
 10
470.5000000000069
 20
1151.750000000006
 30
0.0
 11
474.439997645844
 21
1151.750000000006
 31
0.0
  0
LINE
  5
526
330
1F
100
AcDbEntity
  8
LAY-10
  6
CONTINUOUS
 62
     7
100
AcDbLine
 10
473.9927270937561
 20
1151.250000000006
 30
0.0
 11
470.5000000000069
 21
1151.250000000006
 31
0.0
  0
LINE
  5
527
330
1F
100
AcDbEntity
  8
LAY-10
  6
CONTINUOUS
 62
     7
100
AcDbLine
 10
472.2462041553155
 20
1149.503795844697
 30
0.0
 11
470.5000000000069
 21
1151.250000000006
 31
0.0
  0
LINE
  5
528
330
1F
100
AcDbEntity
  8
LAY-10
  6
CONTINUOUS
 62
     7
100
AcDbLine
 10
470.5000000000069
 20
1151.250000000006
 30
0.0
 11
470.5000000000069
 21
1148.03006511023
 31
0.0
  0
LINE
  5
529
330
1F
100
AcDbEntity
  8
LAY-10
  6
CONTINUOUS
 62
     7
100
AcDbLine
 10
469.1831456287346
 20
1147.066854371278
 30
0.0
 11
465.0000000000069
 21
1151.250000000006
 31
0.0
  0
LINE
  5
52A
330
1F
100
AcDbEntity
  8
LAY-10
  6
CONTINUOUS
 62
     7
100
AcDbLine
 10
467.9254032201125
 20
1146.250000000006
 30
0.0
 11
465.0000000000069
 21
1146.250000000006
 31
0.0
  0
LINE
  5
52B
330
1F
100
AcDbEntity
  8
LAY-10
  6
CONTINUOUS
 62
     7
100
AcDbLine
 10
470.0000000000069
 20
1147.650496694308
 30
0.0
 11
470.0000000000069
 21
1151.250000000006
 31
0.0
  0
LINE
  5
52C
330
1F
100
AcDbEntity
  8
LAY-10
  6
CONTINUOUS
 62
     7
100
AcDbLine
 10
437.000000000007
 20
1147.217539126105
 30
0.0
 11
437.000000000007
 21
1151.250000000006
 31
0.0
  0
LINE
  5
52D
330
1F
100
AcDbEntity
  8
LAY-10
  6
CONTINUOUS
 62
     7
100
AcDbLine
 10
442.500000000007
 20
1146.250000000006
 30
0.0
 11
438.4745967798892
 21
1146.250000000006
 31
0.0
  0
LINE
  5
52E
330
1F
100
AcDbEntity
  8
LAY-10
  6
CONTINUOUS
 62
     7
100
AcDbLine
 10
437.8765545492139
 20
1146.626554549213
 30
0.0
 11
442.500000000007
 21
1151.250000000006
 31
0.0
  0
LINE
  5
52F
330
1F
100
AcDbEntity
  8
LAY-10
  6
CONTINUOUS
 62
     7
100
AcDbLine
 10
437.500000000007
 20
1151.250000000006
 30
0.0
 11
437.500000000007
 21
1146.874586449865
 31
0.0
  0
LINE
  5
530
330
1F
100
AcDbEntity
  8
LAY-10
  6
CONTINUOUS
 62
     7
100
AcDbLine
 10
437.000000000007
 20
1151.250000000006
 30
0.0
 11
432.4072729062461
 21
1151.250000000006
 31
0.0
  0
LINE
  5
531
330
1F
100
AcDbEntity
  8
LAY-10
  6
CONTINUOUS
 62
     7
100
AcDbLine
 10
431.500000000007
 20
1152.290280402085
 30
0.0
 11
431.500000000007
 21
1156.750000000006
 31
0.0
  0
LINE
  5
532
330
1F
100
AcDbEntity
  8
LAY-10
  6
CONTINUOUS
 62
     7
100
AcDbLine
 10
429.6054104808083
 20
1154.855410480807
 30
0.0
 11
431.500000000007
 21
1156.750000000006
 31
0.0
  0
LINE
  5
533
330
1F
100
AcDbEntity
  8
LAY-10
  6
CONTINUOUS
 62
     7
100
AcDbLine
 10
431.500000000007
 20
1156.750000000006
 30
0.0
 11
428.4686939286286
 21
1156.750000000006
 31
0.0
  0
LINE
  5
534
330
1F
100
AcDbEntity
  8
LAY-10
  6
CONTINUOUS
 62
     7
100
AcDbLine
 10
426.000000000007
 20
1166.250000000205
 30
0.0
 11
425.2923397613055
 21
1166.250000000205
 31
0.0
  0
LINE
  5
535
330
1F
100
AcDbEntity
  8
LAY-10
  6
CONTINUOUS
 62
     7
100
AcDbLine
 10
425.1863206918935
 20
1167.063679308319
 30
0.0
 11
426.000000000007
 21
1166.250000000205
 31
0.0
  0
LINE
  5
536
330
1F
100
AcDbEntity
  8
LAY-10
  6
CONTINUOUS
 62
     7
100
AcDbLine
 10
426.000000000007
 20
1171.250000000205
 30
0.0
 11
425.000044247906
 21
1170.250044248104
 31
0.0
  0
LINE
  5
537
330
1F
100
AcDbEntity
  8
LAY-10
  6
CONTINUOUS
 62
     7
100
AcDbLine
 10
425.0160063156956
 20
1171.250000000205
 30
0.0
 11
426.000000000007
 21
1171.250000000205
 31
0.0
  0
LINE
  5
538
330
1F
100
AcDbEntity
  8
LAY-10
  6
CONTINUOUS
 62
     7
100
AcDbLine
 10
426.000000000007
 20
1171.750000000205
 30
0.0
 11
425.0373030411367
 21
1171.750000000205
 31
0.0
  0
LINE
  5
539
330
1F
100
AcDbEntity
  8
LAY-10
  6
CONTINUOUS
 62
     7
100
AcDbLine
 10
425.0982349135404
 20
1172.651765086672
 30
0.0
 11
426.000000000007
 21
1171.750000000205
 31
0.0
  0
LINE
  5
53A
330
1F
100
AcDbEntity
  8
LAY-10
  6
CONTINUOUS
 62
     7
100
AcDbLine
 10
426.000000000007
 20
1176.750000000205
 30
0.0
 11
425.6726930058177
 21
1176.422693006016
 31
0.0
  0
LINE
  5
53B
330
1F
100
AcDbEntity
  8
LAY-10
  6
CONTINUOUS
 62
     7
100
AcDbLine
 10
426.000000000007
 20
1176.750000000205
 30
0.0
 11
425.7475410938243
 21
1176.750000000205
 31
0.0
  0
LINE
  5
53C
330
1F
100
AcDbEntity
  8
LAY-10
  6
CONTINUOUS
 62
     7
100
AcDbLine
 10
431.500000000007
 20
1186.250000000195
 30
0.0
 11
429.9440867736236
 21
1186.250000000195
 31
0.0
  0
LINE
  5
53D
330
1F
100
AcDbEntity
  8
LAY-10
  6
CONTINUOUS
 62
     7
100
AcDbLine
 10
430.592935359012
 20
1187.15706464119
 30
0.0
 11
431.500000000007
 21
1186.250000000195
 31
0.0
  0
LINE
  5
53E
330
1F
100
AcDbEntity
  8
LAY-10
  6
CONTINUOUS
 62
     7
100
AcDbLine
 10
431.500000000007
 20
1188.309719598026
 30
0.0
 11
431.500000000007
 21
1186.250000000195
 31
0.0
  0
LINE
  5
53F
330
1F
100
AcDbEntity
  8
LAY-10
  6
CONTINUOUS
 62
     7
100
AcDbLine
 10
432.000000000007
 20
1188.895698427313
 30
0.0
 11
432.000000000007
 21
1186.250000000195
 31
0.0
  0
LINE
  5
540
330
1F
100
AcDbEntity
  8
LAY-10
  6
CONTINUOUS
 62
     7
100
AcDbLine
 10
433.1349805668171
 20
1190.115019433385
 30
0.0
 11
437.000000000007
 21
1186.250000000195
 31
0.0
  0
LINE
  5
541
330
1F
100
AcDbEntity
  8
LAY-10
  6
CONTINUOUS
 62
     7
100
AcDbLine
 10
437.000000000007
 20
1191.750000000195
 30
0.0
 11
434.8932389541125
 21
1191.750000000195
 31
0.0
  0
LINE
  5
542
330
1F
100
AcDbEntity
  8
LAY-10
  6
CONTINUOUS
 62
     7
100
AcDbLine
 10
434.3230961227384
 20
1191.250000000195
 30
0.0
 11
437.000000000007
 21
1191.250000000195
 31
0.0
  0
LINE
  5
543
330
1F
100
AcDbEntity
  8
LAY-10
  6
CONTINUOUS
 62
     7
100
AcDbLine
 10
436.0581242985815
 20
1192.691875701621
 30
0.0
 11
437.000000000007
 21
1191.750000000195
 31
0.0
  0
LINE
  5
544
330
1F
100
AcDbEntity
  8
LAY-10
  6
CONTINUOUS
 62
     7
100
AcDbLine
 10
437.000000000007
 20
1193.382460874006
 30
0.0
 11
437.000000000007
 21
1191.750000000195
 31
0.0
  0
LINE
  5
545
330
1F
100
AcDbEntity
  8
LAY-10
  6
CONTINUOUS
 62
     7
100
AcDbLine
 10
439.3726726672259
 20
1194.877327332976
 30
0.0
 11
442.500000000007
 21
1191.750000000195
 31
0.0
  0
LINE
  5
546
330
1F
100
AcDbEntity
  8
LAY-10
  6
CONTINUOUS
 62
     7
100
AcDbLine
 10
437.500000000007
 20
1191.750000000195
 30
0.0
 11
437.500000000007
 21
1193.725413550246
 31
0.0
  0
LINE
  5
547
330
1F
100
AcDbEntity
  8
LAY-10
  6
CONTINUOUS
 62
     7
100
AcDbLine
 10
441.8768532110896
 20
1196.126853211278
 30
0.0
 11
437.500000000007
 21
1191.750000000195
 31
0.0
  0
LINE
  5
548
330
1F
100
AcDbEntity
  8
LAY-10
  6
CONTINUOUS
 62
     7
100
AcDbLine
 10
442.500000000007
 20
1196.391186251305
 30
0.0
 11
442.500000000007
 21
1191.750000000195
 31
0.0
  0
LINE
  5
549
330
1F
100
AcDbEntity
  8
LAY-10
  6
CONTINUOUS
 62
     7
100
AcDbLine
 10
448.000000000007
 20
1196.750000000195
 30
0.0
 11
443.4205572761095
 21
1196.750000000195
 31
0.0
  0
LINE
  5
54A
330
1F
100
AcDbEntity
  8
LAY-10
  6
CONTINUOUS
 62
     7
100
AcDbLine
 10
443.1149924493495
 20
1196.635007550853
 30
0.0
 11
448.000000000007
 21
1191.750000000195
 31
0.0
  0
LINE
  5
54B
330
1F
100
AcDbEntity
  8
LAY-10
  6
CONTINUOUS
 62
     7
100
AcDbLine
 10
443.000000000007
 20
1191.750000000195
 30
0.0
 11
443.000000000007
 21
1196.590682760253
 31
0.0
  0
LINE
  5
54C
330
1F
100
AcDbEntity
  8
LAY-10
  6
CONTINUOUS
 62
     7
100
AcDbLine
 10
434.7355712752375
 20
1148.985571275236
 30
0.0
 11
437.000000000007
 21
1151.250000000006
 31
0.0
  0
LINE
  5
54D
330
1F
100
AcDbEntity
  8
LAY-10
  6
CONTINUOUS
 62
     7
100
AcDbLine
 10
1301.625000000009
 20
974.9999999999638
 30
0.0
 11
1301.625000000007
 21
982.4999999999608
 31
0.0
  0
LINE
  5
54E
330
1F
100
AcDbEntity
  8
LAY-10
  6
CONTINUOUS
 62
     7
100
AcDbLine
 10
1308.375000000007
 20
982.500000000004
 30
0.0
 11
1308.375000000009
 21
974.9999999999638
 31
0.0
  0
LINE
  5
54F
330
1F
100
AcDbEntity
  8
LAY-10
  6
CONTINUOUS
 62
     7
100
AcDbLine
 10
1308.375000000011
 20
994.9999999999744
 30
0.0
 11
1308.375000000011
 21
991.9999999999885
 31
0.0
  0
LINE
  5
550
330
1F
100
AcDbEntity
  8
LAY-10
  6
CONTINUOUS
 62
     7
100
AcDbLine
 10
1301.625000000011
 20
991.9999999999885
 30
0.0
 11
1301.625000000011
 21
994.9999999999757
 31
0.0
  0
LINE
  5
551
330
1F
100
AcDbEntity
  8
LAY-10
  6
CONTINUOUS
 62
     7
100
AcDbLine
 10
1445.000000000016
 20
994.9999999999939
 30
0.0
 11
1470.000000000016
 21
1019.999999999994
 31
0.0
  0
LINE
  5
552
330
1F
100
AcDbEntity
  8
LAY-10
  6
CONTINUOUS
 62
     7
100
AcDbLine
 10
1445.0
 20
995.0000000000102
 30
0.0
 11
1285.0
 21
995.0000000000102
 31
0.0
  0
LINE
  5
553
330
1F
100
AcDbEntity
  8
LAY-10
  6
CONTINUOUS
 62
     7
100
AcDbLine
 10
1444.999999999998
 20
1205.000000000009
 30
0.0
 11
1469.999999999998
 21
1180.000000000009
 31
0.0
  0
LINE
  5
554
330
1F
100
AcDbEntity
  8
LAY-10
  6
CONTINUOUS
 62
     7
100
AcDbLine
 10
1445.0
 20
1205.00000000001
 30
0.0
 11
1285.0
 21
1205.00000000001
 31
0.0
  0
LINE
  5
555
330
1F
100
AcDbEntity
  8
LAY-10
  6
CONTINUOUS
 62
     7
100
AcDbLine
 10
1470.0
 20
1180.00000000001
 30
0.0
 11
1470.0
 21
1020.00000000001
 31
0.0
  0
LINE
  5
556
330
1F
100
AcDbEntity
  8
LAY-10
  6
CONTINUOUS
 62
     7
100
AcDbLine
 10
1285.0
 20
1025.00000000001
 30
0.0
 11
1285.0
 21
995.0000000000057
 31
0.0
  0
LINE
  5
557
330
1F
100
AcDbEntity
  8
LAY-10
  6
CONTINUOUS
 62
     7
100
AcDbLine
 10
1285.0
 20
1175.00000000001
 30
0.0
 11
1285.0
 21
1204.999999999989
 31
0.0
  0
LINE
  5
558
330
1F
100
AcDbEntity
  8
LAY-10
  6
CONTINUOUS
 62
     7
100
AcDbLine
 10
1405.999444906979
 20
1029.033314830243
 30
0.0
 11
1285.0
 21
1025.00000000001
 31
0.0
  0
ARC
  5
559
330
1F
100
AcDbEntity
  8
LAY-10
  6
CONTINUOUS
 62
     7
100
AcDbCircle
 10
1405.0
 20
1059.016662039618
 30
0.0
 40
30.0
100
AcDbArc
 50
271.9091524329962
 51
0.0
  0
LINE
  5
55A
330
1F
100
AcDbEntity
  8
LAY-10
  6
CONTINUOUS
 62
     7
100
AcDbLine
 10
1405.999444906979
 20
1170.966685169778
 30
0.0
 11
1285.0
 21
1175.00000000001
 31
0.0
  0
LINE
  5
55B
330
1F
100
AcDbEntity
  8
LAY-10
  6
CONTINUOUS
 62
     7
100
AcDbLine
 10
1435.0
 20
1140.983337960403
 30
0.0
 11
1435.0
 21
1059.016662039618
 31
0.0
  0
ARC
  5
55C
330
1F
100
AcDbEntity
  8
LAY-10
  6
CONTINUOUS
 62
     7
100
AcDbCircle
 10
1405.0
 20
1140.983337960403
 30
0.0
 40
30.0
100
AcDbArc
 50
0.0
 51
88.09084756696596
  0
LINE
  5
55D
330
1F
100
AcDbEntity
  8
LAY-10
  6
CONTINUOUS
 62
     7
100
AcDbLine
 10
821.6250000000105
 20
974.9999999999859
 30
0.0
 11
821.6250000000082
 21
982.4999999999836
 31
0.0
  0
LINE
  5
55E
330
1F
100
AcDbEntity
  8
LAY-10
  6
CONTINUOUS
 62
     7
100
AcDbLine
 10
828.3750000000077
 20
982.5000000000257
 30
0.0
 11
828.37500000001
 21
974.9999999999859
 31
0.0
  0
LINE
  5
55F
330
1F
100
AcDbEntity
  8
LAY-10
  6
CONTINUOUS
 62
     7
100
AcDbLine
 10
428.3749999999968
 20
974.9999999999859
 30
0.0
 11
428.3749999999991
 21
982.4999999999836
 31
0.0
  0
LINE
  5
560
330
1F
100
AcDbEntity
  8
LAY-10
  6
CONTINUOUS
 62
     7
100
AcDbLine
 10
421.6249999999995
 20
982.500000000025
 30
0.0
 11
421.6249999999973
 21
974.9999999999859
 31
0.0
  0
LINE
  5
561
330
1F
100
AcDbEntity
  8
LAY-10
  6
CONTINUOUS
 62
     7
100
AcDbLine
 10
1301.50000000011
 20
1207.499999999979
 30
0.0
 11
1301.50000000011
 21
1207.999999999992
 31
0.0
  0
LINE
  5
562
330
1F
100
AcDbEntity
  8
LAY-10
  6
CONTINUOUS
 62
     7
100
AcDbLine
 10
1301.50000000011
 20
1211.000000000009
 30
0.0
 11
1301.50000000011
 21
1216.99999999998
 31
0.0
  0
LINE
  5
563
330
1F
100
AcDbEntity
  8
LAY-10
  6
CONTINUOUS
 62
     7
100
AcDbLine
 10
1308.500000000109
 20
1207.499999999979
 30
0.0
 11
1308.500000000109
 21
1207.999999999992
 31
0.0
  0
LINE
  5
564
330
1F
100
AcDbEntity
  8
LAY-10
  6
CONTINUOUS
 62
     7
100
AcDbLine
 10
1308.500000000109
 20
1211.000000000009
 30
0.0
 11
1308.500000000109
 21
1216.99999999998
 31
0.0
  0
LINE
  5
565
330
1F
100
AcDbEntity
  8
LAY-10
  6
CONTINUOUS
 62
     7
100
AcDbLine
 10
821.5000000000095
 20
1211.000000000009
 30
0.0
 11
821.5000000000095
 21
1216.99999999998
 31
0.0
  0
LINE
  5
566
330
1F
100
AcDbEntity
  8
LAY-10
  6
CONTINUOUS
 62
     7
100
AcDbLine
 10
828.5000000000089
 20
1211.000000000009
 30
0.0
 11
828.5000000000089
 21
1216.99999999998
 31
0.0
  0
LINE
  5
567
330
1F
100
AcDbEntity
  8
LAY-10
  6
CONTINUOUS
 62
     7
100
AcDbLine
 10
421.4999999999996
 20
1211.000000000009
 30
0.0
 11
421.4999999999996
 21
1216.99999999998
 31
0.0
  0
LINE
  5
568
330
1F
100
AcDbEntity
  8
LAY-10
  6
CONTINUOUS
 62
     7
100
AcDbLine
 10
428.4999999999989
 20
1211.000000000009
 30
0.0
 11
428.4999999999989
 21
1216.99999999998
 31
0.0
  0
LINE
  5
569
330
1F
100
AcDbEntity
  8
LAY-10
  6
CONTINUOUS
 62
     7
100
AcDbLine
 10
1199.997114317045
 20
1159.099999999951
 30
0.0
 11
1199.397114317045
 21
1158.499999999951
 31
0.0
  0
LINE
  5
56A
330
1F
100
AcDbEntity
  8
LAY-10
  6
CONTINUOUS
 62
     7
100
AcDbLine
 10
1199.997114317045
 20
1163.899999999951
 30
0.0
 11
1199.397114317045
 21
1164.499999999951
 31
0.0
  0
LINE
  5
56B
330
1F
100
AcDbEntity
  8
LAY-10
  6
CONTINUOUS
 62
     7
100
AcDbLine
 10
1221.197114317043
 20
1159.099999999951
 30
0.0
 11
1212.997114317045
 21
1159.099999999951
 31
0.0
  0
LINE
  5
56C
330
1F
100
AcDbEntity
  8
LAY-10
  6
CONTINUOUS
 62
     7
100
AcDbLine
 10
1221.197114317043
 20
1163.899999999951
 30
0.0
 11
1212.997114317045
 21
1163.899999999951
 31
0.0
  0
LINE
  5
56D
330
1F
100
AcDbEntity
  8
LAY-10
  6
CONTINUOUS
 62
     7
100
AcDbLine
 10
1209.000000000005
 20
1159.099999999951
 30
0.0
 11
1201.99711431704
 21
1159.099999999951
 31
0.0
  0
LINE
  5
56E
330
1F
100
AcDbEntity
  8
LAY-10
  6
CONTINUOUS
 62
     7
100
AcDbLine
 10
1209.000000000005
 20
1163.899999999951
 30
0.0
 11
1201.99711431704
 21
1163.899999999951
 31
0.0
  0
CIRCLE
  5
56F
330
1F
100
AcDbEntity
  8
LAY-10
  6
CONTINUOUS
 62
     7
100
AcDbCircle
 10
425.0000000000001
 20
645.0000000000697
 30
0.0
 40
3.37500000001171
  0
CIRCLE
  5
570
330
1F
100
AcDbEntity
  8
LAY-10
  6
CONTINUOUS
 62
     7
100
AcDbCircle
 10
825.0000000000002
 20
645.0000000000697
 30
0.0
 40
3.37500000001171
  0
LINE
  5
571
330
1F
100
AcDbEntity
  8
LAY-10
  6
CONTINUOUS
 62
     7
100
AcDbLine
 10
427.3999999999676
 20
740.9971143170222
 30
0.0
 11
427.3999999999676
 21
747.9999999999853
 31
0.0
  0
LINE
  5
572
330
1F
100
AcDbEntity
  8
LAY-10
  6
CONTINUOUS
 62
     7
100
AcDbLine
 10
422.5999999999684
 20
740.9971143170222
 30
0.0
 11
422.5999999999684
 21
747.9999999999853
 31
0.0
  0
LINE
  5
573
330
1F
100
AcDbEntity
  8
LAY-10
  6
CONTINUOUS
 62
     7
100
AcDbLine
 10
427.3999999999676
 20
728.799999999981
 30
0.0
 11
427.3999999999676
 21
736.9999999999798
 31
0.0
  0
LINE
  5
574
330
1F
100
AcDbEntity
  8
LAY-10
  6
CONTINUOUS
 62
     7
100
AcDbLine
 10
422.5999999999684
 20
728.799999999981
 30
0.0
 11
422.5999999999684
 21
736.9999999999798
 31
0.0
  0
LINE
  5
575
330
1F
100
AcDbEntity
  8
LAY-10
  6
PHANTOM
 62
     7
100
AcDbLine
 10
417.4999999999984
 20
729.0000000000244
 30
0.0
 11
419.4999999999985
 21
729.0000000000244
 31
0.0
  0
LINE
  5
576
330
1F
100
AcDbEntity
  8
LAY-10
  6
PHANTOM
 62
     7
100
AcDbLine
 10
419.4999999999985
 20
729.0000000000199
 30
0.0
 11
419.4999999999985
 21
748.0000000000198
 31
0.0
  0
LINE
  5
577
330
1F
100
AcDbEntity
  8
LAY-10
  6
PHANTOM
 62
     7
100
AcDbLine
 10
417.4999999999986
 20
748.0000000000198
 30
0.0
 11
417.4999999999986
 21
729.0000000000244
 31
0.0
  0
LINE
  5
578
330
1F
100
AcDbEntity
  8
LAY-10
  6
CONTINUOUS
 62
     7
100
AcDbLine
 10
827.3999999999776
 20
740.9971143170222
 30
0.0
 11
827.3999999999776
 21
747.9999999999853
 31
0.0
  0
LINE
  5
579
330
1F
100
AcDbEntity
  8
LAY-10
  6
CONTINUOUS
 62
     7
100
AcDbLine
 10
822.5999999999783
 20
740.9971143170222
 30
0.0
 11
822.5999999999783
 21
747.9999999999853
 31
0.0
  0
LINE
  5
57A
330
1F
100
AcDbEntity
  8
LAY-10
  6
CONTINUOUS
 62
     7
100
AcDbLine
 10
827.3999999999776
 20
728.799999999981
 30
0.0
 11
827.3999999999776
 21
736.9999999999798
 31
0.0
  0
LINE
  5
57B
330
1F
100
AcDbEntity
  8
LAY-10
  6
CONTINUOUS
 62
     7
100
AcDbLine
 10
822.5999999999783
 20
728.799999999981
 30
0.0
 11
822.5999999999783
 21
736.9999999999798
 31
0.0
  0
LINE
  5
57C
330
1F
100
AcDbEntity
  8
LAY-10
  6
PHANTOM
 62
     7
100
AcDbLine
 10
817.5000000000085
 20
729.0000000000244
 30
0.0
 11
819.5000000000084
 21
729.0000000000244
 31
0.0
  0
LINE
  5
57D
330
1F
100
AcDbEntity
  8
LAY-10
  6
PHANTOM
 62
     7
100
AcDbLine
 10
819.5000000000084
 20
729.0000000000199
 30
0.0
 11
819.5000000000084
 21
748.0000000000198
 31
0.0
  0
LINE
  5
57E
330
1F
100
AcDbEntity
  8
LAY-10
  6
PHANTOM
 62
     7
100
AcDbLine
 10
817.5000000000086
 20
748.0000000000198
 30
0.0
 11
817.5000000000086
 21
729.0000000000244
 31
0.0
  0
LINE
  5
57F
330
1F
100
AcDbEntity
  8
LAY-10
  6
HIDDEN
 62
     7
100
AcDbLine
 10
920.5000000000001
 20
1024.9999999999
 30
0.0
 11
329.5
 21
1024.9999999999
 31
0.0
  0
LINE
  5
580
330
1F
100
AcDbEntity
  8
LAY-10
  6
HIDDEN
 62
     7
100
AcDbLine
 10
920.5000000000001
 20
1175.000000000122
 30
0.0
 11
329.5
 21
1175.000000000122
 31
0.0
  0
LINE
  5
581
330
1F
100
AcDbEntity
  8
LAY-10
  6
HIDDEN
 62
     7
100
AcDbLine
 10
920.5000000000001
 20
1198.5000000001
 30
0.0
 11
920.5000000000001
 21
1124.5000000001
 31
0.0
  0
LINE
  5
582
330
1F
100
AcDbEntity
  8
LAY-10
  6
HIDDEN
 62
     7
100
AcDbLine
 10
329.5
 20
1124.5000000001
 30
0.0
 11
329.5
 21
1198.5000000001
 31
0.0
  0
LEADER
  5
583
330
1F
100
AcDbEntity
  8
LAY-20
  6
CONTINUOUS
 62
     7
100
AcDbLeader
  3
ISO-25
 76
     3
 10
1364.99999999999
 20
995.0000000000102
 30
0.0
 10
1411.38793553547
 20
914.6537387942584
 30
0.0
 10
1477.965613754449
 20
914.6537387942597
 30
0.0
1001
ACAD
1000
DSTYLE
1002
{
1070
     5
1000
EX_BNORM
1070
    41
1040
12.5
1070
   341
1005
7B
1002
}
  0
TEXT
  5
584
330
1F
100
AcDbEntity
  8
LAY-20
  6
CONTINUOUS
 62
     7
100
AcDbText
 10
1425.848649644959
 20
917.466238794259
 30
0.0
 40
17.1875
  1
別途
 41
1.07185045
  7
EXCADSTD
100
AcDbText
  0
DIMENSION
  5
586
330
1F
100
AcDbEntity
  8
LAY-20
  6
CONTINUOUS
 62
     4
100
AcDbDimension
  2
*D15
 10
1285.0
 20
1267.0
 30
0.0
 11
1230.0
 21
1279.5
 31
0.0
 70
   160
  3
ISO-25
100
AcDbAlignedDimension
 13
1175.0
 23
1205.00000000001
 33
0.0
 14
1285.0
 24
1208.00000000001
 34
0.0
100
AcDbRotatedDimension
1001
ACAD
1000
DSTYLE
1002
{
1070
   270
1070
     2
1070
     6
1000
EX_BNORM
1070
     7
1000
EX_BNORM
1070
    41
1040
12.5
1070
    42
1040
7.5
1070
    44
1040
7.5
1070
    73
1070
     0
1070
    74
1070
     0
1070
    75
1070
     0
1070
    76
1070
     0
1070
    77
1070
     1
1070
    78
1070
     8
1070
   140
1040
15.590552
1070
   147
1040
0.0
1070
   173
1070
     1
1070
   176
1070
     4
1070
   177
1070
     4
1070
   178
1070
     7
1070
   271
1070
     1
1070
   277
1070
     2
1070
   279
1070
     2
1070
   280
1070
     0
1070
   287
1070
     5
1070
   340
1005
585
1002
}
  0
DIMENSION
  5
594
330
1F
100
AcDbEntity
  8
LAY-20
  6
CONTINUOUS
 62
     4
100
AcDbDimension
  2
*D16
 10
1285.0
 20
1267.0
 30
0.0
 11
1305.0
 21
1279.5
 31
0.0
 70
   160
  3
ISO-25
100
AcDbAlignedDimension
 13
1325.0
 23
1211.00000000001
 33
0.0
 14
1285.0
 24
1280.50000000001
 34
0.0
100
AcDbRotatedDimension
1001
ACAD
1000
DSTYLE
1002
{
1070
   270
1070
     2
1070
     6
1000
EX_BNORM
1070
     7
1000
EX_BNORM
1070
    41
1040
12.5
1070
    42
1040
7.5
1070
    44
1040
7.5
1070
    73
1070
     0
1070
    74
1070
     0
1070
    75
1070
     0
1070
    76
1070
     1
1070
    77
1070
     1
1070
    78
1070
     8
1070
   140
1040
15.590552
1070
   147
1040
0.0
1070
   173
1070
     1
1070
   176
1070
     4
1070
   177
1070
     4
1070
   178
1070
     7
1070
   271
1070
     1
1070
   277
1070
     2
1070
   279
1070
     2
1070
   280
1070
     0
1070
   287
1070
     5
1070
   340
1005
585
1002
}
  0
DIMENSION
  5
5A0
330
1F
100
AcDbEntity
  8
LAY-20
  6
CONTINUOUS
 62
     4
100
AcDbDimension
  2
*D17
 10
1555.0
 20
992.0000000000101
 30
0.0
 11
1542.5
 21
1100.00000000001
 31
0.0
 70
   160
  3
ISO-25
100
AcDbAlignedDimension
 13
1325.0000000001
 23
1208.00000000001
 33
0.0
 14
1325.0000000001
 24
992.0000000000101
 34
0.0
 50
90.0
100
AcDbRotatedDimension
1001
ACAD
1000
DSTYLE
1002
{
1070
   270
1070
     2
1070
     6
1000
EX_BNORM
1070
     7
1000
EX_BNORM
1070
    41
1040
12.5
1070
    42
1040
7.5
1070
    44
1040
7.5
1070
    73
1070
     0
1070
    74
1070
     0
1070
    75
1070
     0
1070
    76
1070
     0
1070
    77
1070
     1
1070
    78
1070
     8
1070
   140
1040
15.590552
1070
   147
1040
0.0
1070
   173
1070
     1
1070
   176
1070
     4
1070
   177
1070
     4
1070
   178
1070
     7
1070
   271
1070
     1
1070
   277
1070
     2
1070
   279
1070
     2
1070
   280
1070
     0
1070
   287
1070
     5
1070
   340
1005
585
1002
}
  0
DIMENSION
  5
5AD
330
1F
100
AcDbEntity
  8
LAY-20
  6
CONTINUOUS
 62
     4
100
AcDbDimension
  2
*D18
 10
1520.0
 20
1205.00000000001
 30
0.0
 11
1507.5
 21
1100.00000000001
 31
0.0
 70
   160
  3
ISO-25
100
AcDbAlignedDimension
 13
1445.0
 23
995.00000000001
 33
0.0
 14
1445.0
 24
1205.00000000001
 34
0.0
 50
90.0
100
AcDbRotatedDimension
1001
ACAD
1000
DSTYLE
1002
{
1070
   270
1070
     2
1070
     6
1000
EX_BNORM
1070
     7
1000
EX_BNORM
1070
    41
1040
12.5
1070
    42
1040
7.5
1070
    44
1040
7.5
1070
    73
1070
     0
1070
    74
1070
     0
1070
    75
1070
     0
1070
    76
1070
     0
1070
    77
1070
     1
1070
    78
1070
     8
1070
   140
1040
15.590552
1070
   147
1040
0.0
1070
   173
1070
     1
1070
   176
1070
     4
1070
   177
1070
     4
1070
   178
1070
     7
1070
   271
1070
     1
1070
   277
1070
     2
1070
   279
1070
     2
1070
   280
1070
     0
1070
   287
1070
     5
1070
   340
1005
585
1002
}
  0
DIMENSION
  5
5BA
330
1F
100
AcDbEntity
  8
LAY-20
  6
CONTINUOUS
 62
     4
100
AcDbDimension
  2
*D19
 10
1375.0
 20
1025.00000000001
 30
0.0
 11
1362.5
 21
1100.00000000001
 31
0.0
 70
   160
  1
溝幅<>
  3
ISO-25
100
AcDbAlignedDimension
 13
1285.0
 23
1175.00000000001
 33
0.0
 14
1285.0
 24
1025.00000000001
 34
0.0
 50
90.0
100
AcDbRotatedDimension
1001
ACAD
1000
DSTYLE
1002
{
1070
   270
1070
     2
1070
     6
1000
EX_BNORM
1070
     7
1000
EX_BNORM
1070
    41
1040
12.5
1070
    42
1040
7.5
1070
    44
1040
7.5
1070
    73
1070
     0
1070
    74
1070
     0
1070
    75
1070
     0
1070
    76
1070
     0
1070
    77
1070
     1
1070
    78
1070
     8
1070
   140
1040
15.590552
1070
   147
1040
0.0
1070
   173
1070
     1
1070
   176
1070
     4
1070
   177
1070
     4
1070
   178
1070
     7
1070
   271
1070
     1
1070
   277
1070
     2
1070
   279
1070
     2
1070
   280
1070
     0
1070
   287
1070
     5
1070
   340
1005
585
1002
}
  0
DIMENSION
  5
5C7
330
1F
100
AcDbEntity
  8
LAY-20
  6
CONTINUOUS
 62
     4
100
AcDbDimension
  2
*D20
 10
1175.0
 20
884.5000000000099
 30
0.0
 11
1215.0
 21
897.0000000000099
 31
0.0
 70
   160
  3
ISO-25
100
AcDbAlignedDimension
 13
1255.0
 23
1005.99999999991
 33
0.0
 14
1175.0
 24
994.99999999999
 34
0.0
100
AcDbRotatedDimension
1001
ACAD
1000
DSTYLE
1002
{
1070
   270
1070
     2
1070
     6
1000
EX_BNORM
1070
     7
1000
EX_BNORM
1070
    41
1040
12.5
1070
    42
1040
7.5
1070
    44
1040
7.5
1070
    73
1070
     0
1070
    74
1070
     0
1070
    75
1070
     0
1070
    76
1070
     0
1070
    77
1070
     1
1070
    78
1070
     8
1070
   140
1040
15.590552
1070
   147
1040
0.0
1070
   173
1070
     1
1070
   176
1070
     4
1070
   177
1070
     4
1070
   178
1070
     7
1070
   271
1070
     1
1070
   277
1070
     2
1070
   279
1070
     2
1070
   280
1070
     0
1070
   287
1070
     5
1070
   340
1005
585
1002
}
  0
DIMENSION
  5
5D4
330
1F
100
AcDbEntity
  8
LAY-20
  6
CONTINUOUS
 62
     4
100
AcDbDimension
  2
*D21
 10
1175.0
 20
919.5000000000101
 30
0.0
 11
1209.99999999995
 21
932.0000000000101
 31
0.0
 70
   160
  3
ISO-25
100
AcDbAlignedDimension
 13
1244.9999999999
 23
1042.07275688646
 33
0.0
 14
1175.0
 24
919.5000000000101
 34
0.0
100
AcDbRotatedDimension
1001
ACAD
1000
DSTYLE
1002
{
1070
   270
1070
     2
1070
     6
1000
EX_BNORM
1070
     7
1000
EX_BNORM
1070
    41
1040
12.5
1070
    42
1040
7.5
1070
    44
1040
7.5
1070
    73
1070
     0
1070
    74
1070
     0
1070
    75
1070
     0
1070
    76
1070
     1
1070
    77
1070
     1
1070
    78
1070
     8
1070
   140
1040
15.590552
1070
   147
1040
0.0
1070
   173
1070
     1
1070
   176
1070
     4
1070
   177
1070
     4
1070
   178
1070
     7
1070
   271
1070
     1
1070
   277
1070
     2
1070
   279
1070
     2
1070
   280
1070
     0
1070
   287
1070
     5
1070
   340
1005
585
1002
}
  0
DIMENSION
  5
5E0
330
1F
100
AcDbEntity
  8
LAY-20
  6
CONTINUOUS
 62
     4
100
AcDbDimension
  2
*D22
 10
325.0000000000017
 20
849.5
 30
0.0
 11
625.000000000002
 21
862.0
 31
0.0
 70
   160
  3
ISO-25
100
AcDbAlignedDimension
 13
925.0000000000023
 23
995.0000000000109
 33
0.0
 14
325.0000000000017
 24
995.0000000000109
 34
0.0
100
AcDbRotatedDimension
1001
ACAD
1000
DSTYLE
1002
{
1070
   270
1070
     2
1070
     6
1000
EX_BNORM
1070
     7
1000
EX_BNORM
1070
    41
1040
12.5
1070
    42
1040
7.5
1070
    44
1040
7.5
1070
    73
1070
     0
1070
    74
1070
     0
1070
    75
1070
     0
1070
    76
1070
     0
1070
    77
1070
     1
1070
    78
1070
     8
1070
   140
1040
15.590552
1070
   147
1040
0.0
1070
   173
1070
     1
1070
   176
1070
     4
1070
   177
1070
     4
1070
   178
1070
     7
1070
   271
1070
     1
1070
   277
1070
     2
1070
   279
1070
     2
1070
   280
1070
     0
1070
   287
1070
     5
1070
   340
1005
585
1002
}
  0
DIMENSION
  5
5ED
330
1F
100
AcDbEntity
  8
LAY-20
  6
CONTINUOUS
 62
     4
100
AcDbDimension
  2
*D23
 10
918.4999999999923
 20
884.5
 30
0.0
 11
624.9999999999918
 21
897.0
 31
0.0
 70
   160
  3
ISO-25
100
AcDbAlignedDimension
 13
331.4999999999912
 23
1001.500000000011
 33
0.0
 14
918.4999999999923
 24
1001.500000000011
 34
0.0
100
AcDbRotatedDimension
1001
ACAD
1000
DSTYLE
1002
{
1070
   270
1070
     2
1070
     6
1000
EX_BNORM
1070
     7
1000
EX_BNORM
1070
    41
1040
12.5
1070
    42
1040
7.5
1070
    44
1040
7.5
1070
    73
1070
     0
1070
    74
1070
     0
1070
    75
1070
     0
1070
    76
1070
     0
1070
    77
1070
     1
1070
    78
1070
     8
1070
   140
1040
15.590552
1070
   147
1040
0.0
1070
   173
1070
     1
1070
   176
1070
     4
1070
   177
1070
     4
1070
   178
1070
     7
1070
   271
1070
     1
1070
   277
1070
     2
1070
   279
1070
     2
1070
   280
1070
     0
1070
   287
1070
     5
1070
   340
1005
585
1002
}
  0
DIMENSION
  5
5FA
330
1F
100
AcDbEntity
  8
LAY-20
  6
CONTINUOUS
 62
     4
100
AcDbDimension
  2
*D24
 10
913.9999999999924
 20
919.5
 30
0.0
 11
624.9999999999918
 21
932.0
 31
0.0
 70
   160
  3
ISO-25
100
AcDbAlignedDimension
 13
335.9999999999912
 23
1006.00000000001
 33
0.0
 14
913.9999999999924
 24
1006.00000000001
 34
0.0
100
AcDbRotatedDimension
1001
ACAD
1000
DSTYLE
1002
{
1070
   270
1070
     2
1070
     6
1000
EX_BNORM
1070
     7
1000
EX_BNORM
1070
    41
1040
12.5
1070
    42
1040
7.5
1070
    44
1040
7.5
1070
    73
1070
     0
1070
    74
1070
     0
1070
    75
1070
     0
1070
    76
1070
     0
1070
    77
1070
     1
1070
    78
1070
     8
1070
   140
1040
15.590552
1070
   147
1040
0.0
1070
   173
1070
     1
1070
   176
1070
     4
1070
   177
1070
     4
1070
   178
1070
     7
1070
   271
1070
     1
1070
   277
1070
     2
1070
   279
1070
     2
1070
   280
1070
     0
1070
   287
1070
     5
1070
   340
1005
585
1002
}
  0
DIMENSION
  5
607
330
1F
100
AcDbEntity
  8
LAY-20
  6
CONTINUOUS
 62
     4
100
AcDbDimension
  2
*D25
 10
1125.0
 20
1198.49999999995
 30
0.0
 11
1112.5
 21
1161.49999999995
 31
0.0
 70
   160
  3
ISO-25
100
AcDbAlignedDimension
 13
1180.0
 23
1124.49999999995
 33
0.0
 14
1125.0
 24
1198.49999999995
 34
0.0
 50
90.0
100
AcDbRotatedDimension
1001
ACAD
1000
DSTYLE
1002
{
1070
   270
1070
     2
1070
     6
1000
EX_BNORM
1070
     7
1000
EX_BNORM
1070
    41
1040
12.5
1070
    42
1040
7.5
1070
    44
1040
7.5
1070
    73
1070
     0
1070
    74
1070
     0
1070
    75
1070
     0
1070
    76
1070
     1
1070
    77
1070
     1
1070
    78
1070
     8
1070
   140
1040
15.590552
1070
   147
1040
0.0
1070
   173
1070
     1
1070
   176
1070
     4
1070
   177
1070
     4
1070
   178
1070
     7
1070
   271
1070
     4
1070
   277
1070
     2
1070
   279
1070
     2
1070
   280
1070
     0
1070
   287
1070
     5
1070
   340
1005
585
1002
}
  0
DIMENSION
  5
613
330
1F
100
AcDbEntity
  8
LAY-20
  6
CONTINUOUS
 62
     4
100
AcDbDimension
  2
*D26
 10
1090.0
 20
1198.49999999993
 30
0.0
 11
1077.5
 21
1158.24999999993
 31
0.0
 70
   160
  3
ISO-25
100
AcDbAlignedDimension
 13
1055.0
 23
1117.99999999993
 33
0.0
 14
1055.0
 24
1198.49999999993
 34
0.0
 50
90.0
100
AcDbRotatedDimension
1001
ACAD
1000
DSTYLE
1002
{
1070
   270
1070
     2
1070
     6
1000
EX_BNORM
1070
     7
1000
EX_BNORM
1070
    41
1040
12.5
1070
    42
1040
0.0
1070
    44
1040
0.0
1070
    73
1070
     0
1070
    74
1070
     0
1070
    75
1070
     1
1070
    76
1070
     1
1070
    77
1070
     1
1070
    78
1070
     8
1070
   140
1040
15.590552
1070
   147
1040
0.0
1070
   173
1070
     1
1070
   176
1070
     4
1070
   177
1070
     4
1070
   178
1070
     7
1070
   271
1070
     1
1070
   277
1070
     2
1070
   279
1070
     2
1070
   280
1070
     0
1070
   287
1070
     5
1070
   340
1005
585
1002
}
  0
DIMENSION
  5
61E
330
1F
100
AcDbEntity
  8
LAY-20
  6
CONTINUOUS
 62
     4
100
AcDbDimension
  2
*D27
 10
1090.0
 20
1005.99999999993
 30
0.0
 11
1077.5
 21
1061.99999999993
 31
0.0
 70
   160
  3
ISO-25
100
AcDbAlignedDimension
 13
1175.0
 23
1117.99999999993
 33
0.0
 14
1175.0
 24
1005.99999999993
 34
0.0
 50
90.0
100
AcDbRotatedDimension
1001
ACAD
1000
DSTYLE
1002
{
1070
   270
1070
     2
1070
     6
1000
EX_BNORM
1070
     7
1000
EX_BNORM
1070
    41
1040
12.5
1070
    42
1040
7.5
1070
    44
1040
7.5
1070
    73
1070
     0
1070
    74
1070
     0
1070
    75
1070
     0
1070
    76
1070
     0
1070
    77
1070
     1
1070
    78
1070
     8
1070
   140
1040
15.590552
1070
   147
1040
0.0
1070
   173
1070
     1
1070
   176
1070
     4
1070
   177
1070
     4
1070
   178
1070
     7
1070
   271
1070
     1
1070
   277
1070
     2
1070
   279
1070
     2
1070
   280
1070
     0
1070
   287
1070
     5
1070
   340
1005
585
1002
}
  0
DIMENSION
  5
62B
330
1F
100
AcDbEntity
  8
LAY-20
  6
CONTINUOUS
 62
     4
100
AcDbDimension
  2
*D28
 10
1055.0
 20
1198.49999999993
 30
0.0
 11
1042.5
 21
1099.99999999992
 31
0.0
 70
   160
  3
ISO-25
100
AcDbAlignedDimension
 13
1175.0
 23
1001.49999999991
 33
0.0
 14
1175.0
 24
1198.49999999993
 34
0.0
 50
90.0
100
AcDbRotatedDimension
1001
ACAD
1000
DSTYLE
1002
{
1070
   270
1070
     2
1070
     6
1000
EX_BNORM
1070
     7
1000
EX_BNORM
1070
    41
1040
12.5
1070
    42
1040
7.5
1070
    44
1040
7.5
1070
    73
1070
     0
1070
    74
1070
     0
1070
    75
1070
     0
1070
    76
1070
     0
1070
    77
1070
     1
1070
    78
1070
     8
1070
   140
1040
15.590552
1070
   147
1040
0.0
1070
   173
1070
     1
1070
   176
1070
     4
1070
   177
1070
     4
1070
   178
1070
     7
1070
   271
1070
     1
1070
   277
1070
     2
1070
   279
1070
     2
1070
   280
1070
     0
1070
   287
1070
     5
1070
   340
1005
585
1002
}
  0
DIMENSION
  5
638
330
1F
100
AcDbEntity
  8
LAY-20
  6
CONTINUOUS
 62
     4
100
AcDbDimension
  2
*D29
 10
1020.0
 20
994.9999999999102
 30
0.0
 11
1007.5
 21
1099.99999999992
 31
0.0
 70
   160
  3
ISO-25
100
AcDbAlignedDimension
 13
1175.0
 23
1204.99999999993
 33
0.0
 14
1175.0
 24
994.9999999999102
 34
0.0
 50
90.0
100
AcDbRotatedDimension
1001
ACAD
1000
DSTYLE
1002
{
1070
   270
1070
     2
1070
     6
1000
EX_BNORM
1070
     7
1000
EX_BNORM
1070
    41
1040
12.5
1070
    42
1040
7.5
1070
    44
1040
7.5
1070
    73
1070
     0
1070
    74
1070
     0
1070
    75
1070
     0
1070
    76
1070
     0
1070
    77
1070
     1
1070
    78
1070
     8
1070
   140
1040
15.590552
1070
   147
1040
0.0
1070
   173
1070
     1
1070
   176
1070
     4
1070
   177
1070
     4
1070
   178
1070
     7
1070
   271
1070
     1
1070
   277
1070
     2
1070
   279
1070
     2
1070
   280
1070
     0
1070
   287
1070
     5
1070
   340
1005
585
1002
}
  0
LINE
  5
645
330
1F
100
AcDbEntity
  8
LAY-255
  6
CONTINUOUS
 62
     7
100
AcDbLine
 10
1925.0
 20
110.0
 30
0.0
 11
1425.0
 21
110.0
 31
0.0
  0
LINE
  5
646
330
1F
100
AcDbEntity
  8
LAY-255
  6
CONTINUOUS
 62
     7
100
AcDbLine
 10
1444.0
 20
79.99999999999999
 30
0.0
 11
1484.0
 21
105.0
 31
0.0
  0
LINE
  5
647
330
1F
100
AcDbEntity
  8
LAY-255
  6
CONTINUOUS
 62
     7
100
AcDbLine
 10
1484.0
 20
105.0
 30
0.0
 11
1524.0
 21
79.99999999999999
 31
0.0
  0
LINE
  5
648
330
1F
100
AcDbEntity
  8
LAY-255
  6
CONTINUOUS
 62
     7
100
AcDbLine
 10
1524.0
 20
79.99999999999999
 30
0.0
 11
1484.0
 21
55.0
 31
0.0
  0
LINE
  5
649
330
1F
100
AcDbEntity
  8
LAY-255
  6
CONTINUOUS
 62
     7
100
AcDbLine
 10
1484.0
 20
55.0
 30
0.0
 11
1444.0
 21
79.99999999999999
 31
0.0
  0
LINE
  5
64A
330
1F
100
AcDbEntity
  8
LAY-255
  6
CONTINUOUS
 62
     7
100
AcDbLine
 10
25.0
 20
50.0
 30
0.0
 11
1925.0
 21
50.0
 31
0.0
  0
LINE
  5
64B
330
1F
100
AcDbEntity
  8
LAY-255
  6
CONTINUOUS
 62
     7
100
AcDbLine
 10
25.0
 20
1400.0
 30
0.0
 11
1925.0
 21
1400.0
 31
0.0
  0
LINE
  5
64C
330
1F
100
AcDbEntity
  8
LAY-255
  6
CONTINUOUS
 62
     7
100
AcDbLine
 10
25.0
 20
50.0
 30
0.0
 11
25.0
 21
1400.0
 31
0.0
  0
LINE
  5
64D
330
1F
100
AcDbEntity
  8
LAY-255
  6
CONTINUOUS
 62
     4
100
AcDbLine
 10
1425.0
 20
140.0
 30
0.0
 11
1925.0
 21
140.0
 31
0.0
  0
LINE
  5
64E
330
1F
100
AcDbEntity
  8
LAY-255
  6
CONTINUOUS
 62
     4
100
AcDbLine
 10
1675.0
 20
140.0
 30
0.0
 11
1675.0
 21
110.0
 31
0.0
  0
POINT
  5
64F
330
1F
100
AcDbEntity
  8
LAY-255
  6
CONTINUOUS
 62
     7
100
AcDbPoint
 10
1445.0
 20
175.0000000000001
 30
0.0
  0
POINT
  5
650
330
1F
100
AcDbEntity
  8
LAY-255
  6
CONTINUOUS
 62
     7
100
AcDbPoint
 10
1445.0
 20
150.0000000000001
 30
0.0
  0
LINE
  5
651
330
1F
100
AcDbEntity
  8
LAY-255
  6
CONTINUOUS
 62
     7
100
AcDbLine
 10
1925.0
 20
50.0
 30
0.0
 11
1925.0
 21
1400.0
 31
0.0
  0
LINE
  5
652
330
1F
100
AcDbEntity
  8
LAY-255
  6
CONTINUOUS
 62
     7
100
AcDbLine
 10
1925.0
 20
410.0000000000003
 30
0.0
 11
1425.0
 21
410.0000000000003
 31
0.0
  0
LINE
  5
653
330
1F
100
AcDbEntity
  8
LAY-255
  6
CONTINUOUS
 62
     4
100
AcDbLine
 10
1915.0
 20
350.0000000000003
 30
0.0
 11
1435.0
 21
350.0000000000003
 31
0.0
  0
LINE
  5
654
330
1F
100
AcDbEntity
  8
LAY-255
  6
CONTINUOUS
 62
     4
100
AcDbLine
 10
1915.0
 20
380.0000000000003
 30
0.0
 11
1435.0
 21
380.0000000000003
 31
0.0
  0
POINT
  5
655
330
1F
100
AcDbEntity
  8
LAY-255
  6
CONTINUOUS
 62
     7
100
AcDbPoint
 10
1500.0
 20
355.0000000000003
 30
0.0
  0
POINT
  5
656
330
1F
100
AcDbEntity
  8
LAY-255
  6
CONTINUOUS
 62
     7
100
AcDbPoint
 10
1500.0
 20
385.0000000000003
 30
0.0
  0
LINE
  5
657
330
1F
100
AcDbEntity
  8
LAY-255
  6
CONTINUOUS
 62
     7
100
AcDbLine
 10
1425.0
 20
50.0
 30
0.0
 11
1425.0
 21
410.0000000000003
 31
0.0
  0
POINT
  5
658
330
1F
100
AcDbEntity
  8
LAY-255
  6
CONTINUOUS
 62
     7
100
AcDbPoint
 10
1445.0
 20
300.0000000000003
 30
0.0
  0
POINT
  5
659
330
1F
100
AcDbEntity
  8
LAY-255
  6
CONTINUOUS
 62
     7
100
AcDbPoint
 10
1445.0
 20
250.0000000000002
 30
0.0
  0
POINT
  5
65A
330
1F
100
AcDbEntity
  8
LAY-255
  6
CONTINUOUS
 62
     7
100
AcDbPoint
 10
1445.0
 20
275.0000000000002
 30
0.0
  0
POINT
  5
65B
330
1F
100
AcDbEntity
  8
LAY-255
  6
CONTINUOUS
 62
     7
100
AcDbPoint
 10
1445.0
 20
225.0000000000002
 30
0.0
  0
POINT
  5
65C
330
1F
100
AcDbEntity
  8
LAY-255
  6
CONTINUOUS
 62
     7
100
AcDbPoint
 10
1445.0
 20
325.0000000000003
 30
0.0
  0
POINT
  5
65D
330
1F
100
AcDbEntity
  8
LAY-255
  6
CONTINUOUS
 62
     7
100
AcDbPoint
 10
1445.0
 20
200.0000000000001
 30
0.0
  0
TEXT
  5
65E
330
1F
100
AcDbEntity
  8
LAY-255
  6
CONTINUOUS
 62
     7
100
AcDbText
 10
1540.691894370117
 20
77.71874999999999
 30
0.0
 40
25.78125
  1
福西鋳物株式会社
 41
1.342691871783662
  7
EXCADSTD
100
AcDbText
  0
TEXT
  5
65F
330
1F
100
AcDbEntity
  8
LAY-255
  6
CONTINUOUS
 62
     7
100
AcDbText
 10
1542.546875
 20
59.90624999999999
 30
0.0
 40
8.59375
  1
ＦＵＫＵＮＩＳＨＩ
 41
1.204799226045263
  7
EXCADSTD
100
AcDbText
  0
TEXT
  5
660
330
1F
100
AcDbEntity
  8
LAY-255
  6
CONTINUOUS
 62
     7
100
AcDbText
 10
1663.595982142857
 20
59.90624999999999
 30
0.0
 40
8.59375
  1
ＦＯＵＮＤＲＹ
 41
1.243252752978497
  7
EXCADSTD
100
AcDbText
  0
TEXT
  5
661
330
1F
100
AcDbEntity
  8
LAY-255
  6
CONTINUOUS
 62
     7
100
AcDbText
 10
1759.97295734375
 20
59.90624999999999
 30
0.0
 40
8.59375
  1
ＣＯ.,ＬＴＤ.
 41
1.243831100341625
  7
EXCADSTD
100
AcDbText
  0
TEXT
  5
662
330
1F
100
AcDbEntity
  8
LAY-255
  6
CONTINUOUS
 62
     7
100
AcDbText
 10
1470.171875
 20
68.59375
 30
0.0
 40
25.78125
  1
S
 41
0.7582677563636363
  7
EXCADSTD
100
AcDbText
  0
TEXT
  5
663
330
1F
100
AcDbEntity
  8
LAY-255
  6
CONTINUOUS
 62
     7
100
AcDbText
 10
1485.5234375
 20
68.7470518868
 30
0.0
 40
25.78125
  1
F
 41
0.7440945272727272
  7
EXCADSTD
100
AcDbText
  0
TEXT
  5
664
330
1F
100
AcDbEntity
  8
LAY-255
  6
CONTINUOUS
 62
     7
100
AcDbText
 10
1685.52734375
 20
122.1093749999999
 30
0.0
 40
12.890625
  1
縮尺
 41
1.080708718181818
  7
EXCADSTD
100
AcDbText
  0
TEXT
  5
665
330
1F
100
AcDbEntity
  8
LAY-255
  6
CONTINUOUS
 62
     7
100
AcDbText
 10
1435.76171875
 20
122.1093749999999
 30
0.0
 40
12.890625
  1
作成日
 41
1.000629973818182
  7
EXCADSTD
100
AcDbText
  0
TEXT
  5
666
330
1F
100
AcDbEntity
  8
LAY-255
  6
CONTINUOUS
 62
     7
100
AcDbText
 10
1728.40625
 20
117.8124999999999
 30
0.0
 40
17.1875
  1
１：５,１：１
 41
0.8819559783040489
  7
EXCADSTD
100
AcDbText
  0
TEXT
  5
667
330
1F
100
AcDbEntity
  8
LAY-255
  6
CONTINUOUS
 62
     7
100
AcDbText
 10
1446.015625
 20
152.8124999999999
 30
0.0
 40
17.1875
  1
適用荷重：歩行用・Ｔ－２
 41
1.002822813036021
  7
EXCADSTD
100
AcDbText
  0
TEXT
  5
668
330
1F
100
AcDbEntity
  8
LAY-255
  6
CONTINUOUS
 62
     7
100
AcDbText
 10
1436.328125
 20
357.8125000000003
 30
0.0
 40
17.1875
  1
型式
 41
1.056348480681818
  7
EXCADSTD
100
AcDbText
  0
TEXT
  5
669
330
1F
100
AcDbEntity
  8
LAY-255
  6
CONTINUOUS
 62
     7
100
AcDbText
 10
1437.109375
 20
387.8125000000003
 30
0.0
 40
17.1875
  1
品名
 41
0.9788386340909091
  7
EXCADSTD
100
AcDbText
  0
TEXT
  5
66A
330
1F
100
AcDbEntity
  8
LAY-255
  6
CONTINUOUS
 62
     7
100
AcDbText
 10
1501.015625
 20
387.8125000000003
 30
0.0
 40
17.1875
  1
鋳鉄製ライナー側溝グレーチング
 41
1.017435374025974
  7
EXCADSTD
100
AcDbText
  0
TEXT
  5
66B
330
1F
100
AcDbEntity
  8
LAY-255
  6
CONTINUOUS
 62
     7
100
AcDbText
 10
1446.171875
 20
227.8125
 30
0.0
 40
17.1875
  1
表面：すべり止めクリスタル模様
 41
1.015836889542037
  7
EXCADSTD
100
AcDbText
  0
TEXT
  5
66C
330
1F
100
AcDbEntity
  8
LAY-255
  6
CONTINUOUS
 62
     7
100
AcDbText
 10
1445.859375
 20
277.8125000000003
 30
0.0
 40
17.1875
  1
仕上：インターロッキングブロック用
 41
1.011837149668874
  7
EXCADSTD
100
AcDbText
  0
TEXT
  5
66D
330
1F
100
AcDbEntity
  8
LAY-255
  6
CONTINUOUS
 62
     7
100
AcDbText
 10
1446.015625
 20
252.8125000000002
 30
0.0
 40
17.1875
  1
貼代：７０
 41
0.9987182359408034
  7
EXCADSTD
100
AcDbText
  0
TEXT
  5
66E
330
1F
100
AcDbEntity
  8
LAY-255
  6
CONTINUOUS
 62
     7
100
AcDbText
 10
1446.171875
 20
302.8125000000003
 30
0.0
 40
17.1875
  1
用途：Ｕ形側溝用
 41
1.014398253506493
  7
EXCADSTD
100
AcDbText
  0
TEXT
  5
66F
330
1F
100
AcDbEntity
  8
LAY-255
  6
CONTINUOUS
 62
     7
100
AcDbText
 10
1446.015625
 20
327.8125000000003
 30
0.0
 40
17.1875
  1
適用溝幅：１５０用
 41
1.014552031760644
  7
EXCADSTD
100
AcDbText
  0
TEXT
  5
670
330
1F
100
AcDbEntity
  8
LAY-255
  6
CONTINUOUS
 62
     7
100
AcDbText
 10
1505.625
 20
357.8125000000003
 30
0.0
 40
17.1875
  1
Ｆ２０－１５ＴＵＢ－Ｔ型
 41
0.9964716018867923
  7
EXCADSTD
100
AcDbText
  0
TEXT
  5
671
330
1F
100
AcDbEntity
  8
LAY-255
  6
CONTINUOUS
 62
     7
100
AcDbText
 10
1446.015625
 20
202.8124999999999
 30
0.0
 40
17.1875
  1
蓋　：スチール（溶融亜鉛めっき）
 41
0.9751580860435339
  7
EXCADSTD
100
AcDbText
  0
TEXT
  5
672
330
1F
100
AcDbEntity
  8
LAY-255
  6
CONTINUOUS
 62
     7
100
AcDbText
 10
1446.875
 20
177.8124999999999
 30
0.0
 40
17.1875
  1
受枠：スチール（溶融亜鉛めっき）
 41
0.9724132705505761
  7
EXCADSTD
100
AcDbText
  0
TEXT
  5
673
330
1F
100
AcDbEntity
  8
LAY-255
  6
CONTINUOUS
 62
     7
100
AcDbText
 10
1506.40625
 20
117.8124999999999
 30
0.0
 40
17.1875
  1
１７／０１／１９
 41
0.964285764935065
  7
EXCADSTD
100
AcDbText
  0
ENDSEC
  0
SECTION
  2
OBJECTS
  0
DICTIONARY
  5
C
330
0
100
AcDbDictionary
  3
ACAD_GROUP
350
D
  3
ACAD_LAYOUT
350
1A
  3
ACAD_MATERIAL
350
43
  3
ACAD_MLEADERSTYLE
350
6B
  3
ACAD_MLINESTYLE
350
17
  3
ACAD_PLOTSETTINGS
350
19
  3
ACAD_SCALELIST
350
47
  3
ACAD_VISUALSTYLE
350
2A
  3
ACDBHEADERROUNDTRIPXREC
350
674
  3
ACDBVARIABLEDICTIONARY
350
695
  0
DICTIONARY
  5
6A0
330
8
100
AcDbDictionary
280
     1
  3
ACAD_XREC_ROUNDTRIP
360
6A1
  0
DICTIONARY
  5
D
102
{ACAD_REACTORS
330
C
102
}
330
C
100
AcDbDictionary
  0
DICTIONARY
  5
1A
102
{ACAD_REACTORS
330
C
102
}
330
C
100
AcDbDictionary
  0
DICTIONARY
  5
43
102
{ACAD_REACTORS
330
C
102
}
330
C
100
AcDbDictionary
  3
BYBLOCK
350
45
  3
BYLAYER
350
44
  3
GLOBAL
350
46
  0
DICTIONARY
  5
6B
102
{ACAD_REACTORS
330
C
102
}
330
C
100
AcDbDictionary
  3
STANDARD
350
6C
  0
DICTIONARY
  5
17
102
{ACAD_REACTORS
330
C
102
}
330
C
100
AcDbDictionary
  3
STANDARD
350
18
  0
DICTIONARY
  5
19
102
{ACAD_REACTORS
330
C
102
}
330
C
100
AcDbDictionary
  0
DICTIONARY
  5
47
102
{ACAD_REACTORS
330
C
102
}
330
C
100
AcDbDictionary
  3
A0
350
48
  3
A1
350
49
  3
A2
350
4A
  3
A3
350
4B
  3
A4
350
4C
  3
A5
350
4D
  3
A6
350
4E
  3
A7
350
4F
  3
A8
350
50
  3
A9
350
51
  3
B0
350
52
  3
B1
350
53
  3
B2
350
54
  3
B3
350
55
  3
B4
350
56
  3
B5
350
57
  3
B6
350
58
  3
B7
350
59
  3
B8
350
5A
  3
B9
350
5B
  3
C0
350
5C
  3
C1
350
5D
  3
C2
350
5E
  3
C3
350
5F
  3
C4
350
60
  3
C5
350
61
  3
C6
350
62
  3
C7
350
63
  3
C8
350
64
  3
C9
350
65
  3
D0
350
66
  3
D1
350
67
  3
D2
350
68
  0
DICTIONARY
  5
2A
102
{ACAD_REACTORS
330
C
102
}
330
C
100
AcDbDictionary
  3
2DWIREFRAME
350
2F
  3
BASIC
350
32
  3
BRIGHTEN
350
36
  3
COLORCHANGE
350
3A
  3
CONCEPTUAL
350
34
  3
DIM
350
35
  3
EDGECOLOROFF
350
3D
  3
FACEPATTERN
350
39
  3
FLAT
350
2B
  3
FLATWITHEDGES
350
2C
  3
GOURAUD
350
2D
  3
GOURAUDWITHEDGES
350
2E
  3
HIDDEN
350
31
  3
JITTEROFF
350
3B
  3
LINEPATTERN
350
38
  3
OVERHANGOFF
350
3C
  3
REALISTIC
350
33
  3
SHADED
350
42
  3
SHADED_WITH_EDGES
350
41
  3
SHADES_OF_GRAY
350
3E
  3
SKETCHY
350
3F
  3
THICKEN
350
37
  3
WIREFRAME
350
30
  3
X-RAY
350
40
  0
DICTIONARY
  5
674
102
{ACAD_REACTORS
330
C
102
}
330
C
100
AcDbDictionary
  3
CEPSNID
350
67E
  3
CEPSNTYPE
350
67D
  3
DIMSTYLEDATA
350
694
  3
FINGERPRINTGUID
350
67F
  3
HYPERLINKBASE
350
677
  3
INSUNITS
350
67C
  3
LAYOUTDICT
350
679
  3
LWETCUNION
350
67B
  3
PLOTSETDICT
350
67A
  3
PSVPSCALE
350
681
  3
PUCSBASE
350
684
  3
PUCSORGBACK
350
68A
  3
PUCSORGBOTTOM
350
686
  3
PUCSORGFRONT
350
689
  3
PUCSORGLEFT
350
687
  3
PUCSORGRIGHT
350
688
  3
PUCSORGTOP
350
685
  3
PUCSORTHOREF
350
682
  3
PUCSORTHOVIEW
350
683
  3
STYLESHEET
350
678
  3
TSTACKALIGN
350
675
  3
TSTACKSIZE
350
676
  3
UCSBASE
350
68D
  3
UCSORGBACK
350
693
  3
UCSORGBOTTOM
350
68F
  3
UCSORGFRONT
350
692
  3
UCSORGLEFT
350
690
  3
UCSORGRIGHT
350
691
  3
UCSORGTOP
350
68E
  3
UCSORTHOREF
350
68B
  3
UCSORTHOVIEW
350
68C
  3
VERSIONGUID
350
680
  0
DICTIONARY
  5
695
102
{ACAD_REACTORS
330
C
102
}
330
C
100
AcDbDictionary
  3
CANNOSCALE
350
6A2
  3
CENTEREXE
350
69C
  3
CENTERLTYPEFILE
350
69D
  3
CMLEADERSTYLE
350
697
  3
CTABLESTYLE
350
696
  3
DIMASSOC
350
69E
  3
HIDETEXT
350
69F
  3
MSLTSCALE
350
6A3
  3
PSOLHEIGHT
350
699
  3
PSOLWIDTH
350
698
  0
XRECORD
  5
6A1
102
{ACAD_REACTORS
330
6A0
102
}
330
6A0
100
AcDbXrecord
102
VTR_0.000_0.000_1.000_1.000_VISUALSTYLE
340
2F
102
VTR_0.000_0.000_1.000_1.000_GRIDDISPLAY
 70
     3
102
VTR_0.000_0.000_1.000_1.000_GRIDMAJOR
 70
     5
102
VTR_0.000_0.000_1.000_1.000_DEFAULTLIGHTING
280
     1
102
VTR_0.000_0.000_1.000_1.000_DEFAULTLIGHTINGTYPE
 70
     1
102
VTR_0.000_0.000_1.000_1.000_BRIGHTNESS
141
0.0
102
VTR_0.000_0.000_1.000_1.000_CONTRAST
142
0.0
  0
MATERIAL
  5
45
102
{ACAD_REACTORS
330
43
102
}
102
{ACAD_XDICTIONARY
360
6A6
102
}
330
43
100
AcDbMaterial
  1
BYBLOCK
  0
MATERIAL
  5
44
102
{ACAD_REACTORS
330
43
102
}
102
{ACAD_XDICTIONARY
360
6A4
102
}
330
43
100
AcDbMaterial
  1
BYLAYER
  0
MATERIAL
  5
46
102
{ACAD_REACTORS
330
43
102
}
102
{ACAD_XDICTIONARY
360
6A8
102
}
330
43
100
AcDbMaterial
  1
GLOBAL
  0
ACAD_PROXY_OBJECT
  5
6C
102
{ACAD_REACTORS
330
6B
102
}
330
6B
100
AcDbProxyObject
 90
      499
 91
      505
 93
      610
310
40901902A4063FBFFFFFE0000000000000020400000000000020404214DD185B99185C990000000000000104090141901A00000000000004100000000000000041025764000000000000039000
340
14
340
0
340
11
340
0
 94
        0
1001
ACAD_MLEADERVER
1070
     2
  0
MLINESTYLE
  5
18
102
{ACAD_REACTORS
330
17
102
}
330
17
100
AcDbMlineStyle
  2
Standard
 70
     0
  3

 62
   256
 51
90.0
 52
90.0
 71
     2
 49
0.5
 62
   256
  6
BYLAYER
 49
-0.5
 62
   256
  6
BYLAYER
  0
ACAD_PROXY_OBJECT
  5
48
102
{ACAD_REACTORS
330
47
102
}
330
47
100
AcDbProxyObject
 90
      499
 91
      503
 93
       41
310
903313A31580
  0
ACAD_PROXY_OBJECT
  5
49
102
{ACAD_REACTORS
330
47
102
}
330
47
100
AcDbProxyObject
 90
      499
 91
      503
 93
      105
310
903313A324000000000000004000
  0
ACAD_PROXY_OBJECT
  5
4A
102
{ACAD_REACTORS
330
47
102
}
330
47
100
AcDbProxyObject
 90
      499
 91
      503
 93
      105
310
903313A344000000000000104000
  0
ACAD_PROXY_OBJECT
  5
4B
102
{ACAD_REACTORS
330
47
102
}
330
47
100
AcDbProxyObject
 90
      499
 91
      503
 93
      105
310
903313A354000000000000144000
  0
ACAD_PROXY_OBJECT
  5
4C
102
{ACAD_REACTORS
330
47
102
}
330
47
100
AcDbProxyObject
 90
      499
 91
      503
 93
      105
310
903313A384000000000000204000
  0
ACAD_PROXY_OBJECT
  5
4D
102
{ACAD_REACTORS
330
47
102
}
330
47
100
AcDbProxyObject
 90
      499
 91
      503
 93
      113
310
904313A31304000000000000244000
  0
ACAD_PROXY_OBJECT
  5
4E
102
{ACAD_REACTORS
330
47
102
}
330
47
100
AcDbProxyObject
 90
      499
 91
      503
 93
      113
310
904313A31364000000000000304000
  0
ACAD_PROXY_OBJECT
  5
4F
102
{ACAD_REACTORS
330
47
102
}
330
47
100
AcDbProxyObject
 90
      499
 91
      503
 93
      113
310
904313A32304000000000000344000
  0
ACAD_PROXY_OBJECT
  5
50
102
{ACAD_REACTORS
330
47
102
}
330
47
100
AcDbProxyObject
 90
      499
 91
      503
 93
      113
310
904313A333040000000000003E4000
  0
ACAD_PROXY_OBJECT
  5
51
102
{ACAD_REACTORS
330
47
102
}
330
47
100
AcDbProxyObject
 90
      499
 91
      503
 93
      113
310
904313A34304000000000000444000
  0
ACAD_PROXY_OBJECT
  5
52
102
{ACAD_REACTORS
330
47
102
}
330
47
100
AcDbProxyObject
 90
      499
 91
      503
 93
      113
310
904313A35304000000000000494000
  0
ACAD_PROXY_OBJECT
  5
53
102
{ACAD_REACTORS
330
47
102
}
330
47
100
AcDbProxyObject
 90
      499
 91
      503
 93
      121
310
905313A3130304000000000000594000
  0
ACAD_PROXY_OBJECT
  5
54
102
{ACAD_REACTORS
330
47
102
}
330
47
100
AcDbProxyObject
 90
      499
 91
      503
 93
      105
310
903323A310000000000000010100
  0
ACAD_PROXY_OBJECT
  5
55
102
{ACAD_REACTORS
330
47
102
}
330
47
100
AcDbProxyObject
 90
      499
 91
      503
 93
      105
310
903343A310000000000000410100
  0
ACAD_PROXY_OBJECT
  5
56
102
{ACAD_REACTORS
330
47
102
}
330
47
100
AcDbProxyObject
 90
      499
 91
      503
 93
      105
310
903383A310000000000000810100
  0
ACAD_PROXY_OBJECT
  5
57
102
{ACAD_REACTORS
330
47
102
}
330
47
100
AcDbProxyObject
 90
      499
 91
      503
 93
      113
310
90431303A310000000000000910100
  0
ACAD_PROXY_OBJECT
  5
58
102
{ACAD_REACTORS
330
47
102
}
330
47
100
AcDbProxyObject
 90
      499
 91
      503
 93
      121
310
9053130303A310000000000001650100
  0
ACAD_PROXY_OBJECT
  5
59
102
{ACAD_REACTORS
330
47
102
}
330
47
100
AcDbProxyObject
 90
      499
 91
      503
 93
      257
310
90E312F31323822203D2031272D3022000000000000200FC000000000000284000
  0
ACAD_PROXY_OBJECT
  5
5A
102
{ACAD_REACTORS
330
47
102
}
330
47
100
AcDbProxyObject
 90
      499
 91
      503
 93
      249
310
90D312F363422203D2031272D3022000000000000240FC000000000000284000
  0
ACAD_PROXY_OBJECT
  5
5B
102
{ACAD_REACTORS
330
47
102
}
330
47
100
AcDbProxyObject
 90
      499
 91
      503
 93
      249
310
90D312F333222203D2031272D3022000000000000280FC000000000000284000
  0
ACAD_PROXY_OBJECT
  5
5C
102
{ACAD_REACTORS
330
47
102
}
330
47
100
AcDbProxyObject
 90
      499
 91
      503
 93
      249
310
90D312F313622203D2031272D30220000000000002C0FC000000000000284000
  0
ACAD_PROXY_OBJECT
  5
5D
102
{ACAD_REACTORS
330
47
102
}
330
47
100
AcDbProxyObject
 90
      499
 91
      503
 93
      249
310
90D332F333222203D2031272D30220000000000002E0FC000000000000284000
  0
ACAD_PROXY_OBJECT
  5
5E
102
{ACAD_REACTORS
330
47
102
}
330
47
100
AcDbProxyObject
 90
      499
 91
      503
 93
      241
310
90C312F3822203D2031272D3022000000000000300FC000000000000284000
  0
ACAD_PROXY_OBJECT
  5
5F
102
{ACAD_REACTORS
330
47
102
}
330
47
100
AcDbProxyObject
 90
      499
 91
      503
 93
      249
310
90D332F313622203D2031272D3022000000000000320FC000000000000284000
  0
ACAD_PROXY_OBJECT
  5
60
102
{ACAD_REACTORS
330
47
102
}
330
47
100
AcDbProxyObject
 90
      499
 91
      503
 93
      241
310
90C312F3422203D2031272D3022000000000000340FC000000000000284000
  0
ACAD_PROXY_OBJECT
  5
61
102
{ACAD_REACTORS
330
47
102
}
330
47
100
AcDbProxyObject
 90
      499
 91
      503
 93
      241
310
90C332F3822203D2031272D3022000000000000360FC000000000000284000
  0
ACAD_PROXY_OBJECT
  5
62
102
{ACAD_REACTORS
330
47
102
}
330
47
100
AcDbProxyObject
 90
      499
 91
      503
 93
      241
310
90C312F3222203D2031272D3022000000000000380FC000000000000284000
  0
ACAD_PROXY_OBJECT
  5
63
102
{ACAD_REACTORS
330
47
102
}
330
47
100
AcDbProxyObject
 90
      499
 91
      503
 93
      241
310
90C332F3422203D2031272D30220000000000003A0FC000000000000284000
  0
ACAD_PROXY_OBJECT
  5
64
102
{ACAD_REACTORS
330
47
102
}
330
47
100
AcDbProxyObject
 90
      499
 91
      503
 93
      161
310
90A3122203D2031272D30224000000000000284000
  0
ACAD_PROXY_OBJECT
  5
65
102
{ACAD_REACTORS
330
47
102
}
330
47
100
AcDbProxyObject
 90
      499
 91
      503
 93
      257
310
90E312D312F3222203D2031272D30220000000000003E0FC000000000000284000
  0
ACAD_PROXY_OBJECT
  5
66
102
{ACAD_REACTORS
330
47
102
}
330
47
100
AcDbProxyObject
 90
      499
 91
      503
 93
      225
310
90A3322203D2031272D302200000000000002100000000000000284000
  0
ACAD_PROXY_OBJECT
  5
67
102
{ACAD_REACTORS
330
47
102
}
330
47
100
AcDbProxyObject
 90
      499
 91
      503
 93
      225
310
90A3622203D2031272D302200000000000006100000000000000284000
  0
ACAD_PROXY_OBJECT
  5
68
102
{ACAD_REACTORS
330
47
102
}
330
47
100
AcDbProxyObject
 90
      499
 91
      503
 93
      249
310
90D31272D3022203D2031272D30220000000000000A100000000000000284000
  0
ACAD_PROXY_OBJECT
  5
2F
102
{ACAD_REACTORS
330
2A
102
}
330
2A
100
AcDbProxyObject
 90
      499
 91
      501
 93
      436
310
42CC9915DA5C99599C985B595049028333333333333E33F0000000000000F90107901411070040501600405405064090741402480A0340
1001
ACAD
1000
AcDbSavedByObjectVersion
1070
     0
  0
ACAD_PROXY_OBJECT
  5
32
102
{ACAD_REACTORS
330
2A
102
}
330
2A
100
AcDbProxyObject
 90
      499
 91
      501
 93
      388
310
4150985CDA58D07406404333333333333E33F0000000000000F90107A41107004050150841D405064090741402480A0350
1001
ACAD
1000
AcDbSavedByObjectVersion
1070
     0
  0
ACAD_PROXY_OBJECT
  5
36
102
{ACAD_REACTORS
330
2A
102
}
330
2A
100
AcDbProxyObject
 90
      499
 91
      501
 93
      428
310
42109C9A59DA1D195B90C409028333333333333E33F0000000000000F9010790141107004050150841D405064090741402480A029950
1001
ACAD
1000
AcDbSavedByObjectVersion
1070
     0
  0
ACAD_PROXY_OBJECT
  5
3A
102
{ACAD_REACTORS
330
2A
102
}
330
2A
100
AcDbProxyObject
 90
      499
 91
      501
 93
      452
310
42D0DBDB1BDC90DA185B99D95104090240C333333333333E33F0000000000000F90108901411070040501508421405064090741402480A0350
1001
ACAD
1000
AcDbSavedByObjectVersion
1070
     0
  0
ACAD_PROXY_OBJECT
  5
34
102
{ACAD_REACTORS
330
2A
102
}
330
2A
100
AcDbProxyObject
 90
      499
 91
      501
 93
      500
310
4290DBDB98D95C1D1D585B10940D028333333333333E33F0000000000000F90107902409070040501000000000018199010841D405064090740C02480A0340
1001
ACAD
1000
AcDbSavedByObjectVersion
1070
     0
  0
ACAD_PROXY_OBJECT
  5
35
102
{ACAD_REACTORS
330
2A
102
}
330
2A
100
AcDbProxyObject
 90
      499
 91
      501
 93
      412
310
40D11A5B50B409028333333333333E33F0000000000000F9010790141107004050150841D405064090741402480A02677FFFFFD0
1001
ACAD
1000
AcDbSavedByObjectVersion
1070
     0
  0
ACAD_PROXY_OBJECT
  5
3D
102
{ACAD_REACTORS
330
2A
102
}
330
2A
100
AcDbProxyObject
 90
      499
 91
      501
 93
      452
310
43115919D950DBDB1BDC93D999916409028333333333333E33F0000000000000F9010790141107004050150841D405064090741402480A0350
1001
ACAD
1000
AcDbSavedByObjectVersion
1070
     0
  0
ACAD_PROXY_OBJECT
  5
39
102
{ACAD_REACTORS
330
2A
102
}
330
2A
100
AcDbProxyObject
 90
      499
 91
      501
 93
      444
310
42D19858D95C185D1D195C9B90F409028333333333333E33F0000000000000F9010790141107004050150841D405064090741402480A0350
1001
ACAD
1000
AcDbSavedByObjectVersion
1070
     0
  0
ACAD_PROXY_OBJECT
  5
2B
102
{ACAD_REACTORS
330
2A
102
}
330
2A
100
AcDbProxyObject
 90
      499
 91
      501
 93
      380
310
41119B185D240901404333333333333E33F0000000000000F9010740A907004050150841D405064090741402480A1B50
1001
ACAD
1000
AcDbSavedByObjectVersion
1070
     0
  0
ACAD_PROXY_OBJECT
  5
2C
102
{ACAD_REACTORS
330
2A
102
}
330
2A
100
AcDbProxyObject
 90
      499
 91
      501
 93
      468
310
43519B185D15DA5D1A115919D95CD0140901404333333333333E33F0000000000000F90107409019070040501600405405064090741402480A1B50
1001
ACAD
1000
AcDbSavedByObjectVersion
1070
     0
  0
ACAD_PROXY_OBJECT
  5
2D
102
{ACAD_REACTORS
330
2A
102
}
330
2A
100
AcDbProxyObject
 90
      499
 91
      501
 93
      404
310
41D1DBDD5C985D5910240902404333333333333E33F0000000000000F9010740A9070040501641D405064090741402480A1B50
1001
ACAD
1000
AcDbSavedByObjectVersion
1070
     0
  0
ACAD_PROXY_OBJECT
  5
2E
102
{ACAD_REACTORS
330
2A
102
}
330
2A
100
AcDbProxyObject
 90
      499
 91
      501
 93
      492
310
4411DBDD5C985D5915DA5D1A115919D95CD0340902404333333333333E33F0000000000000F90107409019070040501600405405064090741402480A1B50
1001
ACAD
1000
AcDbSavedByObjectVersion
1070
     0
  0
ACAD_PROXY_OBJECT
  5
31
102
{ACAD_REACTORS
330
2A
102
}
330
2A
100
AcDbProxyObject
 90
      499
 91
      501
 93
      476
310
41921A5919195B90640502408333333333333E33F0000000000000F901079024090700405020000000000001110200405405064090740C02480A0340
1001
ACAD
1000
AcDbSavedByObjectVersion
1070
     0
  0
ACAD_PROXY_OBJECT
  5
3B
102
{ACAD_REACTORS
330
2A
102
}
330
2A
100
AcDbProxyObject
 90
      499
 91
      501
 93
      428
310
42529A5D1D195C93D999914409028333333333333E33F0000000000000F9010790141107004050150A41D405064090741402480A0350
1001
ACAD
1000
AcDbSavedByObjectVersion
1070
     0
  0
ACAD_PROXY_OBJECT
  5
38
102
{ACAD_REACTORS
330
2A
102
}
330
2A
100
AcDbProxyObject
 90
      499
 91
      501
 93
      444
310
42D31A5B995C185D1D195C9B90E409028333333333333E33F0000000000000F9010790141107004050750841D405064090741402483A0350
1001
ACAD
1000
AcDbSavedByObjectVersion
1070
     0
  0
ACAD_PROXY_OBJECT
  5
3C
102
{ACAD_REACTORS
330
2A
102
}
330
2A
100
AcDbProxyObject
 90
      499
 91
      501
 93
      444
310
42D3DD995C9A185B99D3D999915409028333333333333E33F0000000000000F9010790141107004050150941D405064090741402480A0350
1001
ACAD
1000
AcDbSavedByObjectVersion
1070
     0
  0
ACAD_PROXY_OBJECT
  5
33
102
{ACAD_REACTORS
330
2A
102
}
330
2A
100
AcDbProxyObject
 90
      499
 91
      501
 93
      428
310
425499585B1A5CDD1A58D08409038333333333333E33F0000000000000F9010740A907004050150800405405064090740C02480A1B40
1001
ACAD
1000
AcDbSavedByObjectVersion
1070
     0
  0
ACAD_PROXY_OBJECT
  5
42
102
{ACAD_REACTORS
330
2A
102
}
330
2A
100
AcDbProxyObject
 90
      499
 91
      501
 93
      420
310
4194DA1859195911B40902404333333333333E33F0000000000000F9010740A41107004050150800405405064090840C02480A0B40
1001
ACAD
1000
AcDbSavedByObjectVersion
1070
     0
  0
ACAD_PROXY_OBJECT
  5
41
102
{ACAD_REACTORS
330
2A
102
}
330
2A
100
AcDbProxyObject
 90
      499
 91
      501
 93
      516
310
4454DA18591959081DDA5D1A08195919D95CD1A40902404333333333333E33F0000000000000F901074090142907004050250800405405064090740C02480A0B40
1001
ACAD
1000
AcDbSavedByObjectVersion
1070
     0
  0
ACAD_PROXY_OBJECT
  5
3E
102
{ACAD_REACTORS
330
2A
102
}
330
2A
100
AcDbProxyObject
 90
      499
 91
      501
 93
      532
310
4394DA1859195CC81BD98811DC985E5174090240C333333333333E33F0000000000000F901079024090741D01000000000000111010841D405064090740C02480A0340
1001
ACAD
1000
AcDbSavedByObjectVersion
1070
     0
  0
ACAD_PROXY_OBJECT
  5
3F
102
{ACAD_REACTORS
330
2A
102
}
330
2A
100
AcDbProxyObject
 90
      499
 91
      501
 93
      476
310
41D4DAD95D18DA1E51840502408333333333333E33F0000000000000F901079024090741D01000000000000111010B41D405064090741802480A0340
1001
ACAD
1000
AcDbSavedByObjectVersion
1070
     0
  0
ACAD_PROXY_OBJECT
  5
37
102
{ACAD_REACTORS
330
2A
102
}
330
2A
100
AcDbProxyObject
 90
      499
 91
      501
 93
      412
310
41D51A1A58DAD95B90D409028333333333333E33F0000000000000F9010790141107004050150C41D405064090741402480A0350
1001
ACAD
1000
AcDbSavedByObjectVersion
1070
     0
  0
ACAD_PROXY_OBJECT
  5
30
102
{ACAD_REACTORS
330
2A
102
}
330
2A
100
AcDbProxyObject
 90
      499
 91
      501
 93
      420
310
4255DA5C99599C985B595059028333333333333E33F0000000000000F90107901411070040501600405405064090740C02480A0340
1001
ACAD
1000
AcDbSavedByObjectVersion
1070
     0
  0
ACAD_PROXY_OBJECT
  5
40
102
{ACAD_REACTORS
330
2A
102
}
330
2A
100
AcDbProxyObject
 90
      499
 91
      501
 93
      404
310
41560B54985E51940902404000000000000E03F0000000000000F9010740501907004050150841D405064090740C02480A1B40
1001
ACAD
1000
AcDbSavedByObjectVersion
1070
     0
  0
XRECORD
  5
67E
102
{ACAD_REACTORS
330
674
102
}
330
674
100
AcDbXrecord
340
0
  0
XRECORD
  5
67D
102
{ACAD_REACTORS
330
674
102
}
330
674
100
AcDbXrecord
 90
        0
  0
XRECORD
  5
694
102
{ACAD_REACTORS
330
674
102
}
330
674
100
AcDbXrecord
1000
DSTYLE
1002
{
1070
   340
340
11
1002
}
  0
XRECORD
  5
67F
102
{ACAD_REACTORS
330
674
102
}
330
674
100
AcDbXrecord
  1
{2b1de4af-fa39-4517-9d8e-a310215ca512}
  0
XRECORD
  5
677
102
{ACAD_REACTORS
330
674
102
}
330
674
100
AcDbXrecord
  1

  0
XRECORD
  5
67C
102
{ACAD_REACTORS
330
674
102
}
330
674
100
AcDbXrecord
 90
        4
  0
XRECORD
  5
679
102
{ACAD_REACTORS
330
674
102
}
330
674
100
AcDbXrecord
340
1A
  0
XRECORD
  5
67B
102
{ACAD_REACTORS
330
674
102
}
330
674
100
AcDbXrecord
 90
    10781
  0
XRECORD
  5
67A
102
{ACAD_REACTORS
330
674
102
}
330
674
100
AcDbXrecord
340
19
  0
XRECORD
  5
681
102
{ACAD_REACTORS
330
674
102
}
330
674
100
AcDbXrecord
 40
0.0
  0
XRECORD
  5
684
102
{ACAD_REACTORS
330
674
102
}
330
674
100
AcDbXrecord
340
0
  0
XRECORD
  5
68A
102
{ACAD_REACTORS
330
674
102
}
330
674
100
AcDbXrecord
 10
0.0
 20
0.0
 30
0.0
  0
XRECORD
  5
686
102
{ACAD_REACTORS
330
674
102
}
330
674
100
AcDbXrecord
 10
0.0
 20
0.0
 30
0.0
  0
XRECORD
  5
689
102
{ACAD_REACTORS
330
674
102
}
330
674
100
AcDbXrecord
 10
0.0
 20
0.0
 30
0.0
  0
XRECORD
  5
687
102
{ACAD_REACTORS
330
674
102
}
330
674
100
AcDbXrecord
 10
0.0
 20
0.0
 30
0.0
  0
XRECORD
  5
688
102
{ACAD_REACTORS
330
674
102
}
330
674
100
AcDbXrecord
 10
0.0
 20
0.0
 30
0.0
  0
XRECORD
  5
685
102
{ACAD_REACTORS
330
674
102
}
330
674
100
AcDbXrecord
 10
0.0
 20
0.0
 30
0.0
  0
XRECORD
  5
682
102
{ACAD_REACTORS
330
674
102
}
330
674
100
AcDbXrecord
340
0
  0
XRECORD
  5
683
102
{ACAD_REACTORS
330
674
102
}
330
674
100
AcDbXrecord
 70
     0
  0
XRECORD
  5
678
102
{ACAD_REACTORS
330
674
102
}
330
674
100
AcDbXrecord
  1

  0
XRECORD
  5
675
102
{ACAD_REACTORS
330
674
102
}
330
674
100
AcDbXrecord
 90
        1
  0
XRECORD
  5
676
102
{ACAD_REACTORS
330
674
102
}
330
674
100
AcDbXrecord
 90
       70
  0
XRECORD
  5
68D
102
{ACAD_REACTORS
330
674
102
}
330
674
100
AcDbXrecord
340
0
  0
XRECORD
  5
693
102
{ACAD_REACTORS
330
674
102
}
330
674
100
AcDbXrecord
 10
0.0
 20
0.0
 30
0.0
  0
XRECORD
  5
68F
102
{ACAD_REACTORS
330
674
102
}
330
674
100
AcDbXrecord
 10
0.0
 20
0.0
 30
0.0
  0
XRECORD
  5
692
102
{ACAD_REACTORS
330
674
102
}
330
674
100
AcDbXrecord
 10
0.0
 20
0.0
 30
0.0
  0
XRECORD
  5
690
102
{ACAD_REACTORS
330
674
102
}
330
674
100
AcDbXrecord
 10
0.0
 20
0.0
 30
0.0
  0
XRECORD
  5
691
102
{ACAD_REACTORS
330
674
102
}
330
674
100
AcDbXrecord
 10
0.0
 20
0.0
 30
0.0
  0
XRECORD
  5
68E
102
{ACAD_REACTORS
330
674
102
}
330
674
100
AcDbXrecord
 10
0.0
 20
0.0
 30
0.0
  0
XRECORD
  5
68B
102
{ACAD_REACTORS
330
674
102
}
330
674
100
AcDbXrecord
340
0
  0
XRECORD
  5
68C
102
{ACAD_REACTORS
330
674
102
}
330
674
100
AcDbXrecord
 70
     0
  0
XRECORD
  5
680
102
{ACAD_REACTORS
330
674
102
}
330
674
100
AcDbXrecord
  1
{FAEB1C32-E019-11D5-929B-00C0DF256EC4}
  0
DICTIONARYVAR
  5
6A2
102
{ACAD_REACTORS
330
695
102
}
330
695
100
DictionaryVariables
280
     0
  1
1:1
  0
DICTIONARYVAR
  5
69C
102
{ACAD_REACTORS
330
695
102
}
330
695
100
DictionaryVariables
280
     0
  1
3.500000
  0
DICTIONARYVAR
  5
69D
102
{ACAD_REACTORS
330
695
102
}
330
695
100
DictionaryVariables
280
     0
  1
acadiso.lin
  0
DICTIONARYVAR
  5
697
102
{ACAD_REACTORS
330
695
102
}
330
695
100
DictionaryVariables
280
     0
  1
Standard
  0
DICTIONARYVAR
  5
696
102
{ACAD_REACTORS
330
695
102
}
330
695
100
DictionaryVariables
280
     0
  1
Standard
  0
DICTIONARYVAR
  5
69E
102
{ACAD_REACTORS
330
695
102
}
330
695
100
DictionaryVariables
280
     0
  1
2
  0
DICTIONARYVAR
  5
69F
102
{ACAD_REACTORS
330
695
102
}
330
695
100
DictionaryVariables
280
     0
  1
1
  0
DICTIONARYVAR
  5
6A3
102
{ACAD_REACTORS
330
695
102
}
330
695
100
DictionaryVariables
280
     0
  1
1
  0
DICTIONARYVAR
  5
699
102
{ACAD_REACTORS
330
695
102
}
330
695
100
DictionaryVariables
280
     0
  1
80.000000
  0
DICTIONARYVAR
  5
698
102
{ACAD_REACTORS
330
695
102
}
330
695
100
DictionaryVariables
280
     0
  1
5.000000
  0
DICTIONARY
  5
6A6
330
45
100
AcDbDictionary
280
     1
  3
ACAD_XREC_ROUNDTRIP
360
6A7
  0
DICTIONARY
  5
6A4
330
44
100
AcDbDictionary
280
     1
  3
ACAD_XREC_ROUNDTRIP
360
6A5
  0
DICTIONARY
  5
6A8
330
46
100
AcDbDictionary
280
     1
  3
ACAD_XREC_ROUNDTRIP
360
6A9
  0
XRECORD
  5
6A7
102
{ACAD_REACTORS
330
6A6
102
}
330
6A6
100
AcDbXrecord
102
MATERIAL
148
0.0
149
0.0
149
0.0
 93
        0
 94
      127
282
     0
 72
     1
 77
     1
171
     1
175
     1
179
     1
273
     0
  0
XRECORD
  5
6A5
102
{ACAD_REACTORS
330
6A4
102
}
330
6A4
100
AcDbXrecord
102
MATERIAL
148
0.0
149
0.0
149
0.0
 93
        0
 94
      127
282
     0
 72
     1
 77
     1
171
     1
175
     1
179
     1
273
     0
  0
XRECORD
  5
6A9
102
{ACAD_REACTORS
330
6A8
102
}
330
6A8
100
AcDbXrecord
102
MATERIAL
148
0.0
149
0.0
149
0.0
 93
        0
 94
      127
282
     0
 72
     1
 77
     1
171
     1
175
     1
179
     1
273
     0
  0
ENDSEC
  0
EOF
