  0
SECTION
  2
HEADER
  9
$ACADVER
  1
AC1014
  9
$ACADMAINTVER
 70
     9
  9
$DWGCODEPAGE
  3
ANSI_932
  9
$INSBASE
 10
0.0
 20
0.0
 30
0.0
  9
$EXTMIN
 10
25.0
 20
50.0
 30
0.0
  9
$EXTMAX
 10
1925.0
 20
1400.0
 30
0.0
  9
$LIMMIN
 10
0.0
 20
0.0
  9
$LIMMAX
 10
420.0
 20
297.0
  9
$ORTHOMODE
 70
     0
  9
$REGENMODE
 70
     1
  9
$FILLMODE
 70
     1
  9
$QTEXTMODE
 70
     0
  9
$MIRRTEXT
 70
     1
  9
$DRAGMODE
 70
     2
  9
$LTSCALE
 40
0.2
  9
$OSMODE
 70
    37
  9
$ATTMODE
 70
     1
  9
$TEXTSIZE
 40
2.5
  9
$TRACEWID
 40
1.0
  9
$TEXTSTYLE
  7
STANDARD
  9
$CLAYER
  8
LAY-10
  9
$CELTYPE
  6
BYLAYER
  9
$CECOLOR
 62
   256
  9
$CELTSCALE
 40
1.0
  9
$DELOBJ
 70
     1
  9
$DISPSILH
 70
     0
  9
$DIMSCALE
 40
1.0
  9
$DIMASZ
 40
2.5
  9
$DIMEXO
 40
0.625
  9
$DIMDLI
 40
3.75
  9
$DIMRND
 40
0.0
  9
$DIMDLE
 40
0.0
  9
$DIMEXE
 40
1.25
  9
$DIMTP
 40
0.0
  9
$DIMTM
 40
0.0
  9
$DIMTXT
 40
2.5
  9
$DIMCEN
 40
2.5
  9
$DIMTSZ
 40
0.0
  9
$DIMTOL
 70
     0
  9
$DIMLIM
 70
     0
  9
$DIMTIH
 70
     0
  9
$DIMTOH
 70
     0
  9
$DIMSE1
 70
     0
  9
$DIMSE2
 70
     0
  9
$DIMTAD
 70
     1
  9
$DIMZIN
 70
     8
  9
$DIMBLK
  1

  9
$DIMASO
 70
     1
  9
$DIMSHO
 70
     1
  9
$DIMPOST
  1

  9
$DIMAPOST
  1

  9
$DIMALT
 70
     0
  9
$DIMALTD
 70
     3
  9
$DIMALTF
 40
0.03937007874016
  9
$DIMLFAC
 40
1.0
  9
$DIMTOFL
 70
     1
  9
$DIMTVP
 40
0.0
  9
$DIMTIX
 70
     0
  9
$DIMSOXD
 70
     0
  9
$DIMSAH
 70
     0
  9
$DIMBLK1
  1

  9
$DIMBLK2
  1

  9
$DIMSTYLE
  2
ISO-25
  9
$DIMCLRD
 70
     0
  9
$DIMCLRE
 70
     0
  9
$DIMCLRT
 70
     0
  9
$DIMTFAC
 40
1.0
  9
$DIMGAP
 40
0.625
  9
$DIMJUST
 70
     0
  9
$DIMSD1
 70
     0
  9
$DIMSD2
 70
     0
  9
$DIMTOLJ
 70
     0
  9
$DIMTZIN
 70
     8
  9
$DIMALTZ
 70
     0
  9
$DIMALTTZ
 70
     0
  9
$DIMFIT
 70
     3
  9
$DIMUPT
 70
     0
  9
$DIMUNIT
 70
     2
  9
$DIMDEC
 70
     2
  9
$DIMTDEC
 70
     2
  9
$DIMALTU
 70
     2
  9
$DIMALTTD
 70
     3
  9
$DIMTXSTY
  7
STANDARD
  9
$DIMAUNIT
 70
     0
  9
$LUNITS
 70
     2
  9
$LUPREC
 70
     4
  9
$SKETCHINC
 40
1.0
  9
$FILLETRAD
 40
10.0
  9
$AUNITS
 70
     0
  9
$AUPREC
 70
     0
  9
$MENU
  1
.
  9
$ELEVATION
 40
0.0
  9
$PELEVATION
 40
0.0
  9
$THICKNESS
 40
0.0
  9
$LIMCHECK
 70
     0
  9
$CHAMFERA
 40
0.0
  9
$CHAMFERB
 40
0.0
  9
$CHAMFERC
 40
0.0
  9
$CHAMFERD
 40
0.0
  9
$SKPOLY
 70
     0
  9
$TDCREATE
 40
2459321.480825949
  9
$TDUPDATE
 40
2459321.480826736
  9
$TDINDWG
 40
0.0000000116
  9
$TDUSRTIMER
 40
0.0000000116
  9
$USRTIMER
 70
     1
  9
$ANGBASE
 50
0.0
  9
$ANGDIR
 70
     0
  9
$PDMODE
 70
     0
  9
$PDSIZE
 40
0.0
  9
$PLINEWID
 40
0.0
  9
$COORDS
 70
     1
  9
$SPLFRAME
 70
     0
  9
$SPLINETYPE
 70
     6
  9
$SPLINESEGS
 70
     8
  9
$ATTDIA
 70
     0
  9
$ATTREQ
 70
     1
  9
$HANDLING
 70
     1
  9
$HANDSEED
  5
6AD
  9
$SURFTAB1
 70
     6
  9
$SURFTAB2
 70
     6
  9
$SURFTYPE
 70
     6
  9
$SURFU
 70
     6
  9
$SURFV
 70
     6
  9
$UCSNAME
  2

  9
$UCSORG
 10
0.0
 20
0.0
 30
0.0
  9
$UCSXDIR
 10
1.0
 20
0.0
 30
0.0
  9
$UCSYDIR
 10
0.0
 20
1.0
 30
0.0
  9
$PUCSNAME
  2

  9
$PUCSORG
 10
0.0
 20
0.0
 30
0.0
  9
$PUCSXDIR
 10
1.0
 20
0.0
 30
0.0
  9
$PUCSYDIR
 10
0.0
 20
1.0
 30
0.0
  9
$USERI1
 70
     0
  9
$USERI2
 70
     0
  9
$USERI3
 70
     0
  9
$USERI4
 70
     0
  9
$USERI5
 70
     0
  9
$USERR1
 40
0.0
  9
$USERR2
 40
0.0
  9
$USERR3
 40
0.0
  9
$USERR4
 40
0.0
  9
$USERR5
 40
0.0
  9
$WORLDVIEW
 70
     1
  9
$SHADEDGE
 70
     3
  9
$SHADEDIF
 70
    70
  9
$TILEMODE
 70
     1
  9
$MAXACTVP
 70
    64
  9
$PINSBASE
 10
0.0
 20
0.0
 30
0.0
  9
$PLIMCHECK
 70
     0
  9
$PEXTMIN
 10
1.000000000000000E+20
 20
1.000000000000000E+20
 30
1.000000000000000E+20
  9
$PEXTMAX
 10
-1.000000000000000E+20
 20
-1.000000000000000E+20
 30
-1.000000000000000E+20
  9
$PLIMMIN
 10
0.0
 20
0.0
  9
$PLIMMAX
 10
420.0
 20
297.0
  9
$UNITMODE
 70
     0
  9
$VISRETAIN
 70
     1
  9
$PLINEGEN
 70
     0
  9
$PSLTSCALE
 70
     1
  9
$TREEDEPTH
 70
  3020
  9
$PICKSTYLE
 70
     1
  9
$CMLSTYLE
  2
STANDARD
  9
$CMLJUST
 70
     0
  9
$CMLSCALE
 40
20.0
  9
$PROXYGRAPHICS
 70
     1
  9
$MEASUREMENT
 70
     1
  0
ENDSEC
  0
SECTION
  2
CLASSES
  0
CLASS
  1
ACDBDICTIONARYWDFLT
  2
AcDbDictionaryWithDefault
  3
ObjectDBX Classes
 90
        0
280
     0
281
     0
  0
CLASS
  1
VISUALSTYLE
  2
AcDbVisualStyle
  3
ObjectDBX Classes
 90
     4095
280
     0
281
     0
  0
CLASS
  1
MATERIAL
  2
AcDbMaterial
  3
ObjectDBX Classes
 90
     1153
280
     0
281
     0
  0
CLASS
  1
SCALE
  2
AcDbScale
  3
ObjectDBX Classes
 90
     1153
280
     0
281
     0
  0
CLASS
  1
TABLESTYLE
  2
AcDbTableStyle
  3
ObjectDBX Classes
 90
     4095
280
     0
281
     0
  0
CLASS
  1
MLEADERSTYLE
  2
AcDbMLeaderStyle
  3
ACDB_MLEADERSTYLE_CLASS
 90
     4095
280
     0
281
     0
  0
CLASS
  1
SUN
  2
AcDbSun
  3
SCENEOE
 90
     1153
280
     0
281
     0
  0
CLASS
  1
DICTIONARYVAR
  2
AcDbDictionaryVar
  3
ObjectDBX Classes
 90
        0
280
     0
281
     0
  0
CLASS
  1
XRECORD
  2
AcDbXrecord
  3
ObjectDBX Classes
 90
        0
280
     0
281
     0
  0
CLASS
  1
LWPOLYLINE
  2
AcDbPolyline
  3
ObjectDBX Classes
 90
        0
280
     0
281
     1
  0
CLASS
  1
HATCH
  2
AcDbHatch
  3
ObjectDBX Classes
 90
        0
280
     0
281
     1
  0
CLASS
  1
ACDBPLACEHOLDER
  2
AcDbPlaceHolder
  3
ObjectDBX Classes
 90
        0
280
     0
281
     0
  0
CLASS
  1
LAYOUT
  2
AcDbLayout
  3
ObjectDBX Classes
 90
        0
280
     0
281
     0
  0
ENDSEC
  0
SECTION
  2
TABLES
  0
TABLE
  2
VPORT
  5
8
102
{ACAD_XDICTIONARY
360
6A2
102
}
330
0
100
AcDbSymbolTable
 70
     1
  0
VPORT
  5
29
330
8
100
AcDbSymbolTableRecord
100
AcDbViewportTableRecord
  2
*ACTIVE
 70
     0
 10
0.0
 20
0.0
 11
1.0
 21
1.0
 12
975.0000000000001
 22
725.0
 13
0.0
 23
0.0
 14
10.0
 24
10.0
 15
10.0
 25
10.0
 16
0.0
 26
0.0
 36
1.0
 17
0.0
 27
0.0
 37
0.0
 40
1350.0
 41
1.407407407407408
 42
50.0
 43
0.0
 44
0.0
 50
0.0
 51
0.0
 71
     0
 72
  1000
 73
     1
 74
     3
 75
     0
 76
     0
 77
     0
 78
     0
  0
ENDTAB
  0
TABLE
  2
LTYPE
  5
5
330
0
100
AcDbSymbolTable
 70
     6
  0
LTYPE
  5
14
330
5
100
AcDbSymbolTableRecord
100
AcDbLinetypeTableRecord
  2
BYBLOCK
 70
     0
  3

 72
    65
 73
     0
 40
0.0
  0
LTYPE
  5
15
330
5
100
AcDbSymbolTableRecord
100
AcDbLinetypeTableRecord
  2
BYLAYER
 70
     0
  3

 72
    65
 73
     0
 40
0.0
  0
LTYPE
  5
16
330
5
100
AcDbSymbolTableRecord
100
AcDbLinetypeTableRecord
  2
CONTINUOUS
 70
     0
  3
Solid line
 72
    65
 73
     0
 40
0.0
  0
LTYPE
  5
6E
330
5
100
AcDbSymbolTableRecord
100
AcDbLinetypeTableRecord
  2
HIDDEN
 70
     0
  3
Hidden __ __ __ __ __ __ __ __ __ __ __ __ __ __
 72
    65
 73
     2
 40
9.524999999999999
 49
6.35
 74
     0
 49
-3.175
 74
     0
  0
LTYPE
  5
6F
330
5
100
AcDbSymbolTableRecord
100
AcDbLinetypeTableRecord
  2
CENTER
 70
     0
  3
Center ____ _ ____ _ ____ _ ____ _ ____ _ ____
 72
    65
 73
     4
 40
50.8
 49
31.75
 74
     0
 49
-6.35
 74
     0
 49
6.35
 74
     0
 49
-6.35
 74
     0
  0
LTYPE
  5
70
330
5
100
AcDbSymbolTableRecord
100
AcDbLinetypeTableRecord
  2
PHANTOM
 70
     0
  3
Phantom ______  __  __  ______  __  __  ______ 
 72
    65
 73
     6
 40
63.50000000000001
 49
31.75
 74
     0
 49
-6.35
 74
     0
 49
6.35
 74
     0
 49
-6.35
 74
     0
 49
6.35
 74
     0
 49
-6.35
 74
     0
  0
LTYPE
  5
71
330
5
100
AcDbSymbolTableRecord
100
AcDbLinetypeTableRecord
  2
ACAD_ISO06W100
 70
     0
  3
ISO long-dash triple-dot ____ ... ____ ... ____
 72
    65
 73
     8
 40
36.0
 49
24.0
 74
     0
 49
-3.0
 74
     0
 49
0.0
 74
     0
 49
-3.0
 74
     0
 49
0.0
 74
     0
 49
-3.0
 74
     0
 49
0.0
 74
     0
 49
-3.0
 74
     0
  0
LTYPE
  5
72
330
5
100
AcDbSymbolTableRecord
100
AcDbLinetypeTableRecord
  2
ACAD_ISO15W100
 70
     0
  3
ISO double-dash triple-dot __ __ . . . __ __ . .
 72
    65
 73
    10
 40
39.0
 49
12.0
 74
     0
 49
-3.0
 74
     0
 49
12.0
 74
     0
 49
-3.0
 74
     0
 49
0.0
 74
     0
 49
-3.0
 74
     0
 49
0.0
 74
     0
 49
-3.0
 74
     0
 49
0.0
 74
     0
 49
-3.0
 74
     0
  0
ENDTAB
  0
TABLE
  2
LAYER
  5
2
330
0
100
AcDbSymbolTable
 70
     5
  0
LAYER
  5
10
330
2
100
AcDbSymbolTableRecord
100
AcDbLayerTableRecord
  2
0
 70
     0
 62
     7
  6
CONTINUOUS
  0
LAYER
  5
75
330
2
100
AcDbSymbolTableRecord
100
AcDbLayerTableRecord
  2
LAY-10
 70
     0
 62
     7
  6
CONTINUOUS
  0
LAYER
  5
76
330
2
100
AcDbSymbolTableRecord
100
AcDbLayerTableRecord
  2
LAY-20
 70
     0
 62
     7
  6
CONTINUOUS
  0
LAYER
  5
77
330
2
100
AcDbSymbolTableRecord
100
AcDbLayerTableRecord
  2
LAY-255
 70
     0
 62
     7
  6
CONTINUOUS
  0
LAYER
  5
58B
330
2
100
AcDbSymbolTableRecord
100
AcDbLayerTableRecord
  2
DEFPOINTS
 70
     0
 62
     7
  6
CONTINUOUS
  0
ENDTAB
  0
TABLE
  2
STYLE
  5
3
330
0
100
AcDbSymbolTable
 70
     4
  0
STYLE
  5
11
330
3
100
AcDbSymbolTableRecord
100
AcDbTextStyleTableRecord
  2
STANDARD
 70
     0
 40
0.0
 41
1.0
 50
0.0
 71
     0
 42
2.5
  3
simplex
  4
bigfont
  0
STYLE
  5
73
330
3
100
AcDbSymbolTableRecord
100
AcDbTextStyleTableRecord
  2
EXCADSTD
 70
     0
 40
0.0
 41
1.0
 50
0.0
 71
     0
 42
2.5
  3
simplex
  4
bigfont
  0
STYLE
  5
74
330
3
100
AcDbSymbolTableRecord
100
AcDbTextStyleTableRecord
  2
EXCADVERT
 70
     4
 40
0.0
 41
1.0
 50
0.0
 71
     0
 42
2.5
  3
simplex
  4
bigfont
  0
STYLE
  5
589
330
3
100
AcDbSymbolTableRecord
100
AcDbTextStyleTableRecord
  2
EXCADDIM1
 70
     0
 40
0.0
 41
0.84
 50
0.0
 71
     0
 42
2.5
  3
simplex
  4
bigfont
  0
ENDTAB
  0
TABLE
  2
VIEW
  5
6
330
0
100
AcDbSymbolTable
 70
     0
  0
ENDTAB
  0
TABLE
  2
UCS
  5
7
330
0
100
AcDbSymbolTable
 70
     0
  0
ENDTAB
  0
TABLE
  2
APPID
  5
9
330
0
100
AcDbSymbolTable
 70
     2
  0
APPID
  5
12
330
9
100
AcDbSymbolTableRecord
100
AcDbRegAppTableRecord
  2
ACAD
 70
     0
  0
APPID
  5
6AC
330
9
100
AcDbSymbolTableRecord
100
AcDbRegAppTableRecord
  2
ACAD_MLEADERVER
 70
     0
  0
ENDTAB
  0
TABLE
  2
DIMSTYLE
  5
A
330
0
100
AcDbSymbolTable
 70
     1
  0
DIMSTYLE
105
27
102
{ACAD_REACTORS
330
58A
330
598
330
5A4
330
5B1
330
5BC
330
5C9
330
5D6
330
5E3
330
5EF
330
5FC
330
607
330
614
330
621
330
62E
330
63B
102
}
330
A
100
AcDbSymbolTableRecord
100
AcDbDimStyleTableRecord
  2
ISO-25
 70
     0
  3

  4

  5

  6

  7

 40
1.0
 41
2.5
 42
0.625
 43
3.75
 44
1.25
 45
0.0
 46
0.0
 47
0.0
 48
0.0
140
2.5
141
2.5
142
0.0
143
0.03937007874016
144
1.0
145
0.0
146
1.0
147
0.625
 71
     0
 72
     0
 73
     0
 74
     0
 75
     0
 76
     0
 77
     1
 78
     8
170
     0
171
     3
172
     1
173
     0
174
     0
175
     0
176
     0
177
     0
178
     0
270
     2
271
     2
272
     2
273
     2
274
     3
340
11
275
     0
280
     0
281
     0
282
     0
283
     0
284
     8
285
     0
286
     0
287
     5
288
     0
  0
ENDTAB
  0
TABLE
  2
BLOCK_RECORD
  5
1
330
0
100
AcDbSymbolTable
 70
    29
  0
BLOCK_RECORD
  5
1F
330
1
100
AcDbSymbolTableRecord
100
AcDbBlockTableRecord
  2
*MODEL_SPACE
  0
BLOCK_RECORD
  5
1B
330
1
100
AcDbSymbolTableRecord
100
AcDbBlockTableRecord
  2
*PAPER_SPACE
  0
BLOCK_RECORD
  5
78
330
1
100
AcDbSymbolTableRecord
100
AcDbBlockTableRecord
  2
EX_NORM
  0
BLOCK_RECORD
  5
7B
330
1
100
AcDbSymbolTableRecord
100
AcDbBlockTableRecord
  2
EX_BNORM
  0
BLOCK_RECORD
  5
7E
330
1
100
AcDbSymbolTableRecord
100
AcDbBlockTableRecord
  2
EX_BCIR
  0
BLOCK_RECORD
  5
81
330
1
100
AcDbSymbolTableRecord
100
AcDbBlockTableRecord
  2
EX_RCIVIL
  0
BLOCK_RECORD
  5
84
330
1
100
AcDbSymbolTableRecord
100
AcDbBlockTableRecord
  2
EX_SLANT
  0
BLOCK_RECORD
  5
87
330
1
100
AcDbSymbolTableRecord
100
AcDbBlockTableRecord
  2
EX_NONE
  0
BLOCK_RECORD
  5
8A
330
1
100
AcDbSymbolTableRecord
100
AcDbBlockTableRecord
  2
EX_CIVIL
  0
BLOCK_RECORD
  5
8D
330
1
100
AcDbSymbolTableRecord
100
AcDbBlockTableRecord
  2
EX_WCIR
  0
BLOCK_RECORD
  5
90
330
1
100
AcDbSymbolTableRecord
100
AcDbBlockTableRecord
  2
EX_WCIR2
  0
BLOCK_RECORD
  5
93
330
1
100
AcDbSymbolTableRecord
100
AcDbBlockTableRecord
  2
EX_WNORM
  0
BLOCK_RECORD
  5
96
330
1
100
AcDbSymbolTableRecord
100
AcDbBlockTableRecord
  2
EX_NNORM
  0
BLOCK_RECORD
  5
99
330
1
100
AcDbSymbolTableRecord
100
AcDbBlockTableRecord
  2
EX_BBOX
  0
BLOCK_RECORD
  5
9C
330
1
100
AcDbSymbolTableRecord
100
AcDbBlockTableRecord
  2
EX_WBOX
  0
BLOCK_RECORD
  5
9F
330
1
100
AcDbSymbolTableRecord
100
AcDbBlockTableRecord
  2
EX_INTEGRAL
  0
BLOCK_RECORD
  5
58C
330
1
100
AcDbSymbolTableRecord
100
AcDbBlockTableRecord
  2
*D15
  0
BLOCK_RECORD
  5
599
330
1
100
AcDbSymbolTableRecord
100
AcDbBlockTableRecord
  2
*D16
  0
BLOCK_RECORD
  5
5A5
330
1
100
AcDbSymbolTableRecord
100
AcDbBlockTableRecord
  2
*D17
  0
BLOCK_RECORD
  5
5B2
330
1
100
AcDbSymbolTableRecord
100
AcDbBlockTableRecord
  2
*D18
  0
BLOCK_RECORD
  5
5BD
330
1
100
AcDbSymbolTableRecord
100
AcDbBlockTableRecord
  2
*D19
  0
BLOCK_RECORD
  5
5CA
330
1
100
AcDbSymbolTableRecord
100
AcDbBlockTableRecord
  2
*D20
  0
BLOCK_RECORD
  5
5D7
330
1
100
AcDbSymbolTableRecord
100
AcDbBlockTableRecord
  2
*D21
  0
BLOCK_RECORD
  5
5E4
330
1
100
AcDbSymbolTableRecord
100
AcDbBlockTableRecord
  2
*D22
  0
BLOCK_RECORD
  5
5F0
330
1
100
AcDbSymbolTableRecord
100
AcDbBlockTableRecord
  2
*D23
  0
BLOCK_RECORD
  5
5FD
330
1
100
AcDbSymbolTableRecord
100
AcDbBlockTableRecord
  2
*D24
  0
BLOCK_RECORD
  5
608
330
1
100
AcDbSymbolTableRecord
100
AcDbBlockTableRecord
  2
*D25
  0
BLOCK_RECORD
  5
615
330
1
100
AcDbSymbolTableRecord
100
AcDbBlockTableRecord
  2
*D26
  0
BLOCK_RECORD
  5
622
330
1
100
AcDbSymbolTableRecord
100
AcDbBlockTableRecord
  2
*D27
  0
BLOCK_RECORD
  5
62F
330
1
100
AcDbSymbolTableRecord
100
AcDbBlockTableRecord
  2
*D28
  0
BLOCK_RECORD
  5
63C
330
1
100
AcDbSymbolTableRecord
100
AcDbBlockTableRecord
  2
*D29
  0
ENDTAB
  0
ENDSEC
  0
SECTION
  2
BLOCKS
  0
BLOCK
  5
20
330
1F
100
AcDbEntity
  8
0
100
AcDbBlockBegin
  2
*MODEL_SPACE
 70
     0
 10
0.0
 20
0.0
 30
0.0
  3
*MODEL_SPACE
  1

  0
ENDBLK
  5
21
330
1F
100
AcDbEntity
  8
0
100
AcDbBlockEnd
  0
BLOCK
  5
1C
330
1B
100
AcDbEntity
 67
     1
  8
0
100
AcDbBlockBegin
  2
*PAPER_SPACE
 70
     0
 10
0.0
 20
0.0
 30
0.0
  3
*PAPER_SPACE
  1

  0
ENDBLK
  5
1D
330
1B
100
AcDbEntity
 67
     1
  8
0
100
AcDbBlockEnd
  0
BLOCK
  5
79
330
78
100
AcDbEntity
  8
0
100
AcDbBlockBegin
  2
EX_NORM
 70
     0
 10
0.0
 20
0.0
 30
0.0
  3
EX_NORM
  1

  0
LINE
  5
A2
330
78
100
AcDbEntity
  8
0
  6
CONTINUOUS
 62
     0
100
AcDbLine
 10
0.0
 20
0.0
 30
0.0
 11
-1.0
 21
0.0
 31
0.0
  0
LINE
  5
A3
330
78
100
AcDbEntity
  8
0
  6
CONTINUOUS
 62
     0
100
AcDbLine
 10
0.0
 20
0.0
 30
0.0
 11
-1.0
 21
0.166666667
 31
0.0
  0
LINE
  5
A4
330
78
100
AcDbEntity
  8
0
  6
CONTINUOUS
 62
     0
100
AcDbLine
 10
0.0
 20
0.0
 30
0.0
 11
-1.0
 21
-0.166666667
 31
0.0
  0
ENDBLK
  5
7A
330
78
100
AcDbEntity
  8
0
100
AcDbBlockEnd
  0
BLOCK
  5
7C
330
7B
100
AcDbEntity
  8
0
100
AcDbBlockBegin
  2
EX_BNORM
 70
     0
 10
0.0
 20
0.0
 30
0.0
  3
EX_BNORM
  1

  0
LINE
  5
A5
330
7B
100
AcDbEntity
  8
0
  6
CONTINUOUS
 62
     0
100
AcDbLine
 10
0.0
 20
0.0
 30
0.0
 11
-1.0
 21
0.0
 31
0.0
  0
LINE
  5
A6
330
7B
100
AcDbEntity
  8
0
  6
CONTINUOUS
 62
     0
100
AcDbLine
 10
0.0
 20
0.0
 30
0.0
 11
-1.0
 21
0.166666667
 31
0.0
  0
LINE
  5
A7
330
7B
100
AcDbEntity
  8
0
  6
CONTINUOUS
 62
     0
100
AcDbLine
 10
0.0
 20
0.0
 30
0.0
 11
-1.0
 21
-0.166666667
 31
0.0
  0
LINE
  5
A8
330
7B
100
AcDbEntity
  8
0
  6
CONTINUOUS
 62
     0
100
AcDbLine
 10
0.0
 20
0.0
 30
0.0
 11
-1.0
 21
0.083333333
 31
0.0
  0
LINE
  5
A9
330
7B
100
AcDbEntity
  8
0
  6
CONTINUOUS
 62
     0
100
AcDbLine
 10
0.0
 20
0.0
 30
0.0
 11
-1.0
 21
-0.083333333
 31
0.0
  0
LINE
  5
AA
330
7B
100
AcDbEntity
  8
0
  6
CONTINUOUS
 62
     0
100
AcDbLine
 10
-1.0
 20
0.166666667
 30
0.0
 11
-1.0
 21
-0.166666667
 31
0.0
  0
ENDBLK
  5
7D
330
7B
100
AcDbEntity
  8
0
100
AcDbBlockEnd
  0
BLOCK
  5
7F
330
7E
100
AcDbEntity
  8
0
100
AcDbBlockBegin
  2
EX_BCIR
 70
     0
 10
0.0
 20
0.0
 30
0.0
  3
EX_BCIR
  1

  0
LINE
  5
AB
330
7E
100
AcDbEntity
  8
0
  6
CONTINUOUS
 62
     0
100
AcDbLine
 10
0.0
 20
0.0
 30
0.0
 11
-1.0
 21
0.0
 31
0.0
  0
CIRCLE
  5
AC
330
7E
100
AcDbEntity
  8
0
  6
CONTINUOUS
 62
     0
100
AcDbCircle
 10
0.0
 20
0.0
 30
0.0
 40
0.5
  0
CIRCLE
  5
AD
330
7E
100
AcDbEntity
  8
0
  6
CONTINUOUS
 62
     0
100
AcDbCircle
 10
0.0
 20
0.0
 30
0.0
 40
0.25
  0
ENDBLK
  5
80
330
7E
100
AcDbEntity
  8
0
100
AcDbBlockEnd
  0
BLOCK
  5
82
330
81
100
AcDbEntity
  8
0
100
AcDbBlockBegin
  2
EX_RCIVIL
 70
     0
 10
0.0
 20
0.0
 30
0.0
  3
EX_RCIVIL
  1

  0
LINE
  5
AE
330
81
100
AcDbEntity
  8
0
  6
CONTINUOUS
 62
     0
100
AcDbLine
 10
0.0
 20
0.0
 30
0.0
 11
-1.0
 21
0.0
 31
0.0
  0
LINE
  5
AF
330
81
100
AcDbEntity
  8
0
  6
CONTINUOUS
 62
     0
100
AcDbLine
 10
-1.0
 20
-0.25
 30
0.0
 11
0.0
 21
-0.25
 31
0.0
  0
LINE
  5
B0
330
81
100
AcDbEntity
  8
0
  6
CONTINUOUS
 62
     0
100
AcDbLine
 10
-1.0
 20
-0.125
 30
0.0
 11
0.0
 21
-0.125
 31
0.0
  0
ENDBLK
  5
83
330
81
100
AcDbEntity
  8
0
100
AcDbBlockEnd
  0
BLOCK
  5
85
330
84
100
AcDbEntity
  8
0
100
AcDbBlockBegin
  2
EX_SLANT
 70
     0
 10
0.0
 20
0.0
 30
0.0
  3
EX_SLANT
  1

  0
LINE
  5
B1
330
84
100
AcDbEntity
  8
0
  6
CONTINUOUS
 62
     0
100
AcDbLine
 10
0.0
 20
0.0
 30
0.0
 11
-1.0
 21
0.0
 31
0.0
  0
LINE
  5
B2
330
84
100
AcDbEntity
  8
0
  6
CONTINUOUS
 62
     0
100
AcDbLine
 10
0.707106781
 20
0.707106781
 30
0.0
 11
-0.707106781
 21
-0.707106781
 31
0.0
  0
ENDBLK
  5
86
330
84
100
AcDbEntity
  8
0
100
AcDbBlockEnd
  0
BLOCK
  5
88
330
87
100
AcDbEntity
  8
0
100
AcDbBlockBegin
  2
EX_NONE
 70
     0
 10
0.0
 20
0.0
 30
0.0
  3
EX_NONE
  1

  0
LINE
  5
B3
330
87
100
AcDbEntity
  8
0
  6
CONTINUOUS
 62
     0
100
AcDbLine
 10
0.0
 20
0.0
 30
0.0
 11
-1.0
 21
0.0
 31
0.0
  0
ENDBLK
  5
89
330
87
100
AcDbEntity
  8
0
100
AcDbBlockEnd
  0
BLOCK
  5
8B
330
8A
100
AcDbEntity
  8
0
100
AcDbBlockBegin
  2
EX_CIVIL
 70
     0
 10
0.0
 20
0.0
 30
0.0
  3
EX_CIVIL
  1

  0
LINE
  5
B4
330
8A
100
AcDbEntity
  8
0
  6
CONTINUOUS
 62
     0
100
AcDbLine
 10
0.0
 20
0.0
 30
0.0
 11
-1.0
 21
0.0
 31
0.0
  0
LINE
  5
B5
330
8A
100
AcDbEntity
  8
0
  6
CONTINUOUS
 62
     0
100
AcDbLine
 10
-1.0
 20
0.25
 30
0.0
 11
0.0
 21
0.25
 31
0.0
  0
LINE
  5
B6
330
8A
100
AcDbEntity
  8
0
  6
CONTINUOUS
 62
     0
100
AcDbLine
 10
-1.0
 20
0.125
 30
0.0
 11
0.0
 21
0.125
 31
0.0
  0
ENDBLK
  5
8C
330
8A
100
AcDbEntity
  8
0
100
AcDbBlockEnd
  0
BLOCK
  5
8E
330
8D
100
AcDbEntity
  8
0
100
AcDbBlockBegin
  2
EX_WCIR
 70
     0
 10
0.0
 20
0.0
 30
0.0
  3
EX_WCIR
  1

  0
LINE
  5
B7
330
8D
100
AcDbEntity
  8
0
  6
CONTINUOUS
 62
     0
100
AcDbLine
 10
0.0
 20
0.0
 30
0.0
 11
-1.0
 21
0.0
 31
0.0
  0
CIRCLE
  5
B8
330
8D
100
AcDbEntity
  8
0
  6
CONTINUOUS
 62
     0
100
AcDbCircle
 10
0.0
 20
0.0
 30
0.0
 40
0.5
  0
ENDBLK
  5
8F
330
8D
100
AcDbEntity
  8
0
100
AcDbBlockEnd
  0
BLOCK
  5
91
330
90
100
AcDbEntity
  8
0
100
AcDbBlockBegin
  2
EX_WCIR2
 70
     0
 10
0.0
 20
0.0
 30
0.0
  3
EX_WCIR2
  1

  0
LINE
  5
B9
330
90
100
AcDbEntity
  8
0
  6
CONTINUOUS
 62
     0
100
AcDbLine
 10
-0.5
 20
0.0
 30
0.0
 11
-1.0
 21
0.0
 31
0.0
  0
CIRCLE
  5
BA
330
90
100
AcDbEntity
  8
0
  6
CONTINUOUS
 62
     0
100
AcDbCircle
 10
0.0
 20
0.0
 30
0.0
 40
0.5
  0
ENDBLK
  5
92
330
90
100
AcDbEntity
  8
0
100
AcDbBlockEnd
  0
BLOCK
  5
94
330
93
100
AcDbEntity
  8
0
100
AcDbBlockBegin
  2
EX_WNORM
 70
     0
 10
0.0
 20
0.0
 30
0.0
  3
EX_WNORM
  1

  0
LINE
  5
BB
330
93
100
AcDbEntity
  8
0
  6
CONTINUOUS
 62
     0
100
AcDbLine
 10
-1.0
 20
0.0
 30
0.0
 11
-1.0
 21
0.0
 31
0.0
  0
LINE
  5
BC
330
93
100
AcDbEntity
  8
0
  6
CONTINUOUS
 62
     0
100
AcDbLine
 10
0.0
 20
0.0
 30
0.0
 11
-1.0
 21
0.166666667
 31
0.0
  0
LINE
  5
BD
330
93
100
AcDbEntity
  8
0
  6
CONTINUOUS
 62
     0
100
AcDbLine
 10
0.0
 20
0.0
 30
0.0
 11
-1.0
 21
-0.166666667
 31
0.0
  0
LINE
  5
BE
330
93
100
AcDbEntity
  8
0
  6
CONTINUOUS
 62
     0
100
AcDbLine
 10
-1.0
 20
0.166666667
 30
0.0
 11
-1.0
 21
-0.166666667
 31
0.0
  0
ENDBLK
  5
95
330
93
100
AcDbEntity
  8
0
100
AcDbBlockEnd
  0
BLOCK
  5
97
330
96
100
AcDbEntity
  8
0
100
AcDbBlockBegin
  2
EX_NNORM
 70
     0
 10
0.0
 20
0.0
 30
0.0
  3
EX_NNORM
  1

  0
LINE
  5
BF
330
96
100
AcDbEntity
  8
0
  6
CONTINUOUS
 62
     0
100
AcDbLine
 10
0.0
 20
0.0
 30
0.0
 11
-1.0
 21
0.0
 31
0.0
  0
LINE
  5
C0
330
96
100
AcDbEntity
  8
0
  6
CONTINUOUS
 62
     0
100
AcDbLine
 10
0.0
 20
0.0
 30
0.0
 11
-1.0
 21
0.166666667
 31
0.0
  0
LINE
  5
C1
330
96
100
AcDbEntity
  8
0
  6
CONTINUOUS
 62
     0
100
AcDbLine
 10
0.0
 20
0.0
 30
0.0
 11
-1.0
 21
-0.166666667
 31
0.0
  0
LINE
  5
C2
330
96
100
AcDbEntity
  8
0
  6
CONTINUOUS
 62
     0
100
AcDbLine
 10
-1.0
 20
0.166666667
 30
0.0
 11
-1.0
 21
-0.166666667
 31
0.0
  0
ENDBLK
  5
98
330
96
100
AcDbEntity
  8
0
100
AcDbBlockEnd
  0
BLOCK
  5
9A
330
99
100
AcDbEntity
  8
0
100
AcDbBlockBegin
  2
EX_BBOX
 70
     0
 10
0.0
 20
0.0
 30
0.0
  3
EX_BBOX
  1

  0
LINE
  5
C3
330
99
100
AcDbEntity
  8
0
  6
CONTINUOUS
 62
     0
100
AcDbLine
 10
0.0
 20
0.0
 30
0.0
 11
-1.0
 21
0.0
 31
0.0
  0
LINE
  5
C4
330
99
100
AcDbEntity
  8
0
  6
CONTINUOUS
 62
     0
100
AcDbLine
 10
-0.5
 20
0.5
 30
0.0
 11
0.5
 21
0.5
 31
0.0
  0
LINE
  5
C5
330
99
100
AcDbEntity
  8
0
  6
CONTINUOUS
 62
     0
100
AcDbLine
 10
0.5
 20
0.5
 30
0.0
 11
0.5
 21
-0.5
 31
0.0
  0
LINE
  5
C6
330
99
100
AcDbEntity
  8
0
  6
CONTINUOUS
 62
     0
100
AcDbLine
 10
0.5
 20
-0.5
 30
0.0
 11
-0.5
 21
-0.5
 31
0.0
  0
LINE
  5
C7
330
99
100
AcDbEntity
  8
0
  6
CONTINUOUS
 62
     0
100
AcDbLine
 10
-0.5
 20
-0.5
 30
0.0
 11
-0.5
 21
0.5
 31
0.0
  0
LINE
  5
C8
330
99
100
AcDbEntity
  8
0
  6
CONTINUOUS
 62
     0
100
AcDbLine
 10
-0.25
 20
0.25
 30
0.0
 11
0.25
 21
0.25
 31
0.0
  0
LINE
  5
C9
330
99
100
AcDbEntity
  8
0
  6
CONTINUOUS
 62
     0
100
AcDbLine
 10
0.25
 20
0.25
 30
0.0
 11
0.25
 21
-0.25
 31
0.0
  0
LINE
  5
CA
330
99
100
AcDbEntity
  8
0
  6
CONTINUOUS
 62
     0
100
AcDbLine
 10
0.25
 20
-0.25
 30
0.0
 11
-0.25
 21
-0.25
 31
0.0
  0
LINE
  5
CB
330
99
100
AcDbEntity
  8
0
  6
CONTINUOUS
 62
     0
100
AcDbLine
 10
-0.25
 20
-0.25
 30
0.0
 11
-0.25
 21
0.25
 31
0.0
  0
ENDBLK
  5
9B
330
99
100
AcDbEntity
  8
0
100
AcDbBlockEnd
  0
BLOCK
  5
9D
330
9C
100
AcDbEntity
  8
0
100
AcDbBlockBegin
  2
EX_WBOX
 70
     0
 10
0.0
 20
0.0
 30
0.0
  3
EX_WBOX
  1

  0
LINE
  5
CC
330
9C
100
AcDbEntity
  8
0
  6
CONTINUOUS
 62
     0
100
AcDbLine
 10
-0.5
 20
0.0
 30
0.0
 11
-1.0
 21
0.0
 31
0.0
  0
LINE
  5
CD
330
9C
100
AcDbEntity
  8
0
  6
CONTINUOUS
 62
     0
100
AcDbLine
 10
-0.5
 20
0.5
 30
0.0
 11
0.5
 21
0.5
 31
0.0
  0
LINE
  5
CE
330
9C
100
AcDbEntity
  8
0
  6
CONTINUOUS
 62
     0
100
AcDbLine
 10
0.5
 20
0.5
 30
0.0
 11
0.5
 21
-0.5
 31
0.0
  0
LINE
  5
CF
330
9C
100
AcDbEntity
  8
0
  6
CONTINUOUS
 62
     0
100
AcDbLine
 10
0.5
 20
-0.5
 30
0.0
 11
-0.5
 21
-0.5
 31
0.0
  0
LINE
  5
D0
330
9C
100
AcDbEntity
  8
0
  6
CONTINUOUS
 62
     0
100
AcDbLine
 10
-0.5
 20
-0.5
 30
0.0
 11
-0.5
 21
0.5
 31
0.0
  0
ENDBLK
  5
9E
330
9C
100
AcDbEntity
  8
0
100
AcDbBlockEnd
  0
BLOCK
  5
A0
330
9F
100
AcDbEntity
  8
0
100
AcDbBlockBegin
  2
EX_INTEGRAL
 70
     0
 10
0.0
 20
0.0
 30
0.0
  3
EX_INTEGRAL
  1

  0
LINE
  5
D1
330
9F
100
AcDbEntity
  8
0
  6
CONTINUOUS
 62
     0
100
AcDbLine
 10
0.0
 20
0.0
 30
0.0
 11
-1.0
 21
0.0
 31
0.0
  0
ARC
  5
D2
330
9F
100
AcDbEntity
  8
0
  6
CONTINUOUS
 62
     0
100
AcDbCircle
 10
0.542115
 20
0.164992
 30
0.0
 40
0.56667
100
AcDbArc
 50
73.07249033629006
 51
196.9275130221199
  0
ARC
  5
D3
330
9F
100
AcDbEntity
  8
0
  6
CONTINUOUS
 62
     0
100
AcDbCircle
 10
-0.542115
 20
-0.164992
 30
0.0
 40
0.56667
100
AcDbArc
 50
253.0724869220464
 51
16.9275130559125
  0
ENDBLK
  5
A1
330
9F
100
AcDbEntity
  8
0
100
AcDbBlockEnd
  0
BLOCK
  5
58D
330
58C
100
AcDbEntity
  8
0
100
AcDbBlockBegin
  2
*D15
 70
     1
 10
0.0
 20
0.0
 30
0.0
  3
*D15
  1

  0
LINE
  5
58F
330
58C
100
AcDbEntity
  8
LAY-20
  6
CONTINUOUS
 62
     4
100
AcDbLine
 10
1175.0
 20
1232.50000000008
 30
0.0
 11
1175.0
 21
1294.50000000005
 31
0.0
  0
LINE
  5
590
330
58C
100
AcDbEntity
  8
LAY-20
  6
CONTINUOUS
 62
     4
100
AcDbLine
 10
1285.0
 20
1235.50000000008
 30
0.0
 11
1285.0
 21
1294.50000000005
 31
0.0
  0
LINE
  5
591
330
58C
100
AcDbEntity
  8
LAY-20
  6
CONTINUOUS
 62
     4
100
AcDbLine
 10
1187.5
 20
1287.00000000005
 30
0.0
 11
1272.5
 21
1287.00000000005
 31
0.0
  0
INSERT
  5
592
330
58C
100
AcDbEntity
  8
LAY-20
 62
     4
100
AcDbBlockReference
  2
EX_BNORM
 10
1175.0
 20
1287.00000000005
 30
0.0
 41
12.5
 42
12.5
 43
12.5
 50
180.0
  0
INSERT
  5
593
330
58C
100
AcDbEntity
  8
LAY-20
 62
     4
100
AcDbBlockReference
  2
EX_BNORM
 10
1285.0
 20
1287.00000000005
 30
0.0
 41
12.5
 42
12.5
 43
12.5
  0
MTEXT
  5
594
330
58C
100
AcDbEntity
  8
LAY-20
 62
     7
100
AcDbMText
 10
1230.0
 20
1299.50000000005
 30
0.0
 40
15.590552
 41
0.0
 71
     5
 72
     1
  1
110
  7
EXCADDIM1
  0
POINT
  5
595
330
58C
100
AcDbEntity
  8
DEFPOINTS
 62
     0
100
AcDbPoint
 10
1175.0
 20
1225.00000000008
 30
0.0
  0
POINT
  5
596
330
58C
100
AcDbEntity
  8
DEFPOINTS
 62
     0
100
AcDbPoint
 10
1285.0
 20
1228.00000000008
 30
0.0
  0
POINT
  5
597
330
58C
100
AcDbEntity
  8
DEFPOINTS
 62
     0
100
AcDbPoint
 10
1285.0
 20
1287.00000000005
 30
0.0
  0
ENDBLK
  5
58E
330
58C
100
AcDbEntity
  8
0
100
AcDbBlockEnd
  0
BLOCK
  5
59A
330
599
100
AcDbEntity
  8
0
100
AcDbBlockBegin
  2
*D16
 70
     1
 10
0.0
 20
0.0
 30
0.0
  3
*D16
  1

  0
LINE
  5
59C
330
599
100
AcDbEntity
  8
LAY-20
  6
CONTINUOUS
 62
     4
100
AcDbLine
 10
1325.0
 20
1238.50000000008
 30
0.0
 11
1325.0
 21
1294.50000000005
 31
0.0
  0
LINE
  5
59D
330
599
100
AcDbEntity
  8
LAY-20
  6
CONTINUOUS
 62
     4
100
AcDbLine
 10
1312.5
 20
1287.00000000005
 30
0.0
 11
1297.5
 21
1287.00000000005
 31
0.0
  0
INSERT
  5
59E
330
599
100
AcDbEntity
  8
LAY-20
 62
     4
100
AcDbBlockReference
  2
EX_BNORM
 10
1325.0
 20
1287.00000000005
 30
0.0
 41
12.5
 42
12.5
 43
12.5
  0
INSERT
  5
59F
330
599
100
AcDbEntity
  8
LAY-20
 62
     4
100
AcDbBlockReference
  2
EX_BNORM
 10
1285.0
 20
1287.00000000005
 30
0.0
 41
12.5
 42
12.5
 43
12.5
 50
180.0
  0
MTEXT
  5
5A0
330
599
100
AcDbEntity
  8
LAY-20
 62
     7
100
AcDbMText
 10
1305.0
 20
1299.50000000005
 30
0.0
 40
15.590552
 41
0.0
 71
     5
 72
     1
  1
40
  7
EXCADDIM1
  0
POINT
  5
5A1
330
599
100
AcDbEntity
  8
DEFPOINTS
 62
     0
100
AcDbPoint
 10
1325.0
 20
1231.00000000008
 30
0.0
  0
POINT
  5
5A2
330
599
100
AcDbEntity
  8
DEFPOINTS
 62
     0
100
AcDbPoint
 10
1285.0
 20
1300.50000000008
 30
0.0
  0
POINT
  5
5A3
330
599
100
AcDbEntity
  8
DEFPOINTS
 62
     0
100
AcDbPoint
 10
1285.0
 20
1287.00000000005
 30
0.0
  0
ENDBLK
  5
59B
330
599
100
AcDbEntity
  8
0
100
AcDbBlockEnd
  0
BLOCK
  5
5A6
330
5A5
100
AcDbEntity
  8
0
100
AcDbBlockBegin
  2
*D17
 70
     1
 10
0.0
 20
0.0
 30
0.0
  3
*D17
  1

  0
LINE
  5
5A8
330
5A5
100
AcDbEntity
  8
LAY-20
  6
CONTINUOUS
 62
     4
100
AcDbLine
 10
1292.5
 20
1190.00000000008
 30
0.0
 11
1382.5
 21
1190.00000000008
 31
0.0
  0
LINE
  5
5A9
330
5A5
100
AcDbEntity
  8
LAY-20
  6
CONTINUOUS
 62
     4
100
AcDbLine
 10
1292.5
 20
1010.00000000008
 30
0.0
 11
1382.5
 21
1010.00000000008
 31
0.0
  0
LINE
  5
5AA
330
5A5
100
AcDbEntity
  8
LAY-20
  6
CONTINUOUS
 62
     4
100
AcDbLine
 10
1375.0
 20
1177.50000000008
 30
0.0
 11
1375.0
 21
1022.50000000008
 31
0.0
  0
INSERT
  5
5AB
330
5A5
100
AcDbEntity
  8
LAY-20
 62
     4
100
AcDbBlockReference
  2
EX_BNORM
 10
1375.0
 20
1190.00000000008
 30
0.0
 41
12.5
 42
12.5
 43
12.5
 50
90.0
  0
INSERT
  5
5AC
330
5A5
100
AcDbEntity
  8
LAY-20
 62
     4
100
AcDbBlockReference
  2
EX_BNORM
 10
1375.0
 20
1010.00000000008
 30
0.0
 41
12.5
 42
12.5
 43
12.5
 50
270.0
  0
MTEXT
  5
5AD
330
5A5
100
AcDbEntity
  8
LAY-20
 62
     7
100
AcDbMText
 10
1362.5
 20
1100.00000000008
 30
0.0
 40
15.590552
 41
0.0
 71
     5
 72
     1
  1
溝幅180
  7
EXCADDIM1
 11
0.0
 21
1.0
 31
0.0
  0
POINT
  5
5AE
330
5A5
100
AcDbEntity
  8
DEFPOINTS
 62
     0
100
AcDbPoint
 10
1285.0
 20
1190.00000000008
 30
0.0
  0
POINT
  5
5AF
330
5A5
100
AcDbEntity
  8
DEFPOINTS
 62
     0
100
AcDbPoint
 10
1285.0
 20
1010.00000000008
 30
0.0
  0
POINT
  5
5B0
330
5A5
100
AcDbEntity
  8
DEFPOINTS
 62
     0
100
AcDbPoint
 10
1375.0
 20
1010.00000000008
 30
0.0
  0
ENDBLK
  5
5A7
330
5A5
100
AcDbEntity
  8
0
100
AcDbBlockEnd
  0
BLOCK
  5
5B3
330
5B2
100
AcDbEntity
  8
0
100
AcDbBlockBegin
  2
*D18
 70
     1
 10
0.0
 20
0.0
 30
0.0
  3
*D18
  1

  0
LINE
  5
5B5
330
5B2
100
AcDbEntity
  8
LAY-20
  6
CONTINUOUS
 62
     4
100
AcDbLine
 10
1410.0000000001
 20
1212.50000000008
 30
0.0
 11
1410.0000000001
 21
987.5000000000801
 31
0.0
  0
INSERT
  5
5B6
330
5B2
100
AcDbEntity
  8
LAY-20
 62
     4
100
AcDbBlockReference
  2
EX_BNORM
 10
1410.0000000001
 20
1225.00000000008
 30
0.0
 41
12.5
 42
12.5
 43
12.5
 50
90.0
  0
INSERT
  5
5B7
330
5B2
100
AcDbEntity
  8
LAY-20
 62
     4
100
AcDbBlockReference
  2
EX_BNORM
 10
1410.0000000001
 20
975.0000000000801
 30
0.0
 41
12.5
 42
12.5
 43
12.5
 50
270.0
  0
MTEXT
  5
5B8
330
5B2
100
AcDbEntity
  8
LAY-20
 62
     7
100
AcDbMText
 10
1397.5000000001
 20
1100.00000000008
 30
0.0
 40
15.590552
 41
0.0
 71
     5
 72
     1
  1
250
  7
EXCADDIM1
 11
0.0
 21
1.0
 31
0.0
  0
POINT
  5
5B9
330
5B2
100
AcDbEntity
  8
DEFPOINTS
 62
     0
100
AcDbPoint
 10
1410.0000000001
 20
1225.00000000008
 30
0.0
  0
POINT
  5
5BA
330
5B2
100
AcDbEntity
  8
DEFPOINTS
 62
     0
100
AcDbPoint
 10
1410.0000000001
 20
975.0000000000801
 30
0.0
  0
POINT
  5
5BB
330
5B2
100
AcDbEntity
  8
DEFPOINTS
 62
     0
100
AcDbPoint
 10
1410.0000000001
 20
975.0000000000801
 30
0.0
  0
ENDBLK
  5
5B4
330
5B2
100
AcDbEntity
  8
0
100
AcDbBlockEnd
  0
BLOCK
  5
5BE
330
5BD
100
AcDbEntity
  8
0
100
AcDbBlockBegin
  2
*D19
 70
     1
 10
0.0
 20
0.0
 30
0.0
  3
*D19
  1

  0
LINE
  5
5C0
330
5BD
100
AcDbEntity
  8
LAY-20
  6
CONTINUOUS
 62
     4
100
AcDbLine
 10
1332.5
 20
1228.00000000008
 30
0.0
 11
1452.5
 21
1228.00000000008
 31
0.0
  0
LINE
  5
5C1
330
5BD
100
AcDbEntity
  8
LAY-20
  6
CONTINUOUS
 62
     4
100
AcDbLine
 10
1332.5000000001
 20
972.0000000000801
 30
0.0
 11
1452.5
 21
972.0000000000801
 31
0.0
  0
LINE
  5
5C2
330
5BD
100
AcDbEntity
  8
LAY-20
  6
CONTINUOUS
 62
     4
100
AcDbLine
 10
1445.0
 20
1215.50000000008
 30
0.0
 11
1445.0
 21
984.5000000000801
 31
0.0
  0
INSERT
  5
5C3
330
5BD
100
AcDbEntity
  8
LAY-20
 62
     4
100
AcDbBlockReference
  2
EX_BNORM
 10
1445.0
 20
1228.00000000008
 30
0.0
 41
12.5
 42
12.5
 43
12.5
 50
90.0
  0
INSERT
  5
5C4
330
5BD
100
AcDbEntity
  8
LAY-20
 62
     4
100
AcDbBlockReference
  2
EX_BNORM
 10
1445.0
 20
972.0000000000801
 30
0.0
 41
12.5
 42
12.5
 43
12.5
 50
270.0
  0
MTEXT
  5
5C5
330
5BD
100
AcDbEntity
  8
LAY-20
 62
     7
100
AcDbMText
 10
1432.5
 20
1100.00000000008
 30
0.0
 40
15.590552
 41
0.0
 71
     5
 72
     1
  1
256
  7
EXCADDIM1
 11
0.0
 21
1.0
 31
0.0
  0
POINT
  5
5C6
330
5BD
100
AcDbEntity
  8
DEFPOINTS
 62
     0
100
AcDbPoint
 10
1325.0
 20
1228.00000000008
 30
0.0
  0
POINT
  5
5C7
330
5BD
100
AcDbEntity
  8
DEFPOINTS
 62
     0
100
AcDbPoint
 10
1325.0000000001
 20
972.0000000000801
 30
0.0
  0
POINT
  5
5C8
330
5BD
100
AcDbEntity
  8
DEFPOINTS
 62
     0
100
AcDbPoint
 10
1445.0
 20
972.0000000000801
 30
0.0
  0
ENDBLK
  5
5BF
330
5BD
100
AcDbEntity
  8
0
100
AcDbBlockEnd
  0
BLOCK
  5
5CB
330
5CA
100
AcDbEntity
  8
0
100
AcDbBlockBegin
  2
*D20
 70
     1
 10
0.0
 20
0.0
 30
0.0
  3
*D20
  1

  0
LINE
  5
5CD
330
5CA
100
AcDbEntity
  8
LAY-20
  6
CONTINUOUS
 62
     4
100
AcDbLine
 10
331.4999999999914
 20
974.0000000000205
 30
0.0
 11
331.4999999999914
 21
857.0
 31
0.0
  0
LINE
  5
5CE
330
5CA
100
AcDbEntity
  8
LAY-20
  6
CONTINUOUS
 62
     4
100
AcDbLine
 10
918.4999999999923
 20
974.0000000000205
 30
0.0
 11
918.4999999999923
 21
857.0
 31
0.0
  0
LINE
  5
5CF
330
5CA
100
AcDbEntity
  8
LAY-20
  6
CONTINUOUS
 62
     4
100
AcDbLine
 10
343.9999999999914
 20
864.5
 30
0.0
 11
905.9999999999923
 21
864.5
 31
0.0
  0
INSERT
  5
5D0
330
5CA
100
AcDbEntity
  8
LAY-20
 62
     4
100
AcDbBlockReference
  2
EX_BNORM
 10
331.4999999999914
 20
864.5
 30
0.0
 41
12.5
 42
12.5
 43
12.5
 50
180.0
  0
INSERT
  5
5D1
330
5CA
100
AcDbEntity
  8
LAY-20
 62
     4
100
AcDbBlockReference
  2
EX_BNORM
 10
918.4999999999923
 20
864.5
 30
0.0
 41
12.5
 42
12.5
 43
12.5
  0
MTEXT
  5
5D2
330
5CA
100
AcDbEntity
  8
LAY-20
 62
     7
100
AcDbMText
 10
624.9999999999918
 20
877.0
 30
0.0
 40
15.590552
 41
0.0
 71
     5
 72
     1
  1
587
  7
EXCADDIM1
  0
POINT
  5
5D3
330
5CA
100
AcDbEntity
  8
DEFPOINTS
 62
     0
100
AcDbPoint
 10
331.4999999999914
 20
981.5000000000205
 30
0.0
  0
POINT
  5
5D4
330
5CA
100
AcDbEntity
  8
DEFPOINTS
 62
     0
100
AcDbPoint
 10
918.4999999999923
 20
981.5000000000205
 30
0.0
  0
POINT
  5
5D5
330
5CA
100
AcDbEntity
  8
DEFPOINTS
 62
     0
100
AcDbPoint
 10
918.4999999999923
 20
864.5
 30
0.0
  0
ENDBLK
  5
5CC
330
5CA
100
AcDbEntity
  8
0
100
AcDbBlockEnd
  0
BLOCK
  5
5D8
330
5D7
100
AcDbEntity
  8
0
100
AcDbBlockBegin
  2
*D21
 70
     1
 10
0.0
 20
0.0
 30
0.0
  3
*D21
  1

  0
LINE
  5
5DA
330
5D7
100
AcDbEntity
  8
LAY-20
  6
CONTINUOUS
 62
     4
100
AcDbLine
 10
925.0000000000023
 20
967.500000000021
 30
0.0
 11
925.0000000000023
 21
822.0
 31
0.0
  0
LINE
  5
5DB
330
5D7
100
AcDbEntity
  8
LAY-20
  6
CONTINUOUS
 62
     4
100
AcDbLine
 10
325.0000000000018
 20
967.500000000021
 30
0.0
 11
325.0000000000018
 21
822.0
 31
0.0
  0
LINE
  5
5DC
330
5D7
100
AcDbEntity
  8
LAY-20
  6
CONTINUOUS
 62
     4
100
AcDbLine
 10
912.5000000000023
 20
829.5
 30
0.0
 11
337.5000000000018
 21
829.5
 31
0.0
  0
INSERT
  5
5DD
330
5D7
100
AcDbEntity
  8
LAY-20
 62
     4
100
AcDbBlockReference
  2
EX_BNORM
 10
925.0000000000023
 20
829.5
 30
0.0
 41
12.5
 42
12.5
 43
12.5
  0
INSERT
  5
5DE
330
5D7
100
AcDbEntity
  8
LAY-20
 62
     4
100
AcDbBlockReference
  2
EX_BNORM
 10
325.0000000000018
 20
829.5
 30
0.0
 41
12.5
 42
12.5
 43
12.5
 50
180.0
  0
MTEXT
  5
5DF
330
5D7
100
AcDbEntity
  8
LAY-20
 62
     7
100
AcDbMText
 10
625.000000000002
 20
842.0
 30
0.0
 40
15.590552
 41
0.0
 71
     5
 72
     1
  1
600
  7
EXCADDIM1
  0
POINT
  5
5E0
330
5D7
100
AcDbEntity
  8
DEFPOINTS
 62
     0
100
AcDbPoint
 10
925.0000000000023
 20
975.000000000021
 30
0.0
  0
POINT
  5
5E1
330
5D7
100
AcDbEntity
  8
DEFPOINTS
 62
     0
100
AcDbPoint
 10
325.0000000000018
 20
975.000000000021
 30
0.0
  0
POINT
  5
5E2
330
5D7
100
AcDbEntity
  8
DEFPOINTS
 62
     0
100
AcDbPoint
 10
325.0000000000018
 20
829.5
 30
0.0
  0
ENDBLK
  5
5D9
330
5D7
100
AcDbEntity
  8
0
100
AcDbBlockEnd
  0
BLOCK
  5
5E5
330
5E4
100
AcDbEntity
  8
0
100
AcDbBlockBegin
  2
*D22
 70
     1
 10
0.0
 20
0.0
 30
0.0
  3
*D22
  1

  0
LINE
  5
5E7
330
5E4
100
AcDbEntity
  8
LAY-20
  6
CONTINUOUS
 62
     4
100
AcDbLine
 10
1172.5
 20
1144.5000000001
 30
0.0
 11
1117.5
 21
1144.5000000001
 31
0.0
  0
LINE
  5
5E8
330
5E4
100
AcDbEntity
  8
LAY-20
  6
CONTINUOUS
 62
     4
100
AcDbLine
 10
1125.0
 20
1157.0000000001
 30
0.0
 11
1125.0
 21
1206.0
 31
0.0
  0
INSERT
  5
5E9
330
5E4
100
AcDbEntity
  8
LAY-20
 62
     4
100
AcDbBlockReference
  2
EX_BNORM
 10
1125.0
 20
1144.5000000001
 30
0.0
 41
12.5
 42
12.5
 43
12.5
 50
270.0
  0
INSERT
  5
5EA
330
5E4
100
AcDbEntity
  8
LAY-20
 62
     4
100
AcDbBlockReference
  2
EX_BNORM
 10
1125.0
 20
1218.5
 30
0.0
 41
12.5
 42
12.5
 43
12.5
 50
90.0
  0
MTEXT
  5
5EB
330
5E4
100
AcDbEntity
  8
LAY-20
 62
     7
100
AcDbMText
 10
1112.5
 20
1181.50000000005
 30
0.0
 40
15.590552
 41
0.0
 71
     5
 72
     1
  1
74
  7
EXCADDIM1
 11
0.0
 21
1.0
 31
0.0
  0
POINT
  5
5EC
330
5E4
100
AcDbEntity
  8
DEFPOINTS
 62
     0
100
AcDbPoint
 10
1180.0
 20
1144.5000000001
 30
0.0
  0
POINT
  5
5ED
330
5E4
100
AcDbEntity
  8
DEFPOINTS
 62
     0
100
AcDbPoint
 10
1125.0
 20
1218.5
 30
0.0
  0
POINT
  5
5EE
330
5E4
100
AcDbEntity
  8
DEFPOINTS
 62
     0
100
AcDbPoint
 10
1125.0
 20
1218.5
 30
0.0
  0
ENDBLK
  5
5E6
330
5E4
100
AcDbEntity
  8
0
100
AcDbBlockEnd
  0
BLOCK
  5
5F1
330
5F0
100
AcDbEntity
  8
0
100
AcDbBlockBegin
  2
*D23
 70
     1
 10
0.0
 20
0.0
 30
0.0
  3
*D23
  1

  0
LINE
  5
5F3
330
5F0
100
AcDbEntity
  8
LAY-20
  6
CONTINUOUS
 62
     4
100
AcDbLine
 10
335.9999999999898
 20
978.5000000000201
 30
0.0
 11
335.9999999999898
 21
892.0000000000002
 31
0.0
  0
LINE
  5
5F4
330
5F0
100
AcDbEntity
  8
LAY-20
  6
CONTINUOUS
 62
     4
100
AcDbLine
 10
913.9999999999901
 20
978.5000000000201
 30
0.0
 11
913.9999999999901
 21
892.0000000000002
 31
0.0
  0
LINE
  5
5F5
330
5F0
100
AcDbEntity
  8
LAY-20
  6
CONTINUOUS
 62
     4
100
AcDbLine
 10
348.4999999999898
 20
899.5000000000002
 30
0.0
 11
901.4999999999901
 21
899.5000000000002
 31
0.0
  0
INSERT
  5
5F6
330
5F0
100
AcDbEntity
  8
LAY-20
 62
     4
100
AcDbBlockReference
  2
EX_BNORM
 10
335.9999999999898
 20
899.5000000000002
 30
0.0
 41
12.5
 42
12.5
 43
12.5
 50
180.0
  0
INSERT
  5
5F7
330
5F0
100
AcDbEntity
  8
LAY-20
 62
     4
100
AcDbBlockReference
  2
EX_BNORM
 10
913.9999999999901
 20
899.5000000000002
 30
0.0
 41
12.5
 42
12.5
 43
12.5
  0
MTEXT
  5
5F8
330
5F0
100
AcDbEntity
  8
LAY-20
 62
     7
100
AcDbMText
 10
624.99999999999
 20
912.0000000000002
 30
0.0
 40
15.590552
 41
0.0
 71
     5
 72
     1
  1
578
  7
EXCADDIM1
  0
POINT
  5
5F9
330
5F0
100
AcDbEntity
  8
DEFPOINTS
 62
     0
100
AcDbPoint
 10
335.9999999999898
 20
986.0000000000201
 30
0.0
  0
POINT
  5
5FA
330
5F0
100
AcDbEntity
  8
DEFPOINTS
 62
     0
100
AcDbPoint
 10
913.9999999999901
 20
986.0000000000201
 30
0.0
  0
POINT
  5
5FB
330
5F0
100
AcDbEntity
  8
DEFPOINTS
 62
     0
100
AcDbPoint
 10
913.9999999999901
 20
899.5000000000002
 30
0.0
  0
ENDBLK
  5
5F2
330
5F0
100
AcDbEntity
  8
0
100
AcDbBlockEnd
  0
BLOCK
  5
5FE
330
5FD
100
AcDbEntity
  8
0
100
AcDbBlockBegin
  2
*D24
 70
     1
 10
0.0
 20
0.0
 30
0.0
  3
*D24
  1

  0
LINE
  5
600
330
5FD
100
AcDbEntity
  8
LAY-20
  6
CONTINUOUS
 62
     4
100
AcDbLine
 10
1090.0
 20
1150.50000000004
 30
0.0
 11
1090.0
 21
1206.00000000004
 31
0.0
  0
INSERT
  5
601
330
5FD
100
AcDbEntity
  8
LAY-20
 62
     4
100
AcDbBlockReference
  2
EX_BNORM
 10
1090.0
 20
1138.00000000004
 30
0.0
 41
12.5
 42
12.5
 43
12.5
 50
270.0
  0
INSERT
  5
602
330
5FD
100
AcDbEntity
  8
LAY-20
 62
     4
100
AcDbBlockReference
  2
EX_BNORM
 10
1090.0
 20
1218.50000000004
 30
0.0
 41
12.5
 42
12.5
 43
12.5
 50
90.0
  0
MTEXT
  5
603
330
5FD
100
AcDbEntity
  8
LAY-20
 62
     7
100
AcDbMText
 10
1077.5
 20
1178.25000000004
 30
0.0
 40
15.590552
 41
0.0
 71
     5
 72
     1
  1
80.5
  7
EXCADDIM1
 11
0.0
 21
1.0
 31
0.0
  0
POINT
  5
604
330
5FD
100
AcDbEntity
  8
DEFPOINTS
 62
     0
100
AcDbPoint
 10
1055.0
 20
1138.00000000004
 30
0.0
  0
POINT
  5
605
330
5FD
100
AcDbEntity
  8
DEFPOINTS
 62
     0
100
AcDbPoint
 10
1055.0
 20
1218.50000000004
 30
0.0
  0
POINT
  5
606
330
5FD
100
AcDbEntity
  8
DEFPOINTS
 62
     0
100
AcDbPoint
 10
1090.0
 20
1218.50000000004
 30
0.0
  0
ENDBLK
  5
5FF
330
5FD
100
AcDbEntity
  8
0
100
AcDbBlockEnd
  0
BLOCK
  5
609
330
608
100
AcDbEntity
  8
0
100
AcDbBlockBegin
  2
*D25
 70
     1
 10
0.0
 20
0.0
 30
0.0
  3
*D25
  1

  0
LINE
  5
60B
330
608
100
AcDbEntity
  8
LAY-20
  6
CONTINUOUS
 62
     4
100
AcDbLine
 10
1167.5
 20
1138.00000000004
 30
0.0
 11
1082.5
 21
1138.00000000004
 31
0.0
  0
LINE
  5
60C
330
608
100
AcDbEntity
  8
LAY-20
  6
CONTINUOUS
 62
     4
100
AcDbLine
 10
1167.5
 20
986.0000000000406
 30
0.0
 11
1082.5
 21
986.0000000000406
 31
0.0
  0
LINE
  5
60D
330
608
100
AcDbEntity
  8
LAY-20
  6
CONTINUOUS
 62
     4
100
AcDbLine
 10
1090.0
 20
1125.50000000004
 30
0.0
 11
1090.0
 21
998.5000000000406
 31
0.0
  0
INSERT
  5
60E
330
608
100
AcDbEntity
  8
LAY-20
 62
     4
100
AcDbBlockReference
  2
EX_BNORM
 10
1090.0
 20
1138.00000000004
 30
0.0
 41
12.5
 42
12.5
 43
12.5
 50
90.0
  0
INSERT
  5
60F
330
608
100
AcDbEntity
  8
LAY-20
 62
     4
100
AcDbBlockReference
  2
EX_BNORM
 10
1090.0
 20
986.0000000000406
 30
0.0
 41
12.5
 42
12.5
 43
12.5
 50
270.0
  0
MTEXT
  5
610
330
608
100
AcDbEntity
  8
LAY-20
 62
     7
100
AcDbMText
 10
1077.5
 20
1062.00000000004
 30
0.0
 40
15.590552
 41
0.0
 71
     5
 72
     1
  1
152
  7
EXCADDIM1
 11
0.0
 21
1.0
 31
0.0
  0
POINT
  5
611
330
608
100
AcDbEntity
  8
DEFPOINTS
 62
     0
100
AcDbPoint
 10
1175.0
 20
1138.00000000004
 30
0.0
  0
POINT
  5
612
330
608
100
AcDbEntity
  8
DEFPOINTS
 62
     0
100
AcDbPoint
 10
1175.0
 20
986.0000000000406
 30
0.0
  0
POINT
  5
613
330
608
100
AcDbEntity
  8
DEFPOINTS
 62
     0
100
AcDbPoint
 10
1090.0
 20
986.0000000000406
 30
0.0
  0
ENDBLK
  5
60A
330
608
100
AcDbEntity
  8
0
100
AcDbBlockEnd
  0
BLOCK
  5
616
330
615
100
AcDbEntity
  8
0
100
AcDbBlockBegin
  2
*D26
 70
     1
 10
0.0
 20
0.0
 30
0.0
  3
*D26
  1

  0
LINE
  5
618
330
615
100
AcDbEntity
  8
LAY-20
  6
CONTINUOUS
 62
     4
100
AcDbLine
 10
1167.5
 20
981.50000000002
 30
0.0
 11
1047.5
 21
981.5000000000201
 31
0.0
  0
LINE
  5
619
330
615
100
AcDbEntity
  8
LAY-20
  6
CONTINUOUS
 62
     4
100
AcDbLine
 10
1167.5
 20
1218.50000000004
 30
0.0
 11
1047.5
 21
1218.50000000004
 31
0.0
  0
LINE
  5
61A
330
615
100
AcDbEntity
  8
LAY-20
  6
CONTINUOUS
 62
     4
100
AcDbLine
 10
1055.0
 20
994.0000000000201
 30
0.0
 11
1055.0
 21
1206.00000000004
 31
0.0
  0
INSERT
  5
61B
330
615
100
AcDbEntity
  8
LAY-20
 62
     4
100
AcDbBlockReference
  2
EX_BNORM
 10
1055.0
 20
981.5000000000201
 30
0.0
 41
12.5
 42
12.5
 43
12.5
 50
270.0
  0
INSERT
  5
61C
330
615
100
AcDbEntity
  8
LAY-20
 62
     4
100
AcDbBlockReference
  2
EX_BNORM
 10
1055.0
 20
1218.50000000004
 30
0.0
 41
12.5
 42
12.5
 43
12.5
 50
90.0
  0
MTEXT
  5
61D
330
615
100
AcDbEntity
  8
LAY-20
 62
     7
100
AcDbMText
 10
1042.5
 20
1100.00000000003
 30
0.0
 40
15.590552
 41
0.0
 71
     5
 72
     1
  1
237
  7
EXCADDIM1
 11
0.0
 21
1.0
 31
0.0
  0
POINT
  5
61E
330
615
100
AcDbEntity
  8
DEFPOINTS
 62
     0
100
AcDbPoint
 10
1175.0
 20
981.50000000002
 30
0.0
  0
POINT
  5
61F
330
615
100
AcDbEntity
  8
DEFPOINTS
 62
     0
100
AcDbPoint
 10
1175.0
 20
1218.50000000004
 30
0.0
  0
POINT
  5
620
330
615
100
AcDbEntity
  8
DEFPOINTS
 62
     0
100
AcDbPoint
 10
1055.0
 20
1218.50000000004
 30
0.0
  0
ENDBLK
  5
617
330
615
100
AcDbEntity
  8
0
100
AcDbBlockEnd
  0
BLOCK
  5
623
330
622
100
AcDbEntity
  8
0
100
AcDbBlockBegin
  2
*D27
 70
     1
 10
0.0
 20
0.0
 30
0.0
  3
*D27
  1

  0
LINE
  5
625
330
622
100
AcDbEntity
  8
LAY-20
  6
CONTINUOUS
 62
     4
100
AcDbLine
 10
1167.5
 20
1225.00000000004
 30
0.0
 11
1012.5
 21
1225.00000000004
 31
0.0
  0
LINE
  5
626
330
622
100
AcDbEntity
  8
LAY-20
  6
CONTINUOUS
 62
     4
100
AcDbLine
 10
1167.5
 20
975.0000000000202
 30
0.0
 11
1012.5
 21
975.0000000000202
 31
0.0
  0
LINE
  5
627
330
622
100
AcDbEntity
  8
LAY-20
  6
CONTINUOUS
 62
     4
100
AcDbLine
 10
1020.0
 20
1212.50000000004
 30
0.0
 11
1020.0
 21
987.5000000000202
 31
0.0
  0
INSERT
  5
628
330
622
100
AcDbEntity
  8
LAY-20
 62
     4
100
AcDbBlockReference
  2
EX_BNORM
 10
1020.0
 20
1225.00000000004
 30
0.0
 41
12.5
 42
12.5
 43
12.5
 50
90.0
  0
INSERT
  5
629
330
622
100
AcDbEntity
  8
LAY-20
 62
     4
100
AcDbBlockReference
  2
EX_BNORM
 10
1020.0
 20
975.0000000000202
 30
0.0
 41
12.5
 42
12.5
 43
12.5
 50
270.0
  0
MTEXT
  5
62A
330
622
100
AcDbEntity
  8
LAY-20
 62
     7
100
AcDbMText
 10
1007.5
 20
1100.00000000003
 30
0.0
 40
15.590552
 41
0.0
 71
     5
 72
     1
  1
250
  7
EXCADDIM1
 11
0.0
 21
1.0
 31
0.0
  0
POINT
  5
62B
330
622
100
AcDbEntity
  8
DEFPOINTS
 62
     0
100
AcDbPoint
 10
1175.0
 20
1225.00000000004
 30
0.0
  0
POINT
  5
62C
330
622
100
AcDbEntity
  8
DEFPOINTS
 62
     0
100
AcDbPoint
 10
1175.0
 20
975.0000000000202
 30
0.0
  0
POINT
  5
62D
330
622
100
AcDbEntity
  8
DEFPOINTS
 62
     0
100
AcDbPoint
 10
1020.0
 20
975.0000000000202
 30
0.0
  0
ENDBLK
  5
624
330
622
100
AcDbEntity
  8
0
100
AcDbBlockEnd
  0
BLOCK
  5
630
330
62F
100
AcDbEntity
  8
0
100
AcDbBlockBegin
  2
*D28
 70
     1
 10
0.0
 20
0.0
 30
0.0
  3
*D28
  1

  0
LINE
  5
632
330
62F
100
AcDbEntity
  8
LAY-20
  6
CONTINUOUS
 62
     4
100
AcDbLine
 10
1175.0
 20
978.50000000006
 30
0.0
 11
1175.0
 21
857.0
 31
0.0
  0
LINE
  5
633
330
62F
100
AcDbEntity
  8
LAY-20
  6
CONTINUOUS
 62
     4
100
AcDbLine
 10
1255.0
 20
978.50000000006
 30
0.0
 11
1255.0
 21
857.0
 31
0.0
  0
LINE
  5
634
330
62F
100
AcDbEntity
  8
LAY-20
  6
CONTINUOUS
 62
     4
100
AcDbLine
 10
1187.5
 20
864.5
 30
0.0
 11
1242.5
 21
864.5
 31
0.0
  0
INSERT
  5
635
330
62F
100
AcDbEntity
  8
LAY-20
 62
     4
100
AcDbBlockReference
  2
EX_BNORM
 10
1175.0
 20
864.5
 30
0.0
 41
12.5
 42
12.5
 43
12.5
 50
180.0
  0
INSERT
  5
636
330
62F
100
AcDbEntity
  8
LAY-20
 62
     4
100
AcDbBlockReference
  2
EX_BNORM
 10
1255.0
 20
864.5
 30
0.0
 41
12.5
 42
12.5
 43
12.5
  0
MTEXT
  5
637
330
62F
100
AcDbEntity
  8
LAY-20
 62
     7
100
AcDbMText
 10
1215.0
 20
877.0
 30
0.0
 40
15.590552
 41
0.0
 71
     5
 72
     1
  1
80
  7
EXCADDIM1
  0
POINT
  5
638
330
62F
100
AcDbEntity
  8
DEFPOINTS
 62
     0
100
AcDbPoint
 10
1175.0
 20
986.00000000006
 30
0.0
  0
POINT
  5
639
330
62F
100
AcDbEntity
  8
DEFPOINTS
 62
     0
100
AcDbPoint
 10
1255.0
 20
986.00000000006
 30
0.0
  0
POINT
  5
63A
330
62F
100
AcDbEntity
  8
DEFPOINTS
 62
     0
100
AcDbPoint
 10
1255.0
 20
864.5
 30
0.0
  0
ENDBLK
  5
631
330
62F
100
AcDbEntity
  8
0
100
AcDbBlockEnd
  0
BLOCK
  5
63D
330
63C
100
AcDbEntity
  8
0
100
AcDbBlockBegin
  2
*D29
 70
     1
 10
0.0
 20
0.0
 30
0.0
  3
*D29
  1

  0
LINE
  5
63F
330
63C
100
AcDbEntity
  8
LAY-20
  6
CONTINUOUS
 62
     4
100
AcDbLine
 10
1244.9999999999
 20
1034.5727568866
 30
0.0
 11
1244.9999999999
 21
892.0
 31
0.0
  0
LINE
  5
640
330
63C
100
AcDbEntity
  8
LAY-20
  6
CONTINUOUS
 62
     4
100
AcDbLine
 10
1232.4999999999
 20
899.5
 30
0.0
 11
1187.5
 21
899.5
 31
0.0
  0
INSERT
  5
641
330
63C
100
AcDbEntity
  8
LAY-20
 62
     4
100
AcDbBlockReference
  2
EX_BNORM
 10
1244.9999999999
 20
899.5
 30
0.0
 41
12.5
 42
12.5
 43
12.5
  0
INSERT
  5
642
330
63C
100
AcDbEntity
  8
LAY-20
 62
     4
100
AcDbBlockReference
  2
EX_BNORM
 10
1175.0
 20
899.5
 30
0.0
 41
12.5
 42
12.5
 43
12.5
 50
180.0
  0
MTEXT
  5
643
330
63C
100
AcDbEntity
  8
LAY-20
 62
     7
100
AcDbMText
 10
1209.99999999995
 20
912.0
 30
0.0
 40
15.590552
 41
0.0
 71
     5
 72
     1
  1
70
  7
EXCADDIM1
  0
POINT
  5
644
330
63C
100
AcDbEntity
  8
DEFPOINTS
 62
     0
100
AcDbPoint
 10
1244.9999999999
 20
1042.0727568866
 30
0.0
  0
POINT
  5
645
330
63C
100
AcDbEntity
  8
DEFPOINTS
 62
     0
100
AcDbPoint
 10
1175.0
 20
899.5
 30
0.0
  0
POINT
  5
646
330
63C
100
AcDbEntity
  8
DEFPOINTS
 62
     0
100
AcDbPoint
 10
1175.0
 20
899.5
 30
0.0
  0
ENDBLK
  5
63E
330
63C
100
AcDbEntity
  8
0
100
AcDbBlockEnd
  0
ENDSEC
  0
SECTION
  2
ENTITIES
  0
LINE
  5
D4
330
1F
100
AcDbEntity
  8
LAY-10
  6
CONTINUOUS
 62
     7
100
AcDbLine
 10
1456.642135623736
 20
1225.000000000074
 30
0.0
 11
1505.000000000003
 21
1176.642135623807
 31
0.0
  0
LINE
  5
D5
330
1F
100
AcDbEntity
  8
LAY-10
  6
CONTINUOUS
 62
     7
100
AcDbLine
 10
1442.500000000005
 20
1225.000000000074
 30
0.0
 11
1505.000000000003
 21
1162.500000000076
 31
0.0
  0
LINE
  5
D6
330
1F
100
AcDbEntity
  8
LAY-10
  6
CONTINUOUS
 62
     7
100
AcDbLine
 10
1428.357864376274
 20
1225.000000000074
 30
0.0
 11
1505.000000000003
 21
1148.357864376346
 31
0.0
  0
LINE
  5
D7
330
1F
100
AcDbEntity
  8
LAY-10
  6
CONTINUOUS
 62
     7
100
AcDbLine
 10
1343.505050633889
 20
1225.000000000074
 30
0.0
 11
1381.176623509136
 21
1187.328427124826
 31
0.0
  0
LINE
  5
D8
330
1F
100
AcDbEntity
  8
LAY-10
  6
CONTINUOUS
 62
     7
100
AcDbLine
 10
1465.000000000003
 20
1103.50505063396
 30
0.0
 11
1505.000000000003
 21
1063.50505063396
 31
0.0
  0
LINE
  5
D9
330
1F
100
AcDbEntity
  8
LAY-10
  6
CONTINUOUS
 62
     7
100
AcDbLine
 10
1329.362915010158
 20
1225.000000000074
 30
0.0
 11
1366.630426867584
 21
1187.732488142648
 31
0.0
  0
LINE
  5
DA
330
1F
100
AcDbEntity
  8
LAY-10
  6
CONTINUOUS
 62
     7
100
AcDbLine
 10
1465.000000000003
 20
1089.362915010229
 30
0.0
 11
1505.000000000003
 21
1049.362915010229
 31
0.0
  0
LINE
  5
DB
330
1F
100
AcDbEntity
  8
LAY-10
  6
CONTINUOUS
 62
     7
100
AcDbLine
 10
1315.220779386427
 20
1225.000000000074
 30
0.0
 11
1352.084230226031
 21
1188.136549160469
 31
0.0
  0
LINE
  5
DC
330
1F
100
AcDbEntity
  8
LAY-10
  6
CONTINUOUS
 62
     7
100
AcDbLine
 10
1465.000000000003
 20
1075.220779386498
 30
0.0
 11
1505.000000000003
 21
1035.220779386498
 31
0.0
  0
LINE
  5
DD
330
1F
100
AcDbEntity
  8
LAY-10
  6
CONTINUOUS
 62
     7
100
AcDbLine
 10
1413.513864818291
 20
1013.569829578362
 30
0.0
 11
1452.08369439657
 21
975.0000000000833
 31
0.0
  0
LINE
  5
DE
330
1F
100
AcDbEntity
  8
LAY-10
  6
CONTINUOUS
 62
     7
100
AcDbLine
 10
1330.954370366239
 20
1011.276510288029
 30
0.0
 11
1367.230880654184
 21
975.0000000000833
 31
0.0
  0
LINE
  5
DF
330
1F
100
AcDbEntity
  8
LAY-10
  6
CONTINUOUS
 62
     7
100
AcDbLine
 10
1317.194454624232
 20
1010.894290406305
 30
0.0
 11
1353.088745030453
 21
975.0000000000833
 31
0.0
  0
LINE
  5
E0
330
1F
100
AcDbEntity
  8
LAY-10
  6
CONTINUOUS
 62
     7
100
AcDbLine
 10
1303.434538882224
 20
1010.512070524582
 30
0.0
 11
1338.946609406722
 21
975.0000000000838
 31
0.0
  0
LINE
  5
E1
330
1F
100
AcDbEntity
  8
LAY-10
  6
CONTINUOUS
 62
     7
100
AcDbLine
 10
1438.951661088157
 20
1016.416304555959
 30
0.0
 11
1477.683982822276
 21
977.6839828218405
 31
0.0
  0
LINE
  5
E2
330
1F
100
AcDbEntity
  8
LAY-10
  6
CONTINUOUS
 62
     7
100
AcDbLine
 10
1427.257743601145
 20
1013.96808641924
 30
0.0
 11
1466.225830020301
 21
975.0000000000833
 31
0.0
  0
LINE
  5
E3
330
1F
100
AcDbEntity
  8
LAY-10
  6
CONTINUOUS
 62
     7
100
AcDbLine
 10
1278.5
 20
1009.041630560324
 30
0.0
 11
1279.458369439754
 21
1010.000000000078
 31
0.0
  0
LINE
  5
E4
330
1F
100
AcDbEntity
  8
LAY-10
  6
CONTINUOUS
 62
     7
100
AcDbLine
 10
1278.499999999997
 20
1007.627416997948
 30
0.0
 11
1280.5
 21
1009.627416997951
 31
0.0
  0
LINE
  5
E5
330
1F
100
AcDbEntity
  8
LAY-10
  6
CONTINUOUS
 62
     7
100
AcDbLine
 10
1278.500000000001
 20
1006.213203435579
 30
0.0
 11
1280.499999999997
 21
1008.213203435576
 31
0.0
  0
LINE
  5
E6
330
1F
100
AcDbEntity
  8
LAY-10
  6
CONTINUOUS
 62
     7
100
AcDbLine
 10
1278.499999999998
 20
1004.798989873203
 30
0.0
 11
1280.500000000001
 21
1006.798989873207
 31
0.0
  0
LINE
  5
E7
330
1F
100
AcDbEntity
  8
LAY-10
  6
CONTINUOUS
 62
     7
100
AcDbLine
 10
1278.500000000003
 20
1003.384776310834
 30
0.0
 11
1280.499999999999
 21
1005.384776310831
 31
0.0
  0
LINE
  5
E8
330
1F
100
AcDbEntity
  8
LAY-10
  6
CONTINUOUS
 62
     7
100
AcDbLine
 10
1278.5
 20
1001.970562748459
 30
0.0
 11
1280.499999999996
 21
1003.970562748455
 31
0.0
  0
LINE
  5
E9
330
1F
100
AcDbEntity
  8
LAY-10
  6
CONTINUOUS
 62
     7
100
AcDbLine
 10
1278.499999999997
 20
1000.556349186083
 30
0.0
 11
1280.5
 21
1002.556349186086
 31
0.0
  0
LINE
  5
EA
330
1F
100
AcDbEntity
  8
LAY-10
  6
CONTINUOUS
 62
     7
100
AcDbLine
 10
1278.500000000001
 20
999.1421356237134
 30
0.0
 11
1280.499999999997
 21
1001.142135623711
 31
0.0
  0
LINE
  5
EB
330
1F
100
AcDbEntity
  8
LAY-10
  6
CONTINUOUS
 62
     7
100
AcDbLine
 10
1278.499999999998
 20
997.7279220613378
 30
0.0
 11
1280.500000000001
 21
999.727922061341
 31
0.0
  0
LINE
  5
EC
330
1F
100
AcDbEntity
  8
LAY-10
  6
CONTINUOUS
 62
     7
100
AcDbLine
 10
1278.500000000002
 20
996.313708498969
 30
0.0
 11
1280.499999999999
 21
998.3137084989654
 31
0.0
  0
LINE
  5
ED
330
1F
100
AcDbEntity
  8
LAY-10
  6
CONTINUOUS
 62
     7
100
AcDbLine
 10
1278.499999999999
 20
994.8994949365931
 30
0.0
 11
1280.499999999996
 21
996.8994949365898
 31
0.0
  0
LINE
  5
EE
330
1F
100
AcDbEntity
  8
LAY-10
  6
CONTINUOUS
 62
     7
100
AcDbLine
 10
1278.500000000003
 20
993.4852813742242
 30
0.0
 11
1280.5
 21
995.4852813742201
 31
0.0
  0
LINE
  5
EF
330
1F
100
AcDbEntity
  8
LAY-10
  6
CONTINUOUS
 62
     7
100
AcDbLine
 10
1278.500000000001
 20
992.0710678118486
 30
0.0
 11
1280.499999999997
 21
994.071067811845
 31
0.0
  0
LINE
  5
F0
330
1F
100
AcDbEntity
  8
LAY-10
  6
CONTINUOUS
 62
     7
100
AcDbLine
 10
1278.499999999998
 20
990.656854249473
 30
0.0
 11
1280.500000000001
 21
992.6568542494757
 31
0.0
  0
LINE
  5
F1
330
1F
100
AcDbEntity
  8
LAY-10
  6
CONTINUOUS
 62
     7
100
AcDbLine
 10
1278.500000000002
 20
989.2426406871039
 30
0.0
 11
1280.499999999998
 21
991.2426406871006
 31
0.0
  0
LINE
  5
F2
330
1F
100
AcDbEntity
  8
LAY-10
  6
CONTINUOUS
 62
     7
100
AcDbLine
 10
1278.499999999999
 20
987.8284271247281
 30
0.0
 11
1280.499999999996
 21
989.828427124724
 31
0.0
  0
LINE
  5
F3
330
1F
100
AcDbEntity
  8
LAY-10
  6
CONTINUOUS
 62
     7
100
AcDbLine
 10
1278.500000000003
 20
986.4142135623589
 30
0.0
 11
1280.5
 21
988.4142135623557
 31
0.0
  0
LINE
  5
F4
330
1F
100
AcDbEntity
  8
LAY-10
  6
CONTINUOUS
 62
     7
100
AcDbLine
 10
1278.499999999975
 20
984.9999999999574
 30
0.0
 11
1280.499999999997
 21
986.9999999999797
 31
0.0
  0
LINE
  5
F5
330
1F
100
AcDbEntity
  8
LAY-10
  6
CONTINUOUS
 62
     7
100
AcDbLine
 10
1279.914213562344
 20
984.9999999999534
 30
0.0
 11
1280.499999999995
 21
985.5857864376045
 31
0.0
  0
LINE
  5
F6
330
1F
100
AcDbEntity
  8
LAY-10
  6
CONTINUOUS
 62
     7
100
AcDbLine
 10
1278.5
 20
1214.041630560423
 30
0.0
 11
1279.458369439741
 21
1215.000000000164
 31
0.0
  0
LINE
  5
F7
330
1F
100
AcDbEntity
  8
LAY-10
  6
CONTINUOUS
 62
     7
100
AcDbLine
 10
1278.499999999997
 20
1212.627416998047
 30
0.0
 11
1280.5
 21
1214.62741699805
 31
0.0
  0
LINE
  5
F8
330
1F
100
AcDbEntity
  8
LAY-10
  6
CONTINUOUS
 62
     7
100
AcDbLine
 10
1278.500000000001
 20
1211.213203435678
 30
0.0
 11
1280.500000000004
 21
1213.213203435681
 31
0.0
  0
LINE
  5
F9
330
1F
100
AcDbEntity
  8
LAY-10
  6
CONTINUOUS
 62
     7
100
AcDbLine
 10
1278.499999999998
 20
1209.798989873303
 30
0.0
 11
1280.500000000001
 21
1211.798989873305
 31
0.0
  0
LINE
  5
FA
330
1F
100
AcDbEntity
  8
LAY-10
  6
CONTINUOUS
 62
     7
100
AcDbLine
 10
1278.500000000002
 20
1208.384776310933
 30
0.0
 11
1280.499999999999
 21
1210.38477631093
 31
0.0
  0
LINE
  5
FB
330
1F
100
AcDbEntity
  8
LAY-10
  6
CONTINUOUS
 62
     7
100
AcDbLine
 10
1278.499999999999
 20
1206.970562748558
 30
0.0
 11
1280.500000000002
 21
1208.970562748561
 31
0.0
  0
LINE
  5
FC
330
1F
100
AcDbEntity
  8
LAY-10
  6
CONTINUOUS
 62
     7
100
AcDbLine
 10
1278.499999999997
 20
1205.556349186182
 30
0.0
 11
1280.5
 21
1207.556349186185
 31
0.0
  0
LINE
  5
FD
330
1F
100
AcDbEntity
  8
LAY-10
  6
CONTINUOUS
 62
     7
100
AcDbLine
 10
1278.5
 20
1204.142135623813
 30
0.0
 11
1280.500000000004
 21
1206.142135623816
 31
0.0
  0
LINE
  5
FE
330
1F
100
AcDbEntity
  8
LAY-10
  6
CONTINUOUS
 62
     7
100
AcDbLine
 10
1278.499999999998
 20
1202.727922061437
 30
0.0
 11
1280.500000000001
 21
1204.72792206144
 31
0.0
  0
LINE
  5
FF
330
1F
100
AcDbEntity
  8
LAY-10
  6
CONTINUOUS
 62
     7
100
AcDbLine
 10
1278.500000000002
 20
1201.313708499068
 30
0.0
 11
1280.499999999998
 21
1203.313708499065
 31
0.0
  0
LINE
  5
100
330
1F
100
AcDbEntity
  8
LAY-10
  6
CONTINUOUS
 62
     7
100
AcDbLine
 10
1278.499999999999
 20
1199.899494936692
 30
0.0
 11
1280.500000000002
 21
1201.899494936695
 31
0.0
  0
LINE
  5
101
330
1F
100
AcDbEntity
  8
LAY-10
  6
CONTINUOUS
 62
     7
100
AcDbLine
 10
1278.500000000003
 20
1198.485281374323
 30
0.0
 11
1280.5
 21
1200.48528137432
 31
0.0
  0
LINE
  5
102
330
1F
100
AcDbEntity
  8
LAY-10
  6
CONTINUOUS
 62
     7
100
AcDbLine
 10
1278.5
 20
1197.071067811948
 30
0.0
 11
1280.500000000003
 21
1199.071067811951
 31
0.0
  0
LINE
  5
103
330
1F
100
AcDbEntity
  8
LAY-10
  6
CONTINUOUS
 62
     7
100
AcDbLine
 10
1278.499999999998
 20
1195.656854249572
 30
0.0
 11
1280.500000000001
 21
1197.656854249575
 31
0.0
  0
LINE
  5
104
330
1F
100
AcDbEntity
  8
LAY-10
  6
CONTINUOUS
 62
     7
100
AcDbLine
 10
1278.500000000002
 20
1194.242640687203
 30
0.0
 11
1280.500000000004
 21
1196.242640687206
 31
0.0
  0
LINE
  5
105
330
1F
100
AcDbEntity
  8
LAY-10
  6
CONTINUOUS
 62
     7
100
AcDbLine
 10
1278.499999999999
 20
1192.828427124827
 30
0.0
 11
1280.500000000002
 21
1194.82842712483
 31
0.0
  0
LINE
  5
106
330
1F
100
AcDbEntity
  8
LAY-10
  6
CONTINUOUS
 62
     7
100
AcDbLine
 10
1278.500000000003
 20
1191.414213562458
 30
0.0
 11
1280.499999999999
 21
1193.414213562455
 31
0.0
  0
LINE
  5
107
330
1F
100
AcDbEntity
  8
LAY-10
  6
CONTINUOUS
 62
     7
100
AcDbLine
 10
1278.5
 20
1190.000000000082
 30
0.0
 11
1280.500000000003
 21
1192.000000000085
 31
0.0
  0
LINE
  5
108
330
1F
100
AcDbEntity
  8
LAY-10
  6
CONTINUOUS
 62
     7
100
AcDbLine
 10
1279.914213562376
 20
1190.000000000085
 30
0.0
 11
1280.5
 21
1190.58578643771
 31
0.0
  0
ARC
  5
109
330
1F
100
AcDbEntity
  8
LAY-10
  6
CONTINUOUS
 62
     7
100
AcDbCircle
 10
1280.5
 20
979.5000000000642
 30
0.0
 40
4.5
100
AcDbArc
 50
270.0
 51
0.0
  0
LINE
  5
10A
330
1F
100
AcDbEntity
  8
LAY-10
  6
CONTINUOUS
 62
     7
100
AcDbLine
 10
1280.5
 20
979.5000000000633
 30
0.0
 11
1280.5
 21
1220.500000000063
 31
0.0
  0
LINE
  5
10B
330
1F
100
AcDbEntity
  8
LAY-10
  6
CONTINUOUS
 62
     7
100
AcDbLine
 10
1285.0
 20
979.5000000000642
 30
0.0
 11
1285.0
 21
1220.50000000006
 31
0.0
  0
LINE
  5
10C
330
1F
100
AcDbEntity
  8
LAY-10
  6
CONTINUOUS
 62
     7
100
AcDbLine
 10
1284.99999999997
 20
1225.000000000123
 30
0.0
 11
1284.99999999997
 21
1228.000000000062
 31
0.0
  0
LINE
  5
10D
330
1F
100
AcDbEntity
  8
LAY-10
  6
CONTINUOUS
 62
     7
100
AcDbLine
 10
1255.0
 20
1228.000000000062
 30
0.0
 11
1325.000000000069
 21
1228.000000000062
 31
0.0
  0
LINE
  5
10E
330
1F
100
AcDbEntity
  8
LAY-10
  6
CONTINUOUS
 62
     7
100
AcDbLine
 10
1284.99999999997
 20
974.9999999999989
 30
0.0
 11
1284.99999999997
 21
972.0000000000588
 31
0.0
  0
LINE
  5
10F
330
1F
100
AcDbEntity
  8
LAY-10
  6
CONTINUOUS
 62
     7
100
AcDbLine
 10
1254.999999999999
 20
972.0000000000588
 30
0.0
 11
1325.000000000069
 21
972.0000000000588
 31
0.0
  0
LINE
  5
110
330
1F
100
AcDbEntity
  8
LAY-10
  6
CONTINUOUS
 62
     7
100
AcDbLine
 10
1280.5
 20
1190.00000000006
 30
0.0
 11
1285.0
 21
1190.00000000006
 31
0.0
  0
LINE
  5
111
330
1F
100
AcDbEntity
  8
LAY-10
  6
CONTINUOUS
 62
     7
100
AcDbLine
 10
1280.5
 20
1010.000000000101
 30
0.0
 11
1285.0
 21
1010.000000000101
 31
0.0
  0
LINE
  5
112
330
1F
100
AcDbEntity
  8
LAY-10
  6
CONTINUOUS
 62
     7
100
AcDbLine
 10
1280.5
 20
1220.500000000063
 30
0.0
 11
1175.0
 21
1220.500000000063
 31
0.0
  0
LINE
  5
113
330
1F
100
AcDbEntity
  8
LAY-10
  6
CONTINUOUS
 62
     7
100
AcDbLine
 10
1175.0
 20
979.5000000000642
 30
0.0
 11
1280.5
 21
979.5000000000633
 31
0.0
  0
LINE
  5
114
330
1F
100
AcDbEntity
  8
LAY-10
  6
CONTINUOUS
 62
     7
100
AcDbLine
 10
1175.0
 20
1225.000000000063
 30
0.0
 11
1284.99999999997
 21
1225.000000000063
 31
0.0
  0
LINE
  5
115
330
1F
100
AcDbEntity
  8
LAY-10
  6
CONTINUOUS
 62
     7
100
AcDbLine
 10
1175.0
 20
975.0000000000642
 30
0.0
 11
1284.99999999997
 21
975.0000000000642
 31
0.0
  0
ARC
  5
116
330
1F
100
AcDbEntity
  8
LAY-10
  6
CONTINUOUS
 62
     7
100
AcDbCircle
 10
1280.5
 20
1220.500000000057
 30
0.0
 40
4.5
100
AcDbArc
 50
0.0
 51
90.00000000000001
  0
LINE
  5
117
330
1F
100
AcDbEntity
  8
LAY-10
  6
CONTINUOUS
 62
     7
100
AcDbLine
 10
1325.000000000038
 20
972.0000000000415
 30
0.0
 11
1325.000000000038
 21
969.0000000000415
 31
0.0
  0
LINE
  5
118
330
1F
100
AcDbEntity
  8
LAY-10
  6
CONTINUOUS
 62
     7
100
AcDbLine
 10
1254.999999999999
 20
975.000000000058
 30
0.0
 11
1254.999999999999
 21
969.0000000000415
 31
0.0
  0
LINE
  5
119
330
1F
100
AcDbEntity
  8
LAY-10
  6
CONTINUOUS
 62
     7
100
AcDbLine
 10
1325.000000000037
 20
969.0000000000415
 30
0.0
 11
1254.999999999999
 21
969.0000000000415
 31
0.0
  0
LINE
  5
11A
330
1F
100
AcDbEntity
  8
LAY-10
  6
CONTINUOUS
 62
     7
100
AcDbLine
 10
1325.000000000038
 20
1228.00000000008
 30
0.0
 11
1325.000000000038
 21
1231.00000000008
 31
0.0
  0
LINE
  5
11B
330
1F
100
AcDbEntity
  8
LAY-10
  6
CONTINUOUS
 62
     7
100
AcDbLine
 10
1255.0
 20
1225.000000000063
 30
0.0
 11
1255.0
 21
1231.00000000008
 31
0.0
  0
LINE
  5
11C
330
1F
100
AcDbEntity
  8
LAY-10
  6
CONTINUOUS
 62
     7
100
AcDbLine
 10
1325.000000000038
 20
1231.00000000008
 30
0.0
 11
1255.0
 21
1231.00000000008
 31
0.0
  0
LINE
  5
11D
330
1F
100
AcDbEntity
  8
LAY-10
  6
CONTINUOUS
 62
     7
100
AcDbLine
 10
1174.999999999999
 20
1220.500000000062
 30
0.0
 11
1174.999999999999
 21
1225.00000000006
 31
0.0
  0
LINE
  5
11E
330
1F
100
AcDbEntity
  8
LAY-10
  6
CONTINUOUS
 62
     7
100
AcDbLine
 10
1175.0
 20
975.0000000000706
 30
0.0
 11
1175.0
 21
979.5000000000642
 31
0.0
  0
LINE
  5
11F
330
1F
100
AcDbEntity
  8
LAY-10
  6
CONTINUOUS
 62
     7
100
AcDbLine
 10
1259.499999999999
 20
1214.00000000006
 30
0.0
 11
1278.5
 21
1214.00000000006
 31
0.0
  0
LINE
  5
120
330
1F
100
AcDbEntity
  8
LAY-10
  6
CONTINUOUS
 62
     7
100
AcDbLine
 10
1259.499999999999
 20
986.0000000000606
 30
0.0
 11
1278.5
 21
986.0000000000606
 31
0.0
  0
LINE
  5
121
330
1F
100
AcDbEntity
  8
LAY-10
  6
CONTINUOUS
 62
     7
100
AcDbLine
 10
1312.505553499473
 20
969.0000000000742
 30
0.0
 11
1312.505553499473
 21
963.2248941509721
 31
0.0
  0
ARC
  5
122
330
1F
100
AcDbEntity
  8
LAY-10
  6
CONTINUOUS
 62
     7
100
AcDbCircle
 10
1310.629165124607
 20
965.9669071403221
 30
0.0
 40
3.322569572950003
100
AcDbArc
 50
235.6157525319471
 51
304.3842474680529
  0
LINE
  5
123
330
1F
100
AcDbEntity
  8
LAY-10
  6
CONTINUOUS
 62
     7
100
AcDbLine
 10
1308.75277674974
 20
963.2248941509721
 30
0.0
 11
1308.75277674974
 21
969.0000000000742
 31
0.0
  0
LINE
  5
124
330
1F
100
AcDbEntity
  8
LAY-10
  6
CONTINUOUS
 62
     7
100
AcDbLine
 10
1311.250000000008
 20
962.5000000000742
 30
0.0
 11
1312.505553499473
 21
963.2248941509721
 31
0.0
  0
LINE
  5
125
330
1F
100
AcDbEntity
  8
LAY-10
  6
CONTINUOUS
 62
     7
100
AcDbLine
 10
1301.247223250274
 20
963.2248941509721
 30
0.0
 11
1301.247223250274
 21
969.0000000000742
 31
0.0
  0
ARC
  5
126
330
1F
100
AcDbEntity
  8
LAY-10
  6
CONTINUOUS
 62
     7
100
AcDbCircle
 10
1304.999999999978
 20
975.0637809839606
 30
0.0
 40
12.41944341658879
100
AcDbArc
 50
252.412046226416
 51
287.587953773858
  0
LINE
  5
127
330
1F
100
AcDbEntity
  8
LAY-10
  6
CONTINUOUS
 62
     7
100
AcDbLine
 10
1297.494446500542
 20
963.2248941509721
 30
0.0
 11
1297.494446500542
 21
969.0000000000751
 31
0.0
  0
LINE
  5
128
330
1F
100
AcDbEntity
  8
LAY-10
  6
CONTINUOUS
 62
     7
100
AcDbLine
 10
1297.494446500542
 20
963.2248941509721
 30
0.0
 11
1298.750000000008
 21
962.5000000000742
 31
0.0
  0
ARC
  5
129
330
1F
100
AcDbEntity
  8
LAY-10
  6
CONTINUOUS
 62
     7
100
AcDbCircle
 10
1299.370834875407
 20
965.9669071403221
 30
0.0
 40
3.322569572950376
100
AcDbArc
 50
235.6157525319461
 51
304.3842474680539
  0
LINE
  5
12A
330
1F
100
AcDbEntity
  8
LAY-10
  6
CONTINUOUS
 62
     7
100
AcDbLine
 10
1298.750000000008
 20
962.5000000000742
 30
0.0
 11
1311.250000000008
 21
962.5000000000742
 31
0.0
  0
LINE
  5
12B
330
1F
100
AcDbEntity
  8
LAY-10
  6
CONTINUOUS
 62
     7
100
AcDbLine
 10
1312.505553499475
 20
955.0000000000342
 30
0.0
 11
1312.505553499475
 21
950.2248941509322
 31
0.0
  0
LINE
  5
12C
330
1F
100
AcDbEntity
  8
LAY-10
  6
CONTINUOUS
 62
     7
100
AcDbLine
 10
1308.752776749742
 20
950.2248941509322
 30
0.0
 11
1308.752776749742
 21
955.0000000000342
 31
0.0
  0
LINE
  5
12D
330
1F
100
AcDbEntity
  8
LAY-10
  6
CONTINUOUS
 62
     7
100
AcDbLine
 10
1311.250000000011
 20
949.5000000000334
 30
0.0
 11
1312.505553499475
 21
950.2248941509322
 31
0.0
  0
ARC
  5
12E
330
1F
100
AcDbEntity
  8
LAY-10
  6
CONTINUOUS
 62
     7
100
AcDbCircle
 10
1310.629165124609
 20
952.9669071402816
 30
0.0
 40
3.322569572950003
100
AcDbArc
 50
235.6157525319471
 51
304.3842474680529
  0
LINE
  5
12F
330
1F
100
AcDbEntity
  8
LAY-10
  6
CONTINUOUS
 62
     7
100
AcDbLine
 10
1301.247223250277
 20
950.2248941509322
 30
0.0
 11
1301.247223250277
 21
955.0000000000342
 31
0.0
  0
ARC
  5
130
330
1F
100
AcDbEntity
  8
LAY-10
  6
CONTINUOUS
 62
     7
100
AcDbCircle
 10
1304.99999999998
 20
962.0637809839196
 30
0.0
 40
12.41944341658879
100
AcDbArc
 50
252.412046226416
 51
287.587953773858
  0
LINE
  5
131
330
1F
100
AcDbEntity
  8
LAY-10
  6
CONTINUOUS
 62
     7
100
AcDbLine
 10
1297.494446500545
 20
950.2248941509322
 30
0.0
 11
1297.494446500545
 21
955.0000000000342
 31
0.0
  0
LINE
  5
132
330
1F
100
AcDbEntity
  8
LAY-10
  6
CONTINUOUS
 62
     7
100
AcDbLine
 10
1297.494446500545
 20
950.2248941509322
 30
0.0
 11
1298.750000000011
 21
949.5000000000334
 31
0.0
  0
ARC
  5
133
330
1F
100
AcDbEntity
  8
LAY-10
  6
CONTINUOUS
 62
     7
100
AcDbCircle
 10
1299.37083487541
 20
952.9669071402816
 30
0.0
 40
3.322569572950376
100
AcDbArc
 50
235.6157525319461
 51
304.3842474680539
  0
LINE
  5
134
330
1F
100
AcDbEntity
  8
LAY-10
  6
CONTINUOUS
 62
     7
100
AcDbLine
 10
1298.750000000011
 20
949.5000000000334
 30
0.0
 11
1311.250000000011
 21
949.5000000000334
 31
0.0
  0
LINE
  5
135
330
1F
100
AcDbEntity
  8
LAY-10
  6
CONTINUOUS
 62
     7
100
AcDbLine
 10
1297.494446500545
 20
955.0000000000342
 30
0.0
 11
1312.505553499475
 21
955.0000000000342
 31
0.0
  0
LINE
  5
136
330
1F
100
AcDbEntity
  8
LAY-10
  6
CONTINUOUS
 62
     7
100
AcDbLine
 10
1301.00000000001
 20
955.0000000000342
 30
0.0
 11
1301.000000000008
 21
962.5000000000742
 31
0.0
  0
LINE
  5
137
330
1F
100
AcDbEntity
  8
LAY-10
  6
CONTINUOUS
 62
     7
100
AcDbLine
 10
1309.000000000007
 20
962.5000000000742
 30
0.0
 11
1309.000000000009
 21
955.0000000000342
 31
0.0
  0
LINE
  5
138
330
1F
100
AcDbEntity
  8
LAY-10
  6
CONTINUOUS
 62
     7
100
AcDbLine
 10
1301.625000000011
 20
975.0000000000451
 30
0.0
 11
1301.000000000011
 21
974.3750000000451
 31
0.0
  0
LINE
  5
139
330
1F
100
AcDbEntity
  8
LAY-10
  6
CONTINUOUS
 62
     7
100
AcDbLine
 10
1301.625000000011
 20
975.0000000000451
 30
0.0
 11
1308.375000000012
 21
975.0000000000451
 31
0.0
  0
LINE
  5
13A
330
1F
100
AcDbEntity
  8
LAY-10
  6
CONTINUOUS
 62
     7
100
AcDbLine
 10
1309.000000000012
 20
974.3750000000451
 30
0.0
 11
1308.375000000012
 21
975.0000000000451
 31
0.0
  0
LINE
  5
13B
330
1F
100
AcDbEntity
  8
LAY-10
  6
CONTINUOUS
 62
     7
100
AcDbLine
 10
1301.000000000011
 20
974.3750000000451
 30
0.0
 11
1309.000000000012
 21
974.3750000000451
 31
0.0
  0
LINE
  5
13C
330
1F
100
AcDbEntity
  8
LAY-10
  6
CONTINUOUS
 62
     7
100
AcDbLine
 10
1301.000000000011
 20
972.0000000000588
 30
0.0
 11
1301.000000000011
 21
974.3750000000451
 31
0.0
  0
LINE
  5
13D
330
1F
100
AcDbEntity
  8
LAY-10
  6
CONTINUOUS
 62
     7
100
AcDbLine
 10
1309.000000000012
 20
974.3750000000451
 30
0.0
 11
1309.000000000012
 21
972.0000000000588
 31
0.0
  0
LINE
  5
13E
330
1F
100
AcDbEntity
  8
LAY-10
  6
CONTINUOUS
 62
     7
100
AcDbLine
 10
1280.5
 20
1010.000000000081
 30
0.0
 11
1278.5
 21
1010.000000000081
 31
0.0
  0
LINE
  5
13F
330
1F
100
AcDbEntity
  8
LAY-10
  6
CONTINUOUS
 62
     7
100
AcDbLine
 10
1280.5
 20
1190.00000000008
 30
0.0
 11
1278.5
 21
1190.00000000008
 31
0.0
  0
LINE
  5
140
330
1F
100
AcDbEntity
  8
LAY-10
  6
CONTINUOUS
 62
     7
100
AcDbLine
 10
1278.5
 20
1215.000000000166
 30
0.0
 11
1280.5
 21
1215.000000000166
 31
0.0
  0
LINE
  5
141
330
1F
100
AcDbEntity
  8
LAY-10
  6
CONTINUOUS
 62
     7
100
AcDbLine
 10
1280.5
 20
1010.00000000004
 30
0.0
 11
1278.5
 21
1010.00000000004
 31
0.0
  0
LINE
  5
142
330
1F
100
AcDbEntity
  8
LAY-10
  6
CONTINUOUS
 62
     7
100
AcDbLine
 10
1278.5
 20
984.9999999999542
 30
0.0
 11
1280.5
 21
984.9999999999542
 31
0.0
  0
LINE
  5
143
330
1F
100
AcDbEntity
  8
LAY-10
  6
CONTINUOUS
 62
     7
100
AcDbLine
 10
1278.5
 20
1215.000000000166
 30
0.0
 11
1278.5
 21
984.9999999999807
 31
0.0
  0
LINE
  5
144
330
1F
100
AcDbEntity
  8
LAY-10
  6
CONTINUOUS
 62
     7
100
AcDbLine
 10
925.000000000002
 20
1225.000000000021
 30
0.0
 11
325.0000000000017
 21
1225.000000000021
 31
0.0
  0
LINE
  5
145
330
1F
100
AcDbEntity
  8
LAY-10
  6
CONTINUOUS
 62
     7
100
AcDbLine
 10
800.0
 20
1228.000000000021
 30
0.0
 11
850.0000000000097
 21
1228.000000000021
 31
0.0
  0
LINE
  5
146
330
1F
100
AcDbEntity
  8
LAY-10
  6
CONTINUOUS
 62
     7
100
AcDbLine
 10
450.0000000000077
 20
1228.000000000021
 30
0.0
 11
399.9999999999976
 21
1228.000000000021
 31
0.0
  0
LINE
  5
147
330
1F
100
AcDbEntity
  8
LAY-10
  6
CONTINUOUS
 62
     7
100
AcDbLine
 10
850.000000000002
 20
1231.000000000055
 30
0.0
 11
800.0000000000023
 21
1231.000000000055
 31
0.0
  0
LINE
  5
148
330
1F
100
AcDbEntity
  8
LAY-10
  6
CONTINUOUS
 62
     7
100
AcDbLine
 10
850.0000000000051
 20
1225.000000000021
 30
0.0
 11
850.0000000000051
 21
1231.000000000055
 31
0.0
  0
LINE
  5
149
330
1F
100
AcDbEntity
  8
LAY-10
  6
CONTINUOUS
 62
     7
100
AcDbLine
 10
800.0000000000023
 20
1231.000000000055
 30
0.0
 11
800.0000000000023
 21
1225.000000000021
 31
0.0
  0
LINE
  5
14A
330
1F
100
AcDbEntity
  8
LAY-10
  6
CONTINUOUS
 62
     7
100
AcDbLine
 10
400.0000000000049
 20
1231.000000000055
 30
0.0
 11
450.0000000000044
 21
1231.000000000055
 31
0.0
  0
LINE
  5
14B
330
1F
100
AcDbEntity
  8
LAY-10
  6
CONTINUOUS
 62
     7
100
AcDbLine
 10
400.0000000000022
 20
1225.000000000021
 30
0.0
 11
400.0000000000022
 21
1231.000000000055
 31
0.0
  0
LINE
  5
14C
330
1F
100
AcDbEntity
  8
LAY-10
  6
CONTINUOUS
 62
     7
100
AcDbLine
 10
450.0000000000044
 20
1231.000000000055
 30
0.0
 11
450.0000000000044
 21
1225.000000000021
 31
0.0
  0
LINE
  5
14D
330
1F
100
AcDbEntity
  8
LAY-10
  6
CONTINUOUS
 62
     7
100
AcDbLine
 10
924.9999999999998
 20
1220.500000000021
 30
0.0
 11
324.9999999999998
 21
1220.500000000021
 31
0.0
  0
LINE
  5
14E
330
1F
100
AcDbEntity
  8
LAY-10
  6
CONTINUOUS
 62
     7
100
AcDbLine
 10
925.000000000002
 20
1142.500000000154
 30
0.0
 11
920.5000000000024
 21
1142.500000000154
 31
0.0
  0
LINE
  5
14F
330
1F
100
AcDbEntity
  8
LAY-10
  6
CONTINUOUS
 62
     7
100
AcDbLine
 10
925.000000000002
 20
1220.500000000154
 30
0.0
 11
920.5000000000024
 21
1220.500000000154
 31
0.0
  0
LINE
  5
150
330
1F
100
AcDbEntity
  8
LAY-10
  6
CONTINUOUS
 62
     7
100
AcDbLine
 10
329.5000000000017
 20
1220.500000000154
 30
0.0
 11
325.0000000000016
 21
1220.500000000154
 31
0.0
  0
LINE
  5
151
330
1F
100
AcDbEntity
  8
LAY-10
  6
CONTINUOUS
 62
     7
100
AcDbLine
 10
329.5000000000017
 20
1142.500000000154
 30
0.0
 11
325.0000000000016
 21
1142.500000000154
 31
0.0
  0
LINE
  5
152
330
1F
100
AcDbEntity
  8
LAY-10
  6
CONTINUOUS
 62
     7
100
AcDbLine
 10
913.9999999999882
 20
1138.000000000154
 30
0.0
 11
335.9999999999912
 21
1138.000000000155
 31
0.0
  0
LINE
  5
153
330
1F
100
AcDbEntity
  8
LAY-10
  6
CONTINUOUS
 62
     7
100
AcDbLine
 10
918.499999999992
 20
1220.500000000154
 30
0.0
 11
331.4999999999911
 21
1220.500000000154
 31
0.0
  0
LINE
  5
154
330
1F
100
AcDbEntity
  8
LAY-10
  6
CONTINUOUS
 62
     7
100
AcDbLine
 10
918.499999999992
 20
1142.500000000154
 30
0.0
 11
331.4999999999911
 21
1142.500000000154
 31
0.0
  0
LINE
  5
155
330
1F
100
AcDbEntity
  8
LAY-10
  6
CONTINUOUS
 62
     7
100
AcDbLine
 10
913.9999999999918
 20
1225.000000000154
 30
0.0
 11
335.9999999999912
 21
1225.000000000154
 31
0.0
  0
LINE
  5
156
330
1F
100
AcDbEntity
  8
LAY-10
  6
CONTINUOUS
 62
     7
100
AcDbLine
 10
335.9999999999899
 20
1138.00000000015
 30
0.0
 11
335.9999999999899
 21
1142.500000000154
 31
0.0
  0
LINE
  5
157
330
1F
100
AcDbEntity
  8
LAY-10
  6
CONTINUOUS
 62
     7
100
AcDbLine
 10
913.9999999999961
 20
1138.00000000015
 30
0.0
 11
913.9999999999961
 21
1142.500000000154
 31
0.0
  0
LINE
  5
158
330
1F
100
AcDbEntity
  8
LAY-10
  6
CONTINUOUS
 62
     7
100
AcDbLine
 10
925.000000000002
 20
975.000000000021
 30
0.0
 11
325.0000000000017
 21
975.000000000021
 31
0.0
  0
LINE
  5
159
330
1F
100
AcDbEntity
  8
LAY-10
  6
CONTINUOUS
 62
     7
100
AcDbLine
 10
329.5000000000017
 20
979.5000000000215
 30
0.0
 11
920.5000000000024
 21
979.5000000000215
 31
0.0
  0
LINE
  5
15A
330
1F
100
AcDbEntity
  8
LAY-10
  6
CONTINUOUS
 62
     7
100
AcDbLine
 10
325.0000000000017
 20
975.000000000021
 30
0.0
 11
329.5000000000006
 21
979.50000000002
 31
0.0
  0
LINE
  5
15B
330
1F
100
AcDbEntity
  8
LAY-10
  6
CONTINUOUS
 62
     7
100
AcDbLine
 10
924.9999999999994
 20
975.000000000021
 30
0.0
 11
920.4999999999993
 21
979.5000000000215
 31
0.0
  0
LINE
  5
15C
330
1F
100
AcDbEntity
  8
LAY-10
  6
CONTINUOUS
 62
     7
100
AcDbLine
 10
450.0000000000077
 20
972.0000000000218
 30
0.0
 11
399.9999999999976
 21
972.0000000000218
 31
0.0
  0
LINE
  5
15D
330
1F
100
AcDbEntity
  8
LAY-10
  6
CONTINUOUS
 62
     7
100
AcDbLine
 10
800.0
 20
972.0000000000218
 30
0.0
 11
850.0000000000097
 21
972.0000000000218
 31
0.0
  0
LINE
  5
15E
330
1F
100
AcDbEntity
  8
LAY-10
  6
CONTINUOUS
 62
     7
100
AcDbLine
 10
400.0000000000049
 20
969.0000000000882
 30
0.0
 11
450.0000000000044
 21
969.0000000000882
 31
0.0
  0
LINE
  5
15F
330
1F
100
AcDbEntity
  8
LAY-10
  6
CONTINUOUS
 62
     7
100
AcDbLine
 10
400.0000000000022
 20
975.0000000000218
 30
0.0
 11
400.0000000000022
 21
969.0000000000882
 31
0.0
  0
LINE
  5
160
330
1F
100
AcDbEntity
  8
LAY-10
  6
CONTINUOUS
 62
     7
100
AcDbLine
 10
450.0000000000044
 20
969.0000000000882
 30
0.0
 11
450.0000000000044
 21
975.0000000000218
 31
0.0
  0
LINE
  5
161
330
1F
100
AcDbEntity
  8
LAY-10
  6
CONTINUOUS
 62
     7
100
AcDbLine
 10
850.000000000002
 20
969.0000000000879
 30
0.0
 11
800.0000000000023
 21
969.0000000000879
 31
0.0
  0
LINE
  5
162
330
1F
100
AcDbEntity
  8
LAY-10
  6
CONTINUOUS
 62
     7
100
AcDbLine
 10
850.0000000000051
 20
975.0000000000218
 30
0.0
 11
850.0000000000051
 21
969.0000000000879
 31
0.0
  0
LINE
  5
163
330
1F
100
AcDbEntity
  8
LAY-10
  6
CONTINUOUS
 62
     7
100
AcDbLine
 10
800.0000000000023
 20
969.0000000000879
 30
0.0
 11
800.0000000000023
 21
975.0000000000218
 31
0.0
  0
LINE
  5
164
330
1F
100
AcDbEntity
  8
LAY-10
  6
CONTINUOUS
 62
     7
100
AcDbLine
 10
331.4999999999912
 20
981.5000000000205
 30
0.0
 11
918.499999999992
 21
981.5000000000205
 31
0.0
  0
LINE
  5
165
330
1F
100
AcDbEntity
  8
LAY-10
  6
CONTINUOUS
 62
     7
100
AcDbLine
 10
335.9999999999912
 20
986.0000000000205
 30
0.0
 11
913.9999999999924
 21
986.0000000000205
 31
0.0
  0
LINE
  5
166
330
1F
100
AcDbEntity
  8
LAY-10
  6
CONTINUOUS
 62
     7
100
AcDbLine
 10
335.9999999999885
 20
986.0000000000209
 30
0.0
 11
331.4999999999885
 21
981.5000000000219
 31
0.0
  0
LINE
  5
167
330
1F
100
AcDbEntity
  8
LAY-10
  6
CONTINUOUS
 62
     7
100
AcDbLine
 10
913.9999999999981
 20
986.0000000000209
 30
0.0
 11
918.4999999999977
 21
981.5000000000219
 31
0.0
  0
LINE
  5
168
330
1F
100
AcDbEntity
  8
LAY-10
  6
CONTINUOUS
 62
     7
100
AcDbLine
 10
832.5055534994743
 20
969.0000000000356
 30
0.0
 11
832.5055534994743
 21
963.2248941509334
 31
0.0
  0
ARC
  5
169
330
1F
100
AcDbEntity
  8
LAY-10
  6
CONTINUOUS
 62
     7
100
AcDbCircle
 10
830.6291651246079
 20
965.9669071402832
 30
0.0
 40
3.322569572950003
100
AcDbArc
 50
235.6157525319471
 51
304.3842474680529
  0
LINE
  5
16A
330
1F
100
AcDbEntity
  8
LAY-10
  6
CONTINUOUS
 62
     7
100
AcDbLine
 10
828.7527767497409
 20
963.2248941509334
 30
0.0
 11
828.7527767497409
 21
969.0000000000356
 31
0.0
  0
LINE
  5
16B
330
1F
100
AcDbEntity
  8
LAY-10
  6
CONTINUOUS
 62
     7
100
AcDbLine
 10
831.2500000000091
 20
962.5000000000355
 30
0.0
 11
832.5055534994743
 21
963.2248941509334
 31
0.0
  0
LINE
  5
16C
330
1F
100
AcDbEntity
  8
LAY-10
  6
CONTINUOUS
 62
     7
100
AcDbLine
 10
821.247223250275
 20
963.2248941509334
 30
0.0
 11
821.247223250275
 21
969.0000000000356
 31
0.0
  0
ARC
  5
16D
330
1F
100
AcDbEntity
  8
LAY-10
  6
CONTINUOUS
 62
     7
100
AcDbCircle
 10
824.999999999979
 20
975.0637809839219
 30
0.0
 40
12.41944341658879
100
AcDbArc
 50
252.412046226416
 51
287.587953773858
  0
LINE
  5
16E
330
1F
100
AcDbEntity
  8
LAY-10
  6
CONTINUOUS
 62
     7
100
AcDbLine
 10
817.4944465005427
 20
963.2248941509334
 30
0.0
 11
817.4944465005427
 21
969.0000000000364
 31
0.0
  0
LINE
  5
16F
330
1F
100
AcDbEntity
  8
LAY-10
  6
CONTINUOUS
 62
     7
100
AcDbLine
 10
817.4944465005427
 20
963.2248941509334
 30
0.0
 11
818.7500000000091
 21
962.5000000000355
 31
0.0
  0
ARC
  5
170
330
1F
100
AcDbEntity
  8
LAY-10
  6
CONTINUOUS
 62
     7
100
AcDbCircle
 10
819.370834875408
 20
965.9669071402832
 30
0.0
 40
3.322569572950376
100
AcDbArc
 50
235.6157525319461
 51
304.3842474680539
  0
LINE
  5
171
330
1F
100
AcDbEntity
  8
LAY-10
  6
CONTINUOUS
 62
     7
100
AcDbLine
 10
818.7500000000091
 20
962.5000000000355
 30
0.0
 11
831.2500000000091
 21
962.5000000000355
 31
0.0
  0
LINE
  5
172
330
1F
100
AcDbEntity
  8
LAY-10
  6
CONTINUOUS
 62
     7
100
AcDbLine
 10
832.5055534994755
 20
954.999999999996
 30
0.0
 11
832.5055534994755
 21
950.2248941508933
 31
0.0
  0
LINE
  5
173
330
1F
100
AcDbEntity
  8
LAY-10
  6
CONTINUOUS
 62
     7
100
AcDbLine
 10
828.7527767497426
 20
950.2248941508933
 30
0.0
 11
828.7527767497426
 21
954.999999999996
 31
0.0
  0
LINE
  5
174
330
1F
100
AcDbEntity
  8
LAY-10
  6
CONTINUOUS
 62
     7
100
AcDbLine
 10
831.2500000000114
 20
949.4999999999945
 30
0.0
 11
832.5055534994755
 21
950.2248941508933
 31
0.0
  0
ARC
  5
175
330
1F
100
AcDbEntity
  8
LAY-10
  6
CONTINUOUS
 62
     7
100
AcDbCircle
 10
830.6291651246096
 20
952.9669071402427
 30
0.0
 40
3.322569572950003
100
AcDbArc
 50
235.6157525319471
 51
304.3842474680529
  0
LINE
  5
176
330
1F
100
AcDbEntity
  8
LAY-10
  6
CONTINUOUS
 62
     7
100
AcDbLine
 10
821.2472232502773
 20
950.2248941508933
 30
0.0
 11
821.2472232502773
 21
954.999999999996
 31
0.0
  0
ARC
  5
177
330
1F
100
AcDbEntity
  8
LAY-10
  6
CONTINUOUS
 62
     7
100
AcDbCircle
 10
824.9999999999801
 20
962.0637809838814
 30
0.0
 40
12.41944341658879
100
AcDbArc
 50
252.412046226416
 51
287.587953773858
  0
LINE
  5
178
330
1F
100
AcDbEntity
  8
LAY-10
  6
CONTINUOUS
 62
     7
100
AcDbLine
 10
817.4944465005456
 20
950.2248941508933
 30
0.0
 11
817.4944465005456
 21
954.999999999996
 31
0.0
  0
LINE
  5
179
330
1F
100
AcDbEntity
  8
LAY-10
  6
CONTINUOUS
 62
     7
100
AcDbLine
 10
817.4944465005456
 20
950.2248941508933
 30
0.0
 11
818.7500000000114
 21
949.4999999999945
 31
0.0
  0
ARC
  5
17A
330
1F
100
AcDbEntity
  8
LAY-10
  6
CONTINUOUS
 62
     7
100
AcDbCircle
 10
819.3708348754103
 20
952.9669071402427
 30
0.0
 40
3.322569572950376
100
AcDbArc
 50
235.6157525319461
 51
304.3842474680539
  0
LINE
  5
17B
330
1F
100
AcDbEntity
  8
LAY-10
  6
CONTINUOUS
 62
     7
100
AcDbLine
 10
818.7500000000114
 20
949.4999999999945
 30
0.0
 11
831.2500000000114
 21
949.4999999999945
 31
0.0
  0
LINE
  5
17C
330
1F
100
AcDbEntity
  8
LAY-10
  6
CONTINUOUS
 62
     7
100
AcDbLine
 10
817.4944465005456
 20
954.999999999996
 30
0.0
 11
832.5055534994755
 21
954.999999999996
 31
0.0
  0
LINE
  5
17D
330
1F
100
AcDbEntity
  8
LAY-10
  6
CONTINUOUS
 62
     7
100
AcDbLine
 10
821.0000000000105
 20
954.999999999996
 30
0.0
 11
821.0000000000082
 21
962.5000000000355
 31
0.0
  0
LINE
  5
17E
330
1F
100
AcDbEntity
  8
LAY-10
  6
CONTINUOUS
 62
     7
100
AcDbLine
 10
829.0000000000077
 20
962.5000000000355
 30
0.0
 11
829.00000000001
 21
954.999999999996
 31
0.0
  0
LINE
  5
17F
330
1F
100
AcDbEntity
  8
LAY-10
  6
CONTINUOUS
 62
     7
100
AcDbLine
 10
417.4944465005332
 20
969.0000000000356
 30
0.0
 11
417.4944465005332
 21
963.2248941509334
 31
0.0
  0
ARC
  5
180
330
1F
100
AcDbEntity
  8
LAY-10
  6
CONTINUOUS
 62
     7
100
AcDbCircle
 10
419.3708348753995
 20
965.9669071402828
 30
0.0
 40
3.322569572950003
100
AcDbArc
 50
235.6157525319479
 51
304.3842474680521
  0
LINE
  5
181
330
1F
100
AcDbEntity
  8
LAY-10
  6
CONTINUOUS
 62
     7
100
AcDbLine
 10
421.2472232502665
 20
963.2248941509334
 30
0.0
 11
421.2472232502665
 21
969.0000000000356
 31
0.0
  0
LINE
  5
182
330
1F
100
AcDbEntity
  8
LAY-10
  6
CONTINUOUS
 62
     7
100
AcDbLine
 10
418.7499999999983
 20
962.5000000000355
 30
0.0
 11
417.4944465005332
 21
963.2248941509334
 31
0.0
  0
LINE
  5
183
330
1F
100
AcDbEntity
  8
LAY-10
  6
CONTINUOUS
 62
     7
100
AcDbLine
 10
428.7527767497323
 20
963.2248941509334
 30
0.0
 11
428.7527767497323
 21
969.0000000000356
 31
0.0
  0
ARC
  5
184
330
1F
100
AcDbEntity
  8
LAY-10
  6
CONTINUOUS
 62
     7
100
AcDbCircle
 10
425.0000000000286
 20
975.0637809839219
 30
0.0
 40
12.41944341658879
100
AcDbArc
 50
252.412046226142
 51
287.587953773584
  0
LINE
  5
185
330
1F
100
AcDbEntity
  8
LAY-10
  6
CONTINUOUS
 62
     7
100
AcDbLine
 10
432.5055534994648
 20
963.2248941509334
 30
0.0
 11
432.5055534994648
 21
969.0000000000364
 31
0.0
  0
LINE
  5
186
330
1F
100
AcDbEntity
  8
LAY-10
  6
CONTINUOUS
 62
     7
100
AcDbLine
 10
432.5055534994648
 20
963.2248941509334
 30
0.0
 11
431.2499999999983
 21
962.5000000000355
 31
0.0
  0
ARC
  5
187
330
1F
100
AcDbEntity
  8
LAY-10
  6
CONTINUOUS
 62
     7
100
AcDbCircle
 10
430.6291651245994
 20
965.9669071402828
 30
0.0
 40
3.322569572950376
100
AcDbArc
 50
235.6157525319461
 51
304.3842474680539
  0
LINE
  5
188
330
1F
100
AcDbEntity
  8
LAY-10
  6
CONTINUOUS
 62
     7
100
AcDbLine
 10
431.2499999999983
 20
962.5000000000355
 30
0.0
 11
418.7499999999983
 21
962.5000000000355
 31
0.0
  0
LINE
  5
189
330
1F
100
AcDbEntity
  8
LAY-10
  6
CONTINUOUS
 62
     7
100
AcDbLine
 10
417.4944465005316
 20
954.999999999996
 30
0.0
 11
417.4944465005316
 21
950.224894150893
 31
0.0
  0
LINE
  5
18A
330
1F
100
AcDbEntity
  8
LAY-10
  6
CONTINUOUS
 62
     7
100
AcDbLine
 10
421.247223250265
 20
950.224894150893
 30
0.0
 11
421.247223250265
 21
954.999999999996
 31
0.0
  0
LINE
  5
18B
330
1F
100
AcDbEntity
  8
LAY-10
  6
CONTINUOUS
 62
     7
100
AcDbLine
 10
418.749999999996
 20
949.4999999999945
 30
0.0
 11
417.4944465005316
 21
950.224894150893
 31
0.0
  0
ARC
  5
18C
330
1F
100
AcDbEntity
  8
LAY-10
  6
CONTINUOUS
 62
     7
100
AcDbCircle
 10
419.370834875398
 20
952.9669071402424
 30
0.0
 40
3.322569572950003
100
AcDbArc
 50
235.6157525319479
 51
304.3842474680521
  0
LINE
  5
18D
330
1F
100
AcDbEntity
  8
LAY-10
  6
CONTINUOUS
 62
     7
100
AcDbLine
 10
428.7527767497301
 20
950.224894150893
 30
0.0
 11
428.7527767497301
 21
954.999999999996
 31
0.0
  0
ARC
  5
18E
330
1F
100
AcDbEntity
  8
LAY-10
  6
CONTINUOUS
 62
     7
100
AcDbCircle
 10
425.000000000027
 20
962.0637809838814
 30
0.0
 40
12.41944341658879
100
AcDbArc
 50
252.412046226142
 51
287.587953773584
  0
LINE
  5
18F
330
1F
100
AcDbEntity
  8
LAY-10
  6
CONTINUOUS
 62
     7
100
AcDbLine
 10
432.5055534994618
 20
950.224894150893
 30
0.0
 11
432.5055534994618
 21
954.999999999996
 31
0.0
  0
LINE
  5
190
330
1F
100
AcDbEntity
  8
LAY-10
  6
CONTINUOUS
 62
     7
100
AcDbLine
 10
432.5055534994618
 20
950.224894150893
 30
0.0
 11
431.249999999996
 21
949.4999999999945
 31
0.0
  0
ARC
  5
191
330
1F
100
AcDbEntity
  8
LAY-10
  6
CONTINUOUS
 62
     7
100
AcDbCircle
 10
430.6291651245971
 20
952.9669071402424
 30
0.0
 40
3.322569572950376
100
AcDbArc
 50
235.6157525319461
 51
304.3842474680539
  0
LINE
  5
192
330
1F
100
AcDbEntity
  8
LAY-10
  6
CONTINUOUS
 62
     7
100
AcDbLine
 10
431.249999999996
 20
949.4999999999945
 30
0.0
 11
418.749999999996
 21
949.4999999999945
 31
0.0
  0
LINE
  5
193
330
1F
100
AcDbEntity
  8
LAY-10
  6
CONTINUOUS
 62
     7
100
AcDbLine
 10
432.5055534994618
 20
954.999999999996
 30
0.0
 11
417.4944465005316
 21
954.999999999996
 31
0.0
  0
LINE
  5
194
330
1F
100
AcDbEntity
  8
LAY-10
  6
CONTINUOUS
 62
     7
100
AcDbLine
 10
428.9999999999969
 20
954.999999999996
 30
0.0
 11
428.9999999999992
 21
962.500000000035
 31
0.0
  0
LINE
  5
195
330
1F
100
AcDbEntity
  8
LAY-10
  6
CONTINUOUS
 62
     7
100
AcDbLine
 10
420.9999999999997
 20
962.500000000035
 30
0.0
 11
420.9999999999974
 21
954.999999999996
 31
0.0
  0
LINE
  5
196
330
1F
100
AcDbEntity
  8
LAY-10
  6
CONTINUOUS
 62
     7
100
AcDbLine
 10
913.999999999995
 20
1144.500000000138
 30
0.0
 11
913.999999999995
 21
986.0000000000205
 31
0.0
  0
LINE
  5
197
330
1F
100
AcDbEntity
  8
LAY-10
  6
CONTINUOUS
 62
     7
100
AcDbLine
 10
335.9999999999912
 20
1144.500000000138
 30
0.0
 11
335.9999999999912
 21
986.0000000000205
 31
0.0
  0
LINE
  5
198
330
1F
100
AcDbEntity
  8
LAY-10
  6
CONTINUOUS
 62
     7
100
AcDbLine
 10
325.0000000000016
 20
975.000000000021
 30
0.0
 11
325.0000000000016
 21
1225.000000000007
 31
0.0
  0
LINE
  5
199
330
1F
100
AcDbEntity
  8
LAY-10
  6
CONTINUOUS
 62
     7
100
AcDbLine
 10
925.000000000002
 20
975.000000000021
 30
0.0
 11
925.000000000002
 21
1225.000000000007
 31
0.0
  0
ARC
  5
19A
330
1F
100
AcDbEntity
  8
LAY-10
  6
CONTINUOUS
 62
     7
100
AcDbCircle
 10
1252.999999999897
 20
1074.572756886634
 30
0.0
 40
2.0
100
AcDbArc
 50
0.0
 51
90.00000000000001
  0
ARC
  5
19B
330
1F
100
AcDbEntity
  8
LAY-10
  6
CONTINUOUS
 62
     7
100
AcDbCircle
 10
1252.999999999897
 20
1049.572756886601
 30
0.0
 40
2.0
100
AcDbArc
 50
270.0
 51
0.0
  0
LINE
  5
19C
330
1F
100
AcDbEntity
  8
LAY-10
  6
CONTINUOUS
 62
     7
100
AcDbLine
 10
1252.999999999897
 20
1074.572756886619
 30
0.0
 11
1252.999999999897
 21
1049.572756886619
 31
0.0
  0
LINE
  5
19D
330
1F
100
AcDbEntity
  8
LAY-10
  6
CONTINUOUS
 62
     7
100
AcDbLine
 10
1246.999999999897
 20
1076.572756886635
 30
0.0
 11
1252.999999999897
 21
1076.572756886635
 31
0.0
  0
LINE
  5
19E
330
1F
100
AcDbEntity
  8
LAY-10
  6
CONTINUOUS
 62
     7
100
AcDbLine
 10
1246.999999999897
 20
1074.572756886619
 30
0.0
 11
1252.999999999897
 21
1074.572756886619
 31
0.0
  0
ARC
  5
19F
330
1F
100
AcDbEntity
  8
LAY-10
  6
CONTINUOUS
 62
     7
100
AcDbCircle
 10
1246.999999999897
 20
1076.57275688662
 30
0.0
 40
2.0
100
AcDbArc
 50
180.0
 51
270.0
  0
LINE
  5
1A0
330
1F
100
AcDbEntity
  8
LAY-10
  6
CONTINUOUS
 62
     7
100
AcDbLine
 10
1246.999999999897
 20
1047.572756886601
 30
0.0
 11
1252.999999999897
 21
1047.572756886601
 31
0.0
  0
LINE
  5
1A1
330
1F
100
AcDbEntity
  8
LAY-10
  6
CONTINUOUS
 62
     7
100
AcDbLine
 10
1246.999999999897
 20
1049.572756886615
 30
0.0
 11
1252.999999999897
 21
1049.572756886615
 31
0.0
  0
ARC
  5
1A2
330
1F
100
AcDbEntity
  8
LAY-10
  6
CONTINUOUS
 62
     7
100
AcDbCircle
 10
1246.999999999897
 20
1047.572756886615
 30
0.0
 40
2.0
100
AcDbArc
 50
90.00000000000001
 51
180.0
  0
LINE
  5
1A3
330
1F
100
AcDbEntity
  8
LAY-10
  6
CONTINUOUS
 62
     7
100
AcDbLine
 10
1244.999999999897
 20
1042.072756886615
 30
0.0
 11
1246.999999999897
 21
1042.072756886615
 31
0.0
  0
LINE
  5
1A4
330
1F
100
AcDbEntity
  8
LAY-10
  6
CONTINUOUS
 62
     7
100
AcDbLine
 10
1244.999999999897
 20
1082.072756886619
 30
0.0
 11
1246.999999999897
 21
1082.072756886619
 31
0.0
  0
LINE
  5
1A5
330
1F
100
AcDbEntity
  8
LAY-10
  6
CONTINUOUS
 62
     7
100
AcDbLine
 10
1246.999999999898
 20
1042.072756886615
 30
0.0
 11
1246.999999999898
 21
1047.572756886591
 31
0.0
  0
LINE
  5
1A6
330
1F
100
AcDbEntity
  8
LAY-10
  6
CONTINUOUS
 62
     7
100
AcDbLine
 10
1244.999999999898
 20
1042.072756886615
 30
0.0
 11
1244.999999999898
 21
1047.572756886591
 31
0.0
  0
LINE
  5
1A7
330
1F
100
AcDbEntity
  8
LAY-10
  6
CONTINUOUS
 62
     7
100
AcDbLine
 10
1246.999999999898
 20
1082.072756886618
 30
0.0
 11
1246.999999999898
 21
1076.572756886591
 31
0.0
  0
LINE
  5
1A8
330
1F
100
AcDbEntity
  8
LAY-10
  6
CONTINUOUS
 62
     7
100
AcDbLine
 10
1244.999999999898
 20
1076.572756886591
 30
0.0
 11
1244.999999999898
 21
1082.072756886618
 31
0.0
  0
LINE
  5
1A9
330
1F
100
AcDbEntity
  8
LAY-10
  6
CONTINUOUS
 62
     7
100
AcDbLine
 10
1175.000000000001
 20
986.0000000000618
 30
0.0
 11
1255.0
 21
986.0000000000618
 31
0.0
  0
LINE
  5
1AA
330
1F
100
AcDbEntity
  8
LAY-10
  6
CONTINUOUS
 62
     7
100
AcDbLine
 10
1255.0
 20
981.5000000000621
 30
0.0
 11
1175.000000000001
 21
981.5000000000621
 31
0.0
  0
ARC
  5
1AB
330
1F
100
AcDbEntity
  8
LAY-10
  6
CONTINUOUS
 62
     7
100
AcDbCircle
 10
1255.0
 20
986.0000000000618
 30
0.0
 40
4.5
100
AcDbArc
 50
270.0
 51
0.0
  0
LINE
  5
1AC
330
1F
100
AcDbEntity
  8
LAY-10
  6
CONTINUOUS
 62
     7
100
AcDbLine
 10
331.4999999999911
 20
1144.50000000017
 30
0.0
 11
331.4999999999911
 21
981.5000000000205
 31
0.0
  0
LINE
  5
1AD
330
1F
100
AcDbEntity
  8
LAY-10
  6
CONTINUOUS
 62
     7
100
AcDbLine
 10
329.5000000000017
 20
1220.50000000002
 30
0.0
 11
329.5000000000017
 21
1218.5
 31
0.0
  0
LINE
  5
1AE
330
1F
100
AcDbEntity
  8
LAY-10
  6
CONTINUOUS
 62
     7
100
AcDbLine
 10
329.5000000000017
 20
1144.50000000017
 30
0.0
 11
329.5000000000017
 21
979.5000000000215
 31
0.0
  0
LINE
  5
1AF
330
1F
100
AcDbEntity
  8
LAY-10
  6
CONTINUOUS
 62
     7
100
AcDbLine
 10
918.4999999999951
 20
1144.50000000017
 30
0.0
 11
918.4999999999951
 21
981.5000000000205
 31
0.0
  0
LINE
  5
1B0
330
1F
100
AcDbEntity
  8
LAY-10
  6
CONTINUOUS
 62
     7
100
AcDbLine
 10
920.5000000000024
 20
979.5000000000215
 30
0.0
 11
920.5000000000024
 21
1144.50000000017
 31
0.0
  0
LINE
  5
1B1
330
1F
100
AcDbEntity
  8
LAY-10
  6
CONTINUOUS
 62
     7
100
AcDbLine
 10
920.5000000000024
 20
1218.5
 30
0.0
 11
920.5000000000024
 21
1220.50000000002
 31
0.0
  0
ARC
  5
1B2
330
1F
100
AcDbEntity
  8
LAY-10
  6
CONTINUOUS
 62
     7
100
AcDbCircle
 10
1255.000000000001
 20
1214.000000000078
 30
0.0
 40
4.5
100
AcDbArc
 50
0.0
 51
90.00000000000001
  0
LINE
  5
1B3
330
1F
100
AcDbEntity
  8
LAY-10
  6
CONTINUOUS
 62
     7
100
AcDbLine
 10
1200.000000000086
 20
1218.500000000078
 30
0.0
 11
1255.000000000001
 21
1218.500000000078
 31
0.0
  0
LINE
  5
1B4
330
1F
100
AcDbEntity
  8
LAY-10
  6
CONTINUOUS
 62
     7
100
AcDbLine
 10
1209.00000000011
 20
1214.000000000078
 30
0.0
 11
1255.000000000002
 21
1214.000000000078
 31
0.0
  0
LINE
  5
1B5
330
1F
100
AcDbEntity
  8
LAY-10
  6
CONTINUOUS
 62
     7
100
AcDbLine
 10
1259.5
 20
1205.000000000011
 30
0.0
 11
1255.000000000001
 21
1205.000000000011
 31
0.0
  0
LINE
  5
1B6
330
1F
100
AcDbEntity
  8
LAY-10
  6
CONTINUOUS
 62
     7
100
AcDbLine
 10
1259.5
 20
1155.000000000013
 30
0.0
 11
1255.0
 21
1155.000000000013
 31
0.0
  0
LINE
  5
1B7
330
1F
100
AcDbEntity
  8
LAY-10
  6
CONTINUOUS
 62
     7
100
AcDbLine
 10
1175.00000000003
 20
1138.000000000012
 30
0.0
 11
1255.000000000001
 21
1138.000000000012
 31
0.0
  0
LINE
  5
1B8
330
1F
100
AcDbEntity
  8
LAY-10
  6
CONTINUOUS
 62
     7
100
AcDbLine
 10
1175.0
 20
1142.50000000005
 30
0.0
 11
1255.0
 21
1142.50000000005
 31
0.0
  0
LINE
  5
1B9
330
1F
100
AcDbEntity
  8
LAY-10
  6
CONTINUOUS
 62
     7
100
AcDbLine
 10
1175.000000000002
 20
1142.50000000005
 30
0.0
 11
1175.000000000001
 21
981.5000000000621
 31
0.0
  0
LINE
  5
1BA
330
1F
100
AcDbEntity
  8
LAY-10
  6
CONTINUOUS
 62
     7
100
AcDbLine
 10
1259.5
 20
986.0000000000618
 30
0.0
 11
1259.5
 21
1214.000000000078
 31
0.0
  0
LINE
  5
1BB
330
1F
100
AcDbEntity
  8
LAY-10
  6
CONTINUOUS
 62
     7
100
AcDbLine
 10
1255.0
 20
986.0000000000582
 30
0.0
 11
1255.0
 21
1214.000000000078
 31
0.0
  0
LINE
  5
1BC
330
1F
100
AcDbEntity
  8
LAY-10
  6
CONTINUOUS
 62
     7
100
AcDbLine
 10
1301.000000000058
 20
1237.00000000008
 30
0.0
 11
1309.000000000058
 21
1237.00000000008
 31
0.0
  0
LINE
  5
1BD
330
1F
100
AcDbEntity
  8
LAY-10
  6
CONTINUOUS
 62
     7
100
AcDbLine
 10
1304.000000000058
 20
1225.00000000008
 30
0.0
 11
1301.00000000006
 21
1228.000000000079
 31
0.0
  0
LINE
  5
1BE
330
1F
100
AcDbEntity
  8
LAY-10
  6
CONTINUOUS
 62
     7
100
AcDbLine
 10
1306.00000000006
 20
1225.00000000008
 30
0.0
 11
1309.000000000059
 21
1228.000000000079
 31
0.0
  0
LINE
  5
1BF
330
1F
100
AcDbEntity
  8
LAY-10
  6
CONTINUOUS
 62
     7
100
AcDbLine
 10
1304.000000000058
 20
1225.000000000077
 30
0.0
 11
1306.000000000058
 21
1225.000000000077
 31
0.0
  0
LINE
  5
1C0
330
1F
100
AcDbEntity
  8
LAY-10
  6
CONTINUOUS
 62
     7
100
AcDbLine
 10
1301.00000000006
 20
1231.000000000109
 30
0.0
 11
1301.00000000006
 21
1237.00000000008
 31
0.0
  0
LINE
  5
1C1
330
1F
100
AcDbEntity
  8
LAY-10
  6
CONTINUOUS
 62
     7
100
AcDbLine
 10
1309.000000000059
 20
1231.000000000109
 30
0.0
 11
1309.000000000059
 21
1237.00000000008
 31
0.0
  0
LINE
  5
1C2
330
1F
100
AcDbEntity
  8
LAY-10
  6
CONTINUOUS
 62
     7
100
AcDbLine
 10
820.9999999999584
 20
1237.00000000008
 30
0.0
 11
828.9999999999584
 21
1237.00000000008
 31
0.0
  0
LINE
  5
1C3
330
1F
100
AcDbEntity
  8
LAY-10
  6
CONTINUOUS
 62
     7
100
AcDbLine
 10
820.9999999999595
 20
1231.000000000109
 30
0.0
 11
820.9999999999595
 21
1237.00000000008
 31
0.0
  0
LINE
  5
1C4
330
1F
100
AcDbEntity
  8
LAY-10
  6
CONTINUOUS
 62
     7
100
AcDbLine
 10
828.9999999999591
 20
1231.000000000109
 30
0.0
 11
828.9999999999591
 21
1237.00000000008
 31
0.0
  0
LINE
  5
1C5
330
1F
100
AcDbEntity
  8
LAY-10
  6
CONTINUOUS
 62
     7
100
AcDbLine
 10
420.9999999999584
 20
1237.00000000008
 30
0.0
 11
428.9999999999584
 21
1237.00000000008
 31
0.0
  0
LINE
  5
1C6
330
1F
100
AcDbEntity
  8
LAY-10
  6
CONTINUOUS
 62
     7
100
AcDbLine
 10
420.9999999999596
 20
1231.000000000109
 30
0.0
 11
420.9999999999596
 21
1237.00000000008
 31
0.0
  0
LINE
  5
1C7
330
1F
100
AcDbEntity
  8
LAY-10
  6
CONTINUOUS
 62
     7
100
AcDbLine
 10
428.9999999999591
 20
1231.000000000109
 30
0.0
 11
428.9999999999591
 21
1237.00000000008
 31
0.0
  0
LINE
  5
1C8
330
1F
100
AcDbEntity
  8
LAY-10
  6
CONTINUOUS
 62
     7
100
AcDbLine
 10
1180.00000000002
 20
1218.500000000047
 30
0.0
 11
1180.00000000002
 21
1217.500000000047
 31
0.0
  0
ARC
  5
1C9
330
1F
100
AcDbEntity
  8
LAY-10
  6
CONTINUOUS
 62
     7
100
AcDbCircle
 10
1199.00000000001
 20
1215.548750780325
 30
0.0
 40
1.0
100
AcDbArc
 50
0.0
 51
87.13759477388678
  0
ARC
  5
1CA
330
1F
100
AcDbEntity
  8
LAY-10
  6
CONTINUOUS
 62
     7
100
AcDbCircle
 10
1199.00000000001
 20
1211.451249219875
 30
0.0
 40
1.0
100
AcDbArc
 50
272.8624052261135
 51
0.0
  0
ARC
  5
1CB
330
1F
100
AcDbEntity
  8
LAY-10
  6
CONTINUOUS
 62
     7
100
AcDbCircle
 10
1197.00000000002
 20
1208.347501560701
 30
0.0
 40
2.0
100
AcDbArc
 50
92.86240522611305
 51
180.0
  0
ARC
  5
1CC
330
1F
100
AcDbEntity
  8
LAY-10
  6
CONTINUOUS
 62
     7
100
AcDbCircle
 10
1197.00000000002
 20
1154.652498439492
 30
0.0
 40
2.0
100
AcDbArc
 50
180.0
 51
267.1375947738866
  0
ARC
  5
1CD
330
1F
100
AcDbEntity
  8
LAY-10
  6
CONTINUOUS
 62
     7
100
AcDbCircle
 10
1199.00000000001
 20
1151.548750780318
 30
0.0
 40
1.0
100
AcDbArc
 50
0.0
 51
87.13759477388751
  0
ARC
  5
1CE
330
1F
100
AcDbEntity
  8
LAY-10
  6
CONTINUOUS
 62
     7
100
AcDbCircle
 10
1199.00000000001
 20
1147.451249219868
 30
0.0
 40
1.0
100
AcDbArc
 50
272.8624052261126
 51
0.0
  0
LINE
  5
1CF
330
1F
100
AcDbEntity
  8
LAY-10
  6
CONTINUOUS
 62
     7
100
AcDbLine
 10
1199.049937616955
 20
1146.45249688099
 30
0.0
 11
1180.000000000015
 21
1145.500000000143
 31
0.0
  0
LINE
  5
1D0
330
1F
100
AcDbEntity
  8
LAY-10
  6
CONTINUOUS
 62
     7
100
AcDbLine
 10
1180.00000000002
 20
1144.500000000146
 30
0.0
 11
1180.00000000002
 21
1145.500000000146
 31
0.0
  0
LINE
  5
1D1
330
1F
100
AcDbEntity
  8
LAY-10
  6
CONTINUOUS
 62
     7
100
AcDbLine
 10
1180.00000000002
 20
1186.522345351122
 30
0.0
 11
1180.00000000002
 21
1176.477654648961
 31
0.0
  0
ARC
  5
1D2
330
1F
100
AcDbEntity
  8
LAY-10
  6
CONTINUOUS
 62
     7
100
AcDbCircle
 10
1181.00000000002
 20
1176.477654648961
 30
0.0
 40
1.0
100
AcDbArc
 50
180.0
 51
265.0000000000003
  0
LINE
  5
1D3
330
1F
100
AcDbEntity
  8
LAY-10
  6
CONTINUOUS
 62
     7
100
AcDbLine
 10
1192.261467228258
 20
1174.488584094278
 30
0.0
 11
1180.912844257272
 21
1175.48145995087
 31
0.0
  0
ARC
  5
1D4
330
1F
100
AcDbEntity
  8
LAY-10
  6
CONTINUOUS
 62
     7
100
AcDbCircle
 10
1181.00000000002
 20
1186.522345351232
 30
0.0
 40
1.0
100
AcDbArc
 50
94.99999999999976
 51
180.0
  0
LINE
  5
1D5
330
1F
100
AcDbEntity
  8
LAY-10
  6
CONTINUOUS
 62
     7
100
AcDbLine
 10
1192.261467228258
 20
1188.511415905915
 30
0.0
 11
1180.912844257272
 21
1187.518540049324
 31
0.0
  0
LINE
  5
1D6
330
1F
100
AcDbEntity
  8
LAY-10
  6
CONTINUOUS
 62
     7
100
AcDbLine
 10
1199.049937616955
 20
1216.547503119203
 30
0.0
 11
1180.000000000015
 21
1217.50000000005
 31
0.0
  0
LINE
  5
1D7
330
1F
100
AcDbEntity
  8
LAY-10
  6
CONTINUOUS
 62
     7
100
AcDbLine
 10
1175.0
 20
1205.50000000015
 30
0.0
 11
1175.0
 21
1217.500000000051
 31
0.0
  0
LINE
  5
1D8
330
1F
100
AcDbEntity
  8
LAY-10
  6
CONTINUOUS
 62
     7
100
AcDbLine
 10
1174.999999999995
 20
1217.50000000005
 30
0.0
 11
1180.000000000015
 21
1218.50000000005
 31
0.0
  0
LINE
  5
1D9
330
1F
100
AcDbEntity
  8
LAY-10
  6
CONTINUOUS
 62
     7
100
AcDbLine
 10
1174.999999999995
 20
1205.50000000015
 30
0.0
 11
1180.000000000015
 21
1204.50000000015
 31
0.0
  0
LINE
  5
1DA
330
1F
100
AcDbEntity
  8
LAY-10
  6
CONTINUOUS
 62
     7
100
AcDbLine
 10
1180.000000000015
 20
1198.50000000014
 30
0.0
 11
1174.999999999995
 21
1197.50000000015
 31
0.0
  0
LINE
  5
1DB
330
1F
100
AcDbEntity
  8
LAY-10
  6
CONTINUOUS
 62
     7
100
AcDbLine
 10
1180.000000000015
 20
1184.500000000253
 30
0.0
 11
1174.999999999995
 21
1185.500000000243
 31
0.0
  0
LINE
  5
1DC
330
1F
100
AcDbEntity
  8
LAY-10
  6
CONTINUOUS
 62
     7
100
AcDbLine
 10
1175.0
 20
1197.500000000151
 30
0.0
 11
1175.0
 21
1185.50000000024
 31
0.0
  0
LINE
  5
1DD
330
1F
100
AcDbEntity
  8
LAY-10
  6
CONTINUOUS
 62
     7
100
AcDbLine
 10
1180.000000000015
 20
1178.49999999994
 30
0.0
 11
1174.999999999995
 21
1177.49999999995
 31
0.0
  0
LINE
  5
1DE
330
1F
100
AcDbEntity
  8
LAY-10
  6
CONTINUOUS
 62
     7
100
AcDbLine
 10
1180.000000000015
 20
1164.500000000053
 30
0.0
 11
1174.999999999995
 21
1165.500000000043
 31
0.0
  0
LINE
  5
1DF
330
1F
100
AcDbEntity
  8
LAY-10
  6
CONTINUOUS
 62
     7
100
AcDbLine
 10
1174.999999999995
 20
1157.500000000043
 30
0.0
 11
1180.000000000015
 21
1158.500000000043
 31
0.0
  0
LINE
  5
1E0
330
1F
100
AcDbEntity
  8
LAY-10
  6
CONTINUOUS
 62
     7
100
AcDbLine
 10
1174.999999999995
 20
1145.500000000143
 30
0.0
 11
1180.000000000015
 21
1144.500000000143
 31
0.0
  0
LINE
  5
1E1
330
1F
100
AcDbEntity
  8
LAY-10
  6
CONTINUOUS
 62
     7
100
AcDbLine
 10
1175.0
 20
1177.49999999995
 30
0.0
 11
1175.0
 21
1165.50000000004
 31
0.0
  0
LINE
  5
1E2
330
1F
100
AcDbEntity
  8
LAY-10
  6
CONTINUOUS
 62
     7
100
AcDbLine
 10
1175.0
 20
1145.50000000014
 30
0.0
 11
1175.0
 21
1157.50000000004
 31
0.0
  0
ARC
  5
1E3
330
1F
100
AcDbEntity
  8
LAY-10
  6
CONTINUOUS
 62
     7
100
AcDbCircle
 10
1192.000000000015
 20
1171.5
 30
0.0
 40
3.0
100
AcDbArc
 50
274.9999999999186
 51
85.00000000006428
  0
ARC
  5
1E4
330
1F
100
AcDbEntity
  8
LAY-10
  6
CONTINUOUS
 62
     7
100
AcDbCircle
 10
1192.000000000015
 20
1191.500000000193
 30
0.0
 40
3.0
100
AcDbArc
 50
274.9999999999358
 51
85.00000000007654
  0
LINE
  5
1E5
330
1F
100
AcDbEntity
  8
LAY-10
  6
CONTINUOUS
 62
     7
100
AcDbLine
 10
1182.850187149185
 20
1153.357490642584
 30
0.0
 11
1199.049937616955
 21
1152.547503119195
 31
0.0
  0
ARC
  5
1E6
330
1F
100
AcDbEntity
  8
LAY-10
  6
CONTINUOUS
 62
     7
100
AcDbCircle
 10
1183.00000000002
 20
1156.353747659218
 30
0.0
 40
3.0
100
AcDbArc
 50
180.0
 51
267.1375947738265
  0
ARC
  5
1E7
330
1F
100
AcDbEntity
  8
LAY-10
  6
CONTINUOUS
 62
     7
100
AcDbCircle
 10
1181.00000000002
 20
1166.522345351032
 30
0.0
 40
1.0
100
AcDbArc
 50
94.99999999986586
 51
180.0000000001075
  0
LINE
  5
1E8
330
1F
100
AcDbEntity
  8
LAY-10
  6
CONTINUOUS
 62
     7
100
AcDbLine
 10
1192.261467228258
 20
1168.511415905715
 30
0.0
 11
1180.912844257272
 21
1167.518540049124
 31
0.0
  0
ARC
  5
1E9
330
1F
100
AcDbEntity
  8
LAY-10
  6
CONTINUOUS
 62
     7
100
AcDbCircle
 10
1181.00000000002
 20
1196.477654649161
 30
0.0
 40
1.0
100
AcDbArc
 50
179.9999999998926
 51
265.0000000001343
  0
LINE
  5
1EA
330
1F
100
AcDbEntity
  8
LAY-10
  6
CONTINUOUS
 62
     7
100
AcDbLine
 10
1192.261467228258
 20
1194.488584094478
 30
0.0
 11
1180.912844257272
 21
1195.481459951069
 31
0.0
  0
ARC
  5
1EB
330
1F
100
AcDbEntity
  8
LAY-10
  6
CONTINUOUS
 62
     7
100
AcDbCircle
 10
1183.00000000002
 20
1206.646252340975
 30
0.0
 40
3.0
100
AcDbArc
 50
92.86240522617351
 51
180.0
  0
LINE
  5
1EC
330
1F
100
AcDbEntity
  8
LAY-10
  6
CONTINUOUS
 62
     7
100
AcDbLine
 10
1182.850187149185
 20
1209.642509357609
 30
0.0
 11
1199.049937616955
 21
1210.452496880998
 31
0.0
  0
LINE
  5
1ED
330
1F
100
AcDbEntity
  8
LAY-10
  6
CONTINUOUS
 62
     7
100
AcDbLine
 10
1180.00000000002
 20
1196.47765464916
 30
0.0
 11
1180.00000000002
 21
1206.64625234098
 31
0.0
  0
LINE
  5
1EE
330
1F
100
AcDbEntity
  8
LAY-10
  6
CONTINUOUS
 62
     7
100
AcDbLine
 10
1180.00000000002
 20
1166.52234535103
 30
0.0
 11
1180.00000000002
 21
1156.35374765922
 31
0.0
  0
LINE
  5
1EF
330
1F
100
AcDbEntity
  8
LAY-10
  6
CONTINUOUS
 62
     7
100
AcDbLine
 10
1195.00000000002
 20
1154.652498439492
 30
0.0
 11
1195.00000000002
 21
1208.347501560701
 31
0.0
  0
ARC
  5
1F0
330
1F
100
AcDbEntity
  8
LAY-10
  6
CONTINUOUS
 62
     7
100
AcDbCircle
 10
1197.909606189599
 20
1207.100000000094
 30
0.0
 40
1.9
100
AcDbArc
 50
17.87435679904485
 51
90.00000000000001
  0
LINE
  5
1F1
330
1F
100
AcDbEntity
  8
LAY-10
  6
CONTINUOUS
 62
     7
100
AcDbLine
 10
1197.909606189599
 20
1209.000000000094
 30
0.0
 11
1196.99711431704
 21
1209.000000000094
 31
0.0
  0
ARC
  5
1F2
330
1F
100
AcDbEntity
  8
LAY-10
  6
CONTINUOUS
 62
     7
100
AcDbCircle
 10
1197.909606189599
 20
1155.900000000101
 30
0.0
 40
1.9
100
AcDbArc
 50
270.0
 51
342.1256432009552
  0
ARC
  5
1F3
330
1F
100
AcDbEntity
  8
LAY-10
  6
CONTINUOUS
 62
     7
100
AcDbCircle
 10
1188.29711431704
 20
1159.000000000101
 30
0.0
 40
12.0
100
AcDbArc
 50
342.1256432009546
 51
357.1340160174004
  0
LINE
  5
1F4
330
1F
100
AcDbEntity
  8
LAY-10
  6
CONTINUOUS
 62
     7
100
AcDbLine
 10
1197.909606189599
 20
1154.000000000101
 30
0.0
 11
1196.99711431704
 21
1154.000000000101
 31
0.0
  0
ARC
  5
1F5
330
1F
100
AcDbEntity
  8
LAY-10
  6
CONTINUOUS
 62
     7
100
AcDbCircle
 10
1197.909606189599
 20
1162.100000000101
 30
0.0
 40
1.9
100
AcDbArc
 50
17.8743567990519
 51
90.00000000000001
  0
LINE
  5
1F6
330
1F
100
AcDbEntity
  8
LAY-10
  6
CONTINUOUS
 62
     7
100
AcDbLine
 10
1197.909606189599
 20
1164.000000000101
 30
0.0
 11
1196.99711431704
 21
1164.000000000101
 31
0.0
  0
ARC
  5
1F7
330
1F
100
AcDbEntity
  8
LAY-10
  6
CONTINUOUS
 62
     7
100
AcDbCircle
 10
1188.29711431704
 20
1159.000000000101
 30
0.0
 40
12.0
100
AcDbArc
 50
2.865983982599606
 51
17.87435679905081
  0
LINE
  5
1F8
330
1F
100
AcDbEntity
  8
LAY-10
  6
CONTINUOUS
 62
     7
100
AcDbLine
 10
1199.99711431704
 20
1184.500000000101
 30
0.0
 11
1199.99711431704
 21
1178.500000000101
 31
0.0
  0
LINE
  5
1F9
330
1F
100
AcDbEntity
  8
LAY-10
  6
CONTINUOUS
 62
     7
100
AcDbLine
 10
1199.99711431704
 20
1184.500000000101
 30
0.0
 11
1199.99711431704
 21
1190.650714431647
 31
0.0
  0
LINE
  5
1FA
330
1F
100
AcDbEntity
  8
LAY-10
  6
CONTINUOUS
 62
     7
100
AcDbLine
 10
1199.99711431704
 20
1172.349285568554
 30
0.0
 11
1199.99711431704
 21
1178.500000000101
 31
0.0
  0
LINE
  5
1FB
330
1F
100
AcDbEntity
  8
LAY-10
  6
CONTINUOUS
 62
     7
100
AcDbLine
 10
1200.282104930303
 20
1158.400000000101
 30
0.0
 11
1198.69711431704
 21
1158.400000000101
 31
0.0
  0
LINE
  5
1FC
330
1F
100
AcDbEntity
  8
LAY-10
  6
CONTINUOUS
 62
     7
100
AcDbLine
 10
1200.282104930303
 20
1159.600000000101
 30
0.0
 11
1198.69711431704
 21
1159.600000000101
 31
0.0
  0
LINE
  5
1FD
330
1F
100
AcDbEntity
  8
LAY-10
  6
CONTINUOUS
 62
     7
100
AcDbLine
 10
1198.69711431704
 20
1158.400000000101
 30
0.0
 11
1198.69711431704
 21
1159.600000000101
 31
0.0
  0
ARC
  5
1FE
330
1F
100
AcDbEntity
  8
LAY-10
  6
CONTINUOUS
 62
     7
100
AcDbCircle
 10
1196.49711431704
 20
1195.349285568554
 30
0.0
 40
1.5
100
AcDbArc
 50
180.0000000000001
 51
239.0362434679267
  0
LINE
  5
1FF
330
1F
100
AcDbEntity
  8
LAY-10
  6
CONTINUOUS
 62
     7
100
AcDbLine
 10
1195.725370683899
 20
1194.063046179986
 30
0.0
 11
1199.268857950182
 21
1191.936953820216
 31
0.0
  0
ARC
  5
200
330
1F
100
AcDbEntity
  8
LAY-10
  6
CONTINUOUS
 62
     7
100
AcDbCircle
 10
1198.49711431704
 20
1190.650714431647
 30
0.0
 40
1.5
100
AcDbArc
 50
0.0000000000001719
 51
59.03624346792686
  0
ARC
  5
201
330
1F
100
AcDbEntity
  8
LAY-10
  6
CONTINUOUS
 62
     7
100
AcDbCircle
 10
1198.49711431704
 20
1172.349285568554
 30
0.0
 40
1.5
100
AcDbArc
 50
300.9637565320735
 51
0.0000000000001719
  0
LINE
  5
202
330
1F
100
AcDbEntity
  8
LAY-10
  6
CONTINUOUS
 62
     7
100
AcDbLine
 10
1195.725370683899
 20
1168.936953820216
 30
0.0
 11
1199.268857950182
 21
1171.063046179986
 31
0.0
  0
ARC
  5
203
330
1F
100
AcDbEntity
  8
LAY-10
  6
CONTINUOUS
 62
     7
100
AcDbCircle
 10
1196.49711431704
 20
1167.650714431647
 30
0.0
 40
1.5
100
AcDbArc
 50
120.9637565320733
 51
180.0000000000001
  0
LINE
  5
204
330
1F
100
AcDbEntity
  8
LAY-10
  6
CONTINUOUS
 62
     7
100
AcDbLine
 10
1197.725370683899
 20
1168.087668251763
 30
0.0
 11
1201.268857950181
 21
1170.213760611533
 31
0.0
  0
ARC
  5
205
330
1F
100
AcDbEntity
  8
LAY-10
  6
CONTINUOUS
 62
     7
100
AcDbCircle
 10
1198.49711431704
 20
1166.801428863194
 30
0.0
 40
1.5
100
AcDbArc
 50
120.9637565320733
 51
180.0000000000001
  0
ARC
  5
206
330
1F
100
AcDbEntity
  8
LAY-10
  6
CONTINUOUS
 62
     7
100
AcDbCircle
 10
1200.49711431704
 20
1171.500000000101
 30
0.0
 40
1.5
100
AcDbArc
 50
300.9637565320738
 51
0.0000000000001719
  0
ARC
  5
207
330
1F
100
AcDbEntity
  8
LAY-10
  6
CONTINUOUS
 62
     7
100
AcDbCircle
 10
1198.49711431704
 20
1196.198571137008
 30
0.0
 40
1.5
100
AcDbArc
 50
180.0000000000001
 51
239.0362434679267
  0
LINE
  5
208
330
1F
100
AcDbEntity
  8
LAY-10
  6
CONTINUOUS
 62
     7
100
AcDbLine
 10
1197.725370683899
 20
1194.912331748439
 30
0.0
 11
1201.268857950181
 21
1192.786239388669
 31
0.0
  0
ARC
  5
209
330
1F
100
AcDbEntity
  8
LAY-10
  6
CONTINUOUS
 62
     7
100
AcDbCircle
 10
1200.49711431704
 20
1191.5000000001
 30
0.0
 40
1.5
100
AcDbArc
 50
0.0000000000001719
 51
59.03624346792686
  0
LINE
  5
20A
330
1F
100
AcDbEntity
  8
LAY-10
  6
CONTINUOUS
 62
     7
100
AcDbLine
 10
1221.197114317045
 20
1178.636751346051
 30
0.0
 11
1225.825114317045
 21
1178.636751346051
 31
0.0
  0
LINE
  5
20B
330
1F
100
AcDbEntity
  8
LAY-10
  6
CONTINUOUS
 62
     7
100
AcDbLine
 10
1221.197114317045
 20
1175.750000000101
 30
0.0
 11
1225.825114317045
 21
1175.750000000101
 31
0.0
  0
LINE
  5
20C
330
1F
100
AcDbEntity
  8
LAY-10
  6
CONTINUOUS
 62
     7
100
AcDbLine
 10
1221.197114317045
 20
1184.363248654151
 30
0.0
 11
1225.825114317045
 21
1184.363248654151
 31
0.0
  0
ARC
  5
20D
330
1F
100
AcDbEntity
  8
LAY-10
  6
CONTINUOUS
 62
     7
100
AcDbCircle
 10
1218.944861821487
 20
1181.500000000101
 30
0.0
 40
7.4522524955587
100
AcDbArc
 50
337.4051392327526
 51
22.59486076724778
  0
LINE
  5
20E
330
1F
100
AcDbEntity
  8
LAY-10
  6
CONTINUOUS
 62
     7
100
AcDbLine
 10
1221.197114317045
 20
1187.250000000101
 30
0.0
 11
1225.825114317045
 21
1187.250000000101
 31
0.0
  0
LINE
  5
20F
330
1F
100
AcDbEntity
  8
LAY-10
  6
CONTINUOUS
 62
     7
100
AcDbLine
 10
1221.197114317045
 20
1187.250000000101
 30
0.0
 11
1221.197114317045
 21
1175.750000000101
 31
0.0
  0
ARC
  5
210
330
1F
100
AcDbEntity
  8
LAY-10
  6
CONTINUOUS
 62
     7
100
AcDbCircle
 10
1226.859136362845
 20
1186.250000000101
 30
0.0
 40
0.5
100
AcDbArc
 50
189.7915975264292
 51
270.0000000000002
  0
LINE
  5
211
330
1F
100
AcDbEntity
  8
LAY-10
  6
CONTINUOUS
 62
     7
100
AcDbLine
 10
1226.397114317045
 20
1185.750000000101
 30
0.0
 11
1226.39635334219
 21
1185.750000000101
 31
0.0
  0
ARC
  5
212
330
1F
100
AcDbEntity
  8
LAY-10
  6
CONTINUOUS
 62
     7
100
AcDbCircle
 10
1224.290018745947
 20
1177.193375673076
 30
0.0
 40
2.107095571097913
100
AcDbArc
 50
316.7638252773315
 51
43.23617472266898
  0
ARC
  5
213
330
1F
100
AcDbEntity
  8
LAY-10
  6
CONTINUOUS
 62
     7
100
AcDbCircle
 10
1226.859136362845
 20
1176.750000000101
 30
0.0
 40
0.5
100
AcDbArc
 50
90.00000000000026
 51
170.2084024735711
  0
LINE
  5
214
330
1F
100
AcDbEntity
  8
LAY-10
  6
CONTINUOUS
 62
     7
100
AcDbLine
 10
1226.397114317045
 20
1177.250000000101
 30
0.0
 11
1226.39635334219
 21
1177.250000000101
 31
0.0
  0
ARC
  5
215
330
1F
100
AcDbEntity
  8
LAY-10
  6
CONTINUOUS
 62
     7
100
AcDbCircle
 10
1224.290018745947
 20
1185.806624327126
 30
0.0
 40
2.107095571097882
100
AcDbArc
 50
316.763825277331
 51
43.23617472266933
  0
ARC
  5
216
330
1F
100
AcDbEntity
  8
LAY-10
  6
CONTINUOUS
 62
     7
100
AcDbCircle
 10
1227.496152422722
 20
1178.250000000101
 30
0.0
 40
1.0
100
AcDbArc
 50
270.0000000000002
 51
291.7867892982636
  0
LINE
  5
217
330
1F
100
AcDbEntity
  8
LAY-10
  6
CONTINUOUS
 62
     7
100
AcDbLine
 10
1227.496152422722
 20
1177.250000000101
 30
0.0
 11
1226.859136362845
 21
1177.250000000101
 31
0.0
  0
ARC
  5
218
330
1F
100
AcDbEntity
  8
LAY-10
  6
CONTINUOUS
 62
     7
100
AcDbCircle
 10
1226.197114317046
 20
1181.500000000101
 30
0.0
 40
4.5
100
AcDbArc
 50
291.7867892982638
 51
68.21321070173653
  0
LINE
  5
219
330
1F
100
AcDbEntity
  8
LAY-10
  6
CONTINUOUS
 62
     7
100
AcDbLine
 10
1227.496152422722
 20
1185.750000000101
 30
0.0
 11
1226.859136362845
 21
1185.750000000101
 31
0.0
  0
ARC
  5
21A
330
1F
100
AcDbEntity
  8
LAY-10
  6
CONTINUOUS
 62
     7
100
AcDbCircle
 10
1227.496152422722
 20
1184.750000000101
 30
0.0
 40
1.0
100
AcDbArc
 50
68.21321070173653
 51
90.00000000000026
  0
ARC
  5
21B
330
1F
100
AcDbEntity
  8
LAY-10
  6
CONTINUOUS
 62
     7
100
AcDbCircle
 10
1199.247114317045
 20
1184.750000000101
 30
0.0
 40
0.25
100
AcDbArc
 50
180.0000000000001
 51
270.0000000000002
  0
LINE
  5
21C
330
1F
100
AcDbEntity
  8
LAY-10
  6
CONTINUOUS
 62
     7
100
AcDbLine
 10
1198.997114317045
 20
1176.250000000101
 30
0.0
 11
1198.997114317045
 21
1186.750000000101
 31
0.0
  0
ARC
  5
21D
330
1F
100
AcDbEntity
  8
LAY-10
  6
CONTINUOUS
 62
     7
100
AcDbCircle
 10
1199.247114317045
 20
1178.250000000101
 30
0.0
 40
0.25
100
AcDbArc
 50
90.0000000000002
 51
180.0000000000001
  0
ARC
  5
21E
330
1F
100
AcDbEntity
  8
LAY-10
  6
CONTINUOUS
 62
     7
100
AcDbCircle
 10
1196.997114317045
 20
1177.750000000101
 30
0.0
 40
1.0
100
AcDbArc
 50
180.0000000000001
 51
241.927513064142
  0
ARC
  5
21F
330
1F
100
AcDbEntity
  8
LAY-10
  6
CONTINUOUS
 62
     7
100
AcDbCircle
 10
1198.997114317045
 20
1181.500000000101
 30
0.0
 40
5.25
100
AcDbArc
 50
241.9275130641421
 51
269.9999999999997
  0
LINE
  5
220
330
1F
100
AcDbEntity
  8
LAY-10
  6
CONTINUOUS
 62
     7
100
AcDbLine
 10
1195.997114317045
 20
1185.250000000101
 30
0.0
 11
1195.997114317045
 21
1177.750000000101
 31
0.0
  0
ARC
  5
221
330
1F
100
AcDbEntity
  8
LAY-10
  6
CONTINUOUS
 62
     7
100
AcDbCircle
 10
1196.997114317045
 20
1185.250000000101
 30
0.0
 40
1.0
100
AcDbArc
 50
118.0724869358582
 51
180.0000000000001
  0
ARC
  5
222
330
1F
100
AcDbEntity
  8
LAY-10
  6
CONTINUOUS
 62
     7
100
AcDbCircle
 10
1198.997114317045
 20
1181.500000000101
 30
0.0
 40
5.25
100
AcDbArc
 50
90.00000000000112
 51
118.072486935858
  0
LINE
  5
223
330
1F
100
AcDbEntity
  8
LAY-10
  6
CONTINUOUS
 62
     7
100
AcDbLine
 10
1212.997114317045
 20
1178.500000000101
 30
0.0
 11
1221.197114317046
 21
1178.500000000101
 31
0.0
  0
LINE
  5
224
330
1F
100
AcDbEntity
  8
LAY-10
  6
CONTINUOUS
 62
     7
100
AcDbLine
 10
1212.997114317045
 20
1184.500000000101
 30
0.0
 11
1221.197114317046
 21
1184.500000000101
 31
0.0
  0
LINE
  5
225
330
1F
100
AcDbEntity
  8
LAY-10
  6
CONTINUOUS
 62
     7
100
AcDbLine
 10
1201.99711431704
 20
1171.500000000101
 30
0.0
 11
1201.99711431704
 21
1191.5000000001
 31
0.0
  0
LINE
  5
226
330
1F
100
AcDbEntity
  8
LAY-10
  6
CONTINUOUS
 62
     7
100
AcDbLine
 10
1199.247114317045
 20
1178.500000000101
 30
0.0
 11
1199.99711431704
 21
1178.500000000101
 31
0.0
  0
LINE
  5
227
330
1F
100
AcDbEntity
  8
LAY-10
  6
CONTINUOUS
 62
     7
100
AcDbLine
 10
1201.99711431704
 20
1178.500000000101
 30
0.0
 11
1209.000000000005
 21
1178.500000000101
 31
0.0
  0
LINE
  5
228
330
1F
100
AcDbEntity
  8
LAY-10
  6
CONTINUOUS
 62
     7
100
AcDbLine
 10
1199.247114317045
 20
1184.500000000101
 30
0.0
 11
1199.99711431704
 21
1184.500000000101
 31
0.0
  0
LINE
  5
229
330
1F
100
AcDbEntity
  8
LAY-10
  6
CONTINUOUS
 62
     7
100
AcDbLine
 10
1201.99711431704
 20
1184.500000000101
 30
0.0
 11
1209.000000000005
 21
1184.500000000101
 31
0.0
  0
LINE
  5
22A
330
1F
100
AcDbEntity
  8
LAY-10
  6
CONTINUOUS
 62
     7
100
AcDbLine
 10
1196.99711431704
 20
1152.641640259948
 30
0.0
 11
1196.99711431704
 21
1166.801428863194
 31
0.0
  0
LINE
  5
22B
330
1F
100
AcDbEntity
  8
LAY-10
  6
CONTINUOUS
 62
     7
100
AcDbLine
 10
1199.73004501808
 20
1155.500000000101
 30
0.0
 11
1209.000000000005
 21
1155.500000000101
 31
0.0
  0
LINE
  5
22C
330
1F
100
AcDbEntity
  8
LAY-10
  6
CONTINUOUS
 62
     7
100
AcDbLine
 10
1209.000000000005
 20
1167.500000000101
 30
0.0
 11
1197.169711451788
 21
1167.500000000101
 31
0.0
  0
LINE
  5
22D
330
1F
100
AcDbEntity
  8
LAY-10
  6
CONTINUOUS
 62
     7
100
AcDbLine
 10
1220.997114317045
 20
1156.529320511743
 30
0.0
 11
1220.997114317045
 21
1166.481501724837
 31
0.0
  0
LINE
  5
22E
330
1F
100
AcDbEntity
  8
LAY-10
  6
CONTINUOUS
 62
     7
100
AcDbLine
 10
1219.978616041783
 20
1167.500000000099
 30
0.0
 11
1220.997114317045
 21
1166.481501724837
 31
0.0
  0
LINE
  5
22F
330
1F
100
AcDbEntity
  8
LAY-10
  6
CONTINUOUS
 62
     7
100
AcDbLine
 10
1220.997114317044
 20
1156.529320511742
 30
0.0
 11
1219.967793805404
 21
1155.500000000101
 31
0.0
  0
LINE
  5
230
330
1F
100
AcDbEntity
  8
LAY-10
  6
CONTINUOUS
 62
     7
100
AcDbLine
 10
1212.997114317045
 20
1155.500000000101
 30
0.0
 11
1219.967793805403
 21
1155.500000000101
 31
0.0
  0
LINE
  5
231
330
1F
100
AcDbEntity
  8
LAY-10
  6
CONTINUOUS
 62
     7
100
AcDbLine
 10
1219.978616041781
 20
1167.500000000101
 30
0.0
 11
1212.997114317045
 21
1167.500000000101
 31
0.0
  0
LINE
  5
232
330
1F
100
AcDbEntity
  8
LAY-10
  6
CONTINUOUS
 62
     7
100
AcDbLine
 10
1220.997114317045
 20
1206.470679488459
 30
0.0
 11
1220.997114317045
 21
1196.518498275365
 31
0.0
  0
LINE
  5
233
330
1F
100
AcDbEntity
  8
LAY-10
  6
CONTINUOUS
 62
     7
100
AcDbLine
 10
1219.978616041783
 20
1195.500000000103
 30
0.0
 11
1220.997114317045
 21
1196.518498275365
 31
0.0
  0
LINE
  5
234
330
1F
100
AcDbEntity
  8
LAY-10
  6
CONTINUOUS
 62
     7
100
AcDbLine
 10
1220.997114317044
 20
1206.47067948846
 30
0.0
 11
1219.967793805404
 21
1207.500000000101
 31
0.0
  0
LINE
  5
235
330
1F
100
AcDbEntity
  8
LAY-10
  6
CONTINUOUS
 62
     7
100
AcDbLine
 10
1219.978616041781
 20
1195.500000000101
 30
0.0
 11
1197.169711451788
 21
1195.500000000101
 31
0.0
  0
LINE
  5
236
330
1F
100
AcDbEntity
  8
LAY-10
  6
CONTINUOUS
 62
     7
100
AcDbLine
 10
1196.99711431704
 20
1210.358359740248
 30
0.0
 11
1196.99711431704
 21
1196.198571137008
 31
0.0
  0
LINE
  5
237
330
1F
100
AcDbEntity
  8
LAY-10
  6
CONTINUOUS
 62
     7
100
AcDbLine
 10
1196.99711431704
 20
1207.500000000101
 30
0.0
 11
1219.967793805404
 21
1207.500000000101
 31
0.0
  0
ARC
  5
238
330
1F
100
AcDbEntity
  8
LAY-10
  6
CONTINUOUS
 62
     7
100
AcDbCircle
 10
1188.29711431704
 20
1204.000000000094
 30
0.0
 40
12.0
100
AcDbArc
 50
16.95776330003828
 51
17.87435679904559
  0
LINE
  5
239
330
1F
100
AcDbEntity
  8
LAY-10
  6
CONTINUOUS
 62
     7
100
AcDbLine
 10
1209.000000000005
 20
1195.500000000101
 30
0.0
 11
1209.000000000005
 21
1142.500000000103
 31
0.0
  0
LINE
  5
23A
330
1F
100
AcDbEntity
  8
LAY-10
  6
CONTINUOUS
 62
     7
100
AcDbLine
 10
1200.00000000001
 20
1142.500000000103
 30
0.0
 11
1200.00000000001
 21
1151.548750780318
 31
0.0
  0
LINE
  5
23B
330
1F
100
AcDbEntity
  8
LAY-10
  6
CONTINUOUS
 62
     7
100
AcDbLine
 10
1209.000000000005
 20
1151.500000000095
 30
0.0
 11
1200.00000000001
 21
1151.500000000095
 31
0.0
  0
LINE
  5
23C
330
1F
100
AcDbEntity
  8
LAY-10
  6
CONTINUOUS
 62
     7
100
AcDbLine
 10
1200.00000000001
 20
1209.500000000098
 30
0.0
 11
1209.000000000005
 21
1209.500000000098
 31
0.0
  0
LINE
  5
23D
330
1F
100
AcDbEntity
  8
LAY-10
  6
CONTINUOUS
 62
     7
100
AcDbLine
 10
1200.00000000001
 20
1218.500000000098
 30
0.0
 11
1200.00000000001
 21
1209.500000000098
 31
0.0
  0
LINE
  5
23E
330
1F
100
AcDbEntity
  8
LAY-10
  6
CONTINUOUS
 62
     7
100
AcDbLine
 10
1209.000000000005
 20
1218.500000000098
 30
0.0
 11
1209.000000000005
 21
1207.500000000101
 31
0.0
  0
LINE
  5
23F
330
1F
100
AcDbEntity
  8
LAY-10
  6
CONTINUOUS
 62
     7
100
AcDbLine
 10
1212.997114317045
 20
1207.500000000101
 30
0.0
 11
1212.997114317045
 21
1214.000000000098
 31
0.0
  0
LINE
  5
240
330
1F
100
AcDbEntity
  8
LAY-10
  6
CONTINUOUS
 62
     7
100
AcDbLine
 10
1212.997114317022
 20
1150.84792389101
 30
0.0
 11
1208.999999999982
 21
1150.84792389101
 31
0.0
  0
LINE
  5
241
330
1F
100
AcDbEntity
  8
LAY-10
  6
CONTINUOUS
 62
     7
100
AcDbLine
 10
1212.997114317022
 20
1148.99354088871
 30
0.0
 11
1208.999999999982
 21
1148.99354088871
 31
0.0
  0
LINE
  5
242
330
1F
100
AcDbEntity
  8
LAY-10
  6
CONTINUOUS
 62
     7
100
AcDbLine
 10
1212.997114317022
 20
1211.21226404361
 30
0.0
 11
1209.000000000005
 21
1211.21226404361
 31
0.0
  0
LINE
  5
243
330
1F
100
AcDbEntity
  8
LAY-10
  6
CONTINUOUS
 62
     7
100
AcDbLine
 10
1212.997114317045
 20
1148.99354088871
 30
0.0
 11
1212.997114317045
 21
1195.500000000101
 31
0.0
  0
LINE
  5
244
330
1F
100
AcDbEntity
  8
LAY-10
  6
CONTINUOUS
 62
     7
100
AcDbLine
 10
1195.000000000005
 20
1145.263532231219
 30
0.0
 11
1180.0
 21
1144.5000000001
 31
0.0
  0
ARC
  5
245
330
1F
100
AcDbEntity
  8
LAY-10
  6
CONTINUOUS
 62
     7
100
AcDbCircle
 10
1196.000000000005
 20
1145.298750780368
 30
0.0
 40
1.0
100
AcDbArc
 50
92.86240522611266
 51
180.0
  0
LINE
  5
246
330
1F
100
AcDbEntity
  8
LAY-10
  6
CONTINUOUS
 62
     7
100
AcDbLine
 10
1195.000000000005
 20
1145.263532231223
 30
0.0
 11
1195.000000000005
 21
1145.298750780368
 31
0.0
  0
ARC
  5
247
330
1F
100
AcDbEntity
  8
LAY-10
  6
CONTINUOUS
 62
     7
100
AcDbCircle
 10
1196.000000000005
 20
1217.701249219725
 30
0.0
 40
1.0
100
AcDbArc
 50
180.0
 51
267.1375947738874
  0
LINE
  5
248
330
1F
100
AcDbEntity
  8
LAY-10
  6
CONTINUOUS
 62
     7
100
AcDbLine
 10
1195.000000000005
 20
1217.73646776887
 30
0.0
 11
1195.000000000005
 21
1217.701249219725
 31
0.0
  0
LINE
  5
249
330
1F
100
AcDbEntity
  8
LAY-10
  6
CONTINUOUS
 62
     7
100
AcDbLine
 10
1195.000000000004
 20
1217.736467768874
 30
0.0
 11
1180.0
 21
1218.499999999992
 31
0.0
  0
LINE
  5
24A
330
1F
100
AcDbEntity
  8
LAY-10
  6
CONTINUOUS
 62
     7
100
AcDbLine
 10
817.5000000000014
 20
1158.499999999995
 30
0.0
 11
817.5000000000014
 21
1164.499999999995
 31
0.0
  0
LINE
  5
24B
330
1F
100
AcDbEntity
  8
LAY-10
  6
CONTINUOUS
 62
     7
100
AcDbLine
 10
817.5000000000014
 20
1198.500000000095
 30
0.0
 11
817.5000000000014
 21
1204.500000000095
 31
0.0
  0
LINE
  5
24C
330
1F
100
AcDbEntity
  8
LAY-10
  6
CONTINUOUS
 62
     7
100
AcDbLine
 10
832.5000000000014
 20
1158.499999999995
 30
0.0
 11
832.5000000000014
 21
1164.499999999995
 31
0.0
  0
LINE
  5
24D
330
1F
100
AcDbEntity
  8
LAY-10
  6
CONTINUOUS
 62
     7
100
AcDbLine
 10
832.5000000000014
 20
1198.500000000095
 30
0.0
 11
832.5000000000014
 21
1204.500000000095
 31
0.0
  0
ARC
  5
24E
330
1F
100
AcDbEntity
  8
LAY-10
  6
CONTINUOUS
 62
     7
100
AcDbCircle
 10
825.0000000000014
 20
1181.500000000045
 30
0.0
 40
5.0
100
AcDbArc
 50
53.13010235410481
 51
126.8698976459003
  0
ARC
  5
24F
330
1F
100
AcDbEntity
  8
LAY-10
  6
CONTINUOUS
 62
     7
100
AcDbCircle
 10
825.0000000000014
 20
1181.500000000045
 30
0.0
 40
4.0
100
AcDbArc
 50
48.59037789393994
 51
131.4096221060601
  0
ARC
  5
250
330
1F
100
AcDbEntity
  8
LAY-10
  6
CONTINUOUS
 62
     7
100
AcDbCircle
 10
825.0000000000014
 20
1181.500000000045
 30
0.0
 40
4.0
100
AcDbArc
 50
228.5903778939492
 51
311.4096221060509
  0
ARC
  5
251
330
1F
100
AcDbEntity
  8
LAY-10
  6
CONTINUOUS
 62
     7
100
AcDbCircle
 10
825.0000000000014
 20
1181.500000000045
 30
0.0
 40
5.0
100
AcDbArc
 50
233.1301023541225
 51
306.8698976458775
  0
ARC
  5
252
330
1F
100
AcDbEntity
  8
LAY-10
  6
CONTINUOUS
 62
     7
100
AcDbCircle
 10
424.9999999999911
 20
1181.500000000045
 30
0.0
 40
5.0
100
AcDbArc
 50
53.13010235410481
 51
126.8698976459003
  0
ARC
  5
253
330
1F
100
AcDbEntity
  8
LAY-10
  6
CONTINUOUS
 62
     7
100
AcDbCircle
 10
424.9999999999911
 20
1181.500000000045
 30
0.0
 40
4.0
100
AcDbArc
 50
48.59037789393994
 51
131.4096221060601
  0
ARC
  5
254
330
1F
100
AcDbEntity
  8
LAY-10
  6
CONTINUOUS
 62
     7
100
AcDbCircle
 10
424.9999999999911
 20
1181.500000000045
 30
0.0
 40
4.0
100
AcDbArc
 50
228.5903778939492
 51
311.4096221060509
  0
ARC
  5
255
330
1F
100
AcDbEntity
  8
LAY-10
  6
CONTINUOUS
 62
     7
100
AcDbCircle
 10
424.9999999999911
 20
1181.500000000045
 30
0.0
 40
5.0
100
AcDbArc
 50
233.1301023541225
 51
306.8698976458775
  0
LINE
  5
256
330
1F
100
AcDbEntity
  8
LAY-10
  6
CONTINUOUS
 62
     7
100
AcDbLine
 10
519.0000000000009
 20
1158.499999999995
 30
0.0
 11
519.0000000000009
 21
1164.499999999995
 31
0.0
  0
LINE
  5
257
330
1F
100
AcDbEntity
  8
LAY-10
  6
CONTINUOUS
 62
     7
100
AcDbLine
 10
531.0000000000009
 20
1158.499999999995
 30
0.0
 11
531.0000000000009
 21
1164.499999999995
 31
0.0
  0
LINE
  5
258
330
1F
100
AcDbEntity
  8
LAY-10
  6
CONTINUOUS
 62
     7
100
AcDbLine
 10
519.0000000000009
 20
1178.500000000195
 30
0.0
 11
519.0000000000009
 21
1184.500000000195
 31
0.0
  0
LINE
  5
259
330
1F
100
AcDbEntity
  8
LAY-10
  6
CONTINUOUS
 62
     7
100
AcDbLine
 10
531.0000000000009
 20
1178.500000000195
 30
0.0
 11
531.0000000000009
 21
1184.500000000195
 31
0.0
  0
LINE
  5
25A
330
1F
100
AcDbEntity
  8
LAY-10
  6
CONTINUOUS
 62
     7
100
AcDbLine
 10
519.0000000000009
 20
1198.500000000095
 30
0.0
 11
519.0000000000009
 21
1204.500000000095
 31
0.0
  0
LINE
  5
25B
330
1F
100
AcDbEntity
  8
LAY-10
  6
CONTINUOUS
 62
     7
100
AcDbLine
 10
531.0000000000009
 20
1198.500000000095
 30
0.0
 11
531.0000000000009
 21
1204.500000000095
 31
0.0
  0
ARC
  5
25C
330
1F
100
AcDbEntity
  8
LAY-10
  6
CONTINUOUS
 62
     7
100
AcDbCircle
 10
624.9999999999709
 20
1181.500000000045
 30
0.0
 40
5.0
100
AcDbArc
 50
53.13010235409815
 51
126.8698976458961
  0
ARC
  5
25D
330
1F
100
AcDbEntity
  8
LAY-10
  6
CONTINUOUS
 62
     7
100
AcDbCircle
 10
624.9999999999709
 20
1181.500000000045
 30
0.0
 40
4.0
100
AcDbArc
 50
48.59037789393748
 51
131.4096221060625
  0
ARC
  5
25E
330
1F
100
AcDbEntity
  8
LAY-10
  6
CONTINUOUS
 62
     7
100
AcDbCircle
 10
624.9999999999709
 20
1181.500000000045
 30
0.0
 40
4.0
100
AcDbArc
 50
228.5903778939515
 51
311.4096221060485
  0
ARC
  5
25F
330
1F
100
AcDbEntity
  8
LAY-10
  6
CONTINUOUS
 62
     7
100
AcDbCircle
 10
624.9999999999709
 20
1181.500000000045
 30
0.0
 40
5.0
100
AcDbArc
 50
233.1301023541234
 51
306.8698976458766
  0
LINE
  5
260
330
1F
100
AcDbEntity
  8
LAY-10
  6
CONTINUOUS
 62
     7
100
AcDbLine
 10
427.9999999999943
 20
1185.500000000043
 30
0.0
 11
621.9999999999682
 21
1185.500000000043
 31
0.0
  0
LINE
  5
261
330
1F
100
AcDbEntity
  8
LAY-10
  6
CONTINUOUS
 62
     7
100
AcDbLine
 10
621.9999999999691
 20
1177.500000000047
 30
0.0
 11
427.9999999999933
 21
1177.500000000047
 31
0.0
  0
LINE
  5
262
330
1F
100
AcDbEntity
  8
LAY-10
  6
CONTINUOUS
 62
     7
100
AcDbLine
 10
627.9999999999736
 20
1185.500000000043
 30
0.0
 11
821.9999999999987
 21
1185.500000000043
 31
0.0
  0
LINE
  5
263
330
1F
100
AcDbEntity
  8
LAY-10
  6
CONTINUOUS
 62
     7
100
AcDbLine
 10
821.9999999999991
 20
1177.500000000047
 30
0.0
 11
627.9999999999727
 21
1177.500000000047
 31
0.0
  0
LINE
  5
264
330
1F
100
AcDbEntity
  8
LAY-10
  6
CONTINUOUS
 62
     7
100
AcDbLine
 10
719.0000000000009
 20
1158.499999999995
 30
0.0
 11
719.0000000000009
 21
1164.499999999995
 31
0.0
  0
LINE
  5
265
330
1F
100
AcDbEntity
  8
LAY-10
  6
CONTINUOUS
 62
     7
100
AcDbLine
 10
731.0000000000009
 20
1158.499999999995
 30
0.0
 11
731.0000000000009
 21
1164.499999999995
 31
0.0
  0
LINE
  5
266
330
1F
100
AcDbEntity
  8
LAY-10
  6
CONTINUOUS
 62
     7
100
AcDbLine
 10
731.0000000000009
 20
1178.499999999895
 30
0.0
 11
731.0000000000009
 21
1184.499999999895
 31
0.0
  0
LINE
  5
267
330
1F
100
AcDbEntity
  8
LAY-10
  6
CONTINUOUS
 62
     7
100
AcDbLine
 10
719.0000000000009
 20
1198.500000000095
 30
0.0
 11
719.0000000000009
 21
1204.500000000095
 31
0.0
  0
LINE
  5
268
330
1F
100
AcDbEntity
  8
LAY-10
  6
CONTINUOUS
 62
     7
100
AcDbLine
 10
919.0000000000018
 20
1158.499999999995
 30
0.0
 11
919.0000000000018
 21
1164.499999999995
 31
0.0
  0
LINE
  5
269
330
1F
100
AcDbEntity
  8
LAY-10
  6
CONTINUOUS
 62
     7
100
AcDbLine
 10
919.0000000000018
 20
1198.500000000095
 30
0.0
 11
919.0000000000018
 21
1204.500000000095
 31
0.0
  0
LINE
  5
26A
330
1F
100
AcDbEntity
  8
LAY-10
  6
CONTINUOUS
 62
     7
100
AcDbLine
 10
327.0000000000011
 20
1217.500000000045
 30
0.0
 11
327.0000000000011
 21
1205.500000000045
 31
0.0
  0
LINE
  5
26B
330
1F
100
AcDbEntity
  8
LAY-10
  6
CONTINUOUS
 62
     7
100
AcDbLine
 10
326.0000000000011
 20
1218.500000000045
 30
0.0
 11
327.0000000000011
 21
1217.500000000045
 31
0.0
  0
LINE
  5
26C
330
1F
100
AcDbEntity
  8
LAY-10
  6
CONTINUOUS
 62
     7
100
AcDbLine
 10
327.0000000000011
 20
1197.500000000045
 30
0.0
 11
327.0000000000011
 21
1185.500000000045
 31
0.0
  0
LINE
  5
26D
330
1F
100
AcDbEntity
  8
LAY-10
  6
CONTINUOUS
 62
     7
100
AcDbLine
 10
327.0000000000011
 20
1165.500000000045
 30
0.0
 11
327.0000000000011
 21
1177.500000000045
 31
0.0
  0
LINE
  5
26E
330
1F
100
AcDbEntity
  8
LAY-10
  6
CONTINUOUS
 62
     7
100
AcDbLine
 10
327.0000000000011
 20
1145.500000000145
 30
0.0
 11
327.0000000000011
 21
1157.499999999945
 31
0.0
  0
LINE
  5
26F
330
1F
100
AcDbEntity
  8
LAY-10
  6
CONTINUOUS
 62
     7
100
AcDbLine
 10
327.0000000000011
 20
1145.500000000145
 30
0.0
 11
326.0000000000011
 21
1144.500000000095
 31
0.0
  0
LINE
  5
270
330
1F
100
AcDbEntity
  8
LAY-10
  6
CONTINUOUS
 62
     7
100
AcDbLine
 10
421.9999999999888
 20
1177.500000000047
 30
0.0
 11
327.0000000000011
 21
1177.500000000047
 31
0.0
  0
LINE
  5
271
330
1F
100
AcDbEntity
  8
LAY-10
  6
CONTINUOUS
 62
     7
100
AcDbLine
 10
327.0000000000011
 20
1185.500000000043
 30
0.0
 11
421.9999999999879
 21
1185.500000000043
 31
0.0
  0
LINE
  5
272
330
1F
100
AcDbEntity
  8
LAY-10
  6
CONTINUOUS
 62
     7
100
AcDbLine
 10
617.4999999999609
 20
1158.499999999995
 30
0.0
 11
617.4999999999609
 21
1164.499999999995
 31
0.0
  0
LINE
  5
273
330
1F
100
AcDbEntity
  8
LAY-10
  6
CONTINUOUS
 62
     7
100
AcDbLine
 10
632.4999999999609
 20
1158.499999999995
 30
0.0
 11
632.4999999999609
 21
1164.499999999995
 31
0.0
  0
LINE
  5
274
330
1F
100
AcDbEntity
  8
LAY-10
  6
CONTINUOUS
 62
     7
100
AcDbLine
 10
632.4999999999609
 20
1198.500000000095
 30
0.0
 11
632.4999999999609
 21
1204.500000000095
 31
0.0
  0
LINE
  5
275
330
1F
100
AcDbEntity
  8
LAY-10
  6
CONTINUOUS
 62
     7
100
AcDbLine
 10
617.4999999999609
 20
1198.500000000095
 30
0.0
 11
617.4999999999609
 21
1204.500000000095
 31
0.0
  0
LINE
  5
276
330
1F
100
AcDbEntity
  8
LAY-10
  6
CONTINUOUS
 62
     7
100
AcDbLine
 10
417.4999999999716
 20
1198.500000000095
 30
0.0
 11
417.4999999999716
 21
1204.500000000095
 31
0.0
  0
LINE
  5
277
330
1F
100
AcDbEntity
  8
LAY-10
  6
CONTINUOUS
 62
     7
100
AcDbLine
 10
432.4999999999716
 20
1198.500000000095
 30
0.0
 11
432.4999999999716
 21
1204.500000000095
 31
0.0
  0
LINE
  5
278
330
1F
100
AcDbEntity
  8
LAY-10
  6
CONTINUOUS
 62
     7
100
AcDbLine
 10
417.4999999999716
 20
1158.499999999995
 30
0.0
 11
417.4999999999716
 21
1164.499999999995
 31
0.0
  0
LINE
  5
279
330
1F
100
AcDbEntity
  8
LAY-10
  6
CONTINUOUS
 62
     7
100
AcDbLine
 10
432.4999999999716
 20
1158.499999999995
 30
0.0
 11
432.4999999999716
 21
1164.499999999995
 31
0.0
  0
LINE
  5
27A
330
1F
100
AcDbEntity
  8
LAY-10
  6
CONTINUOUS
 62
     7
100
AcDbLine
 10
326.5999999999914
 20
1205.100000000017
 30
0.0
 11
338.4000000000012
 21
1205.100000000017
 31
0.0
  0
LINE
  5
27B
330
1F
100
AcDbEntity
  8
LAY-10
  6
CONTINUOUS
 62
     7
100
AcDbLine
 10
326.5999999999914
 20
1205.100000000017
 30
0.0
 11
326.5999999999914
 21
1197.899999999976
 31
0.0
  0
LINE
  5
27C
330
1F
100
AcDbEntity
  8
LAY-10
  6
CONTINUOUS
 62
     7
100
AcDbLine
 10
326.6000000000215
 20
1197.899999999977
 30
0.0
 11
338.4000000000012
 21
1197.899999999977
 31
0.0
  0
LINE
  5
27D
330
1F
100
AcDbEntity
  8
LAY-10
  6
CONTINUOUS
 62
     7
100
AcDbLine
 10
338.4000000000012
 20
1205.100000000017
 30
0.0
 11
338.4000000000012
 21
1197.899999999977
 31
0.0
  0
LINE
  5
27E
330
1F
100
AcDbEntity
  8
LAY-10
  6
CONTINUOUS
 62
     7
100
AcDbLine
 10
338.4000000000012
 20
1205.100000000017
 30
0.0
 11
339.0000000000011
 21
1204.499999999997
 31
0.0
  0
LINE
  5
27F
330
1F
100
AcDbEntity
  8
LAY-10
  6
CONTINUOUS
 62
     7
100
AcDbLine
 10
338.4000000000212
 20
1197.899999999977
 30
0.0
 11
339.0000000000211
 21
1198.499999999997
 31
0.0
  0
LINE
  5
280
330
1F
100
AcDbEntity
  8
LAY-10
  6
CONTINUOUS
 62
     7
100
AcDbLine
 10
327.0000000000011
 20
1205.500000000045
 30
0.0
 11
326.5999999999723
 21
1205.100000000017
 31
0.0
  0
LINE
  5
281
330
1F
100
AcDbEntity
  8
LAY-10
  6
CONTINUOUS
 62
     7
100
AcDbLine
 10
327.0000000000011
 20
1197.500000000045
 30
0.0
 11
326.5999999999914
 21
1197.900000000075
 31
0.0
  0
LINE
  5
282
330
1F
100
AcDbEntity
  8
LAY-10
  6
CONTINUOUS
 62
     7
100
AcDbLine
 10
338.999999999901
 20
1204.500000000095
 30
0.0
 11
338.999999999901
 21
1198.500000000095
 31
0.0
  0
LINE
  5
283
330
1F
100
AcDbEntity
  8
LAY-10
  6
CONTINUOUS
 62
     7
100
AcDbLine
 10
326.5999999999914
 20
1185.100000000017
 30
0.0
 11
338.4000000000012
 21
1185.100000000017
 31
0.0
  0
LINE
  5
284
330
1F
100
AcDbEntity
  8
LAY-10
  6
CONTINUOUS
 62
     7
100
AcDbLine
 10
326.5999999999914
 20
1185.100000000017
 30
0.0
 11
326.5999999999914
 21
1177.899999999976
 31
0.0
  0
LINE
  5
285
330
1F
100
AcDbEntity
  8
LAY-10
  6
CONTINUOUS
 62
     7
100
AcDbLine
 10
326.6000000000215
 20
1177.899999999977
 30
0.0
 11
338.4000000000012
 21
1177.899999999977
 31
0.0
  0
LINE
  5
286
330
1F
100
AcDbEntity
  8
LAY-10
  6
CONTINUOUS
 62
     7
100
AcDbLine
 10
338.4000000000012
 20
1185.100000000017
 30
0.0
 11
338.4000000000012
 21
1177.899999999977
 31
0.0
  0
LINE
  5
287
330
1F
100
AcDbEntity
  8
LAY-10
  6
CONTINUOUS
 62
     7
100
AcDbLine
 10
338.4000000000012
 20
1185.100000000017
 30
0.0
 11
339.0000000000011
 21
1184.499999999997
 31
0.0
  0
LINE
  5
288
330
1F
100
AcDbEntity
  8
LAY-10
  6
CONTINUOUS
 62
     7
100
AcDbLine
 10
338.4000000000212
 20
1177.899999999977
 30
0.0
 11
339.0000000000211
 21
1178.499999999997
 31
0.0
  0
LINE
  5
289
330
1F
100
AcDbEntity
  8
LAY-10
  6
CONTINUOUS
 62
     7
100
AcDbLine
 10
327.0000000000011
 20
1185.500000000045
 30
0.0
 11
326.5999999999123
 21
1185.100000000017
 31
0.0
  0
LINE
  5
28A
330
1F
100
AcDbEntity
  8
LAY-10
  6
CONTINUOUS
 62
     7
100
AcDbLine
 10
327.0000000000011
 20
1177.500000000045
 30
0.0
 11
326.5999999999914
 21
1177.899999999995
 31
0.0
  0
LINE
  5
28B
330
1F
100
AcDbEntity
  8
LAY-10
  6
CONTINUOUS
 62
     7
100
AcDbLine
 10
422.3542486890949
 20
1184.500000000193
 30
0.0
 11
338.9999999998041
 21
1184.500000000193
 31
0.0
  0
LINE
  5
28C
330
1F
100
AcDbEntity
  8
LAY-10
  6
CONTINUOUS
 62
     7
100
AcDbLine
 10
422.3542486890953
 20
1178.499999999896
 30
0.0
 11
338.999999999921
 21
1178.499999999897
 31
0.0
  0
LINE
  5
28D
330
1F
100
AcDbEntity
  8
LAY-10
  6
CONTINUOUS
 62
     7
100
AcDbLine
 10
338.999999999801
 20
1184.500000000195
 30
0.0
 11
338.999999999801
 21
1178.499999999897
 31
0.0
  0
LINE
  5
28E
330
1F
100
AcDbEntity
  8
LAY-10
  6
CONTINUOUS
 62
     7
100
AcDbLine
 10
326.5999999999914
 20
1165.100000000017
 30
0.0
 11
338.4000000000012
 21
1165.100000000017
 31
0.0
  0
LINE
  5
28F
330
1F
100
AcDbEntity
  8
LAY-10
  6
CONTINUOUS
 62
     7
100
AcDbLine
 10
326.5999999999914
 20
1165.100000000017
 30
0.0
 11
326.5999999999914
 21
1157.899999999976
 31
0.0
  0
LINE
  5
290
330
1F
100
AcDbEntity
  8
LAY-10
  6
CONTINUOUS
 62
     7
100
AcDbLine
 10
326.6000000000215
 20
1157.899999999977
 30
0.0
 11
338.4000000000012
 21
1157.899999999977
 31
0.0
  0
LINE
  5
291
330
1F
100
AcDbEntity
  8
LAY-10
  6
CONTINUOUS
 62
     7
100
AcDbLine
 10
338.4000000000012
 20
1165.100000000017
 30
0.0
 11
338.4000000000012
 21
1157.899999999977
 31
0.0
  0
LINE
  5
292
330
1F
100
AcDbEntity
  8
LAY-10
  6
CONTINUOUS
 62
     7
100
AcDbLine
 10
338.4000000000012
 20
1165.100000000017
 30
0.0
 11
339.0000000000011
 21
1164.499999999997
 31
0.0
  0
LINE
  5
293
330
1F
100
AcDbEntity
  8
LAY-10
  6
CONTINUOUS
 62
     7
100
AcDbLine
 10
338.4000000000212
 20
1157.899999999977
 30
0.0
 11
339.0000000000211
 21
1158.499999999997
 31
0.0
  0
LINE
  5
294
330
1F
100
AcDbEntity
  8
LAY-10
  6
CONTINUOUS
 62
     7
100
AcDbLine
 10
327.0000000000011
 20
1165.500000000045
 30
0.0
 11
326.5999999999914
 21
1165.100000000016
 31
0.0
  0
LINE
  5
295
330
1F
100
AcDbEntity
  8
LAY-10
  6
CONTINUOUS
 62
     7
100
AcDbLine
 10
327.0000000000011
 20
1157.499999999945
 30
0.0
 11
326.5999999999896
 21
1157.899999999977
 31
0.0
  0
LINE
  5
296
330
1F
100
AcDbEntity
  8
LAY-10
  6
CONTINUOUS
 62
     7
100
AcDbLine
 10
339.0000000000011
 20
1164.499999999995
 30
0.0
 11
339.0000000000011
 21
1158.499999999997
 31
0.0
  0
LINE
  5
297
330
1F
100
AcDbEntity
  8
LAY-10
  6
CONTINUOUS
 62
     7
100
AcDbLine
 10
731.0000000000009
 20
1198.500000000095
 30
0.0
 11
731.0000000000009
 21
1204.500000000095
 31
0.0
  0
LINE
  5
298
330
1F
100
AcDbEntity
  8
LAY-10
  6
CONTINUOUS
 62
     7
100
AcDbLine
 10
719.0000000000009
 20
1178.500000000195
 30
0.0
 11
719.0000000000009
 21
1184.500000000195
 31
0.0
  0
LINE
  5
299
330
1F
100
AcDbEntity
  8
LAY-10
  6
CONTINUOUS
 62
     7
100
AcDbLine
 10
919.0000000000009
 20
1178.500000000195
 30
0.0
 11
919.0000000000009
 21
1184.500000000195
 31
0.0
  0
LINE
  5
29A
330
1F
100
AcDbEntity
  8
LAY-10
  6
CONTINUOUS
 62
     7
100
AcDbLine
 10
326.0000000000015
 20
1218.499999999995
 30
0.0
 11
326.0000000000015
 21
1144.500000000093
 31
0.0
  0
LINE
  5
29B
330
1F
100
AcDbEntity
  8
LAY-10
  6
CONTINUOUS
 62
     7
100
AcDbLine
 10
622.3542486890742
 20
1184.500000000193
 30
0.0
 11
427.6457513108878
 21
1184.500000000193
 31
0.0
  0
LINE
  5
29C
330
1F
100
AcDbEntity
  8
LAY-10
  6
CONTINUOUS
 62
     7
100
AcDbLine
 10
622.3542486890747
 20
1178.499999999896
 30
0.0
 11
427.6457513108869
 21
1178.499999999896
 31
0.0
  0
LINE
  5
29D
330
1F
100
AcDbEntity
  8
LAY-10
  6
CONTINUOUS
 62
     7
100
AcDbLine
 10
822.3542486891047
 20
1184.500000000193
 30
0.0
 11
627.6457513108671
 21
1184.500000000193
 31
0.0
  0
LINE
  5
29E
330
1F
100
AcDbEntity
  8
LAY-10
  6
CONTINUOUS
 62
     7
100
AcDbLine
 10
822.3542486891051
 20
1178.499999999896
 30
0.0
 11
627.6457513108671
 21
1178.499999999896
 31
0.0
  0
CIRCLE
  5
29F
330
1F
100
AcDbEntity
  8
LAY-10
  6
CONTINUOUS
 62
     7
100
AcDbCircle
 10
825.0000000002325
 20
1204.000000000034
 30
0.0
 40
2.3
  0
CIRCLE
  5
2A0
330
1F
100
AcDbEntity
  8
LAY-10
  6
CONTINUOUS
 62
     7
100
AcDbCircle
 10
825.0000000002325
 20
1159.000000000056
 30
0.0
 40
2.3
  0
CIRCLE
  5
2A1
330
1F
100
AcDbEntity
  8
LAY-10
  6
CONTINUOUS
 62
     7
100
AcDbCircle
 10
625.0000000002024
 20
1204.000000000034
 30
0.0
 40
2.3
  0
CIRCLE
  5
2A2
330
1F
100
AcDbEntity
  8
LAY-10
  6
CONTINUOUS
 62
     7
100
AcDbCircle
 10
625.0000000002024
 20
1159.000000000056
 30
0.0
 40
2.3
  0
CIRCLE
  5
2A3
330
1F
100
AcDbEntity
  8
LAY-10
  6
CONTINUOUS
 62
     7
100
AcDbCircle
 10
425.0000000002225
 20
1204.000000000034
 30
0.0
 40
2.3
  0
CIRCLE
  5
2A4
330
1F
100
AcDbEntity
  8
LAY-10
  6
CONTINUOUS
 62
     7
100
AcDbCircle
 10
425.0000000002225
 20
1159.000000000056
 30
0.0
 40
2.3
  0
LINE
  5
2A5
330
1F
100
AcDbEntity
  8
LAY-10
  6
CONTINUOUS
 62
     7
100
AcDbLine
 10
327.0000000000011
 20
1205.500000000093
 30
0.0
 11
423.2564404228562
 21
1205.500000000093
 31
0.0
  0
LINE
  5
2A6
330
1F
100
AcDbEntity
  8
LAY-10
  6
CONTINUOUS
 62
     7
100
AcDbLine
 10
422.755005568171
 20
1204.500000000093
 30
0.0
 11
338.9999999999047
 21
1204.500000000093
 31
0.0
  0
LINE
  5
2A7
330
1F
100
AcDbEntity
  8
LAY-10
  6
CONTINUOUS
 62
     7
100
AcDbLine
 10
423.2564404229008
 20
1157.499999999947
 30
0.0
 11
327.0000000000011
 21
1157.499999999947
 31
0.0
  0
LINE
  5
2A8
330
1F
100
AcDbEntity
  8
LAY-10
  6
CONTINUOUS
 62
     7
100
AcDbLine
 10
422.7550055681715
 20
1158.499999999997
 30
0.0
 11
339.000000000022
 21
1158.499999999997
 31
0.0
  0
LINE
  5
2A9
330
1F
100
AcDbEntity
  8
LAY-10
  6
CONTINUOUS
 62
     7
100
AcDbLine
 10
426.7435595775885
 20
1205.500000000093
 30
0.0
 11
623.256440422836
 21
1205.500000000093
 31
0.0
  0
LINE
  5
2AA
330
1F
100
AcDbEntity
  8
LAY-10
  6
CONTINUOUS
 62
     7
100
AcDbLine
 10
622.7550055681509
 20
1204.500000000093
 30
0.0
 11
427.2449944322736
 21
1204.500000000093
 31
0.0
  0
LINE
  5
2AB
330
1F
100
AcDbEntity
  8
LAY-10
  6
CONTINUOUS
 62
     7
100
AcDbLine
 10
623.2564404228806
 20
1157.499999999947
 30
0.0
 11
426.7435595775443
 21
1157.499999999946
 31
0.0
  0
LINE
  5
2AC
330
1F
100
AcDbEntity
  8
LAY-10
  6
CONTINUOUS
 62
     7
100
AcDbLine
 10
622.7550055681513
 20
1158.499999999997
 30
0.0
 11
427.2449944322736
 21
1158.499999999997
 31
0.0
  0
LINE
  5
2AD
330
1F
100
AcDbEntity
  8
LAY-10
  6
CONTINUOUS
 62
     7
100
AcDbLine
 10
823.2564404229106
 20
1157.499999999946
 30
0.0
 11
626.7435595775241
 21
1157.499999999946
 31
0.0
  0
LINE
  5
2AE
330
1F
100
AcDbEntity
  8
LAY-10
  6
CONTINUOUS
 62
     7
100
AcDbLine
 10
822.7550055681814
 20
1158.499999999997
 30
0.0
 11
627.2449944322534
 21
1158.499999999997
 31
0.0
  0
LINE
  5
2AF
330
1F
100
AcDbEntity
  8
LAY-10
  6
CONTINUOUS
 62
     7
100
AcDbLine
 10
626.7435595775682
 20
1205.500000000093
 30
0.0
 11
823.2564404228665
 21
1205.500000000093
 31
0.0
  0
LINE
  5
2B0
330
1F
100
AcDbEntity
  8
LAY-10
  6
CONTINUOUS
 62
     7
100
AcDbLine
 10
822.7550055681814
 20
1204.500000000093
 30
0.0
 11
627.2449944322534
 21
1204.500000000093
 31
0.0
  0
LINE
  5
2B1
330
1F
100
AcDbEntity
  8
LAY-10
  6
CONTINUOUS
 62
     7
100
AcDbLine
 10
924.0000000000003
 20
1177.500000000047
 30
0.0
 11
828.0000000000036
 21
1177.500000000047
 31
0.0
  0
LINE
  5
2B2
330
1F
100
AcDbEntity
  8
LAY-10
  6
CONTINUOUS
 62
     7
100
AcDbLine
 10
828.0000000000041
 20
1185.500000000043
 30
0.0
 11
924.0
 21
1185.500000000043
 31
0.0
  0
LINE
  5
2B3
330
1F
100
AcDbEntity
  8
LAY-10
  6
CONTINUOUS
 62
     7
100
AcDbLine
 10
327.0000000000011
 20
1145.500000000143
 30
0.0
 11
924.0000000000003
 21
1145.500000000144
 31
0.0
  0
LINE
  5
2B4
330
1F
100
AcDbEntity
  8
LAY-10
  6
CONTINUOUS
 62
     7
100
AcDbLine
 10
327.0000000000011
 20
1165.500000000043
 30
0.0
 11
924.0000000000003
 21
1165.500000000044
 31
0.0
  0
LINE
  5
2B5
330
1F
100
AcDbEntity
  8
LAY-10
  6
CONTINUOUS
 62
     7
100
AcDbLine
 10
924.0
 20
1197.500000000047
 30
0.0
 11
327.0000000000011
 21
1197.500000000047
 31
0.0
  0
LINE
  5
2B6
330
1F
100
AcDbEntity
  8
LAY-10
  6
CONTINUOUS
 62
     7
100
AcDbLine
 10
924.0
 20
1217.499999999997
 30
0.0
 11
327.0000000000011
 21
1217.499999999997
 31
0.0
  0
LINE
  5
2B7
330
1F
100
AcDbEntity
  8
LAY-10
  6
CONTINUOUS
 62
     7
100
AcDbLine
 10
924.0000000000003
 20
1144.500000000094
 30
0.0
 11
325.9999999999993
 21
1144.500000000093
 31
0.0
  0
LINE
  5
2B8
330
1F
100
AcDbEntity
  8
LAY-10
  6
CONTINUOUS
 62
     7
100
AcDbLine
 10
924.0
 20
1218.5
 30
0.0
 11
326.0000000000497
 21
1218.499999999997
 31
0.0
  0
LINE
  5
2B9
330
1F
100
AcDbEntity
  8
LAY-10
  6
CONTINUOUS
 62
     7
100
AcDbLine
 10
924.0
 20
1198.500000000095
 30
0.0
 11
339.0000000001193
 21
1198.500000000095
 31
0.0
  0
LINE
  5
2BA
330
1F
100
AcDbEntity
  8
LAY-10
  6
CONTINUOUS
 62
     7
100
AcDbLine
 10
924.0000000000003
 20
1164.499999999996
 30
0.0
 11
339.0000000000028
 21
1164.499999999996
 31
0.0
  0
LINE
  5
2BB
330
1F
100
AcDbEntity
  8
LAY-10
  6
CONTINUOUS
 62
     7
100
AcDbLine
 10
827.6457513112359
 20
1184.499999999895
 30
0.0
 11
924.0
 21
1184.499999999895
 31
0.0
  0
LINE
  5
2BC
330
1F
100
AcDbEntity
  8
LAY-10
  6
CONTINUOUS
 62
     7
100
AcDbLine
 10
827.6457513108958
 20
1178.499999999895
 30
0.0
 11
924.0000000000003
 21
1178.499999999895
 31
0.0
  0
LINE
  5
2BD
330
1F
100
AcDbEntity
  8
LAY-10
  6
CONTINUOUS
 62
     7
100
AcDbLine
 10
826.7435595775983
 20
1205.500000000093
 30
0.0
 11
924.0
 21
1205.500000000093
 31
0.0
  0
LINE
  5
2BE
330
1F
100
AcDbEntity
  8
LAY-10
  6
CONTINUOUS
 62
     7
100
AcDbLine
 10
924.0
 20
1204.500000000093
 30
0.0
 11
827.2449944322835
 21
1204.500000000093
 31
0.0
  0
LINE
  5
2BF
330
1F
100
AcDbEntity
  8
LAY-10
  6
CONTINUOUS
 62
     7
100
AcDbLine
 10
924.0000000000003
 20
1157.499999999947
 30
0.0
 11
826.7435595775542
 21
1157.499999999946
 31
0.0
  0
LINE
  5
2C0
330
1F
100
AcDbEntity
  8
LAY-10
  6
CONTINUOUS
 62
     7
100
AcDbLine
 10
924.0000000000003
 20
1158.499999999997
 30
0.0
 11
827.2449944322835
 21
1158.499999999997
 31
0.0
  0
LINE
  5
2C1
330
1F
100
AcDbEntity
  8
LAY-10
  6
CONTINUOUS
 62
     7
100
AcDbLine
 10
924.0
 20
1218.5
 30
0.0
 11
924.0
 21
1144.50000000009
 31
0.0
  0
LINE
  5
2C2
330
1F
100
AcDbEntity
  8
LAY-10
  6
CONTINUOUS
 62
     7
100
AcDbLine
 10
329.5000000000001
 20
644.5000000000199
 30
0.0
 11
331.5000000000002
 21
646.5000000000203
 31
0.0
  0
LINE
  5
2C3
330
1F
100
AcDbEntity
  8
LAY-10
  6
CONTINUOUS
 62
     7
100
AcDbLine
 10
336.5710678118656
 20
644.5000000000199
 30
0.0
 11
338.5710678118658
 21
646.5000000000203
 31
0.0
  0
LINE
  5
2C4
330
1F
100
AcDbEntity
  8
LAY-10
  6
CONTINUOUS
 62
     7
100
AcDbLine
 10
343.6421356237311
 20
644.5000000000199
 30
0.0
 11
345.6421356237312
 21
646.5000000000203
 31
0.0
  0
LINE
  5
2C5
330
1F
100
AcDbEntity
  8
LAY-10
  6
CONTINUOUS
 62
     7
100
AcDbLine
 10
350.7132034355965
 20
644.5000000000199
 30
0.0
 11
352.7132034355968
 21
646.5000000000199
 31
0.0
  0
LINE
  5
2C6
330
1F
100
AcDbEntity
  8
LAY-10
  6
CONTINUOUS
 62
     7
100
AcDbLine
 10
357.7842712474619
 20
644.5000000000199
 30
0.0
 11
359.7842712474622
 21
646.5000000000203
 31
0.0
  0
LINE
  5
2C7
330
1F
100
AcDbEntity
  8
LAY-10
  6
CONTINUOUS
 62
     7
100
AcDbLine
 10
364.8553390593274
 20
644.5000000000199
 30
0.0
 11
366.8553390593278
 21
646.5000000000203
 31
0.0
  0
LINE
  5
2C8
330
1F
100
AcDbEntity
  8
LAY-10
  6
CONTINUOUS
 62
     7
100
AcDbLine
 10
371.926406871193
 20
644.5000000000199
 30
0.0
 11
373.9264068711933
 21
646.5000000000199
 31
0.0
  0
LINE
  5
2C9
330
1F
100
AcDbEntity
  8
LAY-10
  6
CONTINUOUS
 62
     7
100
AcDbLine
 10
378.9974746830585
 20
644.5000000000199
 30
0.0
 11
380.9974746830587
 21
646.5000000000199
 31
0.0
  0
LINE
  5
2CA
330
1F
100
AcDbEntity
  8
LAY-10
  6
CONTINUOUS
 62
     7
100
AcDbLine
 10
386.0685424949239
 20
644.5000000000199
 30
0.0
 11
388.068542494924
 21
646.5000000000199
 31
0.0
  0
LINE
  5
2CB
330
1F
100
AcDbEntity
  8
LAY-10
  6
CONTINUOUS
 62
     7
100
AcDbLine
 10
393.1396103067894
 20
644.5000000000199
 30
0.0
 11
395.1396103067896
 21
646.5000000000203
 31
0.0
  0
LINE
  5
2CC
330
1F
100
AcDbEntity
  8
LAY-10
  6
CONTINUOUS
 62
     7
100
AcDbLine
 10
400.2106781186549
 20
644.5000000000199
 30
0.0
 11
402.2106781186551
 21
646.5000000000203
 31
0.0
  0
LINE
  5
2CD
330
1F
100
AcDbEntity
  8
LAY-10
  6
CONTINUOUS
 62
     7
100
AcDbLine
 10
407.2817459305205
 20
644.5000000000199
 30
0.0
 11
409.2817459305205
 21
646.5000000000203
 31
0.0
  0
LINE
  5
2CE
330
1F
100
AcDbEntity
  8
LAY-10
  6
CONTINUOUS
 62
     7
100
AcDbLine
 10
414.352813742386
 20
644.5000000000199
 30
0.0
 11
416.3528137423859
 21
646.5000000000203
 31
0.0
  0
LINE
  5
2CF
330
1F
100
AcDbEntity
  8
LAY-10
  6
CONTINUOUS
 62
     7
100
AcDbLine
 10
421.4238815542511
 20
644.5000000000199
 30
0.0
 11
423.4238815542515
 21
646.5000000000203
 31
0.0
  0
LINE
  5
2D0
330
1F
100
AcDbEntity
  8
LAY-10
  6
CONTINUOUS
 62
     7
100
AcDbLine
 10
428.4949493661167
 20
644.5000000000199
 30
0.0
 11
430.494949366117
 21
646.5000000000203
 31
0.0
  0
LINE
  5
2D1
330
1F
100
AcDbEntity
  8
LAY-10
  6
CONTINUOUS
 62
     7
100
AcDbLine
 10
435.5660171779822
 20
644.5000000000199
 30
0.0
 11
437.5660171779825
 21
646.5000000000203
 31
0.0
  0
LINE
  5
2D2
330
1F
100
AcDbEntity
  8
LAY-10
  6
CONTINUOUS
 62
     7
100
AcDbLine
 10
442.6370849898477
 20
644.5000000000199
 30
0.0
 11
444.6370849898481
 21
646.5000000000199
 31
0.0
  0
LINE
  5
2D3
330
1F
100
AcDbEntity
  8
LAY-10
  6
CONTINUOUS
 62
     7
100
AcDbLine
 10
449.7081528017133
 20
644.5000000000199
 30
0.0
 11
451.7081528017135
 21
646.5000000000199
 31
0.0
  0
LINE
  5
2D4
330
1F
100
AcDbEntity
  8
LAY-10
  6
CONTINUOUS
 62
     7
100
AcDbLine
 10
456.7792206135786
 20
644.5000000000199
 30
0.0
 11
458.7792206135788
 21
646.5000000000199
 31
0.0
  0
LINE
  5
2D5
330
1F
100
AcDbEntity
  8
LAY-10
  6
CONTINUOUS
 62
     7
100
AcDbLine
 10
463.8502884254441
 20
644.5000000000199
 30
0.0
 11
465.8502884254443
 21
646.5000000000203
 31
0.0
  0
LINE
  5
2D6
330
1F
100
AcDbEntity
  8
LAY-10
  6
CONTINUOUS
 62
     7
100
AcDbLine
 10
470.9213562373097
 20
644.5000000000199
 30
0.0
 11
472.9213562373099
 21
646.5000000000203
 31
0.0
  0
LINE
  5
2D7
330
1F
100
AcDbEntity
  8
LAY-10
  6
CONTINUOUS
 62
     7
100
AcDbLine
 10
477.9924240491752
 20
644.5000000000199
 30
0.0
 11
479.9924240491754
 21
646.5000000000199
 31
0.0
  0
LINE
  5
2D8
330
1F
100
AcDbEntity
  8
LAY-10
  6
CONTINUOUS
 62
     7
100
AcDbLine
 10
485.0634918610407
 20
644.5000000000199
 30
0.0
 11
487.0634918610409
 21
646.5000000000199
 31
0.0
  0
LINE
  5
2D9
330
1F
100
AcDbEntity
  8
LAY-10
  6
CONTINUOUS
 62
     7
100
AcDbLine
 10
492.134559672906
 20
644.5000000000199
 30
0.0
 11
494.1345596729062
 21
646.5000000000199
 31
0.0
  0
LINE
  5
2DA
330
1F
100
AcDbEntity
  8
LAY-10
  6
CONTINUOUS
 62
     7
100
AcDbLine
 10
499.2056274847715
 20
644.5000000000199
 30
0.0
 11
501.2056274847718
 21
646.5000000000203
 31
0.0
  0
LINE
  5
2DB
330
1F
100
AcDbEntity
  8
LAY-10
  6
CONTINUOUS
 62
     7
100
AcDbLine
 10
506.2766952966371
 20
644.5000000000199
 30
0.0
 11
508.2766952966373
 21
646.5000000000199
 31
0.0
  0
LINE
  5
2DC
330
1F
100
AcDbEntity
  8
LAY-10
  6
CONTINUOUS
 62
     7
100
AcDbLine
 10
513.3477631085025
 20
644.5000000000199
 30
0.0
 11
515.3477631085027
 21
646.5000000000199
 31
0.0
  0
LINE
  5
2DD
330
1F
100
AcDbEntity
  8
LAY-10
  6
CONTINUOUS
 62
     7
100
AcDbLine
 10
520.418830920368
 20
644.5000000000199
 30
0.0
 11
522.4188309203682
 21
646.5000000000199
 31
0.0
  0
LINE
  5
2DE
330
1F
100
AcDbEntity
  8
LAY-10
  6
CONTINUOUS
 62
     7
100
AcDbLine
 10
527.4898987322333
 20
644.5000000000199
 30
0.0
 11
529.4898987322335
 21
646.5000000000199
 31
0.0
  0
LINE
  5
2DF
330
1F
100
AcDbEntity
  8
LAY-10
  6
CONTINUOUS
 62
     7
100
AcDbLine
 10
534.5609665440988
 20
644.5000000000199
 30
0.0
 11
536.5609665440991
 21
646.5000000000203
 31
0.0
  0
LINE
  5
2E0
330
1F
100
AcDbEntity
  8
LAY-10
  6
CONTINUOUS
 62
     7
100
AcDbLine
 10
541.6320343559644
 20
644.5000000000199
 30
0.0
 11
543.6320343559646
 21
646.5000000000199
 31
0.0
  0
LINE
  5
2E1
330
1F
100
AcDbEntity
  8
LAY-10
  6
CONTINUOUS
 62
     7
100
AcDbLine
 10
548.7031021678299
 20
644.5000000000199
 30
0.0
 11
550.7031021678301
 21
646.5000000000199
 31
0.0
  0
LINE
  5
2E2
330
1F
100
AcDbEntity
  8
LAY-10
  6
CONTINUOUS
 62
     7
100
AcDbLine
 10
555.7741699796954
 20
644.5000000000199
 30
0.0
 11
557.7741699796957
 21
646.5000000000199
 31
0.0
  0
LINE
  5
2E3
330
1F
100
AcDbEntity
  8
LAY-10
  6
CONTINUOUS
 62
     7
100
AcDbLine
 10
562.8452377915607
 20
644.5000000000194
 30
0.0
 11
564.8452377915612
 21
646.5000000000199
 31
0.0
  0
LINE
  5
2E4
330
1F
100
AcDbEntity
  8
LAY-10
  6
CONTINUOUS
 62
     7
100
AcDbLine
 10
569.9163056034262
 20
644.5000000000199
 30
0.0
 11
571.9163056034266
 21
646.5000000000203
 31
0.0
  0
LINE
  5
2E5
330
1F
100
AcDbEntity
  8
LAY-10
  6
CONTINUOUS
 62
     7
100
AcDbLine
 10
576.9873734152917
 20
644.5000000000199
 30
0.0
 11
578.9873734152918
 21
646.5000000000203
 31
0.0
  0
LINE
  5
2E6
330
1F
100
AcDbEntity
  8
LAY-10
  6
CONTINUOUS
 62
     7
100
AcDbLine
 10
584.0584412271573
 20
644.5000000000199
 30
0.0
 11
586.0584412271573
 21
646.5000000000203
 31
0.0
  0
LINE
  5
2E7
330
1F
100
AcDbEntity
  8
LAY-10
  6
CONTINUOUS
 62
     7
100
AcDbLine
 10
591.1295090390229
 20
644.5000000000199
 30
0.0
 11
593.1295090390229
 21
646.5000000000203
 31
0.0
  0
LINE
  5
2E8
330
1F
100
AcDbEntity
  8
LAY-10
  6
CONTINUOUS
 62
     7
100
AcDbLine
 10
598.2005768508882
 20
644.5000000000199
 30
0.0
 11
600.2005768508884
 21
646.5000000000197
 31
0.0
  0
LINE
  5
2E9
330
1F
100
AcDbEntity
  8
LAY-10
  6
CONTINUOUS
 62
     7
100
AcDbLine
 10
605.2716446627537
 20
644.5000000000199
 30
0.0
 11
607.2716446627539
 21
646.5000000000199
 31
0.0
  0
LINE
  5
2EA
330
1F
100
AcDbEntity
  8
LAY-10
  6
CONTINUOUS
 62
     7
100
AcDbLine
 10
612.342712474619
 20
644.5000000000199
 30
0.0
 11
614.3427124746195
 21
646.5000000000199
 31
0.0
  0
LINE
  5
2EB
330
1F
100
AcDbEntity
  8
LAY-10
  6
CONTINUOUS
 62
     7
100
AcDbLine
 10
619.4137802864846
 20
644.5000000000199
 30
0.0
 11
621.413780286485
 21
646.5000000000199
 31
0.0
  0
LINE
  5
2EC
330
1F
100
AcDbEntity
  8
LAY-10
  6
CONTINUOUS
 62
     7
100
AcDbLine
 10
626.4848480983501
 20
644.5000000000199
 30
0.0
 11
628.4848480983505
 21
646.5000000000199
 31
0.0
  0
LINE
  5
2ED
330
1F
100
AcDbEntity
  8
LAY-10
  6
CONTINUOUS
 62
     7
100
AcDbLine
 10
633.5559159102154
 20
644.5000000000194
 30
0.0
 11
635.5559159102158
 21
646.5000000000199
 31
0.0
  0
LINE
  5
2EE
330
1F
100
AcDbEntity
  8
LAY-10
  6
CONTINUOUS
 62
     7
100
AcDbLine
 10
640.6269837220808
 20
644.5000000000199
 30
0.0
 11
642.6269837220813
 21
646.5000000000203
 31
0.0
  0
LINE
  5
2EF
330
1F
100
AcDbEntity
  8
LAY-10
  6
CONTINUOUS
 62
     7
100
AcDbLine
 10
647.6980515339463
 20
644.5000000000199
 30
0.0
 11
649.6980515339467
 21
646.5000000000203
 31
0.0
  0
LINE
  5
2F0
330
1F
100
AcDbEntity
  8
LAY-10
  6
CONTINUOUS
 62
     7
100
AcDbLine
 10
654.7691193458119
 20
644.5000000000199
 30
0.0
 11
656.7691193458122
 21
646.5000000000203
 31
0.0
  0
LINE
  5
2F1
330
1F
100
AcDbEntity
  8
LAY-10
  6
CONTINUOUS
 62
     7
100
AcDbLine
 10
661.8401871576774
 20
644.5000000000199
 30
0.0
 11
663.8401871576777
 21
646.5000000000203
 31
0.0
  0
LINE
  5
2F2
330
1F
100
AcDbEntity
  8
LAY-10
  6
CONTINUOUS
 62
     7
100
AcDbLine
 10
668.9112549695428
 20
644.5000000000199
 30
0.0
 11
670.911254969543
 21
646.5000000000197
 31
0.0
  0
LINE
  5
2F3
330
1F
100
AcDbEntity
  8
LAY-10
  6
CONTINUOUS
 62
     7
100
AcDbLine
 10
675.9823227814084
 20
644.5000000000199
 30
0.0
 11
677.9823227814086
 21
646.5000000000199
 31
0.0
  0
LINE
  5
2F4
330
1F
100
AcDbEntity
  8
LAY-10
  6
CONTINUOUS
 62
     7
100
AcDbLine
 10
683.0533905932739
 20
644.5000000000199
 30
0.0
 11
685.0533905932741
 21
646.5000000000199
 31
0.0
  0
LINE
  5
2F5
330
1F
100
AcDbEntity
  8
LAY-10
  6
CONTINUOUS
 62
     7
100
AcDbLine
 10
690.1244584051392
 20
644.5000000000199
 30
0.0
 11
692.1244584051396
 21
646.5000000000199
 31
0.0
  0
LINE
  5
2F6
330
1F
100
AcDbEntity
  8
LAY-10
  6
CONTINUOUS
 62
     7
100
AcDbLine
 10
697.1955262170047
 20
644.5000000000199
 30
0.0
 11
699.1955262170052
 21
646.5000000000199
 31
0.0
  0
LINE
  5
2F7
330
1F
100
AcDbEntity
  8
LAY-10
  6
CONTINUOUS
 62
     7
100
AcDbLine
 10
704.2665940288703
 20
644.5000000000194
 30
0.0
 11
706.2665940288707
 21
646.5000000000199
 31
0.0
  0
LINE
  5
2F8
330
1F
100
AcDbEntity
  8
LAY-10
  6
CONTINUOUS
 62
     7
100
AcDbLine
 10
711.3376618407358
 20
644.5000000000199
 30
0.0
 11
713.3376618407362
 21
646.5000000000203
 31
0.0
  0
LINE
  5
2F9
330
1F
100
AcDbEntity
  8
LAY-10
  6
CONTINUOUS
 62
     7
100
AcDbLine
 10
718.4087296526013
 20
644.5000000000199
 30
0.0
 11
720.4087296526013
 21
646.5000000000203
 31
0.0
  0
LINE
  5
2FA
330
1F
100
AcDbEntity
  8
LAY-10
  6
CONTINUOUS
 62
     7
100
AcDbLine
 10
725.4797974644669
 20
644.5000000000199
 30
0.0
 11
727.4797974644669
 21
646.5000000000203
 31
0.0
  0
LINE
  5
2FB
330
1F
100
AcDbEntity
  8
LAY-10
  6
CONTINUOUS
 62
     7
100
AcDbLine
 10
732.5508652763324
 20
644.5000000000199
 30
0.0
 11
734.5508652763324
 21
646.5000000000197
 31
0.0
  0
LINE
  5
2FC
330
1F
100
AcDbEntity
  8
LAY-10
  6
CONTINUOUS
 62
     7
100
AcDbLine
 10
739.6219330881979
 20
644.5000000000199
 30
0.0
 11
741.6219330881979
 21
646.5000000000199
 31
0.0
  0
LINE
  5
2FD
330
1F
100
AcDbEntity
  8
LAY-10
  6
CONTINUOUS
 62
     7
100
AcDbLine
 10
746.6930009000632
 20
644.5000000000199
 30
0.0
 11
748.6930009000635
 21
646.5000000000199
 31
0.0
  0
LINE
  5
2FE
330
1F
100
AcDbEntity
  8
LAY-10
  6
CONTINUOUS
 62
     7
100
AcDbLine
 10
753.7640687119288
 20
644.5000000000199
 30
0.0
 11
755.764068711929
 21
646.5000000000199
 31
0.0
  0
LINE
  5
2FF
330
1F
100
AcDbEntity
  8
LAY-10
  6
CONTINUOUS
 62
     7
100
AcDbLine
 10
760.8351365237941
 20
644.5000000000199
 30
0.0
 11
762.8351365237942
 21
646.5000000000199
 31
0.0
  0
LINE
  5
300
330
1F
100
AcDbEntity
  8
LAY-10
  6
CONTINUOUS
 62
     7
100
AcDbLine
 10
767.9062043356596
 20
644.5000000000199
 30
0.0
 11
769.9062043356599
 21
646.5000000000199
 31
0.0
  0
LINE
  5
301
330
1F
100
AcDbEntity
  8
LAY-10
  6
CONTINUOUS
 62
     7
100
AcDbLine
 10
774.9772721475251
 20
644.5000000000199
 30
0.0
 11
776.9772721475255
 21
646.5000000000199
 31
0.0
  0
LINE
  5
302
330
1F
100
AcDbEntity
  8
LAY-10
  6
CONTINUOUS
 62
     7
100
AcDbLine
 10
782.0483399593907
 20
644.5000000000199
 30
0.0
 11
784.048339959391
 21
646.5000000000199
 31
0.0
  0
LINE
  5
303
330
1F
100
AcDbEntity
  8
LAY-10
  6
CONTINUOUS
 62
     7
100
AcDbLine
 10
789.1194077712562
 20
644.5000000000199
 30
0.0
 11
791.1194077712562
 21
646.5000000000203
 31
0.0
  0
LINE
  5
304
330
1F
100
AcDbEntity
  8
LAY-10
  6
CONTINUOUS
 62
     7
100
AcDbLine
 10
796.1904755831217
 20
644.5000000000199
 30
0.0
 11
798.1904755831217
 21
646.5000000000203
 31
0.0
  0
LINE
  5
305
330
1F
100
AcDbEntity
  8
LAY-10
  6
CONTINUOUS
 62
     7
100
AcDbLine
 10
803.2615433949873
 20
644.5000000000199
 30
0.0
 11
805.2615433949873
 21
646.5000000000197
 31
0.0
  0
LINE
  5
306
330
1F
100
AcDbEntity
  8
LAY-10
  6
CONTINUOUS
 62
     7
100
AcDbLine
 10
810.3326112068527
 20
644.5000000000201
 30
0.0
 11
812.3326112068528
 21
646.5000000000199
 31
0.0
  0
LINE
  5
307
330
1F
100
AcDbEntity
  8
LAY-10
  6
CONTINUOUS
 62
     7
100
AcDbLine
 10
817.4036790187179
 20
644.5000000000201
 30
0.0
 11
819.4036790187181
 21
646.5000000000199
 31
0.0
  0
LINE
  5
308
330
1F
100
AcDbEntity
  8
LAY-10
  6
CONTINUOUS
 62
     7
100
AcDbLine
 10
824.4747468305834
 20
644.5000000000199
 30
0.0
 11
826.4747468305836
 21
646.5000000000199
 31
0.0
  0
LINE
  5
309
330
1F
100
AcDbEntity
  8
LAY-10
  6
CONTINUOUS
 62
     7
100
AcDbLine
 10
831.5458146424489
 20
644.5000000000199
 30
0.0
 11
833.5458146424492
 21
646.5000000000199
 31
0.0
  0
LINE
  5
30A
330
1F
100
AcDbEntity
  8
LAY-10
  6
CONTINUOUS
 62
     7
100
AcDbLine
 10
838.6168824543145
 20
644.5000000000199
 30
0.0
 11
840.6168824543147
 21
646.5000000000199
 31
0.0
  0
LINE
  5
30B
330
1F
100
AcDbEntity
  8
LAY-10
  6
CONTINUOUS
 62
     7
100
AcDbLine
 10
845.68795026618
 20
644.5000000000199
 30
0.0
 11
847.6879502661802
 21
646.5000000000199
 31
0.0
  0
LINE
  5
30C
330
1F
100
AcDbEntity
  8
LAY-10
  6
CONTINUOUS
 62
     7
100
AcDbLine
 10
852.7590180780455
 20
644.5000000000199
 30
0.0
 11
854.7590180780458
 21
646.5000000000199
 31
0.0
  0
LINE
  5
30D
330
1F
100
AcDbEntity
  8
LAY-10
  6
CONTINUOUS
 62
     7
100
AcDbLine
 10
859.8300858899111
 20
644.5000000000199
 30
0.0
 11
861.8300858899108
 21
646.5000000000203
 31
0.0
  0
LINE
  5
30E
330
1F
100
AcDbEntity
  8
LAY-10
  6
CONTINUOUS
 62
     7
100
AcDbLine
 10
866.9011537017766
 20
644.5000000000199
 30
0.0
 11
868.9011537017764
 21
646.5000000000203
 31
0.0
  0
LINE
  5
30F
330
1F
100
AcDbEntity
  8
LAY-10
  6
CONTINUOUS
 62
     7
100
AcDbLine
 10
873.9722215136421
 20
644.5000000000199
 30
0.0
 11
875.9722215136419
 21
646.5000000000197
 31
0.0
  0
LINE
  5
310
330
1F
100
AcDbEntity
  8
LAY-10
  6
CONTINUOUS
 62
     7
100
AcDbLine
 10
881.0432893255074
 20
644.5000000000201
 30
0.0
 11
883.0432893255074
 21
646.5000000000199
 31
0.0
  0
LINE
  5
311
330
1F
100
AcDbEntity
  8
LAY-10
  6
CONTINUOUS
 62
     7
100
AcDbLine
 10
888.1143571373727
 20
644.5000000000201
 30
0.0
 11
890.114357137373
 21
646.5000000000199
 31
0.0
  0
LINE
  5
312
330
1F
100
AcDbEntity
  8
LAY-10
  6
CONTINUOUS
 62
     7
100
AcDbLine
 10
895.1854249492383
 20
644.5000000000199
 30
0.0
 11
897.1854249492385
 21
646.5000000000199
 31
0.0
  0
LINE
  5
313
330
1F
100
AcDbEntity
  8
LAY-10
  6
CONTINUOUS
 62
     7
100
AcDbLine
 10
902.2564927611036
 20
644.5000000000199
 30
0.0
 11
904.2564927611039
 21
646.5000000000199
 31
0.0
  0
LINE
  5
314
330
1F
100
AcDbEntity
  8
LAY-10
  6
CONTINUOUS
 62
     7
100
AcDbLine
 10
909.3275605729691
 20
644.5000000000199
 30
0.0
 11
911.3275605729694
 21
646.5000000000199
 31
0.0
  0
LINE
  5
315
330
1F
100
AcDbEntity
  8
LAY-10
  6
CONTINUOUS
 62
     7
100
AcDbLine
 10
916.3986283848346
 20
644.5000000000199
 30
0.0
 11
918.398628384835
 21
646.5000000000199
 31
0.0
  0
LINE
  5
316
330
1F
100
AcDbEntity
  8
LAY-10
  6
CONTINUOUS
 62
     7
100
AcDbLine
 10
329.5000000000018
 20
644.500000000004
 30
0.0
 11
920.5000000000024
 21
644.500000000004
 31
0.0
  0
LINE
  5
317
330
1F
100
AcDbEntity
  8
LAY-10
  6
CONTINUOUS
 62
     7
100
AcDbLine
 10
800.000000000003
 20
640.000000000004
 30
0.0
 11
800.000000000003
 21
600.000000000004
 31
0.0
  0
LINE
  5
318
330
1F
100
AcDbEntity
  8
LAY-10
  6
CONTINUOUS
 62
     7
100
AcDbLine
 10
850.0000000000023
 20
640.000000000004
 30
0.0
 11
850.0000000000023
 21
600.000000000004
 31
0.0
  0
LINE
  5
319
330
1F
100
AcDbEntity
  8
LAY-10
  6
CONTINUOUS
 62
     7
100
AcDbLine
 10
800.000000000003
 20
600.000000000004
 30
0.0
 11
850.0000000000023
 21
600.000000000004
 31
0.0
  0
LINE
  5
31A
330
1F
100
AcDbEntity
  8
LAY-10
  6
CONTINUOUS
 62
     7
100
AcDbLine
 10
450.0000000000017
 20
640.000000000004
 30
0.0
 11
450.0000000000017
 21
600.000000000004
 31
0.0
  0
LINE
  5
31B
330
1F
100
AcDbEntity
  8
LAY-10
  6
CONTINUOUS
 62
     7
100
AcDbLine
 10
400.0000000000017
 20
640.000000000004
 30
0.0
 11
400.0000000000017
 21
600.0000000000049
 31
0.0
  0
LINE
  5
31C
330
1F
100
AcDbEntity
  8
LAY-10
  6
CONTINUOUS
 62
     7
100
AcDbLine
 10
450.0000000000017
 20
600.0000000000049
 30
0.0
 11
400.0000000000017
 21
600.0000000000049
 31
0.0
  0
LINE
  5
31D
330
1F
100
AcDbEntity
  8
LAY-10
  6
CONTINUOUS
 62
     7
100
AcDbLine
 10
924.9999999999991
 20
640.000000000004
 30
0.0
 11
325.0000000000036
 21
640.000000000004
 31
0.0
  0
LINE
  5
31E
330
1F
100
AcDbEntity
  8
LAY-10
  6
CONTINUOUS
 62
     7
100
AcDbLine
 10
925.0000000000023
 20
750.0000000000072
 30
0.0
 11
925.0000000000023
 21
639.9999999999822
 31
0.0
  0
LINE
  5
31F
330
1F
100
AcDbEntity
  8
LAY-10
  6
CONTINUOUS
 62
     7
100
AcDbLine
 10
325.0000000000018
 20
750.000000000004
 30
0.0
 11
325.0000000000018
 21
639.9999999999822
 31
0.0
  0
CIRCLE
  5
320
330
1F
100
AcDbEntity
  8
LAY-10
  6
CONTINUOUS
 62
     7
100
AcDbCircle
 10
425.0000000000001
 20
620.0000000000697
 30
0.0
 40
4.000000000002842
  0
CIRCLE
  5
321
330
1F
100
AcDbEntity
  8
LAY-10
  6
CONTINUOUS
 62
     7
100
AcDbCircle
 10
825.0000000000002
 20
620.0000000000697
 30
0.0
 40
4.000000000002842
  0
LINE
  5
322
330
1F
100
AcDbEntity
  8
LAY-10
  6
CONTINUOUS
 62
     7
100
AcDbLine
 10
329.5000000000017
 20
750.000000000004
 30
0.0
 11
325.0000000000018
 21
750.000000000004
 31
0.0
  0
LINE
  5
323
330
1F
100
AcDbEntity
  8
LAY-10
  6
CONTINUOUS
 62
     7
100
AcDbLine
 10
925.0
 20
750.000000000004
 30
0.0
 11
920.5000000000024
 21
750.000000000004
 31
0.0
  0
LINE
  5
324
330
1F
100
AcDbEntity
  8
LAY-10
  6
CONTINUOUS
 62
     7
100
AcDbLine
 10
336.0000000000015
 20
669.9999999999952
 30
0.0
 11
914.0000000000027
 21
669.9999999999952
 31
0.0
  0
ARC
  5
325
330
1F
100
AcDbEntity
  8
LAY-10
  6
CONTINUOUS
 62
     7
100
AcDbCircle
 10
336.0000000000015
 20
669.9999999999952
 30
0.0
 40
4.5
100
AcDbArc
 50
180.0
 51
270.0
  0
LINE
  5
326
330
1F
100
AcDbEntity
  8
LAY-10
  6
CONTINUOUS
 62
     7
100
AcDbLine
 10
335.9999999999988
 20
665.4999999999925
 30
0.0
 11
914.0000000000027
 21
665.4999999999925
 31
0.0
  0
ARC
  5
327
330
1F
100
AcDbEntity
  8
LAY-10
  6
CONTINUOUS
 62
     7
100
AcDbCircle
 10
914.0000000000027
 20
669.9999999999926
 30
0.0
 40
4.5
100
AcDbArc
 50
270.0
 51
0.0
  0
LINE
  5
328
330
1F
100
AcDbEntity
  8
LAY-10
  6
CONTINUOUS
 62
     7
100
AcDbLine
 10
649.9999999999939
 20
669.9999999999972
 30
0.0
 11
649.9999999999939
 21
665.4999999999962
 31
0.0
  0
LINE
  5
329
330
1F
100
AcDbEntity
  8
LAY-10
  6
CONTINUOUS
 62
     7
100
AcDbLine
 10
599.9999999999939
 20
669.9999999999972
 30
0.0
 11
599.9999999999939
 21
665.4999999999962
 31
0.0
  0
LINE
  5
32A
330
1F
100
AcDbEntity
  8
LAY-10
  6
CONTINUOUS
 62
     7
100
AcDbLine
 10
849.9999999999937
 20
669.9999999999972
 30
0.0
 11
849.9999999999937
 21
665.4999999999962
 31
0.0
  0
LINE
  5
32B
330
1F
100
AcDbEntity
  8
LAY-10
  6
CONTINUOUS
 62
     7
100
AcDbLine
 10
799.9999999999941
 20
669.9999999999972
 30
0.0
 11
799.9999999999941
 21
665.4999999999962
 31
0.0
  0
LINE
  5
32C
330
1F
100
AcDbEntity
  8
LAY-10
  6
CONTINUOUS
 62
     7
100
AcDbLine
 10
400.0000000000115
 20
669.9999999999972
 30
0.0
 11
400.0000000000115
 21
665.4999999999962
 31
0.0
  0
LINE
  5
32D
330
1F
100
AcDbEntity
  8
LAY-10
  6
CONTINUOUS
 62
     7
100
AcDbLine
 10
450.0000000000115
 20
669.9999999999972
 30
0.0
 11
450.0000000000115
 21
665.4999999999962
 31
0.0
  0
LINE
  5
32E
330
1F
100
AcDbEntity
  8
LAY-10
  6
CONTINUOUS
 62
     7
100
AcDbLine
 10
634.5000000000034
 20
665.4999999999925
 30
0.0
 11
634.5000000000034
 21
646.5000000000044
 31
0.0
  0
LINE
  5
32F
330
1F
100
AcDbEntity
  8
LAY-10
  6
CONTINUOUS
 62
     7
100
AcDbLine
 10
615.5000000000034
 20
665.4999999999925
 30
0.0
 11
615.5000000000034
 21
646.5000000000044
 31
0.0
  0
LINE
  5
330
330
1F
100
AcDbEntity
  8
LAY-10
  6
CONTINUOUS
 62
     7
100
AcDbLine
 10
617.1000000000033
 20
663.8999999999922
 30
0.0
 11
617.1000000000033
 21
648.1000000000038
 31
0.0
  0
LINE
  5
331
330
1F
100
AcDbEntity
  8
LAY-10
  6
CONTINUOUS
 62
     7
100
AcDbLine
 10
632.900000000003
 20
663.8999999999922
 30
0.0
 11
632.900000000003
 21
648.1000000000038
 31
0.0
  0
LINE
  5
332
330
1F
100
AcDbEntity
  8
LAY-10
  6
CONTINUOUS
 62
     7
100
AcDbLine
 10
617.0999999999997
 20
663.8999999999922
 30
0.0
 11
632.8999999999994
 21
663.8999999999922
 31
0.0
  0
LINE
  5
333
330
1F
100
AcDbEntity
  8
LAY-10
  6
CONTINUOUS
 62
     7
100
AcDbLine
 10
632.8999999999994
 20
648.1000000000038
 30
0.0
 11
617.0999999999997
 21
648.1000000000038
 31
0.0
  0
LINE
  5
334
330
1F
100
AcDbEntity
  8
LAY-10
  6
CONTINUOUS
 62
     7
100
AcDbLine
 10
634.5000000000002
 20
646.4999999999999
 30
0.0
 11
615.5000000000002
 21
646.4999999999999
 31
0.0
  0
POLYLINE
  5
335
330
1F
100
AcDbEntity
  8
LAY-10
  6
CONTINUOUS
 62
     7
100
AcDb2dPolyline
 66
     1
 10
0.0
 20
0.0
 30
0.0
 70
   128
  0
VERTEX
  5
336
330
335
100
AcDbEntity
  8
LAY-10
  6
CONTINUOUS
 62
     7
100
AcDbVertex
100
AcDb2dVertex
 10
335.4999999999997
 20
665.4999999999908
 30
0.0
  0
VERTEX
  5
337
330
335
100
AcDbEntity
  8
LAY-10
  6
CONTINUOUS
 62
     7
100
AcDbVertex
100
AcDb2dVertex
 10
335.4999999999997
 20
646.4999999999908
 30
0.0
  0
SEQEND
  5
338
330
335
100
AcDbEntity
  8
LAY-10
  6
CONTINUOUS
 62
     7
  0
LINE
  5
339
330
1F
100
AcDbEntity
  8
LAY-10
  6
CONTINUOUS
 62
     7
100
AcDbLine
 10
354.5000000000033
 20
665.4999999999925
 30
0.0
 11
354.5000000000033
 21
646.5000000000044
 31
0.0
  0
LINE
  5
33A
330
1F
100
AcDbEntity
  8
LAY-10
  6
CONTINUOUS
 62
     7
100
AcDbLine
 10
337.1000000000033
 20
663.8999999999922
 30
0.0
 11
337.1000000000033
 21
648.1000000000038
 31
0.0
  0
LINE
  5
33B
330
1F
100
AcDbEntity
  8
LAY-10
  6
CONTINUOUS
 62
     7
100
AcDbLine
 10
352.9000000000029
 20
663.8999999999922
 30
0.0
 11
352.9000000000029
 21
648.1000000000038
 31
0.0
  0
LINE
  5
33C
330
1F
100
AcDbEntity
  8
LAY-10
  6
CONTINUOUS
 62
     7
100
AcDbLine
 10
337.0999999999996
 20
663.8999999999922
 30
0.0
 11
352.8999999999992
 21
663.8999999999922
 31
0.0
  0
LINE
  5
33D
330
1F
100
AcDbEntity
  8
LAY-10
  6
CONTINUOUS
 62
     7
100
AcDbLine
 10
352.8999999999992
 20
648.1000000000038
 30
0.0
 11
337.0999999999996
 21
648.1000000000038
 31
0.0
  0
LINE
  5
33E
330
1F
100
AcDbEntity
  8
LAY-10
  6
CONTINUOUS
 62
     7
100
AcDbLine
 10
354.5000000000499
 20
646.4999999999999
 30
0.0
 11
335.4999999999501
 21
646.4999999999999
 31
0.0
  0
POLYLINE
  5
33F
330
1F
100
AcDbEntity
  8
LAY-10
  6
CONTINUOUS
 62
     7
100
AcDb2dPolyline
 66
     1
 10
0.0
 20
0.0
 30
0.0
 70
   128
  0
VERTEX
  5
340
330
33F
100
AcDbEntity
  8
LAY-10
  6
CONTINUOUS
 62
     7
100
AcDbVertex
100
AcDb2dVertex
 10
914.5000000000064
 20
665.4999999999908
 30
0.0
  0
VERTEX
  5
341
330
33F
100
AcDbEntity
  8
LAY-10
  6
CONTINUOUS
 62
     7
100
AcDbVertex
100
AcDb2dVertex
 10
914.5000000000064
 20
646.4999999999908
 30
0.0
  0
SEQEND
  5
342
330
33F
100
AcDbEntity
  8
LAY-10
  6
CONTINUOUS
 62
     7
  0
LINE
  5
343
330
1F
100
AcDbEntity
  8
LAY-10
  6
CONTINUOUS
 62
     7
100
AcDbLine
 10
895.5000000000027
 20
665.4999999999925
 30
0.0
 11
895.5000000000027
 21
646.5000000000044
 31
0.0
  0
LINE
  5
344
330
1F
100
AcDbEntity
  8
LAY-10
  6
CONTINUOUS
 62
     7
100
AcDbLine
 10
912.9000000000028
 20
663.8999999999922
 30
0.0
 11
912.9000000000028
 21
648.1000000000038
 31
0.0
  0
LINE
  5
345
330
1F
100
AcDbEntity
  8
LAY-10
  6
CONTINUOUS
 62
     7
100
AcDbLine
 10
897.1000000000032
 20
663.8999999999922
 30
0.0
 11
897.1000000000032
 21
648.1000000000038
 31
0.0
  0
LINE
  5
346
330
1F
100
AcDbEntity
  8
LAY-10
  6
CONTINUOUS
 62
     7
100
AcDbLine
 10
912.9000000000065
 20
663.8999999999922
 30
0.0
 11
897.1000000000067
 21
663.8999999999922
 31
0.0
  0
LINE
  5
347
330
1F
100
AcDbEntity
  8
LAY-10
  6
CONTINUOUS
 62
     7
100
AcDbLine
 10
897.1000000000067
 20
648.1000000000038
 30
0.0
 11
912.9000000000065
 21
648.1000000000038
 31
0.0
  0
LINE
  5
348
330
1F
100
AcDbEntity
  8
LAY-10
  6
CONTINUOUS
 62
     7
100
AcDbLine
 10
895.4999999999561
 20
646.4999999999999
 30
0.0
 11
914.5000000000559
 21
646.4999999999999
 31
0.0
  0
LINE
  5
349
330
1F
100
AcDbEntity
  8
LAY-10
  6
CONTINUOUS
 62
     7
100
AcDbLine
 10
336.0000000000015
 20
715.9971143170077
 30
0.0
 11
336.0000000000015
 21
669.9999999999952
 31
0.0
  0
LINE
  5
34A
330
1F
100
AcDbEntity
  8
LAY-10
  6
CONTINUOUS
 62
     7
100
AcDbLine
 10
914.0000000000027
 20
669.9999999999952
 30
0.0
 11
914.0000000000026
 21
715.9971143170077
 31
0.0
  0
LINE
  5
34B
330
1F
100
AcDbEntity
  8
LAY-10
  6
CONTINUOUS
 62
     7
100
AcDbLine
 10
329.4999999999999
 20
646.5000000000194
 30
0.0
 11
920.5000000000001
 21
646.5000000000194
 31
0.0
  0
ARC
  5
34C
330
1F
100
AcDbEntity
  8
LAY-10
  6
CONTINUOUS
 62
     7
100
AcDbCircle
 10
724.999999999989
 20
734.999999999979
 30
0.0
 40
5.0
100
AcDbArc
 50
185.5757227313749
 51
354.4242772686251
  0
LINE
  5
34D
330
1F
100
AcDbEntity
  8
LAY-10
  6
CONTINUOUS
 62
     7
100
AcDbLine
 10
718.9999999999876
 20
744.999999999979
 30
0.0
 11
720.023656708498
 21
734.514194025085
 31
0.0
  0
LINE
  5
34E
330
1F
100
AcDbEntity
  8
LAY-10
  6
CONTINUOUS
 62
     7
100
AcDbLine
 10
730.9999999999895
 20
744.999999999979
 30
0.0
 11
729.9763432914792
 21
734.514194025085
 31
0.0
  0
ARC
  5
34F
330
1F
100
AcDbEntity
  8
LAY-10
  6
CONTINUOUS
 62
     7
100
AcDbCircle
 10
329.9403285601459
 20
725.9999999999699
 30
0.0
 40
1.0
100
AcDbArc
 50
185.8093648644375
 51
270.0
  0
LINE
  5
350
330
1F
100
AcDbEntity
  8
LAY-10
  6
CONTINUOUS
 62
     7
100
AcDbLine
 10
327.0020790043116
 20
744.9999999999699
 30
0.0
 11
328.9454643820275
 21
725.8987810931555
 31
0.0
  0
LINE
  5
351
330
1F
100
AcDbEntity
  8
LAY-10
  6
CONTINUOUS
 62
     7
100
AcDbLine
 10
326.9999999999884
 20
749.9999999999998
 30
0.0
 11
325.9999999999885
 21
744.999999999969
 31
0.0
  0
LINE
  5
352
330
1F
100
AcDbEntity
  8
LAY-10
  6
CONTINUOUS
 62
     7
100
AcDbLine
 10
421.9999999999803
 20
749.999999999999
 30
0.0
 11
422.3542486890804
 21
744.999999999969
 31
0.0
  0
LINE
  5
353
330
1F
100
AcDbEntity
  8
LAY-10
  6
CONTINUOUS
 62
     7
100
AcDbLine
 10
427.6457513108801
 20
744.999999999969
 30
0.0
 11
427.9999999999802
 21
749.999999999999
 31
0.0
  0
LINE
  5
354
330
1F
100
AcDbEntity
  8
LAY-10
  6
CONTINUOUS
 62
     7
100
AcDbLine
 10
621.99999999996
 20
749.999999999999
 30
0.0
 11
622.3542486890601
 21
744.999999999969
 31
0.0
  0
LINE
  5
355
330
1F
100
AcDbEntity
  8
LAY-10
  6
CONTINUOUS
 62
     7
100
AcDbLine
 10
627.6457513108599
 20
744.999999999969
 30
0.0
 11
627.99999999996
 21
749.999999999999
 31
0.0
  0
LINE
  5
356
330
1F
100
AcDbEntity
  8
LAY-10
  6
CONTINUOUS
 62
     7
100
AcDbLine
 10
821.99999999999
 20
749.999999999999
 30
0.0
 11
822.3542486890899
 21
744.999999999969
 31
0.0
  0
ARC
  5
357
330
1F
100
AcDbEntity
  8
LAY-10
  6
CONTINUOUS
 62
     7
100
AcDbCircle
 10
416.8541019662601
 20
726.9999999999707
 30
0.0
 40
3.0
100
AcDbArc
 50
90.00000000000001
 51
153.434948822922
  0
ARC
  5
358
330
1F
100
AcDbEntity
  8
LAY-10
  6
CONTINUOUS
 62
     7
100
AcDbCircle
 10
433.14589803374
 20
726.9999999999707
 30
0.0
 40
3.0
100
AcDbArc
 50
26.5650511770785
 51
90.00000000000001
  0
LINE
  5
359
330
1F
100
AcDbEntity
  8
LAY-10
  6
CONTINUOUS
 62
     7
100
AcDbLine
 10
413.3291796067604
 20
726.65835921347
 30
0.0
 11
414.1708203932606
 21
728.3416407864704
 31
0.0
  0
ARC
  5
35A
330
1F
100
AcDbEntity
  8
LAY-10
  6
CONTINUOUS
 62
     7
100
AcDbCircle
 10
410.6458980337609
 20
727.9999999999698
 30
0.0
 40
3.0
100
AcDbArc
 50
270.0
 51
333.4349488229226
  0
LINE
  5
35B
330
1F
100
AcDbEntity
  8
LAY-10
  6
CONTINUOUS
 62
     7
100
AcDbLine
 10
436.6708203932392
 20
726.65835921347
 30
0.0
 11
435.8291796067394
 21
728.3416407864704
 31
0.0
  0
ARC
  5
35C
330
1F
100
AcDbEntity
  8
LAY-10
  6
CONTINUOUS
 62
     7
100
AcDbCircle
 10
439.3541019662391
 20
727.9999999999698
 30
0.0
 40
3.0
100
AcDbArc
 50
206.5650511770775
 51
270.0
  0
ARC
  5
35D
330
1F
100
AcDbEntity
  8
LAY-10
  6
CONTINUOUS
 62
     7
100
AcDbCircle
 10
616.8541019662493
 20
726.9999999999707
 30
0.0
 40
3.0
100
AcDbArc
 50
90.00000000000001
 51
153.4349488229225
  0
ARC
  5
35E
330
1F
100
AcDbEntity
  8
LAY-10
  6
CONTINUOUS
 62
     7
100
AcDbCircle
 10
633.1458980337293
 20
726.9999999999707
 30
0.0
 40
3.0
100
AcDbArc
 50
26.56505117707752
 51
90.00000000000001
  0
LINE
  5
35F
330
1F
100
AcDbEntity
  8
LAY-10
  6
CONTINUOUS
 62
     7
100
AcDbLine
 10
613.3291796067497
 20
726.65835921347
 30
0.0
 11
614.1708203932499
 21
728.3416407864704
 31
0.0
  0
ARC
  5
360
330
1F
100
AcDbEntity
  8
LAY-10
  6
CONTINUOUS
 62
     7
100
AcDbCircle
 10
610.6458980337502
 20
727.9999999999698
 30
0.0
 40
3.0
100
AcDbArc
 50
270.0
 51
333.4349488229226
  0
LINE
  5
361
330
1F
100
AcDbEntity
  8
LAY-10
  6
CONTINUOUS
 62
     7
100
AcDbLine
 10
636.670820393229
 20
726.65835921347
 30
0.0
 11
635.8291796067288
 21
728.3416407864704
 31
0.0
  0
ARC
  5
362
330
1F
100
AcDbEntity
  8
LAY-10
  6
CONTINUOUS
 62
     7
100
AcDbCircle
 10
639.3541019662284
 20
727.9999999999698
 30
0.0
 40
3.0
100
AcDbArc
 50
206.5650511770775
 51
270.0
  0
ARC
  5
363
330
1F
100
AcDbEntity
  8
LAY-10
  6
CONTINUOUS
 62
     7
100
AcDbCircle
 10
816.8541019662498
 20
726.9999999999707
 30
0.0
 40
3.0
100
AcDbArc
 50
90.00000000000001
 51
153.434948822921
  0
LINE
  5
364
330
1F
100
AcDbEntity
  8
LAY-10
  6
CONTINUOUS
 62
     7
100
AcDbLine
 10
639.3541019662284
 20
724.9999999999699
 30
0.0
 11
810.6458980337504
 21
724.9999999999699
 31
0.0
  0
LINE
  5
365
330
1F
100
AcDbEntity
  8
LAY-10
  6
CONTINUOUS
 62
     7
100
AcDbLine
 10
813.3291796067505
 20
726.65835921347
 30
0.0
 11
814.1708203932507
 21
728.3416407864704
 31
0.0
  0
ARC
  5
366
330
1F
100
AcDbEntity
  8
LAY-10
  6
CONTINUOUS
 62
     7
100
AcDbCircle
 10
810.6458980337504
 20
727.9999999999698
 30
0.0
 40
3.0
100
AcDbArc
 50
270.0
 51
333.434948822922
  0
ARC
  5
367
330
1F
100
AcDbEntity
  8
LAY-10
  6
CONTINUOUS
 62
     7
100
AcDbCircle
 10
524.9999999999893
 20
734.999999999979
 30
0.0
 40
5.0
100
AcDbArc
 50
185.5757227313749
 51
354.4242772686251
  0
LINE
  5
368
330
1F
100
AcDbEntity
  8
LAY-10
  6
CONTINUOUS
 62
     7
100
AcDbLine
 10
518.999999999988
 20
744.999999999979
 30
0.0
 11
520.0236567084983
 21
734.514194025085
 31
0.0
  0
LINE
  5
369
330
1F
100
AcDbEntity
  8
LAY-10
  6
CONTINUOUS
 62
     7
100
AcDbLine
 10
530.9999999999898
 20
744.999999999979
 30
0.0
 11
529.9763432914795
 21
734.514194025085
 31
0.0
  0
LINE
  5
36A
330
1F
100
AcDbEntity
  8
LAY-10
  6
CONTINUOUS
 62
     7
100
AcDbLine
 10
328.5137937550369
 20
729.9999999999699
 30
0.0
 11
328.5282004946701
 21
729.9999999999699
 31
0.0
  0
LINE
  5
36B
330
1F
100
AcDbEntity
  8
LAY-10
  6
CONTINUOUS
 62
     7
100
AcDbLine
 10
338.9999999999907
 20
744.999999999979
 30
0.0
 11
337.9763432914804
 21
734.514194025085
 31
0.0
  0
ARC
  5
36C
330
1F
100
AcDbEntity
  8
LAY-10
  6
CONTINUOUS
 62
     7
100
AcDbCircle
 10
332.9999999999903
 20
734.999999999979
 30
0.0
 40
5.0
100
AcDbArc
 50
193.5083662909427
 51
354.4242772686251
  0
LINE
  5
36D
330
1F
100
AcDbEntity
  8
LAY-10
  6
CONTINUOUS
 62
     7
100
AcDbLine
 10
338.3999999999945
 20
747.999999999969
 30
0.0
 11
326.5999999999847
 21
747.999999999969
 31
0.0
  0
LINE
  5
36E
330
1F
100
AcDbEntity
  8
LAY-10
  6
CONTINUOUS
 62
     7
100
AcDbLine
 10
338.3999999999945
 20
747.999999999969
 30
0.0
 11
338.9999999999907
 21
744.9999999999699
 31
0.0
  0
LINE
  5
36F
330
1F
100
AcDbEntity
  8
LAY-10
  6
CONTINUOUS
 62
     7
100
AcDbLine
 10
439.3541019662391
 20
724.9999999999699
 30
0.0
 11
610.6458980337502
 21
724.9999999999699
 31
0.0
  0
LINE
  5
370
330
1F
100
AcDbEntity
  8
LAY-10
  6
CONTINUOUS
 62
     7
100
AcDbLine
 10
918.9999999999886
 20
744.999999999979
 30
0.0
 11
920.023656708499
 21
734.514194025085
 31
0.0
  0
LINE
  5
371
330
1F
100
AcDbEntity
  8
LAY-10
  6
CONTINUOUS
 62
     7
100
AcDbLine
 10
827.999999999988
 20
749.999999999999
 30
0.0
 11
827.645751310888
 21
744.999999999969
 31
0.0
  0
ARC
  5
372
330
1F
100
AcDbEntity
  8
LAY-10
  6
CONTINUOUS
 62
     7
100
AcDbCircle
 10
833.1458980337283
 20
726.9999999999707
 30
0.0
 40
3.0
100
AcDbArc
 50
26.56505117707993
 51
90.00000000000001
  0
LINE
  5
373
330
1F
100
AcDbEntity
  8
LAY-10
  6
CONTINUOUS
 62
     7
100
AcDbLine
 10
836.6708203932279
 20
726.65835921347
 30
0.0
 11
835.8291796067277
 21
728.3416407864704
 31
0.0
  0
ARC
  5
374
330
1F
100
AcDbEntity
  8
LAY-10
  6
CONTINUOUS
 62
     7
100
AcDbCircle
 10
839.3541019662277
 20
727.9999999999698
 30
0.0
 40
3.0
100
AcDbArc
 50
206.5650511770799
 51
270.0
  0
LINE
  5
375
330
1F
100
AcDbEntity
  8
LAY-10
  6
CONTINUOUS
 62
     7
100
AcDbLine
 10
420.0000000001003
 20
715.9971143170194
 30
0.0
 11
420.0000000001003
 21
711.9999999999199
 31
0.0
  0
LINE
  5
376
330
1F
100
AcDbEntity
  8
LAY-10
  6
CONTINUOUS
 62
     7
100
AcDbLine
 10
430.0000000001003
 20
715.9971143170194
 30
0.0
 11
430.0000000001003
 21
711.9999999999199
 31
0.0
  0
LINE
  5
377
330
1F
100
AcDbEntity
  8
LAY-10
  6
CONTINUOUS
 62
     7
100
AcDbLine
 10
420.0000000001003
 20
715.9971143169931
 30
0.0
 11
430.0000000001003
 21
715.9971143169931
 31
0.0
  0
LINE
  5
378
330
1F
100
AcDbEntity
  8
LAY-10
  6
CONTINUOUS
 62
     7
100
AcDbLine
 10
420.0000000001003
 20
711.9999999999144
 30
0.0
 11
430.0000000001003
 21
711.9999999999144
 31
0.0
  0
LINE
  5
379
330
1F
100
AcDbEntity
  8
LAY-10
  6
CONTINUOUS
 62
     7
100
AcDbLine
 10
417.4999999999993
 20
730.0000000000199
 30
0.0
 11
432.4999999999993
 21
730.0000000000199
 31
0.0
  0
LINE
  5
37A
330
1F
100
AcDbEntity
  8
LAY-10
  6
CONTINUOUS
 62
     7
100
AcDbLine
 10
432.5000000000003
 20
704.0000000000244
 30
0.0
 11
430.5000000000002
 21
704.0000000000244
 31
0.0
  0
LINE
  5
37B
330
1F
100
AcDbEntity
  8
LAY-10
  6
CONTINUOUS
 62
     7
100
AcDbLine
 10
432.5000000000003
 20
725.0000000000199
 30
0.0
 11
417.4999999999986
 21
725.0000000000199
 31
0.0
  0
LINE
  5
37C
330
1F
100
AcDbEntity
  8
LAY-10
  6
CONTINUOUS
 62
     7
100
AcDbLine
 10
417.5000000000003
 20
723.0000000000198
 30
0.0
 11
432.5000000000003
 21
723.0000000000198
 31
0.0
  0
LINE
  5
37D
330
1F
100
AcDbEntity
  8
LAY-10
  6
CONTINUOUS
 62
     7
100
AcDbLine
 10
430.5000000000005
 20
704.0000000000199
 30
0.0
 11
430.5000000000005
 21
723.0000000000198
 31
0.0
  0
LINE
  5
37E
330
1F
100
AcDbEntity
  8
LAY-10
  6
CONTINUOUS
 62
     7
100
AcDbLine
 10
419.7499999999698
 20
724.9999999999816
 30
0.0
 11
430.2499999999698
 21
724.9999999999816
 31
0.0
  0
ARC
  5
37F
330
1F
100
AcDbEntity
  8
LAY-10
  6
CONTINUOUS
 62
     7
100
AcDbCircle
 10
421.2499999999698
 20
726.9999999999817
 30
0.0
 40
1.0
100
AcDbArc
 50
90.00000000000009
 51
151.9275130641421
  0
ARC
  5
380
330
1F
100
AcDbEntity
  8
LAY-10
  6
CONTINUOUS
 62
     7
100
AcDbCircle
 10
424.9999999999698
 20
724.9999999999816
 30
0.0
 40
5.25
100
AcDbArc
 50
151.9275130641422
 51
179.9999999999997
  0
LINE
  5
381
330
1F
100
AcDbEntity
  8
LAY-10
  6
CONTINUOUS
 62
     7
100
AcDbLine
 10
428.7499999999698
 20
727.9999999999817
 30
0.0
 11
421.2499999999698
 21
727.9999999999817
 31
0.0
  0
ARC
  5
382
330
1F
100
AcDbEntity
  8
LAY-10
  6
CONTINUOUS
 62
     7
100
AcDbCircle
 10
428.7499999999698
 20
726.9999999999817
 30
0.0
 40
1.0
100
AcDbArc
 50
28.07248693585815
 51
90.00000000000009
  0
ARC
  5
383
330
1F
100
AcDbEntity
  8
LAY-10
  6
CONTINUOUS
 62
     7
100
AcDbCircle
 10
424.9999999999698
 20
724.9999999999816
 30
0.0
 40
5.25
100
AcDbArc
 50
0.0000000000011459
 51
28.07248693585798
  0
LINE
  5
384
330
1F
100
AcDbEntity
  8
LAY-10
  6
CONTINUOUS
 62
     7
100
AcDbLine
 10
427.9999999999698
 20
722.9999999999853
 30
0.0
 11
427.9999999999698
 21
715.9971143170222
 31
0.0
  0
LINE
  5
385
330
1F
100
AcDbEntity
  8
LAY-10
  6
CONTINUOUS
 62
     7
100
AcDbLine
 10
421.9999999999698
 20
722.9999999999853
 30
0.0
 11
421.9999999999698
 21
715.9971143170222
 31
0.0
  0
LINE
  5
386
330
1F
100
AcDbEntity
  8
LAY-10
  6
CONTINUOUS
 62
     7
100
AcDbLine
 10
427.9999999999698
 20
711.9999999999798
 30
0.0
 11
427.9999999999698
 21
703.799999999981
 31
0.0
  0
LINE
  5
387
330
1F
100
AcDbEntity
  8
LAY-10
  6
CONTINUOUS
 62
     7
100
AcDbLine
 10
421.9999999999698
 20
711.9999999999798
 30
0.0
 11
421.9999999999698
 21
703.799999999981
 31
0.0
  0
LINE
  5
388
330
1F
100
AcDbEntity
  8
LAY-10
  6
CONTINUOUS
 62
     7
100
AcDbLine
 10
422.1367513459215
 20
703.799999999981
 30
0.0
 11
422.1367513459215
 21
699.1719999999802
 31
0.0
  0
LINE
  5
389
330
1F
100
AcDbEntity
  8
LAY-10
  6
CONTINUOUS
 62
     7
100
AcDbLine
 10
419.2499999999698
 20
703.799999999981
 30
0.0
 11
419.2499999999698
 21
699.1719999999802
 31
0.0
  0
LINE
  5
38A
330
1F
100
AcDbEntity
  8
LAY-10
  6
CONTINUOUS
 62
     7
100
AcDbLine
 10
427.863248654018
 20
703.799999999981
 30
0.0
 11
427.863248654018
 21
699.1719999999802
 31
0.0
  0
ARC
  5
38B
330
1F
100
AcDbEntity
  8
LAY-10
  6
CONTINUOUS
 62
     7
100
AcDbCircle
 10
424.9999999999698
 20
706.0522524955394
 30
0.0
 40
7.4522524955587
100
AcDbArc
 50
247.4051392327525
 51
292.5948607672478
  0
LINE
  5
38C
330
1F
100
AcDbEntity
  8
LAY-10
  6
CONTINUOUS
 62
     7
100
AcDbLine
 10
430.7499999999698
 20
703.799999999981
 30
0.0
 11
430.7499999999698
 21
699.1719999999802
 31
0.0
  0
LINE
  5
38D
330
1F
100
AcDbEntity
  8
LAY-10
  6
CONTINUOUS
 62
     7
100
AcDbLine
 10
430.7499999999698
 20
703.799999999981
 30
0.0
 11
419.2499999999698
 21
703.799999999981
 31
0.0
  0
ARC
  5
38E
330
1F
100
AcDbEntity
  8
LAY-10
  6
CONTINUOUS
 62
     7
100
AcDbCircle
 10
429.7499999999698
 20
698.137977954182
 30
0.0
 40
0.5
100
AcDbArc
 50
99.79159752642917
 51
180.0000000000002
  0
LINE
  5
38F
330
1F
100
AcDbEntity
  8
LAY-10
  6
CONTINUOUS
 62
     7
100
AcDbLine
 10
429.2499999999698
 20
698.5999999999802
 30
0.0
 11
429.2499999999698
 21
698.6007609748357
 31
0.0
  0
ARC
  5
390
330
1F
100
AcDbEntity
  8
LAY-10
  6
CONTINUOUS
 62
     7
100
AcDbCircle
 10
420.6933756729438
 20
700.7070955710785
 30
0.0
 40
2.107095571097913
100
AcDbArc
 50
226.7638252773316
 51
313.236174722669
  0
ARC
  5
391
330
1F
100
AcDbEntity
  8
LAY-10
  6
CONTINUOUS
 62
     7
100
AcDbCircle
 10
420.2499999999698
 20
698.137977954182
 30
0.0
 40
0.5
100
AcDbArc
 50
0.0000000000002292
 51
80.20840247357106
  0
LINE
  5
392
330
1F
100
AcDbEntity
  8
LAY-10
  6
CONTINUOUS
 62
     7
100
AcDbLine
 10
420.7499999999698
 20
698.5999999999802
 30
0.0
 11
420.7499999999698
 21
698.6007609748357
 31
0.0
  0
ARC
  5
393
330
1F
100
AcDbEntity
  8
LAY-10
  6
CONTINUOUS
 62
     7
100
AcDbCircle
 10
429.3066243269957
 20
700.7070955710785
 30
0.0
 40
2.107095571097882
100
AcDbArc
 50
226.763825277331
 51
313.2361747226693
  0
ARC
  5
394
330
1F
100
AcDbEntity
  8
LAY-10
  6
CONTINUOUS
 62
     7
100
AcDbCircle
 10
421.7499999999698
 20
697.5009618943039
 30
0.0
 40
1.0
100
AcDbArc
 50
180.0000000000002
 51
201.7867892982636
  0
LINE
  5
395
330
1F
100
AcDbEntity
  8
LAY-10
  6
CONTINUOUS
 62
     7
100
AcDbLine
 10
420.7499999999698
 20
697.5009618943039
 30
0.0
 11
420.7499999999698
 21
698.137977954182
 31
0.0
  0
ARC
  5
396
330
1F
100
AcDbEntity
  8
LAY-10
  6
CONTINUOUS
 62
     7
100
AcDbCircle
 10
424.9999999999698
 20
698.799999999981
 30
0.0
 40
4.5
100
AcDbArc
 50
201.7867892982638
 51
338.2132107017366
  0
LINE
  5
397
330
1F
100
AcDbEntity
  8
LAY-10
  6
CONTINUOUS
 62
     7
100
AcDbLine
 10
429.2499999999698
 20
697.5009618943039
 30
0.0
 11
429.2499999999698
 21
698.137977954182
 31
0.0
  0
ARC
  5
398
330
1F
100
AcDbEntity
  8
LAY-10
  6
CONTINUOUS
 62
     7
100
AcDbCircle
 10
428.2499999999698
 20
697.5009618943039
 30
0.0
 40
1.0
100
AcDbArc
 50
338.2132107017366
 51
0.0000000000002292
  0
LINE
  5
399
330
1F
100
AcDbEntity
  8
LAY-10
  6
CONTINUOUS
 62
     7
100
AcDbLine
 10
417.4999999999993
 20
723.0000000000198
 30
0.0
 11
417.4999999999993
 21
730.0000000000199
 31
0.0
  0
LINE
  5
39A
330
1F
100
AcDbEntity
  8
LAY-10
  6
CONTINUOUS
 62
     7
100
AcDbLine
 10
432.4999999999993
 20
723.0000000000198
 30
0.0
 11
432.4999999999993
 21
730.0000000000199
 31
0.0
  0
LINE
  5
39B
330
1F
100
AcDbEntity
  8
LAY-10
  6
CONTINUOUS
 62
     7
100
AcDbLine
 10
432.5000000000003
 20
723.0000000000198
 30
0.0
 11
432.5000000000003
 21
704.0000000000199
 31
0.0
  0
LINE
  5
39C
330
1F
100
AcDbEntity
  8
LAY-10
  6
CONTINUOUS
 62
     7
100
AcDbLine
 10
820.0000000001103
 20
715.9971143170194
 30
0.0
 11
820.0000000001103
 21
711.9999999999199
 31
0.0
  0
LINE
  5
39D
330
1F
100
AcDbEntity
  8
LAY-10
  6
CONTINUOUS
 62
     7
100
AcDbLine
 10
830.0000000001103
 20
715.9971143170194
 30
0.0
 11
830.0000000001103
 21
711.9999999999199
 31
0.0
  0
LINE
  5
39E
330
1F
100
AcDbEntity
  8
LAY-10
  6
CONTINUOUS
 62
     7
100
AcDbLine
 10
820.0000000001103
 20
715.9971143169931
 30
0.0
 11
830.0000000001103
 21
715.9971143169931
 31
0.0
  0
LINE
  5
39F
330
1F
100
AcDbEntity
  8
LAY-10
  6
CONTINUOUS
 62
     7
100
AcDbLine
 10
820.0000000001103
 20
711.9999999999144
 30
0.0
 11
830.0000000001103
 21
711.9999999999144
 31
0.0
  0
LINE
  5
3A0
330
1F
100
AcDbEntity
  8
LAY-10
  6
CONTINUOUS
 62
     7
100
AcDbLine
 10
817.5000000000093
 20
730.0000000000199
 30
0.0
 11
832.5000000000093
 21
730.0000000000199
 31
0.0
  0
LINE
  5
3A1
330
1F
100
AcDbEntity
  8
LAY-10
  6
CONTINUOUS
 62
     7
100
AcDbLine
 10
832.5000000000102
 20
704.0000000000244
 30
0.0
 11
830.5000000000103
 21
704.0000000000244
 31
0.0
  0
LINE
  5
3A2
330
1F
100
AcDbEntity
  8
LAY-10
  6
CONTINUOUS
 62
     7
100
AcDbLine
 10
832.5000000000102
 20
725.0000000000199
 30
0.0
 11
817.5000000000086
 21
725.0000000000199
 31
0.0
  0
LINE
  5
3A3
330
1F
100
AcDbEntity
  8
LAY-10
  6
CONTINUOUS
 62
     7
100
AcDbLine
 10
817.5000000000102
 20
723.0000000000198
 30
0.0
 11
832.5000000000102
 21
723.0000000000198
 31
0.0
  0
LINE
  5
3A4
330
1F
100
AcDbEntity
  8
LAY-10
  6
CONTINUOUS
 62
     7
100
AcDbLine
 10
830.5000000000105
 20
704.0000000000199
 30
0.0
 11
830.5000000000105
 21
723.0000000000198
 31
0.0
  0
LINE
  5
3A5
330
1F
100
AcDbEntity
  8
LAY-10
  6
CONTINUOUS
 62
     7
100
AcDbLine
 10
819.7499999999798
 20
724.9999999999816
 30
0.0
 11
830.2499999999799
 21
724.9999999999816
 31
0.0
  0
ARC
  5
3A6
330
1F
100
AcDbEntity
  8
LAY-10
  6
CONTINUOUS
 62
     7
100
AcDbCircle
 10
821.2499999999798
 20
726.9999999999817
 30
0.0
 40
1.0
100
AcDbArc
 50
90.00000000000009
 51
151.9275130641421
  0
ARC
  5
3A7
330
1F
100
AcDbEntity
  8
LAY-10
  6
CONTINUOUS
 62
     7
100
AcDbCircle
 10
824.9999999999798
 20
724.9999999999816
 30
0.0
 40
5.25
100
AcDbArc
 50
151.9275130641422
 51
179.9999999999997
  0
LINE
  5
3A8
330
1F
100
AcDbEntity
  8
LAY-10
  6
CONTINUOUS
 62
     7
100
AcDbLine
 10
828.7499999999798
 20
727.9999999999817
 30
0.0
 11
821.2499999999798
 21
727.9999999999817
 31
0.0
  0
ARC
  5
3A9
330
1F
100
AcDbEntity
  8
LAY-10
  6
CONTINUOUS
 62
     7
100
AcDbCircle
 10
828.7499999999798
 20
726.9999999999817
 30
0.0
 40
1.0
100
AcDbArc
 50
28.07248693585815
 51
90.00000000000009
  0
ARC
  5
3AA
330
1F
100
AcDbEntity
  8
LAY-10
  6
CONTINUOUS
 62
     7
100
AcDbCircle
 10
824.9999999999798
 20
724.9999999999816
 30
0.0
 40
5.25
100
AcDbArc
 50
0.0000000000011459
 51
28.07248693585798
  0
LINE
  5
3AB
330
1F
100
AcDbEntity
  8
LAY-10
  6
CONTINUOUS
 62
     7
100
AcDbLine
 10
827.9999999999798
 20
722.9999999999853
 30
0.0
 11
827.9999999999798
 21
715.9971143170222
 31
0.0
  0
LINE
  5
3AC
330
1F
100
AcDbEntity
  8
LAY-10
  6
CONTINUOUS
 62
     7
100
AcDbLine
 10
821.9999999999798
 20
722.9999999999853
 30
0.0
 11
821.9999999999798
 21
715.9971143170222
 31
0.0
  0
LINE
  5
3AD
330
1F
100
AcDbEntity
  8
LAY-10
  6
CONTINUOUS
 62
     7
100
AcDbLine
 10
827.9999999999798
 20
711.9999999999798
 30
0.0
 11
827.9999999999798
 21
703.799999999981
 31
0.0
  0
LINE
  5
3AE
330
1F
100
AcDbEntity
  8
LAY-10
  6
CONTINUOUS
 62
     7
100
AcDbLine
 10
821.9999999999798
 20
711.9999999999798
 30
0.0
 11
821.9999999999798
 21
703.799999999981
 31
0.0
  0
LINE
  5
3AF
330
1F
100
AcDbEntity
  8
LAY-10
  6
CONTINUOUS
 62
     7
100
AcDbLine
 10
822.1367513459315
 20
703.799999999981
 30
0.0
 11
822.1367513459315
 21
699.1719999999802
 31
0.0
  0
LINE
  5
3B0
330
1F
100
AcDbEntity
  8
LAY-10
  6
CONTINUOUS
 62
     7
100
AcDbLine
 10
819.2499999999798
 20
703.799999999981
 30
0.0
 11
819.2499999999798
 21
699.1719999999802
 31
0.0
  0
LINE
  5
3B1
330
1F
100
AcDbEntity
  8
LAY-10
  6
CONTINUOUS
 62
     7
100
AcDbLine
 10
827.863248654028
 20
703.799999999981
 30
0.0
 11
827.863248654028
 21
699.1719999999802
 31
0.0
  0
ARC
  5
3B2
330
1F
100
AcDbEntity
  8
LAY-10
  6
CONTINUOUS
 62
     7
100
AcDbCircle
 10
824.9999999999798
 20
706.0522524955394
 30
0.0
 40
7.4522524955587
100
AcDbArc
 50
247.4051392327525
 51
292.5948607672478
  0
LINE
  5
3B3
330
1F
100
AcDbEntity
  8
LAY-10
  6
CONTINUOUS
 62
     7
100
AcDbLine
 10
830.7499999999798
 20
703.799999999981
 30
0.0
 11
830.7499999999798
 21
699.1719999999802
 31
0.0
  0
LINE
  5
3B4
330
1F
100
AcDbEntity
  8
LAY-10
  6
CONTINUOUS
 62
     7
100
AcDbLine
 10
830.7499999999798
 20
703.799999999981
 30
0.0
 11
819.2499999999798
 21
703.799999999981
 31
0.0
  0
ARC
  5
3B5
330
1F
100
AcDbEntity
  8
LAY-10
  6
CONTINUOUS
 62
     7
100
AcDbCircle
 10
829.7499999999798
 20
698.137977954182
 30
0.0
 40
0.5
100
AcDbArc
 50
99.79159752642917
 51
180.0000000000002
  0
ARC
  5
3B6
330
1F
100
AcDbEntity
  8
LAY-10
  6
CONTINUOUS
 62
     7
100
AcDbCircle
 10
820.6933756729538
 20
700.7070955710785
 30
0.0
 40
2.107095571097913
100
AcDbArc
 50
226.7638252773316
 51
313.236174722669
  0
ARC
  5
3B7
330
1F
100
AcDbEntity
  8
LAY-10
  6
CONTINUOUS
 62
     7
100
AcDbCircle
 10
820.2499999999799
 20
698.137977954182
 30
0.0
 40
0.5
100
AcDbArc
 50
0.0000000000002292
 51
80.20840247357106
  0
ARC
  5
3B8
330
1F
100
AcDbEntity
  8
LAY-10
  6
CONTINUOUS
 62
     7
100
AcDbCircle
 10
829.3066243270057
 20
700.7070955710785
 30
0.0
 40
2.107095571097882
100
AcDbArc
 50
226.763825277331
 51
313.2361747226693
  0
ARC
  5
3B9
330
1F
100
AcDbEntity
  8
LAY-10
  6
CONTINUOUS
 62
     7
100
AcDbCircle
 10
821.7499999999798
 20
697.5009618943039
 30
0.0
 40
1.0
100
AcDbArc
 50
180.0000000000002
 51
201.7867892982636
  0
LINE
  5
3BA
330
1F
100
AcDbEntity
  8
LAY-10
  6
CONTINUOUS
 62
     7
100
AcDbLine
 10
820.7499999999798
 20
697.5009618943039
 30
0.0
 11
820.7499999999798
 21
698.137977954182
 31
0.0
  0
ARC
  5
3BB
330
1F
100
AcDbEntity
  8
LAY-10
  6
CONTINUOUS
 62
     7
100
AcDbCircle
 10
824.9999999999798
 20
698.799999999981
 30
0.0
 40
4.5
100
AcDbArc
 50
201.7867892982638
 51
338.2132107017366
  0
LINE
  5
3BC
330
1F
100
AcDbEntity
  8
LAY-10
  6
CONTINUOUS
 62
     7
100
AcDbLine
 10
829.2499999999798
 20
697.5009618943039
 30
0.0
 11
829.2499999999798
 21
698.137977954182
 31
0.0
  0
ARC
  5
3BD
330
1F
100
AcDbEntity
  8
LAY-10
  6
CONTINUOUS
 62
     7
100
AcDbCircle
 10
828.2499999999798
 20
697.5009618943039
 30
0.0
 40
1.0
100
AcDbArc
 50
338.2132107017366
 51
0.0000000000002292
  0
LINE
  5
3BE
330
1F
100
AcDbEntity
  8
LAY-10
  6
CONTINUOUS
 62
     7
100
AcDbLine
 10
817.5000000000093
 20
723.0000000000198
 30
0.0
 11
817.5000000000093
 21
730.0000000000199
 31
0.0
  0
LINE
  5
3BF
330
1F
100
AcDbEntity
  8
LAY-10
  6
CONTINUOUS
 62
     7
100
AcDbLine
 10
832.5000000000093
 20
723.0000000000198
 30
0.0
 11
832.5000000000093
 21
730.0000000000199
 31
0.0
  0
LINE
  5
3C0
330
1F
100
AcDbEntity
  8
LAY-10
  6
CONTINUOUS
 62
     7
100
AcDbLine
 10
832.5000000000102
 20
723.0000000000198
 30
0.0
 11
832.5000000000102
 21
704.0000000000199
 31
0.0
  0
LINE
  5
3C1
330
1F
100
AcDbEntity
  8
LAY-10
  6
CONTINUOUS
 62
     7
100
AcDbLine
 10
830.5000000000105
 20
716.0000000000199
 30
0.0
 11
432.5000000000003
 21
716.0000000000199
 31
0.0
  0
LINE
  5
3C2
330
1F
100
AcDbEntity
  8
LAY-10
  6
CONTINUOUS
 62
     7
100
AcDbLine
 10
327.0020790043116
 20
744.9999999999708
 30
0.0
 11
325.9999999999885
 21
744.9999999999708
 31
0.0
  0
LINE
  5
3C3
330
1F
100
AcDbEntity
  8
LAY-10
  6
CONTINUOUS
 62
     7
100
AcDbLine
 10
924.0000000000026
 20
744.9999999999708
 30
0.0
 11
338.99999999999
 21
744.9999999999708
 31
0.0
  0
ARC
  5
3C4
330
1F
100
AcDbEntity
  8
LAY-10
  6
CONTINUOUS
 62
     7
100
AcDbCircle
 10
924.9999999999892
 20
734.9999999999793
 30
0.0
 40
5.0
100
AcDbArc
 50
185.5757227313739
 51
258.4630409673416
  0
LINE
  5
3C5
330
1F
100
AcDbEntity
  8
LAY-10
  6
CONTINUOUS
 62
     7
100
AcDbLine
 10
332.9999999999894
 20
729.9999999999702
 30
0.0
 11
924.0000000000026
 21
729.9999999999702
 31
0.0
  0
LINE
  5
3C6
330
1F
100
AcDbEntity
  8
LAY-10
  6
CONTINUOUS
 62
     7
100
AcDbLine
 10
924.0000000000026
 20
725.0000000000199
 30
0.0
 11
924.0000000000026
 21
750.0000000000035
 31
0.0
  0
LINE
  5
3C7
330
1F
100
AcDbEntity
  8
LAY-10
  6
CONTINUOUS
 62
     7
100
AcDbLine
 10
331.5000000000015
 20
715.9971143170077
 30
0.0
 11
430.5000000000005
 21
715.9971143170077
 31
0.0
  0
LINE
  5
3C8
330
1F
100
AcDbEntity
  8
LAY-10
  6
CONTINUOUS
 62
     7
100
AcDbLine
 10
432.5000000000003
 20
715.9971143170077
 30
0.0
 11
830.5000000000105
 21
715.9971143170077
 31
0.0
  0
LINE
  5
3C9
330
1F
100
AcDbEntity
  8
LAY-10
  6
CONTINUOUS
 62
     7
100
AcDbLine
 10
832.5000000000102
 20
715.9971143170077
 30
0.0
 11
918.5000000000027
 21
715.9971143170077
 31
0.0
  0
LINE
  5
3CA
330
1F
100
AcDbEntity
  8
LAY-10
  6
CONTINUOUS
 62
     7
100
AcDbLine
 10
326.9999999999899
 20
750.0000000000199
 30
0.0
 11
924.0
 21
750.0000000000199
 31
0.0
  0
LINE
  5
3CB
330
1F
100
AcDbEntity
  8
LAY-10
  6
CONTINUOUS
 62
     7
100
AcDbLine
 10
918.5000000000027
 20
724.9999999999881
 30
0.0
 11
918.5000000000027
 21
669.9999999999926
 31
0.0
  0
LINE
  5
3CC
330
1F
100
AcDbEntity
  8
LAY-10
  6
CONTINUOUS
 62
     7
100
AcDbLine
 10
920.5000000000024
 20
639.9999999999822
 30
0.0
 11
920.5000000000024
 21
725.0000000000199
 31
0.0
  0
LINE
  5
3CD
330
1F
100
AcDbEntity
  8
LAY-10
  6
CONTINUOUS
 62
     7
100
AcDbLine
 10
331.5000000000015
 20
724.9999999999881
 30
0.0
 11
925.0000000000023
 21
724.9999999999881
 31
0.0
  0
LINE
  5
3CE
330
1F
100
AcDbEntity
  8
LAY-10
  6
CONTINUOUS
 62
     7
100
AcDbLine
 10
329.5000000000017
 20
724.9999999999881
 30
0.0
 11
329.5000000000017
 21
640.000000000004
 31
0.0
  0
LINE
  5
3CF
330
1F
100
AcDbEntity
  8
LAY-10
  6
CONTINUOUS
 62
     7
100
AcDbLine
 10
331.5000000000015
 20
724.9999999999881
 30
0.0
 11
331.5000000000015
 21
669.9999999999956
 31
0.0
  0
LINE
  5
3D0
330
1F
100
AcDbEntity
  8
LAY-10
  6
CONTINUOUS
 62
     7
100
AcDbLine
 10
325.0000000000018
 20
724.9999999999699
 30
0.0
 11
410.6458980337609
 21
724.9999999999699
 31
0.0
  0
ARC
  5
3D1
330
1F
100
AcDbEntity
  8
LAY-10
  6
CONTINUOUS
 62
     7
100
AcDbCircle
 10
424.9999999999901
 20
1181.50000000001
 30
0.0
 40
5.25
100
AcDbArc
 50
145.1500954190454
 51
214.8499045810927
  0
LINE
  5
3D2
330
1F
100
AcDbEntity
  8
LAY-10
  6
CONTINUOUS
 62
     7
100
AcDbLine
 10
417.4999999999498
 20
1184.500000000153
 30
0.0
 11
417.4999999999498
 21
1178.499999999856
 31
0.0
  0
ARC
  5
3D3
330
1F
100
AcDbEntity
  8
LAY-10
  6
CONTINUOUS
 62
     7
100
AcDbCircle
 10
424.9999999999901
 20
1181.50000000001
 30
0.0
 40
5.25
100
AcDbArc
 50
325.1500954189072
 51
34.84990458094907
  0
LINE
  5
3D4
330
1F
100
AcDbEntity
  8
LAY-10
  6
CONTINUOUS
 62
     7
100
AcDbLine
 10
432.4999999999494
 20
1184.50000000015
 30
0.0
 11
432.4999999999494
 21
1178.49999999986
 31
0.0
  0
ARC
  5
3D5
330
1F
100
AcDbEntity
  8
LAY-10
  6
CONTINUOUS
 62
     7
100
AcDbCircle
 10
825.0
 20
1181.50000000001
 30
0.0
 40
5.25
100
AcDbArc
 50
145.1500954190454
 51
214.8499045810927
  0
LINE
  5
3D6
330
1F
100
AcDbEntity
  8
LAY-10
  6
CONTINUOUS
 62
     7
100
AcDbLine
 10
817.4999999999598
 20
1184.500000000153
 30
0.0
 11
817.4999999999598
 21
1178.499999999856
 31
0.0
  0
ARC
  5
3D7
330
1F
100
AcDbEntity
  8
LAY-10
  6
CONTINUOUS
 62
     7
100
AcDbCircle
 10
825.0
 20
1181.50000000001
 30
0.0
 40
5.25
100
AcDbArc
 50
325.1500954189072
 51
34.84990458094907
  0
LINE
  5
3D8
330
1F
100
AcDbEntity
  8
LAY-10
  6
CONTINUOUS
 62
     7
100
AcDbLine
 10
832.4999999999594
 20
1184.50000000015
 30
0.0
 11
832.4999999999594
 21
1178.49999999986
 31
0.0
  0
LINE
  5
3D9
330
1F
100
AcDbEntity
  8
LAY-10
  6
CONTINUOUS
 62
     7
100
AcDbLine
 10
400.9999999999972
 20
1127.500000000178
 30
0.0
 11
400.9999999999972
 21
1138.000000000178
 31
0.0
  0
LINE
  5
3DA
330
1F
100
AcDbEntity
  8
LAY-10
  6
CONTINUOUS
 62
     7
100
AcDbLine
 10
394.9999999999964
 20
1132.000000000178
 30
0.0
 11
394.9999999999964
 21
1138.000000000178
 31
0.0
  0
LINE
  5
3DB
330
1F
100
AcDbEntity
  8
LAY-10
  6
CONTINUOUS
 62
     7
100
AcDbLine
 10
401.0000000000009
 20
1127.500000000178
 30
0.0
 11
335.9999999999966
 21
1127.500000000178
 31
0.0
  0
LINE
  5
3DC
330
1F
100
AcDbEntity
  8
LAY-10
  6
CONTINUOUS
 62
     7
100
AcDbLine
 10
335.9999999999966
 20
1132.000000000178
 30
0.0
 11
401.0000000000009
 21
1132.000000000178
 31
0.0
  0
LINE
  5
3DD
330
1F
100
AcDbEntity
  8
LAY-10
  6
CONTINUOUS
 62
     7
100
AcDbLine
 10
356.9999999999935
 20
1132.000000000178
 30
0.0
 11
356.9999999999935
 21
1138.000000000178
 31
0.0
  0
LINE
  5
3DE
330
1F
100
AcDbEntity
  8
LAY-10
  6
CONTINUOUS
 62
     7
100
AcDbLine
 10
350.9999999999937
 20
1132.000000000178
 30
0.0
 11
350.9999999999937
 21
1138.000000000178
 31
0.0
  0
LINE
  5
3DF
330
1F
100
AcDbEntity
  8
LAY-10
  6
CONTINUOUS
 62
     7
100
AcDbLine
 10
848.999999999983
 20
996.5000000000424
 30
0.0
 11
848.999999999983
 21
986.000000000042
 31
0.0
  0
LINE
  5
3E0
330
1F
100
AcDbEntity
  8
LAY-10
  6
CONTINUOUS
 62
     7
100
AcDbLine
 10
854.9999999999839
 20
992.0000000000425
 30
0.0
 11
854.9999999999839
 21
986.000000000042
 31
0.0
  0
LINE
  5
3E1
330
1F
100
AcDbEntity
  8
LAY-10
  6
CONTINUOUS
 62
     7
100
AcDbLine
 10
848.9999999999793
 20
996.5000000000424
 30
0.0
 11
913.9999999999836
 21
996.5000000000422
 31
0.0
  0
LINE
  5
3E2
330
1F
100
AcDbEntity
  8
LAY-10
  6
CONTINUOUS
 62
     7
100
AcDbLine
 10
913.9999999999835
 20
992.0000000000422
 30
0.0
 11
848.9999999999793
 21
992.0000000000425
 31
0.0
  0
LINE
  5
3E3
330
1F
100
AcDbEntity
  8
LAY-10
  6
CONTINUOUS
 62
     7
100
AcDbLine
 10
892.9999999999866
 20
992.0000000000425
 30
0.0
 11
892.9999999999866
 21
986.000000000042
 31
0.0
  0
LINE
  5
3E4
330
1F
100
AcDbEntity
  8
LAY-10
  6
CONTINUOUS
 62
     7
100
AcDbLine
 10
898.9999999999865
 20
992.0000000000425
 30
0.0
 11
898.9999999999865
 21
986.000000000042
 31
0.0
  0
LINE
  5
3E5
330
1F
100
AcDbEntity
  8
LAY-10
  6
CONTINUOUS
 62
     7
100
AcDbLine
 10
849.0000000000097
 20
1127.500000000178
 30
0.0
 11
849.0000000000097
 21
1138.000000000178
 31
0.0
  0
LINE
  5
3E6
330
1F
100
AcDbEntity
  8
LAY-10
  6
CONTINUOUS
 62
     7
100
AcDbLine
 10
855.0000000000105
 20
1132.000000000178
 30
0.0
 11
855.0000000000105
 21
1138.000000000178
 31
0.0
  0
LINE
  5
3E7
330
1F
100
AcDbEntity
  8
LAY-10
  6
CONTINUOUS
 62
     7
100
AcDbLine
 10
849.000000000006
 20
1127.500000000178
 30
0.0
 11
914.0000000000102
 21
1127.500000000178
 31
0.0
  0
LINE
  5
3E8
330
1F
100
AcDbEntity
  8
LAY-10
  6
CONTINUOUS
 62
     7
100
AcDbLine
 10
914.0000000000102
 20
1132.000000000178
 30
0.0
 11
849.000000000006
 21
1132.000000000178
 31
0.0
  0
LINE
  5
3E9
330
1F
100
AcDbEntity
  8
LAY-10
  6
CONTINUOUS
 62
     7
100
AcDbLine
 10
893.0000000000132
 20
1132.000000000178
 30
0.0
 11
893.0000000000132
 21
1138.000000000178
 31
0.0
  0
LINE
  5
3EA
330
1F
100
AcDbEntity
  8
LAY-10
  6
CONTINUOUS
 62
     7
100
AcDbLine
 10
899.0000000000132
 20
1132.000000000178
 30
0.0
 11
899.0000000000132
 21
1138.000000000178
 31
0.0
  0
LINE
  5
3EB
330
1F
100
AcDbEntity
  8
LAY-10
  6
CONTINUOUS
 62
     7
100
AcDbLine
 10
401.0000000000239
 20
996.5000000000424
 30
0.0
 11
401.0000000000239
 21
986.000000000042
 31
0.0
  0
LINE
  5
3EC
330
1F
100
AcDbEntity
  8
LAY-10
  6
CONTINUOUS
 62
     7
100
AcDbLine
 10
395.000000000023
 20
992.0000000000425
 30
0.0
 11
395.000000000023
 21
986.000000000042
 31
0.0
  0
LINE
  5
3ED
330
1F
100
AcDbEntity
  8
LAY-10
  6
CONTINUOUS
 62
     7
100
AcDbLine
 10
401.0000000000275
 20
996.5000000000424
 30
0.0
 11
336.0000000000231
 21
996.5000000000422
 31
0.0
  0
LINE
  5
3EE
330
1F
100
AcDbEntity
  8
LAY-10
  6
CONTINUOUS
 62
     7
100
AcDbLine
 10
336.0000000000233
 20
992.0000000000422
 30
0.0
 11
401.0000000000275
 21
992.0000000000425
 31
0.0
  0
LINE
  5
3EF
330
1F
100
AcDbEntity
  8
LAY-10
  6
CONTINUOUS
 62
     7
100
AcDbLine
 10
357.0000000000202
 20
992.0000000000425
 30
0.0
 11
357.0000000000202
 21
986.000000000042
 31
0.0
  0
LINE
  5
3F0
330
1F
100
AcDbEntity
  8
LAY-10
  6
CONTINUOUS
 62
     7
100
AcDbLine
 10
351.0000000000203
 20
992.0000000000425
 30
0.0
 11
351.0000000000203
 21
986.000000000042
 31
0.0
  0
LINE
  5
3F1
330
1F
100
AcDbEntity
  8
LAY-10
  6
CONTINUOUS
 62
     7
100
AcDbLine
 10
404.9999999999957
 20
1082.000000000084
 30
0.0
 11
404.9999999999957
 21
1042.000000000084
 31
0.0
  0
LINE
  5
3F2
330
1F
100
AcDbEntity
  8
LAY-10
  6
CONTINUOUS
 62
     7
100
AcDbLine
 10
444.9999999999961
 20
1082.000000000084
 30
0.0
 11
444.9999999999961
 21
1042.000000000084
 31
0.0
  0
LINE
  5
3F3
330
1F
100
AcDbEntity
  8
LAY-10
  6
CONTINUOUS
 62
     7
100
AcDbLine
 10
404.9999999999957
 20
1082.000000000084
 30
0.0
 11
444.9999999999961
 21
1082.000000000084
 31
0.0
  0
LINE
  5
3F4
330
1F
100
AcDbEntity
  8
LAY-10
  6
CONTINUOUS
 62
     7
100
AcDbLine
 10
404.9999999999957
 20
1074.500000000084
 30
0.0
 11
444.9999999999961
 21
1074.500000000084
 31
0.0
  0
LINE
  5
3F5
330
1F
100
AcDbEntity
  8
LAY-10
  6
CONTINUOUS
 62
     7
100
AcDbLine
 10
404.9999999999957
 20
1049.500000000084
 30
0.0
 11
444.9999999999961
 21
1049.500000000084
 31
0.0
  0
LINE
  5
3F6
330
1F
100
AcDbEntity
  8
LAY-10
  6
CONTINUOUS
 62
     7
100
AcDbLine
 10
404.9999999999957
 20
1042.000000000084
 30
0.0
 11
444.9999999999961
 21
1042.000000000084
 31
0.0
  0
LINE
  5
3F7
330
1F
100
AcDbEntity
  8
LAY-10
  6
CONTINUOUS
 62
     7
100
AcDbLine
 10
845.0000000000111
 20
1082.000000000084
 30
0.0
 11
845.0000000000111
 21
1042.000000000084
 31
0.0
  0
LINE
  5
3F8
330
1F
100
AcDbEntity
  8
LAY-10
  6
CONTINUOUS
 62
     7
100
AcDbLine
 10
805.0000000000108
 20
1082.000000000084
 30
0.0
 11
805.0000000000108
 21
1042.000000000084
 31
0.0
  0
LINE
  5
3F9
330
1F
100
AcDbEntity
  8
LAY-10
  6
CONTINUOUS
 62
     7
100
AcDbLine
 10
845.0000000000111
 20
1082.000000000084
 30
0.0
 11
805.0000000000108
 21
1082.000000000084
 31
0.0
  0
LINE
  5
3FA
330
1F
100
AcDbEntity
  8
LAY-10
  6
CONTINUOUS
 62
     7
100
AcDbLine
 10
845.0000000000111
 20
1074.500000000084
 30
0.0
 11
805.0000000000108
 21
1074.500000000084
 31
0.0
  0
LINE
  5
3FB
330
1F
100
AcDbEntity
  8
LAY-10
  6
CONTINUOUS
 62
     7
100
AcDbLine
 10
845.0000000000111
 20
1049.500000000084
 30
0.0
 11
805.0000000000108
 21
1049.500000000084
 31
0.0
  0
LINE
  5
3FC
330
1F
100
AcDbEntity
  8
LAY-10
  6
CONTINUOUS
 62
     7
100
AcDbLine
 10
845.0000000000111
 20
1042.000000000084
 30
0.0
 11
805.0000000000108
 21
1042.000000000084
 31
0.0
  0
LINE
  5
3FD
330
1F
100
AcDbEntity
  8
LAY-10
  6
CONTINUOUS
 62
     7
100
AcDbLine
 10
1175.000000000002
 20
1127.500000000202
 30
0.0
 11
1255.0
 21
1127.500000000202
 31
0.0
  0
LINE
  5
3FE
330
1F
100
AcDbEntity
  8
LAY-10
  6
CONTINUOUS
 62
     7
100
AcDbLine
 10
1175.000000000001
 20
996.5000000000418
 30
0.0
 11
1255.0
 21
996.5000000000418
 31
0.0
  0
LINE
  5
3FF
330
1F
100
AcDbEntity
  8
LAY-10
  6
CONTINUOUS
 62
     7
100
AcDbLine
 10
448.000000000007
 20
1216.750000000135
 30
0.0
 11
448.000000000007
 21
1211.750000000135
 31
0.0
  0
LINE
  5
400
330
1F
100
AcDbEntity
  8
LAY-10
  6
CONTINUOUS
 62
     7
100
AcDbLine
 10
448.000000000007
 20
1211.750000000135
 30
0.0
 11
443.000000000007
 21
1211.750000000135
 31
0.0
  0
LINE
  5
401
330
1F
100
AcDbEntity
  8
LAY-10
  6
CONTINUOUS
 62
     7
100
AcDbLine
 10
443.000000000007
 20
1211.250000000135
 30
0.0
 11
448.000000000007
 21
1211.250000000135
 31
0.0
  0
LINE
  5
402
330
1F
100
AcDbEntity
  8
LAY-10
  6
CONTINUOUS
 62
     7
100
AcDbLine
 10
443.000000000007
 20
1211.250000000135
 30
0.0
 11
443.000000000007
 21
1206.250000000135
 31
0.0
  0
LINE
  5
403
330
1F
100
AcDbEntity
  8
LAY-10
  6
CONTINUOUS
 62
     7
100
AcDbLine
 10
448.000000000007
 20
1211.250000000135
 30
0.0
 11
448.000000000007
 21
1206.250000000135
 31
0.0
  0
LINE
  5
404
330
1F
100
AcDbEntity
  8
LAY-10
  6
CONTINUOUS
 62
     7
100
AcDbLine
 10
448.000000000007
 20
1206.250000000135
 30
0.0
 11
443.000000000007
 21
1206.250000000135
 31
0.0
  0
LINE
  5
405
330
1F
100
AcDbEntity
  8
LAY-10
  6
CONTINUOUS
 62
     7
100
AcDbLine
 10
448.000000000007
 20
1216.750000000135
 30
0.0
 11
443.000000000007
 21
1211.750000000135
 31
0.0
  0
LINE
  5
406
330
1F
100
AcDbEntity
  8
LAY-10
  6
CONTINUOUS
 62
     7
100
AcDbLine
 10
448.000000000007
 20
1211.250000000135
 30
0.0
 11
443.000000000007
 21
1206.250000000135
 31
0.0
  0
LINE
  5
407
330
1F
100
AcDbEntity
  8
LAY-10
  6
CONTINUOUS
 62
     7
100
AcDbLine
 10
443.000000000007
 20
1211.250000000135
 30
0.0
 11
448.000000000007
 21
1206.250000000135
 31
0.0
  0
LINE
  5
408
330
1F
100
AcDbEntity
  8
LAY-10
  6
CONTINUOUS
 62
     7
100
AcDbLine
 10
437.500000000007
 20
1211.250000000135
 30
0.0
 11
442.500000000007
 21
1206.250000000135
 31
0.0
  0
LINE
  5
409
330
1F
100
AcDbEntity
  8
LAY-10
  6
CONTINUOUS
 62
     7
100
AcDbLine
 10
442.500000000007
 20
1211.250000000135
 30
0.0
 11
437.500000000007
 21
1206.250000000135
 31
0.0
  0
LINE
  5
40A
330
1F
100
AcDbEntity
  8
LAY-10
  6
CONTINUOUS
 62
     7
100
AcDbLine
 10
442.500000000007
 20
1206.250000000135
 30
0.0
 11
437.500000000007
 21
1206.250000000135
 31
0.0
  0
LINE
  5
40B
330
1F
100
AcDbEntity
  8
LAY-10
  6
CONTINUOUS
 62
     7
100
AcDbLine
 10
442.500000000007
 20
1211.250000000135
 30
0.0
 11
442.500000000007
 21
1206.250000000135
 31
0.0
  0
LINE
  5
40C
330
1F
100
AcDbEntity
  8
LAY-10
  6
CONTINUOUS
 62
     7
100
AcDbLine
 10
437.500000000007
 20
1211.250000000135
 30
0.0
 11
437.500000000007
 21
1206.250000000135
 31
0.0
  0
LINE
  5
40D
330
1F
100
AcDbEntity
  8
LAY-10
  6
CONTINUOUS
 62
     7
100
AcDbLine
 10
437.500000000007
 20
1211.250000000135
 30
0.0
 11
442.500000000007
 21
1211.250000000135
 31
0.0
  0
LINE
  5
40E
330
1F
100
AcDbEntity
  8
LAY-10
  6
CONTINUOUS
 62
     7
100
AcDbLine
 10
442.500000000007
 20
1211.750000000135
 30
0.0
 11
437.500000000007
 21
1211.750000000135
 31
0.0
  0
LINE
  5
40F
330
1F
100
AcDbEntity
  8
LAY-10
  6
CONTINUOUS
 62
     7
100
AcDbLine
 10
448.000000000007
 20
1196.750000000145
 30
0.0
 11
448.000000000007
 21
1191.750000000145
 31
0.0
  0
LINE
  5
410
330
1F
100
AcDbEntity
  8
LAY-10
  6
CONTINUOUS
 62
     7
100
AcDbLine
 10
448.000000000007
 20
1196.750000000145
 30
0.0
 11
443.000000000007
 21
1196.750000000145
 31
0.0
  0
LINE
  5
411
330
1F
100
AcDbEntity
  8
LAY-10
  6
CONTINUOUS
 62
     7
100
AcDbLine
 10
448.000000000007
 20
1191.750000000145
 30
0.0
 11
443.000000000007
 21
1191.750000000145
 31
0.0
  0
LINE
  5
412
330
1F
100
AcDbEntity
  8
LAY-10
  6
CONTINUOUS
 62
     7
100
AcDbLine
 10
443.000000000007
 20
1191.750000000145
 30
0.0
 11
443.000000000007
 21
1196.750000000145
 31
0.0
  0
LINE
  5
413
330
1F
100
AcDbEntity
  8
LAY-10
  6
CONTINUOUS
 62
     7
100
AcDbLine
 10
443.000000000007
 20
1191.250000000145
 30
0.0
 11
448.000000000007
 21
1191.250000000145
 31
0.0
  0
LINE
  5
414
330
1F
100
AcDbEntity
  8
LAY-10
  6
CONTINUOUS
 62
     7
100
AcDbLine
 10
443.000000000007
 20
1191.250000000145
 30
0.0
 11
443.000000000007
 21
1186.250000000145
 31
0.0
  0
LINE
  5
415
330
1F
100
AcDbEntity
  8
LAY-10
  6
CONTINUOUS
 62
     7
100
AcDbLine
 10
448.000000000007
 20
1191.250000000145
 30
0.0
 11
448.000000000007
 21
1186.250000000145
 31
0.0
  0
LINE
  5
416
330
1F
100
AcDbEntity
  8
LAY-10
  6
CONTINUOUS
 62
     7
100
AcDbLine
 10
448.000000000007
 20
1186.250000000145
 30
0.0
 11
443.000000000007
 21
1186.250000000145
 31
0.0
  0
LINE
  5
417
330
1F
100
AcDbEntity
  8
LAY-10
  6
CONTINUOUS
 62
     7
100
AcDbLine
 10
448.000000000007
 20
1196.750000000145
 30
0.0
 11
443.000000000007
 21
1191.750000000145
 31
0.0
  0
LINE
  5
418
330
1F
100
AcDbEntity
  8
LAY-10
  6
CONTINUOUS
 62
     7
100
AcDbLine
 10
448.000000000007
 20
1191.250000000145
 30
0.0
 11
443.000000000007
 21
1186.250000000145
 31
0.0
  0
LINE
  5
419
330
1F
100
AcDbEntity
  8
LAY-10
  6
CONTINUOUS
 62
     7
100
AcDbLine
 10
443.000000000007
 20
1196.750000000145
 30
0.0
 11
448.000000000007
 21
1191.750000000145
 31
0.0
  0
LINE
  5
41A
330
1F
100
AcDbEntity
  8
LAY-10
  6
CONTINUOUS
 62
     7
100
AcDbLine
 10
443.000000000007
 20
1191.250000000145
 30
0.0
 11
448.000000000007
 21
1186.250000000145
 31
0.0
  0
LINE
  5
41B
330
1F
100
AcDbEntity
  8
LAY-10
  6
CONTINUOUS
 62
     7
100
AcDbLine
 10
437.500000000007
 20
1191.250000000145
 30
0.0
 11
442.500000000007
 21
1186.250000000145
 31
0.0
  0
LINE
  5
41C
330
1F
100
AcDbEntity
  8
LAY-10
  6
CONTINUOUS
 62
     7
100
AcDbLine
 10
437.500000000007
 20
1196.750000000145
 30
0.0
 11
442.500000000007
 21
1191.750000000145
 31
0.0
  0
LINE
  5
41D
330
1F
100
AcDbEntity
  8
LAY-10
  6
CONTINUOUS
 62
     7
100
AcDbLine
 10
442.500000000007
 20
1191.250000000145
 30
0.0
 11
437.500000000007
 21
1186.250000000145
 31
0.0
  0
LINE
  5
41E
330
1F
100
AcDbEntity
  8
LAY-10
  6
CONTINUOUS
 62
     7
100
AcDbLine
 10
442.500000000007
 20
1196.750000000145
 30
0.0
 11
437.500000000007
 21
1191.750000000145
 31
0.0
  0
LINE
  5
41F
330
1F
100
AcDbEntity
  8
LAY-10
  6
CONTINUOUS
 62
     7
100
AcDbLine
 10
442.500000000007
 20
1186.250000000145
 30
0.0
 11
437.500000000007
 21
1186.250000000145
 31
0.0
  0
LINE
  5
420
330
1F
100
AcDbEntity
  8
LAY-10
  6
CONTINUOUS
 62
     7
100
AcDbLine
 10
442.500000000007
 20
1191.250000000145
 30
0.0
 11
442.500000000007
 21
1186.250000000145
 31
0.0
  0
LINE
  5
421
330
1F
100
AcDbEntity
  8
LAY-10
  6
CONTINUOUS
 62
     7
100
AcDbLine
 10
437.500000000007
 20
1191.250000000145
 30
0.0
 11
437.500000000007
 21
1186.250000000145
 31
0.0
  0
LINE
  5
422
330
1F
100
AcDbEntity
  8
LAY-10
  6
CONTINUOUS
 62
     7
100
AcDbLine
 10
437.500000000007
 20
1191.250000000145
 30
0.0
 11
442.500000000007
 21
1191.250000000145
 31
0.0
  0
LINE
  5
423
330
1F
100
AcDbEntity
  8
LAY-10
  6
CONTINUOUS
 62
     7
100
AcDbLine
 10
437.500000000007
 20
1191.750000000145
 30
0.0
 11
437.500000000007
 21
1196.750000000145
 31
0.0
  0
LINE
  5
424
330
1F
100
AcDbEntity
  8
LAY-10
  6
CONTINUOUS
 62
     7
100
AcDbLine
 10
442.500000000007
 20
1191.750000000145
 30
0.0
 11
437.500000000007
 21
1191.750000000145
 31
0.0
  0
LINE
  5
425
330
1F
100
AcDbEntity
  8
LAY-10
  6
CONTINUOUS
 62
     7
100
AcDbLine
 10
442.500000000007
 20
1196.750000000145
 30
0.0
 11
437.500000000007
 21
1196.750000000145
 31
0.0
  0
LINE
  5
426
330
1F
100
AcDbEntity
  8
LAY-10
  6
CONTINUOUS
 62
     7
100
AcDbLine
 10
442.500000000007
 20
1196.750000000145
 30
0.0
 11
442.500000000007
 21
1191.750000000145
 31
0.0
  0
LINE
  5
427
330
1F
100
AcDbEntity
  8
LAY-10
  6
CONTINUOUS
 62
     7
100
AcDbLine
 10
448.000000000007
 20
1166.249999999946
 30
0.0
 11
448.000000000007
 21
1171.249999999946
 31
0.0
  0
LINE
  5
428
330
1F
100
AcDbEntity
  8
LAY-10
  6
CONTINUOUS
 62
     7
100
AcDbLine
 10
448.000000000007
 20
1166.249999999946
 30
0.0
 11
443.000000000007
 21
1166.249999999946
 31
0.0
  0
LINE
  5
429
330
1F
100
AcDbEntity
  8
LAY-10
  6
CONTINUOUS
 62
     7
100
AcDbLine
 10
448.000000000007
 20
1171.249999999946
 30
0.0
 11
443.000000000007
 21
1171.249999999946
 31
0.0
  0
LINE
  5
42A
330
1F
100
AcDbEntity
  8
LAY-10
  6
CONTINUOUS
 62
     7
100
AcDbLine
 10
443.000000000007
 20
1171.249999999946
 30
0.0
 11
443.000000000007
 21
1166.249999999946
 31
0.0
  0
LINE
  5
42B
330
1F
100
AcDbEntity
  8
LAY-10
  6
CONTINUOUS
 62
     7
100
AcDbLine
 10
443.000000000007
 20
1171.749999999946
 30
0.0
 11
448.000000000007
 21
1171.749999999946
 31
0.0
  0
LINE
  5
42C
330
1F
100
AcDbEntity
  8
LAY-10
  6
CONTINUOUS
 62
     7
100
AcDbLine
 10
443.000000000007
 20
1171.749999999946
 30
0.0
 11
443.000000000007
 21
1176.749999999946
 31
0.0
  0
LINE
  5
42D
330
1F
100
AcDbEntity
  8
LAY-10
  6
CONTINUOUS
 62
     7
100
AcDbLine
 10
448.000000000007
 20
1171.749999999946
 30
0.0
 11
448.000000000007
 21
1176.749999999946
 31
0.0
  0
LINE
  5
42E
330
1F
100
AcDbEntity
  8
LAY-10
  6
CONTINUOUS
 62
     7
100
AcDbLine
 10
448.000000000007
 20
1176.749999999946
 30
0.0
 11
443.000000000007
 21
1176.749999999946
 31
0.0
  0
LINE
  5
42F
330
1F
100
AcDbEntity
  8
LAY-10
  6
CONTINUOUS
 62
     7
100
AcDbLine
 10
448.000000000007
 20
1166.249999999946
 30
0.0
 11
443.000000000007
 21
1171.249999999946
 31
0.0
  0
LINE
  5
430
330
1F
100
AcDbEntity
  8
LAY-10
  6
CONTINUOUS
 62
     7
100
AcDbLine
 10
448.000000000007
 20
1171.749999999946
 30
0.0
 11
443.000000000007
 21
1176.749999999946
 31
0.0
  0
LINE
  5
431
330
1F
100
AcDbEntity
  8
LAY-10
  6
CONTINUOUS
 62
     7
100
AcDbLine
 10
443.000000000007
 20
1166.249999999946
 30
0.0
 11
448.000000000007
 21
1171.249999999946
 31
0.0
  0
LINE
  5
432
330
1F
100
AcDbEntity
  8
LAY-10
  6
CONTINUOUS
 62
     7
100
AcDbLine
 10
443.000000000007
 20
1171.749999999946
 30
0.0
 11
448.000000000007
 21
1176.749999999946
 31
0.0
  0
LINE
  5
433
330
1F
100
AcDbEntity
  8
LAY-10
  6
CONTINUOUS
 62
     7
100
AcDbLine
 10
437.500000000007
 20
1171.749999999946
 30
0.0
 11
442.500000000007
 21
1176.749999999946
 31
0.0
  0
LINE
  5
434
330
1F
100
AcDbEntity
  8
LAY-10
  6
CONTINUOUS
 62
     7
100
AcDbLine
 10
442.500000000007
 20
1171.749999999946
 30
0.0
 11
437.500000000007
 21
1176.749999999946
 31
0.0
  0
LINE
  5
435
330
1F
100
AcDbEntity
  8
LAY-10
  6
CONTINUOUS
 62
     7
100
AcDbLine
 10
442.500000000007
 20
1166.249999999946
 30
0.0
 11
437.500000000007
 21
1171.249999999946
 31
0.0
  0
LINE
  5
436
330
1F
100
AcDbEntity
  8
LAY-10
  6
CONTINUOUS
 62
     7
100
AcDbLine
 10
442.500000000007
 20
1176.749999999946
 30
0.0
 11
437.500000000007
 21
1176.749999999946
 31
0.0
  0
LINE
  5
437
330
1F
100
AcDbEntity
  8
LAY-10
  6
CONTINUOUS
 62
     7
100
AcDbLine
 10
442.500000000007
 20
1171.749999999946
 30
0.0
 11
442.500000000007
 21
1176.749999999946
 31
0.0
  0
LINE
  5
438
330
1F
100
AcDbEntity
  8
LAY-10
  6
CONTINUOUS
 62
     7
100
AcDbLine
 10
437.500000000007
 20
1171.749999999946
 30
0.0
 11
437.500000000007
 21
1176.749999999946
 31
0.0
  0
LINE
  5
439
330
1F
100
AcDbEntity
  8
LAY-10
  6
CONTINUOUS
 62
     7
100
AcDbLine
 10
437.500000000007
 20
1171.749999999946
 30
0.0
 11
442.500000000007
 21
1171.749999999946
 31
0.0
  0
LINE
  5
43A
330
1F
100
AcDbEntity
  8
LAY-10
  6
CONTINUOUS
 62
     7
100
AcDbLine
 10
442.500000000007
 20
1171.249999999946
 30
0.0
 11
437.500000000007
 21
1171.249999999946
 31
0.0
  0
LINE
  5
43B
330
1F
100
AcDbEntity
  8
LAY-10
  6
CONTINUOUS
 62
     7
100
AcDbLine
 10
442.500000000007
 20
1166.249999999946
 30
0.0
 11
442.500000000007
 21
1171.249999999946
 31
0.0
  0
LINE
  5
43C
330
1F
100
AcDbEntity
  8
LAY-10
  6
CONTINUOUS
 62
     7
100
AcDbLine
 10
437.000000000007
 20
1211.250000000135
 30
0.0
 11
437.000000000007
 21
1206.250000000135
 31
0.0
  0
LINE
  5
43D
330
1F
100
AcDbEntity
  8
LAY-10
  6
CONTINUOUS
 62
     7
100
AcDbLine
 10
437.000000000007
 20
1206.250000000135
 30
0.0
 11
432.000000000007
 21
1206.250000000135
 31
0.0
  0
LINE
  5
43E
330
1F
100
AcDbEntity
  8
LAY-10
  6
CONTINUOUS
 62
     7
100
AcDbLine
 10
437.000000000007
 20
1211.250000000135
 30
0.0
 11
432.000000000007
 21
1206.250000000135
 31
0.0
  0
LINE
  5
43F
330
1F
100
AcDbEntity
  8
LAY-10
  6
CONTINUOUS
 62
     7
100
AcDbLine
 10
437.000000000007
 20
1196.750000000145
 30
0.0
 11
437.000000000007
 21
1191.750000000145
 31
0.0
  0
LINE
  5
440
330
1F
100
AcDbEntity
  8
LAY-10
  6
CONTINUOUS
 62
     7
100
AcDbLine
 10
437.000000000007
 20
1196.750000000145
 30
0.0
 11
432.000000000007
 21
1196.750000000145
 31
0.0
  0
LINE
  5
441
330
1F
100
AcDbEntity
  8
LAY-10
  6
CONTINUOUS
 62
     7
100
AcDbLine
 10
437.000000000007
 20
1191.750000000145
 30
0.0
 11
432.000000000007
 21
1191.750000000145
 31
0.0
  0
LINE
  5
442
330
1F
100
AcDbEntity
  8
LAY-10
  6
CONTINUOUS
 62
     7
100
AcDbLine
 10
432.000000000007
 20
1191.750000000145
 30
0.0
 11
432.000000000007
 21
1196.750000000145
 31
0.0
  0
LINE
  5
443
330
1F
100
AcDbEntity
  8
LAY-10
  6
CONTINUOUS
 62
     7
100
AcDbLine
 10
431.500000000007
 20
1196.750000000145
 30
0.0
 11
431.500000000007
 21
1191.750000000145
 31
0.0
  0
LINE
  5
444
330
1F
100
AcDbEntity
  8
LAY-10
  6
CONTINUOUS
 62
     7
100
AcDbLine
 10
431.500000000007
 20
1196.750000000145
 30
0.0
 11
426.500000000007
 21
1196.750000000145
 31
0.0
  0
LINE
  5
445
330
1F
100
AcDbEntity
  8
LAY-10
  6
CONTINUOUS
 62
     7
100
AcDbLine
 10
431.500000000007
 20
1191.750000000145
 30
0.0
 11
426.500000000007
 21
1191.750000000145
 31
0.0
  0
LINE
  5
446
330
1F
100
AcDbEntity
  8
LAY-10
  6
CONTINUOUS
 62
     7
100
AcDbLine
 10
426.500000000007
 20
1191.750000000145
 30
0.0
 11
426.500000000007
 21
1196.750000000145
 31
0.0
  0
LINE
  5
447
330
1F
100
AcDbEntity
  8
LAY-10
  6
CONTINUOUS
 62
     7
100
AcDbLine
 10
426.000000000007
 20
1196.750000000145
 30
0.0
 11
426.000000000007
 21
1191.750000000145
 31
0.0
  0
LINE
  5
448
330
1F
100
AcDbEntity
  8
LAY-10
  6
CONTINUOUS
 62
     7
100
AcDbLine
 10
432.000000000007
 20
1191.250000000145
 30
0.0
 11
437.000000000007
 21
1191.250000000145
 31
0.0
  0
LINE
  5
449
330
1F
100
AcDbEntity
  8
LAY-10
  6
CONTINUOUS
 62
     7
100
AcDbLine
 10
432.000000000007
 20
1191.250000000145
 30
0.0
 11
432.000000000007
 21
1186.250000000145
 31
0.0
  0
LINE
  5
44A
330
1F
100
AcDbEntity
  8
LAY-10
  6
CONTINUOUS
 62
     7
100
AcDbLine
 10
437.000000000007
 20
1191.250000000145
 30
0.0
 11
437.000000000007
 21
1186.250000000145
 31
0.0
  0
LINE
  5
44B
330
1F
100
AcDbEntity
  8
LAY-10
  6
CONTINUOUS
 62
     7
100
AcDbLine
 10
437.000000000007
 20
1186.250000000145
 30
0.0
 11
432.000000000007
 21
1186.250000000145
 31
0.0
  0
LINE
  5
44C
330
1F
100
AcDbEntity
  8
LAY-10
  6
CONTINUOUS
 62
     7
100
AcDbLine
 10
426.500000000007
 20
1191.250000000145
 30
0.0
 11
431.500000000007
 21
1191.250000000145
 31
0.0
  0
LINE
  5
44D
330
1F
100
AcDbEntity
  8
LAY-10
  6
CONTINUOUS
 62
     7
100
AcDbLine
 10
426.500000000007
 20
1191.250000000145
 30
0.0
 11
426.500000000007
 21
1186.250000000145
 31
0.0
  0
LINE
  5
44E
330
1F
100
AcDbEntity
  8
LAY-10
  6
CONTINUOUS
 62
     7
100
AcDbLine
 10
431.500000000007
 20
1191.250000000145
 30
0.0
 11
431.500000000007
 21
1186.250000000145
 31
0.0
  0
LINE
  5
44F
330
1F
100
AcDbEntity
  8
LAY-10
  6
CONTINUOUS
 62
     7
100
AcDbLine
 10
431.500000000007
 20
1186.250000000145
 30
0.0
 11
426.500000000007
 21
1186.250000000145
 31
0.0
  0
LINE
  5
450
330
1F
100
AcDbEntity
  8
LAY-10
  6
CONTINUOUS
 62
     7
100
AcDbLine
 10
426.000000000007
 20
1191.250000000145
 30
0.0
 11
426.000000000007
 21
1186.250000000145
 31
0.0
  0
LINE
  5
451
330
1F
100
AcDbEntity
  8
LAY-10
  6
CONTINUOUS
 62
     7
100
AcDbLine
 10
437.000000000007
 20
1196.750000000145
 30
0.0
 11
432.000000000007
 21
1191.750000000145
 31
0.0
  0
LINE
  5
452
330
1F
100
AcDbEntity
  8
LAY-10
  6
CONTINUOUS
 62
     7
100
AcDbLine
 10
431.500000000007
 20
1196.750000000145
 30
0.0
 11
426.500000000007
 21
1191.750000000145
 31
0.0
  0
LINE
  5
453
330
1F
100
AcDbEntity
  8
LAY-10
  6
CONTINUOUS
 62
     7
100
AcDbLine
 10
437.000000000007
 20
1191.250000000145
 30
0.0
 11
432.000000000007
 21
1186.250000000145
 31
0.0
  0
LINE
  5
454
330
1F
100
AcDbEntity
  8
LAY-10
  6
CONTINUOUS
 62
     7
100
AcDbLine
 10
431.500000000007
 20
1191.250000000145
 30
0.0
 11
426.500000000007
 21
1186.250000000145
 31
0.0
  0
LINE
  5
455
330
1F
100
AcDbEntity
  8
LAY-10
  6
CONTINUOUS
 62
     7
100
AcDbLine
 10
432.000000000007
 20
1196.750000000145
 30
0.0
 11
437.000000000007
 21
1191.750000000145
 31
0.0
  0
LINE
  5
456
330
1F
100
AcDbEntity
  8
LAY-10
  6
CONTINUOUS
 62
     7
100
AcDbLine
 10
426.500000000007
 20
1196.750000000145
 30
0.0
 11
431.500000000007
 21
1191.750000000145
 31
0.0
  0
LINE
  5
457
330
1F
100
AcDbEntity
  8
LAY-10
  6
CONTINUOUS
 62
     7
100
AcDbLine
 10
426.500000000007
 20
1191.250000000145
 30
0.0
 11
431.500000000007
 21
1186.250000000145
 31
0.0
  0
LINE
  5
458
330
1F
100
AcDbEntity
  8
LAY-10
  6
CONTINUOUS
 62
     7
100
AcDbLine
 10
432.000000000007
 20
1191.250000000145
 30
0.0
 11
437.000000000007
 21
1186.250000000145
 31
0.0
  0
LINE
  5
459
330
1F
100
AcDbEntity
  8
LAY-10
  6
CONTINUOUS
 62
     7
100
AcDbLine
 10
432.000000000007
 20
1171.749999999946
 30
0.0
 11
437.000000000007
 21
1171.749999999946
 31
0.0
  0
LINE
  5
45A
330
1F
100
AcDbEntity
  8
LAY-10
  6
CONTINUOUS
 62
     7
100
AcDbLine
 10
432.000000000007
 20
1171.749999999946
 30
0.0
 11
432.000000000007
 21
1176.749999999946
 31
0.0
  0
LINE
  5
45B
330
1F
100
AcDbEntity
  8
LAY-10
  6
CONTINUOUS
 62
     7
100
AcDbLine
 10
437.000000000007
 20
1171.749999999946
 30
0.0
 11
437.000000000007
 21
1176.749999999946
 31
0.0
  0
LINE
  5
45C
330
1F
100
AcDbEntity
  8
LAY-10
  6
CONTINUOUS
 62
     7
100
AcDbLine
 10
437.000000000007
 20
1176.749999999946
 30
0.0
 11
432.000000000007
 21
1176.749999999946
 31
0.0
  0
LINE
  5
45D
330
1F
100
AcDbEntity
  8
LAY-10
  6
CONTINUOUS
 62
     7
100
AcDbLine
 10
437.000000000007
 20
1171.749999999946
 30
0.0
 11
432.000000000007
 21
1176.749999999946
 31
0.0
  0
LINE
  5
45E
330
1F
100
AcDbEntity
  8
LAY-10
  6
CONTINUOUS
 62
     7
100
AcDbLine
 10
432.000000000007
 20
1171.749999999946
 30
0.0
 11
437.000000000007
 21
1176.749999999946
 31
0.0
  0
LINE
  5
45F
330
1F
100
AcDbEntity
  8
LAY-10
  6
CONTINUOUS
 62
     7
100
AcDbLine
 10
470.0000000000069
 20
1171.249999999946
 30
0.0
 11
465.0000000000069
 21
1171.249999999946
 31
0.0
  0
LINE
  5
460
330
1F
100
AcDbEntity
  8
LAY-10
  6
CONTINUOUS
 62
     7
100
AcDbLine
 10
465.0000000000069
 20
1171.249999999946
 30
0.0
 11
465.0000000000069
 21
1166.249999999946
 31
0.0
  0
LINE
  5
461
330
1F
100
AcDbEntity
  8
LAY-10
  6
CONTINUOUS
 62
     7
100
AcDbLine
 10
470.5000000000069
 20
1171.749999999946
 30
0.0
 11
470.5000000000069
 21
1176.749999999946
 31
0.0
  0
LINE
  5
462
330
1F
100
AcDbEntity
  8
LAY-10
  6
CONTINUOUS
 62
     7
100
AcDbLine
 10
475.5000000000069
 20
1176.749999999946
 30
0.0
 11
470.5000000000069
 21
1176.749999999946
 31
0.0
  0
LINE
  5
463
330
1F
100
AcDbEntity
  8
LAY-10
  6
CONTINUOUS
 62
     7
100
AcDbLine
 10
465.0000000000069
 20
1171.749999999946
 30
0.0
 11
470.0000000000069
 21
1171.749999999946
 31
0.0
  0
LINE
  5
464
330
1F
100
AcDbEntity
  8
LAY-10
  6
CONTINUOUS
 62
     7
100
AcDbLine
 10
465.0000000000069
 20
1171.749999999946
 30
0.0
 11
465.0000000000069
 21
1176.749999999946
 31
0.0
  0
LINE
  5
465
330
1F
100
AcDbEntity
  8
LAY-10
  6
CONTINUOUS
 62
     7
100
AcDbLine
 10
470.0000000000069
 20
1171.749999999946
 30
0.0
 11
470.0000000000069
 21
1176.749999999946
 31
0.0
  0
LINE
  5
466
330
1F
100
AcDbEntity
  8
LAY-10
  6
CONTINUOUS
 62
     7
100
AcDbLine
 10
470.0000000000069
 20
1176.749999999946
 30
0.0
 11
465.0000000000069
 21
1176.749999999946
 31
0.0
  0
LINE
  5
467
330
1F
100
AcDbEntity
  8
LAY-10
  6
CONTINUOUS
 62
     7
100
AcDbLine
 10
470.0000000000069
 20
1171.749999999946
 30
0.0
 11
465.0000000000069
 21
1176.749999999946
 31
0.0
  0
LINE
  5
468
330
1F
100
AcDbEntity
  8
LAY-10
  6
CONTINUOUS
 62
     7
100
AcDbLine
 10
465.0000000000069
 20
1166.249999999946
 30
0.0
 11
470.0000000000069
 21
1171.249999999946
 31
0.0
  0
LINE
  5
469
330
1F
100
AcDbEntity
  8
LAY-10
  6
CONTINUOUS
 62
     7
100
AcDbLine
 10
465.0000000000069
 20
1171.749999999946
 30
0.0
 11
470.0000000000069
 21
1176.749999999946
 31
0.0
  0
LINE
  5
46A
330
1F
100
AcDbEntity
  8
LAY-10
  6
CONTINUOUS
 62
     7
100
AcDbLine
 10
470.5000000000069
 20
1171.749999999946
 30
0.0
 11
475.5000000000069
 21
1176.749999999946
 31
0.0
  0
LINE
  5
46B
330
1F
100
AcDbEntity
  8
LAY-10
  6
CONTINUOUS
 62
     7
100
AcDbLine
 10
459.5000000000069
 20
1171.749999999946
 30
0.0
 11
464.5000000000069
 21
1176.749999999946
 31
0.0
  0
LINE
  5
46C
330
1F
100
AcDbEntity
  8
LAY-10
  6
CONTINUOUS
 62
     7
100
AcDbLine
 10
459.5000000000069
 20
1166.249999999946
 30
0.0
 11
464.5000000000069
 21
1171.249999999946
 31
0.0
  0
LINE
  5
46D
330
1F
100
AcDbEntity
  8
LAY-10
  6
CONTINUOUS
 62
     7
100
AcDbLine
 10
464.5000000000069
 20
1171.749999999946
 30
0.0
 11
459.5000000000069
 21
1176.749999999946
 31
0.0
  0
LINE
  5
46E
330
1F
100
AcDbEntity
  8
LAY-10
  6
CONTINUOUS
 62
     7
100
AcDbLine
 10
464.5000000000069
 20
1166.249999999946
 30
0.0
 11
459.5000000000069
 21
1171.249999999946
 31
0.0
  0
LINE
  5
46F
330
1F
100
AcDbEntity
  8
LAY-10
  6
CONTINUOUS
 62
     7
100
AcDbLine
 10
464.5000000000069
 20
1176.749999999946
 30
0.0
 11
459.5000000000069
 21
1176.749999999946
 31
0.0
  0
LINE
  5
470
330
1F
100
AcDbEntity
  8
LAY-10
  6
CONTINUOUS
 62
     7
100
AcDbLine
 10
464.5000000000069
 20
1171.749999999946
 30
0.0
 11
464.5000000000069
 21
1176.749999999946
 31
0.0
  0
LINE
  5
471
330
1F
100
AcDbEntity
  8
LAY-10
  6
CONTINUOUS
 62
     7
100
AcDbLine
 10
459.5000000000069
 20
1171.749999999946
 30
0.0
 11
459.5000000000069
 21
1176.749999999946
 31
0.0
  0
LINE
  5
472
330
1F
100
AcDbEntity
  8
LAY-10
  6
CONTINUOUS
 62
     7
100
AcDbLine
 10
459.5000000000069
 20
1171.749999999946
 30
0.0
 11
464.5000000000069
 21
1171.749999999946
 31
0.0
  0
LINE
  5
473
330
1F
100
AcDbEntity
  8
LAY-10
  6
CONTINUOUS
 62
     7
100
AcDbLine
 10
459.5000000000069
 20
1171.249999999946
 30
0.0
 11
459.5000000000069
 21
1166.249999999946
 31
0.0
  0
LINE
  5
474
330
1F
100
AcDbEntity
  8
LAY-10
  6
CONTINUOUS
 62
     7
100
AcDbLine
 10
464.5000000000069
 20
1171.249999999946
 30
0.0
 11
459.5000000000069
 21
1171.249999999946
 31
0.0
  0
LINE
  5
475
330
1F
100
AcDbEntity
  8
LAY-10
  6
CONTINUOUS
 62
     7
100
AcDbLine
 10
464.5000000000069
 20
1166.249999999946
 30
0.0
 11
459.5000000000069
 21
1166.249999999946
 31
0.0
  0
LINE
  5
476
330
1F
100
AcDbEntity
  8
LAY-10
  6
CONTINUOUS
 62
     7
100
AcDbLine
 10
464.5000000000069
 20
1166.249999999946
 30
0.0
 11
464.5000000000069
 21
1171.249999999946
 31
0.0
  0
LINE
  5
477
330
1F
100
AcDbEntity
  8
LAY-10
  6
CONTINUOUS
 62
     7
100
AcDbLine
 10
459.0000000000069
 20
1166.249999999946
 30
0.0
 11
459.0000000000069
 21
1171.249999999946
 31
0.0
  0
LINE
  5
478
330
1F
100
AcDbEntity
  8
LAY-10
  6
CONTINUOUS
 62
     7
100
AcDbLine
 10
459.0000000000069
 20
1166.249999999946
 30
0.0
 11
454.0000000000069
 21
1166.249999999946
 31
0.0
  0
LINE
  5
479
330
1F
100
AcDbEntity
  8
LAY-10
  6
CONTINUOUS
 62
     7
100
AcDbLine
 10
459.0000000000069
 20
1171.249999999946
 30
0.0
 11
454.0000000000069
 21
1171.249999999946
 31
0.0
  0
LINE
  5
47A
330
1F
100
AcDbEntity
  8
LAY-10
  6
CONTINUOUS
 62
     7
100
AcDbLine
 10
454.0000000000069
 20
1171.249999999946
 30
0.0
 11
454.0000000000069
 21
1166.249999999946
 31
0.0
  0
LINE
  5
47B
330
1F
100
AcDbEntity
  8
LAY-10
  6
CONTINUOUS
 62
     7
100
AcDbLine
 10
453.500000000007
 20
1166.249999999946
 30
0.0
 11
453.500000000007
 21
1171.249999999946
 31
0.0
  0
LINE
  5
47C
330
1F
100
AcDbEntity
  8
LAY-10
  6
CONTINUOUS
 62
     7
100
AcDbLine
 10
453.500000000007
 20
1166.249999999946
 30
0.0
 11
448.500000000007
 21
1166.249999999946
 31
0.0
  0
LINE
  5
47D
330
1F
100
AcDbEntity
  8
LAY-10
  6
CONTINUOUS
 62
     7
100
AcDbLine
 10
453.500000000007
 20
1171.249999999946
 30
0.0
 11
448.500000000007
 21
1171.249999999946
 31
0.0
  0
LINE
  5
47E
330
1F
100
AcDbEntity
  8
LAY-10
  6
CONTINUOUS
 62
     7
100
AcDbLine
 10
448.500000000007
 20
1171.249999999946
 30
0.0
 11
448.500000000007
 21
1166.249999999946
 31
0.0
  0
LINE
  5
47F
330
1F
100
AcDbEntity
  8
LAY-10
  6
CONTINUOUS
 62
     7
100
AcDbLine
 10
454.0000000000069
 20
1171.749999999946
 30
0.0
 11
459.0000000000069
 21
1171.749999999946
 31
0.0
  0
LINE
  5
480
330
1F
100
AcDbEntity
  8
LAY-10
  6
CONTINUOUS
 62
     7
100
AcDbLine
 10
454.0000000000069
 20
1171.749999999946
 30
0.0
 11
454.0000000000069
 21
1176.749999999946
 31
0.0
  0
LINE
  5
481
330
1F
100
AcDbEntity
  8
LAY-10
  6
CONTINUOUS
 62
     7
100
AcDbLine
 10
459.0000000000069
 20
1171.749999999946
 30
0.0
 11
459.0000000000069
 21
1176.749999999946
 31
0.0
  0
LINE
  5
482
330
1F
100
AcDbEntity
  8
LAY-10
  6
CONTINUOUS
 62
     7
100
AcDbLine
 10
459.0000000000069
 20
1176.749999999946
 30
0.0
 11
454.0000000000069
 21
1176.749999999946
 31
0.0
  0
LINE
  5
483
330
1F
100
AcDbEntity
  8
LAY-10
  6
CONTINUOUS
 62
     7
100
AcDbLine
 10
448.500000000007
 20
1171.749999999946
 30
0.0
 11
453.500000000007
 21
1171.749999999946
 31
0.0
  0
LINE
  5
484
330
1F
100
AcDbEntity
  8
LAY-10
  6
CONTINUOUS
 62
     7
100
AcDbLine
 10
448.500000000007
 20
1171.749999999946
 30
0.0
 11
448.500000000007
 21
1176.749999999946
 31
0.0
  0
LINE
  5
485
330
1F
100
AcDbEntity
  8
LAY-10
  6
CONTINUOUS
 62
     7
100
AcDbLine
 10
453.500000000007
 20
1171.749999999946
 30
0.0
 11
453.500000000007
 21
1176.749999999946
 31
0.0
  0
LINE
  5
486
330
1F
100
AcDbEntity
  8
LAY-10
  6
CONTINUOUS
 62
     7
100
AcDbLine
 10
453.500000000007
 20
1176.749999999946
 30
0.0
 11
448.500000000007
 21
1176.749999999946
 31
0.0
  0
LINE
  5
487
330
1F
100
AcDbEntity
  8
LAY-10
  6
CONTINUOUS
 62
     7
100
AcDbLine
 10
459.0000000000069
 20
1166.249999999946
 30
0.0
 11
454.0000000000069
 21
1171.249999999946
 31
0.0
  0
LINE
  5
488
330
1F
100
AcDbEntity
  8
LAY-10
  6
CONTINUOUS
 62
     7
100
AcDbLine
 10
453.500000000007
 20
1166.249999999946
 30
0.0
 11
448.500000000007
 21
1171.249999999946
 31
0.0
  0
LINE
  5
489
330
1F
100
AcDbEntity
  8
LAY-10
  6
CONTINUOUS
 62
     7
100
AcDbLine
 10
459.0000000000069
 20
1171.749999999946
 30
0.0
 11
454.0000000000069
 21
1176.749999999946
 31
0.0
  0
LINE
  5
48A
330
1F
100
AcDbEntity
  8
LAY-10
  6
CONTINUOUS
 62
     7
100
AcDbLine
 10
453.500000000007
 20
1171.749999999946
 30
0.0
 11
448.500000000007
 21
1176.749999999946
 31
0.0
  0
LINE
  5
48B
330
1F
100
AcDbEntity
  8
LAY-10
  6
CONTINUOUS
 62
     7
100
AcDbLine
 10
454.0000000000069
 20
1166.249999999946
 30
0.0
 11
459.0000000000069
 21
1171.249999999946
 31
0.0
  0
LINE
  5
48C
330
1F
100
AcDbEntity
  8
LAY-10
  6
CONTINUOUS
 62
     7
100
AcDbLine
 10
448.500000000007
 20
1166.249999999946
 30
0.0
 11
453.500000000007
 21
1171.249999999946
 31
0.0
  0
LINE
  5
48D
330
1F
100
AcDbEntity
  8
LAY-10
  6
CONTINUOUS
 62
     7
100
AcDbLine
 10
448.500000000007
 20
1171.749999999946
 30
0.0
 11
453.500000000007
 21
1176.749999999946
 31
0.0
  0
LINE
  5
48E
330
1F
100
AcDbEntity
  8
LAY-10
  6
CONTINUOUS
 62
     7
100
AcDbLine
 10
454.0000000000069
 20
1171.749999999946
 30
0.0
 11
459.0000000000069
 21
1176.749999999946
 31
0.0
  0
LINE
  5
48F
330
1F
100
AcDbEntity
  8
LAY-10
  6
CONTINUOUS
 62
     7
100
AcDbLine
 10
481.0000000000069
 20
1186.250000000146
 30
0.0
 11
481.0000000000069
 21
1191.250000000146
 31
0.0
  0
LINE
  5
490
330
1F
100
AcDbEntity
  8
LAY-10
  6
CONTINUOUS
 62
     7
100
AcDbLine
 10
481.0000000000069
 20
1186.250000000146
 30
0.0
 11
476.0000000000069
 21
1186.250000000146
 31
0.0
  0
LINE
  5
491
330
1F
100
AcDbEntity
  8
LAY-10
  6
CONTINUOUS
 62
     7
100
AcDbLine
 10
481.0000000000069
 20
1191.250000000146
 30
0.0
 11
476.0000000000069
 21
1191.250000000146
 31
0.0
  0
LINE
  5
492
330
1F
100
AcDbEntity
  8
LAY-10
  6
CONTINUOUS
 62
     7
100
AcDbLine
 10
476.0000000000069
 20
1191.250000000146
 30
0.0
 11
476.0000000000069
 21
1186.250000000146
 31
0.0
  0
LINE
  5
493
330
1F
100
AcDbEntity
  8
LAY-10
  6
CONTINUOUS
 62
     7
100
AcDbLine
 10
475.5000000000069
 20
1186.250000000146
 30
0.0
 11
475.5000000000069
 21
1191.250000000146
 31
0.0
  0
LINE
  5
494
330
1F
100
AcDbEntity
  8
LAY-10
  6
CONTINUOUS
 62
     7
100
AcDbLine
 10
475.5000000000069
 20
1186.250000000146
 30
0.0
 11
470.5000000000069
 21
1186.250000000146
 31
0.0
  0
LINE
  5
495
330
1F
100
AcDbEntity
  8
LAY-10
  6
CONTINUOUS
 62
     7
100
AcDbLine
 10
475.5000000000069
 20
1191.250000000146
 30
0.0
 11
470.5000000000069
 21
1191.250000000146
 31
0.0
  0
LINE
  5
496
330
1F
100
AcDbEntity
  8
LAY-10
  6
CONTINUOUS
 62
     7
100
AcDbLine
 10
470.5000000000069
 20
1191.250000000146
 30
0.0
 11
470.5000000000069
 21
1186.250000000146
 31
0.0
  0
LINE
  5
497
330
1F
100
AcDbEntity
  8
LAY-10
  6
CONTINUOUS
 62
     7
100
AcDbLine
 10
470.0000000000069
 20
1186.250000000146
 30
0.0
 11
470.0000000000069
 21
1191.250000000146
 31
0.0
  0
LINE
  5
498
330
1F
100
AcDbEntity
  8
LAY-10
  6
CONTINUOUS
 62
     7
100
AcDbLine
 10
470.0000000000069
 20
1186.250000000146
 30
0.0
 11
465.0000000000069
 21
1186.250000000146
 31
0.0
  0
LINE
  5
499
330
1F
100
AcDbEntity
  8
LAY-10
  6
CONTINUOUS
 62
     7
100
AcDbLine
 10
470.0000000000069
 20
1191.250000000146
 30
0.0
 11
465.0000000000069
 21
1191.250000000146
 31
0.0
  0
LINE
  5
49A
330
1F
100
AcDbEntity
  8
LAY-10
  6
CONTINUOUS
 62
     7
100
AcDbLine
 10
465.0000000000069
 20
1191.250000000146
 30
0.0
 11
465.0000000000069
 21
1186.250000000146
 31
0.0
  0
LINE
  5
49B
330
1F
100
AcDbEntity
  8
LAY-10
  6
CONTINUOUS
 62
     7
100
AcDbLine
 10
476.0000000000069
 20
1191.750000000146
 30
0.0
 11
481.0000000000069
 21
1191.750000000146
 31
0.0
  0
LINE
  5
49C
330
1F
100
AcDbEntity
  8
LAY-10
  6
CONTINUOUS
 62
     7
100
AcDbLine
 10
476.0000000000069
 20
1191.750000000146
 30
0.0
 11
476.0000000000069
 21
1196.750000000146
 31
0.0
  0
LINE
  5
49D
330
1F
100
AcDbEntity
  8
LAY-10
  6
CONTINUOUS
 62
     7
100
AcDbLine
 10
470.5000000000069
 20
1191.750000000146
 30
0.0
 11
475.5000000000069
 21
1191.750000000146
 31
0.0
  0
LINE
  5
49E
330
1F
100
AcDbEntity
  8
LAY-10
  6
CONTINUOUS
 62
     7
100
AcDbLine
 10
470.5000000000069
 20
1191.750000000146
 30
0.0
 11
470.5000000000069
 21
1196.750000000146
 31
0.0
  0
LINE
  5
49F
330
1F
100
AcDbEntity
  8
LAY-10
  6
CONTINUOUS
 62
     7
100
AcDbLine
 10
475.5000000000069
 20
1191.750000000146
 30
0.0
 11
475.5000000000069
 21
1196.750000000146
 31
0.0
  0
LINE
  5
4A0
330
1F
100
AcDbEntity
  8
LAY-10
  6
CONTINUOUS
 62
     7
100
AcDbLine
 10
475.5000000000069
 20
1196.750000000146
 30
0.0
 11
470.5000000000069
 21
1196.750000000146
 31
0.0
  0
LINE
  5
4A1
330
1F
100
AcDbEntity
  8
LAY-10
  6
CONTINUOUS
 62
     7
100
AcDbLine
 10
465.0000000000069
 20
1191.750000000146
 30
0.0
 11
470.0000000000069
 21
1191.750000000146
 31
0.0
  0
LINE
  5
4A2
330
1F
100
AcDbEntity
  8
LAY-10
  6
CONTINUOUS
 62
     7
100
AcDbLine
 10
465.0000000000069
 20
1191.750000000146
 30
0.0
 11
465.0000000000069
 21
1196.750000000146
 31
0.0
  0
LINE
  5
4A3
330
1F
100
AcDbEntity
  8
LAY-10
  6
CONTINUOUS
 62
     7
100
AcDbLine
 10
470.0000000000069
 20
1191.750000000146
 30
0.0
 11
470.0000000000069
 21
1196.750000000146
 31
0.0
  0
LINE
  5
4A4
330
1F
100
AcDbEntity
  8
LAY-10
  6
CONTINUOUS
 62
     7
100
AcDbLine
 10
470.0000000000069
 20
1196.750000000146
 30
0.0
 11
465.0000000000069
 21
1196.750000000146
 31
0.0
  0
LINE
  5
4A5
330
1F
100
AcDbEntity
  8
LAY-10
  6
CONTINUOUS
 62
     7
100
AcDbLine
 10
481.0000000000069
 20
1186.250000000146
 30
0.0
 11
476.0000000000069
 21
1191.250000000146
 31
0.0
  0
LINE
  5
4A6
330
1F
100
AcDbEntity
  8
LAY-10
  6
CONTINUOUS
 62
     7
100
AcDbLine
 10
475.5000000000069
 20
1186.250000000146
 30
0.0
 11
470.5000000000069
 21
1191.250000000146
 31
0.0
  0
LINE
  5
4A7
330
1F
100
AcDbEntity
  8
LAY-10
  6
CONTINUOUS
 62
     7
100
AcDbLine
 10
470.0000000000069
 20
1186.250000000146
 30
0.0
 11
465.0000000000069
 21
1191.250000000146
 31
0.0
  0
LINE
  5
4A8
330
1F
100
AcDbEntity
  8
LAY-10
  6
CONTINUOUS
 62
     7
100
AcDbLine
 10
481.0000000000069
 20
1191.750000000146
 30
0.0
 11
476.0000000000069
 21
1196.750000000146
 31
0.0
  0
LINE
  5
4A9
330
1F
100
AcDbEntity
  8
LAY-10
  6
CONTINUOUS
 62
     7
100
AcDbLine
 10
475.5000000000069
 20
1191.750000000146
 30
0.0
 11
470.5000000000069
 21
1196.750000000146
 31
0.0
  0
LINE
  5
4AA
330
1F
100
AcDbEntity
  8
LAY-10
  6
CONTINUOUS
 62
     7
100
AcDbLine
 10
470.0000000000069
 20
1191.750000000146
 30
0.0
 11
465.0000000000069
 21
1196.750000000146
 31
0.0
  0
LINE
  5
4AB
330
1F
100
AcDbEntity
  8
LAY-10
  6
CONTINUOUS
 62
     7
100
AcDbLine
 10
476.0000000000069
 20
1186.250000000146
 30
0.0
 11
481.0000000000069
 21
1191.250000000146
 31
0.0
  0
LINE
  5
4AC
330
1F
100
AcDbEntity
  8
LAY-10
  6
CONTINUOUS
 62
     7
100
AcDbLine
 10
470.5000000000069
 20
1186.250000000146
 30
0.0
 11
475.5000000000069
 21
1191.250000000146
 31
0.0
  0
LINE
  5
4AD
330
1F
100
AcDbEntity
  8
LAY-10
  6
CONTINUOUS
 62
     7
100
AcDbLine
 10
465.0000000000069
 20
1186.250000000146
 30
0.0
 11
470.0000000000069
 21
1191.250000000146
 31
0.0
  0
LINE
  5
4AE
330
1F
100
AcDbEntity
  8
LAY-10
  6
CONTINUOUS
 62
     7
100
AcDbLine
 10
465.0000000000069
 20
1191.750000000146
 30
0.0
 11
470.0000000000069
 21
1196.750000000146
 31
0.0
  0
LINE
  5
4AF
330
1F
100
AcDbEntity
  8
LAY-10
  6
CONTINUOUS
 62
     7
100
AcDbLine
 10
470.5000000000069
 20
1191.750000000146
 30
0.0
 11
475.5000000000069
 21
1196.750000000146
 31
0.0
  0
LINE
  5
4B0
330
1F
100
AcDbEntity
  8
LAY-10
  6
CONTINUOUS
 62
     7
100
AcDbLine
 10
459.5000000000069
 20
1191.750000000146
 30
0.0
 11
464.5000000000069
 21
1196.750000000146
 31
0.0
  0
LINE
  5
4B1
330
1F
100
AcDbEntity
  8
LAY-10
  6
CONTINUOUS
 62
     7
100
AcDbLine
 10
459.5000000000069
 20
1186.250000000146
 30
0.0
 11
464.5000000000069
 21
1191.250000000146
 31
0.0
  0
LINE
  5
4B2
330
1F
100
AcDbEntity
  8
LAY-10
  6
CONTINUOUS
 62
     7
100
AcDbLine
 10
464.5000000000069
 20
1191.750000000146
 30
0.0
 11
459.5000000000069
 21
1196.750000000146
 31
0.0
  0
LINE
  5
4B3
330
1F
100
AcDbEntity
  8
LAY-10
  6
CONTINUOUS
 62
     7
100
AcDbLine
 10
464.5000000000069
 20
1186.250000000146
 30
0.0
 11
459.5000000000069
 21
1191.250000000146
 31
0.0
  0
LINE
  5
4B4
330
1F
100
AcDbEntity
  8
LAY-10
  6
CONTINUOUS
 62
     7
100
AcDbLine
 10
464.5000000000069
 20
1196.750000000146
 30
0.0
 11
459.5000000000069
 21
1196.750000000146
 31
0.0
  0
LINE
  5
4B5
330
1F
100
AcDbEntity
  8
LAY-10
  6
CONTINUOUS
 62
     7
100
AcDbLine
 10
464.5000000000069
 20
1191.750000000146
 30
0.0
 11
464.5000000000069
 21
1196.750000000146
 31
0.0
  0
LINE
  5
4B6
330
1F
100
AcDbEntity
  8
LAY-10
  6
CONTINUOUS
 62
     7
100
AcDbLine
 10
459.5000000000069
 20
1191.750000000146
 30
0.0
 11
459.5000000000069
 21
1196.750000000146
 31
0.0
  0
LINE
  5
4B7
330
1F
100
AcDbEntity
  8
LAY-10
  6
CONTINUOUS
 62
     7
100
AcDbLine
 10
459.5000000000069
 20
1191.750000000146
 30
0.0
 11
464.5000000000069
 21
1191.750000000146
 31
0.0
  0
LINE
  5
4B8
330
1F
100
AcDbEntity
  8
LAY-10
  6
CONTINUOUS
 62
     7
100
AcDbLine
 10
459.5000000000069
 20
1191.250000000146
 30
0.0
 11
459.5000000000069
 21
1186.250000000146
 31
0.0
  0
LINE
  5
4B9
330
1F
100
AcDbEntity
  8
LAY-10
  6
CONTINUOUS
 62
     7
100
AcDbLine
 10
464.5000000000069
 20
1191.250000000146
 30
0.0
 11
459.5000000000069
 21
1191.250000000146
 31
0.0
  0
LINE
  5
4BA
330
1F
100
AcDbEntity
  8
LAY-10
  6
CONTINUOUS
 62
     7
100
AcDbLine
 10
464.5000000000069
 20
1186.250000000146
 30
0.0
 11
459.5000000000069
 21
1186.250000000146
 31
0.0
  0
LINE
  5
4BB
330
1F
100
AcDbEntity
  8
LAY-10
  6
CONTINUOUS
 62
     7
100
AcDbLine
 10
464.5000000000069
 20
1186.250000000146
 30
0.0
 11
464.5000000000069
 21
1191.250000000146
 31
0.0
  0
LINE
  5
4BC
330
1F
100
AcDbEntity
  8
LAY-10
  6
CONTINUOUS
 62
     7
100
AcDbLine
 10
459.0000000000069
 20
1186.250000000146
 30
0.0
 11
459.0000000000069
 21
1191.250000000146
 31
0.0
  0
LINE
  5
4BD
330
1F
100
AcDbEntity
  8
LAY-10
  6
CONTINUOUS
 62
     7
100
AcDbLine
 10
459.0000000000069
 20
1186.250000000146
 30
0.0
 11
454.0000000000069
 21
1186.250000000146
 31
0.0
  0
LINE
  5
4BE
330
1F
100
AcDbEntity
  8
LAY-10
  6
CONTINUOUS
 62
     7
100
AcDbLine
 10
459.0000000000069
 20
1191.250000000146
 30
0.0
 11
454.0000000000069
 21
1191.250000000146
 31
0.0
  0
LINE
  5
4BF
330
1F
100
AcDbEntity
  8
LAY-10
  6
CONTINUOUS
 62
     7
100
AcDbLine
 10
454.0000000000069
 20
1191.250000000146
 30
0.0
 11
454.0000000000069
 21
1186.250000000146
 31
0.0
  0
LINE
  5
4C0
330
1F
100
AcDbEntity
  8
LAY-10
  6
CONTINUOUS
 62
     7
100
AcDbLine
 10
453.500000000007
 20
1186.250000000146
 30
0.0
 11
453.500000000007
 21
1191.250000000146
 31
0.0
  0
LINE
  5
4C1
330
1F
100
AcDbEntity
  8
LAY-10
  6
CONTINUOUS
 62
     7
100
AcDbLine
 10
453.500000000007
 20
1186.250000000146
 30
0.0
 11
448.500000000007
 21
1186.250000000146
 31
0.0
  0
LINE
  5
4C2
330
1F
100
AcDbEntity
  8
LAY-10
  6
CONTINUOUS
 62
     7
100
AcDbLine
 10
453.500000000007
 20
1191.250000000146
 30
0.0
 11
448.500000000007
 21
1191.250000000146
 31
0.0
  0
LINE
  5
4C3
330
1F
100
AcDbEntity
  8
LAY-10
  6
CONTINUOUS
 62
     7
100
AcDbLine
 10
448.500000000007
 20
1191.250000000146
 30
0.0
 11
448.500000000007
 21
1186.250000000146
 31
0.0
  0
LINE
  5
4C4
330
1F
100
AcDbEntity
  8
LAY-10
  6
CONTINUOUS
 62
     7
100
AcDbLine
 10
454.0000000000069
 20
1191.750000000146
 30
0.0
 11
459.0000000000069
 21
1191.750000000146
 31
0.0
  0
LINE
  5
4C5
330
1F
100
AcDbEntity
  8
LAY-10
  6
CONTINUOUS
 62
     7
100
AcDbLine
 10
454.0000000000069
 20
1191.750000000146
 30
0.0
 11
454.0000000000069
 21
1196.750000000146
 31
0.0
  0
LINE
  5
4C6
330
1F
100
AcDbEntity
  8
LAY-10
  6
CONTINUOUS
 62
     7
100
AcDbLine
 10
459.0000000000069
 20
1191.750000000146
 30
0.0
 11
459.0000000000069
 21
1196.750000000146
 31
0.0
  0
LINE
  5
4C7
330
1F
100
AcDbEntity
  8
LAY-10
  6
CONTINUOUS
 62
     7
100
AcDbLine
 10
459.0000000000069
 20
1196.750000000146
 30
0.0
 11
454.0000000000069
 21
1196.750000000146
 31
0.0
  0
LINE
  5
4C8
330
1F
100
AcDbEntity
  8
LAY-10
  6
CONTINUOUS
 62
     7
100
AcDbLine
 10
448.500000000007
 20
1191.750000000146
 30
0.0
 11
453.500000000007
 21
1191.750000000146
 31
0.0
  0
LINE
  5
4C9
330
1F
100
AcDbEntity
  8
LAY-10
  6
CONTINUOUS
 62
     7
100
AcDbLine
 10
448.500000000007
 20
1191.750000000146
 30
0.0
 11
448.500000000007
 21
1196.750000000146
 31
0.0
  0
LINE
  5
4CA
330
1F
100
AcDbEntity
  8
LAY-10
  6
CONTINUOUS
 62
     7
100
AcDbLine
 10
453.500000000007
 20
1191.750000000146
 30
0.0
 11
453.500000000007
 21
1196.750000000146
 31
0.0
  0
LINE
  5
4CB
330
1F
100
AcDbEntity
  8
LAY-10
  6
CONTINUOUS
 62
     7
100
AcDbLine
 10
453.500000000007
 20
1196.750000000146
 30
0.0
 11
448.500000000007
 21
1196.750000000146
 31
0.0
  0
LINE
  5
4CC
330
1F
100
AcDbEntity
  8
LAY-10
  6
CONTINUOUS
 62
     7
100
AcDbLine
 10
459.0000000000069
 20
1186.250000000146
 30
0.0
 11
454.0000000000069
 21
1191.250000000146
 31
0.0
  0
LINE
  5
4CD
330
1F
100
AcDbEntity
  8
LAY-10
  6
CONTINUOUS
 62
     7
100
AcDbLine
 10
453.500000000007
 20
1186.250000000146
 30
0.0
 11
448.500000000007
 21
1191.250000000146
 31
0.0
  0
LINE
  5
4CE
330
1F
100
AcDbEntity
  8
LAY-10
  6
CONTINUOUS
 62
     7
100
AcDbLine
 10
459.0000000000069
 20
1191.750000000146
 30
0.0
 11
454.0000000000069
 21
1196.750000000146
 31
0.0
  0
LINE
  5
4CF
330
1F
100
AcDbEntity
  8
LAY-10
  6
CONTINUOUS
 62
     7
100
AcDbLine
 10
453.500000000007
 20
1191.750000000146
 30
0.0
 11
448.500000000007
 21
1196.750000000146
 31
0.0
  0
LINE
  5
4D0
330
1F
100
AcDbEntity
  8
LAY-10
  6
CONTINUOUS
 62
     7
100
AcDbLine
 10
454.0000000000069
 20
1186.250000000146
 30
0.0
 11
459.0000000000069
 21
1191.250000000146
 31
0.0
  0
LINE
  5
4D1
330
1F
100
AcDbEntity
  8
LAY-10
  6
CONTINUOUS
 62
     7
100
AcDbLine
 10
448.500000000007
 20
1186.250000000146
 30
0.0
 11
453.500000000007
 21
1191.250000000146
 31
0.0
  0
LINE
  5
4D2
330
1F
100
AcDbEntity
  8
LAY-10
  6
CONTINUOUS
 62
     7
100
AcDbLine
 10
448.500000000007
 20
1191.750000000146
 30
0.0
 11
453.500000000007
 21
1196.750000000146
 31
0.0
  0
LINE
  5
4D3
330
1F
100
AcDbEntity
  8
LAY-10
  6
CONTINUOUS
 62
     7
100
AcDbLine
 10
454.0000000000069
 20
1191.750000000146
 30
0.0
 11
459.0000000000069
 21
1196.750000000146
 31
0.0
  0
LINE
  5
4D4
330
1F
100
AcDbEntity
  8
LAY-10
  6
CONTINUOUS
 62
     7
100
AcDbLine
 10
475.5000000000069
 20
1206.250000000136
 30
0.0
 11
470.5000000000069
 21
1206.250000000136
 31
0.0
  0
LINE
  5
4D5
330
1F
100
AcDbEntity
  8
LAY-10
  6
CONTINUOUS
 62
     7
100
AcDbLine
 10
470.5000000000069
 20
1211.250000000136
 30
0.0
 11
470.5000000000069
 21
1206.250000000136
 31
0.0
  0
LINE
  5
4D6
330
1F
100
AcDbEntity
  8
LAY-10
  6
CONTINUOUS
 62
     7
100
AcDbLine
 10
470.0000000000069
 20
1206.250000000136
 30
0.0
 11
470.0000000000069
 21
1211.250000000136
 31
0.0
  0
LINE
  5
4D7
330
1F
100
AcDbEntity
  8
LAY-10
  6
CONTINUOUS
 62
     7
100
AcDbLine
 10
470.0000000000069
 20
1206.250000000136
 30
0.0
 11
465.0000000000069
 21
1206.250000000136
 31
0.0
  0
LINE
  5
4D8
330
1F
100
AcDbEntity
  8
LAY-10
  6
CONTINUOUS
 62
     7
100
AcDbLine
 10
470.0000000000069
 20
1211.250000000136
 30
0.0
 11
465.0000000000069
 21
1211.250000000136
 31
0.0
  0
LINE
  5
4D9
330
1F
100
AcDbEntity
  8
LAY-10
  6
CONTINUOUS
 62
     7
100
AcDbLine
 10
465.0000000000069
 20
1211.250000000136
 30
0.0
 11
465.0000000000069
 21
1206.250000000136
 31
0.0
  0
LINE
  5
4DA
330
1F
100
AcDbEntity
  8
LAY-10
  6
CONTINUOUS
 62
     7
100
AcDbLine
 10
465.0000000000069
 20
1211.750000000136
 30
0.0
 11
470.0000000000069
 21
1211.750000000136
 31
0.0
  0
LINE
  5
4DB
330
1F
100
AcDbEntity
  8
LAY-10
  6
CONTINUOUS
 62
     7
100
AcDbLine
 10
475.5000000000069
 20
1206.250000000136
 30
0.0
 11
470.5000000000069
 21
1211.250000000136
 31
0.0
  0
LINE
  5
4DC
330
1F
100
AcDbEntity
  8
LAY-10
  6
CONTINUOUS
 62
     7
100
AcDbLine
 10
470.0000000000069
 20
1206.250000000136
 30
0.0
 11
465.0000000000069
 21
1211.250000000136
 31
0.0
  0
LINE
  5
4DD
330
1F
100
AcDbEntity
  8
LAY-10
  6
CONTINUOUS
 62
     7
100
AcDbLine
 10
465.0000000000069
 20
1206.250000000136
 30
0.0
 11
470.0000000000069
 21
1211.250000000136
 31
0.0
  0
LINE
  5
4DE
330
1F
100
AcDbEntity
  8
LAY-10
  6
CONTINUOUS
 62
     7
100
AcDbLine
 10
459.5000000000069
 20
1206.250000000136
 30
0.0
 11
464.5000000000069
 21
1211.250000000136
 31
0.0
  0
LINE
  5
4DF
330
1F
100
AcDbEntity
  8
LAY-10
  6
CONTINUOUS
 62
     7
100
AcDbLine
 10
464.5000000000069
 20
1211.750000000136
 30
0.0
 11
459.5000000000069
 21
1216.750000000136
 31
0.0
  0
LINE
  5
4E0
330
1F
100
AcDbEntity
  8
LAY-10
  6
CONTINUOUS
 62
     7
100
AcDbLine
 10
464.5000000000069
 20
1206.250000000136
 30
0.0
 11
459.5000000000069
 21
1211.250000000136
 31
0.0
  0
LINE
  5
4E1
330
1F
100
AcDbEntity
  8
LAY-10
  6
CONTINUOUS
 62
     7
100
AcDbLine
 10
459.5000000000069
 20
1211.750000000136
 30
0.0
 11
459.5000000000069
 21
1216.750000000136
 31
0.0
  0
LINE
  5
4E2
330
1F
100
AcDbEntity
  8
LAY-10
  6
CONTINUOUS
 62
     7
100
AcDbLine
 10
459.5000000000069
 20
1211.750000000136
 30
0.0
 11
464.5000000000069
 21
1211.750000000136
 31
0.0
  0
LINE
  5
4E3
330
1F
100
AcDbEntity
  8
LAY-10
  6
CONTINUOUS
 62
     7
100
AcDbLine
 10
459.5000000000069
 20
1211.250000000136
 30
0.0
 11
459.5000000000069
 21
1206.250000000136
 31
0.0
  0
LINE
  5
4E4
330
1F
100
AcDbEntity
  8
LAY-10
  6
CONTINUOUS
 62
     7
100
AcDbLine
 10
464.5000000000069
 20
1211.250000000136
 30
0.0
 11
459.5000000000069
 21
1211.250000000136
 31
0.0
  0
LINE
  5
4E5
330
1F
100
AcDbEntity
  8
LAY-10
  6
CONTINUOUS
 62
     7
100
AcDbLine
 10
464.5000000000069
 20
1206.250000000136
 30
0.0
 11
459.5000000000069
 21
1206.250000000136
 31
0.0
  0
LINE
  5
4E6
330
1F
100
AcDbEntity
  8
LAY-10
  6
CONTINUOUS
 62
     7
100
AcDbLine
 10
464.5000000000069
 20
1206.250000000136
 30
0.0
 11
464.5000000000069
 21
1211.250000000136
 31
0.0
  0
LINE
  5
4E7
330
1F
100
AcDbEntity
  8
LAY-10
  6
CONTINUOUS
 62
     7
100
AcDbLine
 10
459.0000000000069
 20
1206.250000000136
 30
0.0
 11
459.0000000000069
 21
1211.250000000136
 31
0.0
  0
LINE
  5
4E8
330
1F
100
AcDbEntity
  8
LAY-10
  6
CONTINUOUS
 62
     7
100
AcDbLine
 10
459.0000000000069
 20
1206.250000000136
 30
0.0
 11
454.0000000000069
 21
1206.250000000136
 31
0.0
  0
LINE
  5
4E9
330
1F
100
AcDbEntity
  8
LAY-10
  6
CONTINUOUS
 62
     7
100
AcDbLine
 10
459.0000000000069
 20
1211.250000000136
 30
0.0
 11
454.0000000000069
 21
1211.250000000136
 31
0.0
  0
LINE
  5
4EA
330
1F
100
AcDbEntity
  8
LAY-10
  6
CONTINUOUS
 62
     7
100
AcDbLine
 10
454.0000000000069
 20
1211.250000000136
 30
0.0
 11
454.0000000000069
 21
1206.250000000136
 31
0.0
  0
LINE
  5
4EB
330
1F
100
AcDbEntity
  8
LAY-10
  6
CONTINUOUS
 62
     7
100
AcDbLine
 10
453.500000000007
 20
1206.250000000136
 30
0.0
 11
453.500000000007
 21
1211.250000000136
 31
0.0
  0
LINE
  5
4EC
330
1F
100
AcDbEntity
  8
LAY-10
  6
CONTINUOUS
 62
     7
100
AcDbLine
 10
453.500000000007
 20
1206.250000000136
 30
0.0
 11
448.500000000007
 21
1206.250000000136
 31
0.0
  0
LINE
  5
4ED
330
1F
100
AcDbEntity
  8
LAY-10
  6
CONTINUOUS
 62
     7
100
AcDbLine
 10
453.500000000007
 20
1211.250000000136
 30
0.0
 11
448.500000000007
 21
1211.250000000136
 31
0.0
  0
LINE
  5
4EE
330
1F
100
AcDbEntity
  8
LAY-10
  6
CONTINUOUS
 62
     7
100
AcDbLine
 10
448.500000000007
 20
1211.250000000136
 30
0.0
 11
448.500000000007
 21
1206.250000000136
 31
0.0
  0
LINE
  5
4EF
330
1F
100
AcDbEntity
  8
LAY-10
  6
CONTINUOUS
 62
     7
100
AcDbLine
 10
454.0000000000069
 20
1211.750000000136
 30
0.0
 11
459.0000000000069
 21
1211.750000000136
 31
0.0
  0
LINE
  5
4F0
330
1F
100
AcDbEntity
  8
LAY-10
  6
CONTINUOUS
 62
     7
100
AcDbLine
 10
454.0000000000069
 20
1211.750000000136
 30
0.0
 11
454.0000000000069
 21
1216.750000000136
 31
0.0
  0
LINE
  5
4F1
330
1F
100
AcDbEntity
  8
LAY-10
  6
CONTINUOUS
 62
     7
100
AcDbLine
 10
459.0000000000069
 20
1211.750000000136
 30
0.0
 11
459.0000000000069
 21
1216.750000000136
 31
0.0
  0
LINE
  5
4F2
330
1F
100
AcDbEntity
  8
LAY-10
  6
CONTINUOUS
 62
     7
100
AcDbLine
 10
459.0000000000069
 20
1216.750000000136
 30
0.0
 11
454.0000000000069
 21
1216.750000000136
 31
0.0
  0
LINE
  5
4F3
330
1F
100
AcDbEntity
  8
LAY-10
  6
CONTINUOUS
 62
     7
100
AcDbLine
 10
448.500000000007
 20
1211.750000000136
 30
0.0
 11
453.500000000007
 21
1211.750000000136
 31
0.0
  0
LINE
  5
4F4
330
1F
100
AcDbEntity
  8
LAY-10
  6
CONTINUOUS
 62
     7
100
AcDbLine
 10
448.500000000007
 20
1211.750000000136
 30
0.0
 11
448.500000000007
 21
1216.750000000136
 31
0.0
  0
LINE
  5
4F5
330
1F
100
AcDbEntity
  8
LAY-10
  6
CONTINUOUS
 62
     7
100
AcDbLine
 10
453.500000000007
 20
1211.750000000136
 30
0.0
 11
453.500000000007
 21
1216.750000000136
 31
0.0
  0
LINE
  5
4F6
330
1F
100
AcDbEntity
  8
LAY-10
  6
CONTINUOUS
 62
     7
100
AcDbLine
 10
453.500000000007
 20
1216.750000000136
 30
0.0
 11
448.500000000007
 21
1216.750000000136
 31
0.0
  0
LINE
  5
4F7
330
1F
100
AcDbEntity
  8
LAY-10
  6
CONTINUOUS
 62
     7
100
AcDbLine
 10
459.0000000000069
 20
1206.250000000136
 30
0.0
 11
454.0000000000069
 21
1211.250000000136
 31
0.0
  0
LINE
  5
4F8
330
1F
100
AcDbEntity
  8
LAY-10
  6
CONTINUOUS
 62
     7
100
AcDbLine
 10
453.500000000007
 20
1206.250000000136
 30
0.0
 11
448.500000000007
 21
1211.250000000136
 31
0.0
  0
LINE
  5
4F9
330
1F
100
AcDbEntity
  8
LAY-10
  6
CONTINUOUS
 62
     7
100
AcDbLine
 10
459.0000000000069
 20
1211.750000000136
 30
0.0
 11
454.0000000000069
 21
1216.750000000136
 31
0.0
  0
LINE
  5
4FA
330
1F
100
AcDbEntity
  8
LAY-10
  6
CONTINUOUS
 62
     7
100
AcDbLine
 10
453.500000000007
 20
1211.750000000136
 30
0.0
 11
448.500000000007
 21
1216.750000000136
 31
0.0
  0
LINE
  5
4FB
330
1F
100
AcDbEntity
  8
LAY-10
  6
CONTINUOUS
 62
     7
100
AcDbLine
 10
454.0000000000069
 20
1206.250000000136
 30
0.0
 11
459.0000000000069
 21
1211.250000000136
 31
0.0
  0
LINE
  5
4FC
330
1F
100
AcDbEntity
  8
LAY-10
  6
CONTINUOUS
 62
     7
100
AcDbLine
 10
448.500000000007
 20
1206.250000000136
 30
0.0
 11
453.500000000007
 21
1211.250000000136
 31
0.0
  0
LINE
  5
4FD
330
1F
100
AcDbEntity
  8
LAY-10
  6
CONTINUOUS
 62
     7
100
AcDbLine
 10
448.500000000007
 20
1211.750000000136
 30
0.0
 11
453.500000000007
 21
1216.750000000136
 31
0.0
  0
LINE
  5
4FE
330
1F
100
AcDbEntity
  8
LAY-10
  6
CONTINUOUS
 62
     7
100
AcDbLine
 10
454.0000000000069
 20
1211.750000000136
 30
0.0
 11
459.0000000000069
 21
1216.750000000136
 31
0.0
  0
CIRCLE
  5
4FF
330
1F
100
AcDbEntity
  8
LAY-10
  6
CONTINUOUS
 62
     7
100
AcDbCircle
 10
453.2000000000009
 20
1190.299999999995
 30
0.0
 40
28.19999999995139
  0
LINE
  5
500
330
1F
100
AcDbEntity
  8
LAY-10
  6
CONTINUOUS
 62
     7
100
AcDbLine
 10
462.9794427238899
 20
1216.750000000136
 30
0.0
 11
459.5000000000069
 21
1216.750000000136
 31
0.0
  0
LINE
  5
501
330
1F
100
AcDbEntity
  8
LAY-10
  6
CONTINUOUS
 62
     7
100
AcDbLine
 10
459.5000000000069
 20
1211.750000000136
 30
0.0
 11
464.0705787384178
 21
1216.320578738546
 31
0.0
  0
LINE
  5
502
330
1F
100
AcDbEntity
  8
LAY-10
  6
CONTINUOUS
 62
     7
100
AcDbLine
 10
464.5000000000069
 20
1211.750000000136
 30
0.0
 11
464.5000000000069
 21
1216.136988988597
 31
0.0
  0
LINE
  5
503
330
1F
100
AcDbEntity
  8
LAY-10
  6
CONTINUOUS
 62
     7
100
AcDbLine
 10
465.0000000000069
 20
1211.750000000136
 30
0.0
 11
465.0000000000069
 21
1215.91249694967
 31
0.0
  0
LINE
  5
504
330
1F
100
AcDbEntity
  8
LAY-10
  6
CONTINUOUS
 62
     7
100
AcDbLine
 10
470.0000000000069
 20
1211.750000000136
 30
0.0
 11
466.681031981399
 21
1215.068968018744
 31
0.0
  0
LINE
  5
505
330
1F
100
AcDbEntity
  8
LAY-10
  6
CONTINUOUS
 62
     7
100
AcDbLine
 10
465.0000000000069
 20
1211.750000000136
 30
0.0
 11
467.7228519478368
 21
1214.472851947966
 31
0.0
  0
LINE
  5
506
330
1F
100
AcDbEntity
  8
LAY-10
  6
CONTINUOUS
 62
     7
100
AcDbLine
 10
470.0000000000069
 20
1211.750000000136
 30
0.0
 11
470.0000000000069
 21
1212.949503305743
 31
0.0
  0
LINE
  5
507
330
1F
100
AcDbEntity
  8
LAY-10
  6
CONTINUOUS
 62
     7
100
AcDbLine
 10
470.5000000000069
 20
1211.750000000136
 30
0.0
 11
470.5000000000069
 21
1212.56993488982
 31
0.0
  0
LINE
  5
508
330
1F
100
AcDbEntity
  8
LAY-10
  6
CONTINUOUS
 62
     7
100
AcDbLine
 10
470.5000000000069
 20
1211.750000000136
 30
0.0
 11
470.957155076938
 21
1212.207155077067
 31
0.0
  0
LINE
  5
509
330
1F
100
AcDbEntity
  8
LAY-10
  6
CONTINUOUS
 62
     7
100
AcDbLine
 10
472.0769038772625
 20
1211.250000000136
 30
0.0
 11
470.5000000000069
 21
1211.250000000136
 31
0.0
  0
LINE
  5
50A
330
1F
100
AcDbEntity
  8
LAY-10
  6
CONTINUOUS
 62
     7
100
AcDbLine
 10
470.5000000000069
 20
1206.250000000136
 30
0.0
 11
473.8039832905766
 21
1209.553983290705
 31
0.0
  0
LINE
  5
50B
330
1F
100
AcDbEntity
  8
LAY-10
  6
CONTINUOUS
 62
     7
100
AcDbLine
 10
470.5000000000069
 20
1211.750000000136
 30
0.0
 11
471.5067610458887
 21
1211.750000000136
 31
0.0
  0
LINE
  5
50C
330
1F
100
AcDbEntity
  8
LAY-10
  6
CONTINUOUS
 62
     7
100
AcDbLine
 10
475.5000000000069
 20
1206.250000000136
 30
0.0
 11
475.5000000000069
 21
1207.561228229672
 31
0.0
  0
LINE
  5
50D
330
1F
100
AcDbEntity
  8
LAY-10
  6
CONTINUOUS
 62
     7
100
AcDbLine
 10
476.0000000000069
 20
1206.250000000136
 30
0.0
 11
476.2690671704332
 21
1206.519067170562
 31
0.0
  0
LINE
  5
50E
330
1F
100
AcDbEntity
  8
LAY-10
  6
CONTINUOUS
 62
     7
100
AcDbLine
 10
476.0000000000069
 20
1206.895180023031
 30
0.0
 11
476.0000000000069
 21
1206.250000000136
 31
0.0
  0
LINE
  5
50F
330
1F
100
AcDbEntity
  8
LAY-10
  6
CONTINUOUS
 62
     7
100
AcDbLine
 10
476.4559132263776
 20
1206.250000000136
 30
0.0
 11
476.0000000000069
 21
1206.250000000136
 31
0.0
  0
LINE
  5
510
330
1F
100
AcDbEntity
  8
LAY-10
  6
CONTINUOUS
 62
     7
100
AcDbLine
 10
481.0000000000069
 20
1191.750000000146
 30
0.0
 11
481.0000000000069
 21
1195.032863826151
 31
0.0
  0
LINE
  5
511
330
1F
100
AcDbEntity
  8
LAY-10
  6
CONTINUOUS
 62
     7
100
AcDbLine
 10
480.6524589061775
 20
1196.750000000146
 30
0.0
 11
476.0000000000069
 21
1196.750000000146
 31
0.0
  0
LINE
  5
512
330
1F
100
AcDbEntity
  8
LAY-10
  6
CONTINUOUS
 62
     7
100
AcDbLine
 10
476.0000000000069
 20
1191.750000000146
 30
0.0
 11
480.7173387627063
 21
1196.467338762845
 31
0.0
  0
LINE
  5
513
330
1F
100
AcDbEntity
  8
LAY-10
  6
CONTINUOUS
 62
     7
100
AcDbLine
 10
477.9313060713736
 20
1176.749999999946
 30
0.0
 11
476.0000000000069
 21
1176.749999999946
 31
0.0
  0
LINE
  5
514
330
1F
100
AcDbEntity
  8
LAY-10
  6
CONTINUOUS
 62
     7
100
AcDbLine
 10
477.2216330840693
 20
1175.528366915883
 30
0.0
 11
476.0000000000069
 21
1176.749999999946
 31
0.0
  0
LINE
  5
515
330
1F
100
AcDbEntity
  8
LAY-10
  6
CONTINUOUS
 62
     7
100
AcDbLine
 10
476.0000000000069
 20
1173.704819976959
 30
0.0
 11
476.0000000000069
 21
1176.749999999946
 31
0.0
  0
LINE
  5
516
330
1F
100
AcDbEntity
  8
LAY-10
  6
CONTINUOUS
 62
     7
100
AcDbLine
 10
475.5000000000069
 20
1173.038771770318
 30
0.0
 11
475.5000000000069
 21
1176.749999999946
 31
0.0
  0
LINE
  5
517
330
1F
100
AcDbEntity
  8
LAY-10
  6
CONTINUOUS
 62
     7
100
AcDbLine
 10
474.927062235392
 20
1172.32293776456
 30
0.0
 11
470.5000000000069
 21
1176.749999999946
 31
0.0
  0
LINE
  5
518
330
1F
100
AcDbEntity
  8
LAY-10
  6
CONTINUOUS
 62
     7
100
AcDbLine
 10
470.5000000000069
 20
1171.749999999946
 30
0.0
 11
474.439997645844
 21
1171.749999999946
 31
0.0
  0
LINE
  5
519
330
1F
100
AcDbEntity
  8
LAY-10
  6
CONTINUOUS
 62
     7
100
AcDbLine
 10
473.9927270937561
 20
1171.249999999946
 30
0.0
 11
470.5000000000069
 21
1171.249999999946
 31
0.0
  0
LINE
  5
51A
330
1F
100
AcDbEntity
  8
LAY-10
  6
CONTINUOUS
 62
     7
100
AcDbLine
 10
472.2462041553155
 20
1169.503795844637
 30
0.0
 11
470.5000000000069
 21
1171.249999999946
 31
0.0
  0
LINE
  5
51B
330
1F
100
AcDbEntity
  8
LAY-10
  6
CONTINUOUS
 62
     7
100
AcDbLine
 10
470.5000000000069
 20
1171.249999999946
 30
0.0
 11
470.5000000000069
 21
1168.03006511017
 31
0.0
  0
LINE
  5
51C
330
1F
100
AcDbEntity
  8
LAY-10
  6
CONTINUOUS
 62
     7
100
AcDbLine
 10
469.1831456287346
 20
1167.066854371218
 30
0.0
 11
465.0000000000069
 21
1171.249999999946
 31
0.0
  0
LINE
  5
51D
330
1F
100
AcDbEntity
  8
LAY-10
  6
CONTINUOUS
 62
     7
100
AcDbLine
 10
467.9254032201125
 20
1166.249999999946
 30
0.0
 11
465.0000000000069
 21
1166.249999999946
 31
0.0
  0
LINE
  5
51E
330
1F
100
AcDbEntity
  8
LAY-10
  6
CONTINUOUS
 62
     7
100
AcDbLine
 10
470.0000000000069
 20
1167.650496694248
 30
0.0
 11
470.0000000000069
 21
1171.249999999946
 31
0.0
  0
LINE
  5
51F
330
1F
100
AcDbEntity
  8
LAY-10
  6
CONTINUOUS
 62
     7
100
AcDbLine
 10
437.000000000007
 20
1167.217539126045
 30
0.0
 11
437.000000000007
 21
1171.249999999946
 31
0.0
  0
LINE
  5
520
330
1F
100
AcDbEntity
  8
LAY-10
  6
CONTINUOUS
 62
     7
100
AcDbLine
 10
442.500000000007
 20
1166.249999999946
 30
0.0
 11
438.4745967798892
 21
1166.249999999946
 31
0.0
  0
LINE
  5
521
330
1F
100
AcDbEntity
  8
LAY-10
  6
CONTINUOUS
 62
     7
100
AcDbLine
 10
437.8765545492139
 20
1166.626554549153
 30
0.0
 11
442.500000000007
 21
1171.249999999946
 31
0.0
  0
LINE
  5
522
330
1F
100
AcDbEntity
  8
LAY-10
  6
CONTINUOUS
 62
     7
100
AcDbLine
 10
437.500000000007
 20
1171.249999999946
 30
0.0
 11
437.500000000007
 21
1166.874586449805
 31
0.0
  0
LINE
  5
523
330
1F
100
AcDbEntity
  8
LAY-10
  6
CONTINUOUS
 62
     7
100
AcDbLine
 10
437.000000000007
 20
1171.249999999946
 30
0.0
 11
432.4072729062461
 21
1171.249999999946
 31
0.0
  0
LINE
  5
524
330
1F
100
AcDbEntity
  8
LAY-10
  6
CONTINUOUS
 62
     7
100
AcDbLine
 10
431.500000000007
 20
1172.290280402025
 30
0.0
 11
431.500000000007
 21
1176.749999999946
 31
0.0
  0
LINE
  5
525
330
1F
100
AcDbEntity
  8
LAY-10
  6
CONTINUOUS
 62
     7
100
AcDbLine
 10
429.6054104808083
 20
1174.855410480747
 30
0.0
 11
431.500000000007
 21
1176.749999999946
 31
0.0
  0
LINE
  5
526
330
1F
100
AcDbEntity
  8
LAY-10
  6
CONTINUOUS
 62
     7
100
AcDbLine
 10
431.500000000007
 20
1176.749999999946
 30
0.0
 11
428.4686939286286
 21
1176.749999999946
 31
0.0
  0
LINE
  5
527
330
1F
100
AcDbEntity
  8
LAY-10
  6
CONTINUOUS
 62
     7
100
AcDbLine
 10
426.000000000007
 20
1186.250000000145
 30
0.0
 11
425.2923397613055
 21
1186.250000000145
 31
0.0
  0
LINE
  5
528
330
1F
100
AcDbEntity
  8
LAY-10
  6
CONTINUOUS
 62
     7
100
AcDbLine
 10
425.1863206918935
 20
1187.063679308258
 30
0.0
 11
426.000000000007
 21
1186.250000000145
 31
0.0
  0
LINE
  5
529
330
1F
100
AcDbEntity
  8
LAY-10
  6
CONTINUOUS
 62
     7
100
AcDbLine
 10
426.000000000007
 20
1191.250000000145
 30
0.0
 11
425.000044247906
 21
1190.250044248044
 31
0.0
  0
LINE
  5
52A
330
1F
100
AcDbEntity
  8
LAY-10
  6
CONTINUOUS
 62
     7
100
AcDbLine
 10
425.0160063156956
 20
1191.250000000145
 30
0.0
 11
426.000000000007
 21
1191.250000000145
 31
0.0
  0
LINE
  5
52B
330
1F
100
AcDbEntity
  8
LAY-10
  6
CONTINUOUS
 62
     7
100
AcDbLine
 10
426.000000000007
 20
1191.750000000145
 30
0.0
 11
425.0373030411367
 21
1191.750000000145
 31
0.0
  0
LINE
  5
52C
330
1F
100
AcDbEntity
  8
LAY-10
  6
CONTINUOUS
 62
     7
100
AcDbLine
 10
425.0982349135404
 20
1192.651765086611
 30
0.0
 11
426.000000000007
 21
1191.750000000145
 31
0.0
  0
LINE
  5
52D
330
1F
100
AcDbEntity
  8
LAY-10
  6
CONTINUOUS
 62
     7
100
AcDbLine
 10
426.000000000007
 20
1196.750000000145
 30
0.0
 11
425.6726930058177
 21
1196.422693005956
 31
0.0
  0
LINE
  5
52E
330
1F
100
AcDbEntity
  8
LAY-10
  6
CONTINUOUS
 62
     7
100
AcDbLine
 10
426.000000000007
 20
1196.750000000145
 30
0.0
 11
425.7475410938243
 21
1196.750000000145
 31
0.0
  0
LINE
  5
52F
330
1F
100
AcDbEntity
  8
LAY-10
  6
CONTINUOUS
 62
     7
100
AcDbLine
 10
431.500000000007
 20
1206.250000000135
 30
0.0
 11
429.9440867736236
 21
1206.250000000135
 31
0.0
  0
LINE
  5
530
330
1F
100
AcDbEntity
  8
LAY-10
  6
CONTINUOUS
 62
     7
100
AcDbLine
 10
430.592935359012
 20
1207.15706464113
 30
0.0
 11
431.500000000007
 21
1206.250000000135
 31
0.0
  0
LINE
  5
531
330
1F
100
AcDbEntity
  8
LAY-10
  6
CONTINUOUS
 62
     7
100
AcDbLine
 10
431.500000000007
 20
1208.309719597966
 30
0.0
 11
431.500000000007
 21
1206.250000000135
 31
0.0
  0
LINE
  5
532
330
1F
100
AcDbEntity
  8
LAY-10
  6
CONTINUOUS
 62
     7
100
AcDbLine
 10
432.000000000007
 20
1208.895698427253
 30
0.0
 11
432.000000000007
 21
1206.250000000135
 31
0.0
  0
LINE
  5
533
330
1F
100
AcDbEntity
  8
LAY-10
  6
CONTINUOUS
 62
     7
100
AcDbLine
 10
433.1349805668171
 20
1210.115019433324
 30
0.0
 11
437.000000000007
 21
1206.250000000135
 31
0.0
  0
LINE
  5
534
330
1F
100
AcDbEntity
  8
LAY-10
  6
CONTINUOUS
 62
     7
100
AcDbLine
 10
437.000000000007
 20
1211.750000000135
 30
0.0
 11
434.8932389541125
 21
1211.750000000135
 31
0.0
  0
LINE
  5
535
330
1F
100
AcDbEntity
  8
LAY-10
  6
CONTINUOUS
 62
     7
100
AcDbLine
 10
434.3230961227384
 20
1211.250000000135
 30
0.0
 11
437.000000000007
 21
1211.250000000135
 31
0.0
  0
LINE
  5
536
330
1F
100
AcDbEntity
  8
LAY-10
  6
CONTINUOUS
 62
     7
100
AcDbLine
 10
436.0581242985815
 20
1212.69187570156
 30
0.0
 11
437.000000000007
 21
1211.750000000135
 31
0.0
  0
LINE
  5
537
330
1F
100
AcDbEntity
  8
LAY-10
  6
CONTINUOUS
 62
     7
100
AcDbLine
 10
437.000000000007
 20
1213.382460873945
 30
0.0
 11
437.000000000007
 21
1211.750000000135
 31
0.0
  0
LINE
  5
538
330
1F
100
AcDbEntity
  8
LAY-10
  6
CONTINUOUS
 62
     7
100
AcDbLine
 10
439.3726726672259
 20
1214.877327332916
 30
0.0
 11
442.500000000007
 21
1211.750000000135
 31
0.0
  0
LINE
  5
539
330
1F
100
AcDbEntity
  8
LAY-10
  6
CONTINUOUS
 62
     7
100
AcDbLine
 10
437.500000000007
 20
1211.750000000135
 30
0.0
 11
437.500000000007
 21
1213.725413550186
 31
0.0
  0
LINE
  5
53A
330
1F
100
AcDbEntity
  8
LAY-10
  6
CONTINUOUS
 62
     7
100
AcDbLine
 10
441.8768532110896
 20
1216.126853211217
 30
0.0
 11
437.500000000007
 21
1211.750000000135
 31
0.0
  0
LINE
  5
53B
330
1F
100
AcDbEntity
  8
LAY-10
  6
CONTINUOUS
 62
     7
100
AcDbLine
 10
442.500000000007
 20
1216.391186251244
 30
0.0
 11
442.500000000007
 21
1211.750000000135
 31
0.0
  0
LINE
  5
53C
330
1F
100
AcDbEntity
  8
LAY-10
  6
CONTINUOUS
 62
     7
100
AcDbLine
 10
448.000000000007
 20
1216.750000000135
 30
0.0
 11
443.4205572761095
 21
1216.750000000135
 31
0.0
  0
LINE
  5
53D
330
1F
100
AcDbEntity
  8
LAY-10
  6
CONTINUOUS
 62
     7
100
AcDbLine
 10
443.1149924493495
 20
1216.635007550792
 30
0.0
 11
448.000000000007
 21
1211.750000000135
 31
0.0
  0
LINE
  5
53E
330
1F
100
AcDbEntity
  8
LAY-10
  6
CONTINUOUS
 62
     7
100
AcDbLine
 10
443.000000000007
 20
1211.750000000135
 30
0.0
 11
443.000000000007
 21
1216.590682760193
 31
0.0
  0
LINE
  5
53F
330
1F
100
AcDbEntity
  8
LAY-10
  6
CONTINUOUS
 62
     7
100
AcDbLine
 10
434.7355712752375
 20
1168.985571275176
 30
0.0
 11
437.000000000007
 21
1171.249999999946
 31
0.0
  0
LINE
  5
540
330
1F
100
AcDbEntity
  8
LAY-10
  6
CENTER
 62
     2
100
AcDbLine
 10
1165.0
 20
1100.00000000006
 30
0.0
 11
1335.000000000151
 21
1100.00000000006
 31
0.0
  0
LINE
  5
541
330
1F
100
AcDbEntity
  8
LAY-10
  6
CENTER
 62
     2
100
AcDbLine
 10
1305.000000000012
 20
978.0000000000515
 30
0.0
 11
1305.000000000012
 21
946.5000000000515
 31
0.0
  0
LINE
  5
542
330
1F
100
AcDbEntity
  8
LAY-10
  6
CENTER
 62
     2
100
AcDbLine
 10
314.9999999999999
 20
1100.000000000021
 30
0.0
 11
934.9999999999998
 21
1100.000000000021
 31
0.0
  0
LINE
  5
543
330
1F
100
AcDbEntity
  8
LAY-10
  6
CENTER
 62
     2
100
AcDbLine
 10
825.0000000000131
 20
978.0000000000138
 30
0.0
 11
825.0000000000131
 21
946.5000000000128
 31
0.0
  0
LINE
  5
544
330
1F
100
AcDbEntity
  8
LAY-10
  6
CENTER
 62
     2
100
AcDbLine
 10
424.9999999999945
 20
978.0000000000138
 30
0.0
 11
424.9999999999945
 21
946.5000000000128
 31
0.0
  0
LINE
  5
545
330
1F
100
AcDbEntity
  8
LAY-10
  6
CENTER
 62
     2
100
AcDbLine
 10
625.0000000000033
 20
965.0000000000396
 30
0.0
 11
625.0000000000034
 21
1235.00000000004
 31
0.0
  0
LINE
  5
546
330
1F
100
AcDbEntity
  8
LAY-10
  6
CENTER
 62
     2
100
AcDbLine
 10
1170.000000000003
 20
1181.499999999964
 30
0.0
 11
1235.697114317
 21
1181.499999999964
 31
0.0
  0
LINE
  5
547
330
1F
100
AcDbEntity
  8
LAY-10
  6
CENTER
 62
     2
100
AcDbLine
 10
1305.000000000059
 20
1222.00000000015
 30
0.0
 11
1305.000000000059
 21
1240.00000000005
 31
0.0
  0
LINE
  5
548
330
1F
100
AcDbEntity
  8
LAY-10
  6
CENTER
 62
     2
100
AcDbLine
 10
824.9999999999593
 20
1222.00000000015
 30
0.0
 11
824.9999999999593
 21
1240.00000000005
 31
0.0
  0
LINE
  5
549
330
1F
100
AcDbEntity
  8
LAY-10
  6
CENTER
 62
     2
100
AcDbLine
 10
424.9999999999594
 20
1222.00000000015
 30
0.0
 11
424.9999999999594
 21
1240.00000000005
 31
0.0
  0
LINE
  5
54A
330
1F
100
AcDbEntity
  8
LAY-10
  6
CENTER
 62
     2
100
AcDbLine
 10
625.0000000000032
 20
760.000000000004
 30
0.0
 11
625.0000000000032
 21
630.000000000004
 31
0.0
  0
LINE
  5
54B
330
1F
100
AcDbEntity
  8
LAY-10
  6
CENTER
 62
     2
100
AcDbLine
 10
425.0000000000001
 20
626.0000000000726
 30
0.0
 11
425.0000000000001
 21
614.0000000000667
 31
0.0
  0
LINE
  5
54C
330
1F
100
AcDbEntity
  8
LAY-10
  6
CENTER
 62
     2
100
AcDbLine
 10
431.0000000000031
 20
620.0000000000697
 30
0.0
 11
418.9999999999972
 21
620.0000000000697
 31
0.0
  0
LINE
  5
54D
330
1F
100
AcDbEntity
  8
LAY-10
  6
CENTER
 62
     2
100
AcDbLine
 10
825.0000000000002
 20
626.0000000000726
 30
0.0
 11
825.0000000000002
 21
614.0000000000667
 31
0.0
  0
LINE
  5
54E
330
1F
100
AcDbEntity
  8
LAY-10
  6
CENTER
 62
     2
100
AcDbLine
 10
831.0000000000032
 20
620.0000000000697
 30
0.0
 11
818.9999999999973
 21
620.0000000000697
 31
0.0
  0
LINE
  5
54F
330
1F
100
AcDbEntity
  8
LAY-10
  6
CENTER
 62
     2
100
AcDbLine
 10
424.9999999999998
 20
692.3000000000193
 30
0.0
 11
424.9999999999998
 21
730.0000000000199
 31
0.0
  0
LINE
  5
550
330
1F
100
AcDbEntity
  8
LAY-10
  6
CENTER
 62
     2
100
AcDbLine
 10
825.0000000000098
 20
692.3000000000193
 30
0.0
 11
825.0000000000098
 21
730.0000000000199
 31
0.0
  0
LINE
  5
551
330
1F
100
AcDbEntity
  8
LAY-10
  6
CONTINUOUS
 62
     7
100
AcDbLine
 10
1284.999999999999
 20
975.0000000000807
 30
0.0
 11
1475.00000000052
 21
975.0000000000807
 31
0.0
  0
LINE
  5
552
330
1F
100
AcDbEntity
  8
LAY-10
  6
CONTINUOUS
 62
     7
100
AcDbLine
 10
1475.00000000052
 20
975.0000000000807
 30
0.0
 11
1505.000000000255
 21
1004.999999999825
 31
0.0
  0
LINE
  5
553
330
1F
100
AcDbEntity
  8
LAY-10
  6
CONTINUOUS
 62
     7
100
AcDbLine
 10
1475.000000000521
 20
1225.000000000079
 30
0.0
 11
1505.000000000255
 21
1195.000000000335
 31
0.0
  0
LINE
  5
554
330
1F
100
AcDbEntity
  8
LAY-10
  6
CONTINUOUS
 62
     7
100
AcDbLine
 10
1504.999999999998
 20
1004.999999999569
 30
0.0
 11
1504.999999999998
 21
1195.000000000592
 31
0.0
  0
LINE
  5
555
330
1F
100
AcDbEntity
  8
LAY-10
  6
CONTINUOUS
 62
     7
100
AcDbLine
 10
1285.0
 20
1225.00000000008
 30
0.0
 11
1285.0
 21
1190.00000000008
 31
0.0
  0
LINE
  5
556
330
1F
100
AcDbEntity
  8
LAY-10
  6
CONTINUOUS
 62
     7
100
AcDbLine
 10
1285.0
 20
1010.00000000008
 30
0.0
 11
1285.0
 21
975.0000000000797
 31
0.0
  0
LINE
  5
557
330
1F
100
AcDbEntity
  8
LAY-10
  6
CONTINUOUS
 62
     7
100
AcDbLine
 10
1284.999999999999
 20
1190.00000000008
 30
0.0
 11
1416.388353362016
 21
1186.350323517802
 31
0.0
  0
ARC
  5
558
330
1F
100
AcDbEntity
  8
LAY-10
  6
CONTINUOUS
 62
     7
100
AcDbCircle
 10
1414.999999999998
 20
1136.369602485166
 30
0.0
 40
50.0
100
AcDbArc
 50
0.0
 51
88.4088597288055
  0
LINE
  5
559
330
1F
100
AcDbEntity
  8
LAY-10
  6
CONTINUOUS
 62
     7
100
AcDbLine
 10
1284.999999999999
 20
1010.00000000008
 30
0.0
 11
1426.110682689613
 21
1013.919741185903
 31
0.0
  0
LINE
  5
55A
330
1F
100
AcDbEntity
  8
LAY-10
  6
CONTINUOUS
 62
     7
100
AcDbLine
 10
1464.999999999998
 20
1053.904318012011
 30
0.0
 11
1464.999999999998
 21
1136.369602485166
 31
0.0
  0
ARC
  5
55B
330
1F
100
AcDbEntity
  8
LAY-10
  6
CONTINUOUS
 62
     7
100
AcDbCircle
 10
1424.999999999998
 20
1053.904318012011
 30
0.0
 40
40.0
100
AcDbArc
 50
271.5911402711947
 51
0.0
  0
LINE
  5
55C
330
1F
100
AcDbEntity
  8
LAY-10
  6
CONTINUOUS
 62
     7
100
AcDbLine
 10
1284.999999999999
 20
1225.000000000079
 30
0.0
 11
1475.000000000521
 21
1225.000000000079
 31
0.0
  0
LINE
  5
55D
330
1F
100
AcDbEntity
  8
LAY-10
  6
CONTINUOUS
 62
     7
100
AcDbLine
 10
1301.62500000001
 20
955.0000000000342
 30
0.0
 11
1301.625000000008
 21
962.5000000000315
 31
0.0
  0
LINE
  5
55E
330
1F
100
AcDbEntity
  8
LAY-10
  6
CONTINUOUS
 62
     7
100
AcDbLine
 10
1308.375000000007
 20
962.5000000000742
 30
0.0
 11
1308.375000000009
 21
955.0000000000342
 31
0.0
  0
LINE
  5
55F
330
1F
100
AcDbEntity
  8
LAY-10
  6
CONTINUOUS
 62
     7
100
AcDbLine
 10
1308.375000000012
 20
975.0000000000451
 30
0.0
 11
1308.375000000012
 21
972.0000000000588
 31
0.0
  0
LINE
  5
560
330
1F
100
AcDbEntity
  8
LAY-10
  6
CONTINUOUS
 62
     7
100
AcDbLine
 10
1301.625000000011
 20
972.0000000000588
 30
0.0
 11
1301.625000000011
 21
975.000000000046
 31
0.0
  0
LINE
  5
561
330
1F
100
AcDbEntity
  8
LAY-10
  6
CONTINUOUS
 62
     7
100
AcDbLine
 10
821.6250000000105
 20
954.999999999996
 30
0.0
 11
821.6250000000082
 21
962.4999999999937
 31
0.0
  0
LINE
  5
562
330
1F
100
AcDbEntity
  8
LAY-10
  6
CONTINUOUS
 62
     7
100
AcDbLine
 10
828.3750000000077
 20
962.5000000000355
 30
0.0
 11
828.37500000001
 21
954.999999999996
 31
0.0
  0
LINE
  5
563
330
1F
100
AcDbEntity
  8
LAY-10
  6
CONTINUOUS
 62
     7
100
AcDbLine
 10
428.3749999999969
 20
954.999999999996
 30
0.0
 11
428.3749999999992
 21
962.4999999999937
 31
0.0
  0
LINE
  5
564
330
1F
100
AcDbEntity
  8
LAY-10
  6
CONTINUOUS
 62
     7
100
AcDbLine
 10
421.6249999999997
 20
962.500000000035
 30
0.0
 11
421.6249999999974
 21
954.999999999996
 31
0.0
  0
LINE
  5
565
330
1F
100
AcDbEntity
  8
LAY-10
  6
CONTINUOUS
 62
     7
100
AcDbLine
 10
1301.50000000006
 20
1227.500000000079
 30
0.0
 11
1301.50000000006
 21
1228.000000000092
 31
0.0
  0
LINE
  5
566
330
1F
100
AcDbEntity
  8
LAY-10
  6
CONTINUOUS
 62
     7
100
AcDbLine
 10
1301.50000000006
 20
1231.000000000109
 30
0.0
 11
1301.50000000006
 21
1237.00000000008
 31
0.0
  0
LINE
  5
567
330
1F
100
AcDbEntity
  8
LAY-10
  6
CONTINUOUS
 62
     7
100
AcDbLine
 10
1308.500000000059
 20
1227.500000000079
 30
0.0
 11
1308.500000000059
 21
1228.000000000092
 31
0.0
  0
LINE
  5
568
330
1F
100
AcDbEntity
  8
LAY-10
  6
CONTINUOUS
 62
     7
100
AcDbLine
 10
1308.500000000059
 20
1231.000000000109
 30
0.0
 11
1308.500000000059
 21
1237.00000000008
 31
0.0
  0
LINE
  5
569
330
1F
100
AcDbEntity
  8
LAY-10
  6
CONTINUOUS
 62
     7
100
AcDbLine
 10
821.4999999999595
 20
1231.000000000109
 30
0.0
 11
821.4999999999595
 21
1237.00000000008
 31
0.0
  0
LINE
  5
56A
330
1F
100
AcDbEntity
  8
LAY-10
  6
CONTINUOUS
 62
     7
100
AcDbLine
 10
828.4999999999588
 20
1231.000000000109
 30
0.0
 11
828.4999999999588
 21
1237.00000000008
 31
0.0
  0
LINE
  5
56B
330
1F
100
AcDbEntity
  8
LAY-10
  6
CONTINUOUS
 62
     7
100
AcDbLine
 10
421.4999999999596
 20
1231.000000000109
 30
0.0
 11
421.4999999999596
 21
1237.00000000008
 31
0.0
  0
LINE
  5
56C
330
1F
100
AcDbEntity
  8
LAY-10
  6
CONTINUOUS
 62
     7
100
AcDbLine
 10
428.4999999999589
 20
1231.000000000109
 30
0.0
 11
428.4999999999589
 21
1237.00000000008
 31
0.0
  0
LINE
  5
56D
330
1F
100
AcDbEntity
  8
LAY-10
  6
CONTINUOUS
 62
     7
100
AcDbLine
 10
1199.997114317045
 20
1179.100000000101
 30
0.0
 11
1199.397114317045
 21
1178.500000000101
 31
0.0
  0
LINE
  5
56E
330
1F
100
AcDbEntity
  8
LAY-10
  6
CONTINUOUS
 62
     7
100
AcDbLine
 10
1199.997114317045
 20
1183.900000000101
 30
0.0
 11
1199.397114317045
 21
1184.500000000101
 31
0.0
  0
LINE
  5
56F
330
1F
100
AcDbEntity
  8
LAY-10
  6
CONTINUOUS
 62
     7
100
AcDbLine
 10
1221.197114317043
 20
1179.100000000101
 30
0.0
 11
1212.997114317045
 21
1179.100000000101
 31
0.0
  0
LINE
  5
570
330
1F
100
AcDbEntity
  8
LAY-10
  6
CONTINUOUS
 62
     7
100
AcDbLine
 10
1221.197114317043
 20
1183.900000000101
 30
0.0
 11
1212.997114317045
 21
1183.900000000101
 31
0.0
  0
LINE
  5
571
330
1F
100
AcDbEntity
  8
LAY-10
  6
CONTINUOUS
 62
     7
100
AcDbLine
 10
1209.000000000005
 20
1179.100000000101
 30
0.0
 11
1201.99711431704
 21
1179.100000000101
 31
0.0
  0
LINE
  5
572
330
1F
100
AcDbEntity
  8
LAY-10
  6
CONTINUOUS
 62
     7
100
AcDbLine
 10
1209.000000000005
 20
1183.900000000101
 30
0.0
 11
1201.99711431704
 21
1183.900000000101
 31
0.0
  0
CIRCLE
  5
573
330
1F
100
AcDbEntity
  8
LAY-10
  6
CONTINUOUS
 62
     7
100
AcDbCircle
 10
425.0000000000001
 20
620.0000000000697
 30
0.0
 40
3.37500000001171
  0
CIRCLE
  5
574
330
1F
100
AcDbEntity
  8
LAY-10
  6
CONTINUOUS
 62
     7
100
AcDbCircle
 10
825.0000000000002
 20
620.0000000000697
 30
0.0
 40
3.37500000001171
  0
LINE
  5
575
330
1F
100
AcDbEntity
  8
LAY-10
  6
CONTINUOUS
 62
     7
100
AcDbLine
 10
427.3999999999676
 20
715.9971143170222
 30
0.0
 11
427.3999999999676
 21
722.9999999999853
 31
0.0
  0
LINE
  5
576
330
1F
100
AcDbEntity
  8
LAY-10
  6
CONTINUOUS
 62
     7
100
AcDbLine
 10
422.5999999999684
 20
715.9971143170222
 30
0.0
 11
422.5999999999684
 21
722.9999999999853
 31
0.0
  0
LINE
  5
577
330
1F
100
AcDbEntity
  8
LAY-10
  6
CONTINUOUS
 62
     7
100
AcDbLine
 10
427.3999999999676
 20
703.799999999981
 30
0.0
 11
427.3999999999676
 21
711.9999999999798
 31
0.0
  0
LINE
  5
578
330
1F
100
AcDbEntity
  8
LAY-10
  6
CONTINUOUS
 62
     7
100
AcDbLine
 10
422.5999999999684
 20
703.799999999981
 30
0.0
 11
422.5999999999684
 21
711.9999999999798
 31
0.0
  0
LINE
  5
579
330
1F
100
AcDbEntity
  8
LAY-10
  6
PHANTOM
 62
     7
100
AcDbLine
 10
417.4999999999984
 20
704.0000000000244
 30
0.0
 11
419.4999999999985
 21
704.0000000000244
 31
0.0
  0
LINE
  5
57A
330
1F
100
AcDbEntity
  8
LAY-10
  6
PHANTOM
 62
     7
100
AcDbLine
 10
419.4999999999985
 20
704.0000000000199
 30
0.0
 11
419.4999999999985
 21
723.0000000000198
 31
0.0
  0
LINE
  5
57B
330
1F
100
AcDbEntity
  8
LAY-10
  6
PHANTOM
 62
     7
100
AcDbLine
 10
417.4999999999986
 20
723.0000000000198
 30
0.0
 11
417.4999999999986
 21
704.0000000000244
 31
0.0
  0
LINE
  5
57C
330
1F
100
AcDbEntity
  8
LAY-10
  6
CONTINUOUS
 62
     7
100
AcDbLine
 10
827.3999999999776
 20
715.9971143170222
 30
0.0
 11
827.3999999999776
 21
722.9999999999853
 31
0.0
  0
LINE
  5
57D
330
1F
100
AcDbEntity
  8
LAY-10
  6
CONTINUOUS
 62
     7
100
AcDbLine
 10
822.5999999999783
 20
715.9971143170222
 30
0.0
 11
822.5999999999783
 21
722.9999999999853
 31
0.0
  0
LINE
  5
57E
330
1F
100
AcDbEntity
  8
LAY-10
  6
CONTINUOUS
 62
     7
100
AcDbLine
 10
827.3999999999776
 20
703.799999999981
 30
0.0
 11
827.3999999999776
 21
711.9999999999798
 31
0.0
  0
LINE
  5
57F
330
1F
100
AcDbEntity
  8
LAY-10
  6
CONTINUOUS
 62
     7
100
AcDbLine
 10
822.5999999999783
 20
703.799999999981
 30
0.0
 11
822.5999999999783
 21
711.9999999999798
 31
0.0
  0
LINE
  5
580
330
1F
100
AcDbEntity
  8
LAY-10
  6
PHANTOM
 62
     7
100
AcDbLine
 10
817.5000000000085
 20
704.0000000000244
 30
0.0
 11
819.5000000000084
 21
704.0000000000244
 31
0.0
  0
LINE
  5
581
330
1F
100
AcDbEntity
  8
LAY-10
  6
PHANTOM
 62
     7
100
AcDbLine
 10
819.5000000000084
 20
704.0000000000199
 30
0.0
 11
819.5000000000084
 21
723.0000000000198
 31
0.0
  0
LINE
  5
582
330
1F
100
AcDbEntity
  8
LAY-10
  6
PHANTOM
 62
     7
100
AcDbLine
 10
817.5000000000086
 20
723.0000000000198
 30
0.0
 11
817.5000000000086
 21
704.0000000000244
 31
0.0
  0
LINE
  5
583
330
1F
100
AcDbEntity
  8
LAY-10
  6
HIDDEN
 62
     7
100
AcDbLine
 10
920.5000000000001
 20
1010.0
 30
0.0
 11
329.5
 21
1010.0
 31
0.0
  0
LINE
  5
584
330
1F
100
AcDbEntity
  8
LAY-10
  6
HIDDEN
 62
     7
100
AcDbLine
 10
920.5000000000001
 20
1190.000000000042
 30
0.0
 11
329.5
 21
1190.000000000042
 31
0.0
  0
LINE
  5
585
330
1F
100
AcDbEntity
  8
LAY-10
  6
HIDDEN
 62
     7
100
AcDbLine
 10
920.5000000000001
 20
1218.5
 30
0.0
 11
920.5000000000001
 21
1144.5000000002
 31
0.0
  0
LINE
  5
586
330
1F
100
AcDbEntity
  8
LAY-10
  6
HIDDEN
 62
     7
100
AcDbLine
 10
329.5
 20
1144.5000000002
 30
0.0
 11
329.5
 21
1218.5
 31
0.0
  0
LEADER
  5
587
330
1F
100
AcDbEntity
  8
LAY-20
  6
CONTINUOUS
 62
     7
100
AcDbLeader
  3
ISO-25
 76
     3
 10
1380.00000000029
 20
975.0000000000807
 30
0.0
 10
1426.38793553577
 20
894.6537387943287
 30
0.0
 10
1492.965613754749
 20
894.65373879433
 30
0.0
1001
ACAD
1000
DSTYLE
1002
{
1070
     5
1000
EX_BNORM
1070
    41
1040
12.5
1070
   341
1005
7B
1002
}
  0
TEXT
  5
588
330
1F
100
AcDbEntity
  8
LAY-20
  6
CONTINUOUS
 62
     7
100
AcDbText
 10
1440.848649645259
 20
897.4662387943295
 30
0.0
 40
17.1875
  1
別途
 41
1.07185045
  7
EXCADSTD
100
AcDbText
  0
DIMENSION
  5
58A
330
1F
100
AcDbEntity
  8
LAY-20
  6
CONTINUOUS
 62
     4
100
AcDbDimension
  2
*D15
 10
1285.0
 20
1287.00000000005
 30
0.0
 11
1230.0
 21
1299.50000000005
 31
0.0
 70
   160
  3
ISO-25
100
AcDbAlignedDimension
 13
1175.0
 23
1225.00000000008
 33
0.0
 14
1285.0
 24
1228.00000000008
 34
0.0
100
AcDbRotatedDimension
1001
ACAD
1000
DSTYLE
1002
{
1070
   270
1070
     2
1070
     6
1000
EX_BNORM
1070
     7
1000
EX_BNORM
1070
    41
1040
12.5
1070
    42
1040
7.5
1070
    44
1040
7.5
1070
    73
1070
     0
1070
    74
1070
     0
1070
    75
1070
     0
1070
    76
1070
     0
1070
    77
1070
     1
1070
    78
1070
     8
1070
   140
1040
15.590552
1070
   147
1040
0.0
1070
   173
1070
     1
1070
   176
1070
     4
1070
   177
1070
     4
1070
   178
1070
     7
1070
   271
1070
     1
1070
   277
1070
     2
1070
   279
1070
     2
1070
   280
1070
     0
1070
   287
1070
     5
1070
   340
1005
589
1002
}
  0
DIMENSION
  5
598
330
1F
100
AcDbEntity
  8
LAY-20
  6
CONTINUOUS
 62
     4
100
AcDbDimension
  2
*D16
 10
1285.0
 20
1287.00000000005
 30
0.0
 11
1305.0
 21
1299.50000000005
 31
0.0
 70
   160
  3
ISO-25
100
AcDbAlignedDimension
 13
1325.0
 23
1231.00000000008
 33
0.0
 14
1285.0
 24
1300.50000000008
 34
0.0
100
AcDbRotatedDimension
1001
ACAD
1000
DSTYLE
1002
{
1070
   270
1070
     2
1070
     6
1000
EX_BNORM
1070
     7
1000
EX_BNORM
1070
    41
1040
12.5
1070
    42
1040
7.5
1070
    44
1040
7.5
1070
    73
1070
     0
1070
    74
1070
     0
1070
    75
1070
     0
1070
    76
1070
     1
1070
    77
1070
     1
1070
    78
1070
     8
1070
   140
1040
15.590552
1070
   147
1040
0.0
1070
   173
1070
     1
1070
   176
1070
     4
1070
   177
1070
     4
1070
   178
1070
     7
1070
   271
1070
     1
1070
   277
1070
     2
1070
   279
1070
     2
1070
   280
1070
     0
1070
   287
1070
     5
1070
   340
1005
589
1002
}
  0
DIMENSION
  5
5A4
330
1F
100
AcDbEntity
  8
LAY-20
  6
CONTINUOUS
 62
     4
100
AcDbDimension
  2
*D17
 10
1375.0
 20
1010.00000000008
 30
0.0
 11
1362.5
 21
1100.00000000008
 31
0.0
 70
   160
  1
溝幅<>
  3
ISO-25
100
AcDbAlignedDimension
 13
1285.0
 23
1190.00000000008
 33
0.0
 14
1285.0
 24
1010.00000000008
 34
0.0
 50
90.0
100
AcDbRotatedDimension
1001
ACAD
1000
DSTYLE
1002
{
1070
   270
1070
     2
1070
     6
1000
EX_BNORM
1070
     7
1000
EX_BNORM
1070
    41
1040
12.5
1070
    42
1040
7.5
1070
    44
1040
7.5
1070
    73
1070
     0
1070
    74
1070
     0
1070
    75
1070
     0
1070
    76
1070
     0
1070
    77
1070
     1
1070
    78
1070
     8
1070
   140
1040
15.590552
1070
   147
1040
0.0
1070
   173
1070
     1
1070
   176
1070
     4
1070
   177
1070
     4
1070
   178
1070
     7
1070
   271
1070
     1
1070
   277
1070
     2
1070
   279
1070
     2
1070
   280
1070
     0
1070
   287
1070
     5
1070
   340
1005
589
1002
}
  0
DIMENSION
  5
5B1
330
1F
100
AcDbEntity
  8
LAY-20
  6
CONTINUOUS
 62
     4
100
AcDbDimension
  2
*D18
 10
1410.0000000001
 20
975.0000000000801
 30
0.0
 11
1397.5000000001
 21
1100.00000000008
 31
0.0
 70
   160
  3
ISO-25
100
AcDbAlignedDimension
 13
1410.0000000001
 23
1225.00000000008
 33
0.0
 14
1410.0000000001
 24
975.0000000000801
 34
0.0
 50
90.0
100
AcDbRotatedDimension
1001
ACAD
1000
DSTYLE
1002
{
1070
   270
1070
     2
1070
     6
1000
EX_BNORM
1070
     7
1000
EX_BNORM
1070
    41
1040
12.5
1070
    42
1040
0.0
1070
    44
1040
0.0
1070
    73
1070
     0
1070
    74
1070
     0
1070
    75
1070
     1
1070
    76
1070
     1
1070
    77
1070
     1
1070
    78
1070
     8
1070
   140
1040
15.590552
1070
   147
1040
0.0
1070
   173
1070
     1
1070
   176
1070
     4
1070
   177
1070
     4
1070
   178
1070
     7
1070
   271
1070
     1
1070
   277
1070
     2
1070
   279
1070
     2
1070
   280
1070
     0
1070
   287
1070
     5
1070
   340
1005
589
1002
}
  0
DIMENSION
  5
5BC
330
1F
100
AcDbEntity
  8
LAY-20
  6
CONTINUOUS
 62
     4
100
AcDbDimension
  2
*D19
 10
1445.0
 20
972.0000000000801
 30
0.0
 11
1432.5
 21
1100.00000000008
 31
0.0
 70
   160
  3
ISO-25
100
AcDbAlignedDimension
 13
1325.0
 23
1228.00000000008
 33
0.0
 14
1325.0000000001
 24
972.0000000000801
 34
0.0
 50
90.0
100
AcDbRotatedDimension
1001
ACAD
1000
DSTYLE
1002
{
1070
   270
1070
     2
1070
     6
1000
EX_BNORM
1070
     7
1000
EX_BNORM
1070
    41
1040
12.5
1070
    42
1040
7.5
1070
    44
1040
7.5
1070
    73
1070
     0
1070
    74
1070
     0
1070
    75
1070
     0
1070
    76
1070
     0
1070
    77
1070
     1
1070
    78
1070
     8
1070
   140
1040
15.590552
1070
   147
1040
0.0
1070
   173
1070
     1
1070
   176
1070
     4
1070
   177
1070
     4
1070
   178
1070
     7
1070
   271
1070
     1
1070
   277
1070
     2
1070
   279
1070
     2
1070
   280
1070
     0
1070
   287
1070
     5
1070
   340
1005
589
1002
}
  0
DIMENSION
  5
5C9
330
1F
100
AcDbEntity
  8
LAY-20
  6
CONTINUOUS
 62
     4
100
AcDbDimension
  2
*D20
 10
918.4999999999923
 20
864.5
 30
0.0
 11
624.9999999999918
 21
877.0
 31
0.0
 70
   160
  3
ISO-25
100
AcDbAlignedDimension
 13
331.4999999999914
 23
981.5000000000205
 33
0.0
 14
918.4999999999923
 24
981.5000000000205
 34
0.0
100
AcDbRotatedDimension
1001
ACAD
1000
DSTYLE
1002
{
1070
   270
1070
     2
1070
     6
1000
EX_BNORM
1070
     7
1000
EX_BNORM
1070
    41
1040
12.5
1070
    42
1040
7.5
1070
    44
1040
7.5
1070
    73
1070
     0
1070
    74
1070
     0
1070
    75
1070
     0
1070
    76
1070
     0
1070
    77
1070
     1
1070
    78
1070
     8
1070
   140
1040
15.590552
1070
   147
1040
0.0
1070
   173
1070
     1
1070
   176
1070
     4
1070
   177
1070
     4
1070
   178
1070
     7
1070
   271
1070
     1
1070
   277
1070
     2
1070
   279
1070
     2
1070
   280
1070
     0
1070
   287
1070
     5
1070
   340
1005
589
1002
}
  0
DIMENSION
  5
5D6
330
1F
100
AcDbEntity
  8
LAY-20
  6
CONTINUOUS
 62
     4
100
AcDbDimension
  2
*D21
 10
325.0000000000018
 20
829.5
 30
0.0
 11
625.000000000002
 21
842.0
 31
0.0
 70
   160
  3
ISO-25
100
AcDbAlignedDimension
 13
925.0000000000023
 23
975.000000000021
 33
0.0
 14
325.0000000000018
 24
975.000000000021
 34
0.0
100
AcDbRotatedDimension
1001
ACAD
1000
DSTYLE
1002
{
1070
   270
1070
     2
1070
     6
1000
EX_BNORM
1070
     7
1000
EX_BNORM
1070
    41
1040
12.5
1070
    42
1040
7.5
1070
    44
1040
7.5
1070
    73
1070
     0
1070
    74
1070
     0
1070
    75
1070
     0
1070
    76
1070
     0
1070
    77
1070
     1
1070
    78
1070
     8
1070
   140
1040
15.590552
1070
   147
1040
0.0
1070
   173
1070
     1
1070
   176
1070
     4
1070
   177
1070
     4
1070
   178
1070
     7
1070
   271
1070
     1
1070
   277
1070
     2
1070
   279
1070
     2
1070
   280
1070
     0
1070
   287
1070
     5
1070
   340
1005
589
1002
}
  0
DIMENSION
  5
5E3
330
1F
100
AcDbEntity
  8
LAY-20
  6
CONTINUOUS
 62
     4
100
AcDbDimension
  2
*D22
 10
1125.0
 20
1218.5
 30
0.0
 11
1112.5
 21
1181.50000000005
 31
0.0
 70
   160
  3
ISO-25
100
AcDbAlignedDimension
 13
1180.0
 23
1144.5000000001
 33
0.0
 14
1125.0
 24
1218.5
 34
0.0
 50
90.0
100
AcDbRotatedDimension
1001
ACAD
1000
DSTYLE
1002
{
1070
   270
1070
     2
1070
     6
1000
EX_BNORM
1070
     7
1000
EX_BNORM
1070
    41
1040
12.5
1070
    42
1040
7.5
1070
    44
1040
7.5
1070
    73
1070
     0
1070
    74
1070
     0
1070
    75
1070
     0
1070
    76
1070
     1
1070
    77
1070
     1
1070
    78
1070
     8
1070
   140
1040
15.590552
1070
   147
1040
0.0
1070
   173
1070
     1
1070
   176
1070
     4
1070
   177
1070
     4
1070
   178
1070
     7
1070
   271
1070
     1
1070
   277
1070
     2
1070
   279
1070
     2
1070
   280
1070
     0
1070
   287
1070
     5
1070
   340
1005
589
1002
}
  0
DIMENSION
  5
5EF
330
1F
100
AcDbEntity
  8
LAY-20
  6
CONTINUOUS
 62
     4
100
AcDbDimension
  2
*D23
 10
913.9999999999901
 20
899.5000000000002
 30
0.0
 11
624.99999999999
 21
912.0000000000002
 31
0.0
 70
   160
  3
ISO-25
100
AcDbAlignedDimension
 13
335.9999999999898
 23
986.0000000000201
 33
0.0
 14
913.9999999999901
 24
986.0000000000201
 34
0.0
100
AcDbRotatedDimension
1001
ACAD
1000
DSTYLE
1002
{
1070
   270
1070
     2
1070
     6
1000
EX_BNORM
1070
     7
1000
EX_BNORM
1070
    41
1040
12.5
1070
    42
1040
7.5
1070
    44
1040
7.5
1070
    73
1070
     0
1070
    74
1070
     0
1070
    75
1070
     0
1070
    76
1070
     0
1070
    77
1070
     1
1070
    78
1070
     8
1070
   140
1040
15.590552
1070
   147
1040
0.0
1070
   173
1070
     1
1070
   176
1070
     4
1070
   177
1070
     4
1070
   178
1070
     7
1070
   271
1070
     1
1070
   277
1070
     2
1070
   279
1070
     2
1070
   280
1070
     0
1070
   287
1070
     5
1070
   340
1005
589
1002
}
  0
DIMENSION
  5
5FC
330
1F
100
AcDbEntity
  8
LAY-20
  6
CONTINUOUS
 62
     4
100
AcDbDimension
  2
*D24
 10
1090.0
 20
1218.50000000004
 30
0.0
 11
1077.5
 21
1178.25000000004
 31
0.0
 70
   160
  3
ISO-25
100
AcDbAlignedDimension
 13
1055.0
 23
1138.00000000004
 33
0.0
 14
1055.0
 24
1218.50000000004
 34
0.0
 50
90.0
100
AcDbRotatedDimension
1001
ACAD
1000
DSTYLE
1002
{
1070
   270
1070
     2
1070
     6
1000
EX_BNORM
1070
     7
1000
EX_BNORM
1070
    41
1040
12.5
1070
    42
1040
0.0
1070
    44
1040
0.0
1070
    73
1070
     0
1070
    74
1070
     0
1070
    75
1070
     1
1070
    76
1070
     1
1070
    77
1070
     1
1070
    78
1070
     8
1070
   140
1040
15.590552
1070
   147
1040
0.0
1070
   173
1070
     1
1070
   176
1070
     4
1070
   177
1070
     4
1070
   178
1070
     7
1070
   271
1070
     1
1070
   277
1070
     2
1070
   279
1070
     2
1070
   280
1070
     0
1070
   287
1070
     5
1070
   340
1005
589
1002
}
  0
DIMENSION
  5
607
330
1F
100
AcDbEntity
  8
LAY-20
  6
CONTINUOUS
 62
     4
100
AcDbDimension
  2
*D25
 10
1090.0
 20
986.0000000000406
 30
0.0
 11
1077.5
 21
1062.00000000004
 31
0.0
 70
   160
  3
ISO-25
100
AcDbAlignedDimension
 13
1175.0
 23
1138.00000000004
 33
0.0
 14
1175.0
 24
986.0000000000406
 34
0.0
 50
90.0
100
AcDbRotatedDimension
1001
ACAD
1000
DSTYLE
1002
{
1070
   270
1070
     2
1070
     6
1000
EX_BNORM
1070
     7
1000
EX_BNORM
1070
    41
1040
12.5
1070
    42
1040
7.5
1070
    44
1040
7.5
1070
    73
1070
     0
1070
    74
1070
     0
1070
    75
1070
     0
1070
    76
1070
     0
1070
    77
1070
     1
1070
    78
1070
     8
1070
   140
1040
15.590552
1070
   147
1040
0.0
1070
   173
1070
     1
1070
   176
1070
     4
1070
   177
1070
     4
1070
   178
1070
     7
1070
   271
1070
     1
1070
   277
1070
     2
1070
   279
1070
     2
1070
   280
1070
     0
1070
   287
1070
     5
1070
   340
1005
589
1002
}
  0
DIMENSION
  5
614
330
1F
100
AcDbEntity
  8
LAY-20
  6
CONTINUOUS
 62
     4
100
AcDbDimension
  2
*D26
 10
1055.0
 20
1218.50000000004
 30
0.0
 11
1042.5
 21
1100.00000000003
 31
0.0
 70
   160
  3
ISO-25
100
AcDbAlignedDimension
 13
1175.0
 23
981.50000000002
 33
0.0
 14
1175.0
 24
1218.50000000004
 34
0.0
 50
90.0
100
AcDbRotatedDimension
1001
ACAD
1000
DSTYLE
1002
{
1070
   270
1070
     2
1070
     6
1000
EX_BNORM
1070
     7
1000
EX_BNORM
1070
    41
1040
12.5
1070
    42
1040
7.5
1070
    44
1040
7.5
1070
    73
1070
     0
1070
    74
1070
     0
1070
    75
1070
     0
1070
    76
1070
     0
1070
    77
1070
     1
1070
    78
1070
     8
1070
   140
1040
15.590552
1070
   147
1040
0.0
1070
   173
1070
     1
1070
   176
1070
     4
1070
   177
1070
     4
1070
   178
1070
     7
1070
   271
1070
     1
1070
   277
1070
     2
1070
   279
1070
     2
1070
   280
1070
     0
1070
   287
1070
     5
1070
   340
1005
589
1002
}
  0
DIMENSION
  5
621
330
1F
100
AcDbEntity
  8
LAY-20
  6
CONTINUOUS
 62
     4
100
AcDbDimension
  2
*D27
 10
1020.0
 20
975.0000000000202
 30
0.0
 11
1007.5
 21
1100.00000000003
 31
0.0
 70
   160
  3
ISO-25
100
AcDbAlignedDimension
 13
1175.0
 23
1225.00000000004
 33
0.0
 14
1175.0
 24
975.0000000000202
 34
0.0
 50
90.0
100
AcDbRotatedDimension
1001
ACAD
1000
DSTYLE
1002
{
1070
   270
1070
     2
1070
     6
1000
EX_BNORM
1070
     7
1000
EX_BNORM
1070
    41
1040
12.5
1070
    42
1040
7.5
1070
    44
1040
7.5
1070
    73
1070
     0
1070
    74
1070
     0
1070
    75
1070
     0
1070
    76
1070
     0
1070
    77
1070
     1
1070
    78
1070
     8
1070
   140
1040
15.590552
1070
   147
1040
0.0
1070
   173
1070
     1
1070
   176
1070
     4
1070
   177
1070
     4
1070
   178
1070
     7
1070
   271
1070
     1
1070
   277
1070
     2
1070
   279
1070
     2
1070
   280
1070
     0
1070
   287
1070
     5
1070
   340
1005
589
1002
}
  0
DIMENSION
  5
62E
330
1F
100
AcDbEntity
  8
LAY-20
  6
CONTINUOUS
 62
     4
100
AcDbDimension
  2
*D28
 10
1255.0
 20
864.5
 30
0.0
 11
1215.0
 21
877.0
 31
0.0
 70
   160
  3
ISO-25
100
AcDbAlignedDimension
 13
1175.0
 23
986.00000000006
 33
0.0
 14
1255.0
 24
986.00000000006
 34
0.0
100
AcDbRotatedDimension
1001
ACAD
1000
DSTYLE
1002
{
1070
   270
1070
     2
1070
     6
1000
EX_BNORM
1070
     7
1000
EX_BNORM
1070
    41
1040
12.5
1070
    42
1040
7.5
1070
    44
1040
7.5
1070
    73
1070
     0
1070
    74
1070
     0
1070
    75
1070
     0
1070
    76
1070
     0
1070
    77
1070
     1
1070
    78
1070
     8
1070
   140
1040
15.590552
1070
   147
1040
0.0
1070
   173
1070
     1
1070
   176
1070
     4
1070
   177
1070
     4
1070
   178
1070
     7
1070
   271
1070
     1
1070
   277
1070
     2
1070
   279
1070
     2
1070
   280
1070
     0
1070
   287
1070
     5
1070
   340
1005
589
1002
}
  0
DIMENSION
  5
63B
330
1F
100
AcDbEntity
  8
LAY-20
  6
CONTINUOUS
 62
     4
100
AcDbDimension
  2
*D29
 10
1175.0
 20
899.5
 30
0.0
 11
1209.99999999995
 21
912.0
 31
0.0
 70
   160
  3
ISO-25
100
AcDbAlignedDimension
 13
1244.9999999999
 23
1042.0727568866
 33
0.0
 14
1175.0
 24
899.5
 34
0.0
100
AcDbRotatedDimension
1001
ACAD
1000
DSTYLE
1002
{
1070
   270
1070
     2
1070
     6
1000
EX_BNORM
1070
     7
1000
EX_BNORM
1070
    41
1040
12.5
1070
    42
1040
7.5
1070
    44
1040
7.5
1070
    73
1070
     0
1070
    74
1070
     0
1070
    75
1070
     0
1070
    76
1070
     1
1070
    77
1070
     1
1070
    78
1070
     8
1070
   140
1040
15.590552
1070
   147
1040
0.0
1070
   173
1070
     1
1070
   176
1070
     4
1070
   177
1070
     4
1070
   178
1070
     7
1070
   271
1070
     1
1070
   277
1070
     2
1070
   279
1070
     2
1070
   280
1070
     0
1070
   287
1070
     5
1070
   340
1005
589
1002
}
  0
LINE
  5
647
330
1F
100
AcDbEntity
  8
LAY-255
  6
CONTINUOUS
 62
     7
100
AcDbLine
 10
1925.0
 20
110.0
 30
0.0
 11
1425.0
 21
110.0
 31
0.0
  0
LINE
  5
648
330
1F
100
AcDbEntity
  8
LAY-255
  6
CONTINUOUS
 62
     7
100
AcDbLine
 10
1444.0
 20
79.99999999999999
 30
0.0
 11
1484.0
 21
105.0
 31
0.0
  0
LINE
  5
649
330
1F
100
AcDbEntity
  8
LAY-255
  6
CONTINUOUS
 62
     7
100
AcDbLine
 10
1484.0
 20
105.0
 30
0.0
 11
1524.0
 21
79.99999999999999
 31
0.0
  0
LINE
  5
64A
330
1F
100
AcDbEntity
  8
LAY-255
  6
CONTINUOUS
 62
     7
100
AcDbLine
 10
1524.0
 20
79.99999999999999
 30
0.0
 11
1484.0
 21
55.0
 31
0.0
  0
LINE
  5
64B
330
1F
100
AcDbEntity
  8
LAY-255
  6
CONTINUOUS
 62
     7
100
AcDbLine
 10
1484.0
 20
55.0
 30
0.0
 11
1444.0
 21
79.99999999999999
 31
0.0
  0
LINE
  5
64C
330
1F
100
AcDbEntity
  8
LAY-255
  6
CONTINUOUS
 62
     7
100
AcDbLine
 10
25.0
 20
50.0
 30
0.0
 11
1925.0
 21
50.0
 31
0.0
  0
LINE
  5
64D
330
1F
100
AcDbEntity
  8
LAY-255
  6
CONTINUOUS
 62
     7
100
AcDbLine
 10
25.0
 20
1400.0
 30
0.0
 11
1925.0
 21
1400.0
 31
0.0
  0
LINE
  5
64E
330
1F
100
AcDbEntity
  8
LAY-255
  6
CONTINUOUS
 62
     7
100
AcDbLine
 10
25.0
 20
50.0
 30
0.0
 11
25.0
 21
1400.0
 31
0.0
  0
LINE
  5
64F
330
1F
100
AcDbEntity
  8
LAY-255
  6
CONTINUOUS
 62
     4
100
AcDbLine
 10
1425.0
 20
140.0
 30
0.0
 11
1925.0
 21
140.0
 31
0.0
  0
LINE
  5
650
330
1F
100
AcDbEntity
  8
LAY-255
  6
CONTINUOUS
 62
     4
100
AcDbLine
 10
1675.0
 20
140.0
 30
0.0
 11
1675.0
 21
110.0
 31
0.0
  0
POINT
  5
651
330
1F
100
AcDbEntity
  8
LAY-255
  6
CONTINUOUS
 62
     7
100
AcDbPoint
 10
1445.0
 20
175.0000000000001
 30
0.0
  0
POINT
  5
652
330
1F
100
AcDbEntity
  8
LAY-255
  6
CONTINUOUS
 62
     7
100
AcDbPoint
 10
1445.0
 20
150.0000000000001
 30
0.0
  0
LINE
  5
653
330
1F
100
AcDbEntity
  8
LAY-255
  6
CONTINUOUS
 62
     7
100
AcDbLine
 10
1925.0
 20
50.0
 30
0.0
 11
1925.0
 21
1400.0
 31
0.0
  0
LINE
  5
654
330
1F
100
AcDbEntity
  8
LAY-255
  6
CONTINUOUS
 62
     7
100
AcDbLine
 10
1925.0
 20
410.0000000000003
 30
0.0
 11
1425.0
 21
410.0000000000003
 31
0.0
  0
LINE
  5
655
330
1F
100
AcDbEntity
  8
LAY-255
  6
CONTINUOUS
 62
     4
100
AcDbLine
 10
1915.0
 20
350.0000000000003
 30
0.0
 11
1435.0
 21
350.0000000000003
 31
0.0
  0
LINE
  5
656
330
1F
100
AcDbEntity
  8
LAY-255
  6
CONTINUOUS
 62
     4
100
AcDbLine
 10
1915.0
 20
380.0000000000003
 30
0.0
 11
1435.0
 21
380.0000000000003
 31
0.0
  0
POINT
  5
657
330
1F
100
AcDbEntity
  8
LAY-255
  6
CONTINUOUS
 62
     7
100
AcDbPoint
 10
1500.0
 20
355.0000000000003
 30
0.0
  0
POINT
  5
658
330
1F
100
AcDbEntity
  8
LAY-255
  6
CONTINUOUS
 62
     7
100
AcDbPoint
 10
1500.0
 20
385.0000000000003
 30
0.0
  0
LINE
  5
659
330
1F
100
AcDbEntity
  8
LAY-255
  6
CONTINUOUS
 62
     7
100
AcDbLine
 10
1425.0
 20
50.0
 30
0.0
 11
1425.0
 21
410.0000000000003
 31
0.0
  0
POINT
  5
65A
330
1F
100
AcDbEntity
  8
LAY-255
  6
CONTINUOUS
 62
     7
100
AcDbPoint
 10
1445.0
 20
300.0000000000003
 30
0.0
  0
POINT
  5
65B
330
1F
100
AcDbEntity
  8
LAY-255
  6
CONTINUOUS
 62
     7
100
AcDbPoint
 10
1445.0
 20
250.0000000000002
 30
0.0
  0
POINT
  5
65C
330
1F
100
AcDbEntity
  8
LAY-255
  6
CONTINUOUS
 62
     7
100
AcDbPoint
 10
1445.0
 20
275.0000000000002
 30
0.0
  0
POINT
  5
65D
330
1F
100
AcDbEntity
  8
LAY-255
  6
CONTINUOUS
 62
     7
100
AcDbPoint
 10
1445.0
 20
225.0000000000002
 30
0.0
  0
POINT
  5
65E
330
1F
100
AcDbEntity
  8
LAY-255
  6
CONTINUOUS
 62
     7
100
AcDbPoint
 10
1445.0
 20
325.0000000000003
 30
0.0
  0
POINT
  5
65F
330
1F
100
AcDbEntity
  8
LAY-255
  6
CONTINUOUS
 62
     7
100
AcDbPoint
 10
1445.0
 20
200.0000000000001
 30
0.0
  0
TEXT
  5
660
330
1F
100
AcDbEntity
  8
LAY-255
  6
CONTINUOUS
 62
     7
100
AcDbText
 10
1540.691894370117
 20
77.71874999999999
 30
0.0
 40
25.78125
  1
福西鋳物株式会社
 41
1.342691871783662
  7
EXCADSTD
100
AcDbText
  0
TEXT
  5
661
330
1F
100
AcDbEntity
  8
LAY-255
  6
CONTINUOUS
 62
     7
100
AcDbText
 10
1542.546875
 20
59.90624999999999
 30
0.0
 40
8.59375
  1
ＦＵＫＵＮＩＳＨＩ
 41
1.204799226045263
  7
EXCADSTD
100
AcDbText
  0
TEXT
  5
662
330
1F
100
AcDbEntity
  8
LAY-255
  6
CONTINUOUS
 62
     7
100
AcDbText
 10
1663.595982142857
 20
59.90624999999999
 30
0.0
 40
8.59375
  1
ＦＯＵＮＤＲＹ
 41
1.243252752978497
  7
EXCADSTD
100
AcDbText
  0
TEXT
  5
663
330
1F
100
AcDbEntity
  8
LAY-255
  6
CONTINUOUS
 62
     7
100
AcDbText
 10
1759.97295734375
 20
59.90624999999999
 30
0.0
 40
8.59375
  1
ＣＯ.,ＬＴＤ.
 41
1.243831100341625
  7
EXCADSTD
100
AcDbText
  0
TEXT
  5
664
330
1F
100
AcDbEntity
  8
LAY-255
  6
CONTINUOUS
 62
     7
100
AcDbText
 10
1470.171875
 20
68.59375
 30
0.0
 40
25.78125
  1
S
 41
0.7582677563636363
  7
EXCADSTD
100
AcDbText
  0
TEXT
  5
665
330
1F
100
AcDbEntity
  8
LAY-255
  6
CONTINUOUS
 62
     7
100
AcDbText
 10
1485.5234375
 20
68.7470518868
 30
0.0
 40
25.78125
  1
F
 41
0.7440945272727272
  7
EXCADSTD
100
AcDbText
  0
TEXT
  5
666
330
1F
100
AcDbEntity
  8
LAY-255
  6
CONTINUOUS
 62
     7
100
AcDbText
 10
1685.52734375
 20
122.1093749999999
 30
0.0
 40
12.890625
  1
縮尺
 41
1.080708718181818
  7
EXCADSTD
100
AcDbText
  0
TEXT
  5
667
330
1F
100
AcDbEntity
  8
LAY-255
  6
CONTINUOUS
 62
     7
100
AcDbText
 10
1435.76171875
 20
122.1093749999999
 30
0.0
 40
12.890625
  1
作成日
 41
1.000629973818182
  7
EXCADSTD
100
AcDbText
  0
TEXT
  5
668
330
1F
100
AcDbEntity
  8
LAY-255
  6
CONTINUOUS
 62
     7
100
AcDbText
 10
1728.40625
 20
117.8124999999999
 30
0.0
 40
17.1875
  1
１：５,１：１
 41
0.8819559783040489
  7
EXCADSTD
100
AcDbText
  0
TEXT
  5
669
330
1F
100
AcDbEntity
  8
LAY-255
  6
CONTINUOUS
 62
     7
100
AcDbText
 10
1446.015625
 20
152.8124999999999
 30
0.0
 40
17.1875
  1
適用荷重：歩行用・Ｔ－２
 41
1.002822813036021
  7
EXCADSTD
100
AcDbText
  0
TEXT
  5
66A
330
1F
100
AcDbEntity
  8
LAY-255
  6
CONTINUOUS
 62
     7
100
AcDbText
 10
1436.328125
 20
357.8125000000003
 30
0.0
 40
17.1875
  1
型式
 41
1.056348480681818
  7
EXCADSTD
100
AcDbText
  0
TEXT
  5
66B
330
1F
100
AcDbEntity
  8
LAY-255
  6
CONTINUOUS
 62
     7
100
AcDbText
 10
1437.109375
 20
387.8125000000003
 30
0.0
 40
17.1875
  1
品名
 41
0.9788386340909091
  7
EXCADSTD
100
AcDbText
  0
TEXT
  5
66C
330
1F
100
AcDbEntity
  8
LAY-255
  6
CONTINUOUS
 62
     7
100
AcDbText
 10
1501.015625
 20
387.8125000000003
 30
0.0
 40
17.1875
  1
鋳鉄製ライナー側溝グレーチング
 41
1.017435374025974
  7
EXCADSTD
100
AcDbText
  0
TEXT
  5
66D
330
1F
100
AcDbEntity
  8
LAY-255
  6
CONTINUOUS
 62
     7
100
AcDbText
 10
1446.171875
 20
227.8125
 30
0.0
 40
17.1875
  1
表面：すべり止めクリスタル模様
 41
1.015836889542037
  7
EXCADSTD
100
AcDbText
  0
TEXT
  5
66E
330
1F
100
AcDbEntity
  8
LAY-255
  6
CONTINUOUS
 62
     7
100
AcDbText
 10
1445.859375
 20
277.8125000000003
 30
0.0
 40
17.1875
  1
仕上：インターロッキングブロック用
 41
1.011837149668874
  7
EXCADSTD
100
AcDbText
  0
TEXT
  5
66F
330
1F
100
AcDbEntity
  8
LAY-255
  6
CONTINUOUS
 62
     7
100
AcDbText
 10
1446.015625
 20
252.8125000000002
 30
0.0
 40
17.1875
  1
貼代：７０
 41
0.9987182359408034
  7
EXCADSTD
100
AcDbText
  0
TEXT
  5
670
330
1F
100
AcDbEntity
  8
LAY-255
  6
CONTINUOUS
 62
     7
100
AcDbText
 10
1446.171875
 20
302.8125000000003
 30
0.0
 40
17.1875
  1
用途：Ｕ形側溝用
 41
1.014398253506493
  7
EXCADSTD
100
AcDbText
  0
TEXT
  5
671
330
1F
100
AcDbEntity
  8
LAY-255
  6
CONTINUOUS
 62
     7
100
AcDbText
 10
1446.015625
 20
327.8125000000003
 30
0.0
 40
17.1875
  1
適用溝幅：１８０用
 41
1.014552031760644
  7
EXCADSTD
100
AcDbText
  0
TEXT
  5
672
330
1F
100
AcDbEntity
  8
LAY-255
  6
CONTINUOUS
 62
     7
100
AcDbText
 10
1505.625
 20
357.8125000000003
 30
0.0
 40
17.1875
  1
Ｆ２０－１８ＴＵＢ－Ｔ型
 41
0.9964716018867923
  7
EXCADSTD
100
AcDbText
  0
TEXT
  5
673
330
1F
100
AcDbEntity
  8
LAY-255
  6
CONTINUOUS
 62
     7
100
AcDbText
 10
1446.015625
 20
202.8124999999999
 30
0.0
 40
17.1875
  1
蓋　：スチール（溶融亜鉛めっき）
 41
0.9751580860435339
  7
EXCADSTD
100
AcDbText
  0
TEXT
  5
674
330
1F
100
AcDbEntity
  8
LAY-255
  6
CONTINUOUS
 62
     7
100
AcDbText
 10
1446.875
 20
177.8124999999999
 30
0.0
 40
17.1875
  1
受枠：スチール（溶融亜鉛めっき）
 41
0.9724132705505761
  7
EXCADSTD
100
AcDbText
  0
TEXT
  5
675
330
1F
100
AcDbEntity
  8
LAY-255
  6
CONTINUOUS
 62
     7
100
AcDbText
 10
1506.40625
 20
117.8124999999999
 30
0.0
 40
17.1875
  1
１７／０１／１９
 41
0.964285764935065
  7
EXCADSTD
100
AcDbText
  0
ENDSEC
  0
SECTION
  2
OBJECTS
  0
DICTIONARY
  5
C
330
0
100
AcDbDictionary
  3
ACAD_GROUP
350
D
  3
ACAD_LAYOUT
350
1A
  3
ACAD_MATERIAL
350
43
  3
ACAD_MLEADERSTYLE
350
6B
  3
ACAD_MLINESTYLE
350
17
  3
ACAD_PLOTSETTINGS
350
19
  3
ACAD_SCALELIST
350
47
  3
ACAD_VISUALSTYLE
350
2A
  3
ACDBHEADERROUNDTRIPXREC
350
676
  3
ACDBVARIABLEDICTIONARY
350
697
  0
DICTIONARY
  5
6A2
330
8
100
AcDbDictionary
280
     1
  3
ACAD_XREC_ROUNDTRIP
360
6A3
  0
DICTIONARY
  5
D
102
{ACAD_REACTORS
330
C
102
}
330
C
100
AcDbDictionary
  0
DICTIONARY
  5
1A
102
{ACAD_REACTORS
330
C
102
}
330
C
100
AcDbDictionary
  0
DICTIONARY
  5
43
102
{ACAD_REACTORS
330
C
102
}
330
C
100
AcDbDictionary
  3
BYBLOCK
350
45
  3
BYLAYER
350
44
  3
GLOBAL
350
46
  0
DICTIONARY
  5
6B
102
{ACAD_REACTORS
330
C
102
}
330
C
100
AcDbDictionary
  3
STANDARD
350
6C
  0
DICTIONARY
  5
17
102
{ACAD_REACTORS
330
C
102
}
330
C
100
AcDbDictionary
  3
STANDARD
350
18
  0
DICTIONARY
  5
19
102
{ACAD_REACTORS
330
C
102
}
330
C
100
AcDbDictionary
  0
DICTIONARY
  5
47
102
{ACAD_REACTORS
330
C
102
}
330
C
100
AcDbDictionary
  3
A0
350
48
  3
A1
350
49
  3
A2
350
4A
  3
A3
350
4B
  3
A4
350
4C
  3
A5
350
4D
  3
A6
350
4E
  3
A7
350
4F
  3
A8
350
50
  3
A9
350
51
  3
B0
350
52
  3
B1
350
53
  3
B2
350
54
  3
B3
350
55
  3
B4
350
56
  3
B5
350
57
  3
B6
350
58
  3
B7
350
59
  3
B8
350
5A
  3
B9
350
5B
  3
C0
350
5C
  3
C1
350
5D
  3
C2
350
5E
  3
C3
350
5F
  3
C4
350
60
  3
C5
350
61
  3
C6
350
62
  3
C7
350
63
  3
C8
350
64
  3
C9
350
65
  3
D0
350
66
  3
D1
350
67
  3
D2
350
68
  0
DICTIONARY
  5
2A
102
{ACAD_REACTORS
330
C
102
}
330
C
100
AcDbDictionary
  3
2DWIREFRAME
350
2F
  3
BASIC
350
32
  3
BRIGHTEN
350
36
  3
COLORCHANGE
350
3A
  3
CONCEPTUAL
350
34
  3
DIM
350
35
  3
EDGECOLOROFF
350
3D
  3
FACEPATTERN
350
39
  3
FLAT
350
2B
  3
FLATWITHEDGES
350
2C
  3
GOURAUD
350
2D
  3
GOURAUDWITHEDGES
350
2E
  3
HIDDEN
350
31
  3
JITTEROFF
350
3B
  3
LINEPATTERN
350
38
  3
OVERHANGOFF
350
3C
  3
REALISTIC
350
33
  3
SHADED
350
42
  3
SHADED_WITH_EDGES
350
41
  3
SHADES_OF_GRAY
350
3E
  3
SKETCHY
350
3F
  3
THICKEN
350
37
  3
WIREFRAME
350
30
  3
X-RAY
350
40
  0
DICTIONARY
  5
676
102
{ACAD_REACTORS
330
C
102
}
330
C
100
AcDbDictionary
  3
CEPSNID
350
680
  3
CEPSNTYPE
350
67F
  3
DIMSTYLEDATA
350
696
  3
FINGERPRINTGUID
350
681
  3
HYPERLINKBASE
350
679
  3
INSUNITS
350
67E
  3
LAYOUTDICT
350
67B
  3
LWETCUNION
350
67D
  3
PLOTSETDICT
350
67C
  3
PSVPSCALE
350
683
  3
PUCSBASE
350
686
  3
PUCSORGBACK
350
68C
  3
PUCSORGBOTTOM
350
688
  3
PUCSORGFRONT
350
68B
  3
PUCSORGLEFT
350
689
  3
PUCSORGRIGHT
350
68A
  3
PUCSORGTOP
350
687
  3
PUCSORTHOREF
350
684
  3
PUCSORTHOVIEW
350
685
  3
STYLESHEET
350
67A
  3
TSTACKALIGN
350
677
  3
TSTACKSIZE
350
678
  3
UCSBASE
350
68F
  3
UCSORGBACK
350
695
  3
UCSORGBOTTOM
350
691
  3
UCSORGFRONT
350
694
  3
UCSORGLEFT
350
692
  3
UCSORGRIGHT
350
693
  3
UCSORGTOP
350
690
  3
UCSORTHOREF
350
68D
  3
UCSORTHOVIEW
350
68E
  3
VERSIONGUID
350
682
  0
DICTIONARY
  5
697
102
{ACAD_REACTORS
330
C
102
}
330
C
100
AcDbDictionary
  3
CANNOSCALE
350
6A4
  3
CENTEREXE
350
69E
  3
CENTERLTYPEFILE
350
69F
  3
CMLEADERSTYLE
350
699
  3
CTABLESTYLE
350
698
  3
DIMASSOC
350
6A0
  3
HIDETEXT
350
6A1
  3
MSLTSCALE
350
6A5
  3
PSOLHEIGHT
350
69B
  3
PSOLWIDTH
350
69A
  0
XRECORD
  5
6A3
102
{ACAD_REACTORS
330
6A2
102
}
330
6A2
100
AcDbXrecord
102
VTR_0.000_0.000_1.000_1.000_VISUALSTYLE
340
2F
102
VTR_0.000_0.000_1.000_1.000_GRIDDISPLAY
 70
     3
102
VTR_0.000_0.000_1.000_1.000_GRIDMAJOR
 70
     5
102
VTR_0.000_0.000_1.000_1.000_DEFAULTLIGHTING
280
     1
102
VTR_0.000_0.000_1.000_1.000_DEFAULTLIGHTINGTYPE
 70
     1
102
VTR_0.000_0.000_1.000_1.000_BRIGHTNESS
141
0.0
102
VTR_0.000_0.000_1.000_1.000_CONTRAST
142
0.0
  0
MATERIAL
  5
45
102
{ACAD_REACTORS
330
43
102
}
102
{ACAD_XDICTIONARY
360
6A8
102
}
330
43
100
AcDbMaterial
  1
BYBLOCK
  0
MATERIAL
  5
44
102
{ACAD_REACTORS
330
43
102
}
102
{ACAD_XDICTIONARY
360
6A6
102
}
330
43
100
AcDbMaterial
  1
BYLAYER
  0
MATERIAL
  5
46
102
{ACAD_REACTORS
330
43
102
}
102
{ACAD_XDICTIONARY
360
6AA
102
}
330
43
100
AcDbMaterial
  1
GLOBAL
  0
ACAD_PROXY_OBJECT
  5
6C
102
{ACAD_REACTORS
330
6B
102
}
330
6B
100
AcDbProxyObject
 90
      499
 91
      505
 93
      610
310
40901902A4063FBFFFFFE0000000000000020400000000000020404214DD185B99185C990000000000000104090141901A00000000000004100000000000000041025764000000000000039000
340
14
340
0
340
11
340
0
 94
        0
1001
ACAD_MLEADERVER
1070
     2
  0
MLINESTYLE
  5
18
102
{ACAD_REACTORS
330
17
102
}
330
17
100
AcDbMlineStyle
  2
Standard
 70
     0
  3

 62
   256
 51
90.0
 52
90.0
 71
     2
 49
0.5
 62
   256
  6
BYLAYER
 49
-0.5
 62
   256
  6
BYLAYER
  0
ACAD_PROXY_OBJECT
  5
48
102
{ACAD_REACTORS
330
47
102
}
330
47
100
AcDbProxyObject
 90
      499
 91
      503
 93
       41
310
903313A31580
  0
ACAD_PROXY_OBJECT
  5
49
102
{ACAD_REACTORS
330
47
102
}
330
47
100
AcDbProxyObject
 90
      499
 91
      503
 93
      105
310
903313A324000000000000004000
  0
ACAD_PROXY_OBJECT
  5
4A
102
{ACAD_REACTORS
330
47
102
}
330
47
100
AcDbProxyObject
 90
      499
 91
      503
 93
      105
310
903313A344000000000000104000
  0
ACAD_PROXY_OBJECT
  5
4B
102
{ACAD_REACTORS
330
47
102
}
330
47
100
AcDbProxyObject
 90
      499
 91
      503
 93
      105
310
903313A354000000000000144000
  0
ACAD_PROXY_OBJECT
  5
4C
102
{ACAD_REACTORS
330
47
102
}
330
47
100
AcDbProxyObject
 90
      499
 91
      503
 93
      105
310
903313A384000000000000204000
  0
ACAD_PROXY_OBJECT
  5
4D
102
{ACAD_REACTORS
330
47
102
}
330
47
100
AcDbProxyObject
 90
      499
 91
      503
 93
      113
310
904313A31304000000000000244000
  0
ACAD_PROXY_OBJECT
  5
4E
102
{ACAD_REACTORS
330
47
102
}
330
47
100
AcDbProxyObject
 90
      499
 91
      503
 93
      113
310
904313A31364000000000000304000
  0
ACAD_PROXY_OBJECT
  5
4F
102
{ACAD_REACTORS
330
47
102
}
330
47
100
AcDbProxyObject
 90
      499
 91
      503
 93
      113
310
904313A32304000000000000344000
  0
ACAD_PROXY_OBJECT
  5
50
102
{ACAD_REACTORS
330
47
102
}
330
47
100
AcDbProxyObject
 90
      499
 91
      503
 93
      113
310
904313A333040000000000003E4000
  0
ACAD_PROXY_OBJECT
  5
51
102
{ACAD_REACTORS
330
47
102
}
330
47
100
AcDbProxyObject
 90
      499
 91
      503
 93
      113
310
904313A34304000000000000444000
  0
ACAD_PROXY_OBJECT
  5
52
102
{ACAD_REACTORS
330
47
102
}
330
47
100
AcDbProxyObject
 90
      499
 91
      503
 93
      113
310
904313A35304000000000000494000
  0
ACAD_PROXY_OBJECT
  5
53
102
{ACAD_REACTORS
330
47
102
}
330
47
100
AcDbProxyObject
 90
      499
 91
      503
 93
      121
310
905313A3130304000000000000594000
  0
ACAD_PROXY_OBJECT
  5
54
102
{ACAD_REACTORS
330
47
102
}
330
47
100
AcDbProxyObject
 90
      499
 91
      503
 93
      105
310
903323A310000000000000010100
  0
ACAD_PROXY_OBJECT
  5
55
102
{ACAD_REACTORS
330
47
102
}
330
47
100
AcDbProxyObject
 90
      499
 91
      503
 93
      105
310
903343A310000000000000410100
  0
ACAD_PROXY_OBJECT
  5
56
102
{ACAD_REACTORS
330
47
102
}
330
47
100
AcDbProxyObject
 90
      499
 91
      503
 93
      105
310
903383A310000000000000810100
  0
ACAD_PROXY_OBJECT
  5
57
102
{ACAD_REACTORS
330
47
102
}
330
47
100
AcDbProxyObject
 90
      499
 91
      503
 93
      113
310
90431303A310000000000000910100
  0
ACAD_PROXY_OBJECT
  5
58
102
{ACAD_REACTORS
330
47
102
}
330
47
100
AcDbProxyObject
 90
      499
 91
      503
 93
      121
310
9053130303A310000000000001650100
  0
ACAD_PROXY_OBJECT
  5
59
102
{ACAD_REACTORS
330
47
102
}
330
47
100
AcDbProxyObject
 90
      499
 91
      503
 93
      257
310
90E312F31323822203D2031272D3022000000000000200FC000000000000284000
  0
ACAD_PROXY_OBJECT
  5
5A
102
{ACAD_REACTORS
330
47
102
}
330
47
100
AcDbProxyObject
 90
      499
 91
      503
 93
      249
310
90D312F363422203D2031272D3022000000000000240FC000000000000284000
  0
ACAD_PROXY_OBJECT
  5
5B
102
{ACAD_REACTORS
330
47
102
}
330
47
100
AcDbProxyObject
 90
      499
 91
      503
 93
      249
310
90D312F333222203D2031272D3022000000000000280FC000000000000284000
  0
ACAD_PROXY_OBJECT
  5
5C
102
{ACAD_REACTORS
330
47
102
}
330
47
100
AcDbProxyObject
 90
      499
 91
      503
 93
      249
310
90D312F313622203D2031272D30220000000000002C0FC000000000000284000
  0
ACAD_PROXY_OBJECT
  5
5D
102
{ACAD_REACTORS
330
47
102
}
330
47
100
AcDbProxyObject
 90
      499
 91
      503
 93
      249
310
90D332F333222203D2031272D30220000000000002E0FC000000000000284000
  0
ACAD_PROXY_OBJECT
  5
5E
102
{ACAD_REACTORS
330
47
102
}
330
47
100
AcDbProxyObject
 90
      499
 91
      503
 93
      241
310
90C312F3822203D2031272D3022000000000000300FC000000000000284000
  0
ACAD_PROXY_OBJECT
  5
5F
102
{ACAD_REACTORS
330
47
102
}
330
47
100
AcDbProxyObject
 90
      499
 91
      503
 93
      249
310
90D332F313622203D2031272D3022000000000000320FC000000000000284000
  0
ACAD_PROXY_OBJECT
  5
60
102
{ACAD_REACTORS
330
47
102
}
330
47
100
AcDbProxyObject
 90
      499
 91
      503
 93
      241
310
90C312F3422203D2031272D3022000000000000340FC000000000000284000
  0
ACAD_PROXY_OBJECT
  5
61
102
{ACAD_REACTORS
330
47
102
}
330
47
100
AcDbProxyObject
 90
      499
 91
      503
 93
      241
310
90C332F3822203D2031272D3022000000000000360FC000000000000284000
  0
ACAD_PROXY_OBJECT
  5
62
102
{ACAD_REACTORS
330
47
102
}
330
47
100
AcDbProxyObject
 90
      499
 91
      503
 93
      241
310
90C312F3222203D2031272D3022000000000000380FC000000000000284000
  0
ACAD_PROXY_OBJECT
  5
63
102
{ACAD_REACTORS
330
47
102
}
330
47
100
AcDbProxyObject
 90
      499
 91
      503
 93
      241
310
90C332F3422203D2031272D30220000000000003A0FC000000000000284000
  0
ACAD_PROXY_OBJECT
  5
64
102
{ACAD_REACTORS
330
47
102
}
330
47
100
AcDbProxyObject
 90
      499
 91
      503
 93
      161
310
90A3122203D2031272D30224000000000000284000
  0
ACAD_PROXY_OBJECT
  5
65
102
{ACAD_REACTORS
330
47
102
}
330
47
100
AcDbProxyObject
 90
      499
 91
      503
 93
      257
310
90E312D312F3222203D2031272D30220000000000003E0FC000000000000284000
  0
ACAD_PROXY_OBJECT
  5
66
102
{ACAD_REACTORS
330
47
102
}
330
47
100
AcDbProxyObject
 90
      499
 91
      503
 93
      225
310
90A3322203D2031272D302200000000000002100000000000000284000
  0
ACAD_PROXY_OBJECT
  5
67
102
{ACAD_REACTORS
330
47
102
}
330
47
100
AcDbProxyObject
 90
      499
 91
      503
 93
      225
310
90A3622203D2031272D302200000000000006100000000000000284000
  0
ACAD_PROXY_OBJECT
  5
68
102
{ACAD_REACTORS
330
47
102
}
330
47
100
AcDbProxyObject
 90
      499
 91
      503
 93
      249
310
90D31272D3022203D2031272D30220000000000000A100000000000000284000
  0
ACAD_PROXY_OBJECT
  5
2F
102
{ACAD_REACTORS
330
2A
102
}
330
2A
100
AcDbProxyObject
 90
      499
 91
      501
 93
      436
310
42CC9915DA5C99599C985B595049028333333333333E33F0000000000000F90107901411070040501600405405064090741402480A0340
1001
ACAD
1000
AcDbSavedByObjectVersion
1070
     0
  0
ACAD_PROXY_OBJECT
  5
32
102
{ACAD_REACTORS
330
2A
102
}
330
2A
100
AcDbProxyObject
 90
      499
 91
      501
 93
      388
310
4150985CDA58D07406404333333333333E33F0000000000000F90107A41107004050150841D405064090741402480A0350
1001
ACAD
1000
AcDbSavedByObjectVersion
1070
     0
  0
ACAD_PROXY_OBJECT
  5
36
102
{ACAD_REACTORS
330
2A
102
}
330
2A
100
AcDbProxyObject
 90
      499
 91
      501
 93
      428
310
42109C9A59DA1D195B90C409028333333333333E33F0000000000000F9010790141107004050150841D405064090741402480A029950
1001
ACAD
1000
AcDbSavedByObjectVersion
1070
     0
  0
ACAD_PROXY_OBJECT
  5
3A
102
{ACAD_REACTORS
330
2A
102
}
330
2A
100
AcDbProxyObject
 90
      499
 91
      501
 93
      452
310
42D0DBDB1BDC90DA185B99D95104090240C333333333333E33F0000000000000F90108901411070040501508421405064090741402480A0350
1001
ACAD
1000
AcDbSavedByObjectVersion
1070
     0
  0
ACAD_PROXY_OBJECT
  5
34
102
{ACAD_REACTORS
330
2A
102
}
330
2A
100
AcDbProxyObject
 90
      499
 91
      501
 93
      500
310
4290DBDB98D95C1D1D585B10940D028333333333333E33F0000000000000F90107902409070040501000000000018199010841D405064090740C02480A0340
1001
ACAD
1000
AcDbSavedByObjectVersion
1070
     0
  0
ACAD_PROXY_OBJECT
  5
35
102
{ACAD_REACTORS
330
2A
102
}
330
2A
100
AcDbProxyObject
 90
      499
 91
      501
 93
      412
310
40D11A5B50B409028333333333333E33F0000000000000F9010790141107004050150841D405064090741402480A02677FFFFFD0
1001
ACAD
1000
AcDbSavedByObjectVersion
1070
     0
  0
ACAD_PROXY_OBJECT
  5
3D
102
{ACAD_REACTORS
330
2A
102
}
330
2A
100
AcDbProxyObject
 90
      499
 91
      501
 93
      452
310
43115919D950DBDB1BDC93D999916409028333333333333E33F0000000000000F9010790141107004050150841D405064090741402480A0350
1001
ACAD
1000
AcDbSavedByObjectVersion
1070
     0
  0
ACAD_PROXY_OBJECT
  5
39
102
{ACAD_REACTORS
330
2A
102
}
330
2A
100
AcDbProxyObject
 90
      499
 91
      501
 93
      444
310
42D19858D95C185D1D195C9B90F409028333333333333E33F0000000000000F9010790141107004050150841D405064090741402480A0350
1001
ACAD
1000
AcDbSavedByObjectVersion
1070
     0
  0
ACAD_PROXY_OBJECT
  5
2B
102
{ACAD_REACTORS
330
2A
102
}
330
2A
100
AcDbProxyObject
 90
      499
 91
      501
 93
      380
310
41119B185D240901404333333333333E33F0000000000000F9010740A907004050150841D405064090741402480A1B50
1001
ACAD
1000
AcDbSavedByObjectVersion
1070
     0
  0
ACAD_PROXY_OBJECT
  5
2C
102
{ACAD_REACTORS
330
2A
102
}
330
2A
100
AcDbProxyObject
 90
      499
 91
      501
 93
      468
310
43519B185D15DA5D1A115919D95CD0140901404333333333333E33F0000000000000F90107409019070040501600405405064090741402480A1B50
1001
ACAD
1000
AcDbSavedByObjectVersion
1070
     0
  0
ACAD_PROXY_OBJECT
  5
2D
102
{ACAD_REACTORS
330
2A
102
}
330
2A
100
AcDbProxyObject
 90
      499
 91
      501
 93
      404
310
41D1DBDD5C985D5910240902404333333333333E33F0000000000000F9010740A9070040501641D405064090741402480A1B50
1001
ACAD
1000
AcDbSavedByObjectVersion
1070
     0
  0
ACAD_PROXY_OBJECT
  5
2E
102
{ACAD_REACTORS
330
2A
102
}
330
2A
100
AcDbProxyObject
 90
      499
 91
      501
 93
      492
310
4411DBDD5C985D5915DA5D1A115919D95CD0340902404333333333333E33F0000000000000F90107409019070040501600405405064090741402480A1B50
1001
ACAD
1000
AcDbSavedByObjectVersion
1070
     0
  0
ACAD_PROXY_OBJECT
  5
31
102
{ACAD_REACTORS
330
2A
102
}
330
2A
100
AcDbProxyObject
 90
      499
 91
      501
 93
      476
310
41921A5919195B90640502408333333333333E33F0000000000000F901079024090700405020000000000001110200405405064090740C02480A0340
1001
ACAD
1000
AcDbSavedByObjectVersion
1070
     0
  0
ACAD_PROXY_OBJECT
  5
3B
102
{ACAD_REACTORS
330
2A
102
}
330
2A
100
AcDbProxyObject
 90
      499
 91
      501
 93
      428
310
42529A5D1D195C93D999914409028333333333333E33F0000000000000F9010790141107004050150A41D405064090741402480A0350
1001
ACAD
1000
AcDbSavedByObjectVersion
1070
     0
  0
ACAD_PROXY_OBJECT
  5
38
102
{ACAD_REACTORS
330
2A
102
}
330
2A
100
AcDbProxyObject
 90
      499
 91
      501
 93
      444
310
42D31A5B995C185D1D195C9B90E409028333333333333E33F0000000000000F9010790141107004050750841D405064090741402483A0350
1001
ACAD
1000
AcDbSavedByObjectVersion
1070
     0
  0
ACAD_PROXY_OBJECT
  5
3C
102
{ACAD_REACTORS
330
2A
102
}
330
2A
100
AcDbProxyObject
 90
      499
 91
      501
 93
      444
310
42D3DD995C9A185B99D3D999915409028333333333333E33F0000000000000F9010790141107004050150941D405064090741402480A0350
1001
ACAD
1000
AcDbSavedByObjectVersion
1070
     0
  0
ACAD_PROXY_OBJECT
  5
33
102
{ACAD_REACTORS
330
2A
102
}
330
2A
100
AcDbProxyObject
 90
      499
 91
      501
 93
      428
310
425499585B1A5CDD1A58D08409038333333333333E33F0000000000000F9010740A907004050150800405405064090740C02480A1B40
1001
ACAD
1000
AcDbSavedByObjectVersion
1070
     0
  0
ACAD_PROXY_OBJECT
  5
42
102
{ACAD_REACTORS
330
2A
102
}
330
2A
100
AcDbProxyObject
 90
      499
 91
      501
 93
      420
310
4194DA1859195911B40902404333333333333E33F0000000000000F9010740A41107004050150800405405064090840C02480A0B40
1001
ACAD
1000
AcDbSavedByObjectVersion
1070
     0
  0
ACAD_PROXY_OBJECT
  5
41
102
{ACAD_REACTORS
330
2A
102
}
330
2A
100
AcDbProxyObject
 90
      499
 91
      501
 93
      516
310
4454DA18591959081DDA5D1A08195919D95CD1A40902404333333333333E33F0000000000000F901074090142907004050250800405405064090740C02480A0B40
1001
ACAD
1000
AcDbSavedByObjectVersion
1070
     0
  0
ACAD_PROXY_OBJECT
  5
3E
102
{ACAD_REACTORS
330
2A
102
}
330
2A
100
AcDbProxyObject
 90
      499
 91
      501
 93
      532
310
4394DA1859195CC81BD98811DC985E5174090240C333333333333E33F0000000000000F901079024090741D01000000000000111010841D405064090740C02480A0340
1001
ACAD
1000
AcDbSavedByObjectVersion
1070
     0
  0
ACAD_PROXY_OBJECT
  5
3F
102
{ACAD_REACTORS
330
2A
102
}
330
2A
100
AcDbProxyObject
 90
      499
 91
      501
 93
      476
310
41D4DAD95D18DA1E51840502408333333333333E33F0000000000000F901079024090741D01000000000000111010B41D405064090741802480A0340
1001
ACAD
1000
AcDbSavedByObjectVersion
1070
     0
  0
ACAD_PROXY_OBJECT
  5
37
102
{ACAD_REACTORS
330
2A
102
}
330
2A
100
AcDbProxyObject
 90
      499
 91
      501
 93
      412
310
41D51A1A58DAD95B90D409028333333333333E33F0000000000000F9010790141107004050150C41D405064090741402480A0350
1001
ACAD
1000
AcDbSavedByObjectVersion
1070
     0
  0
ACAD_PROXY_OBJECT
  5
30
102
{ACAD_REACTORS
330
2A
102
}
330
2A
100
AcDbProxyObject
 90
      499
 91
      501
 93
      420
310
4255DA5C99599C985B595059028333333333333E33F0000000000000F90107901411070040501600405405064090740C02480A0340
1001
ACAD
1000
AcDbSavedByObjectVersion
1070
     0
  0
ACAD_PROXY_OBJECT
  5
40
102
{ACAD_REACTORS
330
2A
102
}
330
2A
100
AcDbProxyObject
 90
      499
 91
      501
 93
      404
310
41560B54985E51940902404000000000000E03F0000000000000F9010740501907004050150841D405064090740C02480A1B40
1001
ACAD
1000
AcDbSavedByObjectVersion
1070
     0
  0
XRECORD
  5
680
102
{ACAD_REACTORS
330
676
102
}
330
676
100
AcDbXrecord
340
0
  0
XRECORD
  5
67F
102
{ACAD_REACTORS
330
676
102
}
330
676
100
AcDbXrecord
 90
        0
  0
XRECORD
  5
696
102
{ACAD_REACTORS
330
676
102
}
330
676
100
AcDbXrecord
1000
DSTYLE
1002
{
1070
   340
340
11
1002
}
  0
XRECORD
  5
681
102
{ACAD_REACTORS
330
676
102
}
330
676
100
AcDbXrecord
  1
{75bddcfc-697c-4e71-85d3-528507418a5e}
  0
XRECORD
  5
679
102
{ACAD_REACTORS
330
676
102
}
330
676
100
AcDbXrecord
  1

  0
XRECORD
  5
67E
102
{ACAD_REACTORS
330
676
102
}
330
676
100
AcDbXrecord
 90
        4
  0
XRECORD
  5
67B
102
{ACAD_REACTORS
330
676
102
}
330
676
100
AcDbXrecord
340
1A
  0
XRECORD
  5
67D
102
{ACAD_REACTORS
330
676
102
}
330
676
100
AcDbXrecord
 90
    10781
  0
XRECORD
  5
67C
102
{ACAD_REACTORS
330
676
102
}
330
676
100
AcDbXrecord
340
19
  0
XRECORD
  5
683
102
{ACAD_REACTORS
330
676
102
}
330
676
100
AcDbXrecord
 40
0.0
  0
XRECORD
  5
686
102
{ACAD_REACTORS
330
676
102
}
330
676
100
AcDbXrecord
340
0
  0
XRECORD
  5
68C
102
{ACAD_REACTORS
330
676
102
}
330
676
100
AcDbXrecord
 10
0.0
 20
0.0
 30
0.0
  0
XRECORD
  5
688
102
{ACAD_REACTORS
330
676
102
}
330
676
100
AcDbXrecord
 10
0.0
 20
0.0
 30
0.0
  0
XRECORD
  5
68B
102
{ACAD_REACTORS
330
676
102
}
330
676
100
AcDbXrecord
 10
0.0
 20
0.0
 30
0.0
  0
XRECORD
  5
689
102
{ACAD_REACTORS
330
676
102
}
330
676
100
AcDbXrecord
 10
0.0
 20
0.0
 30
0.0
  0
XRECORD
  5
68A
102
{ACAD_REACTORS
330
676
102
}
330
676
100
AcDbXrecord
 10
0.0
 20
0.0
 30
0.0
  0
XRECORD
  5
687
102
{ACAD_REACTORS
330
676
102
}
330
676
100
AcDbXrecord
 10
0.0
 20
0.0
 30
0.0
  0
XRECORD
  5
684
102
{ACAD_REACTORS
330
676
102
}
330
676
100
AcDbXrecord
340
0
  0
XRECORD
  5
685
102
{ACAD_REACTORS
330
676
102
}
330
676
100
AcDbXrecord
 70
     0
  0
XRECORD
  5
67A
102
{ACAD_REACTORS
330
676
102
}
330
676
100
AcDbXrecord
  1

  0
XRECORD
  5
677
102
{ACAD_REACTORS
330
676
102
}
330
676
100
AcDbXrecord
 90
        1
  0
XRECORD
  5
678
102
{ACAD_REACTORS
330
676
102
}
330
676
100
AcDbXrecord
 90
       70
  0
XRECORD
  5
68F
102
{ACAD_REACTORS
330
676
102
}
330
676
100
AcDbXrecord
340
0
  0
XRECORD
  5
695
102
{ACAD_REACTORS
330
676
102
}
330
676
100
AcDbXrecord
 10
0.0
 20
0.0
 30
0.0
  0
XRECORD
  5
691
102
{ACAD_REACTORS
330
676
102
}
330
676
100
AcDbXrecord
 10
0.0
 20
0.0
 30
0.0
  0
XRECORD
  5
694
102
{ACAD_REACTORS
330
676
102
}
330
676
100
AcDbXrecord
 10
0.0
 20
0.0
 30
0.0
  0
XRECORD
  5
692
102
{ACAD_REACTORS
330
676
102
}
330
676
100
AcDbXrecord
 10
0.0
 20
0.0
 30
0.0
  0
XRECORD
  5
693
102
{ACAD_REACTORS
330
676
102
}
330
676
100
AcDbXrecord
 10
0.0
 20
0.0
 30
0.0
  0
XRECORD
  5
690
102
{ACAD_REACTORS
330
676
102
}
330
676
100
AcDbXrecord
 10
0.0
 20
0.0
 30
0.0
  0
XRECORD
  5
68D
102
{ACAD_REACTORS
330
676
102
}
330
676
100
AcDbXrecord
340
0
  0
XRECORD
  5
68E
102
{ACAD_REACTORS
330
676
102
}
330
676
100
AcDbXrecord
 70
     0
  0
XRECORD
  5
682
102
{ACAD_REACTORS
330
676
102
}
330
676
100
AcDbXrecord
  1
{FAEB1C32-E019-11D5-929B-00C0DF256EC4}
  0
DICTIONARYVAR
  5
6A4
102
{ACAD_REACTORS
330
697
102
}
330
697
100
DictionaryVariables
280
     0
  1
1:1
  0
DICTIONARYVAR
  5
69E
102
{ACAD_REACTORS
330
697
102
}
330
697
100
DictionaryVariables
280
     0
  1
3.500000
  0
DICTIONARYVAR
  5
69F
102
{ACAD_REACTORS
330
697
102
}
330
697
100
DictionaryVariables
280
     0
  1
acadiso.lin
  0
DICTIONARYVAR
  5
699
102
{ACAD_REACTORS
330
697
102
}
330
697
100
DictionaryVariables
280
     0
  1
Standard
  0
DICTIONARYVAR
  5
698
102
{ACAD_REACTORS
330
697
102
}
330
697
100
DictionaryVariables
280
     0
  1
Standard
  0
DICTIONARYVAR
  5
6A0
102
{ACAD_REACTORS
330
697
102
}
330
697
100
DictionaryVariables
280
     0
  1
2
  0
DICTIONARYVAR
  5
6A1
102
{ACAD_REACTORS
330
697
102
}
330
697
100
DictionaryVariables
280
     0
  1
1
  0
DICTIONARYVAR
  5
6A5
102
{ACAD_REACTORS
330
697
102
}
330
697
100
DictionaryVariables
280
     0
  1
1
  0
DICTIONARYVAR
  5
69B
102
{ACAD_REACTORS
330
697
102
}
330
697
100
DictionaryVariables
280
     0
  1
80.000000
  0
DICTIONARYVAR
  5
69A
102
{ACAD_REACTORS
330
697
102
}
330
697
100
DictionaryVariables
280
     0
  1
5.000000
  0
DICTIONARY
  5
6A8
330
45
100
AcDbDictionary
280
     1
  3
ACAD_XREC_ROUNDTRIP
360
6A9
  0
DICTIONARY
  5
6A6
330
44
100
AcDbDictionary
280
     1
  3
ACAD_XREC_ROUNDTRIP
360
6A7
  0
DICTIONARY
  5
6AA
330
46
100
AcDbDictionary
280
     1
  3
ACAD_XREC_ROUNDTRIP
360
6AB
  0
XRECORD
  5
6A9
102
{ACAD_REACTORS
330
6A8
102
}
330
6A8
100
AcDbXrecord
102
MATERIAL
148
0.0
149
0.0
149
0.0
 93
        0
 94
      127
282
     0
 72
     1
 77
     1
171
     1
175
     1
179
     1
273
     0
  0
XRECORD
  5
6A7
102
{ACAD_REACTORS
330
6A6
102
}
330
6A6
100
AcDbXrecord
102
MATERIAL
148
0.0
149
0.0
149
0.0
 93
        0
 94
      127
282
     0
 72
     1
 77
     1
171
     1
175
     1
179
     1
273
     0
  0
XRECORD
  5
6AB
102
{ACAD_REACTORS
330
6AA
102
}
330
6AA
100
AcDbXrecord
102
MATERIAL
148
0.0
149
0.0
149
0.0
 93
        0
 94
      127
282
     0
 72
     1
 77
     1
171
     1
175
     1
179
     1
273
     0
  0
ENDSEC
  0
EOF
