  0
SECTION
  2
HEADER
  9
$ACADVER
  1
AC1014
  9
$ACADMAINTVER
 70
     9
  9
$DWGCODEPAGE
  3
ANSI_932
  9
$INSBASE
 10
0.0
 20
0.0
 30
0.0
  9
$EXTMIN
 10
25.0
 20
50.0
 30
0.0
  9
$EXTMAX
 10
1925.0
 20
1400.0
 30
0.0
  9
$LIMMIN
 10
0.0
 20
0.0
  9
$LIMMAX
 10
420.0
 20
297.0
  9
$ORTHOMODE
 70
     0
  9
$REGENMODE
 70
     1
  9
$FILLMODE
 70
     1
  9
$QTEXTMODE
 70
     0
  9
$MIRRTEXT
 70
     1
  9
$DRAGMODE
 70
     2
  9
$LTSCALE
 40
0.2
  9
$OSMODE
 70
    37
  9
$ATTMODE
 70
     1
  9
$TEXTSIZE
 40
2.5
  9
$TRACEWID
 40
1.0
  9
$TEXTSTYLE
  7
STANDARD
  9
$CLAYER
  8
LAY-10
  9
$CELTYPE
  6
BYLAYER
  9
$CECOLOR
 62
   256
  9
$CELTSCALE
 40
1.0
  9
$DELOBJ
 70
     1
  9
$DISPSILH
 70
     0
  9
$DIMSCALE
 40
1.0
  9
$DIMASZ
 40
2.5
  9
$DIMEXO
 40
0.625
  9
$DIMDLI
 40
3.75
  9
$DIMRND
 40
0.0
  9
$DIMDLE
 40
0.0
  9
$DIMEXE
 40
1.25
  9
$DIMTP
 40
0.0
  9
$DIMTM
 40
0.0
  9
$DIMTXT
 40
2.5
  9
$DIMCEN
 40
2.5
  9
$DIMTSZ
 40
0.0
  9
$DIMTOL
 70
     0
  9
$DIMLIM
 70
     0
  9
$DIMTIH
 70
     0
  9
$DIMTOH
 70
     0
  9
$DIMSE1
 70
     0
  9
$DIMSE2
 70
     0
  9
$DIMTAD
 70
     1
  9
$DIMZIN
 70
     8
  9
$DIMBLK
  1

  9
$DIMASO
 70
     1
  9
$DIMSHO
 70
     1
  9
$DIMPOST
  1

  9
$DIMAPOST
  1

  9
$DIMALT
 70
     0
  9
$DIMALTD
 70
     3
  9
$DIMALTF
 40
0.03937007874016
  9
$DIMLFAC
 40
1.0
  9
$DIMTOFL
 70
     1
  9
$DIMTVP
 40
0.0
  9
$DIMTIX
 70
     0
  9
$DIMSOXD
 70
     0
  9
$DIMSAH
 70
     0
  9
$DIMBLK1
  1

  9
$DIMBLK2
  1

  9
$DIMSTYLE
  2
ISO-25
  9
$DIMCLRD
 70
     0
  9
$DIMCLRE
 70
     0
  9
$DIMCLRT
 70
     0
  9
$DIMTFAC
 40
1.0
  9
$DIMGAP
 40
0.625
  9
$DIMJUST
 70
     0
  9
$DIMSD1
 70
     0
  9
$DIMSD2
 70
     0
  9
$DIMTOLJ
 70
     0
  9
$DIMTZIN
 70
     8
  9
$DIMALTZ
 70
     0
  9
$DIMALTTZ
 70
     0
  9
$DIMFIT
 70
     3
  9
$DIMUPT
 70
     0
  9
$DIMUNIT
 70
     2
  9
$DIMDEC
 70
     2
  9
$DIMTDEC
 70
     2
  9
$DIMALTU
 70
     2
  9
$DIMALTTD
 70
     3
  9
$DIMTXSTY
  7
STANDARD
  9
$DIMAUNIT
 70
     0
  9
$LUNITS
 70
     2
  9
$LUPREC
 70
     4
  9
$SKETCHINC
 40
1.0
  9
$FILLETRAD
 40
10.0
  9
$AUNITS
 70
     0
  9
$AUPREC
 70
     0
  9
$MENU
  1
.
  9
$ELEVATION
 40
0.0
  9
$PELEVATION
 40
0.0
  9
$THICKNESS
 40
0.0
  9
$LIMCHECK
 70
     0
  9
$CHAMFERA
 40
0.0
  9
$CHAMFERB
 40
0.0
  9
$CHAMFERC
 40
0.0
  9
$CHAMFERD
 40
0.0
  9
$SKPOLY
 70
     0
  9
$TDCREATE
 40
2459321.480914236
  9
$TDUPDATE
 40
2459321.480914908
  9
$TDINDWG
 40
0.0000000116
  9
$TDUSRTIMER
 40
0.0000000116
  9
$USRTIMER
 70
     1
  9
$ANGBASE
 50
0.0
  9
$ANGDIR
 70
     0
  9
$PDMODE
 70
     0
  9
$PDSIZE
 40
0.0
  9
$PLINEWID
 40
0.0
  9
$COORDS
 70
     1
  9
$SPLFRAME
 70
     0
  9
$SPLINETYPE
 70
     6
  9
$SPLINESEGS
 70
     8
  9
$ATTDIA
 70
     0
  9
$ATTREQ
 70
     1
  9
$HANDLING
 70
     1
  9
$HANDSEED
  5
5E6
  9
$SURFTAB1
 70
     6
  9
$SURFTAB2
 70
     6
  9
$SURFTYPE
 70
     6
  9
$SURFU
 70
     6
  9
$SURFV
 70
     6
  9
$UCSNAME
  2

  9
$UCSORG
 10
0.0
 20
0.0
 30
0.0
  9
$UCSXDIR
 10
1.0
 20
0.0
 30
0.0
  9
$UCSYDIR
 10
0.0
 20
1.0
 30
0.0
  9
$PUCSNAME
  2

  9
$PUCSORG
 10
0.0
 20
0.0
 30
0.0
  9
$PUCSXDIR
 10
1.0
 20
0.0
 30
0.0
  9
$PUCSYDIR
 10
0.0
 20
1.0
 30
0.0
  9
$USERI1
 70
     0
  9
$USERI2
 70
     0
  9
$USERI3
 70
     0
  9
$USERI4
 70
     0
  9
$USERI5
 70
     0
  9
$USERR1
 40
0.0
  9
$USERR2
 40
0.0
  9
$USERR3
 40
0.0
  9
$USERR4
 40
0.0
  9
$USERR5
 40
0.0
  9
$WORLDVIEW
 70
     1
  9
$SHADEDGE
 70
     3
  9
$SHADEDIF
 70
    70
  9
$TILEMODE
 70
     1
  9
$MAXACTVP
 70
    64
  9
$PINSBASE
 10
0.0
 20
0.0
 30
0.0
  9
$PLIMCHECK
 70
     0
  9
$PEXTMIN
 10
1.000000000000000E+20
 20
1.000000000000000E+20
 30
1.000000000000000E+20
  9
$PEXTMAX
 10
-1.000000000000000E+20
 20
-1.000000000000000E+20
 30
-1.000000000000000E+20
  9
$PLIMMIN
 10
0.0
 20
0.0
  9
$PLIMMAX
 10
420.0
 20
297.0
  9
$UNITMODE
 70
     0
  9
$VISRETAIN
 70
     1
  9
$PLINEGEN
 70
     0
  9
$PSLTSCALE
 70
     1
  9
$TREEDEPTH
 70
  3020
  9
$PICKSTYLE
 70
     1
  9
$CMLSTYLE
  2
STANDARD
  9
$CMLJUST
 70
     0
  9
$CMLSCALE
 40
20.0
  9
$PROXYGRAPHICS
 70
     1
  9
$MEASUREMENT
 70
     1
  0
ENDSEC
  0
SECTION
  2
CLASSES
  0
CLASS
  1
ACDBDICTIONARYWDFLT
  2
AcDbDictionaryWithDefault
  3
ObjectDBX Classes
 90
        0
280
     0
281
     0
  0
CLASS
  1
VISUALSTYLE
  2
AcDbVisualStyle
  3
ObjectDBX Classes
 90
     4095
280
     0
281
     0
  0
CLASS
  1
MATERIAL
  2
AcDbMaterial
  3
ObjectDBX Classes
 90
     1153
280
     0
281
     0
  0
CLASS
  1
SCALE
  2
AcDbScale
  3
ObjectDBX Classes
 90
     1153
280
     0
281
     0
  0
CLASS
  1
TABLESTYLE
  2
AcDbTableStyle
  3
ObjectDBX Classes
 90
     4095
280
     0
281
     0
  0
CLASS
  1
MLEADERSTYLE
  2
AcDbMLeaderStyle
  3
ACDB_MLEADERSTYLE_CLASS
 90
     4095
280
     0
281
     0
  0
CLASS
  1
SUN
  2
AcDbSun
  3
SCENEOE
 90
     1153
280
     0
281
     0
  0
CLASS
  1
DICTIONARYVAR
  2
AcDbDictionaryVar
  3
ObjectDBX Classes
 90
        0
280
     0
281
     0
  0
CLASS
  1
XRECORD
  2
AcDbXrecord
  3
ObjectDBX Classes
 90
        0
280
     0
281
     0
  0
CLASS
  1
LWPOLYLINE
  2
AcDbPolyline
  3
ObjectDBX Classes
 90
        0
280
     0
281
     1
  0
CLASS
  1
HATCH
  2
AcDbHatch
  3
ObjectDBX Classes
 90
        0
280
     0
281
     1
  0
CLASS
  1
ACDBPLACEHOLDER
  2
AcDbPlaceHolder
  3
ObjectDBX Classes
 90
        0
280
     0
281
     0
  0
CLASS
  1
LAYOUT
  2
AcDbLayout
  3
ObjectDBX Classes
 90
        0
280
     0
281
     0
  0
ENDSEC
  0
SECTION
  2
TABLES
  0
TABLE
  2
VPORT
  5
8
102
{ACAD_XDICTIONARY
360
5DB
102
}
330
0
100
AcDbSymbolTable
 70
     1
  0
VPORT
  5
29
330
8
100
AcDbSymbolTableRecord
100
AcDbViewportTableRecord
  2
*ACTIVE
 70
     0
 10
0.0
 20
0.0
 11
1.0
 21
1.0
 12
975.0000000000001
 22
725.0
 13
0.0
 23
0.0
 14
10.0
 24
10.0
 15
10.0
 25
10.0
 16
0.0
 26
0.0
 36
1.0
 17
0.0
 27
0.0
 37
0.0
 40
1350.0
 41
1.407407407407408
 42
50.0
 43
0.0
 44
0.0
 50
0.0
 51
0.0
 71
     0
 72
  1000
 73
     1
 74
     3
 75
     0
 76
     0
 77
     0
 78
     0
  0
ENDTAB
  0
TABLE
  2
LTYPE
  5
5
330
0
100
AcDbSymbolTable
 70
     6
  0
LTYPE
  5
14
330
5
100
AcDbSymbolTableRecord
100
AcDbLinetypeTableRecord
  2
BYBLOCK
 70
     0
  3

 72
    65
 73
     0
 40
0.0
  0
LTYPE
  5
15
330
5
100
AcDbSymbolTableRecord
100
AcDbLinetypeTableRecord
  2
BYLAYER
 70
     0
  3

 72
    65
 73
     0
 40
0.0
  0
LTYPE
  5
16
330
5
100
AcDbSymbolTableRecord
100
AcDbLinetypeTableRecord
  2
CONTINUOUS
 70
     0
  3
Solid line
 72
    65
 73
     0
 40
0.0
  0
LTYPE
  5
6E
330
5
100
AcDbSymbolTableRecord
100
AcDbLinetypeTableRecord
  2
HIDDEN
 70
     0
  3
Hidden __ __ __ __ __ __ __ __ __ __ __ __ __ __
 72
    65
 73
     2
 40
9.524999999999999
 49
6.35
 74
     0
 49
-3.175
 74
     0
  0
LTYPE
  5
6F
330
5
100
AcDbSymbolTableRecord
100
AcDbLinetypeTableRecord
  2
CENTER
 70
     0
  3
Center ____ _ ____ _ ____ _ ____ _ ____ _ ____
 72
    65
 73
     4
 40
50.8
 49
31.75
 74
     0
 49
-6.35
 74
     0
 49
6.35
 74
     0
 49
-6.35
 74
     0
  0
LTYPE
  5
70
330
5
100
AcDbSymbolTableRecord
100
AcDbLinetypeTableRecord
  2
PHANTOM
 70
     0
  3
Phantom ______  __  __  ______  __  __  ______ 
 72
    65
 73
     6
 40
63.50000000000001
 49
31.75
 74
     0
 49
-6.35
 74
     0
 49
6.35
 74
     0
 49
-6.35
 74
     0
 49
6.35
 74
     0
 49
-6.35
 74
     0
  0
LTYPE
  5
71
330
5
100
AcDbSymbolTableRecord
100
AcDbLinetypeTableRecord
  2
ACAD_ISO06W100
 70
     0
  3
ISO long-dash triple-dot ____ ... ____ ... ____
 72
    65
 73
     8
 40
36.0
 49
24.0
 74
     0
 49
-3.0
 74
     0
 49
0.0
 74
     0
 49
-3.0
 74
     0
 49
0.0
 74
     0
 49
-3.0
 74
     0
 49
0.0
 74
     0
 49
-3.0
 74
     0
  0
LTYPE
  5
72
330
5
100
AcDbSymbolTableRecord
100
AcDbLinetypeTableRecord
  2
ACAD_ISO15W100
 70
     0
  3
ISO double-dash triple-dot __ __ . . . __ __ . .
 72
    65
 73
    10
 40
39.0
 49
12.0
 74
     0
 49
-3.0
 74
     0
 49
12.0
 74
     0
 49
-3.0
 74
     0
 49
0.0
 74
     0
 49
-3.0
 74
     0
 49
0.0
 74
     0
 49
-3.0
 74
     0
 49
0.0
 74
     0
 49
-3.0
 74
     0
  0
ENDTAB
  0
TABLE
  2
LAYER
  5
2
330
0
100
AcDbSymbolTable
 70
     5
  0
LAYER
  5
10
330
2
100
AcDbSymbolTableRecord
100
AcDbLayerTableRecord
  2
0
 70
     0
 62
     7
  6
CONTINUOUS
  0
LAYER
  5
75
330
2
100
AcDbSymbolTableRecord
100
AcDbLayerTableRecord
  2
LAY-10
 70
     0
 62
     7
  6
CONTINUOUS
  0
LAYER
  5
76
330
2
100
AcDbSymbolTableRecord
100
AcDbLayerTableRecord
  2
LAY-20
 70
     0
 62
     7
  6
CONTINUOUS
  0
LAYER
  5
77
330
2
100
AcDbSymbolTableRecord
100
AcDbLayerTableRecord
  2
LAY-255
 70
     0
 62
     7
  6
CONTINUOUS
  0
LAYER
  5
494
330
2
100
AcDbSymbolTableRecord
100
AcDbLayerTableRecord
  2
DEFPOINTS
 70
     0
 62
     7
  6
CONTINUOUS
  0
ENDTAB
  0
TABLE
  2
STYLE
  5
3
330
0
100
AcDbSymbolTable
 70
     4
  0
STYLE
  5
11
330
3
100
AcDbSymbolTableRecord
100
AcDbTextStyleTableRecord
  2
STANDARD
 70
     0
 40
0.0
 41
1.0
 50
0.0
 71
     0
 42
2.5
  3
simplex
  4
bigfont
  0
STYLE
  5
73
330
3
100
AcDbSymbolTableRecord
100
AcDbTextStyleTableRecord
  2
EXCADSTD
 70
     0
 40
0.0
 41
1.0
 50
0.0
 71
     0
 42
2.5
  3
simplex
  4
bigfont
  0
STYLE
  5
74
330
3
100
AcDbSymbolTableRecord
100
AcDbTextStyleTableRecord
  2
EXCADVERT
 70
     4
 40
0.0
 41
1.0
 50
0.0
 71
     0
 42
2.5
  3
simplex
  4
bigfont
  0
STYLE
  5
492
330
3
100
AcDbSymbolTableRecord
100
AcDbTextStyleTableRecord
  2
EXCADDIM1
 70
     0
 40
0.0
 41
0.84
 50
0.0
 71
     0
 42
2.5
  3
simplex
  4
bigfont
  0
ENDTAB
  0
TABLE
  2
VIEW
  5
6
330
0
100
AcDbSymbolTable
 70
     0
  0
ENDTAB
  0
TABLE
  2
UCS
  5
7
330
0
100
AcDbSymbolTable
 70
     0
  0
ENDTAB
  0
TABLE
  2
APPID
  5
9
330
0
100
AcDbSymbolTable
 70
     2
  0
APPID
  5
12
330
9
100
AcDbSymbolTableRecord
100
AcDbRegAppTableRecord
  2
ACAD
 70
     0
  0
APPID
  5
5E5
330
9
100
AcDbSymbolTableRecord
100
AcDbRegAppTableRecord
  2
ACAD_MLEADERVER
 70
     0
  0
ENDTAB
  0
TABLE
  2
DIMSTYLE
  5
A
330
0
100
AcDbSymbolTable
 70
     1
  0
DIMSTYLE
105
27
102
{ACAD_REACTORS
330
493
330
49F
330
4AB
330
4B8
330
4C4
330
4D0
330
4DD
330
4EA
330
4F7
330
504
330
511
330
51E
330
52B
330
538
330
543
330
54E
330
55B
330
567
330
573
102
}
330
A
100
AcDbSymbolTableRecord
100
AcDbDimStyleTableRecord
  2
ISO-25
 70
     0
  3

  4

  5

  6

  7

 40
1.0
 41
2.5
 42
0.625
 43
3.75
 44
1.25
 45
0.0
 46
0.0
 47
0.0
 48
0.0
140
2.5
141
2.5
142
0.0
143
0.03937007874016
144
1.0
145
0.0
146
1.0
147
0.625
 71
     0
 72
     0
 73
     0
 74
     0
 75
     0
 76
     0
 77
     1
 78
     8
170
     0
171
     3
172
     1
173
     0
174
     0
175
     0
176
     0
177
     0
178
     0
270
     2
271
     2
272
     2
273
     2
274
     3
340
11
275
     0
280
     0
281
     0
282
     0
283
     0
284
     8
285
     0
286
     0
287
     5
288
     0
  0
ENDTAB
  0
TABLE
  2
BLOCK_RECORD
  5
1
330
0
100
AcDbSymbolTable
 70
    33
  0
BLOCK_RECORD
  5
1F
330
1
100
AcDbSymbolTableRecord
100
AcDbBlockTableRecord
  2
*MODEL_SPACE
  0
BLOCK_RECORD
  5
1B
330
1
100
AcDbSymbolTableRecord
100
AcDbBlockTableRecord
  2
*PAPER_SPACE
  0
BLOCK_RECORD
  5
78
330
1
100
AcDbSymbolTableRecord
100
AcDbBlockTableRecord
  2
EX_NORM
  0
BLOCK_RECORD
  5
7B
330
1
100
AcDbSymbolTableRecord
100
AcDbBlockTableRecord
  2
EX_BNORM
  0
BLOCK_RECORD
  5
7E
330
1
100
AcDbSymbolTableRecord
100
AcDbBlockTableRecord
  2
EX_BCIR
  0
BLOCK_RECORD
  5
81
330
1
100
AcDbSymbolTableRecord
100
AcDbBlockTableRecord
  2
EX_RCIVIL
  0
BLOCK_RECORD
  5
84
330
1
100
AcDbSymbolTableRecord
100
AcDbBlockTableRecord
  2
EX_SLANT
  0
BLOCK_RECORD
  5
87
330
1
100
AcDbSymbolTableRecord
100
AcDbBlockTableRecord
  2
EX_NONE
  0
BLOCK_RECORD
  5
8A
330
1
100
AcDbSymbolTableRecord
100
AcDbBlockTableRecord
  2
EX_CIVIL
  0
BLOCK_RECORD
  5
8D
330
1
100
AcDbSymbolTableRecord
100
AcDbBlockTableRecord
  2
EX_WCIR
  0
BLOCK_RECORD
  5
90
330
1
100
AcDbSymbolTableRecord
100
AcDbBlockTableRecord
  2
EX_WCIR2
  0
BLOCK_RECORD
  5
93
330
1
100
AcDbSymbolTableRecord
100
AcDbBlockTableRecord
  2
EX_WNORM
  0
BLOCK_RECORD
  5
96
330
1
100
AcDbSymbolTableRecord
100
AcDbBlockTableRecord
  2
EX_NNORM
  0
BLOCK_RECORD
  5
99
330
1
100
AcDbSymbolTableRecord
100
AcDbBlockTableRecord
  2
EX_BBOX
  0
BLOCK_RECORD
  5
9C
330
1
100
AcDbSymbolTableRecord
100
AcDbBlockTableRecord
  2
EX_WBOX
  0
BLOCK_RECORD
  5
9F
330
1
100
AcDbSymbolTableRecord
100
AcDbBlockTableRecord
  2
EX_INTEGRAL
  0
BLOCK_RECORD
  5
495
330
1
100
AcDbSymbolTableRecord
100
AcDbBlockTableRecord
  2
*D15
  0
BLOCK_RECORD
  5
4A0
330
1
100
AcDbSymbolTableRecord
100
AcDbBlockTableRecord
  2
*D16
  0
BLOCK_RECORD
  5
4AC
330
1
100
AcDbSymbolTableRecord
100
AcDbBlockTableRecord
  2
*D17
  0
BLOCK_RECORD
  5
4B9
330
1
100
AcDbSymbolTableRecord
100
AcDbBlockTableRecord
  2
*D18
  0
BLOCK_RECORD
  5
4C5
330
1
100
AcDbSymbolTableRecord
100
AcDbBlockTableRecord
  2
*D19
  0
BLOCK_RECORD
  5
4D1
330
1
100
AcDbSymbolTableRecord
100
AcDbBlockTableRecord
  2
*D20
  0
BLOCK_RECORD
  5
4DE
330
1
100
AcDbSymbolTableRecord
100
AcDbBlockTableRecord
  2
*D21
  0
BLOCK_RECORD
  5
4EB
330
1
100
AcDbSymbolTableRecord
100
AcDbBlockTableRecord
  2
*D22
  0
BLOCK_RECORD
  5
4F8
330
1
100
AcDbSymbolTableRecord
100
AcDbBlockTableRecord
  2
*D23
  0
BLOCK_RECORD
  5
505
330
1
100
AcDbSymbolTableRecord
100
AcDbBlockTableRecord
  2
*D24
  0
BLOCK_RECORD
  5
512
330
1
100
AcDbSymbolTableRecord
100
AcDbBlockTableRecord
  2
*D25
  0
BLOCK_RECORD
  5
51F
330
1
100
AcDbSymbolTableRecord
100
AcDbBlockTableRecord
  2
*D26
  0
BLOCK_RECORD
  5
52C
330
1
100
AcDbSymbolTableRecord
100
AcDbBlockTableRecord
  2
*D27
  0
BLOCK_RECORD
  5
539
330
1
100
AcDbSymbolTableRecord
100
AcDbBlockTableRecord
  2
*D28
  0
BLOCK_RECORD
  5
544
330
1
100
AcDbSymbolTableRecord
100
AcDbBlockTableRecord
  2
*D29
  0
BLOCK_RECORD
  5
54F
330
1
100
AcDbSymbolTableRecord
100
AcDbBlockTableRecord
  2
*D30
  0
BLOCK_RECORD
  5
55C
330
1
100
AcDbSymbolTableRecord
100
AcDbBlockTableRecord
  2
*D31
  0
BLOCK_RECORD
  5
568
330
1
100
AcDbSymbolTableRecord
100
AcDbBlockTableRecord
  2
*D32
  0
BLOCK_RECORD
  5
574
330
1
100
AcDbSymbolTableRecord
100
AcDbBlockTableRecord
  2
*D33
  0
ENDTAB
  0
ENDSEC
  0
SECTION
  2
BLOCKS
  0
BLOCK
  5
20
330
1F
100
AcDbEntity
  8
0
100
AcDbBlockBegin
  2
*MODEL_SPACE
 70
     0
 10
0.0
 20
0.0
 30
0.0
  3
*MODEL_SPACE
  1

  0
ENDBLK
  5
21
330
1F
100
AcDbEntity
  8
0
100
AcDbBlockEnd
  0
BLOCK
  5
1C
330
1B
100
AcDbEntity
 67
     1
  8
0
100
AcDbBlockBegin
  2
*PAPER_SPACE
 70
     0
 10
0.0
 20
0.0
 30
0.0
  3
*PAPER_SPACE
  1

  0
ENDBLK
  5
1D
330
1B
100
AcDbEntity
 67
     1
  8
0
100
AcDbBlockEnd
  0
BLOCK
  5
79
330
78
100
AcDbEntity
  8
0
100
AcDbBlockBegin
  2
EX_NORM
 70
     0
 10
0.0
 20
0.0
 30
0.0
  3
EX_NORM
  1

  0
LINE
  5
A2
330
78
100
AcDbEntity
  8
0
  6
CONTINUOUS
 62
     0
100
AcDbLine
 10
0.0
 20
0.0
 30
0.0
 11
-1.0
 21
0.0
 31
0.0
  0
LINE
  5
A3
330
78
100
AcDbEntity
  8
0
  6
CONTINUOUS
 62
     0
100
AcDbLine
 10
0.0
 20
0.0
 30
0.0
 11
-1.0
 21
0.166666667
 31
0.0
  0
LINE
  5
A4
330
78
100
AcDbEntity
  8
0
  6
CONTINUOUS
 62
     0
100
AcDbLine
 10
0.0
 20
0.0
 30
0.0
 11
-1.0
 21
-0.166666667
 31
0.0
  0
ENDBLK
  5
7A
330
78
100
AcDbEntity
  8
0
100
AcDbBlockEnd
  0
BLOCK
  5
7C
330
7B
100
AcDbEntity
  8
0
100
AcDbBlockBegin
  2
EX_BNORM
 70
     0
 10
0.0
 20
0.0
 30
0.0
  3
EX_BNORM
  1

  0
LINE
  5
A5
330
7B
100
AcDbEntity
  8
0
  6
CONTINUOUS
 62
     0
100
AcDbLine
 10
0.0
 20
0.0
 30
0.0
 11
-1.0
 21
0.0
 31
0.0
  0
LINE
  5
A6
330
7B
100
AcDbEntity
  8
0
  6
CONTINUOUS
 62
     0
100
AcDbLine
 10
0.0
 20
0.0
 30
0.0
 11
-1.0
 21
0.166666667
 31
0.0
  0
LINE
  5
A7
330
7B
100
AcDbEntity
  8
0
  6
CONTINUOUS
 62
     0
100
AcDbLine
 10
0.0
 20
0.0
 30
0.0
 11
-1.0
 21
-0.166666667
 31
0.0
  0
LINE
  5
A8
330
7B
100
AcDbEntity
  8
0
  6
CONTINUOUS
 62
     0
100
AcDbLine
 10
0.0
 20
0.0
 30
0.0
 11
-1.0
 21
0.083333333
 31
0.0
  0
LINE
  5
A9
330
7B
100
AcDbEntity
  8
0
  6
CONTINUOUS
 62
     0
100
AcDbLine
 10
0.0
 20
0.0
 30
0.0
 11
-1.0
 21
-0.083333333
 31
0.0
  0
LINE
  5
AA
330
7B
100
AcDbEntity
  8
0
  6
CONTINUOUS
 62
     0
100
AcDbLine
 10
-1.0
 20
0.166666667
 30
0.0
 11
-1.0
 21
-0.166666667
 31
0.0
  0
ENDBLK
  5
7D
330
7B
100
AcDbEntity
  8
0
100
AcDbBlockEnd
  0
BLOCK
  5
7F
330
7E
100
AcDbEntity
  8
0
100
AcDbBlockBegin
  2
EX_BCIR
 70
     0
 10
0.0
 20
0.0
 30
0.0
  3
EX_BCIR
  1

  0
LINE
  5
AB
330
7E
100
AcDbEntity
  8
0
  6
CONTINUOUS
 62
     0
100
AcDbLine
 10
0.0
 20
0.0
 30
0.0
 11
-1.0
 21
0.0
 31
0.0
  0
CIRCLE
  5
AC
330
7E
100
AcDbEntity
  8
0
  6
CONTINUOUS
 62
     0
100
AcDbCircle
 10
0.0
 20
0.0
 30
0.0
 40
0.5
  0
CIRCLE
  5
AD
330
7E
100
AcDbEntity
  8
0
  6
CONTINUOUS
 62
     0
100
AcDbCircle
 10
0.0
 20
0.0
 30
0.0
 40
0.25
  0
ENDBLK
  5
80
330
7E
100
AcDbEntity
  8
0
100
AcDbBlockEnd
  0
BLOCK
  5
82
330
81
100
AcDbEntity
  8
0
100
AcDbBlockBegin
  2
EX_RCIVIL
 70
     0
 10
0.0
 20
0.0
 30
0.0
  3
EX_RCIVIL
  1

  0
LINE
  5
AE
330
81
100
AcDbEntity
  8
0
  6
CONTINUOUS
 62
     0
100
AcDbLine
 10
0.0
 20
0.0
 30
0.0
 11
-1.0
 21
0.0
 31
0.0
  0
LINE
  5
AF
330
81
100
AcDbEntity
  8
0
  6
CONTINUOUS
 62
     0
100
AcDbLine
 10
-1.0
 20
-0.25
 30
0.0
 11
0.0
 21
-0.25
 31
0.0
  0
LINE
  5
B0
330
81
100
AcDbEntity
  8
0
  6
CONTINUOUS
 62
     0
100
AcDbLine
 10
-1.0
 20
-0.125
 30
0.0
 11
0.0
 21
-0.125
 31
0.0
  0
ENDBLK
  5
83
330
81
100
AcDbEntity
  8
0
100
AcDbBlockEnd
  0
BLOCK
  5
85
330
84
100
AcDbEntity
  8
0
100
AcDbBlockBegin
  2
EX_SLANT
 70
     0
 10
0.0
 20
0.0
 30
0.0
  3
EX_SLANT
  1

  0
LINE
  5
B1
330
84
100
AcDbEntity
  8
0
  6
CONTINUOUS
 62
     0
100
AcDbLine
 10
0.0
 20
0.0
 30
0.0
 11
-1.0
 21
0.0
 31
0.0
  0
LINE
  5
B2
330
84
100
AcDbEntity
  8
0
  6
CONTINUOUS
 62
     0
100
AcDbLine
 10
0.707106781
 20
0.707106781
 30
0.0
 11
-0.707106781
 21
-0.707106781
 31
0.0
  0
ENDBLK
  5
86
330
84
100
AcDbEntity
  8
0
100
AcDbBlockEnd
  0
BLOCK
  5
88
330
87
100
AcDbEntity
  8
0
100
AcDbBlockBegin
  2
EX_NONE
 70
     0
 10
0.0
 20
0.0
 30
0.0
  3
EX_NONE
  1

  0
LINE
  5
B3
330
87
100
AcDbEntity
  8
0
  6
CONTINUOUS
 62
     0
100
AcDbLine
 10
0.0
 20
0.0
 30
0.0
 11
-1.0
 21
0.0
 31
0.0
  0
ENDBLK
  5
89
330
87
100
AcDbEntity
  8
0
100
AcDbBlockEnd
  0
BLOCK
  5
8B
330
8A
100
AcDbEntity
  8
0
100
AcDbBlockBegin
  2
EX_CIVIL
 70
     0
 10
0.0
 20
0.0
 30
0.0
  3
EX_CIVIL
  1

  0
LINE
  5
B4
330
8A
100
AcDbEntity
  8
0
  6
CONTINUOUS
 62
     0
100
AcDbLine
 10
0.0
 20
0.0
 30
0.0
 11
-1.0
 21
0.0
 31
0.0
  0
LINE
  5
B5
330
8A
100
AcDbEntity
  8
0
  6
CONTINUOUS
 62
     0
100
AcDbLine
 10
-1.0
 20
0.25
 30
0.0
 11
0.0
 21
0.25
 31
0.0
  0
LINE
  5
B6
330
8A
100
AcDbEntity
  8
0
  6
CONTINUOUS
 62
     0
100
AcDbLine
 10
-1.0
 20
0.125
 30
0.0
 11
0.0
 21
0.125
 31
0.0
  0
ENDBLK
  5
8C
330
8A
100
AcDbEntity
  8
0
100
AcDbBlockEnd
  0
BLOCK
  5
8E
330
8D
100
AcDbEntity
  8
0
100
AcDbBlockBegin
  2
EX_WCIR
 70
     0
 10
0.0
 20
0.0
 30
0.0
  3
EX_WCIR
  1

  0
LINE
  5
B7
330
8D
100
AcDbEntity
  8
0
  6
CONTINUOUS
 62
     0
100
AcDbLine
 10
0.0
 20
0.0
 30
0.0
 11
-1.0
 21
0.0
 31
0.0
  0
CIRCLE
  5
B8
330
8D
100
AcDbEntity
  8
0
  6
CONTINUOUS
 62
     0
100
AcDbCircle
 10
0.0
 20
0.0
 30
0.0
 40
0.5
  0
ENDBLK
  5
8F
330
8D
100
AcDbEntity
  8
0
100
AcDbBlockEnd
  0
BLOCK
  5
91
330
90
100
AcDbEntity
  8
0
100
AcDbBlockBegin
  2
EX_WCIR2
 70
     0
 10
0.0
 20
0.0
 30
0.0
  3
EX_WCIR2
  1

  0
LINE
  5
B9
330
90
100
AcDbEntity
  8
0
  6
CONTINUOUS
 62
     0
100
AcDbLine
 10
-0.5
 20
0.0
 30
0.0
 11
-1.0
 21
0.0
 31
0.0
  0
CIRCLE
  5
BA
330
90
100
AcDbEntity
  8
0
  6
CONTINUOUS
 62
     0
100
AcDbCircle
 10
0.0
 20
0.0
 30
0.0
 40
0.5
  0
ENDBLK
  5
92
330
90
100
AcDbEntity
  8
0
100
AcDbBlockEnd
  0
BLOCK
  5
94
330
93
100
AcDbEntity
  8
0
100
AcDbBlockBegin
  2
EX_WNORM
 70
     0
 10
0.0
 20
0.0
 30
0.0
  3
EX_WNORM
  1

  0
LINE
  5
BB
330
93
100
AcDbEntity
  8
0
  6
CONTINUOUS
 62
     0
100
AcDbLine
 10
-1.0
 20
0.0
 30
0.0
 11
-1.0
 21
0.0
 31
0.0
  0
LINE
  5
BC
330
93
100
AcDbEntity
  8
0
  6
CONTINUOUS
 62
     0
100
AcDbLine
 10
0.0
 20
0.0
 30
0.0
 11
-1.0
 21
0.166666667
 31
0.0
  0
LINE
  5
BD
330
93
100
AcDbEntity
  8
0
  6
CONTINUOUS
 62
     0
100
AcDbLine
 10
0.0
 20
0.0
 30
0.0
 11
-1.0
 21
-0.166666667
 31
0.0
  0
LINE
  5
BE
330
93
100
AcDbEntity
  8
0
  6
CONTINUOUS
 62
     0
100
AcDbLine
 10
-1.0
 20
0.166666667
 30
0.0
 11
-1.0
 21
-0.166666667
 31
0.0
  0
ENDBLK
  5
95
330
93
100
AcDbEntity
  8
0
100
AcDbBlockEnd
  0
BLOCK
  5
97
330
96
100
AcDbEntity
  8
0
100
AcDbBlockBegin
  2
EX_NNORM
 70
     0
 10
0.0
 20
0.0
 30
0.0
  3
EX_NNORM
  1

  0
LINE
  5
BF
330
96
100
AcDbEntity
  8
0
  6
CONTINUOUS
 62
     0
100
AcDbLine
 10
0.0
 20
0.0
 30
0.0
 11
-1.0
 21
0.0
 31
0.0
  0
LINE
  5
C0
330
96
100
AcDbEntity
  8
0
  6
CONTINUOUS
 62
     0
100
AcDbLine
 10
0.0
 20
0.0
 30
0.0
 11
-1.0
 21
0.166666667
 31
0.0
  0
LINE
  5
C1
330
96
100
AcDbEntity
  8
0
  6
CONTINUOUS
 62
     0
100
AcDbLine
 10
0.0
 20
0.0
 30
0.0
 11
-1.0
 21
-0.166666667
 31
0.0
  0
LINE
  5
C2
330
96
100
AcDbEntity
  8
0
  6
CONTINUOUS
 62
     0
100
AcDbLine
 10
-1.0
 20
0.166666667
 30
0.0
 11
-1.0
 21
-0.166666667
 31
0.0
  0
ENDBLK
  5
98
330
96
100
AcDbEntity
  8
0
100
AcDbBlockEnd
  0
BLOCK
  5
9A
330
99
100
AcDbEntity
  8
0
100
AcDbBlockBegin
  2
EX_BBOX
 70
     0
 10
0.0
 20
0.0
 30
0.0
  3
EX_BBOX
  1

  0
LINE
  5
C3
330
99
100
AcDbEntity
  8
0
  6
CONTINUOUS
 62
     0
100
AcDbLine
 10
0.0
 20
0.0
 30
0.0
 11
-1.0
 21
0.0
 31
0.0
  0
LINE
  5
C4
330
99
100
AcDbEntity
  8
0
  6
CONTINUOUS
 62
     0
100
AcDbLine
 10
-0.5
 20
0.5
 30
0.0
 11
0.5
 21
0.5
 31
0.0
  0
LINE
  5
C5
330
99
100
AcDbEntity
  8
0
  6
CONTINUOUS
 62
     0
100
AcDbLine
 10
0.5
 20
0.5
 30
0.0
 11
0.5
 21
-0.5
 31
0.0
  0
LINE
  5
C6
330
99
100
AcDbEntity
  8
0
  6
CONTINUOUS
 62
     0
100
AcDbLine
 10
0.5
 20
-0.5
 30
0.0
 11
-0.5
 21
-0.5
 31
0.0
  0
LINE
  5
C7
330
99
100
AcDbEntity
  8
0
  6
CONTINUOUS
 62
     0
100
AcDbLine
 10
-0.5
 20
-0.5
 30
0.0
 11
-0.5
 21
0.5
 31
0.0
  0
LINE
  5
C8
330
99
100
AcDbEntity
  8
0
  6
CONTINUOUS
 62
     0
100
AcDbLine
 10
-0.25
 20
0.25
 30
0.0
 11
0.25
 21
0.25
 31
0.0
  0
LINE
  5
C9
330
99
100
AcDbEntity
  8
0
  6
CONTINUOUS
 62
     0
100
AcDbLine
 10
0.25
 20
0.25
 30
0.0
 11
0.25
 21
-0.25
 31
0.0
  0
LINE
  5
CA
330
99
100
AcDbEntity
  8
0
  6
CONTINUOUS
 62
     0
100
AcDbLine
 10
0.25
 20
-0.25
 30
0.0
 11
-0.25
 21
-0.25
 31
0.0
  0
LINE
  5
CB
330
99
100
AcDbEntity
  8
0
  6
CONTINUOUS
 62
     0
100
AcDbLine
 10
-0.25
 20
-0.25
 30
0.0
 11
-0.25
 21
0.25
 31
0.0
  0
ENDBLK
  5
9B
330
99
100
AcDbEntity
  8
0
100
AcDbBlockEnd
  0
BLOCK
  5
9D
330
9C
100
AcDbEntity
  8
0
100
AcDbBlockBegin
  2
EX_WBOX
 70
     0
 10
0.0
 20
0.0
 30
0.0
  3
EX_WBOX
  1

  0
LINE
  5
CC
330
9C
100
AcDbEntity
  8
0
  6
CONTINUOUS
 62
     0
100
AcDbLine
 10
-0.5
 20
0.0
 30
0.0
 11
-1.0
 21
0.0
 31
0.0
  0
LINE
  5
CD
330
9C
100
AcDbEntity
  8
0
  6
CONTINUOUS
 62
     0
100
AcDbLine
 10
-0.5
 20
0.5
 30
0.0
 11
0.5
 21
0.5
 31
0.0
  0
LINE
  5
CE
330
9C
100
AcDbEntity
  8
0
  6
CONTINUOUS
 62
     0
100
AcDbLine
 10
0.5
 20
0.5
 30
0.0
 11
0.5
 21
-0.5
 31
0.0
  0
LINE
  5
CF
330
9C
100
AcDbEntity
  8
0
  6
CONTINUOUS
 62
     0
100
AcDbLine
 10
0.5
 20
-0.5
 30
0.0
 11
-0.5
 21
-0.5
 31
0.0
  0
LINE
  5
D0
330
9C
100
AcDbEntity
  8
0
  6
CONTINUOUS
 62
     0
100
AcDbLine
 10
-0.5
 20
-0.5
 30
0.0
 11
-0.5
 21
0.5
 31
0.0
  0
ENDBLK
  5
9E
330
9C
100
AcDbEntity
  8
0
100
AcDbBlockEnd
  0
BLOCK
  5
A0
330
9F
100
AcDbEntity
  8
0
100
AcDbBlockBegin
  2
EX_INTEGRAL
 70
     0
 10
0.0
 20
0.0
 30
0.0
  3
EX_INTEGRAL
  1

  0
LINE
  5
D1
330
9F
100
AcDbEntity
  8
0
  6
CONTINUOUS
 62
     0
100
AcDbLine
 10
0.0
 20
0.0
 30
0.0
 11
-1.0
 21
0.0
 31
0.0
  0
ARC
  5
D2
330
9F
100
AcDbEntity
  8
0
  6
CONTINUOUS
 62
     0
100
AcDbCircle
 10
0.542115
 20
0.164992
 30
0.0
 40
0.56667
100
AcDbArc
 50
73.07249033629006
 51
196.9275130221199
  0
ARC
  5
D3
330
9F
100
AcDbEntity
  8
0
  6
CONTINUOUS
 62
     0
100
AcDbCircle
 10
-0.542115
 20
-0.164992
 30
0.0
 40
0.56667
100
AcDbArc
 50
253.0724869220464
 51
16.9275130559125
  0
ENDBLK
  5
A1
330
9F
100
AcDbEntity
  8
0
100
AcDbBlockEnd
  0
BLOCK
  5
496
330
495
100
AcDbEntity
  8
0
100
AcDbBlockBegin
  2
*D15
 70
     1
 10
0.0
 20
0.0
 30
0.0
  3
*D15
  1

  0
LINE
  5
498
330
495
100
AcDbEntity
  8
LAY-20
  6
CONTINUOUS
 62
     4
100
AcDbLine
 10
354.9999999999101
 20
283.5
 30
0.0
 11
354.9999999999101
 21
337.4999999999999
 31
0.0
  0
INSERT
  5
499
330
495
100
AcDbEntity
  8
LAY-20
 62
     4
100
AcDbBlockReference
  2
EX_BNORM
 10
354.9999999999101
 20
271.0
 30
0.0
 41
12.5
 42
12.5
 43
12.5
 50
270.0
  0
INSERT
  5
49A
330
495
100
AcDbEntity
  8
LAY-20
 62
     4
100
AcDbBlockReference
  2
EX_BNORM
 10
354.9999999999101
 20
349.9999999999999
 30
0.0
 41
12.5
 42
12.5
 43
12.5
 50
90.0
  0
MTEXT
  5
49B
330
495
100
AcDbEntity
  8
LAY-20
 62
     7
100
AcDbMText
 10
342.4999999999101
 20
310.4999999999999
 30
0.0
 40
15.590552
 41
0.0
 71
     5
 72
     1
  1
79
  7
EXCADDIM1
 11
0.0
 21
1.0
 31
0.0
  0
POINT
  5
49C
330
495
100
AcDbEntity
  8
DEFPOINTS
 62
     0
100
AcDbPoint
 10
354.9999999999101
 20
271.0
 30
0.0
  0
POINT
  5
49D
330
495
100
AcDbEntity
  8
DEFPOINTS
 62
     0
100
AcDbPoint
 10
354.9999999999101
 20
349.9999999999999
 30
0.0
  0
POINT
  5
49E
330
495
100
AcDbEntity
  8
DEFPOINTS
 62
     0
100
AcDbPoint
 10
354.9999999999101
 20
349.9999999999999
 30
0.0
  0
ENDBLK
  5
497
330
495
100
AcDbEntity
  8
0
100
AcDbBlockEnd
  0
BLOCK
  5
4A1
330
4A0
100
AcDbEntity
  8
0
100
AcDbBlockBegin
  2
*D16
 70
     1
 10
0.0
 20
0.0
 30
0.0
  3
*D16
  1

  0
LINE
  5
4A3
330
4A0
100
AcDbEntity
  8
LAY-20
  6
CONTINUOUS
 62
     4
100
AcDbLine
 10
277.4999999999102
 20
281.0
 30
0.0
 11
327.4999999999102
 21
281.0
 31
0.0
  0
LINE
  5
4A4
330
4A0
100
AcDbEntity
  8
LAY-20
  6
CONTINUOUS
 62
     4
100
AcDbLine
 10
319.9999999999102
 20
293.5
 30
0.0
 11
319.9999999999102
 21
337.4999999999999
 31
0.0
  0
INSERT
  5
4A5
330
4A0
100
AcDbEntity
  8
LAY-20
 62
     4
100
AcDbBlockReference
  2
EX_BNORM
 10
319.9999999999102
 20
281.0
 30
0.0
 41
12.5
 42
12.5
 43
12.5
 50
270.0
  0
INSERT
  5
4A6
330
4A0
100
AcDbEntity
  8
LAY-20
 62
     4
100
AcDbBlockReference
  2
EX_BNORM
 10
319.9999999999102
 20
349.9999999999999
 30
0.0
 41
12.5
 42
12.5
 43
12.5
 50
90.0
  0
MTEXT
  5
4A7
330
4A0
100
AcDbEntity
  8
LAY-20
 62
     7
100
AcDbMText
 10
307.4999999999102
 20
315.4999999999999
 30
0.0
 40
15.590552
 41
0.0
 71
     5
 72
     1
  1
69
  7
EXCADDIM1
 11
0.0
 21
1.0
 31
0.0
  0
POINT
  5
4A8
330
4A0
100
AcDbEntity
  8
DEFPOINTS
 62
     0
100
AcDbPoint
 10
269.9999999999102
 20
281.0
 30
0.0
  0
POINT
  5
4A9
330
4A0
100
AcDbEntity
  8
DEFPOINTS
 62
     0
100
AcDbPoint
 10
319.9999999999102
 20
349.9999999999999
 30
0.0
  0
POINT
  5
4AA
330
4A0
100
AcDbEntity
  8
DEFPOINTS
 62
     0
100
AcDbPoint
 10
319.9999999999102
 20
349.9999999999999
 30
0.0
  0
ENDBLK
  5
4A2
330
4A0
100
AcDbEntity
  8
0
100
AcDbBlockEnd
  0
BLOCK
  5
4AD
330
4AC
100
AcDbEntity
  8
0
100
AcDbBlockBegin
  2
*D17
 70
     1
 10
0.0
 20
0.0
 30
0.0
  3
*D17
  1

  0
LINE
  5
4AF
330
4AC
100
AcDbEntity
  8
LAY-20
  6
CONTINUOUS
 62
     4
100
AcDbLine
 10
175.0000000000301
 20
212.4999999999999
 30
0.0
 11
175.0000000000301
 21
117.5000000000999
 31
0.0
  0
LINE
  5
4B0
330
4AC
100
AcDbEntity
  8
LAY-20
  6
CONTINUOUS
 62
     4
100
AcDbLine
 10
775.0000000000301
 20
212.4999999999999
 30
0.0
 11
775.0000000000301
 21
117.5000000000999
 31
0.0
  0
LINE
  5
4B1
330
4AC
100
AcDbEntity
  8
LAY-20
  6
CONTINUOUS
 62
     4
100
AcDbLine
 10
187.5000000000301
 20
125.0000000000999
 30
0.0
 11
762.5000000000301
 21
125.0000000000999
 31
0.0
  0
INSERT
  5
4B2
330
4AC
100
AcDbEntity
  8
LAY-20
 62
     4
100
AcDbBlockReference
  2
EX_BNORM
 10
175.0000000000301
 20
125.0000000000999
 30
0.0
 41
12.5
 42
12.5
 43
12.5
 50
180.0
  0
INSERT
  5
4B3
330
4AC
100
AcDbEntity
  8
LAY-20
 62
     4
100
AcDbBlockReference
  2
EX_BNORM
 10
775.0000000000301
 20
125.0000000000999
 30
0.0
 41
12.5
 42
12.5
 43
12.5
  0
MTEXT
  5
4B4
330
4AC
100
AcDbEntity
  8
LAY-20
 62
     7
100
AcDbMText
 10
475.0000000000301
 20
137.5000000000999
 30
0.0
 40
15.590552
 41
0.0
 71
     5
 72
     1
  1
桝径600
  7
EXCADDIM1
  0
POINT
  5
4B5
330
4AC
100
AcDbEntity
  8
DEFPOINTS
 62
     0
100
AcDbPoint
 10
175.0000000000301
 20
219.9999999999999
 30
0.0
  0
POINT
  5
4B6
330
4AC
100
AcDbEntity
  8
DEFPOINTS
 62
     0
100
AcDbPoint
 10
775.0000000000301
 20
219.9999999999999
 30
0.0
  0
POINT
  5
4B7
330
4AC
100
AcDbEntity
  8
DEFPOINTS
 62
     0
100
AcDbPoint
 10
775.0000000000301
 20
125.0000000000999
 30
0.0
  0
ENDBLK
  5
4AE
330
4AC
100
AcDbEntity
  8
0
100
AcDbBlockEnd
  0
BLOCK
  5
4BA
330
4B9
100
AcDbEntity
  8
0
100
AcDbBlockBegin
  2
*D18
 70
     1
 10
0.0
 20
0.0
 30
0.0
  3
*D18
  1

  0
LINE
  5
4BC
330
4B9
100
AcDbEntity
  8
LAY-20
  6
CONTINUOUS
 62
     4
100
AcDbLine
 10
825.0000000000003
 20
221.5
 30
0.0
 11
825.0000000000003
 21
117.5000000000999
 31
0.0
  0
LINE
  5
4BD
330
4B9
100
AcDbEntity
  8
LAY-20
  6
CONTINUOUS
 62
     4
100
AcDbLine
 10
812.5000000000003
 20
125.0000000000999
 30
0.0
 11
787.5000000000301
 21
125.0000000000999
 31
0.0
  0
INSERT
  5
4BE
330
4B9
100
AcDbEntity
  8
LAY-20
 62
     4
100
AcDbBlockReference
  2
EX_BNORM
 10
825.0000000000003
 20
125.0000000000999
 30
0.0
 41
12.5
 42
12.5
 43
12.5
  0
INSERT
  5
4BF
330
4B9
100
AcDbEntity
  8
LAY-20
 62
     4
100
AcDbBlockReference
  2
EX_BNORM
 10
775.0000000000301
 20
125.0000000000999
 30
0.0
 41
12.5
 42
12.5
 43
12.5
 50
180.0
  0
MTEXT
  5
4C0
330
4B9
100
AcDbEntity
  8
LAY-20
 62
     7
100
AcDbMText
 10
800.0000000000153
 20
137.5000000000999
 30
0.0
 40
15.590552
 41
0.0
 71
     5
 72
     1
  1
50
  7
EXCADDIM1
  0
POINT
  5
4C1
330
4B9
100
AcDbEntity
  8
DEFPOINTS
 62
     0
100
AcDbPoint
 10
825.0000000000003
 20
229.0
 30
0.0
  0
POINT
  5
4C2
330
4B9
100
AcDbEntity
  8
DEFPOINTS
 62
     0
100
AcDbPoint
 10
775.0000000000301
 20
125.0000000000999
 30
0.0
  0
POINT
  5
4C3
330
4B9
100
AcDbEntity
  8
DEFPOINTS
 62
     0
100
AcDbPoint
 10
775.0000000000301
 20
125.0000000000999
 30
0.0
  0
ENDBLK
  5
4BB
330
4B9
100
AcDbEntity
  8
0
100
AcDbBlockEnd
  0
BLOCK
  5
4C6
330
4C5
100
AcDbEntity
  8
0
100
AcDbBlockBegin
  2
*D19
 70
     1
 10
0.0
 20
0.0
 30
0.0
  3
*D19
  1

  0
LINE
  5
4C8
330
4C5
100
AcDbEntity
  8
LAY-20
  6
CONTINUOUS
 62
     4
100
AcDbLine
 10
125.0000000000001
 20
221.5
 30
0.0
 11
125.0000000000001
 21
117.5000000000999
 31
0.0
  0
LINE
  5
4C9
330
4C5
100
AcDbEntity
  8
LAY-20
  6
CONTINUOUS
 62
     4
100
AcDbLine
 10
137.5000000000001
 20
125.0000000000999
 30
0.0
 11
162.5000000000301
 21
125.0000000000999
 31
0.0
  0
INSERT
  5
4CA
330
4C5
100
AcDbEntity
  8
LAY-20
 62
     4
100
AcDbBlockReference
  2
EX_BNORM
 10
125.0000000000001
 20
125.0000000000999
 30
0.0
 41
12.5
 42
12.5
 43
12.5
 50
180.0
  0
INSERT
  5
4CB
330
4C5
100
AcDbEntity
  8
LAY-20
 62
     4
100
AcDbBlockReference
  2
EX_BNORM
 10
175.0000000000301
 20
125.0000000000999
 30
0.0
 41
12.5
 42
12.5
 43
12.5
  0
MTEXT
  5
4CC
330
4C5
100
AcDbEntity
  8
LAY-20
 62
     7
100
AcDbMText
 10
150.0000000000151
 20
137.5000000000999
 30
0.0
 40
15.590552
 41
0.0
 71
     5
 72
     1
  1
50
  7
EXCADDIM1
  0
POINT
  5
4CD
330
4C5
100
AcDbEntity
  8
DEFPOINTS
 62
     0
100
AcDbPoint
 10
125.0000000000001
 20
229.0
 30
0.0
  0
POINT
  5
4CE
330
4C5
100
AcDbEntity
  8
DEFPOINTS
 62
     0
100
AcDbPoint
 10
175.0000000000301
 20
125.0000000000999
 30
0.0
  0
POINT
  5
4CF
330
4C5
100
AcDbEntity
  8
DEFPOINTS
 62
     0
100
AcDbPoint
 10
175.0000000000301
 20
125.0000000000999
 30
0.0
  0
ENDBLK
  5
4C7
330
4C5
100
AcDbEntity
  8
0
100
AcDbBlockEnd
  0
BLOCK
  5
4D2
330
4D1
100
AcDbEntity
  8
0
100
AcDbBlockBegin
  2
*D20
 70
     1
 10
0.0
 20
0.0
 30
0.0
  3
*D20
  1

  0
LINE
  5
4D4
330
4D1
100
AcDbEntity
  8
LAY-20
  6
CONTINUOUS
 62
     4
100
AcDbLine
 10
125.0000000000001
 20
357.4999999999999
 30
0.0
 11
125.0000000000001
 21
477.4999999999999
 31
0.0
  0
LINE
  5
4D5
330
4D1
100
AcDbEntity
  8
LAY-20
  6
CONTINUOUS
 62
     4
100
AcDbLine
 10
825.0000000000003
 20
357.4999999999999
 30
0.0
 11
825.0000000000003
 21
477.4999999999999
 31
0.0
  0
LINE
  5
4D6
330
4D1
100
AcDbEntity
  8
LAY-20
  6
CONTINUOUS
 62
     4
100
AcDbLine
 10
137.5000000000001
 20
469.9999999999999
 30
0.0
 11
812.5000000000003
 21
469.9999999999999
 31
0.0
  0
INSERT
  5
4D7
330
4D1
100
AcDbEntity
  8
LAY-20
 62
     4
100
AcDbBlockReference
  2
EX_BNORM
 10
125.0000000000001
 20
469.9999999999999
 30
0.0
 41
12.5
 42
12.5
 43
12.5
 50
180.0
  0
INSERT
  5
4D8
330
4D1
100
AcDbEntity
  8
LAY-20
 62
     4
100
AcDbBlockReference
  2
EX_BNORM
 10
825.0000000000003
 20
469.9999999999999
 30
0.0
 41
12.5
 42
12.5
 43
12.5
  0
MTEXT
  5
4D9
330
4D1
100
AcDbEntity
  8
LAY-20
 62
     7
100
AcDbMText
 10
475.0000000000003
 20
482.4999999999999
 30
0.0
 40
15.590552
 41
0.0
 71
     5
 72
     1
  1
700
  7
EXCADDIM1
  0
POINT
  5
4DA
330
4D1
100
AcDbEntity
  8
DEFPOINTS
 62
     0
100
AcDbPoint
 10
125.0000000000001
 20
349.9999999999999
 30
0.0
  0
POINT
  5
4DB
330
4D1
100
AcDbEntity
  8
DEFPOINTS
 62
     0
100
AcDbPoint
 10
825.0000000000003
 20
349.9999999999999
 30
0.0
  0
POINT
  5
4DC
330
4D1
100
AcDbEntity
  8
DEFPOINTS
 62
     0
100
AcDbPoint
 10
825.0000000000003
 20
469.9999999999999
 30
0.0
  0
ENDBLK
  5
4D3
330
4D1
100
AcDbEntity
  8
0
100
AcDbBlockEnd
  0
BLOCK
  5
4DF
330
4DE
100
AcDbEntity
  8
0
100
AcDbBlockBegin
  2
*D21
 70
     1
 10
0.0
 20
0.0
 30
0.0
  3
*D21
  1

  0
LINE
  5
4E1
330
4DE
100
AcDbEntity
  8
LAY-20
  6
CONTINUOUS
 62
     4
100
AcDbLine
 10
131.4999999999963
 20
357.4999999999865
 30
0.0
 11
131.4999999999964
 21
442.4999999999999
 31
0.0
  0
LINE
  5
4E2
330
4DE
100
AcDbEntity
  8
LAY-20
  6
CONTINUOUS
 62
     4
100
AcDbLine
 10
818.5000000000026
 20
357.4999999999865
 30
0.0
 11
818.5000000000026
 21
442.4999999999999
 31
0.0
  0
LINE
  5
4E3
330
4DE
100
AcDbEntity
  8
LAY-20
  6
CONTINUOUS
 62
     4
100
AcDbLine
 10
143.9999999999964
 20
434.9999999999999
 30
0.0
 11
806.0000000000026
 21
434.9999999999999
 31
0.0
  0
INSERT
  5
4E4
330
4DE
100
AcDbEntity
  8
LAY-20
 62
     4
100
AcDbBlockReference
  2
EX_BNORM
 10
131.4999999999964
 20
434.9999999999999
 30
0.0
 41
12.5
 42
12.5
 43
12.5
 50
180.0
  0
INSERT
  5
4E5
330
4DE
100
AcDbEntity
  8
LAY-20
 62
     4
100
AcDbBlockReference
  2
EX_BNORM
 10
818.5000000000026
 20
434.9999999999999
 30
0.0
 41
12.5
 42
12.5
 43
12.5
  0
MTEXT
  5
4E6
330
4DE
100
AcDbEntity
  8
LAY-20
 62
     7
100
AcDbMText
 10
474.9999999999995
 20
447.4999999999999
 30
0.0
 40
15.590552
 41
0.0
 71
     5
 72
     1
  1
687
  7
EXCADDIM1
  0
POINT
  5
4E7
330
4DE
100
AcDbEntity
  8
DEFPOINTS
 62
     0
100
AcDbPoint
 10
131.4999999999963
 20
349.9999999999865
 30
0.0
  0
POINT
  5
4E8
330
4DE
100
AcDbEntity
  8
DEFPOINTS
 62
     0
100
AcDbPoint
 10
818.5000000000026
 20
349.9999999999865
 30
0.0
  0
POINT
  5
4E9
330
4DE
100
AcDbEntity
  8
DEFPOINTS
 62
     0
100
AcDbPoint
 10
818.5000000000026
 20
434.9999999999999
 30
0.0
  0
ENDBLK
  5
4E0
330
4DE
100
AcDbEntity
  8
0
100
AcDbBlockEnd
  0
BLOCK
  5
4EC
330
4EB
100
AcDbEntity
  8
0
100
AcDbBlockBegin
  2
*D22
 70
     1
 10
0.0
 20
0.0
 30
0.0
  3
*D22
  1

  0
LINE
  5
4EE
330
4EB
100
AcDbEntity
  8
LAY-20
  6
CONTINUOUS
 62
     4
100
AcDbLine
 10
136.0000000000001
 20
357.4999999999999
 30
0.0
 11
136.0000000000001
 21
407.4999999999999
 31
0.0
  0
LINE
  5
4EF
330
4EB
100
AcDbEntity
  8
LAY-20
  6
CONTINUOUS
 62
     4
100
AcDbLine
 10
814.0
 20
357.4999999999999
 30
0.0
 11
814.0
 21
407.4999999999999
 31
0.0
  0
LINE
  5
4F0
330
4EB
100
AcDbEntity
  8
LAY-20
  6
CONTINUOUS
 62
     4
100
AcDbLine
 10
148.5000000000001
 20
399.9999999999999
 30
0.0
 11
801.5
 21
399.9999999999999
 31
0.0
  0
INSERT
  5
4F1
330
4EB
100
AcDbEntity
  8
LAY-20
 62
     4
100
AcDbBlockReference
  2
EX_BNORM
 10
136.0000000000001
 20
399.9999999999999
 30
0.0
 41
12.5
 42
12.5
 43
12.5
 50
180.0
  0
INSERT
  5
4F2
330
4EB
100
AcDbEntity
  8
LAY-20
 62
     4
100
AcDbBlockReference
  2
EX_BNORM
 10
814.0
 20
399.9999999999999
 30
0.0
 41
12.5
 42
12.5
 43
12.5
  0
MTEXT
  5
4F3
330
4EB
100
AcDbEntity
  8
LAY-20
 62
     7
100
AcDbMText
 10
475.0000000000001
 20
412.4999999999999
 30
0.0
 40
15.590552
 41
0.0
 71
     5
 72
     1
  1
678
  7
EXCADDIM1
  0
POINT
  5
4F4
330
4EB
100
AcDbEntity
  8
DEFPOINTS
 62
     0
100
AcDbPoint
 10
136.0000000000001
 20
349.9999999999999
 30
0.0
  0
POINT
  5
4F5
330
4EB
100
AcDbEntity
  8
DEFPOINTS
 62
     0
100
AcDbPoint
 10
814.0
 20
349.9999999999999
 30
0.0
  0
POINT
  5
4F6
330
4EB
100
AcDbEntity
  8
DEFPOINTS
 62
     0
100
AcDbPoint
 10
814.0
 20
399.9999999999999
 30
0.0
  0
ENDBLK
  5
4ED
330
4EB
100
AcDbEntity
  8
0
100
AcDbBlockEnd
  0
BLOCK
  5
4F9
330
4F8
100
AcDbEntity
  8
0
100
AcDbBlockBegin
  2
*D23
 70
     1
 10
0.0
 20
0.0
 30
0.0
  3
*D23
  1

  0
LINE
  5
4FB
330
4F8
100
AcDbEntity
  8
LAY-20
  6
CONTINUOUS
 62
     4
100
AcDbLine
 10
823.5000000000002
 20
219.9999999999999
 30
0.0
 11
882.5000000000001
 21
219.9999999999999
 31
0.0
  0
LINE
  5
4FC
330
4F8
100
AcDbEntity
  8
LAY-20
  6
CONTINUOUS
 62
     4
100
AcDbLine
 10
832.5000000000003
 20
349.9999999999999
 30
0.0
 11
882.5000000000001
 21
349.9999999999999
 31
0.0
  0
LINE
  5
4FD
330
4F8
100
AcDbEntity
  8
LAY-20
  6
CONTINUOUS
 62
     4
100
AcDbLine
 10
875.0000000000001
 20
232.4999999999999
 30
0.0
 11
875.0000000000001
 21
337.4999999999999
 31
0.0
  0
INSERT
  5
4FE
330
4F8
100
AcDbEntity
  8
LAY-20
 62
     4
100
AcDbBlockReference
  2
EX_BNORM
 10
875.0000000000001
 20
219.9999999999999
 30
0.0
 41
12.5
 42
12.5
 43
12.5
 50
270.0
  0
INSERT
  5
4FF
330
4F8
100
AcDbEntity
  8
LAY-20
 62
     4
100
AcDbBlockReference
  2
EX_BNORM
 10
875.0000000000001
 20
349.9999999999999
 30
0.0
 41
12.5
 42
12.5
 43
12.5
 50
90.0
  0
MTEXT
  5
500
330
4F8
100
AcDbEntity
  8
LAY-20
 62
     7
100
AcDbMText
 10
862.5000000000001
 20
284.9999999999999
 30
0.0
 40
15.590552
 41
0.0
 71
     5
 72
     1
  1
130
  7
EXCADDIM1
 11
0.0
 21
1.0
 31
0.0
  0
POINT
  5
501
330
4F8
100
AcDbEntity
  8
DEFPOINTS
 62
     0
100
AcDbPoint
 10
816.0000000000002
 20
219.9999999999999
 30
0.0
  0
POINT
  5
502
330
4F8
100
AcDbEntity
  8
DEFPOINTS
 62
     0
100
AcDbPoint
 10
825.0000000000003
 20
349.9999999999999
 30
0.0
  0
POINT
  5
503
330
4F8
100
AcDbEntity
  8
DEFPOINTS
 62
     0
100
AcDbPoint
 10
875.0000000000001
 20
349.9999999999999
 30
0.0
  0
ENDBLK
  5
4FA
330
4F8
100
AcDbEntity
  8
0
100
AcDbBlockEnd
  0
BLOCK
  5
506
330
505
100
AcDbEntity
  8
0
100
AcDbBlockBegin
  2
*D24
 70
     1
 10
0.0
 20
0.0
 30
0.0
  3
*D24
  1

  0
LINE
  5
508
330
505
100
AcDbEntity
  8
LAY-20
  6
CONTINUOUS
 62
     4
100
AcDbLine
 10
1067.5
 20
549.9999999999999
 30
0.0
 11
912.5000000000006
 21
550.0
 31
0.0
  0
LINE
  5
509
330
505
100
AcDbEntity
  8
LAY-20
  6
CONTINUOUS
 62
     4
100
AcDbLine
 10
1067.5
 20
1250.0
 30
0.0
 11
912.5000000000006
 21
1250.0
 31
0.0
  0
LINE
  5
50A
330
505
100
AcDbEntity
  8
LAY-20
  6
CONTINUOUS
 62
     4
100
AcDbLine
 10
920.0000000000006
 20
562.5
 30
0.0
 11
920.0000000000006
 21
1237.5
 31
0.0
  0
INSERT
  5
50B
330
505
100
AcDbEntity
  8
LAY-20
 62
     4
100
AcDbBlockReference
  2
EX_BNORM
 10
920.0000000000006
 20
550.0
 30
0.0
 41
12.5
 42
12.5
 43
12.5
 50
270.0
  0
INSERT
  5
50C
330
505
100
AcDbEntity
  8
LAY-20
 62
     4
100
AcDbBlockReference
  2
EX_BNORM
 10
920.0000000000006
 20
1250.0
 30
0.0
 41
12.5
 42
12.5
 43
12.5
 50
90.0
  0
MTEXT
  5
50D
330
505
100
AcDbEntity
  8
LAY-20
 62
     7
100
AcDbMText
 10
907.5000000000008
 20
899.9999999999994
 30
0.0
 40
15.590552
 41
0.0
 71
     5
 72
     1
  1
700
  7
EXCADDIM1
 11
0.0
 21
1.0
 31
0.0
  0
POINT
  5
50E
330
505
100
AcDbEntity
  8
DEFPOINTS
 62
     0
100
AcDbPoint
 10
1075.0
 20
549.9999999999999
 30
0.0
  0
POINT
  5
50F
330
505
100
AcDbEntity
  8
DEFPOINTS
 62
     0
100
AcDbPoint
 10
1075.0
 20
1250.0
 30
0.0
  0
POINT
  5
510
330
505
100
AcDbEntity
  8
DEFPOINTS
 62
     0
100
AcDbPoint
 10
920.0000000000006
 20
1250.0
 30
0.0
  0
ENDBLK
  5
507
330
505
100
AcDbEntity
  8
0
100
AcDbBlockEnd
  0
BLOCK
  5
513
330
512
100
AcDbEntity
  8
0
100
AcDbBlockBegin
  2
*D25
 70
     1
 10
0.0
 20
0.0
 30
0.0
  3
*D25
  1

  0
LINE
  5
515
330
512
100
AcDbEntity
  8
LAY-20
  6
CONTINUOUS
 62
     4
100
AcDbLine
 10
1067.500000000002
 20
556.5000000000008
 30
0.0
 11
947.5000000000003
 21
556.5000000000009
 31
0.0
  0
LINE
  5
516
330
512
100
AcDbEntity
  8
LAY-20
  6
CONTINUOUS
 62
     4
100
AcDbLine
 10
1067.500000000003
 20
1243.500000000077
 30
0.0
 11
947.5000000000003
 21
1243.500000000077
 31
0.0
  0
LINE
  5
517
330
512
100
AcDbEntity
  8
LAY-20
  6
CONTINUOUS
 62
     4
100
AcDbLine
 10
955.0000000000003
 20
569.0000000000009
 30
0.0
 11
955.0000000000003
 21
1231.000000000077
 31
0.0
  0
INSERT
  5
518
330
512
100
AcDbEntity
  8
LAY-20
 62
     4
100
AcDbBlockReference
  2
EX_BNORM
 10
955.0000000000003
 20
556.5000000000009
 30
0.0
 41
12.5
 42
12.5
 43
12.5
 50
270.0
  0
INSERT
  5
519
330
512
100
AcDbEntity
  8
LAY-20
 62
     4
100
AcDbBlockReference
  2
EX_BNORM
 10
955.0000000000003
 20
1243.500000000077
 30
0.0
 41
12.5
 42
12.5
 43
12.5
 50
90.0
  0
MTEXT
  5
51A
330
512
100
AcDbEntity
  8
LAY-20
 62
     7
100
AcDbMText
 10
942.5000000000003
 20
900.000000000039
 30
0.0
 40
15.590552
 41
0.0
 71
     5
 72
     1
  1
687
  7
EXCADDIM1
 11
0.0
 21
1.0
 31
0.0
  0
POINT
  5
51B
330
512
100
AcDbEntity
  8
DEFPOINTS
 62
     0
100
AcDbPoint
 10
1075.000000000002
 20
556.5000000000008
 30
0.0
  0
POINT
  5
51C
330
512
100
AcDbEntity
  8
DEFPOINTS
 62
     0
100
AcDbPoint
 10
1075.000000000003
 20
1243.500000000077
 30
0.0
  0
POINT
  5
51D
330
512
100
AcDbEntity
  8
DEFPOINTS
 62
     0
100
AcDbPoint
 10
955.0000000000003
 20
1243.500000000077
 30
0.0
  0
ENDBLK
  5
514
330
512
100
AcDbEntity
  8
0
100
AcDbBlockEnd
  0
BLOCK
  5
520
330
51F
100
AcDbEntity
  8
0
100
AcDbBlockBegin
  2
*D26
 70
     1
 10
0.0
 20
0.0
 30
0.0
  3
*D26
  1

  0
LINE
  5
522
330
51F
100
AcDbEntity
  8
LAY-20
  6
CONTINUOUS
 62
     4
100
AcDbLine
 10
1067.5
 20
943.4999999999999
 30
0.0
 11
1017.5
 21
943.4999999999999
 31
0.0
  0
LINE
  5
523
330
51F
100
AcDbEntity
  8
LAY-20
  6
CONTINUOUS
 62
     4
100
AcDbLine
 10
1067.5
 20
856.4974163555001
 30
0.0
 11
1017.5
 21
856.4974163555001
 31
0.0
  0
LINE
  5
524
330
51F
100
AcDbEntity
  8
LAY-20
  6
CONTINUOUS
 62
     4
100
AcDbLine
 10
1025.0
 20
930.9999999999999
 30
0.0
 11
1025.0
 21
868.9974163555001
 31
0.0
  0
INSERT
  5
525
330
51F
100
AcDbEntity
  8
LAY-20
 62
     4
100
AcDbBlockReference
  2
EX_BNORM
 10
1025.0
 20
943.4999999999999
 30
0.0
 41
12.5
 42
12.5
 43
12.5
 50
90.0
  0
INSERT
  5
526
330
51F
100
AcDbEntity
  8
LAY-20
 62
     4
100
AcDbBlockReference
  2
EX_BNORM
 10
1025.0
 20
856.4974163555001
 30
0.0
 41
12.5
 42
12.5
 43
12.5
 50
270.0
  0
MTEXT
  5
527
330
51F
100
AcDbEntity
  8
LAY-20
 62
     7
100
AcDbMText
 10
1012.5
 20
899.99870817775
 30
0.0
 40
15.590552
 41
0.0
 71
     5
 72
     1
  1
87
  7
EXCADDIM1
 11
0.0
 21
1.0
 31
0.0
  0
POINT
  5
528
330
51F
100
AcDbEntity
  8
DEFPOINTS
 62
     0
100
AcDbPoint
 10
1075.0
 20
943.4999999999999
 30
0.0
  0
POINT
  5
529
330
51F
100
AcDbEntity
  8
DEFPOINTS
 62
     0
100
AcDbPoint
 10
1075.0
 20
856.4974163555001
 30
0.0
  0
POINT
  5
52A
330
51F
100
AcDbEntity
  8
DEFPOINTS
 62
     0
100
AcDbPoint
 10
1025.0
 20
856.4974163555001
 30
0.0
  0
ENDBLK
  5
521
330
51F
100
AcDbEntity
  8
0
100
AcDbBlockEnd
  0
BLOCK
  5
52D
330
52C
100
AcDbEntity
  8
0
100
AcDbBlockBegin
  2
*D27
 70
     1
 10
0.0
 20
0.0
 30
0.0
  3
*D27
  1

  0
LINE
  5
52F
330
52C
100
AcDbEntity
  8
LAY-20
  6
CONTINUOUS
 62
     4
100
AcDbLine
 10
1067.5
 20
560.9999999999999
 30
0.0
 11
982.5000000000003
 21
561.0
 31
0.0
  0
LINE
  5
530
330
52C
100
AcDbEntity
  8
LAY-20
  6
CONTINUOUS
 62
     4
100
AcDbLine
 10
1067.5
 20
1239.0000000001
 30
0.0
 11
982.5000000000003
 21
1239.0000000001
 31
0.0
  0
LINE
  5
531
330
52C
100
AcDbEntity
  8
LAY-20
  6
CONTINUOUS
 62
     4
100
AcDbLine
 10
990.0000000000003
 20
573.5
 30
0.0
 11
990.0000000000003
 21
1226.5000000001
 31
0.0
  0
INSERT
  5
532
330
52C
100
AcDbEntity
  8
LAY-20
 62
     4
100
AcDbBlockReference
  2
EX_BNORM
 10
990.0000000000003
 20
561.0
 30
0.0
 41
12.5
 42
12.5
 43
12.5
 50
270.0
  0
INSERT
  5
533
330
52C
100
AcDbEntity
  8
LAY-20
 62
     4
100
AcDbBlockReference
  2
EX_BNORM
 10
990.0000000000003
 20
1239.0000000001
 30
0.0
 41
12.5
 42
12.5
 43
12.5
 50
90.0
  0
MTEXT
  5
534
330
52C
100
AcDbEntity
  8
LAY-20
 62
     7
100
AcDbMText
 10
977.5000000000003
 20
900.00000000005
 30
0.0
 40
15.590552
 41
0.0
 71
     5
 72
     1
  1
678
  7
EXCADDIM1
 11
0.0
 21
1.0
 31
0.0
  0
POINT
  5
535
330
52C
100
AcDbEntity
  8
DEFPOINTS
 62
     0
100
AcDbPoint
 10
1075.0
 20
560.9999999999999
 30
0.0
  0
POINT
  5
536
330
52C
100
AcDbEntity
  8
DEFPOINTS
 62
     0
100
AcDbPoint
 10
1075.0
 20
1239.0000000001
 30
0.0
  0
POINT
  5
537
330
52C
100
AcDbEntity
  8
DEFPOINTS
 62
     0
100
AcDbPoint
 10
990.0000000000003
 20
1239.0000000001
 30
0.0
  0
ENDBLK
  5
52E
330
52C
100
AcDbEntity
  8
0
100
AcDbBlockEnd
  0
BLOCK
  5
53A
330
539
100
AcDbEntity
  8
0
100
AcDbBlockBegin
  2
*D28
 70
     1
 10
0.0
 20
0.0
 30
0.0
  3
*D28
  1

  0
LINE
  5
53C
330
539
100
AcDbEntity
  8
LAY-20
  6
CONTINUOUS
 62
     4
100
AcDbLine
 10
1025.0
 20
1226.5000000001
 30
0.0
 11
1025.0
 21
955.9999999999999
 31
0.0
  0
INSERT
  5
53D
330
539
100
AcDbEntity
  8
LAY-20
 62
     4
100
AcDbBlockReference
  2
EX_BNORM
 10
1025.0
 20
1239.0000000001
 30
0.0
 41
12.5
 42
12.5
 43
12.5
 50
90.0
  0
INSERT
  5
53E
330
539
100
AcDbEntity
  8
LAY-20
 62
     4
100
AcDbBlockReference
  2
EX_BNORM
 10
1025.0
 20
943.4999999999999
 30
0.0
 41
12.5
 42
12.5
 43
12.5
 50
270.0
  0
MTEXT
  5
53F
330
539
100
AcDbEntity
  8
LAY-20
 62
     7
100
AcDbMText
 10
1012.5
 20
1091.25000000005
 30
0.0
 40
15.590552
 41
0.0
 71
     5
 72
     1
  1
295.5
  7
EXCADDIM1
 11
0.0
 21
1.0
 31
0.0
  0
POINT
  5
540
330
539
100
AcDbEntity
  8
DEFPOINTS
 62
     0
100
AcDbPoint
 10
1025.0
 20
1239.0000000001
 30
0.0
  0
POINT
  5
541
330
539
100
AcDbEntity
  8
DEFPOINTS
 62
     0
100
AcDbPoint
 10
1025.0
 20
943.4999999999999
 30
0.0
  0
POINT
  5
542
330
539
100
AcDbEntity
  8
DEFPOINTS
 62
     0
100
AcDbPoint
 10
1025.0
 20
943.4999999999999
 30
0.0
  0
ENDBLK
  5
53B
330
539
100
AcDbEntity
  8
0
100
AcDbBlockEnd
  0
BLOCK
  5
545
330
544
100
AcDbEntity
  8
0
100
AcDbBlockBegin
  2
*D29
 70
     1
 10
0.0
 20
0.0
 30
0.0
  3
*D29
  1

  0
LINE
  5
547
330
544
100
AcDbEntity
  8
LAY-20
  6
CONTINUOUS
 62
     4
100
AcDbLine
 10
1025.0
 20
843.9974163555001
 30
0.0
 11
1025.0
 21
573.4999999999999
 31
0.0
  0
INSERT
  5
548
330
544
100
AcDbEntity
  8
LAY-20
 62
     4
100
AcDbBlockReference
  2
EX_BNORM
 10
1025.0
 20
856.4974163555001
 30
0.0
 41
12.5
 42
12.5
 43
12.5
 50
90.0
  0
INSERT
  5
549
330
544
100
AcDbEntity
  8
LAY-20
 62
     4
100
AcDbBlockReference
  2
EX_BNORM
 10
1025.0
 20
560.9999999999999
 30
0.0
 41
12.5
 42
12.5
 43
12.5
 50
270.0
  0
MTEXT
  5
54A
330
544
100
AcDbEntity
  8
LAY-20
 62
     7
100
AcDbMText
 10
1012.5
 20
708.74870817775
 30
0.0
 40
15.590552
 41
0.0
 71
     5
 72
     1
  1
295.5
  7
EXCADDIM1
 11
0.0
 21
1.0
 31
0.0
  0
POINT
  5
54B
330
544
100
AcDbEntity
  8
DEFPOINTS
 62
     0
100
AcDbPoint
 10
1025.0
 20
856.4974163555001
 30
0.0
  0
POINT
  5
54C
330
544
100
AcDbEntity
  8
DEFPOINTS
 62
     0
100
AcDbPoint
 10
1025.0
 20
560.9999999999999
 30
0.0
  0
POINT
  5
54D
330
544
100
AcDbEntity
  8
DEFPOINTS
 62
     0
100
AcDbPoint
 10
1025.0
 20
560.9999999999999
 30
0.0
  0
ENDBLK
  5
546
330
544
100
AcDbEntity
  8
0
100
AcDbBlockEnd
  0
BLOCK
  5
550
330
54F
100
AcDbEntity
  8
0
100
AcDbBlockBegin
  2
*D30
 70
     1
 10
0.0
 20
0.0
 30
0.0
  3
*D30
  1

  0
LINE
  5
552
330
54F
100
AcDbEntity
  8
LAY-20
  6
CONTINUOUS
 62
     4
100
AcDbLine
 10
1212.5
 20
599.9999999999998
 30
0.0
 11
1307.5
 21
599.9999999999999
 31
0.0
  0
LINE
  5
553
330
54F
100
AcDbEntity
  8
LAY-20
  6
CONTINUOUS
 62
     4
100
AcDbLine
 10
1212.5
 20
1200.0
 30
0.0
 11
1307.5
 21
1200.0
 31
0.0
  0
LINE
  5
554
330
54F
100
AcDbEntity
  8
LAY-20
  6
CONTINUOUS
 62
     4
100
AcDbLine
 10
1300.0
 20
612.4999999999999
 30
0.0
 11
1300.0
 21
1187.5
 31
0.0
  0
INSERT
  5
555
330
54F
100
AcDbEntity
  8
LAY-20
 62
     4
100
AcDbBlockReference
  2
EX_BNORM
 10
1300.0
 20
599.9999999999999
 30
0.0
 41
12.5
 42
12.5
 43
12.5
 50
270.0
  0
INSERT
  5
556
330
54F
100
AcDbEntity
  8
LAY-20
 62
     4
100
AcDbBlockReference
  2
EX_BNORM
 10
1300.0
 20
1200.0
 30
0.0
 41
12.5
 42
12.5
 43
12.5
 50
90.0
  0
MTEXT
  5
557
330
54F
100
AcDbEntity
  8
LAY-20
 62
     7
100
AcDbMText
 10
1287.5
 20
899.9999999999997
 30
0.0
 40
15.590552
 41
0.0
 71
     5
 72
     1
  1
桝径600
  7
EXCADDIM1
 11
0.0
 21
1.0
 31
0.0
  0
POINT
  5
558
330
54F
100
AcDbEntity
  8
DEFPOINTS
 62
     0
100
AcDbPoint
 10
1205.0
 20
599.9999999999998
 30
0.0
  0
POINT
  5
559
330
54F
100
AcDbEntity
  8
DEFPOINTS
 62
     0
100
AcDbPoint
 10
1205.0
 20
1200.0
 30
0.0
  0
POINT
  5
55A
330
54F
100
AcDbEntity
  8
DEFPOINTS
 62
     0
100
AcDbPoint
 10
1300.0
 20
1200.0
 30
0.0
  0
ENDBLK
  5
551
330
54F
100
AcDbEntity
  8
0
100
AcDbBlockEnd
  0
BLOCK
  5
55D
330
55C
100
AcDbEntity
  8
0
100
AcDbBlockBegin
  2
*D31
 70
     1
 10
0.0
 20
0.0
 30
0.0
  3
*D31
  1

  0
LINE
  5
55F
330
55C
100
AcDbEntity
  8
LAY-20
  6
CONTINUOUS
 62
     4
100
AcDbLine
 10
1257.5
 20
1250.0
 30
0.0
 11
1307.5
 21
1250.0
 31
0.0
  0
LINE
  5
560
330
55C
100
AcDbEntity
  8
LAY-20
  6
CONTINUOUS
 62
     4
100
AcDbLine
 10
1300.0
 20
1237.5
 30
0.0
 11
1300.0
 21
1212.5
 31
0.0
  0
INSERT
  5
561
330
55C
100
AcDbEntity
  8
LAY-20
 62
     4
100
AcDbBlockReference
  2
EX_BNORM
 10
1300.0
 20
1250.0
 30
0.0
 41
12.5
 42
12.5
 43
12.5
 50
90.0
  0
INSERT
  5
562
330
55C
100
AcDbEntity
  8
LAY-20
 62
     4
100
AcDbBlockReference
  2
EX_BNORM
 10
1300.0
 20
1200.0
 30
0.0
 41
12.5
 42
12.5
 43
12.5
 50
270.0
  0
MTEXT
  5
563
330
55C
100
AcDbEntity
  8
LAY-20
 62
     7
100
AcDbMText
 10
1287.5
 20
1225.0
 30
0.0
 40
15.590552
 41
0.0
 71
     5
 72
     1
  1
50
  7
EXCADDIM1
 11
0.0
 21
1.0
 31
0.0
  0
POINT
  5
564
330
55C
100
AcDbEntity
  8
DEFPOINTS
 62
     0
100
AcDbPoint
 10
1250.0
 20
1250.0
 30
0.0
  0
POINT
  5
565
330
55C
100
AcDbEntity
  8
DEFPOINTS
 62
     0
100
AcDbPoint
 10
1300.0
 20
1200.0
 30
0.0
  0
POINT
  5
566
330
55C
100
AcDbEntity
  8
DEFPOINTS
 62
     0
100
AcDbPoint
 10
1300.0
 20
1200.0
 30
0.0
  0
ENDBLK
  5
55E
330
55C
100
AcDbEntity
  8
0
100
AcDbBlockEnd
  0
BLOCK
  5
569
330
568
100
AcDbEntity
  8
0
100
AcDbBlockBegin
  2
*D32
 70
     1
 10
0.0
 20
0.0
 30
0.0
  3
*D32
  1

  0
LINE
  5
56B
330
568
100
AcDbEntity
  8
LAY-20
  6
CONTINUOUS
 62
     4
100
AcDbLine
 10
1257.5
 20
549.9999999999999
 30
0.0
 11
1307.5
 21
549.9999999999999
 31
0.0
  0
LINE
  5
56C
330
568
100
AcDbEntity
  8
LAY-20
  6
CONTINUOUS
 62
     4
100
AcDbLine
 10
1300.0
 20
562.4999999999999
 30
0.0
 11
1300.0
 21
587.4999999999998
 31
0.0
  0
INSERT
  5
56D
330
568
100
AcDbEntity
  8
LAY-20
 62
     4
100
AcDbBlockReference
  2
EX_BNORM
 10
1300.0
 20
549.9999999999999
 30
0.0
 41
12.5
 42
12.5
 43
12.5
 50
270.0
  0
INSERT
  5
56E
330
568
100
AcDbEntity
  8
LAY-20
 62
     4
100
AcDbBlockReference
  2
EX_BNORM
 10
1300.0
 20
599.9999999999998
 30
0.0
 41
12.5
 42
12.5
 43
12.5
 50
90.0
  0
MTEXT
  5
56F
330
568
100
AcDbEntity
  8
LAY-20
 62
     7
100
AcDbMText
 10
1287.5
 20
574.9999999999998
 30
0.0
 40
15.590552
 41
0.0
 71
     5
 72
     1
  1
50
  7
EXCADDIM1
 11
0.0
 21
1.0
 31
0.0
  0
POINT
  5
570
330
568
100
AcDbEntity
  8
DEFPOINTS
 62
     0
100
AcDbPoint
 10
1250.0
 20
549.9999999999999
 30
0.0
  0
POINT
  5
571
330
568
100
AcDbEntity
  8
DEFPOINTS
 62
     0
100
AcDbPoint
 10
1300.0
 20
599.9999999999998
 30
0.0
  0
POINT
  5
572
330
568
100
AcDbEntity
  8
DEFPOINTS
 62
     0
100
AcDbPoint
 10
1300.0
 20
599.9999999999998
 30
0.0
  0
ENDBLK
  5
56A
330
568
100
AcDbEntity
  8
0
100
AcDbBlockEnd
  0
BLOCK
  5
575
330
574
100
AcDbEntity
  8
0
100
AcDbBlockBegin
  2
*D33
 70
     1
 10
0.0
 20
0.0
 30
0.0
  3
*D33
  1

  0
LINE
  5
577
330
574
100
AcDbEntity
  8
LAY-20
  6
CONTINUOUS
 62
     4
100
AcDbLine
 10
199.99999999996
 20
1260.5
 30
0.0
 11
199.99999999996
 21
1307.5
 31
0.0
  0
LINE
  5
578
330
574
100
AcDbEntity
  8
LAY-20
  6
CONTINUOUS
 62
     4
100
AcDbLine
 10
750.00000000005
 20
1260.5
 30
0.0
 11
750.00000000005
 21
1307.5
 31
0.0
  0
LINE
  5
579
330
574
100
AcDbEntity
  8
LAY-20
  6
CONTINUOUS
 62
     4
100
AcDbLine
 10
212.49999999996
 20
1300.0
 30
0.0
 11
737.50000000005
 21
1300.0
 31
0.0
  0
INSERT
  5
57A
330
574
100
AcDbEntity
  8
LAY-20
 62
     4
100
AcDbBlockReference
  2
EX_BNORM
 10
199.99999999996
 20
1300.0
 30
0.0
 41
12.5
 42
12.5
 43
12.5
 50
180.0
  0
INSERT
  5
57B
330
574
100
AcDbEntity
  8
LAY-20
 62
     4
100
AcDbBlockReference
  2
EX_BNORM
 10
750.00000000005
 20
1300.0
 30
0.0
 41
12.5
 42
12.5
 43
12.5
  0
MTEXT
  5
57C
330
574
100
AcDbEntity
  8
LAY-20
 62
     7
100
AcDbMText
 10
475.0000000000051
 20
1312.5
 30
0.0
 40
15.590552
 41
0.0
 71
     5
 72
     1
  1
550
  7
EXCADDIM1
  0
POINT
  5
57D
330
574
100
AcDbEntity
  8
DEFPOINTS
 62
     0
100
AcDbPoint
 10
199.99999999996
 20
1253.0
 30
0.0
  0
POINT
  5
57E
330
574
100
AcDbEntity
  8
DEFPOINTS
 62
     0
100
AcDbPoint
 10
750.00000000005
 20
1253.0
 30
0.0
  0
POINT
  5
57F
330
574
100
AcDbEntity
  8
DEFPOINTS
 62
     0
100
AcDbPoint
 10
750.00000000005
 20
1300.0
 30
0.0
  0
ENDBLK
  5
576
330
574
100
AcDbEntity
  8
0
100
AcDbBlockEnd
  0
ENDSEC
  0
SECTION
  2
ENTITIES
  0
LINE
  5
D4
330
1F
100
AcDbEntity
  8
LAY-10
  6
CONTINUOUS
 62
     7
100
AcDbLine
 10
1198.499999999994
 20
1224.041630560336
 30
0.0
 11
1199.458369439709
 21
1225.000000000052
 31
0.0
  0
LINE
  5
D5
330
1F
100
AcDbEntity
  8
LAY-10
  6
CONTINUOUS
 62
     7
100
AcDbLine
 10
1198.499999999998
 20
1222.627416997967
 30
0.0
 11
1200.500000000007
 21
1224.627416997976
 31
0.0
  0
LINE
  5
D6
330
1F
100
AcDbEntity
  8
LAY-10
  6
CONTINUOUS
 62
     7
100
AcDbLine
 10
1198.499999999995
 20
1221.213203435591
 30
0.0
 11
1200.500000000005
 21
1223.213203435601
 31
0.0
  0
LINE
  5
D7
330
1F
100
AcDbEntity
  8
LAY-10
  6
CONTINUOUS
 62
     7
100
AcDbLine
 10
1198.499999999999
 20
1219.798989873222
 30
0.0
 11
1200.500000000008
 21
1221.798989873231
 31
0.0
  0
LINE
  5
D8
330
1F
100
AcDbEntity
  8
LAY-10
  6
CONTINUOUS
 62
     7
100
AcDbLine
 10
1198.499999999996
 20
1218.384776310847
 30
0.0
 11
1200.500000000006
 21
1220.384776310856
 31
0.0
  0
LINE
  5
D9
330
1F
100
AcDbEntity
  8
LAY-10
  6
CONTINUOUS
 62
     7
100
AcDbLine
 10
1198.5
 20
1216.970562748477
 30
0.0
 11
1200.500000000003
 21
1218.97056274848
 31
0.0
  0
LINE
  5
DA
330
1F
100
AcDbEntity
  8
LAY-10
  6
CONTINUOUS
 62
     7
100
AcDbLine
 10
1198.499999999998
 20
1215.556349186102
 30
0.0
 11
1200.500000000007
 21
1217.556349186111
 31
0.0
  0
LINE
  5
DB
330
1F
100
AcDbEntity
  8
LAY-10
  6
CONTINUOUS
 62
     7
100
AcDbLine
 10
1198.500000000002
 20
1214.142135623732
 30
0.0
 11
1200.500000000005
 21
1216.142135623735
 31
0.0
  0
LINE
  5
DC
330
1F
100
AcDbEntity
  8
LAY-10
  6
CONTINUOUS
 62
     7
100
AcDbLine
 10
1198.499999999999
 20
1212.727922061357
 30
0.0
 11
1200.500000000008
 21
1214.727922061366
 31
0.0
  0
LINE
  5
DD
330
1F
100
AcDbEntity
  8
LAY-10
  6
CONTINUOUS
 62
     7
100
AcDbLine
 10
1198.499999999996
 20
1211.313708498981
 30
0.0
 11
1200.500000000006
 21
1213.31370849899
 31
0.0
  0
LINE
  5
DE
330
1F
100
AcDbEntity
  8
LAY-10
  6
CONTINUOUS
 62
     7
100
AcDbLine
 10
1198.5
 20
1209.899494936612
 30
0.0
 11
1200.500000000003
 21
1211.899494936615
 31
0.0
  0
LINE
  5
DF
330
1F
100
AcDbEntity
  8
LAY-10
  6
CONTINUOUS
 62
     7
100
AcDbLine
 10
1198.499999999997
 20
1208.485281374236
 30
0.0
 11
1200.500000000007
 21
1210.485281374245
 31
0.0
  0
LINE
  5
E0
330
1F
100
AcDbEntity
  8
LAY-10
  6
CONTINUOUS
 62
     7
100
AcDbLine
 10
1198.500000000002
 20
1207.071067811867
 30
0.0
 11
1200.500000000005
 21
1209.07106781187
 31
0.0
  0
LINE
  5
E1
330
1F
100
AcDbEntity
  8
LAY-10
  6
CONTINUOUS
 62
     7
100
AcDbLine
 10
1198.499999999999
 20
1205.656854249491
 30
0.0
 11
1200.500000000008
 21
1207.656854249501
 31
0.0
  0
LINE
  5
E2
330
1F
100
AcDbEntity
  8
LAY-10
  6
CONTINUOUS
 62
     7
100
AcDbLine
 10
1198.500000000003
 20
1204.242640687122
 30
0.0
 11
1200.500000000006
 21
1206.242640687125
 31
0.0
  0
LINE
  5
E3
330
1F
100
AcDbEntity
  8
LAY-10
  6
CONTINUOUS
 62
     7
100
AcDbLine
 10
1198.5
 20
1202.828427124746
 30
0.0
 11
1200.500000000003
 21
1204.828427124749
 31
0.0
  0
LINE
  5
E4
330
1F
100
AcDbEntity
  8
LAY-10
  6
CONTINUOUS
 62
     7
100
AcDbLine
 10
1198.500000000004
 20
1201.414213562377
 30
0.0
 11
1200.500000000007
 21
1203.41421356238
 31
0.0
  0
LINE
  5
E5
330
1F
100
AcDbEntity
  8
LAY-10
  6
CONTINUOUS
 62
     7
100
AcDbLine
 10
1198.500000000002
 20
1200.000000000001
 30
0.0
 11
1200.500000000005
 21
1202.000000000004
 31
0.0
  0
LINE
  5
E6
330
1F
100
AcDbEntity
  8
LAY-10
  6
CONTINUOUS
 62
     7
100
AcDbLine
 10
1199.914213562377
 20
1200.000000000004
 30
0.0
 11
1200.500000000002
 21
1200.585786437629
 31
0.0
  0
LINE
  5
E7
330
1F
100
AcDbEntity
  8
LAY-10
  6
CONTINUOUS
 62
     7
100
AcDbLine
 10
1198.500000000002
 20
599.0416305603643
 30
0.0
 11
1199.458369439666
 21
600.0000000000285
 31
0.0
  0
LINE
  5
E8
330
1F
100
AcDbEntity
  8
LAY-10
  6
CONTINUOUS
 62
     7
100
AcDbLine
 10
1198.499999999999
 20
597.6274169979888
 30
0.0
 11
1200.500000000002
 21
599.6274169979915
 31
0.0
  0
LINE
  5
E9
330
1F
100
AcDbEntity
  8
LAY-10
  6
CONTINUOUS
 62
     7
100
AcDbLine
 10
1198.500000000003
 20
596.2132034356193
 30
0.0
 11
1200.5
 21
598.2132034356158
 31
0.0
  0
LINE
  5
EA
330
1F
100
AcDbEntity
  8
LAY-10
  6
CONTINUOUS
 62
     7
100
AcDbLine
 10
1198.5
 20
594.7989898732437
 30
0.0
 11
1200.500000000003
 21
596.7989898732467
 31
0.0
  0
LINE
  5
EB
330
1F
100
AcDbEntity
  8
LAY-10
  6
CONTINUOUS
 62
     7
100
AcDbLine
 10
1198.499999999998
 20
593.3847763108681
 30
0.0
 11
1200.500000000001
 21
595.384776310871
 31
0.0
  0
LINE
  5
EC
330
1F
100
AcDbEntity
  8
LAY-10
  6
CONTINUOUS
 62
     7
100
AcDbLine
 10
1198.500000000002
 20
591.9705627484988
 30
0.0
 11
1200.500000000005
 21
593.9705627485017
 31
0.0
  0
LINE
  5
ED
330
1F
100
AcDbEntity
  8
LAY-10
  6
CONTINUOUS
 62
     7
100
AcDbLine
 10
1198.499999999999
 20
590.556349186123
 30
0.0
 11
1200.500000000002
 21
592.556349186126
 31
0.0
  0
LINE
  5
EE
330
1F
100
AcDbEntity
  8
LAY-10
  6
CONTINUOUS
 62
     7
100
AcDbLine
 10
1198.500000000003
 20
589.1421356237538
 30
0.0
 11
1200.5
 21
591.1421356237505
 31
0.0
  0
LINE
  5
EF
330
1F
100
AcDbEntity
  8
LAY-10
  6
CONTINUOUS
 62
     7
100
AcDbLine
 10
1198.500000000001
 20
587.7279220613783
 30
0.0
 11
1200.500000000003
 21
589.7279220613812
 31
0.0
  0
LINE
  5
F0
330
1F
100
AcDbEntity
  8
LAY-10
  6
CONTINUOUS
 62
     7
100
AcDbLine
 10
1198.500000000004
 20
586.313708499009
 30
0.0
 11
1200.500000000001
 21
588.3137084990054
 31
0.0
  0
LINE
  5
F1
330
1F
100
AcDbEntity
  8
LAY-10
  6
CONTINUOUS
 62
     7
100
AcDbLine
 10
1198.500000000002
 20
584.8994949366332
 30
0.0
 11
1200.499999999998
 21
586.8994949366297
 31
0.0
  0
LINE
  5
F2
330
1F
100
AcDbEntity
  8
LAY-10
  6
CONTINUOUS
 62
     7
100
AcDbLine
 10
1198.499999999999
 20
583.4852813742575
 30
0.0
 11
1200.500000000002
 21
585.4852813742606
 31
0.0
  0
LINE
  5
F3
330
1F
100
AcDbEntity
  8
LAY-10
  6
CONTINUOUS
 62
     7
100
AcDbLine
 10
1198.500000000003
 20
582.0710678118884
 30
0.0
 11
1200.5
 21
584.0710678118849
 31
0.0
  0
LINE
  5
F4
330
1F
100
AcDbEntity
  8
LAY-10
  6
CONTINUOUS
 62
     7
100
AcDbLine
 10
1198.500000000001
 20
580.6568542495128
 30
0.0
 11
1200.499999999997
 21
582.6568542495093
 31
0.0
  0
LINE
  5
F5
330
1F
100
AcDbEntity
  8
LAY-10
  6
CONTINUOUS
 62
     7
100
AcDbLine
 10
1198.500000000004
 20
579.2426406871434
 30
0.0
 11
1200.500000000001
 21
581.2426406871399
 31
0.0
  0
LINE
  5
F6
330
1F
100
AcDbEntity
  8
LAY-10
  6
CONTINUOUS
 62
     7
100
AcDbLine
 10
1198.500000000002
 20
577.8284271247677
 30
0.0
 11
1200.499999999998
 21
579.8284271247642
 31
0.0
  0
LINE
  5
F7
330
1F
100
AcDbEntity
  8
LAY-10
  6
CONTINUOUS
 62
     7
100
AcDbLine
 10
1198.5
 20
576.414213562392
 30
0.0
 11
1200.500000000002
 21
578.414213562395
 31
0.0
  0
LINE
  5
F8
330
1F
100
AcDbEntity
  8
LAY-10
  6
CONTINUOUS
 62
     7
100
AcDbLine
 10
1198.500000000003
 20
575.0000000000229
 30
0.0
 11
1200.5
 21
577.0000000000193
 31
0.0
  0
LINE
  5
F9
330
1F
100
AcDbEntity
  8
LAY-10
  6
CONTINUOUS
 62
     7
100
AcDbLine
 10
1199.914213562372
 20
575.0000000000189
 30
0.0
 11
1200.499999999997
 21
575.5857864376436
 31
0.0
  0
LINE
  5
FA
330
1F
100
AcDbEntity
  8
LAY-10
  6
CONTINUOUS
 62
     7
100
AcDbLine
 10
775.0000000000321
 20
225.9142135623651
 30
0.0
 11
775.5857864376696
 21
226.5000000000026
 31
0.0
  0
LINE
  5
FB
330
1F
100
AcDbEntity
  8
LAY-10
  6
CONTINUOUS
 62
     7
100
AcDbLine
 10
775.0000000000296
 20
224.4999999999894
 30
0.0
 11
777.0000000000454
 21
226.5000000000052
 31
0.0
  0
LINE
  5
FC
330
1F
100
AcDbEntity
  8
LAY-10
  6
CONTINUOUS
 62
     7
100
AcDbLine
 10
776.4142135623987
 20
224.4999999999854
 30
0.0
 11
778.4142135624145
 21
226.5000000000014
 31
0.0
  0
LINE
  5
FD
330
1F
100
AcDbEntity
  8
LAY-10
  6
CONTINUOUS
 62
     7
100
AcDbLine
 10
777.8284271247744
 20
224.4999999999882
 30
0.0
 11
779.8284271247902
 21
226.5000000000039
 31
0.0
  0
LINE
  5
FE
330
1F
100
AcDbEntity
  8
LAY-10
  6
CONTINUOUS
 62
     7
100
AcDbLine
 10
779.2426406871436
 20
224.4999999999843
 30
0.0
 11
781.2426406871595
 21
226.5
 31
0.0
  0
LINE
  5
FF
330
1F
100
AcDbEntity
  8
LAY-10
  6
CONTINUOUS
 62
     7
100
AcDbLine
 10
780.6568542495194
 20
224.4999999999868
 30
0.0
 11
782.6568542495352
 21
226.5000000000025
 31
0.0
  0
LINE
  5
100
330
1F
100
AcDbEntity
  8
LAY-10
  6
CONTINUOUS
 62
     7
100
AcDbLine
 10
782.0710678118951
 20
224.4999999999893
 30
0.0
 11
784.0710678119109
 21
226.5000000000051
 31
0.0
  0
LINE
  5
101
330
1F
100
AcDbEntity
  8
LAY-10
  6
CONTINUOUS
 62
     7
100
AcDbLine
 10
783.4852813742642
 20
224.4999999999854
 30
0.0
 11
785.48528137428
 21
226.5000000000013
 31
0.0
  0
LINE
  5
102
330
1F
100
AcDbEntity
  8
LAY-10
  6
CONTINUOUS
 62
     7
100
AcDbLine
 10
784.8994949366399
 20
224.4999999999879
 30
0.0
 11
786.8994949366557
 21
226.5000000000039
 31
0.0
  0
LINE
  5
103
330
1F
100
AcDbEntity
  8
LAY-10
  6
CONTINUOUS
 62
     7
100
AcDbLine
 10
786.3137084990092
 20
224.4999999999842
 30
0.0
 11
788.313708499025
 21
226.5
 31
0.0
  0
LINE
  5
104
330
1F
100
AcDbEntity
  8
LAY-10
  6
CONTINUOUS
 62
     7
100
AcDbLine
 10
787.7279220613849
 20
224.4999999999867
 30
0.0
 11
789.7279220614007
 21
226.5000000000025
 31
0.0
  0
LINE
  5
105
330
1F
100
AcDbEntity
  8
LAY-10
  6
CONTINUOUS
 62
     7
100
AcDbLine
 10
789.1421356237606
 20
224.4999999999893
 30
0.0
 11
791.1421356237764
 21
226.500000000005
 31
0.0
  0
LINE
  5
106
330
1F
100
AcDbEntity
  8
LAY-10
  6
CONTINUOUS
 62
     7
100
AcDbLine
 10
790.5563491861298
 20
224.4999999999854
 30
0.0
 11
792.5563491861456
 21
226.5000000000011
 31
0.0
  0
LINE
  5
107
330
1F
100
AcDbEntity
  8
LAY-10
  6
CONTINUOUS
 62
     7
100
AcDbLine
 10
791.9705627485055
 20
224.4999999999879
 30
0.0
 11
793.9705627485213
 21
226.5000000000039
 31
0.0
  0
LINE
  5
108
330
1F
100
AcDbEntity
  8
LAY-10
  6
CONTINUOUS
 62
     7
100
AcDbLine
 10
793.3847763108747
 20
224.4999999999841
 30
0.0
 11
795.3847763108905
 21
226.4999999999999
 31
0.0
  0
LINE
  5
109
330
1F
100
AcDbEntity
  8
LAY-10
  6
CONTINUOUS
 62
     7
100
AcDbLine
 10
794.7989898732504
 20
224.4999999999867
 30
0.0
 11
796.7989898732662
 21
226.5000000000025
 31
0.0
  0
LINE
  5
10A
330
1F
100
AcDbEntity
  8
LAY-10
  6
CONTINUOUS
 62
     7
100
AcDbLine
 10
796.2132034356262
 20
224.4999999999893
 30
0.0
 11
798.2132034356417
 21
226.500000000005
 31
0.0
  0
LINE
  5
10B
330
1F
100
AcDbEntity
  8
LAY-10
  6
CONTINUOUS
 62
     7
100
AcDbLine
 10
797.6274169979953
 20
224.4999999999854
 30
0.0
 11
799.6274169980111
 21
226.5000000000011
 31
0.0
  0
LINE
  5
10C
330
1F
100
AcDbEntity
  8
LAY-10
  6
CONTINUOUS
 62
     7
100
AcDbLine
 10
799.041630560371
 20
224.4999999999879
 30
0.0
 11
800.0000000000352
 21
225.4583694396522
 31
0.0
  0
LINE
  5
10D
330
1F
100
AcDbEntity
  8
LAY-10
  6
CONTINUOUS
 62
     7
100
AcDbLine
 10
150.0000000000308
 20
225.9142135623638
 30
0.0
 11
150.5857864376682
 21
226.5000000000014
 31
0.0
  0
LINE
  5
10E
330
1F
100
AcDbEntity
  8
LAY-10
  6
CONTINUOUS
 62
     7
100
AcDbLine
 10
150.0000000000282
 20
224.4999999999882
 30
0.0
 11
152.0000000000375
 21
226.4999999999975
 31
0.0
  0
LINE
  5
10F
330
1F
100
AcDbEntity
  8
LAY-10
  6
CONTINUOUS
 62
     7
100
AcDbLine
 10
151.4142135623974
 20
224.4999999999843
 30
0.0
 11
153.4142135624132
 21
226.5
 31
0.0
  0
LINE
  5
110
330
1F
100
AcDbEntity
  8
LAY-10
  6
CONTINUOUS
 62
     7
100
AcDbLine
 10
152.8284271247731
 20
224.4999999999868
 30
0.0
 11
154.8284271247824
 21
226.4999999999961
 31
0.0
  0
LINE
  5
111
330
1F
100
AcDbEntity
  8
LAY-10
  6
CONTINUOUS
 62
     7
100
AcDbLine
 10
154.2426406871423
 20
224.499999999983
 30
0.0
 11
156.2426406871581
 21
226.4999999999989
 31
0.0
  0
LINE
  5
112
330
1F
100
AcDbEntity
  8
LAY-10
  6
CONTINUOUS
 62
     7
100
AcDbLine
 10
155.656854249518
 20
224.4999999999856
 30
0.0
 11
157.6568542495338
 21
226.5000000000014
 31
0.0
  0
LINE
  5
113
330
1F
100
AcDbEntity
  8
LAY-10
  6
CONTINUOUS
 62
     7
100
AcDbLine
 10
157.0710678118937
 20
224.4999999999882
 30
0.0
 11
159.071067811903
 21
226.4999999999975
 31
0.0
  0
LINE
  5
114
330
1F
100
AcDbEntity
  8
LAY-10
  6
CONTINUOUS
 62
     7
100
AcDbLine
 10
158.4852813742629
 20
224.4999999999843
 30
0.0
 11
160.4852813742786
 21
226.5
 31
0.0
  0
LINE
  5
115
330
1F
100
AcDbEntity
  8
LAY-10
  6
CONTINUOUS
 62
     7
100
AcDbLine
 10
159.8994949366385
 20
224.499999999987
 30
0.0
 11
161.8994949366479
 21
226.4999999999962
 31
0.0
  0
LINE
  5
116
330
1F
100
AcDbEntity
  8
LAY-10
  6
CONTINUOUS
 62
     7
100
AcDbLine
 10
161.3137084990142
 20
224.4999999999895
 30
0.0
 11
163.3137084990236
 21
226.4999999999989
 31
0.0
  0
LINE
  5
117
330
1F
100
AcDbEntity
  8
LAY-10
  6
CONTINUOUS
 62
     7
100
AcDbLine
 10
162.7279220613834
 20
224.4999999999856
 30
0.0
 11
164.7279220613928
 21
226.499999999995
 31
0.0
  0
LINE
  5
118
330
1F
100
AcDbEntity
  8
LAY-10
  6
CONTINUOUS
 62
     7
100
AcDbLine
 10
164.1421356237591
 20
224.4999999999882
 30
0.0
 11
166.1421356237684
 21
226.4999999999975
 31
0.0
  0
LINE
  5
119
330
1F
100
AcDbEntity
  8
LAY-10
  6
CONTINUOUS
 62
     7
100
AcDbLine
 10
165.5563491861283
 20
224.4999999999843
 30
0.0
 11
167.5563491861441
 21
226.5
 31
0.0
  0
LINE
  5
11A
330
1F
100
AcDbEntity
  8
LAY-10
  6
CONTINUOUS
 62
     7
100
AcDbLine
 10
166.970562748504
 20
224.499999999987
 30
0.0
 11
168.9705627485134
 21
226.4999999999962
 31
0.0
  0
LINE
  5
11B
330
1F
100
AcDbEntity
  8
LAY-10
  6
CONTINUOUS
 62
     7
100
AcDbLine
 10
168.3847763108797
 20
224.4999999999895
 30
0.0
 11
170.384776310889
 21
226.4999999999989
 31
0.0
  0
LINE
  5
11C
330
1F
100
AcDbEntity
  8
LAY-10
  6
CONTINUOUS
 62
     7
100
AcDbLine
 10
169.7989898732489
 20
224.4999999999857
 30
0.0
 11
171.7989898732582
 21
226.499999999995
 31
0.0
  0
LINE
  5
11D
330
1F
100
AcDbEntity
  8
LAY-10
  6
CONTINUOUS
 62
     7
100
AcDbLine
 10
171.2132034356246
 20
224.4999999999882
 30
0.0
 11
173.2132034356339
 21
226.4999999999975
 31
0.0
  0
LINE
  5
11E
330
1F
100
AcDbEntity
  8
LAY-10
  6
CONTINUOUS
 62
     7
100
AcDbLine
 10
172.6274169980003
 20
224.4999999999908
 30
0.0
 11
174.6274169980032
 21
226.4999999999937
 31
0.0
  0
LINE
  5
11F
330
1F
100
AcDbEntity
  8
LAY-10
  6
CONTINUOUS
 62
     7
100
AcDbLine
 10
174.0416305603695
 20
224.499999999987
 30
0.0
 11
175.0000000000272
 21
225.4583694396447
 31
0.0
  0
LINE
  5
120
330
1F
100
AcDbEntity
  8
LAY-10
  6
CONTINUOUS
 62
     7
100
AcDbLine
 10
820.5000000000038
 20
1245.499999999991
 30
0.0
 11
129.5000000000029
 21
1245.499999999991
 31
0.0
  0
LINE
  5
121
330
1F
100
AcDbEntity
  8
LAY-10
  6
CONTINUOUS
 62
     7
100
AcDbLine
 10
825.0000000000035
 20
1249.999999999991
 30
0.0
 11
125.0000000000029
 21
1249.999999999991
 31
0.0
  0
LINE
  5
122
330
1F
100
AcDbEntity
  8
LAY-10
  6
CONTINUOUS
 62
     7
100
AcDbLine
 10
129.5000000000029
 20
554.4999999999917
 30
0.0
 11
820.500000000003
 21
554.4999999999917
 31
0.0
  0
LINE
  5
123
330
1F
100
AcDbEntity
  8
LAY-10
  6
CONTINUOUS
 62
     7
100
AcDbLine
 10
825.0000000000028
 20
549.9999999999917
 30
0.0
 11
125.0000000000029
 21
549.9999999999917
 31
0.0
  0
LINE
  5
124
330
1F
100
AcDbEntity
  8
LAY-10
  6
CONTINUOUS
 62
     7
100
AcDbLine
 10
820.500000000003
 20
554.4999999999917
 30
0.0
 11
820.5000000000038
 21
1245.499999999991
 31
0.0
  0
LINE
  5
125
330
1F
100
AcDbEntity
  8
LAY-10
  6
CONTINUOUS
 62
     7
100
AcDbLine
 10
825.0000000000028
 20
549.9999999999917
 30
0.0
 11
825.0000000000035
 21
1249.999999999991
 31
0.0
  0
LINE
  5
126
330
1F
100
AcDbEntity
  8
LAY-10
  6
CONTINUOUS
 62
     7
100
AcDbLine
 10
129.5000000000029
 20
1245.499999999991
 30
0.0
 11
129.5000000000029
 21
554.4999999999917
 31
0.0
  0
LINE
  5
127
330
1F
100
AcDbEntity
  8
LAY-10
  6
CONTINUOUS
 62
     7
100
AcDbLine
 10
125.0000000000029
 20
549.9999999999917
 30
0.0
 11
125.0000000000029
 21
1249.999999999991
 31
0.0
  0
LINE
  5
128
330
1F
100
AcDbEntity
  8
LAY-10
  6
CONTINUOUS
 62
     7
100
AcDbLine
 10
129.5000000000029
 20
1245.499999999991
 30
0.0
 11
125.0000000000029
 21
1249.999999999991
 31
0.0
  0
LINE
  5
129
330
1F
100
AcDbEntity
  8
LAY-10
  6
CONTINUOUS
 62
     7
100
AcDbLine
 10
820.5000000000035
 20
1245.499999999991
 30
0.0
 11
825.0000000000035
 21
1249.999999999991
 31
0.0
  0
LINE
  5
12A
330
1F
100
AcDbEntity
  8
LAY-10
  6
CONTINUOUS
 62
     7
100
AcDbLine
 10
825.0000000000028
 20
549.9999999999917
 30
0.0
 11
820.500000000003
 21
554.4999999999917
 31
0.0
  0
LINE
  5
12B
330
1F
100
AcDbEntity
  8
LAY-10
  6
CONTINUOUS
 62
     7
100
AcDbLine
 10
129.5000000000029
 20
554.4999999999917
 30
0.0
 11
125.0000000000029
 21
549.9999999999917
 31
0.0
  0
LINE
  5
12C
330
1F
100
AcDbEntity
  8
LAY-10
  6
CONTINUOUS
 62
     7
100
AcDbLine
 10
814.0000000000022
 20
856.5000000000035
 30
0.0
 11
136.000000000002
 21
856.5000000000035
 31
0.0
  0
LINE
  5
12D
330
1F
100
AcDbEntity
  8
LAY-10
  6
CONTINUOUS
 62
     7
100
AcDbLine
 10
814.0000000000022
 20
943.500000000004
 30
0.0
 11
136.000000000002
 21
943.500000000004
 31
0.0
  0
LINE
  5
12E
330
1F
100
AcDbEntity
  8
LAY-10
  6
CONTINUOUS
 62
     7
100
AcDbLine
 10
814.0000000000022
 20
1239.000000000004
 30
0.0
 11
136.000000000002
 21
1239.000000000004
 31
0.0
  0
LINE
  5
12F
330
1F
100
AcDbEntity
  8
LAY-10
  6
CONTINUOUS
 62
     7
100
AcDbLine
 10
818.5000000000022
 20
1243.500000000004
 30
0.0
 11
131.500000000002
 21
1243.500000000004
 31
0.0
  0
LINE
  5
130
330
1F
100
AcDbEntity
  8
LAY-10
  6
CONTINUOUS
 62
     7
100
AcDbLine
 10
136.000000000002
 20
1239.000000000004
 30
0.0
 11
131.500000000002
 21
1243.500000000004
 31
0.0
  0
LINE
  5
131
330
1F
100
AcDbEntity
  8
LAY-10
  6
CONTINUOUS
 62
     7
100
AcDbLine
 10
814.0000000000022
 20
1239.000000000004
 30
0.0
 11
818.5000000000022
 21
1243.500000000004
 31
0.0
  0
LINE
  5
132
330
1F
100
AcDbEntity
  8
LAY-10
  6
CONTINUOUS
 62
     7
100
AcDbLine
 10
818.5000000000003
 20
556.5000000000035
 30
0.0
 11
814.0000000000003
 21
561.0000000000035
 31
0.0
  0
LINE
  5
133
330
1F
100
AcDbEntity
  8
LAY-10
  6
CONTINUOUS
 62
     7
100
AcDbLine
 10
136.0000000000011
 20
561.0000000000035
 30
0.0
 11
131.5000000000011
 21
556.5000000000035
 31
0.0
  0
LINE
  5
134
330
1F
100
AcDbEntity
  8
LAY-10
  6
CONTINUOUS
 62
     7
100
AcDbLine
 10
131.5000000000011
 20
556.5000000000035
 30
0.0
 11
818.5000000000003
 21
556.5000000000035
 31
0.0
  0
LINE
  5
135
330
1F
100
AcDbEntity
  8
LAY-10
  6
CONTINUOUS
 62
     7
100
AcDbLine
 10
136.0000000000011
 20
561.0000000000035
 30
0.0
 11
814.0000000000003
 21
561.0000000000035
 31
0.0
  0
LINE
  5
136
330
1F
100
AcDbEntity
  8
LAY-10
  6
CONTINUOUS
 62
     7
100
AcDbLine
 10
131.500000000002
 20
1243.500000000004
 30
0.0
 11
131.5000000000011
 21
556.5000000000035
 31
0.0
  0
LINE
  5
137
330
1F
100
AcDbEntity
  8
LAY-10
  6
CONTINUOUS
 62
     7
100
AcDbLine
 10
818.5000000000003
 20
556.5000000000035
 30
0.0
 11
818.5000000000022
 21
1243.500000000004
 31
0.0
  0
LINE
  5
138
330
1F
100
AcDbEntity
  8
LAY-10
  6
CONTINUOUS
 62
     7
100
AcDbLine
 10
124.9999999999961
 20
349.9999999999865
 30
0.0
 11
129.4999999999961
 21
349.9999999999865
 31
0.0
  0
LINE
  5
139
330
1F
100
AcDbEntity
  8
LAY-10
  6
CONTINUOUS
 62
     7
100
AcDbLine
 10
131.4999999999961
 20
349.9999999999865
 30
0.0
 11
818.5000000000025
 21
349.9999999999865
 31
0.0
  0
LINE
  5
13A
330
1F
100
AcDbEntity
  8
LAY-10
  6
CONTINUOUS
 62
     7
100
AcDbLine
 10
820.4999999999956
 20
349.9999999999865
 30
0.0
 11
824.9999999999958
 21
349.9999999999865
 31
0.0
  0
LINE
  5
13B
330
1F
100
AcDbEntity
  8
LAY-10
  6
CONTINUOUS
 62
     7
100
AcDbLine
 10
1075.000000000002
 20
549.9999999999917
 30
0.0
 11
1075.000000000002
 21
554.4999999999917
 31
0.0
  0
LINE
  5
13C
330
1F
100
AcDbEntity
  8
LAY-10
  6
CONTINUOUS
 62
     7
100
AcDbLine
 10
1075.000000000002
 20
1245.499999999991
 30
0.0
 11
1075.000000000002
 21
1249.99999999999
 31
0.0
  0
LINE
  5
13D
330
1F
100
AcDbEntity
  8
LAY-10
  6
CONTINUOUS
 62
     7
100
AcDbLine
 10
754.5000000000389
 20
175.000000000089
 30
0.0
 11
745.5000000000389
 21
175.000000000089
 31
0.0
  0
LINE
  5
13E
330
1F
100
AcDbEntity
  8
LAY-10
  6
CONTINUOUS
 62
     7
100
AcDbLine
 10
745.5000000000389
 20
215.4999999999679
 30
0.0
 11
745.5000000000389
 21
175.000000000089
 31
0.0
  0
LINE
  5
13F
330
1F
100
AcDbEntity
  8
LAY-10
  6
CONTINUOUS
 62
     7
100
AcDbLine
 10
754.5000000000406
 20
215.4999999999679
 30
0.0
 11
754.5000000000406
 21
175.000000000089
 31
0.0
  0
LINE
  5
140
330
1F
100
AcDbEntity
  8
LAY-10
  6
CONTINUOUS
 62
     7
100
AcDbLine
 10
775.0000000000343
 20
224.4999999999861
 30
0.0
 11
775.0000000000343
 21
219.9999999999862
 31
0.0
  0
ARC
  5
141
330
1F
100
AcDbEntity
  8
LAY-10
  6
CONTINUOUS
 62
     7
100
AcDbCircle
 10
815.9999999999958
 20
228.999999999986
 30
0.0
 40
4.5
100
AcDbArc
 50
270.0
 51
0.0
  0
ARC
  5
142
330
1F
100
AcDbEntity
  8
LAY-10
  6
CONTINUOUS
 62
     7
100
AcDbCircle
 10
815.9999999999958
 20
228.999999999986
 30
0.0
 40
9.0
100
AcDbArc
 50
270.0
 51
0.0
  0
LINE
  5
143
330
1F
100
AcDbEntity
  8
LAY-10
  6
CONTINUOUS
 62
     7
100
AcDbLine
 10
195.5000000000379
 20
175.000000000089
 30
0.0
 11
204.500000000038
 21
175.000000000089
 31
0.0
  0
CIRCLE
  5
144
330
1F
100
AcDbEntity
  8
LAY-10
  6
CONTINUOUS
 62
     7
100
AcDbCircle
 10
200.0000000000452
 20
215.4999999999679
 30
0.0
 40
4.5
  0
LINE
  5
145
330
1F
100
AcDbEntity
  8
LAY-10
  6
CONTINUOUS
 62
     7
100
AcDbLine
 10
204.500000000038
 20
215.4999999999679
 30
0.0
 11
204.500000000038
 21
175.000000000089
 31
0.0
  0
LINE
  5
146
330
1F
100
AcDbEntity
  8
LAY-10
  6
CONTINUOUS
 62
     7
100
AcDbLine
 10
195.5000000000361
 20
215.4999999999679
 30
0.0
 11
195.5000000000361
 21
175.000000000089
 31
0.0
  0
LINE
  5
147
330
1F
100
AcDbEntity
  8
LAY-10
  6
CONTINUOUS
 62
     7
100
AcDbLine
 10
175.0000000000325
 20
224.4999999999861
 30
0.0
 11
175.0000000000325
 21
219.9999999999862
 31
0.0
  0
ARC
  5
148
330
1F
100
AcDbEntity
  8
LAY-10
  6
CONTINUOUS
 62
     7
100
AcDbCircle
 10
133.9999999999961
 20
228.999999999986
 30
0.0
 40
4.5
100
AcDbArc
 50
180.0
 51
270.0
  0
ARC
  5
149
330
1F
100
AcDbEntity
  8
LAY-10
  6
CONTINUOUS
 62
     7
100
AcDbCircle
 10
133.9999999999961
 20
228.999999999986
 30
0.0
 40
9.0
100
AcDbArc
 50
180.0
 51
270.0
  0
LINE
  5
14A
330
1F
100
AcDbEntity
  8
LAY-10
  6
CONTINUOUS
 62
     7
100
AcDbLine
 10
133.9999999999961
 20
224.4999999999861
 30
0.0
 11
815.9999999999958
 21
224.4999999999861
 31
0.0
  0
LINE
  5
14B
330
1F
100
AcDbEntity
  8
LAY-10
  6
CONTINUOUS
 62
     7
100
AcDbLine
 10
133.9999999999961
 20
219.9999999999862
 30
0.0
 11
815.9999999999958
 21
219.9999999999862
 31
0.0
  0
CIRCLE
  5
14C
330
1F
100
AcDbEntity
  8
LAY-10
  6
CONTINUOUS
 62
     7
100
AcDbCircle
 10
750.0000000000316
 20
215.4999999999679
 30
0.0
 40
4.5
  0
ARC
  5
14D
330
1F
100
AcDbEntity
  8
LAY-10
  6
CONTINUOUS
 62
     7
100
AcDbCircle
 10
1196.000000000004
 20
1240.999999999991
 30
0.0
 40
9.0
100
AcDbArc
 50
0.0
 51
90.00000000000001
  0
ARC
  5
14E
330
1F
100
AcDbEntity
  8
LAY-10
  6
CONTINUOUS
 62
     7
100
AcDbCircle
 10
1196.000000000004
 20
1240.999999999991
 30
0.0
 40
4.5
100
AcDbArc
 50
0.0
 51
90.00000000000001
  0
LINE
  5
14F
330
1F
100
AcDbEntity
  8
LAY-10
  6
CONTINUOUS
 62
     7
100
AcDbLine
 10
1200.500000000004
 20
1200.00000000003
 30
0.0
 11
1205.000000000004
 21
1200.00000000003
 31
0.0
  0
LINE
  5
150
330
1F
100
AcDbEntity
  8
LAY-10
  6
CONTINUOUS
 62
     7
100
AcDbLine
 10
1213.000000000045
 20
1250.000000000003
 30
0.0
 11
1250.000000000046
 21
1250.000000000003
 31
0.0
  0
LINE
  5
151
330
1F
100
AcDbEntity
  8
LAY-10
  6
CONTINUOUS
 62
     7
100
AcDbLine
 10
1250.000000000046
 20
1242.000000000003
 30
0.0
 11
1213.000000000045
 21
1242.000000000003
 31
0.0
  0
LINE
  5
152
330
1F
100
AcDbEntity
  8
LAY-10
  6
CONTINUOUS
 62
     7
100
AcDbLine
 10
1250.000000000046
 20
1242.000000000003
 30
0.0
 11
1250.000000000046
 21
1250.000000000003
 31
0.0
  0
ARC
  5
153
330
1F
100
AcDbEntity
  8
LAY-10
  6
CONTINUOUS
 62
     7
100
AcDbCircle
 10
1213.000000000043
 20
1242.000000000003
 30
0.0
 40
8.0
100
AcDbArc
 50
90.00000000000001
 51
180.0000000000001
  0
LINE
  5
154
330
1F
100
AcDbEntity
  8
LAY-10
  6
CONTINUOUS
 62
     7
100
AcDbLine
 10
1213.000000000045
 20
1210.000000000001
 30
0.0
 11
1205.000000000043
 21
1210.000000000001
 31
0.0
  0
LINE
  5
155
330
1F
100
AcDbEntity
  8
LAY-10
  6
CONTINUOUS
 62
     7
100
AcDbLine
 10
1213.000000000043
 20
1241.999999999997
 30
0.0
 11
1213.000000000043
 21
1210.000000000001
 31
0.0
  0
ARC
  5
156
330
1F
100
AcDbEntity
  8
LAY-10
  6
CONTINUOUS
 62
     7
100
AcDbCircle
 10
1196.000000000003
 20
558.9999999999922
 30
0.0
 40
9.0
100
AcDbArc
 50
270.0
 51
0.0
  0
ARC
  5
157
330
1F
100
AcDbEntity
  8
LAY-10
  6
CONTINUOUS
 62
     7
100
AcDbCircle
 10
1196.000000000003
 20
558.9999999999922
 30
0.0
 40
4.5
100
AcDbArc
 50
270.0
 51
0.0
  0
LINE
  5
158
330
1F
100
AcDbEntity
  8
LAY-10
  6
CONTINUOUS
 62
     7
100
AcDbLine
 10
1200.500000000002
 20
600.0000000000281
 30
0.0
 11
1205.000000000002
 21
600.0000000000281
 31
0.0
  0
LINE
  5
159
330
1F
100
AcDbEntity
  8
LAY-10
  6
CONTINUOUS
 62
     7
100
AcDbLine
 10
1213.000000000043
 20
549.9999999999735
 30
0.0
 11
1250.000000000045
 21
549.9999999999735
 31
0.0
  0
LINE
  5
15A
330
1F
100
AcDbEntity
  8
LAY-10
  6
CONTINUOUS
 62
     7
100
AcDbLine
 10
1250.000000000045
 20
557.9999999999735
 30
0.0
 11
1213.000000000043
 21
557.9999999999735
 31
0.0
  0
LINE
  5
15B
330
1F
100
AcDbEntity
  8
LAY-10
  6
CONTINUOUS
 62
     7
100
AcDbLine
 10
1250.000000000045
 20
557.9999999999735
 30
0.0
 11
1250.000000000045
 21
549.9999999999735
 31
0.0
  0
ARC
  5
15C
330
1F
100
AcDbEntity
  8
LAY-10
  6
CONTINUOUS
 62
     7
100
AcDbCircle
 10
1213.000000000043
 20
557.9999999999735
 30
0.0
 40
8.0
100
AcDbArc
 50
180.0000000000001
 51
270.0
  0
LINE
  5
15D
330
1F
100
AcDbEntity
  8
LAY-10
  6
CONTINUOUS
 62
     7
100
AcDbLine
 10
1213.000000000043
 20
589.9999999999753
 30
0.0
 11
1205.000000000043
 21
589.9999999999753
 31
0.0
  0
LINE
  5
15E
330
1F
100
AcDbEntity
  8
LAY-10
  6
CONTINUOUS
 62
     7
100
AcDbLine
 10
1213.000000000043
 20
557.9999999999794
 30
0.0
 11
1213.000000000043
 21
589.9999999999753
 31
0.0
  0
LINE
  5
15F
330
1F
100
AcDbEntity
  8
LAY-10
  6
CONTINUOUS
 62
     7
100
AcDbLine
 10
1200.500000000002
 20
558.9999999999922
 30
0.0
 11
1200.500000000004
 21
1240.999999999991
 31
0.0
  0
LINE
  5
160
330
1F
100
AcDbEntity
  8
LAY-10
  6
CONTINUOUS
 62
     7
100
AcDbLine
 10
1198.5
 20
565.4999999999999
 30
0.0
 11
1198.5
 21
1234.5000000001
 31
0.0
  0
ARC
  5
161
330
1F
100
AcDbEntity
  8
LAY-10
  6
CONTINUOUS
 62
     7
100
AcDbCircle
 10
140.4999999999961
 20
275.499999999972
 30
0.0
 40
4.5
100
AcDbArc
 50
180.0
 51
270.0
  0
LINE
  5
162
330
1F
100
AcDbEntity
  8
LAY-10
  6
CONTINUOUS
 62
     7
100
AcDbLine
 10
135.9999999999961
 20
349.9999999999862
 30
0.0
 11
135.9999999999961
 21
275.499999999972
 31
0.0
  0
ARC
  5
163
330
1F
100
AcDbEntity
  8
LAY-10
  6
CONTINUOUS
 62
     7
100
AcDbCircle
 10
140.4999999999961
 20
275.499999999972
 30
0.0
 40
9.0
100
AcDbArc
 50
180.0
 51
270.0
  0
LINE
  5
164
330
1F
100
AcDbEntity
  8
LAY-10
  6
CONTINUOUS
 62
     7
100
AcDbLine
 10
131.4999999999961
 20
349.9999999999862
 30
0.0
 11
131.4999999999961
 21
275.499999999972
 31
0.0
  0
LINE
  5
165
330
1F
100
AcDbEntity
  8
LAY-10
  6
CONTINUOUS
 62
     7
100
AcDbLine
 10
818.5000000000025
 20
349.9999999999862
 30
0.0
 11
818.5000000000025
 21
275.4999999999862
 31
0.0
  0
LINE
  5
166
330
1F
100
AcDbEntity
  8
LAY-10
  6
CONTINUOUS
 62
     7
100
AcDbLine
 10
814.0000000000024
 20
275.4999999999862
 30
0.0
 11
814.0000000000024
 21
349.9999999999862
 31
0.0
  0
ARC
  5
167
330
1F
100
AcDbEntity
  8
LAY-10
  6
CONTINUOUS
 62
     7
100
AcDbCircle
 10
809.5000000000023
 20
275.499999999972
 30
0.0
 40
4.5
100
AcDbArc
 50
270.0
 51
0.0
  0
ARC
  5
168
330
1F
100
AcDbEntity
  8
LAY-10
  6
CONTINUOUS
 62
     7
100
AcDbCircle
 10
809.5000000000023
 20
275.499999999972
 30
0.0
 40
9.0
100
AcDbArc
 50
270.0
 51
0.0
  0
LINE
  5
169
330
1F
100
AcDbEntity
  8
LAY-10
  6
CONTINUOUS
 62
     7
100
AcDbLine
 10
140.4999999999961
 20
266.4999999999717
 30
0.0
 11
809.5000000000257
 21
266.4999999999717
 31
0.0
  0
LINE
  5
16A
330
1F
100
AcDbEntity
  8
LAY-10
  6
CONTINUOUS
 62
     7
100
AcDbLine
 10
140.4999999999961
 20
270.9999999999717
 30
0.0
 11
809.5000000000257
 21
270.9999999999717
 31
0.0
  0
LINE
  5
16B
330
1F
100
AcDbEntity
  8
LAY-10
  6
CONTINUOUS
 62
     7
100
AcDbLine
 10
269.9999999999079
 20
280.9999999999781
 30
0.0
 11
269.9999999999079
 21
270.9999999999735
 31
0.0
  0
LINE
  5
16C
330
1F
100
AcDbEntity
  8
LAY-10
  6
CONTINUOUS
 62
     7
100
AcDbLine
 10
229.9999999999079
 20
280.9999999999781
 30
0.0
 11
229.9999999999079
 21
270.9999999999735
 31
0.0
  0
LINE
  5
16D
330
1F
100
AcDbEntity
  8
LAY-10
  6
CONTINUOUS
 62
     7
100
AcDbLine
 10
269.9999999999079
 20
280.9999999999735
 30
0.0
 11
229.9999999999079
 21
280.9999999999735
 31
0.0
  0
LINE
  5
16E
330
1F
100
AcDbEntity
  8
LAY-10
  6
CONTINUOUS
 62
     7
100
AcDbLine
 10
269.9999999999079
 20
278.9999999999735
 30
0.0
 11
229.9999999999079
 21
278.9999999999735
 31
0.0
  0
LINE
  5
16F
330
1F
100
AcDbEntity
  8
LAY-10
  6
CONTINUOUS
 62
     7
100
AcDbLine
 10
680.0000000000889
 20
280.9999999999781
 30
0.0
 11
680.0000000000889
 21
270.9999999999735
 31
0.0
  0
LINE
  5
170
330
1F
100
AcDbEntity
  8
LAY-10
  6
CONTINUOUS
 62
     7
100
AcDbLine
 10
720.0000000000889
 20
280.9999999999781
 30
0.0
 11
720.0000000000889
 21
270.9999999999735
 31
0.0
  0
LINE
  5
171
330
1F
100
AcDbEntity
  8
LAY-10
  6
CONTINUOUS
 62
     7
100
AcDbLine
 10
680.0000000000889
 20
280.9999999999735
 30
0.0
 11
720.0000000000889
 21
280.9999999999735
 31
0.0
  0
LINE
  5
172
330
1F
100
AcDbEntity
  8
LAY-10
  6
CONTINUOUS
 62
     7
100
AcDbLine
 10
680.0000000000889
 20
278.9999999999735
 30
0.0
 11
720.0000000000889
 21
278.9999999999735
 31
0.0
  0
LINE
  5
173
330
1F
100
AcDbEntity
  8
LAY-10
  6
CONTINUOUS
 62
     7
100
AcDbLine
 10
820.4999999999956
 20
228.999999999986
 30
0.0
 11
820.4999999999956
 21
349.9999999999865
 31
0.0
  0
LINE
  5
174
330
1F
100
AcDbEntity
  8
LAY-10
  6
CONTINUOUS
 62
     7
100
AcDbLine
 10
824.9999999999956
 20
349.9999999999865
 30
0.0
 11
824.9999999999956
 21
228.999999999986
 31
0.0
  0
LINE
  5
175
330
1F
100
AcDbEntity
  8
LAY-10
  6
CONTINUOUS
 62
     7
100
AcDbLine
 10
129.4999999999961
 20
349.9999999999865
 30
0.0
 11
129.4999999999961
 21
228.999999999986
 31
0.0
  0
LINE
  5
176
330
1F
100
AcDbEntity
  8
LAY-10
  6
CONTINUOUS
 62
     7
100
AcDbLine
 10
124.9999999999961
 20
349.9999999999865
 30
0.0
 11
124.9999999999961
 21
228.999999999986
 31
0.0
  0
LINE
  5
177
330
1F
100
AcDbEntity
  8
LAY-10
  6
CONTINUOUS
 62
     7
100
AcDbLine
 10
1075.0
 20
943.5000000000367
 30
0.0
 11
1154.000000000014
 21
943.5000000000367
 31
0.0
  0
LINE
  5
178
330
1F
100
AcDbEntity
  8
LAY-10
  6
CONTINUOUS
 62
     7
100
AcDbLine
 10
1075.0
 20
856.5000000000422
 30
0.0
 11
1154.000000000014
 21
856.5000000000422
 31
0.0
  0
LINE
  5
179
330
1F
100
AcDbEntity
  8
LAY-10
  6
CONTINUOUS
 62
     7
100
AcDbLine
 10
1075.0
 20
939.0000000000013
 30
0.0
 11
1154.0
 21
939.0000000000013
 31
0.0
  0
LINE
  5
17A
330
1F
100
AcDbEntity
  8
LAY-10
  6
CONTINUOUS
 62
     7
100
AcDbLine
 10
1075.0
 20
861.0000000000776
 30
0.0
 11
1154.0
 21
861.0000000000776
 31
0.0
  0
LINE
  5
17B
330
1F
100
AcDbEntity
  8
LAY-10
  6
CONTINUOUS
 62
     7
100
AcDbLine
 10
1154.000000000014
 20
925.0000000000185
 30
0.0
 11
1158.500000000014
 21
925.0000000000185
 31
0.0
  0
LINE
  5
17C
330
1F
100
AcDbEntity
  8
LAY-10
  6
CONTINUOUS
 62
     7
100
AcDbLine
 10
1154.000000000014
 20
875.0000000000185
 30
0.0
 11
1158.500000000014
 21
875.0000000000185
 31
0.0
  0
ARC
  5
17D
330
1F
100
AcDbEntity
  8
LAY-10
  6
CONTINUOUS
 62
     7
100
AcDbCircle
 10
1149.500000000014
 20
1234.500000000077
 30
0.0
 40
9.0
100
AcDbArc
 50
0.0
 51
90.00000000000001
  0
ARC
  5
17E
330
1F
100
AcDbEntity
  8
LAY-10
  6
CONTINUOUS
 62
     7
100
AcDbCircle
 10
1149.500000000014
 20
1234.500000000077
 30
0.0
 40
4.5
100
AcDbArc
 50
0.0
 51
90.00000000000001
  0
LINE
  5
17F
330
1F
100
AcDbEntity
  8
LAY-10
  6
CONTINUOUS
 62
     7
100
AcDbLine
 10
1149.5
 20
1239.000000000078
 30
0.0
 11
1075.0
 21
1239.000000000078
 31
0.0
  0
LINE
  5
180
330
1F
100
AcDbEntity
  8
LAY-10
  6
CONTINUOUS
 62
     7
100
AcDbLine
 10
1075.0
 20
1243.500000000077
 30
0.0
 11
1149.5
 21
1243.500000000077
 31
0.0
  0
LINE
  5
181
330
1F
100
AcDbEntity
  8
LAY-10
  6
CONTINUOUS
 62
     7
100
AcDbLine
 10
1075.0
 20
556.5000000000008
 30
0.0
 11
1149.500000000014
 21
556.5000000000008
 31
0.0
  0
ARC
  5
182
330
1F
100
AcDbEntity
  8
LAY-10
  6
CONTINUOUS
 62
     7
100
AcDbCircle
 10
1149.500000000014
 20
565.5000000000003
 30
0.0
 40
9.0
100
AcDbArc
 50
270.0
 51
0.0
  0
LINE
  5
183
330
1F
100
AcDbEntity
  8
LAY-10
  6
CONTINUOUS
 62
     7
100
AcDbLine
 10
1075.0
 20
561.0000000000008
 30
0.0
 11
1149.500000000014
 21
561.0000000000008
 31
0.0
  0
ARC
  5
184
330
1F
100
AcDbEntity
  8
LAY-10
  6
CONTINUOUS
 62
     7
100
AcDbCircle
 10
1149.500000000014
 20
565.5000000000003
 30
0.0
 40
4.5
100
AcDbArc
 50
270.0
 51
0.0
  0
LINE
  5
185
330
1F
100
AcDbEntity
  8
LAY-10
  6
CONTINUOUS
 62
     7
100
AcDbLine
 10
1154.000000000014
 20
565.5000000000003
 30
0.0
 11
1154.000000000014
 21
1234.500000000101
 31
0.0
  0
LINE
  5
186
330
1F
100
AcDbEntity
  8
LAY-10
  6
CONTINUOUS
 62
     7
100
AcDbLine
 10
1158.500000000014
 20
565.5000000000003
 30
0.0
 11
1158.500000000014
 21
1234.500000000101
 31
0.0
  0
LINE
  5
187
330
1F
100
AcDbEntity
  8
LAY-10
  6
CONTINUOUS
 62
     7
100
AcDbLine
 10
1075.000000000004
 20
1249.999999999991
 30
0.0
 11
1196.000000000004
 21
1249.999999999991
 31
0.0
  0
LINE
  5
188
330
1F
100
AcDbEntity
  8
LAY-10
  6
CONTINUOUS
 62
     7
100
AcDbLine
 10
1196.000000000004
 20
1245.499999999991
 30
0.0
 11
1075.000000000004
 21
1245.499999999991
 31
0.0
  0
LINE
  5
189
330
1F
100
AcDbEntity
  8
LAY-10
  6
CONTINUOUS
 62
     7
100
AcDbLine
 10
1075.000000000002
 20
549.9999999999917
 30
0.0
 11
1196.000000000003
 21
549.9999999999917
 31
0.0
  0
LINE
  5
18A
330
1F
100
AcDbEntity
  8
LAY-10
  6
CONTINUOUS
 62
     7
100
AcDbLine
 10
1075.000000000002
 20
554.4999999999917
 30
0.0
 11
1196.000000000003
 21
554.4999999999917
 31
0.0
  0
POLYLINE
  5
18B
330
1F
100
AcDbEntity
  8
LAY-10
  6
CONTINUOUS
 62
     7
100
AcDb2dPolyline
 66
     1
 10
0.0
 20
0.0
 30
0.0
 70
   128
  0
VERTEX
  5
18C
330
18B
100
AcDbEntity
  8
LAY-10
  6
CONTINUOUS
 62
     7
100
AcDbVertex
100
AcDb2dVertex
 10
1158.5
 20
565.5000000000335
 30
0.0
  0
VERTEX
  5
18D
330
18B
100
AcDbEntity
  8
LAY-10
  6
CONTINUOUS
 62
     7
100
AcDbVertex
100
AcDb2dVertex
 10
1198.5
 20
565.5000000000335
 30
0.0
  0
SEQEND
  5
18E
330
18B
100
AcDbEntity
  8
LAY-10
  6
CONTINUOUS
 62
     7
  0
POLYLINE
  5
18F
330
1F
100
AcDbEntity
  8
LAY-10
  6
CONTINUOUS
 62
     7
100
AcDb2dPolyline
 66
     1
 10
0.0
 20
0.0
 30
0.0
 70
   128
  0
VERTEX
  5
190
330
18F
100
AcDbEntity
  8
LAY-10
  6
CONTINUOUS
 62
     7
100
AcDbVertex
100
AcDb2dVertex
 10
1198.5
 20
1234.500000000133
 30
0.0
  0
VERTEX
  5
191
330
18F
100
AcDbEntity
  8
LAY-10
  6
CONTINUOUS
 62
     7
100
AcDbVertex
100
AcDb2dVertex
 10
1158.5
 20
1234.500000000133
 30
0.0
  0
SEQEND
  5
192
330
18F
100
AcDbEntity
  8
LAY-10
  6
CONTINUOUS
 62
     7
  0
ARC
  5
193
330
1F
100
AcDbEntity
  8
LAY-10
  6
CONTINUOUS
 62
     7
100
AcDbCircle
 10
144.200000000027
 20
262.3000000000952
 30
0.0
 40
1.0
100
AcDbArc
 50
90.00000000000001
 51
180.0
  0
LINE
  5
194
330
1F
100
AcDbEntity
  8
LAY-10
  6
CONTINUOUS
 62
     7
100
AcDbLine
 10
175.8000000000269
 20
263.3000000000952
 30
0.0
 11
144.200000000027
 21
263.3000000000952
 31
0.0
  0
ARC
  5
195
330
1F
100
AcDbEntity
  8
LAY-10
  6
CONTINUOUS
 62
     7
100
AcDbCircle
 10
175.8000000000269
 20
262.3000000000952
 30
0.0
 40
1.0
100
AcDbArc
 50
0.0
 51
90.00000000000001
  0
LINE
  5
196
330
1F
100
AcDbEntity
  8
LAY-10
  6
CONTINUOUS
 62
     7
100
AcDbLine
 10
176.8000000000269
 20
262.300000000095
 30
0.0
 11
176.8000000000269
 21
230.7000000000951
 31
0.0
  0
ARC
  5
197
330
1F
100
AcDbEntity
  8
LAY-10
  6
CONTINUOUS
 62
     7
100
AcDbCircle
 10
175.8000000000269
 20
230.7000000000953
 30
0.0
 40
1.0
100
AcDbArc
 50
270.0
 51
0.0
  0
LINE
  5
198
330
1F
100
AcDbEntity
  8
LAY-10
  6
CONTINUOUS
 62
     7
100
AcDbLine
 10
143.200000000027
 20
262.300000000095
 30
0.0
 11
143.200000000027
 21
230.7000000000951
 31
0.0
  0
LINE
  5
199
330
1F
100
AcDbEntity
  8
LAY-10
  6
CONTINUOUS
 62
     7
100
AcDbLine
 10
175.8000000000269
 20
229.7000000000953
 30
0.0
 11
144.200000000027
 21
229.7000000000953
 31
0.0
  0
ARC
  5
19A
330
1F
100
AcDbEntity
  8
LAY-10
  6
CONTINUOUS
 62
     7
100
AcDbCircle
 10
144.200000000027
 20
230.7000000000953
 30
0.0
 40
1.0
100
AcDbArc
 50
180.0
 51
270.0
  0
ARC
  5
19B
330
1F
100
AcDbEntity
  8
LAY-10
  6
CONTINUOUS
 62
     7
100
AcDbCircle
 10
144.0000000000269
 20
262.500000000095
 30
0.0
 40
4.0
100
AcDbArc
 50
90.00000000000001
 51
180.0
  0
ARC
  5
19C
330
1F
100
AcDbEntity
  8
LAY-10
  6
CONTINUOUS
 62
     7
100
AcDbCircle
 10
176.0000000000269
 20
262.500000000095
 30
0.0
 40
4.0
100
AcDbArc
 50
0.0
 51
90.00000000000001
  0
LINE
  5
19D
330
1F
100
AcDbEntity
  8
LAY-10
  6
CONTINUOUS
 62
     7
100
AcDbLine
 10
140.0000000000269
 20
262.500000000095
 30
0.0
 11
140.0000000000269
 21
230.500000000095
 31
0.0
  0
ARC
  5
19E
330
1F
100
AcDbEntity
  8
LAY-10
  6
CONTINUOUS
 62
     7
100
AcDbCircle
 10
144.0000000000269
 20
230.500000000095
 30
0.0
 40
4.0
100
AcDbArc
 50
180.0
 51
270.0
  0
LINE
  5
19F
330
1F
100
AcDbEntity
  8
LAY-10
  6
CONTINUOUS
 62
     7
100
AcDbLine
 10
180.0000000000269
 20
262.500000000095
 30
0.0
 11
180.0000000000269
 21
230.500000000095
 31
0.0
  0
ARC
  5
1A0
330
1F
100
AcDbEntity
  8
LAY-10
  6
CONTINUOUS
 62
     7
100
AcDbCircle
 10
176.0000000000269
 20
230.500000000095
 30
0.0
 40
4.0
100
AcDbArc
 50
270.0
 51
0.0
  0
LINE
  5
1A1
330
1F
100
AcDbEntity
  8
LAY-10
  6
CONTINUOUS
 62
     7
100
AcDbLine
 10
175.00000000003
 20
224.49999999999
 30
0.0
 11
175.00000000003
 21
226.4999999999997
 31
0.0
  0
LINE
  5
1A2
330
1F
100
AcDbEntity
  8
LAY-10
  6
CONTINUOUS
 62
     7
100
AcDbLine
 10
150.0000000000319
 20
226.4999999999997
 30
0.0
 11
150.0000000000319
 21
224.4999999999861
 31
0.0
  0
ARC
  5
1A3
330
1F
100
AcDbEntity
  8
LAY-10
  6
CONTINUOUS
 62
     7
100
AcDbCircle
 10
805.79999999998
 20
262.3000000000952
 30
0.0
 40
1.0
100
AcDbArc
 50
0.0
 51
90.00000000000001
  0
LINE
  5
1A4
330
1F
100
AcDbEntity
  8
LAY-10
  6
CONTINUOUS
 62
     7
100
AcDbLine
 10
774.19999999998
 20
263.3000000000952
 30
0.0
 11
805.79999999998
 21
263.3000000000952
 31
0.0
  0
ARC
  5
1A5
330
1F
100
AcDbEntity
  8
LAY-10
  6
CONTINUOUS
 62
     7
100
AcDbCircle
 10
774.19999999998
 20
262.3000000000952
 30
0.0
 40
1.0
100
AcDbArc
 50
90.00000000000001
 51
180.0
  0
LINE
  5
1A6
330
1F
100
AcDbEntity
  8
LAY-10
  6
CONTINUOUS
 62
     7
100
AcDbLine
 10
773.19999999998
 20
262.300000000095
 30
0.0
 11
773.19999999998
 21
230.7000000000951
 31
0.0
  0
ARC
  5
1A7
330
1F
100
AcDbEntity
  8
LAY-10
  6
CONTINUOUS
 62
     7
100
AcDbCircle
 10
774.19999999998
 20
230.7000000000953
 30
0.0
 40
1.0
100
AcDbArc
 50
180.0
 51
270.0
  0
LINE
  5
1A8
330
1F
100
AcDbEntity
  8
LAY-10
  6
CONTINUOUS
 62
     7
100
AcDbLine
 10
806.79999999998
 20
262.300000000095
 30
0.0
 11
806.79999999998
 21
230.7000000000951
 31
0.0
  0
LINE
  5
1A9
330
1F
100
AcDbEntity
  8
LAY-10
  6
CONTINUOUS
 62
     7
100
AcDbLine
 10
774.19999999998
 20
229.7000000000953
 30
0.0
 11
805.79999999998
 21
229.7000000000953
 31
0.0
  0
ARC
  5
1AA
330
1F
100
AcDbEntity
  8
LAY-10
  6
CONTINUOUS
 62
     7
100
AcDbCircle
 10
805.79999999998
 20
230.7000000000953
 30
0.0
 40
1.0
100
AcDbArc
 50
270.0
 51
0.0
  0
ARC
  5
1AB
330
1F
100
AcDbEntity
  8
LAY-10
  6
CONTINUOUS
 62
     7
100
AcDbCircle
 10
805.99999999998
 20
262.500000000095
 30
0.0
 40
4.0
100
AcDbArc
 50
0.0
 51
90.00000000000001
  0
ARC
  5
1AC
330
1F
100
AcDbEntity
  8
LAY-10
  6
CONTINUOUS
 62
     7
100
AcDbCircle
 10
773.99999999998
 20
262.500000000095
 30
0.0
 40
4.0
100
AcDbArc
 50
90.00000000000001
 51
180.0
  0
LINE
  5
1AD
330
1F
100
AcDbEntity
  8
LAY-10
  6
CONTINUOUS
 62
     7
100
AcDbLine
 10
809.9999999999801
 20
262.500000000095
 30
0.0
 11
809.9999999999801
 21
230.500000000095
 31
0.0
  0
ARC
  5
1AE
330
1F
100
AcDbEntity
  8
LAY-10
  6
CONTINUOUS
 62
     7
100
AcDbCircle
 10
805.99999999998
 20
230.500000000095
 30
0.0
 40
4.0
100
AcDbArc
 50
270.0
 51
0.0
  0
LINE
  5
1AF
330
1F
100
AcDbEntity
  8
LAY-10
  6
CONTINUOUS
 62
     7
100
AcDbLine
 10
769.9999999999801
 20
262.500000000095
 30
0.0
 11
769.9999999999801
 21
230.500000000095
 31
0.0
  0
ARC
  5
1B0
330
1F
100
AcDbEntity
  8
LAY-10
  6
CONTINUOUS
 62
     7
100
AcDbCircle
 10
773.99999999998
 20
230.500000000095
 30
0.0
 40
4.0
100
AcDbArc
 50
180.0
 51
270.0
  0
LINE
  5
1B1
330
1F
100
AcDbEntity
  8
LAY-10
  6
CONTINUOUS
 62
     7
100
AcDbLine
 10
144.0000000000269
 20
226.4999999999997
 30
0.0
 11
805.99999999998
 21
226.4999999999997
 31
0.0
  0
LINE
  5
1B2
330
1F
100
AcDbEntity
  8
LAY-10
  6
CONTINUOUS
 62
     7
100
AcDbLine
 10
775.0000000000301
 20
224.49999999999
 30
0.0
 11
775.0000000000301
 21
226.4999999999997
 31
0.0
  0
LINE
  5
1B3
330
1F
100
AcDbEntity
  8
LAY-10
  6
CONTINUOUS
 62
     7
100
AcDbLine
 10
800.0000000000347
 20
226.4999999999997
 30
0.0
 11
800.0000000000347
 21
224.4999999999861
 31
0.0
  0
LINE
  5
1B4
330
1F
100
AcDbEntity
  8
LAY-10
  6
CONTINUOUS
 62
     7
100
AcDbLine
 10
1200.500000000002
 20
575.0000000000201
 30
0.0
 11
1198.5
 21
575.0000000000201
 31
0.0
  0
LINE
  5
1B5
330
1F
100
AcDbEntity
  8
LAY-10
  6
CONTINUOUS
 62
     7
100
AcDbLine
 10
1200.5
 20
600.00000000003
 30
0.0
 11
1198.5
 21
600.00000000003
 31
0.0
  0
LINE
  5
1B6
330
1F
100
AcDbEntity
  8
LAY-10
  6
CONTINUOUS
 62
     7
100
AcDbLine
 10
1200.5
 20
1200.0
 30
0.0
 11
1198.5
 21
1200.0
 31
0.0
  0
LINE
  5
1B7
330
1F
100
AcDbEntity
  8
LAY-10
  6
CONTINUOUS
 62
     7
100
AcDbLine
 10
1198.5
 20
1225.000000000052
 30
0.0
 11
1200.500000000004
 21
1225.000000000052
 31
0.0
  0
ARC
  5
1B8
330
1F
100
AcDbEntity
  8
LAY-10
  6
CONTINUOUS
 62
     7
100
AcDbCircle
 10
595.7999999999998
 20
262.2999999999653
 30
0.0
 40
1.0
100
AcDbArc
 50
0.0
 51
90.00000000000001
  0
LINE
  5
1B9
330
1F
100
AcDbEntity
  8
LAY-10
  6
CONTINUOUS
 62
     7
100
AcDbLine
 10
564.1999999999999
 20
263.2999999999653
 30
0.0
 11
595.7999999999998
 21
263.2999999999653
 31
0.0
  0
ARC
  5
1BA
330
1F
100
AcDbEntity
  8
LAY-10
  6
CONTINUOUS
 62
     7
100
AcDbCircle
 10
564.1999999999999
 20
262.2999999999653
 30
0.0
 40
1.0
100
AcDbArc
 50
90.00000000000001
 51
180.0
  0
LINE
  5
1BB
330
1F
100
AcDbEntity
  8
LAY-10
  6
CONTINUOUS
 62
     7
100
AcDbLine
 10
563.1999999999999
 20
262.2999999999651
 30
0.0
 11
563.1999999999999
 21
230.6999999999651
 31
0.0
  0
ARC
  5
1BC
330
1F
100
AcDbEntity
  8
LAY-10
  6
CONTINUOUS
 62
     7
100
AcDbCircle
 10
564.1999999999999
 20
230.6999999999654
 30
0.0
 40
1.0
100
AcDbArc
 50
180.0
 51
270.0
  0
LINE
  5
1BD
330
1F
100
AcDbEntity
  8
LAY-10
  6
CONTINUOUS
 62
     7
100
AcDbLine
 10
596.7999999999998
 20
262.2999999999651
 30
0.0
 11
596.7999999999998
 21
230.6999999999651
 31
0.0
  0
LINE
  5
1BE
330
1F
100
AcDbEntity
  8
LAY-10
  6
CONTINUOUS
 62
     7
100
AcDbLine
 10
564.1999999999999
 20
229.6999999999654
 30
0.0
 11
595.7999999999998
 21
229.6999999999654
 31
0.0
  0
ARC
  5
1BF
330
1F
100
AcDbEntity
  8
LAY-10
  6
CONTINUOUS
 62
     7
100
AcDbCircle
 10
595.7999999999998
 20
230.6999999999654
 30
0.0
 40
1.0
100
AcDbArc
 50
270.0
 51
0.0
  0
ARC
  5
1C0
330
1F
100
AcDbEntity
  8
LAY-10
  6
CONTINUOUS
 62
     7
100
AcDbCircle
 10
595.9999999999999
 20
262.4999999999651
 30
0.0
 40
4.0
100
AcDbArc
 50
0.0
 51
90.00000000000001
  0
ARC
  5
1C1
330
1F
100
AcDbEntity
  8
LAY-10
  6
CONTINUOUS
 62
     7
100
AcDbCircle
 10
563.9999999999999
 20
262.4999999999651
 30
0.0
 40
4.0
100
AcDbArc
 50
90.00000000000001
 51
180.0
  0
LINE
  5
1C2
330
1F
100
AcDbEntity
  8
LAY-10
  6
CONTINUOUS
 62
     7
100
AcDbLine
 10
599.9999999999999
 20
262.4999999999651
 30
0.0
 11
599.9999999999999
 21
230.4999999999651
 31
0.0
  0
ARC
  5
1C3
330
1F
100
AcDbEntity
  8
LAY-10
  6
CONTINUOUS
 62
     7
100
AcDbCircle
 10
595.9999999999999
 20
230.4999999999651
 30
0.0
 40
4.0
100
AcDbArc
 50
270.0
 51
0.0
  0
LINE
  5
1C4
330
1F
100
AcDbEntity
  8
LAY-10
  6
CONTINUOUS
 62
     7
100
AcDbLine
 10
559.9999999999999
 20
262.4999999999651
 30
0.0
 11
559.9999999999999
 21
230.4999999999651
 31
0.0
  0
ARC
  5
1C5
330
1F
100
AcDbEntity
  8
LAY-10
  6
CONTINUOUS
 62
     7
100
AcDbCircle
 10
563.9999999999999
 20
230.4999999999651
 30
0.0
 40
4.0
100
AcDbArc
 50
180.0
 51
270.0
  0
ARC
  5
1C6
330
1F
100
AcDbEntity
  8
LAY-10
  6
CONTINUOUS
 62
     7
100
AcDbCircle
 10
385.7999999999998
 20
262.2999999999653
 30
0.0
 40
1.0
100
AcDbArc
 50
0.0
 51
90.00000000000001
  0
LINE
  5
1C7
330
1F
100
AcDbEntity
  8
LAY-10
  6
CONTINUOUS
 62
     7
100
AcDbLine
 10
354.1999999999999
 20
263.2999999999653
 30
0.0
 11
385.7999999999998
 21
263.2999999999653
 31
0.0
  0
ARC
  5
1C8
330
1F
100
AcDbEntity
  8
LAY-10
  6
CONTINUOUS
 62
     7
100
AcDbCircle
 10
354.1999999999999
 20
262.2999999999653
 30
0.0
 40
1.0
100
AcDbArc
 50
90.00000000000001
 51
180.0
  0
LINE
  5
1C9
330
1F
100
AcDbEntity
  8
LAY-10
  6
CONTINUOUS
 62
     7
100
AcDbLine
 10
353.1999999999999
 20
262.2999999999651
 30
0.0
 11
353.1999999999999
 21
230.6999999999651
 31
0.0
  0
ARC
  5
1CA
330
1F
100
AcDbEntity
  8
LAY-10
  6
CONTINUOUS
 62
     7
100
AcDbCircle
 10
354.1999999999999
 20
230.6999999999654
 30
0.0
 40
1.0
100
AcDbArc
 50
180.0
 51
270.0
  0
LINE
  5
1CB
330
1F
100
AcDbEntity
  8
LAY-10
  6
CONTINUOUS
 62
     7
100
AcDbLine
 10
386.7999999999998
 20
262.2999999999651
 30
0.0
 11
386.7999999999998
 21
230.6999999999651
 31
0.0
  0
LINE
  5
1CC
330
1F
100
AcDbEntity
  8
LAY-10
  6
CONTINUOUS
 62
     7
100
AcDbLine
 10
354.1999999999999
 20
229.6999999999654
 30
0.0
 11
385.7999999999998
 21
229.6999999999654
 31
0.0
  0
ARC
  5
1CD
330
1F
100
AcDbEntity
  8
LAY-10
  6
CONTINUOUS
 62
     7
100
AcDbCircle
 10
385.7999999999998
 20
230.6999999999654
 30
0.0
 40
1.0
100
AcDbArc
 50
270.0
 51
0.0
  0
ARC
  5
1CE
330
1F
100
AcDbEntity
  8
LAY-10
  6
CONTINUOUS
 62
     7
100
AcDbCircle
 10
385.9999999999999
 20
262.4999999999651
 30
0.0
 40
4.0
100
AcDbArc
 50
0.0
 51
90.00000000000001
  0
ARC
  5
1CF
330
1F
100
AcDbEntity
  8
LAY-10
  6
CONTINUOUS
 62
     7
100
AcDbCircle
 10
353.9999999999999
 20
262.4999999999651
 30
0.0
 40
4.0
100
AcDbArc
 50
90.00000000000001
 51
180.0
  0
LINE
  5
1D0
330
1F
100
AcDbEntity
  8
LAY-10
  6
CONTINUOUS
 62
     7
100
AcDbLine
 10
389.9999999999999
 20
262.4999999999651
 30
0.0
 11
389.9999999999999
 21
230.4999999999651
 31
0.0
  0
ARC
  5
1D1
330
1F
100
AcDbEntity
  8
LAY-10
  6
CONTINUOUS
 62
     7
100
AcDbCircle
 10
385.9999999999999
 20
230.4999999999651
 30
0.0
 40
4.0
100
AcDbArc
 50
270.0
 51
0.0
  0
LINE
  5
1D2
330
1F
100
AcDbEntity
  8
LAY-10
  6
CONTINUOUS
 62
     7
100
AcDbLine
 10
349.9999999999999
 20
262.4999999999651
 30
0.0
 11
349.9999999999999
 21
230.4999999999651
 31
0.0
  0
ARC
  5
1D3
330
1F
100
AcDbEntity
  8
LAY-10
  6
CONTINUOUS
 62
     7
100
AcDbCircle
 10
353.9999999999999
 20
230.4999999999651
 30
0.0
 40
4.0
100
AcDbArc
 50
180.0
 51
270.0
  0
LINE
  5
1D4
330
1F
100
AcDbEntity
  8
LAY-10
  6
CONTINUOUS
 62
     7
100
AcDbLine
 10
229.9999999999111
 20
1103.750000000078
 30
0.0
 11
269.9999999999111
 21
1103.750000000077
 31
0.0
  0
LINE
  5
1D5
330
1F
100
AcDbEntity
  8
LAY-10
  6
CONTINUOUS
 62
     7
100
AcDbLine
 10
229.9999999999111
 20
1111.250000000078
 30
0.0
 11
269.9999999999111
 21
1111.250000000077
 31
0.0
  0
LINE
  5
1D6
330
1F
100
AcDbEntity
  8
LAY-10
  6
CONTINUOUS
 62
     7
100
AcDbLine
 10
229.9999999999111
 20
1071.250000000078
 30
0.0
 11
269.9999999999111
 21
1071.250000000077
 31
0.0
  0
LINE
  5
1D7
330
1F
100
AcDbEntity
  8
LAY-10
  6
CONTINUOUS
 62
     7
100
AcDbLine
 10
229.9999999999111
 20
1078.750000000078
 30
0.0
 11
269.9999999999111
 21
1078.750000000077
 31
0.0
  0
LINE
  5
1D8
330
1F
100
AcDbEntity
  8
LAY-10
  6
CONTINUOUS
 62
     7
100
AcDbLine
 10
229.9999999999111
 20
1111.250000000078
 30
0.0
 11
229.9999999999111
 21
1071.250000000078
 31
0.0
  0
LINE
  5
1D9
330
1F
100
AcDbEntity
  8
LAY-10
  6
CONTINUOUS
 62
     7
100
AcDbLine
 10
269.9999999999111
 20
1111.250000000077
 30
0.0
 11
269.9999999999111
 21
1071.250000000077
 31
0.0
  0
LINE
  5
1DA
330
1F
100
AcDbEntity
  8
LAY-10
  6
CONTINUOUS
 62
     7
100
AcDbLine
 10
720.0000000000935
 20
1103.750000000079
 30
0.0
 11
680.0000000000935
 21
1103.750000000078
 31
0.0
  0
LINE
  5
1DB
330
1F
100
AcDbEntity
  8
LAY-10
  6
CONTINUOUS
 62
     7
100
AcDbLine
 10
720.0000000000935
 20
1111.250000000079
 30
0.0
 11
680.0000000000935
 21
1111.250000000078
 31
0.0
  0
LINE
  5
1DC
330
1F
100
AcDbEntity
  8
LAY-10
  6
CONTINUOUS
 62
     7
100
AcDbLine
 10
720.0000000000935
 20
1071.250000000079
 30
0.0
 11
680.0000000000935
 21
1071.250000000078
 31
0.0
  0
LINE
  5
1DD
330
1F
100
AcDbEntity
  8
LAY-10
  6
CONTINUOUS
 62
     7
100
AcDbLine
 10
720.0000000000935
 20
1078.750000000079
 30
0.0
 11
680.0000000000935
 21
1078.750000000078
 31
0.0
  0
LINE
  5
1DE
330
1F
100
AcDbEntity
  8
LAY-10
  6
CONTINUOUS
 62
     7
100
AcDbLine
 10
720.0000000000935
 20
1111.250000000079
 30
0.0
 11
720.0000000000935
 21
1071.250000000079
 31
0.0
  0
LINE
  5
1DF
330
1F
100
AcDbEntity
  8
LAY-10
  6
CONTINUOUS
 62
     7
100
AcDbLine
 10
680.0000000000935
 20
1111.250000000078
 30
0.0
 11
680.0000000000935
 21
1071.250000000078
 31
0.0
  0
LINE
  5
1E0
330
1F
100
AcDbEntity
  8
LAY-10
  6
CONTINUOUS
 62
     7
100
AcDbLine
 10
229.9999999999111
 20
696.249999999953
 30
0.0
 11
269.9999999999111
 21
696.249999999954
 31
0.0
  0
LINE
  5
1E1
330
1F
100
AcDbEntity
  8
LAY-10
  6
CONTINUOUS
 62
     7
100
AcDbLine
 10
229.9999999999111
 20
688.749999999953
 30
0.0
 11
269.9999999999111
 21
688.749999999954
 31
0.0
  0
LINE
  5
1E2
330
1F
100
AcDbEntity
  8
LAY-10
  6
CONTINUOUS
 62
     7
100
AcDbLine
 10
229.9999999999111
 20
728.749999999953
 30
0.0
 11
269.9999999999111
 21
728.749999999954
 31
0.0
  0
LINE
  5
1E3
330
1F
100
AcDbEntity
  8
LAY-10
  6
CONTINUOUS
 62
     7
100
AcDbLine
 10
229.9999999999111
 20
721.249999999953
 30
0.0
 11
269.9999999999111
 21
721.249999999954
 31
0.0
  0
LINE
  5
1E4
330
1F
100
AcDbEntity
  8
LAY-10
  6
CONTINUOUS
 62
     7
100
AcDbLine
 10
229.9999999999111
 20
688.749999999953
 30
0.0
 11
229.9999999999111
 21
728.749999999953
 31
0.0
  0
LINE
  5
1E5
330
1F
100
AcDbEntity
  8
LAY-10
  6
CONTINUOUS
 62
     7
100
AcDbLine
 10
269.9999999999111
 20
688.749999999954
 30
0.0
 11
269.9999999999111
 21
728.749999999954
 31
0.0
  0
LINE
  5
1E6
330
1F
100
AcDbEntity
  8
LAY-10
  6
CONTINUOUS
 62
     7
100
AcDbLine
 10
720.0000000000935
 20
696.249999999952
 30
0.0
 11
680.0000000000935
 21
696.249999999953
 31
0.0
  0
LINE
  5
1E7
330
1F
100
AcDbEntity
  8
LAY-10
  6
CONTINUOUS
 62
     7
100
AcDbLine
 10
720.0000000000935
 20
688.749999999952
 30
0.0
 11
680.0000000000935
 21
688.749999999953
 31
0.0
  0
LINE
  5
1E8
330
1F
100
AcDbEntity
  8
LAY-10
  6
CONTINUOUS
 62
     7
100
AcDbLine
 10
720.0000000000935
 20
728.749999999952
 30
0.0
 11
680.0000000000935
 21
728.749999999953
 31
0.0
  0
LINE
  5
1E9
330
1F
100
AcDbEntity
  8
LAY-10
  6
CONTINUOUS
 62
     7
100
AcDbLine
 10
720.0000000000935
 20
721.249999999952
 30
0.0
 11
680.0000000000935
 21
721.249999999953
 31
0.0
  0
LINE
  5
1EA
330
1F
100
AcDbEntity
  8
LAY-10
  6
CONTINUOUS
 62
     7
100
AcDbLine
 10
720.0000000000935
 20
688.749999999952
 30
0.0
 11
720.0000000000935
 21
728.749999999952
 31
0.0
  0
LINE
  5
1EB
330
1F
100
AcDbEntity
  8
LAY-10
  6
CONTINUOUS
 62
     7
100
AcDbLine
 10
680.0000000000935
 20
688.749999999953
 30
0.0
 11
680.0000000000935
 21
728.749999999953
 31
0.0
  0
LINE
  5
1EC
330
1F
100
AcDbEntity
  8
LAY-10
  6
CONTINUOUS
 62
     7
100
AcDbLine
 10
1144.000000000007
 20
688.7499999999562
 30
0.0
 11
1146.000000000007
 21
688.7499999999562
 31
0.0
  0
LINE
  5
1ED
330
1F
100
AcDbEntity
  8
LAY-10
  6
CONTINUOUS
 62
     7
100
AcDbLine
 10
1144.000000000007
 20
728.7499999999653
 30
0.0
 11
1146.000000000007
 21
728.7499999999653
 31
0.0
  0
ARC
  5
1EE
330
1F
100
AcDbEntity
  8
LAY-10
  6
CONTINUOUS
 62
     7
100
AcDbCircle
 10
1152.0
 20
696.2499999999285
 30
0.0
 40
2.0
100
AcDbArc
 50
270.0
 51
0.0
  0
ARC
  5
1EF
330
1F
100
AcDbEntity
  8
LAY-10
  6
CONTINUOUS
 62
     7
100
AcDbCircle
 10
1152.0
 20
721.2499999999617
 30
0.0
 40
2.0
100
AcDbArc
 50
0.0
 51
90.00000000000001
  0
LINE
  5
1F0
330
1F
100
AcDbEntity
  8
LAY-10
  6
CONTINUOUS
 62
     7
100
AcDbLine
 10
1152.0
 20
696.2499999999429
 30
0.0
 11
1152.0
 21
721.2499999999435
 31
0.0
  0
LINE
  5
1F1
330
1F
100
AcDbEntity
  8
LAY-10
  6
CONTINUOUS
 62
     7
100
AcDbLine
 10
1146.0
 20
694.2499999999285
 30
0.0
 11
1152.0
 21
694.2499999999285
 31
0.0
  0
LINE
  5
1F2
330
1F
100
AcDbEntity
  8
LAY-10
  6
CONTINUOUS
 62
     7
100
AcDbLine
 10
1146.0
 20
696.2499999999429
 30
0.0
 11
1152.0
 21
696.2499999999429
 31
0.0
  0
ARC
  5
1F3
330
1F
100
AcDbEntity
  8
LAY-10
  6
CONTINUOUS
 62
     7
100
AcDbCircle
 10
1146.0
 20
694.249999999943
 30
0.0
 40
2.0
100
AcDbArc
 50
90.00000000000001
 51
180.0
  0
LINE
  5
1F4
330
1F
100
AcDbEntity
  8
LAY-10
  6
CONTINUOUS
 62
     7
100
AcDbLine
 10
1146.0
 20
723.2499999999612
 30
0.0
 11
1152.0
 21
723.2499999999612
 31
0.0
  0
LINE
  5
1F5
330
1F
100
AcDbEntity
  8
LAY-10
  6
CONTINUOUS
 62
     7
100
AcDbLine
 10
1146.0
 20
721.2499999999475
 30
0.0
 11
1152.0
 21
721.2499999999475
 31
0.0
  0
ARC
  5
1F6
330
1F
100
AcDbEntity
  8
LAY-10
  6
CONTINUOUS
 62
     7
100
AcDbCircle
 10
1146.0
 20
723.2499999999466
 30
0.0
 40
2.0
100
AcDbArc
 50
180.0
 51
270.0
  0
LINE
  5
1F7
330
1F
100
AcDbEntity
  8
LAY-10
  6
CONTINUOUS
 62
     7
100
AcDbLine
 10
1146.000000000007
 20
694.249999999968
 30
0.0
 11
1146.000000000007
 21
688.7499999999562
 31
0.0
  0
LINE
  5
1F8
330
1F
100
AcDbEntity
  8
LAY-10
  6
CONTINUOUS
 62
     7
100
AcDbLine
 10
1144.000000000007
 20
694.249999999968
 30
0.0
 11
1144.000000000007
 21
688.7499999999562
 31
0.0
  0
LINE
  5
1F9
330
1F
100
AcDbEntity
  8
LAY-10
  6
CONTINUOUS
 62
     7
100
AcDbLine
 10
1146.000000000007
 20
723.249999999968
 30
0.0
 11
1146.000000000007
 21
728.7499999999643
 31
0.0
  0
LINE
  5
1FA
330
1F
100
AcDbEntity
  8
LAY-10
  6
CONTINUOUS
 62
     7
100
AcDbLine
 10
1144.000000000007
 20
723.249999999968
 30
0.0
 11
1144.000000000007
 21
728.7499999999643
 31
0.0
  0
LINE
  5
1FB
330
1F
100
AcDbEntity
  8
LAY-10
  6
CONTINUOUS
 62
     7
100
AcDbLine
 10
1144.000000000007
 20
1111.250000000112
 30
0.0
 11
1146.000000000007
 21
1111.250000000112
 31
0.0
  0
LINE
  5
1FC
330
1F
100
AcDbEntity
  8
LAY-10
  6
CONTINUOUS
 62
     7
100
AcDbLine
 10
1144.000000000007
 20
1071.250000000103
 30
0.0
 11
1146.000000000007
 21
1071.250000000103
 31
0.0
  0
ARC
  5
1FD
330
1F
100
AcDbEntity
  8
LAY-10
  6
CONTINUOUS
 62
     7
100
AcDbCircle
 10
1152.0
 20
1103.75000000014
 30
0.0
 40
2.0
100
AcDbArc
 50
0.0000000000001719
 51
90.00000000000001
  0
ARC
  5
1FE
330
1F
100
AcDbEntity
  8
LAY-10
  6
CONTINUOUS
 62
     7
100
AcDbCircle
 10
1152.0
 20
1078.750000000106
 30
0.0
 40
2.0
100
AcDbArc
 50
270.0
 51
0.0000000000001719
  0
LINE
  5
1FF
330
1F
100
AcDbEntity
  8
LAY-10
  6
CONTINUOUS
 62
     7
100
AcDbLine
 10
1152.0
 20
1103.750000000125
 30
0.0
 11
1152.0
 21
1078.750000000125
 31
0.0
  0
LINE
  5
200
330
1F
100
AcDbEntity
  8
LAY-10
  6
CONTINUOUS
 62
     7
100
AcDbLine
 10
1146.0
 20
1105.75000000014
 30
0.0
 11
1152.0
 21
1105.75000000014
 31
0.0
  0
LINE
  5
201
330
1F
100
AcDbEntity
  8
LAY-10
  6
CONTINUOUS
 62
     7
100
AcDbLine
 10
1146.0
 20
1103.750000000125
 30
0.0
 11
1152.0
 21
1103.750000000125
 31
0.0
  0
ARC
  5
202
330
1F
100
AcDbEntity
  8
LAY-10
  6
CONTINUOUS
 62
     7
100
AcDbCircle
 10
1146.0
 20
1105.750000000125
 30
0.0
 40
2.0
100
AcDbArc
 50
180.0
 51
270.0
  0
LINE
  5
203
330
1F
100
AcDbEntity
  8
LAY-10
  6
CONTINUOUS
 62
     7
100
AcDbLine
 10
1146.0
 20
1076.750000000107
 30
0.0
 11
1152.0
 21
1076.750000000107
 31
0.0
  0
LINE
  5
204
330
1F
100
AcDbEntity
  8
LAY-10
  6
CONTINUOUS
 62
     7
100
AcDbLine
 10
1146.0
 20
1078.750000000121
 30
0.0
 11
1152.0
 21
1078.750000000121
 31
0.0
  0
ARC
  5
205
330
1F
100
AcDbEntity
  8
LAY-10
  6
CONTINUOUS
 62
     7
100
AcDbCircle
 10
1146.0
 20
1076.750000000121
 30
0.0
 40
2.0
100
AcDbArc
 50
90.00000000000001
 51
180.0
  0
LINE
  5
206
330
1F
100
AcDbEntity
  8
LAY-10
  6
CONTINUOUS
 62
     7
100
AcDbLine
 10
1146.000000000007
 20
1105.7500000001
 30
0.0
 11
1146.000000000007
 21
1111.250000000112
 31
0.0
  0
LINE
  5
207
330
1F
100
AcDbEntity
  8
LAY-10
  6
CONTINUOUS
 62
     7
100
AcDbLine
 10
1144.000000000007
 20
1105.7500000001
 30
0.0
 11
1144.000000000007
 21
1111.250000000112
 31
0.0
  0
LINE
  5
208
330
1F
100
AcDbEntity
  8
LAY-10
  6
CONTINUOUS
 62
     7
100
AcDbLine
 10
1146.000000000007
 20
1076.7500000001
 30
0.0
 11
1146.000000000007
 21
1071.250000000104
 31
0.0
  0
LINE
  5
209
330
1F
100
AcDbEntity
  8
LAY-10
  6
CONTINUOUS
 62
     7
100
AcDbLine
 10
1144.000000000007
 20
1076.7500000001
 30
0.0
 11
1144.000000000007
 21
1071.250000000104
 31
0.0
  0
LINE
  5
20A
330
1F
100
AcDbEntity
  8
LAY-10
  6
CONTINUOUS
 62
     7
100
AcDbLine
 10
1205.000000000002
 20
557.99999999995
 30
0.0
 11
1205.000000000004
 21
1242.0
 31
0.0
  0
LINE
  5
20B
330
1F
100
AcDbEntity
  8
LAY-10
  6
CONTINUOUS
 62
     7
100
AcDbLine
 10
1075.000000000002
 20
556.5000000000008
 30
0.0
 11
1075.000000000002
 21
861.0000000000776
 31
0.0
  0
LINE
  5
20C
330
1F
100
AcDbEntity
  8
LAY-10
  6
CONTINUOUS
 62
     7
100
AcDbLine
 10
1075.000000000002
 20
939.0000000000013
 30
0.0
 11
1075.000000000002
 21
1243.500000000077
 31
0.0
  0
LINE
  5
20D
330
1F
100
AcDbEntity
  8
LAY-10
  6
CONTINUOUS
 62
     7
100
AcDbLine
 10
1112.997114317023
 20
930.0
 30
0.0
 11
1154.000000000014
 21
930.0
 31
0.0
  0
LINE
  5
20E
330
1F
100
AcDbEntity
  8
LAY-10
  6
CONTINUOUS
 62
     7
100
AcDbLine
 10
1112.997114317023
 20
870.000000000058
 30
0.0
 11
1154.000000000014
 21
870.000000000058
 31
0.0
  0
LINE
  5
20F
330
1F
100
AcDbEntity
  8
LAY-10
  6
CONTINUOUS
 62
     7
100
AcDbLine
 10
136.000000000002
 20
1239.000000000004
 30
0.0
 11
136.0000000000014
 21
939.0000000000051
 31
0.0
  0
LINE
  5
210
330
1F
100
AcDbEntity
  8
LAY-10
  6
CONTINUOUS
 62
     7
100
AcDbLine
 10
136.0000000000014
 20
861.0000000000042
 30
0.0
 11
136.0000000000011
 21
561.0000000000035
 31
0.0
  0
LINE
  5
211
330
1F
100
AcDbEntity
  8
LAY-10
  6
CONTINUOUS
 62
     7
100
AcDbLine
 10
818.5000000000011
 20
861.0000000000036
 30
0.0
 11
131.5000000000013
 21
861.0000000000048
 31
0.0
  0
LINE
  5
212
330
1F
100
AcDbEntity
  8
LAY-10
  6
CONTINUOUS
 62
     7
100
AcDbLine
 10
818.5000000000014
 20
939.000000000004
 30
0.0
 11
131.5000000000014
 21
939.0000000000052
 31
0.0
  0
LINE
  5
213
330
1F
100
AcDbEntity
  8
LAY-10
  6
CONTINUOUS
 62
     7
100
AcDbLine
 10
814.0000000000013
 20
939.000000000004
 30
0.0
 11
814.0000000000022
 21
1239.000000000004
 31
0.0
  0
LINE
  5
214
330
1F
100
AcDbEntity
  8
LAY-10
  6
CONTINUOUS
 62
     7
100
AcDbLine
 10
814.0000000000003
 20
561.0000000000035
 30
0.0
 11
814.0000000000013
 21
861.0000000000036
 31
0.0
  0
LINE
  5
215
330
1F
100
AcDbEntity
  8
LAY-10
  6
CONTINUOUS
 62
     7
100
AcDbLine
 10
1101.997114317034
 20
902.9987081778695
 30
0.0
 11
1108.999999999997
 21
902.9987081778695
 31
0.0
  0
LINE
  5
216
330
1F
100
AcDbEntity
  8
LAY-10
  6
CONTINUOUS
 62
     7
100
AcDbLine
 10
1101.997114317034
 20
896.9987081778695
 30
0.0
 11
1108.999999999997
 21
896.9987081778695
 31
0.0
  0
LINE
  5
217
330
1F
100
AcDbEntity
  8
LAY-10
  6
CONTINUOUS
 62
     7
100
AcDbLine
 10
1101.997114317034
 20
889.9987081778695
 30
0.0
 11
1101.997114317034
 21
909.9987081780441
 31
0.0
  0
LINE
  5
218
330
1F
100
AcDbEntity
  8
LAY-10
  6
CONTINUOUS
 62
     7
100
AcDbLine
 10
1096.997114317034
 20
928.857067918018
 30
0.0
 11
1096.997114317034
 21
925.9987081778695
 31
0.0
  0
LINE
  5
219
330
1F
100
AcDbEntity
  8
LAY-10
  6
CONTINUOUS
 62
     7
100
AcDbLine
 10
1108.999999999997
 20
885.9987081778695
 30
0.0
 11
1097.169711451782
 21
885.9987081778695
 31
0.0
  0
LINE
  5
21A
330
1F
100
AcDbEntity
  8
LAY-10
  6
CONTINUOUS
 62
     7
100
AcDbLine
 10
1119.978616041775
 20
885.9987081778695
 30
0.0
 11
1112.99711431704
 21
885.9987081778695
 31
0.0
  0
LINE
  5
21B
330
1F
100
AcDbEntity
  8
LAY-10
  6
CONTINUOUS
 62
     7
100
AcDbLine
 10
1112.99711431704
 20
873.9987081778696
 30
0.0
 11
1119.967793805397
 21
873.9987081778696
 31
0.0
  0
LINE
  5
21C
330
1F
100
AcDbEntity
  8
LAY-10
  6
CONTINUOUS
 62
     7
100
AcDbLine
 10
1099.730045018073
 20
873.9987081778696
 30
0.0
 11
1108.999999999997
 21
873.9987081778696
 31
0.0
  0
ARC
  5
21D
330
1F
100
AcDbEntity
  8
LAY-10
  6
CONTINUOUS
 62
     7
100
AcDbCircle
 10
1097.909606189592
 20
874.398708177871
 30
0.0
 40
1.9
100
AcDbArc
 50
270.0
 51
342.1256432009552
  0
ARC
  5
21E
330
1F
100
AcDbEntity
  8
LAY-10
  6
CONTINUOUS
 62
     7
100
AcDbCircle
 10
1088.297114317034
 20
877.4987081778695
 30
0.0
 40
12.0
100
AcDbArc
 50
342.1256432009546
 51
357.1340160174004
  0
LINE
  5
21F
330
1F
100
AcDbEntity
  8
LAY-10
  6
CONTINUOUS
 62
     7
100
AcDbLine
 10
1097.909606189592
 20
872.4987081778695
 30
0.0
 11
1096.997114317034
 21
872.4987081778695
 31
0.0
  0
ARC
  5
220
330
1F
100
AcDbEntity
  8
LAY-10
  6
CONTINUOUS
 62
     7
100
AcDbCircle
 10
1097.909606189592
 20
880.5987081778717
 30
0.0
 40
1.9
100
AcDbArc
 50
17.8743567990519
 51
90.00000000000001
  0
LINE
  5
221
330
1F
100
AcDbEntity
  8
LAY-10
  6
CONTINUOUS
 62
     7
100
AcDbLine
 10
1097.909606189592
 20
882.4987081778695
 30
0.0
 11
1096.997114317034
 21
882.4987081778695
 31
0.0
  0
ARC
  5
222
330
1F
100
AcDbEntity
  8
LAY-10
  6
CONTINUOUS
 62
     7
100
AcDbCircle
 10
1088.297114317034
 20
877.4987081778695
 30
0.0
 40
12.0
100
AcDbArc
 50
2.865983982599606
 51
17.87435679905081
  0
LINE
  5
223
330
1F
100
AcDbEntity
  8
LAY-10
  6
CONTINUOUS
 62
     7
100
AcDbLine
 10
1120.997114317038
 20
875.028028689509
 30
0.0
 11
1119.967793805397
 21
873.9987081778696
 31
0.0
  0
LINE
  5
224
330
1F
100
AcDbEntity
  8
LAY-10
  6
CONTINUOUS
 62
     7
100
AcDbLine
 10
1119.978616041776
 20
885.9987081778659
 30
0.0
 11
1120.997114317038
 21
884.9802099026042
 31
0.0
  0
LINE
  5
225
330
1F
100
AcDbEntity
  8
LAY-10
  6
CONTINUOUS
 62
     7
100
AcDbLine
 10
1120.997114317038
 20
875.0280286895128
 30
0.0
 11
1120.997114317038
 21
884.9802099026042
 31
0.0
  0
LINE
  5
226
330
1F
100
AcDbEntity
  8
LAY-10
  6
CONTINUOUS
 62
     7
100
AcDbLine
 10
1120.997114317038
 20
884.9802099026042
 30
0.0
 11
1120.997114317038
 21
875.0280286895128
 31
0.0
  0
LINE
  5
227
330
1F
100
AcDbEntity
  8
LAY-10
  6
CONTINUOUS
 62
     7
100
AcDbLine
 10
1120.997114317038
 20
875.0280286895128
 30
0.0
 11
1120.997114317038
 21
884.9802099026042
 31
0.0
  0
LINE
  5
228
330
1F
100
AcDbEntity
  8
LAY-10
  6
CONTINUOUS
 62
     7
100
AcDbLine
 10
1119.978616041776
 20
885.9987081778659
 30
0.0
 11
1120.997114317038
 21
884.9802099026042
 31
0.0
  0
LINE
  5
229
330
1F
100
AcDbEntity
  8
LAY-10
  6
CONTINUOUS
 62
     7
100
AcDbLine
 10
1120.997114317038
 20
875.028028689509
 30
0.0
 11
1119.967793805397
 21
873.9987081778696
 31
0.0
  0
LINE
  5
22A
330
1F
100
AcDbEntity
  8
LAY-10
  6
CONTINUOUS
 62
     7
100
AcDbLine
 10
1096.997114317034
 20
881.9987081778695
 30
0.0
 11
1096.997114317034
 21
872.9987081778695
 31
0.0
  0
LINE
  5
22B
330
1F
100
AcDbEntity
  8
LAY-10
  6
CONTINUOUS
 62
     7
100
AcDbLine
 10
1100.282104930296
 20
876.8987081778673
 30
0.0
 11
1098.697114317033
 21
876.8987081778673
 31
0.0
  0
LINE
  5
22C
330
1F
100
AcDbEntity
  8
LAY-10
  6
CONTINUOUS
 62
     7
100
AcDbLine
 10
1100.282104930296
 20
878.0987081778682
 30
0.0
 11
1098.697114317033
 21
878.0987081778682
 31
0.0
  0
LINE
  5
22D
330
1F
100
AcDbEntity
  8
LAY-10
  6
CONTINUOUS
 62
     7
100
AcDbLine
 10
1098.697114317033
 20
876.8987081778673
 30
0.0
 11
1098.697114317033
 21
878.0987081778682
 31
0.0
  0
ARC
  5
22E
330
1F
100
AcDbEntity
  8
LAY-10
  6
CONTINUOUS
 62
     7
100
AcDbCircle
 10
1098.497114317034
 20
885.3001370409606
 30
0.0
 40
1.5
100
AcDbArc
 50
120.9637565320733
 51
180.0000000000001
  0
LINE
  5
22F
330
1F
100
AcDbEntity
  8
LAY-10
  6
CONTINUOUS
 62
     7
100
AcDbLine
 10
1094.997114317034
 20
928.7485516059883
 30
0.0
 11
1094.997114317034
 21
871.2488647497435
 31
0.0
  0
LINE
  5
230
330
1F
100
AcDbEntity
  8
LAY-10
  6
CONTINUOUS
 62
     7
100
AcDbLine
 10
1080.000000000008
 20
914.9763628270434
 30
0.0
 11
1080.000000000008
 21
925.0931976295419
 31
0.0
  0
LINE
  5
231
330
1F
100
AcDbEntity
  8
LAY-10
  6
CONTINUOUS
 62
     7
100
AcDbLine
 10
1092.261467228255
 20
912.9872922722411
 30
0.0
 11
1080.912844257252
 21
913.980168128945
 31
0.0
  0
ARC
  5
232
330
1F
100
AcDbEntity
  8
LAY-10
  6
CONTINUOUS
 62
     7
100
AcDbCircle
 10
1081.000000000008
 20
914.9763628270362
 30
0.0
 40
1.0
100
AcDbArc
 50
180.0000000000001
 51
264.9999999994349
  0
ARC
  5
233
330
1F
100
AcDbEntity
  8
LAY-10
  6
CONTINUOUS
 62
     7
100
AcDbCircle
 10
1083.000000000008
 20
925.093197629662
 30
0.0
 40
3.000000000000003
100
AcDbArc
 50
93.10571804253416
 51
180.0000000000001
  0
LINE
  5
234
330
1F
100
AcDbEntity
  8
LAY-10
  6
CONTINUOUS
 62
     7
100
AcDbLine
 10
1082.837464603957
 20
928.0887914347755
 30
0.0
 11
1099.032241294009
 21
928.9674901550411
 31
0.0
  0
ARC
  5
235
330
1F
100
AcDbEntity
  8
LAY-10
  6
CONTINUOUS
 62
     7
100
AcDbCircle
 10
1092.000000000008
 20
909.9987081779677
 30
0.0
 40
3.000000000000003
100
AcDbArc
 50
274.9999999999999
 51
84.99999999932946
  0
ARC
  5
236
330
1F
100
AcDbEntity
  8
LAY-10
  6
CONTINUOUS
 62
     7
100
AcDbCircle
 10
1088.297114317034
 20
922.4987081778622
 30
0.0
 40
12.0
100
AcDbArc
 50
16.95776330003925
 51
17.87435679904559
  0
LINE
  5
237
330
1F
100
AcDbEntity
  8
LAY-10
  6
CONTINUOUS
 62
     7
100
AcDbLine
 10
1112.99711431704
 20
925.9987081778695
 30
0.0
 11
1112.99711431704
 21
934.9987081780441
 31
0.0
  0
LINE
  5
238
330
1F
100
AcDbEntity
  8
LAY-10
  6
CONTINUOUS
 62
     7
100
AcDbLine
 10
1112.99711431704
 20
864.9987081778659
 30
0.0
 11
1112.99711431704
 21
913.9987081778696
 31
0.0
  0
LINE
  5
239
330
1F
100
AcDbEntity
  8
LAY-10
  6
CONTINUOUS
 62
     7
100
AcDbLine
 10
1108.999999999997
 20
913.9987081778696
 30
0.0
 11
1108.999999999997
 21
860.9974163556603
 31
0.0
  0
LINE
  5
23A
330
1F
100
AcDbEntity
  8
LAY-10
  6
CONTINUOUS
 62
     7
100
AcDbLine
 10
1108.999999999997
 20
939.0000000001005
 30
0.0
 11
1108.999999999997
 21
925.9987081778695
 31
0.0
  0
LINE
  5
23B
330
1F
100
AcDbEntity
  8
LAY-10
  6
CONTINUOUS
 62
     7
100
AcDbLine
 10
1120.997114317038
 20
915.0172064531348
 30
0.0
 11
1120.997114317038
 21
924.9693876662263
 31
0.0
  0
LINE
  5
23C
330
1F
100
AcDbEntity
  8
LAY-10
  6
CONTINUOUS
 62
     7
100
AcDbLine
 10
1119.978616041776
 20
913.9987081778731
 30
0.0
 11
1120.997114317038
 21
915.0172064531348
 31
0.0
  0
LINE
  5
23D
330
1F
100
AcDbEntity
  8
LAY-10
  6
CONTINUOUS
 62
     7
100
AcDbLine
 10
1120.997114317038
 20
924.9693876662263
 30
0.0
 11
1119.967793805397
 21
925.9987081778695
 31
0.0
  0
LINE
  5
23E
330
1F
100
AcDbEntity
  8
LAY-10
  6
CONTINUOUS
 62
     7
100
AcDbLine
 10
1112.99711431704
 20
902.9987081778695
 30
0.0
 11
1121.197114317039
 21
902.9987081778695
 31
0.0
  0
LINE
  5
23F
330
1F
100
AcDbEntity
  8
LAY-10
  6
CONTINUOUS
 62
     7
100
AcDbLine
 10
1112.99711431704
 20
896.9987081778695
 30
0.0
 11
1121.197114317039
 21
896.9987081778695
 31
0.0
  0
LINE
  5
240
330
1F
100
AcDbEntity
  8
LAY-10
  6
CONTINUOUS
 62
     7
100
AcDbLine
 10
1096.997114317034
 20
871.1403484377138
 30
0.0
 11
1096.997114317034
 21
885.3001370409606
 31
0.0
  0
ARC
  5
241
330
1F
100
AcDbEntity
  8
LAY-10
  6
CONTINUOUS
 62
     7
100
AcDbCircle
 10
1092.000000000008
 20
889.9987081777641
 30
0.0
 40
3.000000000000003
100
AcDbArc
 50
275.0000000004268
 51
85.00000000000028
  0
ARC
  5
242
330
1F
100
AcDbEntity
  8
LAY-10
  6
CONTINUOUS
 62
     7
100
AcDbCircle
 10
1081.000000000008
 20
885.0210535286956
 30
0.0
 40
1.0
100
AcDbArc
 50
95.00000000056534
 51
180.0000000000001
  0
LINE
  5
243
330
1F
100
AcDbEntity
  8
LAY-10
  6
CONTINUOUS
 62
     7
100
AcDbLine
 10
1092.261467228255
 20
887.0101240834907
 30
0.0
 11
1080.912844257252
 21
886.0172482267867
 31
0.0
  0
ARC
  5
244
330
1F
100
AcDbEntity
  8
LAY-10
  6
CONTINUOUS
 62
     7
100
AcDbCircle
 10
1083.000000000008
 20
874.9042187260699
 30
0.0
 40
3.000000000000003
100
AcDbArc
 50
180.0000000000001
 51
266.8942819574661
  0
LINE
  5
245
330
1F
100
AcDbEntity
  8
LAY-10
  6
CONTINUOUS
 62
     7
100
AcDbLine
 10
1080.000000000008
 20
885.0210535285428
 30
0.0
 11
1080.000000000008
 21
874.9042187260443
 31
0.0
  0
LINE
  5
246
330
1F
100
AcDbEntity
  8
LAY-10
  6
CONTINUOUS
 62
     7
100
AcDbLine
 10
1082.837464603964
 20
871.9086249209563
 30
0.0
 11
1099.032241294009
 21
871.029926200687
 31
0.0
  0
LINE
  5
247
330
1F
100
AcDbEntity
  8
LAY-10
  6
CONTINUOUS
 62
     7
100
AcDbLine
 10
1108.997114317038
 20
935.9987081778695
 30
0.0
 11
1108.999999999997
 21
935.9987081778695
 31
0.0
  0
LINE
  5
248
330
1F
100
AcDbEntity
  8
LAY-10
  6
CONTINUOUS
 62
     7
100
AcDbLine
 10
1108.997114317038
 20
863.9987081778696
 30
0.0
 11
1108.999999999997
 21
863.9987081778696
 31
0.0
  0
LINE
  5
249
330
1F
100
AcDbEntity
  8
LAY-10
  6
CONTINUOUS
 62
     7
100
AcDbLine
 10
1112.997114317073
 20
864.9987081778659
 30
0.0
 11
1108.997114317073
 21
864.9987081778659
 31
0.0
  0
LINE
  5
24A
330
1F
100
AcDbEntity
  8
LAY-10
  6
CONTINUOUS
 62
     7
100
AcDbLine
 10
1112.997114317073
 20
934.9987081778659
 30
0.0
 11
1108.997114317073
 21
934.9987081778659
 31
0.0
  0
LINE
  5
24B
330
1F
100
AcDbEntity
  8
LAY-10
  6
CONTINUOUS
 62
     7
100
AcDbLine
 10
1099.997114317038
 20
894.7487081778695
 30
0.0
 11
1099.997114317038
 21
905.2487081778696
 31
0.0
  0
ARC
  5
24C
330
1F
100
AcDbEntity
  8
LAY-10
  6
CONTINUOUS
 62
     7
100
AcDbCircle
 10
1097.997114317038
 20
896.2487081778695
 30
0.0
 40
1.0
100
AcDbArc
 50
180.0000000000001
 51
241.927513064142
  0
ARC
  5
24D
330
1F
100
AcDbEntity
  8
LAY-10
  6
CONTINUOUS
 62
     7
100
AcDbCircle
 10
1099.997114317038
 20
899.9987081778695
 30
0.0
 40
5.25
100
AcDbArc
 50
241.9275130641421
 51
269.9999999999997
  0
LINE
  5
24E
330
1F
100
AcDbEntity
  8
LAY-10
  6
CONTINUOUS
 62
     7
100
AcDbLine
 10
1096.997114317038
 20
903.7487081778695
 30
0.0
 11
1096.997114317038
 21
896.2487081778695
 31
0.0
  0
ARC
  5
24F
330
1F
100
AcDbEntity
  8
LAY-10
  6
CONTINUOUS
 62
     7
100
AcDbCircle
 10
1097.997114317038
 20
903.7487081778695
 30
0.0
 40
1.0
100
AcDbArc
 50
118.0724869358582
 51
180.0000000000001
  0
ARC
  5
250
330
1F
100
AcDbEntity
  8
LAY-10
  6
CONTINUOUS
 62
     7
100
AcDbCircle
 10
1099.997114317038
 20
899.9987081778695
 30
0.0
 40
5.25
100
AcDbArc
 50
90.00000000000112
 51
118.072486935858
  0
LINE
  5
251
330
1F
100
AcDbEntity
  8
LAY-10
  6
CONTINUOUS
 62
     7
100
AcDbLine
 10
1099.999999999997
 20
930.0000000000678
 30
0.0
 11
1108.999999999997
 21
930.0000000000678
 31
0.0
  0
LINE
  5
252
330
1F
100
AcDbEntity
  8
LAY-10
  6
CONTINUOUS
 62
     7
100
AcDbLine
 10
1099.999999999997
 20
939.000000000075
 30
0.0
 11
1099.999999999997
 21
929.8000000000707
 31
0.0
  0
LINE
  5
253
330
1F
100
AcDbEntity
  8
LAY-10
  6
CONTINUOUS
 62
     7
100
AcDbLine
 10
1099.999999999997
 20
860.9974163556603
 30
0.0
 11
1099.999999999997
 21
870.1974163556574
 31
0.0
  0
LINE
  5
254
330
1F
100
AcDbEntity
  8
LAY-10
  6
CONTINUOUS
 62
     7
100
AcDbLine
 10
1099.999999999997
 20
869.9974163556603
 30
0.0
 11
1108.999999999997
 21
869.9974163556603
 31
0.0
  0
ARC
  5
255
330
1F
100
AcDbEntity
  8
LAY-10
  6
CONTINUOUS
 62
     7
100
AcDbCircle
 10
1097.909606189592
 20
925.5987081778608
 30
0.0
 40
1.9
100
AcDbArc
 50
17.87435679904485
 51
90.00000000000001
  0
LINE
  5
256
330
1F
100
AcDbEntity
  8
LAY-10
  6
CONTINUOUS
 62
     7
100
AcDbLine
 10
1097.909606189592
 20
927.4987081778622
 30
0.0
 11
1096.997114317034
 21
927.4987081778622
 31
0.0
  0
LINE
  5
257
330
1F
100
AcDbEntity
  8
LAY-10
  6
CONTINUOUS
 62
     7
100
AcDbLine
 10
1080.000056068783
 20
937.0000000000715
 30
0.0
 11
1074.999999999983
 21
936.0000000000641
 31
0.0
  0
LINE
  5
258
330
1F
100
AcDbEntity
  8
LAY-10
  6
CONTINUOUS
 62
     7
100
AcDbLine
 10
1074.999999999983
 20
924.0000000000641
 30
0.0
 11
1080.000000000005
 21
922.9987081779132
 31
0.0
  0
LINE
  5
259
330
1F
100
AcDbEntity
  8
LAY-10
  6
CONTINUOUS
 62
     7
100
AcDbLine
 10
1074.999999999983
 20
915.9987081779133
 30
0.0
 11
1080.000000000005
 21
916.9987081779132
 31
0.0
  0
LINE
  5
25A
330
1F
100
AcDbEntity
  8
LAY-10
  6
CONTINUOUS
 62
     7
100
AcDbLine
 10
1074.999999999983
 20
903.9987081780114
 30
0.0
 11
1080.000000000005
 21
902.9987081780115
 31
0.0
  0
LINE
  5
25B
330
1F
100
AcDbEntity
  8
LAY-10
  6
CONTINUOUS
 62
     7
100
AcDbLine
 10
1074.999999999983
 20
883.9987081778186
 30
0.0
 11
1080.000000000005
 21
882.9987081778186
 31
0.0
  0
LINE
  5
25C
330
1F
100
AcDbEntity
  8
LAY-10
  6
CONTINUOUS
 62
     7
100
AcDbLine
 10
1074.999999999983
 20
895.9987081777203
 30
0.0
 11
1080.000000000005
 21
896.9987081777203
 31
0.0
  0
LINE
  5
25D
330
1F
100
AcDbEntity
  8
LAY-10
  6
CONTINUOUS
 62
     7
100
AcDbLine
 10
1074.999999999983
 20
875.9974163556677
 30
0.0
 11
1080.000000000005
 21
876.9987081778186
 31
0.0
  0
LINE
  5
25E
330
1F
100
AcDbEntity
  8
LAY-10
  6
CONTINUOUS
 62
     7
100
AcDbLine
 10
1080.000056068783
 20
862.9974163556603
 30
0.0
 11
1074.999999999983
 21
863.9974163556676
 31
0.0
  0
ARC
  5
25F
330
1F
100
AcDbEntity
  8
LAY-10
  6
CONTINUOUS
 62
     7
100
AcDbCircle
 10
1098.999999999997
 20
929.9669702693814
 30
0.0
 40
1.0
100
AcDbArc
 50
271.8476102659964
 51
0.0
  0
ARC
  5
260
330
1F
100
AcDbEntity
  8
LAY-10
  6
CONTINUOUS
 62
     7
100
AcDbCircle
 10
1098.999999999997
 20
870.0304460863504
 30
0.0
 40
1.0
100
AcDbArc
 50
0.0000000000001719
 51
88.15238973400399
  0
LINE
  5
261
330
1F
100
AcDbEntity
  8
LAY-10
  6
CONTINUOUS
 62
     7
100
AcDbLine
 10
1080.000000000008
 20
863.9987081779168
 30
0.0
 11
1099.050827527971
 21
864.9684362343892
 31
0.0
  0
ARC
  5
262
330
1F
100
AcDbEntity
  8
LAY-10
  6
CONTINUOUS
 62
     7
100
AcDbCircle
 10
1098.999999999997
 20
865.9669702694833
 30
0.0
 40
1.0
100
AcDbArc
 50
271.8476102659964
 51
0.0000000000001719
  0
ARC
  5
263
330
1F
100
AcDbEntity
  8
LAY-10
  6
CONTINUOUS
 62
     7
100
AcDbCircle
 10
1098.999999999997
 20
934.0304460862521
 30
0.0
 40
1.0
100
AcDbArc
 50
0.0
 51
88.15238973400399
  0
LINE
  5
264
330
1F
100
AcDbEntity
  8
LAY-10
  6
CONTINUOUS
 62
     7
100
AcDbLine
 10
1080.000000000008
 20
935.9987081778149
 30
0.0
 11
1099.032241294012
 21
935.0299262005888
 31
0.0
  0
LINE
  5
265
330
1F
100
AcDbEntity
  8
LAY-10
  6
CONTINUOUS
 62
     7
100
AcDbLine
 10
1080.000000000008
 20
894.9763628268361
 30
0.0
 11
1080.000000000008
 21
905.0210535288994
 31
0.0
  0
LINE
  5
266
330
1F
100
AcDbEntity
  8
LAY-10
  6
CONTINUOUS
 62
     7
100
AcDbLine
 10
1099.997114317034
 20
902.9987081778695
 30
0.0
 11
1099.997114317034
 21
909.149422609417
 31
0.0
  0
LINE
  5
267
330
1F
100
AcDbEntity
  8
LAY-10
  6
CONTINUOUS
 62
     7
100
AcDbLine
 10
1099.997114317034
 20
890.8479937463221
 30
0.0
 11
1099.997114317034
 21
896.9987081778695
 31
0.0
  0
ARC
  5
268
330
1F
100
AcDbEntity
  8
LAY-10
  6
CONTINUOUS
 62
     7
100
AcDbCircle
 10
1096.497114317034
 20
913.8479937463222
 30
0.0
 40
1.5
100
AcDbArc
 50
180.0000000000001
 51
239.0362434679267
  0
LINE
  5
269
330
1F
100
AcDbEntity
  8
LAY-10
  6
CONTINUOUS
 62
     7
100
AcDbLine
 10
1095.725370683892
 20
912.5617543577523
 30
0.0
 11
1099.268857950175
 21
910.4356619979867
 31
0.0
  0
ARC
  5
26A
330
1F
100
AcDbEntity
  8
LAY-10
  6
CONTINUOUS
 62
     7
100
AcDbCircle
 10
1098.497114317034
 20
909.149422609417
 30
0.0
 40
1.5
100
AcDbArc
 50
0.0000000000001719
 51
59.03624346792686
  0
ARC
  5
26B
330
1F
100
AcDbEntity
  8
LAY-10
  6
CONTINUOUS
 62
     7
100
AcDbCircle
 10
1098.497114317034
 20
890.8479937463221
 30
0.0
 40
1.5
100
AcDbArc
 50
300.9637565320735
 51
0.0000000000001719
  0
LINE
  5
26C
330
1F
100
AcDbEntity
  8
LAY-10
  6
CONTINUOUS
 62
     7
100
AcDbLine
 10
1095.725370683892
 20
887.4356619979867
 30
0.0
 11
1099.268857950175
 21
889.5617543577523
 31
0.0
  0
ARC
  5
26D
330
1F
100
AcDbEntity
  8
LAY-10
  6
CONTINUOUS
 62
     7
100
AcDbCircle
 10
1096.497114317034
 20
886.1494226094169
 30
0.0
 40
1.5
100
AcDbArc
 50
120.9637565320733
 51
180.0000000000001
  0
LINE
  5
26E
330
1F
100
AcDbEntity
  8
LAY-10
  6
CONTINUOUS
 62
     7
100
AcDbLine
 10
1097.725370683892
 20
886.5863764295304
 30
0.0
 11
1101.268857950175
 21
888.7124687892998
 31
0.0
  0
ARC
  5
26F
330
1F
100
AcDbEntity
  8
LAY-10
  6
CONTINUOUS
 62
     7
100
AcDbCircle
 10
1100.497114317034
 20
889.9987081778695
 30
0.0
 40
1.5
100
AcDbArc
 50
300.9637565320738
 51
0.0000000000001719
  0
LINE
  5
270
330
1F
100
AcDbEntity
  8
LAY-10
  6
CONTINUOUS
 62
     7
100
AcDbLine
 10
1097.725370683892
 20
913.4110399262086
 30
0.0
 11
1101.268857950175
 21
911.2849475664393
 31
0.0
  0
ARC
  5
271
330
1F
100
AcDbEntity
  8
LAY-10
  6
CONTINUOUS
 62
     7
100
AcDbCircle
 10
1100.497114317034
 20
909.9987081778695
 30
0.0
 40
1.5
100
AcDbArc
 50
0.0000000000001719
 51
59.03624346792686
  0
LINE
  5
272
330
1F
100
AcDbEntity
  8
LAY-10
  6
CONTINUOUS
 62
     7
100
AcDbLine
 10
1121.197114317039
 20
897.1354595238213
 30
0.0
 11
1125.825114317039
 21
897.1354595238213
 31
0.0
  0
LINE
  5
273
330
1F
100
AcDbEntity
  8
LAY-10
  6
CONTINUOUS
 62
     7
100
AcDbLine
 10
1121.197114317039
 20
894.2487081778695
 30
0.0
 11
1125.825114317039
 21
894.2487081778695
 31
0.0
  0
LINE
  5
274
330
1F
100
AcDbEntity
  8
LAY-10
  6
CONTINUOUS
 62
     7
100
AcDbLine
 10
1121.197114317039
 20
902.8619568319177
 30
0.0
 11
1125.825114317039
 21
902.8619568319177
 31
0.0
  0
ARC
  5
275
330
1F
100
AcDbEntity
  8
LAY-10
  6
CONTINUOUS
 62
     7
100
AcDbCircle
 10
1118.94486182148
 20
899.9987081778695
 30
0.0
 40
7.4522524955587
100
AcDbArc
 50
337.4051392327526
 51
22.59486076724778
  0
LINE
  5
276
330
1F
100
AcDbEntity
  8
LAY-10
  6
CONTINUOUS
 62
     7
100
AcDbLine
 10
1121.197114317039
 20
905.7487081778695
 30
0.0
 11
1125.825114317039
 21
905.7487081778695
 31
0.0
  0
LINE
  5
277
330
1F
100
AcDbEntity
  8
LAY-10
  6
CONTINUOUS
 62
     7
100
AcDbLine
 10
1121.197114317039
 20
905.7487081778695
 30
0.0
 11
1121.197114317039
 21
894.2487081778695
 31
0.0
  0
ARC
  5
278
330
1F
100
AcDbEntity
  8
LAY-10
  6
CONTINUOUS
 62
     7
100
AcDbCircle
 10
1126.859136362838
 20
904.7487081778695
 30
0.0
 40
0.5
100
AcDbArc
 50
189.7915975264292
 51
270.0000000000002
  0
LINE
  5
279
330
1F
100
AcDbEntity
  8
LAY-10
  6
CONTINUOUS
 62
     7
100
AcDbLine
 10
1126.397114317039
 20
904.2487081778695
 30
0.0
 11
1126.396353342184
 21
904.2487081778695
 31
0.0
  0
ARC
  5
27A
330
1F
100
AcDbEntity
  8
LAY-10
  6
CONTINUOUS
 62
     7
100
AcDbCircle
 10
1124.290018745941
 20
895.6920838508436
 30
0.0
 40
2.107095571097913
100
AcDbArc
 50
316.7638252773315
 51
43.23617472266898
  0
ARC
  5
27B
330
1F
100
AcDbEntity
  8
LAY-10
  6
CONTINUOUS
 62
     7
100
AcDbCircle
 10
1126.859136362838
 20
895.2487081778696
 30
0.0
 40
0.5
100
AcDbArc
 50
90.00000000000026
 51
170.2084024735711
  0
LINE
  5
27C
330
1F
100
AcDbEntity
  8
LAY-10
  6
CONTINUOUS
 62
     7
100
AcDbLine
 10
1126.397114317039
 20
895.7487081778695
 30
0.0
 11
1126.396353342184
 21
895.7487081778695
 31
0.0
  0
ARC
  5
27D
330
1F
100
AcDbEntity
  8
LAY-10
  6
CONTINUOUS
 62
     7
100
AcDbCircle
 10
1124.290018745941
 20
904.3053325048954
 30
0.0
 40
2.107095571097882
100
AcDbArc
 50
316.763825277331
 51
43.23617472266933
  0
ARC
  5
27E
330
1F
100
AcDbEntity
  8
LAY-10
  6
CONTINUOUS
 62
     7
100
AcDbCircle
 10
1127.496152422716
 20
896.7487081778695
 30
0.0
 40
1.0
100
AcDbArc
 50
270.0000000000002
 51
291.7867892982636
  0
LINE
  5
27F
330
1F
100
AcDbEntity
  8
LAY-10
  6
CONTINUOUS
 62
     7
100
AcDbLine
 10
1127.496152422716
 20
895.7487081778695
 30
0.0
 11
1126.859136362838
 21
895.7487081778695
 31
0.0
  0
ARC
  5
280
330
1F
100
AcDbEntity
  8
LAY-10
  6
CONTINUOUS
 62
     7
100
AcDbCircle
 10
1126.197114317039
 20
899.9987081778695
 30
0.0
 40
4.5
100
AcDbArc
 50
291.7867892982638
 51
68.21321070173653
  0
LINE
  5
281
330
1F
100
AcDbEntity
  8
LAY-10
  6
CONTINUOUS
 62
     7
100
AcDbLine
 10
1127.496152422716
 20
904.2487081778695
 30
0.0
 11
1126.859136362838
 21
904.2487081778695
 31
0.0
  0
ARC
  5
282
330
1F
100
AcDbEntity
  8
LAY-10
  6
CONTINUOUS
 62
     7
100
AcDbCircle
 10
1127.496152422716
 20
903.2487081778695
 30
0.0
 40
1.0
100
AcDbArc
 50
68.21321070173653
 51
90.00000000000026
  0
LINE
  5
283
330
1F
100
AcDbEntity
  8
LAY-10
  6
CONTINUOUS
 62
     7
100
AcDbLine
 10
1094.002651736018
 20
936.2872377926565
 30
0.0
 11
1080.000056068789
 21
937.000000000075
 31
0.0
  0
ARC
  5
284
330
1F
100
AcDbEntity
  8
LAY-10
  6
CONTINUOUS
 62
     7
100
AcDbCircle
 10
1095.001358733757
 20
936.2364014605106
 30
0.0
 40
1.0
100
AcDbArc
 50
177.0860366934871
 51
267.086036693205
  0
LINE
  5
285
330
1F
100
AcDbEntity
  8
LAY-10
  6
CONTINUOUS
 62
     7
100
AcDbLine
 10
1094.002651736018
 20
863.7101785630753
 30
0.0
 11
1080.000056068789
 21
862.9974163556568
 31
0.0
  0
ARC
  5
286
330
1F
100
AcDbEntity
  8
LAY-10
  6
CONTINUOUS
 62
     7
100
AcDbCircle
 10
1095.001358733757
 20
863.7610148952213
 30
0.0
 40
1.0
100
AcDbArc
 50
92.91396330679483
 51
182.9139633065131
  0
ARC
  5
287
330
1F
100
AcDbEntity
  8
LAY-10
  6
CONTINUOUS
 62
     7
100
AcDbCircle
 10
1081.000000000008
 20
894.9763628268361
 30
0.0
 40
1.0
100
AcDbArc
 50
180.0000000000001
 51
264.9999999994349
  0
LINE
  5
288
330
1F
100
AcDbEntity
  8
LAY-10
  6
CONTINUOUS
 62
     7
100
AcDbLine
 10
1092.261467228255
 20
892.987292272041
 30
0.0
 11
1080.912844257252
 21
893.9801681287449
 31
0.0
  0
ARC
  5
289
330
1F
100
AcDbEntity
  8
LAY-10
  6
CONTINUOUS
 62
     7
100
AcDbCircle
 10
1081.000000000008
 20
905.0210535288957
 30
0.0
 40
1.0
100
AcDbArc
 50
95.00000000056534
 51
180.0000000000001
  0
LINE
  5
28A
330
1F
100
AcDbEntity
  8
LAY-10
  6
CONTINUOUS
 62
     7
100
AcDbLine
 10
1092.261467228255
 20
907.0101240836908
 30
0.0
 11
1080.912844257252
 21
906.0172482269868
 31
0.0
  0
LINE
  5
28B
330
1F
100
AcDbEntity
  8
LAY-10
  6
CONTINUOUS
 62
     7
100
AcDbLine
 10
1093.000000000008
 20
935.3382749204561
 30
0.0
 11
1093.000000000008
 21
935.3369802441798
 31
0.0
  0
LINE
  5
28C
330
1F
100
AcDbEntity
  8
LAY-10
  6
CONTINUOUS
 62
     7
100
AcDbLine
 10
1093.000000000008
 20
863.4498009250588
 30
0.0
 11
1093.000000000008
 21
863.4175428605437
 31
0.0
  0
LINE
  5
28D
330
1F
100
AcDbEntity
  8
LAY-10
  6
CONTINUOUS
 62
     7
100
AcDbLine
 10
1080.000000000008
 20
862.9987081779168
 30
0.0
 11
1080.000000000008
 21
863.9987081779168
 31
0.0
  0
LINE
  5
28E
330
1F
100
AcDbEntity
  8
LAY-10
  6
CONTINUOUS
 62
     7
100
AcDbLine
 10
1080.000000000008
 20
862.9987081779168
 30
0.0
 11
1080.000000000008
 21
863.9987081779168
 31
0.0
  0
LINE
  5
28F
330
1F
100
AcDbEntity
  8
LAY-10
  6
CONTINUOUS
 62
     7
100
AcDbLine
 10
1080.000000000008
 20
936.9987081778149
 30
0.0
 11
1080.000000000008
 21
935.9987081778149
 31
0.0
  0
LINE
  5
290
330
1F
100
AcDbEntity
  8
LAY-10
  6
CONTINUOUS
 62
     7
100
AcDbLine
 10
1074.999999999988
 20
924.0000000000606
 30
0.0
 11
1074.999999999988
 21
936.0000000000605
 31
0.0
  0
LINE
  5
291
330
1F
100
AcDbEntity
  8
LAY-10
  6
CONTINUOUS
 62
     7
100
AcDbLine
 10
1074.999999999988
 20
915.9987081779095
 30
0.0
 11
1074.999999999988
 21
903.9987081780114
 31
0.0
  0
LINE
  5
292
330
1F
100
AcDbEntity
  8
LAY-10
  6
CONTINUOUS
 62
     7
100
AcDbLine
 10
1074.999999999988
 20
895.9987081777167
 30
0.0
 11
1074.999999999988
 21
883.9987081778186
 31
0.0
  0
LINE
  5
293
330
1F
100
AcDbEntity
  8
LAY-10
  6
CONTINUOUS
 62
     7
100
AcDbLine
 10
1074.999999999988
 20
863.9974163556712
 30
0.0
 11
1074.999999999988
 21
875.9974163556677
 31
0.0
  0
LINE
  5
294
330
1F
100
AcDbEntity
  8
LAY-10
  6
CONTINUOUS
 62
     7
100
AcDbLine
 10
1096.997114317034
 20
914.6972793147785
 30
0.0
 11
1096.997114317034
 21
926.9987081778623
 31
0.0
  0
ARC
  5
295
330
1F
100
AcDbEntity
  8
LAY-10
  6
CONTINUOUS
 62
     7
100
AcDbCircle
 10
1098.497114317034
 20
914.6972793147785
 30
0.0
 40
1.5
100
AcDbArc
 50
179.9999999995571
 51
239.0362434679244
  0
LINE
  5
296
330
1F
100
AcDbEntity
  8
LAY-10
  6
CONTINUOUS
 62
     7
100
AcDbLine
 10
1119.978616041774
 20
913.9987081778696
 30
0.0
 11
1097.169711451783
 21
913.9987081778696
 31
0.0
  0
LINE
  5
297
330
1F
100
AcDbEntity
  8
LAY-10
  6
CONTINUOUS
 62
     7
100
AcDbLine
 10
1096.997114317034
 20
925.9987081778695
 30
0.0
 11
1119.967793805397
 21
925.9987081778695
 31
0.0
  0
LINE
  5
298
330
1F
100
AcDbEntity
  8
LAY-10
  6
CONTINUOUS
 62
     7
100
AcDbLine
 10
622.9999999999814
 20
876.9999999997953
 30
0.0
 11
622.9999999999814
 21
882.9999999997953
 31
0.0
  0
LINE
  5
299
330
1F
100
AcDbEntity
  8
LAY-10
  6
CONTINUOUS
 62
     7
100
AcDbLine
 10
622.9999999999814
 20
916.9999999998953
 30
0.0
 11
622.9999999999814
 21
922.9999999998953
 31
0.0
  0
LINE
  5
29A
330
1F
100
AcDbEntity
  8
LAY-10
  6
CONTINUOUS
 62
     7
100
AcDbLine
 10
637.9999999999814
 20
876.9999999997953
 30
0.0
 11
637.9999999999814
 21
882.9999999997953
 31
0.0
  0
LINE
  5
29B
330
1F
100
AcDbEntity
  8
LAY-10
  6
CONTINUOUS
 62
     7
100
AcDbLine
 10
637.9999999999814
 20
916.9999999998953
 30
0.0
 11
637.9999999999814
 21
922.9999999998953
 31
0.0
  0
ARC
  5
29C
330
1F
100
AcDbEntity
  8
LAY-10
  6
CONTINUOUS
 62
     7
100
AcDbCircle
 10
630.4999999999814
 20
899.9999999998454
 30
0.0
 40
5.0
100
AcDbArc
 50
53.13010235410481
 51
126.8698976459003
  0
ARC
  5
29D
330
1F
100
AcDbEntity
  8
LAY-10
  6
CONTINUOUS
 62
     7
100
AcDbCircle
 10
630.4999999999814
 20
899.9999999998448
 30
0.0
 40
4.0
100
AcDbArc
 50
48.59037789393994
 51
131.4096221060601
  0
ARC
  5
29E
330
1F
100
AcDbEntity
  8
LAY-10
  6
CONTINUOUS
 62
     7
100
AcDbCircle
 10
630.4999999999814
 20
899.9999999998448
 30
0.0
 40
4.0
100
AcDbArc
 50
228.5903778939492
 51
311.4096221060509
  0
ARC
  5
29F
330
1F
100
AcDbEntity
  8
LAY-10
  6
CONTINUOUS
 62
     7
100
AcDbCircle
 10
630.4999999999814
 20
899.9999999998454
 30
0.0
 40
5.0
100
AcDbArc
 50
233.1301023541225
 51
306.8698976458775
  0
ARC
  5
2A0
330
1F
100
AcDbEntity
  8
LAY-10
  6
CONTINUOUS
 62
     7
100
AcDbCircle
 10
230.4999999999709
 20
899.9999999998454
 30
0.0
 40
5.0
100
AcDbArc
 50
53.13010235410481
 51
126.8698976459003
  0
ARC
  5
2A1
330
1F
100
AcDbEntity
  8
LAY-10
  6
CONTINUOUS
 62
     7
100
AcDbCircle
 10
230.4999999999709
 20
899.9999999998448
 30
0.0
 40
4.0
100
AcDbArc
 50
48.59037789393994
 51
131.4096221060601
  0
ARC
  5
2A2
330
1F
100
AcDbEntity
  8
LAY-10
  6
CONTINUOUS
 62
     7
100
AcDbCircle
 10
230.4999999999709
 20
899.9999999998448
 30
0.0
 40
4.0
100
AcDbArc
 50
228.5903778939492
 51
311.4096221060509
  0
ARC
  5
2A3
330
1F
100
AcDbEntity
  8
LAY-10
  6
CONTINUOUS
 62
     7
100
AcDbCircle
 10
230.4999999999709
 20
899.9999999998454
 30
0.0
 40
5.0
100
AcDbArc
 50
233.1301023541225
 51
306.8698976458775
  0
LINE
  5
2A4
330
1F
100
AcDbEntity
  8
LAY-10
  6
CONTINUOUS
 62
     7
100
AcDbLine
 10
324.499999999981
 20
876.9999999997953
 30
0.0
 11
324.499999999981
 21
882.9999999997953
 31
0.0
  0
LINE
  5
2A5
330
1F
100
AcDbEntity
  8
LAY-10
  6
CONTINUOUS
 62
     7
100
AcDbLine
 10
336.4999999999809
 20
876.9999999997953
 30
0.0
 11
336.4999999999809
 21
882.9999999997953
 31
0.0
  0
LINE
  5
2A6
330
1F
100
AcDbEntity
  8
LAY-10
  6
CONTINUOUS
 62
     7
100
AcDbLine
 10
324.499999999981
 20
896.9999999999953
 30
0.0
 11
324.499999999981
 21
902.9999999999953
 31
0.0
  0
LINE
  5
2A7
330
1F
100
AcDbEntity
  8
LAY-10
  6
CONTINUOUS
 62
     7
100
AcDbLine
 10
336.4999999999809
 20
896.9999999999953
 30
0.0
 11
336.4999999999809
 21
902.9999999999953
 31
0.0
  0
LINE
  5
2A8
330
1F
100
AcDbEntity
  8
LAY-10
  6
CONTINUOUS
 62
     7
100
AcDbLine
 10
324.499999999981
 20
916.9999999998953
 30
0.0
 11
324.499999999981
 21
922.9999999998953
 31
0.0
  0
LINE
  5
2A9
330
1F
100
AcDbEntity
  8
LAY-10
  6
CONTINUOUS
 62
     7
100
AcDbLine
 10
336.4999999999809
 20
916.9999999998953
 30
0.0
 11
336.4999999999809
 21
922.9999999998953
 31
0.0
  0
ARC
  5
2AA
330
1F
100
AcDbEntity
  8
LAY-10
  6
CONTINUOUS
 62
     7
100
AcDbCircle
 10
430.4999999999509
 20
899.9999999998454
 30
0.0
 40
5.0
100
AcDbArc
 50
53.13010235409815
 51
126.8698976458961
  0
ARC
  5
2AB
330
1F
100
AcDbEntity
  8
LAY-10
  6
CONTINUOUS
 62
     7
100
AcDbCircle
 10
430.4999999999509
 20
899.9999999998448
 30
0.0
 40
4.0
100
AcDbArc
 50
48.59037789393748
 51
131.4096221060625
  0
ARC
  5
2AC
330
1F
100
AcDbEntity
  8
LAY-10
  6
CONTINUOUS
 62
     7
100
AcDbCircle
 10
430.4999999999509
 20
899.9999999998448
 30
0.0
 40
4.0
100
AcDbArc
 50
228.5903778939515
 51
311.4096221060485
  0
ARC
  5
2AD
330
1F
100
AcDbEntity
  8
LAY-10
  6
CONTINUOUS
 62
     7
100
AcDbCircle
 10
430.4999999999509
 20
899.9999999998454
 30
0.0
 40
5.0
100
AcDbArc
 50
233.1301023541234
 51
306.8698976458766
  0
LINE
  5
2AE
330
1F
100
AcDbEntity
  8
LAY-10
  6
CONTINUOUS
 62
     7
100
AcDbLine
 10
233.4999999999741
 20
903.999999999843
 30
0.0
 11
427.4999999999483
 21
903.999999999843
 31
0.0
  0
LINE
  5
2AF
330
1F
100
AcDbEntity
  8
LAY-10
  6
CONTINUOUS
 62
     7
100
AcDbLine
 10
427.4999999999491
 20
895.9999999998468
 30
0.0
 11
233.4999999999732
 21
895.9999999998468
 31
0.0
  0
LINE
  5
2B0
330
1F
100
AcDbEntity
  8
LAY-10
  6
CONTINUOUS
 62
     7
100
AcDbLine
 10
433.4999999999537
 20
903.999999999843
 30
0.0
 11
627.4999999999786
 21
903.999999999843
 31
0.0
  0
LINE
  5
2B1
330
1F
100
AcDbEntity
  8
LAY-10
  6
CONTINUOUS
 62
     7
100
AcDbLine
 10
627.4999999999791
 20
895.9999999998468
 30
0.0
 11
433.4999999999528
 21
895.9999999998468
 31
0.0
  0
LINE
  5
2B2
330
1F
100
AcDbEntity
  8
LAY-10
  6
CONTINUOUS
 62
     7
100
AcDbLine
 10
524.4999999999809
 20
876.9999999997953
 30
0.0
 11
524.4999999999809
 21
882.9999999997953
 31
0.0
  0
LINE
  5
2B3
330
1F
100
AcDbEntity
  8
LAY-10
  6
CONTINUOUS
 62
     7
100
AcDbLine
 10
536.4999999999809
 20
876.9999999997953
 30
0.0
 11
536.4999999999809
 21
882.9999999997953
 31
0.0
  0
LINE
  5
2B4
330
1F
100
AcDbEntity
  8
LAY-10
  6
CONTINUOUS
 62
     7
100
AcDbLine
 10
524.4999999999809
 20
896.9999999996952
 30
0.0
 11
524.4999999999809
 21
902.9999999996952
 31
0.0
  0
LINE
  5
2B5
330
1F
100
AcDbEntity
  8
LAY-10
  6
CONTINUOUS
 62
     7
100
AcDbLine
 10
536.4999999999809
 20
896.9999999996952
 30
0.0
 11
536.4999999999809
 21
902.9999999996952
 31
0.0
  0
LINE
  5
2B6
330
1F
100
AcDbEntity
  8
LAY-10
  6
CONTINUOUS
 62
     7
100
AcDbLine
 10
524.4999999999809
 20
916.9999999998953
 30
0.0
 11
524.4999999999809
 21
922.9999999998953
 31
0.0
  0
LINE
  5
2B7
330
1F
100
AcDbEntity
  8
LAY-10
  6
CONTINUOUS
 62
     7
100
AcDbLine
 10
536.4999999999809
 20
916.9999999998953
 30
0.0
 11
536.4999999999809
 21
922.9999999998953
 31
0.0
  0
LINE
  5
2B8
330
1F
100
AcDbEntity
  8
LAY-10
  6
CONTINUOUS
 62
     7
100
AcDbLine
 10
736.4999999999818
 20
876.9999999997953
 30
0.0
 11
736.4999999999818
 21
882.9999999997953
 31
0.0
  0
LINE
  5
2B9
330
1F
100
AcDbEntity
  8
LAY-10
  6
CONTINUOUS
 62
     7
100
AcDbLine
 10
724.4999999999818
 20
876.9999999997953
 30
0.0
 11
724.4999999999818
 21
882.9999999997953
 31
0.0
  0
LINE
  5
2BA
330
1F
100
AcDbEntity
  8
LAY-10
  6
CONTINUOUS
 62
     7
100
AcDbLine
 10
736.4999999999818
 20
896.9999999996952
 30
0.0
 11
736.4999999999818
 21
902.9999999996952
 31
0.0
  0
LINE
  5
2BB
330
1F
100
AcDbEntity
  8
LAY-10
  6
CONTINUOUS
 62
     7
100
AcDbLine
 10
724.4999999999818
 20
896.9999999996952
 30
0.0
 11
724.4999999999818
 21
902.9999999996952
 31
0.0
  0
LINE
  5
2BC
330
1F
100
AcDbEntity
  8
LAY-10
  6
CONTINUOUS
 62
     7
100
AcDbLine
 10
736.4999999999818
 20
916.9999999998953
 30
0.0
 11
736.4999999999818
 21
922.9999999998953
 31
0.0
  0
LINE
  5
2BD
330
1F
100
AcDbEntity
  8
LAY-10
  6
CONTINUOUS
 62
     7
100
AcDbLine
 10
724.4999999999818
 20
916.9999999998953
 30
0.0
 11
724.4999999999818
 21
922.9999999998953
 31
0.0
  0
LINE
  5
2BE
330
1F
100
AcDbEntity
  8
LAY-10
  6
CONTINUOUS
 62
     7
100
AcDbLine
 10
132.4999999999809
 20
935.9999999998453
 30
0.0
 11
132.4999999999809
 21
923.9999999998453
 31
0.0
  0
LINE
  5
2BF
330
1F
100
AcDbEntity
  8
LAY-10
  6
CONTINUOUS
 62
     7
100
AcDbLine
 10
131.4999999999809
 20
936.9999999998453
 30
0.0
 11
132.4999999999809
 21
935.9999999998453
 31
0.0
  0
LINE
  5
2C0
330
1F
100
AcDbEntity
  8
LAY-10
  6
CONTINUOUS
 62
     7
100
AcDbLine
 10
132.4999999999809
 20
915.9999999998453
 30
0.0
 11
132.4999999999809
 21
903.9999999998453
 31
0.0
  0
LINE
  5
2C1
330
1F
100
AcDbEntity
  8
LAY-10
  6
CONTINUOUS
 62
     7
100
AcDbLine
 10
132.4999999999809
 20
883.9999999998453
 30
0.0
 11
132.4999999999809
 21
895.9999999998453
 31
0.0
  0
LINE
  5
2C2
330
1F
100
AcDbEntity
  8
LAY-10
  6
CONTINUOUS
 62
     7
100
AcDbLine
 10
132.4999999999809
 20
863.9999999999452
 30
0.0
 11
132.4999999999809
 21
875.9999999997452
 31
0.0
  0
LINE
  5
2C3
330
1F
100
AcDbEntity
  8
LAY-10
  6
CONTINUOUS
 62
     7
100
AcDbLine
 10
132.4999999999809
 20
863.9999999999452
 30
0.0
 11
131.4999999999809
 21
862.9999999998952
 31
0.0
  0
LINE
  5
2C4
330
1F
100
AcDbEntity
  8
LAY-10
  6
CONTINUOUS
 62
     7
100
AcDbLine
 10
227.4999999999686
 20
895.9999999998468
 30
0.0
 11
132.4999999999809
 21
895.9999999998468
 31
0.0
  0
LINE
  5
2C5
330
1F
100
AcDbEntity
  8
LAY-10
  6
CONTINUOUS
 62
     7
100
AcDbLine
 10
132.4999999999809
 20
903.999999999843
 30
0.0
 11
227.4999999999677
 21
903.999999999843
 31
0.0
  0
LINE
  5
2C6
330
1F
100
AcDbEntity
  8
LAY-10
  6
CONTINUOUS
 62
     7
100
AcDbLine
 10
422.999999999941
 20
876.9999999997953
 30
0.0
 11
422.999999999941
 21
882.9999999997953
 31
0.0
  0
LINE
  5
2C7
330
1F
100
AcDbEntity
  8
LAY-10
  6
CONTINUOUS
 62
     7
100
AcDbLine
 10
437.999999999941
 20
876.9999999997953
 30
0.0
 11
437.999999999941
 21
882.9999999997953
 31
0.0
  0
LINE
  5
2C8
330
1F
100
AcDbEntity
  8
LAY-10
  6
CONTINUOUS
 62
     7
100
AcDbLine
 10
437.999999999941
 20
916.9999999998953
 30
0.0
 11
437.999999999941
 21
922.9999999998953
 31
0.0
  0
LINE
  5
2C9
330
1F
100
AcDbEntity
  8
LAY-10
  6
CONTINUOUS
 62
     7
100
AcDbLine
 10
422.999999999941
 20
916.9999999998953
 30
0.0
 11
422.999999999941
 21
922.9999999998953
 31
0.0
  0
LINE
  5
2CA
330
1F
100
AcDbEntity
  8
LAY-10
  6
CONTINUOUS
 62
     7
100
AcDbLine
 10
222.9999999999514
 20
916.9999999998953
 30
0.0
 11
222.9999999999514
 21
922.9999999998953
 31
0.0
  0
LINE
  5
2CB
330
1F
100
AcDbEntity
  8
LAY-10
  6
CONTINUOUS
 62
     7
100
AcDbLine
 10
237.9999999999514
 20
916.9999999998953
 30
0.0
 11
237.9999999999514
 21
922.9999999998953
 31
0.0
  0
LINE
  5
2CC
330
1F
100
AcDbEntity
  8
LAY-10
  6
CONTINUOUS
 62
     7
100
AcDbLine
 10
222.9999999999514
 20
876.9999999997953
 30
0.0
 11
222.9999999999514
 21
882.9999999997953
 31
0.0
  0
LINE
  5
2CD
330
1F
100
AcDbEntity
  8
LAY-10
  6
CONTINUOUS
 62
     7
100
AcDbLine
 10
237.9999999999514
 20
876.9999999997953
 30
0.0
 11
237.9999999999514
 21
882.9999999997953
 31
0.0
  0
LINE
  5
2CE
330
1F
100
AcDbEntity
  8
LAY-10
  6
CONTINUOUS
 62
     7
100
AcDbLine
 10
132.0999999999713
 20
923.5999999998171
 30
0.0
 11
143.899999999981
 21
923.5999999998171
 31
0.0
  0
LINE
  5
2CF
330
1F
100
AcDbEntity
  8
LAY-10
  6
CONTINUOUS
 62
     7
100
AcDbLine
 10
132.0999999999713
 20
923.5999999998171
 30
0.0
 11
132.0999999999713
 21
916.3999999997762
 31
0.0
  0
LINE
  5
2D0
330
1F
100
AcDbEntity
  8
LAY-10
  6
CONTINUOUS
 62
     7
100
AcDbLine
 10
132.1000000000013
 20
916.3999999997767
 30
0.0
 11
143.899999999981
 21
916.3999999997767
 31
0.0
  0
LINE
  5
2D1
330
1F
100
AcDbEntity
  8
LAY-10
  6
CONTINUOUS
 62
     7
100
AcDbLine
 10
143.899999999981
 20
923.5999999998171
 30
0.0
 11
143.899999999981
 21
916.3999999997767
 31
0.0
  0
LINE
  5
2D2
330
1F
100
AcDbEntity
  8
LAY-10
  6
CONTINUOUS
 62
     7
100
AcDbLine
 10
143.899999999981
 20
923.5999999998171
 30
0.0
 11
144.4999999999809
 21
922.9999999997966
 31
0.0
  0
LINE
  5
2D3
330
1F
100
AcDbEntity
  8
LAY-10
  6
CONTINUOUS
 62
     7
100
AcDbLine
 10
143.900000000001
 20
916.3999999997767
 30
0.0
 11
144.5000000000009
 21
916.9999999997966
 31
0.0
  0
LINE
  5
2D4
330
1F
100
AcDbEntity
  8
LAY-10
  6
CONTINUOUS
 62
     7
100
AcDbLine
 10
132.4999999999809
 20
923.9999999998453
 30
0.0
 11
132.0999999999522
 21
923.5999999998171
 31
0.0
  0
LINE
  5
2D5
330
1F
100
AcDbEntity
  8
LAY-10
  6
CONTINUOUS
 62
     7
100
AcDbLine
 10
132.4999999999809
 20
915.9999999998453
 30
0.0
 11
132.0999999999713
 21
916.3999999998754
 31
0.0
  0
LINE
  5
2D6
330
1F
100
AcDbEntity
  8
LAY-10
  6
CONTINUOUS
 62
     7
100
AcDbLine
 10
144.4999999998809
 20
922.999999999895
 30
0.0
 11
144.4999999998809
 21
916.9999999998948
 31
0.0
  0
LINE
  5
2D7
330
1F
100
AcDbEntity
  8
LAY-10
  6
CONTINUOUS
 62
     7
100
AcDbLine
 10
132.0999999999713
 20
903.5999999998171
 30
0.0
 11
143.899999999981
 21
903.5999999998171
 31
0.0
  0
LINE
  5
2D8
330
1F
100
AcDbEntity
  8
LAY-10
  6
CONTINUOUS
 62
     7
100
AcDbLine
 10
132.0999999999713
 20
903.5999999998171
 30
0.0
 11
132.0999999999713
 21
896.3999999997762
 31
0.0
  0
LINE
  5
2D9
330
1F
100
AcDbEntity
  8
LAY-10
  6
CONTINUOUS
 62
     7
100
AcDbLine
 10
132.1000000000013
 20
896.3999999997767
 30
0.0
 11
143.899999999981
 21
896.3999999997767
 31
0.0
  0
LINE
  5
2DA
330
1F
100
AcDbEntity
  8
LAY-10
  6
CONTINUOUS
 62
     7
100
AcDbLine
 10
143.899999999981
 20
903.5999999998171
 30
0.0
 11
143.899999999981
 21
896.3999999997767
 31
0.0
  0
LINE
  5
2DB
330
1F
100
AcDbEntity
  8
LAY-10
  6
CONTINUOUS
 62
     7
100
AcDbLine
 10
143.899999999981
 20
903.5999999998171
 30
0.0
 11
144.4999999999809
 21
902.9999999997966
 31
0.0
  0
LINE
  5
2DC
330
1F
100
AcDbEntity
  8
LAY-10
  6
CONTINUOUS
 62
     7
100
AcDbLine
 10
143.900000000001
 20
896.3999999997767
 30
0.0
 11
144.5000000000009
 21
896.9999999997966
 31
0.0
  0
LINE
  5
2DD
330
1F
100
AcDbEntity
  8
LAY-10
  6
CONTINUOUS
 62
     7
100
AcDbLine
 10
132.4999999999809
 20
903.9999999998453
 30
0.0
 11
132.0999999998921
 21
903.5999999998171
 31
0.0
  0
LINE
  5
2DE
330
1F
100
AcDbEntity
  8
LAY-10
  6
CONTINUOUS
 62
     7
100
AcDbLine
 10
132.4999999999809
 20
895.9999999998453
 30
0.0
 11
132.0999999999713
 21
896.3999999997953
 31
0.0
  0
LINE
  5
2DF
330
1F
100
AcDbEntity
  8
LAY-10
  6
CONTINUOUS
 62
     7
100
AcDbLine
 10
227.8542486890747
 20
902.9999999999935
 30
0.0
 11
144.499999999784
 21
902.9999999999935
 31
0.0
  0
LINE
  5
2E0
330
1F
100
AcDbEntity
  8
LAY-10
  6
CONTINUOUS
 62
     7
100
AcDbLine
 10
227.8542486890751
 20
896.9999999996961
 30
0.0
 11
144.4999999999009
 21
896.9999999996966
 31
0.0
  0
LINE
  5
2E1
330
1F
100
AcDbEntity
  8
LAY-10
  6
CONTINUOUS
 62
     7
100
AcDbLine
 10
144.4999999997808
 20
902.999999999995
 30
0.0
 11
144.4999999997808
 21
896.9999999996966
 31
0.0
  0
LINE
  5
2E2
330
1F
100
AcDbEntity
  8
LAY-10
  6
CONTINUOUS
 62
     7
100
AcDbLine
 10
132.0999999999713
 20
883.5999999998171
 30
0.0
 11
143.899999999981
 21
883.5999999998171
 31
0.0
  0
LINE
  5
2E3
330
1F
100
AcDbEntity
  8
LAY-10
  6
CONTINUOUS
 62
     7
100
AcDbLine
 10
132.0999999999713
 20
883.5999999998171
 30
0.0
 11
132.0999999999713
 21
876.3999999997762
 31
0.0
  0
LINE
  5
2E4
330
1F
100
AcDbEntity
  8
LAY-10
  6
CONTINUOUS
 62
     7
100
AcDbLine
 10
132.1000000000013
 20
876.3999999997767
 30
0.0
 11
143.899999999981
 21
876.3999999997767
 31
0.0
  0
LINE
  5
2E5
330
1F
100
AcDbEntity
  8
LAY-10
  6
CONTINUOUS
 62
     7
100
AcDbLine
 10
143.899999999981
 20
883.5999999998171
 30
0.0
 11
143.899999999981
 21
876.3999999997767
 31
0.0
  0
LINE
  5
2E6
330
1F
100
AcDbEntity
  8
LAY-10
  6
CONTINUOUS
 62
     7
100
AcDbLine
 10
143.899999999981
 20
883.5999999998171
 30
0.0
 11
144.4999999999809
 21
882.9999999997966
 31
0.0
  0
LINE
  5
2E7
330
1F
100
AcDbEntity
  8
LAY-10
  6
CONTINUOUS
 62
     7
100
AcDbLine
 10
143.900000000001
 20
876.3999999997767
 30
0.0
 11
144.5000000000009
 21
876.9999999997966
 31
0.0
  0
LINE
  5
2E8
330
1F
100
AcDbEntity
  8
LAY-10
  6
CONTINUOUS
 62
     7
100
AcDbLine
 10
132.4999999999809
 20
883.9999999998453
 30
0.0
 11
132.0999999999713
 21
883.5999999998156
 31
0.0
  0
LINE
  5
2E9
330
1F
100
AcDbEntity
  8
LAY-10
  6
CONTINUOUS
 62
     7
100
AcDbLine
 10
132.4999999999809
 20
875.9999999997452
 30
0.0
 11
132.0999999999694
 21
876.3999999997767
 31
0.0
  0
LINE
  5
2EA
330
1F
100
AcDbEntity
  8
LAY-10
  6
CONTINUOUS
 62
     7
100
AcDbLine
 10
144.4999999999809
 20
882.9999999997949
 30
0.0
 11
144.4999999999809
 21
876.9999999997975
 31
0.0
  0
LINE
  5
2EB
330
1F
100
AcDbEntity
  8
LAY-10
  6
CONTINUOUS
 62
     7
100
AcDbLine
 10
536.4999999999809
 20
916.9999999998953
 30
0.0
 11
536.4999999999809
 21
922.9999999998953
 31
0.0
  0
LINE
  5
2EC
330
1F
100
AcDbEntity
  8
LAY-10
  6
CONTINUOUS
 62
     7
100
AcDbLine
 10
524.4999999999809
 20
896.9999999999953
 30
0.0
 11
524.4999999999809
 21
902.9999999999953
 31
0.0
  0
LINE
  5
2ED
330
1F
100
AcDbEntity
  8
LAY-10
  6
CONTINUOUS
 62
     7
100
AcDbLine
 10
736.4999999999808
 20
916.9999999998953
 30
0.0
 11
736.4999999999808
 21
922.9999999998953
 31
0.0
  0
LINE
  5
2EE
330
1F
100
AcDbEntity
  8
LAY-10
  6
CONTINUOUS
 62
     7
100
AcDbLine
 10
724.4999999999809
 20
896.9999999999953
 30
0.0
 11
724.4999999999809
 21
902.9999999999953
 31
0.0
  0
LINE
  5
2EF
330
1F
100
AcDbEntity
  8
LAY-10
  6
CONTINUOUS
 62
     7
100
AcDbLine
 10
131.4999999999814
 20
936.9999999997953
 30
0.0
 11
131.4999999999814
 21
862.9999999998929
 31
0.0
  0
LINE
  5
2F0
330
1F
100
AcDbEntity
  8
LAY-10
  6
CONTINUOUS
 62
     7
100
AcDbLine
 10
427.8542486890543
 20
902.9999999999931
 30
0.0
 11
233.1457513108676
 21
902.9999999999931
 31
0.0
  0
LINE
  5
2F1
330
1F
100
AcDbEntity
  8
LAY-10
  6
CONTINUOUS
 62
     7
100
AcDbLine
 10
427.8542486890547
 20
896.9999999996961
 30
0.0
 11
233.1457513108667
 21
896.9999999996961
 31
0.0
  0
LINE
  5
2F2
330
1F
100
AcDbEntity
  8
LAY-10
  6
CONTINUOUS
 62
     7
100
AcDbLine
 10
627.8542486890847
 20
902.9999999999931
 30
0.0
 11
433.1457513108472
 21
902.9999999999931
 31
0.0
  0
LINE
  5
2F3
330
1F
100
AcDbEntity
  8
LAY-10
  6
CONTINUOUS
 62
     7
100
AcDbLine
 10
627.8542486890851
 20
896.9999999996961
 30
0.0
 11
433.1457513108472
 21
896.9999999996961
 31
0.0
  0
CIRCLE
  5
2F4
330
1F
100
AcDbEntity
  8
LAY-10
  6
CONTINUOUS
 62
     7
100
AcDbCircle
 10
630.5000000002124
 20
922.4999999998344
 30
0.0
 40
2.3
  0
CIRCLE
  5
2F5
330
1F
100
AcDbEntity
  8
LAY-10
  6
CONTINUOUS
 62
     7
100
AcDbCircle
 10
630.5000000002124
 20
877.4999999998562
 30
0.0
 40
2.3
  0
CIRCLE
  5
2F6
330
1F
100
AcDbEntity
  8
LAY-10
  6
CONTINUOUS
 62
     7
100
AcDbCircle
 10
430.5000000001824
 20
922.4999999998344
 30
0.0
 40
2.3
  0
CIRCLE
  5
2F7
330
1F
100
AcDbEntity
  8
LAY-10
  6
CONTINUOUS
 62
     7
100
AcDbCircle
 10
430.5000000001824
 20
877.4999999998562
 30
0.0
 40
2.3
  0
CIRCLE
  5
2F8
330
1F
100
AcDbEntity
  8
LAY-10
  6
CONTINUOUS
 62
     7
100
AcDbCircle
 10
230.5000000002024
 20
922.4999999998344
 30
0.0
 40
2.3
  0
CIRCLE
  5
2F9
330
1F
100
AcDbEntity
  8
LAY-10
  6
CONTINUOUS
 62
     7
100
AcDbCircle
 10
230.5000000002024
 20
877.4999999998562
 30
0.0
 40
2.3
  0
LINE
  5
2FA
330
1F
100
AcDbEntity
  8
LAY-10
  6
CONTINUOUS
 62
     7
100
AcDbLine
 10
132.4999999999809
 20
923.999999999893
 30
0.0
 11
228.756440422836
 21
923.999999999893
 31
0.0
  0
LINE
  5
2FB
330
1F
100
AcDbEntity
  8
LAY-10
  6
CONTINUOUS
 62
     7
100
AcDbLine
 10
228.2550055681509
 20
922.999999999893
 30
0.0
 11
144.4999999998845
 21
922.999999999893
 31
0.0
  0
LINE
  5
2FC
330
1F
100
AcDbEntity
  8
LAY-10
  6
CONTINUOUS
 62
     7
100
AcDbLine
 10
228.7564404228806
 20
875.9999999997467
 30
0.0
 11
132.4999999999809
 21
875.9999999997467
 31
0.0
  0
LINE
  5
2FD
330
1F
100
AcDbEntity
  8
LAY-10
  6
CONTINUOUS
 62
     7
100
AcDbLine
 10
228.2550055681513
 20
876.9999999997975
 30
0.0
 11
144.5000000000018
 21
876.9999999997975
 31
0.0
  0
LINE
  5
2FE
330
1F
100
AcDbEntity
  8
LAY-10
  6
CONTINUOUS
 62
     7
100
AcDbLine
 10
232.2435595775683
 20
923.999999999893
 30
0.0
 11
428.7564404228161
 21
923.999999999893
 31
0.0
  0
LINE
  5
2FF
330
1F
100
AcDbEntity
  8
LAY-10
  6
CONTINUOUS
 62
     7
100
AcDbLine
 10
428.255005568131
 20
922.999999999893
 30
0.0
 11
232.7449944322534
 21
922.999999999893
 31
0.0
  0
LINE
  5
300
330
1F
100
AcDbEntity
  8
LAY-10
  6
CONTINUOUS
 62
     7
100
AcDbLine
 10
428.7564404228607
 20
875.9999999997467
 30
0.0
 11
232.2435595775241
 21
875.9999999997464
 31
0.0
  0
LINE
  5
301
330
1F
100
AcDbEntity
  8
LAY-10
  6
CONTINUOUS
 62
     7
100
AcDbLine
 10
428.2550055681314
 20
876.9999999997973
 30
0.0
 11
232.7449944322534
 21
876.9999999997973
 31
0.0
  0
LINE
  5
302
330
1F
100
AcDbEntity
  8
LAY-10
  6
CONTINUOUS
 62
     7
100
AcDbLine
 10
628.7564404228906
 20
875.9999999997464
 30
0.0
 11
432.2435595775042
 21
875.9999999997464
 31
0.0
  0
LINE
  5
303
330
1F
100
AcDbEntity
  8
LAY-10
  6
CONTINUOUS
 62
     7
100
AcDbLine
 10
628.2550055681613
 20
876.9999999997973
 30
0.0
 11
432.7449944322335
 21
876.9999999997973
 31
0.0
  0
LINE
  5
304
330
1F
100
AcDbEntity
  8
LAY-10
  6
CONTINUOUS
 62
     7
100
AcDbLine
 10
432.2435595775483
 20
923.999999999893
 30
0.0
 11
628.7564404228465
 21
923.999999999893
 31
0.0
  0
LINE
  5
305
330
1F
100
AcDbEntity
  8
LAY-10
  6
CONTINUOUS
 62
     7
100
AcDbLine
 10
628.2550055681613
 20
922.9999999998935
 30
0.0
 11
432.7449944322335
 21
922.9999999998935
 31
0.0
  0
LINE
  5
306
330
1F
100
AcDbEntity
  8
LAY-10
  6
CONTINUOUS
 62
     7
100
AcDbLine
 10
818.5
 20
895.9999999998468
 30
0.0
 11
633.4999999999836
 21
895.9999999998468
 31
0.0
  0
LINE
  5
307
330
1F
100
AcDbEntity
  8
LAY-10
  6
CONTINUOUS
 62
     7
100
AcDbLine
 10
633.4999999999841
 20
903.999999999843
 30
0.0
 11
818.5
 21
903.999999999843
 31
0.0
  0
LINE
  5
308
330
1F
100
AcDbEntity
  8
LAY-10
  6
CONTINUOUS
 62
     7
100
AcDbLine
 10
132.4999999999809
 20
863.9999999999429
 30
0.0
 11
818.5
 21
863.999999999943
 31
0.0
  0
LINE
  5
309
330
1F
100
AcDbEntity
  8
LAY-10
  6
CONTINUOUS
 62
     7
100
AcDbLine
 10
132.4999999999809
 20
883.999999999843
 30
0.0
 11
818.5
 21
883.9999999998431
 31
0.0
  0
LINE
  5
30A
330
1F
100
AcDbEntity
  8
LAY-10
  6
CONTINUOUS
 62
     7
100
AcDbLine
 10
818.5
 20
915.9999999998473
 30
0.0
 11
132.4999999999809
 21
915.9999999998468
 31
0.0
  0
LINE
  5
30B
330
1F
100
AcDbEntity
  8
LAY-10
  6
CONTINUOUS
 62
     7
100
AcDbLine
 10
818.5
 20
935.9999999997973
 30
0.0
 11
132.4999999999809
 21
935.9999999997967
 31
0.0
  0
LINE
  5
30C
330
1F
100
AcDbEntity
  8
LAY-10
  6
CONTINUOUS
 62
     7
100
AcDbLine
 10
818.5
 20
862.9999999998939
 30
0.0
 11
131.4999999999791
 21
862.9999999998929
 31
0.0
  0
LINE
  5
30D
330
1F
100
AcDbEntity
  8
LAY-10
  6
CONTINUOUS
 62
     7
100
AcDbLine
 10
818.5
 20
936.9999999997972
 30
0.0
 11
131.5000000000296
 21
936.9999999997966
 31
0.0
  0
LINE
  5
30E
330
1F
100
AcDbEntity
  8
LAY-10
  6
CONTINUOUS
 62
     7
100
AcDbLine
 10
818.5
 20
916.9999999998953
 30
0.0
 11
144.5000000000991
 21
916.9999999998948
 31
0.0
  0
LINE
  5
30F
330
1F
100
AcDbEntity
  8
LAY-10
  6
CONTINUOUS
 62
     7
100
AcDbLine
 10
818.5
 20
882.9999999997962
 30
0.0
 11
144.4999999999827
 21
882.9999999997957
 31
0.0
  0
LINE
  5
310
330
1F
100
AcDbEntity
  8
LAY-10
  6
CONTINUOUS
 62
     7
100
AcDbLine
 10
633.1457513112159
 20
902.9999999996949
 30
0.0
 11
818.5
 21
902.9999999996949
 31
0.0
  0
LINE
  5
311
330
1F
100
AcDbEntity
  8
LAY-10
  6
CONTINUOUS
 62
     7
100
AcDbLine
 10
633.1457513108758
 20
896.9999999996948
 30
0.0
 11
818.5
 21
896.9999999996948
 31
0.0
  0
LINE
  5
312
330
1F
100
AcDbEntity
  8
LAY-10
  6
CONTINUOUS
 62
     7
100
AcDbLine
 10
632.2435595775783
 20
923.999999999893
 30
0.0
 11
818.5
 21
923.999999999893
 31
0.0
  0
LINE
  5
313
330
1F
100
AcDbEntity
  8
LAY-10
  6
CONTINUOUS
 62
     7
100
AcDbLine
 10
818.5
 20
922.9999999998935
 30
0.0
 11
632.7449944322634
 21
922.9999999998935
 31
0.0
  0
LINE
  5
314
330
1F
100
AcDbEntity
  8
LAY-10
  6
CONTINUOUS
 62
     7
100
AcDbLine
 10
818.5
 20
875.9999999997467
 30
0.0
 11
632.2435595775341
 21
875.9999999997464
 31
0.0
  0
LINE
  5
315
330
1F
100
AcDbEntity
  8
LAY-10
  6
CONTINUOUS
 62
     7
100
AcDbLine
 10
818.5
 20
876.9999999997975
 30
0.0
 11
632.7449944322634
 21
876.9999999997972
 31
0.0
  0
LINE
  5
316
330
1F
100
AcDbEntity
  8
LAY-10
  6
CONTINUOUS
 62
     7
100
AcDbLine
 10
818.5
 20
936.9999999997901
 30
0.0
 11
818.5
 21
922.9999999998935
 31
0.0
  0
LINE
  5
317
330
1F
100
AcDbEntity
  8
LAY-10
  6
CONTINUOUS
 62
     7
100
AcDbLine
 10
818.5
 20
916.9999999998953
 30
0.0
 11
818.5
 21
902.9999999996949
 31
0.0
  0
LINE
  5
318
330
1F
100
AcDbEntity
  8
LAY-10
  6
CONTINUOUS
 62
     7
100
AcDbLine
 10
818.5
 20
896.9999999996948
 30
0.0
 11
818.5
 21
882.9999999997962
 31
0.0
  0
LINE
  5
319
330
1F
100
AcDbEntity
  8
LAY-10
  6
CONTINUOUS
 62
     7
100
AcDbLine
 10
818.5
 20
876.9999999997975
 30
0.0
 11
818.5
 21
862.9999999998901
 31
0.0
  0
LINE
  5
31A
330
1F
100
AcDbEntity
  8
LAY-10
  6
CONTINUOUS
 62
     7
100
AcDbLine
 10
1109.0
 20
930.00000000007
 30
0.0
 11
1112.997114317
 21
930.00000000007
 31
0.0
  0
ARC
  5
31B
330
1F
100
AcDbEntity
  8
LAY-10
  6
CONTINUOUS
 62
     7
100
AcDbCircle
 10
230.4999999999699
 20
899.9999999998499
 30
0.0
 40
5.25
100
AcDbArc
 50
145.1500954190454
 51
214.8499045810927
  0
LINE
  5
31C
330
1F
100
AcDbEntity
  8
LAY-10
  6
CONTINUOUS
 62
     7
100
AcDbLine
 10
222.9999999999297
 20
902.9999999999934
 30
0.0
 11
222.9999999999297
 21
896.9999999996961
 31
0.0
  0
ARC
  5
31D
330
1F
100
AcDbEntity
  8
LAY-10
  6
CONTINUOUS
 62
     7
100
AcDbCircle
 10
230.4999999999699
 20
899.9999999998499
 30
0.0
 40
5.25
100
AcDbArc
 50
325.1500954189072
 51
34.84990458094907
  0
LINE
  5
31E
330
1F
100
AcDbEntity
  8
LAY-10
  6
CONTINUOUS
 62
     7
100
AcDbLine
 10
237.9999999999293
 20
902.9999999999899
 30
0.0
 11
237.9999999999293
 21
896.9999999996999
 31
0.0
  0
ARC
  5
31F
330
1F
100
AcDbEntity
  8
LAY-10
  6
CONTINUOUS
 62
     7
100
AcDbCircle
 10
630.4999999999799
 20
899.9999999998499
 30
0.0
 40
5.25
100
AcDbArc
 50
145.1500954190454
 51
214.8499045810927
  0
LINE
  5
320
330
1F
100
AcDbEntity
  8
LAY-10
  6
CONTINUOUS
 62
     7
100
AcDbLine
 10
622.9999999999396
 20
902.9999999999934
 30
0.0
 11
622.9999999999396
 21
896.9999999996961
 31
0.0
  0
ARC
  5
321
330
1F
100
AcDbEntity
  8
LAY-10
  6
CONTINUOUS
 62
     7
100
AcDbCircle
 10
630.4999999999799
 20
899.9999999998499
 30
0.0
 40
5.25
100
AcDbArc
 50
325.1500954189072
 51
34.84990458094907
  0
LINE
  5
322
330
1F
100
AcDbEntity
  8
LAY-10
  6
CONTINUOUS
 62
     7
100
AcDbLine
 10
637.9999999999393
 20
902.9999999999899
 30
0.0
 11
637.9999999999393
 21
896.9999999996999
 31
0.0
  0
LINE
  5
323
330
1F
100
AcDbEntity
  8
LAY-10
  6
CONTINUOUS
 62
     7
100
AcDbLine
 10
201.000000000002
 20
1233.000000000004
 30
0.0
 11
136.000000000002
 21
1233.000000000004
 31
0.0
  0
LINE
  5
324
330
1F
100
AcDbEntity
  8
LAY-10
  6
CONTINUOUS
 62
     7
100
AcDbLine
 10
195.0000000000038
 20
1239.000000000004
 30
0.0
 11
195.0000000000038
 21
1233.000000000004
 31
0.0
  0
LINE
  5
325
330
1F
100
AcDbEntity
  8
LAY-10
  6
CONTINUOUS
 62
     7
100
AcDbLine
 10
157.0000000000061
 20
1233.000000000004
 30
0.0
 11
157.0000000000061
 21
1239.000000000004
 31
0.0
  0
LINE
  5
326
330
1F
100
AcDbEntity
  8
LAY-10
  6
CONTINUOUS
 62
     7
100
AcDbLine
 10
151.0000000000082
 20
1233.000000000004
 30
0.0
 11
151.0000000000082
 21
1239.000000000004
 31
0.0
  0
LINE
  5
327
330
1F
100
AcDbEntity
  8
LAY-10
  6
CONTINUOUS
 62
     7
100
AcDbLine
 10
201.0
 20
1228.500000000003
 30
0.0
 11
136.000000000002
 21
1228.500000000003
 31
0.0
  0
LINE
  5
328
330
1F
100
AcDbEntity
  8
LAY-10
  6
CONTINUOUS
 62
     7
100
AcDbLine
 10
201.000000000002
 20
1239.000000000004
 30
0.0
 11
201.000000000002
 21
1228.5
 31
0.0
  0
LINE
  5
329
330
1F
100
AcDbEntity
  8
LAY-10
  6
CONTINUOUS
 62
     7
100
AcDbLine
 10
201.000000000002
 20
566.9999999999782
 30
0.0
 11
136.000000000002
 21
566.9999999999782
 31
0.0
  0
LINE
  5
32A
330
1F
100
AcDbEntity
  8
LAY-10
  6
CONTINUOUS
 62
     7
100
AcDbLine
 10
195.0000000000039
 20
560.9999999999782
 30
0.0
 11
195.0000000000039
 21
566.9999999999782
 31
0.0
  0
LINE
  5
32B
330
1F
100
AcDbEntity
  8
LAY-10
  6
CONTINUOUS
 62
     7
100
AcDbLine
 10
157.0000000000061
 20
566.9999999999782
 30
0.0
 11
157.0000000000061
 21
560.9999999999782
 31
0.0
  0
LINE
  5
32C
330
1F
100
AcDbEntity
  8
LAY-10
  6
CONTINUOUS
 62
     7
100
AcDbLine
 10
151.0000000000082
 20
566.9999999999782
 30
0.0
 11
151.0000000000082
 21
560.9999999999782
 31
0.0
  0
LINE
  5
32D
330
1F
100
AcDbEntity
  8
LAY-10
  6
CONTINUOUS
 62
     7
100
AcDbLine
 10
201.0
 20
571.4999999999786
 30
0.0
 11
136.000000000002
 21
571.4999999999786
 31
0.0
  0
LINE
  5
32E
330
1F
100
AcDbEntity
  8
LAY-10
  6
CONTINUOUS
 62
     7
100
AcDbLine
 10
201.000000000002
 20
560.9999999999782
 30
0.0
 11
201.000000000002
 21
571.4999999999818
 31
0.0
  0
LINE
  5
32F
330
1F
100
AcDbEntity
  8
LAY-10
  6
CONTINUOUS
 62
     7
100
AcDbLine
 10
749.0000000000041
 20
1233.000000000003
 30
0.0
 11
814.0000000000043
 21
1233.000000000003
 31
0.0
  0
LINE
  5
330
330
1F
100
AcDbEntity
  8
LAY-10
  6
CONTINUOUS
 62
     7
100
AcDbLine
 10
755.0000000000024
 20
1239.000000000003
 30
0.0
 11
755.0000000000024
 21
1233.000000000003
 31
0.0
  0
LINE
  5
331
330
1F
100
AcDbEntity
  8
LAY-10
  6
CONTINUOUS
 62
     7
100
AcDbLine
 10
793.0000000000001
 20
1233.000000000003
 30
0.0
 11
793.0000000000001
 21
1239.000000000003
 31
0.0
  0
LINE
  5
332
330
1F
100
AcDbEntity
  8
LAY-10
  6
CONTINUOUS
 62
     7
100
AcDbLine
 10
798.9999999999981
 20
1233.000000000003
 30
0.0
 11
798.9999999999981
 21
1239.000000000003
 31
0.0
  0
LINE
  5
333
330
1F
100
AcDbEntity
  8
LAY-10
  6
CONTINUOUS
 62
     7
100
AcDbLine
 10
749.0000000000063
 20
1228.500000000003
 30
0.0
 11
814.0000000000043
 21
1228.500000000003
 31
0.0
  0
LINE
  5
334
330
1F
100
AcDbEntity
  8
LAY-10
  6
CONTINUOUS
 62
     7
100
AcDbLine
 10
749.0000000000041
 20
1239.000000000003
 30
0.0
 11
749.0000000000041
 21
1228.5
 31
0.0
  0
LINE
  5
335
330
1F
100
AcDbEntity
  8
LAY-10
  6
CONTINUOUS
 62
     7
100
AcDbLine
 10
749.0000000000028
 20
566.9999999999776
 30
0.0
 11
814.0000000000027
 21
566.9999999999775
 31
0.0
  0
LINE
  5
336
330
1F
100
AcDbEntity
  8
LAY-10
  6
CONTINUOUS
 62
     7
100
AcDbLine
 10
755.0000000000009
 20
560.9999999999776
 30
0.0
 11
755.0000000000009
 21
566.9999999999776
 31
0.0
  0
LINE
  5
337
330
1F
100
AcDbEntity
  8
LAY-10
  6
CONTINUOUS
 62
     7
100
AcDbLine
 10
792.9999999999987
 20
566.9999999999775
 30
0.0
 11
792.9999999999987
 21
560.9999999999775
 31
0.0
  0
LINE
  5
338
330
1F
100
AcDbEntity
  8
LAY-10
  6
CONTINUOUS
 62
     7
100
AcDbLine
 10
798.9999999999966
 20
566.9999999999775
 30
0.0
 11
798.9999999999966
 21
560.9999999999775
 31
0.0
  0
LINE
  5
339
330
1F
100
AcDbEntity
  8
LAY-10
  6
CONTINUOUS
 62
     7
100
AcDbLine
 10
749.0000000000049
 20
571.4999999999781
 30
0.0
 11
814.0000000000028
 21
571.499999999978
 31
0.0
  0
LINE
  5
33A
330
1F
100
AcDbEntity
  8
LAY-10
  6
CONTINUOUS
 62
     7
100
AcDbLine
 10
749.0000000000028
 20
560.9999999999776
 30
0.0
 11
749.000000000003
 21
571.4999999999812
 31
0.0
  0
LINE
  5
33B
330
1F
100
AcDbEntity
  8
LAY-10
  6
CONTINUOUS
 62
     7
100
AcDbLine
 10
200.9999999999997
 20
349.9999999999865
 30
0.0
 11
200.9999999999997
 21
270.9999999999717
 31
0.0
  0
LINE
  5
33C
330
1F
100
AcDbEntity
  8
LAY-10
  6
CONTINUOUS
 62
     7
100
AcDbLine
 10
749.0000000000072
 20
349.9999999999865
 30
0.0
 11
749.0000000000072
 21
270.9999999999717
 31
0.0
  0
LINE
  5
33D
330
1F
100
AcDbEntity
  8
LAY-10
  6
CONTINUOUS
 62
     7
100
AcDbLine
 10
1075.0
 20
1228.499999999999
 30
0.0
 11
1154.000000000014
 21
1228.499999999999
 31
0.0
  0
LINE
  5
33E
330
1F
100
AcDbEntity
  8
LAY-10
  6
CONTINUOUS
 62
     7
100
AcDbLine
 10
1075.000000000002
 20
571.4999999999783
 30
0.0
 11
1154.000000000014
 21
571.4999999999783
 31
0.0
  0
LINE
  5
33F
330
1F
100
AcDbEntity
  8
LAY-10
  6
CONTINUOUS
 62
     7
100
AcDbLine
 10
253.4999999999868
 20
935.249999999935
 30
0.0
 11
253.4999999999868
 21
930.249999999935
 31
0.0
  0
LINE
  5
340
330
1F
100
AcDbEntity
  8
LAY-10
  6
CONTINUOUS
 62
     7
100
AcDbLine
 10
253.4999999999868
 20
930.249999999935
 30
0.0
 11
248.4999999999868
 21
930.249999999935
 31
0.0
  0
LINE
  5
341
330
1F
100
AcDbEntity
  8
LAY-10
  6
CONTINUOUS
 62
     7
100
AcDbLine
 10
248.4999999999868
 20
929.7499999999349
 30
0.0
 11
253.4999999999868
 21
929.7499999999349
 31
0.0
  0
LINE
  5
342
330
1F
100
AcDbEntity
  8
LAY-10
  6
CONTINUOUS
 62
     7
100
AcDbLine
 10
248.4999999999868
 20
929.7499999999349
 30
0.0
 11
248.4999999999868
 21
924.7499999999349
 31
0.0
  0
LINE
  5
343
330
1F
100
AcDbEntity
  8
LAY-10
  6
CONTINUOUS
 62
     7
100
AcDbLine
 10
253.4999999999868
 20
929.7499999999349
 30
0.0
 11
253.4999999999868
 21
924.7499999999349
 31
0.0
  0
LINE
  5
344
330
1F
100
AcDbEntity
  8
LAY-10
  6
CONTINUOUS
 62
     7
100
AcDbLine
 10
253.4999999999868
 20
924.7499999999349
 30
0.0
 11
248.4999999999868
 21
924.7499999999349
 31
0.0
  0
LINE
  5
345
330
1F
100
AcDbEntity
  8
LAY-10
  6
CONTINUOUS
 62
     7
100
AcDbLine
 10
253.4999999999868
 20
935.249999999935
 30
0.0
 11
248.4999999999868
 21
930.249999999935
 31
0.0
  0
LINE
  5
346
330
1F
100
AcDbEntity
  8
LAY-10
  6
CONTINUOUS
 62
     7
100
AcDbLine
 10
253.4999999999868
 20
929.7499999999349
 30
0.0
 11
248.4999999999868
 21
924.7499999999349
 31
0.0
  0
LINE
  5
347
330
1F
100
AcDbEntity
  8
LAY-10
  6
CONTINUOUS
 62
     7
100
AcDbLine
 10
248.4999999999868
 20
929.7499999999349
 30
0.0
 11
253.4999999999868
 21
924.7499999999349
 31
0.0
  0
LINE
  5
348
330
1F
100
AcDbEntity
  8
LAY-10
  6
CONTINUOUS
 62
     7
100
AcDbLine
 10
242.9999999999868
 20
929.7499999999349
 30
0.0
 11
247.9999999999868
 21
924.7499999999349
 31
0.0
  0
LINE
  5
349
330
1F
100
AcDbEntity
  8
LAY-10
  6
CONTINUOUS
 62
     7
100
AcDbLine
 10
247.9999999999868
 20
929.7499999999349
 30
0.0
 11
242.9999999999868
 21
924.7499999999349
 31
0.0
  0
LINE
  5
34A
330
1F
100
AcDbEntity
  8
LAY-10
  6
CONTINUOUS
 62
     7
100
AcDbLine
 10
247.9999999999868
 20
924.7499999999349
 30
0.0
 11
242.9999999999868
 21
924.7499999999349
 31
0.0
  0
LINE
  5
34B
330
1F
100
AcDbEntity
  8
LAY-10
  6
CONTINUOUS
 62
     7
100
AcDbLine
 10
247.9999999999868
 20
929.7499999999349
 30
0.0
 11
247.9999999999868
 21
924.7499999999349
 31
0.0
  0
LINE
  5
34C
330
1F
100
AcDbEntity
  8
LAY-10
  6
CONTINUOUS
 62
     7
100
AcDbLine
 10
242.9999999999868
 20
929.7499999999349
 30
0.0
 11
242.9999999999868
 21
924.7499999999349
 31
0.0
  0
LINE
  5
34D
330
1F
100
AcDbEntity
  8
LAY-10
  6
CONTINUOUS
 62
     7
100
AcDbLine
 10
242.9999999999868
 20
929.7499999999349
 30
0.0
 11
247.9999999999868
 21
929.7499999999349
 31
0.0
  0
LINE
  5
34E
330
1F
100
AcDbEntity
  8
LAY-10
  6
CONTINUOUS
 62
     7
100
AcDbLine
 10
247.9999999999868
 20
930.249999999935
 30
0.0
 11
242.9999999999868
 21
930.249999999935
 31
0.0
  0
LINE
  5
34F
330
1F
100
AcDbEntity
  8
LAY-10
  6
CONTINUOUS
 62
     7
100
AcDbLine
 10
253.4999999999868
 20
915.2499999999449
 30
0.0
 11
253.4999999999868
 21
910.2499999999449
 31
0.0
  0
LINE
  5
350
330
1F
100
AcDbEntity
  8
LAY-10
  6
CONTINUOUS
 62
     7
100
AcDbLine
 10
253.4999999999868
 20
915.2499999999449
 30
0.0
 11
248.4999999999868
 21
915.2499999999449
 31
0.0
  0
LINE
  5
351
330
1F
100
AcDbEntity
  8
LAY-10
  6
CONTINUOUS
 62
     7
100
AcDbLine
 10
253.4999999999868
 20
910.2499999999449
 30
0.0
 11
248.4999999999868
 21
910.2499999999449
 31
0.0
  0
LINE
  5
352
330
1F
100
AcDbEntity
  8
LAY-10
  6
CONTINUOUS
 62
     7
100
AcDbLine
 10
248.4999999999868
 20
910.2499999999449
 30
0.0
 11
248.4999999999868
 21
915.2499999999449
 31
0.0
  0
LINE
  5
353
330
1F
100
AcDbEntity
  8
LAY-10
  6
CONTINUOUS
 62
     7
100
AcDbLine
 10
248.4999999999868
 20
909.7499999999449
 30
0.0
 11
253.4999999999868
 21
909.7499999999449
 31
0.0
  0
LINE
  5
354
330
1F
100
AcDbEntity
  8
LAY-10
  6
CONTINUOUS
 62
     7
100
AcDbLine
 10
248.4999999999868
 20
909.7499999999449
 30
0.0
 11
248.4999999999868
 21
904.7499999999449
 31
0.0
  0
LINE
  5
355
330
1F
100
AcDbEntity
  8
LAY-10
  6
CONTINUOUS
 62
     7
100
AcDbLine
 10
253.4999999999868
 20
909.7499999999449
 30
0.0
 11
253.4999999999868
 21
904.7499999999449
 31
0.0
  0
LINE
  5
356
330
1F
100
AcDbEntity
  8
LAY-10
  6
CONTINUOUS
 62
     7
100
AcDbLine
 10
253.4999999999868
 20
904.7499999999449
 30
0.0
 11
248.4999999999868
 21
904.7499999999449
 31
0.0
  0
LINE
  5
357
330
1F
100
AcDbEntity
  8
LAY-10
  6
CONTINUOUS
 62
     7
100
AcDbLine
 10
253.4999999999868
 20
915.2499999999449
 30
0.0
 11
248.4999999999868
 21
910.2499999999449
 31
0.0
  0
LINE
  5
358
330
1F
100
AcDbEntity
  8
LAY-10
  6
CONTINUOUS
 62
     7
100
AcDbLine
 10
253.4999999999868
 20
909.7499999999449
 30
0.0
 11
248.4999999999868
 21
904.7499999999449
 31
0.0
  0
LINE
  5
359
330
1F
100
AcDbEntity
  8
LAY-10
  6
CONTINUOUS
 62
     7
100
AcDbLine
 10
248.4999999999868
 20
915.2499999999449
 30
0.0
 11
253.4999999999868
 21
910.2499999999449
 31
0.0
  0
LINE
  5
35A
330
1F
100
AcDbEntity
  8
LAY-10
  6
CONTINUOUS
 62
     7
100
AcDbLine
 10
248.4999999999868
 20
909.7499999999449
 30
0.0
 11
253.4999999999868
 21
904.7499999999449
 31
0.0
  0
LINE
  5
35B
330
1F
100
AcDbEntity
  8
LAY-10
  6
CONTINUOUS
 62
     7
100
AcDbLine
 10
242.9999999999868
 20
909.7499999999449
 30
0.0
 11
247.9999999999868
 21
904.7499999999449
 31
0.0
  0
LINE
  5
35C
330
1F
100
AcDbEntity
  8
LAY-10
  6
CONTINUOUS
 62
     7
100
AcDbLine
 10
242.9999999999868
 20
915.2499999999449
 30
0.0
 11
247.9999999999868
 21
910.2499999999449
 31
0.0
  0
LINE
  5
35D
330
1F
100
AcDbEntity
  8
LAY-10
  6
CONTINUOUS
 62
     7
100
AcDbLine
 10
247.9999999999868
 20
909.7499999999449
 30
0.0
 11
242.9999999999868
 21
904.7499999999449
 31
0.0
  0
LINE
  5
35E
330
1F
100
AcDbEntity
  8
LAY-10
  6
CONTINUOUS
 62
     7
100
AcDbLine
 10
247.9999999999868
 20
915.2499999999449
 30
0.0
 11
242.9999999999868
 21
910.2499999999449
 31
0.0
  0
LINE
  5
35F
330
1F
100
AcDbEntity
  8
LAY-10
  6
CONTINUOUS
 62
     7
100
AcDbLine
 10
247.9999999999868
 20
904.7499999999449
 30
0.0
 11
242.9999999999868
 21
904.7499999999449
 31
0.0
  0
LINE
  5
360
330
1F
100
AcDbEntity
  8
LAY-10
  6
CONTINUOUS
 62
     7
100
AcDbLine
 10
247.9999999999868
 20
909.7499999999449
 30
0.0
 11
247.9999999999868
 21
904.7499999999449
 31
0.0
  0
LINE
  5
361
330
1F
100
AcDbEntity
  8
LAY-10
  6
CONTINUOUS
 62
     7
100
AcDbLine
 10
242.9999999999868
 20
909.7499999999449
 30
0.0
 11
242.9999999999868
 21
904.7499999999449
 31
0.0
  0
LINE
  5
362
330
1F
100
AcDbEntity
  8
LAY-10
  6
CONTINUOUS
 62
     7
100
AcDbLine
 10
242.9999999999868
 20
909.7499999999449
 30
0.0
 11
247.9999999999868
 21
909.7499999999449
 31
0.0
  0
LINE
  5
363
330
1F
100
AcDbEntity
  8
LAY-10
  6
CONTINUOUS
 62
     7
100
AcDbLine
 10
242.9999999999868
 20
910.2499999999449
 30
0.0
 11
242.9999999999868
 21
915.2499999999449
 31
0.0
  0
LINE
  5
364
330
1F
100
AcDbEntity
  8
LAY-10
  6
CONTINUOUS
 62
     7
100
AcDbLine
 10
247.9999999999868
 20
910.2499999999449
 30
0.0
 11
242.9999999999868
 21
910.2499999999449
 31
0.0
  0
LINE
  5
365
330
1F
100
AcDbEntity
  8
LAY-10
  6
CONTINUOUS
 62
     7
100
AcDbLine
 10
247.9999999999868
 20
915.2499999999449
 30
0.0
 11
242.9999999999868
 21
915.2499999999449
 31
0.0
  0
LINE
  5
366
330
1F
100
AcDbEntity
  8
LAY-10
  6
CONTINUOUS
 62
     7
100
AcDbLine
 10
247.9999999999868
 20
915.2499999999449
 30
0.0
 11
247.9999999999868
 21
910.2499999999449
 31
0.0
  0
LINE
  5
367
330
1F
100
AcDbEntity
  8
LAY-10
  6
CONTINUOUS
 62
     7
100
AcDbLine
 10
253.4999999999868
 20
884.7499999997457
 30
0.0
 11
253.4999999999868
 21
889.7499999997457
 31
0.0
  0
LINE
  5
368
330
1F
100
AcDbEntity
  8
LAY-10
  6
CONTINUOUS
 62
     7
100
AcDbLine
 10
253.4999999999868
 20
884.7499999997457
 30
0.0
 11
248.4999999999868
 21
884.7499999997457
 31
0.0
  0
LINE
  5
369
330
1F
100
AcDbEntity
  8
LAY-10
  6
CONTINUOUS
 62
     7
100
AcDbLine
 10
253.4999999999868
 20
889.7499999997457
 30
0.0
 11
248.4999999999868
 21
889.7499999997457
 31
0.0
  0
LINE
  5
36A
330
1F
100
AcDbEntity
  8
LAY-10
  6
CONTINUOUS
 62
     7
100
AcDbLine
 10
248.4999999999868
 20
889.7499999997457
 30
0.0
 11
248.4999999999868
 21
884.7499999997457
 31
0.0
  0
LINE
  5
36B
330
1F
100
AcDbEntity
  8
LAY-10
  6
CONTINUOUS
 62
     7
100
AcDbLine
 10
248.4999999999868
 20
890.2499999997457
 30
0.0
 11
253.4999999999868
 21
890.2499999997457
 31
0.0
  0
LINE
  5
36C
330
1F
100
AcDbEntity
  8
LAY-10
  6
CONTINUOUS
 62
     7
100
AcDbLine
 10
248.4999999999868
 20
890.2499999997457
 30
0.0
 11
248.4999999999868
 21
895.2499999997457
 31
0.0
  0
LINE
  5
36D
330
1F
100
AcDbEntity
  8
LAY-10
  6
CONTINUOUS
 62
     7
100
AcDbLine
 10
253.4999999999868
 20
890.2499999997457
 30
0.0
 11
253.4999999999868
 21
895.2499999997457
 31
0.0
  0
LINE
  5
36E
330
1F
100
AcDbEntity
  8
LAY-10
  6
CONTINUOUS
 62
     7
100
AcDbLine
 10
253.4999999999868
 20
895.2499999997457
 30
0.0
 11
248.4999999999868
 21
895.2499999997457
 31
0.0
  0
LINE
  5
36F
330
1F
100
AcDbEntity
  8
LAY-10
  6
CONTINUOUS
 62
     7
100
AcDbLine
 10
253.4999999999868
 20
884.7499999997457
 30
0.0
 11
248.4999999999868
 21
889.7499999997457
 31
0.0
  0
LINE
  5
370
330
1F
100
AcDbEntity
  8
LAY-10
  6
CONTINUOUS
 62
     7
100
AcDbLine
 10
253.4999999999868
 20
890.2499999997457
 30
0.0
 11
248.4999999999868
 21
895.2499999997457
 31
0.0
  0
LINE
  5
371
330
1F
100
AcDbEntity
  8
LAY-10
  6
CONTINUOUS
 62
     7
100
AcDbLine
 10
248.4999999999868
 20
884.7499999997457
 30
0.0
 11
253.4999999999868
 21
889.7499999997457
 31
0.0
  0
LINE
  5
372
330
1F
100
AcDbEntity
  8
LAY-10
  6
CONTINUOUS
 62
     7
100
AcDbLine
 10
248.4999999999868
 20
890.2499999997457
 30
0.0
 11
253.4999999999868
 21
895.2499999997457
 31
0.0
  0
LINE
  5
373
330
1F
100
AcDbEntity
  8
LAY-10
  6
CONTINUOUS
 62
     7
100
AcDbLine
 10
242.9999999999868
 20
890.2499999997457
 30
0.0
 11
247.9999999999868
 21
895.2499999997457
 31
0.0
  0
LINE
  5
374
330
1F
100
AcDbEntity
  8
LAY-10
  6
CONTINUOUS
 62
     7
100
AcDbLine
 10
247.9999999999868
 20
890.2499999997457
 30
0.0
 11
242.9999999999868
 21
895.2499999997457
 31
0.0
  0
LINE
  5
375
330
1F
100
AcDbEntity
  8
LAY-10
  6
CONTINUOUS
 62
     7
100
AcDbLine
 10
247.9999999999868
 20
884.7499999997457
 30
0.0
 11
242.9999999999868
 21
889.7499999997457
 31
0.0
  0
LINE
  5
376
330
1F
100
AcDbEntity
  8
LAY-10
  6
CONTINUOUS
 62
     7
100
AcDbLine
 10
247.9999999999868
 20
895.2499999997457
 30
0.0
 11
242.9999999999868
 21
895.2499999997457
 31
0.0
  0
LINE
  5
377
330
1F
100
AcDbEntity
  8
LAY-10
  6
CONTINUOUS
 62
     7
100
AcDbLine
 10
247.9999999999868
 20
890.2499999997457
 30
0.0
 11
247.9999999999868
 21
895.2499999997457
 31
0.0
  0
LINE
  5
378
330
1F
100
AcDbEntity
  8
LAY-10
  6
CONTINUOUS
 62
     7
100
AcDbLine
 10
242.9999999999868
 20
890.2499999997457
 30
0.0
 11
242.9999999999868
 21
895.2499999997457
 31
0.0
  0
LINE
  5
379
330
1F
100
AcDbEntity
  8
LAY-10
  6
CONTINUOUS
 62
     7
100
AcDbLine
 10
242.9999999999868
 20
890.2499999997457
 30
0.0
 11
247.9999999999868
 21
890.2499999997457
 31
0.0
  0
LINE
  5
37A
330
1F
100
AcDbEntity
  8
LAY-10
  6
CONTINUOUS
 62
     7
100
AcDbLine
 10
247.9999999999868
 20
889.7499999997457
 30
0.0
 11
242.9999999999868
 21
889.7499999997457
 31
0.0
  0
LINE
  5
37B
330
1F
100
AcDbEntity
  8
LAY-10
  6
CONTINUOUS
 62
     7
100
AcDbLine
 10
247.9999999999868
 20
884.7499999997457
 30
0.0
 11
247.9999999999868
 21
889.7499999997457
 31
0.0
  0
LINE
  5
37C
330
1F
100
AcDbEntity
  8
LAY-10
  6
CONTINUOUS
 62
     7
100
AcDbLine
 10
242.4999999999868
 20
929.7499999999349
 30
0.0
 11
242.4999999999868
 21
924.7499999999349
 31
0.0
  0
LINE
  5
37D
330
1F
100
AcDbEntity
  8
LAY-10
  6
CONTINUOUS
 62
     7
100
AcDbLine
 10
242.4999999999868
 20
924.7499999999349
 30
0.0
 11
237.4999999999868
 21
924.7499999999349
 31
0.0
  0
LINE
  5
37E
330
1F
100
AcDbEntity
  8
LAY-10
  6
CONTINUOUS
 62
     7
100
AcDbLine
 10
242.4999999999868
 20
929.7499999999349
 30
0.0
 11
237.4999999999868
 21
924.7499999999349
 31
0.0
  0
LINE
  5
37F
330
1F
100
AcDbEntity
  8
LAY-10
  6
CONTINUOUS
 62
     7
100
AcDbLine
 10
242.4999999999868
 20
915.2499999999449
 30
0.0
 11
242.4999999999868
 21
910.2499999999449
 31
0.0
  0
LINE
  5
380
330
1F
100
AcDbEntity
  8
LAY-10
  6
CONTINUOUS
 62
     7
100
AcDbLine
 10
242.4999999999868
 20
915.2499999999449
 30
0.0
 11
237.4999999999868
 21
915.2499999999449
 31
0.0
  0
LINE
  5
381
330
1F
100
AcDbEntity
  8
LAY-10
  6
CONTINUOUS
 62
     7
100
AcDbLine
 10
242.4999999999868
 20
910.2499999999449
 30
0.0
 11
237.4999999999868
 21
910.2499999999449
 31
0.0
  0
LINE
  5
382
330
1F
100
AcDbEntity
  8
LAY-10
  6
CONTINUOUS
 62
     7
100
AcDbLine
 10
237.4999999999868
 20
910.2499999999449
 30
0.0
 11
237.4999999999868
 21
915.2499999999449
 31
0.0
  0
LINE
  5
383
330
1F
100
AcDbEntity
  8
LAY-10
  6
CONTINUOUS
 62
     7
100
AcDbLine
 10
236.9999999999868
 20
915.2499999999449
 30
0.0
 11
236.9999999999868
 21
910.2499999999449
 31
0.0
  0
LINE
  5
384
330
1F
100
AcDbEntity
  8
LAY-10
  6
CONTINUOUS
 62
     7
100
AcDbLine
 10
236.9999999999868
 20
915.2499999999449
 30
0.0
 11
231.9999999999868
 21
915.2499999999449
 31
0.0
  0
LINE
  5
385
330
1F
100
AcDbEntity
  8
LAY-10
  6
CONTINUOUS
 62
     7
100
AcDbLine
 10
236.9999999999868
 20
910.2499999999449
 30
0.0
 11
231.9999999999868
 21
910.2499999999449
 31
0.0
  0
LINE
  5
386
330
1F
100
AcDbEntity
  8
LAY-10
  6
CONTINUOUS
 62
     7
100
AcDbLine
 10
231.9999999999868
 20
910.2499999999449
 30
0.0
 11
231.9999999999868
 21
915.2499999999449
 31
0.0
  0
LINE
  5
387
330
1F
100
AcDbEntity
  8
LAY-10
  6
CONTINUOUS
 62
     7
100
AcDbLine
 10
231.4999999999868
 20
915.2499999999449
 30
0.0
 11
231.4999999999868
 21
910.2499999999449
 31
0.0
  0
LINE
  5
388
330
1F
100
AcDbEntity
  8
LAY-10
  6
CONTINUOUS
 62
     7
100
AcDbLine
 10
237.4999999999868
 20
909.7499999999449
 30
0.0
 11
242.4999999999868
 21
909.7499999999449
 31
0.0
  0
LINE
  5
389
330
1F
100
AcDbEntity
  8
LAY-10
  6
CONTINUOUS
 62
     7
100
AcDbLine
 10
237.4999999999868
 20
909.7499999999449
 30
0.0
 11
237.4999999999868
 21
904.7499999999449
 31
0.0
  0
LINE
  5
38A
330
1F
100
AcDbEntity
  8
LAY-10
  6
CONTINUOUS
 62
     7
100
AcDbLine
 10
242.4999999999868
 20
909.7499999999449
 30
0.0
 11
242.4999999999868
 21
904.7499999999449
 31
0.0
  0
LINE
  5
38B
330
1F
100
AcDbEntity
  8
LAY-10
  6
CONTINUOUS
 62
     7
100
AcDbLine
 10
242.4999999999868
 20
904.7499999999449
 30
0.0
 11
237.4999999999868
 21
904.7499999999449
 31
0.0
  0
LINE
  5
38C
330
1F
100
AcDbEntity
  8
LAY-10
  6
CONTINUOUS
 62
     7
100
AcDbLine
 10
231.9999999999868
 20
909.7499999999449
 30
0.0
 11
236.9999999999868
 21
909.7499999999449
 31
0.0
  0
LINE
  5
38D
330
1F
100
AcDbEntity
  8
LAY-10
  6
CONTINUOUS
 62
     7
100
AcDbLine
 10
231.9999999999868
 20
909.7499999999449
 30
0.0
 11
231.9999999999868
 21
904.7499999999449
 31
0.0
  0
LINE
  5
38E
330
1F
100
AcDbEntity
  8
LAY-10
  6
CONTINUOUS
 62
     7
100
AcDbLine
 10
236.9999999999868
 20
909.7499999999449
 30
0.0
 11
236.9999999999868
 21
904.7499999999449
 31
0.0
  0
LINE
  5
38F
330
1F
100
AcDbEntity
  8
LAY-10
  6
CONTINUOUS
 62
     7
100
AcDbLine
 10
236.9999999999868
 20
904.7499999999449
 30
0.0
 11
231.9999999999868
 21
904.7499999999449
 31
0.0
  0
LINE
  5
390
330
1F
100
AcDbEntity
  8
LAY-10
  6
CONTINUOUS
 62
     7
100
AcDbLine
 10
231.4999999999868
 20
909.7499999999449
 30
0.0
 11
231.4999999999868
 21
904.7499999999449
 31
0.0
  0
LINE
  5
391
330
1F
100
AcDbEntity
  8
LAY-10
  6
CONTINUOUS
 62
     7
100
AcDbLine
 10
242.4999999999868
 20
915.2499999999449
 30
0.0
 11
237.4999999999868
 21
910.2499999999449
 31
0.0
  0
LINE
  5
392
330
1F
100
AcDbEntity
  8
LAY-10
  6
CONTINUOUS
 62
     7
100
AcDbLine
 10
236.9999999999868
 20
915.2499999999449
 30
0.0
 11
231.9999999999868
 21
910.2499999999449
 31
0.0
  0
LINE
  5
393
330
1F
100
AcDbEntity
  8
LAY-10
  6
CONTINUOUS
 62
     7
100
AcDbLine
 10
242.4999999999868
 20
909.7499999999449
 30
0.0
 11
237.4999999999868
 21
904.7499999999449
 31
0.0
  0
LINE
  5
394
330
1F
100
AcDbEntity
  8
LAY-10
  6
CONTINUOUS
 62
     7
100
AcDbLine
 10
236.9999999999868
 20
909.7499999999449
 30
0.0
 11
231.9999999999868
 21
904.7499999999449
 31
0.0
  0
LINE
  5
395
330
1F
100
AcDbEntity
  8
LAY-10
  6
CONTINUOUS
 62
     7
100
AcDbLine
 10
237.4999999999868
 20
915.2499999999449
 30
0.0
 11
242.4999999999868
 21
910.2499999999449
 31
0.0
  0
LINE
  5
396
330
1F
100
AcDbEntity
  8
LAY-10
  6
CONTINUOUS
 62
     7
100
AcDbLine
 10
231.9999999999868
 20
915.2499999999449
 30
0.0
 11
236.9999999999868
 21
910.2499999999449
 31
0.0
  0
LINE
  5
397
330
1F
100
AcDbEntity
  8
LAY-10
  6
CONTINUOUS
 62
     7
100
AcDbLine
 10
231.9999999999868
 20
909.7499999999449
 30
0.0
 11
236.9999999999868
 21
904.7499999999449
 31
0.0
  0
LINE
  5
398
330
1F
100
AcDbEntity
  8
LAY-10
  6
CONTINUOUS
 62
     7
100
AcDbLine
 10
237.4999999999868
 20
909.7499999999449
 30
0.0
 11
242.4999999999868
 21
904.7499999999449
 31
0.0
  0
LINE
  5
399
330
1F
100
AcDbEntity
  8
LAY-10
  6
CONTINUOUS
 62
     7
100
AcDbLine
 10
237.4999999999868
 20
890.2499999997457
 30
0.0
 11
242.4999999999868
 21
890.2499999997457
 31
0.0
  0
LINE
  5
39A
330
1F
100
AcDbEntity
  8
LAY-10
  6
CONTINUOUS
 62
     7
100
AcDbLine
 10
237.4999999999868
 20
890.2499999997457
 30
0.0
 11
237.4999999999868
 21
895.2499999997457
 31
0.0
  0
LINE
  5
39B
330
1F
100
AcDbEntity
  8
LAY-10
  6
CONTINUOUS
 62
     7
100
AcDbLine
 10
242.4999999999868
 20
890.2499999997457
 30
0.0
 11
242.4999999999868
 21
895.2499999997457
 31
0.0
  0
LINE
  5
39C
330
1F
100
AcDbEntity
  8
LAY-10
  6
CONTINUOUS
 62
     7
100
AcDbLine
 10
242.4999999999868
 20
895.2499999997457
 30
0.0
 11
237.4999999999868
 21
895.2499999997457
 31
0.0
  0
LINE
  5
39D
330
1F
100
AcDbEntity
  8
LAY-10
  6
CONTINUOUS
 62
     7
100
AcDbLine
 10
242.4999999999868
 20
890.2499999997457
 30
0.0
 11
237.4999999999868
 21
895.2499999997457
 31
0.0
  0
LINE
  5
39E
330
1F
100
AcDbEntity
  8
LAY-10
  6
CONTINUOUS
 62
     7
100
AcDbLine
 10
237.4999999999868
 20
890.2499999997457
 30
0.0
 11
242.4999999999868
 21
895.2499999997457
 31
0.0
  0
LINE
  5
39F
330
1F
100
AcDbEntity
  8
LAY-10
  6
CONTINUOUS
 62
     7
100
AcDbLine
 10
275.4999999999868
 20
889.7499999997457
 30
0.0
 11
270.4999999999868
 21
889.7499999997457
 31
0.0
  0
LINE
  5
3A0
330
1F
100
AcDbEntity
  8
LAY-10
  6
CONTINUOUS
 62
     7
100
AcDbLine
 10
270.4999999999868
 20
889.7499999997457
 30
0.0
 11
270.4999999999868
 21
884.7499999997457
 31
0.0
  0
LINE
  5
3A1
330
1F
100
AcDbEntity
  8
LAY-10
  6
CONTINUOUS
 62
     7
100
AcDbLine
 10
275.9999999999868
 20
890.2499999997457
 30
0.0
 11
275.9999999999868
 21
895.2499999997457
 31
0.0
  0
LINE
  5
3A2
330
1F
100
AcDbEntity
  8
LAY-10
  6
CONTINUOUS
 62
     7
100
AcDbLine
 10
280.9999999999868
 20
895.2499999997457
 30
0.0
 11
275.9999999999868
 21
895.2499999997457
 31
0.0
  0
LINE
  5
3A3
330
1F
100
AcDbEntity
  8
LAY-10
  6
CONTINUOUS
 62
     7
100
AcDbLine
 10
270.4999999999868
 20
890.2499999997457
 30
0.0
 11
275.4999999999868
 21
890.2499999997457
 31
0.0
  0
LINE
  5
3A4
330
1F
100
AcDbEntity
  8
LAY-10
  6
CONTINUOUS
 62
     7
100
AcDbLine
 10
270.4999999999868
 20
890.2499999997457
 30
0.0
 11
270.4999999999868
 21
895.2499999997457
 31
0.0
  0
LINE
  5
3A5
330
1F
100
AcDbEntity
  8
LAY-10
  6
CONTINUOUS
 62
     7
100
AcDbLine
 10
275.4999999999868
 20
890.2499999997457
 30
0.0
 11
275.4999999999868
 21
895.2499999997457
 31
0.0
  0
LINE
  5
3A6
330
1F
100
AcDbEntity
  8
LAY-10
  6
CONTINUOUS
 62
     7
100
AcDbLine
 10
275.4999999999868
 20
895.2499999997457
 30
0.0
 11
270.4999999999868
 21
895.2499999997457
 31
0.0
  0
LINE
  5
3A7
330
1F
100
AcDbEntity
  8
LAY-10
  6
CONTINUOUS
 62
     7
100
AcDbLine
 10
275.4999999999868
 20
890.2499999997457
 30
0.0
 11
270.4999999999868
 21
895.2499999997457
 31
0.0
  0
LINE
  5
3A8
330
1F
100
AcDbEntity
  8
LAY-10
  6
CONTINUOUS
 62
     7
100
AcDbLine
 10
270.4999999999868
 20
884.7499999997457
 30
0.0
 11
275.4999999999868
 21
889.7499999997457
 31
0.0
  0
LINE
  5
3A9
330
1F
100
AcDbEntity
  8
LAY-10
  6
CONTINUOUS
 62
     7
100
AcDbLine
 10
270.4999999999868
 20
890.2499999997457
 30
0.0
 11
275.4999999999868
 21
895.2499999997457
 31
0.0
  0
LINE
  5
3AA
330
1F
100
AcDbEntity
  8
LAY-10
  6
CONTINUOUS
 62
     7
100
AcDbLine
 10
275.9999999999868
 20
890.2499999997457
 30
0.0
 11
280.9999999999868
 21
895.2499999997457
 31
0.0
  0
LINE
  5
3AB
330
1F
100
AcDbEntity
  8
LAY-10
  6
CONTINUOUS
 62
     7
100
AcDbLine
 10
264.9999999999868
 20
890.2499999997457
 30
0.0
 11
269.9999999999868
 21
895.2499999997457
 31
0.0
  0
LINE
  5
3AC
330
1F
100
AcDbEntity
  8
LAY-10
  6
CONTINUOUS
 62
     7
100
AcDbLine
 10
264.9999999999868
 20
884.7499999997457
 30
0.0
 11
269.9999999999868
 21
889.7499999997457
 31
0.0
  0
LINE
  5
3AD
330
1F
100
AcDbEntity
  8
LAY-10
  6
CONTINUOUS
 62
     7
100
AcDbLine
 10
269.9999999999868
 20
890.2499999997457
 30
0.0
 11
264.9999999999868
 21
895.2499999997457
 31
0.0
  0
LINE
  5
3AE
330
1F
100
AcDbEntity
  8
LAY-10
  6
CONTINUOUS
 62
     7
100
AcDbLine
 10
269.9999999999868
 20
884.7499999997457
 30
0.0
 11
264.9999999999868
 21
889.7499999997457
 31
0.0
  0
LINE
  5
3AF
330
1F
100
AcDbEntity
  8
LAY-10
  6
CONTINUOUS
 62
     7
100
AcDbLine
 10
269.9999999999868
 20
895.2499999997457
 30
0.0
 11
264.9999999999868
 21
895.2499999997457
 31
0.0
  0
LINE
  5
3B0
330
1F
100
AcDbEntity
  8
LAY-10
  6
CONTINUOUS
 62
     7
100
AcDbLine
 10
269.9999999999868
 20
890.2499999997457
 30
0.0
 11
269.9999999999868
 21
895.2499999997457
 31
0.0
  0
LINE
  5
3B1
330
1F
100
AcDbEntity
  8
LAY-10
  6
CONTINUOUS
 62
     7
100
AcDbLine
 10
264.9999999999868
 20
890.2499999997457
 30
0.0
 11
264.9999999999868
 21
895.2499999997457
 31
0.0
  0
LINE
  5
3B2
330
1F
100
AcDbEntity
  8
LAY-10
  6
CONTINUOUS
 62
     7
100
AcDbLine
 10
264.9999999999868
 20
890.2499999997457
 30
0.0
 11
269.9999999999868
 21
890.2499999997457
 31
0.0
  0
LINE
  5
3B3
330
1F
100
AcDbEntity
  8
LAY-10
  6
CONTINUOUS
 62
     7
100
AcDbLine
 10
264.9999999999868
 20
889.7499999997457
 30
0.0
 11
264.9999999999868
 21
884.7499999997457
 31
0.0
  0
LINE
  5
3B4
330
1F
100
AcDbEntity
  8
LAY-10
  6
CONTINUOUS
 62
     7
100
AcDbLine
 10
269.9999999999868
 20
889.7499999997457
 30
0.0
 11
264.9999999999868
 21
889.7499999997457
 31
0.0
  0
LINE
  5
3B5
330
1F
100
AcDbEntity
  8
LAY-10
  6
CONTINUOUS
 62
     7
100
AcDbLine
 10
269.9999999999868
 20
884.7499999997457
 30
0.0
 11
264.9999999999868
 21
884.7499999997457
 31
0.0
  0
LINE
  5
3B6
330
1F
100
AcDbEntity
  8
LAY-10
  6
CONTINUOUS
 62
     7
100
AcDbLine
 10
269.9999999999868
 20
884.7499999997457
 30
0.0
 11
269.9999999999868
 21
889.7499999997457
 31
0.0
  0
LINE
  5
3B7
330
1F
100
AcDbEntity
  8
LAY-10
  6
CONTINUOUS
 62
     7
100
AcDbLine
 10
264.4999999999868
 20
884.7499999997457
 30
0.0
 11
264.4999999999868
 21
889.7499999997457
 31
0.0
  0
LINE
  5
3B8
330
1F
100
AcDbEntity
  8
LAY-10
  6
CONTINUOUS
 62
     7
100
AcDbLine
 10
264.4999999999868
 20
884.7499999997457
 30
0.0
 11
259.4999999999868
 21
884.7499999997457
 31
0.0
  0
LINE
  5
3B9
330
1F
100
AcDbEntity
  8
LAY-10
  6
CONTINUOUS
 62
     7
100
AcDbLine
 10
264.4999999999868
 20
889.7499999997457
 30
0.0
 11
259.4999999999868
 21
889.7499999997457
 31
0.0
  0
LINE
  5
3BA
330
1F
100
AcDbEntity
  8
LAY-10
  6
CONTINUOUS
 62
     7
100
AcDbLine
 10
259.4999999999868
 20
889.7499999997457
 30
0.0
 11
259.4999999999868
 21
884.7499999997457
 31
0.0
  0
LINE
  5
3BB
330
1F
100
AcDbEntity
  8
LAY-10
  6
CONTINUOUS
 62
     7
100
AcDbLine
 10
258.9999999999868
 20
884.7499999997457
 30
0.0
 11
258.9999999999868
 21
889.7499999997457
 31
0.0
  0
LINE
  5
3BC
330
1F
100
AcDbEntity
  8
LAY-10
  6
CONTINUOUS
 62
     7
100
AcDbLine
 10
258.9999999999868
 20
884.7499999997457
 30
0.0
 11
253.9999999999868
 21
884.7499999997457
 31
0.0
  0
LINE
  5
3BD
330
1F
100
AcDbEntity
  8
LAY-10
  6
CONTINUOUS
 62
     7
100
AcDbLine
 10
258.9999999999868
 20
889.7499999997457
 30
0.0
 11
253.9999999999868
 21
889.7499999997457
 31
0.0
  0
LINE
  5
3BE
330
1F
100
AcDbEntity
  8
LAY-10
  6
CONTINUOUS
 62
     7
100
AcDbLine
 10
253.9999999999868
 20
889.7499999997457
 30
0.0
 11
253.9999999999868
 21
884.7499999997457
 31
0.0
  0
LINE
  5
3BF
330
1F
100
AcDbEntity
  8
LAY-10
  6
CONTINUOUS
 62
     7
100
AcDbLine
 10
259.4999999999868
 20
890.2499999997457
 30
0.0
 11
264.4999999999868
 21
890.2499999997457
 31
0.0
  0
LINE
  5
3C0
330
1F
100
AcDbEntity
  8
LAY-10
  6
CONTINUOUS
 62
     7
100
AcDbLine
 10
259.4999999999868
 20
890.2499999997457
 30
0.0
 11
259.4999999999868
 21
895.2499999997457
 31
0.0
  0
LINE
  5
3C1
330
1F
100
AcDbEntity
  8
LAY-10
  6
CONTINUOUS
 62
     7
100
AcDbLine
 10
264.4999999999868
 20
890.2499999997457
 30
0.0
 11
264.4999999999868
 21
895.2499999997457
 31
0.0
  0
LINE
  5
3C2
330
1F
100
AcDbEntity
  8
LAY-10
  6
CONTINUOUS
 62
     7
100
AcDbLine
 10
264.4999999999868
 20
895.2499999997457
 30
0.0
 11
259.4999999999868
 21
895.2499999997457
 31
0.0
  0
LINE
  5
3C3
330
1F
100
AcDbEntity
  8
LAY-10
  6
CONTINUOUS
 62
     7
100
AcDbLine
 10
253.9999999999868
 20
890.2499999997457
 30
0.0
 11
258.9999999999868
 21
890.2499999997457
 31
0.0
  0
LINE
  5
3C4
330
1F
100
AcDbEntity
  8
LAY-10
  6
CONTINUOUS
 62
     7
100
AcDbLine
 10
253.9999999999868
 20
890.2499999997457
 30
0.0
 11
253.9999999999868
 21
895.2499999997457
 31
0.0
  0
LINE
  5
3C5
330
1F
100
AcDbEntity
  8
LAY-10
  6
CONTINUOUS
 62
     7
100
AcDbLine
 10
258.9999999999868
 20
890.2499999997457
 30
0.0
 11
258.9999999999868
 21
895.2499999997457
 31
0.0
  0
LINE
  5
3C6
330
1F
100
AcDbEntity
  8
LAY-10
  6
CONTINUOUS
 62
     7
100
AcDbLine
 10
258.9999999999868
 20
895.2499999997457
 30
0.0
 11
253.9999999999868
 21
895.2499999997457
 31
0.0
  0
LINE
  5
3C7
330
1F
100
AcDbEntity
  8
LAY-10
  6
CONTINUOUS
 62
     7
100
AcDbLine
 10
264.4999999999868
 20
884.7499999997457
 30
0.0
 11
259.4999999999868
 21
889.7499999997457
 31
0.0
  0
LINE
  5
3C8
330
1F
100
AcDbEntity
  8
LAY-10
  6
CONTINUOUS
 62
     7
100
AcDbLine
 10
258.9999999999868
 20
884.7499999997457
 30
0.0
 11
253.9999999999868
 21
889.7499999997457
 31
0.0
  0
LINE
  5
3C9
330
1F
100
AcDbEntity
  8
LAY-10
  6
CONTINUOUS
 62
     7
100
AcDbLine
 10
264.4999999999868
 20
890.2499999997457
 30
0.0
 11
259.4999999999868
 21
895.2499999997457
 31
0.0
  0
LINE
  5
3CA
330
1F
100
AcDbEntity
  8
LAY-10
  6
CONTINUOUS
 62
     7
100
AcDbLine
 10
258.9999999999868
 20
890.2499999997457
 30
0.0
 11
253.9999999999868
 21
895.2499999997457
 31
0.0
  0
LINE
  5
3CB
330
1F
100
AcDbEntity
  8
LAY-10
  6
CONTINUOUS
 62
     7
100
AcDbLine
 10
259.4999999999868
 20
884.7499999997457
 30
0.0
 11
264.4999999999868
 21
889.7499999997457
 31
0.0
  0
LINE
  5
3CC
330
1F
100
AcDbEntity
  8
LAY-10
  6
CONTINUOUS
 62
     7
100
AcDbLine
 10
253.9999999999868
 20
884.7499999997457
 30
0.0
 11
258.9999999999868
 21
889.7499999997457
 31
0.0
  0
LINE
  5
3CD
330
1F
100
AcDbEntity
  8
LAY-10
  6
CONTINUOUS
 62
     7
100
AcDbLine
 10
253.9999999999868
 20
890.2499999997457
 30
0.0
 11
258.9999999999868
 21
895.2499999997457
 31
0.0
  0
LINE
  5
3CE
330
1F
100
AcDbEntity
  8
LAY-10
  6
CONTINUOUS
 62
     7
100
AcDbLine
 10
259.4999999999868
 20
890.2499999997457
 30
0.0
 11
264.4999999999868
 21
895.2499999997457
 31
0.0
  0
LINE
  5
3CF
330
1F
100
AcDbEntity
  8
LAY-10
  6
CONTINUOUS
 62
     7
100
AcDbLine
 10
286.4999999999868
 20
904.7499999999458
 30
0.0
 11
286.4999999999868
 21
909.7499999999458
 31
0.0
  0
LINE
  5
3D0
330
1F
100
AcDbEntity
  8
LAY-10
  6
CONTINUOUS
 62
     7
100
AcDbLine
 10
286.4999999999868
 20
904.7499999999458
 30
0.0
 11
281.4999999999868
 21
904.7499999999458
 31
0.0
  0
LINE
  5
3D1
330
1F
100
AcDbEntity
  8
LAY-10
  6
CONTINUOUS
 62
     7
100
AcDbLine
 10
286.4999999999868
 20
909.7499999999458
 30
0.0
 11
281.4999999999868
 21
909.7499999999458
 31
0.0
  0
LINE
  5
3D2
330
1F
100
AcDbEntity
  8
LAY-10
  6
CONTINUOUS
 62
     7
100
AcDbLine
 10
281.4999999999868
 20
909.7499999999458
 30
0.0
 11
281.4999999999868
 21
904.7499999999458
 31
0.0
  0
LINE
  5
3D3
330
1F
100
AcDbEntity
  8
LAY-10
  6
CONTINUOUS
 62
     7
100
AcDbLine
 10
280.9999999999868
 20
904.7499999999458
 30
0.0
 11
280.9999999999868
 21
909.7499999999458
 31
0.0
  0
LINE
  5
3D4
330
1F
100
AcDbEntity
  8
LAY-10
  6
CONTINUOUS
 62
     7
100
AcDbLine
 10
280.9999999999868
 20
904.7499999999458
 30
0.0
 11
275.9999999999868
 21
904.7499999999458
 31
0.0
  0
LINE
  5
3D5
330
1F
100
AcDbEntity
  8
LAY-10
  6
CONTINUOUS
 62
     7
100
AcDbLine
 10
280.9999999999868
 20
909.7499999999458
 30
0.0
 11
275.9999999999868
 21
909.7499999999458
 31
0.0
  0
LINE
  5
3D6
330
1F
100
AcDbEntity
  8
LAY-10
  6
CONTINUOUS
 62
     7
100
AcDbLine
 10
275.9999999999868
 20
909.7499999999458
 30
0.0
 11
275.9999999999868
 21
904.7499999999458
 31
0.0
  0
LINE
  5
3D7
330
1F
100
AcDbEntity
  8
LAY-10
  6
CONTINUOUS
 62
     7
100
AcDbLine
 10
275.4999999999868
 20
904.7499999999458
 30
0.0
 11
275.4999999999868
 21
909.7499999999458
 31
0.0
  0
LINE
  5
3D8
330
1F
100
AcDbEntity
  8
LAY-10
  6
CONTINUOUS
 62
     7
100
AcDbLine
 10
275.4999999999868
 20
904.7499999999458
 30
0.0
 11
270.4999999999868
 21
904.7499999999458
 31
0.0
  0
LINE
  5
3D9
330
1F
100
AcDbEntity
  8
LAY-10
  6
CONTINUOUS
 62
     7
100
AcDbLine
 10
275.4999999999868
 20
909.7499999999458
 30
0.0
 11
270.4999999999868
 21
909.7499999999458
 31
0.0
  0
LINE
  5
3DA
330
1F
100
AcDbEntity
  8
LAY-10
  6
CONTINUOUS
 62
     7
100
AcDbLine
 10
270.4999999999868
 20
909.7499999999458
 30
0.0
 11
270.4999999999868
 21
904.7499999999458
 31
0.0
  0
LINE
  5
3DB
330
1F
100
AcDbEntity
  8
LAY-10
  6
CONTINUOUS
 62
     7
100
AcDbLine
 10
281.4999999999868
 20
910.2499999999458
 30
0.0
 11
286.4999999999868
 21
910.2499999999458
 31
0.0
  0
LINE
  5
3DC
330
1F
100
AcDbEntity
  8
LAY-10
  6
CONTINUOUS
 62
     7
100
AcDbLine
 10
281.4999999999868
 20
910.2499999999458
 30
0.0
 11
281.4999999999868
 21
915.2499999999458
 31
0.0
  0
LINE
  5
3DD
330
1F
100
AcDbEntity
  8
LAY-10
  6
CONTINUOUS
 62
     7
100
AcDbLine
 10
275.9999999999868
 20
910.2499999999458
 30
0.0
 11
280.9999999999868
 21
910.2499999999458
 31
0.0
  0
LINE
  5
3DE
330
1F
100
AcDbEntity
  8
LAY-10
  6
CONTINUOUS
 62
     7
100
AcDbLine
 10
275.9999999999868
 20
910.2499999999458
 30
0.0
 11
275.9999999999868
 21
915.2499999999458
 31
0.0
  0
LINE
  5
3DF
330
1F
100
AcDbEntity
  8
LAY-10
  6
CONTINUOUS
 62
     7
100
AcDbLine
 10
280.9999999999868
 20
910.2499999999458
 30
0.0
 11
280.9999999999868
 21
915.2499999999458
 31
0.0
  0
LINE
  5
3E0
330
1F
100
AcDbEntity
  8
LAY-10
  6
CONTINUOUS
 62
     7
100
AcDbLine
 10
280.9999999999868
 20
915.2499999999458
 30
0.0
 11
275.9999999999868
 21
915.2499999999458
 31
0.0
  0
LINE
  5
3E1
330
1F
100
AcDbEntity
  8
LAY-10
  6
CONTINUOUS
 62
     7
100
AcDbLine
 10
270.4999999999868
 20
910.2499999999458
 30
0.0
 11
275.4999999999868
 21
910.2499999999458
 31
0.0
  0
LINE
  5
3E2
330
1F
100
AcDbEntity
  8
LAY-10
  6
CONTINUOUS
 62
     7
100
AcDbLine
 10
270.4999999999868
 20
910.2499999999458
 30
0.0
 11
270.4999999999868
 21
915.2499999999458
 31
0.0
  0
LINE
  5
3E3
330
1F
100
AcDbEntity
  8
LAY-10
  6
CONTINUOUS
 62
     7
100
AcDbLine
 10
275.4999999999868
 20
910.2499999999458
 30
0.0
 11
275.4999999999868
 21
915.2499999999458
 31
0.0
  0
LINE
  5
3E4
330
1F
100
AcDbEntity
  8
LAY-10
  6
CONTINUOUS
 62
     7
100
AcDbLine
 10
275.4999999999868
 20
915.2499999999458
 30
0.0
 11
270.4999999999868
 21
915.2499999999458
 31
0.0
  0
LINE
  5
3E5
330
1F
100
AcDbEntity
  8
LAY-10
  6
CONTINUOUS
 62
     7
100
AcDbLine
 10
286.4999999999868
 20
904.7499999999458
 30
0.0
 11
281.4999999999868
 21
909.7499999999458
 31
0.0
  0
LINE
  5
3E6
330
1F
100
AcDbEntity
  8
LAY-10
  6
CONTINUOUS
 62
     7
100
AcDbLine
 10
280.9999999999868
 20
904.7499999999458
 30
0.0
 11
275.9999999999868
 21
909.7499999999458
 31
0.0
  0
LINE
  5
3E7
330
1F
100
AcDbEntity
  8
LAY-10
  6
CONTINUOUS
 62
     7
100
AcDbLine
 10
275.4999999999868
 20
904.7499999999458
 30
0.0
 11
270.4999999999868
 21
909.7499999999458
 31
0.0
  0
LINE
  5
3E8
330
1F
100
AcDbEntity
  8
LAY-10
  6
CONTINUOUS
 62
     7
100
AcDbLine
 10
286.4999999999868
 20
910.2499999999458
 30
0.0
 11
281.4999999999868
 21
915.2499999999458
 31
0.0
  0
LINE
  5
3E9
330
1F
100
AcDbEntity
  8
LAY-10
  6
CONTINUOUS
 62
     7
100
AcDbLine
 10
280.9999999999868
 20
910.2499999999458
 30
0.0
 11
275.9999999999868
 21
915.2499999999458
 31
0.0
  0
LINE
  5
3EA
330
1F
100
AcDbEntity
  8
LAY-10
  6
CONTINUOUS
 62
     7
100
AcDbLine
 10
275.4999999999868
 20
910.2499999999458
 30
0.0
 11
270.4999999999868
 21
915.2499999999458
 31
0.0
  0
LINE
  5
3EB
330
1F
100
AcDbEntity
  8
LAY-10
  6
CONTINUOUS
 62
     7
100
AcDbLine
 10
281.4999999999868
 20
904.7499999999458
 30
0.0
 11
286.4999999999868
 21
909.7499999999458
 31
0.0
  0
LINE
  5
3EC
330
1F
100
AcDbEntity
  8
LAY-10
  6
CONTINUOUS
 62
     7
100
AcDbLine
 10
275.9999999999868
 20
904.7499999999458
 30
0.0
 11
280.9999999999868
 21
909.7499999999458
 31
0.0
  0
LINE
  5
3ED
330
1F
100
AcDbEntity
  8
LAY-10
  6
CONTINUOUS
 62
     7
100
AcDbLine
 10
270.4999999999868
 20
904.7499999999458
 30
0.0
 11
275.4999999999868
 21
909.7499999999458
 31
0.0
  0
LINE
  5
3EE
330
1F
100
AcDbEntity
  8
LAY-10
  6
CONTINUOUS
 62
     7
100
AcDbLine
 10
270.4999999999868
 20
910.2499999999458
 30
0.0
 11
275.4999999999868
 21
915.2499999999458
 31
0.0
  0
LINE
  5
3EF
330
1F
100
AcDbEntity
  8
LAY-10
  6
CONTINUOUS
 62
     7
100
AcDbLine
 10
275.9999999999868
 20
910.2499999999458
 30
0.0
 11
280.9999999999868
 21
915.2499999999458
 31
0.0
  0
LINE
  5
3F0
330
1F
100
AcDbEntity
  8
LAY-10
  6
CONTINUOUS
 62
     7
100
AcDbLine
 10
264.9999999999868
 20
910.2499999999458
 30
0.0
 11
269.9999999999868
 21
915.2499999999458
 31
0.0
  0
LINE
  5
3F1
330
1F
100
AcDbEntity
  8
LAY-10
  6
CONTINUOUS
 62
     7
100
AcDbLine
 10
264.9999999999868
 20
904.7499999999458
 30
0.0
 11
269.9999999999868
 21
909.7499999999458
 31
0.0
  0
LINE
  5
3F2
330
1F
100
AcDbEntity
  8
LAY-10
  6
CONTINUOUS
 62
     7
100
AcDbLine
 10
269.9999999999868
 20
910.2499999999458
 30
0.0
 11
264.9999999999868
 21
915.2499999999458
 31
0.0
  0
LINE
  5
3F3
330
1F
100
AcDbEntity
  8
LAY-10
  6
CONTINUOUS
 62
     7
100
AcDbLine
 10
269.9999999999868
 20
904.7499999999458
 30
0.0
 11
264.9999999999868
 21
909.7499999999458
 31
0.0
  0
LINE
  5
3F4
330
1F
100
AcDbEntity
  8
LAY-10
  6
CONTINUOUS
 62
     7
100
AcDbLine
 10
269.9999999999868
 20
915.2499999999458
 30
0.0
 11
264.9999999999868
 21
915.2499999999458
 31
0.0
  0
LINE
  5
3F5
330
1F
100
AcDbEntity
  8
LAY-10
  6
CONTINUOUS
 62
     7
100
AcDbLine
 10
269.9999999999868
 20
910.2499999999458
 30
0.0
 11
269.9999999999868
 21
915.2499999999458
 31
0.0
  0
LINE
  5
3F6
330
1F
100
AcDbEntity
  8
LAY-10
  6
CONTINUOUS
 62
     7
100
AcDbLine
 10
264.9999999999868
 20
910.2499999999458
 30
0.0
 11
264.9999999999868
 21
915.2499999999458
 31
0.0
  0
LINE
  5
3F7
330
1F
100
AcDbEntity
  8
LAY-10
  6
CONTINUOUS
 62
     7
100
AcDbLine
 10
264.9999999999868
 20
910.2499999999458
 30
0.0
 11
269.9999999999868
 21
910.2499999999458
 31
0.0
  0
LINE
  5
3F8
330
1F
100
AcDbEntity
  8
LAY-10
  6
CONTINUOUS
 62
     7
100
AcDbLine
 10
264.9999999999868
 20
909.7499999999458
 30
0.0
 11
264.9999999999868
 21
904.7499999999458
 31
0.0
  0
LINE
  5
3F9
330
1F
100
AcDbEntity
  8
LAY-10
  6
CONTINUOUS
 62
     7
100
AcDbLine
 10
269.9999999999868
 20
909.7499999999458
 30
0.0
 11
264.9999999999868
 21
909.7499999999458
 31
0.0
  0
LINE
  5
3FA
330
1F
100
AcDbEntity
  8
LAY-10
  6
CONTINUOUS
 62
     7
100
AcDbLine
 10
269.9999999999868
 20
904.7499999999458
 30
0.0
 11
264.9999999999868
 21
904.7499999999458
 31
0.0
  0
LINE
  5
3FB
330
1F
100
AcDbEntity
  8
LAY-10
  6
CONTINUOUS
 62
     7
100
AcDbLine
 10
269.9999999999868
 20
904.7499999999458
 30
0.0
 11
269.9999999999868
 21
909.7499999999458
 31
0.0
  0
LINE
  5
3FC
330
1F
100
AcDbEntity
  8
LAY-10
  6
CONTINUOUS
 62
     7
100
AcDbLine
 10
264.4999999999868
 20
904.7499999999458
 30
0.0
 11
264.4999999999868
 21
909.7499999999458
 31
0.0
  0
LINE
  5
3FD
330
1F
100
AcDbEntity
  8
LAY-10
  6
CONTINUOUS
 62
     7
100
AcDbLine
 10
264.4999999999868
 20
904.7499999999458
 30
0.0
 11
259.4999999999868
 21
904.7499999999458
 31
0.0
  0
LINE
  5
3FE
330
1F
100
AcDbEntity
  8
LAY-10
  6
CONTINUOUS
 62
     7
100
AcDbLine
 10
264.4999999999868
 20
909.7499999999458
 30
0.0
 11
259.4999999999868
 21
909.7499999999458
 31
0.0
  0
LINE
  5
3FF
330
1F
100
AcDbEntity
  8
LAY-10
  6
CONTINUOUS
 62
     7
100
AcDbLine
 10
259.4999999999868
 20
909.7499999999458
 30
0.0
 11
259.4999999999868
 21
904.7499999999458
 31
0.0
  0
LINE
  5
400
330
1F
100
AcDbEntity
  8
LAY-10
  6
CONTINUOUS
 62
     7
100
AcDbLine
 10
258.9999999999868
 20
904.7499999999458
 30
0.0
 11
258.9999999999868
 21
909.7499999999458
 31
0.0
  0
LINE
  5
401
330
1F
100
AcDbEntity
  8
LAY-10
  6
CONTINUOUS
 62
     7
100
AcDbLine
 10
258.9999999999868
 20
904.7499999999458
 30
0.0
 11
253.9999999999868
 21
904.7499999999458
 31
0.0
  0
LINE
  5
402
330
1F
100
AcDbEntity
  8
LAY-10
  6
CONTINUOUS
 62
     7
100
AcDbLine
 10
258.9999999999868
 20
909.7499999999458
 30
0.0
 11
253.9999999999868
 21
909.7499999999458
 31
0.0
  0
LINE
  5
403
330
1F
100
AcDbEntity
  8
LAY-10
  6
CONTINUOUS
 62
     7
100
AcDbLine
 10
253.9999999999868
 20
909.7499999999458
 30
0.0
 11
253.9999999999868
 21
904.7499999999458
 31
0.0
  0
LINE
  5
404
330
1F
100
AcDbEntity
  8
LAY-10
  6
CONTINUOUS
 62
     7
100
AcDbLine
 10
259.4999999999868
 20
910.2499999999458
 30
0.0
 11
264.4999999999868
 21
910.2499999999458
 31
0.0
  0
LINE
  5
405
330
1F
100
AcDbEntity
  8
LAY-10
  6
CONTINUOUS
 62
     7
100
AcDbLine
 10
259.4999999999868
 20
910.2499999999458
 30
0.0
 11
259.4999999999868
 21
915.2499999999458
 31
0.0
  0
LINE
  5
406
330
1F
100
AcDbEntity
  8
LAY-10
  6
CONTINUOUS
 62
     7
100
AcDbLine
 10
264.4999999999868
 20
910.2499999999458
 30
0.0
 11
264.4999999999868
 21
915.2499999999458
 31
0.0
  0
LINE
  5
407
330
1F
100
AcDbEntity
  8
LAY-10
  6
CONTINUOUS
 62
     7
100
AcDbLine
 10
264.4999999999868
 20
915.2499999999458
 30
0.0
 11
259.4999999999868
 21
915.2499999999458
 31
0.0
  0
LINE
  5
408
330
1F
100
AcDbEntity
  8
LAY-10
  6
CONTINUOUS
 62
     7
100
AcDbLine
 10
253.9999999999868
 20
910.2499999999458
 30
0.0
 11
258.9999999999868
 21
910.2499999999458
 31
0.0
  0
LINE
  5
409
330
1F
100
AcDbEntity
  8
LAY-10
  6
CONTINUOUS
 62
     7
100
AcDbLine
 10
253.9999999999868
 20
910.2499999999458
 30
0.0
 11
253.9999999999868
 21
915.2499999999458
 31
0.0
  0
LINE
  5
40A
330
1F
100
AcDbEntity
  8
LAY-10
  6
CONTINUOUS
 62
     7
100
AcDbLine
 10
258.9999999999868
 20
910.2499999999458
 30
0.0
 11
258.9999999999868
 21
915.2499999999458
 31
0.0
  0
LINE
  5
40B
330
1F
100
AcDbEntity
  8
LAY-10
  6
CONTINUOUS
 62
     7
100
AcDbLine
 10
258.9999999999868
 20
915.2499999999458
 30
0.0
 11
253.9999999999868
 21
915.2499999999458
 31
0.0
  0
LINE
  5
40C
330
1F
100
AcDbEntity
  8
LAY-10
  6
CONTINUOUS
 62
     7
100
AcDbLine
 10
264.4999999999868
 20
904.7499999999458
 30
0.0
 11
259.4999999999868
 21
909.7499999999458
 31
0.0
  0
LINE
  5
40D
330
1F
100
AcDbEntity
  8
LAY-10
  6
CONTINUOUS
 62
     7
100
AcDbLine
 10
258.9999999999868
 20
904.7499999999458
 30
0.0
 11
253.9999999999868
 21
909.7499999999458
 31
0.0
  0
LINE
  5
40E
330
1F
100
AcDbEntity
  8
LAY-10
  6
CONTINUOUS
 62
     7
100
AcDbLine
 10
264.4999999999868
 20
910.2499999999458
 30
0.0
 11
259.4999999999868
 21
915.2499999999458
 31
0.0
  0
LINE
  5
40F
330
1F
100
AcDbEntity
  8
LAY-10
  6
CONTINUOUS
 62
     7
100
AcDbLine
 10
258.9999999999868
 20
910.2499999999458
 30
0.0
 11
253.9999999999868
 21
915.2499999999458
 31
0.0
  0
LINE
  5
410
330
1F
100
AcDbEntity
  8
LAY-10
  6
CONTINUOUS
 62
     7
100
AcDbLine
 10
259.4999999999868
 20
904.7499999999458
 30
0.0
 11
264.4999999999868
 21
909.7499999999458
 31
0.0
  0
LINE
  5
411
330
1F
100
AcDbEntity
  8
LAY-10
  6
CONTINUOUS
 62
     7
100
AcDbLine
 10
253.9999999999868
 20
904.7499999999458
 30
0.0
 11
258.9999999999868
 21
909.7499999999458
 31
0.0
  0
LINE
  5
412
330
1F
100
AcDbEntity
  8
LAY-10
  6
CONTINUOUS
 62
     7
100
AcDbLine
 10
253.9999999999868
 20
910.2499999999458
 30
0.0
 11
258.9999999999868
 21
915.2499999999458
 31
0.0
  0
LINE
  5
413
330
1F
100
AcDbEntity
  8
LAY-10
  6
CONTINUOUS
 62
     7
100
AcDbLine
 10
259.4999999999868
 20
910.2499999999458
 30
0.0
 11
264.4999999999868
 21
915.2499999999458
 31
0.0
  0
LINE
  5
414
330
1F
100
AcDbEntity
  8
LAY-10
  6
CONTINUOUS
 62
     7
100
AcDbLine
 10
280.9999999999868
 20
924.7499999999358
 30
0.0
 11
275.9999999999868
 21
924.7499999999358
 31
0.0
  0
LINE
  5
415
330
1F
100
AcDbEntity
  8
LAY-10
  6
CONTINUOUS
 62
     7
100
AcDbLine
 10
275.9999999999868
 20
929.7499999999358
 30
0.0
 11
275.9999999999868
 21
924.7499999999358
 31
0.0
  0
LINE
  5
416
330
1F
100
AcDbEntity
  8
LAY-10
  6
CONTINUOUS
 62
     7
100
AcDbLine
 10
275.4999999999868
 20
924.7499999999358
 30
0.0
 11
275.4999999999868
 21
929.7499999999358
 31
0.0
  0
LINE
  5
417
330
1F
100
AcDbEntity
  8
LAY-10
  6
CONTINUOUS
 62
     7
100
AcDbLine
 10
275.4999999999868
 20
924.7499999999358
 30
0.0
 11
270.4999999999868
 21
924.7499999999358
 31
0.0
  0
LINE
  5
418
330
1F
100
AcDbEntity
  8
LAY-10
  6
CONTINUOUS
 62
     7
100
AcDbLine
 10
275.4999999999868
 20
929.7499999999358
 30
0.0
 11
270.4999999999868
 21
929.7499999999358
 31
0.0
  0
LINE
  5
419
330
1F
100
AcDbEntity
  8
LAY-10
  6
CONTINUOUS
 62
     7
100
AcDbLine
 10
270.4999999999868
 20
929.7499999999358
 30
0.0
 11
270.4999999999868
 21
924.7499999999358
 31
0.0
  0
LINE
  5
41A
330
1F
100
AcDbEntity
  8
LAY-10
  6
CONTINUOUS
 62
     7
100
AcDbLine
 10
270.4999999999868
 20
930.2499999999358
 30
0.0
 11
275.4999999999868
 21
930.2499999999358
 31
0.0
  0
LINE
  5
41B
330
1F
100
AcDbEntity
  8
LAY-10
  6
CONTINUOUS
 62
     7
100
AcDbLine
 10
280.9999999999868
 20
924.7499999999358
 30
0.0
 11
275.9999999999868
 21
929.7499999999358
 31
0.0
  0
LINE
  5
41C
330
1F
100
AcDbEntity
  8
LAY-10
  6
CONTINUOUS
 62
     7
100
AcDbLine
 10
275.4999999999868
 20
924.7499999999358
 30
0.0
 11
270.4999999999868
 21
929.7499999999358
 31
0.0
  0
LINE
  5
41D
330
1F
100
AcDbEntity
  8
LAY-10
  6
CONTINUOUS
 62
     7
100
AcDbLine
 10
270.4999999999868
 20
924.7499999999358
 30
0.0
 11
275.4999999999868
 21
929.7499999999358
 31
0.0
  0
LINE
  5
41E
330
1F
100
AcDbEntity
  8
LAY-10
  6
CONTINUOUS
 62
     7
100
AcDbLine
 10
264.9999999999868
 20
924.7499999999358
 30
0.0
 11
269.9999999999868
 21
929.7499999999358
 31
0.0
  0
LINE
  5
41F
330
1F
100
AcDbEntity
  8
LAY-10
  6
CONTINUOUS
 62
     7
100
AcDbLine
 10
269.9999999999868
 20
930.2499999999358
 30
0.0
 11
264.9999999999868
 21
935.2499999999358
 31
0.0
  0
LINE
  5
420
330
1F
100
AcDbEntity
  8
LAY-10
  6
CONTINUOUS
 62
     7
100
AcDbLine
 10
269.9999999999868
 20
924.7499999999358
 30
0.0
 11
264.9999999999868
 21
929.7499999999358
 31
0.0
  0
LINE
  5
421
330
1F
100
AcDbEntity
  8
LAY-10
  6
CONTINUOUS
 62
     7
100
AcDbLine
 10
264.9999999999868
 20
930.2499999999358
 30
0.0
 11
264.9999999999868
 21
935.2499999999358
 31
0.0
  0
LINE
  5
422
330
1F
100
AcDbEntity
  8
LAY-10
  6
CONTINUOUS
 62
     7
100
AcDbLine
 10
264.9999999999868
 20
930.2499999999358
 30
0.0
 11
269.9999999999868
 21
930.2499999999358
 31
0.0
  0
LINE
  5
423
330
1F
100
AcDbEntity
  8
LAY-10
  6
CONTINUOUS
 62
     7
100
AcDbLine
 10
264.9999999999868
 20
929.7499999999358
 30
0.0
 11
264.9999999999868
 21
924.7499999999358
 31
0.0
  0
LINE
  5
424
330
1F
100
AcDbEntity
  8
LAY-10
  6
CONTINUOUS
 62
     7
100
AcDbLine
 10
269.9999999999868
 20
929.7499999999358
 30
0.0
 11
264.9999999999868
 21
929.7499999999358
 31
0.0
  0
LINE
  5
425
330
1F
100
AcDbEntity
  8
LAY-10
  6
CONTINUOUS
 62
     7
100
AcDbLine
 10
269.9999999999868
 20
924.7499999999358
 30
0.0
 11
264.9999999999868
 21
924.7499999999358
 31
0.0
  0
LINE
  5
426
330
1F
100
AcDbEntity
  8
LAY-10
  6
CONTINUOUS
 62
     7
100
AcDbLine
 10
269.9999999999868
 20
924.7499999999358
 30
0.0
 11
269.9999999999868
 21
929.7499999999358
 31
0.0
  0
LINE
  5
427
330
1F
100
AcDbEntity
  8
LAY-10
  6
CONTINUOUS
 62
     7
100
AcDbLine
 10
264.4999999999868
 20
924.7499999999358
 30
0.0
 11
264.4999999999868
 21
929.7499999999358
 31
0.0
  0
LINE
  5
428
330
1F
100
AcDbEntity
  8
LAY-10
  6
CONTINUOUS
 62
     7
100
AcDbLine
 10
264.4999999999868
 20
924.7499999999358
 30
0.0
 11
259.4999999999868
 21
924.7499999999358
 31
0.0
  0
LINE
  5
429
330
1F
100
AcDbEntity
  8
LAY-10
  6
CONTINUOUS
 62
     7
100
AcDbLine
 10
264.4999999999868
 20
929.7499999999358
 30
0.0
 11
259.4999999999868
 21
929.7499999999358
 31
0.0
  0
LINE
  5
42A
330
1F
100
AcDbEntity
  8
LAY-10
  6
CONTINUOUS
 62
     7
100
AcDbLine
 10
259.4999999999868
 20
929.7499999999358
 30
0.0
 11
259.4999999999868
 21
924.7499999999358
 31
0.0
  0
LINE
  5
42B
330
1F
100
AcDbEntity
  8
LAY-10
  6
CONTINUOUS
 62
     7
100
AcDbLine
 10
258.9999999999868
 20
924.7499999999358
 30
0.0
 11
258.9999999999868
 21
929.7499999999358
 31
0.0
  0
LINE
  5
42C
330
1F
100
AcDbEntity
  8
LAY-10
  6
CONTINUOUS
 62
     7
100
AcDbLine
 10
258.9999999999868
 20
924.7499999999358
 30
0.0
 11
253.9999999999868
 21
924.7499999999358
 31
0.0
  0
LINE
  5
42D
330
1F
100
AcDbEntity
  8
LAY-10
  6
CONTINUOUS
 62
     7
100
AcDbLine
 10
258.9999999999868
 20
929.7499999999358
 30
0.0
 11
253.9999999999868
 21
929.7499999999358
 31
0.0
  0
LINE
  5
42E
330
1F
100
AcDbEntity
  8
LAY-10
  6
CONTINUOUS
 62
     7
100
AcDbLine
 10
253.9999999999868
 20
929.7499999999358
 30
0.0
 11
253.9999999999868
 21
924.7499999999358
 31
0.0
  0
LINE
  5
42F
330
1F
100
AcDbEntity
  8
LAY-10
  6
CONTINUOUS
 62
     7
100
AcDbLine
 10
259.4999999999868
 20
930.2499999999358
 30
0.0
 11
264.4999999999868
 21
930.2499999999358
 31
0.0
  0
LINE
  5
430
330
1F
100
AcDbEntity
  8
LAY-10
  6
CONTINUOUS
 62
     7
100
AcDbLine
 10
259.4999999999868
 20
930.2499999999358
 30
0.0
 11
259.4999999999868
 21
935.2499999999358
 31
0.0
  0
LINE
  5
431
330
1F
100
AcDbEntity
  8
LAY-10
  6
CONTINUOUS
 62
     7
100
AcDbLine
 10
264.4999999999868
 20
930.2499999999358
 30
0.0
 11
264.4999999999868
 21
935.2499999999358
 31
0.0
  0
LINE
  5
432
330
1F
100
AcDbEntity
  8
LAY-10
  6
CONTINUOUS
 62
     7
100
AcDbLine
 10
264.4999999999868
 20
935.2499999999358
 30
0.0
 11
259.4999999999868
 21
935.2499999999358
 31
0.0
  0
LINE
  5
433
330
1F
100
AcDbEntity
  8
LAY-10
  6
CONTINUOUS
 62
     7
100
AcDbLine
 10
253.9999999999868
 20
930.2499999999358
 30
0.0
 11
258.9999999999868
 21
930.2499999999358
 31
0.0
  0
LINE
  5
434
330
1F
100
AcDbEntity
  8
LAY-10
  6
CONTINUOUS
 62
     7
100
AcDbLine
 10
253.9999999999868
 20
930.2499999999358
 30
0.0
 11
253.9999999999868
 21
935.2499999999358
 31
0.0
  0
LINE
  5
435
330
1F
100
AcDbEntity
  8
LAY-10
  6
CONTINUOUS
 62
     7
100
AcDbLine
 10
258.9999999999868
 20
930.2499999999358
 30
0.0
 11
258.9999999999868
 21
935.2499999999358
 31
0.0
  0
LINE
  5
436
330
1F
100
AcDbEntity
  8
LAY-10
  6
CONTINUOUS
 62
     7
100
AcDbLine
 10
258.9999999999868
 20
935.2499999999358
 30
0.0
 11
253.9999999999868
 21
935.2499999999358
 31
0.0
  0
LINE
  5
437
330
1F
100
AcDbEntity
  8
LAY-10
  6
CONTINUOUS
 62
     7
100
AcDbLine
 10
264.4999999999868
 20
924.7499999999358
 30
0.0
 11
259.4999999999868
 21
929.7499999999358
 31
0.0
  0
LINE
  5
438
330
1F
100
AcDbEntity
  8
LAY-10
  6
CONTINUOUS
 62
     7
100
AcDbLine
 10
258.9999999999868
 20
924.7499999999358
 30
0.0
 11
253.9999999999868
 21
929.7499999999358
 31
0.0
  0
LINE
  5
439
330
1F
100
AcDbEntity
  8
LAY-10
  6
CONTINUOUS
 62
     7
100
AcDbLine
 10
264.4999999999868
 20
930.2499999999358
 30
0.0
 11
259.4999999999868
 21
935.2499999999358
 31
0.0
  0
LINE
  5
43A
330
1F
100
AcDbEntity
  8
LAY-10
  6
CONTINUOUS
 62
     7
100
AcDbLine
 10
258.9999999999868
 20
930.2499999999358
 30
0.0
 11
253.9999999999868
 21
935.2499999999358
 31
0.0
  0
LINE
  5
43B
330
1F
100
AcDbEntity
  8
LAY-10
  6
CONTINUOUS
 62
     7
100
AcDbLine
 10
259.4999999999868
 20
924.7499999999358
 30
0.0
 11
264.4999999999868
 21
929.7499999999358
 31
0.0
  0
LINE
  5
43C
330
1F
100
AcDbEntity
  8
LAY-10
  6
CONTINUOUS
 62
     7
100
AcDbLine
 10
253.9999999999868
 20
924.7499999999358
 30
0.0
 11
258.9999999999868
 21
929.7499999999358
 31
0.0
  0
LINE
  5
43D
330
1F
100
AcDbEntity
  8
LAY-10
  6
CONTINUOUS
 62
     7
100
AcDbLine
 10
253.9999999999868
 20
930.2499999999358
 30
0.0
 11
258.9999999999868
 21
935.2499999999358
 31
0.0
  0
LINE
  5
43E
330
1F
100
AcDbEntity
  8
LAY-10
  6
CONTINUOUS
 62
     7
100
AcDbLine
 10
259.4999999999868
 20
930.2499999999358
 30
0.0
 11
264.4999999999868
 21
935.2499999999358
 31
0.0
  0
CIRCLE
  5
43F
330
1F
100
AcDbEntity
  8
LAY-10
  6
CONTINUOUS
 62
     7
100
AcDbCircle
 10
258.6999999999807
 20
908.799999999795
 30
0.0
 40
28.19999999995139
  0
LINE
  5
440
330
1F
100
AcDbEntity
  8
LAY-10
  6
CONTINUOUS
 62
     7
100
AcDbLine
 10
268.4794427238699
 20
935.2499999999358
 30
0.0
 11
264.9999999999868
 21
935.2499999999358
 31
0.0
  0
LINE
  5
441
330
1F
100
AcDbEntity
  8
LAY-10
  6
CONTINUOUS
 62
     7
100
AcDbLine
 10
264.9999999999868
 20
930.2499999999358
 30
0.0
 11
269.5705787383977
 21
934.8205787383462
 31
0.0
  0
LINE
  5
442
330
1F
100
AcDbEntity
  8
LAY-10
  6
CONTINUOUS
 62
     7
100
AcDbLine
 10
269.9999999999868
 20
930.2499999999358
 30
0.0
 11
269.9999999999868
 21
934.6369889883966
 31
0.0
  0
LINE
  5
443
330
1F
100
AcDbEntity
  8
LAY-10
  6
CONTINUOUS
 62
     7
100
AcDbLine
 10
270.4999999999868
 20
930.2499999999358
 30
0.0
 11
270.4999999999868
 21
934.4124969494704
 31
0.0
  0
LINE
  5
444
330
1F
100
AcDbEntity
  8
LAY-10
  6
CONTINUOUS
 62
     7
100
AcDbLine
 10
275.4999999999868
 20
930.2499999999358
 30
0.0
 11
272.181031981379
 21
933.5689680185436
 31
0.0
  0
LINE
  5
445
330
1F
100
AcDbEntity
  8
LAY-10
  6
CONTINUOUS
 62
     7
100
AcDbLine
 10
270.4999999999868
 20
930.2499999999358
 30
0.0
 11
273.2228519478167
 21
932.9728519477658
 31
0.0
  0
LINE
  5
446
330
1F
100
AcDbEntity
  8
LAY-10
  6
CONTINUOUS
 62
     7
100
AcDbLine
 10
275.4999999999868
 20
930.2499999999358
 30
0.0
 11
275.4999999999868
 21
931.4495033055426
 31
0.0
  0
LINE
  5
447
330
1F
100
AcDbEntity
  8
LAY-10
  6
CONTINUOUS
 62
     7
100
AcDbLine
 10
275.9999999999868
 20
930.2499999999358
 30
0.0
 11
275.9999999999868
 21
931.0699348896204
 31
0.0
  0
LINE
  5
448
330
1F
100
AcDbEntity
  8
LAY-10
  6
CONTINUOUS
 62
     7
100
AcDbLine
 10
275.9999999999868
 20
930.2499999999358
 30
0.0
 11
276.4571550769178
 21
930.7071550768668
 31
0.0
  0
LINE
  5
449
330
1F
100
AcDbEntity
  8
LAY-10
  6
CONTINUOUS
 62
     7
100
AcDbLine
 10
277.5769038772423
 20
929.7499999999358
 30
0.0
 11
275.9999999999868
 21
929.7499999999358
 31
0.0
  0
LINE
  5
44A
330
1F
100
AcDbEntity
  8
LAY-10
  6
CONTINUOUS
 62
     7
100
AcDbLine
 10
275.9999999999868
 20
924.7499999999358
 30
0.0
 11
279.3039832905565
 21
928.0539832905055
 31
0.0
  0
LINE
  5
44B
330
1F
100
AcDbEntity
  8
LAY-10
  6
CONTINUOUS
 62
     7
100
AcDbLine
 10
275.9999999999868
 20
930.2499999999358
 30
0.0
 11
277.0067610458686
 21
930.2499999999358
 31
0.0
  0
LINE
  5
44C
330
1F
100
AcDbEntity
  8
LAY-10
  6
CONTINUOUS
 62
     7
100
AcDbLine
 10
280.9999999999868
 20
924.7499999999358
 30
0.0
 11
280.9999999999868
 21
926.0612282294718
 31
0.0
  0
LINE
  5
44D
330
1F
100
AcDbEntity
  8
LAY-10
  6
CONTINUOUS
 62
     7
100
AcDbLine
 10
281.4999999999868
 20
924.7499999999358
 30
0.0
 11
281.7690671704131
 21
925.0190671703616
 31
0.0
  0
LINE
  5
44E
330
1F
100
AcDbEntity
  8
LAY-10
  6
CONTINUOUS
 62
     7
100
AcDbLine
 10
281.4999999999868
 20
925.3951800228314
 30
0.0
 11
281.4999999999868
 21
924.7499999999358
 31
0.0
  0
LINE
  5
44F
330
1F
100
AcDbEntity
  8
LAY-10
  6
CONTINUOUS
 62
     7
100
AcDbLine
 10
281.9559132263576
 20
924.7499999999358
 30
0.0
 11
281.4999999999868
 21
924.7499999999358
 31
0.0
  0
LINE
  5
450
330
1F
100
AcDbEntity
  8
LAY-10
  6
CONTINUOUS
 62
     7
100
AcDbLine
 10
286.4999999999868
 20
910.2499999999458
 30
0.0
 11
286.4999999999868
 21
913.5328638259506
 31
0.0
  0
LINE
  5
451
330
1F
100
AcDbEntity
  8
LAY-10
  6
CONTINUOUS
 62
     7
100
AcDbLine
 10
286.1524589061573
 20
915.2499999999458
 30
0.0
 11
281.4999999999868
 21
915.2499999999458
 31
0.0
  0
LINE
  5
452
330
1F
100
AcDbEntity
  8
LAY-10
  6
CONTINUOUS
 62
     7
100
AcDbLine
 10
281.4999999999868
 20
910.2499999999458
 30
0.0
 11
286.2173387626863
 21
914.9673387626452
 31
0.0
  0
LINE
  5
453
330
1F
100
AcDbEntity
  8
LAY-10
  6
CONTINUOUS
 62
     7
100
AcDbLine
 10
283.4313060713534
 20
895.2499999997457
 30
0.0
 11
281.4999999999868
 21
895.2499999997457
 31
0.0
  0
LINE
  5
454
330
1F
100
AcDbEntity
  8
LAY-10
  6
CONTINUOUS
 62
     7
100
AcDbLine
 10
282.7216330840492
 20
894.0283669156828
 30
0.0
 11
281.4999999999868
 21
895.2499999997457
 31
0.0
  0
LINE
  5
455
330
1F
100
AcDbEntity
  8
LAY-10
  6
CONTINUOUS
 62
     7
100
AcDbLine
 10
281.4999999999868
 20
892.2048199767586
 30
0.0
 11
281.4999999999868
 21
895.2499999997457
 31
0.0
  0
LINE
  5
456
330
1F
100
AcDbEntity
  8
LAY-10
  6
CONTINUOUS
 62
     7
100
AcDbLine
 10
280.9999999999868
 20
891.5387717701182
 30
0.0
 11
280.9999999999868
 21
895.2499999997457
 31
0.0
  0
LINE
  5
457
330
1F
100
AcDbEntity
  8
LAY-10
  6
CONTINUOUS
 62
     7
100
AcDbLine
 10
280.427062235372
 20
890.8229377643603
 30
0.0
 11
275.9999999999868
 21
895.2499999997457
 31
0.0
  0
LINE
  5
458
330
1F
100
AcDbEntity
  8
LAY-10
  6
CONTINUOUS
 62
     7
100
AcDbLine
 10
275.9999999999868
 20
890.2499999997457
 30
0.0
 11
279.939997645824
 21
890.2499999997457
 31
0.0
  0
LINE
  5
459
330
1F
100
AcDbEntity
  8
LAY-10
  6
CONTINUOUS
 62
     7
100
AcDbLine
 10
279.492727093736
 20
889.7499999997457
 30
0.0
 11
275.9999999999868
 21
889.7499999997457
 31
0.0
  0
LINE
  5
45A
330
1F
100
AcDbEntity
  8
LAY-10
  6
CONTINUOUS
 62
     7
100
AcDbLine
 10
277.7462041552953
 20
888.003795844437
 30
0.0
 11
275.9999999999868
 21
889.7499999997457
 31
0.0
  0
LINE
  5
45B
330
1F
100
AcDbEntity
  8
LAY-10
  6
CONTINUOUS
 62
     7
100
AcDbLine
 10
275.9999999999868
 20
889.7499999997457
 30
0.0
 11
275.9999999999868
 21
886.53006510997
 31
0.0
  0
LINE
  5
45C
330
1F
100
AcDbEntity
  8
LAY-10
  6
CONTINUOUS
 62
     7
100
AcDbLine
 10
274.6831456287146
 20
885.566854371018
 30
0.0
 11
270.4999999999868
 21
889.7499999997457
 31
0.0
  0
LINE
  5
45D
330
1F
100
AcDbEntity
  8
LAY-10
  6
CONTINUOUS
 62
     7
100
AcDbLine
 10
273.4254032200924
 20
884.7499999997457
 30
0.0
 11
270.4999999999868
 21
884.7499999997457
 31
0.0
  0
LINE
  5
45E
330
1F
100
AcDbEntity
  8
LAY-10
  6
CONTINUOUS
 62
     7
100
AcDbLine
 10
275.4999999999868
 20
886.1504966940478
 30
0.0
 11
275.4999999999868
 21
889.7499999997457
 31
0.0
  0
LINE
  5
45F
330
1F
100
AcDbEntity
  8
LAY-10
  6
CONTINUOUS
 62
     7
100
AcDbLine
 10
242.4999999999868
 20
885.7175391258446
 30
0.0
 11
242.4999999999868
 21
889.7499999997457
 31
0.0
  0
LINE
  5
460
330
1F
100
AcDbEntity
  8
LAY-10
  6
CONTINUOUS
 62
     7
100
AcDbLine
 10
247.9999999999868
 20
884.7499999997457
 30
0.0
 11
243.974596779869
 21
884.7499999997457
 31
0.0
  0
LINE
  5
461
330
1F
100
AcDbEntity
  8
LAY-10
  6
CONTINUOUS
 62
     7
100
AcDbLine
 10
243.3765545491938
 20
885.1265545489526
 30
0.0
 11
247.9999999999868
 21
889.7499999997457
 31
0.0
  0
LINE
  5
462
330
1F
100
AcDbEntity
  8
LAY-10
  6
CONTINUOUS
 62
     7
100
AcDbLine
 10
242.9999999999868
 20
889.7499999997457
 30
0.0
 11
242.9999999999868
 21
885.3745864496049
 31
0.0
  0
LINE
  5
463
330
1F
100
AcDbEntity
  8
LAY-10
  6
CONTINUOUS
 62
     7
100
AcDbLine
 10
242.4999999999868
 20
889.7499999997457
 30
0.0
 11
237.9072729062259
 21
889.7499999997457
 31
0.0
  0
LINE
  5
464
330
1F
100
AcDbEntity
  8
LAY-10
  6
CONTINUOUS
 62
     7
100
AcDbLine
 10
236.9999999999868
 20
890.7902804018249
 30
0.0
 11
236.9999999999868
 21
895.2499999997457
 31
0.0
  0
LINE
  5
465
330
1F
100
AcDbEntity
  8
LAY-10
  6
CONTINUOUS
 62
     7
100
AcDbLine
 10
235.1054104807881
 20
893.355410480547
 30
0.0
 11
236.9999999999868
 21
895.2499999997457
 31
0.0
  0
LINE
  5
466
330
1F
100
AcDbEntity
  8
LAY-10
  6
CONTINUOUS
 62
     7
100
AcDbLine
 10
236.9999999999868
 20
895.2499999997457
 30
0.0
 11
233.9686939286084
 21
895.2499999997457
 31
0.0
  0
LINE
  5
467
330
1F
100
AcDbEntity
  8
LAY-10
  6
CONTINUOUS
 62
     7
100
AcDbLine
 10
231.4999999999868
 20
904.7499999999449
 30
0.0
 11
230.7923397612853
 21
904.7499999999449
 31
0.0
  0
LINE
  5
468
330
1F
100
AcDbEntity
  8
LAY-10
  6
CONTINUOUS
 62
     7
100
AcDbLine
 10
230.6863206918733
 20
905.5636793080583
 30
0.0
 11
231.4999999999868
 21
904.7499999999449
 31
0.0
  0
LINE
  5
469
330
1F
100
AcDbEntity
  8
LAY-10
  6
CONTINUOUS
 62
     7
100
AcDbLine
 10
231.4999999999868
 20
909.7499999999449
 30
0.0
 11
230.5000442478859
 21
908.7500442478439
 31
0.0
  0
LINE
  5
46A
330
1F
100
AcDbEntity
  8
LAY-10
  6
CONTINUOUS
 62
     7
100
AcDbLine
 10
230.5160063156754
 20
909.7499999999449
 30
0.0
 11
231.4999999999868
 21
909.7499999999449
 31
0.0
  0
LINE
  5
46B
330
1F
100
AcDbEntity
  8
LAY-10
  6
CONTINUOUS
 62
     7
100
AcDbLine
 10
231.4999999999868
 20
910.2499999999449
 30
0.0
 11
230.5373030411165
 21
910.2499999999449
 31
0.0
  0
LINE
  5
46C
330
1F
100
AcDbEntity
  8
LAY-10
  6
CONTINUOUS
 62
     7
100
AcDbLine
 10
230.5982349135202
 20
911.1517650864115
 30
0.0
 11
231.4999999999868
 21
910.2499999999449
 31
0.0
  0
LINE
  5
46D
330
1F
100
AcDbEntity
  8
LAY-10
  6
CONTINUOUS
 62
     7
100
AcDbLine
 10
231.4999999999868
 20
915.2499999999449
 30
0.0
 11
231.1726930057976
 21
914.9226930057557
 31
0.0
  0
LINE
  5
46E
330
1F
100
AcDbEntity
  8
LAY-10
  6
CONTINUOUS
 62
     7
100
AcDbLine
 10
231.4999999999868
 20
915.2499999999449
 30
0.0
 11
231.2475410938041
 21
915.2499999999449
 31
0.0
  0
LINE
  5
46F
330
1F
100
AcDbEntity
  8
LAY-10
  6
CONTINUOUS
 62
     7
100
AcDbLine
 10
236.9999999999868
 20
924.7499999999349
 30
0.0
 11
235.4440867736034
 21
924.7499999999349
 31
0.0
  0
LINE
  5
470
330
1F
100
AcDbEntity
  8
LAY-10
  6
CONTINUOUS
 62
     7
100
AcDbLine
 10
236.0929353589918
 20
925.6570646409299
 30
0.0
 11
236.9999999999868
 21
924.7499999999349
 31
0.0
  0
LINE
  5
471
330
1F
100
AcDbEntity
  8
LAY-10
  6
CONTINUOUS
 62
     7
100
AcDbLine
 10
236.9999999999868
 20
926.8097195977657
 30
0.0
 11
236.9999999999868
 21
924.7499999999349
 31
0.0
  0
LINE
  5
472
330
1F
100
AcDbEntity
  8
LAY-10
  6
CONTINUOUS
 62
     7
100
AcDbLine
 10
237.4999999999868
 20
927.3956984270529
 30
0.0
 11
237.4999999999868
 21
924.7499999999349
 31
0.0
  0
LINE
  5
473
330
1F
100
AcDbEntity
  8
LAY-10
  6
CONTINUOUS
 62
     7
100
AcDbLine
 10
238.6349805667969
 20
928.6150194331243
 30
0.0
 11
242.4999999999868
 21
924.7499999999349
 31
0.0
  0
LINE
  5
474
330
1F
100
AcDbEntity
  8
LAY-10
  6
CONTINUOUS
 62
     7
100
AcDbLine
 10
242.4999999999868
 20
930.249999999935
 30
0.0
 11
240.3932389540923
 21
930.249999999935
 31
0.0
  0
LINE
  5
475
330
1F
100
AcDbEntity
  8
LAY-10
  6
CONTINUOUS
 62
     7
100
AcDbLine
 10
239.8230961227182
 20
929.7499999999349
 30
0.0
 11
242.4999999999868
 21
929.7499999999349
 31
0.0
  0
LINE
  5
476
330
1F
100
AcDbEntity
  8
LAY-10
  6
CONTINUOUS
 62
     7
100
AcDbLine
 10
241.5581242985613
 20
931.1918757013603
 30
0.0
 11
242.4999999999868
 21
930.249999999935
 31
0.0
  0
LINE
  5
477
330
1F
100
AcDbEntity
  8
LAY-10
  6
CONTINUOUS
 62
     7
100
AcDbLine
 10
242.4999999999868
 20
931.8824608737453
 30
0.0
 11
242.4999999999868
 21
930.249999999935
 31
0.0
  0
LINE
  5
478
330
1F
100
AcDbEntity
  8
LAY-10
  6
CONTINUOUS
 62
     7
100
AcDbLine
 10
244.8726726672057
 20
933.3773273327159
 30
0.0
 11
247.9999999999868
 21
930.249999999935
 31
0.0
  0
LINE
  5
479
330
1F
100
AcDbEntity
  8
LAY-10
  6
CONTINUOUS
 62
     7
100
AcDbLine
 10
242.9999999999868
 20
930.249999999935
 30
0.0
 11
242.9999999999868
 21
932.2254135499855
 31
0.0
  0
LINE
  5
47A
330
1F
100
AcDbEntity
  8
LAY-10
  6
CONTINUOUS
 62
     7
100
AcDbLine
 10
247.3768532110694
 20
934.6268532110174
 30
0.0
 11
242.9999999999868
 21
930.249999999935
 31
0.0
  0
LINE
  5
47B
330
1F
100
AcDbEntity
  8
LAY-10
  6
CONTINUOUS
 62
     7
100
AcDbLine
 10
247.9999999999868
 20
934.8911862510444
 30
0.0
 11
247.9999999999868
 21
930.249999999935
 31
0.0
  0
LINE
  5
47C
330
1F
100
AcDbEntity
  8
LAY-10
  6
CONTINUOUS
 62
     7
100
AcDbLine
 10
253.4999999999868
 20
935.249999999935
 30
0.0
 11
248.9205572760893
 21
935.249999999935
 31
0.0
  0
LINE
  5
47D
330
1F
100
AcDbEntity
  8
LAY-10
  6
CONTINUOUS
 62
     7
100
AcDbLine
 10
248.6149924493293
 20
935.1350075505924
 30
0.0
 11
253.4999999999868
 21
930.249999999935
 31
0.0
  0
LINE
  5
47E
330
1F
100
AcDbEntity
  8
LAY-10
  6
CONTINUOUS
 62
     7
100
AcDbLine
 10
248.4999999999868
 20
930.249999999935
 30
0.0
 11
248.4999999999868
 21
935.0906827599932
 31
0.0
  0
LINE
  5
47F
330
1F
100
AcDbEntity
  8
LAY-10
  6
CONTINUOUS
 62
     7
100
AcDbLine
 10
240.2355712752174
 20
887.4855712749763
 30
0.0
 11
242.4999999999868
 21
889.7499999997457
 31
0.0
  0
LINE
  5
480
330
1F
100
AcDbEntity
  8
LAY-10
  6
CENTER
 62
     2
100
AcDbLine
 10
750.0000000000512
 20
1207.000000000045
 30
0.0
 11
750.0000000000512
 21
1252.999999999991
 31
0.0
  0
LINE
  5
481
330
1F
100
AcDbEntity
  8
LAY-10
  6
CENTER
 62
     2
100
AcDbLine
 10
199.999999999955
 20
1207.000000000046
 30
0.0
 11
199.9999999999552
 21
1252.999999999992
 31
0.0
  0
LINE
  5
482
330
1F
100
AcDbEntity
  8
LAY-10
  6
CENTER
 62
     2
100
AcDbLine
 10
199.9999999999552
 20
592.9999999999358
 30
0.0
 11
199.9999999999552
 21
546.9999999999899
 31
0.0
  0
LINE
  5
483
330
1F
100
AcDbEntity
  8
LAY-10
  6
CENTER
 62
     2
100
AcDbLine
 10
750.0000000000512
 20
592.9999999999362
 30
0.0
 11
750.0000000000512
 21
546.9999999999903
 31
0.0
  0
LINE
  5
484
330
1F
100
AcDbEntity
  8
LAY-10
  6
CENTER
 62
     2
100
AcDbLine
 10
475.000000000003
 20
1260.0
 30
0.0
 11
475.0000000000023
 21
540.0000000000003
 31
0.0
  0
LINE
  5
485
330
1F
100
AcDbEntity
  8
LAY-10
  6
CENTER
 62
     2
100
AcDbLine
 10
750.0000000000434
 20
223.0
 30
0.0
 11
750.0000000000434
 21
172.0000000000997
 31
0.0
  0
LINE
  5
486
330
1F
100
AcDbEntity
  8
LAY-10
  6
CENTER
 62
     2
100
AcDbLine
 10
199.9999999999638
 20
223.0
 30
0.0
 11
199.9999999999638
 21
172.0000000000997
 31
0.0
  0
LINE
  5
487
330
1F
100
AcDbEntity
  8
LAY-10
  6
CENTER
 62
     2
100
AcDbLine
 10
475.0000000000034
 20
165.0000000000983
 30
0.0
 11
475.0000000000034
 21
359.9999999999862
 31
0.0
  0
LINE
  5
488
330
1F
100
AcDbEntity
  8
LAY-10
  6
CENTER
 62
     2
100
AcDbLine
 10
1260.0
 20
900.000000000029
 30
0.0
 11
1065.000000000003
 21
900.000000000029
 31
0.0
  0
LINE
  5
489
330
1F
100
AcDbEntity
  8
LAY-10
  6
CENTER
 62
     2
100
AcDbLine
 10
115.0000000000002
 20
899.9999999999909
 30
0.0
 11
835.0000000000003
 21
899.9999999999909
 31
0.0
  0
LINE
  5
48A
330
1F
100
AcDbEntity
  8
LAY-10
  6
HIDDEN
 62
     7
100
AcDbLine
 10
775.0000000000034
 20
1200.0
 30
0.0
 11
174.9999999999997
 21
1200.0
 31
0.0
  0
LINE
  5
48B
330
1F
100
AcDbEntity
  8
LAY-10
  6
HIDDEN
 62
     7
100
AcDbLine
 10
775.0000000000034
 20
599.9999999999822
 30
0.0
 11
174.9999999999997
 21
599.9999999999822
 31
0.0
  0
LINE
  5
48C
330
1F
100
AcDbEntity
  8
LAY-10
  6
HIDDEN
 62
     7
100
AcDbLine
 10
775.0000000000034
 20
599.9999999999822
 30
0.0
 11
775.0000000000034
 21
1200.0
 31
0.0
  0
LINE
  5
48D
330
1F
100
AcDbEntity
  8
LAY-10
  6
HIDDEN
 62
     7
100
AcDbLine
 10
174.9999999999997
 20
599.9999999999822
 30
0.0
 11
174.9999999999997
 21
1200.0
 31
0.0
  0
LINE
  5
48E
330
1F
100
AcDbEntity
  8
LAY-10
  6
CONTINUOUS
 62
     7
100
AcDbLine
 10
1108.999999999997
 20
902.3987081778673
 30
0.0
 11
1101.997114317034
 21
902.3987081778673
 31
0.0
  0
LINE
  5
48F
330
1F
100
AcDbEntity
  8
LAY-10
  6
CONTINUOUS
 62
     7
100
AcDbLine
 10
1108.999999999997
 20
897.598708177868
 30
0.0
 11
1101.997114317034
 21
897.598708177868
 31
0.0
  0
LINE
  5
490
330
1F
100
AcDbEntity
  8
LAY-10
  6
CONTINUOUS
 62
     7
100
AcDbLine
 10
1121.197114317039
 20
902.3987081778673
 30
0.0
 11
1112.99711431704
 21
902.3987081778673
 31
0.0
  0
LINE
  5
491
330
1F
100
AcDbEntity
  8
LAY-10
  6
CONTINUOUS
 62
     7
100
AcDbLine
 10
1121.197114317039
 20
897.598708177868
 30
0.0
 11
1112.99711431704
 21
897.598708177868
 31
0.0
  0
DIMENSION
  5
493
330
1F
100
AcDbEntity
  8
LAY-20
  6
CONTINUOUS
 62
     4
100
AcDbDimension
  2
*D15
 10
354.9999999999101
 20
349.9999999999999
 30
0.0
 11
342.4999999999101
 21
310.4999999999999
 31
0.0
 70
   160
  3
ISO-25
100
AcDbAlignedDimension
 13
354.9999999999101
 23
271.0
 33
0.0
 14
354.9999999999101
 24
349.9999999999999
 34
0.0
 50
90.0
100
AcDbRotatedDimension
1001
ACAD
1000
DSTYLE
1002
{
1070
   270
1070
     2
1070
     6
1000
EX_BNORM
1070
     7
1000
EX_BNORM
1070
    41
1040
12.5
1070
    42
1040
0.0
1070
    44
1040
0.0
1070
    73
1070
     0
1070
    74
1070
     0
1070
    75
1070
     1
1070
    76
1070
     1
1070
    77
1070
     1
1070
    78
1070
     8
1070
   140
1040
15.590552
1070
   147
1040
0.0
1070
   173
1070
     1
1070
   176
1070
     4
1070
   177
1070
     4
1070
   178
1070
     7
1070
   271
1070
     1
1070
   277
1070
     2
1070
   279
1070
     2
1070
   280
1070
     0
1070
   287
1070
     5
1070
   340
1005
492
1002
}
  0
DIMENSION
  5
49F
330
1F
100
AcDbEntity
  8
LAY-20
  6
CONTINUOUS
 62
     4
100
AcDbDimension
  2
*D16
 10
319.9999999999102
 20
349.9999999999999
 30
0.0
 11
307.4999999999102
 21
315.4999999999999
 31
0.0
 70
   160
  3
ISO-25
100
AcDbAlignedDimension
 13
269.9999999999102
 23
281.0
 33
0.0
 14
319.9999999999102
 24
349.9999999999999
 34
0.0
 50
90.0
100
AcDbRotatedDimension
1001
ACAD
1000
DSTYLE
1002
{
1070
   270
1070
     2
1070
     6
1000
EX_BNORM
1070
     7
1000
EX_BNORM
1070
    41
1040
12.5
1070
    42
1040
7.5
1070
    44
1040
7.5
1070
    73
1070
     0
1070
    74
1070
     0
1070
    75
1070
     0
1070
    76
1070
     1
1070
    77
1070
     1
1070
    78
1070
     8
1070
   140
1040
15.590552
1070
   147
1040
0.0
1070
   173
1070
     1
1070
   176
1070
     4
1070
   177
1070
     4
1070
   178
1070
     7
1070
   271
1070
     1
1070
   277
1070
     2
1070
   279
1070
     2
1070
   280
1070
     0
1070
   287
1070
     5
1070
   340
1005
492
1002
}
  0
DIMENSION
  5
4AB
330
1F
100
AcDbEntity
  8
LAY-20
  6
CONTINUOUS
 62
     4
100
AcDbDimension
  2
*D17
 10
775.0000000000301
 20
125.0000000000999
 30
0.0
 11
475.0000000000301
 21
137.5000000000999
 31
0.0
 70
   160
  1
桝径<>
  3
ISO-25
100
AcDbAlignedDimension
 13
175.0000000000301
 23
219.9999999999999
 33
0.0
 14
775.0000000000301
 24
219.9999999999999
 34
0.0
100
AcDbRotatedDimension
1001
ACAD
1000
DSTYLE
1002
{
1070
   270
1070
     2
1070
     6
1000
EX_BNORM
1070
     7
1000
EX_BNORM
1070
    41
1040
12.5
1070
    42
1040
7.5
1070
    44
1040
7.5
1070
    73
1070
     0
1070
    74
1070
     0
1070
    75
1070
     0
1070
    76
1070
     0
1070
    77
1070
     1
1070
    78
1070
     8
1070
   140
1040
15.590552
1070
   147
1040
0.0
1070
   173
1070
     1
1070
   176
1070
     4
1070
   177
1070
     4
1070
   178
1070
     7
1070
   271
1070
     1
1070
   277
1070
     2
1070
   279
1070
     2
1070
   280
1070
     0
1070
   287
1070
     5
1070
   340
1005
492
1002
}
  0
DIMENSION
  5
4B8
330
1F
100
AcDbEntity
  8
LAY-20
  6
CONTINUOUS
 62
     4
100
AcDbDimension
  2
*D18
 10
775.0000000000301
 20
125.0000000000999
 30
0.0
 11
800.0000000000153
 21
137.5000000000999
 31
0.0
 70
   160
  3
ISO-25
100
AcDbAlignedDimension
 13
825.0000000000003
 23
229.0
 33
0.0
 14
775.0000000000301
 24
125.0000000000999
 34
0.0
100
AcDbRotatedDimension
1001
ACAD
1000
DSTYLE
1002
{
1070
   270
1070
     2
1070
     6
1000
EX_BNORM
1070
     7
1000
EX_BNORM
1070
    41
1040
12.5
1070
    42
1040
7.5
1070
    44
1040
7.5
1070
    73
1070
     0
1070
    74
1070
     0
1070
    75
1070
     0
1070
    76
1070
     1
1070
    77
1070
     1
1070
    78
1070
     8
1070
   140
1040
15.590552
1070
   147
1040
0.0
1070
   173
1070
     1
1070
   176
1070
     4
1070
   177
1070
     4
1070
   178
1070
     7
1070
   271
1070
     1
1070
   277
1070
     2
1070
   279
1070
     2
1070
   280
1070
     0
1070
   287
1070
     5
1070
   340
1005
492
1002
}
  0
DIMENSION
  5
4C4
330
1F
100
AcDbEntity
  8
LAY-20
  6
CONTINUOUS
 62
     4
100
AcDbDimension
  2
*D19
 10
175.0000000000301
 20
125.0000000000999
 30
0.0
 11
150.0000000000151
 21
137.5000000000999
 31
0.0
 70
   160
  3
ISO-25
100
AcDbAlignedDimension
 13
125.0000000000001
 23
229.0
 33
0.0
 14
175.0000000000301
 24
125.0000000000999
 34
0.0
100
AcDbRotatedDimension
1001
ACAD
1000
DSTYLE
1002
{
1070
   270
1070
     2
1070
     6
1000
EX_BNORM
1070
     7
1000
EX_BNORM
1070
    41
1040
12.5
1070
    42
1040
7.5
1070
    44
1040
7.5
1070
    73
1070
     0
1070
    74
1070
     0
1070
    75
1070
     0
1070
    76
1070
     1
1070
    77
1070
     1
1070
    78
1070
     8
1070
   140
1040
15.590552
1070
   147
1040
0.0
1070
   173
1070
     1
1070
   176
1070
     4
1070
   177
1070
     4
1070
   178
1070
     7
1070
   271
1070
     1
1070
   277
1070
     2
1070
   279
1070
     2
1070
   280
1070
     0
1070
   287
1070
     5
1070
   340
1005
492
1002
}
  0
DIMENSION
  5
4D0
330
1F
100
AcDbEntity
  8
LAY-20
  6
CONTINUOUS
 62
     4
100
AcDbDimension
  2
*D20
 10
825.0000000000003
 20
469.9999999999999
 30
0.0
 11
475.0000000000003
 21
482.4999999999999
 31
0.0
 70
   160
  3
ISO-25
100
AcDbAlignedDimension
 13
125.0000000000001
 23
349.9999999999999
 33
0.0
 14
825.0000000000003
 24
349.9999999999999
 34
0.0
100
AcDbRotatedDimension
1001
ACAD
1000
DSTYLE
1002
{
1070
   270
1070
     2
1070
     6
1000
EX_BNORM
1070
     7
1000
EX_BNORM
1070
    41
1040
12.5
1070
    42
1040
7.5
1070
    44
1040
7.5
1070
    73
1070
     0
1070
    74
1070
     0
1070
    75
1070
     0
1070
    76
1070
     0
1070
    77
1070
     1
1070
    78
1070
     8
1070
   140
1040
15.590552
1070
   147
1040
0.0
1070
   173
1070
     1
1070
   176
1070
     4
1070
   177
1070
     4
1070
   178
1070
     7
1070
   271
1070
     1
1070
   277
1070
     2
1070
   279
1070
     2
1070
   280
1070
     0
1070
   287
1070
     5
1070
   340
1005
492
1002
}
  0
DIMENSION
  5
4DD
330
1F
100
AcDbEntity
  8
LAY-20
  6
CONTINUOUS
 62
     4
100
AcDbDimension
  2
*D21
 10
818.5000000000026
 20
434.9999999999999
 30
0.0
 11
474.9999999999995
 21
447.4999999999999
 31
0.0
 70
   160
  3
ISO-25
100
AcDbAlignedDimension
 13
131.4999999999963
 23
349.9999999999865
 33
0.0
 14
818.5000000000026
 24
349.9999999999865
 34
0.0
100
AcDbRotatedDimension
1001
ACAD
1000
DSTYLE
1002
{
1070
   270
1070
     2
1070
     6
1000
EX_BNORM
1070
     7
1000
EX_BNORM
1070
    41
1040
12.5
1070
    42
1040
7.5
1070
    44
1040
7.5
1070
    73
1070
     0
1070
    74
1070
     0
1070
    75
1070
     0
1070
    76
1070
     0
1070
    77
1070
     1
1070
    78
1070
     8
1070
   140
1040
15.590552
1070
   147
1040
0.0
1070
   173
1070
     1
1070
   176
1070
     4
1070
   177
1070
     4
1070
   178
1070
     7
1070
   271
1070
     1
1070
   277
1070
     2
1070
   279
1070
     2
1070
   280
1070
     0
1070
   287
1070
     5
1070
   340
1005
492
1002
}
  0
DIMENSION
  5
4EA
330
1F
100
AcDbEntity
  8
LAY-20
  6
CONTINUOUS
 62
     4
100
AcDbDimension
  2
*D22
 10
814.0
 20
399.9999999999999
 30
0.0
 11
475.0000000000001
 21
412.4999999999999
 31
0.0
 70
   160
  3
ISO-25
100
AcDbAlignedDimension
 13
136.0000000000001
 23
349.9999999999999
 33
0.0
 14
814.0
 24
349.9999999999999
 34
0.0
100
AcDbRotatedDimension
1001
ACAD
1000
DSTYLE
1002
{
1070
   270
1070
     2
1070
     6
1000
EX_BNORM
1070
     7
1000
EX_BNORM
1070
    41
1040
12.5
1070
    42
1040
7.5
1070
    44
1040
7.5
1070
    73
1070
     0
1070
    74
1070
     0
1070
    75
1070
     0
1070
    76
1070
     0
1070
    77
1070
     1
1070
    78
1070
     8
1070
   140
1040
15.590552
1070
   147
1040
0.0
1070
   173
1070
     1
1070
   176
1070
     4
1070
   177
1070
     4
1070
   178
1070
     7
1070
   271
1070
     1
1070
   277
1070
     2
1070
   279
1070
     2
1070
   280
1070
     0
1070
   287
1070
     5
1070
   340
1005
492
1002
}
  0
DIMENSION
  5
4F7
330
1F
100
AcDbEntity
  8
LAY-20
  6
CONTINUOUS
 62
     4
100
AcDbDimension
  2
*D23
 10
875.0000000000001
 20
349.9999999999999
 30
0.0
 11
862.5000000000001
 21
284.9999999999999
 31
0.0
 70
   160
  3
ISO-25
100
AcDbAlignedDimension
 13
816.0000000000002
 23
219.9999999999999
 33
0.0
 14
825.0000000000003
 24
349.9999999999999
 34
0.0
 50
90.0
100
AcDbRotatedDimension
1001
ACAD
1000
DSTYLE
1002
{
1070
   270
1070
     2
1070
     6
1000
EX_BNORM
1070
     7
1000
EX_BNORM
1070
    41
1040
12.5
1070
    42
1040
7.5
1070
    44
1040
7.5
1070
    73
1070
     0
1070
    74
1070
     0
1070
    75
1070
     0
1070
    76
1070
     0
1070
    77
1070
     1
1070
    78
1070
     8
1070
   140
1040
15.590552
1070
   147
1040
0.0
1070
   173
1070
     1
1070
   176
1070
     4
1070
   177
1070
     4
1070
   178
1070
     7
1070
   271
1070
     1
1070
   277
1070
     2
1070
   279
1070
     2
1070
   280
1070
     0
1070
   287
1070
     5
1070
   340
1005
492
1002
}
  0
DIMENSION
  5
504
330
1F
100
AcDbEntity
  8
LAY-20
  6
CONTINUOUS
 62
     4
100
AcDbDimension
  2
*D24
 10
920.0000000000006
 20
1250.0
 30
0.0
 11
907.5000000000008
 21
899.9999999999994
 31
0.0
 70
   160
  3
ISO-25
100
AcDbAlignedDimension
 13
1075.0
 23
549.9999999999999
 33
0.0
 14
1075.0
 24
1250.0
 34
0.0
 50
90.0
100
AcDbRotatedDimension
1001
ACAD
1000
DSTYLE
1002
{
1070
   270
1070
     2
1070
     6
1000
EX_BNORM
1070
     7
1000
EX_BNORM
1070
    41
1040
12.5
1070
    42
1040
7.5
1070
    44
1040
7.5
1070
    73
1070
     0
1070
    74
1070
     0
1070
    75
1070
     0
1070
    76
1070
     0
1070
    77
1070
     1
1070
    78
1070
     8
1070
   140
1040
15.590552
1070
   147
1040
0.0
1070
   173
1070
     1
1070
   176
1070
     4
1070
   177
1070
     4
1070
   178
1070
     7
1070
   271
1070
     1
1070
   277
1070
     2
1070
   279
1070
     2
1070
   280
1070
     0
1070
   287
1070
     5
1070
   340
1005
492
1002
}
  0
DIMENSION
  5
511
330
1F
100
AcDbEntity
  8
LAY-20
  6
CONTINUOUS
 62
     4
100
AcDbDimension
  2
*D25
 10
955.0000000000003
 20
1243.500000000077
 30
0.0
 11
942.5000000000003
 21
900.000000000039
 31
0.0
 70
   160
  3
ISO-25
100
AcDbAlignedDimension
 13
1075.000000000002
 23
556.5000000000008
 33
0.0
 14
1075.000000000003
 24
1243.500000000077
 34
0.0
 50
90.0
100
AcDbRotatedDimension
1001
ACAD
1000
DSTYLE
1002
{
1070
   270
1070
     2
1070
     6
1000
EX_BNORM
1070
     7
1000
EX_BNORM
1070
    41
1040
12.5
1070
    42
1040
7.5
1070
    44
1040
7.5
1070
    73
1070
     0
1070
    74
1070
     0
1070
    75
1070
     0
1070
    76
1070
     0
1070
    77
1070
     1
1070
    78
1070
     8
1070
   140
1040
15.590552
1070
   147
1040
0.0
1070
   173
1070
     1
1070
   176
1070
     4
1070
   177
1070
     4
1070
   178
1070
     7
1070
   271
1070
     1
1070
   277
1070
     2
1070
   279
1070
     2
1070
   280
1070
     0
1070
   287
1070
     5
1070
   340
1005
492
1002
}
  0
DIMENSION
  5
51E
330
1F
100
AcDbEntity
  8
LAY-20
  6
CONTINUOUS
 62
     4
100
AcDbDimension
  2
*D26
 10
1025.0
 20
856.4974163555001
 30
0.0
 11
1012.5
 21
899.99870817775
 31
0.0
 70
   160
  3
ISO-25
100
AcDbAlignedDimension
 13
1075.0
 23
943.4999999999999
 33
0.0
 14
1075.0
 24
856.4974163555001
 34
0.0
 50
90.0
100
AcDbRotatedDimension
1001
ACAD
1000
DSTYLE
1002
{
1070
   270
1070
     2
1070
     6
1000
EX_BNORM
1070
     7
1000
EX_BNORM
1070
    41
1040
12.5
1070
    42
1040
7.5
1070
    44
1040
7.5
1070
    73
1070
     0
1070
    74
1070
     0
1070
    75
1070
     0
1070
    76
1070
     0
1070
    77
1070
     1
1070
    78
1070
     8
1070
   140
1040
15.590552
1070
   147
1040
0.0
1070
   173
1070
     1
1070
   176
1070
     4
1070
   177
1070
     4
1070
   178
1070
     7
1070
   271
1070
     1
1070
   277
1070
     2
1070
   279
1070
     2
1070
   280
1070
     0
1070
   287
1070
     5
1070
   340
1005
492
1002
}
  0
DIMENSION
  5
52B
330
1F
100
AcDbEntity
  8
LAY-20
  6
CONTINUOUS
 62
     4
100
AcDbDimension
  2
*D27
 10
990.0000000000003
 20
1239.0000000001
 30
0.0
 11
977.5000000000003
 21
900.00000000005
 31
0.0
 70
   160
  3
ISO-25
100
AcDbAlignedDimension
 13
1075.0
 23
560.9999999999999
 33
0.0
 14
1075.0
 24
1239.0000000001
 34
0.0
 50
90.0
100
AcDbRotatedDimension
1001
ACAD
1000
DSTYLE
1002
{
1070
   270
1070
     2
1070
     6
1000
EX_BNORM
1070
     7
1000
EX_BNORM
1070
    41
1040
12.5
1070
    42
1040
7.5
1070
    44
1040
7.5
1070
    73
1070
     0
1070
    74
1070
     0
1070
    75
1070
     0
1070
    76
1070
     0
1070
    77
1070
     1
1070
    78
1070
     8
1070
   140
1040
15.590552
1070
   147
1040
0.0
1070
   173
1070
     1
1070
   176
1070
     4
1070
   177
1070
     4
1070
   178
1070
     7
1070
   271
1070
     1
1070
   277
1070
     2
1070
   279
1070
     2
1070
   280
1070
     0
1070
   287
1070
     5
1070
   340
1005
492
1002
}
  0
DIMENSION
  5
538
330
1F
100
AcDbEntity
  8
LAY-20
  6
CONTINUOUS
 62
     4
100
AcDbDimension
  2
*D28
 10
1025.0
 20
943.4999999999999
 30
0.0
 11
1012.5
 21
1091.25000000005
 31
0.0
 70
   160
  3
ISO-25
100
AcDbAlignedDimension
 13
1025.0
 23
1239.0000000001
 33
0.0
 14
1025.0
 24
943.4999999999999
 34
0.0
 50
90.0
100
AcDbRotatedDimension
1001
ACAD
1000
DSTYLE
1002
{
1070
   270
1070
     2
1070
     6
1000
EX_BNORM
1070
     7
1000
EX_BNORM
1070
    41
1040
12.5
1070
    42
1040
0.0
1070
    44
1040
0.0
1070
    73
1070
     0
1070
    74
1070
     0
1070
    75
1070
     1
1070
    76
1070
     1
1070
    77
1070
     1
1070
    78
1070
     8
1070
   140
1040
15.590552
1070
   147
1040
0.0
1070
   173
1070
     1
1070
   176
1070
     4
1070
   177
1070
     4
1070
   178
1070
     7
1070
   271
1070
     1
1070
   277
1070
     2
1070
   279
1070
     2
1070
   280
1070
     0
1070
   287
1070
     5
1070
   340
1005
492
1002
}
  0
DIMENSION
  5
543
330
1F
100
AcDbEntity
  8
LAY-20
  6
CONTINUOUS
 62
     4
100
AcDbDimension
  2
*D29
 10
1025.0
 20
560.9999999999999
 30
0.0
 11
1012.5
 21
708.74870817775
 31
0.0
 70
   160
  3
ISO-25
100
AcDbAlignedDimension
 13
1025.0
 23
856.4974163555001
 33
0.0
 14
1025.0
 24
560.9999999999999
 34
0.0
 50
90.0
100
AcDbRotatedDimension
1001
ACAD
1000
DSTYLE
1002
{
1070
   270
1070
     2
1070
     6
1000
EX_BNORM
1070
     7
1000
EX_BNORM
1070
    41
1040
12.5
1070
    42
1040
0.0
1070
    44
1040
0.0
1070
    73
1070
     0
1070
    74
1070
     0
1070
    75
1070
     1
1070
    76
1070
     1
1070
    77
1070
     1
1070
    78
1070
     8
1070
   140
1040
15.590552
1070
   147
1040
0.0
1070
   173
1070
     1
1070
   176
1070
     4
1070
   177
1070
     4
1070
   178
1070
     7
1070
   271
1070
     1
1070
   277
1070
     2
1070
   279
1070
     2
1070
   280
1070
     0
1070
   287
1070
     5
1070
   340
1005
492
1002
}
  0
DIMENSION
  5
54E
330
1F
100
AcDbEntity
  8
LAY-20
  6
CONTINUOUS
 62
     4
100
AcDbDimension
  2
*D30
 10
1300.0
 20
1200.0
 30
0.0
 11
1287.5
 21
899.9999999999997
 31
0.0
 70
   160
  1
桝径<>
  3
ISO-25
100
AcDbAlignedDimension
 13
1205.0
 23
599.9999999999998
 33
0.0
 14
1205.0
 24
1200.0
 34
0.0
 50
90.0
100
AcDbRotatedDimension
1001
ACAD
1000
DSTYLE
1002
{
1070
   270
1070
     2
1070
     6
1000
EX_BNORM
1070
     7
1000
EX_BNORM
1070
    41
1040
12.5
1070
    42
1040
7.5
1070
    44
1040
7.5
1070
    73
1070
     0
1070
    74
1070
     0
1070
    75
1070
     0
1070
    76
1070
     0
1070
    77
1070
     1
1070
    78
1070
     8
1070
   140
1040
15.590552
1070
   147
1040
0.0
1070
   173
1070
     1
1070
   176
1070
     4
1070
   177
1070
     4
1070
   178
1070
     7
1070
   271
1070
     1
1070
   277
1070
     2
1070
   279
1070
     2
1070
   280
1070
     0
1070
   287
1070
     5
1070
   340
1005
492
1002
}
  0
DIMENSION
  5
55B
330
1F
100
AcDbEntity
  8
LAY-20
  6
CONTINUOUS
 62
     4
100
AcDbDimension
  2
*D31
 10
1300.0
 20
1200.0
 30
0.0
 11
1287.5
 21
1225.0
 31
0.0
 70
   160
  3
ISO-25
100
AcDbAlignedDimension
 13
1250.0
 23
1250.0
 33
0.0
 14
1300.0
 24
1200.0
 34
0.0
 50
90.0
100
AcDbRotatedDimension
1001
ACAD
1000
DSTYLE
1002
{
1070
   270
1070
     2
1070
     6
1000
EX_BNORM
1070
     7
1000
EX_BNORM
1070
    41
1040
12.5
1070
    42
1040
7.5
1070
    44
1040
7.5
1070
    73
1070
     0
1070
    74
1070
     0
1070
    75
1070
     0
1070
    76
1070
     1
1070
    77
1070
     1
1070
    78
1070
     8
1070
   140
1040
15.590552
1070
   147
1040
0.0
1070
   173
1070
     1
1070
   176
1070
     4
1070
   177
1070
     4
1070
   178
1070
     7
1070
   271
1070
     1
1070
   277
1070
     2
1070
   279
1070
     2
1070
   280
1070
     0
1070
   287
1070
     5
1070
   340
1005
492
1002
}
  0
DIMENSION
  5
567
330
1F
100
AcDbEntity
  8
LAY-20
  6
CONTINUOUS
 62
     4
100
AcDbDimension
  2
*D32
 10
1300.0
 20
599.9999999999998
 30
0.0
 11
1287.5
 21
574.9999999999998
 31
0.0
 70
   160
  3
ISO-25
100
AcDbAlignedDimension
 13
1250.0
 23
549.9999999999999
 33
0.0
 14
1300.0
 24
599.9999999999998
 34
0.0
 50
90.0
100
AcDbRotatedDimension
1001
ACAD
1000
DSTYLE
1002
{
1070
   270
1070
     2
1070
     6
1000
EX_BNORM
1070
     7
1000
EX_BNORM
1070
    41
1040
12.5
1070
    42
1040
7.5
1070
    44
1040
7.5
1070
    73
1070
     0
1070
    74
1070
     0
1070
    75
1070
     0
1070
    76
1070
     1
1070
    77
1070
     1
1070
    78
1070
     8
1070
   140
1040
15.590552
1070
   147
1040
0.0
1070
   173
1070
     1
1070
   176
1070
     4
1070
   177
1070
     4
1070
   178
1070
     7
1070
   271
1070
     1
1070
   277
1070
     2
1070
   279
1070
     2
1070
   280
1070
     0
1070
   287
1070
     5
1070
   340
1005
492
1002
}
  0
DIMENSION
  5
573
330
1F
100
AcDbEntity
  8
LAY-20
  6
CONTINUOUS
 62
     4
100
AcDbDimension
  2
*D33
 10
750.00000000005
 20
1300.0
 30
0.0
 11
475.0000000000051
 21
1312.5
 31
0.0
 70
   160
  3
ISO-25
100
AcDbAlignedDimension
 13
199.99999999996
 23
1253.0
 33
0.0
 14
750.00000000005
 24
1253.0
 34
0.0
100
AcDbRotatedDimension
1001
ACAD
1000
DSTYLE
1002
{
1070
   270
1070
     2
1070
     6
1000
EX_BNORM
1070
     7
1000
EX_BNORM
1070
    41
1040
12.5
1070
    42
1040
7.5
1070
    44
1040
7.5
1070
    73
1070
     0
1070
    74
1070
     0
1070
    75
1070
     0
1070
    76
1070
     0
1070
    77
1070
     1
1070
    78
1070
     8
1070
   140
1040
15.590552
1070
   147
1040
0.0
1070
   173
1070
     1
1070
   176
1070
     4
1070
   177
1070
     4
1070
   178
1070
     7
1070
   271
1070
     1
1070
   277
1070
     2
1070
   279
1070
     2
1070
   280
1070
     0
1070
   287
1070
     5
1070
   340
1005
492
1002
}
  0
LINE
  5
580
330
1F
100
AcDbEntity
  8
LAY-255
  6
CONTINUOUS
 62
     7
100
AcDbLine
 10
1925.0
 20
110.0
 30
0.0
 11
1425.0
 21
110.0
 31
0.0
  0
LINE
  5
581
330
1F
100
AcDbEntity
  8
LAY-255
  6
CONTINUOUS
 62
     7
100
AcDbLine
 10
1444.0
 20
79.99999999999999
 30
0.0
 11
1484.0
 21
105.0
 31
0.0
  0
LINE
  5
582
330
1F
100
AcDbEntity
  8
LAY-255
  6
CONTINUOUS
 62
     7
100
AcDbLine
 10
1484.0
 20
105.0
 30
0.0
 11
1524.0
 21
79.99999999999999
 31
0.0
  0
LINE
  5
583
330
1F
100
AcDbEntity
  8
LAY-255
  6
CONTINUOUS
 62
     7
100
AcDbLine
 10
1524.0
 20
79.99999999999999
 30
0.0
 11
1484.0
 21
55.0
 31
0.0
  0
LINE
  5
584
330
1F
100
AcDbEntity
  8
LAY-255
  6
CONTINUOUS
 62
     7
100
AcDbLine
 10
1484.0
 20
55.0
 30
0.0
 11
1444.0
 21
79.99999999999999
 31
0.0
  0
LINE
  5
585
330
1F
100
AcDbEntity
  8
LAY-255
  6
CONTINUOUS
 62
     7
100
AcDbLine
 10
25.0
 20
50.0
 30
0.0
 11
1925.0
 21
50.0
 31
0.0
  0
LINE
  5
586
330
1F
100
AcDbEntity
  8
LAY-255
  6
CONTINUOUS
 62
     7
100
AcDbLine
 10
25.0
 20
1400.0
 30
0.0
 11
1925.0
 21
1400.0
 31
0.0
  0
LINE
  5
587
330
1F
100
AcDbEntity
  8
LAY-255
  6
CONTINUOUS
 62
     7
100
AcDbLine
 10
25.0
 20
50.0
 30
0.0
 11
25.0
 21
1400.0
 31
0.0
  0
LINE
  5
588
330
1F
100
AcDbEntity
  8
LAY-255
  6
CONTINUOUS
 62
     4
100
AcDbLine
 10
1425.0
 20
140.0
 30
0.0
 11
1925.0
 21
140.0
 31
0.0
  0
LINE
  5
589
330
1F
100
AcDbEntity
  8
LAY-255
  6
CONTINUOUS
 62
     4
100
AcDbLine
 10
1675.0
 20
140.0
 30
0.0
 11
1675.0
 21
110.0
 31
0.0
  0
POINT
  5
58A
330
1F
100
AcDbEntity
  8
LAY-255
  6
CONTINUOUS
 62
     7
100
AcDbPoint
 10
1445.0
 20
175.0000000000001
 30
0.0
  0
POINT
  5
58B
330
1F
100
AcDbEntity
  8
LAY-255
  6
CONTINUOUS
 62
     7
100
AcDbPoint
 10
1445.0
 20
150.0000000000001
 30
0.0
  0
LINE
  5
58C
330
1F
100
AcDbEntity
  8
LAY-255
  6
CONTINUOUS
 62
     7
100
AcDbLine
 10
1925.0
 20
50.0
 30
0.0
 11
1925.0
 21
1400.0
 31
0.0
  0
LINE
  5
58D
330
1F
100
AcDbEntity
  8
LAY-255
  6
CONTINUOUS
 62
     7
100
AcDbLine
 10
1925.0
 20
410.0000000000003
 30
0.0
 11
1425.0
 21
410.0000000000003
 31
0.0
  0
LINE
  5
58E
330
1F
100
AcDbEntity
  8
LAY-255
  6
CONTINUOUS
 62
     4
100
AcDbLine
 10
1915.0
 20
350.0000000000003
 30
0.0
 11
1435.0
 21
350.0000000000003
 31
0.0
  0
LINE
  5
58F
330
1F
100
AcDbEntity
  8
LAY-255
  6
CONTINUOUS
 62
     4
100
AcDbLine
 10
1915.0
 20
380.0000000000003
 30
0.0
 11
1435.0
 21
380.0000000000003
 31
0.0
  0
POINT
  5
590
330
1F
100
AcDbEntity
  8
LAY-255
  6
CONTINUOUS
 62
     7
100
AcDbPoint
 10
1500.0
 20
355.0000000000003
 30
0.0
  0
POINT
  5
591
330
1F
100
AcDbEntity
  8
LAY-255
  6
CONTINUOUS
 62
     7
100
AcDbPoint
 10
1500.0
 20
385.0000000000003
 30
0.0
  0
LINE
  5
592
330
1F
100
AcDbEntity
  8
LAY-255
  6
CONTINUOUS
 62
     7
100
AcDbLine
 10
1425.0
 20
50.0
 30
0.0
 11
1425.0
 21
410.0000000000003
 31
0.0
  0
POINT
  5
593
330
1F
100
AcDbEntity
  8
LAY-255
  6
CONTINUOUS
 62
     7
100
AcDbPoint
 10
1445.0
 20
300.0000000000003
 30
0.0
  0
POINT
  5
594
330
1F
100
AcDbEntity
  8
LAY-255
  6
CONTINUOUS
 62
     7
100
AcDbPoint
 10
1445.0
 20
250.0000000000002
 30
0.0
  0
POINT
  5
595
330
1F
100
AcDbEntity
  8
LAY-255
  6
CONTINUOUS
 62
     7
100
AcDbPoint
 10
1445.0
 20
275.0000000000002
 30
0.0
  0
POINT
  5
596
330
1F
100
AcDbEntity
  8
LAY-255
  6
CONTINUOUS
 62
     7
100
AcDbPoint
 10
1445.0
 20
225.0000000000002
 30
0.0
  0
POINT
  5
597
330
1F
100
AcDbEntity
  8
LAY-255
  6
CONTINUOUS
 62
     7
100
AcDbPoint
 10
1445.0
 20
325.0000000000003
 30
0.0
  0
POINT
  5
598
330
1F
100
AcDbEntity
  8
LAY-255
  6
CONTINUOUS
 62
     7
100
AcDbPoint
 10
1445.0
 20
200.0000000000001
 30
0.0
  0
TEXT
  5
599
330
1F
100
AcDbEntity
  8
LAY-255
  6
CONTINUOUS
 62
     7
100
AcDbText
 10
1540.691894370117
 20
77.71874999999999
 30
0.0
 40
25.78125
  1
福西鋳物株式会社
 41
1.342691871783662
  7
EXCADSTD
100
AcDbText
  0
TEXT
  5
59A
330
1F
100
AcDbEntity
  8
LAY-255
  6
CONTINUOUS
 62
     7
100
AcDbText
 10
1542.546875
 20
59.90624999999999
 30
0.0
 40
8.59375
  1
ＦＵＫＵＮＩＳＨＩ
 41
1.204799226045263
  7
EXCADSTD
100
AcDbText
  0
TEXT
  5
59B
330
1F
100
AcDbEntity
  8
LAY-255
  6
CONTINUOUS
 62
     7
100
AcDbText
 10
1663.595982142857
 20
59.90624999999999
 30
0.0
 40
8.59375
  1
ＦＯＵＮＤＲＹ
 41
1.243252752978497
  7
EXCADSTD
100
AcDbText
  0
TEXT
  5
59C
330
1F
100
AcDbEntity
  8
LAY-255
  6
CONTINUOUS
 62
     7
100
AcDbText
 10
1759.97295734375
 20
59.90624999999999
 30
0.0
 40
8.59375
  1
ＣＯ.,ＬＴＤ.
 41
1.243831100341625
  7
EXCADSTD
100
AcDbText
  0
TEXT
  5
59D
330
1F
100
AcDbEntity
  8
LAY-255
  6
CONTINUOUS
 62
     7
100
AcDbText
 10
1470.171875
 20
68.59375
 30
0.0
 40
25.78125
  1
S
 41
0.7582677563636363
  7
EXCADSTD
100
AcDbText
  0
TEXT
  5
59E
330
1F
100
AcDbEntity
  8
LAY-255
  6
CONTINUOUS
 62
     7
100
AcDbText
 10
1485.5234375
 20
68.7470518868
 30
0.0
 40
25.78125
  1
F
 41
0.7440945272727272
  7
EXCADSTD
100
AcDbText
  0
TEXT
  5
59F
330
1F
100
AcDbEntity
  8
LAY-255
  6
CONTINUOUS
 62
     7
100
AcDbText
 10
1685.52734375
 20
122.1093749999999
 30
0.0
 40
12.890625
  1
縮尺
 41
1.080708718181818
  7
EXCADSTD
100
AcDbText
  0
TEXT
  5
5A0
330
1F
100
AcDbEntity
  8
LAY-255
  6
CONTINUOUS
 62
     7
100
AcDbText
 10
1435.76171875
 20
122.1093749999999
 30
0.0
 40
12.890625
  1
作成日
 41
1.000629973818182
  7
EXCADSTD
100
AcDbText
  0
TEXT
  5
5A1
330
1F
100
AcDbEntity
  8
LAY-255
  6
CONTINUOUS
 62
     7
100
AcDbText
 10
1728.40625
 20
117.8124999999999
 30
0.0
 40
17.1875
  1
１：５,１：１
 41
0.8819559783040489
  7
EXCADSTD
100
AcDbText
  0
TEXT
  5
5A2
330
1F
100
AcDbEntity
  8
LAY-255
  6
CONTINUOUS
 62
     7
100
AcDbText
 10
1436.328125
 20
357.8125000000003
 30
0.0
 40
17.1875
  1
型式
 41
1.056348480681818
  7
EXCADSTD
100
AcDbText
  0
TEXT
  5
5A3
330
1F
100
AcDbEntity
  8
LAY-255
  6
CONTINUOUS
 62
     7
100
AcDbText
 10
1437.109375
 20
387.8125000000003
 30
0.0
 40
17.1875
  1
品名
 41
0.9788386340909091
  7
EXCADSTD
100
AcDbText
  0
TEXT
  5
5A4
330
1F
100
AcDbEntity
  8
LAY-255
  6
CONTINUOUS
 62
     7
100
AcDbText
 10
1501.015625
 20
387.8125000000003
 30
0.0
 40
17.1875
  1
鋳鉄製ライナー側溝グレーチング
 41
1.017435374025974
  7
EXCADSTD
100
AcDbText
  0
TEXT
  5
5A5
330
1F
100
AcDbEntity
  8
LAY-255
  6
CONTINUOUS
 62
     7
100
AcDbText
 10
1446.171875
 20
227.8125
 30
0.0
 40
17.1875
  1
表面：すべり止めクリスタル模様
 41
1.015836889542037
  7
EXCADSTD
100
AcDbText
  0
TEXT
  5
5A6
330
1F
100
AcDbEntity
  8
LAY-255
  6
CONTINUOUS
 62
     7
100
AcDbText
 10
1446.171875
 20
302.8125000000003
 30
0.0
 40
17.1875
  1
用途：集水桝用
 41
1.015360838152012
  7
EXCADSTD
100
AcDbText
  0
TEXT
  5
5A7
330
1F
100
AcDbEntity
  8
LAY-255
  6
CONTINUOUS
 62
     7
100
AcDbText
 10
1445.859375
 20
277.8125000000003
 30
0.0
 40
17.1875
  1
仕上：インターロッキングブロック用
 41
1.011837149668874
  7
EXCADSTD
100
AcDbText
  0
TEXT
  5
5A8
330
1F
100
AcDbEntity
  8
LAY-255
  6
CONTINUOUS
 62
     7
100
AcDbText
 10
1446.015625
 20
327.8125000000003
 30
0.0
 40
17.1875
  1
適用桝径：６００用
 41
1.014552031760644
  7
EXCADSTD
100
AcDbText
  0
TEXT
  5
5A9
330
1F
100
AcDbEntity
  8
LAY-255
  6
CONTINUOUS
 62
     7
100
AcDbText
 10
1505.625
 20
357.8125000000003
 30
0.0
 40
17.1875
  1
Ｆ２０－６０ＺＰＣ－ＣＳ型
 41
0.9973639688537548
  7
EXCADSTD
100
AcDbText
  0
TEXT
  5
5AA
330
1F
100
AcDbEntity
  8
LAY-255
  6
CONTINUOUS
 62
     7
100
AcDbText
 10
1446.015625
 20
252.8125000000002
 30
0.0
 40
17.1875
  1
貼代：６９
 41
0.9937740862579282
  7
EXCADSTD
100
AcDbText
  0
TEXT
  5
5AB
330
1F
100
AcDbEntity
  8
LAY-255
  6
CONTINUOUS
 62
     7
100
AcDbText
 10
1446.015625
 20
202.8124999999999
 30
0.0
 40
17.1875
  1
蓋　：スチール（溶融亜鉛めっき）
 41
0.9751580860435339
  7
EXCADSTD
100
AcDbText
  0
TEXT
  5
5AC
330
1F
100
AcDbEntity
  8
LAY-255
  6
CONTINUOUS
 62
     7
100
AcDbText
 10
1446.875
 20
177.8124999999999
 30
0.0
 40
17.1875
  1
受枠：スチール（溶融亜鉛めっき）
 41
0.9724132705505761
  7
EXCADSTD
100
AcDbText
  0
TEXT
  5
5AD
330
1F
100
AcDbEntity
  8
LAY-255
  6
CONTINUOUS
 62
     7
100
AcDbText
 10
1506.40625
 20
117.8124999999999
 30
0.0
 40
17.1875
  1
１６／１１／１６
 41
0.9652981384415584
  7
EXCADSTD
100
AcDbText
  0
TEXT
  5
5AE
330
1F
100
AcDbEntity
  8
LAY-255
  6
CONTINUOUS
 62
     7
100
AcDbText
 10
1446.015625
 20
152.8124999999999
 30
0.0
 40
17.1875
  1
適用荷重：Ｔ－１４（レベルＤ）
 41
0.9729442225563909
  7
EXCADSTD
100
AcDbText
  0
ENDSEC
  0
SECTION
  2
OBJECTS
  0
DICTIONARY
  5
C
330
0
100
AcDbDictionary
  3
ACAD_GROUP
350
D
  3
ACAD_LAYOUT
350
1A
  3
ACAD_MATERIAL
350
43
  3
ACAD_MLEADERSTYLE
350
6B
  3
ACAD_MLINESTYLE
350
17
  3
ACAD_PLOTSETTINGS
350
19
  3
ACAD_SCALELIST
350
47
  3
ACAD_VISUALSTYLE
350
2A
  3
ACDBHEADERROUNDTRIPXREC
350
5AF
  3
ACDBVARIABLEDICTIONARY
350
5D0
  0
DICTIONARY
  5
5DB
330
8
100
AcDbDictionary
280
     1
  3
ACAD_XREC_ROUNDTRIP
360
5DC
  0
DICTIONARY
  5
D
102
{ACAD_REACTORS
330
C
102
}
330
C
100
AcDbDictionary
  0
DICTIONARY
  5
1A
102
{ACAD_REACTORS
330
C
102
}
330
C
100
AcDbDictionary
  0
DICTIONARY
  5
43
102
{ACAD_REACTORS
330
C
102
}
330
C
100
AcDbDictionary
  3
BYBLOCK
350
45
  3
BYLAYER
350
44
  3
GLOBAL
350
46
  0
DICTIONARY
  5
6B
102
{ACAD_REACTORS
330
C
102
}
330
C
100
AcDbDictionary
  3
STANDARD
350
6C
  0
DICTIONARY
  5
17
102
{ACAD_REACTORS
330
C
102
}
330
C
100
AcDbDictionary
  3
STANDARD
350
18
  0
DICTIONARY
  5
19
102
{ACAD_REACTORS
330
C
102
}
330
C
100
AcDbDictionary
  0
DICTIONARY
  5
47
102
{ACAD_REACTORS
330
C
102
}
330
C
100
AcDbDictionary
  3
A0
350
48
  3
A1
350
49
  3
A2
350
4A
  3
A3
350
4B
  3
A4
350
4C
  3
A5
350
4D
  3
A6
350
4E
  3
A7
350
4F
  3
A8
350
50
  3
A9
350
51
  3
B0
350
52
  3
B1
350
53
  3
B2
350
54
  3
B3
350
55
  3
B4
350
56
  3
B5
350
57
  3
B6
350
58
  3
B7
350
59
  3
B8
350
5A
  3
B9
350
5B
  3
C0
350
5C
  3
C1
350
5D
  3
C2
350
5E
  3
C3
350
5F
  3
C4
350
60
  3
C5
350
61
  3
C6
350
62
  3
C7
350
63
  3
C8
350
64
  3
C9
350
65
  3
D0
350
66
  3
D1
350
67
  3
D2
350
68
  0
DICTIONARY
  5
2A
102
{ACAD_REACTORS
330
C
102
}
330
C
100
AcDbDictionary
  3
2DWIREFRAME
350
2F
  3
BASIC
350
32
  3
BRIGHTEN
350
36
  3
COLORCHANGE
350
3A
  3
CONCEPTUAL
350
34
  3
DIM
350
35
  3
EDGECOLOROFF
350
3D
  3
FACEPATTERN
350
39
  3
FLAT
350
2B
  3
FLATWITHEDGES
350
2C
  3
GOURAUD
350
2D
  3
GOURAUDWITHEDGES
350
2E
  3
HIDDEN
350
31
  3
JITTEROFF
350
3B
  3
LINEPATTERN
350
38
  3
OVERHANGOFF
350
3C
  3
REALISTIC
350
33
  3
SHADED
350
42
  3
SHADED_WITH_EDGES
350
41
  3
SHADES_OF_GRAY
350
3E
  3
SKETCHY
350
3F
  3
THICKEN
350
37
  3
WIREFRAME
350
30
  3
X-RAY
350
40
  0
DICTIONARY
  5
5AF
102
{ACAD_REACTORS
330
C
102
}
330
C
100
AcDbDictionary
  3
CEPSNID
350
5B9
  3
CEPSNTYPE
350
5B8
  3
DIMSTYLEDATA
350
5CF
  3
FINGERPRINTGUID
350
5BA
  3
HYPERLINKBASE
350
5B2
  3
INSUNITS
350
5B7
  3
LAYOUTDICT
350
5B4
  3
LWETCUNION
350
5B6
  3
PLOTSETDICT
350
5B5
  3
PSVPSCALE
350
5BC
  3
PUCSBASE
350
5BF
  3
PUCSORGBACK
350
5C5
  3
PUCSORGBOTTOM
350
5C1
  3
PUCSORGFRONT
350
5C4
  3
PUCSORGLEFT
350
5C2
  3
PUCSORGRIGHT
350
5C3
  3
PUCSORGTOP
350
5C0
  3
PUCSORTHOREF
350
5BD
  3
PUCSORTHOVIEW
350
5BE
  3
STYLESHEET
350
5B3
  3
TSTACKALIGN
350
5B0
  3
TSTACKSIZE
350
5B1
  3
UCSBASE
350
5C8
  3
UCSORGBACK
350
5CE
  3
UCSORGBOTTOM
350
5CA
  3
UCSORGFRONT
350
5CD
  3
UCSORGLEFT
350
5CB
  3
UCSORGRIGHT
350
5CC
  3
UCSORGTOP
350
5C9
  3
UCSORTHOREF
350
5C6
  3
UCSORTHOVIEW
350
5C7
  3
VERSIONGUID
350
5BB
  0
DICTIONARY
  5
5D0
102
{ACAD_REACTORS
330
C
102
}
330
C
100
AcDbDictionary
  3
CANNOSCALE
350
5DD
  3
CENTEREXE
350
5D7
  3
CENTERLTYPEFILE
350
5D8
  3
CMLEADERSTYLE
350
5D2
  3
CTABLESTYLE
350
5D1
  3
DIMASSOC
350
5D9
  3
HIDETEXT
350
5DA
  3
MSLTSCALE
350
5DE
  3
PSOLHEIGHT
350
5D4
  3
PSOLWIDTH
350
5D3
  0
XRECORD
  5
5DC
102
{ACAD_REACTORS
330
5DB
102
}
330
5DB
100
AcDbXrecord
102
VTR_0.000_0.000_1.000_1.000_VISUALSTYLE
340
2F
102
VTR_0.000_0.000_1.000_1.000_GRIDDISPLAY
 70
     3
102
VTR_0.000_0.000_1.000_1.000_GRIDMAJOR
 70
     5
102
VTR_0.000_0.000_1.000_1.000_DEFAULTLIGHTING
280
     1
102
VTR_0.000_0.000_1.000_1.000_DEFAULTLIGHTINGTYPE
 70
     1
102
VTR_0.000_0.000_1.000_1.000_BRIGHTNESS
141
0.0
102
VTR_0.000_0.000_1.000_1.000_CONTRAST
142
0.0
  0
MATERIAL
  5
45
102
{ACAD_REACTORS
330
43
102
}
102
{ACAD_XDICTIONARY
360
5E1
102
}
330
43
100
AcDbMaterial
  1
BYBLOCK
  0
MATERIAL
  5
44
102
{ACAD_REACTORS
330
43
102
}
102
{ACAD_XDICTIONARY
360
5DF
102
}
330
43
100
AcDbMaterial
  1
BYLAYER
  0
MATERIAL
  5
46
102
{ACAD_REACTORS
330
43
102
}
102
{ACAD_XDICTIONARY
360
5E3
102
}
330
43
100
AcDbMaterial
  1
GLOBAL
  0
ACAD_PROXY_OBJECT
  5
6C
102
{ACAD_REACTORS
330
6B
102
}
330
6B
100
AcDbProxyObject
 90
      499
 91
      505
 93
      610
310
40901902A4063FBFFFFFE0000000000000020400000000000020404214DD185B99185C990000000000000104090141901A00000000000004100000000000000041025764000000000000039000
340
14
340
0
340
11
340
0
 94
        0
1001
ACAD_MLEADERVER
1070
     2
  0
MLINESTYLE
  5
18
102
{ACAD_REACTORS
330
17
102
}
330
17
100
AcDbMlineStyle
  2
Standard
 70
     0
  3

 62
   256
 51
90.0
 52
90.0
 71
     2
 49
0.5
 62
   256
  6
BYLAYER
 49
-0.5
 62
   256
  6
BYLAYER
  0
ACAD_PROXY_OBJECT
  5
48
102
{ACAD_REACTORS
330
47
102
}
330
47
100
AcDbProxyObject
 90
      499
 91
      503
 93
       41
310
903313A31580
  0
ACAD_PROXY_OBJECT
  5
49
102
{ACAD_REACTORS
330
47
102
}
330
47
100
AcDbProxyObject
 90
      499
 91
      503
 93
      105
310
903313A324000000000000004000
  0
ACAD_PROXY_OBJECT
  5
4A
102
{ACAD_REACTORS
330
47
102
}
330
47
100
AcDbProxyObject
 90
      499
 91
      503
 93
      105
310
903313A344000000000000104000
  0
ACAD_PROXY_OBJECT
  5
4B
102
{ACAD_REACTORS
330
47
102
}
330
47
100
AcDbProxyObject
 90
      499
 91
      503
 93
      105
310
903313A354000000000000144000
  0
ACAD_PROXY_OBJECT
  5
4C
102
{ACAD_REACTORS
330
47
102
}
330
47
100
AcDbProxyObject
 90
      499
 91
      503
 93
      105
310
903313A384000000000000204000
  0
ACAD_PROXY_OBJECT
  5
4D
102
{ACAD_REACTORS
330
47
102
}
330
47
100
AcDbProxyObject
 90
      499
 91
      503
 93
      113
310
904313A31304000000000000244000
  0
ACAD_PROXY_OBJECT
  5
4E
102
{ACAD_REACTORS
330
47
102
}
330
47
100
AcDbProxyObject
 90
      499
 91
      503
 93
      113
310
904313A31364000000000000304000
  0
ACAD_PROXY_OBJECT
  5
4F
102
{ACAD_REACTORS
330
47
102
}
330
47
100
AcDbProxyObject
 90
      499
 91
      503
 93
      113
310
904313A32304000000000000344000
  0
ACAD_PROXY_OBJECT
  5
50
102
{ACAD_REACTORS
330
47
102
}
330
47
100
AcDbProxyObject
 90
      499
 91
      503
 93
      113
310
904313A333040000000000003E4000
  0
ACAD_PROXY_OBJECT
  5
51
102
{ACAD_REACTORS
330
47
102
}
330
47
100
AcDbProxyObject
 90
      499
 91
      503
 93
      113
310
904313A34304000000000000444000
  0
ACAD_PROXY_OBJECT
  5
52
102
{ACAD_REACTORS
330
47
102
}
330
47
100
AcDbProxyObject
 90
      499
 91
      503
 93
      113
310
904313A35304000000000000494000
  0
ACAD_PROXY_OBJECT
  5
53
102
{ACAD_REACTORS
330
47
102
}
330
47
100
AcDbProxyObject
 90
      499
 91
      503
 93
      121
310
905313A3130304000000000000594000
  0
ACAD_PROXY_OBJECT
  5
54
102
{ACAD_REACTORS
330
47
102
}
330
47
100
AcDbProxyObject
 90
      499
 91
      503
 93
      105
310
903323A310000000000000010100
  0
ACAD_PROXY_OBJECT
  5
55
102
{ACAD_REACTORS
330
47
102
}
330
47
100
AcDbProxyObject
 90
      499
 91
      503
 93
      105
310
903343A310000000000000410100
  0
ACAD_PROXY_OBJECT
  5
56
102
{ACAD_REACTORS
330
47
102
}
330
47
100
AcDbProxyObject
 90
      499
 91
      503
 93
      105
310
903383A310000000000000810100
  0
ACAD_PROXY_OBJECT
  5
57
102
{ACAD_REACTORS
330
47
102
}
330
47
100
AcDbProxyObject
 90
      499
 91
      503
 93
      113
310
90431303A310000000000000910100
  0
ACAD_PROXY_OBJECT
  5
58
102
{ACAD_REACTORS
330
47
102
}
330
47
100
AcDbProxyObject
 90
      499
 91
      503
 93
      121
310
9053130303A310000000000001650100
  0
ACAD_PROXY_OBJECT
  5
59
102
{ACAD_REACTORS
330
47
102
}
330
47
100
AcDbProxyObject
 90
      499
 91
      503
 93
      257
310
90E312F31323822203D2031272D3022000000000000200FC000000000000284000
  0
ACAD_PROXY_OBJECT
  5
5A
102
{ACAD_REACTORS
330
47
102
}
330
47
100
AcDbProxyObject
 90
      499
 91
      503
 93
      249
310
90D312F363422203D2031272D3022000000000000240FC000000000000284000
  0
ACAD_PROXY_OBJECT
  5
5B
102
{ACAD_REACTORS
330
47
102
}
330
47
100
AcDbProxyObject
 90
      499
 91
      503
 93
      249
310
90D312F333222203D2031272D3022000000000000280FC000000000000284000
  0
ACAD_PROXY_OBJECT
  5
5C
102
{ACAD_REACTORS
330
47
102
}
330
47
100
AcDbProxyObject
 90
      499
 91
      503
 93
      249
310
90D312F313622203D2031272D30220000000000002C0FC000000000000284000
  0
ACAD_PROXY_OBJECT
  5
5D
102
{ACAD_REACTORS
330
47
102
}
330
47
100
AcDbProxyObject
 90
      499
 91
      503
 93
      249
310
90D332F333222203D2031272D30220000000000002E0FC000000000000284000
  0
ACAD_PROXY_OBJECT
  5
5E
102
{ACAD_REACTORS
330
47
102
}
330
47
100
AcDbProxyObject
 90
      499
 91
      503
 93
      241
310
90C312F3822203D2031272D3022000000000000300FC000000000000284000
  0
ACAD_PROXY_OBJECT
  5
5F
102
{ACAD_REACTORS
330
47
102
}
330
47
100
AcDbProxyObject
 90
      499
 91
      503
 93
      249
310
90D332F313622203D2031272D3022000000000000320FC000000000000284000
  0
ACAD_PROXY_OBJECT
  5
60
102
{ACAD_REACTORS
330
47
102
}
330
47
100
AcDbProxyObject
 90
      499
 91
      503
 93
      241
310
90C312F3422203D2031272D3022000000000000340FC000000000000284000
  0
ACAD_PROXY_OBJECT
  5
61
102
{ACAD_REACTORS
330
47
102
}
330
47
100
AcDbProxyObject
 90
      499
 91
      503
 93
      241
310
90C332F3822203D2031272D3022000000000000360FC000000000000284000
  0
ACAD_PROXY_OBJECT
  5
62
102
{ACAD_REACTORS
330
47
102
}
330
47
100
AcDbProxyObject
 90
      499
 91
      503
 93
      241
310
90C312F3222203D2031272D3022000000000000380FC000000000000284000
  0
ACAD_PROXY_OBJECT
  5
63
102
{ACAD_REACTORS
330
47
102
}
330
47
100
AcDbProxyObject
 90
      499
 91
      503
 93
      241
310
90C332F3422203D2031272D30220000000000003A0FC000000000000284000
  0
ACAD_PROXY_OBJECT
  5
64
102
{ACAD_REACTORS
330
47
102
}
330
47
100
AcDbProxyObject
 90
      499
 91
      503
 93
      161
310
90A3122203D2031272D30224000000000000284000
  0
ACAD_PROXY_OBJECT
  5
65
102
{ACAD_REACTORS
330
47
102
}
330
47
100
AcDbProxyObject
 90
      499
 91
      503
 93
      257
310
90E312D312F3222203D2031272D30220000000000003E0FC000000000000284000
  0
ACAD_PROXY_OBJECT
  5
66
102
{ACAD_REACTORS
330
47
102
}
330
47
100
AcDbProxyObject
 90
      499
 91
      503
 93
      225
310
90A3322203D2031272D302200000000000002100000000000000284000
  0
ACAD_PROXY_OBJECT
  5
67
102
{ACAD_REACTORS
330
47
102
}
330
47
100
AcDbProxyObject
 90
      499
 91
      503
 93
      225
310
90A3622203D2031272D302200000000000006100000000000000284000
  0
ACAD_PROXY_OBJECT
  5
68
102
{ACAD_REACTORS
330
47
102
}
330
47
100
AcDbProxyObject
 90
      499
 91
      503
 93
      249
310
90D31272D3022203D2031272D30220000000000000A100000000000000284000
  0
ACAD_PROXY_OBJECT
  5
2F
102
{ACAD_REACTORS
330
2A
102
}
330
2A
100
AcDbProxyObject
 90
      499
 91
      501
 93
      436
310
42CC9915DA5C99599C985B595049028333333333333E33F0000000000000F90107901411070040501600405405064090741402480A0340
1001
ACAD
1000
AcDbSavedByObjectVersion
1070
     0
  0
ACAD_PROXY_OBJECT
  5
32
102
{ACAD_REACTORS
330
2A
102
}
330
2A
100
AcDbProxyObject
 90
      499
 91
      501
 93
      388
310
4150985CDA58D07406404333333333333E33F0000000000000F90107A41107004050150841D405064090741402480A0350
1001
ACAD
1000
AcDbSavedByObjectVersion
1070
     0
  0
ACAD_PROXY_OBJECT
  5
36
102
{ACAD_REACTORS
330
2A
102
}
330
2A
100
AcDbProxyObject
 90
      499
 91
      501
 93
      428
310
42109C9A59DA1D195B90C409028333333333333E33F0000000000000F9010790141107004050150841D405064090741402480A029950
1001
ACAD
1000
AcDbSavedByObjectVersion
1070
     0
  0
ACAD_PROXY_OBJECT
  5
3A
102
{ACAD_REACTORS
330
2A
102
}
330
2A
100
AcDbProxyObject
 90
      499
 91
      501
 93
      452
310
42D0DBDB1BDC90DA185B99D95104090240C333333333333E33F0000000000000F90108901411070040501508421405064090741402480A0350
1001
ACAD
1000
AcDbSavedByObjectVersion
1070
     0
  0
ACAD_PROXY_OBJECT
  5
34
102
{ACAD_REACTORS
330
2A
102
}
330
2A
100
AcDbProxyObject
 90
      499
 91
      501
 93
      500
310
4290DBDB98D95C1D1D585B10940D028333333333333E33F0000000000000F90107902409070040501000000000018199010841D405064090740C02480A0340
1001
ACAD
1000
AcDbSavedByObjectVersion
1070
     0
  0
ACAD_PROXY_OBJECT
  5
35
102
{ACAD_REACTORS
330
2A
102
}
330
2A
100
AcDbProxyObject
 90
      499
 91
      501
 93
      412
310
40D11A5B50B409028333333333333E33F0000000000000F9010790141107004050150841D405064090741402480A02677FFFFFD0
1001
ACAD
1000
AcDbSavedByObjectVersion
1070
     0
  0
ACAD_PROXY_OBJECT
  5
3D
102
{ACAD_REACTORS
330
2A
102
}
330
2A
100
AcDbProxyObject
 90
      499
 91
      501
 93
      452
310
43115919D950DBDB1BDC93D999916409028333333333333E33F0000000000000F9010790141107004050150841D405064090741402480A0350
1001
ACAD
1000
AcDbSavedByObjectVersion
1070
     0
  0
ACAD_PROXY_OBJECT
  5
39
102
{ACAD_REACTORS
330
2A
102
}
330
2A
100
AcDbProxyObject
 90
      499
 91
      501
 93
      444
310
42D19858D95C185D1D195C9B90F409028333333333333E33F0000000000000F9010790141107004050150841D405064090741402480A0350
1001
ACAD
1000
AcDbSavedByObjectVersion
1070
     0
  0
ACAD_PROXY_OBJECT
  5
2B
102
{ACAD_REACTORS
330
2A
102
}
330
2A
100
AcDbProxyObject
 90
      499
 91
      501
 93
      380
310
41119B185D240901404333333333333E33F0000000000000F9010740A907004050150841D405064090741402480A1B50
1001
ACAD
1000
AcDbSavedByObjectVersion
1070
     0
  0
ACAD_PROXY_OBJECT
  5
2C
102
{ACAD_REACTORS
330
2A
102
}
330
2A
100
AcDbProxyObject
 90
      499
 91
      501
 93
      468
310
43519B185D15DA5D1A115919D95CD0140901404333333333333E33F0000000000000F90107409019070040501600405405064090741402480A1B50
1001
ACAD
1000
AcDbSavedByObjectVersion
1070
     0
  0
ACAD_PROXY_OBJECT
  5
2D
102
{ACAD_REACTORS
330
2A
102
}
330
2A
100
AcDbProxyObject
 90
      499
 91
      501
 93
      404
310
41D1DBDD5C985D5910240902404333333333333E33F0000000000000F9010740A9070040501641D405064090741402480A1B50
1001
ACAD
1000
AcDbSavedByObjectVersion
1070
     0
  0
ACAD_PROXY_OBJECT
  5
2E
102
{ACAD_REACTORS
330
2A
102
}
330
2A
100
AcDbProxyObject
 90
      499
 91
      501
 93
      492
310
4411DBDD5C985D5915DA5D1A115919D95CD0340902404333333333333E33F0000000000000F90107409019070040501600405405064090741402480A1B50
1001
ACAD
1000
AcDbSavedByObjectVersion
1070
     0
  0
ACAD_PROXY_OBJECT
  5
31
102
{ACAD_REACTORS
330
2A
102
}
330
2A
100
AcDbProxyObject
 90
      499
 91
      501
 93
      476
310
41921A5919195B90640502408333333333333E33F0000000000000F901079024090700405020000000000001110200405405064090740C02480A0340
1001
ACAD
1000
AcDbSavedByObjectVersion
1070
     0
  0
ACAD_PROXY_OBJECT
  5
3B
102
{ACAD_REACTORS
330
2A
102
}
330
2A
100
AcDbProxyObject
 90
      499
 91
      501
 93
      428
310
42529A5D1D195C93D999914409028333333333333E33F0000000000000F9010790141107004050150A41D405064090741402480A0350
1001
ACAD
1000
AcDbSavedByObjectVersion
1070
     0
  0
ACAD_PROXY_OBJECT
  5
38
102
{ACAD_REACTORS
330
2A
102
}
330
2A
100
AcDbProxyObject
 90
      499
 91
      501
 93
      444
310
42D31A5B995C185D1D195C9B90E409028333333333333E33F0000000000000F9010790141107004050750841D405064090741402483A0350
1001
ACAD
1000
AcDbSavedByObjectVersion
1070
     0
  0
ACAD_PROXY_OBJECT
  5
3C
102
{ACAD_REACTORS
330
2A
102
}
330
2A
100
AcDbProxyObject
 90
      499
 91
      501
 93
      444
310
42D3DD995C9A185B99D3D999915409028333333333333E33F0000000000000F9010790141107004050150941D405064090741402480A0350
1001
ACAD
1000
AcDbSavedByObjectVersion
1070
     0
  0
ACAD_PROXY_OBJECT
  5
33
102
{ACAD_REACTORS
330
2A
102
}
330
2A
100
AcDbProxyObject
 90
      499
 91
      501
 93
      428
310
425499585B1A5CDD1A58D08409038333333333333E33F0000000000000F9010740A907004050150800405405064090740C02480A1B40
1001
ACAD
1000
AcDbSavedByObjectVersion
1070
     0
  0
ACAD_PROXY_OBJECT
  5
42
102
{ACAD_REACTORS
330
2A
102
}
330
2A
100
AcDbProxyObject
 90
      499
 91
      501
 93
      420
310
4194DA1859195911B40902404333333333333E33F0000000000000F9010740A41107004050150800405405064090840C02480A0B40
1001
ACAD
1000
AcDbSavedByObjectVersion
1070
     0
  0
ACAD_PROXY_OBJECT
  5
41
102
{ACAD_REACTORS
330
2A
102
}
330
2A
100
AcDbProxyObject
 90
      499
 91
      501
 93
      516
310
4454DA18591959081DDA5D1A08195919D95CD1A40902404333333333333E33F0000000000000F901074090142907004050250800405405064090740C02480A0B40
1001
ACAD
1000
AcDbSavedByObjectVersion
1070
     0
  0
ACAD_PROXY_OBJECT
  5
3E
102
{ACAD_REACTORS
330
2A
102
}
330
2A
100
AcDbProxyObject
 90
      499
 91
      501
 93
      532
310
4394DA1859195CC81BD98811DC985E5174090240C333333333333E33F0000000000000F901079024090741D01000000000000111010841D405064090740C02480A0340
1001
ACAD
1000
AcDbSavedByObjectVersion
1070
     0
  0
ACAD_PROXY_OBJECT
  5
3F
102
{ACAD_REACTORS
330
2A
102
}
330
2A
100
AcDbProxyObject
 90
      499
 91
      501
 93
      476
310
41D4DAD95D18DA1E51840502408333333333333E33F0000000000000F901079024090741D01000000000000111010B41D405064090741802480A0340
1001
ACAD
1000
AcDbSavedByObjectVersion
1070
     0
  0
ACAD_PROXY_OBJECT
  5
37
102
{ACAD_REACTORS
330
2A
102
}
330
2A
100
AcDbProxyObject
 90
      499
 91
      501
 93
      412
310
41D51A1A58DAD95B90D409028333333333333E33F0000000000000F9010790141107004050150C41D405064090741402480A0350
1001
ACAD
1000
AcDbSavedByObjectVersion
1070
     0
  0
ACAD_PROXY_OBJECT
  5
30
102
{ACAD_REACTORS
330
2A
102
}
330
2A
100
AcDbProxyObject
 90
      499
 91
      501
 93
      420
310
4255DA5C99599C985B595059028333333333333E33F0000000000000F90107901411070040501600405405064090740C02480A0340
1001
ACAD
1000
AcDbSavedByObjectVersion
1070
     0
  0
ACAD_PROXY_OBJECT
  5
40
102
{ACAD_REACTORS
330
2A
102
}
330
2A
100
AcDbProxyObject
 90
      499
 91
      501
 93
      404
310
41560B54985E51940902404000000000000E03F0000000000000F9010740501907004050150841D405064090740C02480A1B40
1001
ACAD
1000
AcDbSavedByObjectVersion
1070
     0
  0
XRECORD
  5
5B9
102
{ACAD_REACTORS
330
5AF
102
}
330
5AF
100
AcDbXrecord
340
0
  0
XRECORD
  5
5B8
102
{ACAD_REACTORS
330
5AF
102
}
330
5AF
100
AcDbXrecord
 90
        0
  0
XRECORD
  5
5CF
102
{ACAD_REACTORS
330
5AF
102
}
330
5AF
100
AcDbXrecord
1000
DSTYLE
1002
{
1070
   340
340
11
1002
}
  0
XRECORD
  5
5BA
102
{ACAD_REACTORS
330
5AF
102
}
330
5AF
100
AcDbXrecord
  1
{542706f8-de21-4640-ac82-903e0e316770}
  0
XRECORD
  5
5B2
102
{ACAD_REACTORS
330
5AF
102
}
330
5AF
100
AcDbXrecord
  1

  0
XRECORD
  5
5B7
102
{ACAD_REACTORS
330
5AF
102
}
330
5AF
100
AcDbXrecord
 90
        4
  0
XRECORD
  5
5B4
102
{ACAD_REACTORS
330
5AF
102
}
330
5AF
100
AcDbXrecord
340
1A
  0
XRECORD
  5
5B6
102
{ACAD_REACTORS
330
5AF
102
}
330
5AF
100
AcDbXrecord
 90
    10781
  0
XRECORD
  5
5B5
102
{ACAD_REACTORS
330
5AF
102
}
330
5AF
100
AcDbXrecord
340
19
  0
XRECORD
  5
5BC
102
{ACAD_REACTORS
330
5AF
102
}
330
5AF
100
AcDbXrecord
 40
0.0
  0
XRECORD
  5
5BF
102
{ACAD_REACTORS
330
5AF
102
}
330
5AF
100
AcDbXrecord
340
0
  0
XRECORD
  5
5C5
102
{ACAD_REACTORS
330
5AF
102
}
330
5AF
100
AcDbXrecord
 10
0.0
 20
0.0
 30
0.0
  0
XRECORD
  5
5C1
102
{ACAD_REACTORS
330
5AF
102
}
330
5AF
100
AcDbXrecord
 10
0.0
 20
0.0
 30
0.0
  0
XRECORD
  5
5C4
102
{ACAD_REACTORS
330
5AF
102
}
330
5AF
100
AcDbXrecord
 10
0.0
 20
0.0
 30
0.0
  0
XRECORD
  5
5C2
102
{ACAD_REACTORS
330
5AF
102
}
330
5AF
100
AcDbXrecord
 10
0.0
 20
0.0
 30
0.0
  0
XRECORD
  5
5C3
102
{ACAD_REACTORS
330
5AF
102
}
330
5AF
100
AcDbXrecord
 10
0.0
 20
0.0
 30
0.0
  0
XRECORD
  5
5C0
102
{ACAD_REACTORS
330
5AF
102
}
330
5AF
100
AcDbXrecord
 10
0.0
 20
0.0
 30
0.0
  0
XRECORD
  5
5BD
102
{ACAD_REACTORS
330
5AF
102
}
330
5AF
100
AcDbXrecord
340
0
  0
XRECORD
  5
5BE
102
{ACAD_REACTORS
330
5AF
102
}
330
5AF
100
AcDbXrecord
 70
     0
  0
XRECORD
  5
5B3
102
{ACAD_REACTORS
330
5AF
102
}
330
5AF
100
AcDbXrecord
  1

  0
XRECORD
  5
5B0
102
{ACAD_REACTORS
330
5AF
102
}
330
5AF
100
AcDbXrecord
 90
        1
  0
XRECORD
  5
5B1
102
{ACAD_REACTORS
330
5AF
102
}
330
5AF
100
AcDbXrecord
 90
       70
  0
XRECORD
  5
5C8
102
{ACAD_REACTORS
330
5AF
102
}
330
5AF
100
AcDbXrecord
340
0
  0
XRECORD
  5
5CE
102
{ACAD_REACTORS
330
5AF
102
}
330
5AF
100
AcDbXrecord
 10
0.0
 20
0.0
 30
0.0
  0
XRECORD
  5
5CA
102
{ACAD_REACTORS
330
5AF
102
}
330
5AF
100
AcDbXrecord
 10
0.0
 20
0.0
 30
0.0
  0
XRECORD
  5
5CD
102
{ACAD_REACTORS
330
5AF
102
}
330
5AF
100
AcDbXrecord
 10
0.0
 20
0.0
 30
0.0
  0
XRECORD
  5
5CB
102
{ACAD_REACTORS
330
5AF
102
}
330
5AF
100
AcDbXrecord
 10
0.0
 20
0.0
 30
0.0
  0
XRECORD
  5
5CC
102
{ACAD_REACTORS
330
5AF
102
}
330
5AF
100
AcDbXrecord
 10
0.0
 20
0.0
 30
0.0
  0
XRECORD
  5
5C9
102
{ACAD_REACTORS
330
5AF
102
}
330
5AF
100
AcDbXrecord
 10
0.0
 20
0.0
 30
0.0
  0
XRECORD
  5
5C6
102
{ACAD_REACTORS
330
5AF
102
}
330
5AF
100
AcDbXrecord
340
0
  0
XRECORD
  5
5C7
102
{ACAD_REACTORS
330
5AF
102
}
330
5AF
100
AcDbXrecord
 70
     0
  0
XRECORD
  5
5BB
102
{ACAD_REACTORS
330
5AF
102
}
330
5AF
100
AcDbXrecord
  1
{FAEB1C32-E019-11D5-929B-00C0DF256EC4}
  0
DICTIONARYVAR
  5
5DD
102
{ACAD_REACTORS
330
5D0
102
}
330
5D0
100
DictionaryVariables
280
     0
  1
1:1
  0
DICTIONARYVAR
  5
5D7
102
{ACAD_REACTORS
330
5D0
102
}
330
5D0
100
DictionaryVariables
280
     0
  1
3.500000
  0
DICTIONARYVAR
  5
5D8
102
{ACAD_REACTORS
330
5D0
102
}
330
5D0
100
DictionaryVariables
280
     0
  1
acadiso.lin
  0
DICTIONARYVAR
  5
5D2
102
{ACAD_REACTORS
330
5D0
102
}
330
5D0
100
DictionaryVariables
280
     0
  1
Standard
  0
DICTIONARYVAR
  5
5D1
102
{ACAD_REACTORS
330
5D0
102
}
330
5D0
100
DictionaryVariables
280
     0
  1
Standard
  0
DICTIONARYVAR
  5
5D9
102
{ACAD_REACTORS
330
5D0
102
}
330
5D0
100
DictionaryVariables
280
     0
  1
2
  0
DICTIONARYVAR
  5
5DA
102
{ACAD_REACTORS
330
5D0
102
}
330
5D0
100
DictionaryVariables
280
     0
  1
1
  0
DICTIONARYVAR
  5
5DE
102
{ACAD_REACTORS
330
5D0
102
}
330
5D0
100
DictionaryVariables
280
     0
  1
1
  0
DICTIONARYVAR
  5
5D4
102
{ACAD_REACTORS
330
5D0
102
}
330
5D0
100
DictionaryVariables
280
     0
  1
80.000000
  0
DICTIONARYVAR
  5
5D3
102
{ACAD_REACTORS
330
5D0
102
}
330
5D0
100
DictionaryVariables
280
     0
  1
5.000000
  0
DICTIONARY
  5
5E1
330
45
100
AcDbDictionary
280
     1
  3
ACAD_XREC_ROUNDTRIP
360
5E2
  0
DICTIONARY
  5
5DF
330
44
100
AcDbDictionary
280
     1
  3
ACAD_XREC_ROUNDTRIP
360
5E0
  0
DICTIONARY
  5
5E3
330
46
100
AcDbDictionary
280
     1
  3
ACAD_XREC_ROUNDTRIP
360
5E4
  0
XRECORD
  5
5E2
102
{ACAD_REACTORS
330
5E1
102
}
330
5E1
100
AcDbXrecord
102
MATERIAL
148
0.0
149
0.0
149
0.0
 93
        0
 94
      127
282
     0
 72
     1
 77
     1
171
     1
175
     1
179
     1
273
     0
  0
XRECORD
  5
5E0
102
{ACAD_REACTORS
330
5DF
102
}
330
5DF
100
AcDbXrecord
102
MATERIAL
148
0.0
149
0.0
149
0.0
 93
        0
 94
      127
282
     0
 72
     1
 77
     1
171
     1
175
     1
179
     1
273
     0
  0
XRECORD
  5
5E4
102
{ACAD_REACTORS
330
5E3
102
}
330
5E3
100
AcDbXrecord
102
MATERIAL
148
0.0
149
0.0
149
0.0
 93
        0
 94
      127
282
     0
 72
     1
 77
     1
171
     1
175
     1
179
     1
273
     0
  0
ENDSEC
  0
EOF
