  0
SECTION
  2
HEADER
  9
$ACADVER
  1
AC1014
  9
$ACADMAINTVER
 70
     9
  9
$DWGCODEPAGE
  3
ANSI_932
  9
$INSBASE
 10
0.0
 20
0.0
 30
0.0
  9
$EXTMIN
 10
25.0
 20
50.0
 30
0.0
  9
$EXTMAX
 10
1925.0
 20
1400.0
 30
0.0
  9
$LIMMIN
 10
0.0
 20
0.0
  9
$LIMMAX
 10
420.0
 20
297.0
  9
$ORTHOMODE
 70
     0
  9
$REGENMODE
 70
     1
  9
$FILLMODE
 70
     1
  9
$QTEXTMODE
 70
     0
  9
$MIRRTEXT
 70
     1
  9
$DRAGMODE
 70
     2
  9
$LTSCALE
 40
0.2
  9
$OSMODE
 70
    37
  9
$ATTMODE
 70
     1
  9
$TEXTSIZE
 40
2.5
  9
$TRACEWID
 40
1.0
  9
$TEXTSTYLE
  7
STANDARD
  9
$CLAYER
  8
LAY-10
  9
$CELTYPE
  6
BYLAYER
  9
$CECOLOR
 62
   256
  9
$CELTSCALE
 40
1.0
  9
$DELOBJ
 70
     1
  9
$DISPSILH
 70
     0
  9
$DIMSCALE
 40
1.0
  9
$DIMASZ
 40
2.5
  9
$DIMEXO
 40
0.625
  9
$DIMDLI
 40
3.75
  9
$DIMRND
 40
0.0
  9
$DIMDLE
 40
0.0
  9
$DIMEXE
 40
1.25
  9
$DIMTP
 40
0.0
  9
$DIMTM
 40
0.0
  9
$DIMTXT
 40
2.5
  9
$DIMCEN
 40
2.5
  9
$DIMTSZ
 40
0.0
  9
$DIMTOL
 70
     0
  9
$DIMLIM
 70
     0
  9
$DIMTIH
 70
     0
  9
$DIMTOH
 70
     0
  9
$DIMSE1
 70
     0
  9
$DIMSE2
 70
     0
  9
$DIMTAD
 70
     1
  9
$DIMZIN
 70
     8
  9
$DIMBLK
  1

  9
$DIMASO
 70
     1
  9
$DIMSHO
 70
     1
  9
$DIMPOST
  1

  9
$DIMAPOST
  1

  9
$DIMALT
 70
     0
  9
$DIMALTD
 70
     3
  9
$DIMALTF
 40
0.03937007874016
  9
$DIMLFAC
 40
1.0
  9
$DIMTOFL
 70
     1
  9
$DIMTVP
 40
0.0
  9
$DIMTIX
 70
     0
  9
$DIMSOXD
 70
     0
  9
$DIMSAH
 70
     0
  9
$DIMBLK1
  1

  9
$DIMBLK2
  1

  9
$DIMSTYLE
  2
ISO-25
  9
$DIMCLRD
 70
     0
  9
$DIMCLRE
 70
     0
  9
$DIMCLRT
 70
     0
  9
$DIMTFAC
 40
1.0
  9
$DIMGAP
 40
0.625
  9
$DIMJUST
 70
     0
  9
$DIMSD1
 70
     0
  9
$DIMSD2
 70
     0
  9
$DIMTOLJ
 70
     0
  9
$DIMTZIN
 70
     8
  9
$DIMALTZ
 70
     0
  9
$DIMALTTZ
 70
     0
  9
$DIMFIT
 70
     3
  9
$DIMUPT
 70
     0
  9
$DIMUNIT
 70
     2
  9
$DIMDEC
 70
     2
  9
$DIMTDEC
 70
     2
  9
$DIMALTU
 70
     2
  9
$DIMALTTD
 70
     3
  9
$DIMTXSTY
  7
STANDARD
  9
$DIMAUNIT
 70
     0
  9
$LUNITS
 70
     2
  9
$LUPREC
 70
     4
  9
$SKETCHINC
 40
1.0
  9
$FILLETRAD
 40
10.0
  9
$AUNITS
 70
     0
  9
$AUPREC
 70
     0
  9
$MENU
  1
.
  9
$ELEVATION
 40
0.0
  9
$PELEVATION
 40
0.0
  9
$THICKNESS
 40
0.0
  9
$LIMCHECK
 70
     0
  9
$CHAMFERA
 40
0.0
  9
$CHAMFERB
 40
0.0
  9
$CHAMFERC
 40
0.0
  9
$CHAMFERD
 40
0.0
  9
$SKPOLY
 70
     0
  9
$TDCREATE
 40
2459321.480921065
  9
$TDUPDATE
 40
2459321.480922014
  9
$TDINDWG
 40
0.0000000116
  9
$TDUSRTIMER
 40
0.0000000116
  9
$USRTIMER
 70
     1
  9
$ANGBASE
 50
0.0
  9
$ANGDIR
 70
     0
  9
$PDMODE
 70
     0
  9
$PDSIZE
 40
0.0
  9
$PLINEWID
 40
0.0
  9
$COORDS
 70
     1
  9
$SPLFRAME
 70
     0
  9
$SPLINETYPE
 70
     6
  9
$SPLINESEGS
 70
     8
  9
$ATTDIA
 70
     0
  9
$ATTREQ
 70
     1
  9
$HANDLING
 70
     1
  9
$HANDSEED
  5
5BF
  9
$SURFTAB1
 70
     6
  9
$SURFTAB2
 70
     6
  9
$SURFTYPE
 70
     6
  9
$SURFU
 70
     6
  9
$SURFV
 70
     6
  9
$UCSNAME
  2

  9
$UCSORG
 10
0.0
 20
0.0
 30
0.0
  9
$UCSXDIR
 10
1.0
 20
0.0
 30
0.0
  9
$UCSYDIR
 10
0.0
 20
1.0
 30
0.0
  9
$PUCSNAME
  2

  9
$PUCSORG
 10
0.0
 20
0.0
 30
0.0
  9
$PUCSXDIR
 10
1.0
 20
0.0
 30
0.0
  9
$PUCSYDIR
 10
0.0
 20
1.0
 30
0.0
  9
$USERI1
 70
     0
  9
$USERI2
 70
     0
  9
$USERI3
 70
     0
  9
$USERI4
 70
     0
  9
$USERI5
 70
     0
  9
$USERR1
 40
0.0
  9
$USERR2
 40
0.0
  9
$USERR3
 40
0.0
  9
$USERR4
 40
0.0
  9
$USERR5
 40
0.0
  9
$WORLDVIEW
 70
     1
  9
$SHADEDGE
 70
     3
  9
$SHADEDIF
 70
    70
  9
$TILEMODE
 70
     1
  9
$MAXACTVP
 70
    64
  9
$PINSBASE
 10
0.0
 20
0.0
 30
0.0
  9
$PLIMCHECK
 70
     0
  9
$PEXTMIN
 10
1.000000000000000E+20
 20
1.000000000000000E+20
 30
1.000000000000000E+20
  9
$PEXTMAX
 10
-1.000000000000000E+20
 20
-1.000000000000000E+20
 30
-1.000000000000000E+20
  9
$PLIMMIN
 10
0.0
 20
0.0
  9
$PLIMMAX
 10
420.0
 20
297.0
  9
$UNITMODE
 70
     0
  9
$VISRETAIN
 70
     1
  9
$PLINEGEN
 70
     0
  9
$PSLTSCALE
 70
     1
  9
$TREEDEPTH
 70
  3020
  9
$PICKSTYLE
 70
     1
  9
$CMLSTYLE
  2
STANDARD
  9
$CMLJUST
 70
     0
  9
$CMLSCALE
 40
20.0
  9
$PROXYGRAPHICS
 70
     1
  9
$MEASUREMENT
 70
     1
  0
ENDSEC
  0
SECTION
  2
CLASSES
  0
CLASS
  1
ACDBDICTIONARYWDFLT
  2
AcDbDictionaryWithDefault
  3
ObjectDBX Classes
 90
        0
280
     0
281
     0
  0
CLASS
  1
VISUALSTYLE
  2
AcDbVisualStyle
  3
ObjectDBX Classes
 90
     4095
280
     0
281
     0
  0
CLASS
  1
MATERIAL
  2
AcDbMaterial
  3
ObjectDBX Classes
 90
     1153
280
     0
281
     0
  0
CLASS
  1
SCALE
  2
AcDbScale
  3
ObjectDBX Classes
 90
     1153
280
     0
281
     0
  0
CLASS
  1
TABLESTYLE
  2
AcDbTableStyle
  3
ObjectDBX Classes
 90
     4095
280
     0
281
     0
  0
CLASS
  1
MLEADERSTYLE
  2
AcDbMLeaderStyle
  3
ACDB_MLEADERSTYLE_CLASS
 90
     4095
280
     0
281
     0
  0
CLASS
  1
SUN
  2
AcDbSun
  3
SCENEOE
 90
     1153
280
     0
281
     0
  0
CLASS
  1
DICTIONARYVAR
  2
AcDbDictionaryVar
  3
ObjectDBX Classes
 90
        0
280
     0
281
     0
  0
CLASS
  1
XRECORD
  2
AcDbXrecord
  3
ObjectDBX Classes
 90
        0
280
     0
281
     0
  0
CLASS
  1
LWPOLYLINE
  2
AcDbPolyline
  3
ObjectDBX Classes
 90
        0
280
     0
281
     1
  0
CLASS
  1
HATCH
  2
AcDbHatch
  3
ObjectDBX Classes
 90
        0
280
     0
281
     1
  0
CLASS
  1
ACDBPLACEHOLDER
  2
AcDbPlaceHolder
  3
ObjectDBX Classes
 90
        0
280
     0
281
     0
  0
CLASS
  1
LAYOUT
  2
AcDbLayout
  3
ObjectDBX Classes
 90
        0
280
     0
281
     0
  0
ENDSEC
  0
SECTION
  2
TABLES
  0
TABLE
  2
VPORT
  5
8
102
{ACAD_XDICTIONARY
360
5B4
102
}
330
0
100
AcDbSymbolTable
 70
     1
  0
VPORT
  5
29
330
8
100
AcDbSymbolTableRecord
100
AcDbViewportTableRecord
  2
*ACTIVE
 70
     0
 10
0.0
 20
0.0
 11
1.0
 21
1.0
 12
975.0000000000001
 22
725.0
 13
0.0
 23
0.0
 14
10.0
 24
10.0
 15
10.0
 25
10.0
 16
0.0
 26
0.0
 36
1.0
 17
0.0
 27
0.0
 37
0.0
 40
1350.0
 41
1.407407407407408
 42
50.0
 43
0.0
 44
0.0
 50
0.0
 51
0.0
 71
     0
 72
  1000
 73
     1
 74
     3
 75
     0
 76
     0
 77
     0
 78
     0
  0
ENDTAB
  0
TABLE
  2
LTYPE
  5
5
330
0
100
AcDbSymbolTable
 70
     6
  0
LTYPE
  5
14
330
5
100
AcDbSymbolTableRecord
100
AcDbLinetypeTableRecord
  2
BYBLOCK
 70
     0
  3

 72
    65
 73
     0
 40
0.0
  0
LTYPE
  5
15
330
5
100
AcDbSymbolTableRecord
100
AcDbLinetypeTableRecord
  2
BYLAYER
 70
     0
  3

 72
    65
 73
     0
 40
0.0
  0
LTYPE
  5
16
330
5
100
AcDbSymbolTableRecord
100
AcDbLinetypeTableRecord
  2
CONTINUOUS
 70
     0
  3
Solid line
 72
    65
 73
     0
 40
0.0
  0
LTYPE
  5
6E
330
5
100
AcDbSymbolTableRecord
100
AcDbLinetypeTableRecord
  2
HIDDEN
 70
     0
  3
Hidden __ __ __ __ __ __ __ __ __ __ __ __ __ __
 72
    65
 73
     2
 40
9.524999999999999
 49
6.35
 74
     0
 49
-3.175
 74
     0
  0
LTYPE
  5
6F
330
5
100
AcDbSymbolTableRecord
100
AcDbLinetypeTableRecord
  2
CENTER
 70
     0
  3
Center ____ _ ____ _ ____ _ ____ _ ____ _ ____
 72
    65
 73
     4
 40
50.8
 49
31.75
 74
     0
 49
-6.35
 74
     0
 49
6.35
 74
     0
 49
-6.35
 74
     0
  0
LTYPE
  5
70
330
5
100
AcDbSymbolTableRecord
100
AcDbLinetypeTableRecord
  2
PHANTOM
 70
     0
  3
Phantom ______  __  __  ______  __  __  ______ 
 72
    65
 73
     6
 40
63.50000000000001
 49
31.75
 74
     0
 49
-6.35
 74
     0
 49
6.35
 74
     0
 49
-6.35
 74
     0
 49
6.35
 74
     0
 49
-6.35
 74
     0
  0
LTYPE
  5
71
330
5
100
AcDbSymbolTableRecord
100
AcDbLinetypeTableRecord
  2
ACAD_ISO06W100
 70
     0
  3
ISO long-dash triple-dot ____ ... ____ ... ____
 72
    65
 73
     8
 40
36.0
 49
24.0
 74
     0
 49
-3.0
 74
     0
 49
0.0
 74
     0
 49
-3.0
 74
     0
 49
0.0
 74
     0
 49
-3.0
 74
     0
 49
0.0
 74
     0
 49
-3.0
 74
     0
  0
LTYPE
  5
72
330
5
100
AcDbSymbolTableRecord
100
AcDbLinetypeTableRecord
  2
ACAD_ISO15W100
 70
     0
  3
ISO double-dash triple-dot __ __ . . . __ __ . .
 72
    65
 73
    10
 40
39.0
 49
12.0
 74
     0
 49
-3.0
 74
     0
 49
12.0
 74
     0
 49
-3.0
 74
     0
 49
0.0
 74
     0
 49
-3.0
 74
     0
 49
0.0
 74
     0
 49
-3.0
 74
     0
 49
0.0
 74
     0
 49
-3.0
 74
     0
  0
ENDTAB
  0
TABLE
  2
LAYER
  5
2
330
0
100
AcDbSymbolTable
 70
     5
  0
LAYER
  5
10
330
2
100
AcDbSymbolTableRecord
100
AcDbLayerTableRecord
  2
0
 70
     0
 62
     7
  6
CONTINUOUS
  0
LAYER
  5
75
330
2
100
AcDbSymbolTableRecord
100
AcDbLayerTableRecord
  2
LAY-10
 70
     0
 62
     7
  6
CONTINUOUS
  0
LAYER
  5
76
330
2
100
AcDbSymbolTableRecord
100
AcDbLayerTableRecord
  2
LAY-20
 70
     0
 62
     7
  6
CONTINUOUS
  0
LAYER
  5
77
330
2
100
AcDbSymbolTableRecord
100
AcDbLayerTableRecord
  2
LAY-255
 70
     0
 62
     7
  6
CONTINUOUS
  0
LAYER
  5
485
330
2
100
AcDbSymbolTableRecord
100
AcDbLayerTableRecord
  2
DEFPOINTS
 70
     0
 62
     7
  6
CONTINUOUS
  0
ENDTAB
  0
TABLE
  2
STYLE
  5
3
330
0
100
AcDbSymbolTable
 70
     4
  0
STYLE
  5
11
330
3
100
AcDbSymbolTableRecord
100
AcDbTextStyleTableRecord
  2
STANDARD
 70
     0
 40
0.0
 41
1.0
 50
0.0
 71
     0
 42
2.5
  3
simplex
  4
bigfont
  0
STYLE
  5
73
330
3
100
AcDbSymbolTableRecord
100
AcDbTextStyleTableRecord
  2
EXCADSTD
 70
     0
 40
0.0
 41
1.0
 50
0.0
 71
     0
 42
2.5
  3
simplex
  4
bigfont
  0
STYLE
  5
74
330
3
100
AcDbSymbolTableRecord
100
AcDbTextStyleTableRecord
  2
EXCADVERT
 70
     4
 40
0.0
 41
1.0
 50
0.0
 71
     0
 42
2.5
  3
simplex
  4
bigfont
  0
STYLE
  5
483
330
3
100
AcDbSymbolTableRecord
100
AcDbTextStyleTableRecord
  2
EXCADDIM1
 70
     0
 40
0.0
 41
0.84
 50
0.0
 71
     0
 42
2.5
  3
simplex
  4
bigfont
  0
ENDTAB
  0
TABLE
  2
VIEW
  5
6
330
0
100
AcDbSymbolTable
 70
     0
  0
ENDTAB
  0
TABLE
  2
UCS
  5
7
330
0
100
AcDbSymbolTable
 70
     0
  0
ENDTAB
  0
TABLE
  2
APPID
  5
9
330
0
100
AcDbSymbolTable
 70
     2
  0
APPID
  5
12
330
9
100
AcDbSymbolTableRecord
100
AcDbRegAppTableRecord
  2
ACAD
 70
     0
  0
APPID
  5
5BE
330
9
100
AcDbSymbolTableRecord
100
AcDbRegAppTableRecord
  2
ACAD_MLEADERVER
 70
     0
  0
ENDTAB
  0
TABLE
  2
DIMSTYLE
  5
A
330
0
100
AcDbSymbolTable
 70
     1
  0
DIMSTYLE
105
27
102
{ACAD_REACTORS
330
484
330
490
330
49C
330
4A9
330
4B5
330
4C1
330
4CE
330
4DB
330
4E8
330
4F5
330
502
330
50F
330
51C
330
528
330
534
330
541
330
54E
102
}
330
A
100
AcDbSymbolTableRecord
100
AcDbDimStyleTableRecord
  2
ISO-25
 70
     0
  3

  4

  5

  6

  7

 40
1.0
 41
2.5
 42
0.625
 43
3.75
 44
1.25
 45
0.0
 46
0.0
 47
0.0
 48
0.0
140
2.5
141
2.5
142
0.0
143
0.03937007874016
144
1.0
145
0.0
146
1.0
147
0.625
 71
     0
 72
     0
 73
     0
 74
     0
 75
     0
 76
     0
 77
     1
 78
     8
170
     0
171
     3
172
     1
173
     0
174
     0
175
     0
176
     0
177
     0
178
     0
270
     2
271
     2
272
     2
273
     2
274
     3
340
11
275
     0
280
     0
281
     0
282
     0
283
     0
284
     8
285
     0
286
     0
287
     5
288
     0
  0
ENDTAB
  0
TABLE
  2
BLOCK_RECORD
  5
1
330
0
100
AcDbSymbolTable
 70
    31
  0
BLOCK_RECORD
  5
1F
330
1
100
AcDbSymbolTableRecord
100
AcDbBlockTableRecord
  2
*MODEL_SPACE
  0
BLOCK_RECORD
  5
1B
330
1
100
AcDbSymbolTableRecord
100
AcDbBlockTableRecord
  2
*PAPER_SPACE
  0
BLOCK_RECORD
  5
78
330
1
100
AcDbSymbolTableRecord
100
AcDbBlockTableRecord
  2
EX_NORM
  0
BLOCK_RECORD
  5
7B
330
1
100
AcDbSymbolTableRecord
100
AcDbBlockTableRecord
  2
EX_BNORM
  0
BLOCK_RECORD
  5
7E
330
1
100
AcDbSymbolTableRecord
100
AcDbBlockTableRecord
  2
EX_BCIR
  0
BLOCK_RECORD
  5
81
330
1
100
AcDbSymbolTableRecord
100
AcDbBlockTableRecord
  2
EX_RCIVIL
  0
BLOCK_RECORD
  5
84
330
1
100
AcDbSymbolTableRecord
100
AcDbBlockTableRecord
  2
EX_SLANT
  0
BLOCK_RECORD
  5
87
330
1
100
AcDbSymbolTableRecord
100
AcDbBlockTableRecord
  2
EX_NONE
  0
BLOCK_RECORD
  5
8A
330
1
100
AcDbSymbolTableRecord
100
AcDbBlockTableRecord
  2
EX_CIVIL
  0
BLOCK_RECORD
  5
8D
330
1
100
AcDbSymbolTableRecord
100
AcDbBlockTableRecord
  2
EX_WCIR
  0
BLOCK_RECORD
  5
90
330
1
100
AcDbSymbolTableRecord
100
AcDbBlockTableRecord
  2
EX_WCIR2
  0
BLOCK_RECORD
  5
93
330
1
100
AcDbSymbolTableRecord
100
AcDbBlockTableRecord
  2
EX_WNORM
  0
BLOCK_RECORD
  5
96
330
1
100
AcDbSymbolTableRecord
100
AcDbBlockTableRecord
  2
EX_NNORM
  0
BLOCK_RECORD
  5
99
330
1
100
AcDbSymbolTableRecord
100
AcDbBlockTableRecord
  2
EX_BBOX
  0
BLOCK_RECORD
  5
9C
330
1
100
AcDbSymbolTableRecord
100
AcDbBlockTableRecord
  2
EX_WBOX
  0
BLOCK_RECORD
  5
9F
330
1
100
AcDbSymbolTableRecord
100
AcDbBlockTableRecord
  2
EX_INTEGRAL
  0
BLOCK_RECORD
  5
486
330
1
100
AcDbSymbolTableRecord
100
AcDbBlockTableRecord
  2
*D15
  0
BLOCK_RECORD
  5
491
330
1
100
AcDbSymbolTableRecord
100
AcDbBlockTableRecord
  2
*D16
  0
BLOCK_RECORD
  5
49D
330
1
100
AcDbSymbolTableRecord
100
AcDbBlockTableRecord
  2
*D17
  0
BLOCK_RECORD
  5
4AA
330
1
100
AcDbSymbolTableRecord
100
AcDbBlockTableRecord
  2
*D18
  0
BLOCK_RECORD
  5
4B6
330
1
100
AcDbSymbolTableRecord
100
AcDbBlockTableRecord
  2
*D19
  0
BLOCK_RECORD
  5
4C2
330
1
100
AcDbSymbolTableRecord
100
AcDbBlockTableRecord
  2
*D20
  0
BLOCK_RECORD
  5
4CF
330
1
100
AcDbSymbolTableRecord
100
AcDbBlockTableRecord
  2
*D21
  0
BLOCK_RECORD
  5
4DC
330
1
100
AcDbSymbolTableRecord
100
AcDbBlockTableRecord
  2
*D22
  0
BLOCK_RECORD
  5
4E9
330
1
100
AcDbSymbolTableRecord
100
AcDbBlockTableRecord
  2
*D23
  0
BLOCK_RECORD
  5
4F6
330
1
100
AcDbSymbolTableRecord
100
AcDbBlockTableRecord
  2
*D24
  0
BLOCK_RECORD
  5
503
330
1
100
AcDbSymbolTableRecord
100
AcDbBlockTableRecord
  2
*D25
  0
BLOCK_RECORD
  5
510
330
1
100
AcDbSymbolTableRecord
100
AcDbBlockTableRecord
  2
*D26
  0
BLOCK_RECORD
  5
51D
330
1
100
AcDbSymbolTableRecord
100
AcDbBlockTableRecord
  2
*D27
  0
BLOCK_RECORD
  5
529
330
1
100
AcDbSymbolTableRecord
100
AcDbBlockTableRecord
  2
*D28
  0
BLOCK_RECORD
  5
535
330
1
100
AcDbSymbolTableRecord
100
AcDbBlockTableRecord
  2
*D29
  0
BLOCK_RECORD
  5
542
330
1
100
AcDbSymbolTableRecord
100
AcDbBlockTableRecord
  2
*D30
  0
BLOCK_RECORD
  5
54F
330
1
100
AcDbSymbolTableRecord
100
AcDbBlockTableRecord
  2
*D31
  0
ENDTAB
  0
ENDSEC
  0
SECTION
  2
BLOCKS
  0
BLOCK
  5
20
330
1F
100
AcDbEntity
  8
0
100
AcDbBlockBegin
  2
*MODEL_SPACE
 70
     0
 10
0.0
 20
0.0
 30
0.0
  3
*MODEL_SPACE
  1

  0
ENDBLK
  5
21
330
1F
100
AcDbEntity
  8
0
100
AcDbBlockEnd
  0
BLOCK
  5
1C
330
1B
100
AcDbEntity
 67
     1
  8
0
100
AcDbBlockBegin
  2
*PAPER_SPACE
 70
     0
 10
0.0
 20
0.0
 30
0.0
  3
*PAPER_SPACE
  1

  0
ENDBLK
  5
1D
330
1B
100
AcDbEntity
 67
     1
  8
0
100
AcDbBlockEnd
  0
BLOCK
  5
79
330
78
100
AcDbEntity
  8
0
100
AcDbBlockBegin
  2
EX_NORM
 70
     0
 10
0.0
 20
0.0
 30
0.0
  3
EX_NORM
  1

  0
LINE
  5
A2
330
78
100
AcDbEntity
  8
0
  6
CONTINUOUS
 62
     0
100
AcDbLine
 10
0.0
 20
0.0
 30
0.0
 11
-1.0
 21
0.0
 31
0.0
  0
LINE
  5
A3
330
78
100
AcDbEntity
  8
0
  6
CONTINUOUS
 62
     0
100
AcDbLine
 10
0.0
 20
0.0
 30
0.0
 11
-1.0
 21
0.166666667
 31
0.0
  0
LINE
  5
A4
330
78
100
AcDbEntity
  8
0
  6
CONTINUOUS
 62
     0
100
AcDbLine
 10
0.0
 20
0.0
 30
0.0
 11
-1.0
 21
-0.166666667
 31
0.0
  0
ENDBLK
  5
7A
330
78
100
AcDbEntity
  8
0
100
AcDbBlockEnd
  0
BLOCK
  5
7C
330
7B
100
AcDbEntity
  8
0
100
AcDbBlockBegin
  2
EX_BNORM
 70
     0
 10
0.0
 20
0.0
 30
0.0
  3
EX_BNORM
  1

  0
LINE
  5
A5
330
7B
100
AcDbEntity
  8
0
  6
CONTINUOUS
 62
     0
100
AcDbLine
 10
0.0
 20
0.0
 30
0.0
 11
-1.0
 21
0.0
 31
0.0
  0
LINE
  5
A6
330
7B
100
AcDbEntity
  8
0
  6
CONTINUOUS
 62
     0
100
AcDbLine
 10
0.0
 20
0.0
 30
0.0
 11
-1.0
 21
0.166666667
 31
0.0
  0
LINE
  5
A7
330
7B
100
AcDbEntity
  8
0
  6
CONTINUOUS
 62
     0
100
AcDbLine
 10
0.0
 20
0.0
 30
0.0
 11
-1.0
 21
-0.166666667
 31
0.0
  0
LINE
  5
A8
330
7B
100
AcDbEntity
  8
0
  6
CONTINUOUS
 62
     0
100
AcDbLine
 10
0.0
 20
0.0
 30
0.0
 11
-1.0
 21
0.083333333
 31
0.0
  0
LINE
  5
A9
330
7B
100
AcDbEntity
  8
0
  6
CONTINUOUS
 62
     0
100
AcDbLine
 10
0.0
 20
0.0
 30
0.0
 11
-1.0
 21
-0.083333333
 31
0.0
  0
LINE
  5
AA
330
7B
100
AcDbEntity
  8
0
  6
CONTINUOUS
 62
     0
100
AcDbLine
 10
-1.0
 20
0.166666667
 30
0.0
 11
-1.0
 21
-0.166666667
 31
0.0
  0
ENDBLK
  5
7D
330
7B
100
AcDbEntity
  8
0
100
AcDbBlockEnd
  0
BLOCK
  5
7F
330
7E
100
AcDbEntity
  8
0
100
AcDbBlockBegin
  2
EX_BCIR
 70
     0
 10
0.0
 20
0.0
 30
0.0
  3
EX_BCIR
  1

  0
LINE
  5
AB
330
7E
100
AcDbEntity
  8
0
  6
CONTINUOUS
 62
     0
100
AcDbLine
 10
0.0
 20
0.0
 30
0.0
 11
-1.0
 21
0.0
 31
0.0
  0
CIRCLE
  5
AC
330
7E
100
AcDbEntity
  8
0
  6
CONTINUOUS
 62
     0
100
AcDbCircle
 10
0.0
 20
0.0
 30
0.0
 40
0.5
  0
CIRCLE
  5
AD
330
7E
100
AcDbEntity
  8
0
  6
CONTINUOUS
 62
     0
100
AcDbCircle
 10
0.0
 20
0.0
 30
0.0
 40
0.25
  0
ENDBLK
  5
80
330
7E
100
AcDbEntity
  8
0
100
AcDbBlockEnd
  0
BLOCK
  5
82
330
81
100
AcDbEntity
  8
0
100
AcDbBlockBegin
  2
EX_RCIVIL
 70
     0
 10
0.0
 20
0.0
 30
0.0
  3
EX_RCIVIL
  1

  0
LINE
  5
AE
330
81
100
AcDbEntity
  8
0
  6
CONTINUOUS
 62
     0
100
AcDbLine
 10
0.0
 20
0.0
 30
0.0
 11
-1.0
 21
0.0
 31
0.0
  0
LINE
  5
AF
330
81
100
AcDbEntity
  8
0
  6
CONTINUOUS
 62
     0
100
AcDbLine
 10
-1.0
 20
-0.25
 30
0.0
 11
0.0
 21
-0.25
 31
0.0
  0
LINE
  5
B0
330
81
100
AcDbEntity
  8
0
  6
CONTINUOUS
 62
     0
100
AcDbLine
 10
-1.0
 20
-0.125
 30
0.0
 11
0.0
 21
-0.125
 31
0.0
  0
ENDBLK
  5
83
330
81
100
AcDbEntity
  8
0
100
AcDbBlockEnd
  0
BLOCK
  5
85
330
84
100
AcDbEntity
  8
0
100
AcDbBlockBegin
  2
EX_SLANT
 70
     0
 10
0.0
 20
0.0
 30
0.0
  3
EX_SLANT
  1

  0
LINE
  5
B1
330
84
100
AcDbEntity
  8
0
  6
CONTINUOUS
 62
     0
100
AcDbLine
 10
0.0
 20
0.0
 30
0.0
 11
-1.0
 21
0.0
 31
0.0
  0
LINE
  5
B2
330
84
100
AcDbEntity
  8
0
  6
CONTINUOUS
 62
     0
100
AcDbLine
 10
0.707106781
 20
0.707106781
 30
0.0
 11
-0.707106781
 21
-0.707106781
 31
0.0
  0
ENDBLK
  5
86
330
84
100
AcDbEntity
  8
0
100
AcDbBlockEnd
  0
BLOCK
  5
88
330
87
100
AcDbEntity
  8
0
100
AcDbBlockBegin
  2
EX_NONE
 70
     0
 10
0.0
 20
0.0
 30
0.0
  3
EX_NONE
  1

  0
LINE
  5
B3
330
87
100
AcDbEntity
  8
0
  6
CONTINUOUS
 62
     0
100
AcDbLine
 10
0.0
 20
0.0
 30
0.0
 11
-1.0
 21
0.0
 31
0.0
  0
ENDBLK
  5
89
330
87
100
AcDbEntity
  8
0
100
AcDbBlockEnd
  0
BLOCK
  5
8B
330
8A
100
AcDbEntity
  8
0
100
AcDbBlockBegin
  2
EX_CIVIL
 70
     0
 10
0.0
 20
0.0
 30
0.0
  3
EX_CIVIL
  1

  0
LINE
  5
B4
330
8A
100
AcDbEntity
  8
0
  6
CONTINUOUS
 62
     0
100
AcDbLine
 10
0.0
 20
0.0
 30
0.0
 11
-1.0
 21
0.0
 31
0.0
  0
LINE
  5
B5
330
8A
100
AcDbEntity
  8
0
  6
CONTINUOUS
 62
     0
100
AcDbLine
 10
-1.0
 20
0.25
 30
0.0
 11
0.0
 21
0.25
 31
0.0
  0
LINE
  5
B6
330
8A
100
AcDbEntity
  8
0
  6
CONTINUOUS
 62
     0
100
AcDbLine
 10
-1.0
 20
0.125
 30
0.0
 11
0.0
 21
0.125
 31
0.0
  0
ENDBLK
  5
8C
330
8A
100
AcDbEntity
  8
0
100
AcDbBlockEnd
  0
BLOCK
  5
8E
330
8D
100
AcDbEntity
  8
0
100
AcDbBlockBegin
  2
EX_WCIR
 70
     0
 10
0.0
 20
0.0
 30
0.0
  3
EX_WCIR
  1

  0
LINE
  5
B7
330
8D
100
AcDbEntity
  8
0
  6
CONTINUOUS
 62
     0
100
AcDbLine
 10
0.0
 20
0.0
 30
0.0
 11
-1.0
 21
0.0
 31
0.0
  0
CIRCLE
  5
B8
330
8D
100
AcDbEntity
  8
0
  6
CONTINUOUS
 62
     0
100
AcDbCircle
 10
0.0
 20
0.0
 30
0.0
 40
0.5
  0
ENDBLK
  5
8F
330
8D
100
AcDbEntity
  8
0
100
AcDbBlockEnd
  0
BLOCK
  5
91
330
90
100
AcDbEntity
  8
0
100
AcDbBlockBegin
  2
EX_WCIR2
 70
     0
 10
0.0
 20
0.0
 30
0.0
  3
EX_WCIR2
  1

  0
LINE
  5
B9
330
90
100
AcDbEntity
  8
0
  6
CONTINUOUS
 62
     0
100
AcDbLine
 10
-0.5
 20
0.0
 30
0.0
 11
-1.0
 21
0.0
 31
0.0
  0
CIRCLE
  5
BA
330
90
100
AcDbEntity
  8
0
  6
CONTINUOUS
 62
     0
100
AcDbCircle
 10
0.0
 20
0.0
 30
0.0
 40
0.5
  0
ENDBLK
  5
92
330
90
100
AcDbEntity
  8
0
100
AcDbBlockEnd
  0
BLOCK
  5
94
330
93
100
AcDbEntity
  8
0
100
AcDbBlockBegin
  2
EX_WNORM
 70
     0
 10
0.0
 20
0.0
 30
0.0
  3
EX_WNORM
  1

  0
LINE
  5
BB
330
93
100
AcDbEntity
  8
0
  6
CONTINUOUS
 62
     0
100
AcDbLine
 10
-1.0
 20
0.0
 30
0.0
 11
-1.0
 21
0.0
 31
0.0
  0
LINE
  5
BC
330
93
100
AcDbEntity
  8
0
  6
CONTINUOUS
 62
     0
100
AcDbLine
 10
0.0
 20
0.0
 30
0.0
 11
-1.0
 21
0.166666667
 31
0.0
  0
LINE
  5
BD
330
93
100
AcDbEntity
  8
0
  6
CONTINUOUS
 62
     0
100
AcDbLine
 10
0.0
 20
0.0
 30
0.0
 11
-1.0
 21
-0.166666667
 31
0.0
  0
LINE
  5
BE
330
93
100
AcDbEntity
  8
0
  6
CONTINUOUS
 62
     0
100
AcDbLine
 10
-1.0
 20
0.166666667
 30
0.0
 11
-1.0
 21
-0.166666667
 31
0.0
  0
ENDBLK
  5
95
330
93
100
AcDbEntity
  8
0
100
AcDbBlockEnd
  0
BLOCK
  5
97
330
96
100
AcDbEntity
  8
0
100
AcDbBlockBegin
  2
EX_NNORM
 70
     0
 10
0.0
 20
0.0
 30
0.0
  3
EX_NNORM
  1

  0
LINE
  5
BF
330
96
100
AcDbEntity
  8
0
  6
CONTINUOUS
 62
     0
100
AcDbLine
 10
0.0
 20
0.0
 30
0.0
 11
-1.0
 21
0.0
 31
0.0
  0
LINE
  5
C0
330
96
100
AcDbEntity
  8
0
  6
CONTINUOUS
 62
     0
100
AcDbLine
 10
0.0
 20
0.0
 30
0.0
 11
-1.0
 21
0.166666667
 31
0.0
  0
LINE
  5
C1
330
96
100
AcDbEntity
  8
0
  6
CONTINUOUS
 62
     0
100
AcDbLine
 10
0.0
 20
0.0
 30
0.0
 11
-1.0
 21
-0.166666667
 31
0.0
  0
LINE
  5
C2
330
96
100
AcDbEntity
  8
0
  6
CONTINUOUS
 62
     0
100
AcDbLine
 10
-1.0
 20
0.166666667
 30
0.0
 11
-1.0
 21
-0.166666667
 31
0.0
  0
ENDBLK
  5
98
330
96
100
AcDbEntity
  8
0
100
AcDbBlockEnd
  0
BLOCK
  5
9A
330
99
100
AcDbEntity
  8
0
100
AcDbBlockBegin
  2
EX_BBOX
 70
     0
 10
0.0
 20
0.0
 30
0.0
  3
EX_BBOX
  1

  0
LINE
  5
C3
330
99
100
AcDbEntity
  8
0
  6
CONTINUOUS
 62
     0
100
AcDbLine
 10
0.0
 20
0.0
 30
0.0
 11
-1.0
 21
0.0
 31
0.0
  0
LINE
  5
C4
330
99
100
AcDbEntity
  8
0
  6
CONTINUOUS
 62
     0
100
AcDbLine
 10
-0.5
 20
0.5
 30
0.0
 11
0.5
 21
0.5
 31
0.0
  0
LINE
  5
C5
330
99
100
AcDbEntity
  8
0
  6
CONTINUOUS
 62
     0
100
AcDbLine
 10
0.5
 20
0.5
 30
0.0
 11
0.5
 21
-0.5
 31
0.0
  0
LINE
  5
C6
330
99
100
AcDbEntity
  8
0
  6
CONTINUOUS
 62
     0
100
AcDbLine
 10
0.5
 20
-0.5
 30
0.0
 11
-0.5
 21
-0.5
 31
0.0
  0
LINE
  5
C7
330
99
100
AcDbEntity
  8
0
  6
CONTINUOUS
 62
     0
100
AcDbLine
 10
-0.5
 20
-0.5
 30
0.0
 11
-0.5
 21
0.5
 31
0.0
  0
LINE
  5
C8
330
99
100
AcDbEntity
  8
0
  6
CONTINUOUS
 62
     0
100
AcDbLine
 10
-0.25
 20
0.25
 30
0.0
 11
0.25
 21
0.25
 31
0.0
  0
LINE
  5
C9
330
99
100
AcDbEntity
  8
0
  6
CONTINUOUS
 62
     0
100
AcDbLine
 10
0.25
 20
0.25
 30
0.0
 11
0.25
 21
-0.25
 31
0.0
  0
LINE
  5
CA
330
99
100
AcDbEntity
  8
0
  6
CONTINUOUS
 62
     0
100
AcDbLine
 10
0.25
 20
-0.25
 30
0.0
 11
-0.25
 21
-0.25
 31
0.0
  0
LINE
  5
CB
330
99
100
AcDbEntity
  8
0
  6
CONTINUOUS
 62
     0
100
AcDbLine
 10
-0.25
 20
-0.25
 30
0.0
 11
-0.25
 21
0.25
 31
0.0
  0
ENDBLK
  5
9B
330
99
100
AcDbEntity
  8
0
100
AcDbBlockEnd
  0
BLOCK
  5
9D
330
9C
100
AcDbEntity
  8
0
100
AcDbBlockBegin
  2
EX_WBOX
 70
     0
 10
0.0
 20
0.0
 30
0.0
  3
EX_WBOX
  1

  0
LINE
  5
CC
330
9C
100
AcDbEntity
  8
0
  6
CONTINUOUS
 62
     0
100
AcDbLine
 10
-0.5
 20
0.0
 30
0.0
 11
-1.0
 21
0.0
 31
0.0
  0
LINE
  5
CD
330
9C
100
AcDbEntity
  8
0
  6
CONTINUOUS
 62
     0
100
AcDbLine
 10
-0.5
 20
0.5
 30
0.0
 11
0.5
 21
0.5
 31
0.0
  0
LINE
  5
CE
330
9C
100
AcDbEntity
  8
0
  6
CONTINUOUS
 62
     0
100
AcDbLine
 10
0.5
 20
0.5
 30
0.0
 11
0.5
 21
-0.5
 31
0.0
  0
LINE
  5
CF
330
9C
100
AcDbEntity
  8
0
  6
CONTINUOUS
 62
     0
100
AcDbLine
 10
0.5
 20
-0.5
 30
0.0
 11
-0.5
 21
-0.5
 31
0.0
  0
LINE
  5
D0
330
9C
100
AcDbEntity
  8
0
  6
CONTINUOUS
 62
     0
100
AcDbLine
 10
-0.5
 20
-0.5
 30
0.0
 11
-0.5
 21
0.5
 31
0.0
  0
ENDBLK
  5
9E
330
9C
100
AcDbEntity
  8
0
100
AcDbBlockEnd
  0
BLOCK
  5
A0
330
9F
100
AcDbEntity
  8
0
100
AcDbBlockBegin
  2
EX_INTEGRAL
 70
     0
 10
0.0
 20
0.0
 30
0.0
  3
EX_INTEGRAL
  1

  0
LINE
  5
D1
330
9F
100
AcDbEntity
  8
0
  6
CONTINUOUS
 62
     0
100
AcDbLine
 10
0.0
 20
0.0
 30
0.0
 11
-1.0
 21
0.0
 31
0.0
  0
ARC
  5
D2
330
9F
100
AcDbEntity
  8
0
  6
CONTINUOUS
 62
     0
100
AcDbCircle
 10
0.542115
 20
0.164992
 30
0.0
 40
0.56667
100
AcDbArc
 50
73.07249033629006
 51
196.9275130221199
  0
ARC
  5
D3
330
9F
100
AcDbEntity
  8
0
  6
CONTINUOUS
 62
     0
100
AcDbCircle
 10
-0.542115
 20
-0.164992
 30
0.0
 40
0.56667
100
AcDbArc
 50
253.0724869220464
 51
16.9275130559125
  0
ENDBLK
  5
A1
330
9F
100
AcDbEntity
  8
0
100
AcDbBlockEnd
  0
BLOCK
  5
487
330
486
100
AcDbEntity
  8
0
100
AcDbBlockBegin
  2
*D15
 70
     1
 10
0.0
 20
0.0
 30
0.0
  3
*D15
  1

  0
LINE
  5
489
330
486
100
AcDbEntity
  8
LAY-20
  6
CONTINUOUS
 62
     4
100
AcDbLine
 10
354.9999999999103
 20
283.4999999999998
 30
0.0
 11
354.9999999999103
 21
337.4999999999999
 31
0.0
  0
INSERT
  5
48A
330
486
100
AcDbEntity
  8
LAY-20
 62
     4
100
AcDbBlockReference
  2
EX_BNORM
 10
354.9999999999103
 20
270.9999999999998
 30
0.0
 41
12.5
 42
12.5
 43
12.5
 50
270.0
  0
INSERT
  5
48B
330
486
100
AcDbEntity
  8
LAY-20
 62
     4
100
AcDbBlockReference
  2
EX_BNORM
 10
354.9999999999103
 20
349.9999999999999
 30
0.0
 41
12.5
 42
12.5
 43
12.5
 50
90.0
  0
MTEXT
  5
48C
330
486
100
AcDbEntity
  8
LAY-20
 62
     7
100
AcDbMText
 10
342.4999999999103
 20
310.4999999999998
 30
0.0
 40
15.590552
 41
0.0
 71
     5
 72
     1
  1
79
  7
EXCADDIM1
 11
0.0
 21
1.0
 31
0.0
  0
POINT
  5
48D
330
486
100
AcDbEntity
  8
DEFPOINTS
 62
     0
100
AcDbPoint
 10
354.9999999999103
 20
270.9999999999998
 30
0.0
  0
POINT
  5
48E
330
486
100
AcDbEntity
  8
DEFPOINTS
 62
     0
100
AcDbPoint
 10
354.9999999999103
 20
349.9999999999999
 30
0.0
  0
POINT
  5
48F
330
486
100
AcDbEntity
  8
DEFPOINTS
 62
     0
100
AcDbPoint
 10
354.9999999999103
 20
349.9999999999999
 30
0.0
  0
ENDBLK
  5
488
330
486
100
AcDbEntity
  8
0
100
AcDbBlockEnd
  0
BLOCK
  5
492
330
491
100
AcDbEntity
  8
0
100
AcDbBlockBegin
  2
*D16
 70
     1
 10
0.0
 20
0.0
 30
0.0
  3
*D16
  1

  0
LINE
  5
494
330
491
100
AcDbEntity
  8
LAY-20
  6
CONTINUOUS
 62
     4
100
AcDbLine
 10
277.4999999999103
 20
280.9999999999999
 30
0.0
 11
327.4999999999103
 21
280.9999999999999
 31
0.0
  0
LINE
  5
495
330
491
100
AcDbEntity
  8
LAY-20
  6
CONTINUOUS
 62
     4
100
AcDbLine
 10
319.9999999999103
 20
293.4999999999999
 30
0.0
 11
319.9999999999103
 21
337.4999999999999
 31
0.0
  0
INSERT
  5
496
330
491
100
AcDbEntity
  8
LAY-20
 62
     4
100
AcDbBlockReference
  2
EX_BNORM
 10
319.9999999999103
 20
280.9999999999999
 30
0.0
 41
12.5
 42
12.5
 43
12.5
 50
270.0
  0
INSERT
  5
497
330
491
100
AcDbEntity
  8
LAY-20
 62
     4
100
AcDbBlockReference
  2
EX_BNORM
 10
319.9999999999103
 20
349.9999999999999
 30
0.0
 41
12.5
 42
12.5
 43
12.5
 50
90.0
  0
MTEXT
  5
498
330
491
100
AcDbEntity
  8
LAY-20
 62
     7
100
AcDbMText
 10
307.4999999999104
 20
315.4999999999999
 30
0.0
 40
15.590552
 41
0.0
 71
     5
 72
     1
  1
69
  7
EXCADDIM1
 11
0.0
 21
1.0
 31
0.0
  0
POINT
  5
499
330
491
100
AcDbEntity
  8
DEFPOINTS
 62
     0
100
AcDbPoint
 10
269.9999999999103
 20
280.9999999999999
 30
0.0
  0
POINT
  5
49A
330
491
100
AcDbEntity
  8
DEFPOINTS
 62
     0
100
AcDbPoint
 10
319.9999999999103
 20
349.9999999999999
 30
0.0
  0
POINT
  5
49B
330
491
100
AcDbEntity
  8
DEFPOINTS
 62
     0
100
AcDbPoint
 10
319.9999999999103
 20
349.9999999999999
 30
0.0
  0
ENDBLK
  5
493
330
491
100
AcDbEntity
  8
0
100
AcDbBlockEnd
  0
BLOCK
  5
49E
330
49D
100
AcDbEntity
  8
0
100
AcDbBlockBegin
  2
*D17
 70
     1
 10
0.0
 20
0.0
 30
0.0
  3
*D17
  1

  0
LINE
  5
4A0
330
49D
100
AcDbEntity
  8
LAY-20
  6
CONTINUOUS
 62
     4
100
AcDbLine
 10
175.0000000000303
 20
212.4999999999998
 30
0.0
 11
175.0000000000302
 21
117.5000000000999
 31
0.0
  0
LINE
  5
4A1
330
49D
100
AcDbEntity
  8
LAY-20
  6
CONTINUOUS
 62
     4
100
AcDbLine
 10
775.0000000000302
 20
212.4999999999998
 30
0.0
 11
775.0000000000302
 21
117.5000000000999
 31
0.0
  0
LINE
  5
4A2
330
49D
100
AcDbEntity
  8
LAY-20
  6
CONTINUOUS
 62
     4
100
AcDbLine
 10
187.5000000000302
 20
125.0000000000999
 30
0.0
 11
762.5000000000302
 21
125.0000000000999
 31
0.0
  0
INSERT
  5
4A3
330
49D
100
AcDbEntity
  8
LAY-20
 62
     4
100
AcDbBlockReference
  2
EX_BNORM
 10
175.0000000000302
 20
125.0000000000999
 30
0.0
 41
12.5
 42
12.5
 43
12.5
 50
180.0
  0
INSERT
  5
4A4
330
49D
100
AcDbEntity
  8
LAY-20
 62
     4
100
AcDbBlockReference
  2
EX_BNORM
 10
775.0000000000302
 20
125.0000000000999
 30
0.0
 41
12.5
 42
12.5
 43
12.5
  0
MTEXT
  5
4A5
330
49D
100
AcDbEntity
  8
LAY-20
 62
     7
100
AcDbMText
 10
475.0000000000302
 20
137.5000000000999
 30
0.0
 40
15.590552
 41
0.0
 71
     5
 72
     1
  1
桝径600
  7
EXCADDIM1
  0
POINT
  5
4A6
330
49D
100
AcDbEntity
  8
DEFPOINTS
 62
     0
100
AcDbPoint
 10
175.0000000000303
 20
219.9999999999998
 30
0.0
  0
POINT
  5
4A7
330
49D
100
AcDbEntity
  8
DEFPOINTS
 62
     0
100
AcDbPoint
 10
775.0000000000302
 20
219.9999999999998
 30
0.0
  0
POINT
  5
4A8
330
49D
100
AcDbEntity
  8
DEFPOINTS
 62
     0
100
AcDbPoint
 10
775.0000000000302
 20
125.0000000000999
 30
0.0
  0
ENDBLK
  5
49F
330
49D
100
AcDbEntity
  8
0
100
AcDbBlockEnd
  0
BLOCK
  5
4AB
330
4AA
100
AcDbEntity
  8
0
100
AcDbBlockBegin
  2
*D18
 70
     1
 10
0.0
 20
0.0
 30
0.0
  3
*D18
  1

  0
LINE
  5
4AD
330
4AA
100
AcDbEntity
  8
LAY-20
  6
CONTINUOUS
 62
     4
100
AcDbLine
 10
825.0000000000003
 20
221.4999999999999
 30
0.0
 11
825.0000000000003
 21
117.5000000000999
 31
0.0
  0
LINE
  5
4AE
330
4AA
100
AcDbEntity
  8
LAY-20
  6
CONTINUOUS
 62
     4
100
AcDbLine
 10
812.5000000000003
 20
125.0000000000999
 30
0.0
 11
787.5000000000302
 21
125.0000000000999
 31
0.0
  0
INSERT
  5
4AF
330
4AA
100
AcDbEntity
  8
LAY-20
 62
     4
100
AcDbBlockReference
  2
EX_BNORM
 10
825.0000000000003
 20
125.0000000000999
 30
0.0
 41
12.5
 42
12.5
 43
12.5
  0
INSERT
  5
4B0
330
4AA
100
AcDbEntity
  8
LAY-20
 62
     4
100
AcDbBlockReference
  2
EX_BNORM
 10
775.0000000000302
 20
125.0000000000999
 30
0.0
 41
12.5
 42
12.5
 43
12.5
 50
180.0
  0
MTEXT
  5
4B1
330
4AA
100
AcDbEntity
  8
LAY-20
 62
     7
100
AcDbMText
 10
800.0000000000153
 20
137.5000000000999
 30
0.0
 40
15.590552
 41
0.0
 71
     5
 72
     1
  1
50
  7
EXCADDIM1
  0
POINT
  5
4B2
330
4AA
100
AcDbEntity
  8
DEFPOINTS
 62
     0
100
AcDbPoint
 10
825.0000000000003
 20
228.9999999999999
 30
0.0
  0
POINT
  5
4B3
330
4AA
100
AcDbEntity
  8
DEFPOINTS
 62
     0
100
AcDbPoint
 10
775.0000000000302
 20
125.0000000000999
 30
0.0
  0
POINT
  5
4B4
330
4AA
100
AcDbEntity
  8
DEFPOINTS
 62
     0
100
AcDbPoint
 10
775.0000000000302
 20
125.0000000000999
 30
0.0
  0
ENDBLK
  5
4AC
330
4AA
100
AcDbEntity
  8
0
100
AcDbBlockEnd
  0
BLOCK
  5
4B7
330
4B6
100
AcDbEntity
  8
0
100
AcDbBlockBegin
  2
*D19
 70
     1
 10
0.0
 20
0.0
 30
0.0
  3
*D19
  1

  0
LINE
  5
4B9
330
4B6
100
AcDbEntity
  8
LAY-20
  6
CONTINUOUS
 62
     4
100
AcDbLine
 10
125.0000000000003
 20
221.4999999999999
 30
0.0
 11
125.0000000000003
 21
117.5000000000999
 31
0.0
  0
LINE
  5
4BA
330
4B6
100
AcDbEntity
  8
LAY-20
  6
CONTINUOUS
 62
     4
100
AcDbLine
 10
137.5000000000003
 20
125.0000000000999
 30
0.0
 11
162.5000000000303
 21
125.0000000000999
 31
0.0
  0
INSERT
  5
4BB
330
4B6
100
AcDbEntity
  8
LAY-20
 62
     4
100
AcDbBlockReference
  2
EX_BNORM
 10
125.0000000000003
 20
125.0000000000999
 30
0.0
 41
12.5
 42
12.5
 43
12.5
 50
180.0
  0
INSERT
  5
4BC
330
4B6
100
AcDbEntity
  8
LAY-20
 62
     4
100
AcDbBlockReference
  2
EX_BNORM
 10
175.0000000000303
 20
125.0000000000999
 30
0.0
 41
12.5
 42
12.5
 43
12.5
  0
MTEXT
  5
4BD
330
4B6
100
AcDbEntity
  8
LAY-20
 62
     7
100
AcDbMText
 10
150.0000000000152
 20
137.5000000000999
 30
0.0
 40
15.590552
 41
0.0
 71
     5
 72
     1
  1
50
  7
EXCADDIM1
  0
POINT
  5
4BE
330
4B6
100
AcDbEntity
  8
DEFPOINTS
 62
     0
100
AcDbPoint
 10
125.0000000000003
 20
228.9999999999999
 30
0.0
  0
POINT
  5
4BF
330
4B6
100
AcDbEntity
  8
DEFPOINTS
 62
     0
100
AcDbPoint
 10
175.0000000000303
 20
125.0000000000999
 30
0.0
  0
POINT
  5
4C0
330
4B6
100
AcDbEntity
  8
DEFPOINTS
 62
     0
100
AcDbPoint
 10
175.0000000000303
 20
125.0000000000999
 30
0.0
  0
ENDBLK
  5
4B8
330
4B6
100
AcDbEntity
  8
0
100
AcDbBlockEnd
  0
BLOCK
  5
4C3
330
4C2
100
AcDbEntity
  8
0
100
AcDbBlockBegin
  2
*D20
 70
     1
 10
0.0
 20
0.0
 30
0.0
  3
*D20
  1

  0
LINE
  5
4C5
330
4C2
100
AcDbEntity
  8
LAY-20
  6
CONTINUOUS
 62
     4
100
AcDbLine
 10
125.0000000000002
 20
357.4999999999999
 30
0.0
 11
125.0000000000002
 21
477.4999999999999
 31
0.0
  0
LINE
  5
4C6
330
4C2
100
AcDbEntity
  8
LAY-20
  6
CONTINUOUS
 62
     4
100
AcDbLine
 10
825.0000000000003
 20
357.4999999999999
 30
0.0
 11
825.0000000000003
 21
477.4999999999999
 31
0.0
  0
LINE
  5
4C7
330
4C2
100
AcDbEntity
  8
LAY-20
  6
CONTINUOUS
 62
     4
100
AcDbLine
 10
137.5000000000002
 20
469.9999999999999
 30
0.0
 11
812.5000000000003
 21
469.9999999999999
 31
0.0
  0
INSERT
  5
4C8
330
4C2
100
AcDbEntity
  8
LAY-20
 62
     4
100
AcDbBlockReference
  2
EX_BNORM
 10
125.0000000000002
 20
469.9999999999999
 30
0.0
 41
12.5
 42
12.5
 43
12.5
 50
180.0
  0
INSERT
  5
4C9
330
4C2
100
AcDbEntity
  8
LAY-20
 62
     4
100
AcDbBlockReference
  2
EX_BNORM
 10
825.0000000000003
 20
469.9999999999999
 30
0.0
 41
12.5
 42
12.5
 43
12.5
  0
MTEXT
  5
4CA
330
4C2
100
AcDbEntity
  8
LAY-20
 62
     7
100
AcDbMText
 10
475.0000000000003
 20
482.4999999999999
 30
0.0
 40
15.590552
 41
0.0
 71
     5
 72
     1
  1
700
  7
EXCADDIM1
  0
POINT
  5
4CB
330
4C2
100
AcDbEntity
  8
DEFPOINTS
 62
     0
100
AcDbPoint
 10
125.0000000000002
 20
349.9999999999999
 30
0.0
  0
POINT
  5
4CC
330
4C2
100
AcDbEntity
  8
DEFPOINTS
 62
     0
100
AcDbPoint
 10
825.0000000000003
 20
349.9999999999999
 30
0.0
  0
POINT
  5
4CD
330
4C2
100
AcDbEntity
  8
DEFPOINTS
 62
     0
100
AcDbPoint
 10
825.0000000000003
 20
469.9999999999999
 30
0.0
  0
ENDBLK
  5
4C4
330
4C2
100
AcDbEntity
  8
0
100
AcDbBlockEnd
  0
BLOCK
  5
4D0
330
4CF
100
AcDbEntity
  8
0
100
AcDbBlockBegin
  2
*D21
 70
     1
 10
0.0
 20
0.0
 30
0.0
  3
*D21
  1

  0
LINE
  5
4D2
330
4CF
100
AcDbEntity
  8
LAY-20
  6
CONTINUOUS
 62
     4
100
AcDbLine
 10
131.4999999999964
 20
357.4999999999865
 30
0.0
 11
131.4999999999965
 21
442.4999999999999
 31
0.0
  0
LINE
  5
4D3
330
4CF
100
AcDbEntity
  8
LAY-20
  6
CONTINUOUS
 62
     4
100
AcDbLine
 10
818.5000000000026
 20
357.4999999999865
 30
0.0
 11
818.5000000000026
 21
442.4999999999999
 31
0.0
  0
LINE
  5
4D4
330
4CF
100
AcDbEntity
  8
LAY-20
  6
CONTINUOUS
 62
     4
100
AcDbLine
 10
143.9999999999965
 20
434.9999999999999
 30
0.0
 11
806.0000000000026
 21
434.9999999999999
 31
0.0
  0
INSERT
  5
4D5
330
4CF
100
AcDbEntity
  8
LAY-20
 62
     4
100
AcDbBlockReference
  2
EX_BNORM
 10
131.4999999999965
 20
434.9999999999999
 30
0.0
 41
12.5
 42
12.5
 43
12.5
 50
180.0
  0
INSERT
  5
4D6
330
4CF
100
AcDbEntity
  8
LAY-20
 62
     4
100
AcDbBlockReference
  2
EX_BNORM
 10
818.5000000000026
 20
434.9999999999999
 30
0.0
 41
12.5
 42
12.5
 43
12.5
  0
MTEXT
  5
4D7
330
4CF
100
AcDbEntity
  8
LAY-20
 62
     7
100
AcDbMText
 10
474.9999999999995
 20
447.4999999999999
 30
0.0
 40
15.590552
 41
0.0
 71
     5
 72
     1
  1
687
  7
EXCADDIM1
  0
POINT
  5
4D8
330
4CF
100
AcDbEntity
  8
DEFPOINTS
 62
     0
100
AcDbPoint
 10
131.4999999999964
 20
349.9999999999865
 30
0.0
  0
POINT
  5
4D9
330
4CF
100
AcDbEntity
  8
DEFPOINTS
 62
     0
100
AcDbPoint
 10
818.5000000000026
 20
349.9999999999865
 30
0.0
  0
POINT
  5
4DA
330
4CF
100
AcDbEntity
  8
DEFPOINTS
 62
     0
100
AcDbPoint
 10
818.5000000000026
 20
434.9999999999999
 30
0.0
  0
ENDBLK
  5
4D1
330
4CF
100
AcDbEntity
  8
0
100
AcDbBlockEnd
  0
BLOCK
  5
4DD
330
4DC
100
AcDbEntity
  8
0
100
AcDbBlockBegin
  2
*D22
 70
     1
 10
0.0
 20
0.0
 30
0.0
  3
*D22
  1

  0
LINE
  5
4DF
330
4DC
100
AcDbEntity
  8
LAY-20
  6
CONTINUOUS
 62
     4
100
AcDbLine
 10
136.0000000000002
 20
357.4999999999999
 30
0.0
 11
136.0000000000002
 21
407.4999999999999
 31
0.0
  0
LINE
  5
4E0
330
4DC
100
AcDbEntity
  8
LAY-20
  6
CONTINUOUS
 62
     4
100
AcDbLine
 10
814.0000000000001
 20
357.4999999999999
 30
0.0
 11
814.0000000000001
 21
407.4999999999999
 31
0.0
  0
LINE
  5
4E1
330
4DC
100
AcDbEntity
  8
LAY-20
  6
CONTINUOUS
 62
     4
100
AcDbLine
 10
148.5000000000002
 20
399.9999999999999
 30
0.0
 11
801.5000000000001
 21
399.9999999999999
 31
0.0
  0
INSERT
  5
4E2
330
4DC
100
AcDbEntity
  8
LAY-20
 62
     4
100
AcDbBlockReference
  2
EX_BNORM
 10
136.0000000000002
 20
399.9999999999999
 30
0.0
 41
12.5
 42
12.5
 43
12.5
 50
180.0
  0
INSERT
  5
4E3
330
4DC
100
AcDbEntity
  8
LAY-20
 62
     4
100
AcDbBlockReference
  2
EX_BNORM
 10
814.0000000000001
 20
399.9999999999999
 30
0.0
 41
12.5
 42
12.5
 43
12.5
  0
MTEXT
  5
4E4
330
4DC
100
AcDbEntity
  8
LAY-20
 62
     7
100
AcDbMText
 10
475.0000000000002
 20
412.4999999999999
 30
0.0
 40
15.590552
 41
0.0
 71
     5
 72
     1
  1
678
  7
EXCADDIM1
  0
POINT
  5
4E5
330
4DC
100
AcDbEntity
  8
DEFPOINTS
 62
     0
100
AcDbPoint
 10
136.0000000000002
 20
349.9999999999999
 30
0.0
  0
POINT
  5
4E6
330
4DC
100
AcDbEntity
  8
DEFPOINTS
 62
     0
100
AcDbPoint
 10
814.0000000000001
 20
349.9999999999999
 30
0.0
  0
POINT
  5
4E7
330
4DC
100
AcDbEntity
  8
DEFPOINTS
 62
     0
100
AcDbPoint
 10
814.0000000000001
 20
399.9999999999999
 30
0.0
  0
ENDBLK
  5
4DE
330
4DC
100
AcDbEntity
  8
0
100
AcDbBlockEnd
  0
BLOCK
  5
4EA
330
4E9
100
AcDbEntity
  8
0
100
AcDbBlockBegin
  2
*D23
 70
     1
 10
0.0
 20
0.0
 30
0.0
  3
*D23
  1

  0
LINE
  5
4EC
330
4E9
100
AcDbEntity
  8
LAY-20
  6
CONTINUOUS
 62
     4
100
AcDbLine
 10
823.5000000000003
 20
219.9999999999998
 30
0.0
 11
882.5000000000001
 21
219.9999999999998
 31
0.0
  0
LINE
  5
4ED
330
4E9
100
AcDbEntity
  8
LAY-20
  6
CONTINUOUS
 62
     4
100
AcDbLine
 10
832.5000000000003
 20
349.9999999999999
 30
0.0
 11
882.5000000000001
 21
349.9999999999999
 31
0.0
  0
LINE
  5
4EE
330
4E9
100
AcDbEntity
  8
LAY-20
  6
CONTINUOUS
 62
     4
100
AcDbLine
 10
875.0000000000001
 20
232.4999999999998
 30
0.0
 11
875.0000000000001
 21
337.4999999999999
 31
0.0
  0
INSERT
  5
4EF
330
4E9
100
AcDbEntity
  8
LAY-20
 62
     4
100
AcDbBlockReference
  2
EX_BNORM
 10
875.0000000000001
 20
219.9999999999998
 30
0.0
 41
12.5
 42
12.5
 43
12.5
 50
270.0
  0
INSERT
  5
4F0
330
4E9
100
AcDbEntity
  8
LAY-20
 62
     4
100
AcDbBlockReference
  2
EX_BNORM
 10
875.0000000000001
 20
349.9999999999999
 30
0.0
 41
12.5
 42
12.5
 43
12.5
 50
90.0
  0
MTEXT
  5
4F1
330
4E9
100
AcDbEntity
  8
LAY-20
 62
     7
100
AcDbMText
 10
862.5000000000001
 20
284.9999999999998
 30
0.0
 40
15.590552
 41
0.0
 71
     5
 72
     1
  1
130
  7
EXCADDIM1
 11
0.0
 21
1.0
 31
0.0
  0
POINT
  5
4F2
330
4E9
100
AcDbEntity
  8
DEFPOINTS
 62
     0
100
AcDbPoint
 10
816.0000000000003
 20
219.9999999999998
 30
0.0
  0
POINT
  5
4F3
330
4E9
100
AcDbEntity
  8
DEFPOINTS
 62
     0
100
AcDbPoint
 10
825.0000000000003
 20
349.9999999999999
 30
0.0
  0
POINT
  5
4F4
330
4E9
100
AcDbEntity
  8
DEFPOINTS
 62
     0
100
AcDbPoint
 10
875.0000000000001
 20
349.9999999999999
 30
0.0
  0
ENDBLK
  5
4EB
330
4E9
100
AcDbEntity
  8
0
100
AcDbBlockEnd
  0
BLOCK
  5
4F7
330
4F6
100
AcDbEntity
  8
0
100
AcDbBlockBegin
  2
*D24
 70
     1
 10
0.0
 20
0.0
 30
0.0
  3
*D24
  1

  0
LINE
  5
4F9
330
4F6
100
AcDbEntity
  8
LAY-20
  6
CONTINUOUS
 62
     4
100
AcDbLine
 10
1017.500000000001
 20
549.9999999999997
 30
0.0
 11
897.5000000000006
 21
549.9999999999998
 31
0.0
  0
LINE
  5
4FA
330
4F6
100
AcDbEntity
  8
LAY-20
  6
CONTINUOUS
 62
     4
100
AcDbLine
 10
1017.5
 20
1249.999999999999
 30
0.0
 11
897.5000000000006
 21
1249.999999999999
 31
0.0
  0
LINE
  5
4FB
330
4F6
100
AcDbEntity
  8
LAY-20
  6
CONTINUOUS
 62
     4
100
AcDbLine
 10
905.0000000000006
 20
562.4999999999998
 30
0.0
 11
905.0000000000006
 21
1237.499999999999
 31
0.0
  0
INSERT
  5
4FC
330
4F6
100
AcDbEntity
  8
LAY-20
 62
     4
100
AcDbBlockReference
  2
EX_BNORM
 10
905.0000000000006
 20
549.9999999999998
 30
0.0
 41
12.5
 42
12.5
 43
12.5
 50
270.0
  0
INSERT
  5
4FD
330
4F6
100
AcDbEntity
  8
LAY-20
 62
     4
100
AcDbBlockReference
  2
EX_BNORM
 10
905.0000000000006
 20
1249.999999999999
 30
0.0
 41
12.5
 42
12.5
 43
12.5
 50
90.0
  0
MTEXT
  5
4FE
330
4F6
100
AcDbEntity
  8
LAY-20
 62
     7
100
AcDbMText
 10
892.5000000000008
 20
899.9999999999994
 30
0.0
 40
15.590552
 41
0.0
 71
     5
 72
     1
  1
700
  7
EXCADDIM1
 11
0.0
 21
1.0
 31
0.0
  0
POINT
  5
4FF
330
4F6
100
AcDbEntity
  8
DEFPOINTS
 62
     0
100
AcDbPoint
 10
1025.0
 20
549.9999999999997
 30
0.0
  0
POINT
  5
500
330
4F6
100
AcDbEntity
  8
DEFPOINTS
 62
     0
100
AcDbPoint
 10
1025.0
 20
1249.999999999999
 30
0.0
  0
POINT
  5
501
330
4F6
100
AcDbEntity
  8
DEFPOINTS
 62
     0
100
AcDbPoint
 10
905.0000000000006
 20
1249.999999999999
 30
0.0
  0
ENDBLK
  5
4F8
330
4F6
100
AcDbEntity
  8
0
100
AcDbBlockEnd
  0
BLOCK
  5
504
330
503
100
AcDbEntity
  8
0
100
AcDbBlockBegin
  2
*D25
 70
     1
 10
0.0
 20
0.0
 30
0.0
  3
*D25
  1

  0
LINE
  5
506
330
503
100
AcDbEntity
  8
LAY-20
  6
CONTINUOUS
 62
     4
100
AcDbLine
 10
1017.500000000002
 20
556.5000000000009
 30
0.0
 11
932.5000000000003
 21
556.500000000001
 31
0.0
  0
LINE
  5
507
330
503
100
AcDbEntity
  8
LAY-20
  6
CONTINUOUS
 62
     4
100
AcDbLine
 10
1017.500000000003
 20
1243.500000000077
 30
0.0
 11
932.5000000000003
 21
1243.500000000077
 31
0.0
  0
LINE
  5
508
330
503
100
AcDbEntity
  8
LAY-20
  6
CONTINUOUS
 62
     4
100
AcDbLine
 10
940.0000000000003
 20
569.000000000001
 30
0.0
 11
940.0000000000003
 21
1231.000000000077
 31
0.0
  0
INSERT
  5
509
330
503
100
AcDbEntity
  8
LAY-20
 62
     4
100
AcDbBlockReference
  2
EX_BNORM
 10
940.0000000000003
 20
556.500000000001
 30
0.0
 41
12.5
 42
12.5
 43
12.5
 50
270.0
  0
INSERT
  5
50A
330
503
100
AcDbEntity
  8
LAY-20
 62
     4
100
AcDbBlockReference
  2
EX_BNORM
 10
940.0000000000003
 20
1243.500000000077
 30
0.0
 41
12.5
 42
12.5
 43
12.5
 50
90.0
  0
MTEXT
  5
50B
330
503
100
AcDbEntity
  8
LAY-20
 62
     7
100
AcDbMText
 10
927.5000000000003
 20
900.0000000000389
 30
0.0
 40
15.590552
 41
0.0
 71
     5
 72
     1
  1
687
  7
EXCADDIM1
 11
0.0
 21
1.0
 31
0.0
  0
POINT
  5
50C
330
503
100
AcDbEntity
  8
DEFPOINTS
 62
     0
100
AcDbPoint
 10
1025.000000000002
 20
556.5000000000009
 30
0.0
  0
POINT
  5
50D
330
503
100
AcDbEntity
  8
DEFPOINTS
 62
     0
100
AcDbPoint
 10
1025.000000000003
 20
1243.500000000077
 30
0.0
  0
POINT
  5
50E
330
503
100
AcDbEntity
  8
DEFPOINTS
 62
     0
100
AcDbPoint
 10
940.0000000000003
 20
1243.500000000077
 30
0.0
  0
ENDBLK
  5
505
330
503
100
AcDbEntity
  8
0
100
AcDbBlockEnd
  0
BLOCK
  5
511
330
510
100
AcDbEntity
  8
0
100
AcDbBlockBegin
  2
*D26
 70
     1
 10
0.0
 20
0.0
 30
0.0
  3
*D26
  1

  0
LINE
  5
513
330
510
100
AcDbEntity
  8
LAY-20
  6
CONTINUOUS
 62
     4
100
AcDbLine
 10
1162.5
 20
599.9999999999998
 30
0.0
 11
1257.5
 21
599.9999999999999
 31
0.0
  0
LINE
  5
514
330
510
100
AcDbEntity
  8
LAY-20
  6
CONTINUOUS
 62
     4
100
AcDbLine
 10
1162.5
 20
1200.0
 30
0.0
 11
1257.5
 21
1200.0
 31
0.0
  0
LINE
  5
515
330
510
100
AcDbEntity
  8
LAY-20
  6
CONTINUOUS
 62
     4
100
AcDbLine
 10
1250.0
 20
612.4999999999999
 30
0.0
 11
1250.0
 21
1187.5
 31
0.0
  0
INSERT
  5
516
330
510
100
AcDbEntity
  8
LAY-20
 62
     4
100
AcDbBlockReference
  2
EX_BNORM
 10
1250.0
 20
599.9999999999999
 30
0.0
 41
12.5
 42
12.5
 43
12.5
 50
270.0
  0
INSERT
  5
517
330
510
100
AcDbEntity
  8
LAY-20
 62
     4
100
AcDbBlockReference
  2
EX_BNORM
 10
1250.0
 20
1200.0
 30
0.0
 41
12.5
 42
12.5
 43
12.5
 50
90.0
  0
MTEXT
  5
518
330
510
100
AcDbEntity
  8
LAY-20
 62
     7
100
AcDbMText
 10
1237.5
 20
899.9999999999997
 30
0.0
 40
15.590552
 41
0.0
 71
     5
 72
     1
  1
桝径600
  7
EXCADDIM1
 11
0.0
 21
1.0
 31
0.0
  0
POINT
  5
519
330
510
100
AcDbEntity
  8
DEFPOINTS
 62
     0
100
AcDbPoint
 10
1155.0
 20
599.9999999999998
 30
0.0
  0
POINT
  5
51A
330
510
100
AcDbEntity
  8
DEFPOINTS
 62
     0
100
AcDbPoint
 10
1155.0
 20
1200.0
 30
0.0
  0
POINT
  5
51B
330
510
100
AcDbEntity
  8
DEFPOINTS
 62
     0
100
AcDbPoint
 10
1250.0
 20
1200.0
 30
0.0
  0
ENDBLK
  5
512
330
510
100
AcDbEntity
  8
0
100
AcDbBlockEnd
  0
BLOCK
  5
51E
330
51D
100
AcDbEntity
  8
0
100
AcDbBlockBegin
  2
*D27
 70
     1
 10
0.0
 20
0.0
 30
0.0
  3
*D27
  1

  0
LINE
  5
520
330
51D
100
AcDbEntity
  8
LAY-20
  6
CONTINUOUS
 62
     4
100
AcDbLine
 10
1207.5
 20
1249.999999999999
 30
0.0
 11
1257.5
 21
1249.999999999999
 31
0.0
  0
LINE
  5
521
330
51D
100
AcDbEntity
  8
LAY-20
  6
CONTINUOUS
 62
     4
100
AcDbLine
 10
1250.0
 20
1237.499999999999
 30
0.0
 11
1250.0
 21
1212.5
 31
0.0
  0
INSERT
  5
522
330
51D
100
AcDbEntity
  8
LAY-20
 62
     4
100
AcDbBlockReference
  2
EX_BNORM
 10
1250.0
 20
1249.999999999999
 30
0.0
 41
12.5
 42
12.5
 43
12.5
 50
90.0
  0
INSERT
  5
523
330
51D
100
AcDbEntity
  8
LAY-20
 62
     4
100
AcDbBlockReference
  2
EX_BNORM
 10
1250.0
 20
1200.0
 30
0.0
 41
12.5
 42
12.5
 43
12.5
 50
270.0
  0
MTEXT
  5
524
330
51D
100
AcDbEntity
  8
LAY-20
 62
     7
100
AcDbMText
 10
1237.5
 20
1224.999999999999
 30
0.0
 40
15.590552
 41
0.0
 71
     5
 72
     1
  1
50
  7
EXCADDIM1
 11
0.0
 21
1.0
 31
0.0
  0
POINT
  5
525
330
51D
100
AcDbEntity
  8
DEFPOINTS
 62
     0
100
AcDbPoint
 10
1200.0
 20
1249.999999999999
 30
0.0
  0
POINT
  5
526
330
51D
100
AcDbEntity
  8
DEFPOINTS
 62
     0
100
AcDbPoint
 10
1250.0
 20
1200.0
 30
0.0
  0
POINT
  5
527
330
51D
100
AcDbEntity
  8
DEFPOINTS
 62
     0
100
AcDbPoint
 10
1250.0
 20
1200.0
 30
0.0
  0
ENDBLK
  5
51F
330
51D
100
AcDbEntity
  8
0
100
AcDbBlockEnd
  0
BLOCK
  5
52A
330
529
100
AcDbEntity
  8
0
100
AcDbBlockBegin
  2
*D28
 70
     1
 10
0.0
 20
0.0
 30
0.0
  3
*D28
  1

  0
LINE
  5
52C
330
529
100
AcDbEntity
  8
LAY-20
  6
CONTINUOUS
 62
     4
100
AcDbLine
 10
1207.5
 20
550.0
 30
0.0
 11
1257.5
 21
550.0
 31
0.0
  0
LINE
  5
52D
330
529
100
AcDbEntity
  8
LAY-20
  6
CONTINUOUS
 62
     4
100
AcDbLine
 10
1250.0
 20
562.5
 30
0.0
 11
1250.0
 21
587.4999999999998
 31
0.0
  0
INSERT
  5
52E
330
529
100
AcDbEntity
  8
LAY-20
 62
     4
100
AcDbBlockReference
  2
EX_BNORM
 10
1250.0
 20
550.0
 30
0.0
 41
12.5
 42
12.5
 43
12.5
 50
270.0
  0
INSERT
  5
52F
330
529
100
AcDbEntity
  8
LAY-20
 62
     4
100
AcDbBlockReference
  2
EX_BNORM
 10
1250.0
 20
599.9999999999998
 30
0.0
 41
12.5
 42
12.5
 43
12.5
 50
90.0
  0
MTEXT
  5
530
330
529
100
AcDbEntity
  8
LAY-20
 62
     7
100
AcDbMText
 10
1237.5
 20
574.9999999999998
 30
0.0
 40
15.590552
 41
0.0
 71
     5
 72
     1
  1
50
  7
EXCADDIM1
 11
0.0
 21
1.0
 31
0.0
  0
POINT
  5
531
330
529
100
AcDbEntity
  8
DEFPOINTS
 62
     0
100
AcDbPoint
 10
1200.0
 20
550.0
 30
0.0
  0
POINT
  5
532
330
529
100
AcDbEntity
  8
DEFPOINTS
 62
     0
100
AcDbPoint
 10
1250.0
 20
599.9999999999998
 30
0.0
  0
POINT
  5
533
330
529
100
AcDbEntity
  8
DEFPOINTS
 62
     0
100
AcDbPoint
 10
1250.0
 20
599.9999999999998
 30
0.0
  0
ENDBLK
  5
52B
330
529
100
AcDbEntity
  8
0
100
AcDbBlockEnd
  0
BLOCK
  5
536
330
535
100
AcDbEntity
  8
0
100
AcDbBlockBegin
  2
*D29
 70
     1
 10
0.0
 20
0.0
 30
0.0
  3
*D29
  1

  0
LINE
  5
538
330
535
100
AcDbEntity
  8
LAY-20
  6
CONTINUOUS
 62
     4
100
AcDbLine
 10
199.99999999996
 20
1260.5
 30
0.0
 11
199.99999999996
 21
1307.5
 31
0.0
  0
LINE
  5
539
330
535
100
AcDbEntity
  8
LAY-20
  6
CONTINUOUS
 62
     4
100
AcDbLine
 10
750.00000000005
 20
1260.5
 30
0.0
 11
750.00000000005
 21
1307.5
 31
0.0
  0
LINE
  5
53A
330
535
100
AcDbEntity
  8
LAY-20
  6
CONTINUOUS
 62
     4
100
AcDbLine
 10
212.49999999996
 20
1300.0
 30
0.0
 11
737.50000000005
 21
1300.0
 31
0.0
  0
INSERT
  5
53B
330
535
100
AcDbEntity
  8
LAY-20
 62
     4
100
AcDbBlockReference
  2
EX_BNORM
 10
199.99999999996
 20
1300.0
 30
0.0
 41
12.5
 42
12.5
 43
12.5
 50
180.0
  0
INSERT
  5
53C
330
535
100
AcDbEntity
  8
LAY-20
 62
     4
100
AcDbBlockReference
  2
EX_BNORM
 10
750.00000000005
 20
1300.0
 30
0.0
 41
12.5
 42
12.5
 43
12.5
  0
MTEXT
  5
53D
330
535
100
AcDbEntity
  8
LAY-20
 62
     7
100
AcDbMText
 10
475.000000000005
 20
1312.5
 30
0.0
 40
15.590552
 41
0.0
 71
     5
 72
     1
  1
550
  7
EXCADDIM1
  0
POINT
  5
53E
330
535
100
AcDbEntity
  8
DEFPOINTS
 62
     0
100
AcDbPoint
 10
199.99999999996
 20
1253.0
 30
0.0
  0
POINT
  5
53F
330
535
100
AcDbEntity
  8
DEFPOINTS
 62
     0
100
AcDbPoint
 10
750.00000000005
 20
1253.0
 30
0.0
  0
POINT
  5
540
330
535
100
AcDbEntity
  8
DEFPOINTS
 62
     0
100
AcDbPoint
 10
750.00000000005
 20
1300.0
 30
0.0
  0
ENDBLK
  5
537
330
535
100
AcDbEntity
  8
0
100
AcDbBlockEnd
  0
BLOCK
  5
543
330
542
100
AcDbEntity
  8
0
100
AcDbBlockBegin
  2
*D30
 70
     1
 10
0.0
 20
0.0
 30
0.0
  3
*D30
  1

  0
LINE
  5
545
330
542
100
AcDbEntity
  8
LAY-20
  6
CONTINUOUS
 62
     4
100
AcDbLine
 10
1017.5
 20
560.99999999996
 30
0.0
 11
967.5
 21
560.9999999999601
 31
0.0
  0
LINE
  5
546
330
542
100
AcDbEntity
  8
LAY-20
  6
CONTINUOUS
 62
     4
100
AcDbLine
 10
1017.5
 20
1163.0
 30
0.0
 11
967.5
 21
1163.0
 31
0.0
  0
LINE
  5
547
330
542
100
AcDbEntity
  8
LAY-20
  6
CONTINUOUS
 62
     4
100
AcDbLine
 10
975.0
 20
573.4999999999601
 30
0.0
 11
975.0
 21
1150.5
 31
0.0
  0
INSERT
  5
548
330
542
100
AcDbEntity
  8
LAY-20
 62
     4
100
AcDbBlockReference
  2
EX_BNORM
 10
975.0
 20
560.9999999999601
 30
0.0
 41
12.5
 42
12.5
 43
12.5
 50
270.0
  0
INSERT
  5
549
330
542
100
AcDbEntity
  8
LAY-20
 62
     4
100
AcDbBlockReference
  2
EX_BNORM
 10
975.0
 20
1163.0
 30
0.0
 41
12.5
 42
12.5
 43
12.5
 50
90.0
  0
MTEXT
  5
54A
330
542
100
AcDbEntity
  8
LAY-20
 62
     7
100
AcDbMText
 10
962.5
 20
861.99999999998
 30
0.0
 40
15.590552
 41
0.0
 71
     5
 72
     1
  1
602
  7
EXCADDIM1
 11
0.0
 21
1.0
 31
0.0
  0
POINT
  5
54B
330
542
100
AcDbEntity
  8
DEFPOINTS
 62
     0
100
AcDbPoint
 10
1025.0
 20
560.99999999996
 30
0.0
  0
POINT
  5
54C
330
542
100
AcDbEntity
  8
DEFPOINTS
 62
     0
100
AcDbPoint
 10
1025.0
 20
1163.0
 30
0.0
  0
POINT
  5
54D
330
542
100
AcDbEntity
  8
DEFPOINTS
 62
     0
100
AcDbPoint
 10
975.0
 20
1163.0
 30
0.0
  0
ENDBLK
  5
544
330
542
100
AcDbEntity
  8
0
100
AcDbBlockEnd
  0
BLOCK
  5
550
330
54F
100
AcDbEntity
  8
0
100
AcDbBlockBegin
  2
*D31
 70
     1
 10
0.0
 20
0.0
 30
0.0
  3
*D31
  1

  0
LINE
  5
552
330
54F
100
AcDbEntity
  8
LAY-20
  6
CONTINUOUS
 62
     4
100
AcDbLine
 10
975.0
 20
1175.5
 30
0.0
 11
975.0
 21
1231.0000000001
 31
0.0
  0
INSERT
  5
553
330
54F
100
AcDbEntity
  8
LAY-20
 62
     4
100
AcDbBlockReference
  2
EX_BNORM
 10
975.0
 20
1163.0
 30
0.0
 41
12.5
 42
12.5
 43
12.5
 50
270.0
  0
INSERT
  5
554
330
54F
100
AcDbEntity
  8
LAY-20
 62
     4
100
AcDbBlockReference
  2
EX_BNORM
 10
975.0
 20
1243.5000000001
 30
0.0
 41
12.5
 42
12.5
 43
12.5
 50
90.0
  0
MTEXT
  5
555
330
54F
100
AcDbEntity
  8
LAY-20
 62
     7
100
AcDbMText
 10
962.5000000000001
 20
1203.25000000005
 30
0.0
 40
15.590552
 41
0.0
 71
     5
 72
     1
  1
80.5
  7
EXCADDIM1
 11
0.0
 21
1.0
 31
0.0
  0
POINT
  5
556
330
54F
100
AcDbEntity
  8
DEFPOINTS
 62
     0
100
AcDbPoint
 10
975.0
 20
1163.0
 30
0.0
  0
POINT
  5
557
330
54F
100
AcDbEntity
  8
DEFPOINTS
 62
     0
100
AcDbPoint
 10
975.0
 20
1243.5000000001
 30
0.0
  0
POINT
  5
558
330
54F
100
AcDbEntity
  8
DEFPOINTS
 62
     0
100
AcDbPoint
 10
975.0
 20
1243.5000000001
 30
0.0
  0
ENDBLK
  5
551
330
54F
100
AcDbEntity
  8
0
100
AcDbBlockEnd
  0
ENDSEC
  0
SECTION
  2
ENTITIES
  0
LINE
  5
D4
330
1F
100
AcDbEntity
  8
LAY-10
  6
CONTINUOUS
 62
     7
100
AcDbLine
 10
1148.500000000003
 20
599.0416305604947
 30
0.0
 11
1149.458369439576
 21
600.0000000000684
 31
0.0
  0
LINE
  5
D5
330
1F
100
AcDbEntity
  8
LAY-10
  6
CONTINUOUS
 62
     7
100
AcDbLine
 10
1148.5
 20
597.6274169981186
 30
0.0
 11
1150.500000000003
 21
599.6274169981214
 31
0.0
  0
LINE
  5
D6
330
1F
100
AcDbEntity
  8
LAY-10
  6
CONTINUOUS
 62
     7
100
AcDbLine
 10
1148.499999999997
 20
596.2132034357429
 30
0.0
 11
1150.5
 21
598.2132034357462
 31
0.0
  0
LINE
  5
D7
330
1F
100
AcDbEntity
  8
LAY-10
  6
CONTINUOUS
 62
     7
100
AcDbLine
 10
1148.500000000001
 20
594.7989898733738
 30
0.0
 11
1150.500000000004
 21
596.7989898733765
 31
0.0
  0
LINE
  5
D8
330
1F
100
AcDbEntity
  8
LAY-10
  6
CONTINUOUS
 62
     7
100
AcDbLine
 10
1148.499999999999
 20
593.3847763109986
 30
0.0
 11
1150.500000000001
 21
595.3847763110014
 31
0.0
  0
LINE
  5
D9
330
1F
100
AcDbEntity
  8
LAY-10
  6
CONTINUOUS
 62
     7
100
AcDbLine
 10
1148.499999999996
 20
591.9705627486226
 30
0.0
 11
1150.499999999999
 21
593.9705627486253
 31
0.0
  0
LINE
  5
DA
330
1F
100
AcDbEntity
  8
LAY-10
  6
CONTINUOUS
 62
     7
100
AcDbLine
 10
1148.5
 20
590.5563491862529
 30
0.0
 11
1150.500000000003
 21
592.5563491862562
 31
0.0
  0
LINE
  5
DB
330
1F
100
AcDbEntity
  8
LAY-10
  6
CONTINUOUS
 62
     7
100
AcDbLine
 10
1148.499999999997
 20
589.1421356238777
 30
0.0
 11
1150.5
 21
591.1421356238804
 31
0.0
  0
LINE
  5
DC
330
1F
100
AcDbEntity
  8
LAY-10
  6
CONTINUOUS
 62
     7
100
AcDbLine
 10
1148.500000000001
 20
587.7279220615079
 30
0.0
 11
1150.500000000004
 21
589.7279220615112
 31
0.0
  0
LINE
  5
DD
330
1F
100
AcDbEntity
  8
LAY-10
  6
CONTINUOUS
 62
     7
100
AcDbLine
 10
1148.499999999999
 20
586.3137084991328
 30
0.0
 11
1150.500000000001
 21
588.3137084991355
 31
0.0
  0
LINE
  5
DE
330
1F
100
AcDbEntity
  8
LAY-10
  6
CONTINUOUS
 62
     7
100
AcDbLine
 10
1148.499999999996
 20
584.8994949367568
 30
0.0
 11
1150.499999999999
 21
586.8994949367595
 31
0.0
  0
LINE
  5
DF
330
1F
100
AcDbEntity
  8
LAY-10
  6
CONTINUOUS
 62
     7
100
AcDbLine
 10
1148.5
 20
583.485281374388
 30
0.0
 11
1150.500000000003
 21
585.4852813743908
 31
0.0
  0
LINE
  5
E0
330
1F
100
AcDbEntity
  8
LAY-10
  6
CONTINUOUS
 62
     7
100
AcDbLine
 10
1148.499999999997
 20
582.0710678120118
 30
0.0
 11
1150.5
 21
584.0710678120146
 31
0.0
  0
LINE
  5
E1
330
1F
100
AcDbEntity
  8
LAY-10
  6
CONTINUOUS
 62
     7
100
AcDbLine
 10
1148.499999999995
 20
580.6568542496365
 30
0.0
 11
1150.499999999998
 21
582.6568542496392
 31
0.0
  0
LINE
  5
E2
330
1F
100
AcDbEntity
  8
LAY-10
  6
CONTINUOUS
 62
     7
100
AcDbLine
 10
1148.499999999999
 20
579.2426406872671
 30
0.0
 11
1150.500000000001
 21
581.2426406872698
 31
0.0
  0
LINE
  5
E3
330
1F
100
AcDbEntity
  8
LAY-10
  6
CONTINUOUS
 62
     7
100
AcDbLine
 10
1148.499999999996
 20
577.8284271248909
 30
0.0
 11
1150.499999999999
 21
579.8284271248942
 31
0.0
  0
LINE
  5
E4
330
1F
100
AcDbEntity
  8
LAY-10
  6
CONTINUOUS
 62
     7
100
AcDbLine
 10
1148.5
 20
576.4142135625224
 30
0.0
 11
1150.500000000003
 21
578.4142135625251
 31
0.0
  0
LINE
  5
E5
330
1F
100
AcDbEntity
  8
LAY-10
  6
CONTINUOUS
 62
     7
100
AcDbLine
 10
1148.499999999997
 20
575.0000000001462
 30
0.0
 11
1150.5
 21
577.0000000001494
 31
0.0
  0
LINE
  5
E6
330
1F
100
AcDbEntity
  8
LAY-10
  6
CONTINUOUS
 62
     7
100
AcDbLine
 10
1149.914213562373
 20
575.0000000001489
 30
0.0
 11
1150.499999999998
 21
575.5857864377738
 31
0.0
  0
LINE
  5
E7
330
1F
100
AcDbEntity
  8
LAY-10
  6
CONTINUOUS
 62
     7
100
AcDbLine
 10
1148.499999999998
 20
1224.04163056039
 30
0.0
 11
1149.458369439559
 21
1224.999999999951
 31
0.0
  0
LINE
  5
E8
330
1F
100
AcDbEntity
  8
LAY-10
  6
CONTINUOUS
 62
     7
100
AcDbLine
 10
1148.500000000001
 20
1222.627416998021
 30
0.0
 11
1150.500000000004
 21
1224.627416998024
 31
0.0
  0
LINE
  5
E9
330
1F
100
AcDbEntity
  8
LAY-10
  6
CONTINUOUS
 62
     7
100
AcDbLine
 10
1148.499999999999
 20
1221.213203435645
 30
0.0
 11
1150.500000000002
 21
1223.213203435648
 31
0.0
  0
LINE
  5
EA
330
1F
100
AcDbEntity
  8
LAY-10
  6
CONTINUOUS
 62
     7
100
AcDbLine
 10
1148.500000000003
 20
1219.798989873276
 30
0.0
 11
1150.500000000006
 21
1221.798989873279
 31
0.0
  0
LINE
  5
EB
330
1F
100
AcDbEntity
  8
LAY-10
  6
CONTINUOUS
 62
     7
100
AcDbLine
 10
1148.5
 20
1218.384776310901
 30
0.0
 11
1150.500000000003
 21
1220.384776310904
 31
0.0
  0
LINE
  5
EC
330
1F
100
AcDbEntity
  8
LAY-10
  6
CONTINUOUS
 62
     7
100
AcDbLine
 10
1148.499999999997
 20
1216.970562748525
 30
0.0
 11
1150.5
 21
1218.970562748528
 31
0.0
  0
LINE
  5
ED
330
1F
100
AcDbEntity
  8
LAY-10
  6
CONTINUOUS
 62
     7
100
AcDbLine
 10
1148.500000000001
 20
1215.556349186156
 30
0.0
 11
1150.500000000004
 21
1217.556349186159
 31
0.0
  0
LINE
  5
EE
330
1F
100
AcDbEntity
  8
LAY-10
  6
CONTINUOUS
 62
     7
100
AcDbLine
 10
1148.499999999999
 20
1214.14213562378
 30
0.0
 11
1150.500000000002
 21
1216.142135623783
 31
0.0
  0
LINE
  5
EF
330
1F
100
AcDbEntity
  8
LAY-10
  6
CONTINUOUS
 62
     7
100
AcDbLine
 10
1148.500000000003
 20
1212.727922061411
 30
0.0
 11
1150.500000000005
 21
1214.727922061413
 31
0.0
  0
LINE
  5
F0
330
1F
100
AcDbEntity
  8
LAY-10
  6
CONTINUOUS
 62
     7
100
AcDbLine
 10
1148.5
 20
1211.313708499035
 30
0.0
 11
1150.500000000003
 21
1213.313708499038
 31
0.0
  0
LINE
  5
F1
330
1F
100
AcDbEntity
  8
LAY-10
  6
CONTINUOUS
 62
     7
100
AcDbLine
 10
1148.500000000004
 20
1209.899494936666
 30
0.0
 11
1150.500000000007
 21
1211.899494936669
 31
0.0
  0
LINE
  5
F2
330
1F
100
AcDbEntity
  8
LAY-10
  6
CONTINUOUS
 62
     7
100
AcDbLine
 10
1148.500000000001
 20
1208.485281374291
 30
0.0
 11
1150.500000000004
 21
1210.485281374293
 31
0.0
  0
LINE
  5
F3
330
1F
100
AcDbEntity
  8
LAY-10
  6
CONTINUOUS
 62
     7
100
AcDbLine
 10
1148.499999999999
 20
1207.071067811915
 30
0.0
 11
1150.500000000002
 21
1209.071067811917
 31
0.0
  0
LINE
  5
F4
330
1F
100
AcDbEntity
  8
LAY-10
  6
CONTINUOUS
 62
     7
100
AcDbLine
 10
1148.500000000002
 20
1205.656854249545
 30
0.0
 11
1150.500000000005
 21
1207.656854249549
 31
0.0
  0
LINE
  5
F5
330
1F
100
AcDbEntity
  8
LAY-10
  6
CONTINUOUS
 62
     7
100
AcDbLine
 10
1148.5
 20
1204.24264068717
 30
0.0
 11
1150.500000000003
 21
1206.242640687173
 31
0.0
  0
LINE
  5
F6
330
1F
100
AcDbEntity
  8
LAY-10
  6
CONTINUOUS
 62
     7
100
AcDbLine
 10
1148.500000000004
 20
1202.828427124801
 30
0.0
 11
1150.500000000007
 21
1204.828427124804
 31
0.0
  0
LINE
  5
F7
330
1F
100
AcDbEntity
  8
LAY-10
  6
CONTINUOUS
 62
     7
100
AcDbLine
 10
1148.500000000001
 20
1201.414213562425
 30
0.0
 11
1150.500000000004
 21
1203.414213562428
 31
0.0
  0
LINE
  5
F8
330
1F
100
AcDbEntity
  8
LAY-10
  6
CONTINUOUS
 62
     7
100
AcDbLine
 10
1148.500000000018
 20
1200.000000000068
 30
0.0
 11
1150.500000000008
 21
1202.000000000059
 31
0.0
  0
LINE
  5
F9
330
1F
100
AcDbEntity
  8
LAY-10
  6
CONTINUOUS
 62
     7
100
AcDbLine
 10
1149.914213562393
 20
1200.000000000072
 30
0.0
 11
1150.500000000005
 21
1200.585786437683
 31
0.0
  0
LINE
  5
FA
330
1F
100
AcDbEntity
  8
LAY-10
  6
CONTINUOUS
 62
     7
100
AcDbLine
 10
150.0000000000508
 20
225.9142135623731
 30
0.0
 11
150.5857864376752
 21
226.4999999999978
 31
0.0
  0
LINE
  5
FB
330
1F
100
AcDbEntity
  8
LAY-10
  6
CONTINUOUS
 62
     7
100
AcDbLine
 10
150.0000000000353
 20
224.4999999999849
 30
0.0
 11
152.000000000051
 21
226.5000000000007
 31
0.0
  0
LINE
  5
FC
330
1F
100
AcDbEntity
  8
LAY-10
  6
CONTINUOUS
 62
     7
100
AcDbLine
 10
151.4142135624043
 20
224.4999999999809
 30
0.0
 11
153.4142135624203
 21
226.4999999999967
 31
0.0
  0
LINE
  5
FD
330
1F
100
AcDbEntity
  8
LAY-10
  6
CONTINUOUS
 62
     7
100
AcDbLine
 10
152.8284271247802
 20
224.4999999999837
 30
0.0
 11
154.8284271247956
 21
226.4999999999995
 31
0.0
  0
LINE
  5
FE
330
1F
100
AcDbEntity
  8
LAY-10
  6
CONTINUOUS
 62
     7
100
AcDbLine
 10
154.2426406871558
 20
224.4999999999862
 30
0.0
 11
156.2426406871649
 21
226.4999999999956
 31
0.0
  0
LINE
  5
FF
330
1F
100
AcDbEntity
  8
LAY-10
  6
CONTINUOUS
 62
     7
100
AcDbLine
 10
155.6568542495248
 20
224.4999999999826
 30
0.0
 11
157.6568542495407
 21
226.4999999999984
 31
0.0
  0
LINE
  5
100
330
1F
100
AcDbEntity
  8
LAY-10
  6
CONTINUOUS
 62
     7
100
AcDbLine
 10
157.0710678119004
 20
224.4999999999851
 30
0.0
 11
159.0710678119163
 21
226.5000000000011
 31
0.0
  0
LINE
  5
101
330
1F
100
AcDbEntity
  8
LAY-10
  6
CONTINUOUS
 62
     7
100
AcDbLine
 10
158.4852813742762
 20
224.4999999999877
 30
0.0
 11
160.4852813742853
 21
226.4999999999969
 31
0.0
  0
LINE
  5
102
330
1F
100
AcDbEntity
  8
LAY-10
  6
CONTINUOUS
 62
     7
100
AcDbLine
 10
159.8994949366453
 20
224.4999999999837
 30
0.0
 11
161.8994949366609
 21
226.4999999999995
 31
0.0
  0
LINE
  5
103
330
1F
100
AcDbEntity
  8
LAY-10
  6
CONTINUOUS
 62
     7
100
AcDbLine
 10
161.3137084990209
 20
224.4999999999866
 30
0.0
 11
163.3137084990304
 21
226.4999999999958
 31
0.0
  0
LINE
  5
104
330
1F
100
AcDbEntity
  8
LAY-10
  6
CONTINUOUS
 62
     7
100
AcDbLine
 10
162.7279220613965
 20
224.4999999999892
 30
0.0
 11
164.7279220614058
 21
226.4999999999984
 31
0.0
  0
LINE
  5
105
330
1F
100
AcDbEntity
  8
LAY-10
  6
CONTINUOUS
 62
     7
100
AcDbLine
 10
164.1421356237659
 20
224.4999999999854
 30
0.0
 11
166.142135623775
 21
226.4999999999944
 31
0.0
  0
LINE
  5
106
330
1F
100
AcDbEntity
  8
LAY-10
  6
CONTINUOUS
 62
     7
100
AcDbLine
 10
165.5563491861415
 20
224.4999999999881
 30
0.0
 11
167.5563491861506
 21
226.4999999999973
 31
0.0
  0
LINE
  5
107
330
1F
100
AcDbEntity
  8
LAY-10
  6
CONTINUOUS
 62
     7
100
AcDbLine
 10
166.9705627485103
 20
224.499999999984
 30
0.0
 11
168.9705627485262
 21
226.4999999999999
 31
0.0
  0
LINE
  5
108
330
1F
100
AcDbEntity
  8
LAY-10
  6
CONTINUOUS
 62
     7
100
AcDbLine
 10
168.3847763108862
 20
224.4999999999866
 30
0.0
 11
170.3847763108955
 21
226.4999999999961
 31
0.0
  0
LINE
  5
109
330
1F
100
AcDbEntity
  8
LAY-10
  6
CONTINUOUS
 62
     7
100
AcDbLine
 10
169.7989898732617
 20
224.4999999999894
 30
0.0
 11
171.7989898732711
 21
226.4999999999984
 31
0.0
  0
LINE
  5
10A
330
1F
100
AcDbEntity
  8
LAY-10
  6
CONTINUOUS
 62
     7
100
AcDbLine
 10
171.213203435631
 20
224.4999999999854
 30
0.0
 11
173.2132034356403
 21
226.499999999995
 31
0.0
  0
LINE
  5
10B
330
1F
100
AcDbEntity
  8
LAY-10
  6
CONTINUOUS
 62
     7
100
AcDbLine
 10
172.6274169980064
 20
224.4999999999881
 30
0.0
 11
174.6274169980159
 21
226.4999999999973
 31
0.0
  0
LINE
  5
10C
330
1F
100
AcDbEntity
  8
LAY-10
  6
CONTINUOUS
 62
     7
100
AcDbLine
 10
174.0416305603822
 20
224.4999999999906
 30
0.0
 11
175.0000000000335
 21
225.458369439642
 31
0.0
  0
LINE
  5
10D
330
1F
100
AcDbEntity
  8
LAY-10
  6
CONTINUOUS
 62
     7
100
AcDbLine
 10
775.0000000000663
 20
225.9142135623788
 30
0.0
 11
775.5857864376907
 21
226.5000000000035
 31
0.0
  0
LINE
  5
10E
330
1F
100
AcDbEntity
  8
LAY-10
  6
CONTINUOUS
 62
     7
100
AcDbLine
 10
775.0000000000508
 20
224.4999999999904
 30
0.0
 11
777.0000000000599
 21
226.4999999999995
 31
0.0
  0
LINE
  5
10F
330
1F
100
AcDbEntity
  8
LAY-10
  6
CONTINUOUS
 62
     7
100
AcDbLine
 10
776.4142135624201
 20
224.4999999999866
 30
0.0
 11
778.4142135624359
 21
226.5000000000024
 31
0.0
  0
LINE
  5
110
330
1F
100
AcDbEntity
  8
LAY-10
  6
CONTINUOUS
 62
     7
100
AcDbLine
 10
777.8284271247958
 20
224.4999999999889
 30
0.0
 11
779.8284271248114
 21
226.5000000000047
 31
0.0
  0
LINE
  5
111
330
1F
100
AcDbEntity
  8
LAY-10
  6
CONTINUOUS
 62
     7
100
AcDbLine
 10
779.2426406871649
 20
224.4999999999851
 30
0.0
 11
781.2426406871806
 21
226.5000000000011
 31
0.0
  0
LINE
  5
112
330
1F
100
AcDbEntity
  8
LAY-10
  6
CONTINUOUS
 62
     7
100
AcDbLine
 10
780.6568542495405
 20
224.4999999999877
 30
0.0
 11
782.6568542495564
 21
226.5000000000035
 31
0.0
  0
LINE
  5
113
330
1F
100
AcDbEntity
  8
LAY-10
  6
CONTINUOUS
 62
     7
100
AcDbLine
 10
782.0710678119161
 20
224.4999999999904
 30
0.0
 11
784.0710678119254
 21
226.4999999999995
 31
0.0
  0
LINE
  5
114
330
1F
100
AcDbEntity
  8
LAY-10
  6
CONTINUOUS
 62
     7
100
AcDbLine
 10
783.4852813742854
 20
224.4999999999866
 30
0.0
 11
785.485281374301
 21
226.5000000000024
 31
0.0
  0
LINE
  5
115
330
1F
100
AcDbEntity
  8
LAY-10
  6
CONTINUOUS
 62
     7
100
AcDbLine
 10
784.899494936661
 20
224.4999999999889
 30
0.0
 11
786.8994949366769
 21
226.5000000000047
 31
0.0
  0
LINE
  5
116
330
1F
100
AcDbEntity
  8
LAY-10
  6
CONTINUOUS
 62
     7
100
AcDbLine
 10
786.3137084990304
 20
224.4999999999851
 30
0.0
 11
788.3137084990461
 21
226.5000000000011
 31
0.0
  0
LINE
  5
117
330
1F
100
AcDbEntity
  8
LAY-10
  6
CONTINUOUS
 62
     7
100
AcDbLine
 10
787.727922061406
 20
224.4999999999877
 30
0.0
 11
789.7279220614217
 21
226.5000000000035
 31
0.0
  0
LINE
  5
118
330
1F
100
AcDbEntity
  8
LAY-10
  6
CONTINUOUS
 62
     7
100
AcDbLine
 10
789.1421356237751
 20
224.4999999999837
 30
0.0
 11
791.142135623791
 21
226.4999999999995
 31
0.0
  0
LINE
  5
119
330
1F
100
AcDbEntity
  8
LAY-10
  6
CONTINUOUS
 62
     7
100
AcDbLine
 10
790.5563491861511
 20
224.4999999999866
 30
0.0
 11
792.5563491861666
 21
226.5000000000024
 31
0.0
  0
LINE
  5
11A
330
1F
100
AcDbEntity
  8
LAY-10
  6
CONTINUOUS
 62
     7
100
AcDbLine
 10
791.9705627485268
 20
224.4999999999889
 30
0.0
 11
793.9705627485358
 21
226.4999999999981
 31
0.0
  0
LINE
  5
11B
330
1F
100
AcDbEntity
  8
LAY-10
  6
CONTINUOUS
 62
     7
100
AcDbLine
 10
793.384776310896
 20
224.4999999999851
 30
0.0
 11
795.3847763109119
 21
226.5000000000011
 31
0.0
  0
LINE
  5
11C
330
1F
100
AcDbEntity
  8
LAY-10
  6
CONTINUOUS
 62
     7
100
AcDbLine
 10
794.7989898732716
 20
224.4999999999874
 30
0.0
 11
796.7989898732875
 21
226.5000000000033
 31
0.0
  0
LINE
  5
11D
330
1F
100
AcDbEntity
  8
LAY-10
  6
CONTINUOUS
 62
     7
100
AcDbLine
 10
796.2132034356409
 20
224.4999999999837
 30
0.0
 11
798.2132034356565
 21
226.4999999999995
 31
0.0
  0
LINE
  5
11E
330
1F
100
AcDbEntity
  8
LAY-10
  6
CONTINUOUS
 62
     7
100
AcDbLine
 10
797.6274169980164
 20
224.4999999999866
 30
0.0
 11
799.6274169980325
 21
226.5000000000024
 31
0.0
  0
LINE
  5
11F
330
1F
100
AcDbEntity
  8
LAY-10
  6
CONTINUOUS
 62
     7
100
AcDbLine
 10
799.041630560392
 20
224.4999999999889
 30
0.0
 11
800.00000000005
 21
225.4583694396465
 31
0.0
  0
LINE
  5
120
330
1F
100
AcDbEntity
  8
LAY-10
  6
CONTINUOUS
 62
     7
100
AcDbLine
 10
129.5000000000029
 20
1245.499999999991
 30
0.0
 11
125.0000000000029
 21
1249.999999999991
 31
0.0
  0
LINE
  5
121
330
1F
100
AcDbEntity
  8
LAY-10
  6
CONTINUOUS
 62
     7
100
AcDbLine
 10
129.500000000003
 20
554.4999999999916
 30
0.0
 11
125.0000000000031
 21
549.9999999999917
 31
0.0
  0
LINE
  5
122
330
1F
100
AcDbEntity
  8
LAY-10
  6
CONTINUOUS
 62
     7
100
AcDbLine
 10
124.9999999999962
 20
349.9999999999865
 30
0.0
 11
129.4999999999962
 21
349.9999999999865
 31
0.0
  0
LINE
  5
123
330
1F
100
AcDbEntity
  8
LAY-10
  6
CONTINUOUS
 62
     7
100
AcDbLine
 10
136.0000000000032
 20
560.9999999999918
 30
0.0
 11
131.5000000000032
 21
556.4999999999918
 31
0.0
  0
LINE
  5
124
330
1F
100
AcDbEntity
  8
LAY-10
  6
CONTINUOUS
 62
     7
100
AcDbLine
 10
129.5000000000029
 20
1245.499999999991
 30
0.0
 11
129.500000000003
 21
554.4999999999916
 31
0.0
  0
LINE
  5
125
330
1F
100
AcDbEntity
  8
LAY-10
  6
CONTINUOUS
 62
     7
100
AcDbLine
 10
125.0000000000031
 20
549.9999999999917
 30
0.0
 11
125.0000000000029
 21
1249.999999999991
 31
0.0
  0
LINE
  5
126
330
1F
100
AcDbEntity
  8
LAY-10
  6
CONTINUOUS
 62
     7
100
AcDbLine
 10
131.5000000000032
 20
1243.499999999991
 30
0.0
 11
131.5000000000032
 21
556.4999999999918
 31
0.0
  0
LINE
  5
127
330
1F
100
AcDbEntity
  8
LAY-10
  6
CONTINUOUS
 62
     7
100
AcDbLine
 10
820.5000000000035
 20
1245.499999999991
 30
0.0
 11
825.0000000000035
 21
1249.999999999991
 31
0.0
  0
LINE
  5
128
330
1F
100
AcDbEntity
  8
LAY-10
  6
CONTINUOUS
 62
     7
100
AcDbLine
 10
825.0000000000031
 20
549.9999999999917
 30
0.0
 11
820.5000000000031
 21
554.4999999999916
 31
0.0
  0
LINE
  5
129
330
1F
100
AcDbEntity
  8
LAY-10
  6
CONTINUOUS
 62
     7
100
AcDbLine
 10
820.4999999999958
 20
349.9999999999865
 30
0.0
 11
824.9999999999958
 21
349.9999999999865
 31
0.0
  0
LINE
  5
12A
330
1F
100
AcDbEntity
  8
LAY-10
  6
CONTINUOUS
 62
     7
100
AcDbLine
 10
818.5000000000026
 20
556.4999999999918
 30
0.0
 11
814.0000000000026
 21
560.9999999999918
 31
0.0
  0
LINE
  5
12B
330
1F
100
AcDbEntity
  8
LAY-10
  6
CONTINUOUS
 62
     7
100
AcDbLine
 10
820.5000000000031
 20
554.4999999999916
 30
0.0
 11
820.5000000000038
 21
1245.499999999991
 31
0.0
  0
LINE
  5
12C
330
1F
100
AcDbEntity
  8
LAY-10
  6
CONTINUOUS
 62
     7
100
AcDbLine
 10
825.0000000000031
 20
549.9999999999917
 30
0.0
 11
825.0000000000035
 21
1249.999999999991
 31
0.0
  0
LINE
  5
12D
330
1F
100
AcDbEntity
  8
LAY-10
  6
CONTINUOUS
 62
     7
100
AcDbLine
 10
818.5000000000026
 20
556.4999999999918
 30
0.0
 11
818.5000000000036
 21
1243.499999999991
 31
0.0
  0
LINE
  5
12E
330
1F
100
AcDbEntity
  8
LAY-10
  6
CONTINUOUS
 62
     7
100
AcDbLine
 10
820.5000000000038
 20
1245.499999999991
 30
0.0
 11
129.5000000000029
 21
1245.499999999991
 31
0.0
  0
LINE
  5
12F
330
1F
100
AcDbEntity
  8
LAY-10
  6
CONTINUOUS
 62
     7
100
AcDbLine
 10
825.0000000000035
 20
1249.999999999991
 30
0.0
 11
125.0000000000029
 21
1249.999999999991
 31
0.0
  0
LINE
  5
130
330
1F
100
AcDbEntity
  8
LAY-10
  6
CONTINUOUS
 62
     7
100
AcDbLine
 10
129.500000000003
 20
554.4999999999916
 30
0.0
 11
820.5000000000031
 21
554.4999999999916
 31
0.0
  0
LINE
  5
131
330
1F
100
AcDbEntity
  8
LAY-10
  6
CONTINUOUS
 62
     7
100
AcDbLine
 10
825.0000000000031
 20
549.9999999999917
 30
0.0
 11
125.0000000000031
 21
549.9999999999917
 31
0.0
  0
LINE
  5
132
330
1F
100
AcDbEntity
  8
LAY-10
  6
CONTINUOUS
 62
     7
100
AcDbLine
 10
131.4999999999962
 20
349.9999999999865
 30
0.0
 11
818.5000000000026
 21
349.9999999999865
 31
0.0
  0
LINE
  5
133
330
1F
100
AcDbEntity
  8
LAY-10
  6
CONTINUOUS
 62
     7
100
AcDbLine
 10
136.0000000000032
 20
560.9999999999918
 30
0.0
 11
814.0000000000026
 21
560.9999999999918
 31
0.0
  0
LINE
  5
134
330
1F
100
AcDbEntity
  8
LAY-10
  6
CONTINUOUS
 62
     7
100
AcDbLine
 10
131.5000000000032
 20
556.4999999999918
 30
0.0
 11
818.5000000000026
 21
556.4999999999918
 31
0.0
  0
LINE
  5
135
330
1F
100
AcDbEntity
  8
LAY-10
  6
CONTINUOUS
 62
     7
100
AcDbLine
 10
269.9999999998657
 20
590.9999999999607
 30
0.0
 11
269.9999999998657
 21
630.9999999999607
 31
0.0
  0
LINE
  5
136
330
1F
100
AcDbEntity
  8
LAY-10
  6
CONTINUOUS
 62
     7
100
AcDbLine
 10
229.9999999998667
 20
590.9999999999607
 30
0.0
 11
229.9999999998667
 21
630.9999999999607
 31
0.0
  0
LINE
  5
137
330
1F
100
AcDbEntity
  8
LAY-10
  6
CONTINUOUS
 62
     7
100
AcDbLine
 10
229.9999999998667
 20
623.4999999999607
 30
0.0
 11
269.9999999998657
 21
623.4999999999607
 31
0.0
  0
LINE
  5
138
330
1F
100
AcDbEntity
  8
LAY-10
  6
CONTINUOUS
 62
     7
100
AcDbLine
 10
229.9999999998667
 20
630.9999999999607
 30
0.0
 11
269.9999999998657
 21
630.9999999999607
 31
0.0
  0
LINE
  5
139
330
1F
100
AcDbEntity
  8
LAY-10
  6
CONTINUOUS
 62
     7
100
AcDbLine
 10
229.9999999998667
 20
590.9999999999607
 30
0.0
 11
269.9999999998657
 21
590.9999999999607
 31
0.0
  0
LINE
  5
13A
330
1F
100
AcDbEntity
  8
LAY-10
  6
CONTINUOUS
 62
     7
100
AcDbLine
 10
229.9999999998667
 20
598.4999999999607
 30
0.0
 11
269.9999999998657
 21
598.4999999999607
 31
0.0
  0
LINE
  5
13B
330
1F
100
AcDbEntity
  8
LAY-10
  6
CONTINUOUS
 62
     7
100
AcDbLine
 10
679.9999999998666
 20
590.9999999999615
 30
0.0
 11
679.9999999998666
 21
630.9999999999615
 31
0.0
  0
LINE
  5
13C
330
1F
100
AcDbEntity
  8
LAY-10
  6
CONTINUOUS
 62
     7
100
AcDbLine
 10
719.9999999998668
 20
590.9999999999615
 30
0.0
 11
719.9999999998668
 21
630.9999999999615
 31
0.0
  0
LINE
  5
13D
330
1F
100
AcDbEntity
  8
LAY-10
  6
CONTINUOUS
 62
     7
100
AcDbLine
 10
719.9999999998668
 20
623.4999999999615
 30
0.0
 11
679.9999999998666
 21
623.4999999999615
 31
0.0
  0
LINE
  5
13E
330
1F
100
AcDbEntity
  8
LAY-10
  6
CONTINUOUS
 62
     7
100
AcDbLine
 10
719.9999999998668
 20
630.9999999999615
 30
0.0
 11
679.9999999998666
 21
630.9999999999615
 31
0.0
  0
LINE
  5
13F
330
1F
100
AcDbEntity
  8
LAY-10
  6
CONTINUOUS
 62
     7
100
AcDbLine
 10
719.9999999998668
 20
590.9999999999615
 30
0.0
 11
679.9999999998666
 21
590.9999999999615
 31
0.0
  0
LINE
  5
140
330
1F
100
AcDbEntity
  8
LAY-10
  6
CONTINUOUS
 62
     7
100
AcDbLine
 10
719.9999999998668
 20
598.4999999999615
 30
0.0
 11
679.9999999998666
 21
598.4999999999615
 31
0.0
  0
ARC
  5
141
330
1F
100
AcDbEntity
  8
LAY-10
  6
CONTINUOUS
 62
     7
100
AcDbCircle
 10
140.4999999999962
 20
275.4999999999719
 30
0.0
 40
4.5
100
AcDbArc
 50
180.0
 51
270.0
  0
LINE
  5
142
330
1F
100
AcDbEntity
  8
LAY-10
  6
CONTINUOUS
 62
     7
100
AcDbLine
 10
135.9999999999962
 20
349.9999999999862
 30
0.0
 11
135.9999999999962
 21
275.4999999999719
 31
0.0
  0
ARC
  5
143
330
1F
100
AcDbEntity
  8
LAY-10
  6
CONTINUOUS
 62
     7
100
AcDbCircle
 10
140.4999999999962
 20
275.4999999999719
 30
0.0
 40
9.0
100
AcDbArc
 50
180.0
 51
270.0
  0
LINE
  5
144
330
1F
100
AcDbEntity
  8
LAY-10
  6
CONTINUOUS
 62
     7
100
AcDbLine
 10
131.4999999999962
 20
349.9999999999862
 30
0.0
 11
131.4999999999962
 21
275.4999999999719
 31
0.0
  0
LINE
  5
145
330
1F
100
AcDbEntity
  8
LAY-10
  6
CONTINUOUS
 62
     7
100
AcDbLine
 10
269.999999999908
 20
280.9999999999779
 30
0.0
 11
269.999999999908
 21
270.9999999999736
 31
0.0
  0
LINE
  5
146
330
1F
100
AcDbEntity
  8
LAY-10
  6
CONTINUOUS
 62
     7
100
AcDbLine
 10
229.9999999999081
 20
280.9999999999779
 30
0.0
 11
229.9999999999081
 21
270.9999999999736
 31
0.0
  0
LINE
  5
147
330
1F
100
AcDbEntity
  8
LAY-10
  6
CONTINUOUS
 62
     7
100
AcDbLine
 10
269.999999999908
 20
280.9999999999734
 30
0.0
 11
229.9999999999081
 21
280.9999999999734
 31
0.0
  0
LINE
  5
148
330
1F
100
AcDbEntity
  8
LAY-10
  6
CONTINUOUS
 62
     7
100
AcDbLine
 10
269.999999999908
 20
278.9999999999735
 30
0.0
 11
229.9999999999081
 21
278.9999999999735
 31
0.0
  0
LINE
  5
149
330
1F
100
AcDbEntity
  8
LAY-10
  6
CONTINUOUS
 62
     7
100
AcDbLine
 10
818.5000000000026
 20
349.9999999999862
 30
0.0
 11
818.5000000000026
 21
275.4999999999862
 31
0.0
  0
LINE
  5
14A
330
1F
100
AcDbEntity
  8
LAY-10
  6
CONTINUOUS
 62
     7
100
AcDbLine
 10
814.0000000000024
 20
275.4999999999862
 30
0.0
 11
814.0000000000024
 21
349.9999999999862
 31
0.0
  0
ARC
  5
14B
330
1F
100
AcDbEntity
  8
LAY-10
  6
CONTINUOUS
 62
     7
100
AcDbCircle
 10
809.5000000000024
 20
275.4999999999719
 30
0.0
 40
4.5
100
AcDbArc
 50
270.0
 51
0.0
  0
ARC
  5
14C
330
1F
100
AcDbEntity
  8
LAY-10
  6
CONTINUOUS
 62
     7
100
AcDbCircle
 10
809.5000000000024
 20
275.4999999999719
 30
0.0
 40
9.0
100
AcDbArc
 50
270.0
 51
0.0
  0
LINE
  5
14D
330
1F
100
AcDbEntity
  8
LAY-10
  6
CONTINUOUS
 62
     7
100
AcDbLine
 10
680.0000000000889
 20
280.9999999999779
 30
0.0
 11
680.0000000000889
 21
270.9999999999736
 31
0.0
  0
LINE
  5
14E
330
1F
100
AcDbEntity
  8
LAY-10
  6
CONTINUOUS
 62
     7
100
AcDbLine
 10
720.000000000089
 20
280.9999999999779
 30
0.0
 11
720.000000000089
 21
270.9999999999736
 31
0.0
  0
LINE
  5
14F
330
1F
100
AcDbEntity
  8
LAY-10
  6
CONTINUOUS
 62
     7
100
AcDbLine
 10
680.0000000000889
 20
280.9999999999734
 30
0.0
 11
720.000000000089
 21
280.9999999999734
 31
0.0
  0
LINE
  5
150
330
1F
100
AcDbEntity
  8
LAY-10
  6
CONTINUOUS
 62
     7
100
AcDbLine
 10
680.0000000000889
 20
278.9999999999735
 30
0.0
 11
720.000000000089
 21
278.9999999999735
 31
0.0
  0
LINE
  5
151
330
1F
100
AcDbEntity
  8
LAY-10
  6
CONTINUOUS
 62
     7
100
AcDbLine
 10
140.4999999999962
 20
266.4999999999717
 30
0.0
 11
809.5000000000258
 21
266.4999999999717
 31
0.0
  0
LINE
  5
152
330
1F
100
AcDbEntity
  8
LAY-10
  6
CONTINUOUS
 62
     7
100
AcDbLine
 10
140.4999999999962
 20
270.9999999999717
 30
0.0
 11
809.5000000000258
 21
270.9999999999717
 31
0.0
  0
LINE
  5
153
330
1F
100
AcDbEntity
  8
LAY-10
  6
CONTINUOUS
 62
     7
100
AcDbLine
 10
195.5000000000381
 20
175.000000000089
 30
0.0
 11
204.5000000000381
 21
175.000000000089
 31
0.0
  0
CIRCLE
  5
154
330
1F
100
AcDbEntity
  8
LAY-10
  6
CONTINUOUS
 62
     7
100
AcDbCircle
 10
200.0000000000452
 20
215.4999999999679
 30
0.0
 40
4.5
  0
LINE
  5
155
330
1F
100
AcDbEntity
  8
LAY-10
  6
CONTINUOUS
 62
     7
100
AcDbLine
 10
204.5000000000381
 20
215.4999999999679
 30
0.0
 11
204.5000000000381
 21
175.000000000089
 31
0.0
  0
LINE
  5
156
330
1F
100
AcDbEntity
  8
LAY-10
  6
CONTINUOUS
 62
     7
100
AcDbLine
 10
195.5000000000362
 20
215.4999999999679
 30
0.0
 11
195.5000000000362
 21
175.000000000089
 31
0.0
  0
LINE
  5
157
330
1F
100
AcDbEntity
  8
LAY-10
  6
CONTINUOUS
 62
     7
100
AcDbLine
 10
175.0000000000326
 20
224.499999999986
 30
0.0
 11
175.0000000000326
 21
219.9999999999861
 31
0.0
  0
ARC
  5
158
330
1F
100
AcDbEntity
  8
LAY-10
  6
CONTINUOUS
 62
     7
100
AcDbCircle
 10
133.9999999999962
 20
228.9999999999859
 30
0.0
 40
4.5
100
AcDbArc
 50
180.0
 51
270.0
  0
ARC
  5
159
330
1F
100
AcDbEntity
  8
LAY-10
  6
CONTINUOUS
 62
     7
100
AcDbCircle
 10
133.9999999999962
 20
228.9999999999859
 30
0.0
 40
9.0
100
AcDbArc
 50
180.0
 51
270.0
  0
LINE
  5
15A
330
1F
100
AcDbEntity
  8
LAY-10
  6
CONTINUOUS
 62
     7
100
AcDbLine
 10
175.0000000000328
 20
224.499999999986
 30
0.0
 11
175.0000000000328
 21
226.4999999999999
 31
0.0
  0
LINE
  5
15B
330
1F
100
AcDbEntity
  8
LAY-10
  6
CONTINUOUS
 62
     7
100
AcDbLine
 10
150.0000000000515
 20
224.499999999986
 30
0.0
 11
150.0000000000515
 21
226.4999999999999
 31
0.0
  0
LINE
  5
15C
330
1F
100
AcDbEntity
  8
LAY-10
  6
CONTINUOUS
 62
     7
100
AcDbLine
 10
754.5000000000391
 20
175.000000000089
 30
0.0
 11
745.500000000039
 21
175.000000000089
 31
0.0
  0
LINE
  5
15D
330
1F
100
AcDbEntity
  8
LAY-10
  6
CONTINUOUS
 62
     7
100
AcDbLine
 10
745.500000000039
 20
215.4999999999679
 30
0.0
 11
745.500000000039
 21
175.000000000089
 31
0.0
  0
LINE
  5
15E
330
1F
100
AcDbEntity
  8
LAY-10
  6
CONTINUOUS
 62
     7
100
AcDbLine
 10
754.5000000000408
 20
215.4999999999679
 30
0.0
 11
754.5000000000408
 21
175.000000000089
 31
0.0
  0
LINE
  5
15F
330
1F
100
AcDbEntity
  8
LAY-10
  6
CONTINUOUS
 62
     7
100
AcDbLine
 10
775.0000000000344
 20
224.499999999986
 30
0.0
 11
775.0000000000344
 21
219.9999999999861
 31
0.0
  0
ARC
  5
160
330
1F
100
AcDbEntity
  8
LAY-10
  6
CONTINUOUS
 62
     7
100
AcDbCircle
 10
815.9999999999958
 20
228.9999999999859
 30
0.0
 40
4.5
100
AcDbArc
 50
270.0
 51
0.0
  0
ARC
  5
161
330
1F
100
AcDbEntity
  8
LAY-10
  6
CONTINUOUS
 62
     7
100
AcDbCircle
 10
815.9999999999958
 20
228.9999999999859
 30
0.0
 40
9.0
100
AcDbArc
 50
270.0
 51
0.0
  0
CIRCLE
  5
162
330
1F
100
AcDbEntity
  8
LAY-10
  6
CONTINUOUS
 62
     7
100
AcDbCircle
 10
750.0000000000316
 20
215.4999999999679
 30
0.0
 40
4.5
  0
LINE
  5
163
330
1F
100
AcDbEntity
  8
LAY-10
  6
CONTINUOUS
 62
     7
100
AcDbLine
 10
800.000000000046
 20
224.499999999986
 30
0.0
 11
800.000000000046
 21
226.4999999999999
 31
0.0
  0
LINE
  5
164
330
1F
100
AcDbEntity
  8
LAY-10
  6
CONTINUOUS
 62
     7
100
AcDbLine
 10
775.0000000000648
 20
224.499999999986
 30
0.0
 11
775.0000000000648
 21
226.4999999999999
 31
0.0
  0
LINE
  5
165
330
1F
100
AcDbEntity
  8
LAY-10
  6
CONTINUOUS
 62
     7
100
AcDbLine
 10
133.9999999999962
 20
224.499999999986
 30
0.0
 11
815.9999999999958
 21
224.499999999986
 31
0.0
  0
LINE
  5
166
330
1F
100
AcDbEntity
  8
LAY-10
  6
CONTINUOUS
 62
     7
100
AcDbLine
 10
133.9999999999962
 20
219.9999999999861
 30
0.0
 11
815.9999999999958
 21
219.9999999999861
 31
0.0
  0
LINE
  5
167
330
1F
100
AcDbEntity
  8
LAY-10
  6
CONTINUOUS
 62
     7
100
AcDbLine
 10
129.4999999999962
 20
349.9999999999865
 30
0.0
 11
129.4999999999962
 21
228.9999999999859
 31
0.0
  0
LINE
  5
168
330
1F
100
AcDbEntity
  8
LAY-10
  6
CONTINUOUS
 62
     7
100
AcDbLine
 10
124.9999999999962
 20
349.9999999999865
 30
0.0
 11
124.9999999999962
 21
228.9999999999859
 31
0.0
  0
LINE
  5
169
330
1F
100
AcDbEntity
  8
LAY-10
  6
CONTINUOUS
 62
     7
100
AcDbLine
 10
820.4999999999958
 20
228.9999999999859
 30
0.0
 11
820.4999999999958
 21
349.9999999999865
 31
0.0
  0
LINE
  5
16A
330
1F
100
AcDbEntity
  8
LAY-10
  6
CONTINUOUS
 62
     7
100
AcDbLine
 10
824.9999999999956
 20
349.9999999999865
 30
0.0
 11
824.9999999999956
 21
228.9999999999859
 31
0.0
  0
ARC
  5
16B
330
1F
100
AcDbEntity
  8
LAY-10
  6
CONTINUOUS
 62
     7
100
AcDbCircle
 10
354.1999999999849
 20
262.3000000000952
 30
0.0
 40
1.0
100
AcDbArc
 50
90.00000000000001
 51
180.0
  0
LINE
  5
16C
330
1F
100
AcDbEntity
  8
LAY-10
  6
CONTINUOUS
 62
     7
100
AcDbLine
 10
385.7999999999848
 20
263.3000000000952
 30
0.0
 11
354.1999999999849
 21
263.3000000000952
 31
0.0
  0
ARC
  5
16D
330
1F
100
AcDbEntity
  8
LAY-10
  6
CONTINUOUS
 62
     7
100
AcDbCircle
 10
385.7999999999848
 20
262.3000000000952
 30
0.0
 40
1.0
100
AcDbArc
 50
0.0
 51
90.00000000000001
  0
LINE
  5
16E
330
1F
100
AcDbEntity
  8
LAY-10
  6
CONTINUOUS
 62
     7
100
AcDbLine
 10
386.7999999999848
 20
262.300000000095
 30
0.0
 11
386.7999999999848
 21
230.7000000000951
 31
0.0
  0
ARC
  5
16F
330
1F
100
AcDbEntity
  8
LAY-10
  6
CONTINUOUS
 62
     7
100
AcDbCircle
 10
385.7999999999848
 20
230.7000000000953
 30
0.0
 40
1.0
100
AcDbArc
 50
270.0
 51
0.0
  0
LINE
  5
170
330
1F
100
AcDbEntity
  8
LAY-10
  6
CONTINUOUS
 62
     7
100
AcDbLine
 10
353.1999999999849
 20
262.300000000095
 30
0.0
 11
353.1999999999849
 21
230.7000000000951
 31
0.0
  0
LINE
  5
171
330
1F
100
AcDbEntity
  8
LAY-10
  6
CONTINUOUS
 62
     7
100
AcDbLine
 10
385.7999999999848
 20
229.7000000000953
 30
0.0
 11
354.1999999999849
 21
229.7000000000953
 31
0.0
  0
ARC
  5
172
330
1F
100
AcDbEntity
  8
LAY-10
  6
CONTINUOUS
 62
     7
100
AcDbCircle
 10
354.1999999999849
 20
230.7000000000953
 30
0.0
 40
1.0
100
AcDbArc
 50
180.0
 51
270.0
  0
ARC
  5
173
330
1F
100
AcDbEntity
  8
LAY-10
  6
CONTINUOUS
 62
     7
100
AcDbCircle
 10
353.9999999999849
 20
262.500000000095
 30
0.0
 40
4.0
100
AcDbArc
 50
90.00000000000001
 51
180.0
  0
ARC
  5
174
330
1F
100
AcDbEntity
  8
LAY-10
  6
CONTINUOUS
 62
     7
100
AcDbCircle
 10
385.9999999999849
 20
262.500000000095
 30
0.0
 40
4.0
100
AcDbArc
 50
0.0
 51
90.00000000000001
  0
LINE
  5
175
330
1F
100
AcDbEntity
  8
LAY-10
  6
CONTINUOUS
 62
     7
100
AcDbLine
 10
349.9999999999848
 20
262.500000000095
 30
0.0
 11
349.9999999999848
 21
230.500000000095
 31
0.0
  0
ARC
  5
176
330
1F
100
AcDbEntity
  8
LAY-10
  6
CONTINUOUS
 62
     7
100
AcDbCircle
 10
353.9999999999849
 20
230.500000000095
 30
0.0
 40
4.0
100
AcDbArc
 50
180.0
 51
270.0
  0
LINE
  5
177
330
1F
100
AcDbEntity
  8
LAY-10
  6
CONTINUOUS
 62
     7
100
AcDbLine
 10
389.9999999999849
 20
262.500000000095
 30
0.0
 11
389.9999999999849
 21
230.500000000095
 31
0.0
  0
ARC
  5
178
330
1F
100
AcDbEntity
  8
LAY-10
  6
CONTINUOUS
 62
     7
100
AcDbCircle
 10
385.9999999999849
 20
230.500000000095
 30
0.0
 40
4.0
100
AcDbArc
 50
270.0
 51
0.0
  0
ARC
  5
179
330
1F
100
AcDbEntity
  8
LAY-10
  6
CONTINUOUS
 62
     7
100
AcDbCircle
 10
144.1999999999849
 20
262.3000000000952
 30
0.0
 40
1.0
100
AcDbArc
 50
90.00000000000001
 51
180.0
  0
LINE
  5
17A
330
1F
100
AcDbEntity
  8
LAY-10
  6
CONTINUOUS
 62
     7
100
AcDbLine
 10
175.7999999999848
 20
263.3000000000952
 30
0.0
 11
144.1999999999849
 21
263.3000000000952
 31
0.0
  0
ARC
  5
17B
330
1F
100
AcDbEntity
  8
LAY-10
  6
CONTINUOUS
 62
     7
100
AcDbCircle
 10
175.7999999999848
 20
262.3000000000952
 30
0.0
 40
1.0
100
AcDbArc
 50
0.0
 51
90.00000000000001
  0
LINE
  5
17C
330
1F
100
AcDbEntity
  8
LAY-10
  6
CONTINUOUS
 62
     7
100
AcDbLine
 10
176.7999999999848
 20
262.300000000095
 30
0.0
 11
176.7999999999848
 21
230.7000000000951
 31
0.0
  0
ARC
  5
17D
330
1F
100
AcDbEntity
  8
LAY-10
  6
CONTINUOUS
 62
     7
100
AcDbCircle
 10
175.7999999999848
 20
230.7000000000953
 30
0.0
 40
1.0
100
AcDbArc
 50
270.0
 51
0.0
  0
LINE
  5
17E
330
1F
100
AcDbEntity
  8
LAY-10
  6
CONTINUOUS
 62
     7
100
AcDbLine
 10
143.1999999999849
 20
262.300000000095
 30
0.0
 11
143.1999999999849
 21
230.7000000000951
 31
0.0
  0
LINE
  5
17F
330
1F
100
AcDbEntity
  8
LAY-10
  6
CONTINUOUS
 62
     7
100
AcDbLine
 10
175.7999999999848
 20
229.7000000000953
 30
0.0
 11
144.1999999999849
 21
229.7000000000953
 31
0.0
  0
ARC
  5
180
330
1F
100
AcDbEntity
  8
LAY-10
  6
CONTINUOUS
 62
     7
100
AcDbCircle
 10
144.1999999999849
 20
230.7000000000953
 30
0.0
 40
1.0
100
AcDbArc
 50
180.0
 51
270.0
  0
ARC
  5
181
330
1F
100
AcDbEntity
  8
LAY-10
  6
CONTINUOUS
 62
     7
100
AcDbCircle
 10
143.9999999999849
 20
262.500000000095
 30
0.0
 40
4.0
100
AcDbArc
 50
90.00000000000001
 51
180.0
  0
ARC
  5
182
330
1F
100
AcDbEntity
  8
LAY-10
  6
CONTINUOUS
 62
     7
100
AcDbCircle
 10
175.9999999999849
 20
262.500000000095
 30
0.0
 40
4.0
100
AcDbArc
 50
0.0
 51
90.00000000000001
  0
LINE
  5
183
330
1F
100
AcDbEntity
  8
LAY-10
  6
CONTINUOUS
 62
     7
100
AcDbLine
 10
139.9999999999849
 20
262.500000000095
 30
0.0
 11
139.9999999999849
 21
230.500000000095
 31
0.0
  0
ARC
  5
184
330
1F
100
AcDbEntity
  8
LAY-10
  6
CONTINUOUS
 62
     7
100
AcDbCircle
 10
143.9999999999849
 20
230.500000000095
 30
0.0
 40
4.0
100
AcDbArc
 50
180.0
 51
270.0
  0
LINE
  5
185
330
1F
100
AcDbEntity
  8
LAY-10
  6
CONTINUOUS
 62
     7
100
AcDbLine
 10
179.9999999999849
 20
262.500000000095
 30
0.0
 11
179.9999999999849
 21
230.500000000095
 31
0.0
  0
ARC
  5
186
330
1F
100
AcDbEntity
  8
LAY-10
  6
CONTINUOUS
 62
     7
100
AcDbCircle
 10
175.9999999999849
 20
230.500000000095
 30
0.0
 40
4.0
100
AcDbArc
 50
270.0
 51
0.0
  0
ARC
  5
187
330
1F
100
AcDbEntity
  8
LAY-10
  6
CONTINUOUS
 62
     7
100
AcDbCircle
 10
564.1999999999849
 20
262.3000000000952
 30
0.0
 40
1.0
100
AcDbArc
 50
90.00000000000001
 51
180.0
  0
LINE
  5
188
330
1F
100
AcDbEntity
  8
LAY-10
  6
CONTINUOUS
 62
     7
100
AcDbLine
 10
595.7999999999848
 20
263.3000000000952
 30
0.0
 11
564.1999999999849
 21
263.3000000000952
 31
0.0
  0
ARC
  5
189
330
1F
100
AcDbEntity
  8
LAY-10
  6
CONTINUOUS
 62
     7
100
AcDbCircle
 10
595.7999999999848
 20
262.3000000000952
 30
0.0
 40
1.0
100
AcDbArc
 50
0.0
 51
90.00000000000001
  0
LINE
  5
18A
330
1F
100
AcDbEntity
  8
LAY-10
  6
CONTINUOUS
 62
     7
100
AcDbLine
 10
596.7999999999848
 20
262.300000000095
 30
0.0
 11
596.7999999999848
 21
230.7000000000951
 31
0.0
  0
ARC
  5
18B
330
1F
100
AcDbEntity
  8
LAY-10
  6
CONTINUOUS
 62
     7
100
AcDbCircle
 10
595.7999999999848
 20
230.7000000000953
 30
0.0
 40
1.0
100
AcDbArc
 50
270.0
 51
0.0
  0
LINE
  5
18C
330
1F
100
AcDbEntity
  8
LAY-10
  6
CONTINUOUS
 62
     7
100
AcDbLine
 10
563.1999999999849
 20
262.300000000095
 30
0.0
 11
563.1999999999849
 21
230.7000000000951
 31
0.0
  0
LINE
  5
18D
330
1F
100
AcDbEntity
  8
LAY-10
  6
CONTINUOUS
 62
     7
100
AcDbLine
 10
595.7999999999848
 20
229.7000000000953
 30
0.0
 11
564.1999999999849
 21
229.7000000000953
 31
0.0
  0
ARC
  5
18E
330
1F
100
AcDbEntity
  8
LAY-10
  6
CONTINUOUS
 62
     7
100
AcDbCircle
 10
564.1999999999849
 20
230.7000000000953
 30
0.0
 40
1.0
100
AcDbArc
 50
180.0
 51
270.0
  0
ARC
  5
18F
330
1F
100
AcDbEntity
  8
LAY-10
  6
CONTINUOUS
 62
     7
100
AcDbCircle
 10
563.9999999999849
 20
262.500000000095
 30
0.0
 40
4.0
100
AcDbArc
 50
90.00000000000001
 51
180.0
  0
ARC
  5
190
330
1F
100
AcDbEntity
  8
LAY-10
  6
CONTINUOUS
 62
     7
100
AcDbCircle
 10
595.9999999999849
 20
262.500000000095
 30
0.0
 40
4.0
100
AcDbArc
 50
0.0
 51
90.00000000000001
  0
LINE
  5
191
330
1F
100
AcDbEntity
  8
LAY-10
  6
CONTINUOUS
 62
     7
100
AcDbLine
 10
559.9999999999849
 20
262.500000000095
 30
0.0
 11
559.9999999999849
 21
230.500000000095
 31
0.0
  0
ARC
  5
192
330
1F
100
AcDbEntity
  8
LAY-10
  6
CONTINUOUS
 62
     7
100
AcDbCircle
 10
563.9999999999849
 20
230.500000000095
 30
0.0
 40
4.0
100
AcDbArc
 50
180.0
 51
270.0
  0
LINE
  5
193
330
1F
100
AcDbEntity
  8
LAY-10
  6
CONTINUOUS
 62
     7
100
AcDbLine
 10
599.9999999999849
 20
262.500000000095
 30
0.0
 11
599.9999999999849
 21
230.500000000095
 31
0.0
  0
ARC
  5
194
330
1F
100
AcDbEntity
  8
LAY-10
  6
CONTINUOUS
 62
     7
100
AcDbCircle
 10
595.9999999999849
 20
230.500000000095
 30
0.0
 40
4.0
100
AcDbArc
 50
270.0
 51
0.0
  0
ARC
  5
195
330
1F
100
AcDbEntity
  8
LAY-10
  6
CONTINUOUS
 62
     7
100
AcDbCircle
 10
774.1999999999849
 20
262.3000000000952
 30
0.0
 40
1.0
100
AcDbArc
 50
90.00000000000001
 51
180.0
  0
LINE
  5
196
330
1F
100
AcDbEntity
  8
LAY-10
  6
CONTINUOUS
 62
     7
100
AcDbLine
 10
805.7999999999848
 20
263.3000000000952
 30
0.0
 11
774.1999999999849
 21
263.3000000000952
 31
0.0
  0
ARC
  5
197
330
1F
100
AcDbEntity
  8
LAY-10
  6
CONTINUOUS
 62
     7
100
AcDbCircle
 10
805.7999999999848
 20
262.3000000000952
 30
0.0
 40
1.0
100
AcDbArc
 50
0.0
 51
90.00000000000001
  0
LINE
  5
198
330
1F
100
AcDbEntity
  8
LAY-10
  6
CONTINUOUS
 62
     7
100
AcDbLine
 10
806.7999999999848
 20
262.300000000095
 30
0.0
 11
806.7999999999848
 21
230.7000000000951
 31
0.0
  0
ARC
  5
199
330
1F
100
AcDbEntity
  8
LAY-10
  6
CONTINUOUS
 62
     7
100
AcDbCircle
 10
805.7999999999848
 20
230.7000000000953
 30
0.0
 40
1.0
100
AcDbArc
 50
270.0
 51
0.0
  0
LINE
  5
19A
330
1F
100
AcDbEntity
  8
LAY-10
  6
CONTINUOUS
 62
     7
100
AcDbLine
 10
773.1999999999849
 20
262.300000000095
 30
0.0
 11
773.1999999999849
 21
230.7000000000951
 31
0.0
  0
LINE
  5
19B
330
1F
100
AcDbEntity
  8
LAY-10
  6
CONTINUOUS
 62
     7
100
AcDbLine
 10
805.7999999999848
 20
229.7000000000953
 30
0.0
 11
774.1999999999849
 21
229.7000000000953
 31
0.0
  0
ARC
  5
19C
330
1F
100
AcDbEntity
  8
LAY-10
  6
CONTINUOUS
 62
     7
100
AcDbCircle
 10
774.1999999999849
 20
230.7000000000953
 30
0.0
 40
1.0
100
AcDbArc
 50
180.0
 51
270.0
  0
ARC
  5
19D
330
1F
100
AcDbEntity
  8
LAY-10
  6
CONTINUOUS
 62
     7
100
AcDbCircle
 10
773.999999999985
 20
262.500000000095
 30
0.0
 40
4.0
100
AcDbArc
 50
90.00000000000001
 51
180.0
  0
ARC
  5
19E
330
1F
100
AcDbEntity
  8
LAY-10
  6
CONTINUOUS
 62
     7
100
AcDbCircle
 10
805.9999999999849
 20
262.500000000095
 30
0.0
 40
4.0
100
AcDbArc
 50
0.0
 51
90.00000000000001
  0
LINE
  5
19F
330
1F
100
AcDbEntity
  8
LAY-10
  6
CONTINUOUS
 62
     7
100
AcDbLine
 10
769.9999999999849
 20
262.500000000095
 30
0.0
 11
769.9999999999849
 21
230.500000000095
 31
0.0
  0
ARC
  5
1A0
330
1F
100
AcDbEntity
  8
LAY-10
  6
CONTINUOUS
 62
     7
100
AcDbCircle
 10
773.999999999985
 20
230.500000000095
 30
0.0
 40
4.0
100
AcDbArc
 50
180.0
 51
270.0
  0
LINE
  5
1A1
330
1F
100
AcDbEntity
  8
LAY-10
  6
CONTINUOUS
 62
     7
100
AcDbLine
 10
809.9999999999849
 20
262.500000000095
 30
0.0
 11
809.9999999999849
 21
230.500000000095
 31
0.0
  0
ARC
  5
1A2
330
1F
100
AcDbEntity
  8
LAY-10
  6
CONTINUOUS
 62
     7
100
AcDbCircle
 10
805.9999999999849
 20
230.500000000095
 30
0.0
 40
4.0
100
AcDbArc
 50
270.0
 51
0.0
  0
LINE
  5
1A3
330
1F
100
AcDbEntity
  8
LAY-10
  6
CONTINUOUS
 62
     7
100
AcDbLine
 10
143.9999999999849
 20
226.4999999999995
 30
0.0
 11
805.9999999999849
 21
226.4999999999995
 31
0.0
  0
LINE
  5
1A4
330
1F
100
AcDbEntity
  8
LAY-10
  6
CONTINUOUS
 62
     7
100
AcDbLine
 10
269.9999999998658
 20
1092.999999999851
 30
0.0
 11
269.9999999998658
 21
1132.999999999851
 31
0.0
  0
LINE
  5
1A5
330
1F
100
AcDbEntity
  8
LAY-10
  6
CONTINUOUS
 62
     7
100
AcDbLine
 10
229.9999999998668
 20
1092.999999999851
 30
0.0
 11
229.9999999998668
 21
1132.999999999851
 31
0.0
  0
LINE
  5
1A6
330
1F
100
AcDbEntity
  8
LAY-10
  6
CONTINUOUS
 62
     7
100
AcDbLine
 10
229.9999999998668
 20
1125.499999999851
 30
0.0
 11
269.9999999998658
 21
1125.499999999851
 31
0.0
  0
LINE
  5
1A7
330
1F
100
AcDbEntity
  8
LAY-10
  6
CONTINUOUS
 62
     7
100
AcDbLine
 10
229.9999999998668
 20
1132.999999999851
 30
0.0
 11
269.9999999998658
 21
1132.999999999851
 31
0.0
  0
LINE
  5
1A8
330
1F
100
AcDbEntity
  8
LAY-10
  6
CONTINUOUS
 62
     7
100
AcDbLine
 10
229.9999999998668
 20
1092.999999999851
 30
0.0
 11
269.9999999998658
 21
1092.999999999851
 31
0.0
  0
LINE
  5
1A9
330
1F
100
AcDbEntity
  8
LAY-10
  6
CONTINUOUS
 62
     7
100
AcDbLine
 10
229.9999999998668
 20
1100.499999999851
 30
0.0
 11
269.9999999998658
 21
1100.499999999851
 31
0.0
  0
LINE
  5
1AA
330
1F
100
AcDbEntity
  8
LAY-10
  6
CONTINUOUS
 62
     7
100
AcDbLine
 10
679.9999999998668
 20
1092.999999999852
 30
0.0
 11
679.9999999998668
 21
1132.999999999852
 31
0.0
  0
LINE
  5
1AB
330
1F
100
AcDbEntity
  8
LAY-10
  6
CONTINUOUS
 62
     7
100
AcDbLine
 10
719.9999999998668
 20
1092.999999999852
 30
0.0
 11
719.9999999998668
 21
1132.999999999852
 31
0.0
  0
LINE
  5
1AC
330
1F
100
AcDbEntity
  8
LAY-10
  6
CONTINUOUS
 62
     7
100
AcDbLine
 10
719.9999999998668
 20
1125.499999999852
 30
0.0
 11
679.9999999998668
 21
1125.499999999852
 31
0.0
  0
LINE
  5
1AD
330
1F
100
AcDbEntity
  8
LAY-10
  6
CONTINUOUS
 62
     7
100
AcDbLine
 10
719.9999999998668
 20
1132.999999999852
 30
0.0
 11
679.9999999998668
 21
1132.999999999852
 31
0.0
  0
LINE
  5
1AE
330
1F
100
AcDbEntity
  8
LAY-10
  6
CONTINUOUS
 62
     7
100
AcDbLine
 10
719.9999999998668
 20
1092.999999999852
 30
0.0
 11
679.9999999998668
 21
1092.999999999852
 31
0.0
  0
LINE
  5
1AF
330
1F
100
AcDbEntity
  8
LAY-10
  6
CONTINUOUS
 62
     7
100
AcDbLine
 10
719.9999999998668
 20
1100.499999999852
 30
0.0
 11
679.9999999998668
 21
1100.499999999852
 31
0.0
  0
LINE
  5
1B0
330
1F
100
AcDbEntity
  8
LAY-10
  6
CONTINUOUS
 62
     7
100
AcDbLine
 10
814.0000000000001
 20
1163.000000000029
 30
0.0
 11
136.0000000000032
 21
1163.000000000029
 31
0.0
  0
LINE
  5
1B1
330
1F
100
AcDbEntity
  8
LAY-10
  6
CONTINUOUS
 62
     7
100
AcDbLine
 10
136.0000000000031
 20
1167.500000000029
 30
0.0
 11
136.0000000000032
 21
560.9999999999918
 31
0.0
  0
LINE
  5
1B2
330
1F
100
AcDbEntity
  8
LAY-10
  6
CONTINUOUS
 62
     7
100
AcDbLine
 10
818.5000000000034
 20
1167.500000000029
 30
0.0
 11
131.5000000000032
 21
1167.500000000029
 31
0.0
  0
LINE
  5
1B3
330
1F
100
AcDbEntity
  8
LAY-10
  6
CONTINUOUS
 62
     7
100
AcDbLine
 10
814.0000000000026
 20
560.9999999999918
 30
0.0
 11
814.0000000000024
 21
1167.500000000029
 31
0.0
  0
LINE
  5
1B4
330
1F
100
AcDbEntity
  8
LAY-10
  6
CONTINUOUS
 62
     7
100
AcDbLine
 10
622.9999999999816
 20
1183.499999999795
 30
0.0
 11
622.9999999999816
 21
1189.499999999795
 31
0.0
  0
LINE
  5
1B5
330
1F
100
AcDbEntity
  8
LAY-10
  6
CONTINUOUS
 62
     7
100
AcDbLine
 10
622.9999999999816
 20
1223.499999999895
 30
0.0
 11
622.9999999999816
 21
1229.499999999895
 31
0.0
  0
LINE
  5
1B6
330
1F
100
AcDbEntity
  8
LAY-10
  6
CONTINUOUS
 62
     7
100
AcDbLine
 10
637.9999999999816
 20
1183.499999999795
 30
0.0
 11
637.9999999999816
 21
1189.499999999795
 31
0.0
  0
LINE
  5
1B7
330
1F
100
AcDbEntity
  8
LAY-10
  6
CONTINUOUS
 62
     7
100
AcDbLine
 10
637.9999999999816
 20
1223.499999999895
 30
0.0
 11
637.9999999999816
 21
1229.499999999895
 31
0.0
  0
ARC
  5
1B8
330
1F
100
AcDbEntity
  8
LAY-10
  6
CONTINUOUS
 62
     7
100
AcDbCircle
 10
630.4999999999816
 20
1206.499999999845
 30
0.0
 40
5.0
100
AcDbArc
 50
53.13010235410481
 51
126.8698976459003
  0
ARC
  5
1B9
330
1F
100
AcDbEntity
  8
LAY-10
  6
CONTINUOUS
 62
     7
100
AcDbCircle
 10
630.4999999999816
 20
1206.499999999845
 30
0.0
 40
4.0
100
AcDbArc
 50
48.59037789393994
 51
131.4096221060601
  0
ARC
  5
1BA
330
1F
100
AcDbEntity
  8
LAY-10
  6
CONTINUOUS
 62
     7
100
AcDbCircle
 10
630.4999999999816
 20
1206.499999999845
 30
0.0
 40
4.0
100
AcDbArc
 50
228.5903778939492
 51
311.4096221060509
  0
ARC
  5
1BB
330
1F
100
AcDbEntity
  8
LAY-10
  6
CONTINUOUS
 62
     7
100
AcDbCircle
 10
630.4999999999816
 20
1206.499999999845
 30
0.0
 40
5.0
100
AcDbArc
 50
233.1301023541225
 51
306.8698976458775
  0
ARC
  5
1BC
330
1F
100
AcDbEntity
  8
LAY-10
  6
CONTINUOUS
 62
     7
100
AcDbCircle
 10
230.4999999999711
 20
1206.499999999845
 30
0.0
 40
5.0
100
AcDbArc
 50
53.13010235410481
 51
126.8698976459003
  0
ARC
  5
1BD
330
1F
100
AcDbEntity
  8
LAY-10
  6
CONTINUOUS
 62
     7
100
AcDbCircle
 10
230.4999999999711
 20
1206.499999999845
 30
0.0
 40
4.0
100
AcDbArc
 50
48.59037789393994
 51
131.4096221060601
  0
ARC
  5
1BE
330
1F
100
AcDbEntity
  8
LAY-10
  6
CONTINUOUS
 62
     7
100
AcDbCircle
 10
230.4999999999711
 20
1206.499999999845
 30
0.0
 40
4.0
100
AcDbArc
 50
228.5903778939492
 51
311.4096221060509
  0
ARC
  5
1BF
330
1F
100
AcDbEntity
  8
LAY-10
  6
CONTINUOUS
 62
     7
100
AcDbCircle
 10
230.4999999999711
 20
1206.499999999845
 30
0.0
 40
5.0
100
AcDbArc
 50
233.1301023541225
 51
306.8698976458775
  0
LINE
  5
1C0
330
1F
100
AcDbEntity
  8
LAY-10
  6
CONTINUOUS
 62
     7
100
AcDbLine
 10
324.4999999999812
 20
1183.499999999795
 30
0.0
 11
324.4999999999812
 21
1189.499999999795
 31
0.0
  0
LINE
  5
1C1
330
1F
100
AcDbEntity
  8
LAY-10
  6
CONTINUOUS
 62
     7
100
AcDbLine
 10
336.4999999999812
 20
1183.499999999795
 30
0.0
 11
336.4999999999812
 21
1189.499999999795
 31
0.0
  0
LINE
  5
1C2
330
1F
100
AcDbEntity
  8
LAY-10
  6
CONTINUOUS
 62
     7
100
AcDbLine
 10
324.4999999999812
 20
1203.499999999995
 30
0.0
 11
324.4999999999812
 21
1209.499999999995
 31
0.0
  0
LINE
  5
1C3
330
1F
100
AcDbEntity
  8
LAY-10
  6
CONTINUOUS
 62
     7
100
AcDbLine
 10
336.4999999999812
 20
1203.499999999995
 30
0.0
 11
336.4999999999812
 21
1209.499999999995
 31
0.0
  0
LINE
  5
1C4
330
1F
100
AcDbEntity
  8
LAY-10
  6
CONTINUOUS
 62
     7
100
AcDbLine
 10
324.4999999999812
 20
1223.499999999895
 30
0.0
 11
324.4999999999812
 21
1229.499999999895
 31
0.0
  0
LINE
  5
1C5
330
1F
100
AcDbEntity
  8
LAY-10
  6
CONTINUOUS
 62
     7
100
AcDbLine
 10
336.4999999999812
 20
1223.499999999895
 30
0.0
 11
336.4999999999812
 21
1229.499999999895
 31
0.0
  0
ARC
  5
1C6
330
1F
100
AcDbEntity
  8
LAY-10
  6
CONTINUOUS
 62
     7
100
AcDbCircle
 10
430.4999999999512
 20
1206.499999999845
 30
0.0
 40
5.0
100
AcDbArc
 50
53.13010235409815
 51
126.8698976458961
  0
ARC
  5
1C7
330
1F
100
AcDbEntity
  8
LAY-10
  6
CONTINUOUS
 62
     7
100
AcDbCircle
 10
430.4999999999512
 20
1206.499999999845
 30
0.0
 40
4.0
100
AcDbArc
 50
48.59037789393748
 51
131.4096221060625
  0
ARC
  5
1C8
330
1F
100
AcDbEntity
  8
LAY-10
  6
CONTINUOUS
 62
     7
100
AcDbCircle
 10
430.4999999999512
 20
1206.499999999845
 30
0.0
 40
4.0
100
AcDbArc
 50
228.5903778939515
 51
311.4096221060485
  0
ARC
  5
1C9
330
1F
100
AcDbEntity
  8
LAY-10
  6
CONTINUOUS
 62
     7
100
AcDbCircle
 10
430.4999999999512
 20
1206.499999999845
 30
0.0
 40
5.0
100
AcDbArc
 50
233.1301023541234
 51
306.8698976458766
  0
LINE
  5
1CA
330
1F
100
AcDbEntity
  8
LAY-10
  6
CONTINUOUS
 62
     7
100
AcDbLine
 10
233.4999999999743
 20
1210.499999999843
 30
0.0
 11
427.4999999999484
 21
1210.499999999843
 31
0.0
  0
LINE
  5
1CB
330
1F
100
AcDbEntity
  8
LAY-10
  6
CONTINUOUS
 62
     7
100
AcDbLine
 10
427.4999999999494
 20
1202.499999999847
 30
0.0
 11
233.4999999999734
 21
1202.499999999847
 31
0.0
  0
LINE
  5
1CC
330
1F
100
AcDbEntity
  8
LAY-10
  6
CONTINUOUS
 62
     7
100
AcDbLine
 10
433.4999999999539
 20
1210.499999999843
 30
0.0
 11
627.4999999999789
 21
1210.499999999843
 31
0.0
  0
LINE
  5
1CD
330
1F
100
AcDbEntity
  8
LAY-10
  6
CONTINUOUS
 62
     7
100
AcDbLine
 10
627.4999999999793
 20
1202.499999999847
 30
0.0
 11
433.499999999953
 21
1202.499999999847
 31
0.0
  0
LINE
  5
1CE
330
1F
100
AcDbEntity
  8
LAY-10
  6
CONTINUOUS
 62
     7
100
AcDbLine
 10
524.4999999999811
 20
1183.499999999795
 30
0.0
 11
524.4999999999811
 21
1189.499999999795
 31
0.0
  0
LINE
  5
1CF
330
1F
100
AcDbEntity
  8
LAY-10
  6
CONTINUOUS
 62
     7
100
AcDbLine
 10
536.4999999999811
 20
1183.499999999795
 30
0.0
 11
536.4999999999811
 21
1189.499999999795
 31
0.0
  0
LINE
  5
1D0
330
1F
100
AcDbEntity
  8
LAY-10
  6
CONTINUOUS
 62
     7
100
AcDbLine
 10
524.4999999999811
 20
1203.499999999695
 30
0.0
 11
524.4999999999811
 21
1209.499999999695
 31
0.0
  0
LINE
  5
1D1
330
1F
100
AcDbEntity
  8
LAY-10
  6
CONTINUOUS
 62
     7
100
AcDbLine
 10
536.4999999999811
 20
1203.499999999695
 30
0.0
 11
536.4999999999811
 21
1209.499999999695
 31
0.0
  0
LINE
  5
1D2
330
1F
100
AcDbEntity
  8
LAY-10
  6
CONTINUOUS
 62
     7
100
AcDbLine
 10
524.4999999999811
 20
1223.499999999895
 30
0.0
 11
524.4999999999811
 21
1229.499999999895
 31
0.0
  0
LINE
  5
1D3
330
1F
100
AcDbEntity
  8
LAY-10
  6
CONTINUOUS
 62
     7
100
AcDbLine
 10
536.4999999999811
 20
1223.499999999895
 30
0.0
 11
536.4999999999811
 21
1229.499999999895
 31
0.0
  0
LINE
  5
1D4
330
1F
100
AcDbEntity
  8
LAY-10
  6
CONTINUOUS
 62
     7
100
AcDbLine
 10
736.4999999999819
 20
1183.499999999795
 30
0.0
 11
736.4999999999819
 21
1189.499999999795
 31
0.0
  0
LINE
  5
1D5
330
1F
100
AcDbEntity
  8
LAY-10
  6
CONTINUOUS
 62
     7
100
AcDbLine
 10
724.499999999982
 20
1183.499999999795
 30
0.0
 11
724.499999999982
 21
1189.499999999795
 31
0.0
  0
LINE
  5
1D6
330
1F
100
AcDbEntity
  8
LAY-10
  6
CONTINUOUS
 62
     7
100
AcDbLine
 10
736.4999999999819
 20
1203.499999999695
 30
0.0
 11
736.4999999999819
 21
1209.499999999695
 31
0.0
  0
LINE
  5
1D7
330
1F
100
AcDbEntity
  8
LAY-10
  6
CONTINUOUS
 62
     7
100
AcDbLine
 10
724.499999999982
 20
1203.499999999695
 30
0.0
 11
724.499999999982
 21
1209.499999999695
 31
0.0
  0
LINE
  5
1D8
330
1F
100
AcDbEntity
  8
LAY-10
  6
CONTINUOUS
 62
     7
100
AcDbLine
 10
736.4999999999819
 20
1223.499999999895
 30
0.0
 11
736.4999999999819
 21
1229.499999999895
 31
0.0
  0
LINE
  5
1D9
330
1F
100
AcDbEntity
  8
LAY-10
  6
CONTINUOUS
 62
     7
100
AcDbLine
 10
724.499999999982
 20
1223.499999999895
 30
0.0
 11
724.499999999982
 21
1229.499999999895
 31
0.0
  0
LINE
  5
1DA
330
1F
100
AcDbEntity
  8
LAY-10
  6
CONTINUOUS
 62
     7
100
AcDbLine
 10
132.4999999999811
 20
1242.499999999845
 30
0.0
 11
132.4999999999811
 21
1230.499999999845
 31
0.0
  0
LINE
  5
1DB
330
1F
100
AcDbEntity
  8
LAY-10
  6
CONTINUOUS
 62
     7
100
AcDbLine
 10
131.4999999999811
 20
1243.499999999845
 30
0.0
 11
132.4999999999811
 21
1242.499999999845
 31
0.0
  0
LINE
  5
1DC
330
1F
100
AcDbEntity
  8
LAY-10
  6
CONTINUOUS
 62
     7
100
AcDbLine
 10
132.4999999999811
 20
1222.499999999845
 30
0.0
 11
132.4999999999811
 21
1210.499999999845
 31
0.0
  0
LINE
  5
1DD
330
1F
100
AcDbEntity
  8
LAY-10
  6
CONTINUOUS
 62
     7
100
AcDbLine
 10
132.4999999999811
 20
1190.499999999845
 30
0.0
 11
132.4999999999811
 21
1202.499999999845
 31
0.0
  0
LINE
  5
1DE
330
1F
100
AcDbEntity
  8
LAY-10
  6
CONTINUOUS
 62
     7
100
AcDbLine
 10
132.4999999999811
 20
1170.499999999945
 30
0.0
 11
132.4999999999811
 21
1182.499999999745
 31
0.0
  0
LINE
  5
1DF
330
1F
100
AcDbEntity
  8
LAY-10
  6
CONTINUOUS
 62
     7
100
AcDbLine
 10
132.4999999999811
 20
1170.499999999945
 30
0.0
 11
131.4999999999811
 21
1169.499999999895
 31
0.0
  0
LINE
  5
1E0
330
1F
100
AcDbEntity
  8
LAY-10
  6
CONTINUOUS
 62
     7
100
AcDbLine
 10
227.4999999999689
 20
1202.499999999847
 30
0.0
 11
132.4999999999811
 21
1202.499999999847
 31
0.0
  0
LINE
  5
1E1
330
1F
100
AcDbEntity
  8
LAY-10
  6
CONTINUOUS
 62
     7
100
AcDbLine
 10
132.4999999999811
 20
1210.499999999843
 30
0.0
 11
227.4999999999679
 21
1210.499999999843
 31
0.0
  0
LINE
  5
1E2
330
1F
100
AcDbEntity
  8
LAY-10
  6
CONTINUOUS
 62
     7
100
AcDbLine
 10
422.9999999999412
 20
1183.499999999795
 30
0.0
 11
422.9999999999412
 21
1189.499999999795
 31
0.0
  0
LINE
  5
1E3
330
1F
100
AcDbEntity
  8
LAY-10
  6
CONTINUOUS
 62
     7
100
AcDbLine
 10
437.9999999999412
 20
1183.499999999795
 30
0.0
 11
437.9999999999412
 21
1189.499999999795
 31
0.0
  0
LINE
  5
1E4
330
1F
100
AcDbEntity
  8
LAY-10
  6
CONTINUOUS
 62
     7
100
AcDbLine
 10
437.9999999999412
 20
1223.499999999895
 30
0.0
 11
437.9999999999412
 21
1229.499999999895
 31
0.0
  0
LINE
  5
1E5
330
1F
100
AcDbEntity
  8
LAY-10
  6
CONTINUOUS
 62
     7
100
AcDbLine
 10
422.9999999999412
 20
1223.499999999895
 30
0.0
 11
422.9999999999412
 21
1229.499999999895
 31
0.0
  0
LINE
  5
1E6
330
1F
100
AcDbEntity
  8
LAY-10
  6
CONTINUOUS
 62
     7
100
AcDbLine
 10
222.9999999999516
 20
1223.499999999895
 30
0.0
 11
222.9999999999516
 21
1229.499999999895
 31
0.0
  0
LINE
  5
1E7
330
1F
100
AcDbEntity
  8
LAY-10
  6
CONTINUOUS
 62
     7
100
AcDbLine
 10
237.9999999999516
 20
1223.499999999895
 30
0.0
 11
237.9999999999516
 21
1229.499999999895
 31
0.0
  0
LINE
  5
1E8
330
1F
100
AcDbEntity
  8
LAY-10
  6
CONTINUOUS
 62
     7
100
AcDbLine
 10
222.9999999999516
 20
1183.499999999795
 30
0.0
 11
222.9999999999516
 21
1189.499999999795
 31
0.0
  0
LINE
  5
1E9
330
1F
100
AcDbEntity
  8
LAY-10
  6
CONTINUOUS
 62
     7
100
AcDbLine
 10
237.9999999999516
 20
1183.499999999795
 30
0.0
 11
237.9999999999516
 21
1189.499999999795
 31
0.0
  0
LINE
  5
1EA
330
1F
100
AcDbEntity
  8
LAY-10
  6
CONTINUOUS
 62
     7
100
AcDbLine
 10
132.0999999999715
 20
1230.099999999817
 30
0.0
 11
143.8999999999812
 21
1230.099999999817
 31
0.0
  0
LINE
  5
1EB
330
1F
100
AcDbEntity
  8
LAY-10
  6
CONTINUOUS
 62
     7
100
AcDbLine
 10
132.0999999999715
 20
1230.099999999817
 30
0.0
 11
132.0999999999715
 21
1222.899999999776
 31
0.0
  0
LINE
  5
1EC
330
1F
100
AcDbEntity
  8
LAY-10
  6
CONTINUOUS
 62
     7
100
AcDbLine
 10
132.1000000000015
 20
1222.899999999777
 30
0.0
 11
143.8999999999812
 21
1222.899999999777
 31
0.0
  0
LINE
  5
1ED
330
1F
100
AcDbEntity
  8
LAY-10
  6
CONTINUOUS
 62
     7
100
AcDbLine
 10
143.8999999999812
 20
1230.099999999817
 30
0.0
 11
143.8999999999812
 21
1222.899999999777
 31
0.0
  0
LINE
  5
1EE
330
1F
100
AcDbEntity
  8
LAY-10
  6
CONTINUOUS
 62
     7
100
AcDbLine
 10
143.8999999999812
 20
1230.099999999817
 30
0.0
 11
144.4999999999811
 21
1229.499999999797
 31
0.0
  0
LINE
  5
1EF
330
1F
100
AcDbEntity
  8
LAY-10
  6
CONTINUOUS
 62
     7
100
AcDbLine
 10
143.9000000000012
 20
1222.899999999777
 30
0.0
 11
144.5000000000011
 21
1223.499999999797
 31
0.0
  0
LINE
  5
1F0
330
1F
100
AcDbEntity
  8
LAY-10
  6
CONTINUOUS
 62
     7
100
AcDbLine
 10
132.4999999999811
 20
1230.499999999845
 30
0.0
 11
132.0999999999524
 21
1230.099999999817
 31
0.0
  0
LINE
  5
1F1
330
1F
100
AcDbEntity
  8
LAY-10
  6
CONTINUOUS
 62
     7
100
AcDbLine
 10
132.4999999999811
 20
1222.499999999845
 30
0.0
 11
132.0999999999715
 21
1222.899999999875
 31
0.0
  0
LINE
  5
1F2
330
1F
100
AcDbEntity
  8
LAY-10
  6
CONTINUOUS
 62
     7
100
AcDbLine
 10
144.4999999998811
 20
1229.499999999895
 30
0.0
 11
144.4999999998811
 21
1223.499999999895
 31
0.0
  0
LINE
  5
1F3
330
1F
100
AcDbEntity
  8
LAY-10
  6
CONTINUOUS
 62
     7
100
AcDbLine
 10
132.0999999999715
 20
1210.099999999817
 30
0.0
 11
143.8999999999812
 21
1210.099999999817
 31
0.0
  0
LINE
  5
1F4
330
1F
100
AcDbEntity
  8
LAY-10
  6
CONTINUOUS
 62
     7
100
AcDbLine
 10
132.0999999999715
 20
1210.099999999817
 30
0.0
 11
132.0999999999715
 21
1202.899999999776
 31
0.0
  0
LINE
  5
1F5
330
1F
100
AcDbEntity
  8
LAY-10
  6
CONTINUOUS
 62
     7
100
AcDbLine
 10
132.1000000000015
 20
1202.899999999777
 30
0.0
 11
143.8999999999812
 21
1202.899999999777
 31
0.0
  0
LINE
  5
1F6
330
1F
100
AcDbEntity
  8
LAY-10
  6
CONTINUOUS
 62
     7
100
AcDbLine
 10
143.8999999999812
 20
1210.099999999817
 30
0.0
 11
143.8999999999812
 21
1202.899999999777
 31
0.0
  0
LINE
  5
1F7
330
1F
100
AcDbEntity
  8
LAY-10
  6
CONTINUOUS
 62
     7
100
AcDbLine
 10
143.8999999999812
 20
1210.099999999817
 30
0.0
 11
144.4999999999811
 21
1209.499999999797
 31
0.0
  0
LINE
  5
1F8
330
1F
100
AcDbEntity
  8
LAY-10
  6
CONTINUOUS
 62
     7
100
AcDbLine
 10
143.9000000000012
 20
1202.899999999777
 30
0.0
 11
144.5000000000011
 21
1203.499999999797
 31
0.0
  0
LINE
  5
1F9
330
1F
100
AcDbEntity
  8
LAY-10
  6
CONTINUOUS
 62
     7
100
AcDbLine
 10
132.4999999999811
 20
1210.499999999845
 30
0.0
 11
132.0999999998924
 21
1210.099999999817
 31
0.0
  0
LINE
  5
1FA
330
1F
100
AcDbEntity
  8
LAY-10
  6
CONTINUOUS
 62
     7
100
AcDbLine
 10
132.4999999999811
 20
1202.499999999845
 30
0.0
 11
132.0999999999715
 21
1202.899999999795
 31
0.0
  0
LINE
  5
1FB
330
1F
100
AcDbEntity
  8
LAY-10
  6
CONTINUOUS
 62
     7
100
AcDbLine
 10
227.8542486890749
 20
1209.499999999994
 30
0.0
 11
144.4999999997842
 21
1209.499999999994
 31
0.0
  0
LINE
  5
1FC
330
1F
100
AcDbEntity
  8
LAY-10
  6
CONTINUOUS
 62
     7
100
AcDbLine
 10
227.8542486890753
 20
1203.499999999696
 30
0.0
 11
144.4999999999011
 21
1203.499999999697
 31
0.0
  0
LINE
  5
1FD
330
1F
100
AcDbEntity
  8
LAY-10
  6
CONTINUOUS
 62
     7
100
AcDbLine
 10
144.499999999781
 20
1209.499999999995
 30
0.0
 11
144.499999999781
 21
1203.499999999697
 31
0.0
  0
LINE
  5
1FE
330
1F
100
AcDbEntity
  8
LAY-10
  6
CONTINUOUS
 62
     7
100
AcDbLine
 10
132.0999999999715
 20
1190.099999999817
 30
0.0
 11
143.8999999999812
 21
1190.099999999817
 31
0.0
  0
LINE
  5
1FF
330
1F
100
AcDbEntity
  8
LAY-10
  6
CONTINUOUS
 62
     7
100
AcDbLine
 10
132.0999999999715
 20
1190.099999999817
 30
0.0
 11
132.0999999999715
 21
1182.899999999776
 31
0.0
  0
LINE
  5
200
330
1F
100
AcDbEntity
  8
LAY-10
  6
CONTINUOUS
 62
     7
100
AcDbLine
 10
132.1000000000015
 20
1182.899999999777
 30
0.0
 11
143.8999999999812
 21
1182.899999999777
 31
0.0
  0
LINE
  5
201
330
1F
100
AcDbEntity
  8
LAY-10
  6
CONTINUOUS
 62
     7
100
AcDbLine
 10
143.8999999999812
 20
1190.099999999817
 30
0.0
 11
143.8999999999812
 21
1182.899999999777
 31
0.0
  0
LINE
  5
202
330
1F
100
AcDbEntity
  8
LAY-10
  6
CONTINUOUS
 62
     7
100
AcDbLine
 10
143.8999999999812
 20
1190.099999999817
 30
0.0
 11
144.4999999999811
 21
1189.499999999797
 31
0.0
  0
LINE
  5
203
330
1F
100
AcDbEntity
  8
LAY-10
  6
CONTINUOUS
 62
     7
100
AcDbLine
 10
143.9000000000012
 20
1182.899999999777
 30
0.0
 11
144.5000000000011
 21
1183.499999999797
 31
0.0
  0
LINE
  5
204
330
1F
100
AcDbEntity
  8
LAY-10
  6
CONTINUOUS
 62
     7
100
AcDbLine
 10
132.4999999999811
 20
1190.499999999845
 30
0.0
 11
132.0999999999715
 21
1190.099999999816
 31
0.0
  0
LINE
  5
205
330
1F
100
AcDbEntity
  8
LAY-10
  6
CONTINUOUS
 62
     7
100
AcDbLine
 10
132.4999999999811
 20
1182.499999999745
 30
0.0
 11
132.0999999999697
 21
1182.899999999777
 31
0.0
  0
LINE
  5
206
330
1F
100
AcDbEntity
  8
LAY-10
  6
CONTINUOUS
 62
     7
100
AcDbLine
 10
144.4999999999811
 20
1189.499999999795
 30
0.0
 11
144.4999999999811
 21
1183.499999999798
 31
0.0
  0
LINE
  5
207
330
1F
100
AcDbEntity
  8
LAY-10
  6
CONTINUOUS
 62
     7
100
AcDbLine
 10
536.4999999999811
 20
1223.499999999895
 30
0.0
 11
536.4999999999811
 21
1229.499999999895
 31
0.0
  0
LINE
  5
208
330
1F
100
AcDbEntity
  8
LAY-10
  6
CONTINUOUS
 62
     7
100
AcDbLine
 10
524.4999999999811
 20
1203.499999999995
 30
0.0
 11
524.4999999999811
 21
1209.499999999995
 31
0.0
  0
LINE
  5
209
330
1F
100
AcDbEntity
  8
LAY-10
  6
CONTINUOUS
 62
     7
100
AcDbLine
 10
736.4999999999811
 20
1223.499999999895
 30
0.0
 11
736.4999999999811
 21
1229.499999999895
 31
0.0
  0
LINE
  5
20A
330
1F
100
AcDbEntity
  8
LAY-10
  6
CONTINUOUS
 62
     7
100
AcDbLine
 10
724.4999999999811
 20
1203.499999999995
 30
0.0
 11
724.4999999999811
 21
1209.499999999995
 31
0.0
  0
LINE
  5
20B
330
1F
100
AcDbEntity
  8
LAY-10
  6
CONTINUOUS
 62
     7
100
AcDbLine
 10
131.4999999999816
 20
1243.499999999795
 30
0.0
 11
131.4999999999816
 21
1169.499999999893
 31
0.0
  0
LINE
  5
20C
330
1F
100
AcDbEntity
  8
LAY-10
  6
CONTINUOUS
 62
     7
100
AcDbLine
 10
427.8542486890545
 20
1209.499999999993
 30
0.0
 11
233.1457513108678
 21
1209.499999999993
 31
0.0
  0
LINE
  5
20D
330
1F
100
AcDbEntity
  8
LAY-10
  6
CONTINUOUS
 62
     7
100
AcDbLine
 10
427.8542486890549
 20
1203.499999999696
 30
0.0
 11
233.1457513108669
 21
1203.499999999696
 31
0.0
  0
LINE
  5
20E
330
1F
100
AcDbEntity
  8
LAY-10
  6
CONTINUOUS
 62
     7
100
AcDbLine
 10
627.8542486890849
 20
1209.499999999993
 30
0.0
 11
433.1457513108474
 21
1209.499999999993
 31
0.0
  0
LINE
  5
20F
330
1F
100
AcDbEntity
  8
LAY-10
  6
CONTINUOUS
 62
     7
100
AcDbLine
 10
627.8542486890854
 20
1203.499999999696
 30
0.0
 11
433.1457513108474
 21
1203.499999999696
 31
0.0
  0
CIRCLE
  5
210
330
1F
100
AcDbEntity
  8
LAY-10
  6
CONTINUOUS
 62
     7
100
AcDbCircle
 10
630.5000000002126
 20
1228.999999999834
 30
0.0
 40
2.3
  0
CIRCLE
  5
211
330
1F
100
AcDbEntity
  8
LAY-10
  6
CONTINUOUS
 62
     7
100
AcDbCircle
 10
630.5000000002126
 20
1183.999999999856
 30
0.0
 40
2.3
  0
CIRCLE
  5
212
330
1F
100
AcDbEntity
  8
LAY-10
  6
CONTINUOUS
 62
     7
100
AcDbCircle
 10
430.5000000001826
 20
1228.999999999834
 30
0.0
 40
2.3
  0
CIRCLE
  5
213
330
1F
100
AcDbEntity
  8
LAY-10
  6
CONTINUOUS
 62
     7
100
AcDbCircle
 10
430.5000000001826
 20
1183.999999999856
 30
0.0
 40
2.3
  0
CIRCLE
  5
214
330
1F
100
AcDbEntity
  8
LAY-10
  6
CONTINUOUS
 62
     7
100
AcDbCircle
 10
230.5000000002026
 20
1228.999999999834
 30
0.0
 40
2.3
  0
CIRCLE
  5
215
330
1F
100
AcDbEntity
  8
LAY-10
  6
CONTINUOUS
 62
     7
100
AcDbCircle
 10
230.5000000002026
 20
1183.999999999856
 30
0.0
 40
2.3
  0
LINE
  5
216
330
1F
100
AcDbEntity
  8
LAY-10
  6
CONTINUOUS
 62
     7
100
AcDbLine
 10
132.4999999999811
 20
1230.499999999893
 30
0.0
 11
228.7564404228362
 21
1230.499999999893
 31
0.0
  0
LINE
  5
217
330
1F
100
AcDbEntity
  8
LAY-10
  6
CONTINUOUS
 62
     7
100
AcDbLine
 10
228.2550055681511
 20
1229.499999999893
 30
0.0
 11
144.4999999998847
 21
1229.499999999893
 31
0.0
  0
LINE
  5
218
330
1F
100
AcDbEntity
  8
LAY-10
  6
CONTINUOUS
 62
     7
100
AcDbLine
 10
228.7564404228808
 20
1182.499999999747
 30
0.0
 11
132.4999999999811
 21
1182.499999999747
 31
0.0
  0
LINE
  5
219
330
1F
100
AcDbEntity
  8
LAY-10
  6
CONTINUOUS
 62
     7
100
AcDbLine
 10
228.2550055681516
 20
1183.499999999798
 30
0.0
 11
144.500000000002
 21
1183.499999999798
 31
0.0
  0
LINE
  5
21A
330
1F
100
AcDbEntity
  8
LAY-10
  6
CONTINUOUS
 62
     7
100
AcDbLine
 10
232.2435595775685
 20
1230.499999999893
 30
0.0
 11
428.7564404228164
 21
1230.499999999893
 31
0.0
  0
LINE
  5
21B
330
1F
100
AcDbEntity
  8
LAY-10
  6
CONTINUOUS
 62
     7
100
AcDbLine
 10
428.2550055681311
 20
1229.499999999893
 30
0.0
 11
232.7449944322537
 21
1229.499999999893
 31
0.0
  0
LINE
  5
21C
330
1F
100
AcDbEntity
  8
LAY-10
  6
CONTINUOUS
 62
     7
100
AcDbLine
 10
428.7564404228609
 20
1182.499999999747
 30
0.0
 11
232.2435595775244
 21
1182.499999999746
 31
0.0
  0
LINE
  5
21D
330
1F
100
AcDbEntity
  8
LAY-10
  6
CONTINUOUS
 62
     7
100
AcDbLine
 10
428.2550055681316
 20
1183.499999999797
 30
0.0
 11
232.7449944322537
 21
1183.499999999797
 31
0.0
  0
LINE
  5
21E
330
1F
100
AcDbEntity
  8
LAY-10
  6
CONTINUOUS
 62
     7
100
AcDbLine
 10
628.7564404228908
 20
1182.499999999746
 30
0.0
 11
432.2435595775045
 21
1182.499999999746
 31
0.0
  0
LINE
  5
21F
330
1F
100
AcDbEntity
  8
LAY-10
  6
CONTINUOUS
 62
     7
100
AcDbLine
 10
628.2550055681616
 20
1183.499999999797
 30
0.0
 11
432.7449944322337
 21
1183.499999999797
 31
0.0
  0
LINE
  5
220
330
1F
100
AcDbEntity
  8
LAY-10
  6
CONTINUOUS
 62
     7
100
AcDbLine
 10
432.2435595775485
 20
1230.499999999893
 30
0.0
 11
628.7564404228467
 21
1230.499999999893
 31
0.0
  0
LINE
  5
221
330
1F
100
AcDbEntity
  8
LAY-10
  6
CONTINUOUS
 62
     7
100
AcDbLine
 10
628.2550055681616
 20
1229.499999999894
 30
0.0
 11
432.7449944322337
 21
1229.499999999894
 31
0.0
  0
LINE
  5
222
330
1F
100
AcDbEntity
  8
LAY-10
  6
CONTINUOUS
 62
     7
100
AcDbLine
 10
818.5000000000002
 20
1202.499999999847
 30
0.0
 11
633.4999999999839
 21
1202.499999999847
 31
0.0
  0
LINE
  5
223
330
1F
100
AcDbEntity
  8
LAY-10
  6
CONTINUOUS
 62
     7
100
AcDbLine
 10
633.4999999999843
 20
1210.499999999843
 30
0.0
 11
818.5000000000002
 21
1210.499999999843
 31
0.0
  0
LINE
  5
224
330
1F
100
AcDbEntity
  8
LAY-10
  6
CONTINUOUS
 62
     7
100
AcDbLine
 10
132.4999999999811
 20
1170.499999999943
 30
0.0
 11
818.5000000000002
 21
1170.499999999943
 31
0.0
  0
LINE
  5
225
330
1F
100
AcDbEntity
  8
LAY-10
  6
CONTINUOUS
 62
     7
100
AcDbLine
 10
132.4999999999811
 20
1190.499999999843
 30
0.0
 11
818.5000000000002
 21
1190.499999999843
 31
0.0
  0
LINE
  5
226
330
1F
100
AcDbEntity
  8
LAY-10
  6
CONTINUOUS
 62
     7
100
AcDbLine
 10
818.5000000000002
 20
1222.499999999847
 30
0.0
 11
132.4999999999811
 21
1222.499999999847
 31
0.0
  0
LINE
  5
227
330
1F
100
AcDbEntity
  8
LAY-10
  6
CONTINUOUS
 62
     7
100
AcDbLine
 10
818.5000000000002
 20
1242.499999999797
 30
0.0
 11
132.4999999999811
 21
1242.499999999797
 31
0.0
  0
LINE
  5
228
330
1F
100
AcDbEntity
  8
LAY-10
  6
CONTINUOUS
 62
     7
100
AcDbLine
 10
818.5000000000002
 20
1169.499999999894
 30
0.0
 11
131.4999999999793
 21
1169.499999999893
 31
0.0
  0
LINE
  5
229
330
1F
100
AcDbEntity
  8
LAY-10
  6
CONTINUOUS
 62
     7
100
AcDbLine
 10
818.5000000000002
 20
1243.499999999797
 30
0.0
 11
131.5000000000298
 21
1243.499999999797
 31
0.0
  0
LINE
  5
22A
330
1F
100
AcDbEntity
  8
LAY-10
  6
CONTINUOUS
 62
     7
100
AcDbLine
 10
818.5000000000002
 20
1223.499999999895
 30
0.0
 11
144.5000000000994
 21
1223.499999999895
 31
0.0
  0
LINE
  5
22B
330
1F
100
AcDbEntity
  8
LAY-10
  6
CONTINUOUS
 62
     7
100
AcDbLine
 10
818.5000000000002
 20
1189.499999999796
 30
0.0
 11
144.4999999999829
 21
1189.499999999796
 31
0.0
  0
LINE
  5
22C
330
1F
100
AcDbEntity
  8
LAY-10
  6
CONTINUOUS
 62
     7
100
AcDbLine
 10
633.1457513112161
 20
1209.499999999695
 30
0.0
 11
818.5000000000002
 21
1209.499999999695
 31
0.0
  0
LINE
  5
22D
330
1F
100
AcDbEntity
  8
LAY-10
  6
CONTINUOUS
 62
     7
100
AcDbLine
 10
633.145751310876
 20
1203.499999999695
 30
0.0
 11
818.5000000000002
 21
1203.499999999695
 31
0.0
  0
LINE
  5
22E
330
1F
100
AcDbEntity
  8
LAY-10
  6
CONTINUOUS
 62
     7
100
AcDbLine
 10
632.2435595775785
 20
1230.499999999893
 30
0.0
 11
818.5000000000002
 21
1230.499999999893
 31
0.0
  0
LINE
  5
22F
330
1F
100
AcDbEntity
  8
LAY-10
  6
CONTINUOUS
 62
     7
100
AcDbLine
 10
818.5000000000002
 20
1229.499999999894
 30
0.0
 11
632.7449944322636
 21
1229.499999999894
 31
0.0
  0
LINE
  5
230
330
1F
100
AcDbEntity
  8
LAY-10
  6
CONTINUOUS
 62
     7
100
AcDbLine
 10
818.5000000000002
 20
1182.499999999747
 30
0.0
 11
632.2435595775344
 21
1182.499999999746
 31
0.0
  0
LINE
  5
231
330
1F
100
AcDbEntity
  8
LAY-10
  6
CONTINUOUS
 62
     7
100
AcDbLine
 10
818.5000000000002
 20
1183.499999999798
 30
0.0
 11
632.7449944322636
 21
1183.499999999797
 31
0.0
  0
LINE
  5
232
330
1F
100
AcDbEntity
  8
LAY-10
  6
CONTINUOUS
 62
     7
100
AcDbLine
 10
818.5000000000002
 20
1243.49999999979
 30
0.0
 11
818.5000000000002
 21
1229.499999999894
 31
0.0
  0
LINE
  5
233
330
1F
100
AcDbEntity
  8
LAY-10
  6
CONTINUOUS
 62
     7
100
AcDbLine
 10
818.5000000000002
 20
1223.499999999895
 30
0.0
 11
818.5000000000002
 21
1209.499999999695
 31
0.0
  0
LINE
  5
234
330
1F
100
AcDbEntity
  8
LAY-10
  6
CONTINUOUS
 62
     7
100
AcDbLine
 10
818.5000000000002
 20
1203.499999999695
 30
0.0
 11
818.5000000000002
 21
1189.499999999796
 31
0.0
  0
LINE
  5
235
330
1F
100
AcDbEntity
  8
LAY-10
  6
CONTINUOUS
 62
     7
100
AcDbLine
 10
818.5000000000002
 20
1183.499999999798
 30
0.0
 11
818.5000000000002
 21
1169.49999999989
 31
0.0
  0
ARC
  5
236
330
1F
100
AcDbEntity
  8
LAY-10
  6
CONTINUOUS
 62
     7
100
AcDbCircle
 10
230.4999999999699
 20
1206.49999999981
 30
0.0
 40
5.25
100
AcDbArc
 50
145.1500954190454
 51
214.8499045810927
  0
LINE
  5
237
330
1F
100
AcDbEntity
  8
LAY-10
  6
CONTINUOUS
 62
     7
100
AcDbLine
 10
222.9999999999297
 20
1209.499999999953
 30
0.0
 11
222.9999999999297
 21
1203.499999999656
 31
0.0
  0
ARC
  5
238
330
1F
100
AcDbEntity
  8
LAY-10
  6
CONTINUOUS
 62
     7
100
AcDbCircle
 10
230.4999999999699
 20
1206.49999999981
 30
0.0
 40
5.25
100
AcDbArc
 50
325.1500954189072
 51
34.84990458094907
  0
LINE
  5
239
330
1F
100
AcDbEntity
  8
LAY-10
  6
CONTINUOUS
 62
     7
100
AcDbLine
 10
237.9999999999293
 20
1209.49999999995
 30
0.0
 11
237.9999999999293
 21
1203.49999999966
 31
0.0
  0
ARC
  5
23A
330
1F
100
AcDbEntity
  8
LAY-10
  6
CONTINUOUS
 62
     7
100
AcDbCircle
 10
630.4999999999799
 20
1206.49999999981
 30
0.0
 40
5.25
100
AcDbArc
 50
145.1500954190454
 51
214.8499045810927
  0
LINE
  5
23B
330
1F
100
AcDbEntity
  8
LAY-10
  6
CONTINUOUS
 62
     7
100
AcDbLine
 10
622.9999999999396
 20
1209.499999999953
 30
0.0
 11
622.9999999999396
 21
1203.499999999656
 31
0.0
  0
ARC
  5
23C
330
1F
100
AcDbEntity
  8
LAY-10
  6
CONTINUOUS
 62
     7
100
AcDbCircle
 10
630.4999999999799
 20
1206.49999999981
 30
0.0
 40
5.25
100
AcDbArc
 50
325.1500954189072
 51
34.84990458094907
  0
LINE
  5
23D
330
1F
100
AcDbEntity
  8
LAY-10
  6
CONTINUOUS
 62
     7
100
AcDbLine
 10
637.9999999999393
 20
1209.49999999995
 30
0.0
 11
637.9999999999393
 21
1203.49999999966
 31
0.0
  0
LINE
  5
23E
330
1F
100
AcDbEntity
  8
LAY-10
  6
CONTINUOUS
 62
     7
100
AcDbLine
 10
201.0000000000024
 20
1152.500000000076
 30
0.0
 11
201.0000000000024
 21
1163.000000000076
 31
0.0
  0
LINE
  5
23F
330
1F
100
AcDbEntity
  8
LAY-10
  6
CONTINUOUS
 62
     7
100
AcDbLine
 10
195.0000000000021
 20
1157.000000000076
 30
0.0
 11
195.0000000000021
 21
1163.000000000076
 31
0.0
  0
LINE
  5
240
330
1F
100
AcDbEntity
  8
LAY-10
  6
CONTINUOUS
 62
     7
100
AcDbLine
 10
201.0000000000026
 20
1157.000000000076
 30
0.0
 11
136.0000000000024
 21
1157.000000000076
 31
0.0
  0
LINE
  5
241
330
1F
100
AcDbEntity
  8
LAY-10
  6
CONTINUOUS
 62
     7
100
AcDbLine
 10
201.0000000000026
 20
1152.500000000076
 30
0.0
 11
136.0000000000024
 21
1152.500000000076
 31
0.0
  0
LINE
  5
242
330
1F
100
AcDbEntity
  8
LAY-10
  6
CONTINUOUS
 62
     7
100
AcDbLine
 10
156.9999999999982
 20
1157.000000000076
 30
0.0
 11
156.9999999999982
 21
1163.000000000076
 31
0.0
  0
LINE
  5
243
330
1F
100
AcDbEntity
  8
LAY-10
  6
CONTINUOUS
 62
     7
100
AcDbLine
 10
150.9999999999982
 20
1157.000000000076
 30
0.0
 11
150.9999999999982
 21
1163.000000000076
 31
0.0
  0
LINE
  5
244
330
1F
100
AcDbEntity
  8
LAY-10
  6
CONTINUOUS
 62
     7
100
AcDbLine
 10
201.0000000000024
 20
571.4999999999936
 30
0.0
 11
201.0000000000024
 21
560.9999999999936
 31
0.0
  0
LINE
  5
245
330
1F
100
AcDbEntity
  8
LAY-10
  6
CONTINUOUS
 62
     7
100
AcDbLine
 10
195.0000000000021
 20
566.9999999999936
 30
0.0
 11
195.0000000000021
 21
560.9999999999936
 31
0.0
  0
LINE
  5
246
330
1F
100
AcDbEntity
  8
LAY-10
  6
CONTINUOUS
 62
     7
100
AcDbLine
 10
201.0000000000026
 20
566.9999999999936
 30
0.0
 11
136.0000000000024
 21
566.9999999999937
 31
0.0
  0
LINE
  5
247
330
1F
100
AcDbEntity
  8
LAY-10
  6
CONTINUOUS
 62
     7
100
AcDbLine
 10
201.0000000000026
 20
571.4999999999936
 30
0.0
 11
136.0000000000024
 21
571.4999999999939
 31
0.0
  0
LINE
  5
248
330
1F
100
AcDbEntity
  8
LAY-10
  6
CONTINUOUS
 62
     7
100
AcDbLine
 10
156.9999999999982
 20
566.9999999999937
 30
0.0
 11
156.9999999999982
 21
560.9999999999937
 31
0.0
  0
LINE
  5
249
330
1F
100
AcDbEntity
  8
LAY-10
  6
CONTINUOUS
 62
     7
100
AcDbLine
 10
150.9999999999982
 20
566.9999999999937
 30
0.0
 11
150.9999999999982
 21
560.9999999999937
 31
0.0
  0
LINE
  5
24A
330
1F
100
AcDbEntity
  8
LAY-10
  6
CONTINUOUS
 62
     7
100
AcDbLine
 10
749.0000000000024
 20
571.4999999999931
 30
0.0
 11
749.0000000000024
 21
560.9999999999931
 31
0.0
  0
LINE
  5
24B
330
1F
100
AcDbEntity
  8
LAY-10
  6
CONTINUOUS
 62
     7
100
AcDbLine
 10
755.0000000000026
 20
566.9999999999931
 30
0.0
 11
755.0000000000026
 21
560.9999999999931
 31
0.0
  0
LINE
  5
24C
330
1F
100
AcDbEntity
  8
LAY-10
  6
CONTINUOUS
 62
     7
100
AcDbLine
 10
749.0000000000023
 20
566.9999999999931
 30
0.0
 11
814.0000000000026
 21
566.9999999999931
 31
0.0
  0
LINE
  5
24D
330
1F
100
AcDbEntity
  8
LAY-10
  6
CONTINUOUS
 62
     7
100
AcDbLine
 10
749.0000000000023
 20
571.4999999999931
 30
0.0
 11
814.0000000000026
 21
571.4999999999932
 31
0.0
  0
LINE
  5
24E
330
1F
100
AcDbEntity
  8
LAY-10
  6
CONTINUOUS
 62
     7
100
AcDbLine
 10
793.0000000000067
 20
566.9999999999931
 30
0.0
 11
793.0000000000067
 21
560.9999999999931
 31
0.0
  0
LINE
  5
24F
330
1F
100
AcDbEntity
  8
LAY-10
  6
CONTINUOUS
 62
     7
100
AcDbLine
 10
799.0000000000067
 20
566.9999999999931
 30
0.0
 11
799.0000000000067
 21
560.9999999999931
 31
0.0
  0
LINE
  5
250
330
1F
100
AcDbEntity
  8
LAY-10
  6
CONTINUOUS
 62
     7
100
AcDbLine
 10
749.0000000000035
 20
1152.500000000076
 30
0.0
 11
749.0000000000038
 21
1163.000000000076
 31
0.0
  0
LINE
  5
251
330
1F
100
AcDbEntity
  8
LAY-10
  6
CONTINUOUS
 62
     7
100
AcDbLine
 10
755.0000000000038
 20
1157.000000000076
 30
0.0
 11
755.000000000004
 21
1163.000000000076
 31
0.0
  0
LINE
  5
252
330
1F
100
AcDbEntity
  8
LAY-10
  6
CONTINUOUS
 62
     7
100
AcDbLine
 10
749.0000000000034
 20
1157.000000000076
 30
0.0
 11
814.0000000000038
 21
1157.000000000075
 31
0.0
  0
LINE
  5
253
330
1F
100
AcDbEntity
  8
LAY-10
  6
CONTINUOUS
 62
     7
100
AcDbLine
 10
749.0000000000034
 20
1152.500000000076
 30
0.0
 11
814.0000000000038
 21
1152.500000000075
 31
0.0
  0
LINE
  5
254
330
1F
100
AcDbEntity
  8
LAY-10
  6
CONTINUOUS
 62
     7
100
AcDbLine
 10
793.0000000000081
 20
1157.000000000075
 30
0.0
 11
793.0000000000081
 21
1163.000000000075
 31
0.0
  0
LINE
  5
255
330
1F
100
AcDbEntity
  8
LAY-10
  6
CONTINUOUS
 62
     7
100
AcDbLine
 10
799.000000000008
 20
1157.000000000075
 30
0.0
 11
799.000000000008
 21
1163.000000000075
 31
0.0
  0
LINE
  5
256
330
1F
100
AcDbEntity
  8
LAY-10
  6
CONTINUOUS
 62
     7
100
AcDbLine
 10
1025.000000000002
 20
1245.499999999991
 30
0.0
 11
1025.000000000002
 21
1249.99999999999
 31
0.0
  0
LINE
  5
257
330
1F
100
AcDbEntity
  8
LAY-10
  6
CONTINUOUS
 62
     7
100
AcDbLine
 10
1025.000000000002
 20
549.9999999999917
 30
0.0
 11
1025.000000000002
 21
554.4999999999916
 31
0.0
  0
ARC
  5
258
330
1F
100
AcDbEntity
  8
LAY-10
  6
CONTINUOUS
 62
     7
100
AcDbCircle
 10
1099.500000000017
 20
565.4999999999618
 30
0.0
 40
9.0
100
AcDbArc
 50
270.0
 51
0.0
  0
ARC
  5
259
330
1F
100
AcDbEntity
  8
LAY-10
  6
CONTINUOUS
 62
     7
100
AcDbCircle
 10
1099.500000000017
 20
565.4999999999618
 30
0.0
 40
4.5
100
AcDbArc
 50
270.0
 51
0.0
  0
LINE
  5
25A
330
1F
100
AcDbEntity
  8
LAY-10
  6
CONTINUOUS
 62
     7
100
AcDbLine
 10
1025.000000000002
 20
560.9999999999618
 30
0.0
 11
1099.500000000017
 21
560.9999999999618
 31
0.0
  0
LINE
  5
25B
330
1F
100
AcDbEntity
  8
LAY-10
  6
CONTINUOUS
 62
     7
100
AcDbLine
 10
1025.000000000002
 20
556.4999999999618
 30
0.0
 11
1099.500000000017
 21
556.4999999999618
 31
0.0
  0
LINE
  5
25C
330
1F
100
AcDbEntity
  8
LAY-10
  6
CONTINUOUS
 62
     7
100
AcDbLine
 10
1104.000000000017
 20
580.6999999999599
 30
0.0
 11
1104.000000000017
 21
646.69999999996
 31
0.0
  0
LINE
  5
25D
330
1F
100
AcDbEntity
  8
LAY-10
  6
CONTINUOUS
 62
     7
100
AcDbLine
 10
1108.500000000017
 20
580.6999999999599
 30
0.0
 11
1108.500000000017
 21
646.69999999996
 31
0.0
  0
LINE
  5
25E
330
1F
100
AcDbEntity
  8
LAY-10
  6
CONTINUOUS
 62
     7
100
AcDbLine
 10
1094.000000000007
 20
630.9999999999618
 30
0.0
 11
1096.000000000007
 21
630.9999999999618
 31
0.0
  0
LINE
  5
25F
330
1F
100
AcDbEntity
  8
LAY-10
  6
CONTINUOUS
 62
     7
100
AcDbLine
 10
1094.000000000007
 20
590.9999999999527
 30
0.0
 11
1096.000000000007
 21
590.9999999999527
 31
0.0
  0
ARC
  5
260
330
1F
100
AcDbEntity
  8
LAY-10
  6
CONTINUOUS
 62
     7
100
AcDbCircle
 10
1102.0
 20
623.4999999999895
 30
0.0
 40
2.0
100
AcDbArc
 50
0.0000000000001719
 51
90.00000000000001
  0
ARC
  5
261
330
1F
100
AcDbEntity
  8
LAY-10
  6
CONTINUOUS
 62
     7
100
AcDbCircle
 10
1102.0
 20
598.4999999999562
 30
0.0
 40
2.0
100
AcDbArc
 50
270.0
 51
0.0000000000001719
  0
LINE
  5
262
330
1F
100
AcDbEntity
  8
LAY-10
  6
CONTINUOUS
 62
     7
100
AcDbLine
 10
1102.0
 20
623.499999999975
 30
0.0
 11
1102.0
 21
598.4999999999744
 31
0.0
  0
LINE
  5
263
330
1F
100
AcDbEntity
  8
LAY-10
  6
CONTINUOUS
 62
     7
100
AcDbLine
 10
1096.0
 20
625.4999999999895
 30
0.0
 11
1102.0
 21
625.4999999999895
 31
0.0
  0
LINE
  5
264
330
1F
100
AcDbEntity
  8
LAY-10
  6
CONTINUOUS
 62
     7
100
AcDbLine
 10
1096.0
 20
623.499999999975
 30
0.0
 11
1102.0
 21
623.499999999975
 31
0.0
  0
ARC
  5
265
330
1F
100
AcDbEntity
  8
LAY-10
  6
CONTINUOUS
 62
     7
100
AcDbCircle
 10
1096.0
 20
625.4999999999749
 30
0.0
 40
2.0
100
AcDbArc
 50
180.0
 51
270.0
  0
LINE
  5
266
330
1F
100
AcDbEntity
  8
LAY-10
  6
CONTINUOUS
 62
     7
100
AcDbLine
 10
1096.0
 20
596.4999999999568
 30
0.0
 11
1102.0
 21
596.4999999999568
 31
0.0
  0
LINE
  5
267
330
1F
100
AcDbEntity
  8
LAY-10
  6
CONTINUOUS
 62
     7
100
AcDbLine
 10
1096.0
 20
598.4999999999704
 30
0.0
 11
1102.0
 21
598.4999999999704
 31
0.0
  0
ARC
  5
268
330
1F
100
AcDbEntity
  8
LAY-10
  6
CONTINUOUS
 62
     7
100
AcDbCircle
 10
1096.0
 20
596.4999999999714
 30
0.0
 40
2.0
100
AcDbArc
 50
90.00000000000001
 51
180.0
  0
LINE
  5
269
330
1F
100
AcDbEntity
  8
LAY-10
  6
CONTINUOUS
 62
     7
100
AcDbLine
 10
1096.000000000007
 20
625.4999999999499
 30
0.0
 11
1096.000000000007
 21
630.9999999999618
 31
0.0
  0
LINE
  5
26A
330
1F
100
AcDbEntity
  8
LAY-10
  6
CONTINUOUS
 62
     7
100
AcDbLine
 10
1094.000000000007
 20
625.4999999999499
 30
0.0
 11
1094.000000000007
 21
630.9999999999618
 31
0.0
  0
LINE
  5
26B
330
1F
100
AcDbEntity
  8
LAY-10
  6
CONTINUOUS
 62
     7
100
AcDbLine
 10
1096.000000000007
 20
596.49999999995
 30
0.0
 11
1096.000000000007
 21
590.9999999999536
 31
0.0
  0
LINE
  5
26C
330
1F
100
AcDbEntity
  8
LAY-10
  6
CONTINUOUS
 62
     7
100
AcDbLine
 10
1094.000000000007
 20
596.49999999995
 30
0.0
 11
1094.000000000007
 21
590.9999999999536
 31
0.0
  0
ARC
  5
26D
330
1F
100
AcDbEntity
  8
LAY-10
  6
CONTINUOUS
 62
     7
100
AcDbCircle
 10
1146.000000000004
 20
1240.99999999999
 30
0.0
 40
9.0
100
AcDbArc
 50
0.0
 51
90.00000000000001
  0
ARC
  5
26E
330
1F
100
AcDbEntity
  8
LAY-10
  6
CONTINUOUS
 62
     7
100
AcDbCircle
 10
1146.000000000004
 20
1240.99999999999
 30
0.0
 40
4.5
100
AcDbArc
 50
0.0
 51
90.00000000000001
  0
LINE
  5
26F
330
1F
100
AcDbEntity
  8
LAY-10
  6
CONTINUOUS
 62
     7
100
AcDbLine
 10
1150.500000000004
 20
1200.00000000003
 30
0.0
 11
1155.000000000004
 21
1200.00000000003
 31
0.0
  0
LINE
  5
270
330
1F
100
AcDbEntity
  8
LAY-10
  6
CONTINUOUS
 62
     7
100
AcDbLine
 10
1163.000000000045
 20
1250.000000000003
 30
0.0
 11
1200.000000000046
 21
1250.000000000003
 31
0.0
  0
LINE
  5
271
330
1F
100
AcDbEntity
  8
LAY-10
  6
CONTINUOUS
 62
     7
100
AcDbLine
 10
1200.000000000046
 20
1242.000000000003
 30
0.0
 11
1163.000000000045
 21
1242.000000000003
 31
0.0
  0
LINE
  5
272
330
1F
100
AcDbEntity
  8
LAY-10
  6
CONTINUOUS
 62
     7
100
AcDbLine
 10
1200.000000000046
 20
1242.000000000003
 30
0.0
 11
1200.000000000046
 21
1250.000000000003
 31
0.0
  0
ARC
  5
273
330
1F
100
AcDbEntity
  8
LAY-10
  6
CONTINUOUS
 62
     7
100
AcDbCircle
 10
1163.000000000043
 20
1242.000000000003
 30
0.0
 40
8.0
100
AcDbArc
 50
90.00000000000001
 51
180.0000000000001
  0
LINE
  5
274
330
1F
100
AcDbEntity
  8
LAY-10
  6
CONTINUOUS
 62
     7
100
AcDbLine
 10
1163.000000000045
 20
1210.000000000001
 30
0.0
 11
1155.000000000043
 21
1210.000000000001
 31
0.0
  0
LINE
  5
275
330
1F
100
AcDbEntity
  8
LAY-10
  6
CONTINUOUS
 62
     7
100
AcDbLine
 10
1163.000000000043
 20
1241.999999999997
 30
0.0
 11
1163.000000000043
 21
1210.000000000001
 31
0.0
  0
LINE
  5
276
330
1F
100
AcDbEntity
  8
LAY-10
  6
CONTINUOUS
 62
     7
100
AcDbLine
 10
1148.5
 20
1224.99999999995
 30
0.0
 11
1150.500000000004
 21
1224.99999999995
 31
0.0
  0
LINE
  5
277
330
1F
100
AcDbEntity
  8
LAY-10
  6
CONTINUOUS
 62
     7
100
AcDbLine
 10
1148.5
 20
1200.000000000069
 30
0.0
 11
1150.500000000004
 21
1200.000000000069
 31
0.0
  0
ARC
  5
278
330
1F
100
AcDbEntity
  8
LAY-10
  6
CONTINUOUS
 62
     7
100
AcDbCircle
 10
1146.000000000003
 20
558.999999999992
 30
0.0
 40
9.0
100
AcDbArc
 50
270.0
 51
0.0
  0
ARC
  5
279
330
1F
100
AcDbEntity
  8
LAY-10
  6
CONTINUOUS
 62
     7
100
AcDbCircle
 10
1146.000000000003
 20
558.999999999992
 30
0.0
 40
4.5
100
AcDbArc
 50
270.0
 51
0.0
  0
LINE
  5
27A
330
1F
100
AcDbEntity
  8
LAY-10
  6
CONTINUOUS
 62
     7
100
AcDbLine
 10
1150.500000000002
 20
600.0000000000281
 30
0.0
 11
1155.000000000002
 21
600.0000000000281
 31
0.0
  0
LINE
  5
27B
330
1F
100
AcDbEntity
  8
LAY-10
  6
CONTINUOUS
 62
     7
100
AcDbLine
 10
1163.000000000043
 20
549.9999999999735
 30
0.0
 11
1200.000000000045
 21
549.9999999999735
 31
0.0
  0
LINE
  5
27C
330
1F
100
AcDbEntity
  8
LAY-10
  6
CONTINUOUS
 62
     7
100
AcDbLine
 10
1200.000000000045
 20
557.9999999999735
 30
0.0
 11
1163.000000000043
 21
557.9999999999735
 31
0.0
  0
LINE
  5
27D
330
1F
100
AcDbEntity
  8
LAY-10
  6
CONTINUOUS
 62
     7
100
AcDbLine
 10
1200.000000000045
 20
557.9999999999735
 30
0.0
 11
1200.000000000045
 21
549.9999999999735
 31
0.0
  0
ARC
  5
27E
330
1F
100
AcDbEntity
  8
LAY-10
  6
CONTINUOUS
 62
     7
100
AcDbCircle
 10
1163.000000000043
 20
557.9999999999735
 30
0.0
 40
8.0
100
AcDbArc
 50
180.0000000000001
 51
270.0
  0
LINE
  5
27F
330
1F
100
AcDbEntity
  8
LAY-10
  6
CONTINUOUS
 62
     7
100
AcDbLine
 10
1163.000000000043
 20
589.9999999999752
 30
0.0
 11
1155.000000000043
 21
589.9999999999752
 31
0.0
  0
LINE
  5
280
330
1F
100
AcDbEntity
  8
LAY-10
  6
CONTINUOUS
 62
     7
100
AcDbLine
 10
1163.000000000043
 20
557.9999999999793
 30
0.0
 11
1163.000000000043
 21
589.9999999999752
 31
0.0
  0
LINE
  5
281
330
1F
100
AcDbEntity
  8
LAY-10
  6
CONTINUOUS
 62
     7
100
AcDbLine
 10
1148.5
 20
575.0000000001497
 30
0.0
 11
1150.500000000002
 21
575.0000000001497
 31
0.0
  0
LINE
  5
282
330
1F
100
AcDbEntity
  8
LAY-10
  6
CONTINUOUS
 62
     7
100
AcDbLine
 10
1148.5
 20
600.0000000000716
 30
0.0
 11
1150.500000000002
 21
600.0000000000716
 31
0.0
  0
LINE
  5
283
330
1F
100
AcDbEntity
  8
LAY-10
  6
CONTINUOUS
 62
     7
100
AcDbLine
 10
1150.500000000002
 20
558.999999999992
 30
0.0
 11
1150.500000000004
 21
1240.99999999999
 31
0.0
  0
LINE
  5
284
330
1F
100
AcDbEntity
  8
LAY-10
  6
CONTINUOUS
 62
     7
100
AcDbLine
 10
1148.5
 20
565.4999999999998
 30
0.0
 11
1148.5
 21
1234.5000000001
 31
0.0
  0
LINE
  5
285
330
1F
100
AcDbEntity
  8
LAY-10
  6
CONTINUOUS
 62
     7
100
AcDbLine
 10
1025.000000000004
 20
1249.999999999991
 30
0.0
 11
1146.000000000004
 21
1249.999999999991
 31
0.0
  0
LINE
  5
286
330
1F
100
AcDbEntity
  8
LAY-10
  6
CONTINUOUS
 62
     7
100
AcDbLine
 10
1146.000000000004
 20
1245.499999999991
 30
0.0
 11
1025.000000000004
 21
1245.499999999991
 31
0.0
  0
POLYLINE
  5
287
330
1F
100
AcDbEntity
  8
LAY-10
  6
CONTINUOUS
 62
     7
100
AcDb2dPolyline
 66
     1
 10
0.0
 20
0.0
 30
0.0
 70
   128
  0
VERTEX
  5
288
330
287
100
AcDbEntity
  8
LAY-10
  6
CONTINUOUS
 62
     7
100
AcDbVertex
100
AcDb2dVertex
 10
1148.5
 20
1234.500000000133
 30
0.0
  0
VERTEX
  5
289
330
287
100
AcDbEntity
  8
LAY-10
  6
CONTINUOUS
 62
     7
100
AcDbVertex
100
AcDb2dVertex
 10
1108.5
 20
1234.500000000133
 30
0.0
  0
SEQEND
  5
28A
330
287
100
AcDbEntity
  8
LAY-10
  6
CONTINUOUS
 62
     7
  0
LINE
  5
28B
330
1F
100
AcDbEntity
  8
LAY-10
  6
CONTINUOUS
 62
     7
100
AcDbLine
 10
1025.000000000002
 20
549.9999999999917
 30
0.0
 11
1146.000000000003
 21
549.9999999999917
 31
0.0
  0
LINE
  5
28C
330
1F
100
AcDbEntity
  8
LAY-10
  6
CONTINUOUS
 62
     7
100
AcDbLine
 10
1025.000000000002
 20
554.4999999999916
 30
0.0
 11
1146.000000000003
 21
554.4999999999916
 31
0.0
  0
POLYLINE
  5
28D
330
1F
100
AcDbEntity
  8
LAY-10
  6
CONTINUOUS
 62
     7
100
AcDb2dPolyline
 66
     1
 10
0.0
 20
0.0
 30
0.0
 70
   128
  0
VERTEX
  5
28E
330
28D
100
AcDbEntity
  8
LAY-10
  6
CONTINUOUS
 62
     7
100
AcDbVertex
100
AcDb2dVertex
 10
1108.5
 20
565.5000000000337
 30
0.0
  0
VERTEX
  5
28F
330
28D
100
AcDbEntity
  8
LAY-10
  6
CONTINUOUS
 62
     7
100
AcDbVertex
100
AcDb2dVertex
 10
1148.5
 20
565.5000000000337
 30
0.0
  0
SEQEND
  5
290
330
28D
100
AcDbEntity
  8
LAY-10
  6
CONTINUOUS
 62
     7
  0
LINE
  5
291
330
1F
100
AcDbEntity
  8
LAY-10
  6
CONTINUOUS
 62
     7
100
AcDbLine
 10
1155.000000000002
 20
557.99999999995
 30
0.0
 11
1155.000000000004
 21
1242.0
 31
0.0
  0
LINE
  5
292
330
1F
100
AcDbEntity
  8
LAY-10
  6
CONTINUOUS
 62
     7
100
AcDbLine
 10
1025.000000000003
 20
1163.00000000004
 30
0.0
 11
1104.000000000018
 21
1163.00000000004
 31
0.0
  0
LINE
  5
293
330
1F
100
AcDbEntity
  8
LAY-10
  6
CONTINUOUS
 62
     7
100
AcDbLine
 10
1094.000000000007
 20
1132.999999999982
 30
0.0
 11
1096.000000000007
 21
1132.999999999982
 31
0.0
  0
LINE
  5
294
330
1F
100
AcDbEntity
  8
LAY-10
  6
CONTINUOUS
 62
     7
100
AcDbLine
 10
1094.000000000007
 20
1092.999999999973
 30
0.0
 11
1096.000000000007
 21
1092.999999999973
 31
0.0
  0
ARC
  5
295
330
1F
100
AcDbEntity
  8
LAY-10
  6
CONTINUOUS
 62
     7
100
AcDbCircle
 10
1102.000000000001
 20
1125.50000000001
 30
0.0
 40
2.0
100
AcDbArc
 50
0.0000000000001719
 51
90.00000000000001
  0
ARC
  5
296
330
1F
100
AcDbEntity
  8
LAY-10
  6
CONTINUOUS
 62
     7
100
AcDbCircle
 10
1102.000000000001
 20
1100.499999999976
 30
0.0
 40
2.0
100
AcDbArc
 50
270.0
 51
0.0000000000001719
  0
LINE
  5
297
330
1F
100
AcDbEntity
  8
LAY-10
  6
CONTINUOUS
 62
     7
100
AcDbLine
 10
1102.000000000001
 20
1125.499999999995
 30
0.0
 11
1102.000000000001
 21
1100.499999999995
 31
0.0
  0
LINE
  5
298
330
1F
100
AcDbEntity
  8
LAY-10
  6
CONTINUOUS
 62
     7
100
AcDbLine
 10
1096.000000000001
 20
1127.50000000001
 30
0.0
 11
1102.000000000001
 21
1127.50000000001
 31
0.0
  0
LINE
  5
299
330
1F
100
AcDbEntity
  8
LAY-10
  6
CONTINUOUS
 62
     7
100
AcDbLine
 10
1096.000000000001
 20
1125.499999999995
 30
0.0
 11
1102.000000000001
 21
1125.499999999995
 31
0.0
  0
ARC
  5
29A
330
1F
100
AcDbEntity
  8
LAY-10
  6
CONTINUOUS
 62
     7
100
AcDbCircle
 10
1096.000000000001
 20
1127.499999999995
 30
0.0
 40
2.0
100
AcDbArc
 50
180.0
 51
270.0
  0
LINE
  5
29B
330
1F
100
AcDbEntity
  8
LAY-10
  6
CONTINUOUS
 62
     7
100
AcDbLine
 10
1096.000000000001
 20
1098.499999999977
 30
0.0
 11
1102.000000000001
 21
1098.499999999977
 31
0.0
  0
LINE
  5
29C
330
1F
100
AcDbEntity
  8
LAY-10
  6
CONTINUOUS
 62
     7
100
AcDbLine
 10
1096.000000000001
 20
1100.49999999999
 30
0.0
 11
1102.000000000001
 21
1100.49999999999
 31
0.0
  0
ARC
  5
29D
330
1F
100
AcDbEntity
  8
LAY-10
  6
CONTINUOUS
 62
     7
100
AcDbCircle
 10
1096.000000000001
 20
1098.499999999992
 30
0.0
 40
2.0
100
AcDbArc
 50
90.00000000000001
 51
180.0
  0
LINE
  5
29E
330
1F
100
AcDbEntity
  8
LAY-10
  6
CONTINUOUS
 62
     7
100
AcDbLine
 10
1096.000000000007
 20
1127.49999999997
 30
0.0
 11
1096.000000000007
 21
1132.999999999982
 31
0.0
  0
LINE
  5
29F
330
1F
100
AcDbEntity
  8
LAY-10
  6
CONTINUOUS
 62
     7
100
AcDbLine
 10
1094.000000000007
 20
1127.49999999997
 30
0.0
 11
1094.000000000007
 21
1132.999999999982
 31
0.0
  0
LINE
  5
2A0
330
1F
100
AcDbEntity
  8
LAY-10
  6
CONTINUOUS
 62
     7
100
AcDbLine
 10
1096.000000000007
 20
1098.49999999997
 30
0.0
 11
1096.000000000007
 21
1092.999999999974
 31
0.0
  0
LINE
  5
2A1
330
1F
100
AcDbEntity
  8
LAY-10
  6
CONTINUOUS
 62
     7
100
AcDbLine
 10
1094.000000000007
 20
1098.49999999997
 30
0.0
 11
1094.000000000007
 21
1092.999999999974
 31
0.0
  0
LINE
  5
2A2
330
1F
100
AcDbEntity
  8
LAY-10
  6
CONTINUOUS
 62
     7
100
AcDbLine
 10
1025.000000000002
 20
556.4999999999618
 30
0.0
 11
1025.000000000002
 21
1167.500000000075
 31
0.0
  0
ARC
  5
2A3
330
1F
100
AcDbEntity
  8
LAY-10
  6
CONTINUOUS
 62
     7
100
AcDbCircle
 10
1099.500000000018
 20
1234.500000000037
 30
0.0
 40
9.0
100
AcDbArc
 50
0.0
 51
90.00000000000001
  0
ARC
  5
2A4
330
1F
100
AcDbEntity
  8
LAY-10
  6
CONTINUOUS
 62
     7
100
AcDbCircle
 10
1099.500000000018
 20
1234.500000000037
 30
0.0
 40
4.5
100
AcDbArc
 50
0.0
 51
90.00000000000001
  0
LINE
  5
2A5
330
1F
100
AcDbEntity
  8
LAY-10
  6
CONTINUOUS
 62
     7
100
AcDbLine
 10
1050.000000000038
 20
1243.500000000037
 30
0.0
 11
1099.500000000003
 21
1243.500000000037
 31
0.0
  0
LINE
  5
2A6
330
1F
100
AcDbEntity
  8
LAY-10
  6
CONTINUOUS
 62
     7
100
AcDbLine
 10
1025.000000000004
 20
1163.00000000004
 30
0.0
 11
1104.000000000018
 21
1163.00000000004
 31
0.0
  0
LINE
  5
2A7
330
1F
100
AcDbEntity
  8
LAY-10
  6
CONTINUOUS
 62
     7
100
AcDbLine
 10
1025.000000000004
 20
1167.500000000075
 30
0.0
 11
1104.000000000003
 21
1167.500000000075
 31
0.0
  0
LINE
  5
2A8
330
1F
100
AcDbEntity
  8
LAY-10
  6
CONTINUOUS
 62
     7
100
AcDbLine
 10
1099.500000000003
 20
1239.000000000037
 30
0.0
 11
1059.000000000005
 21
1239.000000000037
 31
0.0
  0
LINE
  5
2A9
330
1F
100
AcDbEntity
  8
LAY-10
  6
CONTINUOUS
 62
     7
100
AcDbLine
 10
1104.000000000001
 20
1228.249999999998
 30
0.0
 11
1108.500000000001
 21
1228.249999999998
 31
0.0
  0
LINE
  5
2AA
330
1F
100
AcDbEntity
  8
LAY-10
  6
CONTINUOUS
 62
     7
100
AcDbLine
 10
1104.000000000001
 20
1178.249999999998
 30
0.0
 11
1108.500000000001
 21
1178.249999999998
 31
0.0
  0
LINE
  5
2AB
330
1F
100
AcDbEntity
  8
LAY-10
  6
CONTINUOUS
 62
     7
100
AcDbLine
 10
1108.500000000017
 20
565.4999999999618
 30
0.0
 11
1108.500000000018
 21
1234.500000000037
 31
0.0
  0
LINE
  5
2AC
330
1F
100
AcDbEntity
  8
LAY-10
  6
CONTINUOUS
 62
     7
100
AcDbLine
 10
1104.000000000017
 20
565.4999999999618
 30
0.0
 11
1104.000000000018
 21
1234.500000000037
 31
0.0
  0
LINE
  5
2AD
330
1F
100
AcDbEntity
  8
LAY-10
  6
CONTINUOUS
 62
     7
100
AcDbLine
 10
1059.0
 20
1170.500000000073
 30
0.0
 11
1104.0
 21
1170.500000000073
 31
0.0
  0
LINE
  5
2AE
330
1F
100
AcDbEntity
  8
LAY-10
  6
CONTINUOUS
 62
     7
100
AcDbLine
 10
1030.00000000002
 20
1243.499999999947
 30
0.0
 11
1030.00000000002
 21
1242.499999999947
 31
0.0
  0
ARC
  5
2AF
330
1F
100
AcDbEntity
  8
LAY-10
  6
CONTINUOUS
 62
     7
100
AcDbCircle
 10
1049.00000000001
 20
1240.548750780225
 30
0.0
 40
1.0
100
AcDbArc
 50
0.0
 51
87.13759477388678
  0
ARC
  5
2B0
330
1F
100
AcDbEntity
  8
LAY-10
  6
CONTINUOUS
 62
     7
100
AcDbCircle
 10
1049.00000000001
 20
1236.451249219775
 30
0.0
 40
1.0
100
AcDbArc
 50
272.8624052261135
 51
0.0
  0
ARC
  5
2B1
330
1F
100
AcDbEntity
  8
LAY-10
  6
CONTINUOUS
 62
     7
100
AcDbCircle
 10
1047.00000000002
 20
1233.347501560601
 30
0.0
 40
2.0
100
AcDbArc
 50
92.86240522611305
 51
180.0
  0
ARC
  5
2B2
330
1F
100
AcDbEntity
  8
LAY-10
  6
CONTINUOUS
 62
     7
100
AcDbCircle
 10
1047.00000000002
 20
1179.652498439392
 30
0.0
 40
2.0
100
AcDbArc
 50
180.0
 51
267.1375947738866
  0
ARC
  5
2B3
330
1F
100
AcDbEntity
  8
LAY-10
  6
CONTINUOUS
 62
     7
100
AcDbCircle
 10
1049.00000000001
 20
1176.548750780218
 30
0.0
 40
1.0
100
AcDbArc
 50
0.0
 51
87.13759477388751
  0
ARC
  5
2B4
330
1F
100
AcDbEntity
  8
LAY-10
  6
CONTINUOUS
 62
     7
100
AcDbCircle
 10
1049.00000000001
 20
1172.451249219768
 30
0.0
 40
1.0
100
AcDbArc
 50
272.8624052261126
 51
0.0
  0
LINE
  5
2B5
330
1F
100
AcDbEntity
  8
LAY-10
  6
CONTINUOUS
 62
     7
100
AcDbLine
 10
1049.049937616955
 20
1171.45249688089
 30
0.0
 11
1030.000000000015
 21
1170.500000000043
 31
0.0
  0
LINE
  5
2B6
330
1F
100
AcDbEntity
  8
LAY-10
  6
CONTINUOUS
 62
     7
100
AcDbLine
 10
1030.00000000002
 20
1169.500000000046
 30
0.0
 11
1030.00000000002
 21
1170.500000000046
 31
0.0
  0
LINE
  5
2B7
330
1F
100
AcDbEntity
  8
LAY-10
  6
CONTINUOUS
 62
     7
100
AcDbLine
 10
1030.00000000002
 20
1211.522345351022
 30
0.0
 11
1030.00000000002
 21
1201.477654648861
 31
0.0
  0
ARC
  5
2B8
330
1F
100
AcDbEntity
  8
LAY-10
  6
CONTINUOUS
 62
     7
100
AcDbCircle
 10
1031.00000000002
 20
1201.477654648861
 30
0.0
 40
1.0
100
AcDbArc
 50
180.0
 51
265.0000000000003
  0
LINE
  5
2B9
330
1F
100
AcDbEntity
  8
LAY-10
  6
CONTINUOUS
 62
     7
100
AcDbLine
 10
1042.261467228258
 20
1199.488584094178
 30
0.0
 11
1030.912844257272
 21
1200.481459950769
 31
0.0
  0
ARC
  5
2BA
330
1F
100
AcDbEntity
  8
LAY-10
  6
CONTINUOUS
 62
     7
100
AcDbCircle
 10
1031.00000000002
 20
1211.522345351132
 30
0.0
 40
1.0
100
AcDbArc
 50
94.99999999999976
 51
180.0
  0
LINE
  5
2BB
330
1F
100
AcDbEntity
  8
LAY-10
  6
CONTINUOUS
 62
     7
100
AcDbLine
 10
1042.261467228258
 20
1213.511415905815
 30
0.0
 11
1030.912844257272
 21
1212.518540049223
 31
0.0
  0
LINE
  5
2BC
330
1F
100
AcDbEntity
  8
LAY-10
  6
CONTINUOUS
 62
     7
100
AcDbLine
 10
1049.049937616955
 20
1241.547503119103
 30
0.0
 11
1030.000000000015
 21
1242.49999999995
 31
0.0
  0
LINE
  5
2BD
330
1F
100
AcDbEntity
  8
LAY-10
  6
CONTINUOUS
 62
     7
100
AcDbLine
 10
1025.0
 20
1230.50000000005
 30
0.0
 11
1025.0
 21
1242.499999999951
 31
0.0
  0
LINE
  5
2BE
330
1F
100
AcDbEntity
  8
LAY-10
  6
CONTINUOUS
 62
     7
100
AcDbLine
 10
1024.999999999995
 20
1242.49999999995
 30
0.0
 11
1030.000000000015
 21
1243.49999999995
 31
0.0
  0
LINE
  5
2BF
330
1F
100
AcDbEntity
  8
LAY-10
  6
CONTINUOUS
 62
     7
100
AcDbLine
 10
1024.999999999995
 20
1230.50000000005
 30
0.0
 11
1030.000000000015
 21
1229.50000000005
 31
0.0
  0
LINE
  5
2C0
330
1F
100
AcDbEntity
  8
LAY-10
  6
CONTINUOUS
 62
     7
100
AcDbLine
 10
1030.000000000015
 20
1223.50000000004
 30
0.0
 11
1024.999999999995
 21
1222.50000000005
 31
0.0
  0
LINE
  5
2C1
330
1F
100
AcDbEntity
  8
LAY-10
  6
CONTINUOUS
 62
     7
100
AcDbLine
 10
1030.000000000015
 20
1209.500000000153
 30
0.0
 11
1024.999999999995
 21
1210.500000000143
 31
0.0
  0
LINE
  5
2C2
330
1F
100
AcDbEntity
  8
LAY-10
  6
CONTINUOUS
 62
     7
100
AcDbLine
 10
1025.0
 20
1222.50000000005
 30
0.0
 11
1025.0
 21
1210.50000000014
 31
0.0
  0
LINE
  5
2C3
330
1F
100
AcDbEntity
  8
LAY-10
  6
CONTINUOUS
 62
     7
100
AcDbLine
 10
1030.000000000015
 20
1203.49999999984
 30
0.0
 11
1024.999999999995
 21
1202.49999999985
 31
0.0
  0
LINE
  5
2C4
330
1F
100
AcDbEntity
  8
LAY-10
  6
CONTINUOUS
 62
     7
100
AcDbLine
 10
1030.000000000015
 20
1189.499999999953
 30
0.0
 11
1024.999999999995
 21
1190.499999999943
 31
0.0
  0
LINE
  5
2C5
330
1F
100
AcDbEntity
  8
LAY-10
  6
CONTINUOUS
 62
     7
100
AcDbLine
 10
1024.999999999995
 20
1182.499999999943
 30
0.0
 11
1030.000000000015
 21
1183.499999999943
 31
0.0
  0
LINE
  5
2C6
330
1F
100
AcDbEntity
  8
LAY-10
  6
CONTINUOUS
 62
     7
100
AcDbLine
 10
1024.999999999995
 20
1170.500000000043
 30
0.0
 11
1030.000000000015
 21
1169.500000000043
 31
0.0
  0
LINE
  5
2C7
330
1F
100
AcDbEntity
  8
LAY-10
  6
CONTINUOUS
 62
     7
100
AcDbLine
 10
1025.0
 20
1202.49999999985
 30
0.0
 11
1025.0
 21
1190.49999999994
 31
0.0
  0
LINE
  5
2C8
330
1F
100
AcDbEntity
  8
LAY-10
  6
CONTINUOUS
 62
     7
100
AcDbLine
 10
1025.0
 20
1170.50000000004
 30
0.0
 11
1025.0
 21
1182.49999999994
 31
0.0
  0
ARC
  5
2C9
330
1F
100
AcDbEntity
  8
LAY-10
  6
CONTINUOUS
 62
     7
100
AcDbCircle
 10
1042.000000000015
 20
1196.4999999999
 30
0.0
 40
3.0
100
AcDbArc
 50
274.9999999999186
 51
85.00000000006428
  0
ARC
  5
2CA
330
1F
100
AcDbEntity
  8
LAY-10
  6
CONTINUOUS
 62
     7
100
AcDbCircle
 10
1042.000000000015
 20
1216.500000000093
 30
0.0
 40
3.0
100
AcDbArc
 50
274.9999999999358
 51
85.00000000007654
  0
LINE
  5
2CB
330
1F
100
AcDbEntity
  8
LAY-10
  6
CONTINUOUS
 62
     7
100
AcDbLine
 10
1032.850187149185
 20
1178.357490642484
 30
0.0
 11
1049.049937616955
 21
1177.547503119095
 31
0.0
  0
ARC
  5
2CC
330
1F
100
AcDbEntity
  8
LAY-10
  6
CONTINUOUS
 62
     7
100
AcDbCircle
 10
1033.00000000002
 20
1181.353747659118
 30
0.0
 40
3.0
100
AcDbArc
 50
180.0
 51
267.1375947738265
  0
ARC
  5
2CD
330
1F
100
AcDbEntity
  8
LAY-10
  6
CONTINUOUS
 62
     7
100
AcDbCircle
 10
1031.00000000002
 20
1191.522345350932
 30
0.0
 40
1.0
100
AcDbArc
 50
94.99999999986586
 51
180.0000000001075
  0
LINE
  5
2CE
330
1F
100
AcDbEntity
  8
LAY-10
  6
CONTINUOUS
 62
     7
100
AcDbLine
 10
1042.261467228258
 20
1193.511415905615
 30
0.0
 11
1030.912844257272
 21
1192.518540049024
 31
0.0
  0
ARC
  5
2CF
330
1F
100
AcDbEntity
  8
LAY-10
  6
CONTINUOUS
 62
     7
100
AcDbCircle
 10
1031.00000000002
 20
1221.477654649061
 30
0.0
 40
1.0
100
AcDbArc
 50
179.9999999998926
 51
265.0000000001343
  0
LINE
  5
2D0
330
1F
100
AcDbEntity
  8
LAY-10
  6
CONTINUOUS
 62
     7
100
AcDbLine
 10
1042.261467228258
 20
1219.488584094378
 30
0.0
 11
1030.912844257272
 21
1220.481459950969
 31
0.0
  0
ARC
  5
2D1
330
1F
100
AcDbEntity
  8
LAY-10
  6
CONTINUOUS
 62
     7
100
AcDbCircle
 10
1033.00000000002
 20
1231.646252340875
 30
0.0
 40
3.0
100
AcDbArc
 50
92.86240522617351
 51
180.0
  0
LINE
  5
2D2
330
1F
100
AcDbEntity
  8
LAY-10
  6
CONTINUOUS
 62
     7
100
AcDbLine
 10
1032.850187149185
 20
1234.642509357509
 30
0.0
 11
1049.049937616955
 21
1235.452496880898
 31
0.0
  0
LINE
  5
2D3
330
1F
100
AcDbEntity
  8
LAY-10
  6
CONTINUOUS
 62
     7
100
AcDbLine
 10
1030.00000000002
 20
1221.47765464906
 30
0.0
 11
1030.00000000002
 21
1231.64625234088
 31
0.0
  0
LINE
  5
2D4
330
1F
100
AcDbEntity
  8
LAY-10
  6
CONTINUOUS
 62
     7
100
AcDbLine
 10
1030.00000000002
 20
1191.52234535093
 30
0.0
 11
1030.00000000002
 21
1181.35374765912
 31
0.0
  0
LINE
  5
2D5
330
1F
100
AcDbEntity
  8
LAY-10
  6
CONTINUOUS
 62
     7
100
AcDbLine
 10
1045.00000000002
 20
1179.652498439392
 30
0.0
 11
1045.00000000002
 21
1233.347501560601
 31
0.0
  0
ARC
  5
2D6
330
1F
100
AcDbEntity
  8
LAY-10
  6
CONTINUOUS
 62
     7
100
AcDbCircle
 10
1047.909606189599
 20
1232.099999999994
 30
0.0
 40
1.9
100
AcDbArc
 50
17.87435679904485
 51
90.00000000000001
  0
LINE
  5
2D7
330
1F
100
AcDbEntity
  8
LAY-10
  6
CONTINUOUS
 62
     7
100
AcDbLine
 10
1047.909606189599
 20
1233.999999999994
 30
0.0
 11
1046.99711431704
 21
1233.999999999994
 31
0.0
  0
ARC
  5
2D8
330
1F
100
AcDbEntity
  8
LAY-10
  6
CONTINUOUS
 62
     7
100
AcDbCircle
 10
1047.909606189599
 20
1180.900000000001
 30
0.0
 40
1.9
100
AcDbArc
 50
270.0
 51
342.1256432009552
  0
ARC
  5
2D9
330
1F
100
AcDbEntity
  8
LAY-10
  6
CONTINUOUS
 62
     7
100
AcDbCircle
 10
1038.29711431704
 20
1184.000000000001
 30
0.0
 40
12.0
100
AcDbArc
 50
342.1256432009546
 51
357.1340160174004
  0
LINE
  5
2DA
330
1F
100
AcDbEntity
  8
LAY-10
  6
CONTINUOUS
 62
     7
100
AcDbLine
 10
1047.909606189599
 20
1179.000000000001
 30
0.0
 11
1046.99711431704
 21
1179.000000000001
 31
0.0
  0
ARC
  5
2DB
330
1F
100
AcDbEntity
  8
LAY-10
  6
CONTINUOUS
 62
     7
100
AcDbCircle
 10
1047.909606189599
 20
1187.100000000001
 30
0.0
 40
1.9
100
AcDbArc
 50
17.8743567990519
 51
90.00000000000001
  0
LINE
  5
2DC
330
1F
100
AcDbEntity
  8
LAY-10
  6
CONTINUOUS
 62
     7
100
AcDbLine
 10
1047.909606189599
 20
1189.000000000001
 30
0.0
 11
1046.99711431704
 21
1189.000000000001
 31
0.0
  0
ARC
  5
2DD
330
1F
100
AcDbEntity
  8
LAY-10
  6
CONTINUOUS
 62
     7
100
AcDbCircle
 10
1038.29711431704
 20
1184.000000000001
 30
0.0
 40
12.0
100
AcDbArc
 50
2.865983982599606
 51
17.87435679905081
  0
LINE
  5
2DE
330
1F
100
AcDbEntity
  8
LAY-10
  6
CONTINUOUS
 62
     7
100
AcDbLine
 10
1049.99711431704
 20
1209.500000000001
 30
0.0
 11
1049.99711431704
 21
1215.650714431547
 31
0.0
  0
LINE
  5
2DF
330
1F
100
AcDbEntity
  8
LAY-10
  6
CONTINUOUS
 62
     7
100
AcDbLine
 10
1049.99711431704
 20
1197.349285568454
 30
0.0
 11
1049.99711431704
 21
1203.500000000001
 31
0.0
  0
LINE
  5
2E0
330
1F
100
AcDbEntity
  8
LAY-10
  6
CONTINUOUS
 62
     7
100
AcDbLine
 10
1050.282104930303
 20
1183.400000000001
 30
0.0
 11
1048.69711431704
 21
1183.400000000001
 31
0.0
  0
LINE
  5
2E1
330
1F
100
AcDbEntity
  8
LAY-10
  6
CONTINUOUS
 62
     7
100
AcDbLine
 10
1050.282104930303
 20
1184.600000000001
 30
0.0
 11
1048.69711431704
 21
1184.600000000001
 31
0.0
  0
LINE
  5
2E2
330
1F
100
AcDbEntity
  8
LAY-10
  6
CONTINUOUS
 62
     7
100
AcDbLine
 10
1048.69711431704
 20
1183.400000000001
 30
0.0
 11
1048.69711431704
 21
1184.600000000001
 31
0.0
  0
ARC
  5
2E3
330
1F
100
AcDbEntity
  8
LAY-10
  6
CONTINUOUS
 62
     7
100
AcDbCircle
 10
1046.49711431704
 20
1220.349285568454
 30
0.0
 40
1.5
100
AcDbArc
 50
180.0000000000001
 51
239.0362434679267
  0
LINE
  5
2E4
330
1F
100
AcDbEntity
  8
LAY-10
  6
CONTINUOUS
 62
     7
100
AcDbLine
 10
1045.725370683899
 20
1219.063046179886
 30
0.0
 11
1049.268857950182
 21
1216.936953820116
 31
0.0
  0
ARC
  5
2E5
330
1F
100
AcDbEntity
  8
LAY-10
  6
CONTINUOUS
 62
     7
100
AcDbCircle
 10
1048.49711431704
 20
1215.650714431547
 30
0.0
 40
1.5
100
AcDbArc
 50
0.0000000000001719
 51
59.03624346792686
  0
ARC
  5
2E6
330
1F
100
AcDbEntity
  8
LAY-10
  6
CONTINUOUS
 62
     7
100
AcDbCircle
 10
1048.49711431704
 20
1197.349285568454
 30
0.0
 40
1.5
100
AcDbArc
 50
300.9637565320735
 51
0.0000000000001719
  0
LINE
  5
2E7
330
1F
100
AcDbEntity
  8
LAY-10
  6
CONTINUOUS
 62
     7
100
AcDbLine
 10
1045.725370683899
 20
1193.936953820116
 30
0.0
 11
1049.268857950182
 21
1196.063046179886
 31
0.0
  0
ARC
  5
2E8
330
1F
100
AcDbEntity
  8
LAY-10
  6
CONTINUOUS
 62
     7
100
AcDbCircle
 10
1046.49711431704
 20
1192.650714431547
 30
0.0
 40
1.5
100
AcDbArc
 50
120.9637565320733
 51
180.0000000000001
  0
LINE
  5
2E9
330
1F
100
AcDbEntity
  8
LAY-10
  6
CONTINUOUS
 62
     7
100
AcDbLine
 10
1047.725370683899
 20
1193.087668251663
 30
0.0
 11
1051.268857950181
 21
1195.213760611432
 31
0.0
  0
ARC
  5
2EA
330
1F
100
AcDbEntity
  8
LAY-10
  6
CONTINUOUS
 62
     7
100
AcDbCircle
 10
1048.49711431704
 20
1191.801428863094
 30
0.0
 40
1.5
100
AcDbArc
 50
120.9637565320733
 51
180.0000000000001
  0
ARC
  5
2EB
330
1F
100
AcDbEntity
  8
LAY-10
  6
CONTINUOUS
 62
     7
100
AcDbCircle
 10
1050.49711431704
 20
1196.500000000001
 30
0.0
 40
1.5
100
AcDbArc
 50
300.9637565320738
 51
0.0000000000001719
  0
ARC
  5
2EC
330
1F
100
AcDbEntity
  8
LAY-10
  6
CONTINUOUS
 62
     7
100
AcDbCircle
 10
1048.49711431704
 20
1221.198571136908
 30
0.0
 40
1.5
100
AcDbArc
 50
180.0000000000001
 51
239.0362434679267
  0
LINE
  5
2ED
330
1F
100
AcDbEntity
  8
LAY-10
  6
CONTINUOUS
 62
     7
100
AcDbLine
 10
1047.725370683899
 20
1219.912331748339
 30
0.0
 11
1051.268857950181
 21
1217.786239388569
 31
0.0
  0
ARC
  5
2EE
330
1F
100
AcDbEntity
  8
LAY-10
  6
CONTINUOUS
 62
     7
100
AcDbCircle
 10
1050.49711431704
 20
1216.5
 30
0.0
 40
1.5
100
AcDbArc
 50
0.0000000000001719
 51
59.03624346792686
  0
LINE
  5
2EF
330
1F
100
AcDbEntity
  8
LAY-10
  6
CONTINUOUS
 62
     7
100
AcDbLine
 10
1051.99711431704
 20
1196.500000000001
 30
0.0
 11
1051.99711431704
 21
1216.5
 31
0.0
  0
LINE
  5
2F0
330
1F
100
AcDbEntity
  8
LAY-10
  6
CONTINUOUS
 62
     7
100
AcDbLine
 10
1046.99711431704
 20
1177.641640259847
 30
0.0
 11
1046.99711431704
 21
1191.801428863094
 31
0.0
  0
LINE
  5
2F1
330
1F
100
AcDbEntity
  8
LAY-10
  6
CONTINUOUS
 62
     7
100
AcDbLine
 10
1049.73004501808
 20
1180.500000000001
 30
0.0
 11
1059.000000000005
 21
1180.500000000001
 31
0.0
  0
LINE
  5
2F2
330
1F
100
AcDbEntity
  8
LAY-10
  6
CONTINUOUS
 62
     7
100
AcDbLine
 10
1059.000000000005
 20
1192.500000000001
 30
0.0
 11
1047.169711451788
 21
1192.500000000001
 31
0.0
  0
LINE
  5
2F3
330
1F
100
AcDbEntity
  8
LAY-10
  6
CONTINUOUS
 62
     7
100
AcDbLine
 10
1070.997114317045
 20
1181.529320511643
 30
0.0
 11
1070.997114317045
 21
1191.481501724737
 31
0.0
  0
LINE
  5
2F4
330
1F
100
AcDbEntity
  8
LAY-10
  6
CONTINUOUS
 62
     7
100
AcDbLine
 10
1069.978616041783
 20
1192.499999999999
 30
0.0
 11
1070.997114317045
 21
1191.481501724737
 31
0.0
  0
LINE
  5
2F5
330
1F
100
AcDbEntity
  8
LAY-10
  6
CONTINUOUS
 62
     7
100
AcDbLine
 10
1070.997114317044
 20
1181.529320511642
 30
0.0
 11
1069.967793805404
 21
1180.500000000001
 31
0.0
  0
LINE
  5
2F6
330
1F
100
AcDbEntity
  8
LAY-10
  6
CONTINUOUS
 62
     7
100
AcDbLine
 10
1062.997114317045
 20
1180.500000000001
 30
0.0
 11
1069.967793805403
 21
1180.500000000001
 31
0.0
  0
LINE
  5
2F7
330
1F
100
AcDbEntity
  8
LAY-10
  6
CONTINUOUS
 62
     7
100
AcDbLine
 10
1069.978616041781
 20
1192.500000000001
 30
0.0
 11
1062.997114317045
 21
1192.500000000001
 31
0.0
  0
LINE
  5
2F8
330
1F
100
AcDbEntity
  8
LAY-10
  6
CONTINUOUS
 62
     7
100
AcDbLine
 10
1070.997114317045
 20
1231.470679488359
 30
0.0
 11
1070.997114317045
 21
1221.518498275265
 31
0.0
  0
LINE
  5
2F9
330
1F
100
AcDbEntity
  8
LAY-10
  6
CONTINUOUS
 62
     7
100
AcDbLine
 10
1069.978616041783
 20
1220.500000000003
 30
0.0
 11
1070.997114317045
 21
1221.518498275265
 31
0.0
  0
LINE
  5
2FA
330
1F
100
AcDbEntity
  8
LAY-10
  6
CONTINUOUS
 62
     7
100
AcDbLine
 10
1070.997114317044
 20
1231.47067948836
 30
0.0
 11
1069.967793805404
 21
1232.500000000001
 31
0.0
  0
LINE
  5
2FB
330
1F
100
AcDbEntity
  8
LAY-10
  6
CONTINUOUS
 62
     7
100
AcDbLine
 10
1069.978616041781
 20
1220.500000000001
 30
0.0
 11
1047.169711451788
 21
1220.500000000001
 31
0.0
  0
LINE
  5
2FC
330
1F
100
AcDbEntity
  8
LAY-10
  6
CONTINUOUS
 62
     7
100
AcDbLine
 10
1046.99711431704
 20
1235.358359740148
 30
0.0
 11
1046.99711431704
 21
1221.198571136908
 31
0.0
  0
LINE
  5
2FD
330
1F
100
AcDbEntity
  8
LAY-10
  6
CONTINUOUS
 62
     7
100
AcDbLine
 10
1046.99711431704
 20
1232.500000000001
 30
0.0
 11
1069.967793805404
 21
1232.500000000001
 31
0.0
  0
ARC
  5
2FE
330
1F
100
AcDbEntity
  8
LAY-10
  6
CONTINUOUS
 62
     7
100
AcDbCircle
 10
1038.29711431704
 20
1228.999999999994
 30
0.0
 40
12.0
100
AcDbArc
 50
16.95776330003828
 51
17.87435679904559
  0
LINE
  5
2FF
330
1F
100
AcDbEntity
  8
LAY-10
  6
CONTINUOUS
 62
     7
100
AcDbLine
 10
1059.000000000005
 20
1220.500000000001
 30
0.0
 11
1059.000000000005
 21
1167.500000000003
 31
0.0
  0
LINE
  5
300
330
1F
100
AcDbEntity
  8
LAY-10
  6
CONTINUOUS
 62
     7
100
AcDbLine
 10
1050.00000000001
 20
1167.500000000003
 30
0.0
 11
1050.00000000001
 21
1176.548750780218
 31
0.0
  0
LINE
  5
301
330
1F
100
AcDbEntity
  8
LAY-10
  6
CONTINUOUS
 62
     7
100
AcDbLine
 10
1059.000000000005
 20
1176.499999999995
 30
0.0
 11
1050.00000000001
 21
1176.499999999995
 31
0.0
  0
LINE
  5
302
330
1F
100
AcDbEntity
  8
LAY-10
  6
CONTINUOUS
 62
     7
100
AcDbLine
 10
1050.00000000001
 20
1234.499999999998
 30
0.0
 11
1059.000000000005
 21
1234.499999999998
 31
0.0
  0
LINE
  5
303
330
1F
100
AcDbEntity
  8
LAY-10
  6
CONTINUOUS
 62
     7
100
AcDbLine
 10
1050.00000000001
 20
1243.499999999998
 30
0.0
 11
1050.00000000001
 21
1234.499999999998
 31
0.0
  0
LINE
  5
304
330
1F
100
AcDbEntity
  8
LAY-10
  6
CONTINUOUS
 62
     7
100
AcDbLine
 10
1059.000000000005
 20
1243.499999999998
 30
0.0
 11
1059.000000000005
 21
1232.500000000001
 31
0.0
  0
LINE
  5
305
330
1F
100
AcDbEntity
  8
LAY-10
  6
CONTINUOUS
 62
     7
100
AcDbLine
 10
1062.997114317045
 20
1232.500000000001
 30
0.0
 11
1062.997114317045
 21
1238.999999999998
 31
0.0
  0
LINE
  5
306
330
1F
100
AcDbEntity
  8
LAY-10
  6
CONTINUOUS
 62
     7
100
AcDbLine
 10
1062.997114317022
 20
1175.84792389091
 30
0.0
 11
1058.999999999982
 21
1175.84792389091
 31
0.0
  0
LINE
  5
307
330
1F
100
AcDbEntity
  8
LAY-10
  6
CONTINUOUS
 62
     7
100
AcDbLine
 10
1062.997114317022
 20
1173.99354088861
 30
0.0
 11
1058.999999999982
 21
1173.99354088861
 31
0.0
  0
LINE
  5
308
330
1F
100
AcDbEntity
  8
LAY-10
  6
CONTINUOUS
 62
     7
100
AcDbLine
 10
1062.997114317022
 20
1236.21226404351
 30
0.0
 11
1059.000000000005
 21
1236.21226404351
 31
0.0
  0
LINE
  5
309
330
1F
100
AcDbEntity
  8
LAY-10
  6
CONTINUOUS
 62
     7
100
AcDbLine
 10
1062.997114317045
 20
1173.99354088861
 30
0.0
 11
1062.997114317045
 21
1220.500000000001
 31
0.0
  0
LINE
  5
30A
330
1F
100
AcDbEntity
  8
LAY-10
  6
CONTINUOUS
 62
     7
100
AcDbLine
 10
1045.000000000025
 20
1170.263532231119
 30
0.0
 11
1030.00000000002
 21
1169.5
 31
0.0
  0
ARC
  5
30B
330
1F
100
AcDbEntity
  8
LAY-10
  6
CONTINUOUS
 62
     7
100
AcDbCircle
 10
1046.000000000025
 20
1170.298750780268
 30
0.0
 40
1.0
100
AcDbArc
 50
92.86240522611266
 51
180.0
  0
LINE
  5
30C
330
1F
100
AcDbEntity
  8
LAY-10
  6
CONTINUOUS
 62
     7
100
AcDbLine
 10
1045.000000000025
 20
1170.263532231123
 30
0.0
 11
1045.000000000025
 21
1170.298750780268
 31
0.0
  0
ARC
  5
30D
330
1F
100
AcDbEntity
  8
LAY-10
  6
CONTINUOUS
 62
     7
100
AcDbCircle
 10
1046.000000000025
 20
1242.701249219625
 30
0.0
 40
1.0
100
AcDbArc
 50
180.0
 51
267.1375947738874
  0
LINE
  5
30E
330
1F
100
AcDbEntity
  8
LAY-10
  6
CONTINUOUS
 62
     7
100
AcDbLine
 10
1045.000000000025
 20
1242.73646776877
 30
0.0
 11
1045.000000000025
 21
1242.701249219625
 31
0.0
  0
LINE
  5
30F
330
1F
100
AcDbEntity
  8
LAY-10
  6
CONTINUOUS
 62
     7
100
AcDbLine
 10
1045.000000000024
 20
1242.736467768774
 30
0.0
 11
1030.00000000002
 21
1243.499999999892
 31
0.0
  0
LINE
  5
310
330
1F
100
AcDbEntity
  8
LAY-10
  6
CONTINUOUS
 62
     7
100
AcDbLine
 10
1052.00000000002
 20
1209.49870817765
 30
0.0
 11
1059.002885682983
 21
1209.49870817765
 31
0.0
  0
LINE
  5
311
330
1F
100
AcDbEntity
  8
LAY-10
  6
CONTINUOUS
 62
     7
100
AcDbLine
 10
1052.00000000002
 20
1203.49870817765
 30
0.0
 11
1059.002885682983
 21
1203.49870817765
 31
0.0
  0
LINE
  5
312
330
1F
100
AcDbEntity
  8
LAY-10
  6
CONTINUOUS
 62
     7
100
AcDbLine
 10
1063.000000000025
 20
1209.49870817765
 30
0.0
 11
1071.200000000024
 21
1209.49870817765
 31
0.0
  0
LINE
  5
313
330
1F
100
AcDbEntity
  8
LAY-10
  6
CONTINUOUS
 62
     7
100
AcDbLine
 10
1063.000000000025
 20
1203.49870817765
 30
0.0
 11
1071.200000000024
 21
1203.49870817765
 31
0.0
  0
LINE
  5
314
330
1F
100
AcDbEntity
  8
LAY-10
  6
CONTINUOUS
 62
     7
100
AcDbLine
 10
1050.000000000023
 20
1201.24870817765
 30
0.0
 11
1050.000000000023
 21
1211.74870817765
 31
0.0
  0
ARC
  5
315
330
1F
100
AcDbEntity
  8
LAY-10
  6
CONTINUOUS
 62
     7
100
AcDbCircle
 10
1048.000000000023
 20
1202.74870817765
 30
0.0
 40
1.0
100
AcDbArc
 50
180.0000000000001
 51
241.927513064142
  0
ARC
  5
316
330
1F
100
AcDbEntity
  8
LAY-10
  6
CONTINUOUS
 62
     7
100
AcDbCircle
 10
1050.000000000023
 20
1206.49870817765
 30
0.0
 40
5.25
100
AcDbArc
 50
241.9275130641421
 51
269.9999999999997
  0
LINE
  5
317
330
1F
100
AcDbEntity
  8
LAY-10
  6
CONTINUOUS
 62
     7
100
AcDbLine
 10
1047.000000000023
 20
1210.24870817765
 30
0.0
 11
1047.000000000023
 21
1202.74870817765
 31
0.0
  0
ARC
  5
318
330
1F
100
AcDbEntity
  8
LAY-10
  6
CONTINUOUS
 62
     7
100
AcDbCircle
 10
1048.000000000023
 20
1210.24870817765
 30
0.0
 40
1.0
100
AcDbArc
 50
118.0724869358582
 51
180.0000000000001
  0
ARC
  5
319
330
1F
100
AcDbEntity
  8
LAY-10
  6
CONTINUOUS
 62
     7
100
AcDbCircle
 10
1050.000000000023
 20
1206.49870817765
 30
0.0
 40
5.25
100
AcDbArc
 50
90.00000000000118
 51
118.072486935858
  0
LINE
  5
31A
330
1F
100
AcDbEntity
  8
LAY-10
  6
CONTINUOUS
 62
     7
100
AcDbLine
 10
1071.200000000024
 20
1203.635459523601
 30
0.0
 11
1075.828000000025
 21
1203.635459523601
 31
0.0
  0
LINE
  5
31B
330
1F
100
AcDbEntity
  8
LAY-10
  6
CONTINUOUS
 62
     7
100
AcDbLine
 10
1071.200000000024
 20
1200.74870817765
 30
0.0
 11
1075.828000000025
 21
1200.74870817765
 31
0.0
  0
LINE
  5
31C
330
1F
100
AcDbEntity
  8
LAY-10
  6
CONTINUOUS
 62
     7
100
AcDbLine
 10
1071.200000000024
 20
1209.361956831698
 30
0.0
 11
1075.828000000025
 21
1209.361956831698
 31
0.0
  0
ARC
  5
31D
330
1F
100
AcDbEntity
  8
LAY-10
  6
CONTINUOUS
 62
     7
100
AcDbCircle
 10
1068.947747504465
 20
1206.49870817765
 30
0.0
 40
7.4522524955587
100
AcDbArc
 50
337.4051392327526
 51
22.59486076724778
  0
LINE
  5
31E
330
1F
100
AcDbEntity
  8
LAY-10
  6
CONTINUOUS
 62
     7
100
AcDbLine
 10
1071.200000000024
 20
1212.24870817765
 30
0.0
 11
1075.828000000025
 21
1212.24870817765
 31
0.0
  0
LINE
  5
31F
330
1F
100
AcDbEntity
  8
LAY-10
  6
CONTINUOUS
 62
     7
100
AcDbLine
 10
1071.200000000024
 20
1212.24870817765
 30
0.0
 11
1071.200000000024
 21
1200.74870817765
 31
0.0
  0
ARC
  5
320
330
1F
100
AcDbEntity
  8
LAY-10
  6
CONTINUOUS
 62
     7
100
AcDbCircle
 10
1076.862022045823
 20
1211.24870817765
 30
0.0
 40
0.5
100
AcDbArc
 50
189.7915975264292
 51
270.0000000000002
  0
LINE
  5
321
330
1F
100
AcDbEntity
  8
LAY-10
  6
CONTINUOUS
 62
     7
100
AcDbLine
 10
1076.400000000025
 20
1210.74870817765
 30
0.0
 11
1076.399239025169
 21
1210.74870817765
 31
0.0
  0
LINE
  5
322
330
1F
100
AcDbEntity
  8
LAY-10
  6
CONTINUOUS
 62
     7
100
AcDbLine
 10
1076.400000000025
 20
1202.24870817765
 30
0.0
 11
1076.399239025169
 21
1202.24870817765
 31
0.0
  0
ARC
  5
323
330
1F
100
AcDbEntity
  8
LAY-10
  6
CONTINUOUS
 62
     7
100
AcDbCircle
 10
1074.292904428926
 20
1210.805332504676
 30
0.0
 40
2.107095571097882
100
AcDbArc
 50
316.763825277331
 51
43.23617472266933
  0
ARC
  5
324
330
1F
100
AcDbEntity
  8
LAY-10
  6
CONTINUOUS
 62
     7
100
AcDbCircle
 10
1077.499038105701
 20
1203.24870817765
 30
0.0
 40
1.0
100
AcDbArc
 50
270.0000000000002
 51
291.7867892982636
  0
LINE
  5
325
330
1F
100
AcDbEntity
  8
LAY-10
  6
CONTINUOUS
 62
     7
100
AcDbLine
 10
1077.499038105701
 20
1202.24870817765
 30
0.0
 11
1076.862022045823
 21
1202.24870817765
 31
0.0
  0
ARC
  5
326
330
1F
100
AcDbEntity
  8
LAY-10
  6
CONTINUOUS
 62
     7
100
AcDbCircle
 10
1076.200000000024
 20
1206.49870817765
 30
0.0
 40
4.5
100
AcDbArc
 50
291.7867892982638
 51
68.21321070173653
  0
ARC
  5
327
330
1F
100
AcDbEntity
  8
LAY-10
  6
CONTINUOUS
 62
     7
100
AcDbCircle
 10
1077.499038105701
 20
1209.74870817765
 30
0.0
 40
1.0
100
AcDbArc
 50
68.21321070173653
 51
90.00000000000026
  0
ARC
  5
328
330
1F
100
AcDbEntity
  8
LAY-10
  6
CONTINUOUS
 62
     7
100
AcDbCircle
 10
1076.862022045823
 20
1201.74870817765
 30
0.0
 40
0.5
100
AcDbArc
 50
90.00000000000026
 51
170.2084024735711
  0
LINE
  5
329
330
1F
100
AcDbEntity
  8
LAY-10
  6
CONTINUOUS
 62
     7
100
AcDbLine
 10
1077.499038105701
 20
1210.74870817765
 30
0.0
 11
1076.862022045823
 21
1210.74870817765
 31
0.0
  0
ARC
  5
32A
330
1F
100
AcDbEntity
  8
LAY-10
  6
CONTINUOUS
 62
     7
100
AcDbCircle
 10
1074.292904428926
 20
1202.192083850624
 30
0.0
 40
2.107095571097882
100
AcDbArc
 50
316.763825277331
 51
43.23617472266933
  0
LINE
  5
32B
330
1F
100
AcDbEntity
  8
LAY-10
  6
CONTINUOUS
 62
     7
100
AcDbLine
 10
1025.0
 20
1152.500000000098
 30
0.0
 11
1104.0
 21
1152.500000000097
 31
0.0
  0
LINE
  5
32C
330
1F
100
AcDbEntity
  8
LAY-10
  6
CONTINUOUS
 62
     7
100
AcDbLine
 10
1025.000000000002
 20
571.4999999999881
 30
0.0
 11
1104.000000000017
 21
571.499999999988
 31
0.0
  0
LINE
  5
32D
330
1F
100
AcDbEntity
  8
LAY-10
  6
CONTINUOUS
 62
     7
100
AcDbLine
 10
748.9999999999994
 20
270.9999999999717
 30
0.0
 11
748.9999999999994
 21
349.9999999999865
 31
0.0
  0
LINE
  5
32E
330
1F
100
AcDbEntity
  8
LAY-10
  6
CONTINUOUS
 62
     7
100
AcDbLine
 10
200.9999999999995
 20
349.9999999999865
 30
0.0
 11
200.9999999999995
 21
270.9999999999717
 31
0.0
  0
LINE
  5
32F
330
1F
100
AcDbEntity
  8
LAY-10
  6
CONTINUOUS
 62
     7
100
AcDbLine
 10
253.499999999987
 20
1241.749999999935
 30
0.0
 11
253.499999999987
 21
1236.749999999935
 31
0.0
  0
LINE
  5
330
330
1F
100
AcDbEntity
  8
LAY-10
  6
CONTINUOUS
 62
     7
100
AcDbLine
 10
253.499999999987
 20
1236.749999999935
 30
0.0
 11
248.499999999987
 21
1236.749999999935
 31
0.0
  0
LINE
  5
331
330
1F
100
AcDbEntity
  8
LAY-10
  6
CONTINUOUS
 62
     7
100
AcDbLine
 10
248.499999999987
 20
1236.249999999935
 30
0.0
 11
253.499999999987
 21
1236.249999999935
 31
0.0
  0
LINE
  5
332
330
1F
100
AcDbEntity
  8
LAY-10
  6
CONTINUOUS
 62
     7
100
AcDbLine
 10
248.499999999987
 20
1236.249999999935
 30
0.0
 11
248.499999999987
 21
1231.249999999935
 31
0.0
  0
LINE
  5
333
330
1F
100
AcDbEntity
  8
LAY-10
  6
CONTINUOUS
 62
     7
100
AcDbLine
 10
253.499999999987
 20
1236.249999999935
 30
0.0
 11
253.499999999987
 21
1231.249999999935
 31
0.0
  0
LINE
  5
334
330
1F
100
AcDbEntity
  8
LAY-10
  6
CONTINUOUS
 62
     7
100
AcDbLine
 10
253.499999999987
 20
1231.249999999935
 30
0.0
 11
248.499999999987
 21
1231.249999999935
 31
0.0
  0
LINE
  5
335
330
1F
100
AcDbEntity
  8
LAY-10
  6
CONTINUOUS
 62
     7
100
AcDbLine
 10
253.499999999987
 20
1241.749999999935
 30
0.0
 11
248.499999999987
 21
1236.749999999935
 31
0.0
  0
LINE
  5
336
330
1F
100
AcDbEntity
  8
LAY-10
  6
CONTINUOUS
 62
     7
100
AcDbLine
 10
253.499999999987
 20
1236.249999999935
 30
0.0
 11
248.499999999987
 21
1231.249999999935
 31
0.0
  0
LINE
  5
337
330
1F
100
AcDbEntity
  8
LAY-10
  6
CONTINUOUS
 62
     7
100
AcDbLine
 10
248.499999999987
 20
1236.249999999935
 30
0.0
 11
253.499999999987
 21
1231.249999999935
 31
0.0
  0
LINE
  5
338
330
1F
100
AcDbEntity
  8
LAY-10
  6
CONTINUOUS
 62
     7
100
AcDbLine
 10
242.999999999987
 20
1236.249999999935
 30
0.0
 11
247.999999999987
 21
1231.249999999935
 31
0.0
  0
LINE
  5
339
330
1F
100
AcDbEntity
  8
LAY-10
  6
CONTINUOUS
 62
     7
100
AcDbLine
 10
247.999999999987
 20
1236.249999999935
 30
0.0
 11
242.999999999987
 21
1231.249999999935
 31
0.0
  0
LINE
  5
33A
330
1F
100
AcDbEntity
  8
LAY-10
  6
CONTINUOUS
 62
     7
100
AcDbLine
 10
247.999999999987
 20
1231.249999999935
 30
0.0
 11
242.999999999987
 21
1231.249999999935
 31
0.0
  0
LINE
  5
33B
330
1F
100
AcDbEntity
  8
LAY-10
  6
CONTINUOUS
 62
     7
100
AcDbLine
 10
247.999999999987
 20
1236.249999999935
 30
0.0
 11
247.999999999987
 21
1231.249999999935
 31
0.0
  0
LINE
  5
33C
330
1F
100
AcDbEntity
  8
LAY-10
  6
CONTINUOUS
 62
     7
100
AcDbLine
 10
242.999999999987
 20
1236.249999999935
 30
0.0
 11
242.999999999987
 21
1231.249999999935
 31
0.0
  0
LINE
  5
33D
330
1F
100
AcDbEntity
  8
LAY-10
  6
CONTINUOUS
 62
     7
100
AcDbLine
 10
242.999999999987
 20
1236.249999999935
 30
0.0
 11
247.999999999987
 21
1236.249999999935
 31
0.0
  0
LINE
  5
33E
330
1F
100
AcDbEntity
  8
LAY-10
  6
CONTINUOUS
 62
     7
100
AcDbLine
 10
247.999999999987
 20
1236.749999999935
 30
0.0
 11
242.999999999987
 21
1236.749999999935
 31
0.0
  0
LINE
  5
33F
330
1F
100
AcDbEntity
  8
LAY-10
  6
CONTINUOUS
 62
     7
100
AcDbLine
 10
253.499999999987
 20
1221.749999999945
 30
0.0
 11
253.499999999987
 21
1216.749999999945
 31
0.0
  0
LINE
  5
340
330
1F
100
AcDbEntity
  8
LAY-10
  6
CONTINUOUS
 62
     7
100
AcDbLine
 10
253.499999999987
 20
1221.749999999945
 30
0.0
 11
248.499999999987
 21
1221.749999999945
 31
0.0
  0
LINE
  5
341
330
1F
100
AcDbEntity
  8
LAY-10
  6
CONTINUOUS
 62
     7
100
AcDbLine
 10
253.499999999987
 20
1216.749999999945
 30
0.0
 11
248.499999999987
 21
1216.749999999945
 31
0.0
  0
LINE
  5
342
330
1F
100
AcDbEntity
  8
LAY-10
  6
CONTINUOUS
 62
     7
100
AcDbLine
 10
248.499999999987
 20
1216.749999999945
 30
0.0
 11
248.499999999987
 21
1221.749999999945
 31
0.0
  0
LINE
  5
343
330
1F
100
AcDbEntity
  8
LAY-10
  6
CONTINUOUS
 62
     7
100
AcDbLine
 10
248.499999999987
 20
1216.249999999945
 30
0.0
 11
253.499999999987
 21
1216.249999999945
 31
0.0
  0
LINE
  5
344
330
1F
100
AcDbEntity
  8
LAY-10
  6
CONTINUOUS
 62
     7
100
AcDbLine
 10
248.499999999987
 20
1216.249999999945
 30
0.0
 11
248.499999999987
 21
1211.249999999945
 31
0.0
  0
LINE
  5
345
330
1F
100
AcDbEntity
  8
LAY-10
  6
CONTINUOUS
 62
     7
100
AcDbLine
 10
253.499999999987
 20
1216.249999999945
 30
0.0
 11
253.499999999987
 21
1211.249999999945
 31
0.0
  0
LINE
  5
346
330
1F
100
AcDbEntity
  8
LAY-10
  6
CONTINUOUS
 62
     7
100
AcDbLine
 10
253.499999999987
 20
1211.249999999945
 30
0.0
 11
248.499999999987
 21
1211.249999999945
 31
0.0
  0
LINE
  5
347
330
1F
100
AcDbEntity
  8
LAY-10
  6
CONTINUOUS
 62
     7
100
AcDbLine
 10
253.499999999987
 20
1221.749999999945
 30
0.0
 11
248.499999999987
 21
1216.749999999945
 31
0.0
  0
LINE
  5
348
330
1F
100
AcDbEntity
  8
LAY-10
  6
CONTINUOUS
 62
     7
100
AcDbLine
 10
253.499999999987
 20
1216.249999999945
 30
0.0
 11
248.499999999987
 21
1211.249999999945
 31
0.0
  0
LINE
  5
349
330
1F
100
AcDbEntity
  8
LAY-10
  6
CONTINUOUS
 62
     7
100
AcDbLine
 10
248.499999999987
 20
1221.749999999945
 30
0.0
 11
253.499999999987
 21
1216.749999999945
 31
0.0
  0
LINE
  5
34A
330
1F
100
AcDbEntity
  8
LAY-10
  6
CONTINUOUS
 62
     7
100
AcDbLine
 10
248.499999999987
 20
1216.249999999945
 30
0.0
 11
253.499999999987
 21
1211.249999999945
 31
0.0
  0
LINE
  5
34B
330
1F
100
AcDbEntity
  8
LAY-10
  6
CONTINUOUS
 62
     7
100
AcDbLine
 10
242.999999999987
 20
1216.249999999945
 30
0.0
 11
247.999999999987
 21
1211.249999999945
 31
0.0
  0
LINE
  5
34C
330
1F
100
AcDbEntity
  8
LAY-10
  6
CONTINUOUS
 62
     7
100
AcDbLine
 10
242.999999999987
 20
1221.749999999945
 30
0.0
 11
247.999999999987
 21
1216.749999999945
 31
0.0
  0
LINE
  5
34D
330
1F
100
AcDbEntity
  8
LAY-10
  6
CONTINUOUS
 62
     7
100
AcDbLine
 10
247.999999999987
 20
1216.249999999945
 30
0.0
 11
242.999999999987
 21
1211.249999999945
 31
0.0
  0
LINE
  5
34E
330
1F
100
AcDbEntity
  8
LAY-10
  6
CONTINUOUS
 62
     7
100
AcDbLine
 10
247.999999999987
 20
1221.749999999945
 30
0.0
 11
242.999999999987
 21
1216.749999999945
 31
0.0
  0
LINE
  5
34F
330
1F
100
AcDbEntity
  8
LAY-10
  6
CONTINUOUS
 62
     7
100
AcDbLine
 10
247.999999999987
 20
1211.249999999945
 30
0.0
 11
242.999999999987
 21
1211.249999999945
 31
0.0
  0
LINE
  5
350
330
1F
100
AcDbEntity
  8
LAY-10
  6
CONTINUOUS
 62
     7
100
AcDbLine
 10
247.999999999987
 20
1216.249999999945
 30
0.0
 11
247.999999999987
 21
1211.249999999945
 31
0.0
  0
LINE
  5
351
330
1F
100
AcDbEntity
  8
LAY-10
  6
CONTINUOUS
 62
     7
100
AcDbLine
 10
242.999999999987
 20
1216.249999999945
 30
0.0
 11
242.999999999987
 21
1211.249999999945
 31
0.0
  0
LINE
  5
352
330
1F
100
AcDbEntity
  8
LAY-10
  6
CONTINUOUS
 62
     7
100
AcDbLine
 10
242.999999999987
 20
1216.249999999945
 30
0.0
 11
247.999999999987
 21
1216.249999999945
 31
0.0
  0
LINE
  5
353
330
1F
100
AcDbEntity
  8
LAY-10
  6
CONTINUOUS
 62
     7
100
AcDbLine
 10
242.999999999987
 20
1216.749999999945
 30
0.0
 11
242.999999999987
 21
1221.749999999945
 31
0.0
  0
LINE
  5
354
330
1F
100
AcDbEntity
  8
LAY-10
  6
CONTINUOUS
 62
     7
100
AcDbLine
 10
247.999999999987
 20
1216.749999999945
 30
0.0
 11
242.999999999987
 21
1216.749999999945
 31
0.0
  0
LINE
  5
355
330
1F
100
AcDbEntity
  8
LAY-10
  6
CONTINUOUS
 62
     7
100
AcDbLine
 10
247.999999999987
 20
1221.749999999945
 30
0.0
 11
242.999999999987
 21
1221.749999999945
 31
0.0
  0
LINE
  5
356
330
1F
100
AcDbEntity
  8
LAY-10
  6
CONTINUOUS
 62
     7
100
AcDbLine
 10
247.999999999987
 20
1221.749999999945
 30
0.0
 11
247.999999999987
 21
1216.749999999945
 31
0.0
  0
LINE
  5
357
330
1F
100
AcDbEntity
  8
LAY-10
  6
CONTINUOUS
 62
     7
100
AcDbLine
 10
253.499999999987
 20
1191.249999999746
 30
0.0
 11
253.499999999987
 21
1196.249999999746
 31
0.0
  0
LINE
  5
358
330
1F
100
AcDbEntity
  8
LAY-10
  6
CONTINUOUS
 62
     7
100
AcDbLine
 10
253.499999999987
 20
1191.249999999746
 30
0.0
 11
248.499999999987
 21
1191.249999999746
 31
0.0
  0
LINE
  5
359
330
1F
100
AcDbEntity
  8
LAY-10
  6
CONTINUOUS
 62
     7
100
AcDbLine
 10
253.499999999987
 20
1196.249999999746
 30
0.0
 11
248.499999999987
 21
1196.249999999746
 31
0.0
  0
LINE
  5
35A
330
1F
100
AcDbEntity
  8
LAY-10
  6
CONTINUOUS
 62
     7
100
AcDbLine
 10
248.499999999987
 20
1196.249999999746
 30
0.0
 11
248.499999999987
 21
1191.249999999746
 31
0.0
  0
LINE
  5
35B
330
1F
100
AcDbEntity
  8
LAY-10
  6
CONTINUOUS
 62
     7
100
AcDbLine
 10
248.499999999987
 20
1196.749999999746
 30
0.0
 11
253.499999999987
 21
1196.749999999746
 31
0.0
  0
LINE
  5
35C
330
1F
100
AcDbEntity
  8
LAY-10
  6
CONTINUOUS
 62
     7
100
AcDbLine
 10
248.499999999987
 20
1196.749999999746
 30
0.0
 11
248.499999999987
 21
1201.749999999746
 31
0.0
  0
LINE
  5
35D
330
1F
100
AcDbEntity
  8
LAY-10
  6
CONTINUOUS
 62
     7
100
AcDbLine
 10
253.499999999987
 20
1196.749999999746
 30
0.0
 11
253.499999999987
 21
1201.749999999746
 31
0.0
  0
LINE
  5
35E
330
1F
100
AcDbEntity
  8
LAY-10
  6
CONTINUOUS
 62
     7
100
AcDbLine
 10
253.499999999987
 20
1201.749999999746
 30
0.0
 11
248.499999999987
 21
1201.749999999746
 31
0.0
  0
LINE
  5
35F
330
1F
100
AcDbEntity
  8
LAY-10
  6
CONTINUOUS
 62
     7
100
AcDbLine
 10
253.499999999987
 20
1191.249999999746
 30
0.0
 11
248.499999999987
 21
1196.249999999746
 31
0.0
  0
LINE
  5
360
330
1F
100
AcDbEntity
  8
LAY-10
  6
CONTINUOUS
 62
     7
100
AcDbLine
 10
253.499999999987
 20
1196.749999999746
 30
0.0
 11
248.499999999987
 21
1201.749999999746
 31
0.0
  0
LINE
  5
361
330
1F
100
AcDbEntity
  8
LAY-10
  6
CONTINUOUS
 62
     7
100
AcDbLine
 10
248.499999999987
 20
1191.249999999746
 30
0.0
 11
253.499999999987
 21
1196.249999999746
 31
0.0
  0
LINE
  5
362
330
1F
100
AcDbEntity
  8
LAY-10
  6
CONTINUOUS
 62
     7
100
AcDbLine
 10
248.499999999987
 20
1196.749999999746
 30
0.0
 11
253.499999999987
 21
1201.749999999746
 31
0.0
  0
LINE
  5
363
330
1F
100
AcDbEntity
  8
LAY-10
  6
CONTINUOUS
 62
     7
100
AcDbLine
 10
242.999999999987
 20
1196.749999999746
 30
0.0
 11
247.999999999987
 21
1201.749999999746
 31
0.0
  0
LINE
  5
364
330
1F
100
AcDbEntity
  8
LAY-10
  6
CONTINUOUS
 62
     7
100
AcDbLine
 10
247.999999999987
 20
1196.749999999746
 30
0.0
 11
242.999999999987
 21
1201.749999999746
 31
0.0
  0
LINE
  5
365
330
1F
100
AcDbEntity
  8
LAY-10
  6
CONTINUOUS
 62
     7
100
AcDbLine
 10
247.999999999987
 20
1191.249999999746
 30
0.0
 11
242.999999999987
 21
1196.249999999746
 31
0.0
  0
LINE
  5
366
330
1F
100
AcDbEntity
  8
LAY-10
  6
CONTINUOUS
 62
     7
100
AcDbLine
 10
247.999999999987
 20
1201.749999999746
 30
0.0
 11
242.999999999987
 21
1201.749999999746
 31
0.0
  0
LINE
  5
367
330
1F
100
AcDbEntity
  8
LAY-10
  6
CONTINUOUS
 62
     7
100
AcDbLine
 10
247.999999999987
 20
1196.749999999746
 30
0.0
 11
247.999999999987
 21
1201.749999999746
 31
0.0
  0
LINE
  5
368
330
1F
100
AcDbEntity
  8
LAY-10
  6
CONTINUOUS
 62
     7
100
AcDbLine
 10
242.999999999987
 20
1196.749999999746
 30
0.0
 11
242.999999999987
 21
1201.749999999746
 31
0.0
  0
LINE
  5
369
330
1F
100
AcDbEntity
  8
LAY-10
  6
CONTINUOUS
 62
     7
100
AcDbLine
 10
242.999999999987
 20
1196.749999999746
 30
0.0
 11
247.999999999987
 21
1196.749999999746
 31
0.0
  0
LINE
  5
36A
330
1F
100
AcDbEntity
  8
LAY-10
  6
CONTINUOUS
 62
     7
100
AcDbLine
 10
247.999999999987
 20
1196.249999999746
 30
0.0
 11
242.999999999987
 21
1196.249999999746
 31
0.0
  0
LINE
  5
36B
330
1F
100
AcDbEntity
  8
LAY-10
  6
CONTINUOUS
 62
     7
100
AcDbLine
 10
247.999999999987
 20
1191.249999999746
 30
0.0
 11
247.999999999987
 21
1196.249999999746
 31
0.0
  0
LINE
  5
36C
330
1F
100
AcDbEntity
  8
LAY-10
  6
CONTINUOUS
 62
     7
100
AcDbLine
 10
242.4999999999871
 20
1236.249999999935
 30
0.0
 11
242.4999999999871
 21
1231.249999999935
 31
0.0
  0
LINE
  5
36D
330
1F
100
AcDbEntity
  8
LAY-10
  6
CONTINUOUS
 62
     7
100
AcDbLine
 10
242.4999999999871
 20
1231.249999999935
 30
0.0
 11
237.4999999999871
 21
1231.249999999935
 31
0.0
  0
LINE
  5
36E
330
1F
100
AcDbEntity
  8
LAY-10
  6
CONTINUOUS
 62
     7
100
AcDbLine
 10
242.4999999999871
 20
1236.249999999935
 30
0.0
 11
237.4999999999871
 21
1231.249999999935
 31
0.0
  0
LINE
  5
36F
330
1F
100
AcDbEntity
  8
LAY-10
  6
CONTINUOUS
 62
     7
100
AcDbLine
 10
242.4999999999871
 20
1221.749999999945
 30
0.0
 11
242.4999999999871
 21
1216.749999999945
 31
0.0
  0
LINE
  5
370
330
1F
100
AcDbEntity
  8
LAY-10
  6
CONTINUOUS
 62
     7
100
AcDbLine
 10
242.4999999999871
 20
1221.749999999945
 30
0.0
 11
237.4999999999871
 21
1221.749999999945
 31
0.0
  0
LINE
  5
371
330
1F
100
AcDbEntity
  8
LAY-10
  6
CONTINUOUS
 62
     7
100
AcDbLine
 10
242.4999999999871
 20
1216.749999999945
 30
0.0
 11
237.4999999999871
 21
1216.749999999945
 31
0.0
  0
LINE
  5
372
330
1F
100
AcDbEntity
  8
LAY-10
  6
CONTINUOUS
 62
     7
100
AcDbLine
 10
237.4999999999871
 20
1216.749999999945
 30
0.0
 11
237.4999999999871
 21
1221.749999999945
 31
0.0
  0
LINE
  5
373
330
1F
100
AcDbEntity
  8
LAY-10
  6
CONTINUOUS
 62
     7
100
AcDbLine
 10
236.999999999987
 20
1221.749999999945
 30
0.0
 11
236.999999999987
 21
1216.749999999945
 31
0.0
  0
LINE
  5
374
330
1F
100
AcDbEntity
  8
LAY-10
  6
CONTINUOUS
 62
     7
100
AcDbLine
 10
236.999999999987
 20
1221.749999999945
 30
0.0
 11
231.999999999987
 21
1221.749999999945
 31
0.0
  0
LINE
  5
375
330
1F
100
AcDbEntity
  8
LAY-10
  6
CONTINUOUS
 62
     7
100
AcDbLine
 10
236.999999999987
 20
1216.749999999945
 30
0.0
 11
231.999999999987
 21
1216.749999999945
 31
0.0
  0
LINE
  5
376
330
1F
100
AcDbEntity
  8
LAY-10
  6
CONTINUOUS
 62
     7
100
AcDbLine
 10
231.999999999987
 20
1216.749999999945
 30
0.0
 11
231.999999999987
 21
1221.749999999945
 31
0.0
  0
LINE
  5
377
330
1F
100
AcDbEntity
  8
LAY-10
  6
CONTINUOUS
 62
     7
100
AcDbLine
 10
231.499999999987
 20
1221.749999999945
 30
0.0
 11
231.499999999987
 21
1216.749999999945
 31
0.0
  0
LINE
  5
378
330
1F
100
AcDbEntity
  8
LAY-10
  6
CONTINUOUS
 62
     7
100
AcDbLine
 10
237.4999999999871
 20
1216.249999999945
 30
0.0
 11
242.4999999999871
 21
1216.249999999945
 31
0.0
  0
LINE
  5
379
330
1F
100
AcDbEntity
  8
LAY-10
  6
CONTINUOUS
 62
     7
100
AcDbLine
 10
237.4999999999871
 20
1216.249999999945
 30
0.0
 11
237.4999999999871
 21
1211.249999999945
 31
0.0
  0
LINE
  5
37A
330
1F
100
AcDbEntity
  8
LAY-10
  6
CONTINUOUS
 62
     7
100
AcDbLine
 10
242.4999999999871
 20
1216.249999999945
 30
0.0
 11
242.4999999999871
 21
1211.249999999945
 31
0.0
  0
LINE
  5
37B
330
1F
100
AcDbEntity
  8
LAY-10
  6
CONTINUOUS
 62
     7
100
AcDbLine
 10
242.4999999999871
 20
1211.249999999945
 30
0.0
 11
237.4999999999871
 21
1211.249999999945
 31
0.0
  0
LINE
  5
37C
330
1F
100
AcDbEntity
  8
LAY-10
  6
CONTINUOUS
 62
     7
100
AcDbLine
 10
231.999999999987
 20
1216.249999999945
 30
0.0
 11
236.999999999987
 21
1216.249999999945
 31
0.0
  0
LINE
  5
37D
330
1F
100
AcDbEntity
  8
LAY-10
  6
CONTINUOUS
 62
     7
100
AcDbLine
 10
231.999999999987
 20
1216.249999999945
 30
0.0
 11
231.999999999987
 21
1211.249999999945
 31
0.0
  0
LINE
  5
37E
330
1F
100
AcDbEntity
  8
LAY-10
  6
CONTINUOUS
 62
     7
100
AcDbLine
 10
236.999999999987
 20
1216.249999999945
 30
0.0
 11
236.999999999987
 21
1211.249999999945
 31
0.0
  0
LINE
  5
37F
330
1F
100
AcDbEntity
  8
LAY-10
  6
CONTINUOUS
 62
     7
100
AcDbLine
 10
236.999999999987
 20
1211.249999999945
 30
0.0
 11
231.999999999987
 21
1211.249999999945
 31
0.0
  0
LINE
  5
380
330
1F
100
AcDbEntity
  8
LAY-10
  6
CONTINUOUS
 62
     7
100
AcDbLine
 10
231.499999999987
 20
1216.249999999945
 30
0.0
 11
231.499999999987
 21
1211.249999999945
 31
0.0
  0
LINE
  5
381
330
1F
100
AcDbEntity
  8
LAY-10
  6
CONTINUOUS
 62
     7
100
AcDbLine
 10
242.4999999999871
 20
1221.749999999945
 30
0.0
 11
237.4999999999871
 21
1216.749999999945
 31
0.0
  0
LINE
  5
382
330
1F
100
AcDbEntity
  8
LAY-10
  6
CONTINUOUS
 62
     7
100
AcDbLine
 10
236.999999999987
 20
1221.749999999945
 30
0.0
 11
231.999999999987
 21
1216.749999999945
 31
0.0
  0
LINE
  5
383
330
1F
100
AcDbEntity
  8
LAY-10
  6
CONTINUOUS
 62
     7
100
AcDbLine
 10
242.4999999999871
 20
1216.249999999945
 30
0.0
 11
237.4999999999871
 21
1211.249999999945
 31
0.0
  0
LINE
  5
384
330
1F
100
AcDbEntity
  8
LAY-10
  6
CONTINUOUS
 62
     7
100
AcDbLine
 10
236.999999999987
 20
1216.249999999945
 30
0.0
 11
231.999999999987
 21
1211.249999999945
 31
0.0
  0
LINE
  5
385
330
1F
100
AcDbEntity
  8
LAY-10
  6
CONTINUOUS
 62
     7
100
AcDbLine
 10
237.4999999999871
 20
1221.749999999945
 30
0.0
 11
242.4999999999871
 21
1216.749999999945
 31
0.0
  0
LINE
  5
386
330
1F
100
AcDbEntity
  8
LAY-10
  6
CONTINUOUS
 62
     7
100
AcDbLine
 10
231.999999999987
 20
1221.749999999945
 30
0.0
 11
236.999999999987
 21
1216.749999999945
 31
0.0
  0
LINE
  5
387
330
1F
100
AcDbEntity
  8
LAY-10
  6
CONTINUOUS
 62
     7
100
AcDbLine
 10
231.999999999987
 20
1216.249999999945
 30
0.0
 11
236.999999999987
 21
1211.249999999945
 31
0.0
  0
LINE
  5
388
330
1F
100
AcDbEntity
  8
LAY-10
  6
CONTINUOUS
 62
     7
100
AcDbLine
 10
237.4999999999871
 20
1216.249999999945
 30
0.0
 11
242.4999999999871
 21
1211.249999999945
 31
0.0
  0
LINE
  5
389
330
1F
100
AcDbEntity
  8
LAY-10
  6
CONTINUOUS
 62
     7
100
AcDbLine
 10
237.4999999999871
 20
1196.749999999746
 30
0.0
 11
242.4999999999871
 21
1196.749999999746
 31
0.0
  0
LINE
  5
38A
330
1F
100
AcDbEntity
  8
LAY-10
  6
CONTINUOUS
 62
     7
100
AcDbLine
 10
237.4999999999871
 20
1196.749999999746
 30
0.0
 11
237.4999999999871
 21
1201.749999999746
 31
0.0
  0
LINE
  5
38B
330
1F
100
AcDbEntity
  8
LAY-10
  6
CONTINUOUS
 62
     7
100
AcDbLine
 10
242.4999999999871
 20
1196.749999999746
 30
0.0
 11
242.4999999999871
 21
1201.749999999746
 31
0.0
  0
LINE
  5
38C
330
1F
100
AcDbEntity
  8
LAY-10
  6
CONTINUOUS
 62
     7
100
AcDbLine
 10
242.4999999999871
 20
1201.749999999746
 30
0.0
 11
237.4999999999871
 21
1201.749999999746
 31
0.0
  0
LINE
  5
38D
330
1F
100
AcDbEntity
  8
LAY-10
  6
CONTINUOUS
 62
     7
100
AcDbLine
 10
242.4999999999871
 20
1196.749999999746
 30
0.0
 11
237.4999999999871
 21
1201.749999999746
 31
0.0
  0
LINE
  5
38E
330
1F
100
AcDbEntity
  8
LAY-10
  6
CONTINUOUS
 62
     7
100
AcDbLine
 10
237.4999999999871
 20
1196.749999999746
 30
0.0
 11
242.4999999999871
 21
1201.749999999746
 31
0.0
  0
LINE
  5
38F
330
1F
100
AcDbEntity
  8
LAY-10
  6
CONTINUOUS
 62
     7
100
AcDbLine
 10
275.499999999987
 20
1196.249999999746
 30
0.0
 11
270.499999999987
 21
1196.249999999746
 31
0.0
  0
LINE
  5
390
330
1F
100
AcDbEntity
  8
LAY-10
  6
CONTINUOUS
 62
     7
100
AcDbLine
 10
270.499999999987
 20
1196.249999999746
 30
0.0
 11
270.499999999987
 21
1191.249999999746
 31
0.0
  0
LINE
  5
391
330
1F
100
AcDbEntity
  8
LAY-10
  6
CONTINUOUS
 62
     7
100
AcDbLine
 10
275.999999999987
 20
1196.749999999746
 30
0.0
 11
275.999999999987
 21
1201.749999999746
 31
0.0
  0
LINE
  5
392
330
1F
100
AcDbEntity
  8
LAY-10
  6
CONTINUOUS
 62
     7
100
AcDbLine
 10
280.999999999987
 20
1201.749999999746
 30
0.0
 11
275.999999999987
 21
1201.749999999746
 31
0.0
  0
LINE
  5
393
330
1F
100
AcDbEntity
  8
LAY-10
  6
CONTINUOUS
 62
     7
100
AcDbLine
 10
270.499999999987
 20
1196.749999999746
 30
0.0
 11
275.499999999987
 21
1196.749999999746
 31
0.0
  0
LINE
  5
394
330
1F
100
AcDbEntity
  8
LAY-10
  6
CONTINUOUS
 62
     7
100
AcDbLine
 10
270.499999999987
 20
1196.749999999746
 30
0.0
 11
270.499999999987
 21
1201.749999999746
 31
0.0
  0
LINE
  5
395
330
1F
100
AcDbEntity
  8
LAY-10
  6
CONTINUOUS
 62
     7
100
AcDbLine
 10
275.499999999987
 20
1196.749999999746
 30
0.0
 11
275.499999999987
 21
1201.749999999746
 31
0.0
  0
LINE
  5
396
330
1F
100
AcDbEntity
  8
LAY-10
  6
CONTINUOUS
 62
     7
100
AcDbLine
 10
275.499999999987
 20
1201.749999999746
 30
0.0
 11
270.499999999987
 21
1201.749999999746
 31
0.0
  0
LINE
  5
397
330
1F
100
AcDbEntity
  8
LAY-10
  6
CONTINUOUS
 62
     7
100
AcDbLine
 10
275.499999999987
 20
1196.749999999746
 30
0.0
 11
270.499999999987
 21
1201.749999999746
 31
0.0
  0
LINE
  5
398
330
1F
100
AcDbEntity
  8
LAY-10
  6
CONTINUOUS
 62
     7
100
AcDbLine
 10
270.499999999987
 20
1191.249999999746
 30
0.0
 11
275.499999999987
 21
1196.249999999746
 31
0.0
  0
LINE
  5
399
330
1F
100
AcDbEntity
  8
LAY-10
  6
CONTINUOUS
 62
     7
100
AcDbLine
 10
270.499999999987
 20
1196.749999999746
 30
0.0
 11
275.499999999987
 21
1201.749999999746
 31
0.0
  0
LINE
  5
39A
330
1F
100
AcDbEntity
  8
LAY-10
  6
CONTINUOUS
 62
     7
100
AcDbLine
 10
275.999999999987
 20
1196.749999999746
 30
0.0
 11
280.999999999987
 21
1201.749999999746
 31
0.0
  0
LINE
  5
39B
330
1F
100
AcDbEntity
  8
LAY-10
  6
CONTINUOUS
 62
     7
100
AcDbLine
 10
264.999999999987
 20
1196.749999999746
 30
0.0
 11
269.999999999987
 21
1201.749999999746
 31
0.0
  0
LINE
  5
39C
330
1F
100
AcDbEntity
  8
LAY-10
  6
CONTINUOUS
 62
     7
100
AcDbLine
 10
264.999999999987
 20
1191.249999999746
 30
0.0
 11
269.999999999987
 21
1196.249999999746
 31
0.0
  0
LINE
  5
39D
330
1F
100
AcDbEntity
  8
LAY-10
  6
CONTINUOUS
 62
     7
100
AcDbLine
 10
269.999999999987
 20
1196.749999999746
 30
0.0
 11
264.999999999987
 21
1201.749999999746
 31
0.0
  0
LINE
  5
39E
330
1F
100
AcDbEntity
  8
LAY-10
  6
CONTINUOUS
 62
     7
100
AcDbLine
 10
269.999999999987
 20
1191.249999999746
 30
0.0
 11
264.999999999987
 21
1196.249999999746
 31
0.0
  0
LINE
  5
39F
330
1F
100
AcDbEntity
  8
LAY-10
  6
CONTINUOUS
 62
     7
100
AcDbLine
 10
269.999999999987
 20
1201.749999999746
 30
0.0
 11
264.999999999987
 21
1201.749999999746
 31
0.0
  0
LINE
  5
3A0
330
1F
100
AcDbEntity
  8
LAY-10
  6
CONTINUOUS
 62
     7
100
AcDbLine
 10
269.999999999987
 20
1196.749999999746
 30
0.0
 11
269.999999999987
 21
1201.749999999746
 31
0.0
  0
LINE
  5
3A1
330
1F
100
AcDbEntity
  8
LAY-10
  6
CONTINUOUS
 62
     7
100
AcDbLine
 10
264.999999999987
 20
1196.749999999746
 30
0.0
 11
264.999999999987
 21
1201.749999999746
 31
0.0
  0
LINE
  5
3A2
330
1F
100
AcDbEntity
  8
LAY-10
  6
CONTINUOUS
 62
     7
100
AcDbLine
 10
264.999999999987
 20
1196.749999999746
 30
0.0
 11
269.999999999987
 21
1196.749999999746
 31
0.0
  0
LINE
  5
3A3
330
1F
100
AcDbEntity
  8
LAY-10
  6
CONTINUOUS
 62
     7
100
AcDbLine
 10
264.999999999987
 20
1196.249999999746
 30
0.0
 11
264.999999999987
 21
1191.249999999746
 31
0.0
  0
LINE
  5
3A4
330
1F
100
AcDbEntity
  8
LAY-10
  6
CONTINUOUS
 62
     7
100
AcDbLine
 10
269.999999999987
 20
1196.249999999746
 30
0.0
 11
264.999999999987
 21
1196.249999999746
 31
0.0
  0
LINE
  5
3A5
330
1F
100
AcDbEntity
  8
LAY-10
  6
CONTINUOUS
 62
     7
100
AcDbLine
 10
269.999999999987
 20
1191.249999999746
 30
0.0
 11
264.999999999987
 21
1191.249999999746
 31
0.0
  0
LINE
  5
3A6
330
1F
100
AcDbEntity
  8
LAY-10
  6
CONTINUOUS
 62
     7
100
AcDbLine
 10
269.999999999987
 20
1191.249999999746
 30
0.0
 11
269.999999999987
 21
1196.249999999746
 31
0.0
  0
LINE
  5
3A7
330
1F
100
AcDbEntity
  8
LAY-10
  6
CONTINUOUS
 62
     7
100
AcDbLine
 10
264.499999999987
 20
1191.249999999746
 30
0.0
 11
264.499999999987
 21
1196.249999999746
 31
0.0
  0
LINE
  5
3A8
330
1F
100
AcDbEntity
  8
LAY-10
  6
CONTINUOUS
 62
     7
100
AcDbLine
 10
264.499999999987
 20
1191.249999999746
 30
0.0
 11
259.499999999987
 21
1191.249999999746
 31
0.0
  0
LINE
  5
3A9
330
1F
100
AcDbEntity
  8
LAY-10
  6
CONTINUOUS
 62
     7
100
AcDbLine
 10
264.499999999987
 20
1196.249999999746
 30
0.0
 11
259.499999999987
 21
1196.249999999746
 31
0.0
  0
LINE
  5
3AA
330
1F
100
AcDbEntity
  8
LAY-10
  6
CONTINUOUS
 62
     7
100
AcDbLine
 10
259.499999999987
 20
1196.249999999746
 30
0.0
 11
259.499999999987
 21
1191.249999999746
 31
0.0
  0
LINE
  5
3AB
330
1F
100
AcDbEntity
  8
LAY-10
  6
CONTINUOUS
 62
     7
100
AcDbLine
 10
258.999999999987
 20
1191.249999999746
 30
0.0
 11
258.999999999987
 21
1196.249999999746
 31
0.0
  0
LINE
  5
3AC
330
1F
100
AcDbEntity
  8
LAY-10
  6
CONTINUOUS
 62
     7
100
AcDbLine
 10
258.999999999987
 20
1191.249999999746
 30
0.0
 11
253.999999999987
 21
1191.249999999746
 31
0.0
  0
LINE
  5
3AD
330
1F
100
AcDbEntity
  8
LAY-10
  6
CONTINUOUS
 62
     7
100
AcDbLine
 10
258.999999999987
 20
1196.249999999746
 30
0.0
 11
253.999999999987
 21
1196.249999999746
 31
0.0
  0
LINE
  5
3AE
330
1F
100
AcDbEntity
  8
LAY-10
  6
CONTINUOUS
 62
     7
100
AcDbLine
 10
253.999999999987
 20
1196.249999999746
 30
0.0
 11
253.999999999987
 21
1191.249999999746
 31
0.0
  0
LINE
  5
3AF
330
1F
100
AcDbEntity
  8
LAY-10
  6
CONTINUOUS
 62
     7
100
AcDbLine
 10
259.499999999987
 20
1196.749999999746
 30
0.0
 11
264.499999999987
 21
1196.749999999746
 31
0.0
  0
LINE
  5
3B0
330
1F
100
AcDbEntity
  8
LAY-10
  6
CONTINUOUS
 62
     7
100
AcDbLine
 10
259.499999999987
 20
1196.749999999746
 30
0.0
 11
259.499999999987
 21
1201.749999999746
 31
0.0
  0
LINE
  5
3B1
330
1F
100
AcDbEntity
  8
LAY-10
  6
CONTINUOUS
 62
     7
100
AcDbLine
 10
264.499999999987
 20
1196.749999999746
 30
0.0
 11
264.499999999987
 21
1201.749999999746
 31
0.0
  0
LINE
  5
3B2
330
1F
100
AcDbEntity
  8
LAY-10
  6
CONTINUOUS
 62
     7
100
AcDbLine
 10
264.499999999987
 20
1201.749999999746
 30
0.0
 11
259.499999999987
 21
1201.749999999746
 31
0.0
  0
LINE
  5
3B3
330
1F
100
AcDbEntity
  8
LAY-10
  6
CONTINUOUS
 62
     7
100
AcDbLine
 10
253.999999999987
 20
1196.749999999746
 30
0.0
 11
258.999999999987
 21
1196.749999999746
 31
0.0
  0
LINE
  5
3B4
330
1F
100
AcDbEntity
  8
LAY-10
  6
CONTINUOUS
 62
     7
100
AcDbLine
 10
253.999999999987
 20
1196.749999999746
 30
0.0
 11
253.999999999987
 21
1201.749999999746
 31
0.0
  0
LINE
  5
3B5
330
1F
100
AcDbEntity
  8
LAY-10
  6
CONTINUOUS
 62
     7
100
AcDbLine
 10
258.999999999987
 20
1196.749999999746
 30
0.0
 11
258.999999999987
 21
1201.749999999746
 31
0.0
  0
LINE
  5
3B6
330
1F
100
AcDbEntity
  8
LAY-10
  6
CONTINUOUS
 62
     7
100
AcDbLine
 10
258.999999999987
 20
1201.749999999746
 30
0.0
 11
253.999999999987
 21
1201.749999999746
 31
0.0
  0
LINE
  5
3B7
330
1F
100
AcDbEntity
  8
LAY-10
  6
CONTINUOUS
 62
     7
100
AcDbLine
 10
264.499999999987
 20
1191.249999999746
 30
0.0
 11
259.499999999987
 21
1196.249999999746
 31
0.0
  0
LINE
  5
3B8
330
1F
100
AcDbEntity
  8
LAY-10
  6
CONTINUOUS
 62
     7
100
AcDbLine
 10
258.999999999987
 20
1191.249999999746
 30
0.0
 11
253.999999999987
 21
1196.249999999746
 31
0.0
  0
LINE
  5
3B9
330
1F
100
AcDbEntity
  8
LAY-10
  6
CONTINUOUS
 62
     7
100
AcDbLine
 10
264.499999999987
 20
1196.749999999746
 30
0.0
 11
259.499999999987
 21
1201.749999999746
 31
0.0
  0
LINE
  5
3BA
330
1F
100
AcDbEntity
  8
LAY-10
  6
CONTINUOUS
 62
     7
100
AcDbLine
 10
258.999999999987
 20
1196.749999999746
 30
0.0
 11
253.999999999987
 21
1201.749999999746
 31
0.0
  0
LINE
  5
3BB
330
1F
100
AcDbEntity
  8
LAY-10
  6
CONTINUOUS
 62
     7
100
AcDbLine
 10
259.499999999987
 20
1191.249999999746
 30
0.0
 11
264.499999999987
 21
1196.249999999746
 31
0.0
  0
LINE
  5
3BC
330
1F
100
AcDbEntity
  8
LAY-10
  6
CONTINUOUS
 62
     7
100
AcDbLine
 10
253.999999999987
 20
1191.249999999746
 30
0.0
 11
258.999999999987
 21
1196.249999999746
 31
0.0
  0
LINE
  5
3BD
330
1F
100
AcDbEntity
  8
LAY-10
  6
CONTINUOUS
 62
     7
100
AcDbLine
 10
253.999999999987
 20
1196.749999999746
 30
0.0
 11
258.999999999987
 21
1201.749999999746
 31
0.0
  0
LINE
  5
3BE
330
1F
100
AcDbEntity
  8
LAY-10
  6
CONTINUOUS
 62
     7
100
AcDbLine
 10
259.499999999987
 20
1196.749999999746
 30
0.0
 11
264.499999999987
 21
1201.749999999746
 31
0.0
  0
LINE
  5
3BF
330
1F
100
AcDbEntity
  8
LAY-10
  6
CONTINUOUS
 62
     7
100
AcDbLine
 10
286.499999999987
 20
1211.249999999946
 30
0.0
 11
286.499999999987
 21
1216.249999999946
 31
0.0
  0
LINE
  5
3C0
330
1F
100
AcDbEntity
  8
LAY-10
  6
CONTINUOUS
 62
     7
100
AcDbLine
 10
286.499999999987
 20
1211.249999999946
 30
0.0
 11
281.499999999987
 21
1211.249999999946
 31
0.0
  0
LINE
  5
3C1
330
1F
100
AcDbEntity
  8
LAY-10
  6
CONTINUOUS
 62
     7
100
AcDbLine
 10
286.499999999987
 20
1216.249999999946
 30
0.0
 11
281.499999999987
 21
1216.249999999946
 31
0.0
  0
LINE
  5
3C2
330
1F
100
AcDbEntity
  8
LAY-10
  6
CONTINUOUS
 62
     7
100
AcDbLine
 10
281.499999999987
 20
1216.249999999946
 30
0.0
 11
281.499999999987
 21
1211.249999999946
 31
0.0
  0
LINE
  5
3C3
330
1F
100
AcDbEntity
  8
LAY-10
  6
CONTINUOUS
 62
     7
100
AcDbLine
 10
280.999999999987
 20
1211.249999999946
 30
0.0
 11
280.999999999987
 21
1216.249999999946
 31
0.0
  0
LINE
  5
3C4
330
1F
100
AcDbEntity
  8
LAY-10
  6
CONTINUOUS
 62
     7
100
AcDbLine
 10
280.999999999987
 20
1211.249999999946
 30
0.0
 11
275.999999999987
 21
1211.249999999946
 31
0.0
  0
LINE
  5
3C5
330
1F
100
AcDbEntity
  8
LAY-10
  6
CONTINUOUS
 62
     7
100
AcDbLine
 10
280.999999999987
 20
1216.249999999946
 30
0.0
 11
275.999999999987
 21
1216.249999999946
 31
0.0
  0
LINE
  5
3C6
330
1F
100
AcDbEntity
  8
LAY-10
  6
CONTINUOUS
 62
     7
100
AcDbLine
 10
275.999999999987
 20
1216.249999999946
 30
0.0
 11
275.999999999987
 21
1211.249999999946
 31
0.0
  0
LINE
  5
3C7
330
1F
100
AcDbEntity
  8
LAY-10
  6
CONTINUOUS
 62
     7
100
AcDbLine
 10
275.499999999987
 20
1211.249999999946
 30
0.0
 11
275.499999999987
 21
1216.249999999946
 31
0.0
  0
LINE
  5
3C8
330
1F
100
AcDbEntity
  8
LAY-10
  6
CONTINUOUS
 62
     7
100
AcDbLine
 10
275.499999999987
 20
1211.249999999946
 30
0.0
 11
270.499999999987
 21
1211.249999999946
 31
0.0
  0
LINE
  5
3C9
330
1F
100
AcDbEntity
  8
LAY-10
  6
CONTINUOUS
 62
     7
100
AcDbLine
 10
275.499999999987
 20
1216.249999999946
 30
0.0
 11
270.499999999987
 21
1216.249999999946
 31
0.0
  0
LINE
  5
3CA
330
1F
100
AcDbEntity
  8
LAY-10
  6
CONTINUOUS
 62
     7
100
AcDbLine
 10
270.499999999987
 20
1216.249999999946
 30
0.0
 11
270.499999999987
 21
1211.249999999946
 31
0.0
  0
LINE
  5
3CB
330
1F
100
AcDbEntity
  8
LAY-10
  6
CONTINUOUS
 62
     7
100
AcDbLine
 10
281.499999999987
 20
1216.749999999946
 30
0.0
 11
286.499999999987
 21
1216.749999999946
 31
0.0
  0
LINE
  5
3CC
330
1F
100
AcDbEntity
  8
LAY-10
  6
CONTINUOUS
 62
     7
100
AcDbLine
 10
281.499999999987
 20
1216.749999999946
 30
0.0
 11
281.499999999987
 21
1221.749999999946
 31
0.0
  0
LINE
  5
3CD
330
1F
100
AcDbEntity
  8
LAY-10
  6
CONTINUOUS
 62
     7
100
AcDbLine
 10
275.999999999987
 20
1216.749999999946
 30
0.0
 11
280.999999999987
 21
1216.749999999946
 31
0.0
  0
LINE
  5
3CE
330
1F
100
AcDbEntity
  8
LAY-10
  6
CONTINUOUS
 62
     7
100
AcDbLine
 10
275.999999999987
 20
1216.749999999946
 30
0.0
 11
275.999999999987
 21
1221.749999999946
 31
0.0
  0
LINE
  5
3CF
330
1F
100
AcDbEntity
  8
LAY-10
  6
CONTINUOUS
 62
     7
100
AcDbLine
 10
280.999999999987
 20
1216.749999999946
 30
0.0
 11
280.999999999987
 21
1221.749999999946
 31
0.0
  0
LINE
  5
3D0
330
1F
100
AcDbEntity
  8
LAY-10
  6
CONTINUOUS
 62
     7
100
AcDbLine
 10
280.999999999987
 20
1221.749999999946
 30
0.0
 11
275.999999999987
 21
1221.749999999946
 31
0.0
  0
LINE
  5
3D1
330
1F
100
AcDbEntity
  8
LAY-10
  6
CONTINUOUS
 62
     7
100
AcDbLine
 10
270.499999999987
 20
1216.749999999946
 30
0.0
 11
275.499999999987
 21
1216.749999999946
 31
0.0
  0
LINE
  5
3D2
330
1F
100
AcDbEntity
  8
LAY-10
  6
CONTINUOUS
 62
     7
100
AcDbLine
 10
270.499999999987
 20
1216.749999999946
 30
0.0
 11
270.499999999987
 21
1221.749999999946
 31
0.0
  0
LINE
  5
3D3
330
1F
100
AcDbEntity
  8
LAY-10
  6
CONTINUOUS
 62
     7
100
AcDbLine
 10
275.499999999987
 20
1216.749999999946
 30
0.0
 11
275.499999999987
 21
1221.749999999946
 31
0.0
  0
LINE
  5
3D4
330
1F
100
AcDbEntity
  8
LAY-10
  6
CONTINUOUS
 62
     7
100
AcDbLine
 10
275.499999999987
 20
1221.749999999946
 30
0.0
 11
270.499999999987
 21
1221.749999999946
 31
0.0
  0
LINE
  5
3D5
330
1F
100
AcDbEntity
  8
LAY-10
  6
CONTINUOUS
 62
     7
100
AcDbLine
 10
286.499999999987
 20
1211.249999999946
 30
0.0
 11
281.499999999987
 21
1216.249999999946
 31
0.0
  0
LINE
  5
3D6
330
1F
100
AcDbEntity
  8
LAY-10
  6
CONTINUOUS
 62
     7
100
AcDbLine
 10
280.999999999987
 20
1211.249999999946
 30
0.0
 11
275.999999999987
 21
1216.249999999946
 31
0.0
  0
LINE
  5
3D7
330
1F
100
AcDbEntity
  8
LAY-10
  6
CONTINUOUS
 62
     7
100
AcDbLine
 10
275.499999999987
 20
1211.249999999946
 30
0.0
 11
270.499999999987
 21
1216.249999999946
 31
0.0
  0
LINE
  5
3D8
330
1F
100
AcDbEntity
  8
LAY-10
  6
CONTINUOUS
 62
     7
100
AcDbLine
 10
286.499999999987
 20
1216.749999999946
 30
0.0
 11
281.499999999987
 21
1221.749999999946
 31
0.0
  0
LINE
  5
3D9
330
1F
100
AcDbEntity
  8
LAY-10
  6
CONTINUOUS
 62
     7
100
AcDbLine
 10
280.999999999987
 20
1216.749999999946
 30
0.0
 11
275.999999999987
 21
1221.749999999946
 31
0.0
  0
LINE
  5
3DA
330
1F
100
AcDbEntity
  8
LAY-10
  6
CONTINUOUS
 62
     7
100
AcDbLine
 10
275.499999999987
 20
1216.749999999946
 30
0.0
 11
270.499999999987
 21
1221.749999999946
 31
0.0
  0
LINE
  5
3DB
330
1F
100
AcDbEntity
  8
LAY-10
  6
CONTINUOUS
 62
     7
100
AcDbLine
 10
281.499999999987
 20
1211.249999999946
 30
0.0
 11
286.499999999987
 21
1216.249999999946
 31
0.0
  0
LINE
  5
3DC
330
1F
100
AcDbEntity
  8
LAY-10
  6
CONTINUOUS
 62
     7
100
AcDbLine
 10
275.999999999987
 20
1211.249999999946
 30
0.0
 11
280.999999999987
 21
1216.249999999946
 31
0.0
  0
LINE
  5
3DD
330
1F
100
AcDbEntity
  8
LAY-10
  6
CONTINUOUS
 62
     7
100
AcDbLine
 10
270.499999999987
 20
1211.249999999946
 30
0.0
 11
275.499999999987
 21
1216.249999999946
 31
0.0
  0
LINE
  5
3DE
330
1F
100
AcDbEntity
  8
LAY-10
  6
CONTINUOUS
 62
     7
100
AcDbLine
 10
270.499999999987
 20
1216.749999999946
 30
0.0
 11
275.499999999987
 21
1221.749999999946
 31
0.0
  0
LINE
  5
3DF
330
1F
100
AcDbEntity
  8
LAY-10
  6
CONTINUOUS
 62
     7
100
AcDbLine
 10
275.999999999987
 20
1216.749999999946
 30
0.0
 11
280.999999999987
 21
1221.749999999946
 31
0.0
  0
LINE
  5
3E0
330
1F
100
AcDbEntity
  8
LAY-10
  6
CONTINUOUS
 62
     7
100
AcDbLine
 10
264.999999999987
 20
1216.749999999946
 30
0.0
 11
269.999999999987
 21
1221.749999999946
 31
0.0
  0
LINE
  5
3E1
330
1F
100
AcDbEntity
  8
LAY-10
  6
CONTINUOUS
 62
     7
100
AcDbLine
 10
264.999999999987
 20
1211.249999999946
 30
0.0
 11
269.999999999987
 21
1216.249999999946
 31
0.0
  0
LINE
  5
3E2
330
1F
100
AcDbEntity
  8
LAY-10
  6
CONTINUOUS
 62
     7
100
AcDbLine
 10
269.999999999987
 20
1216.749999999946
 30
0.0
 11
264.999999999987
 21
1221.749999999946
 31
0.0
  0
LINE
  5
3E3
330
1F
100
AcDbEntity
  8
LAY-10
  6
CONTINUOUS
 62
     7
100
AcDbLine
 10
269.999999999987
 20
1211.249999999946
 30
0.0
 11
264.999999999987
 21
1216.249999999946
 31
0.0
  0
LINE
  5
3E4
330
1F
100
AcDbEntity
  8
LAY-10
  6
CONTINUOUS
 62
     7
100
AcDbLine
 10
269.999999999987
 20
1221.749999999946
 30
0.0
 11
264.999999999987
 21
1221.749999999946
 31
0.0
  0
LINE
  5
3E5
330
1F
100
AcDbEntity
  8
LAY-10
  6
CONTINUOUS
 62
     7
100
AcDbLine
 10
269.999999999987
 20
1216.749999999946
 30
0.0
 11
269.999999999987
 21
1221.749999999946
 31
0.0
  0
LINE
  5
3E6
330
1F
100
AcDbEntity
  8
LAY-10
  6
CONTINUOUS
 62
     7
100
AcDbLine
 10
264.999999999987
 20
1216.749999999946
 30
0.0
 11
264.999999999987
 21
1221.749999999946
 31
0.0
  0
LINE
  5
3E7
330
1F
100
AcDbEntity
  8
LAY-10
  6
CONTINUOUS
 62
     7
100
AcDbLine
 10
264.999999999987
 20
1216.749999999946
 30
0.0
 11
269.999999999987
 21
1216.749999999946
 31
0.0
  0
LINE
  5
3E8
330
1F
100
AcDbEntity
  8
LAY-10
  6
CONTINUOUS
 62
     7
100
AcDbLine
 10
264.999999999987
 20
1216.249999999946
 30
0.0
 11
264.999999999987
 21
1211.249999999946
 31
0.0
  0
LINE
  5
3E9
330
1F
100
AcDbEntity
  8
LAY-10
  6
CONTINUOUS
 62
     7
100
AcDbLine
 10
269.999999999987
 20
1216.249999999946
 30
0.0
 11
264.999999999987
 21
1216.249999999946
 31
0.0
  0
LINE
  5
3EA
330
1F
100
AcDbEntity
  8
LAY-10
  6
CONTINUOUS
 62
     7
100
AcDbLine
 10
269.999999999987
 20
1211.249999999946
 30
0.0
 11
264.999999999987
 21
1211.249999999946
 31
0.0
  0
LINE
  5
3EB
330
1F
100
AcDbEntity
  8
LAY-10
  6
CONTINUOUS
 62
     7
100
AcDbLine
 10
269.999999999987
 20
1211.249999999946
 30
0.0
 11
269.999999999987
 21
1216.249999999946
 31
0.0
  0
LINE
  5
3EC
330
1F
100
AcDbEntity
  8
LAY-10
  6
CONTINUOUS
 62
     7
100
AcDbLine
 10
264.499999999987
 20
1211.249999999946
 30
0.0
 11
264.499999999987
 21
1216.249999999946
 31
0.0
  0
LINE
  5
3ED
330
1F
100
AcDbEntity
  8
LAY-10
  6
CONTINUOUS
 62
     7
100
AcDbLine
 10
264.499999999987
 20
1211.249999999946
 30
0.0
 11
259.499999999987
 21
1211.249999999946
 31
0.0
  0
LINE
  5
3EE
330
1F
100
AcDbEntity
  8
LAY-10
  6
CONTINUOUS
 62
     7
100
AcDbLine
 10
264.499999999987
 20
1216.249999999946
 30
0.0
 11
259.499999999987
 21
1216.249999999946
 31
0.0
  0
LINE
  5
3EF
330
1F
100
AcDbEntity
  8
LAY-10
  6
CONTINUOUS
 62
     7
100
AcDbLine
 10
259.499999999987
 20
1216.249999999946
 30
0.0
 11
259.499999999987
 21
1211.249999999946
 31
0.0
  0
LINE
  5
3F0
330
1F
100
AcDbEntity
  8
LAY-10
  6
CONTINUOUS
 62
     7
100
AcDbLine
 10
258.999999999987
 20
1211.249999999946
 30
0.0
 11
258.999999999987
 21
1216.249999999946
 31
0.0
  0
LINE
  5
3F1
330
1F
100
AcDbEntity
  8
LAY-10
  6
CONTINUOUS
 62
     7
100
AcDbLine
 10
258.999999999987
 20
1211.249999999946
 30
0.0
 11
253.999999999987
 21
1211.249999999946
 31
0.0
  0
LINE
  5
3F2
330
1F
100
AcDbEntity
  8
LAY-10
  6
CONTINUOUS
 62
     7
100
AcDbLine
 10
258.999999999987
 20
1216.249999999946
 30
0.0
 11
253.999999999987
 21
1216.249999999946
 31
0.0
  0
LINE
  5
3F3
330
1F
100
AcDbEntity
  8
LAY-10
  6
CONTINUOUS
 62
     7
100
AcDbLine
 10
253.999999999987
 20
1216.249999999946
 30
0.0
 11
253.999999999987
 21
1211.249999999946
 31
0.0
  0
LINE
  5
3F4
330
1F
100
AcDbEntity
  8
LAY-10
  6
CONTINUOUS
 62
     7
100
AcDbLine
 10
259.499999999987
 20
1216.749999999946
 30
0.0
 11
264.499999999987
 21
1216.749999999946
 31
0.0
  0
LINE
  5
3F5
330
1F
100
AcDbEntity
  8
LAY-10
  6
CONTINUOUS
 62
     7
100
AcDbLine
 10
259.499999999987
 20
1216.749999999946
 30
0.0
 11
259.499999999987
 21
1221.749999999946
 31
0.0
  0
LINE
  5
3F6
330
1F
100
AcDbEntity
  8
LAY-10
  6
CONTINUOUS
 62
     7
100
AcDbLine
 10
264.499999999987
 20
1216.749999999946
 30
0.0
 11
264.499999999987
 21
1221.749999999946
 31
0.0
  0
LINE
  5
3F7
330
1F
100
AcDbEntity
  8
LAY-10
  6
CONTINUOUS
 62
     7
100
AcDbLine
 10
264.499999999987
 20
1221.749999999946
 30
0.0
 11
259.499999999987
 21
1221.749999999946
 31
0.0
  0
LINE
  5
3F8
330
1F
100
AcDbEntity
  8
LAY-10
  6
CONTINUOUS
 62
     7
100
AcDbLine
 10
253.999999999987
 20
1216.749999999946
 30
0.0
 11
258.999999999987
 21
1216.749999999946
 31
0.0
  0
LINE
  5
3F9
330
1F
100
AcDbEntity
  8
LAY-10
  6
CONTINUOUS
 62
     7
100
AcDbLine
 10
253.999999999987
 20
1216.749999999946
 30
0.0
 11
253.999999999987
 21
1221.749999999946
 31
0.0
  0
LINE
  5
3FA
330
1F
100
AcDbEntity
  8
LAY-10
  6
CONTINUOUS
 62
     7
100
AcDbLine
 10
258.999999999987
 20
1216.749999999946
 30
0.0
 11
258.999999999987
 21
1221.749999999946
 31
0.0
  0
LINE
  5
3FB
330
1F
100
AcDbEntity
  8
LAY-10
  6
CONTINUOUS
 62
     7
100
AcDbLine
 10
258.999999999987
 20
1221.749999999946
 30
0.0
 11
253.999999999987
 21
1221.749999999946
 31
0.0
  0
LINE
  5
3FC
330
1F
100
AcDbEntity
  8
LAY-10
  6
CONTINUOUS
 62
     7
100
AcDbLine
 10
264.499999999987
 20
1211.249999999946
 30
0.0
 11
259.499999999987
 21
1216.249999999946
 31
0.0
  0
LINE
  5
3FD
330
1F
100
AcDbEntity
  8
LAY-10
  6
CONTINUOUS
 62
     7
100
AcDbLine
 10
258.999999999987
 20
1211.249999999946
 30
0.0
 11
253.999999999987
 21
1216.249999999946
 31
0.0
  0
LINE
  5
3FE
330
1F
100
AcDbEntity
  8
LAY-10
  6
CONTINUOUS
 62
     7
100
AcDbLine
 10
264.499999999987
 20
1216.749999999946
 30
0.0
 11
259.499999999987
 21
1221.749999999946
 31
0.0
  0
LINE
  5
3FF
330
1F
100
AcDbEntity
  8
LAY-10
  6
CONTINUOUS
 62
     7
100
AcDbLine
 10
258.999999999987
 20
1216.749999999946
 30
0.0
 11
253.999999999987
 21
1221.749999999946
 31
0.0
  0
LINE
  5
400
330
1F
100
AcDbEntity
  8
LAY-10
  6
CONTINUOUS
 62
     7
100
AcDbLine
 10
259.499999999987
 20
1211.249999999946
 30
0.0
 11
264.499999999987
 21
1216.249999999946
 31
0.0
  0
LINE
  5
401
330
1F
100
AcDbEntity
  8
LAY-10
  6
CONTINUOUS
 62
     7
100
AcDbLine
 10
253.999999999987
 20
1211.249999999946
 30
0.0
 11
258.999999999987
 21
1216.249999999946
 31
0.0
  0
LINE
  5
402
330
1F
100
AcDbEntity
  8
LAY-10
  6
CONTINUOUS
 62
     7
100
AcDbLine
 10
253.999999999987
 20
1216.749999999946
 30
0.0
 11
258.999999999987
 21
1221.749999999946
 31
0.0
  0
LINE
  5
403
330
1F
100
AcDbEntity
  8
LAY-10
  6
CONTINUOUS
 62
     7
100
AcDbLine
 10
259.499999999987
 20
1216.749999999946
 30
0.0
 11
264.499999999987
 21
1221.749999999946
 31
0.0
  0
LINE
  5
404
330
1F
100
AcDbEntity
  8
LAY-10
  6
CONTINUOUS
 62
     7
100
AcDbLine
 10
280.999999999987
 20
1231.249999999936
 30
0.0
 11
275.999999999987
 21
1231.249999999936
 31
0.0
  0
LINE
  5
405
330
1F
100
AcDbEntity
  8
LAY-10
  6
CONTINUOUS
 62
     7
100
AcDbLine
 10
275.999999999987
 20
1236.249999999936
 30
0.0
 11
275.999999999987
 21
1231.249999999936
 31
0.0
  0
LINE
  5
406
330
1F
100
AcDbEntity
  8
LAY-10
  6
CONTINUOUS
 62
     7
100
AcDbLine
 10
275.499999999987
 20
1231.249999999936
 30
0.0
 11
275.499999999987
 21
1236.249999999936
 31
0.0
  0
LINE
  5
407
330
1F
100
AcDbEntity
  8
LAY-10
  6
CONTINUOUS
 62
     7
100
AcDbLine
 10
275.499999999987
 20
1231.249999999936
 30
0.0
 11
270.499999999987
 21
1231.249999999936
 31
0.0
  0
LINE
  5
408
330
1F
100
AcDbEntity
  8
LAY-10
  6
CONTINUOUS
 62
     7
100
AcDbLine
 10
275.499999999987
 20
1236.249999999936
 30
0.0
 11
270.499999999987
 21
1236.249999999936
 31
0.0
  0
LINE
  5
409
330
1F
100
AcDbEntity
  8
LAY-10
  6
CONTINUOUS
 62
     7
100
AcDbLine
 10
270.499999999987
 20
1236.249999999936
 30
0.0
 11
270.499999999987
 21
1231.249999999936
 31
0.0
  0
LINE
  5
40A
330
1F
100
AcDbEntity
  8
LAY-10
  6
CONTINUOUS
 62
     7
100
AcDbLine
 10
270.499999999987
 20
1236.749999999936
 30
0.0
 11
275.499999999987
 21
1236.749999999936
 31
0.0
  0
LINE
  5
40B
330
1F
100
AcDbEntity
  8
LAY-10
  6
CONTINUOUS
 62
     7
100
AcDbLine
 10
280.999999999987
 20
1231.249999999936
 30
0.0
 11
275.999999999987
 21
1236.249999999936
 31
0.0
  0
LINE
  5
40C
330
1F
100
AcDbEntity
  8
LAY-10
  6
CONTINUOUS
 62
     7
100
AcDbLine
 10
275.499999999987
 20
1231.249999999936
 30
0.0
 11
270.499999999987
 21
1236.249999999936
 31
0.0
  0
LINE
  5
40D
330
1F
100
AcDbEntity
  8
LAY-10
  6
CONTINUOUS
 62
     7
100
AcDbLine
 10
270.499999999987
 20
1231.249999999936
 30
0.0
 11
275.499999999987
 21
1236.249999999936
 31
0.0
  0
LINE
  5
40E
330
1F
100
AcDbEntity
  8
LAY-10
  6
CONTINUOUS
 62
     7
100
AcDbLine
 10
264.999999999987
 20
1231.249999999936
 30
0.0
 11
269.999999999987
 21
1236.249999999936
 31
0.0
  0
LINE
  5
40F
330
1F
100
AcDbEntity
  8
LAY-10
  6
CONTINUOUS
 62
     7
100
AcDbLine
 10
269.999999999987
 20
1236.749999999936
 30
0.0
 11
264.999999999987
 21
1241.749999999936
 31
0.0
  0
LINE
  5
410
330
1F
100
AcDbEntity
  8
LAY-10
  6
CONTINUOUS
 62
     7
100
AcDbLine
 10
269.999999999987
 20
1231.249999999936
 30
0.0
 11
264.999999999987
 21
1236.249999999936
 31
0.0
  0
LINE
  5
411
330
1F
100
AcDbEntity
  8
LAY-10
  6
CONTINUOUS
 62
     7
100
AcDbLine
 10
264.999999999987
 20
1236.749999999936
 30
0.0
 11
264.999999999987
 21
1241.749999999936
 31
0.0
  0
LINE
  5
412
330
1F
100
AcDbEntity
  8
LAY-10
  6
CONTINUOUS
 62
     7
100
AcDbLine
 10
264.999999999987
 20
1236.749999999936
 30
0.0
 11
269.999999999987
 21
1236.749999999936
 31
0.0
  0
LINE
  5
413
330
1F
100
AcDbEntity
  8
LAY-10
  6
CONTINUOUS
 62
     7
100
AcDbLine
 10
264.999999999987
 20
1236.249999999936
 30
0.0
 11
264.999999999987
 21
1231.249999999936
 31
0.0
  0
LINE
  5
414
330
1F
100
AcDbEntity
  8
LAY-10
  6
CONTINUOUS
 62
     7
100
AcDbLine
 10
269.999999999987
 20
1236.249999999936
 30
0.0
 11
264.999999999987
 21
1236.249999999936
 31
0.0
  0
LINE
  5
415
330
1F
100
AcDbEntity
  8
LAY-10
  6
CONTINUOUS
 62
     7
100
AcDbLine
 10
269.999999999987
 20
1231.249999999936
 30
0.0
 11
264.999999999987
 21
1231.249999999936
 31
0.0
  0
LINE
  5
416
330
1F
100
AcDbEntity
  8
LAY-10
  6
CONTINUOUS
 62
     7
100
AcDbLine
 10
269.999999999987
 20
1231.249999999936
 30
0.0
 11
269.999999999987
 21
1236.249999999936
 31
0.0
  0
LINE
  5
417
330
1F
100
AcDbEntity
  8
LAY-10
  6
CONTINUOUS
 62
     7
100
AcDbLine
 10
264.499999999987
 20
1231.249999999936
 30
0.0
 11
264.499999999987
 21
1236.249999999936
 31
0.0
  0
LINE
  5
418
330
1F
100
AcDbEntity
  8
LAY-10
  6
CONTINUOUS
 62
     7
100
AcDbLine
 10
264.499999999987
 20
1231.249999999936
 30
0.0
 11
259.499999999987
 21
1231.249999999936
 31
0.0
  0
LINE
  5
419
330
1F
100
AcDbEntity
  8
LAY-10
  6
CONTINUOUS
 62
     7
100
AcDbLine
 10
264.499999999987
 20
1236.249999999936
 30
0.0
 11
259.499999999987
 21
1236.249999999936
 31
0.0
  0
LINE
  5
41A
330
1F
100
AcDbEntity
  8
LAY-10
  6
CONTINUOUS
 62
     7
100
AcDbLine
 10
259.499999999987
 20
1236.249999999936
 30
0.0
 11
259.499999999987
 21
1231.249999999936
 31
0.0
  0
LINE
  5
41B
330
1F
100
AcDbEntity
  8
LAY-10
  6
CONTINUOUS
 62
     7
100
AcDbLine
 10
258.999999999987
 20
1231.249999999936
 30
0.0
 11
258.999999999987
 21
1236.249999999936
 31
0.0
  0
LINE
  5
41C
330
1F
100
AcDbEntity
  8
LAY-10
  6
CONTINUOUS
 62
     7
100
AcDbLine
 10
258.999999999987
 20
1231.249999999936
 30
0.0
 11
253.999999999987
 21
1231.249999999936
 31
0.0
  0
LINE
  5
41D
330
1F
100
AcDbEntity
  8
LAY-10
  6
CONTINUOUS
 62
     7
100
AcDbLine
 10
258.999999999987
 20
1236.249999999936
 30
0.0
 11
253.999999999987
 21
1236.249999999936
 31
0.0
  0
LINE
  5
41E
330
1F
100
AcDbEntity
  8
LAY-10
  6
CONTINUOUS
 62
     7
100
AcDbLine
 10
253.999999999987
 20
1236.249999999936
 30
0.0
 11
253.999999999987
 21
1231.249999999936
 31
0.0
  0
LINE
  5
41F
330
1F
100
AcDbEntity
  8
LAY-10
  6
CONTINUOUS
 62
     7
100
AcDbLine
 10
259.499999999987
 20
1236.749999999936
 30
0.0
 11
264.499999999987
 21
1236.749999999936
 31
0.0
  0
LINE
  5
420
330
1F
100
AcDbEntity
  8
LAY-10
  6
CONTINUOUS
 62
     7
100
AcDbLine
 10
259.499999999987
 20
1236.749999999936
 30
0.0
 11
259.499999999987
 21
1241.749999999936
 31
0.0
  0
LINE
  5
421
330
1F
100
AcDbEntity
  8
LAY-10
  6
CONTINUOUS
 62
     7
100
AcDbLine
 10
264.499999999987
 20
1236.749999999936
 30
0.0
 11
264.499999999987
 21
1241.749999999936
 31
0.0
  0
LINE
  5
422
330
1F
100
AcDbEntity
  8
LAY-10
  6
CONTINUOUS
 62
     7
100
AcDbLine
 10
264.499999999987
 20
1241.749999999936
 30
0.0
 11
259.499999999987
 21
1241.749999999936
 31
0.0
  0
LINE
  5
423
330
1F
100
AcDbEntity
  8
LAY-10
  6
CONTINUOUS
 62
     7
100
AcDbLine
 10
253.999999999987
 20
1236.749999999936
 30
0.0
 11
258.999999999987
 21
1236.749999999936
 31
0.0
  0
LINE
  5
424
330
1F
100
AcDbEntity
  8
LAY-10
  6
CONTINUOUS
 62
     7
100
AcDbLine
 10
253.999999999987
 20
1236.749999999936
 30
0.0
 11
253.999999999987
 21
1241.749999999936
 31
0.0
  0
LINE
  5
425
330
1F
100
AcDbEntity
  8
LAY-10
  6
CONTINUOUS
 62
     7
100
AcDbLine
 10
258.999999999987
 20
1236.749999999936
 30
0.0
 11
258.999999999987
 21
1241.749999999936
 31
0.0
  0
LINE
  5
426
330
1F
100
AcDbEntity
  8
LAY-10
  6
CONTINUOUS
 62
     7
100
AcDbLine
 10
258.999999999987
 20
1241.749999999936
 30
0.0
 11
253.999999999987
 21
1241.749999999936
 31
0.0
  0
LINE
  5
427
330
1F
100
AcDbEntity
  8
LAY-10
  6
CONTINUOUS
 62
     7
100
AcDbLine
 10
264.499999999987
 20
1231.249999999936
 30
0.0
 11
259.499999999987
 21
1236.249999999936
 31
0.0
  0
LINE
  5
428
330
1F
100
AcDbEntity
  8
LAY-10
  6
CONTINUOUS
 62
     7
100
AcDbLine
 10
258.999999999987
 20
1231.249999999936
 30
0.0
 11
253.999999999987
 21
1236.249999999936
 31
0.0
  0
LINE
  5
429
330
1F
100
AcDbEntity
  8
LAY-10
  6
CONTINUOUS
 62
     7
100
AcDbLine
 10
264.499999999987
 20
1236.749999999936
 30
0.0
 11
259.499999999987
 21
1241.749999999936
 31
0.0
  0
LINE
  5
42A
330
1F
100
AcDbEntity
  8
LAY-10
  6
CONTINUOUS
 62
     7
100
AcDbLine
 10
258.999999999987
 20
1236.749999999936
 30
0.0
 11
253.999999999987
 21
1241.749999999936
 31
0.0
  0
LINE
  5
42B
330
1F
100
AcDbEntity
  8
LAY-10
  6
CONTINUOUS
 62
     7
100
AcDbLine
 10
259.499999999987
 20
1231.249999999936
 30
0.0
 11
264.499999999987
 21
1236.249999999936
 31
0.0
  0
LINE
  5
42C
330
1F
100
AcDbEntity
  8
LAY-10
  6
CONTINUOUS
 62
     7
100
AcDbLine
 10
253.999999999987
 20
1231.249999999936
 30
0.0
 11
258.999999999987
 21
1236.249999999936
 31
0.0
  0
LINE
  5
42D
330
1F
100
AcDbEntity
  8
LAY-10
  6
CONTINUOUS
 62
     7
100
AcDbLine
 10
253.999999999987
 20
1236.749999999936
 30
0.0
 11
258.999999999987
 21
1241.749999999936
 31
0.0
  0
LINE
  5
42E
330
1F
100
AcDbEntity
  8
LAY-10
  6
CONTINUOUS
 62
     7
100
AcDbLine
 10
259.499999999987
 20
1236.749999999936
 30
0.0
 11
264.499999999987
 21
1241.749999999936
 31
0.0
  0
CIRCLE
  5
42F
330
1F
100
AcDbEntity
  8
LAY-10
  6
CONTINUOUS
 62
     7
100
AcDbCircle
 10
258.6999999999809
 20
1215.299999999795
 30
0.0
 40
28.19999999995139
  0
LINE
  5
430
330
1F
100
AcDbEntity
  8
LAY-10
  6
CONTINUOUS
 62
     7
100
AcDbLine
 10
268.4794427238701
 20
1241.749999999936
 30
0.0
 11
264.999999999987
 21
1241.749999999936
 31
0.0
  0
LINE
  5
431
330
1F
100
AcDbEntity
  8
LAY-10
  6
CONTINUOUS
 62
     7
100
AcDbLine
 10
264.999999999987
 20
1236.749999999936
 30
0.0
 11
269.5705787383979
 21
1241.320578738346
 31
0.0
  0
LINE
  5
432
330
1F
100
AcDbEntity
  8
LAY-10
  6
CONTINUOUS
 62
     7
100
AcDbLine
 10
269.999999999987
 20
1236.749999999936
 30
0.0
 11
269.999999999987
 21
1241.136988988397
 31
0.0
  0
LINE
  5
433
330
1F
100
AcDbEntity
  8
LAY-10
  6
CONTINUOUS
 62
     7
100
AcDbLine
 10
270.499999999987
 20
1236.749999999936
 30
0.0
 11
270.499999999987
 21
1240.912496949471
 31
0.0
  0
LINE
  5
434
330
1F
100
AcDbEntity
  8
LAY-10
  6
CONTINUOUS
 62
     7
100
AcDbLine
 10
275.499999999987
 20
1236.749999999936
 30
0.0
 11
272.1810319813792
 21
1240.068968018544
 31
0.0
  0
LINE
  5
435
330
1F
100
AcDbEntity
  8
LAY-10
  6
CONTINUOUS
 62
     7
100
AcDbLine
 10
270.499999999987
 20
1236.749999999936
 30
0.0
 11
273.2228519478169
 21
1239.472851947766
 31
0.0
  0
LINE
  5
436
330
1F
100
AcDbEntity
  8
LAY-10
  6
CONTINUOUS
 62
     7
100
AcDbLine
 10
275.499999999987
 20
1236.749999999936
 30
0.0
 11
275.499999999987
 21
1237.949503305543
 31
0.0
  0
LINE
  5
437
330
1F
100
AcDbEntity
  8
LAY-10
  6
CONTINUOUS
 62
     7
100
AcDbLine
 10
275.999999999987
 20
1236.749999999936
 30
0.0
 11
275.999999999987
 21
1237.569934889621
 31
0.0
  0
LINE
  5
438
330
1F
100
AcDbEntity
  8
LAY-10
  6
CONTINUOUS
 62
     7
100
AcDbLine
 10
275.999999999987
 20
1236.749999999936
 30
0.0
 11
276.4571550769181
 21
1237.207155076867
 31
0.0
  0
LINE
  5
439
330
1F
100
AcDbEntity
  8
LAY-10
  6
CONTINUOUS
 62
     7
100
AcDbLine
 10
277.5769038772426
 20
1236.249999999936
 30
0.0
 11
275.999999999987
 21
1236.249999999936
 31
0.0
  0
LINE
  5
43A
330
1F
100
AcDbEntity
  8
LAY-10
  6
CONTINUOUS
 62
     7
100
AcDbLine
 10
275.999999999987
 20
1231.249999999936
 30
0.0
 11
279.3039832905567
 21
1234.553983290506
 31
0.0
  0
LINE
  5
43B
330
1F
100
AcDbEntity
  8
LAY-10
  6
CONTINUOUS
 62
     7
100
AcDbLine
 10
275.999999999987
 20
1236.749999999936
 30
0.0
 11
277.0067610458689
 21
1236.749999999936
 31
0.0
  0
LINE
  5
43C
330
1F
100
AcDbEntity
  8
LAY-10
  6
CONTINUOUS
 62
     7
100
AcDbLine
 10
280.999999999987
 20
1231.249999999936
 30
0.0
 11
280.999999999987
 21
1232.561228229472
 31
0.0
  0
LINE
  5
43D
330
1F
100
AcDbEntity
  8
LAY-10
  6
CONTINUOUS
 62
     7
100
AcDbLine
 10
281.499999999987
 20
1231.249999999936
 30
0.0
 11
281.7690671704133
 21
1231.519067170362
 31
0.0
  0
LINE
  5
43E
330
1F
100
AcDbEntity
  8
LAY-10
  6
CONTINUOUS
 62
     7
100
AcDbLine
 10
281.499999999987
 20
1231.895180022831
 30
0.0
 11
281.499999999987
 21
1231.249999999936
 31
0.0
  0
LINE
  5
43F
330
1F
100
AcDbEntity
  8
LAY-10
  6
CONTINUOUS
 62
     7
100
AcDbLine
 10
281.9559132263578
 20
1231.249999999936
 30
0.0
 11
281.499999999987
 21
1231.249999999936
 31
0.0
  0
LINE
  5
440
330
1F
100
AcDbEntity
  8
LAY-10
  6
CONTINUOUS
 62
     7
100
AcDbLine
 10
286.499999999987
 20
1216.749999999946
 30
0.0
 11
286.499999999987
 21
1220.032863825951
 31
0.0
  0
LINE
  5
441
330
1F
100
AcDbEntity
  8
LAY-10
  6
CONTINUOUS
 62
     7
100
AcDbLine
 10
286.1524589061576
 20
1221.749999999946
 30
0.0
 11
281.499999999987
 21
1221.749999999946
 31
0.0
  0
LINE
  5
442
330
1F
100
AcDbEntity
  8
LAY-10
  6
CONTINUOUS
 62
     7
100
AcDbLine
 10
281.499999999987
 20
1216.749999999946
 30
0.0
 11
286.2173387626865
 21
1221.467338762645
 31
0.0
  0
LINE
  5
443
330
1F
100
AcDbEntity
  8
LAY-10
  6
CONTINUOUS
 62
     7
100
AcDbLine
 10
283.4313060713537
 20
1201.749999999746
 30
0.0
 11
281.499999999987
 21
1201.749999999746
 31
0.0
  0
LINE
  5
444
330
1F
100
AcDbEntity
  8
LAY-10
  6
CONTINUOUS
 62
     7
100
AcDbLine
 10
282.7216330840495
 20
1200.528366915683
 30
0.0
 11
281.499999999987
 21
1201.749999999746
 31
0.0
  0
LINE
  5
445
330
1F
100
AcDbEntity
  8
LAY-10
  6
CONTINUOUS
 62
     7
100
AcDbLine
 10
281.499999999987
 20
1198.704819976759
 30
0.0
 11
281.499999999987
 21
1201.749999999746
 31
0.0
  0
LINE
  5
446
330
1F
100
AcDbEntity
  8
LAY-10
  6
CONTINUOUS
 62
     7
100
AcDbLine
 10
280.999999999987
 20
1198.038771770118
 30
0.0
 11
280.999999999987
 21
1201.749999999746
 31
0.0
  0
LINE
  5
447
330
1F
100
AcDbEntity
  8
LAY-10
  6
CONTINUOUS
 62
     7
100
AcDbLine
 10
280.4270622353722
 20
1197.32293776436
 30
0.0
 11
275.999999999987
 21
1201.749999999746
 31
0.0
  0
LINE
  5
448
330
1F
100
AcDbEntity
  8
LAY-10
  6
CONTINUOUS
 62
     7
100
AcDbLine
 10
275.999999999987
 20
1196.749999999746
 30
0.0
 11
279.9399976458242
 21
1196.749999999746
 31
0.0
  0
LINE
  5
449
330
1F
100
AcDbEntity
  8
LAY-10
  6
CONTINUOUS
 62
     7
100
AcDbLine
 10
279.4927270937362
 20
1196.249999999746
 30
0.0
 11
275.999999999987
 21
1196.249999999746
 31
0.0
  0
LINE
  5
44A
330
1F
100
AcDbEntity
  8
LAY-10
  6
CONTINUOUS
 62
     7
100
AcDbLine
 10
277.7462041552956
 20
1194.503795844437
 30
0.0
 11
275.999999999987
 21
1196.249999999746
 31
0.0
  0
LINE
  5
44B
330
1F
100
AcDbEntity
  8
LAY-10
  6
CONTINUOUS
 62
     7
100
AcDbLine
 10
275.999999999987
 20
1196.249999999746
 30
0.0
 11
275.999999999987
 21
1193.03006510997
 31
0.0
  0
LINE
  5
44C
330
1F
100
AcDbEntity
  8
LAY-10
  6
CONTINUOUS
 62
     7
100
AcDbLine
 10
274.6831456287148
 20
1192.066854371018
 30
0.0
 11
270.499999999987
 21
1196.249999999746
 31
0.0
  0
LINE
  5
44D
330
1F
100
AcDbEntity
  8
LAY-10
  6
CONTINUOUS
 62
     7
100
AcDbLine
 10
273.4254032200927
 20
1191.249999999746
 30
0.0
 11
270.499999999987
 21
1191.249999999746
 31
0.0
  0
LINE
  5
44E
330
1F
100
AcDbEntity
  8
LAY-10
  6
CONTINUOUS
 62
     7
100
AcDbLine
 10
275.499999999987
 20
1192.650496694048
 30
0.0
 11
275.499999999987
 21
1196.249999999746
 31
0.0
  0
LINE
  5
44F
330
1F
100
AcDbEntity
  8
LAY-10
  6
CONTINUOUS
 62
     7
100
AcDbLine
 10
242.4999999999871
 20
1192.217539125845
 30
0.0
 11
242.4999999999871
 21
1196.249999999746
 31
0.0
  0
LINE
  5
450
330
1F
100
AcDbEntity
  8
LAY-10
  6
CONTINUOUS
 62
     7
100
AcDbLine
 10
247.999999999987
 20
1191.249999999746
 30
0.0
 11
243.9745967798692
 21
1191.249999999746
 31
0.0
  0
LINE
  5
451
330
1F
100
AcDbEntity
  8
LAY-10
  6
CONTINUOUS
 62
     7
100
AcDbLine
 10
243.376554549194
 20
1191.626554548953
 30
0.0
 11
247.999999999987
 21
1196.249999999746
 31
0.0
  0
LINE
  5
452
330
1F
100
AcDbEntity
  8
LAY-10
  6
CONTINUOUS
 62
     7
100
AcDbLine
 10
242.999999999987
 20
1196.249999999746
 30
0.0
 11
242.999999999987
 21
1191.874586449605
 31
0.0
  0
LINE
  5
453
330
1F
100
AcDbEntity
  8
LAY-10
  6
CONTINUOUS
 62
     7
100
AcDbLine
 10
242.4999999999871
 20
1196.249999999746
 30
0.0
 11
237.9072729062261
 21
1196.249999999746
 31
0.0
  0
LINE
  5
454
330
1F
100
AcDbEntity
  8
LAY-10
  6
CONTINUOUS
 62
     7
100
AcDbLine
 10
236.999999999987
 20
1197.290280401825
 30
0.0
 11
236.999999999987
 21
1201.749999999746
 31
0.0
  0
LINE
  5
455
330
1F
100
AcDbEntity
  8
LAY-10
  6
CONTINUOUS
 62
     7
100
AcDbLine
 10
235.1054104807884
 20
1199.855410480547
 30
0.0
 11
236.999999999987
 21
1201.749999999746
 31
0.0
  0
LINE
  5
456
330
1F
100
AcDbEntity
  8
LAY-10
  6
CONTINUOUS
 62
     7
100
AcDbLine
 10
236.999999999987
 20
1201.749999999746
 30
0.0
 11
233.9686939286087
 21
1201.749999999746
 31
0.0
  0
LINE
  5
457
330
1F
100
AcDbEntity
  8
LAY-10
  6
CONTINUOUS
 62
     7
100
AcDbLine
 10
231.499999999987
 20
1211.249999999945
 30
0.0
 11
230.7923397612856
 21
1211.249999999945
 31
0.0
  0
LINE
  5
458
330
1F
100
AcDbEntity
  8
LAY-10
  6
CONTINUOUS
 62
     7
100
AcDbLine
 10
230.6863206918736
 20
1212.063679308058
 30
0.0
 11
231.499999999987
 21
1211.249999999945
 31
0.0
  0
LINE
  5
459
330
1F
100
AcDbEntity
  8
LAY-10
  6
CONTINUOUS
 62
     7
100
AcDbLine
 10
231.499999999987
 20
1216.249999999945
 30
0.0
 11
230.5000442478861
 21
1215.250044247844
 31
0.0
  0
LINE
  5
45A
330
1F
100
AcDbEntity
  8
LAY-10
  6
CONTINUOUS
 62
     7
100
AcDbLine
 10
230.5160063156757
 20
1216.249999999945
 30
0.0
 11
231.499999999987
 21
1216.249999999945
 31
0.0
  0
LINE
  5
45B
330
1F
100
AcDbEntity
  8
LAY-10
  6
CONTINUOUS
 62
     7
100
AcDbLine
 10
231.499999999987
 20
1216.749999999945
 30
0.0
 11
230.5373030411167
 21
1216.749999999945
 31
0.0
  0
LINE
  5
45C
330
1F
100
AcDbEntity
  8
LAY-10
  6
CONTINUOUS
 62
     7
100
AcDbLine
 10
230.5982349135204
 20
1217.651765086412
 30
0.0
 11
231.499999999987
 21
1216.749999999945
 31
0.0
  0
LINE
  5
45D
330
1F
100
AcDbEntity
  8
LAY-10
  6
CONTINUOUS
 62
     7
100
AcDbLine
 10
231.499999999987
 20
1221.749999999945
 30
0.0
 11
231.1726930057978
 21
1221.422693005756
 31
0.0
  0
LINE
  5
45E
330
1F
100
AcDbEntity
  8
LAY-10
  6
CONTINUOUS
 62
     7
100
AcDbLine
 10
231.499999999987
 20
1221.749999999945
 30
0.0
 11
231.2475410938043
 21
1221.749999999945
 31
0.0
  0
LINE
  5
45F
330
1F
100
AcDbEntity
  8
LAY-10
  6
CONTINUOUS
 62
     7
100
AcDbLine
 10
236.999999999987
 20
1231.249999999935
 30
0.0
 11
235.4440867736037
 21
1231.249999999935
 31
0.0
  0
LINE
  5
460
330
1F
100
AcDbEntity
  8
LAY-10
  6
CONTINUOUS
 62
     7
100
AcDbLine
 10
236.092935358992
 20
1232.15706464093
 30
0.0
 11
236.999999999987
 21
1231.249999999935
 31
0.0
  0
LINE
  5
461
330
1F
100
AcDbEntity
  8
LAY-10
  6
CONTINUOUS
 62
     7
100
AcDbLine
 10
236.999999999987
 20
1233.309719597766
 30
0.0
 11
236.999999999987
 21
1231.249999999935
 31
0.0
  0
LINE
  5
462
330
1F
100
AcDbEntity
  8
LAY-10
  6
CONTINUOUS
 62
     7
100
AcDbLine
 10
237.4999999999871
 20
1233.895698427053
 30
0.0
 11
237.4999999999871
 21
1231.249999999935
 31
0.0
  0
LINE
  5
463
330
1F
100
AcDbEntity
  8
LAY-10
  6
CONTINUOUS
 62
     7
100
AcDbLine
 10
238.6349805667972
 20
1235.115019433124
 30
0.0
 11
242.4999999999871
 21
1231.249999999935
 31
0.0
  0
LINE
  5
464
330
1F
100
AcDbEntity
  8
LAY-10
  6
CONTINUOUS
 62
     7
100
AcDbLine
 10
242.4999999999871
 20
1236.749999999935
 30
0.0
 11
240.3932389540926
 21
1236.749999999935
 31
0.0
  0
LINE
  5
465
330
1F
100
AcDbEntity
  8
LAY-10
  6
CONTINUOUS
 62
     7
100
AcDbLine
 10
239.8230961227184
 20
1236.249999999935
 30
0.0
 11
242.4999999999871
 21
1236.249999999935
 31
0.0
  0
LINE
  5
466
330
1F
100
AcDbEntity
  8
LAY-10
  6
CONTINUOUS
 62
     7
100
AcDbLine
 10
241.5581242985616
 20
1237.69187570136
 30
0.0
 11
242.4999999999871
 21
1236.749999999935
 31
0.0
  0
LINE
  5
467
330
1F
100
AcDbEntity
  8
LAY-10
  6
CONTINUOUS
 62
     7
100
AcDbLine
 10
242.4999999999871
 20
1238.382460873745
 30
0.0
 11
242.4999999999871
 21
1236.749999999935
 31
0.0
  0
LINE
  5
468
330
1F
100
AcDbEntity
  8
LAY-10
  6
CONTINUOUS
 62
     7
100
AcDbLine
 10
244.872672667206
 20
1239.877327332716
 30
0.0
 11
247.999999999987
 21
1236.749999999935
 31
0.0
  0
LINE
  5
469
330
1F
100
AcDbEntity
  8
LAY-10
  6
CONTINUOUS
 62
     7
100
AcDbLine
 10
242.999999999987
 20
1236.749999999935
 30
0.0
 11
242.999999999987
 21
1238.725413549986
 31
0.0
  0
LINE
  5
46A
330
1F
100
AcDbEntity
  8
LAY-10
  6
CONTINUOUS
 62
     7
100
AcDbLine
 10
247.3768532110696
 20
1241.126853211018
 30
0.0
 11
242.999999999987
 21
1236.749999999935
 31
0.0
  0
LINE
  5
46B
330
1F
100
AcDbEntity
  8
LAY-10
  6
CONTINUOUS
 62
     7
100
AcDbLine
 10
247.999999999987
 20
1241.391186251044
 30
0.0
 11
247.999999999987
 21
1236.749999999935
 31
0.0
  0
LINE
  5
46C
330
1F
100
AcDbEntity
  8
LAY-10
  6
CONTINUOUS
 62
     7
100
AcDbLine
 10
253.499999999987
 20
1241.749999999935
 30
0.0
 11
248.9205572760895
 21
1241.749999999935
 31
0.0
  0
LINE
  5
46D
330
1F
100
AcDbEntity
  8
LAY-10
  6
CONTINUOUS
 62
     7
100
AcDbLine
 10
248.6149924493295
 20
1241.635007550592
 30
0.0
 11
253.499999999987
 21
1236.749999999935
 31
0.0
  0
LINE
  5
46E
330
1F
100
AcDbEntity
  8
LAY-10
  6
CONTINUOUS
 62
     7
100
AcDbLine
 10
248.499999999987
 20
1236.749999999935
 30
0.0
 11
248.499999999987
 21
1241.590682759993
 31
0.0
  0
LINE
  5
46F
330
1F
100
AcDbEntity
  8
LAY-10
  6
CONTINUOUS
 62
     7
100
AcDbLine
 10
240.2355712752176
 20
1193.985571274976
 30
0.0
 11
242.4999999999871
 21
1196.249999999746
 31
0.0
  0
LINE
  5
470
330
1F
100
AcDbEntity
  8
LAY-10
  6
CENTER
 62
     2
100
AcDbLine
 10
475.000000000003
 20
1260.0
 30
0.0
 11
475.0000000000024
 21
540.0000000000002
 31
0.0
  0
LINE
  5
471
330
1F
100
AcDbEntity
  8
LAY-10
  6
CENTER
 62
     2
100
AcDbLine
 10
199.999999999955
 20
1207.000000000046
 30
0.0
 11
199.9999999999552
 21
1252.999999999992
 31
0.0
  0
LINE
  5
472
330
1F
100
AcDbEntity
  8
LAY-10
  6
CENTER
 62
     2
100
AcDbLine
 10
199.9999999999553
 20
592.9999999999357
 30
0.0
 11
199.9999999999553
 21
546.9999999999899
 31
0.0
  0
LINE
  5
473
330
1F
100
AcDbEntity
  8
LAY-10
  6
CENTER
 62
     2
100
AcDbLine
 10
750.0000000000512
 20
1207.000000000045
 30
0.0
 11
750.0000000000512
 21
1252.999999999991
 31
0.0
  0
LINE
  5
474
330
1F
100
AcDbEntity
  8
LAY-10
  6
CENTER
 62
     2
100
AcDbLine
 10
750.0000000000513
 20
592.9999999999362
 30
0.0
 11
750.0000000000513
 21
546.9999999999903
 31
0.0
  0
LINE
  5
475
330
1F
100
AcDbEntity
  8
LAY-10
  6
CENTER
 62
     2
100
AcDbLine
 10
115.0000000000002
 20
899.9999999999909
 30
0.0
 11
835.0000000000003
 21
899.9999999999909
 31
0.0
  0
LINE
  5
476
330
1F
100
AcDbEntity
  8
LAY-10
  6
CENTER
 62
     2
100
AcDbLine
 10
199.9999999999639
 20
222.9999999999999
 30
0.0
 11
199.9999999999639
 21
172.0000000000997
 31
0.0
  0
LINE
  5
477
330
1F
100
AcDbEntity
  8
LAY-10
  6
CENTER
 62
     2
100
AcDbLine
 10
750.0000000000435
 20
222.9999999999999
 30
0.0
 11
750.0000000000435
 21
172.0000000000997
 31
0.0
  0
LINE
  5
478
330
1F
100
AcDbEntity
  8
LAY-10
  6
CENTER
 62
     2
100
AcDbLine
 10
475.0000000000035
 20
165.0000000000983
 30
0.0
 11
475.0000000000035
 21
359.9999999999862
 31
0.0
  0
LINE
  5
479
330
1F
100
AcDbEntity
  8
LAY-10
  6
CENTER
 62
     2
100
AcDbLine
 10
1210.0
 20
900.000000000029
 30
0.0
 11
1015.000000000003
 21
900.000000000029
 31
0.0
  0
LINE
  5
47A
330
1F
100
AcDbEntity
  8
LAY-10
  6
CENTER
 62
     2
100
AcDbLine
 10
1020.0
 20
1206.499999999877
 30
0.0
 11
1085.69711431705
 21
1206.499999999877
 31
0.0
  0
LINE
  5
47B
330
1F
100
AcDbEntity
  8
LAY-10
  6
HIDDEN
 62
     7
100
AcDbLine
 10
174.9999999999999
 20
599.9999999999822
 30
0.0
 11
174.9999999999997
 21
1200.0
 31
0.0
  0
LINE
  5
47C
330
1F
100
AcDbEntity
  8
LAY-10
  6
HIDDEN
 62
     7
100
AcDbLine
 10
775.0000000000036
 20
599.9999999999822
 30
0.0
 11
775.0000000000034
 21
1200.0
 31
0.0
  0
LINE
  5
47D
330
1F
100
AcDbEntity
  8
LAY-10
  6
HIDDEN
 62
     7
100
AcDbLine
 10
775.0000000000036
 20
599.9999999999822
 30
0.0
 11
174.9999999999999
 21
599.9999999999822
 31
0.0
  0
LINE
  5
47E
330
1F
100
AcDbEntity
  8
LAY-10
  6
HIDDEN
 62
     7
100
AcDbLine
 10
175.0000000000002
 20
1200.0
 30
0.0
 11
775.0000000000002
 21
1200.0
 31
0.0
  0
LINE
  5
47F
330
1F
100
AcDbEntity
  8
LAY-10
  6
CONTINUOUS
 62
     7
100
AcDbLine
 10
1059.002885682983
 20
1208.898708177647
 30
0.0
 11
1052.00000000002
 21
1208.898708177647
 31
0.0
  0
LINE
  5
480
330
1F
100
AcDbEntity
  8
LAY-10
  6
CONTINUOUS
 62
     7
100
AcDbLine
 10
1059.002885682983
 20
1204.098708177648
 30
0.0
 11
1052.00000000002
 21
1204.098708177648
 31
0.0
  0
LINE
  5
481
330
1F
100
AcDbEntity
  8
LAY-10
  6
CONTINUOUS
 62
     7
100
AcDbLine
 10
1071.200000000024
 20
1208.898708177647
 30
0.0
 11
1063.000000000025
 21
1208.898708177647
 31
0.0
  0
LINE
  5
482
330
1F
100
AcDbEntity
  8
LAY-10
  6
CONTINUOUS
 62
     7
100
AcDbLine
 10
1071.200000000024
 20
1204.098708177648
 30
0.0
 11
1063.000000000025
 21
1204.098708177648
 31
0.0
  0
DIMENSION
  5
484
330
1F
100
AcDbEntity
  8
LAY-20
  6
CONTINUOUS
 62
     4
100
AcDbDimension
  2
*D15
 10
354.9999999999103
 20
349.9999999999999
 30
0.0
 11
342.4999999999103
 21
310.4999999999998
 31
0.0
 70
   160
  3
ISO-25
100
AcDbAlignedDimension
 13
354.9999999999103
 23
270.9999999999998
 33
0.0
 14
354.9999999999103
 24
349.9999999999999
 34
0.0
 50
90.0
100
AcDbRotatedDimension
1001
ACAD
1000
DSTYLE
1002
{
1070
   270
1070
     2
1070
     6
1000
EX_BNORM
1070
     7
1000
EX_BNORM
1070
    41
1040
12.5
1070
    42
1040
0.0
1070
    44
1040
0.0
1070
    73
1070
     0
1070
    74
1070
     0
1070
    75
1070
     1
1070
    76
1070
     1
1070
    77
1070
     1
1070
    78
1070
     8
1070
   140
1040
15.590552
1070
   147
1040
0.0
1070
   173
1070
     1
1070
   176
1070
     4
1070
   177
1070
     4
1070
   178
1070
     7
1070
   271
1070
     1
1070
   277
1070
     2
1070
   279
1070
     2
1070
   280
1070
     0
1070
   287
1070
     5
1070
   340
1005
483
1002
}
  0
DIMENSION
  5
490
330
1F
100
AcDbEntity
  8
LAY-20
  6
CONTINUOUS
 62
     4
100
AcDbDimension
  2
*D16
 10
319.9999999999103
 20
349.9999999999999
 30
0.0
 11
307.4999999999104
 21
315.4999999999999
 31
0.0
 70
   160
  3
ISO-25
100
AcDbAlignedDimension
 13
269.9999999999103
 23
280.9999999999999
 33
0.0
 14
319.9999999999103
 24
349.9999999999999
 34
0.0
 50
90.0
100
AcDbRotatedDimension
1001
ACAD
1000
DSTYLE
1002
{
1070
   270
1070
     2
1070
     6
1000
EX_BNORM
1070
     7
1000
EX_BNORM
1070
    41
1040
12.5
1070
    42
1040
7.5
1070
    44
1040
7.5
1070
    73
1070
     0
1070
    74
1070
     0
1070
    75
1070
     0
1070
    76
1070
     1
1070
    77
1070
     1
1070
    78
1070
     8
1070
   140
1040
15.590552
1070
   147
1040
0.0
1070
   173
1070
     1
1070
   176
1070
     4
1070
   177
1070
     4
1070
   178
1070
     7
1070
   271
1070
     1
1070
   277
1070
     2
1070
   279
1070
     2
1070
   280
1070
     0
1070
   287
1070
     5
1070
   340
1005
483
1002
}
  0
DIMENSION
  5
49C
330
1F
100
AcDbEntity
  8
LAY-20
  6
CONTINUOUS
 62
     4
100
AcDbDimension
  2
*D17
 10
775.0000000000302
 20
125.0000000000999
 30
0.0
 11
475.0000000000302
 21
137.5000000000999
 31
0.0
 70
   160
  1
桝径<>
  3
ISO-25
100
AcDbAlignedDimension
 13
175.0000000000303
 23
219.9999999999998
 33
0.0
 14
775.0000000000302
 24
219.9999999999998
 34
0.0
100
AcDbRotatedDimension
1001
ACAD
1000
DSTYLE
1002
{
1070
   270
1070
     2
1070
     6
1000
EX_BNORM
1070
     7
1000
EX_BNORM
1070
    41
1040
12.5
1070
    42
1040
7.5
1070
    44
1040
7.5
1070
    73
1070
     0
1070
    74
1070
     0
1070
    75
1070
     0
1070
    76
1070
     0
1070
    77
1070
     1
1070
    78
1070
     8
1070
   140
1040
15.590552
1070
   147
1040
0.0
1070
   173
1070
     1
1070
   176
1070
     4
1070
   177
1070
     4
1070
   178
1070
     7
1070
   271
1070
     1
1070
   277
1070
     2
1070
   279
1070
     2
1070
   280
1070
     0
1070
   287
1070
     5
1070
   340
1005
483
1002
}
  0
DIMENSION
  5
4A9
330
1F
100
AcDbEntity
  8
LAY-20
  6
CONTINUOUS
 62
     4
100
AcDbDimension
  2
*D18
 10
775.0000000000302
 20
125.0000000000999
 30
0.0
 11
800.0000000000153
 21
137.5000000000999
 31
0.0
 70
   160
  3
ISO-25
100
AcDbAlignedDimension
 13
825.0000000000003
 23
228.9999999999999
 33
0.0
 14
775.0000000000302
 24
125.0000000000999
 34
0.0
100
AcDbRotatedDimension
1001
ACAD
1000
DSTYLE
1002
{
1070
   270
1070
     2
1070
     6
1000
EX_BNORM
1070
     7
1000
EX_BNORM
1070
    41
1040
12.5
1070
    42
1040
7.5
1070
    44
1040
7.5
1070
    73
1070
     0
1070
    74
1070
     0
1070
    75
1070
     0
1070
    76
1070
     1
1070
    77
1070
     1
1070
    78
1070
     8
1070
   140
1040
15.590552
1070
   147
1040
0.0
1070
   173
1070
     1
1070
   176
1070
     4
1070
   177
1070
     4
1070
   178
1070
     7
1070
   271
1070
     1
1070
   277
1070
     2
1070
   279
1070
     2
1070
   280
1070
     0
1070
   287
1070
     5
1070
   340
1005
483
1002
}
  0
DIMENSION
  5
4B5
330
1F
100
AcDbEntity
  8
LAY-20
  6
CONTINUOUS
 62
     4
100
AcDbDimension
  2
*D19
 10
175.0000000000303
 20
125.0000000000999
 30
0.0
 11
150.0000000000152
 21
137.5000000000999
 31
0.0
 70
   160
  3
ISO-25
100
AcDbAlignedDimension
 13
125.0000000000003
 23
228.9999999999999
 33
0.0
 14
175.0000000000303
 24
125.0000000000999
 34
0.0
100
AcDbRotatedDimension
1001
ACAD
1000
DSTYLE
1002
{
1070
   270
1070
     2
1070
     6
1000
EX_BNORM
1070
     7
1000
EX_BNORM
1070
    41
1040
12.5
1070
    42
1040
7.5
1070
    44
1040
7.5
1070
    73
1070
     0
1070
    74
1070
     0
1070
    75
1070
     0
1070
    76
1070
     1
1070
    77
1070
     1
1070
    78
1070
     8
1070
   140
1040
15.590552
1070
   147
1040
0.0
1070
   173
1070
     1
1070
   176
1070
     4
1070
   177
1070
     4
1070
   178
1070
     7
1070
   271
1070
     1
1070
   277
1070
     2
1070
   279
1070
     2
1070
   280
1070
     0
1070
   287
1070
     5
1070
   340
1005
483
1002
}
  0
DIMENSION
  5
4C1
330
1F
100
AcDbEntity
  8
LAY-20
  6
CONTINUOUS
 62
     4
100
AcDbDimension
  2
*D20
 10
825.0000000000003
 20
469.9999999999999
 30
0.0
 11
475.0000000000003
 21
482.4999999999999
 31
0.0
 70
   160
  3
ISO-25
100
AcDbAlignedDimension
 13
125.0000000000002
 23
349.9999999999999
 33
0.0
 14
825.0000000000003
 24
349.9999999999999
 34
0.0
100
AcDbRotatedDimension
1001
ACAD
1000
DSTYLE
1002
{
1070
   270
1070
     2
1070
     6
1000
EX_BNORM
1070
     7
1000
EX_BNORM
1070
    41
1040
12.5
1070
    42
1040
7.5
1070
    44
1040
7.5
1070
    73
1070
     0
1070
    74
1070
     0
1070
    75
1070
     0
1070
    76
1070
     0
1070
    77
1070
     1
1070
    78
1070
     8
1070
   140
1040
15.590552
1070
   147
1040
0.0
1070
   173
1070
     1
1070
   176
1070
     4
1070
   177
1070
     4
1070
   178
1070
     7
1070
   271
1070
     1
1070
   277
1070
     2
1070
   279
1070
     2
1070
   280
1070
     0
1070
   287
1070
     5
1070
   340
1005
483
1002
}
  0
DIMENSION
  5
4CE
330
1F
100
AcDbEntity
  8
LAY-20
  6
CONTINUOUS
 62
     4
100
AcDbDimension
  2
*D21
 10
818.5000000000026
 20
434.9999999999999
 30
0.0
 11
474.9999999999995
 21
447.4999999999999
 31
0.0
 70
   160
  3
ISO-25
100
AcDbAlignedDimension
 13
131.4999999999964
 23
349.9999999999865
 33
0.0
 14
818.5000000000026
 24
349.9999999999865
 34
0.0
100
AcDbRotatedDimension
1001
ACAD
1000
DSTYLE
1002
{
1070
   270
1070
     2
1070
     6
1000
EX_BNORM
1070
     7
1000
EX_BNORM
1070
    41
1040
12.5
1070
    42
1040
7.5
1070
    44
1040
7.5
1070
    73
1070
     0
1070
    74
1070
     0
1070
    75
1070
     0
1070
    76
1070
     0
1070
    77
1070
     1
1070
    78
1070
     8
1070
   140
1040
15.590552
1070
   147
1040
0.0
1070
   173
1070
     1
1070
   176
1070
     4
1070
   177
1070
     4
1070
   178
1070
     7
1070
   271
1070
     1
1070
   277
1070
     2
1070
   279
1070
     2
1070
   280
1070
     0
1070
   287
1070
     5
1070
   340
1005
483
1002
}
  0
DIMENSION
  5
4DB
330
1F
100
AcDbEntity
  8
LAY-20
  6
CONTINUOUS
 62
     4
100
AcDbDimension
  2
*D22
 10
814.0000000000001
 20
399.9999999999999
 30
0.0
 11
475.0000000000002
 21
412.4999999999999
 31
0.0
 70
   160
  3
ISO-25
100
AcDbAlignedDimension
 13
136.0000000000002
 23
349.9999999999999
 33
0.0
 14
814.0000000000001
 24
349.9999999999999
 34
0.0
100
AcDbRotatedDimension
1001
ACAD
1000
DSTYLE
1002
{
1070
   270
1070
     2
1070
     6
1000
EX_BNORM
1070
     7
1000
EX_BNORM
1070
    41
1040
12.5
1070
    42
1040
7.5
1070
    44
1040
7.5
1070
    73
1070
     0
1070
    74
1070
     0
1070
    75
1070
     0
1070
    76
1070
     0
1070
    77
1070
     1
1070
    78
1070
     8
1070
   140
1040
15.590552
1070
   147
1040
0.0
1070
   173
1070
     1
1070
   176
1070
     4
1070
   177
1070
     4
1070
   178
1070
     7
1070
   271
1070
     1
1070
   277
1070
     2
1070
   279
1070
     2
1070
   280
1070
     0
1070
   287
1070
     5
1070
   340
1005
483
1002
}
  0
DIMENSION
  5
4E8
330
1F
100
AcDbEntity
  8
LAY-20
  6
CONTINUOUS
 62
     4
100
AcDbDimension
  2
*D23
 10
875.0000000000001
 20
349.9999999999999
 30
0.0
 11
862.5000000000001
 21
284.9999999999998
 31
0.0
 70
   160
  3
ISO-25
100
AcDbAlignedDimension
 13
816.0000000000003
 23
219.9999999999998
 33
0.0
 14
825.0000000000003
 24
349.9999999999999
 34
0.0
 50
90.0
100
AcDbRotatedDimension
1001
ACAD
1000
DSTYLE
1002
{
1070
   270
1070
     2
1070
     6
1000
EX_BNORM
1070
     7
1000
EX_BNORM
1070
    41
1040
12.5
1070
    42
1040
7.5
1070
    44
1040
7.5
1070
    73
1070
     0
1070
    74
1070
     0
1070
    75
1070
     0
1070
    76
1070
     0
1070
    77
1070
     1
1070
    78
1070
     8
1070
   140
1040
15.590552
1070
   147
1040
0.0
1070
   173
1070
     1
1070
   176
1070
     4
1070
   177
1070
     4
1070
   178
1070
     7
1070
   271
1070
     1
1070
   277
1070
     2
1070
   279
1070
     2
1070
   280
1070
     0
1070
   287
1070
     5
1070
   340
1005
483
1002
}
  0
DIMENSION
  5
4F5
330
1F
100
AcDbEntity
  8
LAY-20
  6
CONTINUOUS
 62
     4
100
AcDbDimension
  2
*D24
 10
905.0000000000006
 20
1249.999999999999
 30
0.0
 11
892.5000000000008
 21
899.9999999999994
 31
0.0
 70
   160
  3
ISO-25
100
AcDbAlignedDimension
 13
1025.0
 23
549.9999999999997
 33
0.0
 14
1025.0
 24
1249.999999999999
 34
0.0
 50
90.0
100
AcDbRotatedDimension
1001
ACAD
1000
DSTYLE
1002
{
1070
   270
1070
     2
1070
     6
1000
EX_BNORM
1070
     7
1000
EX_BNORM
1070
    41
1040
12.5
1070
    42
1040
7.499999999999886
1070
    44
1040
7.5
1070
    73
1070
     0
1070
    74
1070
     0
1070
    75
1070
     0
1070
    76
1070
     0
1070
    77
1070
     1
1070
    78
1070
     8
1070
   140
1040
15.590552
1070
   147
1040
0.0
1070
   173
1070
     1
1070
   176
1070
     4
1070
   177
1070
     4
1070
   178
1070
     7
1070
   271
1070
     1
1070
   277
1070
     2
1070
   279
1070
     2
1070
   280
1070
     0
1070
   287
1070
     5
1070
   340
1005
483
1002
}
  0
DIMENSION
  5
502
330
1F
100
AcDbEntity
  8
LAY-20
  6
CONTINUOUS
 62
     4
100
AcDbDimension
  2
*D25
 10
940.0000000000003
 20
1243.500000000077
 30
0.0
 11
927.5000000000003
 21
900.0000000000389
 31
0.0
 70
   160
  3
ISO-25
100
AcDbAlignedDimension
 13
1025.000000000002
 23
556.5000000000009
 33
0.0
 14
1025.000000000003
 24
1243.500000000077
 34
0.0
 50
90.0
100
AcDbRotatedDimension
1001
ACAD
1000
DSTYLE
1002
{
1070
   270
1070
     2
1070
     6
1000
EX_BNORM
1070
     7
1000
EX_BNORM
1070
    41
1040
12.5
1070
    42
1040
7.5
1070
    44
1040
7.5
1070
    73
1070
     0
1070
    74
1070
     0
1070
    75
1070
     0
1070
    76
1070
     0
1070
    77
1070
     1
1070
    78
1070
     8
1070
   140
1040
15.590552
1070
   147
1040
0.0
1070
   173
1070
     1
1070
   176
1070
     4
1070
   177
1070
     4
1070
   178
1070
     7
1070
   271
1070
     1
1070
   277
1070
     2
1070
   279
1070
     2
1070
   280
1070
     0
1070
   287
1070
     5
1070
   340
1005
483
1002
}
  0
DIMENSION
  5
50F
330
1F
100
AcDbEntity
  8
LAY-20
  6
CONTINUOUS
 62
     4
100
AcDbDimension
  2
*D26
 10
1250.0
 20
1200.0
 30
0.0
 11
1237.5
 21
899.9999999999997
 31
0.0
 70
   160
  1
桝径<>
  3
ISO-25
100
AcDbAlignedDimension
 13
1155.0
 23
599.9999999999998
 33
0.0
 14
1155.0
 24
1200.0
 34
0.0
 50
90.0
100
AcDbRotatedDimension
1001
ACAD
1000
DSTYLE
1002
{
1070
   270
1070
     2
1070
     6
1000
EX_BNORM
1070
     7
1000
EX_BNORM
1070
    41
1040
12.5
1070
    42
1040
7.5
1070
    44
1040
7.5
1070
    73
1070
     0
1070
    74
1070
     0
1070
    75
1070
     0
1070
    76
1070
     0
1070
    77
1070
     1
1070
    78
1070
     8
1070
   140
1040
15.590552
1070
   147
1040
0.0
1070
   173
1070
     1
1070
   176
1070
     4
1070
   177
1070
     4
1070
   178
1070
     7
1070
   271
1070
     1
1070
   277
1070
     2
1070
   279
1070
     2
1070
   280
1070
     0
1070
   287
1070
     5
1070
   340
1005
483
1002
}
  0
DIMENSION
  5
51C
330
1F
100
AcDbEntity
  8
LAY-20
  6
CONTINUOUS
 62
     4
100
AcDbDimension
  2
*D27
 10
1250.0
 20
1200.0
 30
0.0
 11
1237.5
 21
1224.999999999999
 31
0.0
 70
   160
  3
ISO-25
100
AcDbAlignedDimension
 13
1200.0
 23
1249.999999999999
 33
0.0
 14
1250.0
 24
1200.0
 34
0.0
 50
90.0
100
AcDbRotatedDimension
1001
ACAD
1000
DSTYLE
1002
{
1070
   270
1070
     2
1070
     6
1000
EX_BNORM
1070
     7
1000
EX_BNORM
1070
    41
1040
12.5
1070
    42
1040
7.5
1070
    44
1040
7.5
1070
    73
1070
     0
1070
    74
1070
     0
1070
    75
1070
     0
1070
    76
1070
     1
1070
    77
1070
     1
1070
    78
1070
     8
1070
   140
1040
15.590552
1070
   147
1040
0.0
1070
   173
1070
     1
1070
   176
1070
     4
1070
   177
1070
     4
1070
   178
1070
     7
1070
   271
1070
     1
1070
   277
1070
     2
1070
   279
1070
     2
1070
   280
1070
     0
1070
   287
1070
     5
1070
   340
1005
483
1002
}
  0
DIMENSION
  5
528
330
1F
100
AcDbEntity
  8
LAY-20
  6
CONTINUOUS
 62
     4
100
AcDbDimension
  2
*D28
 10
1250.0
 20
599.9999999999998
 30
0.0
 11
1237.5
 21
574.9999999999998
 31
0.0
 70
   160
  3
ISO-25
100
AcDbAlignedDimension
 13
1200.0
 23
550.0
 33
0.0
 14
1250.0
 24
599.9999999999998
 34
0.0
 50
90.0
100
AcDbRotatedDimension
1001
ACAD
1000
DSTYLE
1002
{
1070
   270
1070
     2
1070
     6
1000
EX_BNORM
1070
     7
1000
EX_BNORM
1070
    41
1040
12.5
1070
    42
1040
7.5
1070
    44
1040
7.5
1070
    73
1070
     0
1070
    74
1070
     0
1070
    75
1070
     0
1070
    76
1070
     1
1070
    77
1070
     1
1070
    78
1070
     8
1070
   140
1040
15.590552
1070
   147
1040
0.0
1070
   173
1070
     1
1070
   176
1070
     4
1070
   177
1070
     4
1070
   178
1070
     7
1070
   271
1070
     1
1070
   277
1070
     2
1070
   279
1070
     2
1070
   280
1070
     0
1070
   287
1070
     5
1070
   340
1005
483
1002
}
  0
DIMENSION
  5
534
330
1F
100
AcDbEntity
  8
LAY-20
  6
CONTINUOUS
 62
     4
100
AcDbDimension
  2
*D29
 10
750.00000000005
 20
1300.0
 30
0.0
 11
475.000000000005
 21
1312.5
 31
0.0
 70
   160
  3
ISO-25
100
AcDbAlignedDimension
 13
199.99999999996
 23
1253.0
 33
0.0
 14
750.00000000005
 24
1253.0
 34
0.0
100
AcDbRotatedDimension
1001
ACAD
1000
DSTYLE
1002
{
1070
   270
1070
     2
1070
     6
1000
EX_BNORM
1070
     7
1000
EX_BNORM
1070
    41
1040
12.5
1070
    42
1040
7.5
1070
    44
1040
7.5
1070
    73
1070
     0
1070
    74
1070
     0
1070
    75
1070
     0
1070
    76
1070
     0
1070
    77
1070
     1
1070
    78
1070
     8
1070
   140
1040
15.590552
1070
   147
1040
0.0
1070
   173
1070
     1
1070
   176
1070
     4
1070
   177
1070
     4
1070
   178
1070
     7
1070
   271
1070
     1
1070
   277
1070
     2
1070
   279
1070
     2
1070
   280
1070
     0
1070
   287
1070
     5
1070
   340
1005
483
1002
}
  0
DIMENSION
  5
541
330
1F
100
AcDbEntity
  8
LAY-20
  6
CONTINUOUS
 62
     4
100
AcDbDimension
  2
*D30
 10
975.0
 20
1163.0
 30
0.0
 11
962.5
 21
861.99999999998
 31
0.0
 70
   160
  3
ISO-25
100
AcDbAlignedDimension
 13
1025.0
 23
560.99999999996
 33
0.0
 14
1025.0
 24
1163.0
 34
0.0
 50
90.0
100
AcDbRotatedDimension
1001
ACAD
1000
DSTYLE
1002
{
1070
   270
1070
     2
1070
     6
1000
EX_BNORM
1070
     7
1000
EX_BNORM
1070
    41
1040
12.5
1070
    42
1040
7.5
1070
    44
1040
7.5
1070
    73
1070
     0
1070
    74
1070
     0
1070
    75
1070
     0
1070
    76
1070
     0
1070
    77
1070
     1
1070
    78
1070
     8
1070
   140
1040
15.590552
1070
   147
1040
0.0
1070
   173
1070
     1
1070
   176
1070
     4
1070
   177
1070
     4
1070
   178
1070
     7
1070
   271
1070
     1
1070
   277
1070
     2
1070
   279
1070
     2
1070
   280
1070
     0
1070
   287
1070
     5
1070
   340
1005
483
1002
}
  0
DIMENSION
  5
54E
330
1F
100
AcDbEntity
  8
LAY-20
  6
CONTINUOUS
 62
     4
100
AcDbDimension
  2
*D31
 10
975.0
 20
1243.5000000001
 30
0.0
 11
962.5000000000001
 21
1203.25000000005
 31
0.0
 70
   160
  3
ISO-25
100
AcDbAlignedDimension
 13
975.0
 23
1163.0
 33
0.0
 14
975.0
 24
1243.5000000001
 34
0.0
 50
90.0
100
AcDbRotatedDimension
1001
ACAD
1000
DSTYLE
1002
{
1070
   270
1070
     2
1070
     6
1000
EX_BNORM
1070
     7
1000
EX_BNORM
1070
    41
1040
12.5
1070
    42
1040
0.0
1070
    44
1040
0.0
1070
    73
1070
     0
1070
    74
1070
     0
1070
    75
1070
     1
1070
    76
1070
     1
1070
    77
1070
     1
1070
    78
1070
     8
1070
   140
1040
15.590552
1070
   147
1040
0.0
1070
   173
1070
     1
1070
   176
1070
     4
1070
   177
1070
     4
1070
   178
1070
     7
1070
   271
1070
     1
1070
   277
1070
     2
1070
   279
1070
     2
1070
   280
1070
     0
1070
   287
1070
     5
1070
   340
1005
483
1002
}
  0
LINE
  5
559
330
1F
100
AcDbEntity
  8
LAY-255
  6
CONTINUOUS
 62
     7
100
AcDbLine
 10
1925.0
 20
110.0
 30
0.0
 11
1425.0
 21
110.0
 31
0.0
  0
LINE
  5
55A
330
1F
100
AcDbEntity
  8
LAY-255
  6
CONTINUOUS
 62
     7
100
AcDbLine
 10
1444.0
 20
79.99999999999999
 30
0.0
 11
1484.0
 21
105.0
 31
0.0
  0
LINE
  5
55B
330
1F
100
AcDbEntity
  8
LAY-255
  6
CONTINUOUS
 62
     7
100
AcDbLine
 10
1484.0
 20
105.0
 30
0.0
 11
1524.0
 21
79.99999999999999
 31
0.0
  0
LINE
  5
55C
330
1F
100
AcDbEntity
  8
LAY-255
  6
CONTINUOUS
 62
     7
100
AcDbLine
 10
1524.0
 20
79.99999999999999
 30
0.0
 11
1484.0
 21
55.0
 31
0.0
  0
LINE
  5
55D
330
1F
100
AcDbEntity
  8
LAY-255
  6
CONTINUOUS
 62
     7
100
AcDbLine
 10
1484.0
 20
55.0
 30
0.0
 11
1444.0
 21
79.99999999999999
 31
0.0
  0
LINE
  5
55E
330
1F
100
AcDbEntity
  8
LAY-255
  6
CONTINUOUS
 62
     7
100
AcDbLine
 10
25.0
 20
50.0
 30
0.0
 11
1925.0
 21
50.0
 31
0.0
  0
LINE
  5
55F
330
1F
100
AcDbEntity
  8
LAY-255
  6
CONTINUOUS
 62
     7
100
AcDbLine
 10
25.0
 20
1400.0
 30
0.0
 11
1925.0
 21
1400.0
 31
0.0
  0
LINE
  5
560
330
1F
100
AcDbEntity
  8
LAY-255
  6
CONTINUOUS
 62
     7
100
AcDbLine
 10
25.0
 20
50.0
 30
0.0
 11
25.0
 21
1400.0
 31
0.0
  0
LINE
  5
561
330
1F
100
AcDbEntity
  8
LAY-255
  6
CONTINUOUS
 62
     4
100
AcDbLine
 10
1425.0
 20
140.0
 30
0.0
 11
1925.0
 21
140.0
 31
0.0
  0
LINE
  5
562
330
1F
100
AcDbEntity
  8
LAY-255
  6
CONTINUOUS
 62
     4
100
AcDbLine
 10
1675.0
 20
140.0
 30
0.0
 11
1675.0
 21
110.0
 31
0.0
  0
POINT
  5
563
330
1F
100
AcDbEntity
  8
LAY-255
  6
CONTINUOUS
 62
     7
100
AcDbPoint
 10
1445.0
 20
175.0000000000001
 30
0.0
  0
POINT
  5
564
330
1F
100
AcDbEntity
  8
LAY-255
  6
CONTINUOUS
 62
     7
100
AcDbPoint
 10
1445.0
 20
150.0000000000001
 30
0.0
  0
LINE
  5
565
330
1F
100
AcDbEntity
  8
LAY-255
  6
CONTINUOUS
 62
     7
100
AcDbLine
 10
1925.0
 20
50.0
 30
0.0
 11
1925.0
 21
1400.0
 31
0.0
  0
LINE
  5
566
330
1F
100
AcDbEntity
  8
LAY-255
  6
CONTINUOUS
 62
     7
100
AcDbLine
 10
1925.0
 20
410.0000000000003
 30
0.0
 11
1425.0
 21
410.0000000000003
 31
0.0
  0
LINE
  5
567
330
1F
100
AcDbEntity
  8
LAY-255
  6
CONTINUOUS
 62
     4
100
AcDbLine
 10
1915.0
 20
350.0000000000003
 30
0.0
 11
1435.0
 21
350.0000000000003
 31
0.0
  0
LINE
  5
568
330
1F
100
AcDbEntity
  8
LAY-255
  6
CONTINUOUS
 62
     4
100
AcDbLine
 10
1915.0
 20
380.0000000000003
 30
0.0
 11
1435.0
 21
380.0000000000003
 31
0.0
  0
POINT
  5
569
330
1F
100
AcDbEntity
  8
LAY-255
  6
CONTINUOUS
 62
     7
100
AcDbPoint
 10
1500.0
 20
355.0000000000003
 30
0.0
  0
POINT
  5
56A
330
1F
100
AcDbEntity
  8
LAY-255
  6
CONTINUOUS
 62
     7
100
AcDbPoint
 10
1500.0
 20
385.0000000000003
 30
0.0
  0
LINE
  5
56B
330
1F
100
AcDbEntity
  8
LAY-255
  6
CONTINUOUS
 62
     7
100
AcDbLine
 10
1425.0
 20
50.0
 30
0.0
 11
1425.0
 21
410.0000000000003
 31
0.0
  0
POINT
  5
56C
330
1F
100
AcDbEntity
  8
LAY-255
  6
CONTINUOUS
 62
     7
100
AcDbPoint
 10
1445.0
 20
300.0000000000003
 30
0.0
  0
POINT
  5
56D
330
1F
100
AcDbEntity
  8
LAY-255
  6
CONTINUOUS
 62
     7
100
AcDbPoint
 10
1445.0
 20
250.0000000000002
 30
0.0
  0
POINT
  5
56E
330
1F
100
AcDbEntity
  8
LAY-255
  6
CONTINUOUS
 62
     7
100
AcDbPoint
 10
1445.0
 20
275.0000000000002
 30
0.0
  0
POINT
  5
56F
330
1F
100
AcDbEntity
  8
LAY-255
  6
CONTINUOUS
 62
     7
100
AcDbPoint
 10
1445.0
 20
225.0000000000002
 30
0.0
  0
POINT
  5
570
330
1F
100
AcDbEntity
  8
LAY-255
  6
CONTINUOUS
 62
     7
100
AcDbPoint
 10
1445.0
 20
325.0000000000003
 30
0.0
  0
POINT
  5
571
330
1F
100
AcDbEntity
  8
LAY-255
  6
CONTINUOUS
 62
     7
100
AcDbPoint
 10
1445.0
 20
200.0000000000001
 30
0.0
  0
TEXT
  5
572
330
1F
100
AcDbEntity
  8
LAY-255
  6
CONTINUOUS
 62
     7
100
AcDbText
 10
1540.691894370117
 20
77.71874999999999
 30
0.0
 40
25.78125
  1
福西鋳物株式会社
 41
1.342691871783662
  7
EXCADSTD
100
AcDbText
  0
TEXT
  5
573
330
1F
100
AcDbEntity
  8
LAY-255
  6
CONTINUOUS
 62
     7
100
AcDbText
 10
1542.546875
 20
59.90624999999999
 30
0.0
 40
8.59375
  1
ＦＵＫＵＮＩＳＨＩ
 41
1.204799226045263
  7
EXCADSTD
100
AcDbText
  0
TEXT
  5
574
330
1F
100
AcDbEntity
  8
LAY-255
  6
CONTINUOUS
 62
     7
100
AcDbText
 10
1663.595982142857
 20
59.90624999999999
 30
0.0
 40
8.59375
  1
ＦＯＵＮＤＲＹ
 41
1.243252752978497
  7
EXCADSTD
100
AcDbText
  0
TEXT
  5
575
330
1F
100
AcDbEntity
  8
LAY-255
  6
CONTINUOUS
 62
     7
100
AcDbText
 10
1759.97295734375
 20
59.90624999999999
 30
0.0
 40
8.59375
  1
ＣＯ.,ＬＴＤ.
 41
1.243831100341625
  7
EXCADSTD
100
AcDbText
  0
TEXT
  5
576
330
1F
100
AcDbEntity
  8
LAY-255
  6
CONTINUOUS
 62
     7
100
AcDbText
 10
1470.171875
 20
68.59375
 30
0.0
 40
25.78125
  1
S
 41
0.7582677563636363
  7
EXCADSTD
100
AcDbText
  0
TEXT
  5
577
330
1F
100
AcDbEntity
  8
LAY-255
  6
CONTINUOUS
 62
     7
100
AcDbText
 10
1485.5234375
 20
68.7470518868
 30
0.0
 40
25.78125
  1
F
 41
0.7440945272727272
  7
EXCADSTD
100
AcDbText
  0
TEXT
  5
578
330
1F
100
AcDbEntity
  8
LAY-255
  6
CONTINUOUS
 62
     7
100
AcDbText
 10
1685.52734375
 20
122.1093749999999
 30
0.0
 40
12.890625
  1
縮尺
 41
1.080708718181818
  7
EXCADSTD
100
AcDbText
  0
TEXT
  5
579
330
1F
100
AcDbEntity
  8
LAY-255
  6
CONTINUOUS
 62
     7
100
AcDbText
 10
1435.76171875
 20
122.1093749999999
 30
0.0
 40
12.890625
  1
作成日
 41
1.000629973818182
  7
EXCADSTD
100
AcDbText
  0
TEXT
  5
57A
330
1F
100
AcDbEntity
  8
LAY-255
  6
CONTINUOUS
 62
     7
100
AcDbText
 10
1728.40625
 20
117.8124999999999
 30
0.0
 40
17.1875
  1
１：５,１：１
 41
0.8819559783040489
  7
EXCADSTD
100
AcDbText
  0
TEXT
  5
57B
330
1F
100
AcDbEntity
  8
LAY-255
  6
CONTINUOUS
 62
     7
100
AcDbText
 10
1436.328125
 20
357.8125000000003
 30
0.0
 40
17.1875
  1
型式
 41
1.056348480681818
  7
EXCADSTD
100
AcDbText
  0
TEXT
  5
57C
330
1F
100
AcDbEntity
  8
LAY-255
  6
CONTINUOUS
 62
     7
100
AcDbText
 10
1437.109375
 20
387.8125000000003
 30
0.0
 40
17.1875
  1
品名
 41
0.9788386340909091
  7
EXCADSTD
100
AcDbText
  0
TEXT
  5
57D
330
1F
100
AcDbEntity
  8
LAY-255
  6
CONTINUOUS
 62
     7
100
AcDbText
 10
1501.015625
 20
387.8125000000003
 30
0.0
 40
17.1875
  1
鋳鉄製ライナー側溝グレーチング
 41
1.017435374025974
  7
EXCADSTD
100
AcDbText
  0
TEXT
  5
57E
330
1F
100
AcDbEntity
  8
LAY-255
  6
CONTINUOUS
 62
     7
100
AcDbText
 10
1446.171875
 20
227.8125
 30
0.0
 40
17.1875
  1
表面：すべり止めクリスタル模様
 41
1.015836889542037
  7
EXCADSTD
100
AcDbText
  0
TEXT
  5
57F
330
1F
100
AcDbEntity
  8
LAY-255
  6
CONTINUOUS
 62
     7
100
AcDbText
 10
1446.171875
 20
302.8125000000003
 30
0.0
 40
17.1875
  1
用途：集水桝用
 41
1.015360838152012
  7
EXCADSTD
100
AcDbText
  0
TEXT
  5
580
330
1F
100
AcDbEntity
  8
LAY-255
  6
CONTINUOUS
 62
     7
100
AcDbText
 10
1445.859375
 20
277.8125000000003
 30
0.0
 40
17.1875
  1
仕上：インターロッキングブロック用
 41
1.011837149668874
  7
EXCADSTD
100
AcDbText
  0
TEXT
  5
581
330
1F
100
AcDbEntity
  8
LAY-255
  6
CONTINUOUS
 62
     7
100
AcDbText
 10
1446.015625
 20
327.8125000000003
 30
0.0
 40
17.1875
  1
適用桝径：６００用
 41
1.014552031760644
  7
EXCADSTD
100
AcDbText
  0
TEXT
  5
582
330
1F
100
AcDbEntity
  8
LAY-255
  6
CONTINUOUS
 62
     7
100
AcDbText
 10
1505.625
 20
357.8125000000003
 30
0.0
 40
17.1875
  1
Ｆ２０－６０ＺＰＣ－ＴＳ型
 41
0.9973639688537548
  7
EXCADSTD
100
AcDbText
  0
TEXT
  5
583
330
1F
100
AcDbEntity
  8
LAY-255
  6
CONTINUOUS
 62
     7
100
AcDbText
 10
1446.015625
 20
252.8125000000002
 30
0.0
 40
17.1875
  1
貼代：６９
 41
0.9937740862579282
  7
EXCADSTD
100
AcDbText
  0
TEXT
  5
584
330
1F
100
AcDbEntity
  8
LAY-255
  6
CONTINUOUS
 62
     7
100
AcDbText
 10
1446.015625
 20
202.8124999999999
 30
0.0
 40
17.1875
  1
蓋　：スチール（溶融亜鉛めっき）
 41
0.9751580860435339
  7
EXCADSTD
100
AcDbText
  0
TEXT
  5
585
330
1F
100
AcDbEntity
  8
LAY-255
  6
CONTINUOUS
 62
     7
100
AcDbText
 10
1446.875
 20
177.8124999999999
 30
0.0
 40
17.1875
  1
受枠：スチール（溶融亜鉛めっき）
 41
0.9724132705505761
  7
EXCADSTD
100
AcDbText
  0
TEXT
  5
586
330
1F
100
AcDbEntity
  8
LAY-255
  6
CONTINUOUS
 62
     7
100
AcDbText
 10
1506.40625
 20
117.8124999999999
 30
0.0
 40
17.1875
  1
１６／１１／１６
 41
0.9652981384415584
  7
EXCADSTD
100
AcDbText
  0
TEXT
  5
587
330
1F
100
AcDbEntity
  8
LAY-255
  6
CONTINUOUS
 62
     7
100
AcDbText
 10
1446.015625
 20
152.8124999999999
 30
0.0
 40
17.1875
  1
適用荷重：Ｔ－１４（レベルＤ）
 41
0.9729442225563909
  7
EXCADSTD
100
AcDbText
  0
ENDSEC
  0
SECTION
  2
OBJECTS
  0
DICTIONARY
  5
C
330
0
100
AcDbDictionary
  3
ACAD_GROUP
350
D
  3
ACAD_LAYOUT
350
1A
  3
ACAD_MATERIAL
350
43
  3
ACAD_MLEADERSTYLE
350
6B
  3
ACAD_MLINESTYLE
350
17
  3
ACAD_PLOTSETTINGS
350
19
  3
ACAD_SCALELIST
350
47
  3
ACAD_VISUALSTYLE
350
2A
  3
ACDBHEADERROUNDTRIPXREC
350
588
  3
ACDBVARIABLEDICTIONARY
350
5A9
  0
DICTIONARY
  5
5B4
330
8
100
AcDbDictionary
280
     1
  3
ACAD_XREC_ROUNDTRIP
360
5B5
  0
DICTIONARY
  5
D
102
{ACAD_REACTORS
330
C
102
}
330
C
100
AcDbDictionary
  0
DICTIONARY
  5
1A
102
{ACAD_REACTORS
330
C
102
}
330
C
100
AcDbDictionary
  0
DICTIONARY
  5
43
102
{ACAD_REACTORS
330
C
102
}
330
C
100
AcDbDictionary
  3
BYBLOCK
350
45
  3
BYLAYER
350
44
  3
GLOBAL
350
46
  0
DICTIONARY
  5
6B
102
{ACAD_REACTORS
330
C
102
}
330
C
100
AcDbDictionary
  3
STANDARD
350
6C
  0
DICTIONARY
  5
17
102
{ACAD_REACTORS
330
C
102
}
330
C
100
AcDbDictionary
  3
STANDARD
350
18
  0
DICTIONARY
  5
19
102
{ACAD_REACTORS
330
C
102
}
330
C
100
AcDbDictionary
  0
DICTIONARY
  5
47
102
{ACAD_REACTORS
330
C
102
}
330
C
100
AcDbDictionary
  3
A0
350
48
  3
A1
350
49
  3
A2
350
4A
  3
A3
350
4B
  3
A4
350
4C
  3
A5
350
4D
  3
A6
350
4E
  3
A7
350
4F
  3
A8
350
50
  3
A9
350
51
  3
B0
350
52
  3
B1
350
53
  3
B2
350
54
  3
B3
350
55
  3
B4
350
56
  3
B5
350
57
  3
B6
350
58
  3
B7
350
59
  3
B8
350
5A
  3
B9
350
5B
  3
C0
350
5C
  3
C1
350
5D
  3
C2
350
5E
  3
C3
350
5F
  3
C4
350
60
  3
C5
350
61
  3
C6
350
62
  3
C7
350
63
  3
C8
350
64
  3
C9
350
65
  3
D0
350
66
  3
D1
350
67
  3
D2
350
68
  0
DICTIONARY
  5
2A
102
{ACAD_REACTORS
330
C
102
}
330
C
100
AcDbDictionary
  3
2DWIREFRAME
350
2F
  3
BASIC
350
32
  3
BRIGHTEN
350
36
  3
COLORCHANGE
350
3A
  3
CONCEPTUAL
350
34
  3
DIM
350
35
  3
EDGECOLOROFF
350
3D
  3
FACEPATTERN
350
39
  3
FLAT
350
2B
  3
FLATWITHEDGES
350
2C
  3
GOURAUD
350
2D
  3
GOURAUDWITHEDGES
350
2E
  3
HIDDEN
350
31
  3
JITTEROFF
350
3B
  3
LINEPATTERN
350
38
  3
OVERHANGOFF
350
3C
  3
REALISTIC
350
33
  3
SHADED
350
42
  3
SHADED_WITH_EDGES
350
41
  3
SHADES_OF_GRAY
350
3E
  3
SKETCHY
350
3F
  3
THICKEN
350
37
  3
WIREFRAME
350
30
  3
X-RAY
350
40
  0
DICTIONARY
  5
588
102
{ACAD_REACTORS
330
C
102
}
330
C
100
AcDbDictionary
  3
CEPSNID
350
592
  3
CEPSNTYPE
350
591
  3
DIMSTYLEDATA
350
5A8
  3
FINGERPRINTGUID
350
593
  3
HYPERLINKBASE
350
58B
  3
INSUNITS
350
590
  3
LAYOUTDICT
350
58D
  3
LWETCUNION
350
58F
  3
PLOTSETDICT
350
58E
  3
PSVPSCALE
350
595
  3
PUCSBASE
350
598
  3
PUCSORGBACK
350
59E
  3
PUCSORGBOTTOM
350
59A
  3
PUCSORGFRONT
350
59D
  3
PUCSORGLEFT
350
59B
  3
PUCSORGRIGHT
350
59C
  3
PUCSORGTOP
350
599
  3
PUCSORTHOREF
350
596
  3
PUCSORTHOVIEW
350
597
  3
STYLESHEET
350
58C
  3
TSTACKALIGN
350
589
  3
TSTACKSIZE
350
58A
  3
UCSBASE
350
5A1
  3
UCSORGBACK
350
5A7
  3
UCSORGBOTTOM
350
5A3
  3
UCSORGFRONT
350
5A6
  3
UCSORGLEFT
350
5A4
  3
UCSORGRIGHT
350
5A5
  3
UCSORGTOP
350
5A2
  3
UCSORTHOREF
350
59F
  3
UCSORTHOVIEW
350
5A0
  3
VERSIONGUID
350
594
  0
DICTIONARY
  5
5A9
102
{ACAD_REACTORS
330
C
102
}
330
C
100
AcDbDictionary
  3
CANNOSCALE
350
5B6
  3
CENTEREXE
350
5B0
  3
CENTERLTYPEFILE
350
5B1
  3
CMLEADERSTYLE
350
5AB
  3
CTABLESTYLE
350
5AA
  3
DIMASSOC
350
5B2
  3
HIDETEXT
350
5B3
  3
MSLTSCALE
350
5B7
  3
PSOLHEIGHT
350
5AD
  3
PSOLWIDTH
350
5AC
  0
XRECORD
  5
5B5
102
{ACAD_REACTORS
330
5B4
102
}
330
5B4
100
AcDbXrecord
102
VTR_0.000_0.000_1.000_1.000_VISUALSTYLE
340
2F
102
VTR_0.000_0.000_1.000_1.000_GRIDDISPLAY
 70
     3
102
VTR_0.000_0.000_1.000_1.000_GRIDMAJOR
 70
     5
102
VTR_0.000_0.000_1.000_1.000_DEFAULTLIGHTING
280
     1
102
VTR_0.000_0.000_1.000_1.000_DEFAULTLIGHTINGTYPE
 70
     1
102
VTR_0.000_0.000_1.000_1.000_BRIGHTNESS
141
0.0
102
VTR_0.000_0.000_1.000_1.000_CONTRAST
142
0.0
  0
MATERIAL
  5
45
102
{ACAD_REACTORS
330
43
102
}
102
{ACAD_XDICTIONARY
360
5BA
102
}
330
43
100
AcDbMaterial
  1
BYBLOCK
  0
MATERIAL
  5
44
102
{ACAD_REACTORS
330
43
102
}
102
{ACAD_XDICTIONARY
360
5B8
102
}
330
43
100
AcDbMaterial
  1
BYLAYER
  0
MATERIAL
  5
46
102
{ACAD_REACTORS
330
43
102
}
102
{ACAD_XDICTIONARY
360
5BC
102
}
330
43
100
AcDbMaterial
  1
GLOBAL
  0
ACAD_PROXY_OBJECT
  5
6C
102
{ACAD_REACTORS
330
6B
102
}
330
6B
100
AcDbProxyObject
 90
      499
 91
      505
 93
      610
310
40901902A4063FBFFFFFE0000000000000020400000000000020404214DD185B99185C990000000000000104090141901A00000000000004100000000000000041025764000000000000039000
340
14
340
0
340
11
340
0
 94
        0
1001
ACAD_MLEADERVER
1070
     2
  0
MLINESTYLE
  5
18
102
{ACAD_REACTORS
330
17
102
}
330
17
100
AcDbMlineStyle
  2
Standard
 70
     0
  3

 62
   256
 51
90.0
 52
90.0
 71
     2
 49
0.5
 62
   256
  6
BYLAYER
 49
-0.5
 62
   256
  6
BYLAYER
  0
ACAD_PROXY_OBJECT
  5
48
102
{ACAD_REACTORS
330
47
102
}
330
47
100
AcDbProxyObject
 90
      499
 91
      503
 93
       41
310
903313A31580
  0
ACAD_PROXY_OBJECT
  5
49
102
{ACAD_REACTORS
330
47
102
}
330
47
100
AcDbProxyObject
 90
      499
 91
      503
 93
      105
310
903313A324000000000000004000
  0
ACAD_PROXY_OBJECT
  5
4A
102
{ACAD_REACTORS
330
47
102
}
330
47
100
AcDbProxyObject
 90
      499
 91
      503
 93
      105
310
903313A344000000000000104000
  0
ACAD_PROXY_OBJECT
  5
4B
102
{ACAD_REACTORS
330
47
102
}
330
47
100
AcDbProxyObject
 90
      499
 91
      503
 93
      105
310
903313A354000000000000144000
  0
ACAD_PROXY_OBJECT
  5
4C
102
{ACAD_REACTORS
330
47
102
}
330
47
100
AcDbProxyObject
 90
      499
 91
      503
 93
      105
310
903313A384000000000000204000
  0
ACAD_PROXY_OBJECT
  5
4D
102
{ACAD_REACTORS
330
47
102
}
330
47
100
AcDbProxyObject
 90
      499
 91
      503
 93
      113
310
904313A31304000000000000244000
  0
ACAD_PROXY_OBJECT
  5
4E
102
{ACAD_REACTORS
330
47
102
}
330
47
100
AcDbProxyObject
 90
      499
 91
      503
 93
      113
310
904313A31364000000000000304000
  0
ACAD_PROXY_OBJECT
  5
4F
102
{ACAD_REACTORS
330
47
102
}
330
47
100
AcDbProxyObject
 90
      499
 91
      503
 93
      113
310
904313A32304000000000000344000
  0
ACAD_PROXY_OBJECT
  5
50
102
{ACAD_REACTORS
330
47
102
}
330
47
100
AcDbProxyObject
 90
      499
 91
      503
 93
      113
310
904313A333040000000000003E4000
  0
ACAD_PROXY_OBJECT
  5
51
102
{ACAD_REACTORS
330
47
102
}
330
47
100
AcDbProxyObject
 90
      499
 91
      503
 93
      113
310
904313A34304000000000000444000
  0
ACAD_PROXY_OBJECT
  5
52
102
{ACAD_REACTORS
330
47
102
}
330
47
100
AcDbProxyObject
 90
      499
 91
      503
 93
      113
310
904313A35304000000000000494000
  0
ACAD_PROXY_OBJECT
  5
53
102
{ACAD_REACTORS
330
47
102
}
330
47
100
AcDbProxyObject
 90
      499
 91
      503
 93
      121
310
905313A3130304000000000000594000
  0
ACAD_PROXY_OBJECT
  5
54
102
{ACAD_REACTORS
330
47
102
}
330
47
100
AcDbProxyObject
 90
      499
 91
      503
 93
      105
310
903323A310000000000000010100
  0
ACAD_PROXY_OBJECT
  5
55
102
{ACAD_REACTORS
330
47
102
}
330
47
100
AcDbProxyObject
 90
      499
 91
      503
 93
      105
310
903343A310000000000000410100
  0
ACAD_PROXY_OBJECT
  5
56
102
{ACAD_REACTORS
330
47
102
}
330
47
100
AcDbProxyObject
 90
      499
 91
      503
 93
      105
310
903383A310000000000000810100
  0
ACAD_PROXY_OBJECT
  5
57
102
{ACAD_REACTORS
330
47
102
}
330
47
100
AcDbProxyObject
 90
      499
 91
      503
 93
      113
310
90431303A310000000000000910100
  0
ACAD_PROXY_OBJECT
  5
58
102
{ACAD_REACTORS
330
47
102
}
330
47
100
AcDbProxyObject
 90
      499
 91
      503
 93
      121
310
9053130303A310000000000001650100
  0
ACAD_PROXY_OBJECT
  5
59
102
{ACAD_REACTORS
330
47
102
}
330
47
100
AcDbProxyObject
 90
      499
 91
      503
 93
      257
310
90E312F31323822203D2031272D3022000000000000200FC000000000000284000
  0
ACAD_PROXY_OBJECT
  5
5A
102
{ACAD_REACTORS
330
47
102
}
330
47
100
AcDbProxyObject
 90
      499
 91
      503
 93
      249
310
90D312F363422203D2031272D3022000000000000240FC000000000000284000
  0
ACAD_PROXY_OBJECT
  5
5B
102
{ACAD_REACTORS
330
47
102
}
330
47
100
AcDbProxyObject
 90
      499
 91
      503
 93
      249
310
90D312F333222203D2031272D3022000000000000280FC000000000000284000
  0
ACAD_PROXY_OBJECT
  5
5C
102
{ACAD_REACTORS
330
47
102
}
330
47
100
AcDbProxyObject
 90
      499
 91
      503
 93
      249
310
90D312F313622203D2031272D30220000000000002C0FC000000000000284000
  0
ACAD_PROXY_OBJECT
  5
5D
102
{ACAD_REACTORS
330
47
102
}
330
47
100
AcDbProxyObject
 90
      499
 91
      503
 93
      249
310
90D332F333222203D2031272D30220000000000002E0FC000000000000284000
  0
ACAD_PROXY_OBJECT
  5
5E
102
{ACAD_REACTORS
330
47
102
}
330
47
100
AcDbProxyObject
 90
      499
 91
      503
 93
      241
310
90C312F3822203D2031272D3022000000000000300FC000000000000284000
  0
ACAD_PROXY_OBJECT
  5
5F
102
{ACAD_REACTORS
330
47
102
}
330
47
100
AcDbProxyObject
 90
      499
 91
      503
 93
      249
310
90D332F313622203D2031272D3022000000000000320FC000000000000284000
  0
ACAD_PROXY_OBJECT
  5
60
102
{ACAD_REACTORS
330
47
102
}
330
47
100
AcDbProxyObject
 90
      499
 91
      503
 93
      241
310
90C312F3422203D2031272D3022000000000000340FC000000000000284000
  0
ACAD_PROXY_OBJECT
  5
61
102
{ACAD_REACTORS
330
47
102
}
330
47
100
AcDbProxyObject
 90
      499
 91
      503
 93
      241
310
90C332F3822203D2031272D3022000000000000360FC000000000000284000
  0
ACAD_PROXY_OBJECT
  5
62
102
{ACAD_REACTORS
330
47
102
}
330
47
100
AcDbProxyObject
 90
      499
 91
      503
 93
      241
310
90C312F3222203D2031272D3022000000000000380FC000000000000284000
  0
ACAD_PROXY_OBJECT
  5
63
102
{ACAD_REACTORS
330
47
102
}
330
47
100
AcDbProxyObject
 90
      499
 91
      503
 93
      241
310
90C332F3422203D2031272D30220000000000003A0FC000000000000284000
  0
ACAD_PROXY_OBJECT
  5
64
102
{ACAD_REACTORS
330
47
102
}
330
47
100
AcDbProxyObject
 90
      499
 91
      503
 93
      161
310
90A3122203D2031272D30224000000000000284000
  0
ACAD_PROXY_OBJECT
  5
65
102
{ACAD_REACTORS
330
47
102
}
330
47
100
AcDbProxyObject
 90
      499
 91
      503
 93
      257
310
90E312D312F3222203D2031272D30220000000000003E0FC000000000000284000
  0
ACAD_PROXY_OBJECT
  5
66
102
{ACAD_REACTORS
330
47
102
}
330
47
100
AcDbProxyObject
 90
      499
 91
      503
 93
      225
310
90A3322203D2031272D302200000000000002100000000000000284000
  0
ACAD_PROXY_OBJECT
  5
67
102
{ACAD_REACTORS
330
47
102
}
330
47
100
AcDbProxyObject
 90
      499
 91
      503
 93
      225
310
90A3622203D2031272D302200000000000006100000000000000284000
  0
ACAD_PROXY_OBJECT
  5
68
102
{ACAD_REACTORS
330
47
102
}
330
47
100
AcDbProxyObject
 90
      499
 91
      503
 93
      249
310
90D31272D3022203D2031272D30220000000000000A100000000000000284000
  0
ACAD_PROXY_OBJECT
  5
2F
102
{ACAD_REACTORS
330
2A
102
}
330
2A
100
AcDbProxyObject
 90
      499
 91
      501
 93
      436
310
42CC9915DA5C99599C985B595049028333333333333E33F0000000000000F90107901411070040501600405405064090741402480A0340
1001
ACAD
1000
AcDbSavedByObjectVersion
1070
     0
  0
ACAD_PROXY_OBJECT
  5
32
102
{ACAD_REACTORS
330
2A
102
}
330
2A
100
AcDbProxyObject
 90
      499
 91
      501
 93
      388
310
4150985CDA58D07406404333333333333E33F0000000000000F90107A41107004050150841D405064090741402480A0350
1001
ACAD
1000
AcDbSavedByObjectVersion
1070
     0
  0
ACAD_PROXY_OBJECT
  5
36
102
{ACAD_REACTORS
330
2A
102
}
330
2A
100
AcDbProxyObject
 90
      499
 91
      501
 93
      428
310
42109C9A59DA1D195B90C409028333333333333E33F0000000000000F9010790141107004050150841D405064090741402480A029950
1001
ACAD
1000
AcDbSavedByObjectVersion
1070
     0
  0
ACAD_PROXY_OBJECT
  5
3A
102
{ACAD_REACTORS
330
2A
102
}
330
2A
100
AcDbProxyObject
 90
      499
 91
      501
 93
      452
310
42D0DBDB1BDC90DA185B99D95104090240C333333333333E33F0000000000000F90108901411070040501508421405064090741402480A0350
1001
ACAD
1000
AcDbSavedByObjectVersion
1070
     0
  0
ACAD_PROXY_OBJECT
  5
34
102
{ACAD_REACTORS
330
2A
102
}
330
2A
100
AcDbProxyObject
 90
      499
 91
      501
 93
      500
310
4290DBDB98D95C1D1D585B10940D028333333333333E33F0000000000000F90107902409070040501000000000018199010841D405064090740C02480A0340
1001
ACAD
1000
AcDbSavedByObjectVersion
1070
     0
  0
ACAD_PROXY_OBJECT
  5
35
102
{ACAD_REACTORS
330
2A
102
}
330
2A
100
AcDbProxyObject
 90
      499
 91
      501
 93
      412
310
40D11A5B50B409028333333333333E33F0000000000000F9010790141107004050150841D405064090741402480A02677FFFFFD0
1001
ACAD
1000
AcDbSavedByObjectVersion
1070
     0
  0
ACAD_PROXY_OBJECT
  5
3D
102
{ACAD_REACTORS
330
2A
102
}
330
2A
100
AcDbProxyObject
 90
      499
 91
      501
 93
      452
310
43115919D950DBDB1BDC93D999916409028333333333333E33F0000000000000F9010790141107004050150841D405064090741402480A0350
1001
ACAD
1000
AcDbSavedByObjectVersion
1070
     0
  0
ACAD_PROXY_OBJECT
  5
39
102
{ACAD_REACTORS
330
2A
102
}
330
2A
100
AcDbProxyObject
 90
      499
 91
      501
 93
      444
310
42D19858D95C185D1D195C9B90F409028333333333333E33F0000000000000F9010790141107004050150841D405064090741402480A0350
1001
ACAD
1000
AcDbSavedByObjectVersion
1070
     0
  0
ACAD_PROXY_OBJECT
  5
2B
102
{ACAD_REACTORS
330
2A
102
}
330
2A
100
AcDbProxyObject
 90
      499
 91
      501
 93
      380
310
41119B185D240901404333333333333E33F0000000000000F9010740A907004050150841D405064090741402480A1B50
1001
ACAD
1000
AcDbSavedByObjectVersion
1070
     0
  0
ACAD_PROXY_OBJECT
  5
2C
102
{ACAD_REACTORS
330
2A
102
}
330
2A
100
AcDbProxyObject
 90
      499
 91
      501
 93
      468
310
43519B185D15DA5D1A115919D95CD0140901404333333333333E33F0000000000000F90107409019070040501600405405064090741402480A1B50
1001
ACAD
1000
AcDbSavedByObjectVersion
1070
     0
  0
ACAD_PROXY_OBJECT
  5
2D
102
{ACAD_REACTORS
330
2A
102
}
330
2A
100
AcDbProxyObject
 90
      499
 91
      501
 93
      404
310
41D1DBDD5C985D5910240902404333333333333E33F0000000000000F9010740A9070040501641D405064090741402480A1B50
1001
ACAD
1000
AcDbSavedByObjectVersion
1070
     0
  0
ACAD_PROXY_OBJECT
  5
2E
102
{ACAD_REACTORS
330
2A
102
}
330
2A
100
AcDbProxyObject
 90
      499
 91
      501
 93
      492
310
4411DBDD5C985D5915DA5D1A115919D95CD0340902404333333333333E33F0000000000000F90107409019070040501600405405064090741402480A1B50
1001
ACAD
1000
AcDbSavedByObjectVersion
1070
     0
  0
ACAD_PROXY_OBJECT
  5
31
102
{ACAD_REACTORS
330
2A
102
}
330
2A
100
AcDbProxyObject
 90
      499
 91
      501
 93
      476
310
41921A5919195B90640502408333333333333E33F0000000000000F901079024090700405020000000000001110200405405064090740C02480A0340
1001
ACAD
1000
AcDbSavedByObjectVersion
1070
     0
  0
ACAD_PROXY_OBJECT
  5
3B
102
{ACAD_REACTORS
330
2A
102
}
330
2A
100
AcDbProxyObject
 90
      499
 91
      501
 93
      428
310
42529A5D1D195C93D999914409028333333333333E33F0000000000000F9010790141107004050150A41D405064090741402480A0350
1001
ACAD
1000
AcDbSavedByObjectVersion
1070
     0
  0
ACAD_PROXY_OBJECT
  5
38
102
{ACAD_REACTORS
330
2A
102
}
330
2A
100
AcDbProxyObject
 90
      499
 91
      501
 93
      444
310
42D31A5B995C185D1D195C9B90E409028333333333333E33F0000000000000F9010790141107004050750841D405064090741402483A0350
1001
ACAD
1000
AcDbSavedByObjectVersion
1070
     0
  0
ACAD_PROXY_OBJECT
  5
3C
102
{ACAD_REACTORS
330
2A
102
}
330
2A
100
AcDbProxyObject
 90
      499
 91
      501
 93
      444
310
42D3DD995C9A185B99D3D999915409028333333333333E33F0000000000000F9010790141107004050150941D405064090741402480A0350
1001
ACAD
1000
AcDbSavedByObjectVersion
1070
     0
  0
ACAD_PROXY_OBJECT
  5
33
102
{ACAD_REACTORS
330
2A
102
}
330
2A
100
AcDbProxyObject
 90
      499
 91
      501
 93
      428
310
425499585B1A5CDD1A58D08409038333333333333E33F0000000000000F9010740A907004050150800405405064090740C02480A1B40
1001
ACAD
1000
AcDbSavedByObjectVersion
1070
     0
  0
ACAD_PROXY_OBJECT
  5
42
102
{ACAD_REACTORS
330
2A
102
}
330
2A
100
AcDbProxyObject
 90
      499
 91
      501
 93
      420
310
4194DA1859195911B40902404333333333333E33F0000000000000F9010740A41107004050150800405405064090840C02480A0B40
1001
ACAD
1000
AcDbSavedByObjectVersion
1070
     0
  0
ACAD_PROXY_OBJECT
  5
41
102
{ACAD_REACTORS
330
2A
102
}
330
2A
100
AcDbProxyObject
 90
      499
 91
      501
 93
      516
310
4454DA18591959081DDA5D1A08195919D95CD1A40902404333333333333E33F0000000000000F901074090142907004050250800405405064090740C02480A0B40
1001
ACAD
1000
AcDbSavedByObjectVersion
1070
     0
  0
ACAD_PROXY_OBJECT
  5
3E
102
{ACAD_REACTORS
330
2A
102
}
330
2A
100
AcDbProxyObject
 90
      499
 91
      501
 93
      532
310
4394DA1859195CC81BD98811DC985E5174090240C333333333333E33F0000000000000F901079024090741D01000000000000111010841D405064090740C02480A0340
1001
ACAD
1000
AcDbSavedByObjectVersion
1070
     0
  0
ACAD_PROXY_OBJECT
  5
3F
102
{ACAD_REACTORS
330
2A
102
}
330
2A
100
AcDbProxyObject
 90
      499
 91
      501
 93
      476
310
41D4DAD95D18DA1E51840502408333333333333E33F0000000000000F901079024090741D01000000000000111010B41D405064090741802480A0340
1001
ACAD
1000
AcDbSavedByObjectVersion
1070
     0
  0
ACAD_PROXY_OBJECT
  5
37
102
{ACAD_REACTORS
330
2A
102
}
330
2A
100
AcDbProxyObject
 90
      499
 91
      501
 93
      412
310
41D51A1A58DAD95B90D409028333333333333E33F0000000000000F9010790141107004050150C41D405064090741402480A0350
1001
ACAD
1000
AcDbSavedByObjectVersion
1070
     0
  0
ACAD_PROXY_OBJECT
  5
30
102
{ACAD_REACTORS
330
2A
102
}
330
2A
100
AcDbProxyObject
 90
      499
 91
      501
 93
      420
310
4255DA5C99599C985B595059028333333333333E33F0000000000000F90107901411070040501600405405064090740C02480A0340
1001
ACAD
1000
AcDbSavedByObjectVersion
1070
     0
  0
ACAD_PROXY_OBJECT
  5
40
102
{ACAD_REACTORS
330
2A
102
}
330
2A
100
AcDbProxyObject
 90
      499
 91
      501
 93
      404
310
41560B54985E51940902404000000000000E03F0000000000000F9010740501907004050150841D405064090740C02480A1B40
1001
ACAD
1000
AcDbSavedByObjectVersion
1070
     0
  0
XRECORD
  5
592
102
{ACAD_REACTORS
330
588
102
}
330
588
100
AcDbXrecord
340
0
  0
XRECORD
  5
591
102
{ACAD_REACTORS
330
588
102
}
330
588
100
AcDbXrecord
 90
        0
  0
XRECORD
  5
5A8
102
{ACAD_REACTORS
330
588
102
}
330
588
100
AcDbXrecord
1000
DSTYLE
1002
{
1070
   340
340
11
1002
}
  0
XRECORD
  5
593
102
{ACAD_REACTORS
330
588
102
}
330
588
100
AcDbXrecord
  1
{aa984f52-2696-4838-937e-7380aa1ce180}
  0
XRECORD
  5
58B
102
{ACAD_REACTORS
330
588
102
}
330
588
100
AcDbXrecord
  1

  0
XRECORD
  5
590
102
{ACAD_REACTORS
330
588
102
}
330
588
100
AcDbXrecord
 90
        4
  0
XRECORD
  5
58D
102
{ACAD_REACTORS
330
588
102
}
330
588
100
AcDbXrecord
340
1A
  0
XRECORD
  5
58F
102
{ACAD_REACTORS
330
588
102
}
330
588
100
AcDbXrecord
 90
    10781
  0
XRECORD
  5
58E
102
{ACAD_REACTORS
330
588
102
}
330
588
100
AcDbXrecord
340
19
  0
XRECORD
  5
595
102
{ACAD_REACTORS
330
588
102
}
330
588
100
AcDbXrecord
 40
0.0
  0
XRECORD
  5
598
102
{ACAD_REACTORS
330
588
102
}
330
588
100
AcDbXrecord
340
0
  0
XRECORD
  5
59E
102
{ACAD_REACTORS
330
588
102
}
330
588
100
AcDbXrecord
 10
0.0
 20
0.0
 30
0.0
  0
XRECORD
  5
59A
102
{ACAD_REACTORS
330
588
102
}
330
588
100
AcDbXrecord
 10
0.0
 20
0.0
 30
0.0
  0
XRECORD
  5
59D
102
{ACAD_REACTORS
330
588
102
}
330
588
100
AcDbXrecord
 10
0.0
 20
0.0
 30
0.0
  0
XRECORD
  5
59B
102
{ACAD_REACTORS
330
588
102
}
330
588
100
AcDbXrecord
 10
0.0
 20
0.0
 30
0.0
  0
XRECORD
  5
59C
102
{ACAD_REACTORS
330
588
102
}
330
588
100
AcDbXrecord
 10
0.0
 20
0.0
 30
0.0
  0
XRECORD
  5
599
102
{ACAD_REACTORS
330
588
102
}
330
588
100
AcDbXrecord
 10
0.0
 20
0.0
 30
0.0
  0
XRECORD
  5
596
102
{ACAD_REACTORS
330
588
102
}
330
588
100
AcDbXrecord
340
0
  0
XRECORD
  5
597
102
{ACAD_REACTORS
330
588
102
}
330
588
100
AcDbXrecord
 70
     0
  0
XRECORD
  5
58C
102
{ACAD_REACTORS
330
588
102
}
330
588
100
AcDbXrecord
  1

  0
XRECORD
  5
589
102
{ACAD_REACTORS
330
588
102
}
330
588
100
AcDbXrecord
 90
        1
  0
XRECORD
  5
58A
102
{ACAD_REACTORS
330
588
102
}
330
588
100
AcDbXrecord
 90
       70
  0
XRECORD
  5
5A1
102
{ACAD_REACTORS
330
588
102
}
330
588
100
AcDbXrecord
340
0
  0
XRECORD
  5
5A7
102
{ACAD_REACTORS
330
588
102
}
330
588
100
AcDbXrecord
 10
0.0
 20
0.0
 30
0.0
  0
XRECORD
  5
5A3
102
{ACAD_REACTORS
330
588
102
}
330
588
100
AcDbXrecord
 10
0.0
 20
0.0
 30
0.0
  0
XRECORD
  5
5A6
102
{ACAD_REACTORS
330
588
102
}
330
588
100
AcDbXrecord
 10
0.0
 20
0.0
 30
0.0
  0
XRECORD
  5
5A4
102
{ACAD_REACTORS
330
588
102
}
330
588
100
AcDbXrecord
 10
0.0
 20
0.0
 30
0.0
  0
XRECORD
  5
5A5
102
{ACAD_REACTORS
330
588
102
}
330
588
100
AcDbXrecord
 10
0.0
 20
0.0
 30
0.0
  0
XRECORD
  5
5A2
102
{ACAD_REACTORS
330
588
102
}
330
588
100
AcDbXrecord
 10
0.0
 20
0.0
 30
0.0
  0
XRECORD
  5
59F
102
{ACAD_REACTORS
330
588
102
}
330
588
100
AcDbXrecord
340
0
  0
XRECORD
  5
5A0
102
{ACAD_REACTORS
330
588
102
}
330
588
100
AcDbXrecord
 70
     0
  0
XRECORD
  5
594
102
{ACAD_REACTORS
330
588
102
}
330
588
100
AcDbXrecord
  1
{FAEB1C32-E019-11D5-929B-00C0DF256EC4}
  0
DICTIONARYVAR
  5
5B6
102
{ACAD_REACTORS
330
5A9
102
}
330
5A9
100
DictionaryVariables
280
     0
  1
1:1
  0
DICTIONARYVAR
  5
5B0
102
{ACAD_REACTORS
330
5A9
102
}
330
5A9
100
DictionaryVariables
280
     0
  1
3.500000
  0
DICTIONARYVAR
  5
5B1
102
{ACAD_REACTORS
330
5A9
102
}
330
5A9
100
DictionaryVariables
280
     0
  1
acadiso.lin
  0
DICTIONARYVAR
  5
5AB
102
{ACAD_REACTORS
330
5A9
102
}
330
5A9
100
DictionaryVariables
280
     0
  1
Standard
  0
DICTIONARYVAR
  5
5AA
102
{ACAD_REACTORS
330
5A9
102
}
330
5A9
100
DictionaryVariables
280
     0
  1
Standard
  0
DICTIONARYVAR
  5
5B2
102
{ACAD_REACTORS
330
5A9
102
}
330
5A9
100
DictionaryVariables
280
     0
  1
2
  0
DICTIONARYVAR
  5
5B3
102
{ACAD_REACTORS
330
5A9
102
}
330
5A9
100
DictionaryVariables
280
     0
  1
1
  0
DICTIONARYVAR
  5
5B7
102
{ACAD_REACTORS
330
5A9
102
}
330
5A9
100
DictionaryVariables
280
     0
  1
1
  0
DICTIONARYVAR
  5
5AD
102
{ACAD_REACTORS
330
5A9
102
}
330
5A9
100
DictionaryVariables
280
     0
  1
80.000000
  0
DICTIONARYVAR
  5
5AC
102
{ACAD_REACTORS
330
5A9
102
}
330
5A9
100
DictionaryVariables
280
     0
  1
5.000000
  0
DICTIONARY
  5
5BA
330
45
100
AcDbDictionary
280
     1
  3
ACAD_XREC_ROUNDTRIP
360
5BB
  0
DICTIONARY
  5
5B8
330
44
100
AcDbDictionary
280
     1
  3
ACAD_XREC_ROUNDTRIP
360
5B9
  0
DICTIONARY
  5
5BC
330
46
100
AcDbDictionary
280
     1
  3
ACAD_XREC_ROUNDTRIP
360
5BD
  0
XRECORD
  5
5BB
102
{ACAD_REACTORS
330
5BA
102
}
330
5BA
100
AcDbXrecord
102
MATERIAL
148
0.0
149
0.0
149
0.0
 93
        0
 94
      127
282
     0
 72
     1
 77
     1
171
     1
175
     1
179
     1
273
     0
  0
XRECORD
  5
5B9
102
{ACAD_REACTORS
330
5B8
102
}
330
5B8
100
AcDbXrecord
102
MATERIAL
148
0.0
149
0.0
149
0.0
 93
        0
 94
      127
282
     0
 72
     1
 77
     1
171
     1
175
     1
179
     1
273
     0
  0
XRECORD
  5
5BD
102
{ACAD_REACTORS
330
5BC
102
}
330
5BC
100
AcDbXrecord
102
MATERIAL
148
0.0
149
0.0
149
0.0
 93
        0
 94
      127
282
     0
 72
     1
 77
     1
171
     1
175
     1
179
     1
273
     0
  0
ENDSEC
  0
EOF
