  0
SECTION
  2
HEADER
  9
$ACADVER
  1
AC1014
  9
$ACADMAINTVER
 70
     9
  9
$DWGCODEPAGE
  3
ANSI_932
  9
$INSBASE
 10
0.0
 20
0.0
 30
0.0
  9
$EXTMIN
 10
40.0
 20
80.0
 30
0.0
  9
$EXTMAX
 10
3395.831323016469
 20
2240.0
 30
0.0
  9
$LIMMIN
 10
0.0
 20
0.0
  9
$LIMMAX
 10
420.0
 20
297.0
  9
$ORTHOMODE
 70
     0
  9
$REGENMODE
 70
     1
  9
$FILLMODE
 70
     1
  9
$QTEXTMODE
 70
     0
  9
$MIRRTEXT
 70
     1
  9
$DRAGMODE
 70
     2
  9
$LTSCALE
 40
0.2
  9
$OSMODE
 70
    37
  9
$ATTMODE
 70
     1
  9
$TEXTSIZE
 40
2.5
  9
$TRACEWID
 40
1.0
  9
$TEXTSTYLE
  7
STANDARD
  9
$CLAYER
  8
LAY-20
  9
$CELTYPE
  6
BYLAYER
  9
$CECOLOR
 62
   256
  9
$CELTSCALE
 40
1.0
  9
$DELOBJ
 70
     1
  9
$DISPSILH
 70
     0
  9
$DIMSCALE
 40
1.0
  9
$DIMASZ
 40
2.5
  9
$DIMEXO
 40
0.625
  9
$DIMDLI
 40
3.75
  9
$DIMRND
 40
0.0
  9
$DIMDLE
 40
0.0
  9
$DIMEXE
 40
1.25
  9
$DIMTP
 40
0.0
  9
$DIMTM
 40
0.0
  9
$DIMTXT
 40
2.5
  9
$DIMCEN
 40
2.5
  9
$DIMTSZ
 40
0.0
  9
$DIMTOL
 70
     0
  9
$DIMLIM
 70
     0
  9
$DIMTIH
 70
     0
  9
$DIMTOH
 70
     0
  9
$DIMSE1
 70
     0
  9
$DIMSE2
 70
     0
  9
$DIMTAD
 70
     1
  9
$DIMZIN
 70
     8
  9
$DIMBLK
  1

  9
$DIMASO
 70
     1
  9
$DIMSHO
 70
     1
  9
$DIMPOST
  1

  9
$DIMAPOST
  1

  9
$DIMALT
 70
     0
  9
$DIMALTD
 70
     3
  9
$DIMALTF
 40
0.03937007874016
  9
$DIMLFAC
 40
1.0
  9
$DIMTOFL
 70
     1
  9
$DIMTVP
 40
0.0
  9
$DIMTIX
 70
     0
  9
$DIMSOXD
 70
     0
  9
$DIMSAH
 70
     0
  9
$DIMBLK1
  1

  9
$DIMBLK2
  1

  9
$DIMSTYLE
  2
ISO-25
  9
$DIMCLRD
 70
     0
  9
$DIMCLRE
 70
     0
  9
$DIMCLRT
 70
     0
  9
$DIMTFAC
 40
1.0
  9
$DIMGAP
 40
0.625
  9
$DIMJUST
 70
     0
  9
$DIMSD1
 70
     0
  9
$DIMSD2
 70
     0
  9
$DIMTOLJ
 70
     0
  9
$DIMTZIN
 70
     8
  9
$DIMALTZ
 70
     0
  9
$DIMALTTZ
 70
     0
  9
$DIMFIT
 70
     3
  9
$DIMUPT
 70
     0
  9
$DIMUNIT
 70
     2
  9
$DIMDEC
 70
     2
  9
$DIMTDEC
 70
     2
  9
$DIMALTU
 70
     2
  9
$DIMALTTD
 70
     3
  9
$DIMTXSTY
  7
STANDARD
  9
$DIMAUNIT
 70
     0
  9
$LUNITS
 70
     2
  9
$LUPREC
 70
     4
  9
$SKETCHINC
 40
1.0
  9
$FILLETRAD
 40
10.0
  9
$AUNITS
 70
     0
  9
$AUPREC
 70
     0
  9
$MENU
  1
.
  9
$ELEVATION
 40
0.0
  9
$PELEVATION
 40
0.0
  9
$THICKNESS
 40
0.0
  9
$LIMCHECK
 70
     0
  9
$CHAMFERA
 40
0.0
  9
$CHAMFERB
 40
0.0
  9
$CHAMFERC
 40
0.0
  9
$CHAMFERD
 40
0.0
  9
$SKPOLY
 70
     0
  9
$TDCREATE
 40
2460154.554167998
  9
$TDUPDATE
 40
2460154.554168345
  9
$TDINDWG
 40
0.0000000116
  9
$TDUSRTIMER
 40
0.0000000116
  9
$USRTIMER
 70
     1
  9
$ANGBASE
 50
0.0
  9
$ANGDIR
 70
     0
  9
$PDMODE
 70
     0
  9
$PDSIZE
 40
0.0
  9
$PLINEWID
 40
0.0
  9
$COORDS
 70
     1
  9
$SPLFRAME
 70
     0
  9
$SPLINETYPE
 70
     6
  9
$SPLINESEGS
 70
     8
  9
$ATTDIA
 70
     0
  9
$ATTREQ
 70
     1
  9
$HANDLING
 70
     1
  9
$HANDSEED
  5
5AC
  9
$SURFTAB1
 70
     6
  9
$SURFTAB2
 70
     6
  9
$SURFTYPE
 70
     6
  9
$SURFU
 70
     6
  9
$SURFV
 70
     6
  9
$UCSNAME
  2

  9
$UCSORG
 10
0.0
 20
0.0
 30
0.0
  9
$UCSXDIR
 10
1.0
 20
0.0
 30
0.0
  9
$UCSYDIR
 10
0.0
 20
1.0
 30
0.0
  9
$PUCSNAME
  2

  9
$PUCSORG
 10
0.0
 20
0.0
 30
0.0
  9
$PUCSXDIR
 10
1.0
 20
0.0
 30
0.0
  9
$PUCSYDIR
 10
0.0
 20
1.0
 30
0.0
  9
$USERI1
 70
     0
  9
$USERI2
 70
     0
  9
$USERI3
 70
     0
  9
$USERI4
 70
     0
  9
$USERI5
 70
     0
  9
$USERR1
 40
0.0
  9
$USERR2
 40
0.0
  9
$USERR3
 40
0.0
  9
$USERR4
 40
0.0
  9
$USERR5
 40
0.0
  9
$WORLDVIEW
 70
     1
  9
$SHADEDGE
 70
     3
  9
$SHADEDIF
 70
    70
  9
$TILEMODE
 70
     1
  9
$MAXACTVP
 70
    64
  9
$PINSBASE
 10
0.0
 20
0.0
 30
0.0
  9
$PLIMCHECK
 70
     0
  9
$PEXTMIN
 10
1.000000000000000E+20
 20
1.000000000000000E+20
 30
1.000000000000000E+20
  9
$PEXTMAX
 10
-1.000000000000000E+20
 20
-1.000000000000000E+20
 30
-1.000000000000000E+20
  9
$PLIMMIN
 10
0.0
 20
0.0
  9
$PLIMMAX
 10
420.0
 20
297.0
  9
$UNITMODE
 70
     0
  9
$VISRETAIN
 70
     1
  9
$PLINEGEN
 70
     0
  9
$PSLTSCALE
 70
     1
  9
$TREEDEPTH
 70
  3020
  9
$PICKSTYLE
 70
     1
  9
$CMLSTYLE
  2
STANDARD
  9
$CMLJUST
 70
     0
  9
$CMLSCALE
 40
20.0
  9
$PROXYGRAPHICS
 70
     1
  9
$MEASUREMENT
 70
     1
  0
ENDSEC
  0
SECTION
  2
CLASSES
  0
CLASS
  1
ACDBDICTIONARYWDFLT
  2
AcDbDictionaryWithDefault
  3
ObjectDBX Classes
 90
        0
280
     0
281
     0
  0
CLASS
  1
VISUALSTYLE
  2
AcDbVisualStyle
  3
ObjectDBX Classes
 90
     4095
280
     0
281
     0
  0
CLASS
  1
MATERIAL
  2
AcDbMaterial
  3
ObjectDBX Classes
 90
     1153
280
     0
281
     0
  0
CLASS
  1
SCALE
  2
AcDbScale
  3
ObjectDBX Classes
 90
     1153
280
     0
281
     0
  0
CLASS
  1
TABLESTYLE
  2
AcDbTableStyle
  3
ObjectDBX Classes
 90
     4095
280
     0
281
     0
  0
CLASS
  1
MLEADERSTYLE
  2
AcDbMLeaderStyle
  3
ACDB_MLEADERSTYLE_CLASS
 90
     4095
280
     0
281
     0
  0
CLASS
  1
SUN
  2
AcDbSun
  3
SCENEOE
 90
     1153
280
     0
281
     0
  0
CLASS
  1
DICTIONARYVAR
  2
AcDbDictionaryVar
  3
ObjectDBX Classes
 90
        0
280
     0
281
     0
  0
CLASS
  1
XRECORD
  2
AcDbXrecord
  3
ObjectDBX Classes
 90
        0
280
     0
281
     0
  0
CLASS
  1
LWPOLYLINE
  2
AcDbPolyline
  3
ObjectDBX Classes
 90
        0
280
     0
281
     1
  0
CLASS
  1
HATCH
  2
AcDbHatch
  3
ObjectDBX Classes
 90
        0
280
     0
281
     1
  0
CLASS
  1
ACDBPLACEHOLDER
  2
AcDbPlaceHolder
  3
ObjectDBX Classes
 90
        0
280
     0
281
     0
  0
CLASS
  1
LAYOUT
  2
AcDbLayout
  3
ObjectDBX Classes
 90
        0
280
     0
281
     0
  0
ENDSEC
  0
SECTION
  2
TABLES
  0
TABLE
  2
VPORT
  5
8
102
{ACAD_XDICTIONARY
360
5A1
102
}
330
0
100
AcDbSymbolTable
 70
     1
  0
VPORT
  5
29
330
8
100
AcDbSymbolTableRecord
100
AcDbViewportTableRecord
  2
*ACTIVE
 70
     0
 10
0.0
 20
0.0
 11
1.0
 21
1.0
 12
1560.0
 22
1160.0
 13
0.0
 23
0.0
 14
10.0
 24
10.0
 15
10.0
 25
10.0
 16
0.0
 26
0.0
 36
1.0
 17
0.0
 27
0.0
 37
0.0
 40
2160.0
 41
1.407407407407408
 42
50.0
 43
0.0
 44
0.0
 50
0.0
 51
0.0
 71
     0
 72
  1000
 73
     1
 74
     3
 75
     0
 76
     0
 77
     0
 78
     0
  0
ENDTAB
  0
TABLE
  2
LTYPE
  5
5
330
0
100
AcDbSymbolTable
 70
     6
  0
LTYPE
  5
14
330
5
100
AcDbSymbolTableRecord
100
AcDbLinetypeTableRecord
  2
BYBLOCK
 70
     0
  3

 72
    65
 73
     0
 40
0.0
  0
LTYPE
  5
15
330
5
100
AcDbSymbolTableRecord
100
AcDbLinetypeTableRecord
  2
BYLAYER
 70
     0
  3

 72
    65
 73
     0
 40
0.0
  0
LTYPE
  5
16
330
5
100
AcDbSymbolTableRecord
100
AcDbLinetypeTableRecord
  2
CONTINUOUS
 70
     0
  3
Solid line
 72
    65
 73
     0
 40
0.0
  0
LTYPE
  5
6E
330
5
100
AcDbSymbolTableRecord
100
AcDbLinetypeTableRecord
  2
HIDDEN
 70
     0
  3
Hidden __ __ __ __ __ __ __ __ __ __ __ __ __ __
 72
    65
 73
     2
 40
9.524999999999999
 49
6.35
 74
     0
 49
-3.175
 74
     0
  0
LTYPE
  5
6F
330
5
100
AcDbSymbolTableRecord
100
AcDbLinetypeTableRecord
  2
CENTER
 70
     0
  3
Center ____ _ ____ _ ____ _ ____ _ ____ _ ____
 72
    65
 73
     4
 40
50.8
 49
31.75
 74
     0
 49
-6.35
 74
     0
 49
6.35
 74
     0
 49
-6.35
 74
     0
  0
LTYPE
  5
70
330
5
100
AcDbSymbolTableRecord
100
AcDbLinetypeTableRecord
  2
PHANTOM
 70
     0
  3
Phantom ______  __  __  ______  __  __  ______ 
 72
    65
 73
     6
 40
63.50000000000001
 49
31.75
 74
     0
 49
-6.35
 74
     0
 49
6.35
 74
     0
 49
-6.35
 74
     0
 49
6.35
 74
     0
 49
-6.35
 74
     0
  0
LTYPE
  5
71
330
5
100
AcDbSymbolTableRecord
100
AcDbLinetypeTableRecord
  2
ACAD_ISO06W100
 70
     0
  3
ISO long-dash triple-dot ____ ... ____ ... ____
 72
    65
 73
     8
 40
36.0
 49
24.0
 74
     0
 49
-3.0
 74
     0
 49
0.0
 74
     0
 49
-3.0
 74
     0
 49
0.0
 74
     0
 49
-3.0
 74
     0
 49
0.0
 74
     0
 49
-3.0
 74
     0
  0
LTYPE
  5
72
330
5
100
AcDbSymbolTableRecord
100
AcDbLinetypeTableRecord
  2
ACAD_ISO15W100
 70
     0
  3
ISO double-dash triple-dot __ __ . . . __ __ . .
 72
    65
 73
    10
 40
39.0
 49
12.0
 74
     0
 49
-3.0
 74
     0
 49
12.0
 74
     0
 49
-3.0
 74
     0
 49
0.0
 74
     0
 49
-3.0
 74
     0
 49
0.0
 74
     0
 49
-3.0
 74
     0
 49
0.0
 74
     0
 49
-3.0
 74
     0
  0
ENDTAB
  0
TABLE
  2
LAYER
  5
2
330
0
100
AcDbSymbolTable
 70
     7
  0
LAYER
  5
10
330
2
100
AcDbSymbolTableRecord
100
AcDbLayerTableRecord
  2
0
 70
     0
 62
     7
  6
CONTINUOUS
  0
LAYER
  5
75
330
2
100
AcDbSymbolTableRecord
100
AcDbLayerTableRecord
  2
LAY-10
 70
     0
 62
     7
  6
CONTINUOUS
  0
LAYER
  5
76
330
2
100
AcDbSymbolTableRecord
100
AcDbLayerTableRecord
  2
LAY-11
 70
     0
 62
     7
  6
CONTINUOUS
  0
LAYER
  5
77
330
2
100
AcDbSymbolTableRecord
100
AcDbLayerTableRecord
  2
LAY-12
 70
     0
 62
     7
  6
CONTINUOUS
  0
LAYER
  5
78
330
2
100
AcDbSymbolTableRecord
100
AcDbLayerTableRecord
  2
LAY-20
 70
     0
 62
     7
  6
CONTINUOUS
  0
LAYER
  5
79
330
2
100
AcDbSymbolTableRecord
100
AcDbLayerTableRecord
  2
LAY-255
 70
     0
 62
     7
  6
CONTINUOUS
  0
LAYER
  5
4CF
330
2
100
AcDbSymbolTableRecord
100
AcDbLayerTableRecord
  2
DEFPOINTS
 70
     0
 62
     7
  6
CONTINUOUS
  0
ENDTAB
  0
TABLE
  2
STYLE
  5
3
330
0
100
AcDbSymbolTable
 70
     4
  0
STYLE
  5
11
330
3
100
AcDbSymbolTableRecord
100
AcDbTextStyleTableRecord
  2
STANDARD
 70
     0
 40
0.0
 41
1.0
 50
0.0
 71
     0
 42
2.5
  3
simplex
  4
bigfont
  0
STYLE
  5
73
330
3
100
AcDbSymbolTableRecord
100
AcDbTextStyleTableRecord
  2
EXCADSTD
 70
     0
 40
0.0
 41
1.0
 50
0.0
 71
     0
 42
2.5
  3
simplex
  4
bigfont
  0
STYLE
  5
74
330
3
100
AcDbSymbolTableRecord
100
AcDbTextStyleTableRecord
  2
EXCADVERT
 70
     4
 40
0.0
 41
1.0
 50
0.0
 71
     0
 42
2.5
  3
simplex
  4
bigfont
  0
STYLE
  5
4CD
330
3
100
AcDbSymbolTableRecord
100
AcDbTextStyleTableRecord
  2
EXCADDIM1
 70
     0
 40
0.0
 41
0.84
 50
0.0
 71
     0
 42
2.5
  3
simplex
  4
bigfont
  0
ENDTAB
  0
TABLE
  2
VIEW
  5
6
330
0
100
AcDbSymbolTable
 70
     0
  0
ENDTAB
  0
TABLE
  2
UCS
  5
7
330
0
100
AcDbSymbolTable
 70
     0
  0
ENDTAB
  0
TABLE
  2
APPID
  5
9
330
0
100
AcDbSymbolTable
 70
     2
  0
APPID
  5
12
330
9
100
AcDbSymbolTableRecord
100
AcDbRegAppTableRecord
  2
ACAD
 70
     0
  0
APPID
  5
5AB
330
9
100
AcDbSymbolTableRecord
100
AcDbRegAppTableRecord
  2
ACAD_MLEADERVER
 70
     0
  0
ENDTAB
  0
TABLE
  2
DIMSTYLE
  5
A
330
0
100
AcDbSymbolTable
 70
     1
  0
DIMSTYLE
105
27
102
{ACAD_REACTORS
330
4CE
330
4DC
330
4E9
330
4F6
330
503
330
510
330
51D
330
52C
330
53B
102
}
330
A
100
AcDbSymbolTableRecord
100
AcDbDimStyleTableRecord
  2
ISO-25
 70
     0
  3

  4

  5

  6

  7

 40
1.0
 41
2.5
 42
0.625
 43
3.75
 44
1.25
 45
0.0
 46
0.0
 47
0.0
 48
0.0
140
2.5
141
2.5
142
0.0
143
0.03937007874016
144
1.0
145
0.0
146
1.0
147
0.625
 71
     0
 72
     0
 73
     0
 74
     0
 75
     0
 76
     0
 77
     1
 78
     8
170
     0
171
     3
172
     1
173
     0
174
     0
175
     0
176
     0
177
     0
178
     0
270
     2
271
     2
272
     2
273
     2
274
     3
340
11
275
     0
280
     0
281
     0
282
     0
283
     0
284
     8
285
     0
286
     0
287
     5
288
     0
  0
ENDTAB
  0
TABLE
  2
BLOCK_RECORD
  5
1
330
0
100
AcDbSymbolTable
 70
    23
  0
BLOCK_RECORD
  5
1F
330
1
100
AcDbSymbolTableRecord
100
AcDbBlockTableRecord
  2
*MODEL_SPACE
  0
BLOCK_RECORD
  5
1B
330
1
100
AcDbSymbolTableRecord
100
AcDbBlockTableRecord
  2
*PAPER_SPACE
  0
BLOCK_RECORD
  5
7A
330
1
100
AcDbSymbolTableRecord
100
AcDbBlockTableRecord
  2
EX_NORM
  0
BLOCK_RECORD
  5
7D
330
1
100
AcDbSymbolTableRecord
100
AcDbBlockTableRecord
  2
EX_BNORM
  0
BLOCK_RECORD
  5
80
330
1
100
AcDbSymbolTableRecord
100
AcDbBlockTableRecord
  2
EX_BCIR
  0
BLOCK_RECORD
  5
83
330
1
100
AcDbSymbolTableRecord
100
AcDbBlockTableRecord
  2
EX_RCIVIL
  0
BLOCK_RECORD
  5
86
330
1
100
AcDbSymbolTableRecord
100
AcDbBlockTableRecord
  2
EX_SLANT
  0
BLOCK_RECORD
  5
89
330
1
100
AcDbSymbolTableRecord
100
AcDbBlockTableRecord
  2
EX_NONE
  0
BLOCK_RECORD
  5
8C
330
1
100
AcDbSymbolTableRecord
100
AcDbBlockTableRecord
  2
EX_CIVIL
  0
BLOCK_RECORD
  5
8F
330
1
100
AcDbSymbolTableRecord
100
AcDbBlockTableRecord
  2
EX_WCIR
  0
BLOCK_RECORD
  5
92
330
1
100
AcDbSymbolTableRecord
100
AcDbBlockTableRecord
  2
EX_WCIR2
  0
BLOCK_RECORD
  5
95
330
1
100
AcDbSymbolTableRecord
100
AcDbBlockTableRecord
  2
EX_WNORM
  0
BLOCK_RECORD
  5
98
330
1
100
AcDbSymbolTableRecord
100
AcDbBlockTableRecord
  2
EX_NNORM
  0
BLOCK_RECORD
  5
9B
330
1
100
AcDbSymbolTableRecord
100
AcDbBlockTableRecord
  2
EX_BBOX
  0
BLOCK_RECORD
  5
9E
330
1
100
AcDbSymbolTableRecord
100
AcDbBlockTableRecord
  2
EX_WBOX
  0
BLOCK_RECORD
  5
A1
330
1
100
AcDbSymbolTableRecord
100
AcDbBlockTableRecord
  2
EX_INTEGRAL
  0
BLOCK_RECORD
  5
4D0
330
1
100
AcDbSymbolTableRecord
100
AcDbBlockTableRecord
  2
*D15
  0
BLOCK_RECORD
  5
4DD
330
1
100
AcDbSymbolTableRecord
100
AcDbBlockTableRecord
  2
*D16
  0
BLOCK_RECORD
  5
4EA
330
1
100
AcDbSymbolTableRecord
100
AcDbBlockTableRecord
  2
*D17
  0
BLOCK_RECORD
  5
4F7
330
1
100
AcDbSymbolTableRecord
100
AcDbBlockTableRecord
  2
*D18
  0
BLOCK_RECORD
  5
504
330
1
100
AcDbSymbolTableRecord
100
AcDbBlockTableRecord
  2
*D19
  0
BLOCK_RECORD
  5
511
330
1
100
AcDbSymbolTableRecord
100
AcDbBlockTableRecord
  2
*D20
  0
BLOCK_RECORD
  5
51E
330
1
100
AcDbSymbolTableRecord
100
AcDbBlockTableRecord
  2
*D21
  0
BLOCK_RECORD
  5
52D
330
1
100
AcDbSymbolTableRecord
100
AcDbBlockTableRecord
  2
*D22
  0
BLOCK_RECORD
  5
53C
330
1
100
AcDbSymbolTableRecord
100
AcDbBlockTableRecord
  2
*D23
  0
ENDTAB
  0
ENDSEC
  0
SECTION
  2
BLOCKS
  0
BLOCK
  5
20
330
1F
100
AcDbEntity
  8
0
100
AcDbBlockBegin
  2
*MODEL_SPACE
 70
     0
 10
0.0
 20
0.0
 30
0.0
  3
*MODEL_SPACE
  1

  0
ENDBLK
  5
21
330
1F
100
AcDbEntity
  8
0
100
AcDbBlockEnd
  0
BLOCK
  5
1C
330
1B
100
AcDbEntity
 67
     1
  8
0
100
AcDbBlockBegin
  2
*PAPER_SPACE
 70
     0
 10
0.0
 20
0.0
 30
0.0
  3
*PAPER_SPACE
  1

  0
ENDBLK
  5
1D
330
1B
100
AcDbEntity
 67
     1
  8
0
100
AcDbBlockEnd
  0
BLOCK
  5
7B
330
7A
100
AcDbEntity
  8
0
100
AcDbBlockBegin
  2
EX_NORM
 70
     0
 10
0.0
 20
0.0
 30
0.0
  3
EX_NORM
  1

  0
LINE
  5
A4
330
7A
100
AcDbEntity
  8
0
  6
CONTINUOUS
 62
     0
100
AcDbLine
 10
0.0
 20
0.0
 30
0.0
 11
-1.0
 21
0.0
 31
0.0
  0
LINE
  5
A5
330
7A
100
AcDbEntity
  8
0
  6
CONTINUOUS
 62
     0
100
AcDbLine
 10
0.0
 20
0.0
 30
0.0
 11
-1.0
 21
0.166666667
 31
0.0
  0
LINE
  5
A6
330
7A
100
AcDbEntity
  8
0
  6
CONTINUOUS
 62
     0
100
AcDbLine
 10
0.0
 20
0.0
 30
0.0
 11
-1.0
 21
-0.166666667
 31
0.0
  0
ENDBLK
  5
7C
330
7A
100
AcDbEntity
  8
0
100
AcDbBlockEnd
  0
BLOCK
  5
7E
330
7D
100
AcDbEntity
  8
0
100
AcDbBlockBegin
  2
EX_BNORM
 70
     0
 10
0.0
 20
0.0
 30
0.0
  3
EX_BNORM
  1

  0
LINE
  5
A7
330
7D
100
AcDbEntity
  8
0
  6
CONTINUOUS
 62
     0
100
AcDbLine
 10
0.0
 20
0.0
 30
0.0
 11
-1.0
 21
0.0
 31
0.0
  0
LINE
  5
A8
330
7D
100
AcDbEntity
  8
0
  6
CONTINUOUS
 62
     0
100
AcDbLine
 10
0.0
 20
0.0
 30
0.0
 11
-1.0
 21
0.166666667
 31
0.0
  0
LINE
  5
A9
330
7D
100
AcDbEntity
  8
0
  6
CONTINUOUS
 62
     0
100
AcDbLine
 10
0.0
 20
0.0
 30
0.0
 11
-1.0
 21
-0.166666667
 31
0.0
  0
LINE
  5
AA
330
7D
100
AcDbEntity
  8
0
  6
CONTINUOUS
 62
     0
100
AcDbLine
 10
0.0
 20
0.0
 30
0.0
 11
-1.0
 21
0.083333333
 31
0.0
  0
LINE
  5
AB
330
7D
100
AcDbEntity
  8
0
  6
CONTINUOUS
 62
     0
100
AcDbLine
 10
0.0
 20
0.0
 30
0.0
 11
-1.0
 21
-0.083333333
 31
0.0
  0
LINE
  5
AC
330
7D
100
AcDbEntity
  8
0
  6
CONTINUOUS
 62
     0
100
AcDbLine
 10
-1.0
 20
0.166666667
 30
0.0
 11
-1.0
 21
-0.166666667
 31
0.0
  0
ENDBLK
  5
7F
330
7D
100
AcDbEntity
  8
0
100
AcDbBlockEnd
  0
BLOCK
  5
81
330
80
100
AcDbEntity
  8
0
100
AcDbBlockBegin
  2
EX_BCIR
 70
     0
 10
0.0
 20
0.0
 30
0.0
  3
EX_BCIR
  1

  0
LINE
  5
AD
330
80
100
AcDbEntity
  8
0
  6
CONTINUOUS
 62
     0
100
AcDbLine
 10
0.0
 20
0.0
 30
0.0
 11
-1.0
 21
0.0
 31
0.0
  0
CIRCLE
  5
AE
330
80
100
AcDbEntity
  8
0
  6
CONTINUOUS
 62
     0
100
AcDbCircle
 10
0.0
 20
0.0
 30
0.0
 40
0.5
  0
CIRCLE
  5
AF
330
80
100
AcDbEntity
  8
0
  6
CONTINUOUS
 62
     0
100
AcDbCircle
 10
0.0
 20
0.0
 30
0.0
 40
0.25
  0
ENDBLK
  5
82
330
80
100
AcDbEntity
  8
0
100
AcDbBlockEnd
  0
BLOCK
  5
84
330
83
100
AcDbEntity
  8
0
100
AcDbBlockBegin
  2
EX_RCIVIL
 70
     0
 10
0.0
 20
0.0
 30
0.0
  3
EX_RCIVIL
  1

  0
LINE
  5
B0
330
83
100
AcDbEntity
  8
0
  6
CONTINUOUS
 62
     0
100
AcDbLine
 10
0.0
 20
0.0
 30
0.0
 11
-1.0
 21
0.0
 31
0.0
  0
LINE
  5
B1
330
83
100
AcDbEntity
  8
0
  6
CONTINUOUS
 62
     0
100
AcDbLine
 10
-1.0
 20
-0.25
 30
0.0
 11
0.0
 21
-0.25
 31
0.0
  0
LINE
  5
B2
330
83
100
AcDbEntity
  8
0
  6
CONTINUOUS
 62
     0
100
AcDbLine
 10
-1.0
 20
-0.125
 30
0.0
 11
0.0
 21
-0.125
 31
0.0
  0
ENDBLK
  5
85
330
83
100
AcDbEntity
  8
0
100
AcDbBlockEnd
  0
BLOCK
  5
87
330
86
100
AcDbEntity
  8
0
100
AcDbBlockBegin
  2
EX_SLANT
 70
     0
 10
0.0
 20
0.0
 30
0.0
  3
EX_SLANT
  1

  0
LINE
  5
B3
330
86
100
AcDbEntity
  8
0
  6
CONTINUOUS
 62
     0
100
AcDbLine
 10
0.0
 20
0.0
 30
0.0
 11
-1.0
 21
0.0
 31
0.0
  0
LINE
  5
B4
330
86
100
AcDbEntity
  8
0
  6
CONTINUOUS
 62
     0
100
AcDbLine
 10
0.707106781
 20
0.707106781
 30
0.0
 11
-0.707106781
 21
-0.707106781
 31
0.0
  0
ENDBLK
  5
88
330
86
100
AcDbEntity
  8
0
100
AcDbBlockEnd
  0
BLOCK
  5
8A
330
89
100
AcDbEntity
  8
0
100
AcDbBlockBegin
  2
EX_NONE
 70
     0
 10
0.0
 20
0.0
 30
0.0
  3
EX_NONE
  1

  0
LINE
  5
B5
330
89
100
AcDbEntity
  8
0
  6
CONTINUOUS
 62
     0
100
AcDbLine
 10
0.0
 20
0.0
 30
0.0
 11
-1.0
 21
0.0
 31
0.0
  0
ENDBLK
  5
8B
330
89
100
AcDbEntity
  8
0
100
AcDbBlockEnd
  0
BLOCK
  5
8D
330
8C
100
AcDbEntity
  8
0
100
AcDbBlockBegin
  2
EX_CIVIL
 70
     0
 10
0.0
 20
0.0
 30
0.0
  3
EX_CIVIL
  1

  0
LINE
  5
B6
330
8C
100
AcDbEntity
  8
0
  6
CONTINUOUS
 62
     0
100
AcDbLine
 10
0.0
 20
0.0
 30
0.0
 11
-1.0
 21
0.0
 31
0.0
  0
LINE
  5
B7
330
8C
100
AcDbEntity
  8
0
  6
CONTINUOUS
 62
     0
100
AcDbLine
 10
-1.0
 20
0.25
 30
0.0
 11
0.0
 21
0.25
 31
0.0
  0
LINE
  5
B8
330
8C
100
AcDbEntity
  8
0
  6
CONTINUOUS
 62
     0
100
AcDbLine
 10
-1.0
 20
0.125
 30
0.0
 11
0.0
 21
0.125
 31
0.0
  0
ENDBLK
  5
8E
330
8C
100
AcDbEntity
  8
0
100
AcDbBlockEnd
  0
BLOCK
  5
90
330
8F
100
AcDbEntity
  8
0
100
AcDbBlockBegin
  2
EX_WCIR
 70
     0
 10
0.0
 20
0.0
 30
0.0
  3
EX_WCIR
  1

  0
LINE
  5
B9
330
8F
100
AcDbEntity
  8
0
  6
CONTINUOUS
 62
     0
100
AcDbLine
 10
0.0
 20
0.0
 30
0.0
 11
-1.0
 21
0.0
 31
0.0
  0
CIRCLE
  5
BA
330
8F
100
AcDbEntity
  8
0
  6
CONTINUOUS
 62
     0
100
AcDbCircle
 10
0.0
 20
0.0
 30
0.0
 40
0.5
  0
ENDBLK
  5
91
330
8F
100
AcDbEntity
  8
0
100
AcDbBlockEnd
  0
BLOCK
  5
93
330
92
100
AcDbEntity
  8
0
100
AcDbBlockBegin
  2
EX_WCIR2
 70
     0
 10
0.0
 20
0.0
 30
0.0
  3
EX_WCIR2
  1

  0
LINE
  5
BB
330
92
100
AcDbEntity
  8
0
  6
CONTINUOUS
 62
     0
100
AcDbLine
 10
-0.5
 20
0.0
 30
0.0
 11
-1.0
 21
0.0
 31
0.0
  0
CIRCLE
  5
BC
330
92
100
AcDbEntity
  8
0
  6
CONTINUOUS
 62
     0
100
AcDbCircle
 10
0.0
 20
0.0
 30
0.0
 40
0.5
  0
ENDBLK
  5
94
330
92
100
AcDbEntity
  8
0
100
AcDbBlockEnd
  0
BLOCK
  5
96
330
95
100
AcDbEntity
  8
0
100
AcDbBlockBegin
  2
EX_WNORM
 70
     0
 10
0.0
 20
0.0
 30
0.0
  3
EX_WNORM
  1

  0
LINE
  5
BD
330
95
100
AcDbEntity
  8
0
  6
CONTINUOUS
 62
     0
100
AcDbLine
 10
-1.0
 20
0.0
 30
0.0
 11
-1.0
 21
0.0
 31
0.0
  0
LINE
  5
BE
330
95
100
AcDbEntity
  8
0
  6
CONTINUOUS
 62
     0
100
AcDbLine
 10
0.0
 20
0.0
 30
0.0
 11
-1.0
 21
0.166666667
 31
0.0
  0
LINE
  5
BF
330
95
100
AcDbEntity
  8
0
  6
CONTINUOUS
 62
     0
100
AcDbLine
 10
0.0
 20
0.0
 30
0.0
 11
-1.0
 21
-0.166666667
 31
0.0
  0
LINE
  5
C0
330
95
100
AcDbEntity
  8
0
  6
CONTINUOUS
 62
     0
100
AcDbLine
 10
-1.0
 20
0.166666667
 30
0.0
 11
-1.0
 21
-0.166666667
 31
0.0
  0
ENDBLK
  5
97
330
95
100
AcDbEntity
  8
0
100
AcDbBlockEnd
  0
BLOCK
  5
99
330
98
100
AcDbEntity
  8
0
100
AcDbBlockBegin
  2
EX_NNORM
 70
     0
 10
0.0
 20
0.0
 30
0.0
  3
EX_NNORM
  1

  0
LINE
  5
C1
330
98
100
AcDbEntity
  8
0
  6
CONTINUOUS
 62
     0
100
AcDbLine
 10
0.0
 20
0.0
 30
0.0
 11
-1.0
 21
0.0
 31
0.0
  0
LINE
  5
C2
330
98
100
AcDbEntity
  8
0
  6
CONTINUOUS
 62
     0
100
AcDbLine
 10
0.0
 20
0.0
 30
0.0
 11
-1.0
 21
0.166666667
 31
0.0
  0
LINE
  5
C3
330
98
100
AcDbEntity
  8
0
  6
CONTINUOUS
 62
     0
100
AcDbLine
 10
0.0
 20
0.0
 30
0.0
 11
-1.0
 21
-0.166666667
 31
0.0
  0
LINE
  5
C4
330
98
100
AcDbEntity
  8
0
  6
CONTINUOUS
 62
     0
100
AcDbLine
 10
-1.0
 20
0.166666667
 30
0.0
 11
-1.0
 21
-0.166666667
 31
0.0
  0
ENDBLK
  5
9A
330
98
100
AcDbEntity
  8
0
100
AcDbBlockEnd
  0
BLOCK
  5
9C
330
9B
100
AcDbEntity
  8
0
100
AcDbBlockBegin
  2
EX_BBOX
 70
     0
 10
0.0
 20
0.0
 30
0.0
  3
EX_BBOX
  1

  0
LINE
  5
C5
330
9B
100
AcDbEntity
  8
0
  6
CONTINUOUS
 62
     0
100
AcDbLine
 10
0.0
 20
0.0
 30
0.0
 11
-1.0
 21
0.0
 31
0.0
  0
LINE
  5
C6
330
9B
100
AcDbEntity
  8
0
  6
CONTINUOUS
 62
     0
100
AcDbLine
 10
-0.5
 20
0.5
 30
0.0
 11
0.5
 21
0.5
 31
0.0
  0
LINE
  5
C7
330
9B
100
AcDbEntity
  8
0
  6
CONTINUOUS
 62
     0
100
AcDbLine
 10
0.5
 20
0.5
 30
0.0
 11
0.5
 21
-0.5
 31
0.0
  0
LINE
  5
C8
330
9B
100
AcDbEntity
  8
0
  6
CONTINUOUS
 62
     0
100
AcDbLine
 10
0.5
 20
-0.5
 30
0.0
 11
-0.5
 21
-0.5
 31
0.0
  0
LINE
  5
C9
330
9B
100
AcDbEntity
  8
0
  6
CONTINUOUS
 62
     0
100
AcDbLine
 10
-0.5
 20
-0.5
 30
0.0
 11
-0.5
 21
0.5
 31
0.0
  0
LINE
  5
CA
330
9B
100
AcDbEntity
  8
0
  6
CONTINUOUS
 62
     0
100
AcDbLine
 10
-0.25
 20
0.25
 30
0.0
 11
0.25
 21
0.25
 31
0.0
  0
LINE
  5
CB
330
9B
100
AcDbEntity
  8
0
  6
CONTINUOUS
 62
     0
100
AcDbLine
 10
0.25
 20
0.25
 30
0.0
 11
0.25
 21
-0.25
 31
0.0
  0
LINE
  5
CC
330
9B
100
AcDbEntity
  8
0
  6
CONTINUOUS
 62
     0
100
AcDbLine
 10
0.25
 20
-0.25
 30
0.0
 11
-0.25
 21
-0.25
 31
0.0
  0
LINE
  5
CD
330
9B
100
AcDbEntity
  8
0
  6
CONTINUOUS
 62
     0
100
AcDbLine
 10
-0.25
 20
-0.25
 30
0.0
 11
-0.25
 21
0.25
 31
0.0
  0
ENDBLK
  5
9D
330
9B
100
AcDbEntity
  8
0
100
AcDbBlockEnd
  0
BLOCK
  5
9F
330
9E
100
AcDbEntity
  8
0
100
AcDbBlockBegin
  2
EX_WBOX
 70
     0
 10
0.0
 20
0.0
 30
0.0
  3
EX_WBOX
  1

  0
LINE
  5
CE
330
9E
100
AcDbEntity
  8
0
  6
CONTINUOUS
 62
     0
100
AcDbLine
 10
-0.5
 20
0.0
 30
0.0
 11
-1.0
 21
0.0
 31
0.0
  0
LINE
  5
CF
330
9E
100
AcDbEntity
  8
0
  6
CONTINUOUS
 62
     0
100
AcDbLine
 10
-0.5
 20
0.5
 30
0.0
 11
0.5
 21
0.5
 31
0.0
  0
LINE
  5
D0
330
9E
100
AcDbEntity
  8
0
  6
CONTINUOUS
 62
     0
100
AcDbLine
 10
0.5
 20
0.5
 30
0.0
 11
0.5
 21
-0.5
 31
0.0
  0
LINE
  5
D1
330
9E
100
AcDbEntity
  8
0
  6
CONTINUOUS
 62
     0
100
AcDbLine
 10
0.5
 20
-0.5
 30
0.0
 11
-0.5
 21
-0.5
 31
0.0
  0
LINE
  5
D2
330
9E
100
AcDbEntity
  8
0
  6
CONTINUOUS
 62
     0
100
AcDbLine
 10
-0.5
 20
-0.5
 30
0.0
 11
-0.5
 21
0.5
 31
0.0
  0
ENDBLK
  5
A0
330
9E
100
AcDbEntity
  8
0
100
AcDbBlockEnd
  0
BLOCK
  5
A2
330
A1
100
AcDbEntity
  8
0
100
AcDbBlockBegin
  2
EX_INTEGRAL
 70
     0
 10
0.0
 20
0.0
 30
0.0
  3
EX_INTEGRAL
  1

  0
LINE
  5
D3
330
A1
100
AcDbEntity
  8
0
  6
CONTINUOUS
 62
     0
100
AcDbLine
 10
0.0
 20
0.0
 30
0.0
 11
-1.0
 21
0.0
 31
0.0
  0
ARC
  5
D4
330
A1
100
AcDbEntity
  8
0
  6
CONTINUOUS
 62
     0
100
AcDbCircle
 10
0.542115
 20
0.164992
 30
0.0
 40
0.56667
100
AcDbArc
 50
73.07249033629006
 51
196.9275130221199
  0
ARC
  5
D5
330
A1
100
AcDbEntity
  8
0
  6
CONTINUOUS
 62
     0
100
AcDbCircle
 10
-0.542115
 20
-0.164992
 30
0.0
 40
0.56667
100
AcDbArc
 50
253.0724869220464
 51
16.9275130559125
  0
ENDBLK
  5
A3
330
A1
100
AcDbEntity
  8
0
100
AcDbBlockEnd
  0
BLOCK
  5
4D1
330
4D0
100
AcDbEntity
  8
0
100
AcDbBlockBegin
  2
*D15
 70
     1
 10
0.0
 20
0.0
 30
0.0
  3
*D15
  1

  0
LINE
  5
4D3
330
4D0
100
AcDbEntity
  8
LAY-20
  6
CONTINUOUS
 62
     4
100
AcDbLine
 10
1849.0
 20
693.6000000001
 30
0.0
 11
1905.0
 21
693.6000000001
 31
0.0
  0
LINE
  5
4D4
330
4D0
100
AcDbEntity
  8
LAY-20
  6
CONTINUOUS
 62
     4
100
AcDbLine
 10
1777.9999999999
 20
753.5999999999999
 30
0.0
 11
1905.0
 21
753.5999999999999
 31
0.0
  0
LINE
  5
4D5
330
4D0
100
AcDbEntity
  8
LAY-20
  6
CONTINUOUS
 62
     4
100
AcDbLine
 10
1893.0
 20
713.6000000001
 30
0.0
 11
1893.0
 21
733.5999999999999
 31
0.0
  0
INSERT
  5
4D6
330
4D0
100
AcDbEntity
  8
LAY-20
 62
     4
100
AcDbBlockReference
  2
EX_BNORM
 10
1893.0
 20
693.6000000001
 30
0.0
 41
20.0
 42
20.0
 43
20.0
 50
270.0
  0
INSERT
  5
4D7
330
4D0
100
AcDbEntity
  8
LAY-20
 62
     4
100
AcDbBlockReference
  2
EX_BNORM
 10
1893.0
 20
753.5999999999999
 30
0.0
 41
20.0
 42
20.0
 43
20.0
 50
90.0
  0
MTEXT
  5
4D8
330
4D0
100
AcDbEntity
  8
LAY-20
 62
     7
100
AcDbMText
 10
1873.0
 20
723.6000000000499
 30
0.0
 40
24.9448832
 41
0.0
 71
     5
 72
     1
  1
60
  7
EXCADDIM1
 11
0.0
 21
1.0
 31
0.0
  0
POINT
  5
4D9
330
4D0
100
AcDbEntity
  8
DEFPOINTS
 62
     0
100
AcDbPoint
 10
1837.0
 20
693.6000000001
 30
0.0
  0
POINT
  5
4DA
330
4D0
100
AcDbEntity
  8
DEFPOINTS
 62
     0
100
AcDbPoint
 10
1765.9999999999
 20
753.5999999999999
 30
0.0
  0
POINT
  5
4DB
330
4D0
100
AcDbEntity
  8
DEFPOINTS
 62
     0
100
AcDbPoint
 10
1893.0
 20
753.5999999999999
 30
0.0
  0
ENDBLK
  5
4D2
330
4D0
100
AcDbEntity
  8
0
100
AcDbBlockEnd
  0
BLOCK
  5
4DE
330
4DD
100
AcDbEntity
  8
0
100
AcDbBlockBegin
  2
*D16
 70
     1
 10
0.0
 20
0.0
 30
0.0
  3
*D16
  1

  0
LINE
  5
4E0
330
4DD
100
AcDbEntity
  8
LAY-20
  6
CONTINUOUS
 62
     4
100
AcDbLine
 10
1154.99993999997
 20
765.6000000000199
 30
0.0
 11
1154.99993999997
 21
845.60000000002
 31
0.0
  0
LINE
  5
4E1
330
4DD
100
AcDbEntity
  8
LAY-20
  6
CONTINUOUS
 62
     4
100
AcDbLine
 10
1755.0
 20
765.6000000000199
 30
0.0
 11
1755.0
 21
845.60000000002
 31
0.0
  0
LINE
  5
4E2
330
4DD
100
AcDbEntity
  8
LAY-20
  6
CONTINUOUS
 62
     4
100
AcDbLine
 10
1174.99993999997
 20
833.60000000002
 30
0.0
 11
1735.0
 21
833.60000000002
 31
0.0
  0
INSERT
  5
4E3
330
4DD
100
AcDbEntity
  8
LAY-20
 62
     4
100
AcDbBlockReference
  2
EX_BNORM
 10
1154.99993999997
 20
833.60000000002
 30
0.0
 41
20.0
 42
20.0
 43
20.0
 50
180.0
  0
INSERT
  5
4E4
330
4DD
100
AcDbEntity
  8
LAY-20
 62
     4
100
AcDbBlockReference
  2
EX_BNORM
 10
1755.0
 20
833.60000000002
 30
0.0
 41
20.0
 42
20.0
 43
20.0
  0
MTEXT
  5
4E5
330
4DD
100
AcDbEntity
  8
LAY-20
 62
     7
100
AcDbMText
 10
1454.999969999985
 20
853.60000000002
 30
0.0
 40
24.9448832
 41
0.0
 71
     5
 72
     1
  1
%%c600
  7
EXCADDIM1
  0
POINT
  5
4E6
330
4DD
100
AcDbEntity
  8
DEFPOINTS
 62
     0
100
AcDbPoint
 10
1154.99993999997
 20
753.6000000000199
 30
0.0
  0
POINT
  5
4E7
330
4DD
100
AcDbEntity
  8
DEFPOINTS
 62
     0
100
AcDbPoint
 10
1755.0
 20
753.6000000000199
 30
0.0
  0
POINT
  5
4E8
330
4DD
100
AcDbEntity
  8
DEFPOINTS
 62
     0
100
AcDbPoint
 10
1755.0
 20
833.60000000002
 30
0.0
  0
ENDBLK
  5
4DF
330
4DD
100
AcDbEntity
  8
0
100
AcDbBlockEnd
  0
BLOCK
  5
4EB
330
4EA
100
AcDbEntity
  8
0
100
AcDbBlockBegin
  2
*D17
 70
     1
 10
0.0
 20
0.0
 30
0.0
  3
*D17
  1

  0
LINE
  5
4ED
330
4EA
100
AcDbEntity
  8
LAY-20
  6
CONTINUOUS
 62
     4
100
AcDbLine
 10
1143.99999999997
 20
765.6000000000201
 30
0.0
 11
1143.99999999997
 21
901.60000000002
 31
0.0
  0
LINE
  5
4EE
330
4EA
100
AcDbEntity
  8
LAY-20
  6
CONTINUOUS
 62
     4
100
AcDbLine
 10
1765.9999999999
 20
765.6000000000201
 30
0.0
 11
1765.9999999999
 21
901.60000000002
 31
0.0
  0
LINE
  5
4EF
330
4EA
100
AcDbEntity
  8
LAY-20
  6
CONTINUOUS
 62
     4
100
AcDbLine
 10
1163.99999999997
 20
889.60000000002
 30
0.0
 11
1745.9999999999
 21
889.60000000002
 31
0.0
  0
INSERT
  5
4F0
330
4EA
100
AcDbEntity
  8
LAY-20
 62
     4
100
AcDbBlockReference
  2
EX_BNORM
 10
1143.99999999997
 20
889.60000000002
 30
0.0
 41
20.0
 42
20.0
 43
20.0
 50
180.0
  0
INSERT
  5
4F1
330
4EA
100
AcDbEntity
  8
LAY-20
 62
     4
100
AcDbBlockReference
  2
EX_BNORM
 10
1765.9999999999
 20
889.60000000002
 30
0.0
 41
20.0
 42
20.0
 43
20.0
  0
MTEXT
  5
4F2
330
4EA
100
AcDbEntity
  8
LAY-20
 62
     7
100
AcDbMText
 10
1454.999999999935
 20
909.60000000002
 30
0.0
 40
24.9448832
 41
0.0
 71
     5
 72
     1
  1
%%c622
  7
EXCADDIM1
  0
POINT
  5
4F3
330
4EA
100
AcDbEntity
  8
DEFPOINTS
 62
     0
100
AcDbPoint
 10
1143.99999999997
 20
753.6000000000201
 30
0.0
  0
POINT
  5
4F4
330
4EA
100
AcDbEntity
  8
DEFPOINTS
 62
     0
100
AcDbPoint
 10
1765.9999999999
 20
753.6000000000201
 30
0.0
  0
POINT
  5
4F5
330
4EA
100
AcDbEntity
  8
DEFPOINTS
 62
     0
100
AcDbPoint
 10
1765.9999999999
 20
889.60000000002
 30
0.0
  0
ENDBLK
  5
4EC
330
4EA
100
AcDbEntity
  8
0
100
AcDbBlockEnd
  0
BLOCK
  5
4F8
330
4F7
100
AcDbEntity
  8
0
100
AcDbBlockBegin
  2
*D18
 70
     1
 10
0.0
 20
0.0
 30
0.0
  3
*D18
  1

  0
LINE
  5
4FA
330
4F7
100
AcDbEntity
  8
LAY-20
  6
CONTINUOUS
 62
     4
100
AcDbLine
 10
1754.9999999999
 20
681.6000000000201
 30
0.0
 11
1754.9999999999
 21
601.6000000000208
 31
0.0
  0
LINE
  5
4FB
330
4F7
100
AcDbEntity
  8
LAY-20
  6
CONTINUOUS
 62
     4
100
AcDbLine
 10
1154.99999999997
 20
681.6000000000201
 30
0.0
 11
1154.99999999997
 21
601.6000000000208
 31
0.0
  0
LINE
  5
4FC
330
4F7
100
AcDbEntity
  8
LAY-20
  6
CONTINUOUS
 62
     4
100
AcDbLine
 10
1734.9999999999
 20
613.6000000000204
 30
0.0
 11
1174.99999999997
 21
613.6000000000204
 31
0.0
  0
INSERT
  5
4FD
330
4F7
100
AcDbEntity
  8
LAY-20
 62
     4
100
AcDbBlockReference
  2
EX_BNORM
 10
1754.9999999999
 20
613.6000000000204
 30
0.0
 41
20.0
 42
20.0
 43
20.0
  0
INSERT
  5
4FE
330
4F7
100
AcDbEntity
  8
LAY-20
 62
     4
100
AcDbBlockReference
  2
EX_BNORM
 10
1154.99999999997
 20
613.6000000000204
 30
0.0
 41
20.0
 42
20.0
 43
20.0
 50
180.0
  0
MTEXT
  5
4FF
330
4F7
100
AcDbEntity
  8
LAY-20
 62
     7
100
AcDbMText
 10
1454.999999999935
 20
633.6000000000201
 30
0.0
 40
24.9448832
 41
0.0
 71
     5
 72
     1
  1
%%c600
  7
EXCADDIM1
  0
POINT
  5
500
330
4F7
100
AcDbEntity
  8
DEFPOINTS
 62
     0
100
AcDbPoint
 10
1754.9999999999
 20
693.6000000000201
 30
0.0
  0
POINT
  5
501
330
4F7
100
AcDbEntity
  8
DEFPOINTS
 62
     0
100
AcDbPoint
 10
1154.99999999997
 20
693.6000000000201
 30
0.0
  0
POINT
  5
502
330
4F7
100
AcDbEntity
  8
DEFPOINTS
 62
     0
100
AcDbPoint
 10
1154.99999999997
 20
613.6000000000204
 30
0.0
  0
ENDBLK
  5
4F9
330
4F7
100
AcDbEntity
  8
0
100
AcDbBlockEnd
  0
BLOCK
  5
505
330
504
100
AcDbEntity
  8
0
100
AcDbBlockBegin
  2
*D19
 70
     1
 10
0.0
 20
0.0
 30
0.0
  3
*D19
  1

  0
LINE
  5
507
330
504
100
AcDbEntity
  8
LAY-20
  6
CONTINUOUS
 62
     4
100
AcDbLine
 10
1072.99996900012
 20
681.6000000000201
 30
0.0
 11
1072.99996900012
 21
489.60000000002
 31
0.0
  0
LINE
  5
508
330
504
100
AcDbEntity
  8
LAY-20
  6
CONTINUOUS
 62
     4
100
AcDbLine
 10
1836.9999999999
 20
681.6000000000201
 30
0.0
 11
1836.9999999999
 21
489.60000000002
 31
0.0
  0
LINE
  5
509
330
504
100
AcDbEntity
  8
LAY-20
  6
CONTINUOUS
 62
     4
100
AcDbLine
 10
1092.99996900012
 20
501.60000000002
 30
0.0
 11
1816.9999999999
 21
501.60000000002
 31
0.0
  0
INSERT
  5
50A
330
504
100
AcDbEntity
  8
LAY-20
 62
     4
100
AcDbBlockReference
  2
EX_BNORM
 10
1072.99996900012
 20
501.60000000002
 30
0.0
 41
20.0
 42
20.0
 43
20.0
 50
180.0
  0
INSERT
  5
50B
330
504
100
AcDbEntity
  8
LAY-20
 62
     4
100
AcDbBlockReference
  2
EX_BNORM
 10
1836.9999999999
 20
501.60000000002
 30
0.0
 41
20.0
 42
20.0
 43
20.0
  0
MTEXT
  5
50C
330
504
100
AcDbEntity
  8
LAY-20
 62
     7
100
AcDbMText
 10
1454.99998450001
 20
521.6000000000199
 30
0.0
 40
24.9448832
 41
0.0
 71
     5
 72
     1
  1
%%c764
  7
EXCADDIM1
  0
POINT
  5
50D
330
504
100
AcDbEntity
  8
DEFPOINTS
 62
     0
100
AcDbPoint
 10
1072.99996900012
 20
693.6000000000201
 30
0.0
  0
POINT
  5
50E
330
504
100
AcDbEntity
  8
DEFPOINTS
 62
     0
100
AcDbPoint
 10
1836.9999999999
 20
693.6000000000201
 30
0.0
  0
POINT
  5
50F
330
504
100
AcDbEntity
  8
DEFPOINTS
 62
     0
100
AcDbPoint
 10
1836.9999999999
 20
501.60000000002
 30
0.0
  0
ENDBLK
  5
506
330
504
100
AcDbEntity
  8
0
100
AcDbBlockEnd
  0
BLOCK
  5
512
330
511
100
AcDbEntity
  8
0
100
AcDbBlockBegin
  2
*D20
 70
     1
 10
0.0
 20
0.0
 30
0.0
  3
*D20
  1

  0
LINE
  5
514
330
511
100
AcDbEntity
  8
LAY-20
  6
CONTINUOUS
 62
     4
100
AcDbLine
 10
1105.00000000007
 20
676.80000000002
 30
0.0
 11
1105.00000000007
 21
545.60000000002
 31
0.0
  0
LINE
  5
515
330
511
100
AcDbEntity
  8
LAY-20
  6
CONTINUOUS
 62
     4
100
AcDbLine
 10
1804.99999999993
 20
676.80000000002
 30
0.0
 11
1804.99999999993
 21
545.60000000002
 31
0.0
  0
LINE
  5
516
330
511
100
AcDbEntity
  8
LAY-20
  6
CONTINUOUS
 62
     4
100
AcDbLine
 10
1125.00000000007
 20
557.60000000002
 30
0.0
 11
1784.99999999993
 21
557.60000000002
 31
0.0
  0
INSERT
  5
517
330
511
100
AcDbEntity
  8
LAY-20
 62
     4
100
AcDbBlockReference
  2
EX_BNORM
 10
1105.00000000007
 20
557.60000000002
 30
0.0
 41
20.0
 42
20.0
 43
20.0
 50
180.0
  0
INSERT
  5
518
330
511
100
AcDbEntity
  8
LAY-20
 62
     4
100
AcDbBlockReference
  2
EX_BNORM
 10
1804.99999999993
 20
557.60000000002
 30
0.0
 41
20.0
 42
20.0
 43
20.0
  0
MTEXT
  5
519
330
511
100
AcDbEntity
  8
LAY-20
 62
     7
100
AcDbMText
 10
1455.0
 20
577.60000000002
 30
0.0
 40
24.9448832
 41
0.0
 71
     5
 72
     1
  1
Ｐ.Ｃ.Ｄ700
  7
EXCADDIM1
  0
POINT
  5
51A
330
511
100
AcDbEntity
  8
DEFPOINTS
 62
     0
100
AcDbPoint
 10
1105.00000000007
 20
688.80000000002
 30
0.0
  0
POINT
  5
51B
330
511
100
AcDbEntity
  8
DEFPOINTS
 62
     0
100
AcDbPoint
 10
1804.99999999993
 20
688.80000000002
 30
0.0
  0
POINT
  5
51C
330
511
100
AcDbEntity
  8
DEFPOINTS
 62
     0
100
AcDbPoint
 10
1804.99999999993
 20
557.60000000002
 30
0.0
  0
ENDBLK
  5
513
330
511
100
AcDbEntity
  8
0
100
AcDbBlockEnd
  0
BLOCK
  5
51F
330
51E
100
AcDbEntity
  8
0
100
AcDbBlockBegin
  2
*D21
 70
     1
 10
0.0
 20
0.0
 30
0.0
  3
*D21
  1

  0
LINE
  5
521
330
51E
100
AcDbEntity
  8
LAY-20
  6
CONTINUOUS
 62
     4
100
AcDbLine
 10
1508.19995
 20
749.5999999999999
 30
0.0
 11
1514.0
 21
749.5999999999999
 31
0.0
  0
LINE
  5
522
330
51E
100
AcDbEntity
  8
LAY-20
  6
CONTINUOUS
 62
     4
100
AcDbLine
 10
1519.0
 20
742.5999999999999
 30
0.0
 11
1514.0
 21
742.5999999999999
 31
0.0
  0
LINE
  5
523
330
51E
100
AcDbEntity
  8
LAY-20
  6
CONTINUOUS
 62
     4
100
AcDbLine
 10
1514.0
 20
749.5999999999999
 30
0.0
 11
1514.0
 21
742.5999999999999
 31
0.0
  0
LINE
  5
524
330
51E
100
AcDbEntity
  8
LAY-20
  6
CONTINUOUS
 62
     4
100
AcDbLine
 10
1514.0
 20
769.5999999999999
 30
0.0
 11
1514.0
 21
789.5999999999999
 31
0.0
  0
LINE
  5
525
330
51E
100
AcDbEntity
  8
LAY-20
  6
CONTINUOUS
 62
     4
100
AcDbLine
 10
1514.0
 20
722.5999999999999
 30
0.0
 11
1514.0
 21
702.5999999999999
 31
0.0
  0
INSERT
  5
526
330
51E
100
AcDbEntity
  8
LAY-20
 62
     4
100
AcDbBlockReference
  2
EX_BNORM
 10
1514.0
 20
749.5999999999999
 30
0.0
 41
20.0
 42
20.0
 43
20.0
 50
270.0
  0
INSERT
  5
527
330
51E
100
AcDbEntity
  8
LAY-20
 62
     4
100
AcDbBlockReference
  2
EX_BNORM
 10
1514.0
 20
742.5999999999999
 30
0.0
 41
20.0
 42
20.0
 43
20.0
 50
90.0
  0
MTEXT
  5
528
330
51E
100
AcDbEntity
  8
LAY-20
 62
     7
100
AcDbMText
 10
1494.0
 20
785.5999999999996
 30
0.0
 40
24.9448832
 41
0.0
 71
     5
 72
     1
  1
7
  7
EXCADDIM1
 11
0.0
 21
1.0
 31
0.0
  0
POINT
  5
529
330
51E
100
AcDbEntity
  8
DEFPOINTS
 62
     0
100
AcDbPoint
 10
1508.19995
 20
749.5999999999999
 30
0.0
  0
POINT
  5
52A
330
51E
100
AcDbEntity
  8
DEFPOINTS
 62
     0
100
AcDbPoint
 10
1519.0
 20
742.5999999999999
 30
0.0
  0
POINT
  5
52B
330
51E
100
AcDbEntity
  8
DEFPOINTS
 62
     0
100
AcDbPoint
 10
1514.0
 20
742.5999999999999
 30
0.0
  0
ENDBLK
  5
520
330
51E
100
AcDbEntity
  8
0
100
AcDbBlockEnd
  0
BLOCK
  5
52E
330
52D
100
AcDbEntity
  8
0
100
AcDbBlockBegin
  2
*D22
 70
     1
 10
0.0
 20
0.0
 30
0.0
  3
*D22
  1

  0
LINE
  5
530
330
52D
100
AcDbEntity
  8
LAY-20
  6
CONTINUOUS
 62
     4
100
AcDbLine
 10
1795.0000010137
 20
1557.6
 30
0.0
 11
1795.0000010137
 21
1634.4
 31
0.0
  0
LINE
  5
531
330
52D
100
AcDbEntity
  8
LAY-20
  6
CONTINUOUS
 62
     4
100
AcDbLine
 10
1817.0000010131
 20
1557.6
 30
0.0
 11
1817.0000010131
 21
1634.4
 31
0.0
  0
LINE
  5
532
330
52D
100
AcDbEntity
  8
LAY-20
  6
CONTINUOUS
 62
     4
100
AcDbLine
 10
1795.0000010137
 20
1622.4
 30
0.0
 11
1817.0000010131
 21
1622.4
 31
0.0
  0
LINE
  5
533
330
52D
100
AcDbEntity
  8
LAY-20
  6
CONTINUOUS
 62
     4
100
AcDbLine
 10
1775.0000010137
 20
1622.4
 30
0.0
 11
1755.0000010137
 21
1622.4
 31
0.0
  0
LINE
  5
534
330
52D
100
AcDbEntity
  8
LAY-20
  6
CONTINUOUS
 62
     4
100
AcDbLine
 10
1837.0000010131
 20
1622.4
 30
0.0
 11
1857.0000010131
 21
1622.4
 31
0.0
  0
INSERT
  5
535
330
52D
100
AcDbEntity
  8
LAY-20
 62
     4
100
AcDbBlockReference
  2
EX_BNORM
 10
1795.0000010137
 20
1622.4
 30
0.0
 41
20.0
 42
20.0
 43
20.0
  0
INSERT
  5
536
330
52D
100
AcDbEntity
  8
LAY-20
 62
     4
100
AcDbBlockReference
  2
EX_BNORM
 10
1817.0000010131
 20
1622.4
 30
0.0
 41
20.0
 42
20.0
 43
20.0
 50
180.0
  0
MTEXT
  5
537
330
52D
100
AcDbEntity
  8
LAY-20
 62
     7
100
AcDbMText
 10
1865.0000010131
 20
1642.4
 30
0.0
 40
24.9448832
 41
0.0
 71
     5
 72
     1
  1
22
  7
EXCADDIM1
  0
POINT
  5
538
330
52D
100
AcDbEntity
  8
DEFPOINTS
 62
     0
100
AcDbPoint
 10
1795.0000010137
 20
1545.6
 30
0.0
  0
POINT
  5
539
330
52D
100
AcDbEntity
  8
DEFPOINTS
 62
     0
100
AcDbPoint
 10
1817.0000010131
 20
1545.6
 30
0.0
  0
POINT
  5
53A
330
52D
100
AcDbEntity
  8
DEFPOINTS
 62
     0
100
AcDbPoint
 10
1817.0000010131
 20
1622.4
 30
0.0
  0
ENDBLK
  5
52F
330
52D
100
AcDbEntity
  8
0
100
AcDbBlockEnd
  0
BLOCK
  5
53D
330
53C
100
AcDbEntity
  8
0
100
AcDbBlockBegin
  2
*D23
 70
     1
 10
0.0
 20
0.0
 30
0.0
  3
*D23
  1

  0
LINE
  5
53F
330
53C
100
AcDbEntity
  8
LAY-20
  6
CONTINUOUS
 62
     4
100
AcDbLine
 10
1818.0000036833
 20
1564.1
 30
0.0
 11
1920.9
 21
1564.1
 31
0.0
  0
LINE
  5
540
330
53C
100
AcDbEntity
  8
LAY-20
  6
CONTINUOUS
 62
     4
100
AcDbLine
 10
1817.9999998842
 20
1527.1
 30
0.0
 11
1920.9
 21
1527.1
 31
0.0
  0
LINE
  5
541
330
53C
100
AcDbEntity
  8
LAY-20
  6
CONTINUOUS
 62
     4
100
AcDbLine
 10
1908.9
 20
1564.1
 30
0.0
 11
1908.9
 21
1527.1
 31
0.0
  0
LINE
  5
542
330
53C
100
AcDbEntity
  8
LAY-20
  6
CONTINUOUS
 62
     4
100
AcDbLine
 10
1908.9
 20
1584.1
 30
0.0
 11
1908.9
 21
1604.1
 31
0.0
  0
LINE
  5
543
330
53C
100
AcDbEntity
  8
LAY-20
  6
CONTINUOUS
 62
     4
100
AcDbLine
 10
1908.9
 20
1507.1
 30
0.0
 11
1908.9
 21
1487.1
 31
0.0
  0
INSERT
  5
544
330
53C
100
AcDbEntity
  8
LAY-20
 62
     4
100
AcDbBlockReference
  2
EX_BNORM
 10
1908.9
 20
1564.1
 30
0.0
 41
20.0
 42
20.0
 43
20.0
 50
270.0
  0
INSERT
  5
545
330
53C
100
AcDbEntity
  8
LAY-20
 62
     4
100
AcDbBlockReference
  2
EX_BNORM
 10
1908.9
 20
1527.1
 30
0.0
 41
20.0
 42
20.0
 43
20.0
 50
90.0
  0
MTEXT
  5
546
330
53C
100
AcDbEntity
  8
LAY-20
 62
     7
100
AcDbMText
 10
1888.9
 20
1479.099999999999
 30
0.0
 40
24.9448832
 41
0.0
 71
     5
 72
     1
  1
37
  7
EXCADDIM1
 11
0.0
 21
1.0
 31
0.0
  0
POINT
  5
547
330
53C
100
AcDbEntity
  8
DEFPOINTS
 62
     0
100
AcDbPoint
 10
1806.0000036833
 20
1564.1
 30
0.0
  0
POINT
  5
548
330
53C
100
AcDbEntity
  8
DEFPOINTS
 62
     0
100
AcDbPoint
 10
1805.9999998842
 20
1527.1
 30
0.0
  0
POINT
  5
549
330
53C
100
AcDbEntity
  8
DEFPOINTS
 62
     0
100
AcDbPoint
 10
1908.9
 20
1527.1
 30
0.0
  0
ENDBLK
  5
53E
330
53C
100
AcDbEntity
  8
0
100
AcDbBlockEnd
  0
ENDSEC
  0
SECTION
  2
ENTITIES
  0
LINE
  5
D6
330
1F
100
AcDbEntity
  8
LAY-12
  6
CONTINUOUS
 62
     7
100
AcDbLine
 10
1153.749939999961
 20
721.6419184425386
 30
0.0
 11
1155.047199367795
 21
722.9391778103727
 31
0.0
  0
LINE
  5
D7
330
1F
100
AcDbEntity
  8
LAY-12
  6
CONTINUOUS
 62
     7
100
AcDbLine
 10
1153.749939999971
 20
720.2277048801757
 30
0.0
 11
1156.638933028334
 21
723.1166979085378
 31
0.0
  0
LINE
  5
D8
330
1F
100
AcDbEntity
  8
LAY-12
  6
CONTINUOUS
 62
     7
100
AcDbLine
 10
1153.749939999969
 20
718.8134913178005
 30
0.0
 11
1157.7864486822
 21
722.8500000000313
 31
0.0
  0
LINE
  5
D9
330
1F
100
AcDbEntity
  8
LAY-12
  6
CONTINUOUS
 62
     7
100
AcDbLine
 10
1153.749939999967
 20
717.399277755424
 30
0.0
 11
1159.17478215388
 21
722.8241199093372
 31
0.0
  0
LINE
  5
DA
330
1F
100
AcDbEntity
  8
LAY-12
  6
CONTINUOUS
 62
     7
100
AcDbLine
 10
1153.800606219633
 20
716.0357304127169
 30
0.0
 11
1157.249939999979
 21
719.4850641930634
 31
0.0
  0
LINE
  5
DB
330
1F
100
AcDbEntity
  8
LAY-12
  6
CONTINUOUS
 62
     7
100
AcDbLine
 10
1159.10844736419
 20
721.3435715572741
 30
0.0
 11
1160.268353380382
 21
722.5034775734666
 31
0.0
  0
LINE
  5
DC
330
1F
100
AcDbEntity
  8
LAY-12
  6
CONTINUOUS
 62
     7
100
AcDbLine
 10
1154.549403199361
 20
715.3703138300725
 30
0.0
 11
1157.696319973615
 21
718.5172306043269
 31
0.0
  0
LINE
  5
DD
330
1F
100
AcDbEntity
  8
LAY-12
  6
CONTINUOUS
 62
     7
100
AcDbLine
 10
1160.393157333185
 20
721.2140679638965
 30
0.0
 11
1161.111923681903
 21
721.932834312614
 31
0.0
  0
LINE
  5
DE
330
1F
100
AcDbEntity
  8
LAY-12
  6
CONTINUOUS
 62
     7
100
AcDbLine
 10
1155.667911485905
 20
715.0746085542437
 30
0.0
 11
1155.749939999975
 21
715.1566370683131
 31
0.0
  0
LINE
  5
DF
330
1F
100
AcDbEntity
  8
LAY-12
  6
CONTINUOUS
 62
     7
100
AcDbLine
 10
1155.898680716672
 20
715.3053777850105
 30
0.0
 11
1158.943302931693
 21
718.3500000000317
 31
0.0
  0
LINE
  5
E0
330
1F
100
AcDbEntity
  8
LAY-12
  6
CONTINUOUS
 62
     7
100
AcDbLine
 10
1161.544800468985
 20
720.9514975373245
 30
0.0
 11
1161.748489744543
 21
721.1551868128818
 31
0.0
  0
LINE
  5
E1
330
1F
100
AcDbEntity
  8
LAY-12
  6
CONTINUOUS
 62
     7
100
AcDbLine
 10
1157.217306533887
 20
715.209790039853
 30
0.0
 11
1160.113556344936
 21
718.1060398509021
 31
0.0
  0
LINE
  5
E2
330
1F
100
AcDbEntity
  8
LAY-12
  6
CONTINUOUS
 62
     7
100
AcDbLine
 10
1158.535932351103
 20
715.1142022946947
 30
0.0
 11
1158.749939999968
 21
715.3282099435596
 31
0.0
  0
LINE
  5
E3
330
1F
100
AcDbEntity
  8
LAY-12
  6
CONTINUOUS
 62
     7
100
AcDbLine
 10
1158.771730056447
 20
715.350000000039
 30
0.0
 11
1160.506179085661
 21
717.0844490292529
 31
0.0
  0
LINE
  5
E4
330
1F
100
AcDbEntity
  8
LAY-12
  6
CONTINUOUS
 62
     7
100
AcDbLine
 10
1160.186071684534
 20
715.3501280657524
 30
0.0
 11
1160.674627730637
 21
715.8386841118554
 31
0.0
  0
LINE
  5
E5
330
1F
100
AcDbEntity
  8
LAY-12
  6
CONTINUOUS
 62
     7
100
AcDbLine
 10
1756.250060000038
 20
721.6419184425386
 30
0.0
 11
1754.952800632203
 21
722.9391778103727
 31
0.0
  0
LINE
  5
E6
330
1F
100
AcDbEntity
  8
LAY-12
  6
CONTINUOUS
 62
     7
100
AcDbLine
 10
1756.250060000028
 20
720.2277048801757
 30
0.0
 11
1753.361066971665
 21
723.1166979085378
 31
0.0
  0
LINE
  5
E7
330
1F
100
AcDbEntity
  8
LAY-12
  6
CONTINUOUS
 62
     7
100
AcDbLine
 10
1756.25006000003
 20
718.8134913178005
 30
0.0
 11
1752.213551317799
 21
722.8500000000313
 31
0.0
  0
LINE
  5
E8
330
1F
100
AcDbEntity
  8
LAY-12
  6
CONTINUOUS
 62
     7
100
AcDbLine
 10
1756.250060000032
 20
717.399277755424
 30
0.0
 11
1750.825217846119
 21
722.8241199093372
 31
0.0
  0
LINE
  5
E9
330
1F
100
AcDbEntity
  8
LAY-12
  6
CONTINUOUS
 62
     7
100
AcDbLine
 10
1756.199393780366
 20
716.0357304127169
 30
0.0
 11
1752.75006000002
 21
719.4850641930634
 31
0.0
  0
LINE
  5
EA
330
1F
100
AcDbEntity
  8
LAY-12
  6
CONTINUOUS
 62
     7
100
AcDbLine
 10
1750.891552635809
 20
721.3435715572741
 30
0.0
 11
1749.731646619617
 21
722.5034775734666
 31
0.0
  0
LINE
  5
EB
330
1F
100
AcDbEntity
  8
LAY-12
  6
CONTINUOUS
 62
     7
100
AcDbLine
 10
1755.450596800637
 20
715.3703138300725
 30
0.0
 11
1752.303680026384
 21
718.5172306043269
 31
0.0
  0
LINE
  5
EC
330
1F
100
AcDbEntity
  8
LAY-12
  6
CONTINUOUS
 62
     7
100
AcDbLine
 10
1749.606842666814
 20
721.2140679638965
 30
0.0
 11
1748.888076318096
 21
721.932834312614
 31
0.0
  0
LINE
  5
ED
330
1F
100
AcDbEntity
  8
LAY-12
  6
CONTINUOUS
 62
     7
100
AcDbLine
 10
1754.332088514094
 20
715.0746085542437
 30
0.0
 11
1754.250060000024
 21
715.1566370683131
 31
0.0
  0
LINE
  5
EE
330
1F
100
AcDbEntity
  8
LAY-12
  6
CONTINUOUS
 62
     7
100
AcDbLine
 10
1754.101319283327
 20
715.3053777850105
 30
0.0
 11
1751.056697068306
 21
718.3500000000317
 31
0.0
  0
LINE
  5
EF
330
1F
100
AcDbEntity
  8
LAY-12
  6
CONTINUOUS
 62
     7
100
AcDbLine
 10
1748.455199531013
 20
720.9514975373245
 30
0.0
 11
1748.251510255456
 21
721.1551868128818
 31
0.0
  0
LINE
  5
F0
330
1F
100
AcDbEntity
  8
LAY-12
  6
CONTINUOUS
 62
     7
100
AcDbLine
 10
1752.782693466112
 20
715.209790039853
 30
0.0
 11
1749.886443655063
 21
718.1060398509021
 31
0.0
  0
LINE
  5
F1
330
1F
100
AcDbEntity
  8
LAY-12
  6
CONTINUOUS
 62
     7
100
AcDbLine
 10
1751.464067648896
 20
715.1142022946947
 30
0.0
 11
1751.250060000031
 21
715.3282099435596
 31
0.0
  0
LINE
  5
F2
330
1F
100
AcDbEntity
  8
LAY-12
  6
CONTINUOUS
 62
     7
100
AcDbLine
 10
1751.228269943552
 20
715.350000000039
 30
0.0
 11
1749.493820914337
 21
717.0844490292529
 31
0.0
  0
LINE
  5
F3
330
1F
100
AcDbEntity
  8
LAY-12
  6
CONTINUOUS
 62
     7
100
AcDbLine
 10
1749.813928315465
 20
715.3501280657524
 30
0.0
 11
1749.325372269362
 21
715.8386841118554
 31
0.0
  0
LINE
  5
F4
330
1F
100
AcDbEntity
  8
LAY-12
  6
CONTINUOUS
 62
     7
100
AcDbLine
 10
1159.843609801224
 20
751.6532177931147
 30
0.0
 11
1161.790392008132
 21
753.6000000000222
 31
0.0
  0
LINE
  5
F5
330
1F
100
AcDbEntity
  8
LAY-12
  6
CONTINUOUS
 62
     7
100
AcDbLine
 10
1160.881939898547
 20
749.8631207656917
 30
0.0
 11
1164.618819132877
 21
753.600000000021
 31
0.0
  0
LINE
  5
F6
330
1F
100
AcDbEntity
  8
LAY-12
  6
CONTINUOUS
 62
     7
100
AcDbLine
 10
1157.93535799646
 20
744.0881117388583
 30
0.0
 11
1158.447246257615
 21
744.6000000000131
 31
0.0
  0
LINE
  5
F7
330
1F
100
AcDbEntity
  8
LAY-12
  6
CONTINUOUS
 62
     7
100
AcDbLine
 10
1162.399005356366
 20
748.5517590987638
 30
0.0
 11
1167.447246257621
 21
753.6000000000197
 31
0.0
  0
LINE
  5
F8
330
1F
100
AcDbEntity
  8
LAY-12
  6
CONTINUOUS
 62
     7
100
AcDbLine
 10
1158.291569316878
 20
741.6158959345305
 30
0.0
 11
1161.275673382366
 21
744.6000000000183
 31
0.0
  0
LINE
  5
F9
330
1F
100
AcDbEntity
  8
LAY-12
  6
CONTINUOUS
 62
     7
100
AcDbLine
 10
1163.500060000009
 20
746.8243866176613
 30
0.0
 11
1170.275673382366
 21
753.6000000000186
 31
0.0
  0
LINE
  5
FA
330
1F
100
AcDbEntity
  8
LAY-12
  6
CONTINUOUS
 62
     7
100
AcDbLine
 10
1158.64778063729
 20
739.1436801301961
 30
0.0
 11
1173.104100507111
 21
753.6000000000172
 31
0.0
  0
LINE
  5
FB
330
1F
100
AcDbEntity
  8
LAY-12
  6
CONTINUOUS
 62
     7
100
AcDbLine
 10
1159.003991957708
 20
736.6714643258681
 30
0.0
 11
1175.932527631856
 21
753.600000000016
 31
0.0
  0
LINE
  5
FC
330
1F
100
AcDbEntity
  8
LAY-12
  6
CONTINUOUS
 62
     7
100
AcDbLine
 10
1159.570733995699
 20
734.4097792391133
 30
0.0
 11
1178.760954756607
 21
753.6000000000213
 31
0.0
  0
LINE
  5
FD
330
1F
100
AcDbEntity
  8
LAY-12
  6
CONTINUOUS
 62
     7
100
AcDbLine
 10
1161.589381881349
 20
733.6000000000167
 30
0.0
 11
1181.589381881352
 21
753.6000000000201
 31
0.0
  0
LINE
  5
FE
330
1F
100
AcDbEntity
  8
LAY-12
  6
CONTINUOUS
 62
     7
100
AcDbLine
 10
1164.417809006094
 20
733.6000000000154
 30
0.0
 11
1184.417809006097
 21
753.600000000019
 31
0.0
  0
LINE
  5
FF
330
1F
100
AcDbEntity
  8
LAY-12
  6
CONTINUOUS
 62
     7
100
AcDbLine
 10
1166.716404201308
 20
733.0701680704842
 30
0.0
 11
1187.246236130842
 21
753.6000000000176
 31
0.0
  0
LINE
  5
100
330
1F
100
AcDbEntity
  8
LAY-12
  6
CONTINUOUS
 62
     7
100
AcDbLine
 10
1167.512493875936
 20
731.0378306203661
 30
0.0
 11
1190.074663255587
 21
753.6000000000167
 31
0.0
  0
LINE
  5
101
330
1F
100
AcDbEntity
  8
LAY-12
  6
CONTINUOUS
 62
     7
100
AcDbLine
 10
1167.983898396728
 20
728.6808080164119
 30
0.0
 11
1192.903090380338
 21
753.6000000000217
 31
0.0
  0
LINE
  5
102
330
1F
100
AcDbEntity
  8
LAY-12
  6
CONTINUOUS
 62
     7
100
AcDbLine
 10
1168.455302917513
 20
726.3237854124509
 30
0.0
 11
1195.731517505083
 21
753.6000000000206
 31
0.0
  0
LINE
  5
103
330
1F
100
AcDbEntity
  8
LAY-12
  6
CONTINUOUS
 62
     7
100
AcDbLine
 10
1168.926707438305
 20
723.9667628084972
 30
0.0
 11
1198.559944629827
 21
753.6000000000195
 31
0.0
  0
LINE
  5
104
330
1F
100
AcDbEntity
  8
LAY-12
  6
CONTINUOUS
 62
     7
100
AcDbLine
 10
1169.478298271352
 20
721.6899265167976
 30
0.0
 11
1201.388371754572
 21
753.6000000000181
 31
0.0
  0
LINE
  5
105
330
1F
100
AcDbEntity
  8
LAY-12
  6
CONTINUOUS
 62
     7
100
AcDbLine
 10
1170.622895273431
 20
720.0060963941305
 30
0.0
 11
1204.216798879317
 21
753.600000000017
 31
0.0
  0
LINE
  5
106
330
1F
100
AcDbEntity
  8
LAY-12
  6
CONTINUOUS
 62
     7
100
AcDbLine
 10
1172.358112433294
 20
718.9128864292475
 30
0.0
 11
1207.045226004068
 21
753.6000000000222
 31
0.0
  0
LINE
  5
107
330
1F
100
AcDbEntity
  8
LAY-12
  6
CONTINUOUS
 62
     7
100
AcDbLine
 10
1174.873653128814
 20
718.6000000000213
 30
0.0
 11
1209.324215877291
 21
753.0505627484988
 31
0.0
  0
LINE
  5
108
330
1F
100
AcDbEntity
  8
LAY-12
  6
CONTINUOUS
 62
     7
100
AcDbLine
 10
1177.702080253559
 20
718.6000000000204
 30
0.0
 11
1208.500060000009
 21
749.3979797464708
 31
0.0
  0
LINE
  5
109
330
1F
100
AcDbEntity
  8
LAY-12
  6
CONTINUOUS
 62
     7
100
AcDbLine
 10
1180.530507378303
 20
718.600000000019
 30
0.0
 11
1208.50006000001
 21
746.569552621726
 31
0.0
  0
LINE
  5
10A
330
1F
100
AcDbEntity
  8
LAY-12
  6
CONTINUOUS
 62
     7
100
AcDbLine
 10
1183.358934503048
 20
718.6000000000176
 30
0.0
 11
1208.500060000005
 21
743.7411254969747
 31
0.0
  0
LINE
  5
10B
330
1F
100
AcDbEntity
  8
LAY-12
  6
CONTINUOUS
 62
     7
100
AcDbLine
 10
1186.187361627793
 20
718.6000000000167
 30
0.0
 11
1208.500060000006
 21
740.9126983722299
 31
0.0
  0
LINE
  5
10C
330
1F
100
AcDbEntity
  8
LAY-12
  6
CONTINUOUS
 62
     7
100
AcDbLine
 10
1189.015788752538
 20
718.6000000000154
 30
0.0
 11
1208.500060000008
 21
738.084271247485
 31
0.0
  0
LINE
  5
10D
330
1F
100
AcDbEntity
  8
LAY-12
  6
CONTINUOUS
 62
     7
100
AcDbLine
 10
1191.844215877283
 20
718.600000000014
 30
0.0
 11
1208.500060000009
 21
735.2558441227402
 31
0.0
  0
LINE
  5
10E
330
1F
100
AcDbEntity
  8
LAY-12
  6
CONTINUOUS
 62
     7
100
AcDbLine
 10
1194.672643002034
 20
718.6000000000195
 30
0.0
 11
1208.50006000001
 21
732.4274169979956
 31
0.0
  0
LINE
  5
10F
330
1F
100
AcDbEntity
  8
LAY-12
  6
CONTINUOUS
 62
     7
100
AcDbLine
 10
1197.501070126779
 20
718.6000000000181
 30
0.0
 11
1208.500060000004
 21
729.5989898732441
 31
0.0
  0
LINE
  5
110
330
1F
100
AcDbEntity
  8
LAY-12
  6
CONTINUOUS
 62
     7
100
AcDbLine
 10
1200.329497251523
 20
718.6000000000172
 30
0.0
 11
1208.500060000006
 21
726.7705627484993
 31
0.0
  0
LINE
  5
111
330
1F
100
AcDbEntity
  8
LAY-12
  6
CONTINUOUS
 62
     7
100
AcDbLine
 10
1203.157924376269
 20
718.6000000000158
 30
0.0
 11
1208.500060000007
 21
723.9421356237544
 31
0.0
  0
CIRCLE
  5
112
330
1F
100
AcDbEntity
  8
LAY-12
  6
CONTINUOUS
 62
     7
100
AcDbCircle
 10
1455.999999999999
 20
1545.6
 30
0.0
 40
380.99985
  0
LINE
  5
113
330
1F
100
AcDbEntity
  8
LAY-12
  6
CONTINUOUS
 62
     7
100
AcDbLine
 10
1233.522549999999
 20
1327.36518
 30
0.0
 11
1237.765179999999
 21
1323.12255
 31
0.0
  0
LINE
  5
114
330
1F
100
AcDbEntity
  8
LAY-12
  6
CONTINUOUS
 62
     7
100
AcDbLine
 10
1233.522549999999
 20
1327.36518
 30
0.0
 11
1193.744989180487
 21
1290.299828554523
 31
0.0
  0
LINE
  5
115
330
1F
100
AcDbEntity
  8
LAY-12
  6
CONTINUOUS
 62
     7
100
AcDbLine
 10
1200.699828554521
 20
1283.344989180489
 30
0.0
 11
1237.765179999999
 21
1323.12255
 31
0.0
  0
LINE
  5
116
330
1F
100
AcDbEntity
  8
LAY-12
  6
CONTINUOUS
 62
     7
100
AcDbLine
 10
1237.532229999999
 20
1320.06117
 30
0.0
 11
1237.765179999999
 21
1323.12255
 31
0.0
  0
LINE
  5
117
330
1F
100
AcDbEntity
  8
LAY-12
  6
CONTINUOUS
 62
     7
100
AcDbLine
 10
1230.461169999999
 20
1327.13223
 30
0.0
 11
1233.522549999999
 21
1327.36518
 31
0.0
  0
LINE
  5
118
330
1F
100
AcDbEntity
  8
LAY-12
  6
CONTINUOUS
 62
     7
100
AcDbLine
 10
1199.383569335203
 20
1296.054628184365
 30
0.0
 11
1228.383091092019
 21
1325.054170404902
 31
0.0
  0
LINE
  5
119
330
1F
100
AcDbEntity
  8
LAY-12
  6
CONTINUOUS
 62
     7
100
AcDbLine
 10
1163.234392929906
 20
1341.930698039523
 30
0.0
 11
1197.182635931451
 21
1361.530715270602
 31
0.0
  0
LINE
  5
11A
330
1F
100
AcDbEntity
  8
LAY-12
  6
CONTINUOUS
 62
     7
100
AcDbLine
 10
1157.726244590024
 20
1341.05993580445
 30
0.0
 11
1196.08612943231
 21
1363.207051518323
 31
0.0
  0
ARC
  5
11B
330
1F
100
AcDbEntity
  8
LAY-12
  6
CONTINUOUS
 62
     7
100
AcDbCircle
 10
1165.234392164266
 20
1338.466595982343
 30
0.0
 40
4.0
100
AcDbArc
 50
119.9999873364135
 51
215.4650239888405
  0
ARC
  5
11C
330
1F
100
AcDbEntity
  8
LAY-12
  6
CONTINUOUS
 62
     7
100
AcDbCircle
 10
1159.726246342449
 20
1337.595835201076
 30
0.0
 40
4.0
100
AcDbArc
 50
120.0000289848902
 51
215.071444568636
  0
ARC
  5
11D
330
1F
100
AcDbEntity
  8
LAY-12
  6
CONTINUOUS
 62
     7
100
AcDbCircle
 10
1456.000113715807
 20
1545.600058219936
 30
0.0
 40
313.9032675907465
100
AcDbArc
 50
204.222851175101
 51
215.777148878734
  0
ARC
  5
11E
330
1F
100
AcDbEntity
  8
LAY-12
  6
CONTINUOUS
 62
     7
100
AcDbCircle
 10
1198.086131184736
 20
1359.742950914949
 30
0.0
 40
4.0
100
AcDbArc
 50
35.77715237821636
 51
120.0000289848902
  0
ARC
  5
11F
330
1F
100
AcDbEntity
  8
LAY-12
  6
CONTINUOUS
 62
     7
100
AcDbCircle
 10
1455.99719719928
 20
1545.597809779749
 30
0.0
 40
313.9963348185654
100
AcDbArc
 50
216.1376760651307
 51
223.5539563229068
  0
ARC
  5
120
330
1F
100
AcDbEntity
  8
LAY-12
  6
CONTINUOUS
 62
     7
100
AcDbCircle
 10
1199.182635165811
 20
1358.066613213422
 30
0.0
 40
4.0
100
AcDbArc
 50
36.1376760651301
 51
119.9999873364139
  0
ARC
  5
121
330
1F
100
AcDbEntity
  8
LAY-12
  6
CONTINUOUS
 62
     7
100
AcDbCircle
 10
1226.261769999997
 20
1327.175489999999
 30
0.0
 40
3.000000000000002
100
AcDbArc
 50
315.0000202155818
 51
43.55395632290702
  0
ARC
  5
122
330
1F
100
AcDbEntity
  8
LAY-12
  6
CONTINUOUS
 62
     7
100
AcDbCircle
 10
1456.001210577813
 20
1545.601045638865
 30
0.0
 40
361.0014380986997
100
AcDbArc
 50
215.4650482077522
 51
223.7195282902971
  0
ARC
  5
123
330
1F
100
AcDbEntity
  8
LAY-12
  6
CONTINUOUS
 62
     7
100
AcDbCircle
 10
1197.262248243181
 20
1298.175947779462
 30
0.0
 40
3.000000000000002
100
AcDbArc
 50
223.7195282902965
 51
315.0000202155809
  0
ARC
  5
124
330
1F
100
AcDbEntity
  8
LAY-12
  6
CONTINUOUS
 62
     7
100
AcDbCircle
 10
1455.997809779748
 20
1545.597197199281
 30
0.0
 40
313.9963348185654
100
AcDbArc
 50
226.4460436770932
 51
233.8623239348694
  0
ARC
  5
125
330
1F
100
AcDbEntity
  8
LAY-12
  6
CONTINUOUS
 62
     7
100
AcDbCircle
 10
1268.46661321342
 20
1288.782635165812
 30
0.0
 40
4.0
100
AcDbArc
 50
330.0000126635866
 51
53.86232393487032
  0
ARC
  5
126
330
1F
100
AcDbEntity
  8
LAY-12
  6
CONTINUOUS
 62
     7
100
AcDbCircle
 10
1237.575489999997
 20
1315.861769999999
 30
0.0
 40
3.000000000000002
100
AcDbArc
 50
46.44604367709369
 51
134.9999797844179
  0
LINE
  5
127
330
1F
100
AcDbEntity
  8
LAY-12
  6
CONTINUOUS
 62
     7
100
AcDbLine
 10
1206.454628184363
 20
1288.983569335204
 30
0.0
 11
1235.454170404901
 21
1317.983091092021
 31
0.0
  0
ARC
  5
128
330
1F
100
AcDbEntity
  8
LAY-12
  6
CONTINUOUS
 62
     7
100
AcDbCircle
 10
1208.575947779461
 20
1286.862248243183
 30
0.0
 40
3.000000000000002
100
AcDbArc
 50
134.9999797844216
 51
226.280471709702
  0
ARC
  5
129
330
1F
100
AcDbEntity
  8
LAY-12
  6
CONTINUOUS
 62
     7
100
AcDbCircle
 10
1456.001045638864
 20
1545.601210577815
 30
0.0
 40
361.0014380986997
100
AcDbArc
 50
226.2804717097028
 51
234.5349517922478
  0
ARC
  5
12A
330
1F
100
AcDbEntity
  8
LAY-12
  6
CONTINUOUS
 62
     7
100
AcDbCircle
 10
1248.866595982341
 20
1254.834392164267
 30
0.0
 40
4.0
100
AcDbArc
 50
234.5349760111588
 51
330.0000126635862
  0
LINE
  5
12B
330
1F
100
AcDbEntity
  8
LAY-12
  6
CONTINUOUS
 62
     7
100
AcDbLine
 10
1252.330698039521
 20
1252.834392929908
 30
0.0
 11
1271.9307152706
 21
1286.782635931452
 31
0.0
  0
LINE
  5
12C
330
1F
100
AcDbEntity
  8
LAY-12
  6
CONTINUOUS
 62
     7
100
AcDbLine
 10
1251.459935804448
 20
1247.326244590026
 30
0.0
 11
1273.607051518321
 21
1285.686129432312
 31
0.0
  0
ARC
  5
12D
330
1F
100
AcDbEntity
  8
LAY-12
  6
CONTINUOUS
 62
     7
100
AcDbCircle
 10
1247.995835201074
 20
1249.326246342451
 30
0.0
 40
4.0
100
AcDbArc
 50
234.9285554313642
 51
329.9999710151112
  0
ARC
  5
12E
330
1F
100
AcDbEntity
  8
LAY-12
  6
CONTINUOUS
 62
     7
100
AcDbCircle
 10
1270.142950914948
 20
1287.686131184738
 30
0.0
 40
4.0
100
AcDbArc
 50
329.9999710151112
 51
54.22284762178201
  0
ARC
  5
12F
330
1F
100
AcDbEntity
  8
LAY-12
  6
CONTINUOUS
 62
     7
100
AcDbCircle
 10
1455.999999999999
 20
1545.600000000001
 30
0.0
 40
365.9998200000003
100
AcDbArc
 50
215.0691192463037
 51
234.9315229180336
  0
LINE
  5
130
330
1F
100
AcDbEntity
  8
LAY-12
  6
CONTINUOUS
 62
     7
100
AcDbLine
 10
1372.446286530816
 20
1245.364376889676
 30
0.0
 11
1378.241826889674
 21
1243.811466530818
 31
0.0
  0
LINE
  5
131
330
1F
100
AcDbEntity
  8
LAY-12
  6
CONTINUOUS
 62
     7
100
AcDbLine
 10
1372.446286530816
 20
1245.364376889676
 30
0.0
 11
1356.530584083278
 21
1193.376060527939
 31
0.0
  0
LINE
  5
132
330
1F
100
AcDbEntity
  8
LAY-12
  6
CONTINUOUS
 62
     7
100
AcDbLine
 10
1366.031071347449
 20
1190.830412637802
 30
0.0
 11
1378.241826889674
 21
1243.811466530818
 31
0.0
  0
LINE
  5
133
330
1F
100
AcDbEntity
  8
LAY-12
  6
CONTINUOUS
 62
     7
100
AcDbLine
 10
1379.570776271863
 20
1241.043758680181
 30
0.0
 11
1378.241826889674
 21
1243.811466530818
 31
0.0
  0
LINE
  5
134
330
1F
100
AcDbEntity
  8
LAY-12
  6
CONTINUOUS
 62
     7
100
AcDbLine
 10
1369.911528680179
 20
1243.631946271865
 30
0.0
 11
1372.446286530816
 21
1245.364376889676
 31
0.0
  0
ARC
  5
135
330
1F
100
AcDbEntity
  8
LAY-12
  6
CONTINUOUS
 62
     7
100
AcDbCircle
 10
1307.756299076259
 20
1220.834406230497
 30
0.0
 40
4.0
100
AcDbArc
 50
149.9999873364149
 51
245.4650239888405
  0
ARC
  5
136
330
1F
100
AcDbEntity
  8
LAY-12
  6
CONTINUOUS
 62
     7
100
AcDbCircle
 10
1303.421485257451
 20
1217.326232362392
 30
0.0
 40
4.0
100
AcDbArc
 50
150.0000289848906
 51
245.0714445686365
  0
LINE
  5
137
330
1F
100
AcDbEntity
  8
LAY-12
  6
CONTINUOUS
 62
     7
100
AcDbLine
 10
1299.95738263055
 20
1219.326230609966
 30
0.0
 11
1322.104459533279
 21
1257.686137859878
 31
0.0
  0
ARC
  5
138
330
1F
100
AcDbEntity
  8
LAY-12
  6
CONTINUOUS
 62
     7
100
AcDbCircle
 10
1325.56856216018
 20
1255.686139612304
 30
0.0
 40
4.0
100
AcDbArc
 50
65.77715237821792
 51
150.0000289848902
  0
LINE
  5
139
330
1F
100
AcDbEntity
  8
LAY-12
  6
CONTINUOUS
 62
     7
100
AcDbLine
 10
1304.292197903164
 20
1222.834406996137
 30
0.0
 11
1323.89223014081
 21
1256.782641333636
 31
0.0
  0
ARC
  5
13A
330
1F
100
AcDbEntity
  8
LAY-12
  6
CONTINUOUS
 62
     7
100
AcDbCircle
 10
1327.356331313905
 20
1254.782640567996
 30
0.0
 40
4.0
100
AcDbArc
 50
66.13767606512937
 51
149.9999873364139
  0
ARC
  5
13B
330
1F
100
AcDbEntity
  8
LAY-12
  6
CONTINUOUS
 62
     7
100
AcDbCircle
 10
1455.9986678135
 20
1545.596701813264
 30
0.0
 40
313.9963348185654
100
AcDbArc
 50
246.1376760651305
 51
253.5539563229071
  0
ARC
  5
13C
330
1F
100
AcDbEntity
  8
LAY-12
  6
CONTINUOUS
 62
     7
100
AcDbCircle
 10
1366.253111599526
 20
1241.569710530831
 30
0.0
 40
3.000000000000002
100
AcDbArc
 50
345.000020215582
 51
73.55395632290576
  0
ARC
  5
13D
330
1F
100
AcDbEntity
  8
LAY-12
  6
CONTINUOUS
 62
     7
100
AcDbCircle
 10
1456.000525571707
 20
1545.601510838728
 30
0.0
 40
361.0014380986997
100
AcDbArc
 50
245.4650482077522
 51
253.7195282902971
  0
LINE
  5
13E
330
1F
100
AcDbEntity
  8
LAY-12
  6
CONTINUOUS
 62
     7
100
AcDbLine
 10
1358.536337923615
 20
1201.179153278429
 30
0.0
 11
1369.150889352349
 21
1240.793254417941
 31
0.0
  0
ARC
  5
13F
330
1F
100
AcDbEntity
  8
LAY-12
  6
CONTINUOUS
 62
     7
100
AcDbCircle
 10
1355.638560170792
 20
1201.955609391318
 30
0.0
 40
3.000000000000002
100
AcDbArc
 50
253.7195282902966
 51
345.0000202155804
  0
ARC
  5
140
330
1F
100
AcDbEntity
  8
LAY-12
  6
CONTINUOUS
 62
     7
100
AcDbCircle
 10
1455.999504613981
 20
1545.59647759325
 30
0.0
 40
313.9963348185654
100
AcDbArc
 50
256.4460436770933
 51
263.8623239348697
  0
ARC
  5
141
330
1F
100
AcDbEntity
  8
LAY-12
  6
CONTINUOUS
 62
     7
100
AcDbCircle
 10
1422.000005402183
 20
1229.422944527327
 30
0.0
 40
4.0
100
AcDbArc
 50
0.0000126635865839
 51
83.86232393487067
  0
ARC
  5
142
330
1F
100
AcDbEntity
  8
LAY-12
  6
CONTINUOUS
 62
     7
100
AcDbCircle
 10
1381.70794053083
 20
1237.428601599526
 30
0.0
 40
3.000000000000002
100
AcDbArc
 50
76.44604367709135
 51
164.9999797844177
  0
LINE
  5
143
330
1F
100
AcDbEntity
  8
LAY-12
  6
CONTINUOUS
 62
     7
100
AcDbLine
 10
1368.195583943223
 20
1198.590966107981
 30
0.0
 11
1378.810163325919
 21
1238.205059757252
 31
0.0
  0
ARC
  5
144
330
1F
100
AcDbEntity
  8
LAY-12
  6
CONTINUOUS
 62
     7
100
AcDbCircle
 10
1371.093361148134
 20
1197.814507950255
 30
0.0
 40
3.000000000000002
100
AcDbArc
 50
164.9999797844225
 51
256.2804717097034
  0
ARC
  5
145
330
1F
100
AcDbEntity
  8
LAY-12
  6
CONTINUOUS
 62
     7
100
AcDbCircle
 10
1456.000300260911
 20
1545.601571210573
 30
0.0
 40
361.0014380986997
100
AcDbArc
 50
256.2804717097029
 51
264.5349517922479
  0
ARC
  5
146
330
1F
100
AcDbEntity
  8
LAY-12
  6
CONTINUOUS
 62
     7
100
AcDbCircle
 10
1422.000014066228
 20
1190.222895058603
 30
0.0
 40
4.0
100
AcDbArc
 50
264.5349760111596
 51
0.0000126635865839
  0
LINE
  5
147
330
1F
100
AcDbEntity
  8
LAY-12
  6
CONTINUOUS
 62
     7
100
AcDbLine
 10
1426.000014066228
 20
1190.222895942689
 30
0.0
 11
1426.000005402183
 21
1229.422945411413
 31
0.0
  0
LINE
  5
148
330
1F
100
AcDbEntity
  8
LAY-12
  6
CONTINUOUS
 62
     7
100
AcDbLine
 10
1427.99998601994
 20
1185.017318435001
 30
0.0
 11
1428.000008427564
 21
1229.311511051603
 31
0.0
  0
ARC
  5
149
330
1F
100
AcDbEntity
  8
LAY-12
  6
CONTINUOUS
 62
     7
100
AcDbCircle
 10
1423.99998601994
 20
1185.017320458528
 30
0.0
 40
4.0
100
AcDbArc
 50
264.9285554313652
 51
359.9999710151098
  0
ARC
  5
14A
330
1F
100
AcDbEntity
  8
LAY-12
  6
CONTINUOUS
 62
     7
100
AcDbCircle
 10
1424.000008427564
 20
1229.311513075131
 30
0.0
 40
4.0
100
AcDbArc
 50
359.9999710151108
 51
84.2228476217819
  0
ARC
  5
14B
330
1F
100
AcDbEntity
  8
LAY-12
  6
CONTINUOUS
 62
     7
100
AcDbCircle
 10
1455.999999999999
 20
1545.600000000001
 30
0.0
 40
365.9998200000003
100
AcDbArc
 50
245.069119246304
 51
264.9315229180336
  0
LINE
  5
14C
330
1F
100
AcDbEntity
  8
LAY-12
  6
CONTINUOUS
 62
     7
100
AcDbLine
 10
1533.758173110323
 20
1243.811466530818
 30
0.0
 11
1539.553713469181
 21
1245.364376889676
 31
0.0
  0
LINE
  5
14D
330
1F
100
AcDbEntity
  8
LAY-12
  6
CONTINUOUS
 62
     7
100
AcDbLine
 10
1533.758173110323
 20
1243.811466530818
 30
0.0
 11
1545.968928652549
 21
1190.830412637802
 31
0.0
  0
LINE
  5
14E
330
1F
100
AcDbEntity
  8
LAY-12
  6
CONTINUOUS
 62
     7
100
AcDbLine
 10
1555.46941591672
 20
1193.376060527939
 30
0.0
 11
1539.553713469181
 21
1245.364376889676
 31
0.0
  0
LINE
  5
14F
330
1F
100
AcDbEntity
  8
LAY-12
  6
CONTINUOUS
 62
     7
100
AcDbLine
 10
1542.088471319819
 20
1243.631946271865
 30
0.0
 11
1539.553713469181
 21
1245.364376889676
 31
0.0
  0
LINE
  5
150
330
1F
100
AcDbEntity
  8
LAY-12
  6
CONTINUOUS
 62
     7
100
AcDbLine
 10
1532.429223728135
 20
1241.043758680181
 30
0.0
 11
1533.758173110323
 21
1243.811466530818
 31
0.0
  0
ARC
  5
151
330
1F
100
AcDbEntity
  8
LAY-12
  6
CONTINUOUS
 62
     7
100
AcDbCircle
 10
1489.99998593377
 20
1190.222895058603
 30
0.0
 40
4.0
100
AcDbArc
 50
179.9999873364142
 51
275.4650239888407
  0
ARC
  5
152
330
1F
100
AcDbEntity
  8
LAY-12
  6
CONTINUOUS
 62
     7
100
AcDbCircle
 10
1488.000013980058
 20
1185.017320458528
 30
0.0
 40
4.0
100
AcDbArc
 50
180.0000289848905
 51
275.0714445686369
  0
LINE
  5
153
330
1F
100
AcDbEntity
  8
LAY-12
  6
CONTINUOUS
 62
     7
100
AcDbLine
 10
1484.000013980058
 20
1185.017318435001
 30
0.0
 11
1483.999991572434
 21
1229.311511051603
 31
0.0
  0
ARC
  5
154
330
1F
100
AcDbEntity
  8
LAY-12
  6
CONTINUOUS
 62
     7
100
AcDbCircle
 10
1487.999991572433
 20
1229.311513075131
 30
0.0
 40
4.0
100
AcDbArc
 50
95.77715237821803
 51
180.0000289848898
  0
LINE
  5
155
330
1F
100
AcDbEntity
  8
LAY-12
  6
CONTINUOUS
 62
     7
100
AcDbLine
 10
1485.99998593377
 20
1190.222895942688
 30
0.0
 11
1485.999994597815
 21
1229.422945411413
 31
0.0
  0
ARC
  5
156
330
1F
100
AcDbEntity
  8
LAY-12
  6
CONTINUOUS
 62
     7
100
AcDbCircle
 10
1489.999994597815
 20
1229.422944527327
 30
0.0
 40
4.0
100
AcDbArc
 50
96.13767606513092
 51
179.9999873364135
  0
ARC
  5
157
330
1F
100
AcDbEntity
  8
LAY-12
  6
CONTINUOUS
 62
     7
100
AcDbCircle
 10
1456.000495386017
 20
1545.59647759325
 30
0.0
 40
313.9963348185654
100
AcDbArc
 50
276.1376760651304
 51
283.5539563229071
  0
ARC
  5
158
330
1F
100
AcDbEntity
  8
LAY-12
  6
CONTINUOUS
 62
     7
100
AcDbCircle
 10
1530.292059469167
 20
1237.428601599526
 30
0.0
 40
3.000000000000002
100
AcDbArc
 50
15.00002021557968
 51
103.5539563229063
  0
ARC
  5
159
330
1F
100
AcDbEntity
  8
LAY-12
  6
CONTINUOUS
 62
     7
100
AcDbCircle
 10
1455.999699739086
 20
1545.601571210573
 30
0.0
 40
361.0014380986997
100
AcDbArc
 50
275.4650482077526
 51
283.7195282902975
  0
LINE
  5
15A
330
1F
100
AcDbEntity
  8
LAY-12
  6
CONTINUOUS
 62
     7
100
AcDbLine
 10
1543.804416056774
 20
1198.590966107981
 30
0.0
 11
1533.189836674078
 21
1238.205059757252
 31
0.0
  0
ARC
  5
15B
330
1F
100
AcDbEntity
  8
LAY-12
  6
CONTINUOUS
 62
     7
100
AcDbCircle
 10
1540.906638851864
 20
1197.814507950255
 30
0.0
 40
3.000000000000002
100
AcDbArc
 50
283.7195282902948
 51
15.00002021557922
  0
ARC
  5
15C
330
1F
100
AcDbEntity
  8
LAY-12
  6
CONTINUOUS
 62
     7
100
AcDbCircle
 10
1456.001332186498
 20
1545.596701813264
 30
0.0
 40
313.9963348185654
100
AcDbArc
 50
286.4460436770937
 51
293.8623239348697
  0
ARC
  5
15D
330
1F
100
AcDbEntity
  8
LAY-12
  6
CONTINUOUS
 62
     7
100
AcDbCircle
 10
1584.643668686093
 20
1254.782640567996
 30
0.0
 40
4.0
100
AcDbArc
 50
30.00001266358734
 51
113.8623239348706
  0
ARC
  5
15E
330
1F
100
AcDbEntity
  8
LAY-12
  6
CONTINUOUS
 62
     7
100
AcDbCircle
 10
1545.746888400472
 20
1241.569710530831
 30
0.0
 40
3.000000000000002
100
AcDbArc
 50
106.4460436770918
 51
194.9999797844167
  0
LINE
  5
15F
330
1F
100
AcDbEntity
  8
LAY-12
  6
CONTINUOUS
 62
     7
100
AcDbLine
 10
1553.463662076383
 20
1201.179153278429
 30
0.0
 11
1542.849110647649
 21
1240.793254417941
 31
0.0
  0
ARC
  5
160
330
1F
100
AcDbEntity
  8
LAY-12
  6
CONTINUOUS
 62
     7
100
AcDbCircle
 10
1556.361439829206
 20
1201.955609391318
 30
0.0
 40
3.000000000000002
100
AcDbArc
 50
194.999979784421
 51
286.2804717097035
  0
ARC
  5
161
330
1F
100
AcDbEntity
  8
LAY-12
  6
CONTINUOUS
 62
     7
100
AcDbCircle
 10
1455.999474428291
 20
1545.601510838727
 30
0.0
 40
361.0014380986997
100
AcDbArc
 50
286.280471709703
 51
294.534951792248
  0
ARC
  5
162
330
1F
100
AcDbEntity
  8
LAY-12
  6
CONTINUOUS
 62
     7
100
AcDbCircle
 10
1604.243700923738
 20
1220.834406230497
 30
0.0
 40
4.0
100
AcDbArc
 50
294.5349760111584
 51
30.00001266358734
  0
LINE
  5
163
330
1F
100
AcDbEntity
  8
LAY-12
  6
CONTINUOUS
 62
     7
100
AcDbLine
 10
1607.707802096833
 20
1222.834406996137
 30
0.0
 11
1588.107769859188
 21
1256.782641333636
 31
0.0
  0
LINE
  5
164
330
1F
100
AcDbEntity
  8
LAY-12
  6
CONTINUOUS
 62
     7
100
AcDbLine
 10
1612.042617369448
 20
1219.326230609966
 30
0.0
 11
1589.895540466719
 21
1257.686137859877
 31
0.0
  0
ARC
  5
165
330
1F
100
AcDbEntity
  8
LAY-12
  6
CONTINUOUS
 62
     7
100
AcDbCircle
 10
1608.578514742547
 20
1217.326232362392
 30
0.0
 40
4.0
100
AcDbArc
 50
294.9285554313634
 51
29.99997101510989
  0
ARC
  5
166
330
1F
100
AcDbEntity
  8
LAY-12
  6
CONTINUOUS
 62
     7
100
AcDbCircle
 10
1586.431437839818
 20
1255.686139612303
 30
0.0
 40
4.0
100
AcDbArc
 50
29.99997101510903
 51
114.2228476217846
  0
ARC
  5
167
330
1F
100
AcDbEntity
  8
LAY-12
  6
CONTINUOUS
 62
     7
100
AcDbCircle
 10
1455.999999999999
 20
1545.600000000001
 30
0.0
 40
365.9998200000003
100
AcDbArc
 50
275.0691192463038
 51
294.9315229180337
  0
LINE
  5
168
330
1F
100
AcDbEntity
  8
LAY-12
  6
CONTINUOUS
 62
     7
100
AcDbLine
 10
1674.234819999999
 20
1323.12255
 30
0.0
 11
1678.477449999999
 21
1327.36518
 31
0.0
  0
LINE
  5
169
330
1F
100
AcDbEntity
  8
LAY-12
  6
CONTINUOUS
 62
     7
100
AcDbLine
 10
1674.234819999999
 20
1323.12255
 30
0.0
 11
1711.300171445477
 21
1283.344989180489
 31
0.0
  0
LINE
  5
16A
330
1F
100
AcDbEntity
  8
LAY-12
  6
CONTINUOUS
 62
     7
100
AcDbLine
 10
1718.25501081951
 20
1290.299828554523
 30
0.0
 11
1678.477449999999
 21
1327.36518
 31
0.0
  0
LINE
  5
16B
330
1F
100
AcDbEntity
  8
LAY-12
  6
CONTINUOUS
 62
     7
100
AcDbLine
 10
1681.538829999999
 20
1327.13223
 30
0.0
 11
1678.477449999999
 21
1327.36518
 31
0.0
  0
LINE
  5
16C
330
1F
100
AcDbEntity
  8
LAY-12
  6
CONTINUOUS
 62
     7
100
AcDbLine
 10
1674.467769999999
 20
1320.06117
 30
0.0
 11
1674.234819999999
 21
1323.12255
 31
0.0
  0
ARC
  5
16D
330
1F
100
AcDbEntity
  8
LAY-12
  6
CONTINUOUS
 62
     7
100
AcDbCircle
 10
1663.133404017657
 20
1254.834392164267
 30
0.0
 40
4.0
100
AcDbArc
 50
209.9999873364123
 51
305.4650239888396
  0
ARC
  5
16E
330
1F
100
AcDbEntity
  8
LAY-12
  6
CONTINUOUS
 62
     7
100
AcDbCircle
 10
1664.004164798923
 20
1249.326246342451
 30
0.0
 40
4.0
100
AcDbArc
 50
210.0000289848908
 51
305.071444568637
  0
LINE
  5
16F
330
1F
100
AcDbEntity
  8
LAY-12
  6
CONTINUOUS
 62
     7
100
AcDbLine
 10
1660.540064195549
 20
1247.326244590025
 30
0.0
 11
1638.392948481676
 21
1285.686129432312
 31
0.0
  0
ARC
  5
170
330
1F
100
AcDbEntity
  8
LAY-12
  6
CONTINUOUS
 62
     7
100
AcDbCircle
 10
1641.85704908505
 20
1287.686131184738
 30
0.0
 40
4.0
100
AcDbArc
 50
125.7771523782157
 51
210.0000289848908
  0
LINE
  5
171
330
1F
100
AcDbEntity
  8
LAY-12
  6
CONTINUOUS
 62
     7
100
AcDbLine
 10
1659.669301960476
 20
1252.834392929908
 30
0.0
 11
1640.069284729398
 21
1286.782635931452
 31
0.0
  0
ARC
  5
172
330
1F
100
AcDbEntity
  8
LAY-12
  6
CONTINUOUS
 62
     7
100
AcDbCircle
 10
1643.533386786577
 20
1288.782635165812
 30
0.0
 40
4.0
100
AcDbArc
 50
126.1376760651297
 51
209.9999873364148
  0
ARC
  5
173
330
1F
100
AcDbEntity
  8
LAY-12
  6
CONTINUOUS
 62
     7
100
AcDbCircle
 10
1456.00219022025
 20
1545.597197199281
 30
0.0
 40
313.9963348185654
100
AcDbArc
 50
306.1376760651305
 51
313.5539563229072
  0
ARC
  5
174
330
1F
100
AcDbEntity
  8
LAY-12
  6
CONTINUOUS
 62
     7
100
AcDbCircle
 10
1674.42451
 20
1315.861769999999
 30
0.0
 40
3.000000000000002
100
AcDbArc
 50
45.00002021557997
 51
133.553956322907
  0
ARC
  5
175
330
1F
100
AcDbEntity
  8
LAY-12
  6
CONTINUOUS
 62
     7
100
AcDbCircle
 10
1455.998954361135
 20
1545.601210577815
 30
0.0
 40
361.0014380986997
100
AcDbArc
 50
305.4650482077527
 51
313.7195282902976
  0
LINE
  5
176
330
1F
100
AcDbEntity
  8
LAY-12
  6
CONTINUOUS
 62
     7
100
AcDbLine
 10
1705.545371815634
 20
1288.983569335204
 30
0.0
 11
1676.545829595098
 21
1317.983091092021
 31
0.0
  0
ARC
  5
177
330
1F
100
AcDbEntity
  8
LAY-12
  6
CONTINUOUS
 62
     7
100
AcDbCircle
 10
1703.424052220537
 20
1286.862248243182
 30
0.0
 40
3.000000000000002
100
AcDbArc
 50
313.7195282902976
 51
45.00002021558072
  0
ARC
  5
178
330
1F
100
AcDbEntity
  8
LAY-12
  6
CONTINUOUS
 62
     7
100
AcDbCircle
 10
1456.002802800718
 20
1545.597809779749
 30
0.0
 40
313.9963348185654
100
AcDbArc
 50
316.4460436770934
 51
323.8623239348699
  0
ARC
  5
179
330
1F
100
AcDbEntity
  8
LAY-12
  6
CONTINUOUS
 62
     7
100
AcDbCircle
 10
1712.817364834187
 20
1358.066613213421
 30
0.0
 40
4.0
100
AcDbArc
 50
60.00001266358529
 51
143.8623239348704
  0
ARC
  5
17A
330
1F
100
AcDbEntity
  8
LAY-12
  6
CONTINUOUS
 62
     7
100
AcDbCircle
 10
1685.73823
 20
1327.175489999999
 30
0.0
 40
3.000000000000002
100
AcDbArc
 50
136.446043677093
 51
224.9999797844185
  0
LINE
  5
17B
330
1F
100
AcDbEntity
  8
LAY-12
  6
CONTINUOUS
 62
     7
100
AcDbLine
 10
1712.616430664795
 20
1296.054628184365
 30
0.0
 11
1683.616908907979
 21
1325.054170404902
 31
0.0
  0
ARC
  5
17C
330
1F
100
AcDbEntity
  8
LAY-12
  6
CONTINUOUS
 62
     7
100
AcDbCircle
 10
1714.737751756817
 20
1298.175947779462
 30
0.0
 40
3.000000000000002
100
AcDbArc
 50
224.9999797844208
 51
316.2804717097024
  0
ARC
  5
17D
330
1F
100
AcDbEntity
  8
LAY-12
  6
CONTINUOUS
 62
     7
100
AcDbCircle
 10
1455.998789422184
 20
1545.601045638865
 30
0.0
 40
361.0014380986997
100
AcDbArc
 50
316.2804717097031
 51
324.5349517922483
  0
ARC
  5
17E
330
1F
100
AcDbEntity
  8
LAY-12
  6
CONTINUOUS
 62
     7
100
AcDbCircle
 10
1746.765607835731
 20
1338.466595982342
 30
0.0
 40
4.0
100
AcDbArc
 50
324.5349760111604
 51
60.00001266358632
  0
LINE
  5
17F
330
1F
100
AcDbEntity
  8
LAY-12
  6
CONTINUOUS
 62
     7
100
AcDbLine
 10
1748.765607070091
 20
1341.930698039522
 30
0.0
 11
1714.817364068547
 21
1361.530715270602
 31
0.0
  0
LINE
  5
180
330
1F
100
AcDbEntity
  8
LAY-12
  6
CONTINUOUS
 62
     7
100
AcDbLine
 10
1754.273755409974
 20
1341.059935804449
 30
0.0
 11
1715.913870567687
 21
1363.207051518323
 31
0.0
  0
ARC
  5
181
330
1F
100
AcDbEntity
  8
LAY-12
  6
CONTINUOUS
 62
     7
100
AcDbCircle
 10
1752.273753657548
 20
1337.595835201076
 30
0.0
 40
4.0
100
AcDbArc
 50
324.9285554313663
 51
59.99997101510903
  0
ARC
  5
182
330
1F
100
AcDbEntity
  8
LAY-12
  6
CONTINUOUS
 62
     7
100
AcDbCircle
 10
1713.913868815262
 20
1359.742950914949
 30
0.0
 40
4.0
100
AcDbArc
 50
59.99997101510903
 51
144.2228476217822
  0
ARC
  5
183
330
1F
100
AcDbEntity
  8
LAY-12
  6
CONTINUOUS
 62
     7
100
AcDbCircle
 10
1455.999999999999
 20
1545.6
 30
0.0
 40
365.9998200000003
100
AcDbArc
 50
305.0691192463038
 51
324.9315229180338
  0
LINE
  5
184
330
1F
100
AcDbEntity
  8
LAY-12
  6
CONTINUOUS
 62
     7
100
AcDbLine
 10
1756.235623110323
 20
1462.046286530818
 30
0.0
 11
1757.788533469181
 21
1467.841826889676
 31
0.0
  0
LINE
  5
185
330
1F
100
AcDbEntity
  8
LAY-12
  6
CONTINUOUS
 62
     7
100
AcDbLine
 10
1756.235623110323
 20
1462.046286530818
 30
0.0
 11
1808.223939472061
 21
1446.130584083279
 31
0.0
  0
LINE
  5
186
330
1F
100
AcDbEntity
  8
LAY-12
  6
CONTINUOUS
 62
     7
100
AcDbLine
 10
1810.769587362197
 20
1455.63107134745
 30
0.0
 11
1757.788533469181
 21
1467.841826889676
 31
0.0
  0
LINE
  5
187
330
1F
100
AcDbEntity
  8
LAY-12
  6
CONTINUOUS
 62
     7
100
AcDbLine
 10
1760.556241319819
 20
1469.170776271864
 30
0.0
 11
1757.788533469181
 21
1467.841826889676
 31
0.0
  0
LINE
  5
188
330
1F
100
AcDbEntity
  8
LAY-12
  6
CONTINUOUS
 62
     7
100
AcDbLine
 10
1757.968053728135
 20
1459.51152868018
 30
0.0
 11
1756.235623110323
 21
1462.046286530818
 31
0.0
  0
ARC
  5
189
330
1F
100
AcDbEntity
  8
LAY-12
  6
CONTINUOUS
 62
     7
100
AcDbCircle
 10
1780.765593769503
 20
1397.356299076261
 30
0.0
 40
4.0
100
AcDbArc
 50
239.999987336413
 51
335.4650239888403
  0
ARC
  5
18A
330
1F
100
AcDbEntity
  8
LAY-12
  6
CONTINUOUS
 62
     7
100
AcDbCircle
 10
1784.273767637607
 20
1393.021485257452
 30
0.0
 40
4.0
100
AcDbArc
 50
240.0000289848888
 51
335.0714445686357
  0
LINE
  5
18B
330
1F
100
AcDbEntity
  8
LAY-12
  6
CONTINUOUS
 62
     7
100
AcDbLine
 10
1782.273769390033
 20
1389.557382630551
 30
0.0
 11
1743.913862140122
 21
1411.70445953328
 31
0.0
  0
ARC
  5
18C
330
1F
100
AcDbEntity
  8
LAY-12
  6
CONTINUOUS
 62
     7
100
AcDbCircle
 10
1745.913860387696
 20
1415.168562160181
 30
0.0
 40
4.0
100
AcDbArc
 50
155.777152378217
 51
240.0000289848888
  0
LINE
  5
18D
330
1F
100
AcDbEntity
  8
LAY-12
  6
CONTINUOUS
 62
     7
100
AcDbLine
 10
1778.765593003863
 20
1393.892197903166
 30
0.0
 11
1744.817358666363
 21
1413.492230140811
 31
0.0
  0
ARC
  5
18E
330
1F
100
AcDbEntity
  8
LAY-12
  6
CONTINUOUS
 62
     7
100
AcDbCircle
 10
1746.817359432003
 20
1416.956331313906
 30
0.0
 40
4.0
100
AcDbArc
 50
156.1376760651309
 51
239.9999873364152
  0
ARC
  5
18F
330
1F
100
AcDbEntity
  8
LAY-12
  6
CONTINUOUS
 62
     7
100
AcDbCircle
 10
1456.003298186736
 20
1545.598667813501
 30
0.0
 40
313.9963348185654
100
AcDbArc
 50
336.1376760651307
 51
343.5539563229073
  0
ARC
  5
190
330
1F
100
AcDbEntity
  8
LAY-12
  6
CONTINUOUS
 62
     7
100
AcDbCircle
 10
1760.030289469169
 20
1455.853111599527
 30
0.0
 40
3.000000000000002
100
AcDbArc
 50
75.00002021557964
 51
163.5539563229082
  0
ARC
  5
191
330
1F
100
AcDbEntity
  8
LAY-12
  6
CONTINUOUS
 62
     7
100
AcDbCircle
 10
1455.998489161272
 20
1545.600525571708
 30
0.0
 40
361.0014380986997
100
AcDbArc
 50
335.4650482077523
 51
343.7195282902977
  0
LINE
  5
192
330
1F
100
AcDbEntity
  8
LAY-12
  6
CONTINUOUS
 62
     7
100
AcDbLine
 10
1800.42084672157
 20
1448.136337923616
 30
0.0
 11
1760.806745582058
 21
1458.750889352351
 31
0.0
  0
ARC
  5
193
330
1F
100
AcDbEntity
  8
LAY-12
  6
CONTINUOUS
 62
     7
100
AcDbCircle
 10
1799.644390608682
 20
1445.238560170793
 30
0.0
 40
3.000000000000002
100
AcDbArc
 50
343.719528290299
 51
75.00002021558119
  0
ARC
  5
194
330
1F
100
AcDbEntity
  8
LAY-12
  6
CONTINUOUS
 62
     7
100
AcDbCircle
 10
1456.003522406749
 20
1545.599504613983
 30
0.0
 40
313.9963348185654
100
AcDbArc
 50
346.4460436770934
 51
353.8623239348696
  0
ARC
  5
195
330
1F
100
AcDbEntity
  8
LAY-12
  6
CONTINUOUS
 62
     7
100
AcDbCircle
 10
1772.177055472672
 20
1511.600005402184
 30
0.0
 40
4.0
100
AcDbArc
 50
90.00001266358655
 51
173.8623239348693
  0
ARC
  5
196
330
1F
100
AcDbEntity
  8
LAY-12
  6
CONTINUOUS
 62
     7
100
AcDbCircle
 10
1764.171398400473
 20
1471.307940530832
 30
0.0
 40
3.000000000000002
100
AcDbArc
 50
166.446043677093
 51
254.999979784416
  0
LINE
  5
197
330
1F
100
AcDbEntity
  8
LAY-12
  6
CONTINUOUS
 62
     7
100
AcDbLine
 10
1803.009033892018
 20
1457.795583943225
 30
0.0
 11
1763.394940242747
 21
1468.410163325921
 31
0.0
  0
ARC
  5
198
330
1F
100
AcDbEntity
  8
LAY-12
  6
CONTINUOUS
 62
     7
100
AcDbCircle
 10
1803.785492049744
 20
1460.693361148136
 30
0.0
 40
3.000000000000002
100
AcDbArc
 50
254.9999797844255
 51
346.2804717097029
  0
ARC
  5
199
330
1F
100
AcDbEntity
  8
LAY-12
  6
CONTINUOUS
 62
     7
100
AcDbCircle
 10
1455.998428789426
 20
1545.600300260913
 30
0.0
 40
361.0014380986997
100
AcDbArc
 50
346.2804717097029
 51
354.5349517922478
  0
ARC
  5
19A
330
1F
100
AcDbEntity
  8
LAY-12
  6
CONTINUOUS
 62
     7
100
AcDbCircle
 10
1811.377104941396
 20
1511.600014066229
 30
0.0
 40
4.0
100
AcDbArc
 50
354.5349760111577
 51
90.00001266358655
  0
LINE
  5
19B
330
1F
100
AcDbEntity
  8
LAY-12
  6
CONTINUOUS
 62
     7
100
AcDbLine
 10
1811.377104057311
 20
1515.600014066229
 30
0.0
 11
1772.177054588587
 21
1515.600005402184
 31
0.0
  0
LINE
  5
19C
330
1F
100
AcDbEntity
  8
LAY-12
  6
CONTINUOUS
 62
     7
100
AcDbLine
 10
1816.582681564998
 20
1517.599986019941
 30
0.0
 11
1772.288488948396
 21
1517.600008427565
 31
0.0
  0
ARC
  5
19D
330
1F
100
AcDbEntity
  8
LAY-12
  6
CONTINUOUS
 62
     7
100
AcDbCircle
 10
1816.582679541471
 20
1513.599986019941
 30
0.0
 40
4.0
100
AcDbArc
 50
354.9285554313649
 51
89.9999710151103
  0
ARC
  5
19E
330
1F
100
AcDbEntity
  8
LAY-12
  6
CONTINUOUS
 62
     7
100
AcDbCircle
 10
1772.288486924869
 20
1513.600008427566
 30
0.0
 40
4.0
100
AcDbArc
 50
89.9999710151103
 51
174.2228476217838
  0
ARC
  5
19F
330
1F
100
AcDbEntity
  8
LAY-12
  6
CONTINUOUS
 62
     7
100
AcDbCircle
 10
1455.999999999999
 20
1545.6
 30
0.0
 40
365.9998200000003
100
AcDbArc
 50
335.0691192463041
 51
354.9315229180339
  0
LINE
  5
1A0
330
1F
100
AcDbEntity
  8
LAY-12
  6
CONTINUOUS
 62
     7
100
AcDbLine
 10
1757.788533469181
 20
1623.358173110325
 30
0.0
 11
1756.235623110324
 21
1629.153713469182
 31
0.0
  0
LINE
  5
1A1
330
1F
100
AcDbEntity
  8
LAY-12
  6
CONTINUOUS
 62
     7
100
AcDbLine
 10
1757.788533469181
 20
1623.358173110325
 30
0.0
 11
1810.769587362198
 21
1635.568928652551
 31
0.0
  0
LINE
  5
1A2
330
1F
100
AcDbEntity
  8
LAY-12
  6
CONTINUOUS
 62
     7
100
AcDbLine
 10
1808.223939472061
 20
1645.069415916721
 30
0.0
 11
1756.235623110324
 21
1629.153713469182
 31
0.0
  0
LINE
  5
1A3
330
1F
100
AcDbEntity
  8
LAY-12
  6
CONTINUOUS
 62
     7
100
AcDbLine
 10
1757.968053728135
 20
1631.68847131982
 30
0.0
 11
1756.235623110324
 21
1629.153713469182
 31
0.0
  0
LINE
  5
1A4
330
1F
100
AcDbEntity
  8
LAY-12
  6
CONTINUOUS
 62
     7
100
AcDbLine
 10
1760.556241319819
 20
1622.029223728136
 30
0.0
 11
1757.788533469181
 21
1623.358173110325
 31
0.0
  0
ARC
  5
1A5
330
1F
100
AcDbEntity
  8
LAY-12
  6
CONTINUOUS
 62
     7
100
AcDbCircle
 10
1811.377104941396
 20
1579.599985933771
 30
0.0
 40
4.0
100
AcDbArc
 50
269.9999873364136
 51
5.465023988840638
  0
ARC
  5
1A6
330
1F
100
AcDbEntity
  8
LAY-12
  6
CONTINUOUS
 62
     7
100
AcDbCircle
 10
1816.582679541472
 20
1577.600013980059
 30
0.0
 40
4.0
100
AcDbArc
 50
270.0000289848898
 51
5.071444568636816
  0
LINE
  5
1A7
330
1F
100
AcDbEntity
  8
LAY-12
  6
CONTINUOUS
 62
     7
100
AcDbLine
 10
1816.582681564999
 20
1573.600013980059
 30
0.0
 11
1772.288488948396
 21
1573.599991572435
 31
0.0
  0
ARC
  5
1A8
330
1F
100
AcDbEntity
  8
LAY-12
  6
CONTINUOUS
 62
     7
100
AcDbCircle
 10
1772.288486924869
 20
1577.599991572435
 30
0.0
 40
4.0
100
AcDbArc
 50
185.7771523782163
 51
270.0000289848898
  0
LINE
  5
1A9
330
1F
100
AcDbEntity
  8
LAY-12
  6
CONTINUOUS
 62
     7
100
AcDbLine
 10
1811.377104057311
 20
1575.599985933771
 30
0.0
 11
1772.177054588587
 21
1575.599994597816
 31
0.0
  0
ARC
  5
1AA
330
1F
100
AcDbEntity
  8
LAY-12
  6
CONTINUOUS
 62
     7
100
AcDbCircle
 10
1772.177055472672
 20
1579.599994597816
 30
0.0
 40
4.0
100
AcDbArc
 50
186.1376760651306
 51
269.9999873364136
  0
ARC
  5
1AB
330
1F
100
AcDbEntity
  8
LAY-12
  6
CONTINUOUS
 62
     7
100
AcDbCircle
 10
1456.00352240675
 20
1545.600495386018
 30
0.0
 40
313.9963348185654
100
AcDbArc
 50
6.137676065130434
 51
13.55395632290678
  0
ARC
  5
1AC
330
1F
100
AcDbEntity
  8
LAY-12
  6
CONTINUOUS
 62
     7
100
AcDbCircle
 10
1764.171398400473
 20
1619.892059469169
 30
0.0
 40
3.000000000000002
100
AcDbArc
 50
105.000020215584
 51
193.5539563229071
  0
LINE
  5
1AD
330
1F
100
AcDbEntity
  8
LAY-12
  6
CONTINUOUS
 62
     7
100
AcDbLine
 10
1803.009033892019
 20
1633.404416056776
 30
0.0
 11
1763.394940242747
 21
1622.78983667408
 31
0.0
  0
ARC
  5
1AE
330
1F
100
AcDbEntity
  8
LAY-12
  6
CONTINUOUS
 62
     7
100
AcDbCircle
 10
1803.785492049744
 20
1630.506638851865
 30
0.0
 40
3.000000000000002
100
AcDbArc
 50
13.7195282902966
 51
105.0000202155813
  0
ARC
  5
1AF
330
1F
100
AcDbEntity
  8
LAY-12
  6
CONTINUOUS
 62
     7
100
AcDbCircle
 10
1456.003298186736
 20
1545.601332186499
 30
0.0
 40
313.9963348185654
100
AcDbArc
 50
16.44604367709312
 51
23.86232393486934
  0
ARC
  5
1B0
330
1F
100
AcDbEntity
  8
LAY-12
  6
CONTINUOUS
 62
     7
100
AcDbCircle
 10
1746.817359432004
 20
1674.243668686094
 30
0.0
 40
4.0
100
AcDbArc
 50
120.0000126635872
 51
203.8623239348669
  0
ARC
  5
1B1
330
1F
100
AcDbEntity
  8
LAY-12
  6
CONTINUOUS
 62
     7
100
AcDbCircle
 10
1760.030289469169
 20
1635.346888400473
 30
0.0
 40
3.000000000000002
100
AcDbArc
 50
196.4460436770918
 51
284.9999797844205
  0
LINE
  5
1B2
330
1F
100
AcDbEntity
  8
LAY-12
  6
CONTINUOUS
 62
     7
100
AcDbLine
 10
1800.420846721571
 20
1643.063662076384
 30
0.0
 11
1760.806745582058
 21
1632.44911064765
 31
0.0
  0
ARC
  5
1B3
330
1F
100
AcDbEntity
  8
LAY-12
  6
CONTINUOUS
 62
     7
100
AcDbCircle
 10
1799.644390608682
 20
1645.961439829207
 30
0.0
 40
3.000000000000002
100
AcDbArc
 50
284.9999797844232
 51
16.28047170970135
  0
ARC
  5
1B4
330
1F
100
AcDbEntity
  8
LAY-12
  6
CONTINUOUS
 62
     7
100
AcDbCircle
 10
1455.998489161272
 20
1545.599474428292
 30
0.0
 40
361.0014380986997
100
AcDbArc
 50
16.28047170970284
 51
24.53495179224769
  0
ARC
  5
1B5
330
1F
100
AcDbEntity
  8
LAY-12
  6
CONTINUOUS
 62
     7
100
AcDbCircle
 10
1780.765593769503
 20
1693.843700923739
 30
0.0
 40
4.0
100
AcDbArc
 50
24.5349760111584
 51
120.0000126635872
  0
LINE
  5
1B6
330
1F
100
AcDbEntity
  8
LAY-12
  6
CONTINUOUS
 62
     7
100
AcDbLine
 10
1778.765593003863
 20
1697.307802096835
 30
0.0
 11
1744.817358666363
 21
1677.70776985919
 31
0.0
  0
LINE
  5
1B7
330
1F
100
AcDbEntity
  8
LAY-12
  6
CONTINUOUS
 62
     7
100
AcDbLine
 10
1782.273769390034
 20
1701.642617369449
 30
0.0
 11
1743.913862140122
 21
1679.49554046672
 31
0.0
  0
ARC
  5
1B8
330
1F
100
AcDbEntity
  8
LAY-12
  6
CONTINUOUS
 62
     7
100
AcDbCircle
 10
1784.273767637607
 20
1698.178514742548
 30
0.0
 40
4.0
100
AcDbArc
 50
24.92855543136726
 51
119.9999710151089
  0
ARC
  5
1B9
330
1F
100
AcDbEntity
  8
LAY-12
  6
CONTINUOUS
 62
     7
100
AcDbCircle
 10
1745.913860387696
 20
1676.031437839819
 30
0.0
 40
4.0
100
AcDbArc
 50
119.9999710151097
 51
204.2228476217803
  0
ARC
  5
1BA
330
1F
100
AcDbEntity
  8
LAY-12
  6
CONTINUOUS
 62
     7
100
AcDbCircle
 10
1455.999999999999
 20
1545.6
 30
0.0
 40
365.9998200000003
100
AcDbArc
 50
5.069119246303702
 51
24.93152291803328
  0
LINE
  5
1BB
330
1F
100
AcDbEntity
  8
LAY-12
  6
CONTINUOUS
 62
     7
100
AcDbLine
 10
1678.477449999999
 20
1763.83482
 30
0.0
 11
1674.234819999999
 21
1768.07745
 31
0.0
  0
LINE
  5
1BC
330
1F
100
AcDbEntity
  8
LAY-12
  6
CONTINUOUS
 62
     7
100
AcDbLine
 10
1678.477449999999
 20
1763.83482
 30
0.0
 11
1718.255010819511
 21
1800.900171445478
 31
0.0
  0
LINE
  5
1BD
330
1F
100
AcDbEntity
  8
LAY-12
  6
CONTINUOUS
 62
     7
100
AcDbLine
 10
1711.300171445477
 20
1807.855010819512
 30
0.0
 11
1674.234819999999
 21
1768.07745
 31
0.0
  0
LINE
  5
1BE
330
1F
100
AcDbEntity
  8
LAY-12
  6
CONTINUOUS
 62
     7
100
AcDbLine
 10
1674.467769999999
 20
1771.13883
 30
0.0
 11
1674.234819999999
 21
1768.07745
 31
0.0
  0
LINE
  5
1BF
330
1F
100
AcDbEntity
  8
LAY-12
  6
CONTINUOUS
 62
     7
100
AcDbLine
 10
1681.53883
 20
1764.06777
 30
0.0
 11
1678.477449999999
 21
1763.83482
 31
0.0
  0
ARC
  5
1C0
330
1F
100
AcDbEntity
  8
LAY-12
  6
CONTINUOUS
 62
     7
100
AcDbCircle
 10
1746.765607835732
 20
1752.733404017658
 30
0.0
 40
4.0
100
AcDbArc
 50
299.9999873364135
 51
35.46502398884237
  0
ARC
  5
1C1
330
1F
100
AcDbEntity
  8
LAY-12
  6
CONTINUOUS
 62
     7
100
AcDbCircle
 10
1752.273753657549
 20
1753.604164798925
 30
0.0
 40
4.0
100
AcDbArc
 50
300.00002898489
 51
35.07144456863436
  0
LINE
  5
1C2
330
1F
100
AcDbEntity
  8
LAY-12
  6
CONTINUOUS
 62
     7
100
AcDbLine
 10
1754.273755409974
 20
1750.140064195551
 30
0.0
 11
1715.913870567687
 21
1727.992948481677
 31
0.0
  0
ARC
  5
1C3
330
1F
100
AcDbEntity
  8
LAY-12
  6
CONTINUOUS
 62
     7
100
AcDbCircle
 10
1713.913868815262
 20
1731.457049085051
 30
0.0
 40
4.0
100
AcDbArc
 50
215.7771523782167
 51
300.0000289848893
  0
LINE
  5
1C4
330
1F
100
AcDbEntity
  8
LAY-12
  6
CONTINUOUS
 62
     7
100
AcDbLine
 10
1748.765607070092
 20
1749.269301960478
 30
0.0
 11
1714.817364068547
 21
1729.669284729398
 31
0.0
  0
ARC
  5
1C5
330
1F
100
AcDbEntity
  8
LAY-12
  6
CONTINUOUS
 62
     7
100
AcDbCircle
 10
1712.817364834188
 20
1733.133386786579
 30
0.0
 40
4.0
100
AcDbArc
 50
216.1376760651287
 51
299.9999873364135
  0
ARC
  5
1C6
330
1F
100
AcDbEntity
  8
LAY-12
  6
CONTINUOUS
 62
     7
100
AcDbCircle
 10
1456.002802800719
 20
1545.602190220251
 30
0.0
 40
313.9963348185654
100
AcDbArc
 50
36.13767606513044
 51
43.55395632290674
  0
ARC
  5
1C7
330
1F
100
AcDbEntity
  8
LAY-12
  6
CONTINUOUS
 62
     7
100
AcDbCircle
 10
1685.738230000001
 20
1764.024510000002
 30
0.0
 40
3.000000000000002
100
AcDbArc
 50
135.000020215583
 51
223.5539563229066
  0
ARC
  5
1C8
330
1F
100
AcDbEntity
  8
LAY-12
  6
CONTINUOUS
 62
     7
100
AcDbCircle
 10
1455.998789422185
 20
1545.598954361136
 30
0.0
 40
361.0014380986997
100
AcDbArc
 50
35.46504820775204
 51
43.71952829029701
  0
LINE
  5
1C9
330
1F
100
AcDbEntity
  8
LAY-12
  6
CONTINUOUS
 62
     7
100
AcDbLine
 10
1712.616430664796
 20
1795.145371815636
 30
0.0
 11
1683.616908907979
 21
1766.145829595098
 31
0.0
  0
ARC
  5
1CA
330
1F
100
AcDbEntity
  8
LAY-12
  6
CONTINUOUS
 62
     7
100
AcDbCircle
 10
1714.737751756817
 20
1793.024052220538
 30
0.0
 40
3.000000000000002
100
AcDbArc
 50
43.71952829029946
 51
135.00002021558
  0
ARC
  5
1CB
330
1F
100
AcDbEntity
  8
LAY-12
  6
CONTINUOUS
 62
     7
100
AcDbCircle
 10
1456.00219022025
 20
1545.60280280072
 30
0.0
 40
313.9963348185654
100
AcDbArc
 50
46.44604367709312
 51
53.86232393486941
  0
ARC
  5
1CC
330
1F
100
AcDbEntity
  8
LAY-12
  6
CONTINUOUS
 62
     7
100
AcDbCircle
 10
1643.533386786578
 20
1802.417364834188
 30
0.0
 40
4.0
100
AcDbArc
 50
150.0000126635853
 51
233.8623239348694
  0
ARC
  5
1CD
330
1F
100
AcDbEntity
  8
LAY-12
  6
CONTINUOUS
 62
     7
100
AcDbCircle
 10
1674.42451
 20
1775.338230000002
 30
0.0
 40
3.000000000000002
100
AcDbArc
 50
226.4460436770984
 51
314.9999797844202
  0
LINE
  5
1CE
330
1F
100
AcDbEntity
  8
LAY-12
  6
CONTINUOUS
 62
     7
100
AcDbLine
 10
1705.545371815635
 20
1802.216430664796
 30
0.0
 11
1676.545829595098
 21
1773.21690890798
 31
0.0
  0
ARC
  5
1CF
330
1F
100
AcDbEntity
  8
LAY-12
  6
CONTINUOUS
 62
     7
100
AcDbCircle
 10
1703.424052220537
 20
1804.337751756818
 30
0.0
 40
3.000000000000002
100
AcDbArc
 50
314.9999797844202
 51
46.28047170970514
  0
ARC
  5
1D0
330
1F
100
AcDbEntity
  8
LAY-12
  6
CONTINUOUS
 62
     7
100
AcDbCircle
 10
1455.998954361135
 20
1545.598789422186
 30
0.0
 40
361.0014380986997
100
AcDbArc
 50
46.28047170970273
 51
54.53495179224775
  0
ARC
  5
1D1
330
1F
100
AcDbEntity
  8
LAY-12
  6
CONTINUOUS
 62
     7
100
AcDbCircle
 10
1663.133404017657
 20
1836.365607835733
 30
0.0
 40
4.0
100
AcDbArc
 50
54.53497601116081
 51
150.0000126635846
  0
LINE
  5
1D2
330
1F
100
AcDbEntity
  8
LAY-12
  6
CONTINUOUS
 62
     7
100
AcDbLine
 10
1659.669301960477
 20
1838.365607070093
 30
0.0
 11
1640.069284729398
 21
1804.417364068548
 31
0.0
  0
LINE
  5
1D3
330
1F
100
AcDbEntity
  8
LAY-12
  6
CONTINUOUS
 62
     7
100
AcDbLine
 10
1660.54006419555
 20
1843.873755409975
 30
0.0
 11
1638.392948481677
 21
1805.513870567689
 31
0.0
  0
ARC
  5
1D4
330
1F
100
AcDbEntity
  8
LAY-12
  6
CONTINUOUS
 62
     7
100
AcDbCircle
 10
1664.004164798924
 20
1841.87375365755
 30
0.0
 40
4.0
100
AcDbArc
 50
54.92855543136423
 51
149.9999710151116
  0
ARC
  5
1D5
330
1F
100
AcDbEntity
  8
LAY-12
  6
CONTINUOUS
 62
     7
100
AcDbCircle
 10
1641.85704908505
 20
1803.513868815262
 30
0.0
 40
4.0
100
AcDbArc
 50
149.9999710151101
 51
234.2228476217849
  0
ARC
  5
1D6
330
1F
100
AcDbEntity
  8
LAY-12
  6
CONTINUOUS
 62
     7
100
AcDbCircle
 10
1455.999999999999
 20
1545.6
 30
0.0
 40
365.9998200000003
100
AcDbArc
 50
35.06911924630371
 51
54.93152291803329
  0
LINE
  5
1D7
330
1F
100
AcDbEntity
  8
LAY-12
  6
CONTINUOUS
 62
     7
100
AcDbLine
 10
1539.553713469181
 20
1845.835623110325
 30
0.0
 11
1533.758173110324
 21
1847.388533469183
 31
0.0
  0
LINE
  5
1D8
330
1F
100
AcDbEntity
  8
LAY-12
  6
CONTINUOUS
 62
     7
100
AcDbLine
 10
1539.553713469181
 20
1845.835623110325
 30
0.0
 11
1555.46941591672
 21
1897.823939472063
 31
0.0
  0
LINE
  5
1D9
330
1F
100
AcDbEntity
  8
LAY-12
  6
CONTINUOUS
 62
     7
100
AcDbLine
 10
1545.968928652549
 20
1900.369587362199
 30
0.0
 11
1533.758173110324
 21
1847.388533469183
 31
0.0
  0
LINE
  5
1DA
330
1F
100
AcDbEntity
  8
LAY-12
  6
CONTINUOUS
 62
     7
100
AcDbLine
 10
1532.429223728135
 20
1850.15624131982
 30
0.0
 11
1533.758173110324
 21
1847.388533469183
 31
0.0
  0
LINE
  5
1DB
330
1F
100
AcDbEntity
  8
LAY-12
  6
CONTINUOUS
 62
     7
100
AcDbLine
 10
1542.088471319819
 20
1847.568053728136
 30
0.0
 11
1539.553713469181
 21
1845.835623110325
 31
0.0
  0
ARC
  5
1DC
330
1F
100
AcDbEntity
  8
LAY-12
  6
CONTINUOUS
 62
     7
100
AcDbCircle
 10
1604.243700923738
 20
1870.365593769504
 30
0.0
 40
4.0
100
AcDbArc
 50
329.9999873364139
 51
65.4650239888394
  0
ARC
  5
1DD
330
1F
100
AcDbEntity
  8
LAY-12
  6
CONTINUOUS
 62
     7
100
AcDbCircle
 10
1608.578514742548
 20
1873.873767637608
 30
0.0
 40
4.0
100
AcDbArc
 50
330.0000289848879
 51
65.071444568637
  0
LINE
  5
1DE
330
1F
100
AcDbEntity
  8
LAY-12
  6
CONTINUOUS
 62
     7
100
AcDbLine
 10
1612.042617369448
 20
1871.873769390034
 30
0.0
 11
1589.895540466719
 21
1833.513862140123
 31
0.0
  0
ARC
  5
1DF
330
1F
100
AcDbEntity
  8
LAY-12
  6
CONTINUOUS
 62
     7
100
AcDbCircle
 10
1586.431437839818
 20
1835.513860387697
 30
0.0
 40
4.0
100
AcDbArc
 50
245.7771523782191
 51
330.0000289848898
  0
LINE
  5
1E0
330
1F
100
AcDbEntity
  8
LAY-12
  6
CONTINUOUS
 62
     7
100
AcDbLine
 10
1607.707802096834
 20
1868.365593003864
 30
0.0
 11
1588.107769859188
 21
1834.417358666364
 31
0.0
  0
ARC
  5
1E1
330
1F
100
AcDbEntity
  8
LAY-12
  6
CONTINUOUS
 62
     7
100
AcDbCircle
 10
1584.643668686093
 20
1836.417359432004
 30
0.0
 40
4.0
100
AcDbArc
 50
246.1376760651296
 51
329.9999873364139
  0
ARC
  5
1E2
330
1F
100
AcDbEntity
  8
LAY-12
  6
CONTINUOUS
 62
     7
100
AcDbCircle
 10
1456.001332186499
 20
1545.603298186737
 30
0.0
 40
313.9963348185654
100
AcDbArc
 50
66.13767606513045
 51
73.55395632290679
  0
ARC
  5
1E3
330
1F
100
AcDbEntity
  8
LAY-12
  6
CONTINUOUS
 62
     7
100
AcDbCircle
 10
1545.746888400472
 20
1849.63028946917
 30
0.0
 40
3.000000000000002
100
AcDbArc
 50
165.0000202155792
 51
253.5539563229085
  0
ARC
  5
1E4
330
1F
100
AcDbEntity
  8
LAY-12
  6
CONTINUOUS
 62
     7
100
AcDbCircle
 10
1455.999474428291
 20
1545.598489161273
 30
0.0
 40
361.0014380986997
100
AcDbArc
 50
65.46504820775216
 51
73.71952829029708
  0
LINE
  5
1E5
330
1F
100
AcDbEntity
  8
LAY-12
  6
CONTINUOUS
 62
     7
100
AcDbLine
 10
1553.463662076383
 20
1890.020846721572
 30
0.0
 11
1542.849110647649
 21
1850.406745582059
 31
0.0
  0
ARC
  5
1E6
330
1F
100
AcDbEntity
  8
LAY-12
  6
CONTINUOUS
 62
     7
100
AcDbCircle
 10
1556.361439829206
 20
1889.244390608682
 30
0.0
 40
3.000000000000002
100
AcDbArc
 50
73.71952829029651
 51
165.0000202155792
  0
ARC
  5
1E7
330
1F
100
AcDbEntity
  8
LAY-12
  6
CONTINUOUS
 62
     7
100
AcDbCircle
 10
1456.000495386017
 20
1545.60352240675
 30
0.0
 40
313.9963348185654
100
AcDbArc
 50
76.44604367709313
 51
83.86232393486941
  0
ARC
  5
1E8
330
1F
100
AcDbEntity
  8
LAY-12
  6
CONTINUOUS
 62
     7
100
AcDbCircle
 10
1489.999994597815
 20
1861.777055472674
 30
0.0
 40
4.0
100
AcDbArc
 50
180.0000126635867
 51
263.8623239348697
  0
ARC
  5
1E9
330
1F
100
AcDbEntity
  8
LAY-12
  6
CONTINUOUS
 62
     7
100
AcDbCircle
 10
1530.292059469168
 20
1853.771398400474
 30
0.0
 40
3.000000000000002
100
AcDbArc
 50
256.4460436770942
 51
344.9999797844197
  0
LINE
  5
1EA
330
1F
100
AcDbEntity
  8
LAY-12
  6
CONTINUOUS
 62
     7
100
AcDbLine
 10
1543.804416056775
 20
1892.609033892019
 30
0.0
 11
1533.189836674078
 21
1852.994940242748
 31
0.0
  0
ARC
  5
1EB
330
1F
100
AcDbEntity
  8
LAY-12
  6
CONTINUOUS
 62
     7
100
AcDbCircle
 10
1540.906638851864
 20
1893.385492049746
 30
0.0
 40
3.000000000000002
100
AcDbArc
 50
344.9999797844252
 51
76.28047170970126
  0
ARC
  5
1EC
330
1F
100
AcDbEntity
  8
LAY-12
  6
CONTINUOUS
 62
     7
100
AcDbCircle
 10
1455.999699739086
 20
1545.598428789428
 30
0.0
 40
361.0014380986997
100
AcDbArc
 50
76.2804717097028
 51
84.53495179224777
  0
ARC
  5
1ED
330
1F
100
AcDbEntity
  8
LAY-12
  6
CONTINUOUS
 62
     7
100
AcDbCircle
 10
1489.99998593377
 20
1900.977104941397
 30
0.0
 40
4.0
100
AcDbArc
 50
84.53497601115933
 51
180.0000126635851
  0
LINE
  5
1EE
330
1F
100
AcDbEntity
  8
LAY-12
  6
CONTINUOUS
 62
     7
100
AcDbLine
 10
1485.99998593377
 20
1900.977104057313
 30
0.0
 11
1485.999994597815
 21
1861.777054588588
 31
0.0
  0
LINE
  5
1EF
330
1F
100
AcDbEntity
  8
LAY-12
  6
CONTINUOUS
 62
     7
100
AcDbLine
 10
1484.000013980059
 20
1906.182681565
 30
0.0
 11
1483.999991572434
 21
1861.888488948397
 31
0.0
  0
ARC
  5
1F0
330
1F
100
AcDbEntity
  8
LAY-12
  6
CONTINUOUS
 62
     7
100
AcDbCircle
 10
1488.000013980058
 20
1906.182679541473
 30
0.0
 40
4.0
100
AcDbArc
 50
84.92855543136339
 51
179.9999710151104
  0
ARC
  5
1F1
330
1F
100
AcDbEntity
  8
LAY-12
  6
CONTINUOUS
 62
     7
100
AcDbCircle
 10
1487.999991572433
 20
1861.88848692487
 30
0.0
 40
4.0
100
AcDbArc
 50
179.9999710151104
 51
264.222847621782
  0
ARC
  5
1F2
330
1F
100
AcDbEntity
  8
LAY-12
  6
CONTINUOUS
 62
     7
100
AcDbCircle
 10
1455.999999999999
 20
1545.6
 30
0.0
 40
365.9998200000003
100
AcDbArc
 50
65.06911924630373
 51
84.9315229180333
  0
LINE
  5
1F3
330
1F
100
AcDbEntity
  8
LAY-12
  6
CONTINUOUS
 62
     7
100
AcDbLine
 10
1378.241826889675
 20
1847.388533469183
 30
0.0
 11
1372.446286530817
 21
1845.835623110325
 31
0.0
  0
LINE
  5
1F4
330
1F
100
AcDbEntity
  8
LAY-12
  6
CONTINUOUS
 62
     7
100
AcDbLine
 10
1378.241826889675
 20
1847.388533469183
 30
0.0
 11
1366.031071347449
 21
1900.369587362199
 31
0.0
  0
LINE
  5
1F5
330
1F
100
AcDbEntity
  8
LAY-12
  6
CONTINUOUS
 62
     7
100
AcDbLine
 10
1356.530584083278
 20
1897.823939472063
 30
0.0
 11
1372.446286530817
 21
1845.835623110325
 31
0.0
  0
LINE
  5
1F6
330
1F
100
AcDbEntity
  8
LAY-12
  6
CONTINUOUS
 62
     7
100
AcDbLine
 10
1369.911528680179
 20
1847.568053728136
 30
0.0
 11
1372.446286530817
 21
1845.835623110325
 31
0.0
  0
LINE
  5
1F7
330
1F
100
AcDbEntity
  8
LAY-12
  6
CONTINUOUS
 62
     7
100
AcDbLine
 10
1379.570776271863
 20
1850.15624131982
 30
0.0
 11
1378.241826889675
 21
1847.388533469183
 31
0.0
  0
ARC
  5
1F8
330
1F
100
AcDbEntity
  8
LAY-12
  6
CONTINUOUS
 62
     7
100
AcDbCircle
 10
1422.000014066228
 20
1900.977104941398
 30
0.0
 40
4.0
100
AcDbArc
 50
359.9999873364154
 51
95.46502398884067
  0
ARC
  5
1F9
330
1F
100
AcDbEntity
  8
LAY-12
  6
CONTINUOUS
 62
     7
100
AcDbCircle
 10
1423.99998601994
 20
1906.182679541473
 30
0.0
 40
4.0
100
AcDbArc
 50
0.0000289848896088
 51
95.07144456863496
  0
LINE
  5
1FA
330
1F
100
AcDbEntity
  8
LAY-12
  6
CONTINUOUS
 62
     7
100
AcDbLine
 10
1427.99998601994
 20
1906.182681565001
 30
0.0
 11
1428.000008427564
 21
1861.888488948397
 31
0.0
  0
ARC
  5
1FB
330
1F
100
AcDbEntity
  8
LAY-12
  6
CONTINUOUS
 62
     7
100
AcDbCircle
 10
1424.000008427565
 20
1861.88848692487
 30
0.0
 40
4.0
100
AcDbArc
 50
275.7771523782149
 51
0.0000289848928746
  0
LINE
  5
1FC
330
1F
100
AcDbEntity
  8
LAY-12
  6
CONTINUOUS
 62
     7
100
AcDbLine
 10
1426.000014066228
 20
1900.977104057313
 30
0.0
 11
1426.000005402183
 21
1861.777054588588
 31
0.0
  0
ARC
  5
1FD
330
1F
100
AcDbEntity
  8
LAY-12
  6
CONTINUOUS
 62
     7
100
AcDbCircle
 10
1422.000005402183
 20
1861.777055472674
 30
0.0
 40
4.0
100
AcDbArc
 50
276.137676065129
 51
359.9999873364137
  0
ARC
  5
1FE
330
1F
100
AcDbEntity
  8
LAY-12
  6
CONTINUOUS
 62
     7
100
AcDbCircle
 10
1455.999504613982
 20
1545.603522406751
 30
0.0
 40
313.9963348185654
100
AcDbArc
 50
96.13767606513045
 51
103.5539563229067
  0
ARC
  5
1FF
330
1F
100
AcDbEntity
  8
LAY-12
  6
CONTINUOUS
 62
     7
100
AcDbCircle
 10
1381.707940530831
 20
1853.771398400474
 30
0.0
 40
3.000000000000002
100
AcDbArc
 50
195.000020215582
 51
283.5539563229062
  0
ARC
  5
200
330
1F
100
AcDbEntity
  8
LAY-12
  6
CONTINUOUS
 62
     7
100
AcDbCircle
 10
1456.000300260912
 20
1545.598428789428
 30
0.0
 40
361.0014380986997
100
AcDbArc
 50
95.46504820775212
 51
103.7195282902971
  0
LINE
  5
201
330
1F
100
AcDbEntity
  8
LAY-12
  6
CONTINUOUS
 62
     7
100
AcDbLine
 10
1368.195583943224
 20
1892.60903389202
 30
0.0
 11
1378.81016332592
 21
1852.994940242749
 31
0.0
  0
ARC
  5
202
330
1F
100
AcDbEntity
  8
LAY-12
  6
CONTINUOUS
 62
     7
100
AcDbCircle
 10
1371.093361148135
 20
1893.385492049746
 30
0.0
 40
3.000000000000002
100
AcDbArc
 50
103.7195282902988
 51
195.0000202155813
  0
ARC
  5
203
330
1F
100
AcDbEntity
  8
LAY-12
  6
CONTINUOUS
 62
     7
100
AcDbCircle
 10
1455.9986678135
 20
1545.603298186737
 30
0.0
 40
313.9963348185654
100
AcDbArc
 50
106.4460436770931
 51
113.8623239348694
  0
ARC
  5
204
330
1F
100
AcDbEntity
  8
LAY-12
  6
CONTINUOUS
 62
     7
100
AcDbCircle
 10
1327.356331313905
 20
1836.417359432005
 30
0.0
 40
4.0
100
AcDbArc
 50
210.0000126635872
 51
293.8623239348702
  0
ARC
  5
205
330
1F
100
AcDbEntity
  8
LAY-12
  6
CONTINUOUS
 62
     7
100
AcDbCircle
 10
1366.253111599526
 20
1849.63028946917
 30
0.0
 40
3.000000000000002
100
AcDbArc
 50
286.4460436770946
 51
14.99997978441609
  0
LINE
  5
206
330
1F
100
AcDbEntity
  8
LAY-12
  6
CONTINUOUS
 62
     7
100
AcDbLine
 10
1358.536337923616
 20
1890.020846721572
 30
0.0
 11
1369.15088935235
 21
1850.406745582059
 31
0.0
  0
ARC
  5
207
330
1F
100
AcDbEntity
  8
LAY-12
  6
CONTINUOUS
 62
     7
100
AcDbCircle
 10
1355.638560170793
 20
1889.244390608682
 30
0.0
 40
3.000000000000002
100
AcDbArc
 50
14.99997978442297
 51
106.2804717097034
  0
ARC
  5
208
330
1F
100
AcDbEntity
  8
LAY-12
  6
CONTINUOUS
 62
     7
100
AcDbCircle
 10
1456.000525571707
 20
1545.598489161274
 30
0.0
 40
361.0014380986997
100
AcDbArc
 50
106.2804717097028
 51
114.5349517922477
  0
ARC
  5
209
330
1F
100
AcDbEntity
  8
LAY-12
  6
CONTINUOUS
 62
     7
100
AcDbCircle
 10
1307.75629907626
 20
1870.365593769504
 30
0.0
 40
4.0
100
AcDbArc
 50
114.5349760111598
 51
210.0000126635868
  0
LINE
  5
20A
330
1F
100
AcDbEntity
  8
LAY-12
  6
CONTINUOUS
 62
     7
100
AcDbLine
 10
1304.292197903165
 20
1868.365593003864
 30
0.0
 11
1323.89223014081
 21
1834.417358666365
 31
0.0
  0
LINE
  5
20B
330
1F
100
AcDbEntity
  8
LAY-12
  6
CONTINUOUS
 62
     7
100
AcDbLine
 10
1299.95738263055
 20
1871.873769390034
 30
0.0
 11
1322.104459533279
 21
1833.513862140123
 31
0.0
  0
ARC
  5
20C
330
1F
100
AcDbEntity
  8
LAY-12
  6
CONTINUOUS
 62
     7
100
AcDbCircle
 10
1303.421485257451
 20
1873.873767637608
 30
0.0
 40
4.0
100
AcDbArc
 50
114.9285554313637
 51
209.9999710151094
  0
ARC
  5
20D
330
1F
100
AcDbEntity
  8
LAY-12
  6
CONTINUOUS
 62
     7
100
AcDbCircle
 10
1325.56856216018
 20
1835.513860387697
 30
0.0
 40
4.0
100
AcDbArc
 50
209.9999710151094
 51
294.2228476217823
  0
ARC
  5
20E
330
1F
100
AcDbEntity
  8
LAY-12
  6
CONTINUOUS
 62
     7
100
AcDbCircle
 10
1455.999999999999
 20
1545.6
 30
0.0
 40
365.9998200000003
100
AcDbArc
 50
95.06911924630373
 51
114.9315229180334
  0
LINE
  5
20F
330
1F
100
AcDbEntity
  8
LAY-12
  6
CONTINUOUS
 62
     7
100
AcDbLine
 10
1237.765179999999
 20
1768.07745
 30
0.0
 11
1233.522549999999
 21
1763.83482
 31
0.0
  0
LINE
  5
210
330
1F
100
AcDbEntity
  8
LAY-12
  6
CONTINUOUS
 62
     7
100
AcDbLine
 10
1237.765179999999
 20
1768.07745
 30
0.0
 11
1200.699828554521
 21
1807.855010819512
 31
0.0
  0
LINE
  5
211
330
1F
100
AcDbEntity
  8
LAY-12
  6
CONTINUOUS
 62
     7
100
AcDbLine
 10
1193.744989180488
 20
1800.900171445478
 30
0.0
 11
1233.522549999999
 21
1763.83482
 31
0.0
  0
LINE
  5
212
330
1F
100
AcDbEntity
  8
LAY-12
  6
CONTINUOUS
 62
     7
100
AcDbLine
 10
1230.461169999999
 20
1764.06777
 30
0.0
 11
1233.522549999999
 21
1763.83482
 31
0.0
  0
LINE
  5
213
330
1F
100
AcDbEntity
  8
LAY-12
  6
CONTINUOUS
 62
     7
100
AcDbLine
 10
1237.532229999999
 20
1771.13883
 30
0.0
 11
1237.765179999999
 21
1768.07745
 31
0.0
  0
ARC
  5
214
330
1F
100
AcDbEntity
  8
LAY-12
  6
CONTINUOUS
 62
     7
100
AcDbCircle
 10
1248.866595982342
 20
1836.365607835733
 30
0.0
 40
4.0
100
AcDbArc
 50
29.99998733641422
 51
125.4650239888391
  0
ARC
  5
215
330
1F
100
AcDbEntity
  8
LAY-12
  6
CONTINUOUS
 62
     7
100
AcDbCircle
 10
1247.995835201075
 20
1841.87375365755
 30
0.0
 40
4.0
100
AcDbArc
 50
30.0000289848891
 51
125.0714445686363
  0
LINE
  5
216
330
1F
100
AcDbEntity
  8
LAY-12
  6
CONTINUOUS
 62
     7
100
AcDbLine
 10
1251.459935804449
 20
1843.873755409976
 30
0.0
 11
1273.607051518322
 21
1805.513870567689
 31
0.0
  0
ARC
  5
217
330
1F
100
AcDbEntity
  8
LAY-12
  6
CONTINUOUS
 62
     7
100
AcDbCircle
 10
1270.142950914948
 20
1803.513868815263
 30
0.0
 40
4.0
100
AcDbArc
 50
305.7771523782176
 51
30.00002898489277
  0
LINE
  5
218
330
1F
100
AcDbEntity
  8
LAY-12
  6
CONTINUOUS
 62
     7
100
AcDbLine
 10
1252.330698039522
 20
1838.365607070093
 30
0.0
 11
1271.930715270601
 21
1804.417364068549
 31
0.0
  0
ARC
  5
219
330
1F
100
AcDbEntity
  8
LAY-12
  6
CONTINUOUS
 62
     7
100
AcDbCircle
 10
1268.466613213421
 20
1802.417364834189
 30
0.0
 40
4.0
100
AcDbArc
 50
306.137676065131
 51
29.99998733641445
  0
ARC
  5
21A
330
1F
100
AcDbEntity
  8
LAY-12
  6
CONTINUOUS
 62
     7
100
AcDbCircle
 10
1455.997809779748
 20
1545.60280280072
 30
0.0
 40
313.9963348185654
100
AcDbArc
 50
126.1376760651305
 51
133.5539563229068
  0
ARC
  5
21B
330
1F
100
AcDbEntity
  8
LAY-12
  6
CONTINUOUS
 62
     7
100
AcDbCircle
 10
1237.575489999998
 20
1775.338230000002
 30
0.0
 40
3.000000000000002
100
AcDbArc
 50
225.0000202155823
 51
313.5539563229035
  0
ARC
  5
21C
330
1F
100
AcDbEntity
  8
LAY-12
  6
CONTINUOUS
 62
     7
100
AcDbCircle
 10
1456.001045638864
 20
1545.598789422186
 30
0.0
 40
361.0014380986997
100
AcDbArc
 50
125.4650482077522
 51
133.7195282902971
  0
LINE
  5
21D
330
1F
100
AcDbEntity
  8
LAY-12
  6
CONTINUOUS
 62
     7
100
AcDbLine
 10
1206.454628184364
 20
1802.216430664797
 30
0.0
 11
1235.454170404901
 21
1773.21690890798
 31
0.0
  0
ARC
  5
21E
330
1F
100
AcDbEntity
  8
LAY-12
  6
CONTINUOUS
 62
     7
100
AcDbCircle
 10
1208.575947779461
 20
1804.337751756818
 30
0.0
 40
3.000000000000002
100
AcDbArc
 50
133.7195282902956
 51
225.0000202155792
  0
ARC
  5
21F
330
1F
100
AcDbEntity
  8
LAY-12
  6
CONTINUOUS
 62
     7
100
AcDbCircle
 10
1455.99719719928
 20
1545.602190220252
 30
0.0
 40
313.9963348185654
100
AcDbArc
 50
136.4460436770932
 51
143.8623239348695
  0
ARC
  5
220
330
1F
100
AcDbEntity
  8
LAY-12
  6
CONTINUOUS
 62
     7
100
AcDbCircle
 10
1199.182635165811
 20
1733.133386786579
 30
0.0
 40
4.0
100
AcDbArc
 50
240.0000126635875
 51
323.8623239348712
  0
ARC
  5
221
330
1F
100
AcDbEntity
  8
LAY-12
  6
CONTINUOUS
 62
     7
100
AcDbCircle
 10
1226.261769999998
 20
1764.024510000002
 30
0.0
 40
3.000000000000002
100
AcDbArc
 50
316.4460436770905
 51
44.99997978441696
  0
LINE
  5
222
330
1F
100
AcDbEntity
  8
LAY-12
  6
CONTINUOUS
 62
     7
100
AcDbLine
 10
1199.383569335203
 20
1795.145371815636
 30
0.0
 11
1228.38309109202
 21
1766.145829595099
 31
0.0
  0
ARC
  5
223
330
1F
100
AcDbEntity
  8
LAY-12
  6
CONTINUOUS
 62
     7
100
AcDbCircle
 10
1197.262248243182
 20
1793.024052220538
 30
0.0
 40
3.000000000000002
100
AcDbArc
 50
44.99997978442229
 51
136.2804717097005
  0
ARC
  5
224
330
1F
100
AcDbEntity
  8
LAY-12
  6
CONTINUOUS
 62
     7
100
AcDbCircle
 10
1456.001210577813
 20
1545.598954361136
 30
0.0
 40
361.0014380986997
100
AcDbArc
 50
136.2804717097028
 51
144.5349517922479
  0
ARC
  5
225
330
1F
100
AcDbEntity
  8
LAY-12
  6
CONTINUOUS
 62
     7
100
AcDbCircle
 10
1165.234392164266
 20
1752.733404017658
 30
0.0
 40
4.0
100
AcDbArc
 50
144.5349760111581
 51
240.000012663586
  0
LINE
  5
226
330
1F
100
AcDbEntity
  8
LAY-12
  6
CONTINUOUS
 62
     7
100
AcDbLine
 10
1163.234392929907
 20
1749.269301960478
 30
0.0
 11
1197.182635931451
 21
1729.669284729399
 31
0.0
  0
LINE
  5
227
330
1F
100
AcDbEntity
  8
LAY-12
  6
CONTINUOUS
 62
     7
100
AcDbLine
 10
1157.726244590024
 20
1750.140064195551
 30
0.0
 11
1196.086129432311
 21
1727.992948481678
 31
0.0
  0
ARC
  5
228
330
1F
100
AcDbEntity
  8
LAY-12
  6
CONTINUOUS
 62
     7
100
AcDbCircle
 10
1159.72624634245
 20
1753.604164798925
 30
0.0
 40
4.0
100
AcDbArc
 50
144.9285554313653
 51
239.9999710151119
  0
ARC
  5
229
330
1F
100
AcDbEntity
  8
LAY-12
  6
CONTINUOUS
 62
     7
100
AcDbCircle
 10
1198.086131184737
 20
1731.457049085051
 30
0.0
 40
4.0
100
AcDbArc
 50
239.9999710151087
 51
324.2228476217828
  0
ARC
  5
22A
330
1F
100
AcDbEntity
  8
LAY-12
  6
CONTINUOUS
 62
     7
100
AcDbCircle
 10
1455.999999999999
 20
1545.6
 30
0.0
 40
365.9998200000003
100
AcDbArc
 50
125.0691192463037
 51
144.9315229180334
  0
LINE
  5
22B
330
1F
100
AcDbEntity
  8
LAY-12
  6
CONTINUOUS
 62
     7
100
AcDbLine
 10
1155.764376889675
 20
1629.153713469183
 30
0.0
 11
1154.211466530817
 21
1623.358173110325
 31
0.0
  0
LINE
  5
22C
330
1F
100
AcDbEntity
  8
LAY-12
  6
CONTINUOUS
 62
     7
100
AcDbLine
 10
1155.764376889675
 20
1629.153713469183
 30
0.0
 11
1103.776060527937
 21
1645.069415916721
 31
0.0
  0
LINE
  5
22D
330
1F
100
AcDbEntity
  8
LAY-12
  6
CONTINUOUS
 62
     7
100
AcDbLine
 10
1101.2304126378
 20
1635.568928652551
 30
0.0
 11
1154.211466530817
 21
1623.358173110325
 31
0.0
  0
LINE
  5
22E
330
1F
100
AcDbEntity
  8
LAY-12
  6
CONTINUOUS
 62
     7
100
AcDbLine
 10
1151.443758680179
 20
1622.029223728136
 30
0.0
 11
1154.211466530817
 21
1623.358173110325
 31
0.0
  0
LINE
  5
22F
330
1F
100
AcDbEntity
  8
LAY-12
  6
CONTINUOUS
 62
     7
100
AcDbLine
 10
1154.031946271863
 20
1631.68847131982
 30
0.0
 11
1155.764376889675
 21
1629.153713469183
 31
0.0
  0
ARC
  5
230
330
1F
100
AcDbEntity
  8
LAY-12
  6
CONTINUOUS
 62
     7
100
AcDbCircle
 10
1131.234406230495
 20
1693.84370092374
 30
0.0
 40
4.0
100
AcDbArc
 50
59.99998733641355
 51
155.4650239888417
  0
ARC
  5
231
330
1F
100
AcDbEntity
  8
LAY-12
  6
CONTINUOUS
 62
     7
100
AcDbCircle
 10
1127.726232362391
 20
1698.178514742548
 30
0.0
 40
4.0
100
AcDbArc
 50
60.00002898488952
 51
155.0714445686348
  0
LINE
  5
232
330
1F
100
AcDbEntity
  8
LAY-12
  6
CONTINUOUS
 62
     7
100
AcDbLine
 10
1129.726230609965
 20
1701.642617369449
 30
0.0
 11
1168.086137859876
 21
1679.49554046672
 31
0.0
  0
ARC
  5
233
330
1F
100
AcDbEntity
  8
LAY-12
  6
CONTINUOUS
 62
     7
100
AcDbCircle
 10
1166.086139612302
 20
1676.031437839819
 30
0.0
 40
4.0
100
AcDbArc
 50
335.7771523782191
 51
60.00002898489009
  0
LINE
  5
234
330
1F
100
AcDbEntity
  8
LAY-12
  6
CONTINUOUS
 62
     7
100
AcDbLine
 10
1133.234406996135
 20
1697.307802096835
 30
0.0
 11
1167.182641333635
 21
1677.70776985919
 31
0.0
  0
ARC
  5
235
330
1F
100
AcDbEntity
  8
LAY-12
  6
CONTINUOUS
 62
     7
100
AcDbCircle
 10
1165.182640567995
 20
1674.243668686094
 30
0.0
 40
4.0
100
AcDbArc
 50
336.1376760651298
 51
59.99998733641568
  0
ARC
  5
236
330
1F
100
AcDbEntity
  8
LAY-12
  6
CONTINUOUS
 62
     7
100
AcDbCircle
 10
1455.996701813262
 20
1545.6013321865
 30
0.0
 40
313.9963348185654
100
AcDbArc
 50
156.1376760651305
 51
163.5539563229068
  0
ARC
  5
237
330
1F
100
AcDbEntity
  8
LAY-12
  6
CONTINUOUS
 62
     7
100
AcDbCircle
 10
1151.969710530829
 20
1635.346888400473
 30
0.0
 40
3.000000000000002
100
AcDbArc
 50
255.0000202155817
 51
343.5539563229082
  0
ARC
  5
238
330
1F
100
AcDbEntity
  8
LAY-12
  6
CONTINUOUS
 62
     7
100
AcDbCircle
 10
1456.001510838726
 20
1545.599474428292
 30
0.0
 40
361.0014380986997
100
AcDbArc
 50
155.4650482077522
 51
163.7195282902973
  0
LINE
  5
239
330
1F
100
AcDbEntity
  8
LAY-12
  6
CONTINUOUS
 62
     7
100
AcDbLine
 10
1111.579153278427
 20
1643.063662076384
 30
0.0
 11
1151.19325441794
 21
1632.44911064765
 31
0.0
  0
ARC
  5
23A
330
1F
100
AcDbEntity
  8
LAY-12
  6
CONTINUOUS
 62
     7
100
AcDbCircle
 10
1112.355609391317
 20
1645.961439829207
 30
0.0
 40
3.000000000000002
100
AcDbArc
 50
163.7195282902966
 51
255.0000202155813
  0
ARC
  5
23B
330
1F
100
AcDbEntity
  8
LAY-12
  6
CONTINUOUS
 62
     7
100
AcDbCircle
 10
1455.996477593249
 20
1545.600495386018
 30
0.0
 40
313.9963348185654
100
AcDbArc
 50
166.4460436770932
 51
173.8623239348696
  0
ARC
  5
23C
330
1F
100
AcDbEntity
  8
LAY-12
  6
CONTINUOUS
 62
     7
100
AcDbCircle
 10
1139.822944527326
 20
1579.599994597816
 30
0.0
 40
4.0
100
AcDbArc
 50
270.0000126635869
 51
353.862323934871
  0
ARC
  5
23D
330
1F
100
AcDbEntity
  8
LAY-12
  6
CONTINUOUS
 62
     7
100
AcDbCircle
 10
1147.828601599525
 20
1619.892059469169
 30
0.0
 40
3.000000000000002
100
AcDbArc
 50
346.4460436770938
 51
74.99997978442074
  0
LINE
  5
23E
330
1F
100
AcDbEntity
  8
LAY-12
  6
CONTINUOUS
 62
     7
100
AcDbLine
 10
1108.99096610798
 20
1633.404416056776
 30
0.0
 11
1148.605059757251
 21
1622.78983667408
 31
0.0
  0
ARC
  5
23F
330
1F
100
AcDbEntity
  8
LAY-12
  6
CONTINUOUS
 62
     7
100
AcDbCircle
 10
1108.214507950254
 20
1630.506638851865
 30
0.0
 40
3.000000000000002
100
AcDbArc
 50
74.99997978442177
 51
166.2804717097037
  0
ARC
  5
240
330
1F
100
AcDbEntity
  8
LAY-12
  6
CONTINUOUS
 62
     7
100
AcDbCircle
 10
1456.001571210571
 20
1545.599699739088
 30
0.0
 40
361.0014380986997
100
AcDbArc
 50
166.2804717097028
 51
174.5349517922478
  0
ARC
  5
241
330
1F
100
AcDbEntity
  8
LAY-12
  6
CONTINUOUS
 62
     7
100
AcDbCircle
 10
1100.622895058602
 20
1579.599985933771
 30
0.0
 40
4.0
100
AcDbArc
 50
174.5349760111595
 51
270.0000126635869
  0
LINE
  5
242
330
1F
100
AcDbEntity
  8
LAY-12
  6
CONTINUOUS
 62
     7
100
AcDbLine
 10
1100.622895942687
 20
1575.599985933771
 30
0.0
 11
1139.822945411411
 21
1575.599994597817
 31
0.0
  0
LINE
  5
243
330
1F
100
AcDbEntity
  8
LAY-12
  6
CONTINUOUS
 62
     7
100
AcDbLine
 10
1095.417318434999
 20
1573.600013980059
 30
0.0
 11
1139.711511051602
 21
1573.599991572436
 31
0.0
  0
ARC
  5
244
330
1F
100
AcDbEntity
  8
LAY-12
  6
CONTINUOUS
 62
     7
100
AcDbCircle
 10
1095.417320458526
 20
1577.600013980059
 30
0.0
 40
4.0
100
AcDbArc
 50
174.9285554313634
 51
269.9999710151092
  0
ARC
  5
245
330
1F
100
AcDbEntity
  8
LAY-12
  6
CONTINUOUS
 62
     7
100
AcDbCircle
 10
1139.711513075129
 20
1577.599991572435
 30
0.0
 40
4.0
100
AcDbArc
 50
269.9999710151092
 51
354.222847621782
  0
ARC
  5
246
330
1F
100
AcDbEntity
  8
LAY-12
  6
CONTINUOUS
 62
     7
100
AcDbCircle
 10
1455.999999999999
 20
1545.6
 30
0.0
 40
365.9998200000003
100
AcDbArc
 50
155.0691192463037
 51
174.9315229180334
  0
LINE
  5
247
330
1F
100
AcDbEntity
  8
LAY-12
  6
CONTINUOUS
 62
     7
100
AcDbLine
 10
1154.211466530817
 20
1467.841826889676
 30
0.0
 11
1155.764376889675
 21
1462.046286530818
 31
0.0
  0
LINE
  5
248
330
1F
100
AcDbEntity
  8
LAY-12
  6
CONTINUOUS
 62
     7
100
AcDbLine
 10
1154.211466530817
 20
1467.841826889676
 30
0.0
 11
1101.2304126378
 21
1455.63107134745
 31
0.0
  0
LINE
  5
249
330
1F
100
AcDbEntity
  8
LAY-12
  6
CONTINUOUS
 62
     7
100
AcDbLine
 10
1103.776060527937
 20
1446.13058408328
 30
0.0
 11
1155.764376889675
 21
1462.046286530818
 31
0.0
  0
LINE
  5
24A
330
1F
100
AcDbEntity
  8
LAY-12
  6
CONTINUOUS
 62
     7
100
AcDbLine
 10
1154.031946271863
 20
1459.511528680181
 30
0.0
 11
1155.764376889675
 21
1462.046286530818
 31
0.0
  0
LINE
  5
24B
330
1F
100
AcDbEntity
  8
LAY-12
  6
CONTINUOUS
 62
     7
100
AcDbLine
 10
1151.443758680179
 20
1469.170776271865
 30
0.0
 11
1154.211466530817
 21
1467.841826889676
 31
0.0
  0
ARC
  5
24C
330
1F
100
AcDbEntity
  8
LAY-12
  6
CONTINUOUS
 62
     7
100
AcDbCircle
 10
1100.622895058602
 20
1511.60001406623
 30
0.0
 40
4.0
100
AcDbArc
 50
89.9999873364134
 51
185.4650239888406
  0
ARC
  5
24D
330
1F
100
AcDbEntity
  8
LAY-12
  6
CONTINUOUS
 62
     7
100
AcDbCircle
 10
1095.417320458527
 20
1513.599986019942
 30
0.0
 40
4.0
100
AcDbArc
 50
90.00002898488962
 51
185.071444568635
  0
LINE
  5
24E
330
1F
100
AcDbEntity
  8
LAY-12
  6
CONTINUOUS
 62
     7
100
AcDbLine
 10
1095.417318434999
 20
1517.599986019942
 30
0.0
 11
1139.711511051602
 21
1517.600008427566
 31
0.0
  0
ARC
  5
24F
330
1F
100
AcDbEntity
  8
LAY-12
  6
CONTINUOUS
 62
     7
100
AcDbCircle
 10
1139.711513075129
 20
1513.600008427566
 30
0.0
 40
4.0
100
AcDbArc
 50
5.77715237821652
 51
90.00002898488962
  0
LINE
  5
250
330
1F
100
AcDbEntity
  8
LAY-12
  6
CONTINUOUS
 62
     7
100
AcDbLine
 10
1100.622895942687
 20
1515.60001406623
 30
0.0
 11
1139.822945411412
 21
1515.600005402184
 31
0.0
  0
ARC
  5
251
330
1F
100
AcDbEntity
  8
LAY-12
  6
CONTINUOUS
 62
     7
100
AcDbCircle
 10
1139.822944527326
 20
1511.600005402185
 30
0.0
 40
4.0
100
AcDbArc
 50
6.137676065127626
 51
89.9999873364134
  0
ARC
  5
252
330
1F
100
AcDbEntity
  8
LAY-12
  6
CONTINUOUS
 62
     7
100
AcDbCircle
 10
1455.996477593249
 20
1545.599504613983
 30
0.0
 40
313.9963348185654
100
AcDbArc
 50
186.1376760651304
 51
193.5539563229067
  0
ARC
  5
253
330
1F
100
AcDbEntity
  8
LAY-12
  6
CONTINUOUS
 62
     7
100
AcDbCircle
 10
1147.828601599525
 20
1471.307940530832
 30
0.0
 40
3.000000000000002
100
AcDbArc
 50
285.0000202155817
 51
13.55395632290626
  0
ARC
  5
254
330
1F
100
AcDbEntity
  8
LAY-12
  6
CONTINUOUS
 62
     7
100
AcDbCircle
 10
1456.001571210572
 20
1545.600300260913
 30
0.0
 40
361.0014380986997
100
AcDbArc
 50
185.4650482077522
 51
193.7195282902971
  0
LINE
  5
255
330
1F
100
AcDbEntity
  8
LAY-12
  6
CONTINUOUS
 62
     7
100
AcDbLine
 10
1108.99096610798
 20
1457.795583943225
 30
0.0
 11
1148.605059757251
 21
1468.410163325921
 31
0.0
  0
ARC
  5
256
330
1F
100
AcDbEntity
  8
LAY-12
  6
CONTINUOUS
 62
     7
100
AcDbCircle
 10
1108.214507950254
 20
1460.693361148136
 30
0.0
 40
3.000000000000002
100
AcDbArc
 50
193.7195282902967
 51
285.0000202155804
  0
ARC
  5
257
330
1F
100
AcDbEntity
  8
LAY-12
  6
CONTINUOUS
 62
     7
100
AcDbCircle
 10
1455.996701813262
 20
1545.598667813501
 30
0.0
 40
313.9963348185654
100
AcDbArc
 50
196.4460436770931
 51
203.8623239348695
  0
ARC
  5
258
330
1F
100
AcDbEntity
  8
LAY-12
  6
CONTINUOUS
 62
     7
100
AcDbCircle
 10
1165.182640567995
 20
1416.956331313907
 30
0.0
 40
4.0
100
AcDbArc
 50
300.0000126635861
 51
23.86232393487055
  0
ARC
  5
259
330
1F
100
AcDbEntity
  8
LAY-12
  6
CONTINUOUS
 62
     7
100
AcDbCircle
 10
1151.969710530829
 20
1455.853111599528
 30
0.0
 40
3.000000000000002
100
AcDbArc
 50
16.44604367709449
 51
104.9999797844193
  0
LINE
  5
25A
330
1F
100
AcDbEntity
  8
LAY-12
  6
CONTINUOUS
 62
     7
100
AcDbLine
 10
1111.579153278427
 20
1448.136337923617
 30
0.0
 11
1151.19325441794
 21
1458.750889352351
 31
0.0
  0
ARC
  5
25B
330
1F
100
AcDbEntity
  8
LAY-12
  6
CONTINUOUS
 62
     7
100
AcDbCircle
 10
1112.355609391317
 20
1445.238560170794
 30
0.0
 40
3.000000000000002
100
AcDbArc
 50
104.9999797844229
 51
196.2804717097013
  0
ARC
  5
25C
330
1F
100
AcDbEntity
  8
LAY-12
  6
CONTINUOUS
 62
     7
100
AcDbCircle
 10
1456.001510838726
 20
1545.600525571709
 30
0.0
 40
361.0014380986997
100
AcDbArc
 50
196.2804717097029
 51
204.5349517922478
  0
ARC
  5
25D
330
1F
100
AcDbEntity
  8
LAY-12
  6
CONTINUOUS
 62
     7
100
AcDbCircle
 10
1131.234406230496
 20
1397.356299076261
 30
0.0
 40
4.0
100
AcDbArc
 50
204.5349760111597
 51
300.0000126635861
  0
LINE
  5
25E
330
1F
100
AcDbEntity
  8
LAY-12
  6
CONTINUOUS
 62
     7
100
AcDbLine
 10
1133.234406996135
 20
1393.892197903166
 30
0.0
 11
1167.182641333635
 21
1413.492230140812
 31
0.0
  0
LINE
  5
25F
330
1F
100
AcDbEntity
  8
LAY-12
  6
CONTINUOUS
 62
     7
100
AcDbLine
 10
1129.726230609965
 20
1389.557382630552
 30
0.0
 11
1168.086137859876
 21
1411.704459533281
 31
0.0
  0
ARC
  5
260
330
1F
100
AcDbEntity
  8
LAY-12
  6
CONTINUOUS
 62
     7
100
AcDbCircle
 10
1127.726232362391
 20
1393.021485257452
 30
0.0
 40
4.0
100
AcDbArc
 50
204.9285554313624
 51
299.9999710151102
  0
ARC
  5
261
330
1F
100
AcDbEntity
  8
LAY-12
  6
CONTINUOUS
 62
     7
100
AcDbCircle
 10
1166.086139612302
 20
1415.168562160182
 30
0.0
 40
4.0
100
AcDbArc
 50
299.9999710151102
 51
24.22284762178126
  0
ARC
  5
262
330
1F
100
AcDbEntity
  8
LAY-12
  6
CONTINUOUS
 62
     7
100
AcDbCircle
 10
1455.999999999999
 20
1545.600000000001
 30
0.0
 40
365.9998200000003
100
AcDbArc
 50
185.0691192463037
 51
204.9315229180333
  0
ARC
  5
263
330
1F
100
AcDbEntity
  8
LAY-12
  6
CONTINUOUS
 62
     7
100
AcDbCircle
 10
1456.000069370809
 20
1545.600107277848
 30
0.0
 40
313.9032675907465
100
AcDbArc
 50
234.2228511751011
 51
245.777148878734
  0
ARC
  5
264
330
1F
100
AcDbEntity
  8
LAY-12
  6
CONTINUOUS
 62
     7
100
AcDbCircle
 10
1455.999941780063
 20
1545.600113715808
 30
0.0
 40
313.9032675907465
100
AcDbArc
 50
294.2228511751012
 51
305.7771488787346
  0
ARC
  5
265
330
1F
100
AcDbEntity
  8
LAY-12
  6
CONTINUOUS
 62
     7
100
AcDbCircle
 10
1455.999892722151
 20
1545.600069370811
 30
0.0
 40
313.9032675907465
100
AcDbArc
 50
324.2228511751012
 51
335.7771488787342
  0
ARC
  5
266
330
1F
100
AcDbEntity
  8
LAY-12
  6
CONTINUOUS
 62
     7
100
AcDbCircle
 10
1455.999872409252
 20
1545.600006437961
 30
0.0
 40
313.9032675907465
100
AcDbArc
 50
354.2228511751013
 51
5.777148878734005
  0
ARC
  5
267
330
1F
100
AcDbEntity
  8
LAY-12
  6
CONTINUOUS
 62
     7
100
AcDbCircle
 10
1455.999886284191
 20
1545.599941780064
 30
0.0
 40
313.9032675907465
100
AcDbArc
 50
24.22285117510095
 51
35.77714887873395
  0
ARC
  5
268
330
1F
100
AcDbEntity
  8
LAY-12
  6
CONTINUOUS
 62
     7
100
AcDbCircle
 10
1455.999930629188
 20
1545.599892722153
 30
0.0
 40
313.9032675907465
100
AcDbArc
 50
54.22285117510096
 51
65.77714887873401
  0
ARC
  5
269
330
1F
100
AcDbEntity
  8
LAY-12
  6
CONTINUOUS
 62
     7
100
AcDbCircle
 10
1455.999993562039
 20
1545.599872409254
 30
0.0
 40
313.9032675907465
100
AcDbArc
 50
84.22285117510097
 51
95.77714887873398
  0
ARC
  5
26A
330
1F
100
AcDbEntity
  8
LAY-12
  6
CONTINUOUS
 62
     7
100
AcDbCircle
 10
1456.000058219935
 20
1545.599886284192
 30
0.0
 40
313.9032675907465
100
AcDbArc
 50
114.222851175101
 51
125.777148878734
  0
ARC
  5
26B
330
1F
100
AcDbEntity
  8
LAY-12
  6
CONTINUOUS
 62
     7
100
AcDbCircle
 10
1456.000107277847
 20
1545.59993062919
 30
0.0
 40
313.9032675907465
100
AcDbArc
 50
144.2228511751011
 51
155.7771488787341
  0
ARC
  5
26C
330
1F
100
AcDbEntity
  8
LAY-12
  6
CONTINUOUS
 62
     7
100
AcDbCircle
 10
1456.000127590745
 20
1545.59999356204
 30
0.0
 40
313.9032675907465
100
AcDbArc
 50
174.2228511751009
 51
185.7771488787339
  0
LINE
  5
26D
330
1F
100
AcDbEntity
  8
LAY-12
  6
CONTINUOUS
 62
     7
100
AcDbLine
 10
1440.999999999999
 20
1243.59999
 30
0.0
 11
1470.999999999999
 21
1243.59999
 31
0.0
  0
LINE
  5
26E
330
1F
100
AcDbEntity
  8
LAY-12
  6
CONTINUOUS
 62
     7
100
AcDbLine
 10
1441.999989999999
 20
1237.59996
 30
0.0
 11
1469.999979999999
 21
1237.59999
 31
0.0
  0
LINE
  5
26F
330
1F
100
AcDbEntity
  8
LAY-12
  6
CONTINUOUS
 62
     7
100
AcDbLine
 10
1440.999999999999
 20
1236.59997
 30
0.0
 11
1470.999999999999
 21
1236.59997
 31
0.0
  0
LINE
  5
270
330
1F
100
AcDbEntity
  8
LAY-12
  6
CONTINUOUS
 62
     7
100
AcDbLine
 10
1470.999999999999
 20
1236.59997
 30
0.0
 11
1470.999999999999
 21
1243.59999
 31
0.0
  0
LINE
  5
271
330
1F
100
AcDbEntity
  8
LAY-12
  6
CONTINUOUS
 62
     7
100
AcDbLine
 10
1469.999979999999
 20
1237.59999
 30
0.0
 11
1470.999994999924
 21
1243.59999
 31
0.0
  0
LINE
  5
272
330
1F
100
AcDbEntity
  8
LAY-12
  6
CONTINUOUS
 62
     7
100
AcDbLine
 10
1441.999989999999
 20
1237.59996
 30
0.0
 11
1440.999999999999
 21
1243.59999
 31
0.0
  0
LINE
  5
273
330
1F
100
AcDbEntity
  8
LAY-12
  6
CONTINUOUS
 62
     7
100
AcDbLine
 10
1440.999999999999
 20
1236.59997
 30
0.0
 11
1440.999999999999
 21
1243.59999
 31
0.0
  0
ARC
  5
274
330
1F
100
AcDbEntity
  8
LAY-12
  6
CONTINUOUS
 62
     7
100
AcDbCircle
 10
1456.0
 20
1545.600000000059
 30
0.0
 40
313.0000200000582
100
AcDbArc
 50
266.4794376025089
 51
273.520562397491
  0
ARC
  5
275
330
1F
100
AcDbEntity
  8
LAY-12
  6
CONTINUOUS
 62
     7
100
AcDbCircle
 10
1456.0
 20
1545.599999999995
 30
0.0
 40
316.0000199999944
100
AcDbArc
 50
266.3757202731241
 51
273.6242797268762
  0
LINE
  5
276
330
1F
100
AcDbEntity
  8
LAY-12
  6
CONTINUOUS
 62
     7
100
AcDbLine
 10
1424.402665687695
 20
1233.291255169115
 30
0.0
 11
1429.304395204605
 21
1232.832947235044
 31
0.0
  0
LINE
  5
277
330
1F
100
AcDbEntity
  8
LAY-12
  6
CONTINUOUS
 62
     7
100
AcDbLine
 10
1431.46561087804
 20
1235.265303948461
 30
0.0
 11
1434.995070595958
 21
1233.639754331183
 31
0.0
  0
ARC
  5
278
330
1F
100
AcDbEntity
  8
LAY-12
  6
CONTINUOUS
 62
     7
100
AcDbCircle
 10
1437.086720465576
 20
1238.18122995293
 30
0.0
 40
5.0
100
AcDbArc
 50
245.2708034185551
 51
266.4794376025093
  0
ARC
  5
279
330
1F
100
AcDbEntity
  8
LAY-12
  6
CONTINUOUS
 62
     7
100
AcDbCircle
 10
1429.373961008421
 20
1230.723828326713
 30
0.0
 40
5.0
100
AcDbArc
 50
65.27080341855505
 51
85.16654745660237
  0
LINE
  5
27A
330
1F
100
AcDbEntity
  8
LAY-12
  6
CONTINUOUS
 62
     7
100
AcDbLine
 10
1429.954872406797
 20
1232.658221002845
 30
0.0
 11
1434.248960245967
 21
1230.680499098087
 31
0.0
  0
ARC
  5
27B
330
1F
100
AcDbEntity
  8
LAY-12
  6
CONTINUOUS
 62
     7
100
AcDbCircle
 10
1429.118208804888
 20
1230.841632437088
 30
0.0
 40
2.0
100
AcDbArc
 50
65.27068816835157
 51
84.65841818639653
  0
ARC
  5
27C
330
1F
100
AcDbEntity
  8
LAY-12
  6
CONTINUOUS
 62
     7
100
AcDbCircle
 10
1436.34061925074
 20
1235.22197051248
 30
0.0
 40
5.0
100
AcDbArc
 50
245.2706881683497
 51
266.3757202731236
  0
LINE
  5
27D
330
1F
100
AcDbEntity
  8
LAY-12
  6
CONTINUOUS
 62
     7
100
AcDbLine
 10
1487.597334312303
 20
1233.291255169115
 30
0.0
 11
1482.695604795394
 21
1232.832947235044
 31
0.0
  0
ARC
  5
27E
330
1F
100
AcDbEntity
  8
LAY-12
  6
CONTINUOUS
 62
     7
100
AcDbCircle
 10
1474.913279534422
 20
1238.18122995293
 30
0.0
 40
5.0
100
AcDbArc
 50
273.5205623974924
 51
294.7291965814439
  0
LINE
  5
27F
330
1F
100
AcDbEntity
  8
LAY-12
  6
CONTINUOUS
 62
     7
100
AcDbLine
 10
1480.534389121958
 20
1235.265303948461
 30
0.0
 11
1477.00492940404
 21
1233.639754331183
 31
0.0
  0
ARC
  5
280
330
1F
100
AcDbEntity
  8
LAY-12
  6
CONTINUOUS
 62
     7
100
AcDbCircle
 10
1482.626038991576
 20
1230.723828326713
 30
0.0
 40
5.0
100
AcDbArc
 50
94.83345254339622
 51
114.7291965814438
  0
ARC
  5
281
330
1F
100
AcDbEntity
  8
LAY-12
  6
CONTINUOUS
 62
     7
100
AcDbCircle
 10
1482.88179119511
 20
1230.841632437088
 30
0.0
 40
2.0
100
AcDbArc
 50
95.3415818136002
 51
114.7293118316454
  0
LINE
  5
282
330
1F
100
AcDbEntity
  8
LAY-12
  6
CONTINUOUS
 62
     7
100
AcDbLine
 10
1482.045127593201
 20
1232.658221002845
 30
0.0
 11
1477.75103975403
 21
1230.680499098087
 31
0.0
  0
ARC
  5
283
330
1F
100
AcDbEntity
  8
LAY-12
  6
CONTINUOUS
 62
     7
100
AcDbCircle
 10
1475.659380749259
 20
1235.22197051248
 30
0.0
 40
5.0
100
AcDbArc
 50
273.6242797268754
 51
294.7293118316503
  0
ARC
  5
284
330
1F
100
AcDbEntity
  8
LAY-12
  6
CONTINUOUS
 62
     7
100
AcDbCircle
 10
1455.999999999999
 20
1545.6
 30
0.0
 40
310.99992
100
AcDbArc
 50
274.8334525433969
 51
265.166547456603
  0
ARC
  5
285
330
1F
100
AcDbEntity
  8
LAY-12
  6
CONTINUOUS
 62
     7
100
AcDbCircle
 10
1463.5
 20
1195.59999744616
 30
0.0
 40
11.0
100
AcDbArc
 50
269.9999941169264
 51
90.00000000000009
  0
ARC
  5
286
330
1F
100
AcDbEntity
  8
LAY-12
  6
CONTINUOUS
 62
     7
100
AcDbCircle
 10
1448.499999999999
 20
1195.59999744616
 30
0.0
 40
11.0
100
AcDbArc
 50
90.00000000000001
 51
270.0000058830743
  0
LINE
  5
287
330
1F
100
AcDbEntity
  8
LAY-12
  6
CONTINUOUS
 62
     7
100
AcDbLine
 10
1448.500001129467
 20
1206.599998986343
 30
0.0
 11
1463.500001129468
 21
1206.599997446158
 31
0.0
  0
LINE
  5
288
330
1F
100
AcDbEntity
  8
LAY-12
  6
CONTINUOUS
 62
     7
100
AcDbLine
 10
1448.4941778694
 20
1184.599998986942
 30
0.0
 11
1463.499998870531
 21
1184.59999744616
 31
0.0
  0
ARC
  5
289
330
1F
100
AcDbEntity
  8
LAY-12
  6
CONTINUOUS
 62
     7
100
AcDbCircle
 10
1448.499999999999
 20
1195.59999744616
 30
0.0
 40
13.00000000000001
100
AcDbArc
 50
90.00000000000001
 51
270.0000058830742
  0
LINE
  5
28A
330
1F
100
AcDbEntity
  8
LAY-12
  6
CONTINUOUS
 62
     7
100
AcDbLine
 10
1448.494177664042
 20
1182.599998986942
 30
0.0
 11
1463.499998665173
 21
1182.59999744616
 31
0.0
  0
ARC
  5
28B
330
1F
100
AcDbEntity
  8
LAY-12
  6
CONTINUOUS
 62
     7
100
AcDbCircle
 10
1463.5
 20
1195.59999744616
 30
0.0
 40
13.00000000000001
100
AcDbArc
 50
269.9999941169258
 51
90.00000000000001
  0
LINE
  5
28C
330
1F
100
AcDbEntity
  8
LAY-12
  6
CONTINUOUS
 62
     7
100
AcDbLine
 10
1463.500001334826
 20
1208.599997446158
 30
0.0
 11
1448.500001334825
 21
1208.599998986343
 31
0.0
  0
ARC
  5
28D
330
1F
100
AcDbEntity
  8
LAY-12
  6
CONTINUOUS
 62
     7
100
AcDbCircle
 10
1637.495191805303
 20
1246.241106463757
 30
0.0
 40
11.0
100
AcDbArc
 50
299.9999941169264
 51
120.0000000000001
  0
ARC
  5
28E
330
1F
100
AcDbEntity
  8
LAY-12
  6
CONTINUOUS
 62
     7
100
AcDbCircle
 10
1624.504810748535
 20
1238.741106463756
 30
0.0
 40
11.0
100
AcDbArc
 50
120.0
 51
300.0000058830744
  0
LINE
  5
28F
330
1F
100
AcDbEntity
  8
LAY-12
  6
CONTINUOUS
 62
     7
100
AcDbLine
 10
1619.004810956592
 20
1248.267387803956
 30
0.0
 11
1631.995192783453
 21
1255.767386470118
 31
0.0
  0
LINE
  5
290
330
1F
100
AcDbEntity
  8
LAY-12
  6
CONTINUOUS
 62
     7
100
AcDbLine
 10
1629.999767865142
 20
1229.211917291184
 30
0.0
 11
1642.995190827154
 21
1236.714826457393
 31
0.0
  0
ARC
  5
291
330
1F
100
AcDbEntity
  8
LAY-12
  6
CONTINUOUS
 62
     7
100
AcDbCircle
 10
1624.504810748535
 20
1238.741106463756
 30
0.0
 40
13.00000000000001
100
AcDbArc
 50
120.0
 51
300.0000058830743
  0
LINE
  5
292
330
1F
100
AcDbEntity
  8
LAY-12
  6
CONTINUOUS
 62
     7
100
AcDbLine
 10
1630.999767687297
 20
1227.479866380936
 30
0.0
 11
1643.995190649309
 21
1234.982775547145
 31
0.0
  0
ARC
  5
293
330
1F
100
AcDbEntity
  8
LAY-12
  6
CONTINUOUS
 62
     7
100
AcDbCircle
 10
1637.495191805303
 20
1246.241106463757
 30
0.0
 40
13.00000000000001
100
AcDbArc
 50
299.999994116926
 51
120.0
  0
LINE
  5
294
330
1F
100
AcDbEntity
  8
LAY-12
  6
CONTINUOUS
 62
     7
100
AcDbLine
 10
1630.995192961298
 20
1257.499437380365
 30
0.0
 11
1618.004811134438
 21
1249.999438714204
 31
0.0
  0
ARC
  5
295
330
1F
100
AcDbEntity
  8
LAY-12
  6
CONTINUOUS
 62
     7
100
AcDbCircle
 10
1762.858893536243
 20
1377.095189251463
 30
0.0
 40
11.0
100
AcDbArc
 50
329.9999941169264
 51
150.0000000000001
  0
ARC
  5
296
330
1F
100
AcDbEntity
  8
LAY-12
  6
CONTINUOUS
 62
     7
100
AcDbCircle
 10
1755.358893536243
 20
1364.104808194696
 30
0.0
 40
11.0
100
AcDbArc
 50
150.0000000000001
 51
330.0000058830743
  0
LINE
  5
297
330
1F
100
AcDbEntity
  8
LAY-12
  6
CONTINUOUS
 62
     7
100
AcDbLine
 10
1745.832613325511
 20
1369.604809942936
 30
0.0
 11
1753.332614659351
 21
1382.595190229611
 31
0.0
  0
LINE
  5
298
330
1F
100
AcDbEntity
  8
LAY-12
  6
CONTINUOUS
 62
     7
100
AcDbLine
 10
1764.882260578216
 20
1358.599766852085
 30
0.0
 11
1772.385172413138
 21
1371.595188273315
 31
0.0
  0
ARC
  5
299
330
1F
100
AcDbEntity
  8
LAY-12
  6
CONTINUOUS
 62
     7
100
AcDbCircle
 10
1755.358893536243
 20
1364.104808194696
 30
0.0
 40
13.00000000000001
100
AcDbArc
 50
150.0000000000001
 51
330.0000058830743
  0
LINE
  5
29A
330
1F
100
AcDbEntity
  8
LAY-12
  6
CONTINUOUS
 62
     7
100
AcDbLine
 10
1766.614311283106
 20
1357.599766674239
 30
0.0
 11
1774.117223118028
 21
1370.59518809547
 31
0.0
  0
ARC
  5
29B
330
1F
100
AcDbEntity
  8
LAY-12
  6
CONTINUOUS
 62
     7
100
AcDbCircle
 10
1762.858893536243
 20
1377.095189251463
 30
0.0
 40
13.00000000000001
100
AcDbArc
 50
329.9999941169259
 51
150.0000000000001
  0
LINE
  5
29C
330
1F
100
AcDbEntity
  8
LAY-12
  6
CONTINUOUS
 62
     7
100
AcDbLine
 10
1751.600563954461
 20
1383.595190407456
 30
0.0
 11
1744.100562620621
 21
1370.604810120781
 31
0.0
  0
ARC
  5
29D
330
1F
100
AcDbEntity
  8
LAY-12
  6
CONTINUOUS
 62
     7
100
AcDbCircle
 10
1806.000002553839
 20
1553.1
 30
0.0
 40
11.0
100
AcDbArc
 50
359.9999941169263
 51
180.0000000000002
  0
ARC
  5
29E
330
1F
100
AcDbEntity
  8
LAY-12
  6
CONTINUOUS
 62
     7
100
AcDbCircle
 10
1806.000002553839
 20
1538.099999999999
 30
0.0
 40
11.0
100
AcDbArc
 50
180.0000000000002
 51
0.0000058830742614
  0
LINE
  5
29F
330
1F
100
AcDbEntity
  8
LAY-12
  6
CONTINUOUS
 62
     7
100
AcDbLine
 10
1795.000001013657
 20
1538.100001129468
 30
0.0
 11
1795.000002553842
 21
1553.100001129469
 31
0.0
  0
LINE
  5
2A0
330
1F
100
AcDbEntity
  8
LAY-12
  6
CONTINUOUS
 62
     7
100
AcDbLine
 10
1817.000001013057
 20
1538.094177869401
 30
0.0
 11
1817.00000255384
 21
1553.099998870531
 31
0.0
  0
ARC
  5
2A1
330
1F
100
AcDbEntity
  8
LAY-12
  6
CONTINUOUS
 62
     7
100
AcDbCircle
 10
1806.000002553839
 20
1538.099999999999
 30
0.0
 40
13.00000000000001
100
AcDbArc
 50
180.0000000000002
 51
0.0000058830742041
  0
LINE
  5
2A2
330
1F
100
AcDbEntity
  8
LAY-12
  6
CONTINUOUS
 62
     7
100
AcDbLine
 10
1819.000001013057
 20
1538.094177664043
 30
0.0
 11
1819.00000255384
 21
1553.099998665173
 31
0.0
  0
ARC
  5
2A3
330
1F
100
AcDbEntity
  8
LAY-12
  6
CONTINUOUS
 62
     7
100
AcDbCircle
 10
1806.000002553839
 20
1553.1
 30
0.0
 40
13.00000000000001
100
AcDbArc
 50
359.9999941169258
 51
180.0000000000002
  0
LINE
  5
2A4
330
1F
100
AcDbEntity
  8
LAY-12
  6
CONTINUOUS
 62
     7
100
AcDbLine
 10
1793.000002553842
 20
1553.100001334827
 30
0.0
 11
1793.000001013657
 21
1538.100001334825
 31
0.0
  0
ARC
  5
2A5
330
1F
100
AcDbEntity
  8
LAY-12
  6
CONTINUOUS
 62
     7
100
AcDbCircle
 10
1755.358893536243
 20
1727.095191805304
 30
0.0
 40
11.0
100
AcDbArc
 50
29.99999411692632
 51
210.0000000000001
  0
ARC
  5
2A6
330
1F
100
AcDbEntity
  8
LAY-12
  6
CONTINUOUS
 62
     7
100
AcDbCircle
 10
1762.858893536244
 20
1714.104810748536
 30
0.0
 40
11.0
100
AcDbArc
 50
210.0000000000001
 51
30.00000588307433
  0
LINE
  5
2A7
330
1F
100
AcDbEntity
  8
LAY-12
  6
CONTINUOUS
 62
     7
100
AcDbLine
 10
1753.332612196044
 20
1708.604810956593
 30
0.0
 11
1745.832613529882
 21
1721.595192783454
 31
0.0
  0
LINE
  5
2A8
330
1F
100
AcDbEntity
  8
LAY-12
  6
CONTINUOUS
 62
     7
100
AcDbLine
 10
1772.388082708816
 20
1719.599767865142
 30
0.0
 11
1764.885173542607
 21
1732.595190827155
 31
0.0
  0
ARC
  5
2A9
330
1F
100
AcDbEntity
  8
LAY-12
  6
CONTINUOUS
 62
     7
100
AcDbCircle
 10
1762.858893536244
 20
1714.104810748536
 30
0.0
 40
13.00000000000001
100
AcDbArc
 50
210.0000000000001
 51
30.00000588307421
  0
LINE
  5
2AA
330
1F
100
AcDbEntity
  8
LAY-12
  6
CONTINUOUS
 62
     7
100
AcDbLine
 10
1774.120133619063
 20
1720.599767687297
 30
0.0
 11
1766.617224452855
 21
1733.59519064931
 31
0.0
  0
ARC
  5
2AB
330
1F
100
AcDbEntity
  8
LAY-12
  6
CONTINUOUS
 62
     7
100
AcDbCircle
 10
1755.358893536243
 20
1727.095191805304
 30
0.0
 40
13.00000000000001
100
AcDbArc
 50
29.99999411692586
 51
210.0000000000001
  0
LINE
  5
2AC
330
1F
100
AcDbEntity
  8
LAY-12
  6
CONTINUOUS
 62
     7
100
AcDbLine
 10
1744.100562619634
 20
1720.595192961298
 30
0.0
 11
1751.600561285796
 21
1707.604811134438
 31
0.0
  0
ARC
  5
2AD
330
1F
100
AcDbEntity
  8
LAY-12
  6
CONTINUOUS
 62
     7
100
AcDbCircle
 10
1624.504810748536
 20
1852.458893536244
 30
0.0
 40
11.0
100
AcDbArc
 50
59.99999411692634
 51
240.0000000000001
  0
ARC
  5
2AE
330
1F
100
AcDbEntity
  8
LAY-12
  6
CONTINUOUS
 62
     7
100
AcDbCircle
 10
1637.495191805304
 20
1844.958893536244
 30
0.0
 40
11.0
100
AcDbArc
 50
240.0000000000001
 51
60.00000588307429
  0
LINE
  5
2AF
330
1F
100
AcDbEntity
  8
LAY-12
  6
CONTINUOUS
 62
     7
100
AcDbLine
 10
1631.995190057064
 20
1835.432613325511
 30
0.0
 11
1619.004809770389
 21
1842.932614659352
 31
0.0
  0
LINE
  5
2B0
330
1F
100
AcDbEntity
  8
LAY-12
  6
CONTINUOUS
 62
     7
100
AcDbLine
 10
1643.000233147915
 20
1854.482260578217
 30
0.0
 11
1630.004811726685
 21
1861.985172413139
 31
0.0
  0
ARC
  5
2B1
330
1F
100
AcDbEntity
  8
LAY-12
  6
CONTINUOUS
 62
     7
100
AcDbCircle
 10
1637.495191805304
 20
1844.958893536244
 30
0.0
 40
13.00000000000001
100
AcDbArc
 50
240.0000000000001
 51
60.00000588307417
  0
LINE
  5
2B2
330
1F
100
AcDbEntity
  8
LAY-12
  6
CONTINUOUS
 62
     7
100
AcDbLine
 10
1644.00023332576
 20
1856.214311283107
 30
0.0
 11
1631.00481190453
 21
1863.717223118029
 31
0.0
  0
ARC
  5
2B3
330
1F
100
AcDbEntity
  8
LAY-12
  6
CONTINUOUS
 62
     7
100
AcDbCircle
 10
1624.504810748536
 20
1852.458893536244
 30
0.0
 40
13.00000000000001
100
AcDbArc
 50
59.99999411692587
 51
240.0000000000001
  0
LINE
  5
2B4
330
1F
100
AcDbEntity
  8
LAY-12
  6
CONTINUOUS
 62
     7
100
AcDbLine
 10
1618.004809592544
 20
1841.200563954462
 30
0.0
 11
1630.995189879219
 21
1833.700562620621
 31
0.0
  0
ARC
  5
2B5
330
1F
100
AcDbEntity
  8
LAY-12
  6
CONTINUOUS
 62
     7
100
AcDbCircle
 10
1448.5
 20
1895.60000255384
 30
0.0
 40
11.0
100
AcDbArc
 50
89.99999411692627
 51
270.0000000000002
  0
ARC
  5
2B6
330
1F
100
AcDbEntity
  8
LAY-12
  6
CONTINUOUS
 62
     7
100
AcDbCircle
 10
1463.5
 20
1895.60000255384
 30
0.0
 40
11.0
100
AcDbArc
 50
270.0000000000002
 51
90.00000588307422
  0
LINE
  5
2B7
330
1F
100
AcDbEntity
  8
LAY-12
  6
CONTINUOUS
 62
     7
100
AcDbLine
 10
1463.499998870532
 20
1884.600001013658
 30
0.0
 11
1448.499998870531
 21
1884.600002553843
 31
0.0
  0
LINE
  5
2B8
330
1F
100
AcDbEntity
  8
LAY-12
  6
CONTINUOUS
 62
     7
100
AcDbLine
 10
1463.505822130599
 20
1906.600001013058
 30
0.0
 11
1448.500001129468
 21
1906.60000255384
 31
0.0
  0
ARC
  5
2B9
330
1F
100
AcDbEntity
  8
LAY-12
  6
CONTINUOUS
 62
     7
100
AcDbCircle
 10
1463.5
 20
1895.60000255384
 30
0.0
 40
13.00000000000001
100
AcDbArc
 50
270.0000000000002
 51
90.00000588307412
  0
LINE
  5
2BA
330
1F
100
AcDbEntity
  8
LAY-12
  6
CONTINUOUS
 62
     7
100
AcDbLine
 10
1463.505822335957
 20
1908.600001013058
 30
0.0
 11
1448.500001334826
 21
1908.60000255384
 31
0.0
  0
ARC
  5
2BB
330
1F
100
AcDbEntity
  8
LAY-12
  6
CONTINUOUS
 62
     7
100
AcDbCircle
 10
1448.5
 20
1895.60000255384
 30
0.0
 40
13.00000000000001
100
AcDbArc
 50
89.99999411692588
 51
270.0000000000002
  0
LINE
  5
2BC
330
1F
100
AcDbEntity
  8
LAY-12
  6
CONTINUOUS
 62
     7
100
AcDbLine
 10
1448.499998665173
 20
1882.600002553843
 30
0.0
 11
1463.499998665174
 21
1882.600001013658
 31
0.0
  0
ARC
  5
2BD
330
1F
100
AcDbEntity
  8
LAY-12
  6
CONTINUOUS
 62
     7
100
AcDbCircle
 10
1274.504808194697
 20
1844.958893536244
 30
0.0
 40
11.0
100
AcDbArc
 50
119.9999941169263
 51
300.0000000000002
  0
ARC
  5
2BE
330
1F
100
AcDbEntity
  8
LAY-12
  6
CONTINUOUS
 62
     7
100
AcDbCircle
 10
1287.495189251464
 20
1852.458893536245
 30
0.0
 40
11.0
100
AcDbArc
 50
300.0000000000002
 51
120.0000058830742
  0
LINE
  5
2BF
330
1F
100
AcDbEntity
  8
LAY-12
  6
CONTINUOUS
 62
     7
100
AcDbLine
 10
1292.995189043407
 20
1842.932612196044
 30
0.0
 11
1280.004807216547
 21
1835.432613529883
 31
0.0
  0
LINE
  5
2C0
330
1F
100
AcDbEntity
  8
LAY-12
  6
CONTINUOUS
 62
     7
100
AcDbLine
 10
1282.000232134857
 20
1861.988082708816
 30
0.0
 11
1269.004809172845
 21
1854.485173542608
 31
0.0
  0
ARC
  5
2C1
330
1F
100
AcDbEntity
  8
LAY-12
  6
CONTINUOUS
 62
     7
100
AcDbCircle
 10
1287.495189251464
 20
1852.458893536245
 30
0.0
 40
13.00000000000001
100
AcDbArc
 50
300.0000000000002
 51
120.0000058830742
  0
LINE
  5
2C2
330
1F
100
AcDbEntity
  8
LAY-12
  6
CONTINUOUS
 62
     7
100
AcDbLine
 10
1281.000232312703
 20
1863.720133619064
 30
0.0
 11
1268.00480935069
 21
1856.217224452855
 31
0.0
  0
ARC
  5
2C3
330
1F
100
AcDbEntity
  8
LAY-12
  6
CONTINUOUS
 62
     7
100
AcDbCircle
 10
1274.504808194697
 20
1844.958893536244
 30
0.0
 40
13.00000000000001
100
AcDbArc
 50
119.9999941169258
 51
300.0000000000002
  0
LINE
  5
2C4
330
1F
100
AcDbEntity
  8
LAY-12
  6
CONTINUOUS
 62
     7
100
AcDbLine
 10
1281.004807038702
 20
1833.700562619635
 30
0.0
 11
1293.995188865561
 21
1841.200561285797
 31
0.0
  0
ARC
  5
2C5
330
1F
100
AcDbEntity
  8
LAY-12
  6
CONTINUOUS
 62
     7
100
AcDbCircle
 10
1149.141106463756
 20
1714.104810748537
 30
0.0
 40
11.0
100
AcDbArc
 50
149.9999941169263
 51
330.0000000000003
  0
ARC
  5
2C6
330
1F
100
AcDbEntity
  8
LAY-12
  6
CONTINUOUS
 62
     7
100
AcDbCircle
 10
1156.641106463756
 20
1727.095191805305
 30
0.0
 40
11.0
100
AcDbArc
 50
330.0000000000003
 51
150.0000058830744
  0
LINE
  5
2C7
330
1F
100
AcDbEntity
  8
LAY-12
  6
CONTINUOUS
 62
     7
100
AcDbLine
 10
1166.167386674488
 20
1721.595190057065
 30
0.0
 11
1158.667385340648
 21
1708.604809770389
 31
0.0
  0
LINE
  5
2C8
330
1F
100
AcDbEntity
  8
LAY-12
  6
CONTINUOUS
 62
     7
100
AcDbLine
 10
1147.117739421783
 20
1732.600233147916
 30
0.0
 11
1139.614827586861
 21
1719.604811726686
 31
0.0
  0
ARC
  5
2C9
330
1F
100
AcDbEntity
  8
LAY-12
  6
CONTINUOUS
 62
     7
100
AcDbCircle
 10
1156.641106463756
 20
1727.095191805305
 30
0.0
 40
13.00000000000001
100
AcDbArc
 50
330.0000000000003
 51
150.0000058830742
  0
LINE
  5
2CA
330
1F
100
AcDbEntity
  8
LAY-12
  6
CONTINUOUS
 62
     7
100
AcDbLine
 10
1145.385688716893
 20
1733.600233325761
 30
0.0
 11
1137.882776881971
 21
1720.604811904531
 31
0.0
  0
ARC
  5
2CB
330
1F
100
AcDbEntity
  8
LAY-12
  6
CONTINUOUS
 62
     7
100
AcDbCircle
 10
1149.141106463756
 20
1714.104810748537
 30
0.0
 40
13.00000000000001
100
AcDbArc
 50
149.9999941169259
 51
330.0000000000003
  0
LINE
  5
2CC
330
1F
100
AcDbEntity
  8
LAY-12
  6
CONTINUOUS
 62
     7
100
AcDbLine
 10
1160.399436045538
 20
1707.604809592544
 30
0.0
 11
1167.899437379378
 21
1720.59518987922
 31
0.0
  0
ARC
  5
2CD
330
1F
100
AcDbEntity
  8
LAY-12
  6
CONTINUOUS
 62
     7
100
AcDbCircle
 10
1105.99999744616
 20
1538.1
 30
0.0
 40
11.0
100
AcDbArc
 50
179.9999941169264
 51
0.0000000000001146
  0
ARC
  5
2CE
330
1F
100
AcDbEntity
  8
LAY-12
  6
CONTINUOUS
 62
     7
100
AcDbCircle
 10
1105.99999744616
 20
1553.100000000001
 30
0.0
 40
11.0
100
AcDbArc
 50
0.0000000000000573
 51
180.0000058830744
  0
LINE
  5
2CF
330
1F
100
AcDbEntity
  8
LAY-12
  6
CONTINUOUS
 62
     7
100
AcDbLine
 10
1116.999998986342
 20
1553.099998870533
 30
0.0
 11
1116.999997446158
 21
1538.099998870532
 31
0.0
  0
LINE
  5
2D0
330
1F
100
AcDbEntity
  8
LAY-12
  6
CONTINUOUS
 62
     7
100
AcDbLine
 10
1094.999998986942
 20
1553.1058221306
 30
0.0
 11
1094.999997446159
 21
1538.100001129469
 31
0.0
  0
ARC
  5
2D1
330
1F
100
AcDbEntity
  8
LAY-12
  6
CONTINUOUS
 62
     7
100
AcDbCircle
 10
1105.99999744616
 20
1553.100000000001
 30
0.0
 40
13.00000000000001
100
AcDbArc
 50
0.0000000000000573
 51
180.0000058830742
  0
LINE
  5
2D2
330
1F
100
AcDbEntity
  8
LAY-12
  6
CONTINUOUS
 62
     7
100
AcDbLine
 10
1092.999998986942
 20
1553.105822335958
 30
0.0
 11
1092.999997446159
 21
1538.100001334827
 31
0.0
  0
ARC
  5
2D3
330
1F
100
AcDbEntity
  8
LAY-12
  6
CONTINUOUS
 62
     7
100
AcDbCircle
 10
1105.99999744616
 20
1538.1
 30
0.0
 40
13.00000000000001
100
AcDbArc
 50
179.999994116926
 51
0.0000000000000573
  0
LINE
  5
2D4
330
1F
100
AcDbEntity
  8
LAY-12
  6
CONTINUOUS
 62
     7
100
AcDbLine
 10
1118.999997446158
 20
1538.099998665174
 30
0.0
 11
1118.999998986342
 21
1553.099998665175
 31
0.0
  0
ARC
  5
2D5
330
1F
100
AcDbEntity
  8
LAY-12
  6
CONTINUOUS
 62
     7
100
AcDbCircle
 10
1156.641106463756
 20
1364.104808194697
 30
0.0
 40
11.0
100
AcDbArc
 50
209.9999941169265
 51
30.00000000000012
  0
ARC
  5
2D6
330
1F
100
AcDbEntity
  8
LAY-12
  6
CONTINUOUS
 62
     7
100
AcDbCircle
 10
1149.141106463755
 20
1377.095189251464
 30
0.0
 40
11.0
100
AcDbArc
 50
30.00000000000007
 51
210.0000058830743
  0
LINE
  5
2D7
330
1F
100
AcDbEntity
  8
LAY-12
  6
CONTINUOUS
 62
     7
100
AcDbLine
 10
1158.667387803956
 20
1382.595189043407
 30
0.0
 11
1166.167386470117
 21
1369.604807216547
 31
0.0
  0
LINE
  5
2D8
330
1F
100
AcDbEntity
  8
LAY-12
  6
CONTINUOUS
 62
     7
100
AcDbLine
 10
1139.611917291184
 20
1371.600232134858
 30
0.0
 11
1147.114826457392
 21
1358.604809172846
 31
0.0
  0
ARC
  5
2D9
330
1F
100
AcDbEntity
  8
LAY-12
  6
CONTINUOUS
 62
     7
100
AcDbCircle
 10
1149.141106463755
 20
1377.095189251464
 30
0.0
 40
13.00000000000001
100
AcDbArc
 50
30.00000000000007
 51
210.0000058830743
  0
LINE
  5
2DA
330
1F
100
AcDbEntity
  8
LAY-12
  6
CONTINUOUS
 62
     7
100
AcDbLine
 10
1137.879866380936
 20
1370.600232312703
 30
0.0
 11
1145.382775547144
 21
1357.604809350691
 31
0.0
  0
ARC
  5
2DB
330
1F
100
AcDbEntity
  8
LAY-12
  6
CONTINUOUS
 62
     7
100
AcDbCircle
 10
1156.641106463756
 20
1364.104808194697
 30
0.0
 40
13.00000000000001
100
AcDbArc
 50
209.9999941169259
 51
30.00000000000007
  0
LINE
  5
2DC
330
1F
100
AcDbEntity
  8
LAY-12
  6
CONTINUOUS
 62
     7
100
AcDbLine
 10
1167.899437380365
 20
1370.604807038702
 30
0.0
 11
1160.399438714203
 21
1383.595188865562
 31
0.0
  0
ARC
  5
2DD
330
1F
100
AcDbEntity
  8
LAY-12
  6
CONTINUOUS
 62
     7
100
AcDbCircle
 10
1287.495189251463
 20
1238.741106463757
 30
0.0
 40
11.0
100
AcDbArc
 50
239.9999941169266
 51
60.00000000000014
  0
ARC
  5
2DE
330
1F
100
AcDbEntity
  8
LAY-12
  6
CONTINUOUS
 62
     7
100
AcDbCircle
 10
1274.504808194696
 20
1246.241106463757
 30
0.0
 40
11.0
100
AcDbArc
 50
60.00000000000008
 51
240.0000058830743
  0
LINE
  5
2DF
330
1F
100
AcDbEntity
  8
LAY-12
  6
CONTINUOUS
 62
     7
100
AcDbLine
 10
1280.004809942935
 20
1255.767386674489
 30
0.0
 11
1292.995190229611
 21
1248.267385340649
 31
0.0
  0
LINE
  5
2E0
330
1F
100
AcDbEntity
  8
LAY-12
  6
CONTINUOUS
 62
     7
100
AcDbLine
 10
1268.999766852084
 20
1236.717739421784
 30
0.0
 11
1281.995188273314
 21
1229.214827586862
 31
0.0
  0
ARC
  5
2E1
330
1F
100
AcDbEntity
  8
LAY-12
  6
CONTINUOUS
 62
     7
100
AcDbCircle
 10
1274.504808194696
 20
1246.241106463757
 30
0.0
 40
13.00000000000001
100
AcDbArc
 50
60.00000000000008
 51
240.0000058830743
  0
LINE
  5
2E2
330
1F
100
AcDbEntity
  8
LAY-12
  6
CONTINUOUS
 62
     7
100
AcDbLine
 10
1267.999766674239
 20
1234.985688716894
 30
0.0
 11
1280.995188095469
 21
1227.482776881972
 31
0.0
  0
ARC
  5
2E3
330
1F
100
AcDbEntity
  8
LAY-12
  6
CONTINUOUS
 62
     7
100
AcDbCircle
 10
1287.495189251463
 20
1238.741106463757
 30
0.0
 40
13.00000000000001
100
AcDbArc
 50
239.9999941169261
 51
60.00000000000008
  0
LINE
  5
2E4
330
1F
100
AcDbEntity
  8
LAY-12
  6
CONTINUOUS
 62
     7
100
AcDbLine
 10
1293.995190407456
 20
1249.999436045539
 30
0.0
 11
1281.00481012078
 21
1257.499437379379
 31
0.0
  0
LINE
  5
2E5
330
1F
100
AcDbEntity
  8
LAY-12
  6
CONTINUOUS
 62
     7
100
AcDbLine
 10
1525.995683083649
 20
1262.0532756641
 30
0.0
 11
1537.149077199834
 21
1265.041769779607
 31
0.0
  0
LINE
  5
2E6
330
1F
100
AcDbEntity
  8
LAY-12
  6
CONTINUOUS
 62
     7
100
AcDbLine
 10
1535.217369878842
 20
1265.559277100208
 30
0.0
 11
1527.409842972754
 21
1263.467271326713
 31
0.0
  0
LINE
  5
2E7
330
1F
100
AcDbEntity
  8
LAY-12
  6
CONTINUOUS
 62
     7
100
AcDbLine
 10
1528.984197199299
 20
1273.20658977975
 30
0.0
 11
1525.995683083649
 21
1262.0532756641
 31
0.0
  0
LINE
  5
2E8
330
1F
100
AcDbEntity
  8
LAY-12
  6
CONTINUOUS
 62
     7
100
AcDbLine
 10
1537.149077199834
 20
1265.041769779607
 30
0.0
 11
1528.984197199299
 21
1273.20658977975
 31
0.0
  0
LINE
  5
2E9
330
1F
100
AcDbEntity
  8
LAY-12
  6
CONTINUOUS
 62
     7
100
AcDbLine
 10
1529.50183487154
 20
1271.27474109238
 30
0.0
 11
1527.409842972754
 21
1263.467271326713
 31
0.0
  0
LINE
  5
2EA
330
1F
100
AcDbEntity
  8
LAY-12
  6
CONTINUOUS
 62
     7
100
AcDbLine
 10
1535.217369901202
 20
1265.559277106199
 30
0.0
 11
1529.50183487154
 21
1271.27474109238
 31
0.0
  0
LINE
  5
2EB
330
1F
100
AcDbEntity
  8
LAY-12
  6
CONTINUOUS
 62
     7
100
AcDbLine
 10
1525.995683083649
 20
1262.0532756641
 30
0.0
 11
1527.409842972754
 21
1263.467271326713
 31
0.0
  0
LINE
  5
2EC
330
1F
100
AcDbEntity
  8
LAY-12
  6
CONTINUOUS
 62
     7
100
AcDbLine
 10
1535.215088973971
 20
1265.561558005078
 30
0.0
 11
1537.149077199834
 21
1265.041769779607
 31
0.0
  0
ARC
  5
2ED
330
1F
100
AcDbEntity
  8
LAY-12
  6
CONTINUOUS
 62
     7
100
AcDbCircle
 10
1455.9971971993
 20
1545.59780977975
 30
0.0
 40
295.78378
100
AcDbArc
 50
147.8687198114108
 51
152.1312838322005
  0
ARC
  5
2EE
330
1F
100
AcDbEntity
  8
LAY-12
  6
CONTINUOUS
 62
     7
100
AcDbCircle
 10
1455.9971971993
 20
1545.59780977975
 30
0.0
 40
295.78378
100
AcDbArc
 50
27.86871616779934
 51
32.13128018858718
  0
ARC
  5
2EF
330
1F
100
AcDbEntity
  8
LAY-12
  6
CONTINUOUS
 62
     7
100
AcDbCircle
 10
1706.278537199299
 20
1690.09780977975
 30
0.0
 40
11.0
100
AcDbArc
 50
119.8997653639802
 51
300.000000000004
  0
LINE
  5
2F0
330
1F
100
AcDbEntity
  8
LAY-12
  6
CONTINUOUS
 62
     7
100
AcDbLine
 10
1700.795211113048
 20
1699.63369647328
 30
0.0
 11
1710.130118365051
 21
1705.023210452797
 31
0.0
  0
LINE
  5
2F1
330
1F
100
AcDbEntity
  8
LAY-12
  6
CONTINUOUS
 62
     7
100
AcDbLine
 10
1711.778537199299
 20
1680.57152977975
 30
0.0
 11
1721.130114526478
 21
1685.970656689612
 31
0.0
  0
ARC
  5
2F2
330
1F
100
AcDbEntity
  8
LAY-12
  6
CONTINUOUS
 62
     7
100
AcDbCircle
 10
1205.715857199299
 20
1690.09780977975
 30
0.0
 40
11.0
100
AcDbArc
 50
239.9999999999997
 51
60.10023463601961
  0
LINE
  5
2F3
330
1F
100
AcDbEntity
  8
LAY-12
  6
CONTINUOUS
 62
     7
100
AcDbLine
 10
1211.19918328555
 20
1699.63369647328
 30
0.0
 11
1201.864276033547
 21
1705.023210452797
 31
0.0
  0
LINE
  5
2F4
330
1F
100
AcDbEntity
  8
LAY-12
  6
CONTINUOUS
 62
     7
100
AcDbLine
 10
1200.215857199299
 20
1680.57152977975
 30
0.0
 11
1190.864279872121
 21
1685.970656689612
 31
0.0
  0
LINE
  5
2F5
330
1F
100
AcDbEntity
  8
LAY-12
  6
CONTINUOUS
 62
     7
100
AcDbLine
 10
1444.9971971993
 20
1297.59780977975
 30
0.0
 11
1444.9971971993
 21
1245.799544274427
 31
0.0
  0
ARC
  5
2F6
330
1F
100
AcDbEntity
  8
LAY-12
  6
CONTINUOUS
 62
     7
100
AcDbCircle
 10
1447.9971971993
 20
1297.59780977975
 30
0.0
 40
3.000000000000002
100
AcDbArc
 50
90.00000000000001
 51
180.0
  0
ARC
  5
2F7
330
1F
100
AcDbEntity
  8
LAY-12
  6
CONTINUOUS
 62
     7
100
AcDbCircle
 10
1463.997197199299
 20
1297.59780977975
 30
0.0
 40
3.000000000000002
100
AcDbArc
 50
0.0
 51
90.00000000000001
  0
CIRCLE
  5
2F8
330
1F
100
AcDbEntity
  8
LAY-12
  6
CONTINUOUS
 62
     7
100
AcDbCircle
 10
1520.132557281129
 20
1306.24136444265
 30
0.0
 40
27.00000000000002
  0
CIRCLE
  5
2F9
330
1F
100
AcDbEntity
  8
LAY-12
  6
CONTINUOUS
 62
     7
100
AcDbCircle
 10
1520.1325572811
 20
1306.241364442697
 30
0.0
 40
25.50000000000002
  0
ARC
  5
2FA
330
1F
100
AcDbEntity
  8
LAY-12
  6
CONTINUOUS
 62
     7
100
AcDbCircle
 10
1520.1325572811
 20
1306.241364442697
 30
0.0
 40
24.50000000000002
100
AcDbArc
 50
294.3964773768391
 51
95.60352262316142
  0
ARC
  5
2FB
330
1F
100
AcDbEntity
  8
LAY-12
  6
CONTINUOUS
 62
     7
100
AcDbCircle
 10
1520.1325572811
 20
1306.241364442697
 30
0.0
 40
24.50000000000002
100
AcDbArc
 50
114.3964773768394
 51
275.6035226231615
  0
LINE
  5
2FC
330
1F
100
AcDbEntity
  8
LAY-12
  6
CONTINUOUS
 62
     7
100
AcDbLine
 10
1517.478078797992
 20
1331.602826229879
 30
0.0
 11
1517.784603503795
 21
1330.458860454048
 31
0.0
  0
LINE
  5
2FD
330
1F
100
AcDbEntity
  8
LAY-12
  6
CONTINUOUS
 62
     7
100
AcDbLine
 10
1510.057196893482
 20
1328.388308093228
 30
0.0
 11
1509.750672187679
 21
1329.532273869059
 31
0.0
  0
LINE
  5
2FE
330
1F
100
AcDbEntity
  8
LAY-12
  6
CONTINUOUS
 62
     7
100
AcDbLine
 10
1510.057196893482
 20
1328.388308093228
 30
0.0
 11
1517.784603503795
 21
1330.458860454048
 31
0.0
  0
LINE
  5
2FF
330
1F
100
AcDbEntity
  8
LAY-12
  6
CONTINUOUS
 62
     7
100
AcDbLine
 10
1530.514442374521
 20
1282.950455016334
 30
0.0
 11
1530.207917668718
 21
1284.094420792165
 31
0.0
  0
LINE
  5
300
330
1F
100
AcDbEntity
  8
LAY-12
  6
CONTINUOUS
 62
     7
100
AcDbLine
 10
1522.480511058405
 20
1282.023868431345
 30
0.0
 11
1522.787035764208
 21
1280.879902655514
 31
0.0
  0
LINE
  5
301
330
1F
100
AcDbEntity
  8
LAY-12
  6
CONTINUOUS
 62
     7
100
AcDbLine
 10
1522.480511058405
 20
1282.023868431345
 30
0.0
 11
1530.207917668718
 21
1284.094420792165
 31
0.0
  0
LINE
  5
302
330
1F
100
AcDbEntity
  8
LAY-12
  6
CONTINUOUS
 62
     7
100
AcDbLine
 10
1527.011773263975
 20
1330.795923845402
 30
0.0
 11
1526.564816542021
 21
1332.463989040517
 31
0.0
  0
LINE
  5
303
330
1F
100
AcDbEntity
  8
LAY-12
  6
CONTINUOUS
 62
     7
100
AcDbLine
 10
1501.897701780459
 20
1324.066628672736
 30
0.0
 11
1501.450745058509
 21
1325.734693867835
 31
0.0
  0
LINE
  5
304
330
1F
100
AcDbEntity
  8
LAY-12
  6
CONTINUOUS
 62
     7
100
AcDbLine
 10
1538.367412781742
 20
1288.416100212657
 30
0.0
 11
1538.814369503722
 21
1286.74803501744
 31
0.0
  0
LINE
  5
305
330
1F
100
AcDbEntity
  8
LAY-12
  6
CONTINUOUS
 62
     7
100
AcDbLine
 10
1513.253341298226
 20
1281.686805039992
 30
0.0
 11
1513.700298020202
 21
1280.018739844792
 31
0.0
  0
LINE
  5
306
330
1F
100
AcDbEntity
  8
LAY-12
  6
CONTINUOUS
 62
     7
100
AcDbLine
 10
1463.9971971993
 20
1245.597809779752
 30
0.0
 11
1459.4971971993
 21
1245.597809779752
 31
0.0
  0
LINE
  5
307
330
1F
100
AcDbEntity
  8
LAY-12
  6
CONTINUOUS
 62
     7
100
AcDbLine
 10
1459.4971971993
 20
1250.097809779752
 30
0.0
 11
1452.4971971993
 21
1250.097809779752
 31
0.0
  0
LINE
  5
308
330
1F
100
AcDbEntity
  8
LAY-12
  6
CONTINUOUS
 62
     7
100
AcDbLine
 10
1452.4971971993
 20
1250.097809779752
 30
0.0
 11
1452.4971971993
 21
1245.597809779752
 31
0.0
  0
LINE
  5
309
330
1F
100
AcDbEntity
  8
LAY-12
  6
CONTINUOUS
 62
     7
100
AcDbLine
 10
1459.4971971993
 20
1250.097809779752
 30
0.0
 11
1459.4971971993
 21
1245.597809779752
 31
0.0
  0
ARC
  5
30A
330
1F
100
AcDbEntity
  8
LAY-12
  6
CONTINUOUS
 62
     7
100
AcDbCircle
 10
1447.9971971993
 20
1248.597809779752
 30
0.0
 40
3.000000000000002
100
AcDbArc
 50
180.0000000000002
 51
270.0000000000002
  0
ARC
  5
30B
330
1F
100
AcDbEntity
  8
LAY-12
  6
CONTINUOUS
 62
     7
100
AcDbCircle
 10
1463.9971971993
 20
1248.597809779752
 30
0.0
 40
3.000000000000002
100
AcDbArc
 50
270.0000000000002
 51
0.0000000000000573
  0
ARC
  5
30C
330
1F
100
AcDbEntity
  8
LAY-12
  6
CONTINUOUS
 62
     7
100
AcDbCircle
 10
1447.9971971993
 20
1248.597809779752
 30
0.0
 40
1.5
100
AcDbArc
 50
180.0000000000002
 51
270.0000000000002
  0
LINE
  5
30D
330
1F
100
AcDbEntity
  8
LAY-12
  6
CONTINUOUS
 62
     7
100
AcDbLine
 10
1447.9971971993
 20
1247.097809779752
 30
0.0
 11
1452.4971971993
 21
1247.097809779752
 31
0.0
  0
ARC
  5
30E
330
1F
100
AcDbEntity
  8
LAY-12
  6
CONTINUOUS
 62
     7
100
AcDbCircle
 10
1463.9971971993
 20
1248.597809779752
 30
0.0
 40
1.5
100
AcDbArc
 50
270.0000000000002
 51
0.0000000000000573
  0
LINE
  5
30F
330
1F
100
AcDbEntity
  8
LAY-12
  6
CONTINUOUS
 62
     7
100
AcDbLine
 10
1459.4971971993
 20
1247.097809779752
 30
0.0
 11
1463.9971971993
 21
1247.097809779752
 31
0.0
  0
LINE
  5
310
330
1F
100
AcDbEntity
  8
LAY-12
  6
CONTINUOUS
 62
     7
100
AcDbLine
 10
1459.4971971993
 20
1248.68604507387
 30
0.0
 11
1452.4971971993
 21
1248.68604507387
 31
0.0
  0
LINE
  5
311
330
1F
100
AcDbEntity
  8
LAY-12
  6
CONTINUOUS
 62
     7
100
AcDbLine
 10
1452.4971971993
 20
1245.597809779752
 30
0.0
 11
1447.9971971993
 21
1245.597809779752
 31
0.0
  0
ARC
  5
312
330
1F
100
AcDbEntity
  8
LAY-12
  6
CONTINUOUS
 62
     7
100
AcDbCircle
 10
1447.9971971993
 20
1297.597809779753
 30
0.0
 40
1.5
100
AcDbArc
 50
90.00000000000001
 51
180.0000000000002
  0
LINE
  5
313
330
1F
100
AcDbEntity
  8
LAY-12
  6
CONTINUOUS
 62
     7
100
AcDbLine
 10
1446.4971971993
 20
1297.59780977975
 30
0.0
 11
1446.4971971993
 21
1248.597809779752
 31
0.0
  0
ARC
  5
314
330
1F
100
AcDbEntity
  8
LAY-12
  6
CONTINUOUS
 62
     7
100
AcDbCircle
 10
1463.9971971993
 20
1297.597809779753
 30
0.0
 40
1.5
100
AcDbArc
 50
0.0000000000000573
 51
90.00000000000001
  0
LINE
  5
315
330
1F
100
AcDbEntity
  8
LAY-12
  6
CONTINUOUS
 62
     7
100
AcDbLine
 10
1447.997197199301
 20
1299.09780977975
 30
0.0
 11
1463.997197199301
 21
1299.09780977975
 31
0.0
  0
LINE
  5
316
330
1F
100
AcDbEntity
  8
LAY-12
  6
CONTINUOUS
 62
     7
100
AcDbLine
 10
1447.997197199301
 20
1300.59780977975
 30
0.0
 11
1463.997197199301
 21
1300.59780977975
 31
0.0
  0
LINE
  5
317
330
1F
100
AcDbEntity
  8
LAY-12
  6
CONTINUOUS
 62
     7
100
AcDbLine
 10
1465.4971971993
 20
1248.597809779752
 30
0.0
 11
1465.4971971993
 21
1297.59780977975
 31
0.0
  0
LINE
  5
318
330
1F
100
AcDbEntity
  8
LAY-12
  6
CONTINUOUS
 62
     7
100
AcDbLine
 10
1466.997197199301
 20
1245.79954427443
 30
0.0
 11
1466.997197199301
 21
1297.59780977975
 31
0.0
  0
CIRCLE
  5
319
330
1F
100
AcDbEntity
  8
LAY-12
  6
CONTINUOUS
 62
     7
100
AcDbCircle
 10
1455.9971971993
 20
1545.59780977975
 30
0.0
 40
300.0
  0
CIRCLE
  5
31A
330
1F
100
AcDbEntity
  8
LAY-12
  6
CONTINUOUS
 62
     7
100
AcDbCircle
 10
1672.499999999925
 20
730.6000000000172
 30
0.0
 40
4.0
  0
CIRCLE
  5
31B
330
1F
100
AcDbEntity
  8
LAY-12
  6
CONTINUOUS
 62
     7
100
AcDbCircle
 10
1672.499999999925
 20
730.6000000000172
 30
0.0
 40
6.000000000000004
  0
ARC
  5
31C
330
1F
100
AcDbEntity
  8
LAY-12
  6
CONTINUOUS
 62
     7
100
AcDbCircle
 10
1675.273502691821
 20
732.1000000000172
 30
0.0
 40
10.0
100
AcDbArc
 50
90.00000000000001
 51
150.0000000000008
  0
LINE
  5
31D
330
1F
100
AcDbEntity
  8
LAY-12
  6
CONTINUOUS
 62
     7
100
AcDbLine
 10
1724.999999999925
 20
746.6000000000172
 30
0.0
 11
1719.999999999925
 21
742.1000000000172
 31
0.0
  0
LINE
  5
31E
330
1F
100
AcDbEntity
  8
LAY-12
  6
CONTINUOUS
 62
     7
100
AcDbLine
 10
1729.999999999925
 20
741.6000000000172
 30
0.0
 11
1675.562177826416
 21
741.6000000000172
 31
0.0
  0
LINE
  5
31F
330
1F
100
AcDbEntity
  8
LAY-12
  6
CONTINUOUS
 62
     7
100
AcDbLine
 10
1730.48819370989
 20
742.5867495181437
 30
0.0
 11
1720.540832797844
 21
742.5867495181437
 31
0.0
  0
LINE
  5
320
330
1F
100
AcDbEntity
  8
LAY-12
  6
CONTINUOUS
 62
     7
100
AcDbLine
 10
1675.273502691821
 20
742.1000000000172
 30
0.0
 11
1719.999999999925
 21
742.1000000000172
 31
0.0
  0
LINE
  5
321
330
1F
100
AcDbEntity
  8
LAY-12
  6
CONTINUOUS
 62
     7
100
AcDbLine
 10
1666.613248653977
 20
737.1000000000172
 30
0.0
 11
1662.283121635055
 21
729.6000000000172
 31
0.0
  0
LINE
  5
322
330
1F
100
AcDbEntity
  8
LAY-12
  6
CONTINUOUS
 62
     7
100
AcDbLine
 10
1743.665049542161
 20
716.6000000000172
 30
0.0
 11
1746.700534216459
 21
737.8943901704126
 31
0.0
  0
ARC
  5
323
330
1F
100
AcDbEntity
  8
LAY-12
  6
CONTINUOUS
 62
     7
100
AcDbCircle
 10
1741.750573128898
 20
738.6000000000172
 30
0.0
 40
5.0
100
AcDbArc
 50
351.8872252280968
 51
90.00000000000001
  0
LINE
  5
324
330
1F
100
AcDbEntity
  8
LAY-12
  6
CONTINUOUS
 62
     7
100
AcDbLine
 10
1738.999999999921
 20
746.6000000000172
 30
0.0
 11
1739.999999999921
 21
743.6000000000172
 31
0.0
  0
LINE
  5
325
330
1F
100
AcDbEntity
  8
LAY-12
  6
CONTINUOUS
 62
     7
100
AcDbLine
 10
1738.999999999921
 20
746.6000000000172
 30
0.0
 11
1724.999999999925
 21
746.6000000000172
 31
0.0
  0
LINE
  5
326
330
1F
100
AcDbEntity
  8
LAY-12
  6
CONTINUOUS
 62
     7
100
AcDbLine
 10
1739.999999999921
 20
743.6000000000172
 30
0.0
 11
1741.750573128898
 21
743.6000000000172
 31
0.0
  0
LINE
  5
327
330
1F
100
AcDbEntity
  8
LAY-12
  6
CONTINUOUS
 62
     7
100
AcDbLine
 10
1741.343221404319
 20
735.9284625715138
 30
0.0
 11
1723.438835425181
 21
741.745950225092
 31
0.0
  0
LINE
  5
328
330
1F
100
AcDbEntity
  8
LAY-12
  6
CONTINUOUS
 62
     7
100
AcDbLine
 10
1740.60874594599
 20
735.1156458900866
 30
0.0
 11
1723.314685090451
 21
740.7348268899016
 31
0.0
  0
LINE
  5
329
330
1F
100
AcDbEntity
  8
LAY-12
  6
CONTINUOUS
 62
     7
100
AcDbLine
 10
1722.244384880485
 20
717.6038205525288
 30
0.0
 11
1730.871955921727
 21
718.2071190902589
 31
0.0
  0
LINE
  5
32A
330
1F
100
AcDbEntity
  8
LAY-12
  6
CONTINUOUS
 62
     7
100
AcDbLine
 10
1722.17462840674
 20
718.601384602789
 30
0.0
 11
1730.802199447982
 21
719.2046831405187
 31
0.0
  0
ARC
  5
32B
330
1F
100
AcDbEntity
  8
LAY-12
  6
CONTINUOUS
 62
     7
100
AcDbCircle
 10
1729.999999999925
 20
730.6766697185067
 30
0.0
 40
12.50000000000001
100
AcDbArc
 50
274.0000000000003
 51
24.84364304359627
  0
ARC
  5
32C
330
1F
100
AcDbEntity
  8
LAY-12
  6
CONTINUOUS
 62
     7
100
AcDbCircle
 10
1729.999999999925
 20
730.6766697185067
 30
0.0
 40
11.50000000000001
100
AcDbArc
 50
273.9999999999994
 51
22.7057068310427
  0
LINE
  5
32D
330
1F
100
AcDbEntity
  8
LAY-12
  6
CONTINUOUS
 62
     7
100
AcDbLine
 10
1722.287322545476
 20
685.1964804347522
 30
0.0
 11
1716.724281644802
 21
711.3685301563232
 31
0.0
  0
ARC
  5
32E
330
1F
100
AcDbEntity
  8
LAY-12
  6
CONTINUOUS
 62
     7
100
AcDbCircle
 10
1722.593167249205
 20
712.6160003012296
 30
0.0
 40
5.0
100
AcDbArc
 50
93.9999999999991
 51
192.0000000000004
  0
ARC
  5
32F
330
1F
100
AcDbEntity
  8
LAY-12
  6
CONTINUOUS
 62
     7
100
AcDbCircle
 10
1722.593167249205
 20
712.6160003012301
 30
0.0
 40
6.000000000000004
100
AcDbArc
 50
94.00000000000087
 51
192.000000000003
  0
ARC
  5
330
330
1F
100
AcDbEntity
  8
LAY-12
  6
CONTINUOUS
 62
     7
100
AcDbCircle
 10
1722.593167249205
 20
712.6160003012301
 30
0.0
 40
29.00000000000002
100
AcDbArc
 50
93.99999999999923
 51
124.2885378915743
  0
ARC
  5
331
330
1F
100
AcDbEntity
  8
LAY-12
  6
CONTINUOUS
 62
     7
100
AcDbCircle
 10
1722.593167249205
 20
712.6160003012301
 30
0.0
 40
28.00000000000002
100
AcDbArc
 50
93.99999999999835
 51
124.2885378915751
  0
LINE
  5
332
330
1F
100
AcDbEntity
  8
LAY-12
  6
CONTINUOUS
 62
     7
100
AcDbLine
 10
1723.08192940253
 20
686.2678834346029
 30
0.0
 11
1717.702429245536
 21
711.5764418471408
 31
0.0
  0
LINE
  5
333
330
1F
100
AcDbEntity
  8
LAY-12
  6
CONTINUOUS
 62
     7
100
AcDbLine
 10
1723.08192940253
 20
686.2678834346029
 30
0.0
 11
1731.115021899218
 21
686.9530293604112
 31
0.0
  0
LINE
  5
334
330
1F
100
AcDbEntity
  8
LAY-12
  6
CONTINUOUS
 62
     7
100
AcDbLine
 10
1723.08192940253
 20
686.2678834346029
 30
0.0
 11
1722.287322545476
 21
685.1964804347522
 31
0.0
  0
LINE
  5
335
330
1F
100
AcDbEntity
  8
LAY-12
  6
CONTINUOUS
 62
     7
100
AcDbLine
 10
1720.63998598437
 20
740.5477937085054
 30
0.0
 11
1723.314685090451
 21
740.7348268899016
 31
0.0
  0
LINE
  5
336
330
1F
100
AcDbEntity
  8
LAY-12
  6
CONTINUOUS
 62
     7
100
AcDbLine
 10
1720.570229510626
 20
741.5453577587652
 30
0.0
 11
1723.438835425181
 21
741.745950225092
 31
0.0
  0
LINE
  5
337
330
1F
100
AcDbEntity
  8
LAY-12
  6
CONTINUOUS
 62
     7
100
AcDbLine
 10
1700.645945439007
 20
676.3872648513075
 30
0.0
 11
1694.040332495042
 21
707.4642303990481
 31
0.0
  0
LINE
  5
338
330
1F
100
AcDbEntity
  8
LAY-12
  6
CONTINUOUS
 62
     7
100
AcDbLine
 10
1690.562966948362
 20
720.3239079144059
 30
0.0
 11
1690.550160313971
 21
720.3717029246304
 31
0.0
  0
LINE
  5
339
330
1F
100
AcDbEntity
  8
LAY-12
  6
CONTINUOUS
 62
     7
100
AcDbLine
 10
1696.29576078586
 20
724.9020919343975
 30
0.0
 11
1706.819065537065
 21
735.7499086432088
 31
0.0
  0
ARC
  5
33A
330
1F
100
AcDbEntity
  8
LAY-12
  6
CONTINUOUS
 62
     7
100
AcDbCircle
 10
1690.985078111906
 20
705.0040019554594
 30
0.0
 40
15.00000000000001
100
AcDbArc
 50
12.00000000000025
 51
66.81846363547163
  0
ARC
  5
33B
330
1F
100
AcDbEntity
  8
LAY-12
  6
CONTINUOUS
 62
     7
100
AcDbCircle
 10
1698.267523499877
 20
722.0103533916504
 30
0.0
 40
3.500000000000002
100
AcDbArc
 50
124.2885378915716
 51
246.8184636354713
  0
LINE
  5
33C
330
1F
100
AcDbEntity
  8
LAY-12
  6
CONTINUOUS
 62
     7
100
AcDbLine
 10
1730.320415042164
 20
685.8816263605604
 30
0.0
 11
1722.287322545476
 21
685.1964804347522
 31
0.0
  0
LINE
  5
33D
330
1F
100
AcDbEntity
  8
LAY-12
  6
CONTINUOUS
 62
     7
100
AcDbLine
 10
1730.320415042164
 20
685.8816263605604
 30
0.0
 11
1725.732825455876
 21
655.1387903442305
 31
0.0
  0
LINE
  5
33E
330
1F
100
AcDbEntity
  8
LAY-12
  6
CONTINUOUS
 62
     7
100
AcDbLine
 10
1731.115021899218
 20
686.9530293604112
 30
0.0
 11
1727.368606116029
 21
666.1006550986735
 31
0.0
  0
LINE
  5
33F
330
1F
100
AcDbEntity
  8
LAY-12
  6
CONTINUOUS
 62
     7
100
AcDbLine
 10
1705.657292122914
 20
708.1226773177259
 30
0.0
 11
1711.894642847446
 21
678.7782492957117
 31
0.0
  0
LINE
  5
340
330
1F
100
AcDbEntity
  8
LAY-12
  6
CONTINUOUS
 62
     7
100
AcDbLine
 10
1725.732825455876
 20
655.1387903442305
 30
0.0
 11
1723.287601510145
 21
643.1892618681613
 31
0.0
  0
ARC
  5
341
330
1F
100
AcDbEntity
  8
LAY-12
  6
CONTINUOUS
 62
     7
100
AcDbCircle
 10
1632.175613387641
 20
661.8334464940644
 30
0.0
 40
93.00000000000007
100
AcDbArc
 50
334.9455106480033
 51
348.435256839799
  0
ARC
  5
342
330
1F
100
AcDbEntity
  8
LAY-12
  6
CONTINUOUS
 62
     7
100
AcDbCircle
 10
1632.175613387641
 20
661.8334464940644
 30
0.0
 40
70.0
100
AcDbArc
 50
336.7021117777712
 51
11.99999999999951
  0
ARC
  5
343
330
1F
100
AcDbEntity
  8
LAY-12
  6
CONTINUOUS
 62
     7
100
AcDbCircle
 10
1669.506255534741
 20
639.7312488187185
 30
0.0
 40
50.00000000000004
100
AcDbArc
 50
297.3538888530292
 51
339.7798139699763
  0
LINE
  5
344
330
1F
100
AcDbEntity
  8
LAY-12
  6
CONTINUOUS
 62
     7
100
AcDbLine
 10
1684.517178168791
 20
600.8749311271652
 30
0.0
 11
1688.815220582173
 21
611.0004845151423
 31
0.0
  0
LINE
  5
345
330
1F
100
AcDbEntity
  8
LAY-12
  6
CONTINUOUS
 62
     7
100
AcDbLine
 10
1687.755673132247
 20
613.6229564790253
 30
0.0
 11
1688.815220582173
 21
611.0004845151423
 31
0.0
  0
ARC
  5
346
330
1F
100
AcDbEntity
  8
LAY-12
  6
CONTINUOUS
 62
     7
100
AcDbCircle
 10
1688.450886114616
 20
602.4642523020545
 30
0.0
 40
5.0
100
AcDbArc
 50
156.9999999999999
 51
247.0000000000026
  0
ARC
  5
347
330
1F
100
AcDbEntity
  8
LAY-12
  6
CONTINUOUS
 62
     7
100
AcDbCircle
 10
1669.506255534741
 20
639.7312488187185
 30
0.0
 40
48.7482432798599
100
AcDbArc
 50
299.1642142591254
 51
316.7129187882979
  0
LINE
  5
348
330
1F
100
AcDbEntity
  8
LAY-12
  6
CONTINUOUS
 62
     7
100
AcDbLine
 10
1703.482892334833
 20
604.7744272437096
 30
0.0
 11
1706.217794729002
 21
605.7862508074038
 31
0.0
  0
ARC
  5
349
330
1F
100
AcDbEntity
  8
LAY-12
  6
CONTINUOUS
 62
     7
100
AcDbCircle
 10
1737.203489145574
 20
662.4020658385889
 30
0.0
 40
24.46766174806986
100
AcDbArc
 50
106.3385910537868
 51
166.3385910537905
  0
LINE
  5
34A
330
1F
100
AcDbEntity
  8
LAY-12
  6
CONTINUOUS
 62
     7
100
AcDbLine
 10
1694.710082867198
 20
596.5482997786673
 30
0.0
 11
1684.517178168791
 21
600.8749311271652
 31
0.0
  0
LINE
  5
34B
330
1F
100
AcDbEntity
  8
LAY-12
  6
CONTINUOUS
 62
     7
100
AcDbLine
 10
1704.730182270803
 20
604.2449840773781
 30
0.0
 11
1688.815220582173
 21
611.0004845151423
 31
0.0
  0
LINE
  5
34C
330
1F
100
AcDbEntity
  8
LAY-12
  6
CONTINUOUS
 62
     7
100
AcDbLine
 10
1706.217794729002
 20
605.7862508074038
 30
0.0
 11
1687.755673132247
 21
613.6229564790253
 31
0.0
  0
LINE
  5
34D
330
1F
100
AcDbEntity
  8
LAY-12
  6
CONTINUOUS
 62
     7
100
AcDbLine
 10
1730.320415042164
 20
685.8816263605604
 30
0.0
 11
1731.115021899218
 21
686.9530293604112
 31
0.0
  0
CIRCLE
  5
34E
330
1F
100
AcDbEntity
  8
LAY-12
  6
CONTINUOUS
 62
     7
100
AcDbCircle
 10
1729.999999999925
 20
730.6766697185067
 30
0.0
 40
6.750000000000004
  0
CIRCLE
  5
34F
330
1F
100
AcDbEntity
  8
LAY-12
  6
CONTINUOUS
 62
     7
100
AcDbCircle
 10
1729.999999999925
 20
730.6766697185067
 30
0.0
 40
5.750000000000004
  0
LINE
  5
350
330
1F
100
AcDbEntity
  8
LAY-12
  6
HIDDEN
 62
     4
100
AcDbLine
 10
1730.320415042164
 20
685.8816263605604
 30
0.0
 11
1730.946436571268
 21
686.0146913443182
 31
0.0
  0
LINE
  5
351
330
1F
100
AcDbEntity
  8
LAY-12
  6
CONTINUOUS
 62
     7
100
AcDbLine
 10
1696.752283959152
 20
634.8176433799883
 30
0.0
 11
1683.848361847354
 21
604.4179079445005
 31
0.0
  0
LINE
  5
352
330
1F
100
AcDbEntity
  8
LAY-12
  6
CONTINUOUS
 62
     7
100
AcDbLine
 10
1686.49723047217
 20
597.8617280347923
 30
0.0
 11
1692.480512019611
 21
595.321975699612
 31
0.0
  0
ARC
  5
353
330
1F
100
AcDbEntity
  8
LAY-12
  6
CONTINUOUS
 62
     7
100
AcDbCircle
 10
1632.175613387641
 20
661.8334464940644
 30
0.0
 40
81.5
100
AcDbArc
 50
4.466903576710654
 51
11.99999999999974
  0
LINE
  5
354
330
1F
100
AcDbEntity
  8
LAY-12
  6
CONTINUOUS
 62
     7
100
AcDbLine
 10
1690.470302300639
 20
722.8932241049911
 30
0.0
 11
1706.255704761631
 21
736.5761196554224
 31
0.0
  0
ARC
  5
355
330
1F
100
AcDbEntity
  8
LAY-12
  6
CONTINUOUS
 62
     7
100
AcDbCircle
 10
1674.477380480366
 20
703.3059965826928
 30
0.0
 40
20.0
100
AcDbArc
 50
12.00000000000037
 51
41.60568303313754
  0
ARC
  5
356
330
1F
100
AcDbEntity
  8
LAY-12
  6
CONTINUOUS
 62
     7
100
AcDbCircle
 10
1693.745257518191
 20
719.1150409009861
 30
0.0
 40
5.0
100
AcDbArc
 50
130.9189708299541
 51
210.3849598547043
  0
ARC
  5
357
330
1F
100
AcDbEntity
  8
LAY-12
  6
CONTINUOUS
 62
     7
100
AcDbCircle
 10
1729.999999999925
 20
733.6000000000172
 30
0.0
 40
9.0
100
AcDbArc
 50
21.45912068166665
 51
93.1094638309953
  0
ARC
  5
358
330
1F
100
AcDbEntity
  8
LAY-12
  6
CONTINUOUS
 62
     7
100
AcDbCircle
 10
1729.999999999925
 20
733.6000000000172
 30
0.0
 40
8.0
100
AcDbArc
 50
27.64061447065762
 51
90.00000000000001
  0
LINE
  5
359
330
1F
100
AcDbEntity
  8
LAY-12
  6
CONTINUOUS
 62
     7
100
AcDbLine
 10
1719.259733638779
 20
716.3426905707424
 30
0.0
 11
1741.169554333328
 21
718.1000000000172
 31
0.0
  0
LINE
  5
35A
330
1F
100
AcDbEntity
  8
LAY-12
  6
CONTINUOUS
 62
     7
100
AcDbLine
 10
1664.999999999925
 20
715.6000000000172
 30
0.0
 11
1690.25259775224
 21
715.6000000000172
 31
0.0
  0
CIRCLE
  5
35B
330
1F
100
AcDbEntity
  8
LAY-12
  6
CONTINUOUS
 62
     7
100
AcDbCircle
 10
1672.499999999927
 20
730.6975319698372
 30
0.0
 40
8.0
  0
LINE
  5
35C
330
1F
100
AcDbEntity
  8
LAY-12
  6
CONTINUOUS
 62
     7
100
AcDbLine
 10
1669.440043573223
 20
735.6975319698374
 30
0.0
 11
1675.386751345876
 21
735.6975319698374
 31
0.0
  0
LINE
  5
35D
330
1F
100
AcDbEntity
  8
LAY-12
  6
CONTINUOUS
 62
     7
100
AcDbLine
 10
1669.61324865398
 20
725.6975319698372
 30
0.0
 11
1666.639894767653
 21
730.8475319698373
 31
0.0
  0
LINE
  5
35E
330
1F
100
AcDbEntity
  8
LAY-12
  6
CONTINUOUS
 62
     7
100
AcDbLine
 10
1675.559956426633
 20
725.6975319698372
 30
0.0
 11
1669.61324865398
 21
725.6975319698372
 31
0.0
  0
LINE
  5
35F
330
1F
100
AcDbEntity
  8
LAY-12
  6
CONTINUOUS
 62
     7
100
AcDbLine
 10
1678.360105232202
 20
730.5475319698376
 30
0.0
 11
1675.386751345876
 21
735.6975319698377
 31
0.0
  0
LINE
  5
360
330
1F
100
AcDbEntity
  8
LAY-12
  6
CONTINUOUS
 62
     7
100
AcDbLine
 10
1664.763506392786
 20
716.6975319698372
 30
0.0
 11
1671.922649730737
 21
716.6975319698372
 31
0.0
  0
LINE
  5
361
330
1F
100
AcDbEntity
  8
LAY-12
  6
CONTINUOUS
 62
     7
100
AcDbLine
 10
1675.629665174536
 20
723.1182710629387
 30
0.0
 11
1671.922649730737
 21
716.6975319698372
 31
0.0
  0
LINE
  5
362
330
1F
100
AcDbEntity
  8
LAY-12
  6
CONTINUOUS
 62
     7
100
AcDbLine
 10
1664.347251026119
 20
731.5765565258462
 30
0.0
 11
1660.260174293107
 21
724.4975319698374
 31
0.0
  0
ARC
  5
363
330
1F
100
AcDbEntity
  8
LAY-12
  6
CONTINUOUS
 62
     7
100
AcDbCircle
 10
1664.763506392786
 20
721.8975319698375
 30
0.0
 40
5.200000000000006
100
AcDbArc
 50
150.000000000001
 51
270.0000000000002
  0
CIRCLE
  5
364
330
1F
100
AcDbEntity
  8
LAY-12
  6
CONTINUOUS
 62
     7
100
AcDbCircle
 10
1672.499999999927
 20
730.6975319698372
 30
0.0
 40
3.1
  0
LINE
  5
365
330
1F
100
AcDbEntity
  8
LAY-12
  6
CONTINUOUS
 62
     7
100
AcDbLine
 10
1680.866600265268
 20
732.1975319698372
 30
0.0
 11
1701.292893218741
 21
732.1975319698372
 31
0.0
  0
LINE
  5
366
330
1F
100
AcDbEntity
  8
LAY-12
  6
CONTINUOUS
 62
     7
100
AcDbLine
 10
1675.559956426633
 20
725.6975319698372
 30
0.0
 11
1678.360105232202
 21
730.5475319698376
 31
0.0
  0
LINE
  5
367
330
1F
100
AcDbEntity
  8
LAY-12
  6
CONTINUOUS
 62
     7
100
AcDbLine
 10
1666.639894767653
 20
730.8475319698373
 30
0.0
 11
1669.440043573223
 21
735.6975319698374
 31
0.0
  0
LINE
  5
368
330
1F
100
AcDbEntity
  8
LAY-12
  6
CONTINUOUS
 62
     7
100
AcDbLine
 10
1707.999999999927
 20
738.9046387510239
 30
0.0
 11
1708.499999999927
 21
738.6975319698374
 31
0.0
  0
LINE
  5
369
330
1F
100
AcDbEntity
  8
LAY-12
  6
CONTINUOUS
 62
     7
100
AcDbLine
 10
1669.035898384789
 20
739.6975319698372
 30
0.0
 11
1667.662367916969
 21
737.3185074138287
 31
0.0
  0
ARC
  5
36A
330
1F
100
AcDbEntity
  8
LAY-12
  6
CONTINUOUS
 62
     7
100
AcDbCircle
 10
1672.499999999927
 20
730.6975319698372
 30
0.0
 40
8.5
100
AcDbArc
 50
10.1642486217226
 51
86.62771331656762
  0
LINE
  5
36B
330
1F
100
AcDbEntity
  8
LAY-12
  6
CONTINUOUS
 62
     7
100
AcDbLine
 10
1708.499999999925
 20
738.6975319698411
 30
0.0
 11
1708.499999999925
 21
739.497531969841
 31
0.0
  0
LINE
  5
36C
330
1F
100
AcDbEntity
  8
LAY-12
  6
CONTINUOUS
 62
     7
100
AcDbLine
 10
1672.499999999925
 20
738.8975319698411
 30
0.0
 11
1672.499999999925
 21
739.6975319698411
 31
0.0
  0
LINE
  5
36D
330
1F
100
AcDbEntity
  8
LAY-12
  6
CONTINUOUS
 62
     7
100
AcDbLine
 10
1707.999999999925
 20
738.9046387510211
 30
0.0
 11
1707.999999999925
 21
739.6975319698372
 31
0.0
  0
LINE
  5
36E
330
1F
100
AcDbEntity
  8
LAY-12
  6
CONTINUOUS
 62
     7
100
AcDbLine
 10
1708.49999999993
 20
739.4975319698372
 30
0.0
 11
1711.712760310598
 21
739.4975319698372
 31
0.0
  0
LINE
  5
36F
330
1F
100
AcDbEntity
  8
LAY-12
  6
CONTINUOUS
 62
     7
100
AcDbLine
 10
1708.499999999927
 20
738.6975319698374
 30
0.0
 11
1706.628728377981
 21
736.8262603478911
 31
0.0
  0
LINE
  5
370
330
1F
100
AcDbEntity
  8
LAY-12
  6
CONTINUOUS
 62
     7
100
AcDbLine
 10
1701.869413012214
 20
732.7740517633106
 30
0.0
 11
1707.999999999927
 21
738.9046387510239
 31
0.0
  0
LINE
  5
371
330
1F
100
AcDbEntity
  8
LAY-12
  6
CONTINUOUS
 62
     7
100
AcDbLine
 10
1680.638795979678
 20
731.6975319698372
 30
0.0
 11
1700.627475723826
 21
731.6975319698372
 31
0.0
  0
LINE
  5
372
330
1F
100
AcDbEntity
  8
LAY-12
  6
CONTINUOUS
 62
     7
100
AcDbLine
 10
1712.220576324936
 20
739.6975319698372
 30
0.0
 11
1669.035898384789
 21
739.6975319698372
 31
0.0
  0
LINE
  5
373
330
1F
100
AcDbEntity
  8
LAY-12
  6
CONTINUOUS
 62
     7
100
AcDbLine
 10
1679.766360849761
 20
726.8975319698375
 30
0.0
 11
1695.089910116203
 21
726.8975319698375
 31
0.0
  0
LINE
  5
374
330
1F
100
AcDbEntity
  8
LAY-12
  6
CONTINUOUS
 62
     7
100
AcDbLine
 10
1694.859178215885
 20
726.6975319698372
 30
0.0
 11
1679.658212067196
 21
726.6975319698372
 31
0.0
  0
ARC
  5
375
330
1F
100
AcDbEntity
  8
LAY-12
  6
CONTINUOUS
 62
     7
100
AcDbCircle
 10
1672.499999999927
 20
730.6975319698372
 30
0.0
 40
8.200000000000006
100
AcDbArc
 50
90.00000000000001
 51
7.004726409076377
  0
ARC
  5
376
330
1F
100
AcDbEntity
  8
LAY-12
  6
CONTINUOUS
 62
     7
100
AcDbCircle
 10
1675.562177826416
 20
732.6000000000172
 30
0.0
 40
9.0
100
AcDbArc
 50
90.00000000000001
 51
146.2030441492495
  0
LINE
  5
377
330
1F
100
AcDbEntity
  8
LAY-12
  6
CONTINUOUS
 62
     7
100
AcDbLine
 10
1663.206085583863
 20
729.6000000000172
 30
0.0
 11
1660.916666666592
 21
729.6000000000172
 31
0.0
  0
LINE
  5
378
330
1F
100
AcDbEntity
  8
LAY-12
  6
CONTINUOUS
 62
     7
100
AcDbLine
 10
1664.679689472963
 20
716.6982075210312
 30
0.0
 11
1664.999999999925
 21
715.6000000000172
 31
0.0
  0
LINE
  5
379
330
1F
100
AcDbEntity
  8
LAY-12
  6
CONTINUOUS
 62
     7
100
AcDbLine
 10
1753.594590129791
 20
743.6000000000176
 30
0.0
 11
1753.59459165293
 21
743.6000000000176
 31
0.0
  0
LINE
  5
37A
330
1F
100
AcDbEntity
  8
LAY-12
  6
CONTINUOUS
 62
     7
100
AcDbLine
 10
1380.632036029818
 20
742.6000000000174
 30
0.0
 11
1529.36796397019
 21
742.6000000000174
 31
0.0
  0
LINE
  5
37B
330
1F
100
AcDbEntity
  8
LAY-12
  6
CONTINUOUS
 62
     7
100
AcDbLine
 10
1560.640835782006
 20
743.6000000000174
 30
0.0
 11
1651.583273333338
 21
743.6000000000174
 31
0.0
  0
LINE
  5
37C
330
1F
100
AcDbEntity
  8
LAY-12
  6
CONTINUOUS
 62
     7
100
AcDbLine
 10
1550.647521622169
 20
733.9656119566112
 30
0.0
 11
1549.605734247955
 21
705.4903164130392
 31
0.0
  0
LINE
  5
37D
330
1F
100
AcDbEntity
  8
LAY-12
  6
CONTINUOUS
 62
     7
100
AcDbLine
 10
1539.360940243
 20
732.9747335200668
 30
0.0
 11
1540.391700002105
 21
705.4875799440024
 31
0.0
  0
LINE
  5
37E
330
1F
100
AcDbEntity
  8
LAY-12
  6
CONTINUOUS
 62
     7
100
AcDbLine
 10
1359.352478377839
 20
733.9656119566112
 30
0.0
 11
1360.394265752053
 21
705.4903164130392
 31
0.0
  0
LINE
  5
37F
330
1F
100
AcDbEntity
  8
LAY-12
  6
CONTINUOUS
 62
     7
100
AcDbLine
 10
1370.639059757007
 20
732.9747335200668
 30
0.0
 11
1369.608299997903
 21
705.4875799440024
 31
0.0
  0
LINE
  5
380
330
1F
100
AcDbEntity
  8
LAY-12
  6
CONTINUOUS
 62
     7
100
AcDbLine
 10
1546.607740000003
 20
702.6000000000172
 30
0.0
 11
1363.392240000004
 21
702.6000000000172
 31
0.0
  0
LINE
  5
381
330
1F
100
AcDbEntity
  8
LAY-12
  6
CONTINUOUS
 62
     7
100
AcDbLine
 10
1546.607740000003
 20
702.6000000000172
 30
0.0
 11
1667.787760000003
 21
715.6000000000172
 31
0.0
  0
ARC
  5
382
330
1F
100
AcDbEntity
  8
LAY-12
  6
CONTINUOUS
 62
     7
100
AcDbCircle
 10
1560.640835782006
 20
733.6000000000174
 30
0.0
 40
10.0
100
AcDbArc
 50
90.00000000000001
 51
177.9047308194545
  0
ARC
  5
383
330
1F
100
AcDbEntity
  8
LAY-12
  6
CONTINUOUS
 62
     7
100
AcDbCircle
 10
1529.36796397019
 20
732.6000000000174
 30
0.0
 40
10.0
100
AcDbArc
 50
2.147567735302289
 51
90.00000000000001
  0
ARC
  5
384
330
1F
100
AcDbEntity
  8
LAY-12
  6
CONTINUOUS
 62
     7
100
AcDbCircle
 10
1546.607740000003
 20
705.6000000000172
 30
0.0
 40
3.000000000000002
100
AcDbArc
 50
270.0000000000002
 51
357.9047308194546
  0
ARC
  5
385
330
1F
100
AcDbEntity
  8
LAY-12
  6
CONTINUOUS
 62
     7
100
AcDbCircle
 10
1543.389592883948
 20
705.6000000000172
 30
0.0
 40
3.000000000000002
100
AcDbArc
 50
182.1475677353016
 51
270.0000000000002
  0
ARC
  5
386
330
1F
100
AcDbEntity
  8
LAY-12
  6
CONTINUOUS
 62
     7
100
AcDbCircle
 10
1380.632036029818
 20
732.6000000000174
 30
0.0
 40
10.0
100
AcDbArc
 50
90.00000000000001
 51
177.8524322646977
  0
ARC
  5
387
330
1F
100
AcDbEntity
  8
LAY-12
  6
CONTINUOUS
 62
     7
100
AcDbCircle
 10
1349.359164218002
 20
733.6000000000174
 30
0.0
 40
10.0
100
AcDbArc
 50
2.095269180545987
 51
90.00000000000001
  0
ARC
  5
388
330
1F
100
AcDbEntity
  8
LAY-12
  6
CONTINUOUS
 62
     7
100
AcDbCircle
 10
1366.61040711606
 20
705.6000000000172
 30
0.0
 40
3.000000000000002
100
AcDbArc
 50
270.0000000000002
 51
357.8524322646989
  0
ARC
  5
389
330
1F
100
AcDbEntity
  8
LAY-12
  6
CONTINUOUS
 62
     7
100
AcDbCircle
 10
1363.392260000004
 20
705.6000000000172
 30
0.0
 40
3.000000000000002
100
AcDbArc
 50
182.0952691805457
 51
270.0000000000002
  0
ARC
  5
38A
330
1F
100
AcDbEntity
  8
LAY-12
  6
CONTINUOUS
 62
     7
100
AcDbCircle
 10
1651.583273333338
 20
736.6000000000174
 30
0.0
 40
7.000000000000004
100
AcDbArc
 50
16.26020470831219
 51
90.00000000000001
  0
ARC
  5
38B
330
1F
100
AcDbEntity
  8
LAY-12
  6
CONTINUOUS
 62
     7
100
AcDbCircle
 10
1206.000060000004
 20
715.6000000000172
 30
0.0
 40
8.0
100
AcDbArc
 50
270.0000000000002
 51
328.1982070166234
  0
LINE
  5
38C
330
1F
100
AcDbEntity
  8
LAY-12
  6
CONTINUOUS
 62
     7
100
AcDbLine
 10
1206.000060000004
 20
707.6000000000172
 30
0.0
 11
1177.726179473033
 21
707.6000000000172
 31
0.0
  0
ARC
  5
38D
330
1F
100
AcDbEntity
  8
LAY-12
  6
CONTINUOUS
 62
     7
100
AcDbCircle
 10
1177.726179473033
 20
712.6000000000172
 30
0.0
 40
5.0
100
AcDbArc
 50
212.7995017704195
 51
270.0000000000002
  0
LINE
  5
38E
330
1F
100
AcDbEntity
  8
LAY-12
  6
CONTINUOUS
 62
     7
100
AcDbLine
 10
1349.359164218002
 20
743.6000000000174
 30
0.0
 11
1236.899368574957
 21
743.6000000000174
 31
0.0
  0
LINE
  5
38F
330
1F
100
AcDbEntity
  8
LAY-12
  6
CONTINUOUS
 62
     7
100
AcDbLine
 10
1229.339923287553
 20
725.7672890952654
 30
0.0
 11
1231.989336340053
 21
739.544236968268
 31
0.0
  0
ARC
  5
390
330
1F
100
AcDbEntity
  8
LAY-12
  6
CONTINUOUS
 62
     7
100
AcDbCircle
 10
1236.899368574956
 20
738.6000000000174
 30
0.0
 40
5.0
100
AcDbArc
 50
90.00000000000001
 51
169.114472945341
  0
LINE
  5
391
330
1F
100
AcDbEntity
  8
LAY-12
  6
CONTINUOUS
 62
     7
100
AcDbLine
 10
1363.392240000004
 20
702.6000000000172
 30
0.0
 11
1224.685251413806
 21
717.4875828698141
 31
0.0
  0
LINE
  5
392
330
1F
100
AcDbEntity
  8
LAY-12
  6
CONTINUOUS
 62
     7
100
AcDbLine
 10
1658.303273333337
 20
738.5600000000175
 30
0.0
 11
1661.685020556698
 21
726.9654380913516
 31
0.0
  0
LINE
  5
393
330
1F
100
AcDbEntity
  8
LAY-12
  6
CONTINUOUS
 62
     7
100
AcDbLine
 10
1754.999999999928
 20
753.6000000000163
 30
0.0
 11
1749.589180328615
 21
715.1000175374825
 31
0.0
  0
LINE
  5
394
330
1F
100
AcDbEntity
  8
LAY-12
  6
CONTINUOUS
 62
     7
100
AcDbLine
 10
1749.589177863902
 20
715.100000000019
 30
0.0
 11
1754.99999999995
 21
753.6000000000204
 31
0.0
  0
LINE
  5
395
330
1F
100
AcDbEntity
  8
LAY-12
  6
CONTINUOUS
 62
     7
100
AcDbLine
 10
1835.482330318854
 20
701.1883484054347
 30
0.0
 11
1836.999999999937
 21
693.6000000000204
 31
0.0
  0
ARC
  5
396
330
1F
100
AcDbEntity
  8
LAY-12
  6
CONTINUOUS
 62
     7
100
AcDbCircle
 10
1832.540588291781
 20
700.6000000000199
 30
0.0
 40
3.000000000000002
100
AcDbArc
 50
11.30993247401977
 51
90.00000000000001
  0
LINE
  5
397
330
1F
100
AcDbEntity
  8
LAY-12
  6
HIDDEN
 62
     4
100
AcDbLine
 10
1819.999999999937
 20
703.6000000000199
 30
0.0
 11
1814.999999999937
 21
700.6000000000199
 31
0.0
  0
LINE
  5
398
330
1F
100
AcDbEntity
  8
LAY-12
  6
CONTINUOUS
 62
     7
100
AcDbLine
 10
1687.500065285606
 20
702.0999816543899
 30
0.0
 11
1686.68139056764
 21
695.823895485737
 31
0.0
  0
ARC
  5
399
330
1F
100
AcDbEntity
  8
LAY-12
  6
CONTINUOUS
 62
     7
100
AcDbCircle
 10
1680.7317947613
 20
696.5999816543899
 30
0.0
 40
6.000000000000004
100
AcDbArc
 50
270.0000000000002
 51
352.5681002703515
  0
ARC
  5
39A
330
1F
100
AcDbEntity
  8
LAY-12
  6
CONTINUOUS
 62
     7
100
AcDbCircle
 10
1735.534490427255
 20
701.0999816543899
 30
0.0
 40
1.0
100
AcDbArc
 50
2.009651892813973
 51
90.00000000000001
  0
LINE
  5
39B
330
1F
100
AcDbEntity
  8
LAY-12
  6
CONTINUOUS
 62
     7
100
AcDbLine
 10
1684.338398625943
 20
707.7829797038198
 30
0.0
 11
1687.500065285607
 21
702.0999816543899
 31
0.0
  0
ARC
  5
39C
330
1F
100
AcDbEntity
  8
LAY-12
  6
CONTINUOUS
 62
     7
100
AcDbCircle
 10
1679.095197104464
 20
704.8659884790868
 30
0.0
 40
6.000000000000004
100
AcDbArc
 50
29.08884165091971
 51
93.77892016302273
  0
LINE
  5
39D
330
1F
100
AcDbEntity
  8
LAY-12
  6
CONTINUOUS
 62
     7
100
AcDbLine
 10
1729.000035285607
 20
702.10003165439
 30
0.0
 11
1730.666093835329
 21
708.730077037249
 31
0.0
  0
ARC
  5
39E
330
1F
100
AcDbEntity
  8
LAY-12
  6
CONTINUOUS
 62
     7
100
AcDbCircle
 10
1738.424874638391
 20
706.7803795094192
 30
0.0
 40
8.0
100
AcDbArc
 50
93.77892016302933
 51
165.8942590077964
  0
ARC
  5
39F
330
1F
100
AcDbEntity
  8
LAY-12
  6
CONTINUOUS
 62
     7
100
AcDbCircle
 10
1739.431117308716
 20
675.5999816543899
 30
0.0
 40
2.0
100
AcDbArc
 50
182.0096518928009
 51
270.0000000000002
  0
LINE
  5
3A0
330
1F
100
AcDbEntity
  8
LAY-12
  6
CONTINUOUS
 62
     7
100
AcDbLine
 10
1766.566037735837
 20
743.5999999999899
 30
0.0
 11
1808.699840995237
 21
703.6000000000199
 31
0.0
  0
LINE
  5
3A1
330
1F
100
AcDbEntity
  8
LAY-12
  6
CONTINUOUS
 62
     7
100
AcDbLine
 10
1791.999999999938
 20
703.6000000000199
 30
0.0
 11
1793.999999999937
 21
693.6000000000204
 31
0.0
  0
LINE
  5
3A2
330
1F
100
AcDbEntity
  8
LAY-12
  6
CONTINUOUS
 62
     7
100
AcDbLine
 10
1817.99999999993
 20
703.6000000000199
 30
0.0
 11
1815.99999999993
 21
693.6000000000204
 31
0.0
  0
LINE
  5
3A3
330
1F
100
AcDbEntity
  8
LAY-12
  6
CONTINUOUS
 62
     7
100
AcDbLine
 10
1832.540588291781
 20
703.6000000000199
 30
0.0
 11
1773.555173373522
 21
703.6000000000199
 31
0.0
  0
ARC
  5
3A4
330
1F
100
AcDbEntity
  8
LAY-12
  6
CONTINUOUS
 62
     7
100
AcDbCircle
 10
1773.555173373522
 20
708.6000000000199
 30
0.0
 40
5.0
100
AcDbArc
 50
183.2397002961006
 51
270.0000000000002
  0
LINE
  5
3A5
330
1F
100
AcDbEntity
  8
LAY-12
  6
CONTINUOUS
 62
     7
100
AcDbLine
 10
1765.999999999937
 20
753.6000000000204
 30
0.0
 11
1768.563164144846
 21
708.3174334399096
 31
0.0
  0
LINE
  5
3A6
330
1F
100
AcDbEntity
  8
LAY-12
  6
CONTINUOUS
 62
     7
100
AcDbLine
 10
1671.500095285607
 20
701.6000116543901
 30
0.0
 11
1673.500008921803
 21
690.5999816543899
 31
0.0
  0
LINE
  5
3A7
330
1F
100
AcDbEntity
  8
LAY-12
  6
CONTINUOUS
 62
     7
100
AcDbLine
 10
1673.500091146252
 20
710.509503214581
 30
0.0
 11
1671.500095285607
 21
701.6000116543901
 31
0.0
  0
LINE
  5
3A8
330
1F
100
AcDbEntity
  8
LAY-12
  6
CONTINUOUS
 62
     7
100
AcDbLine
 10
1836.999999999937
 20
693.6000000000204
 30
0.0
 11
1751.832662347967
 21
693.6000000000204
 31
0.0
  0
ARC
  5
3A9
330
1F
100
AcDbEntity
  8
LAY-12
  6
CONTINUOUS
 62
     7
100
AcDbCircle
 10
1077.459411708122
 20
700.6000000000199
 30
0.0
 40
3.000000000000002
100
AcDbArc
 50
90.00000000000001
 51
168.6900675259824
  0
LINE
  5
3AA
330
1F
100
AcDbEntity
  8
LAY-12
  6
CONTINUOUS
 62
     7
100
AcDbLine
 10
1143.433962264167
 20
743.6000000000404
 30
0.0
 11
1089.999999999966
 21
703.6000000000199
 31
0.0
  0
LINE
  5
3AB
330
1F
100
AcDbEntity
  8
LAY-12
  6
CONTINUOUS
 62
     7
100
AcDbLine
 10
1074.517669681048
 20
701.1883484054297
 30
0.0
 11
1072.999999999967
 21
693.6000000000204
 31
0.0
  0
LINE
  5
3AC
330
1F
100
AcDbEntity
  8
LAY-12
  6
CONTINUOUS
 62
     7
100
AcDbLine
 10
1726.27515939093
 20
715.1000000000204
 30
0.0
 11
1749.589177863937
 21
715.1000000000204
 31
0.0
  0
LINE
  5
3AD
330
1F
100
AcDbEntity
  8
LAY-12
  6
CONTINUOUS
 62
     7
100
AcDbLine
 10
1765.999999999937
 20
753.6000000000172
 30
0.0
 11
1144.00010999998
 21
753.6000000000172
 31
0.0
  0
LINE
  5
3AE
330
1F
100
AcDbEntity
  8
LAY-12
  6
CONTINUOUS
 62
     7
100
AcDbLine
 10
1673.500091146247
 20
710.5095032145805
 30
0.0
 11
1692.597681170676
 21
711.7709066762936
 31
0.0
  0
LINE
  5
3AF
330
1F
100
AcDbEntity
  8
LAY-12
  6
CONTINUOUS
 62
     7
100
AcDbLine
 10
1687.500065285606
 20
702.0999816543899
 30
0.0
 11
1695.180538764149
 21
702.0999816543899
 31
0.0
  0
LINE
  5
3B0
330
1F
100
AcDbEntity
  8
LAY-12
  6
CONTINUOUS
 62
     7
100
AcDbLine
 10
1673.500008921807
 20
690.5999816543899
 30
0.0
 11
1697.624939223354
 21
690.5999816543899
 31
0.0
  0
LINE
  5
3B1
330
1F
100
AcDbEntity
  8
LAY-12
  6
CONTINUOUS
 62
     7
100
AcDbLine
 10
1718.253841783606
 20
715.1000000000231
 30
0.0
 11
1756.250060000029
 21
715.1000000000231
 31
0.0
  0
LINE
  5
3B2
330
1F
100
AcDbEntity
  8
LAY-12
  6
CONTINUOUS
 62
     7
100
AcDbLine
 10
1717.659251738939
 20
713.4262334390073
 30
0.0
 11
1742.999999999937
 21
715.1000000000199
 31
0.0
  0
LINE
  5
3B3
330
1F
100
AcDbEntity
  8
LAY-12
  6
CONTINUOUS
 62
     7
100
AcDbLine
 10
1719.71671304091
 20
702.0999816543899
 30
0.0
 11
1735.534490427255
 21
702.0999816543899
 31
0.0
  0
LINE
  5
3B4
330
1F
100
AcDbEntity
  8
LAY-12
  6
CONTINUOUS
 62
     7
100
AcDbLine
 10
1722.161113500115
 20
690.5999816543899
 30
0.0
 11
1736.903565285607
 21
690.5999816543899
 31
0.0
  0
LINE
  5
3B5
330
1F
100
AcDbEntity
  8
LAY-12
  6
CONTINUOUS
 62
     7
100
AcDbLine
 10
1737.43234744119
 20
675.5298459525998
 30
0.0
 11
1736.533875361018
 21
701.1350495052902
 31
0.0
  0
LINE
  5
3B6
330
1F
100
AcDbEntity
  8
LAY-12
  6
CONTINUOUS
 62
     7
100
AcDbLine
 10
1167.037037037004
 20
714.6000000000199
 30
0.0
 11
1167.999999999967
 21
701.6000000000199
 31
0.0
  0
LINE
  5
3B7
330
1F
100
AcDbEntity
  8
LAY-12
  6
CONTINUOUS
 62
     7
100
AcDbLine
 10
1672.954576082237
 20
693.6000000000204
 30
0.0
 11
1072.99996900012
 21
693.6000000000204
 31
0.0
  0
LINE
  5
3B8
330
1F
100
AcDbEntity
  8
LAY-12
  6
CONTINUOUS
 62
     7
100
AcDbLine
 10
1155.460318735959
 20
698.8614672282629
 30
0.0
 11
1154.999999999974
 21
693.6000000000195
 31
0.0
  0
ARC
  5
3B9
330
1F
100
AcDbEntity
  8
LAY-12
  6
CONTINUOUS
 62
     7
100
AcDbCircle
 10
1158.448902830234
 20
698.6000000000199
 30
0.0
 40
3.000000000000002
100
AcDbArc
 50
90.00000000000001
 51
175.0000000000003
  0
LINE
  5
3BA
330
1F
100
AcDbEntity
  8
LAY-12
  6
CONTINUOUS
 62
     7
100
AcDbLine
 10
1158.44890283023
 20
701.6000000000199
 30
0.0
 11
1671.500095285636
 21
701.6000000000199
 31
0.0
  0
LINE
  5
3BB
330
1F
100
AcDbEntity
  8
LAY-12
  6
CONTINUOUS
 62
     7
100
AcDbLine
 10
1077.459411708122
 20
703.6000000000199
 30
0.0
 11
1136.444826626387
 21
703.6000000000199
 31
0.0
  0
LINE
  5
3BC
330
1F
100
AcDbEntity
  8
LAY-12
  6
CONTINUOUS
 62
     7
100
AcDbLine
 10
1143.999999999966
 20
753.6000000000204
 30
0.0
 11
1141.436835855055
 21
708.3174334399102
 31
0.0
  0
ARC
  5
3BD
330
1F
100
AcDbEntity
  8
LAY-12
  6
CONTINUOUS
 62
     7
100
AcDbCircle
 10
1136.444826626387
 20
708.6000000000199
 30
0.0
 40
5.0
100
AcDbArc
 50
270.0000000000002
 51
356.7602997038925
  0
LINE
  5
3BE
330
1F
100
AcDbEntity
  8
LAY-12
  6
CONTINUOUS
 62
     7
100
AcDbLine
 10
1118.000000000061
 20
703.6000000000201
 30
0.0
 11
1116.000000000062
 21
693.6000000000204
 31
0.0
  0
LINE
  5
3BF
330
1F
100
AcDbEntity
  8
LAY-12
  6
CONTINUOUS
 62
     7
100
AcDbLine
 10
1092.00000000007
 20
703.6000000000201
 30
0.0
 11
1094.00000000007
 21
693.6000000000204
 31
0.0
  0
LINE
  5
3C0
330
1F
100
AcDbEntity
  8
LAY-12
  6
CENTER
 62
     2
100
AcDbLine
 10
1053.999969999999
 20
1545.6
 30
0.0
 11
1857.999999999999
 21
1545.6
 31
0.0
  0
LINE
  5
3C1
330
1F
100
AcDbEntity
  8
LAY-12
  6
CENTER
 62
     2
100
AcDbLine
 10
1718.812599999999
 20
1282.7874
 30
0.0
 11
1673.492589999999
 21
1328.10741
 31
0.0
  0
LINE
  5
3C2
330
1F
100
AcDbEntity
  8
LAY-12
  6
CENTER
 62
     2
100
AcDbLine
 10
1753.100409999999
 20
1625.20782
 30
0.0
 11
1815.008679999999
 21
1641.796080000001
 31
0.0
  0
LINE
  5
3C3
330
1F
100
AcDbEntity
  8
LAY-12
  6
CENTER
 62
     2
100
AcDbLine
 10
1753.100409999999
 20
1465.99218
 30
0.0
 11
1815.008679999999
 21
1449.40392
 31
0.0
  0
LINE
  5
3C4
330
1F
100
AcDbEntity
  8
LAY-12
  6
CENTER
 62
     2
100
AcDbLine
 10
1431.835858558822
 20
1195.600000697399
 30
0.0
 11
1479.195950136057
 21
1195.599995834513
 31
0.0
  0
LINE
  5
3C5
330
1F
100
AcDbEntity
  8
LAY-12
  6
CENTER
 62
     2
100
AcDbLine
 10
1455.999999999999
 20
1150.7
 30
0.0
 11
1455.999999999999
 21
1947.6
 31
0.0
  0
LINE
  5
3C6
330
1F
100
AcDbEntity
  8
LAY-12
  6
CENTER
 62
     2
100
AcDbLine
 10
1610.0732393026
 20
1230.409038558823
 30
0.0
 11
1651.088284165486
 21
1254.089080136058
 31
0.0
  0
LINE
  5
3C7
330
1F
100
AcDbEntity
  8
LAY-12
  6
CENTER
 62
     2
100
AcDbLine
 10
1747.026819999999
 20
1349.67324
 30
0.0
 11
1770.706869999999
 21
1390.68828
 31
0.0
  0
LINE
  5
3C8
330
1F
100
AcDbEntity
  8
LAY-12
  6
CENTER
 62
     2
100
AcDbLine
 10
1805.9999993026
 20
1521.435858558823
 30
0.0
 11
1806.000004165487
 21
1568.795950136058
 31
0.0
  0
LINE
  5
3C9
330
1F
100
AcDbEntity
  8
LAY-12
  6
CENTER
 62
     2
100
AcDbLine
 10
1771.190961441177
 20
1699.673239302601
 30
0.0
 11
1747.510919863942
 21
1740.688284165486
 31
0.0
  0
LINE
  5
3CA
330
1F
100
AcDbEntity
  8
LAY-12
  6
CENTER
 62
     2
100
AcDbLine
 10
1651.92676
 20
1836.62682
 30
0.0
 11
1610.91172
 21
1860.30687
 31
0.0
  0
LINE
  5
3CB
330
1F
100
AcDbEntity
  8
LAY-12
  6
CENTER
 62
     2
100
AcDbLine
 10
1480.164141441177
 20
1895.599999302601
 30
0.0
 11
1432.804049863942
 21
1895.600004165487
 31
0.0
  0
LINE
  5
3CC
330
1F
100
AcDbEntity
  8
LAY-12
  6
CENTER
 62
     2
100
AcDbLine
 10
1301.926760697399
 20
1860.790961441177
 30
0.0
 11
1260.911715834513
 21
1837.110919863943
 31
0.0
  0
LINE
  5
3CD
330
1F
100
AcDbEntity
  8
LAY-12
  6
CENTER
 62
     2
100
AcDbLine
 10
1164.97318
 20
1741.526760000001
 30
0.0
 11
1141.29313
 21
1700.511720000001
 31
0.0
  0
LINE
  5
3CE
330
1F
100
AcDbEntity
  8
LAY-12
  6
CENTER
 62
     2
100
AcDbLine
 10
1106.000000697399
 20
1569.764141441178
 30
0.0
 11
1105.999995834512
 21
1522.404049863943
 31
0.0
  0
LINE
  5
3CF
330
1F
100
AcDbEntity
  8
LAY-12
  6
CENTER
 62
     2
100
AcDbLine
 10
1140.809038558823
 20
1391.5267606974
 30
0.0
 11
1164.489080136058
 21
1350.511715834514
 31
0.0
  0
LINE
  5
3D0
330
1F
100
AcDbEntity
  8
LAY-12
  6
CENTER
 62
     2
100
AcDbLine
 10
1260.073239999999
 20
1254.573180000001
 30
0.0
 11
1301.088279999999
 21
1230.893130000001
 31
0.0
  0
LINE
  5
3D1
330
1F
100
AcDbEntity
  8
LAY-12
  6
CENTER
 62
     2
100
AcDbLine
 10
1775.190934868619
 20
1729.884972169053
 30
0.0
 11
1742.731865933451
 21
1711.144719981691
 31
0.0
  0
LINE
  5
3D2
330
1F
100
AcDbEntity
  8
LAY-12
  6
CENTER
 62
     2
100
AcDbLine
 10
1640.284972169401
 20
1864.790934868417
 30
0.0
 11
1621.544719982037
 21
1832.331865933251
 31
0.0
  0
LINE
  5
3D3
330
1F
100
AcDbEntity
  8
LAY-12
  6
CENTER
 62
     2
100
AcDbLine
 10
1271.715027830947
 20
1864.790934868619
 30
0.0
 11
1290.455280018309
 21
1832.331865933451
 31
0.0
  0
LINE
  5
3D4
330
1F
100
AcDbEntity
  8
LAY-12
  6
CENTER
 62
     2
100
AcDbLine
 10
1136.809065131582
 20
1729.884972169402
 30
0.0
 11
1169.268134066748
 21
1711.144719982037
 31
0.0
  0
LINE
  5
3D5
330
1F
100
AcDbEntity
  8
LAY-12
  6
CENTER
 62
     2
100
AcDbLine
 10
1136.809065131582
 20
1361.315027830599
 30
0.0
 11
1169.268134066748
 21
1380.055280017963
 31
0.0
  0
LINE
  5
3D6
330
1F
100
AcDbEntity
  8
LAY-12
  6
CENTER
 62
     2
100
AcDbLine
 10
1271.715027830947
 20
1226.409065131382
 30
0.0
 11
1290.455280018309
 21
1258.868134066549
 31
0.0
  0
LINE
  5
3D7
330
1F
100
AcDbEntity
  8
LAY-12
  6
CENTER
 62
     2
100
AcDbLine
 10
1640.284972169401
 20
1226.409065131583
 30
0.0
 11
1621.544719982037
 21
1258.868134066749
 31
0.0
  0
LINE
  5
3D8
330
1F
100
AcDbEntity
  8
LAY-12
  6
CENTER
 62
     2
100
AcDbLine
 10
1775.190934868619
 20
1361.315027830948
 30
0.0
 11
1742.731865933451
 21
1380.05528001831
 31
0.0
  0
LINE
  5
3D9
330
1F
100
AcDbEntity
  8
LAY-12
  6
CENTER
 62
     2
100
AcDbLine
 10
1679.431750591162
 20
1674.597808205004
 30
0.0
 11
1724.465057199299
 21
1700.59780977975
 31
0.0
  0
LINE
  5
3DA
330
1F
100
AcDbEntity
  8
LAY-12
  6
CENTER
 62
     2
100
AcDbLine
 10
1187.529337199299
 20
1700.59780977975
 30
0.0
 11
1232.562647688033
 21
1674.597814926395
 31
0.0
  0
LINE
  5
3DB
330
1F
100
AcDbEntity
  8
LAY-12
  6
CENTER
 62
     2
100
AcDbLine
 10
1511.138592875597
 20
1339.8072965655
 30
0.0
 11
1528.505350801976
 21
1274.993673621504
 31
0.0
  0
LINE
  5
3DC
330
1F
100
AcDbEntity
  8
LAY-12
  6
CENTER
 62
     2
100
AcDbLine
 10
1493.666189640776
 20
1299.149722606887
 30
0.0
 11
1548.337591408737
 21
1313.798880559689
 31
0.0
  0
LINE
  5
3DD
330
1F
100
AcDbEntity
  8
LAY-12
  6
CENTER
 62
     2
100
AcDbLine
 10
1455.0
 20
763.6000000000204
 30
0.0
 11
1455.0
 21
643.9632500000203
 31
0.0
  0
LINE
  5
3DE
330
1F
100
AcDbEntity
  8
LAY-12
  6
CENTER
 62
     2
100
AcDbLine
 10
1365.000000000004
 20
744.8332554952071
 30
0.0
 11
1365.000000000004
 21
696.3747200000171
 31
0.0
  0
LINE
  5
3DF
330
1F
100
AcDbEntity
  8
LAY-12
  6
CENTER
 62
     2
100
AcDbLine
 10
1545.000000000004
 20
745.433255495207
 30
0.0
 11
1545.000000000004
 21
696.3747200000171
 31
0.0
  0
LINE
  5
3E0
330
1F
100
AcDbEntity
  8
LAY-12
  6
CENTER
 62
     2
100
AcDbLine
 10
1804.999999999933
 20
688.8000000000202
 30
0.0
 11
1804.999999999934
 21
711.4000000000201
 31
0.0
  0
LINE
  5
3E1
330
1F
100
AcDbEntity
  8
LAY-12
  6
CENTER
 62
     2
100
AcDbLine
 10
1105.000000000066
 20
688.8000000000202
 30
0.0
 11
1105.000000000065
 21
711.4000000000201
 31
0.0
  0
LINE
  5
3E2
330
1F
100
AcDbEntity
  8
LAY-12
  6
CONTINUOUS
 62
     7
100
AcDbLine
 10
1153.749939999969
 20
715.1000000000254
 30
0.0
 11
1153.749939999969
 21
723.1000000000258
 31
0.0
  0
LINE
  5
3E3
330
1F
100
AcDbEntity
  8
LAY-12
  6
CONTINUOUS
 62
     7
100
AcDbLine
 10
1153.74993999997
 20
723.100000000024
 30
0.0
 11
1159.286433766199
 21
723.100000000024
 31
0.0
  0
LINE
  5
3E4
330
1F
100
AcDbEntity
  8
LAY-12
  6
CONTINUOUS
 62
     7
100
AcDbLine
 10
1160.481030389577
 20
714.6000000000199
 30
0.0
 11
1160.410759999966
 21
715.1000000000231
 31
0.0
  0
LINE
  5
3E5
330
1F
100
AcDbEntity
  8
LAY-12
  6
CONTINUOUS
 62
     7
100
AcDbLine
 10
1159.954668418926
 20
718.3452615075234
 30
0.0
 11
1154.999939999966
 21
753.6000000000204
 31
0.0
  0
ARC
  5
3E6
330
1F
100
AcDbEntity
  8
LAY-12
  6
CONTINUOUS
 62
     7
100
AcDbCircle
 10
1158.749939999967
 20
719.3500000000281
 30
0.0
 40
3.500000000000002
100
AcDbArc
 50
31.00271913356856
 51
90.00000000000001
  0
ARC
  5
3E7
330
1F
100
AcDbEntity
  8
LAY-12
  6
CONTINUOUS
 62
     7
100
AcDbCircle
 10
1154.749939999971
 20
721.8500000000276
 30
0.0
 40
1.0
100
AcDbArc
 50
90.00000000000001
 51
180.0
  0
LINE
  5
3E8
330
1F
100
AcDbEntity
  8
LAY-12
  6
CONTINUOUS
 62
     7
100
AcDbLine
 10
1161.749939999976
 20
721.1527756377441
 30
0.0
 11
1161.749939999976
 21
720.8893920141977
 31
0.0
  0
ARC
  5
3E9
330
1F
100
AcDbEntity
  8
LAY-12
  6
CONTINUOUS
 62
     7
100
AcDbCircle
 10
1154.749939999971
 20
716.3500000000272
 30
0.0
 40
1.0
100
AcDbArc
 50
180.0
 51
270.0000000000002
  0
LINE
  5
3EA
330
1F
100
AcDbEntity
  8
LAY-12
  6
CONTINUOUS
 62
     7
100
AcDbLine
 10
1153.749939999967
 20
716.3500000000281
 30
0.0
 11
1153.749939999967
 21
721.8500000000281
 31
0.0
  0
ARC
  5
3EB
330
1F
100
AcDbEntity
  8
LAY-12
  6
CONTINUOUS
 62
     7
100
AcDbCircle
 10
1158.249939999974
 20
719.3500000000267
 30
0.0
 40
1.0
100
AcDbArc
 50
180.0
 51
270.0000000000002
  0
LINE
  5
3EC
330
1F
100
AcDbEntity
  8
LAY-12
  6
CONTINUOUS
 62
     7
100
AcDbLine
 10
1157.249939999977
 20
719.3500000000281
 30
0.0
 11
1157.249939999977
 21
719.8500000000281
 31
0.0
  0
ARC
  5
3ED
330
1F
100
AcDbEntity
  8
LAY-12
  6
CONTINUOUS
 62
     7
100
AcDbCircle
 10
1158.749939999967
 20
711.3500000000481
 30
0.0
 40
9.999999999980025
100
AcDbArc
 50
72.54239687618457
 51
89.99999999995052
  0
ARC
  5
3EE
330
1F
100
AcDbEntity
  8
LAY-12
  6
CONTINUOUS
 62
     7
100
AcDbCircle
 10
1158.749939999974
 20
719.8500000000295
 30
0.0
 40
1.5
100
AcDbArc
 50
89.99999999994789
 51
180.0
  0
ARC
  5
3EF
330
1F
100
AcDbEntity
  8
LAY-12
  6
CONTINUOUS
 62
     7
100
AcDbCircle
 10
1160.174755796363
 20
715.8500000000272
 30
0.0
 40
0.5
100
AcDbArc
 50
270.0000000000002
 51
7.999999999985254
  0
LINE
  5
3F0
330
1F
100
AcDbEntity
  8
LAY-12
  6
CONTINUOUS
 62
     7
100
AcDbLine
 10
1159.45903075805
 20
718.3500000000267
 30
0.0
 11
1158.249939999974
 21
718.3500000000267
 31
0.0
  0
LINE
  5
3F1
330
1F
100
AcDbEntity
  8
LAY-12
  6
CONTINUOUS
 62
     7
100
AcDbLine
 10
1160.449298826792
 20
717.489173100987
 30
0.0
 11
1160.669889830734
 21
715.9195865505076
 31
0.0
  0
ARC
  5
3F2
330
1F
100
AcDbEntity
  8
LAY-12
  6
CONTINUOUS
 62
     7
100
AcDbCircle
 10
1159.45903075805
 20
717.3500000000267
 30
0.0
 40
1.0
100
AcDbArc
 50
7.999999999988863
 51
90.00000000000001
  0
LINE
  5
3F3
330
1F
100
AcDbEntity
  8
LAY-12
  6
CONTINUOUS
 62
     7
100
AcDbLine
 10
1157.749939999967
 20
722.8500000000281
 30
0.0
 11
1157.749939999967
 21
723.1500000000274
 31
0.0
  0
LINE
  5
3F4
330
1F
100
AcDbEntity
  8
LAY-12
  6
CONTINUOUS
 62
     7
100
AcDbLine
 10
1158.749939999968
 20
722.8500000000276
 30
0.0
 11
1157.749939999967
 21
722.8500000000276
 31
0.0
  0
LINE
  5
3F5
330
1F
100
AcDbEntity
  8
LAY-12
  6
CONTINUOUS
 62
     7
100
AcDbLine
 10
1156.749939999967
 20
723.1500000000274
 30
0.0
 11
1156.749939999967
 21
722.8500000000276
 31
0.0
  0
LINE
  5
3F6
330
1F
100
AcDbEntity
  8
LAY-12
  6
CONTINUOUS
 62
     7
100
AcDbLine
 10
1155.749939999967
 20
723.1500000000274
 30
0.0
 11
1155.749939999967
 21
722.8500000000276
 31
0.0
  0
LINE
  5
3F7
330
1F
100
AcDbEntity
  8
LAY-12
  6
CONTINUOUS
 62
     7
100
AcDbLine
 10
1157.749939999967
 20
723.1500000000278
 30
0.0
 11
1156.749939999967
 21
722.8500000000281
 31
0.0
  0
LINE
  5
3F8
330
1F
100
AcDbEntity
  8
LAY-12
  6
CONTINUOUS
 62
     7
100
AcDbLine
 10
1156.749939999967
 20
723.1500000000278
 30
0.0
 11
1155.749939999967
 21
722.8500000000281
 31
0.0
  0
LINE
  5
3F9
330
1F
100
AcDbEntity
  8
LAY-12
  6
CONTINUOUS
 62
     7
100
AcDbLine
 10
1155.749939999967
 20
723.1500000000278
 30
0.0
 11
1154.749939999967
 21
722.8500000000281
 31
0.0
  0
LINE
  5
3FA
330
1F
100
AcDbEntity
  8
LAY-12
  6
CONTINUOUS
 62
     7
100
AcDbLine
 10
1156.749939999967
 20
715.3500000000272
 30
0.0
 11
1156.749939999967
 21
715.0500000000275
 31
0.0
  0
LINE
  5
3FB
330
1F
100
AcDbEntity
  8
LAY-12
  6
CONTINUOUS
 62
     7
100
AcDbLine
 10
1157.749939999967
 20
715.3500000000272
 30
0.0
 11
1157.749939999967
 21
715.0500000000275
 31
0.0
  0
LINE
  5
3FC
330
1F
100
AcDbEntity
  8
LAY-12
  6
CONTINUOUS
 62
     7
100
AcDbLine
 10
1158.749939999967
 20
715.3500000000272
 30
0.0
 11
1158.749939999967
 21
715.0500000000275
 31
0.0
  0
LINE
  5
3FD
330
1F
100
AcDbEntity
  8
LAY-12
  6
CONTINUOUS
 62
     7
100
AcDbLine
 10
1158.749939999967
 20
715.050000000027
 30
0.0
 11
1157.749939999967
 21
715.3500000000267
 31
0.0
  0
LINE
  5
3FE
330
1F
100
AcDbEntity
  8
LAY-12
  6
CONTINUOUS
 62
     7
100
AcDbLine
 10
1157.749939999967
 20
715.050000000027
 30
0.0
 11
1156.749939999967
 21
715.3500000000267
 31
0.0
  0
LINE
  5
3FF
330
1F
100
AcDbEntity
  8
LAY-12
  6
CONTINUOUS
 62
     7
100
AcDbLine
 10
1156.749939999967
 20
715.050000000027
 30
0.0
 11
1155.749939999967
 21
715.3500000000267
 31
0.0
  0
LINE
  5
400
330
1F
100
AcDbEntity
  8
LAY-12
  6
CONTINUOUS
 62
     7
100
AcDbLine
 10
1155.749939999967
 20
715.3500000000272
 30
0.0
 11
1155.749939999967
 21
715.0500000000275
 31
0.0
  0
LINE
  5
401
330
1F
100
AcDbEntity
  8
LAY-12
  6
CONTINUOUS
 62
     7
100
AcDbLine
 10
1155.749939999967
 20
715.050000000027
 30
0.0
 11
1154.749939999967
 21
715.3500000000267
 31
0.0
  0
LINE
  5
402
330
1F
100
AcDbEntity
  8
LAY-12
  6
CONTINUOUS
 62
     7
100
AcDbLine
 10
1160.174755796363
 20
715.3500000000272
 30
0.0
 11
1158.749939999967
 21
715.3500000000272
 31
0.0
  0
ARC
  5
403
330
1F
100
AcDbEntity
  8
LAY-12
  6
CONTINUOUS
 62
     7
100
AcDbCircle
 10
1176.921971815948
 20
728.6000000000154
 30
0.0
 40
10.0
100
AcDbArc
 50
189.4623222080249
 51
270.0000000000002
  0
LINE
  5
404
330
1F
100
AcDbEntity
  8
LAY-12
  6
CONTINUOUS
 62
     7
100
AcDbLine
 10
1166.229234603016
 20
731.9287979746259
 30
0.0
 11
1167.058032577627
 21
726.9560101269617
 31
0.0
  0
LINE
  5
405
330
1F
100
AcDbEntity
  8
LAY-12
  6
CONTINUOUS
 62
     7
100
AcDbLine
 10
1215.000060000008
 20
718.6000000000154
 30
0.0
 11
1176.921971815948
 21
718.6000000000154
 31
0.0
  0
ARC
  5
406
330
1F
100
AcDbEntity
  8
LAY-12
  6
CONTINUOUS
 62
     7
100
AcDbCircle
 10
1164.256446755352
 20
731.6000000000154
 30
0.0
 40
2.0
100
AcDbArc
 50
9.462322208030956
 51
90.00000000000001
  0
LINE
  5
407
330
1F
100
AcDbEntity
  8
LAY-12
  6
CONTINUOUS
 62
     7
100
AcDbLine
 10
1164.256446755352
 20
733.6000000000154
 30
0.0
 11
1157.810876694056
 21
733.6000000000154
 31
0.0
  0
ARC
  5
408
330
1F
100
AcDbEntity
  8
LAY-12
  6
CONTINUOUS
 62
     7
100
AcDbCircle
 10
1215.000060000008
 20
728.6000000000158
 30
0.0
 40
10.0
100
AcDbArc
 50
270.0000000000002
 51
75.4682261641437
  0
ARC
  5
409
330
1F
100
AcDbEntity
  8
LAY-12
  6
CONTINUOUS
 62
     7
100
AcDbCircle
 10
1218.763812893907
 20
743.1201296190156
 30
0.0
 40
5.0
100
AcDbArc
 50
198.4349488229045
 51
255.4682261641018
  0
LINE
  5
40A
330
1F
100
AcDbEntity
  8
LAY-12
  6
CONTINUOUS
 62
     7
100
AcDbLine
 10
1214.020396403708
 20
741.5389907889162
 30
0.0
 11
1210.000060000008
 21
753.6000000000156
 31
0.0
  0
ARC
  5
40B
330
1F
100
AcDbEntity
  8
LAY-12
  6
CONTINUOUS
 62
     7
100
AcDbCircle
 10
1217.048450629889
 20
708.7492289127981
 30
0.0
 40
5.0
100
AcDbArc
 50
97.00357088701264
 51
148.1982070166208
  0
LINE
  5
40C
330
1F
100
AcDbEntity
  8
LAY-12
  6
CONTINUOUS
 62
     7
100
AcDbLine
 10
1169.200069333316
 20
716.6000000000172
 30
0.0
 11
1173.523322902927
 21
709.8914954954771
 31
0.0
  0
ARC
  5
40D
330
1F
100
AcDbEntity
  8
LAY-12
  6
CONTINUOUS
 62
     7
100
AcDbCircle
 10
1168.200080000005
 20
716.6000000000172
 30
0.0
 40
1.0
100
AcDbArc
 50
0.0000000000000573
 51
90.00000000000001
  0
LINE
  5
40E
330
1F
100
AcDbEntity
  8
LAY-12
  6
CONTINUOUS
 62
     7
100
AcDbLine
 10
1166.200080000005
 20
717.6000000000172
 30
0.0
 11
1168.200080000005
 21
717.6000000000172
 31
0.0
  0
ARC
  5
40F
330
1F
100
AcDbEntity
  8
LAY-12
  6
CONTINUOUS
 62
     7
100
AcDbCircle
 10
1166.200080000005
 20
716.6000000000172
 30
0.0
 40
1.0
100
AcDbArc
 50
90.00000000000001
 51
180.0
  0
ARC
  5
410
330
1F
100
AcDbEntity
  8
LAY-12
  6
CONTINUOUS
 62
     7
100
AcDbCircle
 10
1214.609826582843
 20
728.6000000000172
 30
0.0
 40
15.00000000000001
100
AcDbArc
 50
277.0035708870109
 51
349.1144729453416
  0
LINE
  5
411
330
1F
100
AcDbEntity
  8
LAY-12
  6
CONTINUOUS
 62
     7
100
AcDbLine
 10
1161.700120000005
 20
716.5999800000168
 30
0.0
 11
1165.200080000031
 21
716.599992726774
 31
0.0
  0
LINE
  5
412
330
1F
100
AcDbEntity
  8
LAY-12
  6
CONTINUOUS
 62
     7
100
AcDbLine
 10
1159.954860000005
 20
718.3452800000168
 30
0.0
 11
1161.700120000005
 21
716.5999800000168
 31
0.0
  0
LINE
  5
413
330
1F
100
AcDbEntity
  8
LAY-12
  6
CONTINUOUS
 62
     7
100
AcDbLine
 10
1156.500060000007
 20
753.600000000017
 30
0.0
 11
1208.500060000007
 21
753.600000000017
 31
0.0
  0
LINE
  5
414
330
1F
100
AcDbEntity
  8
LAY-12
  6
CONTINUOUS
 62
     7
100
AcDbLine
 10
1156.500060000007
 20
753.600000000017
 30
0.0
 11
1155.000060000007
 21
752.600000000017
 31
0.0
  0
LINE
  5
415
330
1F
100
AcDbEntity
  8
LAY-12
  6
CONTINUOUS
 62
     7
100
AcDbLine
 10
1155.000060000007
 20
752.600000000017
 30
0.0
 11
1156.853001176477
 21
751.600000000017
 31
0.0
  0
LINE
  5
416
330
1F
100
AcDbEntity
  8
LAY-12
  6
CONTINUOUS
 62
     7
100
AcDbLine
 10
1208.500060000007
 20
753.600000000017
 30
0.0
 11
1210.000060000007
 21
752.600000000017
 31
0.0
  0
LINE
  5
417
330
1F
100
AcDbEntity
  8
LAY-12
  6
CONTINUOUS
 62
     7
100
AcDbLine
 10
1208.500060000007
 20
751.6000000000172
 30
0.0
 11
1210.000060000007
 21
752.600000000017
 31
0.0
  0
LINE
  5
418
330
1F
100
AcDbEntity
  8
LAY-12
  6
CONTINUOUS
 62
     7
100
AcDbLine
 10
1161.178021941375
 20
733.600000000017
 30
0.0
 11
1165.360452194569
 21
733.600000000017
 31
0.0
  0
LINE
  5
419
330
1F
100
AcDbEntity
  8
LAY-12
  6
CONTINUOUS
 62
     7
100
AcDbLine
 10
1159.208454823739
 20
735.252429332199
 30
0.0
 11
1156.853001176477
 21
751.600000000017
 31
0.0
  0
ARC
  5
41A
330
1F
100
AcDbEntity
  8
LAY-12
  6
CONTINUOUS
 62
     7
100
AcDbCircle
 10
1165.360452194569
 20
731.6000000000167
 30
0.0
 40
2.0
100
AcDbArc
 50
11.30993247401925
 51
90.00000000000001
  0
ARC
  5
41B
330
1F
100
AcDbEntity
  8
LAY-12
  6
CONTINUOUS
 62
     7
100
AcDbCircle
 10
1161.178021941375
 20
735.600000000017
 30
0.0
 40
2.0
100
AcDbArc
 50
190.0079798014417
 51
270.0000000000002
  0
ARC
  5
41C
330
1F
100
AcDbEntity
  8
LAY-12
  6
CONTINUOUS
 62
     7
100
AcDbCircle
 10
1174.099079513599
 20
723.6000000000167
 30
0.0
 40
5.0
100
AcDbArc
 50
191.3099324740203
 51
270.0000000000002
  0
LINE
  5
41D
330
1F
100
AcDbEntity
  8
LAY-12
  6
CONTINUOUS
 62
     7
100
AcDbLine
 10
1208.500060000007
 20
751.600000000017
 30
0.0
 11
1208.500060000007
 21
723.6000000000167
 31
0.0
  0
ARC
  5
41E
330
1F
100
AcDbEntity
  8
LAY-12
  6
CONTINUOUS
 62
     7
100
AcDbCircle
 10
1203.500060000007
 20
723.6000000000167
 30
0.0
 40
5.0
100
AcDbArc
 50
270.0000000000002
 51
0.0
  0
LINE
  5
41F
330
1F
100
AcDbEntity
  8
LAY-12
  6
CONTINUOUS
 62
     7
100
AcDbLine
 10
1203.500060000007
 20
718.6000000000167
 30
0.0
 11
1174.099079513599
 21
718.6000000000167
 31
0.0
  0
LINE
  5
420
330
1F
100
AcDbEntity
  8
LAY-12
  6
CONTINUOUS
 62
     7
100
AcDbLine
 10
1169.196176135144
 20
722.6194193243259
 30
0.0
 11
1167.321613545951
 21
731.9922322702932
 31
0.0
  0
LINE
  5
421
330
1F
100
AcDbEntity
  8
LAY-12
  6
CONTINUOUS
 62
     7
100
AcDbLine
 10
1163.500060000007
 20
747.600000000017
 30
0.0
 11
1163.500060000007
 21
744.600000000017
 31
0.0
  0
LINE
  5
422
330
1F
100
AcDbEntity
  8
LAY-12
  6
CONTINUOUS
 62
     7
100
AcDbLine
 10
1163.500060000007
 20
747.600000000017
 30
0.0
 11
1160.029471764713
 21
750.600000000017
 31
0.0
  0
LINE
  5
423
330
1F
100
AcDbEntity
  8
LAY-12
  6
CONTINUOUS
 62
     7
100
AcDbLine
 10
1159.500060000007
 20
753.600000000017
 30
0.0
 11
1160.029471764713
 21
750.600000000017
 31
0.0
  0
LINE
  5
424
330
1F
100
AcDbEntity
  8
LAY-12
  6
CONTINUOUS
 62
     7
100
AcDbLine
 10
1163.500060000007
 20
744.600000000017
 30
0.0
 11
1157.861602140245
 21
744.600000000017
 31
0.0
  0
LINE
  5
425
330
1F
100
AcDbEntity
  8
LAY-12
  6
CONTINUOUS
 62
     7
100
AcDbLine
 10
1217.365990599408
 20
738.3160883280154
 30
0.0
 11
1208.500060000007
 21
739.3799999999505
 31
0.0
  0
LINE
  5
426
330
1F
100
AcDbEntity
  8
LAY-12
  6
CONTINUOUS
 62
     7
100
AcDbLine
 10
1155.000060000004
 20
753.600000000017
 30
0.0
 11
1159.954860000005
 21
718.3452800000168
 31
0.0
  0
LINE
  5
427
330
1F
100
AcDbEntity
  8
LAY-12
  6
CONTINUOUS
 62
     7
100
AcDbLine
 10
1160.410822136001
 20
715.100000000019
 30
0.0
 11
1154.999999999954
 21
753.6000000000204
 31
0.0
  0
LINE
  5
428
330
1F
100
AcDbEntity
  8
LAY-12
  6
CONTINUOUS
 62
     7
100
AcDbLine
 10
1160.410822136
 20
715.1000000000204
 30
0.0
 11
1170.166674906842
 21
715.1000000000204
 31
0.0
  0
LINE
  5
429
330
1F
100
AcDbEntity
  8
LAY-12
  6
CONTINUOUS
 62
     7
100
AcDbLine
 10
1170.166734906843
 20
715.1000000000231
 30
0.0
 11
1153.74993999997
 21
715.1000000000231
 31
0.0
  0
LINE
  5
42A
330
1F
100
AcDbEntity
  8
LAY-12
  6
CONTINUOUS
 62
     7
100
AcDbLine
 10
1170.488956764689
 20
714.6000000000199
 30
0.0
 11
1160.481030389577
 21
714.6000000000199
 31
0.0
  0
LINE
  5
42B
330
1F
100
AcDbEntity
  8
LAY-12
  6
PHANTOM
 62
     7
100
AcDbLine
 10
1235.000060000005
 20
753.6000000000049
 30
0.0
 11
1238.000060000004
 21
749.6000000000051
 31
0.0
  0
LINE
  5
42C
330
1F
100
AcDbEntity
  8
LAY-12
  6
PHANTOM
 62
     7
100
AcDbLine
 10
1238.000060000004
 20
749.6000000000174
 30
0.0
 11
1728.48
 21
749.6000000000175
 31
0.0
  0
LINE
  5
42D
330
1F
100
AcDbEntity
  8
LAY-12
  6
CONTINUOUS
 62
     7
100
AcDbLine
 10
1749.825244203636
 20
715.3500000000272
 30
0.0
 11
1751.250060000032
 21
715.3500000000272
 31
0.0
  0
LINE
  5
42E
330
1F
100
AcDbEntity
  8
LAY-12
  6
CONTINUOUS
 62
     7
100
AcDbLine
 10
1754.250060000032
 20
715.050000000027
 30
0.0
 11
1755.250060000032
 21
715.3500000000267
 31
0.0
  0
LINE
  5
42F
330
1F
100
AcDbEntity
  8
LAY-12
  6
CONTINUOUS
 62
     7
100
AcDbLine
 10
1754.250060000032
 20
715.3500000000272
 30
0.0
 11
1754.250060000032
 21
715.0500000000275
 31
0.0
  0
LINE
  5
430
330
1F
100
AcDbEntity
  8
LAY-12
  6
CONTINUOUS
 62
     7
100
AcDbLine
 10
1753.250060000032
 20
715.050000000027
 30
0.0
 11
1754.250060000032
 21
715.3500000000267
 31
0.0
  0
LINE
  5
431
330
1F
100
AcDbEntity
  8
LAY-12
  6
CONTINUOUS
 62
     7
100
AcDbLine
 10
1752.250060000032
 20
715.050000000027
 30
0.0
 11
1753.250060000032
 21
715.3500000000267
 31
0.0
  0
LINE
  5
432
330
1F
100
AcDbEntity
  8
LAY-12
  6
CONTINUOUS
 62
     7
100
AcDbLine
 10
1751.250060000032
 20
715.050000000027
 30
0.0
 11
1752.250060000032
 21
715.3500000000267
 31
0.0
  0
LINE
  5
433
330
1F
100
AcDbEntity
  8
LAY-12
  6
CONTINUOUS
 62
     7
100
AcDbLine
 10
1751.250060000032
 20
715.3500000000272
 30
0.0
 11
1751.250060000032
 21
715.0500000000275
 31
0.0
  0
LINE
  5
434
330
1F
100
AcDbEntity
  8
LAY-12
  6
CONTINUOUS
 62
     7
100
AcDbLine
 10
1752.250060000032
 20
715.3500000000272
 30
0.0
 11
1752.250060000032
 21
715.0500000000275
 31
0.0
  0
LINE
  5
435
330
1F
100
AcDbEntity
  8
LAY-12
  6
CONTINUOUS
 62
     7
100
AcDbLine
 10
1753.250060000032
 20
715.3500000000272
 30
0.0
 11
1753.250060000032
 21
715.0500000000275
 31
0.0
  0
LINE
  5
436
330
1F
100
AcDbEntity
  8
LAY-12
  6
CONTINUOUS
 62
     7
100
AcDbLine
 10
1754.250060000032
 20
723.1500000000278
 30
0.0
 11
1755.250060000032
 21
722.8500000000281
 31
0.0
  0
LINE
  5
437
330
1F
100
AcDbEntity
  8
LAY-12
  6
CONTINUOUS
 62
     7
100
AcDbLine
 10
1753.250060000032
 20
723.1500000000278
 30
0.0
 11
1754.250060000032
 21
722.8500000000281
 31
0.0
  0
LINE
  5
438
330
1F
100
AcDbEntity
  8
LAY-12
  6
CONTINUOUS
 62
     7
100
AcDbLine
 10
1752.250060000032
 20
723.1500000000278
 30
0.0
 11
1753.250060000032
 21
722.8500000000281
 31
0.0
  0
LINE
  5
439
330
1F
100
AcDbEntity
  8
LAY-12
  6
CONTINUOUS
 62
     7
100
AcDbLine
 10
1754.250060000032
 20
723.1500000000274
 30
0.0
 11
1754.250060000032
 21
722.8500000000276
 31
0.0
  0
LINE
  5
43A
330
1F
100
AcDbEntity
  8
LAY-12
  6
CONTINUOUS
 62
     7
100
AcDbLine
 10
1753.250060000032
 20
723.1500000000274
 30
0.0
 11
1753.250060000032
 21
722.8500000000276
 31
0.0
  0
LINE
  5
43B
330
1F
100
AcDbEntity
  8
LAY-12
  6
CONTINUOUS
 62
     7
100
AcDbLine
 10
1751.250060000031
 20
722.8500000000276
 30
0.0
 11
1752.250060000032
 21
722.8500000000276
 31
0.0
  0
LINE
  5
43C
330
1F
100
AcDbEntity
  8
LAY-12
  6
CONTINUOUS
 62
     7
100
AcDbLine
 10
1752.250060000032
 20
722.8500000000281
 30
0.0
 11
1752.250060000032
 21
723.1500000000274
 31
0.0
  0
ARC
  5
43D
330
1F
100
AcDbEntity
  8
LAY-12
  6
CONTINUOUS
 62
     7
100
AcDbCircle
 10
1750.540969241949
 20
717.3500000000267
 30
0.0
 40
1.0
100
AcDbArc
 50
90.00000000000001
 51
172.000000000013
  0
LINE
  5
43E
330
1F
100
AcDbEntity
  8
LAY-12
  6
CONTINUOUS
 62
     7
100
AcDbLine
 10
1749.550701173207
 20
717.489173100987
 30
0.0
 11
1749.330110169265
 21
715.9195865505076
 31
0.0
  0
LINE
  5
43F
330
1F
100
AcDbEntity
  8
LAY-12
  6
CONTINUOUS
 62
     7
100
AcDbLine
 10
1750.540969241949
 20
718.3500000000267
 30
0.0
 11
1751.750060000025
 21
718.3500000000267
 31
0.0
  0
ARC
  5
440
330
1F
100
AcDbEntity
  8
LAY-12
  6
CONTINUOUS
 62
     7
100
AcDbCircle
 10
1749.825244203636
 20
715.8500000000272
 30
0.0
 40
0.5
100
AcDbArc
 50
172.0000000000147
 51
270.0000000000002
  0
ARC
  5
441
330
1F
100
AcDbEntity
  8
LAY-12
  6
CONTINUOUS
 62
     7
100
AcDbCircle
 10
1751.250060000025
 20
719.8500000000295
 30
0.0
 40
1.5
100
AcDbArc
 50
0.0
 51
90.00000000005213
  0
ARC
  5
442
330
1F
100
AcDbEntity
  8
LAY-12
  6
CONTINUOUS
 62
     7
100
AcDbCircle
 10
1751.250060000032
 20
711.3500000000481
 30
0.0
 40
9.999999999980025
100
AcDbArc
 50
90.00000000004952
 51
107.4576031238155
  0
LINE
  5
443
330
1F
100
AcDbEntity
  8
LAY-12
  6
CONTINUOUS
 62
     7
100
AcDbLine
 10
1752.750060000022
 20
719.3500000000281
 30
0.0
 11
1752.750060000022
 21
719.8500000000281
 31
0.0
  0
ARC
  5
444
330
1F
100
AcDbEntity
  8
LAY-12
  6
CONTINUOUS
 62
     7
100
AcDbCircle
 10
1751.750060000025
 20
719.3500000000267
 30
0.0
 40
1.0
100
AcDbArc
 50
270.0000000000002
 51
0.0
  0
LINE
  5
445
330
1F
100
AcDbEntity
  8
LAY-12
  6
CONTINUOUS
 62
     7
100
AcDbLine
 10
1756.250060000032
 20
716.3500000000281
 30
0.0
 11
1756.250060000032
 21
721.8500000000281
 31
0.0
  0
ARC
  5
446
330
1F
100
AcDbEntity
  8
LAY-12
  6
CONTINUOUS
 62
     7
100
AcDbCircle
 10
1755.250060000028
 20
716.3500000000272
 30
0.0
 40
1.0
100
AcDbArc
 50
270.0000000000002
 51
0.0
  0
LINE
  5
447
330
1F
100
AcDbEntity
  8
LAY-12
  6
CONTINUOUS
 62
     7
100
AcDbLine
 10
1748.250060000023
 20
721.1527756377441
 30
0.0
 11
1748.250060000023
 21
720.8893920141977
 31
0.0
  0
ARC
  5
448
330
1F
100
AcDbEntity
  8
LAY-12
  6
CONTINUOUS
 62
     7
100
AcDbCircle
 10
1755.250060000028
 20
721.8500000000276
 30
0.0
 40
1.0
100
AcDbArc
 50
0.0
 51
90.00000000000001
  0
ARC
  5
449
330
1F
100
AcDbEntity
  8
LAY-12
  6
CONTINUOUS
 62
     7
100
AcDbCircle
 10
1751.250060000032
 20
719.3500000000281
 30
0.0
 40
3.500000000000002
100
AcDbArc
 50
90.00000000000001
 51
148.9972808664308
  0
LINE
  5
44A
330
1F
100
AcDbEntity
  8
LAY-12
  6
CONTINUOUS
 62
     7
100
AcDbLine
 10
1749.589111999966
 20
715.1000000000231
 30
0.0
 11
1749.518841506459
 21
714.6000000000199
 31
0.0
  0
LINE
  5
44B
330
1F
100
AcDbEntity
  8
LAY-12
  6
CONTINUOUS
 62
     7
100
AcDbLine
 10
1756.250060000029
 20
715.1000000000254
 30
0.0
 11
1756.250060000029
 21
723.1000000000258
 31
0.0
  0
LINE
  5
44C
330
1F
100
AcDbEntity
  8
LAY-12
  6
CONTINUOUS
 62
     7
100
AcDbLine
 10
1756.250060000028
 20
723.100000000024
 30
0.0
 11
1750.7135662338
 21
723.100000000024
 31
0.0
  0
LINE
  5
44D
330
1F
100
AcDbEntity
  8
LAY-12
  6
CONTINUOUS
 62
     7
100
AcDbLine
 10
1741.301135947816
 20
714.6000000000199
 30
0.0
 11
1749.518969610423
 21
714.6000000000199
 31
0.0
  0
LINE
  5
44E
330
1F
100
AcDbEntity
  8
LAY-12
  6
CONTINUOUS
 62
     7
100
AcDbLine
 10
1750.01080036799
 20
718.6000000000172
 30
0.0
 11
1748.299989115936
 21
716.6000000000172
 31
0.0
  0
LINE
  5
44F
330
1F
100
AcDbEntity
  8
LAY-12
  6
CONTINUOUS
 62
     7
100
AcDbLine
 10
1748.299989115936
 20
716.6000000000172
 30
0.0
 11
1741.299989115936
 21
716.6000000000172
 31
0.0
  0
LINE
  5
450
330
1F
100
AcDbEntity
  8
LAY-12
  6
CONTINUOUS
 62
     7
100
AcDbLine
 10
1741.299989115935
 20
716.6000000000172
 30
0.0
 11
1741.169554333325
 21
718.1000000000172
 31
0.0
  0
LINE
  5
451
330
1F
100
AcDbEntity
  8
LAY-12
  6
CONTINUOUS
 62
     7
100
AcDbLine
 10
1749.589180259196
 20
715.1000186883803
 30
0.0
 11
1749.588870493039
 21
715.1000000000163
 31
0.0
  0
LINE
  5
452
330
1F
100
AcDbEntity
  8
LAY-12
  6
HIDDEN
 62
     7
100
AcDbLine
 10
1742.999999999937
 20
715.1000000000199
 30
0.0
 11
1741.999999999937
 21
701.6000000000199
 31
0.0
  0
ARC
  5
453
330
1F
100
AcDbEntity
  8
LAY-12
  6
CONTINUOUS
 62
     7
100
AcDbCircle
 10
1746.417562776341
 20
675.5999816543899
 30
0.0
 40
2.0
100
AcDbArc
 50
270.0000000000002
 51
355.000000000007
  0
LINE
  5
454
330
1F
100
AcDbEntity
  8
LAY-12
  6
CONTINUOUS
 62
     7
100
AcDbLine
 10
1739.431117308716
 20
673.5999816543899
 30
0.0
 11
1746.417562776337
 21
673.5999816543899
 31
0.0
  0
LINE
  5
455
330
1F
100
AcDbEntity
  8
LAY-12
  6
CONTINUOUS
 62
     7
100
AcDbLine
 10
1748.409952172524
 20
675.4256701688905
 30
0.0
 11
1749.840272951781
 21
691.7743114855198
 31
0.0
  0
LINE
  5
456
330
1F
100
AcDbEntity
  8
LAY-12
  6
HIDDEN
 62
     7
100
AcDbLine
 10
1736.903565285607
 20
690.5999816543899
 30
0.0
 11
1736.90354492085
 21
690.5999816543899
 31
0.0
  0
LINE
  5
457
330
1F
100
AcDbEntity
  8
LAY-12
  6
HIDDEN
 62
     7
100
AcDbLine
 10
1741.999999999937
 20
701.6000000000199
 30
0.0
 11
1751.55109716967
 21
701.6000000000199
 31
0.0
  0
ARC
  5
458
330
1F
100
AcDbEntity
  8
LAY-12
  6
HIDDEN
 62
     7
100
AcDbCircle
 10
1751.55109716967
 20
698.6000000000199
 30
0.0
 40
3.000000000000002
100
AcDbArc
 50
4.999999999999859
 51
90.00000000000001
  0
LINE
  5
459
330
1F
100
AcDbEntity
  8
LAY-12
  6
HIDDEN
 62
     7
100
AcDbLine
 10
1754.495938537216
 20
699.3614488826324
 30
0.0
 11
1754.99999999993
 21
693.6000000000195
 31
0.0
  0
ARC
  5
45A
330
1F
100
AcDbEntity
  8
LAY-12
  6
HIDDEN
 62
     7
100
AcDbCircle
 10
1751.507354442942
 20
699.0999816543895
 30
0.0
 40
3.000000000000002
100
AcDbArc
 50
4.999999999997682
 51
90.00000000000001
  0
ARC
  5
45B
330
1F
100
AcDbEntity
  8
LAY-12
  6
CONTINUOUS
 62
     7
100
AcDbCircle
 10
1751.832662347963
 20
691.6000000000199
 30
0.0
 40
2.0
100
AcDbArc
 50
90.00000000000001
 51
174.9999999999907
  0
LINE
  5
45C
330
1F
100
AcDbEntity
  8
LAY-12
  6
HIDDEN
 62
     7
100
AcDbLine
 10
1736.903565285637
 20
690.5999816543904
 30
0.0
 11
1749.737532404316
 21
690.5999816543904
 31
0.0
  0
LINE
  5
45D
330
1F
100
AcDbEntity
  8
LAY-12
  6
HIDDEN
 62
     7
100
AcDbLine
 10
1751.507354442942
 20
702.0999816543895
 30
0.0
 11
1735.534490427237
 21
702.0999816543895
 31
0.0
  0
ARC
  5
45E
330
1F
100
AcDbEntity
  8
LAY-12
  6
HIDDEN
 62
     7
100
AcDbCircle
 10
1773.724984694272
 20
705.6000000000204
 30
0.0
 40
5.0
100
AcDbArc
 50
183.2397002961051
 51
270.0000000000002
  0
LINE
  5
45F
330
1F
100
AcDbEntity
  8
LAY-12
  6
HIDDEN
 62
     7
100
AcDbLine
 10
1814.999999999937
 20
700.6000000000199
 30
0.0
 11
1773.724984694272
 21
700.6000000000199
 31
0.0
  0
LINE
  5
460
330
1F
100
AcDbEntity
  8
LAY-12
  6
HIDDEN
 62
     7
100
AcDbLine
 10
1768.732975465609
 20
705.31743343991
 30
0.0
 11
1768.563164144854
 21
708.31743343991
 31
0.0
  0
ARC
  5
461
330
1F
100
AcDbEntity
  8
LAY-12
  6
CONTINUOUS
 62
     7
100
AcDbCircle
 10
1455.9971971993
 20
1545.59780977975
 30
0.0
 40
275.0000000000002
100
AcDbArc
 50
35.62357437879263
 51
144.3764256212072
  0
ARC
  5
462
330
1F
100
AcDbEntity
  8
LAY-12
  6
CONTINUOUS
 62
     7
100
AcDbCircle
 10
1205.715857199299
 20
1690.09780977975
 30
0.0
 40
31.00000000000002
100
AcDbArc
 50
269.6240869339029
 51
30.37591873516376
  0
ARC
  5
463
330
1F
100
AcDbEntity
  8
LAY-12
  6
CONTINUOUS
 62
     7
100
AcDbCircle
 10
1455.9971971993
 20
1545.59780977975
 30
0.0
 40
275.0000000000002
100
AcDbArc
 50
155.6235740430072
 51
261.2657406401081
  0
LINE
  5
464
330
1F
100
AcDbEntity
  8
LAY-12
  6
CONTINUOUS
 62
     7
100
AcDbLine
 10
1307.997197199294
 20
1578.09780977969
 30
0.0
 11
1337.997197199294
 21
1578.09780977969
 31
0.0
  0
LINE
  5
465
330
1F
100
AcDbEntity
  8
LAY-12
  6
CONTINUOUS
 62
     7
100
AcDbLine
 10
1318.997197199294
 20
1589.09780977969
 30
0.0
 11
1318.997197199294
 21
1608.09780977969
 31
0.0
  0
LINE
  5
466
330
1F
100
AcDbEntity
  8
LAY-12
  6
CONTINUOUS
 62
     7
100
AcDbLine
 10
1337.997197199294
 20
1589.09780977969
 30
0.0
 11
1318.997197199294
 21
1589.09780977969
 31
0.0
  0
LINE
  5
467
330
1F
100
AcDbEntity
  8
LAY-12
  6
CONTINUOUS
 62
     7
100
AcDbLine
 10
1337.997197199294
 20
1578.09780977969
 30
0.0
 11
1337.997197199294
 21
1589.09780977969
 31
0.0
  0
LINE
  5
468
330
1F
100
AcDbEntity
  8
LAY-12
  6
CONTINUOUS
 62
     7
100
AcDbLine
 10
1307.997197199294
 20
1608.09780977969
 30
0.0
 11
1318.997197199294
 21
1608.09780977969
 31
0.0
  0
LINE
  5
469
330
1F
100
AcDbEntity
  8
LAY-12
  6
CONTINUOUS
 62
     7
100
AcDbLine
 10
1307.997197199294
 20
1608.09780977969
 30
0.0
 11
1307.997197199294
 21
1578.09780977969
 31
0.0
  0
LINE
  5
46A
330
1F
100
AcDbEntity
  8
LAY-12
  6
CONTINUOUS
 62
     7
100
AcDbLine
 10
1337.997197199294
 20
1627.09780977969
 30
0.0
 11
1307.997197199294
 21
1627.09780977969
 31
0.0
  0
LINE
  5
46B
330
1F
100
AcDbEntity
  8
LAY-12
  6
CONTINUOUS
 62
     7
100
AcDbLine
 10
1326.997197199294
 20
1616.097809779689
 30
0.0
 11
1326.997197199294
 21
1597.09780977969
 31
0.0
  0
LINE
  5
46C
330
1F
100
AcDbEntity
  8
LAY-12
  6
CONTINUOUS
 62
     7
100
AcDbLine
 10
1307.997197199294
 20
1616.097809779689
 30
0.0
 11
1326.997197199294
 21
1616.097809779689
 31
0.0
  0
LINE
  5
46D
330
1F
100
AcDbEntity
  8
LAY-12
  6
CONTINUOUS
 62
     7
100
AcDbLine
 10
1307.997197199294
 20
1627.09780977969
 30
0.0
 11
1307.997197199294
 21
1616.097809779689
 31
0.0
  0
LINE
  5
46E
330
1F
100
AcDbEntity
  8
LAY-12
  6
CONTINUOUS
 62
     7
100
AcDbLine
 10
1337.997197199294
 20
1597.09780977969
 30
0.0
 11
1326.997197199294
 21
1597.09780977969
 31
0.0
  0
LINE
  5
46F
330
1F
100
AcDbEntity
  8
LAY-12
  6
CONTINUOUS
 62
     7
100
AcDbLine
 10
1337.997197199294
 20
1597.09780977969
 30
0.0
 11
1337.997197199294
 21
1627.09780977969
 31
0.0
  0
LINE
  5
470
330
1F
100
AcDbEntity
  8
LAY-12
  6
CONTINUOUS
 62
     7
100
AcDbLine
 10
1269.997197199294
 20
1578.09780977969
 30
0.0
 11
1299.997197199294
 21
1578.09780977969
 31
0.0
  0
LINE
  5
471
330
1F
100
AcDbEntity
  8
LAY-12
  6
CONTINUOUS
 62
     7
100
AcDbLine
 10
1280.997197199294
 20
1589.09780977969
 30
0.0
 11
1280.997197199294
 21
1608.09780977969
 31
0.0
  0
LINE
  5
472
330
1F
100
AcDbEntity
  8
LAY-12
  6
CONTINUOUS
 62
     7
100
AcDbLine
 10
1299.997197199294
 20
1589.09780977969
 30
0.0
 11
1280.997197199294
 21
1589.09780977969
 31
0.0
  0
LINE
  5
473
330
1F
100
AcDbEntity
  8
LAY-12
  6
CONTINUOUS
 62
     7
100
AcDbLine
 10
1299.997197199294
 20
1578.09780977969
 30
0.0
 11
1299.997197199294
 21
1589.09780977969
 31
0.0
  0
LINE
  5
474
330
1F
100
AcDbEntity
  8
LAY-12
  6
CONTINUOUS
 62
     7
100
AcDbLine
 10
1269.997197199294
 20
1608.09780977969
 30
0.0
 11
1280.997197199294
 21
1608.09780977969
 31
0.0
  0
LINE
  5
475
330
1F
100
AcDbEntity
  8
LAY-12
  6
CONTINUOUS
 62
     7
100
AcDbLine
 10
1269.997197199294
 20
1608.09780977969
 30
0.0
 11
1269.997197199294
 21
1578.09780977969
 31
0.0
  0
LINE
  5
476
330
1F
100
AcDbEntity
  8
LAY-12
  6
CONTINUOUS
 62
     7
100
AcDbLine
 10
1299.997197199294
 20
1627.09780977969
 30
0.0
 11
1269.997197199294
 21
1627.09780977969
 31
0.0
  0
LINE
  5
477
330
1F
100
AcDbEntity
  8
LAY-12
  6
CONTINUOUS
 62
     7
100
AcDbLine
 10
1288.997197199294
 20
1616.097809779689
 30
0.0
 11
1288.997197199294
 21
1597.09780977969
 31
0.0
  0
LINE
  5
478
330
1F
100
AcDbEntity
  8
LAY-12
  6
CONTINUOUS
 62
     7
100
AcDbLine
 10
1269.997197199294
 20
1616.097809779689
 30
0.0
 11
1288.997197199294
 21
1616.097809779689
 31
0.0
  0
LINE
  5
479
330
1F
100
AcDbEntity
  8
LAY-12
  6
CONTINUOUS
 62
     7
100
AcDbLine
 10
1269.997197199294
 20
1627.09780977969
 30
0.0
 11
1269.997197199294
 21
1616.097809779689
 31
0.0
  0
LINE
  5
47A
330
1F
100
AcDbEntity
  8
LAY-12
  6
CONTINUOUS
 62
     7
100
AcDbLine
 10
1299.997197199294
 20
1597.09780977969
 30
0.0
 11
1288.997197199294
 21
1597.09780977969
 31
0.0
  0
LINE
  5
47B
330
1F
100
AcDbEntity
  8
LAY-12
  6
CONTINUOUS
 62
     7
100
AcDbLine
 10
1299.997197199294
 20
1597.09780977969
 30
0.0
 11
1299.997197199294
 21
1627.09780977969
 31
0.0
  0
LINE
  5
47C
330
1F
100
AcDbEntity
  8
LAY-12
  6
CONTINUOUS
 62
     7
100
AcDbLine
 10
1231.997197199294
 20
1578.097809779689
 30
0.0
 11
1261.997197199294
 21
1578.097809779689
 31
0.0
  0
LINE
  5
47D
330
1F
100
AcDbEntity
  8
LAY-12
  6
CONTINUOUS
 62
     7
100
AcDbLine
 10
1242.997197199294
 20
1589.09780977969
 30
0.0
 11
1242.997197199294
 21
1608.097809779689
 31
0.0
  0
LINE
  5
47E
330
1F
100
AcDbEntity
  8
LAY-12
  6
CONTINUOUS
 62
     7
100
AcDbLine
 10
1261.997197199294
 20
1589.09780977969
 30
0.0
 11
1242.997197199294
 21
1589.09780977969
 31
0.0
  0
LINE
  5
47F
330
1F
100
AcDbEntity
  8
LAY-12
  6
CONTINUOUS
 62
     7
100
AcDbLine
 10
1261.997197199294
 20
1578.097809779689
 30
0.0
 11
1261.997197199294
 21
1589.09780977969
 31
0.0
  0
LINE
  5
480
330
1F
100
AcDbEntity
  8
LAY-12
  6
CONTINUOUS
 62
     7
100
AcDbLine
 10
1231.997197199294
 20
1608.097809779689
 30
0.0
 11
1242.997197199294
 21
1608.097809779689
 31
0.0
  0
LINE
  5
481
330
1F
100
AcDbEntity
  8
LAY-12
  6
CONTINUOUS
 62
     7
100
AcDbLine
 10
1231.997197199294
 20
1608.097809779689
 30
0.0
 11
1231.997197199294
 21
1578.097809779689
 31
0.0
  0
LINE
  5
482
330
1F
100
AcDbEntity
  8
LAY-12
  6
CONTINUOUS
 62
     7
100
AcDbLine
 10
1261.997197199294
 20
1627.097809779689
 30
0.0
 11
1231.997197199294
 21
1627.097809779689
 31
0.0
  0
LINE
  5
483
330
1F
100
AcDbEntity
  8
LAY-12
  6
CONTINUOUS
 62
     7
100
AcDbLine
 10
1250.997197199294
 20
1616.097809779689
 30
0.0
 11
1250.997197199294
 21
1597.097809779689
 31
0.0
  0
LINE
  5
484
330
1F
100
AcDbEntity
  8
LAY-12
  6
CONTINUOUS
 62
     7
100
AcDbLine
 10
1231.997197199294
 20
1616.097809779689
 30
0.0
 11
1250.997197199294
 21
1616.097809779689
 31
0.0
  0
LINE
  5
485
330
1F
100
AcDbEntity
  8
LAY-12
  6
CONTINUOUS
 62
     7
100
AcDbLine
 10
1231.997197199294
 20
1627.097809779689
 30
0.0
 11
1231.997197199294
 21
1616.097809779689
 31
0.0
  0
LINE
  5
486
330
1F
100
AcDbEntity
  8
LAY-12
  6
CONTINUOUS
 62
     7
100
AcDbLine
 10
1261.997197199294
 20
1597.097809779689
 30
0.0
 11
1250.997197199294
 21
1597.097809779689
 31
0.0
  0
LINE
  5
487
330
1F
100
AcDbEntity
  8
LAY-12
  6
CONTINUOUS
 62
     7
100
AcDbLine
 10
1261.997197199294
 20
1597.097809779689
 30
0.0
 11
1261.997197199294
 21
1627.097809779689
 31
0.0
  0
LINE
  5
488
330
1F
100
AcDbEntity
  8
LAY-12
  6
CONTINUOUS
 62
     7
100
AcDbLine
 10
1299.997197199295
 20
1654.09780977969
 30
0.0
 11
1299.997197199295
 21
1684.09780977969
 31
0.0
  0
LINE
  5
489
330
1F
100
AcDbEntity
  8
LAY-12
  6
CONTINUOUS
 62
     7
100
AcDbLine
 10
1299.997197199295
 20
1654.09780977969
 30
0.0
 11
1288.997197199295
 21
1654.09780977969
 31
0.0
  0
LINE
  5
48A
330
1F
100
AcDbEntity
  8
LAY-12
  6
CONTINUOUS
 62
     7
100
AcDbLine
 10
1269.997197199295
 20
1684.09780977969
 30
0.0
 11
1269.997197199295
 21
1673.097809779689
 31
0.0
  0
LINE
  5
48B
330
1F
100
AcDbEntity
  8
LAY-12
  6
CONTINUOUS
 62
     7
100
AcDbLine
 10
1269.997197199295
 20
1673.097809779689
 30
0.0
 11
1288.997197199295
 21
1673.097809779689
 31
0.0
  0
LINE
  5
48C
330
1F
100
AcDbEntity
  8
LAY-12
  6
CONTINUOUS
 62
     7
100
AcDbLine
 10
1288.997197199295
 20
1673.097809779689
 30
0.0
 11
1288.997197199295
 21
1654.09780977969
 31
0.0
  0
LINE
  5
48D
330
1F
100
AcDbEntity
  8
LAY-12
  6
CONTINUOUS
 62
     7
100
AcDbLine
 10
1299.997197199295
 20
1684.09780977969
 30
0.0
 11
1269.997197199295
 21
1684.09780977969
 31
0.0
  0
LINE
  5
48E
330
1F
100
AcDbEntity
  8
LAY-12
  6
CONTINUOUS
 62
     7
100
AcDbLine
 10
1269.997197199295
 20
1665.09780977969
 30
0.0
 11
1269.997197199295
 21
1635.09780977969
 31
0.0
  0
LINE
  5
48F
330
1F
100
AcDbEntity
  8
LAY-12
  6
CONTINUOUS
 62
     7
100
AcDbLine
 10
1269.997197199295
 20
1665.09780977969
 30
0.0
 11
1280.997197199295
 21
1665.09780977969
 31
0.0
  0
LINE
  5
490
330
1F
100
AcDbEntity
  8
LAY-12
  6
CONTINUOUS
 62
     7
100
AcDbLine
 10
1299.997197199295
 20
1635.09780977969
 30
0.0
 11
1299.997197199295
 21
1646.09780977969
 31
0.0
  0
LINE
  5
491
330
1F
100
AcDbEntity
  8
LAY-12
  6
CONTINUOUS
 62
     7
100
AcDbLine
 10
1299.997197199295
 20
1646.09780977969
 30
0.0
 11
1280.997197199295
 21
1646.09780977969
 31
0.0
  0
LINE
  5
492
330
1F
100
AcDbEntity
  8
LAY-12
  6
CONTINUOUS
 62
     7
100
AcDbLine
 10
1280.997197199295
 20
1646.09780977969
 30
0.0
 11
1280.997197199295
 21
1665.09780977969
 31
0.0
  0
LINE
  5
493
330
1F
100
AcDbEntity
  8
LAY-12
  6
CONTINUOUS
 62
     7
100
AcDbLine
 10
1269.997197199295
 20
1635.09780977969
 30
0.0
 11
1299.997197199295
 21
1635.09780977969
 31
0.0
  0
LINE
  5
494
330
1F
100
AcDbEntity
  8
LAY-12
  6
CONTINUOUS
 62
     7
100
AcDbLine
 10
1235.160720927966
 20
1673.097809779689
 30
0.0
 11
1250.997197199295
 21
1673.097809779689
 31
0.0
  0
LINE
  5
495
330
1F
100
AcDbEntity
  8
LAY-12
  6
CONTINUOUS
 62
     7
100
AcDbLine
 10
1261.997197199295
 20
1684.09780977969
 30
0.0
 11
1239.182258260658
 21
1684.09780977969
 31
0.0
  0
LINE
  5
496
330
1F
100
AcDbEntity
  8
LAY-12
  6
CONTINUOUS
 62
     7
100
AcDbLine
 10
1261.997197199295
 20
1654.09780977969
 30
0.0
 11
1261.997197199295
 21
1684.09780977969
 31
0.0
  0
LINE
  5
497
330
1F
100
AcDbEntity
  8
LAY-12
  6
CONTINUOUS
 62
     7
100
AcDbLine
 10
1261.997197199295
 20
1654.09780977969
 30
0.0
 11
1250.997197199295
 21
1654.09780977969
 31
0.0
  0
LINE
  5
498
330
1F
100
AcDbEntity
  8
LAY-12
  6
CONTINUOUS
 62
     7
100
AcDbLine
 10
1250.997197199295
 20
1673.097809779689
 30
0.0
 11
1250.997197199295
 21
1654.09780977969
 31
0.0
  0
LINE
  5
499
330
1F
100
AcDbEntity
  8
LAY-12
  6
CONTINUOUS
 62
     7
100
AcDbLine
 10
1231.997197199295
 20
1665.09780977969
 30
0.0
 11
1231.997197199295
 21
1635.09780977969
 31
0.0
  0
LINE
  5
49A
330
1F
100
AcDbEntity
  8
LAY-12
  6
CONTINUOUS
 62
     7
100
AcDbLine
 10
1231.997197199295
 20
1665.09780977969
 30
0.0
 11
1242.997197199295
 21
1665.09780977969
 31
0.0
  0
LINE
  5
49B
330
1F
100
AcDbEntity
  8
LAY-12
  6
CONTINUOUS
 62
     7
100
AcDbLine
 10
1261.997197199295
 20
1635.09780977969
 30
0.0
 11
1261.997197199295
 21
1646.09780977969
 31
0.0
  0
LINE
  5
49C
330
1F
100
AcDbEntity
  8
LAY-12
  6
CONTINUOUS
 62
     7
100
AcDbLine
 10
1261.997197199295
 20
1646.09780977969
 30
0.0
 11
1242.997197199295
 21
1646.09780977969
 31
0.0
  0
LINE
  5
49D
330
1F
100
AcDbEntity
  8
LAY-12
  6
CONTINUOUS
 62
     7
100
AcDbLine
 10
1242.997197199295
 20
1646.09780977969
 30
0.0
 11
1242.997197199295
 21
1665.09780977969
 31
0.0
  0
LINE
  5
49E
330
1F
100
AcDbEntity
  8
LAY-12
  6
CONTINUOUS
 62
     7
100
AcDbLine
 10
1231.997197199295
 20
1635.09780977969
 30
0.0
 11
1261.997197199295
 21
1635.09780977969
 31
0.0
  0
ARC
  5
49F
330
1F
100
AcDbEntity
  8
LAY-12
  6
CONTINUOUS
 62
     7
100
AcDbCircle
 10
1205.715857199295
 20
1690.09780977969
 30
0.0
 40
33.99999999999996
100
AcDbArc
 50
330.0000000000013
 51
349.8357513782787
  0
LINE
  5
4A0
330
1F
100
AcDbEntity
  8
LAY-12
  6
CONTINUOUS
 62
     7
100
AcDbLine
 10
1337.997197199293
 20
1540.097809779689
 30
0.0
 11
1337.997197199293
 21
1570.097809779689
 31
0.0
  0
LINE
  5
4A1
330
1F
100
AcDbEntity
  8
LAY-12
  6
CONTINUOUS
 62
     7
100
AcDbLine
 10
1337.997197199293
 20
1540.097809779689
 30
0.0
 11
1326.997197199293
 21
1540.097809779689
 31
0.0
  0
LINE
  5
4A2
330
1F
100
AcDbEntity
  8
LAY-12
  6
CONTINUOUS
 62
     7
100
AcDbLine
 10
1307.997197199293
 20
1570.097809779689
 30
0.0
 11
1307.997197199293
 21
1559.097809779689
 31
0.0
  0
LINE
  5
4A3
330
1F
100
AcDbEntity
  8
LAY-12
  6
CONTINUOUS
 62
     7
100
AcDbLine
 10
1307.997197199293
 20
1559.097809779689
 30
0.0
 11
1326.997197199293
 21
1559.097809779689
 31
0.0
  0
LINE
  5
4A4
330
1F
100
AcDbEntity
  8
LAY-12
  6
CONTINUOUS
 62
     7
100
AcDbLine
 10
1326.997197199293
 20
1559.097809779689
 30
0.0
 11
1326.997197199293
 21
1540.097809779689
 31
0.0
  0
LINE
  5
4A5
330
1F
100
AcDbEntity
  8
LAY-12
  6
CONTINUOUS
 62
     7
100
AcDbLine
 10
1337.997197199293
 20
1570.097809779689
 30
0.0
 11
1307.997197199293
 21
1570.097809779689
 31
0.0
  0
LINE
  5
4A6
330
1F
100
AcDbEntity
  8
LAY-12
  6
CONTINUOUS
 62
     7
100
AcDbLine
 10
1307.997197199293
 20
1551.097809779689
 30
0.0
 11
1307.997197199293
 21
1521.097809779689
 31
0.0
  0
LINE
  5
4A7
330
1F
100
AcDbEntity
  8
LAY-12
  6
CONTINUOUS
 62
     7
100
AcDbLine
 10
1307.997197199293
 20
1551.097809779689
 30
0.0
 11
1318.997197199293
 21
1551.097809779689
 31
0.0
  0
LINE
  5
4A8
330
1F
100
AcDbEntity
  8
LAY-12
  6
CONTINUOUS
 62
     7
100
AcDbLine
 10
1337.997197199293
 20
1521.097809779689
 30
0.0
 11
1337.997197199293
 21
1532.09780977969
 31
0.0
  0
LINE
  5
4A9
330
1F
100
AcDbEntity
  8
LAY-12
  6
CONTINUOUS
 62
     7
100
AcDbLine
 10
1337.997197199293
 20
1532.09780977969
 30
0.0
 11
1318.997197199293
 21
1532.09780977969
 31
0.0
  0
LINE
  5
4AA
330
1F
100
AcDbEntity
  8
LAY-12
  6
CONTINUOUS
 62
     7
100
AcDbLine
 10
1318.997197199293
 20
1532.09780977969
 30
0.0
 11
1318.997197199293
 21
1551.097809779689
 31
0.0
  0
LINE
  5
4AB
330
1F
100
AcDbEntity
  8
LAY-12
  6
CONTINUOUS
 62
     7
100
AcDbLine
 10
1307.997197199293
 20
1521.097809779689
 30
0.0
 11
1337.997197199293
 21
1521.097809779689
 31
0.0
  0
LINE
  5
4AC
330
1F
100
AcDbEntity
  8
LAY-12
  6
CONTINUOUS
 62
     7
100
AcDbLine
 10
1345.997197199294
 20
1578.09780977969
 30
0.0
 11
1375.997197199294
 21
1578.09780977969
 31
0.0
  0
LINE
  5
4AD
330
1F
100
AcDbEntity
  8
LAY-12
  6
CONTINUOUS
 62
     7
100
AcDbLine
 10
1356.997197199294
 20
1589.09780977969
 30
0.0
 11
1356.997197199294
 21
1608.09780977969
 31
0.0
  0
LINE
  5
4AE
330
1F
100
AcDbEntity
  8
LAY-12
  6
CONTINUOUS
 62
     7
100
AcDbLine
 10
1375.997197199294
 20
1589.09780977969
 30
0.0
 11
1356.997197199294
 21
1589.09780977969
 31
0.0
  0
LINE
  5
4AF
330
1F
100
AcDbEntity
  8
LAY-12
  6
CONTINUOUS
 62
     7
100
AcDbLine
 10
1375.997197199294
 20
1578.09780977969
 30
0.0
 11
1375.997197199294
 21
1589.09780977969
 31
0.0
  0
LINE
  5
4B0
330
1F
100
AcDbEntity
  8
LAY-12
  6
CONTINUOUS
 62
     7
100
AcDbLine
 10
1345.997197199294
 20
1608.09780977969
 30
0.0
 11
1356.997197199294
 21
1608.09780977969
 31
0.0
  0
LINE
  5
4B1
330
1F
100
AcDbEntity
  8
LAY-12
  6
CONTINUOUS
 62
     7
100
AcDbLine
 10
1345.997197199294
 20
1608.09780977969
 30
0.0
 11
1345.997197199294
 21
1578.09780977969
 31
0.0
  0
LINE
  5
4B2
330
1F
100
AcDbEntity
  8
LAY-12
  6
CONTINUOUS
 62
     7
100
AcDbLine
 10
1375.997197199294
 20
1627.09780977969
 30
0.0
 11
1345.997197199294
 21
1627.09780977969
 31
0.0
  0
LINE
  5
4B3
330
1F
100
AcDbEntity
  8
LAY-12
  6
CONTINUOUS
 62
     7
100
AcDbLine
 10
1364.997197199294
 20
1616.097809779689
 30
0.0
 11
1364.997197199294
 21
1597.09780977969
 31
0.0
  0
LINE
  5
4B4
330
1F
100
AcDbEntity
  8
LAY-12
  6
CONTINUOUS
 62
     7
100
AcDbLine
 10
1345.997197199294
 20
1616.097809779689
 30
0.0
 11
1364.997197199294
 21
1616.097809779689
 31
0.0
  0
LINE
  5
4B5
330
1F
100
AcDbEntity
  8
LAY-12
  6
CONTINUOUS
 62
     7
100
AcDbLine
 10
1345.997197199294
 20
1627.09780977969
 30
0.0
 11
1345.997197199294
 21
1616.097809779689
 31
0.0
  0
LINE
  5
4B6
330
1F
100
AcDbEntity
  8
LAY-12
  6
CONTINUOUS
 62
     7
100
AcDbLine
 10
1375.997197199294
 20
1597.09780977969
 30
0.0
 11
1364.997197199294
 21
1597.09780977969
 31
0.0
  0
LINE
  5
4B7
330
1F
100
AcDbEntity
  8
LAY-12
  6
CONTINUOUS
 62
     7
100
AcDbLine
 10
1375.997197199294
 20
1597.09780977969
 30
0.0
 11
1375.997197199294
 21
1627.09780977969
 31
0.0
  0
LINE
  5
4B8
330
1F
100
AcDbEntity
  8
LAY-12
  6
CONTINUOUS
 62
     7
100
AcDbLine
 10
1375.997197199293
 20
1540.097809779689
 30
0.0
 11
1375.997197199293
 21
1570.097809779689
 31
0.0
  0
LINE
  5
4B9
330
1F
100
AcDbEntity
  8
LAY-12
  6
CONTINUOUS
 62
     7
100
AcDbLine
 10
1375.997197199293
 20
1540.097809779689
 30
0.0
 11
1364.997197199293
 21
1540.097809779689
 31
0.0
  0
LINE
  5
4BA
330
1F
100
AcDbEntity
  8
LAY-12
  6
CONTINUOUS
 62
     7
100
AcDbLine
 10
1345.997197199293
 20
1570.097809779689
 30
0.0
 11
1345.997197199293
 21
1559.097809779689
 31
0.0
  0
LINE
  5
4BB
330
1F
100
AcDbEntity
  8
LAY-12
  6
CONTINUOUS
 62
     7
100
AcDbLine
 10
1345.997197199293
 20
1559.097809779689
 30
0.0
 11
1364.997197199293
 21
1559.097809779689
 31
0.0
  0
LINE
  5
4BC
330
1F
100
AcDbEntity
  8
LAY-12
  6
CONTINUOUS
 62
     7
100
AcDbLine
 10
1364.997197199293
 20
1559.097809779689
 30
0.0
 11
1364.997197199293
 21
1540.097809779689
 31
0.0
  0
LINE
  5
4BD
330
1F
100
AcDbEntity
  8
LAY-12
  6
CONTINUOUS
 62
     7
100
AcDbLine
 10
1375.997197199293
 20
1570.097809779689
 30
0.0
 11
1345.997197199293
 21
1570.097809779689
 31
0.0
  0
LINE
  5
4BE
330
1F
100
AcDbEntity
  8
LAY-12
  6
CONTINUOUS
 62
     7
100
AcDbLine
 10
1345.997197199293
 20
1551.097809779689
 30
0.0
 11
1345.997197199293
 21
1521.097809779689
 31
0.0
  0
LINE
  5
4BF
330
1F
100
AcDbEntity
  8
LAY-12
  6
CONTINUOUS
 62
     7
100
AcDbLine
 10
1345.997197199293
 20
1551.097809779689
 30
0.0
 11
1356.997197199293
 21
1551.097809779689
 31
0.0
  0
LINE
  5
4C0
330
1F
100
AcDbEntity
  8
LAY-12
  6
CONTINUOUS
 62
     7
100
AcDbLine
 10
1375.997197199293
 20
1521.097809779689
 30
0.0
 11
1375.997197199293
 21
1532.09780977969
 31
0.0
  0
LINE
  5
4C1
330
1F
100
AcDbEntity
  8
LAY-12
  6
CONTINUOUS
 62
     7
100
AcDbLine
 10
1375.997197199293
 20
1532.09780977969
 30
0.0
 11
1356.997197199293
 21
1532.09780977969
 31
0.0
  0
LINE
  5
4C2
330
1F
100
AcDbEntity
  8
LAY-12
  6
CONTINUOUS
 62
     7
100
AcDbLine
 10
1356.997197199293
 20
1532.09780977969
 30
0.0
 11
1356.997197199293
 21
1551.097809779689
 31
0.0
  0
LINE
  5
4C3
330
1F
100
AcDbEntity
  8
LAY-12
  6
CONTINUOUS
 62
     7
100
AcDbLine
 10
1345.997197199293
 20
1521.097809779689
 30
0.0
 11
1375.997197199293
 21
1521.097809779689
 31
0.0
  0
ARC
  5
4C4
330
1F
100
AcDbEntity
  8
LAY-12
  6
CONTINUOUS
 62
     7
100
AcDbCircle
 10
1414.997197199299
 20
1278.728928116863
 30
0.0
 40
5.0
100
AcDbArc
 50
261.2657406401167
 51
0.0
  0
LINE
  5
4C5
330
1F
100
AcDbEntity
  8
LAY-12
  6
CONTINUOUS
 62
     7
100
AcDbLine
 10
1419.997197199299
 20
1278.728928116863
 30
0.0
 11
1419.997197199299
 21
1289.59780977975
 31
0.0
  0
ARC
  5
4C6
330
1F
100
AcDbEntity
  8
LAY-12
  6
CONTINUOUS
 62
     7
100
AcDbCircle
 10
1455.9971971993
 20
1289.59780977975
 30
0.0
 40
36.0
100
AcDbArc
 50
52.10271987699829
 51
180.0
  0
ARC
  5
4C7
330
1F
100
AcDbEntity
  8
LAY-12
  6
CONTINUOUS
 62
     7
100
AcDbCircle
 10
1481.181354578128
 20
1321.951452806748
 30
0.0
 40
5.0
100
AcDbArc
 50
232.1027198769973
 51
338.0344280088846
  0
ARC
  5
4C8
330
1F
100
AcDbEntity
  8
LAY-12
  6
CONTINUOUS
 62
     7
100
AcDbCircle
 10
1520.132557281127
 20
1306.241364442687
 30
0.0
 40
37.00003652875374
100
AcDbArc
 50
15.00001337568996
 51
158.0344280088842
  0
LINE
  5
4C9
330
1F
100
AcDbEntity
  8
LAY-12
  6
CONTINUOUS
 62
     7
100
AcDbLine
 10
1555.871869440828
 20
1315.817693216277
 30
0.0
 11
1560.766992359521
 21
1297.548844022767
 31
0.0
  0
ARC
  5
4CA
330
1F
100
AcDbEntity
  8
LAY-12
  6
CONTINUOUS
 62
     7
100
AcDbCircle
 10
1455.9971971993
 20
1545.59780977975
 30
0.0
 40
275.0000000000002
100
AcDbArc
 50
293.949029774042
 51
24.37642595699245
  0
ARC
  5
4CB
330
1F
100
AcDbEntity
  8
LAY-12
  6
CONTINUOUS
 62
     7
100
AcDbCircle
 10
1565.596621521986
 20
1298.842939132511
 30
0.0
 40
5.0
100
AcDbArc
 50
194.9999986265908
 51
293.9490297740484
  0
ARC
  5
4CC
330
1F
100
AcDbEntity
  8
LAY-12
  6
CONTINUOUS
 62
     7
100
AcDbCircle
 10
1706.278537199299
 20
1690.09780977975
 30
0.0
 40
31.00000000000002
100
AcDbArc
 50
149.6240812648363
 51
270.3759130661
  0
DIMENSION
  5
4CE
330
1F
100
AcDbEntity
  8
LAY-20
  6
CONTINUOUS
 62
     4
100
AcDbDimension
  2
*D15
 10
1893.0
 20
753.5999999999999
 30
0.0
 11
1873.0
 21
723.6000000000499
 31
0.0
 70
   160
  1
60
  3
ISO-25
100
AcDbAlignedDimension
 13
1837.0
 23
693.6000000001
 33
0.0
 14
1765.9999999999
 24
753.5999999999999
 34
0.0
 50
90.0
100
AcDbRotatedDimension
1001
ACAD
1000
DSTYLE
1002
{
1070
   270
1070
     2
1070
     6
1000
EX_BNORM
1070
     7
1000
EX_BNORM
1070
    41
1040
20.0
1070
    42
1040
12.0
1070
    44
1040
12.0
1070
    73
1070
     0
1070
    74
1070
     0
1070
    75
1070
     0
1070
    76
1070
     0
1070
    77
1070
     1
1070
    78
1070
     8
1070
   140
1040
24.9448832
1070
   147
1040
0.0
1070
   173
1070
     1
1070
   176
1070
     4
1070
   177
1070
     4
1070
   178
1070
     7
1070
   271
1070
     1
1070
   277
1070
     2
1070
   279
1070
     2
1070
   280
1070
     0
1070
   287
1070
     5
1070
   340
1005
4CD
1002
}
  0
DIMENSION
  5
4DC
330
1F
100
AcDbEntity
  8
LAY-20
  6
CONTINUOUS
 62
     4
100
AcDbDimension
  2
*D16
 10
1755.0
 20
833.60000000002
 30
0.0
 11
1454.999969999985
 21
853.60000000002
 31
0.0
 70
   160
  1
%%c600
  3
ISO-25
100
AcDbAlignedDimension
 13
1154.99993999997
 23
753.6000000000199
 33
0.0
 14
1755.0
 24
753.6000000000199
 34
0.0
100
AcDbRotatedDimension
1001
ACAD
1000
DSTYLE
1002
{
1070
   270
1070
     2
1070
     6
1000
EX_BNORM
1070
     7
1000
EX_BNORM
1070
    41
1040
20.0
1070
    42
1040
12.0
1070
    44
1040
12.0
1070
    73
1070
     0
1070
    74
1070
     0
1070
    75
1070
     0
1070
    76
1070
     0
1070
    77
1070
     1
1070
    78
1070
     8
1070
   140
1040
24.9448832
1070
   147
1040
0.0
1070
   173
1070
     1
1070
   176
1070
     4
1070
   177
1070
     4
1070
   178
1070
     7
1070
   271
1070
     1
1070
   277
1070
     2
1070
   279
1070
     2
1070
   280
1070
     0
1070
   287
1070
     5
1070
   340
1005
4CD
1002
}
  0
DIMENSION
  5
4E9
330
1F
100
AcDbEntity
  8
LAY-20
  6
CONTINUOUS
 62
     4
100
AcDbDimension
  2
*D17
 10
1765.9999999999
 20
889.60000000002
 30
0.0
 11
1454.999999999935
 21
909.60000000002
 31
0.0
 70
   160
  1
%%c622
  3
ISO-25
100
AcDbAlignedDimension
 13
1143.99999999997
 23
753.6000000000201
 33
0.0
 14
1765.9999999999
 24
753.6000000000201
 34
0.0
100
AcDbRotatedDimension
1001
ACAD
1000
DSTYLE
1002
{
1070
   270
1070
     2
1070
     6
1000
EX_BNORM
1070
     7
1000
EX_BNORM
1070
    41
1040
20.0
1070
    42
1040
12.0
1070
    44
1040
12.0
1070
    73
1070
     0
1070
    74
1070
     0
1070
    75
1070
     0
1070
    76
1070
     0
1070
    77
1070
     1
1070
    78
1070
     8
1070
   140
1040
24.9448832
1070
   147
1040
0.0
1070
   173
1070
     1
1070
   176
1070
     4
1070
   177
1070
     4
1070
   178
1070
     7
1070
   271
1070
     1
1070
   277
1070
     2
1070
   279
1070
     2
1070
   280
1070
     0
1070
   287
1070
     5
1070
   340
1005
4CD
1002
}
  0
DIMENSION
  5
4F6
330
1F
100
AcDbEntity
  8
LAY-20
  6
CONTINUOUS
 62
     4
100
AcDbDimension
  2
*D18
 10
1154.99999999997
 20
613.6000000000204
 30
0.0
 11
1454.999999999935
 21
633.6000000000201
 31
0.0
 70
   160
  1
%%c600
  3
ISO-25
100
AcDbAlignedDimension
 13
1754.9999999999
 23
693.6000000000201
 33
0.0
 14
1154.99999999997
 24
693.6000000000201
 34
0.0
100
AcDbRotatedDimension
1001
ACAD
1000
DSTYLE
1002
{
1070
   270
1070
     2
1070
     6
1000
EX_BNORM
1070
     7
1000
EX_BNORM
1070
    41
1040
20.0
1070
    42
1040
12.0
1070
    44
1040
11.99999999999955
1070
    73
1070
     0
1070
    74
1070
     0
1070
    75
1070
     0
1070
    76
1070
     0
1070
    77
1070
     1
1070
    78
1070
     8
1070
   140
1040
24.9448832
1070
   147
1040
0.0
1070
   173
1070
     1
1070
   176
1070
     4
1070
   177
1070
     4
1070
   178
1070
     7
1070
   271
1070
     1
1070
   277
1070
     2
1070
   279
1070
     2
1070
   280
1070
     0
1070
   287
1070
     5
1070
   340
1005
4CD
1002
}
  0
DIMENSION
  5
503
330
1F
100
AcDbEntity
  8
LAY-20
  6
CONTINUOUS
 62
     4
100
AcDbDimension
  2
*D19
 10
1836.9999999999
 20
501.60000000002
 30
0.0
 11
1454.99998450001
 21
521.6000000000199
 31
0.0
 70
   160
  1
%%c764
  3
ISO-25
100
AcDbAlignedDimension
 13
1072.99996900012
 23
693.6000000000201
 33
0.0
 14
1836.9999999999
 24
693.6000000000201
 34
0.0
100
AcDbRotatedDimension
1001
ACAD
1000
DSTYLE
1002
{
1070
   270
1070
     2
1070
     6
1000
EX_BNORM
1070
     7
1000
EX_BNORM
1070
    41
1040
20.0
1070
    42
1040
12.0
1070
    44
1040
12.0
1070
    73
1070
     0
1070
    74
1070
     0
1070
    75
1070
     0
1070
    76
1070
     0
1070
    77
1070
     1
1070
    78
1070
     8
1070
   140
1040
24.9448832
1070
   147
1040
0.0
1070
   173
1070
     1
1070
   176
1070
     4
1070
   177
1070
     4
1070
   178
1070
     7
1070
   271
1070
     1
1070
   277
1070
     2
1070
   279
1070
     2
1070
   280
1070
     0
1070
   287
1070
     5
1070
   340
1005
4CD
1002
}
  0
DIMENSION
  5
510
330
1F
100
AcDbEntity
  8
LAY-20
  6
CONTINUOUS
 62
     4
100
AcDbDimension
  2
*D20
 10
1804.99999999993
 20
557.60000000002
 30
0.0
 11
1455.0
 21
577.60000000002
 31
0.0
 70
   160
  1
Ｐ.Ｃ.Ｄ700
  3
ISO-25
100
AcDbAlignedDimension
 13
1105.00000000007
 23
688.80000000002
 33
0.0
 14
1804.99999999993
 24
688.80000000002
 34
0.0
100
AcDbRotatedDimension
1001
ACAD
1000
DSTYLE
1002
{
1070
   270
1070
     2
1070
     6
1000
EX_BNORM
1070
     7
1000
EX_BNORM
1070
    41
1040
20.0
1070
    42
1040
12.0
1070
    44
1040
12.0
1070
    73
1070
     0
1070
    74
1070
     0
1070
    75
1070
     0
1070
    76
1070
     0
1070
    77
1070
     1
1070
    78
1070
     8
1070
   140
1040
24.9448832
1070
   147
1040
0.0
1070
   173
1070
     1
1070
   176
1070
     4
1070
   177
1070
     4
1070
   178
1070
     7
1070
   271
1070
     1
1070
   277
1070
     2
1070
   279
1070
     2
1070
   280
1070
     0
1070
   287
1070
     5
1070
   340
1005
4CD
1002
}
  0
DIMENSION
  5
51D
330
1F
100
AcDbEntity
  8
LAY-20
  6
CONTINUOUS
 62
     4
100
AcDbDimension
  2
*D21
 10
1514.0
 20
742.5999999999999
 30
0.0
 11
1494.0
 21
785.5999999999996
 31
0.0
 70
   160
  3
ISO-25
100
AcDbAlignedDimension
 13
1508.19995
 23
749.5999999999999
 33
0.0
 14
1519.0
 24
742.5999999999999
 34
0.0
 50
90.0
100
AcDbRotatedDimension
1001
ACAD
1000
DSTYLE
1002
{
1070
   270
1070
     2
1070
     6
1000
EX_BNORM
1070
     7
1000
EX_BNORM
1070
    41
1040
20.0
1070
    42
1040
0.0
1070
    44
1040
0.0
1070
    73
1070
     0
1070
    74
1070
     0
1070
    75
1070
     0
1070
    76
1070
     0
1070
    77
1070
     1
1070
    78
1070
     8
1070
   140
1040
24.9448832
1070
   147
1040
0.0
1070
   173
1070
     1
1070
   176
1070
     4
1070
   177
1070
     4
1070
   178
1070
     7
1070
   271
1070
     1
1070
   277
1070
     2
1070
   279
1070
     2
1070
   280
1070
     1
1070
   287
1070
     5
1070
   340
1005
4CD
1002
}
  0
DIMENSION
  5
52C
330
1F
100
AcDbEntity
  8
LAY-20
  6
CONTINUOUS
 62
     4
100
AcDbDimension
  2
*D22
 10
1817.0000010131
 20
1622.4
 30
0.0
 11
1865.0000010131
 21
1642.4
 31
0.0
 70
   160
  3
ISO-25
100
AcDbAlignedDimension
 13
1795.0000010137
 23
1545.6
 33
0.0
 14
1817.0000010131
 24
1545.6
 34
0.0
100
AcDbRotatedDimension
1001
ACAD
1000
DSTYLE
1002
{
1070
   270
1070
     2
1070
     6
1000
EX_BNORM
1070
     7
1000
EX_BNORM
1070
    41
1040
20.0
1070
    42
1040
12.0
1070
    44
1040
12.0
1070
    73
1070
     0
1070
    74
1070
     0
1070
    75
1070
     0
1070
    76
1070
     0
1070
    77
1070
     1
1070
    78
1070
     8
1070
   140
1040
24.9448832
1070
   147
1040
0.0
1070
   173
1070
     1
1070
   176
1070
     4
1070
   177
1070
     4
1070
   178
1070
     7
1070
   271
1070
     1
1070
   277
1070
     2
1070
   279
1070
     2
1070
   280
1070
     2
1070
   287
1070
     5
1070
   340
1005
4CD
1002
}
  0
DIMENSION
  5
53B
330
1F
100
AcDbEntity
  8
LAY-20
  6
CONTINUOUS
 62
     4
100
AcDbDimension
  2
*D23
 10
1908.9
 20
1527.1
 30
0.0
 11
1888.9
 21
1479.099999999999
 31
0.0
 70
   160
  3
ISO-25
100
AcDbAlignedDimension
 13
1806.0000036833
 23
1564.1
 33
0.0
 14
1805.9999998842
 24
1527.1
 34
0.0
 50
90.0
100
AcDbRotatedDimension
1001
ACAD
1000
DSTYLE
1002
{
1070
   270
1070
     2
1070
     6
1000
EX_BNORM
1070
     7
1000
EX_BNORM
1070
    41
1040
20.0
1070
    42
1040
12.0
1070
    44
1040
12.0
1070
    73
1070
     0
1070
    74
1070
     0
1070
    75
1070
     0
1070
    76
1070
     0
1070
    77
1070
     1
1070
    78
1070
     8
1070
   140
1040
24.9448832
1070
   147
1040
0.0
1070
   173
1070
     1
1070
   176
1070
     4
1070
   177
1070
     4
1070
   178
1070
     7
1070
   271
1070
     1
1070
   277
1070
     2
1070
   279
1070
     2
1070
   280
1070
     2
1070
   287
1070
     5
1070
   340
1005
4CD
1002
}
  0
LINE
  5
54A
330
1F
100
AcDbEntity
  8
LAY-20
  6
CONTINUOUS
 62
     7
100
AcDbLine
 10
1729.92
 20
753.60000000002
 30
0.0
 11
1728.48
 21
749.6
 31
0.0
  0
LINE
  5
54B
330
1F
100
AcDbEntity
  8
LAY-255
  6
CONTINUOUS
 62
     7
100
AcDbLine
 10
3080.0
 20
176.0
 30
0.0
 11
2280.0
 21
176.0
 31
0.0
  0
LINE
  5
54C
330
1F
100
AcDbEntity
  8
LAY-255
  6
CONTINUOUS
 62
     7
100
AcDbLine
 10
2310.4
 20
128.0
 30
0.0
 11
2374.4
 21
168.0
 31
0.0
  0
LINE
  5
54D
330
1F
100
AcDbEntity
  8
LAY-255
  6
CONTINUOUS
 62
     7
100
AcDbLine
 10
2374.4
 20
168.0
 30
0.0
 11
2438.4
 21
128.0
 31
0.0
  0
LINE
  5
54E
330
1F
100
AcDbEntity
  8
LAY-255
  6
CONTINUOUS
 62
     7
100
AcDbLine
 10
2438.4
 20
128.0
 30
0.0
 11
2374.4
 21
88.0
 31
0.0
  0
LINE
  5
54F
330
1F
100
AcDbEntity
  8
LAY-255
  6
CONTINUOUS
 62
     7
100
AcDbLine
 10
2374.4
 20
88.0
 30
0.0
 11
2310.4
 21
128.0
 31
0.0
  0
TEXT
  5
550
330
1F
100
AcDbEntity
  8
LAY-255
  6
CONTINUOUS
 62
     7
100
AcDbText
 10
2462.4
 20
124.0251984
 30
0.0
 40
37.4173248
  1
福西鋳物株式会社
 41
1.469999998956919
  7
EXCADSTD
100
AcDbText
  0
TEXT
  5
551
330
1F
100
AcDbEntity
  8
LAY-255
  6
CONTINUOUS
 62
     7
100
AcDbText
 10
2462.4
 20
95.7417328
 30
0.0
 40
12.4724416
  1
ＦＵＫＵＮＩＳＨＩ
 41
1.411167358044331
  7
EXCADSTD
100
AcDbText
  0
TEXT
  5
552
330
1F
100
AcDbEntity
  8
LAY-255
  6
CONTINUOUS
 62
     7
100
AcDbText
 10
2656.0
 20
95.7417328
 30
0.0
 40
12.4724416
  1
ＦＯＵＮＤＲＹ
 41
1.433676803530798
  7
EXCADSTD
100
AcDbText
  0
TEXT
  5
553
330
1F
100
AcDbEntity
  8
LAY-255
  6
CONTINUOUS
 62
     7
100
AcDbText
 10
2811.2
 20
95.7417328
 30
0.0
 40
12.4724416
  1
ＣＯ.,ＬＴＤ.
 41
1.458863931683415
  7
EXCADSTD
100
AcDbText
  0
TEXT
  5
554
330
1F
100
AcDbEntity
  8
LAY-255
  6
CONTINUOUS
 62
     7
100
AcDbText
 10
2353.80176
 20
109.4251984
 30
0.0
 40
37.4173248
  1
S
 41
0.56692
  7
EXCADSTD
100
AcDbText
  0
TEXT
  5
555
330
1F
100
AcDbEntity
  8
LAY-255
  6
CONTINUOUS
 62
     7
100
AcDbText
 10
2377.80176
 20
109.67048141888
 30
0.0
 40
37.4173248
  1
F
 41
0.56692
  7
EXCADSTD
100
AcDbText
  0
LINE
  5
556
330
1F
100
AcDbEntity
  8
LAY-255
  6
CONTINUOUS
 62
     7
100
AcDbLine
 10
40.0
 20
80.0
 30
0.0
 11
3080.0
 21
80.0
 31
0.0
  0
LINE
  5
557
330
1F
100
AcDbEntity
  8
LAY-255
  6
CONTINUOUS
 62
     7
100
AcDbLine
 10
40.0
 20
2240.0
 30
0.0
 11
3080.0
 21
2240.0
 31
0.0
  0
LINE
  5
558
330
1F
100
AcDbEntity
  8
LAY-255
  6
CONTINUOUS
 62
     7
100
AcDbLine
 10
40.0
 20
80.0
 30
0.0
 11
40.0
 21
2240.0
 31
0.0
  0
TEXT
  5
559
330
1F
100
AcDbEntity
  8
LAY-255
  6
CONTINUOUS
 62
     7
100
AcDbText
 10
2696.0
 20
195.2125991999999
 30
0.0
 40
18.7086624
  1
縮尺
 41
1.15
  7
EXCADSTD
100
AcDbText
  0
LINE
  5
55A
330
1F
100
AcDbEntity
  8
LAY-255
  6
CONTINUOUS
 62
     4
100
AcDbLine
 10
2280.0
 20
224.0
 30
0.0
 11
3080.0
 21
224.0
 31
0.0
  0
LINE
  5
55B
330
1F
100
AcDbEntity
  8
LAY-255
  6
CONTINUOUS
 62
     4
100
AcDbLine
 10
2680.0
 20
224.0
 30
0.0
 11
2680.0
 21
176.0
 31
0.0
  0
TEXT
  5
55C
330
1F
100
AcDbEntity
  8
LAY-255
  6
CONTINUOUS
 62
     7
100
AcDbText
 10
2296.0
 20
195.2125991999999
 30
0.0
 40
18.7086624
  1
作成日
 41
1.136
  7
EXCADSTD
100
AcDbText
  0
POINT
  5
55D
330
1F
100
AcDbEntity
  8
LAY-255
  6
CONTINUOUS
 62
     7
100
AcDbPoint
 10
2312.0
 20
239.9999999999999
 30
0.0
  0
POINT
  5
55E
330
1F
100
AcDbEntity
  8
LAY-255
  6
CONTINUOUS
 62
     7
100
AcDbPoint
 10
2312.0
 20
279.9999999999999
 30
0.0
  0
POINT
  5
55F
330
1F
100
AcDbEntity
  8
LAY-255
  6
CONTINUOUS
 62
     7
100
AcDbPoint
 10
2312.0
 20
360.0000000000001
 30
0.0
  0
LINE
  5
560
330
1F
100
AcDbEntity
  8
LAY-255
  6
CONTINUOUS
 62
     7
100
AcDbLine
 10
3080.0
 20
80.0
 30
0.0
 11
3080.0
 21
2240.0
 31
0.0
  0
LINE
  5
561
330
1F
100
AcDbEntity
  8
LAY-255
  6
CONTINUOUS
 62
     7
100
AcDbLine
 10
2280.0
 20
80.0
 30
0.0
 11
2280.0
 21
536.0000000000001
 31
0.0
  0
LINE
  5
562
330
1F
100
AcDbEntity
  8
LAY-255
  6
CONTINUOUS
 62
     7
100
AcDbLine
 10
3080.0
 20
536.0000000000001
 30
0.0
 11
2280.0
 21
536.0000000000001
 31
0.0
  0
LINE
  5
563
330
1F
100
AcDbEntity
  8
LAY-255
  6
CONTINUOUS
 62
     4
100
AcDbLine
 10
3064.0
 20
440.0000000000001
 30
0.0
 11
2296.0
 21
440.0000000000001
 31
0.0
  0
LINE
  5
564
330
1F
100
AcDbEntity
  8
LAY-255
  6
CONTINUOUS
 62
     4
100
AcDbLine
 10
3064.0
 20
488.0000000000001
 30
0.0
 11
2296.0
 21
488.0000000000001
 31
0.0
  0
POINT
  5
565
330
1F
100
AcDbEntity
  8
LAY-255
  6
CONTINUOUS
 62
     7
100
AcDbPoint
 10
2312.0
 20
400.0000000000001
 30
0.0
  0
TEXT
  5
566
330
1F
100
AcDbEntity
  8
LAY-255
  6
CONTINUOUS
 62
     7
100
AcDbText
 10
2296.0
 20
452.2834656000001
 30
0.0
 40
24.9448832
  1
型式
 41
1.15
  7
EXCADSTD
100
AcDbText
  0
TEXT
  5
567
330
1F
100
AcDbEntity
  8
LAY-255
  6
CONTINUOUS
 62
     7
100
AcDbText
 10
2296.0
 20
500.2834656000001
 30
0.0
 40
24.9448832
  1
品名
 41
1.15
  7
EXCADSTD
100
AcDbText
  0
POINT
  5
568
330
1F
100
AcDbEntity
  8
LAY-255
  6
CONTINUOUS
 62
     7
100
AcDbPoint
 10
2400.0
 20
448.0000000000001
 30
0.0
  0
POINT
  5
569
330
1F
100
AcDbEntity
  8
LAY-255
  6
CONTINUOUS
 62
     7
100
AcDbPoint
 10
2400.0
 20
496.0000000000001
 30
0.0
  0
POINT
  5
56A
330
1F
100
AcDbEntity
  8
LAY-255
  6
CONTINUOUS
 62
     7
100
AcDbPoint
 10
2312.0
 20
360.0000000000001
 30
0.0
  0
POINT
  5
56B
330
1F
100
AcDbEntity
  8
LAY-255
  6
CONTINUOUS
 62
     7
100
AcDbPoint
 10
2312.0
 20
320.0
 30
0.0
  0
TEXT
  5
56C
330
1F
100
AcDbEntity
  8
LAY-255
  6
CONTINUOUS
 62
     7
100
AcDbText
 10
2400.0
 20
188.2834655999999
 30
0.0
 40
24.9448832
  1
２３／０７／１４
 41
1.12
  7
EXCADSTD
100
AcDbText
  0
TEXT
  5
56D
330
1F
100
AcDbEntity
  8
LAY-255
  6
CONTINUOUS
 62
     7
100
AcDbText
 10
2400.0
 20
452.2834656000001
 30
0.0
 40
24.9448832
  1
ＳＦ－６０ＦＡＫＸＰ型
 41
1.117525773195876
  7
EXCADSTD
100
AcDbText
  0
TEXT
  5
56E
330
1F
100
AcDbEntity
  8
LAY-255
  6
CONTINUOUS
 62
     7
100
AcDbText
 10
2400.0
 20
500.2834656000001
 30
0.0
 40
24.9448832
  1
マンホールカバー
 41
1.12
  7
EXCADSTD
100
AcDbText
  0
TEXT
  5
56F
330
1F
100
AcDbEntity
  8
LAY-255
  6
CONTINUOUS
 62
     7
100
AcDbText
 10
2312.0
 20
364.2834656000001
 30
0.0
 40
24.9448832
  1
構造：急勾配受け式・旋回式・蝶番式・施錠装置付
 41
1.114146341463415
  7
EXCADSTD
100
AcDbText
  0
TEXT
  5
570
330
1F
100
AcDbEntity
  8
LAY-255
  6
CONTINUOUS
 62
     7
100
AcDbText
 10
2310.4
 20
401.8834656000002
 30
0.0
 40
24.9448832
  1
区分：車道用
 41
1.123076923076923
  7
EXCADSTD
100
AcDbText
  0
TEXT
  5
571
330
1F
100
AcDbEntity
  8
LAY-255
  6
CONTINUOUS
 62
     7
100
AcDbText
 10
2310.400000000007
 20
283.4834656000004
 30
0.0
 40
24.9448832
  1
機能：浮上防止型
 41
1.12
  7
EXCADSTD
100
AcDbText
  0
TEXT
  5
572
330
1F
100
AcDbEntity
  8
LAY-255
  6
CONTINUOUS
 62
     7
100
AcDbText
 10
2312.800000000002
 20
324.2834656000002
 30
0.0
 40
24.9448832
  1
防水：簡易防水防臭型
 41
1.118181818181818
  7
EXCADSTD
100
AcDbText
  0
TEXT
  5
573
330
1F
100
AcDbEntity
  8
LAY-255
  6
CONTINUOUS
 62
     7
100
AcDbText
 10
2776.0
 20
188.2834655999999
 30
0.0
 40
24.9448832
  1
１：８
 41
1.136
  7
EXCADSTD
100
AcDbText
  0
TEXT
  5
574
330
1F
100
AcDbEntity
  8
LAY-255
  6
CONTINUOUS
 62
     7
100
AcDbText
 10
2309.6
 20
245.8834655999999
 30
0.0
 40
24.9448832
  1
破壊荷重：２５０ｋＮ（２５,５００ｋｇｆ）以上
 41
1.097788697788698
  7
EXCADSTD
100
AcDbText
  0
ENDSEC
  0
SECTION
  2
OBJECTS
  0
DICTIONARY
  5
C
330
0
100
AcDbDictionary
  3
ACAD_GROUP
350
D
  3
ACAD_LAYOUT
350
1A
  3
ACAD_MATERIAL
350
43
  3
ACAD_MLEADERSTYLE
350
6B
  3
ACAD_MLINESTYLE
350
17
  3
ACAD_PLOTSETTINGS
350
19
  3
ACAD_SCALELIST
350
47
  3
ACAD_VISUALSTYLE
350
2A
  3
ACDBHEADERROUNDTRIPXREC
350
575
  3
ACDBVARIABLEDICTIONARY
350
596
  0
DICTIONARY
  5
5A1
330
8
100
AcDbDictionary
280
     1
  3
ACAD_XREC_ROUNDTRIP
360
5A2
  0
DICTIONARY
  5
D
102
{ACAD_REACTORS
330
C
102
}
330
C
100
AcDbDictionary
  0
DICTIONARY
  5
1A
102
{ACAD_REACTORS
330
C
102
}
330
C
100
AcDbDictionary
  0
DICTIONARY
  5
43
102
{ACAD_REACTORS
330
C
102
}
330
C
100
AcDbDictionary
  3
BYBLOCK
350
45
  3
BYLAYER
350
44
  3
GLOBAL
350
46
  0
DICTIONARY
  5
6B
102
{ACAD_REACTORS
330
C
102
}
330
C
100
AcDbDictionary
  3
STANDARD
350
6C
  0
DICTIONARY
  5
17
102
{ACAD_REACTORS
330
C
102
}
330
C
100
AcDbDictionary
  3
STANDARD
350
18
  0
DICTIONARY
  5
19
102
{ACAD_REACTORS
330
C
102
}
330
C
100
AcDbDictionary
  0
DICTIONARY
  5
47
102
{ACAD_REACTORS
330
C
102
}
330
C
100
AcDbDictionary
  3
A0
350
48
  3
A1
350
49
  3
A2
350
4A
  3
A3
350
4B
  3
A4
350
4C
  3
A5
350
4D
  3
A6
350
4E
  3
A7
350
4F
  3
A8
350
50
  3
A9
350
51
  3
B0
350
52
  3
B1
350
53
  3
B2
350
54
  3
B3
350
55
  3
B4
350
56
  3
B5
350
57
  3
B6
350
58
  3
B7
350
59
  3
B8
350
5A
  3
B9
350
5B
  3
C0
350
5C
  3
C1
350
5D
  3
C2
350
5E
  3
C3
350
5F
  3
C4
350
60
  3
C5
350
61
  3
C6
350
62
  3
C7
350
63
  3
C8
350
64
  3
C9
350
65
  3
D0
350
66
  3
D1
350
67
  3
D2
350
68
  0
DICTIONARY
  5
2A
102
{ACAD_REACTORS
330
C
102
}
330
C
100
AcDbDictionary
  3
2DWIREFRAME
350
2F
  3
BASIC
350
32
  3
BRIGHTEN
350
36
  3
COLORCHANGE
350
3A
  3
CONCEPTUAL
350
34
  3
DIM
350
35
  3
EDGECOLOROFF
350
3D
  3
FACEPATTERN
350
39
  3
FLAT
350
2B
  3
FLATWITHEDGES
350
2C
  3
GOURAUD
350
2D
  3
GOURAUDWITHEDGES
350
2E
  3
HIDDEN
350
31
  3
JITTEROFF
350
3B
  3
LINEPATTERN
350
38
  3
OVERHANGOFF
350
3C
  3
REALISTIC
350
33
  3
SHADED
350
42
  3
SHADED_WITH_EDGES
350
41
  3
SHADES_OF_GRAY
350
3E
  3
SKETCHY
350
3F
  3
THICKEN
350
37
  3
WIREFRAME
350
30
  3
X-RAY
350
40
  0
DICTIONARY
  5
575
102
{ACAD_REACTORS
330
C
102
}
330
C
100
AcDbDictionary
  3
CEPSNID
350
57F
  3
CEPSNTYPE
350
57E
  3
DIMSTYLEDATA
350
595
  3
FINGERPRINTGUID
350
580
  3
HYPERLINKBASE
350
578
  3
INSUNITS
350
57D
  3
LAYOUTDICT
350
57A
  3
LWETCUNION
350
57C
  3
PLOTSETDICT
350
57B
  3
PSVPSCALE
350
582
  3
PUCSBASE
350
585
  3
PUCSORGBACK
350
58B
  3
PUCSORGBOTTOM
350
587
  3
PUCSORGFRONT
350
58A
  3
PUCSORGLEFT
350
588
  3
PUCSORGRIGHT
350
589
  3
PUCSORGTOP
350
586
  3
PUCSORTHOREF
350
583
  3
PUCSORTHOVIEW
350
584
  3
STYLESHEET
350
579
  3
TSTACKALIGN
350
576
  3
TSTACKSIZE
350
577
  3
UCSBASE
350
58E
  3
UCSORGBACK
350
594
  3
UCSORGBOTTOM
350
590
  3
UCSORGFRONT
350
593
  3
UCSORGLEFT
350
591
  3
UCSORGRIGHT
350
592
  3
UCSORGTOP
350
58F
  3
UCSORTHOREF
350
58C
  3
UCSORTHOVIEW
350
58D
  3
VERSIONGUID
350
581
  0
DICTIONARY
  5
596
102
{ACAD_REACTORS
330
C
102
}
330
C
100
AcDbDictionary
  3
CANNOSCALE
350
5A3
  3
CENTEREXE
350
59D
  3
CENTERLTYPEFILE
350
59E
  3
CMLEADERSTYLE
350
598
  3
CTABLESTYLE
350
597
  3
DIMASSOC
350
59F
  3
HIDETEXT
350
5A0
  3
MSLTSCALE
350
5A4
  3
PSOLHEIGHT
350
59A
  3
PSOLWIDTH
350
599
  0
XRECORD
  5
5A2
102
{ACAD_REACTORS
330
5A1
102
}
330
5A1
100
AcDbXrecord
102
VTR_0.000_0.000_1.000_1.000_VISUALSTYLE
340
2F
102
VTR_0.000_0.000_1.000_1.000_GRIDDISPLAY
 70
     3
102
VTR_0.000_0.000_1.000_1.000_GRIDMAJOR
 70
     5
102
VTR_0.000_0.000_1.000_1.000_DEFAULTLIGHTING
280
     1
102
VTR_0.000_0.000_1.000_1.000_DEFAULTLIGHTINGTYPE
 70
     1
102
VTR_0.000_0.000_1.000_1.000_BRIGHTNESS
141
0.0
102
VTR_0.000_0.000_1.000_1.000_CONTRAST
142
0.0
  0
MATERIAL
  5
45
102
{ACAD_REACTORS
330
43
102
}
102
{ACAD_XDICTIONARY
360
5A7
102
}
330
43
100
AcDbMaterial
  1
BYBLOCK
  0
MATERIAL
  5
44
102
{ACAD_REACTORS
330
43
102
}
102
{ACAD_XDICTIONARY
360
5A5
102
}
330
43
100
AcDbMaterial
  1
BYLAYER
  0
MATERIAL
  5
46
102
{ACAD_REACTORS
330
43
102
}
102
{ACAD_XDICTIONARY
360
5A9
102
}
330
43
100
AcDbMaterial
  1
GLOBAL
  0
ACAD_PROXY_OBJECT
  5
6C
102
{ACAD_REACTORS
330
6B
102
}
330
6B
100
AcDbProxyObject
 90
      499
 91
      505
 93
      610
310
40901902A4063FBFFFFFE0000000000000020400000000000020404214DD185B99185C990000000000000104090141901A00000000000004100000000000000041025764000000000000039000
340
14
340
0
340
11
340
0
 94
        0
1001
ACAD_MLEADERVER
1070
     2
  0
MLINESTYLE
  5
18
102
{ACAD_REACTORS
330
17
102
}
330
17
100
AcDbMlineStyle
  2
Standard
 70
     0
  3

 62
   256
 51
90.0
 52
90.0
 71
     2
 49
0.5
 62
   256
  6
BYLAYER
 49
-0.5
 62
   256
  6
BYLAYER
  0
ACAD_PROXY_OBJECT
  5
48
102
{ACAD_REACTORS
330
47
102
}
330
47
100
AcDbProxyObject
 90
      499
 91
      503
 93
       41
310
903313A31580
  0
ACAD_PROXY_OBJECT
  5
49
102
{ACAD_REACTORS
330
47
102
}
330
47
100
AcDbProxyObject
 90
      499
 91
      503
 93
      105
310
903313A324000000000000004000
  0
ACAD_PROXY_OBJECT
  5
4A
102
{ACAD_REACTORS
330
47
102
}
330
47
100
AcDbProxyObject
 90
      499
 91
      503
 93
      105
310
903313A344000000000000104000
  0
ACAD_PROXY_OBJECT
  5
4B
102
{ACAD_REACTORS
330
47
102
}
330
47
100
AcDbProxyObject
 90
      499
 91
      503
 93
      105
310
903313A354000000000000144000
  0
ACAD_PROXY_OBJECT
  5
4C
102
{ACAD_REACTORS
330
47
102
}
330
47
100
AcDbProxyObject
 90
      499
 91
      503
 93
      105
310
903313A384000000000000204000
  0
ACAD_PROXY_OBJECT
  5
4D
102
{ACAD_REACTORS
330
47
102
}
330
47
100
AcDbProxyObject
 90
      499
 91
      503
 93
      113
310
904313A31304000000000000244000
  0
ACAD_PROXY_OBJECT
  5
4E
102
{ACAD_REACTORS
330
47
102
}
330
47
100
AcDbProxyObject
 90
      499
 91
      503
 93
      113
310
904313A31364000000000000304000
  0
ACAD_PROXY_OBJECT
  5
4F
102
{ACAD_REACTORS
330
47
102
}
330
47
100
AcDbProxyObject
 90
      499
 91
      503
 93
      113
310
904313A32304000000000000344000
  0
ACAD_PROXY_OBJECT
  5
50
102
{ACAD_REACTORS
330
47
102
}
330
47
100
AcDbProxyObject
 90
      499
 91
      503
 93
      113
310
904313A333040000000000003E4000
  0
ACAD_PROXY_OBJECT
  5
51
102
{ACAD_REACTORS
330
47
102
}
330
47
100
AcDbProxyObject
 90
      499
 91
      503
 93
      113
310
904313A34304000000000000444000
  0
ACAD_PROXY_OBJECT
  5
52
102
{ACAD_REACTORS
330
47
102
}
330
47
100
AcDbProxyObject
 90
      499
 91
      503
 93
      113
310
904313A35304000000000000494000
  0
ACAD_PROXY_OBJECT
  5
53
102
{ACAD_REACTORS
330
47
102
}
330
47
100
AcDbProxyObject
 90
      499
 91
      503
 93
      121
310
905313A3130304000000000000594000
  0
ACAD_PROXY_OBJECT
  5
54
102
{ACAD_REACTORS
330
47
102
}
330
47
100
AcDbProxyObject
 90
      499
 91
      503
 93
      105
310
903323A310000000000000010100
  0
ACAD_PROXY_OBJECT
  5
55
102
{ACAD_REACTORS
330
47
102
}
330
47
100
AcDbProxyObject
 90
      499
 91
      503
 93
      105
310
903343A310000000000000410100
  0
ACAD_PROXY_OBJECT
  5
56
102
{ACAD_REACTORS
330
47
102
}
330
47
100
AcDbProxyObject
 90
      499
 91
      503
 93
      105
310
903383A310000000000000810100
  0
ACAD_PROXY_OBJECT
  5
57
102
{ACAD_REACTORS
330
47
102
}
330
47
100
AcDbProxyObject
 90
      499
 91
      503
 93
      113
310
90431303A310000000000000910100
  0
ACAD_PROXY_OBJECT
  5
58
102
{ACAD_REACTORS
330
47
102
}
330
47
100
AcDbProxyObject
 90
      499
 91
      503
 93
      121
310
9053130303A310000000000001650100
  0
ACAD_PROXY_OBJECT
  5
59
102
{ACAD_REACTORS
330
47
102
}
330
47
100
AcDbProxyObject
 90
      499
 91
      503
 93
      257
310
90E312F31323822203D2031272D3022000000000000200FC000000000000284000
  0
ACAD_PROXY_OBJECT
  5
5A
102
{ACAD_REACTORS
330
47
102
}
330
47
100
AcDbProxyObject
 90
      499
 91
      503
 93
      249
310
90D312F363422203D2031272D3022000000000000240FC000000000000284000
  0
ACAD_PROXY_OBJECT
  5
5B
102
{ACAD_REACTORS
330
47
102
}
330
47
100
AcDbProxyObject
 90
      499
 91
      503
 93
      249
310
90D312F333222203D2031272D3022000000000000280FC000000000000284000
  0
ACAD_PROXY_OBJECT
  5
5C
102
{ACAD_REACTORS
330
47
102
}
330
47
100
AcDbProxyObject
 90
      499
 91
      503
 93
      249
310
90D312F313622203D2031272D30220000000000002C0FC000000000000284000
  0
ACAD_PROXY_OBJECT
  5
5D
102
{ACAD_REACTORS
330
47
102
}
330
47
100
AcDbProxyObject
 90
      499
 91
      503
 93
      249
310
90D332F333222203D2031272D30220000000000002E0FC000000000000284000
  0
ACAD_PROXY_OBJECT
  5
5E
102
{ACAD_REACTORS
330
47
102
}
330
47
100
AcDbProxyObject
 90
      499
 91
      503
 93
      241
310
90C312F3822203D2031272D3022000000000000300FC000000000000284000
  0
ACAD_PROXY_OBJECT
  5
5F
102
{ACAD_REACTORS
330
47
102
}
330
47
100
AcDbProxyObject
 90
      499
 91
      503
 93
      249
310
90D332F313622203D2031272D3022000000000000320FC000000000000284000
  0
ACAD_PROXY_OBJECT
  5
60
102
{ACAD_REACTORS
330
47
102
}
330
47
100
AcDbProxyObject
 90
      499
 91
      503
 93
      241
310
90C312F3422203D2031272D3022000000000000340FC000000000000284000
  0
ACAD_PROXY_OBJECT
  5
61
102
{ACAD_REACTORS
330
47
102
}
330
47
100
AcDbProxyObject
 90
      499
 91
      503
 93
      241
310
90C332F3822203D2031272D3022000000000000360FC000000000000284000
  0
ACAD_PROXY_OBJECT
  5
62
102
{ACAD_REACTORS
330
47
102
}
330
47
100
AcDbProxyObject
 90
      499
 91
      503
 93
      241
310
90C312F3222203D2031272D3022000000000000380FC000000000000284000
  0
ACAD_PROXY_OBJECT
  5
63
102
{ACAD_REACTORS
330
47
102
}
330
47
100
AcDbProxyObject
 90
      499
 91
      503
 93
      241
310
90C332F3422203D2031272D30220000000000003A0FC000000000000284000
  0
ACAD_PROXY_OBJECT
  5
64
102
{ACAD_REACTORS
330
47
102
}
330
47
100
AcDbProxyObject
 90
      499
 91
      503
 93
      161
310
90A3122203D2031272D30224000000000000284000
  0
ACAD_PROXY_OBJECT
  5
65
102
{ACAD_REACTORS
330
47
102
}
330
47
100
AcDbProxyObject
 90
      499
 91
      503
 93
      257
310
90E312D312F3222203D2031272D30220000000000003E0FC000000000000284000
  0
ACAD_PROXY_OBJECT
  5
66
102
{ACAD_REACTORS
330
47
102
}
330
47
100
AcDbProxyObject
 90
      499
 91
      503
 93
      225
310
90A3322203D2031272D302200000000000002100000000000000284000
  0
ACAD_PROXY_OBJECT
  5
67
102
{ACAD_REACTORS
330
47
102
}
330
47
100
AcDbProxyObject
 90
      499
 91
      503
 93
      225
310
90A3622203D2031272D302200000000000006100000000000000284000
  0
ACAD_PROXY_OBJECT
  5
68
102
{ACAD_REACTORS
330
47
102
}
330
47
100
AcDbProxyObject
 90
      499
 91
      503
 93
      249
310
90D31272D3022203D2031272D30220000000000000A100000000000000284000
  0
ACAD_PROXY_OBJECT
  5
2F
102
{ACAD_REACTORS
330
2A
102
}
330
2A
100
AcDbProxyObject
 90
      499
 91
      501
 93
      436
310
42CC9915DA5C99599C985B595049028333333333333E33F0000000000000F90107901411070040501600405405064090741402480A0340
1001
ACAD
1000
AcDbSavedByObjectVersion
1070
     0
  0
ACAD_PROXY_OBJECT
  5
32
102
{ACAD_REACTORS
330
2A
102
}
330
2A
100
AcDbProxyObject
 90
      499
 91
      501
 93
      388
310
4150985CDA58D07406404333333333333E33F0000000000000F90107A41107004050150841D405064090741402480A0350
1001
ACAD
1000
AcDbSavedByObjectVersion
1070
     0
  0
ACAD_PROXY_OBJECT
  5
36
102
{ACAD_REACTORS
330
2A
102
}
330
2A
100
AcDbProxyObject
 90
      499
 91
      501
 93
      428
310
42109C9A59DA1D195B90C409028333333333333E33F0000000000000F9010790141107004050150841D405064090741402480A029950
1001
ACAD
1000
AcDbSavedByObjectVersion
1070
     0
  0
ACAD_PROXY_OBJECT
  5
3A
102
{ACAD_REACTORS
330
2A
102
}
330
2A
100
AcDbProxyObject
 90
      499
 91
      501
 93
      452
310
42D0DBDB1BDC90DA185B99D95104090240C333333333333E33F0000000000000F90108901411070040501508421405064090741402480A0350
1001
ACAD
1000
AcDbSavedByObjectVersion
1070
     0
  0
ACAD_PROXY_OBJECT
  5
34
102
{ACAD_REACTORS
330
2A
102
}
330
2A
100
AcDbProxyObject
 90
      499
 91
      501
 93
      500
310
4290DBDB98D95C1D1D585B10940D028333333333333E33F0000000000000F90107902409070040501000000000018199010841D405064090740C02480A0340
1001
ACAD
1000
AcDbSavedByObjectVersion
1070
     0
  0
ACAD_PROXY_OBJECT
  5
35
102
{ACAD_REACTORS
330
2A
102
}
330
2A
100
AcDbProxyObject
 90
      499
 91
      501
 93
      412
310
40D11A5B50B409028333333333333E33F0000000000000F9010790141107004050150841D405064090741402480A02677FFFFFD0
1001
ACAD
1000
AcDbSavedByObjectVersion
1070
     0
  0
ACAD_PROXY_OBJECT
  5
3D
102
{ACAD_REACTORS
330
2A
102
}
330
2A
100
AcDbProxyObject
 90
      499
 91
      501
 93
      452
310
43115919D950DBDB1BDC93D999916409028333333333333E33F0000000000000F9010790141107004050150841D405064090741402480A0350
1001
ACAD
1000
AcDbSavedByObjectVersion
1070
     0
  0
ACAD_PROXY_OBJECT
  5
39
102
{ACAD_REACTORS
330
2A
102
}
330
2A
100
AcDbProxyObject
 90
      499
 91
      501
 93
      444
310
42D19858D95C185D1D195C9B90F409028333333333333E33F0000000000000F9010790141107004050150841D405064090741402480A0350
1001
ACAD
1000
AcDbSavedByObjectVersion
1070
     0
  0
ACAD_PROXY_OBJECT
  5
2B
102
{ACAD_REACTORS
330
2A
102
}
330
2A
100
AcDbProxyObject
 90
      499
 91
      501
 93
      380
310
41119B185D240901404333333333333E33F0000000000000F9010740A907004050150841D405064090741402480A1B50
1001
ACAD
1000
AcDbSavedByObjectVersion
1070
     0
  0
ACAD_PROXY_OBJECT
  5
2C
102
{ACAD_REACTORS
330
2A
102
}
330
2A
100
AcDbProxyObject
 90
      499
 91
      501
 93
      468
310
43519B185D15DA5D1A115919D95CD0140901404333333333333E33F0000000000000F90107409019070040501600405405064090741402480A1B50
1001
ACAD
1000
AcDbSavedByObjectVersion
1070
     0
  0
ACAD_PROXY_OBJECT
  5
2D
102
{ACAD_REACTORS
330
2A
102
}
330
2A
100
AcDbProxyObject
 90
      499
 91
      501
 93
      404
310
41D1DBDD5C985D5910240902404333333333333E33F0000000000000F9010740A9070040501641D405064090741402480A1B50
1001
ACAD
1000
AcDbSavedByObjectVersion
1070
     0
  0
ACAD_PROXY_OBJECT
  5
2E
102
{ACAD_REACTORS
330
2A
102
}
330
2A
100
AcDbProxyObject
 90
      499
 91
      501
 93
      492
310
4411DBDD5C985D5915DA5D1A115919D95CD0340902404333333333333E33F0000000000000F90107409019070040501600405405064090741402480A1B50
1001
ACAD
1000
AcDbSavedByObjectVersion
1070
     0
  0
ACAD_PROXY_OBJECT
  5
31
102
{ACAD_REACTORS
330
2A
102
}
330
2A
100
AcDbProxyObject
 90
      499
 91
      501
 93
      476
310
41921A5919195B90640502408333333333333E33F0000000000000F901079024090700405020000000000001110200405405064090740C02480A0340
1001
ACAD
1000
AcDbSavedByObjectVersion
1070
     0
  0
ACAD_PROXY_OBJECT
  5
3B
102
{ACAD_REACTORS
330
2A
102
}
330
2A
100
AcDbProxyObject
 90
      499
 91
      501
 93
      428
310
42529A5D1D195C93D999914409028333333333333E33F0000000000000F9010790141107004050150A41D405064090741402480A0350
1001
ACAD
1000
AcDbSavedByObjectVersion
1070
     0
  0
ACAD_PROXY_OBJECT
  5
38
102
{ACAD_REACTORS
330
2A
102
}
330
2A
100
AcDbProxyObject
 90
      499
 91
      501
 93
      444
310
42D31A5B995C185D1D195C9B90E409028333333333333E33F0000000000000F9010790141107004050750841D405064090741402483A0350
1001
ACAD
1000
AcDbSavedByObjectVersion
1070
     0
  0
ACAD_PROXY_OBJECT
  5
3C
102
{ACAD_REACTORS
330
2A
102
}
330
2A
100
AcDbProxyObject
 90
      499
 91
      501
 93
      444
310
42D3DD995C9A185B99D3D999915409028333333333333E33F0000000000000F9010790141107004050150941D405064090741402480A0350
1001
ACAD
1000
AcDbSavedByObjectVersion
1070
     0
  0
ACAD_PROXY_OBJECT
  5
33
102
{ACAD_REACTORS
330
2A
102
}
330
2A
100
AcDbProxyObject
 90
      499
 91
      501
 93
      428
310
425499585B1A5CDD1A58D08409038333333333333E33F0000000000000F9010740A907004050150800405405064090740C02480A1B40
1001
ACAD
1000
AcDbSavedByObjectVersion
1070
     0
  0
ACAD_PROXY_OBJECT
  5
42
102
{ACAD_REACTORS
330
2A
102
}
330
2A
100
AcDbProxyObject
 90
      499
 91
      501
 93
      420
310
4194DA1859195911B40902404333333333333E33F0000000000000F9010740A41107004050150800405405064090840C02480A0B40
1001
ACAD
1000
AcDbSavedByObjectVersion
1070
     0
  0
ACAD_PROXY_OBJECT
  5
41
102
{ACAD_REACTORS
330
2A
102
}
330
2A
100
AcDbProxyObject
 90
      499
 91
      501
 93
      516
310
4454DA18591959081DDA5D1A08195919D95CD1A40902404333333333333E33F0000000000000F901074090142907004050250800405405064090740C02480A0B40
1001
ACAD
1000
AcDbSavedByObjectVersion
1070
     0
  0
ACAD_PROXY_OBJECT
  5
3E
102
{ACAD_REACTORS
330
2A
102
}
330
2A
100
AcDbProxyObject
 90
      499
 91
      501
 93
      532
310
4394DA1859195CC81BD98811DC985E5174090240C333333333333E33F0000000000000F901079024090741D01000000000000111010841D405064090740C02480A0340
1001
ACAD
1000
AcDbSavedByObjectVersion
1070
     0
  0
ACAD_PROXY_OBJECT
  5
3F
102
{ACAD_REACTORS
330
2A
102
}
330
2A
100
AcDbProxyObject
 90
      499
 91
      501
 93
      476
310
41D4DAD95D18DA1E51840502408333333333333E33F0000000000000F901079024090741D01000000000000111010B41D405064090741802480A0340
1001
ACAD
1000
AcDbSavedByObjectVersion
1070
     0
  0
ACAD_PROXY_OBJECT
  5
37
102
{ACAD_REACTORS
330
2A
102
}
330
2A
100
AcDbProxyObject
 90
      499
 91
      501
 93
      412
310
41D51A1A58DAD95B90D409028333333333333E33F0000000000000F9010790141107004050150C41D405064090741402480A0350
1001
ACAD
1000
AcDbSavedByObjectVersion
1070
     0
  0
ACAD_PROXY_OBJECT
  5
30
102
{ACAD_REACTORS
330
2A
102
}
330
2A
100
AcDbProxyObject
 90
      499
 91
      501
 93
      420
310
4255DA5C99599C985B595059028333333333333E33F0000000000000F90107901411070040501600405405064090740C02480A0340
1001
ACAD
1000
AcDbSavedByObjectVersion
1070
     0
  0
ACAD_PROXY_OBJECT
  5
40
102
{ACAD_REACTORS
330
2A
102
}
330
2A
100
AcDbProxyObject
 90
      499
 91
      501
 93
      404
310
41560B54985E51940902404000000000000E03F0000000000000F9010740501907004050150841D405064090740C02480A1B40
1001
ACAD
1000
AcDbSavedByObjectVersion
1070
     0
  0
XRECORD
  5
57F
102
{ACAD_REACTORS
330
575
102
}
330
575
100
AcDbXrecord
340
0
  0
XRECORD
  5
57E
102
{ACAD_REACTORS
330
575
102
}
330
575
100
AcDbXrecord
 90
        0
  0
XRECORD
  5
595
102
{ACAD_REACTORS
330
575
102
}
330
575
100
AcDbXrecord
1000
DSTYLE
1002
{
1070
   340
340
11
1002
}
  0
XRECORD
  5
580
102
{ACAD_REACTORS
330
575
102
}
330
575
100
AcDbXrecord
  1
{f4199306-518f-48df-acef-f61da948abc8}
  0
XRECORD
  5
578
102
{ACAD_REACTORS
330
575
102
}
330
575
100
AcDbXrecord
  1

  0
XRECORD
  5
57D
102
{ACAD_REACTORS
330
575
102
}
330
575
100
AcDbXrecord
 90
        4
  0
XRECORD
  5
57A
102
{ACAD_REACTORS
330
575
102
}
330
575
100
AcDbXrecord
340
1A
  0
XRECORD
  5
57C
102
{ACAD_REACTORS
330
575
102
}
330
575
100
AcDbXrecord
 90
    10781
  0
XRECORD
  5
57B
102
{ACAD_REACTORS
330
575
102
}
330
575
100
AcDbXrecord
340
19
  0
XRECORD
  5
582
102
{ACAD_REACTORS
330
575
102
}
330
575
100
AcDbXrecord
 40
0.0
  0
XRECORD
  5
585
102
{ACAD_REACTORS
330
575
102
}
330
575
100
AcDbXrecord
340
0
  0
XRECORD
  5
58B
102
{ACAD_REACTORS
330
575
102
}
330
575
100
AcDbXrecord
 10
0.0
 20
0.0
 30
0.0
  0
XRECORD
  5
587
102
{ACAD_REACTORS
330
575
102
}
330
575
100
AcDbXrecord
 10
0.0
 20
0.0
 30
0.0
  0
XRECORD
  5
58A
102
{ACAD_REACTORS
330
575
102
}
330
575
100
AcDbXrecord
 10
0.0
 20
0.0
 30
0.0
  0
XRECORD
  5
588
102
{ACAD_REACTORS
330
575
102
}
330
575
100
AcDbXrecord
 10
0.0
 20
0.0
 30
0.0
  0
XRECORD
  5
589
102
{ACAD_REACTORS
330
575
102
}
330
575
100
AcDbXrecord
 10
0.0
 20
0.0
 30
0.0
  0
XRECORD
  5
586
102
{ACAD_REACTORS
330
575
102
}
330
575
100
AcDbXrecord
 10
0.0
 20
0.0
 30
0.0
  0
XRECORD
  5
583
102
{ACAD_REACTORS
330
575
102
}
330
575
100
AcDbXrecord
340
0
  0
XRECORD
  5
584
102
{ACAD_REACTORS
330
575
102
}
330
575
100
AcDbXrecord
 70
     0
  0
XRECORD
  5
579
102
{ACAD_REACTORS
330
575
102
}
330
575
100
AcDbXrecord
  1

  0
XRECORD
  5
576
102
{ACAD_REACTORS
330
575
102
}
330
575
100
AcDbXrecord
 90
        1
  0
XRECORD
  5
577
102
{ACAD_REACTORS
330
575
102
}
330
575
100
AcDbXrecord
 90
       70
  0
XRECORD
  5
58E
102
{ACAD_REACTORS
330
575
102
}
330
575
100
AcDbXrecord
340
0
  0
XRECORD
  5
594
102
{ACAD_REACTORS
330
575
102
}
330
575
100
AcDbXrecord
 10
0.0
 20
0.0
 30
0.0
  0
XRECORD
  5
590
102
{ACAD_REACTORS
330
575
102
}
330
575
100
AcDbXrecord
 10
0.0
 20
0.0
 30
0.0
  0
XRECORD
  5
593
102
{ACAD_REACTORS
330
575
102
}
330
575
100
AcDbXrecord
 10
0.0
 20
0.0
 30
0.0
  0
XRECORD
  5
591
102
{ACAD_REACTORS
330
575
102
}
330
575
100
AcDbXrecord
 10
0.0
 20
0.0
 30
0.0
  0
XRECORD
  5
592
102
{ACAD_REACTORS
330
575
102
}
330
575
100
AcDbXrecord
 10
0.0
 20
0.0
 30
0.0
  0
XRECORD
  5
58F
102
{ACAD_REACTORS
330
575
102
}
330
575
100
AcDbXrecord
 10
0.0
 20
0.0
 30
0.0
  0
XRECORD
  5
58C
102
{ACAD_REACTORS
330
575
102
}
330
575
100
AcDbXrecord
340
0
  0
XRECORD
  5
58D
102
{ACAD_REACTORS
330
575
102
}
330
575
100
AcDbXrecord
 70
     0
  0
XRECORD
  5
581
102
{ACAD_REACTORS
330
575
102
}
330
575
100
AcDbXrecord
  1
{FAEB1C32-E019-11D5-929B-00C0DF256EC4}
  0
DICTIONARYVAR
  5
5A3
102
{ACAD_REACTORS
330
596
102
}
330
596
100
DictionaryVariables
280
     0
  1
1:1
  0
DICTIONARYVAR
  5
59D
102
{ACAD_REACTORS
330
596
102
}
330
596
100
DictionaryVariables
280
     0
  1
3.500000
  0
DICTIONARYVAR
  5
59E
102
{ACAD_REACTORS
330
596
102
}
330
596
100
DictionaryVariables
280
     0
  1
acadiso.lin
  0
DICTIONARYVAR
  5
598
102
{ACAD_REACTORS
330
596
102
}
330
596
100
DictionaryVariables
280
     0
  1
Standard
  0
DICTIONARYVAR
  5
597
102
{ACAD_REACTORS
330
596
102
}
330
596
100
DictionaryVariables
280
     0
  1
Standard
  0
DICTIONARYVAR
  5
59F
102
{ACAD_REACTORS
330
596
102
}
330
596
100
DictionaryVariables
280
     0
  1
2
  0
DICTIONARYVAR
  5
5A0
102
{ACAD_REACTORS
330
596
102
}
330
596
100
DictionaryVariables
280
     0
  1
1
  0
DICTIONARYVAR
  5
5A4
102
{ACAD_REACTORS
330
596
102
}
330
596
100
DictionaryVariables
280
     0
  1
1
  0
DICTIONARYVAR
  5
59A
102
{ACAD_REACTORS
330
596
102
}
330
596
100
DictionaryVariables
280
     0
  1
80.000000
  0
DICTIONARYVAR
  5
599
102
{ACAD_REACTORS
330
596
102
}
330
596
100
DictionaryVariables
280
     0
  1
5.000000
  0
DICTIONARY
  5
5A7
330
45
100
AcDbDictionary
280
     1
  3
ACAD_XREC_ROUNDTRIP
360
5A8
  0
DICTIONARY
  5
5A5
330
44
100
AcDbDictionary
280
     1
  3
ACAD_XREC_ROUNDTRIP
360
5A6
  0
DICTIONARY
  5
5A9
330
46
100
AcDbDictionary
280
     1
  3
ACAD_XREC_ROUNDTRIP
360
5AA
  0
XRECORD
  5
5A8
102
{ACAD_REACTORS
330
5A7
102
}
330
5A7
100
AcDbXrecord
102
MATERIAL
148
0.0
149
0.0
149
0.0
 93
        0
 94
      127
282
     0
 72
     1
 77
     1
171
     1
175
     1
179
     1
273
     0
  0
XRECORD
  5
5A6
102
{ACAD_REACTORS
330
5A5
102
}
330
5A5
100
AcDbXrecord
102
MATERIAL
148
0.0
149
0.0
149
0.0
 93
        0
 94
      127
282
     0
 72
     1
 77
     1
171
     1
175
     1
179
     1
273
     0
  0
XRECORD
  5
5AA
102
{ACAD_REACTORS
330
5A9
102
}
330
5A9
100
AcDbXrecord
102
MATERIAL
148
0.0
149
0.0
149
0.0
 93
        0
 94
      127
282
     0
 72
     1
 77
     1
171
     1
175
     1
179
     1
273
     0
  0
ENDSEC
  0
EOF
