  0
SECTION
  2
HEADER
  9
$ACADVER
  1
AC1014
  9
$ACADMAINTVER
 70
     9
  9
$DWGCODEPAGE
  3
ANSI_932
  9
$INSBASE
 10
0.0
 20
0.0
 30
0.0
  9
$EXTMIN
 10
25.0
 20
50.0
 30
0.0
  9
$EXTMAX
 10
1925.0
 20
1400.0
 30
0.0
  9
$LIMMIN
 10
0.0
 20
0.0
  9
$LIMMAX
 10
420.0
 20
297.0
  9
$ORTHOMODE
 70
     0
  9
$REGENMODE
 70
     1
  9
$FILLMODE
 70
     1
  9
$QTEXTMODE
 70
     0
  9
$MIRRTEXT
 70
     1
  9
$DRAGMODE
 70
     2
  9
$LTSCALE
 40
0.2
  9
$OSMODE
 70
    37
  9
$ATTMODE
 70
     1
  9
$TEXTSIZE
 40
2.5
  9
$TRACEWID
 40
1.0
  9
$TEXTSTYLE
  7
STANDARD
  9
$CLAYER
  8
LAY-10
  9
$CELTYPE
  6
BYLAYER
  9
$CECOLOR
 62
   256
  9
$CELTSCALE
 40
1.0
  9
$DELOBJ
 70
     1
  9
$DISPSILH
 70
     0
  9
$DIMSCALE
 40
1.0
  9
$DIMASZ
 40
2.5
  9
$DIMEXO
 40
0.625
  9
$DIMDLI
 40
3.75
  9
$DIMRND
 40
0.0
  9
$DIMDLE
 40
0.0
  9
$DIMEXE
 40
1.25
  9
$DIMTP
 40
0.0
  9
$DIMTM
 40
0.0
  9
$DIMTXT
 40
2.5
  9
$DIMCEN
 40
2.5
  9
$DIMTSZ
 40
0.0
  9
$DIMTOL
 70
     0
  9
$DIMLIM
 70
     0
  9
$DIMTIH
 70
     0
  9
$DIMTOH
 70
     0
  9
$DIMSE1
 70
     0
  9
$DIMSE2
 70
     0
  9
$DIMTAD
 70
     1
  9
$DIMZIN
 70
     8
  9
$DIMBLK
  1

  9
$DIMASO
 70
     1
  9
$DIMSHO
 70
     1
  9
$DIMPOST
  1

  9
$DIMAPOST
  1

  9
$DIMALT
 70
     0
  9
$DIMALTD
 70
     3
  9
$DIMALTF
 40
0.03937007874016
  9
$DIMLFAC
 40
1.0
  9
$DIMTOFL
 70
     1
  9
$DIMTVP
 40
0.0
  9
$DIMTIX
 70
     0
  9
$DIMSOXD
 70
     0
  9
$DIMSAH
 70
     0
  9
$DIMBLK1
  1

  9
$DIMBLK2
  1

  9
$DIMSTYLE
  2
ISO-25
  9
$DIMCLRD
 70
     0
  9
$DIMCLRE
 70
     0
  9
$DIMCLRT
 70
     0
  9
$DIMTFAC
 40
1.0
  9
$DIMGAP
 40
0.625
  9
$DIMJUST
 70
     0
  9
$DIMSD1
 70
     0
  9
$DIMSD2
 70
     0
  9
$DIMTOLJ
 70
     0
  9
$DIMTZIN
 70
     8
  9
$DIMALTZ
 70
     0
  9
$DIMALTTZ
 70
     0
  9
$DIMFIT
 70
     3
  9
$DIMUPT
 70
     0
  9
$DIMUNIT
 70
     2
  9
$DIMDEC
 70
     2
  9
$DIMTDEC
 70
     2
  9
$DIMALTU
 70
     2
  9
$DIMALTTD
 70
     3
  9
$DIMTXSTY
  7
STANDARD
  9
$DIMAUNIT
 70
     0
  9
$LUNITS
 70
     2
  9
$LUPREC
 70
     4
  9
$SKETCHINC
 40
1.0
  9
$FILLETRAD
 40
10.0
  9
$AUNITS
 70
     0
  9
$AUPREC
 70
     0
  9
$MENU
  1
.
  9
$ELEVATION
 40
0.0
  9
$PELEVATION
 40
0.0
  9
$THICKNESS
 40
0.0
  9
$LIMCHECK
 70
     0
  9
$CHAMFERA
 40
0.0
  9
$CHAMFERB
 40
0.0
  9
$CHAMFERC
 40
0.0
  9
$CHAMFERD
 40
0.0
  9
$SKPOLY
 70
     0
  9
$TDCREATE
 40
2459229.334730151
  9
$TDUPDATE
 40
2459229.334730498
  9
$TDINDWG
 40
0.0000000116
  9
$TDUSRTIMER
 40
0.0000000116
  9
$USRTIMER
 70
     1
  9
$ANGBASE
 50
0.0
  9
$ANGDIR
 70
     0
  9
$PDMODE
 70
     0
  9
$PDSIZE
 40
0.0
  9
$PLINEWID
 40
0.0
  9
$COORDS
 70
     1
  9
$SPLFRAME
 70
     0
  9
$SPLINETYPE
 70
     6
  9
$SPLINESEGS
 70
     8
  9
$ATTDIA
 70
     0
  9
$ATTREQ
 70
     1
  9
$HANDLING
 70
     1
  9
$HANDSEED
  5
328
  9
$SURFTAB1
 70
     6
  9
$SURFTAB2
 70
     6
  9
$SURFTYPE
 70
     6
  9
$SURFU
 70
     6
  9
$SURFV
 70
     6
  9
$UCSNAME
  2

  9
$UCSORG
 10
0.0
 20
0.0
 30
0.0
  9
$UCSXDIR
 10
1.0
 20
0.0
 30
0.0
  9
$UCSYDIR
 10
0.0
 20
1.0
 30
0.0
  9
$PUCSNAME
  2

  9
$PUCSORG
 10
0.0
 20
0.0
 30
0.0
  9
$PUCSXDIR
 10
1.0
 20
0.0
 30
0.0
  9
$PUCSYDIR
 10
0.0
 20
1.0
 30
0.0
  9
$USERI1
 70
     0
  9
$USERI2
 70
     0
  9
$USERI3
 70
     0
  9
$USERI4
 70
     0
  9
$USERI5
 70
     0
  9
$USERR1
 40
0.0
  9
$USERR2
 40
0.0
  9
$USERR3
 40
0.0
  9
$USERR4
 40
0.0
  9
$USERR5
 40
0.0
  9
$WORLDVIEW
 70
     1
  9
$SHADEDGE
 70
     3
  9
$SHADEDIF
 70
    70
  9
$TILEMODE
 70
     1
  9
$MAXACTVP
 70
    64
  9
$PINSBASE
 10
0.0
 20
0.0
 30
0.0
  9
$PLIMCHECK
 70
     0
  9
$PEXTMIN
 10
1.000000000000000E+20
 20
1.000000000000000E+20
 30
1.000000000000000E+20
  9
$PEXTMAX
 10
-1.000000000000000E+20
 20
-1.000000000000000E+20
 30
-1.000000000000000E+20
  9
$PLIMMIN
 10
0.0
 20
0.0
  9
$PLIMMAX
 10
420.0
 20
297.0
  9
$UNITMODE
 70
     0
  9
$VISRETAIN
 70
     1
  9
$PLINEGEN
 70
     0
  9
$PSLTSCALE
 70
     1
  9
$TREEDEPTH
 70
  3020
  9
$PICKSTYLE
 70
     1
  9
$CMLSTYLE
  2
STANDARD
  9
$CMLJUST
 70
     0
  9
$CMLSCALE
 40
20.0
  9
$PROXYGRAPHICS
 70
     1
  9
$MEASUREMENT
 70
     1
  0
ENDSEC
  0
SECTION
  2
CLASSES
  0
CLASS
  1
ACDBDICTIONARYWDFLT
  2
AcDbDictionaryWithDefault
  3
ObjectDBX Classes
 90
        0
280
     0
281
     0
  0
CLASS
  1
VISUALSTYLE
  2
AcDbVisualStyle
  3
ObjectDBX Classes
 90
     4095
280
     0
281
     0
  0
CLASS
  1
MATERIAL
  2
AcDbMaterial
  3
ObjectDBX Classes
 90
     1153
280
     0
281
     0
  0
CLASS
  1
SCALE
  2
AcDbScale
  3
ObjectDBX Classes
 90
     1153
280
     0
281
     0
  0
CLASS
  1
TABLESTYLE
  2
AcDbTableStyle
  3
ObjectDBX Classes
 90
     4095
280
     0
281
     0
  0
CLASS
  1
MLEADERSTYLE
  2
AcDbMLeaderStyle
  3
ACDB_MLEADERSTYLE_CLASS
 90
     4095
280
     0
281
     0
  0
CLASS
  1
SUN
  2
AcDbSun
  3
SCENEOE
 90
     1153
280
     0
281
     0
  0
CLASS
  1
DICTIONARYVAR
  2
AcDbDictionaryVar
  3
ObjectDBX Classes
 90
        0
280
     0
281
     0
  0
CLASS
  1
XRECORD
  2
AcDbXrecord
  3
ObjectDBX Classes
 90
        0
280
     0
281
     0
  0
CLASS
  1
LWPOLYLINE
  2
AcDbPolyline
  3
ObjectDBX Classes
 90
        0
280
     0
281
     1
  0
CLASS
  1
HATCH
  2
AcDbHatch
  3
ObjectDBX Classes
 90
        0
280
     0
281
     1
  0
CLASS
  1
ACDBPLACEHOLDER
  2
AcDbPlaceHolder
  3
ObjectDBX Classes
 90
        0
280
     0
281
     0
  0
CLASS
  1
LAYOUT
  2
AcDbLayout
  3
ObjectDBX Classes
 90
        0
280
     0
281
     0
  0
ENDSEC
  0
SECTION
  2
TABLES
  0
TABLE
  2
VPORT
  5
8
102
{ACAD_XDICTIONARY
360
31D
102
}
330
0
100
AcDbSymbolTable
 70
     1
  0
VPORT
  5
29
330
8
100
AcDbSymbolTableRecord
100
AcDbViewportTableRecord
  2
*ACTIVE
 70
     0
 10
0.0
 20
0.0
 11
1.0
 21
1.0
 12
975.0000000000001
 22
725.0
 13
0.0
 23
0.0
 14
10.0
 24
10.0
 15
10.0
 25
10.0
 16
0.0
 26
0.0
 36
1.0
 17
0.0
 27
0.0
 37
0.0
 40
1350.0
 41
1.407407407407408
 42
50.0
 43
0.0
 44
0.0
 50
0.0
 51
0.0
 71
     0
 72
  1000
 73
     1
 74
     3
 75
     0
 76
     0
 77
     0
 78
     0
  0
ENDTAB
  0
TABLE
  2
LTYPE
  5
5
330
0
100
AcDbSymbolTable
 70
     6
  0
LTYPE
  5
14
330
5
100
AcDbSymbolTableRecord
100
AcDbLinetypeTableRecord
  2
BYBLOCK
 70
     0
  3

 72
    65
 73
     0
 40
0.0
  0
LTYPE
  5
15
330
5
100
AcDbSymbolTableRecord
100
AcDbLinetypeTableRecord
  2
BYLAYER
 70
     0
  3

 72
    65
 73
     0
 40
0.0
  0
LTYPE
  5
16
330
5
100
AcDbSymbolTableRecord
100
AcDbLinetypeTableRecord
  2
CONTINUOUS
 70
     0
  3
Solid line
 72
    65
 73
     0
 40
0.0
  0
LTYPE
  5
6E
330
5
100
AcDbSymbolTableRecord
100
AcDbLinetypeTableRecord
  2
HIDDEN
 70
     0
  3
Hidden __ __ __ __ __ __ __ __ __ __ __ __ __ __
 72
    65
 73
     2
 40
9.524999999999999
 49
6.35
 74
     0
 49
-3.175
 74
     0
  0
LTYPE
  5
6F
330
5
100
AcDbSymbolTableRecord
100
AcDbLinetypeTableRecord
  2
CENTER
 70
     0
  3
Center ____ _ ____ _ ____ _ ____ _ ____ _ ____
 72
    65
 73
     4
 40
50.8
 49
31.75
 74
     0
 49
-6.35
 74
     0
 49
6.35
 74
     0
 49
-6.35
 74
     0
  0
LTYPE
  5
70
330
5
100
AcDbSymbolTableRecord
100
AcDbLinetypeTableRecord
  2
PHANTOM
 70
     0
  3
Phantom ______  __  __  ______  __  __  ______ 
 72
    65
 73
     6
 40
63.50000000000001
 49
31.75
 74
     0
 49
-6.35
 74
     0
 49
6.35
 74
     0
 49
-6.35
 74
     0
 49
6.35
 74
     0
 49
-6.35
 74
     0
  0
LTYPE
  5
71
330
5
100
AcDbSymbolTableRecord
100
AcDbLinetypeTableRecord
  2
ACAD_ISO06W100
 70
     0
  3
ISO long-dash triple-dot ____ ... ____ ... ____
 72
    65
 73
     8
 40
36.0
 49
24.0
 74
     0
 49
-3.0
 74
     0
 49
0.0
 74
     0
 49
-3.0
 74
     0
 49
0.0
 74
     0
 49
-3.0
 74
     0
 49
0.0
 74
     0
 49
-3.0
 74
     0
  0
LTYPE
  5
72
330
5
100
AcDbSymbolTableRecord
100
AcDbLinetypeTableRecord
  2
ACAD_ISO15W100
 70
     0
  3
ISO double-dash triple-dot __ __ . . . __ __ . .
 72
    65
 73
    10
 40
39.0
 49
12.0
 74
     0
 49
-3.0
 74
     0
 49
12.0
 74
     0
 49
-3.0
 74
     0
 49
0.0
 74
     0
 49
-3.0
 74
     0
 49
0.0
 74
     0
 49
-3.0
 74
     0
 49
0.0
 74
     0
 49
-3.0
 74
     0
  0
ENDTAB
  0
TABLE
  2
LAYER
  5
2
330
0
100
AcDbSymbolTable
 70
     8
  0
LAYER
  5
10
330
2
100
AcDbSymbolTableRecord
100
AcDbLayerTableRecord
  2
0
 70
     0
 62
     7
  6
CONTINUOUS
  0
LAYER
  5
75
330
2
100
AcDbSymbolTableRecord
100
AcDbLayerTableRecord
  2
LAY-10
 70
     0
 62
     7
  6
CONTINUOUS
  0
LAYER
  5
76
330
2
100
AcDbSymbolTableRecord
100
AcDbLayerTableRecord
  2
LAY-11
 70
     0
 62
     7
  6
CONTINUOUS
  0
LAYER
  5
77
330
2
100
AcDbSymbolTableRecord
100
AcDbLayerTableRecord
  2
LAY-12
 70
     0
 62
     7
  6
CONTINUOUS
  0
LAYER
  5
78
330
2
100
AcDbSymbolTableRecord
100
AcDbLayerTableRecord
  2
LAY-20
 70
     0
 62
     7
  6
CONTINUOUS
  0
LAYER
  5
79
330
2
100
AcDbSymbolTableRecord
100
AcDbLayerTableRecord
  2
LAY-21
 70
     0
 62
     7
  6
CONTINUOUS
  0
LAYER
  5
7A
330
2
100
AcDbSymbolTableRecord
100
AcDbLayerTableRecord
  2
LAY-255
 70
     0
 62
     7
  6
CONTINUOUS
  0
LAYER
  5
26C
330
2
100
AcDbSymbolTableRecord
100
AcDbLayerTableRecord
  2
DEFPOINTS
 70
     0
 62
     7
  6
CONTINUOUS
  0
ENDTAB
  0
TABLE
  2
STYLE
  5
3
330
0
100
AcDbSymbolTable
 70
     4
  0
STYLE
  5
11
330
3
100
AcDbSymbolTableRecord
100
AcDbTextStyleTableRecord
  2
STANDARD
 70
     0
 40
0.0
 41
1.0
 50
0.0
 71
     0
 42
2.5
  3
simplex
  4
bigfont
  0
STYLE
  5
73
330
3
100
AcDbSymbolTableRecord
100
AcDbTextStyleTableRecord
  2
EXCADSTD
 70
     0
 40
0.0
 41
1.0
 50
0.0
 71
     0
 42
2.5
  3
simplex
  4
bigfont
  0
STYLE
  5
74
330
3
100
AcDbSymbolTableRecord
100
AcDbTextStyleTableRecord
  2
EXCADVERT
 70
     4
 40
0.0
 41
1.0
 50
0.0
 71
     0
 42
2.5
  3
simplex
  4
bigfont
  0
STYLE
  5
26A
330
3
100
AcDbSymbolTableRecord
100
AcDbTextStyleTableRecord
  2
EXCADDIM1
 70
     0
 40
0.0
 41
0.84
 50
0.0
 71
     0
 42
2.5
  3
simplex
  4
bigfont
  0
ENDTAB
  0
TABLE
  2
VIEW
  5
6
330
0
100
AcDbSymbolTable
 70
     0
  0
ENDTAB
  0
TABLE
  2
UCS
  5
7
330
0
100
AcDbSymbolTable
 70
     0
  0
ENDTAB
  0
TABLE
  2
APPID
  5
9
330
0
100
AcDbSymbolTable
 70
     2
  0
APPID
  5
12
330
9
100
AcDbSymbolTableRecord
100
AcDbRegAppTableRecord
  2
ACAD
 70
     0
  0
APPID
  5
327
330
9
100
AcDbSymbolTableRecord
100
AcDbRegAppTableRecord
  2
ACAD_MLEADERVER
 70
     0
  0
ENDTAB
  0
TABLE
  2
DIMSTYLE
  5
A
330
0
100
AcDbSymbolTable
 70
     1
  0
DIMSTYLE
105
27
102
{ACAD_REACTORS
330
26B
330
279
330
286
330
293
330
2A0
330
2AD
330
2B9
102
}
330
A
100
AcDbSymbolTableRecord
100
AcDbDimStyleTableRecord
  2
ISO-25
 70
     0
  3

  4

  5

  6

  7

 40
1.0
 41
2.5
 42
0.625
 43
3.75
 44
1.25
 45
0.0
 46
0.0
 47
0.0
 48
0.0
140
2.5
141
2.5
142
0.0
143
0.03937007874016
144
1.0
145
0.0
146
1.0
147
0.625
 71
     0
 72
     0
 73
     0
 74
     0
 75
     0
 76
     0
 77
     1
 78
     8
170
     0
171
     3
172
     1
173
     0
174
     0
175
     0
176
     0
177
     0
178
     0
270
     2
271
     2
272
     2
273
     2
274
     3
340
11
275
     0
280
     0
281
     0
282
     0
283
     0
284
     8
285
     0
286
     0
287
     5
288
     0
  0
ENDTAB
  0
TABLE
  2
BLOCK_RECORD
  5
1
330
0
100
AcDbSymbolTable
 70
    21
  0
BLOCK_RECORD
  5
1F
330
1
100
AcDbSymbolTableRecord
100
AcDbBlockTableRecord
  2
*MODEL_SPACE
  0
BLOCK_RECORD
  5
1B
330
1
100
AcDbSymbolTableRecord
100
AcDbBlockTableRecord
  2
*PAPER_SPACE
  0
BLOCK_RECORD
  5
7B
330
1
100
AcDbSymbolTableRecord
100
AcDbBlockTableRecord
  2
EX_NORM
  0
BLOCK_RECORD
  5
7E
330
1
100
AcDbSymbolTableRecord
100
AcDbBlockTableRecord
  2
EX_BNORM
  0
BLOCK_RECORD
  5
81
330
1
100
AcDbSymbolTableRecord
100
AcDbBlockTableRecord
  2
EX_BCIR
  0
BLOCK_RECORD
  5
84
330
1
100
AcDbSymbolTableRecord
100
AcDbBlockTableRecord
  2
EX_RCIVIL
  0
BLOCK_RECORD
  5
87
330
1
100
AcDbSymbolTableRecord
100
AcDbBlockTableRecord
  2
EX_SLANT
  0
BLOCK_RECORD
  5
8A
330
1
100
AcDbSymbolTableRecord
100
AcDbBlockTableRecord
  2
EX_NONE
  0
BLOCK_RECORD
  5
8D
330
1
100
AcDbSymbolTableRecord
100
AcDbBlockTableRecord
  2
EX_CIVIL
  0
BLOCK_RECORD
  5
90
330
1
100
AcDbSymbolTableRecord
100
AcDbBlockTableRecord
  2
EX_WCIR
  0
BLOCK_RECORD
  5
93
330
1
100
AcDbSymbolTableRecord
100
AcDbBlockTableRecord
  2
EX_WCIR2
  0
BLOCK_RECORD
  5
96
330
1
100
AcDbSymbolTableRecord
100
AcDbBlockTableRecord
  2
EX_WNORM
  0
BLOCK_RECORD
  5
99
330
1
100
AcDbSymbolTableRecord
100
AcDbBlockTableRecord
  2
EX_NNORM
  0
BLOCK_RECORD
  5
9C
330
1
100
AcDbSymbolTableRecord
100
AcDbBlockTableRecord
  2
EX_BBOX
  0
BLOCK_RECORD
  5
9F
330
1
100
AcDbSymbolTableRecord
100
AcDbBlockTableRecord
  2
EX_WBOX
  0
BLOCK_RECORD
  5
A2
330
1
100
AcDbSymbolTableRecord
100
AcDbBlockTableRecord
  2
EX_INTEGRAL
  0
BLOCK_RECORD
  5
26D
330
1
100
AcDbSymbolTableRecord
100
AcDbBlockTableRecord
  2
*D15
  0
BLOCK_RECORD
  5
27A
330
1
100
AcDbSymbolTableRecord
100
AcDbBlockTableRecord
  2
*D16
  0
BLOCK_RECORD
  5
287
330
1
100
AcDbSymbolTableRecord
100
AcDbBlockTableRecord
  2
*D17
  0
BLOCK_RECORD
  5
294
330
1
100
AcDbSymbolTableRecord
100
AcDbBlockTableRecord
  2
*D18
  0
BLOCK_RECORD
  5
2A1
330
1
100
AcDbSymbolTableRecord
100
AcDbBlockTableRecord
  2
*D19
  0
BLOCK_RECORD
  5
2AE
330
1
100
AcDbSymbolTableRecord
100
AcDbBlockTableRecord
  2
*D20
  0
BLOCK_RECORD
  5
2BA
330
1
100
AcDbSymbolTableRecord
100
AcDbBlockTableRecord
  2
*D21
  0
ENDTAB
  0
ENDSEC
  0
SECTION
  2
BLOCKS
  0
BLOCK
  5
20
330
1F
100
AcDbEntity
  8
0
100
AcDbBlockBegin
  2
*MODEL_SPACE
 70
     0
 10
0.0
 20
0.0
 30
0.0
  3
*MODEL_SPACE
  1

  0
ENDBLK
  5
21
330
1F
100
AcDbEntity
  8
0
100
AcDbBlockEnd
  0
BLOCK
  5
1C
330
1B
100
AcDbEntity
 67
     1
  8
0
100
AcDbBlockBegin
  2
*PAPER_SPACE
 70
     0
 10
0.0
 20
0.0
 30
0.0
  3
*PAPER_SPACE
  1

  0
ENDBLK
  5
1D
330
1B
100
AcDbEntity
 67
     1
  8
0
100
AcDbBlockEnd
  0
BLOCK
  5
7C
330
7B
100
AcDbEntity
  8
0
100
AcDbBlockBegin
  2
EX_NORM
 70
     0
 10
0.0
 20
0.0
 30
0.0
  3
EX_NORM
  1

  0
LINE
  5
A5
330
7B
100
AcDbEntity
  8
0
  6
CONTINUOUS
 62
     0
100
AcDbLine
 10
0.0
 20
0.0
 30
0.0
 11
-1.0
 21
0.0
 31
0.0
  0
LINE
  5
A6
330
7B
100
AcDbEntity
  8
0
  6
CONTINUOUS
 62
     0
100
AcDbLine
 10
0.0
 20
0.0
 30
0.0
 11
-1.0
 21
0.166666667
 31
0.0
  0
LINE
  5
A7
330
7B
100
AcDbEntity
  8
0
  6
CONTINUOUS
 62
     0
100
AcDbLine
 10
0.0
 20
0.0
 30
0.0
 11
-1.0
 21
-0.166666667
 31
0.0
  0
ENDBLK
  5
7D
330
7B
100
AcDbEntity
  8
0
100
AcDbBlockEnd
  0
BLOCK
  5
7F
330
7E
100
AcDbEntity
  8
0
100
AcDbBlockBegin
  2
EX_BNORM
 70
     0
 10
0.0
 20
0.0
 30
0.0
  3
EX_BNORM
  1

  0
LINE
  5
A8
330
7E
100
AcDbEntity
  8
0
  6
CONTINUOUS
 62
     0
100
AcDbLine
 10
0.0
 20
0.0
 30
0.0
 11
-1.0
 21
0.0
 31
0.0
  0
LINE
  5
A9
330
7E
100
AcDbEntity
  8
0
  6
CONTINUOUS
 62
     0
100
AcDbLine
 10
0.0
 20
0.0
 30
0.0
 11
-1.0
 21
0.166666667
 31
0.0
  0
LINE
  5
AA
330
7E
100
AcDbEntity
  8
0
  6
CONTINUOUS
 62
     0
100
AcDbLine
 10
0.0
 20
0.0
 30
0.0
 11
-1.0
 21
-0.166666667
 31
0.0
  0
LINE
  5
AB
330
7E
100
AcDbEntity
  8
0
  6
CONTINUOUS
 62
     0
100
AcDbLine
 10
0.0
 20
0.0
 30
0.0
 11
-1.0
 21
0.083333333
 31
0.0
  0
LINE
  5
AC
330
7E
100
AcDbEntity
  8
0
  6
CONTINUOUS
 62
     0
100
AcDbLine
 10
0.0
 20
0.0
 30
0.0
 11
-1.0
 21
-0.083333333
 31
0.0
  0
LINE
  5
AD
330
7E
100
AcDbEntity
  8
0
  6
CONTINUOUS
 62
     0
100
AcDbLine
 10
-1.0
 20
0.166666667
 30
0.0
 11
-1.0
 21
-0.166666667
 31
0.0
  0
ENDBLK
  5
80
330
7E
100
AcDbEntity
  8
0
100
AcDbBlockEnd
  0
BLOCK
  5
82
330
81
100
AcDbEntity
  8
0
100
AcDbBlockBegin
  2
EX_BCIR
 70
     0
 10
0.0
 20
0.0
 30
0.0
  3
EX_BCIR
  1

  0
LINE
  5
AE
330
81
100
AcDbEntity
  8
0
  6
CONTINUOUS
 62
     0
100
AcDbLine
 10
0.0
 20
0.0
 30
0.0
 11
-1.0
 21
0.0
 31
0.0
  0
CIRCLE
  5
AF
330
81
100
AcDbEntity
  8
0
  6
CONTINUOUS
 62
     0
100
AcDbCircle
 10
0.0
 20
0.0
 30
0.0
 40
0.5
  0
CIRCLE
  5
B0
330
81
100
AcDbEntity
  8
0
  6
CONTINUOUS
 62
     0
100
AcDbCircle
 10
0.0
 20
0.0
 30
0.0
 40
0.25
  0
ENDBLK
  5
83
330
81
100
AcDbEntity
  8
0
100
AcDbBlockEnd
  0
BLOCK
  5
85
330
84
100
AcDbEntity
  8
0
100
AcDbBlockBegin
  2
EX_RCIVIL
 70
     0
 10
0.0
 20
0.0
 30
0.0
  3
EX_RCIVIL
  1

  0
LINE
  5
B1
330
84
100
AcDbEntity
  8
0
  6
CONTINUOUS
 62
     0
100
AcDbLine
 10
0.0
 20
0.0
 30
0.0
 11
-1.0
 21
0.0
 31
0.0
  0
LINE
  5
B2
330
84
100
AcDbEntity
  8
0
  6
CONTINUOUS
 62
     0
100
AcDbLine
 10
-1.0
 20
-0.25
 30
0.0
 11
0.0
 21
-0.25
 31
0.0
  0
LINE
  5
B3
330
84
100
AcDbEntity
  8
0
  6
CONTINUOUS
 62
     0
100
AcDbLine
 10
-1.0
 20
-0.125
 30
0.0
 11
0.0
 21
-0.125
 31
0.0
  0
ENDBLK
  5
86
330
84
100
AcDbEntity
  8
0
100
AcDbBlockEnd
  0
BLOCK
  5
88
330
87
100
AcDbEntity
  8
0
100
AcDbBlockBegin
  2
EX_SLANT
 70
     0
 10
0.0
 20
0.0
 30
0.0
  3
EX_SLANT
  1

  0
LINE
  5
B4
330
87
100
AcDbEntity
  8
0
  6
CONTINUOUS
 62
     0
100
AcDbLine
 10
0.0
 20
0.0
 30
0.0
 11
-1.0
 21
0.0
 31
0.0
  0
LINE
  5
B5
330
87
100
AcDbEntity
  8
0
  6
CONTINUOUS
 62
     0
100
AcDbLine
 10
0.707106781
 20
0.707106781
 30
0.0
 11
-0.707106781
 21
-0.707106781
 31
0.0
  0
ENDBLK
  5
89
330
87
100
AcDbEntity
  8
0
100
AcDbBlockEnd
  0
BLOCK
  5
8B
330
8A
100
AcDbEntity
  8
0
100
AcDbBlockBegin
  2
EX_NONE
 70
     0
 10
0.0
 20
0.0
 30
0.0
  3
EX_NONE
  1

  0
LINE
  5
B6
330
8A
100
AcDbEntity
  8
0
  6
CONTINUOUS
 62
     0
100
AcDbLine
 10
0.0
 20
0.0
 30
0.0
 11
-1.0
 21
0.0
 31
0.0
  0
ENDBLK
  5
8C
330
8A
100
AcDbEntity
  8
0
100
AcDbBlockEnd
  0
BLOCK
  5
8E
330
8D
100
AcDbEntity
  8
0
100
AcDbBlockBegin
  2
EX_CIVIL
 70
     0
 10
0.0
 20
0.0
 30
0.0
  3
EX_CIVIL
  1

  0
LINE
  5
B7
330
8D
100
AcDbEntity
  8
0
  6
CONTINUOUS
 62
     0
100
AcDbLine
 10
0.0
 20
0.0
 30
0.0
 11
-1.0
 21
0.0
 31
0.0
  0
LINE
  5
B8
330
8D
100
AcDbEntity
  8
0
  6
CONTINUOUS
 62
     0
100
AcDbLine
 10
-1.0
 20
0.25
 30
0.0
 11
0.0
 21
0.25
 31
0.0
  0
LINE
  5
B9
330
8D
100
AcDbEntity
  8
0
  6
CONTINUOUS
 62
     0
100
AcDbLine
 10
-1.0
 20
0.125
 30
0.0
 11
0.0
 21
0.125
 31
0.0
  0
ENDBLK
  5
8F
330
8D
100
AcDbEntity
  8
0
100
AcDbBlockEnd
  0
BLOCK
  5
91
330
90
100
AcDbEntity
  8
0
100
AcDbBlockBegin
  2
EX_WCIR
 70
     0
 10
0.0
 20
0.0
 30
0.0
  3
EX_WCIR
  1

  0
LINE
  5
BA
330
90
100
AcDbEntity
  8
0
  6
CONTINUOUS
 62
     0
100
AcDbLine
 10
0.0
 20
0.0
 30
0.0
 11
-1.0
 21
0.0
 31
0.0
  0
CIRCLE
  5
BB
330
90
100
AcDbEntity
  8
0
  6
CONTINUOUS
 62
     0
100
AcDbCircle
 10
0.0
 20
0.0
 30
0.0
 40
0.5
  0
ENDBLK
  5
92
330
90
100
AcDbEntity
  8
0
100
AcDbBlockEnd
  0
BLOCK
  5
94
330
93
100
AcDbEntity
  8
0
100
AcDbBlockBegin
  2
EX_WCIR2
 70
     0
 10
0.0
 20
0.0
 30
0.0
  3
EX_WCIR2
  1

  0
LINE
  5
BC
330
93
100
AcDbEntity
  8
0
  6
CONTINUOUS
 62
     0
100
AcDbLine
 10
-0.5
 20
0.0
 30
0.0
 11
-1.0
 21
0.0
 31
0.0
  0
CIRCLE
  5
BD
330
93
100
AcDbEntity
  8
0
  6
CONTINUOUS
 62
     0
100
AcDbCircle
 10
0.0
 20
0.0
 30
0.0
 40
0.5
  0
ENDBLK
  5
95
330
93
100
AcDbEntity
  8
0
100
AcDbBlockEnd
  0
BLOCK
  5
97
330
96
100
AcDbEntity
  8
0
100
AcDbBlockBegin
  2
EX_WNORM
 70
     0
 10
0.0
 20
0.0
 30
0.0
  3
EX_WNORM
  1

  0
LINE
  5
BE
330
96
100
AcDbEntity
  8
0
  6
CONTINUOUS
 62
     0
100
AcDbLine
 10
-1.0
 20
0.0
 30
0.0
 11
-1.0
 21
0.0
 31
0.0
  0
LINE
  5
BF
330
96
100
AcDbEntity
  8
0
  6
CONTINUOUS
 62
     0
100
AcDbLine
 10
0.0
 20
0.0
 30
0.0
 11
-1.0
 21
0.166666667
 31
0.0
  0
LINE
  5
C0
330
96
100
AcDbEntity
  8
0
  6
CONTINUOUS
 62
     0
100
AcDbLine
 10
0.0
 20
0.0
 30
0.0
 11
-1.0
 21
-0.166666667
 31
0.0
  0
LINE
  5
C1
330
96
100
AcDbEntity
  8
0
  6
CONTINUOUS
 62
     0
100
AcDbLine
 10
-1.0
 20
0.166666667
 30
0.0
 11
-1.0
 21
-0.166666667
 31
0.0
  0
ENDBLK
  5
98
330
96
100
AcDbEntity
  8
0
100
AcDbBlockEnd
  0
BLOCK
  5
9A
330
99
100
AcDbEntity
  8
0
100
AcDbBlockBegin
  2
EX_NNORM
 70
     0
 10
0.0
 20
0.0
 30
0.0
  3
EX_NNORM
  1

  0
LINE
  5
C2
330
99
100
AcDbEntity
  8
0
  6
CONTINUOUS
 62
     0
100
AcDbLine
 10
0.0
 20
0.0
 30
0.0
 11
-1.0
 21
0.0
 31
0.0
  0
LINE
  5
C3
330
99
100
AcDbEntity
  8
0
  6
CONTINUOUS
 62
     0
100
AcDbLine
 10
0.0
 20
0.0
 30
0.0
 11
-1.0
 21
0.166666667
 31
0.0
  0
LINE
  5
C4
330
99
100
AcDbEntity
  8
0
  6
CONTINUOUS
 62
     0
100
AcDbLine
 10
0.0
 20
0.0
 30
0.0
 11
-1.0
 21
-0.166666667
 31
0.0
  0
LINE
  5
C5
330
99
100
AcDbEntity
  8
0
  6
CONTINUOUS
 62
     0
100
AcDbLine
 10
-1.0
 20
0.166666667
 30
0.0
 11
-1.0
 21
-0.166666667
 31
0.0
  0
ENDBLK
  5
9B
330
99
100
AcDbEntity
  8
0
100
AcDbBlockEnd
  0
BLOCK
  5
9D
330
9C
100
AcDbEntity
  8
0
100
AcDbBlockBegin
  2
EX_BBOX
 70
     0
 10
0.0
 20
0.0
 30
0.0
  3
EX_BBOX
  1

  0
LINE
  5
C6
330
9C
100
AcDbEntity
  8
0
  6
CONTINUOUS
 62
     0
100
AcDbLine
 10
0.0
 20
0.0
 30
0.0
 11
-1.0
 21
0.0
 31
0.0
  0
LINE
  5
C7
330
9C
100
AcDbEntity
  8
0
  6
CONTINUOUS
 62
     0
100
AcDbLine
 10
-0.5
 20
0.5
 30
0.0
 11
0.5
 21
0.5
 31
0.0
  0
LINE
  5
C8
330
9C
100
AcDbEntity
  8
0
  6
CONTINUOUS
 62
     0
100
AcDbLine
 10
0.5
 20
0.5
 30
0.0
 11
0.5
 21
-0.5
 31
0.0
  0
LINE
  5
C9
330
9C
100
AcDbEntity
  8
0
  6
CONTINUOUS
 62
     0
100
AcDbLine
 10
0.5
 20
-0.5
 30
0.0
 11
-0.5
 21
-0.5
 31
0.0
  0
LINE
  5
CA
330
9C
100
AcDbEntity
  8
0
  6
CONTINUOUS
 62
     0
100
AcDbLine
 10
-0.5
 20
-0.5
 30
0.0
 11
-0.5
 21
0.5
 31
0.0
  0
LINE
  5
CB
330
9C
100
AcDbEntity
  8
0
  6
CONTINUOUS
 62
     0
100
AcDbLine
 10
-0.25
 20
0.25
 30
0.0
 11
0.25
 21
0.25
 31
0.0
  0
LINE
  5
CC
330
9C
100
AcDbEntity
  8
0
  6
CONTINUOUS
 62
     0
100
AcDbLine
 10
0.25
 20
0.25
 30
0.0
 11
0.25
 21
-0.25
 31
0.0
  0
LINE
  5
CD
330
9C
100
AcDbEntity
  8
0
  6
CONTINUOUS
 62
     0
100
AcDbLine
 10
0.25
 20
-0.25
 30
0.0
 11
-0.25
 21
-0.25
 31
0.0
  0
LINE
  5
CE
330
9C
100
AcDbEntity
  8
0
  6
CONTINUOUS
 62
     0
100
AcDbLine
 10
-0.25
 20
-0.25
 30
0.0
 11
-0.25
 21
0.25
 31
0.0
  0
ENDBLK
  5
9E
330
9C
100
AcDbEntity
  8
0
100
AcDbBlockEnd
  0
BLOCK
  5
A0
330
9F
100
AcDbEntity
  8
0
100
AcDbBlockBegin
  2
EX_WBOX
 70
     0
 10
0.0
 20
0.0
 30
0.0
  3
EX_WBOX
  1

  0
LINE
  5
CF
330
9F
100
AcDbEntity
  8
0
  6
CONTINUOUS
 62
     0
100
AcDbLine
 10
-0.5
 20
0.0
 30
0.0
 11
-1.0
 21
0.0
 31
0.0
  0
LINE
  5
D0
330
9F
100
AcDbEntity
  8
0
  6
CONTINUOUS
 62
     0
100
AcDbLine
 10
-0.5
 20
0.5
 30
0.0
 11
0.5
 21
0.5
 31
0.0
  0
LINE
  5
D1
330
9F
100
AcDbEntity
  8
0
  6
CONTINUOUS
 62
     0
100
AcDbLine
 10
0.5
 20
0.5
 30
0.0
 11
0.5
 21
-0.5
 31
0.0
  0
LINE
  5
D2
330
9F
100
AcDbEntity
  8
0
  6
CONTINUOUS
 62
     0
100
AcDbLine
 10
0.5
 20
-0.5
 30
0.0
 11
-0.5
 21
-0.5
 31
0.0
  0
LINE
  5
D3
330
9F
100
AcDbEntity
  8
0
  6
CONTINUOUS
 62
     0
100
AcDbLine
 10
-0.5
 20
-0.5
 30
0.0
 11
-0.5
 21
0.5
 31
0.0
  0
ENDBLK
  5
A1
330
9F
100
AcDbEntity
  8
0
100
AcDbBlockEnd
  0
BLOCK
  5
A3
330
A2
100
AcDbEntity
  8
0
100
AcDbBlockBegin
  2
EX_INTEGRAL
 70
     0
 10
0.0
 20
0.0
 30
0.0
  3
EX_INTEGRAL
  1

  0
LINE
  5
D4
330
A2
100
AcDbEntity
  8
0
  6
CONTINUOUS
 62
     0
100
AcDbLine
 10
0.0
 20
0.0
 30
0.0
 11
-1.0
 21
0.0
 31
0.0
  0
ARC
  5
D5
330
A2
100
AcDbEntity
  8
0
  6
CONTINUOUS
 62
     0
100
AcDbCircle
 10
0.542115
 20
0.164992
 30
0.0
 40
0.56667
100
AcDbArc
 50
73.07249033629006
 51
196.9275130221199
  0
ARC
  5
D6
330
A2
100
AcDbEntity
  8
0
  6
CONTINUOUS
 62
     0
100
AcDbCircle
 10
-0.542115
 20
-0.164992
 30
0.0
 40
0.56667
100
AcDbArc
 50
253.0724869220464
 51
16.9275130559125
  0
ENDBLK
  5
A4
330
A2
100
AcDbEntity
  8
0
100
AcDbBlockEnd
  0
BLOCK
  5
26E
330
26D
100
AcDbEntity
  8
0
100
AcDbBlockBegin
  2
*D15
 70
     1
 10
0.0
 20
0.0
 30
0.0
  3
*D15
  1

  0
LINE
  5
270
330
26D
100
AcDbEntity
  8
LAY-20
  6
CONTINUOUS
 62
     4
100
AcDbLine
 10
966.5
 20
408.0
 30
0.0
 11
1067.0012701892
 21
408.0
 31
0.0
  0
LINE
  5
271
330
26D
100
AcDbEntity
  8
LAY-20
  6
CONTINUOUS
 62
     4
100
AcDbLine
 10
961.5
 20
355.0
 30
0.0
 11
1067.0012701892
 21
355.0
 31
0.0
  0
LINE
  5
272
330
26D
100
AcDbEntity
  8
LAY-20
  6
CONTINUOUS
 62
     4
100
AcDbLine
 10
1059.5012701892
 20
395.5
 30
0.0
 11
1059.5012701892
 21
367.5
 31
0.0
  0
INSERT
  5
273
330
26D
100
AcDbEntity
  8
LAY-20
 62
     4
100
AcDbBlockReference
  2
EX_BNORM
 10
1059.5012701892
 20
408.0
 30
0.0
 41
12.5
 42
12.5
 43
12.5
 50
90.0
  0
INSERT
  5
274
330
26D
100
AcDbEntity
  8
LAY-20
 62
     4
100
AcDbBlockReference
  2
EX_BNORM
 10
1059.5012701892
 20
355.0
 30
0.0
 41
12.5
 42
12.5
 43
12.5
 50
270.0
  0
MTEXT
  5
275
330
26D
100
AcDbEntity
  8
LAY-20
 62
     7
100
AcDbMText
 10
1047.0012701892
 20
381.5000000000001
 30
0.0
 40
15.590552
 41
0.0
 71
     5
 72
     1
  1
53
  7
EXCADDIM1
 11
0.0
 21
1.0
 31
0.0
  0
POINT
  5
276
330
26D
100
AcDbEntity
  8
DEFPOINTS
 62
     0
100
AcDbPoint
 10
959.0
 20
408.0
 30
0.0
  0
POINT
  5
277
330
26D
100
AcDbEntity
  8
DEFPOINTS
 62
     0
100
AcDbPoint
 10
954.0
 20
355.0
 30
0.0
  0
POINT
  5
278
330
26D
100
AcDbEntity
  8
DEFPOINTS
 62
     0
100
AcDbPoint
 10
1059.5012701892
 20
355.0
 30
0.0
  0
ENDBLK
  5
26F
330
26D
100
AcDbEntity
  8
0
100
AcDbBlockEnd
  0
BLOCK
  5
27B
330
27A
100
AcDbEntity
  8
0
100
AcDbBlockBegin
  2
*D16
 70
     1
 10
0.0
 20
0.0
 30
0.0
  3
*D16
  1

  0
LINE
  5
27D
330
27A
100
AcDbEntity
  8
LAY-20
  6
CONTINUOUS
 62
     4
100
AcDbLine
 10
464.9999999999999
 20
415.5
 30
0.0
 11
464.9999999999999
 21
500.5
 31
0.0
  0
LINE
  5
27E
330
27A
100
AcDbEntity
  8
LAY-20
  6
CONTINUOUS
 62
     4
100
AcDbLine
 10
959.0
 20
415.5
 30
0.0
 11
959.0
 21
500.5
 31
0.0
  0
LINE
  5
27F
330
27A
100
AcDbEntity
  8
LAY-20
  6
CONTINUOUS
 62
     4
100
AcDbLine
 10
477.4999999999999
 20
493.0
 30
0.0
 11
946.5
 21
493.0
 31
0.0
  0
INSERT
  5
280
330
27A
100
AcDbEntity
  8
LAY-20
 62
     4
100
AcDbBlockReference
  2
EX_BNORM
 10
464.9999999999999
 20
493.0
 30
0.0
 41
12.5
 42
12.5
 43
12.5
 50
180.0
  0
INSERT
  5
281
330
27A
100
AcDbEntity
  8
LAY-20
 62
     4
100
AcDbBlockReference
  2
EX_BNORM
 10
959.0
 20
493.0
 30
0.0
 41
12.5
 42
12.5
 43
12.5
  0
MTEXT
  5
282
330
27A
100
AcDbEntity
  8
LAY-20
 62
     7
100
AcDbMText
 10
712.0
 20
505.5
 30
0.0
 40
15.590552
 41
0.0
 71
     5
 72
     1
  1
□494
  7
EXCADDIM1
  0
POINT
  5
283
330
27A
100
AcDbEntity
  8
DEFPOINTS
 62
     0
100
AcDbPoint
 10
464.9999999999999
 20
408.0
 30
0.0
  0
POINT
  5
284
330
27A
100
AcDbEntity
  8
DEFPOINTS
 62
     0
100
AcDbPoint
 10
959.0
 20
408.0
 30
0.0
  0
POINT
  5
285
330
27A
100
AcDbEntity
  8
DEFPOINTS
 62
     0
100
AcDbPoint
 10
959.0
 20
493.0
 30
0.0
  0
ENDBLK
  5
27C
330
27A
100
AcDbEntity
  8
0
100
AcDbBlockEnd
  0
BLOCK
  5
288
330
287
100
AcDbEntity
  8
0
100
AcDbBlockBegin
  2
*D17
 70
     1
 10
0.0
 20
0.0
 30
0.0
  3
*D17
  1

  0
LINE
  5
28A
330
287
100
AcDbEntity
  8
LAY-20
  6
CONTINUOUS
 62
     4
100
AcDbLine
 10
955.0000000000001
 20
415.5
 30
0.0
 11
955.0000000000001
 21
465.0
 31
0.0
  0
LINE
  5
28B
330
287
100
AcDbEntity
  8
LAY-20
  6
CONTINUOUS
 62
     4
100
AcDbLine
 10
468.9999999999999
 20
415.5
 30
0.0
 11
468.9999999999999
 21
465.0
 31
0.0
  0
LINE
  5
28C
330
287
100
AcDbEntity
  8
LAY-20
  6
CONTINUOUS
 62
     4
100
AcDbLine
 10
942.5000000000001
 20
457.5
 30
0.0
 11
481.4999999999999
 21
457.5
 31
0.0
  0
INSERT
  5
28D
330
287
100
AcDbEntity
  8
LAY-20
 62
     4
100
AcDbBlockReference
  2
EX_BNORM
 10
955.0000000000001
 20
457.5
 30
0.0
 41
12.5
 42
12.5
 43
12.5
  0
INSERT
  5
28E
330
287
100
AcDbEntity
  8
LAY-20
 62
     4
100
AcDbBlockReference
  2
EX_BNORM
 10
468.9999999999999
 20
457.5
 30
0.0
 41
12.5
 42
12.5
 43
12.5
 50
180.0
  0
MTEXT
  5
28F
330
287
100
AcDbEntity
  8
LAY-20
 62
     7
100
AcDbMText
 10
712.0
 20
470.0
 30
0.0
 40
15.590552
 41
0.0
 71
     5
 72
     1
  1
□486
  7
EXCADDIM1
  0
POINT
  5
290
330
287
100
AcDbEntity
  8
DEFPOINTS
 62
     0
100
AcDbPoint
 10
955.0000000000001
 20
408.0
 30
0.0
  0
POINT
  5
291
330
287
100
AcDbEntity
  8
DEFPOINTS
 62
     0
100
AcDbPoint
 10
468.9999999999999
 20
408.0
 30
0.0
  0
POINT
  5
292
330
287
100
AcDbEntity
  8
DEFPOINTS
 62
     0
100
AcDbPoint
 10
468.9999999999999
 20
457.5
 30
0.0
  0
ENDBLK
  5
289
330
287
100
AcDbEntity
  8
0
100
AcDbBlockEnd
  0
BLOCK
  5
295
330
294
100
AcDbEntity
  8
0
100
AcDbBlockBegin
  2
*D18
 70
     1
 10
0.0
 20
0.0
 30
0.0
  3
*D18
  1

  0
LINE
  5
297
330
294
100
AcDbEntity
  8
LAY-20
  6
CONTINUOUS
 62
     4
100
AcDbLine
 10
464.9999999999999
 20
352.5
 30
0.0
 11
464.9999999999999
 21
262.0
 31
0.0
  0
LINE
  5
298
330
294
100
AcDbEntity
  8
LAY-20
  6
CONTINUOUS
 62
     4
100
AcDbLine
 10
959.0
 20
352.5
 30
0.0
 11
959.0
 21
262.0
 31
0.0
  0
LINE
  5
299
330
294
100
AcDbEntity
  8
LAY-20
  6
CONTINUOUS
 62
     4
100
AcDbLine
 10
477.4999999999999
 20
269.5
 30
0.0
 11
946.5
 21
269.5
 31
0.0
  0
INSERT
  5
29A
330
294
100
AcDbEntity
  8
LAY-20
 62
     4
100
AcDbBlockReference
  2
EX_BNORM
 10
464.9999999999999
 20
269.5
 30
0.0
 41
12.5
 42
12.5
 43
12.5
 50
180.0
  0
INSERT
  5
29B
330
294
100
AcDbEntity
  8
LAY-20
 62
     4
100
AcDbBlockReference
  2
EX_BNORM
 10
959.0
 20
269.5
 30
0.0
 41
12.5
 42
12.5
 43
12.5
  0
MTEXT
  5
29C
330
294
100
AcDbEntity
  8
LAY-20
 62
     7
100
AcDbMText
 10
712.0
 20
282.0
 30
0.0
 40
15.590552
 41
0.0
 71
     5
 72
     1
  1
□494
  7
EXCADDIM1
  0
POINT
  5
29D
330
294
100
AcDbEntity
  8
DEFPOINTS
 62
     0
100
AcDbPoint
 10
464.9999999999999
 20
360.0
 30
0.0
  0
POINT
  5
29E
330
294
100
AcDbEntity
  8
DEFPOINTS
 62
     0
100
AcDbPoint
 10
959.0
 20
360.0
 30
0.0
  0
POINT
  5
29F
330
294
100
AcDbEntity
  8
DEFPOINTS
 62
     0
100
AcDbPoint
 10
959.0
 20
269.5
 30
0.0
  0
ENDBLK
  5
296
330
294
100
AcDbEntity
  8
0
100
AcDbBlockEnd
  0
BLOCK
  5
2A2
330
2A1
100
AcDbEntity
  8
0
100
AcDbBlockBegin
  2
*D19
 70
     1
 10
0.0
 20
0.0
 30
0.0
  3
*D19
  1

  0
LINE
  5
2A4
330
2A1
100
AcDbEntity
  8
LAY-20
  6
CONTINUOUS
 62
     4
100
AcDbLine
 10
912.0
 20
350.5
 30
0.0
 11
912.0
 21
298.0
 31
0.0
  0
LINE
  5
2A5
330
2A1
100
AcDbEntity
  8
LAY-20
  6
CONTINUOUS
 62
     4
100
AcDbLine
 10
511.9999999999999
 20
350.5
 30
0.0
 11
511.9999999999999
 21
298.0
 31
0.0
  0
LINE
  5
2A6
330
2A1
100
AcDbEntity
  8
LAY-20
  6
CONTINUOUS
 62
     4
100
AcDbLine
 10
899.5
 20
305.5
 30
0.0
 11
524.4999999999999
 21
305.5
 31
0.0
  0
INSERT
  5
2A7
330
2A1
100
AcDbEntity
  8
LAY-20
 62
     4
100
AcDbBlockReference
  2
EX_BNORM
 10
912.0
 20
305.5
 30
0.0
 41
12.5
 42
12.5
 43
12.5
  0
INSERT
  5
2A8
330
2A1
100
AcDbEntity
  8
LAY-20
 62
     4
100
AcDbBlockReference
  2
EX_BNORM
 10
511.9999999999999
 20
305.5
 30
0.0
 41
12.5
 42
12.5
 43
12.5
 50
180.0
  0
MTEXT
  5
2A9
330
2A1
100
AcDbEntity
  8
LAY-20
 62
     7
100
AcDbMText
 10
711.9999999999999
 20
318.0
 30
0.0
 40
15.590552
 41
0.0
 71
     5
 72
     1
  1
□400
  7
EXCADDIM1
  0
POINT
  5
2AA
330
2A1
100
AcDbEntity
  8
DEFPOINTS
 62
     0
100
AcDbPoint
 10
912.0
 20
358.0
 30
0.0
  0
POINT
  5
2AB
330
2A1
100
AcDbEntity
  8
DEFPOINTS
 62
     0
100
AcDbPoint
 10
511.9999999999999
 20
358.0
 30
0.0
  0
POINT
  5
2AC
330
2A1
100
AcDbEntity
  8
DEFPOINTS
 62
     0
100
AcDbPoint
 10
511.9999999999999
 20
305.5
 30
0.0
  0
ENDBLK
  5
2A3
330
2A1
100
AcDbEntity
  8
0
100
AcDbBlockEnd
  0
BLOCK
  5
2AF
330
2AE
100
AcDbEntity
  8
0
100
AcDbBlockBegin
  2
*D20
 70
     1
 10
0.0
 20
0.0
 30
0.0
  3
*D20
  1

  0
LINE
  5
2B1
330
2AE
100
AcDbEntity
  8
LAY-20
  6
CONTINUOUS
 62
     4
100
AcDbLine
 10
741.5
 20
382.0
 30
0.0
 11
791.5
 21
382.0
 31
0.0
  0
LINE
  5
2B2
330
2AE
100
AcDbEntity
  8
LAY-20
  6
CONTINUOUS
 62
     4
100
AcDbLine
 10
784.0
 20
387.0
 30
0.0
 11
784.0
 21
403.0
 31
0.0
  0
INSERT
  5
2B3
330
2AE
100
AcDbEntity
  8
LAY-20
 62
     4
100
AcDbBlockReference
  2
EX_BCIR
 10
784.0
 20
382.0
 30
0.0
 41
5.0
 42
5.0
 43
5.0
 50
270.0
  0
INSERT
  5
2B4
330
2AE
100
AcDbEntity
  8
LAY-20
 62
     4
100
AcDbBlockReference
  2
EX_BNORM
 10
784.0
 20
408.0
 30
0.0
 41
5.0
 42
5.0
 43
5.0
 50
90.0
  0
MTEXT
  5
2B5
330
2AE
100
AcDbEntity
  8
LAY-20
 62
     7
100
AcDbMText
 10
771.5000000000001
 20
437.9999999999997
 30
0.0
 40
15.590552
 41
0.0
 71
     5
 72
     1
  1
26
  7
EXCADDIM1
 11
0.0
 21
1.0
 31
0.0
  0
POINT
  5
2B6
330
2AE
100
AcDbEntity
  8
DEFPOINTS
 62
     0
100
AcDbPoint
 10
734.0
 20
382.0
 30
0.0
  0
POINT
  5
2B7
330
2AE
100
AcDbEntity
  8
DEFPOINTS
 62
     0
100
AcDbPoint
 10
784.0
 20
408.0
 30
0.0
  0
POINT
  5
2B8
330
2AE
100
AcDbEntity
  8
DEFPOINTS
 62
     0
100
AcDbPoint
 10
784.0
 20
408.0
 30
0.0
  0
ENDBLK
  5
2B0
330
2AE
100
AcDbEntity
  8
0
100
AcDbBlockEnd
  0
BLOCK
  5
2BB
330
2BA
100
AcDbEntity
  8
0
100
AcDbBlockBegin
  2
*D21
 70
     1
 10
0.0
 20
0.0
 30
0.0
  3
*D21
  1

  0
LINE
  5
2BD
330
2BA
100
AcDbEntity
  8
LAY-20
  6
CONTINUOUS
 62
     4
100
AcDbLine
 10
784.0
 20
377.0
 30
0.0
 11
784.0
 21
375.0
 31
0.0
  0
INSERT
  5
2BE
330
2BA
100
AcDbEntity
  8
LAY-20
 62
     4
100
AcDbBlockReference
  2
EX_BCIR
 10
784.0
 20
382.0
 30
0.0
 41
5.0
 42
5.0
 43
5.0
 50
90.0
  0
INSERT
  5
2BF
330
2BA
100
AcDbEntity
  8
LAY-20
 62
     4
100
AcDbBlockReference
  2
EX_BNORM
 10
784.0
 20
370.0
 30
0.0
 41
5.0
 42
5.0
 43
5.0
 50
270.0
  0
MTEXT
  5
2C0
330
2BA
100
AcDbEntity
  8
LAY-20
 62
     7
100
AcDbMText
 10
771.5
 20
339.9999999999998
 30
0.0
 40
15.590552
 41
0.0
 71
     5
 72
     1
  1
12
  7
EXCADDIM1
 11
0.0
 21
1.0
 31
0.0
  0
POINT
  5
2C1
330
2BA
100
AcDbEntity
  8
DEFPOINTS
 62
     0
100
AcDbPoint
 10
784.0
 20
382.0
 30
0.0
  0
POINT
  5
2C2
330
2BA
100
AcDbEntity
  8
DEFPOINTS
 62
     0
100
AcDbPoint
 10
784.0
 20
370.0
 30
0.0
  0
POINT
  5
2C3
330
2BA
100
AcDbEntity
  8
DEFPOINTS
 62
     0
100
AcDbPoint
 10
784.0
 20
370.0
 30
0.0
  0
ENDBLK
  5
2BC
330
2BA
100
AcDbEntity
  8
0
100
AcDbBlockEnd
  0
ENDSEC
  0
SECTION
  2
ENTITIES
  0
LINE
  5
D7
330
1F
100
AcDbEntity
  8
LAY-10
  6
CONTINUOUS
 62
     7
100
AcDbLine
 10
966.2000000001299
 20
869.0
 30
0.0
 11
967.2000000001299
 21
869.0
 31
0.0
  0
LINE
  5
D8
330
1F
100
AcDbEntity
  8
LAY-10
  6
CONTINUOUS
 62
     7
100
AcDbLine
 10
966.2000000001299
 20
880.9999999999999
 30
0.0
 11
967.2000000001299
 21
880.9999999999999
 31
0.0
  0
LINE
  5
D9
330
1F
100
AcDbEntity
  8
LAY-10
  6
CONTINUOUS
 62
     7
100
AcDbLine
 10
970.20000000013
 20
872.0000000000001
 30
0.0
 11
970.20000000013
 21
878.0000000000003
 31
0.0
  0
LINE
  5
DA
330
1F
100
AcDbEntity
  8
LAY-10
  6
CONTINUOUS
 62
     7
100
AcDbLine
 10
959.0
 20
869.0
 30
0.0
 11
963.6280000000002
 21
869.0
 31
0.0
  0
LINE
  5
DB
330
1F
100
AcDbEntity
  8
LAY-10
  6
CONTINUOUS
 62
     7
100
AcDbLine
 10
959.0
 20
872.0000000000001
 30
0.0
 11
963.6280000000002
 21
872.0000000000001
 31
0.0
  0
LINE
  5
DC
330
1F
100
AcDbEntity
  8
LAY-10
  6
CONTINUOUS
 62
     7
100
AcDbLine
 10
959.0
 20
878.0000000000003
 30
0.0
 11
963.6280000000002
 21
878.0000000000003
 31
0.0
  0
LINE
  5
DD
330
1F
100
AcDbEntity
  8
LAY-10
  6
CONTINUOUS
 62
     7
100
AcDbLine
 10
959.0
 20
880.9999999999999
 30
0.0
 11
963.6280000000002
 21
880.9999999999999
 31
0.0
  0
ARC
  5
DE
330
1F
100
AcDbEntity
  8
LAY-10
  6
CONTINUOUS
 62
     7
100
AcDbCircle
 10
961.9472167830004
 20
870.5000000000003
 30
0.0
 40
2.25278321678
100
AcDbArc
 50
318.2529672044884
 51
41.74703279549092
  0
ARC
  5
DF
330
1F
100
AcDbEntity
  8
LAY-10
  6
CONTINUOUS
 62
     7
100
AcDbCircle
 10
956.046867133
 20
875.0000000000002
 30
0.0
 40
8.153132867130006
100
AcDbArc
 50
338.4103422213976
 51
21.58965777859708
  0
ARC
  5
E0
330
1F
100
AcDbEntity
  8
LAY-10
  6
CONTINUOUS
 62
     7
100
AcDbCircle
 10
961.9472167830004
 20
879.5000000000001
 30
0.0
 40
2.25278321678
100
AcDbArc
 50
318.2529672044987
 51
41.74703279549092
  0
LINE
  5
E1
330
1F
100
AcDbEntity
  8
LAY-10
  6
CONTINUOUS
 62
     7
100
AcDbLine
 10
920.6111636138559
 20
364.3395907386036
 30
0.0
 11
922.9592576703582
 21
366.6876847951063
 31
0.0
  0
LINE
  5
E2
330
1F
100
AcDbEntity
  8
LAY-10
  6
CONTINUOUS
 62
     7
100
AcDbLine
 10
922.0784481271195
 20
364.3926616894935
 30
0.0
 11
924.1142341014588
 21
366.4284476638338
 31
0.0
  0
LINE
  5
E3
330
1F
100
AcDbEntity
  8
LAY-10
  6
CONTINUOUS
 62
     7
100
AcDbLine
 10
923.1816992357415
 20
364.081699235742
 30
0.0
 11
925.1436816773971
 21
366.0436816773993
 31
0.0
  0
LINE
  5
E4
330
1F
100
AcDbEntity
  8
LAY-10
  6
CONTINUOUS
 62
     7
100
AcDbLine
 10
924.0180852967292
 20
363.5038717343571
 30
0.0
 11
926.0538712710837
 21
365.539657708711
 31
0.0
  0
LINE
  5
E5
330
1F
100
AcDbEntity
  8
LAY-10
  6
CONTINUOUS
 62
     7
100
AcDbLine
 10
924.4904379530763
 20
362.5620108283313
 30
0.0
 11
926.8385320096068
 21
364.9101048848617
 31
0.0
  0
LINE
  5
E6
330
1F
100
AcDbEntity
  8
LAY-10
  6
CONTINUOUS
 62
     7
100
AcDbLine
 10
921.3439095401236
 20
358.0012688530048
 30
0.0
 11
927.4750019687481
 21
364.1323612816292
 31
0.0
  0
LINE
  5
E7
330
1F
100
AcDbEntity
  8
LAY-10
  6
CONTINUOUS
 62
     7
100
AcDbLine
 10
922.853270373607
 20
358.0964161241151
 30
0.0
 11
927.9052783048883
 21
363.1484240553966
 31
0.0
  0
LINE
  5
E8
330
1F
100
AcDbEntity
  8
LAY-10
  6
CONTINUOUS
 62
     7
100
AcDbLine
 10
924.7673680869566
 20
358.5963002750916
 30
0.0
 11
927.9308177611629
 21
361.7597499492983
 31
0.0
  0
LINE
  5
E9
330
1F
100
AcDbEntity
  8
LAY-10
  6
CONTINUOUS
 62
     7
100
AcDbLine
 10
915.0691822388367
 20
363.0402500507005
 30
0.0
 11
918.2326319130472
 21
366.2036997249113
 31
0.0
  0
LINE
  5
EA
330
1F
100
AcDbEntity
  8
LAY-10
  6
CONTINUOUS
 62
     7
100
AcDbLine
 10
915.0947216951113
 20
361.6515759446063
 30
0.0
 11
920.1467296263908
 21
366.7035838758859
 31
0.0
  0
LINE
  5
EB
330
1F
100
AcDbEntity
  8
LAY-10
  6
CONTINUOUS
 62
     7
100
AcDbLine
 10
915.524998031251
 20
360.6676387183732
 30
0.0
 11
921.6560904598748
 21
366.7987311469967
 31
0.0
  0
LINE
  5
EC
330
1F
100
AcDbEntity
  8
LAY-10
  6
CONTINUOUS
 62
     7
100
AcDbLine
 10
920.0407423296407
 20
358.1123152048956
 30
0.0
 11
924.4904379530781
 21
362.5620108283319
 31
0.0
  0
LINE
  5
ED
330
1F
100
AcDbEntity
  8
LAY-10
  6
CONTINUOUS
 62
     7
100
AcDbLine
 10
918.8857658985404
 20
358.3715523361677
 30
0.0
 11
924.0180852967308
 21
363.5038717343591
 31
0.0
  0
LINE
  5
EE
330
1F
100
AcDbEntity
  8
LAY-10
  6
CONTINUOUS
 62
     7
100
AcDbLine
 10
917.8563183226012
 20
358.7563183226027
 30
0.0
 11
923.3109785155451
 21
364.2109785155451
 31
0.0
  0
LINE
  5
EF
330
1F
100
AcDbEntity
  8
LAY-10
  6
CONTINUOUS
 62
     7
100
AcDbLine
 10
916.9461287289158
 20
359.2603422912903
 30
0.0
 11
922.0784481271183
 21
364.3926616894917
 31
0.0
  0
LINE
  5
F0
330
1F
100
AcDbEntity
  8
LAY-10
  6
CONTINUOUS
 62
     7
100
AcDbLine
 10
916.1614679903922
 20
359.8898951151405
 30
0.0
 11
920.6111636138564
 21
364.3395907386034
 31
0.0
  0
LINE
  5
F1
330
1F
100
AcDbEntity
  8
LAY-10
  6
CONTINUOUS
 62
     7
100
AcDbLine
 10
501.6111636138554
 20
364.3395907386036
 30
0.0
 11
503.9592576703578
 21
366.6876847951063
 31
0.0
  0
LINE
  5
F2
330
1F
100
AcDbEntity
  8
LAY-10
  6
CONTINUOUS
 62
     7
100
AcDbLine
 10
503.078448127119
 20
364.3926616894937
 30
0.0
 11
505.1142341014584
 21
366.4284476638338
 31
0.0
  0
LINE
  5
F3
330
1F
100
AcDbEntity
  8
LAY-10
  6
CONTINUOUS
 62
     7
100
AcDbLine
 10
504.1816992357409
 20
364.081699235742
 30
0.0
 11
506.1436816773967
 21
366.0436816773993
 31
0.0
  0
LINE
  5
F4
330
1F
100
AcDbEntity
  8
LAY-10
  6
CONTINUOUS
 62
     7
100
AcDbLine
 10
505.0180852967287
 20
363.5038717343571
 30
0.0
 11
507.0538712710832
 21
365.5396577087113
 31
0.0
  0
LINE
  5
F5
330
1F
100
AcDbEntity
  8
LAY-10
  6
CONTINUOUS
 62
     7
100
AcDbLine
 10
505.4904379530758
 20
362.5620108283313
 30
0.0
 11
507.8385320096064
 21
364.9101048848617
 31
0.0
  0
LINE
  5
F6
330
1F
100
AcDbEntity
  8
LAY-10
  6
CONTINUOUS
 62
     7
100
AcDbLine
 10
502.343909540123
 20
358.0012688530048
 30
0.0
 11
508.4750019687476
 21
364.1323612816292
 31
0.0
  0
LINE
  5
F7
330
1F
100
AcDbEntity
  8
LAY-10
  6
CONTINUOUS
 62
     7
100
AcDbLine
 10
503.8532703736065
 20
358.0964161241151
 30
0.0
 11
508.9052783048878
 21
363.1484240553966
 31
0.0
  0
LINE
  5
F8
330
1F
100
AcDbEntity
  8
LAY-10
  6
CONTINUOUS
 62
     7
100
AcDbLine
 10
505.7673680869561
 20
358.5963002750916
 30
0.0
 11
508.9308177611625
 21
361.7597499492986
 31
0.0
  0
LINE
  5
F9
330
1F
100
AcDbEntity
  8
LAY-10
  6
CONTINUOUS
 62
     7
100
AcDbLine
 10
496.0691822388362
 20
363.0402500507007
 30
0.0
 11
499.2326319130467
 21
366.2036997249113
 31
0.0
  0
LINE
  5
FA
330
1F
100
AcDbEntity
  8
LAY-10
  6
CONTINUOUS
 62
     7
100
AcDbLine
 10
496.0947216951107
 20
361.6515759446063
 30
0.0
 11
501.1467296263903
 21
366.7035838758859
 31
0.0
  0
LINE
  5
FB
330
1F
100
AcDbEntity
  8
LAY-10
  6
CONTINUOUS
 62
     7
100
AcDbLine
 10
496.5249980312506
 20
360.6676387183734
 30
0.0
 11
502.6560904598742
 21
366.7987311469967
 31
0.0
  0
LINE
  5
FC
330
1F
100
AcDbEntity
  8
LAY-10
  6
CONTINUOUS
 62
     7
100
AcDbLine
 10
501.0407423296402
 20
358.1123152048958
 30
0.0
 11
505.4904379530778
 21
362.5620108283322
 31
0.0
  0
LINE
  5
FD
330
1F
100
AcDbEntity
  8
LAY-10
  6
CONTINUOUS
 62
     7
100
AcDbLine
 10
499.8857658985399
 20
358.371552336168
 30
0.0
 11
505.0180852967307
 21
363.5038717343595
 31
0.0
  0
LINE
  5
FE
330
1F
100
AcDbEntity
  8
LAY-10
  6
CONTINUOUS
 62
     7
100
AcDbLine
 10
498.8563183226007
 20
358.7563183226027
 30
0.0
 11
504.18169923574
 21
364.08169923574
 31
0.0
  0
LINE
  5
FF
330
1F
100
AcDbEntity
  8
LAY-10
  6
CONTINUOUS
 62
     7
100
AcDbLine
 10
497.9461287289153
 20
359.2603422912905
 30
0.0
 11
503.0784481271183
 21
364.3926616894917
 31
0.0
  0
LINE
  5
100
330
1F
100
AcDbEntity
  8
LAY-10
  6
CONTINUOUS
 62
     7
100
AcDbLine
 10
497.1614679903918
 20
359.8898951151405
 30
0.0
 11
501.6111636138561
 21
364.3395907386038
 31
0.0
  0
LINE
  5
101
330
1F
100
AcDbEntity
  8
LAY-10
  6
CONTINUOUS
 62
     7
100
AcDbLine
 10
457.799999999871
 20
869.0
 30
0.0
 11
456.799999999871
 21
869.0
 31
0.0
  0
LINE
  5
102
330
1F
100
AcDbEntity
  8
LAY-10
  6
CONTINUOUS
 62
     7
100
AcDbLine
 10
457.799999999871
 20
881.0
 30
0.0
 11
456.799999999871
 21
881.0
 31
0.0
  0
LINE
  5
103
330
1F
100
AcDbEntity
  8
LAY-10
  6
CONTINUOUS
 62
     7
100
AcDbLine
 10
453.7999999998709
 20
872.0000000000002
 30
0.0
 11
453.7999999998709
 21
878.0000000000005
 31
0.0
  0
LINE
  5
104
330
1F
100
AcDbEntity
  8
LAY-10
  6
CONTINUOUS
 62
     7
100
AcDbLine
 10
465.0000000000009
 20
869.0
 30
0.0
 11
460.3720000000008
 21
869.0
 31
0.0
  0
LINE
  5
105
330
1F
100
AcDbEntity
  8
LAY-10
  6
CONTINUOUS
 62
     7
100
AcDbLine
 10
465.0000000000009
 20
872.0000000000002
 30
0.0
 11
460.3720000000008
 21
872.0000000000002
 31
0.0
  0
LINE
  5
106
330
1F
100
AcDbEntity
  8
LAY-10
  6
CONTINUOUS
 62
     7
100
AcDbLine
 10
465.0000000000009
 20
878.0000000000005
 30
0.0
 11
460.3720000000008
 21
878.0000000000005
 31
0.0
  0
LINE
  5
107
330
1F
100
AcDbEntity
  8
LAY-10
  6
CONTINUOUS
 62
     7
100
AcDbLine
 10
465.0000000000009
 20
881.0
 30
0.0
 11
460.3720000000008
 21
881.0
 31
0.0
  0
ARC
  5
108
330
1F
100
AcDbEntity
  8
LAY-10
  6
CONTINUOUS
 62
     7
100
AcDbCircle
 10
462.0527832170005
 20
870.5000000000005
 30
0.0
 40
2.25278321678
100
AcDbArc
 50
138.2529672045113
 51
221.7470327955139
  0
ARC
  5
109
330
1F
100
AcDbEntity
  8
LAY-10
  6
CONTINUOUS
 62
     7
100
AcDbCircle
 10
467.9531328670009
 20
875.0000000000002
 30
0.0
 40
8.153132867130006
100
AcDbArc
 50
158.4103422214022
 51
201.5896577786015
  0
ARC
  5
10A
330
1F
100
AcDbEntity
  8
LAY-10
  6
CONTINUOUS
 62
     7
100
AcDbCircle
 10
462.0527832170005
 20
879.5000000000002
 30
0.0
 40
2.25278321678
100
AcDbArc
 50
138.2529672045113
 51
221.7470327955013
  0
LINE
  5
10B
330
1F
100
AcDbEntity
  8
LAY-10
  6
CONTINUOUS
 62
     7
100
AcDbLine
 10
717.9999999999999
 20
1129.20000000013
 30
0.0
 11
717.9999999999999
 21
1130.20000000013
 31
0.0
  0
LINE
  5
10C
330
1F
100
AcDbEntity
  8
LAY-10
  6
CONTINUOUS
 62
     7
100
AcDbLine
 10
706.0
 20
1129.20000000013
 30
0.0
 11
706.0
 21
1130.20000000013
 31
0.0
  0
LINE
  5
10D
330
1F
100
AcDbEntity
  8
LAY-10
  6
CONTINUOUS
 62
     7
100
AcDbLine
 10
714.9999999999998
 20
1133.20000000013
 30
0.0
 11
708.9999999999995
 21
1133.20000000013
 31
0.0
  0
LINE
  5
10E
330
1F
100
AcDbEntity
  8
LAY-10
  6
CONTINUOUS
 62
     7
100
AcDbLine
 10
717.9999999999999
 20
1122.0
 30
0.0
 11
717.9999999999999
 21
1126.628
 31
0.0
  0
LINE
  5
10F
330
1F
100
AcDbEntity
  8
LAY-10
  6
CONTINUOUS
 62
     7
100
AcDbLine
 10
714.9999999999998
 20
1122.0
 30
0.0
 11
714.9999999999998
 21
1126.628
 31
0.0
  0
LINE
  5
110
330
1F
100
AcDbEntity
  8
LAY-10
  6
CONTINUOUS
 62
     7
100
AcDbLine
 10
708.9999999999995
 20
1122.0
 30
0.0
 11
708.9999999999995
 21
1126.628
 31
0.0
  0
LINE
  5
111
330
1F
100
AcDbEntity
  8
LAY-10
  6
CONTINUOUS
 62
     7
100
AcDbLine
 10
706.0
 20
1122.0
 30
0.0
 11
706.0
 21
1126.628
 31
0.0
  0
ARC
  5
112
330
1F
100
AcDbEntity
  8
LAY-10
  6
CONTINUOUS
 62
     7
100
AcDbCircle
 10
716.4999999999995
 20
1124.947216783
 30
0.0
 40
2.25278321678
100
AcDbArc
 50
48.25296720448844
 51
131.7470327954909
  0
ARC
  5
113
330
1F
100
AcDbEntity
  8
LAY-10
  6
CONTINUOUS
 62
     7
100
AcDbCircle
 10
711.9999999999997
 20
1119.046867133
 30
0.0
 40
8.153132867130006
100
AcDbArc
 50
68.41034222139756
 51
111.5896577785971
  0
ARC
  5
114
330
1F
100
AcDbEntity
  8
LAY-10
  6
CONTINUOUS
 62
     7
100
AcDbCircle
 10
707.4999999999998
 20
1124.947216783
 30
0.0
 40
2.25278321678
100
AcDbArc
 50
48.25296720449874
 51
131.7470327954909
  0
LINE
  5
115
330
1F
100
AcDbEntity
  8
LAY-10
  6
CONTINUOUS
 62
     7
100
AcDbLine
 10
717.9999999999999
 20
620.799999999871
 30
0.0
 11
717.9999999999999
 21
619.799999999871
 31
0.0
  0
LINE
  5
116
330
1F
100
AcDbEntity
  8
LAY-10
  6
CONTINUOUS
 62
     7
100
AcDbLine
 10
706.0
 20
620.799999999871
 30
0.0
 11
706.0
 21
619.799999999871
 31
0.0
  0
LINE
  5
117
330
1F
100
AcDbEntity
  8
LAY-10
  6
CONTINUOUS
 62
     7
100
AcDbLine
 10
714.9999999999998
 20
616.7999999998708
 30
0.0
 11
708.9999999999995
 21
616.7999999998708
 31
0.0
  0
LINE
  5
118
330
1F
100
AcDbEntity
  8
LAY-10
  6
CONTINUOUS
 62
     7
100
AcDbLine
 10
717.9999999999999
 20
628.0000000000009
 30
0.0
 11
717.9999999999999
 21
623.3720000000008
 31
0.0
  0
LINE
  5
119
330
1F
100
AcDbEntity
  8
LAY-10
  6
CONTINUOUS
 62
     7
100
AcDbLine
 10
714.9999999999998
 20
628.0000000000009
 30
0.0
 11
714.9999999999998
 21
623.3720000000008
 31
0.0
  0
LINE
  5
11A
330
1F
100
AcDbEntity
  8
LAY-10
  6
CONTINUOUS
 62
     7
100
AcDbLine
 10
708.9999999999995
 20
628.0000000000009
 30
0.0
 11
708.9999999999995
 21
623.3720000000008
 31
0.0
  0
LINE
  5
11B
330
1F
100
AcDbEntity
  8
LAY-10
  6
CONTINUOUS
 62
     7
100
AcDbLine
 10
706.0
 20
628.0000000000009
 30
0.0
 11
706.0
 21
623.3720000000008
 31
0.0
  0
ARC
  5
11C
330
1F
100
AcDbEntity
  8
LAY-10
  6
CONTINUOUS
 62
     7
100
AcDbCircle
 10
716.4999999999995
 20
625.0527832170005
 30
0.0
 40
2.25278321678
100
AcDbArc
 50
228.2529672045114
 51
311.747032795514
  0
ARC
  5
11D
330
1F
100
AcDbEntity
  8
LAY-10
  6
CONTINUOUS
 62
     7
100
AcDbCircle
 10
711.9999999999997
 20
630.9531328670009
 30
0.0
 40
8.153132867130006
100
AcDbArc
 50
248.4103422214024
 51
291.5896577786016
  0
ARC
  5
11E
330
1F
100
AcDbEntity
  8
LAY-10
  6
CONTINUOUS
 62
     7
100
AcDbCircle
 10
707.4999999999998
 20
625.0527832170005
 30
0.0
 40
2.25278321678
100
AcDbArc
 50
228.2529672045114
 51
311.7470327955013
  0
ARC
  5
11F
330
1F
100
AcDbEntity
  8
LAY-10
  6
CONTINUOUS
 62
     7
100
AcDbCircle
 10
967.2000000001299
 20
878.0000000000003
 30
0.0
 40
3.000000000000003
100
AcDbArc
 50
0.0
 51
90.00000000000001
  0
ARC
  5
120
330
1F
100
AcDbEntity
  8
LAY-10
  6
CONTINUOUS
 62
     7
100
AcDbCircle
 10
967.2000000001299
 20
872.0000000000001
 30
0.0
 40
3.000000000000003
100
AcDbArc
 50
270.0000000000002
 51
0.0
  0
LINE
  5
121
330
1F
100
AcDbEntity
  8
LAY-10
  6
CONTINUOUS
 62
     7
100
AcDbLine
 10
966.2000000001299
 20
890.0
 30
0.0
 11
966.2000000001299
 21
860.0
 31
0.0
  0
LINE
  5
122
330
1F
100
AcDbEntity
  8
LAY-10
  6
CONTINUOUS
 62
     7
100
AcDbLine
 10
964.2000000001299
 20
890.0
 30
0.0
 11
964.2000000001299
 21
860.0
 31
0.0
  0
LINE
  5
123
330
1F
100
AcDbEntity
  8
LAY-10
  6
CONTINUOUS
 62
     7
100
AcDbLine
 10
1016.300000000025
 20
890.0
 30
0.0
 11
964.2000000001299
 21
890.0
 31
0.0
  0
LINE
  5
124
330
1F
100
AcDbEntity
  8
LAY-10
  6
CONTINUOUS
 62
     7
100
AcDbLine
 10
1016.300000000025
 20
860.0
 30
0.0
 11
964.2000000001299
 21
860.0
 31
0.0
  0
LINE
  5
125
330
1F
100
AcDbEntity
  8
LAY-10
  6
CONTINUOUS
 62
     7
100
AcDbLine
 10
1016.300000000025
 20
890.0
 30
0.0
 11
1016.300000000025
 21
880.0000000000002
 31
0.0
  0
LINE
  5
126
330
1F
100
AcDbEntity
  8
LAY-10
  6
CONTINUOUS
 62
     7
100
AcDbLine
 10
1016.300000000025
 20
870.0000000000002
 30
0.0
 11
1016.300000000025
 21
860.0
 31
0.0
  0
ARC
  5
127
330
1F
100
AcDbEntity
  8
LAY-10
  6
CONTINUOUS
 62
     7
100
AcDbCircle
 10
996.300000000013
 20
875.0000000000002
 30
0.0
 40
5.000000000000116
100
AcDbArc
 50
90.00000000000001
 51
270.0000000000002
  0
LINE
  5
128
330
1F
100
AcDbEntity
  8
LAY-10
  6
CONTINUOUS
 62
     7
100
AcDbLine
 10
1016.300000000025
 20
880.0000000000002
 30
0.0
 11
996.300000000013
 21
880.0000000000002
 31
0.0
  0
LINE
  5
129
330
1F
100
AcDbEntity
  8
LAY-10
  6
CONTINUOUS
 62
     7
100
AcDbLine
 10
1016.300000000025
 20
870.0000000000002
 30
0.0
 11
996.300000000013
 21
870.0000000000002
 31
0.0
  0
ARC
  5
12A
330
1F
100
AcDbEntity
  8
LAY-10
  6
CONTINUOUS
 62
     7
100
AcDbCircle
 10
456.799999999871
 20
878.0000000000005
 30
0.0
 40
3.000000000000003
100
AcDbArc
 50
90.00000000000001
 51
180.0
  0
ARC
  5
12B
330
1F
100
AcDbEntity
  8
LAY-10
  6
CONTINUOUS
 62
     7
100
AcDbCircle
 10
456.799999999871
 20
872.0000000000002
 30
0.0
 40
3.000000000000003
100
AcDbArc
 50
180.0
 51
270.0000000000002
  0
LINE
  5
12C
330
1F
100
AcDbEntity
  8
LAY-10
  6
CONTINUOUS
 62
     7
100
AcDbLine
 10
457.799999999871
 20
890.0
 30
0.0
 11
457.799999999871
 21
860.0
 31
0.0
  0
LINE
  5
12D
330
1F
100
AcDbEntity
  8
LAY-10
  6
CONTINUOUS
 62
     7
100
AcDbLine
 10
459.799999999871
 20
890.0
 30
0.0
 11
459.799999999871
 21
860.0
 31
0.0
  0
LINE
  5
12E
330
1F
100
AcDbEntity
  8
LAY-10
  6
CONTINUOUS
 62
     7
100
AcDbLine
 10
407.6999999999761
 20
890.0
 30
0.0
 11
459.799999999871
 21
890.0
 31
0.0
  0
LINE
  5
12F
330
1F
100
AcDbEntity
  8
LAY-10
  6
CONTINUOUS
 62
     7
100
AcDbLine
 10
407.6999999999761
 20
860.0
 30
0.0
 11
459.799999999871
 21
860.0
 31
0.0
  0
LINE
  5
130
330
1F
100
AcDbEntity
  8
LAY-10
  6
CONTINUOUS
 62
     7
100
AcDbLine
 10
407.6999999999761
 20
890.0
 30
0.0
 11
407.6999999999761
 21
880.0000000000002
 31
0.0
  0
LINE
  5
131
330
1F
100
AcDbEntity
  8
LAY-10
  6
CONTINUOUS
 62
     7
100
AcDbLine
 10
407.6999999999761
 20
870.0000000000002
 30
0.0
 11
407.6999999999761
 21
860.0
 31
0.0
  0
ARC
  5
132
330
1F
100
AcDbEntity
  8
LAY-10
  6
CONTINUOUS
 62
     7
100
AcDbCircle
 10
427.6999999999879
 20
875.0000000000002
 30
0.0
 40
5.000000000000116
100
AcDbArc
 50
270.0000000000002
 51
90.00000000000001
  0
LINE
  5
133
330
1F
100
AcDbEntity
  8
LAY-10
  6
CONTINUOUS
 62
     7
100
AcDbLine
 10
407.6999999999761
 20
880.0000000000002
 30
0.0
 11
427.6999999999879
 21
880.0000000000002
 31
0.0
  0
LINE
  5
134
330
1F
100
AcDbEntity
  8
LAY-10
  6
CONTINUOUS
 62
     7
100
AcDbLine
 10
407.6999999999761
 20
870.0000000000002
 30
0.0
 11
427.6999999999879
 21
870.0000000000002
 31
0.0
  0
ARC
  5
135
330
1F
100
AcDbEntity
  8
LAY-10
  6
CONTINUOUS
 62
     7
100
AcDbCircle
 10
708.9999999999995
 20
1130.20000000013
 30
0.0
 40
3.000000000000003
100
AcDbArc
 50
90.00000000000001
 51
180.0000000000002
  0
ARC
  5
136
330
1F
100
AcDbEntity
  8
LAY-10
  6
CONTINUOUS
 62
     7
100
AcDbCircle
 10
714.9999999999998
 20
1130.20000000013
 30
0.0
 40
3.000000000000003
100
AcDbArc
 50
0.0000000000001719
 51
90.00000000000001
  0
LINE
  5
137
330
1F
100
AcDbEntity
  8
LAY-10
  6
CONTINUOUS
 62
     7
100
AcDbLine
 10
697.0000000000001
 20
1129.20000000013
 30
0.0
 11
727.0000000000001
 21
1129.20000000013
 31
0.0
  0
LINE
  5
138
330
1F
100
AcDbEntity
  8
LAY-10
  6
CONTINUOUS
 62
     7
100
AcDbLine
 10
697.0000000000001
 20
1127.20000000013
 30
0.0
 11
727.0000000000001
 21
1127.20000000013
 31
0.0
  0
LINE
  5
139
330
1F
100
AcDbEntity
  8
LAY-10
  6
CONTINUOUS
 62
     7
100
AcDbLine
 10
697.0000000000001
 20
1179.300000000025
 30
0.0
 11
697.0000000000001
 21
1127.20000000013
 31
0.0
  0
LINE
  5
13A
330
1F
100
AcDbEntity
  8
LAY-10
  6
CONTINUOUS
 62
     7
100
AcDbLine
 10
727.0000000000001
 20
1179.300000000025
 30
0.0
 11
727.0000000000001
 21
1127.20000000013
 31
0.0
  0
LINE
  5
13B
330
1F
100
AcDbEntity
  8
LAY-10
  6
CONTINUOUS
 62
     7
100
AcDbLine
 10
697.0000000000001
 20
1179.300000000025
 30
0.0
 11
706.9999999999997
 21
1179.300000000025
 31
0.0
  0
LINE
  5
13C
330
1F
100
AcDbEntity
  8
LAY-10
  6
CONTINUOUS
 62
     7
100
AcDbLine
 10
716.9999999999997
 20
1179.300000000025
 30
0.0
 11
727.0000000000001
 21
1179.300000000025
 31
0.0
  0
ARC
  5
13D
330
1F
100
AcDbEntity
  8
LAY-10
  6
CONTINUOUS
 62
     7
100
AcDbCircle
 10
711.9999999999997
 20
1159.300000000013
 30
0.0
 40
5.000000000000116
100
AcDbArc
 50
180.0000000000002
 51
0.0000000000001719
  0
LINE
  5
13E
330
1F
100
AcDbEntity
  8
LAY-10
  6
CONTINUOUS
 62
     7
100
AcDbLine
 10
706.9999999999997
 20
1179.300000000025
 30
0.0
 11
706.9999999999997
 21
1159.300000000013
 31
0.0
  0
LINE
  5
13F
330
1F
100
AcDbEntity
  8
LAY-10
  6
CONTINUOUS
 62
     7
100
AcDbLine
 10
716.9999999999997
 20
1179.300000000025
 30
0.0
 11
716.9999999999997
 21
1159.300000000013
 31
0.0
  0
LINE
  5
140
330
1F
100
AcDbEntity
  8
LAY-10
  6
CONTINUOUS
 62
     7
100
AcDbLine
 10
956.0
 20
1119.0
 30
0.0
 11
959.0000000000003
 21
1122.0
 31
0.0
  0
LINE
  5
141
330
1F
100
AcDbEntity
  8
LAY-10
  6
CONTINUOUS
 62
     7
100
AcDbLine
 10
955.0000000000006
 20
1118.0
 30
0.0
 11
947.0000000000005
 21
1110.0
 31
0.0
  0
LINE
  5
142
330
1F
100
AcDbEntity
  8
LAY-10
  6
CONTINUOUS
 62
     7
100
AcDbLine
 10
947.0
 20
1078.0
 30
0.0
 11
915.0
 21
1078.0
 31
0.0
  0
LINE
  5
143
330
1F
100
AcDbEntity
  8
LAY-10
  6
CONTINUOUS
 62
     7
100
AcDbLine
 10
915.0
 20
1110.0
 30
0.0
 11
915.0
 21
1078.0
 31
0.0
  0
LINE
  5
144
330
1F
100
AcDbEntity
  8
LAY-10
  6
CONTINUOUS
 62
     7
100
AcDbLine
 10
468.0000000000005
 20
1119.0
 30
0.0
 11
465.0000000000005
 21
1122.0
 31
0.0
  0
LINE
  5
145
330
1F
100
AcDbEntity
  8
LAY-10
  6
CONTINUOUS
 62
     7
100
AcDbLine
 10
469.0000000000005
 20
1118.0
 30
0.0
 11
477.0000000000005
 21
1110.0
 31
0.0
  0
LINE
  5
146
330
1F
100
AcDbEntity
  8
LAY-10
  6
CONTINUOUS
 62
     7
100
AcDbLine
 10
509.0000000000001
 20
1110.0
 30
0.0
 11
509.0000000000001
 21
1078.0
 31
0.0
  0
LINE
  5
147
330
1F
100
AcDbEntity
  8
LAY-10
  6
CONTINUOUS
 62
     7
100
AcDbLine
 10
477.0000000000002
 20
1078.0
 30
0.0
 11
509.0000000000001
 21
1078.0
 31
0.0
  0
LINE
  5
148
330
1F
100
AcDbEntity
  8
LAY-10
  6
CONTINUOUS
 62
     7
100
AcDbLine
 10
947.0000000000005
 20
1110.0
 30
0.0
 11
477.0000000000005
 21
1110.0
 31
0.0
  0
LINE
  5
149
330
1F
100
AcDbEntity
  8
LAY-10
  6
CONTINUOUS
 62
     7
100
AcDbLine
 10
469.0000000000005
 20
1118.0
 30
0.0
 11
955.0000000000006
 21
1118.0
 31
0.0
  0
LINE
  5
14A
330
1F
100
AcDbEntity
  8
LAY-10
  6
CONTINUOUS
 62
     7
100
AcDbLine
 10
468.0000000000005
 20
1119.0
 30
0.0
 11
956.0
 21
1119.0
 31
0.0
  0
LINE
  5
14B
330
1F
100
AcDbEntity
  8
LAY-10
  6
CONTINUOUS
 62
     7
100
AcDbLine
 10
465.0000000000005
 20
1122.0
 30
0.0
 11
959.0000000000003
 21
1122.0
 31
0.0
  0
ARC
  5
14C
330
1F
100
AcDbEntity
  8
LAY-10
  6
CONTINUOUS
 62
     7
100
AcDbCircle
 10
708.9999999999995
 20
619.799999999871
 30
0.0
 40
3.000000000000003
100
AcDbArc
 50
180.0000000000002
 51
270.0000000000002
  0
ARC
  5
14D
330
1F
100
AcDbEntity
  8
LAY-10
  6
CONTINUOUS
 62
     7
100
AcDbCircle
 10
714.9999999999998
 20
619.799999999871
 30
0.0
 40
3.000000000000003
100
AcDbArc
 50
270.0000000000002
 51
0.0000000000000573
  0
LINE
  5
14E
330
1F
100
AcDbEntity
  8
LAY-10
  6
CONTINUOUS
 62
     7
100
AcDbLine
 10
697.0
 20
620.799999999871
 30
0.0
 11
727.0
 21
620.799999999871
 31
0.0
  0
LINE
  5
14F
330
1F
100
AcDbEntity
  8
LAY-10
  6
CONTINUOUS
 62
     7
100
AcDbLine
 10
697.0
 20
622.799999999871
 30
0.0
 11
727.0
 21
622.799999999871
 31
0.0
  0
LINE
  5
150
330
1F
100
AcDbEntity
  8
LAY-10
  6
CONTINUOUS
 62
     7
100
AcDbLine
 10
697.0
 20
570.6999999999762
 30
0.0
 11
697.0
 21
622.799999999871
 31
0.0
  0
LINE
  5
151
330
1F
100
AcDbEntity
  8
LAY-10
  6
CONTINUOUS
 62
     7
100
AcDbLine
 10
727.0
 20
570.6999999999762
 30
0.0
 11
727.0
 21
622.799999999871
 31
0.0
  0
LINE
  5
152
330
1F
100
AcDbEntity
  8
LAY-10
  6
CONTINUOUS
 62
     7
100
AcDbLine
 10
697.0
 20
570.6999999999762
 30
0.0
 11
706.9999999999997
 21
570.6999999999762
 31
0.0
  0
LINE
  5
153
330
1F
100
AcDbEntity
  8
LAY-10
  6
CONTINUOUS
 62
     7
100
AcDbLine
 10
716.9999999999997
 20
570.6999999999762
 30
0.0
 11
727.0
 21
570.6999999999762
 31
0.0
  0
ARC
  5
154
330
1F
100
AcDbEntity
  8
LAY-10
  6
CONTINUOUS
 62
     7
100
AcDbCircle
 10
711.9999999999997
 20
590.6999999999878
 30
0.0
 40
5.000000000000116
100
AcDbArc
 50
0.0000000000000573
 51
180.0000000000002
  0
LINE
  5
155
330
1F
100
AcDbEntity
  8
LAY-10
  6
CONTINUOUS
 62
     7
100
AcDbLine
 10
706.9999999999997
 20
570.6999999999762
 30
0.0
 11
706.9999999999997
 21
590.6999999999878
 31
0.0
  0
LINE
  5
156
330
1F
100
AcDbEntity
  8
LAY-10
  6
CONTINUOUS
 62
     7
100
AcDbLine
 10
716.9999999999997
 20
570.6999999999762
 30
0.0
 11
716.9999999999997
 21
590.6999999999878
 31
0.0
  0
LINE
  5
157
330
1F
100
AcDbEntity
  8
LAY-10
  6
CONTINUOUS
 62
     7
100
AcDbLine
 10
956.0
 20
631.0000000000002
 30
0.0
 11
959.0000000000003
 21
628.0000000000005
 31
0.0
  0
LINE
  5
158
330
1F
100
AcDbEntity
  8
LAY-10
  6
CONTINUOUS
 62
     7
100
AcDbLine
 10
955.0
 20
632.0000000000002
 30
0.0
 11
947.0000000000002
 21
640.0000000000003
 31
0.0
  0
LINE
  5
159
330
1F
100
AcDbEntity
  8
LAY-10
  6
CONTINUOUS
 62
     7
100
AcDbLine
 10
915.0
 20
640.0
 30
0.0
 11
915.0
 21
672.0
 31
0.0
  0
LINE
  5
15A
330
1F
100
AcDbEntity
  8
LAY-10
  6
CONTINUOUS
 62
     7
100
AcDbLine
 10
946.9999999999999
 20
672.0
 30
0.0
 11
915.0
 21
672.0
 31
0.0
  0
ARC
  5
15B
330
1F
100
AcDbEntity
  8
LAY-10
  6
CONTINUOUS
 62
     7
100
AcDbCircle
 10
953.9999999999995
 20
360.0000000000002
 30
0.0
 40
5.0
100
AcDbArc
 50
270.0000000000002
 51
0.0
  0
ARC
  5
15C
330
1F
100
AcDbEntity
  8
LAY-10
  6
CONTINUOUS
 62
     7
100
AcDbCircle
 10
954.9999999999995
 20
359.0000000000002
 30
0.0
 40
1.0
100
AcDbArc
 50
270.0000000000002
 51
0.0
  0
LINE
  5
15D
330
1F
100
AcDbEntity
  8
LAY-10
  6
CONTINUOUS
 62
     7
100
AcDbLine
 10
953.3998571428538
 20
394.200000000001
 30
0.0
 11
954.9999999999995
 21
408.0000000000002
 31
0.0
  0
LINE
  5
15E
330
1F
100
AcDbEntity
  8
LAY-10
  6
CONTINUOUS
 62
     7
100
AcDbLine
 10
953.3998571428538
 20
394.200000000001
 30
0.0
 11
950.9000000000005
 21
394.200000000001
 31
0.0
  0
LINE
  5
15F
330
1F
100
AcDbEntity
  8
LAY-10
  6
CONTINUOUS
 62
     7
100
AcDbLine
 10
950.0999999999999
 20
394.9999999999984
 30
0.0
 11
950.0999999999999
 21
382.9999999999939
 31
0.0
  0
LINE
  5
160
330
1F
100
AcDbEntity
  8
LAY-10
  6
CONTINUOUS
 62
     7
100
AcDbLine
 10
952.6872590219282
 20
394.9999999999984
 30
0.0
 11
950.0999999999999
 21
394.9999999999984
 31
0.0
  0
LINE
  5
161
330
1F
100
AcDbEntity
  8
LAY-10
  6
CONTINUOUS
 62
     7
100
AcDbLine
 10
951.1715783853388
 20
381.9284216146555
 30
0.0
 11
950.0999999999999
 21
382.9999999999939
 31
0.0
  0
LINE
  5
162
330
1F
100
AcDbEntity
  8
LAY-10
  6
CONTINUOUS
 62
     7
100
AcDbLine
 10
950.9000000000088
 20
383.3313708499002
 30
0.0
 11
952.0108123754808
 21
382.2205584744281
 31
0.0
  0
LINE
  5
163
330
1F
100
AcDbEntity
  8
LAY-10
  6
CONTINUOUS
 62
     7
100
AcDbLine
 10
950.1299999999896
 20
365.9999999999984
 30
0.0
 11
952.0108123754808
 21
382.2205584744281
 31
0.0
  0
LINE
  5
164
330
1F
100
AcDbEntity
  8
LAY-10
  6
CONTINUOUS
 62
     7
100
AcDbLine
 10
952.6872590219282
 20
394.9999999999984
 30
0.0
 11
954.1018780695504
 21
407.2000000000028
 31
0.0
  0
LINE
  5
165
330
1F
100
AcDbEntity
  8
LAY-10
  6
CONTINUOUS
 62
     7
100
AcDbLine
 10
949.4174018790642
 20
366.7999999999977
 30
0.0
 11
951.1715783853388
 21
381.9284216146555
 31
0.0
  0
LINE
  5
166
330
1F
100
AcDbEntity
  8
LAY-10
  6
CONTINUOUS
 62
     7
100
AcDbLine
 10
950.9000000000005
 20
394.200000000001
 30
0.0
 11
950.9000000000005
 21
383.3313708499002
 31
0.0
  0
LINE
  5
167
330
1F
100
AcDbEntity
  8
LAY-10
  6
CONTINUOUS
 62
     7
100
AcDbLine
 10
947.7999999999993
 20
407.2000000000028
 30
0.0
 11
954.0797052742287
 21
407.2000000000028
 31
0.0
  0
LINE
  5
168
330
1F
100
AcDbEntity
  8
LAY-10
  6
CONTINUOUS
 62
     7
100
AcDbLine
 10
947.7999999999993
 20
407.2000000000028
 30
0.0
 11
947.7999999999993
 21
401.8999999999999
 31
0.0
  0
LINE
  5
169
330
1F
100
AcDbEntity
  8
LAY-10
  6
CONTINUOUS
 62
     7
100
AcDbLine
 10
949.9999999999995
 20
371.8999999999944
 30
0.0
 11
946.9999999999995
 21
371.8999999999944
 31
0.0
  0
LINE
  5
16A
330
1F
100
AcDbEntity
  8
LAY-10
  6
CONTINUOUS
 62
     7
100
AcDbLine
 10
949.9999999999995
 20
401.8999999999999
 30
0.0
 11
949.9999999999995
 21
371.8999999999944
 31
0.0
  0
LINE
  5
16B
330
1F
100
AcDbEntity
  8
LAY-10
  6
CONTINUOUS
 62
     7
100
AcDbLine
 10
946.9999999999995
 20
401.8999999999999
 30
0.0
 11
949.9999999999995
 21
401.8999999999999
 31
0.0
  0
ARC
  5
16C
330
1F
100
AcDbEntity
  8
LAY-10
  6
CONTINUOUS
 62
     7
100
AcDbCircle
 10
915.9999999999997
 20
359.0000000000002
 30
0.0
 40
1.0
100
AcDbArc
 50
180.0
 51
270.0000000000002
  0
ARC
  5
16D
330
1F
100
AcDbEntity
  8
LAY-10
  6
CONTINUOUS
 62
     7
100
AcDbCircle
 10
914.9999999999997
 20
358.0000000000002
 30
0.0
 40
3.000000000000003
100
AcDbArc
 50
180.0
 51
270.0000000000002
  0
LINE
  5
16E
330
1F
100
AcDbEntity
  8
LAY-10
  6
CONTINUOUS
 62
     7
100
AcDbLine
 10
950.9999999999997
 20
365.9999999999984
 30
0.0
 11
950.9999999999997
 21
358.0000000000002
 31
0.0
  0
LINE
  5
16F
330
1F
100
AcDbEntity
  8
LAY-10
  6
CONTINUOUS
 62
     7
100
AcDbLine
 10
942.9999999999914
 20
365.9999999999984
 30
0.0
 11
942.9999999999914
 21
358.0000000000002
 31
0.0
  0
LINE
  5
170
330
1F
100
AcDbEntity
  8
LAY-10
  6
CONTINUOUS
 62
     7
100
AcDbLine
 10
914.9999999999997
 20
359.0000000000002
 30
0.0
 11
914.9999999999997
 21
365.9999999999984
 31
0.0
  0
LINE
  5
171
330
1F
100
AcDbEntity
  8
LAY-10
  6
CONTINUOUS
 62
     7
100
AcDbLine
 10
911.9999999999997
 20
365.9999999999984
 30
0.0
 11
911.9999999999997
 21
358.0000000000002
 31
0.0
  0
LINE
  5
172
330
1F
100
AcDbEntity
  8
LAY-10
  6
CONTINUOUS
 62
     7
100
AcDbLine
 10
946.4999999999992
 20
369.2999999999977
 30
0.0
 11
946.4999999999992
 21
366.7999999999977
 31
0.0
  0
LINE
  5
173
330
1F
100
AcDbEntity
  8
LAY-10
  6
CONTINUOUS
 62
     7
100
AcDbLine
 10
946.9999999999995
 20
408.0000000000002
 30
0.0
 11
946.9999999999995
 21
369.2999999999977
 31
0.0
  0
LINE
  5
174
330
1F
100
AcDbEntity
  8
LAY-10
  6
CONTINUOUS
 62
     7
100
AcDbLine
 10
941.9999999999995
 20
365.9999999999981
 30
0.0
 11
941.9999999999995
 21
366.7999999999974
 31
0.0
  0
LINE
  5
175
330
1F
100
AcDbEntity
  8
LAY-10
  6
CONTINUOUS
 62
     7
100
AcDbLine
 10
955.9999999999997
 20
408.0
 30
0.0
 11
958.9999999999995
 21
408.0
 31
0.0
  0
LINE
  5
176
330
1F
100
AcDbEntity
  8
LAY-10
  6
CONTINUOUS
 62
     7
100
AcDbLine
 10
955.9999999999997
 20
408.0
 30
0.0
 11
955.9999999999997
 21
359.0000000000002
 31
0.0
  0
LINE
  5
177
330
1F
100
AcDbEntity
  8
LAY-10
  6
CONTINUOUS
 62
     7
100
AcDbLine
 10
958.9999999999995
 20
408.0
 30
0.0
 11
958.9999999999995
 21
360.0000000000002
 31
0.0
  0
LINE
  5
178
330
1F
100
AcDbEntity
  8
LAY-10
  6
CONTINUOUS
 62
     7
100
AcDbLine
 10
963.9999999999995
 20
375.0000000000102
 30
0.0
 11
959.0
 21
375.0000000000102
 31
0.0
  0
LINE
  5
179
330
1F
100
AcDbEntity
  8
LAY-10
  6
CONTINUOUS
 62
     7
100
AcDbLine
 10
963.9999999999995
 20
371.0000000000002
 30
0.0
 11
959.0
 21
371.0000000000002
 31
0.0
  0
LINE
  5
17A
330
1F
100
AcDbEntity
  8
LAY-10
  6
CONTINUOUS
 62
     7
100
AcDbLine
 10
960.2608298763789
 20
378.0710678118583
 30
0.0
 11
958.9999999999936
 21
381.535169427
 31
0.0
  0
LINE
  5
17B
330
1F
100
AcDbEntity
  8
LAY-10
  6
CONTINUOUS
 62
     7
100
AcDbLine
 10
960.2608298763789
 20
367.9289321881408
 30
0.0
 11
958.9999999999936
 21
364.4648305729986
 31
0.0
  0
LINE
  5
17C
330
1F
100
AcDbEntity
  8
LAY-10
  6
CONTINUOUS
 62
     7
100
AcDbLine
 10
963.9999999999995
 20
378.0710678118601
 30
0.0
 11
959.0
 21
378.0710678118601
 31
0.0
  0
LINE
  5
17D
330
1F
100
AcDbEntity
  8
LAY-10
  6
CONTINUOUS
 62
     7
100
AcDbLine
 10
963.9999999999995
 20
367.9289321881403
 30
0.0
 11
959.0
 21
367.9289321881403
 31
0.0
  0
LINE
  5
17E
330
1F
100
AcDbEntity
  8
LAY-10
  6
CONTINUOUS
 62
     7
100
AcDbLine
 10
963.9999999999995
 20
388.0000000000002
 30
0.0
 11
966.2999999999997
 21
388.0000000000002
 31
0.0
  0
LINE
  5
17F
330
1F
100
AcDbEntity
  8
LAY-10
  6
CONTINUOUS
 62
     7
100
AcDbLine
 10
966.2999999999997
 20
388.0000000000002
 30
0.0
 11
966.2999999999997
 21
365.0000000000002
 31
0.0
  0
ARC
  5
180
330
1F
100
AcDbEntity
  8
LAY-10
  6
CONTINUOUS
 62
     7
100
AcDbCircle
 10
968.2999999999998
 20
365.0000000000002
 30
0.0
 40
2.0
100
AcDbArc
 50
180.0
 51
270.0000000000002
  0
LINE
  5
181
330
1F
100
AcDbEntity
  8
LAY-10
  6
CONTINUOUS
 62
     7
100
AcDbLine
 10
963.9999999999995
 20
388.0000000000002
 30
0.0
 11
963.9999999999995
 21
363.7
 31
0.0
  0
ARC
  5
182
330
1F
100
AcDbEntity
  8
LAY-10
  6
CONTINUOUS
 62
     7
100
AcDbCircle
 10
966.9999999999995
 20
363.7
 30
0.0
 40
3.000000000000003
100
AcDbArc
 50
180.0
 51
270.0000000000002
  0
LINE
  5
183
330
1F
100
AcDbEntity
  8
LAY-10
  6
CONTINUOUS
 62
     7
100
AcDbLine
 10
1016.3
 20
363.0000000000002
 30
0.0
 11
1016.3
 21
360.7
 31
0.0
  0
LINE
  5
184
330
1F
100
AcDbEntity
  8
LAY-10
  6
CONTINUOUS
 62
     7
100
AcDbLine
 10
991.3
 20
363.0000000000002
 30
0.0
 11
991.3
 21
360.7
 31
0.0
  0
LINE
  5
185
330
1F
100
AcDbEntity
  8
LAY-10
  6
CONTINUOUS
 62
     7
100
AcDbLine
 10
1016.3
 20
363.0000000000002
 30
0.0
 11
968.2999999999998
 21
363.0000000000002
 31
0.0
  0
LINE
  5
186
330
1F
100
AcDbEntity
  8
LAY-10
  6
CONTINUOUS
 62
     7
100
AcDbLine
 10
966.9999999999995
 20
360.7
 30
0.0
 11
1016.3
 21
360.7
 31
0.0
  0
LINE
  5
187
330
1F
100
AcDbEntity
  8
LAY-10
  6
CONTINUOUS
 62
     7
100
AcDbLine
 10
963.9999999999995
 20
368.0000000000002
 30
0.0
 11
966.2999999999997
 21
368.0000000000002
 31
0.0
  0
LINE
  5
188
330
1F
100
AcDbEntity
  8
LAY-10
  6
CONTINUOUS
 62
     7
100
AcDbLine
 10
963.9999999999995
 20
378.0000000000002
 30
0.0
 11
966.2999999999997
 21
378.0000000000002
 31
0.0
  0
LINE
  5
189
330
1F
100
AcDbEntity
  8
LAY-10
  6
CONTINUOUS
 62
     7
100
AcDbLine
 10
966.2999999999997
 20
376.0000000000011
 30
0.0
 11
963.9999999999995
 21
376.0000000000011
 31
0.0
  0
LINE
  5
18A
330
1F
100
AcDbEntity
  8
LAY-10
  6
CONTINUOUS
 62
     7
100
AcDbLine
 10
966.2999999999997
 20
370.0000000000002
 30
0.0
 11
963.9999999999995
 21
370.0000000000002
 31
0.0
  0
LINE
  5
18B
330
1F
100
AcDbEntity
  8
LAY-10
  6
CONTINUOUS
 62
     7
100
AcDbLine
 10
967.8999999999996
 20
367.0000000000002
 30
0.0
 11
970.4999999999997
 21
367.0000000000002
 31
0.0
  0
LINE
  5
18C
330
1F
100
AcDbEntity
  8
LAY-10
  6
CONTINUOUS
 62
     7
100
AcDbLine
 10
967.8999999999996
 20
379.0000000000007
 30
0.0
 11
970.4999999999997
 21
379.0000000000007
 31
0.0
  0
ARC
  5
18D
330
1F
100
AcDbEntity
  8
LAY-10
  6
CONTINUOUS
 62
     7
100
AcDbCircle
 10
962.4999999999995
 20
373.0000000000002
 30
0.0
 40
10.0
100
AcDbArc
 50
323.1301023541549
 51
354.2608295227327
  0
ARC
  5
18E
330
1F
100
AcDbEntity
  8
LAY-10
  6
CONTINUOUS
 62
     7
100
AcDbCircle
 10
962.4999999999995
 20
373.0000000000002
 30
0.0
 40
10.0
100
AcDbArc
 50
5.73917047726909
 51
36.86989764584704
  0
LINE
  5
18F
330
1F
100
AcDbEntity
  8
LAY-10
  6
CONTINUOUS
 62
     7
100
AcDbLine
 10
970.7999999999998
 20
374.0000000000002
 30
0.0
 11
970.7999999999998
 21
372.0000000000002
 31
0.0
  0
LINE
  5
190
330
1F
100
AcDbEntity
  8
LAY-10
  6
CONTINUOUS
 62
     7
100
AcDbLine
 10
972.4498743710661
 20
372.0000000000002
 30
0.0
 11
970.8999999999997
 21
372.0000000000002
 31
0.0
  0
LINE
  5
191
330
1F
100
AcDbEntity
  8
LAY-10
  6
CONTINUOUS
 62
     7
100
AcDbLine
 10
972.4498743710661
 20
374.0000000000007
 30
0.0
 11
970.7999999999998
 21
374.0000000000007
 31
0.0
  0
LINE
  5
192
330
1F
100
AcDbEntity
  8
LAY-10
  6
CONTINUOUS
 62
     7
100
AcDbLine
 10
966.2999999999997
 20
379.2499999999993
 30
0.0
 11
967.8999999999996
 21
379.2499999999993
 31
0.0
  0
LINE
  5
193
330
1F
100
AcDbEntity
  8
LAY-10
  6
CONTINUOUS
 62
     7
100
AcDbLine
 10
966.2999999999997
 20
366.7499999999997
 30
0.0
 11
967.8999999999996
 21
366.7499999999997
 31
0.0
  0
LINE
  5
194
330
1F
100
AcDbEntity
  8
LAY-10
  6
CONTINUOUS
 62
     7
100
AcDbLine
 10
967.8999999999996
 20
379.2499999999993
 30
0.0
 11
967.8999999999996
 21
366.7499999999997
 31
0.0
  0
ARC
  5
195
330
1F
100
AcDbEntity
  8
LAY-10
  6
CONTINUOUS
 62
     7
100
AcDbCircle
 10
923.4999999999997
 20
351.1559653679656
 30
0.0
 40
3.844034632034633
100
AcDbArc
 50
49.43137502659217
 51
130.5686249734078
  0
ARC
  5
196
330
1F
100
AcDbEntity
  8
LAY-10
  6
CONTINUOUS
 62
     7
100
AcDbCircle
 10
930.9999999999997
 20
341.0098614718615
 30
0.0
 40
13.99013852813853
100
AcDbArc
 50
69.05972439385741
 51
110.9402756061426
  0
ARC
  5
197
330
1F
100
AcDbEntity
  8
LAY-10
  6
CONTINUOUS
 62
     7
100
AcDbCircle
 10
938.4999999999997
 20
351.1559653679656
 30
0.0
 40
3.84403463203463
100
AcDbArc
 50
49.43137502659217
 51
130.5686249734078
  0
ARC
  5
198
330
1F
100
AcDbEntity
  8
LAY-10
  6
CONTINUOUS
 62
     7
100
AcDbCircle
 10
923.4999999999997
 20
338.8440346320347
 30
0.0
 40
3.844034632034633
100
AcDbArc
 50
229.4313750265922
 51
310.5686249734079
  0
ARC
  5
199
330
1F
100
AcDbEntity
  8
LAY-10
  6
CONTINUOUS
 62
     7
100
AcDbCircle
 10
930.9999999999997
 20
348.9901385281387
 30
0.0
 40
13.99013852813853
100
AcDbArc
 50
249.0597243938574
 51
290.9402756061426
  0
ARC
  5
19A
330
1F
100
AcDbEntity
  8
LAY-10
  6
CONTINUOUS
 62
     7
100
AcDbCircle
 10
938.4999999999997
 20
338.8440346320347
 30
0.0
 40
3.84403463203463
100
AcDbArc
 50
229.4313750265922
 51
310.5686249734079
  0
LINE
  5
19B
330
1F
100
AcDbEntity
  8
LAY-10
  6
CONTINUOUS
 62
     7
100
AcDbLine
 10
923.4999999999997
 20
335.0
 30
0.0
 11
938.4999999999997
 21
335.0
 31
0.0
  0
LINE
  5
19C
330
1F
100
AcDbEntity
  8
LAY-10
  6
CONTINUOUS
 62
     7
100
AcDbLine
 10
940.9999999999997
 20
335.924
 30
0.0
 11
940.9999999999997
 21
354.076
 31
0.0
  0
LINE
  5
19D
330
1F
100
AcDbEntity
  8
LAY-10
  6
CONTINUOUS
 62
     7
100
AcDbLine
 10
935.9999999999997
 20
335.924
 30
0.0
 11
935.9999999999997
 21
354.076
 31
0.0
  0
LINE
  5
19E
330
1F
100
AcDbEntity
  8
LAY-10
  6
CONTINUOUS
 62
     7
100
AcDbLine
 10
925.9999999999997
 20
335.924
 30
0.0
 11
925.9999999999997
 21
354.076
 31
0.0
  0
LINE
  5
19F
330
1F
100
AcDbEntity
  8
LAY-10
  6
CONTINUOUS
 62
     7
100
AcDbLine
 10
920.9999999999997
 20
335.924
 30
0.0
 11
920.9999999999997
 21
354.076
 31
0.0
  0
LINE
  5
1A0
330
1F
100
AcDbEntity
  8
LAY-10
  6
CONTINUOUS
 62
     7
100
AcDbLine
 10
938.4999999999997
 20
333.9999999999999
 30
0.0
 11
923.4999999999997
 21
333.9999999999999
 31
0.0
  0
LINE
  5
1A1
330
1F
100
AcDbEntity
  8
LAY-10
  6
CONTINUOUS
 62
     7
100
AcDbLine
 10
938.4999999999997
 20
333.9999999999999
 30
0.0
 11
938.4999999999997
 21
335.0
 31
0.0
  0
LINE
  5
1A2
330
1F
100
AcDbEntity
  8
LAY-10
  6
CONTINUOUS
 62
     7
100
AcDbLine
 10
923.4999999999997
 20
333.9999999999999
 30
0.0
 11
923.4999999999997
 21
335.0
 31
0.0
  0
LINE
  5
1A3
330
1F
100
AcDbEntity
  8
LAY-10
  6
CONTINUOUS
 62
     7
100
AcDbLine
 10
923.4999999999997
 20
369.2999999999979
 30
0.0
 11
923.4999999999997
 21
366.7999999999977
 31
0.0
  0
LINE
  5
1A4
330
1F
100
AcDbEntity
  8
LAY-10
  6
CONTINUOUS
 62
     7
100
AcDbLine
 10
938.4999999999997
 20
369.2999999999979
 30
0.0
 11
938.4999999999997
 21
366.7999999999977
 31
0.0
  0
LINE
  5
1A5
330
1F
100
AcDbEntity
  8
LAY-10
  6
CONTINUOUS
 62
     7
100
AcDbLine
 10
938.4999999999997
 20
358.0000000000002
 30
0.0
 11
938.4999999999997
 21
355.0000000000002
 31
0.0
  0
LINE
  5
1A6
330
1F
100
AcDbEntity
  8
LAY-10
  6
CONTINUOUS
 62
     7
100
AcDbLine
 10
923.4999999999997
 20
358.0000000000002
 30
0.0
 11
923.4999999999997
 21
355.0000000000002
 31
0.0
  0
LINE
  5
1A7
330
1F
100
AcDbEntity
  8
LAY-10
  6
CONTINUOUS
 62
     7
100
AcDbLine
 10
925.9999999999997
 20
365.9999999999984
 30
0.0
 11
925.2372372347481
 21
365.9999999999984
 31
0.0
  0
LINE
  5
1A8
330
1F
100
AcDbEntity
  8
LAY-10
  6
CONTINUOUS
 62
     7
100
AcDbLine
 10
925.9999999999997
 20
358.0000000000002
 30
0.0
 11
915.9999999999997
 21
358.0000000000002
 31
0.0
  0
LINE
  5
1A9
330
1F
100
AcDbEntity
  8
LAY-10
  6
CONTINUOUS
 62
     7
100
AcDbLine
 10
949.4174018790642
 20
366.7999999999977
 30
0.0
 11
935.9999999999997
 21
366.7999999999977
 31
0.0
  0
LINE
  5
1AA
330
1F
100
AcDbEntity
  8
LAY-10
  6
CONTINUOUS
 62
     7
100
AcDbLine
 10
950.9999999999997
 20
365.9999999999984
 30
0.0
 11
935.9999999999997
 21
365.9999999999984
 31
0.0
  0
LINE
  5
1AB
330
1F
100
AcDbEntity
  8
LAY-10
  6
CONTINUOUS
 62
     7
100
AcDbLine
 10
954.9999999999995
 20
358.0000000000002
 30
0.0
 11
935.9999999999997
 21
358.0000000000002
 31
0.0
  0
ELLIPSE
  5
1AC
330
1F
100
AcDbEntity
  8
LAY-10
  6
CONTINUOUS
 62
     7
100
AcDbEllipse
 10
921.4999999999998
 20
362.4000000000003
 30
0.0
 11
6.500000000000004
 21
0.0
 31
0.0
210
0.0
220
0.0
230
1.0
 40
0.6769230769230905
 41
0.0
 42
6.283185307179586
  0
LINE
  5
1AD
330
1F
100
AcDbEntity
  8
LAY-10
  6
CONTINUOUS
 62
     7
100
AcDbLine
 10
950.9999999999997
 20
366.0000000000002
 30
0.0
 11
942.9999999999895
 21
358.0000000000002
 31
0.0
  0
LINE
  5
1AE
330
1F
100
AcDbEntity
  8
LAY-10
  6
CONTINUOUS
 62
     7
100
AcDbLine
 10
950.9999999999997
 20
358.0000000000002
 30
0.0
 11
942.9999999999895
 21
366.0000000000002
 31
0.0
  0
LINE
  5
1AF
330
1F
100
AcDbEntity
  8
LAY-10
  6
CONTINUOUS
 62
     7
100
AcDbLine
 10
935.9999999999997
 20
369.2999999999988
 30
0.0
 11
935.9999999999997
 21
355.0000000000002
 31
0.0
  0
LINE
  5
1B0
330
1F
100
AcDbEntity
  8
LAY-10
  6
CONTINUOUS
 62
     7
100
AcDbLine
 10
934.9999999999991
 20
369.2999999999988
 30
0.0
 11
934.9999999999991
 21
355.0000000000002
 31
0.0
  0
LINE
  5
1B1
330
1F
100
AcDbEntity
  8
LAY-10
  6
CONTINUOUS
 62
     7
100
AcDbLine
 10
925.9999999999997
 20
369.2999999999988
 30
0.0
 11
925.9999999999997
 21
355.0000000000002
 31
0.0
  0
LINE
  5
1B2
330
1F
100
AcDbEntity
  8
LAY-10
  6
CONTINUOUS
 62
     7
100
AcDbLine
 10
927.0000000000005
 20
369.2999999999988
 30
0.0
 11
927.0000000000005
 21
355.0000000000002
 31
0.0
  0
LINE
  5
1B3
330
1F
100
AcDbEntity
  8
LAY-10
  6
CONTINUOUS
 62
     7
100
AcDbLine
 10
915.0000000000013
 20
407.2999999999997
 30
0.0
 11
915.0000000000013
 21
369.2999999999977
 31
0.0
  0
LINE
  5
1B4
330
1F
100
AcDbEntity
  8
LAY-10
  6
CONTINUOUS
 62
     7
100
AcDbLine
 10
946.9999999999995
 20
407.2999999999997
 30
0.0
 11
915.0000000000013
 21
407.2999999999997
 31
0.0
  0
LINE
  5
1B5
330
1F
100
AcDbEntity
  8
LAY-10
  6
CONTINUOUS
 62
     7
100
AcDbLine
 10
468.0000000000002
 20
631.0000000000002
 30
0.0
 11
465.0000000000005
 21
628.0000000000005
 31
0.0
  0
LINE
  5
1B6
330
1F
100
AcDbEntity
  8
LAY-10
  6
CONTINUOUS
 62
     7
100
AcDbLine
 10
469.0000000000005
 20
632.0000000000002
 30
0.0
 11
477.0000000000005
 21
640.0000000000003
 31
0.0
  0
LINE
  5
1B7
330
1F
100
AcDbEntity
  8
LAY-10
  6
CONTINUOUS
 62
     7
100
AcDbLine
 10
477.0
 20
672.0
 30
0.0
 11
509.0000000000001
 21
672.0
 31
0.0
  0
LINE
  5
1B8
330
1F
100
AcDbEntity
  8
LAY-10
  6
CONTINUOUS
 62
     7
100
AcDbLine
 10
509.0000000000001
 20
640.0000000000003
 30
0.0
 11
509.0000000000001
 21
672.0
 31
0.0
  0
ARC
  5
1B9
330
1F
100
AcDbEntity
  8
LAY-10
  6
CONTINUOUS
 62
     7
100
AcDbCircle
 10
470.0000000000009
 20
360.0000000000002
 30
0.0
 40
5.0
100
AcDbArc
 50
180.0
 51
270.0000000000002
  0
ARC
  5
1BA
330
1F
100
AcDbEntity
  8
LAY-10
  6
CONTINUOUS
 62
     7
100
AcDbCircle
 10
469.0000000000009
 20
359.0000000000005
 30
0.0
 40
1.0
100
AcDbArc
 50
180.0
 51
270.0000000000002
  0
LINE
  5
1BB
330
1F
100
AcDbEntity
  8
LAY-10
  6
CONTINUOUS
 62
     7
100
AcDbLine
 10
470.6001428571467
 20
394.200000000001
 30
0.0
 11
469.0000000000009
 21
408.0000000000002
 31
0.0
  0
LINE
  5
1BC
330
1F
100
AcDbEntity
  8
LAY-10
  6
CONTINUOUS
 62
     7
100
AcDbLine
 10
470.6001428571467
 20
394.200000000001
 30
0.0
 11
473.0999999999999
 21
394.200000000001
 31
0.0
  0
LINE
  5
1BD
330
1F
100
AcDbEntity
  8
LAY-10
  6
CONTINUOUS
 62
     7
100
AcDbLine
 10
473.9000000000005
 20
394.9999999999984
 30
0.0
 11
473.9000000000005
 21
382.999999999994
 31
0.0
  0
LINE
  5
1BE
330
1F
100
AcDbEntity
  8
LAY-10
  6
CONTINUOUS
 62
     7
100
AcDbLine
 10
471.3127409780723
 20
394.9999999999984
 30
0.0
 11
473.9000000000005
 21
394.9999999999984
 31
0.0
  0
LINE
  5
1BF
330
1F
100
AcDbEntity
  8
LAY-10
  6
CONTINUOUS
 62
     7
100
AcDbLine
 10
472.8284216146617
 20
381.9284216146557
 30
0.0
 11
473.9000000000005
 21
382.999999999994
 31
0.0
  0
LINE
  5
1C0
330
1F
100
AcDbEntity
  8
LAY-10
  6
CONTINUOUS
 62
     7
100
AcDbLine
 10
473.0999999999918
 20
383.3313708499004
 30
0.0
 11
471.9891876245197
 21
382.2205584744281
 31
0.0
  0
LINE
  5
1C1
330
1F
100
AcDbEntity
  8
LAY-10
  6
CONTINUOUS
 62
     7
100
AcDbLine
 10
473.8700000000108
 20
365.9999999999986
 30
0.0
 11
471.9891876245197
 21
382.2205584744281
 31
0.0
  0
LINE
  5
1C2
330
1F
100
AcDbEntity
  8
LAY-10
  6
CONTINUOUS
 62
     7
100
AcDbLine
 10
471.3127409780723
 20
394.9999999999984
 30
0.0
 11
469.8981219304501
 21
407.2000000000028
 31
0.0
  0
LINE
  5
1C3
330
1F
100
AcDbEntity
  8
LAY-10
  6
CONTINUOUS
 62
     7
100
AcDbLine
 10
474.5825981209364
 20
366.7999999999979
 30
0.0
 11
472.8284216146617
 21
381.9284216146557
 31
0.0
  0
LINE
  5
1C4
330
1F
100
AcDbEntity
  8
LAY-10
  6
CONTINUOUS
 62
     7
100
AcDbLine
 10
473.0999999999999
 20
394.200000000001
 30
0.0
 11
473.0999999999999
 21
383.3313708499004
 31
0.0
  0
LINE
  5
1C5
330
1F
100
AcDbEntity
  8
LAY-10
  6
CONTINUOUS
 62
     7
100
AcDbLine
 10
476.2000000000012
 20
407.2000000000028
 30
0.0
 11
469.9202947257718
 21
407.2000000000028
 31
0.0
  0
LINE
  5
1C6
330
1F
100
AcDbEntity
  8
LAY-10
  6
CONTINUOUS
 62
     7
100
AcDbLine
 10
476.2000000000012
 20
407.2000000000028
 30
0.0
 11
476.2000000000012
 21
401.9000000000001
 31
0.0
  0
LINE
  5
1C7
330
1F
100
AcDbEntity
  8
LAY-10
  6
CONTINUOUS
 62
     7
100
AcDbLine
 10
474.0000000000009
 20
371.8999999999946
 30
0.0
 11
477.0000000000009
 21
371.8999999999946
 31
0.0
  0
LINE
  5
1C8
330
1F
100
AcDbEntity
  8
LAY-10
  6
CONTINUOUS
 62
     7
100
AcDbLine
 10
474.0000000000009
 20
401.9000000000001
 30
0.0
 11
474.0000000000009
 21
371.8999999999946
 31
0.0
  0
LINE
  5
1C9
330
1F
100
AcDbEntity
  8
LAY-10
  6
CONTINUOUS
 62
     7
100
AcDbLine
 10
477.0000000000009
 20
401.9000000000001
 30
0.0
 11
474.0000000000009
 21
401.9000000000001
 31
0.0
  0
ARC
  5
1CA
330
1F
100
AcDbEntity
  8
LAY-10
  6
CONTINUOUS
 62
     7
100
AcDbCircle
 10
508.0000000000008
 20
359.0000000000005
 30
0.0
 40
1.0
100
AcDbArc
 50
270.0000000000002
 51
0.0
  0
ARC
  5
1CB
330
1F
100
AcDbEntity
  8
LAY-10
  6
CONTINUOUS
 62
     7
100
AcDbCircle
 10
509.0000000000008
 20
358.0000000000002
 30
0.0
 40
3.000000000000003
100
AcDbArc
 50
270.0000000000002
 51
0.0
  0
LINE
  5
1CC
330
1F
100
AcDbEntity
  8
LAY-10
  6
CONTINUOUS
 62
     7
100
AcDbLine
 10
473.000000000001
 20
365.9999999999986
 30
0.0
 11
473.000000000001
 21
358.0000000000005
 31
0.0
  0
LINE
  5
1CD
330
1F
100
AcDbEntity
  8
LAY-10
  6
CONTINUOUS
 62
     7
100
AcDbLine
 10
481.0000000000091
 20
365.9999999999986
 30
0.0
 11
481.0000000000091
 21
358.0000000000002
 31
0.0
  0
LINE
  5
1CE
330
1F
100
AcDbEntity
  8
LAY-10
  6
CONTINUOUS
 62
     7
100
AcDbLine
 10
509.0000000000008
 20
359.0000000000005
 30
0.0
 11
509.0000000000008
 21
365.9999999999986
 31
0.0
  0
LINE
  5
1CF
330
1F
100
AcDbEntity
  8
LAY-10
  6
CONTINUOUS
 62
     7
100
AcDbLine
 10
512.0000000000008
 20
365.9999999999986
 30
0.0
 11
512.0000000000008
 21
358.0000000000002
 31
0.0
  0
LINE
  5
1D0
330
1F
100
AcDbEntity
  8
LAY-10
  6
CONTINUOUS
 62
     7
100
AcDbLine
 10
477.5000000000014
 20
369.2999999999979
 30
0.0
 11
477.5000000000014
 21
366.7999999999979
 31
0.0
  0
LINE
  5
1D1
330
1F
100
AcDbEntity
  8
LAY-10
  6
CONTINUOUS
 62
     7
100
AcDbLine
 10
477.0000000000009
 20
408.0000000000002
 30
0.0
 11
477.0000000000009
 21
369.2999999999979
 31
0.0
  0
LINE
  5
1D2
330
1F
100
AcDbEntity
  8
LAY-10
  6
CONTINUOUS
 62
     7
100
AcDbLine
 10
482.0000000000009
 20
365.9999999999984
 30
0.0
 11
482.0000000000009
 21
366.7999999999977
 31
0.0
  0
LINE
  5
1D3
330
1F
100
AcDbEntity
  8
LAY-10
  6
CONTINUOUS
 62
     7
100
AcDbLine
 10
468.000000000001
 20
408.0
 30
0.0
 11
465.0000000000009
 21
408.0000000000002
 31
0.0
  0
LINE
  5
1D4
330
1F
100
AcDbEntity
  8
LAY-10
  6
CONTINUOUS
 62
     7
100
AcDbLine
 10
468.000000000001
 20
408.0
 30
0.0
 11
468.000000000001
 21
359.0000000000005
 31
0.0
  0
LINE
  5
1D5
330
1F
100
AcDbEntity
  8
LAY-10
  6
CONTINUOUS
 62
     7
100
AcDbLine
 10
465.0000000000009
 20
408.0000000000002
 30
0.0
 11
465.0000000000009
 21
360.0000000000002
 31
0.0
  0
LINE
  5
1D6
330
1F
100
AcDbEntity
  8
LAY-10
  6
CONTINUOUS
 62
     7
100
AcDbLine
 10
460.0000000000009
 20
375.0000000000104
 30
0.0
 11
465.0000000000005
 21
375.0000000000104
 31
0.0
  0
LINE
  5
1D7
330
1F
100
AcDbEntity
  8
LAY-10
  6
CONTINUOUS
 62
     7
100
AcDbLine
 10
460.0000000000009
 20
371.0000000000004
 30
0.0
 11
465.0000000000005
 21
371.0000000000004
 31
0.0
  0
LINE
  5
1D8
330
1F
100
AcDbEntity
  8
LAY-10
  6
CONTINUOUS
 62
     7
100
AcDbLine
 10
463.7391701236215
 20
378.0710678118585
 30
0.0
 11
465.0000000000068
 21
381.535169427
 31
0.0
  0
LINE
  5
1D9
330
1F
100
AcDbEntity
  8
LAY-10
  6
CONTINUOUS
 62
     7
100
AcDbLine
 10
463.7391701236215
 20
367.9289321881411
 30
0.0
 11
465.0000000000068
 21
364.4648305729988
 31
0.0
  0
LINE
  5
1DA
330
1F
100
AcDbEntity
  8
LAY-10
  6
CONTINUOUS
 62
     7
100
AcDbLine
 10
460.0000000000009
 20
378.0710678118602
 30
0.0
 11
465.0000000000005
 21
378.0710678118602
 31
0.0
  0
LINE
  5
1DB
330
1F
100
AcDbEntity
  8
LAY-10
  6
CONTINUOUS
 62
     7
100
AcDbLine
 10
460.0000000000009
 20
367.9289321881403
 30
0.0
 11
465.0000000000005
 21
367.9289321881403
 31
0.0
  0
LINE
  5
1DC
330
1F
100
AcDbEntity
  8
LAY-10
  6
CONTINUOUS
 62
     7
100
AcDbLine
 10
460.0000000000009
 20
388.0000000000005
 30
0.0
 11
457.7000000000007
 21
388.0000000000005
 31
0.0
  0
LINE
  5
1DD
330
1F
100
AcDbEntity
  8
LAY-10
  6
CONTINUOUS
 62
     7
100
AcDbLine
 10
457.7000000000007
 20
388.0000000000005
 30
0.0
 11
457.7000000000007
 21
365.0000000000002
 31
0.0
  0
ARC
  5
1DE
330
1F
100
AcDbEntity
  8
LAY-10
  6
CONTINUOUS
 62
     7
100
AcDbCircle
 10
455.7000000000007
 20
365.0000000000002
 30
0.0
 40
2.0
100
AcDbArc
 50
270.0000000000002
 51
0.0
  0
LINE
  5
1DF
330
1F
100
AcDbEntity
  8
LAY-10
  6
CONTINUOUS
 62
     7
100
AcDbLine
 10
460.0000000000009
 20
388.0000000000005
 30
0.0
 11
460.0000000000009
 21
363.7000000000002
 31
0.0
  0
ARC
  5
1E0
330
1F
100
AcDbEntity
  8
LAY-10
  6
CONTINUOUS
 62
     7
100
AcDbCircle
 10
457.0000000000009
 20
363.7000000000002
 30
0.0
 40
3.000000000000003
100
AcDbArc
 50
270.0000000000002
 51
0.0
  0
LINE
  5
1E1
330
1F
100
AcDbEntity
  8
LAY-10
  6
CONTINUOUS
 62
     7
100
AcDbLine
 10
407.7000000000007
 20
363.0000000000005
 30
0.0
 11
407.7000000000007
 21
360.7000000000003
 31
0.0
  0
LINE
  5
1E2
330
1F
100
AcDbEntity
  8
LAY-10
  6
CONTINUOUS
 62
     7
100
AcDbLine
 10
432.7000000000007
 20
363.0000000000005
 30
0.0
 11
432.7000000000007
 21
360.7000000000003
 31
0.0
  0
LINE
  5
1E3
330
1F
100
AcDbEntity
  8
LAY-10
  6
CONTINUOUS
 62
     7
100
AcDbLine
 10
407.7000000000007
 20
363.0000000000005
 30
0.0
 11
455.7000000000007
 21
363.0000000000005
 31
0.0
  0
LINE
  5
1E4
330
1F
100
AcDbEntity
  8
LAY-10
  6
CONTINUOUS
 62
     7
100
AcDbLine
 10
457.0000000000009
 20
360.7000000000003
 30
0.0
 11
407.7000000000007
 21
360.7000000000003
 31
0.0
  0
LINE
  5
1E5
330
1F
100
AcDbEntity
  8
LAY-10
  6
CONTINUOUS
 62
     7
100
AcDbLine
 10
460.0000000000009
 20
368.0000000000005
 30
0.0
 11
457.7000000000007
 21
368.0000000000005
 31
0.0
  0
LINE
  5
1E6
330
1F
100
AcDbEntity
  8
LAY-10
  6
CONTINUOUS
 62
     7
100
AcDbLine
 10
460.0000000000009
 20
378.0000000000005
 30
0.0
 11
457.7000000000007
 21
378.0000000000005
 31
0.0
  0
LINE
  5
1E7
330
1F
100
AcDbEntity
  8
LAY-10
  6
CONTINUOUS
 62
     7
100
AcDbLine
 10
457.7000000000007
 20
376.0000000000011
 30
0.0
 11
460.0000000000009
 21
376.0000000000011
 31
0.0
  0
LINE
  5
1E8
330
1F
100
AcDbEntity
  8
LAY-10
  6
CONTINUOUS
 62
     7
100
AcDbLine
 10
457.7000000000007
 20
370.0000000000002
 30
0.0
 11
460.0000000000009
 21
370.0000000000002
 31
0.0
  0
LINE
  5
1E9
330
1F
100
AcDbEntity
  8
LAY-10
  6
CONTINUOUS
 62
     7
100
AcDbLine
 10
456.1000000000008
 20
367.0000000000002
 30
0.0
 11
453.5000000000009
 21
367.0000000000002
 31
0.0
  0
LINE
  5
1EA
330
1F
100
AcDbEntity
  8
LAY-10
  6
CONTINUOUS
 62
     7
100
AcDbLine
 10
456.1000000000008
 20
379.0000000000007
 30
0.0
 11
453.5000000000009
 21
379.0000000000007
 31
0.0
  0
ARC
  5
1EB
330
1F
100
AcDbEntity
  8
LAY-10
  6
CONTINUOUS
 62
     7
100
AcDbCircle
 10
461.5000000000009
 20
373.0000000000005
 30
0.0
 40
10.0
100
AcDbArc
 50
185.7391704772675
 51
216.8698976458459
  0
ARC
  5
1EC
330
1F
100
AcDbEntity
  8
LAY-10
  6
CONTINUOUS
 62
     7
100
AcDbCircle
 10
461.5000000000009
 20
373.0000000000005
 30
0.0
 40
10.0
100
AcDbArc
 50
143.1301023541536
 51
174.2608295227313
  0
LINE
  5
1ED
330
1F
100
AcDbEntity
  8
LAY-10
  6
CONTINUOUS
 62
     7
100
AcDbLine
 10
453.2000000000007
 20
374.0000000000005
 30
0.0
 11
453.2000000000007
 21
372.0000000000002
 31
0.0
  0
LINE
  5
1EE
330
1F
100
AcDbEntity
  8
LAY-10
  6
CONTINUOUS
 62
     7
100
AcDbLine
 10
451.5501256289344
 20
372.0000000000002
 30
0.0
 11
453.1000000000008
 21
372.0000000000002
 31
0.0
  0
LINE
  5
1EF
330
1F
100
AcDbEntity
  8
LAY-10
  6
CONTINUOUS
 62
     7
100
AcDbLine
 10
451.5501256289344
 20
374.0000000000007
 30
0.0
 11
453.2000000000007
 21
374.0000000000007
 31
0.0
  0
LINE
  5
1F0
330
1F
100
AcDbEntity
  8
LAY-10
  6
CONTINUOUS
 62
     7
100
AcDbLine
 10
457.7000000000007
 20
379.2499999999993
 30
0.0
 11
456.1000000000008
 21
379.2499999999993
 31
0.0
  0
LINE
  5
1F1
330
1F
100
AcDbEntity
  8
LAY-10
  6
CONTINUOUS
 62
     7
100
AcDbLine
 10
457.7000000000007
 20
366.7499999999997
 30
0.0
 11
456.1000000000008
 21
366.7499999999997
 31
0.0
  0
LINE
  5
1F2
330
1F
100
AcDbEntity
  8
LAY-10
  6
CONTINUOUS
 62
     7
100
AcDbLine
 10
456.1000000000008
 20
379.2499999999993
 30
0.0
 11
456.1000000000008
 21
366.7499999999997
 31
0.0
  0
ARC
  5
1F3
330
1F
100
AcDbEntity
  8
LAY-10
  6
CONTINUOUS
 62
     7
100
AcDbCircle
 10
500.5000000000008
 20
351.1559653679656
 30
0.0
 40
3.844034632034633
100
AcDbArc
 50
49.43137502659246
 51
130.5686249734089
  0
ARC
  5
1F4
330
1F
100
AcDbEntity
  8
LAY-10
  6
CONTINUOUS
 62
     7
100
AcDbCircle
 10
493.000000000001
 20
341.0098614718615
 30
0.0
 40
13.99013852813853
100
AcDbArc
 50
69.05972439385746
 51
110.9402756061426
  0
ARC
  5
1F5
330
1F
100
AcDbEntity
  8
LAY-10
  6
CONTINUOUS
 62
     7
100
AcDbCircle
 10
485.500000000001
 20
351.1559653679656
 30
0.0
 40
3.84403463203463
100
AcDbArc
 50
49.43137502659217
 51
130.5686249734078
  0
ARC
  5
1F6
330
1F
100
AcDbEntity
  8
LAY-10
  6
CONTINUOUS
 62
     7
100
AcDbCircle
 10
500.5000000000008
 20
338.8440346320347
 30
0.0
 40
3.844034632034633
100
AcDbArc
 50
229.4313750265909
 51
310.5686249734079
  0
ARC
  5
1F7
330
1F
100
AcDbEntity
  8
LAY-10
  6
CONTINUOUS
 62
     7
100
AcDbCircle
 10
493.000000000001
 20
348.9901385281387
 30
0.0
 40
13.99013852813853
100
AcDbArc
 50
249.0597243938574
 51
290.9402756061426
  0
ARC
  5
1F8
330
1F
100
AcDbEntity
  8
LAY-10
  6
CONTINUOUS
 62
     7
100
AcDbCircle
 10
485.500000000001
 20
338.8440346320347
 30
0.0
 40
3.84403463203463
100
AcDbArc
 50
229.4313750265922
 51
310.5686249734079
  0
LINE
  5
1F9
330
1F
100
AcDbEntity
  8
LAY-10
  6
CONTINUOUS
 62
     7
100
AcDbLine
 10
483.000000000001
 20
335.9240000000001
 30
0.0
 11
483.000000000001
 21
354.076
 31
0.0
  0
LINE
  5
1FA
330
1F
100
AcDbEntity
  8
LAY-10
  6
CONTINUOUS
 62
     7
100
AcDbLine
 10
488.000000000001
 20
335.9240000000001
 30
0.0
 11
488.000000000001
 21
354.076
 31
0.0
  0
LINE
  5
1FB
330
1F
100
AcDbEntity
  8
LAY-10
  6
CONTINUOUS
 62
     7
100
AcDbLine
 10
498.000000000001
 20
335.924
 30
0.0
 11
498.000000000001
 21
354.076
 31
0.0
  0
LINE
  5
1FC
330
1F
100
AcDbEntity
  8
LAY-10
  6
CONTINUOUS
 62
     7
100
AcDbLine
 10
503.0000000000008
 20
335.924
 30
0.0
 11
503.0000000000008
 21
354.076
 31
0.0
  0
LINE
  5
1FD
330
1F
100
AcDbEntity
  8
LAY-10
  6
CONTINUOUS
 62
     7
100
AcDbLine
 10
485.500000000001
 20
334.0000000000002
 30
0.0
 11
500.5000000000008
 21
334.0000000000002
 31
0.0
  0
LINE
  5
1FE
330
1F
100
AcDbEntity
  8
LAY-10
  6
CONTINUOUS
 62
     7
100
AcDbLine
 10
485.500000000001
 20
334.0000000000002
 30
0.0
 11
485.500000000001
 21
335.0000000000002
 31
0.0
  0
LINE
  5
1FF
330
1F
100
AcDbEntity
  8
LAY-10
  6
CONTINUOUS
 62
     7
100
AcDbLine
 10
500.5000000000008
 20
334.0000000000002
 30
0.0
 11
500.5000000000008
 21
335.0
 31
0.0
  0
LINE
  5
200
330
1F
100
AcDbEntity
  8
LAY-10
  6
CONTINUOUS
 62
     7
100
AcDbLine
 10
485.500000000001
 20
369.2999999999979
 30
0.0
 11
485.500000000001
 21
366.7999999999979
 31
0.0
  0
LINE
  5
201
330
1F
100
AcDbEntity
  8
LAY-10
  6
CONTINUOUS
 62
     7
100
AcDbLine
 10
485.500000000001
 20
358.0000000000002
 30
0.0
 11
485.500000000001
 21
355.0000000000002
 31
0.0
  0
LINE
  5
202
330
1F
100
AcDbEntity
  8
LAY-10
  6
CONTINUOUS
 62
     7
100
AcDbLine
 10
500.5000000000008
 20
358.0000000000002
 30
0.0
 11
500.5000000000008
 21
355.0000000000002
 31
0.0
  0
LINE
  5
203
330
1F
100
AcDbEntity
  8
LAY-10
  6
CONTINUOUS
 62
     7
100
AcDbLine
 10
498.000000000001
 20
365.9999999999986
 30
0.0
 11
498.7627627652523
 21
365.9999999999986
 31
0.0
  0
LINE
  5
204
330
1F
100
AcDbEntity
  8
LAY-10
  6
CONTINUOUS
 62
     7
100
AcDbLine
 10
498.000000000001
 20
358.0000000000002
 30
0.0
 11
508.0000000000008
 21
358.0000000000002
 31
0.0
  0
LINE
  5
205
330
1F
100
AcDbEntity
  8
LAY-10
  6
CONTINUOUS
 62
     7
100
AcDbLine
 10
474.5825981209364
 20
366.7999999999979
 30
0.0
 11
488.000000000001
 21
366.7999999999979
 31
0.0
  0
LINE
  5
206
330
1F
100
AcDbEntity
  8
LAY-10
  6
CONTINUOUS
 62
     7
100
AcDbLine
 10
473.000000000001
 20
365.9999999999986
 30
0.0
 11
488.000000000001
 21
365.9999999999986
 31
0.0
  0
LINE
  5
207
330
1F
100
AcDbEntity
  8
LAY-10
  6
CONTINUOUS
 62
     7
100
AcDbLine
 10
469.0000000000009
 20
358.0000000000005
 30
0.0
 11
488.000000000001
 21
358.0000000000002
 31
0.0
  0
ELLIPSE
  5
208
330
1F
100
AcDbEntity
  8
LAY-10
  6
CONTINUOUS
 62
     7
100
AcDbEllipse
 10
502.5000000000009
 20
362.4000000000003
 30
0.0
 11
6.500000000000004
 21
0.0
 31
0.0
210
0.0
220
0.0
230
1.0
 40
0.6769230769230905
 41
0.0
 42
6.283185307179586
  0
LINE
  5
209
330
1F
100
AcDbEntity
  8
LAY-10
  6
CONTINUOUS
 62
     7
100
AcDbLine
 10
473.000000000001
 20
366.0000000000004
 30
0.0
 11
481.0000000000109
 21
358.0000000000002
 31
0.0
  0
LINE
  5
20A
330
1F
100
AcDbEntity
  8
LAY-10
  6
CONTINUOUS
 62
     7
100
AcDbLine
 10
473.000000000001
 20
358.0000000000005
 30
0.0
 11
481.0000000000109
 21
366.0000000000002
 31
0.0
  0
LINE
  5
20B
330
1F
100
AcDbEntity
  8
LAY-10
  6
CONTINUOUS
 62
     7
100
AcDbLine
 10
500.5000000000008
 20
335.0
 30
0.0
 11
485.500000000001
 21
335.0000000000002
 31
0.0
  0
LINE
  5
20C
330
1F
100
AcDbEntity
  8
LAY-10
  6
CONTINUOUS
 62
     7
100
AcDbLine
 10
500.5000000000008
 20
369.2999999999979
 30
0.0
 11
500.5000000000008
 21
366.7999999999979
 31
0.0
  0
LINE
  5
20D
330
1F
100
AcDbEntity
  8
LAY-10
  6
CONTINUOUS
 62
     7
100
AcDbLine
 10
488.000000000001
 20
369.2999999999988
 30
0.0
 11
488.000000000001
 21
355.0000000000002
 31
0.0
  0
LINE
  5
20E
330
1F
100
AcDbEntity
  8
LAY-10
  6
CONTINUOUS
 62
     7
100
AcDbLine
 10
489.0000000000014
 20
369.2999999999988
 30
0.0
 11
489.0000000000014
 21
355.0000000000002
 31
0.0
  0
LINE
  5
20F
330
1F
100
AcDbEntity
  8
LAY-10
  6
CONTINUOUS
 62
     7
100
AcDbLine
 10
498.000000000001
 20
369.299999999999
 30
0.0
 11
498.000000000001
 21
355.0000000000002
 31
0.0
  0
LINE
  5
210
330
1F
100
AcDbEntity
  8
LAY-10
  6
CONTINUOUS
 62
     7
100
AcDbLine
 10
497.0
 20
369.299999999999
 30
0.0
 11
497.0
 21
355.0000000000002
 31
0.0
  0
LINE
  5
211
330
1F
100
AcDbEntity
  8
LAY-10
  6
CONTINUOUS
 62
     7
100
AcDbLine
 10
508.9999999999992
 20
407.2999999999997
 30
0.0
 11
508.9999999999992
 21
369.2999999999979
 31
0.0
  0
LINE
  5
212
330
1F
100
AcDbEntity
  8
LAY-10
  6
CONTINUOUS
 62
     7
100
AcDbLine
 10
477.0000000000009
 20
407.2999999999997
 30
0.0
 11
508.9999999999992
 21
407.2999999999997
 31
0.0
  0
LINE
  5
213
330
1F
100
AcDbEntity
  8
LAY-10
  6
CONTINUOUS
 62
     7
100
AcDbLine
 10
465.0000000000005
 20
628.0000000000005
 30
0.0
 11
959.0000000000003
 21
628.0000000000005
 31
0.0
  0
LINE
  5
214
330
1F
100
AcDbEntity
  8
LAY-10
  6
CONTINUOUS
 62
     7
100
AcDbLine
 10
468.0000000000002
 20
631.0000000000002
 30
0.0
 11
956.0
 21
631.0000000000002
 31
0.0
  0
LINE
  5
215
330
1F
100
AcDbEntity
  8
LAY-10
  6
CONTINUOUS
 62
     7
100
AcDbLine
 10
469.0000000000005
 20
632.0000000000002
 30
0.0
 11
955.0
 21
632.0000000000002
 31
0.0
  0
LINE
  5
216
330
1F
100
AcDbEntity
  8
LAY-10
  6
CONTINUOUS
 62
     7
100
AcDbLine
 10
477.0000000000005
 20
640.0000000000003
 30
0.0
 11
947.0000000000002
 21
640.0000000000003
 31
0.0
  0
LINE
  5
217
330
1F
100
AcDbEntity
  8
LAY-10
  6
CONTINUOUS
 62
     7
100
AcDbLine
 10
469.0000000000001
 20
408.0000000000005
 30
0.0
 11
955.0
 21
408.0000000000007
 31
0.0
  0
LINE
  5
218
330
1F
100
AcDbEntity
  8
LAY-10
  6
CONTINUOUS
 62
     7
100
AcDbLine
 10
470.0
 20
355.0000000000005
 30
0.0
 11
954.0000000000005
 21
355.0000000000005
 31
0.0
  0
LINE
  5
219
330
1F
100
AcDbEntity
  8
LAY-10
  6
CONTINUOUS
 62
     7
100
AcDbLine
 10
947.0000000000005
 20
1110.0
 30
0.0
 11
947.0000000000002
 21
640.0000000000003
 31
0.0
  0
LINE
  5
21A
330
1F
100
AcDbEntity
  8
LAY-10
  6
CONTINUOUS
 62
     7
100
AcDbLine
 10
955.0
 20
632.0000000000002
 30
0.0
 11
955.0000000000006
 21
1118.0
 31
0.0
  0
LINE
  5
21B
330
1F
100
AcDbEntity
  8
LAY-10
  6
CONTINUOUS
 62
     7
100
AcDbLine
 10
956.0
 20
1119.0
 30
0.0
 11
956.0
 21
631.0000000000002
 31
0.0
  0
LINE
  5
21C
330
1F
100
AcDbEntity
  8
LAY-10
  6
CONTINUOUS
 62
     7
100
AcDbLine
 10
959.0000000000003
 20
628.0000000000005
 30
0.0
 11
959.0000000000003
 21
1122.0
 31
0.0
  0
LINE
  5
21D
330
1F
100
AcDbEntity
  8
LAY-10
  6
CONTINUOUS
 62
     7
100
AcDbLine
 10
465.0000000000005
 20
628.0000000000005
 30
0.0
 11
465.0000000000005
 21
1122.0
 31
0.0
  0
LINE
  5
21E
330
1F
100
AcDbEntity
  8
LAY-10
  6
CONTINUOUS
 62
     7
100
AcDbLine
 10
468.0000000000005
 20
1119.0
 30
0.0
 11
468.0000000000002
 21
631.0000000000002
 31
0.0
  0
LINE
  5
21F
330
1F
100
AcDbEntity
  8
LAY-10
  6
CONTINUOUS
 62
     7
100
AcDbLine
 10
469.0000000000005
 20
632.0000000000002
 30
0.0
 11
469.0000000000005
 21
1118.0
 31
0.0
  0
LINE
  5
220
330
1F
100
AcDbEntity
  8
LAY-10
  6
CONTINUOUS
 62
     7
100
AcDbLine
 10
477.0000000000005
 20
1110.0
 30
0.0
 11
477.0000000000005
 21
640.0000000000003
 31
0.0
  0
LINE
  5
221
330
1F
100
AcDbEntity
  8
LAY-10
  6
CONTINUOUS
 62
     7
100
AcDbLine
 10
721.9999999999995
 20
640.0000000000003
 30
0.0
 11
721.9999999999995
 21
1110.0
 31
0.0
  0
LINE
  5
222
330
1F
100
AcDbEntity
  8
LAY-10
  6
CONTINUOUS
 62
     7
100
AcDbLine
 10
733.9999999999998
 20
1110.0
 30
0.0
 11
733.9999999999998
 21
640.0000000000003
 31
0.0
  0
LINE
  5
223
330
1F
100
AcDbEntity
  8
LAY-10
  6
CONTINUOUS
 62
     7
100
AcDbLine
 10
701.9999999999997
 20
640.0000000000003
 30
0.0
 11
701.9999999999997
 21
1110.0
 31
0.0
  0
LINE
  5
224
330
1F
100
AcDbEntity
  8
LAY-10
  6
CONTINUOUS
 62
     7
100
AcDbLine
 10
689.9999999999995
 20
1110.0
 30
0.0
 11
689.9999999999995
 21
640.0000000000003
 31
0.0
  0
LINE
  5
225
330
1F
100
AcDbEntity
  8
LAY-10
  6
CONTINUOUS
 62
     7
100
AcDbLine
 10
734.0000000000001
 20
381.2999999999902
 30
0.0
 11
734.0000000000001
 21
379.2999999999904
 31
0.0
  0
LINE
  5
226
330
1F
100
AcDbEntity
  8
LAY-10
  6
CONTINUOUS
 62
     7
100
AcDbLine
 10
689.9999999999966
 20
381.2999999999902
 30
0.0
 11
689.9999999999966
 21
379.2999999999904
 31
0.0
  0
LINE
  5
227
330
1F
100
AcDbEntity
  8
LAY-10
  6
CONTINUOUS
 62
     7
100
AcDbLine
 10
699.9999999999819
 20
379.3000000000004
 30
0.0
 11
699.9999999999819
 21
371.3000000000001
 31
0.0
  0
ARC
  5
228
330
1F
100
AcDbEntity
  8
LAY-10
  6
CONTINUOUS
 62
     7
100
AcDbCircle
 10
701.9999999999819
 20
371.3000000000001
 30
0.0
 40
2.0
100
AcDbArc
 50
180.0
 51
270.0000000000002
  0
LINE
  5
229
330
1F
100
AcDbEntity
  8
LAY-10
  6
CONTINUOUS
 62
     7
100
AcDbLine
 10
701.9999999999966
 20
379.3000000000004
 30
0.0
 11
701.9999999999966
 21
371.3000000000001
 31
0.0
  0
ARC
  5
22A
330
1F
100
AcDbEntity
  8
LAY-10
  6
CONTINUOUS
 62
     7
100
AcDbCircle
 10
699.9999999999969
 20
379.3000000000004
 30
0.0
 40
2.0
100
AcDbArc
 50
0.0
 51
90.00000000000001
  0
LINE
  5
22B
330
1F
100
AcDbEntity
  8
LAY-10
  6
CONTINUOUS
 62
     7
100
AcDbLine
 10
689.9999999999966
 20
379.2999999999904
 30
0.0
 11
699.9999999999819
 21
379.3000000000004
 31
0.0
  0
LINE
  5
22C
330
1F
100
AcDbEntity
  8
LAY-10
  6
CONTINUOUS
 62
     7
100
AcDbLine
 10
689.9999999999966
 20
381.2999999999902
 30
0.0
 11
699.9999999999969
 21
381.3000000000001
 31
0.0
  0
LINE
  5
22D
330
1F
100
AcDbEntity
  8
LAY-10
  6
CONTINUOUS
 62
     7
100
AcDbLine
 10
724.0000000000152
 20
379.3000000000004
 30
0.0
 11
724.0000000000152
 21
371.3000000000001
 31
0.0
  0
ARC
  5
22E
330
1F
100
AcDbEntity
  8
LAY-10
  6
CONTINUOUS
 62
     7
100
AcDbCircle
 10
722.0000000000149
 20
371.3000000000001
 30
0.0
 40
2.0
100
AcDbArc
 50
270.0000000000002
 51
0.0
  0
LINE
  5
22F
330
1F
100
AcDbEntity
  8
LAY-10
  6
CONTINUOUS
 62
     7
100
AcDbLine
 10
722.0000000000001
 20
379.3000000000004
 30
0.0
 11
722.0000000000001
 21
371.3000000000001
 31
0.0
  0
ARC
  5
230
330
1F
100
AcDbEntity
  8
LAY-10
  6
CONTINUOUS
 62
     7
100
AcDbCircle
 10
724.0000000000001
 20
379.3000000000004
 30
0.0
 40
2.0
100
AcDbArc
 50
90.00000000000001
 51
180.0
  0
LINE
  5
231
330
1F
100
AcDbEntity
  8
LAY-10
  6
CONTINUOUS
 62
     7
100
AcDbLine
 10
734.0000000000001
 20
379.2999999999904
 30
0.0
 11
724.0000000000152
 21
379.3000000000004
 31
0.0
  0
LINE
  5
232
330
1F
100
AcDbEntity
  8
LAY-10
  6
CONTINUOUS
 62
     7
100
AcDbLine
 10
734.0000000000001
 20
381.2999999999902
 30
0.0
 11
724.0000000000001
 21
381.3000000000001
 31
0.0
  0
LINE
  5
233
330
1F
100
AcDbEntity
  8
LAY-10
  6
CONTINUOUS
 62
     7
100
AcDbLine
 10
722.0000000000001
 20
371.3000000000001
 30
0.0
 11
702.0000000000001
 21
371.3000000000001
 31
0.0
  0
LINE
  5
234
330
1F
100
AcDbEntity
  8
LAY-10
  6
CONTINUOUS
 62
     7
100
AcDbLine
 10
947.0
 20
369.2999999999988
 30
0.0
 11
477.0
 21
369.3000000000059
 31
0.0
  0
LINE
  5
235
330
1F
100
AcDbEntity
  8
LAY-10
  6
CONTINUOUS
 62
     7
100
AcDbLine
 10
925.9999999999997
 20
366.8
 30
0.0
 11
498.000000000001
 21
366.8
 31
0.0
  0
LINE
  5
236
330
1F
100
AcDbEntity
  8
LAY-10
  6
CONTINUOUS
 62
     7
100
AcDbLine
 10
917.7627627652593
 20
366.0000000000038
 30
0.0
 11
506.237237234738
 21
366.0000000000038
 31
0.0
  0
CIRCLE
  5
237
330
1F
100
AcDbEntity
  8
LAY-10
  6
CONTINUOUS
 62
     7
100
AcDbCircle
 10
492.9999999999997
 20
1094.0
 30
0.0
 40
13.00000000000001
  0
LINE
  5
238
330
1F
100
AcDbEntity
  8
LAY-10
  6
CONTINUOUS
 62
     7
100
AcDbLine
 10
482.5000000001056
 20
1098.000000000049
 30
0.0
 11
482.5000000001056
 21
1090.000000000051
 31
0.0
  0
LINE
  5
239
330
1F
100
AcDbEntity
  8
LAY-10
  6
CONTINUOUS
 62
     7
100
AcDbLine
 10
482.5000000001056
 20
1098.000000000049
 30
0.0
 11
480.8936999873005
 21
1098.000000000049
 31
0.0
  0
LINE
  5
23A
330
1F
100
AcDbEntity
  8
LAY-10
  6
CONTINUOUS
 62
     7
100
AcDbLine
 10
482.5000000001056
 20
1090.000000000051
 30
0.0
 11
480.8936999873005
 21
1090.000000000051
 31
0.0
  0
LINE
  5
23B
330
1F
100
AcDbEntity
  8
LAY-10
  6
CONTINUOUS
 62
     7
100
AcDbLine
 10
489.0000000001038
 20
1094.00000000005
 30
0.0
 11
493.0000000001039
 21
1100.50000000005
 31
0.0
  0
LINE
  5
23C
330
1F
100
AcDbEntity
  8
LAY-10
  6
CONTINUOUS
 62
     7
100
AcDbLine
 10
493.0000000001039
 20
1100.50000000005
 30
0.0
 11
497.0000000001038
 21
1094.00000000005
 31
0.0
  0
LINE
  5
23D
330
1F
100
AcDbEntity
  8
LAY-10
  6
CONTINUOUS
 62
     7
100
AcDbLine
 10
497.0000000001038
 20
1094.00000000005
 30
0.0
 11
493.0000000001039
 21
1087.50000000005
 31
0.0
  0
LINE
  5
23E
330
1F
100
AcDbEntity
  8
LAY-10
  6
CONTINUOUS
 62
     7
100
AcDbLine
 10
493.0000000001039
 20
1087.50000000005
 30
0.0
 11
489.0000000001038
 21
1094.00000000005
 31
0.0
  0
CIRCLE
  5
23F
330
1F
100
AcDbEntity
  8
LAY-10
  6
CONTINUOUS
 62
     7
100
AcDbCircle
 10
493.0000000001039
 20
1094.00000000005
 30
0.0
 40
12.75000000000001
  0
CIRCLE
  5
240
330
1F
100
AcDbEntity
  8
LAY-10
  6
CONTINUOUS
 62
     7
100
AcDbCircle
 10
930.9999999999997
 20
1094.0
 30
0.0
 40
13.00000000000001
  0
LINE
  5
241
330
1F
100
AcDbEntity
  8
LAY-10
  6
CONTINUOUS
 62
     7
100
AcDbLine
 10
920.5000000001055
 20
1098.000000000049
 30
0.0
 11
920.5000000001055
 21
1090.000000000051
 31
0.0
  0
LINE
  5
242
330
1F
100
AcDbEntity
  8
LAY-10
  6
CONTINUOUS
 62
     7
100
AcDbLine
 10
920.5000000001055
 20
1098.000000000049
 30
0.0
 11
918.8936999873005
 21
1098.000000000049
 31
0.0
  0
LINE
  5
243
330
1F
100
AcDbEntity
  8
LAY-10
  6
CONTINUOUS
 62
     7
100
AcDbLine
 10
920.5000000001055
 20
1090.000000000051
 30
0.0
 11
918.8936999873005
 21
1090.000000000051
 31
0.0
  0
LINE
  5
244
330
1F
100
AcDbEntity
  8
LAY-10
  6
CONTINUOUS
 62
     7
100
AcDbLine
 10
927.0000000001037
 20
1094.00000000005
 30
0.0
 11
931.0000000001037
 21
1100.50000000005
 31
0.0
  0
LINE
  5
245
330
1F
100
AcDbEntity
  8
LAY-10
  6
CONTINUOUS
 62
     7
100
AcDbLine
 10
931.0000000001037
 20
1100.50000000005
 30
0.0
 11
935.0000000001037
 21
1094.00000000005
 31
0.0
  0
LINE
  5
246
330
1F
100
AcDbEntity
  8
LAY-10
  6
CONTINUOUS
 62
     7
100
AcDbLine
 10
935.0000000001037
 20
1094.00000000005
 30
0.0
 11
931.0000000001037
 21
1087.50000000005
 31
0.0
  0
LINE
  5
247
330
1F
100
AcDbEntity
  8
LAY-10
  6
CONTINUOUS
 62
     7
100
AcDbLine
 10
931.0000000001037
 20
1087.50000000005
 30
0.0
 11
927.0000000001037
 21
1094.00000000005
 31
0.0
  0
CIRCLE
  5
248
330
1F
100
AcDbEntity
  8
LAY-10
  6
CONTINUOUS
 62
     7
100
AcDbCircle
 10
931.0000000001037
 20
1094.00000000005
 30
0.0
 40
12.75000000000001
  0
CIRCLE
  5
249
330
1F
100
AcDbEntity
  8
LAY-10
  6
CONTINUOUS
 62
     7
100
AcDbCircle
 10
930.9999999999997
 20
656.0000000000005
 30
0.0
 40
13.00000000000001
  0
LINE
  5
24A
330
1F
100
AcDbEntity
  8
LAY-10
  6
CONTINUOUS
 62
     7
100
AcDbLine
 10
920.5000000001055
 20
660.0000000000491
 30
0.0
 11
920.5000000001055
 21
652.0000000000508
 31
0.0
  0
LINE
  5
24B
330
1F
100
AcDbEntity
  8
LAY-10
  6
CONTINUOUS
 62
     7
100
AcDbLine
 10
920.5000000001055
 20
660.0000000000491
 30
0.0
 11
918.8936999873005
 21
660.0000000000491
 31
0.0
  0
LINE
  5
24C
330
1F
100
AcDbEntity
  8
LAY-10
  6
CONTINUOUS
 62
     7
100
AcDbLine
 10
920.5000000001055
 20
652.0000000000508
 30
0.0
 11
918.8936999873005
 21
652.0000000000508
 31
0.0
  0
LINE
  5
24D
330
1F
100
AcDbEntity
  8
LAY-10
  6
CONTINUOUS
 62
     7
100
AcDbLine
 10
927.0000000001037
 20
656.0000000000495
 30
0.0
 11
931.0000000001037
 21
662.50000000005
 31
0.0
  0
LINE
  5
24E
330
1F
100
AcDbEntity
  8
LAY-10
  6
CONTINUOUS
 62
     7
100
AcDbLine
 10
931.0000000001037
 20
662.50000000005
 30
0.0
 11
935.0000000001037
 21
656.0000000000495
 31
0.0
  0
LINE
  5
24F
330
1F
100
AcDbEntity
  8
LAY-10
  6
CONTINUOUS
 62
     7
100
AcDbLine
 10
935.0000000001037
 20
656.0000000000495
 30
0.0
 11
931.0000000001037
 21
649.5000000000496
 31
0.0
  0
LINE
  5
250
330
1F
100
AcDbEntity
  8
LAY-10
  6
CONTINUOUS
 62
     7
100
AcDbLine
 10
931.0000000001037
 20
649.5000000000496
 30
0.0
 11
927.0000000001037
 21
656.0000000000495
 31
0.0
  0
CIRCLE
  5
251
330
1F
100
AcDbEntity
  8
LAY-10
  6
CONTINUOUS
 62
     7
100
AcDbCircle
 10
931.0000000001037
 20
656.00000000005
 30
0.0
 40
12.75000000000001
  0
CIRCLE
  5
252
330
1F
100
AcDbEntity
  8
LAY-10
  6
CONTINUOUS
 62
     7
100
AcDbCircle
 10
492.9999999999997
 20
656.0000000000005
 30
0.0
 40
13.00000000000001
  0
LINE
  5
253
330
1F
100
AcDbEntity
  8
LAY-10
  6
CONTINUOUS
 62
     7
100
AcDbLine
 10
482.5000000001056
 20
660.0000000000491
 30
0.0
 11
482.5000000001056
 21
652.0000000000508
 31
0.0
  0
LINE
  5
254
330
1F
100
AcDbEntity
  8
LAY-10
  6
CONTINUOUS
 62
     7
100
AcDbLine
 10
482.5000000001056
 20
660.0000000000491
 30
0.0
 11
480.8936999873005
 21
660.0000000000491
 31
0.0
  0
LINE
  5
255
330
1F
100
AcDbEntity
  8
LAY-10
  6
CONTINUOUS
 62
     7
100
AcDbLine
 10
482.5000000001056
 20
652.0000000000508
 30
0.0
 11
480.8936999873005
 21
652.0000000000508
 31
0.0
  0
LINE
  5
256
330
1F
100
AcDbEntity
  8
LAY-10
  6
CONTINUOUS
 62
     7
100
AcDbLine
 10
489.0000000001038
 20
656.0000000000495
 30
0.0
 11
493.0000000001039
 21
662.50000000005
 31
0.0
  0
LINE
  5
257
330
1F
100
AcDbEntity
  8
LAY-10
  6
CONTINUOUS
 62
     7
100
AcDbLine
 10
493.0000000001039
 20
662.50000000005
 30
0.0
 11
497.0000000001038
 21
656.0000000000495
 31
0.0
  0
LINE
  5
258
330
1F
100
AcDbEntity
  8
LAY-10
  6
CONTINUOUS
 62
     7
100
AcDbLine
 10
497.0000000001038
 20
656.0000000000495
 30
0.0
 11
493.0000000001039
 21
649.5000000000496
 31
0.0
  0
LINE
  5
259
330
1F
100
AcDbEntity
  8
LAY-10
  6
CONTINUOUS
 62
     7
100
AcDbLine
 10
493.0000000001039
 20
649.5000000000496
 30
0.0
 11
489.0000000001038
 21
656.0000000000495
 31
0.0
  0
CIRCLE
  5
25A
330
1F
100
AcDbEntity
  8
LAY-10
  6
CONTINUOUS
 62
     7
100
AcDbCircle
 10
493.0000000001039
 20
656.00000000005
 30
0.0
 40
12.75000000000001
  0
LINE
  5
25B
330
1F
100
AcDbEntity
  8
LAY-10
  6
CENTER
 62
     2
100
AcDbLine
 10
407.69999999998
 20
875.0000000000002
 30
0.0
 11
1016.3
 21
875.0000000000003
 31
0.0
  0
LINE
  5
25C
330
1F
100
AcDbEntity
  8
LAY-10
  6
CENTER
 62
     2
100
AcDbLine
 10
949.5
 20
1094.0
 30
0.0
 11
912.5
 21
1094.0
 31
0.0
  0
LINE
  5
25D
330
1F
100
AcDbEntity
  8
LAY-10
  6
CENTER
 62
     2
100
AcDbLine
 10
931.0
 20
1075.5
 30
0.0
 11
931.0
 21
1112.5
 31
0.0
  0
LINE
  5
25E
330
1F
100
AcDbEntity
  8
LAY-10
  6
CENTER
 62
     2
100
AcDbLine
 10
493.0000000000002
 20
1112.5
 30
0.0
 11
493.0000000000002
 21
1075.5
 31
0.0
  0
LINE
  5
25F
330
1F
100
AcDbEntity
  8
LAY-10
  6
CENTER
 62
     2
100
AcDbLine
 10
511.5000000000001
 20
1094.0
 30
0.0
 11
474.5
 21
1094.0
 31
0.0
  0
LINE
  5
260
330
1F
100
AcDbEntity
  8
LAY-10
  6
CENTER
 62
     2
100
AcDbLine
 10
712.0000000000002
 20
417.0000000000002
 30
0.0
 11
712.0000000000002
 21
337.0
 31
0.0
  0
LINE
  5
261
330
1F
100
AcDbEntity
  8
LAY-10
  6
CENTER
 62
     2
100
AcDbLine
 10
930.9999999999998
 20
637.5
 30
0.0
 11
930.9999999999998
 21
674.5
 31
0.0
  0
LINE
  5
262
330
1F
100
AcDbEntity
  8
LAY-10
  6
CENTER
 62
     2
100
AcDbLine
 10
912.5
 20
656.0
 30
0.0
 11
949.5
 21
656.0
 31
0.0
  0
LINE
  5
263
330
1F
100
AcDbEntity
  8
LAY-10
  6
CENTER
 62
     2
100
AcDbLine
 10
955.9999999999997
 20
373.0000000000002
 30
0.0
 11
973.9999999999998
 21
373.0000000000002
 31
0.0
  0
LINE
  5
264
330
1F
100
AcDbEntity
  8
LAY-10
  6
CENTER
 62
     2
100
AcDbLine
 10
930.9999999999997
 20
410.8000000000004
 30
0.0
 11
930.9999999999997
 21
332.1000000000001
 31
0.0
  0
LINE
  5
265
330
1F
100
AcDbEntity
  8
LAY-10
  6
CENTER
 62
     2
100
AcDbLine
 10
474.5
 20
656.0000000000002
 30
0.0
 11
511.5000000000001
 21
656.0000000000002
 31
0.0
  0
LINE
  5
266
330
1F
100
AcDbEntity
  8
LAY-10
  6
CENTER
 62
     2
100
AcDbLine
 10
493.0
 20
674.5
 30
0.0
 11
493.0
 21
637.5
 31
0.0
  0
LINE
  5
267
330
1F
100
AcDbEntity
  8
LAY-10
  6
CENTER
 62
     2
100
AcDbLine
 10
468.000000000001
 20
373.0000000000005
 30
0.0
 11
450.0000000000009
 21
373.0000000000005
 31
0.0
  0
LINE
  5
268
330
1F
100
AcDbEntity
  8
LAY-10
  6
CENTER
 62
     2
100
AcDbLine
 10
493.000000000001
 20
410.8000000000004
 30
0.0
 11
493.000000000001
 21
332.1000000000001
 31
0.0
  0
LINE
  5
269
330
1F
100
AcDbEntity
  8
LAY-10
  6
CENTER
 62
     2
100
AcDbLine
 10
711.9999999999997
 20
570.69999999998
 30
0.0
 11
711.9999999999997
 21
1179.3
 31
0.0
  0
DIMENSION
  5
26B
330
1F
100
AcDbEntity
  8
LAY-20
  6
CONTINUOUS
 62
     4
100
AcDbDimension
  2
*D15
 10
1059.5012701892
 20
355.0
 30
0.0
 11
1047.0012701892
 21
381.5000000000001
 31
0.0
 70
   160
  3
ISO-25
100
AcDbAlignedDimension
 13
959.0
 23
408.0
 33
0.0
 14
954.0
 24
355.0
 34
0.0
 50
90.0
100
AcDbRotatedDimension
1001
ACAD
1000
DSTYLE
1002
{
1070
   270
1070
     2
1070
     6
1000
EX_BNORM
1070
     7
1000
EX_BNORM
1070
    41
1040
12.5
1070
    42
1040
7.5
1070
    44
1040
7.5
1070
    73
1070
     0
1070
    74
1070
     0
1070
    75
1070
     0
1070
    76
1070
     0
1070
    77
1070
     1
1070
    78
1070
     8
1070
   140
1040
15.590552
1070
   147
1040
0.0
1070
   173
1070
     1
1070
   176
1070
     4
1070
   177
1070
     4
1070
   178
1070
     7
1070
   271
1070
     1
1070
   277
1070
     2
1070
   279
1070
     2
1070
   280
1070
     0
1070
   287
1070
     5
1070
   340
1005
26A
1002
}
  0
DIMENSION
  5
279
330
1F
100
AcDbEntity
  8
LAY-20
  6
CONTINUOUS
 62
     4
100
AcDbDimension
  2
*D16
 10
959.0
 20
493.0
 30
0.0
 11
712.0
 21
505.5
 31
0.0
 70
   160
  1
□<>
  3
ISO-25
100
AcDbAlignedDimension
 13
464.9999999999999
 23
408.0
 33
0.0
 14
959.0
 24
408.0
 34
0.0
100
AcDbRotatedDimension
1001
ACAD
1000
DSTYLE
1002
{
1070
   270
1070
     2
1070
     6
1000
EX_BNORM
1070
     7
1000
EX_BNORM
1070
    41
1040
12.5
1070
    42
1040
7.5
1070
    44
1040
7.5
1070
    73
1070
     0
1070
    74
1070
     0
1070
    75
1070
     0
1070
    76
1070
     0
1070
    77
1070
     1
1070
    78
1070
     8
1070
   140
1040
15.590552
1070
   147
1040
0.0
1070
   173
1070
     1
1070
   176
1070
     4
1070
   177
1070
     4
1070
   178
1070
     7
1070
   271
1070
     1
1070
   277
1070
     2
1070
   279
1070
     2
1070
   280
1070
     0
1070
   287
1070
     5
1070
   340
1005
26A
1002
}
  0
DIMENSION
  5
286
330
1F
100
AcDbEntity
  8
LAY-20
  6
CONTINUOUS
 62
     4
100
AcDbDimension
  2
*D17
 10
468.9999999999999
 20
457.5
 30
0.0
 11
712.0
 21
470.0
 31
0.0
 70
   160
  1
□<>
  3
ISO-25
100
AcDbAlignedDimension
 13
955.0000000000001
 23
408.0
 33
0.0
 14
468.9999999999999
 24
408.0
 34
0.0
100
AcDbRotatedDimension
1001
ACAD
1000
DSTYLE
1002
{
1070
   270
1070
     2
1070
     6
1000
EX_BNORM
1070
     7
1000
EX_BNORM
1070
    41
1040
12.5
1070
    42
1040
7.5
1070
    44
1040
7.5
1070
    73
1070
     0
1070
    74
1070
     0
1070
    75
1070
     0
1070
    76
1070
     0
1070
    77
1070
     1
1070
    78
1070
     8
1070
   140
1040
15.590552
1070
   147
1040
0.0
1070
   173
1070
     1
1070
   176
1070
     4
1070
   177
1070
     4
1070
   178
1070
     7
1070
   271
1070
     1
1070
   277
1070
     2
1070
   279
1070
     2
1070
   280
1070
     0
1070
   287
1070
     5
1070
   340
1005
26A
1002
}
  0
DIMENSION
  5
293
330
1F
100
AcDbEntity
  8
LAY-20
  6
CONTINUOUS
 62
     4
100
AcDbDimension
  2
*D18
 10
959.0
 20
269.5
 30
0.0
 11
712.0
 21
282.0
 31
0.0
 70
   160
  1
□<>
  3
ISO-25
100
AcDbAlignedDimension
 13
464.9999999999999
 23
360.0
 33
0.0
 14
959.0
 24
360.0
 34
0.0
100
AcDbRotatedDimension
1001
ACAD
1000
DSTYLE
1002
{
1070
   270
1070
     2
1070
     6
1000
EX_BNORM
1070
     7
1000
EX_BNORM
1070
    41
1040
12.5
1070
    42
1040
7.5
1070
    44
1040
7.5
1070
    73
1070
     0
1070
    74
1070
     0
1070
    75
1070
     0
1070
    76
1070
     0
1070
    77
1070
     1
1070
    78
1070
     8
1070
   140
1040
15.590552
1070
   147
1040
0.0
1070
   173
1070
     1
1070
   176
1070
     4
1070
   177
1070
     4
1070
   178
1070
     7
1070
   271
1070
     1
1070
   277
1070
     2
1070
   279
1070
     2
1070
   280
1070
     0
1070
   287
1070
     5
1070
   340
1005
26A
1002
}
  0
DIMENSION
  5
2A0
330
1F
100
AcDbEntity
  8
LAY-20
  6
CONTINUOUS
 62
     4
100
AcDbDimension
  2
*D19
 10
511.9999999999999
 20
305.5
 30
0.0
 11
711.9999999999999
 21
318.0
 31
0.0
 70
   160
  1
□<>
  3
ISO-25
100
AcDbAlignedDimension
 13
912.0
 23
358.0
 33
0.0
 14
511.9999999999999
 24
358.0
 34
0.0
100
AcDbRotatedDimension
1001
ACAD
1000
DSTYLE
1002
{
1070
   270
1070
     2
1070
     6
1000
EX_BNORM
1070
     7
1000
EX_BNORM
1070
    41
1040
12.5
1070
    42
1040
7.5
1070
    44
1040
7.5
1070
    73
1070
     0
1070
    74
1070
     0
1070
    75
1070
     0
1070
    76
1070
     0
1070
    77
1070
     1
1070
    78
1070
     8
1070
   140
1040
15.590552
1070
   147
1040
0.0
1070
   173
1070
     1
1070
   176
1070
     4
1070
   177
1070
     4
1070
   178
1070
     7
1070
   271
1070
     1
1070
   277
1070
     2
1070
   279
1070
     2
1070
   280
1070
     0
1070
   287
1070
     5
1070
   340
1005
26A
1002
}
  0
DIMENSION
  5
2AD
330
1F
100
AcDbEntity
  8
LAY-20
  6
CONTINUOUS
 62
     4
100
AcDbDimension
  2
*D20
 10
784.0
 20
408.0
 30
0.0
 11
771.5000000000001
 21
437.9999999999997
 31
0.0
 70
   160
  3
ISO-25
100
AcDbAlignedDimension
 13
734.0
 23
382.0
 33
0.0
 14
784.0
 24
408.0
 34
0.0
 50
90.0
100
AcDbRotatedDimension
1001
ACAD
1000
DSTYLE
1002
{
1070
   270
1070
     2
1070
     6
1000
EX_BCIR
1070
     7
1000
EX_BNORM
1070
    41
1040
5.0
1070
    42
1040
7.5
1070
    44
1040
7.5
1070
    73
1070
     0
1070
    74
1070
     0
1070
    75
1070
     0
1070
    76
1070
     1
1070
    77
1070
     1
1070
    78
1070
     8
1070
   140
1040
15.590552
1070
   147
1040
0.0
1070
   173
1070
     1
1070
   176
1070
     4
1070
   177
1070
     4
1070
   178
1070
     7
1070
   271
1070
     1
1070
   277
1070
     2
1070
   279
1070
     2
1070
   280
1070
     2
1070
   287
1070
     5
1070
   340
1005
26A
1002
}
  0
DIMENSION
  5
2B9
330
1F
100
AcDbEntity
  8
LAY-20
  6
CONTINUOUS
 62
     4
100
AcDbDimension
  2
*D21
 10
784.0
 20
370.0
 30
0.0
 11
771.5
 21
339.9999999999998
 31
0.0
 70
   160
  3
ISO-25
100
AcDbAlignedDimension
 13
784.0
 23
382.0
 33
0.0
 14
784.0
 24
370.0
 34
0.0
 50
90.0
100
AcDbRotatedDimension
1001
ACAD
1000
DSTYLE
1002
{
1070
   270
1070
     2
1070
     6
1000
EX_BCIR
1070
     7
1000
EX_BNORM
1070
    41
1040
5.0
1070
    42
1040
0.0
1070
    44
1040
0.0
1070
    73
1070
     0
1070
    74
1070
     0
1070
    75
1070
     1
1070
    76
1070
     1
1070
    77
1070
     1
1070
    78
1070
     8
1070
   140
1040
15.590552
1070
   147
1040
0.0
1070
   173
1070
     1
1070
   176
1070
     4
1070
   177
1070
     4
1070
   178
1070
     7
1070
   271
1070
     1
1070
   277
1070
     2
1070
   279
1070
     2
1070
   280
1070
     2
1070
   287
1070
     5
1070
   340
1005
26A
1002
}
  0
LINE
  5
2C4
330
1F
100
AcDbEntity
  8
LAY-255
  6
CONTINUOUS
 62
     7
100
AcDbLine
 10
1925.0
 20
110.0
 30
0.0
 11
1425.0
 21
110.0
 31
0.0
  0
LINE
  5
2C5
330
1F
100
AcDbEntity
  8
LAY-255
  6
CONTINUOUS
 62
     7
100
AcDbLine
 10
1444.0
 20
79.99999999999999
 30
0.0
 11
1484.0
 21
105.0
 31
0.0
  0
LINE
  5
2C6
330
1F
100
AcDbEntity
  8
LAY-255
  6
CONTINUOUS
 62
     7
100
AcDbLine
 10
1484.0
 20
105.0
 30
0.0
 11
1524.0
 21
79.99999999999999
 31
0.0
  0
LINE
  5
2C7
330
1F
100
AcDbEntity
  8
LAY-255
  6
CONTINUOUS
 62
     7
100
AcDbLine
 10
1524.0
 20
79.99999999999999
 30
0.0
 11
1484.0
 21
55.0
 31
0.0
  0
LINE
  5
2C8
330
1F
100
AcDbEntity
  8
LAY-255
  6
CONTINUOUS
 62
     7
100
AcDbLine
 10
1484.0
 20
55.0
 30
0.0
 11
1444.0
 21
79.99999999999999
 31
0.0
  0
LINE
  5
2C9
330
1F
100
AcDbEntity
  8
LAY-255
  6
CONTINUOUS
 62
     7
100
AcDbLine
 10
25.0
 20
50.0
 30
0.0
 11
1925.0
 21
50.0
 31
0.0
  0
LINE
  5
2CA
330
1F
100
AcDbEntity
  8
LAY-255
  6
CONTINUOUS
 62
     7
100
AcDbLine
 10
25.0
 20
1400.0
 30
0.0
 11
1925.0
 21
1400.0
 31
0.0
  0
LINE
  5
2CB
330
1F
100
AcDbEntity
  8
LAY-255
  6
CONTINUOUS
 62
     7
100
AcDbLine
 10
25.0
 20
50.0
 30
0.0
 11
25.0
 21
1400.0
 31
0.0
  0
LINE
  5
2CC
330
1F
100
AcDbEntity
  8
LAY-255
  6
CONTINUOUS
 62
     4
100
AcDbLine
 10
1425.0
 20
140.0
 30
0.0
 11
1925.0
 21
140.0
 31
0.0
  0
LINE
  5
2CD
330
1F
100
AcDbEntity
  8
LAY-255
  6
CONTINUOUS
 62
     4
100
AcDbLine
 10
1675.0
 20
140.0
 30
0.0
 11
1675.0
 21
110.0
 31
0.0
  0
LINE
  5
2CE
330
1F
100
AcDbEntity
  8
LAY-255
  6
CONTINUOUS
 62
     7
100
AcDbLine
 10
1925.0
 20
50.0
 30
0.0
 11
1925.0
 21
1400.0
 31
0.0
  0
POINT
  5
2CF
330
1F
100
AcDbEntity
  8
LAY-255
  6
CONTINUOUS
 62
     7
100
AcDbPoint
 10
1445.0
 20
175.0
 30
0.0
  0
POINT
  5
2D0
330
1F
100
AcDbEntity
  8
LAY-255
  6
CONTINUOUS
 62
     7
100
AcDbPoint
 10
1445.0
 20
150.0
 30
0.0
  0
LINE
  5
2D1
330
1F
100
AcDbEntity
  8
LAY-255
  6
CONTINUOUS
 62
     7
100
AcDbLine
 10
1925.0
 20
385.0
 30
0.0
 11
1425.0
 21
385.0
 31
0.0
  0
LINE
  5
2D2
330
1F
100
AcDbEntity
  8
LAY-255
  6
CONTINUOUS
 62
     4
100
AcDbLine
 10
1915.0
 20
325.0
 30
0.0
 11
1435.0
 21
325.0
 31
0.0
  0
LINE
  5
2D3
330
1F
100
AcDbEntity
  8
LAY-255
  6
CONTINUOUS
 62
     4
100
AcDbLine
 10
1915.0
 20
355.0
 30
0.0
 11
1435.0
 21
355.0
 31
0.0
  0
POINT
  5
2D4
330
1F
100
AcDbEntity
  8
LAY-255
  6
CONTINUOUS
 62
     7
100
AcDbPoint
 10
1445.0
 20
300.0
 30
0.0
  0
POINT
  5
2D5
330
1F
100
AcDbEntity
  8
LAY-255
  6
CONTINUOUS
 62
     7
100
AcDbPoint
 10
1500.0
 20
330.0
 30
0.0
  0
POINT
  5
2D6
330
1F
100
AcDbEntity
  8
LAY-255
  6
CONTINUOUS
 62
     7
100
AcDbPoint
 10
1500.0
 20
360.0
 30
0.0
  0
POINT
  5
2D7
330
1F
100
AcDbEntity
  8
LAY-255
  6
CONTINUOUS
 62
     7
100
AcDbPoint
 10
1445.0
 20
275.0
 30
0.0
  0
POINT
  5
2D8
330
1F
100
AcDbEntity
  8
LAY-255
  6
CONTINUOUS
 62
     7
100
AcDbPoint
 10
1445.0
 20
250.0
 30
0.0
  0
POINT
  5
2D9
330
1F
100
AcDbEntity
  8
LAY-255
  6
CONTINUOUS
 62
     7
100
AcDbPoint
 10
1445.0
 20
225.0
 30
0.0
  0
POINT
  5
2DA
330
1F
100
AcDbEntity
  8
LAY-255
  6
CONTINUOUS
 62
     7
100
AcDbPoint
 10
1445.0
 20
200.0
 30
0.0
  0
LINE
  5
2DB
330
1F
100
AcDbEntity
  8
LAY-255
  6
CONTINUOUS
 62
     7
100
AcDbLine
 10
1425.0
 20
50.0
 30
0.0
 11
1425.0
 21
385.0
 31
0.0
  0
TEXT
  5
2DC
330
1F
100
AcDbEntity
  8
LAY-255
  6
CONTINUOUS
 62
     7
100
AcDbText
 10
1540.691894370117
 20
77.71874999999999
 30
0.0
 40
25.78125
  1
福西鋳物株式会社
 41
1.342691871783662
  7
EXCADSTD
100
AcDbText
  0
TEXT
  5
2DD
330
1F
100
AcDbEntity
  8
LAY-255
  6
CONTINUOUS
 62
     7
100
AcDbText
 10
1542.546875
 20
59.90624999999999
 30
0.0
 40
8.59375
  1
ＦＵＫＵＮＩＳＨＩ
 41
1.204799226045263
  7
EXCADSTD
100
AcDbText
  0
TEXT
  5
2DE
330
1F
100
AcDbEntity
  8
LAY-255
  6
CONTINUOUS
 62
     7
100
AcDbText
 10
1663.595982142857
 20
59.90624999999999
 30
0.0
 40
8.59375
  1
ＦＯＵＮＤＲＹ
 41
1.243252752978497
  7
EXCADSTD
100
AcDbText
  0
TEXT
  5
2DF
330
1F
100
AcDbEntity
  8
LAY-255
  6
CONTINUOUS
 62
     7
100
AcDbText
 10
1759.97295734375
 20
59.90624999999999
 30
0.0
 40
8.59375
  1
ＣＯ.,ＬＴＤ.
 41
1.243831100341625
  7
EXCADSTD
100
AcDbText
  0
TEXT
  5
2E0
330
1F
100
AcDbEntity
  8
LAY-255
  6
CONTINUOUS
 62
     7
100
AcDbText
 10
1470.171875
 20
68.59375
 30
0.0
 40
25.78125
  1
S
 41
0.7582677563636363
  7
EXCADSTD
100
AcDbText
  0
TEXT
  5
2E1
330
1F
100
AcDbEntity
  8
LAY-255
  6
CONTINUOUS
 62
     7
100
AcDbText
 10
1485.5234375
 20
68.7470518868
 30
0.0
 40
25.78125
  1
F
 41
0.7440945272727272
  7
EXCADSTD
100
AcDbText
  0
TEXT
  5
2E2
330
1F
100
AcDbEntity
  8
LAY-255
  6
CONTINUOUS
 62
     7
100
AcDbText
 10
1685.52734375
 20
122.1093749999999
 30
0.0
 40
12.890625
  1
縮尺
 41
1.080708718181818
  7
EXCADSTD
100
AcDbText
  0
TEXT
  5
2E3
330
1F
100
AcDbEntity
  8
LAY-255
  6
CONTINUOUS
 62
     7
100
AcDbText
 10
1435.76171875
 20
122.1093749999999
 30
0.0
 40
12.890625
  1
作成日
 41
1.000629973818182
  7
EXCADSTD
100
AcDbText
  0
TEXT
  5
2E4
330
1F
100
AcDbEntity
  8
LAY-255
  6
CONTINUOUS
 62
     7
100
AcDbText
 10
1741.40625
 20
117.8124999999999
 30
0.0
 40
17.1875
  1
１：５
 41
0.888661464
  7
EXCADSTD
100
AcDbText
  0
TEXT
  5
2E5
330
1F
100
AcDbEntity
  8
LAY-255
  6
CONTINUOUS
 62
     7
100
AcDbText
 10
1504.453125
 20
117.8124999999999
 30
0.0
 40
17.1875
  1
０６／１１／０６
 41
0.9779528072727273
  7
EXCADSTD
100
AcDbText
  0
TEXT
  5
2E6
330
1F
100
AcDbEntity
  8
LAY-255
  6
CONTINUOUS
 62
     7
100
AcDbText
 10
1446.875
 20
177.8125
 30
0.0
 40
17.1875
  1
防水：防水防臭型
 41
1.01490444025974
  7
EXCADSTD
100
AcDbText
  0
TEXT
  5
2E7
330
1F
100
AcDbEntity
  8
LAY-255
  6
CONTINUOUS
 62
     7
100
AcDbText
 10
1446.015625
 20
152.8125
 30
0.0
 40
17.1875
  1
適用荷重：歩行用
 41
1.015410627012987
  7
EXCADSTD
100
AcDbText
  0
TEXT
  5
2E8
330
1F
100
AcDbEntity
  8
LAY-255
  6
CONTINUOUS
 62
     7
100
AcDbText
 10
1436.328125
 20
332.8125
 30
0.0
 40
17.1875
  1
型式
 41
1.056348480681818
  7
EXCADSTD
100
AcDbText
  0
TEXT
  5
2E9
330
1F
100
AcDbEntity
  8
LAY-255
  6
CONTINUOUS
 62
     7
100
AcDbText
 10
1437.109375
 20
362.8125
 30
0.0
 40
17.1875
  1
品名
 41
0.9788386340909091
  7
EXCADSTD
100
AcDbText
  0
TEXT
  5
2EA
330
1F
100
AcDbEntity
  8
LAY-255
  6
CONTINUOUS
 62
     7
100
AcDbText
 10
1503.359375
 20
362.8125
 30
0.0
 40
17.1875
  1
フロアハッチ
 41
0.999621494055944
  7
EXCADSTD
100
AcDbText
  0
TEXT
  5
2EB
330
1F
100
AcDbEntity
  8
LAY-255
  6
CONTINUOUS
 62
     7
100
AcDbText
 10
1445.703125
 20
252.8125
 30
0.0
 40
17.1875
  1
材質：ステンレス鋼
 41
1.019934270655926
  7
EXCADSTD
100
AcDbText
  0
TEXT
  5
2EC
330
1F
100
AcDbEntity
  8
LAY-255
  6
CONTINUOUS
 62
     7
100
AcDbText
 10
1445.703125
 20
227.8125
 30
0.0
 40
17.1875
  1
構造：ボルト固定式
 41
1.021279830379747
  7
EXCADSTD
100
AcDbText
  0
TEXT
  5
2ED
330
1F
100
AcDbEntity
  8
LAY-255
  6
CONTINUOUS
 62
     7
100
AcDbText
 10
1445.859375
 20
302.8125
 30
0.0
 40
17.1875
  1
仕上：磁器タイル用・モルタル用
 41
1.012373506493506
  7
EXCADSTD
100
AcDbText
  0
TEXT
  5
2EE
330
1F
100
AcDbEntity
  8
LAY-255
  6
CONTINUOUS
 62
     7
100
AcDbText
 10
1446.015625
 20
277.8125
 30
0.0
 40
17.1875
  1
貼代：２６
 41
0.99542213615222
  7
EXCADSTD
100
AcDbText
  0
TEXT
  5
2EF
330
1F
100
AcDbEntity
  8
LAY-255
  6
CONTINUOUS
 62
     7
100
AcDbText
 10
1503.75
 20
332.8125
 30
0.0
 40
17.1875
  1
ＳＦ－４０ＦＨＷＫ型
 41
1.003802844421487
  7
EXCADSTD
100
AcDbText
  0
TEXT
  5
2F0
330
1F
100
AcDbEntity
  8
LAY-255
  6
CONTINUOUS
 62
     7
100
AcDbText
 10
1445.703125
 20
202.8125
 30
0.0
 40
17.1875
  1
機能：施錠装置付
 41
1.024521988571429
  7
EXCADSTD
100
AcDbText
  0
ENDSEC
  0
SECTION
  2
OBJECTS
  0
DICTIONARY
  5
C
330
0
100
AcDbDictionary
  3
ACAD_GROUP
350
D
  3
ACAD_LAYOUT
350
1A
  3
ACAD_MATERIAL
350
43
  3
ACAD_MLEADERSTYLE
350
6B
  3
ACAD_MLINESTYLE
350
17
  3
ACAD_PLOTSETTINGS
350
19
  3
ACAD_SCALELIST
350
47
  3
ACAD_VISUALSTYLE
350
2A
  3
ACDBHEADERROUNDTRIPXREC
350
2F1
  3
ACDBVARIABLEDICTIONARY
350
312
  0
DICTIONARY
  5
31D
330
8
100
AcDbDictionary
280
     1
  3
ACAD_XREC_ROUNDTRIP
360
31E
  0
DICTIONARY
  5
D
102
{ACAD_REACTORS
330
C
102
}
330
C
100
AcDbDictionary
  0
DICTIONARY
  5
1A
102
{ACAD_REACTORS
330
C
102
}
330
C
100
AcDbDictionary
  0
DICTIONARY
  5
43
102
{ACAD_REACTORS
330
C
102
}
330
C
100
AcDbDictionary
  3
BYBLOCK
350
45
  3
BYLAYER
350
44
  3
GLOBAL
350
46
  0
DICTIONARY
  5
6B
102
{ACAD_REACTORS
330
C
102
}
330
C
100
AcDbDictionary
  3
STANDARD
350
6C
  0
DICTIONARY
  5
17
102
{ACAD_REACTORS
330
C
102
}
330
C
100
AcDbDictionary
  3
STANDARD
350
18
  0
DICTIONARY
  5
19
102
{ACAD_REACTORS
330
C
102
}
330
C
100
AcDbDictionary
  0
DICTIONARY
  5
47
102
{ACAD_REACTORS
330
C
102
}
330
C
100
AcDbDictionary
  3
A0
350
48
  3
A1
350
49
  3
A2
350
4A
  3
A3
350
4B
  3
A4
350
4C
  3
A5
350
4D
  3
A6
350
4E
  3
A7
350
4F
  3
A8
350
50
  3
A9
350
51
  3
B0
350
52
  3
B1
350
53
  3
B2
350
54
  3
B3
350
55
  3
B4
350
56
  3
B5
350
57
  3
B6
350
58
  3
B7
350
59
  3
B8
350
5A
  3
B9
350
5B
  3
C0
350
5C
  3
C1
350
5D
  3
C2
350
5E
  3
C3
350
5F
  3
C4
350
60
  3
C5
350
61
  3
C6
350
62
  3
C7
350
63
  3
C8
350
64
  3
C9
350
65
  3
D0
350
66
  3
D1
350
67
  3
D2
350
68
  0
DICTIONARY
  5
2A
102
{ACAD_REACTORS
330
C
102
}
330
C
100
AcDbDictionary
  3
2DWIREFRAME
350
2F
  3
BASIC
350
32
  3
BRIGHTEN
350
36
  3
COLORCHANGE
350
3A
  3
CONCEPTUAL
350
34
  3
DIM
350
35
  3
EDGECOLOROFF
350
3D
  3
FACEPATTERN
350
39
  3
FLAT
350
2B
  3
FLATWITHEDGES
350
2C
  3
GOURAUD
350
2D
  3
GOURAUDWITHEDGES
350
2E
  3
HIDDEN
350
31
  3
JITTEROFF
350
3B
  3
LINEPATTERN
350
38
  3
OVERHANGOFF
350
3C
  3
REALISTIC
350
33
  3
SHADED
350
42
  3
SHADED_WITH_EDGES
350
41
  3
SHADES_OF_GRAY
350
3E
  3
SKETCHY
350
3F
  3
THICKEN
350
37
  3
WIREFRAME
350
30
  3
X-RAY
350
40
  0
DICTIONARY
  5
2F1
102
{ACAD_REACTORS
330
C
102
}
330
C
100
AcDbDictionary
  3
CEPSNID
350
2FB
  3
CEPSNTYPE
350
2FA
  3
DIMSTYLEDATA
350
311
  3
FINGERPRINTGUID
350
2FC
  3
HYPERLINKBASE
350
2F4
  3
INSUNITS
350
2F9
  3
LAYOUTDICT
350
2F6
  3
LWETCUNION
350
2F8
  3
PLOTSETDICT
350
2F7
  3
PSVPSCALE
350
2FE
  3
PUCSBASE
350
301
  3
PUCSORGBACK
350
307
  3
PUCSORGBOTTOM
350
303
  3
PUCSORGFRONT
350
306
  3
PUCSORGLEFT
350
304
  3
PUCSORGRIGHT
350
305
  3
PUCSORGTOP
350
302
  3
PUCSORTHOREF
350
2FF
  3
PUCSORTHOVIEW
350
300
  3
STYLESHEET
350
2F5
  3
TSTACKALIGN
350
2F2
  3
TSTACKSIZE
350
2F3
  3
UCSBASE
350
30A
  3
UCSORGBACK
350
310
  3
UCSORGBOTTOM
350
30C
  3
UCSORGFRONT
350
30F
  3
UCSORGLEFT
350
30D
  3
UCSORGRIGHT
350
30E
  3
UCSORGTOP
350
30B
  3
UCSORTHOREF
350
308
  3
UCSORTHOVIEW
350
309
  3
VERSIONGUID
350
2FD
  0
DICTIONARY
  5
312
102
{ACAD_REACTORS
330
C
102
}
330
C
100
AcDbDictionary
  3
CANNOSCALE
350
31F
  3
CENTEREXE
350
319
  3
CENTERLTYPEFILE
350
31A
  3
CMLEADERSTYLE
350
314
  3
CTABLESTYLE
350
313
  3
DIMASSOC
350
31B
  3
HIDETEXT
350
31C
  3
MSLTSCALE
350
320
  3
PSOLHEIGHT
350
316
  3
PSOLWIDTH
350
315
  0
XRECORD
  5
31E
102
{ACAD_REACTORS
330
31D
102
}
330
31D
100
AcDbXrecord
102
VTR_0.000_0.000_1.000_1.000_VISUALSTYLE
340
2F
102
VTR_0.000_0.000_1.000_1.000_GRIDDISPLAY
 70
     3
102
VTR_0.000_0.000_1.000_1.000_GRIDMAJOR
 70
     5
102
VTR_0.000_0.000_1.000_1.000_DEFAULTLIGHTING
280
     1
102
VTR_0.000_0.000_1.000_1.000_DEFAULTLIGHTINGTYPE
 70
     1
102
VTR_0.000_0.000_1.000_1.000_BRIGHTNESS
141
0.0
102
VTR_0.000_0.000_1.000_1.000_CONTRAST
142
0.0
  0
MATERIAL
  5
45
102
{ACAD_REACTORS
330
43
102
}
102
{ACAD_XDICTIONARY
360
323
102
}
330
43
100
AcDbMaterial
  1
BYBLOCK
  0
MATERIAL
  5
44
102
{ACAD_REACTORS
330
43
102
}
102
{ACAD_XDICTIONARY
360
321
102
}
330
43
100
AcDbMaterial
  1
BYLAYER
  0
MATERIAL
  5
46
102
{ACAD_REACTORS
330
43
102
}
102
{ACAD_XDICTIONARY
360
325
102
}
330
43
100
AcDbMaterial
  1
GLOBAL
  0
ACAD_PROXY_OBJECT
  5
6C
102
{ACAD_REACTORS
330
6B
102
}
330
6B
100
AcDbProxyObject
 90
      499
 91
      505
 93
      610
310
40901902A4063FBFFFFFE0000000000000020400000000000020404214DD185B99185C990000000000000104090141901A00000000000004100000000000000041025764000000000000039000
340
14
340
0
340
11
340
0
 94
        0
1001
ACAD_MLEADERVER
1070
     2
  0
MLINESTYLE
  5
18
102
{ACAD_REACTORS
330
17
102
}
330
17
100
AcDbMlineStyle
  2
Standard
 70
     0
  3

 62
   256
 51
90.0
 52
90.0
 71
     2
 49
0.5
 62
   256
  6
BYLAYER
 49
-0.5
 62
   256
  6
BYLAYER
  0
ACAD_PROXY_OBJECT
  5
48
102
{ACAD_REACTORS
330
47
102
}
330
47
100
AcDbProxyObject
 90
      499
 91
      503
 93
       41
310
903313A31580
  0
ACAD_PROXY_OBJECT
  5
49
102
{ACAD_REACTORS
330
47
102
}
330
47
100
AcDbProxyObject
 90
      499
 91
      503
 93
      105
310
903313A324000000000000004000
  0
ACAD_PROXY_OBJECT
  5
4A
102
{ACAD_REACTORS
330
47
102
}
330
47
100
AcDbProxyObject
 90
      499
 91
      503
 93
      105
310
903313A344000000000000104000
  0
ACAD_PROXY_OBJECT
  5
4B
102
{ACAD_REACTORS
330
47
102
}
330
47
100
AcDbProxyObject
 90
      499
 91
      503
 93
      105
310
903313A354000000000000144000
  0
ACAD_PROXY_OBJECT
  5
4C
102
{ACAD_REACTORS
330
47
102
}
330
47
100
AcDbProxyObject
 90
      499
 91
      503
 93
      105
310
903313A384000000000000204000
  0
ACAD_PROXY_OBJECT
  5
4D
102
{ACAD_REACTORS
330
47
102
}
330
47
100
AcDbProxyObject
 90
      499
 91
      503
 93
      113
310
904313A31304000000000000244000
  0
ACAD_PROXY_OBJECT
  5
4E
102
{ACAD_REACTORS
330
47
102
}
330
47
100
AcDbProxyObject
 90
      499
 91
      503
 93
      113
310
904313A31364000000000000304000
  0
ACAD_PROXY_OBJECT
  5
4F
102
{ACAD_REACTORS
330
47
102
}
330
47
100
AcDbProxyObject
 90
      499
 91
      503
 93
      113
310
904313A32304000000000000344000
  0
ACAD_PROXY_OBJECT
  5
50
102
{ACAD_REACTORS
330
47
102
}
330
47
100
AcDbProxyObject
 90
      499
 91
      503
 93
      113
310
904313A333040000000000003E4000
  0
ACAD_PROXY_OBJECT
  5
51
102
{ACAD_REACTORS
330
47
102
}
330
47
100
AcDbProxyObject
 90
      499
 91
      503
 93
      113
310
904313A34304000000000000444000
  0
ACAD_PROXY_OBJECT
  5
52
102
{ACAD_REACTORS
330
47
102
}
330
47
100
AcDbProxyObject
 90
      499
 91
      503
 93
      113
310
904313A35304000000000000494000
  0
ACAD_PROXY_OBJECT
  5
53
102
{ACAD_REACTORS
330
47
102
}
330
47
100
AcDbProxyObject
 90
      499
 91
      503
 93
      121
310
905313A3130304000000000000594000
  0
ACAD_PROXY_OBJECT
  5
54
102
{ACAD_REACTORS
330
47
102
}
330
47
100
AcDbProxyObject
 90
      499
 91
      503
 93
      105
310
903323A310000000000000010100
  0
ACAD_PROXY_OBJECT
  5
55
102
{ACAD_REACTORS
330
47
102
}
330
47
100
AcDbProxyObject
 90
      499
 91
      503
 93
      105
310
903343A310000000000000410100
  0
ACAD_PROXY_OBJECT
  5
56
102
{ACAD_REACTORS
330
47
102
}
330
47
100
AcDbProxyObject
 90
      499
 91
      503
 93
      105
310
903383A310000000000000810100
  0
ACAD_PROXY_OBJECT
  5
57
102
{ACAD_REACTORS
330
47
102
}
330
47
100
AcDbProxyObject
 90
      499
 91
      503
 93
      113
310
90431303A310000000000000910100
  0
ACAD_PROXY_OBJECT
  5
58
102
{ACAD_REACTORS
330
47
102
}
330
47
100
AcDbProxyObject
 90
      499
 91
      503
 93
      121
310
9053130303A310000000000001650100
  0
ACAD_PROXY_OBJECT
  5
59
102
{ACAD_REACTORS
330
47
102
}
330
47
100
AcDbProxyObject
 90
      499
 91
      503
 93
      257
310
90E312F31323822203D2031272D3022000000000000200FC000000000000284000
  0
ACAD_PROXY_OBJECT
  5
5A
102
{ACAD_REACTORS
330
47
102
}
330
47
100
AcDbProxyObject
 90
      499
 91
      503
 93
      249
310
90D312F363422203D2031272D3022000000000000240FC000000000000284000
  0
ACAD_PROXY_OBJECT
  5
5B
102
{ACAD_REACTORS
330
47
102
}
330
47
100
AcDbProxyObject
 90
      499
 91
      503
 93
      249
310
90D312F333222203D2031272D3022000000000000280FC000000000000284000
  0
ACAD_PROXY_OBJECT
  5
5C
102
{ACAD_REACTORS
330
47
102
}
330
47
100
AcDbProxyObject
 90
      499
 91
      503
 93
      249
310
90D312F313622203D2031272D30220000000000002C0FC000000000000284000
  0
ACAD_PROXY_OBJECT
  5
5D
102
{ACAD_REACTORS
330
47
102
}
330
47
100
AcDbProxyObject
 90
      499
 91
      503
 93
      249
310
90D332F333222203D2031272D30220000000000002E0FC000000000000284000
  0
ACAD_PROXY_OBJECT
  5
5E
102
{ACAD_REACTORS
330
47
102
}
330
47
100
AcDbProxyObject
 90
      499
 91
      503
 93
      241
310
90C312F3822203D2031272D3022000000000000300FC000000000000284000
  0
ACAD_PROXY_OBJECT
  5
5F
102
{ACAD_REACTORS
330
47
102
}
330
47
100
AcDbProxyObject
 90
      499
 91
      503
 93
      249
310
90D332F313622203D2031272D3022000000000000320FC000000000000284000
  0
ACAD_PROXY_OBJECT
  5
60
102
{ACAD_REACTORS
330
47
102
}
330
47
100
AcDbProxyObject
 90
      499
 91
      503
 93
      241
310
90C312F3422203D2031272D3022000000000000340FC000000000000284000
  0
ACAD_PROXY_OBJECT
  5
61
102
{ACAD_REACTORS
330
47
102
}
330
47
100
AcDbProxyObject
 90
      499
 91
      503
 93
      241
310
90C332F3822203D2031272D3022000000000000360FC000000000000284000
  0
ACAD_PROXY_OBJECT
  5
62
102
{ACAD_REACTORS
330
47
102
}
330
47
100
AcDbProxyObject
 90
      499
 91
      503
 93
      241
310
90C312F3222203D2031272D3022000000000000380FC000000000000284000
  0
ACAD_PROXY_OBJECT
  5
63
102
{ACAD_REACTORS
330
47
102
}
330
47
100
AcDbProxyObject
 90
      499
 91
      503
 93
      241
310
90C332F3422203D2031272D30220000000000003A0FC000000000000284000
  0
ACAD_PROXY_OBJECT
  5
64
102
{ACAD_REACTORS
330
47
102
}
330
47
100
AcDbProxyObject
 90
      499
 91
      503
 93
      161
310
90A3122203D2031272D30224000000000000284000
  0
ACAD_PROXY_OBJECT
  5
65
102
{ACAD_REACTORS
330
47
102
}
330
47
100
AcDbProxyObject
 90
      499
 91
      503
 93
      257
310
90E312D312F3222203D2031272D30220000000000003E0FC000000000000284000
  0
ACAD_PROXY_OBJECT
  5
66
102
{ACAD_REACTORS
330
47
102
}
330
47
100
AcDbProxyObject
 90
      499
 91
      503
 93
      225
310
90A3322203D2031272D302200000000000002100000000000000284000
  0
ACAD_PROXY_OBJECT
  5
67
102
{ACAD_REACTORS
330
47
102
}
330
47
100
AcDbProxyObject
 90
      499
 91
      503
 93
      225
310
90A3622203D2031272D302200000000000006100000000000000284000
  0
ACAD_PROXY_OBJECT
  5
68
102
{ACAD_REACTORS
330
47
102
}
330
47
100
AcDbProxyObject
 90
      499
 91
      503
 93
      249
310
90D31272D3022203D2031272D30220000000000000A100000000000000284000
  0
ACAD_PROXY_OBJECT
  5
2F
102
{ACAD_REACTORS
330
2A
102
}
330
2A
100
AcDbProxyObject
 90
      499
 91
      501
 93
      436
310
42CC9915DA5C99599C985B595049028333333333333E33F0000000000000F90107901411070040501600405405064090741402480A0340
1001
ACAD
1000
AcDbSavedByObjectVersion
1070
     0
  0
ACAD_PROXY_OBJECT
  5
32
102
{ACAD_REACTORS
330
2A
102
}
330
2A
100
AcDbProxyObject
 90
      499
 91
      501
 93
      388
310
4150985CDA58D07406404333333333333E33F0000000000000F90107A41107004050150841D405064090741402480A0350
1001
ACAD
1000
AcDbSavedByObjectVersion
1070
     0
  0
ACAD_PROXY_OBJECT
  5
36
102
{ACAD_REACTORS
330
2A
102
}
330
2A
100
AcDbProxyObject
 90
      499
 91
      501
 93
      428
310
42109C9A59DA1D195B90C409028333333333333E33F0000000000000F9010790141107004050150841D405064090741402480A029950
1001
ACAD
1000
AcDbSavedByObjectVersion
1070
     0
  0
ACAD_PROXY_OBJECT
  5
3A
102
{ACAD_REACTORS
330
2A
102
}
330
2A
100
AcDbProxyObject
 90
      499
 91
      501
 93
      452
310
42D0DBDB1BDC90DA185B99D95104090240C333333333333E33F0000000000000F90108901411070040501508421405064090741402480A0350
1001
ACAD
1000
AcDbSavedByObjectVersion
1070
     0
  0
ACAD_PROXY_OBJECT
  5
34
102
{ACAD_REACTORS
330
2A
102
}
330
2A
100
AcDbProxyObject
 90
      499
 91
      501
 93
      500
310
4290DBDB98D95C1D1D585B10940D028333333333333E33F0000000000000F90107902409070040501000000000018199010841D405064090740C02480A0340
1001
ACAD
1000
AcDbSavedByObjectVersion
1070
     0
  0
ACAD_PROXY_OBJECT
  5
35
102
{ACAD_REACTORS
330
2A
102
}
330
2A
100
AcDbProxyObject
 90
      499
 91
      501
 93
      412
310
40D11A5B50B409028333333333333E33F0000000000000F9010790141107004050150841D405064090741402480A02677FFFFFD0
1001
ACAD
1000
AcDbSavedByObjectVersion
1070
     0
  0
ACAD_PROXY_OBJECT
  5
3D
102
{ACAD_REACTORS
330
2A
102
}
330
2A
100
AcDbProxyObject
 90
      499
 91
      501
 93
      452
310
43115919D950DBDB1BDC93D999916409028333333333333E33F0000000000000F9010790141107004050150841D405064090741402480A0350
1001
ACAD
1000
AcDbSavedByObjectVersion
1070
     0
  0
ACAD_PROXY_OBJECT
  5
39
102
{ACAD_REACTORS
330
2A
102
}
330
2A
100
AcDbProxyObject
 90
      499
 91
      501
 93
      444
310
42D19858D95C185D1D195C9B90F409028333333333333E33F0000000000000F9010790141107004050150841D405064090741402480A0350
1001
ACAD
1000
AcDbSavedByObjectVersion
1070
     0
  0
ACAD_PROXY_OBJECT
  5
2B
102
{ACAD_REACTORS
330
2A
102
}
330
2A
100
AcDbProxyObject
 90
      499
 91
      501
 93
      380
310
41119B185D240901404333333333333E33F0000000000000F9010740A907004050150841D405064090741402480A1B50
1001
ACAD
1000
AcDbSavedByObjectVersion
1070
     0
  0
ACAD_PROXY_OBJECT
  5
2C
102
{ACAD_REACTORS
330
2A
102
}
330
2A
100
AcDbProxyObject
 90
      499
 91
      501
 93
      468
310
43519B185D15DA5D1A115919D95CD0140901404333333333333E33F0000000000000F90107409019070040501600405405064090741402480A1B50
1001
ACAD
1000
AcDbSavedByObjectVersion
1070
     0
  0
ACAD_PROXY_OBJECT
  5
2D
102
{ACAD_REACTORS
330
2A
102
}
330
2A
100
AcDbProxyObject
 90
      499
 91
      501
 93
      404
310
41D1DBDD5C985D5910240902404333333333333E33F0000000000000F9010740A9070040501641D405064090741402480A1B50
1001
ACAD
1000
AcDbSavedByObjectVersion
1070
     0
  0
ACAD_PROXY_OBJECT
  5
2E
102
{ACAD_REACTORS
330
2A
102
}
330
2A
100
AcDbProxyObject
 90
      499
 91
      501
 93
      492
310
4411DBDD5C985D5915DA5D1A115919D95CD0340902404333333333333E33F0000000000000F90107409019070040501600405405064090741402480A1B50
1001
ACAD
1000
AcDbSavedByObjectVersion
1070
     0
  0
ACAD_PROXY_OBJECT
  5
31
102
{ACAD_REACTORS
330
2A
102
}
330
2A
100
AcDbProxyObject
 90
      499
 91
      501
 93
      476
310
41921A5919195B90640502408333333333333E33F0000000000000F901079024090700405020000000000001110200405405064090740C02480A0340
1001
ACAD
1000
AcDbSavedByObjectVersion
1070
     0
  0
ACAD_PROXY_OBJECT
  5
3B
102
{ACAD_REACTORS
330
2A
102
}
330
2A
100
AcDbProxyObject
 90
      499
 91
      501
 93
      428
310
42529A5D1D195C93D999914409028333333333333E33F0000000000000F9010790141107004050150A41D405064090741402480A0350
1001
ACAD
1000
AcDbSavedByObjectVersion
1070
     0
  0
ACAD_PROXY_OBJECT
  5
38
102
{ACAD_REACTORS
330
2A
102
}
330
2A
100
AcDbProxyObject
 90
      499
 91
      501
 93
      444
310
42D31A5B995C185D1D195C9B90E409028333333333333E33F0000000000000F9010790141107004050750841D405064090741402483A0350
1001
ACAD
1000
AcDbSavedByObjectVersion
1070
     0
  0
ACAD_PROXY_OBJECT
  5
3C
102
{ACAD_REACTORS
330
2A
102
}
330
2A
100
AcDbProxyObject
 90
      499
 91
      501
 93
      444
310
42D3DD995C9A185B99D3D999915409028333333333333E33F0000000000000F9010790141107004050150941D405064090741402480A0350
1001
ACAD
1000
AcDbSavedByObjectVersion
1070
     0
  0
ACAD_PROXY_OBJECT
  5
33
102
{ACAD_REACTORS
330
2A
102
}
330
2A
100
AcDbProxyObject
 90
      499
 91
      501
 93
      428
310
425499585B1A5CDD1A58D08409038333333333333E33F0000000000000F9010740A907004050150800405405064090740C02480A1B40
1001
ACAD
1000
AcDbSavedByObjectVersion
1070
     0
  0
ACAD_PROXY_OBJECT
  5
42
102
{ACAD_REACTORS
330
2A
102
}
330
2A
100
AcDbProxyObject
 90
      499
 91
      501
 93
      420
310
4194DA1859195911B40902404333333333333E33F0000000000000F9010740A41107004050150800405405064090840C02480A0B40
1001
ACAD
1000
AcDbSavedByObjectVersion
1070
     0
  0
ACAD_PROXY_OBJECT
  5
41
102
{ACAD_REACTORS
330
2A
102
}
330
2A
100
AcDbProxyObject
 90
      499
 91
      501
 93
      516
310
4454DA18591959081DDA5D1A08195919D95CD1A40902404333333333333E33F0000000000000F901074090142907004050250800405405064090740C02480A0B40
1001
ACAD
1000
AcDbSavedByObjectVersion
1070
     0
  0
ACAD_PROXY_OBJECT
  5
3E
102
{ACAD_REACTORS
330
2A
102
}
330
2A
100
AcDbProxyObject
 90
      499
 91
      501
 93
      532
310
4394DA1859195CC81BD98811DC985E5174090240C333333333333E33F0000000000000F901079024090741D01000000000000111010841D405064090740C02480A0340
1001
ACAD
1000
AcDbSavedByObjectVersion
1070
     0
  0
ACAD_PROXY_OBJECT
  5
3F
102
{ACAD_REACTORS
330
2A
102
}
330
2A
100
AcDbProxyObject
 90
      499
 91
      501
 93
      476
310
41D4DAD95D18DA1E51840502408333333333333E33F0000000000000F901079024090741D01000000000000111010B41D405064090741802480A0340
1001
ACAD
1000
AcDbSavedByObjectVersion
1070
     0
  0
ACAD_PROXY_OBJECT
  5
37
102
{ACAD_REACTORS
330
2A
102
}
330
2A
100
AcDbProxyObject
 90
      499
 91
      501
 93
      412
310
41D51A1A58DAD95B90D409028333333333333E33F0000000000000F9010790141107004050150C41D405064090741402480A0350
1001
ACAD
1000
AcDbSavedByObjectVersion
1070
     0
  0
ACAD_PROXY_OBJECT
  5
30
102
{ACAD_REACTORS
330
2A
102
}
330
2A
100
AcDbProxyObject
 90
      499
 91
      501
 93
      420
310
4255DA5C99599C985B595059028333333333333E33F0000000000000F90107901411070040501600405405064090740C02480A0340
1001
ACAD
1000
AcDbSavedByObjectVersion
1070
     0
  0
ACAD_PROXY_OBJECT
  5
40
102
{ACAD_REACTORS
330
2A
102
}
330
2A
100
AcDbProxyObject
 90
      499
 91
      501
 93
      404
310
41560B54985E51940902404000000000000E03F0000000000000F9010740501907004050150841D405064090740C02480A1B40
1001
ACAD
1000
AcDbSavedByObjectVersion
1070
     0
  0
XRECORD
  5
2FB
102
{ACAD_REACTORS
330
2F1
102
}
330
2F1
100
AcDbXrecord
340
0
  0
XRECORD
  5
2FA
102
{ACAD_REACTORS
330
2F1
102
}
330
2F1
100
AcDbXrecord
 90
        0
  0
XRECORD
  5
311
102
{ACAD_REACTORS
330
2F1
102
}
330
2F1
100
AcDbXrecord
1000
DSTYLE
1002
{
1070
   340
340
11
1002
}
  0
XRECORD
  5
2FC
102
{ACAD_REACTORS
330
2F1
102
}
330
2F1
100
AcDbXrecord
  1
{bb7fdcc4-1d32-4229-923d-365b851af4aa}
  0
XRECORD
  5
2F4
102
{ACAD_REACTORS
330
2F1
102
}
330
2F1
100
AcDbXrecord
  1

  0
XRECORD
  5
2F9
102
{ACAD_REACTORS
330
2F1
102
}
330
2F1
100
AcDbXrecord
 90
        4
  0
XRECORD
  5
2F6
102
{ACAD_REACTORS
330
2F1
102
}
330
2F1
100
AcDbXrecord
340
1A
  0
XRECORD
  5
2F8
102
{ACAD_REACTORS
330
2F1
102
}
330
2F1
100
AcDbXrecord
 90
    10781
  0
XRECORD
  5
2F7
102
{ACAD_REACTORS
330
2F1
102
}
330
2F1
100
AcDbXrecord
340
19
  0
XRECORD
  5
2FE
102
{ACAD_REACTORS
330
2F1
102
}
330
2F1
100
AcDbXrecord
 40
0.0
  0
XRECORD
  5
301
102
{ACAD_REACTORS
330
2F1
102
}
330
2F1
100
AcDbXrecord
340
0
  0
XRECORD
  5
307
102
{ACAD_REACTORS
330
2F1
102
}
330
2F1
100
AcDbXrecord
 10
0.0
 20
0.0
 30
0.0
  0
XRECORD
  5
303
102
{ACAD_REACTORS
330
2F1
102
}
330
2F1
100
AcDbXrecord
 10
0.0
 20
0.0
 30
0.0
  0
XRECORD
  5
306
102
{ACAD_REACTORS
330
2F1
102
}
330
2F1
100
AcDbXrecord
 10
0.0
 20
0.0
 30
0.0
  0
XRECORD
  5
304
102
{ACAD_REACTORS
330
2F1
102
}
330
2F1
100
AcDbXrecord
 10
0.0
 20
0.0
 30
0.0
  0
XRECORD
  5
305
102
{ACAD_REACTORS
330
2F1
102
}
330
2F1
100
AcDbXrecord
 10
0.0
 20
0.0
 30
0.0
  0
XRECORD
  5
302
102
{ACAD_REACTORS
330
2F1
102
}
330
2F1
100
AcDbXrecord
 10
0.0
 20
0.0
 30
0.0
  0
XRECORD
  5
2FF
102
{ACAD_REACTORS
330
2F1
102
}
330
2F1
100
AcDbXrecord
340
0
  0
XRECORD
  5
300
102
{ACAD_REACTORS
330
2F1
102
}
330
2F1
100
AcDbXrecord
 70
     0
  0
XRECORD
  5
2F5
102
{ACAD_REACTORS
330
2F1
102
}
330
2F1
100
AcDbXrecord
  1

  0
XRECORD
  5
2F2
102
{ACAD_REACTORS
330
2F1
102
}
330
2F1
100
AcDbXrecord
 90
        1
  0
XRECORD
  5
2F3
102
{ACAD_REACTORS
330
2F1
102
}
330
2F1
100
AcDbXrecord
 90
       70
  0
XRECORD
  5
30A
102
{ACAD_REACTORS
330
2F1
102
}
330
2F1
100
AcDbXrecord
340
0
  0
XRECORD
  5
310
102
{ACAD_REACTORS
330
2F1
102
}
330
2F1
100
AcDbXrecord
 10
0.0
 20
0.0
 30
0.0
  0
XRECORD
  5
30C
102
{ACAD_REACTORS
330
2F1
102
}
330
2F1
100
AcDbXrecord
 10
0.0
 20
0.0
 30
0.0
  0
XRECORD
  5
30F
102
{ACAD_REACTORS
330
2F1
102
}
330
2F1
100
AcDbXrecord
 10
0.0
 20
0.0
 30
0.0
  0
XRECORD
  5
30D
102
{ACAD_REACTORS
330
2F1
102
}
330
2F1
100
AcDbXrecord
 10
0.0
 20
0.0
 30
0.0
  0
XRECORD
  5
30E
102
{ACAD_REACTORS
330
2F1
102
}
330
2F1
100
AcDbXrecord
 10
0.0
 20
0.0
 30
0.0
  0
XRECORD
  5
30B
102
{ACAD_REACTORS
330
2F1
102
}
330
2F1
100
AcDbXrecord
 10
0.0
 20
0.0
 30
0.0
  0
XRECORD
  5
308
102
{ACAD_REACTORS
330
2F1
102
}
330
2F1
100
AcDbXrecord
340
0
  0
XRECORD
  5
309
102
{ACAD_REACTORS
330
2F1
102
}
330
2F1
100
AcDbXrecord
 70
     0
  0
XRECORD
  5
2FD
102
{ACAD_REACTORS
330
2F1
102
}
330
2F1
100
AcDbXrecord
  1
{FAEB1C32-E019-11D5-929B-00C0DF256EC4}
  0
DICTIONARYVAR
  5
31F
102
{ACAD_REACTORS
330
312
102
}
330
312
100
DictionaryVariables
280
     0
  1
1:1
  0
DICTIONARYVAR
  5
319
102
{ACAD_REACTORS
330
312
102
}
330
312
100
DictionaryVariables
280
     0
  1
3.500000
  0
DICTIONARYVAR
  5
31A
102
{ACAD_REACTORS
330
312
102
}
330
312
100
DictionaryVariables
280
     0
  1
acadiso.lin
  0
DICTIONARYVAR
  5
314
102
{ACAD_REACTORS
330
312
102
}
330
312
100
DictionaryVariables
280
     0
  1
Standard
  0
DICTIONARYVAR
  5
313
102
{ACAD_REACTORS
330
312
102
}
330
312
100
DictionaryVariables
280
     0
  1
Standard
  0
DICTIONARYVAR
  5
31B
102
{ACAD_REACTORS
330
312
102
}
330
312
100
DictionaryVariables
280
     0
  1
2
  0
DICTIONARYVAR
  5
31C
102
{ACAD_REACTORS
330
312
102
}
330
312
100
DictionaryVariables
280
     0
  1
1
  0
DICTIONARYVAR
  5
320
102
{ACAD_REACTORS
330
312
102
}
330
312
100
DictionaryVariables
280
     0
  1
1
  0
DICTIONARYVAR
  5
316
102
{ACAD_REACTORS
330
312
102
}
330
312
100
DictionaryVariables
280
     0
  1
80.000000
  0
DICTIONARYVAR
  5
315
102
{ACAD_REACTORS
330
312
102
}
330
312
100
DictionaryVariables
280
     0
  1
5.000000
  0
DICTIONARY
  5
323
330
45
100
AcDbDictionary
280
     1
  3
ACAD_XREC_ROUNDTRIP
360
324
  0
DICTIONARY
  5
321
330
44
100
AcDbDictionary
280
     1
  3
ACAD_XREC_ROUNDTRIP
360
322
  0
DICTIONARY
  5
325
330
46
100
AcDbDictionary
280
     1
  3
ACAD_XREC_ROUNDTRIP
360
326
  0
XRECORD
  5
324
102
{ACAD_REACTORS
330
323
102
}
330
323
100
AcDbXrecord
102
MATERIAL
148
0.0
149
0.0
149
0.0
 93
        0
 94
      127
282
     0
 72
     1
 77
     1
171
     1
175
     1
179
     1
273
     0
  0
XRECORD
  5
322
102
{ACAD_REACTORS
330
321
102
}
330
321
100
AcDbXrecord
102
MATERIAL
148
0.0
149
0.0
149
0.0
 93
        0
 94
      127
282
     0
 72
     1
 77
     1
171
     1
175
     1
179
     1
273
     0
  0
XRECORD
  5
326
102
{ACAD_REACTORS
330
325
102
}
330
325
100
AcDbXrecord
102
MATERIAL
148
0.0
149
0.0
149
0.0
 93
        0
 94
      127
282
     0
 72
     1
 77
     1
171
     1
175
     1
179
     1
273
     0
  0
ENDSEC
  0
EOF
