  0
SECTION
  2
HEADER
  9
$ACADVER
  1
AC1014
  9
$ACADMAINTVER
 70
     9
  9
$DWGCODEPAGE
  3
ANSI_932
  9
$INSBASE
 10
0.0
 20
0.0
 30
0.0
  9
$EXTMIN
 10
75.0
 20
150.0
 30
0.0
  9
$EXTMAX
 10
5775.000000000001
 20
4200.0
 30
0.0
  9
$LIMMIN
 10
0.0
 20
0.0
  9
$LIMMAX
 10
420.0
 20
297.0
  9
$ORTHOMODE
 70
     0
  9
$REGENMODE
 70
     1
  9
$FILLMODE
 70
     1
  9
$QTEXTMODE
 70
     0
  9
$MIRRTEXT
 70
     1
  9
$DRAGMODE
 70
     2
  9
$LTSCALE
 40
0.2
  9
$OSMODE
 70
    37
  9
$ATTMODE
 70
     1
  9
$TEXTSIZE
 40
2.5
  9
$TRACEWID
 40
1.0
  9
$TEXTSTYLE
  7
STANDARD
  9
$CLAYER
  8
LAY-10
  9
$CELTYPE
  6
BYLAYER
  9
$CECOLOR
 62
   256
  9
$CELTSCALE
 40
1.0
  9
$DELOBJ
 70
     1
  9
$DISPSILH
 70
     0
  9
$DIMSCALE
 40
1.0
  9
$DIMASZ
 40
2.5
  9
$DIMEXO
 40
0.625
  9
$DIMDLI
 40
3.75
  9
$DIMRND
 40
0.0
  9
$DIMDLE
 40
0.0
  9
$DIMEXE
 40
1.25
  9
$DIMTP
 40
0.0
  9
$DIMTM
 40
0.0
  9
$DIMTXT
 40
2.5
  9
$DIMCEN
 40
2.5
  9
$DIMTSZ
 40
0.0
  9
$DIMTOL
 70
     0
  9
$DIMLIM
 70
     0
  9
$DIMTIH
 70
     0
  9
$DIMTOH
 70
     0
  9
$DIMSE1
 70
     0
  9
$DIMSE2
 70
     0
  9
$DIMTAD
 70
     1
  9
$DIMZIN
 70
     8
  9
$DIMBLK
  1

  9
$DIMASO
 70
     1
  9
$DIMSHO
 70
     1
  9
$DIMPOST
  1

  9
$DIMAPOST
  1

  9
$DIMALT
 70
     0
  9
$DIMALTD
 70
     3
  9
$DIMALTF
 40
0.03937007874016
  9
$DIMLFAC
 40
1.0
  9
$DIMTOFL
 70
     1
  9
$DIMTVP
 40
0.0
  9
$DIMTIX
 70
     0
  9
$DIMSOXD
 70
     0
  9
$DIMSAH
 70
     0
  9
$DIMBLK1
  1

  9
$DIMBLK2
  1

  9
$DIMSTYLE
  2
ISO-25
  9
$DIMCLRD
 70
     0
  9
$DIMCLRE
 70
     0
  9
$DIMCLRT
 70
     0
  9
$DIMTFAC
 40
1.0
  9
$DIMGAP
 40
0.625
  9
$DIMJUST
 70
     0
  9
$DIMSD1
 70
     0
  9
$DIMSD2
 70
     0
  9
$DIMTOLJ
 70
     0
  9
$DIMTZIN
 70
     8
  9
$DIMALTZ
 70
     0
  9
$DIMALTTZ
 70
     0
  9
$DIMFIT
 70
     3
  9
$DIMUPT
 70
     0
  9
$DIMUNIT
 70
     2
  9
$DIMDEC
 70
     2
  9
$DIMTDEC
 70
     2
  9
$DIMALTU
 70
     2
  9
$DIMALTTD
 70
     3
  9
$DIMTXSTY
  7
STANDARD
  9
$DIMAUNIT
 70
     0
  9
$LUNITS
 70
     2
  9
$LUPREC
 70
     4
  9
$SKETCHINC
 40
1.0
  9
$FILLETRAD
 40
10.0
  9
$AUNITS
 70
     0
  9
$AUPREC
 70
     0
  9
$MENU
  1
.
  9
$ELEVATION
 40
0.0
  9
$PELEVATION
 40
0.0
  9
$THICKNESS
 40
0.0
  9
$LIMCHECK
 70
     0
  9
$CHAMFERA
 40
0.0
  9
$CHAMFERB
 40
0.0
  9
$CHAMFERC
 40
0.0
  9
$CHAMFERD
 40
0.0
  9
$SKPOLY
 70
     0
  9
$TDCREATE
 40
2459229.335936991
  9
$TDUPDATE
 40
2459229.335937523
  9
$TDINDWG
 40
0.0000000116
  9
$TDUSRTIMER
 40
0.0000000116
  9
$USRTIMER
 70
     1
  9
$ANGBASE
 50
0.0
  9
$ANGDIR
 70
     0
  9
$PDMODE
 70
     0
  9
$PDSIZE
 40
0.0
  9
$PLINEWID
 40
0.0
  9
$COORDS
 70
     1
  9
$SPLFRAME
 70
     0
  9
$SPLINETYPE
 70
     6
  9
$SPLINESEGS
 70
     8
  9
$ATTDIA
 70
     0
  9
$ATTREQ
 70
     1
  9
$HANDLING
 70
     1
  9
$HANDSEED
  5
4C1
  9
$SURFTAB1
 70
     6
  9
$SURFTAB2
 70
     6
  9
$SURFTYPE
 70
     6
  9
$SURFU
 70
     6
  9
$SURFV
 70
     6
  9
$UCSNAME
  2

  9
$UCSORG
 10
0.0
 20
0.0
 30
0.0
  9
$UCSXDIR
 10
1.0
 20
0.0
 30
0.0
  9
$UCSYDIR
 10
0.0
 20
1.0
 30
0.0
  9
$PUCSNAME
  2

  9
$PUCSORG
 10
0.0
 20
0.0
 30
0.0
  9
$PUCSXDIR
 10
1.0
 20
0.0
 30
0.0
  9
$PUCSYDIR
 10
0.0
 20
1.0
 30
0.0
  9
$USERI1
 70
     0
  9
$USERI2
 70
     0
  9
$USERI3
 70
     0
  9
$USERI4
 70
     0
  9
$USERI5
 70
     0
  9
$USERR1
 40
0.0
  9
$USERR2
 40
0.0
  9
$USERR3
 40
0.0
  9
$USERR4
 40
0.0
  9
$USERR5
 40
0.0
  9
$WORLDVIEW
 70
     1
  9
$SHADEDGE
 70
     3
  9
$SHADEDIF
 70
    70
  9
$TILEMODE
 70
     1
  9
$MAXACTVP
 70
    64
  9
$PINSBASE
 10
0.0
 20
0.0
 30
0.0
  9
$PLIMCHECK
 70
     0
  9
$PEXTMIN
 10
1.000000000000000E+20
 20
1.000000000000000E+20
 30
1.000000000000000E+20
  9
$PEXTMAX
 10
-1.000000000000000E+20
 20
-1.000000000000000E+20
 30
-1.000000000000000E+20
  9
$PLIMMIN
 10
0.0
 20
0.0
  9
$PLIMMAX
 10
420.0
 20
297.0
  9
$UNITMODE
 70
     0
  9
$VISRETAIN
 70
     1
  9
$PLINEGEN
 70
     0
  9
$PSLTSCALE
 70
     1
  9
$TREEDEPTH
 70
  3020
  9
$PICKSTYLE
 70
     1
  9
$CMLSTYLE
  2
STANDARD
  9
$CMLJUST
 70
     0
  9
$CMLSCALE
 40
20.0
  9
$PROXYGRAPHICS
 70
     1
  9
$MEASUREMENT
 70
     1
  0
ENDSEC
  0
SECTION
  2
CLASSES
  0
CLASS
  1
ACDBDICTIONARYWDFLT
  2
AcDbDictionaryWithDefault
  3
ObjectDBX Classes
 90
        0
280
     0
281
     0
  0
CLASS
  1
VISUALSTYLE
  2
AcDbVisualStyle
  3
ObjectDBX Classes
 90
     4095
280
     0
281
     0
  0
CLASS
  1
MATERIAL
  2
AcDbMaterial
  3
ObjectDBX Classes
 90
     1153
280
     0
281
     0
  0
CLASS
  1
SCALE
  2
AcDbScale
  3
ObjectDBX Classes
 90
     1153
280
     0
281
     0
  0
CLASS
  1
TABLESTYLE
  2
AcDbTableStyle
  3
ObjectDBX Classes
 90
     4095
280
     0
281
     0
  0
CLASS
  1
MLEADERSTYLE
  2
AcDbMLeaderStyle
  3
ACDB_MLEADERSTYLE_CLASS
 90
     4095
280
     0
281
     0
  0
CLASS
  1
SUN
  2
AcDbSun
  3
SCENEOE
 90
     1153
280
     0
281
     0
  0
CLASS
  1
DICTIONARYVAR
  2
AcDbDictionaryVar
  3
ObjectDBX Classes
 90
        0
280
     0
281
     0
  0
CLASS
  1
XRECORD
  2
AcDbXrecord
  3
ObjectDBX Classes
 90
        0
280
     0
281
     0
  0
CLASS
  1
LWPOLYLINE
  2
AcDbPolyline
  3
ObjectDBX Classes
 90
        0
280
     0
281
     1
  0
CLASS
  1
HATCH
  2
AcDbHatch
  3
ObjectDBX Classes
 90
        0
280
     0
281
     1
  0
CLASS
  1
ACDBPLACEHOLDER
  2
AcDbPlaceHolder
  3
ObjectDBX Classes
 90
        0
280
     0
281
     0
  0
CLASS
  1
LAYOUT
  2
AcDbLayout
  3
ObjectDBX Classes
 90
        0
280
     0
281
     0
  0
ENDSEC
  0
SECTION
  2
TABLES
  0
TABLE
  2
VPORT
  5
8
102
{ACAD_XDICTIONARY
360
4B6
102
}
330
0
100
AcDbSymbolTable
 70
     1
  0
VPORT
  5
29
330
8
100
AcDbSymbolTableRecord
100
AcDbViewportTableRecord
  2
*ACTIVE
 70
     0
 10
0.0
 20
0.0
 11
1.0
 21
1.0
 12
2925.0
 22
2175.0
 13
0.0
 23
0.0
 14
10.0
 24
10.0
 15
10.0
 25
10.0
 16
0.0
 26
0.0
 36
1.0
 17
0.0
 27
0.0
 37
0.0
 40
4050.0
 41
1.407407407407408
 42
50.0
 43
0.0
 44
0.0
 50
0.0
 51
0.0
 71
     0
 72
  1000
 73
     1
 74
     3
 75
     0
 76
     0
 77
     0
 78
     0
  0
ENDTAB
  0
TABLE
  2
LTYPE
  5
5
330
0
100
AcDbSymbolTable
 70
     6
  0
LTYPE
  5
14
330
5
100
AcDbSymbolTableRecord
100
AcDbLinetypeTableRecord
  2
BYBLOCK
 70
     0
  3

 72
    65
 73
     0
 40
0.0
  0
LTYPE
  5
15
330
5
100
AcDbSymbolTableRecord
100
AcDbLinetypeTableRecord
  2
BYLAYER
 70
     0
  3

 72
    65
 73
     0
 40
0.0
  0
LTYPE
  5
16
330
5
100
AcDbSymbolTableRecord
100
AcDbLinetypeTableRecord
  2
CONTINUOUS
 70
     0
  3
Solid line
 72
    65
 73
     0
 40
0.0
  0
LTYPE
  5
6E
330
5
100
AcDbSymbolTableRecord
100
AcDbLinetypeTableRecord
  2
HIDDEN
 70
     0
  3
Hidden __ __ __ __ __ __ __ __ __ __ __ __ __ __
 72
    65
 73
     2
 40
9.524999999999999
 49
6.35
 74
     0
 49
-3.175
 74
     0
  0
LTYPE
  5
6F
330
5
100
AcDbSymbolTableRecord
100
AcDbLinetypeTableRecord
  2
CENTER
 70
     0
  3
Center ____ _ ____ _ ____ _ ____ _ ____ _ ____
 72
    65
 73
     4
 40
50.8
 49
31.75
 74
     0
 49
-6.35
 74
     0
 49
6.35
 74
     0
 49
-6.35
 74
     0
  0
LTYPE
  5
70
330
5
100
AcDbSymbolTableRecord
100
AcDbLinetypeTableRecord
  2
PHANTOM
 70
     0
  3
Phantom ______  __  __  ______  __  __  ______ 
 72
    65
 73
     6
 40
63.50000000000001
 49
31.75
 74
     0
 49
-6.35
 74
     0
 49
6.35
 74
     0
 49
-6.35
 74
     0
 49
6.35
 74
     0
 49
-6.35
 74
     0
  0
LTYPE
  5
71
330
5
100
AcDbSymbolTableRecord
100
AcDbLinetypeTableRecord
  2
ACAD_ISO06W100
 70
     0
  3
ISO long-dash triple-dot ____ ... ____ ... ____
 72
    65
 73
     8
 40
36.0
 49
24.0
 74
     0
 49
-3.0
 74
     0
 49
0.0
 74
     0
 49
-3.0
 74
     0
 49
0.0
 74
     0
 49
-3.0
 74
     0
 49
0.0
 74
     0
 49
-3.0
 74
     0
  0
LTYPE
  5
72
330
5
100
AcDbSymbolTableRecord
100
AcDbLinetypeTableRecord
  2
ACAD_ISO15W100
 70
     0
  3
ISO double-dash triple-dot __ __ . . . __ __ . .
 72
    65
 73
    10
 40
39.0
 49
12.0
 74
     0
 49
-3.0
 74
     0
 49
12.0
 74
     0
 49
-3.0
 74
     0
 49
0.0
 74
     0
 49
-3.0
 74
     0
 49
0.0
 74
     0
 49
-3.0
 74
     0
 49
0.0
 74
     0
 49
-3.0
 74
     0
  0
ENDTAB
  0
TABLE
  2
LAYER
  5
2
330
0
100
AcDbSymbolTable
 70
     7
  0
LAYER
  5
10
330
2
100
AcDbSymbolTableRecord
100
AcDbLayerTableRecord
  2
0
 70
     0
 62
     7
  6
CONTINUOUS
  0
LAYER
  5
75
330
2
100
AcDbSymbolTableRecord
100
AcDbLayerTableRecord
  2
LAY-10
 70
     0
 62
     7
  6
CONTINUOUS
  0
LAYER
  5
76
330
2
100
AcDbSymbolTableRecord
100
AcDbLayerTableRecord
  2
LAY-11
 70
     0
 62
     7
  6
CONTINUOUS
  0
LAYER
  5
77
330
2
100
AcDbSymbolTableRecord
100
AcDbLayerTableRecord
  2
LAY-12
 70
     0
 62
     7
  6
CONTINUOUS
  0
LAYER
  5
78
330
2
100
AcDbSymbolTableRecord
100
AcDbLayerTableRecord
  2
LAY-20
 70
     0
 62
     7
  6
CONTINUOUS
  0
LAYER
  5
79
330
2
100
AcDbSymbolTableRecord
100
AcDbLayerTableRecord
  2
LAY-255
 70
     0
 62
     7
  6
CONTINUOUS
  0
LAYER
  5
3B8
330
2
100
AcDbSymbolTableRecord
100
AcDbLayerTableRecord
  2
DEFPOINTS
 70
     0
 62
     7
  6
CONTINUOUS
  0
ENDTAB
  0
TABLE
  2
STYLE
  5
3
330
0
100
AcDbSymbolTable
 70
     4
  0
STYLE
  5
11
330
3
100
AcDbSymbolTableRecord
100
AcDbTextStyleTableRecord
  2
STANDARD
 70
     0
 40
0.0
 41
1.0
 50
0.0
 71
     0
 42
2.5
  3
simplex
  4
bigfont
  0
STYLE
  5
73
330
3
100
AcDbSymbolTableRecord
100
AcDbTextStyleTableRecord
  2
EXCADSTD
 70
     0
 40
0.0
 41
1.0
 50
0.0
 71
     0
 42
2.5
  3
simplex
  4
bigfont
  0
STYLE
  5
74
330
3
100
AcDbSymbolTableRecord
100
AcDbTextStyleTableRecord
  2
EXCADVERT
 70
     4
 40
0.0
 41
1.0
 50
0.0
 71
     0
 42
2.5
  3
simplex
  4
bigfont
  0
STYLE
  5
3B6
330
3
100
AcDbSymbolTableRecord
100
AcDbTextStyleTableRecord
  2
EXCADDIM1
 70
     0
 40
0.0
 41
0.84
 50
0.0
 71
     0
 42
2.5
  3
simplex
  4
bigfont
  0
ENDTAB
  0
TABLE
  2
VIEW
  5
6
330
0
100
AcDbSymbolTable
 70
     0
  0
ENDTAB
  0
TABLE
  2
UCS
  5
7
330
0
100
AcDbSymbolTable
 70
     0
  0
ENDTAB
  0
TABLE
  2
APPID
  5
9
330
0
100
AcDbSymbolTable
 70
     2
  0
APPID
  5
12
330
9
100
AcDbSymbolTableRecord
100
AcDbRegAppTableRecord
  2
ACAD
 70
     0
  0
APPID
  5
4C0
330
9
100
AcDbSymbolTableRecord
100
AcDbRegAppTableRecord
  2
ACAD_MLEADERVER
 70
     0
  0
ENDTAB
  0
TABLE
  2
DIMSTYLE
  5
A
330
0
100
AcDbSymbolTable
 70
     1
  0
DIMSTYLE
105
27
102
{ACAD_REACTORS
330
3B7
330
3C4
330
3CF
330
3DC
330
3EA
330
3F7
330
404
330
411
330
41E
330
42B
330
438
330
445
330
452
102
}
330
A
100
AcDbSymbolTableRecord
100
AcDbDimStyleTableRecord
  2
ISO-25
 70
     0
  3

  4

  5

  6

  7

 40
1.0
 41
2.5
 42
0.625
 43
3.75
 44
1.25
 45
0.0
 46
0.0
 47
0.0
 48
0.0
140
2.5
141
2.5
142
0.0
143
0.03937007874016
144
1.0
145
0.0
146
1.0
147
0.625
 71
     0
 72
     0
 73
     0
 74
     0
 75
     0
 76
     0
 77
     1
 78
     8
170
     0
171
     3
172
     1
173
     0
174
     0
175
     0
176
     0
177
     0
178
     0
270
     2
271
     2
272
     2
273
     2
274
     3
340
11
275
     0
280
     0
281
     0
282
     0
283
     0
284
     8
285
     0
286
     0
287
     5
288
     0
  0
ENDTAB
  0
TABLE
  2
BLOCK_RECORD
  5
1
330
0
100
AcDbSymbolTable
 70
    27
  0
BLOCK_RECORD
  5
1F
330
1
100
AcDbSymbolTableRecord
100
AcDbBlockTableRecord
  2
*MODEL_SPACE
  0
BLOCK_RECORD
  5
1B
330
1
100
AcDbSymbolTableRecord
100
AcDbBlockTableRecord
  2
*PAPER_SPACE
  0
BLOCK_RECORD
  5
7A
330
1
100
AcDbSymbolTableRecord
100
AcDbBlockTableRecord
  2
EX_NORM
  0
BLOCK_RECORD
  5
7D
330
1
100
AcDbSymbolTableRecord
100
AcDbBlockTableRecord
  2
EX_BNORM
  0
BLOCK_RECORD
  5
80
330
1
100
AcDbSymbolTableRecord
100
AcDbBlockTableRecord
  2
EX_BCIR
  0
BLOCK_RECORD
  5
83
330
1
100
AcDbSymbolTableRecord
100
AcDbBlockTableRecord
  2
EX_RCIVIL
  0
BLOCK_RECORD
  5
86
330
1
100
AcDbSymbolTableRecord
100
AcDbBlockTableRecord
  2
EX_SLANT
  0
BLOCK_RECORD
  5
89
330
1
100
AcDbSymbolTableRecord
100
AcDbBlockTableRecord
  2
EX_NONE
  0
BLOCK_RECORD
  5
8C
330
1
100
AcDbSymbolTableRecord
100
AcDbBlockTableRecord
  2
EX_CIVIL
  0
BLOCK_RECORD
  5
8F
330
1
100
AcDbSymbolTableRecord
100
AcDbBlockTableRecord
  2
EX_WCIR
  0
BLOCK_RECORD
  5
92
330
1
100
AcDbSymbolTableRecord
100
AcDbBlockTableRecord
  2
EX_WCIR2
  0
BLOCK_RECORD
  5
95
330
1
100
AcDbSymbolTableRecord
100
AcDbBlockTableRecord
  2
EX_WNORM
  0
BLOCK_RECORD
  5
98
330
1
100
AcDbSymbolTableRecord
100
AcDbBlockTableRecord
  2
EX_NNORM
  0
BLOCK_RECORD
  5
9B
330
1
100
AcDbSymbolTableRecord
100
AcDbBlockTableRecord
  2
EX_BBOX
  0
BLOCK_RECORD
  5
9E
330
1
100
AcDbSymbolTableRecord
100
AcDbBlockTableRecord
  2
EX_WBOX
  0
BLOCK_RECORD
  5
A1
330
1
100
AcDbSymbolTableRecord
100
AcDbBlockTableRecord
  2
EX_INTEGRAL
  0
BLOCK_RECORD
  5
3B9
330
1
100
AcDbSymbolTableRecord
100
AcDbBlockTableRecord
  2
*D15
  0
BLOCK_RECORD
  5
3C5
330
1
100
AcDbSymbolTableRecord
100
AcDbBlockTableRecord
  2
*D16
  0
BLOCK_RECORD
  5
3D0
330
1
100
AcDbSymbolTableRecord
100
AcDbBlockTableRecord
  2
*D17
  0
BLOCK_RECORD
  5
3DD
330
1
100
AcDbSymbolTableRecord
100
AcDbBlockTableRecord
  2
*D18
  0
BLOCK_RECORD
  5
3EB
330
1
100
AcDbSymbolTableRecord
100
AcDbBlockTableRecord
  2
*D19
  0
BLOCK_RECORD
  5
3F8
330
1
100
AcDbSymbolTableRecord
100
AcDbBlockTableRecord
  2
*D20
  0
BLOCK_RECORD
  5
405
330
1
100
AcDbSymbolTableRecord
100
AcDbBlockTableRecord
  2
*D21
  0
BLOCK_RECORD
  5
412
330
1
100
AcDbSymbolTableRecord
100
AcDbBlockTableRecord
  2
*D22
  0
BLOCK_RECORD
  5
41F
330
1
100
AcDbSymbolTableRecord
100
AcDbBlockTableRecord
  2
*D23
  0
BLOCK_RECORD
  5
42C
330
1
100
AcDbSymbolTableRecord
100
AcDbBlockTableRecord
  2
*D24
  0
BLOCK_RECORD
  5
439
330
1
100
AcDbSymbolTableRecord
100
AcDbBlockTableRecord
  2
*D25
  0
BLOCK_RECORD
  5
446
330
1
100
AcDbSymbolTableRecord
100
AcDbBlockTableRecord
  2
*D26
  0
BLOCK_RECORD
  5
453
330
1
100
AcDbSymbolTableRecord
100
AcDbBlockTableRecord
  2
*D27
  0
ENDTAB
  0
ENDSEC
  0
SECTION
  2
BLOCKS
  0
BLOCK
  5
20
330
1F
100
AcDbEntity
  8
0
100
AcDbBlockBegin
  2
*MODEL_SPACE
 70
     0
 10
0.0
 20
0.0
 30
0.0
  3
*MODEL_SPACE
  1

  0
ENDBLK
  5
21
330
1F
100
AcDbEntity
  8
0
100
AcDbBlockEnd
  0
BLOCK
  5
1C
330
1B
100
AcDbEntity
 67
     1
  8
0
100
AcDbBlockBegin
  2
*PAPER_SPACE
 70
     0
 10
0.0
 20
0.0
 30
0.0
  3
*PAPER_SPACE
  1

  0
ENDBLK
  5
1D
330
1B
100
AcDbEntity
 67
     1
  8
0
100
AcDbBlockEnd
  0
BLOCK
  5
7B
330
7A
100
AcDbEntity
  8
0
100
AcDbBlockBegin
  2
EX_NORM
 70
     0
 10
0.0
 20
0.0
 30
0.0
  3
EX_NORM
  1

  0
LINE
  5
A4
330
7A
100
AcDbEntity
  8
0
  6
CONTINUOUS
 62
     0
100
AcDbLine
 10
0.0
 20
0.0
 30
0.0
 11
-1.0
 21
0.0
 31
0.0
  0
LINE
  5
A5
330
7A
100
AcDbEntity
  8
0
  6
CONTINUOUS
 62
     0
100
AcDbLine
 10
0.0
 20
0.0
 30
0.0
 11
-1.0
 21
0.166666667
 31
0.0
  0
LINE
  5
A6
330
7A
100
AcDbEntity
  8
0
  6
CONTINUOUS
 62
     0
100
AcDbLine
 10
0.0
 20
0.0
 30
0.0
 11
-1.0
 21
-0.166666667
 31
0.0
  0
ENDBLK
  5
7C
330
7A
100
AcDbEntity
  8
0
100
AcDbBlockEnd
  0
BLOCK
  5
7E
330
7D
100
AcDbEntity
  8
0
100
AcDbBlockBegin
  2
EX_BNORM
 70
     0
 10
0.0
 20
0.0
 30
0.0
  3
EX_BNORM
  1

  0
LINE
  5
A7
330
7D
100
AcDbEntity
  8
0
  6
CONTINUOUS
 62
     0
100
AcDbLine
 10
0.0
 20
0.0
 30
0.0
 11
-1.0
 21
0.0
 31
0.0
  0
LINE
  5
A8
330
7D
100
AcDbEntity
  8
0
  6
CONTINUOUS
 62
     0
100
AcDbLine
 10
0.0
 20
0.0
 30
0.0
 11
-1.0
 21
0.166666667
 31
0.0
  0
LINE
  5
A9
330
7D
100
AcDbEntity
  8
0
  6
CONTINUOUS
 62
     0
100
AcDbLine
 10
0.0
 20
0.0
 30
0.0
 11
-1.0
 21
-0.166666667
 31
0.0
  0
LINE
  5
AA
330
7D
100
AcDbEntity
  8
0
  6
CONTINUOUS
 62
     0
100
AcDbLine
 10
0.0
 20
0.0
 30
0.0
 11
-1.0
 21
0.083333333
 31
0.0
  0
LINE
  5
AB
330
7D
100
AcDbEntity
  8
0
  6
CONTINUOUS
 62
     0
100
AcDbLine
 10
0.0
 20
0.0
 30
0.0
 11
-1.0
 21
-0.083333333
 31
0.0
  0
LINE
  5
AC
330
7D
100
AcDbEntity
  8
0
  6
CONTINUOUS
 62
     0
100
AcDbLine
 10
-1.0
 20
0.166666667
 30
0.0
 11
-1.0
 21
-0.166666667
 31
0.0
  0
ENDBLK
  5
7F
330
7D
100
AcDbEntity
  8
0
100
AcDbBlockEnd
  0
BLOCK
  5
81
330
80
100
AcDbEntity
  8
0
100
AcDbBlockBegin
  2
EX_BCIR
 70
     0
 10
0.0
 20
0.0
 30
0.0
  3
EX_BCIR
  1

  0
LINE
  5
AD
330
80
100
AcDbEntity
  8
0
  6
CONTINUOUS
 62
     0
100
AcDbLine
 10
0.0
 20
0.0
 30
0.0
 11
-1.0
 21
0.0
 31
0.0
  0
CIRCLE
  5
AE
330
80
100
AcDbEntity
  8
0
  6
CONTINUOUS
 62
     0
100
AcDbCircle
 10
0.0
 20
0.0
 30
0.0
 40
0.5
  0
CIRCLE
  5
AF
330
80
100
AcDbEntity
  8
0
  6
CONTINUOUS
 62
     0
100
AcDbCircle
 10
0.0
 20
0.0
 30
0.0
 40
0.25
  0
ENDBLK
  5
82
330
80
100
AcDbEntity
  8
0
100
AcDbBlockEnd
  0
BLOCK
  5
84
330
83
100
AcDbEntity
  8
0
100
AcDbBlockBegin
  2
EX_RCIVIL
 70
     0
 10
0.0
 20
0.0
 30
0.0
  3
EX_RCIVIL
  1

  0
LINE
  5
B0
330
83
100
AcDbEntity
  8
0
  6
CONTINUOUS
 62
     0
100
AcDbLine
 10
0.0
 20
0.0
 30
0.0
 11
-1.0
 21
0.0
 31
0.0
  0
LINE
  5
B1
330
83
100
AcDbEntity
  8
0
  6
CONTINUOUS
 62
     0
100
AcDbLine
 10
-1.0
 20
-0.25
 30
0.0
 11
0.0
 21
-0.25
 31
0.0
  0
LINE
  5
B2
330
83
100
AcDbEntity
  8
0
  6
CONTINUOUS
 62
     0
100
AcDbLine
 10
-1.0
 20
-0.125
 30
0.0
 11
0.0
 21
-0.125
 31
0.0
  0
ENDBLK
  5
85
330
83
100
AcDbEntity
  8
0
100
AcDbBlockEnd
  0
BLOCK
  5
87
330
86
100
AcDbEntity
  8
0
100
AcDbBlockBegin
  2
EX_SLANT
 70
     0
 10
0.0
 20
0.0
 30
0.0
  3
EX_SLANT
  1

  0
LINE
  5
B3
330
86
100
AcDbEntity
  8
0
  6
CONTINUOUS
 62
     0
100
AcDbLine
 10
0.0
 20
0.0
 30
0.0
 11
-1.0
 21
0.0
 31
0.0
  0
LINE
  5
B4
330
86
100
AcDbEntity
  8
0
  6
CONTINUOUS
 62
     0
100
AcDbLine
 10
0.707106781
 20
0.707106781
 30
0.0
 11
-0.707106781
 21
-0.707106781
 31
0.0
  0
ENDBLK
  5
88
330
86
100
AcDbEntity
  8
0
100
AcDbBlockEnd
  0
BLOCK
  5
8A
330
89
100
AcDbEntity
  8
0
100
AcDbBlockBegin
  2
EX_NONE
 70
     0
 10
0.0
 20
0.0
 30
0.0
  3
EX_NONE
  1

  0
LINE
  5
B5
330
89
100
AcDbEntity
  8
0
  6
CONTINUOUS
 62
     0
100
AcDbLine
 10
0.0
 20
0.0
 30
0.0
 11
-1.0
 21
0.0
 31
0.0
  0
ENDBLK
  5
8B
330
89
100
AcDbEntity
  8
0
100
AcDbBlockEnd
  0
BLOCK
  5
8D
330
8C
100
AcDbEntity
  8
0
100
AcDbBlockBegin
  2
EX_CIVIL
 70
     0
 10
0.0
 20
0.0
 30
0.0
  3
EX_CIVIL
  1

  0
LINE
  5
B6
330
8C
100
AcDbEntity
  8
0
  6
CONTINUOUS
 62
     0
100
AcDbLine
 10
0.0
 20
0.0
 30
0.0
 11
-1.0
 21
0.0
 31
0.0
  0
LINE
  5
B7
330
8C
100
AcDbEntity
  8
0
  6
CONTINUOUS
 62
     0
100
AcDbLine
 10
-1.0
 20
0.25
 30
0.0
 11
0.0
 21
0.25
 31
0.0
  0
LINE
  5
B8
330
8C
100
AcDbEntity
  8
0
  6
CONTINUOUS
 62
     0
100
AcDbLine
 10
-1.0
 20
0.125
 30
0.0
 11
0.0
 21
0.125
 31
0.0
  0
ENDBLK
  5
8E
330
8C
100
AcDbEntity
  8
0
100
AcDbBlockEnd
  0
BLOCK
  5
90
330
8F
100
AcDbEntity
  8
0
100
AcDbBlockBegin
  2
EX_WCIR
 70
     0
 10
0.0
 20
0.0
 30
0.0
  3
EX_WCIR
  1

  0
LINE
  5
B9
330
8F
100
AcDbEntity
  8
0
  6
CONTINUOUS
 62
     0
100
AcDbLine
 10
0.0
 20
0.0
 30
0.0
 11
-1.0
 21
0.0
 31
0.0
  0
CIRCLE
  5
BA
330
8F
100
AcDbEntity
  8
0
  6
CONTINUOUS
 62
     0
100
AcDbCircle
 10
0.0
 20
0.0
 30
0.0
 40
0.5
  0
ENDBLK
  5
91
330
8F
100
AcDbEntity
  8
0
100
AcDbBlockEnd
  0
BLOCK
  5
93
330
92
100
AcDbEntity
  8
0
100
AcDbBlockBegin
  2
EX_WCIR2
 70
     0
 10
0.0
 20
0.0
 30
0.0
  3
EX_WCIR2
  1

  0
LINE
  5
BB
330
92
100
AcDbEntity
  8
0
  6
CONTINUOUS
 62
     0
100
AcDbLine
 10
-0.5
 20
0.0
 30
0.0
 11
-1.0
 21
0.0
 31
0.0
  0
CIRCLE
  5
BC
330
92
100
AcDbEntity
  8
0
  6
CONTINUOUS
 62
     0
100
AcDbCircle
 10
0.0
 20
0.0
 30
0.0
 40
0.5
  0
ENDBLK
  5
94
330
92
100
AcDbEntity
  8
0
100
AcDbBlockEnd
  0
BLOCK
  5
96
330
95
100
AcDbEntity
  8
0
100
AcDbBlockBegin
  2
EX_WNORM
 70
     0
 10
0.0
 20
0.0
 30
0.0
  3
EX_WNORM
  1

  0
LINE
  5
BD
330
95
100
AcDbEntity
  8
0
  6
CONTINUOUS
 62
     0
100
AcDbLine
 10
-1.0
 20
0.0
 30
0.0
 11
-1.0
 21
0.0
 31
0.0
  0
LINE
  5
BE
330
95
100
AcDbEntity
  8
0
  6
CONTINUOUS
 62
     0
100
AcDbLine
 10
0.0
 20
0.0
 30
0.0
 11
-1.0
 21
0.166666667
 31
0.0
  0
LINE
  5
BF
330
95
100
AcDbEntity
  8
0
  6
CONTINUOUS
 62
     0
100
AcDbLine
 10
0.0
 20
0.0
 30
0.0
 11
-1.0
 21
-0.166666667
 31
0.0
  0
LINE
  5
C0
330
95
100
AcDbEntity
  8
0
  6
CONTINUOUS
 62
     0
100
AcDbLine
 10
-1.0
 20
0.166666667
 30
0.0
 11
-1.0
 21
-0.166666667
 31
0.0
  0
ENDBLK
  5
97
330
95
100
AcDbEntity
  8
0
100
AcDbBlockEnd
  0
BLOCK
  5
99
330
98
100
AcDbEntity
  8
0
100
AcDbBlockBegin
  2
EX_NNORM
 70
     0
 10
0.0
 20
0.0
 30
0.0
  3
EX_NNORM
  1

  0
LINE
  5
C1
330
98
100
AcDbEntity
  8
0
  6
CONTINUOUS
 62
     0
100
AcDbLine
 10
0.0
 20
0.0
 30
0.0
 11
-1.0
 21
0.0
 31
0.0
  0
LINE
  5
C2
330
98
100
AcDbEntity
  8
0
  6
CONTINUOUS
 62
     0
100
AcDbLine
 10
0.0
 20
0.0
 30
0.0
 11
-1.0
 21
0.166666667
 31
0.0
  0
LINE
  5
C3
330
98
100
AcDbEntity
  8
0
  6
CONTINUOUS
 62
     0
100
AcDbLine
 10
0.0
 20
0.0
 30
0.0
 11
-1.0
 21
-0.166666667
 31
0.0
  0
LINE
  5
C4
330
98
100
AcDbEntity
  8
0
  6
CONTINUOUS
 62
     0
100
AcDbLine
 10
-1.0
 20
0.166666667
 30
0.0
 11
-1.0
 21
-0.166666667
 31
0.0
  0
ENDBLK
  5
9A
330
98
100
AcDbEntity
  8
0
100
AcDbBlockEnd
  0
BLOCK
  5
9C
330
9B
100
AcDbEntity
  8
0
100
AcDbBlockBegin
  2
EX_BBOX
 70
     0
 10
0.0
 20
0.0
 30
0.0
  3
EX_BBOX
  1

  0
LINE
  5
C5
330
9B
100
AcDbEntity
  8
0
  6
CONTINUOUS
 62
     0
100
AcDbLine
 10
0.0
 20
0.0
 30
0.0
 11
-1.0
 21
0.0
 31
0.0
  0
LINE
  5
C6
330
9B
100
AcDbEntity
  8
0
  6
CONTINUOUS
 62
     0
100
AcDbLine
 10
-0.5
 20
0.5
 30
0.0
 11
0.5
 21
0.5
 31
0.0
  0
LINE
  5
C7
330
9B
100
AcDbEntity
  8
0
  6
CONTINUOUS
 62
     0
100
AcDbLine
 10
0.5
 20
0.5
 30
0.0
 11
0.5
 21
-0.5
 31
0.0
  0
LINE
  5
C8
330
9B
100
AcDbEntity
  8
0
  6
CONTINUOUS
 62
     0
100
AcDbLine
 10
0.5
 20
-0.5
 30
0.0
 11
-0.5
 21
-0.5
 31
0.0
  0
LINE
  5
C9
330
9B
100
AcDbEntity
  8
0
  6
CONTINUOUS
 62
     0
100
AcDbLine
 10
-0.5
 20
-0.5
 30
0.0
 11
-0.5
 21
0.5
 31
0.0
  0
LINE
  5
CA
330
9B
100
AcDbEntity
  8
0
  6
CONTINUOUS
 62
     0
100
AcDbLine
 10
-0.25
 20
0.25
 30
0.0
 11
0.25
 21
0.25
 31
0.0
  0
LINE
  5
CB
330
9B
100
AcDbEntity
  8
0
  6
CONTINUOUS
 62
     0
100
AcDbLine
 10
0.25
 20
0.25
 30
0.0
 11
0.25
 21
-0.25
 31
0.0
  0
LINE
  5
CC
330
9B
100
AcDbEntity
  8
0
  6
CONTINUOUS
 62
     0
100
AcDbLine
 10
0.25
 20
-0.25
 30
0.0
 11
-0.25
 21
-0.25
 31
0.0
  0
LINE
  5
CD
330
9B
100
AcDbEntity
  8
0
  6
CONTINUOUS
 62
     0
100
AcDbLine
 10
-0.25
 20
-0.25
 30
0.0
 11
-0.25
 21
0.25
 31
0.0
  0
ENDBLK
  5
9D
330
9B
100
AcDbEntity
  8
0
100
AcDbBlockEnd
  0
BLOCK
  5
9F
330
9E
100
AcDbEntity
  8
0
100
AcDbBlockBegin
  2
EX_WBOX
 70
     0
 10
0.0
 20
0.0
 30
0.0
  3
EX_WBOX
  1

  0
LINE
  5
CE
330
9E
100
AcDbEntity
  8
0
  6
CONTINUOUS
 62
     0
100
AcDbLine
 10
-0.5
 20
0.0
 30
0.0
 11
-1.0
 21
0.0
 31
0.0
  0
LINE
  5
CF
330
9E
100
AcDbEntity
  8
0
  6
CONTINUOUS
 62
     0
100
AcDbLine
 10
-0.5
 20
0.5
 30
0.0
 11
0.5
 21
0.5
 31
0.0
  0
LINE
  5
D0
330
9E
100
AcDbEntity
  8
0
  6
CONTINUOUS
 62
     0
100
AcDbLine
 10
0.5
 20
0.5
 30
0.0
 11
0.5
 21
-0.5
 31
0.0
  0
LINE
  5
D1
330
9E
100
AcDbEntity
  8
0
  6
CONTINUOUS
 62
     0
100
AcDbLine
 10
0.5
 20
-0.5
 30
0.0
 11
-0.5
 21
-0.5
 31
0.0
  0
LINE
  5
D2
330
9E
100
AcDbEntity
  8
0
  6
CONTINUOUS
 62
     0
100
AcDbLine
 10
-0.5
 20
-0.5
 30
0.0
 11
-0.5
 21
0.5
 31
0.0
  0
ENDBLK
  5
A0
330
9E
100
AcDbEntity
  8
0
100
AcDbBlockEnd
  0
BLOCK
  5
A2
330
A1
100
AcDbEntity
  8
0
100
AcDbBlockBegin
  2
EX_INTEGRAL
 70
     0
 10
0.0
 20
0.0
 30
0.0
  3
EX_INTEGRAL
  1

  0
LINE
  5
D3
330
A1
100
AcDbEntity
  8
0
  6
CONTINUOUS
 62
     0
100
AcDbLine
 10
0.0
 20
0.0
 30
0.0
 11
-1.0
 21
0.0
 31
0.0
  0
ARC
  5
D4
330
A1
100
AcDbEntity
  8
0
  6
CONTINUOUS
 62
     0
100
AcDbCircle
 10
0.542115
 20
0.164992
 30
0.0
 40
0.56667
100
AcDbArc
 50
73.07249033629006
 51
196.9275130221199
  0
ARC
  5
D5
330
A1
100
AcDbEntity
  8
0
  6
CONTINUOUS
 62
     0
100
AcDbCircle
 10
-0.542115
 20
-0.164992
 30
0.0
 40
0.56667
100
AcDbArc
 50
253.0724869220464
 51
16.9275130559125
  0
ENDBLK
  5
A3
330
A1
100
AcDbEntity
  8
0
100
AcDbBlockEnd
  0
BLOCK
  5
3BA
330
3B9
100
AcDbEntity
  8
0
100
AcDbBlockBegin
  2
*D15
 70
     1
 10
0.0
 20
0.0
 30
0.0
  3
*D15
  1

  0
LINE
  5
3BC
330
3B9
100
AcDbEntity
  8
LAY-20
  6
CONTINUOUS
 62
     4
100
AcDbLine
 10
2439.0
 20
1138.499999999999
 30
0.0
 11
2554.0
 21
1138.499999999999
 31
0.0
  0
LINE
  5
3BD
330
3B9
100
AcDbEntity
  8
LAY-20
  6
CONTINUOUS
 62
     4
100
AcDbLine
 10
2531.5
 20
1153.499999046325
 30
0.0
 11
2531.5
 21
1220.500000953673
 31
0.0
  0
INSERT
  5
3BE
330
3B9
100
AcDbEntity
  8
LAY-20
 62
     4
100
AcDbBlockReference
  2
EX_BCIR
 10
2531.5
 20
1138.499999999999
 30
0.0
 41
14.99999904632568
 42
14.99999904632568
 43
14.99999904632568
 50
270.0
  0
INSERT
  5
3BF
330
3B9
100
AcDbEntity
  8
LAY-20
 62
     4
100
AcDbBlockReference
  2
EX_BNORM
 10
2531.5
 20
1235.499999999999
 30
0.0
 41
14.99999904632568
 42
14.99999904632568
 43
14.99999904632568
 50
90.0
  0
MTEXT
  5
3C0
330
3B9
100
AcDbEntity
  8
LAY-20
 62
     7
100
AcDbMText
 10
2494.0
 20
1325.499999999998
 30
0.0
 40
46.77165302633819
 41
0.0
 71
     5
 72
     1
  1
97
  7
EXCADDIM1
 11
0.0
 21
1.0
 31
0.0
  0
POINT
  5
3C1
330
3B9
100
AcDbEntity
  8
DEFPOINTS
 62
     0
100
AcDbPoint
 10
2416.5
 20
1138.499999999999
 30
0.0
  0
POINT
  5
3C2
330
3B9
100
AcDbEntity
  8
DEFPOINTS
 62
     0
100
AcDbPoint
 10
2531.5
 20
1235.499999999999
 30
0.0
  0
POINT
  5
3C3
330
3B9
100
AcDbEntity
  8
DEFPOINTS
 62
     0
100
AcDbPoint
 10
2531.5
 20
1235.499999999999
 30
0.0
  0
ENDBLK
  5
3BB
330
3B9
100
AcDbEntity
  8
0
100
AcDbBlockEnd
  0
BLOCK
  5
3C6
330
3C5
100
AcDbEntity
  8
0
100
AcDbBlockBegin
  2
*D16
 70
     1
 10
0.0
 20
0.0
 30
0.0
  3
*D16
  1

  0
LINE
  5
3C8
330
3C5
100
AcDbEntity
  8
LAY-20
  6
CONTINUOUS
 62
     4
100
AcDbLine
 10
2531.5
 20
1123.500000953674
 30
0.0
 11
2531.5
 21
1106.499999046325
 31
0.0
  0
INSERT
  5
3C9
330
3C5
100
AcDbEntity
  8
LAY-20
 62
     4
100
AcDbBlockReference
  2
EX_BCIR
 10
2531.5
 20
1138.499999999999
 30
0.0
 41
14.99999904632568
 42
14.99999904632568
 43
14.99999904632568
 50
90.0
  0
INSERT
  5
3CA
330
3C5
100
AcDbEntity
  8
LAY-20
 62
     4
100
AcDbBlockReference
  2
EX_BNORM
 10
2531.5
 20
1091.499999999999
 30
0.0
 41
14.99999904632568
 42
14.99999904632568
 43
14.99999904632568
 50
270.0
  0
MTEXT
  5
3CB
330
3C5
100
AcDbEntity
  8
LAY-20
 62
     7
100
AcDbMText
 10
2494.0
 20
1001.499999999998
 30
0.0
 40
46.77165302633819
 41
0.0
 71
     5
 72
     1
  1
47
  7
EXCADDIM1
 11
0.0
 21
1.0
 31
0.0
  0
POINT
  5
3CC
330
3C5
100
AcDbEntity
  8
DEFPOINTS
 62
     0
100
AcDbPoint
 10
2531.5
 20
1138.499999999999
 30
0.0
  0
POINT
  5
3CD
330
3C5
100
AcDbEntity
  8
DEFPOINTS
 62
     0
100
AcDbPoint
 10
2531.5
 20
1091.499999999999
 30
0.0
  0
POINT
  5
3CE
330
3C5
100
AcDbEntity
  8
DEFPOINTS
 62
     0
100
AcDbPoint
 10
2531.5
 20
1091.499999999999
 30
0.0
  0
ENDBLK
  5
3C7
330
3C5
100
AcDbEntity
  8
0
100
AcDbBlockEnd
  0
BLOCK
  5
3D1
330
3D0
100
AcDbEntity
  8
0
100
AcDbBlockBegin
  2
*D17
 70
     1
 10
0.0
 20
0.0
 30
0.0
  3
*D17
  1

  0
LINE
  5
3D3
330
3D0
100
AcDbEntity
  8
LAY-20
  6
CONTINUOUS
 62
     4
100
AcDbLine
 10
1423.5
 20
1160.6999999992
 30
0.0
 11
1423.5
 21
1235.5
 31
0.0
  0
LINE
  5
3D4
330
3D0
100
AcDbEntity
  8
LAY-20
  6
CONTINUOUS
 62
     4
100
AcDbLine
 10
1423.5
 20
1123.200003813897
 30
0.0
 11
1423.5
 21
1085.700007628594
 31
0.0
  0
LINE
  5
3D5
330
3D0
100
AcDbEntity
  8
LAY-20
  6
CONTINUOUS
 62
     4
100
AcDbLine
 10
1423.5
 20
1272.999996185303
 30
0.0
 11
1423.5
 21
1310.499992370605
 31
0.0
  0
INSERT
  5
3D6
330
3D0
100
AcDbEntity
  8
LAY-20
 62
     4
100
AcDbBlockReference
  2
EX_BNORM
 10
1423.5
 20
1160.6999999992
 30
0.0
 41
37.49999618530273
 42
37.49999618530273
 43
37.49999618530273
 50
90.0
  0
INSERT
  5
3D7
330
3D0
100
AcDbEntity
  8
LAY-20
 62
     4
100
AcDbBlockReference
  2
EX_BNORM
 10
1423.5
 20
1235.5
 30
0.0
 41
37.49999618530273
 42
37.49999618530273
 43
37.49999618530273
 50
270.0
  0
MTEXT
  5
3D8
330
3D0
100
AcDbEntity
  8
LAY-20
 62
     7
100
AcDbMText
 10
1385.999999999999
 20
1325.5
 30
0.0
 40
46.77165302633819
 41
0.0
 71
     5
 72
     1
  1
75
  7
EXCADDIM1
 11
0.0
 21
1.0
 31
0.0
  0
POINT
  5
3D9
330
3D0
100
AcDbEntity
  8
DEFPOINTS
 62
     0
100
AcDbPoint
 10
1362.0
 20
1160.6999999992
 30
0.0
  0
POINT
  5
3DA
330
3D0
100
AcDbEntity
  8
DEFPOINTS
 62
     0
100
AcDbPoint
 10
1512.000000000029
 20
1235.5
 30
0.0
  0
POINT
  5
3DB
330
3D0
100
AcDbEntity
  8
DEFPOINTS
 62
     0
100
AcDbPoint
 10
1423.5
 20
1235.5
 30
0.0
  0
ENDBLK
  5
3D2
330
3D0
100
AcDbEntity
  8
0
100
AcDbBlockEnd
  0
BLOCK
  5
3DE
330
3DD
100
AcDbEntity
  8
0
100
AcDbBlockBegin
  2
*D18
 70
     1
 10
0.0
 20
0.0
 30
0.0
  3
*D18
  1

  0
LINE
  5
3E0
330
3DD
100
AcDbEntity
  8
LAY-20
  6
CONTINUOUS
 62
     4
100
AcDbLine
 10
1784.5
 20
3210.9598670394
 30
0.0
 11
1784.5
 21
3299.000000000041
 31
0.0
  0
LINE
  5
3E1
330
3DD
100
AcDbEntity
  8
LAY-20
  6
CONTINUOUS
 62
     4
100
AcDbLine
 10
1359.681668758151
 20
3035.778772457276
 30
0.0
 11
1289.874934346139
 21
3118.971198980049
 31
0.0
  0
ARC
  5
3E2
330
3DD
100
AcDbEntity
  8
LAY-20
  6
CONTINUOUS
 62
     4
100
AcDbCircle
 10
1784.5
 20
2529.5
 30
0.0
 40
747.0000000000407
100
AcDbArc
 50
92.87659597058402
 51
127.1234040294201
  0
INSERT
  5
3E3
330
3DD
100
AcDbEntity
  8
LAY-20
 62
     4
100
AcDbBlockReference
  2
EX_BNORM
 10
1784.5
 20
3276.500000000041
 30
0.0
 41
37.49999618530273
 42
37.49999618530273
 43
37.49999618530273
 50
1.438297985292014
  0
INSERT
  5
3E4
330
3DD
100
AcDbEntity
  8
LAY-20
 62
     4
100
AcDbBlockReference
  2
EX_BNORM
 10
1304.337655564088
 20
3101.735199009873
 30
0.0
 41
37.49999618530273
 42
37.49999618530273
 43
37.49999618530273
 50
218.5617020147121
  0
MTEXT
  5
3E5
330
3DD
100
AcDbEntity
  8
LAY-20
 62
     7
100
AcDbMText
 10
1516.185197560973
 20
3266.688861006573
 30
0.0
 40
46.77165302633819
 41
0.0
 71
     5
 72
     1
  1
40%%d
  7
EXCADDIM1
 11
0.9396926207858963
 21
0.3420201433257022
 31
0.0
  0
POINT
  5
3E6
330
3DD
100
AcDbEntity
  8
DEFPOINTS
 62
     0
100
AcDbPoint
 10
1784.5
 20
2529.5
 30
0.0
  0
POINT
  5
3E7
330
3DD
100
AcDbEntity
  8
DEFPOINTS
 62
     0
100
AcDbPoint
 10
1784.5
 20
3188.4598670394
 30
0.0
  0
POINT
  5
3E8
330
3DD
100
AcDbEntity
  8
DEFPOINTS
 62
     0
100
AcDbPoint
 10
1374.1443899761
 20
3018.542772487101
 30
0.0
  0
POINT
  5
3E9
330
3DD
100
AcDbEntity
  8
DEFPOINTS
 62
     0
100
AcDbPoint
 10
1612.22994455537
 20
3256.364518323164
 30
0.0
  0
ENDBLK
  5
3DF
330
3DD
100
AcDbEntity
  8
0
100
AcDbBlockEnd
  0
BLOCK
  5
3EC
330
3EB
100
AcDbEntity
  8
0
100
AcDbBlockBegin
  2
*D19
 70
     1
 10
0.0
 20
0.0
 30
0.0
  3
*D19
  1

  0
LINE
  5
3EE
330
3EB
100
AcDbEntity
  8
LAY-20
  6
CONTINUOUS
 62
     4
100
AcDbLine
 10
1133.640556034224
 20
2644.264080620002
 30
0.0
 11
1026.690434057118
 21
2663.122272714616
 31
0.0
  0
ARC
  5
3EF
330
3EB
100
AcDbEntity
  8
LAY-20
  6
CONTINUOUS
 62
     4
100
AcDbCircle
 10
1784.5
 20
2529.5
 30
0.0
 40
746.999999999973
100
AcDbArc
 50
132.8765959705864
 51
167.123404029422
  0
INSERT
  5
3F0
330
3EB
100
AcDbEntity
  8
LAY-20
 62
     4
100
AcDbBlockReference
  2
EX_BNORM
 10
1304.337655564151
 20
3101.735199009838
 30
0.0
 41
37.49999618530273
 42
37.49999618530273
 43
37.49999618530273
 50
41.43829798529426
  0
INSERT
  5
3F1
330
3EB
100
AcDbEntity
  8
LAY-20
 62
     4
100
AcDbBlockReference
  2
EX_BNORM
 10
1048.848608499893
 20
2659.215188717112
 30
0.0
 41
37.49999618530273
 42
37.49999618530273
 43
37.49999618530273
 50
258.5617020147141
  0
MTEXT
  5
3F2
330
3EB
100
AcDbEntity
  8
LAY-20
 62
     7
100
AcDbMText
 10
1105.103070731103
 20
2921.749999999937
 30
0.0
 40
46.77165302633819
 41
0.0
 71
     5
 72
     1
  1
40%%d
  7
EXCADDIM1
 11
0.4999999999999372
 21
0.8660254037844748
 31
0.0
  0
POINT
  5
3F3
330
3EB
100
AcDbEntity
  8
DEFPOINTS
 62
     0
100
AcDbPoint
 10
1784.5
 20
2529.5
 30
0.0
  0
POINT
  5
3F4
330
3EB
100
AcDbEntity
  8
DEFPOINTS
 62
     0
100
AcDbPoint
 10
1304.337655564151
 20
3101.735199009838
 30
0.0
  0
POINT
  5
3F5
330
3EB
100
AcDbEntity
  8
DEFPOINTS
 62
     0
100
AcDbPoint
 10
1155.798730476999
 20
2640.356996622499
 30
0.0
  0
POINT
  5
3F6
330
3EB
100
AcDbEntity
  8
DEFPOINTS
 62
     0
100
AcDbPoint
 10
1185.313975011976
 20
2975.577468001929
 30
0.0
  0
ENDBLK
  5
3ED
330
3EB
100
AcDbEntity
  8
0
100
AcDbBlockEnd
  0
BLOCK
  5
3F9
330
3F8
100
AcDbEntity
  8
0
100
AcDbBlockBegin
  2
*D20
 70
     1
 10
0.0
 20
0.0
 30
0.0
  3
*D20
  1

  0
LINE
  5
3FB
330
3F8
100
AcDbEntity
  8
LAY-20
  6
CONTINUOUS
 62
     4
100
AcDbLine
 10
1133.640556034225
 20
2414.735919379996
 30
0.0
 11
1026.690434057123
 21
2395.877727285383
 31
0.0
  0
ARC
  5
3FC
330
3F8
100
AcDbEntity
  8
LAY-20
  6
CONTINUOUS
 62
     4
100
AcDbCircle
 10
1784.5
 20
2529.5
 30
0.0
 40
746.9999999999679
100
AcDbArc
 50
172.8765959705914
 51
187.1234040294097
  0
INSERT
  5
3FD
330
3F8
100
AcDbEntity
  8
LAY-20
 62
     4
100
AcDbBlockReference
  2
EX_BNORM
 10
1048.848608499896
 20
2659.2151887171
 30
0.0
 41
37.49999618530273
 42
37.49999618530273
 43
37.49999618530273
 50
81.43829798529923
  0
INSERT
  5
3FE
330
3F8
100
AcDbEntity
  8
LAY-20
 62
     4
100
AcDbBlockReference
  2
EX_BNORM
 10
1048.848608499898
 20
2399.784811282886
 30
0.0
 41
37.49999618530273
 42
37.49999618530273
 43
37.49999618530273
 50
278.5617020147018
  0
MTEXT
  5
3FF
330
3F8
100
AcDbEntity
  8
LAY-20
 62
     7
100
AcDbMText
 10
1000.000000000033
 20
2529.499999999994
 30
0.0
 40
46.77165302633819
 41
0.0
 71
     5
 72
     1
  1
20%%d
  7
EXCADDIM1
 11
8.115312826527426E-15
 21
-1.0
 31
0.0
  0
POINT
  5
400
330
3F8
100
AcDbEntity
  8
DEFPOINTS
 62
     0
100
AcDbPoint
 10
1784.5
 20
2529.5
 30
0.0
  0
POINT
  5
401
330
3F8
100
AcDbEntity
  8
DEFPOINTS
 62
     0
100
AcDbPoint
 10
1048.848608499896
 20
2659.2151887171
 30
0.0
  0
POINT
  5
402
330
3F8
100
AcDbEntity
  8
DEFPOINTS
 62
     0
100
AcDbPoint
 10
1155.798730476999
 20
2418.643003377499
 30
0.0
  0
POINT
  5
403
330
3F8
100
AcDbEntity
  8
DEFPOINTS
 62
     0
100
AcDbPoint
 10
1038.763805771392
 20
2572.934187196088
 30
0.0
  0
ENDBLK
  5
3FA
330
3F8
100
AcDbEntity
  8
0
100
AcDbBlockEnd
  0
BLOCK
  5
406
330
405
100
AcDbEntity
  8
0
100
AcDbBlockBegin
  2
*D21
 70
     1
 10
0.0
 20
0.0
 30
0.0
  3
*D21
  1

  0
LINE
  5
408
330
405
100
AcDbEntity
  8
LAY-20
  6
CONTINUOUS
 62
     4
100
AcDbLine
 10
1359.681668758153
 20
2023.221227542623
 30
0.0
 11
1289.874934346241
 21
1940.028801019952
 31
0.0
  0
ARC
  5
409
330
405
100
AcDbEntity
  8
LAY-20
  6
CONTINUOUS
 62
     4
100
AcDbCircle
 10
1784.5
 20
2529.5
 30
0.0
 40
746.9999999999743
100
AcDbArc
 50
192.8765959705772
 51
227.1234040294174
  0
INSERT
  5
40A
330
405
100
AcDbEntity
  8
LAY-20
 62
     4
100
AcDbBlockReference
  2
EX_BNORM
 10
1048.84860849989
 20
2399.784811282898
 30
0.0
 41
37.49999618530273
 42
37.49999618530273
 43
37.49999618530273
 50
101.4382979852851
  0
INSERT
  5
40B
330
405
100
AcDbEntity
  8
LAY-20
 62
     4
100
AcDbBlockReference
  2
EX_BNORM
 10
1304.337655564188
 20
1957.264800990129
 30
0.0
 41
37.49999618530273
 42
37.49999618530273
 43
37.49999618530273
 50
318.5617020147095
  0
MTEXT
  5
40C
330
405
100
AcDbEntity
  8
LAY-20
 62
     7
100
AcDbMText
 10
1170.054976014945
 20
2174.750000000041
 30
0.0
 40
46.77165302633819
 41
0.0
 71
     5
 72
     1
  1
40%%d
  7
EXCADDIM1
 11
0.4999999999999598
 21
-0.866025403784462
 31
0.0
  0
POINT
  5
40D
330
405
100
AcDbEntity
  8
DEFPOINTS
 62
     0
100
AcDbPoint
 10
1784.5
 20
2529.5
 30
0.0
  0
POINT
  5
40E
330
405
100
AcDbEntity
  8
DEFPOINTS
 62
     0
100
AcDbPoint
 10
1048.848608499889
 20
2399.784811282898
 30
0.0
  0
POINT
  5
40F
330
405
100
AcDbEntity
  8
DEFPOINTS
 62
     0
100
AcDbPoint
 10
1374.1443899761
 20
2040.4572275128
 30
0.0
  0
POINT
  5
410
330
405
100
AcDbEntity
  8
DEFPOINTS
 62
     0
100
AcDbPoint
 10
1098.592568160437
 20
2233.628414768809
 30
0.0
  0
ENDBLK
  5
407
330
405
100
AcDbEntity
  8
0
100
AcDbBlockEnd
  0
BLOCK
  5
413
330
412
100
AcDbEntity
  8
0
100
AcDbBlockBegin
  2
*D22
 70
     1
 10
0.0
 20
0.0
 30
0.0
  3
*D22
  1

  0
LINE
  5
415
330
412
100
AcDbEntity
  8
LAY-20
  6
CONTINUOUS
 62
     4
100
AcDbLine
 10
1784.5
 20
1848.0401329606
 30
0.0
 11
1784.5
 21
1759.999999999987
 31
0.0
  0
ARC
  5
416
330
412
100
AcDbEntity
  8
LAY-20
  6
CONTINUOUS
 62
     4
100
AcDbCircle
 10
1784.5
 20
2529.5
 30
0.0
 40
747.000000000013
100
AcDbArc
 50
232.8765959705878
 51
267.123404029416
  0
INSERT
  5
417
330
412
100
AcDbEntity
  8
LAY-20
 62
     4
100
AcDbBlockReference
  2
EX_BNORM
 10
1304.337655564184
 20
1957.264800990082
 30
0.0
 41
37.49999618530273
 42
37.49999618530273
 43
37.49999618530273
 50
141.4382979852958
  0
INSERT
  5
418
330
412
100
AcDbEntity
  8
LAY-20
 62
     4
100
AcDbBlockReference
  2
EX_BNORM
 10
1784.5
 20
1782.499999999987
 30
0.0
 41
37.49999618530273
 42
37.49999618530273
 43
37.49999618530273
 50
358.561702014708
  0
MTEXT
  5
419
330
412
100
AcDbEntity
  8
LAY-20
 62
     7
100
AcDbMText
 10
1541.836708310455
 20
1862.788085552378
 30
0.0
 40
46.77165302633819
 41
0.0
 71
     5
 72
     1
  1
40%%d
  7
EXCADDIM1
 11
0.9396926207859196
 21
-0.3420201433256378
 31
0.0
  0
POINT
  5
41A
330
412
100
AcDbEntity
  8
DEFPOINTS
 62
     0
100
AcDbPoint
 10
1784.5
 20
2529.5
 30
0.0
  0
POINT
  5
41B
330
412
100
AcDbEntity
  8
DEFPOINTS
 62
     0
100
AcDbPoint
 10
1304.337655564184
 20
1957.264800990082
 30
0.0
  0
POINT
  5
41C
330
412
100
AcDbEntity
  8
DEFPOINTS
 62
     0
100
AcDbPoint
 10
1784.5
 20
1870.5401329606
 30
0.0
  0
POINT
  5
41D
330
412
100
AcDbEntity
  8
DEFPOINTS
 62
     0
100
AcDbPoint
 10
1449.247012390278
 20
1861.956417678385
 30
0.0
  0
ENDBLK
  5
414
330
412
100
AcDbEntity
  8
0
100
AcDbBlockEnd
  0
BLOCK
  5
420
330
41F
100
AcDbEntity
  8
0
100
AcDbBlockBegin
  2
*D23
 70
     1
 10
0.0
 20
0.0
 30
0.0
  3
*D23
  1

  0
LINE
  5
422
330
41F
100
AcDbEntity
  8
LAY-20
  6
CONTINUOUS
 62
     4
100
AcDbLine
 10
2403.9999999996
 20
1235.5
 30
0.0
 11
2659.0000000001
 21
1235.5
 31
0.0
  0
LINE
  5
423
330
41F
100
AcDbEntity
  8
LAY-20
  6
CONTINUOUS
 62
     4
100
AcDbLine
 10
2403.9999999999
 20
1091.5
 30
0.0
 11
2659.0000000001
 21
1091.5
 31
0.0
  0
LINE
  5
424
330
41F
100
AcDbEntity
  8
LAY-20
  6
CONTINUOUS
 62
     4
100
AcDbLine
 10
2636.5000000001
 20
1198.000003814697
 30
0.0
 11
2636.5000000001
 21
1128.999996185303
 31
0.0
  0
INSERT
  5
425
330
41F
100
AcDbEntity
  8
LAY-20
 62
     4
100
AcDbBlockReference
  2
EX_BNORM
 10
2636.5000000001
 20
1235.5
 30
0.0
 41
37.49999618530273
 42
37.49999618530273
 43
37.49999618530273
 50
90.0
  0
INSERT
  5
426
330
41F
100
AcDbEntity
  8
LAY-20
 62
     4
100
AcDbBlockReference
  2
EX_BNORM
 10
2636.5000000001
 20
1091.5
 30
0.0
 41
37.49999618530273
 42
37.49999618530273
 43
37.49999618530273
 50
270.0
  0
MTEXT
  5
427
330
41F
100
AcDbEntity
  8
LAY-20
 62
     7
100
AcDbMText
 10
2599.0000000001
 20
1163.5
 30
0.0
 40
46.77165302633819
 41
0.0
 71
     5
 72
     1
  1
144
  7
EXCADDIM1
 11
0.0
 21
1.0
 31
0.0
  0
POINT
  5
428
330
41F
100
AcDbEntity
  8
DEFPOINTS
 62
     0
100
AcDbPoint
 10
2381.4999999996
 20
1235.5
 30
0.0
  0
POINT
  5
429
330
41F
100
AcDbEntity
  8
DEFPOINTS
 62
     0
100
AcDbPoint
 10
2381.4999999999
 20
1091.5
 30
0.0
  0
POINT
  5
42A
330
41F
100
AcDbEntity
  8
DEFPOINTS
 62
     0
100
AcDbPoint
 10
2636.5000000001
 20
1091.5
 30
0.0
  0
ENDBLK
  5
421
330
41F
100
AcDbEntity
  8
0
100
AcDbBlockEnd
  0
BLOCK
  5
42D
330
42C
100
AcDbEntity
  8
0
100
AcDbBlockBegin
  2
*D24
 70
     1
 10
0.0
 20
0.0
 30
0.0
  3
*D24
  1

  0
LINE
  5
42F
330
42C
100
AcDbEntity
  8
LAY-20
  6
CONTINUOUS
 62
     4
100
AcDbLine
 10
1187.5000000004
 20
1258.0
 30
0.0
 11
1187.5000000004
 21
1618.0
 31
0.0
  0
LINE
  5
430
330
42C
100
AcDbEntity
  8
LAY-20
  6
CONTINUOUS
 62
     4
100
AcDbLine
 10
2381.4999999996
 20
1258.0
 30
0.0
 11
2381.4999999996
 21
1618.0
 31
0.0
  0
LINE
  5
431
330
42C
100
AcDbEntity
  8
LAY-20
  6
CONTINUOUS
 62
     4
100
AcDbLine
 10
1224.999996185703
 20
1595.5
 30
0.0
 11
2344.000003814297
 21
1595.5
 31
0.0
  0
INSERT
  5
432
330
42C
100
AcDbEntity
  8
LAY-20
 62
     4
100
AcDbBlockReference
  2
EX_BNORM
 10
1187.5000000004
 20
1595.5
 30
0.0
 41
37.49999618530273
 42
37.49999618530273
 43
37.49999618530273
 50
180.0
  0
INSERT
  5
433
330
42C
100
AcDbEntity
  8
LAY-20
 62
     4
100
AcDbBlockReference
  2
EX_BNORM
 10
2381.4999999996
 20
1595.5
 30
0.0
 41
37.49999618530273
 42
37.49999618530273
 43
37.49999618530273
  0
MTEXT
  5
434
330
42C
100
AcDbEntity
  8
LAY-20
 62
     7
100
AcDbMText
 10
1784.5
 20
1633.0
 30
0.0
 40
46.77165302633819
 41
0.0
 71
     5
 72
     1
  1
%%c1194
  7
EXCADDIM1
  0
POINT
  5
435
330
42C
100
AcDbEntity
  8
DEFPOINTS
 62
     0
100
AcDbPoint
 10
1187.5000000004
 20
1235.5
 30
0.0
  0
POINT
  5
436
330
42C
100
AcDbEntity
  8
DEFPOINTS
 62
     0
100
AcDbPoint
 10
2381.4999999996
 20
1235.5
 30
0.0
  0
POINT
  5
437
330
42C
100
AcDbEntity
  8
DEFPOINTS
 62
     0
100
AcDbPoint
 10
2381.4999999996
 20
1595.5
 30
0.0
  0
ENDBLK
  5
42E
330
42C
100
AcDbEntity
  8
0
100
AcDbBlockEnd
  0
BLOCK
  5
43A
330
439
100
AcDbEntity
  8
0
100
AcDbBlockBegin
  2
*D25
 70
     1
 10
0.0
 20
0.0
 30
0.0
  3
*D25
  1

  0
LINE
  5
43C
330
439
100
AcDbEntity
  8
LAY-20
  6
CONTINUOUS
 62
     4
100
AcDbLine
 10
2367.999999999999
 20
1257.999999999999
 30
0.0
 11
2367.999999999999
 21
1513.0
 31
0.0
  0
LINE
  5
43D
330
439
100
AcDbEntity
  8
LAY-20
  6
CONTINUOUS
 62
     4
100
AcDbLine
 10
1201.000000000001
 20
1258.0
 30
0.0
 11
1201.000000000001
 21
1513.0
 31
0.0
  0
LINE
  5
43E
330
439
100
AcDbEntity
  8
LAY-20
  6
CONTINUOUS
 62
     4
100
AcDbLine
 10
2330.500003814696
 20
1490.5
 30
0.0
 11
1238.499996185304
 21
1490.5
 31
0.0
  0
INSERT
  5
43F
330
439
100
AcDbEntity
  8
LAY-20
 62
     4
100
AcDbBlockReference
  2
EX_BNORM
 10
2367.999999999999
 20
1490.5
 30
0.0
 41
37.49999618530273
 42
37.49999618530273
 43
37.49999618530273
  0
INSERT
  5
440
330
439
100
AcDbEntity
  8
LAY-20
 62
     4
100
AcDbBlockReference
  2
EX_BNORM
 10
1201.000000000001
 20
1490.5
 30
0.0
 41
37.49999618530273
 42
37.49999618530273
 43
37.49999618530273
 50
180.0
  0
MTEXT
  5
441
330
439
100
AcDbEntity
  8
LAY-20
 62
     7
100
AcDbMText
 10
1784.5
 20
1528.0
 30
0.0
 40
46.77165302633819
 41
0.0
 71
     5
 72
     1
  1
%%c1167
  7
EXCADDIM1
  0
POINT
  5
442
330
439
100
AcDbEntity
  8
DEFPOINTS
 62
     0
100
AcDbPoint
 10
2367.999999999999
 20
1235.499999999999
 30
0.0
  0
POINT
  5
443
330
439
100
AcDbEntity
  8
DEFPOINTS
 62
     0
100
AcDbPoint
 10
1201.000000000001
 20
1235.5
 30
0.0
  0
POINT
  5
444
330
439
100
AcDbEntity
  8
DEFPOINTS
 62
     0
100
AcDbPoint
 10
1201.000000000001
 20
1490.5
 30
0.0
  0
ENDBLK
  5
43B
330
439
100
AcDbEntity
  8
0
100
AcDbBlockEnd
  0
BLOCK
  5
447
330
446
100
AcDbEntity
  8
0
100
AcDbBlockBegin
  2
*D26
 70
     1
 10
0.0
 20
0.0
 30
0.0
  3
*D26
  1

  0
LINE
  5
449
330
446
100
AcDbEntity
  8
LAY-20
  6
CONTINUOUS
 62
     4
100
AcDbLine
 10
1984.5
 20
1258.0
 30
0.0
 11
1984.5
 21
1408.0
 31
0.0
  0
LINE
  5
44A
330
446
100
AcDbEntity
  8
LAY-20
  6
CONTINUOUS
 62
     4
100
AcDbLine
 10
1584.5
 20
1258.0
 30
0.0
 11
1584.5
 21
1408.0
 31
0.0
  0
LINE
  5
44B
330
446
100
AcDbEntity
  8
LAY-20
  6
CONTINUOUS
 62
     4
100
AcDbLine
 10
1947.000003814697
 20
1385.5
 30
0.0
 11
1621.999996185303
 21
1385.5
 31
0.0
  0
INSERT
  5
44C
330
446
100
AcDbEntity
  8
LAY-20
 62
     4
100
AcDbBlockReference
  2
EX_BNORM
 10
1984.5
 20
1385.5
 30
0.0
 41
37.49999618530273
 42
37.49999618530273
 43
37.49999618530273
  0
INSERT
  5
44D
330
446
100
AcDbEntity
  8
LAY-20
 62
     4
100
AcDbBlockReference
  2
EX_BNORM
 10
1584.5
 20
1385.5
 30
0.0
 41
37.49999618530273
 42
37.49999618530273
 43
37.49999618530273
 50
180.0
  0
MTEXT
  5
44E
330
446
100
AcDbEntity
  8
LAY-20
 62
     7
100
AcDbMText
 10
1784.5
 20
1423.0
 30
0.0
 40
46.77165302633819
 41
0.0
 71
     5
 72
     1
  1
%%c400
  7
EXCADDIM1
  0
POINT
  5
44F
330
446
100
AcDbEntity
  8
DEFPOINTS
 62
     0
100
AcDbPoint
 10
1984.5
 20
1235.5
 30
0.0
  0
POINT
  5
450
330
446
100
AcDbEntity
  8
DEFPOINTS
 62
     0
100
AcDbPoint
 10
1584.5
 20
1235.5
 30
0.0
  0
POINT
  5
451
330
446
100
AcDbEntity
  8
DEFPOINTS
 62
     0
100
AcDbPoint
 10
1584.5
 20
1385.5
 30
0.0
  0
ENDBLK
  5
448
330
446
100
AcDbEntity
  8
0
100
AcDbBlockEnd
  0
BLOCK
  5
454
330
453
100
AcDbEntity
  8
0
100
AcDbBlockBegin
  2
*D27
 70
     1
 10
0.0
 20
0.0
 30
0.0
  3
*D27
  1

  0
LINE
  5
456
330
453
100
AcDbEntity
  8
LAY-20
  6
CONTINUOUS
 62
     4
100
AcDbLine
 10
1237.5000000003
 20
1073.0
 30
0.0
 11
1237.5000000003
 21
916.0
 31
0.0
  0
LINE
  5
457
330
453
100
AcDbEntity
  8
LAY-20
  6
CONTINUOUS
 62
     4
100
AcDbLine
 10
2331.4999999997
 20
1073.0
 30
0.0
 11
2331.4999999997
 21
916.0
 31
0.0
  0
LINE
  5
458
330
453
100
AcDbEntity
  8
LAY-20
  6
CONTINUOUS
 62
     4
100
AcDbLine
 10
1274.999996185603
 20
938.5
 30
0.0
 11
2294.000003814397
 21
938.5
 31
0.0
  0
INSERT
  5
459
330
453
100
AcDbEntity
  8
LAY-20
 62
     4
100
AcDbBlockReference
  2
EX_BNORM
 10
1237.5000000003
 20
938.5
 30
0.0
 41
37.49999618530273
 42
37.49999618530273
 43
37.49999618530273
 50
180.0
  0
INSERT
  5
45A
330
453
100
AcDbEntity
  8
LAY-20
 62
     4
100
AcDbBlockReference
  2
EX_BNORM
 10
2331.4999999997
 20
938.5
 30
0.0
 41
37.49999618530273
 42
37.49999618530273
 43
37.49999618530273
  0
MTEXT
  5
45B
330
453
100
AcDbEntity
  8
LAY-20
 62
     7
100
AcDbMText
 10
1784.5
 20
976.0
 30
0.0
 40
46.77165302633819
 41
0.0
 71
     5
 72
     1
  1
%%c1094
  7
EXCADDIM1
  0
POINT
  5
45C
330
453
100
AcDbEntity
  8
DEFPOINTS
 62
     0
100
AcDbPoint
 10
1237.5000000003
 20
1095.5
 30
0.0
  0
POINT
  5
45D
330
453
100
AcDbEntity
  8
DEFPOINTS
 62
     0
100
AcDbPoint
 10
2331.4999999997
 20
1095.5
 30
0.0
  0
POINT
  5
45E
330
453
100
AcDbEntity
  8
DEFPOINTS
 62
     0
100
AcDbPoint
 10
2331.4999999997
 20
938.5
 30
0.0
  0
ENDBLK
  5
455
330
453
100
AcDbEntity
  8
0
100
AcDbBlockEnd
  0
ENDSEC
  0
SECTION
  2
ENTITIES
  0
CIRCLE
  5
D6
330
1F
100
AcDbEntity
  8
LAY-10
  6
CONTINUOUS
 62
     7
100
AcDbCircle
 10
1734.500000000005
 20
1135.107695154584
 30
0.0
 40
10.392304845413
  0
LINE
  5
D7
330
1F
100
AcDbEntity
  8
LAY-10
  6
CONTINUOUS
 62
     7
100
AcDbLine
 10
1746.500000000005
 20
1135.107695154586
 30
0.0
 11
1740.500000000005
 21
1145.499999999998
 31
0.0
  0
LINE
  5
D8
330
1F
100
AcDbEntity
  8
LAY-10
  6
CONTINUOUS
 62
     7
100
AcDbLine
 10
1728.500000000005
 20
1145.499999999998
 30
0.0
 11
1722.500000000005
 21
1135.107695154586
 31
0.0
  0
LINE
  5
D9
330
1F
100
AcDbEntity
  8
LAY-10
  6
CONTINUOUS
 62
     7
100
AcDbLine
 10
1722.500000000005
 20
1135.107695154586
 30
0.0
 11
1728.500000000005
 21
1124.715390309172
 31
0.0
  0
LINE
  5
DA
330
1F
100
AcDbEntity
  8
LAY-10
  6
CONTINUOUS
 62
     7
100
AcDbLine
 10
1728.500000000005
 20
1124.715390309172
 30
0.0
 11
1740.500000000005
 21
1124.715390309172
 31
0.0
  0
LINE
  5
DB
330
1F
100
AcDbEntity
  8
LAY-10
  6
CONTINUOUS
 62
     7
100
AcDbLine
 10
1740.500000000005
 20
1124.715390309172
 30
0.0
 11
1746.500000000005
 21
1135.107695154586
 31
0.0
  0
CIRCLE
  5
DC
330
1F
100
AcDbEntity
  8
LAY-10
  6
CONTINUOUS
 62
     7
100
AcDbCircle
 10
1734.500000000005
 20
1135.107695154584
 30
0.0
 40
4.800000000000002
  0
CIRCLE
  5
DD
330
1F
100
AcDbEntity
  8
LAY-10
  6
CONTINUOUS
 62
     7
100
AcDbCircle
 10
1734.500000000005
 20
1135.107695154584
 30
0.0
 40
6.000000000000004
  0
CIRCLE
  5
DE
330
1F
100
AcDbEntity
  8
LAY-10
  6
CONTINUOUS
 62
     7
100
AcDbCircle
 10
1834.499999999996
 20
1135.107695154584
 30
0.0
 40
10.392304845413
  0
LINE
  5
DF
330
1F
100
AcDbEntity
  8
LAY-10
  6
CONTINUOUS
 62
     7
100
AcDbLine
 10
1822.499999999995
 20
1135.107695154586
 30
0.0
 11
1828.499999999996
 21
1145.499999999998
 31
0.0
  0
LINE
  5
E0
330
1F
100
AcDbEntity
  8
LAY-10
  6
CONTINUOUS
 62
     7
100
AcDbLine
 10
1840.499999999996
 20
1145.499999999998
 30
0.0
 11
1846.499999999996
 21
1135.107695154586
 31
0.0
  0
LINE
  5
E1
330
1F
100
AcDbEntity
  8
LAY-10
  6
CONTINUOUS
 62
     7
100
AcDbLine
 10
1846.499999999996
 20
1135.107695154586
 30
0.0
 11
1840.499999999996
 21
1124.715390309172
 31
0.0
  0
LINE
  5
E2
330
1F
100
AcDbEntity
  8
LAY-10
  6
CONTINUOUS
 62
     7
100
AcDbLine
 10
1840.499999999996
 20
1124.715390309172
 30
0.0
 11
1828.499999999996
 21
1124.715390309172
 31
0.0
  0
LINE
  5
E3
330
1F
100
AcDbEntity
  8
LAY-10
  6
CONTINUOUS
 62
     7
100
AcDbLine
 10
1828.499999999996
 20
1124.715390309172
 30
0.0
 11
1822.499999999995
 21
1135.107695154586
 31
0.0
  0
CIRCLE
  5
E4
330
1F
100
AcDbEntity
  8
LAY-10
  6
CONTINUOUS
 62
     7
100
AcDbCircle
 10
1834.499999999996
 20
1135.107695154584
 30
0.0
 40
4.800000000000002
  0
CIRCLE
  5
E5
330
1F
100
AcDbEntity
  8
LAY-10
  6
CONTINUOUS
 62
     7
100
AcDbCircle
 10
1834.499999999996
 20
1135.107695154584
 30
0.0
 40
6.000000000000004
  0
LINE
  5
E6
330
1F
100
AcDbEntity
  8
LAY-10
  6
HIDDEN
 62
     7
100
AcDbLine
 10
1544.499999999998
 20
2769.500000000001
 30
0.0
 11
1544.499999999998
 21
2289.499999999996
 31
0.0
  0
LINE
  5
E7
330
1F
100
AcDbEntity
  8
LAY-10
  6
HIDDEN
 62
     7
100
AcDbLine
 10
1494.499999999998
 20
2289.499999999996
 30
0.0
 11
1494.499999999998
 21
2769.500000000001
 31
0.0
  0
LINE
  5
E8
330
1F
100
AcDbEntity
  8
LAY-10
  6
HIDDEN
 62
     7
100
AcDbLine
 10
2074.5
 20
2289.499999999997
 30
0.0
 11
2074.5
 21
2769.500000000001
 31
0.0
  0
LINE
  5
E9
330
1F
100
AcDbEntity
  8
LAY-10
  6
HIDDEN
 62
     7
100
AcDbLine
 10
2024.5
 20
2769.500000000001
 30
0.0
 11
2024.5
 21
2289.499999999997
 31
0.0
  0
LINE
  5
EA
330
1F
100
AcDbEntity
  8
LAY-10
  6
CONTINUOUS
 62
     7
100
AcDbLine
 10
1768.5
 20
3161.5
 30
0.0
 11
1800.5
 21
3161.5
 31
0.0
  0
CIRCLE
  5
EB
330
1F
100
AcDbEntity
  8
LAY-10
  6
CONTINUOUS
 62
     7
100
AcDbCircle
 10
1784.5
 20
3146.5
 30
0.0
 40
6.0
  0
LINE
  5
EC
330
1F
100
AcDbEntity
  8
LAY-10
  6
CONTINUOUS
 62
     7
100
AcDbLine
 10
2623.0
 20
2721.899999999999
 30
0.0
 11
2623.0
 21
2337.099999999999
 31
0.0
  0
LINE
  5
ED
330
1F
100
AcDbEntity
  8
LAY-10
  6
CONTINUOUS
 62
     7
100
AcDbLine
 10
2623.0
 20
2337.1
 30
0.0
 11
2606.31461246655
 21
2399.3707140188
 31
0.0
  0
LINE
  5
EE
330
1F
100
AcDbEntity
  8
LAY-10
  6
CONTINUOUS
 62
     7
100
AcDbLine
 10
2622.999999999999
 20
2337.1
 30
0.0
 11
2639.685387533448
 21
2399.3707140188
 31
0.0
  0
LINE
  5
EF
330
1F
100
AcDbEntity
  8
LAY-10
  6
CONTINUOUS
 62
     7
100
AcDbLine
 10
2623.0
 20
2721.899999999999
 30
0.0
 11
2606.31461246655
 21
2659.629285981198
 31
0.0
  0
LINE
  5
F0
330
1F
100
AcDbEntity
  8
LAY-10
  6
CONTINUOUS
 62
     7
100
AcDbLine
 10
2622.999999999999
 20
2721.899999999999
 30
0.0
 11
2639.685387533448
 21
2659.629285981198
 31
0.0
  0
LINE
  5
F1
330
1F
100
AcDbEntity
  8
LAY-10
  6
CONTINUOUS
 62
     7
100
AcDbLine
 10
2535.999999999998
 20
2529.499999999999
 30
0.0
 11
2709.999999999998
 21
2529.499999999999
 31
0.0
  0
LINE
  5
F2
330
1F
100
AcDbEntity
  8
LAY-10
  6
CONTINUOUS
 62
     7
100
AcDbLine
 10
761.4999999999997
 20
2721.9
 30
0.0
 11
744.8146124665506
 21
2659.6292859812
 31
0.0
  0
LINE
  5
F3
330
1F
100
AcDbEntity
  8
LAY-10
  6
CONTINUOUS
 62
     7
100
AcDbLine
 10
761.4999999999997
 20
2721.9
 30
0.0
 11
778.1853875334488
 21
2659.6292859812
 31
0.0
  0
LINE
  5
F4
330
1F
100
AcDbEntity
  8
LAY-10
  6
CONTINUOUS
 62
     7
100
AcDbLine
 10
761.4999999999997
 20
2337.100000000002
 30
0.0
 11
744.8146124665506
 21
2399.370714018802
 31
0.0
  0
LINE
  5
F5
330
1F
100
AcDbEntity
  8
LAY-10
  6
CONTINUOUS
 62
     7
100
AcDbLine
 10
761.4999999999997
 20
2337.100000000002
 30
0.0
 11
778.1853875334488
 21
2399.370714018802
 31
0.0
  0
LINE
  5
F6
330
1F
100
AcDbEntity
  8
LAY-10
  6
CONTINUOUS
 62
     7
100
AcDbLine
 10
761.4999999999997
 20
2721.9
 30
0.0
 11
761.4999999999997
 21
2337.1
 31
0.0
  0
LINE
  5
F7
330
1F
100
AcDbEntity
  8
LAY-10
  6
CONTINUOUS
 62
     7
100
AcDbLine
 10
1781.5
 20
2732.477831301844
 30
0.0
 11
1781.5
 21
3111.492267989876
 31
0.0
  0
LINE
  5
F8
330
1F
100
AcDbEntity
  8
LAY-10
  6
CONTINUOUS
 62
     7
100
AcDbLine
 10
1800.5
 20
3161.5
 30
0.0
 11
1800.5
 21
3126.285556125482
 31
0.0
  0
LINE
  5
F9
330
1F
100
AcDbEntity
  8
LAY-10
  6
CONTINUOUS
 62
     7
100
AcDbLine
 10
1768.5
 20
3161.5
 30
0.0
 11
1768.5
 21
3126.285556125482
 31
0.0
  0
CIRCLE
  5
FA
330
1F
100
AcDbEntity
  8
LAY-10
  6
HIDDEN
 62
     7
100
AcDbCircle
 10
1784.5
 20
2529.5
 30
0.0
 40
547.0
  0
LINE
  5
FB
330
1F
100
AcDbEntity
  8
LAY-10
  6
HIDDEN
 62
     7
100
AcDbLine
 10
2248.298447604127
 20
2239.499999999997
 30
0.0
 11
1320.701552395873
 21
2239.499999999996
 31
0.0
  0
LINE
  5
FC
330
1F
100
AcDbEntity
  8
LAY-10
  6
HIDDEN
 62
     7
100
AcDbLine
 10
1292.96261586732
 20
2289.499999999996
 30
0.0
 11
2276.03738413268
 21
2289.499999999996
 31
0.0
  0
LINE
  5
FD
330
1F
100
AcDbEntity
  8
LAY-10
  6
HIDDEN
 62
     7
100
AcDbLine
 10
1292.962615867318
 20
2769.500000000001
 30
0.0
 11
2276.037384132682
 21
2769.500000000001
 31
0.0
  0
LINE
  5
FE
330
1F
100
AcDbEntity
  8
LAY-10
  6
HIDDEN
 62
     7
100
AcDbLine
 10
2248.298447604129
 20
2819.5
 30
0.0
 11
1320.701552395871
 21
2819.499999999998
 31
0.0
  0
CIRCLE
  5
FF
330
1F
100
AcDbEntity
  8
LAY-10
  6
CONTINUOUS
 62
     7
100
AcDbCircle
 10
1784.5
 20
2529.5
 30
0.0
 40
597.0
  0
CIRCLE
  5
100
330
1F
100
AcDbEntity
  8
LAY-10
  6
CONTINUOUS
 62
     7
100
AcDbCircle
 10
1784.5
 20
2529.5
 30
0.0
 40
200.0
  0
ARC
  5
101
330
1F
100
AcDbEntity
  8
LAY-10
  6
CONTINUOUS
 62
     7
100
AcDbCircle
 10
1784.5
 20
2529.5
 30
0.0
 40
203.0
100
AcDbArc
 50
0.8467664818804638
 51
89.15323351812002
  0
ARC
  5
102
330
1F
100
AcDbEntity
  8
LAY-10
  6
CONTINUOUS
 62
     7
100
AcDbCircle
 10
1784.5
 20
2529.5
 30
0.0
 40
203.0
100
AcDbArc
 50
270.8467664818803
 51
359.1532335181205
  0
ARC
  5
103
330
1F
100
AcDbEntity
  8
LAY-10
  6
CONTINUOUS
 62
     7
100
AcDbCircle
 10
1784.5
 20
2529.5
 30
0.0
 40
203.0
100
AcDbArc
 50
180.8467664818801
 51
269.1532335181201
  0
ARC
  5
104
330
1F
100
AcDbEntity
  8
LAY-10
  6
CONTINUOUS
 62
     7
100
AcDbCircle
 10
1784.5
 20
2529.5
 30
0.0
 40
203.0
100
AcDbArc
 50
90.84676648188015
 51
179.1532335181201
  0
CIRCLE
  5
105
330
1F
100
AcDbEntity
  8
LAY-10
  6
CONTINUOUS
 62
     7
100
AcDbCircle
 10
1588.257475177097
 20
2869.402023598997
 30
0.0
 40
5.0
  0
CIRCLE
  5
106
330
1F
100
AcDbEntity
  8
LAY-10
  6
CONTINUOUS
 62
     7
100
AcDbCircle
 10
1444.59797640107
 20
2725.742524823018
 30
0.0
 40
5.0
  0
CIRCLE
  5
107
330
1F
100
AcDbEntity
  8
LAY-10
  6
CONTINUOUS
 62
     7
100
AcDbCircle
 10
1733.270420966486
 20
2918.627285637502
 30
0.0
 40
5.0
  0
CIRCLE
  5
108
330
1F
100
AcDbEntity
  8
LAY-10
  6
CONTINUOUS
 62
     7
100
AcDbCircle
 10
1395.372714362515
 20
2580.729579033647
 30
0.0
 40
5.0
  0
CIRCLE
  5
109
330
1F
100
AcDbEntity
  8
LAY-10
  6
CONTINUOUS
 62
     7
100
AcDbCircle
 10
1980.7425248229
 20
2869.402023598997
 30
0.0
 40
5.0
  0
CIRCLE
  5
10A
330
1F
100
AcDbEntity
  8
LAY-10
  6
CONTINUOUS
 62
     7
100
AcDbCircle
 10
1835.729579033511
 20
2918.627285637502
 30
0.0
 40
5.0
  0
CIRCLE
  5
10B
330
1F
100
AcDbEntity
  8
LAY-10
  6
CONTINUOUS
 62
     7
100
AcDbCircle
 10
2124.402023598928
 20
2725.742524823018
 30
0.0
 40
5.0
  0
CIRCLE
  5
10C
330
1F
100
AcDbEntity
  8
LAY-10
  6
CONTINUOUS
 62
     7
100
AcDbCircle
 10
2173.627285637482
 20
2580.729579033647
 30
0.0
 40
5.0
  0
CIRCLE
  5
10D
330
1F
100
AcDbEntity
  8
LAY-10
  6
CONTINUOUS
 62
     7
100
AcDbCircle
 10
2124.402023598928
 20
2333.257475176979
 30
0.0
 40
5.0
  0
CIRCLE
  5
10E
330
1F
100
AcDbEntity
  8
LAY-10
  6
CONTINUOUS
 62
     7
100
AcDbCircle
 10
2173.627285637482
 20
2478.27042096635
 30
0.0
 40
5.0
  0
CIRCLE
  5
10F
330
1F
100
AcDbEntity
  8
LAY-10
  6
CONTINUOUS
 62
     7
100
AcDbCircle
 10
1588.257475177097
 20
2189.597976401
 30
0.0
 40
5.0
  0
CIRCLE
  5
110
330
1F
100
AcDbEntity
  8
LAY-10
  6
CONTINUOUS
 62
     7
100
AcDbCircle
 10
1733.270420966486
 20
2140.372714362496
 30
0.0
 40
5.0
  0
CIRCLE
  5
111
330
1F
100
AcDbEntity
  8
LAY-10
  6
CONTINUOUS
 62
     7
100
AcDbCircle
 10
1980.7425248229
 20
2189.597976400999
 30
0.0
 40
5.0
  0
CIRCLE
  5
112
330
1F
100
AcDbEntity
  8
LAY-10
  6
CONTINUOUS
 62
     7
100
AcDbCircle
 10
1835.729579033511
 20
2140.372714362495
 30
0.0
 40
5.0
  0
CIRCLE
  5
113
330
1F
100
AcDbEntity
  8
LAY-10
  6
CONTINUOUS
 62
     7
100
AcDbCircle
 10
1444.597976401069
 20
2333.257475176979
 30
0.0
 40
5.0
  0
CIRCLE
  5
114
330
1F
100
AcDbEntity
  8
LAY-10
  6
CONTINUOUS
 62
     7
100
AcDbCircle
 10
1395.372714362515
 20
2478.270420966352
 30
0.0
 40
5.0
  0
LINE
  5
115
330
1F
100
AcDbEntity
  8
LAY-10
  6
CONTINUOUS
 62
     7
100
AcDbLine
 10
1366.001519588203
 20
3003.355486296209
 30
0.0
 11
1390.51494176801
 21
3023.924689806178
 31
0.0
  0
CIRCLE
  5
116
330
1F
100
AcDbEntity
  8
LAY-10
  6
CONTINUOUS
 62
     7
100
AcDbCircle
 10
1387.900044823404
 20
3002.149421404409
 30
0.0
 40
6.0
  0
LINE
  5
117
330
1F
100
AcDbEntity
  8
LAY-10
  6
CONTINUOUS
 62
     7
100
AcDbLine
 10
1390.51494176801
 20
3023.924689806178
 30
0.0
 11
1413.150349972553
 21
2996.948860758578
 31
0.0
  0
LINE
  5
118
330
1F
100
AcDbEntity
  8
LAY-10
  6
CONTINUOUS
 62
     7
100
AcDbLine
 10
1366.001519588203
 20
3003.355486296208
 30
0.0
 11
1388.636927792746
 21
2976.379657248609
 31
0.0
  0
LINE
  5
119
330
1F
100
AcDbEntity
  8
LAY-10
  6
CONTINUOUS
 62
     7
100
AcDbLine
 10
1159.323129253614
 20
2623.488724237304
 30
0.0
 11
1164.879870938955
 21
2655.002572333695
 31
0.0
  0
CIRCLE
  5
11A
330
1F
100
AcDbEntity
  8
LAY-10
  6
CONTINUOUS
 62
     7
100
AcDbCircle
 10
1176.873616391467
 20
2636.640925620495
 30
0.0
 40
6.0
  0
LINE
  5
11B
330
1F
100
AcDbEntity
  8
LAY-10
  6
CONTINUOUS
 62
     7
100
AcDbLine
 10
1164.879870938955
 20
2655.002572333695
 30
0.0
 11
1199.559328284595
 21
2648.887648327331
 31
0.0
  0
LINE
  5
11C
330
1F
100
AcDbEntity
  8
LAY-10
  6
CONTINUOUS
 62
     7
100
AcDbLine
 10
1159.323129253615
 20
2623.488724237304
 30
0.0
 11
1194.002586599253
 21
2617.37380023094
 31
0.0
  0
LINE
  5
11D
330
1F
100
AcDbEntity
  8
LAY-10
  6
CONTINUOUS
 62
     7
100
AcDbLine
 10
1159.323129253614
 20
2435.511275762694
 30
0.0
 11
1164.879870938955
 21
2403.997427666303
 31
0.0
  0
CIRCLE
  5
11E
330
1F
100
AcDbEntity
  8
LAY-10
  6
CONTINUOUS
 62
     7
100
AcDbCircle
 10
1176.873616391467
 20
2422.359074379502
 30
0.0
 40
6.0
  0
LINE
  5
11F
330
1F
100
AcDbEntity
  8
LAY-10
  6
CONTINUOUS
 62
     7
100
AcDbLine
 10
1164.879870938955
 20
2403.997427666303
 30
0.0
 11
1199.559328284595
 21
2410.112351672668
 31
0.0
  0
LINE
  5
120
330
1F
100
AcDbEntity
  8
LAY-10
  6
CONTINUOUS
 62
     7
100
AcDbLine
 10
1159.323129253615
 20
2435.511275762694
 30
0.0
 11
1194.002586599253
 21
2441.626199769058
 31
0.0
  0
LINE
  5
121
330
1F
100
AcDbEntity
  8
LAY-10
  6
CONTINUOUS
 62
     7
100
AcDbLine
 10
1366.001519588202
 20
2055.644513703788
 30
0.0
 11
1390.514941768009
 21
2035.075310193819
 31
0.0
  0
CIRCLE
  5
122
330
1F
100
AcDbEntity
  8
LAY-10
  6
CONTINUOUS
 62
     7
100
AcDbCircle
 10
1387.900044823404
 20
2056.850578595588
 30
0.0
 40
6.0
  0
LINE
  5
123
330
1F
100
AcDbEntity
  8
LAY-10
  6
CONTINUOUS
 62
     7
100
AcDbLine
 10
1390.514941768009
 20
2035.075310193819
 30
0.0
 11
1413.150349972553
 21
2062.051139241419
 31
0.0
  0
LINE
  5
124
330
1F
100
AcDbEntity
  8
LAY-10
  6
CONTINUOUS
 62
     7
100
AcDbLine
 10
1366.001519588203
 20
2055.644513703788
 30
0.0
 11
1388.636927792746
 21
2082.620342751388
 31
0.0
  0
LINE
  5
125
330
1F
100
AcDbEntity
  8
LAY-10
  6
CONTINUOUS
 62
     7
100
AcDbLine
 10
1768.499999999999
 20
1897.499999999997
 30
0.0
 11
1800.499999999999
 21
1897.499999999997
 31
0.0
  0
CIRCLE
  5
126
330
1F
100
AcDbEntity
  8
LAY-10
  6
CONTINUOUS
 62
     7
100
AcDbCircle
 10
1784.499999999999
 20
1912.499999999996
 30
0.0
 40
6.0
  0
LINE
  5
127
330
1F
100
AcDbEntity
  8
LAY-10
  6
CONTINUOUS
 62
     7
100
AcDbLine
 10
1800.499999999999
 20
1897.499999999997
 30
0.0
 11
1800.499999999999
 21
1932.714443874515
 31
0.0
  0
LINE
  5
128
330
1F
100
AcDbEntity
  8
LAY-10
  6
CONTINUOUS
 62
     7
100
AcDbLine
 10
1768.499999999999
 20
1897.499999999997
 30
0.0
 11
1768.499999999999
 21
1932.714443874515
 31
0.0
  0
LINE
  5
129
330
1F
100
AcDbEntity
  8
LAY-10
  6
CONTINUOUS
 62
     7
100
AcDbLine
 10
2202.998480411794
 20
3003.355486296209
 30
0.0
 11
2178.485058231987
 21
3023.924689806178
 31
0.0
  0
CIRCLE
  5
12A
330
1F
100
AcDbEntity
  8
LAY-10
  6
CONTINUOUS
 62
     7
100
AcDbCircle
 10
2181.099955176593
 20
3002.14942140441
 30
0.0
 40
6.0
  0
LINE
  5
12B
330
1F
100
AcDbEntity
  8
LAY-10
  6
CONTINUOUS
 62
     7
100
AcDbLine
 10
2178.485058231987
 20
3023.924689806178
 30
0.0
 11
2155.849650027444
 21
2996.948860758578
 31
0.0
  0
LINE
  5
12C
330
1F
100
AcDbEntity
  8
LAY-10
  6
CONTINUOUS
 62
     7
100
AcDbLine
 10
2202.998480411794
 20
3003.355486296209
 30
0.0
 11
2180.363072207252
 21
2976.379657248609
 31
0.0
  0
LINE
  5
12D
330
1F
100
AcDbEntity
  8
LAY-10
  6
CONTINUOUS
 62
     7
100
AcDbLine
 10
2409.676870746383
 20
2623.488724237304
 30
0.0
 11
2404.120129061042
 21
2655.002572333695
 31
0.0
  0
CIRCLE
  5
12E
330
1F
100
AcDbEntity
  8
LAY-10
  6
CONTINUOUS
 62
     7
100
AcDbCircle
 10
2392.126383608531
 20
2636.640925620496
 30
0.0
 40
6.0
  0
LINE
  5
12F
330
1F
100
AcDbEntity
  8
LAY-10
  6
CONTINUOUS
 62
     7
100
AcDbLine
 10
2404.120129061042
 20
2655.002572333695
 30
0.0
 11
2369.440671715403
 21
2648.887648327331
 31
0.0
  0
LINE
  5
130
330
1F
100
AcDbEntity
  8
LAY-10
  6
CONTINUOUS
 62
     7
100
AcDbLine
 10
2409.676870746383
 20
2623.488724237304
 30
0.0
 11
2374.997413400744
 21
2617.37380023094
 31
0.0
  0
LINE
  5
131
330
1F
100
AcDbEntity
  8
LAY-10
  6
CONTINUOUS
 62
     7
100
AcDbLine
 10
2409.676870746384
 20
2435.511275762694
 30
0.0
 11
2404.120129061042
 21
2403.997427666303
 31
0.0
  0
CIRCLE
  5
132
330
1F
100
AcDbEntity
  8
LAY-10
  6
CONTINUOUS
 62
     7
100
AcDbCircle
 10
2392.126383608531
 20
2422.359074379502
 30
0.0
 40
6.0
  0
LINE
  5
133
330
1F
100
AcDbEntity
  8
LAY-10
  6
CONTINUOUS
 62
     7
100
AcDbLine
 10
2404.120129061042
 20
2403.997427666303
 30
0.0
 11
2369.440671715403
 21
2410.112351672668
 31
0.0
  0
LINE
  5
134
330
1F
100
AcDbEntity
  8
LAY-10
  6
CONTINUOUS
 62
     7
100
AcDbLine
 10
2409.676870746383
 20
2435.511275762694
 30
0.0
 11
2374.997413400745
 21
2441.626199769058
 31
0.0
  0
LINE
  5
135
330
1F
100
AcDbEntity
  8
LAY-10
  6
CONTINUOUS
 62
     7
100
AcDbLine
 10
2202.998480411796
 20
2055.644513703788
 30
0.0
 11
2178.485058231989
 21
2035.075310193819
 31
0.0
  0
CIRCLE
  5
136
330
1F
100
AcDbEntity
  8
LAY-10
  6
CONTINUOUS
 62
     7
100
AcDbCircle
 10
2181.099955176594
 20
2056.850578595588
 30
0.0
 40
6.0
  0
LINE
  5
137
330
1F
100
AcDbEntity
  8
LAY-10
  6
CONTINUOUS
 62
     7
100
AcDbLine
 10
2178.485058231989
 20
2035.075310193819
 30
0.0
 11
2155.849650027445
 21
2062.051139241419
 31
0.0
  0
LINE
  5
138
330
1F
100
AcDbEntity
  8
LAY-10
  6
CONTINUOUS
 62
     7
100
AcDbLine
 10
2202.998480411795
 20
2055.644513703788
 30
0.0
 11
2180.363072207252
 21
2082.620342751388
 31
0.0
  0
LINE
  5
139
330
1F
100
AcDbEntity
  8
LAY-10
  6
CONTINUOUS
 62
     7
100
AcDbLine
 10
2023.500000000002
 20
1140.500000000001
 30
0.0
 11
2020.499999999999
 21
1140.500000000001
 31
0.0
  0
LINE
  5
13A
330
1F
100
AcDbEntity
  8
LAY-10
  6
CONTINUOUS
 62
     7
100
AcDbLine
 10
2078.500000000002
 20
1140.500000000001
 30
0.0
 11
2075.499999999999
 21
1140.500000000001
 31
0.0
  0
LINE
  5
13B
330
1F
100
AcDbEntity
  8
LAY-10
  6
CONTINUOUS
 62
     7
100
AcDbLine
 10
2023.500000000002
 20
1140.500000000001
 30
0.0
 11
2023.500000000002
 21
1096.5
 31
0.0
  0
ARC
  5
13C
330
1F
100
AcDbEntity
  8
LAY-10
  6
CONTINUOUS
 62
     7
100
AcDbCircle
 10
2024.500000000002
 20
1096.5
 30
0.0
 40
1.0
100
AcDbArc
 50
180.0
 51
270.0
  0
LINE
  5
13D
330
1F
100
AcDbEntity
  8
LAY-10
  6
CONTINUOUS
 62
     7
100
AcDbLine
 10
2074.499999999999
 20
1095.5
 30
0.0
 11
2024.500000000002
 21
1095.5
 31
0.0
  0
LINE
  5
13E
330
1F
100
AcDbEntity
  8
LAY-10
  6
CONTINUOUS
 62
     7
100
AcDbLine
 10
2075.499999999999
 20
1140.500000000001
 30
0.0
 11
2075.499999999999
 21
1096.5
 31
0.0
  0
ARC
  5
13F
330
1F
100
AcDbEntity
  8
LAY-10
  6
CONTINUOUS
 62
     7
100
AcDbCircle
 10
2074.499999999999
 20
1096.5
 30
0.0
 40
1.0
100
AcDbArc
 50
270.0
 51
0.0
  0
LINE
  5
140
330
1F
100
AcDbEntity
  8
LAY-10
  6
CONTINUOUS
 62
     7
100
AcDbLine
 10
2020.499999999999
 20
1140.500000000001
 30
0.0
 11
2020.499999999999
 21
1096.500000000001
 31
0.0
  0
ARC
  5
141
330
1F
100
AcDbEntity
  8
LAY-10
  6
CONTINUOUS
 62
     7
100
AcDbCircle
 10
2024.499999999999
 20
1096.500000000001
 30
0.0
 40
4.0
100
AcDbArc
 50
180.0
 51
270.0
  0
LINE
  5
142
330
1F
100
AcDbEntity
  8
LAY-10
  6
CONTINUOUS
 62
     7
100
AcDbLine
 10
2074.5
 20
1092.500000000001
 30
0.0
 11
2024.499999999999
 21
1092.500000000001
 31
0.0
  0
LINE
  5
143
330
1F
100
AcDbEntity
  8
LAY-10
  6
CONTINUOUS
 62
     7
100
AcDbLine
 10
2078.500000000002
 20
1140.500000000001
 30
0.0
 11
2078.500000000002
 21
1096.500000000001
 31
0.0
  0
ARC
  5
144
330
1F
100
AcDbEntity
  8
LAY-10
  6
CONTINUOUS
 62
     7
100
AcDbCircle
 10
2074.5
 20
1096.500000000001
 30
0.0
 40
4.0
100
AcDbArc
 50
270.0
 51
0.0
  0
LINE
  5
145
330
1F
100
AcDbEntity
  8
LAY-10
  6
CONTINUOUS
 62
     7
100
AcDbLine
 10
2026.000000000018
 20
1142.000000000022
 30
0.0
 11
2026.000000000018
 21
1099.000000000022
 31
0.0
  0
LINE
  5
146
330
1F
100
AcDbEntity
  8
LAY-10
  6
CONTINUOUS
 62
     7
100
AcDbLine
 10
2024.500000000019
 20
1141.500000000022
 30
0.0
 11
2024.500000000019
 21
1099.500000000022
 31
0.0
  0
LINE
  5
147
330
1F
100
AcDbEntity
  8
LAY-10
  6
CONTINUOUS
 62
     7
100
AcDbLine
 10
2071.000000000018
 20
1144.000000000022
 30
0.0
 11
2028.000000000016
 21
1144.000000000022
 31
0.0
  0
LINE
  5
148
330
1F
100
AcDbEntity
  8
LAY-10
  6
CONTINUOUS
 62
     7
100
AcDbLine
 10
2073.000000000016
 20
1142.000000000022
 30
0.0
 11
2073.000000000016
 21
1099.000000000022
 31
0.0
  0
LINE
  5
149
330
1F
100
AcDbEntity
  8
LAY-10
  6
CONTINUOUS
 62
     7
100
AcDbLine
 10
2071.000000000018
 20
1097.000000000022
 30
0.0
 11
2028.000000000016
 21
1097.000000000022
 31
0.0
  0
ARC
  5
14A
330
1F
100
AcDbEntity
  8
LAY-10
  6
CONTINUOUS
 62
     7
100
AcDbCircle
 10
2028.000000000016
 20
1142.000000000022
 30
0.0
 40
2.0
100
AcDbArc
 50
90.00000000000001
 51
180.0
  0
ARC
  5
14B
330
1F
100
AcDbEntity
  8
LAY-10
  6
CONTINUOUS
 62
     7
100
AcDbCircle
 10
2028.500000000019
 20
1141.500000000022
 30
0.0
 40
4.0
100
AcDbArc
 50
90.00000000000001
 51
180.0
  0
ARC
  5
14C
330
1F
100
AcDbEntity
  8
LAY-10
  6
CONTINUOUS
 62
     7
100
AcDbCircle
 10
2071.000000000018
 20
1142.000000000022
 30
0.0
 40
2.0
100
AcDbArc
 50
0.0
 51
90.00000000000001
  0
ARC
  5
14D
330
1F
100
AcDbEntity
  8
LAY-10
  6
CONTINUOUS
 62
     7
100
AcDbCircle
 10
2070.50000000002
 20
1141.500000000022
 30
0.0
 40
4.0
100
AcDbArc
 50
0.0
 51
90.00000000000001
  0
ARC
  5
14E
330
1F
100
AcDbEntity
  8
LAY-10
  6
CONTINUOUS
 62
     7
100
AcDbCircle
 10
2071.000000000018
 20
1099.000000000022
 30
0.0
 40
2.0
100
AcDbArc
 50
270.0
 51
0.0
  0
ARC
  5
14F
330
1F
100
AcDbEntity
  8
LAY-10
  6
CONTINUOUS
 62
     7
100
AcDbCircle
 10
2070.50000000002
 20
1099.500000000022
 30
0.0
 40
4.0
100
AcDbArc
 50
270.0
 51
0.0
  0
ARC
  5
150
330
1F
100
AcDbEntity
  8
LAY-10
  6
CONTINUOUS
 62
     7
100
AcDbCircle
 10
2028.000000000016
 20
1099.000000000022
 30
0.0
 40
2.0
100
AcDbArc
 50
180.0
 51
270.0
  0
ARC
  5
151
330
1F
100
AcDbEntity
  8
LAY-10
  6
CONTINUOUS
 62
     7
100
AcDbCircle
 10
2028.500000000019
 20
1099.500000000022
 30
0.0
 40
4.0
100
AcDbArc
 50
180.0
 51
270.0
  0
LINE
  5
152
330
1F
100
AcDbEntity
  8
LAY-10
  6
CONTINUOUS
 62
     7
100
AcDbLine
 10
2074.50000000002
 20
1141.500000000022
 30
0.0
 11
2074.50000000002
 21
1099.500000000022
 31
0.0
  0
LINE
  5
153
330
1F
100
AcDbEntity
  8
LAY-10
  6
CONTINUOUS
 62
     7
100
AcDbLine
 10
1985.687999999942
 20
1124.715390309195
 30
0.0
 11
2003.311999999942
 21
1124.715390309195
 31
0.0
  0
ARC
  5
154
330
1F
100
AcDbEntity
  8
LAY-10
  6
CONTINUOUS
 62
     7
100
AcDbCircle
 10
1992.542363636336
 20
1129.911542731895
 30
0.0
 40
11.95763636360607
100
AcDbArc
 50
334.2435414689389
 51
25.75645853106108
  0
ARC
  5
155
330
1F
100
AcDbEntity
  8
LAY-10
  6
CONTINUOUS
 62
     7
100
AcDbCircle
 10
1996.457636363547
 20
1129.911542731895
 30
0.0
 40
11.95763636360607
100
AcDbArc
 50
154.2435414689389
 51
205.7564585310611
  0
ARC
  5
156
330
1F
100
AcDbEntity
  8
LAY-10
  6
CONTINUOUS
 62
     7
100
AcDbCircle
 10
1996.457636363547
 20
1140.303847577296
 30
0.0
 40
11.95763636360607
100
AcDbArc
 50
154.2435414689389
 51
205.7564585310611
  0
ARC
  5
157
330
1F
100
AcDbEntity
  8
LAY-10
  6
CONTINUOUS
 62
     7
100
AcDbCircle
 10
1992.542363636336
 20
1140.303847577296
 30
0.0
 40
11.95763636360607
100
AcDbArc
 50
334.2435414689389
 51
25.75645853106108
  0
LINE
  5
158
330
1F
100
AcDbEntity
  8
LAY-10
  6
CONTINUOUS
 62
     7
100
AcDbLine
 10
2004.499999999941
 20
1140.303847577293
 30
0.0
 11
2004.499999999939
 21
1129.911542731893
 31
0.0
  0
LINE
  5
159
330
1F
100
AcDbEntity
  8
LAY-10
  6
CONTINUOUS
 62
     7
100
AcDbLine
 10
1984.499999999942
 20
1140.303847577293
 30
0.0
 11
1984.499999999944
 21
1129.911542731893
 31
0.0
  0
LINE
  5
15A
330
1F
100
AcDbEntity
  8
LAY-10
  6
CONTINUOUS
 62
     7
100
AcDbLine
 10
2003.311999999942
 20
1135.107695154595
 30
0.0
 11
1985.687999999942
 21
1135.107695154595
 31
0.0
  0
LINE
  5
15B
330
1F
100
AcDbEntity
  8
LAY-10
  6
CONTINUOUS
 62
     7
100
AcDbLine
 10
1545.499999999998
 20
1140.500000000001
 30
0.0
 11
1548.500000000001
 21
1140.500000000001
 31
0.0
  0
LINE
  5
15C
330
1F
100
AcDbEntity
  8
LAY-10
  6
CONTINUOUS
 62
     7
100
AcDbLine
 10
1490.499999999999
 20
1140.500000000001
 30
0.0
 11
1493.500000000002
 21
1140.500000000001
 31
0.0
  0
LINE
  5
15D
330
1F
100
AcDbEntity
  8
LAY-10
  6
CONTINUOUS
 62
     7
100
AcDbLine
 10
1545.499999999998
 20
1140.500000000001
 30
0.0
 11
1545.499999999998
 21
1096.5
 31
0.0
  0
ARC
  5
15E
330
1F
100
AcDbEntity
  8
LAY-10
  6
CONTINUOUS
 62
     7
100
AcDbCircle
 10
1544.499999999998
 20
1096.5
 30
0.0
 40
1.0
100
AcDbArc
 50
270.0
 51
0.0
  0
LINE
  5
15F
330
1F
100
AcDbEntity
  8
LAY-10
  6
CONTINUOUS
 62
     7
100
AcDbLine
 10
1494.500000000002
 20
1095.5
 30
0.0
 11
1544.499999999998
 21
1095.5
 31
0.0
  0
LINE
  5
160
330
1F
100
AcDbEntity
  8
LAY-10
  6
CONTINUOUS
 62
     7
100
AcDbLine
 10
1493.500000000002
 20
1140.500000000001
 30
0.0
 11
1493.500000000002
 21
1096.5
 31
0.0
  0
ARC
  5
161
330
1F
100
AcDbEntity
  8
LAY-10
  6
CONTINUOUS
 62
     7
100
AcDbCircle
 10
1494.500000000002
 20
1096.5
 30
0.0
 40
1.0
100
AcDbArc
 50
180.0
 51
270.0
  0
LINE
  5
162
330
1F
100
AcDbEntity
  8
LAY-10
  6
CONTINUOUS
 62
     7
100
AcDbLine
 10
1548.500000000001
 20
1140.500000000001
 30
0.0
 11
1548.500000000001
 21
1096.500000000001
 31
0.0
  0
ARC
  5
163
330
1F
100
AcDbEntity
  8
LAY-10
  6
CONTINUOUS
 62
     7
100
AcDbCircle
 10
1544.500000000001
 20
1096.500000000001
 30
0.0
 40
4.0
100
AcDbArc
 50
270.0
 51
0.0
  0
LINE
  5
164
330
1F
100
AcDbEntity
  8
LAY-10
  6
CONTINUOUS
 62
     7
100
AcDbLine
 10
1494.499999999999
 20
1092.500000000001
 30
0.0
 11
1544.500000000001
 21
1092.500000000001
 31
0.0
  0
LINE
  5
165
330
1F
100
AcDbEntity
  8
LAY-10
  6
CONTINUOUS
 62
     7
100
AcDbLine
 10
1490.499999999999
 20
1140.500000000001
 30
0.0
 11
1490.499999999999
 21
1096.500000000001
 31
0.0
  0
ARC
  5
166
330
1F
100
AcDbEntity
  8
LAY-10
  6
CONTINUOUS
 62
     7
100
AcDbCircle
 10
1494.499999999999
 20
1096.500000000001
 30
0.0
 40
4.0
100
AcDbArc
 50
180.0
 51
270.0
  0
LINE
  5
167
330
1F
100
AcDbEntity
  8
LAY-10
  6
CONTINUOUS
 62
     7
100
AcDbLine
 10
1542.999999999983
 20
1142.000000000022
 30
0.0
 11
1542.999999999983
 21
1099.000000000022
 31
0.0
  0
LINE
  5
168
330
1F
100
AcDbEntity
  8
LAY-10
  6
CONTINUOUS
 62
     7
100
AcDbLine
 10
1544.499999999981
 20
1141.500000000022
 30
0.0
 11
1544.499999999981
 21
1099.500000000022
 31
0.0
  0
LINE
  5
169
330
1F
100
AcDbEntity
  8
LAY-10
  6
CONTINUOUS
 62
     7
100
AcDbLine
 10
1497.999999999983
 20
1144.000000000022
 30
0.0
 11
1540.999999999985
 21
1144.000000000022
 31
0.0
  0
LINE
  5
16A
330
1F
100
AcDbEntity
  8
LAY-10
  6
CONTINUOUS
 62
     7
100
AcDbLine
 10
1495.999999999985
 20
1142.000000000022
 30
0.0
 11
1495.999999999985
 21
1099.000000000022
 31
0.0
  0
LINE
  5
16B
330
1F
100
AcDbEntity
  8
LAY-10
  6
CONTINUOUS
 62
     7
100
AcDbLine
 10
1497.999999999983
 20
1097.000000000022
 30
0.0
 11
1540.999999999985
 21
1097.000000000022
 31
0.0
  0
ARC
  5
16C
330
1F
100
AcDbEntity
  8
LAY-10
  6
CONTINUOUS
 62
     7
100
AcDbCircle
 10
1540.999999999985
 20
1142.000000000022
 30
0.0
 40
2.0
100
AcDbArc
 50
0.0
 51
90.00000000000001
  0
ARC
  5
16D
330
1F
100
AcDbEntity
  8
LAY-10
  6
CONTINUOUS
 62
     7
100
AcDbCircle
 10
1540.499999999981
 20
1141.500000000022
 30
0.0
 40
4.0
100
AcDbArc
 50
0.0
 51
90.00000000000001
  0
ARC
  5
16E
330
1F
100
AcDbEntity
  8
LAY-10
  6
CONTINUOUS
 62
     7
100
AcDbCircle
 10
1497.999999999983
 20
1142.000000000022
 30
0.0
 40
2.0
100
AcDbArc
 50
90.00000000000001
 51
180.0
  0
ARC
  5
16F
330
1F
100
AcDbEntity
  8
LAY-10
  6
CONTINUOUS
 62
     7
100
AcDbCircle
 10
1498.499999999981
 20
1141.500000000022
 30
0.0
 40
4.0
100
AcDbArc
 50
90.00000000000001
 51
180.0
  0
ARC
  5
170
330
1F
100
AcDbEntity
  8
LAY-10
  6
CONTINUOUS
 62
     7
100
AcDbCircle
 10
1497.999999999983
 20
1099.000000000022
 30
0.0
 40
2.0
100
AcDbArc
 50
180.0
 51
270.0
  0
ARC
  5
171
330
1F
100
AcDbEntity
  8
LAY-10
  6
CONTINUOUS
 62
     7
100
AcDbCircle
 10
1498.499999999981
 20
1099.500000000022
 30
0.0
 40
4.0
100
AcDbArc
 50
180.0
 51
270.0
  0
ARC
  5
172
330
1F
100
AcDbEntity
  8
LAY-10
  6
CONTINUOUS
 62
     7
100
AcDbCircle
 10
1540.999999999985
 20
1099.000000000022
 30
0.0
 40
2.0
100
AcDbArc
 50
270.0
 51
0.0
  0
ARC
  5
173
330
1F
100
AcDbEntity
  8
LAY-10
  6
CONTINUOUS
 62
     7
100
AcDbCircle
 10
1540.499999999981
 20
1099.500000000022
 30
0.0
 40
4.0
100
AcDbArc
 50
270.0
 51
0.0
  0
LINE
  5
174
330
1F
100
AcDbEntity
  8
LAY-10
  6
CONTINUOUS
 62
     7
100
AcDbLine
 10
1494.499999999981
 20
1141.500000000022
 30
0.0
 11
1494.499999999981
 21
1099.500000000022
 31
0.0
  0
LINE
  5
175
330
1F
100
AcDbEntity
  8
LAY-10
  6
CONTINUOUS
 62
     7
100
AcDbLine
 10
1583.312000000058
 20
1124.715390309195
 30
0.0
 11
1565.688000000059
 21
1124.715390309195
 31
0.0
  0
ARC
  5
176
330
1F
100
AcDbEntity
  8
LAY-10
  6
CONTINUOUS
 62
     7
100
AcDbCircle
 10
1576.457636363665
 20
1129.911542731895
 30
0.0
 40
11.95763636360607
100
AcDbArc
 50
154.2435414689389
 51
205.7564585310611
  0
ARC
  5
177
330
1F
100
AcDbEntity
  8
LAY-10
  6
CONTINUOUS
 62
     7
100
AcDbCircle
 10
1572.542363636453
 20
1129.911542731895
 30
0.0
 40
11.95763636360607
100
AcDbArc
 50
334.2435414689389
 51
25.75645853106108
  0
ARC
  5
178
330
1F
100
AcDbEntity
  8
LAY-10
  6
CONTINUOUS
 62
     7
100
AcDbCircle
 10
1572.542363636453
 20
1140.303847577296
 30
0.0
 40
11.95763636360607
100
AcDbArc
 50
334.2435414689389
 51
25.75645853106108
  0
ARC
  5
179
330
1F
100
AcDbEntity
  8
LAY-10
  6
CONTINUOUS
 62
     7
100
AcDbCircle
 10
1576.457636363665
 20
1140.303847577296
 30
0.0
 40
11.95763636360607
100
AcDbArc
 50
154.2435414689389
 51
205.7564585310611
  0
LINE
  5
17A
330
1F
100
AcDbEntity
  8
LAY-10
  6
CONTINUOUS
 62
     7
100
AcDbLine
 10
1564.500000000059
 20
1140.303847577293
 30
0.0
 11
1564.500000000061
 21
1129.911542731893
 31
0.0
  0
LINE
  5
17B
330
1F
100
AcDbEntity
  8
LAY-10
  6
CONTINUOUS
 62
     7
100
AcDbLine
 10
1584.500000000058
 20
1140.303847577293
 30
0.0
 11
1584.500000000057
 21
1129.911542731893
 31
0.0
  0
LINE
  5
17C
330
1F
100
AcDbEntity
  8
LAY-10
  6
CONTINUOUS
 62
     7
100
AcDbLine
 10
1565.688000000059
 20
1135.107695154595
 30
0.0
 11
1583.312000000058
 21
1135.107695154595
 31
0.0
  0
LINE
  5
17D
330
1F
100
AcDbEntity
  8
LAY-10
  6
CONTINUOUS
 62
     7
100
AcDbLine
 10
1548.372983346208
 20
1095.5
 30
0.0
 11
2020.627016653793
 21
1095.5
 31
0.0
  0
LINE
  5
17E
330
1F
100
AcDbEntity
  8
LAY-10
  6
CONTINUOUS
 62
     7
100
AcDbLine
 10
2201.999999999999
 20
1140.499999999999
 30
0.0
 11
2201.999999999999
 21
1092.5
 31
0.0
  0
LINE
  5
17F
330
1F
100
AcDbEntity
  8
LAY-10
  6
CONTINUOUS
 62
     7
100
AcDbLine
 10
2202.0
 20
1095.499999999999
 30
0.0
 11
2078.372983346209
 21
1095.5
 31
0.0
  0
LINE
  5
180
330
1F
100
AcDbEntity
  8
LAY-10
  6
HIDDEN
 62
     7
100
AcDbLine
 10
2247.0
 20
1140.499999999999
 30
0.0
 11
2247.0
 21
1095.5
 31
0.0
  0
LINE
  5
181
330
1F
100
AcDbEntity
  8
LAY-10
  6
CONTINUOUS
 62
     7
100
AcDbLine
 10
2247.0
 20
1140.499999999999
 30
0.0
 11
2247.0
 21
1145.499999999999
 31
0.0
  0
LINE
  5
182
330
1F
100
AcDbEntity
  8
LAY-10
  6
CONTINUOUS
 62
     7
100
AcDbLine
 10
2277.9703638518
 20
1140.499999999999
 30
0.0
 11
2277.9703638518
 21
1092.5
 31
0.0
  0
LINE
  5
183
330
1F
100
AcDbEntity
  8
LAY-10
  6
CONTINUOUS
 62
     7
100
AcDbLine
 10
2277.970363851801
 20
1140.499999999999
 30
0.0
 11
2202.0
 21
1140.499999999999
 31
0.0
  0
LINE
  5
184
330
1F
100
AcDbEntity
  8
LAY-10
  6
HIDDEN
 62
     7
100
AcDbLine
 10
2277.9703638518
 20
1095.5
 30
0.0
 11
2202.0
 21
1095.5
 31
0.0
  0
LINE
  5
185
330
1F
100
AcDbEntity
  8
LAY-10
  6
CONTINUOUS
 62
     7
100
AcDbLine
 10
2277.970363851801
 20
1092.5
 30
0.0
 11
2202.0
 21
1092.5
 31
0.0
  0
LINE
  5
186
330
1F
100
AcDbEntity
  8
LAY-10
  6
CONTINUOUS
 62
     7
100
AcDbLine
 10
1367.000000000002
 20
1140.499999999999
 30
0.0
 11
1367.000000000002
 21
1092.5
 31
0.0
  0
LINE
  5
187
330
1F
100
AcDbEntity
  8
LAY-10
  6
HIDDEN
 62
     7
100
AcDbLine
 10
1322.0
 20
1140.499999999999
 30
0.0
 11
1322.0
 21
1095.5
 31
0.0
  0
LINE
  5
188
330
1F
100
AcDbEntity
  8
LAY-10
  6
CONTINUOUS
 62
     7
100
AcDbLine
 10
1322.0
 20
1140.499999999999
 30
0.0
 11
1322.0
 21
1145.499999999999
 31
0.0
  0
LINE
  5
189
330
1F
100
AcDbEntity
  8
LAY-10
  6
CONTINUOUS
 62
     7
100
AcDbLine
 10
1291.029636148201
 20
1140.499999999999
 30
0.0
 11
1291.029636148201
 21
1092.5
 31
0.0
  0
LINE
  5
18A
330
1F
100
AcDbEntity
  8
LAY-10
  6
CONTINUOUS
 62
     7
100
AcDbLine
 10
1291.0296361482
 20
1140.499999999999
 30
0.0
 11
1367.0
 21
1140.499999999999
 31
0.0
  0
LINE
  5
18B
330
1F
100
AcDbEntity
  8
LAY-10
  6
HIDDEN
 62
     7
100
AcDbLine
 10
1291.029636148201
 20
1095.5
 30
0.0
 11
1367.0
 21
1095.5
 31
0.0
  0
LINE
  5
18C
330
1F
100
AcDbEntity
  8
LAY-10
  6
CONTINUOUS
 62
     7
100
AcDbLine
 10
1291.0296361482
 20
1092.5
 30
0.0
 11
1367.0
 21
1092.5
 31
0.0
  0
LINE
  5
18D
330
1F
100
AcDbEntity
  8
LAY-10
  6
CONTINUOUS
 62
     7
100
AcDbLine
 10
1367.0
 20
1095.5
 30
0.0
 11
1490.627016653793
 21
1095.5
 31
0.0
  0
CIRCLE
  5
18E
330
1F
100
AcDbEntity
  8
LAY-10
  6
CONTINUOUS
 62
     7
100
AcDbCircle
 10
1207.500000000101
 20
1111.4999999998
 30
0.0
 40
8.66025403784441
  0
LINE
  5
18F
330
1F
100
AcDbEntity
  8
LAY-10
  6
CONTINUOUS
 62
     7
100
AcDbLine
 10
1216.160254037946
 20
1106.4999999998
 30
0.0
 11
1216.160254037946
 21
1116.4999999998
 31
0.0
  0
LINE
  5
190
330
1F
100
AcDbEntity
  8
LAY-10
  6
CONTINUOUS
 62
     7
100
AcDbLine
 10
1216.160254037946
 20
1116.4999999998
 30
0.0
 11
1207.500000000101
 21
1121.4999999998
 31
0.0
  0
LINE
  5
191
330
1F
100
AcDbEntity
  8
LAY-10
  6
CONTINUOUS
 62
     7
100
AcDbLine
 10
1207.500000000101
 20
1121.4999999998
 30
0.0
 11
1198.839745962257
 21
1116.4999999998
 31
0.0
  0
LINE
  5
192
330
1F
100
AcDbEntity
  8
LAY-10
  6
CONTINUOUS
 62
     7
100
AcDbLine
 10
1198.839745962257
 20
1116.4999999998
 30
0.0
 11
1198.839745962257
 21
1106.4999999998
 31
0.0
  0
LINE
  5
193
330
1F
100
AcDbEntity
  8
LAY-10
  6
CONTINUOUS
 62
     7
100
AcDbLine
 10
1198.839745962257
 20
1106.4999999998
 30
0.0
 11
1207.500000000101
 21
1101.4999999998
 31
0.0
  0
LINE
  5
194
330
1F
100
AcDbEntity
  8
LAY-10
  6
CONTINUOUS
 62
     7
100
AcDbLine
 10
1207.500000000101
 20
1101.4999999998
 30
0.0
 11
1216.160254037946
 21
1106.4999999998
 31
0.0
  0
LINE
  5
195
330
1F
100
AcDbEntity
  8
LAY-10
  6
CONTINUOUS
 62
     7
100
AcDbLine
 10
1151.000000000284
 20
1141.49999999999
 30
0.0
 11
1151.000000000284
 21
1138.49999999999
 31
0.0
  0
LINE
  5
196
330
1F
100
AcDbEntity
  8
LAY-10
  6
CONTINUOUS
 62
     7
100
AcDbLine
 10
1151.000000000284
 20
1141.49999999999
 30
0.0
 11
1227.000000000284
 21
1141.49999999999
 31
0.0
  0
LINE
  5
197
330
1F
100
AcDbEntity
  8
LAY-10
  6
CONTINUOUS
 62
     7
100
AcDbLine
 10
1151.000000000284
 20
1138.499999999991
 30
0.0
 11
1187.50000000007
 21
1138.499999999991
 31
0.0
  0
ARC
  5
198
330
1F
100
AcDbEntity
  8
LAY-10
  6
CONTINUOUS
 62
     7
100
AcDbCircle
 10
1190.500000000271
 20
1144.5
 30
0.0
 40
3.0
100
AcDbArc
 50
180.0
 51
270.0
  0
ARC
  5
199
330
1F
100
AcDbEntity
  8
LAY-10
  6
CONTINUOUS
 62
     7
100
AcDbCircle
 10
1227.000000000271
 20
1135.0
 30
0.0
 40
6.5
100
AcDbArc
 50
0.0
 51
90.00000000000001
  0
LINE
  5
19A
330
1F
100
AcDbEntity
  8
LAY-10
  6
CONTINUOUS
 62
     7
100
AcDbLine
 10
1237.500000000271
 20
1145.5
 30
0.0
 11
1237.500000000271
 21
1095.5
 31
0.0
  0
LINE
  5
19B
330
1F
100
AcDbEntity
  8
LAY-10
  6
CONTINUOUS
 62
     7
100
AcDbLine
 10
1233.500000000271
 20
1135.0
 30
0.0
 11
1233.500000000271
 21
1098.5
 31
0.0
  0
ARC
  5
19C
330
1F
100
AcDbEntity
  8
LAY-10
  6
CONTINUOUS
 62
     7
100
AcDbCircle
 10
1236.500000000271
 20
1098.5
 30
0.0
 40
3.0
100
AcDbArc
 50
180.0
 51
270.0
  0
LINE
  5
19D
330
1F
100
AcDbEntity
  8
LAY-10
  6
CONTINUOUS
 62
     7
100
AcDbLine
 10
1187.500000000271
 20
1145.5
 30
0.0
 11
1187.500000000271
 21
1144.5
 31
0.0
  0
LINE
  5
19E
330
1F
100
AcDbEntity
  8
LAY-10
  6
CONTINUOUS
 62
     7
100
AcDbLine
 10
1291.0296361482
 20
1095.5
 30
0.0
 11
1236.500000000271
 21
1095.5
 31
0.0
  0
LINE
  5
19F
330
1F
100
AcDbEntity
  8
LAY-10
  6
HIDDEN
 62
     7
100
AcDbLine
 10
1172.000000000301
 20
1141.5
 30
0.0
 11
1172.000000000301
 21
1138.500000000001
 31
0.0
  0
LINE
  5
1A0
330
1F
100
AcDbEntity
  8
LAY-10
  6
HIDDEN
 62
     7
100
AcDbLine
 10
1160.0000000003
 20
1141.5
 30
0.0
 11
1160.0000000003
 21
1138.500000000001
 31
0.0
  0
CIRCLE
  5
1A1
330
1F
100
AcDbEntity
  8
LAY-10
  6
CONTINUOUS
 62
     7
100
AcDbCircle
 10
2361.4999999999
 20
1111.499999999806
 30
0.0
 40
8.66025403784441
  0
LINE
  5
1A2
330
1F
100
AcDbEntity
  8
LAY-10
  6
CONTINUOUS
 62
     7
100
AcDbLine
 10
2352.839745962056
 20
1106.499999999806
 30
0.0
 11
2352.839745962055
 21
1116.499999999806
 31
0.0
  0
LINE
  5
1A3
330
1F
100
AcDbEntity
  8
LAY-10
  6
CONTINUOUS
 62
     7
100
AcDbLine
 10
2352.839745962055
 20
1116.499999999806
 30
0.0
 11
2361.4999999999
 21
1121.499999999806
 31
0.0
  0
LINE
  5
1A4
330
1F
100
AcDbEntity
  8
LAY-10
  6
CONTINUOUS
 62
     7
100
AcDbLine
 10
2361.4999999999
 20
1121.499999999806
 30
0.0
 11
2370.160254037744
 21
1116.499999999806
 31
0.0
  0
LINE
  5
1A5
330
1F
100
AcDbEntity
  8
LAY-10
  6
CONTINUOUS
 62
     7
100
AcDbLine
 10
2370.160254037744
 20
1116.499999999806
 30
0.0
 11
2370.160254037744
 21
1106.499999999806
 31
0.0
  0
LINE
  5
1A6
330
1F
100
AcDbEntity
  8
LAY-10
  6
CONTINUOUS
 62
     7
100
AcDbLine
 10
2370.160254037744
 20
1106.499999999806
 30
0.0
 11
2361.4999999999
 21
1101.499999999806
 31
0.0
  0
LINE
  5
1A7
330
1F
100
AcDbEntity
  8
LAY-10
  6
CONTINUOUS
 62
     7
100
AcDbLine
 10
2361.4999999999
 20
1101.499999999806
 30
0.0
 11
2352.839745962056
 21
1106.499999999806
 31
0.0
  0
LINE
  5
1A8
330
1F
100
AcDbEntity
  8
LAY-10
  6
CONTINUOUS
 62
     7
100
AcDbLine
 10
2417.999999999717
 20
1141.499999999997
 30
0.0
 11
2417.999999999717
 21
1138.499999999997
 31
0.0
  0
LINE
  5
1A9
330
1F
100
AcDbEntity
  8
LAY-10
  6
CONTINUOUS
 62
     7
100
AcDbLine
 10
2417.999999999717
 20
1141.499999999997
 30
0.0
 11
2341.999999999716
 21
1141.499999999996
 31
0.0
  0
LINE
  5
1AA
330
1F
100
AcDbEntity
  8
LAY-10
  6
CONTINUOUS
 62
     7
100
AcDbLine
 10
2417.999999999717
 20
1138.499999999997
 30
0.0
 11
2381.49999999993
 21
1138.499999999997
 31
0.0
  0
ARC
  5
1AB
330
1F
100
AcDbEntity
  8
LAY-10
  6
CONTINUOUS
 62
     7
100
AcDbCircle
 10
2378.49999999973
 20
1144.500000000007
 30
0.0
 40
3.0
100
AcDbArc
 50
270.0
 51
0.0
  0
ARC
  5
1AC
330
1F
100
AcDbEntity
  8
LAY-10
  6
CONTINUOUS
 62
     7
100
AcDbCircle
 10
2341.99999999973
 20
1135.000000000006
 30
0.0
 40
6.5
100
AcDbArc
 50
90.00000000000001
 51
180.000000000002
  0
LINE
  5
1AD
330
1F
100
AcDbEntity
  8
LAY-10
  6
CONTINUOUS
 62
     7
100
AcDbLine
 10
2331.49999999973
 20
1145.500000000006
 30
0.0
 11
2331.49999999973
 21
1095.500000000006
 31
0.0
  0
LINE
  5
1AE
330
1F
100
AcDbEntity
  8
LAY-10
  6
CONTINUOUS
 62
     7
100
AcDbLine
 10
2335.49999999973
 20
1135.000000000006
 30
0.0
 11
2335.49999999973
 21
1098.500000000006
 31
0.0
  0
ARC
  5
1AF
330
1F
100
AcDbEntity
  8
LAY-10
  6
CONTINUOUS
 62
     7
100
AcDbCircle
 10
2332.49999999973
 20
1098.500000000006
 30
0.0
 40
3.0
100
AcDbArc
 50
270.0
 51
0.0
  0
LINE
  5
1B0
330
1F
100
AcDbEntity
  8
LAY-10
  6
CONTINUOUS
 62
     7
100
AcDbLine
 10
2381.49999999973
 20
1145.500000000007
 30
0.0
 11
2381.49999999973
 21
1144.500000000007
 31
0.0
  0
LINE
  5
1B1
330
1F
100
AcDbEntity
  8
LAY-10
  6
HIDDEN
 62
     7
100
AcDbLine
 10
2396.999999999699
 20
1141.500000000006
 30
0.0
 11
2396.999999999699
 21
1138.500000000007
 31
0.0
  0
LINE
  5
1B2
330
1F
100
AcDbEntity
  8
LAY-10
  6
HIDDEN
 62
     7
100
AcDbLine
 10
2408.9999999997
 20
1141.500000000007
 30
0.0
 11
2408.9999999997
 21
1138.500000000008
 31
0.0
  0
LINE
  5
1B3
330
1F
100
AcDbEntity
  8
LAY-10
  6
CONTINUOUS
 62
     7
100
AcDbLine
 10
2277.9703638518
 20
1095.5
 30
0.0
 11
2332.49999999973
 21
1095.5
 31
0.0
  0
LINE
  5
1B4
330
1F
100
AcDbEntity
  8
LAY-10
  6
CONTINUOUS
 62
     7
100
AcDbLine
 10
2335.5
 20
1091.499999999996
 30
0.0
 11
2381.499999999882
 21
1091.499999999995
 31
0.0
  0
LINE
  5
1B5
330
1F
100
AcDbEntity
  8
LAY-10
  6
CONTINUOUS
 62
     7
100
AcDbLine
 10
2381.499999999882
 20
1141.499999999992
 30
0.0
 11
2381.499999999882
 21
1091.499999999996
 31
0.0
  0
LINE
  5
1B6
330
1F
100
AcDbEntity
  8
LAY-10
  6
CONTINUOUS
 62
     7
100
AcDbLine
 10
2335.499999999997
 20
1098.500000000002
 30
0.0
 11
2335.499999999997
 21
1091.499999999996
 31
0.0
  0
LINE
  5
1B7
330
1F
100
AcDbEntity
  8
LAY-10
  6
CONTINUOUS
 62
     7
100
AcDbLine
 10
1233.5
 20
1091.49999999999
 30
0.0
 11
1187.5000000001
 21
1091.49999999999
 31
0.0
  0
LINE
  5
1B8
330
1F
100
AcDbEntity
  8
LAY-10
  6
CONTINUOUS
 62
     7
100
AcDbLine
 10
1233.500000000004
 20
1098.499999999996
 30
0.0
 11
1233.500000000004
 21
1091.5
 31
0.0
  0
LINE
  5
1B9
330
1F
100
AcDbEntity
  8
LAY-10
  6
CONTINUOUS
 62
     7
100
AcDbLine
 10
1187.500000000118
 20
1141.499999999986
 30
0.0
 11
1187.500000000118
 21
1091.5
 31
0.0
  0
LINE
  5
1BA
330
1F
100
AcDbEntity
  8
LAY-10
  6
CONTINUOUS
 62
     7
100
AcDbLine
 10
1195.000000000001
 20
1170.5
 30
0.0
 11
1201.000000000002
 21
1170.5
 31
0.0
  0
LINE
  5
1BB
330
1F
100
AcDbEntity
  8
LAY-10
  6
CONTINUOUS
 62
     7
100
AcDbLine
 10
1192.0000000004
 20
1235.5
 30
0.0
 11
1187.5000000004
 21
1235.5
 31
0.0
  0
LINE
  5
1BC
330
1F
100
AcDbEntity
  8
LAY-10
  6
CONTINUOUS
 62
     7
100
AcDbLine
 10
2374.0
 20
1170.500000000006
 30
0.0
 11
2367.999999999999
 21
1170.500000000006
 31
0.0
  0
LINE
  5
1BD
330
1F
100
AcDbEntity
  8
LAY-10
  6
CONTINUOUS
 62
     7
100
AcDbLine
 10
2376.9999999996
 20
1235.500000000006
 30
0.0
 11
2381.4999999996
 21
1235.500000000006
 31
0.0
  0
LINE
  5
1BE
330
1F
100
AcDbEntity
  8
LAY-10
  6
CONTINUOUS
 62
     7
100
AcDbLine
 10
2367.999999999999
 20
1235.499999999999
 30
0.0
 11
1201.000000000001
 21
1235.5
 31
0.0
  0
LINE
  5
1BF
330
1F
100
AcDbEntity
  8
LAY-10
  6
CONTINUOUS
 62
     7
100
AcDbLine
 10
1187.500000000001
 20
1145.5
 30
0.0
 11
2381.499999999719
 21
1145.500000001387
 31
0.0
  0
CIRCLE
  5
1C0
330
1F
100
AcDbEntity
  8
LAY-10
  6
CONTINUOUS
 62
     7
100
AcDbCircle
 10
1784.5
 20
2529.5
 30
0.0
 40
582.0
  0
LINE
  5
1C1
330
1F
100
AcDbEntity
  8
LAY-10
  6
CONTINUOUS
 62
     7
100
AcDbLine
 10
1987.477831301844
 20
2532.500000000001
 30
0.0
 11
2363.492227927111
 21
2532.500000000002
 31
0.0
  0
LINE
  5
1C2
330
1F
100
AcDbEntity
  8
LAY-10
  6
CONTINUOUS
 62
     7
100
AcDbLine
 10
1987.477831301844
 20
2526.500000000001
 30
0.0
 11
2363.492227927111
 21
2526.500000000002
 31
0.0
  0
ARC
  5
1C3
330
1F
100
AcDbEntity
  8
LAY-10
  6
CONTINUOUS
 62
     7
100
AcDbCircle
 10
1784.5
 20
2529.5
 30
0.0
 40
579.0
100
AcDbArc
 50
270.296870652228
 51
359.7031293477723
  0
LINE
  5
1C4
330
1F
100
AcDbEntity
  8
LAY-10
  6
CONTINUOUS
 62
     7
100
AcDbLine
 10
1787.500000000001
 20
2326.522168698156
 30
0.0
 11
1787.5
 21
1950.507772072889
 31
0.0
  0
LINE
  5
1C5
330
1F
100
AcDbEntity
  8
LAY-10
  6
CONTINUOUS
 62
     7
100
AcDbLine
 10
1781.500000000001
 20
2326.522168698155
 30
0.0
 11
1781.500000000001
 21
1950.5077720729
 31
0.0
  0
LINE
  5
1C6
330
1F
100
AcDbEntity
  8
LAY-10
  6
CONTINUOUS
 62
     7
100
AcDbLine
 10
1787.5
 20
2732.477831301844
 30
0.0
 11
1787.499999999999
 21
3108.492227927111
 31
0.0
  0
ARC
  5
1C7
330
1F
100
AcDbEntity
  8
LAY-10
  6
CONTINUOUS
 62
     7
100
AcDbCircle
 10
1784.5
 20
2529.5
 30
0.0
 40
579.0
100
AcDbArc
 50
0.2968706522283645
 51
89.70312934777206
  0
LINE
  5
1C8
330
1F
100
AcDbEntity
  8
LAY-10
  6
CONTINUOUS
 62
     7
100
AcDbLine
 10
1581.522168698156
 20
2532.5
 30
0.0
 11
1205.507772072889
 21
2532.5
 31
0.0
  0
ARC
  5
1C9
330
1F
100
AcDbEntity
  8
LAY-10
  6
CONTINUOUS
 62
     7
100
AcDbCircle
 10
1784.5
 20
2529.5
 30
0.0
 40
579.0
100
AcDbArc
 50
90.2968706522281
 51
179.7031293477719
  0
ARC
  5
1CA
330
1F
100
AcDbEntity
  8
LAY-10
  6
CONTINUOUS
 62
     7
100
AcDbCircle
 10
1784.5
 20
2529.5
 30
0.0
 40
579.0
100
AcDbArc
 50
180.2968706522281
 51
269.703129347772
  0
LINE
  5
1CB
330
1F
100
AcDbEntity
  8
LAY-10
  6
CONTINUOUS
 62
     7
100
AcDbLine
 10
1581.522168698156
 20
2526.5
 30
0.0
 11
1205.507772072889
 21
2526.5
 31
0.0
  0
LINE
  5
1CC
330
1F
100
AcDbEntity
  8
LAY-10
  6
CONTINUOUS
 62
     7
100
AcDbLine
 10
2182.601117807999
 20
2962.956456867333
 30
0.0
 11
2217.956456867324
 21
2927.601117808002
 31
0.0
  0
LINE
  5
1CD
330
1F
100
AcDbEntity
  8
LAY-10
  6
CONTINUOUS
 62
     7
100
AcDbLine
 10
2182.601117807999
 20
2962.956456867333
 30
0.0
 11
2177.978626785979
 21
2958.333965845314
 31
0.0
  0
LINE
  5
1CE
330
1F
100
AcDbEntity
  8
LAY-10
  6
CONTINUOUS
 62
     7
100
AcDbLine
 10
2217.956456867311
 20
2927.601117807989
 30
0.0
 11
2213.333965845308
 21
2922.978626785986
 31
0.0
  0
LINE
  5
1CF
330
1F
100
AcDbEntity
  8
LAY-10
  6
CONTINUOUS
 62
     7
100
AcDbLine
 10
1912.537452863043
 20
3103.934861985504
 30
0.0
 11
1960.833744177496
 21
3090.993909730373
 31
0.0
  0
LINE
  5
1D0
330
1F
100
AcDbEntity
  8
LAY-10
  6
CONTINUOUS
 62
     7
100
AcDbLine
 10
1912.537452863043
 20
3103.934861985504
 30
0.0
 11
1910.845503720217
 21
3097.620421820659
 31
0.0
  0
LINE
  5
1D1
330
1F
100
AcDbEntity
  8
LAY-10
  6
CONTINUOUS
 62
     7
100
AcDbLine
 10
1960.83374417749
 20
3090.993909730355
 30
0.0
 11
1959.141795034672
 21
3084.679469565534
 31
0.0
  0
LINE
  5
1D2
330
1F
100
AcDbEntity
  8
LAY-10
  6
CONTINUOUS
 62
     7
100
AcDbLine
 10
2345.993909730376
 20
2705.833744177504
 30
0.0
 11
2358.934861985497
 21
2657.537452863049
 31
0.0
  0
LINE
  5
1D3
330
1F
100
AcDbEntity
  8
LAY-10
  6
CONTINUOUS
 62
     7
100
AcDbLine
 10
2345.993909730376
 20
2705.833744177504
 30
0.0
 11
2339.679469565531
 21
2704.14179503468
 31
0.0
  0
LINE
  5
1D4
330
1F
100
AcDbEntity
  8
LAY-10
  6
CONTINUOUS
 62
     7
100
AcDbLine
 10
2358.93486198548
 20
2657.537452863044
 30
0.0
 11
2352.620421820658
 21
2655.845503720226
 31
0.0
  0
LINE
  5
1D5
330
1F
100
AcDbEntity
  8
LAY-10
  6
CONTINUOUS
 62
     7
100
AcDbLine
 10
1351.043543132667
 20
2927.601117807999
 30
0.0
 11
1386.398882191999
 21
2962.956456867323
 31
0.0
  0
LINE
  5
1D6
330
1F
100
AcDbEntity
  8
LAY-10
  6
CONTINUOUS
 62
     7
100
AcDbLine
 10
1351.043543132667
 20
2927.601117807999
 30
0.0
 11
1355.666034154686
 21
2922.978626785979
 31
0.0
  0
LINE
  5
1D7
330
1F
100
AcDbEntity
  8
LAY-10
  6
CONTINUOUS
 62
     7
100
AcDbLine
 10
1386.398882192011
 20
2962.95645686731
 30
0.0
 11
1391.021373214014
 21
2958.333965845308
 31
0.0
  0
LINE
  5
1D8
330
1F
100
AcDbEntity
  8
LAY-10
  6
CONTINUOUS
 62
     7
100
AcDbLine
 10
1210.065138014497
 20
2657.537452863042
 30
0.0
 11
1223.006090269628
 21
2705.833744177495
 31
0.0
  0
LINE
  5
1D9
330
1F
100
AcDbEntity
  8
LAY-10
  6
CONTINUOUS
 62
     7
100
AcDbLine
 10
1210.065138014497
 20
2657.537452863042
 30
0.0
 11
1216.379578179341
 21
2655.845503720217
 31
0.0
  0
LINE
  5
1DA
330
1F
100
AcDbEntity
  8
LAY-10
  6
CONTINUOUS
 62
     7
100
AcDbLine
 10
1223.006090269645
 20
2705.833744177491
 30
0.0
 11
1229.320530434466
 21
2704.141795034672
 31
0.0
  0
LINE
  5
1DB
330
1F
100
AcDbEntity
  8
LAY-10
  6
CONTINUOUS
 62
     7
100
AcDbLine
 10
1608.166255822496
 20
3090.993909730376
 30
0.0
 11
1656.462547136951
 21
3103.934861985496
 31
0.0
  0
LINE
  5
1DC
330
1F
100
AcDbEntity
  8
LAY-10
  6
CONTINUOUS
 62
     7
100
AcDbLine
 10
1608.166255822496
 20
3090.993909730376
 30
0.0
 11
1609.85820496532
 21
3084.679469565531
 31
0.0
  0
LINE
  5
1DD
330
1F
100
AcDbEntity
  8
LAY-10
  6
CONTINUOUS
 62
     7
100
AcDbLine
 10
1656.462547136956
 20
3103.934861985479
 30
0.0
 11
1658.154496279774
 21
3097.620421820658
 31
0.0
  0
LINE
  5
1DE
330
1F
100
AcDbEntity
  8
LAY-10
  6
CONTINUOUS
 62
     7
100
AcDbLine
 10
1386.398882192001
 20
2096.043543132667
 30
0.0
 11
1351.043543132677
 21
2131.398882191998
 31
0.0
  0
LINE
  5
1DF
330
1F
100
AcDbEntity
  8
LAY-10
  6
CONTINUOUS
 62
     7
100
AcDbLine
 10
1386.398882192001
 20
2096.043543132667
 30
0.0
 11
1391.021373214021
 21
2100.666034154686
 31
0.0
  0
LINE
  5
1E0
330
1F
100
AcDbEntity
  8
LAY-10
  6
CONTINUOUS
 62
     7
100
AcDbLine
 10
1351.04354313269
 20
2131.398882192011
 30
0.0
 11
1355.666034154693
 21
2136.021373214014
 31
0.0
  0
LINE
  5
1E1
330
1F
100
AcDbEntity
  8
LAY-10
  6
CONTINUOUS
 62
     7
100
AcDbLine
 10
1656.462547136958
 20
1955.065138014496
 30
0.0
 11
1608.166255822505
 21
1968.006090269627
 31
0.0
  0
LINE
  5
1E2
330
1F
100
AcDbEntity
  8
LAY-10
  6
CONTINUOUS
 62
     7
100
AcDbLine
 10
1656.462547136958
 20
1955.065138014496
 30
0.0
 11
1658.154496279783
 21
1961.37957817934
 31
0.0
  0
LINE
  5
1E3
330
1F
100
AcDbEntity
  8
LAY-10
  6
CONTINUOUS
 62
     7
100
AcDbLine
 10
1608.16625582251
 20
1968.006090269644
 30
0.0
 11
1609.858204965329
 21
1974.320530434466
 31
0.0
  0
LINE
  5
1E4
330
1F
100
AcDbEntity
  8
LAY-10
  6
CONTINUOUS
 62
     7
100
AcDbLine
 10
1223.006090269625
 20
2353.166255822496
 30
0.0
 11
1210.065138014504
 21
2401.462547136951
 31
0.0
  0
LINE
  5
1E5
330
1F
100
AcDbEntity
  8
LAY-10
  6
CONTINUOUS
 62
     7
100
AcDbLine
 10
1223.006090269625
 20
2353.166255822496
 30
0.0
 11
1229.320530434469
 21
2354.85820496532
 31
0.0
  0
LINE
  5
1E6
330
1F
100
AcDbEntity
  8
LAY-10
  6
CONTINUOUS
 62
     7
100
AcDbLine
 10
1210.065138014521
 20
2401.462547136956
 30
0.0
 11
1216.379578179342
 21
2403.154496279774
 31
0.0
  0
LINE
  5
1E7
330
1F
100
AcDbEntity
  8
LAY-10
  6
CONTINUOUS
 62
     7
100
AcDbLine
 10
2217.956456867333
 20
2131.398882192001
 30
0.0
 11
2182.601117808002
 21
2096.043543132676
 31
0.0
  0
LINE
  5
1E8
330
1F
100
AcDbEntity
  8
LAY-10
  6
CONTINUOUS
 62
     7
100
AcDbLine
 10
2217.956456867333
 20
2131.398882192001
 30
0.0
 11
2213.333965845314
 21
2136.021373214021
 31
0.0
  0
LINE
  5
1E9
330
1F
100
AcDbEntity
  8
LAY-10
  6
CONTINUOUS
 62
     7
100
AcDbLine
 10
2182.601117807989
 20
2096.043543132689
 30
0.0
 11
2177.978626785986
 21
2100.666034154692
 31
0.0
  0
LINE
  5
1EA
330
1F
100
AcDbEntity
  8
LAY-10
  6
CONTINUOUS
 62
     7
100
AcDbLine
 10
2358.934861985504
 20
2401.462547136958
 30
0.0
 11
2345.993909730373
 21
2353.166255822505
 31
0.0
  0
LINE
  5
1EB
330
1F
100
AcDbEntity
  8
LAY-10
  6
CONTINUOUS
 62
     7
100
AcDbLine
 10
2358.934861985504
 20
2401.462547136958
 30
0.0
 11
2352.620421820659
 21
2403.154496279783
 31
0.0
  0
LINE
  5
1EC
330
1F
100
AcDbEntity
  8
LAY-10
  6
CONTINUOUS
 62
     7
100
AcDbLine
 10
2345.993909730356
 20
2353.166255822509
 30
0.0
 11
2339.679469565534
 21
2354.858204965328
 31
0.0
  0
LINE
  5
1ED
330
1F
100
AcDbEntity
  8
LAY-10
  6
CONTINUOUS
 62
     7
100
AcDbLine
 10
1960.833744177504
 20
1968.006090269624
 30
0.0
 11
1912.537452863049
 21
1955.065138014503
 31
0.0
  0
LINE
  5
1EE
330
1F
100
AcDbEntity
  8
LAY-10
  6
CONTINUOUS
 62
     7
100
AcDbLine
 10
1960.833744177504
 20
1968.006090269624
 30
0.0
 11
1959.14179503468
 21
1974.320530434469
 31
0.0
  0
LINE
  5
1EF
330
1F
100
AcDbEntity
  8
LAY-10
  6
CONTINUOUS
 62
     7
100
AcDbLine
 10
1912.537452863044
 20
1955.065138014521
 30
0.0
 11
1910.845503720226
 21
1961.379578179342
 31
0.0
  0
CIRCLE
  5
1F0
330
1F
100
AcDbEntity
  8
LAY-10
  6
CONTINUOUS
 62
     7
100
AcDbCircle
 10
1784.5
 20
2529.5
 30
0.0
 40
592.5
  0
LINE
  5
1F1
330
1F
100
AcDbEntity
  8
LAY-10
  6
CONTINUOUS
 62
     7
100
AcDbLine
 10
674.4999999999983
 20
2529.499999999999
 30
0.0
 11
848.4999999999983
 21
2529.499999999999
 31
0.0
  0
LINE
  5
1F2
330
1F
100
AcDbEntity
  8
LAY-10
  6
CONTINUOUS
 62
     7
100
AcDbLine
 10
1984.5
 20
1235.5
 30
0.0
 11
1984.5
 21
1145.5
 31
0.0
  0
LINE
  5
1F3
330
1F
100
AcDbEntity
  8
LAY-10
  6
CONTINUOUS
 62
     7
100
AcDbLine
 10
1987.5
 20
1235.5
 30
0.0
 11
1987.5
 21
1148.6999999992
 31
0.0
  0
LINE
  5
1F4
330
1F
100
AcDbEntity
  8
LAY-10
  6
CONTINUOUS
 62
     7
100
AcDbLine
 10
1584.5
 20
1235.5
 30
0.0
 11
1584.5
 21
1145.5
 31
0.0
  0
LINE
  5
1F5
330
1F
100
AcDbEntity
  8
LAY-10
  6
CONTINUOUS
 62
     7
100
AcDbLine
 10
1581.5
 20
1235.5
 30
0.0
 11
1581.5
 21
1148.6999999992
 31
0.0
  0
LINE
  5
1F6
330
1F
100
AcDbEntity
  8
LAY-10
  6
CONTINUOUS
 62
     7
100
AcDbLine
 10
1187.500000000385
 20
1235.499999999992
 30
0.0
 11
1187.500000000281
 21
1145.5
 31
0.0
  0
LINE
  5
1F7
330
1F
100
AcDbEntity
  8
LAY-10
  6
CONTINUOUS
 62
     7
100
AcDbLine
 10
2381.499999999614
 20
1235.499999999998
 30
0.0
 11
2381.499999999719
 21
1145.500000000007
 31
0.0
  0
LINE
  5
1F8
330
1F
100
AcDbEntity
  8
LAY-10
  6
CONTINUOUS
 62
     7
100
AcDbLine
 10
1192.000000000403
 20
1235.499999999992
 30
0.0
 11
1192.000000000301
 21
1145.5
 31
0.0
  0
LINE
  5
1F9
330
1F
100
AcDbEntity
  8
LAY-10
  6
CONTINUOUS
 62
     7
100
AcDbLine
 10
1195.000000000002
 20
1145.5
 30
0.0
 11
1195.000000000002
 21
1170.5
 31
0.0
  0
LINE
  5
1FA
330
1F
100
AcDbEntity
  8
LAY-10
  6
CONTINUOUS
 62
     7
100
AcDbLine
 10
1201.000000000001
 20
1235.5
 30
0.0
 11
1201.000000000002
 21
1145.5
 31
0.0
  0
LINE
  5
1FB
330
1F
100
AcDbEntity
  8
LAY-10
  6
CONTINUOUS
 62
     7
100
AcDbLine
 10
1204.000000000002
 20
1235.5
 30
0.0
 11
1204.000000000002
 21
1145.5
 31
0.0
  0
LINE
  5
1FC
330
1F
100
AcDbEntity
  8
LAY-10
  6
CONTINUOUS
 62
     7
100
AcDbLine
 10
2376.999999999597
 20
1235.499999999998
 30
0.0
 11
2376.999999999699
 21
1145.500000000007
 31
0.0
  0
LINE
  5
1FD
330
1F
100
AcDbEntity
  8
LAY-10
  6
CONTINUOUS
 62
     7
100
AcDbLine
 10
2373.999999999998
 20
1145.500000000006
 30
0.0
 11
2373.999999999998
 21
1170.500000000006
 31
0.0
  0
LINE
  5
1FE
330
1F
100
AcDbEntity
  8
LAY-10
  6
CONTINUOUS
 62
     7
100
AcDbLine
 10
2367.999999999999
 20
1235.500000000006
 30
0.0
 11
2367.999999999999
 21
1145.500000000006
 31
0.0
  0
LINE
  5
1FF
330
1F
100
AcDbEntity
  8
LAY-10
  6
CONTINUOUS
 62
     7
100
AcDbLine
 10
2364.999999999998
 20
1235.500000000006
 30
0.0
 11
2364.999999999999
 21
1145.500000000006
 31
0.0
  0
LINE
  5
200
330
1F
100
AcDbEntity
  8
LAY-10
  6
CONTINUOUS
 62
     7
100
AcDbLine
 10
1204.000000000002
 20
1148.6999999992
 30
0.0
 11
2364.999999999998
 21
1148.6999999992
 31
0.0
  0
LINE
  5
201
330
1F
100
AcDbEntity
  8
LAY-10
  6
CONTINUOUS
 62
     7
100
AcDbLine
 10
1974.194086048973
 20
2693.359304544273
 30
0.0
 11
2173.59819834355
 21
2892.76341683885
 31
0.0
  0
LINE
  5
202
330
1F
100
AcDbEntity
  8
LAY-10
  6
CONTINUOUS
 62
     7
100
AcDbLine
 10
1948.359304544235
 20
2719.194086049003
 30
0.0
 11
2147.763416838748
 21
2918.598198343644
 31
0.0
  0
LINE
  5
203
330
1F
100
AcDbEntity
  8
LAY-10
  6
CONTINUOUS
 62
     7
100
AcDbLine
 10
1947.134559672892
 20
2720.418830920353
 30
0.0
 11
2146.53867196747
 21
2919.82294321493
 31
0.0
  0
LINE
  5
204
330
1F
100
AcDbEntity
  8
LAY-10
  6
CONTINUOUS
 62
     7
100
AcDbLine
 10
2151.84197282637
 20
2914.51964235603
 30
0.0
 11
1952.437860531791
 21
2715.115530061454
 31
0.0
  0
LINE
  5
205
330
1F
100
AcDbEntity
  8
LAY-10
  6
CONTINUOUS
 62
     7
100
AcDbLine
 10
2169.519642356032
 20
2896.841972826368
 30
0.0
 11
1970.115530061455
 21
2697.437860531791
 31
0.0
  0
LINE
  5
206
330
1F
100
AcDbEntity
  8
LAY-10
  6
CONTINUOUS
 62
     7
100
AcDbLine
 10
1975.418830920354
 20
2692.134559672892
 30
0.0
 11
2174.822943214931
 21
2891.538671967469
 31
0.0
  0
LINE
  5
207
330
1F
100
AcDbEntity
  8
LAY-10
  6
CONTINUOUS
 62
     7
100
AcDbLine
 10
1975.418830920355
 20
2692.134559672892
 30
0.0
 11
1947.134559672892
 21
2720.418830920353
 31
0.0
  0
LINE
  5
208
330
1F
100
AcDbEntity
  8
LAY-10
  6
CONTINUOUS
 62
     7
100
AcDbLine
 10
2146.538671967513
 20
2919.822943214913
 30
0.0
 11
2174.822943214944
 21
2891.538671967482
 31
0.0
  0
LINE
  5
209
330
1F
100
AcDbEntity
  8
LAY-10
  6
CONTINUOUS
 62
     7
100
AcDbLine
 10
1866.850245193946
 20
2766.253363406277
 30
0.0
 11
1939.837215912846
 21
3038.644446419755
 31
0.0
  0
LINE
  5
20A
330
1F
100
AcDbEntity
  8
LAY-10
  6
CONTINUOUS
 62
     7
100
AcDbLine
 10
1831.559277357257
 20
2775.709549738225
 30
0.0
 11
1904.54624807607
 21
3048.100632751725
 31
0.0
  0
LINE
  5
20B
330
1F
100
AcDbEntity
  8
LAY-10
  6
CONTINUOUS
 62
     7
100
AcDbLine
 10
1829.886244749844
 20
2776.157837474298
 30
0.0
 11
1902.873215468746
 21
3048.548920487775
 31
0.0
  0
LINE
  5
20C
330
1F
100
AcDbEntity
  8
LAY-10
  6
CONTINUOUS
 62
     7
100
AcDbLine
 10
1910.117659165914
 20
3046.607777649506
 30
0.0
 11
1837.130688447013
 21
2774.216694636028
 31
0.0
  0
LINE
  5
20D
330
1F
100
AcDbEntity
  8
LAY-10
  6
CONTINUOUS
 62
     7
100
AcDbLine
 10
1934.265804823139
 20
3040.137301521943
 30
0.0
 11
1861.278834104239
 21
2767.746218508466
 31
0.0
  0
LINE
  5
20E
330
1F
100
AcDbEntity
  8
LAY-10
  6
CONTINUOUS
 62
     7
100
AcDbLine
 10
1868.523277801406
 20
2765.805075670197
 30
0.0
 11
1941.510248520307
 21
3038.196158683675
 31
0.0
  0
LINE
  5
20F
330
1F
100
AcDbEntity
  8
LAY-10
  6
CONTINUOUS
 62
     7
100
AcDbLine
 10
1868.523277801407
 20
2765.805075670197
 30
0.0
 11
1829.886244749845
 21
2776.157837474298
 31
0.0
  0
LINE
  5
210
330
1F
100
AcDbEntity
  8
LAY-10
  6
CONTINUOUS
 62
     7
100
AcDbLine
 10
1902.873215468791
 20
3048.548920487782
 30
0.0
 11
1941.510248520311
 21
3038.196158683692
 31
0.0
  0
LINE
  5
211
330
1F
100
AcDbEntity
  8
LAY-10
  6
CONTINUOUS
 62
     7
100
AcDbLine
 10
2030.709549738219
 20
2576.559277357304
 30
0.0
 11
2303.100632751695
 21
2649.546248076205
 31
0.0
  0
LINE
  5
212
330
1F
100
AcDbEntity
  8
LAY-10
  6
CONTINUOUS
 62
     7
100
AcDbLine
 10
2021.25336340626
 20
2611.850245193991
 30
0.0
 11
2293.644446419713
 21
2684.837215912978
 31
0.0
  0
LINE
  5
213
330
1F
100
AcDbEntity
  8
LAY-10
  6
CONTINUOUS
 62
     7
100
AcDbLine
 10
2020.805075670197
 20
2613.523277801406
 30
0.0
 11
2293.196158683675
 21
2686.510248520305
 31
0.0
  0
LINE
  5
214
330
1F
100
AcDbEntity
  8
LAY-10
  6
CONTINUOUS
 62
     7
100
AcDbLine
 10
2295.137301521944
 20
2679.265804823136
 30
0.0
 11
2022.746218508466
 21
2606.278834104237
 31
0.0
  0
LINE
  5
215
330
1F
100
AcDbEntity
  8
LAY-10
  6
CONTINUOUS
 62
     7
100
AcDbLine
 10
2301.607777649507
 20
2655.117659165911
 30
0.0
 11
2029.21669463603
 21
2582.130688447011
 31
0.0
  0
LINE
  5
216
330
1F
100
AcDbEntity
  8
LAY-10
  6
CONTINUOUS
 62
     7
100
AcDbLine
 10
2031.157837474298
 20
2574.886244749844
 30
0.0
 11
2303.548920487776
 21
2647.873215468744
 31
0.0
  0
LINE
  5
217
330
1F
100
AcDbEntity
  8
LAY-10
  6
CONTINUOUS
 62
     7
100
AcDbLine
 10
2031.157837474299
 20
2574.886244749843
 30
0.0
 11
2020.805075670197
 21
2613.523277801405
 31
0.0
  0
LINE
  5
218
330
1F
100
AcDbEntity
  8
LAY-10
  6
CONTINUOUS
 62
     7
100
AcDbLine
 10
2293.196158683704
 20
2686.510248520269
 30
0.0
 11
2303.548920487794
 21
2647.873215468748
 31
0.0
  0
LINE
  5
219
330
1F
100
AcDbEntity
  8
LAY-10
  6
CONTINUOUS
 62
     7
100
AcDbLine
 10
1974.194086048973
 20
2365.640695455724
 30
0.0
 11
2173.598198343549
 21
2166.236583161147
 31
0.0
  0
LINE
  5
21A
330
1F
100
AcDbEntity
  8
LAY-10
  6
CONTINUOUS
 62
     7
100
AcDbLine
 10
1948.359304544234
 20
2339.805913950994
 30
0.0
 11
2147.763416838747
 21
2140.401801656353
 31
0.0
  0
LINE
  5
21B
330
1F
100
AcDbEntity
  8
LAY-10
  6
CONTINUOUS
 62
     7
100
AcDbLine
 10
1947.134559672892
 20
2338.581169079644
 30
0.0
 11
2146.53867196747
 21
2139.177056785067
 31
0.0
  0
LINE
  5
21C
330
1F
100
AcDbEntity
  8
LAY-10
  6
CONTINUOUS
 62
     7
100
AcDbLine
 10
2151.841972826369
 20
2144.480357643967
 30
0.0
 11
1952.437860531791
 21
2343.884469938543
 31
0.0
  0
LINE
  5
21D
330
1F
100
AcDbEntity
  8
LAY-10
  6
CONTINUOUS
 62
     7
100
AcDbLine
 10
2169.519642356031
 20
2162.158027173629
 30
0.0
 11
1970.115530061455
 21
2361.562139468206
 31
0.0
  0
LINE
  5
21E
330
1F
100
AcDbEntity
  8
LAY-10
  6
CONTINUOUS
 62
     7
100
AcDbLine
 10
1975.418830920354
 20
2366.865440327105
 30
0.0
 11
2174.822943214931
 21
2167.461328032528
 31
0.0
  0
LINE
  5
21F
330
1F
100
AcDbEntity
  8
LAY-10
  6
CONTINUOUS
 62
     7
100
AcDbLine
 10
1975.418830920354
 20
2366.865440327105
 30
0.0
 11
1947.134559672892
 21
2338.581169079644
 31
0.0
  0
LINE
  5
220
330
1F
100
AcDbEntity
  8
LAY-10
  6
CONTINUOUS
 62
     7
100
AcDbLine
 10
2146.538671967513
 20
2139.177056785084
 30
0.0
 11
2174.822943214944
 21
2167.461328032515
 31
0.0
  0
LINE
  5
221
330
1F
100
AcDbEntity
  8
LAY-10
  6
CONTINUOUS
 62
     7
100
AcDbLine
 10
1866.850245193946
 20
2292.746636593719
 30
0.0
 11
1939.837215912845
 21
2020.355553580242
 31
0.0
  0
LINE
  5
222
330
1F
100
AcDbEntity
  8
LAY-10
  6
CONTINUOUS
 62
     7
100
AcDbLine
 10
1831.559277357256
 20
2283.290450261772
 30
0.0
 11
1904.546248076069
 21
2010.899367248272
 31
0.0
  0
LINE
  5
223
330
1F
100
AcDbEntity
  8
LAY-10
  6
CONTINUOUS
 62
     7
100
AcDbLine
 10
1829.886244749844
 20
2282.842162525699
 30
0.0
 11
1902.873215468745
 21
2010.451079512222
 31
0.0
  0
LINE
  5
224
330
1F
100
AcDbEntity
  8
LAY-10
  6
CONTINUOUS
 62
     7
100
AcDbLine
 10
1910.117659165914
 20
2012.392222350491
 30
0.0
 11
1837.130688447012
 21
2284.783305363968
 31
0.0
  0
LINE
  5
225
330
1F
100
AcDbEntity
  8
LAY-10
  6
CONTINUOUS
 62
     7
100
AcDbLine
 10
1934.265804823138
 20
2018.862698478054
 30
0.0
 11
1861.278834104239
 21
2291.25378149153
 31
0.0
  0
LINE
  5
226
330
1F
100
AcDbEntity
  8
LAY-10
  6
CONTINUOUS
 62
     7
100
AcDbLine
 10
1868.523277801406
 20
2293.1949243298
 30
0.0
 11
1941.510248520306
 21
2020.803841316322
 31
0.0
  0
LINE
  5
227
330
1F
100
AcDbEntity
  8
LAY-10
  6
CONTINUOUS
 62
     7
100
AcDbLine
 10
1868.523277801407
 20
2293.1949243298
 30
0.0
 11
1829.886244749844
 21
2282.842162525699
 31
0.0
  0
LINE
  5
228
330
1F
100
AcDbEntity
  8
LAY-10
  6
CONTINUOUS
 62
     7
100
AcDbLine
 10
1902.87321546879
 20
2010.451079512215
 30
0.0
 11
1941.510248520311
 21
2020.803841316304
 31
0.0
  0
LINE
  5
229
330
1F
100
AcDbEntity
  8
LAY-10
  6
CONTINUOUS
 62
     7
100
AcDbLine
 10
2030.709549738219
 20
2482.440722642692
 30
0.0
 11
2303.100632751695
 21
2409.453751923792
 31
0.0
  0
LINE
  5
22A
330
1F
100
AcDbEntity
  8
LAY-10
  6
CONTINUOUS
 62
     7
100
AcDbLine
 10
2021.25336340626
 20
2447.149754806006
 30
0.0
 11
2293.644446419713
 21
2374.162784087019
 31
0.0
  0
LINE
  5
22B
330
1F
100
AcDbEntity
  8
LAY-10
  6
CONTINUOUS
 62
     7
100
AcDbLine
 10
2020.805075670197
 20
2445.476722198591
 30
0.0
 11
2293.196158683675
 21
2372.489751479692
 31
0.0
  0
LINE
  5
22C
330
1F
100
AcDbEntity
  8
LAY-10
  6
CONTINUOUS
 62
     7
100
AcDbLine
 10
2295.137301521944
 20
2379.73419517686
 30
0.0
 11
2022.746218508466
 21
2452.721165895759
 31
0.0
  0
LINE
  5
22D
330
1F
100
AcDbEntity
  8
LAY-10
  6
CONTINUOUS
 62
     7
100
AcDbLine
 10
2301.607777649507
 20
2403.882340834085
 30
0.0
 11
2029.21669463603
 21
2476.869311552986
 31
0.0
  0
LINE
  5
22E
330
1F
100
AcDbEntity
  8
LAY-10
  6
CONTINUOUS
 62
     7
100
AcDbLine
 10
2031.157837474298
 20
2484.113755250153
 30
0.0
 11
2303.548920487776
 21
2411.126784531253
 31
0.0
  0
LINE
  5
22F
330
1F
100
AcDbEntity
  8
LAY-10
  6
CONTINUOUS
 62
     7
100
AcDbLine
 10
2031.157837474299
 20
2484.113755250154
 30
0.0
 11
2020.805075670197
 21
2445.476722198592
 31
0.0
  0
LINE
  5
230
330
1F
100
AcDbEntity
  8
LAY-10
  6
CONTINUOUS
 62
     7
100
AcDbLine
 10
2293.196158683704
 20
2372.489751479727
 30
0.0
 11
2303.548920487794
 21
2411.126784531248
 31
0.0
  0
LINE
  5
231
330
1F
100
AcDbEntity
  8
LAY-10
  6
CONTINUOUS
 62
     7
100
AcDbLine
 10
1594.805913951024
 20
2693.359304544272
 30
0.0
 11
1395.401801656447
 21
2892.763416838849
 31
0.0
  0
LINE
  5
232
330
1F
100
AcDbEntity
  8
LAY-10
  6
CONTINUOUS
 62
     7
100
AcDbLine
 10
1620.640695455762
 20
2719.194086049003
 30
0.0
 11
1421.236583161249
 21
2918.598198343643
 31
0.0
  0
LINE
  5
233
330
1F
100
AcDbEntity
  8
LAY-10
  6
CONTINUOUS
 62
     7
100
AcDbLine
 10
1621.865440327105
 20
2720.418830920353
 30
0.0
 11
1422.461328032527
 21
2919.822943214929
 31
0.0
  0
LINE
  5
234
330
1F
100
AcDbEntity
  8
LAY-10
  6
CONTINUOUS
 62
     7
100
AcDbLine
 10
1417.158027173627
 20
2914.51964235603
 30
0.0
 11
1616.562139468206
 21
2715.115530061454
 31
0.0
  0
LINE
  5
235
330
1F
100
AcDbEntity
  8
LAY-10
  6
CONTINUOUS
 62
     7
100
AcDbLine
 10
1399.480357643965
 20
2896.841972826368
 30
0.0
 11
1598.884469938542
 21
2697.437860531791
 31
0.0
  0
LINE
  5
236
330
1F
100
AcDbEntity
  8
LAY-10
  6
CONTINUOUS
 62
     7
100
AcDbLine
 10
1593.581169079643
 20
2692.134559672892
 30
0.0
 11
1394.177056785066
 21
2891.538671967468
 31
0.0
  0
LINE
  5
237
330
1F
100
AcDbEntity
  8
LAY-10
  6
CONTINUOUS
 62
     7
100
AcDbLine
 10
1593.581169079643
 20
2692.134559672892
 30
0.0
 11
1621.865440327105
 21
2720.418830920353
 31
0.0
  0
LINE
  5
238
330
1F
100
AcDbEntity
  8
LAY-10
  6
CONTINUOUS
 62
     7
100
AcDbLine
 10
1422.461328032484
 20
2919.822943214913
 30
0.0
 11
1394.177056785053
 21
2891.538671967482
 31
0.0
  0
LINE
  5
239
330
1F
100
AcDbEntity
  8
LAY-10
  6
CONTINUOUS
 62
     7
100
AcDbLine
 10
1702.149754806051
 20
2766.253363406277
 30
0.0
 11
1629.162784087151
 21
3038.644446419755
 31
0.0
  0
LINE
  5
23A
330
1F
100
AcDbEntity
  8
LAY-10
  6
CONTINUOUS
 62
     7
100
AcDbLine
 10
1737.44072264274
 20
2775.709549738225
 30
0.0
 11
1664.453751923927
 21
3048.100632751725
 31
0.0
  0
LINE
  5
23B
330
1F
100
AcDbEntity
  8
LAY-10
  6
CONTINUOUS
 62
     7
100
AcDbLine
 10
1739.113755250153
 20
2776.157837474298
 30
0.0
 11
1666.126784531251
 21
3048.548920487775
 31
0.0
  0
LINE
  5
23C
330
1F
100
AcDbEntity
  8
LAY-10
  6
CONTINUOUS
 62
     7
100
AcDbLine
 10
1658.882340834082
 20
3046.607777649506
 30
0.0
 11
1731.869311552985
 21
2774.216694636028
 31
0.0
  0
LINE
  5
23D
330
1F
100
AcDbEntity
  8
LAY-10
  6
CONTINUOUS
 62
     7
100
AcDbLine
 10
1634.734195176858
 20
3040.137301521943
 30
0.0
 11
1707.721165895758
 21
2767.746218508466
 31
0.0
  0
LINE
  5
23E
330
1F
100
AcDbEntity
  8
LAY-10
  6
CONTINUOUS
 62
     7
100
AcDbLine
 10
1700.476722198591
 20
2765.805075670197
 30
0.0
 11
1627.48975147969
 21
3038.196158683674
 31
0.0
  0
LINE
  5
23F
330
1F
100
AcDbEntity
  8
LAY-10
  6
CONTINUOUS
 62
     7
100
AcDbLine
 10
1700.47672219859
 20
2765.805075670197
 30
0.0
 11
1739.113755250153
 21
2776.157837474298
 31
0.0
  0
LINE
  5
240
330
1F
100
AcDbEntity
  8
LAY-10
  6
CONTINUOUS
 62
     7
100
AcDbLine
 10
1666.126784531206
 20
3048.548920487782
 30
0.0
 11
1627.489751479685
 21
3038.196158683692
 31
0.0
  0
LINE
  5
241
330
1F
100
AcDbEntity
  8
LAY-10
  6
CONTINUOUS
 62
     7
100
AcDbLine
 10
1538.290450261779
 20
2576.559277357304
 30
0.0
 11
1265.899367248302
 21
2649.546248076204
 31
0.0
  0
LINE
  5
242
330
1F
100
AcDbEntity
  8
LAY-10
  6
CONTINUOUS
 62
     7
100
AcDbLine
 10
1547.746636593738
 20
2611.85024519399
 30
0.0
 11
1275.355553580284
 21
2684.837215912977
 31
0.0
  0
LINE
  5
243
330
1F
100
AcDbEntity
  8
LAY-10
  6
CONTINUOUS
 62
     7
100
AcDbLine
 10
1548.1949243298
 20
2613.523277801405
 30
0.0
 11
1275.803841316322
 21
2686.510248520304
 31
0.0
  0
LINE
  5
244
330
1F
100
AcDbEntity
  8
LAY-10
  6
CONTINUOUS
 62
     7
100
AcDbLine
 10
1273.862698478053
 20
2679.265804823135
 30
0.0
 11
1546.253781491531
 21
2606.278834104237
 31
0.0
  0
LINE
  5
245
330
1F
100
AcDbEntity
  8
LAY-10
  6
CONTINUOUS
 62
     7
100
AcDbLine
 10
1267.392222350491
 20
2655.11765916591
 30
0.0
 11
1539.783305363967
 21
2582.13068844701
 31
0.0
  0
LINE
  5
246
330
1F
100
AcDbEntity
  8
LAY-10
  6
CONTINUOUS
 62
     7
100
AcDbLine
 10
1537.842162525699
 20
2574.886244749843
 30
0.0
 11
1265.451079512221
 21
2647.873215468743
 31
0.0
  0
LINE
  5
247
330
1F
100
AcDbEntity
  8
LAY-10
  6
CONTINUOUS
 62
     7
100
AcDbLine
 10
1537.842162525699
 20
2574.886244749843
 30
0.0
 11
1548.1949243298
 21
2613.523277801405
 31
0.0
  0
LINE
  5
248
330
1F
100
AcDbEntity
  8
LAY-10
  6
CONTINUOUS
 62
     7
100
AcDbLine
 10
1275.803841316293
 20
2686.510248520269
 30
0.0
 11
1265.451079512204
 21
2647.873215468748
 31
0.0
  0
LINE
  5
249
330
1F
100
AcDbEntity
  8
LAY-10
  6
CONTINUOUS
 62
     7
100
AcDbLine
 10
1594.805913951024
 20
2365.640695455724
 30
0.0
 11
1395.401801656448
 21
2166.236583161146
 31
0.0
  0
LINE
  5
24A
330
1F
100
AcDbEntity
  8
LAY-10
  6
CONTINUOUS
 62
     7
100
AcDbLine
 10
1620.640695455763
 20
2339.805913950993
 30
0.0
 11
1421.236583161251
 21
2140.401801656353
 31
0.0
  0
LINE
  5
24B
330
1F
100
AcDbEntity
  8
LAY-10
  6
CONTINUOUS
 62
     7
100
AcDbLine
 10
1621.865440327106
 20
2338.581169079644
 30
0.0
 11
1422.461328032528
 21
2139.177056785067
 31
0.0
  0
LINE
  5
24C
330
1F
100
AcDbEntity
  8
LAY-10
  6
CONTINUOUS
 62
     7
100
AcDbLine
 10
1417.158027173628
 20
2144.480357643966
 30
0.0
 11
1616.562139468206
 21
2343.884469938543
 31
0.0
  0
LINE
  5
24D
330
1F
100
AcDbEntity
  8
LAY-10
  6
CONTINUOUS
 62
     7
100
AcDbLine
 10
1399.480357643966
 20
2162.158027173628
 30
0.0
 11
1598.884469938542
 21
2361.562139468206
 31
0.0
  0
LINE
  5
24E
330
1F
100
AcDbEntity
  8
LAY-10
  6
CONTINUOUS
 62
     7
100
AcDbLine
 10
1593.581169079644
 20
2366.865440327105
 30
0.0
 11
1394.177056785067
 21
2167.461328032527
 31
0.0
  0
LINE
  5
24F
330
1F
100
AcDbEntity
  8
LAY-10
  6
CONTINUOUS
 62
     7
100
AcDbLine
 10
1593.581169079643
 20
2366.865440327105
 30
0.0
 11
1621.865440327105
 21
2338.581169079644
 31
0.0
  0
LINE
  5
250
330
1F
100
AcDbEntity
  8
LAY-10
  6
CONTINUOUS
 62
     7
100
AcDbLine
 10
1422.461328032485
 20
2139.177056785083
 30
0.0
 11
1394.177056785054
 21
2167.461328032514
 31
0.0
  0
LINE
  5
251
330
1F
100
AcDbEntity
  8
LAY-10
  6
CONTINUOUS
 62
     7
100
AcDbLine
 10
1702.149754806052
 20
2292.746636593719
 30
0.0
 11
1629.162784087153
 21
2020.355553580242
 31
0.0
  0
LINE
  5
252
330
1F
100
AcDbEntity
  8
LAY-10
  6
CONTINUOUS
 62
     7
100
AcDbLine
 10
1737.440722642741
 20
2283.290450261772
 30
0.0
 11
1664.453751923929
 21
2010.899367248271
 31
0.0
  0
LINE
  5
253
330
1F
100
AcDbEntity
  8
LAY-10
  6
CONTINUOUS
 62
     7
100
AcDbLine
 10
1739.113755250154
 20
2282.842162525699
 30
0.0
 11
1666.126784531253
 21
2010.451079512221
 31
0.0
  0
LINE
  5
254
330
1F
100
AcDbEntity
  8
LAY-10
  6
CONTINUOUS
 62
     7
100
AcDbLine
 10
1658.882340834084
 20
2012.392222350491
 30
0.0
 11
1731.869311552985
 21
2284.783305363968
 31
0.0
  0
LINE
  5
255
330
1F
100
AcDbEntity
  8
LAY-10
  6
CONTINUOUS
 62
     7
100
AcDbLine
 10
1634.73419517686
 20
2018.862698478053
 30
0.0
 11
1707.721165895759
 21
2291.25378149153
 31
0.0
  0
LINE
  5
256
330
1F
100
AcDbEntity
  8
LAY-10
  6
CONTINUOUS
 62
     7
100
AcDbLine
 10
1700.476722198591
 20
2293.1949243298
 30
0.0
 11
1627.489751479692
 21
2020.803841316322
 31
0.0
  0
LINE
  5
257
330
1F
100
AcDbEntity
  8
LAY-10
  6
CONTINUOUS
 62
     7
100
AcDbLine
 10
1700.476722198591
 20
2293.1949243298
 30
0.0
 11
1739.113755250153
 21
2282.842162525699
 31
0.0
  0
LINE
  5
258
330
1F
100
AcDbEntity
  8
LAY-10
  6
CONTINUOUS
 62
     7
100
AcDbLine
 10
1666.126784531208
 20
2010.451079512214
 30
0.0
 11
1627.489751479687
 21
2020.803841316304
 31
0.0
  0
LINE
  5
259
330
1F
100
AcDbEntity
  8
LAY-10
  6
CONTINUOUS
 62
     7
100
AcDbLine
 10
1538.290450261779
 20
2482.440722642692
 30
0.0
 11
1265.899367248302
 21
2409.453751923791
 31
0.0
  0
LINE
  5
25A
330
1F
100
AcDbEntity
  8
LAY-10
  6
CONTINUOUS
 62
     7
100
AcDbLine
 10
1547.746636593738
 20
2447.149754806006
 30
0.0
 11
1275.355553580285
 21
2374.162784087018
 31
0.0
  0
LINE
  5
25B
330
1F
100
AcDbEntity
  8
LAY-10
  6
CONTINUOUS
 62
     7
100
AcDbLine
 10
1548.1949243298
 20
2445.476722198591
 30
0.0
 11
1275.803841316322
 21
2372.489751479691
 31
0.0
  0
LINE
  5
25C
330
1F
100
AcDbEntity
  8
LAY-10
  6
CONTINUOUS
 62
     7
100
AcDbLine
 10
1273.862698478053
 20
2379.734195176859
 30
0.0
 11
1546.253781491531
 21
2452.721165895759
 31
0.0
  0
LINE
  5
25D
330
1F
100
AcDbEntity
  8
LAY-10
  6
CONTINUOUS
 62
     7
100
AcDbLine
 10
1267.392222350491
 20
2403.882340834084
 30
0.0
 11
1539.783305363967
 21
2476.869311552985
 31
0.0
  0
LINE
  5
25E
330
1F
100
AcDbEntity
  8
LAY-10
  6
CONTINUOUS
 62
     7
100
AcDbLine
 10
1537.842162525699
 20
2484.113755250153
 30
0.0
 11
1265.451079512222
 21
2411.126784531252
 31
0.0
  0
LINE
  5
25F
330
1F
100
AcDbEntity
  8
LAY-10
  6
CONTINUOUS
 62
     7
100
AcDbLine
 10
1537.842162525699
 20
2484.113755250153
 30
0.0
 11
1548.1949243298
 21
2445.476722198591
 31
0.0
  0
LINE
  5
260
330
1F
100
AcDbEntity
  8
LAY-10
  6
CONTINUOUS
 62
     7
100
AcDbLine
 10
1275.803841316293
 20
2372.489751479727
 30
0.0
 11
1265.451079512204
 21
2411.126784531248
 31
0.0
  0
LINE
  5
261
330
1F
100
AcDbEntity
  8
LAY-10
  6
CONTINUOUS
 62
     7
100
AcDbLine
 10
2303.5489204878
 20
1158.6999999992
 30
0.0
 11
2031.1578374743
 21
1158.6999999992
 31
0.0
  0
LINE
  5
262
330
1F
100
AcDbEntity
  8
LAY-10
  6
CONTINUOUS
 62
     7
100
AcDbLine
 10
2022.746218508501
 20
1150.6999999992
 30
0.0
 11
2029.216694636
 21
1150.6999999992
 31
0.0
  0
LINE
  5
263
330
1F
100
AcDbEntity
  8
LAY-10
  6
CONTINUOUS
 62
     7
100
AcDbLine
 10
2029.216694636
 20
1150.6999999992
 30
0.0
 11
2030.7095497382
 21
1160.6999999992
 31
0.0
  0
LINE
  5
264
330
1F
100
AcDbEntity
  8
LAY-10
  6
CONTINUOUS
 62
     7
100
AcDbLine
 10
2030.7095497382
 20
1160.6999999992
 30
0.0
 11
2031.1578374743
 21
1158.6999999992
 31
0.0
  0
LINE
  5
265
330
1F
100
AcDbEntity
  8
LAY-10
  6
CONTINUOUS
 62
     7
100
AcDbLine
 10
2029.66498237209
 20
1148.6999999992
 30
0.0
 11
2031.15783747429
 21
1158.699999999201
 31
0.0
  0
LINE
  5
266
330
1F
100
AcDbEntity
  8
LAY-10
  6
CONTINUOUS
 62
     7
100
AcDbLine
 10
2021.2533634063
 20
1160.6999999992
 30
0.0
 11
2022.7462185085
 21
1150.6999999992
 31
0.0
  0
LINE
  5
267
330
1F
100
AcDbEntity
  8
LAY-10
  6
CONTINUOUS
 62
     7
100
AcDbLine
 10
2020.8050756702
 20
1158.6999999992
 30
0.0
 11
2021.2533634063
 21
1160.6999999992
 31
0.0
  0
LINE
  5
268
330
1F
100
AcDbEntity
  8
LAY-10
  6
CONTINUOUS
 62
     7
100
AcDbLine
 10
2022.297930772383
 20
1148.699999999199
 30
0.0
 11
2020.805075670183
 21
1158.699999999197
 31
0.0
  0
LINE
  5
269
330
1F
100
AcDbEntity
  8
LAY-10
  6
CONTINUOUS
 62
     7
100
AcDbLine
 10
2303.1006327517
 20
1160.6999999992
 30
0.0
 11
2303.5489204878
 21
1158.6999999992
 31
0.0
  0
LINE
  5
26A
330
1F
100
AcDbEntity
  8
LAY-10
  6
CONTINUOUS
 62
     7
100
AcDbLine
 10
2302.056065385589
 20
1148.6999999992
 30
0.0
 11
2303.548920487789
 21
1158.699999999201
 31
0.0
  0
LINE
  5
26B
330
1F
100
AcDbEntity
  8
LAY-10
  6
CONTINUOUS
 62
     7
100
AcDbLine
 10
2303.1006327517
 20
1160.6999999992
 30
0.0
 11
2021.2533634063
 21
1160.6999999992
 31
0.0
  0
LINE
  5
26C
330
1F
100
AcDbEntity
  8
LAY-10
  6
CONTINUOUS
 62
     7
100
AcDbLine
 10
1265.4510795122
 20
1158.699999999198
 30
0.0
 11
1537.8421625257
 21
1158.699999999199
 31
0.0
  0
LINE
  5
26D
330
1F
100
AcDbEntity
  8
LAY-10
  6
CONTINUOUS
 62
     7
100
AcDbLine
 10
1546.253781491499
 20
1150.699999999199
 30
0.0
 11
1539.783305364
 21
1150.699999999199
 31
0.0
  0
LINE
  5
26E
330
1F
100
AcDbEntity
  8
LAY-10
  6
CONTINUOUS
 62
     7
100
AcDbLine
 10
1539.783305364
 20
1150.699999999199
 30
0.0
 11
1538.2904502618
 21
1160.699999999199
 31
0.0
  0
LINE
  5
26F
330
1F
100
AcDbEntity
  8
LAY-10
  6
CONTINUOUS
 62
     7
100
AcDbLine
 10
1538.2904502618
 20
1160.699999999199
 30
0.0
 11
1537.8421625257
 21
1158.699999999199
 31
0.0
  0
LINE
  5
270
330
1F
100
AcDbEntity
  8
LAY-10
  6
CONTINUOUS
 62
     7
100
AcDbLine
 10
1539.33501762791
 20
1148.699999999199
 30
0.0
 11
1537.84216252571
 21
1158.6999999992
 31
0.0
  0
LINE
  5
271
330
1F
100
AcDbEntity
  8
LAY-10
  6
CONTINUOUS
 62
     7
100
AcDbLine
 10
1547.7466365937
 20
1160.699999999199
 30
0.0
 11
1546.2537814915
 21
1150.699999999199
 31
0.0
  0
LINE
  5
272
330
1F
100
AcDbEntity
  8
LAY-10
  6
CONTINUOUS
 62
     7
100
AcDbLine
 10
1548.1949243298
 20
1158.699999999199
 30
0.0
 11
1547.7466365937
 21
1160.699999999199
 31
0.0
  0
LINE
  5
273
330
1F
100
AcDbEntity
  8
LAY-10
  6
CONTINUOUS
 62
     7
100
AcDbLine
 10
1546.702069227617
 20
1148.699999999199
 30
0.0
 11
1548.194924329816
 21
1158.699999999197
 31
0.0
  0
LINE
  5
274
330
1F
100
AcDbEntity
  8
LAY-10
  6
CONTINUOUS
 62
     7
100
AcDbLine
 10
1265.8993672483
 20
1160.699999999198
 30
0.0
 11
1265.4510795122
 21
1158.699999999198
 31
0.0
  0
LINE
  5
275
330
1F
100
AcDbEntity
  8
LAY-10
  6
CONTINUOUS
 62
     7
100
AcDbLine
 10
1266.943934614411
 20
1148.699999999199
 30
0.0
 11
1265.451079512211
 21
1158.699999999199
 31
0.0
  0
LINE
  5
276
330
1F
100
AcDbEntity
  8
LAY-10
  6
CONTINUOUS
 62
     7
100
AcDbLine
 10
1265.8993672483
 20
1160.699999999198
 30
0.0
 11
1547.7466365937
 21
1160.699999999199
 31
0.0
  0
LINE
  5
277
330
1F
100
AcDbEntity
  8
LAY-10
  6
CENTER
 62
     2
100
AcDbLine
 10
1763.099999999999
 20
3146.500000000002
 30
0.0
 11
1805.899999999999
 21
3146.500000000002
 31
0.0
  0
LINE
  5
278
330
1F
100
AcDbEntity
  8
LAY-10
  6
CENTER
 62
     2
100
AcDbLine
 10
1784.499999999999
 20
1870.540132960648
 30
0.0
 11
1784.499999999998
 21
3188.459867039352
 31
0.0
  0
LINE
  5
279
330
1F
100
AcDbEntity
  8
LAY-10
  6
CENTER
 62
     2
100
AcDbLine
 10
2443.45986703935
 20
2529.499999999998
 30
0.0
 11
1125.54013296065
 21
2529.499999999999
 31
0.0
  0
LINE
  5
27A
330
1F
100
AcDbEntity
  8
LAY-10
  6
CENTER
 62
     2
100
AcDbLine
 10
1371.506693740658
 20
2988.393766557117
 30
0.0
 11
1404.29339590615
 21
3015.905076251702
 31
0.0
  0
LINE
  5
27B
330
1F
100
AcDbEntity
  8
LAY-10
  6
CENTER
 62
     2
100
AcDbLine
 10
1173.157545389394
 20
2615.566039706035
 30
0.0
 11
1180.589687393539
 21
2657.715811534958
 31
0.0
  0
LINE
  5
27C
330
1F
100
AcDbEntity
  8
LAY-10
  6
CENTER
 62
     2
100
AcDbLine
 10
1400.755797017124
 20
2986.82853254202
 30
0.0
 11
1374.144389976098
 21
3018.54277248715
 31
0.0
  0
LINE
  5
27D
330
1F
100
AcDbEntity
  8
LAY-10
  6
CENTER
 62
     2
100
AcDbLine
 10
1196.569771451706
 20
2633.167962067135
 30
0.0
 11
1155.798730477043
 21
2640.356996622539
 31
0.0
  0
LINE
  5
27E
330
1F
100
AcDbEntity
  8
LAY-10
  6
CENTER
 62
     2
100
AcDbLine
 10
1173.157545389394
 20
2443.433960293964
 30
0.0
 11
1180.589687393538
 21
2401.284188465041
 31
0.0
  0
LINE
  5
27F
330
1F
100
AcDbEntity
  8
LAY-10
  6
CENTER
 62
     2
100
AcDbLine
 10
1196.569771451706
 20
2425.832037932862
 30
0.0
 11
1155.798730477043
 21
2418.64300337746
 31
0.0
  0
LINE
  5
280
330
1F
100
AcDbEntity
  8
LAY-10
  6
CENTER
 62
     2
100
AcDbLine
 10
1371.506693740657
 20
2070.606233442879
 30
0.0
 11
1404.29339590615
 21
2043.094923748294
 31
0.0
  0
LINE
  5
281
330
1F
100
AcDbEntity
  8
LAY-10
  6
CENTER
 62
     2
100
AcDbLine
 10
1400.755797017124
 20
2072.171467457976
 30
0.0
 11
1374.144389976098
 21
2040.457227512847
 31
0.0
  0
LINE
  5
282
330
1F
100
AcDbEntity
  8
LAY-10
  6
CENTER
 62
     2
100
AcDbLine
 10
1763.099999999998
 20
1912.499999999995
 30
0.0
 11
1805.899999999999
 21
1912.499999999995
 31
0.0
  0
LINE
  5
283
330
1F
100
AcDbEntity
  8
LAY-10
  6
CENTER
 62
     2
100
AcDbLine
 10
2197.493306259339
 20
2988.393766557118
 30
0.0
 11
2164.706604093848
 21
3015.905076251703
 31
0.0
  0
LINE
  5
284
330
1F
100
AcDbEntity
  8
LAY-10
  6
CENTER
 62
     2
100
AcDbLine
 10
2168.244202982873
 20
2986.828532542021
 30
0.0
 11
2194.855610023899
 21
3018.54277248715
 31
0.0
  0
LINE
  5
285
330
1F
100
AcDbEntity
  8
LAY-10
  6
CENTER
 62
     2
100
AcDbLine
 10
2395.842454610603
 20
2615.566039706035
 30
0.0
 11
2388.410312606459
 21
2657.715811534958
 31
0.0
  0
LINE
  5
286
330
1F
100
AcDbEntity
  8
LAY-10
  6
CENTER
 62
     2
100
AcDbLine
 10
2372.430228548292
 20
2633.167962067136
 30
0.0
 11
2413.201269522955
 21
2640.356996622539
 31
0.0
  0
LINE
  5
287
330
1F
100
AcDbEntity
  8
LAY-10
  6
CENTER
 62
     2
100
AcDbLine
 10
2395.842454610603
 20
2443.433960293964
 30
0.0
 11
2388.410312606459
 21
2401.284188465041
 31
0.0
  0
LINE
  5
288
330
1F
100
AcDbEntity
  8
LAY-10
  6
CENTER
 62
     2
100
AcDbLine
 10
2372.430228548292
 20
2425.832037932862
 30
0.0
 11
2413.201269522955
 21
2418.64300337746
 31
0.0
  0
LINE
  5
289
330
1F
100
AcDbEntity
  8
LAY-10
  6
CENTER
 62
     2
100
AcDbLine
 10
2197.493306259341
 20
2070.606233442879
 30
0.0
 11
2164.706604093848
 21
2043.094923748295
 31
0.0
  0
LINE
  5
28A
330
1F
100
AcDbEntity
  8
LAY-10
  6
CENTER
 62
     2
100
AcDbLine
 10
2168.244202982874
 20
2072.171467457976
 30
0.0
 11
2194.8556100239
 21
2040.457227512848
 31
0.0
  0
LINE
  5
28B
330
1F
100
AcDbEntity
  8
LAY-10
  6
CENTER
 62
     2
100
AcDbLine
 10
1221.557827001455
 20
1111.4999999998
 30
0.0
 11
1193.442172998747
 21
1111.4999999998
 31
0.0
  0
LINE
  5
28C
330
1F
100
AcDbEntity
  8
LAY-10
  6
CENTER
 62
     2
100
AcDbLine
 10
1207.500000000101
 20
1125.557827001154
 30
0.0
 11
1207.500000000101
 21
1097.442172998446
 31
0.0
  0
LINE
  5
28D
330
1F
100
AcDbEntity
  8
LAY-10
  6
CENTER
 62
     2
100
AcDbLine
 10
1166.0000000003
 20
1149.7
 30
0.0
 11
1166.0000000003
 21
1129.6
 31
0.0
  0
LINE
  5
28E
330
1F
100
AcDbEntity
  8
LAY-10
  6
CENTER
 62
     2
100
AcDbLine
 10
2347.442172998546
 20
1111.499999999806
 30
0.0
 11
2375.557827001253
 21
1111.499999999806
 31
0.0
  0
LINE
  5
28F
330
1F
100
AcDbEntity
  8
LAY-10
  6
CENTER
 62
     2
100
AcDbLine
 10
2361.4999999999
 20
1125.55782700116
 30
0.0
 11
2361.4999999999
 21
1097.442172998452
 31
0.0
  0
LINE
  5
290
330
1F
100
AcDbEntity
  8
LAY-10
  6
CENTER
 62
     2
100
AcDbLine
 10
2402.9999999997
 20
1149.700000000006
 30
0.0
 11
2402.999999999701
 21
1129.600000000007
 31
0.0
  0
LINE
  5
291
330
1F
100
AcDbEntity
  8
LAY-10
  6
CENTER
 62
     2
100
AcDbLine
 10
1784.5
 20
1262.5
 30
0.0
 11
1784.5
 21
1065.5
 31
0.0
  0
TEXT
  5
292
330
1F
100
AcDbEntity
  8
LAY-11
  6
CONTINUOUS
 62
     7
100
AcDbText
 10
3320.745235095824
 20
1644.291508592253
 30
0.0
 40
46.77165302633819
  1
受枠補強材ジョイント部
 41
1.117525773195876
  7
EXCADSTD
100
AcDbText
  0
TEXT
  5
293
330
1F
100
AcDbEntity
  8
LAY-11
  6
CONTINUOUS
 62
     7
100
AcDbText
 10
3543.402146080801
 20
2714.183800484411
 30
0.0
 40
46.77165302633819
  1
Ｍ１０×２５
 41
1.123076923076923
  7
EXCADSTD
100
AcDbText
  0
LEADER
  5
294
330
1F
100
AcDbEntity
  8
LAY-11
  6
CONTINUOUS
 62
     7
100
AcDbLeader
  3
ISO-25
 76
     3
 10
3437.378097904351
 20
2782.638872068901
 30
0.0
 10
3539.022134636709
 20
2703.57230299504
 30
0.0
 10
3890.922134636701
 20
2703.57230299504
 30
0.0
1001
ACAD
1000
DSTYLE
1002
{
1070
     5
1000
EX_BNORM
1070
    41
1040
45.0
1070
   341
1005
7D
1002
}
  0
TEXT
  5
295
330
1F
100
AcDbEntity
  8
LAY-11
  6
CONTINUOUS
 62
     7
100
AcDbText
 10
3417.77291712638
 20
2519.611897050993
 30
0.0
 40
46.77165302633819
  1
受枠ジョイント部
 41
1.12
  7
EXCADSTD
100
AcDbText
  0
ELLIPSE
  5
296
330
1F
100
AcDbEntity
  8
LAY-11
  6
CONTINUOUS
 62
     7
100
AcDbEllipse
 10
3635.865694871721
 20
3077.11674066889
 30
0.0
 11
-4.115142767875746
 21
7.127636354360407
 31
0.0
210
0.0
220
0.0
230
1.0
 40
0.5773502691896256
 41
-0.785398163397448
 42
0.7853981633974375
  0
ELLIPSE
  5
297
330
1F
100
AcDbEntity
  8
LAY-11
  6
CONTINUOUS
 62
     7
100
AcDbEllipse
 10
3673.646629610757
 20
3007.184008982932
 30
0.0
 11
-6.17271415181362
 21
10.69145453154061
 31
0.0
210
0.0
220
0.0
230
1.0
 40
0.5773502691896255
 41
0.0
 42
6.283185307179586
  0
ELLIPSE
  5
298
330
1F
100
AcDbEntity
  8
LAY-11
  6
CONTINUOUS
 62
     7
100
AcDbEllipse
 10
3699.882292719463
 20
3047.716740668895
 30
0.0
 11
-5.143928459844679
 21
8.909545442950501
 31
0.0
210
0.0
220
0.0
230
1.0
 40
0.5773502691896258
 41
2.356194490192348
 42
3.926990816987242
  0
ELLIPSE
  5
299
330
1F
100
AcDbEntity
  8
LAY-11
  6
CONTINUOUS
 62
     7
100
AcDbEllipse
 10
3639.503001567617
 20
3070.816740668892
 30
0.0
 11
-2.057571383937871
 21
3.5638181771802
 31
0.0
210
0.0
220
0.0
230
1.0
 40
0.5773502691896255
 41
-0.7853981633974481
 42
0.7853981633974374
  0
ELLIPSE
  5
29A
330
1F
100
AcDbEntity
  8
LAY-11
  6
CONTINUOUS
 62
     7
100
AcDbEllipse
 10
3699.154831380284
 20
3048.976740668894
 30
0.0
 11
-1.028785691968936
 21
1.7819090885901
 31
0.0
210
0.0
220
0.0
230
1.0
 40
0.5773502691896262
 41
2.356194490192348
 42
3.926990816987296
  0
LINE
  5
29B
330
1F
100
AcDbEntity
  8
LAY-11
  6
CONTINUOUS
 62
     7
100
AcDbLine
 10
3630.04600415829
 20
3080.47674066889
 30
0.0
 11
3630.04600415829
 21
2992.276740668893
 31
0.0
  0
LINE
  5
29C
330
1F
100
AcDbEntity
  8
LAY-11
  6
CONTINUOUS
 62
     7
100
AcDbLine
 10
3636.593156210899
 20
2988.496740668891
 30
0.0
 11
3636.5931562109
 21
3072.496740668892
 31
0.0
  0
LINE
  5
29D
330
1F
100
AcDbEntity
  8
LAY-11
  6
CONTINUOUS
 62
     7
100
AcDbLine
 10
3630.046004158317
 20
2992.276740668871
 30
0.0
 11
3707.15690611125
 21
2947.75674066889
 31
0.0
  0
LINE
  5
29E
330
1F
100
AcDbEntity
  8
LAY-11
  6
CONTINUOUS
 62
     7
100
AcDbLine
 10
3699.154831380284
 20
3047.296740668896
 30
0.0
 11
3635.865694871721
 21
3083.836740668894
 31
0.0
  0
LINE
  5
29F
330
1F
100
AcDbEntity
  8
LAY-11
  6
CONTINUOUS
 62
     7
100
AcDbLine
 10
3707.156906111253
 20
3035.116740668895
 30
0.0
 11
3707.156906111253
 21
2947.756740668892
 31
0.0
  0
LINE
  5
2A0
330
1F
100
AcDbEntity
  8
LAY-11
  6
CONTINUOUS
 62
     7
100
AcDbLine
 10
3707.156906111191
 20
3035.11674066893
 30
0.0
 11
3639.503001567617
 21
3074.176740668891
 31
0.0
  0
LINE
  5
2A1
330
1F
100
AcDbEntity
  8
LAY-11
  6
CONTINUOUS
 62
     7
100
AcDbLine
 10
3714.431519503004
 20
3039.316740668895
 30
0.0
 11
3714.431519503004
 21
2951.956740668891
 31
0.0
  0
LINE
  5
2A2
330
1F
100
AcDbEntity
  8
LAY-11
  6
CONTINUOUS
 62
     7
100
AcDbLine
 10
3707.15690611119
 20
3035.116740668923
 30
0.0
 11
3714.431519502941
 21
3039.316740668924
 31
0.0
  0
LINE
  5
2A3
330
1F
100
AcDbEntity
  8
LAY-11
  6
CONTINUOUS
 62
     7
100
AcDbLine
 10
3707.15690611119
 20
2947.756740668925
 30
0.0
 11
3714.431519502941
 21
2951.956740668924
 31
0.0
  0
LINE
  5
2A4
330
1F
100
AcDbEntity
  8
LAY-11
  6
CONTINUOUS
 62
     7
100
AcDbLine
 10
3710.121635200976
 20
3041.805053530847
 30
0.0
 11
3714.431519502944
 21
3039.316740668929
 31
0.0
  0
ELLIPSE
  5
2A5
330
1F
100
AcDbEntity
  8
LAY-11
  6
CONTINUOUS
 62
     7
100
AcDbEllipse
 10
3680.92124300251
 20
3011.384008982933
 30
0.0
 11
-6.17271415181362
 21
10.69145453154061
 31
0.0
210
0.0
220
0.0
230
1.0
 40
0.5773502691896255
 41
0.6301372460630297
 42
2.511455407529306
  0
LINE
  5
2A6
330
1F
100
AcDbEntity
  8
LAY-11
  6
CONTINUOUS
 62
     7
100
AcDbLine
 10
3875.377105649898
 20
3137.215343880078
 30
0.0
 11
3705.500929276076
 21
3039.137287721243
 31
0.0
  0
ELLIPSE
  5
2A7
330
1F
100
AcDbEntity
  8
LAY-11
  6
CONTINUOUS
 62
     7
100
AcDbEllipse
 10
3568.813298299201
 20
2972.044021458521
 30
0.0
 11
-5.143928459844679
 21
8.909545442950501
 31
0.0
210
0.0
220
0.0
230
1.0
 40
0.5773502691896258
 41
3.044439062541205
 42
3.926990816987242
  0
LINE
  5
2A8
330
1F
100
AcDbEntity
  8
LAY-11
  6
CONTINUOUS
 62
     7
100
AcDbLine
 10
3576.087911690989
 20
2959.444021458522
 30
0.0
 11
3576.087911690989
 21
2872.084021458518
 31
0.0
  0
LINE
  5
2A9
330
1F
100
AcDbEntity
  8
LAY-11
  6
CONTINUOUS
 62
     7
100
AcDbLine
 10
3571.778027388907
 20
2961.932334320498
 30
0.0
 11
3576.087911690926
 21
2959.444021458551
 31
0.0
  0
LINE
  5
2AA
330
1F
100
AcDbEntity
  8
LAY-11
  6
CONTINUOUS
 62
     7
100
AcDbLine
 10
3574.431934856019
 20
2963.464568511048
 30
0.0
 11
3426.822134636699
 21
2878.242010618958
 31
0.0
  0
LINE
  5
2AB
330
1F
100
AcDbEntity
  8
LAY-11
  6
CONTINUOUS
 62
     7
100
AcDbLine
 10
3568.813298299238
 20
2955.244021458522
 30
0.0
 11
3568.813298299238
 21
2867.884021458518
 31
0.0
  0
LINE
  5
2AC
330
1F
100
AcDbEntity
  8
LAY-11
  6
CONTINUOUS
 62
     7
100
AcDbLine
 10
3576.087911690926
 20
2872.084021458552
 30
0.0
 11
3568.813298299172
 21
2867.884021458553
 31
0.0
  0
LINE
  5
2AD
330
1F
100
AcDbEntity
  8
LAY-11
  6
CONTINUOUS
 62
     7
100
AcDbLine
 10
3488.847434722742
 20
2914.052334320386
 30
0.0
 11
3568.813298299235
 21
2867.884021458517
 31
0.0
  0
ELLIPSE
  5
2AE
330
1F
100
AcDbEntity
  8
LAY-11
  6
CONTINUOUS
 62
     7
100
AcDbEllipse
 10
3535.303021798742
 20
2927.31128977256
 30
0.0
 11
-6.17271415181362
 21
10.69145453154061
 31
0.0
210
0.0
220
0.0
230
1.0
 40
0.5773502691896255
 41
0.3131087307744441
 42
5.970076576407668
  0
ELLIPSE
  5
2AF
330
1F
100
AcDbEntity
  8
LAY-11
  6
CONTINUOUS
 62
     7
100
AcDbEllipse
 10
3542.577635190492
 20
2931.511289772558
 30
0.0
 11
-6.17271415181362
 21
10.69145453154061
 31
0.0
210
0.0
220
0.0
230
1.0
 40
0.5773502691896255
 41
0.6301372460630297
 42
2.511455407529306
  0
ELLIPSE
  5
2B0
330
1F
100
AcDbEntity
  8
LAY-11
  6
CONTINUOUS
 62
     7
100
AcDbEllipse
 10
3807.158779089608
 20
3011.255782132232
 30
0.0
 11
6.429910574805806
 21
-11.13693180368817
 31
0.0
210
0.0
220
0.0
230
1.0
 40
0.5773502691896257
 41
0.0
 42
6.283185307179586
  0
LINE
  5
2B1
330
1F
100
AcDbEntity
  8
LAY-11
  6
CONTINUOUS
 62
     7
100
AcDbLine
 10
3799.123862890141
 20
3032.072665224269
 30
0.0
 11
3796.136075247083
 21
3030.347665224268
 31
0.0
  0
ELLIPSE
  5
2B2
330
1F
100
AcDbEntity
  8
LAY-11
  6
CONTINUOUS
 62
     7
100
AcDbEllipse
 10
3807.158779089608
 20
3011.255782132232
 30
0.0
 11
11.02270384252423
 21
-19.09188309203686
 31
0.0
210
0.0
220
0.0
230
1.0
 40
0.5773502691896257
 41
0.0
 42
6.283185307179586
  0
ELLIPSE
  5
2B3
330
1F
100
AcDbEntity
  8
LAY-11
  6
CONTINUOUS
 62
     7
100
AcDbEllipse
 10
3810.146566732662
 20
3012.980782132232
 30
0.0
 11
6.429910574805806
 21
-11.13693180368817
 31
0.0
210
0.0
220
0.0
230
1.0
 40
0.5773502691896257
 41
3.37607043143134
 42
6.048707529338084
  0
LINE
  5
2B4
330
1F
100
AcDbEntity
  8
LAY-11
  6
CONTINUOUS
 62
     7
100
AcDbLine
 10
3821.169270575188
 20
2993.888899040194
 30
0.0
 11
3818.18148293213
 21
2992.163899040195
 31
0.0
  0
ELLIPSE
  5
2B5
330
1F
100
AcDbEntity
  8
LAY-11
  6
CONTINUOUS
 62
     7
100
AcDbEllipse
 10
3810.146566732662
 20
3012.980782132232
 30
0.0
 11
11.02270384252423
 21
-19.09188309203686
 31
0.0
210
0.0
220
0.0
230
1.0
 40
0.5773502691896257
 41
0.0
 42
3.141592653589803
  0
LINE
  5
2B6
330
1F
100
AcDbEntity
  8
LAY-11
  6
HIDDEN
 62
     7
100
AcDbLine
 10
3516.054461688261
 20
2843.571659169272
 30
0.0
 11
3499.570875746183
 21
2834.322964858096
 31
0.0
  0
LINE
  5
2B7
330
1F
100
AcDbEntity
  8
LAY-11
  6
HIDDEN
 62
     7
100
AcDbLine
 10
3491.936842726712
 20
2830.039622749977
 30
0.0
 11
3452.76372184759
 21
2808.060168673732
 31
0.0
  0
ELLIPSE
  5
2B8
330
1F
100
AcDbEntity
  8
LAY-11
  6
CONTINUOUS
 62
     7
100
AcDbEllipse
 10
3485.434008687256
 20
2826.454585303652
 30
0.0
 11
6.429910574805806
 21
-11.13693180368817
 31
0.0
210
0.0
220
0.0
230
1.0
 40
0.5773502691896257
 41
0.0
 42
6.283185307179586
  0
LINE
  5
2B9
330
1F
100
AcDbEntity
  8
LAY-11
  6
CONTINUOUS
 62
     7
100
AcDbLine
 10
3477.399092487788
 20
2847.271468395689
 30
0.0
 11
3474.411304844732
 21
2845.546468395688
 31
0.0
  0
ELLIPSE
  5
2BA
330
1F
100
AcDbEntity
  8
LAY-11
  6
CONTINUOUS
 62
     7
100
AcDbEllipse
 10
3485.434008687256
 20
2826.454585303652
 30
0.0
 11
11.02270384252423
 21
-19.09188309203686
 31
0.0
210
0.0
220
0.0
230
1.0
 40
0.5773502691896257
 41
0.0
 42
6.283185307179586
  0
ELLIPSE
  5
2BB
330
1F
100
AcDbEntity
  8
LAY-11
  6
CONTINUOUS
 62
     7
100
AcDbEllipse
 10
3488.421796330312
 20
2828.179585303653
 30
0.0
 11
6.429910574805806
 21
-11.13693180368817
 31
0.0
210
0.0
220
0.0
230
1.0
 40
0.5773502691896257
 41
3.37607043143134
 42
6.048707529338084
  0
LINE
  5
2BC
330
1F
100
AcDbEntity
  8
LAY-11
  6
CONTINUOUS
 62
     7
100
AcDbLine
 10
3499.444500172835
 20
2809.087702211616
 30
0.0
 11
3496.456712529782
 21
2807.362702211616
 31
0.0
  0
ELLIPSE
  5
2BD
330
1F
100
AcDbEntity
  8
LAY-11
  6
CONTINUOUS
 62
     7
100
AcDbEllipse
 10
3488.421796330312
 20
2828.179585303653
 30
0.0
 11
11.02270384252423
 21
-19.09188309203686
 31
0.0
210
0.0
220
0.0
230
1.0
 40
0.5773502691896257
 41
0.0
 42
3.141592653589803
  0
ELLIPSE
  5
2BE
330
1F
100
AcDbEntity
  8
LAY-11
  6
CONTINUOUS
 62
     7
100
AcDbEllipse
 10
3448.772996163857
 20
2805.610024491604
 30
0.0
 11
-3.674234614174771
 21
6.36396103067893
 31
0.0
210
0.0
220
0.0
230
1.0
 40
0.577350269189626
 41
3.141592653589853
 42
6.283185307179586
  0
ELLIPSE
  5
2BF
330
1F
100
AcDbEntity
  8
LAY-11
  6
CONTINUOUS
 62
     7
100
AcDbEllipse
 10
3450.072034269262
 20
2806.360024491604
 30
0.0
 11
-2.75567596063108
 21
4.772970773009202
 31
0.0
210
0.0
220
0.0
230
1.0
 40
0.5773502691896247
 41
3.926990817087224
 42
5.497787143736541
  0
LINE
  5
2C0
330
1F
100
AcDbEntity
  8
LAY-11
  6
CONTINUOUS
 62
     7
100
AcDbLine
 10
3453.969148586413
 20
2802.610024492171
 30
0.0
 11
3453.96914858629
 21
2804.110024492029
 31
0.0
  0
LINE
  5
2C1
330
1F
100
AcDbEntity
  8
LAY-11
  6
CONTINUOUS
 62
     7
100
AcDbLine
 10
3450.072034269448
 20
2810.860024491496
 30
0.0
 11
3448.772996163954
 21
2811.610024491461
 31
0.0
  0
ELLIPSE
  5
2C2
330
1F
100
AcDbEntity
  8
LAY-11
  6
CONTINUOUS
 62
     7
100
AcDbEllipse
 10
3447.473958058158
 20
2804.860024491604
 30
0.0
 11
-3.674234614174771
 21
6.36396103067893
 31
0.0
210
0.0
220
0.0
230
1.0
 40
0.577350269189626
 41
3.141592653589853
 42
6.283185307179586
  0
ELLIPSE
  5
2C3
330
1F
100
AcDbEntity
  8
LAY-11
  6
CONTINUOUS
 62
     7
100
AcDbEllipse
 10
3446.174919952458
 20
2804.110024491604
 30
0.0
 11
-3.674234614174771
 21
6.36396103067893
 31
0.0
210
0.0
220
0.0
230
1.0
 40
0.577350269189626
 41
3.141592653589853
 42
6.283185307179586
  0
ELLIPSE
  5
2C4
330
1F
100
AcDbEntity
  8
LAY-11
  6
CONTINUOUS
 62
     7
100
AcDbEllipse
 10
3444.875881846757
 20
2803.360024491604
 30
0.0
 11
-3.674234614174771
 21
6.36396103067893
 31
0.0
210
0.0
220
0.0
230
1.0
 40
0.577350269189626
 41
3.141592653589853
 42
6.283185307179586
  0
ELLIPSE
  5
2C5
330
1F
100
AcDbEntity
  8
LAY-11
  6
CONTINUOUS
 62
     7
100
AcDbEllipse
 10
3443.576843741057
 20
2802.610024491604
 30
0.0
 11
-3.674234614174771
 21
6.36396103067893
 31
0.0
210
0.0
220
0.0
230
1.0
 40
0.577350269189626
 41
3.141592653589853
 42
6.283185307179586
  0
ELLIPSE
  5
2C6
330
1F
100
AcDbEntity
  8
LAY-11
  6
CONTINUOUS
 62
     7
100
AcDbEllipse
 10
3442.277805635358
 20
2801.860024491604
 30
0.0
 11
-3.674234614174771
 21
6.36396103067893
 31
0.0
210
0.0
220
0.0
230
1.0
 40
0.577350269189626
 41
3.141592653589853
 42
6.283185307179586
  0
ELLIPSE
  5
2C7
330
1F
100
AcDbEntity
  8
LAY-11
  6
CONTINUOUS
 62
     7
100
AcDbEllipse
 10
3440.978767529058
 20
2801.110024491454
 30
0.0
 11
-3.674234614174771
 21
6.36396103067893
 31
0.0
210
0.0
220
0.0
230
1.0
 40
0.577350269189626
 41
3.141592653589756
 42
6.283185307179586
  0
ELLIPSE
  5
2C8
330
1F
100
AcDbEntity
  8
LAY-11
  6
CONTINUOUS
 62
     7
100
AcDbEllipse
 10
3439.679729423357
 20
2800.360024491454
 30
0.0
 11
-3.674234614174771
 21
6.36396103067893
 31
0.0
210
0.0
220
0.0
230
1.0
 40
0.577350269189626
 41
3.141592653589756
 42
6.283185307179586
  0
ELLIPSE
  5
2C9
330
1F
100
AcDbEntity
  8
LAY-11
  6
CONTINUOUS
 62
     7
100
AcDbEllipse
 10
3438.380691317656
 20
2799.610024491454
 30
0.0
 11
-3.674234614174771
 21
6.36396103067893
 31
0.0
210
0.0
220
0.0
230
1.0
 40
0.577350269189626
 41
3.141592653589756
 42
6.283185307179586
  0
ELLIPSE
  5
2CA
330
1F
100
AcDbEntity
  8
LAY-11
  6
CONTINUOUS
 62
     7
100
AcDbEllipse
 10
3437.081653211958
 20
2798.860024491454
 30
0.0
 11
-3.674234614174771
 21
6.36396103067893
 31
0.0
210
0.0
220
0.0
230
1.0
 40
0.577350269189626
 41
3.141592653589756
 42
6.283185307179586
  0
ELLIPSE
  5
2CB
330
1F
100
AcDbEntity
  8
LAY-11
  6
CONTINUOUS
 62
     7
100
AcDbEllipse
 10
3435.782615106408
 20
2798.110024491454
 30
0.0
 11
-3.674234614174771
 21
6.36396103067893
 31
0.0
210
0.0
220
0.0
230
1.0
 40
0.577350269189626
 41
3.141592653589756
 42
6.283185307179586
  0
ELLIPSE
  5
2CC
330
1F
100
AcDbEntity
  8
LAY-11
  6
CONTINUOUS
 62
     7
100
AcDbEllipse
 10
3434.483577000857
 20
2797.360024491454
 30
0.0
 11
-3.674234614174771
 21
6.36396103067893
 31
0.0
210
0.0
220
0.0
230
1.0
 40
0.577350269189626
 41
3.141592653589756
 42
6.283185307179586
  0
LINE
  5
2CD
330
1F
100
AcDbEntity
  8
LAY-11
  6
HIDDEN
 62
     7
100
AcDbLine
 10
3502.63273495907
 20
2908.916873142643
 30
0.0
 11
3516.054461688254
 21
2843.571659169282
 31
0.0
  0
ELLIPSE
  5
2CE
330
1F
100
AcDbEntity
  8
LAY-11
  6
CONTINUOUS
 62
     7
100
AcDbEllipse
 10
3847.501522951991
 20
3034.932709213172
 30
0.0
 11
-3.674234614174771
 21
6.36396103067893
 31
0.0
210
0.0
220
0.0
230
1.0
 40
0.577350269189626
 41
0.0
 42
6.283185307179586
  0
ARC
  5
2CF
330
1F
100
AcDbEntity
  8
LAY-11
  6
CONTINUOUS
 62
     7
100
AcDbCircle
 10
3863.296251429215
 20
3043.561148646018
 30
0.0
 40
25.36507265649262
100
AcDbArc
 50
205.0337396509853
 51
217.6552389749118
  0
ARC
  5
2D0
330
1F
100
AcDbEntity
  8
LAY-11
  6
CONTINUOUS
 62
     7
100
AcDbCircle
 10
3863.296251429215
 20
3043.561148646018
 30
0.0
 40
25.36507265649262
100
AcDbArc
 50
184.756807251681
 51
201.5686290580083
  0
ELLIPSE
  5
2D1
330
1F
100
AcDbEntity
  8
LAY-11
  6
CONTINUOUS
 62
     7
100
AcDbEllipse
 10
3847.501522951991
 20
3034.932709213172
 30
0.0
 11
-6.363961030678928
 21
11.0227038425243
 31
0.0
210
0.0
220
0.0
230
1.0
 40
0.5773502691896257
 41
0.0
 42
6.283185307179586
  0
LINE
  5
2D2
330
1F
100
AcDbEntity
  8
LAY-11
  6
CONTINUOUS
 62
     7
100
AcDbLine
 10
3861.531134493245
 20
3026.64040436776
 30
0.0
 11
3853.607002048545
 21
3022.065404367716
 31
0.0
  0
LINE
  5
2D3
330
1F
100
AcDbEntity
  8
LAY-11
  6
CONTINUOUS
 62
     7
100
AcDbLine
 10
3861.531134493245
 20
3047.425014058586
 30
0.0
 11
3853.60700204829
 21
3042.850014058394
 31
0.0
  0
LINE
  5
2D4
330
1F
100
AcDbEntity
  8
LAY-11
  6
CONTINUOUS
 62
     7
100
AcDbLine
 10
3866.727286915955
 20
3034.032709213172
 30
0.0
 11
3858.803154471336
 21
3029.457709213179
 31
0.0
  0
LINE
  5
2D5
330
1F
100
AcDbEntity
  8
LAY-11
  6
CONTINUOUS
 62
     7
100
AcDbLine
 10
3851.138829647835
 20
3053.425014058586
 30
0.0
 11
3843.214697203297
 21
3048.850014058636
 31
0.0
  0
ARC
  5
2D6
330
1F
100
AcDbEntity
  8
LAY-11
  6
CONTINUOUS
 62
     7
100
AcDbCircle
 10
3858.485537142555
 20
3032.593555494504
 30
0.0
 40
22.30405787069056
100
AcDbArc
 50
133.20938032908
 51
156.5828009481847
  0
ARC
  5
2D7
330
1F
100
AcDbEntity
  8
LAY-11
  6
CONTINUOUS
 62
     7
100
AcDbCircle
 10
3858.005173922679
 20
3062.467871203901
 30
0.0
 40
20.10483113128386
100
AcDbArc
 50
222.636326219092
 51
257.3636737786067
  0
ARC
  5
2D8
330
1F
100
AcDbEntity
  8
LAY-11
  6
CONTINUOUS
 62
     7
100
AcDbCircle
 10
3878.884708694484
 20
3044.95345349009
 30
0.0
 40
25.36507265340925
100
AcDbArc
 50
184.7568072491321
 51
217.6552389763469
  0
ARC
  5
2D9
330
1F
100
AcDbEntity
  8
LAY-11
  6
CONTINUOUS
 62
     7
100
AcDbCircle
 10
3874.073994407405
 20
3013.201250651755
 30
0.0
 40
22.3040578664969
100
AcDbArc
 50
133.2093803277441
 51
156.5828009510797
  0
ARC
  5
2DA
330
1F
100
AcDbEntity
  8
LAY-11
  6
CONTINUOUS
 62
     7
100
AcDbCircle
 10
3858.00517392078
 20
3041.68326151069
 30
0.0
 40
20.10483112832142
100
AcDbArc
 50
222.6363262179154
 51
257.3636737822621
  0
LINE
  5
2DB
330
1F
100
AcDbEntity
  8
LAY-11
  6
CONTINUOUS
 62
     7
100
AcDbLine
 10
3861.531134493245
 20
3047.425014058586
 30
0.0
 11
3851.138829647835
 21
3053.425014058586
 31
0.0
  0
LINE
  5
2DC
330
1F
100
AcDbEntity
  8
LAY-11
  6
CONTINUOUS
 62
     7
100
AcDbLine
 10
3866.727286915955
 20
3034.032709213172
 30
0.0
 11
3861.531134493245
 21
3047.425014058586
 31
0.0
  0
LINE
  5
2DD
330
1F
100
AcDbEntity
  8
LAY-11
  6
CONTINUOUS
 62
     7
100
AcDbLine
 10
3861.531134493245
 20
3026.64040436776
 30
0.0
 11
3866.727286915955
 21
3034.032709213172
 31
0.0
  0
ELLIPSE
  5
2DE
330
1F
100
AcDbEntity
  8
LAY-11
  6
CONTINUOUS
 62
     7
100
AcDbEllipse
 10
3848.800561057693
 20
3035.682709213172
 30
0.0
 11
-3.674234614174771
 21
6.36396103067893
 31
0.0
210
0.0
220
0.0
230
1.0
 40
0.577350269189626
 41
0.1777106008429604
 42
2.963882052737727
  0
ELLIPSE
  5
2DF
330
1F
100
AcDbEntity
  8
LAY-11
  6
CONTINUOUS
 62
     7
100
AcDbEllipse
 10
3850.099599163393
 20
3036.432709213172
 30
0.0
 11
-3.674234614174771
 21
6.36396103067893
 31
0.0
210
0.0
220
0.0
230
1.0
 40
0.577350269189626
 41
0.3613671239071254
 42
2.780225529673463
  0
ELLIPSE
  5
2E0
330
1F
100
AcDbEntity
  8
LAY-11
  6
CONTINUOUS
 62
     7
100
AcDbEllipse
 10
3851.398637269089
 20
3037.18270921317
 30
0.0
 11
-3.674234614174771
 21
6.36396103067893
 31
0.0
210
0.0
220
0.0
230
1.0
 40
0.577350269189626
 41
0.5589898660287818
 42
2.582602787551832
  0
ELLIPSE
  5
2E1
330
1F
100
AcDbEntity
  8
LAY-11
  6
CONTINUOUS
 62
     7
100
AcDbEllipse
 10
3852.697675374791
 20
3037.932709213169
 30
0.0
 11
-3.674234614174771
 21
6.36396103067893
 31
0.0
210
0.0
220
0.0
230
1.0
 40
0.577350269189626
 41
0.7853981634062475
 42
2.356194490174362
  0
ELLIPSE
  5
2E2
330
1F
100
AcDbEntity
  8
LAY-11
  6
CONTINUOUS
 62
     7
100
AcDbEllipse
 10
3853.99671348049
 20
3038.682709213169
 30
0.0
 11
-3.674234614174771
 21
6.36396103067893
 31
0.0
210
0.0
220
0.0
230
1.0
 40
0.577350269189626
 41
1.084101371740813
 42
2.05749128183982
  0
LINE
  5
2E3
330
1F
100
AcDbEntity
  8
LAY-11
  6
HIDDEN
 62
     7
100
AcDbLine
 10
3786.072866416583
 20
2999.466857826139
 30
0.0
 11
3843.827288337902
 21
3032.811388869474
 31
0.0
  0
LINE
  5
2E4
330
1F
100
AcDbEntity
  8
LAY-11
  6
HIDDEN
 62
     7
100
AcDbLine
 10
3786.072866416623
 20
2999.466857826138
 30
0.0
 11
3723.005994513182
 21
3032.565023438057
 31
0.0
  0
LINE
  5
2E5
330
1F
100
AcDbEntity
  8
LAY-11
  6
HIDDEN
 62
     7
100
AcDbLine
 10
3723.005994513182
 20
3032.565023438056
 30
0.0
 11
3714.431519503004
 21
3027.754013350409
 31
0.0
  0
LINE
  5
2E6
330
1F
100
AcDbEntity
  8
LAY-11
  6
HIDDEN
 62
     7
100
AcDbLine
 10
3680.781161454378
 20
3008.873299157091
 30
0.0
 11
3576.087911690989
 21
2950.131477631874
 31
0.0
  0
LINE
  5
2E7
330
1F
100
AcDbEntity
  8
LAY-11
  6
HIDDEN
 62
     7
100
AcDbLine
 10
3541.546839129968
 20
2930.7509968057
 30
0.0
 11
3502.632734959077
 21
2908.916873142652
 31
0.0
  0
LINE
  5
2E8
330
1F
100
AcDbEntity
  8
LAY-11
  6
CONTINUOUS
 62
     7
100
AcDbLine
 10
3576.087911690945
 20
2959.444021458497
 30
0.0
 11
3568.813298299238
 21
2955.244021458523
 31
0.0
  0
LINE
  5
2E9
330
1F
100
AcDbEntity
  8
LAY-11
  6
CONTINUOUS
 62
     7
100
AcDbLine
 10
3564.503413997161
 20
2957.732334320502
 30
0.0
 11
3568.813298299238
 21
2955.244021458522
 31
0.0
  0
LINE
  5
2EA
330
1F
100
AcDbEntity
  8
LAY-11
  6
CONTINUOUS
 62
     7
100
AcDbLine
 10
3437.378097904405
 20
2782.638872068896
 30
0.0
 11
3437.378097904405
 21
2794.638872068896
 31
0.0
  0
LINE
  5
2EB
330
1F
100
AcDbEntity
  8
LAY-11
  6
CONTINUOUS
 62
     7
100
AcDbLine
 10
3437.37809790441
 20
2794.638872068896
 30
0.0
 11
3428.378097904405
 21
2805.835024491605
 31
0.0
  0
LINE
  5
2EC
330
1F
100
AcDbEntity
  8
LAY-11
  6
CONTINUOUS
 62
     7
100
AcDbLine
 10
3437.37809790441
 20
2794.638872068896
 30
0.0
 11
3431.272618807674
 21
2791.113872068865
 31
0.0
  0
LINE
  5
2ED
330
1F
100
AcDbEntity
  8
LAY-11
  6
CONTINUOUS
 62
     7
100
AcDbLine
 10
3428.378097904405
 20
2805.835024491605
 30
0.0
 11
3422.27261880771
 21
2802.310024491596
 31
0.0
  0
ARC
  5
2EE
330
1F
100
AcDbEntity
  8
LAY-11
  6
CONTINUOUS
 62
     7
100
AcDbCircle
 10
3440.021344709581
 20
2801.792685117434
 30
0.0
 40
29.43556728191
100
AcDbArc
 50
218.5261522410528
 51
232.9171872866479
  0
ARC
  5
2EF
330
1F
100
AcDbEntity
  8
LAY-11
  6
CONTINUOUS
 62
     7
100
AcDbCircle
 10
3440.021344709581
 20
2801.792685117434
 30
0.0
 40
29.43556728191
100
AcDbArc
 50
204.6707664891294
 51
217.2432227757117
  0
LINE
  5
2F0
330
1F
100
AcDbEntity
  8
LAY-11
  6
CONTINUOUS
 62
     7
100
AcDbLine
 10
3419.378097904406
 20
2805.03117691431
 30
0.0
 11
3413.272618807687
 21
2801.506176914287
 31
0.0
  0
LINE
  5
2F1
330
1F
100
AcDbEntity
  8
LAY-11
  6
CONTINUOUS
 62
     7
100
AcDbLine
 10
3437.378097904405
 20
2782.638872068896
 30
0.0
 11
3431.272618807447
 21
2779.113872068735
 31
0.0
  0
ARC
  5
2F2
330
1F
100
AcDbEntity
  8
LAY-11
  6
CONTINUOUS
 62
     7
100
AcDbCircle
 10
3415.471344707219
 20
2827.673516290603
 30
0.0
 40
26.25955151213039
100
AcDbArc
 50
265.1969712280117
 51
285.0108474967996
  0
ARC
  5
2F3
330
1F
100
AcDbEntity
  8
LAY-11
  6
CONTINUOUS
 62
     7
100
AcDbCircle
 10
3453.847014336998
 20
2785.113872068313
 30
0.0
 40
23.35815346983815
100
AcDbArc
 50
165.1156028048411
 51
194.8843971922938
  0
ARC
  5
2F4
330
1F
100
AcDbEntity
  8
LAY-11
  6
CONTINUOUS
 62
     7
100
AcDbCircle
 10
3424.471344708213
 20
2804.477363862856
 30
0.0
 40
26.25955150713449
100
AcDbArc
 50
265.1969712249249
 51
285.0108474978217
  0
ARC
  5
2F5
330
1F
100
AcDbEntity
  8
LAY-11
  6
CONTINUOUS
 62
     7
100
AcDbCircle
 10
3435.847014332237
 20
2795.506176914328
 30
0.0
 40
23.35815346509105
100
AcDbArc
 50
165.1156028031787
 51
194.8843971968213
  0
LINE
  5
2F6
330
1F
100
AcDbEntity
  8
LAY-11
  6
CONTINUOUS
 62
     7
100
AcDbLine
 10
3428.378097904405
 20
2805.835024491605
 30
0.0
 11
3419.378097904406
 21
2805.03117691431
 31
0.0
  0
ELLIPSE
  5
2F7
330
1F
100
AcDbEntity
  8
LAY-11
  6
CONTINUOUS
 62
     7
100
AcDbEllipse
 10
3421.493195944322
 20
2789.860024491604
 30
0.0
 11
-6.363961030678928
 21
11.0227038425243
 31
0.0
210
0.0
220
0.0
230
1.0
 40
0.5773502691896257
 41
0.0
 42
6.283185307179586
  0
LINE
  5
2F8
330
1F
100
AcDbEntity
  8
LAY-11
  6
CONTINUOUS
 62
     7
100
AcDbLine
 10
3430.307812360734
 20
2803.434427026565
 30
0.0
 11
3445.098761549643
 21
2811.973985522352
 31
0.0
  0
LINE
  5
2F9
330
1F
100
AcDbEntity
  8
LAY-11
  6
CONTINUOUS
 62
     7
100
AcDbLine
 10
3437.378097904405
 20
2790.545895539972
 30
0.0
 11
3452.447230777993
 21
2799.246063460992
 31
0.0
  0
ELLIPSE
  5
2FA
330
1F
100
AcDbEntity
  8
LAY-11
  6
CONTINUOUS
 62
     7
100
AcDbEllipse
 10
3433.184538895156
 20
2796.610024491454
 30
0.0
 11
-3.674234614174771
 21
6.36396103067893
 31
0.0
210
0.0
220
0.0
230
1.0
 40
0.577350269189626
 41
3.29533486867387
 42
6.057418229657954
  0
ELLIPSE
  5
2FB
330
1F
100
AcDbEntity
  8
LAY-11
  6
CONTINUOUS
 62
     7
100
AcDbEllipse
 10
3431.885500789458
 20
2795.860024491454
 30
0.0
 11
-3.674234614174771
 21
6.36396103067893
 31
0.0
210
0.0
220
0.0
230
1.0
 40
0.577350269189626
 41
4.347516293706597
 42
5.60086044266148
  0
ARC
  5
2FC
330
1F
100
AcDbEntity
  8
LAY-11
  6
CONTINUOUS
 62
     7
100
AcDbCircle
 10
3449.021344707355
 20
2814.596532692351
 30
0.0
 40
29.43556727874579
100
AcDbArc
 50
204.6707664861017
 51
232.9171872874244
  0
LINE
  5
2FD
330
1F
100
AcDbEntity
  8
LAY-11
  6
CONTINUOUS
 62
     7
100
AcDbLine
 10
3837.416254661239
 20
3163.327280569169
 30
0.0
 11
3707.156906111202
 21
3088.122010618954
 31
0.0
  0
LINE
  5
2FE
330
1F
100
AcDbEntity
  8
LAY-11
  6
CONTINUOUS
 62
     7
100
AcDbLine
 10
3824.321950556188
 20
3163.327280569169
 30
0.0
 11
3700.609754058644
 21
3091.902010618904
 31
0.0
  0
LINE
  5
2FF
330
1F
100
AcDbEntity
  8
LAY-11
  6
CONTINUOUS
 62
     7
100
AcDbLine
 10
3700.609754058641
 20
3091.902010618936
 30
0.0
 11
3707.15690611119
 21
3088.122010618973
 31
0.0
  0
LINE
  5
300
330
1F
100
AcDbEntity
  8
LAY-11
  6
CONTINUOUS
 62
     7
100
AcDbLine
 10
3569.540759638312
 20
3016.229291408526
 30
0.0
 11
3576.087911690897
 21
3012.449291408541
 31
0.0
  0
LINE
  5
301
330
1F
100
AcDbEntity
  8
LAY-11
  6
CONTINUOUS
 62
     7
100
AcDbLine
 10
3569.540759638292
 20
3016.229291408539
 30
0.0
 11
3421.930959419268
 21
2931.00673351662
 31
0.0
  0
LINE
  5
302
330
1F
100
AcDbEntity
  8
LAY-11
  6
CONTINUOUS
 62
     7
100
AcDbLine
 10
3576.087911690863
 20
3012.449291408594
 30
0.0
 11
3428.478111471828
 21
2927.226733516669
 31
0.0
  0
LINE
  5
303
330
1F
100
AcDbEntity
  8
LAY-11
  6
CONTINUOUS
 62
     7
100
AcDbLine
 10
3707.156906111253
 20
3088.122010618983
 30
0.0
 11
3707.156906111253
 21
3043.516740668894
 31
0.0
  0
LINE
  5
304
330
1F
100
AcDbEntity
  8
LAY-11
  6
CONTINUOUS
 62
     7
100
AcDbLine
 10
3700.609754058642
 20
3091.902010618904
 30
0.0
 11
3700.609754058642
 21
3048.136740668894
 31
0.0
  0
LINE
  5
305
330
1F
100
AcDbEntity
  8
LAY-11
  6
CONTINUOUS
 62
     7
100
AcDbLine
 10
3761.55053326506
 20
3159.156793646967
 30
0.0
 11
3632.076130047768
 21
3084.404712095911
 31
0.0
  0
LINE
  5
306
330
1F
100
AcDbEntity
  8
LAY-11
  6
CONTINUOUS
 62
     7
100
AcDbLine
 10
3576.087911690926
 20
2967.844021458551
 30
0.0
 11
3576.087911690926
 21
3012.449291408538
 31
0.0
  0
ELLIPSE
  5
307
330
1F
100
AcDbEntity
  8
LAY-11
  6
CONTINUOUS
 62
     7
100
AcDbEllipse
 10
3504.796700451344
 20
3001.444021458491
 30
0.0
 11
-4.115142767875746
 21
7.127636354360407
 31
0.0
210
0.0
220
0.0
230
1.0
 40
0.5773502691896256
 41
-0.7853981633974493
 42
0.0762828812969242
  0
LINE
  5
308
330
1F
100
AcDbEntity
  8
LAY-11
  6
CONTINUOUS
 62
     7
100
AcDbLine
 10
3530.184001379803
 20
2993.506656433452
 30
0.0
 11
3504.796700451344
 21
3008.164021458494
 31
0.0
  0
LINE
  5
309
330
1F
100
AcDbEntity
  8
LAY-11
  6
CONTINUOUS
 62
     7
100
AcDbLine
 10
3500.379914460267
 20
3008.369866574837
 30
0.0
 11
3408.043978907201
 21
2955.059689327124
 31
0.0
  0
LINE
  5
30A
330
1F
100
AcDbEntity
  8
LAY-11
  6
CONTINUOUS
 62
     7
100
AcDbLine
 10
3644.531973459819
 20
2019.773645945988
 30
0.0
 11
3696.49349768686
 21
1989.773645946004
 31
0.0
  0
ARC
  5
30B
330
1F
100
AcDbEntity
  8
LAY-11
  6
CONTINUOUS
 62
     7
100
AcDbCircle
 10
3693.611189140447
 20
1991.437747561122
 30
0.0
 40
6.0
100
AcDbArc
 50
299.9999999999998
 51
0.0
  0
LINE
  5
30C
330
1F
100
AcDbEntity
  8
LAY-11
  6
CONTINUOUS
 62
     7
100
AcDbLine
 10
3640.857360068047
 20
1954.052106915112
 30
0.0
 11
3696.611189140447
 21
1986.241595138415
 31
0.0
  0
ARC
  5
30D
330
1F
100
AcDbEntity
  8
LAY-11
  6
CONTINUOUS
 62
     7
100
AcDbCircle
 10
3639.657360068049
 20
1956.130567884195
 30
0.0
 40
2.4
100
AcDbArc
 50
180.0
 51
300.0000000000005
  0
LINE
  5
30E
330
1F
100
AcDbEntity
  8
LAY-11
  6
CONTINUOUS
 62
     7
100
AcDbLine
 10
3637.257360068007
 20
1955.573645946007
 30
0.0
 11
3637.315161313395
 21
1955.60701751059
 31
0.0
  0
LINE
  5
30F
330
1F
100
AcDbEntity
  8
LAY-11
  6
CONTINUOUS
 62
     7
100
AcDbLine
 10
3640.375051521608
 20
1957.373645945992
 30
0.0
 11
3696.493497686887
 21
1989.773645946021
 31
0.0
  0
LINE
  5
310
330
1F
100
AcDbEntity
  8
LAY-11
  6
CONTINUOUS
 62
     7
100
AcDbLine
 10
3584.579301913748
 20
1985.159954890257
 30
0.0
 11
3638.522484088768
 21
1954.015844140566
 31
0.0
  0
LINE
  5
311
330
1F
100
AcDbEntity
  8
LAY-11
  6
CONTINUOUS
 62
     7
100
AcDbLine
 10
3647.649664913417
 20
2075.573645946004
 30
0.0
 11
3699.611189140483
 21
2045.573645946004
 31
0.0
  0
LINE
  5
312
330
1F
100
AcDbEntity
  8
LAY-11
  6
CONTINUOUS
 62
     7
100
AcDbLine
 10
3644.531973459793
 20
2073.773645946004
 30
0.0
 11
3696.49349768686
 21
2043.773645946004
 31
0.0
  0
LINE
  5
313
330
1F
100
AcDbEntity
  8
LAY-11
  6
CONTINUOUS
 62
     7
100
AcDbLine
 10
3696.49349768686
 20
2043.773645946004
 30
0.0
 11
3699.611189140226
 21
2045.573645945855
 31
0.0
  0
LINE
  5
314
330
1F
100
AcDbEntity
  8
LAY-11
  6
CONTINUOUS
 62
     7
100
AcDbLine
 10
3585.295835840941
 20
2039.573645946006
 30
0.0
 11
3637.257360068007
 21
2009.573645946006
 31
0.0
  0
LINE
  5
315
330
1F
100
AcDbEntity
  8
LAY-11
  6
CONTINUOUS
 62
     7
100
AcDbLine
 10
3588.413527294565
 20
2041.373645946006
 30
0.0
 11
3640.375051521631
 21
2011.373645946006
 31
0.0
  0
LINE
  5
316
330
1F
100
AcDbEntity
  8
LAY-11
  6
CONTINUOUS
 62
     7
100
AcDbLine
 10
3637.257360068007
 20
2009.573645946006
 30
0.0
 11
3640.375051521631
 21
2011.373645946006
 31
0.0
  0
LINE
  5
317
330
1F
100
AcDbEntity
  8
LAY-11
  6
CONTINUOUS
 62
     7
100
AcDbLine
 10
3640.375051521608
 20
2011.373645946035
 30
0.0
 11
3640.375051521608
 21
1957.373645946035
 31
0.0
  0
LINE
  5
318
330
1F
100
AcDbEntity
  8
LAY-11
  6
CONTINUOUS
 62
     7
100
AcDbLine
 10
3637.257360068048
 20
2009.57364594603
 30
0.0
 11
3637.257360068048
 21
1956.130567884195
 31
0.0
  0
LINE
  5
319
330
1F
100
AcDbEntity
  8
LAY-11
  6
CONTINUOUS
 62
     7
100
AcDbLine
 10
3635.178899098925
 20
2014.373645946005
 30
0.0
 11
3644.531973459793
 21
2019.773645946003
 31
0.0
  0
LINE
  5
31A
330
1F
100
AcDbEntity
  8
LAY-11
  6
CONTINUOUS
 62
     7
100
AcDbLine
 10
3585.295835840887
 20
2039.573645946035
 30
0.0
 11
3588.413527294567
 21
2041.373645946035
 31
0.0
  0
LINE
  5
31B
330
1F
100
AcDbEntity
  8
LAY-11
  6
CONTINUOUS
 62
     7
100
AcDbLine
 10
3585.295835840887
 20
2039.573645946035
 30
0.0
 11
3585.295835840887
 21
1985.573645946037
 31
0.0
  0
LINE
  5
31C
330
1F
100
AcDbEntity
  8
LAY-11
  6
CONTINUOUS
 62
     7
100
AcDbLine
 10
3644.531973459848
 20
2073.773645946034
 30
0.0
 11
3647.649664913406
 21
2075.573645946035
 31
0.0
  0
LINE
  5
31D
330
1F
100
AcDbEntity
  8
LAY-11
  6
CONTINUOUS
 62
     7
100
AcDbLine
 10
3644.531973459848
 20
2019.773645946034
 30
0.0
 11
3644.531973459848
 21
2073.773645946034
 31
0.0
  0
LINE
  5
31E
330
1F
100
AcDbEntity
  8
LAY-11
  6
CONTINUOUS
 62
     7
100
AcDbLine
 10
3696.493497686887
 20
2043.77364594602
 30
0.0
 11
3696.493497686887
 21
1989.773645946035
 31
0.0
  0
LINE
  5
31F
330
1F
100
AcDbEntity
  8
LAY-11
  6
CONTINUOUS
 62
     7
100
AcDbLine
 10
3699.611189140447
 20
2045.573645946024
 30
0.0
 11
3699.611189140447
 21
1991.437747561122
 31
0.0
  0
LINE
  5
320
330
1F
100
AcDbEntity
  8
LAY-11
  6
CONTINUOUS
 62
     7
100
AcDbLine
 10
3760.99753031222
 20
2008.853645946003
 30
0.0
 11
3709.036006085156
 21
1978.853645946006
 31
0.0
  0
LINE
  5
321
330
1F
100
AcDbEntity
  8
LAY-11
  6
CONTINUOUS
 62
     7
100
AcDbLine
 10
3709.036006085167
 20
1978.853645946034
 30
0.0
 11
3709.036006085167
 21
1918.853645946034
 31
0.0
  0
LINE
  5
322
330
1F
100
AcDbEntity
  8
LAY-11
  6
CONTINUOUS
 62
     7
100
AcDbLine
 10
3902.272232242446
 20
1927.288658756903
 30
0.0
 11
3760.99753031222
 21
2008.853645946003
 31
0.0
  0
LINE
  5
323
330
1F
100
AcDbEntity
  8
LAY-11
  6
CONTINUOUS
 62
     7
100
AcDbLine
 10
3902.272232242446
 20
1867.288658756907
 30
0.0
 11
3709.036006085156
 21
1978.853645946006
 31
0.0
  0
LINE
  5
324
330
1F
100
AcDbEntity
  8
LAY-11
  6
CONTINUOUS
 62
     7
100
AcDbLine
 10
3902.272232242446
 20
1807.288658756907
 30
0.0
 11
3709.036006085156
 21
1918.853645946006
 31
0.0
  0
LINE
  5
325
330
1F
100
AcDbEntity
  8
LAY-11
  6
CONTINUOUS
 62
     7
100
AcDbLine
 10
3694.415036717775
 20
2048.573645946004
 30
0.0
 11
3857.872232242446
 21
2142.945701783154
 31
0.0
  0
LINE
  5
326
330
1F
100
AcDbEntity
  8
LAY-11
  6
CONTINUOUS
 62
     7
100
AcDbLine
 10
3400.672232242446
 20
1878.981158709657
 30
0.0
 11
3585.295835840941
 21
1985.573645946006
 31
0.0
  0
LINE
  5
327
330
1F
100
AcDbEntity
  8
LAY-11
  6
CONTINUOUS
 62
     7
100
AcDbLine
 10
3857.872232242446
 20
2360.145701783153
 30
0.0
 11
3400.672232242446
 21
2096.181158709657
 31
0.0
  0
LINE
  5
328
330
1F
100
AcDbEntity
  8
LAY-11
  6
CONTINUOUS
 62
     7
100
AcDbLine
 10
3857.872232242446
 20
2262.945701783154
 30
0.0
 11
3400.672232242446
 21
1998.981158709656
 31
0.0
  0
LINE
  5
329
330
1F
100
AcDbEntity
  8
LAY-11
  6
CONTINUOUS
 62
     7
100
AcDbLine
 10
3857.872232242446
 20
2356.545701783154
 30
0.0
 11
3400.672232242446
 21
2092.581158709656
 31
0.0
  0
LINE
  5
32A
330
1F
100
AcDbEntity
  8
LAY-11
  6
CONTINUOUS
 62
     7
100
AcDbLine
 10
3400.672232242446
 20
1938.981158709656
 30
0.0
 11
3857.872232242446
 21
2202.945701783154
 31
0.0
  0
LINE
  5
32B
330
1F
100
AcDbEntity
  8
LAY-11
  6
CONTINUOUS
 62
     7
100
AcDbLine
 10
3312.069248953801
 20
1629.75
 30
0.0
 11
3982.569248953801
 21
1629.75
 31
0.0
  0
LINE
  5
32C
330
1F
100
AcDbEntity
  8
LAY-11
  6
CONTINUOUS
 62
     7
100
AcDbLine
 10
3410.017806112201
 20
2506.510388458741
 30
0.0
 11
3897.517806112201
 21
2506.510388458741
 31
0.0
  0
TEXT
  5
32D
330
1F
100
AcDbEntity
  8
LAY-11
  6
CONTINUOUS
 62
     7
100
AcDbText
 10
3598.938477587701
 20
2644.617747952081
 30
0.0
 40
46.77165302633819
  1
ユニクロ
 41
1.129411764705882
  7
EXCADSTD
100
AcDbText
  0
POLYLINE
  5
32E
330
1F
100
AcDbEntity
  8
LAY-12
  6
CONTINUOUS
 62
     7
100
AcDb2dPolyline
 66
     1
 10
0.0
 20
0.0
 30
0.0
 70
   128
  0
VERTEX
  5
32F
330
32E
100
AcDbEntity
  8
LAY-12
  6
CONTINUOUS
 62
     7
100
AcDbVertex
100
AcDb2dVertex
 10
4937.688903820876
 20
2934.126558825112
 30
0.0
  0
VERTEX
  5
330
330
32E
100
AcDbEntity
  8
LAY-12
  6
CONTINUOUS
 62
     7
100
AcDbVertex
100
AcDb2dVertex
 10
4981.657689981106
 20
2987.638067082481
 30
0.0
  0
VERTEX
  5
331
330
32E
100
AcDbEntity
  8
LAY-12
  6
CONTINUOUS
 62
     7
100
AcDbVertex
100
AcDb2dVertex
 10
5107.938903820876
 20
2987.638067082481
 30
0.0
  0
SEQEND
  5
332
330
32E
100
AcDbEntity
  8
LAY-12
  6
CONTINUOUS
 62
     7
  0
LINE
  5
333
330
1F
100
AcDbEntity
  8
LAY-12
  6
CONTINUOUS
 62
     7
100
AcDbLine
 10
4960.462422559487
 20
2973.656507525587
 30
0.0
 11
4937.688903820876
 21
2934.126558825112
 31
0.0
  0
LINE
  5
334
330
1F
100
AcDbEntity
  8
LAY-12
  6
CONTINUOUS
 62
     7
100
AcDbLine
 10
4937.688903820876
 20
2934.126558825112
 30
0.0
 11
4972.051945449446
 21
2964.13374746439
 31
0.0
  0
LINE
  5
335
330
1F
100
AcDbEntity
  8
LAY-12
  6
CONTINUOUS
 62
     7
100
AcDbLine
 10
4972.051945449446
 20
2964.13374746439
 30
0.0
 11
4960.462422559487
 21
2973.656507525587
 31
0.0
  0
LINE
  5
336
330
1F
100
AcDbEntity
  8
LAY-12
  6
CONTINUOUS
 62
     7
100
AcDbLine
 10
4963.359803281977
 20
2971.275817510287
 30
0.0
 11
4937.688903820876
 21
2934.126558825112
 31
0.0
  0
LINE
  5
337
330
1F
100
AcDbEntity
  8
LAY-12
  6
CONTINUOUS
 62
     7
100
AcDbLine
 10
4937.688903820876
 20
2934.126558825112
 30
0.0
 11
4969.154564726956
 21
2966.514437479689
 31
0.0
  0
TEXT
  5
338
330
1F
100
AcDbEntity
  8
LAY-12
  6
CONTINUOUS
 62
     7
100
AcDbText
 10
4987.882693795802
 20
2999.419564571852
 30
0.0
 40
46.77165302633819
  1
受枠
 41
1.15
  7
EXCADSTD
100
AcDbText
  0
TEXT
  5
339
330
1F
100
AcDbEntity
  8
LAY-12
  6
CONTINUOUS
 62
     7
100
AcDbText
 10
4990.838909645076
 20
1915.821566931008
 30
0.0
 40
46.77165302633819
  1
受枠
 41
1.15
  7
EXCADSTD
100
AcDbText
  0
POLYLINE
  5
33A
330
1F
100
AcDbEntity
  8
LAY-12
  6
CONTINUOUS
 62
     7
100
AcDb2dPolyline
 66
     1
 10
0.0
 20
0.0
 30
0.0
 70
   128
  0
VERTEX
  5
33B
330
33A
100
AcDbEntity
  8
LAY-12
  6
CONTINUOUS
 62
     7
100
AcDbVertex
100
AcDb2dVertex
 10
4928.421938957215
 20
1972.947864015004
 30
0.0
  0
VERTEX
  5
33C
330
33A
100
AcDbEntity
  8
LAY-12
  6
CONTINUOUS
 62
     7
100
AcDbVertex
100
AcDb2dVertex
 10
4970.370936213001
 20
1900.290069441637
 30
0.0
  0
VERTEX
  5
33D
330
33A
100
AcDbEntity
  8
LAY-12
  6
CONTINUOUS
 62
     7
100
AcDbVertex
100
AcDb2dVertex
 10
5109.256875447751
 20
1900.290069441637
 30
0.0
  0
SEQEND
  5
33E
330
33A
100
AcDbEntity
  8
LAY-12
  6
CONTINUOUS
 62
     7
  0
LINE
  5
33F
330
1F
100
AcDbEntity
  8
LAY-12
  6
CONTINUOUS
 62
     7
100
AcDbLine
 10
4957.417129485645
 20
1937.726720844743
 30
0.0
 11
4928.421938957215
 21
1972.947864015004
 31
0.0
  0
LINE
  5
340
330
1F
100
AcDbEntity
  8
LAY-12
  6
CONTINUOUS
 62
     7
100
AcDbLine
 10
4928.421938957215
 20
1972.947864015004
 30
0.0
 11
4944.426748428888
 21
1930.226720844726
 31
0.0
  0
LINE
  5
341
330
1F
100
AcDbEntity
  8
LAY-12
  6
CONTINUOUS
 62
     7
100
AcDbLine
 10
4944.426748428888
 20
1930.226720844726
 30
0.0
 11
4957.417129485645
 21
1937.726720844743
 31
0.0
  0
LINE
  5
342
330
1F
100
AcDbEntity
  8
LAY-12
  6
CONTINUOUS
 62
     7
100
AcDbLine
 10
4954.169534221455
 20
1935.851720844739
 30
0.0
 11
4928.421938957215
 21
1972.947864015004
 31
0.0
  0
LINE
  5
343
330
1F
100
AcDbEntity
  8
LAY-12
  6
CONTINUOUS
 62
     7
100
AcDbLine
 10
4928.421938957215
 20
1972.947864015004
 30
0.0
 11
4947.674343693077
 21
1932.10172084473
 31
0.0
  0
TEXT
  5
344
330
1F
100
AcDbEntity
  8
LAY-12
  6
CONTINUOUS
 62
     7
100
AcDbText
 10
5066.676087041744
 20
2550.633652499184
 30
0.0
 40
46.77165302633819
  1
受枠補強材
 41
1.125581395348837
  7
EXCADSTD
100
AcDbText
  0
LEADER
  5
345
330
1F
100
AcDbEntity
  8
LAY-12
  6
CONTINUOUS
 62
     7
100
AcDbLeader
  3
ISO-25
 76
     3
 10
4956.750000000001
 20
2642.454310019625
 30
0.0
 10
5064.102155010001
 20
2535.102155009813
 30
0.0
 10
5361.000000000002
 20
2535.102155009813
 30
0.0
1001
ACAD
1000
DSTYLE
1002
{
1070
     5
1000
EX_BNORM
1070
    41
1040
45.0
1070
   341
1005
7D
1002
}
  0
LEADER
  5
346
330
1F
100
AcDbEntity
  8
LAY-12
  6
CONTINUOUS
 62
     7
100
AcDbLeader
  3
ISO-25
 76
     2
 10
4929.490357925625
 20
2456.25
 30
0.0
 10
5064.10215501
 20
2535.102155009813
 30
0.0
1001
ACAD
1000
DSTYLE
1002
{
1070
     5
1000
EX_BNORM
1070
    41
1040
45.0
1070
   341
1005
7D
1002
}
  0
TEXT
  5
347
330
1F
100
AcDbEntity
  8
LAY-12
  6
CONTINUOUS
 62
     7
100
AcDbText
 10
4233.000009536744
 20
2525.031497489371
 30
0.0
 40
46.77165302633819
  1
受枠補強材
 41
1.125581395348837
  7
EXCADSTD
100
AcDbText
  0
LEADER
  5
348
330
1F
100
AcDbEntity
  8
LAY-12
  6
CONTINUOUS
 62
     7
100
AcDbLeader
  3
ISO-25
 76
     3
 10
4636.990357925775
 20
2468.25
 30
0.0
 10
4537.500000000001
 20
2509.5
 30
0.0
 10
4224.000000000001
 20
2509.5
 30
0.0
1001
ACAD
1000
DSTYLE
1002
{
1070
     5
1000
EX_BNORM
1070
    41
1040
45.0
1070
   341
1005
7D
1002
}
  0
LEADER
  5
349
330
1F
100
AcDbEntity
  8
LAY-12
  6
CONTINUOUS
 62
     7
100
AcDbLeader
  3
ISO-25
 76
     2
 10
4587.786394362954
 20
2269.704310019627
 30
0.0
 10
4537.500000000001
 20
2509.5
 30
0.0
1001
ACAD
1000
DSTYLE
1002
{
1070
     5
1000
EX_BNORM
1070
    41
1040
45.0
1070
   341
1005
7D
1002
}
  0
LINE
  5
34A
330
1F
100
AcDbEntity
  8
LAY-12
  6
CONTINUOUS
 62
     7
100
AcDbLine
 10
5045.740357925864
 20
2699.079310019688
 30
0.0
 11
5064.490357925863
 21
2699.079310019688
 31
0.0
  0
LINE
  5
34B
330
1F
100
AcDbEntity
  8
LAY-12
  6
CONTINUOUS
 62
     7
100
AcDbLine
 10
4501.990357925863
 20
2699.079310019726
 30
0.0
 11
4520.740357925863
 21
2699.079310019726
 31
0.0
  0
LINE
  5
34C
330
1F
100
AcDbEntity
  8
LAY-12
  6
CONTINUOUS
 62
     7
100
AcDbLine
 10
4636.990357925777
 20
2328.954310019625
 30
0.0
 11
4655.740357925777
 21
2328.954310019625
 31
0.0
  0
LINE
  5
34D
330
1F
100
AcDbEntity
  8
LAY-12
  6
CONTINUOUS
 62
     7
100
AcDbLine
 10
4655.740357925769
 20
2328.954310019624
 30
0.0
 11
4655.740357925768
 21
2583.954310019624
 31
0.0
  0
LINE
  5
34E
330
1F
100
AcDbEntity
  8
LAY-12
  6
CONTINUOUS
 62
     7
100
AcDbLine
 10
4636.990357925769
 20
2328.954310019624
 30
0.0
 11
4636.990357925768
 21
2583.954310019624
 31
0.0
  0
LINE
  5
34F
330
1F
100
AcDbEntity
  8
LAY-12
  6
CONTINUOUS
 62
     7
100
AcDbLine
 10
4929.490357925775
 20
2328.954310019625
 30
0.0
 11
4910.740357925775
 21
2328.954310019625
 31
0.0
  0
LINE
  5
350
330
1F
100
AcDbEntity
  8
LAY-12
  6
CONTINUOUS
 62
     7
100
AcDbLine
 10
4910.740357925783
 20
2328.954310019624
 30
0.0
 11
4910.740357925783
 21
2583.954310019624
 31
0.0
  0
LINE
  5
351
330
1F
100
AcDbEntity
  8
LAY-12
  6
CONTINUOUS
 62
     7
100
AcDbLine
 10
4929.490357925783
 20
2328.954310019624
 30
0.0
 11
4929.490357925783
 21
2583.954310019624
 31
0.0
  0
CIRCLE
  5
352
330
1F
100
AcDbEntity
  8
LAY-12
  6
CONTINUOUS
 62
     7
100
AcDbCircle
 10
4783.240357926002
 20
2987.829310019737
 30
0.0
 40
2.25
  0
LINE
  5
353
330
1F
100
AcDbEntity
  8
LAY-12
  6
CONTINUOUS
 62
     7
100
AcDbLine
 10
4789.240357926002
 20
2993.454310019771
 30
0.0
 11
4777.240357926002
 21
2993.454310019771
 31
0.0
  0
LINE
  5
354
330
1F
100
AcDbEntity
  8
LAY-12
  6
CONTINUOUS
 62
     7
100
AcDbLine
 10
4777.240357926004
 20
2993.454310019775
 30
0.0
 11
4777.24035792601
 21
2980.329310019752
 31
0.0
  0
LINE
  5
355
330
1F
100
AcDbEntity
  8
LAY-12
  6
CONTINUOUS
 62
     7
100
AcDbLine
 10
4789.240357926004
 20
2993.454310019782
 30
0.0
 11
4789.240357926011
 21
2980.32931001976
 31
0.0
  0
LINE
  5
356
330
1F
100
AcDbEntity
  8
LAY-12
  6
CONTINUOUS
 62
     7
100
AcDbLine
 10
4636.990357925775
 20
2583.954310019625
 30
0.0
 11
4655.740357925775
 21
2583.954310019625
 31
0.0
  0
LINE
  5
357
330
1F
100
AcDbEntity
  8
LAY-12
  6
CONTINUOUS
 62
     7
100
AcDbLine
 10
4910.740357925625
 20
2583.954310019625
 30
0.0
 11
4929.490357925625
 21
2583.954310019625
 31
0.0
  0
LINE
  5
358
330
1F
100
AcDbEntity
  8
LAY-12
  6
CONTINUOUS
 62
     7
100
AcDbLine
 10
4635.490357925783
 20
2624.454310019627
 30
0.0
 11
4635.490357925783
 21
2643.204310019626
 31
0.0
  0
LINE
  5
359
330
1F
100
AcDbEntity
  8
LAY-12
  6
CONTINUOUS
 62
     7
100
AcDbLine
 10
4636.615357925783
 20
2643.204310019626
 30
0.0
 11
4636.615357925783
 21
2624.454310019627
 31
0.0
  0
LINE
  5
35A
330
1F
100
AcDbEntity
  8
LAY-12
  6
CONTINUOUS
 62
     7
100
AcDbLine
 10
4657.240357925783
 20
2624.454310019626
 30
0.0
 11
4657.240357925783
 21
2643.204310019625
 31
0.0
  0
LINE
  5
35B
330
1F
100
AcDbEntity
  8
LAY-12
  6
CONTINUOUS
 62
     7
100
AcDbLine
 10
4656.115357925783
 20
2643.204310019625
 30
0.0
 11
4656.115357925783
 21
2624.454310019626
 31
0.0
  0
LINE
  5
35C
330
1F
100
AcDbEntity
  8
LAY-12
  6
CONTINUOUS
 62
     7
100
AcDbLine
 10
4657.240357925775
 20
2624.454310019625
 30
0.0
 11
4635.490357925776
 21
2624.454310019626
 31
0.0
  0
LINE
  5
35D
330
1F
100
AcDbEntity
  8
LAY-12
  6
CONTINUOUS
 62
     7
100
AcDbLine
 10
4909.240357925769
 20
2624.454310019626
 30
0.0
 11
4909.240357925769
 21
2643.204310019625
 31
0.0
  0
LINE
  5
35E
330
1F
100
AcDbEntity
  8
LAY-12
  6
CONTINUOUS
 62
     7
100
AcDbLine
 10
4910.36535792577
 20
2643.204310019625
 30
0.0
 11
4910.36535792577
 21
2624.454310019626
 31
0.0
  0
LINE
  5
35F
330
1F
100
AcDbEntity
  8
LAY-12
  6
CONTINUOUS
 62
     7
100
AcDbLine
 10
4930.990357925767
 20
2624.454310019626
 30
0.0
 11
4930.990357925767
 21
2643.204310019625
 31
0.0
  0
LINE
  5
360
330
1F
100
AcDbEntity
  8
LAY-12
  6
CONTINUOUS
 62
     7
100
AcDbLine
 10
4929.865357925769
 20
2643.204310019625
 30
0.0
 11
4929.865357925769
 21
2624.454310019626
 31
0.0
  0
LINE
  5
361
330
1F
100
AcDbEntity
  8
LAY-12
  6
CONTINUOUS
 62
     7
100
AcDbLine
 10
4909.240357925777
 20
2624.454310019625
 30
0.0
 11
4930.990357925775
 21
2624.454310019625
 31
0.0
  0
TEXT
  5
362
330
1F
100
AcDbEntity
  8
LAY-12
  6
CONTINUOUS
 62
     7
100
AcDbText
 10
4442.250000000001
 20
1772.031497489371
 30
0.0
 40
46.77165302633819
  1
受枠・受枠補強材　分解図
 41
1.116981132075471
  7
EXCADSTD
100
AcDbText
  0
LINE
  5
363
330
1F
100
AcDbEntity
  8
LAY-12
  6
CONTINUOUS
 62
     7
100
AcDbLine
 10
4430.250000000001
 20
1755.75
 30
0.0
 11
5166.000000000002
 21
1755.75
 31
0.0
  0
LINE
  5
364
330
1F
100
AcDbEntity
  8
LAY-12
  6
CONTINUOUS
 62
     7
100
AcDbLine
 10
4981.990357926123
 20
2825.079310019725
 30
0.0
 11
4981.990357926119
 21
2846.829310019725
 31
0.0
  0
LINE
  5
365
330
1F
100
AcDbEntity
  8
LAY-12
  6
CONTINUOUS
 62
     7
100
AcDbLine
 10
4981.990357926119
 20
2846.829310019725
 30
0.0
 11
5000.210834028079
 21
2846.829310019725
 31
0.0
  0
LINE
  5
366
330
1F
100
AcDbEntity
  8
LAY-12
  6
CONTINUOUS
 62
     7
100
AcDbLine
 10
5000.972669205154
 20
2845.704310019725
 30
0.0
 11
4981.990357926119
 21
2845.704310019725
 31
0.0
  0
LINE
  5
367
330
1F
100
AcDbEntity
  8
LAY-12
  6
CONTINUOUS
 62
     7
100
AcDbLine
 10
4981.990357926123
 20
2825.079310019723
 30
0.0
 11
5013.52333602027
 21
2825.079310019723
 31
0.0
  0
LINE
  5
368
330
1F
100
AcDbEntity
  8
LAY-12
  6
CONTINUOUS
 62
     7
100
AcDbLine
 10
5012.904208749253
 20
2826.204310019725
 30
0.0
 11
4981.990357926123
 21
2826.204310019725
 31
0.0
  0
CIRCLE
  5
369
330
1F
100
AcDbEntity
  8
LAY-12
  6
CONTINUOUS
 62
     7
100
AcDbCircle
 10
4579.063274858333
 20
2903.256393087331
 30
0.0
 40
2.25
  0
LINE
  5
36A
330
1F
100
AcDbEntity
  8
LAY-12
  6
CONTINUOUS
 62
     7
100
AcDbLine
 10
4579.328439901255
 20
2911.476509418649
 30
0.0
 11
4570.843158527015
 21
2902.99122804441
 31
0.0
  0
LINE
  5
36B
330
1F
100
AcDbEntity
  8
LAY-12
  6
CONTINUOUS
 62
     7
100
AcDbLine
 10
4570.843158527014
 20
2902.991228044414
 30
0.0
 11
4580.123935030108
 21
2893.710451541329
 31
0.0
  0
LINE
  5
36C
330
1F
100
AcDbEntity
  8
LAY-12
  6
CONTINUOUS
 62
     7
100
AcDbLine
 10
4579.328439901248
 20
2911.476509418659
 30
0.0
 11
4588.609216404342
 21
2902.195732915574
 31
0.0
  0
CIRCLE
  5
36D
330
1F
100
AcDbEntity
  8
LAY-12
  6
CONTINUOUS
 62
     7
100
AcDbCircle
 10
4495.589138851936
 20
2724.245530738056
 30
0.0
 40
2.25
  0
LINE
  5
36E
330
1F
100
AcDbEntity
  8
LAY-12
  6
CONTINUOUS
 62
     7
100
AcDbLine
 10
4490.508478131622
 20
2730.712949979565
 30
0.0
 11
4489.46260921865
 21
2718.758613602463
 31
0.0
  0
LINE
  5
36F
330
1F
100
AcDbEntity
  8
LAY-12
  6
CONTINUOUS
 62
     7
100
AcDbLine
 10
4489.462609218645
 20
2718.758613602465
 30
0.0
 11
4502.537664631124
 21
2717.614694478907
 31
0.0
  0
LINE
  5
370
330
1F
100
AcDbEntity
  8
LAY-12
  6
CONTINUOUS
 62
     7
100
AcDbLine
 10
4490.508478131611
 20
2730.712949979568
 30
0.0
 11
4503.583533544088
 21
2729.56903085601
 31
0.0
  0
LINE
  5
371
330
1F
100
AcDbEntity
  8
LAY-12
  6
CONTINUOUS
 62
     7
100
AcDbLine
 10
4584.490357925882
 20
2825.079310019725
 30
0.0
 11
4584.490357925884
 21
2846.829310019725
 31
0.0
  0
LINE
  5
372
330
1F
100
AcDbEntity
  8
LAY-12
  6
CONTINUOUS
 62
     7
100
AcDbLine
 10
4584.490357925884
 20
2846.829310019725
 30
0.0
 11
4566.269881823925
 21
2846.829310019725
 31
0.0
  0
LINE
  5
373
330
1F
100
AcDbEntity
  8
LAY-12
  6
CONTINUOUS
 62
     7
100
AcDbLine
 10
4565.508046646849
 20
2845.704310019725
 30
0.0
 11
4584.490357925884
 21
2845.704310019725
 31
0.0
  0
LINE
  5
374
330
1F
100
AcDbEntity
  8
LAY-12
  6
CONTINUOUS
 62
     7
100
AcDbLine
 10
4584.490357925882
 20
2825.079310019723
 30
0.0
 11
4552.957379831734
 21
2825.079310019723
 31
0.0
  0
LINE
  5
375
330
1F
100
AcDbEntity
  8
LAY-12
  6
CONTINUOUS
 62
     7
100
AcDbLine
 10
4553.576507102751
 20
2826.204310019725
 30
0.0
 11
4584.490357925882
 21
2826.204310019725
 31
0.0
  0
CIRCLE
  5
376
330
1F
100
AcDbEntity
  8
LAY-12
  6
CONTINUOUS
 62
     7
100
AcDbCircle
 10
4987.41744099367
 20
2903.256393087331
 30
0.0
 40
2.25
  0
LINE
  5
377
330
1F
100
AcDbEntity
  8
LAY-12
  6
CONTINUOUS
 62
     7
100
AcDbLine
 10
4987.15227595075
 20
2911.476509418649
 30
0.0
 11
4995.637557324988
 21
2902.99122804441
 31
0.0
  0
LINE
  5
378
330
1F
100
AcDbEntity
  8
LAY-12
  6
CONTINUOUS
 62
     7
100
AcDbLine
 10
4995.63755732499
 20
2902.991228044414
 30
0.0
 11
4986.356780821896
 21
2893.710451541329
 31
0.0
  0
LINE
  5
379
330
1F
100
AcDbEntity
  8
LAY-12
  6
CONTINUOUS
 62
     7
100
AcDbLine
 10
4987.152275950755
 20
2911.476509418659
 30
0.0
 11
4977.871499447661
 21
2902.195732915574
 31
0.0
  0
CIRCLE
  5
37A
330
1F
100
AcDbEntity
  8
LAY-12
  6
CONTINUOUS
 62
     7
100
AcDbCircle
 10
5070.891577000069
 20
2724.245530738056
 30
0.0
 40
2.25
  0
LINE
  5
37B
330
1F
100
AcDbEntity
  8
LAY-12
  6
CONTINUOUS
 62
     7
100
AcDbLine
 10
5075.972237720383
 20
2730.712949979565
 30
0.0
 11
5077.018106633353
 21
2718.758613602463
 31
0.0
  0
LINE
  5
37C
330
1F
100
AcDbEntity
  8
LAY-12
  6
CONTINUOUS
 62
     7
100
AcDbLine
 10
5077.018106633358
 20
2718.758613602465
 30
0.0
 11
5063.94305122088
 21
2717.614694478907
 31
0.0
  0
LINE
  5
37D
330
1F
100
AcDbEntity
  8
LAY-12
  6
CONTINUOUS
 62
     7
100
AcDbLine
 10
5075.972237720393
 20
2730.712949979568
 30
0.0
 11
5062.897182307916
 21
2729.56903085601
 31
0.0
  0
ARC
  5
37E
330
1F
100
AcDbEntity
  8
LAY-12
  6
CONTINUOUS
 62
     7
100
AcDbCircle
 10
4783.240357926002
 20
2699.079310019662
 30
0.0
 40
281.2499999999625
100
AcDbArc
 50
0.0000000000051566
 51
179.9999999999872
  0
ARC
  5
37F
330
1F
100
AcDbEntity
  8
LAY-12
  6
CONTINUOUS
 62
     7
100
AcDbCircle
 10
4783.240357926002
 20
2699.079310019662
 30
0.0
 40
280.1249999999625
100
AcDbArc
 50
0.0000000000051566
 51
179.9999999999872
  0
ARC
  5
380
330
1F
100
AcDbEntity
  8
LAY-12
  6
CONTINUOUS
 62
     7
100
AcDbCircle
 10
4783.240357926002
 20
2699.079310019662
 30
0.0
 40
262.4999999999625
100
AcDbArc
 50
0.0000000000055004
 51
179.9999999999863
  0
LINE
  5
381
330
1F
100
AcDbEntity
  8
LAY-12
  6
CONTINUOUS
 62
     7
100
AcDbLine
 10
4998.865357926252
 20
2661.954310019623
 30
0.0
 11
4998.865357926252
 21
2643.204310019624
 31
0.0
  0
LINE
  5
382
330
1F
100
AcDbEntity
  8
LAY-12
  6
CONTINUOUS
 62
     7
100
AcDbLine
 10
4567.615357925752
 20
2661.954310019623
 30
0.0
 11
4567.615357925752
 21
2643.204310019624
 31
0.0
  0
LINE
  5
383
330
1F
100
AcDbEntity
  8
LAY-12
  6
CONTINUOUS
 62
     7
100
AcDbLine
 10
4998.865357926252
 20
2661.954310019623
 30
0.0
 11
4567.615357925752
 21
2661.954310019623
 31
0.0
  0
LINE
  5
384
330
1F
100
AcDbEntity
  8
LAY-12
  6
CONTINUOUS
 62
     7
100
AcDbLine
 10
4998.865357926252
 20
2643.204310019624
 30
0.0
 11
4567.615357925752
 21
2643.204310019624
 31
0.0
  0
LINE
  5
385
330
1F
100
AcDbEntity
  8
LAY-12
  6
CONTINUOUS
 62
     7
100
AcDbLine
 10
5045.740357925864
 20
2213.829310019562
 30
0.0
 11
5064.490357925863
 21
2213.829310019562
 31
0.0
  0
LINE
  5
386
330
1F
100
AcDbEntity
  8
LAY-12
  6
CONTINUOUS
 62
     7
100
AcDbLine
 10
4501.990357925863
 20
2213.829310019525
 30
0.0
 11
4520.740357925863
 21
2213.829310019525
 31
0.0
  0
CIRCLE
  5
387
330
1F
100
AcDbEntity
  8
LAY-12
  6
CONTINUOUS
 62
     7
100
AcDbCircle
 10
4783.240357926002
 20
1925.079310019512
 30
0.0
 40
2.25
  0
LINE
  5
388
330
1F
100
AcDbEntity
  8
LAY-12
  6
CONTINUOUS
 62
     7
100
AcDbLine
 10
4789.240357926002
 20
1919.454310019479
 30
0.0
 11
4777.240357926002
 21
1919.454310019479
 31
0.0
  0
LINE
  5
389
330
1F
100
AcDbEntity
  8
LAY-12
  6
CONTINUOUS
 62
     7
100
AcDbLine
 10
4777.240357926004
 20
1919.454310019475
 30
0.0
 11
4777.24035792601
 21
1932.579310019498
 31
0.0
  0
LINE
  5
38A
330
1F
100
AcDbEntity
  8
LAY-12
  6
CONTINUOUS
 62
     7
100
AcDbLine
 10
4789.240357926004
 20
1919.454310019467
 30
0.0
 11
4789.240357926011
 21
1932.57931001949
 31
0.0
  0
LINE
  5
38B
330
1F
100
AcDbEntity
  8
LAY-12
  6
CONTINUOUS
 62
     7
100
AcDbLine
 10
4635.490357925783
 20
2288.454310019623
 30
0.0
 11
4635.490357925783
 21
2269.704310019624
 31
0.0
  0
LINE
  5
38C
330
1F
100
AcDbEntity
  8
LAY-12
  6
CONTINUOUS
 62
     7
100
AcDbLine
 10
4636.615357925783
 20
2269.704310019624
 30
0.0
 11
4636.615357925783
 21
2288.454310019623
 31
0.0
  0
LINE
  5
38D
330
1F
100
AcDbEntity
  8
LAY-12
  6
CONTINUOUS
 62
     7
100
AcDbLine
 10
4657.240357925783
 20
2288.454310019624
 30
0.0
 11
4657.240357925783
 21
2269.704310019625
 31
0.0
  0
LINE
  5
38E
330
1F
100
AcDbEntity
  8
LAY-12
  6
CONTINUOUS
 62
     7
100
AcDbLine
 10
4656.115357925783
 20
2269.704310019625
 30
0.0
 11
4656.115357925783
 21
2288.454310019624
 31
0.0
  0
LINE
  5
38F
330
1F
100
AcDbEntity
  8
LAY-12
  6
CONTINUOUS
 62
     7
100
AcDbLine
 10
4657.240357925775
 20
2288.454310019625
 30
0.0
 11
4635.490357925776
 21
2288.454310019624
 31
0.0
  0
LINE
  5
390
330
1F
100
AcDbEntity
  8
LAY-12
  6
CONTINUOUS
 62
     7
100
AcDbLine
 10
4909.240357925769
 20
2288.454310019624
 30
0.0
 11
4909.240357925769
 21
2269.704310019625
 31
0.0
  0
LINE
  5
391
330
1F
100
AcDbEntity
  8
LAY-12
  6
CONTINUOUS
 62
     7
100
AcDbLine
 10
4910.36535792577
 20
2269.704310019625
 30
0.0
 11
4910.36535792577
 21
2288.454310019624
 31
0.0
  0
LINE
  5
392
330
1F
100
AcDbEntity
  8
LAY-12
  6
CONTINUOUS
 62
     7
100
AcDbLine
 10
4930.990357925767
 20
2288.454310019624
 30
0.0
 11
4930.990357925767
 21
2269.704310019625
 31
0.0
  0
LINE
  5
393
330
1F
100
AcDbEntity
  8
LAY-12
  6
CONTINUOUS
 62
     7
100
AcDbLine
 10
4929.865357925769
 20
2269.704310019625
 30
0.0
 11
4929.865357925769
 21
2288.454310019624
 31
0.0
  0
LINE
  5
394
330
1F
100
AcDbEntity
  8
LAY-12
  6
CONTINUOUS
 62
     7
100
AcDbLine
 10
4909.240357925777
 20
2288.454310019625
 30
0.0
 11
4930.990357925775
 21
2288.454310019625
 31
0.0
  0
LINE
  5
395
330
1F
100
AcDbEntity
  8
LAY-12
  6
CONTINUOUS
 62
     7
100
AcDbLine
 10
4981.990357926123
 20
2087.829310019526
 30
0.0
 11
4981.990357926119
 21
2066.079310019525
 31
0.0
  0
LINE
  5
396
330
1F
100
AcDbEntity
  8
LAY-12
  6
CONTINUOUS
 62
     7
100
AcDbLine
 10
4981.990357926119
 20
2066.079310019525
 30
0.0
 11
5000.210834028079
 21
2066.079310019525
 31
0.0
  0
LINE
  5
397
330
1F
100
AcDbEntity
  8
LAY-12
  6
CONTINUOUS
 62
     7
100
AcDbLine
 10
5000.972669205154
 20
2067.204310019526
 30
0.0
 11
4981.990357926119
 21
2067.204310019526
 31
0.0
  0
LINE
  5
398
330
1F
100
AcDbEntity
  8
LAY-12
  6
CONTINUOUS
 62
     7
100
AcDbLine
 10
4981.990357926123
 20
2087.829310019527
 30
0.0
 11
5013.52333602027
 21
2087.829310019527
 31
0.0
  0
LINE
  5
399
330
1F
100
AcDbEntity
  8
LAY-12
  6
CONTINUOUS
 62
     7
100
AcDbLine
 10
5012.904208749253
 20
2086.704310019525
 30
0.0
 11
4981.990357926123
 21
2086.704310019525
 31
0.0
  0
CIRCLE
  5
39A
330
1F
100
AcDbEntity
  8
LAY-12
  6
CONTINUOUS
 62
     7
100
AcDbCircle
 10
4579.063274858333
 20
2009.652226951919
 30
0.0
 40
2.25
  0
LINE
  5
39B
330
1F
100
AcDbEntity
  8
LAY-12
  6
CONTINUOUS
 62
     7
100
AcDbLine
 10
4579.328439901255
 20
2001.432110620601
 30
0.0
 11
4570.843158527015
 21
2009.91739199484
 31
0.0
  0
LINE
  5
39C
330
1F
100
AcDbEntity
  8
LAY-12
  6
CONTINUOUS
 62
     7
100
AcDbLine
 10
4570.843158527014
 20
2009.917391994836
 30
0.0
 11
4580.123935030108
 21
2019.198168497921
 31
0.0
  0
LINE
  5
39D
330
1F
100
AcDbEntity
  8
LAY-12
  6
CONTINUOUS
 62
     7
100
AcDbLine
 10
4579.328439901248
 20
2001.432110620591
 30
0.0
 11
4588.609216404342
 21
2010.712887123676
 31
0.0
  0
CIRCLE
  5
39E
330
1F
100
AcDbEntity
  8
LAY-12
  6
CONTINUOUS
 62
     7
100
AcDbCircle
 10
4495.589138851936
 20
2188.663089301194
 30
0.0
 40
2.25
  0
LINE
  5
39F
330
1F
100
AcDbEntity
  8
LAY-12
  6
CONTINUOUS
 62
     7
100
AcDbLine
 10
4490.508478131622
 20
2182.195670059686
 30
0.0
 11
4489.46260921865
 21
2194.150006436786
 31
0.0
  0
LINE
  5
3A0
330
1F
100
AcDbEntity
  8
LAY-12
  6
CONTINUOUS
 62
     7
100
AcDbLine
 10
4489.462609218645
 20
2194.150006436785
 30
0.0
 11
4502.537664631124
 21
2195.293925560343
 31
0.0
  0
LINE
  5
3A1
330
1F
100
AcDbEntity
  8
LAY-12
  6
CONTINUOUS
 62
     7
100
AcDbLine
 10
4490.508478131611
 20
2182.195670059682
 30
0.0
 11
4503.583533544088
 21
2183.33958918324
 31
0.0
  0
LINE
  5
3A2
330
1F
100
AcDbEntity
  8
LAY-12
  6
CONTINUOUS
 62
     7
100
AcDbLine
 10
4584.490357925882
 20
2087.829310019526
 30
0.0
 11
4584.490357925884
 21
2066.079310019525
 31
0.0
  0
LINE
  5
3A3
330
1F
100
AcDbEntity
  8
LAY-12
  6
CONTINUOUS
 62
     7
100
AcDbLine
 10
4584.490357925884
 20
2066.079310019525
 30
0.0
 11
4566.269881823925
 21
2066.079310019525
 31
0.0
  0
LINE
  5
3A4
330
1F
100
AcDbEntity
  8
LAY-12
  6
CONTINUOUS
 62
     7
100
AcDbLine
 10
4565.508046646849
 20
2067.204310019526
 30
0.0
 11
4584.490357925884
 21
2067.204310019526
 31
0.0
  0
LINE
  5
3A5
330
1F
100
AcDbEntity
  8
LAY-12
  6
CONTINUOUS
 62
     7
100
AcDbLine
 10
4584.490357925882
 20
2087.829310019527
 30
0.0
 11
4552.957379831734
 21
2087.829310019527
 31
0.0
  0
LINE
  5
3A6
330
1F
100
AcDbEntity
  8
LAY-12
  6
CONTINUOUS
 62
     7
100
AcDbLine
 10
4553.576507102751
 20
2086.704310019525
 30
0.0
 11
4584.490357925882
 21
2086.704310019525
 31
0.0
  0
CIRCLE
  5
3A7
330
1F
100
AcDbEntity
  8
LAY-12
  6
CONTINUOUS
 62
     7
100
AcDbCircle
 10
4987.41744099367
 20
2009.652226951919
 30
0.0
 40
2.25
  0
LINE
  5
3A8
330
1F
100
AcDbEntity
  8
LAY-12
  6
CONTINUOUS
 62
     7
100
AcDbLine
 10
4987.15227595075
 20
2001.432110620601
 30
0.0
 11
4995.637557324988
 21
2009.91739199484
 31
0.0
  0
LINE
  5
3A9
330
1F
100
AcDbEntity
  8
LAY-12
  6
CONTINUOUS
 62
     7
100
AcDbLine
 10
4995.63755732499
 20
2009.917391994836
 30
0.0
 11
4986.356780821896
 21
2019.198168497921
 31
0.0
  0
LINE
  5
3AA
330
1F
100
AcDbEntity
  8
LAY-12
  6
CONTINUOUS
 62
     7
100
AcDbLine
 10
4987.152275950755
 20
2001.432110620591
 30
0.0
 11
4977.871499447661
 21
2010.712887123676
 31
0.0
  0
CIRCLE
  5
3AB
330
1F
100
AcDbEntity
  8
LAY-12
  6
CONTINUOUS
 62
     7
100
AcDbCircle
 10
5070.891577000069
 20
2188.663089301194
 30
0.0
 40
2.25
  0
LINE
  5
3AC
330
1F
100
AcDbEntity
  8
LAY-12
  6
CONTINUOUS
 62
     7
100
AcDbLine
 10
5075.972237720383
 20
2182.195670059686
 30
0.0
 11
5077.018106633353
 21
2194.150006436786
 31
0.0
  0
LINE
  5
3AD
330
1F
100
AcDbEntity
  8
LAY-12
  6
CONTINUOUS
 62
     7
100
AcDbLine
 10
5077.018106633358
 20
2194.150006436785
 30
0.0
 11
5063.94305122088
 21
2195.293925560343
 31
0.0
  0
LINE
  5
3AE
330
1F
100
AcDbEntity
  8
LAY-12
  6
CONTINUOUS
 62
     7
100
AcDbLine
 10
5075.972237720393
 20
2182.195670059682
 30
0.0
 11
5062.897182307916
 21
2183.33958918324
 31
0.0
  0
ARC
  5
3AF
330
1F
100
AcDbEntity
  8
LAY-12
  6
CONTINUOUS
 62
     7
100
AcDbCircle
 10
4783.240357926002
 20
2213.829310019587
 30
0.0
 40
281.2499999999625
100
AcDbArc
 50
180.0000000000128
 51
0.0
  0
ARC
  5
3B0
330
1F
100
AcDbEntity
  8
LAY-12
  6
CONTINUOUS
 62
     7
100
AcDbCircle
 10
4783.240357926002
 20
2213.829310019587
 30
0.0
 40
280.1249999999625
100
AcDbArc
 50
180.0000000000128
 51
0.0
  0
ARC
  5
3B1
330
1F
100
AcDbEntity
  8
LAY-12
  6
CONTINUOUS
 62
     7
100
AcDbCircle
 10
4783.240357926002
 20
2213.829310019587
 30
0.0
 40
262.4999999999625
100
AcDbArc
 50
180.0000000000137
 51
0.0
  0
LINE
  5
3B2
330
1F
100
AcDbEntity
  8
LAY-12
  6
CONTINUOUS
 62
     7
100
AcDbLine
 10
4998.865357926252
 20
2250.954310019627
 30
0.0
 11
4998.865357926252
 21
2269.704310019626
 31
0.0
  0
LINE
  5
3B3
330
1F
100
AcDbEntity
  8
LAY-12
  6
CONTINUOUS
 62
     7
100
AcDbLine
 10
4567.615357925752
 20
2250.954310019627
 30
0.0
 11
4567.615357925752
 21
2269.704310019626
 31
0.0
  0
LINE
  5
3B4
330
1F
100
AcDbEntity
  8
LAY-12
  6
CONTINUOUS
 62
     7
100
AcDbLine
 10
4998.865357926252
 20
2250.954310019627
 30
0.0
 11
4567.615357925752
 21
2250.954310019627
 31
0.0
  0
LINE
  5
3B5
330
1F
100
AcDbEntity
  8
LAY-12
  6
CONTINUOUS
 62
     7
100
AcDbLine
 10
4998.865357926252
 20
2269.704310019626
 30
0.0
 11
4567.615357925752
 21
2269.704310019626
 31
0.0
  0
DIMENSION
  5
3B7
330
1F
100
AcDbEntity
  8
LAY-20
  6
CONTINUOUS
 62
     4
100
AcDbDimension
  2
*D15
 10
2531.5
 20
1235.499999999999
 30
0.0
 11
2494.0
 21
1325.499999999998
 31
0.0
 70
   160
  3
ISO-25
100
AcDbAlignedDimension
 13
2416.5
 23
1138.499999999999
 33
0.0
 14
2531.5
 24
1235.499999999999
 34
0.0
 50
90.0
100
AcDbRotatedDimension
1001
ACAD
1000
DSTYLE
1002
{
1070
   270
1070
     2
1070
     6
1000
EX_BCIR
1070
     7
1000
EX_BNORM
1070
    41
1040
14.99999904632568
1070
    42
1040
22.5
1070
    44
1040
22.5
1070
    73
1070
     0
1070
    74
1070
     0
1070
    75
1070
     0
1070
    76
1070
     1
1070
    77
1070
     1
1070
    78
1070
     8
1070
   140
1040
46.77165302633819
1070
   147
1040
0.0
1070
   173
1070
     1
1070
   176
1070
     4
1070
   177
1070
     4
1070
   178
1070
     7
1070
   271
1070
     1
1070
   277
1070
     2
1070
   279
1070
     2
1070
   280
1070
     2
1070
   287
1070
     5
1070
   340
1005
3B6
1002
}
  0
DIMENSION
  5
3C4
330
1F
100
AcDbEntity
  8
LAY-20
  6
CONTINUOUS
 62
     4
100
AcDbDimension
  2
*D16
 10
2531.5
 20
1091.499999999999
 30
0.0
 11
2494.0
 21
1001.499999999998
 31
0.0
 70
   160
  3
ISO-25
100
AcDbAlignedDimension
 13
2531.5
 23
1138.499999999999
 33
0.0
 14
2531.5
 24
1091.499999999999
 34
0.0
 50
90.0
100
AcDbRotatedDimension
1001
ACAD
1000
DSTYLE
1002
{
1070
   270
1070
     2
1070
     6
1000
EX_BCIR
1070
     7
1000
EX_BNORM
1070
    41
1040
14.99999904632568
1070
    42
1040
0.0
1070
    44
1040
0.0
1070
    73
1070
     0
1070
    74
1070
     0
1070
    75
1070
     1
1070
    76
1070
     1
1070
    77
1070
     1
1070
    78
1070
     8
1070
   140
1040
46.77165302633819
1070
   147
1040
0.0
1070
   173
1070
     1
1070
   176
1070
     4
1070
   177
1070
     4
1070
   178
1070
     7
1070
   271
1070
     1
1070
   277
1070
     2
1070
   279
1070
     2
1070
   280
1070
     2
1070
   287
1070
     5
1070
   340
1005
3B6
1002
}
  0
DIMENSION
  5
3CF
330
1F
100
AcDbEntity
  8
LAY-20
  6
CONTINUOUS
 62
     4
100
AcDbDimension
  2
*D17
 10
1423.5
 20
1235.5
 30
0.0
 11
1385.999999999999
 21
1325.5
 31
0.0
 70
   160
  3
ISO-25
100
AcDbAlignedDimension
 13
1362.0
 23
1160.6999999992
 33
0.0
 14
1512.000000000029
 24
1235.5
 34
0.0
 50
90.0
100
AcDbRotatedDimension
1001
ACAD
1000
DSTYLE
1002
{
1070
   270
1070
     2
1070
     6
1000
EX_BNORM
1070
     7
1000
EX_BNORM
1070
    41
1040
37.49999618530273
1070
    42
1040
0.0
1070
    44
1040
0.0
1070
    73
1070
     0
1070
    74
1070
     0
1070
    75
1070
     1
1070
    76
1070
     1
1070
    77
1070
     1
1070
    78
1070
     0
1070
   140
1040
46.77165302633819
1070
   147
1040
0.0
1070
   173
1070
     1
1070
   176
1070
     4
1070
   177
1070
     4
1070
   178
1070
     7
1070
   271
1070
     0
1070
   277
1070
     2
1070
   279
1070
     2
1070
   280
1070
     2
1070
   287
1070
     5
1070
   340
1005
3B6
1002
}
  0
DIMENSION
  5
3DC
330
1F
100
AcDbEntity
  8
LAY-20
  6
CONTINUOUS
 62
     4
100
AcDbDimension
  2
*D18
 10
1612.22994455537
 20
3256.364518323164
 30
0.0
 11
1516.185197560973
 21
3266.688861006573
 31
0.0
 70
   165
  3
ISO-25
100
AcDb3PointAngularDimension
 13
1784.5
 23
3188.4598670394
 33
0.0
 14
1374.1443899761
 24
3018.542772487101
 34
0.0
 15
1784.5
 25
2529.5
 35
0.0
1001
ACAD
1000
DSTYLE
1002
{
1070
   270
1070
     2
1070
     6
1000
EX_BNORM
1070
     7
1000
EX_BNORM
1070
    41
1040
37.49999618530273
1070
    42
1040
22.5
1070
    44
1040
22.5
1070
    73
1070
     0
1070
    74
1070
     0
1070
    75
1070
     0
1070
    76
1070
     0
1070
    77
1070
     1
1070
    78
1070
     8
1070
    79
1070
     2
1070
   140
1040
46.77165302633819
1070
   147
1040
0.0
1070
   173
1070
     1
1070
   176
1070
     4
1070
   177
1070
     4
1070
   178
1070
     7
1070
   179
1070
     1
1070
   271
1070
     1
1070
   277
1070
     2
1070
   279
1070
     2
1070
   280
1070
     0
1070
   287
1070
     5
1070
   340
1005
3B6
1002
}
  0
DIMENSION
  5
3EA
330
1F
100
AcDbEntity
  8
LAY-20
  6
CONTINUOUS
 62
     4
100
AcDbDimension
  2
*D19
 10
1185.313975011976
 20
2975.577468001929
 30
0.0
 11
1105.103070731103
 21
2921.749999999937
 31
0.0
 70
   165
  3
ISO-25
100
AcDb3PointAngularDimension
 13
1304.337655564151
 23
3101.735199009838
 33
0.0
 14
1155.798730476999
 24
2640.356996622499
 34
0.0
 15
1784.5
 25
2529.5
 35
0.0
1001
ACAD
1000
DSTYLE
1002
{
1070
   270
1070
     2
1070
     6
1000
EX_BNORM
1070
     7
1000
EX_BNORM
1070
    41
1040
37.49999618530273
1070
    42
1040
22.49999999999977
1070
    44
1040
22.4999999999997
1070
    73
1070
     0
1070
    74
1070
     0
1070
    75
1070
     1
1070
    76
1070
     0
1070
    77
1070
     1
1070
    78
1070
     8
1070
    79
1070
     2
1070
   140
1040
46.77165302633819
1070
   147
1040
0.0
1070
   173
1070
     1
1070
   176
1070
     4
1070
   177
1070
     4
1070
   178
1070
     7
1070
   179
1070
     1
1070
   271
1070
     1
1070
   277
1070
     2
1070
   279
1070
     2
1070
   280
1070
     0
1070
   287
1070
     5
1070
   340
1005
3B6
1002
}
  0
DIMENSION
  5
3F7
330
1F
100
AcDbEntity
  8
LAY-20
  6
CONTINUOUS
 62
     4
100
AcDbDimension
  2
*D20
 10
1038.763805771392
 20
2572.934187196088
 30
0.0
 11
1000.000000000033
 21
2529.499999999994
 31
0.0
 70
   165
  3
ISO-25
100
AcDb3PointAngularDimension
 13
1048.848608499896
 23
2659.2151887171
 33
0.0
 14
1155.798730476999
 24
2418.643003377499
 34
0.0
 15
1784.5
 25
2529.5
 35
0.0
1001
ACAD
1000
DSTYLE
1002
{
1070
   270
1070
     2
1070
     6
1000
EX_BNORM
1070
     7
1000
EX_BNORM
1070
    41
1040
37.49999618530273
1070
    42
1040
22.49999999999989
1070
    44
1040
22.50000000000008
1070
    73
1070
     0
1070
    74
1070
     0
1070
    75
1070
     1
1070
    76
1070
     0
1070
    77
1070
     1
1070
    78
1070
     8
1070
    79
1070
     2
1070
   140
1040
46.77165302633819
1070
   147
1040
0.0
1070
   173
1070
     1
1070
   176
1070
     4
1070
   177
1070
     4
1070
   178
1070
     7
1070
   179
1070
     1
1070
   271
1070
     1
1070
   277
1070
     2
1070
   279
1070
     2
1070
   280
1070
     0
1070
   287
1070
     5
1070
   340
1005
3B6
1002
}
  0
DIMENSION
  5
404
330
1F
100
AcDbEntity
  8
LAY-20
  6
CONTINUOUS
 62
     4
100
AcDbDimension
  2
*D21
 10
1098.592568160437
 20
2233.628414768809
 30
0.0
 11
1170.054976014945
 21
2174.750000000041
 31
0.0
 70
   165
  3
ISO-25
100
AcDb3PointAngularDimension
 13
1048.848608499889
 23
2399.784811282898
 33
0.0
 14
1374.1443899761
 24
2040.4572275128
 34
0.0
 15
1784.5
 25
2529.5
 35
0.0
1001
ACAD
1000
DSTYLE
1002
{
1070
   270
1070
     2
1070
     6
1000
EX_BNORM
1070
     7
1000
EX_BNORM
1070
    41
1040
37.49999618530273
1070
    42
1040
22.5
1070
    44
1040
22.49999999999992
1070
    73
1070
     0
1070
    74
1070
     0
1070
    75
1070
     1
1070
    76
1070
     0
1070
    77
1070
     1
1070
    78
1070
     8
1070
    79
1070
     2
1070
   140
1040
46.77165302633819
1070
   147
1040
0.0
1070
   173
1070
     1
1070
   176
1070
     4
1070
   177
1070
     4
1070
   178
1070
     7
1070
   179
1070
     1
1070
   271
1070
     1
1070
   277
1070
     2
1070
   279
1070
     2
1070
   280
1070
     0
1070
   287
1070
     5
1070
   340
1005
3B6
1002
}
  0
DIMENSION
  5
411
330
1F
100
AcDbEntity
  8
LAY-20
  6
CONTINUOUS
 62
     4
100
AcDbDimension
  2
*D22
 10
1449.247012390278
 20
1861.956417678385
 30
0.0
 11
1541.836708310455
 21
1862.788085552378
 31
0.0
 70
   165
  3
ISO-25
100
AcDb3PointAngularDimension
 13
1304.337655564184
 23
1957.264800990082
 33
0.0
 14
1784.5
 24
1870.5401329606
 34
0.0
 15
1784.5
 25
2529.5
 35
0.0
1001
ACAD
1000
DSTYLE
1002
{
1070
   270
1070
     2
1070
     6
1000
EX_BNORM
1070
     7
1000
EX_BNORM
1070
    41
1040
37.49999618530273
1070
    42
1040
22.5
1070
    44
1040
22.5
1070
    73
1070
     0
1070
    74
1070
     0
1070
    75
1070
     1
1070
    76
1070
     0
1070
    77
1070
     1
1070
    78
1070
     8
1070
    79
1070
     2
1070
   140
1040
46.77165302633819
1070
   147
1040
0.0
1070
   173
1070
     1
1070
   176
1070
     4
1070
   177
1070
     4
1070
   178
1070
     7
1070
   179
1070
     1
1070
   271
1070
     1
1070
   277
1070
     2
1070
   279
1070
     2
1070
   280
1070
     0
1070
   287
1070
     5
1070
   340
1005
3B6
1002
}
  0
DIMENSION
  5
41E
330
1F
100
AcDbEntity
  8
LAY-20
  6
CONTINUOUS
 62
     4
100
AcDbDimension
  2
*D23
 10
2636.5000000001
 20
1091.5
 30
0.0
 11
2599.0000000001
 21
1163.5
 31
0.0
 70
   160
  3
ISO-25
100
AcDbAlignedDimension
 13
2381.4999999996
 23
1235.5
 33
0.0
 14
2381.4999999999
 24
1091.5
 34
0.0
 50
90.0
100
AcDbRotatedDimension
1001
ACAD
1000
DSTYLE
1002
{
1070
   270
1070
     2
1070
     6
1000
EX_BNORM
1070
     7
1000
EX_BNORM
1070
    41
1040
37.49999618530273
1070
    42
1040
22.5
1070
    44
1040
22.5
1070
    73
1070
     0
1070
    74
1070
     0
1070
    75
1070
     0
1070
    76
1070
     0
1070
    77
1070
     1
1070
    78
1070
     8
1070
   140
1040
46.77165302633819
1070
   147
1040
0.0
1070
   173
1070
     1
1070
   176
1070
     4
1070
   177
1070
     4
1070
   178
1070
     7
1070
   271
1070
     1
1070
   277
1070
     2
1070
   279
1070
     2
1070
   280
1070
     0
1070
   287
1070
     5
1070
   340
1005
3B6
1002
}
  0
DIMENSION
  5
42B
330
1F
100
AcDbEntity
  8
LAY-20
  6
CONTINUOUS
 62
     4
100
AcDbDimension
  2
*D24
 10
2381.4999999996
 20
1595.5
 30
0.0
 11
1784.5
 21
1633.0
 31
0.0
 70
   160
  1
%%c<>
  3
ISO-25
100
AcDbAlignedDimension
 13
1187.5000000004
 23
1235.5
 33
0.0
 14
2381.4999999996
 24
1235.5
 34
0.0
100
AcDbRotatedDimension
1001
ACAD
1000
DSTYLE
1002
{
1070
   270
1070
     2
1070
     6
1000
EX_BNORM
1070
     7
1000
EX_BNORM
1070
    41
1040
37.49999618530273
1070
    42
1040
22.5
1070
    44
1040
22.5
1070
    73
1070
     0
1070
    74
1070
     0
1070
    75
1070
     0
1070
    76
1070
     0
1070
    77
1070
     1
1070
    78
1070
     8
1070
   140
1040
46.77165302633819
1070
   147
1040
0.0
1070
   173
1070
     1
1070
   176
1070
     4
1070
   177
1070
     4
1070
   178
1070
     7
1070
   271
1070
     1
1070
   277
1070
     2
1070
   279
1070
     2
1070
   280
1070
     0
1070
   287
1070
     5
1070
   340
1005
3B6
1002
}
  0
DIMENSION
  5
438
330
1F
100
AcDbEntity
  8
LAY-20
  6
CONTINUOUS
 62
     4
100
AcDbDimension
  2
*D25
 10
1201.000000000001
 20
1490.5
 30
0.0
 11
1784.5
 21
1528.0
 31
0.0
 70
   160
  1
%%c<>
  3
ISO-25
100
AcDbAlignedDimension
 13
2367.999999999999
 23
1235.499999999999
 33
0.0
 14
1201.000000000001
 24
1235.5
 34
0.0
100
AcDbRotatedDimension
1001
ACAD
1000
DSTYLE
1002
{
1070
   270
1070
     2
1070
     6
1000
EX_BNORM
1070
     7
1000
EX_BNORM
1070
    41
1040
37.49999618530273
1070
    42
1040
22.5
1070
    44
1040
22.5
1070
    73
1070
     0
1070
    74
1070
     0
1070
    75
1070
     0
1070
    76
1070
     0
1070
    77
1070
     1
1070
    78
1070
     8
1070
   140
1040
46.77165302633819
1070
   147
1040
0.0
1070
   173
1070
     1
1070
   176
1070
     4
1070
   177
1070
     4
1070
   178
1070
     7
1070
   271
1070
     1
1070
   277
1070
     2
1070
   279
1070
     2
1070
   280
1070
     0
1070
   287
1070
     5
1070
   340
1005
3B6
1002
}
  0
DIMENSION
  5
445
330
1F
100
AcDbEntity
  8
LAY-20
  6
CONTINUOUS
 62
     4
100
AcDbDimension
  2
*D26
 10
1584.5
 20
1385.5
 30
0.0
 11
1784.5
 21
1423.0
 31
0.0
 70
   160
  1
%%c<>
  3
ISO-25
100
AcDbAlignedDimension
 13
1984.5
 23
1235.5
 33
0.0
 14
1584.5
 24
1235.5
 34
0.0
100
AcDbRotatedDimension
1001
ACAD
1000
DSTYLE
1002
{
1070
   270
1070
     2
1070
     6
1000
EX_BNORM
1070
     7
1000
EX_BNORM
1070
    41
1040
37.49999618530273
1070
    42
1040
22.5
1070
    44
1040
22.5
1070
    73
1070
     0
1070
    74
1070
     0
1070
    75
1070
     0
1070
    76
1070
     0
1070
    77
1070
     1
1070
    78
1070
     8
1070
   140
1040
46.77165302633819
1070
   147
1040
0.0
1070
   173
1070
     1
1070
   176
1070
     4
1070
   177
1070
     4
1070
   178
1070
     7
1070
   271
1070
     1
1070
   277
1070
     2
1070
   279
1070
     2
1070
   280
1070
     0
1070
   287
1070
     5
1070
   340
1005
3B6
1002
}
  0
DIMENSION
  5
452
330
1F
100
AcDbEntity
  8
LAY-20
  6
CONTINUOUS
 62
     4
100
AcDbDimension
  2
*D27
 10
2331.4999999997
 20
938.5
 30
0.0
 11
1784.5
 21
976.0
 31
0.0
 70
   160
  1
%%c<>
  3
ISO-25
100
AcDbAlignedDimension
 13
1237.5000000003
 23
1095.5
 33
0.0
 14
2331.4999999997
 24
1095.5
 34
0.0
100
AcDbRotatedDimension
1001
ACAD
1000
DSTYLE
1002
{
1070
   270
1070
     2
1070
     6
1000
EX_BNORM
1070
     7
1000
EX_BNORM
1070
    41
1040
37.49999618530273
1070
    42
1040
22.5
1070
    44
1040
22.5
1070
    73
1070
     0
1070
    74
1070
     0
1070
    75
1070
     0
1070
    76
1070
     0
1070
    77
1070
     1
1070
    78
1070
     8
1070
   140
1040
46.77165302633819
1070
   147
1040
0.0
1070
   173
1070
     1
1070
   176
1070
     4
1070
   177
1070
     4
1070
   178
1070
     7
1070
   271
1070
     1
1070
   277
1070
     2
1070
   279
1070
     2
1070
   280
1070
     0
1070
   287
1070
     5
1070
   340
1005
3B6
1002
}
  0
LINE
  5
45F
330
1F
100
AcDbEntity
  8
LAY-255
  6
CONTINUOUS
 62
     7
100
AcDbLine
 10
5775.0
 20
329.9999999999999
 30
0.0
 11
4275.0
 21
329.9999999999999
 31
0.0
  0
LINE
  5
460
330
1F
100
AcDbEntity
  8
LAY-255
  6
CONTINUOUS
 62
     7
100
AcDbLine
 10
4332.0
 20
240.0
 30
0.0
 11
4452.0
 21
315.0
 31
0.0
  0
LINE
  5
461
330
1F
100
AcDbEntity
  8
LAY-255
  6
CONTINUOUS
 62
     7
100
AcDbLine
 10
4452.0
 20
315.0
 30
0.0
 11
4572.0
 21
240.0
 31
0.0
  0
LINE
  5
462
330
1F
100
AcDbEntity
  8
LAY-255
  6
CONTINUOUS
 62
     7
100
AcDbLine
 10
4572.0
 20
240.0
 30
0.0
 11
4452.0
 21
165.0
 31
0.0
  0
LINE
  5
463
330
1F
100
AcDbEntity
  8
LAY-255
  6
CONTINUOUS
 62
     7
100
AcDbLine
 10
4452.0
 20
165.0
 30
0.0
 11
4332.0
 21
240.0
 31
0.0
  0
LINE
  5
464
330
1F
100
AcDbEntity
  8
LAY-255
  6
CONTINUOUS
 62
     7
100
AcDbLine
 10
75.0
 20
150.0
 30
0.0
 11
5775.000000000001
 21
150.0
 31
0.0
  0
LINE
  5
465
330
1F
100
AcDbEntity
  8
LAY-255
  6
CONTINUOUS
 62
     7
100
AcDbLine
 10
75.0
 20
4200.0
 30
0.0
 11
5775.000000000001
 21
4200.0
 31
0.0
  0
LINE
  5
466
330
1F
100
AcDbEntity
  8
LAY-255
  6
CONTINUOUS
 62
     7
100
AcDbLine
 10
75.0
 20
150.0
 30
0.0
 11
75.0
 21
4200.0
 31
0.0
  0
LINE
  5
467
330
1F
100
AcDbEntity
  8
LAY-255
  6
CONTINUOUS
 62
     7
100
AcDbLine
 10
5775.0
 20
150.0
 30
0.0
 11
5775.0
 21
4200.0
 31
0.0
  0
LINE
  5
468
330
1F
100
AcDbEntity
  8
LAY-255
  6
CONTINUOUS
 62
     4
100
AcDbLine
 10
4275.0
 20
419.9999999999999
 30
0.0
 11
5775.000000000001
 21
419.9999999999999
 31
0.0
  0
LINE
  5
469
330
1F
100
AcDbEntity
  8
LAY-255
  6
CONTINUOUS
 62
     4
100
AcDbLine
 10
5025.0
 20
419.9999999999999
 30
0.0
 11
5025.0
 21
330.0
 31
0.0
  0
LINE
  5
46A
330
1F
100
AcDbEntity
  8
LAY-255
  6
CONTINUOUS
 62
     7
100
AcDbLine
 10
5775.000000000001
 20
1080.0
 30
0.0
 11
4275.0
 21
1080.0
 31
0.0
  0
LINE
  5
46B
330
1F
100
AcDbEntity
  8
LAY-255
  6
CONTINUOUS
 62
     4
100
AcDbLine
 10
5745.0
 20
900.0
 30
0.0
 11
4305.0
 21
900.0
 31
0.0
  0
LINE
  5
46C
330
1F
100
AcDbEntity
  8
LAY-255
  6
CONTINUOUS
 62
     4
100
AcDbLine
 10
5745.0
 20
990.0
 30
0.0
 11
4305.0
 21
990.0
 31
0.0
  0
LINE
  5
46D
330
1F
100
AcDbEntity
  8
LAY-255
  6
CONTINUOUS
 62
     7
100
AcDbLine
 10
4275.0
 20
150.0
 30
0.0
 11
4275.0
 21
1080.0
 31
0.0
  0
TEXT
  5
46E
330
1F
100
AcDbEntity
  8
LAY-255
  6
CONTINUOUS
 62
     7
100
AcDbText
 10
4410.515625
 20
205.7812489271164
 30
0.0
 40
77.34374344348907
  1
S
 41
0.758267820642796
  7
EXCADSTD
100
AcDbText
  0
TEXT
  5
46F
330
1F
100
AcDbEntity
  8
LAY-255
  6
CONTINUOUS
 62
     7
100
AcDbText
 10
4456.5703125
 20
206.2411545875164
 30
0.0
 40
77.34374344348907
  1
F
 41
0.7440945903504073
  7
EXCADSTD
100
AcDbText
  0
TEXT
  5
470
330
1F
100
AcDbEntity
  8
LAY-255
  6
CONTINUOUS
 62
     7
100
AcDbText
 10
4622.07565899414
 20
233.1562489271164
 30
0.0
 40
77.34374344348907
  1
福西鋳物株式会社
 41
1.342685606041486
  7
EXCADSTD
100
AcDbText
  0
TEXT
  5
471
330
1F
100
AcDbEntity
  8
LAY-255
  6
CONTINUOUS
 62
     7
100
AcDbText
 10
4627.640625
 20
179.7187497317791
 30
0.0
 40
25.78124836087227
  1
ＦＵＫＵＮＩＳＨＩ
 41
1.20479930264434
  7
EXCADSTD
100
AcDbText
  0
TEXT
  5
472
330
1F
100
AcDbEntity
  8
LAY-255
  6
CONTINUOUS
 62
     7
100
AcDbText
 10
4990.561941964285
 20
179.7187497317791
 30
0.0
 40
25.78124836087227
  1
ＦＯＵＮＤＲＹ
 41
1.217207032468842
  7
EXCADSTD
100
AcDbText
  0
TEXT
  5
473
330
1F
100
AcDbEntity
  8
LAY-255
  6
CONTINUOUS
 62
     7
100
AcDbText
 10
5278.867225060096
 20
179.7187497317791
 30
0.0
 40
25.78124836087227
  1
ＣＯ.,ＬＴＤ.
 41
1.097167869545995
  7
EXCADSTD
100
AcDbText
  0
TEXT
  5
474
330
1F
100
AcDbEntity
  8
LAY-255
  6
CONTINUOUS
 62
     7
100
AcDbText
 10
4308.984375
 20
923.4374994635582
 30
0.0
 40
51.56249672174454
  1
型式
 41
1.05634854784265
  7
EXCADSTD
100
AcDbText
  0
TEXT
  5
475
330
1F
100
AcDbEntity
  8
LAY-255
  6
CONTINUOUS
 62
     7
100
AcDbText
 10
4311.328125
 20
1013.437499463558
 30
0.0
 40
51.56249672174454
  1
品名
 41
0.9788386963237974
  7
EXCADSTD
100
AcDbText
  0
POINT
  5
476
330
1F
100
AcDbEntity
  8
LAY-255
  6
CONTINUOUS
 62
     7
100
AcDbPoint
 10
4500.0
 20
915.0
 30
0.0
  0
POINT
  5
477
330
1F
100
AcDbEntity
  8
LAY-255
  6
CONTINUOUS
 62
     7
100
AcDbPoint
 10
4500.0
 20
1005.0
 30
0.0
  0
TEXT
  5
478
330
1F
100
AcDbEntity
  8
LAY-255
  6
CONTINUOUS
 62
     7
100
AcDbText
 10
4503.75
 20
1013.437499463558
 30
0.0
 40
51.56249672174454
  1
化粧用グリーンメイト（樹木保護蓋）
 41
0.9764041390197047
  7
EXCADSTD
100
AcDbText
  0
POINT
  5
479
330
1F
100
AcDbEntity
  8
LAY-255
  6
CONTINUOUS
 62
     7
100
AcDbPoint
 10
4335.0
 20
825.0
 30
0.0
  0
TEXT
  5
47A
330
1F
100
AcDbEntity
  8
LAY-255
  6
CONTINUOUS
 62
     7
100
AcDbText
 10
4338.046875
 20
683.4374994635583
 30
0.0
 40
51.56249672174454
  1
適用荷重：歩行用
 41
1.01541069157106
  7
EXCADSTD
100
AcDbText
  0
TEXT
  5
47B
330
1F
100
AcDbEntity
  8
LAY-255
  6
CONTINUOUS
 62
     7
100
AcDbText
 10
4338.046875
 20
608.4374994635583
 30
0.0
 40
51.56249672174454
  1
外径：φ１１９４
 41
1.001743648364471
  7
EXCADSTD
100
AcDbText
  0
TEXT
  5
47C
330
1F
100
AcDbEntity
  8
LAY-255
  6
CONTINUOUS
 62
     7
100
AcDbText
 10
4341.796875
 20
533.4374994635582
 30
0.0
 40
51.56249672174454
  1
内径：φ４００
 41
0.992126099441315
  7
EXCADSTD
100
AcDbText
  0
TEXT
  5
47D
330
1F
100
AcDbEntity
  8
LAY-255
  6
CONTINUOUS
 62
     7
100
AcDbText
 10
4340.859375
 20
758.4374994635583
 30
0.0
 40
51.56249672174454
  1
インターロッキングブロック用（貼代７５）
 41
0.9793861174260171
  7
EXCADSTD
100
AcDbText
  0
TEXT
  5
47E
330
1F
100
AcDbEntity
  8
LAY-255
  6
CONTINUOUS
 62
     7
100
AcDbText
 10
4339.6875
 20
833.4374994635583
 30
0.0
 40
51.56249672174454
  1
スチール製（溶融亜鉛めっき）
 41
0.9684087992530578
  7
EXCADSTD
100
AcDbText
  0
TEXT
  5
47F
330
1F
100
AcDbEntity
  8
LAY-255
  6
CONTINUOUS
 62
     7
100
AcDbText
 10
4510.3125
 20
923.4374994635582
 30
0.0
 40
51.56249672174454
  1
ＧＭＲ－ＳＺＢＷ－１２４０型
 41
1.006127879070527
  7
EXCADSTD
100
AcDbText
  0
POINT
  5
480
330
1F
100
AcDbEntity
  8
LAY-255
  6
CONTINUOUS
 62
     7
100
AcDbPoint
 10
4335.0
 20
750.0
 30
0.0
  0
TEXT
  5
481
330
1F
100
AcDbEntity
  8
LAY-255
  6
CONTINUOUS
 62
     7
100
AcDbText
 10
4338.28125
 20
458.4374994635582
 30
0.0
 40
51.56249672174454
  1
割数：４枚割
 41
1.026877769133284
  7
EXCADSTD
100
AcDbText
  0
POINT
  5
482
330
1F
100
AcDbEntity
  8
LAY-255
  6
CONTINUOUS
 62
     7
100
AcDbPoint
 10
4335.0
 20
675.0
 30
0.0
  0
POINT
  5
483
330
1F
100
AcDbEntity
  8
LAY-255
  6
CONTINUOUS
 62
     7
100
AcDbPoint
 10
4335.0
 20
450.0
 30
0.0
  0
POINT
  5
484
330
1F
100
AcDbEntity
  8
LAY-255
  6
CONTINUOUS
 62
     7
100
AcDbPoint
 10
4335.0
 20
525.0
 30
0.0
  0
POINT
  5
485
330
1F
100
AcDbEntity
  8
LAY-255
  6
CONTINUOUS
 62
     7
100
AcDbPoint
 10
4335.0
 20
600.0
 30
0.0
  0
TEXT
  5
486
330
1F
100
AcDbEntity
  8
LAY-255
  6
CONTINUOUS
 62
     7
100
AcDbText
 10
4514.765625
 20
353.437499463558
 30
0.0
 40
51.56249672174454
  1
２０／０４／２３
 41
0.973397188380433
  7
EXCADSTD
100
AcDbText
  0
TEXT
  5
487
330
1F
100
AcDbEntity
  8
LAY-255
  6
CONTINUOUS
 62
     7
100
AcDbText
 10
4307.28515625
 20
366.328124463558
 30
0.0
 40
38.67187172174454
  1
作成日
 41
1.000630058642643
  7
EXCADSTD
100
AcDbText
  0
TEXT
  5
488
330
1F
100
AcDbEntity
  8
LAY-255
  6
CONTINUOUS
 62
     7
100
AcDbText
 10
5056.58203125
 20
366.328124463558
 30
0.0
 40
38.67187172174454
  1
縮尺
 41
1.080708809794639
  7
EXCADSTD
100
AcDbText
  0
TEXT
  5
489
330
1F
100
AcDbEntity
  8
LAY-255
  6
CONTINUOUS
 62
     7
100
AcDbText
 10
5224.21875
 20
353.437499463558
 30
0.0
 40
51.56249672174454
  1
１：１５
 41
0.9202178002171021
  7
EXCADSTD
100
AcDbText
  0
ENDSEC
  0
SECTION
  2
OBJECTS
  0
DICTIONARY
  5
C
330
0
100
AcDbDictionary
  3
ACAD_GROUP
350
D
  3
ACAD_LAYOUT
350
1A
  3
ACAD_MATERIAL
350
43
  3
ACAD_MLEADERSTYLE
350
6B
  3
ACAD_MLINESTYLE
350
17
  3
ACAD_PLOTSETTINGS
350
19
  3
ACAD_SCALELIST
350
47
  3
ACAD_VISUALSTYLE
350
2A
  3
ACDBHEADERROUNDTRIPXREC
350
48A
  3
ACDBVARIABLEDICTIONARY
350
4AB
  0
DICTIONARY
  5
4B6
330
8
100
AcDbDictionary
280
     1
  3
ACAD_XREC_ROUNDTRIP
360
4B7
  0
DICTIONARY
  5
D
102
{ACAD_REACTORS
330
C
102
}
330
C
100
AcDbDictionary
  0
DICTIONARY
  5
1A
102
{ACAD_REACTORS
330
C
102
}
330
C
100
AcDbDictionary
  0
DICTIONARY
  5
43
102
{ACAD_REACTORS
330
C
102
}
330
C
100
AcDbDictionary
  3
BYBLOCK
350
45
  3
BYLAYER
350
44
  3
GLOBAL
350
46
  0
DICTIONARY
  5
6B
102
{ACAD_REACTORS
330
C
102
}
330
C
100
AcDbDictionary
  3
STANDARD
350
6C
  0
DICTIONARY
  5
17
102
{ACAD_REACTORS
330
C
102
}
330
C
100
AcDbDictionary
  3
STANDARD
350
18
  0
DICTIONARY
  5
19
102
{ACAD_REACTORS
330
C
102
}
330
C
100
AcDbDictionary
  0
DICTIONARY
  5
47
102
{ACAD_REACTORS
330
C
102
}
330
C
100
AcDbDictionary
  3
A0
350
48
  3
A1
350
49
  3
A2
350
4A
  3
A3
350
4B
  3
A4
350
4C
  3
A5
350
4D
  3
A6
350
4E
  3
A7
350
4F
  3
A8
350
50
  3
A9
350
51
  3
B0
350
52
  3
B1
350
53
  3
B2
350
54
  3
B3
350
55
  3
B4
350
56
  3
B5
350
57
  3
B6
350
58
  3
B7
350
59
  3
B8
350
5A
  3
B9
350
5B
  3
C0
350
5C
  3
C1
350
5D
  3
C2
350
5E
  3
C3
350
5F
  3
C4
350
60
  3
C5
350
61
  3
C6
350
62
  3
C7
350
63
  3
C8
350
64
  3
C9
350
65
  3
D0
350
66
  3
D1
350
67
  3
D2
350
68
  0
DICTIONARY
  5
2A
102
{ACAD_REACTORS
330
C
102
}
330
C
100
AcDbDictionary
  3
2DWIREFRAME
350
2F
  3
BASIC
350
32
  3
BRIGHTEN
350
36
  3
COLORCHANGE
350
3A
  3
CONCEPTUAL
350
34
  3
DIM
350
35
  3
EDGECOLOROFF
350
3D
  3
FACEPATTERN
350
39
  3
FLAT
350
2B
  3
FLATWITHEDGES
350
2C
  3
GOURAUD
350
2D
  3
GOURAUDWITHEDGES
350
2E
  3
HIDDEN
350
31
  3
JITTEROFF
350
3B
  3
LINEPATTERN
350
38
  3
OVERHANGOFF
350
3C
  3
REALISTIC
350
33
  3
SHADED
350
42
  3
SHADED_WITH_EDGES
350
41
  3
SHADES_OF_GRAY
350
3E
  3
SKETCHY
350
3F
  3
THICKEN
350
37
  3
WIREFRAME
350
30
  3
X-RAY
350
40
  0
DICTIONARY
  5
48A
102
{ACAD_REACTORS
330
C
102
}
330
C
100
AcDbDictionary
  3
CEPSNID
350
494
  3
CEPSNTYPE
350
493
  3
DIMSTYLEDATA
350
4AA
  3
FINGERPRINTGUID
350
495
  3
HYPERLINKBASE
350
48D
  3
INSUNITS
350
492
  3
LAYOUTDICT
350
48F
  3
LWETCUNION
350
491
  3
PLOTSETDICT
350
490
  3
PSVPSCALE
350
497
  3
PUCSBASE
350
49A
  3
PUCSORGBACK
350
4A0
  3
PUCSORGBOTTOM
350
49C
  3
PUCSORGFRONT
350
49F
  3
PUCSORGLEFT
350
49D
  3
PUCSORGRIGHT
350
49E
  3
PUCSORGTOP
350
49B
  3
PUCSORTHOREF
350
498
  3
PUCSORTHOVIEW
350
499
  3
STYLESHEET
350
48E
  3
TSTACKALIGN
350
48B
  3
TSTACKSIZE
350
48C
  3
UCSBASE
350
4A3
  3
UCSORGBACK
350
4A9
  3
UCSORGBOTTOM
350
4A5
  3
UCSORGFRONT
350
4A8
  3
UCSORGLEFT
350
4A6
  3
UCSORGRIGHT
350
4A7
  3
UCSORGTOP
350
4A4
  3
UCSORTHOREF
350
4A1
  3
UCSORTHOVIEW
350
4A2
  3
VERSIONGUID
350
496
  0
DICTIONARY
  5
4AB
102
{ACAD_REACTORS
330
C
102
}
330
C
100
AcDbDictionary
  3
CANNOSCALE
350
4B8
  3
CENTEREXE
350
4B2
  3
CENTERLTYPEFILE
350
4B3
  3
CMLEADERSTYLE
350
4AD
  3
CTABLESTYLE
350
4AC
  3
DIMASSOC
350
4B4
  3
HIDETEXT
350
4B5
  3
MSLTSCALE
350
4B9
  3
PSOLHEIGHT
350
4AF
  3
PSOLWIDTH
350
4AE
  0
XRECORD
  5
4B7
102
{ACAD_REACTORS
330
4B6
102
}
330
4B6
100
AcDbXrecord
102
VTR_0.000_0.000_1.000_1.000_VISUALSTYLE
340
2F
102
VTR_0.000_0.000_1.000_1.000_GRIDDISPLAY
 70
     3
102
VTR_0.000_0.000_1.000_1.000_GRIDMAJOR
 70
     5
102
VTR_0.000_0.000_1.000_1.000_DEFAULTLIGHTING
280
     1
102
VTR_0.000_0.000_1.000_1.000_DEFAULTLIGHTINGTYPE
 70
     1
102
VTR_0.000_0.000_1.000_1.000_BRIGHTNESS
141
0.0
102
VTR_0.000_0.000_1.000_1.000_CONTRAST
142
0.0
  0
MATERIAL
  5
45
102
{ACAD_REACTORS
330
43
102
}
102
{ACAD_XDICTIONARY
360
4BC
102
}
330
43
100
AcDbMaterial
  1
BYBLOCK
  0
MATERIAL
  5
44
102
{ACAD_REACTORS
330
43
102
}
102
{ACAD_XDICTIONARY
360
4BA
102
}
330
43
100
AcDbMaterial
  1
BYLAYER
  0
MATERIAL
  5
46
102
{ACAD_REACTORS
330
43
102
}
102
{ACAD_XDICTIONARY
360
4BE
102
}
330
43
100
AcDbMaterial
  1
GLOBAL
  0
ACAD_PROXY_OBJECT
  5
6C
102
{ACAD_REACTORS
330
6B
102
}
330
6B
100
AcDbProxyObject
 90
      499
 91
      505
 93
      610
310
40901902A4063FBFFFFFE0000000000000020400000000000020404214DD185B99185C990000000000000104090141901A00000000000004100000000000000041025764000000000000039000
340
14
340
0
340
11
340
0
 94
        0
1001
ACAD_MLEADERVER
1070
     2
  0
MLINESTYLE
  5
18
102
{ACAD_REACTORS
330
17
102
}
330
17
100
AcDbMlineStyle
  2
Standard
 70
     0
  3

 62
   256
 51
90.0
 52
90.0
 71
     2
 49
0.5
 62
   256
  6
BYLAYER
 49
-0.5
 62
   256
  6
BYLAYER
  0
ACAD_PROXY_OBJECT
  5
48
102
{ACAD_REACTORS
330
47
102
}
330
47
100
AcDbProxyObject
 90
      499
 91
      503
 93
       41
310
903313A31580
  0
ACAD_PROXY_OBJECT
  5
49
102
{ACAD_REACTORS
330
47
102
}
330
47
100
AcDbProxyObject
 90
      499
 91
      503
 93
      105
310
903313A324000000000000004000
  0
ACAD_PROXY_OBJECT
  5
4A
102
{ACAD_REACTORS
330
47
102
}
330
47
100
AcDbProxyObject
 90
      499
 91
      503
 93
      105
310
903313A344000000000000104000
  0
ACAD_PROXY_OBJECT
  5
4B
102
{ACAD_REACTORS
330
47
102
}
330
47
100
AcDbProxyObject
 90
      499
 91
      503
 93
      105
310
903313A354000000000000144000
  0
ACAD_PROXY_OBJECT
  5
4C
102
{ACAD_REACTORS
330
47
102
}
330
47
100
AcDbProxyObject
 90
      499
 91
      503
 93
      105
310
903313A384000000000000204000
  0
ACAD_PROXY_OBJECT
  5
4D
102
{ACAD_REACTORS
330
47
102
}
330
47
100
AcDbProxyObject
 90
      499
 91
      503
 93
      113
310
904313A31304000000000000244000
  0
ACAD_PROXY_OBJECT
  5
4E
102
{ACAD_REACTORS
330
47
102
}
330
47
100
AcDbProxyObject
 90
      499
 91
      503
 93
      113
310
904313A31364000000000000304000
  0
ACAD_PROXY_OBJECT
  5
4F
102
{ACAD_REACTORS
330
47
102
}
330
47
100
AcDbProxyObject
 90
      499
 91
      503
 93
      113
310
904313A32304000000000000344000
  0
ACAD_PROXY_OBJECT
  5
50
102
{ACAD_REACTORS
330
47
102
}
330
47
100
AcDbProxyObject
 90
      499
 91
      503
 93
      113
310
904313A333040000000000003E4000
  0
ACAD_PROXY_OBJECT
  5
51
102
{ACAD_REACTORS
330
47
102
}
330
47
100
AcDbProxyObject
 90
      499
 91
      503
 93
      113
310
904313A34304000000000000444000
  0
ACAD_PROXY_OBJECT
  5
52
102
{ACAD_REACTORS
330
47
102
}
330
47
100
AcDbProxyObject
 90
      499
 91
      503
 93
      113
310
904313A35304000000000000494000
  0
ACAD_PROXY_OBJECT
  5
53
102
{ACAD_REACTORS
330
47
102
}
330
47
100
AcDbProxyObject
 90
      499
 91
      503
 93
      121
310
905313A3130304000000000000594000
  0
ACAD_PROXY_OBJECT
  5
54
102
{ACAD_REACTORS
330
47
102
}
330
47
100
AcDbProxyObject
 90
      499
 91
      503
 93
      105
310
903323A310000000000000010100
  0
ACAD_PROXY_OBJECT
  5
55
102
{ACAD_REACTORS
330
47
102
}
330
47
100
AcDbProxyObject
 90
      499
 91
      503
 93
      105
310
903343A310000000000000410100
  0
ACAD_PROXY_OBJECT
  5
56
102
{ACAD_REACTORS
330
47
102
}
330
47
100
AcDbProxyObject
 90
      499
 91
      503
 93
      105
310
903383A310000000000000810100
  0
ACAD_PROXY_OBJECT
  5
57
102
{ACAD_REACTORS
330
47
102
}
330
47
100
AcDbProxyObject
 90
      499
 91
      503
 93
      113
310
90431303A310000000000000910100
  0
ACAD_PROXY_OBJECT
  5
58
102
{ACAD_REACTORS
330
47
102
}
330
47
100
AcDbProxyObject
 90
      499
 91
      503
 93
      121
310
9053130303A310000000000001650100
  0
ACAD_PROXY_OBJECT
  5
59
102
{ACAD_REACTORS
330
47
102
}
330
47
100
AcDbProxyObject
 90
      499
 91
      503
 93
      257
310
90E312F31323822203D2031272D3022000000000000200FC000000000000284000
  0
ACAD_PROXY_OBJECT
  5
5A
102
{ACAD_REACTORS
330
47
102
}
330
47
100
AcDbProxyObject
 90
      499
 91
      503
 93
      249
310
90D312F363422203D2031272D3022000000000000240FC000000000000284000
  0
ACAD_PROXY_OBJECT
  5
5B
102
{ACAD_REACTORS
330
47
102
}
330
47
100
AcDbProxyObject
 90
      499
 91
      503
 93
      249
310
90D312F333222203D2031272D3022000000000000280FC000000000000284000
  0
ACAD_PROXY_OBJECT
  5
5C
102
{ACAD_REACTORS
330
47
102
}
330
47
100
AcDbProxyObject
 90
      499
 91
      503
 93
      249
310
90D312F313622203D2031272D30220000000000002C0FC000000000000284000
  0
ACAD_PROXY_OBJECT
  5
5D
102
{ACAD_REACTORS
330
47
102
}
330
47
100
AcDbProxyObject
 90
      499
 91
      503
 93
      249
310
90D332F333222203D2031272D30220000000000002E0FC000000000000284000
  0
ACAD_PROXY_OBJECT
  5
5E
102
{ACAD_REACTORS
330
47
102
}
330
47
100
AcDbProxyObject
 90
      499
 91
      503
 93
      241
310
90C312F3822203D2031272D3022000000000000300FC000000000000284000
  0
ACAD_PROXY_OBJECT
  5
5F
102
{ACAD_REACTORS
330
47
102
}
330
47
100
AcDbProxyObject
 90
      499
 91
      503
 93
      249
310
90D332F313622203D2031272D3022000000000000320FC000000000000284000
  0
ACAD_PROXY_OBJECT
  5
60
102
{ACAD_REACTORS
330
47
102
}
330
47
100
AcDbProxyObject
 90
      499
 91
      503
 93
      241
310
90C312F3422203D2031272D3022000000000000340FC000000000000284000
  0
ACAD_PROXY_OBJECT
  5
61
102
{ACAD_REACTORS
330
47
102
}
330
47
100
AcDbProxyObject
 90
      499
 91
      503
 93
      241
310
90C332F3822203D2031272D3022000000000000360FC000000000000284000
  0
ACAD_PROXY_OBJECT
  5
62
102
{ACAD_REACTORS
330
47
102
}
330
47
100
AcDbProxyObject
 90
      499
 91
      503
 93
      241
310
90C312F3222203D2031272D3022000000000000380FC000000000000284000
  0
ACAD_PROXY_OBJECT
  5
63
102
{ACAD_REACTORS
330
47
102
}
330
47
100
AcDbProxyObject
 90
      499
 91
      503
 93
      241
310
90C332F3422203D2031272D30220000000000003A0FC000000000000284000
  0
ACAD_PROXY_OBJECT
  5
64
102
{ACAD_REACTORS
330
47
102
}
330
47
100
AcDbProxyObject
 90
      499
 91
      503
 93
      161
310
90A3122203D2031272D30224000000000000284000
  0
ACAD_PROXY_OBJECT
  5
65
102
{ACAD_REACTORS
330
47
102
}
330
47
100
AcDbProxyObject
 90
      499
 91
      503
 93
      257
310
90E312D312F3222203D2031272D30220000000000003E0FC000000000000284000
  0
ACAD_PROXY_OBJECT
  5
66
102
{ACAD_REACTORS
330
47
102
}
330
47
100
AcDbProxyObject
 90
      499
 91
      503
 93
      225
310
90A3322203D2031272D302200000000000002100000000000000284000
  0
ACAD_PROXY_OBJECT
  5
67
102
{ACAD_REACTORS
330
47
102
}
330
47
100
AcDbProxyObject
 90
      499
 91
      503
 93
      225
310
90A3622203D2031272D302200000000000006100000000000000284000
  0
ACAD_PROXY_OBJECT
  5
68
102
{ACAD_REACTORS
330
47
102
}
330
47
100
AcDbProxyObject
 90
      499
 91
      503
 93
      249
310
90D31272D3022203D2031272D30220000000000000A100000000000000284000
  0
ACAD_PROXY_OBJECT
  5
2F
102
{ACAD_REACTORS
330
2A
102
}
330
2A
100
AcDbProxyObject
 90
      499
 91
      501
 93
      436
310
42CC9915DA5C99599C985B595049028333333333333E33F0000000000000F90107901411070040501600405405064090741402480A0340
1001
ACAD
1000
AcDbSavedByObjectVersion
1070
     0
  0
ACAD_PROXY_OBJECT
  5
32
102
{ACAD_REACTORS
330
2A
102
}
330
2A
100
AcDbProxyObject
 90
      499
 91
      501
 93
      388
310
4150985CDA58D07406404333333333333E33F0000000000000F90107A41107004050150841D405064090741402480A0350
1001
ACAD
1000
AcDbSavedByObjectVersion
1070
     0
  0
ACAD_PROXY_OBJECT
  5
36
102
{ACAD_REACTORS
330
2A
102
}
330
2A
100
AcDbProxyObject
 90
      499
 91
      501
 93
      428
310
42109C9A59DA1D195B90C409028333333333333E33F0000000000000F9010790141107004050150841D405064090741402480A029950
1001
ACAD
1000
AcDbSavedByObjectVersion
1070
     0
  0
ACAD_PROXY_OBJECT
  5
3A
102
{ACAD_REACTORS
330
2A
102
}
330
2A
100
AcDbProxyObject
 90
      499
 91
      501
 93
      452
310
42D0DBDB1BDC90DA185B99D95104090240C333333333333E33F0000000000000F90108901411070040501508421405064090741402480A0350
1001
ACAD
1000
AcDbSavedByObjectVersion
1070
     0
  0
ACAD_PROXY_OBJECT
  5
34
102
{ACAD_REACTORS
330
2A
102
}
330
2A
100
AcDbProxyObject
 90
      499
 91
      501
 93
      500
310
4290DBDB98D95C1D1D585B10940D028333333333333E33F0000000000000F90107902409070040501000000000018199010841D405064090740C02480A0340
1001
ACAD
1000
AcDbSavedByObjectVersion
1070
     0
  0
ACAD_PROXY_OBJECT
  5
35
102
{ACAD_REACTORS
330
2A
102
}
330
2A
100
AcDbProxyObject
 90
      499
 91
      501
 93
      412
310
40D11A5B50B409028333333333333E33F0000000000000F9010790141107004050150841D405064090741402480A02677FFFFFD0
1001
ACAD
1000
AcDbSavedByObjectVersion
1070
     0
  0
ACAD_PROXY_OBJECT
  5
3D
102
{ACAD_REACTORS
330
2A
102
}
330
2A
100
AcDbProxyObject
 90
      499
 91
      501
 93
      452
310
43115919D950DBDB1BDC93D999916409028333333333333E33F0000000000000F9010790141107004050150841D405064090741402480A0350
1001
ACAD
1000
AcDbSavedByObjectVersion
1070
     0
  0
ACAD_PROXY_OBJECT
  5
39
102
{ACAD_REACTORS
330
2A
102
}
330
2A
100
AcDbProxyObject
 90
      499
 91
      501
 93
      444
310
42D19858D95C185D1D195C9B90F409028333333333333E33F0000000000000F9010790141107004050150841D405064090741402480A0350
1001
ACAD
1000
AcDbSavedByObjectVersion
1070
     0
  0
ACAD_PROXY_OBJECT
  5
2B
102
{ACAD_REACTORS
330
2A
102
}
330
2A
100
AcDbProxyObject
 90
      499
 91
      501
 93
      380
310
41119B185D240901404333333333333E33F0000000000000F9010740A907004050150841D405064090741402480A1B50
1001
ACAD
1000
AcDbSavedByObjectVersion
1070
     0
  0
ACAD_PROXY_OBJECT
  5
2C
102
{ACAD_REACTORS
330
2A
102
}
330
2A
100
AcDbProxyObject
 90
      499
 91
      501
 93
      468
310
43519B185D15DA5D1A115919D95CD0140901404333333333333E33F0000000000000F90107409019070040501600405405064090741402480A1B50
1001
ACAD
1000
AcDbSavedByObjectVersion
1070
     0
  0
ACAD_PROXY_OBJECT
  5
2D
102
{ACAD_REACTORS
330
2A
102
}
330
2A
100
AcDbProxyObject
 90
      499
 91
      501
 93
      404
310
41D1DBDD5C985D5910240902404333333333333E33F0000000000000F9010740A9070040501641D405064090741402480A1B50
1001
ACAD
1000
AcDbSavedByObjectVersion
1070
     0
  0
ACAD_PROXY_OBJECT
  5
2E
102
{ACAD_REACTORS
330
2A
102
}
330
2A
100
AcDbProxyObject
 90
      499
 91
      501
 93
      492
310
4411DBDD5C985D5915DA5D1A115919D95CD0340902404333333333333E33F0000000000000F90107409019070040501600405405064090741402480A1B50
1001
ACAD
1000
AcDbSavedByObjectVersion
1070
     0
  0
ACAD_PROXY_OBJECT
  5
31
102
{ACAD_REACTORS
330
2A
102
}
330
2A
100
AcDbProxyObject
 90
      499
 91
      501
 93
      476
310
41921A5919195B90640502408333333333333E33F0000000000000F901079024090700405020000000000001110200405405064090740C02480A0340
1001
ACAD
1000
AcDbSavedByObjectVersion
1070
     0
  0
ACAD_PROXY_OBJECT
  5
3B
102
{ACAD_REACTORS
330
2A
102
}
330
2A
100
AcDbProxyObject
 90
      499
 91
      501
 93
      428
310
42529A5D1D195C93D999914409028333333333333E33F0000000000000F9010790141107004050150A41D405064090741402480A0350
1001
ACAD
1000
AcDbSavedByObjectVersion
1070
     0
  0
ACAD_PROXY_OBJECT
  5
38
102
{ACAD_REACTORS
330
2A
102
}
330
2A
100
AcDbProxyObject
 90
      499
 91
      501
 93
      444
310
42D31A5B995C185D1D195C9B90E409028333333333333E33F0000000000000F9010790141107004050750841D405064090741402483A0350
1001
ACAD
1000
AcDbSavedByObjectVersion
1070
     0
  0
ACAD_PROXY_OBJECT
  5
3C
102
{ACAD_REACTORS
330
2A
102
}
330
2A
100
AcDbProxyObject
 90
      499
 91
      501
 93
      444
310
42D3DD995C9A185B99D3D999915409028333333333333E33F0000000000000F9010790141107004050150941D405064090741402480A0350
1001
ACAD
1000
AcDbSavedByObjectVersion
1070
     0
  0
ACAD_PROXY_OBJECT
  5
33
102
{ACAD_REACTORS
330
2A
102
}
330
2A
100
AcDbProxyObject
 90
      499
 91
      501
 93
      428
310
425499585B1A5CDD1A58D08409038333333333333E33F0000000000000F9010740A907004050150800405405064090740C02480A1B40
1001
ACAD
1000
AcDbSavedByObjectVersion
1070
     0
  0
ACAD_PROXY_OBJECT
  5
42
102
{ACAD_REACTORS
330
2A
102
}
330
2A
100
AcDbProxyObject
 90
      499
 91
      501
 93
      420
310
4194DA1859195911B40902404333333333333E33F0000000000000F9010740A41107004050150800405405064090840C02480A0B40
1001
ACAD
1000
AcDbSavedByObjectVersion
1070
     0
  0
ACAD_PROXY_OBJECT
  5
41
102
{ACAD_REACTORS
330
2A
102
}
330
2A
100
AcDbProxyObject
 90
      499
 91
      501
 93
      516
310
4454DA18591959081DDA5D1A08195919D95CD1A40902404333333333333E33F0000000000000F901074090142907004050250800405405064090740C02480A0B40
1001
ACAD
1000
AcDbSavedByObjectVersion
1070
     0
  0
ACAD_PROXY_OBJECT
  5
3E
102
{ACAD_REACTORS
330
2A
102
}
330
2A
100
AcDbProxyObject
 90
      499
 91
      501
 93
      532
310
4394DA1859195CC81BD98811DC985E5174090240C333333333333E33F0000000000000F901079024090741D01000000000000111010841D405064090740C02480A0340
1001
ACAD
1000
AcDbSavedByObjectVersion
1070
     0
  0
ACAD_PROXY_OBJECT
  5
3F
102
{ACAD_REACTORS
330
2A
102
}
330
2A
100
AcDbProxyObject
 90
      499
 91
      501
 93
      476
310
41D4DAD95D18DA1E51840502408333333333333E33F0000000000000F901079024090741D01000000000000111010B41D405064090741802480A0340
1001
ACAD
1000
AcDbSavedByObjectVersion
1070
     0
  0
ACAD_PROXY_OBJECT
  5
37
102
{ACAD_REACTORS
330
2A
102
}
330
2A
100
AcDbProxyObject
 90
      499
 91
      501
 93
      412
310
41D51A1A58DAD95B90D409028333333333333E33F0000000000000F9010790141107004050150C41D405064090741402480A0350
1001
ACAD
1000
AcDbSavedByObjectVersion
1070
     0
  0
ACAD_PROXY_OBJECT
  5
30
102
{ACAD_REACTORS
330
2A
102
}
330
2A
100
AcDbProxyObject
 90
      499
 91
      501
 93
      420
310
4255DA5C99599C985B595059028333333333333E33F0000000000000F90107901411070040501600405405064090740C02480A0340
1001
ACAD
1000
AcDbSavedByObjectVersion
1070
     0
  0
ACAD_PROXY_OBJECT
  5
40
102
{ACAD_REACTORS
330
2A
102
}
330
2A
100
AcDbProxyObject
 90
      499
 91
      501
 93
      404
310
41560B54985E51940902404000000000000E03F0000000000000F9010740501907004050150841D405064090740C02480A1B40
1001
ACAD
1000
AcDbSavedByObjectVersion
1070
     0
  0
XRECORD
  5
494
102
{ACAD_REACTORS
330
48A
102
}
330
48A
100
AcDbXrecord
340
0
  0
XRECORD
  5
493
102
{ACAD_REACTORS
330
48A
102
}
330
48A
100
AcDbXrecord
 90
        0
  0
XRECORD
  5
4AA
102
{ACAD_REACTORS
330
48A
102
}
330
48A
100
AcDbXrecord
1000
DSTYLE
1002
{
1070
   340
340
11
1002
}
  0
XRECORD
  5
495
102
{ACAD_REACTORS
330
48A
102
}
330
48A
100
AcDbXrecord
  1
{3dd3985b-7a6d-417f-861d-85845704a1ae}
  0
XRECORD
  5
48D
102
{ACAD_REACTORS
330
48A
102
}
330
48A
100
AcDbXrecord
  1

  0
XRECORD
  5
492
102
{ACAD_REACTORS
330
48A
102
}
330
48A
100
AcDbXrecord
 90
        4
  0
XRECORD
  5
48F
102
{ACAD_REACTORS
330
48A
102
}
330
48A
100
AcDbXrecord
340
1A
  0
XRECORD
  5
491
102
{ACAD_REACTORS
330
48A
102
}
330
48A
100
AcDbXrecord
 90
    10781
  0
XRECORD
  5
490
102
{ACAD_REACTORS
330
48A
102
}
330
48A
100
AcDbXrecord
340
19
  0
XRECORD
  5
497
102
{ACAD_REACTORS
330
48A
102
}
330
48A
100
AcDbXrecord
 40
0.0
  0
XRECORD
  5
49A
102
{ACAD_REACTORS
330
48A
102
}
330
48A
100
AcDbXrecord
340
0
  0
XRECORD
  5
4A0
102
{ACAD_REACTORS
330
48A
102
}
330
48A
100
AcDbXrecord
 10
0.0
 20
0.0
 30
0.0
  0
XRECORD
  5
49C
102
{ACAD_REACTORS
330
48A
102
}
330
48A
100
AcDbXrecord
 10
0.0
 20
0.0
 30
0.0
  0
XRECORD
  5
49F
102
{ACAD_REACTORS
330
48A
102
}
330
48A
100
AcDbXrecord
 10
0.0
 20
0.0
 30
0.0
  0
XRECORD
  5
49D
102
{ACAD_REACTORS
330
48A
102
}
330
48A
100
AcDbXrecord
 10
0.0
 20
0.0
 30
0.0
  0
XRECORD
  5
49E
102
{ACAD_REACTORS
330
48A
102
}
330
48A
100
AcDbXrecord
 10
0.0
 20
0.0
 30
0.0
  0
XRECORD
  5
49B
102
{ACAD_REACTORS
330
48A
102
}
330
48A
100
AcDbXrecord
 10
0.0
 20
0.0
 30
0.0
  0
XRECORD
  5
498
102
{ACAD_REACTORS
330
48A
102
}
330
48A
100
AcDbXrecord
340
0
  0
XRECORD
  5
499
102
{ACAD_REACTORS
330
48A
102
}
330
48A
100
AcDbXrecord
 70
     0
  0
XRECORD
  5
48E
102
{ACAD_REACTORS
330
48A
102
}
330
48A
100
AcDbXrecord
  1

  0
XRECORD
  5
48B
102
{ACAD_REACTORS
330
48A
102
}
330
48A
100
AcDbXrecord
 90
        1
  0
XRECORD
  5
48C
102
{ACAD_REACTORS
330
48A
102
}
330
48A
100
AcDbXrecord
 90
       70
  0
XRECORD
  5
4A3
102
{ACAD_REACTORS
330
48A
102
}
330
48A
100
AcDbXrecord
340
0
  0
XRECORD
  5
4A9
102
{ACAD_REACTORS
330
48A
102
}
330
48A
100
AcDbXrecord
 10
0.0
 20
0.0
 30
0.0
  0
XRECORD
  5
4A5
102
{ACAD_REACTORS
330
48A
102
}
330
48A
100
AcDbXrecord
 10
0.0
 20
0.0
 30
0.0
  0
XRECORD
  5
4A8
102
{ACAD_REACTORS
330
48A
102
}
330
48A
100
AcDbXrecord
 10
0.0
 20
0.0
 30
0.0
  0
XRECORD
  5
4A6
102
{ACAD_REACTORS
330
48A
102
}
330
48A
100
AcDbXrecord
 10
0.0
 20
0.0
 30
0.0
  0
XRECORD
  5
4A7
102
{ACAD_REACTORS
330
48A
102
}
330
48A
100
AcDbXrecord
 10
0.0
 20
0.0
 30
0.0
  0
XRECORD
  5
4A4
102
{ACAD_REACTORS
330
48A
102
}
330
48A
100
AcDbXrecord
 10
0.0
 20
0.0
 30
0.0
  0
XRECORD
  5
4A1
102
{ACAD_REACTORS
330
48A
102
}
330
48A
100
AcDbXrecord
340
0
  0
XRECORD
  5
4A2
102
{ACAD_REACTORS
330
48A
102
}
330
48A
100
AcDbXrecord
 70
     0
  0
XRECORD
  5
496
102
{ACAD_REACTORS
330
48A
102
}
330
48A
100
AcDbXrecord
  1
{FAEB1C32-E019-11D5-929B-00C0DF256EC4}
  0
DICTIONARYVAR
  5
4B8
102
{ACAD_REACTORS
330
4AB
102
}
330
4AB
100
DictionaryVariables
280
     0
  1
1:1
  0
DICTIONARYVAR
  5
4B2
102
{ACAD_REACTORS
330
4AB
102
}
330
4AB
100
DictionaryVariables
280
     0
  1
3.500000
  0
DICTIONARYVAR
  5
4B3
102
{ACAD_REACTORS
330
4AB
102
}
330
4AB
100
DictionaryVariables
280
     0
  1
acadiso.lin
  0
DICTIONARYVAR
  5
4AD
102
{ACAD_REACTORS
330
4AB
102
}
330
4AB
100
DictionaryVariables
280
     0
  1
Standard
  0
DICTIONARYVAR
  5
4AC
102
{ACAD_REACTORS
330
4AB
102
}
330
4AB
100
DictionaryVariables
280
     0
  1
Standard
  0
DICTIONARYVAR
  5
4B4
102
{ACAD_REACTORS
330
4AB
102
}
330
4AB
100
DictionaryVariables
280
     0
  1
2
  0
DICTIONARYVAR
  5
4B5
102
{ACAD_REACTORS
330
4AB
102
}
330
4AB
100
DictionaryVariables
280
     0
  1
1
  0
DICTIONARYVAR
  5
4B9
102
{ACAD_REACTORS
330
4AB
102
}
330
4AB
100
DictionaryVariables
280
     0
  1
1
  0
DICTIONARYVAR
  5
4AF
102
{ACAD_REACTORS
330
4AB
102
}
330
4AB
100
DictionaryVariables
280
     0
  1
80.000000
  0
DICTIONARYVAR
  5
4AE
102
{ACAD_REACTORS
330
4AB
102
}
330
4AB
100
DictionaryVariables
280
     0
  1
5.000000
  0
DICTIONARY
  5
4BC
330
45
100
AcDbDictionary
280
     1
  3
ACAD_XREC_ROUNDTRIP
360
4BD
  0
DICTIONARY
  5
4BA
330
44
100
AcDbDictionary
280
     1
  3
ACAD_XREC_ROUNDTRIP
360
4BB
  0
DICTIONARY
  5
4BE
330
46
100
AcDbDictionary
280
     1
  3
ACAD_XREC_ROUNDTRIP
360
4BF
  0
XRECORD
  5
4BD
102
{ACAD_REACTORS
330
4BC
102
}
330
4BC
100
AcDbXrecord
102
MATERIAL
148
0.0
149
0.0
149
0.0
 93
        0
 94
      127
282
     0
 72
     1
 77
     1
171
     1
175
     1
179
     1
273
     0
  0
XRECORD
  5
4BB
102
{ACAD_REACTORS
330
4BA
102
}
330
4BA
100
AcDbXrecord
102
MATERIAL
148
0.0
149
0.0
149
0.0
 93
        0
 94
      127
282
     0
 72
     1
 77
     1
171
     1
175
     1
179
     1
273
     0
  0
XRECORD
  5
4BF
102
{ACAD_REACTORS
330
4BE
102
}
330
4BE
100
AcDbXrecord
102
MATERIAL
148
0.0
149
0.0
149
0.0
 93
        0
 94
      127
282
     0
 72
     1
 77
     1
171
     1
175
     1
179
     1
273
     0
  0
ENDSEC
  0
EOF
