  0
SECTION
  2
HEADER
  9
$ACADVER
  1
AC1014
  9
$ACADMAINTVER
 70
     9
  9
$DWGCODEPAGE
  3
ANSI_932
  9
$INSBASE
 10
0.0
 20
0.0
 30
0.0
  9
$EXTMIN
 10
75.0
 20
150.0
 30
0.0
  9
$EXTMAX
 10
5775.000000000001
 20
4200.0
 30
0.0
  9
$LIMMIN
 10
0.0
 20
0.0
  9
$LIMMAX
 10
420.0
 20
297.0
  9
$ORTHOMODE
 70
     0
  9
$REGENMODE
 70
     1
  9
$FILLMODE
 70
     1
  9
$QTEXTMODE
 70
     0
  9
$MIRRTEXT
 70
     1
  9
$DRAGMODE
 70
     2
  9
$LTSCALE
 40
0.2
  9
$OSMODE
 70
    37
  9
$ATTMODE
 70
     1
  9
$TEXTSIZE
 40
2.5
  9
$TRACEWID
 40
1.0
  9
$TEXTSTYLE
  7
STANDARD
  9
$CLAYER
  8
LAY-10
  9
$CELTYPE
  6
BYLAYER
  9
$CECOLOR
 62
   256
  9
$CELTSCALE
 40
1.0
  9
$DELOBJ
 70
     1
  9
$DISPSILH
 70
     0
  9
$DIMSCALE
 40
1.0
  9
$DIMASZ
 40
2.5
  9
$DIMEXO
 40
0.625
  9
$DIMDLI
 40
3.75
  9
$DIMRND
 40
0.0
  9
$DIMDLE
 40
0.0
  9
$DIMEXE
 40
1.25
  9
$DIMTP
 40
0.0
  9
$DIMTM
 40
0.0
  9
$DIMTXT
 40
2.5
  9
$DIMCEN
 40
2.5
  9
$DIMTSZ
 40
0.0
  9
$DIMTOL
 70
     0
  9
$DIMLIM
 70
     0
  9
$DIMTIH
 70
     0
  9
$DIMTOH
 70
     0
  9
$DIMSE1
 70
     0
  9
$DIMSE2
 70
     0
  9
$DIMTAD
 70
     1
  9
$DIMZIN
 70
     8
  9
$DIMBLK
  1

  9
$DIMASO
 70
     1
  9
$DIMSHO
 70
     1
  9
$DIMPOST
  1

  9
$DIMAPOST
  1

  9
$DIMALT
 70
     0
  9
$DIMALTD
 70
     3
  9
$DIMALTF
 40
0.03937007874016
  9
$DIMLFAC
 40
1.0
  9
$DIMTOFL
 70
     1
  9
$DIMTVP
 40
0.0
  9
$DIMTIX
 70
     0
  9
$DIMSOXD
 70
     0
  9
$DIMSAH
 70
     0
  9
$DIMBLK1
  1

  9
$DIMBLK2
  1

  9
$DIMSTYLE
  2
ISO-25
  9
$DIMCLRD
 70
     0
  9
$DIMCLRE
 70
     0
  9
$DIMCLRT
 70
     0
  9
$DIMTFAC
 40
1.0
  9
$DIMGAP
 40
0.625
  9
$DIMJUST
 70
     0
  9
$DIMSD1
 70
     0
  9
$DIMSD2
 70
     0
  9
$DIMTOLJ
 70
     0
  9
$DIMTZIN
 70
     8
  9
$DIMALTZ
 70
     0
  9
$DIMALTTZ
 70
     0
  9
$DIMFIT
 70
     3
  9
$DIMUPT
 70
     0
  9
$DIMUNIT
 70
     2
  9
$DIMDEC
 70
     2
  9
$DIMTDEC
 70
     2
  9
$DIMALTU
 70
     2
  9
$DIMALTTD
 70
     3
  9
$DIMTXSTY
  7
STANDARD
  9
$DIMAUNIT
 70
     0
  9
$LUNITS
 70
     2
  9
$LUPREC
 70
     4
  9
$SKETCHINC
 40
1.0
  9
$FILLETRAD
 40
10.0
  9
$AUNITS
 70
     0
  9
$AUPREC
 70
     0
  9
$MENU
  1
.
  9
$ELEVATION
 40
0.0
  9
$PELEVATION
 40
0.0
  9
$THICKNESS
 40
0.0
  9
$LIMCHECK
 70
     0
  9
$CHAMFERA
 40
0.0
  9
$CHAMFERB
 40
0.0
  9
$CHAMFERC
 40
0.0
  9
$CHAMFERD
 40
0.0
  9
$SKPOLY
 70
     0
  9
$TDCREATE
 40
2459229.335994479
  9
$TDUPDATE
 40
2459229.335995312
  9
$TDINDWG
 40
0.0000000116
  9
$TDUSRTIMER
 40
0.0000000116
  9
$USRTIMER
 70
     1
  9
$ANGBASE
 50
0.0
  9
$ANGDIR
 70
     0
  9
$PDMODE
 70
     0
  9
$PDSIZE
 40
0.0
  9
$PLINEWID
 40
0.0
  9
$COORDS
 70
     1
  9
$SPLFRAME
 70
     0
  9
$SPLINETYPE
 70
     6
  9
$SPLINESEGS
 70
     8
  9
$ATTDIA
 70
     0
  9
$ATTREQ
 70
     1
  9
$HANDLING
 70
     1
  9
$HANDSEED
  5
597
  9
$SURFTAB1
 70
     6
  9
$SURFTAB2
 70
     6
  9
$SURFTYPE
 70
     6
  9
$SURFU
 70
     6
  9
$SURFV
 70
     6
  9
$UCSNAME
  2

  9
$UCSORG
 10
0.0
 20
0.0
 30
0.0
  9
$UCSXDIR
 10
1.0
 20
0.0
 30
0.0
  9
$UCSYDIR
 10
0.0
 20
1.0
 30
0.0
  9
$PUCSNAME
  2

  9
$PUCSORG
 10
0.0
 20
0.0
 30
0.0
  9
$PUCSXDIR
 10
1.0
 20
0.0
 30
0.0
  9
$PUCSYDIR
 10
0.0
 20
1.0
 30
0.0
  9
$USERI1
 70
     0
  9
$USERI2
 70
     0
  9
$USERI3
 70
     0
  9
$USERI4
 70
     0
  9
$USERI5
 70
     0
  9
$USERR1
 40
0.0
  9
$USERR2
 40
0.0
  9
$USERR3
 40
0.0
  9
$USERR4
 40
0.0
  9
$USERR5
 40
0.0
  9
$WORLDVIEW
 70
     1
  9
$SHADEDGE
 70
     3
  9
$SHADEDIF
 70
    70
  9
$TILEMODE
 70
     1
  9
$MAXACTVP
 70
    64
  9
$PINSBASE
 10
0.0
 20
0.0
 30
0.0
  9
$PLIMCHECK
 70
     0
  9
$PEXTMIN
 10
1.000000000000000E+20
 20
1.000000000000000E+20
 30
1.000000000000000E+20
  9
$PEXTMAX
 10
-1.000000000000000E+20
 20
-1.000000000000000E+20
 30
-1.000000000000000E+20
  9
$PLIMMIN
 10
0.0
 20
0.0
  9
$PLIMMAX
 10
420.0
 20
297.0
  9
$UNITMODE
 70
     0
  9
$VISRETAIN
 70
     1
  9
$PLINEGEN
 70
     0
  9
$PSLTSCALE
 70
     1
  9
$TREEDEPTH
 70
  3020
  9
$PICKSTYLE
 70
     1
  9
$CMLSTYLE
  2
STANDARD
  9
$CMLJUST
 70
     0
  9
$CMLSCALE
 40
20.0
  9
$PROXYGRAPHICS
 70
     1
  9
$MEASUREMENT
 70
     1
  0
ENDSEC
  0
SECTION
  2
CLASSES
  0
CLASS
  1
ACDBDICTIONARYWDFLT
  2
AcDbDictionaryWithDefault
  3
ObjectDBX Classes
 90
        0
280
     0
281
     0
  0
CLASS
  1
VISUALSTYLE
  2
AcDbVisualStyle
  3
ObjectDBX Classes
 90
     4095
280
     0
281
     0
  0
CLASS
  1
MATERIAL
  2
AcDbMaterial
  3
ObjectDBX Classes
 90
     1153
280
     0
281
     0
  0
CLASS
  1
SCALE
  2
AcDbScale
  3
ObjectDBX Classes
 90
     1153
280
     0
281
     0
  0
CLASS
  1
TABLESTYLE
  2
AcDbTableStyle
  3
ObjectDBX Classes
 90
     4095
280
     0
281
     0
  0
CLASS
  1
MLEADERSTYLE
  2
AcDbMLeaderStyle
  3
ACDB_MLEADERSTYLE_CLASS
 90
     4095
280
     0
281
     0
  0
CLASS
  1
SUN
  2
AcDbSun
  3
SCENEOE
 90
     1153
280
     0
281
     0
  0
CLASS
  1
DICTIONARYVAR
  2
AcDbDictionaryVar
  3
ObjectDBX Classes
 90
        0
280
     0
281
     0
  0
CLASS
  1
XRECORD
  2
AcDbXrecord
  3
ObjectDBX Classes
 90
        0
280
     0
281
     0
  0
CLASS
  1
LWPOLYLINE
  2
AcDbPolyline
  3
ObjectDBX Classes
 90
        0
280
     0
281
     1
  0
CLASS
  1
HATCH
  2
AcDbHatch
  3
ObjectDBX Classes
 90
        0
280
     0
281
     1
  0
CLASS
  1
ACDBPLACEHOLDER
  2
AcDbPlaceHolder
  3
ObjectDBX Classes
 90
        0
280
     0
281
     0
  0
CLASS
  1
LAYOUT
  2
AcDbLayout
  3
ObjectDBX Classes
 90
        0
280
     0
281
     0
  0
ENDSEC
  0
SECTION
  2
TABLES
  0
TABLE
  2
VPORT
  5
8
102
{ACAD_XDICTIONARY
360
58C
102
}
330
0
100
AcDbSymbolTable
 70
     1
  0
VPORT
  5
29
330
8
100
AcDbSymbolTableRecord
100
AcDbViewportTableRecord
  2
*ACTIVE
 70
     0
 10
0.0
 20
0.0
 11
1.0
 21
1.0
 12
2925.0
 22
2175.0
 13
0.0
 23
0.0
 14
10.0
 24
10.0
 15
10.0
 25
10.0
 16
0.0
 26
0.0
 36
1.0
 17
0.0
 27
0.0
 37
0.0
 40
4050.0
 41
1.407407407407408
 42
50.0
 43
0.0
 44
0.0
 50
0.0
 51
0.0
 71
     0
 72
  1000
 73
     1
 74
     3
 75
     0
 76
     0
 77
     0
 78
     0
  0
ENDTAB
  0
TABLE
  2
LTYPE
  5
5
330
0
100
AcDbSymbolTable
 70
     6
  0
LTYPE
  5
14
330
5
100
AcDbSymbolTableRecord
100
AcDbLinetypeTableRecord
  2
BYBLOCK
 70
     0
  3

 72
    65
 73
     0
 40
0.0
  0
LTYPE
  5
15
330
5
100
AcDbSymbolTableRecord
100
AcDbLinetypeTableRecord
  2
BYLAYER
 70
     0
  3

 72
    65
 73
     0
 40
0.0
  0
LTYPE
  5
16
330
5
100
AcDbSymbolTableRecord
100
AcDbLinetypeTableRecord
  2
CONTINUOUS
 70
     0
  3
Solid line
 72
    65
 73
     0
 40
0.0
  0
LTYPE
  5
6E
330
5
100
AcDbSymbolTableRecord
100
AcDbLinetypeTableRecord
  2
HIDDEN
 70
     0
  3
Hidden __ __ __ __ __ __ __ __ __ __ __ __ __ __
 72
    65
 73
     2
 40
9.524999999999999
 49
6.35
 74
     0
 49
-3.175
 74
     0
  0
LTYPE
  5
6F
330
5
100
AcDbSymbolTableRecord
100
AcDbLinetypeTableRecord
  2
CENTER
 70
     0
  3
Center ____ _ ____ _ ____ _ ____ _ ____ _ ____
 72
    65
 73
     4
 40
50.8
 49
31.75
 74
     0
 49
-6.35
 74
     0
 49
6.35
 74
     0
 49
-6.35
 74
     0
  0
LTYPE
  5
70
330
5
100
AcDbSymbolTableRecord
100
AcDbLinetypeTableRecord
  2
PHANTOM
 70
     0
  3
Phantom ______  __  __  ______  __  __  ______ 
 72
    65
 73
     6
 40
63.50000000000001
 49
31.75
 74
     0
 49
-6.35
 74
     0
 49
6.35
 74
     0
 49
-6.35
 74
     0
 49
6.35
 74
     0
 49
-6.35
 74
     0
  0
LTYPE
  5
71
330
5
100
AcDbSymbolTableRecord
100
AcDbLinetypeTableRecord
  2
ACAD_ISO06W100
 70
     0
  3
ISO long-dash triple-dot ____ ... ____ ... ____
 72
    65
 73
     8
 40
36.0
 49
24.0
 74
     0
 49
-3.0
 74
     0
 49
0.0
 74
     0
 49
-3.0
 74
     0
 49
0.0
 74
     0
 49
-3.0
 74
     0
 49
0.0
 74
     0
 49
-3.0
 74
     0
  0
LTYPE
  5
72
330
5
100
AcDbSymbolTableRecord
100
AcDbLinetypeTableRecord
  2
ACAD_ISO15W100
 70
     0
  3
ISO double-dash triple-dot __ __ . . . __ __ . .
 72
    65
 73
    10
 40
39.0
 49
12.0
 74
     0
 49
-3.0
 74
     0
 49
12.0
 74
     0
 49
-3.0
 74
     0
 49
0.0
 74
     0
 49
-3.0
 74
     0
 49
0.0
 74
     0
 49
-3.0
 74
     0
 49
0.0
 74
     0
 49
-3.0
 74
     0
  0
ENDTAB
  0
TABLE
  2
LAYER
  5
2
330
0
100
AcDbSymbolTable
 70
     7
  0
LAYER
  5
10
330
2
100
AcDbSymbolTableRecord
100
AcDbLayerTableRecord
  2
0
 70
     0
 62
     7
  6
CONTINUOUS
  0
LAYER
  5
75
330
2
100
AcDbSymbolTableRecord
100
AcDbLayerTableRecord
  2
LAY-10
 70
     0
 62
     7
  6
CONTINUOUS
  0
LAYER
  5
76
330
2
100
AcDbSymbolTableRecord
100
AcDbLayerTableRecord
  2
LAY-11
 70
     0
 62
     7
  6
CONTINUOUS
  0
LAYER
  5
77
330
2
100
AcDbSymbolTableRecord
100
AcDbLayerTableRecord
  2
LAY-12
 70
     0
 62
     7
  6
CONTINUOUS
  0
LAYER
  5
78
330
2
100
AcDbSymbolTableRecord
100
AcDbLayerTableRecord
  2
LAY-20
 70
     0
 62
     7
  6
CONTINUOUS
  0
LAYER
  5
79
330
2
100
AcDbSymbolTableRecord
100
AcDbLayerTableRecord
  2
LAY-255
 70
     0
 62
     7
  6
CONTINUOUS
  0
LAYER
  5
491
330
2
100
AcDbSymbolTableRecord
100
AcDbLayerTableRecord
  2
DEFPOINTS
 70
     0
 62
     7
  6
CONTINUOUS
  0
ENDTAB
  0
TABLE
  2
STYLE
  5
3
330
0
100
AcDbSymbolTable
 70
     4
  0
STYLE
  5
11
330
3
100
AcDbSymbolTableRecord
100
AcDbTextStyleTableRecord
  2
STANDARD
 70
     0
 40
0.0
 41
1.0
 50
0.0
 71
     0
 42
2.5
  3
simplex
  4
bigfont
  0
STYLE
  5
73
330
3
100
AcDbSymbolTableRecord
100
AcDbTextStyleTableRecord
  2
EXCADSTD
 70
     0
 40
0.0
 41
1.0
 50
0.0
 71
     0
 42
2.5
  3
simplex
  4
bigfont
  0
STYLE
  5
74
330
3
100
AcDbSymbolTableRecord
100
AcDbTextStyleTableRecord
  2
EXCADVERT
 70
     4
 40
0.0
 41
1.0
 50
0.0
 71
     0
 42
2.5
  3
simplex
  4
bigfont
  0
STYLE
  5
48F
330
3
100
AcDbSymbolTableRecord
100
AcDbTextStyleTableRecord
  2
EXCADDIM1
 70
     0
 40
0.0
 41
0.84
 50
0.0
 71
     0
 42
2.5
  3
simplex
  4
bigfont
  0
ENDTAB
  0
TABLE
  2
VIEW
  5
6
330
0
100
AcDbSymbolTable
 70
     0
  0
ENDTAB
  0
TABLE
  2
UCS
  5
7
330
0
100
AcDbSymbolTable
 70
     0
  0
ENDTAB
  0
TABLE
  2
APPID
  5
9
330
0
100
AcDbSymbolTable
 70
     2
  0
APPID
  5
12
330
9
100
AcDbSymbolTableRecord
100
AcDbRegAppTableRecord
  2
ACAD
 70
     0
  0
APPID
  5
596
330
9
100
AcDbSymbolTableRecord
100
AcDbRegAppTableRecord
  2
ACAD_MLEADERVER
 70
     0
  0
ENDTAB
  0
TABLE
  2
DIMSTYLE
  5
A
330
0
100
AcDbSymbolTable
 70
     1
  0
DIMSTYLE
105
27
102
{ACAD_REACTORS
330
490
330
49E
330
4AA
330
4B7
330
4C3
330
4CE
330
4DA
330
4E8
330
4F5
330
501
330
50E
330
51B
330
528
102
}
330
A
100
AcDbSymbolTableRecord
100
AcDbDimStyleTableRecord
  2
ISO-25
 70
     0
  3

  4

  5

  6

  7

 40
1.0
 41
2.5
 42
0.625
 43
3.75
 44
1.25
 45
0.0
 46
0.0
 47
0.0
 48
0.0
140
2.5
141
2.5
142
0.0
143
0.03937007874016
144
1.0
145
0.0
146
1.0
147
0.625
 71
     0
 72
     0
 73
     0
 74
     0
 75
     0
 76
     0
 77
     1
 78
     8
170
     0
171
     3
172
     1
173
     0
174
     0
175
     0
176
     0
177
     0
178
     0
270
     2
271
     2
272
     2
273
     2
274
     3
340
11
275
     0
280
     0
281
     0
282
     0
283
     0
284
     8
285
     0
286
     0
287
     5
288
     0
  0
ENDTAB
  0
TABLE
  2
BLOCK_RECORD
  5
1
330
0
100
AcDbSymbolTable
 70
    27
  0
BLOCK_RECORD
  5
1F
330
1
100
AcDbSymbolTableRecord
100
AcDbBlockTableRecord
  2
*MODEL_SPACE
  0
BLOCK_RECORD
  5
1B
330
1
100
AcDbSymbolTableRecord
100
AcDbBlockTableRecord
  2
*PAPER_SPACE
  0
BLOCK_RECORD
  5
7A
330
1
100
AcDbSymbolTableRecord
100
AcDbBlockTableRecord
  2
EX_NORM
  0
BLOCK_RECORD
  5
7D
330
1
100
AcDbSymbolTableRecord
100
AcDbBlockTableRecord
  2
EX_BNORM
  0
BLOCK_RECORD
  5
80
330
1
100
AcDbSymbolTableRecord
100
AcDbBlockTableRecord
  2
EX_BCIR
  0
BLOCK_RECORD
  5
83
330
1
100
AcDbSymbolTableRecord
100
AcDbBlockTableRecord
  2
EX_RCIVIL
  0
BLOCK_RECORD
  5
86
330
1
100
AcDbSymbolTableRecord
100
AcDbBlockTableRecord
  2
EX_SLANT
  0
BLOCK_RECORD
  5
89
330
1
100
AcDbSymbolTableRecord
100
AcDbBlockTableRecord
  2
EX_NONE
  0
BLOCK_RECORD
  5
8C
330
1
100
AcDbSymbolTableRecord
100
AcDbBlockTableRecord
  2
EX_CIVIL
  0
BLOCK_RECORD
  5
8F
330
1
100
AcDbSymbolTableRecord
100
AcDbBlockTableRecord
  2
EX_WCIR
  0
BLOCK_RECORD
  5
92
330
1
100
AcDbSymbolTableRecord
100
AcDbBlockTableRecord
  2
EX_WCIR2
  0
BLOCK_RECORD
  5
95
330
1
100
AcDbSymbolTableRecord
100
AcDbBlockTableRecord
  2
EX_WNORM
  0
BLOCK_RECORD
  5
98
330
1
100
AcDbSymbolTableRecord
100
AcDbBlockTableRecord
  2
EX_NNORM
  0
BLOCK_RECORD
  5
9B
330
1
100
AcDbSymbolTableRecord
100
AcDbBlockTableRecord
  2
EX_BBOX
  0
BLOCK_RECORD
  5
9E
330
1
100
AcDbSymbolTableRecord
100
AcDbBlockTableRecord
  2
EX_WBOX
  0
BLOCK_RECORD
  5
A1
330
1
100
AcDbSymbolTableRecord
100
AcDbBlockTableRecord
  2
EX_INTEGRAL
  0
BLOCK_RECORD
  5
492
330
1
100
AcDbSymbolTableRecord
100
AcDbBlockTableRecord
  2
*D15
  0
BLOCK_RECORD
  5
49F
330
1
100
AcDbSymbolTableRecord
100
AcDbBlockTableRecord
  2
*D16
  0
BLOCK_RECORD
  5
4AB
330
1
100
AcDbSymbolTableRecord
100
AcDbBlockTableRecord
  2
*D17
  0
BLOCK_RECORD
  5
4B8
330
1
100
AcDbSymbolTableRecord
100
AcDbBlockTableRecord
  2
*D18
  0
BLOCK_RECORD
  5
4C4
330
1
100
AcDbSymbolTableRecord
100
AcDbBlockTableRecord
  2
*D19
  0
BLOCK_RECORD
  5
4CF
330
1
100
AcDbSymbolTableRecord
100
AcDbBlockTableRecord
  2
*D20
  0
BLOCK_RECORD
  5
4DB
330
1
100
AcDbSymbolTableRecord
100
AcDbBlockTableRecord
  2
*D21
  0
BLOCK_RECORD
  5
4E9
330
1
100
AcDbSymbolTableRecord
100
AcDbBlockTableRecord
  2
*D22
  0
BLOCK_RECORD
  5
4F6
330
1
100
AcDbSymbolTableRecord
100
AcDbBlockTableRecord
  2
*D23
  0
BLOCK_RECORD
  5
502
330
1
100
AcDbSymbolTableRecord
100
AcDbBlockTableRecord
  2
*D24
  0
BLOCK_RECORD
  5
50F
330
1
100
AcDbSymbolTableRecord
100
AcDbBlockTableRecord
  2
*D25
  0
BLOCK_RECORD
  5
51C
330
1
100
AcDbSymbolTableRecord
100
AcDbBlockTableRecord
  2
*D26
  0
BLOCK_RECORD
  5
529
330
1
100
AcDbSymbolTableRecord
100
AcDbBlockTableRecord
  2
*D27
  0
ENDTAB
  0
ENDSEC
  0
SECTION
  2
BLOCKS
  0
BLOCK
  5
20
330
1F
100
AcDbEntity
  8
0
100
AcDbBlockBegin
  2
*MODEL_SPACE
 70
     0
 10
0.0
 20
0.0
 30
0.0
  3
*MODEL_SPACE
  1

  0
ENDBLK
  5
21
330
1F
100
AcDbEntity
  8
0
100
AcDbBlockEnd
  0
BLOCK
  5
1C
330
1B
100
AcDbEntity
 67
     1
  8
0
100
AcDbBlockBegin
  2
*PAPER_SPACE
 70
     0
 10
0.0
 20
0.0
 30
0.0
  3
*PAPER_SPACE
  1

  0
ENDBLK
  5
1D
330
1B
100
AcDbEntity
 67
     1
  8
0
100
AcDbBlockEnd
  0
BLOCK
  5
7B
330
7A
100
AcDbEntity
  8
0
100
AcDbBlockBegin
  2
EX_NORM
 70
     0
 10
0.0
 20
0.0
 30
0.0
  3
EX_NORM
  1

  0
LINE
  5
A4
330
7A
100
AcDbEntity
  8
0
  6
CONTINUOUS
 62
     0
100
AcDbLine
 10
0.0
 20
0.0
 30
0.0
 11
-1.0
 21
0.0
 31
0.0
  0
LINE
  5
A5
330
7A
100
AcDbEntity
  8
0
  6
CONTINUOUS
 62
     0
100
AcDbLine
 10
0.0
 20
0.0
 30
0.0
 11
-1.0
 21
0.166666667
 31
0.0
  0
LINE
  5
A6
330
7A
100
AcDbEntity
  8
0
  6
CONTINUOUS
 62
     0
100
AcDbLine
 10
0.0
 20
0.0
 30
0.0
 11
-1.0
 21
-0.166666667
 31
0.0
  0
ENDBLK
  5
7C
330
7A
100
AcDbEntity
  8
0
100
AcDbBlockEnd
  0
BLOCK
  5
7E
330
7D
100
AcDbEntity
  8
0
100
AcDbBlockBegin
  2
EX_BNORM
 70
     0
 10
0.0
 20
0.0
 30
0.0
  3
EX_BNORM
  1

  0
LINE
  5
A7
330
7D
100
AcDbEntity
  8
0
  6
CONTINUOUS
 62
     0
100
AcDbLine
 10
0.0
 20
0.0
 30
0.0
 11
-1.0
 21
0.0
 31
0.0
  0
LINE
  5
A8
330
7D
100
AcDbEntity
  8
0
  6
CONTINUOUS
 62
     0
100
AcDbLine
 10
0.0
 20
0.0
 30
0.0
 11
-1.0
 21
0.166666667
 31
0.0
  0
LINE
  5
A9
330
7D
100
AcDbEntity
  8
0
  6
CONTINUOUS
 62
     0
100
AcDbLine
 10
0.0
 20
0.0
 30
0.0
 11
-1.0
 21
-0.166666667
 31
0.0
  0
LINE
  5
AA
330
7D
100
AcDbEntity
  8
0
  6
CONTINUOUS
 62
     0
100
AcDbLine
 10
0.0
 20
0.0
 30
0.0
 11
-1.0
 21
0.083333333
 31
0.0
  0
LINE
  5
AB
330
7D
100
AcDbEntity
  8
0
  6
CONTINUOUS
 62
     0
100
AcDbLine
 10
0.0
 20
0.0
 30
0.0
 11
-1.0
 21
-0.083333333
 31
0.0
  0
LINE
  5
AC
330
7D
100
AcDbEntity
  8
0
  6
CONTINUOUS
 62
     0
100
AcDbLine
 10
-1.0
 20
0.166666667
 30
0.0
 11
-1.0
 21
-0.166666667
 31
0.0
  0
ENDBLK
  5
7F
330
7D
100
AcDbEntity
  8
0
100
AcDbBlockEnd
  0
BLOCK
  5
81
330
80
100
AcDbEntity
  8
0
100
AcDbBlockBegin
  2
EX_BCIR
 70
     0
 10
0.0
 20
0.0
 30
0.0
  3
EX_BCIR
  1

  0
LINE
  5
AD
330
80
100
AcDbEntity
  8
0
  6
CONTINUOUS
 62
     0
100
AcDbLine
 10
0.0
 20
0.0
 30
0.0
 11
-1.0
 21
0.0
 31
0.0
  0
CIRCLE
  5
AE
330
80
100
AcDbEntity
  8
0
  6
CONTINUOUS
 62
     0
100
AcDbCircle
 10
0.0
 20
0.0
 30
0.0
 40
0.5
  0
CIRCLE
  5
AF
330
80
100
AcDbEntity
  8
0
  6
CONTINUOUS
 62
     0
100
AcDbCircle
 10
0.0
 20
0.0
 30
0.0
 40
0.25
  0
ENDBLK
  5
82
330
80
100
AcDbEntity
  8
0
100
AcDbBlockEnd
  0
BLOCK
  5
84
330
83
100
AcDbEntity
  8
0
100
AcDbBlockBegin
  2
EX_RCIVIL
 70
     0
 10
0.0
 20
0.0
 30
0.0
  3
EX_RCIVIL
  1

  0
LINE
  5
B0
330
83
100
AcDbEntity
  8
0
  6
CONTINUOUS
 62
     0
100
AcDbLine
 10
0.0
 20
0.0
 30
0.0
 11
-1.0
 21
0.0
 31
0.0
  0
LINE
  5
B1
330
83
100
AcDbEntity
  8
0
  6
CONTINUOUS
 62
     0
100
AcDbLine
 10
-1.0
 20
-0.25
 30
0.0
 11
0.0
 21
-0.25
 31
0.0
  0
LINE
  5
B2
330
83
100
AcDbEntity
  8
0
  6
CONTINUOUS
 62
     0
100
AcDbLine
 10
-1.0
 20
-0.125
 30
0.0
 11
0.0
 21
-0.125
 31
0.0
  0
ENDBLK
  5
85
330
83
100
AcDbEntity
  8
0
100
AcDbBlockEnd
  0
BLOCK
  5
87
330
86
100
AcDbEntity
  8
0
100
AcDbBlockBegin
  2
EX_SLANT
 70
     0
 10
0.0
 20
0.0
 30
0.0
  3
EX_SLANT
  1

  0
LINE
  5
B3
330
86
100
AcDbEntity
  8
0
  6
CONTINUOUS
 62
     0
100
AcDbLine
 10
0.0
 20
0.0
 30
0.0
 11
-1.0
 21
0.0
 31
0.0
  0
LINE
  5
B4
330
86
100
AcDbEntity
  8
0
  6
CONTINUOUS
 62
     0
100
AcDbLine
 10
0.707106781
 20
0.707106781
 30
0.0
 11
-0.707106781
 21
-0.707106781
 31
0.0
  0
ENDBLK
  5
88
330
86
100
AcDbEntity
  8
0
100
AcDbBlockEnd
  0
BLOCK
  5
8A
330
89
100
AcDbEntity
  8
0
100
AcDbBlockBegin
  2
EX_NONE
 70
     0
 10
0.0
 20
0.0
 30
0.0
  3
EX_NONE
  1

  0
LINE
  5
B5
330
89
100
AcDbEntity
  8
0
  6
CONTINUOUS
 62
     0
100
AcDbLine
 10
0.0
 20
0.0
 30
0.0
 11
-1.0
 21
0.0
 31
0.0
  0
ENDBLK
  5
8B
330
89
100
AcDbEntity
  8
0
100
AcDbBlockEnd
  0
BLOCK
  5
8D
330
8C
100
AcDbEntity
  8
0
100
AcDbBlockBegin
  2
EX_CIVIL
 70
     0
 10
0.0
 20
0.0
 30
0.0
  3
EX_CIVIL
  1

  0
LINE
  5
B6
330
8C
100
AcDbEntity
  8
0
  6
CONTINUOUS
 62
     0
100
AcDbLine
 10
0.0
 20
0.0
 30
0.0
 11
-1.0
 21
0.0
 31
0.0
  0
LINE
  5
B7
330
8C
100
AcDbEntity
  8
0
  6
CONTINUOUS
 62
     0
100
AcDbLine
 10
-1.0
 20
0.25
 30
0.0
 11
0.0
 21
0.25
 31
0.0
  0
LINE
  5
B8
330
8C
100
AcDbEntity
  8
0
  6
CONTINUOUS
 62
     0
100
AcDbLine
 10
-1.0
 20
0.125
 30
0.0
 11
0.0
 21
0.125
 31
0.0
  0
ENDBLK
  5
8E
330
8C
100
AcDbEntity
  8
0
100
AcDbBlockEnd
  0
BLOCK
  5
90
330
8F
100
AcDbEntity
  8
0
100
AcDbBlockBegin
  2
EX_WCIR
 70
     0
 10
0.0
 20
0.0
 30
0.0
  3
EX_WCIR
  1

  0
LINE
  5
B9
330
8F
100
AcDbEntity
  8
0
  6
CONTINUOUS
 62
     0
100
AcDbLine
 10
0.0
 20
0.0
 30
0.0
 11
-1.0
 21
0.0
 31
0.0
  0
CIRCLE
  5
BA
330
8F
100
AcDbEntity
  8
0
  6
CONTINUOUS
 62
     0
100
AcDbCircle
 10
0.0
 20
0.0
 30
0.0
 40
0.5
  0
ENDBLK
  5
91
330
8F
100
AcDbEntity
  8
0
100
AcDbBlockEnd
  0
BLOCK
  5
93
330
92
100
AcDbEntity
  8
0
100
AcDbBlockBegin
  2
EX_WCIR2
 70
     0
 10
0.0
 20
0.0
 30
0.0
  3
EX_WCIR2
  1

  0
LINE
  5
BB
330
92
100
AcDbEntity
  8
0
  6
CONTINUOUS
 62
     0
100
AcDbLine
 10
-0.5
 20
0.0
 30
0.0
 11
-1.0
 21
0.0
 31
0.0
  0
CIRCLE
  5
BC
330
92
100
AcDbEntity
  8
0
  6
CONTINUOUS
 62
     0
100
AcDbCircle
 10
0.0
 20
0.0
 30
0.0
 40
0.5
  0
ENDBLK
  5
94
330
92
100
AcDbEntity
  8
0
100
AcDbBlockEnd
  0
BLOCK
  5
96
330
95
100
AcDbEntity
  8
0
100
AcDbBlockBegin
  2
EX_WNORM
 70
     0
 10
0.0
 20
0.0
 30
0.0
  3
EX_WNORM
  1

  0
LINE
  5
BD
330
95
100
AcDbEntity
  8
0
  6
CONTINUOUS
 62
     0
100
AcDbLine
 10
-1.0
 20
0.0
 30
0.0
 11
-1.0
 21
0.0
 31
0.0
  0
LINE
  5
BE
330
95
100
AcDbEntity
  8
0
  6
CONTINUOUS
 62
     0
100
AcDbLine
 10
0.0
 20
0.0
 30
0.0
 11
-1.0
 21
0.166666667
 31
0.0
  0
LINE
  5
BF
330
95
100
AcDbEntity
  8
0
  6
CONTINUOUS
 62
     0
100
AcDbLine
 10
0.0
 20
0.0
 30
0.0
 11
-1.0
 21
-0.166666667
 31
0.0
  0
LINE
  5
C0
330
95
100
AcDbEntity
  8
0
  6
CONTINUOUS
 62
     0
100
AcDbLine
 10
-1.0
 20
0.166666667
 30
0.0
 11
-1.0
 21
-0.166666667
 31
0.0
  0
ENDBLK
  5
97
330
95
100
AcDbEntity
  8
0
100
AcDbBlockEnd
  0
BLOCK
  5
99
330
98
100
AcDbEntity
  8
0
100
AcDbBlockBegin
  2
EX_NNORM
 70
     0
 10
0.0
 20
0.0
 30
0.0
  3
EX_NNORM
  1

  0
LINE
  5
C1
330
98
100
AcDbEntity
  8
0
  6
CONTINUOUS
 62
     0
100
AcDbLine
 10
0.0
 20
0.0
 30
0.0
 11
-1.0
 21
0.0
 31
0.0
  0
LINE
  5
C2
330
98
100
AcDbEntity
  8
0
  6
CONTINUOUS
 62
     0
100
AcDbLine
 10
0.0
 20
0.0
 30
0.0
 11
-1.0
 21
0.166666667
 31
0.0
  0
LINE
  5
C3
330
98
100
AcDbEntity
  8
0
  6
CONTINUOUS
 62
     0
100
AcDbLine
 10
0.0
 20
0.0
 30
0.0
 11
-1.0
 21
-0.166666667
 31
0.0
  0
LINE
  5
C4
330
98
100
AcDbEntity
  8
0
  6
CONTINUOUS
 62
     0
100
AcDbLine
 10
-1.0
 20
0.166666667
 30
0.0
 11
-1.0
 21
-0.166666667
 31
0.0
  0
ENDBLK
  5
9A
330
98
100
AcDbEntity
  8
0
100
AcDbBlockEnd
  0
BLOCK
  5
9C
330
9B
100
AcDbEntity
  8
0
100
AcDbBlockBegin
  2
EX_BBOX
 70
     0
 10
0.0
 20
0.0
 30
0.0
  3
EX_BBOX
  1

  0
LINE
  5
C5
330
9B
100
AcDbEntity
  8
0
  6
CONTINUOUS
 62
     0
100
AcDbLine
 10
0.0
 20
0.0
 30
0.0
 11
-1.0
 21
0.0
 31
0.0
  0
LINE
  5
C6
330
9B
100
AcDbEntity
  8
0
  6
CONTINUOUS
 62
     0
100
AcDbLine
 10
-0.5
 20
0.5
 30
0.0
 11
0.5
 21
0.5
 31
0.0
  0
LINE
  5
C7
330
9B
100
AcDbEntity
  8
0
  6
CONTINUOUS
 62
     0
100
AcDbLine
 10
0.5
 20
0.5
 30
0.0
 11
0.5
 21
-0.5
 31
0.0
  0
LINE
  5
C8
330
9B
100
AcDbEntity
  8
0
  6
CONTINUOUS
 62
     0
100
AcDbLine
 10
0.5
 20
-0.5
 30
0.0
 11
-0.5
 21
-0.5
 31
0.0
  0
LINE
  5
C9
330
9B
100
AcDbEntity
  8
0
  6
CONTINUOUS
 62
     0
100
AcDbLine
 10
-0.5
 20
-0.5
 30
0.0
 11
-0.5
 21
0.5
 31
0.0
  0
LINE
  5
CA
330
9B
100
AcDbEntity
  8
0
  6
CONTINUOUS
 62
     0
100
AcDbLine
 10
-0.25
 20
0.25
 30
0.0
 11
0.25
 21
0.25
 31
0.0
  0
LINE
  5
CB
330
9B
100
AcDbEntity
  8
0
  6
CONTINUOUS
 62
     0
100
AcDbLine
 10
0.25
 20
0.25
 30
0.0
 11
0.25
 21
-0.25
 31
0.0
  0
LINE
  5
CC
330
9B
100
AcDbEntity
  8
0
  6
CONTINUOUS
 62
     0
100
AcDbLine
 10
0.25
 20
-0.25
 30
0.0
 11
-0.25
 21
-0.25
 31
0.0
  0
LINE
  5
CD
330
9B
100
AcDbEntity
  8
0
  6
CONTINUOUS
 62
     0
100
AcDbLine
 10
-0.25
 20
-0.25
 30
0.0
 11
-0.25
 21
0.25
 31
0.0
  0
ENDBLK
  5
9D
330
9B
100
AcDbEntity
  8
0
100
AcDbBlockEnd
  0
BLOCK
  5
9F
330
9E
100
AcDbEntity
  8
0
100
AcDbBlockBegin
  2
EX_WBOX
 70
     0
 10
0.0
 20
0.0
 30
0.0
  3
EX_WBOX
  1

  0
LINE
  5
CE
330
9E
100
AcDbEntity
  8
0
  6
CONTINUOUS
 62
     0
100
AcDbLine
 10
-0.5
 20
0.0
 30
0.0
 11
-1.0
 21
0.0
 31
0.0
  0
LINE
  5
CF
330
9E
100
AcDbEntity
  8
0
  6
CONTINUOUS
 62
     0
100
AcDbLine
 10
-0.5
 20
0.5
 30
0.0
 11
0.5
 21
0.5
 31
0.0
  0
LINE
  5
D0
330
9E
100
AcDbEntity
  8
0
  6
CONTINUOUS
 62
     0
100
AcDbLine
 10
0.5
 20
0.5
 30
0.0
 11
0.5
 21
-0.5
 31
0.0
  0
LINE
  5
D1
330
9E
100
AcDbEntity
  8
0
  6
CONTINUOUS
 62
     0
100
AcDbLine
 10
0.5
 20
-0.5
 30
0.0
 11
-0.5
 21
-0.5
 31
0.0
  0
LINE
  5
D2
330
9E
100
AcDbEntity
  8
0
  6
CONTINUOUS
 62
     0
100
AcDbLine
 10
-0.5
 20
-0.5
 30
0.0
 11
-0.5
 21
0.5
 31
0.0
  0
ENDBLK
  5
A0
330
9E
100
AcDbEntity
  8
0
100
AcDbBlockEnd
  0
BLOCK
  5
A2
330
A1
100
AcDbEntity
  8
0
100
AcDbBlockBegin
  2
EX_INTEGRAL
 70
     0
 10
0.0
 20
0.0
 30
0.0
  3
EX_INTEGRAL
  1

  0
LINE
  5
D3
330
A1
100
AcDbEntity
  8
0
  6
CONTINUOUS
 62
     0
100
AcDbLine
 10
0.0
 20
0.0
 30
0.0
 11
-1.0
 21
0.0
 31
0.0
  0
ARC
  5
D4
330
A1
100
AcDbEntity
  8
0
  6
CONTINUOUS
 62
     0
100
AcDbCircle
 10
0.542115
 20
0.164992
 30
0.0
 40
0.56667
100
AcDbArc
 50
73.07249033629006
 51
196.9275130221199
  0
ARC
  5
D5
330
A1
100
AcDbEntity
  8
0
  6
CONTINUOUS
 62
     0
100
AcDbCircle
 10
-0.542115
 20
-0.164992
 30
0.0
 40
0.56667
100
AcDbArc
 50
253.0724869220464
 51
16.9275130559125
  0
ENDBLK
  5
A3
330
A1
100
AcDbEntity
  8
0
100
AcDbBlockEnd
  0
BLOCK
  5
493
330
492
100
AcDbEntity
  8
0
100
AcDbBlockBegin
  2
*D15
 70
     1
 10
0.0
 20
0.0
 30
0.0
  3
*D15
  1

  0
LINE
  5
495
330
492
100
AcDbEntity
  8
LAY-20
  6
CONTINUOUS
 62
     4
100
AcDbLine
 10
2232.0
 20
3539.9
 30
0.0
 11
2232.0
 21
3683.5
 31
0.0
  0
LINE
  5
496
330
492
100
AcDbEntity
  8
LAY-20
  6
CONTINUOUS
 62
     4
100
AcDbLine
 10
1732.0
 20
3560.459867039399
 30
0.0
 11
1732.0
 21
3683.5
 31
0.0
  0
LINE
  5
497
330
492
100
AcDbEntity
  8
LAY-20
  6
CONTINUOUS
 62
     4
100
AcDbLine
 10
2194.500003814697
 20
3661.0
 30
0.0
 11
1769.499996185302
 21
3661.0
 31
0.0
  0
INSERT
  5
498
330
492
100
AcDbEntity
  8
LAY-20
 62
     4
100
AcDbBlockReference
  2
EX_BNORM
 10
2232.0
 20
3661.0
 30
0.0
 41
37.49999618530273
 42
37.49999618530273
 43
37.49999618530273
  0
INSERT
  5
499
330
492
100
AcDbEntity
  8
LAY-20
 62
     4
100
AcDbBlockReference
  2
EX_BNORM
 10
1732.0
 20
3661.0
 30
0.0
 41
37.49999618530273
 42
37.49999618530273
 43
37.49999618530273
 50
180.0
  0
MTEXT
  5
49A
330
492
100
AcDbEntity
  8
LAY-20
 62
     7
100
AcDbMText
 10
1982.0
 20
3698.5
 30
0.0
 40
46.77165302633819
 41
0.0
 71
     5
 72
     1
  1
500
  7
EXCADDIM1
  0
POINT
  5
49B
330
492
100
AcDbEntity
  8
DEFPOINTS
 62
     0
100
AcDbPoint
 10
2232.0
 20
3517.4
 30
0.0
  0
POINT
  5
49C
330
492
100
AcDbEntity
  8
DEFPOINTS
 62
     0
100
AcDbPoint
 10
1732.0
 20
3537.959867039399
 30
0.0
  0
POINT
  5
49D
330
492
100
AcDbEntity
  8
DEFPOINTS
 62
     0
100
AcDbPoint
 10
1732.0
 20
3661.0
 30
0.0
  0
ENDBLK
  5
494
330
492
100
AcDbEntity
  8
0
100
AcDbBlockEnd
  0
BLOCK
  5
4A0
330
49F
100
AcDbEntity
  8
0
100
AcDbBlockBegin
  2
*D16
 70
     1
 10
0.0
 20
0.0
 30
0.0
  3
*D16
  1

  0
LINE
  5
4A2
330
49F
100
AcDbEntity
  8
LAY-20
  6
CONTINUOUS
 62
     4
100
AcDbLine
 10
1232.0
 20
3539.9
 30
0.0
 11
1232.0
 21
3683.5
 31
0.0
  0
LINE
  5
4A3
330
49F
100
AcDbEntity
  8
LAY-20
  6
CONTINUOUS
 62
     4
100
AcDbLine
 10
1269.499996185302
 20
3661.0
 30
0.0
 11
1694.500003814697
 21
3661.0
 31
0.0
  0
INSERT
  5
4A4
330
49F
100
AcDbEntity
  8
LAY-20
 62
     4
100
AcDbBlockReference
  2
EX_BNORM
 10
1232.0
 20
3661.0
 30
0.0
 41
37.49999618530273
 42
37.49999618530273
 43
37.49999618530273
 50
180.0
  0
INSERT
  5
4A5
330
49F
100
AcDbEntity
  8
LAY-20
 62
     4
100
AcDbBlockReference
  2
EX_BNORM
 10
1732.0
 20
3661.0
 30
0.0
 41
37.49999618530273
 42
37.49999618530273
 43
37.49999618530273
  0
MTEXT
  5
4A6
330
49F
100
AcDbEntity
  8
LAY-20
 62
     7
100
AcDbMText
 10
1482.0
 20
3698.5
 30
0.0
 40
46.77165302633819
 41
0.0
 71
     5
 72
     1
  1
500
  7
EXCADDIM1
  0
POINT
  5
4A7
330
49F
100
AcDbEntity
  8
DEFPOINTS
 62
     0
100
AcDbPoint
 10
1232.0
 20
3517.4
 30
0.0
  0
POINT
  5
4A8
330
49F
100
AcDbEntity
  8
DEFPOINTS
 62
     0
100
AcDbPoint
 10
1732.0
 20
3661.0
 30
0.0
  0
POINT
  5
4A9
330
49F
100
AcDbEntity
  8
DEFPOINTS
 62
     0
100
AcDbPoint
 10
1732.0
 20
3661.0
 30
0.0
  0
ENDBLK
  5
4A1
330
49F
100
AcDbEntity
  8
0
100
AcDbBlockEnd
  0
BLOCK
  5
4AC
330
4AB
100
AcDbEntity
  8
0
100
AcDbBlockBegin
  2
*D17
 70
     1
 10
0.0
 20
0.0
 30
0.0
  3
*D17
  1

  0
LINE
  5
4AE
330
4AB
100
AcDbEntity
  8
LAY-20
  6
CONTINUOUS
 62
     4
100
AcDbLine
 10
2501.5
 20
1284.999999999999
 30
0.0
 11
2756.5
 21
1284.999999999999
 31
0.0
  0
LINE
  5
4AF
330
4AB
100
AcDbEntity
  8
LAY-20
  6
CONTINUOUS
 62
     4
100
AcDbLine
 10
2454.5
 20
1125.0
 30
0.0
 11
2756.5
 21
1125.0
 31
0.0
  0
LINE
  5
4B0
330
4AB
100
AcDbEntity
  8
LAY-20
  6
CONTINUOUS
 62
     4
100
AcDbLine
 10
2734.0
 20
1247.500003814697
 30
0.0
 11
2734.0
 21
1162.499996185302
 31
0.0
  0
INSERT
  5
4B1
330
4AB
100
AcDbEntity
  8
LAY-20
 62
     4
100
AcDbBlockReference
  2
EX_BNORM
 10
2734.0
 20
1284.999999999999
 30
0.0
 41
37.49999618530273
 42
37.49999618530273
 43
37.49999618530273
 50
90.0
  0
INSERT
  5
4B2
330
4AB
100
AcDbEntity
  8
LAY-20
 62
     4
100
AcDbBlockReference
  2
EX_BNORM
 10
2734.0
 20
1125.0
 30
0.0
 41
37.49999618530273
 42
37.49999618530273
 43
37.49999618530273
 50
270.0
  0
MTEXT
  5
4B3
330
4AB
100
AcDbEntity
  8
LAY-20
 62
     7
100
AcDbMText
 10
2696.5
 20
1204.999999999999
 30
0.0
 40
46.77165302633819
 41
0.0
 71
     5
 72
     1
  1
160
  7
EXCADDIM1
 11
0.0
 21
1.0
 31
0.0
  0
POINT
  5
4B4
330
4AB
100
AcDbEntity
  8
DEFPOINTS
 62
     0
100
AcDbPoint
 10
2479.0
 20
1284.999999999999
 30
0.0
  0
POINT
  5
4B5
330
4AB
100
AcDbEntity
  8
DEFPOINTS
 62
     0
100
AcDbPoint
 10
2432.0
 20
1125.0
 30
0.0
  0
POINT
  5
4B6
330
4AB
100
AcDbEntity
  8
DEFPOINTS
 62
     0
100
AcDbPoint
 10
2734.0
 20
1125.0
 30
0.0
  0
ENDBLK
  5
4AD
330
4AB
100
AcDbEntity
  8
0
100
AcDbBlockEnd
  0
BLOCK
  5
4B9
330
4B8
100
AcDbEntity
  8
0
100
AcDbBlockBegin
  2
*D18
 70
     1
 10
0.0
 20
0.0
 30
0.0
  3
*D18
  1

  0
LINE
  5
4BB
330
4B8
100
AcDbEntity
  8
LAY-20
  6
CONTINUOUS
 62
     4
100
AcDbLine
 10
2536.5
 20
1226.0
 30
0.0
 11
2651.5
 21
1226.0
 31
0.0
  0
LINE
  5
4BC
330
4B8
100
AcDbEntity
  8
LAY-20
  6
CONTINUOUS
 62
     4
100
AcDbLine
 10
2629.0
 20
1240.999999046325
 30
0.0
 11
2629.0
 21
1270.000000953674
 31
0.0
  0
INSERT
  5
4BD
330
4B8
100
AcDbEntity
  8
LAY-20
 62
     4
100
AcDbBlockReference
  2
EX_BCIR
 10
2629.0
 20
1226.0
 30
0.0
 41
14.99999904632568
 42
14.99999904632568
 43
14.99999904632568
 50
270.0
  0
INSERT
  5
4BE
330
4B8
100
AcDbEntity
  8
LAY-20
 62
     4
100
AcDbBlockReference
  2
EX_BNORM
 10
2629.0
 20
1284.999999999999
 30
0.0
 41
14.99999904632568
 42
14.99999904632568
 43
14.99999904632568
 50
90.0
  0
MTEXT
  5
4BF
330
4B8
100
AcDbEntity
  8
LAY-20
 62
     7
100
AcDbMText
 10
2591.5
 20
1374.999999999999
 30
0.0
 40
46.77165302633819
 41
0.0
 71
     5
 72
     1
  1
59
  7
EXCADDIM1
 11
0.0
 21
1.0
 31
0.0
  0
POINT
  5
4C0
330
4B8
100
AcDbEntity
  8
DEFPOINTS
 62
     0
100
AcDbPoint
 10
2514.0
 20
1226.0
 30
0.0
  0
POINT
  5
4C1
330
4B8
100
AcDbEntity
  8
DEFPOINTS
 62
     0
100
AcDbPoint
 10
2629.0
 20
1284.999999999999
 30
0.0
  0
POINT
  5
4C2
330
4B8
100
AcDbEntity
  8
DEFPOINTS
 62
     0
100
AcDbPoint
 10
2629.0
 20
1284.999999999999
 30
0.0
  0
ENDBLK
  5
4BA
330
4B8
100
AcDbEntity
  8
0
100
AcDbBlockEnd
  0
BLOCK
  5
4C5
330
4C4
100
AcDbEntity
  8
0
100
AcDbBlockBegin
  2
*D19
 70
     1
 10
0.0
 20
0.0
 30
0.0
  3
*D19
  1

  0
LINE
  5
4C7
330
4C4
100
AcDbEntity
  8
LAY-20
  6
CONTINUOUS
 62
     4
100
AcDbLine
 10
2629.0
 20
1211.000000953674
 30
0.0
 11
2629.0
 21
1139.999999046325
 31
0.0
  0
INSERT
  5
4C8
330
4C4
100
AcDbEntity
  8
LAY-20
 62
     4
100
AcDbBlockReference
  2
EX_BCIR
 10
2629.0
 20
1226.0
 30
0.0
 41
14.99999904632568
 42
14.99999904632568
 43
14.99999904632568
 50
90.0
  0
INSERT
  5
4C9
330
4C4
100
AcDbEntity
  8
LAY-20
 62
     4
100
AcDbBlockReference
  2
EX_BNORM
 10
2629.0
 20
1125.0
 30
0.0
 41
14.99999904632568
 42
14.99999904632568
 43
14.99999904632568
 50
270.0
  0
MTEXT
  5
4CA
330
4C4
100
AcDbEntity
  8
LAY-20
 62
     7
100
AcDbMText
 10
2591.5
 20
1012.499999999999
 30
0.0
 40
46.77165302633819
 41
0.0
 71
     5
 72
     1
  1
101
  7
EXCADDIM1
 11
0.0
 21
1.0
 31
0.0
  0
POINT
  5
4CB
330
4C4
100
AcDbEntity
  8
DEFPOINTS
 62
     0
100
AcDbPoint
 10
2629.0
 20
1226.0
 30
0.0
  0
POINT
  5
4CC
330
4C4
100
AcDbEntity
  8
DEFPOINTS
 62
     0
100
AcDbPoint
 10
2629.0
 20
1125.0
 30
0.0
  0
POINT
  5
4CD
330
4C4
100
AcDbEntity
  8
DEFPOINTS
 62
     0
100
AcDbPoint
 10
2629.0
 20
1125.0
 30
0.0
  0
ENDBLK
  5
4C6
330
4C4
100
AcDbEntity
  8
0
100
AcDbBlockEnd
  0
BLOCK
  5
4D0
330
4CF
100
AcDbEntity
  8
0
100
AcDbBlockBegin
  2
*D20
 70
     1
 10
0.0
 20
0.0
 30
0.0
  3
*D20
  1

  0
LINE
  5
4D2
330
4CF
100
AcDbEntity
  8
LAY-20
  6
CONTINUOUS
 62
     4
100
AcDbLine
 10
921.1000000000004
 20
3329.0
 30
0.0
 11
777.5
 21
3329.0
 31
0.0
  0
LINE
  5
4D3
330
4CF
100
AcDbEntity
  8
LAY-20
  6
CONTINUOUS
 62
     4
100
AcDbLine
 10
800.0
 20
3291.500003814697
 30
0.0
 11
800.0
 21
2866.499996185303
 31
0.0
  0
INSERT
  5
4D4
330
4CF
100
AcDbEntity
  8
LAY-20
 62
     4
100
AcDbBlockReference
  2
EX_BNORM
 10
800.0
 20
3329.0
 30
0.0
 41
37.49999618530273
 42
37.49999618530273
 43
37.49999618530273
 50
90.0
  0
INSERT
  5
4D5
330
4CF
100
AcDbEntity
  8
LAY-20
 62
     4
100
AcDbBlockReference
  2
EX_BNORM
 10
800.0
 20
2829.0
 30
0.0
 41
37.49999618530273
 42
37.49999618530273
 43
37.49999618530273
 50
270.0
  0
MTEXT
  5
4D6
330
4CF
100
AcDbEntity
  8
LAY-20
 62
     7
100
AcDbMText
 10
762.5000000000002
 20
3079.0
 30
0.0
 40
46.77165302633819
 41
0.0
 71
     5
 72
     1
  1
500
  7
EXCADDIM1
 11
0.0
 21
1.0
 31
0.0
  0
POINT
  5
4D7
330
4CF
100
AcDbEntity
  8
DEFPOINTS
 62
     0
100
AcDbPoint
 10
943.6000000000004
 20
3329.0
 30
0.0
  0
POINT
  5
4D8
330
4CF
100
AcDbEntity
  8
DEFPOINTS
 62
     0
100
AcDbPoint
 10
800.0
 20
2829.0
 30
0.0
  0
POINT
  5
4D9
330
4CF
100
AcDbEntity
  8
DEFPOINTS
 62
     0
100
AcDbPoint
 10
800.0
 20
2829.0
 30
0.0
  0
ENDBLK
  5
4D1
330
4CF
100
AcDbEntity
  8
0
100
AcDbBlockEnd
  0
BLOCK
  5
4DC
330
4DB
100
AcDbEntity
  8
0
100
AcDbBlockBegin
  2
*D21
 70
     1
 10
0.0
 20
0.0
 30
0.0
  3
*D21
  1

  0
LINE
  5
4DE
330
4DB
100
AcDbEntity
  8
LAY-20
  6
CONTINUOUS
 62
     4
100
AcDbLine
 10
1182.0
 20
1250.0
 30
0.0
 11
1278.0
 21
1250.0
 31
0.0
  0
LINE
  5
4DF
330
4DB
100
AcDbEntity
  8
LAY-20
  6
CONTINUOUS
 62
     4
100
AcDbLine
 10
1255.5
 20
1250.0
 30
0.0
 11
1255.5
 21
1285.0
 31
0.0
  0
LINE
  5
4E0
330
4DB
100
AcDbEntity
  8
LAY-20
  6
CONTINUOUS
 62
     4
100
AcDbLine
 10
1255.5
 20
1212.500003814697
 30
0.0
 11
1255.5
 21
1175.000007629395
 31
0.0
  0
LINE
  5
4E1
330
4DB
100
AcDbEntity
  8
LAY-20
  6
CONTINUOUS
 62
     4
100
AcDbLine
 10
1255.5
 20
1322.499996185303
 30
0.0
 11
1255.5
 21
1359.999992370605
 31
0.0
  0
INSERT
  5
4E2
330
4DB
100
AcDbEntity
  8
LAY-20
 62
     4
100
AcDbBlockReference
  2
EX_BNORM
 10
1255.5
 20
1250.0
 30
0.0
 41
37.49999618530273
 42
37.49999618530273
 43
37.49999618530273
 50
90.0
  0
INSERT
  5
4E3
330
4DB
100
AcDbEntity
  8
LAY-20
 62
     4
100
AcDbBlockReference
  2
EX_BNORM
 10
1255.5
 20
1285.0
 30
0.0
 41
37.49999618530273
 42
37.49999618530273
 43
37.49999618530273
 50
270.0
  0
MTEXT
  5
4E4
330
4DB
100
AcDbEntity
  8
LAY-20
 62
     7
100
AcDbMText
 10
1218.0
 20
1375.0
 30
0.0
 40
46.77165302633819
 41
0.0
 71
     5
 72
     1
  1
35
  7
EXCADDIM1
 11
0.0
 21
1.0
 31
0.0
  0
POINT
  5
4E5
330
4DB
100
AcDbEntity
  8
DEFPOINTS
 62
     0
100
AcDbPoint
 10
1159.5
 20
1250.0
 30
0.0
  0
POINT
  5
4E6
330
4DB
100
AcDbEntity
  8
DEFPOINTS
 62
     0
100
AcDbPoint
 10
1309.50000000003
 20
1285.0
 30
0.0
  0
POINT
  5
4E7
330
4DB
100
AcDbEntity
  8
DEFPOINTS
 62
     0
100
AcDbPoint
 10
1255.5
 20
1285.0
 30
0.0
  0
ENDBLK
  5
4DD
330
4DB
100
AcDbEntity
  8
0
100
AcDbBlockEnd
  0
BLOCK
  5
4EA
330
4E9
100
AcDbEntity
  8
0
100
AcDbBlockBegin
  2
*D22
 70
     1
 10
0.0
 20
0.0
 30
0.0
  3
*D22
  1

  0
LINE
  5
4EC
330
4E9
100
AcDbEntity
  8
LAY-20
  6
CONTINUOUS
 62
     4
100
AcDbLine
 10
921.0999999999999
 20
2829.0
 30
0.0
 11
777.5
 21
2829.0
 31
0.0
  0
LINE
  5
4ED
330
4E9
100
AcDbEntity
  8
LAY-20
  6
CONTINUOUS
 62
     4
100
AcDbLine
 10
921.0999999999999
 20
2629.0
 30
0.0
 11
777.5
 21
2629.0
 31
0.0
  0
LINE
  5
4EE
330
4E9
100
AcDbEntity
  8
LAY-20
  6
CONTINUOUS
 62
     4
100
AcDbLine
 10
800.0
 20
2791.500003814697
 30
0.0
 11
800.0
 21
2666.499996185303
 31
0.0
  0
INSERT
  5
4EF
330
4E9
100
AcDbEntity
  8
LAY-20
 62
     4
100
AcDbBlockReference
  2
EX_BNORM
 10
800.0
 20
2829.0
 30
0.0
 41
37.49999618530273
 42
37.49999618530273
 43
37.49999618530273
 50
90.0
  0
INSERT
  5
4F0
330
4E9
100
AcDbEntity
  8
LAY-20
 62
     4
100
AcDbBlockReference
  2
EX_BNORM
 10
800.0
 20
2629.0
 30
0.0
 41
37.49999618530273
 42
37.49999618530273
 43
37.49999618530273
 50
270.0
  0
MTEXT
  5
4F1
330
4E9
100
AcDbEntity
  8
LAY-20
 62
     7
100
AcDbMText
 10
762.5000000000002
 20
2729.0
 30
0.0
 40
46.77165302633819
 41
0.0
 71
     5
 72
     1
  1
200
  7
EXCADDIM1
 11
0.0
 21
1.0
 31
0.0
  0
POINT
  5
4F2
330
4E9
100
AcDbEntity
  8
DEFPOINTS
 62
     0
100
AcDbPoint
 10
943.5999999999999
 20
2829.0
 30
0.0
  0
POINT
  5
4F3
330
4E9
100
AcDbEntity
  8
DEFPOINTS
 62
     0
100
AcDbPoint
 10
943.5999999999999
 20
2629.0
 30
0.0
  0
POINT
  5
4F4
330
4E9
100
AcDbEntity
  8
DEFPOINTS
 62
     0
100
AcDbPoint
 10
800.0
 20
2629.0
 30
0.0
  0
ENDBLK
  5
4EB
330
4E9
100
AcDbEntity
  8
0
100
AcDbBlockEnd
  0
BLOCK
  5
4F7
330
4F6
100
AcDbEntity
  8
0
100
AcDbBlockBegin
  2
*D23
 70
     1
 10
0.0
 20
0.0
 30
0.0
  3
*D23
  1

  0
LINE
  5
4F9
330
4F6
100
AcDbEntity
  8
LAY-20
  6
CONTINUOUS
 62
     4
100
AcDbLine
 10
921.0999999999995
 20
2128.999999999998
 30
0.0
 11
777.5
 21
2128.999999999998
 31
0.0
  0
LINE
  5
4FA
330
4F6
100
AcDbEntity
  8
LAY-20
  6
CONTINUOUS
 62
     4
100
AcDbLine
 10
800.0
 20
2166.499996185301
 30
0.0
 11
800.0
 21
2591.500003814695
 31
0.0
  0
INSERT
  5
4FB
330
4F6
100
AcDbEntity
  8
LAY-20
 62
     4
100
AcDbBlockReference
  2
EX_BNORM
 10
800.0
 20
2128.999999999998
 30
0.0
 41
37.49999618530273
 42
37.49999618530273
 43
37.49999618530273
 50
270.0
  0
INSERT
  5
4FC
330
4F6
100
AcDbEntity
  8
LAY-20
 62
     4
100
AcDbBlockReference
  2
EX_BNORM
 10
800.0
 20
2628.999999999998
 30
0.0
 41
37.49999618530273
 42
37.49999618530273
 43
37.49999618530273
 50
90.0
  0
MTEXT
  5
4FD
330
4F6
100
AcDbEntity
  8
LAY-20
 62
     7
100
AcDbMText
 10
762.4999999999998
 20
2378.999999999998
 30
0.0
 40
46.77165302633819
 41
0.0
 71
     5
 72
     1
  1
500
  7
EXCADDIM1
 11
0.0
 21
1.0
 31
0.0
  0
POINT
  5
4FE
330
4F6
100
AcDbEntity
  8
DEFPOINTS
 62
     0
100
AcDbPoint
 10
943.5999999999995
 20
2128.999999999998
 30
0.0
  0
POINT
  5
4FF
330
4F6
100
AcDbEntity
  8
DEFPOINTS
 62
     0
100
AcDbPoint
 10
800.0
 20
2628.999999999998
 30
0.0
  0
POINT
  5
500
330
4F6
100
AcDbEntity
  8
DEFPOINTS
 62
     0
100
AcDbPoint
 10
800.0
 20
2628.999999999998
 30
0.0
  0
ENDBLK
  5
4F8
330
4F6
100
AcDbEntity
  8
0
100
AcDbBlockEnd
  0
BLOCK
  5
503
330
502
100
AcDbEntity
  8
0
100
AcDbBlockBegin
  2
*D24
 70
     1
 10
0.0
 20
0.0
 30
0.0
  3
*D24
  1

  0
LINE
  5
505
330
502
100
AcDbEntity
  8
LAY-20
  6
CONTINUOUS
 62
     4
100
AcDbLine
 10
985.0000000000001
 20
1307.5
 30
0.0
 11
985.0
 21
1667.5
 31
0.0
  0
LINE
  5
506
330
502
100
AcDbEntity
  8
LAY-20
  6
CONTINUOUS
 62
     4
100
AcDbLine
 10
2479.0
 20
1307.5
 30
0.0
 11
2479.0
 21
1667.5
 31
0.0
  0
LINE
  5
507
330
502
100
AcDbEntity
  8
LAY-20
  6
CONTINUOUS
 62
     4
100
AcDbLine
 10
1022.499996185303
 20
1645.0
 30
0.0
 11
2441.500003814697
 21
1645.0
 31
0.0
  0
INSERT
  5
508
330
502
100
AcDbEntity
  8
LAY-20
 62
     4
100
AcDbBlockReference
  2
EX_BNORM
 10
985.0
 20
1645.0
 30
0.0
 41
37.49999618530273
 42
37.49999618530273
 43
37.49999618530273
 50
180.0
  0
INSERT
  5
509
330
502
100
AcDbEntity
  8
LAY-20
 62
     4
100
AcDbBlockReference
  2
EX_BNORM
 10
2479.0
 20
1645.0
 30
0.0
 41
37.49999618530273
 42
37.49999618530273
 43
37.49999618530273
  0
MTEXT
  5
50A
330
502
100
AcDbEntity
  8
LAY-20
 62
     7
100
AcDbMText
 10
1732.0
 20
1682.5
 30
0.0
 40
46.77165302633819
 41
0.0
 71
     5
 72
     1
  1
□1494
  7
EXCADDIM1
  0
POINT
  5
50B
330
502
100
AcDbEntity
  8
DEFPOINTS
 62
     0
100
AcDbPoint
 10
985.0000000000001
 20
1285.0
 30
0.0
  0
POINT
  5
50C
330
502
100
AcDbEntity
  8
DEFPOINTS
 62
     0
100
AcDbPoint
 10
2479.0
 20
1285.0
 30
0.0
  0
POINT
  5
50D
330
502
100
AcDbEntity
  8
DEFPOINTS
 62
     0
100
AcDbPoint
 10
2479.0
 20
1645.0
 30
0.0
  0
ENDBLK
  5
504
330
502
100
AcDbEntity
  8
0
100
AcDbBlockEnd
  0
BLOCK
  5
510
330
50F
100
AcDbEntity
  8
0
100
AcDbBlockBegin
  2
*D25
 70
     1
 10
0.0
 20
0.0
 30
0.0
  3
*D25
  1

  0
LINE
  5
512
330
50F
100
AcDbEntity
  8
LAY-20
  6
CONTINUOUS
 62
     4
100
AcDbLine
 10
2467.0
 20
1307.499999999999
 30
0.0
 11
2467.0
 21
1562.5
 31
0.0
  0
LINE
  5
513
330
50F
100
AcDbEntity
  8
LAY-20
  6
CONTINUOUS
 62
     4
100
AcDbLine
 10
997.0000000000014
 20
1307.500000000001
 30
0.0
 11
997.0000000000014
 21
1562.5
 31
0.0
  0
LINE
  5
514
330
50F
100
AcDbEntity
  8
LAY-20
  6
CONTINUOUS
 62
     4
100
AcDbLine
 10
2429.500003814697
 20
1540.0
 30
0.0
 11
1034.499996185304
 21
1540.0
 31
0.0
  0
INSERT
  5
515
330
50F
100
AcDbEntity
  8
LAY-20
 62
     4
100
AcDbBlockReference
  2
EX_BNORM
 10
2467.0
 20
1540.0
 30
0.0
 41
37.49999618530273
 42
37.49999618530273
 43
37.49999618530273
  0
INSERT
  5
516
330
50F
100
AcDbEntity
  8
LAY-20
 62
     4
100
AcDbBlockReference
  2
EX_BNORM
 10
997.0000000000014
 20
1540.0
 30
0.0
 41
37.49999618530273
 42
37.49999618530273
 43
37.49999618530273
 50
180.0
  0
MTEXT
  5
517
330
50F
100
AcDbEntity
  8
LAY-20
 62
     7
100
AcDbMText
 10
1732.0
 20
1577.5
 30
0.0
 40
46.77165302633819
 41
0.0
 71
     5
 72
     1
  1
□1470
  7
EXCADDIM1
  0
POINT
  5
518
330
50F
100
AcDbEntity
  8
DEFPOINTS
 62
     0
100
AcDbPoint
 10
2467.0
 20
1284.999999999999
 30
0.0
  0
POINT
  5
519
330
50F
100
AcDbEntity
  8
DEFPOINTS
 62
     0
100
AcDbPoint
 10
997.0000000000014
 20
1285.000000000001
 30
0.0
  0
POINT
  5
51A
330
50F
100
AcDbEntity
  8
DEFPOINTS
 62
     0
100
AcDbPoint
 10
997.0000000000014
 20
1540.0
 30
0.0
  0
ENDBLK
  5
511
330
50F
100
AcDbEntity
  8
0
100
AcDbBlockEnd
  0
BLOCK
  5
51D
330
51C
100
AcDbEntity
  8
0
100
AcDbBlockBegin
  2
*D26
 70
     1
 10
0.0
 20
0.0
 30
0.0
  3
*D26
  1

  0
LINE
  5
51F
330
51C
100
AcDbEntity
  8
LAY-20
  6
CONTINUOUS
 62
     4
100
AcDbLine
 10
2032.0
 20
1307.5
 30
0.0
 11
2032.0
 21
1457.5
 31
0.0
  0
LINE
  5
520
330
51C
100
AcDbEntity
  8
LAY-20
  6
CONTINUOUS
 62
     4
100
AcDbLine
 10
1432.0
 20
1307.5
 30
0.0
 11
1432.0
 21
1457.5
 31
0.0
  0
LINE
  5
521
330
51C
100
AcDbEntity
  8
LAY-20
  6
CONTINUOUS
 62
     4
100
AcDbLine
 10
1994.500003814697
 20
1435.0
 30
0.0
 11
1469.499996185303
 21
1435.0
 31
0.0
  0
INSERT
  5
522
330
51C
100
AcDbEntity
  8
LAY-20
 62
     4
100
AcDbBlockReference
  2
EX_BNORM
 10
2032.0
 20
1435.0
 30
0.0
 41
37.49999618530273
 42
37.49999618530273
 43
37.49999618530273
  0
INSERT
  5
523
330
51C
100
AcDbEntity
  8
LAY-20
 62
     4
100
AcDbBlockReference
  2
EX_BNORM
 10
1432.0
 20
1435.0
 30
0.0
 41
37.49999618530273
 42
37.49999618530273
 43
37.49999618530273
 50
180.0
  0
MTEXT
  5
524
330
51C
100
AcDbEntity
  8
LAY-20
 62
     7
100
AcDbMText
 10
1732.0
 20
1472.5
 30
0.0
 40
46.77165302633819
 41
0.0
 71
     5
 72
     1
  1
□600
  7
EXCADDIM1
  0
POINT
  5
525
330
51C
100
AcDbEntity
  8
DEFPOINTS
 62
     0
100
AcDbPoint
 10
2032.0
 20
1285.0
 30
0.0
  0
POINT
  5
526
330
51C
100
AcDbEntity
  8
DEFPOINTS
 62
     0
100
AcDbPoint
 10
1432.0
 20
1285.0
 30
0.0
  0
POINT
  5
527
330
51C
100
AcDbEntity
  8
DEFPOINTS
 62
     0
100
AcDbPoint
 10
1432.0
 20
1435.0
 30
0.0
  0
ENDBLK
  5
51E
330
51C
100
AcDbEntity
  8
0
100
AcDbBlockEnd
  0
BLOCK
  5
52A
330
529
100
AcDbEntity
  8
0
100
AcDbBlockBegin
  2
*D27
 70
     1
 10
0.0
 20
0.0
 30
0.0
  3
*D27
  1

  0
LINE
  5
52C
330
529
100
AcDbEntity
  8
LAY-20
  6
CONTINUOUS
 62
     4
100
AcDbLine
 10
1035.0
 20
1102.5
 30
0.0
 11
1035.0
 21
952.5
 31
0.0
  0
LINE
  5
52D
330
529
100
AcDbEntity
  8
LAY-20
  6
CONTINUOUS
 62
     4
100
AcDbLine
 10
2429.0
 20
1102.5
 30
0.0
 11
2429.0
 21
952.5
 31
0.0
  0
LINE
  5
52E
330
529
100
AcDbEntity
  8
LAY-20
  6
CONTINUOUS
 62
     4
100
AcDbLine
 10
1072.499996185303
 20
975.0
 30
0.0
 11
2391.500003814697
 21
975.0
 31
0.0
  0
INSERT
  5
52F
330
529
100
AcDbEntity
  8
LAY-20
 62
     4
100
AcDbBlockReference
  2
EX_BNORM
 10
1035.0
 20
975.0
 30
0.0
 41
37.49999618530273
 42
37.49999618530273
 43
37.49999618530273
 50
180.0
  0
INSERT
  5
530
330
529
100
AcDbEntity
  8
LAY-20
 62
     4
100
AcDbBlockReference
  2
EX_BNORM
 10
2429.0
 20
975.0
 30
0.0
 41
37.49999618530273
 42
37.49999618530273
 43
37.49999618530273
  0
MTEXT
  5
531
330
529
100
AcDbEntity
  8
LAY-20
 62
     7
100
AcDbMText
 10
1732.0
 20
1012.5
 30
0.0
 40
46.77165302633819
 41
0.0
 71
     5
 72
     1
  1
□1394
  7
EXCADDIM1
  0
POINT
  5
532
330
529
100
AcDbEntity
  8
DEFPOINTS
 62
     0
100
AcDbPoint
 10
1035.0
 20
1125.0
 30
0.0
  0
POINT
  5
533
330
529
100
AcDbEntity
  8
DEFPOINTS
 62
     0
100
AcDbPoint
 10
2429.0
 20
1125.0
 30
0.0
  0
POINT
  5
534
330
529
100
AcDbEntity
  8
DEFPOINTS
 62
     0
100
AcDbPoint
 10
2429.0
 20
975.0
 30
0.0
  0
ENDBLK
  5
52B
330
529
100
AcDbEntity
  8
0
100
AcDbBlockEnd
  0
ENDSEC
  0
SECTION
  2
ENTITIES
  0
CIRCLE
  5
D6
330
1F
100
AcDbEntity
  8
LAY-10
  6
CONTINUOUS
 62
     7
100
AcDbCircle
 10
1682.000000000005
 20
1221.607695154585
 30
0.0
 40
10.392304845413
  0
LINE
  5
D7
330
1F
100
AcDbEntity
  8
LAY-10
  6
CONTINUOUS
 62
     7
100
AcDbLine
 10
1694.000000000005
 20
1221.607695154586
 30
0.0
 11
1688.000000000005
 21
1231.999999999998
 31
0.0
  0
LINE
  5
D8
330
1F
100
AcDbEntity
  8
LAY-10
  6
CONTINUOUS
 62
     7
100
AcDbLine
 10
1676.000000000005
 20
1231.999999999998
 30
0.0
 11
1670.000000000005
 21
1221.607695154586
 31
0.0
  0
LINE
  5
D9
330
1F
100
AcDbEntity
  8
LAY-10
  6
CONTINUOUS
 62
     7
100
AcDbLine
 10
1670.000000000005
 20
1221.607695154586
 30
0.0
 11
1676.000000000005
 21
1211.215390309172
 31
0.0
  0
LINE
  5
DA
330
1F
100
AcDbEntity
  8
LAY-10
  6
CONTINUOUS
 62
     7
100
AcDbLine
 10
1676.000000000005
 20
1211.215390309172
 30
0.0
 11
1688.000000000005
 21
1211.215390309172
 31
0.0
  0
LINE
  5
DB
330
1F
100
AcDbEntity
  8
LAY-10
  6
CONTINUOUS
 62
     7
100
AcDbLine
 10
1688.000000000005
 20
1211.215390309172
 30
0.0
 11
1694.000000000005
 21
1221.607695154586
 31
0.0
  0
CIRCLE
  5
DC
330
1F
100
AcDbEntity
  8
LAY-10
  6
CONTINUOUS
 62
     7
100
AcDbCircle
 10
1682.000000000005
 20
1221.607695154585
 30
0.0
 40
4.800000000000002
  0
CIRCLE
  5
DD
330
1F
100
AcDbEntity
  8
LAY-10
  6
CONTINUOUS
 62
     7
100
AcDbCircle
 10
1682.000000000005
 20
1221.607695154585
 30
0.0
 40
6.000000000000004
  0
CIRCLE
  5
DE
330
1F
100
AcDbEntity
  8
LAY-10
  6
CONTINUOUS
 62
     7
100
AcDbCircle
 10
1781.999999999995
 20
1221.607695154585
 30
0.0
 40
10.392304845413
  0
LINE
  5
DF
330
1F
100
AcDbEntity
  8
LAY-10
  6
CONTINUOUS
 62
     7
100
AcDbLine
 10
1769.999999999995
 20
1221.607695154586
 30
0.0
 11
1775.999999999995
 21
1231.999999999998
 31
0.0
  0
LINE
  5
E0
330
1F
100
AcDbEntity
  8
LAY-10
  6
CONTINUOUS
 62
     7
100
AcDbLine
 10
1787.999999999995
 20
1231.999999999998
 30
0.0
 11
1793.999999999995
 21
1221.607695154586
 31
0.0
  0
LINE
  5
E1
330
1F
100
AcDbEntity
  8
LAY-10
  6
CONTINUOUS
 62
     7
100
AcDbLine
 10
1793.999999999995
 20
1221.607695154586
 30
0.0
 11
1787.999999999995
 21
1211.215390309172
 31
0.0
  0
LINE
  5
E2
330
1F
100
AcDbEntity
  8
LAY-10
  6
CONTINUOUS
 62
     7
100
AcDbLine
 10
1787.999999999995
 20
1211.215390309172
 30
0.0
 11
1775.999999999995
 21
1211.215390309172
 31
0.0
  0
LINE
  5
E3
330
1F
100
AcDbEntity
  8
LAY-10
  6
CONTINUOUS
 62
     7
100
AcDbLine
 10
1775.999999999995
 20
1211.215390309172
 30
0.0
 11
1769.999999999995
 21
1221.607695154586
 31
0.0
  0
CIRCLE
  5
E4
330
1F
100
AcDbEntity
  8
LAY-10
  6
CONTINUOUS
 62
     7
100
AcDbCircle
 10
1781.999999999995
 20
1221.607695154585
 30
0.0
 40
4.800000000000002
  0
CIRCLE
  5
E5
330
1F
100
AcDbEntity
  8
LAY-10
  6
CONTINUOUS
 62
     7
100
AcDbCircle
 10
1781.999999999995
 20
1221.607695154585
 30
0.0
 40
6.000000000000004
  0
LINE
  5
E6
330
1F
100
AcDbEntity
  8
LAY-10
  6
HIDDEN
 62
     7
100
AcDbLine
 10
2491.5
 20
1229.0
 30
0.0
 11
2491.5
 21
1226.000000000001
 31
0.0
  0
LINE
  5
E7
330
1F
100
AcDbEntity
  8
LAY-10
  6
HIDDEN
 62
     7
100
AcDbLine
 10
2506.5
 20
1229.0
 30
0.0
 11
2506.5
 21
1226.000000000001
 31
0.0
  0
LINE
  5
E8
330
1F
100
AcDbEntity
  8
LAY-10
  6
HIDDEN
 62
     7
100
AcDbLine
 10
972.4999999999999
 20
1229.0
 30
0.0
 11
972.4999999999999
 21
1226.000000000001
 31
0.0
  0
LINE
  5
E9
330
1F
100
AcDbEntity
  8
LAY-10
  6
HIDDEN
 62
     7
100
AcDbLine
 10
957.4999999999995
 20
1229.0
 30
0.0
 11
957.4999999999995
 21
1226.000000000001
 31
0.0
  0
CIRCLE
  5
EA
330
1F
100
AcDbEntity
  8
LAY-10
  6
CONTINUOUS
 62
     7
100
AcDbCircle
 10
2499.0
 20
2629.0
 30
0.0
 40
7.5
  0
CIRCLE
  5
EB
330
1F
100
AcDbEntity
  8
LAY-10
  6
CONTINUOUS
 62
     7
100
AcDbCircle
 10
2499.0
 20
2829.0
 30
0.0
 40
7.5
  0
CIRCLE
  5
EC
330
1F
100
AcDbEntity
  8
LAY-10
  6
CONTINUOUS
 62
     7
100
AcDbCircle
 10
2499.0
 20
3329.0
 30
0.0
 40
7.5
  0
CIRCLE
  5
ED
330
1F
100
AcDbEntity
  8
LAY-10
  6
CONTINUOUS
 62
     7
100
AcDbCircle
 10
2232.0
 20
3496.0
 30
0.0
 40
7.5
  0
CIRCLE
  5
EE
330
1F
100
AcDbEntity
  8
LAY-10
  6
CONTINUOUS
 62
     7
100
AcDbCircle
 10
1732.0
 20
3496.0
 30
0.0
 40
7.5
  0
CIRCLE
  5
EF
330
1F
100
AcDbEntity
  8
LAY-10
  6
CONTINUOUS
 62
     7
100
AcDbCircle
 10
1232.0
 20
3496.0
 30
0.0
 40
7.5
  0
CIRCLE
  5
F0
330
1F
100
AcDbEntity
  8
LAY-10
  6
CONTINUOUS
 62
     7
100
AcDbCircle
 10
964.9999999999999
 20
3329.0
 30
0.0
 40
7.5
  0
CIRCLE
  5
F1
330
1F
100
AcDbEntity
  8
LAY-10
  6
CONTINUOUS
 62
     7
100
AcDbCircle
 10
964.9999999999999
 20
2829.0
 30
0.0
 40
7.5
  0
CIRCLE
  5
F2
330
1F
100
AcDbEntity
  8
LAY-10
  6
CONTINUOUS
 62
     7
100
AcDbCircle
 10
964.9999999999999
 20
2629.0
 30
0.0
 40
7.5
  0
CIRCLE
  5
F3
330
1F
100
AcDbEntity
  8
LAY-10
  6
CONTINUOUS
 62
     7
100
AcDbCircle
 10
964.9999999999999
 20
2129.0
 30
0.0
 40
7.5
  0
CIRCLE
  5
F4
330
1F
100
AcDbEntity
  8
LAY-10
  6
CONTINUOUS
 62
     7
100
AcDbCircle
 10
1232.0
 20
1962.0
 30
0.0
 40
7.5
  0
CIRCLE
  5
F5
330
1F
100
AcDbEntity
  8
LAY-10
  6
CONTINUOUS
 62
     7
100
AcDbCircle
 10
1732.0
 20
1962.0
 30
0.0
 40
7.5
  0
CIRCLE
  5
F6
330
1F
100
AcDbEntity
  8
LAY-10
  6
CONTINUOUS
 62
     7
100
AcDbCircle
 10
2232.0
 20
1962.0
 30
0.0
 40
7.5
  0
CIRCLE
  5
F7
330
1F
100
AcDbEntity
  8
LAY-10
  6
CONTINUOUS
 62
     7
100
AcDbCircle
 10
2499.0
 20
2129.0
 30
0.0
 40
7.5
  0
ARC
  5
F8
330
1F
100
AcDbEntity
  8
LAY-10
  6
CONTINUOUS
 62
     7
100
AcDbCircle
 10
2075.499999999982
 20
1228.500000000022
 30
0.0
 40
0.5
100
AcDbArc
 50
90.00000000000001
 51
180.0
  0
LINE
  5
F9
330
1F
100
AcDbEntity
  8
LAY-10
  6
CONTINUOUS
 62
     7
100
AcDbLine
 10
2074.999999999984
 20
1135.500000000022
 30
0.0
 11
2074.999999999984
 21
1228.500000000022
 31
0.0
  0
ARC
  5
FA
330
1F
100
AcDbEntity
  8
LAY-10
  6
CONTINUOUS
 62
     7
100
AcDbCircle
 10
2075.499999999982
 20
1135.500000000022
 30
0.0
 40
0.5
100
AcDbArc
 50
180.0
 51
270.0
  0
LINE
  5
FB
330
1F
100
AcDbEntity
  8
LAY-10
  6
CONTINUOUS
 62
     7
100
AcDbLine
 10
2168.499999999984
 20
1135.000000000022
 30
0.0
 11
2075.499999999982
 21
1135.000000000022
 31
0.0
  0
ARC
  5
FC
330
1F
100
AcDbEntity
  8
LAY-10
  6
CONTINUOUS
 62
     7
100
AcDbCircle
 10
2168.499999999984
 20
1135.500000000022
 30
0.0
 40
0.5
100
AcDbArc
 50
270.0
 51
0.0
  0
LINE
  5
FD
330
1F
100
AcDbEntity
  8
LAY-10
  6
CONTINUOUS
 62
     7
100
AcDbLine
 10
2168.999999999982
 20
1228.500000000022
 30
0.0
 11
2168.999999999982
 21
1135.500000000022
 31
0.0
  0
ARC
  5
FE
330
1F
100
AcDbEntity
  8
LAY-10
  6
CONTINUOUS
 62
     7
100
AcDbCircle
 10
2168.499999999984
 20
1228.500000000022
 30
0.0
 40
0.5
100
AcDbArc
 50
0.0
 51
90.00000000000001
  0
LINE
  5
FF
330
1F
100
AcDbEntity
  8
LAY-10
  6
CONTINUOUS
 62
     7
100
AcDbLine
 10
2075.499999999982
 20
1229.000000000022
 30
0.0
 11
2168.499999999984
 21
1229.000000000022
 31
0.0
  0
ARC
  5
100
330
1F
100
AcDbEntity
  8
LAY-10
  6
CONTINUOUS
 62
     7
100
AcDbCircle
 10
2168.000000000019
 20
1228.000000000022
 30
0.0
 40
4.0
100
AcDbArc
 50
0.0
 51
90.00000000000001
  0
LINE
  5
101
330
1F
100
AcDbEntity
  8
LAY-10
  6
CONTINUOUS
 62
     7
100
AcDbLine
 10
2172.000000000019
 20
1228.000000000022
 30
0.0
 11
2172.000000000019
 21
1136.000000000022
 31
0.0
  0
ARC
  5
102
330
1F
100
AcDbEntity
  8
LAY-10
  6
CONTINUOUS
 62
     7
100
AcDbCircle
 10
2168.000000000019
 20
1136.000000000022
 30
0.0
 40
4.0
100
AcDbArc
 50
270.0
 51
0.0
  0
ARC
  5
103
330
1F
100
AcDbEntity
  8
LAY-10
  6
CONTINUOUS
 62
     7
100
AcDbCircle
 10
2172.0
 20
1133.000000000001
 30
0.0
 40
4.0
100
AcDbArc
 50
270.0
 51
0.0
  0
LINE
  5
104
330
1F
100
AcDbEntity
  8
LAY-10
  6
CONTINUOUS
 62
     7
100
AcDbLine
 10
2176.0
 20
1227.000000000002
 30
0.0
 11
2176.0
 21
1133.000000000001
 31
0.0
  0
LINE
  5
105
330
1F
100
AcDbEntity
  8
LAY-10
  6
CONTINUOUS
 62
     7
100
AcDbLine
 10
2172.0
 20
1129.000000000001
 30
0.0
 11
2071.999999999999
 21
1129.000000000001
 31
0.0
  0
ARC
  5
106
330
1F
100
AcDbEntity
  8
LAY-10
  6
CONTINUOUS
 62
     7
100
AcDbCircle
 10
2171.999999999998
 20
1133.000000000001
 30
0.0
 40
1.0
100
AcDbArc
 50
270.0
 51
0.0
  0
LINE
  5
107
330
1F
100
AcDbEntity
  8
LAY-10
  6
CONTINUOUS
 62
     7
100
AcDbLine
 10
2172.999999999998
 20
1227.000000000002
 30
0.0
 11
2172.999999999998
 21
1133.000000000001
 31
0.0
  0
LINE
  5
108
330
1F
100
AcDbEntity
  8
LAY-10
  6
CONTINUOUS
 62
     7
100
AcDbLine
 10
2171.999999999998
 20
1132.000000000001
 30
0.0
 11
2072.000000000002
 21
1132.000000000001
 31
0.0
  0
LINE
  5
109
330
1F
100
AcDbEntity
  8
LAY-10
  6
CONTINUOUS
 62
     7
100
AcDbLine
 10
2176.0
 20
1227.000000000002
 30
0.0
 11
2172.999999999998
 21
1227.000000000002
 31
0.0
  0
ARC
  5
10A
330
1F
100
AcDbEntity
  8
LAY-10
  6
CONTINUOUS
 62
     7
100
AcDbCircle
 10
2076.000000000019
 20
1136.000000000022
 30
0.0
 40
4.0
100
AcDbArc
 50
180.0
 51
270.0
  0
LINE
  5
10B
330
1F
100
AcDbEntity
  8
LAY-10
  6
CONTINUOUS
 62
     7
100
AcDbLine
 10
2072.000000000019
 20
1228.000000000022
 30
0.0
 11
2072.000000000019
 21
1136.000000000022
 31
0.0
  0
ARC
  5
10C
330
1F
100
AcDbEntity
  8
LAY-10
  6
CONTINUOUS
 62
     7
100
AcDbCircle
 10
2071.999999999999
 20
1133.000000000001
 30
0.0
 40
4.0
100
AcDbArc
 50
180.0
 51
270.0
  0
LINE
  5
10D
330
1F
100
AcDbEntity
  8
LAY-10
  6
CONTINUOUS
 62
     7
100
AcDbLine
 10
2067.999999999999
 20
1227.000000000002
 30
0.0
 11
2067.999999999999
 21
1133.000000000001
 31
0.0
  0
ARC
  5
10E
330
1F
100
AcDbEntity
  8
LAY-10
  6
CONTINUOUS
 62
     7
100
AcDbCircle
 10
2072.000000000002
 20
1133.000000000001
 30
0.0
 40
1.0
100
AcDbArc
 50
180.0
 51
270.0
  0
LINE
  5
10F
330
1F
100
AcDbEntity
  8
LAY-10
  6
CONTINUOUS
 62
     7
100
AcDbLine
 10
2071.000000000002
 20
1227.000000000002
 30
0.0
 11
2071.000000000002
 21
1133.000000000001
 31
0.0
  0
ARC
  5
110
330
1F
100
AcDbEntity
  8
LAY-10
  6
CONTINUOUS
 62
     7
100
AcDbCircle
 10
2076.000000000019
 20
1228.000000000022
 30
0.0
 40
4.0
100
AcDbArc
 50
90.00000000000001
 51
180.0
  0
LINE
  5
111
330
1F
100
AcDbEntity
  8
LAY-10
  6
CONTINUOUS
 62
     7
100
AcDbLine
 10
2071.000000000002
 20
1227.000000000002
 30
0.0
 11
2067.999999999999
 21
1227.000000000002
 31
0.0
  0
ARC
  5
112
330
1F
100
AcDbEntity
  8
LAY-10
  6
CONTINUOUS
 62
     7
100
AcDbCircle
 10
1388.500000000018
 20
1228.500000000022
 30
0.0
 40
0.5
100
AcDbArc
 50
0.0
 51
90.00000000000001
  0
LINE
  5
113
330
1F
100
AcDbEntity
  8
LAY-10
  6
CONTINUOUS
 62
     7
100
AcDbLine
 10
1389.000000000016
 20
1135.500000000022
 30
0.0
 11
1389.000000000016
 21
1228.500000000022
 31
0.0
  0
ARC
  5
114
330
1F
100
AcDbEntity
  8
LAY-10
  6
CONTINUOUS
 62
     7
100
AcDbCircle
 10
1388.500000000018
 20
1135.500000000022
 30
0.0
 40
0.5
100
AcDbArc
 50
270.0
 51
0.0
  0
LINE
  5
115
330
1F
100
AcDbEntity
  8
LAY-10
  6
CONTINUOUS
 62
     7
100
AcDbLine
 10
1295.500000000016
 20
1135.000000000022
 30
0.0
 11
1388.500000000018
 21
1135.000000000022
 31
0.0
  0
ARC
  5
116
330
1F
100
AcDbEntity
  8
LAY-10
  6
CONTINUOUS
 62
     7
100
AcDbCircle
 10
1295.500000000016
 20
1135.500000000022
 30
0.0
 40
0.5
100
AcDbArc
 50
180.0
 51
270.0
  0
LINE
  5
117
330
1F
100
AcDbEntity
  8
LAY-10
  6
CONTINUOUS
 62
     7
100
AcDbLine
 10
1295.000000000018
 20
1228.500000000022
 30
0.0
 11
1295.000000000018
 21
1135.500000000022
 31
0.0
  0
ARC
  5
118
330
1F
100
AcDbEntity
  8
LAY-10
  6
CONTINUOUS
 62
     7
100
AcDbCircle
 10
1295.500000000016
 20
1228.500000000022
 30
0.0
 40
0.5
100
AcDbArc
 50
90.00000000000001
 51
180.0
  0
LINE
  5
119
330
1F
100
AcDbEntity
  8
LAY-10
  6
CONTINUOUS
 62
     7
100
AcDbLine
 10
1388.500000000018
 20
1229.000000000022
 30
0.0
 11
1295.500000000016
 21
1229.000000000022
 31
0.0
  0
LINE
  5
11A
330
1F
100
AcDbEntity
  8
LAY-10
  6
CONTINUOUS
 62
     7
100
AcDbLine
 10
2432.0
 20
1125.0
 30
0.0
 11
1032.0
 21
1125.0
 31
0.0
  0
LINE
  5
11B
330
1F
100
AcDbEntity
  8
LAY-10
  6
CONTINUOUS
 62
     7
100
AcDbLine
 10
989.0000000000009
 20
1232.0
 30
0.0
 11
2474.999999999999
 21
1232.0
 31
0.0
  0
LINE
  5
11C
330
1F
100
AcDbEntity
  8
LAY-10
  6
CONTINUOUS
 62
     7
100
AcDbLine
 10
1085.0
 20
1132.0
 30
0.0
 11
1288.127016653792
 21
1132.0
 31
0.0
  0
LINE
  5
11D
330
1F
100
AcDbEntity
  8
LAY-10
  6
CONTINUOUS
 62
     7
100
AcDbLine
 10
1291.999999999981
 20
1228.000000000022
 30
0.0
 11
1291.999999999981
 21
1136.000000000022
 31
0.0
  0
ARC
  5
11E
330
1F
100
AcDbEntity
  8
LAY-10
  6
CONTINUOUS
 62
     7
100
AcDbCircle
 10
1295.999999999981
 20
1136.000000000022
 30
0.0
 40
4.0
100
AcDbArc
 50
180.0
 51
270.0
  0
ARC
  5
11F
330
1F
100
AcDbEntity
  8
LAY-10
  6
CONTINUOUS
 62
     7
100
AcDbCircle
 10
1291.999999999999
 20
1133.000000000001
 30
0.0
 40
4.0
100
AcDbArc
 50
180.0
 51
270.0
  0
LINE
  5
120
330
1F
100
AcDbEntity
  8
LAY-10
  6
CONTINUOUS
 62
     7
100
AcDbLine
 10
1288.0
 20
1227.000000000002
 30
0.0
 11
1288.0
 21
1133.000000000001
 31
0.0
  0
LINE
  5
121
330
1F
100
AcDbEntity
  8
LAY-10
  6
CONTINUOUS
 62
     7
100
AcDbLine
 10
1291.999999999999
 20
1129.000000000001
 30
0.0
 11
1392.000000000001
 21
1129.000000000001
 31
0.0
  0
ARC
  5
122
330
1F
100
AcDbEntity
  8
LAY-10
  6
CONTINUOUS
 62
     7
100
AcDbCircle
 10
1292.000000000002
 20
1133.000000000001
 30
0.0
 40
1.0
100
AcDbArc
 50
180.0
 51
270.0
  0
LINE
  5
123
330
1F
100
AcDbEntity
  8
LAY-10
  6
CONTINUOUS
 62
     7
100
AcDbLine
 10
1291.000000000002
 20
1227.000000000002
 30
0.0
 11
1291.000000000002
 21
1133.000000000001
 31
0.0
  0
LINE
  5
124
330
1F
100
AcDbEntity
  8
LAY-10
  6
CONTINUOUS
 62
     7
100
AcDbLine
 10
1292.000000000002
 20
1132.000000000001
 30
0.0
 11
1391.999999999998
 21
1132.000000000001
 31
0.0
  0
ARC
  5
125
330
1F
100
AcDbEntity
  8
LAY-10
  6
CONTINUOUS
 62
     7
100
AcDbCircle
 10
1295.999999999981
 20
1228.000000000022
 30
0.0
 40
4.0
100
AcDbArc
 50
90.00000000000001
 51
180.0
  0
LINE
  5
126
330
1F
100
AcDbEntity
  8
LAY-10
  6
CONTINUOUS
 62
     7
100
AcDbLine
 10
1288.0
 20
1227.000000000002
 30
0.0
 11
1291.000000000002
 21
1227.000000000002
 31
0.0
  0
LINE
  5
127
330
1F
100
AcDbEntity
  8
LAY-10
  6
CONTINUOUS
 62
     7
100
AcDbLine
 10
2379.0
 20
1132.0
 30
0.0
 11
2175.872983346208
 21
1132.0
 31
0.0
  0
LINE
  5
128
330
1F
100
AcDbEntity
  8
LAY-10
  6
CONTINUOUS
 62
     7
100
AcDbLine
 10
1395.872983346208
 20
1132.000000000001
 30
0.0
 11
2068.127016653792
 21
1132.000000000001
 31
0.0
  0
ARC
  5
129
330
1F
100
AcDbEntity
  8
LAY-10
  6
CONTINUOUS
 62
     7
100
AcDbCircle
 10
1387.999999999981
 20
1136.000000000022
 30
0.0
 40
4.0
100
AcDbArc
 50
270.0
 51
0.0
  0
LINE
  5
12A
330
1F
100
AcDbEntity
  8
LAY-10
  6
CONTINUOUS
 62
     7
100
AcDbLine
 10
1391.999999999981
 20
1228.000000000022
 30
0.0
 11
1391.999999999981
 21
1136.000000000022
 31
0.0
  0
ARC
  5
12B
330
1F
100
AcDbEntity
  8
LAY-10
  6
CONTINUOUS
 62
     7
100
AcDbCircle
 10
1392.000000000001
 20
1133.000000000001
 30
0.0
 40
4.0
100
AcDbArc
 50
270.0
 51
0.0
  0
LINE
  5
12C
330
1F
100
AcDbEntity
  8
LAY-10
  6
CONTINUOUS
 62
     7
100
AcDbLine
 10
1396.000000000001
 20
1227.000000000002
 30
0.0
 11
1396.000000000001
 21
1133.000000000001
 31
0.0
  0
ARC
  5
12D
330
1F
100
AcDbEntity
  8
LAY-10
  6
CONTINUOUS
 62
     7
100
AcDbCircle
 10
1391.999999999998
 20
1133.000000000001
 30
0.0
 40
1.0
100
AcDbArc
 50
270.0
 51
0.0
  0
LINE
  5
12E
330
1F
100
AcDbEntity
  8
LAY-10
  6
CONTINUOUS
 62
     7
100
AcDbLine
 10
1392.999999999998
 20
1227.000000000002
 30
0.0
 11
1392.999999999998
 21
1133.000000000001
 31
0.0
  0
LINE
  5
12F
330
1F
100
AcDbEntity
  8
LAY-10
  6
HIDDEN
 62
     7
100
AcDbLine
 10
2426.5
 20
1226.999999999999
 30
0.0
 11
2426.5
 21
1132.0
 31
0.0
  0
LINE
  5
130
330
1F
100
AcDbEntity
  8
LAY-10
  6
HIDDEN
 62
     7
100
AcDbLine
 10
2428.999999999999
 20
1132.0
 30
0.0
 11
2379.0
 21
1132.0
 31
0.0
  0
LINE
  5
131
330
1F
100
AcDbEntity
  8
LAY-10
  6
CONTINUOUS
 62
     7
100
AcDbLine
 10
2428.999999999999
 20
1129.0
 30
0.0
 11
2379.0
 21
1129.0
 31
0.0
  0
LINE
  5
132
330
1F
100
AcDbEntity
  8
LAY-10
  6
CONTINUOUS
 62
     7
100
AcDbLine
 10
2378.999999999999
 20
1226.999999999999
 30
0.0
 11
2378.999999999999
 21
1129.0
 31
0.0
  0
LINE
  5
133
330
1F
100
AcDbEntity
  8
LAY-10
  6
CONTINUOUS
 62
     7
100
AcDbLine
 10
2428.999999999999
 20
1227.999999999999
 30
0.0
 11
2428.999999999999
 21
1125.0
 31
0.0
  0
LINE
  5
134
330
1F
100
AcDbEntity
  8
LAY-10
  6
CONTINUOUS
 62
     7
100
AcDbLine
 10
2431.999999999999
 20
1227.999999999999
 30
0.0
 11
2431.999999999999
 21
1125.0
 31
0.0
  0
LINE
  5
135
330
1F
100
AcDbEntity
  8
LAY-10
  6
HIDDEN
 62
     7
100
AcDbLine
 10
1037.5
 20
1227.0
 30
0.0
 11
1037.5
 21
1132.000000000001
 31
0.0
  0
LINE
  5
136
330
1F
100
AcDbEntity
  8
LAY-10
  6
HIDDEN
 62
     7
100
AcDbLine
 10
1035.000000000001
 20
1132.000000000001
 30
0.0
 11
1085.0
 21
1132.000000000001
 31
0.0
  0
LINE
  5
137
330
1F
100
AcDbEntity
  8
LAY-10
  6
CONTINUOUS
 62
     7
100
AcDbLine
 10
1035.000000000001
 20
1129.000000000002
 30
0.0
 11
1085.0
 21
1129.000000000002
 31
0.0
  0
LINE
  5
138
330
1F
100
AcDbEntity
  8
LAY-10
  6
CONTINUOUS
 62
     7
100
AcDbLine
 10
1085.000000000001
 20
1227.0
 30
0.0
 11
1085.000000000001
 21
1129.000000000002
 31
0.0
  0
LINE
  5
139
330
1F
100
AcDbEntity
  8
LAY-10
  6
CONTINUOUS
 62
     7
100
AcDbLine
 10
1035.000000000001
 20
1228.0
 30
0.0
 11
1035.000000000001
 21
1125.000000000001
 31
0.0
  0
LINE
  5
13A
330
1F
100
AcDbEntity
  8
LAY-10
  6
CONTINUOUS
 62
     7
100
AcDbLine
 10
1032.000000000001
 20
1228.0
 30
0.0
 11
1032.000000000001
 21
1125.000000000001
 31
0.0
  0
ARC
  5
13B
330
1F
100
AcDbEntity
  8
LAY-10
  6
CONTINUOUS
 62
     7
100
AcDbCircle
 10
1353.0
 20
1238.0
 30
0.0
 40
3.0
100
AcDbArc
 50
180.0
 51
270.0
  0
LINE
  5
13C
330
1F
100
AcDbEntity
  8
LAY-10
  6
CONTINUOUS
 62
     7
100
AcDbLine
 10
1350.0
 20
1247.000000000001
 30
0.0
 11
1350.0
 21
1238.0
 31
0.0
  0
ARC
  5
13D
330
1F
100
AcDbEntity
  8
LAY-10
  6
CONTINUOUS
 62
     7
100
AcDbCircle
 10
1376.0
 20
1238.0
 30
0.0
 40
3.0
100
AcDbArc
 50
270.0
 51
0.0
  0
LINE
  5
13E
330
1F
100
AcDbEntity
  8
LAY-10
  6
CONTINUOUS
 62
     7
100
AcDbLine
 10
1379.0
 20
1247.000000000001
 30
0.0
 11
1379.0
 21
1238.0
 31
0.0
  0
LINE
  5
13F
330
1F
100
AcDbEntity
  8
LAY-10
  6
CONTINUOUS
 62
     7
100
AcDbLine
 10
1344.5
 20
1250.0
 30
0.0
 11
1344.5
 21
1248.0
 31
0.0
  0
LINE
  5
140
330
1F
100
AcDbEntity
  8
LAY-10
  6
CONTINUOUS
 62
     7
100
AcDbLine
 10
1384.499999999999
 20
1250.0
 30
0.0
 11
1384.499999999999
 21
1248.0
 31
0.0
  0
LINE
  5
141
330
1F
100
AcDbEntity
  8
LAY-10
  6
CONTINUOUS
 62
     7
100
AcDbLine
 10
1380.0
 20
1250.0
 30
0.0
 11
1384.499999999999
 21
1250.0
 31
0.0
  0
ARC
  5
142
330
1F
100
AcDbEntity
  8
LAY-10
  6
CONTINUOUS
 62
     7
100
AcDbCircle
 10
1348.999999999999
 20
1247.000000000001
 30
0.0
 40
3.0
100
AcDbArc
 50
0.0
 51
90.00000000000001
  0
LINE
  5
143
330
1F
100
AcDbEntity
  8
LAY-10
  6
CONTINUOUS
 62
     7
100
AcDbLine
 10
1351.999999999999
 20
1247.000000000001
 30
0.0
 11
1351.999999999999
 21
1238.0
 31
0.0
  0
LINE
  5
144
330
1F
100
AcDbEntity
  8
LAY-10
  6
CONTINUOUS
 62
     7
100
AcDbLine
 10
1344.5
 20
1250.0
 30
0.0
 11
1348.999999999999
 21
1250.0
 31
0.0
  0
ARC
  5
145
330
1F
100
AcDbEntity
  8
LAY-10
  6
CONTINUOUS
 62
     7
100
AcDbCircle
 10
1379.999999999999
 20
1247.000000000001
 30
0.0
 40
3.0
100
AcDbArc
 50
90.00000000000001
 51
180.0
  0
LINE
  5
146
330
1F
100
AcDbEntity
  8
LAY-10
  6
CONTINUOUS
 62
     7
100
AcDbLine
 10
1376.999999999999
 20
1247.000000000001
 30
0.0
 11
1376.999999999999
 21
1238.0
 31
0.0
  0
ARC
  5
147
330
1F
100
AcDbEntity
  8
LAY-10
  6
CONTINUOUS
 62
     7
100
AcDbCircle
 10
1352.999999999999
 20
1238.0
 30
0.0
 40
1.0
100
AcDbArc
 50
180.0
 51
270.0
  0
LINE
  5
148
330
1F
100
AcDbEntity
  8
LAY-10
  6
CONTINUOUS
 62
     7
100
AcDbLine
 10
1375.999999999999
 20
1237.0
 30
0.0
 11
1352.999999999999
 21
1237.0
 31
0.0
  0
ARC
  5
149
330
1F
100
AcDbEntity
  8
LAY-10
  6
CONTINUOUS
 62
     7
100
AcDbCircle
 10
1349.0
 20
1247.000000000001
 30
0.0
 40
1.0
100
AcDbArc
 50
0.0
 51
90.00000000000001
  0
LINE
  5
14A
330
1F
100
AcDbEntity
  8
LAY-10
  6
CONTINUOUS
 62
     7
100
AcDbLine
 10
1344.5
 20
1248.0
 30
0.0
 11
1349.0
 21
1248.0
 31
0.0
  0
ARC
  5
14B
330
1F
100
AcDbEntity
  8
LAY-10
  6
CONTINUOUS
 62
     7
100
AcDbCircle
 10
1380.0
 20
1247.000000000001
 30
0.0
 40
1.0
100
AcDbArc
 50
90.00000000000001
 51
180.0
  0
LINE
  5
14C
330
1F
100
AcDbEntity
  8
LAY-10
  6
CONTINUOUS
 62
     7
100
AcDbLine
 10
1384.499999999999
 20
1248.0
 30
0.0
 11
1380.0
 21
1248.0
 31
0.0
  0
ARC
  5
14D
330
1F
100
AcDbEntity
  8
LAY-10
  6
CONTINUOUS
 62
     7
100
AcDbCircle
 10
1375.999999999999
 20
1238.0
 30
0.0
 40
1.0
100
AcDbArc
 50
270.0
 51
0.0
  0
ARC
  5
14E
330
1F
100
AcDbEntity
  8
LAY-10
  6
CONTINUOUS
 62
     7
100
AcDbCircle
 10
2111.0
 20
1238.0
 30
0.0
 40
3.0
100
AcDbArc
 50
270.0
 51
0.0
  0
LINE
  5
14F
330
1F
100
AcDbEntity
  8
LAY-10
  6
CONTINUOUS
 62
     7
100
AcDbLine
 10
2114.0
 20
1247.0
 30
0.0
 11
2114.0
 21
1238.0
 31
0.0
  0
ARC
  5
150
330
1F
100
AcDbEntity
  8
LAY-10
  6
CONTINUOUS
 62
     7
100
AcDbCircle
 10
2088.0
 20
1238.0
 30
0.0
 40
3.0
100
AcDbArc
 50
180.0
 51
270.0
  0
LINE
  5
151
330
1F
100
AcDbEntity
  8
LAY-10
  6
CONTINUOUS
 62
     7
100
AcDbLine
 10
2085.0
 20
1247.0
 30
0.0
 11
2085.0
 21
1238.0
 31
0.0
  0
LINE
  5
152
330
1F
100
AcDbEntity
  8
LAY-10
  6
CONTINUOUS
 62
     7
100
AcDbLine
 10
2119.5
 20
1250.0
 30
0.0
 11
2119.5
 21
1248.0
 31
0.0
  0
LINE
  5
153
330
1F
100
AcDbEntity
  8
LAY-10
  6
CONTINUOUS
 62
     7
100
AcDbLine
 10
2079.500000000001
 20
1250.0
 30
0.0
 11
2079.500000000001
 21
1248.0
 31
0.0
  0
LINE
  5
154
330
1F
100
AcDbEntity
  8
LAY-10
  6
CONTINUOUS
 62
     7
100
AcDbLine
 10
2084.0
 20
1250.0
 30
0.0
 11
2079.500000000001
 21
1250.0
 31
0.0
  0
ARC
  5
155
330
1F
100
AcDbEntity
  8
LAY-10
  6
CONTINUOUS
 62
     7
100
AcDbCircle
 10
2115.000000000001
 20
1247.0
 30
0.0
 40
3.0
100
AcDbArc
 50
90.00000000000001
 51
180.0
  0
LINE
  5
156
330
1F
100
AcDbEntity
  8
LAY-10
  6
CONTINUOUS
 62
     7
100
AcDbLine
 10
2112.000000000001
 20
1247.0
 30
0.0
 11
2112.000000000001
 21
1238.0
 31
0.0
  0
LINE
  5
157
330
1F
100
AcDbEntity
  8
LAY-10
  6
CONTINUOUS
 62
     7
100
AcDbLine
 10
2119.5
 20
1250.0
 30
0.0
 11
2115.000000000001
 21
1250.0
 31
0.0
  0
ARC
  5
158
330
1F
100
AcDbEntity
  8
LAY-10
  6
CONTINUOUS
 62
     7
100
AcDbCircle
 10
2084.000000000001
 20
1247.0
 30
0.0
 40
3.0
100
AcDbArc
 50
0.0
 51
90.00000000000001
  0
LINE
  5
159
330
1F
100
AcDbEntity
  8
LAY-10
  6
CONTINUOUS
 62
     7
100
AcDbLine
 10
2087.000000000001
 20
1247.0
 30
0.0
 11
2087.000000000001
 21
1238.0
 31
0.0
  0
ARC
  5
15A
330
1F
100
AcDbEntity
  8
LAY-10
  6
CONTINUOUS
 62
     7
100
AcDbCircle
 10
2111.000000000001
 20
1238.0
 30
0.0
 40
1.0
100
AcDbArc
 50
270.0
 51
0.0
  0
LINE
  5
15B
330
1F
100
AcDbEntity
  8
LAY-10
  6
CONTINUOUS
 62
     7
100
AcDbLine
 10
2088.000000000001
 20
1237.0
 30
0.0
 11
2111.000000000001
 21
1237.0
 31
0.0
  0
ARC
  5
15C
330
1F
100
AcDbEntity
  8
LAY-10
  6
CONTINUOUS
 62
     7
100
AcDbCircle
 10
2115.0
 20
1247.0
 30
0.0
 40
1.0
100
AcDbArc
 50
90.00000000000001
 51
180.0
  0
LINE
  5
15D
330
1F
100
AcDbEntity
  8
LAY-10
  6
CONTINUOUS
 62
     7
100
AcDbLine
 10
2119.5
 20
1248.0
 30
0.0
 11
2115.0
 21
1248.0
 31
0.0
  0
ARC
  5
15E
330
1F
100
AcDbEntity
  8
LAY-10
  6
CONTINUOUS
 62
     7
100
AcDbCircle
 10
2084.0
 20
1247.0
 30
0.0
 40
1.0
100
AcDbArc
 50
0.0
 51
90.00000000000001
  0
LINE
  5
15F
330
1F
100
AcDbEntity
  8
LAY-10
  6
CONTINUOUS
 62
     7
100
AcDbLine
 10
2079.500000000001
 20
1248.0
 30
0.0
 11
2084.0
 21
1248.0
 31
0.0
  0
ARC
  5
160
330
1F
100
AcDbEntity
  8
LAY-10
  6
CONTINUOUS
 62
     7
100
AcDbCircle
 10
2088.000000000001
 20
1238.0
 30
0.0
 40
1.0
100
AcDbArc
 50
180.0
 51
270.0
  0
LINE
  5
161
330
1F
100
AcDbEntity
  8
LAY-10
  6
CONTINUOUS
 62
     7
100
AcDbLine
 10
997.0000000000014
 20
1235.0
 30
0.0
 11
2466.999999999999
 21
1234.999999999999
 31
0.0
  0
LINE
  5
162
330
1F
100
AcDbEntity
  8
LAY-10
  6
CONTINUOUS
 62
     7
100
AcDbLine
 10
1413.188000000058
 20
1221.607695154595
 30
0.0
 11
1430.812000000059
 21
1221.607695154595
 31
0.0
  0
LINE
  5
163
330
1F
100
AcDbEntity
  8
LAY-10
  6
CONTINUOUS
 62
     7
100
AcDbLine
 10
1432.000000000059
 20
1226.803847577293
 30
0.0
 11
1432.000000000057
 21
1216.411542731893
 31
0.0
  0
LINE
  5
164
330
1F
100
AcDbEntity
  8
LAY-10
  6
CONTINUOUS
 62
     7
100
AcDbLine
 10
1412.000000000059
 20
1226.803847577293
 30
0.0
 11
1412.000000000061
 21
1216.411542731893
 31
0.0
  0
ARC
  5
165
330
1F
100
AcDbEntity
  8
LAY-10
  6
CONTINUOUS
 62
     7
100
AcDbCircle
 10
1423.957636363665
 20
1226.803847577296
 30
0.0
 40
11.95763636360607
100
AcDbArc
 50
154.2435414689389
 51
205.7564585310611
  0
ARC
  5
166
330
1F
100
AcDbEntity
  8
LAY-10
  6
CONTINUOUS
 62
     7
100
AcDbCircle
 10
1420.042363636453
 20
1226.803847577296
 30
0.0
 40
11.95763636360607
100
AcDbArc
 50
334.2435414689389
 51
25.75645853106108
  0
ARC
  5
167
330
1F
100
AcDbEntity
  8
LAY-10
  6
CONTINUOUS
 62
     7
100
AcDbCircle
 10
1420.042363636453
 20
1216.411542731895
 30
0.0
 40
11.95763636360607
100
AcDbArc
 50
334.2435414689389
 51
25.75645853106108
  0
ARC
  5
168
330
1F
100
AcDbEntity
  8
LAY-10
  6
CONTINUOUS
 62
     7
100
AcDbCircle
 10
1423.957636363665
 20
1216.411542731895
 30
0.0
 40
11.95763636360607
100
AcDbArc
 50
154.2435414689389
 51
205.7564585310611
  0
LINE
  5
169
330
1F
100
AcDbEntity
  8
LAY-10
  6
CONTINUOUS
 62
     7
100
AcDbLine
 10
1430.812000000059
 20
1211.215390309195
 30
0.0
 11
1413.188000000058
 21
1211.215390309195
 31
0.0
  0
ARC
  5
16A
330
1F
100
AcDbEntity
  8
LAY-10
  6
CONTINUOUS
 62
     7
100
AcDbCircle
 10
1387.999999999981
 20
1228.000000000022
 30
0.0
 40
4.0
100
AcDbArc
 50
0.0
 51
90.00000000000001
  0
LINE
  5
16B
330
1F
100
AcDbEntity
  8
LAY-10
  6
CONTINUOUS
 62
     7
100
AcDbLine
 10
1392.999999999998
 20
1227.000000000002
 30
0.0
 11
1396.000000000001
 21
1227.000000000002
 31
0.0
  0
LINE
  5
16C
330
1F
100
AcDbEntity
  8
LAY-10
  6
CONTINUOUS
 62
     7
100
AcDbLine
 10
1429.0
 20
1285.000000000001
 30
0.0
 11
1429.0
 21
1235.0
 31
0.0
  0
LINE
  5
16D
330
1F
100
AcDbEntity
  8
LAY-10
  6
CONTINUOUS
 62
     7
100
AcDbLine
 10
1432.0
 20
1285.000000000001
 30
0.0
 11
1432.0
 21
1232.000000000001
 31
0.0
  0
LINE
  5
16E
330
1F
100
AcDbEntity
  8
LAY-10
  6
CONTINUOUS
 62
     7
100
AcDbLine
 10
2050.811999999942
 20
1221.607695154595
 30
0.0
 11
2033.187999999941
 21
1221.607695154595
 31
0.0
  0
LINE
  5
16F
330
1F
100
AcDbEntity
  8
LAY-10
  6
CONTINUOUS
 62
     7
100
AcDbLine
 10
2031.999999999942
 20
1226.803847577293
 30
0.0
 11
2031.999999999944
 21
1216.411542731893
 31
0.0
  0
LINE
  5
170
330
1F
100
AcDbEntity
  8
LAY-10
  6
CONTINUOUS
 62
     7
100
AcDbLine
 10
2051.999999999941
 20
1226.803847577293
 30
0.0
 11
2051.999999999939
 21
1216.411542731893
 31
0.0
  0
ARC
  5
171
330
1F
100
AcDbEntity
  8
LAY-10
  6
CONTINUOUS
 62
     7
100
AcDbCircle
 10
2040.042363636336
 20
1226.803847577296
 30
0.0
 40
11.95763636360607
100
AcDbArc
 50
334.2435414689389
 51
25.75645853106108
  0
ARC
  5
172
330
1F
100
AcDbEntity
  8
LAY-10
  6
CONTINUOUS
 62
     7
100
AcDbCircle
 10
2043.957636363547
 20
1226.803847577296
 30
0.0
 40
11.95763636360607
100
AcDbArc
 50
154.2435414689389
 51
205.7564585310611
  0
ARC
  5
173
330
1F
100
AcDbEntity
  8
LAY-10
  6
CONTINUOUS
 62
     7
100
AcDbCircle
 10
2043.957636363547
 20
1216.411542731895
 30
0.0
 40
11.95763636360607
100
AcDbArc
 50
154.2435414689389
 51
205.7564585310611
  0
ARC
  5
174
330
1F
100
AcDbEntity
  8
LAY-10
  6
CONTINUOUS
 62
     7
100
AcDbCircle
 10
2040.042363636336
 20
1216.411542731895
 30
0.0
 40
11.95763636360607
100
AcDbArc
 50
334.2435414689389
 51
25.75645853106108
  0
LINE
  5
175
330
1F
100
AcDbEntity
  8
LAY-10
  6
CONTINUOUS
 62
     7
100
AcDbLine
 10
2033.187999999941
 20
1211.215390309195
 30
0.0
 11
2050.811999999942
 21
1211.215390309195
 31
0.0
  0
LINE
  5
176
330
1F
100
AcDbEntity
  8
LAY-10
  6
CONTINUOUS
 62
     7
100
AcDbLine
 10
2035.0
 20
1285.000000000001
 30
0.0
 11
2035.0
 21
1235.0
 31
0.0
  0
LINE
  5
177
330
1F
100
AcDbEntity
  8
LAY-10
  6
CONTINUOUS
 62
     7
100
AcDbLine
 10
2032.0
 20
1285.000000000001
 30
0.0
 11
2032.0
 21
1232.000000000001
 31
0.0
  0
ARC
  5
178
330
1F
100
AcDbEntity
  8
LAY-10
  6
CONTINUOUS
 62
     7
100
AcDbCircle
 10
2336.0
 20
1237.999999999999
 30
0.0
 40
3.0
100
AcDbArc
 50
270.0
 51
0.0
  0
LINE
  5
179
330
1F
100
AcDbEntity
  8
LAY-10
  6
CONTINUOUS
 62
     7
100
AcDbLine
 10
2339.0
 20
1247.0
 30
0.0
 11
2339.0
 21
1237.999999999999
 31
0.0
  0
ARC
  5
17A
330
1F
100
AcDbEntity
  8
LAY-10
  6
CONTINUOUS
 62
     7
100
AcDbCircle
 10
2313.0
 20
1237.999999999999
 30
0.0
 40
3.0
100
AcDbArc
 50
180.0
 51
270.0
  0
LINE
  5
17B
330
1F
100
AcDbEntity
  8
LAY-10
  6
CONTINUOUS
 62
     7
100
AcDbLine
 10
2310.0
 20
1247.0
 30
0.0
 11
2310.0
 21
1237.999999999999
 31
0.0
  0
LINE
  5
17C
330
1F
100
AcDbEntity
  8
LAY-10
  6
CONTINUOUS
 62
     7
100
AcDbLine
 10
2344.5
 20
1249.999999999999
 30
0.0
 11
2344.5
 21
1248.0
 31
0.0
  0
LINE
  5
17D
330
1F
100
AcDbEntity
  8
LAY-10
  6
CONTINUOUS
 62
     7
100
AcDbLine
 10
2304.500000000001
 20
1249.999999999999
 30
0.0
 11
2304.500000000001
 21
1248.0
 31
0.0
  0
LINE
  5
17E
330
1F
100
AcDbEntity
  8
LAY-10
  6
CONTINUOUS
 62
     7
100
AcDbLine
 10
2309.0
 20
1249.999999999999
 30
0.0
 11
2304.500000000001
 21
1249.999999999999
 31
0.0
  0
ARC
  5
17F
330
1F
100
AcDbEntity
  8
LAY-10
  6
CONTINUOUS
 62
     7
100
AcDbCircle
 10
2340.0
 20
1247.0
 30
0.0
 40
3.0
100
AcDbArc
 50
90.00000000000001
 51
180.0
  0
LINE
  5
180
330
1F
100
AcDbEntity
  8
LAY-10
  6
CONTINUOUS
 62
     7
100
AcDbLine
 10
2337.0
 20
1247.0
 30
0.0
 11
2337.0
 21
1237.999999999999
 31
0.0
  0
LINE
  5
181
330
1F
100
AcDbEntity
  8
LAY-10
  6
CONTINUOUS
 62
     7
100
AcDbLine
 10
2344.5
 20
1249.999999999999
 30
0.0
 11
2340.0
 21
1249.999999999999
 31
0.0
  0
ARC
  5
182
330
1F
100
AcDbEntity
  8
LAY-10
  6
CONTINUOUS
 62
     7
100
AcDbCircle
 10
2309.0
 20
1247.0
 30
0.0
 40
3.0
100
AcDbArc
 50
0.0
 51
90.00000000000001
  0
LINE
  5
183
330
1F
100
AcDbEntity
  8
LAY-10
  6
CONTINUOUS
 62
     7
100
AcDbLine
 10
2312.000000000001
 20
1247.0
 30
0.0
 11
2312.000000000001
 21
1237.999999999999
 31
0.0
  0
ARC
  5
184
330
1F
100
AcDbEntity
  8
LAY-10
  6
CONTINUOUS
 62
     7
100
AcDbCircle
 10
2336.000000000001
 20
1237.999999999999
 30
0.0
 40
1.0
100
AcDbArc
 50
270.0
 51
0.0
  0
LINE
  5
185
330
1F
100
AcDbEntity
  8
LAY-10
  6
CONTINUOUS
 62
     7
100
AcDbLine
 10
2313.000000000001
 20
1236.999999999999
 30
0.0
 11
2336.000000000001
 21
1236.999999999999
 31
0.0
  0
ARC
  5
186
330
1F
100
AcDbEntity
  8
LAY-10
  6
CONTINUOUS
 62
     7
100
AcDbCircle
 10
2340.0
 20
1247.0
 30
0.0
 40
1.0
100
AcDbArc
 50
90.00000000000001
 51
180.0
  0
LINE
  5
187
330
1F
100
AcDbEntity
  8
LAY-10
  6
CONTINUOUS
 62
     7
100
AcDbLine
 10
2344.5
 20
1248.0
 30
0.0
 11
2340.0
 21
1248.0
 31
0.0
  0
ARC
  5
188
330
1F
100
AcDbEntity
  8
LAY-10
  6
CONTINUOUS
 62
     7
100
AcDbCircle
 10
2309.0
 20
1247.0
 30
0.0
 40
1.0
100
AcDbArc
 50
0.0
 51
90.00000000000001
  0
LINE
  5
189
330
1F
100
AcDbEntity
  8
LAY-10
  6
CONTINUOUS
 62
     7
100
AcDbLine
 10
2304.500000000001
 20
1248.0
 30
0.0
 11
2309.0
 21
1248.0
 31
0.0
  0
ARC
  5
18A
330
1F
100
AcDbEntity
  8
LAY-10
  6
CONTINUOUS
 62
     7
100
AcDbCircle
 10
2313.000000000001
 20
1237.999999999999
 30
0.0
 40
1.0
100
AcDbArc
 50
180.0
 51
270.0
  0
LINE
  5
18B
330
1F
100
AcDbEntity
  8
LAY-10
  6
CONTINUOUS
 62
     7
100
AcDbLine
 10
2426.5
 20
1226.999999999999
 30
0.0
 11
2426.5
 21
1232.0
 31
0.0
  0
LINE
  5
18C
330
1F
100
AcDbEntity
  8
LAY-10
  6
CONTINUOUS
 62
     7
100
AcDbLine
 10
2472.999999999999
 20
1232.0
 30
0.0
 11
2472.999999999999
 21
1256.999999999999
 31
0.0
  0
LINE
  5
18D
330
1F
100
AcDbEntity
  8
LAY-10
  6
CONTINUOUS
 62
     7
100
AcDbLine
 10
2473.0
 20
1256.999999999999
 30
0.0
 11
2466.999999999999
 21
1256.999999999999
 31
0.0
  0
LINE
  5
18E
330
1F
100
AcDbEntity
  8
LAY-10
  6
CONTINUOUS
 62
     7
100
AcDbLine
 10
2514.0
 20
1226.0
 30
0.0
 11
2514.0
 21
1228.999999999999
 31
0.0
  0
LINE
  5
18F
330
1F
100
AcDbEntity
  8
LAY-10
  6
CONTINUOUS
 62
     7
100
AcDbLine
 10
2514.0
 20
1226.0
 30
0.0
 11
2479.0
 21
1226.0
 31
0.0
  0
LINE
  5
190
330
1F
100
AcDbEntity
  8
LAY-10
  6
CONTINUOUS
 62
     7
100
AcDbLine
 10
2514.0
 20
1228.999999999999
 30
0.0
 11
2433.0
 21
1228.999999999999
 31
0.0
  0
LINE
  5
191
330
1F
100
AcDbEntity
  8
LAY-10
  6
CONTINUOUS
 62
     7
100
AcDbLine
 10
2428.999999999999
 20
1226.999999999999
 30
0.0
 11
2379.0
 21
1226.999999999999
 31
0.0
  0
LINE
  5
192
330
1F
100
AcDbEntity
  8
LAY-10
  6
CONTINUOUS
 62
     7
100
AcDbLine
 10
2459.0
 20
1189.0
 30
0.0
 11
2450.339745962155
 21
1193.999999999999
 31
0.0
  0
LINE
  5
193
330
1F
100
AcDbEntity
  8
LAY-10
  6
CONTINUOUS
 62
     7
100
AcDbLine
 10
2467.660254037844
 20
1193.999999999999
 30
0.0
 11
2459.0
 21
1189.0
 31
0.0
  0
LINE
  5
194
330
1F
100
AcDbEntity
  8
LAY-10
  6
CONTINUOUS
 62
     7
100
AcDbLine
 10
2467.660254037844
 20
1204.0
 30
0.0
 11
2467.660254037844
 21
1193.999999999999
 31
0.0
  0
LINE
  5
195
330
1F
100
AcDbEntity
  8
LAY-10
  6
CONTINUOUS
 62
     7
100
AcDbLine
 10
2459.0
 20
1208.999999999999
 30
0.0
 11
2467.660254037844
 21
1204.0
 31
0.0
  0
LINE
  5
196
330
1F
100
AcDbEntity
  8
LAY-10
  6
CONTINUOUS
 62
     7
100
AcDbLine
 10
2450.339745962155
 20
1204.0
 30
0.0
 11
2459.0
 21
1208.999999999999
 31
0.0
  0
LINE
  5
197
330
1F
100
AcDbEntity
  8
LAY-10
  6
CONTINUOUS
 62
     7
100
AcDbLine
 10
2450.339745962155
 20
1193.999999999999
 30
0.0
 11
2450.339745962155
 21
1204.0
 31
0.0
  0
CIRCLE
  5
198
330
1F
100
AcDbEntity
  8
LAY-10
  6
CONTINUOUS
 62
     7
100
AcDbCircle
 10
2459.0
 20
1198.999999999999
 30
0.0
 40
8.66025403784441
  0
LINE
  5
199
330
1F
100
AcDbEntity
  8
LAY-10
  6
CONTINUOUS
 62
     7
100
AcDbLine
 10
2479.0
 20
1228.999999999999
 30
0.0
 11
2479.0
 21
1178.999999999999
 31
0.0
  0
LINE
  5
19A
330
1F
100
AcDbEntity
  8
LAY-10
  6
CONTINUOUS
 62
     7
100
AcDbLine
 10
2479.0
 20
1178.999999999999
 30
0.0
 11
2432.0
 21
1178.999999999999
 31
0.0
  0
LINE
  5
19B
330
1F
100
AcDbEntity
  8
LAY-10
  6
CONTINUOUS
 62
     7
100
AcDbLine
 10
2463.999999999999
 20
1284.999999999999
 30
0.0
 11
2463.999999999999
 21
1234.999999999999
 31
0.0
  0
ARC
  5
19C
330
1F
100
AcDbEntity
  8
LAY-10
  6
CONTINUOUS
 62
     7
100
AcDbCircle
 10
2433.0
 20
1227.999999999999
 30
0.0
 40
4.0
100
AcDbArc
 50
90.00000000000001
 51
180.0
  0
ARC
  5
19D
330
1F
100
AcDbEntity
  8
LAY-10
  6
CONTINUOUS
 62
     7
100
AcDbCircle
 10
2475.0
 20
1233.0
 30
0.0
 40
4.0
100
AcDbArc
 50
270.0
 51
0.0
  0
LINE
  5
19E
330
1F
100
AcDbEntity
  8
LAY-10
  6
CONTINUOUS
 62
     7
100
AcDbLine
 10
2479.0
 20
1284.999999999999
 30
0.0
 11
2479.0
 21
1233.0
 31
0.0
  0
ARC
  5
19F
330
1F
100
AcDbEntity
  8
LAY-10
  6
CONTINUOUS
 62
     7
100
AcDbCircle
 10
2474.999999999999
 20
1233.0
 30
0.0
 40
1.0
100
AcDbArc
 50
270.0
 51
0.0
  0
LINE
  5
1A0
330
1F
100
AcDbEntity
  8
LAY-10
  6
CONTINUOUS
 62
     7
100
AcDbLine
 10
2475.999999999999
 20
1284.999999999999
 30
0.0
 11
2475.999999999999
 21
1233.0
 31
0.0
  0
ARC
  5
1A1
330
1F
100
AcDbEntity
  8
LAY-10
  6
CONTINUOUS
 62
     7
100
AcDbCircle
 10
2433.0
 20
1227.999999999999
 30
0.0
 40
1.0
100
AcDbArc
 50
90.00000000000001
 51
180.0
  0
LINE
  5
1A2
330
1F
100
AcDbEntity
  8
LAY-10
  6
CONTINUOUS
 62
     7
100
AcDbLine
 10
2466.999999999999
 20
1284.999999999999
 30
0.0
 11
2466.999999999999
 21
1232.0
 31
0.0
  0
ARC
  5
1A3
330
1F
100
AcDbEntity
  8
LAY-10
  6
CONTINUOUS
 62
     7
100
AcDbCircle
 10
1128.0
 20
1238.0
 30
0.0
 40
3.0
100
AcDbArc
 50
180.0
 51
270.0
  0
LINE
  5
1A4
330
1F
100
AcDbEntity
  8
LAY-10
  6
CONTINUOUS
 62
     7
100
AcDbLine
 10
1125.0
 20
1247.0
 30
0.0
 11
1125.0
 21
1238.0
 31
0.0
  0
ARC
  5
1A5
330
1F
100
AcDbEntity
  8
LAY-10
  6
CONTINUOUS
 62
     7
100
AcDbCircle
 10
1151.0
 20
1238.0
 30
0.0
 40
3.0
100
AcDbArc
 50
270.0
 51
0.0
  0
LINE
  5
1A6
330
1F
100
AcDbEntity
  8
LAY-10
  6
CONTINUOUS
 62
     7
100
AcDbLine
 10
1154.0
 20
1247.0
 30
0.0
 11
1154.0
 21
1238.0
 31
0.0
  0
LINE
  5
1A7
330
1F
100
AcDbEntity
  8
LAY-10
  6
CONTINUOUS
 62
     7
100
AcDbLine
 10
1119.5
 20
1250.0
 30
0.0
 11
1119.5
 21
1248.0
 31
0.0
  0
LINE
  5
1A8
330
1F
100
AcDbEntity
  8
LAY-10
  6
CONTINUOUS
 62
     7
100
AcDbLine
 10
1159.499999999999
 20
1250.0
 30
0.0
 11
1159.499999999999
 21
1248.0
 31
0.0
  0
LINE
  5
1A9
330
1F
100
AcDbEntity
  8
LAY-10
  6
CONTINUOUS
 62
     7
100
AcDbLine
 10
1155.0
 20
1250.0
 30
0.0
 11
1159.499999999999
 21
1250.0
 31
0.0
  0
ARC
  5
1AA
330
1F
100
AcDbEntity
  8
LAY-10
  6
CONTINUOUS
 62
     7
100
AcDbCircle
 10
1123.999999999999
 20
1247.0
 30
0.0
 40
3.0
100
AcDbArc
 50
0.0
 51
90.00000000000001
  0
LINE
  5
1AB
330
1F
100
AcDbEntity
  8
LAY-10
  6
CONTINUOUS
 62
     7
100
AcDbLine
 10
1127.0
 20
1247.0
 30
0.0
 11
1127.0
 21
1238.0
 31
0.0
  0
LINE
  5
1AC
330
1F
100
AcDbEntity
  8
LAY-10
  6
CONTINUOUS
 62
     7
100
AcDbLine
 10
1119.5
 20
1250.0
 30
0.0
 11
1123.999999999999
 21
1250.0
 31
0.0
  0
ARC
  5
1AD
330
1F
100
AcDbEntity
  8
LAY-10
  6
CONTINUOUS
 62
     7
100
AcDbCircle
 10
1154.999999999999
 20
1247.0
 30
0.0
 40
3.0
100
AcDbArc
 50
90.00000000000001
 51
180.0
  0
LINE
  5
1AE
330
1F
100
AcDbEntity
  8
LAY-10
  6
CONTINUOUS
 62
     7
100
AcDbLine
 10
1151.999999999999
 20
1247.0
 30
0.0
 11
1151.999999999999
 21
1238.0
 31
0.0
  0
ARC
  5
1AF
330
1F
100
AcDbEntity
  8
LAY-10
  6
CONTINUOUS
 62
     7
100
AcDbCircle
 10
1127.999999999999
 20
1238.0
 30
0.0
 40
1.0
100
AcDbArc
 50
180.0
 51
270.0
  0
LINE
  5
1B0
330
1F
100
AcDbEntity
  8
LAY-10
  6
CONTINUOUS
 62
     7
100
AcDbLine
 10
1150.999999999999
 20
1237.0
 30
0.0
 11
1127.999999999999
 21
1237.0
 31
0.0
  0
ARC
  5
1B1
330
1F
100
AcDbEntity
  8
LAY-10
  6
CONTINUOUS
 62
     7
100
AcDbCircle
 10
1124.0
 20
1247.0
 30
0.0
 40
1.0
100
AcDbArc
 50
0.0
 51
90.00000000000001
  0
LINE
  5
1B2
330
1F
100
AcDbEntity
  8
LAY-10
  6
CONTINUOUS
 62
     7
100
AcDbLine
 10
1119.5
 20
1248.0
 30
0.0
 11
1124.0
 21
1248.0
 31
0.0
  0
ARC
  5
1B3
330
1F
100
AcDbEntity
  8
LAY-10
  6
CONTINUOUS
 62
     7
100
AcDbCircle
 10
1155.0
 20
1247.0
 30
0.0
 40
1.0
100
AcDbArc
 50
90.00000000000001
 51
180.0
  0
LINE
  5
1B4
330
1F
100
AcDbEntity
  8
LAY-10
  6
CONTINUOUS
 62
     7
100
AcDbLine
 10
1159.499999999999
 20
1248.0
 30
0.0
 11
1155.0
 21
1248.0
 31
0.0
  0
ARC
  5
1B5
330
1F
100
AcDbEntity
  8
LAY-10
  6
CONTINUOUS
 62
     7
100
AcDbCircle
 10
1150.999999999999
 20
1238.0
 30
0.0
 40
1.0
100
AcDbArc
 50
270.0
 51
0.0
  0
LINE
  5
1B6
330
1F
100
AcDbEntity
  8
LAY-10
  6
CONTINUOUS
 62
     7
100
AcDbLine
 10
1037.5
 20
1227.0
 30
0.0
 11
1037.5
 21
1232.0
 31
0.0
  0
LINE
  5
1B7
330
1F
100
AcDbEntity
  8
LAY-10
  6
CONTINUOUS
 62
     7
100
AcDbLine
 10
991.0000000000008
 20
1232.0
 30
0.0
 11
991.0000000000008
 21
1257.0
 31
0.0
  0
LINE
  5
1B8
330
1F
100
AcDbEntity
  8
LAY-10
  6
CONTINUOUS
 62
     7
100
AcDbLine
 10
991.0000000000003
 20
1257.0
 30
0.0
 11
997.0000000000014
 21
1257.0
 31
0.0
  0
LINE
  5
1B9
330
1F
100
AcDbEntity
  8
LAY-10
  6
CONTINUOUS
 62
     7
100
AcDbLine
 10
950.0
 20
1226.0
 30
0.0
 11
950.0
 21
1229.0
 31
0.0
  0
LINE
  5
1BA
330
1F
100
AcDbEntity
  8
LAY-10
  6
CONTINUOUS
 62
     7
100
AcDbLine
 10
950.0
 20
1226.000000000001
 30
0.0
 11
985.0000000000001
 21
1226.000000000001
 31
0.0
  0
LINE
  5
1BB
330
1F
100
AcDbEntity
  8
LAY-10
  6
CONTINUOUS
 62
     7
100
AcDbLine
 10
950.0
 20
1229.0
 30
0.0
 11
1031.000000000001
 21
1229.0
 31
0.0
  0
LINE
  5
1BC
330
1F
100
AcDbEntity
  8
LAY-10
  6
CONTINUOUS
 62
     7
100
AcDbLine
 10
1035.000000000001
 20
1227.0
 30
0.0
 11
1085.0
 21
1227.0
 31
0.0
  0
LINE
  5
1BD
330
1F
100
AcDbEntity
  8
LAY-10
  6
CONTINUOUS
 62
     7
100
AcDbLine
 10
1005.0
 20
1189.0
 30
0.0
 11
1013.660254037845
 21
1194.0
 31
0.0
  0
LINE
  5
1BE
330
1F
100
AcDbEntity
  8
LAY-10
  6
CONTINUOUS
 62
     7
100
AcDbLine
 10
996.3397459621557
 20
1194.0
 30
0.0
 11
1005.0
 21
1189.0
 31
0.0
  0
LINE
  5
1BF
330
1F
100
AcDbEntity
  8
LAY-10
  6
CONTINUOUS
 62
     7
100
AcDbLine
 10
996.3397459621557
 20
1204.0
 30
0.0
 11
996.3397459621557
 21
1194.0
 31
0.0
  0
LINE
  5
1C0
330
1F
100
AcDbEntity
  8
LAY-10
  6
CONTINUOUS
 62
     7
100
AcDbLine
 10
1005.0
 20
1209.0
 30
0.0
 11
996.3397459621557
 21
1204.0
 31
0.0
  0
LINE
  5
1C1
330
1F
100
AcDbEntity
  8
LAY-10
  6
CONTINUOUS
 62
     7
100
AcDbLine
 10
1013.660254037845
 20
1204.0
 30
0.0
 11
1005.0
 21
1209.0
 31
0.0
  0
LINE
  5
1C2
330
1F
100
AcDbEntity
  8
LAY-10
  6
CONTINUOUS
 62
     7
100
AcDbLine
 10
1013.660254037845
 20
1194.0
 30
0.0
 11
1013.660254037845
 21
1204.0
 31
0.0
  0
CIRCLE
  5
1C3
330
1F
100
AcDbEntity
  8
LAY-10
  6
CONTINUOUS
 62
     7
100
AcDbCircle
 10
1005.0
 20
1199.0
 30
0.0
 40
8.66025403784441
  0
LINE
  5
1C4
330
1F
100
AcDbEntity
  8
LAY-10
  6
CONTINUOUS
 62
     7
100
AcDbLine
 10
985.0000000000001
 20
1229.0
 30
0.0
 11
985.0000000000001
 21
1179.0
 31
0.0
  0
LINE
  5
1C5
330
1F
100
AcDbEntity
  8
LAY-10
  6
CONTINUOUS
 62
     7
100
AcDbLine
 10
985.0000000000001
 20
1178.999999999999
 30
0.0
 11
1032.0
 21
1178.999999999999
 31
0.0
  0
LINE
  5
1C6
330
1F
100
AcDbEntity
  8
LAY-10
  6
CONTINUOUS
 62
     7
100
AcDbLine
 10
1000.000000000001
 20
1285.000000000001
 30
0.0
 11
1000.000000000001
 21
1235.0
 31
0.0
  0
ARC
  5
1C7
330
1F
100
AcDbEntity
  8
LAY-10
  6
CONTINUOUS
 62
     7
100
AcDbCircle
 10
1031.000000000001
 20
1228.0
 30
0.0
 40
4.0
100
AcDbArc
 50
0.0
 51
90.00000000000001
  0
ARC
  5
1C8
330
1F
100
AcDbEntity
  8
LAY-10
  6
CONTINUOUS
 62
     7
100
AcDbCircle
 10
989.0000000000001
 20
1233.0
 30
0.0
 40
4.0
100
AcDbArc
 50
180.0
 51
270.0
  0
LINE
  5
1C9
330
1F
100
AcDbEntity
  8
LAY-10
  6
CONTINUOUS
 62
     7
100
AcDbLine
 10
985.0000000000001
 20
1285.0
 30
0.0
 11
985.0000000000001
 21
1233.0
 31
0.0
  0
ARC
  5
1CA
330
1F
100
AcDbEntity
  8
LAY-10
  6
CONTINUOUS
 62
     7
100
AcDbCircle
 10
989.0000000000009
 20
1233.0
 30
0.0
 40
1.0
100
AcDbArc
 50
180.0
 51
270.0
  0
LINE
  5
1CB
330
1F
100
AcDbEntity
  8
LAY-10
  6
CONTINUOUS
 62
     7
100
AcDbLine
 10
988.000000000001
 20
1285.000000000001
 30
0.0
 11
988.000000000001
 21
1233.0
 31
0.0
  0
ARC
  5
1CC
330
1F
100
AcDbEntity
  8
LAY-10
  6
CONTINUOUS
 62
     7
100
AcDbCircle
 10
1031.000000000001
 20
1228.0
 30
0.0
 40
1.0
100
AcDbArc
 50
0.0
 51
90.00000000000001
  0
LINE
  5
1CD
330
1F
100
AcDbEntity
  8
LAY-10
  6
CONTINUOUS
 62
     7
100
AcDbLine
 10
997.0000000000014
 20
1285.000000000001
 30
0.0
 11
997.0000000000014
 21
1232.0
 31
0.0
  0
LINE
  5
1CE
330
1F
100
AcDbEntity
  8
LAY-10
  6
CONTINUOUS
 62
     7
100
AcDbLine
 10
1732.0
 20
1285.0
 30
0.0
 11
1732.0
 21
1232.000000000001
 31
0.0
  0
LINE
  5
1CF
330
1F
100
AcDbEntity
  8
LAY-10
  6
HIDDEN
 62
     7
100
AcDbLine
 10
1291.999999999998
 20
2388.999999999997
 30
0.0
 11
1291.999999999998
 21
3069.0
 31
0.0
  0
LINE
  5
1D0
330
1F
100
AcDbEntity
  8
LAY-10
  6
HIDDEN
 62
     7
100
AcDbLine
 10
2172.0
 20
2388.999999999998
 30
0.0
 11
2172.0
 21
3069.0
 31
0.0
  0
LINE
  5
1D1
330
1F
100
AcDbEntity
  8
LAY-10
  6
HIDDEN
 62
     7
100
AcDbLine
 10
2429.0
 20
2288.999999999998
 30
0.0
 11
1034.999999999998
 21
2288.999999999996
 31
0.0
  0
LINE
  5
1D2
330
1F
100
AcDbEntity
  8
LAY-10
  6
HIDDEN
 62
     7
100
AcDbLine
 10
2429.0
 20
3169.0
 30
0.0
 11
1034.999999999997
 21
3168.999999999998
 31
0.0
  0
LINE
  5
1D3
330
1F
100
AcDbEntity
  8
LAY-10
  6
HIDDEN
 62
     7
100
AcDbLine
 10
1034.999999999998
 20
2388.999999999997
 30
0.0
 11
2429.0
 21
2388.999999999997
 31
0.0
  0
LINE
  5
1D4
330
1F
100
AcDbEntity
  8
LAY-10
  6
HIDDEN
 62
     7
100
AcDbLine
 10
1034.999999999997
 20
3069.0
 30
0.0
 11
2429.0
 21
3069.0
 31
0.0
  0
LINE
  5
1D5
330
1F
100
AcDbEntity
  8
LAY-10
  6
HIDDEN
 62
     7
100
AcDbLine
 10
2429.0
 20
2032.0
 30
0.0
 11
2429.0
 21
3426.0
 31
0.0
  0
LINE
  5
1D6
330
1F
100
AcDbEntity
  8
LAY-10
  6
HIDDEN
 62
     7
100
AcDbLine
 10
2429.0
 20
2031.999999999998
 30
0.0
 11
1034.999999999998
 21
2031.999999999996
 31
0.0
  0
LINE
  5
1D7
330
1F
100
AcDbEntity
  8
LAY-10
  6
HIDDEN
 62
     7
100
AcDbLine
 10
1034.999999999998
 20
2032.0
 30
0.0
 11
1034.999999999997
 21
3426.0
 31
0.0
  0
LINE
  5
1D8
330
1F
100
AcDbEntity
  8
LAY-10
  6
HIDDEN
 62
     7
100
AcDbLine
 10
2429.0
 20
3426.0
 30
0.0
 11
1034.999999999998
 21
3426.0
 31
0.0
  0
LINE
  5
1D9
330
1F
100
AcDbEntity
  8
LAY-10
  6
HIDDEN
 62
     7
100
AcDbLine
 10
2072.0
 20
3069.0
 30
0.0
 11
2072.0
 21
2388.999999999998
 31
0.0
  0
LINE
  5
1DA
330
1F
100
AcDbEntity
  8
LAY-10
  6
HIDDEN
 62
     7
100
AcDbLine
 10
1391.999999999997
 20
3069.0
 30
0.0
 11
1391.999999999997
 21
2388.999999999997
 31
0.0
  0
CIRCLE
  5
1DB
330
1F
100
AcDbEntity
  8
LAY-10
  6
CONTINUOUS
 62
     7
100
AcDbCircle
 10
1476.999999999998
 20
3209.0
 30
0.0
 40
5.0
  0
LINE
  5
1DC
330
1F
100
AcDbEntity
  8
LAY-10
  6
CONTINUOUS
 62
     7
100
AcDbLine
 10
1609.499999999998
 20
3079.0
 30
0.0
 11
1609.499999999997
 21
3414.0
 31
0.0
  0
LINE
  5
1DD
330
1F
100
AcDbEntity
  8
LAY-10
  6
CONTINUOUS
 62
     7
100
AcDbLine
 10
1601.999999999997
 20
3414.0
 30
0.0
 11
1601.999999999998
 21
3079.0
 31
0.0
  0
LINE
  5
1DE
330
1F
100
AcDbEntity
  8
LAY-10
  6
CONTINUOUS
 62
     7
100
AcDbLine
 10
1569.499999999999
 20
3079.0
 30
0.0
 11
1569.499999999999
 21
3414.0
 31
0.0
  0
LINE
  5
1DF
330
1F
100
AcDbEntity
  8
LAY-10
  6
CONTINUOUS
 62
     7
100
AcDbLine
 10
1576.999999999998
 20
3414.0
 30
0.0
 11
1576.999999999999
 21
3079.0
 31
0.0
  0
LINE
  5
1E0
330
1F
100
AcDbEntity
  8
LAY-10
  6
CONTINUOUS
 62
     7
100
AcDbLine
 10
1569.499999999998
 20
3078.999999999999
 30
0.0
 11
1609.499999999998
 21
3078.999999999999
 31
0.0
  0
LINE
  5
1E1
330
1F
100
AcDbEntity
  8
LAY-10
  6
CONTINUOUS
 62
     7
100
AcDbLine
 10
1569.499999999999
 20
3414.0
 30
0.0
 11
1609.499999999998
 21
3414.0
 31
0.0
  0
CIRCLE
  5
1E2
330
1F
100
AcDbEntity
  8
LAY-10
  6
CONTINUOUS
 62
     7
100
AcDbCircle
 10
1251.999999999998
 20
2984.0
 30
0.0
 40
5.0
  0
CIRCLE
  5
1E3
330
1F
100
AcDbEntity
  8
LAY-10
  6
CONTINUOUS
 62
     7
100
AcDbCircle
 10
1251.999999999998
 20
3209.0
 30
0.0
 40
5.0
  0
LINE
  5
1E4
330
1F
100
AcDbEntity
  8
LAY-10
  6
CONTINUOUS
 62
     7
100
AcDbLine
 10
1384.499999999998
 20
2779.0
 30
0.0
 11
1384.499999999997
 21
3414.0
 31
0.0
  0
LINE
  5
1E5
330
1F
100
AcDbEntity
  8
LAY-10
  6
CONTINUOUS
 62
     7
100
AcDbLine
 10
1376.999999999996
 20
3414.0
 30
0.0
 11
1376.999999999998
 21
2779.0
 31
0.0
  0
LINE
  5
1E6
330
1F
100
AcDbEntity
  8
LAY-10
  6
CONTINUOUS
 62
     7
100
AcDbLine
 10
1344.499999999999
 20
2779.0
 30
0.0
 11
1344.499999999998
 21
3414.0
 31
0.0
  0
LINE
  5
1E7
330
1F
100
AcDbEntity
  8
LAY-10
  6
CONTINUOUS
 62
     7
100
AcDbLine
 10
1351.999999999998
 20
3414.0
 30
0.0
 11
1351.999999999998
 21
2779.0
 31
0.0
  0
LINE
  5
1E8
330
1F
100
AcDbEntity
  8
LAY-10
  6
CONTINUOUS
 62
     7
100
AcDbLine
 10
1344.499999999998
 20
3414.0
 30
0.0
 11
1384.499999999998
 21
3414.0
 31
0.0
  0
LINE
  5
1E9
330
1F
100
AcDbEntity
  8
LAY-10
  6
CONTINUOUS
 62
     7
100
AcDbLine
 10
1344.499999999998
 20
2778.999999999999
 30
0.0
 11
1384.499999999998
 21
2779.0
 31
0.0
  0
LINE
  5
1EA
330
1F
100
AcDbEntity
  8
LAY-10
  6
CONTINUOUS
 62
     7
100
AcDbLine
 10
1159.499999999998
 20
2778.999999999999
 30
0.0
 11
1159.499999999997
 21
3413.999999999999
 31
0.0
  0
LINE
  5
1EB
330
1F
100
AcDbEntity
  8
LAY-10
  6
CONTINUOUS
 62
     7
100
AcDbLine
 10
1151.999999999996
 20
3413.999999999999
 30
0.0
 11
1151.999999999998
 21
2778.999999999999
 31
0.0
  0
LINE
  5
1EC
330
1F
100
AcDbEntity
  8
LAY-10
  6
CONTINUOUS
 62
     7
100
AcDbLine
 10
1119.499999999999
 20
2778.999999999999
 30
0.0
 11
1119.499999999998
 21
3413.999999999999
 31
0.0
  0
LINE
  5
1ED
330
1F
100
AcDbEntity
  8
LAY-10
  6
CONTINUOUS
 62
     7
100
AcDbLine
 10
1126.999999999998
 20
3413.999999999999
 30
0.0
 11
1126.999999999999
 21
2778.999999999999
 31
0.0
  0
LINE
  5
1EE
330
1F
100
AcDbEntity
  8
LAY-10
  6
CONTINUOUS
 62
     7
100
AcDbLine
 10
1119.499999999998
 20
3413.999999999999
 30
0.0
 11
1159.499999999997
 21
3413.999999999999
 31
0.0
  0
LINE
  5
1EF
330
1F
100
AcDbEntity
  8
LAY-10
  6
CONTINUOUS
 62
     7
100
AcDbLine
 10
1119.499999999998
 20
2778.999999999998
 30
0.0
 11
1159.499999999998
 21
2778.999999999998
 31
0.0
  0
CIRCLE
  5
1F0
330
1F
100
AcDbEntity
  8
LAY-10
  6
CONTINUOUS
 62
     7
100
AcDbCircle
 10
1251.999999999998
 20
2473.999999999996
 30
0.0
 40
5.0
  0
CIRCLE
  5
1F1
330
1F
100
AcDbEntity
  8
LAY-10
  6
CONTINUOUS
 62
     7
100
AcDbCircle
 10
1251.999999999998
 20
2248.999999999996
 30
0.0
 40
5.0
  0
LINE
  5
1F2
330
1F
100
AcDbEntity
  8
LAY-10
  6
CONTINUOUS
 62
     7
100
AcDbLine
 10
1384.499999999998
 20
2678.999999999997
 30
0.0
 11
1384.499999999998
 21
2043.999999999996
 31
0.0
  0
LINE
  5
1F3
330
1F
100
AcDbEntity
  8
LAY-10
  6
CONTINUOUS
 62
     7
100
AcDbLine
 10
1376.999999999997
 20
2043.999999999996
 30
0.0
 11
1376.999999999998
 21
2678.999999999997
 31
0.0
  0
LINE
  5
1F4
330
1F
100
AcDbEntity
  8
LAY-10
  6
CONTINUOUS
 62
     7
100
AcDbLine
 10
1344.499999999999
 20
2678.999999999996
 30
0.0
 11
1344.499999999999
 21
2043.999999999996
 31
0.0
  0
LINE
  5
1F5
330
1F
100
AcDbEntity
  8
LAY-10
  6
CONTINUOUS
 62
     7
100
AcDbLine
 10
1351.999999999999
 20
2043.999999999996
 30
0.0
 11
1351.999999999998
 21
2678.999999999997
 31
0.0
  0
LINE
  5
1F6
330
1F
100
AcDbEntity
  8
LAY-10
  6
CONTINUOUS
 62
     7
100
AcDbLine
 10
1344.499999999999
 20
2043.999999999996
 30
0.0
 11
1384.499999999999
 21
2043.999999999996
 31
0.0
  0
LINE
  5
1F7
330
1F
100
AcDbEntity
  8
LAY-10
  6
CONTINUOUS
 62
     7
100
AcDbLine
 10
1344.499999999998
 20
2678.999999999997
 30
0.0
 11
1384.499999999998
 21
2678.999999999997
 31
0.0
  0
LINE
  5
1F8
330
1F
100
AcDbEntity
  8
LAY-10
  6
CONTINUOUS
 62
     7
100
AcDbLine
 10
1159.499999999998
 20
2678.999999999997
 30
0.0
 11
1159.499999999998
 21
2043.999999999997
 31
0.0
  0
LINE
  5
1F9
330
1F
100
AcDbEntity
  8
LAY-10
  6
CONTINUOUS
 62
     7
100
AcDbLine
 10
1151.999999999997
 20
2043.999999999997
 30
0.0
 11
1151.999999999998
 21
2678.999999999997
 31
0.0
  0
LINE
  5
1FA
330
1F
100
AcDbEntity
  8
LAY-10
  6
CONTINUOUS
 62
     7
100
AcDbLine
 10
1119.499999999999
 20
2678.999999999997
 30
0.0
 11
1119.499999999999
 21
2043.999999999997
 31
0.0
  0
LINE
  5
1FB
330
1F
100
AcDbEntity
  8
LAY-10
  6
CONTINUOUS
 62
     7
100
AcDbLine
 10
1126.999999999999
 20
2043.999999999997
 30
0.0
 11
1126.999999999999
 21
2678.999999999997
 31
0.0
  0
LINE
  5
1FC
330
1F
100
AcDbEntity
  8
LAY-10
  6
CONTINUOUS
 62
     7
100
AcDbLine
 10
1119.499999999999
 20
2043.999999999997
 30
0.0
 11
1159.499999999999
 21
2043.999999999997
 31
0.0
  0
LINE
  5
1FD
330
1F
100
AcDbEntity
  8
LAY-10
  6
CONTINUOUS
 62
     7
100
AcDbLine
 10
1119.499999999998
 20
2678.999999999997
 30
0.0
 11
1159.499999999998
 21
2678.999999999998
 31
0.0
  0
CIRCLE
  5
1FE
330
1F
100
AcDbEntity
  8
LAY-10
  6
CONTINUOUS
 62
     7
100
AcDbCircle
 10
1476.999999999998
 20
2248.999999999997
 30
0.0
 40
5.0
  0
LINE
  5
1FF
330
1F
100
AcDbEntity
  8
LAY-10
  6
CONTINUOUS
 62
     7
100
AcDbLine
 10
1609.499999999999
 20
2378.999999999997
 30
0.0
 11
1609.499999999998
 21
2043.999999999997
 31
0.0
  0
LINE
  5
200
330
1F
100
AcDbEntity
  8
LAY-10
  6
CONTINUOUS
 62
     7
100
AcDbLine
 10
1601.999999999998
 20
2043.999999999997
 30
0.0
 11
1601.999999999999
 21
2378.999999999997
 31
0.0
  0
LINE
  5
201
330
1F
100
AcDbEntity
  8
LAY-10
  6
CONTINUOUS
 62
     7
100
AcDbLine
 10
1569.5
 20
2378.999999999997
 30
0.0
 11
1569.5
 21
2043.999999999997
 31
0.0
  0
LINE
  5
202
330
1F
100
AcDbEntity
  8
LAY-10
  6
CONTINUOUS
 62
     7
100
AcDbLine
 10
1576.999999999999
 20
2043.999999999997
 30
0.0
 11
1577.0
 21
2378.999999999997
 31
0.0
  0
LINE
  5
203
330
1F
100
AcDbEntity
  8
LAY-10
  6
CONTINUOUS
 62
     7
100
AcDbLine
 10
1569.499999999999
 20
2378.999999999998
 30
0.0
 11
1609.499999999999
 21
2378.999999999998
 31
0.0
  0
LINE
  5
204
330
1F
100
AcDbEntity
  8
LAY-10
  6
CONTINUOUS
 62
     7
100
AcDbLine
 10
1569.5
 20
2043.999999999997
 30
0.0
 11
1609.5
 21
2043.999999999997
 31
0.0
  0
CIRCLE
  5
205
330
1F
100
AcDbEntity
  8
LAY-10
  6
CONTINUOUS
 62
     7
100
AcDbCircle
 10
1987.0
 20
2248.999999999997
 30
0.0
 40
5.0
  0
LINE
  5
206
330
1F
100
AcDbEntity
  8
LAY-10
  6
CONTINUOUS
 62
     7
100
AcDbLine
 10
1854.499999999999
 20
2378.999999999997
 30
0.0
 11
1854.5
 21
2043.999999999997
 31
0.0
  0
LINE
  5
207
330
1F
100
AcDbEntity
  8
LAY-10
  6
CONTINUOUS
 62
     7
100
AcDbLine
 10
1862.0
 20
2043.999999999997
 30
0.0
 11
1861.999999999999
 21
2378.999999999997
 31
0.0
  0
LINE
  5
208
330
1F
100
AcDbEntity
  8
LAY-10
  6
CONTINUOUS
 62
     7
100
AcDbLine
 10
1894.499999999998
 20
2378.999999999997
 30
0.0
 11
1894.499999999998
 21
2043.999999999997
 31
0.0
  0
LINE
  5
209
330
1F
100
AcDbEntity
  8
LAY-10
  6
CONTINUOUS
 62
     7
100
AcDbLine
 10
1886.999999999999
 20
2043.999999999997
 30
0.0
 11
1886.999999999998
 21
2378.999999999997
 31
0.0
  0
LINE
  5
20A
330
1F
100
AcDbEntity
  8
LAY-10
  6
CONTINUOUS
 62
     7
100
AcDbLine
 10
1894.499999999999
 20
2378.999999999998
 30
0.0
 11
1854.499999999999
 21
2378.999999999998
 31
0.0
  0
LINE
  5
20B
330
1F
100
AcDbEntity
  8
LAY-10
  6
CONTINUOUS
 62
     7
100
AcDbLine
 10
1894.499999999998
 20
2043.999999999997
 30
0.0
 11
1854.499999999998
 21
2043.999999999997
 31
0.0
  0
CIRCLE
  5
20C
330
1F
100
AcDbEntity
  8
LAY-10
  6
CONTINUOUS
 62
     7
100
AcDbCircle
 10
2212.0
 20
2473.999999999997
 30
0.0
 40
5.0
  0
CIRCLE
  5
20D
330
1F
100
AcDbEntity
  8
LAY-10
  6
CONTINUOUS
 62
     7
100
AcDbCircle
 10
2212.0
 20
2248.999999999997
 30
0.0
 40
5.0
  0
LINE
  5
20E
330
1F
100
AcDbEntity
  8
LAY-10
  6
CONTINUOUS
 62
     7
100
AcDbLine
 10
2079.5
 20
2678.999999999997
 30
0.0
 11
2079.5
 21
2043.999999999997
 31
0.0
  0
LINE
  5
20F
330
1F
100
AcDbEntity
  8
LAY-10
  6
CONTINUOUS
 62
     7
100
AcDbLine
 10
2087.000000000001
 20
2043.999999999997
 30
0.0
 11
2087.0
 21
2678.999999999997
 31
0.0
  0
LINE
  5
210
330
1F
100
AcDbEntity
  8
LAY-10
  6
CONTINUOUS
 62
     7
100
AcDbLine
 10
2119.499999999999
 20
2678.999999999997
 30
0.0
 11
2119.499999999999
 21
2043.999999999997
 31
0.0
  0
LINE
  5
211
330
1F
100
AcDbEntity
  8
LAY-10
  6
CONTINUOUS
 62
     7
100
AcDbLine
 10
2111.999999999999
 20
2043.999999999997
 30
0.0
 11
2112.0
 21
2678.999999999997
 31
0.0
  0
LINE
  5
212
330
1F
100
AcDbEntity
  8
LAY-10
  6
CONTINUOUS
 62
     7
100
AcDbLine
 10
2119.499999999999
 20
2043.999999999997
 30
0.0
 11
2079.499999999999
 21
2043.999999999997
 31
0.0
  0
LINE
  5
213
330
1F
100
AcDbEntity
  8
LAY-10
  6
CONTINUOUS
 62
     7
100
AcDbLine
 10
2119.5
 20
2678.999999999997
 30
0.0
 11
2079.5
 21
2678.999999999997
 31
0.0
  0
LINE
  5
214
330
1F
100
AcDbEntity
  8
LAY-10
  6
CONTINUOUS
 62
     7
100
AcDbLine
 10
2304.5
 20
2678.999999999998
 30
0.0
 11
2304.5
 21
2043.999999999998
 31
0.0
  0
LINE
  5
215
330
1F
100
AcDbEntity
  8
LAY-10
  6
CONTINUOUS
 62
     7
100
AcDbLine
 10
2312.000000000001
 20
2043.999999999998
 30
0.0
 11
2312.0
 21
2678.999999999998
 31
0.0
  0
LINE
  5
216
330
1F
100
AcDbEntity
  8
LAY-10
  6
CONTINUOUS
 62
     7
100
AcDbLine
 10
2344.499999999999
 20
2678.999999999997
 30
0.0
 11
2344.499999999999
 21
2043.999999999998
 31
0.0
  0
LINE
  5
217
330
1F
100
AcDbEntity
  8
LAY-10
  6
CONTINUOUS
 62
     7
100
AcDbLine
 10
2336.999999999999
 20
2043.999999999998
 30
0.0
 11
2336.999999999999
 21
2678.999999999997
 31
0.0
  0
LINE
  5
218
330
1F
100
AcDbEntity
  8
LAY-10
  6
CONTINUOUS
 62
     7
100
AcDbLine
 10
2344.499999999999
 20
2043.999999999998
 30
0.0
 11
2304.499999999999
 21
2043.999999999998
 31
0.0
  0
LINE
  5
219
330
1F
100
AcDbEntity
  8
LAY-10
  6
CONTINUOUS
 62
     7
100
AcDbLine
 10
2344.5
 20
2678.999999999998
 30
0.0
 11
2304.5
 21
2678.999999999998
 31
0.0
  0
CIRCLE
  5
21A
330
1F
100
AcDbEntity
  8
LAY-10
  6
CONTINUOUS
 62
     7
100
AcDbCircle
 10
2212.0
 20
2984.0
 30
0.0
 40
5.0
  0
CIRCLE
  5
21B
330
1F
100
AcDbEntity
  8
LAY-10
  6
CONTINUOUS
 62
     7
100
AcDbCircle
 10
2212.0
 20
3209.0
 30
0.0
 40
5.0
  0
CIRCLE
  5
21C
330
1F
100
AcDbEntity
  8
LAY-10
  6
CONTINUOUS
 62
     7
100
AcDbCircle
 10
1987.0
 20
3209.0
 30
0.0
 40
5.0
  0
LINE
  5
21D
330
1F
100
AcDbEntity
  8
LAY-10
  6
CONTINUOUS
 62
     7
100
AcDbLine
 10
2079.5
 20
2779.0
 30
0.0
 11
2079.500000000001
 21
3414.0
 31
0.0
  0
LINE
  5
21E
330
1F
100
AcDbEntity
  8
LAY-10
  6
CONTINUOUS
 62
     7
100
AcDbLine
 10
2087.000000000001
 20
3414.0
 30
0.0
 11
2087.0
 21
2779.0
 31
0.0
  0
LINE
  5
21F
330
1F
100
AcDbEntity
  8
LAY-10
  6
CONTINUOUS
 62
     7
100
AcDbLine
 10
2119.499999999999
 20
2779.0
 30
0.0
 11
2119.5
 21
3414.0
 31
0.0
  0
LINE
  5
220
330
1F
100
AcDbEntity
  8
LAY-10
  6
CONTINUOUS
 62
     7
100
AcDbLine
 10
2112.0
 20
3414.0
 30
0.0
 11
2112.0
 21
2779.0
 31
0.0
  0
LINE
  5
221
330
1F
100
AcDbEntity
  8
LAY-10
  6
CONTINUOUS
 62
     7
100
AcDbLine
 10
2119.5
 20
3414.0
 30
0.0
 11
2079.5
 21
3414.0
 31
0.0
  0
LINE
  5
222
330
1F
100
AcDbEntity
  8
LAY-10
  6
CONTINUOUS
 62
     7
100
AcDbLine
 10
2119.5
 20
2779.0
 30
0.0
 11
2079.5
 21
2779.0
 31
0.0
  0
LINE
  5
223
330
1F
100
AcDbEntity
  8
LAY-10
  6
CONTINUOUS
 62
     7
100
AcDbLine
 10
2467.0
 20
1284.999999999999
 30
0.0
 11
997.0000000000014
 21
1285.000000000001
 31
0.0
  0
LINE
  5
224
330
1F
100
AcDbEntity
  8
LAY-10
  6
CONTINUOUS
 62
     7
100
AcDbLine
 10
1432.0
 20
2429.0
 30
0.0
 11
2032.0
 21
2429.0
 31
0.0
  0
LINE
  5
225
330
1F
100
AcDbEntity
  8
LAY-10
  6
CONTINUOUS
 62
     7
100
AcDbLine
 10
1432.000000000001
 20
3028.999999999999
 30
0.0
 11
2032.0
 21
3028.999999999999
 31
0.0
  0
LINE
  5
226
330
1F
100
AcDbEntity
  8
LAY-10
  6
CONTINUOUS
 62
     7
100
AcDbLine
 10
2032.0
 20
2429.0
 30
0.0
 11
2032.0
 21
3028.999999999999
 31
0.0
  0
LINE
  5
227
330
1F
100
AcDbEntity
  8
LAY-10
  6
CONTINUOUS
 62
     7
100
AcDbLine
 10
2035.0
 20
2426.0
 30
0.0
 11
2035.0
 21
2726.0
 31
0.0
  0
LINE
  5
228
330
1F
100
AcDbEntity
  8
LAY-10
  6
CONTINUOUS
 62
     7
100
AcDbLine
 10
1735.000000000001
 20
2426.0
 30
0.0
 11
2035.0
 21
2426.0
 31
0.0
  0
LINE
  5
229
330
1F
100
AcDbEntity
  8
LAY-10
  6
CONTINUOUS
 62
     7
100
AcDbLine
 10
2035.0
 20
3032.0
 30
0.0
 11
1735.0
 21
3032.0
 31
0.0
  0
LINE
  5
22A
330
1F
100
AcDbEntity
  8
LAY-10
  6
CONTINUOUS
 62
     7
100
AcDbLine
 10
2035.0
 20
2732.0
 30
0.0
 11
2035.0
 21
3032.0
 31
0.0
  0
LINE
  5
22B
330
1F
100
AcDbEntity
  8
LAY-10
  6
HIDDEN
 62
     7
100
AcDbLine
 10
2050.811999999997
 20
2773.000000000033
 30
0.0
 11
2033.188
 21
2773.000000000033
 31
0.0
  0
LINE
  5
22C
330
1F
100
AcDbEntity
  8
LAY-10
  6
HIDDEN
 62
     7
100
AcDbLine
 10
2050.811999999997
 20
2785.000000000033
 30
0.0
 11
2033.188
 21
2785.000000000033
 31
0.0
  0
LINE
  5
22D
330
1F
100
AcDbEntity
  8
LAY-10
  6
HIDDEN
 62
     7
100
AcDbLine
 10
2050.811999999997
 20
2791.000000000033
 30
0.0
 11
2033.188
 21
2791.000000000033
 31
0.0
  0
ARC
  5
22E
330
1F
100
AcDbEntity
  8
LAY-10
  6
HIDDEN
 62
     7
100
AcDbCircle
 10
2047.61812121214
 20
2770.000000000033
 30
0.0
 40
4.38187878787879
100
AcDbArc
 50
316.7928685396936
 51
43.20713146033187
  0
ARC
  5
22F
330
1F
100
AcDbEntity
  8
LAY-10
  6
HIDDEN
 62
     7
100
AcDbCircle
 10
2036.254484848502
 20
2779.000000000033
 30
0.0
 40
15.74551515151516
100
AcDbArc
 50
337.6005879524203
 51
22.39941204759348
  0
ARC
  5
230
330
1F
100
AcDbEntity
  8
LAY-10
  6
HIDDEN
 62
     7
100
AcDbCircle
 10
2047.618121212137
 20
2788.000000000033
 30
0.0
 40
4.38187878787879
100
AcDbArc
 50
316.7928685396936
 51
43.20713146033187
  0
LINE
  5
231
330
1F
100
AcDbEntity
  8
LAY-10
  6
HIDDEN
 62
     7
100
AcDbLine
 10
2052.000000000021
 20
2770.000000000033
 30
0.0
 11
2052.000000000019
 21
2788.000000000033
 31
0.0
  0
ARC
  5
232
330
1F
100
AcDbEntity
  8
LAY-10
  6
HIDDEN
 62
     7
100
AcDbCircle
 10
2036.381878787879
 20
2770.000000000033
 30
0.0
 40
4.38187878787879
100
AcDbArc
 50
136.7928685396809
 51
223.2071314603191
  0
ARC
  5
233
330
1F
100
AcDbEntity
  8
LAY-10
  6
HIDDEN
 62
     7
100
AcDbCircle
 10
2047.745515151516
 20
2779.000000000033
 30
0.0
 40
15.74551515151516
100
AcDbArc
 50
157.6005879524136
 51
202.3994120475864
  0
ARC
  5
234
330
1F
100
AcDbEntity
  8
LAY-10
  6
HIDDEN
 62
     7
100
AcDbCircle
 10
2036.381878787879
 20
2788.000000000033
 30
0.0
 40
4.38187878787879
100
AcDbArc
 50
136.7928685396809
 51
223.2071314603191
  0
LINE
  5
235
330
1F
100
AcDbEntity
  8
LAY-10
  6
HIDDEN
 62
     7
100
AcDbLine
 10
2031.999999999998
 20
2770.000000000033
 30
0.0
 11
2031.999999999998
 21
2788.000000000033
 31
0.0
  0
LINE
  5
236
330
1F
100
AcDbEntity
  8
LAY-10
  6
HIDDEN
 62
     7
100
AcDbLine
 10
2050.811999999997
 20
2767.000000000033
 30
0.0
 11
2033.188
 21
2767.000000000033
 31
0.0
  0
LINE
  5
237
330
1F
100
AcDbEntity
  8
LAY-10
  6
HIDDEN
 62
     7
100
AcDbLine
 10
2050.811999999997
 20
2684.999999999965
 30
0.0
 11
2033.188
 21
2684.999999999965
 31
0.0
  0
LINE
  5
238
330
1F
100
AcDbEntity
  8
LAY-10
  6
HIDDEN
 62
     7
100
AcDbLine
 10
2050.811999999997
 20
2672.999999999965
 30
0.0
 11
2033.188
 21
2672.999999999965
 31
0.0
  0
LINE
  5
239
330
1F
100
AcDbEntity
  8
LAY-10
  6
HIDDEN
 62
     7
100
AcDbLine
 10
2050.811999999997
 20
2666.999999999965
 30
0.0
 11
2033.188
 21
2666.999999999965
 31
0.0
  0
ARC
  5
23A
330
1F
100
AcDbEntity
  8
LAY-10
  6
HIDDEN
 62
     7
100
AcDbCircle
 10
2047.61812121214
 20
2687.999999999965
 30
0.0
 40
4.38187878787879
100
AcDbArc
 50
316.7928685396769
 51
43.20713146031503
  0
ARC
  5
23B
330
1F
100
AcDbEntity
  8
LAY-10
  6
HIDDEN
 62
     7
100
AcDbCircle
 10
2036.254484848502
 20
2678.999999999965
 30
0.0
 40
15.74551515151516
100
AcDbArc
 50
337.6005879524097
 51
22.39941204758271
  0
ARC
  5
23C
330
1F
100
AcDbEntity
  8
LAY-10
  6
HIDDEN
 62
     7
100
AcDbCircle
 10
2047.618121212137
 20
2669.999999999965
 30
0.0
 40
4.38187878787879
100
AcDbArc
 50
316.7928685396769
 51
43.20713146031503
  0
LINE
  5
23D
330
1F
100
AcDbEntity
  8
LAY-10
  6
HIDDEN
 62
     7
100
AcDbLine
 10
2052.000000000021
 20
2687.999999999965
 30
0.0
 11
2052.000000000019
 21
2669.999999999965
 31
0.0
  0
ARC
  5
23E
330
1F
100
AcDbEntity
  8
LAY-10
  6
HIDDEN
 62
     7
100
AcDbCircle
 10
2036.381878787879
 20
2687.999999999965
 30
0.0
 40
4.38187878787879
100
AcDbArc
 50
136.7928685396809
 51
223.2071314603191
  0
ARC
  5
23F
330
1F
100
AcDbEntity
  8
LAY-10
  6
HIDDEN
 62
     7
100
AcDbCircle
 10
2047.745515151516
 20
2678.999999999965
 30
0.0
 40
15.74551515151516
100
AcDbArc
 50
157.6005879524136
 51
202.3994120475864
  0
ARC
  5
240
330
1F
100
AcDbEntity
  8
LAY-10
  6
HIDDEN
 62
     7
100
AcDbCircle
 10
2036.381878787879
 20
2669.999999999965
 30
0.0
 40
4.38187878787879
100
AcDbArc
 50
136.7928685396809
 51
223.2071314603191
  0
LINE
  5
241
330
1F
100
AcDbEntity
  8
LAY-10
  6
HIDDEN
 62
     7
100
AcDbLine
 10
2031.999999999998
 20
2687.999999999965
 30
0.0
 11
2031.999999999998
 21
2669.999999999965
 31
0.0
  0
LINE
  5
242
330
1F
100
AcDbEntity
  8
LAY-10
  6
HIDDEN
 62
     7
100
AcDbLine
 10
2050.811999999997
 20
2690.999999999965
 30
0.0
 11
2033.188
 21
2690.999999999965
 31
0.0
  0
LINE
  5
243
330
1F
100
AcDbEntity
  8
LAY-10
  6
CONTINUOUS
 62
     7
100
AcDbLine
 10
2467.0
 20
2728.999999999999
 30
0.0
 11
2032.0
 21
2729.0
 31
0.0
  0
LINE
  5
244
330
1F
100
AcDbEntity
  8
LAY-10
  6
CONTINUOUS
 62
     7
100
AcDbLine
 10
2035.0
 20
2726.0
 30
0.0
 11
2464.0
 21
2726.0
 31
0.0
  0
LINE
  5
245
330
1F
100
AcDbEntity
  8
LAY-10
  6
CONTINUOUS
 62
     7
100
AcDbLine
 10
2035.0
 20
2732.0
 30
0.0
 11
2464.0
 21
2732.0
 31
0.0
  0
LINE
  5
246
330
1F
100
AcDbEntity
  8
LAY-10
  6
CONTINUOUS
 62
     7
100
AcDbLine
 10
1432.000000000001
 20
2429.0
 30
0.0
 11
1432.0
 21
3029.0
 31
0.0
  0
LINE
  5
247
330
1F
100
AcDbEntity
  8
LAY-10
  6
CONTINUOUS
 62
     7
100
AcDbLine
 10
1429.0
 20
2426.0
 30
0.0
 11
1729.000000000001
 21
2426.0
 31
0.0
  0
LINE
  5
248
330
1F
100
AcDbEntity
  8
LAY-10
  6
CONTINUOUS
 62
     7
100
AcDbLine
 10
1429.0
 20
2726.0
 30
0.0
 11
1429.0
 21
2426.0
 31
0.0
  0
LINE
  5
249
330
1F
100
AcDbEntity
  8
LAY-10
  6
CONTINUOUS
 62
     7
100
AcDbLine
 10
1729.0
 20
3032.0
 30
0.0
 11
1429.0
 21
3032.0
 31
0.0
  0
LINE
  5
24A
330
1F
100
AcDbEntity
  8
LAY-10
  6
CONTINUOUS
 62
     7
100
AcDbLine
 10
1429.0
 20
3032.0
 30
0.0
 11
1429.0
 21
2732.0
 31
0.0
  0
LINE
  5
24B
330
1F
100
AcDbEntity
  8
LAY-10
  6
HIDDEN
 62
     7
100
AcDbLine
 10
1413.188000000002
 20
2773.000000000033
 30
0.0
 11
1430.811999999999
 21
2773.000000000033
 31
0.0
  0
LINE
  5
24C
330
1F
100
AcDbEntity
  8
LAY-10
  6
HIDDEN
 62
     7
100
AcDbLine
 10
1413.188000000002
 20
2785.000000000033
 30
0.0
 11
1430.811999999999
 21
2785.000000000033
 31
0.0
  0
LINE
  5
24D
330
1F
100
AcDbEntity
  8
LAY-10
  6
HIDDEN
 62
     7
100
AcDbLine
 10
1413.188000000002
 20
2791.000000000033
 30
0.0
 11
1430.811999999999
 21
2791.000000000033
 31
0.0
  0
ARC
  5
24E
330
1F
100
AcDbEntity
  8
LAY-10
  6
HIDDEN
 62
     7
100
AcDbCircle
 10
1416.381878787859
 20
2770.000000000033
 30
0.0
 40
4.38187878787879
100
AcDbArc
 50
136.7928685396725
 51
223.2071314603107
  0
ARC
  5
24F
330
1F
100
AcDbEntity
  8
LAY-10
  6
HIDDEN
 62
     7
100
AcDbCircle
 10
1427.745515151496
 20
2779.000000000033
 30
0.0
 40
15.74551515151516
100
AcDbArc
 50
157.6005879524081
 51
202.3994120475809
  0
ARC
  5
250
330
1F
100
AcDbEntity
  8
LAY-10
  6
HIDDEN
 62
     7
100
AcDbCircle
 10
1416.381878787862
 20
2788.000000000033
 30
0.0
 40
4.38187878787879
100
AcDbArc
 50
136.7928685396725
 51
223.2071314603107
  0
LINE
  5
251
330
1F
100
AcDbEntity
  8
LAY-10
  6
HIDDEN
 62
     7
100
AcDbLine
 10
1411.999999999978
 20
2770.000000000033
 30
0.0
 11
1411.99999999998
 21
2788.000000000033
 31
0.0
  0
ARC
  5
252
330
1F
100
AcDbEntity
  8
LAY-10
  6
HIDDEN
 62
     7
100
AcDbCircle
 10
1427.61812121212
 20
2770.000000000033
 30
0.0
 40
4.38187878787879
100
AcDbArc
 50
316.7928685396809
 51
43.2071314603191
  0
ARC
  5
253
330
1F
100
AcDbEntity
  8
LAY-10
  6
HIDDEN
 62
     7
100
AcDbCircle
 10
1416.254484848483
 20
2779.000000000033
 30
0.0
 40
15.74551515151516
100
AcDbArc
 50
337.6005879524133
 51
22.39941204758672
  0
ARC
  5
254
330
1F
100
AcDbEntity
  8
LAY-10
  6
HIDDEN
 62
     7
100
AcDbCircle
 10
1427.61812121212
 20
2788.000000000033
 30
0.0
 40
4.38187878787879
100
AcDbArc
 50
316.7928685396809
 51
43.2071314603191
  0
LINE
  5
255
330
1F
100
AcDbEntity
  8
LAY-10
  6
HIDDEN
 62
     7
100
AcDbLine
 10
1432.0
 20
2770.000000000033
 30
0.0
 11
1432.0
 21
2788.000000000033
 31
0.0
  0
LINE
  5
256
330
1F
100
AcDbEntity
  8
LAY-10
  6
HIDDEN
 62
     7
100
AcDbLine
 10
1413.188000000002
 20
2767.000000000033
 30
0.0
 11
1430.811999999999
 21
2767.000000000033
 31
0.0
  0
LINE
  5
257
330
1F
100
AcDbEntity
  8
LAY-10
  6
HIDDEN
 62
     7
100
AcDbLine
 10
1413.188000000002
 20
2684.999999999965
 30
0.0
 11
1430.811999999999
 21
2684.999999999965
 31
0.0
  0
LINE
  5
258
330
1F
100
AcDbEntity
  8
LAY-10
  6
HIDDEN
 62
     7
100
AcDbLine
 10
1413.188000000002
 20
2672.999999999965
 30
0.0
 11
1430.811999999999
 21
2672.999999999965
 31
0.0
  0
LINE
  5
259
330
1F
100
AcDbEntity
  8
LAY-10
  6
HIDDEN
 62
     7
100
AcDbLine
 10
1413.188000000002
 20
2666.999999999965
 30
0.0
 11
1430.811999999999
 21
2666.999999999965
 31
0.0
  0
ARC
  5
25A
330
1F
100
AcDbEntity
  8
LAY-10
  6
HIDDEN
 62
     7
100
AcDbCircle
 10
1416.381878787859
 20
2687.999999999965
 30
0.0
 40
4.38187878787879
100
AcDbArc
 50
136.7928685396893
 51
223.2071314603275
  0
ARC
  5
25B
330
1F
100
AcDbEntity
  8
LAY-10
  6
HIDDEN
 62
     7
100
AcDbCircle
 10
1427.745515151496
 20
2678.999999999965
 30
0.0
 40
15.74551515151516
100
AcDbArc
 50
157.6005879524188
 51
202.3994120475919
  0
ARC
  5
25C
330
1F
100
AcDbEntity
  8
LAY-10
  6
HIDDEN
 62
     7
100
AcDbCircle
 10
1416.381878787862
 20
2669.999999999965
 30
0.0
 40
4.38187878787879
100
AcDbArc
 50
136.7928685396893
 51
223.2071314603275
  0
LINE
  5
25D
330
1F
100
AcDbEntity
  8
LAY-10
  6
HIDDEN
 62
     7
100
AcDbLine
 10
1411.999999999978
 20
2687.999999999965
 30
0.0
 11
1411.99999999998
 21
2669.999999999965
 31
0.0
  0
ARC
  5
25E
330
1F
100
AcDbEntity
  8
LAY-10
  6
HIDDEN
 62
     7
100
AcDbCircle
 10
1427.61812121212
 20
2687.999999999965
 30
0.0
 40
4.38187878787879
100
AcDbArc
 50
316.7928685396809
 51
43.2071314603191
  0
ARC
  5
25F
330
1F
100
AcDbEntity
  8
LAY-10
  6
HIDDEN
 62
     7
100
AcDbCircle
 10
1416.254484848483
 20
2678.999999999965
 30
0.0
 40
15.74551515151516
100
AcDbArc
 50
337.6005879524137
 51
22.39941204758643
  0
ARC
  5
260
330
1F
100
AcDbEntity
  8
LAY-10
  6
HIDDEN
 62
     7
100
AcDbCircle
 10
1427.61812121212
 20
2669.999999999965
 30
0.0
 40
4.38187878787879
100
AcDbArc
 50
316.7928685396809
 51
43.2071314603191
  0
LINE
  5
261
330
1F
100
AcDbEntity
  8
LAY-10
  6
HIDDEN
 62
     7
100
AcDbLine
 10
1432.0
 20
2687.999999999965
 30
0.0
 11
1432.0
 21
2669.999999999965
 31
0.0
  0
LINE
  5
262
330
1F
100
AcDbEntity
  8
LAY-10
  6
HIDDEN
 62
     7
100
AcDbLine
 10
1413.188000000002
 20
2690.999999999965
 30
0.0
 11
1430.811999999999
 21
2690.999999999965
 31
0.0
  0
LINE
  5
263
330
1F
100
AcDbEntity
  8
LAY-10
  6
CONTINUOUS
 62
     7
100
AcDbLine
 10
997.0
 20
2729.0
 30
0.0
 11
1432.0
 21
2729.0
 31
0.0
  0
LINE
  5
264
330
1F
100
AcDbEntity
  8
LAY-10
  6
CONTINUOUS
 62
     7
100
AcDbLine
 10
1429.000000000001
 20
2732.0
 30
0.0
 11
1000.0
 21
2732.0
 31
0.0
  0
LINE
  5
265
330
1F
100
AcDbEntity
  8
LAY-10
  6
CONTINUOUS
 62
     7
100
AcDbLine
 10
1429.000000000001
 20
2726.0
 30
0.0
 11
1000.0
 21
2726.0
 31
0.0
  0
LINE
  5
266
330
1F
100
AcDbEntity
  8
LAY-10
  6
HIDDEN
 62
     7
100
AcDbLine
 10
1687.999999999968
 20
2410.188
 30
0.0
 11
1687.999999999968
 21
2427.811999999996
 31
0.0
  0
LINE
  5
267
330
1F
100
AcDbEntity
  8
LAY-10
  6
HIDDEN
 62
     7
100
AcDbLine
 10
1675.999999999968
 20
2410.188
 30
0.0
 11
1675.999999999968
 21
2427.811999999996
 31
0.0
  0
LINE
  5
268
330
1F
100
AcDbEntity
  8
LAY-10
  6
HIDDEN
 62
     7
100
AcDbLine
 10
1669.999999999968
 20
2410.188
 30
0.0
 11
1669.999999999968
 21
2427.811999999996
 31
0.0
  0
ARC
  5
269
330
1F
100
AcDbEntity
  8
LAY-10
  6
HIDDEN
 62
     7
100
AcDbCircle
 10
1690.999999999968
 20
2413.381878787856
 30
0.0
 40
4.38187878787879
100
AcDbArc
 50
226.7928685396725
 51
313.2071314603107
  0
ARC
  5
26A
330
1F
100
AcDbEntity
  8
LAY-10
  6
HIDDEN
 62
     7
100
AcDbCircle
 10
1681.999999999968
 20
2424.745515151494
 30
0.0
 40
15.74551515151516
100
AcDbArc
 50
247.6005879524081
 51
292.3994120475809
  0
ARC
  5
26B
330
1F
100
AcDbEntity
  8
LAY-10
  6
HIDDEN
 62
     7
100
AcDbCircle
 10
1672.999999999968
 20
2413.381878787859
 30
0.0
 40
4.38187878787879
100
AcDbArc
 50
226.7928685396725
 51
313.2071314603107
  0
LINE
  5
26C
330
1F
100
AcDbEntity
  8
LAY-10
  6
HIDDEN
 62
     7
100
AcDbLine
 10
1690.999999999968
 20
2408.999999999975
 30
0.0
 11
1672.999999999968
 21
2408.999999999978
 31
0.0
  0
ARC
  5
26D
330
1F
100
AcDbEntity
  8
LAY-10
  6
HIDDEN
 62
     7
100
AcDbCircle
 10
1690.999999999968
 20
2424.618121212117
 30
0.0
 40
4.38187878787879
100
AcDbArc
 50
46.79286853968087
 51
133.2071314603191
  0
ARC
  5
26E
330
1F
100
AcDbEntity
  8
LAY-10
  6
HIDDEN
 62
     7
100
AcDbCircle
 10
1681.999999999968
 20
2413.25448484848
 30
0.0
 40
15.74551515151516
100
AcDbArc
 50
67.6005879524133
 51
112.3994120475868
  0
ARC
  5
26F
330
1F
100
AcDbEntity
  8
LAY-10
  6
HIDDEN
 62
     7
100
AcDbCircle
 10
1672.999999999968
 20
2424.618121212117
 30
0.0
 40
4.38187878787879
100
AcDbArc
 50
46.79286853968087
 51
133.2071314603191
  0
LINE
  5
270
330
1F
100
AcDbEntity
  8
LAY-10
  6
HIDDEN
 62
     7
100
AcDbLine
 10
1690.999999999968
 20
2428.999999999998
 30
0.0
 11
1672.999999999968
 21
2428.999999999998
 31
0.0
  0
LINE
  5
271
330
1F
100
AcDbEntity
  8
LAY-10
  6
HIDDEN
 62
     7
100
AcDbLine
 10
1693.999999999968
 20
2410.188
 30
0.0
 11
1693.999999999968
 21
2427.811999999996
 31
0.0
  0
LINE
  5
272
330
1F
100
AcDbEntity
  8
LAY-10
  6
HIDDEN
 62
     7
100
AcDbLine
 10
1776.000000000031
 20
2410.188
 30
0.0
 11
1776.000000000031
 21
2427.811999999996
 31
0.0
  0
LINE
  5
273
330
1F
100
AcDbEntity
  8
LAY-10
  6
HIDDEN
 62
     7
100
AcDbLine
 10
1788.000000000031
 20
2410.188
 30
0.0
 11
1788.000000000031
 21
2427.811999999996
 31
0.0
  0
LINE
  5
274
330
1F
100
AcDbEntity
  8
LAY-10
  6
HIDDEN
 62
     7
100
AcDbLine
 10
1794.000000000031
 20
2410.188
 30
0.0
 11
1794.000000000031
 21
2427.811999999996
 31
0.0
  0
ARC
  5
275
330
1F
100
AcDbEntity
  8
LAY-10
  6
HIDDEN
 62
     7
100
AcDbCircle
 10
1773.000000000031
 20
2413.381878787856
 30
0.0
 40
4.38187878787879
100
AcDbArc
 50
226.7928685396893
 51
313.2071314603276
  0
ARC
  5
276
330
1F
100
AcDbEntity
  8
LAY-10
  6
HIDDEN
 62
     7
100
AcDbCircle
 10
1782.000000000031
 20
2424.745515151494
 30
0.0
 40
15.74551515151516
100
AcDbArc
 50
247.6005879524192
 51
292.399412047592
  0
ARC
  5
277
330
1F
100
AcDbEntity
  8
LAY-10
  6
HIDDEN
 62
     7
100
AcDbCircle
 10
1791.000000000031
 20
2413.381878787859
 30
0.0
 40
4.38187878787879
100
AcDbArc
 50
226.7928685396893
 51
313.2071314603276
  0
LINE
  5
278
330
1F
100
AcDbEntity
  8
LAY-10
  6
HIDDEN
 62
     7
100
AcDbLine
 10
1773.000000000031
 20
2408.999999999975
 30
0.0
 11
1791.000000000031
 21
2408.999999999978
 31
0.0
  0
ARC
  5
279
330
1F
100
AcDbEntity
  8
LAY-10
  6
HIDDEN
 62
     7
100
AcDbCircle
 10
1773.000000000031
 20
2424.618121212117
 30
0.0
 40
4.38187878787879
100
AcDbArc
 50
46.79286853968087
 51
133.2071314603191
  0
ARC
  5
27A
330
1F
100
AcDbEntity
  8
LAY-10
  6
HIDDEN
 62
     7
100
AcDbCircle
 10
1782.000000000031
 20
2413.25448484848
 30
0.0
 40
15.74551515151516
100
AcDbArc
 50
67.6005879524133
 51
112.3994120475868
  0
ARC
  5
27B
330
1F
100
AcDbEntity
  8
LAY-10
  6
HIDDEN
 62
     7
100
AcDbCircle
 10
1791.000000000031
 20
2424.618121212117
 30
0.0
 40
4.38187878787879
100
AcDbArc
 50
46.79286853968087
 51
133.2071314603191
  0
LINE
  5
27C
330
1F
100
AcDbEntity
  8
LAY-10
  6
HIDDEN
 62
     7
100
AcDbLine
 10
1773.000000000031
 20
2428.999999999998
 30
0.0
 11
1791.000000000031
 21
2428.999999999998
 31
0.0
  0
LINE
  5
27D
330
1F
100
AcDbEntity
  8
LAY-10
  6
HIDDEN
 62
     7
100
AcDbLine
 10
1770.000000000031
 20
2410.188
 30
0.0
 11
1770.000000000031
 21
2427.811999999996
 31
0.0
  0
LINE
  5
27E
330
1F
100
AcDbEntity
  8
LAY-10
  6
CONTINUOUS
 62
     7
100
AcDbLine
 10
1732.0
 20
1994.0
 30
0.0
 11
1732.0
 21
2429.0
 31
0.0
  0
LINE
  5
27F
330
1F
100
AcDbEntity
  8
LAY-10
  6
CONTINUOUS
 62
     7
100
AcDbLine
 10
1729.000000000001
 20
2426.0
 30
0.0
 11
1729.000000000001
 21
1997.0
 31
0.0
  0
LINE
  5
280
330
1F
100
AcDbEntity
  8
LAY-10
  6
CONTINUOUS
 62
     7
100
AcDbLine
 10
1735.000000000001
 20
2426.0
 30
0.0
 11
1735.0
 21
1997.0
 31
0.0
  0
LINE
  5
281
330
1F
100
AcDbEntity
  8
LAY-10
  6
HIDDEN
 62
     7
100
AcDbLine
 10
1687.999999999967
 20
3047.811999999998
 30
0.0
 11
1687.999999999967
 21
3030.188000000002
 31
0.0
  0
LINE
  5
282
330
1F
100
AcDbEntity
  8
LAY-10
  6
HIDDEN
 62
     7
100
AcDbLine
 10
1675.999999999967
 20
3047.811999999998
 30
0.0
 11
1675.999999999967
 21
3030.188000000002
 31
0.0
  0
LINE
  5
283
330
1F
100
AcDbEntity
  8
LAY-10
  6
HIDDEN
 62
     7
100
AcDbLine
 10
1669.999999999967
 20
3047.811999999998
 30
0.0
 11
1669.999999999967
 21
3030.188000000002
 31
0.0
  0
ARC
  5
284
330
1F
100
AcDbEntity
  8
LAY-10
  6
HIDDEN
 62
     7
100
AcDbCircle
 10
1690.999999999967
 20
3044.618121212141
 30
0.0
 40
4.38187878787879
100
AcDbArc
 50
46.79286853968935
 51
133.2071314603276
  0
ARC
  5
285
330
1F
100
AcDbEntity
  8
LAY-10
  6
HIDDEN
 62
     7
100
AcDbCircle
 10
1681.999999999967
 20
3033.254484848504
 30
0.0
 40
15.74551515151516
100
AcDbArc
 50
67.60058795241886
 51
112.399412047592
  0
ARC
  5
286
330
1F
100
AcDbEntity
  8
LAY-10
  6
HIDDEN
 62
     7
100
AcDbCircle
 10
1672.999999999967
 20
3044.618121212139
 30
0.0
 40
4.38187878787879
100
AcDbArc
 50
46.79286853968935
 51
133.2071314603276
  0
LINE
  5
287
330
1F
100
AcDbEntity
  8
LAY-10
  6
HIDDEN
 62
     7
100
AcDbLine
 10
1690.999999999967
 20
3049.000000000023
 30
0.0
 11
1672.999999999967
 21
3049.00000000002
 31
0.0
  0
ARC
  5
288
330
1F
100
AcDbEntity
  8
LAY-10
  6
HIDDEN
 62
     7
100
AcDbCircle
 10
1690.999999999967
 20
3033.381878787881
 30
0.0
 40
4.38187878787879
100
AcDbArc
 50
226.7928685396809
 51
313.2071314603191
  0
ARC
  5
289
330
1F
100
AcDbEntity
  8
LAY-10
  6
HIDDEN
 62
     7
100
AcDbCircle
 10
1681.999999999967
 20
3044.745515151517
 30
0.0
 40
15.74551515151516
100
AcDbArc
 50
247.6005879524137
 51
292.3994120475865
  0
ARC
  5
28A
330
1F
100
AcDbEntity
  8
LAY-10
  6
HIDDEN
 62
     7
100
AcDbCircle
 10
1672.999999999967
 20
3033.381878787881
 30
0.0
 40
4.38187878787879
100
AcDbArc
 50
226.7928685396809
 51
313.2071314603191
  0
LINE
  5
28B
330
1F
100
AcDbEntity
  8
LAY-10
  6
HIDDEN
 62
     7
100
AcDbLine
 10
1690.999999999967
 20
3029.0
 30
0.0
 11
1672.999999999967
 21
3029.0
 31
0.0
  0
LINE
  5
28C
330
1F
100
AcDbEntity
  8
LAY-10
  6
HIDDEN
 62
     7
100
AcDbLine
 10
1693.999999999967
 20
3047.811999999998
 30
0.0
 11
1693.999999999967
 21
3030.188000000002
 31
0.0
  0
LINE
  5
28D
330
1F
100
AcDbEntity
  8
LAY-10
  6
HIDDEN
 62
     7
100
AcDbLine
 10
1776.000000000031
 20
3047.811999999998
 30
0.0
 11
1776.000000000031
 21
3030.188000000002
 31
0.0
  0
LINE
  5
28E
330
1F
100
AcDbEntity
  8
LAY-10
  6
HIDDEN
 62
     7
100
AcDbLine
 10
1788.000000000031
 20
3047.811999999998
 30
0.0
 11
1788.000000000031
 21
3030.188000000002
 31
0.0
  0
LINE
  5
28F
330
1F
100
AcDbEntity
  8
LAY-10
  6
HIDDEN
 62
     7
100
AcDbLine
 10
1794.000000000031
 20
3047.811999999998
 30
0.0
 11
1794.000000000031
 21
3030.188000000002
 31
0.0
  0
ARC
  5
290
330
1F
100
AcDbEntity
  8
LAY-10
  6
HIDDEN
 62
     7
100
AcDbCircle
 10
1773.000000000031
 20
3044.618121212141
 30
0.0
 40
4.38187878787879
100
AcDbArc
 50
46.7928685396725
 51
133.2071314603108
  0
ARC
  5
291
330
1F
100
AcDbEntity
  8
LAY-10
  6
HIDDEN
 62
     7
100
AcDbCircle
 10
1782.000000000031
 20
3033.254484848504
 30
0.0
 40
15.74551515151516
100
AcDbArc
 50
67.60058795240803
 51
112.3994120475809
  0
ARC
  5
292
330
1F
100
AcDbEntity
  8
LAY-10
  6
HIDDEN
 62
     7
100
AcDbCircle
 10
1791.000000000031
 20
3044.618121212139
 30
0.0
 40
4.38187878787879
100
AcDbArc
 50
46.7928685396725
 51
133.2071314603108
  0
LINE
  5
293
330
1F
100
AcDbEntity
  8
LAY-10
  6
HIDDEN
 62
     7
100
AcDbLine
 10
1773.000000000031
 20
3049.000000000023
 30
0.0
 11
1791.000000000031
 21
3049.00000000002
 31
0.0
  0
ARC
  5
294
330
1F
100
AcDbEntity
  8
LAY-10
  6
HIDDEN
 62
     7
100
AcDbCircle
 10
1773.000000000031
 20
3033.381878787881
 30
0.0
 40
4.38187878787879
100
AcDbArc
 50
226.7928685396809
 51
313.2071314603191
  0
ARC
  5
295
330
1F
100
AcDbEntity
  8
LAY-10
  6
HIDDEN
 62
     7
100
AcDbCircle
 10
1782.000000000031
 20
3044.745515151517
 30
0.0
 40
15.74551515151516
100
AcDbArc
 50
247.6005879524133
 51
292.3994120475868
  0
ARC
  5
296
330
1F
100
AcDbEntity
  8
LAY-10
  6
HIDDEN
 62
     7
100
AcDbCircle
 10
1791.000000000031
 20
3033.381878787881
 30
0.0
 40
4.38187878787879
100
AcDbArc
 50
226.7928685396809
 51
313.2071314603191
  0
LINE
  5
297
330
1F
100
AcDbEntity
  8
LAY-10
  6
HIDDEN
 62
     7
100
AcDbLine
 10
1773.000000000031
 20
3029.0
 30
0.0
 11
1791.000000000031
 21
3029.0
 31
0.0
  0
LINE
  5
298
330
1F
100
AcDbEntity
  8
LAY-10
  6
HIDDEN
 62
     7
100
AcDbLine
 10
1770.000000000031
 20
3047.811999999998
 30
0.0
 11
1770.000000000031
 21
3030.188000000002
 31
0.0
  0
LINE
  5
299
330
1F
100
AcDbEntity
  8
LAY-10
  6
CONTINUOUS
 62
     7
100
AcDbLine
 10
1732.0
 20
3464.0
 30
0.0
 11
1732.0
 21
3029.0
 31
0.0
  0
LINE
  5
29A
330
1F
100
AcDbEntity
  8
LAY-10
  6
CONTINUOUS
 62
     7
100
AcDbLine
 10
1735.0
 20
3032.0
 30
0.0
 11
1734.999999999999
 21
3461.0
 31
0.0
  0
LINE
  5
29B
330
1F
100
AcDbEntity
  8
LAY-10
  6
CONTINUOUS
 62
     7
100
AcDbLine
 10
1729.0
 20
3032.0
 30
0.0
 11
1729.0
 21
3461.0
 31
0.0
  0
LINE
  5
29C
330
1F
100
AcDbEntity
  8
LAY-10
  6
CONTINUOUS
 62
     7
100
AcDbLine
 10
1854.499999999999
 20
3079.0
 30
0.0
 11
1854.5
 21
3414.0
 31
0.0
  0
LINE
  5
29D
330
1F
100
AcDbEntity
  8
LAY-10
  6
CONTINUOUS
 62
     7
100
AcDbLine
 10
1862.000000000001
 20
3414.0
 30
0.0
 11
1861.999999999999
 21
3079.0
 31
0.0
  0
LINE
  5
29E
330
1F
100
AcDbEntity
  8
LAY-10
  6
CONTINUOUS
 62
     7
100
AcDbLine
 10
1894.499999999998
 20
3079.0
 30
0.0
 11
1894.499999999999
 21
3414.0
 31
0.0
  0
LINE
  5
29F
330
1F
100
AcDbEntity
  8
LAY-10
  6
CONTINUOUS
 62
     7
100
AcDbLine
 10
1887.0
 20
3414.0
 30
0.0
 11
1886.999999999998
 21
3079.0
 31
0.0
  0
LINE
  5
2A0
330
1F
100
AcDbEntity
  8
LAY-10
  6
CONTINUOUS
 62
     7
100
AcDbLine
 10
1894.499999999999
 20
3078.999999999999
 30
0.0
 11
1854.499999999999
 21
3078.999999999999
 31
0.0
  0
LINE
  5
2A1
330
1F
100
AcDbEntity
  8
LAY-10
  6
CONTINUOUS
 62
     7
100
AcDbLine
 10
997.0
 20
1994.0
 30
0.0
 11
2467.0
 21
1993.999999999999
 31
0.0
  0
LINE
  5
2A2
330
1F
100
AcDbEntity
  8
LAY-10
  6
CONTINUOUS
 62
     7
100
AcDbLine
 10
987.9999999999999
 20
1985.0
 30
0.0
 11
2476.0
 21
1984.999999999999
 31
0.0
  0
LINE
  5
2A3
330
1F
100
AcDbEntity
  8
LAY-10
  6
CONTINUOUS
 62
     7
100
AcDbLine
 10
985.0000000000001
 20
1982.0
 30
0.0
 11
2479.0
 21
1982.0
 31
0.0
  0
LINE
  5
2A4
330
1F
100
AcDbEntity
  8
LAY-10
  6
CONTINUOUS
 62
     7
100
AcDbLine
 10
2466.999999999999
 20
3463.999999999999
 30
0.0
 11
997.0
 21
3464.0
 31
0.0
  0
LINE
  5
2A5
330
1F
100
AcDbEntity
  8
LAY-10
  6
CONTINUOUS
 62
     7
100
AcDbLine
 10
2475.999999999999
 20
3472.999999999999
 30
0.0
 11
987.9999999999999
 21
3473.0
 31
0.0
  0
LINE
  5
2A6
330
1F
100
AcDbEntity
  8
LAY-10
  6
CONTINUOUS
 62
     7
100
AcDbLine
 10
2479.0
 20
3475.999999999999
 30
0.0
 11
985.0000000000001
 21
3476.0
 31
0.0
  0
LINE
  5
2A7
330
1F
100
AcDbEntity
  8
LAY-10
  6
CONTINUOUS
 62
     7
100
AcDbLine
 10
2467.0
 20
1993.999999999999
 30
0.0
 11
2466.999999999999
 21
3463.999999999999
 31
0.0
  0
LINE
  5
2A8
330
1F
100
AcDbEntity
  8
LAY-10
  6
CONTINUOUS
 62
     7
100
AcDbLine
 10
2476.0
 20
1984.999999999999
 30
0.0
 11
2475.999999999999
 21
3472.999999999999
 31
0.0
  0
LINE
  5
2A9
330
1F
100
AcDbEntity
  8
LAY-10
  6
CONTINUOUS
 62
     7
100
AcDbLine
 10
2479.0
 20
3475.999999999999
 30
0.0
 11
2479.0
 21
1982.0
 31
0.0
  0
LINE
  5
2AA
330
1F
100
AcDbEntity
  8
LAY-10
  6
CONTINUOUS
 62
     7
100
AcDbLine
 10
2476.0
 20
1284.999999999999
 30
0.0
 11
2479.0
 21
1284.999999999999
 31
0.0
  0
LINE
  5
2AB
330
1F
100
AcDbEntity
  8
LAY-10
  6
CONTINUOUS
 62
     7
100
AcDbLine
 10
2473.000000000001
 20
2161.499999999994
 30
0.0
 11
2467.000000000001
 21
2161.499999999994
 31
0.0
  0
LINE
  5
2AC
330
1F
100
AcDbEntity
  8
LAY-10
  6
CONTINUOUS
 62
     7
100
AcDbLine
 10
2473.000000000001
 20
2111.499999999994
 30
0.0
 11
2467.000000000001
 21
2111.499999999994
 31
0.0
  0
LINE
  5
2AD
330
1F
100
AcDbEntity
  8
LAY-10
  6
CONTINUOUS
 62
     7
100
AcDbLine
 10
2473.000000000001
 20
2111.499999999999
 30
0.0
 11
2473.000000000001
 21
2161.499999999999
 31
0.0
  0
LINE
  5
2AE
330
1F
100
AcDbEntity
  8
LAY-10
  6
CONTINUOUS
 62
     7
100
AcDbLine
 10
2299.500000000005
 20
1987.999999999998
 30
0.0
 11
2299.500000000005
 21
1993.999999999998
 31
0.0
  0
LINE
  5
2AF
330
1F
100
AcDbEntity
  8
LAY-10
  6
CONTINUOUS
 62
     7
100
AcDbLine
 10
2349.500000000005
 20
1987.999999999998
 30
0.0
 11
2349.500000000005
 21
1993.999999999998
 31
0.0
  0
LINE
  5
2B0
330
1F
100
AcDbEntity
  8
LAY-10
  6
CONTINUOUS
 62
     7
100
AcDbLine
 10
2349.5
 20
1987.999999999999
 30
0.0
 11
2299.5
 21
1987.999999999999
 31
0.0
  0
LINE
  5
2B1
330
1F
100
AcDbEntity
  8
LAY-10
  6
CONTINUOUS
 62
     7
100
AcDbLine
 10
1735.000000000001
 20
1997.0
 30
0.0
 11
2464.0
 21
1997.0
 31
0.0
  0
LINE
  5
2B2
330
1F
100
AcDbEntity
  8
LAY-10
  6
CONTINUOUS
 62
     7
100
AcDbLine
 10
2464.0
 20
1997.0
 30
0.0
 11
2464.0
 21
2726.0
 31
0.0
  0
LINE
  5
2B3
330
1F
100
AcDbEntity
  8
LAY-10
  6
CONTINUOUS
 62
     7
100
AcDbLine
 10
2304.5
 20
2778.999999999999
 30
0.0
 11
2304.5
 21
3413.999999999999
 31
0.0
  0
LINE
  5
2B4
330
1F
100
AcDbEntity
  8
LAY-10
  6
CONTINUOUS
 62
     7
100
AcDbLine
 10
2312.000000000001
 20
3413.999999999999
 30
0.0
 11
2312.0
 21
2778.999999999999
 31
0.0
  0
LINE
  5
2B5
330
1F
100
AcDbEntity
  8
LAY-10
  6
CONTINUOUS
 62
     7
100
AcDbLine
 10
2344.499999999999
 20
2778.999999999999
 30
0.0
 11
2344.5
 21
3413.999999999999
 31
0.0
  0
LINE
  5
2B6
330
1F
100
AcDbEntity
  8
LAY-10
  6
CONTINUOUS
 62
     7
100
AcDbLine
 10
2337.0
 20
3413.999999999999
 30
0.0
 11
2336.999999999999
 21
2778.999999999999
 31
0.0
  0
LINE
  5
2B7
330
1F
100
AcDbEntity
  8
LAY-10
  6
CONTINUOUS
 62
     7
100
AcDbLine
 10
2344.5
 20
3413.999999999999
 30
0.0
 11
2304.5
 21
3413.999999999999
 31
0.0
  0
LINE
  5
2B8
330
1F
100
AcDbEntity
  8
LAY-10
  6
CONTINUOUS
 62
     7
100
AcDbLine
 10
2473.000000000001
 20
3296.500000000004
 30
0.0
 11
2467.0
 21
3296.500000000004
 31
0.0
  0
LINE
  5
2B9
330
1F
100
AcDbEntity
  8
LAY-10
  6
CONTINUOUS
 62
     7
100
AcDbLine
 10
2473.000000000001
 20
3346.500000000003
 30
0.0
 11
2467.0
 21
3346.500000000003
 31
0.0
  0
LINE
  5
2BA
330
1F
100
AcDbEntity
  8
LAY-10
  6
CONTINUOUS
 62
     7
100
AcDbLine
 10
2473.0
 20
3346.499999999999
 30
0.0
 11
2473.0
 21
3296.499999999998
 31
0.0
  0
LINE
  5
2BB
330
1F
100
AcDbEntity
  8
LAY-10
  6
CONTINUOUS
 62
     7
100
AcDbLine
 10
2299.500000000005
 20
3469.999999999999
 30
0.0
 11
2299.500000000005
 21
3463.999999999999
 31
0.0
  0
LINE
  5
2BC
330
1F
100
AcDbEntity
  8
LAY-10
  6
CONTINUOUS
 62
     7
100
AcDbLine
 10
2349.500000000004
 20
3469.999999999999
 30
0.0
 11
2349.500000000004
 21
3463.999999999999
 31
0.0
  0
LINE
  5
2BD
330
1F
100
AcDbEntity
  8
LAY-10
  6
CONTINUOUS
 62
     7
100
AcDbLine
 10
2349.5
 20
3469.999999999999
 30
0.0
 11
2299.5
 21
3469.999999999999
 31
0.0
  0
LINE
  5
2BE
330
1F
100
AcDbEntity
  8
LAY-10
  6
CONTINUOUS
 62
     7
100
AcDbLine
 10
2464.0
 20
2732.0
 30
0.0
 11
2464.0
 21
3460.999999999999
 31
0.0
  0
LINE
  5
2BF
330
1F
100
AcDbEntity
  8
LAY-10
  6
CONTINUOUS
 62
     7
100
AcDbLine
 10
2464.0
 20
3460.999999999999
 30
0.0
 11
1735.0
 21
3461.0
 31
0.0
  0
LINE
  5
2C0
330
1F
100
AcDbEntity
  8
LAY-10
  6
CONTINUOUS
 62
     7
100
AcDbLine
 10
2720.5
 20
2921.399999999999
 30
0.0
 11
2720.5
 21
2536.599999999999
 31
0.0
  0
LINE
  5
2C1
330
1F
100
AcDbEntity
  8
LAY-10
  6
CONTINUOUS
 62
     7
100
AcDbLine
 10
2720.5
 20
2536.6
 30
0.0
 11
2703.81461246655
 21
2598.8707140188
 31
0.0
  0
LINE
  5
2C2
330
1F
100
AcDbEntity
  8
LAY-10
  6
CONTINUOUS
 62
     7
100
AcDbLine
 10
2720.499999999999
 20
2536.6
 30
0.0
 11
2737.185387533449
 21
2598.8707140188
 31
0.0
  0
LINE
  5
2C3
330
1F
100
AcDbEntity
  8
LAY-10
  6
CONTINUOUS
 62
     7
100
AcDbLine
 10
2720.5
 20
2921.399999999999
 30
0.0
 11
2703.81461246655
 21
2859.129285981198
 31
0.0
  0
LINE
  5
2C4
330
1F
100
AcDbEntity
  8
LAY-10
  6
CONTINUOUS
 62
     7
100
AcDbLine
 10
2720.499999999999
 20
2921.399999999999
 30
0.0
 11
2737.185387533449
 21
2859.129285981198
 31
0.0
  0
LINE
  5
2C5
330
1F
100
AcDbEntity
  8
LAY-10
  6
CONTINUOUS
 62
     7
100
AcDbLine
 10
2633.499999999999
 20
2728.999999999999
 30
0.0
 11
2807.499999999999
 21
2728.999999999999
 31
0.0
  0
LINE
  5
2C6
330
1F
100
AcDbEntity
  8
LAY-10
  6
CONTINUOUS
 62
     7
100
AcDbLine
 10
2344.5
 20
2778.999999999999
 30
0.0
 11
2304.5
 21
2778.999999999999
 31
0.0
  0
LINE
  5
2C7
330
1F
100
AcDbEntity
  8
LAY-10
  6
CONTINUOUS
 62
     7
100
AcDbLine
 10
2513.999999999997
 20
2613.000000000002
 30
0.0
 11
2513.999999999997
 21
2645.000000000002
 31
0.0
  0
LINE
  5
2C8
330
1F
100
AcDbEntity
  8
LAY-10
  6
CONTINUOUS
 62
     7
100
AcDbLine
 10
2513.999999999997
 20
2613.000000000002
 30
0.0
 11
2478.999999999998
 21
2613.000000000002
 31
0.0
  0
LINE
  5
2C9
330
1F
100
AcDbEntity
  8
LAY-10
  6
CONTINUOUS
 62
     7
100
AcDbLine
 10
2513.999999999997
 20
2645.000000000002
 30
0.0
 11
2478.999999999998
 21
2645.000000000002
 31
0.0
  0
LINE
  5
2CA
330
1F
100
AcDbEntity
  8
LAY-10
  6
CONTINUOUS
 62
     7
100
AcDbLine
 10
2513.999999999997
 20
2113.000000000002
 30
0.0
 11
2513.999999999997
 21
2145.000000000003
 31
0.0
  0
LINE
  5
2CB
330
1F
100
AcDbEntity
  8
LAY-10
  6
CONTINUOUS
 62
     7
100
AcDbLine
 10
2513.999999999997
 20
2113.000000000002
 30
0.0
 11
2478.999999999998
 21
2113.000000000002
 31
0.0
  0
LINE
  5
2CC
330
1F
100
AcDbEntity
  8
LAY-10
  6
CONTINUOUS
 62
     7
100
AcDbLine
 10
2513.999999999997
 20
2145.000000000003
 30
0.0
 11
2478.999999999998
 21
2145.000000000003
 31
0.0
  0
LINE
  5
2CD
330
1F
100
AcDbEntity
  8
LAY-10
  6
CONTINUOUS
 62
     7
100
AcDbLine
 10
2513.999999999996
 20
2844.999999999997
 30
0.0
 11
2513.999999999996
 21
2812.999999999996
 31
0.0
  0
LINE
  5
2CE
330
1F
100
AcDbEntity
  8
LAY-10
  6
CONTINUOUS
 62
     7
100
AcDbLine
 10
2513.999999999996
 20
2844.999999999997
 30
0.0
 11
2478.999999999997
 21
2844.999999999997
 31
0.0
  0
LINE
  5
2CF
330
1F
100
AcDbEntity
  8
LAY-10
  6
CONTINUOUS
 62
     7
100
AcDbLine
 10
2513.999999999996
 20
2812.999999999996
 30
0.0
 11
2478.999999999997
 21
2812.999999999996
 31
0.0
  0
LINE
  5
2D0
330
1F
100
AcDbEntity
  8
LAY-10
  6
CONTINUOUS
 62
     7
100
AcDbLine
 10
2513.999999999996
 20
3344.999999999997
 30
0.0
 11
2513.999999999996
 21
3312.999999999996
 31
0.0
  0
LINE
  5
2D1
330
1F
100
AcDbEntity
  8
LAY-10
  6
CONTINUOUS
 62
     7
100
AcDbLine
 10
2513.999999999996
 20
3344.999999999997
 30
0.0
 11
2478.999999999997
 21
3344.999999999997
 31
0.0
  0
LINE
  5
2D2
330
1F
100
AcDbEntity
  8
LAY-10
  6
CONTINUOUS
 62
     7
100
AcDbLine
 10
2513.999999999996
 20
3312.999999999996
 30
0.0
 11
2478.999999999997
 21
3312.999999999996
 31
0.0
  0
LINE
  5
2D3
330
1F
100
AcDbEntity
  8
LAY-10
  6
CONTINUOUS
 62
     7
100
AcDbLine
 10
2473.0
 20
2561.500000000001
 30
0.0
 11
2467.0
 21
2561.500000000001
 31
0.0
  0
LINE
  5
2D4
330
1F
100
AcDbEntity
  8
LAY-10
  6
CONTINUOUS
 62
     7
100
AcDbLine
 10
2473.0
 20
2611.500000000001
 30
0.0
 11
2467.0
 21
2611.500000000001
 31
0.0
  0
LINE
  5
2D5
330
1F
100
AcDbEntity
  8
LAY-10
  6
CONTINUOUS
 62
     7
100
AcDbLine
 10
2473.0
 20
2611.499999999996
 30
0.0
 11
2473.0
 21
2561.499999999996
 31
0.0
  0
LINE
  5
2D6
330
1F
100
AcDbEntity
  8
LAY-10
  6
CONTINUOUS
 62
     7
100
AcDbLine
 10
2473.000000000001
 20
2896.499999999996
 30
0.0
 11
2467.0
 21
2896.499999999996
 31
0.0
  0
LINE
  5
2D7
330
1F
100
AcDbEntity
  8
LAY-10
  6
CONTINUOUS
 62
     7
100
AcDbLine
 10
2473.000000000001
 20
2846.499999999996
 30
0.0
 11
2467.0
 21
2846.499999999996
 31
0.0
  0
LINE
  5
2D8
330
1F
100
AcDbEntity
  8
LAY-10
  6
CONTINUOUS
 62
     7
100
AcDbLine
 10
2473.0
 20
2846.500000000001
 30
0.0
 11
2473.0
 21
2896.500000000001
 31
0.0
  0
LINE
  5
2D9
330
1F
100
AcDbEntity
  8
LAY-10
  6
CONTINUOUS
 62
     7
100
AcDbLine
 10
997.0
 20
3464.0
 30
0.0
 11
997.0
 21
1994.0
 31
0.0
  0
LINE
  5
2DA
330
1F
100
AcDbEntity
  8
LAY-10
  6
CONTINUOUS
 62
     7
100
AcDbLine
 10
987.9999999999999
 20
3473.0
 30
0.0
 11
987.9999999999999
 21
1985.0
 31
0.0
  0
LINE
  5
2DB
330
1F
100
AcDbEntity
  8
LAY-10
  6
CONTINUOUS
 62
     7
100
AcDbLine
 10
985.0000000000001
 20
3476.0
 30
0.0
 11
985.0000000000001
 21
1982.0
 31
0.0
  0
LINE
  5
2DC
330
1F
100
AcDbEntity
  8
LAY-10
  6
CONTINUOUS
 62
     7
100
AcDbLine
 10
987.9999999999999
 20
1285.000000000001
 30
0.0
 11
985.0000000000001
 21
1285.0
 31
0.0
  0
LINE
  5
2DD
330
1F
100
AcDbEntity
  8
LAY-10
  6
CONTINUOUS
 62
     7
100
AcDbLine
 10
990.9999999999991
 20
2161.499999999996
 30
0.0
 11
996.9999999999992
 21
2161.499999999996
 31
0.0
  0
LINE
  5
2DE
330
1F
100
AcDbEntity
  8
LAY-10
  6
CONTINUOUS
 62
     7
100
AcDbLine
 10
990.9999999999991
 20
2111.499999999995
 30
0.0
 11
996.9999999999992
 21
2111.499999999995
 31
0.0
  0
LINE
  5
2DF
330
1F
100
AcDbEntity
  8
LAY-10
  6
CONTINUOUS
 62
     7
100
AcDbLine
 10
990.9999999999995
 20
2111.500000000001
 30
0.0
 11
990.9999999999995
 21
2161.500000000001
 31
0.0
  0
LINE
  5
2E0
330
1F
100
AcDbEntity
  8
LAY-10
  6
CONTINUOUS
 62
     7
100
AcDbLine
 10
1164.499999999995
 20
1987.999999999999
 30
0.0
 11
1164.499999999995
 21
1993.999999999998
 31
0.0
  0
LINE
  5
2E1
330
1F
100
AcDbEntity
  8
LAY-10
  6
CONTINUOUS
 62
     7
100
AcDbLine
 10
1114.499999999995
 20
1987.999999999999
 30
0.0
 11
1114.499999999995
 21
1993.999999999998
 31
0.0
  0
LINE
  5
2E2
330
1F
100
AcDbEntity
  8
LAY-10
  6
CONTINUOUS
 62
     7
100
AcDbLine
 10
1114.5
 20
1987.999999999999
 30
0.0
 11
1164.5
 21
1987.999999999999
 31
0.0
  0
LINE
  5
2E3
330
1F
100
AcDbEntity
  8
LAY-10
  6
CONTINUOUS
 62
     7
100
AcDbLine
 10
1000.0
 20
2726.0
 30
0.0
 11
1000.0
 21
1997.0
 31
0.0
  0
LINE
  5
2E4
330
1F
100
AcDbEntity
  8
LAY-10
  6
CONTINUOUS
 62
     7
100
AcDbLine
 10
1000.0
 20
1997.0
 30
0.0
 11
1729.000000000001
 21
1997.0
 31
0.0
  0
LINE
  5
2E5
330
1F
100
AcDbEntity
  8
LAY-10
  6
CONTINUOUS
 62
     7
100
AcDbLine
 10
990.9999999999983
 20
3296.500000000005
 30
0.0
 11
996.9999999999981
 21
3296.500000000005
 31
0.0
  0
LINE
  5
2E6
330
1F
100
AcDbEntity
  8
LAY-10
  6
CONTINUOUS
 62
     7
100
AcDbLine
 10
990.9999999999983
 20
3346.500000000006
 30
0.0
 11
996.9999999999981
 21
3346.500000000006
 31
0.0
  0
LINE
  5
2E7
330
1F
100
AcDbEntity
  8
LAY-10
  6
CONTINUOUS
 62
     7
100
AcDbLine
 10
990.9999999999983
 20
3346.5
 30
0.0
 11
990.9999999999983
 21
3296.5
 31
0.0
  0
LINE
  5
2E8
330
1F
100
AcDbEntity
  8
LAY-10
  6
CONTINUOUS
 62
     7
100
AcDbLine
 10
1164.499999999994
 20
3470.0
 30
0.0
 11
1164.499999999994
 21
3464.000000000001
 31
0.0
  0
LINE
  5
2E9
330
1F
100
AcDbEntity
  8
LAY-10
  6
CONTINUOUS
 62
     7
100
AcDbLine
 10
1114.499999999994
 20
3470.0
 30
0.0
 11
1114.499999999994
 21
3464.000000000001
 31
0.0
  0
LINE
  5
2EA
330
1F
100
AcDbEntity
  8
LAY-10
  6
CONTINUOUS
 62
     7
100
AcDbLine
 10
1114.5
 20
3470.0
 30
0.0
 11
1164.5
 21
3470.0
 31
0.0
  0
LINE
  5
2EB
330
1F
100
AcDbEntity
  8
LAY-10
  6
CONTINUOUS
 62
     7
100
AcDbLine
 10
1000.0
 20
3461.0
 30
0.0
 11
1000.0
 21
2732.0
 31
0.0
  0
LINE
  5
2EC
330
1F
100
AcDbEntity
  8
LAY-10
  6
CONTINUOUS
 62
     7
100
AcDbLine
 10
1729.0
 20
3461.0
 30
0.0
 11
1000.0
 21
3461.0
 31
0.0
  0
LINE
  5
2ED
330
1F
100
AcDbEntity
  8
LAY-10
  6
CONTINUOUS
 62
     7
100
AcDbLine
 10
558.9999999999991
 20
2921.4
 30
0.0
 11
558.9999999999991
 21
2536.6
 31
0.0
  0
LINE
  5
2EE
330
1F
100
AcDbEntity
  8
LAY-10
  6
CONTINUOUS
 62
     7
100
AcDbLine
 10
558.9999999999991
 20
2536.600000000002
 30
0.0
 11
575.6853875334491
 21
2598.870714018802
 31
0.0
  0
LINE
  5
2EF
330
1F
100
AcDbEntity
  8
LAY-10
  6
CONTINUOUS
 62
     7
100
AcDbLine
 10
559.0000000000005
 20
2536.600000000002
 30
0.0
 11
542.3146124665504
 21
2598.870714018802
 31
0.0
  0
LINE
  5
2F0
330
1F
100
AcDbEntity
  8
LAY-10
  6
CONTINUOUS
 62
     7
100
AcDbLine
 10
558.9999999999991
 20
2921.4
 30
0.0
 11
575.6853875334491
 21
2859.1292859812
 31
0.0
  0
LINE
  5
2F1
330
1F
100
AcDbEntity
  8
LAY-10
  6
CONTINUOUS
 62
     7
100
AcDbLine
 10
559.0000000000005
 20
2921.4
 30
0.0
 11
542.3146124665504
 21
2859.1292859812
 31
0.0
  0
LINE
  5
2F2
330
1F
100
AcDbEntity
  8
LAY-10
  6
CONTINUOUS
 62
     7
100
AcDbLine
 10
646.0
 20
2729.000000000001
 30
0.0
 11
472.0
 21
2729.000000000001
 31
0.0
  0
LINE
  5
2F3
330
1F
100
AcDbEntity
  8
LAY-10
  6
CONTINUOUS
 62
     7
100
AcDbLine
 10
950.0000000000014
 20
2613.000000000002
 30
0.0
 11
950.0000000000014
 21
2645.000000000003
 31
0.0
  0
LINE
  5
2F4
330
1F
100
AcDbEntity
  8
LAY-10
  6
CONTINUOUS
 62
     7
100
AcDbLine
 10
950.0000000000014
 20
2613.000000000002
 30
0.0
 11
985.0000000000001
 21
2613.000000000002
 31
0.0
  0
LINE
  5
2F5
330
1F
100
AcDbEntity
  8
LAY-10
  6
CONTINUOUS
 62
     7
100
AcDbLine
 10
950.0000000000014
 20
2645.000000000003
 30
0.0
 11
985.0000000000001
 21
2645.000000000003
 31
0.0
  0
LINE
  5
2F6
330
1F
100
AcDbEntity
  8
LAY-10
  6
CONTINUOUS
 62
     7
100
AcDbLine
 10
950.0000000000014
 20
2113.000000000002
 30
0.0
 11
950.0000000000014
 21
2145.000000000003
 31
0.0
  0
LINE
  5
2F7
330
1F
100
AcDbEntity
  8
LAY-10
  6
CONTINUOUS
 62
     7
100
AcDbLine
 10
950.0000000000014
 20
2113.000000000002
 30
0.0
 11
985.0000000000001
 21
2113.000000000002
 31
0.0
  0
LINE
  5
2F8
330
1F
100
AcDbEntity
  8
LAY-10
  6
CONTINUOUS
 62
     7
100
AcDbLine
 10
950.0000000000014
 20
2145.000000000003
 30
0.0
 11
985.0000000000001
 21
2145.000000000003
 31
0.0
  0
LINE
  5
2F9
330
1F
100
AcDbEntity
  8
LAY-10
  6
CONTINUOUS
 62
     7
100
AcDbLine
 10
950.0000000000014
 20
2844.999999999997
 30
0.0
 11
950.0000000000014
 21
2812.999999999997
 31
0.0
  0
LINE
  5
2FA
330
1F
100
AcDbEntity
  8
LAY-10
  6
CONTINUOUS
 62
     7
100
AcDbLine
 10
950.0000000000014
 20
2844.999999999997
 30
0.0
 11
985.0000000000001
 21
2844.999999999997
 31
0.0
  0
LINE
  5
2FB
330
1F
100
AcDbEntity
  8
LAY-10
  6
CONTINUOUS
 62
     7
100
AcDbLine
 10
950.0000000000014
 20
2812.999999999997
 30
0.0
 11
985.0000000000001
 21
2812.999999999997
 31
0.0
  0
LINE
  5
2FC
330
1F
100
AcDbEntity
  8
LAY-10
  6
CONTINUOUS
 62
     7
100
AcDbLine
 10
950.0000000000014
 20
3344.999999999997
 30
0.0
 11
950.0000000000014
 21
3312.999999999997
 31
0.0
  0
LINE
  5
2FD
330
1F
100
AcDbEntity
  8
LAY-10
  6
CONTINUOUS
 62
     7
100
AcDbLine
 10
950.0000000000014
 20
3344.999999999997
 30
0.0
 11
985.0000000000001
 21
3344.999999999997
 31
0.0
  0
LINE
  5
2FE
330
1F
100
AcDbEntity
  8
LAY-10
  6
CONTINUOUS
 62
     7
100
AcDbLine
 10
950.0000000000014
 20
3312.999999999997
 30
0.0
 11
985.0000000000001
 21
3312.999999999997
 31
0.0
  0
LINE
  5
2FF
330
1F
100
AcDbEntity
  8
LAY-10
  6
CONTINUOUS
 62
     7
100
AcDbLine
 10
991.0
 20
2896.499999999998
 30
0.0
 11
997.0
 21
2896.499999999998
 31
0.0
  0
LINE
  5
300
330
1F
100
AcDbEntity
  8
LAY-10
  6
CONTINUOUS
 62
     7
100
AcDbLine
 10
991.0
 20
2846.499999999998
 30
0.0
 11
997.0
 21
2846.499999999998
 31
0.0
  0
LINE
  5
301
330
1F
100
AcDbEntity
  8
LAY-10
  6
CONTINUOUS
 62
     7
100
AcDbLine
 10
991.0
 20
2846.500000000003
 30
0.0
 11
991.0
 21
2896.500000000003
 31
0.0
  0
LINE
  5
302
330
1F
100
AcDbEntity
  8
LAY-10
  6
CONTINUOUS
 62
     7
100
AcDbLine
 10
990.9999999999995
 20
2561.500000000003
 30
0.0
 11
996.9999999999992
 21
2561.500000000003
 31
0.0
  0
LINE
  5
303
330
1F
100
AcDbEntity
  8
LAY-10
  6
CONTINUOUS
 62
     7
100
AcDbLine
 10
990.9999999999995
 20
2611.500000000003
 30
0.0
 11
996.9999999999992
 21
2611.500000000003
 31
0.0
  0
LINE
  5
304
330
1F
100
AcDbEntity
  8
LAY-10
  6
CONTINUOUS
 62
     7
100
AcDbLine
 10
990.9999999999995
 20
2611.499999999998
 30
0.0
 11
990.9999999999995
 21
2561.499999999998
 31
0.0
  0
LINE
  5
305
330
1F
100
AcDbEntity
  8
LAY-10
  6
CONTINUOUS
 62
     7
100
AcDbLine
 10
1247.999999999997
 20
1947.0
 30
0.0
 11
1215.999999999997
 21
1947.0
 31
0.0
  0
LINE
  5
306
330
1F
100
AcDbEntity
  8
LAY-10
  6
CONTINUOUS
 62
     7
100
AcDbLine
 10
1247.999999999997
 20
1947.0
 30
0.0
 11
1247.999999999997
 21
1982.0
 31
0.0
  0
LINE
  5
307
330
1F
100
AcDbEntity
  8
LAY-10
  6
CONTINUOUS
 62
     7
100
AcDbLine
 10
1215.999999999997
 20
1947.0
 30
0.0
 11
1215.999999999997
 21
1982.0
 31
0.0
  0
LINE
  5
308
330
1F
100
AcDbEntity
  8
LAY-10
  6
CONTINUOUS
 62
     7
100
AcDbLine
 10
2216.0
 20
1947.0
 30
0.0
 11
2248.0
 21
1947.0
 31
0.0
  0
LINE
  5
309
330
1F
100
AcDbEntity
  8
LAY-10
  6
CONTINUOUS
 62
     7
100
AcDbLine
 10
2216.0
 20
1947.0
 30
0.0
 11
2216.0
 21
1982.0
 31
0.0
  0
LINE
  5
30A
330
1F
100
AcDbEntity
  8
LAY-10
  6
CONTINUOUS
 62
     7
100
AcDbLine
 10
2248.0
 20
1947.0
 30
0.0
 11
2248.0
 21
1982.0
 31
0.0
  0
LINE
  5
30B
330
1F
100
AcDbEntity
  8
LAY-10
  6
CONTINUOUS
 62
     7
100
AcDbLine
 10
1716.0
 20
1947.0
 30
0.0
 11
1748.0
 21
1947.0
 31
0.0
  0
LINE
  5
30C
330
1F
100
AcDbEntity
  8
LAY-10
  6
CONTINUOUS
 62
     7
100
AcDbLine
 10
1716.0
 20
1947.0
 30
0.0
 11
1716.0
 21
1982.0
 31
0.0
  0
LINE
  5
30D
330
1F
100
AcDbEntity
  8
LAY-10
  6
CONTINUOUS
 62
     7
100
AcDbLine
 10
1748.0
 20
1947.0
 30
0.0
 11
1748.0
 21
1982.0
 31
0.0
  0
LINE
  5
30E
330
1F
100
AcDbEntity
  8
LAY-10
  6
CONTINUOUS
 62
     7
100
AcDbLine
 10
1564.500000000002
 20
1987.999999999999
 30
0.0
 11
1564.500000000002
 21
1993.999999999999
 31
0.0
  0
LINE
  5
30F
330
1F
100
AcDbEntity
  8
LAY-10
  6
CONTINUOUS
 62
     7
100
AcDbLine
 10
1614.500000000002
 20
1987.999999999999
 30
0.0
 11
1614.500000000002
 21
1993.999999999999
 31
0.0
  0
LINE
  5
310
330
1F
100
AcDbEntity
  8
LAY-10
  6
CONTINUOUS
 62
     7
100
AcDbLine
 10
1614.499999999997
 20
1987.999999999999
 30
0.0
 11
1564.499999999997
 21
1987.999999999999
 31
0.0
  0
LINE
  5
311
330
1F
100
AcDbEntity
  8
LAY-10
  6
CONTINUOUS
 62
     7
100
AcDbLine
 10
1899.499999999997
 20
1987.999999999999
 30
0.0
 11
1899.499999999997
 21
1993.999999999999
 31
0.0
  0
LINE
  5
312
330
1F
100
AcDbEntity
  8
LAY-10
  6
CONTINUOUS
 62
     7
100
AcDbLine
 10
1849.499999999997
 20
1987.999999999999
 30
0.0
 11
1849.499999999997
 21
1993.999999999999
 31
0.0
  0
LINE
  5
313
330
1F
100
AcDbEntity
  8
LAY-10
  6
CONTINUOUS
 62
     7
100
AcDbLine
 10
1849.500000000002
 20
1987.999999999999
 30
0.0
 11
1899.500000000002
 21
1987.999999999999
 31
0.0
  0
LINE
  5
314
330
1F
100
AcDbEntity
  8
LAY-10
  6
CONTINUOUS
 62
     7
100
AcDbLine
 10
1894.499999999999
 20
3414.0
 30
0.0
 11
1854.499999999999
 21
3414.0
 31
0.0
  0
LINE
  5
315
330
1F
100
AcDbEntity
  8
LAY-10
  6
CONTINUOUS
 62
     7
100
AcDbLine
 10
1247.999999999997
 20
3510.999999999999
 30
0.0
 11
1215.999999999997
 21
3510.999999999999
 31
0.0
  0
LINE
  5
316
330
1F
100
AcDbEntity
  8
LAY-10
  6
CONTINUOUS
 62
     7
100
AcDbLine
 10
1247.999999999997
 20
3510.999999999999
 30
0.0
 11
1247.999999999997
 21
3476.0
 31
0.0
  0
LINE
  5
317
330
1F
100
AcDbEntity
  8
LAY-10
  6
CONTINUOUS
 62
     7
100
AcDbLine
 10
1215.999999999997
 20
3510.999999999999
 30
0.0
 11
1215.999999999997
 21
3476.0
 31
0.0
  0
LINE
  5
318
330
1F
100
AcDbEntity
  8
LAY-10
  6
CONTINUOUS
 62
     7
100
AcDbLine
 10
2216.0
 20
3511.0
 30
0.0
 11
2248.0
 21
3511.0
 31
0.0
  0
LINE
  5
319
330
1F
100
AcDbEntity
  8
LAY-10
  6
CONTINUOUS
 62
     7
100
AcDbLine
 10
2216.0
 20
3510.999999999999
 30
0.0
 11
2216.0
 21
3476.0
 31
0.0
  0
LINE
  5
31A
330
1F
100
AcDbEntity
  8
LAY-10
  6
CONTINUOUS
 62
     7
100
AcDbLine
 10
2248.0
 20
3511.0
 30
0.0
 11
2248.0
 21
3476.0
 31
0.0
  0
LINE
  5
31B
330
1F
100
AcDbEntity
  8
LAY-10
  6
CONTINUOUS
 62
     7
100
AcDbLine
 10
1716.0
 20
3511.0
 30
0.0
 11
1748.0
 21
3511.0
 31
0.0
  0
LINE
  5
31C
330
1F
100
AcDbEntity
  8
LAY-10
  6
CONTINUOUS
 62
     7
100
AcDbLine
 10
1716.0
 20
3510.999999999999
 30
0.0
 11
1716.0
 21
3476.0
 31
0.0
  0
LINE
  5
31D
330
1F
100
AcDbEntity
  8
LAY-10
  6
CONTINUOUS
 62
     7
100
AcDbLine
 10
1748.0
 20
3511.0
 30
0.0
 11
1748.0
 21
3476.0
 31
0.0
  0
LINE
  5
31E
330
1F
100
AcDbEntity
  8
LAY-10
  6
CONTINUOUS
 62
     7
100
AcDbLine
 10
1564.500000000002
 20
3470.0
 30
0.0
 11
1564.500000000002
 21
3464.0
 31
0.0
  0
LINE
  5
31F
330
1F
100
AcDbEntity
  8
LAY-10
  6
CONTINUOUS
 62
     7
100
AcDbLine
 10
1614.500000000002
 20
3470.0
 30
0.0
 11
1614.500000000002
 21
3464.0
 31
0.0
  0
LINE
  5
320
330
1F
100
AcDbEntity
  8
LAY-10
  6
CONTINUOUS
 62
     7
100
AcDbLine
 10
1614.499999999997
 20
3470.0
 30
0.0
 11
1564.499999999997
 21
3470.0
 31
0.0
  0
LINE
  5
321
330
1F
100
AcDbEntity
  8
LAY-10
  6
CONTINUOUS
 62
     7
100
AcDbLine
 10
1899.499999999997
 20
3470.0
 30
0.0
 11
1899.499999999997
 21
3464.0
 31
0.0
  0
LINE
  5
322
330
1F
100
AcDbEntity
  8
LAY-10
  6
CONTINUOUS
 62
     7
100
AcDbLine
 10
1849.499999999997
 20
3470.0
 30
0.0
 11
1849.499999999997
 21
3464.0
 31
0.0
  0
LINE
  5
323
330
1F
100
AcDbEntity
  8
LAY-10
  6
CONTINUOUS
 62
     7
100
AcDbLine
 10
1849.500000000002
 20
3470.0
 30
0.0
 11
1899.500000000002
 21
3470.0
 31
0.0
  0
LINE
  5
324
330
1F
100
AcDbEntity
  8
LAY-10
  6
CENTER
 62
     2
100
AcDbLine
 10
1732.0
 20
1312.0
 30
0.0
 11
1732.0
 21
1102.0
 31
0.0
  0
LINE
  5
325
330
1F
100
AcDbEntity
  8
LAY-10
  6
CENTER
 62
     2
100
AcDbLine
 10
2499.0
 20
1237.199999999999
 30
0.0
 11
2499.0
 21
1217.099999999999
 31
0.0
  0
LINE
  5
326
330
1F
100
AcDbEntity
  8
LAY-10
  6
CENTER
 62
     2
100
AcDbLine
 10
2459.0
 20
1213.057827001353
 30
0.0
 11
2459.0
 21
1184.942172998646
 31
0.0
  0
LINE
  5
327
330
1F
100
AcDbEntity
  8
LAY-10
  6
CENTER
 62
     2
100
AcDbLine
 10
2444.942172998645
 20
1198.999999999999
 30
0.0
 11
2473.057827001354
 21
1198.999999999999
 31
0.0
  0
LINE
  5
328
330
1F
100
AcDbEntity
  8
LAY-10
  6
CENTER
 62
     2
100
AcDbLine
 10
964.9999999999999
 20
1237.200000000001
 30
0.0
 11
964.9999999999999
 21
1217.100000000001
 31
0.0
  0
LINE
  5
329
330
1F
100
AcDbEntity
  8
LAY-10
  6
CENTER
 62
     2
100
AcDbLine
 10
1005.0
 20
1213.057827001355
 30
0.0
 11
1005.0
 21
1184.942172998647
 31
0.0
  0
LINE
  5
32A
330
1F
100
AcDbEntity
  8
LAY-10
  6
CENTER
 62
     2
100
AcDbLine
 10
1019.057827001354
 20
1199.0
 30
0.0
 11
990.9421729986461
 21
1199.0
 31
0.0
  0
LINE
  5
32B
330
1F
100
AcDbEntity
  8
LAY-10
  6
CENTER
 62
     2
100
AcDbLine
 10
2540.959867039351
 20
2728.999999999998
 30
0.0
 11
923.0401329606493
 21
2728.999999999999
 31
0.0
  0
LINE
  5
32C
330
1F
100
AcDbEntity
  8
LAY-10
  6
CENTER
 62
     2
100
AcDbLine
 10
2059.482143312398
 20
2779.00000000001
 30
0.0
 11
2019.182143312398
 21
2779.000000000011
 31
0.0
  0
LINE
  5
32D
330
1F
100
AcDbEntity
  8
LAY-10
  6
CENTER
 62
     2
100
AcDbLine
 10
2059.482143312398
 20
2678.999999999989
 30
0.0
 11
2019.182143312398
 21
2678.999999999988
 31
0.0
  0
LINE
  5
32E
330
1F
100
AcDbEntity
  8
LAY-10
  6
CENTER
 62
     2
100
AcDbLine
 10
1404.517856687601
 20
2779.00000000001
 30
0.0
 11
1444.817856687601
 21
2779.00000000001
 31
0.0
  0
LINE
  5
32F
330
1F
100
AcDbEntity
  8
LAY-10
  6
CENTER
 62
     2
100
AcDbLine
 10
1404.517856687601
 20
2678.999999999989
 30
0.0
 11
1444.817856687601
 21
2678.999999999988
 31
0.0
  0
LINE
  5
330
330
1F
100
AcDbEntity
  8
LAY-10
  6
CENTER
 62
     2
100
AcDbLine
 10
1731.999999999999
 20
1920.040132960649
 30
0.0
 11
1731.999999999999
 21
3537.959867039351
 31
0.0
  0
LINE
  5
331
330
1F
100
AcDbEntity
  8
LAY-10
  6
CENTER
 62
     2
100
AcDbLine
 10
1681.999999999991
 20
2401.517856687598
 30
0.0
 11
1681.99999999999
 21
2441.817856687599
 31
0.0
  0
LINE
  5
332
330
1F
100
AcDbEntity
  8
LAY-10
  6
CENTER
 62
     2
100
AcDbLine
 10
1782.000000000008
 20
2401.517856687598
 30
0.0
 11
1782.000000000009
 21
2441.817856687599
 31
0.0
  0
LINE
  5
333
330
1F
100
AcDbEntity
  8
LAY-10
  6
CENTER
 62
     2
100
AcDbLine
 10
1681.999999999991
 20
3056.4821433124
 30
0.0
 11
1681.99999999999
 21
3016.182143312399
 31
0.0
  0
LINE
  5
334
330
1F
100
AcDbEntity
  8
LAY-10
  6
CENTER
 62
     2
100
AcDbLine
 10
1782.000000000007
 20
3056.4821433124
 30
0.0
 11
1782.000000000008
 21
3016.182143312399
 31
0.0
  0
LINE
  5
335
330
1F
100
AcDbEntity
  8
LAY-10
  6
CENTER
 62
     2
100
AcDbLine
 10
2478.999999999998
 20
2629.000000000001
 30
0.0
 11
2520.399999999997
 21
2629.000000000001
 31
0.0
  0
LINE
  5
336
330
1F
100
AcDbEntity
  8
LAY-10
  6
CENTER
 62
     2
100
AcDbLine
 10
2498.999999999999
 20
2607.600000000002
 30
0.0
 11
2498.999999999999
 21
2650.400000000002
 31
0.0
  0
LINE
  5
337
330
1F
100
AcDbEntity
  8
LAY-10
  6
CENTER
 62
     2
100
AcDbLine
 10
2478.999999999998
 20
2129.000000000001
 30
0.0
 11
2520.399999999997
 21
2129.000000000001
 31
0.0
  0
LINE
  5
338
330
1F
100
AcDbEntity
  8
LAY-10
  6
CENTER
 62
     2
100
AcDbLine
 10
2498.999999999999
 20
2107.600000000002
 30
0.0
 11
2498.999999999999
 21
2150.400000000002
 31
0.0
  0
LINE
  5
339
330
1F
100
AcDbEntity
  8
LAY-10
  6
CENTER
 62
     2
100
AcDbLine
 10
2478.999999999997
 20
2828.999999999998
 30
0.0
 11
2520.399999999997
 21
2828.999999999998
 31
0.0
  0
LINE
  5
33A
330
1F
100
AcDbEntity
  8
LAY-10
  6
CENTER
 62
     2
100
AcDbLine
 10
2498.999999999998
 20
2850.399999999996
 30
0.0
 11
2498.999999999998
 21
2807.599999999996
 31
0.0
  0
LINE
  5
33B
330
1F
100
AcDbEntity
  8
LAY-10
  6
CENTER
 62
     2
100
AcDbLine
 10
2478.999999999997
 20
3328.999999999998
 30
0.0
 11
2520.399999999997
 21
3328.999999999998
 31
0.0
  0
LINE
  5
33C
330
1F
100
AcDbEntity
  8
LAY-10
  6
CENTER
 62
     2
100
AcDbLine
 10
2498.999999999998
 20
3350.399999999997
 30
0.0
 11
2498.999999999998
 21
3307.599999999997
 31
0.0
  0
LINE
  5
33D
330
1F
100
AcDbEntity
  8
LAY-10
  6
CENTER
 62
     2
100
AcDbLine
 10
985.0000000000001
 20
2629.000000000001
 30
0.0
 11
943.6000000000004
 21
2629.000000000001
 31
0.0
  0
LINE
  5
33E
330
1F
100
AcDbEntity
  8
LAY-10
  6
CENTER
 62
     2
100
AcDbLine
 10
964.9999999999991
 20
2607.600000000003
 30
0.0
 11
964.9999999999991
 21
2650.400000000003
 31
0.0
  0
LINE
  5
33F
330
1F
100
AcDbEntity
  8
LAY-10
  6
CENTER
 62
     2
100
AcDbLine
 10
985.0000000000001
 20
2129.000000000001
 30
0.0
 11
943.6000000000004
 21
2129.000000000001
 31
0.0
  0
LINE
  5
340
330
1F
100
AcDbEntity
  8
LAY-10
  6
CENTER
 62
     2
100
AcDbLine
 10
964.9999999999991
 20
2107.600000000003
 30
0.0
 11
964.9999999999991
 21
2150.400000000002
 31
0.0
  0
LINE
  5
341
330
1F
100
AcDbEntity
  8
LAY-10
  6
CENTER
 62
     2
100
AcDbLine
 10
985.0000000000001
 20
2828.999999999998
 30
0.0
 11
943.6000000000004
 21
2828.999999999998
 31
0.0
  0
LINE
  5
342
330
1F
100
AcDbEntity
  8
LAY-10
  6
CENTER
 62
     2
100
AcDbLine
 10
964.9999999999991
 20
2850.399999999997
 30
0.0
 11
964.9999999999991
 21
2807.599999999997
 31
0.0
  0
LINE
  5
343
330
1F
100
AcDbEntity
  8
LAY-10
  6
CENTER
 62
     2
100
AcDbLine
 10
985.0000000000001
 20
3328.999999999998
 30
0.0
 11
943.6000000000004
 21
3328.999999999998
 31
0.0
  0
LINE
  5
344
330
1F
100
AcDbEntity
  8
LAY-10
  6
CENTER
 62
     2
100
AcDbLine
 10
964.9999999999991
 20
3350.399999999997
 30
0.0
 11
964.9999999999991
 21
3307.599999999997
 31
0.0
  0
LINE
  5
345
330
1F
100
AcDbEntity
  8
LAY-10
  6
CENTER
 62
     2
100
AcDbLine
 10
1231.999999999998
 20
1982.0
 30
0.0
 11
1231.999999999998
 21
1940.6
 31
0.0
  0
LINE
  5
346
330
1F
100
AcDbEntity
  8
LAY-10
  6
CENTER
 62
     2
100
AcDbLine
 10
1253.399999999997
 20
1961.999999999998
 30
0.0
 11
1210.599999999997
 21
1961.999999999998
 31
0.0
  0
LINE
  5
347
330
1F
100
AcDbEntity
  8
LAY-10
  6
CENTER
 62
     2
100
AcDbLine
 10
2231.999999999999
 20
1982.0
 30
0.0
 11
2231.999999999999
 21
1940.599999999999
 31
0.0
  0
LINE
  5
348
330
1F
100
AcDbEntity
  8
LAY-10
  6
CENTER
 62
     2
100
AcDbLine
 10
2210.6
 20
1961.999999999998
 30
0.0
 11
2253.400000000001
 21
1961.999999999998
 31
0.0
  0
LINE
  5
349
330
1F
100
AcDbEntity
  8
LAY-10
  6
CENTER
 62
     2
100
AcDbLine
 10
1710.599999999999
 20
1961.999999999998
 30
0.0
 11
1753.4
 21
1961.999999999998
 31
0.0
  0
LINE
  5
34A
330
1F
100
AcDbEntity
  8
LAY-10
  6
CENTER
 62
     2
100
AcDbLine
 10
1231.999999999998
 20
3476.0
 30
0.0
 11
1231.999999999998
 21
3517.4
 31
0.0
  0
LINE
  5
34B
330
1F
100
AcDbEntity
  8
LAY-10
  6
CENTER
 62
     2
100
AcDbLine
 10
1253.399999999996
 20
3496.0
 30
0.0
 11
1210.599999999996
 21
3496.0
 31
0.0
  0
LINE
  5
34C
330
1F
100
AcDbEntity
  8
LAY-10
  6
CENTER
 62
     2
100
AcDbLine
 10
2231.999999999999
 20
3476.0
 30
0.0
 11
2231.999999999999
 21
3517.4
 31
0.0
  0
LINE
  5
34D
330
1F
100
AcDbEntity
  8
LAY-10
  6
CENTER
 62
     2
100
AcDbLine
 10
2210.6
 20
3496.000000000001
 30
0.0
 11
2253.4
 21
3496.000000000001
 31
0.0
  0
LINE
  5
34E
330
1F
100
AcDbEntity
  8
LAY-10
  6
CENTER
 62
     2
100
AcDbLine
 10
1710.599999999999
 20
3496.000000000001
 30
0.0
 11
1753.4
 21
3496.000000000001
 31
0.0
  0
TEXT
  5
34F
330
1F
100
AcDbEntity
  8
LAY-11
  6
CONTINUOUS
 62
     7
100
AcDbText
 10
3756.402146080801
 20
2720.183800484412
 30
0.0
 40
46.77165302633819
  1
Ｍ１０×２５
 41
1.123076923076923
  7
EXCADSTD
100
AcDbText
  0
LEADER
  5
350
330
1F
100
AcDbEntity
  8
LAY-11
  6
CONTINUOUS
 62
     7
100
AcDbLeader
  3
ISO-25
 76
     3
 10
3650.37809790435
 20
2788.638872068902
 30
0.0
 10
3752.022134636708
 20
2709.57230299504
 30
0.0
 10
4103.9221346367
 20
2709.57230299504
 30
0.0
1001
ACAD
1000
DSTYLE
1002
{
1070
     5
1000
EX_BNORM
1070
    41
1040
45.0
1070
   341
1005
7D
1002
}
  0
TEXT
  5
351
330
1F
100
AcDbEntity
  8
LAY-11
  6
CONTINUOUS
 62
     7
100
AcDbText
 10
3630.772917126379
 20
2525.611897050993
 30
0.0
 40
46.77165302633819
  1
受枠ジョイント部
 41
1.12
  7
EXCADSTD
100
AcDbText
  0
TEXT
  5
352
330
1F
100
AcDbEntity
  8
LAY-11
  6
CONTINUOUS
 62
     7
100
AcDbText
 10
3533.745235095824
 20
1650.291508592253
 30
0.0
 40
46.77165302633819
  1
受枠補強材ジョイント部
 41
1.117525773195876
  7
EXCADSTD
100
AcDbText
  0
TEXT
  5
353
330
1F
100
AcDbEntity
  8
LAY-11
  6
CONTINUOUS
 62
     7
100
AcDbText
 10
3811.9384775877
 20
2650.617747952081
 30
0.0
 40
46.77165302633819
  1
ユニクロ
 41
1.129411764705882
  7
EXCADSTD
100
AcDbText
  0
LINE
  5
354
330
1F
100
AcDbEntity
  8
LAY-11
  6
CONTINUOUS
 62
     7
100
AcDbLine
 10
4070.967626509046
 20
1760.233960207318
 30
0.0
 11
3929.692924578923
 21
1841.798947396359
 31
0.0
  0
LINE
  5
355
330
1F
100
AcDbEntity
  8
LAY-11
  6
CONTINUOUS
 62
     7
100
AcDbLine
 10
3929.692924578966
 20
1961.798947396416
 30
0.0
 11
3929.692924578966
 21
1841.798947396335
 31
0.0
  0
LINE
  5
356
330
1F
100
AcDbEntity
  8
LAY-11
  6
CONTINUOUS
 62
     7
100
AcDbLine
 10
4122.929150736045
 20
1850.233960207318
 30
0.0
 11
3929.692924578755
 21
1961.798947396417
 31
0.0
  0
LINE
  5
357
330
1F
100
AcDbEntity
  8
LAY-11
  6
CONTINUOUS
 62
     7
100
AcDbLine
 10
4033.61597303282
 20
2021.798947396414
 30
0.0
 11
3929.692924578721
 21
1961.798947396437
 31
0.0
  0
LINE
  5
358
330
1F
100
AcDbEntity
  8
LAY-11
  6
CONTINUOUS
 62
     7
100
AcDbLine
 10
4174.890674963046
 20
1940.233960207314
 30
0.0
 11
4033.61597303282
 21
2021.798947396414
 31
0.0
  0
LINE
  5
359
330
1F
100
AcDbEntity
  8
LAY-11
  6
CONTINUOUS
 62
     7
100
AcDbLine
 10
3914.111189140446
 20
2038.073645945984
 30
0.0
 11
4072.372232242445
 21
2129.445701783155
 31
0.0
  0
LINE
  5
35A
330
1F
100
AcDbEntity
  8
LAY-11
  6
CONTINUOUS
 62
     7
100
AcDbLine
 10
3802.913527294507
 20
1973.873645946017
 30
0.0
 11
3859.031973459793
 21
2006.273645946004
 31
0.0
  0
LINE
  5
35B
330
1F
100
AcDbEntity
  8
LAY-11
  6
CONTINUOUS
 62
     7
100
AcDbLine
 10
3615.172232242446
 20
1865.481158709659
 30
0.0
 11
3747.834311613841
 21
1942.073645946036
 31
0.0
  0
LINE
  5
35C
330
1F
100
AcDbEntity
  8
LAY-11
  6
CONTINUOUS
 62
     7
100
AcDbLine
 10
3747.834311613787
 20
2056.073645946065
 30
0.0
 11
3747.834311613787
 21
1942.073645946068
 31
0.0
  0
LINE
  5
35D
330
1F
100
AcDbEntity
  8
LAY-11
  6
CONTINUOUS
 62
     7
100
AcDbLine
 10
3799.795835840948
 20
2026.07364594606
 30
0.0
 11
3799.795835840948
 21
1912.630567884225
 31
0.0
  0
LINE
  5
35E
330
1F
100
AcDbEntity
  8
LAY-11
  6
CONTINUOUS
 62
     7
100
AcDbLine
 10
3802.913527294507
 20
2027.873645946065
 30
0.0
 11
3802.913527294507
 21
1913.873645946065
 31
0.0
  0
LINE
  5
35F
330
1F
100
AcDbEntity
  8
LAY-11
  6
CONTINUOUS
 62
     7
100
AcDbLine
 10
3750.952003067465
 20
2057.873645946037
 30
0.0
 11
3802.913527294531
 21
2027.873645946037
 31
0.0
  0
LINE
  5
360
330
1F
100
AcDbEntity
  8
LAY-11
  6
CONTINUOUS
 62
     7
100
AcDbLine
 10
3747.117777686648
 20
1941.659954890288
 30
0.0
 11
3801.060959861667
 21
1910.515844140597
 31
0.0
  0
LINE
  5
361
330
1F
100
AcDbEntity
  8
LAY-11
  6
CONTINUOUS
 62
     7
100
AcDbLine
 10
3802.913527294507
 20
1913.873645946023
 30
0.0
 11
3910.993497686886
 21
1976.273645946021
 31
0.0
  0
LINE
  5
362
330
1F
100
AcDbEntity
  8
LAY-11
  6
CONTINUOUS
 62
     7
100
AcDbLine
 10
3799.795835840907
 20
1912.073645946037
 30
0.0
 11
3799.853637086295
 21
1912.107017510621
 31
0.0
  0
ARC
  5
363
330
1F
100
AcDbEntity
  8
LAY-11
  6
CONTINUOUS
 62
     7
100
AcDbCircle
 10
3802.195835840948
 20
1912.630567884225
 30
0.0
 40
2.4
100
AcDbArc
 50
180.0
 51
300.0000000000005
  0
LINE
  5
364
330
1F
100
AcDbEntity
  8
LAY-11
  6
CONTINUOUS
 62
     7
100
AcDbLine
 10
3803.395835840947
 20
1910.552106915143
 30
0.0
 11
3911.111189140446
 21
1972.741595138416
 31
0.0
  0
LINE
  5
365
330
1F
100
AcDbEntity
  8
LAY-11
  6
CONTINUOUS
 62
     7
100
AcDbLine
 10
3914.111189140446
 20
2092.073645946025
 30
0.0
 11
3914.111189140446
 21
1977.937747561122
 31
0.0
  0
LINE
  5
366
330
1F
100
AcDbEntity
  8
LAY-11
  6
CONTINUOUS
 62
     7
100
AcDbLine
 10
3910.993497686886
 20
2090.273645946022
 30
0.0
 11
3910.993497686886
 21
1976.273645946036
 31
0.0
  0
LINE
  5
367
330
1F
100
AcDbEntity
  8
LAY-11
  6
CONTINUOUS
 62
     7
100
AcDbLine
 10
3859.031973459847
 20
2006.273645946035
 30
0.0
 11
3859.031973459847
 21
2120.273645946035
 31
0.0
  0
LINE
  5
368
330
1F
100
AcDbEntity
  8
LAY-11
  6
CONTINUOUS
 62
     7
100
AcDbLine
 10
3862.149664913417
 20
2122.073645946004
 30
0.0
 11
3914.111189140482
 21
2092.073645946004
 31
0.0
  0
ARC
  5
369
330
1F
100
AcDbEntity
  8
LAY-11
  6
CONTINUOUS
 62
     7
100
AcDbCircle
 10
3908.111189140447
 20
1977.937747561122
 30
0.0
 40
6.0
100
AcDbArc
 50
299.9999999999998
 51
0.0
  0
LINE
  5
36A
330
1F
100
AcDbEntity
  8
LAY-11
  6
CONTINUOUS
 62
     7
100
AcDbLine
 10
3859.031973459818
 20
2006.273645945989
 30
0.0
 11
3910.993497686859
 21
1976.273645946005
 31
0.0
  0
LINE
  5
36B
330
1F
100
AcDbEntity
  8
LAY-11
  6
CONTINUOUS
 62
     7
100
AcDbLine
 10
3747.834311613787
 20
2056.073645946065
 30
0.0
 11
3750.952003067467
 21
2057.873645946065
 31
0.0
  0
LINE
  5
36C
330
1F
100
AcDbEntity
  8
LAY-11
  6
CONTINUOUS
 62
     7
100
AcDbLine
 10
3799.795835840907
 20
2026.073645946037
 30
0.0
 11
3802.913527294531
 21
2027.873645946037
 31
0.0
  0
LINE
  5
36D
330
1F
100
AcDbEntity
  8
LAY-11
  6
CONTINUOUS
 62
     7
100
AcDbLine
 10
3747.834311613841
 20
2056.073645946037
 30
0.0
 11
3799.795835840907
 21
2026.073645946037
 31
0.0
  0
LINE
  5
36E
330
1F
100
AcDbEntity
  8
LAY-11
  6
CONTINUOUS
 62
     7
100
AcDbLine
 10
3615.172232242446
 20
1985.481158709657
 30
0.0
 11
4072.372232242446
 21
2249.445701783154
 31
0.0
  0
LINE
  5
36F
330
1F
100
AcDbEntity
  8
LAY-11
  6
CONTINUOUS
 62
     7
100
AcDbLine
 10
4072.372232242446
 20
2403.045701783154
 30
0.0
 11
3615.172232242446
 21
2139.081158709657
 31
0.0
  0
LINE
  5
370
330
1F
100
AcDbEntity
  8
LAY-11
  6
CONTINUOUS
 62
     7
100
AcDbLine
 10
4072.372232242446
 20
2309.445701783154
 30
0.0
 11
3615.172232242446
 21
2045.481158709657
 31
0.0
  0
LINE
  5
371
330
1F
100
AcDbEntity
  8
LAY-11
  6
CONTINUOUS
 62
     7
100
AcDbLine
 10
4072.372232242446
 20
2406.645701783153
 30
0.0
 11
3615.172232242446
 21
2142.681158709658
 31
0.0
  0
LINE
  5
372
330
1F
100
AcDbEntity
  8
LAY-11
  6
CONTINUOUS
 62
     7
100
AcDbLine
 10
3859.031973459847
 20
2120.273645946035
 30
0.0
 11
3862.149664913406
 21
2122.073645946036
 31
0.0
  0
LINE
  5
373
330
1F
100
AcDbEntity
  8
LAY-11
  6
CONTINUOUS
 62
     7
100
AcDbLine
 10
3910.993497686859
 20
2090.273645946005
 30
0.0
 11
3914.111189140226
 21
2092.073645945856
 31
0.0
  0
LINE
  5
374
330
1F
100
AcDbEntity
  8
LAY-11
  6
CONTINUOUS
 62
     7
100
AcDbLine
 10
3859.031973459793
 20
2120.273645946005
 30
0.0
 11
3910.993497686859
 21
2090.273645946005
 31
0.0
  0
LINE
  5
375
330
1F
100
AcDbEntity
  8
LAY-11
  6
CONTINUOUS
 62
     7
100
AcDbLine
 10
3525.0692489538
 20
1635.750000000001
 30
0.0
 11
4195.569248953801
 21
1635.750000000001
 31
0.0
  0
LINE
  5
376
330
1F
100
AcDbEntity
  8
LAY-11
  6
CONTINUOUS
 62
     7
100
AcDbLine
 10
3623.017806112201
 20
2512.510388458741
 30
0.0
 11
4110.517806112201
 21
2512.510388458741
 31
0.0
  0
LINE
  5
377
330
1F
100
AcDbEntity
  8
LAY-11
  6
CONTINUOUS
 62
     7
100
AcDbLine
 10
3713.379914460266
 20
3014.369866574837
 30
0.0
 11
3621.0439789072
 21
2961.059689327124
 31
0.0
  0
LINE
  5
378
330
1F
100
AcDbEntity
  8
LAY-11
  6
CONTINUOUS
 62
     7
100
AcDbLine
 10
3743.184001379802
 20
2999.506656433452
 30
0.0
 11
3717.796700451343
 21
3014.164021458495
 31
0.0
  0
ELLIPSE
  5
379
330
1F
100
AcDbEntity
  8
LAY-11
  6
CONTINUOUS
 62
     7
100
AcDbEllipse
 10
3717.796700451343
 20
3007.444021458491
 30
0.0
 11
-4.115142767875746
 21
7.127636354360407
 31
0.0
210
0.0
220
0.0
230
1.0
 40
0.5773502691896256
 41
-0.7853981633974493
 42
0.0762828812969242
  0
LINE
  5
37A
330
1F
100
AcDbEntity
  8
LAY-11
  6
CONTINUOUS
 62
     7
100
AcDbLine
 10
3789.087911690925
 20
2973.844021458552
 30
0.0
 11
3789.087911690925
 21
3018.449291408539
 31
0.0
  0
LINE
  5
37B
330
1F
100
AcDbEntity
  8
LAY-11
  6
CONTINUOUS
 62
     7
100
AcDbLine
 10
3974.550533265059
 20
3165.156793646968
 30
0.0
 11
3845.076130047767
 21
3090.404712095911
 31
0.0
  0
LINE
  5
37C
330
1F
100
AcDbEntity
  8
LAY-11
  6
CONTINUOUS
 62
     7
100
AcDbLine
 10
3913.609754058642
 20
3097.902010618905
 30
0.0
 11
3913.609754058642
 21
3054.136740668894
 31
0.0
  0
LINE
  5
37D
330
1F
100
AcDbEntity
  8
LAY-11
  6
CONTINUOUS
 62
     7
100
AcDbLine
 10
3920.156906111252
 20
3094.122010618983
 30
0.0
 11
3920.156906111252
 21
3049.516740668894
 31
0.0
  0
LINE
  5
37E
330
1F
100
AcDbEntity
  8
LAY-11
  6
CONTINUOUS
 62
     7
100
AcDbLine
 10
3789.087911690863
 20
3018.449291408594
 30
0.0
 11
3641.478111471828
 21
2933.22673351667
 31
0.0
  0
LINE
  5
37F
330
1F
100
AcDbEntity
  8
LAY-11
  6
CONTINUOUS
 62
     7
100
AcDbLine
 10
3782.540759638291
 20
3022.229291408539
 30
0.0
 11
3634.930959419267
 21
2937.00673351662
 31
0.0
  0
LINE
  5
380
330
1F
100
AcDbEntity
  8
LAY-11
  6
CONTINUOUS
 62
     7
100
AcDbLine
 10
3782.540759638312
 20
3022.229291408527
 30
0.0
 11
3789.087911690897
 21
3018.449291408541
 31
0.0
  0
LINE
  5
381
330
1F
100
AcDbEntity
  8
LAY-11
  6
CONTINUOUS
 62
     7
100
AcDbLine
 10
3913.60975405864
 20
3097.902010618936
 30
0.0
 11
3920.156906111189
 21
3094.122010618974
 31
0.0
  0
LINE
  5
382
330
1F
100
AcDbEntity
  8
LAY-11
  6
CONTINUOUS
 62
     7
100
AcDbLine
 10
4037.321950556187
 20
3169.32728056917
 30
0.0
 11
3913.609754058644
 21
3097.902010618905
 31
0.0
  0
LINE
  5
383
330
1F
100
AcDbEntity
  8
LAY-11
  6
CONTINUOUS
 62
     7
100
AcDbLine
 10
4050.416254661239
 20
3169.32728056917
 30
0.0
 11
3920.156906111202
 21
3094.122010618955
 31
0.0
  0
ARC
  5
384
330
1F
100
AcDbEntity
  8
LAY-11
  6
CONTINUOUS
 62
     7
100
AcDbCircle
 10
3662.021344707354
 20
2820.596532692351
 30
0.0
 40
29.43556727874579
100
AcDbArc
 50
204.6707664861017
 51
232.9171872874244
  0
ELLIPSE
  5
385
330
1F
100
AcDbEntity
  8
LAY-11
  6
CONTINUOUS
 62
     7
100
AcDbEllipse
 10
3644.885500789458
 20
2801.860024491454
 30
0.0
 11
-3.674234614174771
 21
6.36396103067893
 31
0.0
210
0.0
220
0.0
230
1.0
 40
0.577350269189626
 41
4.347516293706597
 42
5.60086044266148
  0
ELLIPSE
  5
386
330
1F
100
AcDbEntity
  8
LAY-11
  6
CONTINUOUS
 62
     7
100
AcDbEllipse
 10
3646.184538895156
 20
2802.610024491454
 30
0.0
 11
-3.674234614174771
 21
6.36396103067893
 31
0.0
210
0.0
220
0.0
230
1.0
 40
0.577350269189626
 41
3.29533486867387
 42
6.057418229657954
  0
LINE
  5
387
330
1F
100
AcDbEntity
  8
LAY-11
  6
CONTINUOUS
 62
     7
100
AcDbLine
 10
3650.378097904405
 20
2796.545895539973
 30
0.0
 11
3665.447230777992
 21
2805.246063460992
 31
0.0
  0
LINE
  5
388
330
1F
100
AcDbEntity
  8
LAY-11
  6
CONTINUOUS
 62
     7
100
AcDbLine
 10
3643.307812360733
 20
2809.434427026566
 30
0.0
 11
3658.098761549643
 21
2817.973985522352
 31
0.0
  0
ELLIPSE
  5
389
330
1F
100
AcDbEntity
  8
LAY-11
  6
CONTINUOUS
 62
     7
100
AcDbEllipse
 10
3634.493195944322
 20
2795.860024491604
 30
0.0
 11
-6.363961030678928
 21
11.0227038425243
 31
0.0
210
0.0
220
0.0
230
1.0
 40
0.5773502691896257
 41
0.0
 42
6.283185307179586
  0
LINE
  5
38A
330
1F
100
AcDbEntity
  8
LAY-11
  6
CONTINUOUS
 62
     7
100
AcDbLine
 10
3641.378097904405
 20
2811.835024491605
 30
0.0
 11
3632.378097904405
 21
2811.03117691431
 31
0.0
  0
ARC
  5
38B
330
1F
100
AcDbEntity
  8
LAY-11
  6
CONTINUOUS
 62
     7
100
AcDbCircle
 10
3648.847014332236
 20
2801.506176914328
 30
0.0
 40
23.35815346509105
100
AcDbArc
 50
165.1156028031787
 51
194.8843971968213
  0
ARC
  5
38C
330
1F
100
AcDbEntity
  8
LAY-11
  6
CONTINUOUS
 62
     7
100
AcDbCircle
 10
3637.471344708212
 20
2810.477363862857
 30
0.0
 40
26.25955150713449
100
AcDbArc
 50
265.1969712249249
 51
285.0108474978217
  0
ARC
  5
38D
330
1F
100
AcDbEntity
  8
LAY-11
  6
CONTINUOUS
 62
     7
100
AcDbCircle
 10
3666.847014336997
 20
2791.113872068313
 30
0.0
 40
23.35815346983815
100
AcDbArc
 50
165.1156028048411
 51
194.8843971922938
  0
ARC
  5
38E
330
1F
100
AcDbEntity
  8
LAY-11
  6
CONTINUOUS
 62
     7
100
AcDbCircle
 10
3628.471344707219
 20
2833.673516290603
 30
0.0
 40
26.25955151213039
100
AcDbArc
 50
265.1969712280117
 51
285.0108474967996
  0
LINE
  5
38F
330
1F
100
AcDbEntity
  8
LAY-11
  6
CONTINUOUS
 62
     7
100
AcDbLine
 10
3650.378097904405
 20
2788.638872068896
 30
0.0
 11
3644.272618807446
 21
2785.113872068735
 31
0.0
  0
LINE
  5
390
330
1F
100
AcDbEntity
  8
LAY-11
  6
CONTINUOUS
 62
     7
100
AcDbLine
 10
3632.378097904405
 20
2811.03117691431
 30
0.0
 11
3626.272618807686
 21
2807.506176914287
 31
0.0
  0
ARC
  5
391
330
1F
100
AcDbEntity
  8
LAY-11
  6
CONTINUOUS
 62
     7
100
AcDbCircle
 10
3653.02134470958
 20
2807.792685117435
 30
0.0
 40
29.43556728191
100
AcDbArc
 50
204.6707664891294
 51
217.2432227757117
  0
ARC
  5
392
330
1F
100
AcDbEntity
  8
LAY-11
  6
CONTINUOUS
 62
     7
100
AcDbCircle
 10
3653.02134470958
 20
2807.792685117435
 30
0.0
 40
29.43556728191
100
AcDbArc
 50
218.5261522410528
 51
232.9171872866479
  0
LINE
  5
393
330
1F
100
AcDbEntity
  8
LAY-11
  6
CONTINUOUS
 62
     7
100
AcDbLine
 10
3641.378097904405
 20
2811.835024491605
 30
0.0
 11
3635.272618807709
 21
2808.310024491596
 31
0.0
  0
LINE
  5
394
330
1F
100
AcDbEntity
  8
LAY-11
  6
CONTINUOUS
 62
     7
100
AcDbLine
 10
3650.378097904409
 20
2800.638872068896
 30
0.0
 11
3644.272618807673
 21
2797.113872068865
 31
0.0
  0
LINE
  5
395
330
1F
100
AcDbEntity
  8
LAY-11
  6
CONTINUOUS
 62
     7
100
AcDbLine
 10
3650.378097904409
 20
2800.638872068896
 30
0.0
 11
3641.378097904405
 21
2811.835024491605
 31
0.0
  0
LINE
  5
396
330
1F
100
AcDbEntity
  8
LAY-11
  6
CONTINUOUS
 62
     7
100
AcDbLine
 10
3650.378097904405
 20
2788.638872068896
 30
0.0
 11
3650.378097904405
 21
2800.638872068896
 31
0.0
  0
LINE
  5
397
330
1F
100
AcDbEntity
  8
LAY-11
  6
CONTINUOUS
 62
     7
100
AcDbLine
 10
3777.50341399716
 20
2963.732334320502
 30
0.0
 11
3781.813298299237
 21
2961.244021458522
 31
0.0
  0
LINE
  5
398
330
1F
100
AcDbEntity
  8
LAY-11
  6
CONTINUOUS
 62
     7
100
AcDbLine
 10
3789.087911690945
 20
2965.444021458498
 30
0.0
 11
3781.813298299237
 21
2961.244021458524
 31
0.0
  0
LINE
  5
399
330
1F
100
AcDbEntity
  8
LAY-11
  6
HIDDEN
 62
     7
100
AcDbLine
 10
3754.546839129967
 20
2936.7509968057
 30
0.0
 11
3715.632734959077
 21
2914.916873142653
 31
0.0
  0
LINE
  5
39A
330
1F
100
AcDbEntity
  8
LAY-11
  6
HIDDEN
 62
     7
100
AcDbLine
 10
3893.781161454377
 20
3014.873299157091
 30
0.0
 11
3789.087911690988
 21
2956.131477631875
 31
0.0
  0
LINE
  5
39B
330
1F
100
AcDbEntity
  8
LAY-11
  6
HIDDEN
 62
     7
100
AcDbLine
 10
3936.005994513181
 20
3038.565023438056
 30
0.0
 11
3927.431519503003
 21
3033.754013350409
 31
0.0
  0
LINE
  5
39C
330
1F
100
AcDbEntity
  8
LAY-11
  6
HIDDEN
 62
     7
100
AcDbLine
 10
3999.072866416622
 20
3005.466857826138
 30
0.0
 11
3936.005994513181
 21
3038.565023438057
 31
0.0
  0
LINE
  5
39D
330
1F
100
AcDbEntity
  8
LAY-11
  6
HIDDEN
 62
     7
100
AcDbLine
 10
3999.072866416583
 20
3005.466857826139
 30
0.0
 11
4056.827288337902
 21
3038.811388869475
 31
0.0
  0
ELLIPSE
  5
39E
330
1F
100
AcDbEntity
  8
LAY-11
  6
CONTINUOUS
 62
     7
100
AcDbEllipse
 10
4066.99671348049
 20
3044.68270921317
 30
0.0
 11
-3.674234614174771
 21
6.36396103067893
 31
0.0
210
0.0
220
0.0
230
1.0
 40
0.577350269189626
 41
1.084101371740813
 42
2.05749128183982
  0
ELLIPSE
  5
39F
330
1F
100
AcDbEntity
  8
LAY-11
  6
CONTINUOUS
 62
     7
100
AcDbEllipse
 10
4065.697675374791
 20
3043.93270921317
 30
0.0
 11
-3.674234614174771
 21
6.36396103067893
 31
0.0
210
0.0
220
0.0
230
1.0
 40
0.577350269189626
 41
0.7853981634062475
 42
2.356194490174362
  0
ELLIPSE
  5
3A0
330
1F
100
AcDbEntity
  8
LAY-11
  6
CONTINUOUS
 62
     7
100
AcDbEllipse
 10
4064.398637269088
 20
3043.18270921317
 30
0.0
 11
-3.674234614174771
 21
6.36396103067893
 31
0.0
210
0.0
220
0.0
230
1.0
 40
0.577350269189626
 41
0.5589898660287818
 42
2.582602787551832
  0
ELLIPSE
  5
3A1
330
1F
100
AcDbEntity
  8
LAY-11
  6
CONTINUOUS
 62
     7
100
AcDbEllipse
 10
4063.099599163392
 20
3042.432709213173
 30
0.0
 11
-3.674234614174771
 21
6.36396103067893
 31
0.0
210
0.0
220
0.0
230
1.0
 40
0.577350269189626
 41
0.3613671239071254
 42
2.780225529673463
  0
ELLIPSE
  5
3A2
330
1F
100
AcDbEntity
  8
LAY-11
  6
CONTINUOUS
 62
     7
100
AcDbEllipse
 10
4061.800561057692
 20
3041.682709213173
 30
0.0
 11
-3.674234614174771
 21
6.36396103067893
 31
0.0
210
0.0
220
0.0
230
1.0
 40
0.577350269189626
 41
0.1777106008429604
 42
2.963882052737727
  0
LINE
  5
3A3
330
1F
100
AcDbEntity
  8
LAY-11
  6
CONTINUOUS
 62
     7
100
AcDbLine
 10
4074.531134493244
 20
3032.64040436776
 30
0.0
 11
4079.727286915955
 21
3040.032709213172
 31
0.0
  0
LINE
  5
3A4
330
1F
100
AcDbEntity
  8
LAY-11
  6
CONTINUOUS
 62
     7
100
AcDbLine
 10
4079.727286915955
 20
3040.032709213172
 30
0.0
 11
4074.531134493244
 21
3053.425014058586
 31
0.0
  0
LINE
  5
3A5
330
1F
100
AcDbEntity
  8
LAY-11
  6
CONTINUOUS
 62
     7
100
AcDbLine
 10
4074.531134493244
 20
3053.425014058586
 30
0.0
 11
4064.138829647834
 21
3059.425014058586
 31
0.0
  0
ARC
  5
3A6
330
1F
100
AcDbEntity
  8
LAY-11
  6
CONTINUOUS
 62
     7
100
AcDbCircle
 10
4071.005173920779
 20
3047.68326151069
 30
0.0
 40
20.10483112832142
100
AcDbArc
 50
222.6363262179154
 51
257.3636737822621
  0
ARC
  5
3A7
330
1F
100
AcDbEntity
  8
LAY-11
  6
CONTINUOUS
 62
     7
100
AcDbCircle
 10
4087.073994407404
 20
3019.201250651756
 30
0.0
 40
22.3040578664969
100
AcDbArc
 50
133.2093803277441
 51
156.5828009510797
  0
ARC
  5
3A8
330
1F
100
AcDbEntity
  8
LAY-11
  6
CONTINUOUS
 62
     7
100
AcDbCircle
 10
4091.884708694484
 20
3050.95345349009
 30
0.0
 40
25.36507265340925
100
AcDbArc
 50
184.7568072491321
 51
217.6552389763469
  0
ARC
  5
3A9
330
1F
100
AcDbEntity
  8
LAY-11
  6
CONTINUOUS
 62
     7
100
AcDbCircle
 10
4071.005173922678
 20
3068.467871203901
 30
0.0
 40
20.10483113128386
100
AcDbArc
 50
222.636326219092
 51
257.3636737786067
  0
ARC
  5
3AA
330
1F
100
AcDbEntity
  8
LAY-11
  6
CONTINUOUS
 62
     7
100
AcDbCircle
 10
4071.485537142554
 20
3038.593555494504
 30
0.0
 40
22.30405787069056
100
AcDbArc
 50
133.20938032908
 51
156.5828009481847
  0
LINE
  5
3AB
330
1F
100
AcDbEntity
  8
LAY-11
  6
CONTINUOUS
 62
     7
100
AcDbLine
 10
4064.138829647834
 20
3059.425014058586
 30
0.0
 11
4056.214697203296
 21
3054.850014058637
 31
0.0
  0
LINE
  5
3AC
330
1F
100
AcDbEntity
  8
LAY-11
  6
CONTINUOUS
 62
     7
100
AcDbLine
 10
4079.727286915955
 20
3040.032709213172
 30
0.0
 11
4071.803154471336
 21
3035.457709213179
 31
0.0
  0
LINE
  5
3AD
330
1F
100
AcDbEntity
  8
LAY-11
  6
CONTINUOUS
 62
     7
100
AcDbLine
 10
4074.531134493244
 20
3053.425014058586
 30
0.0
 11
4066.607002048289
 21
3048.850014058394
 31
0.0
  0
LINE
  5
3AE
330
1F
100
AcDbEntity
  8
LAY-11
  6
CONTINUOUS
 62
     7
100
AcDbLine
 10
4074.531134493244
 20
3032.64040436776
 30
0.0
 11
4066.607002048544
 21
3028.065404367716
 31
0.0
  0
ELLIPSE
  5
3AF
330
1F
100
AcDbEntity
  8
LAY-11
  6
CONTINUOUS
 62
     7
100
AcDbEllipse
 10
4060.501522951991
 20
3040.932709213173
 30
0.0
 11
-6.363961030678928
 21
11.0227038425243
 31
0.0
210
0.0
220
0.0
230
1.0
 40
0.5773502691896257
 41
0.0
 42
6.283185307179586
  0
ARC
  5
3B0
330
1F
100
AcDbEntity
  8
LAY-11
  6
CONTINUOUS
 62
     7
100
AcDbCircle
 10
4076.296251429215
 20
3049.561148646018
 30
0.0
 40
25.36507265649262
100
AcDbArc
 50
184.756807251681
 51
201.5686290580083
  0
ARC
  5
3B1
330
1F
100
AcDbEntity
  8
LAY-11
  6
CONTINUOUS
 62
     7
100
AcDbCircle
 10
4076.296251429215
 20
3049.561148646018
 30
0.0
 40
25.36507265649262
100
AcDbArc
 50
205.0337396509853
 51
217.6552389749118
  0
ELLIPSE
  5
3B2
330
1F
100
AcDbEntity
  8
LAY-11
  6
CONTINUOUS
 62
     7
100
AcDbEllipse
 10
4060.501522951991
 20
3040.932709213173
 30
0.0
 11
-3.674234614174771
 21
6.36396103067893
 31
0.0
210
0.0
220
0.0
230
1.0
 40
0.577350269189626
 41
0.0
 42
6.283185307179586
  0
LINE
  5
3B3
330
1F
100
AcDbEntity
  8
LAY-11
  6
HIDDEN
 62
     7
100
AcDbLine
 10
3715.63273495907
 20
2914.916873142643
 30
0.0
 11
3729.054461688253
 21
2849.571659169282
 31
0.0
  0
ELLIPSE
  5
3B4
330
1F
100
AcDbEntity
  8
LAY-11
  6
CONTINUOUS
 62
     7
100
AcDbEllipse
 10
3647.483577000856
 20
2803.360024491454
 30
0.0
 11
-3.674234614174771
 21
6.36396103067893
 31
0.0
210
0.0
220
0.0
230
1.0
 40
0.577350269189626
 41
3.141592653589756
 42
6.283185307179586
  0
ELLIPSE
  5
3B5
330
1F
100
AcDbEntity
  8
LAY-11
  6
CONTINUOUS
 62
     7
100
AcDbEllipse
 10
3648.782615106407
 20
2804.110024491454
 30
0.0
 11
-3.674234614174771
 21
6.36396103067893
 31
0.0
210
0.0
220
0.0
230
1.0
 40
0.577350269189626
 41
3.141592653589756
 42
6.283185307179586
  0
ELLIPSE
  5
3B6
330
1F
100
AcDbEntity
  8
LAY-11
  6
CONTINUOUS
 62
     7
100
AcDbEllipse
 10
3650.081653211957
 20
2804.860024491454
 30
0.0
 11
-3.674234614174771
 21
6.36396103067893
 31
0.0
210
0.0
220
0.0
230
1.0
 40
0.577350269189626
 41
3.141592653589756
 42
6.283185307179586
  0
ELLIPSE
  5
3B7
330
1F
100
AcDbEntity
  8
LAY-11
  6
CONTINUOUS
 62
     7
100
AcDbEllipse
 10
3651.380691317655
 20
2805.610024491454
 30
0.0
 11
-3.674234614174771
 21
6.36396103067893
 31
0.0
210
0.0
220
0.0
230
1.0
 40
0.577350269189626
 41
3.141592653589756
 42
6.283185307179586
  0
ELLIPSE
  5
3B8
330
1F
100
AcDbEntity
  8
LAY-11
  6
CONTINUOUS
 62
     7
100
AcDbEllipse
 10
3652.679729423356
 20
2806.360024491454
 30
0.0
 11
-3.674234614174771
 21
6.36396103067893
 31
0.0
210
0.0
220
0.0
230
1.0
 40
0.577350269189626
 41
3.141592653589756
 42
6.283185307179586
  0
ELLIPSE
  5
3B9
330
1F
100
AcDbEntity
  8
LAY-11
  6
CONTINUOUS
 62
     7
100
AcDbEllipse
 10
3653.978767529057
 20
2807.110024491454
 30
0.0
 11
-3.674234614174771
 21
6.36396103067893
 31
0.0
210
0.0
220
0.0
230
1.0
 40
0.577350269189626
 41
3.141592653589756
 42
6.283185307179586
  0
ELLIPSE
  5
3BA
330
1F
100
AcDbEntity
  8
LAY-11
  6
CONTINUOUS
 62
     7
100
AcDbEllipse
 10
3655.277805635358
 20
2807.860024491604
 30
0.0
 11
-3.674234614174771
 21
6.36396103067893
 31
0.0
210
0.0
220
0.0
230
1.0
 40
0.577350269189626
 41
3.141592653589853
 42
6.283185307179586
  0
ELLIPSE
  5
3BB
330
1F
100
AcDbEntity
  8
LAY-11
  6
CONTINUOUS
 62
     7
100
AcDbEllipse
 10
3656.576843741056
 20
2808.610024491604
 30
0.0
 11
-3.674234614174771
 21
6.36396103067893
 31
0.0
210
0.0
220
0.0
230
1.0
 40
0.577350269189626
 41
3.141592653589853
 42
6.283185307179586
  0
ELLIPSE
  5
3BC
330
1F
100
AcDbEntity
  8
LAY-11
  6
CONTINUOUS
 62
     7
100
AcDbEllipse
 10
3657.875881846756
 20
2809.360024491604
 30
0.0
 11
-3.674234614174771
 21
6.36396103067893
 31
0.0
210
0.0
220
0.0
230
1.0
 40
0.577350269189626
 41
3.141592653589853
 42
6.283185307179586
  0
ELLIPSE
  5
3BD
330
1F
100
AcDbEntity
  8
LAY-11
  6
CONTINUOUS
 62
     7
100
AcDbEllipse
 10
3659.174919952457
 20
2810.110024491604
 30
0.0
 11
-3.674234614174771
 21
6.36396103067893
 31
0.0
210
0.0
220
0.0
230
1.0
 40
0.577350269189626
 41
3.141592653589853
 42
6.283185307179586
  0
ELLIPSE
  5
3BE
330
1F
100
AcDbEntity
  8
LAY-11
  6
CONTINUOUS
 62
     7
100
AcDbEllipse
 10
3660.473958058158
 20
2810.860024491604
 30
0.0
 11
-3.674234614174771
 21
6.36396103067893
 31
0.0
210
0.0
220
0.0
230
1.0
 40
0.577350269189626
 41
3.141592653589853
 42
6.283185307179586
  0
LINE
  5
3BF
330
1F
100
AcDbEntity
  8
LAY-11
  6
CONTINUOUS
 62
     7
100
AcDbLine
 10
3663.072034269447
 20
2816.860024491496
 30
0.0
 11
3661.772996163954
 21
2817.610024491461
 31
0.0
  0
LINE
  5
3C0
330
1F
100
AcDbEntity
  8
LAY-11
  6
CONTINUOUS
 62
     7
100
AcDbLine
 10
3666.969148586413
 20
2808.610024492172
 30
0.0
 11
3666.96914858629
 21
2810.11002449203
 31
0.0
  0
ELLIPSE
  5
3C1
330
1F
100
AcDbEntity
  8
LAY-11
  6
CONTINUOUS
 62
     7
100
AcDbEllipse
 10
3663.072034269262
 20
2812.360024491604
 30
0.0
 11
-2.75567596063108
 21
4.772970773009202
 31
0.0
210
0.0
220
0.0
230
1.0
 40
0.5773502691896247
 41
3.926990817087224
 42
5.497787143736541
  0
ELLIPSE
  5
3C2
330
1F
100
AcDbEntity
  8
LAY-11
  6
CONTINUOUS
 62
     7
100
AcDbEllipse
 10
3661.772996163856
 20
2811.610024491604
 30
0.0
 11
-3.674234614174771
 21
6.36396103067893
 31
0.0
210
0.0
220
0.0
230
1.0
 40
0.577350269189626
 41
3.141592653589853
 42
6.283185307179586
  0
ELLIPSE
  5
3C3
330
1F
100
AcDbEntity
  8
LAY-11
  6
CONTINUOUS
 62
     7
100
AcDbEllipse
 10
3701.421796330311
 20
2834.179585303653
 30
0.0
 11
11.02270384252423
 21
-19.09188309203686
 31
0.0
210
0.0
220
0.0
230
1.0
 40
0.5773502691896257
 41
0.0
 42
3.141592653589803
  0
LINE
  5
3C4
330
1F
100
AcDbEntity
  8
LAY-11
  6
CONTINUOUS
 62
     7
100
AcDbLine
 10
3712.444500172835
 20
2815.087702211616
 30
0.0
 11
3709.456712529781
 21
2813.362702211617
 31
0.0
  0
ELLIPSE
  5
3C5
330
1F
100
AcDbEntity
  8
LAY-11
  6
CONTINUOUS
 62
     7
100
AcDbEllipse
 10
3701.421796330311
 20
2834.179585303653
 30
0.0
 11
6.429910574805806
 21
-11.13693180368817
 31
0.0
210
0.0
220
0.0
230
1.0
 40
0.5773502691896257
 41
3.37607043143134
 42
6.048707529338084
  0
ELLIPSE
  5
3C6
330
1F
100
AcDbEntity
  8
LAY-11
  6
CONTINUOUS
 62
     7
100
AcDbEllipse
 10
3698.434008687255
 20
2832.454585303652
 30
0.0
 11
11.02270384252423
 21
-19.09188309203686
 31
0.0
210
0.0
220
0.0
230
1.0
 40
0.5773502691896257
 41
0.0
 42
6.283185307179586
  0
LINE
  5
3C7
330
1F
100
AcDbEntity
  8
LAY-11
  6
CONTINUOUS
 62
     7
100
AcDbLine
 10
3690.399092487788
 20
2853.271468395689
 30
0.0
 11
3687.411304844731
 21
2851.546468395688
 31
0.0
  0
ELLIPSE
  5
3C8
330
1F
100
AcDbEntity
  8
LAY-11
  6
CONTINUOUS
 62
     7
100
AcDbEllipse
 10
3698.434008687255
 20
2832.454585303652
 30
0.0
 11
6.429910574805806
 21
-11.13693180368817
 31
0.0
210
0.0
220
0.0
230
1.0
 40
0.5773502691896257
 41
0.0
 42
6.283185307179586
  0
LINE
  5
3C9
330
1F
100
AcDbEntity
  8
LAY-11
  6
HIDDEN
 62
     7
100
AcDbLine
 10
3704.936842726711
 20
2836.039622749977
 30
0.0
 11
3665.763721847589
 21
2814.060168673733
 31
0.0
  0
LINE
  5
3CA
330
1F
100
AcDbEntity
  8
LAY-11
  6
HIDDEN
 62
     7
100
AcDbLine
 10
3729.05446168826
 20
2849.571659169273
 30
0.0
 11
3712.570875746182
 21
2840.322964858097
 31
0.0
  0
ELLIPSE
  5
3CB
330
1F
100
AcDbEntity
  8
LAY-11
  6
CONTINUOUS
 62
     7
100
AcDbEllipse
 10
4023.146566732662
 20
3018.980782132232
 30
0.0
 11
11.02270384252423
 21
-19.09188309203686
 31
0.0
210
0.0
220
0.0
230
1.0
 40
0.5773502691896257
 41
0.0
 42
3.141592653589803
  0
LINE
  5
3CC
330
1F
100
AcDbEntity
  8
LAY-11
  6
CONTINUOUS
 62
     7
100
AcDbLine
 10
4034.169270575188
 20
2999.888899040195
 30
0.0
 11
4031.18148293213
 21
2998.163899040195
 31
0.0
  0
ELLIPSE
  5
3CD
330
1F
100
AcDbEntity
  8
LAY-11
  6
CONTINUOUS
 62
     7
100
AcDbEllipse
 10
4023.146566732662
 20
3018.980782132232
 30
0.0
 11
6.429910574805806
 21
-11.13693180368817
 31
0.0
210
0.0
220
0.0
230
1.0
 40
0.5773502691896257
 41
3.37607043143134
 42
6.048707529338084
  0
ELLIPSE
  5
3CE
330
1F
100
AcDbEntity
  8
LAY-11
  6
CONTINUOUS
 62
     7
100
AcDbEllipse
 10
4020.158779089607
 20
3017.255782132233
 30
0.0
 11
11.02270384252423
 21
-19.09188309203686
 31
0.0
210
0.0
220
0.0
230
1.0
 40
0.5773502691896257
 41
0.0
 42
6.283185307179586
  0
LINE
  5
3CF
330
1F
100
AcDbEntity
  8
LAY-11
  6
CONTINUOUS
 62
     7
100
AcDbLine
 10
4012.12386289014
 20
3038.072665224269
 30
0.0
 11
4009.136075247082
 21
3036.347665224268
 31
0.0
  0
ELLIPSE
  5
3D0
330
1F
100
AcDbEntity
  8
LAY-11
  6
CONTINUOUS
 62
     7
100
AcDbEllipse
 10
4020.158779089607
 20
3017.255782132233
 30
0.0
 11
6.429910574805806
 21
-11.13693180368817
 31
0.0
210
0.0
220
0.0
230
1.0
 40
0.5773502691896257
 41
0.0
 42
6.283185307179586
  0
ELLIPSE
  5
3D1
330
1F
100
AcDbEntity
  8
LAY-11
  6
CONTINUOUS
 62
     7
100
AcDbEllipse
 10
3755.577635190492
 20
2937.511289772559
 30
0.0
 11
-6.17271415181362
 21
10.69145453154061
 31
0.0
210
0.0
220
0.0
230
1.0
 40
0.5773502691896255
 41
0.6301372460630297
 42
2.511455407529306
  0
ELLIPSE
  5
3D2
330
1F
100
AcDbEntity
  8
LAY-11
  6
CONTINUOUS
 62
     7
100
AcDbEllipse
 10
3748.303021798741
 20
2933.31128977256
 30
0.0
 11
-6.17271415181362
 21
10.69145453154061
 31
0.0
210
0.0
220
0.0
230
1.0
 40
0.5773502691896255
 41
0.3131087307744441
 42
5.970076576407668
  0
LINE
  5
3D3
330
1F
100
AcDbEntity
  8
LAY-11
  6
CONTINUOUS
 62
     7
100
AcDbLine
 10
3701.847434722741
 20
2920.052334320386
 30
0.0
 11
3781.813298299235
 21
2873.884021458517
 31
0.0
  0
LINE
  5
3D4
330
1F
100
AcDbEntity
  8
LAY-11
  6
CONTINUOUS
 62
     7
100
AcDbLine
 10
3789.087911690925
 20
2878.084021458553
 30
0.0
 11
3781.813298299172
 21
2873.884021458553
 31
0.0
  0
LINE
  5
3D5
330
1F
100
AcDbEntity
  8
LAY-11
  6
CONTINUOUS
 62
     7
100
AcDbLine
 10
3781.813298299237
 20
2961.244021458522
 30
0.0
 11
3781.813298299237
 21
2873.884021458518
 31
0.0
  0
LINE
  5
3D6
330
1F
100
AcDbEntity
  8
LAY-11
  6
CONTINUOUS
 62
     7
100
AcDbLine
 10
3787.431934856018
 20
2969.464568511049
 30
0.0
 11
3639.822134636698
 21
2884.242010618959
 31
0.0
  0
LINE
  5
3D7
330
1F
100
AcDbEntity
  8
LAY-11
  6
CONTINUOUS
 62
     7
100
AcDbLine
 10
3784.778027388906
 20
2967.932334320498
 30
0.0
 11
3789.087911690925
 21
2965.444021458551
 31
0.0
  0
LINE
  5
3D8
330
1F
100
AcDbEntity
  8
LAY-11
  6
CONTINUOUS
 62
     7
100
AcDbLine
 10
3789.087911690988
 20
2965.444021458522
 30
0.0
 11
3789.087911690988
 21
2878.084021458519
 31
0.0
  0
ELLIPSE
  5
3D9
330
1F
100
AcDbEntity
  8
LAY-11
  6
CONTINUOUS
 62
     7
100
AcDbEllipse
 10
3781.813298299201
 20
2978.044021458522
 30
0.0
 11
-5.143928459844679
 21
8.909545442950501
 31
0.0
210
0.0
220
0.0
230
1.0
 40
0.5773502691896258
 41
3.044439062541205
 42
3.926990816987242
  0
LINE
  5
3DA
330
1F
100
AcDbEntity
  8
LAY-11
  6
CONTINUOUS
 62
     7
100
AcDbLine
 10
4088.377105649898
 20
3143.215343880079
 30
0.0
 11
3918.500929276075
 21
3045.137287721244
 31
0.0
  0
ELLIPSE
  5
3DB
330
1F
100
AcDbEntity
  8
LAY-11
  6
CONTINUOUS
 62
     7
100
AcDbEllipse
 10
3893.921243002509
 20
3017.384008982933
 30
0.0
 11
-6.17271415181362
 21
10.69145453154061
 31
0.0
210
0.0
220
0.0
230
1.0
 40
0.5773502691896255
 41
0.6301372460630297
 42
2.511455407529306
  0
LINE
  5
3DC
330
1F
100
AcDbEntity
  8
LAY-11
  6
CONTINUOUS
 62
     7
100
AcDbLine
 10
3923.121635200975
 20
3047.805053530847
 30
0.0
 11
3927.431519502944
 21
3045.316740668929
 31
0.0
  0
LINE
  5
3DD
330
1F
100
AcDbEntity
  8
LAY-11
  6
CONTINUOUS
 62
     7
100
AcDbLine
 10
3920.156906111189
 20
2953.756740668925
 30
0.0
 11
3927.43151950294
 21
2957.956740668924
 31
0.0
  0
LINE
  5
3DE
330
1F
100
AcDbEntity
  8
LAY-11
  6
CONTINUOUS
 62
     7
100
AcDbLine
 10
3920.156906111189
 20
3041.116740668924
 30
0.0
 11
3927.43151950294
 21
3045.316740668924
 31
0.0
  0
LINE
  5
3DF
330
1F
100
AcDbEntity
  8
LAY-11
  6
CONTINUOUS
 62
     7
100
AcDbLine
 10
3927.431519503003
 20
3045.316740668895
 30
0.0
 11
3927.431519503003
 21
2957.956740668892
 31
0.0
  0
LINE
  5
3E0
330
1F
100
AcDbEntity
  8
LAY-11
  6
CONTINUOUS
 62
     7
100
AcDbLine
 10
3920.15690611119
 20
3041.116740668931
 30
0.0
 11
3852.503001567616
 21
3080.176740668892
 31
0.0
  0
LINE
  5
3E1
330
1F
100
AcDbEntity
  8
LAY-11
  6
CONTINUOUS
 62
     7
100
AcDbLine
 10
3920.156906111252
 20
3041.116740668895
 30
0.0
 11
3920.156906111252
 21
2953.756740668893
 31
0.0
  0
LINE
  5
3E2
330
1F
100
AcDbEntity
  8
LAY-11
  6
CONTINUOUS
 62
     7
100
AcDbLine
 10
3912.154831380284
 20
3053.296740668896
 30
0.0
 11
3848.86569487172
 21
3089.836740668894
 31
0.0
  0
LINE
  5
3E3
330
1F
100
AcDbEntity
  8
LAY-11
  6
CONTINUOUS
 62
     7
100
AcDbLine
 10
3843.046004158317
 20
2998.276740668871
 30
0.0
 11
3920.15690611125
 21
2953.75674066889
 31
0.0
  0
LINE
  5
3E4
330
1F
100
AcDbEntity
  8
LAY-11
  6
CONTINUOUS
 62
     7
100
AcDbLine
 10
3849.593156210898
 20
2994.496740668891
 30
0.0
 11
3849.593156210899
 21
3078.496740668892
 31
0.0
  0
LINE
  5
3E5
330
1F
100
AcDbEntity
  8
LAY-11
  6
CONTINUOUS
 62
     7
100
AcDbLine
 10
3843.04600415829
 20
3086.476740668891
 30
0.0
 11
3843.04600415829
 21
2998.276740668893
 31
0.0
  0
ELLIPSE
  5
3E6
330
1F
100
AcDbEntity
  8
LAY-11
  6
CONTINUOUS
 62
     7
100
AcDbEllipse
 10
3912.154831380284
 20
3054.976740668895
 30
0.0
 11
-1.028785691968936
 21
1.7819090885901
 31
0.0
210
0.0
220
0.0
230
1.0
 40
0.5773502691896262
 41
2.356194490192348
 42
3.926990816987296
  0
ELLIPSE
  5
3E7
330
1F
100
AcDbEntity
  8
LAY-11
  6
CONTINUOUS
 62
     7
100
AcDbEllipse
 10
3852.503001567616
 20
3076.816740668893
 30
0.0
 11
-2.057571383937871
 21
3.5638181771802
 31
0.0
210
0.0
220
0.0
230
1.0
 40
0.5773502691896255
 41
-0.7853981633974481
 42
0.7853981633974374
  0
ELLIPSE
  5
3E8
330
1F
100
AcDbEntity
  8
LAY-11
  6
CONTINUOUS
 62
     7
100
AcDbEllipse
 10
3912.882292719463
 20
3053.716740668895
 30
0.0
 11
-5.143928459844679
 21
8.909545442950501
 31
0.0
210
0.0
220
0.0
230
1.0
 40
0.5773502691896258
 41
2.356194490192348
 42
3.926990816987242
  0
ELLIPSE
  5
3E9
330
1F
100
AcDbEntity
  8
LAY-11
  6
CONTINUOUS
 62
     7
100
AcDbEllipse
 10
3886.646629610757
 20
3013.184008982933
 30
0.0
 11
-6.17271415181362
 21
10.69145453154061
 31
0.0
210
0.0
220
0.0
230
1.0
 40
0.5773502691896255
 41
0.0
 42
6.283185307179586
  0
ELLIPSE
  5
3EA
330
1F
100
AcDbEntity
  8
LAY-11
  6
CONTINUOUS
 62
     7
100
AcDbEllipse
 10
3848.86569487172
 20
3083.116740668891
 30
0.0
 11
-4.115142767875746
 21
7.127636354360407
 31
0.0
210
0.0
220
0.0
230
1.0
 40
0.5773502691896256
 41
-0.785398163397448
 42
0.7853981633974375
  0
POLYLINE
  5
3EB
330
1F
100
AcDbEntity
  8
LAY-12
  6
CONTINUOUS
 62
     7
100
AcDb2dPolyline
 66
     1
 10
0.0
 20
0.0
 30
0.0
 70
   128
  0
VERTEX
  5
3EC
330
3EB
100
AcDbEntity
  8
LAY-12
  6
CONTINUOUS
 62
     7
100
AcDbVertex
100
AcDb2dVertex
 10
5229.0
 20
2986.329310019738
 30
0.0
  0
VERTEX
  5
3ED
330
3EB
100
AcDbEntity
  8
LAY-12
  6
CONTINUOUS
 62
     7
100
AcDbVertex
100
AcDb2dVertex
 10
5272.968786160231
 20
3039.840818277107
 30
0.0
  0
VERTEX
  5
3EE
330
3EB
100
AcDbEntity
  8
LAY-12
  6
CONTINUOUS
 62
     7
100
AcDbVertex
100
AcDb2dVertex
 10
5399.250000000001
 20
3039.840818277107
 30
0.0
  0
SEQEND
  5
3EF
330
3EB
100
AcDbEntity
  8
LAY-12
  6
CONTINUOUS
 62
     7
  0
LINE
  5
3F0
330
1F
100
AcDbEntity
  8
LAY-12
  6
CONTINUOUS
 62
     7
100
AcDbLine
 10
5251.773518738612
 20
3025.859258720212
 30
0.0
 11
5229.0
 21
2986.329310019738
 31
0.0
  0
LINE
  5
3F1
330
1F
100
AcDbEntity
  8
LAY-12
  6
CONTINUOUS
 62
     7
100
AcDbLine
 10
5229.0
 20
2986.329310019738
 30
0.0
 11
5263.36304162857
 21
3016.336498659015
 31
0.0
  0
LINE
  5
3F2
330
1F
100
AcDbEntity
  8
LAY-12
  6
CONTINUOUS
 62
     7
100
AcDbLine
 10
5263.36304162857
 20
3016.336498659015
 30
0.0
 11
5251.773518738612
 21
3025.859258720212
 31
0.0
  0
LINE
  5
3F3
330
1F
100
AcDbEntity
  8
LAY-12
  6
CONTINUOUS
 62
     7
100
AcDbLine
 10
5254.670899461102
 20
3023.478568704913
 30
0.0
 11
5229.0
 21
2986.329310019738
 31
0.0
  0
LINE
  5
3F4
330
1F
100
AcDbEntity
  8
LAY-12
  6
CONTINUOUS
 62
     7
100
AcDbLine
 10
5229.0
 20
2986.329310019738
 30
0.0
 11
5260.46566090608
 21
3018.717188674314
 31
0.0
  0
TEXT
  5
3F5
330
1F
100
AcDbEntity
  8
LAY-12
  6
CONTINUOUS
 62
     7
100
AcDbText
 10
5279.193789974925
 20
3051.622315766478
 30
0.0
 40
46.77165302633819
  1
受枠
 41
1.15
  7
EXCADSTD
100
AcDbText
  0
TEXT
  5
3F6
330
1F
100
AcDbEntity
  8
LAY-12
  6
CONTINUOUS
 62
     7
100
AcDbText
 10
5292.832034197325
 20
1881.453012935521
 30
0.0
 40
46.77165302633819
  1
受枠
 41
1.15
  7
EXCADSTD
100
AcDbText
  0
POLYLINE
  5
3F7
330
1F
100
AcDbEntity
  8
LAY-12
  6
CONTINUOUS
 62
     7
100
AcDb2dPolyline
 66
     1
 10
0.0
 20
0.0
 30
0.0
 70
   128
  0
VERTEX
  5
3F8
330
3F7
100
AcDbEntity
  8
LAY-12
  6
CONTINUOUS
 62
     7
100
AcDbVertex
100
AcDb2dVertex
 10
5230.415063509465
 20
1938.579310019518
 30
0.0
  0
VERTEX
  5
3F9
330
3F7
100
AcDbEntity
  8
LAY-12
  6
CONTINUOUS
 62
     7
100
AcDbVertex
100
AcDb2dVertex
 10
5272.36406076525
 20
1865.92151544615
 30
0.0
  0
VERTEX
  5
3FA
330
3F7
100
AcDbEntity
  8
LAY-12
  6
CONTINUOUS
 62
     7
100
AcDbVertex
100
AcDb2dVertex
 10
5411.25
 20
1865.92151544615
 30
0.0
  0
SEQEND
  5
3FB
330
3F7
100
AcDbEntity
  8
LAY-12
  6
CONTINUOUS
 62
     7
  0
LINE
  5
3FC
330
1F
100
AcDbEntity
  8
LAY-12
  6
CONTINUOUS
 62
     7
100
AcDbLine
 10
5259.410254037894
 20
1903.358166849256
 30
0.0
 11
5230.415063509465
 21
1938.579310019518
 31
0.0
  0
LINE
  5
3FD
330
1F
100
AcDbEntity
  8
LAY-12
  6
CONTINUOUS
 62
     7
100
AcDbLine
 10
5230.415063509465
 20
1938.579310019518
 30
0.0
 11
5246.419872981137
 21
1895.858166849239
 31
0.0
  0
LINE
  5
3FE
330
1F
100
AcDbEntity
  8
LAY-12
  6
CONTINUOUS
 62
     7
100
AcDbLine
 10
5246.419872981137
 20
1895.858166849239
 30
0.0
 11
5259.410254037894
 21
1903.358166849256
 31
0.0
  0
LINE
  5
3FF
330
1F
100
AcDbEntity
  8
LAY-12
  6
CONTINUOUS
 62
     7
100
AcDbLine
 10
5256.162658773705
 20
1901.483166849252
 30
0.0
 11
5230.415063509465
 21
1938.579310019518
 31
0.0
  0
LINE
  5
400
330
1F
100
AcDbEntity
  8
LAY-12
  6
CONTINUOUS
 62
     7
100
AcDbLine
 10
5230.415063509465
 20
1938.579310019518
 30
0.0
 11
5249.667468245327
 21
1897.733166849243
 31
0.0
  0
TEXT
  5
401
330
1F
100
AcDbEntity
  8
LAY-12
  6
CONTINUOUS
 62
     7
100
AcDbText
 10
5279.676087041743
 20
2556.633652499184
 30
0.0
 40
46.77165302633819
  1
受枠補強材
 41
1.125581395348837
  7
EXCADSTD
100
AcDbText
  0
LEADER
  5
402
330
1F
100
AcDbEntity
  8
LAY-12
  6
CONTINUOUS
 62
     7
100
AcDbLeader
  3
ISO-25
 76
     3
 10
5169.750000000001
 20
2648.454310019625
 30
0.0
 10
5277.102155010001
 20
2541.102155009813
 30
0.0
 10
5574.0
 20
2541.102155009813
 30
0.0
1001
ACAD
1000
DSTYLE
1002
{
1070
     5
1000
EX_BNORM
1070
    41
1040
45.0
1070
   341
1005
7D
1002
}
  0
LEADER
  5
403
330
1F
100
AcDbEntity
  8
LAY-12
  6
CONTINUOUS
 62
     7
100
AcDbLeader
  3
ISO-25
 76
     2
 10
5161.240357925625
 20
2462.25
 30
0.0
 10
5277.102155009999
 20
2541.102155009813
 30
0.0
1001
ACAD
1000
DSTYLE
1002
{
1070
     5
1000
EX_BNORM
1070
    41
1040
45.0
1070
   341
1005
7D
1002
}
  0
TEXT
  5
404
330
1F
100
AcDbEntity
  8
LAY-12
  6
CONTINUOUS
 62
     7
100
AcDbText
 10
4446.000009536744
 20
2531.031497489372
 30
0.0
 40
46.77165302633819
  1
受枠補強材
 41
1.125581395348837
  7
EXCADSTD
100
AcDbText
  0
LEADER
  5
405
330
1F
100
AcDbEntity
  8
LAY-12
  6
CONTINUOUS
 62
     7
100
AcDbLeader
  3
ISO-25
 76
     3
 10
4831.240357925775
 20
2474.25
 30
0.0
 10
4750.500000000001
 20
2515.5
 30
0.0
 10
4437.0
 20
2515.5
 30
0.0
1001
ACAD
1000
DSTYLE
1002
{
1070
     5
1000
EX_BNORM
1070
    41
1040
45.0
1070
   341
1005
7D
1002
}
  0
LEADER
  5
406
330
1F
100
AcDbEntity
  8
LAY-12
  6
CONTINUOUS
 62
     7
100
AcDbLeader
  3
ISO-25
 76
     2
 10
4800.786394362953
 20
2275.704310019627
 30
0.0
 10
4750.500000000001
 20
2515.5
 30
0.0
1001
ACAD
1000
DSTYLE
1002
{
1070
     5
1000
EX_BNORM
1070
    41
1040
45.0
1070
   341
1005
7D
1002
}
  0
LINE
  5
407
330
1F
100
AcDbEntity
  8
LAY-12
  6
CONTINUOUS
 62
     7
100
AcDbLine
 10
5239.990357925546
 20
2093.829310019496
 30
0.0
 11
5239.990357925548
 21
2053.329310019496
 31
0.0
  0
LINE
  5
408
330
1F
100
AcDbEntity
  8
LAY-12
  6
CONTINUOUS
 62
     7
100
AcDbLine
 10
4752.490357926031
 20
2093.829310019496
 30
0.0
 11
4752.490357926034
 21
2053.329310019496
 31
0.0
  0
LINE
  5
409
330
1F
100
AcDbEntity
  8
LAY-12
  6
CONTINUOUS
 62
     7
100
AcDbLine
 10
5258.740357925548
 20
2054.454310019496
 30
0.0
 11
5239.990357925548
 21
2054.454310019496
 31
0.0
  0
LINE
  5
40A
330
1F
100
AcDbEntity
  8
LAY-12
  6
CONTINUOUS
 62
     7
100
AcDbLine
 10
5239.990357925548
 20
2053.329310019496
 30
0.0
 11
5258.740357925548
 21
2053.329310019496
 31
0.0
  0
LINE
  5
40B
330
1F
100
AcDbEntity
  8
LAY-12
  6
CONTINUOUS
 62
     7
100
AcDbLine
 10
4733.740357926034
 20
2054.454310019496
 30
0.0
 11
4752.490357926034
 21
2054.454310019496
 31
0.0
  0
LINE
  5
40C
330
1F
100
AcDbEntity
  8
LAY-12
  6
CONTINUOUS
 62
     7
100
AcDbLine
 10
4752.490357926034
 20
2053.329310019496
 30
0.0
 11
4733.740357926034
 21
2053.329310019496
 31
0.0
  0
LINE
  5
40D
330
1F
100
AcDbEntity
  8
LAY-12
  6
CONTINUOUS
 62
     7
100
AcDbLine
 10
5258.740357925546
 20
2092.704310019496
 30
0.0
 11
5239.990357925546
 21
2092.704310019496
 31
0.0
  0
LINE
  5
40E
330
1F
100
AcDbEntity
  8
LAY-12
  6
CONTINUOUS
 62
     7
100
AcDbLine
 10
5239.990357925546
 20
2093.829310019497
 30
0.0
 11
5258.740357925546
 21
2093.829310019497
 31
0.0
  0
LINE
  5
40F
330
1F
100
AcDbEntity
  8
LAY-12
  6
CONTINUOUS
 62
     7
100
AcDbLine
 10
4733.740357926031
 20
2092.704310019496
 30
0.0
 11
4752.490357926031
 21
2092.704310019496
 31
0.0
  0
LINE
  5
410
330
1F
100
AcDbEntity
  8
LAY-12
  6
CONTINUOUS
 62
     7
100
AcDbLine
 10
4752.490357926031
 20
2093.829310019497
 30
0.0
 11
4733.740357926031
 21
2093.829310019497
 31
0.0
  0
LINE
  5
411
330
1F
100
AcDbEntity
  8
LAY-12
  6
CONTINUOUS
 62
     7
100
AcDbLine
 10
5257.802857925769
 20
2275.704310019627
 30
0.0
 11
4734.677857925768
 21
2275.704310019627
 31
0.0
  0
LINE
  5
412
330
1F
100
AcDbEntity
  8
LAY-12
  6
CONTINUOUS
 62
     7
100
AcDbLine
 10
5257.802857925769
 20
2649.204310019624
 30
0.0
 11
4734.677857925768
 21
2649.204310019624
 31
0.0
  0
LINE
  5
413
330
1F
100
AcDbEntity
  8
LAY-12
  6
CONTINUOUS
 62
     7
100
AcDbLine
 10
5122.240357925776
 20
2294.454310019625
 30
0.0
 11
5162.740357925774
 21
2294.454310019625
 31
0.0
  0
LINE
  5
414
330
1F
100
AcDbEntity
  8
LAY-12
  6
CONTINUOUS
 62
     7
100
AcDbLine
 10
5161.615357925768
 20
2275.704310019625
 30
0.0
 11
5161.615357925768
 21
2294.454310019625
 31
0.0
  0
LINE
  5
415
330
1F
100
AcDbEntity
  8
LAY-12
  6
CONTINUOUS
 62
     7
100
AcDbLine
 10
5162.740357925767
 20
2294.454310019625
 30
0.0
 11
5162.740357925767
 21
2275.704310019625
 31
0.0
  0
LINE
  5
416
330
1F
100
AcDbEntity
  8
LAY-12
  6
CONTINUOUS
 62
     7
100
AcDbLine
 10
5122.240357925776
 20
2630.454310019626
 30
0.0
 11
5162.740357925774
 21
2630.454310019626
 31
0.0
  0
LINE
  5
417
330
1F
100
AcDbEntity
  8
LAY-12
  6
CONTINUOUS
 62
     7
100
AcDbLine
 10
5161.615357925768
 20
2649.204310019626
 30
0.0
 11
5161.615357925768
 21
2630.454310019627
 31
0.0
  0
LINE
  5
418
330
1F
100
AcDbEntity
  8
LAY-12
  6
CONTINUOUS
 62
     7
100
AcDbLine
 10
5162.740357925767
 20
2630.454310019627
 30
0.0
 11
5162.740357925767
 21
2649.204310019626
 31
0.0
  0
LINE
  5
419
330
1F
100
AcDbEntity
  8
LAY-12
  6
CONTINUOUS
 62
     7
100
AcDbLine
 10
5123.740357925625
 20
2589.954310019625
 30
0.0
 11
5161.240357925625
 21
2589.954310019625
 31
0.0
  0
LINE
  5
41A
330
1F
100
AcDbEntity
  8
LAY-12
  6
CONTINUOUS
 62
     7
100
AcDbLine
 10
5161.240357925783
 20
2334.954310019624
 30
0.0
 11
5161.240357925783
 21
2589.954310019624
 31
0.0
  0
LINE
  5
41B
330
1F
100
AcDbEntity
  8
LAY-12
  6
CONTINUOUS
 62
     7
100
AcDbLine
 10
5161.240357925775
 20
2334.954310019625
 30
0.0
 11
5123.740357925775
 21
2334.954310019625
 31
0.0
  0
LINE
  5
41C
330
1F
100
AcDbEntity
  8
LAY-12
  6
CONTINUOUS
 62
     7
100
AcDbLine
 10
4870.240357925774
 20
2294.454310019625
 30
0.0
 11
4829.740357925774
 21
2294.454310019624
 31
0.0
  0
LINE
  5
41D
330
1F
100
AcDbEntity
  8
LAY-12
  6
CONTINUOUS
 62
     7
100
AcDbLine
 10
4830.865357925783
 20
2275.704310019624
 30
0.0
 11
4830.865357925783
 21
2294.454310019624
 31
0.0
  0
LINE
  5
41E
330
1F
100
AcDbEntity
  8
LAY-12
  6
CONTINUOUS
 62
     7
100
AcDbLine
 10
4829.740357925783
 20
2294.454310019624
 30
0.0
 11
4829.740357925783
 21
2275.704310019624
 31
0.0
  0
LINE
  5
41F
330
1F
100
AcDbEntity
  8
LAY-12
  6
CONTINUOUS
 62
     7
100
AcDbLine
 10
4870.240357925774
 20
2630.454310019626
 30
0.0
 11
4829.740357925774
 21
2630.454310019627
 31
0.0
  0
LINE
  5
420
330
1F
100
AcDbEntity
  8
LAY-12
  6
CONTINUOUS
 62
     7
100
AcDbLine
 10
4830.865357925783
 20
2649.204310019627
 30
0.0
 11
4830.865357925783
 21
2630.454310019627
 31
0.0
  0
LINE
  5
421
330
1F
100
AcDbEntity
  8
LAY-12
  6
CONTINUOUS
 62
     7
100
AcDbLine
 10
4829.740357925783
 20
2630.454310019627
 30
0.0
 11
4829.740357925783
 21
2649.204310019627
 31
0.0
  0
LINE
  5
422
330
1F
100
AcDbEntity
  8
LAY-12
  6
CONTINUOUS
 62
     7
100
AcDbLine
 10
4831.240357925775
 20
2589.954310019625
 30
0.0
 11
4868.740357925775
 21
2589.954310019625
 31
0.0
  0
LINE
  5
423
330
1F
100
AcDbEntity
  8
LAY-12
  6
CONTINUOUS
 62
     7
100
AcDbLine
 10
4831.240357925768
 20
2334.954310019624
 30
0.0
 11
4831.240357925766
 21
2589.954310019624
 31
0.0
  0
LINE
  5
424
330
1F
100
AcDbEntity
  8
LAY-12
  6
CONTINUOUS
 62
     7
100
AcDbLine
 10
4831.240357925776
 20
2334.954310019625
 30
0.0
 11
4868.740357925776
 21
2334.954310019625
 31
0.0
  0
LINE
  5
425
330
1F
100
AcDbEntity
  8
LAY-12
  6
CONTINUOUS
 62
     7
100
AcDbLine
 10
4734.677857925768
 20
2275.704310019627
 30
0.0
 11
4734.677857925768
 21
2238.204310019625
 31
0.0
  0
LINE
  5
426
330
1F
100
AcDbEntity
  8
LAY-12
  6
CONTINUOUS
 62
     7
100
AcDbLine
 10
5257.802857925769
 20
2275.704310019627
 30
0.0
 11
5257.802857925769
 21
2238.204310019627
 31
0.0
  0
LINE
  5
427
330
1F
100
AcDbEntity
  8
LAY-12
  6
CONTINUOUS
 62
     7
100
AcDbLine
 10
5257.802857925769
 20
2238.204310019628
 30
0.0
 11
4734.677857925768
 21
2238.204310019628
 31
0.0
  0
LINE
  5
428
330
1F
100
AcDbEntity
  8
LAY-12
  6
CONTINUOUS
 62
     7
100
AcDbLine
 10
4734.677857925768
 20
2649.204310019626
 30
0.0
 11
4734.677857925768
 21
2686.704310019626
 31
0.0
  0
LINE
  5
429
330
1F
100
AcDbEntity
  8
LAY-12
  6
CONTINUOUS
 62
     7
100
AcDbLine
 10
5257.802857925769
 20
2649.204310019626
 30
0.0
 11
5257.802857925769
 21
2686.704310019624
 31
0.0
  0
LINE
  5
42A
330
1F
100
AcDbEntity
  8
LAY-12
  6
CONTINUOUS
 62
     7
100
AcDbLine
 10
5257.802857925769
 20
2686.704310019623
 30
0.0
 11
4734.677857925768
 21
2686.704310019623
 31
0.0
  0
LINE
  5
42B
330
1F
100
AcDbEntity
  8
LAY-12
  6
CONTINUOUS
 62
     7
100
AcDbLine
 10
4733.740357925868
 20
2705.079310019733
 30
0.0
 11
4733.740357925868
 21
2985.204310019736
 31
0.0
  0
LINE
  5
42C
330
1F
100
AcDbEntity
  8
LAY-12
  6
CONTINUOUS
 62
     7
100
AcDbLine
 10
5258.740357925884
 20
2985.204310019735
 30
0.0
 11
5258.740357925854
 21
2705.079310019677
 31
0.0
  0
LINE
  5
42D
330
1F
100
AcDbEntity
  8
LAY-12
  6
CONTINUOUS
 62
     7
100
AcDbLine
 10
4752.490357925857
 20
2831.079310019725
 30
0.0
 11
4752.490357925854
 21
2871.579310019725
 31
0.0
  0
LINE
  5
42E
330
1F
100
AcDbEntity
  8
LAY-12
  6
CONTINUOUS
 62
     7
100
AcDbLine
 10
5239.990357925371
 20
2831.079310019725
 30
0.0
 11
5239.990357925369
 21
2871.579310019725
 31
0.0
  0
LINE
  5
42F
330
1F
100
AcDbEntity
  8
LAY-12
  6
CONTINUOUS
 62
     7
100
AcDbLine
 10
4733.740357925854
 20
2870.454310019725
 30
0.0
 11
4752.490357925854
 21
2870.454310019725
 31
0.0
  0
LINE
  5
430
330
1F
100
AcDbEntity
  8
LAY-12
  6
CONTINUOUS
 62
     7
100
AcDbLine
 10
4752.490357925854
 20
2871.579310019725
 30
0.0
 11
4733.740357925854
 21
2871.579310019725
 31
0.0
  0
LINE
  5
431
330
1F
100
AcDbEntity
  8
LAY-12
  6
CONTINUOUS
 62
     7
100
AcDbLine
 10
5258.740357925369
 20
2870.454310019725
 30
0.0
 11
5239.990357925369
 21
2870.454310019725
 31
0.0
  0
LINE
  5
432
330
1F
100
AcDbEntity
  8
LAY-12
  6
CONTINUOUS
 62
     7
100
AcDbLine
 10
5239.990357925369
 20
2871.579310019725
 30
0.0
 11
5258.740357925369
 21
2871.579310019725
 31
0.0
  0
LINE
  5
433
330
1F
100
AcDbEntity
  8
LAY-12
  6
CONTINUOUS
 62
     7
100
AcDbLine
 10
4643.25
 20
1761.75
 30
0.0
 11
5379.0
 21
1761.75
 31
0.0
  0
TEXT
  5
434
330
1F
100
AcDbEntity
  8
LAY-12
  6
CONTINUOUS
 62
     7
100
AcDbText
 10
4655.25
 20
1778.031497489371
 30
0.0
 40
46.77165302633819
  1
受枠・受枠補強材　分解図
 41
1.116981132075471
  7
EXCADSTD
100
AcDbText
  0
LINE
  5
435
330
1F
100
AcDbEntity
  8
LAY-12
  6
CONTINUOUS
 62
     7
100
AcDbLine
 10
4733.740357925867
 20
2219.829310019517
 30
0.0
 11
4733.740357925867
 21
1939.704310019515
 31
0.0
  0
LINE
  5
436
330
1F
100
AcDbEntity
  8
LAY-12
  6
CONTINUOUS
 62
     7
100
AcDbLine
 10
5276.365357925867
 20
1939.704310019517
 30
0.0
 11
4716.115357925871
 21
1939.704310019515
 31
0.0
  0
LINE
  5
437
330
1F
100
AcDbEntity
  8
LAY-12
  6
CONTINUOUS
 62
     7
100
AcDbLine
 10
4716.115357925871
 20
1938.579310019517
 30
0.0
 11
4716.115357925869
 21
2219.829310019517
 31
0.0
  0
LINE
  5
438
330
1F
100
AcDbEntity
  8
LAY-12
  6
CONTINUOUS
 62
     7
100
AcDbLine
 10
5258.740357925884
 20
1939.704310019517
 30
0.0
 11
5258.740357925853
 21
2219.829310019575
 31
0.0
  0
LINE
  5
439
330
1F
100
AcDbEntity
  8
LAY-12
  6
CONTINUOUS
 62
     7
100
AcDbLine
 10
5276.365357925867
 20
1938.579310019517
 30
0.0
 11
5276.365357925867
 21
2219.829310019517
 31
0.0
  0
LINE
  5
43A
330
1F
100
AcDbEntity
  8
LAY-12
  6
CONTINUOUS
 62
     7
100
AcDbLine
 10
5123.36535792577
 20
2275.704310019625
 30
0.0
 11
5123.36535792577
 21
2294.454310019625
 31
0.0
  0
LINE
  5
43B
330
1F
100
AcDbEntity
  8
LAY-12
  6
CONTINUOUS
 62
     7
100
AcDbLine
 10
5122.240357925768
 20
2294.454310019625
 30
0.0
 11
5122.240357925768
 21
2275.704310019625
 31
0.0
  0
LINE
  5
43C
330
1F
100
AcDbEntity
  8
LAY-12
  6
CONTINUOUS
 62
     7
100
AcDbLine
 10
4869.115357925783
 20
2275.704310019625
 30
0.0
 11
4869.115357925783
 21
2294.454310019625
 31
0.0
  0
LINE
  5
43D
330
1F
100
AcDbEntity
  8
LAY-12
  6
CONTINUOUS
 62
     7
100
AcDbLine
 10
4870.240357925783
 20
2294.454310019625
 30
0.0
 11
4870.240357925783
 21
2275.704310019625
 31
0.0
  0
LINE
  5
43E
330
1F
100
AcDbEntity
  8
LAY-12
  6
CONTINUOUS
 62
     7
100
AcDbLine
 10
5290.615357926158
 20
2176.329310019511
 30
0.0
 11
5277.490357926134
 21
2176.329310019504
 31
0.0
  0
LINE
  5
43F
330
1F
100
AcDbEntity
  8
LAY-12
  6
CONTINUOUS
 62
     7
100
AcDbLine
 10
5290.615357926151
 20
2188.329310019512
 30
0.0
 11
5277.490357926126
 21
2188.329310019505
 31
0.0
  0
LINE
  5
440
330
1F
100
AcDbEntity
  8
LAY-12
  6
CONTINUOUS
 62
     7
100
AcDbLine
 10
5290.615357926146
 20
2176.329310019513
 30
0.0
 11
5290.615357926146
 21
2188.329310019513
 31
0.0
  0
CIRCLE
  5
441
330
1F
100
AcDbEntity
  8
LAY-12
  6
CONTINUOUS
 62
     7
100
AcDbCircle
 10
5284.990357926113
 20
2182.329310019513
 30
0.0
 40
2.25
  0
LINE
  5
442
330
1F
100
AcDbEntity
  8
LAY-12
  6
CONTINUOUS
 62
     7
100
AcDbLine
 10
5290.615357926158
 20
1988.829310019511
 30
0.0
 11
5277.490357926134
 21
1988.829310019504
 31
0.0
  0
LINE
  5
443
330
1F
100
AcDbEntity
  8
LAY-12
  6
CONTINUOUS
 62
     7
100
AcDbLine
 10
5290.615357926151
 20
2000.829310019511
 30
0.0
 11
5277.490357926126
 21
2000.829310019504
 31
0.0
  0
LINE
  5
444
330
1F
100
AcDbEntity
  8
LAY-12
  6
CONTINUOUS
 62
     7
100
AcDbLine
 10
5290.615357926146
 20
1988.829310019513
 30
0.0
 11
5290.615357926146
 21
2000.829310019513
 31
0.0
  0
CIRCLE
  5
445
330
1F
100
AcDbEntity
  8
LAY-12
  6
CONTINUOUS
 62
     7
100
AcDbCircle
 10
5284.990357926113
 20
1994.829310019513
 30
0.0
 40
2.25
  0
LINE
  5
446
330
1F
100
AcDbEntity
  8
LAY-12
  6
CONTINUOUS
 62
     7
100
AcDbLine
 10
5189.740357926004
 20
1925.454310019468
 30
0.0
 11
5189.740357926011
 21
1938.579310019491
 31
0.0
  0
LINE
  5
447
330
1F
100
AcDbEntity
  8
LAY-12
  6
CONTINUOUS
 62
     7
100
AcDbLine
 10
5177.740357926003
 20
1925.454310019476
 30
0.0
 11
5177.740357926009
 21
1938.579310019499
 31
0.0
  0
LINE
  5
448
330
1F
100
AcDbEntity
  8
LAY-12
  6
CONTINUOUS
 62
     7
100
AcDbLine
 10
5189.740357926002
 20
1925.45431001948
 30
0.0
 11
5177.740357926002
 21
1925.45431001948
 31
0.0
  0
CIRCLE
  5
449
330
1F
100
AcDbEntity
  8
LAY-12
  6
CONTINUOUS
 62
     7
100
AcDbCircle
 10
5183.740357926001
 20
1931.079310019513
 30
0.0
 40
2.25
  0
LINE
  5
44A
330
1F
100
AcDbEntity
  8
LAY-12
  6
CONTINUOUS
 62
     7
100
AcDbLine
 10
4814.740357925965
 20
1925.454310019468
 30
0.0
 11
4814.740357925973
 21
1938.579310019491
 31
0.0
  0
LINE
  5
44B
330
1F
100
AcDbEntity
  8
LAY-12
  6
CONTINUOUS
 62
     7
100
AcDbLine
 10
4802.740357925965
 20
1925.454310019476
 30
0.0
 11
4802.740357925972
 21
1938.579310019499
 31
0.0
  0
LINE
  5
44C
330
1F
100
AcDbEntity
  8
LAY-12
  6
CONTINUOUS
 62
     7
100
AcDbLine
 10
4814.740357925964
 20
1925.45431001948
 30
0.0
 11
4802.740357925963
 21
1925.45431001948
 31
0.0
  0
CIRCLE
  5
44D
330
1F
100
AcDbEntity
  8
LAY-12
  6
CONTINUOUS
 62
     7
100
AcDbCircle
 10
4808.740357925963
 20
1931.079310019513
 30
0.0
 40
2.25
  0
LINE
  5
44E
330
1F
100
AcDbEntity
  8
LAY-12
  6
CONTINUOUS
 62
     7
100
AcDbLine
 10
5002.240357926004
 20
1925.454310019468
 30
0.0
 11
5002.240357926011
 21
1938.579310019491
 31
0.0
  0
LINE
  5
44F
330
1F
100
AcDbEntity
  8
LAY-12
  6
CONTINUOUS
 62
     7
100
AcDbLine
 10
4990.240357926003
 20
1925.454310019476
 30
0.0
 11
4990.240357926009
 21
1938.579310019499
 31
0.0
  0
LINE
  5
450
330
1F
100
AcDbEntity
  8
LAY-12
  6
CONTINUOUS
 62
     7
100
AcDbLine
 10
5002.240357926002
 20
1925.45431001948
 30
0.0
 11
4990.240357926002
 21
1925.45431001948
 31
0.0
  0
CIRCLE
  5
451
330
1F
100
AcDbEntity
  8
LAY-12
  6
CONTINUOUS
 62
     7
100
AcDbCircle
 10
4996.240357926001
 20
1931.079310019513
 30
0.0
 40
2.25
  0
LINE
  5
452
330
1F
100
AcDbEntity
  8
LAY-12
  6
CONTINUOUS
 62
     7
100
AcDbLine
 10
4701.865357925843
 20
1988.829310019511
 30
0.0
 11
4714.990357925864
 21
1988.829310019504
 31
0.0
  0
LINE
  5
453
330
1F
100
AcDbEntity
  8
LAY-12
  6
CONTINUOUS
 62
     7
100
AcDbLine
 10
4701.865357925851
 20
2000.829310019511
 30
0.0
 11
4714.990357925874
 21
2000.829310019504
 31
0.0
  0
LINE
  5
454
330
1F
100
AcDbEntity
  8
LAY-12
  6
CONTINUOUS
 62
     7
100
AcDbLine
 10
4701.865357925853
 20
1988.829310019513
 30
0.0
 11
4701.865357925853
 21
2000.829310019513
 31
0.0
  0
CIRCLE
  5
455
330
1F
100
AcDbEntity
  8
LAY-12
  6
CONTINUOUS
 62
     7
100
AcDbCircle
 10
4707.490357925888
 20
1994.829310019513
 30
0.0
 40
2.25
  0
LINE
  5
456
330
1F
100
AcDbEntity
  8
LAY-12
  6
CONTINUOUS
 62
     7
100
AcDbLine
 10
4701.865357925843
 20
2176.329310019511
 30
0.0
 11
4714.990357925864
 21
2176.329310019504
 31
0.0
  0
LINE
  5
457
330
1F
100
AcDbEntity
  8
LAY-12
  6
CONTINUOUS
 62
     7
100
AcDbLine
 10
4701.865357925851
 20
2188.329310019512
 30
0.0
 11
4714.990357925874
 21
2188.329310019505
 31
0.0
  0
LINE
  5
458
330
1F
100
AcDbEntity
  8
LAY-12
  6
CONTINUOUS
 62
     7
100
AcDbLine
 10
4701.865357925853
 20
2176.329310019513
 30
0.0
 11
4701.865357925853
 21
2188.329310019513
 31
0.0
  0
CIRCLE
  5
459
330
1F
100
AcDbEntity
  8
LAY-12
  6
CONTINUOUS
 62
     7
100
AcDbCircle
 10
4707.490357925888
 20
2182.329310019513
 30
0.0
 40
2.25
  0
LINE
  5
45A
330
1F
100
AcDbEntity
  8
LAY-12
  6
CONTINUOUS
 62
     7
100
AcDbLine
 10
5277.490357925867
 20
1938.579310019518
 30
0.0
 11
4714.990357925871
 21
1938.579310019518
 31
0.0
  0
LINE
  5
45B
330
1F
100
AcDbEntity
  8
LAY-12
  6
CONTINUOUS
 62
     7
100
AcDbLine
 10
4714.990357925871
 20
1938.579310019518
 30
0.0
 11
4714.990357925869
 21
2219.829310019517
 31
0.0
  0
LINE
  5
45C
330
1F
100
AcDbEntity
  8
LAY-12
  6
CONTINUOUS
 62
     7
100
AcDbLine
 10
5277.490357925867
 20
1938.579310019518
 30
0.0
 11
5277.490357925867
 21
2219.829310019517
 31
0.0
  0
LINE
  5
45D
330
1F
100
AcDbEntity
  8
LAY-12
  6
CONTINUOUS
 62
     7
100
AcDbLine
 10
4714.990357925862
 20
2219.829310019526
 30
0.0
 11
4733.740357925862
 21
2219.829310019526
 31
0.0
  0
LINE
  5
45E
330
1F
100
AcDbEntity
  8
LAY-12
  6
CONTINUOUS
 62
     7
100
AcDbLine
 10
5258.740357925863
 20
2219.829310019563
 30
0.0
 11
5277.490357925862
 21
2219.829310019563
 31
0.0
  0
LINE
  5
45F
330
1F
100
AcDbEntity
  8
LAY-12
  6
CONTINUOUS
 62
     7
100
AcDbLine
 10
5258.740357925862
 20
1957.329310019514
 30
0.0
 11
4733.740357925304
 21
1957.329310019514
 31
0.0
  0
LINE
  5
460
330
1F
100
AcDbEntity
  8
LAY-12
  6
CONTINUOUS
 62
     7
100
AcDbLine
 10
5276.365357925867
 20
2985.204310019735
 30
0.0
 11
4716.115357925871
 21
2985.204310019736
 31
0.0
  0
LINE
  5
461
330
1F
100
AcDbEntity
  8
LAY-12
  6
CONTINUOUS
 62
     7
100
AcDbLine
 10
4716.115357925871
 20
2986.329310019734
 30
0.0
 11
4716.115357925869
 21
2705.079310019733
 31
0.0
  0
LINE
  5
462
330
1F
100
AcDbEntity
  8
LAY-12
  6
CONTINUOUS
 62
     7
100
AcDbLine
 10
5276.365357925867
 20
2986.329310019734
 30
0.0
 11
5276.365357925867
 21
2705.079310019733
 31
0.0
  0
LINE
  5
463
330
1F
100
AcDbEntity
  8
LAY-12
  6
CONTINUOUS
 62
     7
100
AcDbLine
 10
5123.36535792577
 20
2649.204310019626
 30
0.0
 11
5123.36535792577
 21
2630.454310019627
 31
0.0
  0
LINE
  5
464
330
1F
100
AcDbEntity
  8
LAY-12
  6
CONTINUOUS
 62
     7
100
AcDbLine
 10
5122.240357925768
 20
2630.454310019627
 30
0.0
 11
5122.240357925768
 21
2649.204310019626
 31
0.0
  0
LINE
  5
465
330
1F
100
AcDbEntity
  8
LAY-12
  6
CONTINUOUS
 62
     7
100
AcDbLine
 10
4869.115357925783
 20
2649.204310019626
 30
0.0
 11
4869.115357925783
 21
2630.454310019627
 31
0.0
  0
LINE
  5
466
330
1F
100
AcDbEntity
  8
LAY-12
  6
CONTINUOUS
 62
     7
100
AcDbLine
 10
4870.240357925783
 20
2630.454310019627
 30
0.0
 11
4870.240357925783
 21
2649.204310019626
 31
0.0
  0
LINE
  5
467
330
1F
100
AcDbEntity
  8
LAY-12
  6
CONTINUOUS
 62
     7
100
AcDbLine
 10
5290.615357926158
 20
2748.57931001974
 30
0.0
 11
5277.490357926134
 21
2748.579310019747
 31
0.0
  0
LINE
  5
468
330
1F
100
AcDbEntity
  8
LAY-12
  6
CONTINUOUS
 62
     7
100
AcDbLine
 10
5290.615357926151
 20
2736.57931001974
 30
0.0
 11
5277.490357926126
 21
2736.579310019747
 31
0.0
  0
LINE
  5
469
330
1F
100
AcDbEntity
  8
LAY-12
  6
CONTINUOUS
 62
     7
100
AcDbLine
 10
5290.615357926146
 20
2748.579310019738
 30
0.0
 11
5290.615357926146
 21
2736.579310019738
 31
0.0
  0
CIRCLE
  5
46A
330
1F
100
AcDbEntity
  8
LAY-12
  6
CONTINUOUS
 62
     7
100
AcDbCircle
 10
5284.990357926113
 20
2742.579310019738
 30
0.0
 40
2.25
  0
LINE
  5
46B
330
1F
100
AcDbEntity
  8
LAY-12
  6
CONTINUOUS
 62
     7
100
AcDbLine
 10
5290.615357926158
 20
2936.07931001974
 30
0.0
 11
5277.490357926134
 21
2936.079310019747
 31
0.0
  0
LINE
  5
46C
330
1F
100
AcDbEntity
  8
LAY-12
  6
CONTINUOUS
 62
     7
100
AcDbLine
 10
5290.615357926151
 20
2924.07931001974
 30
0.0
 11
5277.490357926126
 21
2924.079310019747
 31
0.0
  0
LINE
  5
46D
330
1F
100
AcDbEntity
  8
LAY-12
  6
CONTINUOUS
 62
     7
100
AcDbLine
 10
5290.615357926146
 20
2936.079310019738
 30
0.0
 11
5290.615357926146
 21
2924.079310019738
 31
0.0
  0
CIRCLE
  5
46E
330
1F
100
AcDbEntity
  8
LAY-12
  6
CONTINUOUS
 62
     7
100
AcDbCircle
 10
5284.990357926113
 20
2930.079310019738
 30
0.0
 40
2.25
  0
LINE
  5
46F
330
1F
100
AcDbEntity
  8
LAY-12
  6
CONTINUOUS
 62
     7
100
AcDbLine
 10
5189.740357926004
 20
2999.454310019783
 30
0.0
 11
5189.740357926011
 21
2986.329310019761
 31
0.0
  0
LINE
  5
470
330
1F
100
AcDbEntity
  8
LAY-12
  6
CONTINUOUS
 62
     7
100
AcDbLine
 10
5177.740357926003
 20
2999.454310019775
 30
0.0
 11
5177.740357926009
 21
2986.329310019752
 31
0.0
  0
LINE
  5
471
330
1F
100
AcDbEntity
  8
LAY-12
  6
CONTINUOUS
 62
     7
100
AcDbLine
 10
5189.740357926002
 20
2999.454310019771
 30
0.0
 11
5177.740357926002
 21
2999.454310019771
 31
0.0
  0
CIRCLE
  5
472
330
1F
100
AcDbEntity
  8
LAY-12
  6
CONTINUOUS
 62
     7
100
AcDbCircle
 10
5183.740357926001
 20
2993.829310019738
 30
0.0
 40
2.25
  0
LINE
  5
473
330
1F
100
AcDbEntity
  8
LAY-12
  6
CONTINUOUS
 62
     7
100
AcDbLine
 10
4814.740357925965
 20
2999.454310019783
 30
0.0
 11
4814.740357925973
 21
2986.329310019761
 31
0.0
  0
LINE
  5
474
330
1F
100
AcDbEntity
  8
LAY-12
  6
CONTINUOUS
 62
     7
100
AcDbLine
 10
4802.740357925965
 20
2999.454310019775
 30
0.0
 11
4802.740357925972
 21
2986.329310019752
 31
0.0
  0
LINE
  5
475
330
1F
100
AcDbEntity
  8
LAY-12
  6
CONTINUOUS
 62
     7
100
AcDbLine
 10
4814.740357925964
 20
2999.454310019771
 30
0.0
 11
4802.740357925963
 21
2999.454310019771
 31
0.0
  0
CIRCLE
  5
476
330
1F
100
AcDbEntity
  8
LAY-12
  6
CONTINUOUS
 62
     7
100
AcDbCircle
 10
4808.740357925963
 20
2993.829310019738
 30
0.0
 40
2.25
  0
LINE
  5
477
330
1F
100
AcDbEntity
  8
LAY-12
  6
CONTINUOUS
 62
     7
100
AcDbLine
 10
5002.240357926004
 20
2999.454310019783
 30
0.0
 11
5002.240357926011
 21
2986.329310019761
 31
0.0
  0
LINE
  5
478
330
1F
100
AcDbEntity
  8
LAY-12
  6
CONTINUOUS
 62
     7
100
AcDbLine
 10
4990.240357926003
 20
2999.454310019775
 30
0.0
 11
4990.240357926009
 21
2986.329310019752
 31
0.0
  0
LINE
  5
479
330
1F
100
AcDbEntity
  8
LAY-12
  6
CONTINUOUS
 62
     7
100
AcDbLine
 10
5002.240357926002
 20
2999.454310019771
 30
0.0
 11
4990.240357926002
 21
2999.454310019771
 31
0.0
  0
CIRCLE
  5
47A
330
1F
100
AcDbEntity
  8
LAY-12
  6
CONTINUOUS
 62
     7
100
AcDbCircle
 10
4996.240357926001
 20
2993.829310019738
 30
0.0
 40
2.25
  0
LINE
  5
47B
330
1F
100
AcDbEntity
  8
LAY-12
  6
CONTINUOUS
 62
     7
100
AcDbLine
 10
4701.865357925843
 20
2936.07931001974
 30
0.0
 11
4714.990357925864
 21
2936.079310019747
 31
0.0
  0
LINE
  5
47C
330
1F
100
AcDbEntity
  8
LAY-12
  6
CONTINUOUS
 62
     7
100
AcDbLine
 10
4701.865357925851
 20
2924.07931001974
 30
0.0
 11
4714.990357925874
 21
2924.079310019747
 31
0.0
  0
LINE
  5
47D
330
1F
100
AcDbEntity
  8
LAY-12
  6
CONTINUOUS
 62
     7
100
AcDbLine
 10
4701.865357925853
 20
2936.079310019738
 30
0.0
 11
4701.865357925853
 21
2924.079310019738
 31
0.0
  0
CIRCLE
  5
47E
330
1F
100
AcDbEntity
  8
LAY-12
  6
CONTINUOUS
 62
     7
100
AcDbCircle
 10
4707.490357925888
 20
2930.079310019738
 30
0.0
 40
2.25
  0
LINE
  5
47F
330
1F
100
AcDbEntity
  8
LAY-12
  6
CONTINUOUS
 62
     7
100
AcDbLine
 10
4701.865357925843
 20
2748.57931001974
 30
0.0
 11
4714.990357925864
 21
2748.579310019747
 31
0.0
  0
LINE
  5
480
330
1F
100
AcDbEntity
  8
LAY-12
  6
CONTINUOUS
 62
     7
100
AcDbLine
 10
4701.865357925851
 20
2736.57931001974
 30
0.0
 11
4714.990357925874
 21
2736.579310019747
 31
0.0
  0
LINE
  5
481
330
1F
100
AcDbEntity
  8
LAY-12
  6
CONTINUOUS
 62
     7
100
AcDbLine
 10
4701.865357925853
 20
2748.579310019738
 30
0.0
 11
4701.865357925853
 21
2736.579310019738
 31
0.0
  0
CIRCLE
  5
482
330
1F
100
AcDbEntity
  8
LAY-12
  6
CONTINUOUS
 62
     7
100
AcDbCircle
 10
4707.490357925888
 20
2742.579310019738
 30
0.0
 40
2.25
  0
LINE
  5
483
330
1F
100
AcDbEntity
  8
LAY-12
  6
CONTINUOUS
 62
     7
100
AcDbLine
 10
4733.740357925857
 20
2832.204310019725
 30
0.0
 11
4752.490357925857
 21
2832.204310019725
 31
0.0
  0
LINE
  5
484
330
1F
100
AcDbEntity
  8
LAY-12
  6
CONTINUOUS
 62
     7
100
AcDbLine
 10
4752.490357925857
 20
2831.079310019723
 30
0.0
 11
4733.740357925857
 21
2831.079310019723
 31
0.0
  0
LINE
  5
485
330
1F
100
AcDbEntity
  8
LAY-12
  6
CONTINUOUS
 62
     7
100
AcDbLine
 10
5258.740357925371
 20
2832.204310019725
 30
0.0
 11
5239.990357925371
 21
2832.204310019725
 31
0.0
  0
LINE
  5
486
330
1F
100
AcDbEntity
  8
LAY-12
  6
CONTINUOUS
 62
     7
100
AcDbLine
 10
5239.990357925371
 20
2831.079310019723
 30
0.0
 11
5258.740357925371
 21
2831.079310019723
 31
0.0
  0
LINE
  5
487
330
1F
100
AcDbEntity
  8
LAY-12
  6
CONTINUOUS
 62
     7
100
AcDbLine
 10
5123.740357925783
 20
2334.954310019624
 30
0.0
 11
5123.740357925783
 21
2589.954310019624
 31
0.0
  0
LINE
  5
488
330
1F
100
AcDbEntity
  8
LAY-12
  6
CONTINUOUS
 62
     7
100
AcDbLine
 10
4868.740357925768
 20
2334.954310019624
 30
0.0
 11
4868.740357925766
 21
2589.954310019624
 31
0.0
  0
LINE
  5
489
330
1F
100
AcDbEntity
  8
LAY-12
  6
CONTINUOUS
 62
     7
100
AcDbLine
 10
5277.490357925867
 20
2986.329310019734
 30
0.0
 11
4714.990357925871
 21
2986.329310019734
 31
0.0
  0
LINE
  5
48A
330
1F
100
AcDbEntity
  8
LAY-12
  6
CONTINUOUS
 62
     7
100
AcDbLine
 10
4714.990357925871
 20
2986.329310019734
 30
0.0
 11
4714.990357925869
 21
2705.079310019734
 31
0.0
  0
LINE
  5
48B
330
1F
100
AcDbEntity
  8
LAY-12
  6
CONTINUOUS
 62
     7
100
AcDbLine
 10
5277.490357925867
 20
2986.329310019734
 30
0.0
 11
5277.490357925867
 21
2705.079310019734
 31
0.0
  0
LINE
  5
48C
330
1F
100
AcDbEntity
  8
LAY-12
  6
CONTINUOUS
 62
     7
100
AcDbLine
 10
4714.990357925862
 20
2705.079310019726
 30
0.0
 11
4733.740357925862
 21
2705.079310019726
 31
0.0
  0
LINE
  5
48D
330
1F
100
AcDbEntity
  8
LAY-12
  6
CONTINUOUS
 62
     7
100
AcDbLine
 10
5258.740357925863
 20
2705.079310019688
 30
0.0
 11
5277.490357925862
 21
2705.079310019688
 31
0.0
  0
LINE
  5
48E
330
1F
100
AcDbEntity
  8
LAY-12
  6
CONTINUOUS
 62
     7
100
AcDbLine
 10
5258.740357925862
 20
2967.579310019737
 30
0.0
 11
4733.740357925304
 21
2967.579310019737
 31
0.0
  0
DIMENSION
  5
490
330
1F
100
AcDbEntity
  8
LAY-20
  6
CONTINUOUS
 62
     4
100
AcDbDimension
  2
*D15
 10
1732.0
 20
3661.0
 30
0.0
 11
1982.0
 21
3698.5
 31
0.0
 70
   160
  3
ISO-25
100
AcDbAlignedDimension
 13
2232.0
 23
3517.4
 33
0.0
 14
1732.0
 24
3537.959867039399
 34
0.0
100
AcDbRotatedDimension
1001
ACAD
1000
DSTYLE
1002
{
1070
   270
1070
     2
1070
     6
1000
EX_BNORM
1070
     7
1000
EX_BNORM
1070
    41
1040
37.49999618530273
1070
    42
1040
22.5
1070
    44
1040
22.5
1070
    73
1070
     0
1070
    74
1070
     0
1070
    75
1070
     0
1070
    76
1070
     0
1070
    77
1070
     1
1070
    78
1070
     8
1070
   140
1040
46.77165302633819
1070
   147
1040
0.0
1070
   173
1070
     1
1070
   176
1070
     4
1070
   177
1070
     4
1070
   178
1070
     7
1070
   271
1070
     1
1070
   277
1070
     2
1070
   279
1070
     2
1070
   280
1070
     0
1070
   287
1070
     5
1070
   340
1005
48F
1002
}
  0
DIMENSION
  5
49E
330
1F
100
AcDbEntity
  8
LAY-20
  6
CONTINUOUS
 62
     4
100
AcDbDimension
  2
*D16
 10
1732.0
 20
3661.0
 30
0.0
 11
1482.0
 21
3698.5
 31
0.0
 70
   160
  3
ISO-25
100
AcDbAlignedDimension
 13
1232.0
 23
3517.4
 33
0.0
 14
1732.0
 24
3661.0
 34
0.0
100
AcDbRotatedDimension
1001
ACAD
1000
DSTYLE
1002
{
1070
   270
1070
     2
1070
     6
1000
EX_BNORM
1070
     7
1000
EX_BNORM
1070
    41
1040
37.49999618530273
1070
    42
1040
22.5
1070
    44
1040
22.5
1070
    73
1070
     0
1070
    74
1070
     0
1070
    75
1070
     0
1070
    76
1070
     1
1070
    77
1070
     1
1070
    78
1070
     8
1070
   140
1040
46.77165302633819
1070
   147
1040
0.0
1070
   173
1070
     1
1070
   176
1070
     4
1070
   177
1070
     4
1070
   178
1070
     7
1070
   271
1070
     1
1070
   277
1070
     2
1070
   279
1070
     2
1070
   280
1070
     0
1070
   287
1070
     5
1070
   340
1005
48F
1002
}
  0
DIMENSION
  5
4AA
330
1F
100
AcDbEntity
  8
LAY-20
  6
CONTINUOUS
 62
     4
100
AcDbDimension
  2
*D17
 10
2734.0
 20
1125.0
 30
0.0
 11
2696.5
 21
1204.999999999999
 31
0.0
 70
   160
  3
ISO-25
100
AcDbAlignedDimension
 13
2479.0
 23
1284.999999999999
 33
0.0
 14
2432.0
 24
1125.0
 34
0.0
 50
90.0
100
AcDbRotatedDimension
1001
ACAD
1000
DSTYLE
1002
{
1070
   270
1070
     2
1070
     6
1000
EX_BNORM
1070
     7
1000
EX_BNORM
1070
    41
1040
37.49999618530273
1070
    42
1040
22.5
1070
    44
1040
22.5
1070
    73
1070
     0
1070
    74
1070
     0
1070
    75
1070
     0
1070
    76
1070
     0
1070
    77
1070
     1
1070
    78
1070
     8
1070
   140
1040
46.77165302633819
1070
   147
1040
0.0
1070
   173
1070
     1
1070
   176
1070
     4
1070
   177
1070
     4
1070
   178
1070
     7
1070
   271
1070
     1
1070
   277
1070
     2
1070
   279
1070
     2
1070
   280
1070
     0
1070
   287
1070
     5
1070
   340
1005
48F
1002
}
  0
DIMENSION
  5
4B7
330
1F
100
AcDbEntity
  8
LAY-20
  6
CONTINUOUS
 62
     4
100
AcDbDimension
  2
*D18
 10
2629.0
 20
1284.999999999999
 30
0.0
 11
2591.5
 21
1374.999999999999
 31
0.0
 70
   160
  3
ISO-25
100
AcDbAlignedDimension
 13
2514.0
 23
1226.0
 33
0.0
 14
2629.0
 24
1284.999999999999
 34
0.0
 50
90.0
100
AcDbRotatedDimension
1001
ACAD
1000
DSTYLE
1002
{
1070
   270
1070
     2
1070
     6
1000
EX_BCIR
1070
     7
1000
EX_BNORM
1070
    41
1040
14.99999904632568
1070
    42
1040
22.5
1070
    44
1040
22.5
1070
    73
1070
     0
1070
    74
1070
     0
1070
    75
1070
     0
1070
    76
1070
     1
1070
    77
1070
     1
1070
    78
1070
     8
1070
   140
1040
46.77165302633819
1070
   147
1040
0.0
1070
   173
1070
     1
1070
   176
1070
     4
1070
   177
1070
     4
1070
   178
1070
     7
1070
   271
1070
     1
1070
   277
1070
     2
1070
   279
1070
     2
1070
   280
1070
     2
1070
   287
1070
     5
1070
   340
1005
48F
1002
}
  0
DIMENSION
  5
4C3
330
1F
100
AcDbEntity
  8
LAY-20
  6
CONTINUOUS
 62
     4
100
AcDbDimension
  2
*D19
 10
2629.0
 20
1125.0
 30
0.0
 11
2591.5
 21
1012.499999999999
 31
0.0
 70
   160
  3
ISO-25
100
AcDbAlignedDimension
 13
2629.0
 23
1226.0
 33
0.0
 14
2629.0
 24
1125.0
 34
0.0
 50
90.0
100
AcDbRotatedDimension
1001
ACAD
1000
DSTYLE
1002
{
1070
   270
1070
     2
1070
     6
1000
EX_BCIR
1070
     7
1000
EX_BNORM
1070
    41
1040
14.99999904632568
1070
    42
1040
0.0
1070
    44
1040
0.0
1070
    73
1070
     0
1070
    74
1070
     0
1070
    75
1070
     1
1070
    76
1070
     1
1070
    77
1070
     1
1070
    78
1070
     8
1070
   140
1040
46.77165302633819
1070
   147
1040
0.0
1070
   173
1070
     1
1070
   176
1070
     4
1070
   177
1070
     4
1070
   178
1070
     7
1070
   271
1070
     1
1070
   277
1070
     2
1070
   279
1070
     2
1070
   280
1070
     2
1070
   287
1070
     5
1070
   340
1005
48F
1002
}
  0
DIMENSION
  5
4CE
330
1F
100
AcDbEntity
  8
LAY-20
  6
CONTINUOUS
 62
     4
100
AcDbDimension
  2
*D20
 10
800.0
 20
2829.0
 30
0.0
 11
762.5000000000002
 21
3079.0
 31
0.0
 70
   160
  3
ISO-25
100
AcDbAlignedDimension
 13
943.6000000000004
 23
3329.0
 33
0.0
 14
800.0
 24
2829.0
 34
0.0
 50
90.0
100
AcDbRotatedDimension
1001
ACAD
1000
DSTYLE
1002
{
1070
   270
1070
     2
1070
     6
1000
EX_BNORM
1070
     7
1000
EX_BNORM
1070
    41
1040
37.49999618530273
1070
    42
1040
22.5
1070
    44
1040
22.5
1070
    73
1070
     0
1070
    74
1070
     0
1070
    75
1070
     0
1070
    76
1070
     1
1070
    77
1070
     1
1070
    78
1070
     8
1070
   140
1040
46.77165302633819
1070
   147
1040
0.0
1070
   173
1070
     1
1070
   176
1070
     4
1070
   177
1070
     4
1070
   178
1070
     7
1070
   271
1070
     1
1070
   277
1070
     2
1070
   279
1070
     2
1070
   280
1070
     0
1070
   287
1070
     5
1070
   340
1005
48F
1002
}
  0
DIMENSION
  5
4DA
330
1F
100
AcDbEntity
  8
LAY-20
  6
CONTINUOUS
 62
     4
100
AcDbDimension
  2
*D21
 10
1255.5
 20
1285.0
 30
0.0
 11
1218.0
 21
1375.0
 31
0.0
 70
   160
  3
ISO-25
100
AcDbAlignedDimension
 13
1159.5
 23
1250.0
 33
0.0
 14
1309.50000000003
 24
1285.0
 34
0.0
 50
90.0
100
AcDbRotatedDimension
1001
ACAD
1000
DSTYLE
1002
{
1070
   270
1070
     2
1070
     6
1000
EX_BNORM
1070
     7
1000
EX_BNORM
1070
    41
1040
37.49999618530273
1070
    42
1040
22.5
1070
    44
1040
22.5
1070
    73
1070
     0
1070
    74
1070
     0
1070
    75
1070
     0
1070
    76
1070
     1
1070
    77
1070
     1
1070
    78
1070
     8
1070
   140
1040
46.77165302633819
1070
   147
1040
0.0
1070
   173
1070
     1
1070
   176
1070
     4
1070
   177
1070
     4
1070
   178
1070
     7
1070
   271
1070
     1
1070
   277
1070
     2
1070
   279
1070
     2
1070
   280
1070
     2
1070
   287
1070
     5
1070
   340
1005
48F
1002
}
  0
DIMENSION
  5
4E8
330
1F
100
AcDbEntity
  8
LAY-20
  6
CONTINUOUS
 62
     4
100
AcDbDimension
  2
*D22
 10
800.0
 20
2629.0
 30
0.0
 11
762.5000000000002
 21
2729.0
 31
0.0
 70
   160
  3
ISO-25
100
AcDbAlignedDimension
 13
943.5999999999999
 23
2829.0
 33
0.0
 14
943.5999999999999
 24
2629.0
 34
0.0
 50
90.0
100
AcDbRotatedDimension
1001
ACAD
1000
DSTYLE
1002
{
1070
   270
1070
     2
1070
     6
1000
EX_BNORM
1070
     7
1000
EX_BNORM
1070
    41
1040
37.49999618530273
1070
    42
1040
22.5
1070
    44
1040
22.5
1070
    73
1070
     0
1070
    74
1070
     0
1070
    75
1070
     0
1070
    76
1070
     0
1070
    77
1070
     1
1070
    78
1070
     8
1070
   140
1040
46.77165302633819
1070
   147
1040
0.0
1070
   173
1070
     1
1070
   176
1070
     4
1070
   177
1070
     4
1070
   178
1070
     7
1070
   271
1070
     1
1070
   277
1070
     2
1070
   279
1070
     2
1070
   280
1070
     0
1070
   287
1070
     5
1070
   340
1005
48F
1002
}
  0
DIMENSION
  5
4F5
330
1F
100
AcDbEntity
  8
LAY-20
  6
CONTINUOUS
 62
     4
100
AcDbDimension
  2
*D23
 10
800.0
 20
2628.999999999998
 30
0.0
 11
762.4999999999998
 21
2378.999999999998
 31
0.0
 70
   160
  3
ISO-25
100
AcDbAlignedDimension
 13
943.5999999999995
 23
2128.999999999998
 33
0.0
 14
800.0
 24
2628.999999999998
 34
0.0
 50
90.0
100
AcDbRotatedDimension
1001
ACAD
1000
DSTYLE
1002
{
1070
   270
1070
     2
1070
     6
1000
EX_BNORM
1070
     7
1000
EX_BNORM
1070
    41
1040
37.49999618530273
1070
    42
1040
22.5
1070
    44
1040
22.5
1070
    73
1070
     0
1070
    74
1070
     0
1070
    75
1070
     0
1070
    76
1070
     1
1070
    77
1070
     1
1070
    78
1070
     8
1070
   140
1040
46.77165302633819
1070
   147
1040
0.0
1070
   173
1070
     1
1070
   176
1070
     4
1070
   177
1070
     4
1070
   178
1070
     7
1070
   271
1070
     1
1070
   277
1070
     2
1070
   279
1070
     2
1070
   280
1070
     0
1070
   287
1070
     5
1070
   340
1005
48F
1002
}
  0
DIMENSION
  5
501
330
1F
100
AcDbEntity
  8
LAY-20
  6
CONTINUOUS
 62
     4
100
AcDbDimension
  2
*D24
 10
2479.0
 20
1645.0
 30
0.0
 11
1732.0
 21
1682.5
 31
0.0
 70
   160
  1
□<>
  3
ISO-25
100
AcDbAlignedDimension
 13
985.0000000000001
 23
1285.0
 33
0.0
 14
2479.0
 24
1285.0
 34
0.0
100
AcDbRotatedDimension
1001
ACAD
1000
DSTYLE
1002
{
1070
   270
1070
     2
1070
     6
1000
EX_BNORM
1070
     7
1000
EX_BNORM
1070
    41
1040
37.49999618530273
1070
    42
1040
22.5
1070
    44
1040
22.5
1070
    73
1070
     0
1070
    74
1070
     0
1070
    75
1070
     0
1070
    76
1070
     0
1070
    77
1070
     1
1070
    78
1070
     8
1070
   140
1040
46.77165302633819
1070
   147
1040
0.0
1070
   173
1070
     1
1070
   176
1070
     4
1070
   177
1070
     4
1070
   178
1070
     7
1070
   271
1070
     1
1070
   277
1070
     2
1070
   279
1070
     2
1070
   280
1070
     0
1070
   287
1070
     5
1070
   340
1005
48F
1002
}
  0
DIMENSION
  5
50E
330
1F
100
AcDbEntity
  8
LAY-20
  6
CONTINUOUS
 62
     4
100
AcDbDimension
  2
*D25
 10
997.0000000000014
 20
1540.0
 30
0.0
 11
1732.0
 21
1577.5
 31
0.0
 70
   160
  1
□<>
  3
ISO-25
100
AcDbAlignedDimension
 13
2467.0
 23
1284.999999999999
 33
0.0
 14
997.0000000000014
 24
1285.000000000001
 34
0.0
100
AcDbRotatedDimension
1001
ACAD
1000
DSTYLE
1002
{
1070
   270
1070
     2
1070
     6
1000
EX_BNORM
1070
     7
1000
EX_BNORM
1070
    41
1040
37.49999618530273
1070
    42
1040
22.5
1070
    44
1040
22.5
1070
    73
1070
     0
1070
    74
1070
     0
1070
    75
1070
     0
1070
    76
1070
     0
1070
    77
1070
     1
1070
    78
1070
     8
1070
   140
1040
46.77165302633819
1070
   147
1040
0.0
1070
   173
1070
     1
1070
   176
1070
     4
1070
   177
1070
     4
1070
   178
1070
     7
1070
   271
1070
     1
1070
   277
1070
     2
1070
   279
1070
     2
1070
   280
1070
     0
1070
   287
1070
     5
1070
   340
1005
48F
1002
}
  0
DIMENSION
  5
51B
330
1F
100
AcDbEntity
  8
LAY-20
  6
CONTINUOUS
 62
     4
100
AcDbDimension
  2
*D26
 10
1432.0
 20
1435.0
 30
0.0
 11
1732.0
 21
1472.5
 31
0.0
 70
   160
  1
□<>
  3
ISO-25
100
AcDbAlignedDimension
 13
2032.0
 23
1285.0
 33
0.0
 14
1432.0
 24
1285.0
 34
0.0
100
AcDbRotatedDimension
1001
ACAD
1000
DSTYLE
1002
{
1070
   270
1070
     2
1070
     6
1000
EX_BNORM
1070
     7
1000
EX_BNORM
1070
    41
1040
37.49999618530273
1070
    42
1040
22.5
1070
    44
1040
22.5
1070
    73
1070
     0
1070
    74
1070
     0
1070
    75
1070
     0
1070
    76
1070
     0
1070
    77
1070
     1
1070
    78
1070
     8
1070
   140
1040
46.77165302633819
1070
   147
1040
0.0
1070
   173
1070
     1
1070
   176
1070
     4
1070
   177
1070
     4
1070
   178
1070
     7
1070
   271
1070
     1
1070
   277
1070
     2
1070
   279
1070
     2
1070
   280
1070
     0
1070
   287
1070
     5
1070
   340
1005
48F
1002
}
  0
DIMENSION
  5
528
330
1F
100
AcDbEntity
  8
LAY-20
  6
CONTINUOUS
 62
     4
100
AcDbDimension
  2
*D27
 10
2429.0
 20
975.0
 30
0.0
 11
1732.0
 21
1012.5
 31
0.0
 70
   160
  1
□<>
  3
ISO-25
100
AcDbAlignedDimension
 13
1035.0
 23
1125.0
 33
0.0
 14
2429.0
 24
1125.0
 34
0.0
100
AcDbRotatedDimension
1001
ACAD
1000
DSTYLE
1002
{
1070
   270
1070
     2
1070
     6
1000
EX_BNORM
1070
     7
1000
EX_BNORM
1070
    41
1040
37.49999618530273
1070
    42
1040
22.5
1070
    44
1040
22.5
1070
    73
1070
     0
1070
    74
1070
     0
1070
    75
1070
     0
1070
    76
1070
     0
1070
    77
1070
     1
1070
    78
1070
     8
1070
   140
1040
46.77165302633819
1070
   147
1040
0.0
1070
   173
1070
     1
1070
   176
1070
     4
1070
   177
1070
     4
1070
   178
1070
     7
1070
   271
1070
     1
1070
   277
1070
     2
1070
   279
1070
     2
1070
   280
1070
     0
1070
   287
1070
     5
1070
   340
1005
48F
1002
}
  0
LINE
  5
535
330
1F
100
AcDbEntity
  8
LAY-255
  6
CONTINUOUS
 62
     7
100
AcDbLine
 10
5775.0
 20
329.9999999999999
 30
0.0
 11
4275.0
 21
329.9999999999999
 31
0.0
  0
LINE
  5
536
330
1F
100
AcDbEntity
  8
LAY-255
  6
CONTINUOUS
 62
     7
100
AcDbLine
 10
4332.0
 20
240.0
 30
0.0
 11
4452.0
 21
315.0
 31
0.0
  0
LINE
  5
537
330
1F
100
AcDbEntity
  8
LAY-255
  6
CONTINUOUS
 62
     7
100
AcDbLine
 10
4452.0
 20
315.0
 30
0.0
 11
4572.0
 21
240.0
 31
0.0
  0
LINE
  5
538
330
1F
100
AcDbEntity
  8
LAY-255
  6
CONTINUOUS
 62
     7
100
AcDbLine
 10
4572.0
 20
240.0
 30
0.0
 11
4452.0
 21
165.0
 31
0.0
  0
LINE
  5
539
330
1F
100
AcDbEntity
  8
LAY-255
  6
CONTINUOUS
 62
     7
100
AcDbLine
 10
4452.0
 20
165.0
 30
0.0
 11
4332.0
 21
240.0
 31
0.0
  0
LINE
  5
53A
330
1F
100
AcDbEntity
  8
LAY-255
  6
CONTINUOUS
 62
     7
100
AcDbLine
 10
75.0
 20
150.0
 30
0.0
 11
5775.000000000001
 21
150.0
 31
0.0
  0
LINE
  5
53B
330
1F
100
AcDbEntity
  8
LAY-255
  6
CONTINUOUS
 62
     7
100
AcDbLine
 10
75.0
 20
4200.0
 30
0.0
 11
5775.000000000001
 21
4200.0
 31
0.0
  0
LINE
  5
53C
330
1F
100
AcDbEntity
  8
LAY-255
  6
CONTINUOUS
 62
     7
100
AcDbLine
 10
75.0
 20
150.0
 30
0.0
 11
75.0
 21
4200.0
 31
0.0
  0
LINE
  5
53D
330
1F
100
AcDbEntity
  8
LAY-255
  6
CONTINUOUS
 62
     7
100
AcDbLine
 10
5775.0
 20
150.0
 30
0.0
 11
5775.0
 21
4200.0
 31
0.0
  0
LINE
  5
53E
330
1F
100
AcDbEntity
  8
LAY-255
  6
CONTINUOUS
 62
     4
100
AcDbLine
 10
4275.0
 20
419.9999999999999
 30
0.0
 11
5775.000000000001
 21
419.9999999999999
 31
0.0
  0
LINE
  5
53F
330
1F
100
AcDbEntity
  8
LAY-255
  6
CONTINUOUS
 62
     4
100
AcDbLine
 10
5025.0
 20
419.9999999999999
 30
0.0
 11
5025.0
 21
330.0
 31
0.0
  0
LINE
  5
540
330
1F
100
AcDbEntity
  8
LAY-255
  6
CONTINUOUS
 62
     7
100
AcDbLine
 10
5775.000000000001
 20
1080.0
 30
0.0
 11
4275.0
 21
1080.0
 31
0.0
  0
LINE
  5
541
330
1F
100
AcDbEntity
  8
LAY-255
  6
CONTINUOUS
 62
     4
100
AcDbLine
 10
5745.0
 20
900.0
 30
0.0
 11
4305.0
 21
900.0
 31
0.0
  0
LINE
  5
542
330
1F
100
AcDbEntity
  8
LAY-255
  6
CONTINUOUS
 62
     4
100
AcDbLine
 10
5745.0
 20
990.0
 30
0.0
 11
4305.0
 21
990.0
 31
0.0
  0
LINE
  5
543
330
1F
100
AcDbEntity
  8
LAY-255
  6
CONTINUOUS
 62
     7
100
AcDbLine
 10
4275.0
 20
150.0
 30
0.0
 11
4275.0
 21
1080.0
 31
0.0
  0
TEXT
  5
544
330
1F
100
AcDbEntity
  8
LAY-255
  6
CONTINUOUS
 62
     7
100
AcDbText
 10
4410.515625
 20
205.7812489271164
 30
0.0
 40
77.34374344348907
  1
S
 41
0.758267820642796
  7
EXCADSTD
100
AcDbText
  0
TEXT
  5
545
330
1F
100
AcDbEntity
  8
LAY-255
  6
CONTINUOUS
 62
     7
100
AcDbText
 10
4456.5703125
 20
206.2411545875164
 30
0.0
 40
77.34374344348907
  1
F
 41
0.7440945903504073
  7
EXCADSTD
100
AcDbText
  0
TEXT
  5
546
330
1F
100
AcDbEntity
  8
LAY-255
  6
CONTINUOUS
 62
     7
100
AcDbText
 10
4622.07565899414
 20
233.1562489271164
 30
0.0
 40
77.34374344348907
  1
福西鋳物株式会社
 41
1.342685606041486
  7
EXCADSTD
100
AcDbText
  0
TEXT
  5
547
330
1F
100
AcDbEntity
  8
LAY-255
  6
CONTINUOUS
 62
     7
100
AcDbText
 10
4627.640625
 20
179.7187497317791
 30
0.0
 40
25.78124836087227
  1
ＦＵＫＵＮＩＳＨＩ
 41
1.20479930264434
  7
EXCADSTD
100
AcDbText
  0
TEXT
  5
548
330
1F
100
AcDbEntity
  8
LAY-255
  6
CONTINUOUS
 62
     7
100
AcDbText
 10
4990.561941964285
 20
179.7187497317791
 30
0.0
 40
25.78124836087227
  1
ＦＯＵＮＤＲＹ
 41
1.217207032468842
  7
EXCADSTD
100
AcDbText
  0
TEXT
  5
549
330
1F
100
AcDbEntity
  8
LAY-255
  6
CONTINUOUS
 62
     7
100
AcDbText
 10
5278.867225060096
 20
179.7187497317791
 30
0.0
 40
25.78124836087227
  1
ＣＯ.,ＬＴＤ.
 41
1.097167869545995
  7
EXCADSTD
100
AcDbText
  0
POINT
  5
54A
330
1F
100
AcDbEntity
  8
LAY-255
  6
CONTINUOUS
 62
     7
100
AcDbPoint
 10
4335.0
 20
600.0
 30
0.0
  0
POINT
  5
54B
330
1F
100
AcDbEntity
  8
LAY-255
  6
CONTINUOUS
 62
     7
100
AcDbPoint
 10
4335.0
 20
525.0
 30
0.0
  0
POINT
  5
54C
330
1F
100
AcDbEntity
  8
LAY-255
  6
CONTINUOUS
 62
     7
100
AcDbPoint
 10
4335.0
 20
450.0
 30
0.0
  0
POINT
  5
54D
330
1F
100
AcDbEntity
  8
LAY-255
  6
CONTINUOUS
 62
     7
100
AcDbPoint
 10
4335.0
 20
675.0
 30
0.0
  0
TEXT
  5
54E
330
1F
100
AcDbEntity
  8
LAY-255
  6
CONTINUOUS
 62
     7
100
AcDbText
 10
4338.28125
 20
458.4374994635582
 30
0.0
 40
51.56249672174454
  1
割数：４枚割
 41
1.026877769133284
  7
EXCADSTD
100
AcDbText
  0
TEXT
  5
54F
330
1F
100
AcDbEntity
  8
LAY-255
  6
CONTINUOUS
 62
     7
100
AcDbText
 10
4308.984375
 20
923.4374994635582
 30
0.0
 40
51.56249672174454
  1
型式
 41
1.05634854784265
  7
EXCADSTD
100
AcDbText
  0
TEXT
  5
550
330
1F
100
AcDbEntity
  8
LAY-255
  6
CONTINUOUS
 62
     7
100
AcDbText
 10
4311.328125
 20
1013.437499463558
 30
0.0
 40
51.56249672174454
  1
品名
 41
0.9788386963237974
  7
EXCADSTD
100
AcDbText
  0
POINT
  5
551
330
1F
100
AcDbEntity
  8
LAY-255
  6
CONTINUOUS
 62
     7
100
AcDbPoint
 10
4500.0
 20
915.0
 30
0.0
  0
POINT
  5
552
330
1F
100
AcDbEntity
  8
LAY-255
  6
CONTINUOUS
 62
     7
100
AcDbPoint
 10
4500.0
 20
1005.0
 30
0.0
  0
TEXT
  5
553
330
1F
100
AcDbEntity
  8
LAY-255
  6
CONTINUOUS
 62
     7
100
AcDbText
 10
4503.75
 20
1013.437499463558
 30
0.0
 40
51.56249672174454
  1
化粧用グリーンメイト（樹木保護蓋）
 41
0.9764041390197047
  7
EXCADSTD
100
AcDbText
  0
POINT
  5
554
330
1F
100
AcDbEntity
  8
LAY-255
  6
CONTINUOUS
 62
     7
100
AcDbPoint
 10
4335.0
 20
825.0
 30
0.0
  0
TEXT
  5
555
330
1F
100
AcDbEntity
  8
LAY-255
  6
CONTINUOUS
 62
     7
100
AcDbText
 10
4339.6875
 20
833.4374994635583
 30
0.0
 40
51.56249672174454
  1
ステンレス製
 41
1.022789337404817
  7
EXCADSTD
100
AcDbText
  0
POINT
  5
556
330
1F
100
AcDbEntity
  8
LAY-255
  6
CONTINUOUS
 62
     7
100
AcDbPoint
 10
4335.0
 20
750.0
 30
0.0
  0
TEXT
  5
557
330
1F
100
AcDbEntity
  8
LAY-255
  6
CONTINUOUS
 62
     7
100
AcDbText
 10
4338.046875
 20
608.4374994635583
 30
0.0
 40
51.56249672174454
  1
外径：□１４９４
 41
1.001743648364471
  7
EXCADSTD
100
AcDbText
  0
TEXT
  5
558
330
1F
100
AcDbEntity
  8
LAY-255
  6
CONTINUOUS
 62
     7
100
AcDbText
 10
4341.796875
 20
533.4374994635582
 30
0.0
 40
51.56249672174454
  1
内径：□６００
 41
0.992126099441315
  7
EXCADSTD
100
AcDbText
  0
TEXT
  5
559
330
1F
100
AcDbEntity
  8
LAY-255
  6
CONTINUOUS
 62
     7
100
AcDbText
 10
4338.046875
 20
683.4374994635583
 30
0.0
 40
51.56249672174454
  1
適用荷重：Ｔ－２
 41
1.000225088008183
  7
EXCADSTD
100
AcDbText
  0
TEXT
  5
55A
330
1F
100
AcDbEntity
  8
LAY-255
  6
CONTINUOUS
 62
     7
100
AcDbText
 10
4510.3125
 20
923.4374994635582
 30
0.0
 40
51.56249672174454
  1
ＧＭＳ－ＳＵＥＢ－１５６０型
 41
1.006127879070527
  7
EXCADSTD
100
AcDbText
  0
TEXT
  5
55B
330
1F
100
AcDbEntity
  8
LAY-255
  6
CONTINUOUS
 62
     7
100
AcDbText
 10
4336.875
 20
758.4374994635583
 30
0.0
 40
51.56249672174454
  1
磁気タイル・自然石用（貼代３５）
 41
0.9764057915276322
  7
EXCADSTD
100
AcDbText
  0
TEXT
  5
55C
330
1F
100
AcDbEntity
  8
LAY-255
  6
CONTINUOUS
 62
     7
100
AcDbText
 10
4514.765625
 20
353.437499463558
 30
0.0
 40
51.56249672174454
  1
２０／０４／２３
 41
0.973397188380433
  7
EXCADSTD
100
AcDbText
  0
TEXT
  5
55D
330
1F
100
AcDbEntity
  8
LAY-255
  6
CONTINUOUS
 62
     7
100
AcDbText
 10
4307.28515625
 20
366.328124463558
 30
0.0
 40
38.67187172174454
  1
作成日
 41
1.000630058642643
  7
EXCADSTD
100
AcDbText
  0
TEXT
  5
55E
330
1F
100
AcDbEntity
  8
LAY-255
  6
CONTINUOUS
 62
     7
100
AcDbText
 10
5056.58203125
 20
366.328124463558
 30
0.0
 40
38.67187172174454
  1
縮尺
 41
1.080708809794639
  7
EXCADSTD
100
AcDbText
  0
TEXT
  5
55F
330
1F
100
AcDbEntity
  8
LAY-255
  6
CONTINUOUS
 62
     7
100
AcDbText
 10
5224.21875
 20
353.437499463558
 30
0.0
 40
51.56249672174454
  1
１：１５
 41
0.9202178002171021
  7
EXCADSTD
100
AcDbText
  0
ENDSEC
  0
SECTION
  2
OBJECTS
  0
DICTIONARY
  5
C
330
0
100
AcDbDictionary
  3
ACAD_GROUP
350
D
  3
ACAD_LAYOUT
350
1A
  3
ACAD_MATERIAL
350
43
  3
ACAD_MLEADERSTYLE
350
6B
  3
ACAD_MLINESTYLE
350
17
  3
ACAD_PLOTSETTINGS
350
19
  3
ACAD_SCALELIST
350
47
  3
ACAD_VISUALSTYLE
350
2A
  3
ACDBHEADERROUNDTRIPXREC
350
560
  3
ACDBVARIABLEDICTIONARY
350
581
  0
DICTIONARY
  5
58C
330
8
100
AcDbDictionary
280
     1
  3
ACAD_XREC_ROUNDTRIP
360
58D
  0
DICTIONARY
  5
D
102
{ACAD_REACTORS
330
C
102
}
330
C
100
AcDbDictionary
  0
DICTIONARY
  5
1A
102
{ACAD_REACTORS
330
C
102
}
330
C
100
AcDbDictionary
  0
DICTIONARY
  5
43
102
{ACAD_REACTORS
330
C
102
}
330
C
100
AcDbDictionary
  3
BYBLOCK
350
45
  3
BYLAYER
350
44
  3
GLOBAL
350
46
  0
DICTIONARY
  5
6B
102
{ACAD_REACTORS
330
C
102
}
330
C
100
AcDbDictionary
  3
STANDARD
350
6C
  0
DICTIONARY
  5
17
102
{ACAD_REACTORS
330
C
102
}
330
C
100
AcDbDictionary
  3
STANDARD
350
18
  0
DICTIONARY
  5
19
102
{ACAD_REACTORS
330
C
102
}
330
C
100
AcDbDictionary
  0
DICTIONARY
  5
47
102
{ACAD_REACTORS
330
C
102
}
330
C
100
AcDbDictionary
  3
A0
350
48
  3
A1
350
49
  3
A2
350
4A
  3
A3
350
4B
  3
A4
350
4C
  3
A5
350
4D
  3
A6
350
4E
  3
A7
350
4F
  3
A8
350
50
  3
A9
350
51
  3
B0
350
52
  3
B1
350
53
  3
B2
350
54
  3
B3
350
55
  3
B4
350
56
  3
B5
350
57
  3
B6
350
58
  3
B7
350
59
  3
B8
350
5A
  3
B9
350
5B
  3
C0
350
5C
  3
C1
350
5D
  3
C2
350
5E
  3
C3
350
5F
  3
C4
350
60
  3
C5
350
61
  3
C6
350
62
  3
C7
350
63
  3
C8
350
64
  3
C9
350
65
  3
D0
350
66
  3
D1
350
67
  3
D2
350
68
  0
DICTIONARY
  5
2A
102
{ACAD_REACTORS
330
C
102
}
330
C
100
AcDbDictionary
  3
2DWIREFRAME
350
2F
  3
BASIC
350
32
  3
BRIGHTEN
350
36
  3
COLORCHANGE
350
3A
  3
CONCEPTUAL
350
34
  3
DIM
350
35
  3
EDGECOLOROFF
350
3D
  3
FACEPATTERN
350
39
  3
FLAT
350
2B
  3
FLATWITHEDGES
350
2C
  3
GOURAUD
350
2D
  3
GOURAUDWITHEDGES
350
2E
  3
HIDDEN
350
31
  3
JITTEROFF
350
3B
  3
LINEPATTERN
350
38
  3
OVERHANGOFF
350
3C
  3
REALISTIC
350
33
  3
SHADED
350
42
  3
SHADED_WITH_EDGES
350
41
  3
SHADES_OF_GRAY
350
3E
  3
SKETCHY
350
3F
  3
THICKEN
350
37
  3
WIREFRAME
350
30
  3
X-RAY
350
40
  0
DICTIONARY
  5
560
102
{ACAD_REACTORS
330
C
102
}
330
C
100
AcDbDictionary
  3
CEPSNID
350
56A
  3
CEPSNTYPE
350
569
  3
DIMSTYLEDATA
350
580
  3
FINGERPRINTGUID
350
56B
  3
HYPERLINKBASE
350
563
  3
INSUNITS
350
568
  3
LAYOUTDICT
350
565
  3
LWETCUNION
350
567
  3
PLOTSETDICT
350
566
  3
PSVPSCALE
350
56D
  3
PUCSBASE
350
570
  3
PUCSORGBACK
350
576
  3
PUCSORGBOTTOM
350
572
  3
PUCSORGFRONT
350
575
  3
PUCSORGLEFT
350
573
  3
PUCSORGRIGHT
350
574
  3
PUCSORGTOP
350
571
  3
PUCSORTHOREF
350
56E
  3
PUCSORTHOVIEW
350
56F
  3
STYLESHEET
350
564
  3
TSTACKALIGN
350
561
  3
TSTACKSIZE
350
562
  3
UCSBASE
350
579
  3
UCSORGBACK
350
57F
  3
UCSORGBOTTOM
350
57B
  3
UCSORGFRONT
350
57E
  3
UCSORGLEFT
350
57C
  3
UCSORGRIGHT
350
57D
  3
UCSORGTOP
350
57A
  3
UCSORTHOREF
350
577
  3
UCSORTHOVIEW
350
578
  3
VERSIONGUID
350
56C
  0
DICTIONARY
  5
581
102
{ACAD_REACTORS
330
C
102
}
330
C
100
AcDbDictionary
  3
CANNOSCALE
350
58E
  3
CENTEREXE
350
588
  3
CENTERLTYPEFILE
350
589
  3
CMLEADERSTYLE
350
583
  3
CTABLESTYLE
350
582
  3
DIMASSOC
350
58A
  3
HIDETEXT
350
58B
  3
MSLTSCALE
350
58F
  3
PSOLHEIGHT
350
585
  3
PSOLWIDTH
350
584
  0
XRECORD
  5
58D
102
{ACAD_REACTORS
330
58C
102
}
330
58C
100
AcDbXrecord
102
VTR_0.000_0.000_1.000_1.000_VISUALSTYLE
340
2F
102
VTR_0.000_0.000_1.000_1.000_GRIDDISPLAY
 70
     3
102
VTR_0.000_0.000_1.000_1.000_GRIDMAJOR
 70
     5
102
VTR_0.000_0.000_1.000_1.000_DEFAULTLIGHTING
280
     1
102
VTR_0.000_0.000_1.000_1.000_DEFAULTLIGHTINGTYPE
 70
     1
102
VTR_0.000_0.000_1.000_1.000_BRIGHTNESS
141
0.0
102
VTR_0.000_0.000_1.000_1.000_CONTRAST
142
0.0
  0
MATERIAL
  5
45
102
{ACAD_REACTORS
330
43
102
}
102
{ACAD_XDICTIONARY
360
592
102
}
330
43
100
AcDbMaterial
  1
BYBLOCK
  0
MATERIAL
  5
44
102
{ACAD_REACTORS
330
43
102
}
102
{ACAD_XDICTIONARY
360
590
102
}
330
43
100
AcDbMaterial
  1
BYLAYER
  0
MATERIAL
  5
46
102
{ACAD_REACTORS
330
43
102
}
102
{ACAD_XDICTIONARY
360
594
102
}
330
43
100
AcDbMaterial
  1
GLOBAL
  0
ACAD_PROXY_OBJECT
  5
6C
102
{ACAD_REACTORS
330
6B
102
}
330
6B
100
AcDbProxyObject
 90
      499
 91
      505
 93
      610
310
40901902A4063FBFFFFFE0000000000000020400000000000020404214DD185B99185C990000000000000104090141901A00000000000004100000000000000041025764000000000000039000
340
14
340
0
340
11
340
0
 94
        0
1001
ACAD_MLEADERVER
1070
     2
  0
MLINESTYLE
  5
18
102
{ACAD_REACTORS
330
17
102
}
330
17
100
AcDbMlineStyle
  2
Standard
 70
     0
  3

 62
   256
 51
90.0
 52
90.0
 71
     2
 49
0.5
 62
   256
  6
BYLAYER
 49
-0.5
 62
   256
  6
BYLAYER
  0
ACAD_PROXY_OBJECT
  5
48
102
{ACAD_REACTORS
330
47
102
}
330
47
100
AcDbProxyObject
 90
      499
 91
      503
 93
       41
310
903313A31580
  0
ACAD_PROXY_OBJECT
  5
49
102
{ACAD_REACTORS
330
47
102
}
330
47
100
AcDbProxyObject
 90
      499
 91
      503
 93
      105
310
903313A324000000000000004000
  0
ACAD_PROXY_OBJECT
  5
4A
102
{ACAD_REACTORS
330
47
102
}
330
47
100
AcDbProxyObject
 90
      499
 91
      503
 93
      105
310
903313A344000000000000104000
  0
ACAD_PROXY_OBJECT
  5
4B
102
{ACAD_REACTORS
330
47
102
}
330
47
100
AcDbProxyObject
 90
      499
 91
      503
 93
      105
310
903313A354000000000000144000
  0
ACAD_PROXY_OBJECT
  5
4C
102
{ACAD_REACTORS
330
47
102
}
330
47
100
AcDbProxyObject
 90
      499
 91
      503
 93
      105
310
903313A384000000000000204000
  0
ACAD_PROXY_OBJECT
  5
4D
102
{ACAD_REACTORS
330
47
102
}
330
47
100
AcDbProxyObject
 90
      499
 91
      503
 93
      113
310
904313A31304000000000000244000
  0
ACAD_PROXY_OBJECT
  5
4E
102
{ACAD_REACTORS
330
47
102
}
330
47
100
AcDbProxyObject
 90
      499
 91
      503
 93
      113
310
904313A31364000000000000304000
  0
ACAD_PROXY_OBJECT
  5
4F
102
{ACAD_REACTORS
330
47
102
}
330
47
100
AcDbProxyObject
 90
      499
 91
      503
 93
      113
310
904313A32304000000000000344000
  0
ACAD_PROXY_OBJECT
  5
50
102
{ACAD_REACTORS
330
47
102
}
330
47
100
AcDbProxyObject
 90
      499
 91
      503
 93
      113
310
904313A333040000000000003E4000
  0
ACAD_PROXY_OBJECT
  5
51
102
{ACAD_REACTORS
330
47
102
}
330
47
100
AcDbProxyObject
 90
      499
 91
      503
 93
      113
310
904313A34304000000000000444000
  0
ACAD_PROXY_OBJECT
  5
52
102
{ACAD_REACTORS
330
47
102
}
330
47
100
AcDbProxyObject
 90
      499
 91
      503
 93
      113
310
904313A35304000000000000494000
  0
ACAD_PROXY_OBJECT
  5
53
102
{ACAD_REACTORS
330
47
102
}
330
47
100
AcDbProxyObject
 90
      499
 91
      503
 93
      121
310
905313A3130304000000000000594000
  0
ACAD_PROXY_OBJECT
  5
54
102
{ACAD_REACTORS
330
47
102
}
330
47
100
AcDbProxyObject
 90
      499
 91
      503
 93
      105
310
903323A310000000000000010100
  0
ACAD_PROXY_OBJECT
  5
55
102
{ACAD_REACTORS
330
47
102
}
330
47
100
AcDbProxyObject
 90
      499
 91
      503
 93
      105
310
903343A310000000000000410100
  0
ACAD_PROXY_OBJECT
  5
56
102
{ACAD_REACTORS
330
47
102
}
330
47
100
AcDbProxyObject
 90
      499
 91
      503
 93
      105
310
903383A310000000000000810100
  0
ACAD_PROXY_OBJECT
  5
57
102
{ACAD_REACTORS
330
47
102
}
330
47
100
AcDbProxyObject
 90
      499
 91
      503
 93
      113
310
90431303A310000000000000910100
  0
ACAD_PROXY_OBJECT
  5
58
102
{ACAD_REACTORS
330
47
102
}
330
47
100
AcDbProxyObject
 90
      499
 91
      503
 93
      121
310
9053130303A310000000000001650100
  0
ACAD_PROXY_OBJECT
  5
59
102
{ACAD_REACTORS
330
47
102
}
330
47
100
AcDbProxyObject
 90
      499
 91
      503
 93
      257
310
90E312F31323822203D2031272D3022000000000000200FC000000000000284000
  0
ACAD_PROXY_OBJECT
  5
5A
102
{ACAD_REACTORS
330
47
102
}
330
47
100
AcDbProxyObject
 90
      499
 91
      503
 93
      249
310
90D312F363422203D2031272D3022000000000000240FC000000000000284000
  0
ACAD_PROXY_OBJECT
  5
5B
102
{ACAD_REACTORS
330
47
102
}
330
47
100
AcDbProxyObject
 90
      499
 91
      503
 93
      249
310
90D312F333222203D2031272D3022000000000000280FC000000000000284000
  0
ACAD_PROXY_OBJECT
  5
5C
102
{ACAD_REACTORS
330
47
102
}
330
47
100
AcDbProxyObject
 90
      499
 91
      503
 93
      249
310
90D312F313622203D2031272D30220000000000002C0FC000000000000284000
  0
ACAD_PROXY_OBJECT
  5
5D
102
{ACAD_REACTORS
330
47
102
}
330
47
100
AcDbProxyObject
 90
      499
 91
      503
 93
      249
310
90D332F333222203D2031272D30220000000000002E0FC000000000000284000
  0
ACAD_PROXY_OBJECT
  5
5E
102
{ACAD_REACTORS
330
47
102
}
330
47
100
AcDbProxyObject
 90
      499
 91
      503
 93
      241
310
90C312F3822203D2031272D3022000000000000300FC000000000000284000
  0
ACAD_PROXY_OBJECT
  5
5F
102
{ACAD_REACTORS
330
47
102
}
330
47
100
AcDbProxyObject
 90
      499
 91
      503
 93
      249
310
90D332F313622203D2031272D3022000000000000320FC000000000000284000
  0
ACAD_PROXY_OBJECT
  5
60
102
{ACAD_REACTORS
330
47
102
}
330
47
100
AcDbProxyObject
 90
      499
 91
      503
 93
      241
310
90C312F3422203D2031272D3022000000000000340FC000000000000284000
  0
ACAD_PROXY_OBJECT
  5
61
102
{ACAD_REACTORS
330
47
102
}
330
47
100
AcDbProxyObject
 90
      499
 91
      503
 93
      241
310
90C332F3822203D2031272D3022000000000000360FC000000000000284000
  0
ACAD_PROXY_OBJECT
  5
62
102
{ACAD_REACTORS
330
47
102
}
330
47
100
AcDbProxyObject
 90
      499
 91
      503
 93
      241
310
90C312F3222203D2031272D3022000000000000380FC000000000000284000
  0
ACAD_PROXY_OBJECT
  5
63
102
{ACAD_REACTORS
330
47
102
}
330
47
100
AcDbProxyObject
 90
      499
 91
      503
 93
      241
310
90C332F3422203D2031272D30220000000000003A0FC000000000000284000
  0
ACAD_PROXY_OBJECT
  5
64
102
{ACAD_REACTORS
330
47
102
}
330
47
100
AcDbProxyObject
 90
      499
 91
      503
 93
      161
310
90A3122203D2031272D30224000000000000284000
  0
ACAD_PROXY_OBJECT
  5
65
102
{ACAD_REACTORS
330
47
102
}
330
47
100
AcDbProxyObject
 90
      499
 91
      503
 93
      257
310
90E312D312F3222203D2031272D30220000000000003E0FC000000000000284000
  0
ACAD_PROXY_OBJECT
  5
66
102
{ACAD_REACTORS
330
47
102
}
330
47
100
AcDbProxyObject
 90
      499
 91
      503
 93
      225
310
90A3322203D2031272D302200000000000002100000000000000284000
  0
ACAD_PROXY_OBJECT
  5
67
102
{ACAD_REACTORS
330
47
102
}
330
47
100
AcDbProxyObject
 90
      499
 91
      503
 93
      225
310
90A3622203D2031272D302200000000000006100000000000000284000
  0
ACAD_PROXY_OBJECT
  5
68
102
{ACAD_REACTORS
330
47
102
}
330
47
100
AcDbProxyObject
 90
      499
 91
      503
 93
      249
310
90D31272D3022203D2031272D30220000000000000A100000000000000284000
  0
ACAD_PROXY_OBJECT
  5
2F
102
{ACAD_REACTORS
330
2A
102
}
330
2A
100
AcDbProxyObject
 90
      499
 91
      501
 93
      436
310
42CC9915DA5C99599C985B595049028333333333333E33F0000000000000F90107901411070040501600405405064090741402480A0340
1001
ACAD
1000
AcDbSavedByObjectVersion
1070
     0
  0
ACAD_PROXY_OBJECT
  5
32
102
{ACAD_REACTORS
330
2A
102
}
330
2A
100
AcDbProxyObject
 90
      499
 91
      501
 93
      388
310
4150985CDA58D07406404333333333333E33F0000000000000F90107A41107004050150841D405064090741402480A0350
1001
ACAD
1000
AcDbSavedByObjectVersion
1070
     0
  0
ACAD_PROXY_OBJECT
  5
36
102
{ACAD_REACTORS
330
2A
102
}
330
2A
100
AcDbProxyObject
 90
      499
 91
      501
 93
      428
310
42109C9A59DA1D195B90C409028333333333333E33F0000000000000F9010790141107004050150841D405064090741402480A029950
1001
ACAD
1000
AcDbSavedByObjectVersion
1070
     0
  0
ACAD_PROXY_OBJECT
  5
3A
102
{ACAD_REACTORS
330
2A
102
}
330
2A
100
AcDbProxyObject
 90
      499
 91
      501
 93
      452
310
42D0DBDB1BDC90DA185B99D95104090240C333333333333E33F0000000000000F90108901411070040501508421405064090741402480A0350
1001
ACAD
1000
AcDbSavedByObjectVersion
1070
     0
  0
ACAD_PROXY_OBJECT
  5
34
102
{ACAD_REACTORS
330
2A
102
}
330
2A
100
AcDbProxyObject
 90
      499
 91
      501
 93
      500
310
4290DBDB98D95C1D1D585B10940D028333333333333E33F0000000000000F90107902409070040501000000000018199010841D405064090740C02480A0340
1001
ACAD
1000
AcDbSavedByObjectVersion
1070
     0
  0
ACAD_PROXY_OBJECT
  5
35
102
{ACAD_REACTORS
330
2A
102
}
330
2A
100
AcDbProxyObject
 90
      499
 91
      501
 93
      412
310
40D11A5B50B409028333333333333E33F0000000000000F9010790141107004050150841D405064090741402480A02677FFFFFD0
1001
ACAD
1000
AcDbSavedByObjectVersion
1070
     0
  0
ACAD_PROXY_OBJECT
  5
3D
102
{ACAD_REACTORS
330
2A
102
}
330
2A
100
AcDbProxyObject
 90
      499
 91
      501
 93
      452
310
43115919D950DBDB1BDC93D999916409028333333333333E33F0000000000000F9010790141107004050150841D405064090741402480A0350
1001
ACAD
1000
AcDbSavedByObjectVersion
1070
     0
  0
ACAD_PROXY_OBJECT
  5
39
102
{ACAD_REACTORS
330
2A
102
}
330
2A
100
AcDbProxyObject
 90
      499
 91
      501
 93
      444
310
42D19858D95C185D1D195C9B90F409028333333333333E33F0000000000000F9010790141107004050150841D405064090741402480A0350
1001
ACAD
1000
AcDbSavedByObjectVersion
1070
     0
  0
ACAD_PROXY_OBJECT
  5
2B
102
{ACAD_REACTORS
330
2A
102
}
330
2A
100
AcDbProxyObject
 90
      499
 91
      501
 93
      380
310
41119B185D240901404333333333333E33F0000000000000F9010740A907004050150841D405064090741402480A1B50
1001
ACAD
1000
AcDbSavedByObjectVersion
1070
     0
  0
ACAD_PROXY_OBJECT
  5
2C
102
{ACAD_REACTORS
330
2A
102
}
330
2A
100
AcDbProxyObject
 90
      499
 91
      501
 93
      468
310
43519B185D15DA5D1A115919D95CD0140901404333333333333E33F0000000000000F90107409019070040501600405405064090741402480A1B50
1001
ACAD
1000
AcDbSavedByObjectVersion
1070
     0
  0
ACAD_PROXY_OBJECT
  5
2D
102
{ACAD_REACTORS
330
2A
102
}
330
2A
100
AcDbProxyObject
 90
      499
 91
      501
 93
      404
310
41D1DBDD5C985D5910240902404333333333333E33F0000000000000F9010740A9070040501641D405064090741402480A1B50
1001
ACAD
1000
AcDbSavedByObjectVersion
1070
     0
  0
ACAD_PROXY_OBJECT
  5
2E
102
{ACAD_REACTORS
330
2A
102
}
330
2A
100
AcDbProxyObject
 90
      499
 91
      501
 93
      492
310
4411DBDD5C985D5915DA5D1A115919D95CD0340902404333333333333E33F0000000000000F90107409019070040501600405405064090741402480A1B50
1001
ACAD
1000
AcDbSavedByObjectVersion
1070
     0
  0
ACAD_PROXY_OBJECT
  5
31
102
{ACAD_REACTORS
330
2A
102
}
330
2A
100
AcDbProxyObject
 90
      499
 91
      501
 93
      476
310
41921A5919195B90640502408333333333333E33F0000000000000F901079024090700405020000000000001110200405405064090740C02480A0340
1001
ACAD
1000
AcDbSavedByObjectVersion
1070
     0
  0
ACAD_PROXY_OBJECT
  5
3B
102
{ACAD_REACTORS
330
2A
102
}
330
2A
100
AcDbProxyObject
 90
      499
 91
      501
 93
      428
310
42529A5D1D195C93D999914409028333333333333E33F0000000000000F9010790141107004050150A41D405064090741402480A0350
1001
ACAD
1000
AcDbSavedByObjectVersion
1070
     0
  0
ACAD_PROXY_OBJECT
  5
38
102
{ACAD_REACTORS
330
2A
102
}
330
2A
100
AcDbProxyObject
 90
      499
 91
      501
 93
      444
310
42D31A5B995C185D1D195C9B90E409028333333333333E33F0000000000000F9010790141107004050750841D405064090741402483A0350
1001
ACAD
1000
AcDbSavedByObjectVersion
1070
     0
  0
ACAD_PROXY_OBJECT
  5
3C
102
{ACAD_REACTORS
330
2A
102
}
330
2A
100
AcDbProxyObject
 90
      499
 91
      501
 93
      444
310
42D3DD995C9A185B99D3D999915409028333333333333E33F0000000000000F9010790141107004050150941D405064090741402480A0350
1001
ACAD
1000
AcDbSavedByObjectVersion
1070
     0
  0
ACAD_PROXY_OBJECT
  5
33
102
{ACAD_REACTORS
330
2A
102
}
330
2A
100
AcDbProxyObject
 90
      499
 91
      501
 93
      428
310
425499585B1A5CDD1A58D08409038333333333333E33F0000000000000F9010740A907004050150800405405064090740C02480A1B40
1001
ACAD
1000
AcDbSavedByObjectVersion
1070
     0
  0
ACAD_PROXY_OBJECT
  5
42
102
{ACAD_REACTORS
330
2A
102
}
330
2A
100
AcDbProxyObject
 90
      499
 91
      501
 93
      420
310
4194DA1859195911B40902404333333333333E33F0000000000000F9010740A41107004050150800405405064090840C02480A0B40
1001
ACAD
1000
AcDbSavedByObjectVersion
1070
     0
  0
ACAD_PROXY_OBJECT
  5
41
102
{ACAD_REACTORS
330
2A
102
}
330
2A
100
AcDbProxyObject
 90
      499
 91
      501
 93
      516
310
4454DA18591959081DDA5D1A08195919D95CD1A40902404333333333333E33F0000000000000F901074090142907004050250800405405064090740C02480A0B40
1001
ACAD
1000
AcDbSavedByObjectVersion
1070
     0
  0
ACAD_PROXY_OBJECT
  5
3E
102
{ACAD_REACTORS
330
2A
102
}
330
2A
100
AcDbProxyObject
 90
      499
 91
      501
 93
      532
310
4394DA1859195CC81BD98811DC985E5174090240C333333333333E33F0000000000000F901079024090741D01000000000000111010841D405064090740C02480A0340
1001
ACAD
1000
AcDbSavedByObjectVersion
1070
     0
  0
ACAD_PROXY_OBJECT
  5
3F
102
{ACAD_REACTORS
330
2A
102
}
330
2A
100
AcDbProxyObject
 90
      499
 91
      501
 93
      476
310
41D4DAD95D18DA1E51840502408333333333333E33F0000000000000F901079024090741D01000000000000111010B41D405064090741802480A0340
1001
ACAD
1000
AcDbSavedByObjectVersion
1070
     0
  0
ACAD_PROXY_OBJECT
  5
37
102
{ACAD_REACTORS
330
2A
102
}
330
2A
100
AcDbProxyObject
 90
      499
 91
      501
 93
      412
310
41D51A1A58DAD95B90D409028333333333333E33F0000000000000F9010790141107004050150C41D405064090741402480A0350
1001
ACAD
1000
AcDbSavedByObjectVersion
1070
     0
  0
ACAD_PROXY_OBJECT
  5
30
102
{ACAD_REACTORS
330
2A
102
}
330
2A
100
AcDbProxyObject
 90
      499
 91
      501
 93
      420
310
4255DA5C99599C985B595059028333333333333E33F0000000000000F90107901411070040501600405405064090740C02480A0340
1001
ACAD
1000
AcDbSavedByObjectVersion
1070
     0
  0
ACAD_PROXY_OBJECT
  5
40
102
{ACAD_REACTORS
330
2A
102
}
330
2A
100
AcDbProxyObject
 90
      499
 91
      501
 93
      404
310
41560B54985E51940902404000000000000E03F0000000000000F9010740501907004050150841D405064090740C02480A1B40
1001
ACAD
1000
AcDbSavedByObjectVersion
1070
     0
  0
XRECORD
  5
56A
102
{ACAD_REACTORS
330
560
102
}
330
560
100
AcDbXrecord
340
0
  0
XRECORD
  5
569
102
{ACAD_REACTORS
330
560
102
}
330
560
100
AcDbXrecord
 90
        0
  0
XRECORD
  5
580
102
{ACAD_REACTORS
330
560
102
}
330
560
100
AcDbXrecord
1000
DSTYLE
1002
{
1070
   340
340
11
1002
}
  0
XRECORD
  5
56B
102
{ACAD_REACTORS
330
560
102
}
330
560
100
AcDbXrecord
  1
{55cf483e-2785-4c1b-b87d-8763782d819c}
  0
XRECORD
  5
563
102
{ACAD_REACTORS
330
560
102
}
330
560
100
AcDbXrecord
  1

  0
XRECORD
  5
568
102
{ACAD_REACTORS
330
560
102
}
330
560
100
AcDbXrecord
 90
        4
  0
XRECORD
  5
565
102
{ACAD_REACTORS
330
560
102
}
330
560
100
AcDbXrecord
340
1A
  0
XRECORD
  5
567
102
{ACAD_REACTORS
330
560
102
}
330
560
100
AcDbXrecord
 90
    10781
  0
XRECORD
  5
566
102
{ACAD_REACTORS
330
560
102
}
330
560
100
AcDbXrecord
340
19
  0
XRECORD
  5
56D
102
{ACAD_REACTORS
330
560
102
}
330
560
100
AcDbXrecord
 40
0.0
  0
XRECORD
  5
570
102
{ACAD_REACTORS
330
560
102
}
330
560
100
AcDbXrecord
340
0
  0
XRECORD
  5
576
102
{ACAD_REACTORS
330
560
102
}
330
560
100
AcDbXrecord
 10
0.0
 20
0.0
 30
0.0
  0
XRECORD
  5
572
102
{ACAD_REACTORS
330
560
102
}
330
560
100
AcDbXrecord
 10
0.0
 20
0.0
 30
0.0
  0
XRECORD
  5
575
102
{ACAD_REACTORS
330
560
102
}
330
560
100
AcDbXrecord
 10
0.0
 20
0.0
 30
0.0
  0
XRECORD
  5
573
102
{ACAD_REACTORS
330
560
102
}
330
560
100
AcDbXrecord
 10
0.0
 20
0.0
 30
0.0
  0
XRECORD
  5
574
102
{ACAD_REACTORS
330
560
102
}
330
560
100
AcDbXrecord
 10
0.0
 20
0.0
 30
0.0
  0
XRECORD
  5
571
102
{ACAD_REACTORS
330
560
102
}
330
560
100
AcDbXrecord
 10
0.0
 20
0.0
 30
0.0
  0
XRECORD
  5
56E
102
{ACAD_REACTORS
330
560
102
}
330
560
100
AcDbXrecord
340
0
  0
XRECORD
  5
56F
102
{ACAD_REACTORS
330
560
102
}
330
560
100
AcDbXrecord
 70
     0
  0
XRECORD
  5
564
102
{ACAD_REACTORS
330
560
102
}
330
560
100
AcDbXrecord
  1

  0
XRECORD
  5
561
102
{ACAD_REACTORS
330
560
102
}
330
560
100
AcDbXrecord
 90
        1
  0
XRECORD
  5
562
102
{ACAD_REACTORS
330
560
102
}
330
560
100
AcDbXrecord
 90
       70
  0
XRECORD
  5
579
102
{ACAD_REACTORS
330
560
102
}
330
560
100
AcDbXrecord
340
0
  0
XRECORD
  5
57F
102
{ACAD_REACTORS
330
560
102
}
330
560
100
AcDbXrecord
 10
0.0
 20
0.0
 30
0.0
  0
XRECORD
  5
57B
102
{ACAD_REACTORS
330
560
102
}
330
560
100
AcDbXrecord
 10
0.0
 20
0.0
 30
0.0
  0
XRECORD
  5
57E
102
{ACAD_REACTORS
330
560
102
}
330
560
100
AcDbXrecord
 10
0.0
 20
0.0
 30
0.0
  0
XRECORD
  5
57C
102
{ACAD_REACTORS
330
560
102
}
330
560
100
AcDbXrecord
 10
0.0
 20
0.0
 30
0.0
  0
XRECORD
  5
57D
102
{ACAD_REACTORS
330
560
102
}
330
560
100
AcDbXrecord
 10
0.0
 20
0.0
 30
0.0
  0
XRECORD
  5
57A
102
{ACAD_REACTORS
330
560
102
}
330
560
100
AcDbXrecord
 10
0.0
 20
0.0
 30
0.0
  0
XRECORD
  5
577
102
{ACAD_REACTORS
330
560
102
}
330
560
100
AcDbXrecord
340
0
  0
XRECORD
  5
578
102
{ACAD_REACTORS
330
560
102
}
330
560
100
AcDbXrecord
 70
     0
  0
XRECORD
  5
56C
102
{ACAD_REACTORS
330
560
102
}
330
560
100
AcDbXrecord
  1
{FAEB1C32-E019-11D5-929B-00C0DF256EC4}
  0
DICTIONARYVAR
  5
58E
102
{ACAD_REACTORS
330
581
102
}
330
581
100
DictionaryVariables
280
     0
  1
1:1
  0
DICTIONARYVAR
  5
588
102
{ACAD_REACTORS
330
581
102
}
330
581
100
DictionaryVariables
280
     0
  1
3.500000
  0
DICTIONARYVAR
  5
589
102
{ACAD_REACTORS
330
581
102
}
330
581
100
DictionaryVariables
280
     0
  1
acadiso.lin
  0
DICTIONARYVAR
  5
583
102
{ACAD_REACTORS
330
581
102
}
330
581
100
DictionaryVariables
280
     0
  1
Standard
  0
DICTIONARYVAR
  5
582
102
{ACAD_REACTORS
330
581
102
}
330
581
100
DictionaryVariables
280
     0
  1
Standard
  0
DICTIONARYVAR
  5
58A
102
{ACAD_REACTORS
330
581
102
}
330
581
100
DictionaryVariables
280
     0
  1
2
  0
DICTIONARYVAR
  5
58B
102
{ACAD_REACTORS
330
581
102
}
330
581
100
DictionaryVariables
280
     0
  1
1
  0
DICTIONARYVAR
  5
58F
102
{ACAD_REACTORS
330
581
102
}
330
581
100
DictionaryVariables
280
     0
  1
1
  0
DICTIONARYVAR
  5
585
102
{ACAD_REACTORS
330
581
102
}
330
581
100
DictionaryVariables
280
     0
  1
80.000000
  0
DICTIONARYVAR
  5
584
102
{ACAD_REACTORS
330
581
102
}
330
581
100
DictionaryVariables
280
     0
  1
5.000000
  0
DICTIONARY
  5
592
330
45
100
AcDbDictionary
280
     1
  3
ACAD_XREC_ROUNDTRIP
360
593
  0
DICTIONARY
  5
590
330
44
100
AcDbDictionary
280
     1
  3
ACAD_XREC_ROUNDTRIP
360
591
  0
DICTIONARY
  5
594
330
46
100
AcDbDictionary
280
     1
  3
ACAD_XREC_ROUNDTRIP
360
595
  0
XRECORD
  5
593
102
{ACAD_REACTORS
330
592
102
}
330
592
100
AcDbXrecord
102
MATERIAL
148
0.0
149
0.0
149
0.0
 93
        0
 94
      127
282
     0
 72
     1
 77
     1
171
     1
175
     1
179
     1
273
     0
  0
XRECORD
  5
591
102
{ACAD_REACTORS
330
590
102
}
330
590
100
AcDbXrecord
102
MATERIAL
148
0.0
149
0.0
149
0.0
 93
        0
 94
      127
282
     0
 72
     1
 77
     1
171
     1
175
     1
179
     1
273
     0
  0
XRECORD
  5
595
102
{ACAD_REACTORS
330
594
102
}
330
594
100
AcDbXrecord
102
MATERIAL
148
0.0
149
0.0
149
0.0
 93
        0
 94
      127
282
     0
 72
     1
 77
     1
171
     1
175
     1
179
     1
273
     0
  0
ENDSEC
  0
EOF
