  0
SECTION
  2
HEADER
  9
$ACADVER
  1
AC1014
  9
$ACADMAINTVER
 70
     9
  9
$DWGCODEPAGE
  3
ANSI_932
  9
$INSBASE
 10
0.0
 20
0.0
 30
0.0
  9
$EXTMIN
 10
75.0
 20
150.0
 30
0.0
  9
$EXTMAX
 10
5775.000000000001
 20
4200.0
 30
0.0
  9
$LIMMIN
 10
0.0
 20
0.0
  9
$LIMMAX
 10
420.0
 20
297.0
  9
$ORTHOMODE
 70
     0
  9
$REGENMODE
 70
     1
  9
$FILLMODE
 70
     1
  9
$QTEXTMODE
 70
     0
  9
$MIRRTEXT
 70
     1
  9
$DRAGMODE
 70
     2
  9
$LTSCALE
 40
0.2
  9
$OSMODE
 70
    37
  9
$ATTMODE
 70
     1
  9
$TEXTSIZE
 40
2.5
  9
$TRACEWID
 40
1.0
  9
$TEXTSTYLE
  7
STANDARD
  9
$CLAYER
  8
LAY-10
  9
$CELTYPE
  6
BYLAYER
  9
$CECOLOR
 62
   256
  9
$CELTSCALE
 40
1.0
  9
$DELOBJ
 70
     1
  9
$DISPSILH
 70
     0
  9
$DIMSCALE
 40
1.0
  9
$DIMASZ
 40
2.5
  9
$DIMEXO
 40
0.625
  9
$DIMDLI
 40
3.75
  9
$DIMRND
 40
0.0
  9
$DIMDLE
 40
0.0
  9
$DIMEXE
 40
1.25
  9
$DIMTP
 40
0.0
  9
$DIMTM
 40
0.0
  9
$DIMTXT
 40
2.5
  9
$DIMCEN
 40
2.5
  9
$DIMTSZ
 40
0.0
  9
$DIMTOL
 70
     0
  9
$DIMLIM
 70
     0
  9
$DIMTIH
 70
     0
  9
$DIMTOH
 70
     0
  9
$DIMSE1
 70
     0
  9
$DIMSE2
 70
     0
  9
$DIMTAD
 70
     1
  9
$DIMZIN
 70
     8
  9
$DIMBLK
  1

  9
$DIMASO
 70
     1
  9
$DIMSHO
 70
     1
  9
$DIMPOST
  1

  9
$DIMAPOST
  1

  9
$DIMALT
 70
     0
  9
$DIMALTD
 70
     3
  9
$DIMALTF
 40
0.03937007874016
  9
$DIMLFAC
 40
1.0
  9
$DIMTOFL
 70
     1
  9
$DIMTVP
 40
0.0
  9
$DIMTIX
 70
     0
  9
$DIMSOXD
 70
     0
  9
$DIMSAH
 70
     0
  9
$DIMBLK1
  1

  9
$DIMBLK2
  1

  9
$DIMSTYLE
  2
ISO-25
  9
$DIMCLRD
 70
     0
  9
$DIMCLRE
 70
     0
  9
$DIMCLRT
 70
     0
  9
$DIMTFAC
 40
1.0
  9
$DIMGAP
 40
0.625
  9
$DIMJUST
 70
     0
  9
$DIMSD1
 70
     0
  9
$DIMSD2
 70
     0
  9
$DIMTOLJ
 70
     0
  9
$DIMTZIN
 70
     8
  9
$DIMALTZ
 70
     0
  9
$DIMALTTZ
 70
     0
  9
$DIMFIT
 70
     3
  9
$DIMUPT
 70
     0
  9
$DIMUNIT
 70
     2
  9
$DIMDEC
 70
     2
  9
$DIMTDEC
 70
     2
  9
$DIMALTU
 70
     2
  9
$DIMALTTD
 70
     3
  9
$DIMTXSTY
  7
STANDARD
  9
$DIMAUNIT
 70
     0
  9
$LUNITS
 70
     2
  9
$LUPREC
 70
     4
  9
$SKETCHINC
 40
1.0
  9
$FILLETRAD
 40
10.0
  9
$AUNITS
 70
     0
  9
$AUPREC
 70
     0
  9
$MENU
  1
.
  9
$ELEVATION
 40
0.0
  9
$PELEVATION
 40
0.0
  9
$THICKNESS
 40
0.0
  9
$LIMCHECK
 70
     0
  9
$CHAMFERA
 40
0.0
  9
$CHAMFERB
 40
0.0
  9
$CHAMFERC
 40
0.0
  9
$CHAMFERD
 40
0.0
  9
$SKPOLY
 70
     0
  9
$TDCREATE
 40
2459229.336009861
  9
$TDUPDATE
 40
2459229.336010498
  9
$TDINDWG
 40
0.0000000116
  9
$TDUSRTIMER
 40
0.0000000116
  9
$USRTIMER
 70
     1
  9
$ANGBASE
 50
0.0
  9
$ANGDIR
 70
     0
  9
$PDMODE
 70
     0
  9
$PDSIZE
 40
0.0
  9
$PLINEWID
 40
0.0
  9
$COORDS
 70
     1
  9
$SPLFRAME
 70
     0
  9
$SPLINETYPE
 70
     6
  9
$SPLINESEGS
 70
     8
  9
$ATTDIA
 70
     0
  9
$ATTREQ
 70
     1
  9
$HANDLING
 70
     1
  9
$HANDSEED
  5
58A
  9
$SURFTAB1
 70
     6
  9
$SURFTAB2
 70
     6
  9
$SURFTYPE
 70
     6
  9
$SURFU
 70
     6
  9
$SURFV
 70
     6
  9
$UCSNAME
  2

  9
$UCSORG
 10
0.0
 20
0.0
 30
0.0
  9
$UCSXDIR
 10
1.0
 20
0.0
 30
0.0
  9
$UCSYDIR
 10
0.0
 20
1.0
 30
0.0
  9
$PUCSNAME
  2

  9
$PUCSORG
 10
0.0
 20
0.0
 30
0.0
  9
$PUCSXDIR
 10
1.0
 20
0.0
 30
0.0
  9
$PUCSYDIR
 10
0.0
 20
1.0
 30
0.0
  9
$USERI1
 70
     0
  9
$USERI2
 70
     0
  9
$USERI3
 70
     0
  9
$USERI4
 70
     0
  9
$USERI5
 70
     0
  9
$USERR1
 40
0.0
  9
$USERR2
 40
0.0
  9
$USERR3
 40
0.0
  9
$USERR4
 40
0.0
  9
$USERR5
 40
0.0
  9
$WORLDVIEW
 70
     1
  9
$SHADEDGE
 70
     3
  9
$SHADEDIF
 70
    70
  9
$TILEMODE
 70
     1
  9
$MAXACTVP
 70
    64
  9
$PINSBASE
 10
0.0
 20
0.0
 30
0.0
  9
$PLIMCHECK
 70
     0
  9
$PEXTMIN
 10
1.000000000000000E+20
 20
1.000000000000000E+20
 30
1.000000000000000E+20
  9
$PEXTMAX
 10
-1.000000000000000E+20
 20
-1.000000000000000E+20
 30
-1.000000000000000E+20
  9
$PLIMMIN
 10
0.0
 20
0.0
  9
$PLIMMAX
 10
420.0
 20
297.0
  9
$UNITMODE
 70
     0
  9
$VISRETAIN
 70
     1
  9
$PLINEGEN
 70
     0
  9
$PSLTSCALE
 70
     1
  9
$TREEDEPTH
 70
  3020
  9
$PICKSTYLE
 70
     1
  9
$CMLSTYLE
  2
STANDARD
  9
$CMLJUST
 70
     0
  9
$CMLSCALE
 40
20.0
  9
$PROXYGRAPHICS
 70
     1
  9
$MEASUREMENT
 70
     1
  0
ENDSEC
  0
SECTION
  2
CLASSES
  0
CLASS
  1
ACDBDICTIONARYWDFLT
  2
AcDbDictionaryWithDefault
  3
ObjectDBX Classes
 90
        0
280
     0
281
     0
  0
CLASS
  1
VISUALSTYLE
  2
AcDbVisualStyle
  3
ObjectDBX Classes
 90
     4095
280
     0
281
     0
  0
CLASS
  1
MATERIAL
  2
AcDbMaterial
  3
ObjectDBX Classes
 90
     1153
280
     0
281
     0
  0
CLASS
  1
SCALE
  2
AcDbScale
  3
ObjectDBX Classes
 90
     1153
280
     0
281
     0
  0
CLASS
  1
TABLESTYLE
  2
AcDbTableStyle
  3
ObjectDBX Classes
 90
     4095
280
     0
281
     0
  0
CLASS
  1
MLEADERSTYLE
  2
AcDbMLeaderStyle
  3
ACDB_MLEADERSTYLE_CLASS
 90
     4095
280
     0
281
     0
  0
CLASS
  1
SUN
  2
AcDbSun
  3
SCENEOE
 90
     1153
280
     0
281
     0
  0
CLASS
  1
DICTIONARYVAR
  2
AcDbDictionaryVar
  3
ObjectDBX Classes
 90
        0
280
     0
281
     0
  0
CLASS
  1
XRECORD
  2
AcDbXrecord
  3
ObjectDBX Classes
 90
        0
280
     0
281
     0
  0
CLASS
  1
LWPOLYLINE
  2
AcDbPolyline
  3
ObjectDBX Classes
 90
        0
280
     0
281
     1
  0
CLASS
  1
HATCH
  2
AcDbHatch
  3
ObjectDBX Classes
 90
        0
280
     0
281
     1
  0
CLASS
  1
ACDBPLACEHOLDER
  2
AcDbPlaceHolder
  3
ObjectDBX Classes
 90
        0
280
     0
281
     0
  0
CLASS
  1
LAYOUT
  2
AcDbLayout
  3
ObjectDBX Classes
 90
        0
280
     0
281
     0
  0
ENDSEC
  0
SECTION
  2
TABLES
  0
TABLE
  2
VPORT
  5
8
102
{ACAD_XDICTIONARY
360
57F
102
}
330
0
100
AcDbSymbolTable
 70
     1
  0
VPORT
  5
29
330
8
100
AcDbSymbolTableRecord
100
AcDbViewportTableRecord
  2
*ACTIVE
 70
     0
 10
0.0
 20
0.0
 11
1.0
 21
1.0
 12
2925.0
 22
2175.0
 13
0.0
 23
0.0
 14
10.0
 24
10.0
 15
10.0
 25
10.0
 16
0.0
 26
0.0
 36
1.0
 17
0.0
 27
0.0
 37
0.0
 40
4050.0
 41
1.407407407407408
 42
50.0
 43
0.0
 44
0.0
 50
0.0
 51
0.0
 71
     0
 72
  1000
 73
     1
 74
     3
 75
     0
 76
     0
 77
     0
 78
     0
  0
ENDTAB
  0
TABLE
  2
LTYPE
  5
5
330
0
100
AcDbSymbolTable
 70
     6
  0
LTYPE
  5
14
330
5
100
AcDbSymbolTableRecord
100
AcDbLinetypeTableRecord
  2
BYBLOCK
 70
     0
  3

 72
    65
 73
     0
 40
0.0
  0
LTYPE
  5
15
330
5
100
AcDbSymbolTableRecord
100
AcDbLinetypeTableRecord
  2
BYLAYER
 70
     0
  3

 72
    65
 73
     0
 40
0.0
  0
LTYPE
  5
16
330
5
100
AcDbSymbolTableRecord
100
AcDbLinetypeTableRecord
  2
CONTINUOUS
 70
     0
  3
Solid line
 72
    65
 73
     0
 40
0.0
  0
LTYPE
  5
6E
330
5
100
AcDbSymbolTableRecord
100
AcDbLinetypeTableRecord
  2
HIDDEN
 70
     0
  3
Hidden __ __ __ __ __ __ __ __ __ __ __ __ __ __
 72
    65
 73
     2
 40
9.524999999999999
 49
6.35
 74
     0
 49
-3.175
 74
     0
  0
LTYPE
  5
6F
330
5
100
AcDbSymbolTableRecord
100
AcDbLinetypeTableRecord
  2
CENTER
 70
     0
  3
Center ____ _ ____ _ ____ _ ____ _ ____ _ ____
 72
    65
 73
     4
 40
50.8
 49
31.75
 74
     0
 49
-6.35
 74
     0
 49
6.35
 74
     0
 49
-6.35
 74
     0
  0
LTYPE
  5
70
330
5
100
AcDbSymbolTableRecord
100
AcDbLinetypeTableRecord
  2
PHANTOM
 70
     0
  3
Phantom ______  __  __  ______  __  __  ______ 
 72
    65
 73
     6
 40
63.50000000000001
 49
31.75
 74
     0
 49
-6.35
 74
     0
 49
6.35
 74
     0
 49
-6.35
 74
     0
 49
6.35
 74
     0
 49
-6.35
 74
     0
  0
LTYPE
  5
71
330
5
100
AcDbSymbolTableRecord
100
AcDbLinetypeTableRecord
  2
ACAD_ISO06W100
 70
     0
  3
ISO long-dash triple-dot ____ ... ____ ... ____
 72
    65
 73
     8
 40
36.0
 49
24.0
 74
     0
 49
-3.0
 74
     0
 49
0.0
 74
     0
 49
-3.0
 74
     0
 49
0.0
 74
     0
 49
-3.0
 74
     0
 49
0.0
 74
     0
 49
-3.0
 74
     0
  0
LTYPE
  5
72
330
5
100
AcDbSymbolTableRecord
100
AcDbLinetypeTableRecord
  2
ACAD_ISO15W100
 70
     0
  3
ISO double-dash triple-dot __ __ . . . __ __ . .
 72
    65
 73
    10
 40
39.0
 49
12.0
 74
     0
 49
-3.0
 74
     0
 49
12.0
 74
     0
 49
-3.0
 74
     0
 49
0.0
 74
     0
 49
-3.0
 74
     0
 49
0.0
 74
     0
 49
-3.0
 74
     0
 49
0.0
 74
     0
 49
-3.0
 74
     0
  0
ENDTAB
  0
TABLE
  2
LAYER
  5
2
330
0
100
AcDbSymbolTable
 70
     7
  0
LAYER
  5
10
330
2
100
AcDbSymbolTableRecord
100
AcDbLayerTableRecord
  2
0
 70
     0
 62
     7
  6
CONTINUOUS
  0
LAYER
  5
75
330
2
100
AcDbSymbolTableRecord
100
AcDbLayerTableRecord
  2
LAY-10
 70
     0
 62
     7
  6
CONTINUOUS
  0
LAYER
  5
76
330
2
100
AcDbSymbolTableRecord
100
AcDbLayerTableRecord
  2
LAY-11
 70
     0
 62
     7
  6
CONTINUOUS
  0
LAYER
  5
77
330
2
100
AcDbSymbolTableRecord
100
AcDbLayerTableRecord
  2
LAY-12
 70
     0
 62
     7
  6
CONTINUOUS
  0
LAYER
  5
78
330
2
100
AcDbSymbolTableRecord
100
AcDbLayerTableRecord
  2
LAY-20
 70
     0
 62
     7
  6
CONTINUOUS
  0
LAYER
  5
79
330
2
100
AcDbSymbolTableRecord
100
AcDbLayerTableRecord
  2
LAY-255
 70
     0
 62
     7
  6
CONTINUOUS
  0
LAYER
  5
484
330
2
100
AcDbSymbolTableRecord
100
AcDbLayerTableRecord
  2
DEFPOINTS
 70
     0
 62
     7
  6
CONTINUOUS
  0
ENDTAB
  0
TABLE
  2
STYLE
  5
3
330
0
100
AcDbSymbolTable
 70
     4
  0
STYLE
  5
11
330
3
100
AcDbSymbolTableRecord
100
AcDbTextStyleTableRecord
  2
STANDARD
 70
     0
 40
0.0
 41
1.0
 50
0.0
 71
     0
 42
2.5
  3
simplex
  4
bigfont
  0
STYLE
  5
73
330
3
100
AcDbSymbolTableRecord
100
AcDbTextStyleTableRecord
  2
EXCADSTD
 70
     0
 40
0.0
 41
1.0
 50
0.0
 71
     0
 42
2.5
  3
simplex
  4
bigfont
  0
STYLE
  5
74
330
3
100
AcDbSymbolTableRecord
100
AcDbTextStyleTableRecord
  2
EXCADVERT
 70
     4
 40
0.0
 41
1.0
 50
0.0
 71
     0
 42
2.5
  3
simplex
  4
bigfont
  0
STYLE
  5
482
330
3
100
AcDbSymbolTableRecord
100
AcDbTextStyleTableRecord
  2
EXCADDIM1
 70
     0
 40
0.0
 41
0.84
 50
0.0
 71
     0
 42
2.5
  3
simplex
  4
bigfont
  0
ENDTAB
  0
TABLE
  2
VIEW
  5
6
330
0
100
AcDbSymbolTable
 70
     0
  0
ENDTAB
  0
TABLE
  2
UCS
  5
7
330
0
100
AcDbSymbolTable
 70
     0
  0
ENDTAB
  0
TABLE
  2
APPID
  5
9
330
0
100
AcDbSymbolTable
 70
     2
  0
APPID
  5
12
330
9
100
AcDbSymbolTableRecord
100
AcDbRegAppTableRecord
  2
ACAD
 70
     0
  0
APPID
  5
589
330
9
100
AcDbSymbolTableRecord
100
AcDbRegAppTableRecord
  2
ACAD_MLEADERVER
 70
     0
  0
ENDTAB
  0
TABLE
  2
DIMSTYLE
  5
A
330
0
100
AcDbSymbolTable
 70
     1
  0
DIMSTYLE
105
27
102
{ACAD_REACTORS
330
483
330
491
330
49D
330
4AA
330
4B6
330
4C1
330
4CD
330
4DA
330
4E6
330
4F4
330
501
330
50E
330
51B
102
}
330
A
100
AcDbSymbolTableRecord
100
AcDbDimStyleTableRecord
  2
ISO-25
 70
     0
  3

  4

  5

  6

  7

 40
1.0
 41
2.5
 42
0.625
 43
3.75
 44
1.25
 45
0.0
 46
0.0
 47
0.0
 48
0.0
140
2.5
141
2.5
142
0.0
143
0.03937007874016
144
1.0
145
0.0
146
1.0
147
0.625
 71
     0
 72
     0
 73
     0
 74
     0
 75
     0
 76
     0
 77
     1
 78
     8
170
     0
171
     3
172
     1
173
     0
174
     0
175
     0
176
     0
177
     0
178
     0
270
     2
271
     2
272
     2
273
     2
274
     3
340
11
275
     0
280
     0
281
     0
282
     0
283
     0
284
     8
285
     0
286
     0
287
     5
288
     0
  0
ENDTAB
  0
TABLE
  2
BLOCK_RECORD
  5
1
330
0
100
AcDbSymbolTable
 70
    27
  0
BLOCK_RECORD
  5
1F
330
1
100
AcDbSymbolTableRecord
100
AcDbBlockTableRecord
  2
*MODEL_SPACE
  0
BLOCK_RECORD
  5
1B
330
1
100
AcDbSymbolTableRecord
100
AcDbBlockTableRecord
  2
*PAPER_SPACE
  0
BLOCK_RECORD
  5
7A
330
1
100
AcDbSymbolTableRecord
100
AcDbBlockTableRecord
  2
EX_NORM
  0
BLOCK_RECORD
  5
7D
330
1
100
AcDbSymbolTableRecord
100
AcDbBlockTableRecord
  2
EX_BNORM
  0
BLOCK_RECORD
  5
80
330
1
100
AcDbSymbolTableRecord
100
AcDbBlockTableRecord
  2
EX_BCIR
  0
BLOCK_RECORD
  5
83
330
1
100
AcDbSymbolTableRecord
100
AcDbBlockTableRecord
  2
EX_RCIVIL
  0
BLOCK_RECORD
  5
86
330
1
100
AcDbSymbolTableRecord
100
AcDbBlockTableRecord
  2
EX_SLANT
  0
BLOCK_RECORD
  5
89
330
1
100
AcDbSymbolTableRecord
100
AcDbBlockTableRecord
  2
EX_NONE
  0
BLOCK_RECORD
  5
8C
330
1
100
AcDbSymbolTableRecord
100
AcDbBlockTableRecord
  2
EX_CIVIL
  0
BLOCK_RECORD
  5
8F
330
1
100
AcDbSymbolTableRecord
100
AcDbBlockTableRecord
  2
EX_WCIR
  0
BLOCK_RECORD
  5
92
330
1
100
AcDbSymbolTableRecord
100
AcDbBlockTableRecord
  2
EX_WCIR2
  0
BLOCK_RECORD
  5
95
330
1
100
AcDbSymbolTableRecord
100
AcDbBlockTableRecord
  2
EX_WNORM
  0
BLOCK_RECORD
  5
98
330
1
100
AcDbSymbolTableRecord
100
AcDbBlockTableRecord
  2
EX_NNORM
  0
BLOCK_RECORD
  5
9B
330
1
100
AcDbSymbolTableRecord
100
AcDbBlockTableRecord
  2
EX_BBOX
  0
BLOCK_RECORD
  5
9E
330
1
100
AcDbSymbolTableRecord
100
AcDbBlockTableRecord
  2
EX_WBOX
  0
BLOCK_RECORD
  5
A1
330
1
100
AcDbSymbolTableRecord
100
AcDbBlockTableRecord
  2
EX_INTEGRAL
  0
BLOCK_RECORD
  5
485
330
1
100
AcDbSymbolTableRecord
100
AcDbBlockTableRecord
  2
*D15
  0
BLOCK_RECORD
  5
492
330
1
100
AcDbSymbolTableRecord
100
AcDbBlockTableRecord
  2
*D16
  0
BLOCK_RECORD
  5
49E
330
1
100
AcDbSymbolTableRecord
100
AcDbBlockTableRecord
  2
*D17
  0
BLOCK_RECORD
  5
4AB
330
1
100
AcDbSymbolTableRecord
100
AcDbBlockTableRecord
  2
*D18
  0
BLOCK_RECORD
  5
4B7
330
1
100
AcDbSymbolTableRecord
100
AcDbBlockTableRecord
  2
*D19
  0
BLOCK_RECORD
  5
4C2
330
1
100
AcDbSymbolTableRecord
100
AcDbBlockTableRecord
  2
*D20
  0
BLOCK_RECORD
  5
4CE
330
1
100
AcDbSymbolTableRecord
100
AcDbBlockTableRecord
  2
*D21
  0
BLOCK_RECORD
  5
4DB
330
1
100
AcDbSymbolTableRecord
100
AcDbBlockTableRecord
  2
*D22
  0
BLOCK_RECORD
  5
4E7
330
1
100
AcDbSymbolTableRecord
100
AcDbBlockTableRecord
  2
*D23
  0
BLOCK_RECORD
  5
4F5
330
1
100
AcDbSymbolTableRecord
100
AcDbBlockTableRecord
  2
*D24
  0
BLOCK_RECORD
  5
502
330
1
100
AcDbSymbolTableRecord
100
AcDbBlockTableRecord
  2
*D25
  0
BLOCK_RECORD
  5
50F
330
1
100
AcDbSymbolTableRecord
100
AcDbBlockTableRecord
  2
*D26
  0
BLOCK_RECORD
  5
51C
330
1
100
AcDbSymbolTableRecord
100
AcDbBlockTableRecord
  2
*D27
  0
ENDTAB
  0
ENDSEC
  0
SECTION
  2
BLOCKS
  0
BLOCK
  5
20
330
1F
100
AcDbEntity
  8
0
100
AcDbBlockBegin
  2
*MODEL_SPACE
 70
     0
 10
0.0
 20
0.0
 30
0.0
  3
*MODEL_SPACE
  1

  0
ENDBLK
  5
21
330
1F
100
AcDbEntity
  8
0
100
AcDbBlockEnd
  0
BLOCK
  5
1C
330
1B
100
AcDbEntity
 67
     1
  8
0
100
AcDbBlockBegin
  2
*PAPER_SPACE
 70
     0
 10
0.0
 20
0.0
 30
0.0
  3
*PAPER_SPACE
  1

  0
ENDBLK
  5
1D
330
1B
100
AcDbEntity
 67
     1
  8
0
100
AcDbBlockEnd
  0
BLOCK
  5
7B
330
7A
100
AcDbEntity
  8
0
100
AcDbBlockBegin
  2
EX_NORM
 70
     0
 10
0.0
 20
0.0
 30
0.0
  3
EX_NORM
  1

  0
LINE
  5
A4
330
7A
100
AcDbEntity
  8
0
  6
CONTINUOUS
 62
     0
100
AcDbLine
 10
0.0
 20
0.0
 30
0.0
 11
-1.0
 21
0.0
 31
0.0
  0
LINE
  5
A5
330
7A
100
AcDbEntity
  8
0
  6
CONTINUOUS
 62
     0
100
AcDbLine
 10
0.0
 20
0.0
 30
0.0
 11
-1.0
 21
0.166666667
 31
0.0
  0
LINE
  5
A6
330
7A
100
AcDbEntity
  8
0
  6
CONTINUOUS
 62
     0
100
AcDbLine
 10
0.0
 20
0.0
 30
0.0
 11
-1.0
 21
-0.166666667
 31
0.0
  0
ENDBLK
  5
7C
330
7A
100
AcDbEntity
  8
0
100
AcDbBlockEnd
  0
BLOCK
  5
7E
330
7D
100
AcDbEntity
  8
0
100
AcDbBlockBegin
  2
EX_BNORM
 70
     0
 10
0.0
 20
0.0
 30
0.0
  3
EX_BNORM
  1

  0
LINE
  5
A7
330
7D
100
AcDbEntity
  8
0
  6
CONTINUOUS
 62
     0
100
AcDbLine
 10
0.0
 20
0.0
 30
0.0
 11
-1.0
 21
0.0
 31
0.0
  0
LINE
  5
A8
330
7D
100
AcDbEntity
  8
0
  6
CONTINUOUS
 62
     0
100
AcDbLine
 10
0.0
 20
0.0
 30
0.0
 11
-1.0
 21
0.166666667
 31
0.0
  0
LINE
  5
A9
330
7D
100
AcDbEntity
  8
0
  6
CONTINUOUS
 62
     0
100
AcDbLine
 10
0.0
 20
0.0
 30
0.0
 11
-1.0
 21
-0.166666667
 31
0.0
  0
LINE
  5
AA
330
7D
100
AcDbEntity
  8
0
  6
CONTINUOUS
 62
     0
100
AcDbLine
 10
0.0
 20
0.0
 30
0.0
 11
-1.0
 21
0.083333333
 31
0.0
  0
LINE
  5
AB
330
7D
100
AcDbEntity
  8
0
  6
CONTINUOUS
 62
     0
100
AcDbLine
 10
0.0
 20
0.0
 30
0.0
 11
-1.0
 21
-0.083333333
 31
0.0
  0
LINE
  5
AC
330
7D
100
AcDbEntity
  8
0
  6
CONTINUOUS
 62
     0
100
AcDbLine
 10
-1.0
 20
0.166666667
 30
0.0
 11
-1.0
 21
-0.166666667
 31
0.0
  0
ENDBLK
  5
7F
330
7D
100
AcDbEntity
  8
0
100
AcDbBlockEnd
  0
BLOCK
  5
81
330
80
100
AcDbEntity
  8
0
100
AcDbBlockBegin
  2
EX_BCIR
 70
     0
 10
0.0
 20
0.0
 30
0.0
  3
EX_BCIR
  1

  0
LINE
  5
AD
330
80
100
AcDbEntity
  8
0
  6
CONTINUOUS
 62
     0
100
AcDbLine
 10
0.0
 20
0.0
 30
0.0
 11
-1.0
 21
0.0
 31
0.0
  0
CIRCLE
  5
AE
330
80
100
AcDbEntity
  8
0
  6
CONTINUOUS
 62
     0
100
AcDbCircle
 10
0.0
 20
0.0
 30
0.0
 40
0.5
  0
CIRCLE
  5
AF
330
80
100
AcDbEntity
  8
0
  6
CONTINUOUS
 62
     0
100
AcDbCircle
 10
0.0
 20
0.0
 30
0.0
 40
0.25
  0
ENDBLK
  5
82
330
80
100
AcDbEntity
  8
0
100
AcDbBlockEnd
  0
BLOCK
  5
84
330
83
100
AcDbEntity
  8
0
100
AcDbBlockBegin
  2
EX_RCIVIL
 70
     0
 10
0.0
 20
0.0
 30
0.0
  3
EX_RCIVIL
  1

  0
LINE
  5
B0
330
83
100
AcDbEntity
  8
0
  6
CONTINUOUS
 62
     0
100
AcDbLine
 10
0.0
 20
0.0
 30
0.0
 11
-1.0
 21
0.0
 31
0.0
  0
LINE
  5
B1
330
83
100
AcDbEntity
  8
0
  6
CONTINUOUS
 62
     0
100
AcDbLine
 10
-1.0
 20
-0.25
 30
0.0
 11
0.0
 21
-0.25
 31
0.0
  0
LINE
  5
B2
330
83
100
AcDbEntity
  8
0
  6
CONTINUOUS
 62
     0
100
AcDbLine
 10
-1.0
 20
-0.125
 30
0.0
 11
0.0
 21
-0.125
 31
0.0
  0
ENDBLK
  5
85
330
83
100
AcDbEntity
  8
0
100
AcDbBlockEnd
  0
BLOCK
  5
87
330
86
100
AcDbEntity
  8
0
100
AcDbBlockBegin
  2
EX_SLANT
 70
     0
 10
0.0
 20
0.0
 30
0.0
  3
EX_SLANT
  1

  0
LINE
  5
B3
330
86
100
AcDbEntity
  8
0
  6
CONTINUOUS
 62
     0
100
AcDbLine
 10
0.0
 20
0.0
 30
0.0
 11
-1.0
 21
0.0
 31
0.0
  0
LINE
  5
B4
330
86
100
AcDbEntity
  8
0
  6
CONTINUOUS
 62
     0
100
AcDbLine
 10
0.707106781
 20
0.707106781
 30
0.0
 11
-0.707106781
 21
-0.707106781
 31
0.0
  0
ENDBLK
  5
88
330
86
100
AcDbEntity
  8
0
100
AcDbBlockEnd
  0
BLOCK
  5
8A
330
89
100
AcDbEntity
  8
0
100
AcDbBlockBegin
  2
EX_NONE
 70
     0
 10
0.0
 20
0.0
 30
0.0
  3
EX_NONE
  1

  0
LINE
  5
B5
330
89
100
AcDbEntity
  8
0
  6
CONTINUOUS
 62
     0
100
AcDbLine
 10
0.0
 20
0.0
 30
0.0
 11
-1.0
 21
0.0
 31
0.0
  0
ENDBLK
  5
8B
330
89
100
AcDbEntity
  8
0
100
AcDbBlockEnd
  0
BLOCK
  5
8D
330
8C
100
AcDbEntity
  8
0
100
AcDbBlockBegin
  2
EX_CIVIL
 70
     0
 10
0.0
 20
0.0
 30
0.0
  3
EX_CIVIL
  1

  0
LINE
  5
B6
330
8C
100
AcDbEntity
  8
0
  6
CONTINUOUS
 62
     0
100
AcDbLine
 10
0.0
 20
0.0
 30
0.0
 11
-1.0
 21
0.0
 31
0.0
  0
LINE
  5
B7
330
8C
100
AcDbEntity
  8
0
  6
CONTINUOUS
 62
     0
100
AcDbLine
 10
-1.0
 20
0.25
 30
0.0
 11
0.0
 21
0.25
 31
0.0
  0
LINE
  5
B8
330
8C
100
AcDbEntity
  8
0
  6
CONTINUOUS
 62
     0
100
AcDbLine
 10
-1.0
 20
0.125
 30
0.0
 11
0.0
 21
0.125
 31
0.0
  0
ENDBLK
  5
8E
330
8C
100
AcDbEntity
  8
0
100
AcDbBlockEnd
  0
BLOCK
  5
90
330
8F
100
AcDbEntity
  8
0
100
AcDbBlockBegin
  2
EX_WCIR
 70
     0
 10
0.0
 20
0.0
 30
0.0
  3
EX_WCIR
  1

  0
LINE
  5
B9
330
8F
100
AcDbEntity
  8
0
  6
CONTINUOUS
 62
     0
100
AcDbLine
 10
0.0
 20
0.0
 30
0.0
 11
-1.0
 21
0.0
 31
0.0
  0
CIRCLE
  5
BA
330
8F
100
AcDbEntity
  8
0
  6
CONTINUOUS
 62
     0
100
AcDbCircle
 10
0.0
 20
0.0
 30
0.0
 40
0.5
  0
ENDBLK
  5
91
330
8F
100
AcDbEntity
  8
0
100
AcDbBlockEnd
  0
BLOCK
  5
93
330
92
100
AcDbEntity
  8
0
100
AcDbBlockBegin
  2
EX_WCIR2
 70
     0
 10
0.0
 20
0.0
 30
0.0
  3
EX_WCIR2
  1

  0
LINE
  5
BB
330
92
100
AcDbEntity
  8
0
  6
CONTINUOUS
 62
     0
100
AcDbLine
 10
-0.5
 20
0.0
 30
0.0
 11
-1.0
 21
0.0
 31
0.0
  0
CIRCLE
  5
BC
330
92
100
AcDbEntity
  8
0
  6
CONTINUOUS
 62
     0
100
AcDbCircle
 10
0.0
 20
0.0
 30
0.0
 40
0.5
  0
ENDBLK
  5
94
330
92
100
AcDbEntity
  8
0
100
AcDbBlockEnd
  0
BLOCK
  5
96
330
95
100
AcDbEntity
  8
0
100
AcDbBlockBegin
  2
EX_WNORM
 70
     0
 10
0.0
 20
0.0
 30
0.0
  3
EX_WNORM
  1

  0
LINE
  5
BD
330
95
100
AcDbEntity
  8
0
  6
CONTINUOUS
 62
     0
100
AcDbLine
 10
-1.0
 20
0.0
 30
0.0
 11
-1.0
 21
0.0
 31
0.0
  0
LINE
  5
BE
330
95
100
AcDbEntity
  8
0
  6
CONTINUOUS
 62
     0
100
AcDbLine
 10
0.0
 20
0.0
 30
0.0
 11
-1.0
 21
0.166666667
 31
0.0
  0
LINE
  5
BF
330
95
100
AcDbEntity
  8
0
  6
CONTINUOUS
 62
     0
100
AcDbLine
 10
0.0
 20
0.0
 30
0.0
 11
-1.0
 21
-0.166666667
 31
0.0
  0
LINE
  5
C0
330
95
100
AcDbEntity
  8
0
  6
CONTINUOUS
 62
     0
100
AcDbLine
 10
-1.0
 20
0.166666667
 30
0.0
 11
-1.0
 21
-0.166666667
 31
0.0
  0
ENDBLK
  5
97
330
95
100
AcDbEntity
  8
0
100
AcDbBlockEnd
  0
BLOCK
  5
99
330
98
100
AcDbEntity
  8
0
100
AcDbBlockBegin
  2
EX_NNORM
 70
     0
 10
0.0
 20
0.0
 30
0.0
  3
EX_NNORM
  1

  0
LINE
  5
C1
330
98
100
AcDbEntity
  8
0
  6
CONTINUOUS
 62
     0
100
AcDbLine
 10
0.0
 20
0.0
 30
0.0
 11
-1.0
 21
0.0
 31
0.0
  0
LINE
  5
C2
330
98
100
AcDbEntity
  8
0
  6
CONTINUOUS
 62
     0
100
AcDbLine
 10
0.0
 20
0.0
 30
0.0
 11
-1.0
 21
0.166666667
 31
0.0
  0
LINE
  5
C3
330
98
100
AcDbEntity
  8
0
  6
CONTINUOUS
 62
     0
100
AcDbLine
 10
0.0
 20
0.0
 30
0.0
 11
-1.0
 21
-0.166666667
 31
0.0
  0
LINE
  5
C4
330
98
100
AcDbEntity
  8
0
  6
CONTINUOUS
 62
     0
100
AcDbLine
 10
-1.0
 20
0.166666667
 30
0.0
 11
-1.0
 21
-0.166666667
 31
0.0
  0
ENDBLK
  5
9A
330
98
100
AcDbEntity
  8
0
100
AcDbBlockEnd
  0
BLOCK
  5
9C
330
9B
100
AcDbEntity
  8
0
100
AcDbBlockBegin
  2
EX_BBOX
 70
     0
 10
0.0
 20
0.0
 30
0.0
  3
EX_BBOX
  1

  0
LINE
  5
C5
330
9B
100
AcDbEntity
  8
0
  6
CONTINUOUS
 62
     0
100
AcDbLine
 10
0.0
 20
0.0
 30
0.0
 11
-1.0
 21
0.0
 31
0.0
  0
LINE
  5
C6
330
9B
100
AcDbEntity
  8
0
  6
CONTINUOUS
 62
     0
100
AcDbLine
 10
-0.5
 20
0.5
 30
0.0
 11
0.5
 21
0.5
 31
0.0
  0
LINE
  5
C7
330
9B
100
AcDbEntity
  8
0
  6
CONTINUOUS
 62
     0
100
AcDbLine
 10
0.5
 20
0.5
 30
0.0
 11
0.5
 21
-0.5
 31
0.0
  0
LINE
  5
C8
330
9B
100
AcDbEntity
  8
0
  6
CONTINUOUS
 62
     0
100
AcDbLine
 10
0.5
 20
-0.5
 30
0.0
 11
-0.5
 21
-0.5
 31
0.0
  0
LINE
  5
C9
330
9B
100
AcDbEntity
  8
0
  6
CONTINUOUS
 62
     0
100
AcDbLine
 10
-0.5
 20
-0.5
 30
0.0
 11
-0.5
 21
0.5
 31
0.0
  0
LINE
  5
CA
330
9B
100
AcDbEntity
  8
0
  6
CONTINUOUS
 62
     0
100
AcDbLine
 10
-0.25
 20
0.25
 30
0.0
 11
0.25
 21
0.25
 31
0.0
  0
LINE
  5
CB
330
9B
100
AcDbEntity
  8
0
  6
CONTINUOUS
 62
     0
100
AcDbLine
 10
0.25
 20
0.25
 30
0.0
 11
0.25
 21
-0.25
 31
0.0
  0
LINE
  5
CC
330
9B
100
AcDbEntity
  8
0
  6
CONTINUOUS
 62
     0
100
AcDbLine
 10
0.25
 20
-0.25
 30
0.0
 11
-0.25
 21
-0.25
 31
0.0
  0
LINE
  5
CD
330
9B
100
AcDbEntity
  8
0
  6
CONTINUOUS
 62
     0
100
AcDbLine
 10
-0.25
 20
-0.25
 30
0.0
 11
-0.25
 21
0.25
 31
0.0
  0
ENDBLK
  5
9D
330
9B
100
AcDbEntity
  8
0
100
AcDbBlockEnd
  0
BLOCK
  5
9F
330
9E
100
AcDbEntity
  8
0
100
AcDbBlockBegin
  2
EX_WBOX
 70
     0
 10
0.0
 20
0.0
 30
0.0
  3
EX_WBOX
  1

  0
LINE
  5
CE
330
9E
100
AcDbEntity
  8
0
  6
CONTINUOUS
 62
     0
100
AcDbLine
 10
-0.5
 20
0.0
 30
0.0
 11
-1.0
 21
0.0
 31
0.0
  0
LINE
  5
CF
330
9E
100
AcDbEntity
  8
0
  6
CONTINUOUS
 62
     0
100
AcDbLine
 10
-0.5
 20
0.5
 30
0.0
 11
0.5
 21
0.5
 31
0.0
  0
LINE
  5
D0
330
9E
100
AcDbEntity
  8
0
  6
CONTINUOUS
 62
     0
100
AcDbLine
 10
0.5
 20
0.5
 30
0.0
 11
0.5
 21
-0.5
 31
0.0
  0
LINE
  5
D1
330
9E
100
AcDbEntity
  8
0
  6
CONTINUOUS
 62
     0
100
AcDbLine
 10
0.5
 20
-0.5
 30
0.0
 11
-0.5
 21
-0.5
 31
0.0
  0
LINE
  5
D2
330
9E
100
AcDbEntity
  8
0
  6
CONTINUOUS
 62
     0
100
AcDbLine
 10
-0.5
 20
-0.5
 30
0.0
 11
-0.5
 21
0.5
 31
0.0
  0
ENDBLK
  5
A0
330
9E
100
AcDbEntity
  8
0
100
AcDbBlockEnd
  0
BLOCK
  5
A2
330
A1
100
AcDbEntity
  8
0
100
AcDbBlockBegin
  2
EX_INTEGRAL
 70
     0
 10
0.0
 20
0.0
 30
0.0
  3
EX_INTEGRAL
  1

  0
LINE
  5
D3
330
A1
100
AcDbEntity
  8
0
  6
CONTINUOUS
 62
     0
100
AcDbLine
 10
0.0
 20
0.0
 30
0.0
 11
-1.0
 21
0.0
 31
0.0
  0
ARC
  5
D4
330
A1
100
AcDbEntity
  8
0
  6
CONTINUOUS
 62
     0
100
AcDbCircle
 10
0.542115
 20
0.164992
 30
0.0
 40
0.56667
100
AcDbArc
 50
73.07249033629006
 51
196.9275130221199
  0
ARC
  5
D5
330
A1
100
AcDbEntity
  8
0
  6
CONTINUOUS
 62
     0
100
AcDbCircle
 10
-0.542115
 20
-0.164992
 30
0.0
 40
0.56667
100
AcDbArc
 50
253.0724869220464
 51
16.9275130559125
  0
ENDBLK
  5
A3
330
A1
100
AcDbEntity
  8
0
100
AcDbBlockEnd
  0
BLOCK
  5
486
330
485
100
AcDbEntity
  8
0
100
AcDbBlockBegin
  2
*D15
 70
     1
 10
0.0
 20
0.0
 30
0.0
  3
*D15
  1

  0
LINE
  5
488
330
485
100
AcDbEntity
  8
LAY-20
  6
CONTINUOUS
 62
     4
100
AcDbLine
 10
2184.5
 20
3190.400000000001
 30
0.0
 11
2184.5
 21
3334.0
 31
0.0
  0
LINE
  5
489
330
485
100
AcDbEntity
  8
LAY-20
  6
CONTINUOUS
 62
     4
100
AcDbLine
 10
1784.5
 20
3210.9598670394
 30
0.0
 11
1784.5
 21
3334.0
 31
0.0
  0
LINE
  5
48A
330
485
100
AcDbEntity
  8
LAY-20
  6
CONTINUOUS
 62
     4
100
AcDbLine
 10
2147.000003814698
 20
3311.5
 30
0.0
 11
1821.999996185302
 21
3311.5
 31
0.0
  0
INSERT
  5
48B
330
485
100
AcDbEntity
  8
LAY-20
 62
     4
100
AcDbBlockReference
  2
EX_BNORM
 10
2184.5
 20
3311.5
 30
0.0
 41
37.49999618530273
 42
37.49999618530273
 43
37.49999618530273
  0
INSERT
  5
48C
330
485
100
AcDbEntity
  8
LAY-20
 62
     4
100
AcDbBlockReference
  2
EX_BNORM
 10
1784.5
 20
3311.5
 30
0.0
 41
37.49999618530273
 42
37.49999618530273
 43
37.49999618530273
 50
180.0
  0
MTEXT
  5
48D
330
485
100
AcDbEntity
  8
LAY-20
 62
     7
100
AcDbMText
 10
1984.5
 20
3349.0
 30
0.0
 40
46.77165302633819
 41
0.0
 71
     5
 72
     1
  1
400
  7
EXCADDIM1
  0
POINT
  5
48E
330
485
100
AcDbEntity
  8
DEFPOINTS
 62
     0
100
AcDbPoint
 10
2184.5
 20
3167.900000000001
 30
0.0
  0
POINT
  5
48F
330
485
100
AcDbEntity
  8
DEFPOINTS
 62
     0
100
AcDbPoint
 10
1784.5
 20
3188.4598670394
 30
0.0
  0
POINT
  5
490
330
485
100
AcDbEntity
  8
DEFPOINTS
 62
     0
100
AcDbPoint
 10
1784.5
 20
3311.5
 30
0.0
  0
ENDBLK
  5
487
330
485
100
AcDbEntity
  8
0
100
AcDbBlockEnd
  0
BLOCK
  5
493
330
492
100
AcDbEntity
  8
0
100
AcDbBlockBegin
  2
*D16
 70
     1
 10
0.0
 20
0.0
 30
0.0
  3
*D16
  1

  0
LINE
  5
495
330
492
100
AcDbEntity
  8
LAY-20
  6
CONTINUOUS
 62
     4
100
AcDbLine
 10
1384.5
 20
3190.400000000001
 30
0.0
 11
1384.5
 21
3334.0
 31
0.0
  0
LINE
  5
496
330
492
100
AcDbEntity
  8
LAY-20
  6
CONTINUOUS
 62
     4
100
AcDbLine
 10
1421.999996185303
 20
3311.5
 30
0.0
 11
1747.000003814697
 21
3311.5
 31
0.0
  0
INSERT
  5
497
330
492
100
AcDbEntity
  8
LAY-20
 62
     4
100
AcDbBlockReference
  2
EX_BNORM
 10
1384.5
 20
3311.5
 30
0.0
 41
37.49999618530273
 42
37.49999618530273
 43
37.49999618530273
 50
180.0
  0
INSERT
  5
498
330
492
100
AcDbEntity
  8
LAY-20
 62
     4
100
AcDbBlockReference
  2
EX_BNORM
 10
1784.5
 20
3311.5
 30
0.0
 41
37.49999618530273
 42
37.49999618530273
 43
37.49999618530273
  0
MTEXT
  5
499
330
492
100
AcDbEntity
  8
LAY-20
 62
     7
100
AcDbMText
 10
1584.5
 20
3349.0
 30
0.0
 40
46.77165302633819
 41
0.0
 71
     5
 72
     1
  1
400
  7
EXCADDIM1
  0
POINT
  5
49A
330
492
100
AcDbEntity
  8
DEFPOINTS
 62
     0
100
AcDbPoint
 10
1384.5
 20
3167.900000000001
 30
0.0
  0
POINT
  5
49B
330
492
100
AcDbEntity
  8
DEFPOINTS
 62
     0
100
AcDbPoint
 10
1784.5
 20
3311.5
 30
0.0
  0
POINT
  5
49C
330
492
100
AcDbEntity
  8
DEFPOINTS
 62
     0
100
AcDbPoint
 10
1784.5
 20
3311.5
 30
0.0
  0
ENDBLK
  5
494
330
492
100
AcDbEntity
  8
0
100
AcDbBlockEnd
  0
BLOCK
  5
49F
330
49E
100
AcDbEntity
  8
0
100
AcDbBlockBegin
  2
*D17
 70
     1
 10
0.0
 20
0.0
 30
0.0
  3
*D17
  1

  0
LINE
  5
4A1
330
49E
100
AcDbEntity
  8
LAY-20
  6
CONTINUOUS
 62
     4
100
AcDbLine
 10
2404.0
 20
1235.499999999999
 30
0.0
 11
2659.0
 21
1235.499999999999
 31
0.0
  0
LINE
  5
4A2
330
49E
100
AcDbEntity
  8
LAY-20
  6
CONTINUOUS
 62
     4
100
AcDbLine
 10
2357.0
 20
1090.499999999999
 30
0.0
 11
2659.0
 21
1090.499999999999
 31
0.0
  0
LINE
  5
4A3
330
49E
100
AcDbEntity
  8
LAY-20
  6
CONTINUOUS
 62
     4
100
AcDbLine
 10
2636.5
 20
1198.000003814696
 30
0.0
 11
2636.5
 21
1127.999996185302
 31
0.0
  0
INSERT
  5
4A4
330
49E
100
AcDbEntity
  8
LAY-20
 62
     4
100
AcDbBlockReference
  2
EX_BNORM
 10
2636.5
 20
1235.499999999999
 30
0.0
 41
37.49999618530273
 42
37.49999618530273
 43
37.49999618530273
 50
90.0
  0
INSERT
  5
4A5
330
49E
100
AcDbEntity
  8
LAY-20
 62
     4
100
AcDbBlockReference
  2
EX_BNORM
 10
2636.5
 20
1090.499999999999
 30
0.0
 41
37.49999618530273
 42
37.49999618530273
 43
37.49999618530273
 50
270.0
  0
MTEXT
  5
4A6
330
49E
100
AcDbEntity
  8
LAY-20
 62
     7
100
AcDbMText
 10
2599.0
 20
1162.999999999999
 30
0.0
 40
46.77165302633819
 41
0.0
 71
     5
 72
     1
  1
145
  7
EXCADDIM1
 11
0.0
 21
1.0
 31
0.0
  0
POINT
  5
4A7
330
49E
100
AcDbEntity
  8
DEFPOINTS
 62
     0
100
AcDbPoint
 10
2381.5
 20
1235.499999999999
 30
0.0
  0
POINT
  5
4A8
330
49E
100
AcDbEntity
  8
DEFPOINTS
 62
     0
100
AcDbPoint
 10
2334.5
 20
1090.499999999999
 30
0.0
  0
POINT
  5
4A9
330
49E
100
AcDbEntity
  8
DEFPOINTS
 62
     0
100
AcDbPoint
 10
2636.5
 20
1090.499999999999
 30
0.0
  0
ENDBLK
  5
4A0
330
49E
100
AcDbEntity
  8
0
100
AcDbBlockEnd
  0
BLOCK
  5
4AC
330
4AB
100
AcDbEntity
  8
0
100
AcDbBlockBegin
  2
*D18
 70
     1
 10
0.0
 20
0.0
 30
0.0
  3
*D18
  1

  0
LINE
  5
4AE
330
4AB
100
AcDbEntity
  8
LAY-20
  6
CONTINUOUS
 62
     4
100
AcDbLine
 10
2438.999999999999
 20
1191.499999999999
 30
0.0
 11
2554.0
 21
1191.499999999999
 31
0.0
  0
LINE
  5
4AF
330
4AB
100
AcDbEntity
  8
LAY-20
  6
CONTINUOUS
 62
     4
100
AcDbLine
 10
2531.5
 20
1206.499999046325
 30
0.0
 11
2531.5
 21
1220.500000953673
 31
0.0
  0
INSERT
  5
4B0
330
4AB
100
AcDbEntity
  8
LAY-20
 62
     4
100
AcDbBlockReference
  2
EX_BCIR
 10
2531.5
 20
1191.499999999999
 30
0.0
 41
14.99999904632568
 42
14.99999904632568
 43
14.99999904632568
 50
270.0
  0
INSERT
  5
4B1
330
4AB
100
AcDbEntity
  8
LAY-20
 62
     4
100
AcDbBlockReference
  2
EX_BNORM
 10
2531.5
 20
1235.499999999999
 30
0.0
 41
14.99999904632568
 42
14.99999904632568
 43
14.99999904632568
 50
90.0
  0
MTEXT
  5
4B2
330
4AB
100
AcDbEntity
  8
LAY-20
 62
     7
100
AcDbMText
 10
2494.0
 20
1325.499999999998
 30
0.0
 40
46.77165302633819
 41
0.0
 71
     5
 72
     1
  1
44
  7
EXCADDIM1
 11
0.0
 21
1.0
 31
0.0
  0
POINT
  5
4B3
330
4AB
100
AcDbEntity
  8
DEFPOINTS
 62
     0
100
AcDbPoint
 10
2416.499999999999
 20
1191.499999999999
 30
0.0
  0
POINT
  5
4B4
330
4AB
100
AcDbEntity
  8
DEFPOINTS
 62
     0
100
AcDbPoint
 10
2531.5
 20
1235.499999999999
 30
0.0
  0
POINT
  5
4B5
330
4AB
100
AcDbEntity
  8
DEFPOINTS
 62
     0
100
AcDbPoint
 10
2531.5
 20
1235.499999999999
 30
0.0
  0
ENDBLK
  5
4AD
330
4AB
100
AcDbEntity
  8
0
100
AcDbBlockEnd
  0
BLOCK
  5
4B8
330
4B7
100
AcDbEntity
  8
0
100
AcDbBlockBegin
  2
*D19
 70
     1
 10
0.0
 20
0.0
 30
0.0
  3
*D19
  1

  0
LINE
  5
4BA
330
4B7
100
AcDbEntity
  8
LAY-20
  6
CONTINUOUS
 62
     4
100
AcDbLine
 10
2531.5
 20
1176.500000953673
 30
0.0
 11
2531.5
 21
1105.499999046325
 31
0.0
  0
INSERT
  5
4BB
330
4B7
100
AcDbEntity
  8
LAY-20
 62
     4
100
AcDbBlockReference
  2
EX_BCIR
 10
2531.5
 20
1191.499999999999
 30
0.0
 41
14.99999904632568
 42
14.99999904632568
 43
14.99999904632568
 50
90.0
  0
INSERT
  5
4BC
330
4B7
100
AcDbEntity
  8
LAY-20
 62
     4
100
AcDbBlockReference
  2
EX_BNORM
 10
2531.5
 20
1090.499999999999
 30
0.0
 41
14.99999904632568
 42
14.99999904632568
 43
14.99999904632568
 50
270.0
  0
MTEXT
  5
4BD
330
4B7
100
AcDbEntity
  8
LAY-20
 62
     7
100
AcDbMText
 10
2494.0
 20
977.9999999999982
 30
0.0
 40
46.77165302633819
 41
0.0
 71
     5
 72
     1
  1
101
  7
EXCADDIM1
 11
0.0
 21
1.0
 31
0.0
  0
POINT
  5
4BE
330
4B7
100
AcDbEntity
  8
DEFPOINTS
 62
     0
100
AcDbPoint
 10
2531.5
 20
1191.499999999999
 30
0.0
  0
POINT
  5
4BF
330
4B7
100
AcDbEntity
  8
DEFPOINTS
 62
     0
100
AcDbPoint
 10
2531.5
 20
1090.499999999999
 30
0.0
  0
POINT
  5
4C0
330
4B7
100
AcDbEntity
  8
DEFPOINTS
 62
     0
100
AcDbPoint
 10
2531.5
 20
1090.499999999999
 30
0.0
  0
ENDBLK
  5
4B9
330
4B7
100
AcDbEntity
  8
0
100
AcDbBlockEnd
  0
BLOCK
  5
4C3
330
4C2
100
AcDbEntity
  8
0
100
AcDbBlockBegin
  2
*D20
 70
     1
 10
0.0
 20
0.0
 30
0.0
  3
*D20
  1

  0
LINE
  5
4C5
330
4C2
100
AcDbEntity
  8
LAY-20
  6
CONTINUOUS
 62
     4
100
AcDbLine
 10
1123.600000000001
 20
3029.5
 30
0.0
 11
980.0000000000006
 21
3029.5
 31
0.0
  0
LINE
  5
4C6
330
4C2
100
AcDbEntity
  8
LAY-20
  6
CONTINUOUS
 62
     4
100
AcDbLine
 10
1002.500000000001
 20
2992.000003814698
 30
0.0
 11
1002.500000000001
 21
2666.999996185303
 31
0.0
  0
INSERT
  5
4C7
330
4C2
100
AcDbEntity
  8
LAY-20
 62
     4
100
AcDbBlockReference
  2
EX_BNORM
 10
1002.500000000001
 20
3029.5
 30
0.0
 41
37.49999618530273
 42
37.49999618530273
 43
37.49999618530273
 50
90.0
  0
INSERT
  5
4C8
330
4C2
100
AcDbEntity
  8
LAY-20
 62
     4
100
AcDbBlockReference
  2
EX_BNORM
 10
1002.500000000001
 20
2629.5
 30
0.0
 41
37.49999618530273
 42
37.49999618530273
 43
37.49999618530273
 50
270.0
  0
MTEXT
  5
4C9
330
4C2
100
AcDbEntity
  8
LAY-20
 62
     7
100
AcDbMText
 10
965.0000000000008
 20
2829.5
 30
0.0
 40
46.77165302633819
 41
0.0
 71
     5
 72
     1
  1
400
  7
EXCADDIM1
 11
0.0
 21
1.0
 31
0.0
  0
POINT
  5
4CA
330
4C2
100
AcDbEntity
  8
DEFPOINTS
 62
     0
100
AcDbPoint
 10
1146.100000000001
 20
3029.5
 30
0.0
  0
POINT
  5
4CB
330
4C2
100
AcDbEntity
  8
DEFPOINTS
 62
     0
100
AcDbPoint
 10
1002.500000000001
 20
2629.5
 30
0.0
  0
POINT
  5
4CC
330
4C2
100
AcDbEntity
  8
DEFPOINTS
 62
     0
100
AcDbPoint
 10
1002.500000000001
 20
2629.5
 30
0.0
  0
ENDBLK
  5
4C4
330
4C2
100
AcDbEntity
  8
0
100
AcDbBlockEnd
  0
BLOCK
  5
4CF
330
4CE
100
AcDbEntity
  8
0
100
AcDbBlockBegin
  2
*D21
 70
     1
 10
0.0
 20
0.0
 30
0.0
  3
*D21
  1

  0
LINE
  5
4D1
330
4CE
100
AcDbEntity
  8
LAY-20
  6
CONTINUOUS
 62
     4
100
AcDbLine
 10
1123.6
 20
2629.5
 30
0.0
 11
980.0000000000006
 21
2629.5
 31
0.0
  0
LINE
  5
4D2
330
4CE
100
AcDbEntity
  8
LAY-20
  6
CONTINUOUS
 62
     4
100
AcDbLine
 10
1123.6
 20
2429.5
 30
0.0
 11
980.0000000000006
 21
2429.5
 31
0.0
  0
LINE
  5
4D3
330
4CE
100
AcDbEntity
  8
LAY-20
  6
CONTINUOUS
 62
     4
100
AcDbLine
 10
1002.500000000001
 20
2592.000003814697
 30
0.0
 11
1002.500000000001
 21
2466.999996185303
 31
0.0
  0
INSERT
  5
4D4
330
4CE
100
AcDbEntity
  8
LAY-20
 62
     4
100
AcDbBlockReference
  2
EX_BNORM
 10
1002.500000000001
 20
2629.5
 30
0.0
 41
37.49999618530273
 42
37.49999618530273
 43
37.49999618530273
 50
90.0
  0
INSERT
  5
4D5
330
4CE
100
AcDbEntity
  8
LAY-20
 62
     4
100
AcDbBlockReference
  2
EX_BNORM
 10
1002.500000000001
 20
2429.5
 30
0.0
 41
37.49999618530273
 42
37.49999618530273
 43
37.49999618530273
 50
270.0
  0
MTEXT
  5
4D6
330
4CE
100
AcDbEntity
  8
LAY-20
 62
     7
100
AcDbMText
 10
965.0000000000008
 20
2529.5
 30
0.0
 40
46.77165302633819
 41
0.0
 71
     5
 72
     1
  1
200
  7
EXCADDIM1
 11
0.0
 21
1.0
 31
0.0
  0
POINT
  5
4D7
330
4CE
100
AcDbEntity
  8
DEFPOINTS
 62
     0
100
AcDbPoint
 10
1146.1
 20
2629.5
 30
0.0
  0
POINT
  5
4D8
330
4CE
100
AcDbEntity
  8
DEFPOINTS
 62
     0
100
AcDbPoint
 10
1146.1
 20
2429.5
 30
0.0
  0
POINT
  5
4D9
330
4CE
100
AcDbEntity
  8
DEFPOINTS
 62
     0
100
AcDbPoint
 10
1002.500000000001
 20
2429.5
 30
0.0
  0
ENDBLK
  5
4D0
330
4CE
100
AcDbEntity
  8
0
100
AcDbBlockEnd
  0
BLOCK
  5
4DC
330
4DB
100
AcDbEntity
  8
0
100
AcDbBlockBegin
  2
*D22
 70
     1
 10
0.0
 20
0.0
 30
0.0
  3
*D22
  1

  0
LINE
  5
4DE
330
4DB
100
AcDbEntity
  8
LAY-20
  6
CONTINUOUS
 62
     4
100
AcDbLine
 10
1123.6
 20
2029.499999999997
 30
0.0
 11
980.0000000000006
 21
2029.499999999997
 31
0.0
  0
LINE
  5
4DF
330
4DB
100
AcDbEntity
  8
LAY-20
  6
CONTINUOUS
 62
     4
100
AcDbLine
 10
1002.500000000001
 20
2066.9999961853
 30
0.0
 11
1002.500000000001
 21
2392.000003814695
 31
0.0
  0
INSERT
  5
4E0
330
4DB
100
AcDbEntity
  8
LAY-20
 62
     4
100
AcDbBlockReference
  2
EX_BNORM
 10
1002.500000000001
 20
2029.499999999997
 30
0.0
 41
37.49999618530273
 42
37.49999618530273
 43
37.49999618530273
 50
270.0
  0
INSERT
  5
4E1
330
4DB
100
AcDbEntity
  8
LAY-20
 62
     4
100
AcDbBlockReference
  2
EX_BNORM
 10
1002.500000000001
 20
2429.499999999998
 30
0.0
 41
37.49999618530273
 42
37.49999618530273
 43
37.49999618530273
 50
90.0
  0
MTEXT
  5
4E2
330
4DB
100
AcDbEntity
  8
LAY-20
 62
     7
100
AcDbMText
 10
965.0000000000002
 20
2229.499999999998
 30
0.0
 40
46.77165302633819
 41
0.0
 71
     5
 72
     1
  1
400
  7
EXCADDIM1
 11
0.0
 21
1.0
 31
0.0
  0
POINT
  5
4E3
330
4DB
100
AcDbEntity
  8
DEFPOINTS
 62
     0
100
AcDbPoint
 10
1146.1
 20
2029.499999999997
 30
0.0
  0
POINT
  5
4E4
330
4DB
100
AcDbEntity
  8
DEFPOINTS
 62
     0
100
AcDbPoint
 10
1002.500000000001
 20
2429.499999999998
 30
0.0
  0
POINT
  5
4E5
330
4DB
100
AcDbEntity
  8
DEFPOINTS
 62
     0
100
AcDbPoint
 10
1002.500000000001
 20
2429.499999999998
 30
0.0
  0
ENDBLK
  5
4DD
330
4DB
100
AcDbEntity
  8
0
100
AcDbBlockEnd
  0
BLOCK
  5
4E8
330
4E7
100
AcDbEntity
  8
0
100
AcDbBlockBegin
  2
*D23
 70
     1
 10
0.0
 20
0.0
 30
0.0
  3
*D23
  1

  0
LINE
  5
4EA
330
4E7
100
AcDbEntity
  8
LAY-20
  6
CONTINUOUS
 62
     4
100
AcDbLine
 10
1384.5
 20
1215.5
 30
0.0
 11
1446.0
 21
1215.5
 31
0.0
  0
LINE
  5
4EB
330
4E7
100
AcDbEntity
  8
LAY-20
  6
CONTINUOUS
 62
     4
100
AcDbLine
 10
1423.5
 20
1215.5
 30
0.0
 11
1423.5
 21
1235.5
 31
0.0
  0
LINE
  5
4EC
330
4E7
100
AcDbEntity
  8
LAY-20
  6
CONTINUOUS
 62
     4
100
AcDbLine
 10
1423.5
 20
1178.000003814697
 30
0.0
 11
1423.5
 21
1140.500007629395
 31
0.0
  0
LINE
  5
4ED
330
4E7
100
AcDbEntity
  8
LAY-20
  6
CONTINUOUS
 62
     4
100
AcDbLine
 10
1423.5
 20
1272.999996185303
 30
0.0
 11
1423.5
 21
1310.499992370605
 31
0.0
  0
INSERT
  5
4EE
330
4E7
100
AcDbEntity
  8
LAY-20
 62
     4
100
AcDbBlockReference
  2
EX_BNORM
 10
1423.5
 20
1215.5
 30
0.0
 41
37.49999618530273
 42
37.49999618530273
 43
37.49999618530273
 50
90.0
  0
INSERT
  5
4EF
330
4E7
100
AcDbEntity
  8
LAY-20
 62
     4
100
AcDbBlockReference
  2
EX_BNORM
 10
1423.5
 20
1235.5
 30
0.0
 41
37.49999618530273
 42
37.49999618530273
 43
37.49999618530273
 50
270.0
  0
MTEXT
  5
4F0
330
4E7
100
AcDbEntity
  8
LAY-20
 62
     7
100
AcDbMText
 10
1385.999999999999
 20
1325.499999999999
 30
0.0
 40
46.77165302633819
 41
0.0
 71
     5
 72
     1
  1
20
  7
EXCADDIM1
 11
0.0
 21
1.0
 31
0.0
  0
POINT
  5
4F1
330
4E7
100
AcDbEntity
  8
DEFPOINTS
 62
     0
100
AcDbPoint
 10
1362.0
 20
1215.5
 30
0.0
  0
POINT
  5
4F2
330
4E7
100
AcDbEntity
  8
DEFPOINTS
 62
     0
100
AcDbPoint
 10
1512.00000000003
 20
1235.5
 30
0.0
  0
POINT
  5
4F3
330
4E7
100
AcDbEntity
  8
DEFPOINTS
 62
     0
100
AcDbPoint
 10
1423.5
 20
1235.5
 30
0.0
  0
ENDBLK
  5
4E9
330
4E7
100
AcDbEntity
  8
0
100
AcDbBlockEnd
  0
BLOCK
  5
4F6
330
4F5
100
AcDbEntity
  8
0
100
AcDbBlockBegin
  2
*D24
 70
     1
 10
0.0
 20
0.0
 30
0.0
  3
*D24
  1

  0
LINE
  5
4F8
330
4F5
100
AcDbEntity
  8
LAY-20
  6
CONTINUOUS
 62
     4
100
AcDbLine
 10
1187.5
 20
1258.0
 30
0.0
 11
1187.5
 21
1618.0
 31
0.0
  0
LINE
  5
4F9
330
4F5
100
AcDbEntity
  8
LAY-20
  6
CONTINUOUS
 62
     4
100
AcDbLine
 10
2381.5
 20
1258.0
 30
0.0
 11
2381.5
 21
1618.0
 31
0.0
  0
LINE
  5
4FA
330
4F5
100
AcDbEntity
  8
LAY-20
  6
CONTINUOUS
 62
     4
100
AcDbLine
 10
1224.999996185303
 20
1595.5
 30
0.0
 11
2344.000003814697
 21
1595.5
 31
0.0
  0
INSERT
  5
4FB
330
4F5
100
AcDbEntity
  8
LAY-20
 62
     4
100
AcDbBlockReference
  2
EX_BNORM
 10
1187.5
 20
1595.5
 30
0.0
 41
37.49999618530273
 42
37.49999618530273
 43
37.49999618530273
 50
180.0
  0
INSERT
  5
4FC
330
4F5
100
AcDbEntity
  8
LAY-20
 62
     4
100
AcDbBlockReference
  2
EX_BNORM
 10
2381.5
 20
1595.5
 30
0.0
 41
37.49999618530273
 42
37.49999618530273
 43
37.49999618530273
  0
MTEXT
  5
4FD
330
4F5
100
AcDbEntity
  8
LAY-20
 62
     7
100
AcDbMText
 10
1784.5
 20
1633.0
 30
0.0
 40
46.77165302633819
 41
0.0
 71
     5
 72
     1
  1
□1194
  7
EXCADDIM1
  0
POINT
  5
4FE
330
4F5
100
AcDbEntity
  8
DEFPOINTS
 62
     0
100
AcDbPoint
 10
1187.5
 20
1235.5
 30
0.0
  0
POINT
  5
4FF
330
4F5
100
AcDbEntity
  8
DEFPOINTS
 62
     0
100
AcDbPoint
 10
2381.5
 20
1235.5
 30
0.0
  0
POINT
  5
500
330
4F5
100
AcDbEntity
  8
DEFPOINTS
 62
     0
100
AcDbPoint
 10
2381.5
 20
1595.5
 30
0.0
  0
ENDBLK
  5
4F7
330
4F5
100
AcDbEntity
  8
0
100
AcDbBlockEnd
  0
BLOCK
  5
503
330
502
100
AcDbEntity
  8
0
100
AcDbBlockBegin
  2
*D25
 70
     1
 10
0.0
 20
0.0
 30
0.0
  3
*D25
  1

  0
LINE
  5
505
330
502
100
AcDbEntity
  8
LAY-20
  6
CONTINUOUS
 62
     4
100
AcDbLine
 10
2369.499999999999
 20
1257.999999999999
 30
0.0
 11
2369.499999999999
 21
1513.0
 31
0.0
  0
LINE
  5
506
330
502
100
AcDbEntity
  8
LAY-20
  6
CONTINUOUS
 62
     4
100
AcDbLine
 10
1199.500000000002
 20
1258.0
 30
0.0
 11
1199.500000000002
 21
1513.0
 31
0.0
  0
LINE
  5
507
330
502
100
AcDbEntity
  8
LAY-20
  6
CONTINUOUS
 62
     4
100
AcDbLine
 10
2332.000003814696
 20
1490.5
 30
0.0
 11
1236.999996185305
 21
1490.5
 31
0.0
  0
INSERT
  5
508
330
502
100
AcDbEntity
  8
LAY-20
 62
     4
100
AcDbBlockReference
  2
EX_BNORM
 10
2369.499999999999
 20
1490.5
 30
0.0
 41
37.49999618530273
 42
37.49999618530273
 43
37.49999618530273
  0
INSERT
  5
509
330
502
100
AcDbEntity
  8
LAY-20
 62
     4
100
AcDbBlockReference
  2
EX_BNORM
 10
1199.500000000002
 20
1490.5
 30
0.0
 41
37.49999618530273
 42
37.49999618530273
 43
37.49999618530273
 50
180.0
  0
MTEXT
  5
50A
330
502
100
AcDbEntity
  8
LAY-20
 62
     7
100
AcDbMText
 10
1784.5
 20
1528.0
 30
0.0
 40
46.77165302633819
 41
0.0
 71
     5
 72
     1
  1
□1170
  7
EXCADDIM1
  0
POINT
  5
50B
330
502
100
AcDbEntity
  8
DEFPOINTS
 62
     0
100
AcDbPoint
 10
2369.499999999999
 20
1235.499999999999
 30
0.0
  0
POINT
  5
50C
330
502
100
AcDbEntity
  8
DEFPOINTS
 62
     0
100
AcDbPoint
 10
1199.500000000002
 20
1235.5
 30
0.0
  0
POINT
  5
50D
330
502
100
AcDbEntity
  8
DEFPOINTS
 62
     0
100
AcDbPoint
 10
1199.500000000002
 20
1490.5
 30
0.0
  0
ENDBLK
  5
504
330
502
100
AcDbEntity
  8
0
100
AcDbBlockEnd
  0
BLOCK
  5
510
330
50F
100
AcDbEntity
  8
0
100
AcDbBlockBegin
  2
*D26
 70
     1
 10
0.0
 20
0.0
 30
0.0
  3
*D26
  1

  0
LINE
  5
512
330
50F
100
AcDbEntity
  8
LAY-20
  6
CONTINUOUS
 62
     4
100
AcDbLine
 10
1984.5
 20
1258.0
 30
0.0
 11
1984.5
 21
1408.0
 31
0.0
  0
LINE
  5
513
330
50F
100
AcDbEntity
  8
LAY-20
  6
CONTINUOUS
 62
     4
100
AcDbLine
 10
1584.5
 20
1258.0
 30
0.0
 11
1584.5
 21
1408.0
 31
0.0
  0
LINE
  5
514
330
50F
100
AcDbEntity
  8
LAY-20
  6
CONTINUOUS
 62
     4
100
AcDbLine
 10
1947.000003814697
 20
1385.5
 30
0.0
 11
1621.999996185303
 21
1385.5
 31
0.0
  0
INSERT
  5
515
330
50F
100
AcDbEntity
  8
LAY-20
 62
     4
100
AcDbBlockReference
  2
EX_BNORM
 10
1984.5
 20
1385.5
 30
0.0
 41
37.49999618530273
 42
37.49999618530273
 43
37.49999618530273
  0
INSERT
  5
516
330
50F
100
AcDbEntity
  8
LAY-20
 62
     4
100
AcDbBlockReference
  2
EX_BNORM
 10
1584.5
 20
1385.5
 30
0.0
 41
37.49999618530273
 42
37.49999618530273
 43
37.49999618530273
 50
180.0
  0
MTEXT
  5
517
330
50F
100
AcDbEntity
  8
LAY-20
 62
     7
100
AcDbMText
 10
1784.5
 20
1423.0
 30
0.0
 40
46.77165302633819
 41
0.0
 71
     5
 72
     1
  1
□400
  7
EXCADDIM1
  0
POINT
  5
518
330
50F
100
AcDbEntity
  8
DEFPOINTS
 62
     0
100
AcDbPoint
 10
1984.5
 20
1235.5
 30
0.0
  0
POINT
  5
519
330
50F
100
AcDbEntity
  8
DEFPOINTS
 62
     0
100
AcDbPoint
 10
1584.5
 20
1235.5
 30
0.0
  0
POINT
  5
51A
330
50F
100
AcDbEntity
  8
DEFPOINTS
 62
     0
100
AcDbPoint
 10
1584.5
 20
1385.5
 30
0.0
  0
ENDBLK
  5
511
330
50F
100
AcDbEntity
  8
0
100
AcDbBlockEnd
  0
BLOCK
  5
51D
330
51C
100
AcDbEntity
  8
0
100
AcDbBlockBegin
  2
*D27
 70
     1
 10
0.0
 20
0.0
 30
0.0
  3
*D27
  1

  0
LINE
  5
51F
330
51C
100
AcDbEntity
  8
LAY-20
  6
CONTINUOUS
 62
     4
100
AcDbLine
 10
1237.5
 20
1068.0
 30
0.0
 11
1237.5
 21
918.0
 31
0.0
  0
LINE
  5
520
330
51C
100
AcDbEntity
  8
LAY-20
  6
CONTINUOUS
 62
     4
100
AcDbLine
 10
2331.5
 20
1068.0
 30
0.0
 11
2331.5
 21
918.0
 31
0.0
  0
LINE
  5
521
330
51C
100
AcDbEntity
  8
LAY-20
  6
CONTINUOUS
 62
     4
100
AcDbLine
 10
1274.999996185303
 20
940.5
 30
0.0
 11
2294.000003814697
 21
940.5
 31
0.0
  0
INSERT
  5
522
330
51C
100
AcDbEntity
  8
LAY-20
 62
     4
100
AcDbBlockReference
  2
EX_BNORM
 10
1237.5
 20
940.5
 30
0.0
 41
37.49999618530273
 42
37.49999618530273
 43
37.49999618530273
 50
180.0
  0
INSERT
  5
523
330
51C
100
AcDbEntity
  8
LAY-20
 62
     4
100
AcDbBlockReference
  2
EX_BNORM
 10
2331.5
 20
940.5
 30
0.0
 41
37.49999618530273
 42
37.49999618530273
 43
37.49999618530273
  0
MTEXT
  5
524
330
51C
100
AcDbEntity
  8
LAY-20
 62
     7
100
AcDbMText
 10
1784.5
 20
978.0
 30
0.0
 40
46.77165302633819
 41
0.0
 71
     5
 72
     1
  1
□1094
  7
EXCADDIM1
  0
POINT
  5
525
330
51C
100
AcDbEntity
  8
DEFPOINTS
 62
     0
100
AcDbPoint
 10
1237.5
 20
1090.5
 30
0.0
  0
POINT
  5
526
330
51C
100
AcDbEntity
  8
DEFPOINTS
 62
     0
100
AcDbPoint
 10
2331.5
 20
1090.5
 30
0.0
  0
POINT
  5
527
330
51C
100
AcDbEntity
  8
DEFPOINTS
 62
     0
100
AcDbPoint
 10
2331.5
 20
940.5
 30
0.0
  0
ENDBLK
  5
51E
330
51C
100
AcDbEntity
  8
0
100
AcDbBlockEnd
  0
ENDSEC
  0
SECTION
  2
ENTITIES
  0
CIRCLE
  5
D6
330
1F
100
AcDbEntity
  8
LAY-10
  6
CONTINUOUS
 62
     7
100
AcDbCircle
 10
1734.500000000005
 20
1187.107695154584
 30
0.0
 40
10.392304845413
  0
LINE
  5
D7
330
1F
100
AcDbEntity
  8
LAY-10
  6
CONTINUOUS
 62
     7
100
AcDbLine
 10
1746.500000000005
 20
1187.107695154585
 30
0.0
 11
1740.500000000005
 21
1197.499999999998
 31
0.0
  0
LINE
  5
D8
330
1F
100
AcDbEntity
  8
LAY-10
  6
CONTINUOUS
 62
     7
100
AcDbLine
 10
1728.500000000005
 20
1197.499999999998
 30
0.0
 11
1722.500000000005
 21
1187.107695154585
 31
0.0
  0
LINE
  5
D9
330
1F
100
AcDbEntity
  8
LAY-10
  6
CONTINUOUS
 62
     7
100
AcDbLine
 10
1722.500000000005
 20
1187.107695154585
 30
0.0
 11
1728.500000000005
 21
1176.715390309172
 31
0.0
  0
LINE
  5
DA
330
1F
100
AcDbEntity
  8
LAY-10
  6
CONTINUOUS
 62
     7
100
AcDbLine
 10
1728.500000000005
 20
1176.715390309172
 30
0.0
 11
1740.500000000005
 21
1176.715390309172
 31
0.0
  0
LINE
  5
DB
330
1F
100
AcDbEntity
  8
LAY-10
  6
CONTINUOUS
 62
     7
100
AcDbLine
 10
1740.500000000005
 20
1176.715390309172
 30
0.0
 11
1746.500000000005
 21
1187.107695154585
 31
0.0
  0
CIRCLE
  5
DC
330
1F
100
AcDbEntity
  8
LAY-10
  6
CONTINUOUS
 62
     7
100
AcDbCircle
 10
1734.500000000005
 20
1187.107695154584
 30
0.0
 40
4.800000000000002
  0
CIRCLE
  5
DD
330
1F
100
AcDbEntity
  8
LAY-10
  6
CONTINUOUS
 62
     7
100
AcDbCircle
 10
1734.500000000005
 20
1187.107695154584
 30
0.0
 40
6.000000000000004
  0
CIRCLE
  5
DE
330
1F
100
AcDbEntity
  8
LAY-10
  6
CONTINUOUS
 62
     7
100
AcDbCircle
 10
1834.499999999995
 20
1187.107695154584
 30
0.0
 40
10.392304845413
  0
LINE
  5
DF
330
1F
100
AcDbEntity
  8
LAY-10
  6
CONTINUOUS
 62
     7
100
AcDbLine
 10
1822.499999999995
 20
1187.107695154585
 30
0.0
 11
1828.499999999995
 21
1197.499999999998
 31
0.0
  0
LINE
  5
E0
330
1F
100
AcDbEntity
  8
LAY-10
  6
CONTINUOUS
 62
     7
100
AcDbLine
 10
1840.499999999995
 20
1197.499999999998
 30
0.0
 11
1846.499999999995
 21
1187.107695154585
 31
0.0
  0
LINE
  5
E1
330
1F
100
AcDbEntity
  8
LAY-10
  6
CONTINUOUS
 62
     7
100
AcDbLine
 10
1846.499999999995
 20
1187.107695154585
 30
0.0
 11
1840.499999999995
 21
1176.715390309172
 31
0.0
  0
LINE
  5
E2
330
1F
100
AcDbEntity
  8
LAY-10
  6
CONTINUOUS
 62
     7
100
AcDbLine
 10
1840.499999999995
 20
1176.715390309172
 30
0.0
 11
1828.499999999995
 21
1176.715390309172
 31
0.0
  0
LINE
  5
E3
330
1F
100
AcDbEntity
  8
LAY-10
  6
CONTINUOUS
 62
     7
100
AcDbLine
 10
1828.499999999995
 20
1176.715390309172
 30
0.0
 11
1822.499999999995
 21
1187.107695154585
 31
0.0
  0
CIRCLE
  5
E4
330
1F
100
AcDbEntity
  8
LAY-10
  6
CONTINUOUS
 62
     7
100
AcDbCircle
 10
1834.499999999995
 20
1187.107695154584
 30
0.0
 40
4.800000000000002
  0
CIRCLE
  5
E5
330
1F
100
AcDbEntity
  8
LAY-10
  6
CONTINUOUS
 62
     7
100
AcDbCircle
 10
1834.499999999995
 20
1187.107695154584
 30
0.0
 40
6.000000000000004
  0
LINE
  5
E6
330
1F
100
AcDbEntity
  8
LAY-10
  6
CONTINUOUS
 62
     7
100
AcDbLine
 10
1946.999999999999
 20
2779.5
 30
0.0
 11
1906.999999999999
 21
2779.5
 31
0.0
  0
LINE
  5
E7
330
1F
100
AcDbEntity
  8
LAY-10
  6
HIDDEN
 62
     7
100
AcDbLine
 10
1822.500000000031
 20
2748.311999999998
 30
0.0
 11
1822.500000000031
 21
2730.688000000002
 31
0.0
  0
ARC
  5
E8
330
1F
100
AcDbEntity
  8
LAY-10
  6
HIDDEN
 62
     7
100
AcDbCircle
 10
1843.500000000031
 20
2733.881878787882
 30
0.0
 40
4.38187878787879
100
AcDbArc
 50
226.7928685396809
 51
313.2071314603191
  0
ARC
  5
E9
330
1F
100
AcDbEntity
  8
LAY-10
  6
HIDDEN
 62
     7
100
AcDbCircle
 10
1834.500000000031
 20
2745.245515151518
 30
0.0
 40
15.74551515151516
100
AcDbArc
 50
247.6005879524133
 51
292.3994120475868
  0
ARC
  5
EA
330
1F
100
AcDbEntity
  8
LAY-10
  6
HIDDEN
 62
     7
100
AcDbCircle
 10
1825.500000000031
 20
2733.881878787882
 30
0.0
 40
4.38187878787879
100
AcDbArc
 50
226.7928685396809
 51
313.2071314603191
  0
LINE
  5
EB
330
1F
100
AcDbEntity
  8
LAY-10
  6
HIDDEN
 62
     7
100
AcDbLine
 10
1825.500000000031
 20
2749.500000000023
 30
0.0
 11
1843.500000000031
 21
2749.50000000002
 31
0.0
  0
ARC
  5
EC
330
1F
100
AcDbEntity
  8
LAY-10
  6
HIDDEN
 62
     7
100
AcDbCircle
 10
1843.500000000031
 20
2745.11812121214
 30
0.0
 40
4.38187878787879
100
AcDbArc
 50
46.7928685396725
 51
133.2071314603108
  0
ARC
  5
ED
330
1F
100
AcDbEntity
  8
LAY-10
  6
HIDDEN
 62
     7
100
AcDbCircle
 10
1834.500000000031
 20
2733.754484848504
 30
0.0
 40
15.74551515151516
100
AcDbArc
 50
67.60058795240803
 51
112.3994120475809
  0
ARC
  5
EE
330
1F
100
AcDbEntity
  8
LAY-10
  6
HIDDEN
 62
     7
100
AcDbCircle
 10
1825.500000000031
 20
2745.118121212142
 30
0.0
 40
4.38187878787879
100
AcDbArc
 50
46.7928685396725
 51
133.2071314603108
  0
LINE
  5
EF
330
1F
100
AcDbEntity
  8
LAY-10
  6
HIDDEN
 62
     7
100
AcDbLine
 10
1846.500000000031
 20
2748.311999999998
 30
0.0
 11
1846.500000000031
 21
2730.688000000002
 31
0.0
  0
LINE
  5
F0
330
1F
100
AcDbEntity
  8
LAY-10
  6
HIDDEN
 62
     7
100
AcDbLine
 10
1840.500000000031
 20
2748.311999999998
 30
0.0
 11
1840.500000000031
 21
2730.688000000002
 31
0.0
  0
LINE
  5
F1
330
1F
100
AcDbEntity
  8
LAY-10
  6
HIDDEN
 62
     7
100
AcDbLine
 10
1828.500000000031
 20
2748.311999999998
 30
0.0
 11
1828.500000000031
 21
2730.688000000002
 31
0.0
  0
LINE
  5
F2
330
1F
100
AcDbEntity
  8
LAY-10
  6
HIDDEN
 62
     7
100
AcDbLine
 10
1746.499999999967
 20
2748.311999999998
 30
0.0
 11
1746.499999999967
 21
2730.688000000002
 31
0.0
  0
ARC
  5
F3
330
1F
100
AcDbEntity
  8
LAY-10
  6
HIDDEN
 62
     7
100
AcDbCircle
 10
1725.499999999967
 20
2733.881878787882
 30
0.0
 40
4.38187878787879
100
AcDbArc
 50
226.7928685396809
 51
313.2071314603191
  0
ARC
  5
F4
330
1F
100
AcDbEntity
  8
LAY-10
  6
HIDDEN
 62
     7
100
AcDbCircle
 10
1734.499999999967
 20
2745.245515151518
 30
0.0
 40
15.74551515151516
100
AcDbArc
 50
247.6005879524137
 51
292.3994120475865
  0
ARC
  5
F5
330
1F
100
AcDbEntity
  8
LAY-10
  6
HIDDEN
 62
     7
100
AcDbCircle
 10
1743.499999999967
 20
2733.881878787882
 30
0.0
 40
4.38187878787879
100
AcDbArc
 50
226.7928685396809
 51
313.2071314603191
  0
LINE
  5
F6
330
1F
100
AcDbEntity
  8
LAY-10
  6
HIDDEN
 62
     7
100
AcDbLine
 10
1743.499999999967
 20
2749.500000000023
 30
0.0
 11
1725.499999999967
 21
2749.50000000002
 31
0.0
  0
ARC
  5
F7
330
1F
100
AcDbEntity
  8
LAY-10
  6
HIDDEN
 62
     7
100
AcDbCircle
 10
1725.499999999967
 20
2745.11812121214
 30
0.0
 40
4.38187878787879
100
AcDbArc
 50
46.79286853968935
 51
133.2071314603276
  0
ARC
  5
F8
330
1F
100
AcDbEntity
  8
LAY-10
  6
HIDDEN
 62
     7
100
AcDbCircle
 10
1734.499999999967
 20
2733.754484848504
 30
0.0
 40
15.74551515151516
100
AcDbArc
 50
67.60058795241886
 51
112.399412047592
  0
ARC
  5
F9
330
1F
100
AcDbEntity
  8
LAY-10
  6
HIDDEN
 62
     7
100
AcDbCircle
 10
1743.499999999967
 20
2745.118121212142
 30
0.0
 40
4.38187878787879
100
AcDbArc
 50
46.79286853968935
 51
133.2071314603276
  0
LINE
  5
FA
330
1F
100
AcDbEntity
  8
LAY-10
  6
HIDDEN
 62
     7
100
AcDbLine
 10
1722.499999999967
 20
2748.311999999998
 30
0.0
 11
1722.499999999967
 21
2730.688000000002
 31
0.0
  0
LINE
  5
FB
330
1F
100
AcDbEntity
  8
LAY-10
  6
HIDDEN
 62
     7
100
AcDbLine
 10
1728.499999999967
 20
2748.311999999998
 30
0.0
 11
1728.499999999967
 21
2730.688000000002
 31
0.0
  0
LINE
  5
FC
330
1F
100
AcDbEntity
  8
LAY-10
  6
HIDDEN
 62
     7
100
AcDbLine
 10
1740.499999999967
 20
2748.311999999998
 30
0.0
 11
1740.499999999967
 21
2730.688000000002
 31
0.0
  0
LINE
  5
FD
330
1F
100
AcDbEntity
  8
LAY-10
  6
HIDDEN
 62
     7
100
AcDbLine
 10
1822.500000000031
 20
2310.688
 30
0.0
 11
1822.500000000031
 21
2328.311999999996
 31
0.0
  0
ARC
  5
FE
330
1F
100
AcDbEntity
  8
LAY-10
  6
HIDDEN
 62
     7
100
AcDbCircle
 10
1843.500000000031
 20
2325.118121212116
 30
0.0
 40
4.38187878787879
100
AcDbArc
 50
46.79286853968087
 51
133.2071314603191
  0
ARC
  5
FF
330
1F
100
AcDbEntity
  8
LAY-10
  6
HIDDEN
 62
     7
100
AcDbCircle
 10
1834.500000000031
 20
2313.75448484848
 30
0.0
 40
15.74551515151516
100
AcDbArc
 50
67.6005879524133
 51
112.3994120475868
  0
ARC
  5
100
330
1F
100
AcDbEntity
  8
LAY-10
  6
HIDDEN
 62
     7
100
AcDbCircle
 10
1825.500000000031
 20
2325.118121212116
 30
0.0
 40
4.38187878787879
100
AcDbArc
 50
46.79286853968087
 51
133.2071314603191
  0
LINE
  5
101
330
1F
100
AcDbEntity
  8
LAY-10
  6
HIDDEN
 62
     7
100
AcDbLine
 10
1825.500000000031
 20
2309.499999999975
 30
0.0
 11
1843.500000000031
 21
2309.499999999977
 31
0.0
  0
ARC
  5
102
330
1F
100
AcDbEntity
  8
LAY-10
  6
HIDDEN
 62
     7
100
AcDbCircle
 10
1843.500000000031
 20
2313.881878787858
 30
0.0
 40
4.38187878787879
100
AcDbArc
 50
226.7928685396893
 51
313.2071314603276
  0
ARC
  5
103
330
1F
100
AcDbEntity
  8
LAY-10
  6
HIDDEN
 62
     7
100
AcDbCircle
 10
1834.500000000031
 20
2325.245515151494
 30
0.0
 40
15.74551515151516
100
AcDbArc
 50
247.6005879524192
 51
292.399412047592
  0
ARC
  5
104
330
1F
100
AcDbEntity
  8
LAY-10
  6
HIDDEN
 62
     7
100
AcDbCircle
 10
1825.500000000031
 20
2313.881878787856
 30
0.0
 40
4.38187878787879
100
AcDbArc
 50
226.7928685396893
 51
313.2071314603276
  0
LINE
  5
105
330
1F
100
AcDbEntity
  8
LAY-10
  6
HIDDEN
 62
     7
100
AcDbLine
 10
1846.500000000031
 20
2310.688
 30
0.0
 11
1846.500000000031
 21
2328.311999999996
 31
0.0
  0
LINE
  5
106
330
1F
100
AcDbEntity
  8
LAY-10
  6
HIDDEN
 62
     7
100
AcDbLine
 10
1840.500000000031
 20
2310.688
 30
0.0
 11
1840.500000000031
 21
2328.311999999996
 31
0.0
  0
LINE
  5
107
330
1F
100
AcDbEntity
  8
LAY-10
  6
HIDDEN
 62
     7
100
AcDbLine
 10
1828.500000000031
 20
2310.688
 30
0.0
 11
1828.500000000031
 21
2328.311999999996
 31
0.0
  0
LINE
  5
108
330
1F
100
AcDbEntity
  8
LAY-10
  6
HIDDEN
 62
     7
100
AcDbLine
 10
1746.499999999968
 20
2310.688
 30
0.0
 11
1746.499999999968
 21
2328.311999999996
 31
0.0
  0
ARC
  5
109
330
1F
100
AcDbEntity
  8
LAY-10
  6
HIDDEN
 62
     7
100
AcDbCircle
 10
1725.499999999968
 20
2325.118121212116
 30
0.0
 40
4.38187878787879
100
AcDbArc
 50
46.79286853968087
 51
133.2071314603191
  0
ARC
  5
10A
330
1F
100
AcDbEntity
  8
LAY-10
  6
HIDDEN
 62
     7
100
AcDbCircle
 10
1734.499999999968
 20
2313.75448484848
 30
0.0
 40
15.74551515151516
100
AcDbArc
 50
67.6005879524133
 51
112.3994120475868
  0
ARC
  5
10B
330
1F
100
AcDbEntity
  8
LAY-10
  6
HIDDEN
 62
     7
100
AcDbCircle
 10
1743.499999999968
 20
2325.118121212116
 30
0.0
 40
4.38187878787879
100
AcDbArc
 50
46.79286853968087
 51
133.2071314603191
  0
LINE
  5
10C
330
1F
100
AcDbEntity
  8
LAY-10
  6
HIDDEN
 62
     7
100
AcDbLine
 10
1743.499999999968
 20
2309.499999999975
 30
0.0
 11
1725.499999999968
 21
2309.499999999977
 31
0.0
  0
ARC
  5
10D
330
1F
100
AcDbEntity
  8
LAY-10
  6
HIDDEN
 62
     7
100
AcDbCircle
 10
1725.499999999968
 20
2313.881878787858
 30
0.0
 40
4.38187878787879
100
AcDbArc
 50
226.7928685396725
 51
313.2071314603107
  0
ARC
  5
10E
330
1F
100
AcDbEntity
  8
LAY-10
  6
HIDDEN
 62
     7
100
AcDbCircle
 10
1734.499999999968
 20
2325.245515151494
 30
0.0
 40
15.74551515151516
100
AcDbArc
 50
247.6005879524081
 51
292.3994120475809
  0
ARC
  5
10F
330
1F
100
AcDbEntity
  8
LAY-10
  6
HIDDEN
 62
     7
100
AcDbCircle
 10
1743.499999999968
 20
2313.881878787856
 30
0.0
 40
4.38187878787879
100
AcDbArc
 50
226.7928685396725
 51
313.2071314603107
  0
LINE
  5
110
330
1F
100
AcDbEntity
  8
LAY-10
  6
HIDDEN
 62
     7
100
AcDbLine
 10
1722.499999999968
 20
2310.688
 30
0.0
 11
1722.499999999968
 21
2328.311999999996
 31
0.0
  0
LINE
  5
111
330
1F
100
AcDbEntity
  8
LAY-10
  6
HIDDEN
 62
     7
100
AcDbLine
 10
1728.499999999968
 20
2310.688
 30
0.0
 11
1728.499999999968
 21
2328.311999999996
 31
0.0
  0
LINE
  5
112
330
1F
100
AcDbEntity
  8
LAY-10
  6
HIDDEN
 62
     7
100
AcDbLine
 10
1740.499999999968
 20
2310.688
 30
0.0
 11
1740.499999999968
 21
2328.311999999996
 31
0.0
  0
LINE
  5
113
330
1F
100
AcDbEntity
  8
LAY-10
  6
HIDDEN
 62
     7
100
AcDbLine
 10
1565.688000000003
 20
2491.499999999965
 30
0.0
 11
1583.311999999999
 21
2491.499999999965
 31
0.0
  0
ARC
  5
114
330
1F
100
AcDbEntity
  8
LAY-10
  6
HIDDEN
 62
     7
100
AcDbCircle
 10
1580.11812121212
 20
2470.499999999965
 30
0.0
 40
4.38187878787879
100
AcDbArc
 50
316.7928685396809
 51
43.2071314603191
  0
ARC
  5
115
330
1F
100
AcDbEntity
  8
LAY-10
  6
HIDDEN
 62
     7
100
AcDbCircle
 10
1568.754484848483
 20
2479.499999999965
 30
0.0
 40
15.74551515151516
100
AcDbArc
 50
337.6005879524137
 51
22.39941204758643
  0
ARC
  5
116
330
1F
100
AcDbEntity
  8
LAY-10
  6
HIDDEN
 62
     7
100
AcDbCircle
 10
1580.11812121212
 20
2488.499999999965
 30
0.0
 40
4.38187878787879
100
AcDbArc
 50
316.7928685396809
 51
43.2071314603191
  0
LINE
  5
117
330
1F
100
AcDbEntity
  8
LAY-10
  6
HIDDEN
 62
     7
100
AcDbLine
 10
1564.499999999978
 20
2488.499999999965
 30
0.0
 11
1564.499999999981
 21
2470.499999999965
 31
0.0
  0
ARC
  5
118
330
1F
100
AcDbEntity
  8
LAY-10
  6
HIDDEN
 62
     7
100
AcDbCircle
 10
1568.881878787862
 20
2470.499999999965
 30
0.0
 40
4.38187878787879
100
AcDbArc
 50
136.7928685396893
 51
223.2071314603275
  0
ARC
  5
119
330
1F
100
AcDbEntity
  8
LAY-10
  6
HIDDEN
 62
     7
100
AcDbCircle
 10
1580.245515151497
 20
2479.499999999965
 30
0.0
 40
15.74551515151516
100
AcDbArc
 50
157.6005879524188
 51
202.3994120475919
  0
ARC
  5
11A
330
1F
100
AcDbEntity
  8
LAY-10
  6
HIDDEN
 62
     7
100
AcDbCircle
 10
1568.881878787859
 20
2488.499999999965
 30
0.0
 40
4.38187878787879
100
AcDbArc
 50
136.7928685396893
 51
223.2071314603275
  0
LINE
  5
11B
330
1F
100
AcDbEntity
  8
LAY-10
  6
HIDDEN
 62
     7
100
AcDbLine
 10
1565.688000000003
 20
2467.499999999965
 30
0.0
 11
1583.311999999999
 21
2467.499999999965
 31
0.0
  0
LINE
  5
11C
330
1F
100
AcDbEntity
  8
LAY-10
  6
HIDDEN
 62
     7
100
AcDbLine
 10
1565.688000000003
 20
2473.499999999965
 30
0.0
 11
1583.311999999999
 21
2473.499999999965
 31
0.0
  0
LINE
  5
11D
330
1F
100
AcDbEntity
  8
LAY-10
  6
HIDDEN
 62
     7
100
AcDbLine
 10
1565.688000000003
 20
2485.499999999965
 30
0.0
 11
1583.311999999999
 21
2485.499999999965
 31
0.0
  0
LINE
  5
11E
330
1F
100
AcDbEntity
  8
LAY-10
  6
HIDDEN
 62
     7
100
AcDbLine
 10
1565.688000000003
 20
2567.500000000033
 30
0.0
 11
1583.311999999999
 21
2567.500000000033
 31
0.0
  0
ARC
  5
11F
330
1F
100
AcDbEntity
  8
LAY-10
  6
HIDDEN
 62
     7
100
AcDbCircle
 10
1580.11812121212
 20
2588.500000000033
 30
0.0
 40
4.38187878787879
100
AcDbArc
 50
316.7928685396809
 51
43.2071314603191
  0
ARC
  5
120
330
1F
100
AcDbEntity
  8
LAY-10
  6
HIDDEN
 62
     7
100
AcDbCircle
 10
1568.754484848483
 20
2579.500000000033
 30
0.0
 40
15.74551515151516
100
AcDbArc
 50
337.6005879524133
 51
22.39941204758672
  0
ARC
  5
121
330
1F
100
AcDbEntity
  8
LAY-10
  6
HIDDEN
 62
     7
100
AcDbCircle
 10
1580.11812121212
 20
2570.500000000033
 30
0.0
 40
4.38187878787879
100
AcDbArc
 50
316.7928685396809
 51
43.2071314603191
  0
LINE
  5
122
330
1F
100
AcDbEntity
  8
LAY-10
  6
HIDDEN
 62
     7
100
AcDbLine
 10
1564.499999999978
 20
2570.500000000033
 30
0.0
 11
1564.499999999981
 21
2588.500000000033
 31
0.0
  0
ARC
  5
123
330
1F
100
AcDbEntity
  8
LAY-10
  6
HIDDEN
 62
     7
100
AcDbCircle
 10
1568.881878787862
 20
2588.500000000033
 30
0.0
 40
4.38187878787879
100
AcDbArc
 50
136.7928685396725
 51
223.2071314603107
  0
ARC
  5
124
330
1F
100
AcDbEntity
  8
LAY-10
  6
HIDDEN
 62
     7
100
AcDbCircle
 10
1580.245515151497
 20
2579.500000000033
 30
0.0
 40
15.74551515151516
100
AcDbArc
 50
157.6005879524081
 51
202.3994120475809
  0
ARC
  5
125
330
1F
100
AcDbEntity
  8
LAY-10
  6
HIDDEN
 62
     7
100
AcDbCircle
 10
1568.881878787859
 20
2570.500000000033
 30
0.0
 40
4.38187878787879
100
AcDbArc
 50
136.7928685396725
 51
223.2071314603107
  0
LINE
  5
126
330
1F
100
AcDbEntity
  8
LAY-10
  6
HIDDEN
 62
     7
100
AcDbLine
 10
1565.688000000003
 20
2591.500000000033
 30
0.0
 11
1583.311999999999
 21
2591.500000000033
 31
0.0
  0
LINE
  5
127
330
1F
100
AcDbEntity
  8
LAY-10
  6
HIDDEN
 62
     7
100
AcDbLine
 10
1565.688000000003
 20
2585.500000000033
 30
0.0
 11
1583.311999999999
 21
2585.500000000033
 31
0.0
  0
LINE
  5
128
330
1F
100
AcDbEntity
  8
LAY-10
  6
HIDDEN
 62
     7
100
AcDbLine
 10
1565.688000000003
 20
2573.500000000033
 30
0.0
 11
1583.311999999999
 21
2573.500000000033
 31
0.0
  0
LINE
  5
129
330
1F
100
AcDbEntity
  8
LAY-10
  6
CONTINUOUS
 62
     7
100
AcDbLine
 10
1581.5
 20
2732.5
 30
0.0
 11
1581.500000000001
 21
2532.5
 31
0.0
  0
LINE
  5
12A
330
1F
100
AcDbEntity
  8
LAY-10
  6
CONTINUOUS
 62
     7
100
AcDbLine
 10
1781.5
 20
2732.5
 30
0.0
 11
1581.5
 21
2732.5
 31
0.0
  0
LINE
  5
12B
330
1F
100
AcDbEntity
  8
LAY-10
  6
CONTINUOUS
 62
     7
100
AcDbLine
 10
1581.500000000001
 20
2526.5
 30
0.0
 11
1581.5
 21
2326.499999999999
 31
0.0
  0
LINE
  5
12C
330
1F
100
AcDbEntity
  8
LAY-10
  6
CONTINUOUS
 62
     7
100
AcDbLine
 10
1581.5
 20
2326.499999999999
 30
0.0
 11
1781.500000000001
 21
2326.499999999999
 31
0.0
  0
LINE
  5
12D
330
1F
100
AcDbEntity
  8
LAY-10
  6
CONTINUOUS
 62
     7
100
AcDbLine
 10
1584.500000000001
 20
2329.5
 30
0.0
 11
1584.5
 21
2729.5
 31
0.0
  0
LINE
  5
12E
330
1F
100
AcDbEntity
  8
LAY-10
  6
HIDDEN
 62
     7
100
AcDbLine
 10
1544.499999999998
 20
2769.500000000001
 30
0.0
 11
1544.499999999998
 21
2289.499999999996
 31
0.0
  0
LINE
  5
12F
330
1F
100
AcDbEntity
  8
LAY-10
  6
HIDDEN
 62
     7
100
AcDbLine
 10
2003.311999999996
 20
2491.499999999965
 30
0.0
 11
1985.688
 21
2491.499999999965
 31
0.0
  0
ARC
  5
130
330
1F
100
AcDbEntity
  8
LAY-10
  6
HIDDEN
 62
     7
100
AcDbCircle
 10
1988.881878787879
 20
2470.499999999965
 30
0.0
 40
4.38187878787879
100
AcDbArc
 50
136.7928685396809
 51
223.2071314603191
  0
ARC
  5
131
330
1F
100
AcDbEntity
  8
LAY-10
  6
HIDDEN
 62
     7
100
AcDbCircle
 10
2000.245515151516
 20
2479.499999999965
 30
0.0
 40
15.74551515151516
100
AcDbArc
 50
157.6005879524136
 51
202.3994120475864
  0
ARC
  5
132
330
1F
100
AcDbEntity
  8
LAY-10
  6
HIDDEN
 62
     7
100
AcDbCircle
 10
1988.881878787879
 20
2488.499999999965
 30
0.0
 40
4.38187878787879
100
AcDbArc
 50
136.7928685396809
 51
223.2071314603191
  0
LINE
  5
133
330
1F
100
AcDbEntity
  8
LAY-10
  6
HIDDEN
 62
     7
100
AcDbLine
 10
2004.500000000021
 20
2488.499999999965
 30
0.0
 11
2004.500000000018
 21
2470.499999999965
 31
0.0
  0
ARC
  5
134
330
1F
100
AcDbEntity
  8
LAY-10
  6
HIDDEN
 62
     7
100
AcDbCircle
 10
2000.118121212137
 20
2470.499999999965
 30
0.0
 40
4.38187878787879
100
AcDbArc
 50
316.7928685396769
 51
43.20713146031503
  0
ARC
  5
135
330
1F
100
AcDbEntity
  8
LAY-10
  6
HIDDEN
 62
     7
100
AcDbCircle
 10
1988.754484848502
 20
2479.499999999965
 30
0.0
 40
15.74551515151516
100
AcDbArc
 50
337.6005879524097
 51
22.39941204758271
  0
ARC
  5
136
330
1F
100
AcDbEntity
  8
LAY-10
  6
HIDDEN
 62
     7
100
AcDbCircle
 10
2000.11812121214
 20
2488.499999999965
 30
0.0
 40
4.38187878787879
100
AcDbArc
 50
316.7928685396769
 51
43.20713146031503
  0
LINE
  5
137
330
1F
100
AcDbEntity
  8
LAY-10
  6
HIDDEN
 62
     7
100
AcDbLine
 10
2003.311999999996
 20
2467.499999999965
 30
0.0
 11
1985.688
 21
2467.499999999965
 31
0.0
  0
LINE
  5
138
330
1F
100
AcDbEntity
  8
LAY-10
  6
HIDDEN
 62
     7
100
AcDbLine
 10
2003.311999999996
 20
2473.499999999965
 30
0.0
 11
1985.688
 21
2473.499999999965
 31
0.0
  0
LINE
  5
139
330
1F
100
AcDbEntity
  8
LAY-10
  6
HIDDEN
 62
     7
100
AcDbLine
 10
2003.311999999996
 20
2485.499999999965
 30
0.0
 11
1985.688
 21
2485.499999999965
 31
0.0
  0
LINE
  5
13A
330
1F
100
AcDbEntity
  8
LAY-10
  6
HIDDEN
 62
     7
100
AcDbLine
 10
2003.311999999996
 20
2567.500000000033
 30
0.0
 11
1985.688
 21
2567.500000000033
 31
0.0
  0
ARC
  5
13B
330
1F
100
AcDbEntity
  8
LAY-10
  6
HIDDEN
 62
     7
100
AcDbCircle
 10
1988.881878787879
 20
2588.500000000033
 30
0.0
 40
4.38187878787879
100
AcDbArc
 50
136.7928685396809
 51
223.2071314603191
  0
ARC
  5
13C
330
1F
100
AcDbEntity
  8
LAY-10
  6
HIDDEN
 62
     7
100
AcDbCircle
 10
2000.245515151516
 20
2579.500000000033
 30
0.0
 40
15.74551515151516
100
AcDbArc
 50
157.6005879524136
 51
202.3994120475864
  0
ARC
  5
13D
330
1F
100
AcDbEntity
  8
LAY-10
  6
HIDDEN
 62
     7
100
AcDbCircle
 10
1988.881878787879
 20
2570.500000000033
 30
0.0
 40
4.38187878787879
100
AcDbArc
 50
136.7928685396809
 51
223.2071314603191
  0
LINE
  5
13E
330
1F
100
AcDbEntity
  8
LAY-10
  6
HIDDEN
 62
     7
100
AcDbLine
 10
2004.500000000021
 20
2570.500000000033
 30
0.0
 11
2004.500000000018
 21
2588.500000000033
 31
0.0
  0
ARC
  5
13F
330
1F
100
AcDbEntity
  8
LAY-10
  6
HIDDEN
 62
     7
100
AcDbCircle
 10
2000.118121212137
 20
2588.500000000033
 30
0.0
 40
4.38187878787879
100
AcDbArc
 50
316.7928685396936
 51
43.20713146033187
  0
ARC
  5
140
330
1F
100
AcDbEntity
  8
LAY-10
  6
HIDDEN
 62
     7
100
AcDbCircle
 10
1988.754484848502
 20
2579.500000000033
 30
0.0
 40
15.74551515151516
100
AcDbArc
 50
337.6005879524203
 51
22.39941204759348
  0
ARC
  5
141
330
1F
100
AcDbEntity
  8
LAY-10
  6
HIDDEN
 62
     7
100
AcDbCircle
 10
2000.11812121214
 20
2570.500000000033
 30
0.0
 40
4.38187878787879
100
AcDbArc
 50
316.7928685396936
 51
43.20713146033187
  0
LINE
  5
142
330
1F
100
AcDbEntity
  8
LAY-10
  6
HIDDEN
 62
     7
100
AcDbLine
 10
2003.311999999996
 20
2591.500000000033
 30
0.0
 11
1985.688
 21
2591.500000000033
 31
0.0
  0
LINE
  5
143
330
1F
100
AcDbEntity
  8
LAY-10
  6
HIDDEN
 62
     7
100
AcDbLine
 10
2003.311999999996
 20
2585.500000000033
 30
0.0
 11
1985.688
 21
2585.500000000033
 31
0.0
  0
LINE
  5
144
330
1F
100
AcDbEntity
  8
LAY-10
  6
HIDDEN
 62
     7
100
AcDbLine
 10
2003.311999999996
 20
2573.500000000033
 30
0.0
 11
1985.688
 21
2573.500000000033
 31
0.0
  0
LINE
  5
145
330
1F
100
AcDbEntity
  8
LAY-10
  6
CONTINUOUS
 62
     7
100
AcDbLine
 10
1987.5
 20
2532.5
 30
0.0
 11
1987.5
 21
2732.5
 31
0.0
  0
LINE
  5
146
330
1F
100
AcDbEntity
  8
LAY-10
  6
CONTINUOUS
 62
     7
100
AcDbLine
 10
1987.5
 20
2732.5
 30
0.0
 11
1787.5
 21
2732.5
 31
0.0
  0
LINE
  5
147
330
1F
100
AcDbEntity
  8
LAY-10
  6
CONTINUOUS
 62
     7
100
AcDbLine
 10
1787.500000000001
 20
2326.499999999999
 30
0.0
 11
1987.5
 21
2326.499999999999
 31
0.0
  0
LINE
  5
148
330
1F
100
AcDbEntity
  8
LAY-10
  6
CONTINUOUS
 62
     7
100
AcDbLine
 10
1987.5
 20
2326.499999999999
 30
0.0
 11
1987.5
 21
2526.5
 31
0.0
  0
LINE
  5
149
330
1F
100
AcDbEntity
  8
LAY-10
  6
CONTINUOUS
 62
     7
100
AcDbLine
 10
1984.5
 20
2329.5
 30
0.0
 11
1984.5
 21
2729.5
 31
0.0
  0
LINE
  5
14A
330
1F
100
AcDbEntity
  8
LAY-10
  6
CONTINUOUS
 62
     7
100
AcDbLine
 10
1584.500000000001
 20
2729.5
 30
0.0
 11
1984.5
 21
2729.5
 31
0.0
  0
LINE
  5
14B
330
1F
100
AcDbEntity
  8
LAY-10
  6
CONTINUOUS
 62
     7
100
AcDbLine
 10
1584.5
 20
2329.5
 30
0.0
 11
1984.5
 21
2329.5
 31
0.0
  0
LINE
  5
14C
330
1F
100
AcDbEntity
  8
LAY-10
  6
HIDDEN
 62
     7
100
AcDbLine
 10
2024.5
 20
2769.500000000001
 30
0.0
 11
2024.5
 21
2289.499999999997
 31
0.0
  0
LINE
  5
14D
330
1F
100
AcDbEntity
  8
LAY-10
  6
CONTINUOUS
 62
     7
100
AcDbLine
 10
1902.000000000002
 20
3120.5
 30
0.0
 11
1952.000000000002
 21
3120.5
 31
0.0
  0
LINE
  5
14E
330
1F
100
AcDbEntity
  8
LAY-10
  6
CONTINUOUS
 62
     7
100
AcDbLine
 10
1901.999999999997
 20
3120.5
 30
0.0
 11
1901.999999999997
 21
3114.5
 31
0.0
  0
LINE
  5
14F
330
1F
100
AcDbEntity
  8
LAY-10
  6
CONTINUOUS
 62
     7
100
AcDbLine
 10
1951.999999999997
 20
3120.5
 30
0.0
 11
1951.999999999997
 21
3114.5
 31
0.0
  0
LINE
  5
150
330
1F
100
AcDbEntity
  8
LAY-10
  6
CONTINUOUS
 62
     7
100
AcDbLine
 10
1666.999999999997
 20
3120.5
 30
0.0
 11
1616.999999999997
 21
3120.5
 31
0.0
  0
LINE
  5
151
330
1F
100
AcDbEntity
  8
LAY-10
  6
CONTINUOUS
 62
     7
100
AcDbLine
 10
1667.000000000002
 20
3120.5
 30
0.0
 11
1667.000000000002
 21
3114.5
 31
0.0
  0
LINE
  5
152
330
1F
100
AcDbEntity
  8
LAY-10
  6
CONTINUOUS
 62
     7
100
AcDbLine
 10
1617.000000000002
 20
3120.5
 30
0.0
 11
1617.000000000002
 21
3114.5
 31
0.0
  0
LINE
  5
153
330
1F
100
AcDbEntity
  8
LAY-10
  6
CONTINUOUS
 62
     7
100
AcDbLine
 10
1800.5
 20
3161.5
 30
0.0
 11
1800.5
 21
3126.5
 31
0.0
  0
LINE
  5
154
330
1F
100
AcDbEntity
  8
LAY-10
  6
CONTINUOUS
 62
     7
100
AcDbLine
 10
1768.5
 20
3161.5
 30
0.0
 11
1768.5
 21
3126.5
 31
0.0
  0
LINE
  5
155
330
1F
100
AcDbEntity
  8
LAY-10
  6
CONTINUOUS
 62
     7
100
AcDbLine
 10
1768.5
 20
3161.5
 30
0.0
 11
1800.5
 21
3161.5
 31
0.0
  0
LINE
  5
156
330
1F
100
AcDbEntity
  8
LAY-10
  6
CONTINUOUS
 62
     7
100
AcDbLine
 10
1946.999999999999
 20
3064.5
 30
0.0
 11
1906.999999999999
 21
3064.5
 31
0.0
  0
LINE
  5
157
330
1F
100
AcDbEntity
  8
LAY-10
  6
CONTINUOUS
 62
     7
100
AcDbLine
 10
1939.5
 20
3064.5
 30
0.0
 11
1939.499999999998
 21
2779.5
 31
0.0
  0
LINE
  5
158
330
1F
100
AcDbEntity
  8
LAY-10
  6
CONTINUOUS
 62
     7
100
AcDbLine
 10
1946.999999999998
 20
2779.5
 30
0.0
 11
1946.999999999999
 21
3064.5
 31
0.0
  0
LINE
  5
159
330
1F
100
AcDbEntity
  8
LAY-10
  6
CONTINUOUS
 62
     7
100
AcDbLine
 10
1914.500000000001
 20
3064.5
 30
0.0
 11
1914.499999999999
 21
2779.5
 31
0.0
  0
LINE
  5
15A
330
1F
100
AcDbEntity
  8
LAY-10
  6
CONTINUOUS
 62
     7
100
AcDbLine
 10
1906.999999999999
 20
2779.5
 30
0.0
 11
1907.0
 21
3064.5
 31
0.0
  0
LINE
  5
15B
330
1F
100
AcDbEntity
  8
LAY-10
  6
CONTINUOUS
 62
     7
100
AcDbLine
 10
1781.5
 20
2732.5
 30
0.0
 11
1781.5
 21
3111.5
 31
0.0
  0
LINE
  5
15C
330
1F
100
AcDbEntity
  8
LAY-10
  6
CONTINUOUS
 62
     7
100
AcDbLine
 10
1787.5
 20
2732.5
 30
0.0
 11
1787.499999999999
 21
3111.5
 31
0.0
  0
LINE
  5
15D
330
1F
100
AcDbEntity
  8
LAY-10
  6
CONTINUOUS
 62
     7
100
AcDbLine
 10
1902.000000000002
 20
1938.499999999999
 30
0.0
 11
1952.000000000002
 21
1938.499999999999
 31
0.0
  0
LINE
  5
15E
330
1F
100
AcDbEntity
  8
LAY-10
  6
CONTINUOUS
 62
     7
100
AcDbLine
 10
1901.999999999997
 20
1938.499999999999
 30
0.0
 11
1901.999999999997
 21
1944.499999999999
 31
0.0
  0
LINE
  5
15F
330
1F
100
AcDbEntity
  8
LAY-10
  6
CONTINUOUS
 62
     7
100
AcDbLine
 10
1951.999999999997
 20
1938.499999999999
 30
0.0
 11
1951.999999999997
 21
1944.499999999999
 31
0.0
  0
LINE
  5
160
330
1F
100
AcDbEntity
  8
LAY-10
  6
CONTINUOUS
 62
     7
100
AcDbLine
 10
1666.999999999997
 20
1938.499999999999
 30
0.0
 11
1616.999999999997
 21
1938.499999999999
 31
0.0
  0
LINE
  5
161
330
1F
100
AcDbEntity
  8
LAY-10
  6
CONTINUOUS
 62
     7
100
AcDbLine
 10
1667.000000000002
 20
1938.499999999999
 30
0.0
 11
1667.000000000002
 21
1944.499999999999
 31
0.0
  0
LINE
  5
162
330
1F
100
AcDbEntity
  8
LAY-10
  6
CONTINUOUS
 62
     7
100
AcDbLine
 10
1617.000000000002
 20
1938.499999999999
 30
0.0
 11
1617.000000000002
 21
1944.499999999999
 31
0.0
  0
LINE
  5
163
330
1F
100
AcDbEntity
  8
LAY-10
  6
CONTINUOUS
 62
     7
100
AcDbLine
 10
1800.5
 20
1897.5
 30
0.0
 11
1800.5
 21
1932.499999999999
 31
0.0
  0
LINE
  5
164
330
1F
100
AcDbEntity
  8
LAY-10
  6
CONTINUOUS
 62
     7
100
AcDbLine
 10
1768.5
 20
1897.5
 30
0.0
 11
1768.5
 21
1932.499999999999
 31
0.0
  0
LINE
  5
165
330
1F
100
AcDbEntity
  8
LAY-10
  6
CONTINUOUS
 62
     7
100
AcDbLine
 10
1768.5
 20
1897.5
 30
0.0
 11
1800.5
 21
1897.5
 31
0.0
  0
LINE
  5
166
330
1F
100
AcDbEntity
  8
LAY-10
  6
CONTINUOUS
 62
     7
100
AcDbLine
 10
1787.500000000001
 20
2326.5
 30
0.0
 11
1787.5
 21
1947.5
 31
0.0
  0
LINE
  5
167
330
1F
100
AcDbEntity
  8
LAY-10
  6
CONTINUOUS
 62
     7
100
AcDbLine
 10
1781.500000000001
 20
2326.5
 30
0.0
 11
1781.500000000001
 21
1947.5
 31
0.0
  0
LINE
  5
168
330
1F
100
AcDbEntity
  8
LAY-10
  6
HIDDEN
 62
     7
100
AcDbLine
 10
2331.5
 20
1982.5
 30
0.0
 11
2331.5
 21
3076.5
 31
0.0
  0
LINE
  5
169
330
1F
100
AcDbEntity
  8
LAY-10
  6
CONTINUOUS
 62
     7
100
AcDbLine
 10
2369.499999999999
 20
1944.499999999999
 30
0.0
 11
2369.499999999999
 21
3114.499999999999
 31
0.0
  0
LINE
  5
16A
330
1F
100
AcDbEntity
  8
LAY-10
  6
CONTINUOUS
 62
     7
100
AcDbLine
 10
2366.5
 20
1947.499999999999
 30
0.0
 11
2366.5
 21
2526.5
 31
0.0
  0
LINE
  5
16B
330
1F
100
AcDbEntity
  8
LAY-10
  6
CONTINUOUS
 62
     7
100
AcDbLine
 10
2378.499999999999
 20
1235.499999999999
 30
0.0
 11
2381.5
 21
1235.499999999999
 31
0.0
  0
LINE
  5
16C
330
1F
100
AcDbEntity
  8
LAY-10
  6
CONTINUOUS
 62
     7
100
AcDbLine
 10
2375.500000000001
 20
2111.999999999993
 30
0.0
 11
2369.500000000001
 21
2111.999999999993
 31
0.0
  0
LINE
  5
16D
330
1F
100
AcDbEntity
  8
LAY-10
  6
CONTINUOUS
 62
     7
100
AcDbLine
 10
2375.500000000001
 20
2061.999999999993
 30
0.0
 11
2369.500000000001
 21
2061.999999999993
 31
0.0
  0
LINE
  5
16E
330
1F
100
AcDbEntity
  8
LAY-10
  6
CONTINUOUS
 62
     7
100
AcDbLine
 10
2375.500000000001
 20
2061.999999999999
 30
0.0
 11
2375.500000000001
 21
2111.999999999999
 31
0.0
  0
LINE
  5
16F
330
1F
100
AcDbEntity
  8
LAY-10
  6
CONTINUOUS
 62
     7
100
AcDbLine
 10
2202.000000000005
 20
1938.499999999998
 30
0.0
 11
2202.000000000005
 21
1944.499999999998
 31
0.0
  0
LINE
  5
170
330
1F
100
AcDbEntity
  8
LAY-10
  6
CONTINUOUS
 62
     7
100
AcDbLine
 10
2252.000000000004
 20
1938.499999999998
 30
0.0
 11
2252.000000000004
 21
1944.499999999998
 31
0.0
  0
LINE
  5
171
330
1F
100
AcDbEntity
  8
LAY-10
  6
CONTINUOUS
 62
     7
100
AcDbLine
 10
2252.0
 20
1938.499999999998
 30
0.0
 11
2202.0
 21
1938.499999999998
 31
0.0
  0
LINE
  5
172
330
1F
100
AcDbEntity
  8
LAY-10
  6
CONTINUOUS
 62
     7
100
AcDbLine
 10
2207.0
 20
2579.499999999999
 30
0.0
 11
2207.0
 21
3064.5
 31
0.0
  0
LINE
  5
173
330
1F
100
AcDbEntity
  8
LAY-10
  6
CONTINUOUS
 62
     7
100
AcDbLine
 10
2214.500000000001
 20
3064.5
 30
0.0
 11
2214.5
 21
2579.499999999999
 31
0.0
  0
LINE
  5
174
330
1F
100
AcDbEntity
  8
LAY-10
  6
CONTINUOUS
 62
     7
100
AcDbLine
 10
2246.999999999999
 20
2579.499999999999
 30
0.0
 11
2246.999999999999
 21
3064.5
 31
0.0
  0
LINE
  5
175
330
1F
100
AcDbEntity
  8
LAY-10
  6
CONTINUOUS
 62
     7
100
AcDbLine
 10
2239.499999999999
 20
3064.5
 30
0.0
 11
2239.499999999999
 21
2579.499999999999
 31
0.0
  0
LINE
  5
176
330
1F
100
AcDbEntity
  8
LAY-10
  6
CONTINUOUS
 62
     7
100
AcDbLine
 10
2366.5
 20
2532.5
 30
0.0
 11
2366.499999999999
 21
3111.499999999999
 31
0.0
  0
LINE
  5
177
330
1F
100
AcDbEntity
  8
LAY-10
  6
CONTINUOUS
 62
     7
100
AcDbLine
 10
2246.999999999999
 20
3064.5
 30
0.0
 11
2207.0
 21
3064.5
 31
0.0
  0
LINE
  5
178
330
1F
100
AcDbEntity
  8
LAY-10
  6
CONTINUOUS
 62
     7
100
AcDbLine
 10
2375.5
 20
2947.000000000004
 30
0.0
 11
2369.5
 21
2947.000000000004
 31
0.0
  0
LINE
  5
179
330
1F
100
AcDbEntity
  8
LAY-10
  6
CONTINUOUS
 62
     7
100
AcDbLine
 10
2375.5
 20
2997.000000000004
 30
0.0
 11
2369.5
 21
2997.000000000004
 31
0.0
  0
LINE
  5
17A
330
1F
100
AcDbEntity
  8
LAY-10
  6
CONTINUOUS
 62
     7
100
AcDbLine
 10
2375.5
 20
2996.999999999999
 30
0.0
 11
2375.5
 21
2946.999999999999
 31
0.0
  0
LINE
  5
17B
330
1F
100
AcDbEntity
  8
LAY-10
  6
CONTINUOUS
 62
     7
100
AcDbLine
 10
2202.000000000004
 20
3120.5
 30
0.0
 11
2202.000000000004
 21
3114.499999999999
 31
0.0
  0
LINE
  5
17C
330
1F
100
AcDbEntity
  8
LAY-10
  6
CONTINUOUS
 62
     7
100
AcDbLine
 10
2252.000000000004
 20
3120.5
 30
0.0
 11
2252.000000000004
 21
3114.499999999999
 31
0.0
  0
LINE
  5
17D
330
1F
100
AcDbEntity
  8
LAY-10
  6
CONTINUOUS
 62
     7
100
AcDbLine
 10
2252.0
 20
3120.499999999999
 30
0.0
 11
2201.999999999999
 21
3120.499999999999
 31
0.0
  0
LINE
  5
17E
330
1F
100
AcDbEntity
  8
LAY-10
  6
CONTINUOUS
 62
     7
100
AcDbLine
 10
1987.5
 20
2526.5
 30
0.0
 11
2366.5
 21
2526.5
 31
0.0
  0
LINE
  5
17F
330
1F
100
AcDbEntity
  8
LAY-10
  6
CONTINUOUS
 62
     7
100
AcDbLine
 10
1987.5
 20
2532.5
 30
0.0
 11
2366.5
 21
2532.5
 31
0.0
  0
LINE
  5
180
330
1F
100
AcDbEntity
  8
LAY-10
  6
CONTINUOUS
 62
     7
100
AcDbLine
 10
2623.0
 20
2721.899999999999
 30
0.0
 11
2623.0
 21
2337.099999999999
 31
0.0
  0
LINE
  5
181
330
1F
100
AcDbEntity
  8
LAY-10
  6
CONTINUOUS
 62
     7
100
AcDbLine
 10
2623.0
 20
2337.1
 30
0.0
 11
2606.31461246655
 21
2399.3707140188
 31
0.0
  0
LINE
  5
182
330
1F
100
AcDbEntity
  8
LAY-10
  6
CONTINUOUS
 62
     7
100
AcDbLine
 10
2622.999999999999
 20
2337.1
 30
0.0
 11
2639.685387533448
 21
2399.3707140188
 31
0.0
  0
LINE
  5
183
330
1F
100
AcDbEntity
  8
LAY-10
  6
CONTINUOUS
 62
     7
100
AcDbLine
 10
2623.0
 20
2721.899999999999
 30
0.0
 11
2606.31461246655
 21
2659.629285981198
 31
0.0
  0
LINE
  5
184
330
1F
100
AcDbEntity
  8
LAY-10
  6
CONTINUOUS
 62
     7
100
AcDbLine
 10
2622.999999999999
 20
2721.899999999999
 30
0.0
 11
2639.685387533448
 21
2659.629285981198
 31
0.0
  0
LINE
  5
185
330
1F
100
AcDbEntity
  8
LAY-10
  6
CONTINUOUS
 62
     7
100
AcDbLine
 10
2535.999999999998
 20
2529.499999999999
 30
0.0
 11
2709.999999999998
 21
2529.499999999999
 31
0.0
  0
LINE
  5
186
330
1F
100
AcDbEntity
  8
LAY-10
  6
CONTINUOUS
 62
     7
100
AcDbLine
 10
2247.0
 20
2579.499999999999
 30
0.0
 11
2207.0
 21
2579.499999999999
 31
0.0
  0
LINE
  5
187
330
1F
100
AcDbEntity
  8
LAY-10
  6
CONTINUOUS
 62
     7
100
AcDbLine
 10
2416.499999999996
 20
2413.500000000002
 30
0.0
 11
2416.499999999996
 21
2445.500000000002
 31
0.0
  0
LINE
  5
188
330
1F
100
AcDbEntity
  8
LAY-10
  6
CONTINUOUS
 62
     7
100
AcDbLine
 10
2416.499999999996
 20
2413.500000000002
 30
0.0
 11
2381.499999999998
 21
2413.500000000002
 31
0.0
  0
LINE
  5
189
330
1F
100
AcDbEntity
  8
LAY-10
  6
CONTINUOUS
 62
     7
100
AcDbLine
 10
2416.499999999996
 20
2445.500000000002
 30
0.0
 11
2381.499999999998
 21
2445.500000000002
 31
0.0
  0
LINE
  5
18A
330
1F
100
AcDbEntity
  8
LAY-10
  6
CONTINUOUS
 62
     7
100
AcDbLine
 10
2416.499999999996
 20
2645.499999999997
 30
0.0
 11
2416.499999999996
 21
2613.499999999996
 31
0.0
  0
LINE
  5
18B
330
1F
100
AcDbEntity
  8
LAY-10
  6
CONTINUOUS
 62
     7
100
AcDbLine
 10
2416.499999999996
 20
2645.499999999997
 30
0.0
 11
2381.499999999997
 21
2645.499999999997
 31
0.0
  0
LINE
  5
18C
330
1F
100
AcDbEntity
  8
LAY-10
  6
CONTINUOUS
 62
     7
100
AcDbLine
 10
2416.499999999996
 20
2613.499999999996
 30
0.0
 11
2381.499999999997
 21
2613.499999999996
 31
0.0
  0
LINE
  5
18D
330
1F
100
AcDbEntity
  8
LAY-10
  6
CONTINUOUS
 62
     7
100
AcDbLine
 10
2375.5
 20
2362.000000000001
 30
0.0
 11
2369.5
 21
2362.000000000001
 31
0.0
  0
LINE
  5
18E
330
1F
100
AcDbEntity
  8
LAY-10
  6
CONTINUOUS
 62
     7
100
AcDbLine
 10
2375.5
 20
2412.000000000001
 30
0.0
 11
2369.5
 21
2412.000000000001
 31
0.0
  0
LINE
  5
18F
330
1F
100
AcDbEntity
  8
LAY-10
  6
CONTINUOUS
 62
     7
100
AcDbLine
 10
2375.5
 20
2411.999999999996
 30
0.0
 11
2375.5
 21
2361.999999999996
 31
0.0
  0
LINE
  5
190
330
1F
100
AcDbEntity
  8
LAY-10
  6
CONTINUOUS
 62
     7
100
AcDbLine
 10
2375.500000000001
 20
2696.999999999996
 30
0.0
 11
2369.5
 21
2696.999999999996
 31
0.0
  0
LINE
  5
191
330
1F
100
AcDbEntity
  8
LAY-10
  6
CONTINUOUS
 62
     7
100
AcDbLine
 10
2375.500000000001
 20
2646.999999999996
 30
0.0
 11
2369.5
 21
2646.999999999996
 31
0.0
  0
LINE
  5
192
330
1F
100
AcDbEntity
  8
LAY-10
  6
CONTINUOUS
 62
     7
100
AcDbLine
 10
2375.5
 20
2647.000000000001
 30
0.0
 11
2375.5
 21
2697.000000000001
 31
0.0
  0
LINE
  5
193
330
1F
100
AcDbEntity
  8
LAY-10
  6
CONTINUOUS
 62
     7
100
AcDbLine
 10
1193.5
 20
2411.999999999998
 30
0.0
 11
1193.5
 21
2361.999999999998
 31
0.0
  0
LINE
  5
194
330
1F
100
AcDbEntity
  8
LAY-10
  6
CONTINUOUS
 62
     7
100
AcDbLine
 10
1193.5
 20
2412.000000000003
 30
0.0
 11
1199.5
 21
2412.000000000003
 31
0.0
  0
LINE
  5
195
330
1F
100
AcDbEntity
  8
LAY-10
  6
CONTINUOUS
 62
     7
100
AcDbLine
 10
1193.5
 20
2362.000000000003
 30
0.0
 11
1199.5
 21
2362.000000000003
 31
0.0
  0
LINE
  5
196
330
1F
100
AcDbEntity
  8
LAY-10
  6
CONTINUOUS
 62
     7
100
AcDbLine
 10
1193.5
 20
2647.000000000003
 30
0.0
 11
1193.5
 21
2697.000000000003
 31
0.0
  0
LINE
  5
197
330
1F
100
AcDbEntity
  8
LAY-10
  6
CONTINUOUS
 62
     7
100
AcDbLine
 10
1193.5
 20
2646.999999999998
 30
0.0
 11
1199.5
 21
2646.999999999998
 31
0.0
  0
LINE
  5
198
330
1F
100
AcDbEntity
  8
LAY-10
  6
CONTINUOUS
 62
     7
100
AcDbLine
 10
1193.5
 20
2696.999999999998
 30
0.0
 11
1199.5
 21
2696.999999999998
 31
0.0
  0
LINE
  5
199
330
1F
100
AcDbEntity
  8
LAY-10
  6
CONTINUOUS
 62
     7
100
AcDbLine
 10
1152.500000000002
 20
2613.499999999997
 30
0.0
 11
1187.500000000001
 21
2613.499999999997
 31
0.0
  0
LINE
  5
19A
330
1F
100
AcDbEntity
  8
LAY-10
  6
CONTINUOUS
 62
     7
100
AcDbLine
 10
1152.500000000002
 20
2645.499999999997
 30
0.0
 11
1187.500000000001
 21
2645.499999999997
 31
0.0
  0
LINE
  5
19B
330
1F
100
AcDbEntity
  8
LAY-10
  6
CONTINUOUS
 62
     7
100
AcDbLine
 10
1152.500000000002
 20
2645.499999999997
 30
0.0
 11
1152.500000000002
 21
2613.499999999997
 31
0.0
  0
LINE
  5
19C
330
1F
100
AcDbEntity
  8
LAY-10
  6
CONTINUOUS
 62
     7
100
AcDbLine
 10
1152.500000000002
 20
2445.500000000003
 30
0.0
 11
1187.500000000001
 21
2445.500000000003
 31
0.0
  0
LINE
  5
19D
330
1F
100
AcDbEntity
  8
LAY-10
  6
CONTINUOUS
 62
     7
100
AcDbLine
 10
1152.500000000002
 20
2413.500000000002
 30
0.0
 11
1187.500000000001
 21
2413.500000000002
 31
0.0
  0
LINE
  5
19E
330
1F
100
AcDbEntity
  8
LAY-10
  6
CONTINUOUS
 62
     7
100
AcDbLine
 10
1152.500000000002
 20
2413.500000000002
 30
0.0
 11
1152.500000000002
 21
2445.500000000003
 31
0.0
  0
LINE
  5
19F
330
1F
100
AcDbEntity
  8
LAY-10
  6
CONTINUOUS
 62
     7
100
AcDbLine
 10
848.5000000000007
 20
2529.500000000001
 30
0.0
 11
674.5000000000007
 21
2529.500000000001
 31
0.0
  0
LINE
  5
1A0
330
1F
100
AcDbEntity
  8
LAY-10
  6
CONTINUOUS
 62
     7
100
AcDbLine
 10
761.5000000000008
 20
2721.9
 30
0.0
 11
744.8146124665508
 21
2659.6292859812
 31
0.0
  0
LINE
  5
1A1
330
1F
100
AcDbEntity
  8
LAY-10
  6
CONTINUOUS
 62
     7
100
AcDbLine
 10
761.4999999999993
 20
2721.9
 30
0.0
 11
778.1853875334494
 21
2659.6292859812
 31
0.0
  0
LINE
  5
1A2
330
1F
100
AcDbEntity
  8
LAY-10
  6
CONTINUOUS
 62
     7
100
AcDbLine
 10
761.5000000000008
 20
2337.100000000002
 30
0.0
 11
744.8146124665508
 21
2399.370714018802
 31
0.0
  0
LINE
  5
1A3
330
1F
100
AcDbEntity
  8
LAY-10
  6
CONTINUOUS
 62
     7
100
AcDbLine
 10
761.4999999999993
 20
2337.100000000002
 30
0.0
 11
778.1853875334494
 21
2399.370714018802
 31
0.0
  0
LINE
  5
1A4
330
1F
100
AcDbEntity
  8
LAY-10
  6
CONTINUOUS
 62
     7
100
AcDbLine
 10
761.4999999999995
 20
2721.9
 30
0.0
 11
761.4999999999995
 21
2337.1
 31
0.0
  0
LINE
  5
1A5
330
1F
100
AcDbEntity
  8
LAY-10
  6
CONTINUOUS
 62
     7
100
AcDbLine
 10
1581.500000000001
 20
2526.5
 30
0.0
 11
1202.500000000001
 21
2526.5
 31
0.0
  0
LINE
  5
1A6
330
1F
100
AcDbEntity
  8
LAY-10
  6
CONTINUOUS
 62
     7
100
AcDbLine
 10
1581.500000000001
 20
2532.5
 30
0.0
 11
1202.500000000001
 21
2532.5
 31
0.0
  0
LINE
  5
1A7
330
1F
100
AcDbEntity
  8
LAY-10
  6
CONTINUOUS
 62
     7
100
AcDbLine
 10
1317.0
 20
3120.500000000001
 30
0.0
 11
1367.0
 21
3120.500000000001
 31
0.0
  0
LINE
  5
1A8
330
1F
100
AcDbEntity
  8
LAY-10
  6
CONTINUOUS
 62
     7
100
AcDbLine
 10
1316.999999999995
 20
3120.500000000001
 30
0.0
 11
1316.999999999995
 21
3114.500000000001
 31
0.0
  0
LINE
  5
1A9
330
1F
100
AcDbEntity
  8
LAY-10
  6
CONTINUOUS
 62
     7
100
AcDbLine
 10
1366.999999999995
 20
3120.500000000001
 30
0.0
 11
1366.999999999995
 21
3114.500000000001
 31
0.0
  0
LINE
  5
1AA
330
1F
100
AcDbEntity
  8
LAY-10
  6
CONTINUOUS
 62
     7
100
AcDbLine
 10
1193.499999999999
 20
2997.0
 30
0.0
 11
1193.499999999999
 21
2947.0
 31
0.0
  0
LINE
  5
1AB
330
1F
100
AcDbEntity
  8
LAY-10
  6
CONTINUOUS
 62
     7
100
AcDbLine
 10
1193.499999999999
 20
2997.000000000006
 30
0.0
 11
1199.499999999999
 21
2997.000000000006
 31
0.0
  0
LINE
  5
1AC
330
1F
100
AcDbEntity
  8
LAY-10
  6
CONTINUOUS
 62
     7
100
AcDbLine
 10
1193.499999999999
 20
2947.000000000006
 30
0.0
 11
1199.499999999999
 21
2947.000000000006
 31
0.0
  0
LINE
  5
1AD
330
1F
100
AcDbEntity
  8
LAY-10
  6
CONTINUOUS
 62
     7
100
AcDbLine
 10
1202.5
 20
3111.5
 30
0.0
 11
1202.500000000001
 21
2532.5
 31
0.0
  0
LINE
  5
1AE
330
1F
100
AcDbEntity
  8
LAY-10
  6
CONTINUOUS
 62
     7
100
AcDbLine
 10
1317.000000000001
 20
1938.499999999998
 30
0.0
 11
1367.000000000001
 21
1938.499999999998
 31
0.0
  0
LINE
  5
1AF
330
1F
100
AcDbEntity
  8
LAY-10
  6
CONTINUOUS
 62
     7
100
AcDbLine
 10
1316.999999999995
 20
1938.499999999998
 30
0.0
 11
1316.999999999995
 21
1944.499999999998
 31
0.0
  0
LINE
  5
1B0
330
1F
100
AcDbEntity
  8
LAY-10
  6
CONTINUOUS
 62
     7
100
AcDbLine
 10
1366.999999999995
 20
1938.499999999998
 30
0.0
 11
1366.999999999995
 21
1944.499999999998
 31
0.0
  0
LINE
  5
1B1
330
1F
100
AcDbEntity
  8
LAY-10
  6
CONTINUOUS
 62
     7
100
AcDbLine
 10
1193.5
 20
2062.0
 30
0.0
 11
1193.5
 21
2112.0
 31
0.0
  0
LINE
  5
1B2
330
1F
100
AcDbEntity
  8
LAY-10
  6
CONTINUOUS
 62
     7
100
AcDbLine
 10
1193.499999999999
 20
2061.999999999995
 30
0.0
 11
1199.5
 21
2061.999999999995
 31
0.0
  0
LINE
  5
1B3
330
1F
100
AcDbEntity
  8
LAY-10
  6
CONTINUOUS
 62
     7
100
AcDbLine
 10
1193.499999999999
 20
2111.999999999995
 30
0.0
 11
1199.5
 21
2111.999999999995
 31
0.0
  0
LINE
  5
1B4
330
1F
100
AcDbEntity
  8
LAY-10
  6
CONTINUOUS
 62
     7
100
AcDbLine
 10
1190.5
 20
1235.5
 30
0.0
 11
1187.500000000001
 21
1235.5
 31
0.0
  0
LINE
  5
1B5
330
1F
100
AcDbEntity
  8
LAY-10
  6
CONTINUOUS
 62
     7
100
AcDbLine
 10
1202.500000000001
 20
2526.5
 30
0.0
 11
1202.5
 21
1947.5
 31
0.0
  0
LINE
  5
1B6
330
1F
100
AcDbEntity
  8
LAY-10
  6
CONTINUOUS
 62
     7
100
AcDbLine
 10
1199.5
 20
3114.500000000001
 30
0.0
 11
1199.5
 21
1944.5
 31
0.0
  0
LINE
  5
1B7
330
1F
100
AcDbEntity
  8
LAY-10
  6
HIDDEN
 62
     7
100
AcDbLine
 10
1237.499999999999
 20
1982.5
 30
0.0
 11
1237.499999999998
 21
3076.5
 31
0.0
  0
LINE
  5
1B8
330
1F
100
AcDbEntity
  8
LAY-10
  6
HIDDEN
 62
     7
100
AcDbLine
 10
2331.5
 20
3076.5
 30
0.0
 11
1237.499999999998
 21
3076.5
 31
0.0
  0
LINE
  5
1B9
330
1F
100
AcDbEntity
  8
LAY-10
  6
HIDDEN
 62
     7
100
AcDbLine
 10
1237.499999999998
 20
2289.499999999996
 30
0.0
 11
2331.5
 21
2289.499999999996
 31
0.0
  0
LINE
  5
1BA
330
1F
100
AcDbEntity
  8
LAY-10
  6
HIDDEN
 62
     7
100
AcDbLine
 10
1237.499999999998
 20
2769.500000000001
 30
0.0
 11
2331.5
 21
2769.500000000001
 31
0.0
  0
LINE
  5
1BB
330
1F
100
AcDbEntity
  8
LAY-10
  6
CONTINUOUS
 62
     7
100
AcDbLine
 10
2097.0
 20
2579.5
 30
0.0
 11
2057.0
 21
2579.5
 31
0.0
  0
LINE
  5
1BC
330
1F
100
AcDbEntity
  8
LAY-10
  6
CONTINUOUS
 62
     7
100
AcDbLine
 10
2097.0
 20
3064.5
 30
0.0
 11
2057.0
 21
3064.5
 31
0.0
  0
LINE
  5
1BD
330
1F
100
AcDbEntity
  8
LAY-10
  6
CONTINUOUS
 62
     7
100
AcDbLine
 10
2089.5
 20
3064.5
 30
0.0
 11
2089.5
 21
2579.5
 31
0.0
  0
LINE
  5
1BE
330
1F
100
AcDbEntity
  8
LAY-10
  6
CONTINUOUS
 62
     7
100
AcDbLine
 10
2096.999999999999
 20
2579.5
 30
0.0
 11
2097.0
 21
3064.5
 31
0.0
  0
LINE
  5
1BF
330
1F
100
AcDbEntity
  8
LAY-10
  6
CONTINUOUS
 62
     7
100
AcDbLine
 10
2064.500000000001
 20
3064.5
 30
0.0
 11
2064.5
 21
2579.5
 31
0.0
  0
LINE
  5
1C0
330
1F
100
AcDbEntity
  8
LAY-10
  6
CONTINUOUS
 62
     7
100
AcDbLine
 10
2057.0
 20
2579.5
 30
0.0
 11
2057.000000000001
 21
3064.5
 31
0.0
  0
CIRCLE
  5
1C1
330
1F
100
AcDbEntity
  8
LAY-10
  6
CONTINUOUS
 62
     7
100
AcDbCircle
 10
2152.0
 20
2897.0
 30
0.0
 40
5.0
  0
CIRCLE
  5
1C2
330
1F
100
AcDbEntity
  8
LAY-10
  6
CONTINUOUS
 62
     7
100
AcDbCircle
 10
2152.0
 20
2747.0
 30
0.0
 40
5.0
  0
CIRCLE
  5
1C3
330
1F
100
AcDbEntity
  8
LAY-10
  6
CONTINUOUS
 62
     7
100
AcDbCircle
 10
2002.0
 20
2897.0
 30
0.0
 40
5.0
  0
LINE
  5
1C4
330
1F
100
AcDbEntity
  8
LAY-10
  6
CONTINUOUS
 62
     7
100
AcDbLine
 10
2366.499999999999
 20
3111.499999999999
 30
0.0
 11
1787.5
 21
3111.5
 31
0.0
  0
LINE
  5
1C5
330
1F
100
AcDbEntity
  8
LAY-10
  6
CONTINUOUS
 62
     7
100
AcDbLine
 10
2168.499999999999
 20
3161.5
 30
0.0
 11
2200.5
 21
3161.5
 31
0.0
  0
LINE
  5
1C6
330
1F
100
AcDbEntity
  8
LAY-10
  6
CONTINUOUS
 62
     7
100
AcDbLine
 10
2168.499999999999
 20
3161.5
 30
0.0
 11
2168.499999999999
 21
3126.5
 31
0.0
  0
LINE
  5
1C7
330
1F
100
AcDbEntity
  8
LAY-10
  6
CONTINUOUS
 62
     7
100
AcDbLine
 10
2200.5
 20
3161.5
 30
0.0
 11
2200.5
 21
3126.5
 31
0.0
  0
LINE
  5
1C8
330
1F
100
AcDbEntity
  8
LAY-10
  6
CONTINUOUS
 62
     7
100
AcDbLine
 10
1368.499999999997
 20
3161.5
 30
0.0
 11
1368.499999999997
 21
3126.5
 31
0.0
  0
LINE
  5
1C9
330
1F
100
AcDbEntity
  8
LAY-10
  6
CONTINUOUS
 62
     7
100
AcDbLine
 10
1400.499999999997
 20
3161.5
 30
0.0
 11
1400.499999999997
 21
3126.5
 31
0.0
  0
LINE
  5
1CA
330
1F
100
AcDbEntity
  8
LAY-10
  6
CONTINUOUS
 62
     7
100
AcDbLine
 10
1400.499999999997
 20
3161.5
 30
0.0
 11
1368.499999999997
 21
3161.5
 31
0.0
  0
LINE
  5
1CB
330
1F
100
AcDbEntity
  8
LAY-10
  6
CONTINUOUS
 62
     7
100
AcDbLine
 10
1781.5
 20
3111.5
 30
0.0
 11
1202.5
 21
3111.5
 31
0.0
  0
LINE
  5
1CC
330
1F
100
AcDbEntity
  8
LAY-10
  6
CONTINUOUS
 62
     7
100
AcDbLine
 10
2369.499999999999
 20
3114.499999999999
 30
0.0
 11
1199.5
 21
3114.500000000001
 31
0.0
  0
LINE
  5
1CD
330
1F
100
AcDbEntity
  8
LAY-10
  6
CONTINUOUS
 62
     7
100
AcDbLine
 10
2378.499999999999
 20
3123.5
 30
0.0
 11
1190.5
 21
3123.500000000001
 31
0.0
  0
LINE
  5
1CE
330
1F
100
AcDbEntity
  8
LAY-10
  6
CONTINUOUS
 62
     7
100
AcDbLine
 10
2381.499999999999
 20
3126.499999999999
 30
0.0
 11
1187.5
 21
3126.5
 31
0.0
  0
LINE
  5
1CF
330
1F
100
AcDbEntity
  8
LAY-10
  6
CONTINUOUS
 62
     7
100
AcDbLine
 10
1787.500000000001
 20
1947.5
 30
0.0
 11
2366.5
 21
1947.499999999999
 31
0.0
  0
LINE
  5
1D0
330
1F
100
AcDbEntity
  8
LAY-10
  6
CONTINUOUS
 62
     7
100
AcDbLine
 10
2168.5
 20
1897.5
 30
0.0
 11
2200.5
 21
1897.499999999999
 31
0.0
  0
LINE
  5
1D1
330
1F
100
AcDbEntity
  8
LAY-10
  6
CONTINUOUS
 62
     7
100
AcDbLine
 10
2168.5
 20
1897.5
 30
0.0
 11
2168.5
 21
1932.499999999999
 31
0.0
  0
LINE
  5
1D2
330
1F
100
AcDbEntity
  8
LAY-10
  6
CONTINUOUS
 62
     7
100
AcDbLine
 10
2200.5
 20
1897.499999999999
 30
0.0
 11
2200.5
 21
1932.499999999999
 31
0.0
  0
LINE
  5
1D3
330
1F
100
AcDbEntity
  8
LAY-10
  6
CONTINUOUS
 62
     7
100
AcDbLine
 10
1368.499999999997
 20
1897.5
 30
0.0
 11
1368.499999999997
 21
1932.499999999999
 31
0.0
  0
LINE
  5
1D4
330
1F
100
AcDbEntity
  8
LAY-10
  6
CONTINUOUS
 62
     7
100
AcDbLine
 10
1400.499999999997
 20
1897.5
 30
0.0
 11
1400.499999999997
 21
1932.499999999999
 31
0.0
  0
LINE
  5
1D5
330
1F
100
AcDbEntity
  8
LAY-10
  6
CONTINUOUS
 62
     7
100
AcDbLine
 10
1400.499999999997
 20
1897.5
 30
0.0
 11
1368.499999999997
 21
1897.5
 31
0.0
  0
LINE
  5
1D6
330
1F
100
AcDbEntity
  8
LAY-10
  6
CONTINUOUS
 62
     7
100
AcDbLine
 10
1202.5
 20
1947.5
 30
0.0
 11
1781.500000000001
 21
1947.5
 31
0.0
  0
LINE
  5
1D7
330
1F
100
AcDbEntity
  8
LAY-10
  6
HIDDEN
 62
     7
100
AcDbLine
 10
2331.5
 20
1982.499999999998
 30
0.0
 11
1237.499999999999
 21
1982.499999999996
 31
0.0
  0
LINE
  5
1D8
330
1F
100
AcDbEntity
  8
LAY-10
  6
CONTINUOUS
 62
     7
100
AcDbLine
 10
1199.5
 20
1944.5
 30
0.0
 11
2369.499999999999
 21
1944.499999999999
 31
0.0
  0
LINE
  5
1D9
330
1F
100
AcDbEntity
  8
LAY-10
  6
CONTINUOUS
 62
     7
100
AcDbLine
 10
1190.5
 20
1935.5
 30
0.0
 11
2378.499999999999
 21
1935.499999999999
 31
0.0
  0
LINE
  5
1DA
330
1F
100
AcDbEntity
  8
LAY-10
  6
CONTINUOUS
 62
     7
100
AcDbLine
 10
1187.500000000001
 20
1932.5
 30
0.0
 11
2381.5
 21
1932.499999999999
 31
0.0
  0
LINE
  5
1DB
330
1F
100
AcDbEntity
  8
LAY-10
  6
CONTINUOUS
 62
     7
100
AcDbLine
 10
1152.500000000002
 20
3013.499999999998
 30
0.0
 11
1187.500000000001
 21
3013.499999999998
 31
0.0
  0
LINE
  5
1DC
330
1F
100
AcDbEntity
  8
LAY-10
  6
CONTINUOUS
 62
     7
100
AcDbLine
 10
1152.500000000002
 20
3045.499999999998
 30
0.0
 11
1187.500000000001
 21
3045.499999999998
 31
0.0
  0
LINE
  5
1DD
330
1F
100
AcDbEntity
  8
LAY-10
  6
CONTINUOUS
 62
     7
100
AcDbLine
 10
1152.500000000002
 20
3045.499999999998
 30
0.0
 11
1152.500000000002
 21
3013.499999999998
 31
0.0
  0
LINE
  5
1DE
330
1F
100
AcDbEntity
  8
LAY-10
  6
CONTINUOUS
 62
     7
100
AcDbLine
 10
1152.500000000002
 20
2045.500000000002
 30
0.0
 11
1187.500000000001
 21
2045.500000000002
 31
0.0
  0
LINE
  5
1DF
330
1F
100
AcDbEntity
  8
LAY-10
  6
CONTINUOUS
 62
     7
100
AcDbLine
 10
1152.500000000002
 20
2013.500000000002
 30
0.0
 11
1187.500000000001
 21
2013.500000000002
 31
0.0
  0
LINE
  5
1E0
330
1F
100
AcDbEntity
  8
LAY-10
  6
CONTINUOUS
 62
     7
100
AcDbLine
 10
1152.500000000002
 20
2013.500000000002
 30
0.0
 11
1152.500000000002
 21
2045.500000000002
 31
0.0
  0
LINE
  5
1E1
330
1F
100
AcDbEntity
  8
LAY-10
  6
CONTINUOUS
 62
     7
100
AcDbLine
 10
1187.5
 20
3126.5
 30
0.0
 11
1187.500000000001
 21
1932.5
 31
0.0
  0
LINE
  5
1E2
330
1F
100
AcDbEntity
  8
LAY-10
  6
CONTINUOUS
 62
     7
100
AcDbLine
 10
1190.5
 20
3123.500000000001
 30
0.0
 11
1190.5
 21
1935.5
 31
0.0
  0
LINE
  5
1E3
330
1F
100
AcDbEntity
  8
LAY-10
  6
CONTINUOUS
 62
     7
100
AcDbLine
 10
2416.499999999996
 20
3045.499999999998
 30
0.0
 11
2416.499999999996
 21
3013.499999999997
 31
0.0
  0
LINE
  5
1E4
330
1F
100
AcDbEntity
  8
LAY-10
  6
CONTINUOUS
 62
     7
100
AcDbLine
 10
2416.499999999996
 20
3045.499999999998
 30
0.0
 11
2381.499999999996
 21
3045.499999999998
 31
0.0
  0
LINE
  5
1E5
330
1F
100
AcDbEntity
  8
LAY-10
  6
CONTINUOUS
 62
     7
100
AcDbLine
 10
2416.499999999996
 20
3013.499999999997
 30
0.0
 11
2381.499999999996
 21
3013.499999999997
 31
0.0
  0
LINE
  5
1E6
330
1F
100
AcDbEntity
  8
LAY-10
  6
CONTINUOUS
 62
     7
100
AcDbLine
 10
2416.499999999996
 20
2013.500000000002
 30
0.0
 11
2416.499999999996
 21
2045.500000000002
 31
0.0
  0
LINE
  5
1E7
330
1F
100
AcDbEntity
  8
LAY-10
  6
CONTINUOUS
 62
     7
100
AcDbLine
 10
2416.499999999996
 20
2013.500000000002
 30
0.0
 11
2381.499999999998
 21
2013.500000000002
 31
0.0
  0
LINE
  5
1E8
330
1F
100
AcDbEntity
  8
LAY-10
  6
CONTINUOUS
 62
     7
100
AcDbLine
 10
2416.499999999996
 20
2045.500000000002
 30
0.0
 11
2381.499999999998
 21
2045.500000000002
 31
0.0
  0
LINE
  5
1E9
330
1F
100
AcDbEntity
  8
LAY-10
  6
CONTINUOUS
 62
     7
100
AcDbLine
 10
2378.499999999999
 20
1935.499999999999
 30
0.0
 11
2378.499999999999
 21
3123.5
 31
0.0
  0
LINE
  5
1EA
330
1F
100
AcDbEntity
  8
LAY-10
  6
CONTINUOUS
 62
     7
100
AcDbLine
 10
2381.499999999999
 20
3126.499999999999
 30
0.0
 11
2381.5
 21
1932.499999999999
 31
0.0
  0
LINE
  5
1EB
330
1F
100
AcDbEntity
  8
LAY-10
  6
CONTINUOUS
 62
     7
100
AcDbLine
 10
2369.499999999999
 20
1235.499999999999
 30
0.0
 11
1199.500000000002
 21
1235.5
 31
0.0
  0
LINE
  5
1EC
330
1F
100
AcDbEntity
  8
LAY-10
  6
CONTINUOUS
 62
     7
100
AcDbLine
 10
1361.999999999998
 20
2579.499999999999
 30
0.0
 11
1361.999999999998
 21
3064.499999999999
 31
0.0
  0
LINE
  5
1ED
330
1F
100
AcDbEntity
  8
LAY-10
  6
CONTINUOUS
 62
     7
100
AcDbLine
 10
1354.499999999997
 20
3064.499999999999
 30
0.0
 11
1354.499999999998
 21
2579.499999999999
 31
0.0
  0
LINE
  5
1EE
330
1F
100
AcDbEntity
  8
LAY-10
  6
CONTINUOUS
 62
     7
100
AcDbLine
 10
1321.999999999999
 20
2579.499999999999
 30
0.0
 11
1321.999999999999
 21
3064.499999999999
 31
0.0
  0
LINE
  5
1EF
330
1F
100
AcDbEntity
  8
LAY-10
  6
CONTINUOUS
 62
     7
100
AcDbLine
 10
1329.499999999999
 20
3064.499999999999
 30
0.0
 11
1329.499999999999
 21
2579.499999999999
 31
0.0
  0
LINE
  5
1F0
330
1F
100
AcDbEntity
  8
LAY-10
  6
CONTINUOUS
 62
     7
100
AcDbLine
 10
1321.999999999999
 20
3064.499999999999
 30
0.0
 11
1361.999999999998
 21
3064.499999999999
 31
0.0
  0
LINE
  5
1F1
330
1F
100
AcDbEntity
  8
LAY-10
  6
CONTINUOUS
 62
     7
100
AcDbLine
 10
1321.999999999998
 20
2579.499999999998
 30
0.0
 11
1361.999999999998
 21
2579.499999999998
 31
0.0
  0
LINE
  5
1F2
330
1F
100
AcDbEntity
  8
LAY-10
  6
CONTINUOUS
 62
     7
100
AcDbLine
 10
1471.999999999998
 20
2579.5
 30
0.0
 11
1511.999999999998
 21
2579.5
 31
0.0
  0
LINE
  5
1F3
330
1F
100
AcDbEntity
  8
LAY-10
  6
CONTINUOUS
 62
     7
100
AcDbLine
 10
1471.999999999998
 20
3064.5
 30
0.0
 11
1511.999999999998
 21
3064.5
 31
0.0
  0
LINE
  5
1F4
330
1F
100
AcDbEntity
  8
LAY-10
  6
CONTINUOUS
 62
     7
100
AcDbLine
 10
1479.499999999998
 20
3064.5
 30
0.0
 11
1479.499999999998
 21
2579.5
 31
0.0
  0
LINE
  5
1F5
330
1F
100
AcDbEntity
  8
LAY-10
  6
CONTINUOUS
 62
     7
100
AcDbLine
 10
1471.999999999999
 20
2579.5
 30
0.0
 11
1471.999999999998
 21
3064.5
 31
0.0
  0
LINE
  5
1F6
330
1F
100
AcDbEntity
  8
LAY-10
  6
CONTINUOUS
 62
     7
100
AcDbLine
 10
1504.499999999996
 20
3064.5
 30
0.0
 11
1504.499999999998
 21
2579.5
 31
0.0
  0
LINE
  5
1F7
330
1F
100
AcDbEntity
  8
LAY-10
  6
CONTINUOUS
 62
     7
100
AcDbLine
 10
1511.999999999998
 20
2579.5
 30
0.0
 11
1511.999999999997
 21
3064.5
 31
0.0
  0
CIRCLE
  5
1F8
330
1F
100
AcDbEntity
  8
LAY-10
  6
CONTINUOUS
 62
     7
100
AcDbCircle
 10
1416.999999999998
 20
2897.0
 30
0.0
 40
5.0
  0
CIRCLE
  5
1F9
330
1F
100
AcDbEntity
  8
LAY-10
  6
CONTINUOUS
 62
     7
100
AcDbCircle
 10
1416.999999999998
 20
2747.0
 30
0.0
 40
5.0
  0
LINE
  5
1FA
330
1F
100
AcDbEntity
  8
LAY-10
  6
CONTINUOUS
 62
     7
100
AcDbLine
 10
1621.999999999998
 20
2779.5
 30
0.0
 11
1661.999999999998
 21
2779.5
 31
0.0
  0
LINE
  5
1FB
330
1F
100
AcDbEntity
  8
LAY-10
  6
CONTINUOUS
 62
     7
100
AcDbLine
 10
1621.999999999999
 20
3064.5
 30
0.0
 11
1661.999999999999
 21
3064.5
 31
0.0
  0
LINE
  5
1FC
330
1F
100
AcDbEntity
  8
LAY-10
  6
CONTINUOUS
 62
     7
100
AcDbLine
 10
1629.499999999998
 20
3064.5
 30
0.0
 11
1629.499999999999
 21
2779.5
 31
0.0
  0
LINE
  5
1FD
330
1F
100
AcDbEntity
  8
LAY-10
  6
CONTINUOUS
 62
     7
100
AcDbLine
 10
1621.999999999999
 20
2779.5
 30
0.0
 11
1621.999999999999
 21
3064.5
 31
0.0
  0
LINE
  5
1FE
330
1F
100
AcDbEntity
  8
LAY-10
  6
CONTINUOUS
 62
     7
100
AcDbLine
 10
1654.499999999997
 20
3064.5
 30
0.0
 11
1654.499999999998
 21
2779.5
 31
0.0
  0
LINE
  5
1FF
330
1F
100
AcDbEntity
  8
LAY-10
  6
CONTINUOUS
 62
     7
100
AcDbLine
 10
1661.999999999998
 20
2779.5
 30
0.0
 11
1661.999999999997
 21
3064.5
 31
0.0
  0
CIRCLE
  5
200
330
1F
100
AcDbEntity
  8
LAY-10
  6
CONTINUOUS
 62
     7
100
AcDbCircle
 10
1566.999999999998
 20
2897.0
 30
0.0
 40
5.0
  0
LINE
  5
201
330
1F
100
AcDbEntity
  8
LAY-10
  6
CONTINUOUS
 62
     7
100
AcDbLine
 10
1946.999999999999
 20
2279.499999999997
 30
0.0
 11
1906.999999999999
 21
2279.499999999997
 31
0.0
  0
LINE
  5
202
330
1F
100
AcDbEntity
  8
LAY-10
  6
CONTINUOUS
 62
     7
100
AcDbLine
 10
1946.999999999998
 20
1994.499999999997
 30
0.0
 11
1906.999999999999
 21
1994.499999999997
 31
0.0
  0
LINE
  5
203
330
1F
100
AcDbEntity
  8
LAY-10
  6
CONTINUOUS
 62
     7
100
AcDbLine
 10
1939.499999999999
 20
1994.499999999997
 30
0.0
 11
1939.499999999998
 21
2279.499999999997
 31
0.0
  0
LINE
  5
204
330
1F
100
AcDbEntity
  8
LAY-10
  6
CONTINUOUS
 62
     7
100
AcDbLine
 10
1946.999999999998
 20
2279.499999999997
 30
0.0
 11
1946.999999999998
 21
1994.499999999997
 31
0.0
  0
LINE
  5
205
330
1F
100
AcDbEntity
  8
LAY-10
  6
CONTINUOUS
 62
     7
100
AcDbLine
 10
1914.5
 20
1994.499999999997
 30
0.0
 11
1914.499999999999
 21
2279.499999999997
 31
0.0
  0
LINE
  5
206
330
1F
100
AcDbEntity
  8
LAY-10
  6
CONTINUOUS
 62
     7
100
AcDbLine
 10
1906.999999999999
 20
2279.499999999997
 30
0.0
 11
1907.0
 21
1994.499999999997
 31
0.0
  0
CIRCLE
  5
207
330
1F
100
AcDbEntity
  8
LAY-10
  6
CONTINUOUS
 62
     7
100
AcDbCircle
 10
2002.0
 20
2161.999999999997
 30
0.0
 40
5.0
  0
LINE
  5
208
330
1F
100
AcDbEntity
  8
LAY-10
  6
CONTINUOUS
 62
     7
100
AcDbLine
 10
2207.0
 20
2479.499999999998
 30
0.0
 11
2207.0
 21
1994.499999999997
 31
0.0
  0
LINE
  5
209
330
1F
100
AcDbEntity
  8
LAY-10
  6
CONTINUOUS
 62
     7
100
AcDbLine
 10
2214.5
 20
1994.499999999997
 30
0.0
 11
2214.5
 21
2479.499999999998
 31
0.0
  0
LINE
  5
20A
330
1F
100
AcDbEntity
  8
LAY-10
  6
CONTINUOUS
 62
     7
100
AcDbLine
 10
2246.999999999999
 20
2479.499999999997
 30
0.0
 11
2246.999999999999
 21
1994.499999999997
 31
0.0
  0
LINE
  5
20B
330
1F
100
AcDbEntity
  8
LAY-10
  6
CONTINUOUS
 62
     7
100
AcDbLine
 10
2239.499999999999
 20
1994.499999999997
 30
0.0
 11
2239.499999999999
 21
2479.499999999997
 31
0.0
  0
LINE
  5
20C
330
1F
100
AcDbEntity
  8
LAY-10
  6
CONTINUOUS
 62
     7
100
AcDbLine
 10
2246.999999999999
 20
1994.499999999997
 30
0.0
 11
2206.999999999999
 21
1994.499999999997
 31
0.0
  0
LINE
  5
20D
330
1F
100
AcDbEntity
  8
LAY-10
  6
CONTINUOUS
 62
     7
100
AcDbLine
 10
2247.0
 20
2479.499999999998
 30
0.0
 11
2207.0
 21
2479.499999999998
 31
0.0
  0
LINE
  5
20E
330
1F
100
AcDbEntity
  8
LAY-10
  6
CONTINUOUS
 62
     7
100
AcDbLine
 10
2097.0
 20
2479.499999999997
 30
0.0
 11
2057.0
 21
2479.499999999997
 31
0.0
  0
LINE
  5
20F
330
1F
100
AcDbEntity
  8
LAY-10
  6
CONTINUOUS
 62
     7
100
AcDbLine
 10
2096.999999999999
 20
1994.499999999997
 30
0.0
 11
2056.999999999999
 21
1994.499999999997
 31
0.0
  0
LINE
  5
210
330
1F
100
AcDbEntity
  8
LAY-10
  6
CONTINUOUS
 62
     7
100
AcDbLine
 10
2089.499999999999
 20
1994.499999999997
 30
0.0
 11
2089.5
 21
2479.499999999997
 31
0.0
  0
LINE
  5
211
330
1F
100
AcDbEntity
  8
LAY-10
  6
CONTINUOUS
 62
     7
100
AcDbLine
 10
2096.999999999999
 20
2479.499999999997
 30
0.0
 11
2096.999999999999
 21
1994.499999999997
 31
0.0
  0
LINE
  5
212
330
1F
100
AcDbEntity
  8
LAY-10
  6
CONTINUOUS
 62
     7
100
AcDbLine
 10
2064.500000000001
 20
1994.499999999997
 30
0.0
 11
2064.5
 21
2479.499999999997
 31
0.0
  0
LINE
  5
213
330
1F
100
AcDbEntity
  8
LAY-10
  6
CONTINUOUS
 62
     7
100
AcDbLine
 10
2057.0
 20
2479.499999999997
 30
0.0
 11
2057.0
 21
1994.499999999997
 31
0.0
  0
CIRCLE
  5
214
330
1F
100
AcDbEntity
  8
LAY-10
  6
CONTINUOUS
 62
     7
100
AcDbCircle
 10
2152.0
 20
2161.999999999997
 30
0.0
 40
5.0
  0
CIRCLE
  5
215
330
1F
100
AcDbEntity
  8
LAY-10
  6
CONTINUOUS
 62
     7
100
AcDbCircle
 10
2152.0
 20
2311.999999999997
 30
0.0
 40
5.0
  0
LINE
  5
216
330
1F
100
AcDbEntity
  8
LAY-10
  6
CONTINUOUS
 62
     7
100
AcDbLine
 10
1621.999999999998
 20
2279.499999999997
 30
0.0
 11
1661.999999999998
 21
2279.499999999997
 31
0.0
  0
LINE
  5
217
330
1F
100
AcDbEntity
  8
LAY-10
  6
CONTINUOUS
 62
     7
100
AcDbLine
 10
1621.999999999998
 20
1994.499999999997
 30
0.0
 11
1661.999999999998
 21
1994.499999999997
 31
0.0
  0
LINE
  5
218
330
1F
100
AcDbEntity
  8
LAY-10
  6
CONTINUOUS
 62
     7
100
AcDbLine
 10
1629.499999999997
 20
1994.499999999997
 30
0.0
 11
1629.499999999999
 21
2279.499999999997
 31
0.0
  0
LINE
  5
219
330
1F
100
AcDbEntity
  8
LAY-10
  6
CONTINUOUS
 62
     7
100
AcDbLine
 10
1621.999999999999
 20
2279.499999999997
 30
0.0
 11
1621.999999999998
 21
1994.499999999997
 31
0.0
  0
LINE
  5
21A
330
1F
100
AcDbEntity
  8
LAY-10
  6
CONTINUOUS
 62
     7
100
AcDbLine
 10
1654.499999999996
 20
1994.499999999997
 30
0.0
 11
1654.499999999998
 21
2279.499999999997
 31
0.0
  0
LINE
  5
21B
330
1F
100
AcDbEntity
  8
LAY-10
  6
CONTINUOUS
 62
     7
100
AcDbLine
 10
1661.999999999998
 20
2279.499999999997
 30
0.0
 11
1661.999999999997
 21
1994.499999999997
 31
0.0
  0
CIRCLE
  5
21C
330
1F
100
AcDbEntity
  8
LAY-10
  6
CONTINUOUS
 62
     7
100
AcDbCircle
 10
1566.999999999997
 20
2161.999999999997
 30
0.0
 40
5.0
  0
LINE
  5
21D
330
1F
100
AcDbEntity
  8
LAY-10
  6
CONTINUOUS
 62
     7
100
AcDbLine
 10
1361.999999999998
 20
2479.499999999998
 30
0.0
 11
1361.999999999997
 21
1994.499999999998
 31
0.0
  0
LINE
  5
21E
330
1F
100
AcDbEntity
  8
LAY-10
  6
CONTINUOUS
 62
     7
100
AcDbLine
 10
1354.499999999996
 20
1994.499999999998
 30
0.0
 11
1354.499999999998
 21
2479.499999999998
 31
0.0
  0
LINE
  5
21F
330
1F
100
AcDbEntity
  8
LAY-10
  6
CONTINUOUS
 62
     7
100
AcDbLine
 10
1321.999999999999
 20
2479.499999999998
 30
0.0
 11
1321.999999999998
 21
1994.499999999998
 31
0.0
  0
LINE
  5
220
330
1F
100
AcDbEntity
  8
LAY-10
  6
CONTINUOUS
 62
     7
100
AcDbLine
 10
1329.499999999998
 20
1994.499999999998
 30
0.0
 11
1329.499999999999
 21
2479.499999999998
 31
0.0
  0
LINE
  5
221
330
1F
100
AcDbEntity
  8
LAY-10
  6
CONTINUOUS
 62
     7
100
AcDbLine
 10
1321.999999999998
 20
1994.499999999998
 30
0.0
 11
1361.999999999998
 21
1994.499999999998
 31
0.0
  0
LINE
  5
222
330
1F
100
AcDbEntity
  8
LAY-10
  6
CONTINUOUS
 62
     7
100
AcDbLine
 10
1321.999999999998
 20
2479.499999999999
 30
0.0
 11
1361.999999999998
 21
2479.499999999999
 31
0.0
  0
LINE
  5
223
330
1F
100
AcDbEntity
  8
LAY-10
  6
CONTINUOUS
 62
     7
100
AcDbLine
 10
1471.999999999998
 20
2479.499999999998
 30
0.0
 11
1511.999999999998
 21
2479.499999999998
 31
0.0
  0
LINE
  5
224
330
1F
100
AcDbEntity
  8
LAY-10
  6
CONTINUOUS
 62
     7
100
AcDbLine
 10
1471.999999999998
 20
1994.499999999997
 30
0.0
 11
1511.999999999998
 21
1994.499999999997
 31
0.0
  0
LINE
  5
225
330
1F
100
AcDbEntity
  8
LAY-10
  6
CONTINUOUS
 62
     7
100
AcDbLine
 10
1479.499999999998
 20
1994.499999999997
 30
0.0
 11
1479.499999999998
 21
2479.499999999997
 31
0.0
  0
LINE
  5
226
330
1F
100
AcDbEntity
  8
LAY-10
  6
CONTINUOUS
 62
     7
100
AcDbLine
 10
1471.999999999999
 20
2479.499999999997
 30
0.0
 11
1471.999999999998
 21
1994.499999999997
 31
0.0
  0
LINE
  5
227
330
1F
100
AcDbEntity
  8
LAY-10
  6
CONTINUOUS
 62
     7
100
AcDbLine
 10
1504.499999999996
 20
1994.499999999997
 30
0.0
 11
1504.499999999998
 21
2479.499999999997
 31
0.0
  0
LINE
  5
228
330
1F
100
AcDbEntity
  8
LAY-10
  6
CONTINUOUS
 62
     7
100
AcDbLine
 10
1511.999999999998
 20
2479.499999999997
 30
0.0
 11
1511.999999999996
 21
1994.499999999997
 31
0.0
  0
CIRCLE
  5
229
330
1F
100
AcDbEntity
  8
LAY-10
  6
CONTINUOUS
 62
     7
100
AcDbCircle
 10
1416.999999999997
 20
2161.999999999997
 30
0.0
 40
5.0
  0
CIRCLE
  5
22A
330
1F
100
AcDbEntity
  8
LAY-10
  6
CONTINUOUS
 62
     7
100
AcDbCircle
 10
1416.999999999997
 20
2311.999999999997
 30
0.0
 40
5.0
  0
LINE
  5
22B
330
1F
100
AcDbEntity
  8
LAY-10
  6
HIDDEN
 62
     7
100
AcDbLine
 10
2331.5
 20
2869.5000000001
 30
0.0
 11
1237.499999999998
 21
2869.500000000099
 31
0.0
  0
LINE
  5
22C
330
1F
100
AcDbEntity
  8
LAY-10
  6
HIDDEN
 62
     7
100
AcDbLine
 10
2124.49999999995
 20
2289.499999999997
 30
0.0
 11
2124.49999999995
 21
2769.500000000001
 31
0.0
  0
LINE
  5
22D
330
1F
100
AcDbEntity
  8
LAY-10
  6
HIDDEN
 62
     7
100
AcDbLine
 10
2331.5
 20
2189.500000000047
 30
0.0
 11
1237.499999999998
 21
2189.500000000046
 31
0.0
  0
LINE
  5
22E
330
1F
100
AcDbEntity
  8
LAY-10
  6
HIDDEN
 62
     7
100
AcDbLine
 10
1444.499999999943
 20
2289.499999999996
 30
0.0
 11
1444.499999999943
 21
2769.500000000001
 31
0.0
  0
CIRCLE
  5
22F
330
1F
100
AcDbEntity
  8
LAY-10
  6
CONTINUOUS
 62
     7
100
AcDbCircle
 10
2401.49999999995
 20
3029.50000000005
 30
0.0
 40
7.5
  0
CIRCLE
  5
230
330
1F
100
AcDbEntity
  8
LAY-10
  6
CONTINUOUS
 62
     7
100
AcDbCircle
 10
2184.49999999995
 20
3146.50000000005
 30
0.0
 40
7.5
  0
CIRCLE
  5
231
330
1F
100
AcDbEntity
  8
LAY-10
  6
CONTINUOUS
 62
     7
100
AcDbCircle
 10
1784.49999999995
 20
3146.50000000005
 30
0.0
 40
7.5
  0
CIRCLE
  5
232
330
1F
100
AcDbEntity
  8
LAY-10
  6
CONTINUOUS
 62
     7
100
AcDbCircle
 10
1384.49999999995
 20
3146.50000000005
 30
0.0
 40
7.5
  0
CIRCLE
  5
233
330
1F
100
AcDbEntity
  8
LAY-10
  6
CONTINUOUS
 62
     7
100
AcDbCircle
 10
1167.49999999995
 20
3029.50000000005
 30
0.0
 40
7.5
  0
CIRCLE
  5
234
330
1F
100
AcDbEntity
  8
LAY-10
  6
CONTINUOUS
 62
     7
100
AcDbCircle
 10
1167.49999999995
 20
2629.50000000005
 30
0.0
 40
7.5
  0
CIRCLE
  5
235
330
1F
100
AcDbEntity
  8
LAY-10
  6
CONTINUOUS
 62
     7
100
AcDbCircle
 10
1167.49999999995
 20
2429.50000000005
 30
0.0
 40
7.5
  0
CIRCLE
  5
236
330
1F
100
AcDbEntity
  8
LAY-10
  6
CONTINUOUS
 62
     7
100
AcDbCircle
 10
1167.49999999995
 20
2029.50000000005
 30
0.0
 40
7.5
  0
CIRCLE
  5
237
330
1F
100
AcDbEntity
  8
LAY-10
  6
CONTINUOUS
 62
     7
100
AcDbCircle
 10
1384.49999999995
 20
1912.50000000005
 30
0.0
 40
7.5
  0
CIRCLE
  5
238
330
1F
100
AcDbEntity
  8
LAY-10
  6
CONTINUOUS
 62
     7
100
AcDbCircle
 10
1784.49999999995
 20
1912.50000000005
 30
0.0
 40
7.5
  0
CIRCLE
  5
239
330
1F
100
AcDbEntity
  8
LAY-10
  6
CONTINUOUS
 62
     7
100
AcDbCircle
 10
2184.49999999995
 20
1912.50000000005
 30
0.0
 40
7.5
  0
CIRCLE
  5
23A
330
1F
100
AcDbEntity
  8
LAY-10
  6
CONTINUOUS
 62
     7
100
AcDbCircle
 10
2401.49999999995
 20
2029.50000000005
 30
0.0
 40
7.5
  0
CIRCLE
  5
23B
330
1F
100
AcDbEntity
  8
LAY-10
  6
CONTINUOUS
 62
     7
100
AcDbCircle
 10
2401.49999999995
 20
2429.50000000005
 30
0.0
 40
7.5
  0
CIRCLE
  5
23C
330
1F
100
AcDbEntity
  8
LAY-10
  6
CONTINUOUS
 62
     7
100
AcDbCircle
 10
2401.49999999995
 20
2629.50000000005
 30
0.0
 40
7.5
  0
ARC
  5
23D
330
1F
100
AcDbEntity
  8
LAY-10
  6
CONTINUOUS
 62
     7
100
AcDbCircle
 10
2238.5
 20
1203.499999999999
 30
0.0
 40
3.0
100
AcDbArc
 50
270.0
 51
0.0
  0
LINE
  5
23E
330
1F
100
AcDbEntity
  8
LAY-10
  6
CONTINUOUS
 62
     7
100
AcDbLine
 10
2241.499999999999
 20
1212.499999999999
 30
0.0
 11
2241.499999999999
 21
1203.499999999999
 31
0.0
  0
ARC
  5
23F
330
1F
100
AcDbEntity
  8
LAY-10
  6
CONTINUOUS
 62
     7
100
AcDbCircle
 10
2215.5
 20
1203.499999999999
 30
0.0
 40
3.0
100
AcDbArc
 50
180.0
 51
270.0
  0
LINE
  5
240
330
1F
100
AcDbEntity
  8
LAY-10
  6
CONTINUOUS
 62
     7
100
AcDbLine
 10
2212.499999999999
 20
1212.499999999999
 30
0.0
 11
2212.499999999999
 21
1203.499999999999
 31
0.0
  0
LINE
  5
241
330
1F
100
AcDbEntity
  8
LAY-10
  6
CONTINUOUS
 62
     7
100
AcDbLine
 10
2247.0
 20
1215.499999999999
 30
0.0
 11
2247.0
 21
1213.499999999999
 31
0.0
  0
LINE
  5
242
330
1F
100
AcDbEntity
  8
LAY-10
  6
CONTINUOUS
 62
     7
100
AcDbLine
 10
2207.0
 20
1215.499999999999
 30
0.0
 11
2207.0
 21
1213.499999999999
 31
0.0
  0
LINE
  5
243
330
1F
100
AcDbEntity
  8
LAY-10
  6
CONTINUOUS
 62
     7
100
AcDbLine
 10
2211.499999999999
 20
1215.499999999999
 30
0.0
 11
2207.0
 21
1215.499999999999
 31
0.0
  0
ARC
  5
244
330
1F
100
AcDbEntity
  8
LAY-10
  6
CONTINUOUS
 62
     7
100
AcDbCircle
 10
2242.5
 20
1212.499999999999
 30
0.0
 40
3.0
100
AcDbArc
 50
90.00000000000001
 51
180.0
  0
LINE
  5
245
330
1F
100
AcDbEntity
  8
LAY-10
  6
CONTINUOUS
 62
     7
100
AcDbLine
 10
2239.5
 20
1212.499999999999
 30
0.0
 11
2239.5
 21
1203.499999999999
 31
0.0
  0
LINE
  5
246
330
1F
100
AcDbEntity
  8
LAY-10
  6
CONTINUOUS
 62
     7
100
AcDbLine
 10
2247.0
 20
1215.499999999999
 30
0.0
 11
2242.5
 21
1215.499999999999
 31
0.0
  0
ARC
  5
247
330
1F
100
AcDbEntity
  8
LAY-10
  6
CONTINUOUS
 62
     7
100
AcDbCircle
 10
2211.5
 20
1212.499999999999
 30
0.0
 40
3.0
100
AcDbArc
 50
0.0
 51
90.00000000000001
  0
LINE
  5
248
330
1F
100
AcDbEntity
  8
LAY-10
  6
CONTINUOUS
 62
     7
100
AcDbLine
 10
2214.5
 20
1212.499999999999
 30
0.0
 11
2214.5
 21
1203.499999999999
 31
0.0
  0
ARC
  5
249
330
1F
100
AcDbEntity
  8
LAY-10
  6
CONTINUOUS
 62
     7
100
AcDbCircle
 10
2238.500000000001
 20
1203.499999999999
 30
0.0
 40
1.0
100
AcDbArc
 50
270.0
 51
0.0
  0
LINE
  5
24A
330
1F
100
AcDbEntity
  8
LAY-10
  6
CONTINUOUS
 62
     7
100
AcDbLine
 10
2215.5
 20
1202.499999999999
 30
0.0
 11
2238.500000000001
 21
1202.499999999999
 31
0.0
  0
ARC
  5
24B
330
1F
100
AcDbEntity
  8
LAY-10
  6
CONTINUOUS
 62
     7
100
AcDbCircle
 10
2242.499999999999
 20
1212.499999999999
 30
0.0
 40
1.0
100
AcDbArc
 50
90.00000000000001
 51
180.0
  0
LINE
  5
24C
330
1F
100
AcDbEntity
  8
LAY-10
  6
CONTINUOUS
 62
     7
100
AcDbLine
 10
2247.0
 20
1213.499999999999
 30
0.0
 11
2242.499999999999
 21
1213.499999999999
 31
0.0
  0
ARC
  5
24D
330
1F
100
AcDbEntity
  8
LAY-10
  6
CONTINUOUS
 62
     7
100
AcDbCircle
 10
2211.499999999999
 20
1212.499999999999
 30
0.0
 40
1.0
100
AcDbArc
 50
0.0
 51
90.00000000000001
  0
LINE
  5
24E
330
1F
100
AcDbEntity
  8
LAY-10
  6
CONTINUOUS
 62
     7
100
AcDbLine
 10
2207.0
 20
1213.499999999999
 30
0.0
 11
2211.499999999999
 21
1213.499999999999
 31
0.0
  0
ARC
  5
24F
330
1F
100
AcDbEntity
  8
LAY-10
  6
CONTINUOUS
 62
     7
100
AcDbCircle
 10
2215.5
 20
1203.499999999999
 30
0.0
 40
1.0
100
AcDbArc
 50
180.0
 51
270.0
  0
LINE
  5
250
330
1F
100
AcDbEntity
  8
LAY-10
  6
CONTINUOUS
 62
     7
100
AcDbLine
 10
2329.0
 20
1192.499999999999
 30
0.0
 11
2329.0
 21
1197.499999999999
 31
0.0
  0
LINE
  5
251
330
1F
100
AcDbEntity
  8
LAY-10
  6
CONTINUOUS
 62
     7
100
AcDbLine
 10
2375.499999999999
 20
1197.499999999999
 30
0.0
 11
2375.499999999999
 21
1222.499999999999
 31
0.0
  0
LINE
  5
252
330
1F
100
AcDbEntity
  8
LAY-10
  6
CONTINUOUS
 62
     7
100
AcDbLine
 10
2375.499999999999
 20
1222.499999999999
 30
0.0
 11
2369.499999999998
 21
1222.499999999999
 31
0.0
  0
LINE
  5
253
330
1F
100
AcDbEntity
  8
LAY-10
  6
CONTINUOUS
 62
     7
100
AcDbLine
 10
2416.499999999999
 20
1191.499999999999
 30
0.0
 11
2416.499999999999
 21
1194.499999999999
 31
0.0
  0
LINE
  5
254
330
1F
100
AcDbEntity
  8
LAY-10
  6
CONTINUOUS
 62
     7
100
AcDbLine
 10
2416.499999999999
 20
1191.5
 30
0.0
 11
2381.5
 21
1191.5
 31
0.0
  0
LINE
  5
255
330
1F
100
AcDbEntity
  8
LAY-10
  6
CONTINUOUS
 62
     7
100
AcDbLine
 10
2416.499999999999
 20
1194.499999999999
 30
0.0
 11
2335.499999999999
 21
1194.499999999999
 31
0.0
  0
LINE
  5
256
330
1F
100
AcDbEntity
  8
LAY-10
  6
CONTINUOUS
 62
     7
100
AcDbLine
 10
2331.499999999999
 20
1192.499999999999
 30
0.0
 11
2281.499999999999
 21
1192.499999999999
 31
0.0
  0
LINE
  5
257
330
1F
100
AcDbEntity
  8
LAY-10
  6
CONTINUOUS
 62
     7
100
AcDbLine
 10
2361.499999999999
 20
1154.499999999999
 30
0.0
 11
2352.839745962155
 21
1159.499999999999
 31
0.0
  0
LINE
  5
258
330
1F
100
AcDbEntity
  8
LAY-10
  6
CONTINUOUS
 62
     7
100
AcDbLine
 10
2370.160254037844
 20
1159.499999999999
 30
0.0
 11
2361.499999999999
 21
1154.499999999999
 31
0.0
  0
LINE
  5
259
330
1F
100
AcDbEntity
  8
LAY-10
  6
CONTINUOUS
 62
     7
100
AcDbLine
 10
2370.160254037844
 20
1169.499999999999
 30
0.0
 11
2370.160254037844
 21
1159.499999999999
 31
0.0
  0
LINE
  5
25A
330
1F
100
AcDbEntity
  8
LAY-10
  6
CONTINUOUS
 62
     7
100
AcDbLine
 10
2361.499999999999
 20
1174.499999999999
 30
0.0
 11
2370.160254037844
 21
1169.499999999999
 31
0.0
  0
LINE
  5
25B
330
1F
100
AcDbEntity
  8
LAY-10
  6
CONTINUOUS
 62
     7
100
AcDbLine
 10
2352.839745962155
 20
1169.499999999999
 30
0.0
 11
2361.499999999999
 21
1174.499999999999
 31
0.0
  0
LINE
  5
25C
330
1F
100
AcDbEntity
  8
LAY-10
  6
CONTINUOUS
 62
     7
100
AcDbLine
 10
2352.839745962155
 20
1159.499999999999
 30
0.0
 11
2352.839745962155
 21
1169.499999999999
 31
0.0
  0
CIRCLE
  5
25D
330
1F
100
AcDbEntity
  8
LAY-10
  6
CONTINUOUS
 62
     7
100
AcDbCircle
 10
2361.5
 20
1164.499999999999
 30
0.0
 40
8.66025403784441
  0
LINE
  5
25E
330
1F
100
AcDbEntity
  8
LAY-10
  6
CONTINUOUS
 62
     7
100
AcDbLine
 10
2381.5
 20
1194.499999999999
 30
0.0
 11
2381.5
 21
1144.499999999999
 31
0.0
  0
LINE
  5
25F
330
1F
100
AcDbEntity
  8
LAY-10
  6
CONTINUOUS
 62
     7
100
AcDbLine
 10
2381.5
 20
1144.499999999998
 30
0.0
 11
2334.5
 21
1144.499999999998
 31
0.0
  0
LINE
  5
260
330
1F
100
AcDbEntity
  8
LAY-10
  6
CONTINUOUS
 62
     7
100
AcDbLine
 10
2366.499999999999
 20
1235.499999999999
 30
0.0
 11
2366.499999999999
 21
1200.499999999999
 31
0.0
  0
ARC
  5
261
330
1F
100
AcDbEntity
  8
LAY-10
  6
CONTINUOUS
 62
     7
100
AcDbCircle
 10
2335.499999999999
 20
1193.499999999999
 30
0.0
 40
4.0
100
AcDbArc
 50
90.00000000000001
 51
180.0
  0
ARC
  5
262
330
1F
100
AcDbEntity
  8
LAY-10
  6
CONTINUOUS
 62
     7
100
AcDbCircle
 10
2377.499999999999
 20
1198.499999999999
 30
0.0
 40
4.0
100
AcDbArc
 50
270.0
 51
0.0
  0
LINE
  5
263
330
1F
100
AcDbEntity
  8
LAY-10
  6
CONTINUOUS
 62
     7
100
AcDbLine
 10
2381.5
 20
1235.499999999999
 30
0.0
 11
2381.5
 21
1198.499999999999
 31
0.0
  0
ARC
  5
264
330
1F
100
AcDbEntity
  8
LAY-10
  6
CONTINUOUS
 62
     7
100
AcDbCircle
 10
2377.499999999999
 20
1198.499999999999
 30
0.0
 40
1.0
100
AcDbArc
 50
270.0
 51
0.0
  0
LINE
  5
265
330
1F
100
AcDbEntity
  8
LAY-10
  6
CONTINUOUS
 62
     7
100
AcDbLine
 10
2378.499999999999
 20
1235.499999999999
 30
0.0
 11
2378.499999999999
 21
1198.499999999999
 31
0.0
  0
ARC
  5
266
330
1F
100
AcDbEntity
  8
LAY-10
  6
CONTINUOUS
 62
     7
100
AcDbCircle
 10
2335.499999999999
 20
1193.499999999999
 30
0.0
 40
1.0
100
AcDbArc
 50
90.00000000000001
 51
180.0
  0
LINE
  5
267
330
1F
100
AcDbEntity
  8
LAY-10
  6
CONTINUOUS
 62
     7
100
AcDbLine
 10
2369.499999999998
 20
1235.499999999999
 30
0.0
 11
2369.499999999998
 21
1197.499999999999
 31
0.0
  0
LINE
  5
268
330
1F
100
AcDbEntity
  8
LAY-10
  6
CONTINUOUS
 62
     7
100
AcDbLine
 10
1199.500000000002
 20
1235.5
 30
0.0
 11
1199.500000000002
 21
1197.5
 31
0.0
  0
ARC
  5
269
330
1F
100
AcDbEntity
  8
LAY-10
  6
CONTINUOUS
 62
     7
100
AcDbCircle
 10
1233.500000000001
 20
1193.5
 30
0.0
 40
1.0
100
AcDbArc
 50
0.0
 51
90.00000000000001
  0
LINE
  5
26A
330
1F
100
AcDbEntity
  8
LAY-10
  6
CONTINUOUS
 62
     7
100
AcDbLine
 10
1190.500000000001
 20
1235.5
 30
0.0
 11
1190.500000000001
 21
1198.5
 31
0.0
  0
ARC
  5
26B
330
1F
100
AcDbEntity
  8
LAY-10
  6
CONTINUOUS
 62
     7
100
AcDbCircle
 10
1191.500000000001
 20
1198.5
 30
0.0
 40
1.0
100
AcDbArc
 50
180.0
 51
270.0
  0
LINE
  5
26C
330
1F
100
AcDbEntity
  8
LAY-10
  6
CONTINUOUS
 62
     7
100
AcDbLine
 10
1187.500000000001
 20
1235.5
 30
0.0
 11
1187.500000000001
 21
1198.5
 31
0.0
  0
ARC
  5
26D
330
1F
100
AcDbEntity
  8
LAY-10
  6
CONTINUOUS
 62
     7
100
AcDbCircle
 10
1191.500000000001
 20
1198.5
 30
0.0
 40
4.0
100
AcDbArc
 50
180.0
 51
270.0
  0
ARC
  5
26E
330
1F
100
AcDbEntity
  8
LAY-10
  6
CONTINUOUS
 62
     7
100
AcDbCircle
 10
1233.500000000001
 20
1193.5
 30
0.0
 40
4.0
100
AcDbArc
 50
0.0
 51
90.00000000000001
  0
LINE
  5
26F
330
1F
100
AcDbEntity
  8
LAY-10
  6
CONTINUOUS
 62
     7
100
AcDbLine
 10
1202.500000000002
 20
1235.5
 30
0.0
 11
1202.500000000002
 21
1200.5
 31
0.0
  0
LINE
  5
270
330
1F
100
AcDbEntity
  8
LAY-10
  6
CONTINUOUS
 62
     7
100
AcDbLine
 10
1187.500000000001
 20
1144.499999999999
 30
0.0
 11
1234.500000000001
 21
1144.499999999999
 31
0.0
  0
LINE
  5
271
330
1F
100
AcDbEntity
  8
LAY-10
  6
CONTINUOUS
 62
     7
100
AcDbLine
 10
1187.500000000001
 20
1194.5
 30
0.0
 11
1187.500000000001
 21
1144.5
 31
0.0
  0
CIRCLE
  5
272
330
1F
100
AcDbEntity
  8
LAY-10
  6
CONTINUOUS
 62
     7
100
AcDbCircle
 10
1207.500000000001
 20
1164.5
 30
0.0
 40
8.66025403784441
  0
LINE
  5
273
330
1F
100
AcDbEntity
  8
LAY-10
  6
CONTINUOUS
 62
     7
100
AcDbLine
 10
1216.160254037845
 20
1159.5
 30
0.0
 11
1216.160254037845
 21
1169.5
 31
0.0
  0
LINE
  5
274
330
1F
100
AcDbEntity
  8
LAY-10
  6
CONTINUOUS
 62
     7
100
AcDbLine
 10
1216.160254037845
 20
1169.5
 30
0.0
 11
1207.500000000001
 21
1174.5
 31
0.0
  0
LINE
  5
275
330
1F
100
AcDbEntity
  8
LAY-10
  6
CONTINUOUS
 62
     7
100
AcDbLine
 10
1207.500000000001
 20
1174.5
 30
0.0
 11
1198.839745962156
 21
1169.5
 31
0.0
  0
LINE
  5
276
330
1F
100
AcDbEntity
  8
LAY-10
  6
CONTINUOUS
 62
     7
100
AcDbLine
 10
1198.839745962156
 20
1169.5
 30
0.0
 11
1198.839745962156
 21
1159.5
 31
0.0
  0
LINE
  5
277
330
1F
100
AcDbEntity
  8
LAY-10
  6
CONTINUOUS
 62
     7
100
AcDbLine
 10
1198.839745962156
 20
1159.5
 30
0.0
 11
1207.500000000001
 21
1154.5
 31
0.0
  0
LINE
  5
278
330
1F
100
AcDbEntity
  8
LAY-10
  6
CONTINUOUS
 62
     7
100
AcDbLine
 10
1207.500000000001
 20
1154.5
 30
0.0
 11
1216.160254037845
 21
1159.5
 31
0.0
  0
LINE
  5
279
330
1F
100
AcDbEntity
  8
LAY-10
  6
CONTINUOUS
 62
     7
100
AcDbLine
 10
1237.500000000001
 20
1192.5
 30
0.0
 11
1287.500000000001
 21
1192.5
 31
0.0
  0
LINE
  5
27A
330
1F
100
AcDbEntity
  8
LAY-10
  6
CONTINUOUS
 62
     7
100
AcDbLine
 10
1152.500000000001
 20
1194.5
 30
0.0
 11
1233.500000000001
 21
1194.5
 31
0.0
  0
LINE
  5
27B
330
1F
100
AcDbEntity
  8
LAY-10
  6
CONTINUOUS
 62
     7
100
AcDbLine
 10
1152.500000000001
 20
1191.500000000001
 30
0.0
 11
1187.500000000001
 21
1191.500000000001
 31
0.0
  0
LINE
  5
27C
330
1F
100
AcDbEntity
  8
LAY-10
  6
CONTINUOUS
 62
     7
100
AcDbLine
 10
1152.500000000001
 20
1191.5
 30
0.0
 11
1152.500000000001
 21
1194.5
 31
0.0
  0
LINE
  5
27D
330
1F
100
AcDbEntity
  8
LAY-10
  6
CONTINUOUS
 62
     7
100
AcDbLine
 10
1193.500000000001
 20
1222.5
 30
0.0
 11
1199.500000000002
 21
1222.5
 31
0.0
  0
LINE
  5
27E
330
1F
100
AcDbEntity
  8
LAY-10
  6
CONTINUOUS
 62
     7
100
AcDbLine
 10
1193.500000000002
 20
1197.5
 30
0.0
 11
1193.500000000002
 21
1222.5
 31
0.0
  0
LINE
  5
27F
330
1F
100
AcDbEntity
  8
LAY-10
  6
CONTINUOUS
 62
     7
100
AcDbLine
 10
1240.000000000001
 20
1192.5
 30
0.0
 11
1240.000000000001
 21
1197.5
 31
0.0
  0
ARC
  5
280
330
1F
100
AcDbEntity
  8
LAY-10
  6
CONTINUOUS
 62
     7
100
AcDbCircle
 10
1353.5
 20
1203.5
 30
0.0
 40
1.0
100
AcDbArc
 50
270.0
 51
0.0
  0
LINE
  5
281
330
1F
100
AcDbEntity
  8
LAY-10
  6
CONTINUOUS
 62
     7
100
AcDbLine
 10
1362.0
 20
1213.5
 30
0.0
 11
1357.500000000001
 21
1213.5
 31
0.0
  0
ARC
  5
282
330
1F
100
AcDbEntity
  8
LAY-10
  6
CONTINUOUS
 62
     7
100
AcDbCircle
 10
1357.500000000001
 20
1212.5
 30
0.0
 40
1.0
100
AcDbArc
 50
90.00000000000001
 51
180.0
  0
LINE
  5
283
330
1F
100
AcDbEntity
  8
LAY-10
  6
CONTINUOUS
 62
     7
100
AcDbLine
 10
1322.0
 20
1213.5
 30
0.0
 11
1326.500000000001
 21
1213.5
 31
0.0
  0
ARC
  5
284
330
1F
100
AcDbEntity
  8
LAY-10
  6
CONTINUOUS
 62
     7
100
AcDbCircle
 10
1326.500000000001
 20
1212.5
 30
0.0
 40
1.0
100
AcDbArc
 50
0.0
 51
90.00000000000001
  0
LINE
  5
285
330
1F
100
AcDbEntity
  8
LAY-10
  6
CONTINUOUS
 62
     7
100
AcDbLine
 10
1353.5
 20
1202.5
 30
0.0
 11
1330.5
 21
1202.5
 31
0.0
  0
ARC
  5
286
330
1F
100
AcDbEntity
  8
LAY-10
  6
CONTINUOUS
 62
     7
100
AcDbCircle
 10
1330.5
 20
1203.5
 30
0.0
 40
1.0
100
AcDbArc
 50
180.0
 51
270.0
  0
LINE
  5
287
330
1F
100
AcDbEntity
  8
LAY-10
  6
CONTINUOUS
 62
     7
100
AcDbLine
 10
1354.5
 20
1212.5
 30
0.0
 11
1354.5
 21
1203.5
 31
0.0
  0
ARC
  5
288
330
1F
100
AcDbEntity
  8
LAY-10
  6
CONTINUOUS
 62
     7
100
AcDbCircle
 10
1357.5
 20
1212.5
 30
0.0
 40
3.0
100
AcDbArc
 50
90.00000000000001
 51
180.0
  0
LINE
  5
289
330
1F
100
AcDbEntity
  8
LAY-10
  6
CONTINUOUS
 62
     7
100
AcDbLine
 10
1322.0
 20
1215.5
 30
0.0
 11
1326.5
 21
1215.5
 31
0.0
  0
LINE
  5
28A
330
1F
100
AcDbEntity
  8
LAY-10
  6
CONTINUOUS
 62
     7
100
AcDbLine
 10
1329.5
 20
1212.5
 30
0.0
 11
1329.5
 21
1203.5
 31
0.0
  0
ARC
  5
28B
330
1F
100
AcDbEntity
  8
LAY-10
  6
CONTINUOUS
 62
     7
100
AcDbCircle
 10
1326.5
 20
1212.5
 30
0.0
 40
3.0
100
AcDbArc
 50
0.0
 51
90.00000000000001
  0
LINE
  5
28C
330
1F
100
AcDbEntity
  8
LAY-10
  6
CONTINUOUS
 62
     7
100
AcDbLine
 10
1357.500000000001
 20
1215.5
 30
0.0
 11
1362.0
 21
1215.5
 31
0.0
  0
LINE
  5
28D
330
1F
100
AcDbEntity
  8
LAY-10
  6
CONTINUOUS
 62
     7
100
AcDbLine
 10
1362.0
 20
1215.5
 30
0.0
 11
1362.0
 21
1213.5
 31
0.0
  0
LINE
  5
28E
330
1F
100
AcDbEntity
  8
LAY-10
  6
CONTINUOUS
 62
     7
100
AcDbLine
 10
1322.0
 20
1215.5
 30
0.0
 11
1322.0
 21
1213.5
 31
0.0
  0
LINE
  5
28F
330
1F
100
AcDbEntity
  8
LAY-10
  6
CONTINUOUS
 62
     7
100
AcDbLine
 10
1356.500000000001
 20
1212.5
 30
0.0
 11
1356.500000000001
 21
1203.5
 31
0.0
  0
ARC
  5
290
330
1F
100
AcDbEntity
  8
LAY-10
  6
CONTINUOUS
 62
     7
100
AcDbCircle
 10
1353.500000000001
 20
1203.5
 30
0.0
 40
3.0
100
AcDbArc
 50
270.0
 51
0.0
  0
LINE
  5
291
330
1F
100
AcDbEntity
  8
LAY-10
  6
CONTINUOUS
 62
     7
100
AcDbLine
 10
1327.500000000001
 20
1212.5
 30
0.0
 11
1327.500000000001
 21
1203.5
 31
0.0
  0
ARC
  5
292
330
1F
100
AcDbEntity
  8
LAY-10
  6
CONTINUOUS
 62
     7
100
AcDbCircle
 10
1330.500000000001
 20
1203.5
 30
0.0
 40
3.0
100
AcDbArc
 50
180.0
 51
270.0
  0
LINE
  5
293
330
1F
100
AcDbEntity
  8
LAY-10
  6
CONTINUOUS
 62
     7
100
AcDbLine
 10
1984.5
 20
1235.5
 30
0.0
 11
1984.5
 21
1197.5
 31
0.0
  0
LINE
  5
294
330
1F
100
AcDbEntity
  8
LAY-10
  6
CONTINUOUS
 62
     7
100
AcDbLine
 10
1987.5
 20
1235.5
 30
0.0
 11
1987.5
 21
1200.5
 31
0.0
  0
LINE
  5
295
330
1F
100
AcDbEntity
  8
LAY-10
  6
CONTINUOUS
 62
     7
100
AcDbLine
 10
2023.500000000002
 20
1192.500000000001
 30
0.0
 11
2020.499999999999
 21
1192.500000000001
 31
0.0
  0
ARC
  5
296
330
1F
100
AcDbEntity
  8
LAY-10
  6
CONTINUOUS
 62
     7
100
AcDbCircle
 10
2028.500000000019
 20
1193.500000000022
 30
0.0
 40
4.0
100
AcDbArc
 50
90.00000000000001
 51
180.0
  0
LINE
  5
297
330
1F
100
AcDbEntity
  8
LAY-10
  6
CONTINUOUS
 62
     7
100
AcDbLine
 10
1985.687999999942
 20
1176.715390309195
 30
0.0
 11
2003.311999999942
 21
1176.715390309195
 31
0.0
  0
ARC
  5
298
330
1F
100
AcDbEntity
  8
LAY-10
  6
CONTINUOUS
 62
     7
100
AcDbCircle
 10
1992.542363636336
 20
1181.911542731895
 30
0.0
 40
11.95763636360607
100
AcDbArc
 50
334.2435414689389
 51
25.75645853106108
  0
ARC
  5
299
330
1F
100
AcDbEntity
  8
LAY-10
  6
CONTINUOUS
 62
     7
100
AcDbCircle
 10
1996.457636363547
 20
1181.911542731895
 30
0.0
 40
11.95763636360607
100
AcDbArc
 50
154.2435414689389
 51
205.7564585310611
  0
ARC
  5
29A
330
1F
100
AcDbEntity
  8
LAY-10
  6
CONTINUOUS
 62
     7
100
AcDbCircle
 10
1996.457636363547
 20
1192.303847577296
 30
0.0
 40
11.95763636360607
100
AcDbArc
 50
154.2435414689389
 51
205.7564585310611
  0
ARC
  5
29B
330
1F
100
AcDbEntity
  8
LAY-10
  6
CONTINUOUS
 62
     7
100
AcDbCircle
 10
1992.542363636336
 20
1192.303847577296
 30
0.0
 40
11.95763636360607
100
AcDbArc
 50
334.2435414689389
 51
25.75645853106108
  0
LINE
  5
29C
330
1F
100
AcDbEntity
  8
LAY-10
  6
CONTINUOUS
 62
     7
100
AcDbLine
 10
2004.499999999941
 20
1192.303847577293
 30
0.0
 11
2004.499999999939
 21
1181.911542731893
 31
0.0
  0
LINE
  5
29D
330
1F
100
AcDbEntity
  8
LAY-10
  6
CONTINUOUS
 62
     7
100
AcDbLine
 10
1984.499999999942
 20
1192.303847577293
 30
0.0
 11
1984.499999999944
 21
1181.911542731893
 31
0.0
  0
LINE
  5
29E
330
1F
100
AcDbEntity
  8
LAY-10
  6
CONTINUOUS
 62
     7
100
AcDbLine
 10
2003.311999999942
 20
1187.107695154594
 30
0.0
 11
1985.687999999942
 21
1187.107695154594
 31
0.0
  0
LINE
  5
29F
330
1F
100
AcDbEntity
  8
LAY-10
  6
CONTINUOUS
 62
     7
100
AcDbLine
 10
1584.5
 20
1235.5
 30
0.0
 11
1584.5
 21
1197.5
 31
0.0
  0
LINE
  5
2A0
330
1F
100
AcDbEntity
  8
LAY-10
  6
CONTINUOUS
 62
     7
100
AcDbLine
 10
1581.5
 20
1235.5
 30
0.0
 11
1581.5
 21
1200.5
 31
0.0
  0
LINE
  5
2A1
330
1F
100
AcDbEntity
  8
LAY-10
  6
CONTINUOUS
 62
     7
100
AcDbLine
 10
1545.499999999998
 20
1192.500000000001
 30
0.0
 11
1548.500000000001
 21
1192.500000000001
 31
0.0
  0
ARC
  5
2A2
330
1F
100
AcDbEntity
  8
LAY-10
  6
CONTINUOUS
 62
     7
100
AcDbCircle
 10
1540.499999999981
 20
1193.500000000022
 30
0.0
 40
4.0
100
AcDbArc
 50
0.0
 51
90.00000000000001
  0
LINE
  5
2A3
330
1F
100
AcDbEntity
  8
LAY-10
  6
CONTINUOUS
 62
     7
100
AcDbLine
 10
1583.312000000059
 20
1176.715390309195
 30
0.0
 11
1565.688000000058
 21
1176.715390309195
 31
0.0
  0
ARC
  5
2A4
330
1F
100
AcDbEntity
  8
LAY-10
  6
CONTINUOUS
 62
     7
100
AcDbCircle
 10
1576.457636363664
 20
1181.911542731895
 30
0.0
 40
11.95763636360607
100
AcDbArc
 50
154.2435414689389
 51
205.7564585310611
  0
ARC
  5
2A5
330
1F
100
AcDbEntity
  8
LAY-10
  6
CONTINUOUS
 62
     7
100
AcDbCircle
 10
1572.542363636453
 20
1181.911542731895
 30
0.0
 40
11.95763636360607
100
AcDbArc
 50
334.2435414689389
 51
25.75645853106108
  0
ARC
  5
2A6
330
1F
100
AcDbEntity
  8
LAY-10
  6
CONTINUOUS
 62
     7
100
AcDbCircle
 10
1572.542363636453
 20
1192.303847577296
 30
0.0
 40
11.95763636360607
100
AcDbArc
 50
334.2435414689389
 51
25.75645853106108
  0
ARC
  5
2A7
330
1F
100
AcDbEntity
  8
LAY-10
  6
CONTINUOUS
 62
     7
100
AcDbCircle
 10
1576.457636363664
 20
1192.303847577296
 30
0.0
 40
11.95763636360607
100
AcDbArc
 50
154.2435414689389
 51
205.7564585310611
  0
LINE
  5
2A8
330
1F
100
AcDbEntity
  8
LAY-10
  6
CONTINUOUS
 62
     7
100
AcDbLine
 10
1564.500000000059
 20
1192.303847577293
 30
0.0
 11
1564.500000000061
 21
1181.911542731893
 31
0.0
  0
LINE
  5
2A9
330
1F
100
AcDbEntity
  8
LAY-10
  6
CONTINUOUS
 62
     7
100
AcDbLine
 10
1584.500000000058
 20
1192.303847577293
 30
0.0
 11
1584.500000000056
 21
1181.911542731893
 31
0.0
  0
LINE
  5
2AA
330
1F
100
AcDbEntity
  8
LAY-10
  6
CONTINUOUS
 62
     7
100
AcDbLine
 10
1565.688000000058
 20
1187.107695154594
 30
0.0
 11
1583.312000000059
 21
1187.107695154594
 31
0.0
  0
LINE
  5
2AB
330
1F
100
AcDbEntity
  8
LAY-10
  6
CONTINUOUS
 62
     7
100
AcDbLine
 10
1199.500000000002
 20
1200.5
 30
0.0
 11
2369.499999999998
 21
1200.499999999999
 31
0.0
  0
ARC
  5
2AC
330
1F
100
AcDbEntity
  8
LAY-10
  6
CONTINUOUS
 62
     7
100
AcDbCircle
 10
2065.500000000001
 20
1203.5
 30
0.0
 40
1.0
100
AcDbArc
 50
180.0
 51
270.0
  0
LINE
  5
2AD
330
1F
100
AcDbEntity
  8
LAY-10
  6
CONTINUOUS
 62
     7
100
AcDbLine
 10
2057.000000000001
 20
1213.5
 30
0.0
 11
2061.5
 21
1213.5
 31
0.0
  0
ARC
  5
2AE
330
1F
100
AcDbEntity
  8
LAY-10
  6
CONTINUOUS
 62
     7
100
AcDbCircle
 10
2061.5
 20
1212.5
 30
0.0
 40
1.0
100
AcDbArc
 50
0.0
 51
90.00000000000001
  0
LINE
  5
2AF
330
1F
100
AcDbEntity
  8
LAY-10
  6
CONTINUOUS
 62
     7
100
AcDbLine
 10
2097.000000000001
 20
1213.5
 30
0.0
 11
2092.5
 21
1213.5
 31
0.0
  0
ARC
  5
2B0
330
1F
100
AcDbEntity
  8
LAY-10
  6
CONTINUOUS
 62
     7
100
AcDbCircle
 10
2092.5
 20
1212.5
 30
0.0
 40
1.0
100
AcDbArc
 50
90.00000000000001
 51
180.0
  0
LINE
  5
2B1
330
1F
100
AcDbEntity
  8
LAY-10
  6
CONTINUOUS
 62
     7
100
AcDbLine
 10
2065.500000000001
 20
1202.5
 30
0.0
 11
2088.500000000001
 21
1202.5
 31
0.0
  0
ARC
  5
2B2
330
1F
100
AcDbEntity
  8
LAY-10
  6
CONTINUOUS
 62
     7
100
AcDbCircle
 10
2088.500000000001
 20
1203.5
 30
0.0
 40
1.0
100
AcDbArc
 50
270.0
 51
0.0
  0
LINE
  5
2B3
330
1F
100
AcDbEntity
  8
LAY-10
  6
CONTINUOUS
 62
     7
100
AcDbLine
 10
2064.500000000001
 20
1212.5
 30
0.0
 11
2064.500000000001
 21
1203.5
 31
0.0
  0
ARC
  5
2B4
330
1F
100
AcDbEntity
  8
LAY-10
  6
CONTINUOUS
 62
     7
100
AcDbCircle
 10
2061.500000000002
 20
1212.5
 30
0.0
 40
3.0
100
AcDbArc
 50
0.0
 51
90.00000000000001
  0
LINE
  5
2B5
330
1F
100
AcDbEntity
  8
LAY-10
  6
CONTINUOUS
 62
     7
100
AcDbLine
 10
2097.000000000001
 20
1215.5
 30
0.0
 11
2092.500000000001
 21
1215.5
 31
0.0
  0
LINE
  5
2B6
330
1F
100
AcDbEntity
  8
LAY-10
  6
CONTINUOUS
 62
     7
100
AcDbLine
 10
2089.500000000001
 20
1212.5
 30
0.0
 11
2089.500000000001
 21
1203.5
 31
0.0
  0
ARC
  5
2B7
330
1F
100
AcDbEntity
  8
LAY-10
  6
CONTINUOUS
 62
     7
100
AcDbCircle
 10
2092.500000000001
 20
1212.5
 30
0.0
 40
3.0
100
AcDbArc
 50
90.00000000000001
 51
180.0
  0
LINE
  5
2B8
330
1F
100
AcDbEntity
  8
LAY-10
  6
CONTINUOUS
 62
     7
100
AcDbLine
 10
2061.5
 20
1215.5
 30
0.0
 11
2057.000000000001
 21
1215.5
 31
0.0
  0
LINE
  5
2B9
330
1F
100
AcDbEntity
  8
LAY-10
  6
CONTINUOUS
 62
     7
100
AcDbLine
 10
2057.000000000001
 20
1215.5
 30
0.0
 11
2057.000000000001
 21
1213.5
 31
0.0
  0
LINE
  5
2BA
330
1F
100
AcDbEntity
  8
LAY-10
  6
CONTINUOUS
 62
     7
100
AcDbLine
 10
2097.000000000001
 20
1215.5
 30
0.0
 11
2097.000000000001
 21
1213.5
 31
0.0
  0
LINE
  5
2BB
330
1F
100
AcDbEntity
  8
LAY-10
  6
CONTINUOUS
 62
     7
100
AcDbLine
 10
2062.500000000001
 20
1212.5
 30
0.0
 11
2062.500000000001
 21
1203.5
 31
0.0
  0
ARC
  5
2BC
330
1F
100
AcDbEntity
  8
LAY-10
  6
CONTINUOUS
 62
     7
100
AcDbCircle
 10
2065.5
 20
1203.5
 30
0.0
 40
3.0
100
AcDbArc
 50
180.0
 51
270.0
  0
LINE
  5
2BD
330
1F
100
AcDbEntity
  8
LAY-10
  6
CONTINUOUS
 62
     7
100
AcDbLine
 10
2091.5
 20
1212.5
 30
0.0
 11
2091.5
 21
1203.5
 31
0.0
  0
ARC
  5
2BE
330
1F
100
AcDbEntity
  8
LAY-10
  6
CONTINUOUS
 62
     7
100
AcDbCircle
 10
2088.5
 20
1203.5
 30
0.0
 40
3.0
100
AcDbArc
 50
270.0
 51
0.0
  0
ARC
  5
2BF
330
1F
100
AcDbEntity
  8
LAY-10
  6
CONTINUOUS
 62
     7
100
AcDbCircle
 10
1503.499999999999
 20
1203.5
 30
0.0
 40
1.0
100
AcDbArc
 50
270.0
 51
0.0
  0
LINE
  5
2C0
330
1F
100
AcDbEntity
  8
LAY-10
  6
CONTINUOUS
 62
     7
100
AcDbLine
 10
1511.999999999999
 20
1213.5
 30
0.0
 11
1507.5
 21
1213.5
 31
0.0
  0
ARC
  5
2C1
330
1F
100
AcDbEntity
  8
LAY-10
  6
CONTINUOUS
 62
     7
100
AcDbCircle
 10
1507.5
 20
1212.5
 30
0.0
 40
1.0
100
AcDbArc
 50
90.00000000000001
 51
180.0
  0
LINE
  5
2C2
330
1F
100
AcDbEntity
  8
LAY-10
  6
CONTINUOUS
 62
     7
100
AcDbLine
 10
1471.999999999999
 20
1213.5
 30
0.0
 11
1476.5
 21
1213.5
 31
0.0
  0
ARC
  5
2C3
330
1F
100
AcDbEntity
  8
LAY-10
  6
CONTINUOUS
 62
     7
100
AcDbCircle
 10
1476.5
 20
1212.5
 30
0.0
 40
1.0
100
AcDbArc
 50
0.0
 51
90.00000000000001
  0
LINE
  5
2C4
330
1F
100
AcDbEntity
  8
LAY-10
  6
CONTINUOUS
 62
     7
100
AcDbLine
 10
1503.499999999999
 20
1202.5
 30
0.0
 11
1480.499999999999
 21
1202.5
 31
0.0
  0
ARC
  5
2C5
330
1F
100
AcDbEntity
  8
LAY-10
  6
CONTINUOUS
 62
     7
100
AcDbCircle
 10
1480.499999999999
 20
1203.5
 30
0.0
 40
1.0
100
AcDbArc
 50
180.0
 51
270.0
  0
LINE
  5
2C6
330
1F
100
AcDbEntity
  8
LAY-10
  6
CONTINUOUS
 62
     7
100
AcDbLine
 10
1504.499999999999
 20
1212.5
 30
0.0
 11
1504.499999999999
 21
1203.5
 31
0.0
  0
ARC
  5
2C7
330
1F
100
AcDbEntity
  8
LAY-10
  6
CONTINUOUS
 62
     7
100
AcDbCircle
 10
1507.499999999998
 20
1212.5
 30
0.0
 40
3.0
100
AcDbArc
 50
90.00000000000001
 51
180.0
  0
LINE
  5
2C8
330
1F
100
AcDbEntity
  8
LAY-10
  6
CONTINUOUS
 62
     7
100
AcDbLine
 10
1471.999999999999
 20
1215.5
 30
0.0
 11
1476.499999999999
 21
1215.5
 31
0.0
  0
LINE
  5
2C9
330
1F
100
AcDbEntity
  8
LAY-10
  6
CONTINUOUS
 62
     7
100
AcDbLine
 10
1479.499999999999
 20
1212.5
 30
0.0
 11
1479.499999999999
 21
1203.5
 31
0.0
  0
ARC
  5
2CA
330
1F
100
AcDbEntity
  8
LAY-10
  6
CONTINUOUS
 62
     7
100
AcDbCircle
 10
1476.499999999999
 20
1212.5
 30
0.0
 40
3.0
100
AcDbArc
 50
0.0
 51
90.00000000000001
  0
LINE
  5
2CB
330
1F
100
AcDbEntity
  8
LAY-10
  6
CONTINUOUS
 62
     7
100
AcDbLine
 10
1507.5
 20
1215.5
 30
0.0
 11
1511.999999999999
 21
1215.5
 31
0.0
  0
LINE
  5
2CC
330
1F
100
AcDbEntity
  8
LAY-10
  6
CONTINUOUS
 62
     7
100
AcDbLine
 10
1511.999999999999
 20
1215.5
 30
0.0
 11
1511.999999999999
 21
1213.5
 31
0.0
  0
LINE
  5
2CD
330
1F
100
AcDbEntity
  8
LAY-10
  6
CONTINUOUS
 62
     7
100
AcDbLine
 10
1471.999999999999
 20
1215.5
 30
0.0
 11
1471.999999999999
 21
1213.5
 31
0.0
  0
LINE
  5
2CE
330
1F
100
AcDbEntity
  8
LAY-10
  6
CONTINUOUS
 62
     7
100
AcDbLine
 10
1506.499999999999
 20
1212.5
 30
0.0
 11
1506.499999999999
 21
1203.5
 31
0.0
  0
ARC
  5
2CF
330
1F
100
AcDbEntity
  8
LAY-10
  6
CONTINUOUS
 62
     7
100
AcDbCircle
 10
1503.5
 20
1203.5
 30
0.0
 40
3.0
100
AcDbArc
 50
270.0
 51
0.0
  0
LINE
  5
2D0
330
1F
100
AcDbEntity
  8
LAY-10
  6
CONTINUOUS
 62
     7
100
AcDbLine
 10
1477.5
 20
1212.5
 30
0.0
 11
1477.5
 21
1203.5
 31
0.0
  0
ARC
  5
2D1
330
1F
100
AcDbEntity
  8
LAY-10
  6
CONTINUOUS
 62
     7
100
AcDbCircle
 10
1480.5
 20
1203.5
 30
0.0
 40
3.0
100
AcDbArc
 50
180.0
 51
270.0
  0
LINE
  5
2D2
330
1F
100
AcDbEntity
  8
LAY-10
  6
CONTINUOUS
 62
     7
100
AcDbLine
 10
1548.372983346208
 20
1097.5
 30
0.0
 11
2020.627016653792
 21
1097.5
 31
0.0
  0
ARC
  5
2D3
330
1F
100
AcDbEntity
  8
LAY-10
  6
CONTINUOUS
 62
     7
100
AcDbCircle
 10
1540.499999999981
 20
1101.500000000022
 30
0.0
 40
4.0
100
AcDbArc
 50
270.0
 51
0.0
  0
LINE
  5
2D4
330
1F
100
AcDbEntity
  8
LAY-10
  6
CONTINUOUS
 62
     7
100
AcDbLine
 10
1544.499999999981
 20
1193.500000000022
 30
0.0
 11
1544.499999999981
 21
1101.500000000022
 31
0.0
  0
ARC
  5
2D5
330
1F
100
AcDbEntity
  8
LAY-10
  6
CONTINUOUS
 62
     7
100
AcDbCircle
 10
1544.500000000001
 20
1098.5
 30
0.0
 40
4.0
100
AcDbArc
 50
270.0
 51
0.0
  0
LINE
  5
2D6
330
1F
100
AcDbEntity
  8
LAY-10
  6
CONTINUOUS
 62
     7
100
AcDbLine
 10
1548.500000000001
 20
1192.500000000001
 30
0.0
 11
1548.500000000001
 21
1098.5
 31
0.0
  0
ARC
  5
2D7
330
1F
100
AcDbEntity
  8
LAY-10
  6
CONTINUOUS
 62
     7
100
AcDbCircle
 10
1544.499999999998
 20
1098.5
 30
0.0
 40
1.0
100
AcDbArc
 50
270.0
 51
0.0
  0
LINE
  5
2D8
330
1F
100
AcDbEntity
  8
LAY-10
  6
CONTINUOUS
 62
     7
100
AcDbLine
 10
1545.499999999998
 20
1192.500000000001
 30
0.0
 11
1545.499999999998
 21
1098.5
 31
0.0
  0
ARC
  5
2D9
330
1F
100
AcDbEntity
  8
LAY-10
  6
CONTINUOUS
 62
     7
100
AcDbCircle
 10
2028.500000000019
 20
1101.500000000022
 30
0.0
 40
4.0
100
AcDbArc
 50
180.0
 51
270.0
  0
LINE
  5
2DA
330
1F
100
AcDbEntity
  8
LAY-10
  6
CONTINUOUS
 62
     7
100
AcDbLine
 10
2024.500000000019
 20
1193.500000000022
 30
0.0
 11
2024.500000000019
 21
1101.500000000022
 31
0.0
  0
ARC
  5
2DB
330
1F
100
AcDbEntity
  8
LAY-10
  6
CONTINUOUS
 62
     7
100
AcDbCircle
 10
2024.499999999999
 20
1098.5
 30
0.0
 40
4.0
100
AcDbArc
 50
180.0
 51
270.0
  0
LINE
  5
2DC
330
1F
100
AcDbEntity
  8
LAY-10
  6
CONTINUOUS
 62
     7
100
AcDbLine
 10
2020.499999999999
 20
1192.500000000001
 30
0.0
 11
2020.499999999999
 21
1098.5
 31
0.0
  0
ARC
  5
2DD
330
1F
100
AcDbEntity
  8
LAY-10
  6
CONTINUOUS
 62
     7
100
AcDbCircle
 10
2024.500000000002
 20
1098.5
 30
0.0
 40
1.0
100
AcDbArc
 50
180.0
 51
270.0
  0
LINE
  5
2DE
330
1F
100
AcDbEntity
  8
LAY-10
  6
CONTINUOUS
 62
     7
100
AcDbLine
 10
2023.500000000002
 20
1192.500000000001
 30
0.0
 11
2023.500000000002
 21
1098.5
 31
0.0
  0
LINE
  5
2DF
330
1F
100
AcDbEntity
  8
LAY-10
  6
HIDDEN
 62
     7
100
AcDbLine
 10
1240.000000000001
 20
1192.5
 30
0.0
 11
1240.000000000001
 21
1097.5
 31
0.0
  0
LINE
  5
2E0
330
1F
100
AcDbEntity
  8
LAY-10
  6
HIDDEN
 62
     7
100
AcDbLine
 10
1237.500000000001
 20
1097.5
 30
0.0
 11
1287.500000000001
 21
1097.5
 31
0.0
  0
LINE
  5
2E1
330
1F
100
AcDbEntity
  8
LAY-10
  6
CONTINUOUS
 62
     7
100
AcDbLine
 10
1237.500000000001
 20
1094.500000000001
 30
0.0
 11
1287.500000000001
 21
1094.500000000001
 31
0.0
  0
LINE
  5
2E2
330
1F
100
AcDbEntity
  8
LAY-10
  6
CONTINUOUS
 62
     7
100
AcDbLine
 10
1287.500000000002
 20
1192.5
 30
0.0
 11
1287.500000000002
 21
1094.500000000001
 31
0.0
  0
LINE
  5
2E3
330
1F
100
AcDbEntity
  8
LAY-10
  6
CONTINUOUS
 62
     7
100
AcDbLine
 10
1237.500000000001
 20
1193.5
 30
0.0
 11
1237.500000000001
 21
1090.5
 31
0.0
  0
LINE
  5
2E4
330
1F
100
AcDbEntity
  8
LAY-10
  6
CONTINUOUS
 62
     7
100
AcDbLine
 10
1234.500000000001
 20
1193.5
 30
0.0
 11
1234.500000000001
 21
1090.5
 31
0.0
  0
LINE
  5
2E5
330
1F
100
AcDbEntity
  8
LAY-10
  6
CONTINUOUS
 62
     7
100
AcDbLine
 10
2334.499999999999
 20
1193.499999999999
 30
0.0
 11
2334.499999999999
 21
1090.499999999999
 31
0.0
  0
LINE
  5
2E6
330
1F
100
AcDbEntity
  8
LAY-10
  6
CONTINUOUS
 62
     7
100
AcDbLine
 10
2331.499999999999
 20
1193.499999999999
 30
0.0
 11
2331.499999999999
 21
1090.499999999999
 31
0.0
  0
LINE
  5
2E7
330
1F
100
AcDbEntity
  8
LAY-10
  6
CONTINUOUS
 62
     7
100
AcDbLine
 10
2281.499999999998
 20
1192.499999999999
 30
0.0
 11
2281.499999999998
 21
1094.5
 31
0.0
  0
LINE
  5
2E8
330
1F
100
AcDbEntity
  8
LAY-10
  6
CONTINUOUS
 62
     7
100
AcDbLine
 10
2331.499999999999
 20
1094.5
 30
0.0
 11
2281.499999999999
 21
1094.5
 31
0.0
  0
LINE
  5
2E9
330
1F
100
AcDbEntity
  8
LAY-10
  6
HIDDEN
 62
     7
100
AcDbLine
 10
2331.499999999999
 20
1097.5
 30
0.0
 11
2281.499999999999
 21
1097.5
 31
0.0
  0
LINE
  5
2EA
330
1F
100
AcDbEntity
  8
LAY-10
  6
HIDDEN
 62
     7
100
AcDbLine
 10
2329.0
 20
1192.499999999999
 30
0.0
 11
2329.0
 21
1097.5
 31
0.0
  0
LINE
  5
2EB
330
1F
100
AcDbEntity
  8
LAY-10
  6
CONTINUOUS
 62
     7
100
AcDbLine
 10
2128.500000000001
 20
1192.500000000001
 30
0.0
 11
2125.499999999999
 21
1192.500000000001
 31
0.0
  0
ARC
  5
2EC
330
1F
100
AcDbEntity
  8
LAY-10
  6
CONTINUOUS
 62
     7
100
AcDbCircle
 10
2120.50000000002
 20
1193.500000000022
 30
0.0
 40
4.0
100
AcDbArc
 50
0.0
 51
90.00000000000001
  0
LINE
  5
2ED
330
1F
100
AcDbEntity
  8
LAY-10
  6
CONTINUOUS
 62
     7
100
AcDbLine
 10
2281.499999999999
 20
1097.499999999999
 30
0.0
 11
2128.372983346208
 21
1097.5
 31
0.0
  0
LINE
  5
2EE
330
1F
100
AcDbEntity
  8
LAY-10
  6
CONTINUOUS
 62
     7
100
AcDbLine
 10
2124.50000000002
 20
1193.500000000022
 30
0.0
 11
2124.50000000002
 21
1101.500000000022
 31
0.0
  0
ARC
  5
2EF
330
1F
100
AcDbEntity
  8
LAY-10
  6
CONTINUOUS
 62
     7
100
AcDbCircle
 10
2120.50000000002
 20
1101.500000000022
 30
0.0
 40
4.0
100
AcDbArc
 50
270.0
 51
0.0
  0
ARC
  5
2F0
330
1F
100
AcDbEntity
  8
LAY-10
  6
CONTINUOUS
 62
     7
100
AcDbCircle
 10
2124.500000000001
 20
1098.5
 30
0.0
 40
4.0
100
AcDbArc
 50
270.0
 51
0.0
  0
LINE
  5
2F1
330
1F
100
AcDbEntity
  8
LAY-10
  6
CONTINUOUS
 62
     7
100
AcDbLine
 10
2128.500000000001
 20
1192.500000000001
 30
0.0
 11
2128.500000000001
 21
1098.5
 31
0.0
  0
LINE
  5
2F2
330
1F
100
AcDbEntity
  8
LAY-10
  6
CONTINUOUS
 62
     7
100
AcDbLine
 10
2124.500000000001
 20
1094.500000000001
 30
0.0
 11
2024.499999999999
 21
1094.500000000001
 31
0.0
  0
ARC
  5
2F3
330
1F
100
AcDbEntity
  8
LAY-10
  6
CONTINUOUS
 62
     7
100
AcDbCircle
 10
2124.499999999999
 20
1098.5
 30
0.0
 40
1.0
100
AcDbArc
 50
270.0
 51
0.0
  0
LINE
  5
2F4
330
1F
100
AcDbEntity
  8
LAY-10
  6
CONTINUOUS
 62
     7
100
AcDbLine
 10
2125.499999999999
 20
1192.500000000001
 30
0.0
 11
2125.499999999999
 21
1098.5
 31
0.0
  0
LINE
  5
2F5
330
1F
100
AcDbEntity
  8
LAY-10
  6
CONTINUOUS
 62
     7
100
AcDbLine
 10
2124.499999999999
 20
1097.5
 30
0.0
 11
2024.500000000002
 21
1097.5
 31
0.0
  0
LINE
  5
2F6
330
1F
100
AcDbEntity
  8
LAY-10
  6
CONTINUOUS
 62
     7
100
AcDbLine
 10
1440.499999999999
 20
1192.500000000001
 30
0.0
 11
1443.500000000002
 21
1192.500000000001
 31
0.0
  0
ARC
  5
2F7
330
1F
100
AcDbEntity
  8
LAY-10
  6
CONTINUOUS
 62
     7
100
AcDbCircle
 10
1448.499999999981
 20
1193.500000000022
 30
0.0
 40
4.0
100
AcDbArc
 50
90.00000000000001
 51
180.0
  0
LINE
  5
2F8
330
1F
100
AcDbEntity
  8
LAY-10
  6
CONTINUOUS
 62
     7
100
AcDbLine
 10
1287.500000000001
 20
1097.5
 30
0.0
 11
1440.627016653792
 21
1097.5
 31
0.0
  0
LINE
  5
2F9
330
1F
100
AcDbEntity
  8
LAY-10
  6
CONTINUOUS
 62
     7
100
AcDbLine
 10
1444.499999999981
 20
1193.500000000022
 30
0.0
 11
1444.499999999981
 21
1101.500000000022
 31
0.0
  0
ARC
  5
2FA
330
1F
100
AcDbEntity
  8
LAY-10
  6
CONTINUOUS
 62
     7
100
AcDbCircle
 10
1448.499999999981
 20
1101.500000000022
 30
0.0
 40
4.0
100
AcDbArc
 50
180.0
 51
270.0
  0
ARC
  5
2FB
330
1F
100
AcDbEntity
  8
LAY-10
  6
CONTINUOUS
 62
     7
100
AcDbCircle
 10
1444.499999999999
 20
1098.5
 30
0.0
 40
4.0
100
AcDbArc
 50
180.0
 51
270.0
  0
LINE
  5
2FC
330
1F
100
AcDbEntity
  8
LAY-10
  6
CONTINUOUS
 62
     7
100
AcDbLine
 10
1440.499999999999
 20
1192.500000000001
 30
0.0
 11
1440.499999999999
 21
1098.5
 31
0.0
  0
LINE
  5
2FD
330
1F
100
AcDbEntity
  8
LAY-10
  6
CONTINUOUS
 62
     7
100
AcDbLine
 10
1444.499999999999
 20
1094.500000000001
 30
0.0
 11
1544.500000000001
 21
1094.500000000001
 31
0.0
  0
ARC
  5
2FE
330
1F
100
AcDbEntity
  8
LAY-10
  6
CONTINUOUS
 62
     7
100
AcDbCircle
 10
1444.500000000002
 20
1098.5
 30
0.0
 40
1.0
100
AcDbArc
 50
180.0
 51
270.0
  0
LINE
  5
2FF
330
1F
100
AcDbEntity
  8
LAY-10
  6
CONTINUOUS
 62
     7
100
AcDbLine
 10
1443.500000000002
 20
1192.500000000001
 30
0.0
 11
1443.500000000002
 21
1098.5
 31
0.0
  0
LINE
  5
300
330
1F
100
AcDbEntity
  8
LAY-10
  6
CONTINUOUS
 62
     7
100
AcDbLine
 10
1444.500000000002
 20
1097.5
 30
0.0
 11
1544.499999999998
 21
1097.5
 31
0.0
  0
LINE
  5
301
330
1F
100
AcDbEntity
  8
LAY-10
  6
CONTINUOUS
 62
     7
100
AcDbLine
 10
1191.500000000001
 20
1197.5
 30
0.0
 11
2377.499999999999
 21
1197.499999999999
 31
0.0
  0
LINE
  5
302
330
1F
100
AcDbEntity
  8
LAY-10
  6
CONTINUOUS
 62
     7
100
AcDbLine
 10
2334.5
 20
1090.499999999999
 30
0.0
 11
1234.500000000001
 21
1090.5
 31
0.0
  0
LINE
  5
303
330
1F
100
AcDbEntity
  8
LAY-10
  6
CONTINUOUS
 62
     7
100
AcDbLine
 10
2121.000000000018
 20
1194.500000000022
 30
0.0
 11
2028.000000000016
 21
1194.500000000022
 31
0.0
  0
ARC
  5
304
330
1F
100
AcDbEntity
  8
LAY-10
  6
CONTINUOUS
 62
     7
100
AcDbCircle
 10
2028.000000000016
 20
1194.000000000022
 30
0.0
 40
0.5
100
AcDbArc
 50
90.00000000000001
 51
180.0
  0
LINE
  5
305
330
1F
100
AcDbEntity
  8
LAY-10
  6
CONTINUOUS
 62
     7
100
AcDbLine
 10
2027.500000000017
 20
1194.000000000022
 30
0.0
 11
2027.500000000017
 21
1101.000000000022
 31
0.0
  0
ARC
  5
306
330
1F
100
AcDbEntity
  8
LAY-10
  6
CONTINUOUS
 62
     7
100
AcDbCircle
 10
2028.000000000016
 20
1101.000000000022
 30
0.0
 40
0.5
100
AcDbArc
 50
180.0
 51
270.0
  0
LINE
  5
307
330
1F
100
AcDbEntity
  8
LAY-10
  6
CONTINUOUS
 62
     7
100
AcDbLine
 10
2028.000000000016
 20
1100.500000000022
 30
0.0
 11
2121.000000000018
 21
1100.500000000022
 31
0.0
  0
ARC
  5
308
330
1F
100
AcDbEntity
  8
LAY-10
  6
CONTINUOUS
 62
     7
100
AcDbCircle
 10
2121.000000000018
 20
1101.000000000022
 30
0.0
 40
0.5
100
AcDbArc
 50
270.0
 51
0.0
  0
LINE
  5
309
330
1F
100
AcDbEntity
  8
LAY-10
  6
CONTINUOUS
 62
     7
100
AcDbLine
 10
2121.500000000016
 20
1101.000000000022
 30
0.0
 11
2121.500000000016
 21
1194.000000000022
 31
0.0
  0
ARC
  5
30A
330
1F
100
AcDbEntity
  8
LAY-10
  6
CONTINUOUS
 62
     7
100
AcDbCircle
 10
2121.000000000018
 20
1194.000000000022
 30
0.0
 40
0.5
100
AcDbArc
 50
0.0
 51
90.00000000000001
  0
LINE
  5
30B
330
1F
100
AcDbEntity
  8
LAY-10
  6
CONTINUOUS
 62
     7
100
AcDbLine
 10
1541.000000000018
 20
1194.500000000022
 30
0.0
 11
1448.000000000016
 21
1194.500000000022
 31
0.0
  0
ARC
  5
30C
330
1F
100
AcDbEntity
  8
LAY-10
  6
CONTINUOUS
 62
     7
100
AcDbCircle
 10
1448.000000000016
 20
1194.000000000022
 30
0.0
 40
0.5
100
AcDbArc
 50
90.00000000000001
 51
180.0
  0
LINE
  5
30D
330
1F
100
AcDbEntity
  8
LAY-10
  6
CONTINUOUS
 62
     7
100
AcDbLine
 10
1447.500000000018
 20
1194.000000000022
 30
0.0
 11
1447.500000000018
 21
1101.000000000022
 31
0.0
  0
ARC
  5
30E
330
1F
100
AcDbEntity
  8
LAY-10
  6
CONTINUOUS
 62
     7
100
AcDbCircle
 10
1448.000000000016
 20
1101.000000000022
 30
0.0
 40
0.5
100
AcDbArc
 50
180.0
 51
270.0
  0
LINE
  5
30F
330
1F
100
AcDbEntity
  8
LAY-10
  6
CONTINUOUS
 62
     7
100
AcDbLine
 10
1448.000000000016
 20
1100.500000000022
 30
0.0
 11
1541.000000000018
 21
1100.500000000022
 31
0.0
  0
ARC
  5
310
330
1F
100
AcDbEntity
  8
LAY-10
  6
CONTINUOUS
 62
     7
100
AcDbCircle
 10
1541.000000000018
 20
1101.000000000022
 30
0.0
 40
0.5
100
AcDbArc
 50
270.0
 51
0.0
  0
LINE
  5
311
330
1F
100
AcDbEntity
  8
LAY-10
  6
CONTINUOUS
 62
     7
100
AcDbLine
 10
1541.500000000016
 20
1101.000000000022
 30
0.0
 11
1541.500000000016
 21
1194.000000000022
 31
0.0
  0
ARC
  5
312
330
1F
100
AcDbEntity
  8
LAY-10
  6
CONTINUOUS
 62
     7
100
AcDbCircle
 10
1541.000000000018
 20
1194.000000000022
 30
0.0
 40
0.5
100
AcDbArc
 50
0.0
 51
90.00000000000001
  0
LINE
  5
313
330
1F
100
AcDbEntity
  8
LAY-10
  6
HIDDEN
 62
     7
100
AcDbLine
 10
1160.0
 20
1194.5
 30
0.0
 11
1160.0
 21
1191.500000000001
 31
0.0
  0
LINE
  5
314
330
1F
100
AcDbEntity
  8
LAY-10
  6
HIDDEN
 62
     7
100
AcDbLine
 10
1175.0
 20
1194.5
 30
0.0
 11
1175.0
 21
1191.500000000001
 31
0.0
  0
LINE
  5
315
330
1F
100
AcDbEntity
  8
LAY-10
  6
HIDDEN
 62
     7
100
AcDbLine
 10
2409.0
 20
1194.5
 30
0.0
 11
2409.0
 21
1191.5
 31
0.0
  0
LINE
  5
316
330
1F
100
AcDbEntity
  8
LAY-10
  6
HIDDEN
 62
     7
100
AcDbLine
 10
2394.0
 20
1194.5
 30
0.0
 11
2394.0
 21
1191.5
 31
0.0
  0
LINE
  5
317
330
1F
100
AcDbEntity
  8
LAY-10
  6
CENTER
 62
     2
100
AcDbLine
 10
1834.500000000007
 20
2756.9821433124
 30
0.0
 11
1834.500000000008
 21
2716.6821433124
 31
0.0
  0
LINE
  5
318
330
1F
100
AcDbEntity
  8
LAY-10
  6
CENTER
 62
     2
100
AcDbLine
 10
1734.499999999991
 20
2756.9821433124
 30
0.0
 11
1734.49999999999
 21
2716.6821433124
 31
0.0
  0
LINE
  5
319
330
1F
100
AcDbEntity
  8
LAY-10
  6
CENTER
 62
     2
100
AcDbLine
 10
1834.500000000008
 20
2302.017856687598
 30
0.0
 11
1834.500000000009
 21
2342.317856687598
 31
0.0
  0
LINE
  5
31A
330
1F
100
AcDbEntity
  8
LAY-10
  6
CENTER
 62
     2
100
AcDbLine
 10
1734.499999999991
 20
2302.017856687598
 30
0.0
 11
1734.49999999999
 21
2342.317856687598
 31
0.0
  0
LINE
  5
31B
330
1F
100
AcDbEntity
  8
LAY-10
  6
CENTER
 62
     2
100
AcDbLine
 10
1557.017856687601
 20
2479.499999999989
 30
0.0
 11
1597.317856687601
 21
2479.499999999988
 31
0.0
  0
LINE
  5
31C
330
1F
100
AcDbEntity
  8
LAY-10
  6
CENTER
 62
     2
100
AcDbLine
 10
1557.017856687601
 20
2579.50000000001
 30
0.0
 11
1597.317856687601
 21
2579.50000000001
 31
0.0
  0
LINE
  5
31D
330
1F
100
AcDbEntity
  8
LAY-10
  6
CENTER
 62
     2
100
AcDbLine
 10
2011.982143312398
 20
2479.499999999989
 30
0.0
 11
1971.682143312398
 21
2479.499999999988
 31
0.0
  0
LINE
  5
31E
330
1F
100
AcDbEntity
  8
LAY-10
  6
CENTER
 62
     2
100
AcDbLine
 10
2011.982143312398
 20
2579.50000000001
 30
0.0
 11
1971.682143312398
 21
2579.500000000011
 31
0.0
  0
LINE
  5
31F
330
1F
100
AcDbEntity
  8
LAY-10
  6
CENTER
 62
     2
100
AcDbLine
 10
1763.099999999999
 20
3146.500000000001
 30
0.0
 11
1805.9
 21
3146.500000000001
 31
0.0
  0
LINE
  5
320
330
1F
100
AcDbEntity
  8
LAY-10
  6
CENTER
 62
     2
100
AcDbLine
 10
1763.099999999999
 20
1912.499999999998
 30
0.0
 11
1805.9
 21
1912.499999999998
 31
0.0
  0
LINE
  5
321
330
1F
100
AcDbEntity
  8
LAY-10
  6
CENTER
 62
     2
100
AcDbLine
 10
1784.499999999999
 20
1870.540132960649
 30
0.0
 11
1784.499999999999
 21
3188.459867039352
 31
0.0
  0
LINE
  5
322
330
1F
100
AcDbEntity
  8
LAY-10
  6
CENTER
 62
     2
100
AcDbLine
 10
2381.499999999998
 20
2429.500000000001
 30
0.0
 11
2422.899999999997
 21
2429.500000000001
 31
0.0
  0
LINE
  5
323
330
1F
100
AcDbEntity
  8
LAY-10
  6
CENTER
 62
     2
100
AcDbLine
 10
2401.499999999998
 20
2408.100000000002
 30
0.0
 11
2401.499999999998
 21
2450.900000000002
 31
0.0
  0
LINE
  5
324
330
1F
100
AcDbEntity
  8
LAY-10
  6
CENTER
 62
     2
100
AcDbLine
 10
2381.499999999997
 20
2629.499999999998
 30
0.0
 11
2422.899999999997
 21
2629.499999999998
 31
0.0
  0
LINE
  5
325
330
1F
100
AcDbEntity
  8
LAY-10
  6
CENTER
 62
     2
100
AcDbLine
 10
2401.499999999998
 20
2650.899999999996
 30
0.0
 11
2401.499999999998
 21
2608.099999999996
 31
0.0
  0
LINE
  5
326
330
1F
100
AcDbEntity
  8
LAY-10
  6
CENTER
 62
     2
100
AcDbLine
 10
1167.5
 20
2650.899999999997
 30
0.0
 11
1167.5
 21
2608.099999999997
 31
0.0
  0
LINE
  5
327
330
1F
100
AcDbEntity
  8
LAY-10
  6
CENTER
 62
     2
100
AcDbLine
 10
1187.500000000001
 20
2629.499999999998
 30
0.0
 11
1146.100000000001
 21
2629.499999999998
 31
0.0
  0
LINE
  5
328
330
1F
100
AcDbEntity
  8
LAY-10
  6
CENTER
 62
     2
100
AcDbLine
 10
1167.5
 20
2408.100000000003
 30
0.0
 11
1167.5
 21
2450.900000000003
 31
0.0
  0
LINE
  5
329
330
1F
100
AcDbEntity
  8
LAY-10
  6
CENTER
 62
     2
100
AcDbLine
 10
1187.500000000001
 20
2429.500000000001
 30
0.0
 11
1146.100000000001
 21
2429.500000000001
 31
0.0
  0
LINE
  5
32A
330
1F
100
AcDbEntity
  8
LAY-10
  6
CENTER
 62
     2
100
AcDbLine
 10
2443.45986703935
 20
2529.499999999998
 30
0.0
 11
1125.54013296065
 21
2529.499999999999
 31
0.0
  0
LINE
  5
32B
330
1F
100
AcDbEntity
  8
LAY-10
  6
CENTER
 62
     2
100
AcDbLine
 10
2184.499999999998
 20
3126.5
 30
0.0
 11
2184.499999999998
 21
3167.900000000001
 31
0.0
  0
LINE
  5
32C
330
1F
100
AcDbEntity
  8
LAY-10
  6
CENTER
 62
     2
100
AcDbLine
 10
2163.1
 20
3146.500000000001
 30
0.0
 11
2205.9
 21
3146.500000000001
 31
0.0
  0
LINE
  5
32D
330
1F
100
AcDbEntity
  8
LAY-10
  6
CENTER
 62
     2
100
AcDbLine
 10
1405.899999999997
 20
3146.5
 30
0.0
 11
1363.099999999997
 21
3146.5
 31
0.0
  0
LINE
  5
32E
330
1F
100
AcDbEntity
  8
LAY-10
  6
CENTER
 62
     2
100
AcDbLine
 10
1384.499999999998
 20
3126.5
 30
0.0
 11
1384.499999999998
 21
3167.9
 31
0.0
  0
LINE
  5
32F
330
1F
100
AcDbEntity
  8
LAY-10
  6
CENTER
 62
     2
100
AcDbLine
 10
2184.499999999999
 20
1932.499999999999
 30
0.0
 11
2184.499999999999
 21
1891.099999999999
 31
0.0
  0
LINE
  5
330
330
1F
100
AcDbEntity
  8
LAY-10
  6
CENTER
 62
     2
100
AcDbLine
 10
2163.1
 20
1912.499999999998
 30
0.0
 11
2205.9
 21
1912.499999999998
 31
0.0
  0
LINE
  5
331
330
1F
100
AcDbEntity
  8
LAY-10
  6
CENTER
 62
     2
100
AcDbLine
 10
1405.899999999997
 20
1912.499999999998
 30
0.0
 11
1363.099999999997
 21
1912.499999999998
 31
0.0
  0
LINE
  5
332
330
1F
100
AcDbEntity
  8
LAY-10
  6
CENTER
 62
     2
100
AcDbLine
 10
1384.499999999998
 20
1932.499999999999
 30
0.0
 11
1384.499999999998
 21
1891.099999999999
 31
0.0
  0
LINE
  5
333
330
1F
100
AcDbEntity
  8
LAY-10
  6
CENTER
 62
     2
100
AcDbLine
 10
1167.5
 20
3050.899999999998
 30
0.0
 11
1167.5
 21
3008.099999999997
 31
0.0
  0
LINE
  5
334
330
1F
100
AcDbEntity
  8
LAY-10
  6
CENTER
 62
     2
100
AcDbLine
 10
1187.500000000001
 20
3029.499999999999
 30
0.0
 11
1146.100000000001
 21
3029.499999999999
 31
0.0
  0
LINE
  5
335
330
1F
100
AcDbEntity
  8
LAY-10
  6
CENTER
 62
     2
100
AcDbLine
 10
1167.5
 20
2008.100000000002
 30
0.0
 11
1167.5
 21
2050.900000000002
 31
0.0
  0
LINE
  5
336
330
1F
100
AcDbEntity
  8
LAY-10
  6
CENTER
 62
     2
100
AcDbLine
 10
1187.500000000001
 20
2029.500000000001
 30
0.0
 11
1146.100000000001
 21
2029.500000000001
 31
0.0
  0
LINE
  5
337
330
1F
100
AcDbEntity
  8
LAY-10
  6
CENTER
 62
     2
100
AcDbLine
 10
2381.499999999996
 20
3029.499999999999
 30
0.0
 11
2422.899999999997
 21
3029.499999999999
 31
0.0
  0
LINE
  5
338
330
1F
100
AcDbEntity
  8
LAY-10
  6
CENTER
 62
     2
100
AcDbLine
 10
2401.499999999997
 20
3050.899999999998
 30
0.0
 11
2401.499999999997
 21
3008.099999999997
 31
0.0
  0
LINE
  5
339
330
1F
100
AcDbEntity
  8
LAY-10
  6
CENTER
 62
     2
100
AcDbLine
 10
2381.499999999998
 20
2029.5
 30
0.0
 11
2422.899999999997
 21
2029.5
 31
0.0
  0
LINE
  5
33A
330
1F
100
AcDbEntity
  8
LAY-10
  6
CENTER
 62
     2
100
AcDbLine
 10
2401.499999999998
 20
2008.100000000002
 30
0.0
 11
2401.499999999998
 21
2050.900000000002
 31
0.0
  0
LINE
  5
33B
330
1F
100
AcDbEntity
  8
LAY-10
  6
CENTER
 62
     2
100
AcDbLine
 10
2401.5
 20
1202.699999999999
 30
0.0
 11
2401.5
 21
1182.599999999999
 31
0.0
  0
LINE
  5
33C
330
1F
100
AcDbEntity
  8
LAY-10
  6
CENTER
 62
     2
100
AcDbLine
 10
2361.499999999999
 20
1178.557827001353
 30
0.0
 11
2361.499999999999
 21
1150.442172998645
 31
0.0
  0
LINE
  5
33D
330
1F
100
AcDbEntity
  8
LAY-10
  6
CENTER
 62
     2
100
AcDbLine
 10
2347.442172998645
 20
1164.499999999999
 30
0.0
 11
2375.557827001353
 21
1164.499999999999
 31
0.0
  0
LINE
  5
33E
330
1F
100
AcDbEntity
  8
LAY-10
  6
CENTER
 62
     2
100
AcDbLine
 10
1221.557827001355
 20
1164.5
 30
0.0
 11
1193.442172998647
 21
1164.5
 31
0.0
  0
LINE
  5
33F
330
1F
100
AcDbEntity
  8
LAY-10
  6
CENTER
 62
     2
100
AcDbLine
 10
1207.500000000001
 20
1178.557827001354
 30
0.0
 11
1207.500000000001
 21
1150.442172998646
 31
0.0
  0
LINE
  5
340
330
1F
100
AcDbEntity
  8
LAY-10
  6
CENTER
 62
     2
100
AcDbLine
 10
1167.5
 20
1202.7
 30
0.0
 11
1167.5
 21
1182.6
 31
0.0
  0
LINE
  5
341
330
1F
100
AcDbEntity
  8
LAY-10
  6
CENTER
 62
     2
100
AcDbLine
 10
1784.5
 20
1262.5
 30
0.0
 11
1784.5
 21
1067.5
 31
0.0
  0
TEXT
  5
342
330
1F
100
AcDbEntity
  8
LAY-11
  6
CONTINUOUS
 62
     7
100
AcDbText
 10
3497.745235095825
 20
1644.291508592253
 30
0.0
 40
46.77165302633819
  1
受枠補強材ジョイント部
 41
1.117525773195876
  7
EXCADSTD
100
AcDbText
  0
TEXT
  5
343
330
1F
100
AcDbEntity
  8
LAY-11
  6
CONTINUOUS
 62
     7
100
AcDbText
 10
3720.402146080801
 20
2714.183800484412
 30
0.0
 40
46.77165302633819
  1
Ｍ１０×２５
 41
1.123076923076923
  7
EXCADSTD
100
AcDbText
  0
LEADER
  5
344
330
1F
100
AcDbEntity
  8
LAY-11
  6
CONTINUOUS
 62
     7
100
AcDbLeader
  3
ISO-25
 76
     3
 10
3614.378097904351
 20
2782.638872068902
 30
0.0
 10
3716.022134636708
 20
2703.57230299504
 30
0.0
 10
4067.922134636701
 20
2703.57230299504
 30
0.0
1001
ACAD
1000
DSTYLE
1002
{
1070
     5
1000
EX_BNORM
1070
    41
1040
45.0
1070
   341
1005
7D
1002
}
  0
TEXT
  5
345
330
1F
100
AcDbEntity
  8
LAY-11
  6
CONTINUOUS
 62
     7
100
AcDbText
 10
3594.77291712638
 20
2519.611897050993
 30
0.0
 40
46.77165302633819
  1
受枠ジョイント部
 41
1.12
  7
EXCADSTD
100
AcDbText
  0
ELLIPSE
  5
346
330
1F
100
AcDbEntity
  8
LAY-11
  6
CONTINUOUS
 62
     7
100
AcDbEllipse
 10
3812.865694871721
 20
3077.116740668891
 30
0.0
 11
-4.115142767875746
 21
7.127636354360407
 31
0.0
210
0.0
220
0.0
230
1.0
 40
0.5773502691896256
 41
-0.785398163397448
 42
0.7853981633974375
  0
ELLIPSE
  5
347
330
1F
100
AcDbEntity
  8
LAY-11
  6
CONTINUOUS
 62
     7
100
AcDbEllipse
 10
3850.646629610757
 20
3007.184008982933
 30
0.0
 11
-6.17271415181362
 21
10.69145453154061
 31
0.0
210
0.0
220
0.0
230
1.0
 40
0.5773502691896255
 41
0.0
 42
6.283185307179586
  0
ELLIPSE
  5
348
330
1F
100
AcDbEntity
  8
LAY-11
  6
CONTINUOUS
 62
     7
100
AcDbEllipse
 10
3876.882292719463
 20
3047.716740668895
 30
0.0
 11
-5.143928459844679
 21
8.909545442950501
 31
0.0
210
0.0
220
0.0
230
1.0
 40
0.5773502691896258
 41
2.356194490192348
 42
3.926990816987242
  0
ELLIPSE
  5
349
330
1F
100
AcDbEntity
  8
LAY-11
  6
CONTINUOUS
 62
     7
100
AcDbEllipse
 10
3816.503001567617
 20
3070.816740668893
 30
0.0
 11
-2.057571383937871
 21
3.5638181771802
 31
0.0
210
0.0
220
0.0
230
1.0
 40
0.5773502691896255
 41
-0.7853981633974481
 42
0.7853981633974374
  0
ELLIPSE
  5
34A
330
1F
100
AcDbEntity
  8
LAY-11
  6
CONTINUOUS
 62
     7
100
AcDbEllipse
 10
3876.154831380284
 20
3048.976740668895
 30
0.0
 11
-1.028785691968936
 21
1.7819090885901
 31
0.0
210
0.0
220
0.0
230
1.0
 40
0.5773502691896262
 41
2.356194490192348
 42
3.926990816987296
  0
LINE
  5
34B
330
1F
100
AcDbEntity
  8
LAY-11
  6
CONTINUOUS
 62
     7
100
AcDbLine
 10
3807.046004158291
 20
3080.476740668891
 30
0.0
 11
3807.046004158291
 21
2992.276740668893
 31
0.0
  0
LINE
  5
34C
330
1F
100
AcDbEntity
  8
LAY-11
  6
CONTINUOUS
 62
     7
100
AcDbLine
 10
3813.593156210899
 20
2988.496740668891
 30
0.0
 11
3813.5931562109
 21
3072.496740668892
 31
0.0
  0
LINE
  5
34D
330
1F
100
AcDbEntity
  8
LAY-11
  6
CONTINUOUS
 62
     7
100
AcDbLine
 10
3807.046004158318
 20
2992.276740668871
 30
0.0
 11
3884.15690611125
 21
2947.75674066889
 31
0.0
  0
LINE
  5
34E
330
1F
100
AcDbEntity
  8
LAY-11
  6
CONTINUOUS
 62
     7
100
AcDbLine
 10
3876.154831380284
 20
3047.296740668896
 30
0.0
 11
3812.865694871721
 21
3083.836740668894
 31
0.0
  0
LINE
  5
34F
330
1F
100
AcDbEntity
  8
LAY-11
  6
CONTINUOUS
 62
     7
100
AcDbLine
 10
3884.156906111252
 20
3035.116740668895
 30
0.0
 11
3884.156906111252
 21
2947.756740668893
 31
0.0
  0
LINE
  5
350
330
1F
100
AcDbEntity
  8
LAY-11
  6
CONTINUOUS
 62
     7
100
AcDbLine
 10
3884.156906111191
 20
3035.116740668931
 30
0.0
 11
3816.503001567617
 21
3074.176740668892
 31
0.0
  0
LINE
  5
351
330
1F
100
AcDbEntity
  8
LAY-11
  6
CONTINUOUS
 62
     7
100
AcDbLine
 10
3891.431519503003
 20
3039.316740668895
 30
0.0
 11
3891.431519503003
 21
2951.956740668892
 31
0.0
  0
LINE
  5
352
330
1F
100
AcDbEntity
  8
LAY-11
  6
CONTINUOUS
 62
     7
100
AcDbLine
 10
3884.15690611119
 20
3035.116740668924
 30
0.0
 11
3891.431519502941
 21
3039.316740668924
 31
0.0
  0
LINE
  5
353
330
1F
100
AcDbEntity
  8
LAY-11
  6
CONTINUOUS
 62
     7
100
AcDbLine
 10
3884.15690611119
 20
2947.756740668925
 30
0.0
 11
3891.431519502941
 21
2951.956740668924
 31
0.0
  0
LINE
  5
354
330
1F
100
AcDbEntity
  8
LAY-11
  6
CONTINUOUS
 62
     7
100
AcDbLine
 10
3887.121635200976
 20
3041.805053530847
 30
0.0
 11
3891.431519502944
 21
3039.316740668929
 31
0.0
  0
ELLIPSE
  5
355
330
1F
100
AcDbEntity
  8
LAY-11
  6
CONTINUOUS
 62
     7
100
AcDbEllipse
 10
3857.92124300251
 20
3011.384008982933
 30
0.0
 11
-6.17271415181362
 21
10.69145453154061
 31
0.0
210
0.0
220
0.0
230
1.0
 40
0.5773502691896255
 41
0.6301372460630297
 42
2.511455407529306
  0
LINE
  5
356
330
1F
100
AcDbEntity
  8
LAY-11
  6
CONTINUOUS
 62
     7
100
AcDbLine
 10
4052.377105649898
 20
3137.215343880079
 30
0.0
 11
3882.500929276075
 21
3039.137287721244
 31
0.0
  0
ELLIPSE
  5
357
330
1F
100
AcDbEntity
  8
LAY-11
  6
CONTINUOUS
 62
     7
100
AcDbEllipse
 10
3745.813298299201
 20
2972.044021458522
 30
0.0
 11
-5.143928459844679
 21
8.909545442950501
 31
0.0
210
0.0
220
0.0
230
1.0
 40
0.5773502691896258
 41
3.044439062541205
 42
3.926990816987242
  0
LINE
  5
358
330
1F
100
AcDbEntity
  8
LAY-11
  6
CONTINUOUS
 62
     7
100
AcDbLine
 10
3753.087911690989
 20
2959.444021458522
 30
0.0
 11
3753.087911690989
 21
2872.084021458519
 31
0.0
  0
LINE
  5
359
330
1F
100
AcDbEntity
  8
LAY-11
  6
CONTINUOUS
 62
     7
100
AcDbLine
 10
3748.778027388906
 20
2961.932334320498
 30
0.0
 11
3753.087911690926
 21
2959.444021458551
 31
0.0
  0
LINE
  5
35A
330
1F
100
AcDbEntity
  8
LAY-11
  6
CONTINUOUS
 62
     7
100
AcDbLine
 10
3751.431934856019
 20
2963.464568511049
 30
0.0
 11
3603.822134636699
 21
2878.242010618959
 31
0.0
  0
LINE
  5
35B
330
1F
100
AcDbEntity
  8
LAY-11
  6
CONTINUOUS
 62
     7
100
AcDbLine
 10
3745.813298299238
 20
2955.244021458522
 30
0.0
 11
3745.813298299238
 21
2867.884021458518
 31
0.0
  0
LINE
  5
35C
330
1F
100
AcDbEntity
  8
LAY-11
  6
CONTINUOUS
 62
     7
100
AcDbLine
 10
3753.087911690926
 20
2872.084021458553
 30
0.0
 11
3745.813298299173
 21
2867.884021458553
 31
0.0
  0
LINE
  5
35D
330
1F
100
AcDbEntity
  8
LAY-11
  6
CONTINUOUS
 62
     7
100
AcDbLine
 10
3665.847434722741
 20
2914.052334320386
 30
0.0
 11
3745.813298299235
 21
2867.884021458517
 31
0.0
  0
ELLIPSE
  5
35E
330
1F
100
AcDbEntity
  8
LAY-11
  6
CONTINUOUS
 62
     7
100
AcDbEllipse
 10
3712.303021798742
 20
2927.31128977256
 30
0.0
 11
-6.17271415181362
 21
10.69145453154061
 31
0.0
210
0.0
220
0.0
230
1.0
 40
0.5773502691896255
 41
0.3131087307744441
 42
5.970076576407668
  0
ELLIPSE
  5
35F
330
1F
100
AcDbEntity
  8
LAY-11
  6
CONTINUOUS
 62
     7
100
AcDbEllipse
 10
3719.577635190493
 20
2931.511289772559
 30
0.0
 11
-6.17271415181362
 21
10.69145453154061
 31
0.0
210
0.0
220
0.0
230
1.0
 40
0.5773502691896255
 41
0.6301372460630297
 42
2.511455407529306
  0
ELLIPSE
  5
360
330
1F
100
AcDbEntity
  8
LAY-11
  6
CONTINUOUS
 62
     7
100
AcDbEllipse
 10
3984.158779089607
 20
3011.255782132233
 30
0.0
 11
6.429910574805806
 21
-11.13693180368817
 31
0.0
210
0.0
220
0.0
230
1.0
 40
0.5773502691896257
 41
0.0
 42
6.283185307179586
  0
LINE
  5
361
330
1F
100
AcDbEntity
  8
LAY-11
  6
CONTINUOUS
 62
     7
100
AcDbLine
 10
3976.12386289014
 20
3032.072665224269
 30
0.0
 11
3973.136075247082
 21
3030.347665224268
 31
0.0
  0
ELLIPSE
  5
362
330
1F
100
AcDbEntity
  8
LAY-11
  6
CONTINUOUS
 62
     7
100
AcDbEllipse
 10
3984.158779089607
 20
3011.255782132233
 30
0.0
 11
11.02270384252423
 21
-19.09188309203686
 31
0.0
210
0.0
220
0.0
230
1.0
 40
0.5773502691896257
 41
0.0
 42
6.283185307179586
  0
ELLIPSE
  5
363
330
1F
100
AcDbEntity
  8
LAY-11
  6
CONTINUOUS
 62
     7
100
AcDbEllipse
 10
3987.146566732662
 20
3012.980782132232
 30
0.0
 11
6.429910574805806
 21
-11.13693180368817
 31
0.0
210
0.0
220
0.0
230
1.0
 40
0.5773502691896257
 41
3.37607043143134
 42
6.048707529338084
  0
LINE
  5
364
330
1F
100
AcDbEntity
  8
LAY-11
  6
CONTINUOUS
 62
     7
100
AcDbLine
 10
3998.169270575188
 20
2993.888899040195
 30
0.0
 11
3995.18148293213
 21
2992.163899040195
 31
0.0
  0
ELLIPSE
  5
365
330
1F
100
AcDbEntity
  8
LAY-11
  6
CONTINUOUS
 62
     7
100
AcDbEllipse
 10
3987.146566732662
 20
3012.980782132232
 30
0.0
 11
11.02270384252423
 21
-19.09188309203686
 31
0.0
210
0.0
220
0.0
230
1.0
 40
0.5773502691896257
 41
0.0
 42
3.141592653589803
  0
LINE
  5
366
330
1F
100
AcDbEntity
  8
LAY-11
  6
HIDDEN
 62
     7
100
AcDbLine
 10
3693.054461688261
 20
2843.571659169273
 30
0.0
 11
3676.570875746183
 21
2834.322964858097
 31
0.0
  0
LINE
  5
367
330
1F
100
AcDbEntity
  8
LAY-11
  6
HIDDEN
 62
     7
100
AcDbLine
 10
3668.936842726712
 20
2830.039622749977
 30
0.0
 11
3629.763721847589
 21
2808.060168673733
 31
0.0
  0
ELLIPSE
  5
368
330
1F
100
AcDbEntity
  8
LAY-11
  6
CONTINUOUS
 62
     7
100
AcDbEllipse
 10
3662.434008687255
 20
2826.454585303652
 30
0.0
 11
6.429910574805806
 21
-11.13693180368817
 31
0.0
210
0.0
220
0.0
230
1.0
 40
0.5773502691896257
 41
0.0
 42
6.283185307179586
  0
LINE
  5
369
330
1F
100
AcDbEntity
  8
LAY-11
  6
CONTINUOUS
 62
     7
100
AcDbLine
 10
3654.399092487788
 20
2847.271468395689
 30
0.0
 11
3651.411304844732
 21
2845.546468395688
 31
0.0
  0
ELLIPSE
  5
36A
330
1F
100
AcDbEntity
  8
LAY-11
  6
CONTINUOUS
 62
     7
100
AcDbEllipse
 10
3662.434008687255
 20
2826.454585303652
 30
0.0
 11
11.02270384252423
 21
-19.09188309203686
 31
0.0
210
0.0
220
0.0
230
1.0
 40
0.5773502691896257
 41
0.0
 42
6.283185307179586
  0
ELLIPSE
  5
36B
330
1F
100
AcDbEntity
  8
LAY-11
  6
CONTINUOUS
 62
     7
100
AcDbEllipse
 10
3665.421796330312
 20
2828.179585303653
 30
0.0
 11
6.429910574805806
 21
-11.13693180368817
 31
0.0
210
0.0
220
0.0
230
1.0
 40
0.5773502691896257
 41
3.37607043143134
 42
6.048707529338084
  0
LINE
  5
36C
330
1F
100
AcDbEntity
  8
LAY-11
  6
CONTINUOUS
 62
     7
100
AcDbLine
 10
3676.444500172835
 20
2809.087702211616
 30
0.0
 11
3673.456712529782
 21
2807.362702211617
 31
0.0
  0
ELLIPSE
  5
36D
330
1F
100
AcDbEntity
  8
LAY-11
  6
CONTINUOUS
 62
     7
100
AcDbEllipse
 10
3665.421796330312
 20
2828.179585303653
 30
0.0
 11
11.02270384252423
 21
-19.09188309203686
 31
0.0
210
0.0
220
0.0
230
1.0
 40
0.5773502691896257
 41
0.0
 42
3.141592653589803
  0
ELLIPSE
  5
36E
330
1F
100
AcDbEntity
  8
LAY-11
  6
CONTINUOUS
 62
     7
100
AcDbEllipse
 10
3625.772996163856
 20
2805.610024491604
 30
0.0
 11
-3.674234614174771
 21
6.36396103067893
 31
0.0
210
0.0
220
0.0
230
1.0
 40
0.577350269189626
 41
3.141592653589853
 42
6.283185307179586
  0
ELLIPSE
  5
36F
330
1F
100
AcDbEntity
  8
LAY-11
  6
CONTINUOUS
 62
     7
100
AcDbEllipse
 10
3627.072034269263
 20
2806.360024491604
 30
0.0
 11
-2.75567596063108
 21
4.772970773009202
 31
0.0
210
0.0
220
0.0
230
1.0
 40
0.5773502691896247
 41
3.926990817087224
 42
5.497787143736541
  0
LINE
  5
370
330
1F
100
AcDbEntity
  8
LAY-11
  6
CONTINUOUS
 62
     7
100
AcDbLine
 10
3630.969148586414
 20
2802.610024492172
 30
0.0
 11
3630.969148586291
 21
2804.11002449203
 31
0.0
  0
LINE
  5
371
330
1F
100
AcDbEntity
  8
LAY-11
  6
CONTINUOUS
 62
     7
100
AcDbLine
 10
3627.072034269448
 20
2810.860024491496
 30
0.0
 11
3625.772996163955
 21
2811.610024491461
 31
0.0
  0
ELLIPSE
  5
372
330
1F
100
AcDbEntity
  8
LAY-11
  6
CONTINUOUS
 62
     7
100
AcDbEllipse
 10
3624.473958058158
 20
2804.860024491604
 30
0.0
 11
-3.674234614174771
 21
6.36396103067893
 31
0.0
210
0.0
220
0.0
230
1.0
 40
0.577350269189626
 41
3.141592653589853
 42
6.283185307179586
  0
ELLIPSE
  5
373
330
1F
100
AcDbEntity
  8
LAY-11
  6
CONTINUOUS
 62
     7
100
AcDbEllipse
 10
3623.174919952457
 20
2804.110024491604
 30
0.0
 11
-3.674234614174771
 21
6.36396103067893
 31
0.0
210
0.0
220
0.0
230
1.0
 40
0.577350269189626
 41
3.141592653589853
 42
6.283185307179586
  0
ELLIPSE
  5
374
330
1F
100
AcDbEntity
  8
LAY-11
  6
CONTINUOUS
 62
     7
100
AcDbEllipse
 10
3621.875881846757
 20
2803.360024491604
 30
0.0
 11
-3.674234614174771
 21
6.36396103067893
 31
0.0
210
0.0
220
0.0
230
1.0
 40
0.577350269189626
 41
3.141592653589853
 42
6.283185307179586
  0
ELLIPSE
  5
375
330
1F
100
AcDbEntity
  8
LAY-11
  6
CONTINUOUS
 62
     7
100
AcDbEllipse
 10
3620.576843741056
 20
2802.610024491604
 30
0.0
 11
-3.674234614174771
 21
6.36396103067893
 31
0.0
210
0.0
220
0.0
230
1.0
 40
0.577350269189626
 41
3.141592653589853
 42
6.283185307179586
  0
ELLIPSE
  5
376
330
1F
100
AcDbEntity
  8
LAY-11
  6
CONTINUOUS
 62
     7
100
AcDbEllipse
 10
3619.277805635358
 20
2801.860024491604
 30
0.0
 11
-3.674234614174771
 21
6.36396103067893
 31
0.0
210
0.0
220
0.0
230
1.0
 40
0.577350269189626
 41
3.141592653589853
 42
6.283185307179586
  0
ELLIPSE
  5
377
330
1F
100
AcDbEntity
  8
LAY-11
  6
CONTINUOUS
 62
     7
100
AcDbEllipse
 10
3617.978767529057
 20
2801.110024491454
 30
0.0
 11
-3.674234614174771
 21
6.36396103067893
 31
0.0
210
0.0
220
0.0
230
1.0
 40
0.577350269189626
 41
3.141592653589756
 42
6.283185307179586
  0
ELLIPSE
  5
378
330
1F
100
AcDbEntity
  8
LAY-11
  6
CONTINUOUS
 62
     7
100
AcDbEllipse
 10
3616.679729423357
 20
2800.360024491454
 30
0.0
 11
-3.674234614174771
 21
6.36396103067893
 31
0.0
210
0.0
220
0.0
230
1.0
 40
0.577350269189626
 41
3.141592653589756
 42
6.283185307179586
  0
ELLIPSE
  5
379
330
1F
100
AcDbEntity
  8
LAY-11
  6
CONTINUOUS
 62
     7
100
AcDbEllipse
 10
3615.380691317656
 20
2799.610024491454
 30
0.0
 11
-3.674234614174771
 21
6.36396103067893
 31
0.0
210
0.0
220
0.0
230
1.0
 40
0.577350269189626
 41
3.141592653589756
 42
6.283185307179586
  0
ELLIPSE
  5
37A
330
1F
100
AcDbEntity
  8
LAY-11
  6
CONTINUOUS
 62
     7
100
AcDbEllipse
 10
3614.081653211958
 20
2798.860024491454
 30
0.0
 11
-3.674234614174771
 21
6.36396103067893
 31
0.0
210
0.0
220
0.0
230
1.0
 40
0.577350269189626
 41
3.141592653589756
 42
6.283185307179586
  0
ELLIPSE
  5
37B
330
1F
100
AcDbEntity
  8
LAY-11
  6
CONTINUOUS
 62
     7
100
AcDbEllipse
 10
3612.782615106407
 20
2798.110024491454
 30
0.0
 11
-3.674234614174771
 21
6.36396103067893
 31
0.0
210
0.0
220
0.0
230
1.0
 40
0.577350269189626
 41
3.141592653589756
 42
6.283185307179586
  0
ELLIPSE
  5
37C
330
1F
100
AcDbEntity
  8
LAY-11
  6
CONTINUOUS
 62
     7
100
AcDbEllipse
 10
3611.483577000857
 20
2797.360024491454
 30
0.0
 11
-3.674234614174771
 21
6.36396103067893
 31
0.0
210
0.0
220
0.0
230
1.0
 40
0.577350269189626
 41
3.141592653589756
 42
6.283185307179586
  0
LINE
  5
37D
330
1F
100
AcDbEntity
  8
LAY-11
  6
HIDDEN
 62
     7
100
AcDbLine
 10
3679.63273495907
 20
2908.916873142643
 30
0.0
 11
3693.054461688254
 21
2843.571659169282
 31
0.0
  0
ELLIPSE
  5
37E
330
1F
100
AcDbEntity
  8
LAY-11
  6
CONTINUOUS
 62
     7
100
AcDbEllipse
 10
4024.501522951991
 20
3034.932709213173
 30
0.0
 11
-3.674234614174771
 21
6.36396103067893
 31
0.0
210
0.0
220
0.0
230
1.0
 40
0.577350269189626
 41
0.0
 42
6.283185307179586
  0
ARC
  5
37F
330
1F
100
AcDbEntity
  8
LAY-11
  6
CONTINUOUS
 62
     7
100
AcDbCircle
 10
4040.296251429215
 20
3043.561148646018
 30
0.0
 40
25.36507265649262
100
AcDbArc
 50
205.0337396509853
 51
217.6552389749118
  0
ARC
  5
380
330
1F
100
AcDbEntity
  8
LAY-11
  6
CONTINUOUS
 62
     7
100
AcDbCircle
 10
4040.296251429215
 20
3043.561148646018
 30
0.0
 40
25.36507265649262
100
AcDbArc
 50
184.756807251681
 51
201.5686290580083
  0
ELLIPSE
  5
381
330
1F
100
AcDbEntity
  8
LAY-11
  6
CONTINUOUS
 62
     7
100
AcDbEllipse
 10
4024.501522951991
 20
3034.932709213173
 30
0.0
 11
-6.363961030678928
 21
11.0227038425243
 31
0.0
210
0.0
220
0.0
230
1.0
 40
0.5773502691896257
 41
0.0
 42
6.283185307179586
  0
LINE
  5
382
330
1F
100
AcDbEntity
  8
LAY-11
  6
CONTINUOUS
 62
     7
100
AcDbLine
 10
4038.531134493246
 20
3026.64040436776
 30
0.0
 11
4030.607002048545
 21
3022.065404367716
 31
0.0
  0
LINE
  5
383
330
1F
100
AcDbEntity
  8
LAY-11
  6
CONTINUOUS
 62
     7
100
AcDbLine
 10
4038.531134493246
 20
3047.425014058586
 30
0.0
 11
4030.607002048289
 21
3042.850014058394
 31
0.0
  0
LINE
  5
384
330
1F
100
AcDbEntity
  8
LAY-11
  6
CONTINUOUS
 62
     7
100
AcDbLine
 10
4043.727286915955
 20
3034.032709213172
 30
0.0
 11
4035.803154471336
 21
3029.457709213179
 31
0.0
  0
LINE
  5
385
330
1F
100
AcDbEntity
  8
LAY-11
  6
CONTINUOUS
 62
     7
100
AcDbLine
 10
4028.138829647835
 20
3053.425014058586
 30
0.0
 11
4020.214697203297
 21
3048.850014058637
 31
0.0
  0
ARC
  5
386
330
1F
100
AcDbEntity
  8
LAY-11
  6
CONTINUOUS
 62
     7
100
AcDbCircle
 10
4035.485537142555
 20
3032.593555494504
 30
0.0
 40
22.30405787069056
100
AcDbArc
 50
133.20938032908
 51
156.5828009481847
  0
ARC
  5
387
330
1F
100
AcDbEntity
  8
LAY-11
  6
CONTINUOUS
 62
     7
100
AcDbCircle
 10
4035.005173922679
 20
3062.467871203901
 30
0.0
 40
20.10483113128386
100
AcDbArc
 50
222.636326219092
 51
257.3636737786067
  0
ARC
  5
388
330
1F
100
AcDbEntity
  8
LAY-11
  6
CONTINUOUS
 62
     7
100
AcDbCircle
 10
4055.884708694484
 20
3044.95345349009
 30
0.0
 40
25.36507265340925
100
AcDbArc
 50
184.7568072491321
 51
217.6552389763469
  0
ARC
  5
389
330
1F
100
AcDbEntity
  8
LAY-11
  6
CONTINUOUS
 62
     7
100
AcDbCircle
 10
4051.073994407405
 20
3013.201250651756
 30
0.0
 40
22.3040578664969
100
AcDbArc
 50
133.2093803277441
 51
156.5828009510797
  0
ARC
  5
38A
330
1F
100
AcDbEntity
  8
LAY-11
  6
CONTINUOUS
 62
     7
100
AcDbCircle
 10
4035.00517392078
 20
3041.68326151069
 30
0.0
 40
20.10483112832142
100
AcDbArc
 50
222.6363262179154
 51
257.3636737822621
  0
LINE
  5
38B
330
1F
100
AcDbEntity
  8
LAY-11
  6
CONTINUOUS
 62
     7
100
AcDbLine
 10
4038.531134493246
 20
3047.425014058586
 30
0.0
 11
4028.138829647835
 21
3053.425014058586
 31
0.0
  0
LINE
  5
38C
330
1F
100
AcDbEntity
  8
LAY-11
  6
CONTINUOUS
 62
     7
100
AcDbLine
 10
4043.727286915955
 20
3034.032709213172
 30
0.0
 11
4038.531134493246
 21
3047.425014058586
 31
0.0
  0
LINE
  5
38D
330
1F
100
AcDbEntity
  8
LAY-11
  6
CONTINUOUS
 62
     7
100
AcDbLine
 10
4038.531134493246
 20
3026.64040436776
 30
0.0
 11
4043.727286915955
 21
3034.032709213172
 31
0.0
  0
ELLIPSE
  5
38E
330
1F
100
AcDbEntity
  8
LAY-11
  6
CONTINUOUS
 62
     7
100
AcDbEllipse
 10
4025.800561057693
 20
3035.682709213173
 30
0.0
 11
-3.674234614174771
 21
6.36396103067893
 31
0.0
210
0.0
220
0.0
230
1.0
 40
0.577350269189626
 41
0.1777106008429604
 42
2.963882052737727
  0
ELLIPSE
  5
38F
330
1F
100
AcDbEntity
  8
LAY-11
  6
CONTINUOUS
 62
     7
100
AcDbEllipse
 10
4027.099599163393
 20
3036.432709213173
 30
0.0
 11
-3.674234614174771
 21
6.36396103067893
 31
0.0
210
0.0
220
0.0
230
1.0
 40
0.577350269189626
 41
0.3613671239071254
 42
2.780225529673463
  0
ELLIPSE
  5
390
330
1F
100
AcDbEntity
  8
LAY-11
  6
CONTINUOUS
 62
     7
100
AcDbEllipse
 10
4028.398637269089
 20
3037.18270921317
 30
0.0
 11
-3.674234614174771
 21
6.36396103067893
 31
0.0
210
0.0
220
0.0
230
1.0
 40
0.577350269189626
 41
0.5589898660287818
 42
2.582602787551832
  0
ELLIPSE
  5
391
330
1F
100
AcDbEntity
  8
LAY-11
  6
CONTINUOUS
 62
     7
100
AcDbEllipse
 10
4029.697675374791
 20
3037.93270921317
 30
0.0
 11
-3.674234614174771
 21
6.36396103067893
 31
0.0
210
0.0
220
0.0
230
1.0
 40
0.577350269189626
 41
0.7853981634062475
 42
2.356194490174362
  0
ELLIPSE
  5
392
330
1F
100
AcDbEntity
  8
LAY-11
  6
CONTINUOUS
 62
     7
100
AcDbEllipse
 10
4030.99671348049
 20
3038.68270921317
 30
0.0
 11
-3.674234614174771
 21
6.36396103067893
 31
0.0
210
0.0
220
0.0
230
1.0
 40
0.577350269189626
 41
1.084101371740813
 42
2.05749128183982
  0
LINE
  5
393
330
1F
100
AcDbEntity
  8
LAY-11
  6
HIDDEN
 62
     7
100
AcDbLine
 10
3963.072866416583
 20
2999.466857826139
 30
0.0
 11
4020.827288337902
 21
3032.811388869475
 31
0.0
  0
LINE
  5
394
330
1F
100
AcDbEntity
  8
LAY-11
  6
HIDDEN
 62
     7
100
AcDbLine
 10
3963.072866416623
 20
2999.466857826138
 30
0.0
 11
3900.005994513182
 21
3032.565023438057
 31
0.0
  0
LINE
  5
395
330
1F
100
AcDbEntity
  8
LAY-11
  6
HIDDEN
 62
     7
100
AcDbLine
 10
3900.005994513182
 20
3032.565023438056
 30
0.0
 11
3891.431519503003
 21
3027.754013350409
 31
0.0
  0
LINE
  5
396
330
1F
100
AcDbEntity
  8
LAY-11
  6
HIDDEN
 62
     7
100
AcDbLine
 10
3857.781161454378
 20
3008.873299157091
 30
0.0
 11
3753.087911690989
 21
2950.131477631875
 31
0.0
  0
LINE
  5
397
330
1F
100
AcDbEntity
  8
LAY-11
  6
HIDDEN
 62
     7
100
AcDbLine
 10
3718.546839129967
 20
2930.7509968057
 30
0.0
 11
3679.632734959077
 21
2908.916873142653
 31
0.0
  0
LINE
  5
398
330
1F
100
AcDbEntity
  8
LAY-11
  6
CONTINUOUS
 62
     7
100
AcDbLine
 10
3753.087911690945
 20
2959.444021458498
 30
0.0
 11
3745.813298299238
 21
2955.244021458524
 31
0.0
  0
LINE
  5
399
330
1F
100
AcDbEntity
  8
LAY-11
  6
CONTINUOUS
 62
     7
100
AcDbLine
 10
3741.503413997161
 20
2957.732334320502
 30
0.0
 11
3745.813298299238
 21
2955.244021458522
 31
0.0
  0
LINE
  5
39A
330
1F
100
AcDbEntity
  8
LAY-11
  6
CONTINUOUS
 62
     7
100
AcDbLine
 10
3614.378097904406
 20
2782.638872068896
 30
0.0
 11
3614.378097904406
 21
2794.638872068896
 31
0.0
  0
LINE
  5
39B
330
1F
100
AcDbEntity
  8
LAY-11
  6
CONTINUOUS
 62
     7
100
AcDbLine
 10
3614.37809790441
 20
2794.638872068896
 30
0.0
 11
3605.378097904406
 21
2805.835024491605
 31
0.0
  0
LINE
  5
39C
330
1F
100
AcDbEntity
  8
LAY-11
  6
CONTINUOUS
 62
     7
100
AcDbLine
 10
3614.37809790441
 20
2794.638872068896
 30
0.0
 11
3608.272618807673
 21
2791.113872068865
 31
0.0
  0
LINE
  5
39D
330
1F
100
AcDbEntity
  8
LAY-11
  6
CONTINUOUS
 62
     7
100
AcDbLine
 10
3605.378097904406
 20
2805.835024491605
 30
0.0
 11
3599.27261880771
 21
2802.310024491596
 31
0.0
  0
ARC
  5
39E
330
1F
100
AcDbEntity
  8
LAY-11
  6
CONTINUOUS
 62
     7
100
AcDbCircle
 10
3617.021344709581
 20
2801.792685117435
 30
0.0
 40
29.43556728191
100
AcDbArc
 50
218.5261522410528
 51
232.9171872866479
  0
ARC
  5
39F
330
1F
100
AcDbEntity
  8
LAY-11
  6
CONTINUOUS
 62
     7
100
AcDbCircle
 10
3617.021344709581
 20
2801.792685117435
 30
0.0
 40
29.43556728191
100
AcDbArc
 50
204.6707664891294
 51
217.2432227757117
  0
LINE
  5
3A0
330
1F
100
AcDbEntity
  8
LAY-11
  6
CONTINUOUS
 62
     7
100
AcDbLine
 10
3596.378097904405
 20
2805.03117691431
 30
0.0
 11
3590.272618807687
 21
2801.506176914287
 31
0.0
  0
LINE
  5
3A1
330
1F
100
AcDbEntity
  8
LAY-11
  6
CONTINUOUS
 62
     7
100
AcDbLine
 10
3614.378097904406
 20
2782.638872068896
 30
0.0
 11
3608.272618807447
 21
2779.113872068735
 31
0.0
  0
ARC
  5
3A2
330
1F
100
AcDbEntity
  8
LAY-11
  6
CONTINUOUS
 62
     7
100
AcDbCircle
 10
3592.471344707219
 20
2827.673516290603
 30
0.0
 40
26.25955151213039
100
AcDbArc
 50
265.1969712280117
 51
285.0108474967996
  0
ARC
  5
3A3
330
1F
100
AcDbEntity
  8
LAY-11
  6
CONTINUOUS
 62
     7
100
AcDbCircle
 10
3630.847014336998
 20
2785.113872068313
 30
0.0
 40
23.35815346983815
100
AcDbArc
 50
165.1156028048411
 51
194.8843971922938
  0
ARC
  5
3A4
330
1F
100
AcDbEntity
  8
LAY-11
  6
CONTINUOUS
 62
     7
100
AcDbCircle
 10
3601.471344708212
 20
2804.477363862857
 30
0.0
 40
26.25955150713449
100
AcDbArc
 50
265.1969712249249
 51
285.0108474978217
  0
ARC
  5
3A5
330
1F
100
AcDbEntity
  8
LAY-11
  6
CONTINUOUS
 62
     7
100
AcDbCircle
 10
3612.847014332237
 20
2795.506176914328
 30
0.0
 40
23.35815346509105
100
AcDbArc
 50
165.1156028031787
 51
194.8843971968213
  0
LINE
  5
3A6
330
1F
100
AcDbEntity
  8
LAY-11
  6
CONTINUOUS
 62
     7
100
AcDbLine
 10
3605.378097904406
 20
2805.835024491605
 30
0.0
 11
3596.378097904405
 21
2805.03117691431
 31
0.0
  0
ELLIPSE
  5
3A7
330
1F
100
AcDbEntity
  8
LAY-11
  6
CONTINUOUS
 62
     7
100
AcDbEllipse
 10
3598.493195944322
 20
2789.860024491604
 30
0.0
 11
-6.363961030678928
 21
11.0227038425243
 31
0.0
210
0.0
220
0.0
230
1.0
 40
0.5773502691896257
 41
0.0
 42
6.283185307179586
  0
LINE
  5
3A8
330
1F
100
AcDbEntity
  8
LAY-11
  6
CONTINUOUS
 62
     7
100
AcDbLine
 10
3607.307812360734
 20
2803.434427026566
 30
0.0
 11
3622.098761549643
 21
2811.973985522352
 31
0.0
  0
LINE
  5
3A9
330
1F
100
AcDbEntity
  8
LAY-11
  6
CONTINUOUS
 62
     7
100
AcDbLine
 10
3614.378097904406
 20
2790.545895539973
 30
0.0
 11
3629.447230777992
 21
2799.246063460992
 31
0.0
  0
ELLIPSE
  5
3AA
330
1F
100
AcDbEntity
  8
LAY-11
  6
CONTINUOUS
 62
     7
100
AcDbEllipse
 10
3610.184538895156
 20
2796.610024491454
 30
0.0
 11
-3.674234614174771
 21
6.36396103067893
 31
0.0
210
0.0
220
0.0
230
1.0
 40
0.577350269189626
 41
3.29533486867387
 42
6.057418229657954
  0
ELLIPSE
  5
3AB
330
1F
100
AcDbEntity
  8
LAY-11
  6
CONTINUOUS
 62
     7
100
AcDbEllipse
 10
3608.885500789458
 20
2795.860024491454
 30
0.0
 11
-3.674234614174771
 21
6.36396103067893
 31
0.0
210
0.0
220
0.0
230
1.0
 40
0.577350269189626
 41
4.347516293706597
 42
5.60086044266148
  0
ARC
  5
3AC
330
1F
100
AcDbEntity
  8
LAY-11
  6
CONTINUOUS
 62
     7
100
AcDbCircle
 10
3626.021344707354
 20
2814.596532692351
 30
0.0
 40
29.43556727874579
100
AcDbArc
 50
204.6707664861017
 51
232.9171872874244
  0
LINE
  5
3AD
330
1F
100
AcDbEntity
  8
LAY-11
  6
CONTINUOUS
 62
     7
100
AcDbLine
 10
4014.416254661239
 20
3163.32728056917
 30
0.0
 11
3884.156906111202
 21
3088.122010618955
 31
0.0
  0
LINE
  5
3AE
330
1F
100
AcDbEntity
  8
LAY-11
  6
CONTINUOUS
 62
     7
100
AcDbLine
 10
4001.321950556189
 20
3163.32728056917
 30
0.0
 11
3877.609754058644
 21
3091.902010618905
 31
0.0
  0
LINE
  5
3AF
330
1F
100
AcDbEntity
  8
LAY-11
  6
CONTINUOUS
 62
     7
100
AcDbLine
 10
3877.609754058642
 20
3091.902010618936
 30
0.0
 11
3884.15690611119
 21
3088.122010618974
 31
0.0
  0
LINE
  5
3B0
330
1F
100
AcDbEntity
  8
LAY-11
  6
CONTINUOUS
 62
     7
100
AcDbLine
 10
3746.540759638312
 20
3016.229291408527
 30
0.0
 11
3753.087911690897
 21
3012.449291408541
 31
0.0
  0
LINE
  5
3B1
330
1F
100
AcDbEntity
  8
LAY-11
  6
CONTINUOUS
 62
     7
100
AcDbLine
 10
3746.540759638292
 20
3016.229291408539
 30
0.0
 11
3598.930959419267
 21
2931.00673351662
 31
0.0
  0
LINE
  5
3B2
330
1F
100
AcDbEntity
  8
LAY-11
  6
CONTINUOUS
 62
     7
100
AcDbLine
 10
3753.087911690863
 20
3012.449291408594
 30
0.0
 11
3605.478111471828
 21
2927.22673351667
 31
0.0
  0
LINE
  5
3B3
330
1F
100
AcDbEntity
  8
LAY-11
  6
CONTINUOUS
 62
     7
100
AcDbLine
 10
3884.156906111252
 20
3088.122010618983
 30
0.0
 11
3884.156906111252
 21
3043.516740668894
 31
0.0
  0
LINE
  5
3B4
330
1F
100
AcDbEntity
  8
LAY-11
  6
CONTINUOUS
 62
     7
100
AcDbLine
 10
3877.609754058642
 20
3091.902010618905
 30
0.0
 11
3877.609754058642
 21
3048.136740668894
 31
0.0
  0
LINE
  5
3B5
330
1F
100
AcDbEntity
  8
LAY-11
  6
CONTINUOUS
 62
     7
100
AcDbLine
 10
3938.55053326506
 20
3159.156793646968
 30
0.0
 11
3809.076130047768
 21
3084.404712095911
 31
0.0
  0
LINE
  5
3B6
330
1F
100
AcDbEntity
  8
LAY-11
  6
CONTINUOUS
 62
     7
100
AcDbLine
 10
3753.087911690926
 20
2967.844021458552
 30
0.0
 11
3753.087911690926
 21
3012.449291408539
 31
0.0
  0
ELLIPSE
  5
3B7
330
1F
100
AcDbEntity
  8
LAY-11
  6
CONTINUOUS
 62
     7
100
AcDbEllipse
 10
3681.796700451344
 20
3001.444021458491
 30
0.0
 11
-4.115142767875746
 21
7.127636354360407
 31
0.0
210
0.0
220
0.0
230
1.0
 40
0.5773502691896256
 41
-0.7853981633974493
 42
0.0762828812969242
  0
LINE
  5
3B8
330
1F
100
AcDbEntity
  8
LAY-11
  6
CONTINUOUS
 62
     7
100
AcDbLine
 10
3707.184001379803
 20
2993.506656433452
 30
0.0
 11
3681.796700451344
 21
3008.164021458495
 31
0.0
  0
LINE
  5
3B9
330
1F
100
AcDbEntity
  8
LAY-11
  6
CONTINUOUS
 62
     7
100
AcDbLine
 10
3677.379914460267
 20
3008.369866574837
 30
0.0
 11
3585.043978907201
 21
2955.059689327124
 31
0.0
  0
LINE
  5
3BA
330
1F
100
AcDbEntity
  8
LAY-11
  6
CONTINUOUS
 62
     7
100
AcDbLine
 10
3489.069248953801
 20
1629.750000000001
 30
0.0
 11
4159.569248953801
 21
1629.750000000001
 31
0.0
  0
LINE
  5
3BB
330
1F
100
AcDbEntity
  8
LAY-11
  6
CONTINUOUS
 62
     7
100
AcDbLine
 10
3587.017806112201
 20
2506.510388458741
 30
0.0
 11
4074.517806112201
 21
2506.510388458741
 31
0.0
  0
LINE
  5
3BC
330
1F
100
AcDbEntity
  8
LAY-11
  6
CONTINUOUS
 62
     7
100
AcDbLine
 10
3823.031973459793
 20
2114.273645946005
 30
0.0
 11
3874.99349768686
 21
2084.273645946005
 31
0.0
  0
LINE
  5
3BD
330
1F
100
AcDbEntity
  8
LAY-11
  6
CONTINUOUS
 62
     7
100
AcDbLine
 10
3874.99349768686
 20
2084.273645946005
 30
0.0
 11
3878.111189140226
 21
2086.073645945856
 31
0.0
  0
LINE
  5
3BE
330
1F
100
AcDbEntity
  8
LAY-11
  6
CONTINUOUS
 62
     7
100
AcDbLine
 10
3823.031973459848
 20
2114.273645946035
 30
0.0
 11
3826.149664913406
 21
2116.073645946036
 31
0.0
  0
LINE
  5
3BF
330
1F
100
AcDbEntity
  8
LAY-11
  6
CONTINUOUS
 62
     7
100
AcDbLine
 10
4036.372232242446
 20
2400.645701783153
 30
0.0
 11
3579.172232242446
 21
2136.681158709657
 31
0.0
  0
LINE
  5
3C0
330
1F
100
AcDbEntity
  8
LAY-11
  6
CONTINUOUS
 62
     7
100
AcDbLine
 10
4036.372232242446
 20
2303.445701783154
 30
0.0
 11
3579.172232242446
 21
2039.481158709657
 31
0.0
  0
LINE
  5
3C1
330
1F
100
AcDbEntity
  8
LAY-11
  6
CONTINUOUS
 62
     7
100
AcDbLine
 10
4036.372232242446
 20
2397.045701783154
 30
0.0
 11
3579.172232242446
 21
2133.081158709657
 31
0.0
  0
LINE
  5
3C2
330
1F
100
AcDbEntity
  8
LAY-11
  6
CONTINUOUS
 62
     7
100
AcDbLine
 10
3579.172232242446
 20
1979.481158709657
 30
0.0
 11
4036.372232242446
 21
2243.445701783154
 31
0.0
  0
LINE
  5
3C3
330
1F
100
AcDbEntity
  8
LAY-11
  6
CONTINUOUS
 62
     7
100
AcDbLine
 10
3711.834311613841
 20
2050.073645946038
 30
0.0
 11
3763.795835840908
 21
2020.073645946038
 31
0.0
  0
LINE
  5
3C4
330
1F
100
AcDbEntity
  8
LAY-11
  6
CONTINUOUS
 62
     7
100
AcDbLine
 10
3763.795835840908
 20
2020.073645946038
 30
0.0
 11
3766.913527294532
 21
2021.873645946037
 31
0.0
  0
LINE
  5
3C5
330
1F
100
AcDbEntity
  8
LAY-11
  6
CONTINUOUS
 62
     7
100
AcDbLine
 10
3711.834311613788
 20
2050.073645946065
 30
0.0
 11
3714.952003067468
 21
2051.873645946065
 31
0.0
  0
LINE
  5
3C6
330
1F
100
AcDbEntity
  8
LAY-11
  6
CONTINUOUS
 62
     7
100
AcDbLine
 10
3823.031973459819
 20
2000.273645945989
 30
0.0
 11
3874.99349768686
 21
1970.273645946005
 31
0.0
  0
ARC
  5
3C7
330
1F
100
AcDbEntity
  8
LAY-11
  6
CONTINUOUS
 62
     7
100
AcDbCircle
 10
3872.111189140447
 20
1971.937747561122
 30
0.0
 40
6.0
100
AcDbArc
 50
299.9999999999998
 51
0.0
  0
LINE
  5
3C8
330
1F
100
AcDbEntity
  8
LAY-11
  6
CONTINUOUS
 62
     7
100
AcDbLine
 10
3826.149664913417
 20
2116.073645946005
 30
0.0
 11
3878.111189140483
 21
2086.073645946005
 31
0.0
  0
LINE
  5
3C9
330
1F
100
AcDbEntity
  8
LAY-11
  6
CONTINUOUS
 62
     7
100
AcDbLine
 10
3823.031973459848
 20
2000.273645946035
 30
0.0
 11
3823.031973459848
 21
2114.273645946035
 31
0.0
  0
LINE
  5
3CA
330
1F
100
AcDbEntity
  8
LAY-11
  6
CONTINUOUS
 62
     7
100
AcDbLine
 10
3874.993497686888
 20
2084.273645946022
 30
0.0
 11
3874.993497686888
 21
1970.273645946036
 31
0.0
  0
LINE
  5
3CB
330
1F
100
AcDbEntity
  8
LAY-11
  6
CONTINUOUS
 62
     7
100
AcDbLine
 10
3878.111189140447
 20
2086.073645946025
 30
0.0
 11
3878.111189140447
 21
1971.937747561122
 31
0.0
  0
LINE
  5
3CC
330
1F
100
AcDbEntity
  8
LAY-11
  6
CONTINUOUS
 62
     7
100
AcDbLine
 10
3767.395835840948
 20
1904.552106915143
 30
0.0
 11
3875.111189140446
 21
1966.741595138416
 31
0.0
  0
ARC
  5
3CD
330
1F
100
AcDbEntity
  8
LAY-11
  6
CONTINUOUS
 62
     7
100
AcDbCircle
 10
3766.195835840949
 20
1906.630567884226
 30
0.0
 40
2.4
100
AcDbArc
 50
180.0
 51
300.0000000000005
  0
LINE
  5
3CE
330
1F
100
AcDbEntity
  8
LAY-11
  6
CONTINUOUS
 62
     7
100
AcDbLine
 10
3763.795835840908
 20
1906.073645946038
 30
0.0
 11
3763.853637086296
 21
1906.107017510621
 31
0.0
  0
LINE
  5
3CF
330
1F
100
AcDbEntity
  8
LAY-11
  6
CONTINUOUS
 62
     7
100
AcDbLine
 10
3766.913527294508
 20
1907.873645946023
 30
0.0
 11
3874.993497686888
 21
1970.273645946022
 31
0.0
  0
LINE
  5
3D0
330
1F
100
AcDbEntity
  8
LAY-11
  6
CONTINUOUS
 62
     7
100
AcDbLine
 10
3711.117777686649
 20
1935.659954890288
 30
0.0
 11
3765.060959861668
 21
1904.515844140597
 31
0.0
  0
LINE
  5
3D1
330
1F
100
AcDbEntity
  8
LAY-11
  6
CONTINUOUS
 62
     7
100
AcDbLine
 10
3714.952003067465
 20
2051.873645946037
 30
0.0
 11
3766.913527294532
 21
2021.873645946037
 31
0.0
  0
LINE
  5
3D2
330
1F
100
AcDbEntity
  8
LAY-11
  6
CONTINUOUS
 62
     7
100
AcDbLine
 10
3766.913527294508
 20
2021.873645946065
 30
0.0
 11
3766.913527294508
 21
1907.873645946065
 31
0.0
  0
LINE
  5
3D3
330
1F
100
AcDbEntity
  8
LAY-11
  6
CONTINUOUS
 62
     7
100
AcDbLine
 10
3763.795835840949
 20
2020.07364594606
 30
0.0
 11
3763.795835840949
 21
1906.630567884226
 31
0.0
  0
LINE
  5
3D4
330
1F
100
AcDbEntity
  8
LAY-11
  6
CONTINUOUS
 62
     7
100
AcDbLine
 10
3711.834311613788
 20
2050.073645946065
 30
0.0
 11
3711.834311613788
 21
1936.073645946068
 31
0.0
  0
LINE
  5
3D5
330
1F
100
AcDbEntity
  8
LAY-11
  6
CONTINUOUS
 62
     7
100
AcDbLine
 10
3579.172232242446
 20
1859.481158709659
 30
0.0
 11
3711.834311613841
 21
1936.073645946036
 31
0.0
  0
LINE
  5
3D6
330
1F
100
AcDbEntity
  8
LAY-11
  6
CONTINUOUS
 62
     7
100
AcDbLine
 10
3766.913527294508
 20
1967.873645946017
 30
0.0
 11
3823.031973459793
 21
2000.273645946004
 31
0.0
  0
LINE
  5
3D7
330
1F
100
AcDbEntity
  8
LAY-11
  6
CONTINUOUS
 62
     7
100
AcDbLine
 10
3878.111189140447
 20
2032.073645945984
 30
0.0
 11
4036.372232242446
 21
2123.445701783155
 31
0.0
  0
LINE
  5
3D8
330
1F
100
AcDbEntity
  8
LAY-11
  6
CONTINUOUS
 62
     7
100
AcDbLine
 10
4138.890674963046
 20
1934.233960207314
 30
0.0
 11
3997.61597303282
 21
2015.798947396414
 31
0.0
  0
LINE
  5
3D9
330
1F
100
AcDbEntity
  8
LAY-11
  6
CONTINUOUS
 62
     7
100
AcDbLine
 10
3997.61597303282
 20
2015.798947396414
 30
0.0
 11
3893.692924578722
 21
1955.798947396437
 31
0.0
  0
LINE
  5
3DA
330
1F
100
AcDbEntity
  8
LAY-11
  6
CONTINUOUS
 62
     7
100
AcDbLine
 10
4086.929150736045
 20
1844.233960207318
 30
0.0
 11
3893.692924578756
 21
1955.798947396417
 31
0.0
  0
LINE
  5
3DB
330
1F
100
AcDbEntity
  8
LAY-11
  6
CONTINUOUS
 62
     7
100
AcDbLine
 10
3893.692924578967
 20
1955.798947396416
 30
0.0
 11
3893.692924578967
 21
1835.798947396335
 31
0.0
  0
LINE
  5
3DC
330
1F
100
AcDbEntity
  8
LAY-11
  6
CONTINUOUS
 62
     7
100
AcDbLine
 10
4034.967626509047
 20
1754.233960207318
 30
0.0
 11
3893.692924578924
 21
1835.798947396359
 31
0.0
  0
TEXT
  5
3DD
330
1F
100
AcDbEntity
  8
LAY-11
  6
CONTINUOUS
 62
     7
100
AcDbText
 10
3775.9384775877
 20
2644.617747952081
 30
0.0
 40
46.77165302633819
  1
ユニクロ
 41
1.129411764705882
  7
EXCADSTD
100
AcDbText
  0
POLYLINE
  5
3DE
330
1F
100
AcDbEntity
  8
LAY-12
  6
CONTINUOUS
 62
     7
100
AcDb2dPolyline
 66
     1
 10
0.0
 20
0.0
 30
0.0
 70
   128
  0
VERTEX
  5
3DF
330
3DE
100
AcDbEntity
  8
LAY-12
  6
CONTINUOUS
 62
     7
100
AcDbVertex
100
AcDb2dVertex
 10
5193.000000000001
 20
2980.329310019738
 30
0.0
  0
VERTEX
  5
3E0
330
3DE
100
AcDbEntity
  8
LAY-12
  6
CONTINUOUS
 62
     7
100
AcDbVertex
100
AcDb2dVertex
 10
5236.968786160232
 20
3033.840818277107
 30
0.0
  0
VERTEX
  5
3E1
330
3DE
100
AcDbEntity
  8
LAY-12
  6
CONTINUOUS
 62
     7
100
AcDbVertex
100
AcDb2dVertex
 10
5363.250000000001
 20
3033.840818277107
 30
0.0
  0
SEQEND
  5
3E2
330
3DE
100
AcDbEntity
  8
LAY-12
  6
CONTINUOUS
 62
     7
  0
LINE
  5
3E3
330
1F
100
AcDbEntity
  8
LAY-12
  6
CONTINUOUS
 62
     7
100
AcDbLine
 10
5215.773518738612
 20
3019.859258720212
 30
0.0
 11
5193.000000000001
 21
2980.329310019738
 31
0.0
  0
LINE
  5
3E4
330
1F
100
AcDbEntity
  8
LAY-12
  6
CONTINUOUS
 62
     7
100
AcDbLine
 10
5193.000000000001
 20
2980.329310019738
 30
0.0
 11
5227.363041628571
 21
3010.336498659015
 31
0.0
  0
LINE
  5
3E5
330
1F
100
AcDbEntity
  8
LAY-12
  6
CONTINUOUS
 62
     7
100
AcDbLine
 10
5227.363041628571
 20
3010.336498659015
 30
0.0
 11
5215.773518738612
 21
3019.859258720212
 31
0.0
  0
LINE
  5
3E6
330
1F
100
AcDbEntity
  8
LAY-12
  6
CONTINUOUS
 62
     7
100
AcDbLine
 10
5218.670899461102
 20
3017.478568704913
 30
0.0
 11
5193.000000000001
 21
2980.329310019738
 31
0.0
  0
LINE
  5
3E7
330
1F
100
AcDbEntity
  8
LAY-12
  6
CONTINUOUS
 62
     7
100
AcDbLine
 10
5193.000000000001
 20
2980.329310019738
 30
0.0
 11
5224.465660906082
 21
3012.717188674314
 31
0.0
  0
TEXT
  5
3E8
330
1F
100
AcDbEntity
  8
LAY-12
  6
CONTINUOUS
 62
     7
100
AcDbText
 10
5243.193789974925
 20
3045.622315766478
 30
0.0
 40
46.77165302633819
  1
受枠
 41
1.15
  7
EXCADSTD
100
AcDbText
  0
TEXT
  5
3E9
330
1F
100
AcDbEntity
  8
LAY-12
  6
CONTINUOUS
 62
     7
100
AcDbText
 10
5256.832034197326
 20
1875.453012935522
 30
0.0
 40
46.77165302633819
  1
受枠
 41
1.15
  7
EXCADSTD
100
AcDbText
  0
POLYLINE
  5
3EA
330
1F
100
AcDbEntity
  8
LAY-12
  6
CONTINUOUS
 62
     7
100
AcDb2dPolyline
 66
     1
 10
0.0
 20
0.0
 30
0.0
 70
   128
  0
VERTEX
  5
3EB
330
3EA
100
AcDbEntity
  8
LAY-12
  6
CONTINUOUS
 62
     7
100
AcDbVertex
100
AcDb2dVertex
 10
5194.415063509465
 20
1932.579310019517
 30
0.0
  0
VERTEX
  5
3EC
330
3EA
100
AcDbEntity
  8
LAY-12
  6
CONTINUOUS
 62
     7
100
AcDbVertex
100
AcDb2dVertex
 10
5236.364060765251
 20
1859.921515446151
 30
0.0
  0
VERTEX
  5
3ED
330
3EA
100
AcDbEntity
  8
LAY-12
  6
CONTINUOUS
 62
     7
100
AcDbVertex
100
AcDb2dVertex
 10
5375.250000000001
 20
1859.921515446151
 30
0.0
  0
SEQEND
  5
3EE
330
3EA
100
AcDbEntity
  8
LAY-12
  6
CONTINUOUS
 62
     7
  0
LINE
  5
3EF
330
1F
100
AcDbEntity
  8
LAY-12
  6
CONTINUOUS
 62
     7
100
AcDbLine
 10
5223.410254037894
 20
1897.358166849256
 30
0.0
 11
5194.415063509465
 21
1932.579310019517
 31
0.0
  0
LINE
  5
3F0
330
1F
100
AcDbEntity
  8
LAY-12
  6
CONTINUOUS
 62
     7
100
AcDbLine
 10
5194.415063509465
 20
1932.579310019517
 30
0.0
 11
5210.419872981138
 21
1889.858166849239
 31
0.0
  0
LINE
  5
3F1
330
1F
100
AcDbEntity
  8
LAY-12
  6
CONTINUOUS
 62
     7
100
AcDbLine
 10
5210.419872981138
 20
1889.858166849239
 30
0.0
 11
5223.410254037894
 21
1897.358166849256
 31
0.0
  0
LINE
  5
3F2
330
1F
100
AcDbEntity
  8
LAY-12
  6
CONTINUOUS
 62
     7
100
AcDbLine
 10
5220.162658773705
 20
1895.483166849252
 30
0.0
 11
5194.415063509465
 21
1932.579310019517
 31
0.0
  0
LINE
  5
3F3
330
1F
100
AcDbEntity
  8
LAY-12
  6
CONTINUOUS
 62
     7
100
AcDbLine
 10
5194.415063509465
 20
1932.579310019517
 30
0.0
 11
5213.667468245327
 21
1891.733166849243
 31
0.0
  0
TEXT
  5
3F4
330
1F
100
AcDbEntity
  8
LAY-12
  6
CONTINUOUS
 62
     7
100
AcDbText
 10
5243.676087041744
 20
2550.633652499184
 30
0.0
 40
46.77165302633819
  1
受枠補強材
 41
1.125581395348837
  7
EXCADSTD
100
AcDbText
  0
LEADER
  5
3F5
330
1F
100
AcDbEntity
  8
LAY-12
  6
CONTINUOUS
 62
     7
100
AcDbLeader
  3
ISO-25
 76
     3
 10
5133.750000000001
 20
2642.454310019625
 30
0.0
 10
5241.102155010002
 20
2535.102155009813
 30
0.0
 10
5538.000000000001
 20
2535.102155009813
 30
0.0
1001
ACAD
1000
DSTYLE
1002
{
1070
     5
1000
EX_BNORM
1070
    41
1040
45.0
1070
   341
1005
7D
1002
}
  0
LEADER
  5
3F6
330
1F
100
AcDbEntity
  8
LAY-12
  6
CONTINUOUS
 62
     7
100
AcDbLeader
  3
ISO-25
 76
     2
 10
5125.240357925625
 20
2456.25
 30
0.0
 10
5241.102155010001
 20
2535.102155009813
 30
0.0
1001
ACAD
1000
DSTYLE
1002
{
1070
     5
1000
EX_BNORM
1070
    41
1040
45.0
1070
   341
1005
7D
1002
}
  0
TEXT
  5
3F7
330
1F
100
AcDbEntity
  8
LAY-12
  6
CONTINUOUS
 62
     7
100
AcDbText
 10
4410.000009536744
 20
2525.031497489371
 30
0.0
 40
46.77165302633819
  1
受枠補強材
 41
1.125581395348837
  7
EXCADSTD
100
AcDbText
  0
LEADER
  5
3F8
330
1F
100
AcDbEntity
  8
LAY-12
  6
CONTINUOUS
 62
     7
100
AcDbLeader
  3
ISO-25
 76
     3
 10
4795.240357925775
 20
2468.25
 30
0.0
 10
4714.500000000001
 20
2509.5
 30
0.0
 10
4401.000000000001
 20
2509.5
 30
0.0
1001
ACAD
1000
DSTYLE
1002
{
1070
     5
1000
EX_BNORM
1070
    41
1040
45.0
1070
   341
1005
7D
1002
}
  0
LEADER
  5
3F9
330
1F
100
AcDbEntity
  8
LAY-12
  6
CONTINUOUS
 62
     7
100
AcDbLeader
  3
ISO-25
 76
     2
 10
4764.786394362954
 20
2269.704310019627
 30
0.0
 10
4714.500000000001
 20
2509.5
 30
0.0
1001
ACAD
1000
DSTYLE
1002
{
1070
     5
1000
EX_BNORM
1070
    41
1040
45.0
1070
   341
1005
7D
1002
}
  0
LINE
  5
3FA
330
1F
100
AcDbEntity
  8
LAY-12
  6
CONTINUOUS
 62
     7
100
AcDbLine
 10
5222.740357925863
 20
2961.579310019737
 30
0.0
 11
4697.740357925305
 21
2961.579310019737
 31
0.0
  0
LINE
  5
3FB
330
1F
100
AcDbEntity
  8
LAY-12
  6
CONTINUOUS
 62
     7
100
AcDbLine
 10
5222.740357925864
 20
2699.079310019688
 30
0.0
 11
5241.490357925863
 21
2699.079310019688
 31
0.0
  0
LINE
  5
3FC
330
1F
100
AcDbEntity
  8
LAY-12
  6
CONTINUOUS
 62
     7
100
AcDbLine
 10
4678.990357925863
 20
2699.079310019726
 30
0.0
 11
4697.740357925863
 21
2699.079310019726
 31
0.0
  0
LINE
  5
3FD
330
1F
100
AcDbEntity
  8
LAY-12
  6
CONTINUOUS
 62
     7
100
AcDbLine
 10
5241.490357925868
 20
2980.329310019734
 30
0.0
 11
5241.490357925868
 21
2699.079310019734
 31
0.0
  0
LINE
  5
3FE
330
1F
100
AcDbEntity
  8
LAY-12
  6
CONTINUOUS
 62
     7
100
AcDbLine
 10
4678.990357925871
 20
2980.329310019734
 30
0.0
 11
4678.990357925869
 21
2699.079310019734
 31
0.0
  0
LINE
  5
3FF
330
1F
100
AcDbEntity
  8
LAY-12
  6
CONTINUOUS
 62
     7
100
AcDbLine
 10
5241.490357925868
 20
2980.329310019734
 30
0.0
 11
4678.990357925871
 21
2980.329310019734
 31
0.0
  0
LINE
  5
400
330
1F
100
AcDbEntity
  8
LAY-12
  6
CONTINUOUS
 62
     7
100
AcDbLine
 10
4832.740357925769
 20
2328.954310019624
 30
0.0
 11
4832.740357925767
 21
2583.954310019624
 31
0.0
  0
LINE
  5
401
330
1F
100
AcDbEntity
  8
LAY-12
  6
CONTINUOUS
 62
     7
100
AcDbLine
 10
5087.740357925784
 20
2328.954310019624
 30
0.0
 11
5087.740357925784
 21
2583.954310019624
 31
0.0
  0
LINE
  5
402
330
1F
100
AcDbEntity
  8
LAY-12
  6
CONTINUOUS
 62
     7
100
AcDbLine
 10
5203.990357925371
 20
2825.079310019723
 30
0.0
 11
5222.740357925371
 21
2825.079310019723
 31
0.0
  0
LINE
  5
403
330
1F
100
AcDbEntity
  8
LAY-12
  6
CONTINUOUS
 62
     7
100
AcDbLine
 10
5222.740357925371
 20
2826.204310019725
 30
0.0
 11
5203.990357925371
 21
2826.204310019725
 31
0.0
  0
LINE
  5
404
330
1F
100
AcDbEntity
  8
LAY-12
  6
CONTINUOUS
 62
     7
100
AcDbLine
 10
4716.490357925857
 20
2825.079310019723
 30
0.0
 11
4697.740357925857
 21
2825.079310019723
 31
0.0
  0
LINE
  5
405
330
1F
100
AcDbEntity
  8
LAY-12
  6
CONTINUOUS
 62
     7
100
AcDbLine
 10
4697.740357925857
 20
2826.204310019725
 30
0.0
 11
4716.490357925857
 21
2826.204310019725
 31
0.0
  0
CIRCLE
  5
406
330
1F
100
AcDbEntity
  8
LAY-12
  6
CONTINUOUS
 62
     7
100
AcDbCircle
 10
4671.490357925889
 20
2736.579310019738
 30
0.0
 40
2.25
  0
LINE
  5
407
330
1F
100
AcDbEntity
  8
LAY-12
  6
CONTINUOUS
 62
     7
100
AcDbLine
 10
4665.865357925854
 20
2742.579310019738
 30
0.0
 11
4665.865357925854
 21
2730.579310019738
 31
0.0
  0
LINE
  5
408
330
1F
100
AcDbEntity
  8
LAY-12
  6
CONTINUOUS
 62
     7
100
AcDbLine
 10
4665.865357925853
 20
2730.57931001974
 30
0.0
 11
4678.990357925875
 21
2730.579310019747
 31
0.0
  0
LINE
  5
409
330
1F
100
AcDbEntity
  8
LAY-12
  6
CONTINUOUS
 62
     7
100
AcDbLine
 10
4665.865357925843
 20
2742.57931001974
 30
0.0
 11
4678.990357925866
 21
2742.579310019747
 31
0.0
  0
CIRCLE
  5
40A
330
1F
100
AcDbEntity
  8
LAY-12
  6
CONTINUOUS
 62
     7
100
AcDbCircle
 10
4671.490357925889
 20
2924.079310019738
 30
0.0
 40
2.25
  0
LINE
  5
40B
330
1F
100
AcDbEntity
  8
LAY-12
  6
CONTINUOUS
 62
     7
100
AcDbLine
 10
4665.865357925854
 20
2930.079310019738
 30
0.0
 11
4665.865357925854
 21
2918.079310019738
 31
0.0
  0
LINE
  5
40C
330
1F
100
AcDbEntity
  8
LAY-12
  6
CONTINUOUS
 62
     7
100
AcDbLine
 10
4665.865357925853
 20
2918.07931001974
 30
0.0
 11
4678.990357925875
 21
2918.079310019747
 31
0.0
  0
LINE
  5
40D
330
1F
100
AcDbEntity
  8
LAY-12
  6
CONTINUOUS
 62
     7
100
AcDbLine
 10
4665.865357925843
 20
2930.07931001974
 30
0.0
 11
4678.990357925866
 21
2930.079310019747
 31
0.0
  0
CIRCLE
  5
40E
330
1F
100
AcDbEntity
  8
LAY-12
  6
CONTINUOUS
 62
     7
100
AcDbCircle
 10
4960.240357926003
 20
2987.829310019738
 30
0.0
 40
2.25
  0
LINE
  5
40F
330
1F
100
AcDbEntity
  8
LAY-12
  6
CONTINUOUS
 62
     7
100
AcDbLine
 10
4966.240357926002
 20
2993.454310019772
 30
0.0
 11
4954.240357926002
 21
2993.454310019772
 31
0.0
  0
LINE
  5
410
330
1F
100
AcDbEntity
  8
LAY-12
  6
CONTINUOUS
 62
     7
100
AcDbLine
 10
4954.240357926004
 20
2993.454310019775
 30
0.0
 11
4954.24035792601
 21
2980.329310019752
 31
0.0
  0
LINE
  5
411
330
1F
100
AcDbEntity
  8
LAY-12
  6
CONTINUOUS
 62
     7
100
AcDbLine
 10
4966.240357926004
 20
2993.454310019783
 30
0.0
 11
4966.240357926012
 21
2980.32931001976
 31
0.0
  0
CIRCLE
  5
412
330
1F
100
AcDbEntity
  8
LAY-12
  6
CONTINUOUS
 62
     7
100
AcDbCircle
 10
4772.740357925964
 20
2987.829310019738
 30
0.0
 40
2.25
  0
LINE
  5
413
330
1F
100
AcDbEntity
  8
LAY-12
  6
CONTINUOUS
 62
     7
100
AcDbLine
 10
4778.740357925964
 20
2993.454310019772
 30
0.0
 11
4766.740357925964
 21
2993.454310019772
 31
0.0
  0
LINE
  5
414
330
1F
100
AcDbEntity
  8
LAY-12
  6
CONTINUOUS
 62
     7
100
AcDbLine
 10
4766.740357925967
 20
2993.454310019775
 30
0.0
 11
4766.740357925972
 21
2980.329310019752
 31
0.0
  0
LINE
  5
415
330
1F
100
AcDbEntity
  8
LAY-12
  6
CONTINUOUS
 62
     7
100
AcDbLine
 10
4778.740357925966
 20
2993.454310019783
 30
0.0
 11
4778.740357925973
 21
2980.32931001976
 31
0.0
  0
CIRCLE
  5
416
330
1F
100
AcDbEntity
  8
LAY-12
  6
CONTINUOUS
 62
     7
100
AcDbCircle
 10
5147.740357926003
 20
2987.829310019738
 30
0.0
 40
2.25
  0
LINE
  5
417
330
1F
100
AcDbEntity
  8
LAY-12
  6
CONTINUOUS
 62
     7
100
AcDbLine
 10
5153.740357926002
 20
2993.454310019772
 30
0.0
 11
5141.740357926002
 21
2993.454310019772
 31
0.0
  0
LINE
  5
418
330
1F
100
AcDbEntity
  8
LAY-12
  6
CONTINUOUS
 62
     7
100
AcDbLine
 10
5141.740357926004
 20
2993.454310019775
 30
0.0
 11
5141.74035792601
 21
2980.329310019752
 31
0.0
  0
LINE
  5
419
330
1F
100
AcDbEntity
  8
LAY-12
  6
CONTINUOUS
 62
     7
100
AcDbLine
 10
5153.740357926004
 20
2993.454310019783
 30
0.0
 11
5153.740357926012
 21
2980.32931001976
 31
0.0
  0
CIRCLE
  5
41A
330
1F
100
AcDbEntity
  8
LAY-12
  6
CONTINUOUS
 62
     7
100
AcDbCircle
 10
5248.990357926114
 20
2924.079310019738
 30
0.0
 40
2.25
  0
LINE
  5
41B
330
1F
100
AcDbEntity
  8
LAY-12
  6
CONTINUOUS
 62
     7
100
AcDbLine
 10
5254.615357926146
 20
2930.079310019738
 30
0.0
 11
5254.615357926146
 21
2918.079310019738
 31
0.0
  0
LINE
  5
41C
330
1F
100
AcDbEntity
  8
LAY-12
  6
CONTINUOUS
 62
     7
100
AcDbLine
 10
5254.615357926153
 20
2918.07931001974
 30
0.0
 11
5241.490357926127
 21
2918.079310019747
 31
0.0
  0
LINE
  5
41D
330
1F
100
AcDbEntity
  8
LAY-12
  6
CONTINUOUS
 62
     7
100
AcDbLine
 10
5254.615357926159
 20
2930.07931001974
 30
0.0
 11
5241.490357926135
 21
2930.079310019747
 31
0.0
  0
CIRCLE
  5
41E
330
1F
100
AcDbEntity
  8
LAY-12
  6
CONTINUOUS
 62
     7
100
AcDbCircle
 10
5248.990357926114
 20
2736.579310019738
 30
0.0
 40
2.25
  0
LINE
  5
41F
330
1F
100
AcDbEntity
  8
LAY-12
  6
CONTINUOUS
 62
     7
100
AcDbLine
 10
5254.615357926146
 20
2742.579310019738
 30
0.0
 11
5254.615357926146
 21
2730.579310019738
 31
0.0
  0
LINE
  5
420
330
1F
100
AcDbEntity
  8
LAY-12
  6
CONTINUOUS
 62
     7
100
AcDbLine
 10
5254.615357926153
 20
2730.57931001974
 30
0.0
 11
5241.490357926127
 21
2730.579310019747
 31
0.0
  0
LINE
  5
421
330
1F
100
AcDbEntity
  8
LAY-12
  6
CONTINUOUS
 62
     7
100
AcDbLine
 10
5254.615357926159
 20
2742.57931001974
 30
0.0
 11
5241.490357926135
 21
2742.579310019747
 31
0.0
  0
LINE
  5
422
330
1F
100
AcDbEntity
  8
LAY-12
  6
CONTINUOUS
 62
     7
100
AcDbLine
 10
4834.240357925783
 20
2624.454310019627
 30
0.0
 11
4834.240357925783
 21
2643.204310019625
 31
0.0
  0
LINE
  5
423
330
1F
100
AcDbEntity
  8
LAY-12
  6
CONTINUOUS
 62
     7
100
AcDbLine
 10
4833.115357925783
 20
2643.204310019625
 30
0.0
 11
4833.115357925783
 21
2624.454310019627
 31
0.0
  0
LINE
  5
424
330
1F
100
AcDbEntity
  8
LAY-12
  6
CONTINUOUS
 62
     7
100
AcDbLine
 10
5086.240357925768
 20
2624.454310019627
 30
0.0
 11
5086.240357925768
 21
2643.204310019625
 31
0.0
  0
LINE
  5
425
330
1F
100
AcDbEntity
  8
LAY-12
  6
CONTINUOUS
 62
     7
100
AcDbLine
 10
5087.36535792577
 20
2643.204310019625
 30
0.0
 11
5087.36535792577
 21
2624.454310019627
 31
0.0
  0
LINE
  5
426
330
1F
100
AcDbEntity
  8
LAY-12
  6
CONTINUOUS
 62
     7
100
AcDbLine
 10
5240.365357925869
 20
2980.329310019734
 30
0.0
 11
5240.365357925869
 21
2699.079310019733
 31
0.0
  0
LINE
  5
427
330
1F
100
AcDbEntity
  8
LAY-12
  6
CONTINUOUS
 62
     7
100
AcDbLine
 10
4680.115357925871
 20
2980.329310019734
 30
0.0
 11
4680.11535792587
 21
2699.079310019733
 31
0.0
  0
LINE
  5
428
330
1F
100
AcDbEntity
  8
LAY-12
  6
CONTINUOUS
 62
     7
100
AcDbLine
 10
5240.365357925869
 20
2979.204310019735
 30
0.0
 11
4680.115357925871
 21
2979.204310019736
 31
0.0
  0
LINE
  5
429
330
1F
100
AcDbEntity
  8
LAY-12
  6
CONTINUOUS
 62
     7
100
AcDbLine
 10
5222.740357925863
 20
1951.329310019514
 30
0.0
 11
4697.740357925305
 21
1951.329310019514
 31
0.0
  0
LINE
  5
42A
330
1F
100
AcDbEntity
  8
LAY-12
  6
CONTINUOUS
 62
     7
100
AcDbLine
 10
5222.740357925864
 20
2213.829310019563
 30
0.0
 11
5241.490357925863
 21
2213.829310019563
 31
0.0
  0
LINE
  5
42B
330
1F
100
AcDbEntity
  8
LAY-12
  6
CONTINUOUS
 62
     7
100
AcDbLine
 10
4678.990357925863
 20
2213.829310019526
 30
0.0
 11
4697.740357925863
 21
2213.829310019526
 31
0.0
  0
LINE
  5
42C
330
1F
100
AcDbEntity
  8
LAY-12
  6
CONTINUOUS
 62
     7
100
AcDbLine
 10
5241.490357925868
 20
1932.579310019517
 30
0.0
 11
5241.490357925868
 21
2213.829310019517
 31
0.0
  0
LINE
  5
42D
330
1F
100
AcDbEntity
  8
LAY-12
  6
CONTINUOUS
 62
     7
100
AcDbLine
 10
4678.990357925871
 20
1932.579310019517
 30
0.0
 11
4678.990357925869
 21
2213.829310019517
 31
0.0
  0
LINE
  5
42E
330
1F
100
AcDbEntity
  8
LAY-12
  6
CONTINUOUS
 62
     7
100
AcDbLine
 10
5241.490357925868
 20
1932.579310019517
 30
0.0
 11
4678.990357925871
 21
1932.579310019517
 31
0.0
  0
CIRCLE
  5
42F
330
1F
100
AcDbEntity
  8
LAY-12
  6
CONTINUOUS
 62
     7
100
AcDbCircle
 10
4671.490357925889
 20
2176.329310019513
 30
0.0
 40
2.25
  0
LINE
  5
430
330
1F
100
AcDbEntity
  8
LAY-12
  6
CONTINUOUS
 62
     7
100
AcDbLine
 10
4665.865357925854
 20
2170.329310019514
 30
0.0
 11
4665.865357925854
 21
2182.329310019513
 31
0.0
  0
LINE
  5
431
330
1F
100
AcDbEntity
  8
LAY-12
  6
CONTINUOUS
 62
     7
100
AcDbLine
 10
4665.865357925853
 20
2182.329310019512
 30
0.0
 11
4678.990357925875
 21
2182.329310019504
 31
0.0
  0
LINE
  5
432
330
1F
100
AcDbEntity
  8
LAY-12
  6
CONTINUOUS
 62
     7
100
AcDbLine
 10
4665.865357925843
 20
2170.329310019511
 30
0.0
 11
4678.990357925866
 21
2170.329310019504
 31
0.0
  0
CIRCLE
  5
433
330
1F
100
AcDbEntity
  8
LAY-12
  6
CONTINUOUS
 62
     7
100
AcDbCircle
 10
4671.490357925889
 20
1988.829310019513
 30
0.0
 40
2.25
  0
LINE
  5
434
330
1F
100
AcDbEntity
  8
LAY-12
  6
CONTINUOUS
 62
     7
100
AcDbLine
 10
4665.865357925854
 20
1982.829310019514
 30
0.0
 11
4665.865357925854
 21
1994.829310019513
 31
0.0
  0
LINE
  5
435
330
1F
100
AcDbEntity
  8
LAY-12
  6
CONTINUOUS
 62
     7
100
AcDbLine
 10
4665.865357925853
 20
1994.829310019512
 30
0.0
 11
4678.990357925875
 21
1994.829310019504
 31
0.0
  0
LINE
  5
436
330
1F
100
AcDbEntity
  8
LAY-12
  6
CONTINUOUS
 62
     7
100
AcDbLine
 10
4665.865357925843
 20
1982.829310019511
 30
0.0
 11
4678.990357925866
 21
1982.829310019504
 31
0.0
  0
CIRCLE
  5
437
330
1F
100
AcDbEntity
  8
LAY-12
  6
CONTINUOUS
 62
     7
100
AcDbCircle
 10
4960.240357926003
 20
1925.079310019513
 30
0.0
 40
2.25
  0
LINE
  5
438
330
1F
100
AcDbEntity
  8
LAY-12
  6
CONTINUOUS
 62
     7
100
AcDbLine
 10
4966.240357926002
 20
1919.45431001948
 30
0.0
 11
4954.240357926002
 21
1919.45431001948
 31
0.0
  0
LINE
  5
439
330
1F
100
AcDbEntity
  8
LAY-12
  6
CONTINUOUS
 62
     7
100
AcDbLine
 10
4954.240357926004
 20
1919.454310019476
 30
0.0
 11
4954.24035792601
 21
1932.5793100195
 31
0.0
  0
LINE
  5
43A
330
1F
100
AcDbEntity
  8
LAY-12
  6
CONTINUOUS
 62
     7
100
AcDbLine
 10
4966.240357926004
 20
1919.454310019468
 30
0.0
 11
4966.240357926012
 21
1932.579310019491
 31
0.0
  0
CIRCLE
  5
43B
330
1F
100
AcDbEntity
  8
LAY-12
  6
CONTINUOUS
 62
     7
100
AcDbCircle
 10
4772.740357925964
 20
1925.079310019513
 30
0.0
 40
2.25
  0
LINE
  5
43C
330
1F
100
AcDbEntity
  8
LAY-12
  6
CONTINUOUS
 62
     7
100
AcDbLine
 10
4778.740357925964
 20
1919.45431001948
 30
0.0
 11
4766.740357925964
 21
1919.45431001948
 31
0.0
  0
LINE
  5
43D
330
1F
100
AcDbEntity
  8
LAY-12
  6
CONTINUOUS
 62
     7
100
AcDbLine
 10
4766.740357925967
 20
1919.454310019476
 30
0.0
 11
4766.740357925972
 21
1932.5793100195
 31
0.0
  0
LINE
  5
43E
330
1F
100
AcDbEntity
  8
LAY-12
  6
CONTINUOUS
 62
     7
100
AcDbLine
 10
4778.740357925966
 20
1919.454310019468
 30
0.0
 11
4778.740357925973
 21
1932.579310019491
 31
0.0
  0
CIRCLE
  5
43F
330
1F
100
AcDbEntity
  8
LAY-12
  6
CONTINUOUS
 62
     7
100
AcDbCircle
 10
5147.740357926003
 20
1925.079310019513
 30
0.0
 40
2.25
  0
LINE
  5
440
330
1F
100
AcDbEntity
  8
LAY-12
  6
CONTINUOUS
 62
     7
100
AcDbLine
 10
5153.740357926002
 20
1919.45431001948
 30
0.0
 11
5141.740357926002
 21
1919.45431001948
 31
0.0
  0
LINE
  5
441
330
1F
100
AcDbEntity
  8
LAY-12
  6
CONTINUOUS
 62
     7
100
AcDbLine
 10
5141.740357926004
 20
1919.454310019476
 30
0.0
 11
5141.74035792601
 21
1932.5793100195
 31
0.0
  0
LINE
  5
442
330
1F
100
AcDbEntity
  8
LAY-12
  6
CONTINUOUS
 62
     7
100
AcDbLine
 10
5153.740357926004
 20
1919.454310019468
 30
0.0
 11
5153.740357926012
 21
1932.579310019491
 31
0.0
  0
CIRCLE
  5
443
330
1F
100
AcDbEntity
  8
LAY-12
  6
CONTINUOUS
 62
     7
100
AcDbCircle
 10
5248.990357926114
 20
1988.829310019513
 30
0.0
 40
2.25
  0
LINE
  5
444
330
1F
100
AcDbEntity
  8
LAY-12
  6
CONTINUOUS
 62
     7
100
AcDbLine
 10
5254.615357926146
 20
1982.829310019514
 30
0.0
 11
5254.615357926146
 21
1994.829310019513
 31
0.0
  0
LINE
  5
445
330
1F
100
AcDbEntity
  8
LAY-12
  6
CONTINUOUS
 62
     7
100
AcDbLine
 10
5254.615357926153
 20
1994.829310019512
 30
0.0
 11
5241.490357926127
 21
1994.829310019504
 31
0.0
  0
LINE
  5
446
330
1F
100
AcDbEntity
  8
LAY-12
  6
CONTINUOUS
 62
     7
100
AcDbLine
 10
5254.615357926159
 20
1982.829310019511
 30
0.0
 11
5241.490357926135
 21
1982.829310019504
 31
0.0
  0
CIRCLE
  5
447
330
1F
100
AcDbEntity
  8
LAY-12
  6
CONTINUOUS
 62
     7
100
AcDbCircle
 10
5248.990357926114
 20
2176.329310019513
 30
0.0
 40
2.25
  0
LINE
  5
448
330
1F
100
AcDbEntity
  8
LAY-12
  6
CONTINUOUS
 62
     7
100
AcDbLine
 10
5254.615357926146
 20
2170.329310019514
 30
0.0
 11
5254.615357926146
 21
2182.329310019513
 31
0.0
  0
LINE
  5
449
330
1F
100
AcDbEntity
  8
LAY-12
  6
CONTINUOUS
 62
     7
100
AcDbLine
 10
5254.615357926153
 20
2182.329310019512
 30
0.0
 11
5241.490357926127
 21
2182.329310019504
 31
0.0
  0
LINE
  5
44A
330
1F
100
AcDbEntity
  8
LAY-12
  6
CONTINUOUS
 62
     7
100
AcDbLine
 10
5254.615357926159
 20
2170.329310019511
 30
0.0
 11
5241.490357926135
 21
2170.329310019504
 31
0.0
  0
LINE
  5
44B
330
1F
100
AcDbEntity
  8
LAY-12
  6
CONTINUOUS
 62
     7
100
AcDbLine
 10
4834.240357925783
 20
2288.454310019625
 30
0.0
 11
4834.240357925783
 21
2269.704310019625
 31
0.0
  0
LINE
  5
44C
330
1F
100
AcDbEntity
  8
LAY-12
  6
CONTINUOUS
 62
     7
100
AcDbLine
 10
4833.115357925783
 20
2269.704310019625
 30
0.0
 11
4833.115357925783
 21
2288.454310019625
 31
0.0
  0
LINE
  5
44D
330
1F
100
AcDbEntity
  8
LAY-12
  6
CONTINUOUS
 62
     7
100
AcDbLine
 10
5086.240357925768
 20
2288.454310019625
 30
0.0
 11
5086.240357925768
 21
2269.704310019625
 31
0.0
  0
LINE
  5
44E
330
1F
100
AcDbEntity
  8
LAY-12
  6
CONTINUOUS
 62
     7
100
AcDbLine
 10
5087.36535792577
 20
2269.704310019625
 30
0.0
 11
5087.36535792577
 21
2288.454310019625
 31
0.0
  0
LINE
  5
44F
330
1F
100
AcDbEntity
  8
LAY-12
  6
CONTINUOUS
 62
     7
100
AcDbLine
 10
5240.365357925869
 20
1932.579310019517
 30
0.0
 11
5240.365357925869
 21
2213.829310019517
 31
0.0
  0
LINE
  5
450
330
1F
100
AcDbEntity
  8
LAY-12
  6
CONTINUOUS
 62
     7
100
AcDbLine
 10
5222.740357925884
 20
1933.704310019517
 30
0.0
 11
5222.740357925854
 21
2213.829310019575
 31
0.0
  0
LINE
  5
451
330
1F
100
AcDbEntity
  8
LAY-12
  6
CONTINUOUS
 62
     7
100
AcDbLine
 10
4680.115357925871
 20
1932.579310019517
 30
0.0
 11
4680.11535792587
 21
2213.829310019517
 31
0.0
  0
LINE
  5
452
330
1F
100
AcDbEntity
  8
LAY-12
  6
CONTINUOUS
 62
     7
100
AcDbLine
 10
5240.365357925869
 20
1933.704310019517
 30
0.0
 11
4680.115357925871
 21
1933.704310019516
 31
0.0
  0
LINE
  5
453
330
1F
100
AcDbEntity
  8
LAY-12
  6
CONTINUOUS
 62
     7
100
AcDbLine
 10
4697.740357925868
 20
2213.829310019517
 30
0.0
 11
4697.740357925868
 21
1933.704310019516
 31
0.0
  0
TEXT
  5
454
330
1F
100
AcDbEntity
  8
LAY-12
  6
CONTINUOUS
 62
     7
100
AcDbText
 10
4619.250000000001
 20
1772.031497489372
 30
0.0
 40
46.77165302633819
  1
受枠・受枠補強材　分解図
 41
1.116981132075471
  7
EXCADSTD
100
AcDbText
  0
LINE
  5
455
330
1F
100
AcDbEntity
  8
LAY-12
  6
CONTINUOUS
 62
     7
100
AcDbLine
 10
4607.250000000001
 20
1755.750000000001
 30
0.0
 11
5343.000000000001
 21
1755.750000000001
 31
0.0
  0
LINE
  5
456
330
1F
100
AcDbEntity
  8
LAY-12
  6
CONTINUOUS
 62
     7
100
AcDbLine
 10
5203.990357925369
 20
2865.579310019725
 30
0.0
 11
5222.740357925369
 21
2865.579310019725
 31
0.0
  0
LINE
  5
457
330
1F
100
AcDbEntity
  8
LAY-12
  6
CONTINUOUS
 62
     7
100
AcDbLine
 10
5222.740357925369
 20
2864.454310019725
 30
0.0
 11
5203.990357925369
 21
2864.454310019725
 31
0.0
  0
LINE
  5
458
330
1F
100
AcDbEntity
  8
LAY-12
  6
CONTINUOUS
 62
     7
100
AcDbLine
 10
4716.490357925855
 20
2865.579310019725
 30
0.0
 11
4697.740357925855
 21
2865.579310019725
 31
0.0
  0
LINE
  5
459
330
1F
100
AcDbEntity
  8
LAY-12
  6
CONTINUOUS
 62
     7
100
AcDbLine
 10
4697.740357925855
 20
2864.454310019725
 30
0.0
 11
4716.490357925855
 21
2864.454310019725
 31
0.0
  0
LINE
  5
45A
330
1F
100
AcDbEntity
  8
LAY-12
  6
CONTINUOUS
 62
     7
100
AcDbLine
 10
5203.990357925371
 20
2825.079310019725
 30
0.0
 11
5203.990357925369
 21
2865.579310019725
 31
0.0
  0
LINE
  5
45B
330
1F
100
AcDbEntity
  8
LAY-12
  6
CONTINUOUS
 62
     7
100
AcDbLine
 10
4716.490357925857
 20
2825.079310019725
 30
0.0
 11
4716.490357925855
 21
2865.579310019725
 31
0.0
  0
LINE
  5
45C
330
1F
100
AcDbEntity
  8
LAY-12
  6
CONTINUOUS
 62
     7
100
AcDbLine
 10
5222.740357925884
 20
2979.204310019735
 30
0.0
 11
5222.740357925855
 21
2699.079310019677
 31
0.0
  0
LINE
  5
45D
330
1F
100
AcDbEntity
  8
LAY-12
  6
CONTINUOUS
 62
     7
100
AcDbLine
 10
4697.740357925869
 20
2699.079310019733
 30
0.0
 11
4697.740357925869
 21
2979.204310019736
 31
0.0
  0
LINE
  5
45E
330
1F
100
AcDbEntity
  8
LAY-12
  6
CONTINUOUS
 62
     7
100
AcDbLine
 10
5221.802857925771
 20
2680.704310019623
 30
0.0
 11
4698.677857925769
 21
2680.704310019623
 31
0.0
  0
LINE
  5
45F
330
1F
100
AcDbEntity
  8
LAY-12
  6
CONTINUOUS
 62
     7
100
AcDbLine
 10
5221.802857925771
 20
2643.204310019625
 30
0.0
 11
5221.802857925771
 21
2680.704310019624
 31
0.0
  0
LINE
  5
460
330
1F
100
AcDbEntity
  8
LAY-12
  6
CONTINUOUS
 62
     7
100
AcDbLine
 10
4698.677857925769
 20
2643.204310019625
 30
0.0
 11
4698.677857925769
 21
2680.704310019625
 31
0.0
  0
LINE
  5
461
330
1F
100
AcDbEntity
  8
LAY-12
  6
CONTINUOUS
 62
     7
100
AcDbLine
 10
5221.802857925771
 20
2232.204310019628
 30
0.0
 11
4698.677857925769
 21
2232.204310019628
 31
0.0
  0
LINE
  5
462
330
1F
100
AcDbEntity
  8
LAY-12
  6
CONTINUOUS
 62
     7
100
AcDbLine
 10
5221.802857925771
 20
2269.704310019627
 30
0.0
 11
5221.802857925771
 21
2232.204310019627
 31
0.0
  0
LINE
  5
463
330
1F
100
AcDbEntity
  8
LAY-12
  6
CONTINUOUS
 62
     7
100
AcDbLine
 10
4698.677857925769
 20
2269.704310019627
 30
0.0
 11
4698.677857925769
 21
2232.204310019625
 31
0.0
  0
LINE
  5
464
330
1F
100
AcDbEntity
  8
LAY-12
  6
CONTINUOUS
 62
     7
100
AcDbLine
 10
4795.240357925777
 20
2328.954310019626
 30
0.0
 11
4832.740357925777
 21
2328.954310019626
 31
0.0
  0
LINE
  5
465
330
1F
100
AcDbEntity
  8
LAY-12
  6
CONTINUOUS
 62
     7
100
AcDbLine
 10
4795.240357925769
 20
2328.954310019624
 30
0.0
 11
4795.240357925767
 21
2583.954310019624
 31
0.0
  0
LINE
  5
466
330
1F
100
AcDbEntity
  8
LAY-12
  6
CONTINUOUS
 62
     7
100
AcDbLine
 10
4795.240357925775
 20
2583.954310019626
 30
0.0
 11
4832.740357925775
 21
2583.954310019626
 31
0.0
  0
LINE
  5
467
330
1F
100
AcDbEntity
  8
LAY-12
  6
CONTINUOUS
 62
     7
100
AcDbLine
 10
4793.740357925783
 20
2624.454310019627
 30
0.0
 11
4793.740357925783
 21
2643.204310019627
 31
0.0
  0
LINE
  5
468
330
1F
100
AcDbEntity
  8
LAY-12
  6
CONTINUOUS
 62
     7
100
AcDbLine
 10
4794.865357925783
 20
2643.204310019627
 30
0.0
 11
4794.865357925783
 21
2624.454310019627
 31
0.0
  0
LINE
  5
469
330
1F
100
AcDbEntity
  8
LAY-12
  6
CONTINUOUS
 62
     7
100
AcDbLine
 10
4834.240357925776
 20
2624.454310019625
 30
0.0
 11
4793.740357925775
 21
2624.454310019627
 31
0.0
  0
LINE
  5
46A
330
1F
100
AcDbEntity
  8
LAY-12
  6
CONTINUOUS
 62
     7
100
AcDbLine
 10
4793.740357925783
 20
2288.454310019624
 30
0.0
 11
4793.740357925783
 21
2269.704310019624
 31
0.0
  0
LINE
  5
46B
330
1F
100
AcDbEntity
  8
LAY-12
  6
CONTINUOUS
 62
     7
100
AcDbLine
 10
4794.865357925783
 20
2269.704310019624
 30
0.0
 11
4794.865357925783
 21
2288.454310019624
 31
0.0
  0
LINE
  5
46C
330
1F
100
AcDbEntity
  8
LAY-12
  6
CONTINUOUS
 62
     7
100
AcDbLine
 10
4834.240357925776
 20
2288.454310019625
 30
0.0
 11
4793.740357925775
 21
2288.454310019624
 31
0.0
  0
LINE
  5
46D
330
1F
100
AcDbEntity
  8
LAY-12
  6
CONTINUOUS
 62
     7
100
AcDbLine
 10
5125.240357925775
 20
2328.954310019626
 30
0.0
 11
5087.740357925775
 21
2328.954310019626
 31
0.0
  0
LINE
  5
46E
330
1F
100
AcDbEntity
  8
LAY-12
  6
CONTINUOUS
 62
     7
100
AcDbLine
 10
5125.240357925784
 20
2328.954310019624
 30
0.0
 11
5125.240357925784
 21
2583.954310019624
 31
0.0
  0
LINE
  5
46F
330
1F
100
AcDbEntity
  8
LAY-12
  6
CONTINUOUS
 62
     7
100
AcDbLine
 10
5087.740357925625
 20
2583.954310019626
 30
0.0
 11
5125.240357925625
 21
2583.954310019626
 31
0.0
  0
LINE
  5
470
330
1F
100
AcDbEntity
  8
LAY-12
  6
CONTINUOUS
 62
     7
100
AcDbLine
 10
5126.740357925767
 20
2624.454310019627
 30
0.0
 11
5126.740357925767
 21
2643.204310019625
 31
0.0
  0
LINE
  5
471
330
1F
100
AcDbEntity
  8
LAY-12
  6
CONTINUOUS
 62
     7
100
AcDbLine
 10
5125.615357925768
 20
2643.204310019625
 30
0.0
 11
5125.615357925768
 21
2624.454310019627
 31
0.0
  0
LINE
  5
472
330
1F
100
AcDbEntity
  8
LAY-12
  6
CONTINUOUS
 62
     7
100
AcDbLine
 10
5086.240357925777
 20
2624.454310019625
 30
0.0
 11
5126.740357925776
 21
2624.454310019625
 31
0.0
  0
LINE
  5
473
330
1F
100
AcDbEntity
  8
LAY-12
  6
CONTINUOUS
 62
     7
100
AcDbLine
 10
5126.740357925767
 20
2288.454310019625
 30
0.0
 11
5126.740357925767
 21
2269.704310019625
 31
0.0
  0
LINE
  5
474
330
1F
100
AcDbEntity
  8
LAY-12
  6
CONTINUOUS
 62
     7
100
AcDbLine
 10
5125.615357925768
 20
2269.704310019625
 30
0.0
 11
5125.615357925768
 21
2288.454310019625
 31
0.0
  0
LINE
  5
475
330
1F
100
AcDbEntity
  8
LAY-12
  6
CONTINUOUS
 62
     7
100
AcDbLine
 10
5086.240357925777
 20
2288.454310019625
 30
0.0
 11
5126.740357925776
 21
2288.454310019625
 31
0.0
  0
LINE
  5
476
330
1F
100
AcDbEntity
  8
LAY-12
  6
CONTINUOUS
 62
     7
100
AcDbLine
 10
5221.802857925771
 20
2643.204310019624
 30
0.0
 11
4698.677857925769
 21
2643.204310019624
 31
0.0
  0
LINE
  5
477
330
1F
100
AcDbEntity
  8
LAY-12
  6
CONTINUOUS
 62
     7
100
AcDbLine
 10
5221.802857925771
 20
2269.704310019627
 30
0.0
 11
4698.677857925769
 21
2269.704310019627
 31
0.0
  0
LINE
  5
478
330
1F
100
AcDbEntity
  8
LAY-12
  6
CONTINUOUS
 62
     7
100
AcDbLine
 10
4716.490357926032
 20
2087.829310019497
 30
0.0
 11
4697.740357926032
 21
2087.829310019497
 31
0.0
  0
LINE
  5
479
330
1F
100
AcDbEntity
  8
LAY-12
  6
CONTINUOUS
 62
     7
100
AcDbLine
 10
4697.740357926032
 20
2086.704310019496
 30
0.0
 11
4716.490357926032
 21
2086.704310019496
 31
0.0
  0
LINE
  5
47A
330
1F
100
AcDbEntity
  8
LAY-12
  6
CONTINUOUS
 62
     7
100
AcDbLine
 10
5203.990357925546
 20
2087.829310019497
 30
0.0
 11
5222.740357925546
 21
2087.829310019497
 31
0.0
  0
LINE
  5
47B
330
1F
100
AcDbEntity
  8
LAY-12
  6
CONTINUOUS
 62
     7
100
AcDbLine
 10
5222.740357925546
 20
2086.704310019496
 30
0.0
 11
5203.990357925546
 21
2086.704310019496
 31
0.0
  0
LINE
  5
47C
330
1F
100
AcDbEntity
  8
LAY-12
  6
CONTINUOUS
 62
     7
100
AcDbLine
 10
4716.490357926034
 20
2047.329310019496
 30
0.0
 11
4697.740357926034
 21
2047.329310019496
 31
0.0
  0
LINE
  5
47D
330
1F
100
AcDbEntity
  8
LAY-12
  6
CONTINUOUS
 62
     7
100
AcDbLine
 10
4697.740357926034
 20
2048.454310019496
 30
0.0
 11
4716.490357926034
 21
2048.454310019496
 31
0.0
  0
LINE
  5
47E
330
1F
100
AcDbEntity
  8
LAY-12
  6
CONTINUOUS
 62
     7
100
AcDbLine
 10
5203.990357925549
 20
2047.329310019496
 30
0.0
 11
5222.740357925549
 21
2047.329310019496
 31
0.0
  0
LINE
  5
47F
330
1F
100
AcDbEntity
  8
LAY-12
  6
CONTINUOUS
 62
     7
100
AcDbLine
 10
5222.740357925549
 20
2048.454310019496
 30
0.0
 11
5203.990357925549
 21
2048.454310019496
 31
0.0
  0
LINE
  5
480
330
1F
100
AcDbEntity
  8
LAY-12
  6
CONTINUOUS
 62
     7
100
AcDbLine
 10
4716.490357926032
 20
2087.829310019496
 30
0.0
 11
4716.490357926034
 21
2047.329310019496
 31
0.0
  0
LINE
  5
481
330
1F
100
AcDbEntity
  8
LAY-12
  6
CONTINUOUS
 62
     7
100
AcDbLine
 10
5203.990357925546
 20
2087.829310019496
 30
0.0
 11
5203.990357925549
 21
2047.329310019496
 31
0.0
  0
DIMENSION
  5
483
330
1F
100
AcDbEntity
  8
LAY-20
  6
CONTINUOUS
 62
     4
100
AcDbDimension
  2
*D15
 10
1784.5
 20
3311.5
 30
0.0
 11
1984.5
 21
3349.0
 31
0.0
 70
   160
  3
ISO-25
100
AcDbAlignedDimension
 13
2184.5
 23
3167.900000000001
 33
0.0
 14
1784.5
 24
3188.4598670394
 34
0.0
100
AcDbRotatedDimension
1001
ACAD
1000
DSTYLE
1002
{
1070
   270
1070
     2
1070
     6
1000
EX_BNORM
1070
     7
1000
EX_BNORM
1070
    41
1040
37.49999618530273
1070
    42
1040
22.5
1070
    44
1040
22.5
1070
    73
1070
     0
1070
    74
1070
     0
1070
    75
1070
     0
1070
    76
1070
     0
1070
    77
1070
     1
1070
    78
1070
     8
1070
   140
1040
46.77165302633819
1070
   147
1040
0.0
1070
   173
1070
     1
1070
   176
1070
     4
1070
   177
1070
     4
1070
   178
1070
     7
1070
   271
1070
     1
1070
   277
1070
     2
1070
   279
1070
     2
1070
   280
1070
     0
1070
   287
1070
     5
1070
   340
1005
482
1002
}
  0
DIMENSION
  5
491
330
1F
100
AcDbEntity
  8
LAY-20
  6
CONTINUOUS
 62
     4
100
AcDbDimension
  2
*D16
 10
1784.5
 20
3311.5
 30
0.0
 11
1584.5
 21
3349.0
 31
0.0
 70
   160
  3
ISO-25
100
AcDbAlignedDimension
 13
1384.5
 23
3167.900000000001
 33
0.0
 14
1784.5
 24
3311.5
 34
0.0
100
AcDbRotatedDimension
1001
ACAD
1000
DSTYLE
1002
{
1070
   270
1070
     2
1070
     6
1000
EX_BNORM
1070
     7
1000
EX_BNORM
1070
    41
1040
37.49999618530273
1070
    42
1040
22.5
1070
    44
1040
22.5
1070
    73
1070
     0
1070
    74
1070
     0
1070
    75
1070
     0
1070
    76
1070
     1
1070
    77
1070
     1
1070
    78
1070
     8
1070
   140
1040
46.77165302633819
1070
   147
1040
0.0
1070
   173
1070
     1
1070
   176
1070
     4
1070
   177
1070
     4
1070
   178
1070
     7
1070
   271
1070
     1
1070
   277
1070
     2
1070
   279
1070
     2
1070
   280
1070
     0
1070
   287
1070
     5
1070
   340
1005
482
1002
}
  0
DIMENSION
  5
49D
330
1F
100
AcDbEntity
  8
LAY-20
  6
CONTINUOUS
 62
     4
100
AcDbDimension
  2
*D17
 10
2636.5
 20
1090.499999999999
 30
0.0
 11
2599.0
 21
1162.999999999999
 31
0.0
 70
   160
  3
ISO-25
100
AcDbAlignedDimension
 13
2381.5
 23
1235.499999999999
 33
0.0
 14
2334.5
 24
1090.499999999999
 34
0.0
 50
90.0
100
AcDbRotatedDimension
1001
ACAD
1000
DSTYLE
1002
{
1070
   270
1070
     2
1070
     6
1000
EX_BNORM
1070
     7
1000
EX_BNORM
1070
    41
1040
37.49999618530273
1070
    42
1040
22.5
1070
    44
1040
22.5
1070
    73
1070
     0
1070
    74
1070
     0
1070
    75
1070
     0
1070
    76
1070
     0
1070
    77
1070
     1
1070
    78
1070
     8
1070
   140
1040
46.77165302633819
1070
   147
1040
0.0
1070
   173
1070
     1
1070
   176
1070
     4
1070
   177
1070
     4
1070
   178
1070
     7
1070
   271
1070
     1
1070
   277
1070
     2
1070
   279
1070
     2
1070
   280
1070
     0
1070
   287
1070
     5
1070
   340
1005
482
1002
}
  0
DIMENSION
  5
4AA
330
1F
100
AcDbEntity
  8
LAY-20
  6
CONTINUOUS
 62
     4
100
AcDbDimension
  2
*D18
 10
2531.5
 20
1235.499999999999
 30
0.0
 11
2494.0
 21
1325.499999999998
 31
0.0
 70
   160
  3
ISO-25
100
AcDbAlignedDimension
 13
2416.499999999999
 23
1191.499999999999
 33
0.0
 14
2531.5
 24
1235.499999999999
 34
0.0
 50
90.0
100
AcDbRotatedDimension
1001
ACAD
1000
DSTYLE
1002
{
1070
   270
1070
     2
1070
     6
1000
EX_BCIR
1070
     7
1000
EX_BNORM
1070
    41
1040
14.99999904632568
1070
    42
1040
22.5
1070
    44
1040
22.5
1070
    73
1070
     0
1070
    74
1070
     0
1070
    75
1070
     0
1070
    76
1070
     1
1070
    77
1070
     1
1070
    78
1070
     8
1070
   140
1040
46.77165302633819
1070
   147
1040
0.0
1070
   173
1070
     1
1070
   176
1070
     4
1070
   177
1070
     4
1070
   178
1070
     7
1070
   271
1070
     1
1070
   277
1070
     2
1070
   279
1070
     2
1070
   280
1070
     2
1070
   287
1070
     5
1070
   340
1005
482
1002
}
  0
DIMENSION
  5
4B6
330
1F
100
AcDbEntity
  8
LAY-20
  6
CONTINUOUS
 62
     4
100
AcDbDimension
  2
*D19
 10
2531.5
 20
1090.499999999999
 30
0.0
 11
2494.0
 21
977.9999999999982
 31
0.0
 70
   160
  3
ISO-25
100
AcDbAlignedDimension
 13
2531.5
 23
1191.499999999999
 33
0.0
 14
2531.5
 24
1090.499999999999
 34
0.0
 50
90.0
100
AcDbRotatedDimension
1001
ACAD
1000
DSTYLE
1002
{
1070
   270
1070
     2
1070
     6
1000
EX_BCIR
1070
     7
1000
EX_BNORM
1070
    41
1040
14.99999904632568
1070
    42
1040
0.0
1070
    44
1040
0.0
1070
    73
1070
     0
1070
    74
1070
     0
1070
    75
1070
     1
1070
    76
1070
     1
1070
    77
1070
     1
1070
    78
1070
     8
1070
   140
1040
46.77165302633819
1070
   147
1040
0.0
1070
   173
1070
     1
1070
   176
1070
     4
1070
   177
1070
     4
1070
   178
1070
     7
1070
   271
1070
     1
1070
   277
1070
     2
1070
   279
1070
     2
1070
   280
1070
     2
1070
   287
1070
     5
1070
   340
1005
482
1002
}
  0
DIMENSION
  5
4C1
330
1F
100
AcDbEntity
  8
LAY-20
  6
CONTINUOUS
 62
     4
100
AcDbDimension
  2
*D20
 10
1002.500000000001
 20
2629.5
 30
0.0
 11
965.0000000000008
 21
2829.5
 31
0.0
 70
   160
  3
ISO-25
100
AcDbAlignedDimension
 13
1146.100000000001
 23
3029.5
 33
0.0
 14
1002.500000000001
 24
2629.5
 34
0.0
 50
90.0
100
AcDbRotatedDimension
1001
ACAD
1000
DSTYLE
1002
{
1070
   270
1070
     2
1070
     6
1000
EX_BNORM
1070
     7
1000
EX_BNORM
1070
    41
1040
37.49999618530273
1070
    42
1040
22.5
1070
    44
1040
22.5
1070
    73
1070
     0
1070
    74
1070
     0
1070
    75
1070
     0
1070
    76
1070
     1
1070
    77
1070
     1
1070
    78
1070
     8
1070
   140
1040
46.77165302633819
1070
   147
1040
0.0
1070
   173
1070
     1
1070
   176
1070
     4
1070
   177
1070
     4
1070
   178
1070
     7
1070
   271
1070
     1
1070
   277
1070
     2
1070
   279
1070
     2
1070
   280
1070
     0
1070
   287
1070
     5
1070
   340
1005
482
1002
}
  0
DIMENSION
  5
4CD
330
1F
100
AcDbEntity
  8
LAY-20
  6
CONTINUOUS
 62
     4
100
AcDbDimension
  2
*D21
 10
1002.500000000001
 20
2429.5
 30
0.0
 11
965.0000000000008
 21
2529.5
 31
0.0
 70
   160
  3
ISO-25
100
AcDbAlignedDimension
 13
1146.1
 23
2629.5
 33
0.0
 14
1146.1
 24
2429.5
 34
0.0
 50
90.0
100
AcDbRotatedDimension
1001
ACAD
1000
DSTYLE
1002
{
1070
   270
1070
     2
1070
     6
1000
EX_BNORM
1070
     7
1000
EX_BNORM
1070
    41
1040
37.49999618530273
1070
    42
1040
22.5
1070
    44
1040
22.5
1070
    73
1070
     0
1070
    74
1070
     0
1070
    75
1070
     0
1070
    76
1070
     0
1070
    77
1070
     1
1070
    78
1070
     8
1070
   140
1040
46.77165302633819
1070
   147
1040
0.0
1070
   173
1070
     1
1070
   176
1070
     4
1070
   177
1070
     4
1070
   178
1070
     7
1070
   271
1070
     1
1070
   277
1070
     2
1070
   279
1070
     2
1070
   280
1070
     0
1070
   287
1070
     5
1070
   340
1005
482
1002
}
  0
DIMENSION
  5
4DA
330
1F
100
AcDbEntity
  8
LAY-20
  6
CONTINUOUS
 62
     4
100
AcDbDimension
  2
*D22
 10
1002.500000000001
 20
2429.499999999998
 30
0.0
 11
965.0000000000002
 21
2229.499999999998
 31
0.0
 70
   160
  3
ISO-25
100
AcDbAlignedDimension
 13
1146.1
 23
2029.499999999997
 33
0.0
 14
1002.500000000001
 24
2429.499999999998
 34
0.0
 50
90.0
100
AcDbRotatedDimension
1001
ACAD
1000
DSTYLE
1002
{
1070
   270
1070
     2
1070
     6
1000
EX_BNORM
1070
     7
1000
EX_BNORM
1070
    41
1040
37.49999618530273
1070
    42
1040
22.5
1070
    44
1040
22.5
1070
    73
1070
     0
1070
    74
1070
     0
1070
    75
1070
     0
1070
    76
1070
     1
1070
    77
1070
     1
1070
    78
1070
     8
1070
   140
1040
46.77165302633819
1070
   147
1040
0.0
1070
   173
1070
     1
1070
   176
1070
     4
1070
   177
1070
     4
1070
   178
1070
     7
1070
   271
1070
     1
1070
   277
1070
     2
1070
   279
1070
     2
1070
   280
1070
     0
1070
   287
1070
     5
1070
   340
1005
482
1002
}
  0
DIMENSION
  5
4E6
330
1F
100
AcDbEntity
  8
LAY-20
  6
CONTINUOUS
 62
     4
100
AcDbDimension
  2
*D23
 10
1423.5
 20
1235.5
 30
0.0
 11
1385.999999999999
 21
1325.499999999999
 31
0.0
 70
   160
  3
ISO-25
100
AcDbAlignedDimension
 13
1362.0
 23
1215.5
 33
0.0
 14
1512.00000000003
 24
1235.5
 34
0.0
 50
90.0
100
AcDbRotatedDimension
1001
ACAD
1000
DSTYLE
1002
{
1070
   270
1070
     2
1070
     6
1000
EX_BNORM
1070
     7
1000
EX_BNORM
1070
    41
1040
37.49999618530273
1070
    42
1040
22.5
1070
    44
1040
22.49999999999977
1070
    73
1070
     0
1070
    74
1070
     0
1070
    75
1070
     0
1070
    76
1070
     1
1070
    77
1070
     1
1070
    78
1070
     8
1070
   140
1040
46.77165302633819
1070
   147
1040
0.0
1070
   173
1070
     1
1070
   176
1070
     4
1070
   177
1070
     4
1070
   178
1070
     7
1070
   271
1070
     1
1070
   277
1070
     2
1070
   279
1070
     2
1070
   280
1070
     2
1070
   287
1070
     5
1070
   340
1005
482
1002
}
  0
DIMENSION
  5
4F4
330
1F
100
AcDbEntity
  8
LAY-20
  6
CONTINUOUS
 62
     4
100
AcDbDimension
  2
*D24
 10
2381.5
 20
1595.5
 30
0.0
 11
1784.5
 21
1633.0
 31
0.0
 70
   160
  1
□<>
  3
ISO-25
100
AcDbAlignedDimension
 13
1187.5
 23
1235.5
 33
0.0
 14
2381.5
 24
1235.5
 34
0.0
100
AcDbRotatedDimension
1001
ACAD
1000
DSTYLE
1002
{
1070
   270
1070
     2
1070
     6
1000
EX_BNORM
1070
     7
1000
EX_BNORM
1070
    41
1040
37.49999618530273
1070
    42
1040
22.5
1070
    44
1040
22.5
1070
    73
1070
     0
1070
    74
1070
     0
1070
    75
1070
     0
1070
    76
1070
     0
1070
    77
1070
     1
1070
    78
1070
     8
1070
   140
1040
46.77165302633819
1070
   147
1040
0.0
1070
   173
1070
     1
1070
   176
1070
     4
1070
   177
1070
     4
1070
   178
1070
     7
1070
   271
1070
     1
1070
   277
1070
     2
1070
   279
1070
     2
1070
   280
1070
     0
1070
   287
1070
     5
1070
   340
1005
482
1002
}
  0
DIMENSION
  5
501
330
1F
100
AcDbEntity
  8
LAY-20
  6
CONTINUOUS
 62
     4
100
AcDbDimension
  2
*D25
 10
1199.500000000002
 20
1490.5
 30
0.0
 11
1784.5
 21
1528.0
 31
0.0
 70
   160
  1
□<>
  3
ISO-25
100
AcDbAlignedDimension
 13
2369.499999999999
 23
1235.499999999999
 33
0.0
 14
1199.500000000002
 24
1235.5
 34
0.0
100
AcDbRotatedDimension
1001
ACAD
1000
DSTYLE
1002
{
1070
   270
1070
     2
1070
     6
1000
EX_BNORM
1070
     7
1000
EX_BNORM
1070
    41
1040
37.49999618530273
1070
    42
1040
22.5
1070
    44
1040
22.5
1070
    73
1070
     0
1070
    74
1070
     0
1070
    75
1070
     0
1070
    76
1070
     0
1070
    77
1070
     1
1070
    78
1070
     8
1070
   140
1040
46.77165302633819
1070
   147
1040
0.0
1070
   173
1070
     1
1070
   176
1070
     4
1070
   177
1070
     4
1070
   178
1070
     7
1070
   271
1070
     1
1070
   277
1070
     2
1070
   279
1070
     2
1070
   280
1070
     0
1070
   287
1070
     5
1070
   340
1005
482
1002
}
  0
DIMENSION
  5
50E
330
1F
100
AcDbEntity
  8
LAY-20
  6
CONTINUOUS
 62
     4
100
AcDbDimension
  2
*D26
 10
1584.5
 20
1385.5
 30
0.0
 11
1784.5
 21
1423.0
 31
0.0
 70
   160
  1
□<>
  3
ISO-25
100
AcDbAlignedDimension
 13
1984.5
 23
1235.5
 33
0.0
 14
1584.5
 24
1235.5
 34
0.0
100
AcDbRotatedDimension
1001
ACAD
1000
DSTYLE
1002
{
1070
   270
1070
     2
1070
     6
1000
EX_BNORM
1070
     7
1000
EX_BNORM
1070
    41
1040
37.49999618530273
1070
    42
1040
22.5
1070
    44
1040
22.5
1070
    73
1070
     0
1070
    74
1070
     0
1070
    75
1070
     0
1070
    76
1070
     0
1070
    77
1070
     1
1070
    78
1070
     8
1070
   140
1040
46.77165302633819
1070
   147
1040
0.0
1070
   173
1070
     1
1070
   176
1070
     4
1070
   177
1070
     4
1070
   178
1070
     7
1070
   271
1070
     1
1070
   277
1070
     2
1070
   279
1070
     2
1070
   280
1070
     0
1070
   287
1070
     5
1070
   340
1005
482
1002
}
  0
DIMENSION
  5
51B
330
1F
100
AcDbEntity
  8
LAY-20
  6
CONTINUOUS
 62
     4
100
AcDbDimension
  2
*D27
 10
2331.5
 20
940.5
 30
0.0
 11
1784.5
 21
978.0
 31
0.0
 70
   160
  1
□<>
  3
ISO-25
100
AcDbAlignedDimension
 13
1237.5
 23
1090.5
 33
0.0
 14
2331.5
 24
1090.5
 34
0.0
100
AcDbRotatedDimension
1001
ACAD
1000
DSTYLE
1002
{
1070
   270
1070
     2
1070
     6
1000
EX_BNORM
1070
     7
1000
EX_BNORM
1070
    41
1040
37.49999618530273
1070
    42
1040
22.5
1070
    44
1040
22.5
1070
    73
1070
     0
1070
    74
1070
     0
1070
    75
1070
     0
1070
    76
1070
     0
1070
    77
1070
     1
1070
    78
1070
     8
1070
   140
1040
46.77165302633819
1070
   147
1040
0.0
1070
   173
1070
     1
1070
   176
1070
     4
1070
   177
1070
     4
1070
   178
1070
     7
1070
   271
1070
     1
1070
   277
1070
     2
1070
   279
1070
     2
1070
   280
1070
     0
1070
   287
1070
     5
1070
   340
1005
482
1002
}
  0
LINE
  5
528
330
1F
100
AcDbEntity
  8
LAY-255
  6
CONTINUOUS
 62
     7
100
AcDbLine
 10
5775.0
 20
329.9999999999999
 30
0.0
 11
4275.0
 21
329.9999999999999
 31
0.0
  0
LINE
  5
529
330
1F
100
AcDbEntity
  8
LAY-255
  6
CONTINUOUS
 62
     7
100
AcDbLine
 10
4332.0
 20
240.0
 30
0.0
 11
4452.0
 21
315.0
 31
0.0
  0
LINE
  5
52A
330
1F
100
AcDbEntity
  8
LAY-255
  6
CONTINUOUS
 62
     7
100
AcDbLine
 10
4452.0
 20
315.0
 30
0.0
 11
4572.0
 21
240.0
 31
0.0
  0
LINE
  5
52B
330
1F
100
AcDbEntity
  8
LAY-255
  6
CONTINUOUS
 62
     7
100
AcDbLine
 10
4572.0
 20
240.0
 30
0.0
 11
4452.0
 21
165.0
 31
0.0
  0
LINE
  5
52C
330
1F
100
AcDbEntity
  8
LAY-255
  6
CONTINUOUS
 62
     7
100
AcDbLine
 10
4452.0
 20
165.0
 30
0.0
 11
4332.0
 21
240.0
 31
0.0
  0
LINE
  5
52D
330
1F
100
AcDbEntity
  8
LAY-255
  6
CONTINUOUS
 62
     7
100
AcDbLine
 10
75.0
 20
150.0
 30
0.0
 11
5775.000000000001
 21
150.0
 31
0.0
  0
LINE
  5
52E
330
1F
100
AcDbEntity
  8
LAY-255
  6
CONTINUOUS
 62
     7
100
AcDbLine
 10
75.0
 20
4200.0
 30
0.0
 11
5775.000000000001
 21
4200.0
 31
0.0
  0
LINE
  5
52F
330
1F
100
AcDbEntity
  8
LAY-255
  6
CONTINUOUS
 62
     7
100
AcDbLine
 10
75.0
 20
150.0
 30
0.0
 11
75.0
 21
4200.0
 31
0.0
  0
LINE
  5
530
330
1F
100
AcDbEntity
  8
LAY-255
  6
CONTINUOUS
 62
     7
100
AcDbLine
 10
5775.0
 20
150.0
 30
0.0
 11
5775.0
 21
4200.0
 31
0.0
  0
LINE
  5
531
330
1F
100
AcDbEntity
  8
LAY-255
  6
CONTINUOUS
 62
     4
100
AcDbLine
 10
4275.0
 20
419.9999999999999
 30
0.0
 11
5775.000000000001
 21
419.9999999999999
 31
0.0
  0
LINE
  5
532
330
1F
100
AcDbEntity
  8
LAY-255
  6
CONTINUOUS
 62
     4
100
AcDbLine
 10
5025.0
 20
419.9999999999999
 30
0.0
 11
5025.0
 21
330.0
 31
0.0
  0
LINE
  5
533
330
1F
100
AcDbEntity
  8
LAY-255
  6
CONTINUOUS
 62
     7
100
AcDbLine
 10
5775.000000000001
 20
1080.0
 30
0.0
 11
4275.0
 21
1080.0
 31
0.0
  0
LINE
  5
534
330
1F
100
AcDbEntity
  8
LAY-255
  6
CONTINUOUS
 62
     4
100
AcDbLine
 10
5745.0
 20
900.0
 30
0.0
 11
4305.0
 21
900.0
 31
0.0
  0
LINE
  5
535
330
1F
100
AcDbEntity
  8
LAY-255
  6
CONTINUOUS
 62
     4
100
AcDbLine
 10
5745.0
 20
990.0
 30
0.0
 11
4305.0
 21
990.0
 31
0.0
  0
LINE
  5
536
330
1F
100
AcDbEntity
  8
LAY-255
  6
CONTINUOUS
 62
     7
100
AcDbLine
 10
4275.0
 20
150.0
 30
0.0
 11
4275.0
 21
1080.0
 31
0.0
  0
TEXT
  5
537
330
1F
100
AcDbEntity
  8
LAY-255
  6
CONTINUOUS
 62
     7
100
AcDbText
 10
4410.515625
 20
205.7812489271164
 30
0.0
 40
77.34374344348907
  1
S
 41
0.758267820642796
  7
EXCADSTD
100
AcDbText
  0
TEXT
  5
538
330
1F
100
AcDbEntity
  8
LAY-255
  6
CONTINUOUS
 62
     7
100
AcDbText
 10
4456.5703125
 20
206.2411545875164
 30
0.0
 40
77.34374344348907
  1
F
 41
0.7440945903504073
  7
EXCADSTD
100
AcDbText
  0
TEXT
  5
539
330
1F
100
AcDbEntity
  8
LAY-255
  6
CONTINUOUS
 62
     7
100
AcDbText
 10
4622.07565899414
 20
233.1562489271164
 30
0.0
 40
77.34374344348907
  1
福西鋳物株式会社
 41
1.342685606041486
  7
EXCADSTD
100
AcDbText
  0
TEXT
  5
53A
330
1F
100
AcDbEntity
  8
LAY-255
  6
CONTINUOUS
 62
     7
100
AcDbText
 10
4627.640625
 20
179.7187497317791
 30
0.0
 40
25.78124836087227
  1
ＦＵＫＵＮＩＳＨＩ
 41
1.20479930264434
  7
EXCADSTD
100
AcDbText
  0
TEXT
  5
53B
330
1F
100
AcDbEntity
  8
LAY-255
  6
CONTINUOUS
 62
     7
100
AcDbText
 10
4990.561941964285
 20
179.7187497317791
 30
0.0
 40
25.78124836087227
  1
ＦＯＵＮＤＲＹ
 41
1.217207032468842
  7
EXCADSTD
100
AcDbText
  0
TEXT
  5
53C
330
1F
100
AcDbEntity
  8
LAY-255
  6
CONTINUOUS
 62
     7
100
AcDbText
 10
5278.867225060096
 20
179.7187497317791
 30
0.0
 40
25.78124836087227
  1
ＣＯ.,ＬＴＤ.
 41
1.097167869545995
  7
EXCADSTD
100
AcDbText
  0
POINT
  5
53D
330
1F
100
AcDbEntity
  8
LAY-255
  6
CONTINUOUS
 62
     7
100
AcDbPoint
 10
4335.0
 20
600.0
 30
0.0
  0
POINT
  5
53E
330
1F
100
AcDbEntity
  8
LAY-255
  6
CONTINUOUS
 62
     7
100
AcDbPoint
 10
4335.0
 20
525.0
 30
0.0
  0
POINT
  5
53F
330
1F
100
AcDbEntity
  8
LAY-255
  6
CONTINUOUS
 62
     7
100
AcDbPoint
 10
4335.0
 20
450.0
 30
0.0
  0
POINT
  5
540
330
1F
100
AcDbEntity
  8
LAY-255
  6
CONTINUOUS
 62
     7
100
AcDbPoint
 10
4335.0
 20
675.0
 30
0.0
  0
TEXT
  5
541
330
1F
100
AcDbEntity
  8
LAY-255
  6
CONTINUOUS
 62
     7
100
AcDbText
 10
4338.28125
 20
458.4374994635582
 30
0.0
 40
51.56249672174454
  1
割数：４枚割
 41
1.026877769133284
  7
EXCADSTD
100
AcDbText
  0
TEXT
  5
542
330
1F
100
AcDbEntity
  8
LAY-255
  6
CONTINUOUS
 62
     7
100
AcDbText
 10
4308.984375
 20
923.4374994635582
 30
0.0
 40
51.56249672174454
  1
型式
 41
1.05634854784265
  7
EXCADSTD
100
AcDbText
  0
TEXT
  5
543
330
1F
100
AcDbEntity
  8
LAY-255
  6
CONTINUOUS
 62
     7
100
AcDbText
 10
4311.328125
 20
1013.437499463558
 30
0.0
 40
51.56249672174454
  1
品名
 41
0.9788386963237974
  7
EXCADSTD
100
AcDbText
  0
POINT
  5
544
330
1F
100
AcDbEntity
  8
LAY-255
  6
CONTINUOUS
 62
     7
100
AcDbPoint
 10
4500.0
 20
915.0
 30
0.0
  0
POINT
  5
545
330
1F
100
AcDbEntity
  8
LAY-255
  6
CONTINUOUS
 62
     7
100
AcDbPoint
 10
4500.0
 20
1005.0
 30
0.0
  0
TEXT
  5
546
330
1F
100
AcDbEntity
  8
LAY-255
  6
CONTINUOUS
 62
     7
100
AcDbText
 10
4503.75
 20
1013.437499463558
 30
0.0
 40
51.56249672174454
  1
化粧用グリーンメイト（樹木保護蓋）
 41
0.9764041390197047
  7
EXCADSTD
100
AcDbText
  0
POINT
  5
547
330
1F
100
AcDbEntity
  8
LAY-255
  6
CONTINUOUS
 62
     7
100
AcDbPoint
 10
4335.0
 20
825.0
 30
0.0
  0
TEXT
  5
548
330
1F
100
AcDbEntity
  8
LAY-255
  6
CONTINUOUS
 62
     7
100
AcDbText
 10
4339.6875
 20
833.4374994635583
 30
0.0
 40
51.56249672174454
  1
ステンレス製
 41
1.022789337404817
  7
EXCADSTD
100
AcDbText
  0
POINT
  5
549
330
1F
100
AcDbEntity
  8
LAY-255
  6
CONTINUOUS
 62
     7
100
AcDbPoint
 10
4335.0
 20
750.0
 30
0.0
  0
TEXT
  5
54A
330
1F
100
AcDbEntity
  8
LAY-255
  6
CONTINUOUS
 62
     7
100
AcDbText
 10
4338.046875
 20
608.4374994635583
 30
0.0
 40
51.56249672174454
  1
外径：□１１９４
 41
1.001743648364471
  7
EXCADSTD
100
AcDbText
  0
TEXT
  5
54B
330
1F
100
AcDbEntity
  8
LAY-255
  6
CONTINUOUS
 62
     7
100
AcDbText
 10
4341.796875
 20
533.4374994635582
 30
0.0
 40
51.56249672174454
  1
内径：□４００
 41
0.992126099441315
  7
EXCADSTD
100
AcDbText
  0
TEXT
  5
54C
330
1F
100
AcDbEntity
  8
LAY-255
  6
CONTINUOUS
 62
     7
100
AcDbText
 10
4338.046875
 20
683.4374994635583
 30
0.0
 40
51.56249672174454
  1
適用荷重：Ｔ－２
 41
1.000225088008183
  7
EXCADSTD
100
AcDbText
  0
TEXT
  5
54D
330
1F
100
AcDbEntity
  8
LAY-255
  6
CONTINUOUS
 62
     7
100
AcDbText
 10
4510.3125
 20
923.4374994635582
 30
0.0
 40
51.56249672174454
  1
ＧＭＳ－ＳＵＮＢ－１２４０型
 41
1.006127879070527
  7
EXCADSTD
100
AcDbText
  0
TEXT
  5
54E
330
1F
100
AcDbEntity
  8
LAY-255
  6
CONTINUOUS
 62
     7
100
AcDbText
 10
4346.71875
 20
758.4374994635583
 30
0.0
 40
51.56249672174454
  1
目地隠し施工用
 41
0.9950304498495156
  7
EXCADSTD
100
AcDbText
  0
TEXT
  5
54F
330
1F
100
AcDbEntity
  8
LAY-255
  6
CONTINUOUS
 62
     7
100
AcDbText
 10
4514.765625
 20
353.437499463558
 30
0.0
 40
51.56249672174454
  1
２０／０４／２３
 41
0.973397188380433
  7
EXCADSTD
100
AcDbText
  0
TEXT
  5
550
330
1F
100
AcDbEntity
  8
LAY-255
  6
CONTINUOUS
 62
     7
100
AcDbText
 10
4307.28515625
 20
366.328124463558
 30
0.0
 40
38.67187172174454
  1
作成日
 41
1.000630058642643
  7
EXCADSTD
100
AcDbText
  0
TEXT
  5
551
330
1F
100
AcDbEntity
  8
LAY-255
  6
CONTINUOUS
 62
     7
100
AcDbText
 10
5056.58203125
 20
366.328124463558
 30
0.0
 40
38.67187172174454
  1
縮尺
 41
1.080708809794639
  7
EXCADSTD
100
AcDbText
  0
TEXT
  5
552
330
1F
100
AcDbEntity
  8
LAY-255
  6
CONTINUOUS
 62
     7
100
AcDbText
 10
5224.21875
 20
353.437499463558
 30
0.0
 40
51.56249672174454
  1
１：１５
 41
0.9202178002171021
  7
EXCADSTD
100
AcDbText
  0
ENDSEC
  0
SECTION
  2
OBJECTS
  0
DICTIONARY
  5
C
330
0
100
AcDbDictionary
  3
ACAD_GROUP
350
D
  3
ACAD_LAYOUT
350
1A
  3
ACAD_MATERIAL
350
43
  3
ACAD_MLEADERSTYLE
350
6B
  3
ACAD_MLINESTYLE
350
17
  3
ACAD_PLOTSETTINGS
350
19
  3
ACAD_SCALELIST
350
47
  3
ACAD_VISUALSTYLE
350
2A
  3
ACDBHEADERROUNDTRIPXREC
350
553
  3
ACDBVARIABLEDICTIONARY
350
574
  0
DICTIONARY
  5
57F
330
8
100
AcDbDictionary
280
     1
  3
ACAD_XREC_ROUNDTRIP
360
580
  0
DICTIONARY
  5
D
102
{ACAD_REACTORS
330
C
102
}
330
C
100
AcDbDictionary
  0
DICTIONARY
  5
1A
102
{ACAD_REACTORS
330
C
102
}
330
C
100
AcDbDictionary
  0
DICTIONARY
  5
43
102
{ACAD_REACTORS
330
C
102
}
330
C
100
AcDbDictionary
  3
BYBLOCK
350
45
  3
BYLAYER
350
44
  3
GLOBAL
350
46
  0
DICTIONARY
  5
6B
102
{ACAD_REACTORS
330
C
102
}
330
C
100
AcDbDictionary
  3
STANDARD
350
6C
  0
DICTIONARY
  5
17
102
{ACAD_REACTORS
330
C
102
}
330
C
100
AcDbDictionary
  3
STANDARD
350
18
  0
DICTIONARY
  5
19
102
{ACAD_REACTORS
330
C
102
}
330
C
100
AcDbDictionary
  0
DICTIONARY
  5
47
102
{ACAD_REACTORS
330
C
102
}
330
C
100
AcDbDictionary
  3
A0
350
48
  3
A1
350
49
  3
A2
350
4A
  3
A3
350
4B
  3
A4
350
4C
  3
A5
350
4D
  3
A6
350
4E
  3
A7
350
4F
  3
A8
350
50
  3
A9
350
51
  3
B0
350
52
  3
B1
350
53
  3
B2
350
54
  3
B3
350
55
  3
B4
350
56
  3
B5
350
57
  3
B6
350
58
  3
B7
350
59
  3
B8
350
5A
  3
B9
350
5B
  3
C0
350
5C
  3
C1
350
5D
  3
C2
350
5E
  3
C3
350
5F
  3
C4
350
60
  3
C5
350
61
  3
C6
350
62
  3
C7
350
63
  3
C8
350
64
  3
C9
350
65
  3
D0
350
66
  3
D1
350
67
  3
D2
350
68
  0
DICTIONARY
  5
2A
102
{ACAD_REACTORS
330
C
102
}
330
C
100
AcDbDictionary
  3
2DWIREFRAME
350
2F
  3
BASIC
350
32
  3
BRIGHTEN
350
36
  3
COLORCHANGE
350
3A
  3
CONCEPTUAL
350
34
  3
DIM
350
35
  3
EDGECOLOROFF
350
3D
  3
FACEPATTERN
350
39
  3
FLAT
350
2B
  3
FLATWITHEDGES
350
2C
  3
GOURAUD
350
2D
  3
GOURAUDWITHEDGES
350
2E
  3
HIDDEN
350
31
  3
JITTEROFF
350
3B
  3
LINEPATTERN
350
38
  3
OVERHANGOFF
350
3C
  3
REALISTIC
350
33
  3
SHADED
350
42
  3
SHADED_WITH_EDGES
350
41
  3
SHADES_OF_GRAY
350
3E
  3
SKETCHY
350
3F
  3
THICKEN
350
37
  3
WIREFRAME
350
30
  3
X-RAY
350
40
  0
DICTIONARY
  5
553
102
{ACAD_REACTORS
330
C
102
}
330
C
100
AcDbDictionary
  3
CEPSNID
350
55D
  3
CEPSNTYPE
350
55C
  3
DIMSTYLEDATA
350
573
  3
FINGERPRINTGUID
350
55E
  3
HYPERLINKBASE
350
556
  3
INSUNITS
350
55B
  3
LAYOUTDICT
350
558
  3
LWETCUNION
350
55A
  3
PLOTSETDICT
350
559
  3
PSVPSCALE
350
560
  3
PUCSBASE
350
563
  3
PUCSORGBACK
350
569
  3
PUCSORGBOTTOM
350
565
  3
PUCSORGFRONT
350
568
  3
PUCSORGLEFT
350
566
  3
PUCSORGRIGHT
350
567
  3
PUCSORGTOP
350
564
  3
PUCSORTHOREF
350
561
  3
PUCSORTHOVIEW
350
562
  3
STYLESHEET
350
557
  3
TSTACKALIGN
350
554
  3
TSTACKSIZE
350
555
  3
UCSBASE
350
56C
  3
UCSORGBACK
350
572
  3
UCSORGBOTTOM
350
56E
  3
UCSORGFRONT
350
571
  3
UCSORGLEFT
350
56F
  3
UCSORGRIGHT
350
570
  3
UCSORGTOP
350
56D
  3
UCSORTHOREF
350
56A
  3
UCSORTHOVIEW
350
56B
  3
VERSIONGUID
350
55F
  0
DICTIONARY
  5
574
102
{ACAD_REACTORS
330
C
102
}
330
C
100
AcDbDictionary
  3
CANNOSCALE
350
581
  3
CENTEREXE
350
57B
  3
CENTERLTYPEFILE
350
57C
  3
CMLEADERSTYLE
350
576
  3
CTABLESTYLE
350
575
  3
DIMASSOC
350
57D
  3
HIDETEXT
350
57E
  3
MSLTSCALE
350
582
  3
PSOLHEIGHT
350
578
  3
PSOLWIDTH
350
577
  0
XRECORD
  5
580
102
{ACAD_REACTORS
330
57F
102
}
330
57F
100
AcDbXrecord
102
VTR_0.000_0.000_1.000_1.000_VISUALSTYLE
340
2F
102
VTR_0.000_0.000_1.000_1.000_GRIDDISPLAY
 70
     3
102
VTR_0.000_0.000_1.000_1.000_GRIDMAJOR
 70
     5
102
VTR_0.000_0.000_1.000_1.000_DEFAULTLIGHTING
280
     1
102
VTR_0.000_0.000_1.000_1.000_DEFAULTLIGHTINGTYPE
 70
     1
102
VTR_0.000_0.000_1.000_1.000_BRIGHTNESS
141
0.0
102
VTR_0.000_0.000_1.000_1.000_CONTRAST
142
0.0
  0
MATERIAL
  5
45
102
{ACAD_REACTORS
330
43
102
}
102
{ACAD_XDICTIONARY
360
585
102
}
330
43
100
AcDbMaterial
  1
BYBLOCK
  0
MATERIAL
  5
44
102
{ACAD_REACTORS
330
43
102
}
102
{ACAD_XDICTIONARY
360
583
102
}
330
43
100
AcDbMaterial
  1
BYLAYER
  0
MATERIAL
  5
46
102
{ACAD_REACTORS
330
43
102
}
102
{ACAD_XDICTIONARY
360
587
102
}
330
43
100
AcDbMaterial
  1
GLOBAL
  0
ACAD_PROXY_OBJECT
  5
6C
102
{ACAD_REACTORS
330
6B
102
}
330
6B
100
AcDbProxyObject
 90
      499
 91
      505
 93
      610
310
40901902A4063FBFFFFFE0000000000000020400000000000020404214DD185B99185C990000000000000104090141901A00000000000004100000000000000041025764000000000000039000
340
14
340
0
340
11
340
0
 94
        0
1001
ACAD_MLEADERVER
1070
     2
  0
MLINESTYLE
  5
18
102
{ACAD_REACTORS
330
17
102
}
330
17
100
AcDbMlineStyle
  2
Standard
 70
     0
  3

 62
   256
 51
90.0
 52
90.0
 71
     2
 49
0.5
 62
   256
  6
BYLAYER
 49
-0.5
 62
   256
  6
BYLAYER
  0
ACAD_PROXY_OBJECT
  5
48
102
{ACAD_REACTORS
330
47
102
}
330
47
100
AcDbProxyObject
 90
      499
 91
      503
 93
       41
310
903313A31580
  0
ACAD_PROXY_OBJECT
  5
49
102
{ACAD_REACTORS
330
47
102
}
330
47
100
AcDbProxyObject
 90
      499
 91
      503
 93
      105
310
903313A324000000000000004000
  0
ACAD_PROXY_OBJECT
  5
4A
102
{ACAD_REACTORS
330
47
102
}
330
47
100
AcDbProxyObject
 90
      499
 91
      503
 93
      105
310
903313A344000000000000104000
  0
ACAD_PROXY_OBJECT
  5
4B
102
{ACAD_REACTORS
330
47
102
}
330
47
100
AcDbProxyObject
 90
      499
 91
      503
 93
      105
310
903313A354000000000000144000
  0
ACAD_PROXY_OBJECT
  5
4C
102
{ACAD_REACTORS
330
47
102
}
330
47
100
AcDbProxyObject
 90
      499
 91
      503
 93
      105
310
903313A384000000000000204000
  0
ACAD_PROXY_OBJECT
  5
4D
102
{ACAD_REACTORS
330
47
102
}
330
47
100
AcDbProxyObject
 90
      499
 91
      503
 93
      113
310
904313A31304000000000000244000
  0
ACAD_PROXY_OBJECT
  5
4E
102
{ACAD_REACTORS
330
47
102
}
330
47
100
AcDbProxyObject
 90
      499
 91
      503
 93
      113
310
904313A31364000000000000304000
  0
ACAD_PROXY_OBJECT
  5
4F
102
{ACAD_REACTORS
330
47
102
}
330
47
100
AcDbProxyObject
 90
      499
 91
      503
 93
      113
310
904313A32304000000000000344000
  0
ACAD_PROXY_OBJECT
  5
50
102
{ACAD_REACTORS
330
47
102
}
330
47
100
AcDbProxyObject
 90
      499
 91
      503
 93
      113
310
904313A333040000000000003E4000
  0
ACAD_PROXY_OBJECT
  5
51
102
{ACAD_REACTORS
330
47
102
}
330
47
100
AcDbProxyObject
 90
      499
 91
      503
 93
      113
310
904313A34304000000000000444000
  0
ACAD_PROXY_OBJECT
  5
52
102
{ACAD_REACTORS
330
47
102
}
330
47
100
AcDbProxyObject
 90
      499
 91
      503
 93
      113
310
904313A35304000000000000494000
  0
ACAD_PROXY_OBJECT
  5
53
102
{ACAD_REACTORS
330
47
102
}
330
47
100
AcDbProxyObject
 90
      499
 91
      503
 93
      121
310
905313A3130304000000000000594000
  0
ACAD_PROXY_OBJECT
  5
54
102
{ACAD_REACTORS
330
47
102
}
330
47
100
AcDbProxyObject
 90
      499
 91
      503
 93
      105
310
903323A310000000000000010100
  0
ACAD_PROXY_OBJECT
  5
55
102
{ACAD_REACTORS
330
47
102
}
330
47
100
AcDbProxyObject
 90
      499
 91
      503
 93
      105
310
903343A310000000000000410100
  0
ACAD_PROXY_OBJECT
  5
56
102
{ACAD_REACTORS
330
47
102
}
330
47
100
AcDbProxyObject
 90
      499
 91
      503
 93
      105
310
903383A310000000000000810100
  0
ACAD_PROXY_OBJECT
  5
57
102
{ACAD_REACTORS
330
47
102
}
330
47
100
AcDbProxyObject
 90
      499
 91
      503
 93
      113
310
90431303A310000000000000910100
  0
ACAD_PROXY_OBJECT
  5
58
102
{ACAD_REACTORS
330
47
102
}
330
47
100
AcDbProxyObject
 90
      499
 91
      503
 93
      121
310
9053130303A310000000000001650100
  0
ACAD_PROXY_OBJECT
  5
59
102
{ACAD_REACTORS
330
47
102
}
330
47
100
AcDbProxyObject
 90
      499
 91
      503
 93
      257
310
90E312F31323822203D2031272D3022000000000000200FC000000000000284000
  0
ACAD_PROXY_OBJECT
  5
5A
102
{ACAD_REACTORS
330
47
102
}
330
47
100
AcDbProxyObject
 90
      499
 91
      503
 93
      249
310
90D312F363422203D2031272D3022000000000000240FC000000000000284000
  0
ACAD_PROXY_OBJECT
  5
5B
102
{ACAD_REACTORS
330
47
102
}
330
47
100
AcDbProxyObject
 90
      499
 91
      503
 93
      249
310
90D312F333222203D2031272D3022000000000000280FC000000000000284000
  0
ACAD_PROXY_OBJECT
  5
5C
102
{ACAD_REACTORS
330
47
102
}
330
47
100
AcDbProxyObject
 90
      499
 91
      503
 93
      249
310
90D312F313622203D2031272D30220000000000002C0FC000000000000284000
  0
ACAD_PROXY_OBJECT
  5
5D
102
{ACAD_REACTORS
330
47
102
}
330
47
100
AcDbProxyObject
 90
      499
 91
      503
 93
      249
310
90D332F333222203D2031272D30220000000000002E0FC000000000000284000
  0
ACAD_PROXY_OBJECT
  5
5E
102
{ACAD_REACTORS
330
47
102
}
330
47
100
AcDbProxyObject
 90
      499
 91
      503
 93
      241
310
90C312F3822203D2031272D3022000000000000300FC000000000000284000
  0
ACAD_PROXY_OBJECT
  5
5F
102
{ACAD_REACTORS
330
47
102
}
330
47
100
AcDbProxyObject
 90
      499
 91
      503
 93
      249
310
90D332F313622203D2031272D3022000000000000320FC000000000000284000
  0
ACAD_PROXY_OBJECT
  5
60
102
{ACAD_REACTORS
330
47
102
}
330
47
100
AcDbProxyObject
 90
      499
 91
      503
 93
      241
310
90C312F3422203D2031272D3022000000000000340FC000000000000284000
  0
ACAD_PROXY_OBJECT
  5
61
102
{ACAD_REACTORS
330
47
102
}
330
47
100
AcDbProxyObject
 90
      499
 91
      503
 93
      241
310
90C332F3822203D2031272D3022000000000000360FC000000000000284000
  0
ACAD_PROXY_OBJECT
  5
62
102
{ACAD_REACTORS
330
47
102
}
330
47
100
AcDbProxyObject
 90
      499
 91
      503
 93
      241
310
90C312F3222203D2031272D3022000000000000380FC000000000000284000
  0
ACAD_PROXY_OBJECT
  5
63
102
{ACAD_REACTORS
330
47
102
}
330
47
100
AcDbProxyObject
 90
      499
 91
      503
 93
      241
310
90C332F3422203D2031272D30220000000000003A0FC000000000000284000
  0
ACAD_PROXY_OBJECT
  5
64
102
{ACAD_REACTORS
330
47
102
}
330
47
100
AcDbProxyObject
 90
      499
 91
      503
 93
      161
310
90A3122203D2031272D30224000000000000284000
  0
ACAD_PROXY_OBJECT
  5
65
102
{ACAD_REACTORS
330
47
102
}
330
47
100
AcDbProxyObject
 90
      499
 91
      503
 93
      257
310
90E312D312F3222203D2031272D30220000000000003E0FC000000000000284000
  0
ACAD_PROXY_OBJECT
  5
66
102
{ACAD_REACTORS
330
47
102
}
330
47
100
AcDbProxyObject
 90
      499
 91
      503
 93
      225
310
90A3322203D2031272D302200000000000002100000000000000284000
  0
ACAD_PROXY_OBJECT
  5
67
102
{ACAD_REACTORS
330
47
102
}
330
47
100
AcDbProxyObject
 90
      499
 91
      503
 93
      225
310
90A3622203D2031272D302200000000000006100000000000000284000
  0
ACAD_PROXY_OBJECT
  5
68
102
{ACAD_REACTORS
330
47
102
}
330
47
100
AcDbProxyObject
 90
      499
 91
      503
 93
      249
310
90D31272D3022203D2031272D30220000000000000A100000000000000284000
  0
ACAD_PROXY_OBJECT
  5
2F
102
{ACAD_REACTORS
330
2A
102
}
330
2A
100
AcDbProxyObject
 90
      499
 91
      501
 93
      436
310
42CC9915DA5C99599C985B595049028333333333333E33F0000000000000F90107901411070040501600405405064090741402480A0340
1001
ACAD
1000
AcDbSavedByObjectVersion
1070
     0
  0
ACAD_PROXY_OBJECT
  5
32
102
{ACAD_REACTORS
330
2A
102
}
330
2A
100
AcDbProxyObject
 90
      499
 91
      501
 93
      388
310
4150985CDA58D07406404333333333333E33F0000000000000F90107A41107004050150841D405064090741402480A0350
1001
ACAD
1000
AcDbSavedByObjectVersion
1070
     0
  0
ACAD_PROXY_OBJECT
  5
36
102
{ACAD_REACTORS
330
2A
102
}
330
2A
100
AcDbProxyObject
 90
      499
 91
      501
 93
      428
310
42109C9A59DA1D195B90C409028333333333333E33F0000000000000F9010790141107004050150841D405064090741402480A029950
1001
ACAD
1000
AcDbSavedByObjectVersion
1070
     0
  0
ACAD_PROXY_OBJECT
  5
3A
102
{ACAD_REACTORS
330
2A
102
}
330
2A
100
AcDbProxyObject
 90
      499
 91
      501
 93
      452
310
42D0DBDB1BDC90DA185B99D95104090240C333333333333E33F0000000000000F90108901411070040501508421405064090741402480A0350
1001
ACAD
1000
AcDbSavedByObjectVersion
1070
     0
  0
ACAD_PROXY_OBJECT
  5
34
102
{ACAD_REACTORS
330
2A
102
}
330
2A
100
AcDbProxyObject
 90
      499
 91
      501
 93
      500
310
4290DBDB98D95C1D1D585B10940D028333333333333E33F0000000000000F90107902409070040501000000000018199010841D405064090740C02480A0340
1001
ACAD
1000
AcDbSavedByObjectVersion
1070
     0
  0
ACAD_PROXY_OBJECT
  5
35
102
{ACAD_REACTORS
330
2A
102
}
330
2A
100
AcDbProxyObject
 90
      499
 91
      501
 93
      412
310
40D11A5B50B409028333333333333E33F0000000000000F9010790141107004050150841D405064090741402480A02677FFFFFD0
1001
ACAD
1000
AcDbSavedByObjectVersion
1070
     0
  0
ACAD_PROXY_OBJECT
  5
3D
102
{ACAD_REACTORS
330
2A
102
}
330
2A
100
AcDbProxyObject
 90
      499
 91
      501
 93
      452
310
43115919D950DBDB1BDC93D999916409028333333333333E33F0000000000000F9010790141107004050150841D405064090741402480A0350
1001
ACAD
1000
AcDbSavedByObjectVersion
1070
     0
  0
ACAD_PROXY_OBJECT
  5
39
102
{ACAD_REACTORS
330
2A
102
}
330
2A
100
AcDbProxyObject
 90
      499
 91
      501
 93
      444
310
42D19858D95C185D1D195C9B90F409028333333333333E33F0000000000000F9010790141107004050150841D405064090741402480A0350
1001
ACAD
1000
AcDbSavedByObjectVersion
1070
     0
  0
ACAD_PROXY_OBJECT
  5
2B
102
{ACAD_REACTORS
330
2A
102
}
330
2A
100
AcDbProxyObject
 90
      499
 91
      501
 93
      380
310
41119B185D240901404333333333333E33F0000000000000F9010740A907004050150841D405064090741402480A1B50
1001
ACAD
1000
AcDbSavedByObjectVersion
1070
     0
  0
ACAD_PROXY_OBJECT
  5
2C
102
{ACAD_REACTORS
330
2A
102
}
330
2A
100
AcDbProxyObject
 90
      499
 91
      501
 93
      468
310
43519B185D15DA5D1A115919D95CD0140901404333333333333E33F0000000000000F90107409019070040501600405405064090741402480A1B50
1001
ACAD
1000
AcDbSavedByObjectVersion
1070
     0
  0
ACAD_PROXY_OBJECT
  5
2D
102
{ACAD_REACTORS
330
2A
102
}
330
2A
100
AcDbProxyObject
 90
      499
 91
      501
 93
      404
310
41D1DBDD5C985D5910240902404333333333333E33F0000000000000F9010740A9070040501641D405064090741402480A1B50
1001
ACAD
1000
AcDbSavedByObjectVersion
1070
     0
  0
ACAD_PROXY_OBJECT
  5
2E
102
{ACAD_REACTORS
330
2A
102
}
330
2A
100
AcDbProxyObject
 90
      499
 91
      501
 93
      492
310
4411DBDD5C985D5915DA5D1A115919D95CD0340902404333333333333E33F0000000000000F90107409019070040501600405405064090741402480A1B50
1001
ACAD
1000
AcDbSavedByObjectVersion
1070
     0
  0
ACAD_PROXY_OBJECT
  5
31
102
{ACAD_REACTORS
330
2A
102
}
330
2A
100
AcDbProxyObject
 90
      499
 91
      501
 93
      476
310
41921A5919195B90640502408333333333333E33F0000000000000F901079024090700405020000000000001110200405405064090740C02480A0340
1001
ACAD
1000
AcDbSavedByObjectVersion
1070
     0
  0
ACAD_PROXY_OBJECT
  5
3B
102
{ACAD_REACTORS
330
2A
102
}
330
2A
100
AcDbProxyObject
 90
      499
 91
      501
 93
      428
310
42529A5D1D195C93D999914409028333333333333E33F0000000000000F9010790141107004050150A41D405064090741402480A0350
1001
ACAD
1000
AcDbSavedByObjectVersion
1070
     0
  0
ACAD_PROXY_OBJECT
  5
38
102
{ACAD_REACTORS
330
2A
102
}
330
2A
100
AcDbProxyObject
 90
      499
 91
      501
 93
      444
310
42D31A5B995C185D1D195C9B90E409028333333333333E33F0000000000000F9010790141107004050750841D405064090741402483A0350
1001
ACAD
1000
AcDbSavedByObjectVersion
1070
     0
  0
ACAD_PROXY_OBJECT
  5
3C
102
{ACAD_REACTORS
330
2A
102
}
330
2A
100
AcDbProxyObject
 90
      499
 91
      501
 93
      444
310
42D3DD995C9A185B99D3D999915409028333333333333E33F0000000000000F9010790141107004050150941D405064090741402480A0350
1001
ACAD
1000
AcDbSavedByObjectVersion
1070
     0
  0
ACAD_PROXY_OBJECT
  5
33
102
{ACAD_REACTORS
330
2A
102
}
330
2A
100
AcDbProxyObject
 90
      499
 91
      501
 93
      428
310
425499585B1A5CDD1A58D08409038333333333333E33F0000000000000F9010740A907004050150800405405064090740C02480A1B40
1001
ACAD
1000
AcDbSavedByObjectVersion
1070
     0
  0
ACAD_PROXY_OBJECT
  5
42
102
{ACAD_REACTORS
330
2A
102
}
330
2A
100
AcDbProxyObject
 90
      499
 91
      501
 93
      420
310
4194DA1859195911B40902404333333333333E33F0000000000000F9010740A41107004050150800405405064090840C02480A0B40
1001
ACAD
1000
AcDbSavedByObjectVersion
1070
     0
  0
ACAD_PROXY_OBJECT
  5
41
102
{ACAD_REACTORS
330
2A
102
}
330
2A
100
AcDbProxyObject
 90
      499
 91
      501
 93
      516
310
4454DA18591959081DDA5D1A08195919D95CD1A40902404333333333333E33F0000000000000F901074090142907004050250800405405064090740C02480A0B40
1001
ACAD
1000
AcDbSavedByObjectVersion
1070
     0
  0
ACAD_PROXY_OBJECT
  5
3E
102
{ACAD_REACTORS
330
2A
102
}
330
2A
100
AcDbProxyObject
 90
      499
 91
      501
 93
      532
310
4394DA1859195CC81BD98811DC985E5174090240C333333333333E33F0000000000000F901079024090741D01000000000000111010841D405064090740C02480A0340
1001
ACAD
1000
AcDbSavedByObjectVersion
1070
     0
  0
ACAD_PROXY_OBJECT
  5
3F
102
{ACAD_REACTORS
330
2A
102
}
330
2A
100
AcDbProxyObject
 90
      499
 91
      501
 93
      476
310
41D4DAD95D18DA1E51840502408333333333333E33F0000000000000F901079024090741D01000000000000111010B41D405064090741802480A0340
1001
ACAD
1000
AcDbSavedByObjectVersion
1070
     0
  0
ACAD_PROXY_OBJECT
  5
37
102
{ACAD_REACTORS
330
2A
102
}
330
2A
100
AcDbProxyObject
 90
      499
 91
      501
 93
      412
310
41D51A1A58DAD95B90D409028333333333333E33F0000000000000F9010790141107004050150C41D405064090741402480A0350
1001
ACAD
1000
AcDbSavedByObjectVersion
1070
     0
  0
ACAD_PROXY_OBJECT
  5
30
102
{ACAD_REACTORS
330
2A
102
}
330
2A
100
AcDbProxyObject
 90
      499
 91
      501
 93
      420
310
4255DA5C99599C985B595059028333333333333E33F0000000000000F90107901411070040501600405405064090740C02480A0340
1001
ACAD
1000
AcDbSavedByObjectVersion
1070
     0
  0
ACAD_PROXY_OBJECT
  5
40
102
{ACAD_REACTORS
330
2A
102
}
330
2A
100
AcDbProxyObject
 90
      499
 91
      501
 93
      404
310
41560B54985E51940902404000000000000E03F0000000000000F9010740501907004050150841D405064090740C02480A1B40
1001
ACAD
1000
AcDbSavedByObjectVersion
1070
     0
  0
XRECORD
  5
55D
102
{ACAD_REACTORS
330
553
102
}
330
553
100
AcDbXrecord
340
0
  0
XRECORD
  5
55C
102
{ACAD_REACTORS
330
553
102
}
330
553
100
AcDbXrecord
 90
        0
  0
XRECORD
  5
573
102
{ACAD_REACTORS
330
553
102
}
330
553
100
AcDbXrecord
1000
DSTYLE
1002
{
1070
   340
340
11
1002
}
  0
XRECORD
  5
55E
102
{ACAD_REACTORS
330
553
102
}
330
553
100
AcDbXrecord
  1
{d6ed4466-4d2d-44a6-b973-88781d0139ea}
  0
XRECORD
  5
556
102
{ACAD_REACTORS
330
553
102
}
330
553
100
AcDbXrecord
  1

  0
XRECORD
  5
55B
102
{ACAD_REACTORS
330
553
102
}
330
553
100
AcDbXrecord
 90
        4
  0
XRECORD
  5
558
102
{ACAD_REACTORS
330
553
102
}
330
553
100
AcDbXrecord
340
1A
  0
XRECORD
  5
55A
102
{ACAD_REACTORS
330
553
102
}
330
553
100
AcDbXrecord
 90
    10781
  0
XRECORD
  5
559
102
{ACAD_REACTORS
330
553
102
}
330
553
100
AcDbXrecord
340
19
  0
XRECORD
  5
560
102
{ACAD_REACTORS
330
553
102
}
330
553
100
AcDbXrecord
 40
0.0
  0
XRECORD
  5
563
102
{ACAD_REACTORS
330
553
102
}
330
553
100
AcDbXrecord
340
0
  0
XRECORD
  5
569
102
{ACAD_REACTORS
330
553
102
}
330
553
100
AcDbXrecord
 10
0.0
 20
0.0
 30
0.0
  0
XRECORD
  5
565
102
{ACAD_REACTORS
330
553
102
}
330
553
100
AcDbXrecord
 10
0.0
 20
0.0
 30
0.0
  0
XRECORD
  5
568
102
{ACAD_REACTORS
330
553
102
}
330
553
100
AcDbXrecord
 10
0.0
 20
0.0
 30
0.0
  0
XRECORD
  5
566
102
{ACAD_REACTORS
330
553
102
}
330
553
100
AcDbXrecord
 10
0.0
 20
0.0
 30
0.0
  0
XRECORD
  5
567
102
{ACAD_REACTORS
330
553
102
}
330
553
100
AcDbXrecord
 10
0.0
 20
0.0
 30
0.0
  0
XRECORD
  5
564
102
{ACAD_REACTORS
330
553
102
}
330
553
100
AcDbXrecord
 10
0.0
 20
0.0
 30
0.0
  0
XRECORD
  5
561
102
{ACAD_REACTORS
330
553
102
}
330
553
100
AcDbXrecord
340
0
  0
XRECORD
  5
562
102
{ACAD_REACTORS
330
553
102
}
330
553
100
AcDbXrecord
 70
     0
  0
XRECORD
  5
557
102
{ACAD_REACTORS
330
553
102
}
330
553
100
AcDbXrecord
  1

  0
XRECORD
  5
554
102
{ACAD_REACTORS
330
553
102
}
330
553
100
AcDbXrecord
 90
        1
  0
XRECORD
  5
555
102
{ACAD_REACTORS
330
553
102
}
330
553
100
AcDbXrecord
 90
       70
  0
XRECORD
  5
56C
102
{ACAD_REACTORS
330
553
102
}
330
553
100
AcDbXrecord
340
0
  0
XRECORD
  5
572
102
{ACAD_REACTORS
330
553
102
}
330
553
100
AcDbXrecord
 10
0.0
 20
0.0
 30
0.0
  0
XRECORD
  5
56E
102
{ACAD_REACTORS
330
553
102
}
330
553
100
AcDbXrecord
 10
0.0
 20
0.0
 30
0.0
  0
XRECORD
  5
571
102
{ACAD_REACTORS
330
553
102
}
330
553
100
AcDbXrecord
 10
0.0
 20
0.0
 30
0.0
  0
XRECORD
  5
56F
102
{ACAD_REACTORS
330
553
102
}
330
553
100
AcDbXrecord
 10
0.0
 20
0.0
 30
0.0
  0
XRECORD
  5
570
102
{ACAD_REACTORS
330
553
102
}
330
553
100
AcDbXrecord
 10
0.0
 20
0.0
 30
0.0
  0
XRECORD
  5
56D
102
{ACAD_REACTORS
330
553
102
}
330
553
100
AcDbXrecord
 10
0.0
 20
0.0
 30
0.0
  0
XRECORD
  5
56A
102
{ACAD_REACTORS
330
553
102
}
330
553
100
AcDbXrecord
340
0
  0
XRECORD
  5
56B
102
{ACAD_REACTORS
330
553
102
}
330
553
100
AcDbXrecord
 70
     0
  0
XRECORD
  5
55F
102
{ACAD_REACTORS
330
553
102
}
330
553
100
AcDbXrecord
  1
{FAEB1C32-E019-11D5-929B-00C0DF256EC4}
  0
DICTIONARYVAR
  5
581
102
{ACAD_REACTORS
330
574
102
}
330
574
100
DictionaryVariables
280
     0
  1
1:1
  0
DICTIONARYVAR
  5
57B
102
{ACAD_REACTORS
330
574
102
}
330
574
100
DictionaryVariables
280
     0
  1
3.500000
  0
DICTIONARYVAR
  5
57C
102
{ACAD_REACTORS
330
574
102
}
330
574
100
DictionaryVariables
280
     0
  1
acadiso.lin
  0
DICTIONARYVAR
  5
576
102
{ACAD_REACTORS
330
574
102
}
330
574
100
DictionaryVariables
280
     0
  1
Standard
  0
DICTIONARYVAR
  5
575
102
{ACAD_REACTORS
330
574
102
}
330
574
100
DictionaryVariables
280
     0
  1
Standard
  0
DICTIONARYVAR
  5
57D
102
{ACAD_REACTORS
330
574
102
}
330
574
100
DictionaryVariables
280
     0
  1
2
  0
DICTIONARYVAR
  5
57E
102
{ACAD_REACTORS
330
574
102
}
330
574
100
DictionaryVariables
280
     0
  1
1
  0
DICTIONARYVAR
  5
582
102
{ACAD_REACTORS
330
574
102
}
330
574
100
DictionaryVariables
280
     0
  1
1
  0
DICTIONARYVAR
  5
578
102
{ACAD_REACTORS
330
574
102
}
330
574
100
DictionaryVariables
280
     0
  1
80.000000
  0
DICTIONARYVAR
  5
577
102
{ACAD_REACTORS
330
574
102
}
330
574
100
DictionaryVariables
280
     0
  1
5.000000
  0
DICTIONARY
  5
585
330
45
100
AcDbDictionary
280
     1
  3
ACAD_XREC_ROUNDTRIP
360
586
  0
DICTIONARY
  5
583
330
44
100
AcDbDictionary
280
     1
  3
ACAD_XREC_ROUNDTRIP
360
584
  0
DICTIONARY
  5
587
330
46
100
AcDbDictionary
280
     1
  3
ACAD_XREC_ROUNDTRIP
360
588
  0
XRECORD
  5
586
102
{ACAD_REACTORS
330
585
102
}
330
585
100
AcDbXrecord
102
MATERIAL
148
0.0
149
0.0
149
0.0
 93
        0
 94
      127
282
     0
 72
     1
 77
     1
171
     1
175
     1
179
     1
273
     0
  0
XRECORD
  5
584
102
{ACAD_REACTORS
330
583
102
}
330
583
100
AcDbXrecord
102
MATERIAL
148
0.0
149
0.0
149
0.0
 93
        0
 94
      127
282
     0
 72
     1
 77
     1
171
     1
175
     1
179
     1
273
     0
  0
XRECORD
  5
588
102
{ACAD_REACTORS
330
587
102
}
330
587
100
AcDbXrecord
102
MATERIAL
148
0.0
149
0.0
149
0.0
 93
        0
 94
      127
282
     0
 72
     1
 77
     1
171
     1
175
     1
179
     1
273
     0
  0
ENDSEC
  0
EOF
