  0
SECTION
  2
HEADER
  9
$ACADVER
  1
AC1014
  9
$ACADMAINTVER
 70
     9
  9
$DWGCODEPAGE
  3
ANSI_932
  9
$INSBASE
 10
0.0
 20
0.0
 30
0.0
  9
$EXTMIN
 10
100.0
 20
200.0
 30
0.0
  9
$EXTMAX
 10
7700.000000000001
 20
5600.0
 30
0.0
  9
$LIMMIN
 10
0.0
 20
0.0
  9
$LIMMAX
 10
420.0
 20
297.0
  9
$ORTHOMODE
 70
     0
  9
$REGENMODE
 70
     1
  9
$FILLMODE
 70
     1
  9
$QTEXTMODE
 70
     0
  9
$MIRRTEXT
 70
     1
  9
$DRAGMODE
 70
     2
  9
$LTSCALE
 40
0.2
  9
$OSMODE
 70
    37
  9
$ATTMODE
 70
     1
  9
$TEXTSIZE
 40
2.5
  9
$TRACEWID
 40
1.0
  9
$TEXTSTYLE
  7
STANDARD
  9
$CLAYER
  8
LAY-10
  9
$CELTYPE
  6
BYLAYER
  9
$CECOLOR
 62
   256
  9
$CELTSCALE
 40
1.0
  9
$DELOBJ
 70
     1
  9
$DISPSILH
 70
     0
  9
$DIMSCALE
 40
1.0
  9
$DIMASZ
 40
2.5
  9
$DIMEXO
 40
0.625
  9
$DIMDLI
 40
3.75
  9
$DIMRND
 40
0.0
  9
$DIMDLE
 40
0.0
  9
$DIMEXE
 40
1.25
  9
$DIMTP
 40
0.0
  9
$DIMTM
 40
0.0
  9
$DIMTXT
 40
2.5
  9
$DIMCEN
 40
2.5
  9
$DIMTSZ
 40
0.0
  9
$DIMTOL
 70
     0
  9
$DIMLIM
 70
     0
  9
$DIMTIH
 70
     0
  9
$DIMTOH
 70
     0
  9
$DIMSE1
 70
     0
  9
$DIMSE2
 70
     0
  9
$DIMTAD
 70
     1
  9
$DIMZIN
 70
     8
  9
$DIMBLK
  1

  9
$DIMASO
 70
     1
  9
$DIMSHO
 70
     1
  9
$DIMPOST
  1

  9
$DIMAPOST
  1

  9
$DIMALT
 70
     0
  9
$DIMALTD
 70
     3
  9
$DIMALTF
 40
0.03937007874016
  9
$DIMLFAC
 40
1.0
  9
$DIMTOFL
 70
     1
  9
$DIMTVP
 40
0.0
  9
$DIMTIX
 70
     0
  9
$DIMSOXD
 70
     0
  9
$DIMSAH
 70
     0
  9
$DIMBLK1
  1

  9
$DIMBLK2
  1

  9
$DIMSTYLE
  2
ISO-25
  9
$DIMCLRD
 70
     0
  9
$DIMCLRE
 70
     0
  9
$DIMCLRT
 70
     0
  9
$DIMTFAC
 40
1.0
  9
$DIMGAP
 40
0.625
  9
$DIMJUST
 70
     0
  9
$DIMSD1
 70
     0
  9
$DIMSD2
 70
     0
  9
$DIMTOLJ
 70
     0
  9
$DIMTZIN
 70
     8
  9
$DIMALTZ
 70
     0
  9
$DIMALTTZ
 70
     0
  9
$DIMFIT
 70
     3
  9
$DIMUPT
 70
     0
  9
$DIMUNIT
 70
     2
  9
$DIMDEC
 70
     2
  9
$DIMTDEC
 70
     2
  9
$DIMALTU
 70
     2
  9
$DIMALTTD
 70
     3
  9
$DIMTXSTY
  7
STANDARD
  9
$DIMAUNIT
 70
     0
  9
$LUNITS
 70
     2
  9
$LUPREC
 70
     4
  9
$SKETCHINC
 40
1.0
  9
$FILLETRAD
 40
10.0
  9
$AUNITS
 70
     0
  9
$AUPREC
 70
     0
  9
$MENU
  1
.
  9
$ELEVATION
 40
0.0
  9
$PELEVATION
 40
0.0
  9
$THICKNESS
 40
0.0
  9
$LIMCHECK
 70
     0
  9
$CHAMFERA
 40
0.0
  9
$CHAMFERB
 40
0.0
  9
$CHAMFERC
 40
0.0
  9
$CHAMFERD
 40
0.0
  9
$SKPOLY
 70
     0
  9
$TDCREATE
 40
2459229.336105914
  9
$TDUPDATE
 40
2459229.336106366
  9
$TDINDWG
 40
0.0000000116
  9
$TDUSRTIMER
 40
0.0000000116
  9
$USRTIMER
 70
     1
  9
$ANGBASE
 50
0.0
  9
$ANGDIR
 70
     0
  9
$PDMODE
 70
     0
  9
$PDSIZE
 40
0.0
  9
$PLINEWID
 40
0.0
  9
$COORDS
 70
     1
  9
$SPLFRAME
 70
     0
  9
$SPLINETYPE
 70
     6
  9
$SPLINESEGS
 70
     8
  9
$ATTDIA
 70
     0
  9
$ATTREQ
 70
     1
  9
$HANDLING
 70
     1
  9
$HANDSEED
  5
431
  9
$SURFTAB1
 70
     6
  9
$SURFTAB2
 70
     6
  9
$SURFTYPE
 70
     6
  9
$SURFU
 70
     6
  9
$SURFV
 70
     6
  9
$UCSNAME
  2

  9
$UCSORG
 10
0.0
 20
0.0
 30
0.0
  9
$UCSXDIR
 10
1.0
 20
0.0
 30
0.0
  9
$UCSYDIR
 10
0.0
 20
1.0
 30
0.0
  9
$PUCSNAME
  2

  9
$PUCSORG
 10
0.0
 20
0.0
 30
0.0
  9
$PUCSXDIR
 10
1.0
 20
0.0
 30
0.0
  9
$PUCSYDIR
 10
0.0
 20
1.0
 30
0.0
  9
$USERI1
 70
     0
  9
$USERI2
 70
     0
  9
$USERI3
 70
     0
  9
$USERI4
 70
     0
  9
$USERI5
 70
     0
  9
$USERR1
 40
0.0
  9
$USERR2
 40
0.0
  9
$USERR3
 40
0.0
  9
$USERR4
 40
0.0
  9
$USERR5
 40
0.0
  9
$WORLDVIEW
 70
     1
  9
$SHADEDGE
 70
     3
  9
$SHADEDIF
 70
    70
  9
$TILEMODE
 70
     1
  9
$MAXACTVP
 70
    64
  9
$PINSBASE
 10
0.0
 20
0.0
 30
0.0
  9
$PLIMCHECK
 70
     0
  9
$PEXTMIN
 10
1.000000000000000E+20
 20
1.000000000000000E+20
 30
1.000000000000000E+20
  9
$PEXTMAX
 10
-1.000000000000000E+20
 20
-1.000000000000000E+20
 30
-1.000000000000000E+20
  9
$PLIMMIN
 10
0.0
 20
0.0
  9
$PLIMMAX
 10
420.0
 20
297.0
  9
$UNITMODE
 70
     0
  9
$VISRETAIN
 70
     1
  9
$PLINEGEN
 70
     0
  9
$PSLTSCALE
 70
     1
  9
$TREEDEPTH
 70
  3020
  9
$PICKSTYLE
 70
     1
  9
$CMLSTYLE
  2
STANDARD
  9
$CMLJUST
 70
     0
  9
$CMLSCALE
 40
20.0
  9
$PROXYGRAPHICS
 70
     1
  9
$MEASUREMENT
 70
     1
  0
ENDSEC
  0
SECTION
  2
CLASSES
  0
CLASS
  1
ACDBDICTIONARYWDFLT
  2
AcDbDictionaryWithDefault
  3
ObjectDBX Classes
 90
        0
280
     0
281
     0
  0
CLASS
  1
VISUALSTYLE
  2
AcDbVisualStyle
  3
ObjectDBX Classes
 90
     4095
280
     0
281
     0
  0
CLASS
  1
MATERIAL
  2
AcDbMaterial
  3
ObjectDBX Classes
 90
     1153
280
     0
281
     0
  0
CLASS
  1
SCALE
  2
AcDbScale
  3
ObjectDBX Classes
 90
     1153
280
     0
281
     0
  0
CLASS
  1
TABLESTYLE
  2
AcDbTableStyle
  3
ObjectDBX Classes
 90
     4095
280
     0
281
     0
  0
CLASS
  1
MLEADERSTYLE
  2
AcDbMLeaderStyle
  3
ACDB_MLEADERSTYLE_CLASS
 90
     4095
280
     0
281
     0
  0
CLASS
  1
SUN
  2
AcDbSun
  3
SCENEOE
 90
     1153
280
     0
281
     0
  0
CLASS
  1
DICTIONARYVAR
  2
AcDbDictionaryVar
  3
ObjectDBX Classes
 90
        0
280
     0
281
     0
  0
CLASS
  1
XRECORD
  2
AcDbXrecord
  3
ObjectDBX Classes
 90
        0
280
     0
281
     0
  0
CLASS
  1
LWPOLYLINE
  2
AcDbPolyline
  3
ObjectDBX Classes
 90
        0
280
     0
281
     1
  0
CLASS
  1
HATCH
  2
AcDbHatch
  3
ObjectDBX Classes
 90
        0
280
     0
281
     1
  0
CLASS
  1
ACDBPLACEHOLDER
  2
AcDbPlaceHolder
  3
ObjectDBX Classes
 90
        0
280
     0
281
     0
  0
CLASS
  1
LAYOUT
  2
AcDbLayout
  3
ObjectDBX Classes
 90
        0
280
     0
281
     0
  0
ENDSEC
  0
SECTION
  2
TABLES
  0
TABLE
  2
VPORT
  5
8
102
{ACAD_XDICTIONARY
360
426
102
}
330
0
100
AcDbSymbolTable
 70
     1
  0
VPORT
  5
29
330
8
100
AcDbSymbolTableRecord
100
AcDbViewportTableRecord
  2
*ACTIVE
 70
     0
 10
0.0
 20
0.0
 11
1.0
 21
1.0
 12
3900.0
 22
2900.0
 13
0.0
 23
0.0
 14
10.0
 24
10.0
 15
10.0
 25
10.0
 16
0.0
 26
0.0
 36
1.0
 17
0.0
 27
0.0
 37
0.0
 40
5400.0
 41
1.407407407407408
 42
50.0
 43
0.0
 44
0.0
 50
0.0
 51
0.0
 71
     0
 72
  1000
 73
     1
 74
     3
 75
     0
 76
     0
 77
     0
 78
     0
  0
ENDTAB
  0
TABLE
  2
LTYPE
  5
5
330
0
100
AcDbSymbolTable
 70
     6
  0
LTYPE
  5
14
330
5
100
AcDbSymbolTableRecord
100
AcDbLinetypeTableRecord
  2
BYBLOCK
 70
     0
  3

 72
    65
 73
     0
 40
0.0
  0
LTYPE
  5
15
330
5
100
AcDbSymbolTableRecord
100
AcDbLinetypeTableRecord
  2
BYLAYER
 70
     0
  3

 72
    65
 73
     0
 40
0.0
  0
LTYPE
  5
16
330
5
100
AcDbSymbolTableRecord
100
AcDbLinetypeTableRecord
  2
CONTINUOUS
 70
     0
  3
Solid line
 72
    65
 73
     0
 40
0.0
  0
LTYPE
  5
6E
330
5
100
AcDbSymbolTableRecord
100
AcDbLinetypeTableRecord
  2
HIDDEN
 70
     0
  3
Hidden __ __ __ __ __ __ __ __ __ __ __ __ __ __
 72
    65
 73
     2
 40
9.524999999999999
 49
6.35
 74
     0
 49
-3.175
 74
     0
  0
LTYPE
  5
6F
330
5
100
AcDbSymbolTableRecord
100
AcDbLinetypeTableRecord
  2
CENTER
 70
     0
  3
Center ____ _ ____ _ ____ _ ____ _ ____ _ ____
 72
    65
 73
     4
 40
50.8
 49
31.75
 74
     0
 49
-6.35
 74
     0
 49
6.35
 74
     0
 49
-6.35
 74
     0
  0
LTYPE
  5
70
330
5
100
AcDbSymbolTableRecord
100
AcDbLinetypeTableRecord
  2
PHANTOM
 70
     0
  3
Phantom ______  __  __  ______  __  __  ______ 
 72
    65
 73
     6
 40
63.50000000000001
 49
31.75
 74
     0
 49
-6.35
 74
     0
 49
6.35
 74
     0
 49
-6.35
 74
     0
 49
6.35
 74
     0
 49
-6.35
 74
     0
  0
LTYPE
  5
71
330
5
100
AcDbSymbolTableRecord
100
AcDbLinetypeTableRecord
  2
ACAD_ISO06W100
 70
     0
  3
ISO long-dash triple-dot ____ ... ____ ... ____
 72
    65
 73
     8
 40
36.0
 49
24.0
 74
     0
 49
-3.0
 74
     0
 49
0.0
 74
     0
 49
-3.0
 74
     0
 49
0.0
 74
     0
 49
-3.0
 74
     0
 49
0.0
 74
     0
 49
-3.0
 74
     0
  0
LTYPE
  5
72
330
5
100
AcDbSymbolTableRecord
100
AcDbLinetypeTableRecord
  2
ACAD_ISO15W100
 70
     0
  3
ISO double-dash triple-dot __ __ . . . __ __ . .
 72
    65
 73
    10
 40
39.0
 49
12.0
 74
     0
 49
-3.0
 74
     0
 49
12.0
 74
     0
 49
-3.0
 74
     0
 49
0.0
 74
     0
 49
-3.0
 74
     0
 49
0.0
 74
     0
 49
-3.0
 74
     0
 49
0.0
 74
     0
 49
-3.0
 74
     0
  0
ENDTAB
  0
TABLE
  2
LAYER
  5
2
330
0
100
AcDbSymbolTable
 70
     5
  0
LAYER
  5
10
330
2
100
AcDbSymbolTableRecord
100
AcDbLayerTableRecord
  2
0
 70
     0
 62
     7
  6
CONTINUOUS
  0
LAYER
  5
75
330
2
100
AcDbSymbolTableRecord
100
AcDbLayerTableRecord
  2
LAY-10
 70
     0
 62
     7
  6
CONTINUOUS
  0
LAYER
  5
76
330
2
100
AcDbSymbolTableRecord
100
AcDbLayerTableRecord
  2
LAY-20
 70
     0
 62
     7
  6
CONTINUOUS
  0
LAYER
  5
77
330
2
100
AcDbSymbolTableRecord
100
AcDbLayerTableRecord
  2
LAY-255
 70
     0
 62
     7
  6
CONTINUOUS
  0
LAYER
  5
37D
330
2
100
AcDbSymbolTableRecord
100
AcDbLayerTableRecord
  2
DEFPOINTS
 70
     0
 62
     7
  6
CONTINUOUS
  0
ENDTAB
  0
TABLE
  2
STYLE
  5
3
330
0
100
AcDbSymbolTable
 70
     4
  0
STYLE
  5
11
330
3
100
AcDbSymbolTableRecord
100
AcDbTextStyleTableRecord
  2
STANDARD
 70
     0
 40
0.0
 41
1.0
 50
0.0
 71
     0
 42
2.5
  3
simplex
  4
bigfont
  0
STYLE
  5
73
330
3
100
AcDbSymbolTableRecord
100
AcDbTextStyleTableRecord
  2
EXCADSTD
 70
     0
 40
0.0
 41
1.0
 50
0.0
 71
     0
 42
2.5
  3
simplex
  4
bigfont
  0
STYLE
  5
74
330
3
100
AcDbSymbolTableRecord
100
AcDbTextStyleTableRecord
  2
EXCADVERT
 70
     4
 40
0.0
 41
1.0
 50
0.0
 71
     0
 42
2.5
  3
simplex
  4
bigfont
  0
STYLE
  5
37B
330
3
100
AcDbSymbolTableRecord
100
AcDbTextStyleTableRecord
  2
EXCADDIM1
 70
     0
 40
0.0
 41
0.84
 50
0.0
 71
     0
 42
2.5
  3
simplex
  4
bigfont
  0
ENDTAB
  0
TABLE
  2
VIEW
  5
6
330
0
100
AcDbSymbolTable
 70
     0
  0
ENDTAB
  0
TABLE
  2
UCS
  5
7
330
0
100
AcDbSymbolTable
 70
     0
  0
ENDTAB
  0
TABLE
  2
APPID
  5
9
330
0
100
AcDbSymbolTable
 70
     2
  0
APPID
  5
12
330
9
100
AcDbSymbolTableRecord
100
AcDbRegAppTableRecord
  2
ACAD
 70
     0
  0
APPID
  5
430
330
9
100
AcDbSymbolTableRecord
100
AcDbRegAppTableRecord
  2
ACAD_MLEADERVER
 70
     0
  0
ENDTAB
  0
TABLE
  2
DIMSTYLE
  5
A
330
0
100
AcDbSymbolTable
 70
     1
  0
DIMSTYLE
105
27
102
{ACAD_REACTORS
330
37C
330
38A
330
39D
330
3AA
330
3B7
330
3C4
102
}
330
A
100
AcDbSymbolTableRecord
100
AcDbDimStyleTableRecord
  2
ISO-25
 70
     0
  3

  4

  5

  6

  7

 40
1.0
 41
2.5
 42
0.625
 43
3.75
 44
1.25
 45
0.0
 46
0.0
 47
0.0
 48
0.0
140
2.5
141
2.5
142
0.0
143
0.03937007874016
144
1.0
145
0.0
146
1.0
147
0.625
 71
     0
 72
     0
 73
     0
 74
     0
 75
     0
 76
     0
 77
     1
 78
     8
170
     0
171
     3
172
     1
173
     0
174
     0
175
     0
176
     0
177
     0
178
     0
270
     2
271
     2
272
     2
273
     2
274
     3
340
11
275
     0
280
     0
281
     0
282
     0
283
     0
284
     8
285
     0
286
     0
287
     5
288
     0
  0
ENDTAB
  0
TABLE
  2
BLOCK_RECORD
  5
1
330
0
100
AcDbSymbolTable
 70
    20
  0
BLOCK_RECORD
  5
1F
330
1
100
AcDbSymbolTableRecord
100
AcDbBlockTableRecord
  2
*MODEL_SPACE
  0
BLOCK_RECORD
  5
1B
330
1
100
AcDbSymbolTableRecord
100
AcDbBlockTableRecord
  2
*PAPER_SPACE
  0
BLOCK_RECORD
  5
78
330
1
100
AcDbSymbolTableRecord
100
AcDbBlockTableRecord
  2
EX_NORM
  0
BLOCK_RECORD
  5
7B
330
1
100
AcDbSymbolTableRecord
100
AcDbBlockTableRecord
  2
EX_BNORM
  0
BLOCK_RECORD
  5
7E
330
1
100
AcDbSymbolTableRecord
100
AcDbBlockTableRecord
  2
EX_BCIR
  0
BLOCK_RECORD
  5
81
330
1
100
AcDbSymbolTableRecord
100
AcDbBlockTableRecord
  2
EX_RCIVIL
  0
BLOCK_RECORD
  5
84
330
1
100
AcDbSymbolTableRecord
100
AcDbBlockTableRecord
  2
EX_SLANT
  0
BLOCK_RECORD
  5
87
330
1
100
AcDbSymbolTableRecord
100
AcDbBlockTableRecord
  2
EX_NONE
  0
BLOCK_RECORD
  5
8A
330
1
100
AcDbSymbolTableRecord
100
AcDbBlockTableRecord
  2
EX_CIVIL
  0
BLOCK_RECORD
  5
8D
330
1
100
AcDbSymbolTableRecord
100
AcDbBlockTableRecord
  2
EX_WCIR
  0
BLOCK_RECORD
  5
90
330
1
100
AcDbSymbolTableRecord
100
AcDbBlockTableRecord
  2
EX_WCIR2
  0
BLOCK_RECORD
  5
93
330
1
100
AcDbSymbolTableRecord
100
AcDbBlockTableRecord
  2
EX_WNORM
  0
BLOCK_RECORD
  5
96
330
1
100
AcDbSymbolTableRecord
100
AcDbBlockTableRecord
  2
EX_NNORM
  0
BLOCK_RECORD
  5
99
330
1
100
AcDbSymbolTableRecord
100
AcDbBlockTableRecord
  2
EX_BBOX
  0
BLOCK_RECORD
  5
9C
330
1
100
AcDbSymbolTableRecord
100
AcDbBlockTableRecord
  2
EX_WBOX
  0
BLOCK_RECORD
  5
9F
330
1
100
AcDbSymbolTableRecord
100
AcDbBlockTableRecord
  2
EX_INTEGRAL
  0
BLOCK_RECORD
  5
37E
330
1
100
AcDbSymbolTableRecord
100
AcDbBlockTableRecord
  2
*D15
  0
BLOCK_RECORD
  5
38B
330
1
100
AcDbSymbolTableRecord
100
AcDbBlockTableRecord
  2
*D16
  0
BLOCK_RECORD
  5
39E
330
1
100
AcDbSymbolTableRecord
100
AcDbBlockTableRecord
  2
*D17
  0
BLOCK_RECORD
  5
3AB
330
1
100
AcDbSymbolTableRecord
100
AcDbBlockTableRecord
  2
*D18
  0
BLOCK_RECORD
  5
3B8
330
1
100
AcDbSymbolTableRecord
100
AcDbBlockTableRecord
  2
*D19
  0
BLOCK_RECORD
  5
3C5
330
1
100
AcDbSymbolTableRecord
100
AcDbBlockTableRecord
  2
*D20
  0
ENDTAB
  0
ENDSEC
  0
SECTION
  2
BLOCKS
  0
BLOCK
  5
20
330
1F
100
AcDbEntity
  8
0
100
AcDbBlockBegin
  2
*MODEL_SPACE
 70
     0
 10
0.0
 20
0.0
 30
0.0
  3
*MODEL_SPACE
  1

  0
ENDBLK
  5
21
330
1F
100
AcDbEntity
  8
0
100
AcDbBlockEnd
  0
BLOCK
  5
1C
330
1B
100
AcDbEntity
 67
     1
  8
0
100
AcDbBlockBegin
  2
*PAPER_SPACE
 70
     0
 10
0.0
 20
0.0
 30
0.0
  3
*PAPER_SPACE
  1

  0
ENDBLK
  5
1D
330
1B
100
AcDbEntity
 67
     1
  8
0
100
AcDbBlockEnd
  0
BLOCK
  5
79
330
78
100
AcDbEntity
  8
0
100
AcDbBlockBegin
  2
EX_NORM
 70
     0
 10
0.0
 20
0.0
 30
0.0
  3
EX_NORM
  1

  0
LINE
  5
A2
330
78
100
AcDbEntity
  8
0
  6
CONTINUOUS
 62
     0
100
AcDbLine
 10
0.0
 20
0.0
 30
0.0
 11
-1.0
 21
0.0
 31
0.0
  0
LINE
  5
A3
330
78
100
AcDbEntity
  8
0
  6
CONTINUOUS
 62
     0
100
AcDbLine
 10
0.0
 20
0.0
 30
0.0
 11
-1.0
 21
0.166666667
 31
0.0
  0
LINE
  5
A4
330
78
100
AcDbEntity
  8
0
  6
CONTINUOUS
 62
     0
100
AcDbLine
 10
0.0
 20
0.0
 30
0.0
 11
-1.0
 21
-0.166666667
 31
0.0
  0
ENDBLK
  5
7A
330
78
100
AcDbEntity
  8
0
100
AcDbBlockEnd
  0
BLOCK
  5
7C
330
7B
100
AcDbEntity
  8
0
100
AcDbBlockBegin
  2
EX_BNORM
 70
     0
 10
0.0
 20
0.0
 30
0.0
  3
EX_BNORM
  1

  0
LINE
  5
A5
330
7B
100
AcDbEntity
  8
0
  6
CONTINUOUS
 62
     0
100
AcDbLine
 10
0.0
 20
0.0
 30
0.0
 11
-1.0
 21
0.0
 31
0.0
  0
LINE
  5
A6
330
7B
100
AcDbEntity
  8
0
  6
CONTINUOUS
 62
     0
100
AcDbLine
 10
0.0
 20
0.0
 30
0.0
 11
-1.0
 21
0.166666667
 31
0.0
  0
LINE
  5
A7
330
7B
100
AcDbEntity
  8
0
  6
CONTINUOUS
 62
     0
100
AcDbLine
 10
0.0
 20
0.0
 30
0.0
 11
-1.0
 21
-0.166666667
 31
0.0
  0
LINE
  5
A8
330
7B
100
AcDbEntity
  8
0
  6
CONTINUOUS
 62
     0
100
AcDbLine
 10
0.0
 20
0.0
 30
0.0
 11
-1.0
 21
0.083333333
 31
0.0
  0
LINE
  5
A9
330
7B
100
AcDbEntity
  8
0
  6
CONTINUOUS
 62
     0
100
AcDbLine
 10
0.0
 20
0.0
 30
0.0
 11
-1.0
 21
-0.083333333
 31
0.0
  0
LINE
  5
AA
330
7B
100
AcDbEntity
  8
0
  6
CONTINUOUS
 62
     0
100
AcDbLine
 10
-1.0
 20
0.166666667
 30
0.0
 11
-1.0
 21
-0.166666667
 31
0.0
  0
ENDBLK
  5
7D
330
7B
100
AcDbEntity
  8
0
100
AcDbBlockEnd
  0
BLOCK
  5
7F
330
7E
100
AcDbEntity
  8
0
100
AcDbBlockBegin
  2
EX_BCIR
 70
     0
 10
0.0
 20
0.0
 30
0.0
  3
EX_BCIR
  1

  0
LINE
  5
AB
330
7E
100
AcDbEntity
  8
0
  6
CONTINUOUS
 62
     0
100
AcDbLine
 10
0.0
 20
0.0
 30
0.0
 11
-1.0
 21
0.0
 31
0.0
  0
CIRCLE
  5
AC
330
7E
100
AcDbEntity
  8
0
  6
CONTINUOUS
 62
     0
100
AcDbCircle
 10
0.0
 20
0.0
 30
0.0
 40
0.5
  0
CIRCLE
  5
AD
330
7E
100
AcDbEntity
  8
0
  6
CONTINUOUS
 62
     0
100
AcDbCircle
 10
0.0
 20
0.0
 30
0.0
 40
0.25
  0
ENDBLK
  5
80
330
7E
100
AcDbEntity
  8
0
100
AcDbBlockEnd
  0
BLOCK
  5
82
330
81
100
AcDbEntity
  8
0
100
AcDbBlockBegin
  2
EX_RCIVIL
 70
     0
 10
0.0
 20
0.0
 30
0.0
  3
EX_RCIVIL
  1

  0
LINE
  5
AE
330
81
100
AcDbEntity
  8
0
  6
CONTINUOUS
 62
     0
100
AcDbLine
 10
0.0
 20
0.0
 30
0.0
 11
-1.0
 21
0.0
 31
0.0
  0
LINE
  5
AF
330
81
100
AcDbEntity
  8
0
  6
CONTINUOUS
 62
     0
100
AcDbLine
 10
-1.0
 20
-0.25
 30
0.0
 11
0.0
 21
-0.25
 31
0.0
  0
LINE
  5
B0
330
81
100
AcDbEntity
  8
0
  6
CONTINUOUS
 62
     0
100
AcDbLine
 10
-1.0
 20
-0.125
 30
0.0
 11
0.0
 21
-0.125
 31
0.0
  0
ENDBLK
  5
83
330
81
100
AcDbEntity
  8
0
100
AcDbBlockEnd
  0
BLOCK
  5
85
330
84
100
AcDbEntity
  8
0
100
AcDbBlockBegin
  2
EX_SLANT
 70
     0
 10
0.0
 20
0.0
 30
0.0
  3
EX_SLANT
  1

  0
LINE
  5
B1
330
84
100
AcDbEntity
  8
0
  6
CONTINUOUS
 62
     0
100
AcDbLine
 10
0.0
 20
0.0
 30
0.0
 11
-1.0
 21
0.0
 31
0.0
  0
LINE
  5
B2
330
84
100
AcDbEntity
  8
0
  6
CONTINUOUS
 62
     0
100
AcDbLine
 10
0.707106781
 20
0.707106781
 30
0.0
 11
-0.707106781
 21
-0.707106781
 31
0.0
  0
ENDBLK
  5
86
330
84
100
AcDbEntity
  8
0
100
AcDbBlockEnd
  0
BLOCK
  5
88
330
87
100
AcDbEntity
  8
0
100
AcDbBlockBegin
  2
EX_NONE
 70
     0
 10
0.0
 20
0.0
 30
0.0
  3
EX_NONE
  1

  0
LINE
  5
B3
330
87
100
AcDbEntity
  8
0
  6
CONTINUOUS
 62
     0
100
AcDbLine
 10
0.0
 20
0.0
 30
0.0
 11
-1.0
 21
0.0
 31
0.0
  0
ENDBLK
  5
89
330
87
100
AcDbEntity
  8
0
100
AcDbBlockEnd
  0
BLOCK
  5
8B
330
8A
100
AcDbEntity
  8
0
100
AcDbBlockBegin
  2
EX_CIVIL
 70
     0
 10
0.0
 20
0.0
 30
0.0
  3
EX_CIVIL
  1

  0
LINE
  5
B4
330
8A
100
AcDbEntity
  8
0
  6
CONTINUOUS
 62
     0
100
AcDbLine
 10
0.0
 20
0.0
 30
0.0
 11
-1.0
 21
0.0
 31
0.0
  0
LINE
  5
B5
330
8A
100
AcDbEntity
  8
0
  6
CONTINUOUS
 62
     0
100
AcDbLine
 10
-1.0
 20
0.25
 30
0.0
 11
0.0
 21
0.25
 31
0.0
  0
LINE
  5
B6
330
8A
100
AcDbEntity
  8
0
  6
CONTINUOUS
 62
     0
100
AcDbLine
 10
-1.0
 20
0.125
 30
0.0
 11
0.0
 21
0.125
 31
0.0
  0
ENDBLK
  5
8C
330
8A
100
AcDbEntity
  8
0
100
AcDbBlockEnd
  0
BLOCK
  5
8E
330
8D
100
AcDbEntity
  8
0
100
AcDbBlockBegin
  2
EX_WCIR
 70
     0
 10
0.0
 20
0.0
 30
0.0
  3
EX_WCIR
  1

  0
LINE
  5
B7
330
8D
100
AcDbEntity
  8
0
  6
CONTINUOUS
 62
     0
100
AcDbLine
 10
0.0
 20
0.0
 30
0.0
 11
-1.0
 21
0.0
 31
0.0
  0
CIRCLE
  5
B8
330
8D
100
AcDbEntity
  8
0
  6
CONTINUOUS
 62
     0
100
AcDbCircle
 10
0.0
 20
0.0
 30
0.0
 40
0.5
  0
ENDBLK
  5
8F
330
8D
100
AcDbEntity
  8
0
100
AcDbBlockEnd
  0
BLOCK
  5
91
330
90
100
AcDbEntity
  8
0
100
AcDbBlockBegin
  2
EX_WCIR2
 70
     0
 10
0.0
 20
0.0
 30
0.0
  3
EX_WCIR2
  1

  0
LINE
  5
B9
330
90
100
AcDbEntity
  8
0
  6
CONTINUOUS
 62
     0
100
AcDbLine
 10
-0.5
 20
0.0
 30
0.0
 11
-1.0
 21
0.0
 31
0.0
  0
CIRCLE
  5
BA
330
90
100
AcDbEntity
  8
0
  6
CONTINUOUS
 62
     0
100
AcDbCircle
 10
0.0
 20
0.0
 30
0.0
 40
0.5
  0
ENDBLK
  5
92
330
90
100
AcDbEntity
  8
0
100
AcDbBlockEnd
  0
BLOCK
  5
94
330
93
100
AcDbEntity
  8
0
100
AcDbBlockBegin
  2
EX_WNORM
 70
     0
 10
0.0
 20
0.0
 30
0.0
  3
EX_WNORM
  1

  0
LINE
  5
BB
330
93
100
AcDbEntity
  8
0
  6
CONTINUOUS
 62
     0
100
AcDbLine
 10
-1.0
 20
0.0
 30
0.0
 11
-1.0
 21
0.0
 31
0.0
  0
LINE
  5
BC
330
93
100
AcDbEntity
  8
0
  6
CONTINUOUS
 62
     0
100
AcDbLine
 10
0.0
 20
0.0
 30
0.0
 11
-1.0
 21
0.166666667
 31
0.0
  0
LINE
  5
BD
330
93
100
AcDbEntity
  8
0
  6
CONTINUOUS
 62
     0
100
AcDbLine
 10
0.0
 20
0.0
 30
0.0
 11
-1.0
 21
-0.166666667
 31
0.0
  0
LINE
  5
BE
330
93
100
AcDbEntity
  8
0
  6
CONTINUOUS
 62
     0
100
AcDbLine
 10
-1.0
 20
0.166666667
 30
0.0
 11
-1.0
 21
-0.166666667
 31
0.0
  0
ENDBLK
  5
95
330
93
100
AcDbEntity
  8
0
100
AcDbBlockEnd
  0
BLOCK
  5
97
330
96
100
AcDbEntity
  8
0
100
AcDbBlockBegin
  2
EX_NNORM
 70
     0
 10
0.0
 20
0.0
 30
0.0
  3
EX_NNORM
  1

  0
LINE
  5
BF
330
96
100
AcDbEntity
  8
0
  6
CONTINUOUS
 62
     0
100
AcDbLine
 10
0.0
 20
0.0
 30
0.0
 11
-1.0
 21
0.0
 31
0.0
  0
LINE
  5
C0
330
96
100
AcDbEntity
  8
0
  6
CONTINUOUS
 62
     0
100
AcDbLine
 10
0.0
 20
0.0
 30
0.0
 11
-1.0
 21
0.166666667
 31
0.0
  0
LINE
  5
C1
330
96
100
AcDbEntity
  8
0
  6
CONTINUOUS
 62
     0
100
AcDbLine
 10
0.0
 20
0.0
 30
0.0
 11
-1.0
 21
-0.166666667
 31
0.0
  0
LINE
  5
C2
330
96
100
AcDbEntity
  8
0
  6
CONTINUOUS
 62
     0
100
AcDbLine
 10
-1.0
 20
0.166666667
 30
0.0
 11
-1.0
 21
-0.166666667
 31
0.0
  0
ENDBLK
  5
98
330
96
100
AcDbEntity
  8
0
100
AcDbBlockEnd
  0
BLOCK
  5
9A
330
99
100
AcDbEntity
  8
0
100
AcDbBlockBegin
  2
EX_BBOX
 70
     0
 10
0.0
 20
0.0
 30
0.0
  3
EX_BBOX
  1

  0
LINE
  5
C3
330
99
100
AcDbEntity
  8
0
  6
CONTINUOUS
 62
     0
100
AcDbLine
 10
0.0
 20
0.0
 30
0.0
 11
-1.0
 21
0.0
 31
0.0
  0
LINE
  5
C4
330
99
100
AcDbEntity
  8
0
  6
CONTINUOUS
 62
     0
100
AcDbLine
 10
-0.5
 20
0.5
 30
0.0
 11
0.5
 21
0.5
 31
0.0
  0
LINE
  5
C5
330
99
100
AcDbEntity
  8
0
  6
CONTINUOUS
 62
     0
100
AcDbLine
 10
0.5
 20
0.5
 30
0.0
 11
0.5
 21
-0.5
 31
0.0
  0
LINE
  5
C6
330
99
100
AcDbEntity
  8
0
  6
CONTINUOUS
 62
     0
100
AcDbLine
 10
0.5
 20
-0.5
 30
0.0
 11
-0.5
 21
-0.5
 31
0.0
  0
LINE
  5
C7
330
99
100
AcDbEntity
  8
0
  6
CONTINUOUS
 62
     0
100
AcDbLine
 10
-0.5
 20
-0.5
 30
0.0
 11
-0.5
 21
0.5
 31
0.0
  0
LINE
  5
C8
330
99
100
AcDbEntity
  8
0
  6
CONTINUOUS
 62
     0
100
AcDbLine
 10
-0.25
 20
0.25
 30
0.0
 11
0.25
 21
0.25
 31
0.0
  0
LINE
  5
C9
330
99
100
AcDbEntity
  8
0
  6
CONTINUOUS
 62
     0
100
AcDbLine
 10
0.25
 20
0.25
 30
0.0
 11
0.25
 21
-0.25
 31
0.0
  0
LINE
  5
CA
330
99
100
AcDbEntity
  8
0
  6
CONTINUOUS
 62
     0
100
AcDbLine
 10
0.25
 20
-0.25
 30
0.0
 11
-0.25
 21
-0.25
 31
0.0
  0
LINE
  5
CB
330
99
100
AcDbEntity
  8
0
  6
CONTINUOUS
 62
     0
100
AcDbLine
 10
-0.25
 20
-0.25
 30
0.0
 11
-0.25
 21
0.25
 31
0.0
  0
ENDBLK
  5
9B
330
99
100
AcDbEntity
  8
0
100
AcDbBlockEnd
  0
BLOCK
  5
9D
330
9C
100
AcDbEntity
  8
0
100
AcDbBlockBegin
  2
EX_WBOX
 70
     0
 10
0.0
 20
0.0
 30
0.0
  3
EX_WBOX
  1

  0
LINE
  5
CC
330
9C
100
AcDbEntity
  8
0
  6
CONTINUOUS
 62
     0
100
AcDbLine
 10
-0.5
 20
0.0
 30
0.0
 11
-1.0
 21
0.0
 31
0.0
  0
LINE
  5
CD
330
9C
100
AcDbEntity
  8
0
  6
CONTINUOUS
 62
     0
100
AcDbLine
 10
-0.5
 20
0.5
 30
0.0
 11
0.5
 21
0.5
 31
0.0
  0
LINE
  5
CE
330
9C
100
AcDbEntity
  8
0
  6
CONTINUOUS
 62
     0
100
AcDbLine
 10
0.5
 20
0.5
 30
0.0
 11
0.5
 21
-0.5
 31
0.0
  0
LINE
  5
CF
330
9C
100
AcDbEntity
  8
0
  6
CONTINUOUS
 62
     0
100
AcDbLine
 10
0.5
 20
-0.5
 30
0.0
 11
-0.5
 21
-0.5
 31
0.0
  0
LINE
  5
D0
330
9C
100
AcDbEntity
  8
0
  6
CONTINUOUS
 62
     0
100
AcDbLine
 10
-0.5
 20
-0.5
 30
0.0
 11
-0.5
 21
0.5
 31
0.0
  0
ENDBLK
  5
9E
330
9C
100
AcDbEntity
  8
0
100
AcDbBlockEnd
  0
BLOCK
  5
A0
330
9F
100
AcDbEntity
  8
0
100
AcDbBlockBegin
  2
EX_INTEGRAL
 70
     0
 10
0.0
 20
0.0
 30
0.0
  3
EX_INTEGRAL
  1

  0
LINE
  5
D1
330
9F
100
AcDbEntity
  8
0
  6
CONTINUOUS
 62
     0
100
AcDbLine
 10
0.0
 20
0.0
 30
0.0
 11
-1.0
 21
0.0
 31
0.0
  0
ARC
  5
D2
330
9F
100
AcDbEntity
  8
0
  6
CONTINUOUS
 62
     0
100
AcDbCircle
 10
0.542115
 20
0.164992
 30
0.0
 40
0.56667
100
AcDbArc
 50
73.07249033629006
 51
196.9275130221199
  0
ARC
  5
D3
330
9F
100
AcDbEntity
  8
0
  6
CONTINUOUS
 62
     0
100
AcDbCircle
 10
-0.542115
 20
-0.164992
 30
0.0
 40
0.56667
100
AcDbArc
 50
253.0724869220464
 51
16.9275130559125
  0
ENDBLK
  5
A1
330
9F
100
AcDbEntity
  8
0
100
AcDbBlockEnd
  0
BLOCK
  5
37F
330
37E
100
AcDbEntity
  8
0
100
AcDbBlockBegin
  2
*D15
 70
     1
 10
0.0
 20
0.0
 30
0.0
  3
*D15
  1

  0
LINE
  5
381
330
37E
100
AcDbEntity
  8
LAY-20
  6
CONTINUOUS
 62
     4
100
AcDbLine
 10
2150.0
 20
1141.999999999998
 30
0.0
 11
1950.0
 21
1141.999999999998
 31
0.0
  0
LINE
  5
382
330
37E
100
AcDbEntity
  8
LAY-20
  6
CONTINUOUS
 62
     4
100
AcDbLine
 10
2595.7
 20
2791.999999999999
 30
0.0
 11
1950.0
 21
2791.999999999999
 31
0.0
  0
LINE
  5
383
330
37E
100
AcDbEntity
  8
LAY-20
  6
CONTINUOUS
 62
     4
100
AcDbLine
 10
1980.0
 20
1191.999999999998
 30
0.0
 11
1980.0
 21
2741.999999999999
 31
0.0
  0
INSERT
  5
384
330
37E
100
AcDbEntity
  8
LAY-20
 62
     4
100
AcDbBlockReference
  2
EX_BNORM
 10
1980.0
 20
1141.999999999998
 30
0.0
 41
50.0
 42
50.0
 43
50.0
 50
270.0
  0
INSERT
  5
385
330
37E
100
AcDbEntity
  8
LAY-20
 62
     4
100
AcDbBlockReference
  2
EX_BNORM
 10
1980.0
 20
2791.999999999999
 30
0.0
 41
50.0
 42
50.0
 43
50.0
 50
90.0
  0
MTEXT
  5
386
330
37E
100
AcDbEntity
  8
LAY-20
 62
     7
100
AcDbMText
 10
1930.0
 20
1966.999999999998
 30
0.0
 40
62.362208
 41
0.0
 71
     5
 72
     1
  1
1650
  7
EXCADDIM1
 11
0.0
 21
1.0
 31
0.0
  0
POINT
  5
387
330
37E
100
AcDbEntity
  8
DEFPOINTS
 62
     0
100
AcDbPoint
 10
2180.0
 20
1141.999999999998
 30
0.0
  0
POINT
  5
388
330
37E
100
AcDbEntity
  8
DEFPOINTS
 62
     0
100
AcDbPoint
 10
2625.7
 20
2791.999999999999
 30
0.0
  0
POINT
  5
389
330
37E
100
AcDbEntity
  8
DEFPOINTS
 62
     0
100
AcDbPoint
 10
1980.0
 20
2791.999999999999
 30
0.0
  0
ENDBLK
  5
380
330
37E
100
AcDbEntity
  8
0
100
AcDbBlockEnd
  0
BLOCK
  5
38C
330
38B
100
AcDbEntity
  8
0
100
AcDbBlockBegin
  2
*D16
 70
     1
 10
0.0
 20
0.0
 30
0.0
  3
*D16
  1

  0
LINE
  5
38E
330
38B
100
AcDbEntity
  8
LAY-20
  6
CONTINUOUS
 62
     4
100
AcDbLine
 10
2150.0
 20
491.9999999999982
 30
0.0
 11
1950.0
 21
491.9999999999981
 31
0.0
  0
LINE
  5
38F
330
38B
100
AcDbEntity
  8
LAY-20
  6
CONTINUOUS
 62
     4
100
AcDbLine
 10
1980.0
 20
541.9999999999981
 30
0.0
 11
1980.0
 21
1091.999999999998
 31
0.0
  0
INSERT
  5
390
330
38B
100
AcDbEntity
  8
LAY-20
 62
     4
100
AcDbBlockReference
  2
EX_BNORM
 10
1980.0
 20
491.9999999999981
 30
0.0
 41
50.0
 42
50.0
 43
50.0
 50
270.0
  0
INSERT
  5
391
330
38B
100
AcDbEntity
  8
LAY-20
 62
     4
100
AcDbBlockReference
  2
EX_BNORM
 10
1980.0
 20
1141.999999999998
 30
0.0
 41
50.0
 42
50.0
 43
50.0
 50
90.0
  0
MTEXT
  5
392
330
38B
100
AcDbEntity
  8
LAY-20
 62
     7
100
AcDbMText
 10
1930.0
 20
816.9999999999982
 30
0.0
 40
62.362208
 41
0.0
 71
     5
 72
     1
  1
650
  7
EXCADDIM1
 11
0.0
 21
1.0
 31
0.0
  0
POINT
  5
393
330
38B
100
AcDbEntity
  8
DEFPOINTS
 62
     0
100
AcDbPoint
 10
2180.0
 20
491.9999999999982
 30
0.0
  0
POINT
  5
394
330
38B
100
AcDbEntity
  8
DEFPOINTS
 62
     0
100
AcDbPoint
 10
1980.0
 20
1141.999999999998
 30
0.0
  0
POINT
  5
395
330
38B
100
AcDbEntity
  8
DEFPOINTS
 62
     0
100
AcDbPoint
 10
1980.0
 20
1141.999999999998
 30
0.0
  0
ENDBLK
  5
38D
330
38B
100
AcDbEntity
  8
0
100
AcDbBlockEnd
  0
BLOCK
  5
39F
330
39E
100
AcDbEntity
  8
0
100
AcDbBlockBegin
  2
*D17
 70
     1
 10
0.0
 20
0.0
 30
0.0
  3
*D17
  1

  0
LINE
  5
3A1
330
39E
100
AcDbEntity
  8
LAY-20
  6
CONTINUOUS
 62
     4
100
AcDbLine
 10
2249.999999999995
 20
4230.0
 30
0.0
 11
2249.999999999995
 21
4930.0
 31
0.0
  0
LINE
  5
3A2
330
39E
100
AcDbEntity
  8
LAY-20
  6
CONTINUOUS
 62
     4
100
AcDbLine
 10
3550.000000000005
 20
4230.0
 30
0.0
 11
3550.000000000005
 21
4930.0
 31
0.0
  0
LINE
  5
3A3
330
39E
100
AcDbEntity
  8
LAY-20
  6
CONTINUOUS
 62
     4
100
AcDbLine
 10
2299.999999999995
 20
4900.0
 30
0.0
 11
3500.000000000005
 21
4900.0
 31
0.0
  0
INSERT
  5
3A4
330
39E
100
AcDbEntity
  8
LAY-20
 62
     4
100
AcDbBlockReference
  2
EX_BNORM
 10
2249.999999999995
 20
4900.0
 30
0.0
 41
50.0
 42
50.0
 43
50.0
 50
180.0
  0
INSERT
  5
3A5
330
39E
100
AcDbEntity
  8
LAY-20
 62
     4
100
AcDbBlockReference
  2
EX_BNORM
 10
3550.000000000005
 20
4900.0
 30
0.0
 41
50.0
 42
50.0
 43
50.0
  0
MTEXT
  5
3A6
330
39E
100
AcDbEntity
  8
LAY-20
 62
     7
100
AcDbMText
 10
2900.0
 20
4950.0
 30
0.0
 40
62.362208
 41
0.0
 71
     5
 72
     1
  1
1300
  7
EXCADDIM1
  0
POINT
  5
3A7
330
39E
100
AcDbEntity
  8
DEFPOINTS
 62
     0
100
AcDbPoint
 10
2249.999999999995
 20
4200.0
 30
0.0
  0
POINT
  5
3A8
330
39E
100
AcDbEntity
  8
DEFPOINTS
 62
     0
100
AcDbPoint
 10
3550.000000000005
 20
4200.0
 30
0.0
  0
POINT
  5
3A9
330
39E
100
AcDbEntity
  8
DEFPOINTS
 62
     0
100
AcDbPoint
 10
3550.000000000005
 20
4900.0
 30
0.0
  0
ENDBLK
  5
3A0
330
39E
100
AcDbEntity
  8
0
100
AcDbBlockEnd
  0
BLOCK
  5
3AC
330
3AB
100
AcDbEntity
  8
0
100
AcDbBlockBegin
  2
*D18
 70
     1
 10
0.0
 20
0.0
 30
0.0
  3
*D18
  1

  0
LINE
  5
3AE
330
3AB
100
AcDbEntity
  8
LAY-20
  6
CONTINUOUS
 62
     4
100
AcDbLine
 10
2650.0
 20
4230.0
 30
0.0
 11
2650.0
 21
4690.0
 31
0.0
  0
LINE
  5
3AF
330
3AB
100
AcDbEntity
  8
LAY-20
  6
CONTINUOUS
 62
     4
100
AcDbLine
 10
3150.0
 20
4230.0
 30
0.0
 11
3150.0
 21
4690.0
 31
0.0
  0
LINE
  5
3B0
330
3AB
100
AcDbEntity
  8
LAY-20
  6
CONTINUOUS
 62
     4
100
AcDbLine
 10
2700.0
 20
4660.0
 30
0.0
 11
3100.0
 21
4660.0
 31
0.0
  0
INSERT
  5
3B1
330
3AB
100
AcDbEntity
  8
LAY-20
 62
     4
100
AcDbBlockReference
  2
EX_BNORM
 10
2650.0
 20
4660.0
 30
0.0
 41
50.0
 42
50.0
 43
50.0
 50
180.0
  0
INSERT
  5
3B2
330
3AB
100
AcDbEntity
  8
LAY-20
 62
     4
100
AcDbBlockReference
  2
EX_BNORM
 10
3150.0
 20
4660.0
 30
0.0
 41
50.0
 42
50.0
 43
50.0
  0
MTEXT
  5
3B3
330
3AB
100
AcDbEntity
  8
LAY-20
 62
     7
100
AcDbMText
 10
2900.0
 20
4710.0
 30
0.0
 40
62.362208
 41
0.0
 71
     5
 72
     1
  1
%%c500
  7
EXCADDIM1
  0
POINT
  5
3B4
330
3AB
100
AcDbEntity
  8
DEFPOINTS
 62
     0
100
AcDbPoint
 10
2650.0
 20
4200.0
 30
0.0
  0
POINT
  5
3B5
330
3AB
100
AcDbEntity
  8
DEFPOINTS
 62
     0
100
AcDbPoint
 10
3150.0
 20
4200.0
 30
0.0
  0
POINT
  5
3B6
330
3AB
100
AcDbEntity
  8
DEFPOINTS
 62
     0
100
AcDbPoint
 10
3150.0
 20
4660.0
 30
0.0
  0
ENDBLK
  5
3AD
330
3AB
100
AcDbEntity
  8
0
100
AcDbBlockEnd
  0
BLOCK
  5
3B9
330
3B8
100
AcDbEntity
  8
0
100
AcDbBlockBegin
  2
*D19
 70
     1
 10
0.0
 20
0.0
 30
0.0
  3
*D19
  1

  0
LINE
  5
3BB
330
3B8
100
AcDbEntity
  8
LAY-20
  6
CONTINUOUS
 62
     4
100
AcDbLine
 10
2674.3
 20
2324.5
 30
0.0
 11
2625.7
 21
2324.5
 31
0.0
  0
LINE
  5
3BC
330
3B8
100
AcDbEntity
  8
LAY-20
  6
CONTINUOUS
 62
     4
100
AcDbLine
 10
2724.3
 20
2324.5
 30
0.0
 11
2774.3
 21
2324.5
 31
0.0
  0
LINE
  5
3BD
330
3B8
100
AcDbEntity
  8
LAY-20
  6
CONTINUOUS
 62
     4
100
AcDbLine
 10
2575.7
 20
2324.5
 30
0.0
 11
2525.7
 21
2324.5
 31
0.0
  0
INSERT
  5
3BE
330
3B8
100
AcDbEntity
  8
LAY-20
 62
     4
100
AcDbBlockReference
  2
EX_BNORM
 10
2674.3
 20
2324.5
 30
0.0
 41
50.0
 42
50.0
 43
50.0
 50
180.0
  0
INSERT
  5
3BF
330
3B8
100
AcDbEntity
  8
LAY-20
 62
     4
100
AcDbBlockReference
  2
EX_BNORM
 10
2625.7
 20
2324.5
 30
0.0
 41
50.0
 42
50.0
 43
50.0
  0
MTEXT
  5
3C0
330
3B8
100
AcDbEntity
  8
LAY-20
 62
     7
100
AcDbMText
 10
2435.700000000001
 20
2374.5
 30
0.0
 40
62.362208
 41
0.0
 71
     5
 72
     1
  1
%%c48.6
  7
EXCADDIM1
  0
POINT
  5
3C1
330
3B8
100
AcDbEntity
  8
DEFPOINTS
 62
     0
100
AcDbPoint
 10
2674.3
 20
2324.5
 30
0.0
  0
POINT
  5
3C2
330
3B8
100
AcDbEntity
  8
DEFPOINTS
 62
     0
100
AcDbPoint
 10
2625.7
 20
2324.5
 30
0.0
  0
POINT
  5
3C3
330
3B8
100
AcDbEntity
  8
DEFPOINTS
 62
     0
100
AcDbPoint
 10
2625.7
 20
2324.5
 30
0.0
  0
ENDBLK
  5
3BA
330
3B8
100
AcDbEntity
  8
0
100
AcDbBlockEnd
  0
BLOCK
  5
3C6
330
3C5
100
AcDbEntity
  8
0
100
AcDbBlockBegin
  2
*D20
 70
     1
 10
0.0
 20
0.0
 30
0.0
  3
*D20
  1

  0
LINE
  5
3C8
330
3C5
100
AcDbEntity
  8
LAY-20
  6
CONTINUOUS
 62
     4
100
AcDbLine
 10
2180.0
 20
1172.0
 30
0.0
 11
2180.0
 21
1372.0
 31
0.0
  0
LINE
  5
3C9
330
3C5
100
AcDbEntity
  8
LAY-20
  6
CONTINUOUS
 62
     4
100
AcDbLine
 10
2320.0
 20
1172.0
 30
0.0
 11
2320.0
 21
1372.0
 31
0.0
  0
LINE
  5
3CA
330
3C5
100
AcDbEntity
  8
LAY-20
  6
CONTINUOUS
 62
     4
100
AcDbLine
 10
2230.0
 20
1342.0
 30
0.0
 11
2270.0
 21
1342.0
 31
0.0
  0
INSERT
  5
3CB
330
3C5
100
AcDbEntity
  8
LAY-20
 62
     4
100
AcDbBlockReference
  2
EX_BNORM
 10
2180.0
 20
1342.0
 30
0.0
 41
50.0
 42
50.0
 43
50.0
 50
180.0
  0
INSERT
  5
3CC
330
3C5
100
AcDbEntity
  8
LAY-20
 62
     4
100
AcDbBlockReference
  2
EX_BNORM
 10
2320.0
 20
1342.0
 30
0.0
 41
50.0
 42
50.0
 43
50.0
  0
MTEXT
  5
3CD
330
3C5
100
AcDbEntity
  8
LAY-20
 62
     7
100
AcDbMText
 10
2250.0
 20
1392.0
 30
0.0
 40
62.362208
 41
0.0
 71
     5
 72
     1
  1
%%c140
  7
EXCADDIM1
  0
POINT
  5
3CE
330
3C5
100
AcDbEntity
  8
DEFPOINTS
 62
     0
100
AcDbPoint
 10
2180.0
 20
1142.0
 30
0.0
  0
POINT
  5
3CF
330
3C5
100
AcDbEntity
  8
DEFPOINTS
 62
     0
100
AcDbPoint
 10
2320.0
 20
1142.0
 30
0.0
  0
POINT
  5
3D0
330
3C5
100
AcDbEntity
  8
DEFPOINTS
 62
     0
100
AcDbPoint
 10
2320.0
 20
1342.0
 30
0.0
  0
ENDBLK
  5
3C7
330
3C5
100
AcDbEntity
  8
0
100
AcDbBlockEnd
  0
ENDSEC
  0
SECTION
  2
ENTITIES
  0
LINE
  5
D4
330
1F
100
AcDbEntity
  8
LAY-10
  6
CONTINUOUS
 62
     7
100
AcDbLine
 10
2225.699999999998
 20
1100.000000000001
 30
0.0
 11
2219.647999999999
 21
1100.000000000001
 31
0.0
  0
LINE
  5
D5
330
1F
100
AcDbEntity
  8
LAY-10
  6
CONTINUOUS
 62
     7
100
AcDbLine
 10
2225.699999999998
 20
1096.000000000001
 30
0.0
 11
2219.647999999999
 21
1096.000000000001
 31
0.0
  0
LINE
  5
D6
330
1F
100
AcDbEntity
  8
LAY-10
  6
CONTINUOUS
 62
     7
100
AcDbLine
 10
2225.699999999998
 20
1084.000000000001
 30
0.0
 11
2219.647999999999
 21
1084.000000000001
 31
0.0
  0
ARC
  5
D7
330
1F
100
AcDbEntity
  8
LAY-10
  6
CONTINUOUS
 62
     7
100
AcDbCircle
 10
2221.947796791442
 20
1098.000000000002
 30
0.0
 40
3.047796791443853
100
AcDbArc
 50
138.9884064077224
 51
221.0115935923049
  0
ARC
  5
D8
330
1F
100
AcDbEntity
  8
LAY-10
  6
CONTINUOUS
 62
     7
100
AcDbCircle
 10
2229.969187165775
 20
1092.000000000002
 30
0.0
 40
11.06918716577541
100
AcDbArc
 50
158.8160443417777
 51
201.1839556582286
  0
ARC
  5
D9
330
1F
100
AcDbEntity
  8
LAY-10
  6
CONTINUOUS
 62
     7
100
AcDbCircle
 10
2221.947796791442
 20
1086.000000000001
 30
0.0
 40
3.047796791443853
100
AcDbArc
 50
138.9884064077193
 51
221.0115935923049
  0
LINE
  5
DA
330
1F
100
AcDbEntity
  8
LAY-10
  6
CONTINUOUS
 62
     7
100
AcDbLine
 10
2218.899999999999
 20
1098.000000000002
 30
0.0
 11
2218.899999999999
 21
1086.000000000001
 31
0.0
  0
LINE
  5
DB
330
1F
100
AcDbEntity
  8
LAY-10
  6
CONTINUOUS
 62
     7
100
AcDbLine
 10
2274.299999999999
 20
1100.000000000001
 30
0.0
 11
2280.351999999999
 21
1100.000000000001
 31
0.0
  0
LINE
  5
DC
330
1F
100
AcDbEntity
  8
LAY-10
  6
CONTINUOUS
 62
     7
100
AcDbLine
 10
2274.299999999999
 20
1096.000000000001
 30
0.0
 11
2280.351999999999
 21
1096.000000000001
 31
0.0
  0
LINE
  5
DD
330
1F
100
AcDbEntity
  8
LAY-10
  6
CONTINUOUS
 62
     7
100
AcDbLine
 10
2274.299999999999
 20
1084.000000000001
 30
0.0
 11
2280.351999999999
 21
1084.000000000001
 31
0.0
  0
ARC
  5
DE
330
1F
100
AcDbEntity
  8
LAY-10
  6
CONTINUOUS
 62
     7
100
AcDbCircle
 10
2278.052203208555
 20
1098.000000000002
 30
0.0
 40
3.047796791443853
100
AcDbArc
 50
318.9884064076952
 51
41.01159359228075
  0
ARC
  5
DF
330
1F
100
AcDbEntity
  8
LAY-10
  6
CONTINUOUS
 62
     7
100
AcDbCircle
 10
2270.030812834225
 20
1092.000000000002
 30
0.0
 40
11.06918716577541
100
AcDbArc
 50
338.8160443417673
 51
21.18395565822644
  0
ARC
  5
E0
330
1F
100
AcDbEntity
  8
LAY-10
  6
CONTINUOUS
 62
     7
100
AcDbCircle
 10
2278.052203208555
 20
1086.000000000001
 30
0.0
 40
3.047796791443853
100
AcDbArc
 50
318.9884064076952
 51
41.01159359228075
  0
LINE
  5
E1
330
1F
100
AcDbEntity
  8
LAY-10
  6
CONTINUOUS
 62
     7
100
AcDbLine
 10
2281.099999999999
 20
1098.000000000002
 30
0.0
 11
2281.099999999999
 21
1086.000000000001
 31
0.0
  0
LINE
  5
E2
330
1F
100
AcDbEntity
  8
LAY-10
  6
CONTINUOUS
 62
     7
100
AcDbLine
 10
2225.699999999998
 20
900.0000000000017
 30
0.0
 11
2219.647999999999
 21
900.0000000000017
 31
0.0
  0
LINE
  5
E3
330
1F
100
AcDbEntity
  8
LAY-10
  6
CONTINUOUS
 62
     7
100
AcDbLine
 10
2225.699999999998
 20
896.0000000000014
 30
0.0
 11
2219.647999999999
 21
896.0000000000014
 31
0.0
  0
LINE
  5
E4
330
1F
100
AcDbEntity
  8
LAY-10
  6
CONTINUOUS
 62
     7
100
AcDbLine
 10
2225.699999999998
 20
884.0000000000015
 30
0.0
 11
2219.647999999999
 21
884.0000000000015
 31
0.0
  0
ARC
  5
E5
330
1F
100
AcDbEntity
  8
LAY-10
  6
CONTINUOUS
 62
     7
100
AcDbCircle
 10
2221.947796791442
 20
898.0000000000013
 30
0.0
 40
3.047796791443853
100
AcDbArc
 50
138.9884064076951
 51
221.0115935922896
  0
ARC
  5
E6
330
1F
100
AcDbEntity
  8
LAY-10
  6
CONTINUOUS
 62
     7
100
AcDbCircle
 10
2229.969187165775
 20
892.000000000001
 30
0.0
 40
11.06918716577541
100
AcDbArc
 50
158.8160443417694
 51
201.183955658219
  0
ARC
  5
E7
330
1F
100
AcDbEntity
  8
LAY-10
  6
CONTINUOUS
 62
     7
100
AcDbCircle
 10
2221.947796791442
 20
886.0000000000014
 30
0.0
 40
3.047796791443853
100
AcDbArc
 50
138.9884064076951
 51
221.011593592296
  0
LINE
  5
E8
330
1F
100
AcDbEntity
  8
LAY-10
  6
CONTINUOUS
 62
     7
100
AcDbLine
 10
2218.899999999999
 20
898.0000000000013
 30
0.0
 11
2218.899999999999
 21
886.0000000000014
 31
0.0
  0
LINE
  5
E9
330
1F
100
AcDbEntity
  8
LAY-10
  6
CONTINUOUS
 62
     7
100
AcDbLine
 10
2274.299999999999
 20
900.0000000000017
 30
0.0
 11
2280.351999999999
 21
900.0000000000017
 31
0.0
  0
LINE
  5
EA
330
1F
100
AcDbEntity
  8
LAY-10
  6
CONTINUOUS
 62
     7
100
AcDbLine
 10
2274.299999999999
 20
896.0000000000014
 30
0.0
 11
2280.351999999999
 21
896.0000000000014
 31
0.0
  0
LINE
  5
EB
330
1F
100
AcDbEntity
  8
LAY-10
  6
CONTINUOUS
 62
     7
100
AcDbLine
 10
2274.299999999999
 20
884.0000000000015
 30
0.0
 11
2280.351999999999
 21
884.0000000000015
 31
0.0
  0
ARC
  5
EC
330
1F
100
AcDbEntity
  8
LAY-10
  6
CONTINUOUS
 62
     7
100
AcDbCircle
 10
2278.052203208555
 20
898.0000000000013
 30
0.0
 40
3.047796791443853
100
AcDbArc
 50
318.9884064077104
 51
41.01159359230487
  0
ARC
  5
ED
330
1F
100
AcDbEntity
  8
LAY-10
  6
CONTINUOUS
 62
     7
100
AcDbCircle
 10
2270.030812834225
 20
892.000000000001
 30
0.0
 40
11.06918716577541
100
AcDbArc
 50
338.8160443417778
 51
21.18395565823389
  0
ARC
  5
EE
330
1F
100
AcDbEntity
  8
LAY-10
  6
CONTINUOUS
 62
     7
100
AcDbCircle
 10
2278.052203208555
 20
886.0000000000014
 30
0.0
 40
3.047796791443853
100
AcDbArc
 50
318.9884064076952
 51
41.01159359230487
  0
LINE
  5
EF
330
1F
100
AcDbEntity
  8
LAY-10
  6
CONTINUOUS
 62
     7
100
AcDbLine
 10
2281.099999999999
 20
898.0000000000013
 30
0.0
 11
2281.099999999999
 21
886.0000000000014
 31
0.0
  0
LINE
  5
F0
330
1F
100
AcDbEntity
  8
LAY-10
  6
CONTINUOUS
 62
     7
100
AcDbLine
 10
2225.699999999998
 20
4208.0
 30
0.0
 11
2219.647999999999
 21
4208.0
 31
0.0
  0
LINE
  5
F1
330
1F
100
AcDbEntity
  8
LAY-10
  6
CONTINUOUS
 62
     7
100
AcDbLine
 10
2225.699999999998
 20
4204.0
 30
0.0
 11
2219.647999999999
 21
4204.0
 31
0.0
  0
LINE
  5
F2
330
1F
100
AcDbEntity
  8
LAY-10
  6
CONTINUOUS
 62
     7
100
AcDbLine
 10
2225.699999999998
 20
4191.999999999999
 30
0.0
 11
2219.647999999999
 21
4191.999999999999
 31
0.0
  0
ARC
  5
F3
330
1F
100
AcDbEntity
  8
LAY-10
  6
CONTINUOUS
 62
     7
100
AcDbCircle
 10
2221.947796791442
 20
4206.0
 30
0.0
 40
3.047796791443853
100
AcDbArc
 50
138.9884064077128
 51
221.0115935922984
  0
ARC
  5
F4
330
1F
100
AcDbEntity
  8
LAY-10
  6
CONTINUOUS
 62
     7
100
AcDbCircle
 10
2229.969187165775
 20
4200.0
 30
0.0
 40
11.06918716577541
100
AcDbArc
 50
158.8160443417785
 51
201.1839556582284
  0
ARC
  5
F5
330
1F
100
AcDbEntity
  8
LAY-10
  6
CONTINUOUS
 62
     7
100
AcDbCircle
 10
2221.947796791442
 20
4194.0
 30
0.0
 40
3.047796791443853
100
AcDbArc
 50
138.9884064077128
 51
221.0115935923113
  0
LINE
  5
F6
330
1F
100
AcDbEntity
  8
LAY-10
  6
CONTINUOUS
 62
     7
100
AcDbLine
 10
2218.899999999999
 20
4206.0
 30
0.0
 11
2218.899999999999
 21
4194.0
 31
0.0
  0
LINE
  5
F7
330
1F
100
AcDbEntity
  8
LAY-10
  6
CONTINUOUS
 62
     7
100
AcDbLine
 10
2225.699999999998
 20
4191.999999999999
 30
0.0
 11
2225.699999999998
 21
4208.0
 31
0.0
  0
LINE
  5
F8
330
1F
100
AcDbEntity
  8
LAY-10
  6
CONTINUOUS
 62
     7
100
AcDbLine
 10
3574.300000000001
 20
4208.0
 30
0.0
 11
3580.352000000001
 21
4208.0
 31
0.0
  0
LINE
  5
F9
330
1F
100
AcDbEntity
  8
LAY-10
  6
CONTINUOUS
 62
     7
100
AcDbLine
 10
3574.300000000001
 20
4204.0
 30
0.0
 11
3580.352000000001
 21
4204.0
 31
0.0
  0
LINE
  5
FA
330
1F
100
AcDbEntity
  8
LAY-10
  6
CONTINUOUS
 62
     7
100
AcDbLine
 10
3574.300000000001
 20
4191.999999999999
 30
0.0
 11
3580.352000000001
 21
4191.999999999999
 31
0.0
  0
ARC
  5
FB
330
1F
100
AcDbEntity
  8
LAY-10
  6
CONTINUOUS
 62
     7
100
AcDbCircle
 10
3578.052203208557
 20
4206.0
 30
0.0
 40
3.047796791443853
100
AcDbArc
 50
318.9884064077016
 51
41.01159359229278
  0
ARC
  5
FC
330
1F
100
AcDbEntity
  8
LAY-10
  6
CONTINUOUS
 62
     7
100
AcDbCircle
 10
3570.030812834225
 20
4200.0
 30
0.0
 40
11.06918716577541
100
AcDbArc
 50
338.8160443417725
 51
21.18395565822232
  0
ARC
  5
FD
330
1F
100
AcDbEntity
  8
LAY-10
  6
CONTINUOUS
 62
     7
100
AcDbCircle
 10
3578.052203208557
 20
4194.0
 30
0.0
 40
3.047796791443853
100
AcDbArc
 50
318.9884064076888
 51
41.01159359229278
  0
LINE
  5
FE
330
1F
100
AcDbEntity
  8
LAY-10
  6
CONTINUOUS
 62
     7
100
AcDbLine
 10
3581.100000000001
 20
4206.0
 30
0.0
 11
3581.100000000001
 21
4194.0
 31
0.0
  0
LINE
  5
FF
330
1F
100
AcDbEntity
  8
LAY-10
  6
CONTINUOUS
 62
     7
100
AcDbLine
 10
3574.300000000001
 20
4191.999999999999
 30
0.0
 11
3574.300000000001
 21
4208.0
 31
0.0
  0
LINE
  5
100
330
1F
100
AcDbEntity
  8
LAY-10
  6
CONTINUOUS
 62
     7
100
AcDbLine
 10
2686.999999999871
 20
4192.199999999996
 30
0.0
 11
2686.999999999871
 21
4186.447999999976
 31
0.0
  0
LINE
  5
101
330
1F
100
AcDbEntity
  8
LAY-10
  6
CONTINUOUS
 62
     7
100
AcDbLine
 10
2690.999999999872
 20
4192.199999999996
 30
0.0
 11
2690.999999999872
 21
4186.447999999976
 31
0.0
  0
LINE
  5
102
330
1F
100
AcDbEntity
  8
LAY-10
  6
CONTINUOUS
 62
     7
100
AcDbLine
 10
2698.999999999872
 20
4192.199999999996
 30
0.0
 11
2698.999999999872
 21
4186.447999999976
 31
0.0
  0
LINE
  5
103
330
1F
100
AcDbEntity
  8
LAY-10
  6
CONTINUOUS
 62
     7
100
AcDbLine
 10
2702.999999999873
 20
4192.199999999996
 30
0.0
 11
2702.999999999873
 21
4186.447999999976
 31
0.0
  0
ARC
  5
104
330
1F
100
AcDbEntity
  8
LAY-10
  6
CONTINUOUS
 62
     7
100
AcDbCircle
 10
2688.999999999872
 20
4188.74779679142
 30
0.0
 40
3.047796791443853
100
AcDbArc
 50
228.9884064077321
 51
311.0115935922807
  0
ARC
  5
105
330
1F
100
AcDbEntity
  8
LAY-10
  6
CONTINUOUS
 62
     7
100
AcDbCircle
 10
2694.999999999871
 20
4196.769187165751
 30
0.0
 40
11.0691871657754
100
AcDbArc
 50
248.8160443417776
 51
291.1839556582328
  0
ARC
  5
106
330
1F
100
AcDbEntity
  8
LAY-10
  6
CONTINUOUS
 62
     7
100
AcDbCircle
 10
2700.999999999872
 20
4188.74779679142
 30
0.0
 40
3.047796791443853
100
AcDbArc
 50
228.9884064077192
 51
311.0115935923113
  0
LINE
  5
107
330
1F
100
AcDbEntity
  8
LAY-10
  6
CONTINUOUS
 62
     7
100
AcDbLine
 10
2688.999999999872
 20
4185.699999999977
 30
0.0
 11
2700.999999999872
 21
4185.699999999977
 31
0.0
  0
LINE
  5
108
330
1F
100
AcDbEntity
  8
LAY-10
  6
CONTINUOUS
 62
     7
100
AcDbLine
 10
3113.000000000127
 20
4207.800000000005
 30
0.0
 11
3113.000000000127
 21
4213.552000000025
 31
0.0
  0
LINE
  5
109
330
1F
100
AcDbEntity
  8
LAY-10
  6
CONTINUOUS
 62
     7
100
AcDbLine
 10
3109.000000000127
 20
4207.800000000005
 30
0.0
 11
3109.000000000127
 21
4213.552000000025
 31
0.0
  0
LINE
  5
10A
330
1F
100
AcDbEntity
  8
LAY-10
  6
CONTINUOUS
 62
     7
100
AcDbLine
 10
3101.000000000126
 20
4207.800000000005
 30
0.0
 11
3101.000000000126
 21
4213.552000000025
 31
0.0
  0
LINE
  5
10B
330
1F
100
AcDbEntity
  8
LAY-10
  6
CONTINUOUS
 62
     7
100
AcDbLine
 10
3097.000000000126
 20
4207.800000000005
 30
0.0
 11
3097.000000000126
 21
4213.552000000025
 31
0.0
  0
ARC
  5
10C
330
1F
100
AcDbEntity
  8
LAY-10
  6
CONTINUOUS
 62
     7
100
AcDbCircle
 10
3111.000000000126
 20
4211.252203208581
 30
0.0
 40
3.047796791443853
100
AcDbArc
 50
48.98840640773211
 51
131.0115935922808
  0
ARC
  5
10D
330
1F
100
AcDbEntity
  8
LAY-10
  6
CONTINUOUS
 62
     7
100
AcDbCircle
 10
3105.000000000127
 20
4203.23081283425
 30
0.0
 40
11.0691871657754
100
AcDbArc
 50
68.81604434177765
 51
111.1839556582328
  0
ARC
  5
10E
330
1F
100
AcDbEntity
  8
LAY-10
  6
CONTINUOUS
 62
     7
100
AcDbCircle
 10
3099.000000000127
 20
4211.252203208581
 30
0.0
 40
3.047796791443853
100
AcDbArc
 50
48.98840640771922
 51
131.0115935923113
  0
LINE
  5
10F
330
1F
100
AcDbEntity
  8
LAY-10
  6
CONTINUOUS
 62
     7
100
AcDbLine
 10
3111.000000000126
 20
4214.300000000024
 30
0.0
 11
3099.000000000127
 21
4214.300000000024
 31
0.0
  0
LINE
  5
110
330
1F
100
AcDbEntity
  8
LAY-10
  6
CONTINUOUS
 62
     7
100
AcDbLine
 10
3574.300000000001
 20
1100.000000000001
 30
0.0
 11
3580.352000000001
 21
1100.000000000001
 31
0.0
  0
LINE
  5
111
330
1F
100
AcDbEntity
  8
LAY-10
  6
CONTINUOUS
 62
     7
100
AcDbLine
 10
3574.300000000001
 20
1096.000000000001
 30
0.0
 11
3580.352000000001
 21
1096.000000000001
 31
0.0
  0
LINE
  5
112
330
1F
100
AcDbEntity
  8
LAY-10
  6
CONTINUOUS
 62
     7
100
AcDbLine
 10
3574.300000000001
 20
1084.000000000001
 30
0.0
 11
3580.352000000001
 21
1084.000000000001
 31
0.0
  0
ARC
  5
113
330
1F
100
AcDbEntity
  8
LAY-10
  6
CONTINUOUS
 62
     7
100
AcDbCircle
 10
3578.052203208557
 20
1098.000000000002
 30
0.0
 40
3.047796791443853
100
AcDbArc
 50
318.9884064076952
 51
41.01159359227749
  0
ARC
  5
114
330
1F
100
AcDbEntity
  8
LAY-10
  6
CONTINUOUS
 62
     7
100
AcDbCircle
 10
3570.030812834225
 20
1092.000000000002
 30
0.0
 40
11.06918716577541
100
AcDbArc
 50
338.8160443417704
 51
21.1839556582234
  0
ARC
  5
115
330
1F
100
AcDbEntity
  8
LAY-10
  6
CONTINUOUS
 62
     7
100
AcDbCircle
 10
3578.052203208557
 20
1086.000000000001
 30
0.0
 40
3.047796791443853
100
AcDbArc
 50
318.9884064076952
 51
41.01159359228075
  0
LINE
  5
116
330
1F
100
AcDbEntity
  8
LAY-10
  6
CONTINUOUS
 62
     7
100
AcDbLine
 10
3581.100000000001
 20
1098.000000000002
 30
0.0
 11
3581.100000000001
 21
1086.000000000001
 31
0.0
  0
LINE
  5
117
330
1F
100
AcDbEntity
  8
LAY-10
  6
CONTINUOUS
 62
     7
100
AcDbLine
 10
3525.700000000001
 20
1100.000000000001
 30
0.0
 11
3519.648
 21
1100.000000000001
 31
0.0
  0
LINE
  5
118
330
1F
100
AcDbEntity
  8
LAY-10
  6
CONTINUOUS
 62
     7
100
AcDbLine
 10
3525.700000000001
 20
1096.000000000001
 30
0.0
 11
3519.648
 21
1096.000000000001
 31
0.0
  0
LINE
  5
119
330
1F
100
AcDbEntity
  8
LAY-10
  6
CONTINUOUS
 62
     7
100
AcDbLine
 10
3525.700000000001
 20
1084.000000000001
 30
0.0
 11
3519.648
 21
1084.000000000001
 31
0.0
  0
ARC
  5
11A
330
1F
100
AcDbEntity
  8
LAY-10
  6
CONTINUOUS
 62
     7
100
AcDbCircle
 10
3521.947796791444
 20
1098.000000000002
 30
0.0
 40
3.047796791443853
100
AcDbArc
 50
138.9884064077193
 51
221.0115935923016
  0
ARC
  5
11B
330
1F
100
AcDbEntity
  8
LAY-10
  6
CONTINUOUS
 62
     7
100
AcDbCircle
 10
3529.969187165775
 20
1092.000000000002
 30
0.0
 40
11.06918716577541
100
AcDbArc
 50
158.8160443417736
 51
201.1839556582328
  0
ARC
  5
11C
330
1F
100
AcDbEntity
  8
LAY-10
  6
CONTINUOUS
 62
     7
100
AcDbCircle
 10
3521.947796791444
 20
1086.000000000001
 30
0.0
 40
3.047796791443853
100
AcDbArc
 50
138.9884064077193
 51
221.0115935923016
  0
LINE
  5
11D
330
1F
100
AcDbEntity
  8
LAY-10
  6
CONTINUOUS
 62
     7
100
AcDbLine
 10
3518.9
 20
1098.000000000002
 30
0.0
 11
3518.9
 21
1086.000000000001
 31
0.0
  0
LINE
  5
11E
330
1F
100
AcDbEntity
  8
LAY-10
  6
CONTINUOUS
 62
     7
100
AcDbLine
 10
3574.300000000001
 20
900.0000000000017
 30
0.0
 11
3580.352000000001
 21
900.0000000000017
 31
0.0
  0
LINE
  5
11F
330
1F
100
AcDbEntity
  8
LAY-10
  6
CONTINUOUS
 62
     7
100
AcDbLine
 10
3574.300000000001
 20
896.0000000000014
 30
0.0
 11
3580.352000000001
 21
896.0000000000014
 31
0.0
  0
LINE
  5
120
330
1F
100
AcDbEntity
  8
LAY-10
  6
CONTINUOUS
 62
     7
100
AcDbLine
 10
3574.300000000001
 20
884.0000000000015
 30
0.0
 11
3580.352000000001
 21
884.0000000000015
 31
0.0
  0
ARC
  5
121
330
1F
100
AcDbEntity
  8
LAY-10
  6
CONTINUOUS
 62
     7
100
AcDbCircle
 10
3578.052203208557
 20
898.0000000000013
 30
0.0
 40
3.047796791443853
100
AcDbArc
 50
318.9884064076983
 51
41.01159359230808
  0
ARC
  5
122
330
1F
100
AcDbEntity
  8
LAY-10
  6
CONTINUOUS
 62
     7
100
AcDbCircle
 10
3570.030812834225
 20
892.000000000001
 30
0.0
 40
11.06918716577541
100
AcDbArc
 50
338.81604434178
 51
21.18395565822971
  0
ARC
  5
123
330
1F
100
AcDbEntity
  8
LAY-10
  6
CONTINUOUS
 62
     7
100
AcDbCircle
 10
3578.052203208557
 20
886.0000000000014
 30
0.0
 40
3.047796791443853
100
AcDbArc
 50
318.9884064076952
 51
41.01159359230808
  0
LINE
  5
124
330
1F
100
AcDbEntity
  8
LAY-10
  6
CONTINUOUS
 62
     7
100
AcDbLine
 10
3581.100000000001
 20
898.0000000000013
 30
0.0
 11
3581.100000000001
 21
886.0000000000014
 31
0.0
  0
LINE
  5
125
330
1F
100
AcDbEntity
  8
LAY-10
  6
CONTINUOUS
 62
     7
100
AcDbLine
 10
3525.700000000001
 20
900.0000000000017
 30
0.0
 11
3519.648
 21
900.0000000000017
 31
0.0
  0
LINE
  5
126
330
1F
100
AcDbEntity
  8
LAY-10
  6
CONTINUOUS
 62
     7
100
AcDbLine
 10
3525.700000000001
 20
896.0000000000014
 30
0.0
 11
3519.648
 21
896.0000000000014
 31
0.0
  0
LINE
  5
127
330
1F
100
AcDbEntity
  8
LAY-10
  6
CONTINUOUS
 62
     7
100
AcDbLine
 10
3525.700000000001
 20
884.0000000000015
 30
0.0
 11
3519.648
 21
884.0000000000015
 31
0.0
  0
ARC
  5
128
330
1F
100
AcDbEntity
  8
LAY-10
  6
CONTINUOUS
 62
     7
100
AcDbCircle
 10
3521.947796791444
 20
898.0000000000013
 30
0.0
 40
3.047796791443853
100
AcDbArc
 50
138.9884064076951
 51
221.0115935922896
  0
ARC
  5
129
330
1F
100
AcDbEntity
  8
LAY-10
  6
CONTINUOUS
 62
     7
100
AcDbCircle
 10
3529.969187165775
 20
892.000000000001
 30
0.0
 40
11.06918716577541
100
AcDbArc
 50
158.8160443417672
 51
201.1839556582221
  0
ARC
  5
12A
330
1F
100
AcDbEntity
  8
LAY-10
  6
CONTINUOUS
 62
     7
100
AcDbCircle
 10
3521.947796791444
 20
886.0000000000014
 30
0.0
 40
3.047796791443853
100
AcDbArc
 50
138.9884064076951
 51
221.0115935923016
  0
LINE
  5
12B
330
1F
100
AcDbEntity
  8
LAY-10
  6
CONTINUOUS
 62
     7
100
AcDbLine
 10
3518.9
 20
898.0000000000013
 30
0.0
 11
3518.9
 21
886.0000000000014
 31
0.0
  0
LINE
  5
12C
330
1F
100
AcDbEntity
  8
LAY-10
  6
CONTINUOUS
 62
     7
100
AcDbLine
 10
2626.810769438962
 20
4192.737108978717
 30
0.0
 11
2623.062401208213
 21
4198.165396137368
 31
0.0
  0
LINE
  5
12D
330
1F
100
AcDbEntity
  8
LAY-10
  6
CONTINUOUS
 62
     7
100
AcDbLine
 10
2623.062401208213
 20
4198.165396137368
 30
0.0
 11
2620.892433732567
 21
4192.737108978717
 31
0.0
  0
LINE
  5
12E
330
1F
100
AcDbEntity
  8
LAY-10
  6
CONTINUOUS
 62
     7
100
AcDbLine
 10
2626.810769438962
 20
4192.737108978717
 30
0.0
 11
2627.125332483006
 21
4192.737108978717
 31
0.0
  0
LINE
  5
12F
330
1F
100
AcDbEntity
  8
LAY-10
  6
CONTINUOUS
 62
     7
100
AcDbLine
 10
2672.83656579742
 20
4192.61818026635
 30
0.0
 11
2673.151646537986
 21
4192.61818026635
 31
0.0
  0
LINE
  5
130
330
1F
100
AcDbEntity
  8
LAY-10
  6
CONTINUOUS
 62
     7
100
AcDbLine
 10
2709.999999999968
 20
4193.799999999996
 30
0.0
 11
2709.999999999968
 21
4199.799999999999
 31
0.0
  0
LINE
  5
131
330
1F
100
AcDbEntity
  8
LAY-10
  6
CONTINUOUS
 62
     7
100
AcDbLine
 10
2682.748282397707
 20
4199.799999999999
 30
0.0
 11
2709.999999999968
 21
4199.799999999999
 31
0.0
  0
ARC
  5
132
330
1F
100
AcDbEntity
  8
LAY-10
  6
CONTINUOUS
 62
     7
100
AcDbCircle
 10
2682.748282397707
 20
4189.799999999999
 30
0.0
 40
10.0
100
AcDbArc
 50
90.00000000000001
 51
162.6999268340455
  0
LINE
  5
133
330
1F
100
AcDbEntity
  8
LAY-10
  6
CONTINUOUS
 62
     7
100
AcDbLine
 10
2682.433932848174
 20
4193.799999999996
 30
0.0
 11
2709.999999999968
 21
4193.799999999996
 31
0.0
  0
ARC
  5
134
330
1F
100
AcDbEntity
  8
LAY-10
  6
CONTINUOUS
 62
     7
100
AcDbCircle
 10
2650.0
 20
4200.0
 30
0.0
 40
30.0
100
AcDbArc
 50
194.0103027564806
 51
342.5423968762703
  0
ARC
  5
135
330
1F
100
AcDbEntity
  8
LAY-10
  6
CONTINUOUS
 62
     7
100
AcDbCircle
 10
2682.433932848174
 20
4189.799999999997
 30
0.0
 40
4.0
100
AcDbArc
 50
90.00000000000001
 51
162.5423968762674
  0
ARC
  5
136
330
1F
100
AcDbEntity
  8
LAY-10
  6
CONTINUOUS
 62
     7
100
AcDbCircle
 10
2650.0
 20
4200.0
 30
0.0
 40
24.0
100
AcDbArc
 50
197.6150621644506
 51
342.086801145177
  0
ARC
  5
137
330
1F
100
AcDbEntity
  8
LAY-10
  6
CONTINUOUS
 62
     7
100
AcDbCircle
 10
2900.0
 20
4200.0
 30
0.0
 40
260.0
100
AcDbArc
 50
186.3596602397281
 51
353.6403397602714
  0
ARC
  5
138
330
1F
100
AcDbEntity
  8
LAY-10
  6
CONTINUOUS
 62
     7
100
AcDbCircle
 10
2900.0
 20
4200.0
 30
0.0
 40
240.0
100
AcDbArc
 50
186.6196277952835
 51
353.3803722047163
  0
LINE
  5
139
330
1F
100
AcDbEntity
  8
LAY-10
  6
CONTINUOUS
 62
     7
100
AcDbLine
 10
3173.189230561037
 20
4192.737108978717
 30
0.0
 11
3176.937598791785
 21
4198.165396137368
 31
0.0
  0
LINE
  5
13A
330
1F
100
AcDbEntity
  8
LAY-10
  6
CONTINUOUS
 62
     7
100
AcDbLine
 10
3176.937598791785
 20
4198.165396137368
 30
0.0
 11
3179.107566267433
 21
4192.737108978717
 31
0.0
  0
LINE
  5
13B
330
1F
100
AcDbEntity
  8
LAY-10
  6
CONTINUOUS
 62
     7
100
AcDbLine
 10
3173.189230561037
 20
4192.737108978717
 30
0.0
 11
3172.874667516993
 21
4192.737108978717
 31
0.0
  0
LINE
  5
13C
330
1F
100
AcDbEntity
  8
LAY-10
  6
CONTINUOUS
 62
     7
100
AcDbLine
 10
3127.16343420258
 20
4192.61818026635
 30
0.0
 11
3126.848353462013
 21
4192.61818026635
 31
0.0
  0
LINE
  5
13D
330
1F
100
AcDbEntity
  8
LAY-10
  6
CONTINUOUS
 62
     7
100
AcDbLine
 10
3090.000000000031
 20
4193.799999999996
 30
0.0
 11
3090.000000000031
 21
4199.799999999999
 31
0.0
  0
LINE
  5
13E
330
1F
100
AcDbEntity
  8
LAY-10
  6
CONTINUOUS
 62
     7
100
AcDbLine
 10
3117.251717602293
 20
4199.799999999999
 30
0.0
 11
3090.000000000031
 21
4199.799999999999
 31
0.0
  0
ARC
  5
13F
330
1F
100
AcDbEntity
  8
LAY-10
  6
CONTINUOUS
 62
     7
100
AcDbCircle
 10
3117.251717602293
 20
4189.799999999999
 30
0.0
 40
10.0
100
AcDbArc
 50
17.30007316595522
 51
90.00000000000001
  0
LINE
  5
140
330
1F
100
AcDbEntity
  8
LAY-10
  6
CONTINUOUS
 62
     7
100
AcDbLine
 10
3117.566067151825
 20
4193.799999999996
 30
0.0
 11
3090.000000000031
 21
4193.799999999996
 31
0.0
  0
ARC
  5
141
330
1F
100
AcDbEntity
  8
LAY-10
  6
CONTINUOUS
 62
     7
100
AcDbCircle
 10
3150.0
 20
4200.0
 30
0.0
 40
30.0
100
AcDbArc
 50
197.4576031237292
 51
345.9896972435191
  0
ARC
  5
142
330
1F
100
AcDbEntity
  8
LAY-10
  6
CONTINUOUS
 62
     7
100
AcDbCircle
 10
3117.566067151825
 20
4189.799999999997
 30
0.0
 40
4.0
100
AcDbArc
 50
17.45760312372012
 51
90.00000000000001
  0
ARC
  5
143
330
1F
100
AcDbEntity
  8
LAY-10
  6
CONTINUOUS
 62
     7
100
AcDbCircle
 10
3150.0
 20
4200.0
 30
0.0
 40
24.0
100
AcDbArc
 50
197.913198854823
 51
342.3849378355492
  0
LINE
  5
144
330
1F
100
AcDbEntity
  8
LAY-10
  6
CONTINUOUS
 62
     7
100
AcDbLine
 10
3173.189230561037
 20
4207.262891021283
 30
0.0
 11
3176.937598791785
 21
4201.834603862632
 31
0.0
  0
LINE
  5
145
330
1F
100
AcDbEntity
  8
LAY-10
  6
CONTINUOUS
 62
     7
100
AcDbLine
 10
3176.937598791785
 20
4201.834603862632
 30
0.0
 11
3179.107566267432
 21
4207.262891021283
 31
0.0
  0
LINE
  5
146
330
1F
100
AcDbEntity
  8
LAY-10
  6
CONTINUOUS
 62
     7
100
AcDbLine
 10
3173.189230561037
 20
4207.262891021283
 30
0.0
 11
3172.874667516992
 21
4207.262891021283
 31
0.0
  0
LINE
  5
147
330
1F
100
AcDbEntity
  8
LAY-10
  6
CONTINUOUS
 62
     7
100
AcDbLine
 10
3127.163434202579
 20
4207.38181973365
 30
0.0
 11
3126.848353462012
 21
4207.38181973365
 31
0.0
  0
LINE
  5
148
330
1F
100
AcDbEntity
  8
LAY-10
  6
CONTINUOUS
 62
     7
100
AcDbLine
 10
3090.00000000003
 20
4206.200000000004
 30
0.0
 11
3090.00000000003
 21
4200.200000000001
 31
0.0
  0
LINE
  5
149
330
1F
100
AcDbEntity
  8
LAY-10
  6
CONTINUOUS
 62
     7
100
AcDbLine
 10
3117.251717602292
 20
4200.200000000001
 30
0.0
 11
3090.00000000003
 21
4200.200000000001
 31
0.0
  0
ARC
  5
14A
330
1F
100
AcDbEntity
  8
LAY-10
  6
CONTINUOUS
 62
     7
100
AcDbCircle
 10
3117.251717602292
 20
4210.200000000001
 30
0.0
 40
10.0
100
AcDbArc
 50
270.0
 51
342.6999268340447
  0
LINE
  5
14B
330
1F
100
AcDbEntity
  8
LAY-10
  6
CONTINUOUS
 62
     7
100
AcDbLine
 10
3117.566067151824
 20
4206.200000000004
 30
0.0
 11
3090.00000000003
 21
4206.200000000004
 31
0.0
  0
ARC
  5
14C
330
1F
100
AcDbEntity
  8
LAY-10
  6
CONTINUOUS
 62
     7
100
AcDbCircle
 10
3149.999999999999
 20
4200.0
 30
0.0
 40
30.0
100
AcDbArc
 50
14.01030275648061
 51
162.5423968762707
  0
ARC
  5
14D
330
1F
100
AcDbEntity
  8
LAY-10
  6
CONTINUOUS
 62
     7
100
AcDbCircle
 10
3117.566067151824
 20
4210.200000000003
 30
0.0
 40
4.0
100
AcDbArc
 50
270.0
 51
342.542396876278
  0
ARC
  5
14E
330
1F
100
AcDbEntity
  8
LAY-10
  6
CONTINUOUS
 62
     7
100
AcDbCircle
 10
3149.999999999999
 20
4200.0
 30
0.0
 40
24.0
100
AcDbArc
 50
17.61506216445021
 51
162.086801145177
  0
ARC
  5
14F
330
1F
100
AcDbEntity
  8
LAY-10
  6
CONTINUOUS
 62
     7
100
AcDbCircle
 10
2899.999999999999
 20
4200.0
 30
0.0
 40
260.0
100
AcDbArc
 50
6.359660239728488
 51
173.6403397602715
  0
ARC
  5
150
330
1F
100
AcDbEntity
  8
LAY-10
  6
CONTINUOUS
 62
     7
100
AcDbCircle
 10
2899.999999999999
 20
4200.0
 30
0.0
 40
240.0
100
AcDbArc
 50
6.619627795283716
 51
173.380372204716
  0
LINE
  5
151
330
1F
100
AcDbEntity
  8
LAY-10
  6
CONTINUOUS
 62
     7
100
AcDbLine
 10
2626.810769438962
 20
4207.262891021283
 30
0.0
 11
2623.062401208213
 21
4201.834603862632
 31
0.0
  0
LINE
  5
152
330
1F
100
AcDbEntity
  8
LAY-10
  6
CONTINUOUS
 62
     7
100
AcDbLine
 10
2623.062401208213
 20
4201.834603862632
 30
0.0
 11
2620.892433732566
 21
4207.262891021283
 31
0.0
  0
LINE
  5
153
330
1F
100
AcDbEntity
  8
LAY-10
  6
CONTINUOUS
 62
     7
100
AcDbLine
 10
2626.810769438962
 20
4207.262891021283
 30
0.0
 11
2627.125332483006
 21
4207.262891021283
 31
0.0
  0
LINE
  5
154
330
1F
100
AcDbEntity
  8
LAY-10
  6
CONTINUOUS
 62
     7
100
AcDbLine
 10
2672.836565797419
 20
4207.38181973365
 30
0.0
 11
2673.151646537986
 21
4207.38181973365
 31
0.0
  0
LINE
  5
155
330
1F
100
AcDbEntity
  8
LAY-10
  6
CONTINUOUS
 62
     7
100
AcDbLine
 10
2709.999999999968
 20
4206.200000000004
 30
0.0
 11
2709.999999999968
 21
4200.200000000001
 31
0.0
  0
LINE
  5
156
330
1F
100
AcDbEntity
  8
LAY-10
  6
CONTINUOUS
 62
     7
100
AcDbLine
 10
2682.748282397706
 20
4200.200000000001
 30
0.0
 11
2709.999999999968
 21
4200.200000000001
 31
0.0
  0
ARC
  5
157
330
1F
100
AcDbEntity
  8
LAY-10
  6
CONTINUOUS
 62
     7
100
AcDbCircle
 10
2682.748282397706
 20
4210.200000000001
 30
0.0
 40
10.0
100
AcDbArc
 50
197.3000731659545
 51
270.0
  0
LINE
  5
158
330
1F
100
AcDbEntity
  8
LAY-10
  6
CONTINUOUS
 62
     7
100
AcDbLine
 10
2682.433932848174
 20
4206.200000000004
 30
0.0
 11
2709.999999999968
 21
4206.200000000004
 31
0.0
  0
ARC
  5
159
330
1F
100
AcDbEntity
  8
LAY-10
  6
CONTINUOUS
 62
     7
100
AcDbCircle
 10
2649.999999999999
 20
4200.0
 30
0.0
 40
30.0
100
AcDbArc
 50
17.45760312372946
 51
165.9896972435194
  0
ARC
  5
15A
330
1F
100
AcDbEntity
  8
LAY-10
  6
CONTINUOUS
 62
     7
100
AcDbCircle
 10
2682.433932848174
 20
4210.200000000003
 30
0.0
 40
4.0
100
AcDbArc
 50
197.4576031237181
 51
270.0
  0
ARC
  5
15B
330
1F
100
AcDbEntity
  8
LAY-10
  6
CONTINUOUS
 62
     7
100
AcDbCircle
 10
2649.999999999999
 20
4200.0
 30
0.0
 40
24.0
100
AcDbArc
 50
17.913198854823
 51
162.3849378355491
  0
CIRCLE
  5
15C
330
1F
100
AcDbEntity
  8
LAY-10
  6
CONTINUOUS
 62
     7
100
AcDbCircle
 10
2650.0
 20
4200.0
 30
0.0
 40
24.3
  0
CIRCLE
  5
15D
330
1F
100
AcDbEntity
  8
LAY-10
  6
CONTINUOUS
 62
     7
100
AcDbCircle
 10
3150.0
 20
4200.0
 30
0.0
 40
24.3
  0
LINE
  5
15E
330
1F
100
AcDbEntity
  8
LAY-10
  6
CONTINUOUS
 62
     7
100
AcDbLine
 10
2575.7
 20
1167.7
 30
0.0
 11
2324.299999999999
 21
1167.7
 31
0.0
  0
LINE
  5
15F
330
1F
100
AcDbEntity
  8
LAY-10
  6
CONTINUOUS
 62
     7
100
AcDbLine
 10
2575.7
 20
1216.3
 30
0.0
 11
2324.299999999999
 21
1216.3
 31
0.0
  0
LINE
  5
160
330
1F
100
AcDbEntity
  8
LAY-10
  6
CONTINUOUS
 62
     7
100
AcDbLine
 10
2274.299999999999
 20
1117.7
 30
0.0
 11
2274.299999999999
 21
792.0000000000016
 31
0.0
  0
LINE
  5
161
330
1F
100
AcDbEntity
  8
LAY-10
  6
CONTINUOUS
 62
     7
100
AcDbLine
 10
2225.699999999998
 20
1117.7
 30
0.0
 11
2225.699999999998
 21
792.0000000000016
 31
0.0
  0
LINE
  5
162
330
1F
100
AcDbEntity
  8
LAY-10
  6
CONTINUOUS
 62
     7
100
AcDbLine
 10
2225.699999999998
 20
792.0000000000016
 30
0.0
 11
2274.299999999999
 21
792.0000000000016
 31
0.0
  0
ARC
  5
163
330
1F
100
AcDbEntity
  8
LAY-10
  6
CONTINUOUS
 62
     7
100
AcDbCircle
 10
2575.7
 20
1266.3
 30
0.0
 40
50.0
100
AcDbArc
 50
270.0
 51
0.0
  0
ARC
  5
164
330
1F
100
AcDbEntity
  8
LAY-10
  6
CONTINUOUS
 62
     7
100
AcDbCircle
 10
2575.7
 20
1266.3
 30
0.0
 40
98.6
100
AcDbArc
 50
270.0
 51
0.0
  0
ARC
  5
165
330
1F
100
AcDbEntity
  8
LAY-10
  6
CONTINUOUS
 62
     7
100
AcDbCircle
 10
2324.299999999999
 20
1117.7
 30
0.0
 40
50.0
100
AcDbArc
 50
90.00000000000001
 51
180.0
  0
ARC
  5
166
330
1F
100
AcDbEntity
  8
LAY-10
  6
CONTINUOUS
 62
     7
100
AcDbCircle
 10
2324.299999999999
 20
1117.7
 30
0.0
 40
98.6
100
AcDbArc
 50
90.00000000000001
 51
180.0
  0
LINE
  5
167
330
1F
100
AcDbEntity
  8
LAY-10
  6
CONTINUOUS
 62
     7
100
AcDbLine
 10
2314.999999999999
 20
888.8000000000011
 30
0.0
 11
2314.999999999999
 21
895.200000000043
 31
0.0
  0
LINE
  5
168
330
1F
100
AcDbEntity
  8
LAY-10
  6
CONTINUOUS
 62
     7
100
AcDbLine
 10
2281.099999999999
 20
896.0000000000014
 30
0.0
 11
2314.199999999999
 21
896.0000000000014
 31
0.0
  0
LINE
  5
169
330
1F
100
AcDbEntity
  8
LAY-10
  6
CONTINUOUS
 62
     7
100
AcDbLine
 10
2274.299999999999
 20
888.0000000000018
 30
0.0
 11
2314.199999999999
 21
888.0000000000018
 31
0.0
  0
LINE
  5
16A
330
1F
100
AcDbEntity
  8
LAY-10
  6
CONTINUOUS
 62
     7
100
AcDbLine
 10
2314.199999999999
 20
896.0000000000014
 30
0.0
 11
2314.199999999999
 21
888.0000000000018
 31
0.0
  0
LINE
  5
16B
330
1F
100
AcDbEntity
  8
LAY-10
  6
CONTINUOUS
 62
     7
100
AcDbLine
 10
2314.999999999999
 20
895.2000000000021
 30
0.0
 11
2281.099999999999
 21
895.2000000000021
 31
0.0
  0
LINE
  5
16C
330
1F
100
AcDbEntity
  8
LAY-10
  6
CONTINUOUS
 62
     7
100
AcDbLine
 10
2314.999999999999
 20
888.8000000000011
 30
0.0
 11
2281.099999999999
 21
888.8000000000011
 31
0.0
  0
LINE
  5
16D
330
1F
100
AcDbEntity
  8
LAY-10
  6
CONTINUOUS
 62
     7
100
AcDbLine
 10
2314.199999999999
 20
896.0000000000014
 30
0.0
 11
2315.00000000002
 21
895.2000000000226
 31
0.0
  0
LINE
  5
16E
330
1F
100
AcDbEntity
  8
LAY-10
  6
CONTINUOUS
 62
     7
100
AcDbLine
 10
2314.199999999999
 20
888.0000000000018
 30
0.0
 11
2314.99999999998
 21
888.8000000000204
 31
0.0
  0
LINE
  5
16F
330
1F
100
AcDbEntity
  8
LAY-10
  6
CONTINUOUS
 62
     7
100
AcDbLine
 10
2185.799999999999
 20
896.0000000000014
 30
0.0
 11
2185.799999999999
 21
888.0000000000018
 31
0.0
  0
LINE
  5
170
330
1F
100
AcDbEntity
  8
LAY-10
  6
CONTINUOUS
 62
     7
100
AcDbLine
 10
2185.0
 20
895.2000000000021
 30
0.0
 11
2218.899999999999
 21
895.2000000000021
 31
0.0
  0
LINE
  5
171
330
1F
100
AcDbEntity
  8
LAY-10
  6
CONTINUOUS
 62
     7
100
AcDbLine
 10
2185.0
 20
888.8000000000011
 30
0.0
 11
2218.899999999999
 21
888.8000000000011
 31
0.0
  0
LINE
  5
172
330
1F
100
AcDbEntity
  8
LAY-10
  6
CONTINUOUS
 62
     7
100
AcDbLine
 10
2185.799999999999
 20
896.0000000000014
 30
0.0
 11
2184.999999999978
 21
895.2000000000226
 31
0.0
  0
LINE
  5
173
330
1F
100
AcDbEntity
  8
LAY-10
  6
CONTINUOUS
 62
     7
100
AcDbLine
 10
2185.799999999999
 20
888.0000000000018
 30
0.0
 11
2185.000000000019
 21
888.8000000000204
 31
0.0
  0
LINE
  5
174
330
1F
100
AcDbEntity
  8
LAY-10
  6
CONTINUOUS
 62
     7
100
AcDbLine
 10
2218.899999999999
 20
896.0000000000014
 30
0.0
 11
2185.799999999999
 21
896.0000000000014
 31
0.0
  0
LINE
  5
175
330
1F
100
AcDbEntity
  8
LAY-10
  6
CONTINUOUS
 62
     7
100
AcDbLine
 10
2225.699999999998
 20
888.0000000000018
 30
0.0
 11
2185.799999999999
 21
888.0000000000018
 31
0.0
  0
LINE
  5
176
330
1F
100
AcDbEntity
  8
LAY-10
  6
CONTINUOUS
 62
     7
100
AcDbLine
 10
2185.0
 20
888.8000000000011
 30
0.0
 11
2185.0
 21
895.200000000043
 31
0.0
  0
LINE
  5
177
330
1F
100
AcDbEntity
  8
LAY-10
  6
CONTINUOUS
 62
     7
100
AcDbLine
 10
2314.199999999999
 20
1096.000000000001
 30
0.0
 11
2314.199999999999
 21
1088.000000000001
 31
0.0
  0
LINE
  5
178
330
1F
100
AcDbEntity
  8
LAY-10
  6
CONTINUOUS
 62
     7
100
AcDbLine
 10
2314.999999999999
 20
1095.200000000001
 30
0.0
 11
2281.099999999999
 21
1095.200000000001
 31
0.0
  0
LINE
  5
179
330
1F
100
AcDbEntity
  8
LAY-10
  6
CONTINUOUS
 62
     7
100
AcDbLine
 10
2314.999999999999
 20
1088.800000000001
 30
0.0
 11
2281.099999999999
 21
1088.800000000001
 31
0.0
  0
LINE
  5
17A
330
1F
100
AcDbEntity
  8
LAY-10
  6
CONTINUOUS
 62
     7
100
AcDbLine
 10
2314.199999999999
 20
1096.000000000001
 30
0.0
 11
2315.00000000002
 21
1095.200000000023
 31
0.0
  0
LINE
  5
17B
330
1F
100
AcDbEntity
  8
LAY-10
  6
CONTINUOUS
 62
     7
100
AcDbLine
 10
2314.199999999999
 20
1088.000000000001
 30
0.0
 11
2314.99999999998
 21
1088.800000000021
 31
0.0
  0
LINE
  5
17C
330
1F
100
AcDbEntity
  8
LAY-10
  6
CONTINUOUS
 62
     7
100
AcDbLine
 10
2281.099999999999
 20
1096.000000000001
 30
0.0
 11
2314.199999999999
 21
1096.000000000001
 31
0.0
  0
LINE
  5
17D
330
1F
100
AcDbEntity
  8
LAY-10
  6
CONTINUOUS
 62
     7
100
AcDbLine
 10
2274.299999999999
 20
1088.000000000001
 30
0.0
 11
2314.199999999999
 21
1088.000000000001
 31
0.0
  0
LINE
  5
17E
330
1F
100
AcDbEntity
  8
LAY-10
  6
CONTINUOUS
 62
     7
100
AcDbLine
 10
2314.999999999999
 20
1088.800000000001
 30
0.0
 11
2314.999999999999
 21
1095.200000000043
 31
0.0
  0
LINE
  5
17F
330
1F
100
AcDbEntity
  8
LAY-10
  6
CONTINUOUS
 62
     7
100
AcDbLine
 10
2185.799999999999
 20
1096.000000000001
 30
0.0
 11
2185.799999999999
 21
1088.000000000001
 31
0.0
  0
LINE
  5
180
330
1F
100
AcDbEntity
  8
LAY-10
  6
CONTINUOUS
 62
     7
100
AcDbLine
 10
2185.0
 20
1095.200000000001
 30
0.0
 11
2218.899999999999
 21
1095.200000000001
 31
0.0
  0
LINE
  5
181
330
1F
100
AcDbEntity
  8
LAY-10
  6
CONTINUOUS
 62
     7
100
AcDbLine
 10
2185.0
 20
1088.800000000001
 30
0.0
 11
2218.899999999999
 21
1088.800000000001
 31
0.0
  0
LINE
  5
182
330
1F
100
AcDbEntity
  8
LAY-10
  6
CONTINUOUS
 62
     7
100
AcDbLine
 10
2185.799999999999
 20
1096.000000000001
 30
0.0
 11
2184.999999999978
 21
1095.200000000023
 31
0.0
  0
LINE
  5
183
330
1F
100
AcDbEntity
  8
LAY-10
  6
CONTINUOUS
 62
     7
100
AcDbLine
 10
2185.799999999999
 20
1088.000000000001
 30
0.0
 11
2185.000000000019
 21
1088.800000000021
 31
0.0
  0
LINE
  5
184
330
1F
100
AcDbEntity
  8
LAY-10
  6
CONTINUOUS
 62
     7
100
AcDbLine
 10
2218.899999999999
 20
1096.000000000001
 30
0.0
 11
2185.799999999999
 21
1096.000000000001
 31
0.0
  0
LINE
  5
185
330
1F
100
AcDbEntity
  8
LAY-10
  6
CONTINUOUS
 62
     7
100
AcDbLine
 10
2225.699999999998
 20
1088.000000000001
 30
0.0
 11
2185.799999999999
 21
1088.000000000001
 31
0.0
  0
LINE
  5
186
330
1F
100
AcDbEntity
  8
LAY-10
  6
CONTINUOUS
 62
     7
100
AcDbLine
 10
2185.0
 20
1088.800000000001
 30
0.0
 11
2185.0
 21
1095.200000000043
 31
0.0
  0
LINE
  5
187
330
1F
100
AcDbEntity
  8
LAY-10
  6
CONTINUOUS
 62
     7
100
AcDbLine
 10
2625.7
 20
1266.3
 30
0.0
 11
2625.7
 21
2659.499999999999
 31
0.0
  0
LINE
  5
188
330
1F
100
AcDbEntity
  8
LAY-10
  6
CONTINUOUS
 62
     7
100
AcDbLine
 10
2674.3
 20
1266.3
 30
0.0
 11
2674.3
 21
2659.499999999999
 31
0.0
  0
LINE
  5
189
330
1F
100
AcDbEntity
  8
LAY-10
  6
CONTINUOUS
 62
     7
100
AcDbLine
 10
2674.3
 20
2791.999999999999
 30
0.0
 11
2625.7
 21
2791.999999999999
 31
0.0
  0
LINE
  5
18A
330
1F
100
AcDbEntity
  8
LAY-10
  6
CONTINUOUS
 62
     7
100
AcDbLine
 10
2180.0
 20
1141.999999999998
 30
0.0
 11
2228.741274600378
 21
1141.999999999998
 31
0.0
  0
LINE
  5
18B
330
1F
100
AcDbEntity
  8
LAY-10
  6
CONTINUOUS
 62
     7
100
AcDbLine
 10
2180.0
 20
1141.999999999998
 30
0.0
 11
2180.0
 21
491.9999999999982
 31
0.0
  0
LINE
  5
18C
330
1F
100
AcDbEntity
  8
LAY-10
  6
CONTINUOUS
 62
     7
100
AcDbLine
 10
2320.0
 20
1141.999999999998
 30
0.0
 11
2320.0
 21
741.9999999999987
 31
0.0
  0
LINE
  5
18D
330
1F
100
AcDbEntity
  8
LAY-10
  6
CONTINUOUS
 62
     7
100
AcDbLine
 10
2183.5
 20
1141.999999999998
 30
0.0
 11
2183.5
 21
775.4888052687471
 31
0.0
  0
LINE
  5
18E
330
1F
100
AcDbEntity
  8
LAY-10
  6
CONTINUOUS
 62
     7
100
AcDbLine
 10
2316.500000000001
 20
748.5111947313072
 30
0.0
 11
2316.500000000001
 21
1141.999999999998
 31
0.0
  0
LINE
  5
18F
330
1F
100
AcDbEntity
  8
LAY-10
  6
CONTINUOUS
 62
     7
100
AcDbLine
 10
2246.999999999999
 20
792.0000000000022
 30
0.0
 11
2246.999999999999
 21
631.9999999999982
 31
0.0
  0
LINE
  5
190
330
1F
100
AcDbEntity
  8
LAY-10
  6
CONTINUOUS
 62
     7
100
AcDbLine
 10
2252.999999999999
 20
792.0000000000022
 30
0.0
 11
2252.999999999999
 21
631.9999999999982
 31
0.0
  0
LINE
  5
191
330
1F
100
AcDbEntity
  8
LAY-10
  6
CONTINUOUS
 62
     7
100
AcDbLine
 10
2252.999999999999
 20
656.9999999999976
 30
0.0
 11
2246.999999999999
 21
656.9999999999976
 31
0.0
  0
LINE
  5
192
330
1F
100
AcDbEntity
  8
LAY-10
  6
CONTINUOUS
 62
     7
100
AcDbLine
 10
2252.999999999999
 20
631.9999999999982
 30
0.0
 11
2246.999999999999
 21
631.9999999999982
 31
0.0
  0
LINE
  5
193
330
1F
100
AcDbEntity
  8
LAY-10
  6
CONTINUOUS
 62
     7
100
AcDbLine
 10
2190.0
 20
491.9999999999987
 30
0.0
 11
2320.0
 21
741.9999999999987
 31
0.0
  0
LINE
  5
194
330
1F
100
AcDbEntity
  8
LAY-10
  6
CONTINUOUS
 62
     7
100
AcDbLine
 10
2180.0
 20
491.9999999999982
 30
0.0
 11
2190.0
 21
491.9999999999982
 31
0.0
  0
LINE
  5
195
330
1F
100
AcDbEntity
  8
LAY-10
  6
CONTINUOUS
 62
     7
100
AcDbLine
 10
2280.602059545097
 20
1141.999999999998
 30
0.0
 11
2320.0
 21
1141.999999999998
 31
0.0
  0
ARC
  5
196
330
1F
100
AcDbEntity
  8
LAY-10
  6
CONTINUOUS
 62
     7
100
AcDbCircle
 10
2633.699999999999
 20
2791.999999999999
 30
0.0
 40
8.0
100
AcDbArc
 50
90.00000000000001
 51
180.0
  0
LINE
  5
197
330
1F
100
AcDbEntity
  8
LAY-10
  6
CONTINUOUS
 62
     7
100
AcDbLine
 10
2633.699999999999
 20
2800.0
 30
0.0
 11
2666.299999999999
 21
2800.0
 31
0.0
  0
ARC
  5
198
330
1F
100
AcDbEntity
  8
LAY-10
  6
CONTINUOUS
 62
     7
100
AcDbCircle
 10
2666.299999999999
 20
2791.999999999999
 30
0.0
 40
8.0
100
AcDbArc
 50
0.0
 51
90.00000000000001
  0
LINE
  5
199
330
1F
100
AcDbEntity
  8
LAY-10
  6
CONTINUOUS
 62
     7
100
AcDbLine
 10
3174.3
 20
1266.3
 30
0.0
 11
3174.3
 21
2659.499999999999
 31
0.0
  0
LINE
  5
19A
330
1F
100
AcDbEntity
  8
LAY-10
  6
CONTINUOUS
 62
     7
100
AcDbLine
 10
3125.7
 20
1266.3
 30
0.0
 11
3125.7
 21
2659.499999999999
 31
0.0
  0
LINE
  5
19B
330
1F
100
AcDbEntity
  8
LAY-10
  6
CONTINUOUS
 62
     7
100
AcDbLine
 10
3125.7
 20
2791.999999999999
 30
0.0
 11
3174.3
 21
2791.999999999999
 31
0.0
  0
ARC
  5
19C
330
1F
100
AcDbEntity
  8
LAY-10
  6
CONTINUOUS
 62
     7
100
AcDbCircle
 10
3166.3
 20
2791.999999999999
 30
0.0
 40
8.0
100
AcDbArc
 50
0.0
 51
90.00000000000001
  0
LINE
  5
19D
330
1F
100
AcDbEntity
  8
LAY-10
  6
CONTINUOUS
 62
     7
100
AcDbLine
 10
3166.3
 20
2800.0
 30
0.0
 11
3133.7
 21
2800.0
 31
0.0
  0
ARC
  5
19E
330
1F
100
AcDbEntity
  8
LAY-10
  6
CONTINUOUS
 62
     7
100
AcDbCircle
 10
3133.7
 20
2791.999999999999
 30
0.0
 40
8.0
100
AcDbArc
 50
90.00000000000001
 51
180.0
  0
LINE
  5
19F
330
1F
100
AcDbEntity
  8
LAY-10
  6
CONTINUOUS
 62
     7
100
AcDbLine
 10
2621.3
 20
2724.499999999999
 30
0.0
 11
2701.299999999999
 21
2724.499999999999
 31
0.0
  0
LINE
  5
1A0
330
1F
100
AcDbEntity
  8
LAY-10
  6
CONTINUOUS
 62
     7
100
AcDbLine
 10
2621.3
 20
2659.499999999999
 30
0.0
 11
2701.299999999999
 21
2659.499999999999
 31
0.0
  0
LINE
  5
1A1
330
1F
100
AcDbEntity
  8
LAY-10
  6
CONTINUOUS
 62
     7
100
AcDbLine
 10
2621.3
 20
2724.499999999999
 30
0.0
 11
2621.3
 21
2659.499999999999
 31
0.0
  0
LINE
  5
1A2
330
1F
100
AcDbEntity
  8
LAY-10
  6
CONTINUOUS
 62
     7
100
AcDbLine
 10
2642.199224999999
 20
2711.999999999999
 30
0.0
 11
2642.199224999999
 21
2671.999999999999
 31
0.0
  0
LINE
  5
1A3
330
1F
100
AcDbEntity
  8
LAY-10
  6
CONTINUOUS
 62
     7
100
AcDbLine
 10
2680.719537756936
 20
2724.499999999999
 30
0.0
 11
2680.719537756936
 21
2711.999999999999
 31
0.0
  0
LINE
  5
1A4
330
1F
100
AcDbEntity
  8
LAY-10
  6
CONTINUOUS
 62
     7
100
AcDbLine
 10
2680.719537756936
 20
2671.999999999999
 30
0.0
 11
2680.719537756936
 21
2659.499999999999
 31
0.0
  0
LINE
  5
1A5
330
1F
100
AcDbEntity
  8
LAY-10
  6
CONTINUOUS
 62
     7
100
AcDbLine
 10
3178.7
 20
2724.499999999999
 30
0.0
 11
3178.7
 21
2659.499999999999
 31
0.0
  0
LINE
  5
1A6
330
1F
100
AcDbEntity
  8
LAY-10
  6
CONTINUOUS
 62
     7
100
AcDbLine
 10
3157.800775
 20
2711.999999999999
 30
0.0
 11
3157.800775
 21
2671.999999999999
 31
0.0
  0
LINE
  5
1A7
330
1F
100
AcDbEntity
  8
LAY-10
  6
CONTINUOUS
 62
     7
100
AcDbLine
 10
3178.7
 20
2724.499999999999
 30
0.0
 11
3098.7
 21
2724.499999999999
 31
0.0
  0
LINE
  5
1A8
330
1F
100
AcDbEntity
  8
LAY-10
  6
CONTINUOUS
 62
     7
100
AcDbLine
 10
3178.7
 20
2659.499999999999
 30
0.0
 11
3098.7
 21
2659.499999999999
 31
0.0
  0
LINE
  5
1A9
330
1F
100
AcDbEntity
  8
LAY-10
  6
CONTINUOUS
 62
     7
100
AcDbLine
 10
3119.280462243063
 20
2724.499999999999
 30
0.0
 11
3119.280462243063
 21
2711.999999999999
 31
0.0
  0
LINE
  5
1AA
330
1F
100
AcDbEntity
  8
LAY-10
  6
CONTINUOUS
 62
     7
100
AcDbLine
 10
3119.280462243063
 20
2671.999999999999
 30
0.0
 11
3119.280462243063
 21
2659.499999999999
 31
0.0
  0
ARC
  5
1AB
330
1F
100
AcDbEntity
  8
LAY-10
  6
CONTINUOUS
 62
     7
100
AcDbCircle
 10
2701.299999999999
 20
2669.499999999997
 30
0.0
 40
10.0
100
AcDbArc
 50
270.0
 51
14.47751218594398
  0
ARC
  5
1AC
330
1F
100
AcDbEntity
  8
LAY-10
  6
CONTINUOUS
 62
     7
100
AcDbCircle
 10
2701.299999999999
 20
2714.499999999999
 30
0.0
 40
10.0
100
AcDbArc
 50
345.52248781407
 51
90.00000000000001
  0
ARC
  5
1AD
330
1F
100
AcDbEntity
  8
LAY-10
  6
CONTINUOUS
 62
     7
100
AcDbCircle
 10
3098.7
 20
2714.499999999999
 30
0.0
 40
10.0
100
AcDbArc
 50
90.00000000000001
 51
194.4775121859301
  0
ARC
  5
1AE
330
1F
100
AcDbEntity
  8
LAY-10
  6
CONTINUOUS
 62
     7
100
AcDbCircle
 10
3098.7
 20
2669.499999999997
 30
0.0
 40
10.0
100
AcDbArc
 50
165.5224878140559
 51
270.0
  0
LINE
  5
1AF
330
1F
100
AcDbEntity
  8
LAY-10
  6
CONTINUOUS
 62
     7
100
AcDbLine
 10
2642.199224999999
 20
2711.999999999999
 30
0.0
 11
3157.800775
 21
2711.999999999999
 31
0.0
  0
LINE
  5
1B0
330
1F
100
AcDbEntity
  8
LAY-10
  6
CONTINUOUS
 62
     7
100
AcDbLine
 10
2642.199225
 20
2671.999999999999
 30
0.0
 11
3157.800775
 21
2671.999999999999
 31
0.0
  0
LINE
  5
1B1
330
1F
100
AcDbEntity
  8
LAY-10
  6
CONTINUOUS
 62
     7
100
AcDbLine
 10
2625.7
 20
2724.499999999999
 30
0.0
 11
2625.7
 21
2791.999999999999
 31
0.0
  0
LINE
  5
1B2
330
1F
100
AcDbEntity
  8
LAY-10
  6
CONTINUOUS
 62
     7
100
AcDbLine
 10
2674.3
 20
2724.499999999999
 30
0.0
 11
2674.3
 21
2791.999999999999
 31
0.0
  0
LINE
  5
1B3
330
1F
100
AcDbEntity
  8
LAY-10
  6
CONTINUOUS
 62
     7
100
AcDbLine
 10
3125.7
 20
2724.499999999999
 30
0.0
 11
3125.7
 21
2791.999999999999
 31
0.0
  0
LINE
  5
1B4
330
1F
100
AcDbEntity
  8
LAY-10
  6
CONTINUOUS
 62
     7
100
AcDbLine
 10
3174.3
 20
2724.499999999999
 30
0.0
 11
3174.3
 21
2791.999999999999
 31
0.0
  0
LINE
  5
1B5
330
1F
100
AcDbEntity
  8
LAY-10
  6
CONTINUOUS
 62
     7
100
AcDbLine
 10
2632.407103706324
 20
4224.3
 30
0.0
 11
2249.999999999995
 21
4224.3
 31
0.0
  0
LINE
  5
1B6
330
1F
100
AcDbEntity
  8
LAY-10
  6
CONTINUOUS
 62
     7
100
AcDbLine
 10
2632.407103706326
 20
4175.7
 30
0.0
 11
2249.999999999995
 21
4175.7
 31
0.0
  0
ARC
  5
1B7
330
1F
100
AcDbEntity
  8
LAY-10
  6
CONTINUOUS
 62
     7
100
AcDbCircle
 10
2249.999999999995
 20
4200.0
 30
0.0
 40
24.29999999999666
100
AcDbArc
 50
90.00000000000001
 51
270.0
  0
LINE
  5
1B8
330
1F
100
AcDbEntity
  8
LAY-10
  6
CONTINUOUS
 62
     7
100
AcDbLine
 10
2246.999999999996
 20
4105.0
 30
0.0
 11
2249.999999999995
 21
4105.0
 31
0.0
  0
LINE
  5
1B9
330
1F
100
AcDbEntity
  8
LAY-10
  6
CONTINUOUS
 62
     7
100
AcDbLine
 10
2246.999999999996
 20
4158.5
 30
0.0
 11
2249.999999999995
 21
4158.5
 31
0.0
  0
LINE
  5
1BA
330
1F
100
AcDbEntity
  8
LAY-10
  6
CONTINUOUS
 62
     7
100
AcDbLine
 10
2252.999999999995
 20
4105.0
 30
0.0
 11
2249.999999999995
 21
4105.0
 31
0.0
  0
LINE
  5
1BB
330
1F
100
AcDbEntity
  8
LAY-10
  6
CONTINUOUS
 62
     7
100
AcDbLine
 10
2252.999999999995
 20
4158.5
 30
0.0
 11
2249.999999999995
 21
4158.5
 31
0.0
  0
LINE
  5
1BC
330
1F
100
AcDbEntity
  8
LAY-10
  6
CONTINUOUS
 62
     7
100
AcDbLine
 10
2246.999999999996
 20
4295.0
 30
0.0
 11
2249.999999999995
 21
4295.0
 31
0.0
  0
LINE
  5
1BD
330
1F
100
AcDbEntity
  8
LAY-10
  6
CONTINUOUS
 62
     7
100
AcDbLine
 10
2246.999999999996
 20
4241.5
 30
0.0
 11
2249.999999999995
 21
4241.5
 31
0.0
  0
LINE
  5
1BE
330
1F
100
AcDbEntity
  8
LAY-10
  6
CONTINUOUS
 62
     7
100
AcDbLine
 10
2252.999999999995
 20
4295.0
 30
0.0
 11
2249.999999999995
 21
4295.0
 31
0.0
  0
LINE
  5
1BF
330
1F
100
AcDbEntity
  8
LAY-10
  6
CONTINUOUS
 62
     7
100
AcDbLine
 10
2252.999999999995
 20
4241.5
 30
0.0
 11
2249.999999999995
 21
4241.5
 31
0.0
  0
LINE
  5
1C0
330
1F
100
AcDbEntity
  8
LAY-10
  6
CONTINUOUS
 62
     7
100
AcDbLine
 10
2246.999999999996
 20
4241.5
 30
0.0
 11
2246.999999999996
 21
4265.743821002433
 31
0.0
  0
LINE
  5
1C1
330
1F
100
AcDbEntity
  8
LAY-10
  6
CONTINUOUS
 62
     7
100
AcDbLine
 10
2252.999999999995
 20
4241.5
 30
0.0
 11
2252.999999999995
 21
4266.379590236759
 31
0.0
  0
LINE
  5
1C2
330
1F
100
AcDbEntity
  8
LAY-10
  6
CONTINUOUS
 62
     7
100
AcDbLine
 10
2246.999999999996
 20
4269.282032302755
 30
0.0
 11
2246.999999999996
 21
4295.0
 31
0.0
  0
LINE
  5
1C3
330
1F
100
AcDbEntity
  8
LAY-10
  6
CONTINUOUS
 62
     7
100
AcDbLine
 10
2252.999999999995
 20
4269.885620838625
 30
0.0
 11
2252.999999999995
 21
4295.0
 31
0.0
  0
LINE
  5
1C4
330
1F
100
AcDbEntity
  8
LAY-10
  6
CONTINUOUS
 62
     7
100
AcDbLine
 10
2246.999999999996
 20
4158.5
 30
0.0
 11
2246.999999999996
 21
4133.620409763242
 31
0.0
  0
LINE
  5
1C5
330
1F
100
AcDbEntity
  8
LAY-10
  6
CONTINUOUS
 62
     7
100
AcDbLine
 10
2246.999999999996
 20
4130.114379161376
 30
0.0
 11
2246.999999999996
 21
4105.0
 31
0.0
  0
LINE
  5
1C6
330
1F
100
AcDbEntity
  8
LAY-10
  6
CONTINUOUS
 62
     7
100
AcDbLine
 10
2252.999999999995
 20
4130.717967697245
 30
0.0
 11
2252.999999999995
 21
4105.0
 31
0.0
  0
LINE
  5
1C7
330
1F
100
AcDbEntity
  8
LAY-10
  6
CONTINUOUS
 62
     7
100
AcDbLine
 10
2252.999999999995
 20
4158.5
 30
0.0
 11
2252.999999999995
 21
4134.256178997566
 31
0.0
  0
ARC
  5
1C8
330
1F
100
AcDbEntity
  8
LAY-10
  6
CONTINUOUS
 62
     7
100
AcDbCircle
 10
2249.999999999995
 20
4200.0
 30
0.0
 40
66.5
100
AcDbArc
 50
21.43303449353419
 51
338.5669655064659
  0
ARC
  5
1C9
330
1F
100
AcDbEntity
  8
LAY-10
  6
CONTINUOUS
 62
     7
100
AcDbCircle
 10
2249.999999999995
 20
4200.0
 30
0.0
 40
70.0
100
AcDbArc
 50
20.31265873755371
 51
339.6873412624462
  0
LINE
  5
1CA
330
1F
100
AcDbEntity
  8
LAY-10
  6
CONTINUOUS
 62
     7
100
AcDbLine
 10
2185.799999999999
 20
4204.0
 30
0.0
 11
2184.999999999978
 21
4203.200000000021
 31
0.0
  0
LINE
  5
1CB
330
1F
100
AcDbEntity
  8
LAY-10
  6
CONTINUOUS
 62
     7
100
AcDbLine
 10
2185.799999999999
 20
4196.0
 30
0.0
 11
2185.000000000019
 21
4196.800000000019
 31
0.0
  0
LINE
  5
1CC
330
1F
100
AcDbEntity
  8
LAY-10
  6
CONTINUOUS
 62
     7
100
AcDbLine
 10
2218.899999999999
 20
4204.0
 30
0.0
 11
2185.799999999999
 21
4204.0
 31
0.0
  0
LINE
  5
1CD
330
1F
100
AcDbEntity
  8
LAY-10
  6
CONTINUOUS
 62
     7
100
AcDbLine
 10
2225.699999999998
 20
4196.0
 30
0.0
 11
2185.799999999999
 21
4196.0
 31
0.0
  0
LINE
  5
1CE
330
1F
100
AcDbEntity
  8
LAY-10
  6
CONTINUOUS
 62
     7
100
AcDbLine
 10
2185.0
 20
4196.799999999999
 30
0.0
 11
2185.0
 21
4203.200000000042
 31
0.0
  0
LINE
  5
1CF
330
1F
100
AcDbEntity
  8
LAY-10
  6
CONTINUOUS
 62
     7
100
AcDbLine
 10
2185.799999999999
 20
4204.0
 30
0.0
 11
2185.799999999999
 21
4196.0
 31
0.0
  0
LINE
  5
1D0
330
1F
100
AcDbEntity
  8
LAY-10
  6
CONTINUOUS
 62
     7
100
AcDbLine
 10
2185.0
 20
4203.2
 30
0.0
 11
2218.899999999999
 21
4203.2
 31
0.0
  0
LINE
  5
1D1
330
1F
100
AcDbEntity
  8
LAY-10
  6
CONTINUOUS
 62
     7
100
AcDbLine
 10
2185.0
 20
4196.799999999999
 30
0.0
 11
2218.899999999999
 21
4196.799999999999
 31
0.0
  0
LINE
  5
1D2
330
1F
100
AcDbEntity
  8
LAY-10
  6
CONTINUOUS
 62
     7
100
AcDbLine
 10
2225.699999999998
 20
4204.0
 30
0.0
 11
2226.031478977625
 21
4204.0
 31
0.0
  0
LINE
  5
1D3
330
1F
100
AcDbEntity
  8
LAY-10
  6
CONTINUOUS
 62
     7
100
AcDbLine
 10
2225.699999999998
 20
4203.2
 30
0.0
 11
2225.911621059107
 21
4203.2
 31
0.0
  0
LINE
  5
1D4
330
1F
100
AcDbEntity
  8
LAY-10
  6
CONTINUOUS
 62
     7
100
AcDbLine
 10
2225.699999999998
 20
4196.0
 30
0.0
 11
2226.031478977625
 21
4196.0
 31
0.0
  0
LINE
  5
1D5
330
1F
100
AcDbEntity
  8
LAY-10
  6
CONTINUOUS
 62
     7
100
AcDbLine
 10
2225.699999999998
 20
4196.8
 30
0.0
 11
2225.911621059107
 21
4196.8
 31
0.0
  0
ARC
  5
1D6
330
1F
100
AcDbEntity
  8
LAY-10
  6
CONTINUOUS
 62
     7
100
AcDbCircle
 10
3550.000000000005
 20
4200.0
 30
0.0
 40
24.29999999999666
100
AcDbArc
 50
270.0
 51
90.00000000000001
  0
LINE
  5
1D7
330
1F
100
AcDbEntity
  8
LAY-10
  6
CONTINUOUS
 62
     7
100
AcDbLine
 10
3553.000000000003
 20
4105.0
 30
0.0
 11
3550.000000000005
 21
4105.0
 31
0.0
  0
LINE
  5
1D8
330
1F
100
AcDbEntity
  8
LAY-10
  6
CONTINUOUS
 62
     7
100
AcDbLine
 10
3553.000000000003
 20
4158.5
 30
0.0
 11
3550.000000000005
 21
4158.5
 31
0.0
  0
LINE
  5
1D9
330
1F
100
AcDbEntity
  8
LAY-10
  6
CONTINUOUS
 62
     7
100
AcDbLine
 10
3547.000000000004
 20
4105.0
 30
0.0
 11
3550.000000000005
 21
4105.0
 31
0.0
  0
LINE
  5
1DA
330
1F
100
AcDbEntity
  8
LAY-10
  6
CONTINUOUS
 62
     7
100
AcDbLine
 10
3547.000000000004
 20
4158.5
 30
0.0
 11
3550.000000000005
 21
4158.5
 31
0.0
  0
LINE
  5
1DB
330
1F
100
AcDbEntity
  8
LAY-10
  6
CONTINUOUS
 62
     7
100
AcDbLine
 10
3553.000000000003
 20
4295.0
 30
0.0
 11
3550.000000000005
 21
4295.0
 31
0.0
  0
LINE
  5
1DC
330
1F
100
AcDbEntity
  8
LAY-10
  6
CONTINUOUS
 62
     7
100
AcDbLine
 10
3553.000000000003
 20
4241.5
 30
0.0
 11
3550.000000000005
 21
4241.5
 31
0.0
  0
LINE
  5
1DD
330
1F
100
AcDbEntity
  8
LAY-10
  6
CONTINUOUS
 62
     7
100
AcDbLine
 10
3547.000000000004
 20
4295.0
 30
0.0
 11
3550.000000000005
 21
4295.0
 31
0.0
  0
LINE
  5
1DE
330
1F
100
AcDbEntity
  8
LAY-10
  6
CONTINUOUS
 62
     7
100
AcDbLine
 10
3547.000000000004
 20
4241.5
 30
0.0
 11
3550.000000000005
 21
4241.5
 31
0.0
  0
LINE
  5
1DF
330
1F
100
AcDbEntity
  8
LAY-10
  6
CONTINUOUS
 62
     7
100
AcDbLine
 10
3553.000000000003
 20
4241.5
 30
0.0
 11
3553.000000000003
 21
4265.743821002433
 31
0.0
  0
LINE
  5
1E0
330
1F
100
AcDbEntity
  8
LAY-10
  6
CONTINUOUS
 62
     7
100
AcDbLine
 10
3547.000000000004
 20
4241.5
 30
0.0
 11
3547.000000000004
 21
4266.379590236759
 31
0.0
  0
LINE
  5
1E1
330
1F
100
AcDbEntity
  8
LAY-10
  6
CONTINUOUS
 62
     7
100
AcDbLine
 10
3553.000000000003
 20
4269.282032302755
 30
0.0
 11
3553.000000000003
 21
4295.0
 31
0.0
  0
LINE
  5
1E2
330
1F
100
AcDbEntity
  8
LAY-10
  6
CONTINUOUS
 62
     7
100
AcDbLine
 10
3547.000000000004
 20
4269.885620838625
 30
0.0
 11
3547.000000000004
 21
4295.0
 31
0.0
  0
LINE
  5
1E3
330
1F
100
AcDbEntity
  8
LAY-10
  6
CONTINUOUS
 62
     7
100
AcDbLine
 10
3553.000000000003
 20
4158.5
 30
0.0
 11
3553.000000000003
 21
4133.620409763242
 31
0.0
  0
LINE
  5
1E4
330
1F
100
AcDbEntity
  8
LAY-10
  6
CONTINUOUS
 62
     7
100
AcDbLine
 10
3553.000000000003
 20
4130.114379161376
 30
0.0
 11
3553.000000000003
 21
4105.0
 31
0.0
  0
LINE
  5
1E5
330
1F
100
AcDbEntity
  8
LAY-10
  6
CONTINUOUS
 62
     7
100
AcDbLine
 10
3547.000000000004
 20
4130.717967697245
 30
0.0
 11
3547.000000000004
 21
4105.0
 31
0.0
  0
LINE
  5
1E6
330
1F
100
AcDbEntity
  8
LAY-10
  6
CONTINUOUS
 62
     7
100
AcDbLine
 10
3547.000000000004
 20
4158.5
 30
0.0
 11
3547.000000000004
 21
4134.256178997566
 31
0.0
  0
ARC
  5
1E7
330
1F
100
AcDbEntity
  8
LAY-10
  6
CONTINUOUS
 62
     7
100
AcDbCircle
 10
3550.000000000005
 20
4200.0
 30
0.0
 40
66.5
100
AcDbArc
 50
201.4330344935339
 51
158.5669655064661
  0
ARC
  5
1E8
330
1F
100
AcDbEntity
  8
LAY-10
  6
CONTINUOUS
 62
     7
100
AcDbCircle
 10
3550.000000000005
 20
4200.0
 30
0.0
 40
70.0
100
AcDbArc
 50
200.3126587375535
 51
159.6873412624465
  0
LINE
  5
1E9
330
1F
100
AcDbEntity
  8
LAY-10
  6
CONTINUOUS
 62
     7
100
AcDbLine
 10
3614.200000000001
 20
4204.0
 30
0.0
 11
3615.000000000022
 21
4203.200000000021
 31
0.0
  0
LINE
  5
1EA
330
1F
100
AcDbEntity
  8
LAY-10
  6
CONTINUOUS
 62
     7
100
AcDbLine
 10
3614.200000000001
 20
4196.0
 30
0.0
 11
3614.999999999981
 21
4196.800000000019
 31
0.0
  0
LINE
  5
1EB
330
1F
100
AcDbEntity
  8
LAY-10
  6
CONTINUOUS
 62
     7
100
AcDbLine
 10
3581.100000000001
 20
4204.0
 30
0.0
 11
3614.200000000001
 21
4204.0
 31
0.0
  0
LINE
  5
1EC
330
1F
100
AcDbEntity
  8
LAY-10
  6
CONTINUOUS
 62
     7
100
AcDbLine
 10
3574.300000000001
 20
4196.0
 30
0.0
 11
3614.200000000001
 21
4196.0
 31
0.0
  0
LINE
  5
1ED
330
1F
100
AcDbEntity
  8
LAY-10
  6
CONTINUOUS
 62
     7
100
AcDbLine
 10
3615.0
 20
4196.799999999999
 30
0.0
 11
3615.0
 21
4203.200000000042
 31
0.0
  0
LINE
  5
1EE
330
1F
100
AcDbEntity
  8
LAY-10
  6
CONTINUOUS
 62
     7
100
AcDbLine
 10
3614.200000000001
 20
4204.0
 30
0.0
 11
3614.200000000001
 21
4196.0
 31
0.0
  0
LINE
  5
1EF
330
1F
100
AcDbEntity
  8
LAY-10
  6
CONTINUOUS
 62
     7
100
AcDbLine
 10
3615.0
 20
4203.2
 30
0.0
 11
3581.100000000001
 21
4203.2
 31
0.0
  0
LINE
  5
1F0
330
1F
100
AcDbEntity
  8
LAY-10
  6
CONTINUOUS
 62
     7
100
AcDbLine
 10
3615.0
 20
4196.799999999999
 30
0.0
 11
3581.100000000001
 21
4196.799999999999
 31
0.0
  0
LINE
  5
1F1
330
1F
100
AcDbEntity
  8
LAY-10
  6
CONTINUOUS
 62
     7
100
AcDbLine
 10
3574.300000000001
 20
4204.0
 30
0.0
 11
3573.968521022375
 21
4204.0
 31
0.0
  0
LINE
  5
1F2
330
1F
100
AcDbEntity
  8
LAY-10
  6
CONTINUOUS
 62
     7
100
AcDbLine
 10
3574.300000000001
 20
4203.2
 30
0.0
 11
3574.088378940893
 21
4203.2
 31
0.0
  0
LINE
  5
1F3
330
1F
100
AcDbEntity
  8
LAY-10
  6
CONTINUOUS
 62
     7
100
AcDbLine
 10
3574.300000000001
 20
4196.0
 30
0.0
 11
3573.968521022375
 21
4196.0
 31
0.0
  0
LINE
  5
1F4
330
1F
100
AcDbEntity
  8
LAY-10
  6
CONTINUOUS
 62
     7
100
AcDbLine
 10
3574.300000000001
 20
4196.8
 30
0.0
 11
3574.088378940893
 21
4196.8
 31
0.0
  0
LINE
  5
1F5
330
1F
100
AcDbEntity
  8
LAY-10
  6
CONTINUOUS
 62
     7
100
AcDbLine
 10
3167.592896293676
 20
4224.3
 30
0.0
 11
3550.000000000005
 21
4224.3
 31
0.0
  0
LINE
  5
1F6
330
1F
100
AcDbEntity
  8
LAY-10
  6
CONTINUOUS
 62
     7
100
AcDbLine
 10
3167.592896293674
 20
4175.7
 30
0.0
 11
3550.000000000005
 21
4175.7
 31
0.0
  0
LINE
  5
1F7
330
1F
100
AcDbEntity
  8
LAY-10
  6
CONTINUOUS
 62
     7
100
AcDbLine
 10
2703.499999999872
 20
4207.800000000006
 30
0.0
 11
2686.499999999872
 21
4207.800000000006
 31
0.0
  0
LINE
  5
1F8
330
1F
100
AcDbEntity
  8
LAY-10
  6
CONTINUOUS
 62
     7
100
AcDbLine
 10
2686.499999999872
 20
4207.800000000006
 30
0.0
 11
2686.499999999872
 21
4206.200000000004
 31
0.0
  0
LINE
  5
1F9
330
1F
100
AcDbEntity
  8
LAY-10
  6
CONTINUOUS
 62
     7
100
AcDbLine
 10
2703.499999999872
 20
4207.800000000006
 30
0.0
 11
2703.499999999872
 21
4206.200000000004
 31
0.0
  0
LINE
  5
1FA
330
1F
100
AcDbEntity
  8
LAY-10
  6
CONTINUOUS
 62
     7
100
AcDbLine
 10
2686.999999999871
 20
4207.800000000006
 30
0.0
 11
2686.999999999871
 21
4212.517000000006
 31
0.0
  0
LINE
  5
1FB
330
1F
100
AcDbEntity
  8
LAY-10
  6
CONTINUOUS
 62
     7
100
AcDbLine
 10
2702.999999999873
 20
4207.800000000006
 30
0.0
 11
2702.999999999873
 21
4212.517000000006
 31
0.0
  0
LINE
  5
1FC
330
1F
100
AcDbEntity
  8
LAY-10
  6
CONTINUOUS
 62
     7
100
AcDbLine
 10
2690.999999999872
 20
4212.517000000006
 30
0.0
 11
2690.999999999872
 21
4207.800000000006
 31
0.0
  0
LINE
  5
1FD
330
1F
100
AcDbEntity
  8
LAY-10
  6
CONTINUOUS
 62
     7
100
AcDbLine
 10
2698.999999999872
 20
4212.517000000006
 30
0.0
 11
2698.999999999872
 21
4207.800000000006
 31
0.0
  0
ARC
  5
1FE
330
1F
100
AcDbEntity
  8
LAY-10
  6
CONTINUOUS
 62
     7
100
AcDbCircle
 10
2688.999999999872
 20
4209.377968267587
 30
0.0
 40
3.722031732418524
100
AcDbArc
 50
57.49719263527593
 51
122.5028073646989
  0
ARC
  5
1FF
330
1F
100
AcDbEntity
  8
LAY-10
  6
CONTINUOUS
 62
     7
100
AcDbCircle
 10
2694.999999999873
 20
4199.08637307033
 30
0.0
 40
14.0136269296741
100
AcDbArc
 50
73.41506060902611
 51
106.584939390972
  0
ARC
  5
200
330
1F
100
AcDbEntity
  8
LAY-10
  6
CONTINUOUS
 62
     7
100
AcDbCircle
 10
2700.999999999872
 20
4209.377968267587
 30
0.0
 40
3.722031732418524
100
AcDbArc
 50
57.49719263529518
 51
122.5028073647064
  0
LINE
  5
201
330
1F
100
AcDbEntity
  8
LAY-10
  6
CONTINUOUS
 62
     7
100
AcDbLine
 10
2688.999999999872
 20
4213.100000000005
 30
0.0
 11
2700.999999999872
 21
4213.100000000005
 31
0.0
  0
LINE
  5
202
330
1F
100
AcDbEntity
  8
LAY-10
  6
CONTINUOUS
 62
     7
100
AcDbLine
 10
2703.499999999872
 20
4192.199999999996
 30
0.0
 11
2686.499999999872
 21
4192.199999999996
 31
0.0
  0
LINE
  5
203
330
1F
100
AcDbEntity
  8
LAY-10
  6
CONTINUOUS
 62
     7
100
AcDbLine
 10
2686.499999999872
 20
4193.799999999997
 30
0.0
 11
2686.499999999872
 21
4192.199999999996
 31
0.0
  0
LINE
  5
204
330
1F
100
AcDbEntity
  8
LAY-10
  6
CONTINUOUS
 62
     7
100
AcDbLine
 10
2703.499999999872
 20
4193.799999999997
 30
0.0
 11
2703.499999999872
 21
4192.199999999996
 31
0.0
  0
ARC
  5
205
330
1F
100
AcDbEntity
  8
LAY-10
  6
CONTINUOUS
 62
     7
100
AcDbCircle
 10
2694.999999999871
 20
4185.450000000072
 30
0.0
 40
5.750000000034562
100
AcDbArc
 50
182.2145281320704
 51
357.7854718679296
  0
ARC
  5
206
330
1F
100
AcDbEntity
  8
LAY-10
  6
CONTINUOUS
 62
     7
100
AcDbCircle
 10
2701.245332190724
 20
4185.208492595746
 30
0.0
 40
0.5
100
AcDbArc
 50
93.96520056883172
 51
177.7854718679155
  0
ARC
  5
207
330
1F
100
AcDbEntity
  8
LAY-10
  6
CONTINUOUS
 62
     7
100
AcDbCircle
 10
2688.75466780902
 20
4185.208492595746
 30
0.0
 40
0.5
100
AcDbArc
 50
2.214528132084419
 51
86.03479943116828
  0
LINE
  5
208
330
1F
100
AcDbEntity
  8
LAY-10
  6
CONTINUOUS
 62
     7
100
AcDbLine
 10
3096.500000000127
 20
4192.199999999995
 30
0.0
 11
3113.500000000126
 21
4192.199999999995
 31
0.0
  0
LINE
  5
209
330
1F
100
AcDbEntity
  8
LAY-10
  6
CONTINUOUS
 62
     7
100
AcDbLine
 10
3113.500000000126
 20
4192.199999999995
 30
0.0
 11
3113.500000000126
 21
4193.799999999997
 31
0.0
  0
LINE
  5
20A
330
1F
100
AcDbEntity
  8
LAY-10
  6
CONTINUOUS
 62
     7
100
AcDbLine
 10
3096.500000000127
 20
4192.199999999995
 30
0.0
 11
3096.500000000127
 21
4193.799999999997
 31
0.0
  0
LINE
  5
20B
330
1F
100
AcDbEntity
  8
LAY-10
  6
CONTINUOUS
 62
     7
100
AcDbLine
 10
3113.000000000127
 20
4192.199999999995
 30
0.0
 11
3113.000000000127
 21
4187.482999999995
 31
0.0
  0
LINE
  5
20C
330
1F
100
AcDbEntity
  8
LAY-10
  6
CONTINUOUS
 62
     7
100
AcDbLine
 10
3097.000000000126
 20
4192.199999999995
 30
0.0
 11
3097.000000000126
 21
4187.482999999995
 31
0.0
  0
LINE
  5
20D
330
1F
100
AcDbEntity
  8
LAY-10
  6
CONTINUOUS
 62
     7
100
AcDbLine
 10
3109.000000000126
 20
4187.482999999995
 30
0.0
 11
3109.000000000126
 21
4192.199999999995
 31
0.0
  0
LINE
  5
20E
330
1F
100
AcDbEntity
  8
LAY-10
  6
CONTINUOUS
 62
     7
100
AcDbLine
 10
3101.000000000126
 20
4187.482999999995
 30
0.0
 11
3101.000000000126
 21
4192.199999999995
 31
0.0
  0
ARC
  5
20F
330
1F
100
AcDbEntity
  8
LAY-10
  6
CONTINUOUS
 62
     7
100
AcDbCircle
 10
3111.000000000126
 20
4190.622031732414
 30
0.0
 40
3.722031732418524
100
AcDbArc
 50
237.497192635276
 51
302.5028073646988
  0
ARC
  5
210
330
1F
100
AcDbEntity
  8
LAY-10
  6
CONTINUOUS
 62
     7
100
AcDbCircle
 10
3105.000000000126
 20
4200.91362692967
 30
0.0
 40
14.0136269296741
100
AcDbArc
 50
253.4150606090262
 51
286.5849393909721
  0
ARC
  5
211
330
1F
100
AcDbEntity
  8
LAY-10
  6
CONTINUOUS
 62
     7
100
AcDbCircle
 10
3099.000000000126
 20
4190.622031732414
 30
0.0
 40
3.722031732418524
100
AcDbArc
 50
237.4971926352893
 51
302.5028073647123
  0
LINE
  5
212
330
1F
100
AcDbEntity
  8
LAY-10
  6
CONTINUOUS
 62
     7
100
AcDbLine
 10
3111.000000000126
 20
4186.899999999996
 30
0.0
 11
3099.000000000126
 21
4186.899999999996
 31
0.0
  0
LINE
  5
213
330
1F
100
AcDbEntity
  8
LAY-10
  6
CONTINUOUS
 62
     7
100
AcDbLine
 10
3096.500000000127
 20
4207.800000000005
 30
0.0
 11
3113.500000000126
 21
4207.800000000005
 31
0.0
  0
LINE
  5
214
330
1F
100
AcDbEntity
  8
LAY-10
  6
CONTINUOUS
 62
     7
100
AcDbLine
 10
3113.500000000126
 20
4206.200000000004
 30
0.0
 11
3113.500000000126
 21
4207.800000000005
 31
0.0
  0
LINE
  5
215
330
1F
100
AcDbEntity
  8
LAY-10
  6
CONTINUOUS
 62
     7
100
AcDbLine
 10
3096.500000000127
 20
4206.200000000004
 30
0.0
 11
3096.500000000127
 21
4207.800000000005
 31
0.0
  0
ARC
  5
216
330
1F
100
AcDbEntity
  8
LAY-10
  6
CONTINUOUS
 62
     7
100
AcDbCircle
 10
3105.000000000127
 20
4214.549999999929
 30
0.0
 40
5.750000000034562
100
AcDbArc
 50
2.21452813207044
 51
177.7854718679295
  0
ARC
  5
217
330
1F
100
AcDbEntity
  8
LAY-10
  6
CONTINUOUS
 62
     7
100
AcDbCircle
 10
3098.754667809274
 20
4214.791507404255
 30
0.0
 40
0.5
100
AcDbArc
 50
273.9652005688318
 51
357.7854718679155
  0
ARC
  5
218
330
1F
100
AcDbEntity
  8
LAY-10
  6
CONTINUOUS
 62
     7
100
AcDbCircle
 10
3111.245332190979
 20
4214.791507404255
 30
0.0
 40
0.5
100
AcDbArc
 50
182.2145281320844
 51
266.0347994311683
  0
ARC
  5
219
330
1F
100
AcDbEntity
  8
LAY-10
  6
CONTINUOUS
 62
     7
100
AcDbCircle
 10
2968.281797233887
 20
4415.775475280463
 30
0.0
 40
8.0
100
AcDbArc
 50
162.4463833927919
 51
210.8030040448907
  0
ARC
  5
21A
330
1F
100
AcDbEntity
  8
LAY-10
  6
CONTINUOUS
 62
     7
100
AcDbCircle
 10
2968.281797233887
 20
4415.775475280463
 30
0.0
 40
5.0
100
AcDbArc
 50
162.4463833927925
 51
210.8030040448871
  0
ARC
  5
21B
330
1F
100
AcDbEntity
  8
LAY-10
  6
CONTINUOUS
 62
     7
100
AcDbCircle
 10
2948.753966606067
 20
4421.00794172712
 30
0.0
 40
8.0
100
AcDbArc
 50
299.1969959551157
 51
347.5536166071982
  0
ARC
  5
21C
330
1F
100
AcDbEntity
  8
LAY-10
  6
CONTINUOUS
 62
     7
100
AcDbCircle
 10
2948.753966606067
 20
4421.00794172712
 30
0.0
 40
5.0
100
AcDbArc
 50
299.1969959551099
 51
347.5536166071911
  0
LINE
  5
21D
330
1F
100
AcDbEntity
  8
LAY-10
  6
CONTINUOUS
 62
     7
100
AcDbLine
 10
2963.514621549738
 20
4417.28346599544
 30
0.0
 11
2967.619040212234
 21
4430.258668462609
 31
0.0
  0
LINE
  5
21E
330
1F
100
AcDbEntity
  8
LAY-10
  6
CONTINUOUS
 62
     7
100
AcDbLine
 10
2960.654316139247
 20
4418.188260424426
 30
0.0
 11
2964.738502174149
 21
4431.099501960441
 31
0.0
  0
LINE
  5
21F
330
1F
100
AcDbEntity
  8
LAY-10
  6
CONTINUOUS
 62
     7
100
AcDbLine
 10
2956.565951572892
 20
4419.283734408345
 30
0.0
 11
2959.484563480891
 21
4432.507290590383
 31
0.0
  0
LINE
  5
220
330
1F
100
AcDbEntity
  8
LAY-10
  6
CONTINUOUS
 62
     7
100
AcDbLine
 10
2953.636457210331
 20
4419.930312152885
 30
0.0
 11
2956.569527614428
 21
4433.219376439949
 31
0.0
  0
ARC
  5
221
330
1F
100
AcDbEntity
  8
LAY-10
  6
CONTINUOUS
 62
     7
100
AcDbCircle
 10
2936.906357534068
 20
4337.736401439899
 30
0.0
 40
4.5
100
AcDbArc
 50
108.7489885958487
 51
165.0000000000056
  0
ARC
  5
222
330
1F
100
AcDbEntity
  8
LAY-10
  6
CONTINUOUS
 62
     7
100
AcDbCircle
 10
2936.906357534068
 20
4337.736401439899
 30
0.0
 40
4.5
100
AcDbArc
 50
345.000000000007
 51
41.25101140414067
  0
ARC
  5
223
330
1F
100
AcDbEntity
  8
LAY-10
  6
CONTINUOUS
 62
     7
100
AcDbCircle
 10
2936.906357534068
 20
4337.736401439899
 30
0.0
 40
9.5
100
AcDbArc
 50
90.25752329044342
 51
165.0000000000056
  0
ARC
  5
224
330
1F
100
AcDbEntity
  8
LAY-10
  6
CONTINUOUS
 62
     7
100
AcDbCircle
 10
2936.906357534068
 20
4337.736401439899
 30
0.0
 40
9.5
100
AcDbArc
 50
345.0000000000063
 51
59.74247670953909
  0
ARC
  5
225
330
1F
100
AcDbEntity
  8
LAY-10
  6
CONTINUOUS
 62
     7
100
AcDbCircle
 10
2936.129900398761
 20
4334.838623961029
 30
0.0
 40
2.499999999999773
100
AcDbArc
 50
165.0000000000056
 51
345.0000000000056
  0
LINE
  5
226
330
1F
100
AcDbEntity
  8
LAY-10
  6
CONTINUOUS
 62
     7
100
AcDbLine
 10
2942.256114321421
 20
4367.361223841323
 30
0.0
 11
2933.715085833038
 21
4335.485671573785
 31
0.0
  0
LINE
  5
227
330
1F
100
AcDbEntity
  8
LAY-10
  6
CONTINUOUS
 62
     7
100
AcDbLine
 10
2947.085743452866
 20
4366.067128615811
 30
0.0
 11
2938.544714964484
 21
4334.191576348273
 31
0.0
  0
ARC
  5
228
330
1F
100
AcDbEntity
  8
LAY-10
  6
CONTINUOUS
 62
     7
100
AcDbCircle
 10
2944.670928887143
 20
4366.714176228567
 30
0.0
 40
2.499999999999773
100
AcDbArc
 50
345.0000000000056
 51
165.0000000000056
  0
ARC
  5
229
330
1F
100
AcDbEntity
  8
LAY-10
  6
CONTINUOUS
 62
     7
100
AcDbCircle
 10
2943.894471751834
 20
4363.816398749695
 30
0.0
 40
9.5
100
AcDbArc
 50
270.2575232904572
 51
344.9999999999942
  0
ARC
  5
22A
330
1F
100
AcDbEntity
  8
LAY-10
  6
CONTINUOUS
 62
     7
100
AcDbCircle
 10
2943.894471751834
 20
4363.816398749695
 30
0.0
 40
9.5
100
AcDbArc
 50
164.9999999999875
 51
239.7424767095659
  0
ARC
  5
22B
330
1F
100
AcDbEntity
  8
LAY-10
  6
CONTINUOUS
 62
     7
100
AcDbCircle
 10
2943.894471751834
 20
4363.816398749695
 30
0.0
 40
4.5
100
AcDbArc
 50
164.9999999999675
 51
221.2510114040954
  0
ARC
  5
22C
330
1F
100
AcDbEntity
  8
LAY-10
  6
CONTINUOUS
 62
     7
100
AcDbCircle
 10
2943.894471751834
 20
4363.816398749695
 30
0.0
 40
4.5
100
AcDbArc
 50
288.7489885959219
 51
344.9999999999818
  0
LINE
  5
22D
330
1F
100
AcDbEntity
  8
LAY-10
  6
CONTINUOUS
 62
     7
100
AcDbLine
 10
2953.158699827085
 20
4381.004303746228
 30
0.0
 11
2948.241137970137
 21
4362.651713046732
 31
0.0
  0
LINE
  5
22E
330
1F
100
AcDbEntity
  8
LAY-10
  6
CONTINUOUS
 62
     7
100
AcDbLine
 10
2944.465367390482
 20
4383.33367515215
 30
0.0
 11
2939.547805533536
 21
4364.981084452658
 31
0.0
  0
LINE
  5
22F
330
1F
100
AcDbEntity
  8
LAY-10
  6
CONTINUOUS
 62
     7
100
AcDbLine
 10
2939.635738259036
 20
4384.627770377662
 30
0.0
 11
2934.71817640209
 21
4366.27517967817
 31
0.0
  0
ARC
  5
230
330
1F
100
AcDbEntity
  8
LAY-10
  6
CONTINUOUS
 62
     7
100
AcDbCircle
 10
2948.812033608782
 20
4382.168989449189
 30
0.0
 40
9.5
100
AcDbArc
 50
90.25752329045712
 51
165.0000000000056
  0
ARC
  5
231
330
1F
100
AcDbEntity
  8
LAY-10
  6
CONTINUOUS
 62
     7
100
AcDbCircle
 10
2948.812033608782
 20
4382.168989449189
 30
0.0
 40
4.5
100
AcDbArc
 50
108.7489885959164
 51
165.0000000000056
  0
ARC
  5
232
330
1F
100
AcDbEntity
  8
LAY-10
  6
CONTINUOUS
 62
     7
100
AcDbCircle
 10
2948.812033608782
 20
4382.168989449189
 30
0.0
 40
4.5
100
AcDbArc
 50
345.000000000007
 51
41.25101140409547
  0
ARC
  5
233
330
1F
100
AcDbEntity
  8
LAY-10
  6
CONTINUOUS
 62
     7
100
AcDbCircle
 10
2948.812033608782
 20
4382.168989449189
 30
0.0
 40
9.5
100
AcDbArc
 50
345.0000000000063
 51
59.74247670953157
  0
LINE
  5
234
330
1F
100
AcDbEntity
  8
LAY-10
  6
CONTINUOUS
 62
     7
100
AcDbLine
 10
2957.988328958528
 20
4379.710208520716
 30
0.0
 11
2953.070767101582
 21
4361.35761782122
 31
0.0
  0
ARC
  5
235
330
1F
100
AcDbEntity
  8
LAY-10
  6
CONTINUOUS
 62
     7
100
AcDbCircle
 10
2948.035576473473
 20
4379.271211970315
 30
0.0
 40
2.499999999999773
100
AcDbArc
 50
165.0000000000056
 51
345.0000000000056
  0
LINE
  5
236
330
1F
100
AcDbEntity
  8
LAY-10
  6
CONTINUOUS
 62
     7
100
AcDbLine
 10
2950.450391039195
 20
4378.624164357559
 30
0.0
 11
2958.99141952758
 21
4410.499716625101
 31
0.0
  0
LINE
  5
237
330
1F
100
AcDbEntity
  8
LAY-10
  6
CONTINUOUS
 62
     7
100
AcDbLine
 10
2945.620761907752
 20
4379.918259583071
 30
0.0
 11
2954.161790396135
 21
4411.793811850614
 31
0.0
  0
ARC
  5
238
330
1F
100
AcDbEntity
  8
LAY-10
  6
CONTINUOUS
 62
     7
100
AcDbCircle
 10
2956.576604961857
 20
4411.146764237857
 30
0.0
 40
2.499999999999773
100
AcDbArc
 50
345.0000000000056
 51
165.0000000000056
  0
LINE
  5
239
330
1F
100
AcDbEntity
  8
LAY-10
  6
CONTINUOUS
 62
     7
100
AcDbLine
 10
2923.23243396903
 20
4323.409805355343
 30
0.0
 11
2927.730062184325
 21
4340.195182368372
 31
0.0
  0
LINE
  5
23A
330
1F
100
AcDbEntity
  8
LAY-10
  6
CONTINUOUS
 62
     7
100
AcDbLine
 10
2929.565228869646
 20
4327.725601152571
 30
0.0
 11
2932.55969131577
 21
4338.90108714286
 31
0.0
  0
LINE
  5
23B
330
1F
100
AcDbEntity
  8
LAY-10
  6
CONTINUOUS
 62
     7
100
AcDbLine
 10
2938.258561306247
 20
4325.396229746647
 30
0.0
 11
2941.253023752371
 21
4336.571715736938
 31
0.0
  0
LINE
  5
23C
330
1F
100
AcDbEntity
  8
LAY-10
  6
CONTINUOUS
 62
     7
100
AcDbLine
 10
2941.58502466852
 20
4318.492243498383
 30
0.0
 11
2946.082652883817
 21
4335.277620511426
 31
0.0
  0
ARC
  5
23D
330
1F
100
AcDbEntity
  8
LAY-10
  6
CONTINUOUS
 62
     7
100
AcDbCircle
 10
2955.827268021939
 20
4408.350200732761
 30
0.0
 40
6.5
100
AcDbArc
 50
119.1969959551028
 51
232.3801351190215
  0
ARC
  5
23E
330
1F
100
AcDbEntity
  8
LAY-10
  6
CONTINUOUS
 62
     7
100
AcDbCircle
 10
2955.827268021939
 20
4408.350200732761
 30
0.0
 40
6.5
100
AcDbArc
 50
277.6198650150788
 51
30.80300404489471
  0
ARC
  5
23F
330
1F
100
AcDbEntity
  8
LAY-10
  6
CONTINUOUS
 62
     7
100
AcDbCircle
 10
2955.827268021939
 20
4408.350200732761
 30
0.0
 40
9.5
100
AcDbArc
 50
119.1969959551051
 51
239.7424767534397
  0
ARC
  5
240
330
1F
100
AcDbEntity
  8
LAY-10
  6
CONTINUOUS
 62
     7
100
AcDbCircle
 10
2955.827268021939
 20
4408.350200732761
 30
0.0
 40
9.5
100
AcDbArc
 50
270.25752333434
 51
30.8030040448938
  0
ARC
  5
241
330
1F
100
AcDbEntity
  8
LAY-10
  6
CONTINUOUS
 62
     7
100
AcDbCircle
 10
2678.992058276513
 20
4151.24603338037
 30
0.0
 40
8.0
100
AcDbArc
 50
282.4463833927987
 51
330.8030040448667
  0
ARC
  5
242
330
1F
100
AcDbEntity
  8
LAY-10
  6
CONTINUOUS
 62
     7
100
AcDbCircle
 10
2678.992058276513
 20
4151.24603338037
 30
0.0
 40
5.0
100
AcDbArc
 50
282.4463833927875
 51
330.8030040448901
  0
ARC
  5
243
330
1F
100
AcDbEntity
  8
LAY-10
  6
CONTINUOUS
 62
     7
100
AcDbCircle
 10
2684.224524723168
 20
4131.718202752549
 30
0.0
 40
8.0
100
AcDbArc
 50
59.19699595509465
 51
107.5536166071927
  0
ARC
  5
244
330
1F
100
AcDbEntity
  8
LAY-10
  6
CONTINUOUS
 62
     7
100
AcDbCircle
 10
2684.224524723168
 20
4131.718202752549
 30
0.0
 40
5.0
100
AcDbArc
 50
59.19699595511545
 51
107.5536166071894
  0
LINE
  5
245
330
1F
100
AcDbEntity
  8
LAY-10
  6
CONTINUOUS
 62
     7
100
AcDbLine
 10
2680.069687850747
 20
4146.363542776105
 30
0.0
 11
2666.780623563682
 21
4143.43047237201
 31
0.0
  0
LINE
  5
246
330
1F
100
AcDbEntity
  8
LAY-10
  6
CONTINUOUS
 62
     7
100
AcDbLine
 10
2680.716265595288
 20
4143.434048413545
 30
0.0
 11
2667.49270941325
 21
4140.515436505542
 31
0.0
  0
LINE
  5
247
330
1F
100
AcDbEntity
  8
LAY-10
  6
CONTINUOUS
 62
     7
100
AcDbLine
 10
2681.811739579207
 20
4139.34568384719
 30
0.0
 11
2668.900498043191
 21
4135.261497812287
 31
0.0
  0
LINE
  5
248
330
1F
100
AcDbEntity
  8
LAY-10
  6
CONTINUOUS
 62
     7
100
AcDbLine
 10
2682.716534008192
 20
4136.4853784367
 30
0.0
 11
2669.741331541023
 21
4132.380959774204
 31
0.0
  0
ARC
  5
249
330
1F
100
AcDbEntity
  8
LAY-10
  6
CONTINUOUS
 62
     7
100
AcDbCircle
 10
2762.263598560117
 20
4163.093642466012
 30
0.0
 40
4.5
100
AcDbArc
 50
228.7489885958184
 51
284.9999999999944
  0
ARC
  5
24A
330
1F
100
AcDbEntity
  8
LAY-10
  6
CONTINUOUS
 62
     7
100
AcDbCircle
 10
2762.263598560117
 20
4163.093642466012
 30
0.0
 40
4.5
100
AcDbArc
 50
105.0000000000254
 51
161.2510114041201
  0
ARC
  5
24B
330
1F
100
AcDbEntity
  8
LAY-10
  6
CONTINUOUS
 62
     7
100
AcDbCircle
 10
2762.263598560117
 20
4163.093642466012
 30
0.0
 40
9.5
100
AcDbArc
 50
210.2575232904415
 51
284.9999999999998
  0
ARC
  5
24C
330
1F
100
AcDbEntity
  8
LAY-10
  6
CONTINUOUS
 62
     7
100
AcDbCircle
 10
2762.263598560117
 20
4163.093642466012
 30
0.0
 40
9.5
100
AcDbArc
 50
105.0000000000091
 51
179.742476709551
  0
ARC
  5
24D
330
1F
100
AcDbEntity
  8
LAY-10
  6
CONTINUOUS
 62
     7
100
AcDbCircle
 10
2765.161376038987
 20
4163.870099601321
 30
0.0
 40
2.499999999999773
100
AcDbArc
 50
285.0000000000146
 51
104.9999999999945
  0
LINE
  5
24E
330
1F
100
AcDbEntity
  8
LAY-10
  6
CONTINUOUS
 62
     7
100
AcDbLine
 10
2733.932871384205
 20
4152.914256547217
 30
0.0
 11
2765.808423651744
 21
4161.455285035598
 31
0.0
  0
LINE
  5
24F
330
1F
100
AcDbEntity
  8
LAY-10
  6
CONTINUOUS
 62
     7
100
AcDbLine
 10
2732.638776158693
 20
4157.743885678662
 30
0.0
 11
2764.514328426231
 21
4166.284914167043
 31
0.0
  0
ARC
  5
250
330
1F
100
AcDbEntity
  8
LAY-10
  6
CONTINUOUS
 62
     7
100
AcDbCircle
 10
2733.285823771449
 20
4155.329071112939
 30
0.0
 40
2.499999999999773
100
AcDbArc
 50
104.9999999999945
 51
284.9999999999944
  0
ARC
  5
251
330
1F
100
AcDbEntity
  8
LAY-10
  6
CONTINUOUS
 62
     7
100
AcDbCircle
 10
2736.183601250321
 20
4156.105528248247
 30
0.0
 40
9.5
100
AcDbArc
 50
30.25752329047074
 51
105.0000000000091
  0
ARC
  5
252
330
1F
100
AcDbEntity
  8
LAY-10
  6
CONTINUOUS
 62
     7
100
AcDbCircle
 10
2736.183601250321
 20
4156.105528248247
 30
0.0
 40
9.5
100
AcDbArc
 50
284.999999999997
 51
359.7424767095565
  0
ARC
  5
253
330
1F
100
AcDbEntity
  8
LAY-10
  6
CONTINUOUS
 62
     7
100
AcDbCircle
 10
2736.183601250321
 20
4156.105528248247
 30
0.0
 40
4.5
100
AcDbArc
 50
284.9999999999944
 51
341.2510114041183
  0
ARC
  5
254
330
1F
100
AcDbEntity
  8
LAY-10
  6
CONTINUOUS
 62
     7
100
AcDbCircle
 10
2736.183601250321
 20
4156.105528248247
 30
0.0
 40
4.5
100
AcDbArc
 50
48.74898859590014
 51
105.0000000000112
  0
LINE
  5
255
330
1F
100
AcDbEntity
  8
LAY-10
  6
CONTINUOUS
 62
     7
100
AcDbLine
 10
2716.666324847866
 20
4155.534632609601
 30
0.0
 11
2735.018915547359
 21
4160.452194466549
 31
0.0
  0
LINE
  5
256
330
1F
100
AcDbEntity
  8
LAY-10
  6
CONTINUOUS
 62
     7
100
AcDbLine
 10
2718.995696253788
 20
4146.841300172998
 30
0.0
 11
2737.34828695328
 21
4151.758862029948
 31
0.0
  0
LINE
  5
257
330
1F
100
AcDbEntity
  8
LAY-10
  6
CONTINUOUS
 62
     7
100
AcDbLine
 10
2720.2897914793
 20
4142.011671041552
 30
0.0
 11
2738.642382178794
 21
4146.929232898503
 31
0.0
  0
ARC
  5
258
330
1F
100
AcDbEntity
  8
LAY-10
  6
CONTINUOUS
 62
     7
100
AcDbCircle
 10
2717.831010550827
 20
4151.187966391297
 30
0.0
 40
9.5
100
AcDbArc
 50
210.2575232904463
 51
284.9999999999998
  0
ARC
  5
259
330
1F
100
AcDbEntity
  8
LAY-10
  6
CONTINUOUS
 62
     7
100
AcDbCircle
 10
2717.831010550827
 20
4151.187966391297
 30
0.0
 40
4.5
100
AcDbArc
 50
228.7489885958794
 51
285.0000000000057
  0
ARC
  5
25A
330
1F
100
AcDbEntity
  8
LAY-10
  6
CONTINUOUS
 62
     7
100
AcDbCircle
 10
2717.831010550827
 20
4151.187966391297
 30
0.0
 40
4.5
100
AcDbArc
 50
104.9999999999833
 51
161.2510114040688
  0
ARC
  5
25B
330
1F
100
AcDbEntity
  8
LAY-10
  6
CONTINUOUS
 62
     7
100
AcDbCircle
 10
2717.831010550827
 20
4151.187966391297
 30
0.0
 40
9.5
100
AcDbArc
 50
105.0000000000091
 51
179.7424767095346
  0
LINE
  5
25C
330
1F
100
AcDbEntity
  8
LAY-10
  6
CONTINUOUS
 62
     7
100
AcDbLine
 10
2715.372229622351
 20
4160.364261741044
 30
0.0
 11
2733.724820321846
 21
4165.281823597995
 31
0.0
  0
ARC
  5
25D
330
1F
100
AcDbEntity
  8
LAY-10
  6
CONTINUOUS
 62
     7
100
AcDbCircle
 10
2720.728788029699
 20
4151.964423526608
 30
0.0
 40
2.499999999999773
100
AcDbArc
 50
284.9999999999944
 51
104.9999999999945
  0
LINE
  5
25E
330
1F
100
AcDbEntity
  8
LAY-10
  6
CONTINUOUS
 62
     7
100
AcDbLine
 10
2720.081740416943
 20
4154.379238092331
 30
0.0
 11
2688.206188149402
 21
4145.838209603946
 31
0.0
  0
LINE
  5
25F
330
1F
100
AcDbEntity
  8
LAY-10
  6
CONTINUOUS
 62
     7
100
AcDbLine
 10
2721.375835642455
 20
4149.549608960886
 30
0.0
 11
2689.500283374914
 21
4141.008580472502
 31
0.0
  0
ARC
  5
260
330
1F
100
AcDbEntity
  8
LAY-10
  6
CONTINUOUS
 62
     7
100
AcDbCircle
 10
2688.853235762159
 20
4143.423395038223
 30
0.0
 40
2.499999999999773
100
AcDbArc
 50
105.0000000000146
 51
285.0000000000301
  0
LINE
  5
261
330
1F
100
AcDbEntity
  8
LAY-10
  6
CONTINUOUS
 62
     7
100
AcDbLine
 10
2781.507756501619
 20
4158.41497533156
 30
0.0
 11
2764.72237948859
 21
4153.917347116269
 31
0.0
  0
LINE
  5
262
330
1F
100
AcDbEntity
  8
LAY-10
  6
CONTINUOUS
 62
     7
100
AcDbLine
 10
2774.603770253366
 20
4161.741438693836
 30
0.0
 11
2763.428284263078
 21
4158.746976247714
 31
0.0
  0
LINE
  5
263
330
1F
100
AcDbEntity
  8
LAY-10
  6
CONTINUOUS
 62
     7
100
AcDbLine
 10
2772.274398847444
 20
4170.434771130437
 30
0.0
 11
2761.098912857154
 21
4167.440308684315
 31
0.0
  0
LINE
  5
264
330
1F
100
AcDbEntity
  8
LAY-10
  6
CONTINUOUS
 62
     7
100
AcDbLine
 10
2776.590194644683
 20
4176.767566031055
 30
0.0
 11
2759.804817631642
 21
4172.26993781576
 31
0.0
  0
ARC
  5
265
330
1F
100
AcDbEntity
  8
LAY-10
  6
CONTINUOUS
 62
     7
100
AcDbCircle
 10
2691.649799270872
 20
4144.172731964499
 30
0.0
 40
6.5
100
AcDbArc
 50
239.1969959551028
 51
352.3801351190066
  0
ARC
  5
266
330
1F
100
AcDbEntity
  8
LAY-10
  6
CONTINUOUS
 62
     7
100
AcDbCircle
 10
2691.649799270872
 20
4144.172731964499
 30
0.0
 40
6.5
100
AcDbArc
 50
37.61986501509121
 51
150.8030040449279
  0
ARC
  5
267
330
1F
100
AcDbEntity
  8
LAY-10
  6
CONTINUOUS
 62
     7
100
AcDbCircle
 10
2691.649799270872
 20
4144.172731964499
 30
0.0
 40
9.5
100
AcDbArc
 50
239.1969959551114
 51
359.7424767534393
  0
ARC
  5
268
330
1F
100
AcDbEntity
  8
LAY-10
  6
CONTINUOUS
 62
     7
100
AcDbCircle
 10
2691.649799270872
 20
4144.172731964499
 30
0.0
 40
9.5
100
AcDbArc
 50
30.25752333433638
 51
150.8030040448914
  0
ARC
  5
269
330
1F
100
AcDbEntity
  8
LAY-10
  6
CONTINUOUS
 62
     7
100
AcDbCircle
 10
3052.726144489601
 20
4032.978491339163
 30
0.0
 40
8.0
100
AcDbArc
 50
42.44638339279081
 51
90.80300404488358
  0
ARC
  5
26A
330
1F
100
AcDbEntity
  8
LAY-10
  6
CONTINUOUS
 62
     7
100
AcDbCircle
 10
3052.726144489601
 20
4032.978491339163
 30
0.0
 40
5.0
100
AcDbArc
 50
42.44638339278382
 51
90.80300404488358
  0
ARC
  5
26B
330
1F
100
AcDbEntity
  8
LAY-10
  6
CONTINUOUS
 62
     7
100
AcDbCircle
 10
3067.021508670765
 20
4047.273855520325
 30
0.0
 40
8.0
100
AcDbArc
 50
179.1969959551099
 51
227.553616607207
  0
ARC
  5
26C
330
1F
100
AcDbEntity
  8
LAY-10
  6
CONTINUOUS
 62
     7
100
AcDbCircle
 10
3067.021508670765
 20
4047.273855520325
 30
0.0
 40
5.0
100
AcDbArc
 50
179.1969959550904
 51
227.5536166071828
  0
LINE
  5
26D
330
1F
100
AcDbEntity
  8
LAY-10
  6
CONTINUOUS
 62
     7
100
AcDbLine
 10
3056.415690599516
 20
4036.35299122845
 30
0.0
 11
3065.600336224083
 21
4026.310859165378
 31
0.0
  0
LINE
  5
26E
330
1F
100
AcDbEntity
  8
LAY-10
  6
CONTINUOUS
 62
     7
100
AcDbLine
 10
3058.629418265465
 20
4038.377691162023
 30
0.0
 11
3067.768788412599
 21
4028.38506153401
 31
0.0
  0
LINE
  5
26F
330
1F
100
AcDbEntity
  8
LAY-10
  6
CONTINUOUS
 62
     7
100
AcDbLine
 10
3061.622308847901
 20
4041.37058174446
 30
0.0
 11
3071.614938475917
 21
4032.231211597327
 31
0.0
  0
LINE
  5
270
330
1F
100
AcDbEntity
  8
LAY-10
  6
CONTINUOUS
 62
     7
100
AcDbLine
 10
3063.647008781474
 20
4043.584309410411
 30
0.0
 11
3073.689140844548
 21
4034.399663785844
 31
0.0
  0
ARC
  5
271
330
1F
100
AcDbEntity
  8
LAY-10
  6
CONTINUOUS
 62
     7
100
AcDbCircle
 10
3000.830043905763
 20
4099.16995609437
 30
0.0
 40
4.5
100
AcDbArc
 50
348.7489885958453
 51
45.00000000002457
  0
ARC
  5
272
330
1F
100
AcDbEntity
  8
LAY-10
  6
CONTINUOUS
 62
     7
100
AcDbCircle
 10
3000.830043905763
 20
4099.16995609437
 30
0.0
 40
4.5
100
AcDbArc
 50
224.9999999999918
 51
281.251011404082
  0
ARC
  5
273
330
1F
100
AcDbEntity
  8
LAY-10
  6
CONTINUOUS
 62
     7
100
AcDbCircle
 10
3000.830043905763
 20
4099.16995609437
 30
0.0
 40
9.5
100
AcDbArc
 50
330.2575232904295
 51
45.00000000000388
  0
ARC
  5
274
330
1F
100
AcDbEntity
  8
LAY-10
  6
CONTINUOUS
 62
     7
100
AcDbCircle
 10
3000.830043905763
 20
4099.16995609437
 30
0.0
 40
9.5
100
AcDbArc
 50
224.9999999999845
 51
299.7424767095373
  0
ARC
  5
275
330
1F
100
AcDbEntity
  8
LAY-10
  6
CONTINUOUS
 62
     7
100
AcDbCircle
 10
2998.708723562197
 20
4101.291276437933
 30
0.0
 40
2.499999999999773
100
AcDbArc
 50
44.99999999998526
 51
225.0000000000516
  0
LINE
  5
276
330
1F
100
AcDbEntity
  8
LAY-10
  6
CONTINUOUS
 62
     7
100
AcDbLine
 10
3023.81101429432
 20
4079.724519611741
 30
0.0
 11
3000.476490515164
 21
4103.059043390899
 31
0.0
  0
LINE
  5
277
330
1F
100
AcDbEntity
  8
LAY-10
  6
CONTINUOUS
 62
     7
100
AcDbLine
 10
3020.275480388387
 20
4076.188985705809
 30
0.0
 11
2996.94095660923
 21
4099.523509484966
 31
0.0
  0
ARC
  5
278
330
1F
100
AcDbEntity
  8
LAY-10
  6
CONTINUOUS
 62
     7
100
AcDbCircle
 10
3022.043247341353
 20
4077.956752658775
 30
0.0
 40
2.499999999999773
100
AcDbArc
 50
224.9999999999263
 51
44.99999999998526
  0
ARC
  5
279
330
1F
100
AcDbEntity
  8
LAY-10
  6
CONTINUOUS
 62
     7
100
AcDbCircle
 10
3019.921926997791
 20
4080.078073002338
 30
0.0
 40
9.5
100
AcDbArc
 50
150.2575232904397
 51
224.999999999998
  0
ARC
  5
27A
330
1F
100
AcDbEntity
  8
LAY-10
  6
CONTINUOUS
 62
     7
100
AcDbCircle
 10
3019.921926997791
 20
4080.078073002338
 30
0.0
 40
9.5
100
AcDbArc
 50
45.00000000000772
 51
119.7424767095371
  0
ARC
  5
27B
330
1F
100
AcDbEntity
  8
LAY-10
  6
CONTINUOUS
 62
     7
100
AcDbCircle
 10
3019.921926997791
 20
4080.078073002338
 30
0.0
 40
4.5
100
AcDbArc
 50
45.00000000001224
 51
101.2510114041173
  0
ARC
  5
27C
330
1F
100
AcDbEntity
  8
LAY-10
  6
CONTINUOUS
 62
     7
100
AcDbCircle
 10
3019.921926997791
 20
4080.078073002338
 30
0.0
 40
4.5
100
AcDbArc
 50
168.7489885958895
 51
224.9999999999877
  0
LINE
  5
27D
330
1F
100
AcDbEntity
  8
LAY-10
  6
CONTINUOUS
 62
     7
100
AcDbLine
 10
3030.174975324996
 20
4063.461063644454
 30
0.0
 11
3016.739946482451
 21
4076.896092487
 31
0.0
  0
LINE
  5
27E
330
1F
100
AcDbEntity
  8
LAY-10
  6
CONTINUOUS
 62
     7
100
AcDbLine
 10
3036.538936355676
 20
4069.825024675133
 30
0.0
 11
3023.10390751313
 21
4083.260053517679
 31
0.0
  0
LINE
  5
27F
330
1F
100
AcDbEntity
  8
LAY-10
  6
CONTINUOUS
 62
     7
100
AcDbLine
 10
3040.074470261609
 20
4073.360558581066
 30
0.0
 11
3026.639441419063
 21
4086.795587423612
 31
0.0
  0
ARC
  5
280
330
1F
100
AcDbEntity
  8
LAY-10
  6
CONTINUOUS
 62
     7
100
AcDbCircle
 10
3033.356955840336
 20
4066.643044159792
 30
0.0
 40
9.5
100
AcDbArc
 50
330.2575232904615
 51
45.0000000000155
  0
ARC
  5
281
330
1F
100
AcDbEntity
  8
LAY-10
  6
CONTINUOUS
 62
     7
100
AcDbCircle
 10
3033.356955840336
 20
4066.643044159792
 30
0.0
 40
4.5
100
AcDbArc
 50
348.7489885959293
 51
45.0000000000409
  0
ARC
  5
282
330
1F
100
AcDbEntity
  8
LAY-10
  6
CONTINUOUS
 62
     7
100
AcDbCircle
 10
3033.356955840336
 20
4066.643044159792
 30
0.0
 40
4.5
100
AcDbArc
 50
224.9999999999754
 51
281.2510114041196
  0
ARC
  5
283
330
1F
100
AcDbEntity
  8
LAY-10
  6
CONTINUOUS
 62
     7
100
AcDbCircle
 10
3033.356955840336
 20
4066.643044159792
 30
0.0
 40
9.5
100
AcDbArc
 50
224.9999999999845
 51
299.7424767095509
  0
LINE
  5
284
330
1F
100
AcDbEntity
  8
LAY-10
  6
CONTINUOUS
 62
     7
100
AcDbLine
 10
3026.639441419063
 20
4059.925529738521
 30
0.0
 11
3013.204412576517
 21
4073.360558581066
 31
0.0
  0
ARC
  5
285
330
1F
100
AcDbEntity
  8
LAY-10
  6
CONTINUOUS
 62
     7
100
AcDbCircle
 10
3031.235635496771
 20
4068.764364503359
 30
0.0
 40
2.499999999999773
100
AcDbArc
 50
44.9999999999926
 51
225.0000000000589
  0
LINE
  5
286
330
1F
100
AcDbEntity
  8
LAY-10
  6
CONTINUOUS
 62
     7
100
AcDbLine
 10
3029.467868543804
 20
4066.996597550392
 30
0.0
 11
3052.802392322963
 21
4043.662073771234
 31
0.0
  0
LINE
  5
287
330
1F
100
AcDbEntity
  8
LAY-10
  6
CONTINUOUS
 62
     7
100
AcDbLine
 10
3033.003402449738
 20
4070.532131456324
 30
0.0
 11
3056.337926228896
 21
4047.197607677167
 31
0.0
  0
ARC
  5
288
330
1F
100
AcDbEntity
  8
LAY-10
  6
CONTINUOUS
 62
     7
100
AcDbCircle
 10
3054.570159275929
 20
4045.4298407242
 30
0.0
 40
2.499999999999773
100
AcDbArc
 50
225.0000000000147
 51
45.00000000003682
  0
LINE
  5
289
330
1F
100
AcDbEntity
  8
LAY-10
  6
CONTINUOUS
 62
     7
100
AcDbLine
 10
2995.259809529296
 20
4118.175219313377
 30
0.0
 11
3007.547558327033
 21
4105.88747051564
 31
0.0
  0
LINE
  5
28A
330
1F
100
AcDbEntity
  8
LAY-10
  6
CONTINUOUS
 62
     7
100
AcDbLine
 10
2995.831000876934
 20
4110.532960153873
 30
0.0
 11
3004.0120244211
 21
4102.351936609707
 31
0.0
  0
LINE
  5
28B
330
1F
100
AcDbEntity
  8
LAY-10
  6
CONTINUOUS
 62
     7
100
AcDbLine
 10
2989.467039846254
 20
4104.168999123195
 30
0.0
 11
2997.648063390421
 21
4095.987975579029
 31
0.0
  0
LINE
  5
28C
330
1F
100
AcDbEntity
  8
LAY-10
  6
CONTINUOUS
 62
     7
100
AcDbLine
 10
2981.824780686743
 20
4104.740190470843
 30
0.0
 11
2994.112529484487
 21
4092.452441673096
 31
0.0
  0
ARC
  5
28D
330
1F
100
AcDbEntity
  8
LAY-10
  6
CONTINUOUS
 62
     7
100
AcDbCircle
 10
3052.52293270719
 20
4047.477067302735
 30
0.0
 40
6.5
100
AcDbArc
 50
359.1969959550983
 51
112.3801351189997
  0
ARC
  5
28E
330
1F
100
AcDbEntity
  8
LAY-10
  6
CONTINUOUS
 62
     7
100
AcDbCircle
 10
3052.52293270719
 20
4047.477067302735
 30
0.0
 40
6.5
100
AcDbArc
 50
157.6198650150841
 51
270.8030040448937
  0
ARC
  5
28F
330
1F
100
AcDbEntity
  8
LAY-10
  6
CONTINUOUS
 62
     7
100
AcDbCircle
 10
3052.52293270719
 20
4047.477067302735
 30
0.0
 40
9.5
100
AcDbArc
 50
359.1969959551178
 51
119.742476753428
  0
ARC
  5
290
330
1F
100
AcDbEntity
  8
LAY-10
  6
CONTINUOUS
 62
     7
100
AcDbCircle
 10
3052.52293270719
 20
4047.477067302735
 30
0.0
 40
9.5
100
AcDbArc
 50
150.257523334345
 51
270.8030040448905
  0
CIRCLE
  5
291
330
1F
100
AcDbEntity
  8
LAY-10
  6
CONTINUOUS
 62
     7
100
AcDbCircle
 10
2807.828353122395
 20
4197.819938578048
 30
0.0
 40
4.5
  0
CIRCLE
  5
292
330
1F
100
AcDbEntity
  8
LAY-10
  6
CONTINUOUS
 62
     7
100
AcDbCircle
 10
2815.796102743528
 20
4212.83709429992
 30
0.0
 40
4.5
  0
CIRCLE
  5
293
330
1F
100
AcDbEntity
  8
LAY-10
  6
CONTINUOUS
 62
     7
100
AcDbCircle
 10
2887.16290570008
 20
4284.203897256472
 30
0.0
 40
4.5
  0
CIRCLE
  5
294
330
1F
100
AcDbEntity
  8
LAY-10
  6
CONTINUOUS
 62
     7
100
AcDbCircle
 10
2902.180061421951
 20
4292.171646877604
 30
0.0
 40
4.5
  0
CIRCLE
  5
295
330
1F
100
AcDbEntity
  8
LAY-10
  6
CONTINUOUS
 62
     7
100
AcDbCircle
 10
2825.010373783135
 20
4227.123353754677
 30
0.0
 40
4.5
  0
CIRCLE
  5
296
330
1F
100
AcDbEntity
  8
LAY-10
  6
CONTINUOUS
 62
     7
100
AcDbCircle
 10
2872.876646245323
 20
4274.989626216865
 30
0.0
 40
4.5
  0
CIRCLE
  5
297
330
1F
100
AcDbEntity
  8
LAY-10
  6
CONTINUOUS
 62
     7
100
AcDbCircle
 10
2859.42450128224
 20
4264.595406867043
 30
0.0
 40
4.5
  0
CIRCLE
  5
298
330
1F
100
AcDbEntity
  8
LAY-10
  6
CONTINUOUS
 62
     7
100
AcDbCircle
 10
2835.404593132958
 20
4240.575498717761
 30
0.0
 40
4.5
  0
CIRCLE
  5
299
330
1F
100
AcDbEntity
  8
LAY-10
  6
CONTINUOUS
 62
     7
100
AcDbCircle
 10
2846.903662558193
 20
4253.096337441808
 30
0.0
 40
4.5
  0
ARC
  5
29A
330
1F
100
AcDbEntity
  8
LAY-10
  6
CONTINUOUS
 62
     7
100
AcDbCircle
 10
2815.796102743528
 20
4212.83709429992
 30
0.0
 40
12.5
100
AcDbArc
 50
289.206986940949
 51
10.02266446112961
  0
ARC
  5
29B
330
1F
100
AcDbEntity
  8
LAY-10
  6
CONTINUOUS
 62
     7
100
AcDbCircle
 10
2807.828353122395
 20
4197.819938578048
 30
0.0
 40
12.5
100
AcDbArc
 50
109.206986940943
 51
185.643801684214
  0
ARC
  5
29C
330
1F
100
AcDbEntity
  8
LAY-10
  6
CONTINUOUS
 62
     7
100
AcDbCircle
 10
2825.010373783135
 20
4227.123353754677
 30
0.0
 40
12.5
100
AcDbArc
 50
284.335378373944
 51
5.151055894110637
  0
ARC
  5
29D
330
1F
100
AcDbEntity
  8
LAY-10
  6
CONTINUOUS
 62
     7
100
AcDbCircle
 10
2815.796102743528
 20
4212.83709429992
 30
0.0
 40
12.5
100
AcDbArc
 50
104.335378373944
 51
194.8942730281512
  0
ARC
  5
29E
330
1F
100
AcDbEntity
  8
LAY-10
  6
CONTINUOUS
 62
     7
100
AcDbCircle
 10
2835.404593132958
 20
4240.575498717761
 30
0.0
 40
12.5
100
AcDbArc
 50
279.4637698069295
 51
0.2794473270973313
  0
ARC
  5
29F
330
1F
100
AcDbEntity
  8
LAY-10
  6
CONTINUOUS
 62
     7
100
AcDbCircle
 10
2825.010373783135
 20
4227.123353754677
 30
0.0
 40
12.5
100
AcDbArc
 50
99.46376980692123
 51
190.0226644611297
  0
ARC
  5
2A0
330
1F
100
AcDbEntity
  8
LAY-10
  6
CONTINUOUS
 62
     7
100
AcDbCircle
 10
2846.903662558193
 20
4253.096337441808
 30
0.0
 40
12.5
100
AcDbArc
 50
274.5921612399027
 51
355.4078387600888
  0
ARC
  5
2A1
330
1F
100
AcDbEntity
  8
LAY-10
  6
CONTINUOUS
 62
     7
100
AcDbCircle
 10
2835.404593132958
 20
4240.575498717761
 30
0.0
 40
12.5
100
AcDbArc
 50
94.592161239905
 51
185.1510558941237
  0
ARC
  5
2A2
330
1F
100
AcDbEntity
  8
LAY-10
  6
CONTINUOUS
 62
     7
100
AcDbCircle
 10
2859.42450128224
 20
4264.595406867043
 30
0.0
 40
12.5
100
AcDbArc
 50
269.7205526729048
 51
350.5362301930617
  0
ARC
  5
2A3
330
1F
100
AcDbEntity
  8
LAY-10
  6
CONTINUOUS
 62
     7
100
AcDbCircle
 10
2846.903662558193
 20
4253.096337441808
 30
0.0
 40
12.5
100
AcDbArc
 50
89.72055267290257
 51
180.2794473270974
  0
ARC
  5
2A4
330
1F
100
AcDbEntity
  8
LAY-10
  6
CONTINUOUS
 62
     7
100
AcDbCircle
 10
2872.876646245323
 20
4274.989626216865
 30
0.0
 40
12.5
100
AcDbArc
 50
264.8489441058871
 51
345.664621626058
  0
ARC
  5
2A5
330
1F
100
AcDbEntity
  8
LAY-10
  6
CONTINUOUS
 62
     7
100
AcDbCircle
 10
2859.42450128224
 20
4264.595406867043
 30
0.0
 40
12.5
100
AcDbArc
 50
84.84894410588291
 51
175.4078387601057
  0
ARC
  5
2A6
330
1F
100
AcDbEntity
  8
LAY-10
  6
CONTINUOUS
 62
     7
100
AcDbCircle
 10
2887.16290570008
 20
4284.203897256472
 30
0.0
 40
12.5
100
AcDbArc
 50
259.9773355388679
 51
340.7930130590483
  0
ARC
  5
2A7
330
1F
100
AcDbEntity
  8
LAY-10
  6
CONTINUOUS
 62
     7
100
AcDbCircle
 10
2872.876646245323
 20
4274.989626216865
 30
0.0
 40
12.5
100
AcDbArc
 50
79.97733553886177
 51
170.5362301930791
  0
ARC
  5
2A8
330
1F
100
AcDbEntity
  8
LAY-10
  6
CONTINUOUS
 62
     7
100
AcDbCircle
 10
2902.180061421951
 20
4292.171646877604
 30
0.0
 40
12.5
100
AcDbArc
 50
255.1057269718573
 51
323.1733068002821
  0
ARC
  5
2A9
330
1F
100
AcDbEntity
  8
LAY-10
  6
CONTINUOUS
 62
     7
100
AcDbCircle
 10
2887.16290570008
 20
4284.203897256472
 30
0.0
 40
12.5
100
AcDbArc
 50
75.10572697185533
 51
165.664621626054
  0
CIRCLE
  5
2AA
330
1F
100
AcDbEntity
  8
LAY-10
  6
CONTINUOUS
 62
     7
100
AcDbCircle
 10
2947.973812012021
 20
4121.267043006321
 30
0.0
 40
4.5
  0
CIRCLE
  5
2AB
330
1F
100
AcDbEntity
  8
LAY-10
  6
CONTINUOUS
 62
     7
100
AcDbCircle
 10
2930.984698853728
 20
4120.65873872828
 30
0.0
 40
4.5
  0
CIRCLE
  5
2AC
330
1F
100
AcDbEntity
  8
LAY-10
  6
CONTINUOUS
 62
     7
100
AcDbCircle
 10
2833.495833028199
 20
4146.780801597257
 30
0.0
 40
4.5
  0
CIRCLE
  5
2AD
330
1F
100
AcDbEntity
  8
LAY-10
  6
CONTINUOUS
 62
     7
100
AcDbCircle
 10
2819.086981584369
 20
4155.802165134418
 30
0.0
 40
4.5
  0
CIRCLE
  5
2AE
330
1F
100
AcDbEntity
  8
LAY-10
  6
CONTINUOUS
 62
     7
100
AcDbCircle
 10
2914.005299721048
 20
4121.495401798557
 30
0.0
 40
4.5
  0
CIRCLE
  5
2AF
330
1F
100
AcDbEntity
  8
LAY-10
  6
CONTINUOUS
 62
     7
100
AcDbCircle
 10
2848.618755553232
 20
4139.015673504185
 30
0.0
 40
4.5
  0
CIRCLE
  5
2B0
330
1F
100
AcDbEntity
  8
LAY-10
  6
CONTINUOUS
 62
     7
100
AcDbCircle
 10
2864.346486044227
 20
4132.562883905676
 30
0.0
 40
4.5
  0
CIRCLE
  5
2B1
330
1F
100
AcDbEntity
  8
LAY-10
  6
CONTINUOUS
 62
     7
100
AcDbCircle
 10
2897.158290772716
 20
4123.770987326468
 30
0.0
 40
4.5
  0
CIRCLE
  5
2B2
330
1F
100
AcDbEntity
  8
LAY-10
  6
CONTINUOUS
 62
     7
100
AcDbCircle
 10
2880.565391648386
 20
4127.469054206581
 30
0.0
 40
4.5
  0
ARC
  5
2B3
330
1F
100
AcDbEntity
  8
LAY-10
  6
CONTINUOUS
 62
     7
100
AcDbCircle
 10
2930.984698853728
 20
4120.65873872828
 30
0.0
 40
12.5
100
AcDbArc
 50
224.3353783739344
 51
314.8942730281541
  0
ARC
  5
2B4
330
1F
100
AcDbEntity
  8
LAY-10
  6
CONTINUOUS
 62
     7
100
AcDbCircle
 10
2914.005299721048
 20
4121.495401798557
 30
0.0
 40
12.5
100
AcDbArc
 50
219.463769806921
 51
310.0226644611271
  0
ARC
  5
2B5
330
1F
100
AcDbEntity
  8
LAY-10
  6
CONTINUOUS
 62
     7
100
AcDbCircle
 10
2897.158290772716
 20
4123.770987326468
 30
0.0
 40
12.5
100
AcDbArc
 50
214.5921612398984
 51
305.1510558941266
  0
ARC
  5
2B6
330
1F
100
AcDbEntity
  8
LAY-10
  6
CONTINUOUS
 62
     7
100
AcDbCircle
 10
2880.565391648386
 20
4127.469054206581
 30
0.0
 40
12.5
100
AcDbArc
 50
209.7205526729038
 51
300.2794473270994
  0
ARC
  5
2B7
330
1F
100
AcDbEntity
  8
LAY-10
  6
CONTINUOUS
 62
     7
100
AcDbCircle
 10
2864.346486044227
 20
4132.562883905676
 30
0.0
 40
12.5
100
AcDbArc
 50
204.8489441058891
 51
295.4078387600993
  0
ARC
  5
2B8
330
1F
100
AcDbEntity
  8
LAY-10
  6
CONTINUOUS
 62
     7
100
AcDbCircle
 10
2848.618755553232
 20
4139.015673504185
 30
0.0
 40
12.5
100
AcDbArc
 50
199.9773355388663
 51
290.5362301930851
  0
ARC
  5
2B9
330
1F
100
AcDbEntity
  8
LAY-10
  6
CONTINUOUS
 62
     7
100
AcDbCircle
 10
2833.495833028199
 20
4146.780801597257
 30
0.0
 40
12.5
100
AcDbArc
 50
195.1057269718519
 51
285.6646216260497
  0
ARC
  5
2BA
330
1F
100
AcDbEntity
  8
LAY-10
  6
CONTINUOUS
 62
     7
100
AcDbCircle
 10
2947.973812012021
 20
4121.267043006321
 30
0.0
 40
12.5
100
AcDbArc
 50
229.2069869409472
 51
305.6438016839255
  0
ARC
  5
2BB
330
1F
100
AcDbEntity
  8
LAY-10
  6
CONTINUOUS
 62
     7
100
AcDbCircle
 10
2930.984698853728
 20
4120.65873872828
 30
0.0
 40
12.5
100
AcDbArc
 50
49.20698694095464
 51
130.0226644611313
  0
ARC
  5
2BC
330
1F
100
AcDbEntity
  8
LAY-10
  6
CONTINUOUS
 62
     7
100
AcDbCircle
 10
2914.005299721048
 20
4121.495401798557
 30
0.0
 40
12.5
100
AcDbArc
 50
44.33537837394179
 51
125.1510558941115
  0
ARC
  5
2BD
330
1F
100
AcDbEntity
  8
LAY-10
  6
CONTINUOUS
 62
     7
100
AcDbCircle
 10
2897.158290772716
 20
4123.770987326468
 30
0.0
 40
12.5
100
AcDbArc
 50
39.46376980693667
 51
120.2794473270918
  0
ARC
  5
2BE
330
1F
100
AcDbEntity
  8
LAY-10
  6
CONTINUOUS
 62
     7
100
AcDbCircle
 10
2880.565391648386
 20
4127.469054206581
 30
0.0
 40
12.5
100
AcDbArc
 50
34.5921612398996
 51
115.4078387600935
  0
ARC
  5
2BF
330
1F
100
AcDbEntity
  8
LAY-10
  6
CONTINUOUS
 62
     7
100
AcDbCircle
 10
2864.346486044227
 20
4132.562883905676
 30
0.0
 40
12.5
100
AcDbArc
 50
29.72055267289907
 51
110.5362301930646
  0
ARC
  5
2C0
330
1F
100
AcDbEntity
  8
LAY-10
  6
CONTINUOUS
 62
     7
100
AcDbCircle
 10
2848.618755553232
 20
4139.015673504185
 30
0.0
 40
12.5
100
AcDbArc
 50
24.84894410588995
 51
105.6646216260547
  0
ARC
  5
2C1
330
1F
100
AcDbEntity
  8
LAY-10
  6
CONTINUOUS
 62
     7
100
AcDbCircle
 10
2819.086981584369
 20
4155.802165134418
 30
0.0
 40
12.5
100
AcDbArc
 50
15.10572697185302
 51
83.17330680047384
  0
ARC
  5
2C2
330
1F
100
AcDbEntity
  8
LAY-10
  6
CONTINUOUS
 62
     7
100
AcDbCircle
 10
2833.495833028199
 20
4146.780801597257
 30
0.0
 40
12.5
100
AcDbArc
 50
19.97733553887165
 51
100.7930130590492
  0
CIRCLE
  5
2C3
330
1F
100
AcDbEntity
  8
LAY-10
  6
CONTINUOUS
 62
     7
100
AcDbCircle
 10
2944.19783486558
 20
4280.913018415629
 30
0.0
 40
4.5
  0
CIRCLE
  5
2C4
330
1F
100
AcDbEntity
  8
LAY-10
  6
CONTINUOUS
 62
     7
100
AcDbCircle
 10
2953.219198402743
 20
4266.504166971798
 30
0.0
 40
4.5
  0
CIRCLE
  5
2C5
330
1F
100
AcDbEntity
  8
LAY-10
  6
CONTINUOUS
 62
     7
100
AcDbCircle
 10
2979.341261271719
 20
4169.01530114627
 30
0.0
 40
4.5
  0
CIRCLE
  5
2C6
330
1F
100
AcDbEntity
  8
LAY-10
  6
CONTINUOUS
 62
     7
100
AcDbCircle
 10
2978.732956993678
 20
4152.026187987975
 30
0.0
 40
4.5
  0
CIRCLE
  5
2C7
330
1F
100
AcDbEntity
  8
LAY-10
  6
CONTINUOUS
 62
     7
100
AcDbCircle
 10
2960.984326495814
 20
4251.381244446764
 30
0.0
 40
4.5
  0
CIRCLE
  5
2C8
330
1F
100
AcDbEntity
  8
LAY-10
  6
CONTINUOUS
 62
     7
100
AcDbCircle
 10
2978.504598201443
 20
4185.994700278949
 30
0.0
 40
4.5
  0
CIRCLE
  5
2C9
330
1F
100
AcDbEntity
  8
LAY-10
  6
CONTINUOUS
 62
     7
100
AcDbCircle
 10
2976.229012673531
 20
4202.841709227279
 30
0.0
 40
4.5
  0
CIRCLE
  5
2CA
330
1F
100
AcDbEntity
  8
LAY-10
  6
CONTINUOUS
 62
     7
100
AcDbCircle
 10
2967.437116094324
 20
4235.653513955768
 30
0.0
 40
4.5
  0
CIRCLE
  5
2CB
330
1F
100
AcDbEntity
  8
LAY-10
  6
CONTINUOUS
 62
     7
100
AcDbCircle
 10
2972.53094579342
 20
4219.43460835161
 30
0.0
 40
4.5
  0
ARC
  5
2CC
330
1F
100
AcDbEntity
  8
LAY-10
  6
CONTINUOUS
 62
     7
100
AcDbCircle
 10
2953.219198402743
 20
4266.504166971798
 30
0.0
 40
12.5
100
AcDbArc
 50
344.3353783739373
 51
74.89427302815348
  0
ARC
  5
2CD
330
1F
100
AcDbEntity
  8
LAY-10
  6
CONTINUOUS
 62
     7
100
AcDbCircle
 10
2960.984326495814
 20
4251.381244446764
 30
0.0
 40
12.5
100
AcDbArc
 50
339.4637698069176
 51
70.0226644611349
  0
ARC
  5
2CE
330
1F
100
AcDbEntity
  8
LAY-10
  6
CONTINUOUS
 62
     7
100
AcDbCircle
 10
2967.437116094324
 20
4235.653513955768
 30
0.0
 40
12.5
100
AcDbArc
 50
334.5921612399074
 51
65.15105589412022
  0
ARC
  5
2CF
330
1F
100
AcDbEntity
  8
LAY-10
  6
CONTINUOUS
 62
     7
100
AcDbCircle
 10
2972.53094579342
 20
4219.43460835161
 30
0.0
 40
12.5
100
AcDbArc
 50
329.7205526729018
 51
60.27944732710085
  0
ARC
  5
2D0
330
1F
100
AcDbEntity
  8
LAY-10
  6
CONTINUOUS
 62
     7
100
AcDbCircle
 10
2976.229012673531
 20
4202.841709227279
 30
0.0
 40
12.5
100
AcDbArc
 50
324.8489441058838
 51
55.40783876011194
  0
ARC
  5
2D1
330
1F
100
AcDbEntity
  8
LAY-10
  6
CONTINUOUS
 62
     7
100
AcDbCircle
 10
2978.504598201443
 20
4185.994700278949
 30
0.0
 40
12.5
100
AcDbArc
 50
319.9773355388639
 51
50.53623019307766
  0
ARC
  5
2D2
330
1F
100
AcDbEntity
  8
LAY-10
  6
CONTINUOUS
 62
     7
100
AcDbCircle
 10
2979.341261271719
 20
4169.01530114627
 30
0.0
 40
12.5
100
AcDbArc
 50
315.1057269718503
 51
45.66462162605079
  0
ARC
  5
2D3
330
1F
100
AcDbEntity
  8
LAY-10
  6
CONTINUOUS
 62
     7
100
AcDbCircle
 10
2944.19783486558
 20
4280.913018415629
 30
0.0
 40
12.5
100
AcDbArc
 50
349.2069869409466
 51
65.64380168391857
  0
ARC
  5
2D4
330
1F
100
AcDbEntity
  8
LAY-10
  6
CONTINUOUS
 62
     7
100
AcDbCircle
 10
2953.219198402743
 20
4266.504166971798
 30
0.0
 40
12.5
100
AcDbArc
 50
169.2069869409504
 51
250.0226644611271
  0
ARC
  5
2D5
330
1F
100
AcDbEntity
  8
LAY-10
  6
CONTINUOUS
 62
     7
100
AcDbCircle
 10
2960.984326495814
 20
4251.381244446764
 30
0.0
 40
12.5
100
AcDbArc
 50
164.3353783739418
 51
245.1510558941129
  0
ARC
  5
2D6
330
1F
100
AcDbEntity
  8
LAY-10
  6
CONTINUOUS
 62
     7
100
AcDbCircle
 10
2967.437116094324
 20
4235.653513955768
 30
0.0
 40
12.5
100
AcDbArc
 50
159.4637698069315
 51
240.279447327097
  0
ARC
  5
2D7
330
1F
100
AcDbEntity
  8
LAY-10
  6
CONTINUOUS
 62
     7
100
AcDbCircle
 10
2972.53094579342
 20
4219.43460835161
 30
0.0
 40
12.5
100
AcDbArc
 50
154.5921612399017
 51
235.407838760091
  0
ARC
  5
2D8
330
1F
100
AcDbEntity
  8
LAY-10
  6
CONTINUOUS
 62
     7
100
AcDbCircle
 10
2976.229012673531
 20
4202.841709227279
 30
0.0
 40
12.5
100
AcDbArc
 50
149.7205526729006
 51
230.5362301930617
  0
ARC
  5
2D9
330
1F
100
AcDbEntity
  8
LAY-10
  6
CONTINUOUS
 62
     7
100
AcDbCircle
 10
2978.504598201443
 20
4185.994700278949
 30
0.0
 40
12.5
100
AcDbArc
 50
144.8489441058872
 51
225.6646216260626
  0
ARC
  5
2DA
330
1F
100
AcDbEntity
  8
LAY-10
  6
CONTINUOUS
 62
     7
100
AcDbCircle
 10
2978.732956993678
 20
4152.026187987975
 30
0.0
 40
12.5
100
AcDbArc
 50
135.1057269718489
 51
203.1733068002653
  0
ARC
  5
2DB
330
1F
100
AcDbEntity
  8
LAY-10
  6
CONTINUOUS
 62
     7
100
AcDbCircle
 10
2979.341261271719
 20
4169.01530114627
 30
0.0
 40
12.5
100
AcDbArc
 50
139.9773355388729
 51
220.7930130590514
  0
CIRCLE
  5
2DC
330
1F
100
AcDbEntity
  8
LAY-10
  6
CONTINUOUS
 62
     7
100
AcDbCircle
 10
2807.828353122409
 20
4197.819938577997
 30
0.0
 40
4.0
  0
LINE
  5
2DD
330
1F
100
AcDbEntity
  8
LAY-10
  6
CONTINUOUS
 62
     7
100
AcDbLine
 10
2788.807976411636
 20
4185.735329780843
 30
0.0
 11
2799.277070816107
 21
4203.004103980254
 31
0.0
  0
CIRCLE
  5
2DE
330
1F
100
AcDbEntity
  8
LAY-10
  6
CONTINUOUS
 62
     7
100
AcDbCircle
 10
2819.086981584369
 20
4155.802165134422
 30
0.0
 40
4.0
  0
LINE
  5
2DF
330
1F
100
AcDbEntity
  8
LAY-10
  6
CONTINUOUS
 62
     7
100
AcDbLine
 10
2796.57254776471
 20
4156.75755499217
 30
0.0
 11
2814.273436573308
 21
4147.036905045499
 31
0.0
  0
LINE
  5
2E0
330
1F
100
AcDbEntity
  8
LAY-10
  6
CONTINUOUS
 62
     7
100
AcDbLine
 10
2790.102071637148
 20
4180.905700649398
 30
0.0
 11
2779.476887547968
 21
4178.058691153268
 31
0.0
  0
ARC
  5
2E1
330
1F
100
AcDbEntity
  8
LAY-10
  6
CONTINUOUS
 62
     7
100
AcDbCircle
 10
2782.065077998992
 20
4168.399432890377
 30
0.0
 40
10.0
100
AcDbArc
 50
104.9999999999945
 51
285.000000000016
  0
LINE
  5
2E2
330
1F
100
AcDbEntity
  8
LAY-10
  6
CONTINUOUS
 62
     7
100
AcDbLine
 10
2795.278452539198
 20
4161.587184123616
 30
0.0
 11
2784.65326845002
 21
4158.740174627486
 31
0.0
  0
LINE
  5
2E3
330
1F
100
AcDbEntity
  8
LAY-10
  6
CONTINUOUS
 62
     7
100
AcDbLine
 10
2813.011527855976
 20
4179.918899510912
 30
0.0
 11
2817.426239025746
 21
4195.012700400268
 31
0.0
  0
ARC
  5
2E4
330
1F
100
AcDbEntity
  8
LAY-10
  6
CONTINUOUS
 62
     7
100
AcDbCircle
 10
2807.828353122409
 20
4197.819938577997
 30
0.0
 40
10.0
100
AcDbArc
 50
343.6965908453564
 51
148.7739040380784
  0
LINE
  5
2E5
330
1F
100
AcDbEntity
  8
LAY-10
  6
CONTINUOUS
 62
     7
100
AcDbLine
 10
2814.625223042349
 20
4173.89650708744
 30
0.0
 11
2825.995375510417
 21
4163.032247662481
 31
0.0
  0
ARC
  5
2E6
330
1F
100
AcDbEntity
  8
LAY-10
  6
CONTINUOUS
 62
     7
100
AcDbCircle
 10
2818.770259397979
 20
4178.234556604274
 30
0.0
 40
6.000000000000002
100
AcDbArc
 50
163.696590845358
 51
226.3034091546212
  0
ARC
  5
2E7
330
1F
100
AcDbEntity
  8
LAY-10
  6
CONTINUOUS
 62
     7
100
AcDbCircle
 10
2819.086981584369
 20
4155.802165134422
 30
0.0
 40
10.0
100
AcDbArc
 50
241.2260959619157
 51
46.30340915466497
  0
LINE
  5
2E8
330
1F
100
AcDbEntity
  8
LAY-10
  6
CONTINUOUS
 62
     7
100
AcDbLine
 10
2796.57254776471
 20
4156.75755499217
 30
0.0
 11
2788.807976411636
 21
4185.735329780843
 31
0.0
  0
CIRCLE
  5
2E9
330
1F
100
AcDbEntity
  8
LAY-10
  6
CONTINUOUS
 62
     7
100
AcDbCircle
 10
2807.828353122409
 20
4197.819938577999
 30
0.0
 40
3.000000000000001
  0
CIRCLE
  5
2EA
330
1F
100
AcDbEntity
  8
LAY-10
  6
CONTINUOUS
 62
     7
100
AcDbCircle
 10
2819.086981584369
 20
4155.802165134422
 30
0.0
 40
3.000000000000001
  0
CIRCLE
  5
2EB
330
1F
100
AcDbEntity
  8
LAY-10
  6
CONTINUOUS
 62
     7
100
AcDbCircle
 10
2782.065077998992
 20
4168.39943289038
 30
0.0
 40
5.196152422706602
  0
LINE
  5
2EC
330
1F
100
AcDbEntity
  8
LAY-10
  6
CONTINUOUS
 62
     7
100
AcDbLine
 10
2787.860632956728
 20
4166.846518619763
 30
0.0
 11
2786.307718686113
 21
4172.642073577498
 31
0.0
  0
LINE
  5
2ED
330
1F
100
AcDbEntity
  8
LAY-10
  6
CONTINUOUS
 62
     7
100
AcDbLine
 10
2786.307718686113
 20
4172.642073577498
 30
0.0
 11
2780.512163728378
 21
4174.194987848113
 31
0.0
  0
LINE
  5
2EE
330
1F
100
AcDbEntity
  8
LAY-10
  6
CONTINUOUS
 62
     7
100
AcDbLine
 10
2780.512163728378
 20
4174.194987848113
 30
0.0
 11
2776.26952304126
 21
4169.952347160995
 31
0.0
  0
LINE
  5
2EF
330
1F
100
AcDbEntity
  8
LAY-10
  6
CONTINUOUS
 62
     7
100
AcDbLine
 10
2776.26952304126
 20
4169.952347160995
 30
0.0
 11
2777.822437311875
 21
4164.156792203259
 31
0.0
  0
LINE
  5
2F0
330
1F
100
AcDbEntity
  8
LAY-10
  6
CONTINUOUS
 62
     7
100
AcDbLine
 10
2777.822437311875
 20
4164.156792203259
 30
0.0
 11
2783.61799226961
 21
4162.603877932645
 31
0.0
  0
LINE
  5
2F1
330
1F
100
AcDbEntity
  8
LAY-10
  6
CONTINUOUS
 62
     7
100
AcDbLine
 10
2783.61799226961
 20
4162.603877932645
 30
0.0
 11
2787.860632956728
 21
4166.846518619763
 31
0.0
  0
CIRCLE
  5
2F2
330
1F
100
AcDbEntity
  8
LAY-10
  6
CONTINUOUS
 62
     7
100
AcDbCircle
 10
2782.065077998992
 20
4168.39943289038
 30
0.0
 40
3.000000000000001
  0
CIRCLE
  5
2F3
330
1F
100
AcDbEntity
  8
LAY-10
  6
CONTINUOUS
 62
     7
100
AcDbCircle
 10
2782.065077998992
 20
4168.39943289038
 30
0.0
 40
2.0
  0
CIRCLE
  5
2F4
330
1F
100
AcDbEntity
  8
LAY-10
  6
CONTINUOUS
 62
     7
100
AcDbCircle
 10
2947.973812012022
 20
4121.267043006321
 30
0.0
 40
4.0
  0
LINE
  5
2F5
330
1F
100
AcDbEntity
  8
LAY-10
  6
CONTINUOUS
 62
     7
100
AcDbLine
 10
2967.949578580541
 20
4110.837217983819
 30
0.0
 11
2947.759834229398
 21
4111.269332593003
 31
0.0
  0
CIRCLE
  5
2F6
330
1F
100
AcDbEntity
  8
LAY-10
  6
CONTINUOUS
 62
     7
100
AcDbCircle
 10
2978.732956993637
 20
4152.026187987934
 30
0.0
 40
4.0
  0
LINE
  5
2F7
330
1F
100
AcDbEntity
  8
LAY-10
  6
CONTINUOUS
 62
     7
100
AcDbLine
 10
2989.162782016139
 20
4132.050421419413
 30
0.0
 11
2988.730667406954
 21
4152.240165770558
 31
0.0
  0
LINE
  5
2F8
330
1F
100
AcDbEntity
  8
LAY-10
  6
CONTINUOUS
 62
     7
100
AcDbLine
 10
2971.485112486474
 20
4114.372751889751
 30
0.0
 11
2979.263287079527
 21
4106.594577296699
 31
0.0
  0
ARC
  5
2F9
330
1F
100
AcDbEntity
  8
LAY-10
  6
CONTINUOUS
 62
     7
100
AcDbCircle
 10
2986.334354891394
 20
4113.665645108565
 30
0.0
 40
10.0
100
AcDbArc
 50
224.9999999999982
 51
45.00000000000922
  0
LINE
  5
2FA
330
1F
100
AcDbEntity
  8
LAY-10
  6
CONTINUOUS
 62
     7
100
AcDbLine
 10
2985.627248110206
 20
4128.514887513481
 30
0.0
 11
2993.405422703259
 21
4120.736712920431
 31
0.0
  0
LINE
  5
2FB
330
1F
100
AcDbEntity
  8
LAY-10
  6
CONTINUOUS
 62
     7
100
AcDbLine
 10
2960.884979231472
 20
4134.706323531385
 30
0.0
 11
2945.606008636741
 21
4130.9826751101
 31
0.0
  0
ARC
  5
2FC
330
1F
100
AcDbEntity
  8
LAY-10
  6
CONTINUOUS
 62
     7
100
AcDbCircle
 10
2947.973812012022
 20
4121.267043006321
 30
0.0
 40
10.0
100
AcDbArc
 50
103.6965908453565
 51
268.7739040380789
  0
LINE
  5
2FD
330
1F
100
AcDbEntity
  8
LAY-10
  6
CONTINUOUS
 62
     7
100
AcDbLine
 10
2965.293676468572
 20
4139.115020768484
 30
0.0
 11
2969.017324889857
 21
4154.393991363214
 31
0.0
  0
ARC
  5
2FE
330
1F
100
AcDbEntity
  8
LAY-10
  6
CONTINUOUS
 62
     7
100
AcDbCircle
 10
2959.464297206303
 20
4140.535702793653
 30
0.0
 40
6.000000000000002
100
AcDbArc
 50
283.6965908453523
 51
346.3034091546257
  0
ARC
  5
2FF
330
1F
100
AcDbEntity
  8
LAY-10
  6
CONTINUOUS
 62
     7
100
AcDbCircle
 10
2978.732956993637
 20
4152.026187987934
 30
0.0
 40
10.0
100
AcDbArc
 50
1.226095961915988
 51
166.3034091546542
  0
LINE
  5
300
330
1F
100
AcDbEntity
  8
LAY-10
  6
CONTINUOUS
 62
     7
100
AcDbLine
 10
2989.162782016139
 20
4132.050421419413
 30
0.0
 11
2967.949578580541
 21
4110.837217983819
 31
0.0
  0
CIRCLE
  5
301
330
1F
100
AcDbEntity
  8
LAY-10
  6
CONTINUOUS
 62
     7
100
AcDbCircle
 10
2947.973812012021
 20
4121.267043006319
 30
0.0
 40
3.000000000000001
  0
CIRCLE
  5
302
330
1F
100
AcDbEntity
  8
LAY-10
  6
CONTINUOUS
 62
     7
100
AcDbCircle
 10
2978.732956993637
 20
4152.026187987934
 30
0.0
 40
3.000000000000001
  0
CIRCLE
  5
303
330
1F
100
AcDbEntity
  8
LAY-10
  6
CONTINUOUS
 62
     7
100
AcDbCircle
 10
2986.334354891391
 20
4113.665645108564
 30
0.0
 40
5.196152422706602
  0
LINE
  5
304
330
1F
100
AcDbEntity
  8
LAY-10
  6
CONTINUOUS
 62
     7
100
AcDbLine
 10
2984.781440620778
 20
4119.461200066299
 30
0.0
 11
2980.538799933658
 21
4115.21855937918
 31
0.0
  0
LINE
  5
305
330
1F
100
AcDbEntity
  8
LAY-10
  6
CONTINUOUS
 62
     7
100
AcDbLine
 10
2980.538799933658
 20
4115.21855937918
 30
0.0
 11
2982.091714204273
 21
4109.423004421445
 31
0.0
  0
LINE
  5
306
330
1F
100
AcDbEntity
  8
LAY-10
  6
CONTINUOUS
 62
     7
100
AcDbLine
 10
2982.091714204273
 20
4109.423004421445
 30
0.0
 11
2987.887269162007
 21
4107.87009015083
 31
0.0
  0
LINE
  5
307
330
1F
100
AcDbEntity
  8
LAY-10
  6
CONTINUOUS
 62
     7
100
AcDbLine
 10
2987.887269162007
 20
4107.87009015083
 30
0.0
 11
2992.129909849126
 21
4112.11273083795
 31
0.0
  0
LINE
  5
308
330
1F
100
AcDbEntity
  8
LAY-10
  6
CONTINUOUS
 62
     7
100
AcDbLine
 10
2992.129909849126
 20
4112.11273083795
 30
0.0
 11
2990.576995578511
 21
4117.908285795685
 31
0.0
  0
LINE
  5
309
330
1F
100
AcDbEntity
  8
LAY-10
  6
CONTINUOUS
 62
     7
100
AcDbLine
 10
2990.576995578511
 20
4117.908285795685
 30
0.0
 11
2984.781440620778
 21
4119.461200066299
 31
0.0
  0
CIRCLE
  5
30A
330
1F
100
AcDbEntity
  8
LAY-10
  6
CONTINUOUS
 62
     7
100
AcDbCircle
 10
2986.334354891391
 20
4113.665645108564
 30
0.0
 40
3.000000000000001
  0
CIRCLE
  5
30B
330
1F
100
AcDbEntity
  8
LAY-10
  6
CONTINUOUS
 62
     7
100
AcDbCircle
 10
2986.334354891391
 20
4113.665645108564
 30
0.0
 40
2.0
  0
CIRCLE
  5
30C
330
1F
100
AcDbEntity
  8
LAY-10
  6
CONTINUOUS
 62
     7
100
AcDbCircle
 10
2944.19783486558
 20
4280.91301841563
 30
0.0
 40
4.0
  0
LINE
  5
30D
330
1F
100
AcDbEntity
  8
LAY-10
  6
CONTINUOUS
 62
     7
100
AcDbLine
 10
2943.242445007835
 20
4303.427452235286
 30
0.0
 11
2952.963094954506
 21
4285.726563426691
 31
0.0
  0
CIRCLE
  5
30E
330
1F
100
AcDbEntity
  8
LAY-10
  6
CONTINUOUS
 62
     7
100
AcDbCircle
 10
2902.180061422007
 20
4292.17164687759
 30
0.0
 40
4.0
  0
LINE
  5
30F
330
1F
100
AcDbEntity
  8
LAY-10
  6
CONTINUOUS
 62
     7
100
AcDbLine
 10
2914.264670219164
 20
4311.192023588365
 30
0.0
 11
2896.995896019752
 21
4300.722929183891
 31
0.0
  0
LINE
  5
310
330
1F
100
AcDbEntity
  8
LAY-10
  6
CONTINUOUS
 62
     7
100
AcDbLine
 10
2938.41281587639
 20
4304.7215474608
 30
0.0
 11
2941.259825372516
 21
4315.346731549981
 31
0.0
  0
ARC
  5
311
330
1F
100
AcDbEntity
  8
LAY-10
  6
CONTINUOUS
 62
     7
100
AcDbCircle
 10
2931.600567109625
 20
4317.934922001006
 30
0.0
 40
10.0
100
AcDbArc
 50
344.9999999999998
 51
165.0000000000105
  0
LINE
  5
312
330
1F
100
AcDbEntity
  8
LAY-10
  6
CONTINUOUS
 62
     7
100
AcDbLine
 10
2919.094299350608
 20
4309.897928362851
 30
0.0
 11
2921.941308846735
 21
4320.523112452031
 31
0.0
  0
LINE
  5
313
330
1F
100
AcDbEntity
  8
LAY-10
  6
CONTINUOUS
 62
     7
100
AcDbLine
 10
2926.103492912564
 20
4285.37477695765
 30
0.0
 11
2936.967752337525
 21
4274.004624489581
 31
0.0
  0
ARC
  5
314
330
1F
100
AcDbEntity
  8
LAY-10
  6
CONTINUOUS
 62
     7
100
AcDbCircle
 10
2944.19783486558
 20
4280.91301841563
 30
0.0
 40
10.0
100
AcDbArc
 50
223.6965908453572
 51
28.77390403807732
  0
LINE
  5
315
330
1F
100
AcDbEntity
  8
LAY-10
  6
CONTINUOUS
 62
     7
100
AcDbLine
 10
2920.081100489092
 20
4286.988472144024
 30
0.0
 11
2904.987299599739
 21
4282.573760974254
 31
0.0
  0
ARC
  5
316
330
1F
100
AcDbEntity
  8
LAY-10
  6
CONTINUOUS
 62
     7
100
AcDbCircle
 10
2921.765443395731
 20
4281.22974060202
 30
0.0
 40
6.000000000000002
100
AcDbArc
 50
43.69659084535718
 51
106.3034091546265
  0
ARC
  5
317
330
1F
100
AcDbEntity
  8
LAY-10
  6
CONTINUOUS
 62
     7
100
AcDbCircle
 10
2902.180061422007
 20
4292.17164687759
 30
0.0
 40
10.0
100
AcDbArc
 50
121.2260959619064
 51
286.3034091546577
  0
LINE
  5
318
330
1F
100
AcDbEntity
  8
LAY-10
  6
CONTINUOUS
 62
     7
100
AcDbLine
 10
2914.264670219164
 20
4311.192023588365
 30
0.0
 11
2943.242445007835
 21
4303.427452235286
 31
0.0
  0
CIRCLE
  5
319
330
1F
100
AcDbEntity
  8
LAY-10
  6
CONTINUOUS
 62
     7
100
AcDbCircle
 10
2944.197834865583
 20
4280.91301841563
 30
0.0
 40
3.000000000000001
  0
CIRCLE
  5
31A
330
1F
100
AcDbEntity
  8
LAY-10
  6
CONTINUOUS
 62
     7
100
AcDbCircle
 10
2902.180061422007
 20
4292.17164687759
 30
0.0
 40
3.000000000000001
  0
CIRCLE
  5
31B
330
1F
100
AcDbEntity
  8
LAY-10
  6
CONTINUOUS
 62
     7
100
AcDbCircle
 10
2931.600567109629
 20
4317.934922001005
 30
0.0
 40
5.196152422706602
  0
LINE
  5
31C
330
1F
100
AcDbEntity
  8
LAY-10
  6
CONTINUOUS
 62
     7
100
AcDbLine
 10
2927.357926422507
 20
4313.692281313886
 30
0.0
 11
2933.153481380242
 21
4312.13936704327
 31
0.0
  0
LINE
  5
31D
330
1F
100
AcDbEntity
  8
LAY-10
  6
CONTINUOUS
 62
     7
100
AcDbLine
 10
2933.153481380242
 20
4312.13936704327
 30
0.0
 11
2937.396122067361
 21
4316.382007730391
 31
0.0
  0
LINE
  5
31E
330
1F
100
AcDbEntity
  8
LAY-10
  6
CONTINUOUS
 62
     7
100
AcDbLine
 10
2937.396122067361
 20
4316.382007730391
 30
0.0
 11
2935.843207796746
 21
4322.177562688124
 31
0.0
  0
LINE
  5
31F
330
1F
100
AcDbEntity
  8
LAY-10
  6
CONTINUOUS
 62
     7
100
AcDbLine
 10
2935.843207796746
 20
4322.177562688124
 30
0.0
 11
2930.047652839011
 21
4323.730476958739
 31
0.0
  0
LINE
  5
320
330
1F
100
AcDbEntity
  8
LAY-10
  6
CONTINUOUS
 62
     7
100
AcDbLine
 10
2930.047652839011
 20
4323.730476958739
 30
0.0
 11
2925.805012151892
 21
4319.48783627162
 31
0.0
  0
LINE
  5
321
330
1F
100
AcDbEntity
  8
LAY-10
  6
CONTINUOUS
 62
     7
100
AcDbLine
 10
2925.805012151892
 20
4319.48783627162
 30
0.0
 11
2927.357926422507
 21
4313.692281313886
 31
0.0
  0
CIRCLE
  5
322
330
1F
100
AcDbEntity
  8
LAY-10
  6
CONTINUOUS
 62
     7
100
AcDbCircle
 10
2931.600567109629
 20
4317.934922001005
 30
0.0
 40
3.000000000000001
  0
CIRCLE
  5
323
330
1F
100
AcDbEntity
  8
LAY-10
  6
CONTINUOUS
 62
     7
100
AcDbCircle
 10
2931.600567109629
 20
4317.934922001005
 30
0.0
 40
2.0
  0
ARC
  5
324
330
1F
100
AcDbEntity
  8
LAY-10
  6
CONTINUOUS
 62
     7
100
AcDbCircle
 10
2807.828353122395
 20
4197.819938578048
 30
0.0
 40
12.5
100
AcDbArc
 50
306.8266931997191
 51
14.89427302814315
  0
ARC
  5
325
330
1F
100
AcDbEntity
  8
LAY-10
  6
CONTINUOUS
 62
     7
100
AcDbCircle
 10
2819.086981584369
 20
4155.802165134418
 30
0.0
 40
12.5
100
AcDbArc
 50
204.3561983160413
 51
280.7930130590501
  0
ARC
  5
326
330
1F
100
AcDbEntity
  8
LAY-10
  6
CONTINUOUS
 62
     7
100
AcDbCircle
 10
2947.973812012021
 20
4121.267043006321
 30
0.0
 40
12.5
100
AcDbArc
 50
66.82669319949851
 51
134.8942730281423
  0
ARC
  5
327
330
1F
100
AcDbEntity
  8
LAY-10
  6
CONTINUOUS
 62
     7
100
AcDbCircle
 10
2978.732956993678
 20
4152.026187987975
 30
0.0
 40
12.5
100
AcDbArc
 50
324.3561983157617
 51
40.7930130590514
  0
ARC
  5
328
330
1F
100
AcDbEntity
  8
LAY-10
  6
CONTINUOUS
 62
     7
100
AcDbCircle
 10
2944.19783486558
 20
4280.913018415629
 30
0.0
 40
12.5
100
AcDbArc
 50
186.8266931994925
 51
254.8942730281496
  0
ARC
  5
329
330
1F
100
AcDbEntity
  8
LAY-10
  6
CONTINUOUS
 62
     7
100
AcDbCircle
 10
2902.180061421951
 20
4292.171646877604
 30
0.0
 40
12.5
100
AcDbArc
 50
84.35619831576062
 51
160.793013059049
  0
ARC
  5
32A
330
1F
100
AcDbEntity
  8
LAY-10
  6
CONTINUOUS
 62
     7
100
AcDbCircle
 10
2200.0
 20
686.1666666666912
 30
0.0
 40
90.83333333333529
100
AcDbArc
 50
56.60151153201354
 51
123.3984884679864
  0
ARC
  5
32B
330
1F
100
AcDbEntity
  8
LAY-10
  6
CONTINUOUS
 62
     7
100
AcDbCircle
 10
2300.0
 20
837.8333333333632
 30
0.0
 40
90.83333333333529
100
AcDbArc
 50
236.6015115320134
 51
303.3984884679865
  0
ARC
  5
32C
330
1F
100
AcDbEntity
  8
LAY-10
  6
CONTINUOUS
 62
     7
100
AcDbCircle
 10
3224.299999999999
 20
1266.3
 30
0.0
 40
50.0
100
AcDbArc
 50
180.0
 51
270.0
  0
ARC
  5
32D
330
1F
100
AcDbEntity
  8
LAY-10
  6
CONTINUOUS
 62
     7
100
AcDbCircle
 10
3224.299999999999
 20
1266.3
 30
0.0
 40
98.6
100
AcDbArc
 50
180.0
 51
270.0
  0
LINE
  5
32E
330
1F
100
AcDbEntity
  8
LAY-10
  6
CONTINUOUS
 62
     7
100
AcDbLine
 10
3224.299999999999
 20
1167.7
 30
0.0
 11
3475.700000000001
 21
1167.7
 31
0.0
  0
LINE
  5
32F
330
1F
100
AcDbEntity
  8
LAY-10
  6
CONTINUOUS
 62
     7
100
AcDbLine
 10
3224.299999999999
 20
1216.3
 30
0.0
 11
3475.700000000001
 21
1216.3
 31
0.0
  0
LINE
  5
330
330
1F
100
AcDbEntity
  8
LAY-10
  6
CONTINUOUS
 62
     7
100
AcDbLine
 10
3525.700000000001
 20
1117.7
 30
0.0
 11
3525.700000000001
 21
792.0000000000016
 31
0.0
  0
LINE
  5
331
330
1F
100
AcDbEntity
  8
LAY-10
  6
CONTINUOUS
 62
     7
100
AcDbLine
 10
3574.300000000001
 20
1117.7
 30
0.0
 11
3574.300000000001
 21
792.0000000000016
 31
0.0
  0
LINE
  5
332
330
1F
100
AcDbEntity
  8
LAY-10
  6
CONTINUOUS
 62
     7
100
AcDbLine
 10
3574.300000000001
 20
792.0000000000016
 30
0.0
 11
3525.700000000001
 21
792.0000000000016
 31
0.0
  0
ARC
  5
333
330
1F
100
AcDbEntity
  8
LAY-10
  6
CONTINUOUS
 62
     7
100
AcDbCircle
 10
3475.700000000001
 20
1117.7
 30
0.0
 40
50.0
100
AcDbArc
 50
0.0
 51
90.00000000000001
  0
ARC
  5
334
330
1F
100
AcDbEntity
  8
LAY-10
  6
CONTINUOUS
 62
     7
100
AcDbCircle
 10
3475.700000000001
 20
1117.7
 30
0.0
 40
98.6
100
AcDbArc
 50
0.0
 51
90.00000000000001
  0
LINE
  5
335
330
1F
100
AcDbEntity
  8
LAY-10
  6
CONTINUOUS
 62
     7
100
AcDbLine
 10
3485.000000000001
 20
888.8000000000011
 30
0.0
 11
3485.000000000001
 21
895.200000000043
 31
0.0
  0
LINE
  5
336
330
1F
100
AcDbEntity
  8
LAY-10
  6
CONTINUOUS
 62
     7
100
AcDbLine
 10
3518.9
 20
896.0000000000014
 30
0.0
 11
3485.800000000001
 21
896.0000000000014
 31
0.0
  0
LINE
  5
337
330
1F
100
AcDbEntity
  8
LAY-10
  6
CONTINUOUS
 62
     7
100
AcDbLine
 10
3525.700000000001
 20
888.0000000000018
 30
0.0
 11
3485.800000000001
 21
888.0000000000018
 31
0.0
  0
LINE
  5
338
330
1F
100
AcDbEntity
  8
LAY-10
  6
CONTINUOUS
 62
     7
100
AcDbLine
 10
3485.800000000001
 20
896.0000000000014
 30
0.0
 11
3484.99999999998
 21
895.2000000000226
 31
0.0
  0
LINE
  5
339
330
1F
100
AcDbEntity
  8
LAY-10
  6
CONTINUOUS
 62
     7
100
AcDbLine
 10
3485.800000000001
 20
888.0000000000018
 30
0.0
 11
3485.00000000002
 21
888.8000000000204
 31
0.0
  0
LINE
  5
33A
330
1F
100
AcDbEntity
  8
LAY-10
  6
CONTINUOUS
 62
     7
100
AcDbLine
 10
3614.200000000001
 20
896.0000000000014
 30
0.0
 11
3615.000000000022
 21
895.2000000000226
 31
0.0
  0
LINE
  5
33B
330
1F
100
AcDbEntity
  8
LAY-10
  6
CONTINUOUS
 62
     7
100
AcDbLine
 10
3614.200000000001
 20
888.0000000000018
 30
0.0
 11
3614.999999999981
 21
888.8000000000204
 31
0.0
  0
LINE
  5
33C
330
1F
100
AcDbEntity
  8
LAY-10
  6
CONTINUOUS
 62
     7
100
AcDbLine
 10
3581.100000000001
 20
896.0000000000014
 30
0.0
 11
3614.200000000001
 21
896.0000000000014
 31
0.0
  0
LINE
  5
33D
330
1F
100
AcDbEntity
  8
LAY-10
  6
CONTINUOUS
 62
     7
100
AcDbLine
 10
3574.300000000001
 20
888.0000000000018
 30
0.0
 11
3614.200000000001
 21
888.0000000000018
 31
0.0
  0
LINE
  5
33E
330
1F
100
AcDbEntity
  8
LAY-10
  6
CONTINUOUS
 62
     7
100
AcDbLine
 10
3615.0
 20
888.8000000000011
 30
0.0
 11
3615.0
 21
895.200000000043
 31
0.0
  0
LINE
  5
33F
330
1F
100
AcDbEntity
  8
LAY-10
  6
CONTINUOUS
 62
     7
100
AcDbLine
 10
3485.800000000001
 20
1096.000000000001
 30
0.0
 11
3484.99999999998
 21
1095.200000000023
 31
0.0
  0
LINE
  5
340
330
1F
100
AcDbEntity
  8
LAY-10
  6
CONTINUOUS
 62
     7
100
AcDbLine
 10
3485.800000000001
 20
1088.000000000001
 30
0.0
 11
3485.00000000002
 21
1088.800000000021
 31
0.0
  0
LINE
  5
341
330
1F
100
AcDbEntity
  8
LAY-10
  6
CONTINUOUS
 62
     7
100
AcDbLine
 10
3518.9
 20
1096.000000000001
 30
0.0
 11
3485.800000000001
 21
1096.000000000001
 31
0.0
  0
LINE
  5
342
330
1F
100
AcDbEntity
  8
LAY-10
  6
CONTINUOUS
 62
     7
100
AcDbLine
 10
3525.700000000001
 20
1088.000000000001
 30
0.0
 11
3485.800000000001
 21
1088.000000000001
 31
0.0
  0
LINE
  5
343
330
1F
100
AcDbEntity
  8
LAY-10
  6
CONTINUOUS
 62
     7
100
AcDbLine
 10
3485.000000000001
 20
1088.800000000001
 30
0.0
 11
3485.000000000001
 21
1095.200000000043
 31
0.0
  0
LINE
  5
344
330
1F
100
AcDbEntity
  8
LAY-10
  6
CONTINUOUS
 62
     7
100
AcDbLine
 10
3614.200000000001
 20
1096.000000000001
 30
0.0
 11
3615.000000000022
 21
1095.200000000023
 31
0.0
  0
LINE
  5
345
330
1F
100
AcDbEntity
  8
LAY-10
  6
CONTINUOUS
 62
     7
100
AcDbLine
 10
3614.200000000001
 20
1088.000000000001
 30
0.0
 11
3614.999999999981
 21
1088.800000000021
 31
0.0
  0
LINE
  5
346
330
1F
100
AcDbEntity
  8
LAY-10
  6
CONTINUOUS
 62
     7
100
AcDbLine
 10
3581.100000000001
 20
1096.000000000001
 30
0.0
 11
3614.200000000001
 21
1096.000000000001
 31
0.0
  0
LINE
  5
347
330
1F
100
AcDbEntity
  8
LAY-10
  6
CONTINUOUS
 62
     7
100
AcDbLine
 10
3574.300000000001
 20
1088.000000000001
 30
0.0
 11
3614.200000000001
 21
1088.000000000001
 31
0.0
  0
LINE
  5
348
330
1F
100
AcDbEntity
  8
LAY-10
  6
CONTINUOUS
 62
     7
100
AcDbLine
 10
3615.0
 20
1088.800000000001
 30
0.0
 11
3615.0
 21
1095.200000000043
 31
0.0
  0
LINE
  5
349
330
1F
100
AcDbEntity
  8
LAY-10
  6
CONTINUOUS
 62
     7
100
AcDbLine
 10
3620.0
 20
1141.999999999998
 30
0.0
 11
3620.0
 21
491.9999999999982
 31
0.0
  0
LINE
  5
34A
330
1F
100
AcDbEntity
  8
LAY-10
  6
CONTINUOUS
 62
     7
100
AcDbLine
 10
3480.0
 20
1141.999999999998
 30
0.0
 11
3480.0
 21
741.9999999999987
 31
0.0
  0
LINE
  5
34B
330
1F
100
AcDbEntity
  8
LAY-10
  6
CONTINUOUS
 62
     7
100
AcDbLine
 10
3547.000000000001
 20
656.9999999999976
 30
0.0
 11
3553.000000000001
 21
656.9999999999976
 31
0.0
  0
LINE
  5
34C
330
1F
100
AcDbEntity
  8
LAY-10
  6
CONTINUOUS
 62
     7
100
AcDbLine
 10
3547.000000000001
 20
631.9999999999982
 30
0.0
 11
3553.000000000001
 21
631.9999999999982
 31
0.0
  0
LINE
  5
34D
330
1F
100
AcDbEntity
  8
LAY-10
  6
CONTINUOUS
 62
     7
100
AcDbLine
 10
3610.0
 20
491.9999999999987
 30
0.0
 11
3480.0
 21
741.9999999999987
 31
0.0
  0
LINE
  5
34E
330
1F
100
AcDbEntity
  8
LAY-10
  6
CONTINUOUS
 62
     7
100
AcDbLine
 10
3620.0
 20
491.9999999999982
 30
0.0
 11
3610.0
 21
491.9999999999982
 31
0.0
  0
LINE
  5
34F
330
1F
100
AcDbEntity
  8
LAY-10
  6
CONTINUOUS
 62
     7
100
AcDbLine
 10
3553.000000000001
 20
792.0000000000022
 30
0.0
 11
3553.000000000001
 21
631.9999999999982
 31
0.0
  0
LINE
  5
350
330
1F
100
AcDbEntity
  8
LAY-10
  6
CONTINUOUS
 62
     7
100
AcDbLine
 10
3547.000000000001
 20
792.0000000000022
 30
0.0
 11
3547.000000000001
 21
631.9999999999982
 31
0.0
  0
LINE
  5
351
330
1F
100
AcDbEntity
  8
LAY-10
  6
CONTINUOUS
 62
     7
100
AcDbLine
 10
3620.0
 20
1141.999999999998
 30
0.0
 11
3571.258725399622
 21
1141.999999999998
 31
0.0
  0
LINE
  5
352
330
1F
100
AcDbEntity
  8
LAY-10
  6
CONTINUOUS
 62
     7
100
AcDbLine
 10
3519.397940454902
 20
1141.999999999998
 30
0.0
 11
3480.0
 21
1141.999999999998
 31
0.0
  0
LINE
  5
353
330
1F
100
AcDbEntity
  8
LAY-10
  6
CONTINUOUS
 62
     7
100
AcDbLine
 10
3614.200000000001
 20
896.0000000000014
 30
0.0
 11
3614.200000000001
 21
888.0000000000018
 31
0.0
  0
LINE
  5
354
330
1F
100
AcDbEntity
  8
LAY-10
  6
CONTINUOUS
 62
     7
100
AcDbLine
 10
3485.800000000001
 20
896.0000000000014
 30
0.0
 11
3485.800000000001
 21
888.0000000000018
 31
0.0
  0
LINE
  5
355
330
1F
100
AcDbEntity
  8
LAY-10
  6
CONTINUOUS
 62
     7
100
AcDbLine
 10
3485.800000000001
 20
1096.000000000001
 30
0.0
 11
3485.800000000001
 21
1088.000000000001
 31
0.0
  0
LINE
  5
356
330
1F
100
AcDbEntity
  8
LAY-10
  6
CONTINUOUS
 62
     7
100
AcDbLine
 10
3614.200000000001
 20
1096.000000000001
 30
0.0
 11
3614.200000000001
 21
1088.000000000001
 31
0.0
  0
LINE
  5
357
330
1F
100
AcDbEntity
  8
LAY-10
  6
CONTINUOUS
 62
     7
100
AcDbLine
 10
3615.0
 20
1095.200000000001
 30
0.0
 11
3581.100000000001
 21
1095.200000000001
 31
0.0
  0
LINE
  5
358
330
1F
100
AcDbEntity
  8
LAY-10
  6
CONTINUOUS
 62
     7
100
AcDbLine
 10
3615.0
 20
1088.800000000001
 30
0.0
 11
3581.100000000001
 21
1088.800000000001
 31
0.0
  0
LINE
  5
359
330
1F
100
AcDbEntity
  8
LAY-10
  6
CONTINUOUS
 62
     7
100
AcDbLine
 10
3485.000000000001
 20
1095.200000000001
 30
0.0
 11
3518.9
 21
1095.200000000001
 31
0.0
  0
LINE
  5
35A
330
1F
100
AcDbEntity
  8
LAY-10
  6
CONTINUOUS
 62
     7
100
AcDbLine
 10
3485.000000000001
 20
1088.800000000001
 30
0.0
 11
3518.9
 21
1088.800000000001
 31
0.0
  0
LINE
  5
35B
330
1F
100
AcDbEntity
  8
LAY-10
  6
CONTINUOUS
 62
     7
100
AcDbLine
 10
3485.000000000001
 20
895.2000000000021
 30
0.0
 11
3518.9
 21
895.2000000000021
 31
0.0
  0
LINE
  5
35C
330
1F
100
AcDbEntity
  8
LAY-10
  6
CONTINUOUS
 62
     7
100
AcDbLine
 10
3485.000000000001
 20
888.8000000000011
 30
0.0
 11
3518.9
 21
888.8000000000011
 31
0.0
  0
LINE
  5
35D
330
1F
100
AcDbEntity
  8
LAY-10
  6
CONTINUOUS
 62
     7
100
AcDbLine
 10
3615.0
 20
895.2000000000021
 30
0.0
 11
3581.100000000001
 21
895.2000000000021
 31
0.0
  0
LINE
  5
35E
330
1F
100
AcDbEntity
  8
LAY-10
  6
CONTINUOUS
 62
     7
100
AcDbLine
 10
3615.0
 20
888.8000000000011
 30
0.0
 11
3581.100000000001
 21
888.8000000000011
 31
0.0
  0
ARC
  5
35F
330
1F
100
AcDbEntity
  8
LAY-10
  6
CONTINUOUS
 62
     7
100
AcDbCircle
 10
3600.0
 20
686.1666666666912
 30
0.0
 40
90.83333333333529
100
AcDbArc
 50
56.60151153201354
 51
123.3984884679864
  0
ARC
  5
360
330
1F
100
AcDbEntity
  8
LAY-10
  6
CONTINUOUS
 62
     7
100
AcDbCircle
 10
3500.0
 20
837.8333333333632
 30
0.0
 40
90.83333333333529
100
AcDbArc
 50
236.6015115320134
 51
303.3984884679865
  0
LINE
  5
361
330
1F
100
AcDbEntity
  8
LAY-10
  6
CONTINUOUS
 62
     7
100
AcDbLine
 10
3616.5
 20
1141.999999999998
 30
0.0
 11
3616.5
 21
775.4888052687471
 31
0.0
  0
LINE
  5
362
330
1F
100
AcDbEntity
  8
LAY-10
  6
CONTINUOUS
 62
     7
100
AcDbLine
 10
3483.499999999999
 20
748.5111947313072
 30
0.0
 11
3483.499999999999
 21
1141.999999999998
 31
0.0
  0
CIRCLE
  5
363
330
1F
100
AcDbEntity
  8
LAY-10
  6
PHANTOM
 62
     7
100
AcDbCircle
 10
2900.0
 20
4200.0
 30
0.0
 40
650.0000000000047
  0
LINE
  5
364
330
1F
100
AcDbEntity
  8
LAY-10
  6
CENTER
 62
     2
100
AcDbLine
 10
3629.0
 20
4200.0
 30
0.0
 11
2173.0
 21
4200.0
 31
0.0
  0
LINE
  5
365
330
1F
100
AcDbEntity
  8
LAY-10
  6
CENTER
 62
     2
100
AcDbLine
 10
2900.0
 20
3498.0
 30
0.0
 11
2900.0
 21
4880.0
 31
0.0
  0
LINE
  5
366
330
1F
100
AcDbEntity
  8
LAY-10
  6
CENTER
 62
     2
100
AcDbLine
 10
2575.7
 20
1192.0
 30
0.0
 11
2324.299999999999
 21
1192.0
 31
0.0
  0
LINE
  5
367
330
1F
100
AcDbEntity
  8
LAY-10
  6
CENTER
 62
     2
100
AcDbLine
 10
2250.0
 20
1117.7
 30
0.0
 11
2250.0
 21
466.8439962027429
 31
0.0
  0
LINE
  5
368
330
1F
100
AcDbEntity
  8
LAY-10
  6
CENTER
 62
     2
100
AcDbLine
 10
2183.5
 20
892.000000000001
 30
0.0
 11
2316.500000000001
 21
892.000000000001
 31
0.0
  0
LINE
  5
369
330
1F
100
AcDbEntity
  8
LAY-10
  6
CENTER
 62
     2
100
AcDbLine
 10
2183.5
 20
1092.000000000002
 30
0.0
 11
2316.500000000001
 21
1092.000000000002
 31
0.0
  0
LINE
  5
36A
330
1F
100
AcDbEntity
  8
LAY-10
  6
CENTER
 62
     2
100
AcDbLine
 10
2650.0
 20
1266.3
 30
0.0
 11
2650.0
 21
2822.843996202742
 31
0.0
  0
LINE
  5
36B
330
1F
100
AcDbEntity
  8
LAY-10
  6
CENTER
 62
     2
100
AcDbLine
 10
2900.0
 20
2822.843996202743
 30
0.0
 11
2900.0
 21
466.8439962027423
 31
0.0
  0
LINE
  5
36C
330
1F
100
AcDbEntity
  8
LAY-10
  6
CENTER
 62
     2
100
AcDbLine
 10
3150.0
 20
1266.3
 30
0.0
 11
3150.0
 21
2822.843996202742
 31
0.0
  0
LINE
  5
36D
330
1F
100
AcDbEntity
  8
LAY-10
  6
CENTER
 62
     2
100
AcDbLine
 10
2608.999999999996
 20
2691.999999999999
 30
0.0
 11
3188.999999999997
 21
2691.999999999999
 31
0.0
  0
LINE
  5
36E
330
1F
100
AcDbEntity
  8
LAY-10
  6
CENTER
 62
     2
100
AcDbLine
 10
2249.999999999995
 20
4096.193894362489
 30
0.0
 11
2249.999999999995
 21
4307.193894362489
 31
0.0
  0
LINE
  5
36F
330
1F
100
AcDbEntity
  8
LAY-10
  6
CENTER
 62
     2
100
AcDbLine
 10
3550.000000000005
 20
4096.193894362489
 30
0.0
 11
3550.000000000005
 21
4307.193894362489
 31
0.0
  0
LINE
  5
370
330
1F
100
AcDbEntity
  8
LAY-10
  6
CENTER
 62
     2
100
AcDbLine
 10
2694.999999999871
 20
4178.500000000003
 30
0.0
 11
2694.999999999873
 21
4215.800000000003
 31
0.0
  0
LINE
  5
371
330
1F
100
AcDbEntity
  8
LAY-10
  6
CENTER
 62
     2
100
AcDbLine
 10
3105.000000000127
 20
4221.499999999998
 30
0.0
 11
3105.000000000126
 21
4184.199999999998
 31
0.0
  0
LINE
  5
372
330
1F
100
AcDbEntity
  8
LAY-10
  6
CENTER
 62
     2
100
AcDbLine
 10
3224.299999999999
 20
1192.0
 30
0.0
 11
3475.700000000001
 21
1192.0
 31
0.0
  0
LINE
  5
373
330
1F
100
AcDbEntity
  8
LAY-10
  6
CENTER
 62
     2
100
AcDbLine
 10
3550.0
 20
1117.7
 30
0.0
 11
3550.0
 21
466.8439962027429
 31
0.0
  0
LINE
  5
374
330
1F
100
AcDbEntity
  8
LAY-10
  6
CENTER
 62
     2
100
AcDbLine
 10
3616.5
 20
892.000000000001
 30
0.0
 11
3483.499999999999
 21
892.000000000001
 31
0.0
  0
LINE
  5
375
330
1F
100
AcDbEntity
  8
LAY-10
  6
CENTER
 62
     2
100
AcDbLine
 10
3616.5
 20
1092.000000000002
 30
0.0
 11
3483.499999999999
 21
1092.000000000002
 31
0.0
  0
CIRCLE
  5
376
330
1F
100
AcDbEntity
  8
LAY-10
  6
CENTER
 62
     2
100
AcDbCircle
 10
2900.0
 20
4200.0
 30
0.0
 40
250.0
  0
ARC
  5
377
330
1F
100
AcDbEntity
  8
LAY-10
  6
CENTER
 62
     2
100
AcDbCircle
 10
3224.299999999999
 20
1266.3
 30
0.0
 40
74.3
100
AcDbArc
 50
180.0
 51
270.0
  0
ARC
  5
378
330
1F
100
AcDbEntity
  8
LAY-10
  6
CENTER
 62
     2
100
AcDbCircle
 10
3475.700000000001
 20
1117.7
 30
0.0
 40
74.3
100
AcDbArc
 50
0.0
 51
90.00000000000001
  0
ARC
  5
379
330
1F
100
AcDbEntity
  8
LAY-10
  6
CENTER
 62
     2
100
AcDbCircle
 10
2575.7
 20
1266.3
 30
0.0
 40
74.3
100
AcDbArc
 50
270.0
 51
0.0
  0
ARC
  5
37A
330
1F
100
AcDbEntity
  8
LAY-10
  6
CENTER
 62
     2
100
AcDbCircle
 10
2324.299999999999
 20
1117.7
 30
0.0
 40
74.3
100
AcDbArc
 50
90.00000000000001
 51
180.0
  0
DIMENSION
  5
37C
330
1F
100
AcDbEntity
  8
LAY-20
  6
CONTINUOUS
 62
     4
100
AcDbDimension
  2
*D15
 10
1980.0
 20
2791.999999999999
 30
0.0
 11
1930.0
 21
1966.999999999998
 31
0.0
 70
   160
  3
ISO-25
100
AcDbAlignedDimension
 13
2180.0
 23
1141.999999999998
 33
0.0
 14
2625.7
 24
2791.999999999999
 34
0.0
 50
90.0
100
AcDbRotatedDimension
1001
ACAD
1000
DSTYLE
1002
{
1070
   270
1070
     2
1070
     6
1000
EX_BNORM
1070
     7
1000
EX_BNORM
1070
    41
1040
50.0
1070
    42
1040
30.0
1070
    44
1040
30.0
1070
    73
1070
     0
1070
    74
1070
     0
1070
    75
1070
     0
1070
    76
1070
     0
1070
    77
1070
     1
1070
    78
1070
     8
1070
   140
1040
62.362208
1070
   147
1040
0.0
1070
   173
1070
     1
1070
   176
1070
     4
1070
   177
1070
     4
1070
   178
1070
     7
1070
   271
1070
     1
1070
   277
1070
     2
1070
   279
1070
     2
1070
   280
1070
     0
1070
   287
1070
     5
1070
   340
1005
37B
1002
}
  0
DIMENSION
  5
38A
330
1F
100
AcDbEntity
  8
LAY-20
  6
CONTINUOUS
 62
     4
100
AcDbDimension
  2
*D16
 10
1980.0
 20
1141.999999999998
 30
0.0
 11
1930.0
 21
816.9999999999982
 31
0.0
 70
   160
  3
ISO-25
100
AcDbAlignedDimension
 13
2180.0
 23
491.9999999999982
 33
0.0
 14
1980.0
 24
1141.999999999998
 34
0.0
 50
90.0
100
AcDbRotatedDimension
1001
ACAD
1000
DSTYLE
1002
{
1070
   270
1070
     2
1070
     6
1000
EX_BNORM
1070
     7
1000
EX_BNORM
1070
    41
1040
50.0
1070
    42
1040
30.0
1070
    44
1040
30.0
1070
    73
1070
     0
1070
    74
1070
     0
1070
    75
1070
     0
1070
    76
1070
     1
1070
    77
1070
     1
1070
    78
1070
     8
1070
   140
1040
62.362208
1070
   147
1040
0.0
1070
   173
1070
     1
1070
   176
1070
     4
1070
   177
1070
     4
1070
   178
1070
     7
1070
   271
1070
     1
1070
   277
1070
     2
1070
   279
1070
     2
1070
   280
1070
     0
1070
   287
1070
     5
1070
   340
1005
37B
1002
}
  0
TEXT
  5
396
330
1F
100
AcDbEntity
  8
LAY-20
  6
CONTINUOUS
 62
     7
100
AcDbText
 10
3934.666666666666
 20
1302.708664000003
 30
0.0
 40
62.362208
  1
Ｇ.Ｌ
 41
0.9957446808510639
  7
EXCADSTD
100
AcDbText
  0
POLYLINE
  5
397
330
1F
100
AcDbEntity
  8
LAY-20
  6
CONTINUOUS
 62
     7
100
AcDb2dPolyline
 66
     1
 10
0.0
 20
0.0
 30
0.0
 70
   128
  0
VERTEX
  5
398
330
397
100
AcDbEntity
  8
LAY-20
  6
CONTINUOUS
 62
     7
100
AcDbVertex
100
AcDb2dVertex
 10
3877.0
 20
1292.000000000003
 30
0.0
  0
VERTEX
  5
399
330
397
100
AcDbEntity
  8
LAY-20
  6
CONTINUOUS
 62
     7
100
AcDbVertex
100
AcDb2dVertex
 10
3912.0
 20
1352.621778264914
 30
0.0
  0
VERTEX
  5
39A
330
397
100
AcDbEntity
  8
LAY-20
  6
CONTINUOUS
 62
     7
100
AcDbVertex
100
AcDb2dVertex
 10
3842.0
 20
1352.621778264914
 30
0.0
  0
VERTEX
  5
39B
330
397
100
AcDbEntity
  8
LAY-20
  6
CONTINUOUS
 62
     7
100
AcDbVertex
100
AcDb2dVertex
 10
3877.0
 20
1292.000000000003
 30
0.0
  0
SEQEND
  5
39C
330
397
100
AcDbEntity
  8
LAY-20
  6
CONTINUOUS
 62
     7
  0
DIMENSION
  5
39D
330
1F
100
AcDbEntity
  8
LAY-20
  6
CONTINUOUS
 62
     4
100
AcDbDimension
  2
*D17
 10
3550.000000000005
 20
4900.0
 30
0.0
 11
2900.0
 21
4950.0
 31
0.0
 70
   160
  3
ISO-25
100
AcDbAlignedDimension
 13
2249.999999999995
 23
4200.0
 33
0.0
 14
3550.000000000005
 24
4200.0
 34
0.0
100
AcDbRotatedDimension
1001
ACAD
1000
DSTYLE
1002
{
1070
   270
1070
     2
1070
     6
1000
EX_BNORM
1070
     7
1000
EX_BNORM
1070
    41
1040
50.0
1070
    42
1040
30.0
1070
    44
1040
30.0
1070
    73
1070
     0
1070
    74
1070
     0
1070
    75
1070
     0
1070
    76
1070
     0
1070
    77
1070
     1
1070
    78
1070
     8
1070
   140
1040
62.362208
1070
   147
1040
0.0
1070
   173
1070
     1
1070
   176
1070
     4
1070
   177
1070
     4
1070
   178
1070
     7
1070
   271
1070
     1
1070
   277
1070
     2
1070
   279
1070
     2
1070
   280
1070
     0
1070
   287
1070
     5
1070
   340
1005
37B
1002
}
  0
DIMENSION
  5
3AA
330
1F
100
AcDbEntity
  8
LAY-20
  6
CONTINUOUS
 62
     4
100
AcDbDimension
  2
*D18
 10
3150.0
 20
4660.0
 30
0.0
 11
2900.0
 21
4710.0
 31
0.0
 70
   160
  1
%%c<>
  3
ISO-25
100
AcDbAlignedDimension
 13
2650.0
 23
4200.0
 33
0.0
 14
3150.0
 24
4200.0
 34
0.0
100
AcDbRotatedDimension
1001
ACAD
1000
DSTYLE
1002
{
1070
   270
1070
     2
1070
     6
1000
EX_BNORM
1070
     7
1000
EX_BNORM
1070
    41
1040
50.0
1070
    42
1040
30.0
1070
    44
1040
30.0
1070
    73
1070
     0
1070
    74
1070
     0
1070
    75
1070
     0
1070
    76
1070
     0
1070
    77
1070
     1
1070
    78
1070
     8
1070
   140
1040
62.362208
1070
   147
1040
0.0
1070
   173
1070
     1
1070
   176
1070
     4
1070
   177
1070
     4
1070
   178
1070
     7
1070
   271
1070
     1
1070
   277
1070
     2
1070
   279
1070
     2
1070
   280
1070
     0
1070
   287
1070
     5
1070
   340
1005
37B
1002
}
  0
DIMENSION
  5
3B7
330
1F
100
AcDbEntity
  8
LAY-20
  6
CONTINUOUS
 62
     4
100
AcDbDimension
  2
*D19
 10
2625.7
 20
2324.5
 30
0.0
 11
2435.700000000001
 21
2374.5
 31
0.0
 70
   160
  1
%%c<>
  3
ISO-25
100
AcDbAlignedDimension
 13
2674.3
 23
2324.5
 33
0.0
 14
2625.7
 24
2324.5
 34
0.0
100
AcDbRotatedDimension
1001
ACAD
1000
DSTYLE
1002
{
1070
   270
1070
     2
1070
     6
1000
EX_BNORM
1070
     7
1000
EX_BNORM
1070
    41
1040
50.0
1070
    42
1040
0.0
1070
    44
1040
0.0
1070
    73
1070
     0
1070
    74
1070
     0
1070
    75
1070
     1
1070
    76
1070
     1
1070
    77
1070
     1
1070
    78
1070
     8
1070
   140
1040
62.362208
1070
   147
1040
0.0
1070
   173
1070
     1
1070
   176
1070
     4
1070
   177
1070
     4
1070
   178
1070
     7
1070
   271
1070
     1
1070
   277
1070
     2
1070
   279
1070
     2
1070
   280
1070
     2
1070
   287
1070
     5
1070
   340
1005
37B
1002
}
  0
DIMENSION
  5
3C4
330
1F
100
AcDbEntity
  8
LAY-20
  6
CONTINUOUS
 62
     4
100
AcDbDimension
  2
*D20
 10
2320.0
 20
1342.0
 30
0.0
 11
2250.0
 21
1392.0
 31
0.0
 70
   160
  1
%%c<>
  3
ISO-25
100
AcDbAlignedDimension
 13
2180.0
 23
1142.0
 33
0.0
 14
2320.0
 24
1142.0
 34
0.0
100
AcDbRotatedDimension
1001
ACAD
1000
DSTYLE
1002
{
1070
   270
1070
     2
1070
     6
1000
EX_BNORM
1070
     7
1000
EX_BNORM
1070
    41
1040
50.0
1070
    42
1040
30.0
1070
    44
1040
30.0
1070
    73
1070
     0
1070
    74
1070
     0
1070
    75
1070
     0
1070
    76
1070
     0
1070
    77
1070
     1
1070
    78
1070
     8
1070
   140
1040
62.362208
1070
   147
1040
0.0
1070
   173
1070
     1
1070
   176
1070
     4
1070
   177
1070
     4
1070
   178
1070
     7
1070
   271
1070
     1
1070
   277
1070
     2
1070
   279
1070
     2
1070
   280
1070
     0
1070
   287
1070
     5
1070
   340
1005
37B
1002
}
  0
LINE
  5
3D1
330
1F
100
AcDbEntity
  8
LAY-20
  6
PHANTOM
 62
     7
100
AcDbLine
 10
1707.0
 20
1292.000000000003
 30
0.0
 11
4153.0
 21
1292.000000000003
 31
0.0
  0
LINE
  5
3D2
330
1F
100
AcDbEntity
  8
LAY-255
  6
CONTINUOUS
 62
     7
100
AcDbLine
 10
7700.0
 20
439.9999999999999
 30
0.0
 11
5700.0
 21
439.9999999999999
 31
0.0
  0
LINE
  5
3D3
330
1F
100
AcDbEntity
  8
LAY-255
  6
CONTINUOUS
 62
     7
100
AcDbLine
 10
5776.0
 20
319.9999999999999
 30
0.0
 11
5936.0
 21
420.0
 31
0.0
  0
LINE
  5
3D4
330
1F
100
AcDbEntity
  8
LAY-255
  6
CONTINUOUS
 62
     7
100
AcDbLine
 10
5936.0
 20
420.0
 30
0.0
 11
6096.0
 21
319.9999999999999
 31
0.0
  0
LINE
  5
3D5
330
1F
100
AcDbEntity
  8
LAY-255
  6
CONTINUOUS
 62
     7
100
AcDbLine
 10
6096.0
 20
319.9999999999999
 30
0.0
 11
5936.0
 21
220.0
 31
0.0
  0
LINE
  5
3D6
330
1F
100
AcDbEntity
  8
LAY-255
  6
CONTINUOUS
 62
     7
100
AcDbLine
 10
5936.0
 20
220.0
 30
0.0
 11
5776.0
 21
319.9999999999999
 31
0.0
  0
LINE
  5
3D7
330
1F
100
AcDbEntity
  8
LAY-255
  6
CONTINUOUS
 62
     7
100
AcDbLine
 10
100.0
 20
200.0
 30
0.0
 11
7700.000000000001
 21
200.0
 31
0.0
  0
LINE
  5
3D8
330
1F
100
AcDbEntity
  8
LAY-255
  6
CONTINUOUS
 62
     7
100
AcDbLine
 10
100.0
 20
5600.0
 30
0.0
 11
7700.000000000001
 21
5600.0
 31
0.0
  0
LINE
  5
3D9
330
1F
100
AcDbEntity
  8
LAY-255
  6
CONTINUOUS
 62
     7
100
AcDbLine
 10
100.0
 20
200.0
 30
0.0
 11
100.0
 21
5600.0
 31
0.0
  0
LINE
  5
3DA
330
1F
100
AcDbEntity
  8
LAY-255
  6
CONTINUOUS
 62
     7
100
AcDbLine
 10
7700.0
 20
200.0
 30
0.0
 11
7700.0
 21
5600.0
 31
0.0
  0
LINE
  5
3DB
330
1F
100
AcDbEntity
  8
LAY-255
  6
CONTINUOUS
 62
     4
100
AcDbLine
 10
5700.0
 20
559.9999999999999
 30
0.0
 11
7700.000000000001
 21
559.9999999999999
 31
0.0
  0
LINE
  5
3DC
330
1F
100
AcDbEntity
  8
LAY-255
  6
CONTINUOUS
 62
     7
100
AcDbLine
 10
5700.0
 20
200.0
 30
0.0
 11
5700.0
 21
1340.0
 31
0.0
  0
LINE
  5
3DD
330
1F
100
AcDbEntity
  8
LAY-255
  6
CONTINUOUS
 62
     4
100
AcDbLine
 10
6700.0
 20
559.9999999999999
 30
0.0
 11
6700.0
 21
440.0
 31
0.0
  0
LINE
  5
3DE
330
1F
100
AcDbEntity
  8
LAY-255
  6
CONTINUOUS
 62
     7
100
AcDbLine
 10
7700.000000000001
 20
1340.0
 30
0.0
 11
5700.0
 21
1340.0
 31
0.0
  0
LINE
  5
3DF
330
1F
100
AcDbEntity
  8
LAY-255
  6
CONTINUOUS
 62
     4
100
AcDbLine
 10
7660.0
 20
1100.000000000001
 30
0.0
 11
5740.0
 21
1100.000000000001
 31
0.0
  0
LINE
  5
3E0
330
1F
100
AcDbEntity
  8
LAY-255
  6
CONTINUOUS
 62
     4
100
AcDbLine
 10
7660.0
 20
1220.000000000001
 30
0.0
 11
5740.0
 21
1220.000000000001
 31
0.0
  0
POINT
  5
3E1
330
1F
100
AcDbEntity
  8
LAY-255
  6
CONTINUOUS
 62
     7
100
AcDbPoint
 10
5780.0
 20
600.0000000000001
 30
0.0
  0
TEXT
  5
3E2
330
1F
100
AcDbEntity
  8
LAY-255
  6
CONTINUOUS
 62
     7
100
AcDbText
 10
5880.6875
 20
274.375
 30
0.0
 40
103.125
  1
S
 41
0.7582677563636363
  7
EXCADSTD
100
AcDbText
  0
TEXT
  5
3E3
330
1F
100
AcDbEntity
  8
LAY-255
  6
CONTINUOUS
 62
     7
100
AcDbText
 10
5942.09375
 20
274.9882075472
 30
0.0
 40
103.125
  1
F
 41
0.7440945272727272
  7
EXCADSTD
100
AcDbText
  0
TEXT
  5
3E4
330
1F
100
AcDbEntity
  8
LAY-255
  6
CONTINUOUS
 62
     7
100
AcDbText
 10
6162.767546005859
 20
310.8749999999999
 30
0.0
 40
103.125
  1
福西鋳物株式会社
 41
1.342685627200235
  7
EXCADSTD
100
AcDbText
  0
TEXT
  5
3E5
330
1F
100
AcDbEntity
  8
LAY-255
  6
CONTINUOUS
 62
     7
100
AcDbText
 10
6170.1875
 20
239.625
 30
0.0
 40
34.375
  1
ＦＵＫＵＮＩＳＨＩ
 41
1.204799226045263
  7
EXCADSTD
100
AcDbText
  0
TEXT
  5
3E6
330
1F
100
AcDbEntity
  8
LAY-255
  6
CONTINUOUS
 62
     7
100
AcDbText
 10
6654.082589285715
 20
239.625
 30
0.0
 40
34.375
  1
ＦＯＵＮＤＲＹ
 41
1.217206955080903
  7
EXCADSTD
100
AcDbText
  0
TEXT
  5
3E7
330
1F
100
AcDbEntity
  8
LAY-255
  6
CONTINUOUS
 62
     7
100
AcDbText
 10
7038.489633413461
 20
239.625
 30
0.0
 40
34.375
  1
ＣＯ.,ＬＴＤ.
 41
1.097167799789941
  7
EXCADSTD
100
AcDbText
  0
POINT
  5
3E8
330
1F
100
AcDbEntity
  8
LAY-255
  6
CONTINUOUS
 62
     7
100
AcDbPoint
 10
5780.0
 20
1000.000000000001
 30
0.0
  0
TEXT
  5
3E9
330
1F
100
AcDbEntity
  8
LAY-255
  6
CONTINUOUS
 62
     7
100
AcDbText
 10
5745.3125
 20
1131.250000000001
 30
0.0
 40
68.75
  1
型式
 41
1.056348480681818
  7
EXCADSTD
100
AcDbText
  0
TEXT
  5
3EA
330
1F
100
AcDbEntity
  8
LAY-255
  6
CONTINUOUS
 62
     7
100
AcDbText
 10
5748.4375
 20
1251.250000000001
 30
0.0
 40
68.75
  1
品名
 41
0.9788386340909091
  7
EXCADSTD
100
AcDbText
  0
POINT
  5
3EB
330
1F
100
AcDbEntity
  8
LAY-255
  6
CONTINUOUS
 62
     7
100
AcDbPoint
 10
6000.0
 20
1120.000000000001
 30
0.0
  0
POINT
  5
3EC
330
1F
100
AcDbEntity
  8
LAY-255
  6
CONTINUOUS
 62
     7
100
AcDbPoint
 10
6000.0
 20
1240.000000000001
 30
0.0
  0
POINT
  5
3ED
330
1F
100
AcDbEntity
  8
LAY-255
  6
CONTINUOUS
 62
     7
100
AcDbPoint
 10
5780.0
 20
800.0000000000007
 30
0.0
  0
POINT
  5
3EE
330
1F
100
AcDbEntity
  8
LAY-255
  6
CONTINUOUS
 62
     7
100
AcDbPoint
 10
5780.0
 20
900.0000000000007
 30
0.0
  0
POINT
  5
3EF
330
1F
100
AcDbEntity
  8
LAY-255
  6
CONTINUOUS
 62
     7
100
AcDbPoint
 10
5780.0
 20
700.0000000000001
 30
0.0
  0
TEXT
  5
3F0
330
1F
100
AcDbEntity
  8
LAY-255
  6
CONTINUOUS
 62
     7
100
AcDbText
 10
6013.75
 20
1131.250000000001
 30
0.0
 40
68.75
  1
ＧＳＭＵ２１－５００型
 41
1.005641744517338
  7
EXCADSTD
100
AcDbText
  0
TEXT
  5
3F1
330
1F
100
AcDbEntity
  8
LAY-255
  6
CONTINUOUS
 62
     7
100
AcDbText
 10
5785.625
 20
811.2500000000009
 30
0.0
 40
68.75
  1
形状：丸パイプ２本支柱
 41
1.016965716213683
  7
EXCADSTD
100
AcDbText
  0
TEXT
  5
3F2
330
1F
100
AcDbEntity
  8
LAY-255
  6
CONTINUOUS
 62
     7
100
AcDbText
 10
5783.75
 20
711.2500000000003
 30
0.0
 40
68.75
  1
施工：ソケットアンカー式
 41
1.016862332418525
  7
EXCADSTD
100
AcDbText
  0
TEXT
  5
3F3
330
1F
100
AcDbEntity
  8
LAY-255
  6
CONTINUOUS
 62
     7
100
AcDbText
 10
5782.8125
 20
911.2500000000009
 30
0.0
 40
68.75
  1
材質：ステンレス鋼
 41
1.019934270655926
  7
EXCADSTD
100
AcDbText
  0
TEXT
  5
3F4
330
1F
100
AcDbEntity
  8
LAY-255
  6
CONTINUOUS
 62
     7
100
AcDbText
 10
6008.75
 20
1251.250000000001
 30
0.0
 40
68.75
  1
グリーンホルダー（樹木保護用支柱）
 41
0.9735882036122816
  7
EXCADSTD
100
AcDbText
  0
TEXT
  5
3F5
330
1F
100
AcDbEntity
  8
LAY-255
  6
CONTINUOUS
 62
     7
100
AcDbText
 10
5782.8125
 20
1011.250000000001
 30
0.0
 40
68.75
  1
種別：樹木保護用支柱
 41
1.021519380785124
  7
EXCADSTD
100
AcDbText
  0
TEXT
  5
3F6
330
1F
100
AcDbEntity
  8
LAY-255
  6
CONTINUOUS
 62
     7
100
AcDbText
 10
6965.625
 20
471.2499999999998
 30
0.0
 40
68.75
  1
１：２０
 41
0.9243863385026738
  7
EXCADSTD
100
AcDbText
  0
TEXT
  5
3F7
330
1F
100
AcDbEntity
  8
LAY-255
  6
CONTINUOUS
 62
     7
100
AcDbText
 10
6017.8125
 20
471.2499999999998
 30
0.0
 40
68.75
  1
０１／０８／０１
 41
0.9566929636363637
  7
EXCADSTD
100
AcDbText
  0
TEXT
  5
3F8
330
1F
100
AcDbEntity
  8
LAY-255
  6
CONTINUOUS
 62
     7
100
AcDbText
 10
5743.046875
 20
488.4374999999998
 30
0.0
 40
51.5625
  1
作成日
 41
1.000629973818182
  7
EXCADSTD
100
AcDbText
  0
TEXT
  5
3F9
330
1F
100
AcDbEntity
  8
LAY-255
  6
CONTINUOUS
 62
     7
100
AcDbText
 10
6742.109375
 20
488.4374999999998
 30
0.0
 40
51.5625
  1
縮尺
 41
1.080708718181818
  7
EXCADSTD
100
AcDbText
  0
ENDSEC
  0
SECTION
  2
OBJECTS
  0
DICTIONARY
  5
C
330
0
100
AcDbDictionary
  3
ACAD_GROUP
350
D
  3
ACAD_LAYOUT
350
1A
  3
ACAD_MATERIAL
350
43
  3
ACAD_MLEADERSTYLE
350
6B
  3
ACAD_MLINESTYLE
350
17
  3
ACAD_PLOTSETTINGS
350
19
  3
ACAD_SCALELIST
350
47
  3
ACAD_VISUALSTYLE
350
2A
  3
ACDBHEADERROUNDTRIPXREC
350
3FA
  3
ACDBVARIABLEDICTIONARY
350
41B
  0
DICTIONARY
  5
426
330
8
100
AcDbDictionary
280
     1
  3
ACAD_XREC_ROUNDTRIP
360
427
  0
DICTIONARY
  5
D
102
{ACAD_REACTORS
330
C
102
}
330
C
100
AcDbDictionary
  0
DICTIONARY
  5
1A
102
{ACAD_REACTORS
330
C
102
}
330
C
100
AcDbDictionary
  0
DICTIONARY
  5
43
102
{ACAD_REACTORS
330
C
102
}
330
C
100
AcDbDictionary
  3
BYBLOCK
350
45
  3
BYLAYER
350
44
  3
GLOBAL
350
46
  0
DICTIONARY
  5
6B
102
{ACAD_REACTORS
330
C
102
}
330
C
100
AcDbDictionary
  3
STANDARD
350
6C
  0
DICTIONARY
  5
17
102
{ACAD_REACTORS
330
C
102
}
330
C
100
AcDbDictionary
  3
STANDARD
350
18
  0
DICTIONARY
  5
19
102
{ACAD_REACTORS
330
C
102
}
330
C
100
AcDbDictionary
  0
DICTIONARY
  5
47
102
{ACAD_REACTORS
330
C
102
}
330
C
100
AcDbDictionary
  3
A0
350
48
  3
A1
350
49
  3
A2
350
4A
  3
A3
350
4B
  3
A4
350
4C
  3
A5
350
4D
  3
A6
350
4E
  3
A7
350
4F
  3
A8
350
50
  3
A9
350
51
  3
B0
350
52
  3
B1
350
53
  3
B2
350
54
  3
B3
350
55
  3
B4
350
56
  3
B5
350
57
  3
B6
350
58
  3
B7
350
59
  3
B8
350
5A
  3
B9
350
5B
  3
C0
350
5C
  3
C1
350
5D
  3
C2
350
5E
  3
C3
350
5F
  3
C4
350
60
  3
C5
350
61
  3
C6
350
62
  3
C7
350
63
  3
C8
350
64
  3
C9
350
65
  3
D0
350
66
  3
D1
350
67
  3
D2
350
68
  0
DICTIONARY
  5
2A
102
{ACAD_REACTORS
330
C
102
}
330
C
100
AcDbDictionary
  3
2DWIREFRAME
350
2F
  3
BASIC
350
32
  3
BRIGHTEN
350
36
  3
COLORCHANGE
350
3A
  3
CONCEPTUAL
350
34
  3
DIM
350
35
  3
EDGECOLOROFF
350
3D
  3
FACEPATTERN
350
39
  3
FLAT
350
2B
  3
FLATWITHEDGES
350
2C
  3
GOURAUD
350
2D
  3
GOURAUDWITHEDGES
350
2E
  3
HIDDEN
350
31
  3
JITTEROFF
350
3B
  3
LINEPATTERN
350
38
  3
OVERHANGOFF
350
3C
  3
REALISTIC
350
33
  3
SHADED
350
42
  3
SHADED_WITH_EDGES
350
41
  3
SHADES_OF_GRAY
350
3E
  3
SKETCHY
350
3F
  3
THICKEN
350
37
  3
WIREFRAME
350
30
  3
X-RAY
350
40
  0
DICTIONARY
  5
3FA
102
{ACAD_REACTORS
330
C
102
}
330
C
100
AcDbDictionary
  3
CEPSNID
350
404
  3
CEPSNTYPE
350
403
  3
DIMSTYLEDATA
350
41A
  3
FINGERPRINTGUID
350
405
  3
HYPERLINKBASE
350
3FD
  3
INSUNITS
350
402
  3
LAYOUTDICT
350
3FF
  3
LWETCUNION
350
401
  3
PLOTSETDICT
350
400
  3
PSVPSCALE
350
407
  3
PUCSBASE
350
40A
  3
PUCSORGBACK
350
410
  3
PUCSORGBOTTOM
350
40C
  3
PUCSORGFRONT
350
40F
  3
PUCSORGLEFT
350
40D
  3
PUCSORGRIGHT
350
40E
  3
PUCSORGTOP
350
40B
  3
PUCSORTHOREF
350
408
  3
PUCSORTHOVIEW
350
409
  3
STYLESHEET
350
3FE
  3
TSTACKALIGN
350
3FB
  3
TSTACKSIZE
350
3FC
  3
UCSBASE
350
413
  3
UCSORGBACK
350
419
  3
UCSORGBOTTOM
350
415
  3
UCSORGFRONT
350
418
  3
UCSORGLEFT
350
416
  3
UCSORGRIGHT
350
417
  3
UCSORGTOP
350
414
  3
UCSORTHOREF
350
411
  3
UCSORTHOVIEW
350
412
  3
VERSIONGUID
350
406
  0
DICTIONARY
  5
41B
102
{ACAD_REACTORS
330
C
102
}
330
C
100
AcDbDictionary
  3
CANNOSCALE
350
428
  3
CENTEREXE
350
422
  3
CENTERLTYPEFILE
350
423
  3
CMLEADERSTYLE
350
41D
  3
CTABLESTYLE
350
41C
  3
DIMASSOC
350
424
  3
HIDETEXT
350
425
  3
MSLTSCALE
350
429
  3
PSOLHEIGHT
350
41F
  3
PSOLWIDTH
350
41E
  0
XRECORD
  5
427
102
{ACAD_REACTORS
330
426
102
}
330
426
100
AcDbXrecord
102
VTR_0.000_0.000_1.000_1.000_VISUALSTYLE
340
2F
102
VTR_0.000_0.000_1.000_1.000_GRIDDISPLAY
 70
     3
102
VTR_0.000_0.000_1.000_1.000_GRIDMAJOR
 70
     5
102
VTR_0.000_0.000_1.000_1.000_DEFAULTLIGHTING
280
     1
102
VTR_0.000_0.000_1.000_1.000_DEFAULTLIGHTINGTYPE
 70
     1
102
VTR_0.000_0.000_1.000_1.000_BRIGHTNESS
141
0.0
102
VTR_0.000_0.000_1.000_1.000_CONTRAST
142
0.0
  0
MATERIAL
  5
45
102
{ACAD_REACTORS
330
43
102
}
102
{ACAD_XDICTIONARY
360
42C
102
}
330
43
100
AcDbMaterial
  1
BYBLOCK
  0
MATERIAL
  5
44
102
{ACAD_REACTORS
330
43
102
}
102
{ACAD_XDICTIONARY
360
42A
102
}
330
43
100
AcDbMaterial
  1
BYLAYER
  0
MATERIAL
  5
46
102
{ACAD_REACTORS
330
43
102
}
102
{ACAD_XDICTIONARY
360
42E
102
}
330
43
100
AcDbMaterial
  1
GLOBAL
  0
ACAD_PROXY_OBJECT
  5
6C
102
{ACAD_REACTORS
330
6B
102
}
330
6B
100
AcDbProxyObject
 90
      499
 91
      505
 93
      610
310
40901902A4063FBFFFFFE0000000000000020400000000000020404214DD185B99185C990000000000000104090141901A00000000000004100000000000000041025764000000000000039000
340
14
340
0
340
11
340
0
 94
        0
1001
ACAD_MLEADERVER
1070
     2
  0
MLINESTYLE
  5
18
102
{ACAD_REACTORS
330
17
102
}
330
17
100
AcDbMlineStyle
  2
Standard
 70
     0
  3

 62
   256
 51
90.0
 52
90.0
 71
     2
 49
0.5
 62
   256
  6
BYLAYER
 49
-0.5
 62
   256
  6
BYLAYER
  0
ACAD_PROXY_OBJECT
  5
48
102
{ACAD_REACTORS
330
47
102
}
330
47
100
AcDbProxyObject
 90
      499
 91
      503
 93
       41
310
903313A31580
  0
ACAD_PROXY_OBJECT
  5
49
102
{ACAD_REACTORS
330
47
102
}
330
47
100
AcDbProxyObject
 90
      499
 91
      503
 93
      105
310
903313A324000000000000004000
  0
ACAD_PROXY_OBJECT
  5
4A
102
{ACAD_REACTORS
330
47
102
}
330
47
100
AcDbProxyObject
 90
      499
 91
      503
 93
      105
310
903313A344000000000000104000
  0
ACAD_PROXY_OBJECT
  5
4B
102
{ACAD_REACTORS
330
47
102
}
330
47
100
AcDbProxyObject
 90
      499
 91
      503
 93
      105
310
903313A354000000000000144000
  0
ACAD_PROXY_OBJECT
  5
4C
102
{ACAD_REACTORS
330
47
102
}
330
47
100
AcDbProxyObject
 90
      499
 91
      503
 93
      105
310
903313A384000000000000204000
  0
ACAD_PROXY_OBJECT
  5
4D
102
{ACAD_REACTORS
330
47
102
}
330
47
100
AcDbProxyObject
 90
      499
 91
      503
 93
      113
310
904313A31304000000000000244000
  0
ACAD_PROXY_OBJECT
  5
4E
102
{ACAD_REACTORS
330
47
102
}
330
47
100
AcDbProxyObject
 90
      499
 91
      503
 93
      113
310
904313A31364000000000000304000
  0
ACAD_PROXY_OBJECT
  5
4F
102
{ACAD_REACTORS
330
47
102
}
330
47
100
AcDbProxyObject
 90
      499
 91
      503
 93
      113
310
904313A32304000000000000344000
  0
ACAD_PROXY_OBJECT
  5
50
102
{ACAD_REACTORS
330
47
102
}
330
47
100
AcDbProxyObject
 90
      499
 91
      503
 93
      113
310
904313A333040000000000003E4000
  0
ACAD_PROXY_OBJECT
  5
51
102
{ACAD_REACTORS
330
47
102
}
330
47
100
AcDbProxyObject
 90
      499
 91
      503
 93
      113
310
904313A34304000000000000444000
  0
ACAD_PROXY_OBJECT
  5
52
102
{ACAD_REACTORS
330
47
102
}
330
47
100
AcDbProxyObject
 90
      499
 91
      503
 93
      113
310
904313A35304000000000000494000
  0
ACAD_PROXY_OBJECT
  5
53
102
{ACAD_REACTORS
330
47
102
}
330
47
100
AcDbProxyObject
 90
      499
 91
      503
 93
      121
310
905313A3130304000000000000594000
  0
ACAD_PROXY_OBJECT
  5
54
102
{ACAD_REACTORS
330
47
102
}
330
47
100
AcDbProxyObject
 90
      499
 91
      503
 93
      105
310
903323A310000000000000010100
  0
ACAD_PROXY_OBJECT
  5
55
102
{ACAD_REACTORS
330
47
102
}
330
47
100
AcDbProxyObject
 90
      499
 91
      503
 93
      105
310
903343A310000000000000410100
  0
ACAD_PROXY_OBJECT
  5
56
102
{ACAD_REACTORS
330
47
102
}
330
47
100
AcDbProxyObject
 90
      499
 91
      503
 93
      105
310
903383A310000000000000810100
  0
ACAD_PROXY_OBJECT
  5
57
102
{ACAD_REACTORS
330
47
102
}
330
47
100
AcDbProxyObject
 90
      499
 91
      503
 93
      113
310
90431303A310000000000000910100
  0
ACAD_PROXY_OBJECT
  5
58
102
{ACAD_REACTORS
330
47
102
}
330
47
100
AcDbProxyObject
 90
      499
 91
      503
 93
      121
310
9053130303A310000000000001650100
  0
ACAD_PROXY_OBJECT
  5
59
102
{ACAD_REACTORS
330
47
102
}
330
47
100
AcDbProxyObject
 90
      499
 91
      503
 93
      257
310
90E312F31323822203D2031272D3022000000000000200FC000000000000284000
  0
ACAD_PROXY_OBJECT
  5
5A
102
{ACAD_REACTORS
330
47
102
}
330
47
100
AcDbProxyObject
 90
      499
 91
      503
 93
      249
310
90D312F363422203D2031272D3022000000000000240FC000000000000284000
  0
ACAD_PROXY_OBJECT
  5
5B
102
{ACAD_REACTORS
330
47
102
}
330
47
100
AcDbProxyObject
 90
      499
 91
      503
 93
      249
310
90D312F333222203D2031272D3022000000000000280FC000000000000284000
  0
ACAD_PROXY_OBJECT
  5
5C
102
{ACAD_REACTORS
330
47
102
}
330
47
100
AcDbProxyObject
 90
      499
 91
      503
 93
      249
310
90D312F313622203D2031272D30220000000000002C0FC000000000000284000
  0
ACAD_PROXY_OBJECT
  5
5D
102
{ACAD_REACTORS
330
47
102
}
330
47
100
AcDbProxyObject
 90
      499
 91
      503
 93
      249
310
90D332F333222203D2031272D30220000000000002E0FC000000000000284000
  0
ACAD_PROXY_OBJECT
  5
5E
102
{ACAD_REACTORS
330
47
102
}
330
47
100
AcDbProxyObject
 90
      499
 91
      503
 93
      241
310
90C312F3822203D2031272D3022000000000000300FC000000000000284000
  0
ACAD_PROXY_OBJECT
  5
5F
102
{ACAD_REACTORS
330
47
102
}
330
47
100
AcDbProxyObject
 90
      499
 91
      503
 93
      249
310
90D332F313622203D2031272D3022000000000000320FC000000000000284000
  0
ACAD_PROXY_OBJECT
  5
60
102
{ACAD_REACTORS
330
47
102
}
330
47
100
AcDbProxyObject
 90
      499
 91
      503
 93
      241
310
90C312F3422203D2031272D3022000000000000340FC000000000000284000
  0
ACAD_PROXY_OBJECT
  5
61
102
{ACAD_REACTORS
330
47
102
}
330
47
100
AcDbProxyObject
 90
      499
 91
      503
 93
      241
310
90C332F3822203D2031272D3022000000000000360FC000000000000284000
  0
ACAD_PROXY_OBJECT
  5
62
102
{ACAD_REACTORS
330
47
102
}
330
47
100
AcDbProxyObject
 90
      499
 91
      503
 93
      241
310
90C312F3222203D2031272D3022000000000000380FC000000000000284000
  0
ACAD_PROXY_OBJECT
  5
63
102
{ACAD_REACTORS
330
47
102
}
330
47
100
AcDbProxyObject
 90
      499
 91
      503
 93
      241
310
90C332F3422203D2031272D30220000000000003A0FC000000000000284000
  0
ACAD_PROXY_OBJECT
  5
64
102
{ACAD_REACTORS
330
47
102
}
330
47
100
AcDbProxyObject
 90
      499
 91
      503
 93
      161
310
90A3122203D2031272D30224000000000000284000
  0
ACAD_PROXY_OBJECT
  5
65
102
{ACAD_REACTORS
330
47
102
}
330
47
100
AcDbProxyObject
 90
      499
 91
      503
 93
      257
310
90E312D312F3222203D2031272D30220000000000003E0FC000000000000284000
  0
ACAD_PROXY_OBJECT
  5
66
102
{ACAD_REACTORS
330
47
102
}
330
47
100
AcDbProxyObject
 90
      499
 91
      503
 93
      225
310
90A3322203D2031272D302200000000000002100000000000000284000
  0
ACAD_PROXY_OBJECT
  5
67
102
{ACAD_REACTORS
330
47
102
}
330
47
100
AcDbProxyObject
 90
      499
 91
      503
 93
      225
310
90A3622203D2031272D302200000000000006100000000000000284000
  0
ACAD_PROXY_OBJECT
  5
68
102
{ACAD_REACTORS
330
47
102
}
330
47
100
AcDbProxyObject
 90
      499
 91
      503
 93
      249
310
90D31272D3022203D2031272D30220000000000000A100000000000000284000
  0
ACAD_PROXY_OBJECT
  5
2F
102
{ACAD_REACTORS
330
2A
102
}
330
2A
100
AcDbProxyObject
 90
      499
 91
      501
 93
      436
310
42CC9915DA5C99599C985B595049028333333333333E33F0000000000000F90107901411070040501600405405064090741402480A0340
1001
ACAD
1000
AcDbSavedByObjectVersion
1070
     0
  0
ACAD_PROXY_OBJECT
  5
32
102
{ACAD_REACTORS
330
2A
102
}
330
2A
100
AcDbProxyObject
 90
      499
 91
      501
 93
      388
310
4150985CDA58D07406404333333333333E33F0000000000000F90107A41107004050150841D405064090741402480A0350
1001
ACAD
1000
AcDbSavedByObjectVersion
1070
     0
  0
ACAD_PROXY_OBJECT
  5
36
102
{ACAD_REACTORS
330
2A
102
}
330
2A
100
AcDbProxyObject
 90
      499
 91
      501
 93
      428
310
42109C9A59DA1D195B90C409028333333333333E33F0000000000000F9010790141107004050150841D405064090741402480A029950
1001
ACAD
1000
AcDbSavedByObjectVersion
1070
     0
  0
ACAD_PROXY_OBJECT
  5
3A
102
{ACAD_REACTORS
330
2A
102
}
330
2A
100
AcDbProxyObject
 90
      499
 91
      501
 93
      452
310
42D0DBDB1BDC90DA185B99D95104090240C333333333333E33F0000000000000F90108901411070040501508421405064090741402480A0350
1001
ACAD
1000
AcDbSavedByObjectVersion
1070
     0
  0
ACAD_PROXY_OBJECT
  5
34
102
{ACAD_REACTORS
330
2A
102
}
330
2A
100
AcDbProxyObject
 90
      499
 91
      501
 93
      500
310
4290DBDB98D95C1D1D585B10940D028333333333333E33F0000000000000F90107902409070040501000000000018199010841D405064090740C02480A0340
1001
ACAD
1000
AcDbSavedByObjectVersion
1070
     0
  0
ACAD_PROXY_OBJECT
  5
35
102
{ACAD_REACTORS
330
2A
102
}
330
2A
100
AcDbProxyObject
 90
      499
 91
      501
 93
      412
310
40D11A5B50B409028333333333333E33F0000000000000F9010790141107004050150841D405064090741402480A02677FFFFFD0
1001
ACAD
1000
AcDbSavedByObjectVersion
1070
     0
  0
ACAD_PROXY_OBJECT
  5
3D
102
{ACAD_REACTORS
330
2A
102
}
330
2A
100
AcDbProxyObject
 90
      499
 91
      501
 93
      452
310
43115919D950DBDB1BDC93D999916409028333333333333E33F0000000000000F9010790141107004050150841D405064090741402480A0350
1001
ACAD
1000
AcDbSavedByObjectVersion
1070
     0
  0
ACAD_PROXY_OBJECT
  5
39
102
{ACAD_REACTORS
330
2A
102
}
330
2A
100
AcDbProxyObject
 90
      499
 91
      501
 93
      444
310
42D19858D95C185D1D195C9B90F409028333333333333E33F0000000000000F9010790141107004050150841D405064090741402480A0350
1001
ACAD
1000
AcDbSavedByObjectVersion
1070
     0
  0
ACAD_PROXY_OBJECT
  5
2B
102
{ACAD_REACTORS
330
2A
102
}
330
2A
100
AcDbProxyObject
 90
      499
 91
      501
 93
      380
310
41119B185D240901404333333333333E33F0000000000000F9010740A907004050150841D405064090741402480A1B50
1001
ACAD
1000
AcDbSavedByObjectVersion
1070
     0
  0
ACAD_PROXY_OBJECT
  5
2C
102
{ACAD_REACTORS
330
2A
102
}
330
2A
100
AcDbProxyObject
 90
      499
 91
      501
 93
      468
310
43519B185D15DA5D1A115919D95CD0140901404333333333333E33F0000000000000F90107409019070040501600405405064090741402480A1B50
1001
ACAD
1000
AcDbSavedByObjectVersion
1070
     0
  0
ACAD_PROXY_OBJECT
  5
2D
102
{ACAD_REACTORS
330
2A
102
}
330
2A
100
AcDbProxyObject
 90
      499
 91
      501
 93
      404
310
41D1DBDD5C985D5910240902404333333333333E33F0000000000000F9010740A9070040501641D405064090741402480A1B50
1001
ACAD
1000
AcDbSavedByObjectVersion
1070
     0
  0
ACAD_PROXY_OBJECT
  5
2E
102
{ACAD_REACTORS
330
2A
102
}
330
2A
100
AcDbProxyObject
 90
      499
 91
      501
 93
      492
310
4411DBDD5C985D5915DA5D1A115919D95CD0340902404333333333333E33F0000000000000F90107409019070040501600405405064090741402480A1B50
1001
ACAD
1000
AcDbSavedByObjectVersion
1070
     0
  0
ACAD_PROXY_OBJECT
  5
31
102
{ACAD_REACTORS
330
2A
102
}
330
2A
100
AcDbProxyObject
 90
      499
 91
      501
 93
      476
310
41921A5919195B90640502408333333333333E33F0000000000000F901079024090700405020000000000001110200405405064090740C02480A0340
1001
ACAD
1000
AcDbSavedByObjectVersion
1070
     0
  0
ACAD_PROXY_OBJECT
  5
3B
102
{ACAD_REACTORS
330
2A
102
}
330
2A
100
AcDbProxyObject
 90
      499
 91
      501
 93
      428
310
42529A5D1D195C93D999914409028333333333333E33F0000000000000F9010790141107004050150A41D405064090741402480A0350
1001
ACAD
1000
AcDbSavedByObjectVersion
1070
     0
  0
ACAD_PROXY_OBJECT
  5
38
102
{ACAD_REACTORS
330
2A
102
}
330
2A
100
AcDbProxyObject
 90
      499
 91
      501
 93
      444
310
42D31A5B995C185D1D195C9B90E409028333333333333E33F0000000000000F9010790141107004050750841D405064090741402483A0350
1001
ACAD
1000
AcDbSavedByObjectVersion
1070
     0
  0
ACAD_PROXY_OBJECT
  5
3C
102
{ACAD_REACTORS
330
2A
102
}
330
2A
100
AcDbProxyObject
 90
      499
 91
      501
 93
      444
310
42D3DD995C9A185B99D3D999915409028333333333333E33F0000000000000F9010790141107004050150941D405064090741402480A0350
1001
ACAD
1000
AcDbSavedByObjectVersion
1070
     0
  0
ACAD_PROXY_OBJECT
  5
33
102
{ACAD_REACTORS
330
2A
102
}
330
2A
100
AcDbProxyObject
 90
      499
 91
      501
 93
      428
310
425499585B1A5CDD1A58D08409038333333333333E33F0000000000000F9010740A907004050150800405405064090740C02480A1B40
1001
ACAD
1000
AcDbSavedByObjectVersion
1070
     0
  0
ACAD_PROXY_OBJECT
  5
42
102
{ACAD_REACTORS
330
2A
102
}
330
2A
100
AcDbProxyObject
 90
      499
 91
      501
 93
      420
310
4194DA1859195911B40902404333333333333E33F0000000000000F9010740A41107004050150800405405064090840C02480A0B40
1001
ACAD
1000
AcDbSavedByObjectVersion
1070
     0
  0
ACAD_PROXY_OBJECT
  5
41
102
{ACAD_REACTORS
330
2A
102
}
330
2A
100
AcDbProxyObject
 90
      499
 91
      501
 93
      516
310
4454DA18591959081DDA5D1A08195919D95CD1A40902404333333333333E33F0000000000000F901074090142907004050250800405405064090740C02480A0B40
1001
ACAD
1000
AcDbSavedByObjectVersion
1070
     0
  0
ACAD_PROXY_OBJECT
  5
3E
102
{ACAD_REACTORS
330
2A
102
}
330
2A
100
AcDbProxyObject
 90
      499
 91
      501
 93
      532
310
4394DA1859195CC81BD98811DC985E5174090240C333333333333E33F0000000000000F901079024090741D01000000000000111010841D405064090740C02480A0340
1001
ACAD
1000
AcDbSavedByObjectVersion
1070
     0
  0
ACAD_PROXY_OBJECT
  5
3F
102
{ACAD_REACTORS
330
2A
102
}
330
2A
100
AcDbProxyObject
 90
      499
 91
      501
 93
      476
310
41D4DAD95D18DA1E51840502408333333333333E33F0000000000000F901079024090741D01000000000000111010B41D405064090741802480A0340
1001
ACAD
1000
AcDbSavedByObjectVersion
1070
     0
  0
ACAD_PROXY_OBJECT
  5
37
102
{ACAD_REACTORS
330
2A
102
}
330
2A
100
AcDbProxyObject
 90
      499
 91
      501
 93
      412
310
41D51A1A58DAD95B90D409028333333333333E33F0000000000000F9010790141107004050150C41D405064090741402480A0350
1001
ACAD
1000
AcDbSavedByObjectVersion
1070
     0
  0
ACAD_PROXY_OBJECT
  5
30
102
{ACAD_REACTORS
330
2A
102
}
330
2A
100
AcDbProxyObject
 90
      499
 91
      501
 93
      420
310
4255DA5C99599C985B595059028333333333333E33F0000000000000F90107901411070040501600405405064090740C02480A0340
1001
ACAD
1000
AcDbSavedByObjectVersion
1070
     0
  0
ACAD_PROXY_OBJECT
  5
40
102
{ACAD_REACTORS
330
2A
102
}
330
2A
100
AcDbProxyObject
 90
      499
 91
      501
 93
      404
310
41560B54985E51940902404000000000000E03F0000000000000F9010740501907004050150841D405064090740C02480A1B40
1001
ACAD
1000
AcDbSavedByObjectVersion
1070
     0
  0
XRECORD
  5
404
102
{ACAD_REACTORS
330
3FA
102
}
330
3FA
100
AcDbXrecord
340
0
  0
XRECORD
  5
403
102
{ACAD_REACTORS
330
3FA
102
}
330
3FA
100
AcDbXrecord
 90
        0
  0
XRECORD
  5
41A
102
{ACAD_REACTORS
330
3FA
102
}
330
3FA
100
AcDbXrecord
1000
DSTYLE
1002
{
1070
   340
340
11
1002
}
  0
XRECORD
  5
405
102
{ACAD_REACTORS
330
3FA
102
}
330
3FA
100
AcDbXrecord
  1
{ca8eae08-2fe0-459e-825a-11bb1fe575f3}
  0
XRECORD
  5
3FD
102
{ACAD_REACTORS
330
3FA
102
}
330
3FA
100
AcDbXrecord
  1

  0
XRECORD
  5
402
102
{ACAD_REACTORS
330
3FA
102
}
330
3FA
100
AcDbXrecord
 90
        4
  0
XRECORD
  5
3FF
102
{ACAD_REACTORS
330
3FA
102
}
330
3FA
100
AcDbXrecord
340
1A
  0
XRECORD
  5
401
102
{ACAD_REACTORS
330
3FA
102
}
330
3FA
100
AcDbXrecord
 90
    10781
  0
XRECORD
  5
400
102
{ACAD_REACTORS
330
3FA
102
}
330
3FA
100
AcDbXrecord
340
19
  0
XRECORD
  5
407
102
{ACAD_REACTORS
330
3FA
102
}
330
3FA
100
AcDbXrecord
 40
0.0
  0
XRECORD
  5
40A
102
{ACAD_REACTORS
330
3FA
102
}
330
3FA
100
AcDbXrecord
340
0
  0
XRECORD
  5
410
102
{ACAD_REACTORS
330
3FA
102
}
330
3FA
100
AcDbXrecord
 10
0.0
 20
0.0
 30
0.0
  0
XRECORD
  5
40C
102
{ACAD_REACTORS
330
3FA
102
}
330
3FA
100
AcDbXrecord
 10
0.0
 20
0.0
 30
0.0
  0
XRECORD
  5
40F
102
{ACAD_REACTORS
330
3FA
102
}
330
3FA
100
AcDbXrecord
 10
0.0
 20
0.0
 30
0.0
  0
XRECORD
  5
40D
102
{ACAD_REACTORS
330
3FA
102
}
330
3FA
100
AcDbXrecord
 10
0.0
 20
0.0
 30
0.0
  0
XRECORD
  5
40E
102
{ACAD_REACTORS
330
3FA
102
}
330
3FA
100
AcDbXrecord
 10
0.0
 20
0.0
 30
0.0
  0
XRECORD
  5
40B
102
{ACAD_REACTORS
330
3FA
102
}
330
3FA
100
AcDbXrecord
 10
0.0
 20
0.0
 30
0.0
  0
XRECORD
  5
408
102
{ACAD_REACTORS
330
3FA
102
}
330
3FA
100
AcDbXrecord
340
0
  0
XRECORD
  5
409
102
{ACAD_REACTORS
330
3FA
102
}
330
3FA
100
AcDbXrecord
 70
     0
  0
XRECORD
  5
3FE
102
{ACAD_REACTORS
330
3FA
102
}
330
3FA
100
AcDbXrecord
  1

  0
XRECORD
  5
3FB
102
{ACAD_REACTORS
330
3FA
102
}
330
3FA
100
AcDbXrecord
 90
        1
  0
XRECORD
  5
3FC
102
{ACAD_REACTORS
330
3FA
102
}
330
3FA
100
AcDbXrecord
 90
       70
  0
XRECORD
  5
413
102
{ACAD_REACTORS
330
3FA
102
}
330
3FA
100
AcDbXrecord
340
0
  0
XRECORD
  5
419
102
{ACAD_REACTORS
330
3FA
102
}
330
3FA
100
AcDbXrecord
 10
0.0
 20
0.0
 30
0.0
  0
XRECORD
  5
415
102
{ACAD_REACTORS
330
3FA
102
}
330
3FA
100
AcDbXrecord
 10
0.0
 20
0.0
 30
0.0
  0
XRECORD
  5
418
102
{ACAD_REACTORS
330
3FA
102
}
330
3FA
100
AcDbXrecord
 10
0.0
 20
0.0
 30
0.0
  0
XRECORD
  5
416
102
{ACAD_REACTORS
330
3FA
102
}
330
3FA
100
AcDbXrecord
 10
0.0
 20
0.0
 30
0.0
  0
XRECORD
  5
417
102
{ACAD_REACTORS
330
3FA
102
}
330
3FA
100
AcDbXrecord
 10
0.0
 20
0.0
 30
0.0
  0
XRECORD
  5
414
102
{ACAD_REACTORS
330
3FA
102
}
330
3FA
100
AcDbXrecord
 10
0.0
 20
0.0
 30
0.0
  0
XRECORD
  5
411
102
{ACAD_REACTORS
330
3FA
102
}
330
3FA
100
AcDbXrecord
340
0
  0
XRECORD
  5
412
102
{ACAD_REACTORS
330
3FA
102
}
330
3FA
100
AcDbXrecord
 70
     0
  0
XRECORD
  5
406
102
{ACAD_REACTORS
330
3FA
102
}
330
3FA
100
AcDbXrecord
  1
{FAEB1C32-E019-11D5-929B-00C0DF256EC4}
  0
DICTIONARYVAR
  5
428
102
{ACAD_REACTORS
330
41B
102
}
330
41B
100
DictionaryVariables
280
     0
  1
1:1
  0
DICTIONARYVAR
  5
422
102
{ACAD_REACTORS
330
41B
102
}
330
41B
100
DictionaryVariables
280
     0
  1
3.500000
  0
DICTIONARYVAR
  5
423
102
{ACAD_REACTORS
330
41B
102
}
330
41B
100
DictionaryVariables
280
     0
  1
acadiso.lin
  0
DICTIONARYVAR
  5
41D
102
{ACAD_REACTORS
330
41B
102
}
330
41B
100
DictionaryVariables
280
     0
  1
Standard
  0
DICTIONARYVAR
  5
41C
102
{ACAD_REACTORS
330
41B
102
}
330
41B
100
DictionaryVariables
280
     0
  1
Standard
  0
DICTIONARYVAR
  5
424
102
{ACAD_REACTORS
330
41B
102
}
330
41B
100
DictionaryVariables
280
     0
  1
2
  0
DICTIONARYVAR
  5
425
102
{ACAD_REACTORS
330
41B
102
}
330
41B
100
DictionaryVariables
280
     0
  1
1
  0
DICTIONARYVAR
  5
429
102
{ACAD_REACTORS
330
41B
102
}
330
41B
100
DictionaryVariables
280
     0
  1
1
  0
DICTIONARYVAR
  5
41F
102
{ACAD_REACTORS
330
41B
102
}
330
41B
100
DictionaryVariables
280
     0
  1
80.000000
  0
DICTIONARYVAR
  5
41E
102
{ACAD_REACTORS
330
41B
102
}
330
41B
100
DictionaryVariables
280
     0
  1
5.000000
  0
DICTIONARY
  5
42C
330
45
100
AcDbDictionary
280
     1
  3
ACAD_XREC_ROUNDTRIP
360
42D
  0
DICTIONARY
  5
42A
330
44
100
AcDbDictionary
280
     1
  3
ACAD_XREC_ROUNDTRIP
360
42B
  0
DICTIONARY
  5
42E
330
46
100
AcDbDictionary
280
     1
  3
ACAD_XREC_ROUNDTRIP
360
42F
  0
XRECORD
  5
42D
102
{ACAD_REACTORS
330
42C
102
}
330
42C
100
AcDbXrecord
102
MATERIAL
148
0.0
149
0.0
149
0.0
 93
        0
 94
      127
282
     0
 72
     1
 77
     1
171
     1
175
     1
179
     1
273
     0
  0
XRECORD
  5
42B
102
{ACAD_REACTORS
330
42A
102
}
330
42A
100
AcDbXrecord
102
MATERIAL
148
0.0
149
0.0
149
0.0
 93
        0
 94
      127
282
     0
 72
     1
 77
     1
171
     1
175
     1
179
     1
273
     0
  0
XRECORD
  5
42F
102
{ACAD_REACTORS
330
42E
102
}
330
42E
100
AcDbXrecord
102
MATERIAL
148
0.0
149
0.0
149
0.0
 93
        0
 94
      127
282
     0
 72
     1
 77
     1
171
     1
175
     1
179
     1
273
     0
  0
ENDSEC
  0
EOF
