  0
SECTION
  2
HEADER
  9
$ACADVER
  1
AC1014
  9
$ACADMAINTVER
 70
     9
  9
$DWGCODEPAGE
  3
ANSI_932
  9
$INSBASE
 10
0.0
 20
0.0
 30
0.0
  9
$EXTMIN
 10
100.0
 20
200.0
 30
0.0
  9
$EXTMAX
 10
7700.000000000001
 20
5600.0
 30
0.0
  9
$LIMMIN
 10
0.0
 20
0.0
  9
$LIMMAX
 10
420.0
 20
297.0
  9
$ORTHOMODE
 70
     0
  9
$REGENMODE
 70
     1
  9
$FILLMODE
 70
     1
  9
$QTEXTMODE
 70
     0
  9
$MIRRTEXT
 70
     1
  9
$DRAGMODE
 70
     2
  9
$LTSCALE
 40
0.2
  9
$OSMODE
 70
    37
  9
$ATTMODE
 70
     1
  9
$TEXTSIZE
 40
2.5
  9
$TRACEWID
 40
1.0
  9
$TEXTSTYLE
  7
STANDARD
  9
$CLAYER
  8
LAY-10
  9
$CELTYPE
  6
BYLAYER
  9
$CECOLOR
 62
   256
  9
$CELTSCALE
 40
1.0
  9
$DELOBJ
 70
     1
  9
$DISPSILH
 70
     0
  9
$DIMSCALE
 40
1.0
  9
$DIMASZ
 40
2.5
  9
$DIMEXO
 40
0.625
  9
$DIMDLI
 40
3.75
  9
$DIMRND
 40
0.0
  9
$DIMDLE
 40
0.0
  9
$DIMEXE
 40
1.25
  9
$DIMTP
 40
0.0
  9
$DIMTM
 40
0.0
  9
$DIMTXT
 40
2.5
  9
$DIMCEN
 40
2.5
  9
$DIMTSZ
 40
0.0
  9
$DIMTOL
 70
     0
  9
$DIMLIM
 70
     0
  9
$DIMTIH
 70
     0
  9
$DIMTOH
 70
     0
  9
$DIMSE1
 70
     0
  9
$DIMSE2
 70
     0
  9
$DIMTAD
 70
     1
  9
$DIMZIN
 70
     8
  9
$DIMBLK
  1

  9
$DIMASO
 70
     1
  9
$DIMSHO
 70
     1
  9
$DIMPOST
  1

  9
$DIMAPOST
  1

  9
$DIMALT
 70
     0
  9
$DIMALTD
 70
     3
  9
$DIMALTF
 40
0.03937007874016
  9
$DIMLFAC
 40
1.0
  9
$DIMTOFL
 70
     1
  9
$DIMTVP
 40
0.0
  9
$DIMTIX
 70
     0
  9
$DIMSOXD
 70
     0
  9
$DIMSAH
 70
     0
  9
$DIMBLK1
  1

  9
$DIMBLK2
  1

  9
$DIMSTYLE
  2
ISO-25
  9
$DIMCLRD
 70
     0
  9
$DIMCLRE
 70
     0
  9
$DIMCLRT
 70
     0
  9
$DIMTFAC
 40
1.0
  9
$DIMGAP
 40
0.625
  9
$DIMJUST
 70
     0
  9
$DIMSD1
 70
     0
  9
$DIMSD2
 70
     0
  9
$DIMTOLJ
 70
     0
  9
$DIMTZIN
 70
     8
  9
$DIMALTZ
 70
     0
  9
$DIMALTTZ
 70
     0
  9
$DIMFIT
 70
     3
  9
$DIMUPT
 70
     0
  9
$DIMUNIT
 70
     2
  9
$DIMDEC
 70
     2
  9
$DIMTDEC
 70
     2
  9
$DIMALTU
 70
     2
  9
$DIMALTTD
 70
     3
  9
$DIMTXSTY
  7
STANDARD
  9
$DIMAUNIT
 70
     0
  9
$LUNITS
 70
     2
  9
$LUPREC
 70
     4
  9
$SKETCHINC
 40
1.0
  9
$FILLETRAD
 40
10.0
  9
$AUNITS
 70
     0
  9
$AUPREC
 70
     0
  9
$MENU
  1
.
  9
$ELEVATION
 40
0.0
  9
$PELEVATION
 40
0.0
  9
$THICKNESS
 40
0.0
  9
$LIMCHECK
 70
     0
  9
$CHAMFERA
 40
0.0
  9
$CHAMFERB
 40
0.0
  9
$CHAMFERC
 40
0.0
  9
$CHAMFERD
 40
0.0
  9
$SKPOLY
 70
     0
  9
$TDCREATE
 40
2459229.336109745
  9
$TDUPDATE
 40
2459229.336110185
  9
$TDINDWG
 40
0.0000000116
  9
$TDUSRTIMER
 40
0.0000000116
  9
$USRTIMER
 70
     1
  9
$ANGBASE
 50
0.0
  9
$ANGDIR
 70
     0
  9
$PDMODE
 70
     0
  9
$PDSIZE
 40
0.0
  9
$PLINEWID
 40
0.0
  9
$COORDS
 70
     1
  9
$SPLFRAME
 70
     0
  9
$SPLINETYPE
 70
     6
  9
$SPLINESEGS
 70
     8
  9
$ATTDIA
 70
     0
  9
$ATTREQ
 70
     1
  9
$HANDLING
 70
     1
  9
$HANDSEED
  5
418
  9
$SURFTAB1
 70
     6
  9
$SURFTAB2
 70
     6
  9
$SURFTYPE
 70
     6
  9
$SURFU
 70
     6
  9
$SURFV
 70
     6
  9
$UCSNAME
  2

  9
$UCSORG
 10
0.0
 20
0.0
 30
0.0
  9
$UCSXDIR
 10
1.0
 20
0.0
 30
0.0
  9
$UCSYDIR
 10
0.0
 20
1.0
 30
0.0
  9
$PUCSNAME
  2

  9
$PUCSORG
 10
0.0
 20
0.0
 30
0.0
  9
$PUCSXDIR
 10
1.0
 20
0.0
 30
0.0
  9
$PUCSYDIR
 10
0.0
 20
1.0
 30
0.0
  9
$USERI1
 70
     0
  9
$USERI2
 70
     0
  9
$USERI3
 70
     0
  9
$USERI4
 70
     0
  9
$USERI5
 70
     0
  9
$USERR1
 40
0.0
  9
$USERR2
 40
0.0
  9
$USERR3
 40
0.0
  9
$USERR4
 40
0.0
  9
$USERR5
 40
0.0
  9
$WORLDVIEW
 70
     1
  9
$SHADEDGE
 70
     3
  9
$SHADEDIF
 70
    70
  9
$TILEMODE
 70
     1
  9
$MAXACTVP
 70
    64
  9
$PINSBASE
 10
0.0
 20
0.0
 30
0.0
  9
$PLIMCHECK
 70
     0
  9
$PEXTMIN
 10
1.000000000000000E+20
 20
1.000000000000000E+20
 30
1.000000000000000E+20
  9
$PEXTMAX
 10
-1.000000000000000E+20
 20
-1.000000000000000E+20
 30
-1.000000000000000E+20
  9
$PLIMMIN
 10
0.0
 20
0.0
  9
$PLIMMAX
 10
420.0
 20
297.0
  9
$UNITMODE
 70
     0
  9
$VISRETAIN
 70
     1
  9
$PLINEGEN
 70
     0
  9
$PSLTSCALE
 70
     1
  9
$TREEDEPTH
 70
  3020
  9
$PICKSTYLE
 70
     1
  9
$CMLSTYLE
  2
STANDARD
  9
$CMLJUST
 70
     0
  9
$CMLSCALE
 40
20.0
  9
$PROXYGRAPHICS
 70
     1
  9
$MEASUREMENT
 70
     1
  0
ENDSEC
  0
SECTION
  2
CLASSES
  0
CLASS
  1
ACDBDICTIONARYWDFLT
  2
AcDbDictionaryWithDefault
  3
ObjectDBX Classes
 90
        0
280
     0
281
     0
  0
CLASS
  1
VISUALSTYLE
  2
AcDbVisualStyle
  3
ObjectDBX Classes
 90
     4095
280
     0
281
     0
  0
CLASS
  1
MATERIAL
  2
AcDbMaterial
  3
ObjectDBX Classes
 90
     1153
280
     0
281
     0
  0
CLASS
  1
SCALE
  2
AcDbScale
  3
ObjectDBX Classes
 90
     1153
280
     0
281
     0
  0
CLASS
  1
TABLESTYLE
  2
AcDbTableStyle
  3
ObjectDBX Classes
 90
     4095
280
     0
281
     0
  0
CLASS
  1
MLEADERSTYLE
  2
AcDbMLeaderStyle
  3
ACDB_MLEADERSTYLE_CLASS
 90
     4095
280
     0
281
     0
  0
CLASS
  1
SUN
  2
AcDbSun
  3
SCENEOE
 90
     1153
280
     0
281
     0
  0
CLASS
  1
DICTIONARYVAR
  2
AcDbDictionaryVar
  3
ObjectDBX Classes
 90
        0
280
     0
281
     0
  0
CLASS
  1
XRECORD
  2
AcDbXrecord
  3
ObjectDBX Classes
 90
        0
280
     0
281
     0
  0
CLASS
  1
LWPOLYLINE
  2
AcDbPolyline
  3
ObjectDBX Classes
 90
        0
280
     0
281
     1
  0
CLASS
  1
HATCH
  2
AcDbHatch
  3
ObjectDBX Classes
 90
        0
280
     0
281
     1
  0
CLASS
  1
ACDBPLACEHOLDER
  2
AcDbPlaceHolder
  3
ObjectDBX Classes
 90
        0
280
     0
281
     0
  0
CLASS
  1
LAYOUT
  2
AcDbLayout
  3
ObjectDBX Classes
 90
        0
280
     0
281
     0
  0
ENDSEC
  0
SECTION
  2
TABLES
  0
TABLE
  2
VPORT
  5
8
102
{ACAD_XDICTIONARY
360
40D
102
}
330
0
100
AcDbSymbolTable
 70
     1
  0
VPORT
  5
29
330
8
100
AcDbSymbolTableRecord
100
AcDbViewportTableRecord
  2
*ACTIVE
 70
     0
 10
0.0
 20
0.0
 11
1.0
 21
1.0
 12
3900.0
 22
2900.0
 13
0.0
 23
0.0
 14
10.0
 24
10.0
 15
10.0
 25
10.0
 16
0.0
 26
0.0
 36
1.0
 17
0.0
 27
0.0
 37
0.0
 40
5400.0
 41
1.407407407407408
 42
50.0
 43
0.0
 44
0.0
 50
0.0
 51
0.0
 71
     0
 72
  1000
 73
     1
 74
     3
 75
     0
 76
     0
 77
     0
 78
     0
  0
ENDTAB
  0
TABLE
  2
LTYPE
  5
5
330
0
100
AcDbSymbolTable
 70
     6
  0
LTYPE
  5
14
330
5
100
AcDbSymbolTableRecord
100
AcDbLinetypeTableRecord
  2
BYBLOCK
 70
     0
  3

 72
    65
 73
     0
 40
0.0
  0
LTYPE
  5
15
330
5
100
AcDbSymbolTableRecord
100
AcDbLinetypeTableRecord
  2
BYLAYER
 70
     0
  3

 72
    65
 73
     0
 40
0.0
  0
LTYPE
  5
16
330
5
100
AcDbSymbolTableRecord
100
AcDbLinetypeTableRecord
  2
CONTINUOUS
 70
     0
  3
Solid line
 72
    65
 73
     0
 40
0.0
  0
LTYPE
  5
6E
330
5
100
AcDbSymbolTableRecord
100
AcDbLinetypeTableRecord
  2
HIDDEN
 70
     0
  3
Hidden __ __ __ __ __ __ __ __ __ __ __ __ __ __
 72
    65
 73
     2
 40
9.524999999999999
 49
6.35
 74
     0
 49
-3.175
 74
     0
  0
LTYPE
  5
6F
330
5
100
AcDbSymbolTableRecord
100
AcDbLinetypeTableRecord
  2
CENTER
 70
     0
  3
Center ____ _ ____ _ ____ _ ____ _ ____ _ ____
 72
    65
 73
     4
 40
50.8
 49
31.75
 74
     0
 49
-6.35
 74
     0
 49
6.35
 74
     0
 49
-6.35
 74
     0
  0
LTYPE
  5
70
330
5
100
AcDbSymbolTableRecord
100
AcDbLinetypeTableRecord
  2
PHANTOM
 70
     0
  3
Phantom ______  __  __  ______  __  __  ______ 
 72
    65
 73
     6
 40
63.50000000000001
 49
31.75
 74
     0
 49
-6.35
 74
     0
 49
6.35
 74
     0
 49
-6.35
 74
     0
 49
6.35
 74
     0
 49
-6.35
 74
     0
  0
LTYPE
  5
71
330
5
100
AcDbSymbolTableRecord
100
AcDbLinetypeTableRecord
  2
ACAD_ISO06W100
 70
     0
  3
ISO long-dash triple-dot ____ ... ____ ... ____
 72
    65
 73
     8
 40
36.0
 49
24.0
 74
     0
 49
-3.0
 74
     0
 49
0.0
 74
     0
 49
-3.0
 74
     0
 49
0.0
 74
     0
 49
-3.0
 74
     0
 49
0.0
 74
     0
 49
-3.0
 74
     0
  0
LTYPE
  5
72
330
5
100
AcDbSymbolTableRecord
100
AcDbLinetypeTableRecord
  2
ACAD_ISO15W100
 70
     0
  3
ISO double-dash triple-dot __ __ . . . __ __ . .
 72
    65
 73
    10
 40
39.0
 49
12.0
 74
     0
 49
-3.0
 74
     0
 49
12.0
 74
     0
 49
-3.0
 74
     0
 49
0.0
 74
     0
 49
-3.0
 74
     0
 49
0.0
 74
     0
 49
-3.0
 74
     0
 49
0.0
 74
     0
 49
-3.0
 74
     0
  0
ENDTAB
  0
TABLE
  2
LAYER
  5
2
330
0
100
AcDbSymbolTable
 70
     5
  0
LAYER
  5
10
330
2
100
AcDbSymbolTableRecord
100
AcDbLayerTableRecord
  2
0
 70
     0
 62
     7
  6
CONTINUOUS
  0
LAYER
  5
75
330
2
100
AcDbSymbolTableRecord
100
AcDbLayerTableRecord
  2
LAY-10
 70
     0
 62
     7
  6
CONTINUOUS
  0
LAYER
  5
76
330
2
100
AcDbSymbolTableRecord
100
AcDbLayerTableRecord
  2
LAY-20
 70
     0
 62
     7
  6
CONTINUOUS
  0
LAYER
  5
77
330
2
100
AcDbSymbolTableRecord
100
AcDbLayerTableRecord
  2
LAY-255
 70
     0
 62
     7
  6
CONTINUOUS
  0
LAYER
  5
364
330
2
100
AcDbSymbolTableRecord
100
AcDbLayerTableRecord
  2
DEFPOINTS
 70
     0
 62
     7
  6
CONTINUOUS
  0
ENDTAB
  0
TABLE
  2
STYLE
  5
3
330
0
100
AcDbSymbolTable
 70
     4
  0
STYLE
  5
11
330
3
100
AcDbSymbolTableRecord
100
AcDbTextStyleTableRecord
  2
STANDARD
 70
     0
 40
0.0
 41
1.0
 50
0.0
 71
     0
 42
2.5
  3
simplex
  4
bigfont
  0
STYLE
  5
73
330
3
100
AcDbSymbolTableRecord
100
AcDbTextStyleTableRecord
  2
EXCADSTD
 70
     0
 40
0.0
 41
1.0
 50
0.0
 71
     0
 42
2.5
  3
simplex
  4
bigfont
  0
STYLE
  5
74
330
3
100
AcDbSymbolTableRecord
100
AcDbTextStyleTableRecord
  2
EXCADVERT
 70
     4
 40
0.0
 41
1.0
 50
0.0
 71
     0
 42
2.5
  3
simplex
  4
bigfont
  0
STYLE
  5
362
330
3
100
AcDbSymbolTableRecord
100
AcDbTextStyleTableRecord
  2
EXCADDIM1
 70
     0
 40
0.0
 41
0.84
 50
0.0
 71
     0
 42
2.5
  3
simplex
  4
bigfont
  0
ENDTAB
  0
TABLE
  2
VIEW
  5
6
330
0
100
AcDbSymbolTable
 70
     0
  0
ENDTAB
  0
TABLE
  2
UCS
  5
7
330
0
100
AcDbSymbolTable
 70
     0
  0
ENDTAB
  0
TABLE
  2
APPID
  5
9
330
0
100
AcDbSymbolTable
 70
     2
  0
APPID
  5
12
330
9
100
AcDbSymbolTableRecord
100
AcDbRegAppTableRecord
  2
ACAD
 70
     0
  0
APPID
  5
417
330
9
100
AcDbSymbolTableRecord
100
AcDbRegAppTableRecord
  2
ACAD_MLEADERVER
 70
     0
  0
ENDTAB
  0
TABLE
  2
DIMSTYLE
  5
A
330
0
100
AcDbSymbolTable
 70
     1
  0
DIMSTYLE
105
27
102
{ACAD_REACTORS
330
363
330
371
330
384
330
391
330
39E
330
3AB
102
}
330
A
100
AcDbSymbolTableRecord
100
AcDbDimStyleTableRecord
  2
ISO-25
 70
     0
  3

  4

  5

  6

  7

 40
1.0
 41
2.5
 42
0.625
 43
3.75
 44
1.25
 45
0.0
 46
0.0
 47
0.0
 48
0.0
140
2.5
141
2.5
142
0.0
143
0.03937007874016
144
1.0
145
0.0
146
1.0
147
0.625
 71
     0
 72
     0
 73
     0
 74
     0
 75
     0
 76
     0
 77
     1
 78
     8
170
     0
171
     3
172
     1
173
     0
174
     0
175
     0
176
     0
177
     0
178
     0
270
     2
271
     2
272
     2
273
     2
274
     3
340
11
275
     0
280
     0
281
     0
282
     0
283
     0
284
     8
285
     0
286
     0
287
     5
288
     0
  0
ENDTAB
  0
TABLE
  2
BLOCK_RECORD
  5
1
330
0
100
AcDbSymbolTable
 70
    20
  0
BLOCK_RECORD
  5
1F
330
1
100
AcDbSymbolTableRecord
100
AcDbBlockTableRecord
  2
*MODEL_SPACE
  0
BLOCK_RECORD
  5
1B
330
1
100
AcDbSymbolTableRecord
100
AcDbBlockTableRecord
  2
*PAPER_SPACE
  0
BLOCK_RECORD
  5
78
330
1
100
AcDbSymbolTableRecord
100
AcDbBlockTableRecord
  2
EX_NORM
  0
BLOCK_RECORD
  5
7B
330
1
100
AcDbSymbolTableRecord
100
AcDbBlockTableRecord
  2
EX_BNORM
  0
BLOCK_RECORD
  5
7E
330
1
100
AcDbSymbolTableRecord
100
AcDbBlockTableRecord
  2
EX_BCIR
  0
BLOCK_RECORD
  5
81
330
1
100
AcDbSymbolTableRecord
100
AcDbBlockTableRecord
  2
EX_RCIVIL
  0
BLOCK_RECORD
  5
84
330
1
100
AcDbSymbolTableRecord
100
AcDbBlockTableRecord
  2
EX_SLANT
  0
BLOCK_RECORD
  5
87
330
1
100
AcDbSymbolTableRecord
100
AcDbBlockTableRecord
  2
EX_NONE
  0
BLOCK_RECORD
  5
8A
330
1
100
AcDbSymbolTableRecord
100
AcDbBlockTableRecord
  2
EX_CIVIL
  0
BLOCK_RECORD
  5
8D
330
1
100
AcDbSymbolTableRecord
100
AcDbBlockTableRecord
  2
EX_WCIR
  0
BLOCK_RECORD
  5
90
330
1
100
AcDbSymbolTableRecord
100
AcDbBlockTableRecord
  2
EX_WCIR2
  0
BLOCK_RECORD
  5
93
330
1
100
AcDbSymbolTableRecord
100
AcDbBlockTableRecord
  2
EX_WNORM
  0
BLOCK_RECORD
  5
96
330
1
100
AcDbSymbolTableRecord
100
AcDbBlockTableRecord
  2
EX_NNORM
  0
BLOCK_RECORD
  5
99
330
1
100
AcDbSymbolTableRecord
100
AcDbBlockTableRecord
  2
EX_BBOX
  0
BLOCK_RECORD
  5
9C
330
1
100
AcDbSymbolTableRecord
100
AcDbBlockTableRecord
  2
EX_WBOX
  0
BLOCK_RECORD
  5
9F
330
1
100
AcDbSymbolTableRecord
100
AcDbBlockTableRecord
  2
EX_INTEGRAL
  0
BLOCK_RECORD
  5
365
330
1
100
AcDbSymbolTableRecord
100
AcDbBlockTableRecord
  2
*D15
  0
BLOCK_RECORD
  5
372
330
1
100
AcDbSymbolTableRecord
100
AcDbBlockTableRecord
  2
*D16
  0
BLOCK_RECORD
  5
385
330
1
100
AcDbSymbolTableRecord
100
AcDbBlockTableRecord
  2
*D17
  0
BLOCK_RECORD
  5
392
330
1
100
AcDbSymbolTableRecord
100
AcDbBlockTableRecord
  2
*D18
  0
BLOCK_RECORD
  5
39F
330
1
100
AcDbSymbolTableRecord
100
AcDbBlockTableRecord
  2
*D19
  0
BLOCK_RECORD
  5
3AC
330
1
100
AcDbSymbolTableRecord
100
AcDbBlockTableRecord
  2
*D20
  0
ENDTAB
  0
ENDSEC
  0
SECTION
  2
BLOCKS
  0
BLOCK
  5
20
330
1F
100
AcDbEntity
  8
0
100
AcDbBlockBegin
  2
*MODEL_SPACE
 70
     0
 10
0.0
 20
0.0
 30
0.0
  3
*MODEL_SPACE
  1

  0
ENDBLK
  5
21
330
1F
100
AcDbEntity
  8
0
100
AcDbBlockEnd
  0
BLOCK
  5
1C
330
1B
100
AcDbEntity
 67
     1
  8
0
100
AcDbBlockBegin
  2
*PAPER_SPACE
 70
     0
 10
0.0
 20
0.0
 30
0.0
  3
*PAPER_SPACE
  1

  0
ENDBLK
  5
1D
330
1B
100
AcDbEntity
 67
     1
  8
0
100
AcDbBlockEnd
  0
BLOCK
  5
79
330
78
100
AcDbEntity
  8
0
100
AcDbBlockBegin
  2
EX_NORM
 70
     0
 10
0.0
 20
0.0
 30
0.0
  3
EX_NORM
  1

  0
LINE
  5
A2
330
78
100
AcDbEntity
  8
0
  6
CONTINUOUS
 62
     0
100
AcDbLine
 10
0.0
 20
0.0
 30
0.0
 11
-1.0
 21
0.0
 31
0.0
  0
LINE
  5
A3
330
78
100
AcDbEntity
  8
0
  6
CONTINUOUS
 62
     0
100
AcDbLine
 10
0.0
 20
0.0
 30
0.0
 11
-1.0
 21
0.166666667
 31
0.0
  0
LINE
  5
A4
330
78
100
AcDbEntity
  8
0
  6
CONTINUOUS
 62
     0
100
AcDbLine
 10
0.0
 20
0.0
 30
0.0
 11
-1.0
 21
-0.166666667
 31
0.0
  0
ENDBLK
  5
7A
330
78
100
AcDbEntity
  8
0
100
AcDbBlockEnd
  0
BLOCK
  5
7C
330
7B
100
AcDbEntity
  8
0
100
AcDbBlockBegin
  2
EX_BNORM
 70
     0
 10
0.0
 20
0.0
 30
0.0
  3
EX_BNORM
  1

  0
LINE
  5
A5
330
7B
100
AcDbEntity
  8
0
  6
CONTINUOUS
 62
     0
100
AcDbLine
 10
0.0
 20
0.0
 30
0.0
 11
-1.0
 21
0.0
 31
0.0
  0
LINE
  5
A6
330
7B
100
AcDbEntity
  8
0
  6
CONTINUOUS
 62
     0
100
AcDbLine
 10
0.0
 20
0.0
 30
0.0
 11
-1.0
 21
0.166666667
 31
0.0
  0
LINE
  5
A7
330
7B
100
AcDbEntity
  8
0
  6
CONTINUOUS
 62
     0
100
AcDbLine
 10
0.0
 20
0.0
 30
0.0
 11
-1.0
 21
-0.166666667
 31
0.0
  0
LINE
  5
A8
330
7B
100
AcDbEntity
  8
0
  6
CONTINUOUS
 62
     0
100
AcDbLine
 10
0.0
 20
0.0
 30
0.0
 11
-1.0
 21
0.083333333
 31
0.0
  0
LINE
  5
A9
330
7B
100
AcDbEntity
  8
0
  6
CONTINUOUS
 62
     0
100
AcDbLine
 10
0.0
 20
0.0
 30
0.0
 11
-1.0
 21
-0.083333333
 31
0.0
  0
LINE
  5
AA
330
7B
100
AcDbEntity
  8
0
  6
CONTINUOUS
 62
     0
100
AcDbLine
 10
-1.0
 20
0.166666667
 30
0.0
 11
-1.0
 21
-0.166666667
 31
0.0
  0
ENDBLK
  5
7D
330
7B
100
AcDbEntity
  8
0
100
AcDbBlockEnd
  0
BLOCK
  5
7F
330
7E
100
AcDbEntity
  8
0
100
AcDbBlockBegin
  2
EX_BCIR
 70
     0
 10
0.0
 20
0.0
 30
0.0
  3
EX_BCIR
  1

  0
LINE
  5
AB
330
7E
100
AcDbEntity
  8
0
  6
CONTINUOUS
 62
     0
100
AcDbLine
 10
0.0
 20
0.0
 30
0.0
 11
-1.0
 21
0.0
 31
0.0
  0
CIRCLE
  5
AC
330
7E
100
AcDbEntity
  8
0
  6
CONTINUOUS
 62
     0
100
AcDbCircle
 10
0.0
 20
0.0
 30
0.0
 40
0.5
  0
CIRCLE
  5
AD
330
7E
100
AcDbEntity
  8
0
  6
CONTINUOUS
 62
     0
100
AcDbCircle
 10
0.0
 20
0.0
 30
0.0
 40
0.25
  0
ENDBLK
  5
80
330
7E
100
AcDbEntity
  8
0
100
AcDbBlockEnd
  0
BLOCK
  5
82
330
81
100
AcDbEntity
  8
0
100
AcDbBlockBegin
  2
EX_RCIVIL
 70
     0
 10
0.0
 20
0.0
 30
0.0
  3
EX_RCIVIL
  1

  0
LINE
  5
AE
330
81
100
AcDbEntity
  8
0
  6
CONTINUOUS
 62
     0
100
AcDbLine
 10
0.0
 20
0.0
 30
0.0
 11
-1.0
 21
0.0
 31
0.0
  0
LINE
  5
AF
330
81
100
AcDbEntity
  8
0
  6
CONTINUOUS
 62
     0
100
AcDbLine
 10
-1.0
 20
-0.25
 30
0.0
 11
0.0
 21
-0.25
 31
0.0
  0
LINE
  5
B0
330
81
100
AcDbEntity
  8
0
  6
CONTINUOUS
 62
     0
100
AcDbLine
 10
-1.0
 20
-0.125
 30
0.0
 11
0.0
 21
-0.125
 31
0.0
  0
ENDBLK
  5
83
330
81
100
AcDbEntity
  8
0
100
AcDbBlockEnd
  0
BLOCK
  5
85
330
84
100
AcDbEntity
  8
0
100
AcDbBlockBegin
  2
EX_SLANT
 70
     0
 10
0.0
 20
0.0
 30
0.0
  3
EX_SLANT
  1

  0
LINE
  5
B1
330
84
100
AcDbEntity
  8
0
  6
CONTINUOUS
 62
     0
100
AcDbLine
 10
0.0
 20
0.0
 30
0.0
 11
-1.0
 21
0.0
 31
0.0
  0
LINE
  5
B2
330
84
100
AcDbEntity
  8
0
  6
CONTINUOUS
 62
     0
100
AcDbLine
 10
0.707106781
 20
0.707106781
 30
0.0
 11
-0.707106781
 21
-0.707106781
 31
0.0
  0
ENDBLK
  5
86
330
84
100
AcDbEntity
  8
0
100
AcDbBlockEnd
  0
BLOCK
  5
88
330
87
100
AcDbEntity
  8
0
100
AcDbBlockBegin
  2
EX_NONE
 70
     0
 10
0.0
 20
0.0
 30
0.0
  3
EX_NONE
  1

  0
LINE
  5
B3
330
87
100
AcDbEntity
  8
0
  6
CONTINUOUS
 62
     0
100
AcDbLine
 10
0.0
 20
0.0
 30
0.0
 11
-1.0
 21
0.0
 31
0.0
  0
ENDBLK
  5
89
330
87
100
AcDbEntity
  8
0
100
AcDbBlockEnd
  0
BLOCK
  5
8B
330
8A
100
AcDbEntity
  8
0
100
AcDbBlockBegin
  2
EX_CIVIL
 70
     0
 10
0.0
 20
0.0
 30
0.0
  3
EX_CIVIL
  1

  0
LINE
  5
B4
330
8A
100
AcDbEntity
  8
0
  6
CONTINUOUS
 62
     0
100
AcDbLine
 10
0.0
 20
0.0
 30
0.0
 11
-1.0
 21
0.0
 31
0.0
  0
LINE
  5
B5
330
8A
100
AcDbEntity
  8
0
  6
CONTINUOUS
 62
     0
100
AcDbLine
 10
-1.0
 20
0.25
 30
0.0
 11
0.0
 21
0.25
 31
0.0
  0
LINE
  5
B6
330
8A
100
AcDbEntity
  8
0
  6
CONTINUOUS
 62
     0
100
AcDbLine
 10
-1.0
 20
0.125
 30
0.0
 11
0.0
 21
0.125
 31
0.0
  0
ENDBLK
  5
8C
330
8A
100
AcDbEntity
  8
0
100
AcDbBlockEnd
  0
BLOCK
  5
8E
330
8D
100
AcDbEntity
  8
0
100
AcDbBlockBegin
  2
EX_WCIR
 70
     0
 10
0.0
 20
0.0
 30
0.0
  3
EX_WCIR
  1

  0
LINE
  5
B7
330
8D
100
AcDbEntity
  8
0
  6
CONTINUOUS
 62
     0
100
AcDbLine
 10
0.0
 20
0.0
 30
0.0
 11
-1.0
 21
0.0
 31
0.0
  0
CIRCLE
  5
B8
330
8D
100
AcDbEntity
  8
0
  6
CONTINUOUS
 62
     0
100
AcDbCircle
 10
0.0
 20
0.0
 30
0.0
 40
0.5
  0
ENDBLK
  5
8F
330
8D
100
AcDbEntity
  8
0
100
AcDbBlockEnd
  0
BLOCK
  5
91
330
90
100
AcDbEntity
  8
0
100
AcDbBlockBegin
  2
EX_WCIR2
 70
     0
 10
0.0
 20
0.0
 30
0.0
  3
EX_WCIR2
  1

  0
LINE
  5
B9
330
90
100
AcDbEntity
  8
0
  6
CONTINUOUS
 62
     0
100
AcDbLine
 10
-0.5
 20
0.0
 30
0.0
 11
-1.0
 21
0.0
 31
0.0
  0
CIRCLE
  5
BA
330
90
100
AcDbEntity
  8
0
  6
CONTINUOUS
 62
     0
100
AcDbCircle
 10
0.0
 20
0.0
 30
0.0
 40
0.5
  0
ENDBLK
  5
92
330
90
100
AcDbEntity
  8
0
100
AcDbBlockEnd
  0
BLOCK
  5
94
330
93
100
AcDbEntity
  8
0
100
AcDbBlockBegin
  2
EX_WNORM
 70
     0
 10
0.0
 20
0.0
 30
0.0
  3
EX_WNORM
  1

  0
LINE
  5
BB
330
93
100
AcDbEntity
  8
0
  6
CONTINUOUS
 62
     0
100
AcDbLine
 10
-1.0
 20
0.0
 30
0.0
 11
-1.0
 21
0.0
 31
0.0
  0
LINE
  5
BC
330
93
100
AcDbEntity
  8
0
  6
CONTINUOUS
 62
     0
100
AcDbLine
 10
0.0
 20
0.0
 30
0.0
 11
-1.0
 21
0.166666667
 31
0.0
  0
LINE
  5
BD
330
93
100
AcDbEntity
  8
0
  6
CONTINUOUS
 62
     0
100
AcDbLine
 10
0.0
 20
0.0
 30
0.0
 11
-1.0
 21
-0.166666667
 31
0.0
  0
LINE
  5
BE
330
93
100
AcDbEntity
  8
0
  6
CONTINUOUS
 62
     0
100
AcDbLine
 10
-1.0
 20
0.166666667
 30
0.0
 11
-1.0
 21
-0.166666667
 31
0.0
  0
ENDBLK
  5
95
330
93
100
AcDbEntity
  8
0
100
AcDbBlockEnd
  0
BLOCK
  5
97
330
96
100
AcDbEntity
  8
0
100
AcDbBlockBegin
  2
EX_NNORM
 70
     0
 10
0.0
 20
0.0
 30
0.0
  3
EX_NNORM
  1

  0
LINE
  5
BF
330
96
100
AcDbEntity
  8
0
  6
CONTINUOUS
 62
     0
100
AcDbLine
 10
0.0
 20
0.0
 30
0.0
 11
-1.0
 21
0.0
 31
0.0
  0
LINE
  5
C0
330
96
100
AcDbEntity
  8
0
  6
CONTINUOUS
 62
     0
100
AcDbLine
 10
0.0
 20
0.0
 30
0.0
 11
-1.0
 21
0.166666667
 31
0.0
  0
LINE
  5
C1
330
96
100
AcDbEntity
  8
0
  6
CONTINUOUS
 62
     0
100
AcDbLine
 10
0.0
 20
0.0
 30
0.0
 11
-1.0
 21
-0.166666667
 31
0.0
  0
LINE
  5
C2
330
96
100
AcDbEntity
  8
0
  6
CONTINUOUS
 62
     0
100
AcDbLine
 10
-1.0
 20
0.166666667
 30
0.0
 11
-1.0
 21
-0.166666667
 31
0.0
  0
ENDBLK
  5
98
330
96
100
AcDbEntity
  8
0
100
AcDbBlockEnd
  0
BLOCK
  5
9A
330
99
100
AcDbEntity
  8
0
100
AcDbBlockBegin
  2
EX_BBOX
 70
     0
 10
0.0
 20
0.0
 30
0.0
  3
EX_BBOX
  1

  0
LINE
  5
C3
330
99
100
AcDbEntity
  8
0
  6
CONTINUOUS
 62
     0
100
AcDbLine
 10
0.0
 20
0.0
 30
0.0
 11
-1.0
 21
0.0
 31
0.0
  0
LINE
  5
C4
330
99
100
AcDbEntity
  8
0
  6
CONTINUOUS
 62
     0
100
AcDbLine
 10
-0.5
 20
0.5
 30
0.0
 11
0.5
 21
0.5
 31
0.0
  0
LINE
  5
C5
330
99
100
AcDbEntity
  8
0
  6
CONTINUOUS
 62
     0
100
AcDbLine
 10
0.5
 20
0.5
 30
0.0
 11
0.5
 21
-0.5
 31
0.0
  0
LINE
  5
C6
330
99
100
AcDbEntity
  8
0
  6
CONTINUOUS
 62
     0
100
AcDbLine
 10
0.5
 20
-0.5
 30
0.0
 11
-0.5
 21
-0.5
 31
0.0
  0
LINE
  5
C7
330
99
100
AcDbEntity
  8
0
  6
CONTINUOUS
 62
     0
100
AcDbLine
 10
-0.5
 20
-0.5
 30
0.0
 11
-0.5
 21
0.5
 31
0.0
  0
LINE
  5
C8
330
99
100
AcDbEntity
  8
0
  6
CONTINUOUS
 62
     0
100
AcDbLine
 10
-0.25
 20
0.25
 30
0.0
 11
0.25
 21
0.25
 31
0.0
  0
LINE
  5
C9
330
99
100
AcDbEntity
  8
0
  6
CONTINUOUS
 62
     0
100
AcDbLine
 10
0.25
 20
0.25
 30
0.0
 11
0.25
 21
-0.25
 31
0.0
  0
LINE
  5
CA
330
99
100
AcDbEntity
  8
0
  6
CONTINUOUS
 62
     0
100
AcDbLine
 10
0.25
 20
-0.25
 30
0.0
 11
-0.25
 21
-0.25
 31
0.0
  0
LINE
  5
CB
330
99
100
AcDbEntity
  8
0
  6
CONTINUOUS
 62
     0
100
AcDbLine
 10
-0.25
 20
-0.25
 30
0.0
 11
-0.25
 21
0.25
 31
0.0
  0
ENDBLK
  5
9B
330
99
100
AcDbEntity
  8
0
100
AcDbBlockEnd
  0
BLOCK
  5
9D
330
9C
100
AcDbEntity
  8
0
100
AcDbBlockBegin
  2
EX_WBOX
 70
     0
 10
0.0
 20
0.0
 30
0.0
  3
EX_WBOX
  1

  0
LINE
  5
CC
330
9C
100
AcDbEntity
  8
0
  6
CONTINUOUS
 62
     0
100
AcDbLine
 10
-0.5
 20
0.0
 30
0.0
 11
-1.0
 21
0.0
 31
0.0
  0
LINE
  5
CD
330
9C
100
AcDbEntity
  8
0
  6
CONTINUOUS
 62
     0
100
AcDbLine
 10
-0.5
 20
0.5
 30
0.0
 11
0.5
 21
0.5
 31
0.0
  0
LINE
  5
CE
330
9C
100
AcDbEntity
  8
0
  6
CONTINUOUS
 62
     0
100
AcDbLine
 10
0.5
 20
0.5
 30
0.0
 11
0.5
 21
-0.5
 31
0.0
  0
LINE
  5
CF
330
9C
100
AcDbEntity
  8
0
  6
CONTINUOUS
 62
     0
100
AcDbLine
 10
0.5
 20
-0.5
 30
0.0
 11
-0.5
 21
-0.5
 31
0.0
  0
LINE
  5
D0
330
9C
100
AcDbEntity
  8
0
  6
CONTINUOUS
 62
     0
100
AcDbLine
 10
-0.5
 20
-0.5
 30
0.0
 11
-0.5
 21
0.5
 31
0.0
  0
ENDBLK
  5
9E
330
9C
100
AcDbEntity
  8
0
100
AcDbBlockEnd
  0
BLOCK
  5
A0
330
9F
100
AcDbEntity
  8
0
100
AcDbBlockBegin
  2
EX_INTEGRAL
 70
     0
 10
0.0
 20
0.0
 30
0.0
  3
EX_INTEGRAL
  1

  0
LINE
  5
D1
330
9F
100
AcDbEntity
  8
0
  6
CONTINUOUS
 62
     0
100
AcDbLine
 10
0.0
 20
0.0
 30
0.0
 11
-1.0
 21
0.0
 31
0.0
  0
ARC
  5
D2
330
9F
100
AcDbEntity
  8
0
  6
CONTINUOUS
 62
     0
100
AcDbCircle
 10
0.542115
 20
0.164992
 30
0.0
 40
0.56667
100
AcDbArc
 50
73.07249033629006
 51
196.9275130221199
  0
ARC
  5
D3
330
9F
100
AcDbEntity
  8
0
  6
CONTINUOUS
 62
     0
100
AcDbCircle
 10
-0.542115
 20
-0.164992
 30
0.0
 40
0.56667
100
AcDbArc
 50
253.0724869220464
 51
16.9275130559125
  0
ENDBLK
  5
A1
330
9F
100
AcDbEntity
  8
0
100
AcDbBlockEnd
  0
BLOCK
  5
366
330
365
100
AcDbEntity
  8
0
100
AcDbBlockBegin
  2
*D15
 70
     1
 10
0.0
 20
0.0
 30
0.0
  3
*D15
  1

  0
LINE
  5
368
330
365
100
AcDbEntity
  8
LAY-20
  6
CONTINUOUS
 62
     4
100
AcDbLine
 10
2199.999999999999
 20
1141.999999999998
 30
0.0
 11
2000.0
 21
1141.999999999998
 31
0.0
  0
LINE
  5
369
330
365
100
AcDbEntity
  8
LAY-20
  6
CONTINUOUS
 62
     4
100
AcDbLine
 10
2645.699999999999
 20
2791.999999999998
 30
0.0
 11
2000.0
 21
2791.999999999998
 31
0.0
  0
LINE
  5
36A
330
365
100
AcDbEntity
  8
LAY-20
  6
CONTINUOUS
 62
     4
100
AcDbLine
 10
2030.0
 20
1191.999999999998
 30
0.0
 11
2030.0
 21
2741.999999999998
 31
0.0
  0
INSERT
  5
36B
330
365
100
AcDbEntity
  8
LAY-20
 62
     4
100
AcDbBlockReference
  2
EX_BNORM
 10
2030.0
 20
1141.999999999998
 30
0.0
 41
50.0
 42
50.0
 43
50.0
 50
270.0
  0
INSERT
  5
36C
330
365
100
AcDbEntity
  8
LAY-20
 62
     4
100
AcDbBlockReference
  2
EX_BNORM
 10
2030.0
 20
2791.999999999998
 30
0.0
 41
50.0
 42
50.0
 43
50.0
 50
90.0
  0
MTEXT
  5
36D
330
365
100
AcDbEntity
  8
LAY-20
 62
     7
100
AcDbMText
 10
1980.0
 20
1966.999999999998
 30
0.0
 40
62.362208
 41
0.0
 71
     5
 72
     1
  1
1650
  7
EXCADDIM1
 11
0.0
 21
1.0
 31
0.0
  0
POINT
  5
36E
330
365
100
AcDbEntity
  8
DEFPOINTS
 62
     0
100
AcDbPoint
 10
2229.999999999999
 20
1141.999999999998
 30
0.0
  0
POINT
  5
36F
330
365
100
AcDbEntity
  8
DEFPOINTS
 62
     0
100
AcDbPoint
 10
2675.699999999999
 20
2791.999999999998
 30
0.0
  0
POINT
  5
370
330
365
100
AcDbEntity
  8
DEFPOINTS
 62
     0
100
AcDbPoint
 10
2030.0
 20
2791.999999999998
 30
0.0
  0
ENDBLK
  5
367
330
365
100
AcDbEntity
  8
0
100
AcDbBlockEnd
  0
BLOCK
  5
373
330
372
100
AcDbEntity
  8
0
100
AcDbBlockBegin
  2
*D16
 70
     1
 10
0.0
 20
0.0
 30
0.0
  3
*D16
  1

  0
LINE
  5
375
330
372
100
AcDbEntity
  8
LAY-20
  6
CONTINUOUS
 62
     4
100
AcDbLine
 10
2199.999999999999
 20
491.9999999999979
 30
0.0
 11
2000.0
 21
491.9999999999977
 31
0.0
  0
LINE
  5
376
330
372
100
AcDbEntity
  8
LAY-20
  6
CONTINUOUS
 62
     4
100
AcDbLine
 10
2030.0
 20
541.9999999999977
 30
0.0
 11
2030.0
 21
1091.999999999998
 31
0.0
  0
INSERT
  5
377
330
372
100
AcDbEntity
  8
LAY-20
 62
     4
100
AcDbBlockReference
  2
EX_BNORM
 10
2030.0
 20
491.9999999999977
 30
0.0
 41
50.0
 42
50.0
 43
50.0
 50
270.0
  0
INSERT
  5
378
330
372
100
AcDbEntity
  8
LAY-20
 62
     4
100
AcDbBlockReference
  2
EX_BNORM
 10
2030.0
 20
1141.999999999998
 30
0.0
 41
50.0
 42
50.0
 43
50.0
 50
90.0
  0
MTEXT
  5
379
330
372
100
AcDbEntity
  8
LAY-20
 62
     7
100
AcDbMText
 10
1980.0
 20
816.9999999999978
 30
0.0
 40
62.362208
 41
0.0
 71
     5
 72
     1
  1
650
  7
EXCADDIM1
 11
0.0
 21
1.0
 31
0.0
  0
POINT
  5
37A
330
372
100
AcDbEntity
  8
DEFPOINTS
 62
     0
100
AcDbPoint
 10
2229.999999999999
 20
491.9999999999979
 30
0.0
  0
POINT
  5
37B
330
372
100
AcDbEntity
  8
DEFPOINTS
 62
     0
100
AcDbPoint
 10
2030.0
 20
1141.999999999998
 30
0.0
  0
POINT
  5
37C
330
372
100
AcDbEntity
  8
DEFPOINTS
 62
     0
100
AcDbPoint
 10
2030.0
 20
1141.999999999998
 30
0.0
  0
ENDBLK
  5
374
330
372
100
AcDbEntity
  8
0
100
AcDbBlockEnd
  0
BLOCK
  5
386
330
385
100
AcDbEntity
  8
0
100
AcDbBlockBegin
  2
*D17
 70
     1
 10
0.0
 20
0.0
 30
0.0
  3
*D17
  1

  0
LINE
  5
388
330
385
100
AcDbEntity
  8
LAY-20
  6
CONTINUOUS
 62
     4
100
AcDbLine
 10
3500.000000000005
 20
4229.999999999999
 30
0.0
 11
3500.000000000005
 21
4980.000000000002
 31
0.0
  0
LINE
  5
389
330
385
100
AcDbEntity
  8
LAY-20
  6
CONTINUOUS
 62
     4
100
AcDbLine
 10
2299.999999999995
 20
4229.999999999999
 30
0.0
 11
2299.999999999995
 21
4980.000000000002
 31
0.0
  0
LINE
  5
38A
330
385
100
AcDbEntity
  8
LAY-20
  6
CONTINUOUS
 62
     4
100
AcDbLine
 10
3450.000000000005
 20
4950.000000000002
 30
0.0
 11
2349.999999999995
 21
4950.000000000002
 31
0.0
  0
INSERT
  5
38B
330
385
100
AcDbEntity
  8
LAY-20
 62
     4
100
AcDbBlockReference
  2
EX_BNORM
 10
3500.000000000005
 20
4950.000000000002
 30
0.0
 41
50.0
 42
50.0
 43
50.0
  0
INSERT
  5
38C
330
385
100
AcDbEntity
  8
LAY-20
 62
     4
100
AcDbBlockReference
  2
EX_BNORM
 10
2299.999999999995
 20
4950.000000000002
 30
0.0
 41
50.0
 42
50.0
 43
50.0
 50
180.0
  0
MTEXT
  5
38D
330
385
100
AcDbEntity
  8
LAY-20
 62
     7
100
AcDbMText
 10
2900.000000000001
 20
5000.000000000002
 30
0.0
 40
62.362208
 41
0.0
 71
     5
 72
     1
  1
1200
  7
EXCADDIM1
  0
POINT
  5
38E
330
385
100
AcDbEntity
  8
DEFPOINTS
 62
     0
100
AcDbPoint
 10
3500.000000000005
 20
4199.999999999999
 30
0.0
  0
POINT
  5
38F
330
385
100
AcDbEntity
  8
DEFPOINTS
 62
     0
100
AcDbPoint
 10
2299.999999999995
 20
4199.999999999999
 30
0.0
  0
POINT
  5
390
330
385
100
AcDbEntity
  8
DEFPOINTS
 62
     0
100
AcDbPoint
 10
2299.999999999995
 20
4950.000000000002
 30
0.0
  0
ENDBLK
  5
387
330
385
100
AcDbEntity
  8
0
100
AcDbBlockEnd
  0
BLOCK
  5
393
330
392
100
AcDbEntity
  8
0
100
AcDbBlockBegin
  2
*D18
 70
     1
 10
0.0
 20
0.0
 30
0.0
  3
*D18
  1

  0
LINE
  5
395
330
392
100
AcDbEntity
  8
LAY-20
  6
CONTINUOUS
 62
     4
100
AcDbLine
 10
2700.0
 20
4230.0
 30
0.0
 11
2700.0
 21
4640.0
 31
0.0
  0
LINE
  5
396
330
392
100
AcDbEntity
  8
LAY-20
  6
CONTINUOUS
 62
     4
100
AcDbLine
 10
3100.0
 20
4230.0
 30
0.0
 11
3100.0
 21
4640.0
 31
0.0
  0
LINE
  5
397
330
392
100
AcDbEntity
  8
LAY-20
  6
CONTINUOUS
 62
     4
100
AcDbLine
 10
2750.0
 20
4610.0
 30
0.0
 11
3050.0
 21
4610.0
 31
0.0
  0
INSERT
  5
398
330
392
100
AcDbEntity
  8
LAY-20
 62
     4
100
AcDbBlockReference
  2
EX_BNORM
 10
2700.0
 20
4610.0
 30
0.0
 41
50.0
 42
50.0
 43
50.0
 50
180.0
  0
INSERT
  5
399
330
392
100
AcDbEntity
  8
LAY-20
 62
     4
100
AcDbBlockReference
  2
EX_BNORM
 10
3100.0
 20
4610.0
 30
0.0
 41
50.0
 42
50.0
 43
50.0
  0
MTEXT
  5
39A
330
392
100
AcDbEntity
  8
LAY-20
 62
     7
100
AcDbMText
 10
2900.0
 20
4660.0
 30
0.0
 40
62.362208
 41
0.0
 71
     5
 72
     1
  1
%%c400
  7
EXCADDIM1
  0
POINT
  5
39B
330
392
100
AcDbEntity
  8
DEFPOINTS
 62
     0
100
AcDbPoint
 10
2700.0
 20
4200.0
 30
0.0
  0
POINT
  5
39C
330
392
100
AcDbEntity
  8
DEFPOINTS
 62
     0
100
AcDbPoint
 10
3100.0
 20
4200.0
 30
0.0
  0
POINT
  5
39D
330
392
100
AcDbEntity
  8
DEFPOINTS
 62
     0
100
AcDbPoint
 10
3100.0
 20
4610.0
 30
0.0
  0
ENDBLK
  5
394
330
392
100
AcDbEntity
  8
0
100
AcDbBlockEnd
  0
BLOCK
  5
3A0
330
39F
100
AcDbEntity
  8
0
100
AcDbBlockBegin
  2
*D19
 70
     1
 10
0.0
 20
0.0
 30
0.0
  3
*D19
  1

  0
LINE
  5
3A2
330
39F
100
AcDbEntity
  8
LAY-20
  6
CONTINUOUS
 62
     4
100
AcDbLine
 10
2724.3
 20
2314.0
 30
0.0
 11
2675.7
 21
2314.0
 31
0.0
  0
LINE
  5
3A3
330
39F
100
AcDbEntity
  8
LAY-20
  6
CONTINUOUS
 62
     4
100
AcDbLine
 10
2774.3
 20
2314.0
 30
0.0
 11
2824.3
 21
2314.0
 31
0.0
  0
LINE
  5
3A4
330
39F
100
AcDbEntity
  8
LAY-20
  6
CONTINUOUS
 62
     4
100
AcDbLine
 10
2625.7
 20
2314.0
 30
0.0
 11
2575.7
 21
2314.0
 31
0.0
  0
INSERT
  5
3A5
330
39F
100
AcDbEntity
  8
LAY-20
 62
     4
100
AcDbBlockReference
  2
EX_BNORM
 10
2724.3
 20
2314.0
 30
0.0
 41
50.0
 42
50.0
 43
50.0
 50
180.0
  0
INSERT
  5
3A6
330
39F
100
AcDbEntity
  8
LAY-20
 62
     4
100
AcDbBlockReference
  2
EX_BNORM
 10
2675.7
 20
2314.0
 30
0.0
 41
50.0
 42
50.0
 43
50.0
  0
MTEXT
  5
3A7
330
39F
100
AcDbEntity
  8
LAY-20
 62
     7
100
AcDbMText
 10
2485.700000000001
 20
2364.0
 30
0.0
 40
62.362208
 41
0.0
 71
     5
 72
     1
  1
%%c48.6
  7
EXCADDIM1
  0
POINT
  5
3A8
330
39F
100
AcDbEntity
  8
DEFPOINTS
 62
     0
100
AcDbPoint
 10
2724.3
 20
2324.5
 30
0.0
  0
POINT
  5
3A9
330
39F
100
AcDbEntity
  8
DEFPOINTS
 62
     0
100
AcDbPoint
 10
2675.7
 20
2324.5
 30
0.0
  0
POINT
  5
3AA
330
39F
100
AcDbEntity
  8
DEFPOINTS
 62
     0
100
AcDbPoint
 10
2675.7
 20
2314.0
 30
0.0
  0
ENDBLK
  5
3A1
330
39F
100
AcDbEntity
  8
0
100
AcDbBlockEnd
  0
BLOCK
  5
3AD
330
3AC
100
AcDbEntity
  8
0
100
AcDbBlockBegin
  2
*D20
 70
     1
 10
0.0
 20
0.0
 30
0.0
  3
*D20
  1

  0
LINE
  5
3AF
330
3AC
100
AcDbEntity
  8
LAY-20
  6
CONTINUOUS
 62
     4
100
AcDbLine
 10
2370.0
 20
1172.0
 30
0.0
 11
2370.0
 21
1372.0
 31
0.0
  0
LINE
  5
3B0
330
3AC
100
AcDbEntity
  8
LAY-20
  6
CONTINUOUS
 62
     4
100
AcDbLine
 10
2230.0
 20
1172.0
 30
0.0
 11
2230.0
 21
1372.0
 31
0.0
  0
LINE
  5
3B1
330
3AC
100
AcDbEntity
  8
LAY-20
  6
CONTINUOUS
 62
     4
100
AcDbLine
 10
2320.0
 20
1342.0
 30
0.0
 11
2280.0
 21
1342.0
 31
0.0
  0
INSERT
  5
3B2
330
3AC
100
AcDbEntity
  8
LAY-20
 62
     4
100
AcDbBlockReference
  2
EX_BNORM
 10
2370.0
 20
1342.0
 30
0.0
 41
50.0
 42
50.0
 43
50.0
  0
INSERT
  5
3B3
330
3AC
100
AcDbEntity
  8
LAY-20
 62
     4
100
AcDbBlockReference
  2
EX_BNORM
 10
2230.0
 20
1342.0
 30
0.0
 41
50.0
 42
50.0
 43
50.0
 50
180.0
  0
MTEXT
  5
3B4
330
3AC
100
AcDbEntity
  8
LAY-20
 62
     7
100
AcDbMText
 10
2300.0
 20
1392.0
 30
0.0
 40
62.362208
 41
0.0
 71
     5
 72
     1
  1
%%c140
  7
EXCADDIM1
  0
POINT
  5
3B5
330
3AC
100
AcDbEntity
  8
DEFPOINTS
 62
     0
100
AcDbPoint
 10
2370.0
 20
1142.0
 30
0.0
  0
POINT
  5
3B6
330
3AC
100
AcDbEntity
  8
DEFPOINTS
 62
     0
100
AcDbPoint
 10
2230.0
 20
1142.0
 30
0.0
  0
POINT
  5
3B7
330
3AC
100
AcDbEntity
  8
DEFPOINTS
 62
     0
100
AcDbPoint
 10
2230.0
 20
1342.0
 30
0.0
  0
ENDBLK
  5
3AE
330
3AC
100
AcDbEntity
  8
0
100
AcDbBlockEnd
  0
ENDSEC
  0
SECTION
  2
ENTITIES
  0
LINE
  5
D4
330
1F
100
AcDbEntity
  8
LAY-10
  6
CONTINUOUS
 62
     7
100
AcDbLine
 10
2275.699999999998
 20
1100.000000000001
 30
0.0
 11
2269.647999999998
 21
1100.000000000001
 31
0.0
  0
LINE
  5
D5
330
1F
100
AcDbEntity
  8
LAY-10
  6
CONTINUOUS
 62
     7
100
AcDbLine
 10
2275.699999999998
 20
1096.000000000001
 30
0.0
 11
2269.647999999998
 21
1096.000000000001
 31
0.0
  0
LINE
  5
D6
330
1F
100
AcDbEntity
  8
LAY-10
  6
CONTINUOUS
 62
     7
100
AcDbLine
 10
2275.699999999998
 20
1084.0
 30
0.0
 11
2269.647999999998
 21
1084.0
 31
0.0
  0
ARC
  5
D7
330
1F
100
AcDbEntity
  8
LAY-10
  6
CONTINUOUS
 62
     7
100
AcDbCircle
 10
2271.947796791442
 20
1098.000000000001
 30
0.0
 40
3.047796791443853
100
AcDbArc
 50
138.9884064077224
 51
221.0115935923049
  0
ARC
  5
D8
330
1F
100
AcDbEntity
  8
LAY-10
  6
CONTINUOUS
 62
     7
100
AcDbCircle
 10
2279.969187165774
 20
1092.000000000001
 30
0.0
 40
11.06918716577541
100
AcDbArc
 50
158.8160443417777
 51
201.1839556582286
  0
ARC
  5
D9
330
1F
100
AcDbEntity
  8
LAY-10
  6
CONTINUOUS
 62
     7
100
AcDbCircle
 10
2271.947796791442
 20
1086.000000000001
 30
0.0
 40
3.047796791443853
100
AcDbArc
 50
138.9884064077193
 51
221.0115935923049
  0
LINE
  5
DA
330
1F
100
AcDbEntity
  8
LAY-10
  6
CONTINUOUS
 62
     7
100
AcDbLine
 10
2268.899999999998
 20
1098.000000000001
 30
0.0
 11
2268.899999999998
 21
1086.000000000001
 31
0.0
  0
LINE
  5
DB
330
1F
100
AcDbEntity
  8
LAY-10
  6
CONTINUOUS
 62
     7
100
AcDbLine
 10
2324.299999999998
 20
1100.000000000001
 30
0.0
 11
2330.351999999999
 21
1100.000000000001
 31
0.0
  0
LINE
  5
DC
330
1F
100
AcDbEntity
  8
LAY-10
  6
CONTINUOUS
 62
     7
100
AcDbLine
 10
2324.299999999998
 20
1096.000000000001
 30
0.0
 11
2330.351999999999
 21
1096.000000000001
 31
0.0
  0
LINE
  5
DD
330
1F
100
AcDbEntity
  8
LAY-10
  6
CONTINUOUS
 62
     7
100
AcDbLine
 10
2324.299999999998
 20
1084.0
 30
0.0
 11
2330.351999999999
 21
1084.0
 31
0.0
  0
ARC
  5
DE
330
1F
100
AcDbEntity
  8
LAY-10
  6
CONTINUOUS
 62
     7
100
AcDbCircle
 10
2328.052203208555
 20
1098.000000000001
 30
0.0
 40
3.047796791443853
100
AcDbArc
 50
318.9884064076952
 51
41.01159359228075
  0
ARC
  5
DF
330
1F
100
AcDbEntity
  8
LAY-10
  6
CONTINUOUS
 62
     7
100
AcDbCircle
 10
2320.030812834224
 20
1092.000000000001
 30
0.0
 40
11.06918716577541
100
AcDbArc
 50
338.8160443417673
 51
21.18395565822644
  0
ARC
  5
E0
330
1F
100
AcDbEntity
  8
LAY-10
  6
CONTINUOUS
 62
     7
100
AcDbCircle
 10
2328.052203208555
 20
1086.000000000001
 30
0.0
 40
3.047796791443853
100
AcDbArc
 50
318.9884064076952
 51
41.01159359228075
  0
LINE
  5
E1
330
1F
100
AcDbEntity
  8
LAY-10
  6
CONTINUOUS
 62
     7
100
AcDbLine
 10
2331.099999999999
 20
1098.000000000001
 30
0.0
 11
2331.099999999999
 21
1086.000000000001
 31
0.0
  0
LINE
  5
E2
330
1F
100
AcDbEntity
  8
LAY-10
  6
CONTINUOUS
 62
     7
100
AcDbLine
 10
2275.699999999998
 20
900.0000000000014
 30
0.0
 11
2269.647999999998
 21
900.0000000000014
 31
0.0
  0
LINE
  5
E3
330
1F
100
AcDbEntity
  8
LAY-10
  6
CONTINUOUS
 62
     7
100
AcDbLine
 10
2275.699999999998
 20
896.0000000000009
 30
0.0
 11
2269.647999999998
 21
896.0000000000009
 31
0.0
  0
LINE
  5
E4
330
1F
100
AcDbEntity
  8
LAY-10
  6
CONTINUOUS
 62
     7
100
AcDbLine
 10
2275.699999999998
 20
884.0000000000011
 30
0.0
 11
2269.647999999998
 21
884.0000000000011
 31
0.0
  0
ARC
  5
E5
330
1F
100
AcDbEntity
  8
LAY-10
  6
CONTINUOUS
 62
     7
100
AcDbCircle
 10
2271.947796791442
 20
898.0000000000009
 30
0.0
 40
3.047796791443853
100
AcDbArc
 50
138.9884064076951
 51
221.0115935922896
  0
ARC
  5
E6
330
1F
100
AcDbEntity
  8
LAY-10
  6
CONTINUOUS
 62
     7
100
AcDbCircle
 10
2279.969187165774
 20
892.0000000000007
 30
0.0
 40
11.06918716577541
100
AcDbArc
 50
158.8160443417694
 51
201.183955658219
  0
ARC
  5
E7
330
1F
100
AcDbEntity
  8
LAY-10
  6
CONTINUOUS
 62
     7
100
AcDbCircle
 10
2271.947796791442
 20
886.0000000000009
 30
0.0
 40
3.047796791443853
100
AcDbArc
 50
138.9884064076951
 51
221.011593592296
  0
LINE
  5
E8
330
1F
100
AcDbEntity
  8
LAY-10
  6
CONTINUOUS
 62
     7
100
AcDbLine
 10
2268.899999999998
 20
898.0000000000009
 30
0.0
 11
2268.899999999998
 21
886.0000000000009
 31
0.0
  0
LINE
  5
E9
330
1F
100
AcDbEntity
  8
LAY-10
  6
CONTINUOUS
 62
     7
100
AcDbLine
 10
2324.299999999998
 20
900.0000000000014
 30
0.0
 11
2330.351999999999
 21
900.0000000000014
 31
0.0
  0
LINE
  5
EA
330
1F
100
AcDbEntity
  8
LAY-10
  6
CONTINUOUS
 62
     7
100
AcDbLine
 10
2324.299999999998
 20
896.0000000000009
 30
0.0
 11
2330.351999999999
 21
896.0000000000009
 31
0.0
  0
LINE
  5
EB
330
1F
100
AcDbEntity
  8
LAY-10
  6
CONTINUOUS
 62
     7
100
AcDbLine
 10
2324.299999999998
 20
884.0000000000011
 30
0.0
 11
2330.351999999999
 21
884.0000000000011
 31
0.0
  0
ARC
  5
EC
330
1F
100
AcDbEntity
  8
LAY-10
  6
CONTINUOUS
 62
     7
100
AcDbCircle
 10
2328.052203208555
 20
898.0000000000009
 30
0.0
 40
3.047796791443853
100
AcDbArc
 50
318.9884064077104
 51
41.01159359230487
  0
ARC
  5
ED
330
1F
100
AcDbEntity
  8
LAY-10
  6
CONTINUOUS
 62
     7
100
AcDbCircle
 10
2320.030812834224
 20
892.0000000000007
 30
0.0
 40
11.06918716577541
100
AcDbArc
 50
338.8160443417778
 51
21.18395565823389
  0
ARC
  5
EE
330
1F
100
AcDbEntity
  8
LAY-10
  6
CONTINUOUS
 62
     7
100
AcDbCircle
 10
2328.052203208555
 20
886.0000000000009
 30
0.0
 40
3.047796791443853
100
AcDbArc
 50
318.9884064076952
 51
41.01159359230487
  0
LINE
  5
EF
330
1F
100
AcDbEntity
  8
LAY-10
  6
CONTINUOUS
 62
     7
100
AcDbLine
 10
2331.099999999999
 20
898.0000000000009
 30
0.0
 11
2331.099999999999
 21
886.0000000000009
 31
0.0
  0
LINE
  5
F0
330
1F
100
AcDbEntity
  8
LAY-10
  6
CONTINUOUS
 62
     7
100
AcDbLine
 10
3524.300000000002
 20
1100.000000000001
 30
0.0
 11
3530.352000000001
 21
1100.000000000001
 31
0.0
  0
LINE
  5
F1
330
1F
100
AcDbEntity
  8
LAY-10
  6
CONTINUOUS
 62
     7
100
AcDbLine
 10
3524.300000000002
 20
1096.000000000001
 30
0.0
 11
3530.352000000001
 21
1096.000000000001
 31
0.0
  0
LINE
  5
F2
330
1F
100
AcDbEntity
  8
LAY-10
  6
CONTINUOUS
 62
     7
100
AcDbLine
 10
3524.300000000002
 20
1084.000000000001
 30
0.0
 11
3530.352000000001
 21
1084.000000000001
 31
0.0
  0
ARC
  5
F3
330
1F
100
AcDbEntity
  8
LAY-10
  6
CONTINUOUS
 62
     7
100
AcDbCircle
 10
3528.052203208558
 20
1098.000000000002
 30
0.0
 40
3.047796791443853
100
AcDbArc
 50
318.9884064076952
 51
41.01159359227749
  0
ARC
  5
F4
330
1F
100
AcDbEntity
  8
LAY-10
  6
CONTINUOUS
 62
     7
100
AcDbCircle
 10
3520.030812834225
 20
1092.000000000002
 30
0.0
 40
11.06918716577541
100
AcDbArc
 50
338.8160443417704
 51
21.1839556582234
  0
ARC
  5
F5
330
1F
100
AcDbEntity
  8
LAY-10
  6
CONTINUOUS
 62
     7
100
AcDbCircle
 10
3528.052203208558
 20
1086.000000000001
 30
0.0
 40
3.047796791443853
100
AcDbArc
 50
318.9884064076952
 51
41.01159359228075
  0
LINE
  5
F6
330
1F
100
AcDbEntity
  8
LAY-10
  6
CONTINUOUS
 62
     7
100
AcDbLine
 10
3531.100000000002
 20
1098.000000000002
 30
0.0
 11
3531.100000000002
 21
1086.000000000001
 31
0.0
  0
LINE
  5
F7
330
1F
100
AcDbEntity
  8
LAY-10
  6
CONTINUOUS
 62
     7
100
AcDbLine
 10
3475.700000000002
 20
1100.000000000001
 30
0.0
 11
3469.648000000001
 21
1100.000000000001
 31
0.0
  0
LINE
  5
F8
330
1F
100
AcDbEntity
  8
LAY-10
  6
CONTINUOUS
 62
     7
100
AcDbLine
 10
3475.700000000002
 20
1096.000000000001
 30
0.0
 11
3469.648000000001
 21
1096.000000000001
 31
0.0
  0
LINE
  5
F9
330
1F
100
AcDbEntity
  8
LAY-10
  6
CONTINUOUS
 62
     7
100
AcDbLine
 10
3475.700000000002
 20
1084.000000000001
 30
0.0
 11
3469.648000000001
 21
1084.000000000001
 31
0.0
  0
ARC
  5
FA
330
1F
100
AcDbEntity
  8
LAY-10
  6
CONTINUOUS
 62
     7
100
AcDbCircle
 10
3471.947796791445
 20
1098.000000000002
 30
0.0
 40
3.047796791443853
100
AcDbArc
 50
138.9884064077193
 51
221.0115935923016
  0
ARC
  5
FB
330
1F
100
AcDbEntity
  8
LAY-10
  6
CONTINUOUS
 62
     7
100
AcDbCircle
 10
3479.969187165776
 20
1092.000000000002
 30
0.0
 40
11.06918716577541
100
AcDbArc
 50
158.8160443417736
 51
201.1839556582328
  0
ARC
  5
FC
330
1F
100
AcDbEntity
  8
LAY-10
  6
CONTINUOUS
 62
     7
100
AcDbCircle
 10
3471.947796791445
 20
1086.000000000001
 30
0.0
 40
3.047796791443853
100
AcDbArc
 50
138.9884064077193
 51
221.0115935923016
  0
LINE
  5
FD
330
1F
100
AcDbEntity
  8
LAY-10
  6
CONTINUOUS
 62
     7
100
AcDbLine
 10
3468.900000000001
 20
1098.000000000002
 30
0.0
 11
3468.900000000001
 21
1086.000000000001
 31
0.0
  0
LINE
  5
FE
330
1F
100
AcDbEntity
  8
LAY-10
  6
CONTINUOUS
 62
     7
100
AcDbLine
 10
3524.300000000002
 20
900.0000000000017
 30
0.0
 11
3530.352000000001
 21
900.0000000000017
 31
0.0
  0
LINE
  5
FF
330
1F
100
AcDbEntity
  8
LAY-10
  6
CONTINUOUS
 62
     7
100
AcDbLine
 10
3524.300000000002
 20
896.0000000000014
 30
0.0
 11
3530.352000000001
 21
896.0000000000014
 31
0.0
  0
LINE
  5
100
330
1F
100
AcDbEntity
  8
LAY-10
  6
CONTINUOUS
 62
     7
100
AcDbLine
 10
3524.300000000002
 20
884.0000000000015
 30
0.0
 11
3530.352000000001
 21
884.0000000000015
 31
0.0
  0
ARC
  5
101
330
1F
100
AcDbEntity
  8
LAY-10
  6
CONTINUOUS
 62
     7
100
AcDbCircle
 10
3528.052203208558
 20
898.0000000000013
 30
0.0
 40
3.047796791443853
100
AcDbArc
 50
318.9884064076983
 51
41.01159359230808
  0
ARC
  5
102
330
1F
100
AcDbEntity
  8
LAY-10
  6
CONTINUOUS
 62
     7
100
AcDbCircle
 10
3520.030812834225
 20
892.000000000001
 30
0.0
 40
11.06918716577541
100
AcDbArc
 50
338.81604434178
 51
21.18395565822971
  0
ARC
  5
103
330
1F
100
AcDbEntity
  8
LAY-10
  6
CONTINUOUS
 62
     7
100
AcDbCircle
 10
3528.052203208558
 20
886.0000000000014
 30
0.0
 40
3.047796791443853
100
AcDbArc
 50
318.9884064076952
 51
41.01159359230808
  0
LINE
  5
104
330
1F
100
AcDbEntity
  8
LAY-10
  6
CONTINUOUS
 62
     7
100
AcDbLine
 10
3531.100000000002
 20
898.0000000000013
 30
0.0
 11
3531.100000000002
 21
886.0000000000014
 31
0.0
  0
LINE
  5
105
330
1F
100
AcDbEntity
  8
LAY-10
  6
CONTINUOUS
 62
     7
100
AcDbLine
 10
3475.700000000002
 20
900.0000000000017
 30
0.0
 11
3469.648000000001
 21
900.0000000000017
 31
0.0
  0
LINE
  5
106
330
1F
100
AcDbEntity
  8
LAY-10
  6
CONTINUOUS
 62
     7
100
AcDbLine
 10
3475.700000000002
 20
896.0000000000014
 30
0.0
 11
3469.648000000001
 21
896.0000000000014
 31
0.0
  0
LINE
  5
107
330
1F
100
AcDbEntity
  8
LAY-10
  6
CONTINUOUS
 62
     7
100
AcDbLine
 10
3475.700000000002
 20
884.0000000000015
 30
0.0
 11
3469.648000000001
 21
884.0000000000015
 31
0.0
  0
ARC
  5
108
330
1F
100
AcDbEntity
  8
LAY-10
  6
CONTINUOUS
 62
     7
100
AcDbCircle
 10
3471.947796791445
 20
898.0000000000013
 30
0.0
 40
3.047796791443853
100
AcDbArc
 50
138.9884064076951
 51
221.0115935922896
  0
ARC
  5
109
330
1F
100
AcDbEntity
  8
LAY-10
  6
CONTINUOUS
 62
     7
100
AcDbCircle
 10
3479.969187165776
 20
892.000000000001
 30
0.0
 40
11.06918716577541
100
AcDbArc
 50
158.8160443417672
 51
201.1839556582221
  0
ARC
  5
10A
330
1F
100
AcDbEntity
  8
LAY-10
  6
CONTINUOUS
 62
     7
100
AcDbCircle
 10
3471.947796791445
 20
886.0000000000014
 30
0.0
 40
3.047796791443853
100
AcDbArc
 50
138.9884064076951
 51
221.0115935923016
  0
LINE
  5
10B
330
1F
100
AcDbEntity
  8
LAY-10
  6
CONTINUOUS
 62
     7
100
AcDbLine
 10
3468.900000000001
 20
898.0000000000013
 30
0.0
 11
3468.900000000001
 21
886.0000000000014
 31
0.0
  0
LINE
  5
10C
330
1F
100
AcDbEntity
  8
LAY-10
  6
CONTINUOUS
 62
     7
100
AcDbLine
 10
2275.699999999998
 20
4208.0
 30
0.0
 11
2269.647999999998
 21
4208.0
 31
0.0
  0
LINE
  5
10D
330
1F
100
AcDbEntity
  8
LAY-10
  6
CONTINUOUS
 62
     7
100
AcDbLine
 10
2275.699999999998
 20
4204.0
 30
0.0
 11
2269.647999999998
 21
4204.0
 31
0.0
  0
LINE
  5
10E
330
1F
100
AcDbEntity
  8
LAY-10
  6
CONTINUOUS
 62
     7
100
AcDbLine
 10
2275.699999999998
 20
4191.999999999999
 30
0.0
 11
2269.647999999998
 21
4191.999999999999
 31
0.0
  0
ARC
  5
10F
330
1F
100
AcDbEntity
  8
LAY-10
  6
CONTINUOUS
 62
     7
100
AcDbCircle
 10
2271.947796791441
 20
4206.0
 30
0.0
 40
3.047796791443853
100
AcDbArc
 50
138.9884064077072
 51
221.0115935923057
  0
ARC
  5
110
330
1F
100
AcDbEntity
  8
LAY-10
  6
CONTINUOUS
 62
     7
100
AcDbCircle
 10
2279.969187165775
 20
4200.0
 30
0.0
 40
11.06918716577541
100
AcDbArc
 50
158.8160443417768
 51
201.1839556582275
  0
ARC
  5
111
330
1F
100
AcDbEntity
  8
LAY-10
  6
CONTINUOUS
 62
     7
100
AcDbCircle
 10
2271.947796791441
 20
4194.0
 30
0.0
 40
3.047796791443853
100
AcDbArc
 50
138.9884064076942
 51
221.0115935923169
  0
LINE
  5
112
330
1F
100
AcDbEntity
  8
LAY-10
  6
CONTINUOUS
 62
     7
100
AcDbLine
 10
2268.899999999998
 20
4206.0
 30
0.0
 11
2268.899999999998
 21
4194.0
 31
0.0
  0
LINE
  5
113
330
1F
100
AcDbEntity
  8
LAY-10
  6
CONTINUOUS
 62
     7
100
AcDbLine
 10
2275.699999999998
 20
4191.999999999999
 30
0.0
 11
2275.699999999998
 21
4208.0
 31
0.0
  0
LINE
  5
114
330
1F
100
AcDbEntity
  8
LAY-10
  6
CONTINUOUS
 62
     7
100
AcDbLine
 10
3524.300000000002
 20
4208.0
 30
0.0
 11
3530.352000000001
 21
4208.0
 31
0.0
  0
LINE
  5
115
330
1F
100
AcDbEntity
  8
LAY-10
  6
CONTINUOUS
 62
     7
100
AcDbLine
 10
3524.300000000002
 20
4204.0
 30
0.0
 11
3530.352000000001
 21
4204.0
 31
0.0
  0
LINE
  5
116
330
1F
100
AcDbEntity
  8
LAY-10
  6
CONTINUOUS
 62
     7
100
AcDbLine
 10
3524.300000000002
 20
4191.999999999999
 30
0.0
 11
3530.352000000001
 21
4191.999999999999
 31
0.0
  0
ARC
  5
117
330
1F
100
AcDbEntity
  8
LAY-10
  6
CONTINUOUS
 62
     7
100
AcDbCircle
 10
3528.052203208558
 20
4206.0
 30
0.0
 40
3.047796791443853
100
AcDbArc
 50
318.9884064076888
 51
41.0115935922984
  0
ARC
  5
118
330
1F
100
AcDbEntity
  8
LAY-10
  6
CONTINUOUS
 62
     7
100
AcDbCircle
 10
3520.030812834225
 20
4200.0
 30
0.0
 40
11.06918716577541
100
AcDbArc
 50
338.8160443417733
 51
21.18395565822232
  0
ARC
  5
119
330
1F
100
AcDbEntity
  8
LAY-10
  6
CONTINUOUS
 62
     7
100
AcDbCircle
 10
3528.052203208558
 20
4194.0
 30
0.0
 40
3.047796791443853
100
AcDbArc
 50
318.9884064076832
 51
41.01159359231129
  0
LINE
  5
11A
330
1F
100
AcDbEntity
  8
LAY-10
  6
CONTINUOUS
 62
     7
100
AcDbLine
 10
3531.100000000001
 20
4206.0
 30
0.0
 11
3531.100000000001
 21
4194.0
 31
0.0
  0
LINE
  5
11B
330
1F
100
AcDbEntity
  8
LAY-10
  6
CONTINUOUS
 62
     7
100
AcDbLine
 10
3524.300000000002
 20
4191.999999999999
 30
0.0
 11
3524.300000000002
 21
4208.0
 31
0.0
  0
LINE
  5
11C
330
1F
100
AcDbEntity
  8
LAY-10
  6
CONTINUOUS
 62
     7
100
AcDbLine
 10
2736.999999999869
 20
4192.199999999995
 30
0.0
 11
2736.999999999869
 21
4186.447999999975
 31
0.0
  0
LINE
  5
11D
330
1F
100
AcDbEntity
  8
LAY-10
  6
CONTINUOUS
 62
     7
100
AcDbLine
 10
2740.99999999987
 20
4192.199999999995
 30
0.0
 11
2740.99999999987
 21
4186.447999999975
 31
0.0
  0
LINE
  5
11E
330
1F
100
AcDbEntity
  8
LAY-10
  6
CONTINUOUS
 62
     7
100
AcDbLine
 10
2748.999999999871
 20
4192.199999999995
 30
0.0
 11
2748.999999999871
 21
4186.447999999975
 31
0.0
  0
LINE
  5
11F
330
1F
100
AcDbEntity
  8
LAY-10
  6
CONTINUOUS
 62
     7
100
AcDbLine
 10
2752.999999999871
 20
4192.199999999995
 30
0.0
 11
2752.999999999871
 21
4186.447999999975
 31
0.0
  0
ARC
  5
120
330
1F
100
AcDbEntity
  8
LAY-10
  6
CONTINUOUS
 62
     7
100
AcDbCircle
 10
2738.999999999871
 20
4188.747796791419
 30
0.0
 40
3.047796791443853
100
AcDbArc
 50
228.9884064077192
 51
311.0115935922743
  0
ARC
  5
121
330
1F
100
AcDbEntity
  8
LAY-10
  6
CONTINUOUS
 62
     7
100
AcDbCircle
 10
2744.99999999987
 20
4196.769187165749
 30
0.0
 40
11.0691871657754
100
AcDbArc
 50
248.8160443417732
 51
291.1839556582347
  0
ARC
  5
122
330
1F
100
AcDbEntity
  8
LAY-10
  6
CONTINUOUS
 62
     7
100
AcDbCircle
 10
2750.99999999987
 20
4188.747796791419
 30
0.0
 40
3.047796791443853
100
AcDbArc
 50
228.9884064077256
 51
311.0115935923049
  0
LINE
  5
123
330
1F
100
AcDbEntity
  8
LAY-10
  6
CONTINUOUS
 62
     7
100
AcDbLine
 10
2738.999999999871
 20
4185.699999999976
 30
0.0
 11
2750.99999999987
 21
4185.699999999976
 31
0.0
  0
LINE
  5
124
330
1F
100
AcDbEntity
  8
LAY-10
  6
CONTINUOUS
 62
     7
100
AcDbLine
 10
3063.000000000129
 20
4207.800000000004
 30
0.0
 11
3063.000000000129
 21
4213.552000000024
 31
0.0
  0
LINE
  5
125
330
1F
100
AcDbEntity
  8
LAY-10
  6
CONTINUOUS
 62
     7
100
AcDbLine
 10
3059.000000000129
 20
4207.800000000004
 30
0.0
 11
3059.000000000129
 21
4213.552000000024
 31
0.0
  0
LINE
  5
126
330
1F
100
AcDbEntity
  8
LAY-10
  6
CONTINUOUS
 62
     7
100
AcDbLine
 10
3051.000000000128
 20
4207.800000000004
 30
0.0
 11
3051.000000000128
 21
4213.552000000024
 31
0.0
  0
LINE
  5
127
330
1F
100
AcDbEntity
  8
LAY-10
  6
CONTINUOUS
 62
     7
100
AcDbLine
 10
3047.000000000128
 20
4207.800000000004
 30
0.0
 11
3047.000000000128
 21
4213.552000000024
 31
0.0
  0
ARC
  5
128
330
1F
100
AcDbEntity
  8
LAY-10
  6
CONTINUOUS
 62
     7
100
AcDbCircle
 10
3061.000000000128
 20
4211.25220320858
 30
0.0
 40
3.047796791443853
100
AcDbArc
 50
48.98840640771922
 51
131.0115935922743
  0
ARC
  5
129
330
1F
100
AcDbEntity
  8
LAY-10
  6
CONTINUOUS
 62
     7
100
AcDbCircle
 10
3055.000000000129
 20
4203.230812834249
 30
0.0
 40
11.0691871657754
100
AcDbArc
 50
68.81604434177547
 51
111.1839556582333
  0
ARC
  5
12A
330
1F
100
AcDbEntity
  8
LAY-10
  6
CONTINUOUS
 62
     7
100
AcDbCircle
 10
3049.000000000129
 20
4211.25220320858
 30
0.0
 40
3.047796791443853
100
AcDbArc
 50
48.98840640772569
 51
131.0115935923113
  0
LINE
  5
12B
330
1F
100
AcDbEntity
  8
LAY-10
  6
CONTINUOUS
 62
     7
100
AcDbLine
 10
3061.000000000128
 20
4214.300000000023
 30
0.0
 11
3049.000000000129
 21
4214.300000000023
 31
0.0
  0
LINE
  5
12C
330
1F
100
AcDbEntity
  8
LAY-10
  6
CONTINUOUS
 62
     7
100
AcDbLine
 10
2625.7
 20
1167.7
 30
0.0
 11
2374.299999999998
 21
1167.7
 31
0.0
  0
LINE
  5
12D
330
1F
100
AcDbEntity
  8
LAY-10
  6
CONTINUOUS
 62
     7
100
AcDbLine
 10
2625.7
 20
1216.3
 30
0.0
 11
2374.299999999998
 21
1216.3
 31
0.0
  0
LINE
  5
12E
330
1F
100
AcDbEntity
  8
LAY-10
  6
CONTINUOUS
 62
     7
100
AcDbLine
 10
2324.299999999998
 20
1117.7
 30
0.0
 11
2324.299999999998
 21
792.0000000000013
 31
0.0
  0
LINE
  5
12F
330
1F
100
AcDbEntity
  8
LAY-10
  6
CONTINUOUS
 62
     7
100
AcDbLine
 10
2275.699999999998
 20
1117.7
 30
0.0
 11
2275.699999999998
 21
792.0000000000013
 31
0.0
  0
LINE
  5
130
330
1F
100
AcDbEntity
  8
LAY-10
  6
CONTINUOUS
 62
     7
100
AcDbLine
 10
2275.699999999998
 20
792.0000000000013
 30
0.0
 11
2324.299999999998
 21
792.0000000000013
 31
0.0
  0
ARC
  5
131
330
1F
100
AcDbEntity
  8
LAY-10
  6
CONTINUOUS
 62
     7
100
AcDbCircle
 10
2625.7
 20
1266.3
 30
0.0
 40
50.0
100
AcDbArc
 50
270.0
 51
0.0
  0
ARC
  5
132
330
1F
100
AcDbEntity
  8
LAY-10
  6
CONTINUOUS
 62
     7
100
AcDbCircle
 10
2625.7
 20
1266.3
 30
0.0
 40
98.6
100
AcDbArc
 50
270.0
 51
0.0
  0
ARC
  5
133
330
1F
100
AcDbEntity
  8
LAY-10
  6
CONTINUOUS
 62
     7
100
AcDbCircle
 10
2374.299999999998
 20
1117.7
 30
0.0
 40
50.0
100
AcDbArc
 50
90.00000000000001
 51
180.0
  0
ARC
  5
134
330
1F
100
AcDbEntity
  8
LAY-10
  6
CONTINUOUS
 62
     7
100
AcDbCircle
 10
2374.299999999998
 20
1117.7
 30
0.0
 40
98.6
100
AcDbArc
 50
90.00000000000001
 51
180.0
  0
LINE
  5
135
330
1F
100
AcDbEntity
  8
LAY-10
  6
CONTINUOUS
 62
     7
100
AcDbLine
 10
2364.999999999998
 20
888.8000000000006
 30
0.0
 11
2364.999999999998
 21
895.2000000000426
 31
0.0
  0
LINE
  5
136
330
1F
100
AcDbEntity
  8
LAY-10
  6
CONTINUOUS
 62
     7
100
AcDbLine
 10
2331.099999999999
 20
896.0000000000009
 30
0.0
 11
2364.199999999998
 21
896.0000000000009
 31
0.0
  0
LINE
  5
137
330
1F
100
AcDbEntity
  8
LAY-10
  6
CONTINUOUS
 62
     7
100
AcDbLine
 10
2324.299999999998
 20
888.0000000000014
 30
0.0
 11
2364.199999999998
 21
888.0000000000014
 31
0.0
  0
LINE
  5
138
330
1F
100
AcDbEntity
  8
LAY-10
  6
CONTINUOUS
 62
     7
100
AcDbLine
 10
2364.199999999998
 20
896.0000000000009
 30
0.0
 11
2364.199999999998
 21
888.0000000000014
 31
0.0
  0
LINE
  5
139
330
1F
100
AcDbEntity
  8
LAY-10
  6
CONTINUOUS
 62
     7
100
AcDbLine
 10
2364.999999999998
 20
895.2000000000016
 30
0.0
 11
2331.099999999999
 21
895.2000000000016
 31
0.0
  0
LINE
  5
13A
330
1F
100
AcDbEntity
  8
LAY-10
  6
CONTINUOUS
 62
     7
100
AcDbLine
 10
2364.999999999998
 20
888.8000000000006
 30
0.0
 11
2331.099999999999
 21
888.8000000000006
 31
0.0
  0
LINE
  5
13B
330
1F
100
AcDbEntity
  8
LAY-10
  6
CONTINUOUS
 62
     7
100
AcDbLine
 10
2364.199999999998
 20
896.0000000000009
 30
0.0
 11
2365.000000000019
 21
895.2000000000221
 31
0.0
  0
LINE
  5
13C
330
1F
100
AcDbEntity
  8
LAY-10
  6
CONTINUOUS
 62
     7
100
AcDbLine
 10
2364.199999999998
 20
888.0000000000014
 30
0.0
 11
2364.99999999998
 21
888.80000000002
 31
0.0
  0
LINE
  5
13D
330
1F
100
AcDbEntity
  8
LAY-10
  6
CONTINUOUS
 62
     7
100
AcDbLine
 10
2235.799999999998
 20
896.0000000000009
 30
0.0
 11
2235.799999999998
 21
888.0000000000014
 31
0.0
  0
LINE
  5
13E
330
1F
100
AcDbEntity
  8
LAY-10
  6
CONTINUOUS
 62
     7
100
AcDbLine
 10
2234.999999999999
 20
895.2000000000016
 30
0.0
 11
2268.899999999998
 21
895.2000000000016
 31
0.0
  0
LINE
  5
13F
330
1F
100
AcDbEntity
  8
LAY-10
  6
CONTINUOUS
 62
     7
100
AcDbLine
 10
2234.999999999999
 20
888.8000000000006
 30
0.0
 11
2268.899999999998
 21
888.8000000000006
 31
0.0
  0
LINE
  5
140
330
1F
100
AcDbEntity
  8
LAY-10
  6
CONTINUOUS
 62
     7
100
AcDbLine
 10
2235.799999999998
 20
896.0000000000009
 30
0.0
 11
2234.999999999977
 21
895.2000000000221
 31
0.0
  0
LINE
  5
141
330
1F
100
AcDbEntity
  8
LAY-10
  6
CONTINUOUS
 62
     7
100
AcDbLine
 10
2235.799999999998
 20
888.0000000000014
 30
0.0
 11
2235.000000000018
 21
888.80000000002
 31
0.0
  0
LINE
  5
142
330
1F
100
AcDbEntity
  8
LAY-10
  6
CONTINUOUS
 62
     7
100
AcDbLine
 10
2268.899999999998
 20
896.0000000000009
 30
0.0
 11
2235.799999999998
 21
896.0000000000009
 31
0.0
  0
LINE
  5
143
330
1F
100
AcDbEntity
  8
LAY-10
  6
CONTINUOUS
 62
     7
100
AcDbLine
 10
2275.699999999998
 20
888.0000000000014
 30
0.0
 11
2235.799999999998
 21
888.0000000000014
 31
0.0
  0
LINE
  5
144
330
1F
100
AcDbEntity
  8
LAY-10
  6
CONTINUOUS
 62
     7
100
AcDbLine
 10
2234.999999999999
 20
888.8000000000006
 30
0.0
 11
2234.999999999999
 21
895.2000000000426
 31
0.0
  0
LINE
  5
145
330
1F
100
AcDbEntity
  8
LAY-10
  6
CONTINUOUS
 62
     7
100
AcDbLine
 10
2364.199999999998
 20
1096.000000000001
 30
0.0
 11
2364.199999999998
 21
1088.000000000001
 31
0.0
  0
LINE
  5
146
330
1F
100
AcDbEntity
  8
LAY-10
  6
CONTINUOUS
 62
     7
100
AcDbLine
 10
2364.999999999998
 20
1095.200000000001
 30
0.0
 11
2331.099999999999
 21
1095.200000000001
 31
0.0
  0
LINE
  5
147
330
1F
100
AcDbEntity
  8
LAY-10
  6
CONTINUOUS
 62
     7
100
AcDbLine
 10
2364.999999999998
 20
1088.800000000001
 30
0.0
 11
2331.099999999999
 21
1088.800000000001
 31
0.0
  0
LINE
  5
148
330
1F
100
AcDbEntity
  8
LAY-10
  6
CONTINUOUS
 62
     7
100
AcDbLine
 10
2364.199999999998
 20
1096.000000000001
 30
0.0
 11
2365.000000000019
 21
1095.200000000022
 31
0.0
  0
LINE
  5
149
330
1F
100
AcDbEntity
  8
LAY-10
  6
CONTINUOUS
 62
     7
100
AcDbLine
 10
2364.199999999998
 20
1088.000000000001
 30
0.0
 11
2364.99999999998
 21
1088.800000000021
 31
0.0
  0
LINE
  5
14A
330
1F
100
AcDbEntity
  8
LAY-10
  6
CONTINUOUS
 62
     7
100
AcDbLine
 10
2331.099999999999
 20
1096.000000000001
 30
0.0
 11
2364.199999999998
 21
1096.000000000001
 31
0.0
  0
LINE
  5
14B
330
1F
100
AcDbEntity
  8
LAY-10
  6
CONTINUOUS
 62
     7
100
AcDbLine
 10
2324.299999999998
 20
1088.000000000001
 30
0.0
 11
2364.199999999998
 21
1088.000000000001
 31
0.0
  0
LINE
  5
14C
330
1F
100
AcDbEntity
  8
LAY-10
  6
CONTINUOUS
 62
     7
100
AcDbLine
 10
2364.999999999998
 20
1088.800000000001
 30
0.0
 11
2364.999999999998
 21
1095.200000000043
 31
0.0
  0
LINE
  5
14D
330
1F
100
AcDbEntity
  8
LAY-10
  6
CONTINUOUS
 62
     7
100
AcDbLine
 10
2235.799999999998
 20
1096.000000000001
 30
0.0
 11
2235.799999999998
 21
1088.000000000001
 31
0.0
  0
LINE
  5
14E
330
1F
100
AcDbEntity
  8
LAY-10
  6
CONTINUOUS
 62
     7
100
AcDbLine
 10
2234.999999999999
 20
1095.200000000001
 30
0.0
 11
2268.899999999998
 21
1095.200000000001
 31
0.0
  0
LINE
  5
14F
330
1F
100
AcDbEntity
  8
LAY-10
  6
CONTINUOUS
 62
     7
100
AcDbLine
 10
2234.999999999999
 20
1088.800000000001
 30
0.0
 11
2268.899999999998
 21
1088.800000000001
 31
0.0
  0
LINE
  5
150
330
1F
100
AcDbEntity
  8
LAY-10
  6
CONTINUOUS
 62
     7
100
AcDbLine
 10
2235.799999999998
 20
1096.000000000001
 30
0.0
 11
2234.999999999977
 21
1095.200000000022
 31
0.0
  0
LINE
  5
151
330
1F
100
AcDbEntity
  8
LAY-10
  6
CONTINUOUS
 62
     7
100
AcDbLine
 10
2235.799999999998
 20
1088.000000000001
 30
0.0
 11
2235.000000000018
 21
1088.800000000021
 31
0.0
  0
LINE
  5
152
330
1F
100
AcDbEntity
  8
LAY-10
  6
CONTINUOUS
 62
     7
100
AcDbLine
 10
2268.899999999998
 20
1096.000000000001
 30
0.0
 11
2235.799999999998
 21
1096.000000000001
 31
0.0
  0
LINE
  5
153
330
1F
100
AcDbEntity
  8
LAY-10
  6
CONTINUOUS
 62
     7
100
AcDbLine
 10
2275.699999999998
 20
1088.000000000001
 30
0.0
 11
2235.799999999998
 21
1088.000000000001
 31
0.0
  0
LINE
  5
154
330
1F
100
AcDbEntity
  8
LAY-10
  6
CONTINUOUS
 62
     7
100
AcDbLine
 10
2234.999999999999
 20
1088.800000000001
 30
0.0
 11
2234.999999999999
 21
1095.200000000043
 31
0.0
  0
LINE
  5
155
330
1F
100
AcDbEntity
  8
LAY-10
  6
CONTINUOUS
 62
     7
100
AcDbLine
 10
2675.699999999999
 20
1266.3
 30
0.0
 11
2675.699999999999
 21
2059.499999999998
 31
0.0
  0
LINE
  5
156
330
1F
100
AcDbEntity
  8
LAY-10
  6
CONTINUOUS
 62
     7
100
AcDbLine
 10
2724.299999999999
 20
1266.3
 30
0.0
 11
2724.299999999999
 21
2059.499999999998
 31
0.0
  0
LINE
  5
157
330
1F
100
AcDbEntity
  8
LAY-10
  6
CONTINUOUS
 62
     7
100
AcDbLine
 10
2724.299999999999
 20
2791.999999999998
 30
0.0
 11
2675.699999999999
 21
2791.999999999998
 31
0.0
  0
LINE
  5
158
330
1F
100
AcDbEntity
  8
LAY-10
  6
CONTINUOUS
 62
     7
100
AcDbLine
 10
2229.999999999999
 20
1141.999999999998
 30
0.0
 11
2278.741274600377
 21
1141.999999999998
 31
0.0
  0
LINE
  5
159
330
1F
100
AcDbEntity
  8
LAY-10
  6
CONTINUOUS
 62
     7
100
AcDbLine
 10
2229.999999999999
 20
1141.999999999998
 30
0.0
 11
2229.999999999999
 21
491.9999999999979
 31
0.0
  0
LINE
  5
15A
330
1F
100
AcDbEntity
  8
LAY-10
  6
CONTINUOUS
 62
     7
100
AcDbLine
 10
2369.999999999999
 20
1141.999999999998
 30
0.0
 11
2369.999999999999
 21
741.9999999999984
 31
0.0
  0
LINE
  5
15B
330
1F
100
AcDbEntity
  8
LAY-10
  6
CONTINUOUS
 62
     7
100
AcDbLine
 10
2233.499999999999
 20
1141.999999999998
 30
0.0
 11
2233.499999999999
 21
775.4888052687468
 31
0.0
  0
LINE
  5
15C
330
1F
100
AcDbEntity
  8
LAY-10
  6
CONTINUOUS
 62
     7
100
AcDbLine
 10
2366.5
 20
748.5111947313069
 30
0.0
 11
2366.5
 21
1141.999999999998
 31
0.0
  0
LINE
  5
15D
330
1F
100
AcDbEntity
  8
LAY-10
  6
CONTINUOUS
 62
     7
100
AcDbLine
 10
2296.999999999998
 20
792.0000000000018
 30
0.0
 11
2296.999999999998
 21
631.9999999999978
 31
0.0
  0
LINE
  5
15E
330
1F
100
AcDbEntity
  8
LAY-10
  6
CONTINUOUS
 62
     7
100
AcDbLine
 10
2302.999999999998
 20
792.0000000000018
 30
0.0
 11
2302.999999999998
 21
631.9999999999978
 31
0.0
  0
LINE
  5
15F
330
1F
100
AcDbEntity
  8
LAY-10
  6
CONTINUOUS
 62
     7
100
AcDbLine
 10
2302.999999999998
 20
656.9999999999973
 30
0.0
 11
2296.999999999998
 21
656.9999999999973
 31
0.0
  0
LINE
  5
160
330
1F
100
AcDbEntity
  8
LAY-10
  6
CONTINUOUS
 62
     7
100
AcDbLine
 10
2302.999999999998
 20
631.9999999999978
 30
0.0
 11
2296.999999999998
 21
631.9999999999978
 31
0.0
  0
LINE
  5
161
330
1F
100
AcDbEntity
  8
LAY-10
  6
CONTINUOUS
 62
     7
100
AcDbLine
 10
2239.999999999999
 20
491.9999999999985
 30
0.0
 11
2369.999999999999
 21
741.9999999999984
 31
0.0
  0
LINE
  5
162
330
1F
100
AcDbEntity
  8
LAY-10
  6
CONTINUOUS
 62
     7
100
AcDbLine
 10
2229.999999999999
 20
491.9999999999979
 30
0.0
 11
2239.999999999999
 21
491.9999999999979
 31
0.0
  0
LINE
  5
163
330
1F
100
AcDbEntity
  8
LAY-10
  6
CONTINUOUS
 62
     7
100
AcDbLine
 10
2330.602059545097
 20
1141.999999999998
 30
0.0
 11
2369.999999999999
 21
1141.999999999998
 31
0.0
  0
ARC
  5
164
330
1F
100
AcDbEntity
  8
LAY-10
  6
CONTINUOUS
 62
     7
100
AcDbCircle
 10
2683.699999999999
 20
2791.999999999999
 30
0.0
 40
8.0
100
AcDbArc
 50
90.00000000000001
 51
180.0
  0
LINE
  5
165
330
1F
100
AcDbEntity
  8
LAY-10
  6
CONTINUOUS
 62
     7
100
AcDbLine
 10
2683.699999999999
 20
2800.0
 30
0.0
 11
2716.299999999999
 21
2800.0
 31
0.0
  0
ARC
  5
166
330
1F
100
AcDbEntity
  8
LAY-10
  6
CONTINUOUS
 62
     7
100
AcDbCircle
 10
2716.299999999999
 20
2791.999999999999
 30
0.0
 40
8.0
100
AcDbArc
 50
0.0
 51
90.00000000000001
  0
LINE
  5
167
330
1F
100
AcDbEntity
  8
LAY-10
  6
CONTINUOUS
 62
     7
100
AcDbLine
 10
3124.300000000001
 20
1266.3
 30
0.0
 11
3124.300000000001
 21
2059.499999999999
 31
0.0
  0
LINE
  5
168
330
1F
100
AcDbEntity
  8
LAY-10
  6
CONTINUOUS
 62
     7
100
AcDbLine
 10
3075.7
 20
1266.3
 30
0.0
 11
3075.7
 21
2059.499999999999
 31
0.0
  0
LINE
  5
169
330
1F
100
AcDbEntity
  8
LAY-10
  6
CONTINUOUS
 62
     7
100
AcDbLine
 10
3075.7
 20
2791.999999999999
 30
0.0
 11
3124.300000000001
 21
2791.999999999999
 31
0.0
  0
ARC
  5
16A
330
1F
100
AcDbEntity
  8
LAY-10
  6
CONTINUOUS
 62
     7
100
AcDbCircle
 10
3116.300000000001
 20
2791.999999999999
 30
0.0
 40
8.0
100
AcDbArc
 50
0.0
 51
90.00000000000001
  0
LINE
  5
16B
330
1F
100
AcDbEntity
  8
LAY-10
  6
CONTINUOUS
 62
     7
100
AcDbLine
 10
3116.300000000001
 20
2800.0
 30
0.0
 11
3083.700000000001
 21
2800.0
 31
0.0
  0
ARC
  5
16C
330
1F
100
AcDbEntity
  8
LAY-10
  6
CONTINUOUS
 62
     7
100
AcDbCircle
 10
3083.700000000001
 20
2791.999999999999
 30
0.0
 40
8.0
100
AcDbArc
 50
90.00000000000001
 51
180.0
  0
LINE
  5
16D
330
1F
100
AcDbEntity
  8
LAY-10
  6
CONTINUOUS
 62
     7
100
AcDbLine
 10
2671.299999999999
 20
2724.499999999999
 30
0.0
 11
2751.299999999999
 21
2724.499999999999
 31
0.0
  0
LINE
  5
16E
330
1F
100
AcDbEntity
  8
LAY-10
  6
CONTINUOUS
 62
     7
100
AcDbLine
 10
2671.299999999999
 20
2659.499999999999
 30
0.0
 11
2751.299999999999
 21
2659.499999999999
 31
0.0
  0
LINE
  5
16F
330
1F
100
AcDbEntity
  8
LAY-10
  6
CONTINUOUS
 62
     7
100
AcDbLine
 10
2671.299999999999
 20
2724.499999999999
 30
0.0
 11
2671.299999999999
 21
2659.499999999999
 31
0.0
  0
LINE
  5
170
330
1F
100
AcDbEntity
  8
LAY-10
  6
CONTINUOUS
 62
     7
100
AcDbLine
 10
2692.199224999998
 20
2711.999999999999
 30
0.0
 11
2692.199224999998
 21
2671.999999999999
 31
0.0
  0
LINE
  5
171
330
1F
100
AcDbEntity
  8
LAY-10
  6
CONTINUOUS
 62
     7
100
AcDbLine
 10
2730.719537756936
 20
2724.499999999999
 30
0.0
 11
2730.719537756936
 21
2711.999999999999
 31
0.0
  0
LINE
  5
172
330
1F
100
AcDbEntity
  8
LAY-10
  6
CONTINUOUS
 62
     7
100
AcDbLine
 10
2730.719537756936
 20
2671.999999999999
 30
0.0
 11
2730.719537756936
 21
2659.499999999999
 31
0.0
  0
LINE
  5
173
330
1F
100
AcDbEntity
  8
LAY-10
  6
CONTINUOUS
 62
     7
100
AcDbLine
 10
3128.7
 20
2724.499999999999
 30
0.0
 11
3128.7
 21
2659.499999999999
 31
0.0
  0
LINE
  5
174
330
1F
100
AcDbEntity
  8
LAY-10
  6
CONTINUOUS
 62
     7
100
AcDbLine
 10
3107.800775000001
 20
2711.999999999999
 30
0.0
 11
3107.800775000001
 21
2671.999999999999
 31
0.0
  0
LINE
  5
175
330
1F
100
AcDbEntity
  8
LAY-10
  6
CONTINUOUS
 62
     7
100
AcDbLine
 10
3128.7
 20
2724.499999999999
 30
0.0
 11
3048.7
 21
2724.499999999999
 31
0.0
  0
LINE
  5
176
330
1F
100
AcDbEntity
  8
LAY-10
  6
CONTINUOUS
 62
     7
100
AcDbLine
 10
3128.7
 20
2659.499999999999
 30
0.0
 11
3048.7
 21
2659.499999999999
 31
0.0
  0
LINE
  5
177
330
1F
100
AcDbEntity
  8
LAY-10
  6
CONTINUOUS
 62
     7
100
AcDbLine
 10
3069.280462243064
 20
2724.499999999999
 30
0.0
 11
3069.280462243064
 21
2711.999999999999
 31
0.0
  0
LINE
  5
178
330
1F
100
AcDbEntity
  8
LAY-10
  6
CONTINUOUS
 62
     7
100
AcDbLine
 10
3069.280462243064
 20
2671.999999999999
 30
0.0
 11
3069.280462243064
 21
2659.499999999999
 31
0.0
  0
ARC
  5
179
330
1F
100
AcDbEntity
  8
LAY-10
  6
CONTINUOUS
 62
     7
100
AcDbCircle
 10
2751.299999999999
 20
2669.499999999997
 30
0.0
 40
10.0
100
AcDbArc
 50
270.0
 51
14.47751218594398
  0
ARC
  5
17A
330
1F
100
AcDbEntity
  8
LAY-10
  6
CONTINUOUS
 62
     7
100
AcDbCircle
 10
2751.299999999999
 20
2714.499999999999
 30
0.0
 40
10.0
100
AcDbArc
 50
345.52248781407
 51
90.00000000000001
  0
ARC
  5
17B
330
1F
100
AcDbEntity
  8
LAY-10
  6
CONTINUOUS
 62
     7
100
AcDbCircle
 10
3048.7
 20
2714.499999999999
 30
0.0
 40
10.0
100
AcDbArc
 50
90.00000000000001
 51
194.4775121859301
  0
ARC
  5
17C
330
1F
100
AcDbEntity
  8
LAY-10
  6
CONTINUOUS
 62
     7
100
AcDbCircle
 10
3048.7
 20
2669.499999999997
 30
0.0
 40
10.0
100
AcDbArc
 50
165.5224878140559
 51
270.0
  0
LINE
  5
17D
330
1F
100
AcDbEntity
  8
LAY-10
  6
CONTINUOUS
 62
     7
100
AcDbLine
 10
2692.199224999998
 20
2711.999999999999
 30
0.0
 11
3107.800775000001
 21
2711.999999999999
 31
0.0
  0
LINE
  5
17E
330
1F
100
AcDbEntity
  8
LAY-10
  6
CONTINUOUS
 62
     7
100
AcDbLine
 10
2692.199224999999
 20
2671.999999999999
 30
0.0
 11
3107.800775000001
 21
2671.999999999999
 31
0.0
  0
LINE
  5
17F
330
1F
100
AcDbEntity
  8
LAY-10
  6
CONTINUOUS
 62
     7
100
AcDbLine
 10
2675.699999999999
 20
2724.499999999999
 30
0.0
 11
2675.699999999999
 21
2791.999999999998
 31
0.0
  0
LINE
  5
180
330
1F
100
AcDbEntity
  8
LAY-10
  6
CONTINUOUS
 62
     7
100
AcDbLine
 10
2724.299999999999
 20
2724.499999999999
 30
0.0
 11
2724.299999999999
 21
2791.999999999998
 31
0.0
  0
LINE
  5
181
330
1F
100
AcDbEntity
  8
LAY-10
  6
CONTINUOUS
 62
     7
100
AcDbLine
 10
3075.7
 20
2724.499999999999
 30
0.0
 11
3075.7
 21
2791.999999999999
 31
0.0
  0
LINE
  5
182
330
1F
100
AcDbEntity
  8
LAY-10
  6
CONTINUOUS
 62
     7
100
AcDbLine
 10
3124.300000000001
 20
2724.499999999999
 30
0.0
 11
3124.300000000001
 21
2791.999999999999
 31
0.0
  0
LINE
  5
183
330
1F
100
AcDbEntity
  8
LAY-10
  6
CONTINUOUS
 62
     7
100
AcDbLine
 10
2671.299999999999
 20
2124.499999999998
 30
0.0
 11
2751.299999999999
 21
2124.499999999998
 31
0.0
  0
LINE
  5
184
330
1F
100
AcDbEntity
  8
LAY-10
  6
CONTINUOUS
 62
     7
100
AcDbLine
 10
2671.299999999999
 20
2059.499999999998
 30
0.0
 11
2751.299999999999
 21
2059.499999999998
 31
0.0
  0
LINE
  5
185
330
1F
100
AcDbEntity
  8
LAY-10
  6
CONTINUOUS
 62
     7
100
AcDbLine
 10
2671.299999999999
 20
2124.499999999998
 30
0.0
 11
2671.299999999999
 21
2059.499999999998
 31
0.0
  0
LINE
  5
186
330
1F
100
AcDbEntity
  8
LAY-10
  6
CONTINUOUS
 62
     7
100
AcDbLine
 10
2692.199224999998
 20
2111.999999999998
 30
0.0
 11
2692.199224999998
 21
2071.999999999998
 31
0.0
  0
LINE
  5
187
330
1F
100
AcDbEntity
  8
LAY-10
  6
CONTINUOUS
 62
     7
100
AcDbLine
 10
2730.719537756936
 20
2124.499999999998
 30
0.0
 11
2730.719537756936
 21
2111.999999999998
 31
0.0
  0
LINE
  5
188
330
1F
100
AcDbEntity
  8
LAY-10
  6
CONTINUOUS
 62
     7
100
AcDbLine
 10
2730.719537756936
 20
2071.999999999998
 30
0.0
 11
2730.719537756936
 21
2059.499999999998
 31
0.0
  0
LINE
  5
189
330
1F
100
AcDbEntity
  8
LAY-10
  6
CONTINUOUS
 62
     7
100
AcDbLine
 10
3128.7
 20
2124.499999999999
 30
0.0
 11
3128.7
 21
2059.499999999999
 31
0.0
  0
LINE
  5
18A
330
1F
100
AcDbEntity
  8
LAY-10
  6
CONTINUOUS
 62
     7
100
AcDbLine
 10
3107.800775000001
 20
2111.999999999999
 30
0.0
 11
3107.800775000001
 21
2071.999999999999
 31
0.0
  0
LINE
  5
18B
330
1F
100
AcDbEntity
  8
LAY-10
  6
CONTINUOUS
 62
     7
100
AcDbLine
 10
3128.7
 20
2124.499999999999
 30
0.0
 11
3048.7
 21
2124.499999999999
 31
0.0
  0
LINE
  5
18C
330
1F
100
AcDbEntity
  8
LAY-10
  6
CONTINUOUS
 62
     7
100
AcDbLine
 10
3128.7
 20
2059.499999999999
 30
0.0
 11
3048.7
 21
2059.499999999999
 31
0.0
  0
LINE
  5
18D
330
1F
100
AcDbEntity
  8
LAY-10
  6
CONTINUOUS
 62
     7
100
AcDbLine
 10
3069.280462243064
 20
2124.499999999999
 30
0.0
 11
3069.280462243064
 21
2111.999999999999
 31
0.0
  0
LINE
  5
18E
330
1F
100
AcDbEntity
  8
LAY-10
  6
CONTINUOUS
 62
     7
100
AcDbLine
 10
3069.280462243064
 20
2071.999999999999
 30
0.0
 11
3069.280462243064
 21
2059.499999999999
 31
0.0
  0
ARC
  5
18F
330
1F
100
AcDbEntity
  8
LAY-10
  6
CONTINUOUS
 62
     7
100
AcDbCircle
 10
2751.299999999999
 20
2069.499999999996
 30
0.0
 40
10.0
100
AcDbArc
 50
270.0
 51
14.47751218594398
  0
ARC
  5
190
330
1F
100
AcDbEntity
  8
LAY-10
  6
CONTINUOUS
 62
     7
100
AcDbCircle
 10
2751.299999999999
 20
2114.499999999998
 30
0.0
 40
10.0
100
AcDbArc
 50
345.52248781407
 51
90.00000000000001
  0
ARC
  5
191
330
1F
100
AcDbEntity
  8
LAY-10
  6
CONTINUOUS
 62
     7
100
AcDbCircle
 10
3048.7
 20
2114.499999999999
 30
0.0
 40
10.0
100
AcDbArc
 50
90.00000000000001
 51
194.4775121859301
  0
ARC
  5
192
330
1F
100
AcDbEntity
  8
LAY-10
  6
CONTINUOUS
 62
     7
100
AcDbCircle
 10
3048.7
 20
2069.499999999996
 30
0.0
 40
10.0
100
AcDbArc
 50
165.5224878140559
 51
270.0
  0
LINE
  5
193
330
1F
100
AcDbEntity
  8
LAY-10
  6
CONTINUOUS
 62
     7
100
AcDbLine
 10
2692.199224999998
 20
2111.999999999998
 30
0.0
 11
3107.800775000001
 21
2111.999999999999
 31
0.0
  0
LINE
  5
194
330
1F
100
AcDbEntity
  8
LAY-10
  6
CONTINUOUS
 62
     7
100
AcDbLine
 10
2692.199224999999
 20
2071.999999999998
 30
0.0
 11
3107.800775000001
 21
2071.999999999999
 31
0.0
  0
LINE
  5
195
330
1F
100
AcDbEntity
  8
LAY-10
  6
CONTINUOUS
 62
     7
100
AcDbLine
 10
2675.699999999999
 20
2124.499999999998
 30
0.0
 11
2675.699999999999
 21
2659.499999999999
 31
0.0
  0
LINE
  5
196
330
1F
100
AcDbEntity
  8
LAY-10
  6
CONTINUOUS
 62
     7
100
AcDbLine
 10
2724.299999999999
 20
2124.499999999998
 30
0.0
 11
2724.299999999999
 21
2659.499999999999
 31
0.0
  0
LINE
  5
197
330
1F
100
AcDbEntity
  8
LAY-10
  6
CONTINUOUS
 62
     7
100
AcDbLine
 10
3075.7
 20
2124.499999999999
 30
0.0
 11
3075.7
 21
2659.499999999999
 31
0.0
  0
LINE
  5
198
330
1F
100
AcDbEntity
  8
LAY-10
  6
CONTINUOUS
 62
     7
100
AcDbLine
 10
3124.300000000001
 20
2124.499999999999
 30
0.0
 11
3124.300000000001
 21
2659.499999999999
 31
0.0
  0
ARC
  5
199
330
1F
100
AcDbEntity
  8
LAY-10
  6
CONTINUOUS
 62
     7
100
AcDbCircle
 10
2249.999999999999
 20
686.1666666666908
 30
0.0
 40
90.83333333333529
100
AcDbArc
 50
56.60151153201354
 51
123.3984884679864
  0
ARC
  5
19A
330
1F
100
AcDbEntity
  8
LAY-10
  6
CONTINUOUS
 62
     7
100
AcDbCircle
 10
2349.999999999999
 20
837.8333333333628
 30
0.0
 40
90.83333333333529
100
AcDbArc
 50
236.6015115320134
 51
303.3984884679865
  0
ARC
  5
19B
330
1F
100
AcDbEntity
  8
LAY-10
  6
CONTINUOUS
 62
     7
100
AcDbCircle
 10
3174.3
 20
1266.3
 30
0.0
 40
50.0
100
AcDbArc
 50
180.0
 51
270.0
  0
ARC
  5
19C
330
1F
100
AcDbEntity
  8
LAY-10
  6
CONTINUOUS
 62
     7
100
AcDbCircle
 10
3174.3
 20
1266.3
 30
0.0
 40
98.6
100
AcDbArc
 50
180.0
 51
270.0
  0
LINE
  5
19D
330
1F
100
AcDbEntity
  8
LAY-10
  6
CONTINUOUS
 62
     7
100
AcDbLine
 10
3174.3
 20
1167.7
 30
0.0
 11
3425.700000000002
 21
1167.7
 31
0.0
  0
LINE
  5
19E
330
1F
100
AcDbEntity
  8
LAY-10
  6
CONTINUOUS
 62
     7
100
AcDbLine
 10
3174.3
 20
1216.3
 30
0.0
 11
3425.700000000002
 21
1216.3
 31
0.0
  0
LINE
  5
19F
330
1F
100
AcDbEntity
  8
LAY-10
  6
CONTINUOUS
 62
     7
100
AcDbLine
 10
3475.700000000002
 20
1117.7
 30
0.0
 11
3475.700000000002
 21
792.0000000000016
 31
0.0
  0
LINE
  5
1A0
330
1F
100
AcDbEntity
  8
LAY-10
  6
CONTINUOUS
 62
     7
100
AcDbLine
 10
3524.300000000002
 20
1117.7
 30
0.0
 11
3524.300000000002
 21
792.0000000000016
 31
0.0
  0
LINE
  5
1A1
330
1F
100
AcDbEntity
  8
LAY-10
  6
CONTINUOUS
 62
     7
100
AcDbLine
 10
3524.300000000002
 20
792.0000000000016
 30
0.0
 11
3475.700000000002
 21
792.0000000000016
 31
0.0
  0
ARC
  5
1A2
330
1F
100
AcDbEntity
  8
LAY-10
  6
CONTINUOUS
 62
     7
100
AcDbCircle
 10
3425.700000000002
 20
1117.7
 30
0.0
 40
50.0
100
AcDbArc
 50
0.0
 51
90.00000000000001
  0
ARC
  5
1A3
330
1F
100
AcDbEntity
  8
LAY-10
  6
CONTINUOUS
 62
     7
100
AcDbCircle
 10
3425.700000000002
 20
1117.7
 30
0.0
 40
98.6
100
AcDbArc
 50
0.0
 51
90.00000000000001
  0
LINE
  5
1A4
330
1F
100
AcDbEntity
  8
LAY-10
  6
CONTINUOUS
 62
     7
100
AcDbLine
 10
3435.000000000001
 20
888.8000000000011
 30
0.0
 11
3435.000000000001
 21
895.200000000043
 31
0.0
  0
LINE
  5
1A5
330
1F
100
AcDbEntity
  8
LAY-10
  6
CONTINUOUS
 62
     7
100
AcDbLine
 10
3468.900000000001
 20
896.0000000000014
 30
0.0
 11
3435.800000000002
 21
896.0000000000014
 31
0.0
  0
LINE
  5
1A6
330
1F
100
AcDbEntity
  8
LAY-10
  6
CONTINUOUS
 62
     7
100
AcDbLine
 10
3475.700000000002
 20
888.0000000000018
 30
0.0
 11
3435.800000000002
 21
888.0000000000018
 31
0.0
  0
LINE
  5
1A7
330
1F
100
AcDbEntity
  8
LAY-10
  6
CONTINUOUS
 62
     7
100
AcDbLine
 10
3435.800000000002
 20
896.0000000000014
 30
0.0
 11
3434.99999999998
 21
895.2000000000226
 31
0.0
  0
LINE
  5
1A8
330
1F
100
AcDbEntity
  8
LAY-10
  6
CONTINUOUS
 62
     7
100
AcDbLine
 10
3435.800000000002
 20
888.0000000000018
 30
0.0
 11
3435.00000000002
 21
888.8000000000204
 31
0.0
  0
LINE
  5
1A9
330
1F
100
AcDbEntity
  8
LAY-10
  6
CONTINUOUS
 62
     7
100
AcDbLine
 10
3564.200000000001
 20
896.0000000000014
 30
0.0
 11
3565.000000000023
 21
895.2000000000226
 31
0.0
  0
LINE
  5
1AA
330
1F
100
AcDbEntity
  8
LAY-10
  6
CONTINUOUS
 62
     7
100
AcDbLine
 10
3564.200000000001
 20
888.0000000000018
 30
0.0
 11
3564.999999999982
 21
888.8000000000204
 31
0.0
  0
LINE
  5
1AB
330
1F
100
AcDbEntity
  8
LAY-10
  6
CONTINUOUS
 62
     7
100
AcDbLine
 10
3531.100000000002
 20
896.0000000000014
 30
0.0
 11
3564.200000000001
 21
896.0000000000014
 31
0.0
  0
LINE
  5
1AC
330
1F
100
AcDbEntity
  8
LAY-10
  6
CONTINUOUS
 62
     7
100
AcDbLine
 10
3524.300000000002
 20
888.0000000000018
 30
0.0
 11
3564.200000000001
 21
888.0000000000018
 31
0.0
  0
LINE
  5
1AD
330
1F
100
AcDbEntity
  8
LAY-10
  6
CONTINUOUS
 62
     7
100
AcDbLine
 10
3565.0
 20
888.8000000000011
 30
0.0
 11
3565.0
 21
895.200000000043
 31
0.0
  0
LINE
  5
1AE
330
1F
100
AcDbEntity
  8
LAY-10
  6
CONTINUOUS
 62
     7
100
AcDbLine
 10
3435.800000000002
 20
1096.000000000001
 30
0.0
 11
3434.99999999998
 21
1095.200000000023
 31
0.0
  0
LINE
  5
1AF
330
1F
100
AcDbEntity
  8
LAY-10
  6
CONTINUOUS
 62
     7
100
AcDbLine
 10
3435.800000000002
 20
1088.000000000001
 30
0.0
 11
3435.00000000002
 21
1088.800000000021
 31
0.0
  0
LINE
  5
1B0
330
1F
100
AcDbEntity
  8
LAY-10
  6
CONTINUOUS
 62
     7
100
AcDbLine
 10
3468.900000000001
 20
1096.000000000001
 30
0.0
 11
3435.800000000002
 21
1096.000000000001
 31
0.0
  0
LINE
  5
1B1
330
1F
100
AcDbEntity
  8
LAY-10
  6
CONTINUOUS
 62
     7
100
AcDbLine
 10
3475.700000000002
 20
1088.000000000001
 30
0.0
 11
3435.800000000002
 21
1088.000000000001
 31
0.0
  0
LINE
  5
1B2
330
1F
100
AcDbEntity
  8
LAY-10
  6
CONTINUOUS
 62
     7
100
AcDbLine
 10
3435.000000000001
 20
1088.800000000001
 30
0.0
 11
3435.000000000001
 21
1095.200000000043
 31
0.0
  0
LINE
  5
1B3
330
1F
100
AcDbEntity
  8
LAY-10
  6
CONTINUOUS
 62
     7
100
AcDbLine
 10
3564.200000000001
 20
1096.000000000001
 30
0.0
 11
3565.000000000023
 21
1095.200000000023
 31
0.0
  0
LINE
  5
1B4
330
1F
100
AcDbEntity
  8
LAY-10
  6
CONTINUOUS
 62
     7
100
AcDbLine
 10
3564.200000000001
 20
1088.000000000001
 30
0.0
 11
3564.999999999982
 21
1088.800000000021
 31
0.0
  0
LINE
  5
1B5
330
1F
100
AcDbEntity
  8
LAY-10
  6
CONTINUOUS
 62
     7
100
AcDbLine
 10
3531.100000000002
 20
1096.000000000001
 30
0.0
 11
3564.200000000001
 21
1096.000000000001
 31
0.0
  0
LINE
  5
1B6
330
1F
100
AcDbEntity
  8
LAY-10
  6
CONTINUOUS
 62
     7
100
AcDbLine
 10
3524.300000000002
 20
1088.000000000001
 30
0.0
 11
3564.200000000001
 21
1088.000000000001
 31
0.0
  0
LINE
  5
1B7
330
1F
100
AcDbEntity
  8
LAY-10
  6
CONTINUOUS
 62
     7
100
AcDbLine
 10
3565.0
 20
1088.800000000001
 30
0.0
 11
3565.0
 21
1095.200000000043
 31
0.0
  0
LINE
  5
1B8
330
1F
100
AcDbEntity
  8
LAY-10
  6
CONTINUOUS
 62
     7
100
AcDbLine
 10
3570.0
 20
1141.999999999998
 30
0.0
 11
3570.0
 21
491.9999999999982
 31
0.0
  0
LINE
  5
1B9
330
1F
100
AcDbEntity
  8
LAY-10
  6
CONTINUOUS
 62
     7
100
AcDbLine
 10
3430.0
 20
1141.999999999998
 30
0.0
 11
3430.0
 21
741.9999999999987
 31
0.0
  0
LINE
  5
1BA
330
1F
100
AcDbEntity
  8
LAY-10
  6
CONTINUOUS
 62
     7
100
AcDbLine
 10
3497.000000000001
 20
656.9999999999976
 30
0.0
 11
3503.000000000002
 21
656.9999999999976
 31
0.0
  0
LINE
  5
1BB
330
1F
100
AcDbEntity
  8
LAY-10
  6
CONTINUOUS
 62
     7
100
AcDbLine
 10
3497.000000000001
 20
631.9999999999982
 30
0.0
 11
3503.000000000002
 21
631.9999999999982
 31
0.0
  0
LINE
  5
1BC
330
1F
100
AcDbEntity
  8
LAY-10
  6
CONTINUOUS
 62
     7
100
AcDbLine
 10
3560.0
 20
491.9999999999987
 30
0.0
 11
3430.0
 21
741.9999999999987
 31
0.0
  0
LINE
  5
1BD
330
1F
100
AcDbEntity
  8
LAY-10
  6
CONTINUOUS
 62
     7
100
AcDbLine
 10
3570.0
 20
491.9999999999982
 30
0.0
 11
3560.0
 21
491.9999999999982
 31
0.0
  0
LINE
  5
1BE
330
1F
100
AcDbEntity
  8
LAY-10
  6
CONTINUOUS
 62
     7
100
AcDbLine
 10
3503.000000000002
 20
792.0000000000022
 30
0.0
 11
3503.000000000002
 21
631.9999999999982
 31
0.0
  0
LINE
  5
1BF
330
1F
100
AcDbEntity
  8
LAY-10
  6
CONTINUOUS
 62
     7
100
AcDbLine
 10
3497.000000000001
 20
792.0000000000022
 30
0.0
 11
3497.000000000001
 21
631.9999999999982
 31
0.0
  0
LINE
  5
1C0
330
1F
100
AcDbEntity
  8
LAY-10
  6
CONTINUOUS
 62
     7
100
AcDbLine
 10
3570.0
 20
1141.999999999998
 30
0.0
 11
3521.258725399622
 21
1141.999999999998
 31
0.0
  0
LINE
  5
1C1
330
1F
100
AcDbEntity
  8
LAY-10
  6
CONTINUOUS
 62
     7
100
AcDbLine
 10
3469.397940454903
 20
1141.999999999998
 30
0.0
 11
3430.0
 21
1141.999999999998
 31
0.0
  0
LINE
  5
1C2
330
1F
100
AcDbEntity
  8
LAY-10
  6
CONTINUOUS
 62
     7
100
AcDbLine
 10
3564.200000000001
 20
896.0000000000014
 30
0.0
 11
3564.200000000001
 21
888.0000000000018
 31
0.0
  0
LINE
  5
1C3
330
1F
100
AcDbEntity
  8
LAY-10
  6
CONTINUOUS
 62
     7
100
AcDbLine
 10
3435.800000000002
 20
896.0000000000014
 30
0.0
 11
3435.800000000002
 21
888.0000000000018
 31
0.0
  0
LINE
  5
1C4
330
1F
100
AcDbEntity
  8
LAY-10
  6
CONTINUOUS
 62
     7
100
AcDbLine
 10
3435.800000000002
 20
1096.000000000001
 30
0.0
 11
3435.800000000002
 21
1088.000000000001
 31
0.0
  0
LINE
  5
1C5
330
1F
100
AcDbEntity
  8
LAY-10
  6
CONTINUOUS
 62
     7
100
AcDbLine
 10
3564.200000000001
 20
1096.000000000001
 30
0.0
 11
3564.200000000001
 21
1088.000000000001
 31
0.0
  0
LINE
  5
1C6
330
1F
100
AcDbEntity
  8
LAY-10
  6
CONTINUOUS
 62
     7
100
AcDbLine
 10
3565.0
 20
1095.200000000001
 30
0.0
 11
3531.100000000002
 21
1095.200000000001
 31
0.0
  0
LINE
  5
1C7
330
1F
100
AcDbEntity
  8
LAY-10
  6
CONTINUOUS
 62
     7
100
AcDbLine
 10
3565.0
 20
1088.800000000001
 30
0.0
 11
3531.100000000002
 21
1088.800000000001
 31
0.0
  0
LINE
  5
1C8
330
1F
100
AcDbEntity
  8
LAY-10
  6
CONTINUOUS
 62
     7
100
AcDbLine
 10
3435.000000000001
 20
1095.200000000001
 30
0.0
 11
3468.900000000001
 21
1095.200000000001
 31
0.0
  0
LINE
  5
1C9
330
1F
100
AcDbEntity
  8
LAY-10
  6
CONTINUOUS
 62
     7
100
AcDbLine
 10
3435.000000000001
 20
1088.800000000001
 30
0.0
 11
3468.900000000001
 21
1088.800000000001
 31
0.0
  0
LINE
  5
1CA
330
1F
100
AcDbEntity
  8
LAY-10
  6
CONTINUOUS
 62
     7
100
AcDbLine
 10
3435.000000000001
 20
895.2000000000021
 30
0.0
 11
3468.900000000001
 21
895.2000000000021
 31
0.0
  0
LINE
  5
1CB
330
1F
100
AcDbEntity
  8
LAY-10
  6
CONTINUOUS
 62
     7
100
AcDbLine
 10
3435.000000000001
 20
888.8000000000011
 30
0.0
 11
3468.900000000001
 21
888.8000000000011
 31
0.0
  0
LINE
  5
1CC
330
1F
100
AcDbEntity
  8
LAY-10
  6
CONTINUOUS
 62
     7
100
AcDbLine
 10
3565.0
 20
895.2000000000021
 30
0.0
 11
3531.100000000002
 21
895.2000000000021
 31
0.0
  0
LINE
  5
1CD
330
1F
100
AcDbEntity
  8
LAY-10
  6
CONTINUOUS
 62
     7
100
AcDbLine
 10
3565.0
 20
888.8000000000011
 30
0.0
 11
3531.100000000002
 21
888.8000000000011
 31
0.0
  0
ARC
  5
1CE
330
1F
100
AcDbEntity
  8
LAY-10
  6
CONTINUOUS
 62
     7
100
AcDbCircle
 10
3550.0
 20
686.1666666666912
 30
0.0
 40
90.83333333333529
100
AcDbArc
 50
56.60151153201354
 51
123.3984884679864
  0
ARC
  5
1CF
330
1F
100
AcDbEntity
  8
LAY-10
  6
CONTINUOUS
 62
     7
100
AcDbCircle
 10
3450.0
 20
837.8333333333632
 30
0.0
 40
90.83333333333529
100
AcDbArc
 50
236.6015115320134
 51
303.3984884679865
  0
LINE
  5
1D0
330
1F
100
AcDbEntity
  8
LAY-10
  6
CONTINUOUS
 62
     7
100
AcDbLine
 10
3566.500000000001
 20
1141.999999999998
 30
0.0
 11
3566.500000000001
 21
775.4888052687471
 31
0.0
  0
LINE
  5
1D1
330
1F
100
AcDbEntity
  8
LAY-10
  6
CONTINUOUS
 62
     7
100
AcDbLine
 10
3433.5
 20
748.5111947313072
 30
0.0
 11
3433.5
 21
1141.999999999998
 31
0.0
  0
LINE
  5
1D2
330
1F
100
AcDbEntity
  8
LAY-10
  6
CONTINUOUS
 62
     7
100
AcDbLine
 10
2676.810769438961
 20
4192.737108978716
 30
0.0
 11
2673.062401208213
 21
4198.165396137367
 31
0.0
  0
LINE
  5
1D3
330
1F
100
AcDbEntity
  8
LAY-10
  6
CONTINUOUS
 62
     7
100
AcDbLine
 10
2673.062401208213
 20
4198.165396137367
 30
0.0
 11
2670.892433732566
 21
4192.737108978716
 31
0.0
  0
LINE
  5
1D4
330
1F
100
AcDbEntity
  8
LAY-10
  6
CONTINUOUS
 62
     7
100
AcDbLine
 10
2676.810769438961
 20
4192.737108978716
 30
0.0
 11
2677.125332483007
 21
4192.737108978716
 31
0.0
  0
LINE
  5
1D5
330
1F
100
AcDbEntity
  8
LAY-10
  6
CONTINUOUS
 62
     7
100
AcDbLine
 10
2722.836565797419
 20
4192.61818026635
 30
0.0
 11
2723.151646537986
 21
4192.61818026635
 31
0.0
  0
LINE
  5
1D6
330
1F
100
AcDbEntity
  8
LAY-10
  6
CONTINUOUS
 62
     7
100
AcDbLine
 10
2759.999999999967
 20
4193.799999999996
 30
0.0
 11
2759.999999999967
 21
4199.799999999999
 31
0.0
  0
LINE
  5
1D7
330
1F
100
AcDbEntity
  8
LAY-10
  6
CONTINUOUS
 62
     7
100
AcDbLine
 10
2732.748282397706
 20
4199.799999999999
 30
0.0
 11
2759.999999999967
 21
4199.799999999999
 31
0.0
  0
ARC
  5
1D8
330
1F
100
AcDbEntity
  8
LAY-10
  6
CONTINUOUS
 62
     7
100
AcDbCircle
 10
2732.748282397706
 20
4189.799999999999
 30
0.0
 40
10.0
100
AcDbArc
 50
90.00000000000001
 51
162.6999268340505
  0
LINE
  5
1D9
330
1F
100
AcDbEntity
  8
LAY-10
  6
CONTINUOUS
 62
     7
100
AcDbLine
 10
2732.433932848174
 20
4193.799999999996
 30
0.0
 11
2759.999999999967
 21
4193.799999999996
 31
0.0
  0
ARC
  5
1DA
330
1F
100
AcDbEntity
  8
LAY-10
  6
CONTINUOUS
 62
     7
100
AcDbCircle
 10
2699.999999999999
 20
4199.999999999999
 30
0.0
 40
30.0
100
AcDbArc
 50
194.0103027564805
 51
342.5423968762708
  0
ARC
  5
1DB
330
1F
100
AcDbEntity
  8
LAY-10
  6
CONTINUOUS
 62
     7
100
AcDbCircle
 10
2732.433932848174
 20
4189.799999999996
 30
0.0
 40
4.0
100
AcDbArc
 50
90.00000000000001
 51
162.5423968762674
  0
ARC
  5
1DC
330
1F
100
AcDbEntity
  8
LAY-10
  6
CONTINUOUS
 62
     7
100
AcDbCircle
 10
2699.999999999999
 20
4199.999999999999
 30
0.0
 40
24.0
100
AcDbArc
 50
197.6150621644506
 51
342.0868011451792
  0
ARC
  5
1DD
330
1F
100
AcDbEntity
  8
LAY-10
  6
CONTINUOUS
 62
     7
100
AcDbCircle
 10
2900.0
 20
4199.999999999999
 30
0.0
 40
190.0
100
AcDbArc
 50
188.3206551877452
 51
351.679344812255
  0
ARC
  5
1DE
330
1F
100
AcDbEntity
  8
LAY-10
  6
CONTINUOUS
 62
     7
100
AcDbCircle
 10
2900.0
 20
4199.999999999999
 30
0.0
 40
210.0
100
AcDbArc
 50
187.9138581622949
 51
352.0861418377052
  0
LINE
  5
1DF
330
1F
100
AcDbEntity
  8
LAY-10
  6
CONTINUOUS
 62
     7
100
AcDbLine
 10
3123.189230561037
 20
4192.737108978716
 30
0.0
 11
3126.937598791785
 21
4198.165396137367
 31
0.0
  0
LINE
  5
1E0
330
1F
100
AcDbEntity
  8
LAY-10
  6
CONTINUOUS
 62
     7
100
AcDbLine
 10
3126.937598791785
 20
4198.165396137367
 30
0.0
 11
3129.107566267432
 21
4192.737108978716
 31
0.0
  0
LINE
  5
1E1
330
1F
100
AcDbEntity
  8
LAY-10
  6
CONTINUOUS
 62
     7
100
AcDbLine
 10
3123.189230561037
 20
4192.737108978716
 30
0.0
 11
3122.874667516993
 21
4192.737108978716
 31
0.0
  0
LINE
  5
1E2
330
1F
100
AcDbEntity
  8
LAY-10
  6
CONTINUOUS
 62
     7
100
AcDbLine
 10
3077.16343420258
 20
4192.61818026635
 30
0.0
 11
3076.848353462013
 21
4192.61818026635
 31
0.0
  0
LINE
  5
1E3
330
1F
100
AcDbEntity
  8
LAY-10
  6
CONTINUOUS
 62
     7
100
AcDbLine
 10
3040.000000000032
 20
4193.799999999996
 30
0.0
 11
3040.000000000032
 21
4199.799999999999
 31
0.0
  0
LINE
  5
1E4
330
1F
100
AcDbEntity
  8
LAY-10
  6
CONTINUOUS
 62
     7
100
AcDbLine
 10
3067.251717602293
 20
4199.799999999999
 30
0.0
 11
3040.000000000032
 21
4199.799999999999
 31
0.0
  0
ARC
  5
1E5
330
1F
100
AcDbEntity
  8
LAY-10
  6
CONTINUOUS
 62
     7
100
AcDbCircle
 10
3067.251717602293
 20
4189.799999999999
 30
0.0
 40
10.0
100
AcDbArc
 50
17.30007316594949
 51
90.00000000000001
  0
LINE
  5
1E6
330
1F
100
AcDbEntity
  8
LAY-10
  6
CONTINUOUS
 62
     7
100
AcDbLine
 10
3067.566067151825
 20
4193.799999999996
 30
0.0
 11
3040.000000000032
 21
4193.799999999996
 31
0.0
  0
ARC
  5
1E7
330
1F
100
AcDbEntity
  8
LAY-10
  6
CONTINUOUS
 62
     7
100
AcDbCircle
 10
3099.999999999999
 20
4199.999999999999
 30
0.0
 40
30.0
100
AcDbArc
 50
197.4576031237297
 51
345.9896972435196
  0
ARC
  5
1E8
330
1F
100
AcDbEntity
  8
LAY-10
  6
CONTINUOUS
 62
     7
100
AcDbCircle
 10
3067.566067151825
 20
4189.799999999996
 30
0.0
 40
4.0
100
AcDbArc
 50
17.45760312373255
 51
90.00000000000001
  0
ARC
  5
1E9
330
1F
100
AcDbEntity
  8
LAY-10
  6
CONTINUOUS
 62
     7
100
AcDbCircle
 10
3099.999999999999
 20
4199.999999999999
 30
0.0
 40
24.0
100
AcDbArc
 50
197.9131988548209
 51
342.3849378355495
  0
LINE
  5
1EA
330
1F
100
AcDbEntity
  8
LAY-10
  6
CONTINUOUS
 62
     7
100
AcDbLine
 10
3123.189230561039
 20
4207.262891021282
 30
0.0
 11
3126.937598791786
 21
4201.834603862632
 31
0.0
  0
LINE
  5
1EB
330
1F
100
AcDbEntity
  8
LAY-10
  6
CONTINUOUS
 62
     7
100
AcDbLine
 10
3126.937598791786
 20
4201.834603862632
 30
0.0
 11
3129.107566267433
 21
4207.262891021282
 31
0.0
  0
LINE
  5
1EC
330
1F
100
AcDbEntity
  8
LAY-10
  6
CONTINUOUS
 62
     7
100
AcDbLine
 10
3123.189230561039
 20
4207.262891021282
 30
0.0
 11
3122.874667516993
 21
4207.262891021282
 31
0.0
  0
LINE
  5
1ED
330
1F
100
AcDbEntity
  8
LAY-10
  6
CONTINUOUS
 62
     7
100
AcDbLine
 10
3077.163434202581
 20
4207.38181973365
 30
0.0
 11
3076.848353462013
 21
4207.38181973365
 31
0.0
  0
LINE
  5
1EE
330
1F
100
AcDbEntity
  8
LAY-10
  6
CONTINUOUS
 62
     7
100
AcDbLine
 10
3040.000000000033
 20
4206.200000000003
 30
0.0
 11
3040.000000000033
 21
4200.2
 31
0.0
  0
LINE
  5
1EF
330
1F
100
AcDbEntity
  8
LAY-10
  6
CONTINUOUS
 62
     7
100
AcDbLine
 10
3067.251717602294
 20
4200.2
 30
0.0
 11
3040.000000000033
 21
4200.2
 31
0.0
  0
ARC
  5
1F0
330
1F
100
AcDbEntity
  8
LAY-10
  6
CONTINUOUS
 62
     7
100
AcDbCircle
 10
3067.251717602294
 20
4210.2
 30
0.0
 40
10.0
100
AcDbArc
 50
270.0
 51
342.6999268340505
  0
LINE
  5
1F1
330
1F
100
AcDbEntity
  8
LAY-10
  6
CONTINUOUS
 62
     7
100
AcDbLine
 10
3067.566067151826
 20
4206.200000000003
 30
0.0
 11
3040.000000000033
 21
4206.200000000003
 31
0.0
  0
ARC
  5
1F2
330
1F
100
AcDbEntity
  8
LAY-10
  6
CONTINUOUS
 62
     7
100
AcDbCircle
 10
3100.000000000001
 20
4199.999999999999
 30
0.0
 40
30.0
100
AcDbArc
 50
14.01030275648038
 51
162.5423968762688
  0
ARC
  5
1F3
330
1F
100
AcDbEntity
  8
LAY-10
  6
CONTINUOUS
 62
     7
100
AcDbCircle
 10
3067.566067151826
 20
4210.200000000003
 30
0.0
 40
4.0
100
AcDbArc
 50
270.0
 51
342.5423968762674
  0
ARC
  5
1F4
330
1F
100
AcDbEntity
  8
LAY-10
  6
CONTINUOUS
 62
     7
100
AcDbCircle
 10
3100.000000000001
 20
4199.999999999999
 30
0.0
 40
24.0
100
AcDbArc
 50
17.61506216445296
 51
162.086801145177
  0
ARC
  5
1F5
330
1F
100
AcDbEntity
  8
LAY-10
  6
CONTINUOUS
 62
     7
100
AcDbCircle
 10
2900.0
 20
4199.999999999999
 30
0.0
 40
190.0
100
AcDbArc
 50
8.320655187745505
 51
171.6793448122544
  0
ARC
  5
1F6
330
1F
100
AcDbEntity
  8
LAY-10
  6
CONTINUOUS
 62
     7
100
AcDbCircle
 10
2900.0
 20
4199.999999999999
 30
0.0
 40
210.0
100
AcDbArc
 50
7.913858162294913
 51
172.0861418377048
  0
LINE
  5
1F7
330
1F
100
AcDbEntity
  8
LAY-10
  6
CONTINUOUS
 62
     7
100
AcDbLine
 10
2676.810769438963
 20
4207.262891021282
 30
0.0
 11
2673.062401208215
 21
4201.834603862632
 31
0.0
  0
LINE
  5
1F8
330
1F
100
AcDbEntity
  8
LAY-10
  6
CONTINUOUS
 62
     7
100
AcDbLine
 10
2673.062401208215
 20
4201.834603862632
 30
0.0
 11
2670.892433732568
 21
4207.262891021282
 31
0.0
  0
LINE
  5
1F9
330
1F
100
AcDbEntity
  8
LAY-10
  6
CONTINUOUS
 62
     7
100
AcDbLine
 10
2676.810769438963
 20
4207.262891021282
 30
0.0
 11
2677.125332483007
 21
4207.262891021282
 31
0.0
  0
LINE
  5
1FA
330
1F
100
AcDbEntity
  8
LAY-10
  6
CONTINUOUS
 62
     7
100
AcDbLine
 10
2722.836565797419
 20
4207.38181973365
 30
0.0
 11
2723.151646537988
 21
4207.38181973365
 31
0.0
  0
LINE
  5
1FB
330
1F
100
AcDbEntity
  8
LAY-10
  6
CONTINUOUS
 62
     7
100
AcDbLine
 10
2759.999999999967
 20
4206.200000000003
 30
0.0
 11
2759.999999999967
 21
4200.2
 31
0.0
  0
LINE
  5
1FC
330
1F
100
AcDbEntity
  8
LAY-10
  6
CONTINUOUS
 62
     7
100
AcDbLine
 10
2732.748282397707
 20
4200.2
 30
0.0
 11
2759.999999999967
 21
4200.2
 31
0.0
  0
ARC
  5
1FD
330
1F
100
AcDbEntity
  8
LAY-10
  6
CONTINUOUS
 62
     7
100
AcDbCircle
 10
2732.748282397707
 20
4210.2
 30
0.0
 40
10.0
100
AcDbArc
 50
197.3000731659495
 51
270.0
  0
LINE
  5
1FE
330
1F
100
AcDbEntity
  8
LAY-10
  6
CONTINUOUS
 62
     7
100
AcDbLine
 10
2732.433932848174
 20
4206.200000000003
 30
0.0
 11
2759.999999999967
 21
4206.200000000003
 31
0.0
  0
ARC
  5
1FF
330
1F
100
AcDbEntity
  8
LAY-10
  6
CONTINUOUS
 62
     7
100
AcDbCircle
 10
2700.000000000001
 20
4199.999999999999
 30
0.0
 40
30.0
100
AcDbArc
 50
17.45760312373111
 51
165.9896972435196
  0
ARC
  5
200
330
1F
100
AcDbEntity
  8
LAY-10
  6
CONTINUOUS
 62
     7
100
AcDbCircle
 10
2732.433932848174
 20
4210.200000000003
 30
0.0
 40
4.0
100
AcDbArc
 50
197.4576031237364
 51
270.0
  0
ARC
  5
201
330
1F
100
AcDbEntity
  8
LAY-10
  6
CONTINUOUS
 62
     7
100
AcDbCircle
 10
2700.000000000001
 20
4199.999999999999
 30
0.0
 40
24.0
100
AcDbArc
 50
17.913198854823
 51
162.3849378355494
  0
ARC
  5
202
330
1F
100
AcDbEntity
  8
LAY-10
  6
CONTINUOUS
 62
     7
100
AcDbCircle
 10
2299.999999999995
 20
4200.0
 30
0.0
 40
24.29999999999666
100
AcDbArc
 50
90.00000000000001
 51
270.0
  0
LINE
  5
203
330
1F
100
AcDbEntity
  8
LAY-10
  6
CONTINUOUS
 62
     7
100
AcDbLine
 10
2296.999999999995
 20
4105.0
 30
0.0
 11
2299.999999999995
 21
4105.0
 31
0.0
  0
LINE
  5
204
330
1F
100
AcDbEntity
  8
LAY-10
  6
CONTINUOUS
 62
     7
100
AcDbLine
 10
2296.999999999995
 20
4158.5
 30
0.0
 11
2299.999999999995
 21
4158.5
 31
0.0
  0
LINE
  5
205
330
1F
100
AcDbEntity
  8
LAY-10
  6
CONTINUOUS
 62
     7
100
AcDbLine
 10
2302.999999999995
 20
4105.0
 30
0.0
 11
2299.999999999995
 21
4105.0
 31
0.0
  0
LINE
  5
206
330
1F
100
AcDbEntity
  8
LAY-10
  6
CONTINUOUS
 62
     7
100
AcDbLine
 10
2302.999999999995
 20
4158.5
 30
0.0
 11
2299.999999999995
 21
4158.5
 31
0.0
  0
LINE
  5
207
330
1F
100
AcDbEntity
  8
LAY-10
  6
CONTINUOUS
 62
     7
100
AcDbLine
 10
2296.999999999995
 20
4295.0
 30
0.0
 11
2299.999999999995
 21
4295.0
 31
0.0
  0
LINE
  5
208
330
1F
100
AcDbEntity
  8
LAY-10
  6
CONTINUOUS
 62
     7
100
AcDbLine
 10
2296.999999999995
 20
4241.5
 30
0.0
 11
2299.999999999995
 21
4241.5
 31
0.0
  0
LINE
  5
209
330
1F
100
AcDbEntity
  8
LAY-10
  6
CONTINUOUS
 62
     7
100
AcDbLine
 10
2302.999999999995
 20
4295.0
 30
0.0
 11
2299.999999999995
 21
4295.0
 31
0.0
  0
LINE
  5
20A
330
1F
100
AcDbEntity
  8
LAY-10
  6
CONTINUOUS
 62
     7
100
AcDbLine
 10
2302.999999999995
 20
4241.5
 30
0.0
 11
2299.999999999995
 21
4241.5
 31
0.0
  0
LINE
  5
20B
330
1F
100
AcDbEntity
  8
LAY-10
  6
CONTINUOUS
 62
     7
100
AcDbLine
 10
2296.999999999995
 20
4241.5
 30
0.0
 11
2296.999999999995
 21
4265.743821002433
 31
0.0
  0
LINE
  5
20C
330
1F
100
AcDbEntity
  8
LAY-10
  6
CONTINUOUS
 62
     7
100
AcDbLine
 10
2302.999999999995
 20
4241.5
 30
0.0
 11
2302.999999999995
 21
4266.379590236759
 31
0.0
  0
LINE
  5
20D
330
1F
100
AcDbEntity
  8
LAY-10
  6
CONTINUOUS
 62
     7
100
AcDbLine
 10
2296.999999999995
 20
4269.282032302755
 30
0.0
 11
2296.999999999995
 21
4295.0
 31
0.0
  0
LINE
  5
20E
330
1F
100
AcDbEntity
  8
LAY-10
  6
CONTINUOUS
 62
     7
100
AcDbLine
 10
2302.999999999995
 20
4269.885620838625
 30
0.0
 11
2302.999999999995
 21
4295.0
 31
0.0
  0
LINE
  5
20F
330
1F
100
AcDbEntity
  8
LAY-10
  6
CONTINUOUS
 62
     7
100
AcDbLine
 10
2296.999999999995
 20
4158.5
 30
0.0
 11
2296.999999999995
 21
4133.620409763242
 31
0.0
  0
LINE
  5
210
330
1F
100
AcDbEntity
  8
LAY-10
  6
CONTINUOUS
 62
     7
100
AcDbLine
 10
2296.999999999995
 20
4130.114379161376
 30
0.0
 11
2296.999999999995
 21
4105.0
 31
0.0
  0
LINE
  5
211
330
1F
100
AcDbEntity
  8
LAY-10
  6
CONTINUOUS
 62
     7
100
AcDbLine
 10
2302.999999999995
 20
4130.717967697245
 30
0.0
 11
2302.999999999995
 21
4105.0
 31
0.0
  0
LINE
  5
212
330
1F
100
AcDbEntity
  8
LAY-10
  6
CONTINUOUS
 62
     7
100
AcDbLine
 10
2302.999999999995
 20
4158.5
 30
0.0
 11
2302.999999999995
 21
4134.256178997566
 31
0.0
  0
ARC
  5
213
330
1F
100
AcDbEntity
  8
LAY-10
  6
CONTINUOUS
 62
     7
100
AcDbCircle
 10
2299.999999999995
 20
4200.0
 30
0.0
 40
66.5
100
AcDbArc
 50
21.43303449353391
 51
338.5669655064661
  0
ARC
  5
214
330
1F
100
AcDbEntity
  8
LAY-10
  6
CONTINUOUS
 62
     7
100
AcDbCircle
 10
2299.999999999995
 20
4200.0
 30
0.0
 40
70.0
100
AcDbArc
 50
20.31265873755371
 51
339.6873412624466
  0
LINE
  5
215
330
1F
100
AcDbEntity
  8
LAY-10
  6
CONTINUOUS
 62
     7
100
AcDbLine
 10
2235.799999999999
 20
4204.0
 30
0.0
 11
2234.999999999977
 21
4203.200000000021
 31
0.0
  0
LINE
  5
216
330
1F
100
AcDbEntity
  8
LAY-10
  6
CONTINUOUS
 62
     7
100
AcDbLine
 10
2235.799999999999
 20
4196.0
 30
0.0
 11
2235.000000000018
 21
4196.800000000019
 31
0.0
  0
LINE
  5
217
330
1F
100
AcDbEntity
  8
LAY-10
  6
CONTINUOUS
 62
     7
100
AcDbLine
 10
2268.899999999998
 20
4204.0
 30
0.0
 11
2235.799999999999
 21
4204.0
 31
0.0
  0
LINE
  5
218
330
1F
100
AcDbEntity
  8
LAY-10
  6
CONTINUOUS
 62
     7
100
AcDbLine
 10
2275.699999999998
 20
4196.0
 30
0.0
 11
2235.799999999999
 21
4196.0
 31
0.0
  0
LINE
  5
219
330
1F
100
AcDbEntity
  8
LAY-10
  6
CONTINUOUS
 62
     7
100
AcDbLine
 10
2235.0
 20
4196.799999999999
 30
0.0
 11
2235.0
 21
4203.200000000042
 31
0.0
  0
LINE
  5
21A
330
1F
100
AcDbEntity
  8
LAY-10
  6
CONTINUOUS
 62
     7
100
AcDbLine
 10
2235.799999999999
 20
4204.0
 30
0.0
 11
2235.799999999999
 21
4196.0
 31
0.0
  0
LINE
  5
21B
330
1F
100
AcDbEntity
  8
LAY-10
  6
CONTINUOUS
 62
     7
100
AcDbLine
 10
2235.0
 20
4203.2
 30
0.0
 11
2268.899999999998
 21
4203.2
 31
0.0
  0
LINE
  5
21C
330
1F
100
AcDbEntity
  8
LAY-10
  6
CONTINUOUS
 62
     7
100
AcDbLine
 10
2235.0
 20
4196.799999999999
 30
0.0
 11
2268.899999999998
 21
4196.799999999999
 31
0.0
  0
LINE
  5
21D
330
1F
100
AcDbEntity
  8
LAY-10
  6
CONTINUOUS
 62
     7
100
AcDbLine
 10
2275.699999999998
 20
4204.0
 30
0.0
 11
2276.031478977624
 21
4204.0
 31
0.0
  0
LINE
  5
21E
330
1F
100
AcDbEntity
  8
LAY-10
  6
CONTINUOUS
 62
     7
100
AcDbLine
 10
2275.699999999998
 20
4203.2
 30
0.0
 11
2275.911621059107
 21
4203.2
 31
0.0
  0
LINE
  5
21F
330
1F
100
AcDbEntity
  8
LAY-10
  6
CONTINUOUS
 62
     7
100
AcDbLine
 10
2275.699999999998
 20
4196.0
 30
0.0
 11
2276.031478977624
 21
4196.0
 31
0.0
  0
LINE
  5
220
330
1F
100
AcDbEntity
  8
LAY-10
  6
CONTINUOUS
 62
     7
100
AcDbLine
 10
2275.699999999998
 20
4196.8
 30
0.0
 11
2275.911621059107
 21
4196.8
 31
0.0
  0
LINE
  5
221
330
1F
100
AcDbEntity
  8
LAY-10
  6
CONTINUOUS
 62
     7
100
AcDbLine
 10
2299.999999999995
 20
4224.299999999997
 30
0.0
 11
2682.407103706322
 21
4224.299999999997
 31
0.0
  0
LINE
  5
222
330
1F
100
AcDbEntity
  8
LAY-10
  6
CONTINUOUS
 62
     7
100
AcDbLine
 10
2299.999999999995
 20
4175.700000000003
 30
0.0
 11
2682.407103706317
 21
4175.700000000003
 31
0.0
  0
ARC
  5
223
330
1F
100
AcDbEntity
  8
LAY-10
  6
CONTINUOUS
 62
     7
100
AcDbCircle
 10
3500.000000000005
 20
4200.0
 30
0.0
 40
24.29999999999666
100
AcDbArc
 50
270.0
 51
90.00000000000001
  0
LINE
  5
224
330
1F
100
AcDbEntity
  8
LAY-10
  6
CONTINUOUS
 62
     7
100
AcDbLine
 10
3503.000000000004
 20
4105.0
 30
0.0
 11
3500.000000000005
 21
4105.0
 31
0.0
  0
LINE
  5
225
330
1F
100
AcDbEntity
  8
LAY-10
  6
CONTINUOUS
 62
     7
100
AcDbLine
 10
3503.000000000004
 20
4158.5
 30
0.0
 11
3500.000000000005
 21
4158.5
 31
0.0
  0
LINE
  5
226
330
1F
100
AcDbEntity
  8
LAY-10
  6
CONTINUOUS
 62
     7
100
AcDbLine
 10
3497.000000000005
 20
4105.0
 30
0.0
 11
3500.000000000005
 21
4105.0
 31
0.0
  0
LINE
  5
227
330
1F
100
AcDbEntity
  8
LAY-10
  6
CONTINUOUS
 62
     7
100
AcDbLine
 10
3497.000000000005
 20
4158.5
 30
0.0
 11
3500.000000000005
 21
4158.5
 31
0.0
  0
LINE
  5
228
330
1F
100
AcDbEntity
  8
LAY-10
  6
CONTINUOUS
 62
     7
100
AcDbLine
 10
3503.000000000004
 20
4295.0
 30
0.0
 11
3500.000000000005
 21
4295.0
 31
0.0
  0
LINE
  5
229
330
1F
100
AcDbEntity
  8
LAY-10
  6
CONTINUOUS
 62
     7
100
AcDbLine
 10
3503.000000000004
 20
4241.5
 30
0.0
 11
3500.000000000005
 21
4241.5
 31
0.0
  0
LINE
  5
22A
330
1F
100
AcDbEntity
  8
LAY-10
  6
CONTINUOUS
 62
     7
100
AcDbLine
 10
3497.000000000005
 20
4295.0
 30
0.0
 11
3500.000000000005
 21
4295.0
 31
0.0
  0
LINE
  5
22B
330
1F
100
AcDbEntity
  8
LAY-10
  6
CONTINUOUS
 62
     7
100
AcDbLine
 10
3497.000000000005
 20
4241.5
 30
0.0
 11
3500.000000000005
 21
4241.5
 31
0.0
  0
LINE
  5
22C
330
1F
100
AcDbEntity
  8
LAY-10
  6
CONTINUOUS
 62
     7
100
AcDbLine
 10
3503.000000000004
 20
4241.5
 30
0.0
 11
3503.000000000004
 21
4265.743821002433
 31
0.0
  0
LINE
  5
22D
330
1F
100
AcDbEntity
  8
LAY-10
  6
CONTINUOUS
 62
     7
100
AcDbLine
 10
3497.000000000005
 20
4241.5
 30
0.0
 11
3497.000000000005
 21
4266.379590236759
 31
0.0
  0
LINE
  5
22E
330
1F
100
AcDbEntity
  8
LAY-10
  6
CONTINUOUS
 62
     7
100
AcDbLine
 10
3503.000000000004
 20
4269.282032302755
 30
0.0
 11
3503.000000000004
 21
4295.0
 31
0.0
  0
LINE
  5
22F
330
1F
100
AcDbEntity
  8
LAY-10
  6
CONTINUOUS
 62
     7
100
AcDbLine
 10
3497.000000000005
 20
4269.885620838625
 30
0.0
 11
3497.000000000005
 21
4295.0
 31
0.0
  0
LINE
  5
230
330
1F
100
AcDbEntity
  8
LAY-10
  6
CONTINUOUS
 62
     7
100
AcDbLine
 10
3503.000000000004
 20
4158.5
 30
0.0
 11
3503.000000000004
 21
4133.620409763242
 31
0.0
  0
LINE
  5
231
330
1F
100
AcDbEntity
  8
LAY-10
  6
CONTINUOUS
 62
     7
100
AcDbLine
 10
3503.000000000004
 20
4130.114379161376
 30
0.0
 11
3503.000000000004
 21
4105.0
 31
0.0
  0
LINE
  5
232
330
1F
100
AcDbEntity
  8
LAY-10
  6
CONTINUOUS
 62
     7
100
AcDbLine
 10
3497.000000000005
 20
4130.717967697245
 30
0.0
 11
3497.000000000005
 21
4105.0
 31
0.0
  0
LINE
  5
233
330
1F
100
AcDbEntity
  8
LAY-10
  6
CONTINUOUS
 62
     7
100
AcDbLine
 10
3497.000000000005
 20
4158.5
 30
0.0
 11
3497.000000000005
 21
4134.256178997566
 31
0.0
  0
ARC
  5
234
330
1F
100
AcDbEntity
  8
LAY-10
  6
CONTINUOUS
 62
     7
100
AcDbCircle
 10
3500.000000000005
 20
4200.0
 30
0.0
 40
66.5
100
AcDbArc
 50
201.4330344935339
 51
158.5669655064659
  0
ARC
  5
235
330
1F
100
AcDbEntity
  8
LAY-10
  6
CONTINUOUS
 62
     7
100
AcDbCircle
 10
3500.000000000005
 20
4200.0
 30
0.0
 40
70.0
100
AcDbArc
 50
200.3126587375535
 51
159.6873412624463
  0
LINE
  5
236
330
1F
100
AcDbEntity
  8
LAY-10
  6
CONTINUOUS
 62
     7
100
AcDbLine
 10
3564.200000000001
 20
4204.0
 30
0.0
 11
3565.000000000023
 21
4203.200000000021
 31
0.0
  0
LINE
  5
237
330
1F
100
AcDbEntity
  8
LAY-10
  6
CONTINUOUS
 62
     7
100
AcDbLine
 10
3564.200000000001
 20
4196.0
 30
0.0
 11
3564.999999999982
 21
4196.800000000019
 31
0.0
  0
LINE
  5
238
330
1F
100
AcDbEntity
  8
LAY-10
  6
CONTINUOUS
 62
     7
100
AcDbLine
 10
3531.100000000001
 20
4204.0
 30
0.0
 11
3564.200000000001
 21
4204.0
 31
0.0
  0
LINE
  5
239
330
1F
100
AcDbEntity
  8
LAY-10
  6
CONTINUOUS
 62
     7
100
AcDbLine
 10
3524.300000000002
 20
4196.0
 30
0.0
 11
3564.200000000001
 21
4196.0
 31
0.0
  0
LINE
  5
23A
330
1F
100
AcDbEntity
  8
LAY-10
  6
CONTINUOUS
 62
     7
100
AcDbLine
 10
3565.0
 20
4196.799999999999
 30
0.0
 11
3565.0
 21
4203.200000000042
 31
0.0
  0
LINE
  5
23B
330
1F
100
AcDbEntity
  8
LAY-10
  6
CONTINUOUS
 62
     7
100
AcDbLine
 10
3564.200000000001
 20
4204.0
 30
0.0
 11
3564.200000000001
 21
4196.0
 31
0.0
  0
LINE
  5
23C
330
1F
100
AcDbEntity
  8
LAY-10
  6
CONTINUOUS
 62
     7
100
AcDbLine
 10
3565.0
 20
4203.2
 30
0.0
 11
3531.100000000001
 21
4203.2
 31
0.0
  0
LINE
  5
23D
330
1F
100
AcDbEntity
  8
LAY-10
  6
CONTINUOUS
 62
     7
100
AcDbLine
 10
3565.0
 20
4196.799999999999
 30
0.0
 11
3531.100000000001
 21
4196.799999999999
 31
0.0
  0
LINE
  5
23E
330
1F
100
AcDbEntity
  8
LAY-10
  6
CONTINUOUS
 62
     7
100
AcDbLine
 10
3524.300000000002
 20
4204.0
 30
0.0
 11
3523.968521022375
 21
4204.0
 31
0.0
  0
LINE
  5
23F
330
1F
100
AcDbEntity
  8
LAY-10
  6
CONTINUOUS
 62
     7
100
AcDbLine
 10
3524.300000000002
 20
4203.2
 30
0.0
 11
3524.088378940893
 21
4203.2
 31
0.0
  0
LINE
  5
240
330
1F
100
AcDbEntity
  8
LAY-10
  6
CONTINUOUS
 62
     7
100
AcDbLine
 10
3524.300000000002
 20
4196.0
 30
0.0
 11
3523.968521022375
 21
4196.0
 31
0.0
  0
LINE
  5
241
330
1F
100
AcDbEntity
  8
LAY-10
  6
CONTINUOUS
 62
     7
100
AcDbLine
 10
3524.300000000002
 20
4196.8
 30
0.0
 11
3524.088378940893
 21
4196.8
 31
0.0
  0
LINE
  5
242
330
1F
100
AcDbEntity
  8
LAY-10
  6
CONTINUOUS
 62
     7
100
AcDbLine
 10
3500.000000000005
 20
4224.299999999997
 30
0.0
 11
3117.592896293678
 21
4224.299999999997
 31
0.0
  0
LINE
  5
243
330
1F
100
AcDbEntity
  8
LAY-10
  6
CONTINUOUS
 62
     7
100
AcDbLine
 10
3500.000000000005
 20
4175.700000000003
 30
0.0
 11
3117.592896293682
 21
4175.700000000003
 31
0.0
  0
LINE
  5
244
330
1F
100
AcDbEntity
  8
LAY-10
  6
CONTINUOUS
 62
     7
100
AcDbLine
 10
2753.49999999987
 20
4207.800000000005
 30
0.0
 11
2736.499999999871
 21
4207.800000000005
 31
0.0
  0
LINE
  5
245
330
1F
100
AcDbEntity
  8
LAY-10
  6
CONTINUOUS
 62
     7
100
AcDbLine
 10
2736.499999999871
 20
4207.800000000005
 30
0.0
 11
2736.499999999871
 21
4206.200000000003
 31
0.0
  0
LINE
  5
246
330
1F
100
AcDbEntity
  8
LAY-10
  6
CONTINUOUS
 62
     7
100
AcDbLine
 10
2753.49999999987
 20
4207.800000000005
 30
0.0
 11
2753.49999999987
 21
4206.200000000003
 31
0.0
  0
LINE
  5
247
330
1F
100
AcDbEntity
  8
LAY-10
  6
CONTINUOUS
 62
     7
100
AcDbLine
 10
2736.999999999869
 20
4207.800000000005
 30
0.0
 11
2736.999999999869
 21
4212.517000000005
 31
0.0
  0
LINE
  5
248
330
1F
100
AcDbEntity
  8
LAY-10
  6
CONTINUOUS
 62
     7
100
AcDbLine
 10
2752.999999999871
 20
4207.800000000005
 30
0.0
 11
2752.999999999871
 21
4212.517000000005
 31
0.0
  0
LINE
  5
249
330
1F
100
AcDbEntity
  8
LAY-10
  6
CONTINUOUS
 62
     7
100
AcDbLine
 10
2740.99999999987
 20
4212.517000000005
 30
0.0
 11
2740.99999999987
 21
4207.800000000005
 31
0.0
  0
LINE
  5
24A
330
1F
100
AcDbEntity
  8
LAY-10
  6
CONTINUOUS
 62
     7
100
AcDbLine
 10
2748.999999999871
 20
4212.517000000005
 30
0.0
 11
2748.999999999871
 21
4207.800000000005
 31
0.0
  0
ARC
  5
24B
330
1F
100
AcDbEntity
  8
LAY-10
  6
CONTINUOUS
 62
     7
100
AcDbCircle
 10
2738.999999999871
 20
4209.377968267586
 30
0.0
 40
3.722031732418524
100
AcDbArc
 50
57.49719263528767
 51
122.5028073647107
  0
ARC
  5
24C
330
1F
100
AcDbEntity
  8
LAY-10
  6
CONTINUOUS
 62
     7
100
AcDbCircle
 10
2744.999999999871
 20
4199.08637307033
 30
0.0
 40
14.0136269296741
100
AcDbArc
 50
73.41506060902611
 51
106.5849393909739
  0
ARC
  5
24D
330
1F
100
AcDbEntity
  8
LAY-10
  6
CONTINUOUS
 62
     7
100
AcDbCircle
 10
2750.99999999987
 20
4209.377968267586
 30
0.0
 40
3.722031732418524
100
AcDbArc
 50
57.49719263528183
 51
122.502807364693
  0
LINE
  5
24E
330
1F
100
AcDbEntity
  8
LAY-10
  6
CONTINUOUS
 62
     7
100
AcDbLine
 10
2738.999999999871
 20
4213.100000000004
 30
0.0
 11
2750.99999999987
 21
4213.100000000004
 31
0.0
  0
LINE
  5
24F
330
1F
100
AcDbEntity
  8
LAY-10
  6
CONTINUOUS
 62
     7
100
AcDbLine
 10
2753.49999999987
 20
4192.199999999995
 30
0.0
 11
2736.499999999871
 21
4192.199999999995
 31
0.0
  0
LINE
  5
250
330
1F
100
AcDbEntity
  8
LAY-10
  6
CONTINUOUS
 62
     7
100
AcDbLine
 10
2736.499999999871
 20
4193.799999999995
 30
0.0
 11
2736.499999999871
 21
4192.199999999995
 31
0.0
  0
LINE
  5
251
330
1F
100
AcDbEntity
  8
LAY-10
  6
CONTINUOUS
 62
     7
100
AcDbLine
 10
2753.49999999987
 20
4193.799999999995
 30
0.0
 11
2753.49999999987
 21
4192.199999999995
 31
0.0
  0
ARC
  5
252
330
1F
100
AcDbEntity
  8
LAY-10
  6
CONTINUOUS
 62
     7
100
AcDbCircle
 10
2744.99999999987
 20
4185.450000000071
 30
0.0
 40
5.750000000034562
100
AcDbArc
 50
182.2145281320704
 51
357.7854718679296
  0
ARC
  5
253
330
1F
100
AcDbEntity
  8
LAY-10
  6
CONTINUOUS
 62
     7
100
AcDbCircle
 10
2751.245332190723
 20
4185.208492595745
 30
0.0
 40
0.5
100
AcDbArc
 50
93.96520056883172
 51
177.7854718679155
  0
ARC
  5
254
330
1F
100
AcDbEntity
  8
LAY-10
  6
CONTINUOUS
 62
     7
100
AcDbCircle
 10
2738.754667809019
 20
4185.208492595745
 30
0.0
 40
0.5
100
AcDbArc
 50
2.214528132084419
 51
86.03479943116828
  0
LINE
  5
255
330
1F
100
AcDbEntity
  8
LAY-10
  6
CONTINUOUS
 62
     7
100
AcDbLine
 10
3046.500000000129
 20
4192.199999999994
 30
0.0
 11
3063.500000000128
 21
4192.199999999994
 31
0.0
  0
LINE
  5
256
330
1F
100
AcDbEntity
  8
LAY-10
  6
CONTINUOUS
 62
     7
100
AcDbLine
 10
3063.500000000128
 20
4192.199999999994
 30
0.0
 11
3063.500000000128
 21
4193.799999999996
 31
0.0
  0
LINE
  5
257
330
1F
100
AcDbEntity
  8
LAY-10
  6
CONTINUOUS
 62
     7
100
AcDbLine
 10
3046.500000000129
 20
4192.199999999994
 30
0.0
 11
3046.500000000129
 21
4193.799999999996
 31
0.0
  0
LINE
  5
258
330
1F
100
AcDbEntity
  8
LAY-10
  6
CONTINUOUS
 62
     7
100
AcDbLine
 10
3063.000000000129
 20
4192.199999999994
 30
0.0
 11
3063.000000000129
 21
4187.482999999994
 31
0.0
  0
LINE
  5
259
330
1F
100
AcDbEntity
  8
LAY-10
  6
CONTINUOUS
 62
     7
100
AcDbLine
 10
3047.000000000128
 20
4192.199999999994
 30
0.0
 11
3047.000000000128
 21
4187.482999999994
 31
0.0
  0
LINE
  5
25A
330
1F
100
AcDbEntity
  8
LAY-10
  6
CONTINUOUS
 62
     7
100
AcDbLine
 10
3059.000000000128
 20
4187.482999999994
 30
0.0
 11
3059.000000000128
 21
4192.199999999994
 31
0.0
  0
LINE
  5
25B
330
1F
100
AcDbEntity
  8
LAY-10
  6
CONTINUOUS
 62
     7
100
AcDbLine
 10
3051.000000000128
 20
4187.482999999994
 30
0.0
 11
3051.000000000128
 21
4192.199999999994
 31
0.0
  0
ARC
  5
25C
330
1F
100
AcDbEntity
  8
LAY-10
  6
CONTINUOUS
 62
     7
100
AcDbCircle
 10
3061.000000000128
 20
4190.622031732413
 30
0.0
 40
3.722031732418524
100
AcDbArc
 50
237.4971926352818
 51
302.5028073647048
  0
ARC
  5
25D
330
1F
100
AcDbEntity
  8
LAY-10
  6
CONTINUOUS
 62
     7
100
AcDbCircle
 10
3055.000000000128
 20
4200.91362692967
 30
0.0
 40
14.0136269296741
100
AcDbArc
 50
253.4150606090262
 51
286.5849393909721
  0
ARC
  5
25E
330
1F
100
AcDbEntity
  8
LAY-10
  6
CONTINUOUS
 62
     7
100
AcDbCircle
 10
3049.000000000128
 20
4190.622031732413
 30
0.0
 40
3.722031732418524
100
AcDbArc
 50
237.4971926352818
 51
302.5028073647123
  0
LINE
  5
25F
330
1F
100
AcDbEntity
  8
LAY-10
  6
CONTINUOUS
 62
     7
100
AcDbLine
 10
3061.000000000128
 20
4186.899999999995
 30
0.0
 11
3049.000000000128
 21
4186.899999999995
 31
0.0
  0
LINE
  5
260
330
1F
100
AcDbEntity
  8
LAY-10
  6
CONTINUOUS
 62
     7
100
AcDbLine
 10
3046.500000000129
 20
4207.800000000004
 30
0.0
 11
3063.500000000128
 21
4207.800000000004
 31
0.0
  0
LINE
  5
261
330
1F
100
AcDbEntity
  8
LAY-10
  6
CONTINUOUS
 62
     7
100
AcDbLine
 10
3063.500000000128
 20
4206.200000000003
 30
0.0
 11
3063.500000000128
 21
4207.800000000004
 31
0.0
  0
LINE
  5
262
330
1F
100
AcDbEntity
  8
LAY-10
  6
CONTINUOUS
 62
     7
100
AcDbLine
 10
3046.500000000129
 20
4206.200000000003
 30
0.0
 11
3046.500000000129
 21
4207.800000000004
 31
0.0
  0
ARC
  5
263
330
1F
100
AcDbEntity
  8
LAY-10
  6
CONTINUOUS
 62
     7
100
AcDbCircle
 10
3055.000000000129
 20
4214.549999999928
 30
0.0
 40
5.750000000034562
100
AcDbArc
 50
2.21452813207044
 51
177.7854718679295
  0
ARC
  5
264
330
1F
100
AcDbEntity
  8
LAY-10
  6
CONTINUOUS
 62
     7
100
AcDbCircle
 10
3048.754667809276
 20
4214.791507404254
 30
0.0
 40
0.5
100
AcDbArc
 50
273.9652005688318
 51
357.7854718679176
  0
ARC
  5
265
330
1F
100
AcDbEntity
  8
LAY-10
  6
CONTINUOUS
 62
     7
100
AcDbCircle
 10
3061.24533219098
 20
4214.791507404254
 30
0.0
 40
0.5
100
AcDbArc
 50
182.2145281320824
 51
266.0347994311683
  0
LINE
  5
266
330
1F
100
AcDbEntity
  8
LAY-10
  6
CONTINUOUS
 62
     7
100
AcDbLine
 10
2759.804817631596
 20
4172.269937815533
 30
0.0
 11
2776.590194644639
 21
4176.767566030832
 31
0.0
  0
ARC
  5
267
330
1F
100
AcDbEntity
  8
LAY-10
  6
CONTINUOUS
 62
     7
100
AcDbCircle
 10
2762.26359856007
 20
4163.093642465787
 30
0.0
 40
4.5
100
AcDbArc
 50
104.9999999999945
 51
161.2510114040816
  0
ARC
  5
268
330
1F
100
AcDbEntity
  8
LAY-10
  6
CONTINUOUS
 62
     7
100
AcDbCircle
 10
2762.26359856007
 20
4163.093642465787
 30
0.0
 40
9.5
100
AcDbArc
 50
104.9999999999997
 51
179.7424767095401
  0
LINE
  5
269
330
1F
100
AcDbEntity
  8
LAY-10
  6
CONTINUOUS
 62
     7
100
AcDbLine
 10
2761.098912857109
 20
4167.440308684092
 30
0.0
 11
2772.274398847399
 21
4170.434771130214
 31
0.0
  0
ARC
  5
26A
330
1F
100
AcDbEntity
  8
LAY-10
  6
CONTINUOUS
 62
     7
100
AcDbCircle
 10
2769.025079344093
 20
4164.905375781506
 30
0.0
 40
2.499999999999773
100
AcDbArc
 50
285.0000000000247
 51
104.9999999999643
  0
LINE
  5
26B
330
1F
100
AcDbEntity
  8
LAY-10
  6
CONTINUOUS
 62
     7
100
AcDbLine
 10
2768.378031731337
 20
4167.320190347229
 30
0.0
 11
2736.502479463798
 21
4158.779161858849
 31
0.0
  0
LINE
  5
26C
330
1F
100
AcDbEntity
  8
LAY-10
  6
CONTINUOUS
 62
     7
100
AcDbLine
 10
2769.672126956849
 20
4162.490561215784
 30
0.0
 11
2737.796574689311
 21
4153.949532727403
 31
0.0
  0
ARC
  5
26D
330
1F
100
AcDbEntity
  8
LAY-10
  6
CONTINUOUS
 62
     7
100
AcDbCircle
 10
2737.149527076554
 20
4156.364347293124
 30
0.0
 40
2.499999999999773
100
AcDbArc
 50
104.9999999999945
 51
285.0000000000099
  0
LINE
  5
26E
330
1F
100
AcDbEntity
  8
LAY-10
  6
CONTINUOUS
 62
     7
100
AcDbLine
 10
2764.722379488544
 20
4153.917347116041
 30
0.0
 11
2781.507756501577
 21
4158.414975331336
 31
0.0
  0
LINE
  5
26F
330
1F
100
AcDbEntity
  8
LAY-10
  6
CONTINUOUS
 62
     7
100
AcDbLine
 10
2763.42828426303
 20
4158.746976247487
 30
0.0
 11
2774.603770253321
 21
4161.741438693611
 31
0.0
  0
ARC
  5
270
330
1F
100
AcDbEntity
  8
LAY-10
  6
CONTINUOUS
 62
     7
100
AcDbCircle
 10
2762.26359856007
 20
4163.093642465787
 30
0.0
 40
4.5
100
AcDbArc
 50
228.7489885958761
 51
284.9999999999944
  0
ARC
  5
271
330
1F
100
AcDbEntity
  8
LAY-10
  6
CONTINUOUS
 62
     7
100
AcDbCircle
 10
2762.26359856007
 20
4163.093642465787
 30
0.0
 40
9.5
100
AcDbArc
 50
210.2575232904538
 51
285.0000000000024
  0
ARC
  5
272
330
1F
100
AcDbEntity
  8
LAY-10
  6
CONTINUOUS
 62
     7
100
AcDbCircle
 10
2739.946090583846
 20
4157.113684226499
 30
0.0
 40
6.5
100
AcDbArc
 50
37.6198649480461
 51
150.803004044917
  0
ARC
  5
273
330
1F
100
AcDbEntity
  8
LAY-10
  6
CONTINUOUS
 62
     7
100
AcDbCircle
 10
2727.288349589488
 20
4164.186985642367
 30
0.0
 40
8.0
100
AcDbArc
 50
282.4463833928018
 51
330.8030040448901
  0
ARC
  5
274
330
1F
100
AcDbEntity
  8
LAY-10
  6
CONTINUOUS
 62
     7
100
AcDbCircle
 10
2739.946090583846
 20
4157.113684226499
 30
0.0
 40
9.5
100
AcDbArc
 50
30.25752329045338
 51
150.8030040449084
  0
ARC
  5
275
330
1F
100
AcDbEntity
  8
LAY-10
  6
CONTINUOUS
 62
     7
100
AcDbCircle
 10
2727.288349589488
 20
4164.186985642367
 30
0.0
 40
5.0
100
AcDbArc
 50
282.44638339281
 51
330.8030040448901
  0
LINE
  5
276
330
1F
100
AcDbEntity
  8
LAY-10
  6
CONTINUOUS
 62
     7
100
AcDbLine
 10
2728.365979163723
 20
4159.304495038105
 30
0.0
 11
2715.076914876659
 21
4156.37142463401
 31
0.0
  0
LINE
  5
277
330
1F
100
AcDbEntity
  8
LAY-10
  6
CONTINUOUS
 62
     7
100
AcDbLine
 10
2729.012556908263
 20
4156.375000675544
 30
0.0
 11
2715.789000726227
 21
4153.456388767544
 31
0.0
  0
ARC
  5
278
330
1F
100
AcDbEntity
  8
LAY-10
  6
CONTINUOUS
 62
     7
100
AcDbCircle
 10
2739.946090583846
 20
4157.113684226499
 30
0.0
 40
6.5
100
AcDbArc
 50
239.1969959551137
 51
352.380135051971
  0
ARC
  5
279
330
1F
100
AcDbEntity
  8
LAY-10
  6
CONTINUOUS
 62
     7
100
AcDbCircle
 10
2732.520816036144
 20
4144.65915501455
 30
0.0
 40
8.0
100
AcDbArc
 50
59.19699595510921
 51
107.5536166072051
  0
ARC
  5
27A
330
1F
100
AcDbEntity
  8
LAY-10
  6
CONTINUOUS
 62
     7
100
AcDbCircle
 10
2739.946090583846
 20
4157.113684226499
 30
0.0
 40
9.5
100
AcDbArc
 50
239.1969959551061
 51
359.7424767095401
  0
ARC
  5
27B
330
1F
100
AcDbEntity
  8
LAY-10
  6
CONTINUOUS
 62
     7
100
AcDbCircle
 10
2732.520816036144
 20
4144.65915501455
 30
0.0
 40
5.0
100
AcDbArc
 50
59.19699595510565
 51
107.5536166072043
  0
LINE
  5
27C
330
1F
100
AcDbEntity
  8
LAY-10
  6
CONTINUOUS
 62
     7
100
AcDbLine
 10
2731.012825321168
 20
4149.4263306987
 30
0.0
 11
2718.037622853999
 21
4145.321912036201
 31
0.0
  0
LINE
  5
27D
330
1F
100
AcDbEntity
  8
LAY-10
  6
CONTINUOUS
 62
     7
100
AcDbLine
 10
2730.108030892182
 20
4152.286636109187
 30
0.0
 11
2717.196789356167
 21
4148.202450074286
 31
0.0
  0
ARC
  5
27E
330
1F
100
AcDbEntity
  8
LAY-10
  6
CONTINUOUS
 62
     7
100
AcDbCircle
 10
3017.37080542463
 20
4068.333830393524
 30
0.0
 40
8.0
100
AcDbArc
 50
42.44638339279057
 51
90.80300404489657
  0
ARC
  5
27F
330
1F
100
AcDbEntity
  8
LAY-10
  6
CONTINUOUS
 62
     7
100
AcDbCircle
 10
3017.37080542463
 20
4068.333830393524
 30
0.0
 40
5.0
100
AcDbArc
 50
42.44638339279854
 51
90.8030040448992
  0
ARC
  5
280
330
1F
100
AcDbEntity
  8
LAY-10
  6
CONTINUOUS
 62
     7
100
AcDbCircle
 10
3031.666169605792
 20
4082.629194574687
 30
0.0
 40
8.0
100
AcDbArc
 50
179.1969959551164
 51
227.5536166072256
  0
ARC
  5
281
330
1F
100
AcDbEntity
  8
LAY-10
  6
CONTINUOUS
 62
     7
100
AcDbCircle
 10
3031.666169605792
 20
4082.629194574687
 30
0.0
 40
5.0
100
AcDbArc
 50
179.1969959551007
 51
227.5536166072421
  0
LINE
  5
282
330
1F
100
AcDbEntity
  8
LAY-10
  6
CONTINUOUS
 62
     7
100
AcDbLine
 10
3021.060351534544
 20
4071.708330282812
 30
0.0
 11
3030.24499715911
 21
4061.666198219739
 31
0.0
  0
LINE
  5
283
330
1F
100
AcDbEntity
  8
LAY-10
  6
CONTINUOUS
 62
     7
100
AcDbLine
 10
3023.274079200494
 20
4073.733030216385
 30
0.0
 11
3032.413449347629
 21
4063.740400588371
 31
0.0
  0
LINE
  5
284
330
1F
100
AcDbEntity
  8
LAY-10
  6
CONTINUOUS
 62
     7
100
AcDbLine
 10
3026.266969782931
 20
4076.725920798821
 30
0.0
 11
3036.259599410944
 21
4067.586550651688
 31
0.0
  0
LINE
  5
285
330
1F
100
AcDbEntity
  8
LAY-10
  6
CONTINUOUS
 62
     7
100
AcDbLine
 10
3028.291669716505
 20
4078.93964846477
 30
0.0
 11
3038.333801779578
 21
4069.755002840206
 31
0.0
  0
ARC
  5
286
330
1F
100
AcDbEntity
  8
LAY-10
  6
CONTINUOUS
 62
     7
100
AcDbCircle
 10
3000.830043905219
 20
4099.169956094073
 30
0.0
 40
4.5
100
AcDbArc
 50
224.9999999999631
 51
281.2510114040957
  0
ARC
  5
287
330
1F
100
AcDbEntity
  8
LAY-10
  6
CONTINUOUS
 62
     7
100
AcDbCircle
 10
3000.830043905219
 20
4099.169956094073
 30
0.0
 40
9.5
100
AcDbArc
 50
224.9999999999883
 51
299.7424767095423
  0
ARC
  5
288
330
1F
100
AcDbEntity
  8
LAY-10
  6
CONTINUOUS
 62
     7
100
AcDbCircle
 10
3000.830043905219
 20
4099.169956094073
 30
0.0
 40
4.5
100
AcDbArc
 50
348.7489885958952
 51
45.00000000002863
  0
ARC
  5
289
330
1F
100
AcDbEntity
  8
LAY-10
  6
CONTINUOUS
 62
     7
100
AcDbCircle
 10
3000.830043905219
 20
4099.169956094073
 30
0.0
 40
9.5
100
AcDbArc
 50
330.2575232904727
 51
45.00000000000388
  0
ARC
  5
28A
330
1F
100
AcDbEntity
  8
LAY-10
  6
CONTINUOUS
 62
     7
100
AcDbCircle
 10
2995.880296436912
 20
4104.11970356238
 30
0.0
 40
2.499999999999773
100
AcDbArc
 50
45.00000000000738
 51
224.9999999999852
  0
LINE
  5
28B
330
1F
100
AcDbEntity
  8
LAY-10
  6
CONTINUOUS
 62
     7
100
AcDbLine
 10
2994.112529483946
 20
4102.351936609415
 30
0.0
 11
3017.4470532631
 21
4079.017412830258
 31
0.0
  0
LINE
  5
28C
330
1F
100
AcDbEntity
  8
LAY-10
  6
CONTINUOUS
 62
     7
100
AcDbLine
 10
2997.648063389879
 20
4105.887470515348
 30
0.0
 11
3020.982587169034
 21
4082.55294673619
 31
0.0
  0
ARC
  5
28D
330
1F
100
AcDbEntity
  8
LAY-10
  6
CONTINUOUS
 62
     7
100
AcDbCircle
 10
3019.214820216067
 20
4080.785179783224
 30
0.0
 40
2.499999999999773
100
AcDbArc
 50
224.9999999999779
 51
45.00000000000738
  0
LINE
  5
28E
330
1F
100
AcDbEntity
  8
LAY-10
  6
CONTINUOUS
 62
     7
100
AcDbLine
 10
2994.112529483947
 20
4092.452441672803
 30
0.0
 11
2981.8247806862
 21
4104.740190470547
 31
0.0
  0
LINE
  5
28F
330
1F
100
AcDbEntity
  8
LAY-10
  6
CONTINUOUS
 62
     7
100
AcDbLine
 10
3007.547558326492
 20
4105.887470515348
 30
0.0
 11
2995.259809528753
 21
4118.175219313086
 31
0.0
  0
LINE
  5
290
330
1F
100
AcDbEntity
  8
LAY-10
  6
CONTINUOUS
 62
     7
100
AcDbLine
 10
3004.012024420559
 20
4102.351936609415
 30
0.0
 11
2995.831000876392
 21
4110.532960153581
 31
0.0
  0
LINE
  5
291
330
1F
100
AcDbEntity
  8
LAY-10
  6
CONTINUOUS
 62
     7
100
AcDbLine
 10
2997.648063389879
 20
4095.987975578735
 30
0.0
 11
2989.467039845713
 21
4104.168999122902
 31
0.0
  0
ARC
  5
292
330
1F
100
AcDbEntity
  8
LAY-10
  6
CONTINUOUS
 62
     7
100
AcDbCircle
 10
3017.167593642218
 20
4082.832406357096
 30
0.0
 40
6.5
100
AcDbArc
 50
157.6198649480269
 51
270.8030040448978
  0
ARC
  5
293
330
1F
100
AcDbEntity
  8
LAY-10
  6
CONTINUOUS
 62
     7
100
AcDbCircle
 10
3017.167593642218
 20
4082.832406357096
 30
0.0
 40
6.5
100
AcDbArc
 50
359.1969959551063
 51
112.3801350519499
  0
ARC
  5
294
330
1F
100
AcDbEntity
  8
LAY-10
  6
CONTINUOUS
 62
     7
100
AcDbCircle
 10
3017.167593642218
 20
4082.832406357096
 30
0.0
 40
9.5
100
AcDbArc
 50
359.1969959551041
 51
119.7424767095335
  0
ARC
  5
295
330
1F
100
AcDbEntity
  8
LAY-10
  6
CONTINUOUS
 62
     7
100
AcDbCircle
 10
3017.167593642218
 20
4082.832406357096
 30
0.0
 40
9.5
100
AcDbArc
 50
150.2575232904529
 51
270.803004044896
  0
ARC
  5
296
330
1F
100
AcDbEntity
  8
LAY-10
  6
CONTINUOUS
 62
     7
100
AcDbCircle
 10
2955.340844987736
 20
4367.479183963605
 30
0.0
 40
8.0
100
AcDbArc
 50
162.4463833928001
 51
210.8030040448941
  0
ARC
  5
297
330
1F
100
AcDbEntity
  8
LAY-10
  6
CONTINUOUS
 62
     7
100
AcDbCircle
 10
2955.340844987736
 20
4367.479183963605
 30
0.0
 40
5.0
100
AcDbArc
 50
162.4463833928155
 51
210.803004044905
  0
ARC
  5
298
330
1F
100
AcDbEntity
  8
LAY-10
  6
CONTINUOUS
 62
     7
100
AcDbCircle
 10
2935.813014359917
 20
4372.71165041026
 30
0.0
 40
8.0
100
AcDbArc
 50
299.1969959551128
 51
347.5536166071989
  0
ARC
  5
299
330
1F
100
AcDbEntity
  8
LAY-10
  6
CONTINUOUS
 62
     7
100
AcDbCircle
 10
2935.813014359917
 20
4372.71165041026
 30
0.0
 40
5.0
100
AcDbArc
 50
299.1969959551099
 51
347.5536166072126
  0
LINE
  5
29A
330
1F
100
AcDbEntity
  8
LAY-10
  6
CONTINUOUS
 62
     7
100
AcDbLine
 10
2950.573669303587
 20
4368.987174678579
 30
0.0
 11
2954.678087966086
 21
4381.962377145748
 31
0.0
  0
LINE
  5
29B
330
1F
100
AcDbEntity
  8
LAY-10
  6
CONTINUOUS
 62
     7
100
AcDbLine
 10
2947.713363893097
 20
4369.891969107566
 30
0.0
 11
2951.797549927999
 21
4382.80321064358
 31
0.0
  0
LINE
  5
29C
330
1F
100
AcDbEntity
  8
LAY-10
  6
CONTINUOUS
 62
     7
100
AcDbLine
 10
2943.624999326742
 20
4370.987443091484
 30
0.0
 11
2946.543611234742
 21
4384.210999273522
 31
0.0
  0
LINE
  5
29D
330
1F
100
AcDbEntity
  8
LAY-10
  6
CONTINUOUS
 62
     7
100
AcDbLine
 10
2940.695504964183
 20
4371.634020836026
 30
0.0
 11
2943.628575368277
 21
4384.92308512309
 31
0.0
  0
ARC
  5
29E
330
1F
100
AcDbEntity
  8
LAY-10
  6
CONTINUOUS
 62
     7
100
AcDbCircle
 10
2936.90635753606
 20
4337.736401438301
 30
0.0
 40
4.5
100
AcDbArc
 50
345.0000000000041
 51
41.251011404084
  0
ARC
  5
29F
330
1F
100
AcDbEntity
  8
LAY-10
  6
CONTINUOUS
 62
     7
100
AcDbCircle
 10
2936.90635753606
 20
4337.736401438301
 30
0.0
 40
9.5
100
AcDbArc
 50
345.0000000000049
 51
59.74247670953398
  0
ARC
  5
2A0
330
1F
100
AcDbEntity
  8
LAY-10
  6
CONTINUOUS
 62
     7
100
AcDbCircle
 10
2936.90635753606
 20
4337.736401438301
 30
0.0
 40
4.5
100
AcDbArc
 50
108.7489885958761
 51
165.0000000000056
  0
ARC
  5
2A1
330
1F
100
AcDbEntity
  8
LAY-10
  6
CONTINUOUS
 62
     7
100
AcDbCircle
 10
2936.90635753606
 20
4337.736401438301
 30
0.0
 40
9.5
100
AcDbArc
 50
90.25752329045712
 51
164.9999999999942
  0
ARC
  5
2A2
330
1F
100
AcDbEntity
  8
LAY-10
  6
CONTINUOUS
 62
     7
100
AcDbCircle
 10
2935.094624220344
 20
4330.974920654277
 30
0.0
 40
2.499999999999773
100
AcDbArc
 50
165.0000000000056
 51
344.9999999999976
  0
LINE
  5
2A3
330
1F
100
AcDbEntity
  8
LAY-10
  6
CONTINUOUS
 62
     7
100
AcDbLine
 10
2937.509438786067
 20
4330.327873041521
 30
0.0
 11
2946.05046727445
 21
4362.203425309059
 31
0.0
  0
LINE
  5
2A4
330
1F
100
AcDbEntity
  8
LAY-10
  6
CONTINUOUS
 62
     7
100
AcDbLine
 10
2932.679809654621
 20
4331.621968267033
 30
0.0
 11
2941.220838143005
 21
4363.497520534571
 31
0.0
  0
ARC
  5
2A5
330
1F
100
AcDbEntity
  8
LAY-10
  6
CONTINUOUS
 62
     7
100
AcDbCircle
 10
2943.635652708727
 20
4362.850472921815
 30
0.0
 40
2.499999999999773
100
AcDbArc
 50
345.0000000000056
 51
165.0000000000056
  0
LINE
  5
2A6
330
1F
100
AcDbEntity
  8
LAY-10
  6
CONTINUOUS
 62
     7
100
AcDbLine
 10
2946.082652885806
 20
4335.277620509828
 30
0.0
 11
2941.58502467051
 21
4318.492243496783
 31
0.0
  0
LINE
  5
2A7
330
1F
100
AcDbEntity
  8
LAY-10
  6
CONTINUOUS
 62
     7
100
AcDbLine
 10
2927.730062186314
 20
4340.195182366774
 30
0.0
 11
2923.23243397102
 21
4323.40980535374
 31
0.0
  0
LINE
  5
2A8
330
1F
100
AcDbEntity
  8
LAY-10
  6
CONTINUOUS
 62
     7
100
AcDbLine
 10
2932.559691317759
 20
4338.901087141262
 30
0.0
 11
2929.565228871636
 21
4327.725601150973
 31
0.0
  0
LINE
  5
2A9
330
1F
100
AcDbEntity
  8
LAY-10
  6
CONTINUOUS
 62
     7
100
AcDbLine
 10
2941.253023754361
 20
4336.57171573534
 30
0.0
 11
2938.258561308237
 21
4325.396229745047
 31
0.0
  0
ARC
  5
2AA
330
1F
100
AcDbEntity
  8
LAY-10
  6
CONTINUOUS
 62
     7
100
AcDbCircle
 10
2942.886315775789
 20
4360.053909415901
 30
0.0
 40
6.5
100
AcDbArc
 50
277.6198649480301
 51
30.80300404488607
  0
ARC
  5
2AB
330
1F
100
AcDbEntity
  8
LAY-10
  6
CONTINUOUS
 62
     7
100
AcDbCircle
 10
2942.886315775789
 20
4360.053909415901
 30
0.0
 40
6.5
100
AcDbArc
 50
119.1969959551098
 51
232.3801350519394
  0
ARC
  5
2AC
330
1F
100
AcDbEntity
  8
LAY-10
  6
CONTINUOUS
 62
     7
100
AcDbCircle
 10
2942.886315775789
 20
4360.053909415901
 30
0.0
 40
9.5
100
AcDbArc
 50
119.1969959550976
 51
239.742476709544
  0
ARC
  5
2AD
330
1F
100
AcDbEntity
  8
LAY-10
  6
CONTINUOUS
 62
     7
100
AcDbCircle
 10
2942.886315775789
 20
4360.053909415901
 30
0.0
 40
9.5
100
AcDbArc
 50
270.2575232904545
 51
30.8030040448938
  0
CIRCLE
  5
2AE
330
1F
100
AcDbEntity
  8
LAY-10
  6
CONTINUOUS
 62
     7
100
AcDbCircle
 10
2807.828353122396
 20
4197.819938578047
 30
0.0
 40
4.5
  0
CIRCLE
  5
2AF
330
1F
100
AcDbEntity
  8
LAY-10
  6
CONTINUOUS
 62
     7
100
AcDbCircle
 10
2815.796102743528
 20
4212.83709429992
 30
0.0
 40
4.5
  0
CIRCLE
  5
2B0
330
1F
100
AcDbEntity
  8
LAY-10
  6
CONTINUOUS
 62
     7
100
AcDbCircle
 10
2887.162905700081
 20
4284.203897256472
 30
0.0
 40
4.5
  0
CIRCLE
  5
2B1
330
1F
100
AcDbEntity
  8
LAY-10
  6
CONTINUOUS
 62
     7
100
AcDbCircle
 10
2902.180061421952
 20
4292.171646877604
 30
0.0
 40
4.5
  0
CIRCLE
  5
2B2
330
1F
100
AcDbEntity
  8
LAY-10
  6
CONTINUOUS
 62
     7
100
AcDbCircle
 10
2825.010373783136
 20
4227.123353754677
 30
0.0
 40
4.5
  0
CIRCLE
  5
2B3
330
1F
100
AcDbEntity
  8
LAY-10
  6
CONTINUOUS
 62
     7
100
AcDbCircle
 10
2872.876646245323
 20
4274.989626216865
 30
0.0
 40
4.5
  0
CIRCLE
  5
2B4
330
1F
100
AcDbEntity
  8
LAY-10
  6
CONTINUOUS
 62
     7
100
AcDbCircle
 10
2859.424501282241
 20
4264.595406867043
 30
0.0
 40
4.5
  0
CIRCLE
  5
2B5
330
1F
100
AcDbEntity
  8
LAY-10
  6
CONTINUOUS
 62
     7
100
AcDbCircle
 10
2835.404593132958
 20
4240.57549871776
 30
0.0
 40
4.5
  0
CIRCLE
  5
2B6
330
1F
100
AcDbEntity
  8
LAY-10
  6
CONTINUOUS
 62
     7
100
AcDbCircle
 10
2846.903662558193
 20
4253.096337441807
 30
0.0
 40
4.5
  0
ARC
  5
2B7
330
1F
100
AcDbEntity
  8
LAY-10
  6
CONTINUOUS
 62
     7
100
AcDbCircle
 10
2815.796102743528
 20
4212.83709429992
 30
0.0
 40
12.5
100
AcDbArc
 50
289.206986940951
 51
10.02266446112927
  0
ARC
  5
2B8
330
1F
100
AcDbEntity
  8
LAY-10
  6
CONTINUOUS
 62
     7
100
AcDbCircle
 10
2807.828353122396
 20
4197.819938578047
 30
0.0
 40
12.5
100
AcDbArc
 50
109.206986940945
 51
185.6438016842099
  0
ARC
  5
2B9
330
1F
100
AcDbEntity
  8
LAY-10
  6
CONTINUOUS
 62
     7
100
AcDbCircle
 10
2825.010373783136
 20
4227.123353754677
 30
0.0
 40
12.5
100
AcDbArc
 50
284.33537837394
 51
5.151055894106626
  0
ARC
  5
2BA
330
1F
100
AcDbEntity
  8
LAY-10
  6
CONTINUOUS
 62
     7
100
AcDbCircle
 10
2815.796102743528
 20
4212.83709429992
 30
0.0
 40
12.5
100
AcDbArc
 50
104.335378373942
 51
194.8942730281517
  0
ARC
  5
2BB
330
1F
100
AcDbEntity
  8
LAY-10
  6
CONTINUOUS
 62
     7
100
AcDbCircle
 10
2835.404593132958
 20
4240.57549871776
 30
0.0
 40
12.5
100
AcDbArc
 50
279.4637698069295
 51
0.2794473270973313
  0
ARC
  5
2BC
330
1F
100
AcDbEntity
  8
LAY-10
  6
CONTINUOUS
 62
     7
100
AcDbCircle
 10
2825.010373783136
 20
4227.123353754677
 30
0.0
 40
12.5
100
AcDbArc
 50
99.46376980691917
 51
190.0226644611334
  0
ARC
  5
2BD
330
1F
100
AcDbEntity
  8
LAY-10
  6
CONTINUOUS
 62
     7
100
AcDbCircle
 10
2846.903662558193
 20
4253.096337441807
 30
0.0
 40
12.5
100
AcDbArc
 50
274.592161239903
 51
355.4078387600929
  0
ARC
  5
2BE
330
1F
100
AcDbEntity
  8
LAY-10
  6
CONTINUOUS
 62
     7
100
AcDbCircle
 10
2835.404593132958
 20
4240.57549871776
 30
0.0
 40
12.5
100
AcDbArc
 50
94.59216123990707
 51
185.1510558941235
  0
ARC
  5
2BF
330
1F
100
AcDbEntity
  8
LAY-10
  6
CONTINUOUS
 62
     7
100
AcDbCircle
 10
2859.424501282241
 20
4264.595406867043
 30
0.0
 40
12.5
100
AcDbArc
 50
269.7205526729089
 51
350.5362301930661
  0
ARC
  5
2C0
330
1F
100
AcDbEntity
  8
LAY-10
  6
CONTINUOUS
 62
     7
100
AcDbCircle
 10
2846.903662558193
 20
4253.096337441807
 30
0.0
 40
12.5
100
AcDbArc
 50
89.72055267290264
 51
180.2794473270974
  0
ARC
  5
2C1
330
1F
100
AcDbEntity
  8
LAY-10
  6
CONTINUOUS
 62
     7
100
AcDbCircle
 10
2872.876646245323
 20
4274.989626216865
 30
0.0
 40
12.5
100
AcDbArc
 50
264.8489441058909
 51
345.664621626054
  0
ARC
  5
2C2
330
1F
100
AcDbEntity
  8
LAY-10
  6
CONTINUOUS
 62
     7
100
AcDbCircle
 10
2859.424501282241
 20
4264.595406867043
 30
0.0
 40
12.5
100
AcDbArc
 50
84.8489441058788
 51
175.4078387601014
  0
ARC
  5
2C3
330
1F
100
AcDbEntity
  8
LAY-10
  6
CONTINUOUS
 62
     7
100
AcDbCircle
 10
2887.162905700081
 20
4284.203897256472
 30
0.0
 40
12.5
100
AcDbArc
 50
259.9773355388646
 51
340.7930130590437
  0
ARC
  5
2C4
330
1F
100
AcDbEntity
  8
LAY-10
  6
CONTINUOUS
 62
     7
100
AcDbCircle
 10
2872.876646245323
 20
4274.989626216865
 30
0.0
 40
12.5
100
AcDbArc
 50
79.97733553886177
 51
170.5362301930791
  0
ARC
  5
2C5
330
1F
100
AcDbEntity
  8
LAY-10
  6
CONTINUOUS
 62
     7
100
AcDbCircle
 10
2902.180061421952
 20
4292.171646877604
 30
0.0
 40
12.5
100
AcDbArc
 50
255.1057269718563
 51
323.173306800281
  0
ARC
  5
2C6
330
1F
100
AcDbEntity
  8
LAY-10
  6
CONTINUOUS
 62
     7
100
AcDbCircle
 10
2887.162905700081
 20
4284.203897256472
 30
0.0
 40
12.5
100
AcDbArc
 50
75.10572697185424
 51
165.6646216260545
  0
CIRCLE
  5
2C7
330
1F
100
AcDbEntity
  8
LAY-10
  6
CONTINUOUS
 62
     7
100
AcDbCircle
 10
2947.973812012022
 20
4121.267043006321
 30
0.0
 40
4.5
  0
CIRCLE
  5
2C8
330
1F
100
AcDbEntity
  8
LAY-10
  6
CONTINUOUS
 62
     7
100
AcDbCircle
 10
2930.984698853729
 20
4120.658738728279
 30
0.0
 40
4.5
  0
CIRCLE
  5
2C9
330
1F
100
AcDbEntity
  8
LAY-10
  6
CONTINUOUS
 62
     7
100
AcDbCircle
 10
2833.495833028199
 20
4146.780801597256
 30
0.0
 40
4.5
  0
CIRCLE
  5
2CA
330
1F
100
AcDbEntity
  8
LAY-10
  6
CONTINUOUS
 62
     7
100
AcDbCircle
 10
2819.086981584369
 20
4155.802165134418
 30
0.0
 40
4.5
  0
CIRCLE
  5
2CB
330
1F
100
AcDbEntity
  8
LAY-10
  6
CONTINUOUS
 62
     7
100
AcDbCircle
 10
2914.005299721049
 20
4121.495401798556
 30
0.0
 40
4.5
  0
CIRCLE
  5
2CC
330
1F
100
AcDbEntity
  8
LAY-10
  6
CONTINUOUS
 62
     7
100
AcDbCircle
 10
2848.618755553233
 20
4139.015673504184
 30
0.0
 40
4.5
  0
CIRCLE
  5
2CD
330
1F
100
AcDbEntity
  8
LAY-10
  6
CONTINUOUS
 62
     7
100
AcDbCircle
 10
2864.346486044228
 20
4132.562883905675
 30
0.0
 40
4.5
  0
CIRCLE
  5
2CE
330
1F
100
AcDbEntity
  8
LAY-10
  6
CONTINUOUS
 62
     7
100
AcDbCircle
 10
2897.158290772716
 20
4123.770987326468
 30
0.0
 40
4.5
  0
CIRCLE
  5
2CF
330
1F
100
AcDbEntity
  8
LAY-10
  6
CONTINUOUS
 62
     7
100
AcDbCircle
 10
2880.565391648386
 20
4127.46905420658
 30
0.0
 40
4.5
  0
ARC
  5
2D0
330
1F
100
AcDbEntity
  8
LAY-10
  6
CONTINUOUS
 62
     7
100
AcDbCircle
 10
2930.984698853729
 20
4120.658738728279
 30
0.0
 40
12.5
100
AcDbArc
 50
224.3353783739359
 51
314.8942730281511
  0
ARC
  5
2D1
330
1F
100
AcDbEntity
  8
LAY-10
  6
CONTINUOUS
 62
     7
100
AcDbCircle
 10
2914.005299721049
 20
4121.495401798556
 30
0.0
 40
12.5
100
AcDbArc
 50
219.4637698069191
 51
310.0226644611329
  0
ARC
  5
2D2
330
1F
100
AcDbEntity
  8
LAY-10
  6
CONTINUOUS
 62
     7
100
AcDbCircle
 10
2897.158290772716
 20
4123.770987326468
 30
0.0
 40
12.5
100
AcDbArc
 50
214.5921612398996
 51
305.1510558941249
  0
ARC
  5
2D3
330
1F
100
AcDbEntity
  8
LAY-10
  6
CONTINUOUS
 62
     7
100
AcDbCircle
 10
2880.565391648386
 20
4127.46905420658
 30
0.0
 40
12.5
100
AcDbArc
 50
209.7205526729038
 51
300.2794473271011
  0
ARC
  5
2D4
330
1F
100
AcDbEntity
  8
LAY-10
  6
CONTINUOUS
 62
     7
100
AcDbCircle
 10
2864.346486044228
 20
4132.562883905675
 30
0.0
 40
12.5
100
AcDbArc
 50
204.8489441058835
 51
295.4078387601011
  0
ARC
  5
2D5
330
1F
100
AcDbEntity
  8
LAY-10
  6
CONTINUOUS
 62
     7
100
AcDbCircle
 10
2848.618755553233
 20
4139.015673504184
 30
0.0
 40
12.5
100
AcDbArc
 50
199.9773355388631
 51
290.5362301930836
  0
ARC
  5
2D6
330
1F
100
AcDbEntity
  8
LAY-10
  6
CONTINUOUS
 62
     7
100
AcDbCircle
 10
2833.495833028199
 20
4146.780801597256
 30
0.0
 40
12.5
100
AcDbArc
 50
195.105726971849
 51
285.6646216260508
  0
ARC
  5
2D7
330
1F
100
AcDbEntity
  8
LAY-10
  6
CONTINUOUS
 62
     7
100
AcDbCircle
 10
2947.973812012022
 20
4121.267043006321
 30
0.0
 40
12.5
100
AcDbArc
 50
229.2069869409482
 51
305.6438016839248
  0
ARC
  5
2D8
330
1F
100
AcDbEntity
  8
LAY-10
  6
CONTINUOUS
 62
     7
100
AcDbCircle
 10
2930.984698853729
 20
4120.658738728279
 30
0.0
 40
12.5
100
AcDbArc
 50
49.20698694095739
 51
130.0226644611318
  0
ARC
  5
2D9
330
1F
100
AcDbEntity
  8
LAY-10
  6
CONTINUOUS
 62
     7
100
AcDbCircle
 10
2914.005299721049
 20
4121.495401798556
 30
0.0
 40
12.5
100
AcDbArc
 50
44.3353783739403
 51
125.1510558941092
  0
ARC
  5
2DA
330
1F
100
AcDbEntity
  8
LAY-10
  6
CONTINUOUS
 62
     7
100
AcDbCircle
 10
2897.158290772716
 20
4123.770987326468
 30
0.0
 40
12.5
100
AcDbArc
 50
39.46376980693272
 51
120.2794473270936
  0
ARC
  5
2DB
330
1F
100
AcDbEntity
  8
LAY-10
  6
CONTINUOUS
 62
     7
100
AcDbCircle
 10
2880.565391648386
 20
4127.46905420658
 30
0.0
 40
12.5
100
AcDbArc
 50
34.5921612398996
 51
115.4078387600881
  0
ARC
  5
2DC
330
1F
100
AcDbEntity
  8
LAY-10
  6
CONTINUOUS
 62
     7
100
AcDbCircle
 10
2864.346486044228
 20
4132.562883905675
 30
0.0
 40
12.5
100
AcDbArc
 50
29.72055267290273
 51
110.5362301930631
  0
ARC
  5
2DD
330
1F
100
AcDbEntity
  8
LAY-10
  6
CONTINUOUS
 62
     7
100
AcDbCircle
 10
2848.618755553233
 20
4139.015673504184
 30
0.0
 40
12.5
100
AcDbArc
 50
24.84894410588995
 51
105.6646216260536
  0
ARC
  5
2DE
330
1F
100
AcDbEntity
  8
LAY-10
  6
CONTINUOUS
 62
     7
100
AcDbCircle
 10
2819.086981584369
 20
4155.802165134418
 30
0.0
 40
12.5
100
AcDbArc
 50
15.10572697184901
 51
83.17330680047384
  0
ARC
  5
2DF
330
1F
100
AcDbEntity
  8
LAY-10
  6
CONTINUOUS
 62
     7
100
AcDbCircle
 10
2833.495833028199
 20
4146.780801597256
 30
0.0
 40
12.5
100
AcDbArc
 50
19.97733553887022
 51
100.7930130590512
  0
CIRCLE
  5
2E0
330
1F
100
AcDbEntity
  8
LAY-10
  6
CONTINUOUS
 62
     7
100
AcDbCircle
 10
2944.197834865582
 20
4280.913018415628
 30
0.0
 40
4.5
  0
CIRCLE
  5
2E1
330
1F
100
AcDbEntity
  8
LAY-10
  6
CONTINUOUS
 62
     7
100
AcDbCircle
 10
2953.219198402744
 20
4266.504166971798
 30
0.0
 40
4.5
  0
CIRCLE
  5
2E2
330
1F
100
AcDbEntity
  8
LAY-10
  6
CONTINUOUS
 62
     7
100
AcDbCircle
 10
2979.34126127172
 20
4169.015301146269
 30
0.0
 40
4.5
  0
CIRCLE
  5
2E3
330
1F
100
AcDbEntity
  8
LAY-10
  6
CONTINUOUS
 62
     7
100
AcDbCircle
 10
2978.732956993679
 20
4152.026187987975
 30
0.0
 40
4.5
  0
CIRCLE
  5
2E4
330
1F
100
AcDbEntity
  8
LAY-10
  6
CONTINUOUS
 62
     7
100
AcDbCircle
 10
2960.984326495814
 20
4251.381244446763
 30
0.0
 40
4.5
  0
CIRCLE
  5
2E5
330
1F
100
AcDbEntity
  8
LAY-10
  6
CONTINUOUS
 62
     7
100
AcDbCircle
 10
2978.504598201444
 20
4185.994700278948
 30
0.0
 40
4.5
  0
CIRCLE
  5
2E6
330
1F
100
AcDbEntity
  8
LAY-10
  6
CONTINUOUS
 62
     7
100
AcDbCircle
 10
2976.229012673532
 20
4202.841709227279
 30
0.0
 40
4.5
  0
CIRCLE
  5
2E7
330
1F
100
AcDbEntity
  8
LAY-10
  6
CONTINUOUS
 62
     7
100
AcDbCircle
 10
2967.437116094325
 20
4235.653513955767
 30
0.0
 40
4.5
  0
CIRCLE
  5
2E8
330
1F
100
AcDbEntity
  8
LAY-10
  6
CONTINUOUS
 62
     7
100
AcDbCircle
 10
2972.53094579342
 20
4219.434608351609
 30
0.0
 40
4.5
  0
ARC
  5
2E9
330
1F
100
AcDbEntity
  8
LAY-10
  6
CONTINUOUS
 62
     7
100
AcDbCircle
 10
2953.219198402744
 20
4266.504166971798
 30
0.0
 40
12.5
100
AcDbArc
 50
344.3353783739379
 51
74.89427302815348
  0
ARC
  5
2EA
330
1F
100
AcDbEntity
  8
LAY-10
  6
CONTINUOUS
 62
     7
100
AcDbCircle
 10
2960.984326495814
 20
4251.381244446763
 30
0.0
 40
12.5
100
AcDbArc
 50
339.463769806923
 51
70.02266446113096
  0
ARC
  5
2EB
330
1F
100
AcDbEntity
  8
LAY-10
  6
CONTINUOUS
 62
     7
100
AcDbCircle
 10
2967.437116094325
 20
4235.653513955767
 30
0.0
 40
12.5
100
AcDbArc
 50
334.5921612399101
 51
65.15105589412768
  0
ARC
  5
2EC
330
1F
100
AcDbEntity
  8
LAY-10
  6
CONTINUOUS
 62
     7
100
AcDbCircle
 10
2972.53094579342
 20
4219.434608351609
 30
0.0
 40
12.5
100
AcDbArc
 50
329.7205526729064
 51
60.27944732709901
  0
ARC
  5
2ED
330
1F
100
AcDbEntity
  8
LAY-10
  6
CONTINUOUS
 62
     7
100
AcDbCircle
 10
2976.229012673532
 20
4202.841709227279
 30
0.0
 40
12.5
100
AcDbArc
 50
324.848944105878
 51
55.40783876010719
  0
ARC
  5
2EE
330
1F
100
AcDbEntity
  8
LAY-10
  6
CONTINUOUS
 62
     7
100
AcDbCircle
 10
2978.504598201444
 20
4185.994700278948
 30
0.0
 40
12.5
100
AcDbArc
 50
319.9773355388652
 51
50.53623019308191
  0
ARC
  5
2EF
330
1F
100
AcDbEntity
  8
LAY-10
  6
CONTINUOUS
 62
     7
100
AcDbCircle
 10
2979.34126127172
 20
4169.015301146269
 30
0.0
 40
12.5
100
AcDbArc
 50
315.1057269718475
 51
45.66462162605377
  0
ARC
  5
2F0
330
1F
100
AcDbEntity
  8
LAY-10
  6
CONTINUOUS
 62
     7
100
AcDbCircle
 10
2944.197834865582
 20
4280.913018415628
 30
0.0
 40
12.5
100
AcDbArc
 50
349.2069869409501
 51
65.64380168392412
  0
ARC
  5
2F1
330
1F
100
AcDbEntity
  8
LAY-10
  6
CONTINUOUS
 62
     7
100
AcDbCircle
 10
2953.219198402744
 20
4266.504166971798
 30
0.0
 40
12.5
100
AcDbArc
 50
169.2069869409508
 51
250.022664461129
  0
ARC
  5
2F2
330
1F
100
AcDbEntity
  8
LAY-10
  6
CONTINUOUS
 62
     7
100
AcDbCircle
 10
2960.984326495814
 20
4251.381244446763
 30
0.0
 40
12.5
100
AcDbArc
 50
164.3353783739378
 51
245.1510558941108
  0
ARC
  5
2F3
330
1F
100
AcDbEntity
  8
LAY-10
  6
CONTINUOUS
 62
     7
100
AcDbCircle
 10
2967.437116094325
 20
4235.653513955767
 30
0.0
 40
12.5
100
AcDbArc
 50
159.4637698069275
 51
240.2794473270932
  0
ARC
  5
2F4
330
1F
100
AcDbEntity
  8
LAY-10
  6
CONTINUOUS
 62
     7
100
AcDbCircle
 10
2972.53094579342
 20
4219.434608351609
 30
0.0
 40
12.5
100
AcDbArc
 50
154.5921612399017
 51
235.407838760091
  0
ARC
  5
2F5
330
1F
100
AcDbEntity
  8
LAY-10
  6
CONTINUOUS
 62
     7
100
AcDbCircle
 10
2976.229012673532
 20
4202.841709227279
 30
0.0
 40
12.5
100
AcDbArc
 50
149.7205526729064
 51
230.5362301930643
  0
ARC
  5
2F6
330
1F
100
AcDbEntity
  8
LAY-10
  6
CONTINUOUS
 62
     7
100
AcDbCircle
 10
2978.504598201444
 20
4185.994700278948
 30
0.0
 40
12.5
100
AcDbArc
 50
144.8489441058884
 51
225.6646216260597
  0
ARC
  5
2F7
330
1F
100
AcDbEntity
  8
LAY-10
  6
CONTINUOUS
 62
     7
100
AcDbCircle
 10
2978.732956993679
 20
4152.026187987975
 30
0.0
 40
12.5
100
AcDbArc
 50
135.1057269718518
 51
203.1733068002683
  0
ARC
  5
2F8
330
1F
100
AcDbEntity
  8
LAY-10
  6
CONTINUOUS
 62
     7
100
AcDbCircle
 10
2979.34126127172
 20
4169.015301146269
 30
0.0
 40
12.5
100
AcDbArc
 50
139.9773355388692
 51
220.7930130590514
  0
CIRCLE
  5
2F9
330
1F
100
AcDbEntity
  8
LAY-10
  6
CONTINUOUS
 62
     7
100
AcDbCircle
 10
2807.82835312241
 20
4197.819938577997
 30
0.0
 40
4.0
  0
LINE
  5
2FA
330
1F
100
AcDbEntity
  8
LAY-10
  6
CONTINUOUS
 62
     7
100
AcDbLine
 10
2788.807976411636
 20
4185.735329780843
 30
0.0
 11
2799.277070816108
 21
4203.004103980254
 31
0.0
  0
CIRCLE
  5
2FB
330
1F
100
AcDbEntity
  8
LAY-10
  6
CONTINUOUS
 62
     7
100
AcDbCircle
 10
2819.086981584369
 20
4155.802165134422
 30
0.0
 40
4.0
  0
LINE
  5
2FC
330
1F
100
AcDbEntity
  8
LAY-10
  6
CONTINUOUS
 62
     7
100
AcDbLine
 10
2796.572547764711
 20
4156.75755499217
 30
0.0
 11
2814.273436573308
 21
4147.036905045499
 31
0.0
  0
LINE
  5
2FD
330
1F
100
AcDbEntity
  8
LAY-10
  6
CONTINUOUS
 62
     7
100
AcDbLine
 10
2790.102071637149
 20
4180.905700649398
 30
0.0
 11
2779.476887547969
 21
4178.058691153268
 31
0.0
  0
ARC
  5
2FE
330
1F
100
AcDbEntity
  8
LAY-10
  6
CONTINUOUS
 62
     7
100
AcDbCircle
 10
2782.065077998993
 20
4168.399432890377
 30
0.0
 40
10.0
100
AcDbArc
 50
104.9999999999945
 51
285.0000000000135
  0
LINE
  5
2FF
330
1F
100
AcDbEntity
  8
LAY-10
  6
CONTINUOUS
 62
     7
100
AcDbLine
 10
2795.278452539198
 20
4161.587184123616
 30
0.0
 11
2784.65326845002
 21
4158.740174627486
 31
0.0
  0
LINE
  5
300
330
1F
100
AcDbEntity
  8
LAY-10
  6
CONTINUOUS
 62
     7
100
AcDbLine
 10
2813.011527855977
 20
4179.918899510912
 30
0.0
 11
2817.426239025747
 21
4195.012700400268
 31
0.0
  0
ARC
  5
301
330
1F
100
AcDbEntity
  8
LAY-10
  6
CONTINUOUS
 62
     7
100
AcDbCircle
 10
2807.82835312241
 20
4197.819938577997
 30
0.0
 40
10.0
100
AcDbArc
 50
343.6965908453556
 51
148.7739040380784
  0
LINE
  5
302
330
1F
100
AcDbEntity
  8
LAY-10
  6
CONTINUOUS
 62
     7
100
AcDbLine
 10
2814.625223042349
 20
4173.89650708744
 30
0.0
 11
2825.995375510417
 21
4163.032247662481
 31
0.0
  0
ARC
  5
303
330
1F
100
AcDbEntity
  8
LAY-10
  6
CONTINUOUS
 62
     7
100
AcDbCircle
 10
2818.770259397979
 20
4178.234556604274
 30
0.0
 40
6.000000000000002
100
AcDbArc
 50
163.6965908453556
 51
226.3034091546212
  0
ARC
  5
304
330
1F
100
AcDbEntity
  8
LAY-10
  6
CONTINUOUS
 62
     7
100
AcDbCircle
 10
2819.086981584369
 20
4155.802165134422
 30
0.0
 40
10.0
100
AcDbArc
 50
241.2260959619157
 51
46.3034091546593
  0
LINE
  5
305
330
1F
100
AcDbEntity
  8
LAY-10
  6
CONTINUOUS
 62
     7
100
AcDbLine
 10
2796.572547764711
 20
4156.75755499217
 30
0.0
 11
2788.807976411636
 21
4185.735329780843
 31
0.0
  0
CIRCLE
  5
306
330
1F
100
AcDbEntity
  8
LAY-10
  6
CONTINUOUS
 62
     7
100
AcDbCircle
 10
2807.828353122409
 20
4197.819938577999
 30
0.0
 40
3.000000000000001
  0
CIRCLE
  5
307
330
1F
100
AcDbEntity
  8
LAY-10
  6
CONTINUOUS
 62
     7
100
AcDbCircle
 10
2819.086981584369
 20
4155.802165134422
 30
0.0
 40
3.000000000000001
  0
CIRCLE
  5
308
330
1F
100
AcDbEntity
  8
LAY-10
  6
CONTINUOUS
 62
     7
100
AcDbCircle
 10
2782.065077998993
 20
4168.39943289038
 30
0.0
 40
5.196152422706602
  0
LINE
  5
309
330
1F
100
AcDbEntity
  8
LAY-10
  6
CONTINUOUS
 62
     7
100
AcDbLine
 10
2787.860632956729
 20
4166.846518619763
 30
0.0
 11
2786.307718686114
 21
4172.642073577498
 31
0.0
  0
LINE
  5
30A
330
1F
100
AcDbEntity
  8
LAY-10
  6
CONTINUOUS
 62
     7
100
AcDbLine
 10
2786.307718686114
 20
4172.642073577498
 30
0.0
 11
2780.512163728379
 21
4174.194987848113
 31
0.0
  0
LINE
  5
30B
330
1F
100
AcDbEntity
  8
LAY-10
  6
CONTINUOUS
 62
     7
100
AcDbLine
 10
2780.512163728379
 20
4174.194987848113
 30
0.0
 11
2776.26952304126
 21
4169.952347160995
 31
0.0
  0
LINE
  5
30C
330
1F
100
AcDbEntity
  8
LAY-10
  6
CONTINUOUS
 62
     7
100
AcDbLine
 10
2776.26952304126
 20
4169.952347160995
 30
0.0
 11
2777.822437311876
 21
4164.156792203259
 31
0.0
  0
LINE
  5
30D
330
1F
100
AcDbEntity
  8
LAY-10
  6
CONTINUOUS
 62
     7
100
AcDbLine
 10
2777.822437311876
 20
4164.156792203259
 30
0.0
 11
2783.61799226961
 21
4162.603877932645
 31
0.0
  0
LINE
  5
30E
330
1F
100
AcDbEntity
  8
LAY-10
  6
CONTINUOUS
 62
     7
100
AcDbLine
 10
2783.61799226961
 20
4162.603877932645
 30
0.0
 11
2787.860632956729
 21
4166.846518619763
 31
0.0
  0
CIRCLE
  5
30F
330
1F
100
AcDbEntity
  8
LAY-10
  6
CONTINUOUS
 62
     7
100
AcDbCircle
 10
2782.065077998993
 20
4168.39943289038
 30
0.0
 40
3.000000000000001
  0
CIRCLE
  5
310
330
1F
100
AcDbEntity
  8
LAY-10
  6
CONTINUOUS
 62
     7
100
AcDbCircle
 10
2782.065077998993
 20
4168.39943289038
 30
0.0
 40
2.0
  0
CIRCLE
  5
311
330
1F
100
AcDbEntity
  8
LAY-10
  6
CONTINUOUS
 62
     7
100
AcDbCircle
 10
2947.973812012024
 20
4121.267043006321
 30
0.0
 40
4.0
  0
LINE
  5
312
330
1F
100
AcDbEntity
  8
LAY-10
  6
CONTINUOUS
 62
     7
100
AcDbLine
 10
2967.949578580542
 20
4110.837217983819
 30
0.0
 11
2947.759834229399
 21
4111.269332593003
 31
0.0
  0
CIRCLE
  5
313
330
1F
100
AcDbEntity
  8
LAY-10
  6
CONTINUOUS
 62
     7
100
AcDbCircle
 10
2978.732956993638
 20
4152.026187987934
 30
0.0
 40
4.0
  0
LINE
  5
314
330
1F
100
AcDbEntity
  8
LAY-10
  6
CONTINUOUS
 62
     7
100
AcDbLine
 10
2989.16278201614
 20
4132.050421419412
 30
0.0
 11
2988.730667406954
 21
4152.240165770558
 31
0.0
  0
LINE
  5
315
330
1F
100
AcDbEntity
  8
LAY-10
  6
CONTINUOUS
 62
     7
100
AcDbLine
 10
2971.485112486475
 20
4114.37275188975
 30
0.0
 11
2979.263287079528
 21
4106.594577296698
 31
0.0
  0
ARC
  5
316
330
1F
100
AcDbEntity
  8
LAY-10
  6
CONTINUOUS
 62
     7
100
AcDbCircle
 10
2986.334354891394
 20
4113.665645108565
 30
0.0
 40
10.0
100
AcDbArc
 50
225.0000000000037
 51
45.00000000000922
  0
LINE
  5
317
330
1F
100
AcDbEntity
  8
LAY-10
  6
CONTINUOUS
 62
     7
100
AcDbLine
 10
2985.627248110207
 20
4128.514887513481
 30
0.0
 11
2993.405422703259
 21
4120.736712920431
 31
0.0
  0
LINE
  5
318
330
1F
100
AcDbEntity
  8
LAY-10
  6
CONTINUOUS
 62
     7
100
AcDbLine
 10
2960.884979231473
 20
4134.706323531385
 30
0.0
 11
2945.606008636742
 21
4130.982675110099
 31
0.0
  0
ARC
  5
319
330
1F
100
AcDbEntity
  8
LAY-10
  6
CONTINUOUS
 62
     7
100
AcDbCircle
 10
2947.973812012024
 20
4121.267043006321
 30
0.0
 40
10.0
100
AcDbArc
 50
103.6965908453565
 51
268.7739040380735
  0
LINE
  5
31A
330
1F
100
AcDbEntity
  8
LAY-10
  6
CONTINUOUS
 62
     7
100
AcDbLine
 10
2965.293676468573
 20
4139.115020768483
 30
0.0
 11
2969.017324889858
 21
4154.393991363213
 31
0.0
  0
ARC
  5
31B
330
1F
100
AcDbEntity
  8
LAY-10
  6
CONTINUOUS
 62
     7
100
AcDbCircle
 10
2959.464297206305
 20
4140.535702793653
 30
0.0
 40
6.000000000000002
100
AcDbArc
 50
283.696590845348
 51
346.3034091546151
  0
ARC
  5
31C
330
1F
100
AcDbEntity
  8
LAY-10
  6
CONTINUOUS
 62
     7
100
AcDbCircle
 10
2978.732956993638
 20
4152.026187987934
 30
0.0
 40
10.0
100
AcDbArc
 50
1.226095961916046
 51
166.3034091546536
  0
LINE
  5
31D
330
1F
100
AcDbEntity
  8
LAY-10
  6
CONTINUOUS
 62
     7
100
AcDbLine
 10
2989.16278201614
 20
4132.050421419412
 30
0.0
 11
2967.949578580542
 21
4110.837217983819
 31
0.0
  0
CIRCLE
  5
31E
330
1F
100
AcDbEntity
  8
LAY-10
  6
CONTINUOUS
 62
     7
100
AcDbCircle
 10
2947.973812012022
 20
4121.267043006318
 30
0.0
 40
3.000000000000001
  0
CIRCLE
  5
31F
330
1F
100
AcDbEntity
  8
LAY-10
  6
CONTINUOUS
 62
     7
100
AcDbCircle
 10
2978.732956993638
 20
4152.026187987934
 30
0.0
 40
3.000000000000001
  0
CIRCLE
  5
320
330
1F
100
AcDbEntity
  8
LAY-10
  6
CONTINUOUS
 62
     7
100
AcDbCircle
 10
2986.334354891392
 20
4113.665645108563
 30
0.0
 40
5.196152422706602
  0
LINE
  5
321
330
1F
100
AcDbEntity
  8
LAY-10
  6
CONTINUOUS
 62
     7
100
AcDbLine
 10
2984.781440620778
 20
4119.461200066298
 30
0.0
 11
2980.538799933659
 21
4115.218559379179
 31
0.0
  0
LINE
  5
322
330
1F
100
AcDbEntity
  8
LAY-10
  6
CONTINUOUS
 62
     7
100
AcDbLine
 10
2980.538799933659
 20
4115.218559379179
 30
0.0
 11
2982.091714204274
 21
4109.423004421444
 31
0.0
  0
LINE
  5
323
330
1F
100
AcDbEntity
  8
LAY-10
  6
CONTINUOUS
 62
     7
100
AcDbLine
 10
2982.091714204274
 20
4109.423004421444
 30
0.0
 11
2987.887269162007
 21
4107.870090150829
 31
0.0
  0
LINE
  5
324
330
1F
100
AcDbEntity
  8
LAY-10
  6
CONTINUOUS
 62
     7
100
AcDbLine
 10
2987.887269162007
 20
4107.870090150829
 30
0.0
 11
2992.129909849127
 21
4112.11273083795
 31
0.0
  0
LINE
  5
325
330
1F
100
AcDbEntity
  8
LAY-10
  6
CONTINUOUS
 62
     7
100
AcDbLine
 10
2992.129909849127
 20
4112.11273083795
 30
0.0
 11
2990.576995578513
 21
4117.908285795684
 31
0.0
  0
LINE
  5
326
330
1F
100
AcDbEntity
  8
LAY-10
  6
CONTINUOUS
 62
     7
100
AcDbLine
 10
2990.576995578513
 20
4117.908285795684
 30
0.0
 11
2984.781440620778
 21
4119.461200066298
 31
0.0
  0
CIRCLE
  5
327
330
1F
100
AcDbEntity
  8
LAY-10
  6
CONTINUOUS
 62
     7
100
AcDbCircle
 10
2986.334354891392
 20
4113.665645108563
 30
0.0
 40
3.000000000000001
  0
CIRCLE
  5
328
330
1F
100
AcDbEntity
  8
LAY-10
  6
CONTINUOUS
 62
     7
100
AcDbCircle
 10
2986.334354891392
 20
4113.665645108563
 30
0.0
 40
2.0
  0
CIRCLE
  5
329
330
1F
100
AcDbEntity
  8
LAY-10
  6
CONTINUOUS
 62
     7
100
AcDbCircle
 10
2944.197834865582
 20
4280.91301841563
 30
0.0
 40
4.0
  0
LINE
  5
32A
330
1F
100
AcDbEntity
  8
LAY-10
  6
CONTINUOUS
 62
     7
100
AcDbLine
 10
2943.242445007836
 20
4303.427452235286
 30
0.0
 11
2952.963094954507
 21
4285.726563426691
 31
0.0
  0
CIRCLE
  5
32B
330
1F
100
AcDbEntity
  8
LAY-10
  6
CONTINUOUS
 62
     7
100
AcDbCircle
 10
2902.180061422008
 20
4292.17164687759
 30
0.0
 40
4.0
  0
LINE
  5
32C
330
1F
100
AcDbEntity
  8
LAY-10
  6
CONTINUOUS
 62
     7
100
AcDbLine
 10
2914.264670219164
 20
4311.192023588364
 30
0.0
 11
2896.995896019753
 21
4300.722929183891
 31
0.0
  0
LINE
  5
32D
330
1F
100
AcDbEntity
  8
LAY-10
  6
CONTINUOUS
 62
     7
100
AcDbLine
 10
2938.412815876391
 20
4304.721547460799
 30
0.0
 11
2941.259825372517
 21
4315.34673154998
 31
0.0
  0
ARC
  5
32E
330
1F
100
AcDbEntity
  8
LAY-10
  6
CONTINUOUS
 62
     7
100
AcDbCircle
 10
2931.600567109627
 20
4317.934922001006
 30
0.0
 40
10.0
100
AcDbArc
 50
344.9999999999949
 51
165.0000000000156
  0
LINE
  5
32F
330
1F
100
AcDbEntity
  8
LAY-10
  6
CONTINUOUS
 62
     7
100
AcDbLine
 10
2919.094299350609
 20
4309.897928362851
 30
0.0
 11
2921.941308846735
 21
4320.523112452031
 31
0.0
  0
LINE
  5
330
330
1F
100
AcDbEntity
  8
LAY-10
  6
CONTINUOUS
 62
     7
100
AcDbLine
 10
2926.103492912565
 20
4285.37477695765
 30
0.0
 11
2936.967752337526
 21
4274.00462448958
 31
0.0
  0
ARC
  5
331
330
1F
100
AcDbEntity
  8
LAY-10
  6
CONTINUOUS
 62
     7
100
AcDbCircle
 10
2944.197834865582
 20
4280.91301841563
 30
0.0
 40
10.0
100
AcDbArc
 50
223.6965908453572
 51
28.77390403807147
  0
LINE
  5
332
330
1F
100
AcDbEntity
  8
LAY-10
  6
CONTINUOUS
 62
     7
100
AcDbLine
 10
2920.081100489093
 20
4286.988472144023
 30
0.0
 11
2904.987299599739
 21
4282.573760974253
 31
0.0
  0
ARC
  5
333
330
1F
100
AcDbEntity
  8
LAY-10
  6
CONTINUOUS
 62
     7
100
AcDbCircle
 10
2921.765443395732
 20
4281.22974060202
 30
0.0
 40
6.000000000000002
100
AcDbArc
 50
43.69659084536021
 51
106.3034091546199
  0
ARC
  5
334
330
1F
100
AcDbEntity
  8
LAY-10
  6
CONTINUOUS
 62
     7
100
AcDbCircle
 10
2902.180061422008
 20
4292.17164687759
 30
0.0
 40
10.0
100
AcDbArc
 50
121.2260959619107
 51
286.3034091546552
  0
LINE
  5
335
330
1F
100
AcDbEntity
  8
LAY-10
  6
CONTINUOUS
 62
     7
100
AcDbLine
 10
2914.264670219164
 20
4311.192023588364
 30
0.0
 11
2943.242445007836
 21
4303.427452235286
 31
0.0
  0
CIRCLE
  5
336
330
1F
100
AcDbEntity
  8
LAY-10
  6
CONTINUOUS
 62
     7
100
AcDbCircle
 10
2944.197834865584
 20
4280.91301841563
 30
0.0
 40
3.000000000000001
  0
CIRCLE
  5
337
330
1F
100
AcDbEntity
  8
LAY-10
  6
CONTINUOUS
 62
     7
100
AcDbCircle
 10
2902.180061422008
 20
4292.17164687759
 30
0.0
 40
3.000000000000001
  0
CIRCLE
  5
338
330
1F
100
AcDbEntity
  8
LAY-10
  6
CONTINUOUS
 62
     7
100
AcDbCircle
 10
2931.600567109629
 20
4317.934922001004
 30
0.0
 40
5.196152422706602
  0
LINE
  5
339
330
1F
100
AcDbEntity
  8
LAY-10
  6
CONTINUOUS
 62
     7
100
AcDbLine
 10
2927.357926422508
 20
4313.692281313885
 30
0.0
 11
2933.153481380243
 21
4312.139367043269
 31
0.0
  0
LINE
  5
33A
330
1F
100
AcDbEntity
  8
LAY-10
  6
CONTINUOUS
 62
     7
100
AcDbLine
 10
2933.153481380243
 20
4312.139367043269
 30
0.0
 11
2937.396122067362
 21
4316.38200773039
 31
0.0
  0
LINE
  5
33B
330
1F
100
AcDbEntity
  8
LAY-10
  6
CONTINUOUS
 62
     7
100
AcDbLine
 10
2937.396122067362
 20
4316.38200773039
 30
0.0
 11
2935.843207796747
 21
4322.177562688123
 31
0.0
  0
LINE
  5
33C
330
1F
100
AcDbEntity
  8
LAY-10
  6
CONTINUOUS
 62
     7
100
AcDbLine
 10
2935.843207796747
 20
4322.177562688123
 30
0.0
 11
2930.047652839012
 21
4323.730476958739
 31
0.0
  0
LINE
  5
33D
330
1F
100
AcDbEntity
  8
LAY-10
  6
CONTINUOUS
 62
     7
100
AcDbLine
 10
2930.047652839012
 20
4323.730476958739
 30
0.0
 11
2925.805012151893
 21
4319.487836271619
 31
0.0
  0
LINE
  5
33E
330
1F
100
AcDbEntity
  8
LAY-10
  6
CONTINUOUS
 62
     7
100
AcDbLine
 10
2925.805012151893
 20
4319.487836271619
 30
0.0
 11
2927.357926422508
 21
4313.692281313885
 31
0.0
  0
CIRCLE
  5
33F
330
1F
100
AcDbEntity
  8
LAY-10
  6
CONTINUOUS
 62
     7
100
AcDbCircle
 10
2931.600567109629
 20
4317.934922001004
 30
0.0
 40
3.000000000000001
  0
CIRCLE
  5
340
330
1F
100
AcDbEntity
  8
LAY-10
  6
CONTINUOUS
 62
     7
100
AcDbCircle
 10
2931.600567109629
 20
4317.934922001004
 30
0.0
 40
2.0
  0
ARC
  5
341
330
1F
100
AcDbEntity
  8
LAY-10
  6
CONTINUOUS
 62
     7
100
AcDbCircle
 10
2807.828353122396
 20
4197.819938578047
 30
0.0
 40
12.5
100
AcDbArc
 50
306.8266931997149
 51
14.89427302814229
  0
ARC
  5
342
330
1F
100
AcDbEntity
  8
LAY-10
  6
CONTINUOUS
 62
     7
100
AcDbCircle
 10
2819.086981584369
 20
4155.802165134418
 30
0.0
 40
12.5
100
AcDbArc
 50
204.3561983160469
 51
280.7930130590493
  0
ARC
  5
343
330
1F
100
AcDbEntity
  8
LAY-10
  6
CONTINUOUS
 62
     7
100
AcDbCircle
 10
2947.973812012022
 20
4121.267043006321
 30
0.0
 40
12.5
100
AcDbArc
 50
66.82669319949468
 51
134.8942730281467
  0
ARC
  5
344
330
1F
100
AcDbEntity
  8
LAY-10
  6
CONTINUOUS
 62
     7
100
AcDbCircle
 10
2978.732956993679
 20
4152.026187987975
 30
0.0
 40
12.5
100
AcDbArc
 50
324.3561983157593
 51
40.7930130590514
  0
ARC
  5
345
330
1F
100
AcDbEntity
  8
LAY-10
  6
CONTINUOUS
 62
     7
100
AcDbCircle
 10
2944.197834865582
 20
4280.913018415628
 30
0.0
 40
12.5
100
AcDbArc
 50
186.8266931994928
 51
254.8942730281443
  0
ARC
  5
346
330
1F
100
AcDbEntity
  8
LAY-10
  6
CONTINUOUS
 62
     7
100
AcDbCircle
 10
2902.180061421952
 20
4292.171646877604
 30
0.0
 40
12.5
100
AcDbArc
 50
84.35619831576062
 51
160.7930130590537
  0
CIRCLE
  5
347
330
1F
100
AcDbEntity
  8
LAY-10
  6
PHANTOM
 62
     7
100
AcDbCircle
 10
2900.0
 20
4199.999999999999
 30
0.0
 40
600.0000000000051
  0
CIRCLE
  5
348
330
1F
100
AcDbEntity
  8
LAY-10
  6
CONTINUOUS
 62
     7
100
AcDbCircle
 10
2700.0
 20
4199.999999999999
 30
0.0
 40
24.3
  0
CIRCLE
  5
349
330
1F
100
AcDbEntity
  8
LAY-10
  6
CONTINUOUS
 62
     7
100
AcDbCircle
 10
3100.0
 20
4199.999999999999
 30
0.0
 40
24.3
  0
LINE
  5
34A
330
1F
100
AcDbEntity
  8
LAY-10
  6
CENTER
 62
     2
100
AcDbLine
 10
2625.7
 20
1192.0
 30
0.0
 11
2374.299999999998
 21
1192.0
 31
0.0
  0
LINE
  5
34B
330
1F
100
AcDbEntity
  8
LAY-10
  6
CENTER
 62
     2
100
AcDbLine
 10
2299.999999999999
 20
1117.7
 30
0.0
 11
2299.999999999999
 21
466.8439962027426
 31
0.0
  0
LINE
  5
34C
330
1F
100
AcDbEntity
  8
LAY-10
  6
CENTER
 62
     2
100
AcDbLine
 10
2233.499999999999
 20
892.0000000000007
 30
0.0
 11
2366.5
 21
892.0000000000007
 31
0.0
  0
LINE
  5
34D
330
1F
100
AcDbEntity
  8
LAY-10
  6
CENTER
 62
     2
100
AcDbLine
 10
2233.499999999999
 20
1092.000000000001
 30
0.0
 11
2366.5
 21
1092.000000000001
 31
0.0
  0
LINE
  5
34E
330
1F
100
AcDbEntity
  8
LAY-10
  6
CENTER
 62
     2
100
AcDbLine
 10
2699.999999999999
 20
1266.3
 30
0.0
 11
2699.999999999999
 21
2822.843996202742
 31
0.0
  0
LINE
  5
34F
330
1F
100
AcDbEntity
  8
LAY-10
  6
CENTER
 62
     2
100
AcDbLine
 10
2900.0
 20
2822.843996202743
 30
0.0
 11
2900.0
 21
466.8439962027423
 31
0.0
  0
LINE
  5
350
330
1F
100
AcDbEntity
  8
LAY-10
  6
CENTER
 62
     2
100
AcDbLine
 10
3100.0
 20
1266.3
 30
0.0
 11
3100.0
 21
2822.843996202742
 31
0.0
  0
LINE
  5
351
330
1F
100
AcDbEntity
  8
LAY-10
  6
CENTER
 62
     2
100
AcDbLine
 10
2658.999999999995
 20
2691.999999999999
 30
0.0
 11
3138.999999999998
 21
2691.999999999999
 31
0.0
  0
LINE
  5
352
330
1F
100
AcDbEntity
  8
LAY-10
  6
CENTER
 62
     2
100
AcDbLine
 10
2658.999999999995
 20
2091.999999999998
 30
0.0
 11
3138.999999999998
 21
2091.999999999999
 31
0.0
  0
LINE
  5
353
330
1F
100
AcDbEntity
  8
LAY-10
  6
CENTER
 62
     2
100
AcDbLine
 10
3174.3
 20
1192.0
 30
0.0
 11
3425.700000000002
 21
1192.0
 31
0.0
  0
LINE
  5
354
330
1F
100
AcDbEntity
  8
LAY-10
  6
CENTER
 62
     2
100
AcDbLine
 10
3500.0
 20
1117.7
 30
0.0
 11
3500.0
 21
466.8439962027429
 31
0.0
  0
LINE
  5
355
330
1F
100
AcDbEntity
  8
LAY-10
  6
CENTER
 62
     2
100
AcDbLine
 10
3566.500000000001
 20
892.000000000001
 30
0.0
 11
3433.5
 21
892.000000000001
 31
0.0
  0
LINE
  5
356
330
1F
100
AcDbEntity
  8
LAY-10
  6
CENTER
 62
     2
100
AcDbLine
 10
3566.500000000001
 20
1092.000000000002
 30
0.0
 11
3433.5
 21
1092.000000000002
 31
0.0
  0
LINE
  5
357
330
1F
100
AcDbEntity
  8
LAY-10
  6
CENTER
 62
     2
100
AcDbLine
 10
3580.0
 20
4199.999999999999
 30
0.0
 11
2218.0
 21
4199.999999999999
 31
0.0
  0
LINE
  5
358
330
1F
100
AcDbEntity
  8
LAY-10
  6
CENTER
 62
     2
100
AcDbLine
 10
2900.0
 20
3552.0
 30
0.0
 11
2900.0
 21
4845.000000000001
 31
0.0
  0
LINE
  5
359
330
1F
100
AcDbEntity
  8
LAY-10
  6
CENTER
 62
     2
100
AcDbLine
 10
2299.999999999995
 20
4096.193894362489
 30
0.0
 11
2299.999999999995
 21
4307.193894362489
 31
0.0
  0
LINE
  5
35A
330
1F
100
AcDbEntity
  8
LAY-10
  6
CENTER
 62
     2
100
AcDbLine
 10
3500.000000000005
 20
4096.193894362489
 30
0.0
 11
3500.000000000005
 21
4307.193894362489
 31
0.0
  0
LINE
  5
35B
330
1F
100
AcDbEntity
  8
LAY-10
  6
CENTER
 62
     2
100
AcDbLine
 10
2744.99999999987
 20
4178.500000000002
 30
0.0
 11
2744.999999999871
 21
4215.800000000002
 31
0.0
  0
LINE
  5
35C
330
1F
100
AcDbEntity
  8
LAY-10
  6
CENTER
 62
     2
100
AcDbLine
 10
3055.000000000129
 20
4221.499999999997
 30
0.0
 11
3055.000000000128
 21
4184.199999999997
 31
0.0
  0
CIRCLE
  5
35D
330
1F
100
AcDbEntity
  8
LAY-10
  6
CENTER
 62
     2
100
AcDbCircle
 10
2900.0
 20
4199.999999999999
 30
0.0
 40
200.0
  0
ARC
  5
35E
330
1F
100
AcDbEntity
  8
LAY-10
  6
CENTER
 62
     2
100
AcDbCircle
 10
3174.3
 20
1266.3
 30
0.0
 40
74.3
100
AcDbArc
 50
180.0
 51
270.0
  0
ARC
  5
35F
330
1F
100
AcDbEntity
  8
LAY-10
  6
CENTER
 62
     2
100
AcDbCircle
 10
3425.700000000002
 20
1117.7
 30
0.0
 40
74.3
100
AcDbArc
 50
0.0
 51
90.00000000000001
  0
ARC
  5
360
330
1F
100
AcDbEntity
  8
LAY-10
  6
CENTER
 62
     2
100
AcDbCircle
 10
2625.7
 20
1266.3
 30
0.0
 40
74.3
100
AcDbArc
 50
270.0
 51
0.0
  0
ARC
  5
361
330
1F
100
AcDbEntity
  8
LAY-10
  6
CENTER
 62
     2
100
AcDbCircle
 10
2374.299999999998
 20
1117.7
 30
0.0
 40
74.3
100
AcDbArc
 50
90.00000000000001
 51
180.0
  0
DIMENSION
  5
363
330
1F
100
AcDbEntity
  8
LAY-20
  6
CONTINUOUS
 62
     4
100
AcDbDimension
  2
*D15
 10
2030.0
 20
2791.999999999998
 30
0.0
 11
1980.0
 21
1966.999999999998
 31
0.0
 70
   160
  3
ISO-25
100
AcDbAlignedDimension
 13
2229.999999999999
 23
1141.999999999998
 33
0.0
 14
2675.699999999999
 24
2791.999999999998
 34
0.0
 50
90.0
100
AcDbRotatedDimension
1001
ACAD
1000
DSTYLE
1002
{
1070
   270
1070
     2
1070
     6
1000
EX_BNORM
1070
     7
1000
EX_BNORM
1070
    41
1040
50.0
1070
    42
1040
30.0
1070
    44
1040
30.0
1070
    73
1070
     0
1070
    74
1070
     0
1070
    75
1070
     0
1070
    76
1070
     0
1070
    77
1070
     1
1070
    78
1070
     8
1070
   140
1040
62.362208
1070
   147
1040
0.0
1070
   173
1070
     1
1070
   176
1070
     4
1070
   177
1070
     4
1070
   178
1070
     7
1070
   271
1070
     1
1070
   277
1070
     2
1070
   279
1070
     2
1070
   280
1070
     0
1070
   287
1070
     5
1070
   340
1005
362
1002
}
  0
DIMENSION
  5
371
330
1F
100
AcDbEntity
  8
LAY-20
  6
CONTINUOUS
 62
     4
100
AcDbDimension
  2
*D16
 10
2030.0
 20
1141.999999999998
 30
0.0
 11
1980.0
 21
816.9999999999978
 31
0.0
 70
   160
  3
ISO-25
100
AcDbAlignedDimension
 13
2229.999999999999
 23
491.9999999999979
 33
0.0
 14
2030.0
 24
1141.999999999998
 34
0.0
 50
90.0
100
AcDbRotatedDimension
1001
ACAD
1000
DSTYLE
1002
{
1070
   270
1070
     2
1070
     6
1000
EX_BNORM
1070
     7
1000
EX_BNORM
1070
    41
1040
50.0
1070
    42
1040
30.0
1070
    44
1040
30.0
1070
    73
1070
     0
1070
    74
1070
     0
1070
    75
1070
     0
1070
    76
1070
     1
1070
    77
1070
     1
1070
    78
1070
     8
1070
   140
1040
62.362208
1070
   147
1040
0.0
1070
   173
1070
     1
1070
   176
1070
     4
1070
   177
1070
     4
1070
   178
1070
     7
1070
   271
1070
     1
1070
   277
1070
     2
1070
   279
1070
     2
1070
   280
1070
     0
1070
   287
1070
     5
1070
   340
1005
362
1002
}
  0
TEXT
  5
37D
330
1F
100
AcDbEntity
  8
LAY-20
  6
CONTINUOUS
 62
     7
100
AcDbText
 10
3884.666666666667
 20
1302.708664000003
 30
0.0
 40
62.362208
  1
Ｇ.Ｌ
 41
0.9957446808510639
  7
EXCADSTD
100
AcDbText
  0
POLYLINE
  5
37E
330
1F
100
AcDbEntity
  8
LAY-20
  6
CONTINUOUS
 62
     7
100
AcDb2dPolyline
 66
     1
 10
0.0
 20
0.0
 30
0.0
 70
   128
  0
VERTEX
  5
37F
330
37E
100
AcDbEntity
  8
LAY-20
  6
CONTINUOUS
 62
     7
100
AcDbVertex
100
AcDb2dVertex
 10
3827.0
 20
1292.000000000003
 30
0.0
  0
VERTEX
  5
380
330
37E
100
AcDbEntity
  8
LAY-20
  6
CONTINUOUS
 62
     7
100
AcDbVertex
100
AcDb2dVertex
 10
3862.0
 20
1352.621778264914
 30
0.0
  0
VERTEX
  5
381
330
37E
100
AcDbEntity
  8
LAY-20
  6
CONTINUOUS
 62
     7
100
AcDbVertex
100
AcDb2dVertex
 10
3792.0
 20
1352.621778264914
 30
0.0
  0
VERTEX
  5
382
330
37E
100
AcDbEntity
  8
LAY-20
  6
CONTINUOUS
 62
     7
100
AcDbVertex
100
AcDb2dVertex
 10
3827.0
 20
1292.000000000003
 30
0.0
  0
SEQEND
  5
383
330
37E
100
AcDbEntity
  8
LAY-20
  6
CONTINUOUS
 62
     7
  0
DIMENSION
  5
384
330
1F
100
AcDbEntity
  8
LAY-20
  6
CONTINUOUS
 62
     4
100
AcDbDimension
  2
*D17
 10
2299.999999999995
 20
4950.000000000002
 30
0.0
 11
2900.000000000001
 21
5000.000000000002
 31
0.0
 70
   160
  3
ISO-25
100
AcDbAlignedDimension
 13
3500.000000000005
 23
4199.999999999999
 33
0.0
 14
2299.999999999995
 24
4199.999999999999
 34
0.0
100
AcDbRotatedDimension
1001
ACAD
1000
DSTYLE
1002
{
1070
   270
1070
     2
1070
     6
1000
EX_BNORM
1070
     7
1000
EX_BNORM
1070
    41
1040
50.0
1070
    42
1040
30.0
1070
    44
1040
30.0
1070
    73
1070
     0
1070
    74
1070
     0
1070
    75
1070
     0
1070
    76
1070
     0
1070
    77
1070
     1
1070
    78
1070
     8
1070
   140
1040
62.362208
1070
   147
1040
0.0
1070
   173
1070
     1
1070
   176
1070
     4
1070
   177
1070
     4
1070
   178
1070
     7
1070
   271
1070
     1
1070
   277
1070
     2
1070
   279
1070
     2
1070
   280
1070
     0
1070
   287
1070
     5
1070
   340
1005
362
1002
}
  0
DIMENSION
  5
391
330
1F
100
AcDbEntity
  8
LAY-20
  6
CONTINUOUS
 62
     4
100
AcDbDimension
  2
*D18
 10
3100.0
 20
4610.0
 30
0.0
 11
2900.0
 21
4660.0
 31
0.0
 70
   160
  1
%%c<>
  3
ISO-25
100
AcDbAlignedDimension
 13
2700.0
 23
4200.0
 33
0.0
 14
3100.0
 24
4200.0
 34
0.0
100
AcDbRotatedDimension
1001
ACAD
1000
DSTYLE
1002
{
1070
   270
1070
     2
1070
     6
1000
EX_BNORM
1070
     7
1000
EX_BNORM
1070
    41
1040
50.0
1070
    42
1040
30.0
1070
    44
1040
30.0
1070
    73
1070
     0
1070
    74
1070
     0
1070
    75
1070
     0
1070
    76
1070
     0
1070
    77
1070
     1
1070
    78
1070
     8
1070
   140
1040
62.362208
1070
   147
1040
0.0
1070
   173
1070
     1
1070
   176
1070
     4
1070
   177
1070
     4
1070
   178
1070
     7
1070
   271
1070
     1
1070
   277
1070
     2
1070
   279
1070
     2
1070
   280
1070
     0
1070
   287
1070
     5
1070
   340
1005
362
1002
}
  0
DIMENSION
  5
39E
330
1F
100
AcDbEntity
  8
LAY-20
  6
CONTINUOUS
 62
     4
100
AcDbDimension
  2
*D19
 10
2675.7
 20
2314.0
 30
0.0
 11
2485.700000000001
 21
2364.0
 31
0.0
 70
   160
  1
%%c<>
  3
ISO-25
100
AcDbAlignedDimension
 13
2724.3
 23
2324.5
 33
0.0
 14
2675.7
 24
2324.5
 34
0.0
100
AcDbRotatedDimension
1001
ACAD
1000
DSTYLE
1002
{
1070
   270
1070
     2
1070
     6
1000
EX_BNORM
1070
     7
1000
EX_BNORM
1070
    41
1040
50.0
1070
    42
1040
0.0
1070
    44
1040
0.0
1070
    73
1070
     0
1070
    74
1070
     0
1070
    75
1070
     1
1070
    76
1070
     1
1070
    77
1070
     1
1070
    78
1070
     8
1070
   140
1040
62.362208
1070
   147
1040
0.0
1070
   173
1070
     1
1070
   176
1070
     4
1070
   177
1070
     4
1070
   178
1070
     7
1070
   271
1070
     1
1070
   277
1070
     2
1070
   279
1070
     2
1070
   280
1070
     2
1070
   287
1070
     5
1070
   340
1005
362
1002
}
  0
DIMENSION
  5
3AB
330
1F
100
AcDbEntity
  8
LAY-20
  6
CONTINUOUS
 62
     4
100
AcDbDimension
  2
*D20
 10
2230.0
 20
1342.0
 30
0.0
 11
2300.0
 21
1392.0
 31
0.0
 70
   160
  1
%%c<>
  3
ISO-25
100
AcDbAlignedDimension
 13
2370.0
 23
1142.0
 33
0.0
 14
2230.0
 24
1142.0
 34
0.0
100
AcDbRotatedDimension
1001
ACAD
1000
DSTYLE
1002
{
1070
   270
1070
     2
1070
     6
1000
EX_BNORM
1070
     7
1000
EX_BNORM
1070
    41
1040
50.0
1070
    42
1040
30.0
1070
    44
1040
30.0
1070
    73
1070
     0
1070
    74
1070
     0
1070
    75
1070
     0
1070
    76
1070
     0
1070
    77
1070
     1
1070
    78
1070
     8
1070
   140
1040
62.362208
1070
   147
1040
0.0
1070
   173
1070
     1
1070
   176
1070
     4
1070
   177
1070
     4
1070
   178
1070
     7
1070
   271
1070
     1
1070
   277
1070
     2
1070
   279
1070
     2
1070
   280
1070
     0
1070
   287
1070
     5
1070
   340
1005
362
1002
}
  0
LINE
  5
3B8
330
1F
100
AcDbEntity
  8
LAY-20
  6
PHANTOM
 62
     7
100
AcDbLine
 10
1757.0
 20
1292.000000000002
 30
0.0
 11
4103.0
 21
1292.000000000003
 31
0.0
  0
LINE
  5
3B9
330
1F
100
AcDbEntity
  8
LAY-255
  6
CONTINUOUS
 62
     7
100
AcDbLine
 10
7700.0
 20
439.9999999999999
 30
0.0
 11
5700.0
 21
439.9999999999999
 31
0.0
  0
LINE
  5
3BA
330
1F
100
AcDbEntity
  8
LAY-255
  6
CONTINUOUS
 62
     7
100
AcDbLine
 10
5776.0
 20
319.9999999999999
 30
0.0
 11
5936.0
 21
420.0
 31
0.0
  0
LINE
  5
3BB
330
1F
100
AcDbEntity
  8
LAY-255
  6
CONTINUOUS
 62
     7
100
AcDbLine
 10
5936.0
 20
420.0
 30
0.0
 11
6096.0
 21
319.9999999999999
 31
0.0
  0
LINE
  5
3BC
330
1F
100
AcDbEntity
  8
LAY-255
  6
CONTINUOUS
 62
     7
100
AcDbLine
 10
6096.0
 20
319.9999999999999
 30
0.0
 11
5936.0
 21
220.0
 31
0.0
  0
LINE
  5
3BD
330
1F
100
AcDbEntity
  8
LAY-255
  6
CONTINUOUS
 62
     7
100
AcDbLine
 10
5936.0
 20
220.0
 30
0.0
 11
5776.0
 21
319.9999999999999
 31
0.0
  0
LINE
  5
3BE
330
1F
100
AcDbEntity
  8
LAY-255
  6
CONTINUOUS
 62
     7
100
AcDbLine
 10
100.0
 20
200.0
 30
0.0
 11
7700.000000000001
 21
200.0
 31
0.0
  0
LINE
  5
3BF
330
1F
100
AcDbEntity
  8
LAY-255
  6
CONTINUOUS
 62
     7
100
AcDbLine
 10
100.0
 20
5600.0
 30
0.0
 11
7700.000000000001
 21
5600.0
 31
0.0
  0
LINE
  5
3C0
330
1F
100
AcDbEntity
  8
LAY-255
  6
CONTINUOUS
 62
     7
100
AcDbLine
 10
100.0
 20
200.0
 30
0.0
 11
100.0
 21
5600.0
 31
0.0
  0
LINE
  5
3C1
330
1F
100
AcDbEntity
  8
LAY-255
  6
CONTINUOUS
 62
     7
100
AcDbLine
 10
7700.0
 20
200.0
 30
0.0
 11
7700.0
 21
5600.0
 31
0.0
  0
LINE
  5
3C2
330
1F
100
AcDbEntity
  8
LAY-255
  6
CONTINUOUS
 62
     4
100
AcDbLine
 10
5700.0
 20
559.9999999999999
 30
0.0
 11
7700.000000000001
 21
559.9999999999999
 31
0.0
  0
LINE
  5
3C3
330
1F
100
AcDbEntity
  8
LAY-255
  6
CONTINUOUS
 62
     7
100
AcDbLine
 10
5700.0
 20
200.0
 30
0.0
 11
5700.0
 21
1340.000000000001
 31
0.0
  0
LINE
  5
3C4
330
1F
100
AcDbEntity
  8
LAY-255
  6
CONTINUOUS
 62
     4
100
AcDbLine
 10
6700.0
 20
559.9999999999999
 30
0.0
 11
6700.0
 21
440.0
 31
0.0
  0
LINE
  5
3C5
330
1F
100
AcDbEntity
  8
LAY-255
  6
CONTINUOUS
 62
     7
100
AcDbLine
 10
7700.000000000001
 20
1340.000000000001
 30
0.0
 11
5700.0
 21
1340.000000000001
 31
0.0
  0
LINE
  5
3C6
330
1F
100
AcDbEntity
  8
LAY-255
  6
CONTINUOUS
 62
     4
100
AcDbLine
 10
7660.0
 20
1100.000000000001
 30
0.0
 11
5740.0
 21
1100.000000000001
 31
0.0
  0
LINE
  5
3C7
330
1F
100
AcDbEntity
  8
LAY-255
  6
CONTINUOUS
 62
     4
100
AcDbLine
 10
7660.0
 20
1220.000000000001
 30
0.0
 11
5740.0
 21
1220.000000000001
 31
0.0
  0
POINT
  5
3C8
330
1F
100
AcDbEntity
  8
LAY-255
  6
CONTINUOUS
 62
     7
100
AcDbPoint
 10
5780.0
 20
600.0000000000002
 30
0.0
  0
TEXT
  5
3C9
330
1F
100
AcDbEntity
  8
LAY-255
  6
CONTINUOUS
 62
     7
100
AcDbText
 10
6162.767546005859
 20
310.8749999999999
 30
0.0
 40
103.125
  1
福西鋳物株式会社
 41
1.342685627200235
  7
EXCADSTD
100
AcDbText
  0
TEXT
  5
3CA
330
1F
100
AcDbEntity
  8
LAY-255
  6
CONTINUOUS
 62
     7
100
AcDbText
 10
5880.6875
 20
274.375
 30
0.0
 40
103.125
  1
S
 41
0.7582677563636363
  7
EXCADSTD
100
AcDbText
  0
TEXT
  5
3CB
330
1F
100
AcDbEntity
  8
LAY-255
  6
CONTINUOUS
 62
     7
100
AcDbText
 10
5942.09375
 20
274.9882075472
 30
0.0
 40
103.125
  1
F
 41
0.7440945272727272
  7
EXCADSTD
100
AcDbText
  0
TEXT
  5
3CC
330
1F
100
AcDbEntity
  8
LAY-255
  6
CONTINUOUS
 62
     7
100
AcDbText
 10
6170.1875
 20
239.625
 30
0.0
 40
34.375
  1
ＦＵＫＵＮＩＳＨＩ
 41
1.204799226045263
  7
EXCADSTD
100
AcDbText
  0
TEXT
  5
3CD
330
1F
100
AcDbEntity
  8
LAY-255
  6
CONTINUOUS
 62
     7
100
AcDbText
 10
6654.082589285715
 20
239.625
 30
0.0
 40
34.375
  1
ＦＯＵＮＤＲＹ
 41
1.217206955080903
  7
EXCADSTD
100
AcDbText
  0
TEXT
  5
3CE
330
1F
100
AcDbEntity
  8
LAY-255
  6
CONTINUOUS
 62
     7
100
AcDbText
 10
7038.489633413461
 20
239.625
 30
0.0
 40
34.375
  1
ＣＯ.,ＬＴＤ.
 41
1.097167799789941
  7
EXCADSTD
100
AcDbText
  0
POINT
  5
3CF
330
1F
100
AcDbEntity
  8
LAY-255
  6
CONTINUOUS
 62
     7
100
AcDbPoint
 10
5780.0
 20
1000.000000000001
 30
0.0
  0
TEXT
  5
3D0
330
1F
100
AcDbEntity
  8
LAY-255
  6
CONTINUOUS
 62
     7
100
AcDbText
 10
5745.3125
 20
1131.250000000001
 30
0.0
 40
68.75
  1
型式
 41
1.056348480681818
  7
EXCADSTD
100
AcDbText
  0
TEXT
  5
3D1
330
1F
100
AcDbEntity
  8
LAY-255
  6
CONTINUOUS
 62
     7
100
AcDbText
 10
5748.4375
 20
1251.250000000001
 30
0.0
 40
68.75
  1
品名
 41
0.9788386340909091
  7
EXCADSTD
100
AcDbText
  0
POINT
  5
3D2
330
1F
100
AcDbEntity
  8
LAY-255
  6
CONTINUOUS
 62
     7
100
AcDbPoint
 10
6000.0
 20
1120.000000000001
 30
0.0
  0
POINT
  5
3D3
330
1F
100
AcDbEntity
  8
LAY-255
  6
CONTINUOUS
 62
     7
100
AcDbPoint
 10
6000.0
 20
1240.000000000001
 30
0.0
  0
POINT
  5
3D4
330
1F
100
AcDbEntity
  8
LAY-255
  6
CONTINUOUS
 62
     7
100
AcDbPoint
 10
5780.0
 20
800.0000000000008
 30
0.0
  0
POINT
  5
3D5
330
1F
100
AcDbEntity
  8
LAY-255
  6
CONTINUOUS
 62
     7
100
AcDbPoint
 10
5780.0
 20
900.0000000000008
 30
0.0
  0
POINT
  5
3D6
330
1F
100
AcDbEntity
  8
LAY-255
  6
CONTINUOUS
 62
     7
100
AcDbPoint
 10
5780.0
 20
700.0000000000002
 30
0.0
  0
TEXT
  5
3D7
330
1F
100
AcDbEntity
  8
LAY-255
  6
CONTINUOUS
 62
     7
100
AcDbText
 10
6013.75
 20
1131.250000000001
 30
0.0
 40
68.75
  1
ＧＳＭＵ２２－４００型
 41
1.005641744517338
  7
EXCADSTD
100
AcDbText
  0
TEXT
  5
3D8
330
1F
100
AcDbEntity
  8
LAY-255
  6
CONTINUOUS
 62
     7
100
AcDbText
 10
5785.625
 20
811.2500000000011
 30
0.0
 40
68.75
  1
形状：丸パイプ２本支柱
 41
1.016965716213683
  7
EXCADSTD
100
AcDbText
  0
TEXT
  5
3D9
330
1F
100
AcDbEntity
  8
LAY-255
  6
CONTINUOUS
 62
     7
100
AcDbText
 10
5783.75
 20
711.2500000000006
 30
0.0
 40
68.75
  1
施工：ソケットアンカー式
 41
1.016862332418525
  7
EXCADSTD
100
AcDbText
  0
TEXT
  5
3DA
330
1F
100
AcDbEntity
  8
LAY-255
  6
CONTINUOUS
 62
     7
100
AcDbText
 10
5782.8125
 20
911.2500000000011
 30
0.0
 40
68.75
  1
材質：ステンレス鋼
 41
1.019934270655926
  7
EXCADSTD
100
AcDbText
  0
TEXT
  5
3DB
330
1F
100
AcDbEntity
  8
LAY-255
  6
CONTINUOUS
 62
     7
100
AcDbText
 10
6008.75
 20
1251.250000000001
 30
0.0
 40
68.75
  1
グリーンホルダー（樹木保護用支柱）
 41
0.9735882036122816
  7
EXCADSTD
100
AcDbText
  0
TEXT
  5
3DC
330
1F
100
AcDbEntity
  8
LAY-255
  6
CONTINUOUS
 62
     7
100
AcDbText
 10
5782.8125
 20
1011.250000000001
 30
0.0
 40
68.75
  1
種別：樹木保護用支柱
 41
1.021519380785124
  7
EXCADSTD
100
AcDbText
  0
TEXT
  5
3DD
330
1F
100
AcDbEntity
  8
LAY-255
  6
CONTINUOUS
 62
     7
100
AcDbText
 10
6965.625
 20
471.2499999999998
 30
0.0
 40
68.75
  1
１：２０
 41
0.9243863385026738
  7
EXCADSTD
100
AcDbText
  0
TEXT
  5
3DE
330
1F
100
AcDbEntity
  8
LAY-255
  6
CONTINUOUS
 62
     7
100
AcDbText
 10
6017.8125
 20
471.2499999999998
 30
0.0
 40
68.75
  1
０１／０８／０１
 41
0.9566929636363637
  7
EXCADSTD
100
AcDbText
  0
TEXT
  5
3DF
330
1F
100
AcDbEntity
  8
LAY-255
  6
CONTINUOUS
 62
     7
100
AcDbText
 10
5743.046875
 20
488.4374999999998
 30
0.0
 40
51.5625
  1
作成日
 41
1.000629973818182
  7
EXCADSTD
100
AcDbText
  0
TEXT
  5
3E0
330
1F
100
AcDbEntity
  8
LAY-255
  6
CONTINUOUS
 62
     7
100
AcDbText
 10
6742.109375
 20
488.4374999999998
 30
0.0
 40
51.5625
  1
縮尺
 41
1.080708718181818
  7
EXCADSTD
100
AcDbText
  0
ENDSEC
  0
SECTION
  2
OBJECTS
  0
DICTIONARY
  5
C
330
0
100
AcDbDictionary
  3
ACAD_GROUP
350
D
  3
ACAD_LAYOUT
350
1A
  3
ACAD_MATERIAL
350
43
  3
ACAD_MLEADERSTYLE
350
6B
  3
ACAD_MLINESTYLE
350
17
  3
ACAD_PLOTSETTINGS
350
19
  3
ACAD_SCALELIST
350
47
  3
ACAD_VISUALSTYLE
350
2A
  3
ACDBHEADERROUNDTRIPXREC
350
3E1
  3
ACDBVARIABLEDICTIONARY
350
402
  0
DICTIONARY
  5
40D
330
8
100
AcDbDictionary
280
     1
  3
ACAD_XREC_ROUNDTRIP
360
40E
  0
DICTIONARY
  5
D
102
{ACAD_REACTORS
330
C
102
}
330
C
100
AcDbDictionary
  0
DICTIONARY
  5
1A
102
{ACAD_REACTORS
330
C
102
}
330
C
100
AcDbDictionary
  0
DICTIONARY
  5
43
102
{ACAD_REACTORS
330
C
102
}
330
C
100
AcDbDictionary
  3
BYBLOCK
350
45
  3
BYLAYER
350
44
  3
GLOBAL
350
46
  0
DICTIONARY
  5
6B
102
{ACAD_REACTORS
330
C
102
}
330
C
100
AcDbDictionary
  3
STANDARD
350
6C
  0
DICTIONARY
  5
17
102
{ACAD_REACTORS
330
C
102
}
330
C
100
AcDbDictionary
  3
STANDARD
350
18
  0
DICTIONARY
  5
19
102
{ACAD_REACTORS
330
C
102
}
330
C
100
AcDbDictionary
  0
DICTIONARY
  5
47
102
{ACAD_REACTORS
330
C
102
}
330
C
100
AcDbDictionary
  3
A0
350
48
  3
A1
350
49
  3
A2
350
4A
  3
A3
350
4B
  3
A4
350
4C
  3
A5
350
4D
  3
A6
350
4E
  3
A7
350
4F
  3
A8
350
50
  3
A9
350
51
  3
B0
350
52
  3
B1
350
53
  3
B2
350
54
  3
B3
350
55
  3
B4
350
56
  3
B5
350
57
  3
B6
350
58
  3
B7
350
59
  3
B8
350
5A
  3
B9
350
5B
  3
C0
350
5C
  3
C1
350
5D
  3
C2
350
5E
  3
C3
350
5F
  3
C4
350
60
  3
C5
350
61
  3
C6
350
62
  3
C7
350
63
  3
C8
350
64
  3
C9
350
65
  3
D0
350
66
  3
D1
350
67
  3
D2
350
68
  0
DICTIONARY
  5
2A
102
{ACAD_REACTORS
330
C
102
}
330
C
100
AcDbDictionary
  3
2DWIREFRAME
350
2F
  3
BASIC
350
32
  3
BRIGHTEN
350
36
  3
COLORCHANGE
350
3A
  3
CONCEPTUAL
350
34
  3
DIM
350
35
  3
EDGECOLOROFF
350
3D
  3
FACEPATTERN
350
39
  3
FLAT
350
2B
  3
FLATWITHEDGES
350
2C
  3
GOURAUD
350
2D
  3
GOURAUDWITHEDGES
350
2E
  3
HIDDEN
350
31
  3
JITTEROFF
350
3B
  3
LINEPATTERN
350
38
  3
OVERHANGOFF
350
3C
  3
REALISTIC
350
33
  3
SHADED
350
42
  3
SHADED_WITH_EDGES
350
41
  3
SHADES_OF_GRAY
350
3E
  3
SKETCHY
350
3F
  3
THICKEN
350
37
  3
WIREFRAME
350
30
  3
X-RAY
350
40
  0
DICTIONARY
  5
3E1
102
{ACAD_REACTORS
330
C
102
}
330
C
100
AcDbDictionary
  3
CEPSNID
350
3EB
  3
CEPSNTYPE
350
3EA
  3
DIMSTYLEDATA
350
401
  3
FINGERPRINTGUID
350
3EC
  3
HYPERLINKBASE
350
3E4
  3
INSUNITS
350
3E9
  3
LAYOUTDICT
350
3E6
  3
LWETCUNION
350
3E8
  3
PLOTSETDICT
350
3E7
  3
PSVPSCALE
350
3EE
  3
PUCSBASE
350
3F1
  3
PUCSORGBACK
350
3F7
  3
PUCSORGBOTTOM
350
3F3
  3
PUCSORGFRONT
350
3F6
  3
PUCSORGLEFT
350
3F4
  3
PUCSORGRIGHT
350
3F5
  3
PUCSORGTOP
350
3F2
  3
PUCSORTHOREF
350
3EF
  3
PUCSORTHOVIEW
350
3F0
  3
STYLESHEET
350
3E5
  3
TSTACKALIGN
350
3E2
  3
TSTACKSIZE
350
3E3
  3
UCSBASE
350
3FA
  3
UCSORGBACK
350
400
  3
UCSORGBOTTOM
350
3FC
  3
UCSORGFRONT
350
3FF
  3
UCSORGLEFT
350
3FD
  3
UCSORGRIGHT
350
3FE
  3
UCSORGTOP
350
3FB
  3
UCSORTHOREF
350
3F8
  3
UCSORTHOVIEW
350
3F9
  3
VERSIONGUID
350
3ED
  0
DICTIONARY
  5
402
102
{ACAD_REACTORS
330
C
102
}
330
C
100
AcDbDictionary
  3
CANNOSCALE
350
40F
  3
CENTEREXE
350
409
  3
CENTERLTYPEFILE
350
40A
  3
CMLEADERSTYLE
350
404
  3
CTABLESTYLE
350
403
  3
DIMASSOC
350
40B
  3
HIDETEXT
350
40C
  3
MSLTSCALE
350
410
  3
PSOLHEIGHT
350
406
  3
PSOLWIDTH
350
405
  0
XRECORD
  5
40E
102
{ACAD_REACTORS
330
40D
102
}
330
40D
100
AcDbXrecord
102
VTR_0.000_0.000_1.000_1.000_VISUALSTYLE
340
2F
102
VTR_0.000_0.000_1.000_1.000_GRIDDISPLAY
 70
     3
102
VTR_0.000_0.000_1.000_1.000_GRIDMAJOR
 70
     5
102
VTR_0.000_0.000_1.000_1.000_DEFAULTLIGHTING
280
     1
102
VTR_0.000_0.000_1.000_1.000_DEFAULTLIGHTINGTYPE
 70
     1
102
VTR_0.000_0.000_1.000_1.000_BRIGHTNESS
141
0.0
102
VTR_0.000_0.000_1.000_1.000_CONTRAST
142
0.0
  0
MATERIAL
  5
45
102
{ACAD_REACTORS
330
43
102
}
102
{ACAD_XDICTIONARY
360
413
102
}
330
43
100
AcDbMaterial
  1
BYBLOCK
  0
MATERIAL
  5
44
102
{ACAD_REACTORS
330
43
102
}
102
{ACAD_XDICTIONARY
360
411
102
}
330
43
100
AcDbMaterial
  1
BYLAYER
  0
MATERIAL
  5
46
102
{ACAD_REACTORS
330
43
102
}
102
{ACAD_XDICTIONARY
360
415
102
}
330
43
100
AcDbMaterial
  1
GLOBAL
  0
ACAD_PROXY_OBJECT
  5
6C
102
{ACAD_REACTORS
330
6B
102
}
330
6B
100
AcDbProxyObject
 90
      499
 91
      505
 93
      610
310
40901902A4063FBFFFFFE0000000000000020400000000000020404214DD185B99185C990000000000000104090141901A00000000000004100000000000000041025764000000000000039000
340
14
340
0
340
11
340
0
 94
        0
1001
ACAD_MLEADERVER
1070
     2
  0
MLINESTYLE
  5
18
102
{ACAD_REACTORS
330
17
102
}
330
17
100
AcDbMlineStyle
  2
Standard
 70
     0
  3

 62
   256
 51
90.0
 52
90.0
 71
     2
 49
0.5
 62
   256
  6
BYLAYER
 49
-0.5
 62
   256
  6
BYLAYER
  0
ACAD_PROXY_OBJECT
  5
48
102
{ACAD_REACTORS
330
47
102
}
330
47
100
AcDbProxyObject
 90
      499
 91
      503
 93
       41
310
903313A31580
  0
ACAD_PROXY_OBJECT
  5
49
102
{ACAD_REACTORS
330
47
102
}
330
47
100
AcDbProxyObject
 90
      499
 91
      503
 93
      105
310
903313A324000000000000004000
  0
ACAD_PROXY_OBJECT
  5
4A
102
{ACAD_REACTORS
330
47
102
}
330
47
100
AcDbProxyObject
 90
      499
 91
      503
 93
      105
310
903313A344000000000000104000
  0
ACAD_PROXY_OBJECT
  5
4B
102
{ACAD_REACTORS
330
47
102
}
330
47
100
AcDbProxyObject
 90
      499
 91
      503
 93
      105
310
903313A354000000000000144000
  0
ACAD_PROXY_OBJECT
  5
4C
102
{ACAD_REACTORS
330
47
102
}
330
47
100
AcDbProxyObject
 90
      499
 91
      503
 93
      105
310
903313A384000000000000204000
  0
ACAD_PROXY_OBJECT
  5
4D
102
{ACAD_REACTORS
330
47
102
}
330
47
100
AcDbProxyObject
 90
      499
 91
      503
 93
      113
310
904313A31304000000000000244000
  0
ACAD_PROXY_OBJECT
  5
4E
102
{ACAD_REACTORS
330
47
102
}
330
47
100
AcDbProxyObject
 90
      499
 91
      503
 93
      113
310
904313A31364000000000000304000
  0
ACAD_PROXY_OBJECT
  5
4F
102
{ACAD_REACTORS
330
47
102
}
330
47
100
AcDbProxyObject
 90
      499
 91
      503
 93
      113
310
904313A32304000000000000344000
  0
ACAD_PROXY_OBJECT
  5
50
102
{ACAD_REACTORS
330
47
102
}
330
47
100
AcDbProxyObject
 90
      499
 91
      503
 93
      113
310
904313A333040000000000003E4000
  0
ACAD_PROXY_OBJECT
  5
51
102
{ACAD_REACTORS
330
47
102
}
330
47
100
AcDbProxyObject
 90
      499
 91
      503
 93
      113
310
904313A34304000000000000444000
  0
ACAD_PROXY_OBJECT
  5
52
102
{ACAD_REACTORS
330
47
102
}
330
47
100
AcDbProxyObject
 90
      499
 91
      503
 93
      113
310
904313A35304000000000000494000
  0
ACAD_PROXY_OBJECT
  5
53
102
{ACAD_REACTORS
330
47
102
}
330
47
100
AcDbProxyObject
 90
      499
 91
      503
 93
      121
310
905313A3130304000000000000594000
  0
ACAD_PROXY_OBJECT
  5
54
102
{ACAD_REACTORS
330
47
102
}
330
47
100
AcDbProxyObject
 90
      499
 91
      503
 93
      105
310
903323A310000000000000010100
  0
ACAD_PROXY_OBJECT
  5
55
102
{ACAD_REACTORS
330
47
102
}
330
47
100
AcDbProxyObject
 90
      499
 91
      503
 93
      105
310
903343A310000000000000410100
  0
ACAD_PROXY_OBJECT
  5
56
102
{ACAD_REACTORS
330
47
102
}
330
47
100
AcDbProxyObject
 90
      499
 91
      503
 93
      105
310
903383A310000000000000810100
  0
ACAD_PROXY_OBJECT
  5
57
102
{ACAD_REACTORS
330
47
102
}
330
47
100
AcDbProxyObject
 90
      499
 91
      503
 93
      113
310
90431303A310000000000000910100
  0
ACAD_PROXY_OBJECT
  5
58
102
{ACAD_REACTORS
330
47
102
}
330
47
100
AcDbProxyObject
 90
      499
 91
      503
 93
      121
310
9053130303A310000000000001650100
  0
ACAD_PROXY_OBJECT
  5
59
102
{ACAD_REACTORS
330
47
102
}
330
47
100
AcDbProxyObject
 90
      499
 91
      503
 93
      257
310
90E312F31323822203D2031272D3022000000000000200FC000000000000284000
  0
ACAD_PROXY_OBJECT
  5
5A
102
{ACAD_REACTORS
330
47
102
}
330
47
100
AcDbProxyObject
 90
      499
 91
      503
 93
      249
310
90D312F363422203D2031272D3022000000000000240FC000000000000284000
  0
ACAD_PROXY_OBJECT
  5
5B
102
{ACAD_REACTORS
330
47
102
}
330
47
100
AcDbProxyObject
 90
      499
 91
      503
 93
      249
310
90D312F333222203D2031272D3022000000000000280FC000000000000284000
  0
ACAD_PROXY_OBJECT
  5
5C
102
{ACAD_REACTORS
330
47
102
}
330
47
100
AcDbProxyObject
 90
      499
 91
      503
 93
      249
310
90D312F313622203D2031272D30220000000000002C0FC000000000000284000
  0
ACAD_PROXY_OBJECT
  5
5D
102
{ACAD_REACTORS
330
47
102
}
330
47
100
AcDbProxyObject
 90
      499
 91
      503
 93
      249
310
90D332F333222203D2031272D30220000000000002E0FC000000000000284000
  0
ACAD_PROXY_OBJECT
  5
5E
102
{ACAD_REACTORS
330
47
102
}
330
47
100
AcDbProxyObject
 90
      499
 91
      503
 93
      241
310
90C312F3822203D2031272D3022000000000000300FC000000000000284000
  0
ACAD_PROXY_OBJECT
  5
5F
102
{ACAD_REACTORS
330
47
102
}
330
47
100
AcDbProxyObject
 90
      499
 91
      503
 93
      249
310
90D332F313622203D2031272D3022000000000000320FC000000000000284000
  0
ACAD_PROXY_OBJECT
  5
60
102
{ACAD_REACTORS
330
47
102
}
330
47
100
AcDbProxyObject
 90
      499
 91
      503
 93
      241
310
90C312F3422203D2031272D3022000000000000340FC000000000000284000
  0
ACAD_PROXY_OBJECT
  5
61
102
{ACAD_REACTORS
330
47
102
}
330
47
100
AcDbProxyObject
 90
      499
 91
      503
 93
      241
310
90C332F3822203D2031272D3022000000000000360FC000000000000284000
  0
ACAD_PROXY_OBJECT
  5
62
102
{ACAD_REACTORS
330
47
102
}
330
47
100
AcDbProxyObject
 90
      499
 91
      503
 93
      241
310
90C312F3222203D2031272D3022000000000000380FC000000000000284000
  0
ACAD_PROXY_OBJECT
  5
63
102
{ACAD_REACTORS
330
47
102
}
330
47
100
AcDbProxyObject
 90
      499
 91
      503
 93
      241
310
90C332F3422203D2031272D30220000000000003A0FC000000000000284000
  0
ACAD_PROXY_OBJECT
  5
64
102
{ACAD_REACTORS
330
47
102
}
330
47
100
AcDbProxyObject
 90
      499
 91
      503
 93
      161
310
90A3122203D2031272D30224000000000000284000
  0
ACAD_PROXY_OBJECT
  5
65
102
{ACAD_REACTORS
330
47
102
}
330
47
100
AcDbProxyObject
 90
      499
 91
      503
 93
      257
310
90E312D312F3222203D2031272D30220000000000003E0FC000000000000284000
  0
ACAD_PROXY_OBJECT
  5
66
102
{ACAD_REACTORS
330
47
102
}
330
47
100
AcDbProxyObject
 90
      499
 91
      503
 93
      225
310
90A3322203D2031272D302200000000000002100000000000000284000
  0
ACAD_PROXY_OBJECT
  5
67
102
{ACAD_REACTORS
330
47
102
}
330
47
100
AcDbProxyObject
 90
      499
 91
      503
 93
      225
310
90A3622203D2031272D302200000000000006100000000000000284000
  0
ACAD_PROXY_OBJECT
  5
68
102
{ACAD_REACTORS
330
47
102
}
330
47
100
AcDbProxyObject
 90
      499
 91
      503
 93
      249
310
90D31272D3022203D2031272D30220000000000000A100000000000000284000
  0
ACAD_PROXY_OBJECT
  5
2F
102
{ACAD_REACTORS
330
2A
102
}
330
2A
100
AcDbProxyObject
 90
      499
 91
      501
 93
      436
310
42CC9915DA5C99599C985B595049028333333333333E33F0000000000000F90107901411070040501600405405064090741402480A0340
1001
ACAD
1000
AcDbSavedByObjectVersion
1070
     0
  0
ACAD_PROXY_OBJECT
  5
32
102
{ACAD_REACTORS
330
2A
102
}
330
2A
100
AcDbProxyObject
 90
      499
 91
      501
 93
      388
310
4150985CDA58D07406404333333333333E33F0000000000000F90107A41107004050150841D405064090741402480A0350
1001
ACAD
1000
AcDbSavedByObjectVersion
1070
     0
  0
ACAD_PROXY_OBJECT
  5
36
102
{ACAD_REACTORS
330
2A
102
}
330
2A
100
AcDbProxyObject
 90
      499
 91
      501
 93
      428
310
42109C9A59DA1D195B90C409028333333333333E33F0000000000000F9010790141107004050150841D405064090741402480A029950
1001
ACAD
1000
AcDbSavedByObjectVersion
1070
     0
  0
ACAD_PROXY_OBJECT
  5
3A
102
{ACAD_REACTORS
330
2A
102
}
330
2A
100
AcDbProxyObject
 90
      499
 91
      501
 93
      452
310
42D0DBDB1BDC90DA185B99D95104090240C333333333333E33F0000000000000F90108901411070040501508421405064090741402480A0350
1001
ACAD
1000
AcDbSavedByObjectVersion
1070
     0
  0
ACAD_PROXY_OBJECT
  5
34
102
{ACAD_REACTORS
330
2A
102
}
330
2A
100
AcDbProxyObject
 90
      499
 91
      501
 93
      500
310
4290DBDB98D95C1D1D585B10940D028333333333333E33F0000000000000F90107902409070040501000000000018199010841D405064090740C02480A0340
1001
ACAD
1000
AcDbSavedByObjectVersion
1070
     0
  0
ACAD_PROXY_OBJECT
  5
35
102
{ACAD_REACTORS
330
2A
102
}
330
2A
100
AcDbProxyObject
 90
      499
 91
      501
 93
      412
310
40D11A5B50B409028333333333333E33F0000000000000F9010790141107004050150841D405064090741402480A02677FFFFFD0
1001
ACAD
1000
AcDbSavedByObjectVersion
1070
     0
  0
ACAD_PROXY_OBJECT
  5
3D
102
{ACAD_REACTORS
330
2A
102
}
330
2A
100
AcDbProxyObject
 90
      499
 91
      501
 93
      452
310
43115919D950DBDB1BDC93D999916409028333333333333E33F0000000000000F9010790141107004050150841D405064090741402480A0350
1001
ACAD
1000
AcDbSavedByObjectVersion
1070
     0
  0
ACAD_PROXY_OBJECT
  5
39
102
{ACAD_REACTORS
330
2A
102
}
330
2A
100
AcDbProxyObject
 90
      499
 91
      501
 93
      444
310
42D19858D95C185D1D195C9B90F409028333333333333E33F0000000000000F9010790141107004050150841D405064090741402480A0350
1001
ACAD
1000
AcDbSavedByObjectVersion
1070
     0
  0
ACAD_PROXY_OBJECT
  5
2B
102
{ACAD_REACTORS
330
2A
102
}
330
2A
100
AcDbProxyObject
 90
      499
 91
      501
 93
      380
310
41119B185D240901404333333333333E33F0000000000000F9010740A907004050150841D405064090741402480A1B50
1001
ACAD
1000
AcDbSavedByObjectVersion
1070
     0
  0
ACAD_PROXY_OBJECT
  5
2C
102
{ACAD_REACTORS
330
2A
102
}
330
2A
100
AcDbProxyObject
 90
      499
 91
      501
 93
      468
310
43519B185D15DA5D1A115919D95CD0140901404333333333333E33F0000000000000F90107409019070040501600405405064090741402480A1B50
1001
ACAD
1000
AcDbSavedByObjectVersion
1070
     0
  0
ACAD_PROXY_OBJECT
  5
2D
102
{ACAD_REACTORS
330
2A
102
}
330
2A
100
AcDbProxyObject
 90
      499
 91
      501
 93
      404
310
41D1DBDD5C985D5910240902404333333333333E33F0000000000000F9010740A9070040501641D405064090741402480A1B50
1001
ACAD
1000
AcDbSavedByObjectVersion
1070
     0
  0
ACAD_PROXY_OBJECT
  5
2E
102
{ACAD_REACTORS
330
2A
102
}
330
2A
100
AcDbProxyObject
 90
      499
 91
      501
 93
      492
310
4411DBDD5C985D5915DA5D1A115919D95CD0340902404333333333333E33F0000000000000F90107409019070040501600405405064090741402480A1B50
1001
ACAD
1000
AcDbSavedByObjectVersion
1070
     0
  0
ACAD_PROXY_OBJECT
  5
31
102
{ACAD_REACTORS
330
2A
102
}
330
2A
100
AcDbProxyObject
 90
      499
 91
      501
 93
      476
310
41921A5919195B90640502408333333333333E33F0000000000000F901079024090700405020000000000001110200405405064090740C02480A0340
1001
ACAD
1000
AcDbSavedByObjectVersion
1070
     0
  0
ACAD_PROXY_OBJECT
  5
3B
102
{ACAD_REACTORS
330
2A
102
}
330
2A
100
AcDbProxyObject
 90
      499
 91
      501
 93
      428
310
42529A5D1D195C93D999914409028333333333333E33F0000000000000F9010790141107004050150A41D405064090741402480A0350
1001
ACAD
1000
AcDbSavedByObjectVersion
1070
     0
  0
ACAD_PROXY_OBJECT
  5
38
102
{ACAD_REACTORS
330
2A
102
}
330
2A
100
AcDbProxyObject
 90
      499
 91
      501
 93
      444
310
42D31A5B995C185D1D195C9B90E409028333333333333E33F0000000000000F9010790141107004050750841D405064090741402483A0350
1001
ACAD
1000
AcDbSavedByObjectVersion
1070
     0
  0
ACAD_PROXY_OBJECT
  5
3C
102
{ACAD_REACTORS
330
2A
102
}
330
2A
100
AcDbProxyObject
 90
      499
 91
      501
 93
      444
310
42D3DD995C9A185B99D3D999915409028333333333333E33F0000000000000F9010790141107004050150941D405064090741402480A0350
1001
ACAD
1000
AcDbSavedByObjectVersion
1070
     0
  0
ACAD_PROXY_OBJECT
  5
33
102
{ACAD_REACTORS
330
2A
102
}
330
2A
100
AcDbProxyObject
 90
      499
 91
      501
 93
      428
310
425499585B1A5CDD1A58D08409038333333333333E33F0000000000000F9010740A907004050150800405405064090740C02480A1B40
1001
ACAD
1000
AcDbSavedByObjectVersion
1070
     0
  0
ACAD_PROXY_OBJECT
  5
42
102
{ACAD_REACTORS
330
2A
102
}
330
2A
100
AcDbProxyObject
 90
      499
 91
      501
 93
      420
310
4194DA1859195911B40902404333333333333E33F0000000000000F9010740A41107004050150800405405064090840C02480A0B40
1001
ACAD
1000
AcDbSavedByObjectVersion
1070
     0
  0
ACAD_PROXY_OBJECT
  5
41
102
{ACAD_REACTORS
330
2A
102
}
330
2A
100
AcDbProxyObject
 90
      499
 91
      501
 93
      516
310
4454DA18591959081DDA5D1A08195919D95CD1A40902404333333333333E33F0000000000000F901074090142907004050250800405405064090740C02480A0B40
1001
ACAD
1000
AcDbSavedByObjectVersion
1070
     0
  0
ACAD_PROXY_OBJECT
  5
3E
102
{ACAD_REACTORS
330
2A
102
}
330
2A
100
AcDbProxyObject
 90
      499
 91
      501
 93
      532
310
4394DA1859195CC81BD98811DC985E5174090240C333333333333E33F0000000000000F901079024090741D01000000000000111010841D405064090740C02480A0340
1001
ACAD
1000
AcDbSavedByObjectVersion
1070
     0
  0
ACAD_PROXY_OBJECT
  5
3F
102
{ACAD_REACTORS
330
2A
102
}
330
2A
100
AcDbProxyObject
 90
      499
 91
      501
 93
      476
310
41D4DAD95D18DA1E51840502408333333333333E33F0000000000000F901079024090741D01000000000000111010B41D405064090741802480A0340
1001
ACAD
1000
AcDbSavedByObjectVersion
1070
     0
  0
ACAD_PROXY_OBJECT
  5
37
102
{ACAD_REACTORS
330
2A
102
}
330
2A
100
AcDbProxyObject
 90
      499
 91
      501
 93
      412
310
41D51A1A58DAD95B90D409028333333333333E33F0000000000000F9010790141107004050150C41D405064090741402480A0350
1001
ACAD
1000
AcDbSavedByObjectVersion
1070
     0
  0
ACAD_PROXY_OBJECT
  5
30
102
{ACAD_REACTORS
330
2A
102
}
330
2A
100
AcDbProxyObject
 90
      499
 91
      501
 93
      420
310
4255DA5C99599C985B595059028333333333333E33F0000000000000F90107901411070040501600405405064090740C02480A0340
1001
ACAD
1000
AcDbSavedByObjectVersion
1070
     0
  0
ACAD_PROXY_OBJECT
  5
40
102
{ACAD_REACTORS
330
2A
102
}
330
2A
100
AcDbProxyObject
 90
      499
 91
      501
 93
      404
310
41560B54985E51940902404000000000000E03F0000000000000F9010740501907004050150841D405064090740C02480A1B40
1001
ACAD
1000
AcDbSavedByObjectVersion
1070
     0
  0
XRECORD
  5
3EB
102
{ACAD_REACTORS
330
3E1
102
}
330
3E1
100
AcDbXrecord
340
0
  0
XRECORD
  5
3EA
102
{ACAD_REACTORS
330
3E1
102
}
330
3E1
100
AcDbXrecord
 90
        0
  0
XRECORD
  5
401
102
{ACAD_REACTORS
330
3E1
102
}
330
3E1
100
AcDbXrecord
1000
DSTYLE
1002
{
1070
   340
340
11
1002
}
  0
XRECORD
  5
3EC
102
{ACAD_REACTORS
330
3E1
102
}
330
3E1
100
AcDbXrecord
  1
{26702be4-a809-4966-af9f-f6e7deba27af}
  0
XRECORD
  5
3E4
102
{ACAD_REACTORS
330
3E1
102
}
330
3E1
100
AcDbXrecord
  1

  0
XRECORD
  5
3E9
102
{ACAD_REACTORS
330
3E1
102
}
330
3E1
100
AcDbXrecord
 90
        4
  0
XRECORD
  5
3E6
102
{ACAD_REACTORS
330
3E1
102
}
330
3E1
100
AcDbXrecord
340
1A
  0
XRECORD
  5
3E8
102
{ACAD_REACTORS
330
3E1
102
}
330
3E1
100
AcDbXrecord
 90
    10781
  0
XRECORD
  5
3E7
102
{ACAD_REACTORS
330
3E1
102
}
330
3E1
100
AcDbXrecord
340
19
  0
XRECORD
  5
3EE
102
{ACAD_REACTORS
330
3E1
102
}
330
3E1
100
AcDbXrecord
 40
0.0
  0
XRECORD
  5
3F1
102
{ACAD_REACTORS
330
3E1
102
}
330
3E1
100
AcDbXrecord
340
0
  0
XRECORD
  5
3F7
102
{ACAD_REACTORS
330
3E1
102
}
330
3E1
100
AcDbXrecord
 10
0.0
 20
0.0
 30
0.0
  0
XRECORD
  5
3F3
102
{ACAD_REACTORS
330
3E1
102
}
330
3E1
100
AcDbXrecord
 10
0.0
 20
0.0
 30
0.0
  0
XRECORD
  5
3F6
102
{ACAD_REACTORS
330
3E1
102
}
330
3E1
100
AcDbXrecord
 10
0.0
 20
0.0
 30
0.0
  0
XRECORD
  5
3F4
102
{ACAD_REACTORS
330
3E1
102
}
330
3E1
100
AcDbXrecord
 10
0.0
 20
0.0
 30
0.0
  0
XRECORD
  5
3F5
102
{ACAD_REACTORS
330
3E1
102
}
330
3E1
100
AcDbXrecord
 10
0.0
 20
0.0
 30
0.0
  0
XRECORD
  5
3F2
102
{ACAD_REACTORS
330
3E1
102
}
330
3E1
100
AcDbXrecord
 10
0.0
 20
0.0
 30
0.0
  0
XRECORD
  5
3EF
102
{ACAD_REACTORS
330
3E1
102
}
330
3E1
100
AcDbXrecord
340
0
  0
XRECORD
  5
3F0
102
{ACAD_REACTORS
330
3E1
102
}
330
3E1
100
AcDbXrecord
 70
     0
  0
XRECORD
  5
3E5
102
{ACAD_REACTORS
330
3E1
102
}
330
3E1
100
AcDbXrecord
  1

  0
XRECORD
  5
3E2
102
{ACAD_REACTORS
330
3E1
102
}
330
3E1
100
AcDbXrecord
 90
        1
  0
XRECORD
  5
3E3
102
{ACAD_REACTORS
330
3E1
102
}
330
3E1
100
AcDbXrecord
 90
       70
  0
XRECORD
  5
3FA
102
{ACAD_REACTORS
330
3E1
102
}
330
3E1
100
AcDbXrecord
340
0
  0
XRECORD
  5
400
102
{ACAD_REACTORS
330
3E1
102
}
330
3E1
100
AcDbXrecord
 10
0.0
 20
0.0
 30
0.0
  0
XRECORD
  5
3FC
102
{ACAD_REACTORS
330
3E1
102
}
330
3E1
100
AcDbXrecord
 10
0.0
 20
0.0
 30
0.0
  0
XRECORD
  5
3FF
102
{ACAD_REACTORS
330
3E1
102
}
330
3E1
100
AcDbXrecord
 10
0.0
 20
0.0
 30
0.0
  0
XRECORD
  5
3FD
102
{ACAD_REACTORS
330
3E1
102
}
330
3E1
100
AcDbXrecord
 10
0.0
 20
0.0
 30
0.0
  0
XRECORD
  5
3FE
102
{ACAD_REACTORS
330
3E1
102
}
330
3E1
100
AcDbXrecord
 10
0.0
 20
0.0
 30
0.0
  0
XRECORD
  5
3FB
102
{ACAD_REACTORS
330
3E1
102
}
330
3E1
100
AcDbXrecord
 10
0.0
 20
0.0
 30
0.0
  0
XRECORD
  5
3F8
102
{ACAD_REACTORS
330
3E1
102
}
330
3E1
100
AcDbXrecord
340
0
  0
XRECORD
  5
3F9
102
{ACAD_REACTORS
330
3E1
102
}
330
3E1
100
AcDbXrecord
 70
     0
  0
XRECORD
  5
3ED
102
{ACAD_REACTORS
330
3E1
102
}
330
3E1
100
AcDbXrecord
  1
{FAEB1C32-E019-11D5-929B-00C0DF256EC4}
  0
DICTIONARYVAR
  5
40F
102
{ACAD_REACTORS
330
402
102
}
330
402
100
DictionaryVariables
280
     0
  1
1:1
  0
DICTIONARYVAR
  5
409
102
{ACAD_REACTORS
330
402
102
}
330
402
100
DictionaryVariables
280
     0
  1
3.500000
  0
DICTIONARYVAR
  5
40A
102
{ACAD_REACTORS
330
402
102
}
330
402
100
DictionaryVariables
280
     0
  1
acadiso.lin
  0
DICTIONARYVAR
  5
404
102
{ACAD_REACTORS
330
402
102
}
330
402
100
DictionaryVariables
280
     0
  1
Standard
  0
DICTIONARYVAR
  5
403
102
{ACAD_REACTORS
330
402
102
}
330
402
100
DictionaryVariables
280
     0
  1
Standard
  0
DICTIONARYVAR
  5
40B
102
{ACAD_REACTORS
330
402
102
}
330
402
100
DictionaryVariables
280
     0
  1
2
  0
DICTIONARYVAR
  5
40C
102
{ACAD_REACTORS
330
402
102
}
330
402
100
DictionaryVariables
280
     0
  1
1
  0
DICTIONARYVAR
  5
410
102
{ACAD_REACTORS
330
402
102
}
330
402
100
DictionaryVariables
280
     0
  1
1
  0
DICTIONARYVAR
  5
406
102
{ACAD_REACTORS
330
402
102
}
330
402
100
DictionaryVariables
280
     0
  1
80.000000
  0
DICTIONARYVAR
  5
405
102
{ACAD_REACTORS
330
402
102
}
330
402
100
DictionaryVariables
280
     0
  1
5.000000
  0
DICTIONARY
  5
413
330
45
100
AcDbDictionary
280
     1
  3
ACAD_XREC_ROUNDTRIP
360
414
  0
DICTIONARY
  5
411
330
44
100
AcDbDictionary
280
     1
  3
ACAD_XREC_ROUNDTRIP
360
412
  0
DICTIONARY
  5
415
330
46
100
AcDbDictionary
280
     1
  3
ACAD_XREC_ROUNDTRIP
360
416
  0
XRECORD
  5
414
102
{ACAD_REACTORS
330
413
102
}
330
413
100
AcDbXrecord
102
MATERIAL
148
0.0
149
0.0
149
0.0
 93
        0
 94
      127
282
     0
 72
     1
 77
     1
171
     1
175
     1
179
     1
273
     0
  0
XRECORD
  5
412
102
{ACAD_REACTORS
330
411
102
}
330
411
100
AcDbXrecord
102
MATERIAL
148
0.0
149
0.0
149
0.0
 93
        0
 94
      127
282
     0
 72
     1
 77
     1
171
     1
175
     1
179
     1
273
     0
  0
XRECORD
  5
416
102
{ACAD_REACTORS
330
415
102
}
330
415
100
AcDbXrecord
102
MATERIAL
148
0.0
149
0.0
149
0.0
 93
        0
 94
      127
282
     0
 72
     1
 77
     1
171
     1
175
     1
179
     1
273
     0
  0
ENDSEC
  0
EOF
