  0
SECTION
  2
HEADER
  9
$ACADVER
  1
AC1014
  9
$ACADMAINTVER
 70
     9
  9
$DWGCODEPAGE
  3
ANSI_932
  9
$INSBASE
 10
0.0
 20
0.0
 30
0.0
  9
$EXTMIN
 10
25.0
 20
50.0
 30
0.0
  9
$EXTMAX
 10
1925.0
 20
1400.0
 30
0.0
  9
$LIMMIN
 10
0.0
 20
0.0
  9
$LIMMAX
 10
420.0
 20
297.0
  9
$ORTHOMODE
 70
     0
  9
$REGENMODE
 70
     1
  9
$FILLMODE
 70
     1
  9
$QTEXTMODE
 70
     0
  9
$MIRRTEXT
 70
     1
  9
$DRAGMODE
 70
     2
  9
$LTSCALE
 40
0.2
  9
$OSMODE
 70
    37
  9
$ATTMODE
 70
     1
  9
$TEXTSIZE
 40
2.5
  9
$TRACEWID
 40
1.0
  9
$TEXTSTYLE
  7
STANDARD
  9
$CLAYER
  8
LAY-10
  9
$CELTYPE
  6
BYLAYER
  9
$CECOLOR
 62
   256
  9
$CELTSCALE
 40
1.0
  9
$DELOBJ
 70
     1
  9
$DISPSILH
 70
     0
  9
$DIMSCALE
 40
1.0
  9
$DIMASZ
 40
2.5
  9
$DIMEXO
 40
0.625
  9
$DIMDLI
 40
3.75
  9
$DIMRND
 40
0.0
  9
$DIMDLE
 40
0.0
  9
$DIMEXE
 40
1.25
  9
$DIMTP
 40
0.0
  9
$DIMTM
 40
0.0
  9
$DIMTXT
 40
2.5
  9
$DIMCEN
 40
2.5
  9
$DIMTSZ
 40
0.0
  9
$DIMTOL
 70
     0
  9
$DIMLIM
 70
     0
  9
$DIMTIH
 70
     0
  9
$DIMTOH
 70
     0
  9
$DIMSE1
 70
     0
  9
$DIMSE2
 70
     0
  9
$DIMTAD
 70
     1
  9
$DIMZIN
 70
     8
  9
$DIMBLK
  1

  9
$DIMASO
 70
     1
  9
$DIMSHO
 70
     1
  9
$DIMPOST
  1

  9
$DIMAPOST
  1

  9
$DIMALT
 70
     0
  9
$DIMALTD
 70
     3
  9
$DIMALTF
 40
0.03937007874016
  9
$DIMLFAC
 40
1.0
  9
$DIMTOFL
 70
     1
  9
$DIMTVP
 40
0.0
  9
$DIMTIX
 70
     0
  9
$DIMSOXD
 70
     0
  9
$DIMSAH
 70
     0
  9
$DIMBLK1
  1

  9
$DIMBLK2
  1

  9
$DIMSTYLE
  2
ISO-25
  9
$DIMCLRD
 70
     0
  9
$DIMCLRE
 70
     0
  9
$DIMCLRT
 70
     0
  9
$DIMTFAC
 40
1.0
  9
$DIMGAP
 40
0.625
  9
$DIMJUST
 70
     0
  9
$DIMSD1
 70
     0
  9
$DIMSD2
 70
     0
  9
$DIMTOLJ
 70
     0
  9
$DIMTZIN
 70
     8
  9
$DIMALTZ
 70
     0
  9
$DIMALTTZ
 70
     0
  9
$DIMFIT
 70
     3
  9
$DIMUPT
 70
     0
  9
$DIMUNIT
 70
     2
  9
$DIMDEC
 70
     2
  9
$DIMTDEC
 70
     2
  9
$DIMALTU
 70
     2
  9
$DIMALTTD
 70
     3
  9
$DIMTXSTY
  7
STANDARD
  9
$DIMAUNIT
 70
     0
  9
$LUNITS
 70
     2
  9
$LUPREC
 70
     4
  9
$SKETCHINC
 40
1.0
  9
$FILLETRAD
 40
10.0
  9
$AUNITS
 70
     0
  9
$AUPREC
 70
     0
  9
$MENU
  1
.
  9
$ELEVATION
 40
0.0
  9
$PELEVATION
 40
0.0
  9
$THICKNESS
 40
0.0
  9
$LIMCHECK
 70
     0
  9
$CHAMFERA
 40
0.0
  9
$CHAMFERB
 40
0.0
  9
$CHAMFERC
 40
0.0
  9
$CHAMFERD
 40
0.0
  9
$SKPOLY
 70
     0
  9
$TDCREATE
 40
2459229.336219491
  9
$TDUPDATE
 40
2459229.336220301
  9
$TDINDWG
 40
0.0000000116
  9
$TDUSRTIMER
 40
0.0000000116
  9
$USRTIMER
 70
     1
  9
$ANGBASE
 50
0.0
  9
$ANGDIR
 70
     0
  9
$PDMODE
 70
     0
  9
$PDSIZE
 40
0.0
  9
$PLINEWID
 40
0.0
  9
$COORDS
 70
     1
  9
$SPLFRAME
 70
     0
  9
$SPLINETYPE
 70
     6
  9
$SPLINESEGS
 70
     8
  9
$ATTDIA
 70
     0
  9
$ATTREQ
 70
     1
  9
$HANDLING
 70
     1
  9
$HANDSEED
  5
6D3
  9
$SURFTAB1
 70
     6
  9
$SURFTAB2
 70
     6
  9
$SURFTYPE
 70
     6
  9
$SURFU
 70
     6
  9
$SURFV
 70
     6
  9
$UCSNAME
  2

  9
$UCSORG
 10
0.0
 20
0.0
 30
0.0
  9
$UCSXDIR
 10
1.0
 20
0.0
 30
0.0
  9
$UCSYDIR
 10
0.0
 20
1.0
 30
0.0
  9
$PUCSNAME
  2

  9
$PUCSORG
 10
0.0
 20
0.0
 30
0.0
  9
$PUCSXDIR
 10
1.0
 20
0.0
 30
0.0
  9
$PUCSYDIR
 10
0.0
 20
1.0
 30
0.0
  9
$USERI1
 70
     0
  9
$USERI2
 70
     0
  9
$USERI3
 70
     0
  9
$USERI4
 70
     0
  9
$USERI5
 70
     0
  9
$USERR1
 40
0.0
  9
$USERR2
 40
0.0
  9
$USERR3
 40
0.0
  9
$USERR4
 40
0.0
  9
$USERR5
 40
0.0
  9
$WORLDVIEW
 70
     1
  9
$SHADEDGE
 70
     3
  9
$SHADEDIF
 70
    70
  9
$TILEMODE
 70
     1
  9
$MAXACTVP
 70
    64
  9
$PINSBASE
 10
0.0
 20
0.0
 30
0.0
  9
$PLIMCHECK
 70
     0
  9
$PEXTMIN
 10
1.000000000000000E+20
 20
1.000000000000000E+20
 30
1.000000000000000E+20
  9
$PEXTMAX
 10
-1.000000000000000E+20
 20
-1.000000000000000E+20
 30
-1.000000000000000E+20
  9
$PLIMMIN
 10
0.0
 20
0.0
  9
$PLIMMAX
 10
420.0
 20
297.0
  9
$UNITMODE
 70
     0
  9
$VISRETAIN
 70
     1
  9
$PLINEGEN
 70
     0
  9
$PSLTSCALE
 70
     1
  9
$TREEDEPTH
 70
  3020
  9
$PICKSTYLE
 70
     1
  9
$CMLSTYLE
  2
STANDARD
  9
$CMLJUST
 70
     0
  9
$CMLSCALE
 40
20.0
  9
$PROXYGRAPHICS
 70
     1
  9
$MEASUREMENT
 70
     1
  0
ENDSEC
  0
SECTION
  2
CLASSES
  0
CLASS
  1
ACDBDICTIONARYWDFLT
  2
AcDbDictionaryWithDefault
  3
ObjectDBX Classes
 90
        0
280
     0
281
     0
  0
CLASS
  1
VISUALSTYLE
  2
AcDbVisualStyle
  3
ObjectDBX Classes
 90
     4095
280
     0
281
     0
  0
CLASS
  1
MATERIAL
  2
AcDbMaterial
  3
ObjectDBX Classes
 90
     1153
280
     0
281
     0
  0
CLASS
  1
SCALE
  2
AcDbScale
  3
ObjectDBX Classes
 90
     1153
280
     0
281
     0
  0
CLASS
  1
TABLESTYLE
  2
AcDbTableStyle
  3
ObjectDBX Classes
 90
     4095
280
     0
281
     0
  0
CLASS
  1
MLEADERSTYLE
  2
AcDbMLeaderStyle
  3
ACDB_MLEADERSTYLE_CLASS
 90
     4095
280
     0
281
     0
  0
CLASS
  1
SUN
  2
AcDbSun
  3
SCENEOE
 90
     1153
280
     0
281
     0
  0
CLASS
  1
DICTIONARYVAR
  2
AcDbDictionaryVar
  3
ObjectDBX Classes
 90
        0
280
     0
281
     0
  0
CLASS
  1
XRECORD
  2
AcDbXrecord
  3
ObjectDBX Classes
 90
        0
280
     0
281
     0
  0
CLASS
  1
LWPOLYLINE
  2
AcDbPolyline
  3
ObjectDBX Classes
 90
        0
280
     0
281
     1
  0
CLASS
  1
HATCH
  2
AcDbHatch
  3
ObjectDBX Classes
 90
        0
280
     0
281
     1
  0
CLASS
  1
ACDBPLACEHOLDER
  2
AcDbPlaceHolder
  3
ObjectDBX Classes
 90
        0
280
     0
281
     0
  0
CLASS
  1
LAYOUT
  2
AcDbLayout
  3
ObjectDBX Classes
 90
        0
280
     0
281
     0
  0
ENDSEC
  0
SECTION
  2
TABLES
  0
TABLE
  2
VPORT
  5
8
102
{ACAD_XDICTIONARY
360
6C8
102
}
330
0
100
AcDbSymbolTable
 70
     1
  0
VPORT
  5
29
330
8
100
AcDbSymbolTableRecord
100
AcDbViewportTableRecord
  2
*ACTIVE
 70
     0
 10
0.0
 20
0.0
 11
1.0
 21
1.0
 12
975.0000000000001
 22
725.0
 13
0.0
 23
0.0
 14
10.0
 24
10.0
 15
10.0
 25
10.0
 16
0.0
 26
0.0
 36
1.0
 17
0.0
 27
0.0
 37
0.0
 40
1350.0
 41
1.407407407407408
 42
50.0
 43
0.0
 44
0.0
 50
0.0
 51
0.0
 71
     0
 72
  1000
 73
     1
 74
     3
 75
     0
 76
     0
 77
     0
 78
     0
  0
ENDTAB
  0
TABLE
  2
LTYPE
  5
5
330
0
100
AcDbSymbolTable
 70
     6
  0
LTYPE
  5
14
330
5
100
AcDbSymbolTableRecord
100
AcDbLinetypeTableRecord
  2
BYBLOCK
 70
     0
  3

 72
    65
 73
     0
 40
0.0
  0
LTYPE
  5
15
330
5
100
AcDbSymbolTableRecord
100
AcDbLinetypeTableRecord
  2
BYLAYER
 70
     0
  3

 72
    65
 73
     0
 40
0.0
  0
LTYPE
  5
16
330
5
100
AcDbSymbolTableRecord
100
AcDbLinetypeTableRecord
  2
CONTINUOUS
 70
     0
  3
Solid line
 72
    65
 73
     0
 40
0.0
  0
LTYPE
  5
6E
330
5
100
AcDbSymbolTableRecord
100
AcDbLinetypeTableRecord
  2
HIDDEN
 70
     0
  3
Hidden __ __ __ __ __ __ __ __ __ __ __ __ __ __
 72
    65
 73
     2
 40
9.524999999999999
 49
6.35
 74
     0
 49
-3.175
 74
     0
  0
LTYPE
  5
6F
330
5
100
AcDbSymbolTableRecord
100
AcDbLinetypeTableRecord
  2
CENTER
 70
     0
  3
Center ____ _ ____ _ ____ _ ____ _ ____ _ ____
 72
    65
 73
     4
 40
50.8
 49
31.75
 74
     0
 49
-6.35
 74
     0
 49
6.35
 74
     0
 49
-6.35
 74
     0
  0
LTYPE
  5
70
330
5
100
AcDbSymbolTableRecord
100
AcDbLinetypeTableRecord
  2
PHANTOM
 70
     0
  3
Phantom ______  __  __  ______  __  __  ______ 
 72
    65
 73
     6
 40
63.50000000000001
 49
31.75
 74
     0
 49
-6.35
 74
     0
 49
6.35
 74
     0
 49
-6.35
 74
     0
 49
6.35
 74
     0
 49
-6.35
 74
     0
  0
LTYPE
  5
71
330
5
100
AcDbSymbolTableRecord
100
AcDbLinetypeTableRecord
  2
ACAD_ISO06W100
 70
     0
  3
ISO long-dash triple-dot ____ ... ____ ... ____
 72
    65
 73
     8
 40
36.0
 49
24.0
 74
     0
 49
-3.0
 74
     0
 49
0.0
 74
     0
 49
-3.0
 74
     0
 49
0.0
 74
     0
 49
-3.0
 74
     0
 49
0.0
 74
     0
 49
-3.0
 74
     0
  0
LTYPE
  5
72
330
5
100
AcDbSymbolTableRecord
100
AcDbLinetypeTableRecord
  2
ACAD_ISO15W100
 70
     0
  3
ISO double-dash triple-dot __ __ . . . __ __ . .
 72
    65
 73
    10
 40
39.0
 49
12.0
 74
     0
 49
-3.0
 74
     0
 49
12.0
 74
     0
 49
-3.0
 74
     0
 49
0.0
 74
     0
 49
-3.0
 74
     0
 49
0.0
 74
     0
 49
-3.0
 74
     0
 49
0.0
 74
     0
 49
-3.0
 74
     0
  0
ENDTAB
  0
TABLE
  2
LAYER
  5
2
330
0
100
AcDbSymbolTable
 70
     5
  0
LAYER
  5
10
330
2
100
AcDbSymbolTableRecord
100
AcDbLayerTableRecord
  2
0
 70
     0
 62
     7
  6
CONTINUOUS
  0
LAYER
  5
75
330
2
100
AcDbSymbolTableRecord
100
AcDbLayerTableRecord
  2
LAY-10
 70
     0
 62
     7
  6
CONTINUOUS
  0
LAYER
  5
76
330
2
100
AcDbSymbolTableRecord
100
AcDbLayerTableRecord
  2
LAY-20
 70
     0
 62
     7
  6
CONTINUOUS
  0
LAYER
  5
77
330
2
100
AcDbSymbolTableRecord
100
AcDbLayerTableRecord
  2
LAY-255
 70
     0
 62
     7
  6
CONTINUOUS
  0
LAYER
  5
625
330
2
100
AcDbSymbolTableRecord
100
AcDbLayerTableRecord
  2
DEFPOINTS
 70
     0
 62
     7
  6
CONTINUOUS
  0
ENDTAB
  0
TABLE
  2
STYLE
  5
3
330
0
100
AcDbSymbolTable
 70
     4
  0
STYLE
  5
11
330
3
100
AcDbSymbolTableRecord
100
AcDbTextStyleTableRecord
  2
STANDARD
 70
     0
 40
0.0
 41
1.0
 50
0.0
 71
     0
 42
2.5
  3
simplex
  4
bigfont
  0
STYLE
  5
73
330
3
100
AcDbSymbolTableRecord
100
AcDbTextStyleTableRecord
  2
EXCADSTD
 70
     0
 40
0.0
 41
1.0
 50
0.0
 71
     0
 42
2.5
  3
simplex
  4
bigfont
  0
STYLE
  5
74
330
3
100
AcDbSymbolTableRecord
100
AcDbTextStyleTableRecord
  2
EXCADVERT
 70
     4
 40
0.0
 41
1.0
 50
0.0
 71
     0
 42
2.5
  3
simplex
  4
bigfont
  0
STYLE
  5
623
330
3
100
AcDbSymbolTableRecord
100
AcDbTextStyleTableRecord
  2
EXCADDIM1
 70
     0
 40
0.0
 41
0.84
 50
0.0
 71
     0
 42
2.5
  3
simplex
  4
bigfont
  0
ENDTAB
  0
TABLE
  2
VIEW
  5
6
330
0
100
AcDbSymbolTable
 70
     0
  0
ENDTAB
  0
TABLE
  2
UCS
  5
7
330
0
100
AcDbSymbolTable
 70
     0
  0
ENDTAB
  0
TABLE
  2
APPID
  5
9
330
0
100
AcDbSymbolTable
 70
     2
  0
APPID
  5
12
330
9
100
AcDbSymbolTableRecord
100
AcDbRegAppTableRecord
  2
ACAD
 70
     0
  0
APPID
  5
6D2
330
9
100
AcDbSymbolTableRecord
100
AcDbRegAppTableRecord
  2
ACAD_MLEADERVER
 70
     0
  0
ENDTAB
  0
TABLE
  2
DIMSTYLE
  5
A
330
0
100
AcDbSymbolTable
 70
     1
  0
DIMSTYLE
105
27
102
{ACAD_REACTORS
330
624
330
632
330
63F
330
64C
330
659
330
666
102
}
330
A
100
AcDbSymbolTableRecord
100
AcDbDimStyleTableRecord
  2
ISO-25
 70
     0
  3

  4

  5

  6

  7

 40
1.0
 41
2.5
 42
0.625
 43
3.75
 44
1.25
 45
0.0
 46
0.0
 47
0.0
 48
0.0
140
2.5
141
2.5
142
0.0
143
0.03937007874016
144
1.0
145
0.0
146
1.0
147
0.625
 71
     0
 72
     0
 73
     0
 74
     0
 75
     0
 76
     0
 77
     1
 78
     8
170
     0
171
     3
172
     1
173
     0
174
     0
175
     0
176
     0
177
     0
178
     0
270
     2
271
     2
272
     2
273
     2
274
     3
340
11
275
     0
280
     0
281
     0
282
     0
283
     0
284
     8
285
     0
286
     0
287
     5
288
     0
  0
ENDTAB
  0
TABLE
  2
BLOCK_RECORD
  5
1
330
0
100
AcDbSymbolTable
 70
    20
  0
BLOCK_RECORD
  5
1F
330
1
100
AcDbSymbolTableRecord
100
AcDbBlockTableRecord
  2
*MODEL_SPACE
  0
BLOCK_RECORD
  5
1B
330
1
100
AcDbSymbolTableRecord
100
AcDbBlockTableRecord
  2
*PAPER_SPACE
  0
BLOCK_RECORD
  5
78
330
1
100
AcDbSymbolTableRecord
100
AcDbBlockTableRecord
  2
EX_NORM
  0
BLOCK_RECORD
  5
7B
330
1
100
AcDbSymbolTableRecord
100
AcDbBlockTableRecord
  2
EX_BNORM
  0
BLOCK_RECORD
  5
7E
330
1
100
AcDbSymbolTableRecord
100
AcDbBlockTableRecord
  2
EX_BCIR
  0
BLOCK_RECORD
  5
81
330
1
100
AcDbSymbolTableRecord
100
AcDbBlockTableRecord
  2
EX_RCIVIL
  0
BLOCK_RECORD
  5
84
330
1
100
AcDbSymbolTableRecord
100
AcDbBlockTableRecord
  2
EX_SLANT
  0
BLOCK_RECORD
  5
87
330
1
100
AcDbSymbolTableRecord
100
AcDbBlockTableRecord
  2
EX_NONE
  0
BLOCK_RECORD
  5
8A
330
1
100
AcDbSymbolTableRecord
100
AcDbBlockTableRecord
  2
EX_CIVIL
  0
BLOCK_RECORD
  5
8D
330
1
100
AcDbSymbolTableRecord
100
AcDbBlockTableRecord
  2
EX_WCIR
  0
BLOCK_RECORD
  5
90
330
1
100
AcDbSymbolTableRecord
100
AcDbBlockTableRecord
  2
EX_WCIR2
  0
BLOCK_RECORD
  5
93
330
1
100
AcDbSymbolTableRecord
100
AcDbBlockTableRecord
  2
EX_WNORM
  0
BLOCK_RECORD
  5
96
330
1
100
AcDbSymbolTableRecord
100
AcDbBlockTableRecord
  2
EX_NNORM
  0
BLOCK_RECORD
  5
99
330
1
100
AcDbSymbolTableRecord
100
AcDbBlockTableRecord
  2
EX_BBOX
  0
BLOCK_RECORD
  5
9C
330
1
100
AcDbSymbolTableRecord
100
AcDbBlockTableRecord
  2
EX_WBOX
  0
BLOCK_RECORD
  5
9F
330
1
100
AcDbSymbolTableRecord
100
AcDbBlockTableRecord
  2
EX_INTEGRAL
  0
BLOCK_RECORD
  5
626
330
1
100
AcDbSymbolTableRecord
100
AcDbBlockTableRecord
  2
*D15
  0
BLOCK_RECORD
  5
633
330
1
100
AcDbSymbolTableRecord
100
AcDbBlockTableRecord
  2
*D16
  0
BLOCK_RECORD
  5
640
330
1
100
AcDbSymbolTableRecord
100
AcDbBlockTableRecord
  2
*D17
  0
BLOCK_RECORD
  5
64D
330
1
100
AcDbSymbolTableRecord
100
AcDbBlockTableRecord
  2
*D18
  0
BLOCK_RECORD
  5
65A
330
1
100
AcDbSymbolTableRecord
100
AcDbBlockTableRecord
  2
*D19
  0
BLOCK_RECORD
  5
667
330
1
100
AcDbSymbolTableRecord
100
AcDbBlockTableRecord
  2
*D20
  0
ENDTAB
  0
ENDSEC
  0
SECTION
  2
BLOCKS
  0
BLOCK
  5
20
330
1F
100
AcDbEntity
  8
0
100
AcDbBlockBegin
  2
*MODEL_SPACE
 70
     0
 10
0.0
 20
0.0
 30
0.0
  3
*MODEL_SPACE
  1

  0
ENDBLK
  5
21
330
1F
100
AcDbEntity
  8
0
100
AcDbBlockEnd
  0
BLOCK
  5
1C
330
1B
100
AcDbEntity
 67
     1
  8
0
100
AcDbBlockBegin
  2
*PAPER_SPACE
 70
     0
 10
0.0
 20
0.0
 30
0.0
  3
*PAPER_SPACE
  1

  0
ENDBLK
  5
1D
330
1B
100
AcDbEntity
 67
     1
  8
0
100
AcDbBlockEnd
  0
BLOCK
  5
79
330
78
100
AcDbEntity
  8
0
100
AcDbBlockBegin
  2
EX_NORM
 70
     0
 10
0.0
 20
0.0
 30
0.0
  3
EX_NORM
  1

  0
LINE
  5
A2
330
78
100
AcDbEntity
  8
0
  6
CONTINUOUS
 62
     0
100
AcDbLine
 10
0.0
 20
0.0
 30
0.0
 11
-1.0
 21
0.0
 31
0.0
  0
LINE
  5
A3
330
78
100
AcDbEntity
  8
0
  6
CONTINUOUS
 62
     0
100
AcDbLine
 10
0.0
 20
0.0
 30
0.0
 11
-1.0
 21
0.166666667
 31
0.0
  0
LINE
  5
A4
330
78
100
AcDbEntity
  8
0
  6
CONTINUOUS
 62
     0
100
AcDbLine
 10
0.0
 20
0.0
 30
0.0
 11
-1.0
 21
-0.166666667
 31
0.0
  0
ENDBLK
  5
7A
330
78
100
AcDbEntity
  8
0
100
AcDbBlockEnd
  0
BLOCK
  5
7C
330
7B
100
AcDbEntity
  8
0
100
AcDbBlockBegin
  2
EX_BNORM
 70
     0
 10
0.0
 20
0.0
 30
0.0
  3
EX_BNORM
  1

  0
LINE
  5
A5
330
7B
100
AcDbEntity
  8
0
  6
CONTINUOUS
 62
     0
100
AcDbLine
 10
0.0
 20
0.0
 30
0.0
 11
-1.0
 21
0.0
 31
0.0
  0
LINE
  5
A6
330
7B
100
AcDbEntity
  8
0
  6
CONTINUOUS
 62
     0
100
AcDbLine
 10
0.0
 20
0.0
 30
0.0
 11
-1.0
 21
0.166666667
 31
0.0
  0
LINE
  5
A7
330
7B
100
AcDbEntity
  8
0
  6
CONTINUOUS
 62
     0
100
AcDbLine
 10
0.0
 20
0.0
 30
0.0
 11
-1.0
 21
-0.166666667
 31
0.0
  0
LINE
  5
A8
330
7B
100
AcDbEntity
  8
0
  6
CONTINUOUS
 62
     0
100
AcDbLine
 10
0.0
 20
0.0
 30
0.0
 11
-1.0
 21
0.083333333
 31
0.0
  0
LINE
  5
A9
330
7B
100
AcDbEntity
  8
0
  6
CONTINUOUS
 62
     0
100
AcDbLine
 10
0.0
 20
0.0
 30
0.0
 11
-1.0
 21
-0.083333333
 31
0.0
  0
LINE
  5
AA
330
7B
100
AcDbEntity
  8
0
  6
CONTINUOUS
 62
     0
100
AcDbLine
 10
-1.0
 20
0.166666667
 30
0.0
 11
-1.0
 21
-0.166666667
 31
0.0
  0
ENDBLK
  5
7D
330
7B
100
AcDbEntity
  8
0
100
AcDbBlockEnd
  0
BLOCK
  5
7F
330
7E
100
AcDbEntity
  8
0
100
AcDbBlockBegin
  2
EX_BCIR
 70
     0
 10
0.0
 20
0.0
 30
0.0
  3
EX_BCIR
  1

  0
LINE
  5
AB
330
7E
100
AcDbEntity
  8
0
  6
CONTINUOUS
 62
     0
100
AcDbLine
 10
0.0
 20
0.0
 30
0.0
 11
-1.0
 21
0.0
 31
0.0
  0
CIRCLE
  5
AC
330
7E
100
AcDbEntity
  8
0
  6
CONTINUOUS
 62
     0
100
AcDbCircle
 10
0.0
 20
0.0
 30
0.0
 40
0.5
  0
CIRCLE
  5
AD
330
7E
100
AcDbEntity
  8
0
  6
CONTINUOUS
 62
     0
100
AcDbCircle
 10
0.0
 20
0.0
 30
0.0
 40
0.25
  0
ENDBLK
  5
80
330
7E
100
AcDbEntity
  8
0
100
AcDbBlockEnd
  0
BLOCK
  5
82
330
81
100
AcDbEntity
  8
0
100
AcDbBlockBegin
  2
EX_RCIVIL
 70
     0
 10
0.0
 20
0.0
 30
0.0
  3
EX_RCIVIL
  1

  0
LINE
  5
AE
330
81
100
AcDbEntity
  8
0
  6
CONTINUOUS
 62
     0
100
AcDbLine
 10
0.0
 20
0.0
 30
0.0
 11
-1.0
 21
0.0
 31
0.0
  0
LINE
  5
AF
330
81
100
AcDbEntity
  8
0
  6
CONTINUOUS
 62
     0
100
AcDbLine
 10
-1.0
 20
-0.25
 30
0.0
 11
0.0
 21
-0.25
 31
0.0
  0
LINE
  5
B0
330
81
100
AcDbEntity
  8
0
  6
CONTINUOUS
 62
     0
100
AcDbLine
 10
-1.0
 20
-0.125
 30
0.0
 11
0.0
 21
-0.125
 31
0.0
  0
ENDBLK
  5
83
330
81
100
AcDbEntity
  8
0
100
AcDbBlockEnd
  0
BLOCK
  5
85
330
84
100
AcDbEntity
  8
0
100
AcDbBlockBegin
  2
EX_SLANT
 70
     0
 10
0.0
 20
0.0
 30
0.0
  3
EX_SLANT
  1

  0
LINE
  5
B1
330
84
100
AcDbEntity
  8
0
  6
CONTINUOUS
 62
     0
100
AcDbLine
 10
0.0
 20
0.0
 30
0.0
 11
-1.0
 21
0.0
 31
0.0
  0
LINE
  5
B2
330
84
100
AcDbEntity
  8
0
  6
CONTINUOUS
 62
     0
100
AcDbLine
 10
0.707106781
 20
0.707106781
 30
0.0
 11
-0.707106781
 21
-0.707106781
 31
0.0
  0
ENDBLK
  5
86
330
84
100
AcDbEntity
  8
0
100
AcDbBlockEnd
  0
BLOCK
  5
88
330
87
100
AcDbEntity
  8
0
100
AcDbBlockBegin
  2
EX_NONE
 70
     0
 10
0.0
 20
0.0
 30
0.0
  3
EX_NONE
  1

  0
LINE
  5
B3
330
87
100
AcDbEntity
  8
0
  6
CONTINUOUS
 62
     0
100
AcDbLine
 10
0.0
 20
0.0
 30
0.0
 11
-1.0
 21
0.0
 31
0.0
  0
ENDBLK
  5
89
330
87
100
AcDbEntity
  8
0
100
AcDbBlockEnd
  0
BLOCK
  5
8B
330
8A
100
AcDbEntity
  8
0
100
AcDbBlockBegin
  2
EX_CIVIL
 70
     0
 10
0.0
 20
0.0
 30
0.0
  3
EX_CIVIL
  1

  0
LINE
  5
B4
330
8A
100
AcDbEntity
  8
0
  6
CONTINUOUS
 62
     0
100
AcDbLine
 10
0.0
 20
0.0
 30
0.0
 11
-1.0
 21
0.0
 31
0.0
  0
LINE
  5
B5
330
8A
100
AcDbEntity
  8
0
  6
CONTINUOUS
 62
     0
100
AcDbLine
 10
-1.0
 20
0.25
 30
0.0
 11
0.0
 21
0.25
 31
0.0
  0
LINE
  5
B6
330
8A
100
AcDbEntity
  8
0
  6
CONTINUOUS
 62
     0
100
AcDbLine
 10
-1.0
 20
0.125
 30
0.0
 11
0.0
 21
0.125
 31
0.0
  0
ENDBLK
  5
8C
330
8A
100
AcDbEntity
  8
0
100
AcDbBlockEnd
  0
BLOCK
  5
8E
330
8D
100
AcDbEntity
  8
0
100
AcDbBlockBegin
  2
EX_WCIR
 70
     0
 10
0.0
 20
0.0
 30
0.0
  3
EX_WCIR
  1

  0
LINE
  5
B7
330
8D
100
AcDbEntity
  8
0
  6
CONTINUOUS
 62
     0
100
AcDbLine
 10
0.0
 20
0.0
 30
0.0
 11
-1.0
 21
0.0
 31
0.0
  0
CIRCLE
  5
B8
330
8D
100
AcDbEntity
  8
0
  6
CONTINUOUS
 62
     0
100
AcDbCircle
 10
0.0
 20
0.0
 30
0.0
 40
0.5
  0
ENDBLK
  5
8F
330
8D
100
AcDbEntity
  8
0
100
AcDbBlockEnd
  0
BLOCK
  5
91
330
90
100
AcDbEntity
  8
0
100
AcDbBlockBegin
  2
EX_WCIR2
 70
     0
 10
0.0
 20
0.0
 30
0.0
  3
EX_WCIR2
  1

  0
LINE
  5
B9
330
90
100
AcDbEntity
  8
0
  6
CONTINUOUS
 62
     0
100
AcDbLine
 10
-0.5
 20
0.0
 30
0.0
 11
-1.0
 21
0.0
 31
0.0
  0
CIRCLE
  5
BA
330
90
100
AcDbEntity
  8
0
  6
CONTINUOUS
 62
     0
100
AcDbCircle
 10
0.0
 20
0.0
 30
0.0
 40
0.5
  0
ENDBLK
  5
92
330
90
100
AcDbEntity
  8
0
100
AcDbBlockEnd
  0
BLOCK
  5
94
330
93
100
AcDbEntity
  8
0
100
AcDbBlockBegin
  2
EX_WNORM
 70
     0
 10
0.0
 20
0.0
 30
0.0
  3
EX_WNORM
  1

  0
LINE
  5
BB
330
93
100
AcDbEntity
  8
0
  6
CONTINUOUS
 62
     0
100
AcDbLine
 10
-1.0
 20
0.0
 30
0.0
 11
-1.0
 21
0.0
 31
0.0
  0
LINE
  5
BC
330
93
100
AcDbEntity
  8
0
  6
CONTINUOUS
 62
     0
100
AcDbLine
 10
0.0
 20
0.0
 30
0.0
 11
-1.0
 21
0.166666667
 31
0.0
  0
LINE
  5
BD
330
93
100
AcDbEntity
  8
0
  6
CONTINUOUS
 62
     0
100
AcDbLine
 10
0.0
 20
0.0
 30
0.0
 11
-1.0
 21
-0.166666667
 31
0.0
  0
LINE
  5
BE
330
93
100
AcDbEntity
  8
0
  6
CONTINUOUS
 62
     0
100
AcDbLine
 10
-1.0
 20
0.166666667
 30
0.0
 11
-1.0
 21
-0.166666667
 31
0.0
  0
ENDBLK
  5
95
330
93
100
AcDbEntity
  8
0
100
AcDbBlockEnd
  0
BLOCK
  5
97
330
96
100
AcDbEntity
  8
0
100
AcDbBlockBegin
  2
EX_NNORM
 70
     0
 10
0.0
 20
0.0
 30
0.0
  3
EX_NNORM
  1

  0
LINE
  5
BF
330
96
100
AcDbEntity
  8
0
  6
CONTINUOUS
 62
     0
100
AcDbLine
 10
0.0
 20
0.0
 30
0.0
 11
-1.0
 21
0.0
 31
0.0
  0
LINE
  5
C0
330
96
100
AcDbEntity
  8
0
  6
CONTINUOUS
 62
     0
100
AcDbLine
 10
0.0
 20
0.0
 30
0.0
 11
-1.0
 21
0.166666667
 31
0.0
  0
LINE
  5
C1
330
96
100
AcDbEntity
  8
0
  6
CONTINUOUS
 62
     0
100
AcDbLine
 10
0.0
 20
0.0
 30
0.0
 11
-1.0
 21
-0.166666667
 31
0.0
  0
LINE
  5
C2
330
96
100
AcDbEntity
  8
0
  6
CONTINUOUS
 62
     0
100
AcDbLine
 10
-1.0
 20
0.166666667
 30
0.0
 11
-1.0
 21
-0.166666667
 31
0.0
  0
ENDBLK
  5
98
330
96
100
AcDbEntity
  8
0
100
AcDbBlockEnd
  0
BLOCK
  5
9A
330
99
100
AcDbEntity
  8
0
100
AcDbBlockBegin
  2
EX_BBOX
 70
     0
 10
0.0
 20
0.0
 30
0.0
  3
EX_BBOX
  1

  0
LINE
  5
C3
330
99
100
AcDbEntity
  8
0
  6
CONTINUOUS
 62
     0
100
AcDbLine
 10
0.0
 20
0.0
 30
0.0
 11
-1.0
 21
0.0
 31
0.0
  0
LINE
  5
C4
330
99
100
AcDbEntity
  8
0
  6
CONTINUOUS
 62
     0
100
AcDbLine
 10
-0.5
 20
0.5
 30
0.0
 11
0.5
 21
0.5
 31
0.0
  0
LINE
  5
C5
330
99
100
AcDbEntity
  8
0
  6
CONTINUOUS
 62
     0
100
AcDbLine
 10
0.5
 20
0.5
 30
0.0
 11
0.5
 21
-0.5
 31
0.0
  0
LINE
  5
C6
330
99
100
AcDbEntity
  8
0
  6
CONTINUOUS
 62
     0
100
AcDbLine
 10
0.5
 20
-0.5
 30
0.0
 11
-0.5
 21
-0.5
 31
0.0
  0
LINE
  5
C7
330
99
100
AcDbEntity
  8
0
  6
CONTINUOUS
 62
     0
100
AcDbLine
 10
-0.5
 20
-0.5
 30
0.0
 11
-0.5
 21
0.5
 31
0.0
  0
LINE
  5
C8
330
99
100
AcDbEntity
  8
0
  6
CONTINUOUS
 62
     0
100
AcDbLine
 10
-0.25
 20
0.25
 30
0.0
 11
0.25
 21
0.25
 31
0.0
  0
LINE
  5
C9
330
99
100
AcDbEntity
  8
0
  6
CONTINUOUS
 62
     0
100
AcDbLine
 10
0.25
 20
0.25
 30
0.0
 11
0.25
 21
-0.25
 31
0.0
  0
LINE
  5
CA
330
99
100
AcDbEntity
  8
0
  6
CONTINUOUS
 62
     0
100
AcDbLine
 10
0.25
 20
-0.25
 30
0.0
 11
-0.25
 21
-0.25
 31
0.0
  0
LINE
  5
CB
330
99
100
AcDbEntity
  8
0
  6
CONTINUOUS
 62
     0
100
AcDbLine
 10
-0.25
 20
-0.25
 30
0.0
 11
-0.25
 21
0.25
 31
0.0
  0
ENDBLK
  5
9B
330
99
100
AcDbEntity
  8
0
100
AcDbBlockEnd
  0
BLOCK
  5
9D
330
9C
100
AcDbEntity
  8
0
100
AcDbBlockBegin
  2
EX_WBOX
 70
     0
 10
0.0
 20
0.0
 30
0.0
  3
EX_WBOX
  1

  0
LINE
  5
CC
330
9C
100
AcDbEntity
  8
0
  6
CONTINUOUS
 62
     0
100
AcDbLine
 10
-0.5
 20
0.0
 30
0.0
 11
-1.0
 21
0.0
 31
0.0
  0
LINE
  5
CD
330
9C
100
AcDbEntity
  8
0
  6
CONTINUOUS
 62
     0
100
AcDbLine
 10
-0.5
 20
0.5
 30
0.0
 11
0.5
 21
0.5
 31
0.0
  0
LINE
  5
CE
330
9C
100
AcDbEntity
  8
0
  6
CONTINUOUS
 62
     0
100
AcDbLine
 10
0.5
 20
0.5
 30
0.0
 11
0.5
 21
-0.5
 31
0.0
  0
LINE
  5
CF
330
9C
100
AcDbEntity
  8
0
  6
CONTINUOUS
 62
     0
100
AcDbLine
 10
0.5
 20
-0.5
 30
0.0
 11
-0.5
 21
-0.5
 31
0.0
  0
LINE
  5
D0
330
9C
100
AcDbEntity
  8
0
  6
CONTINUOUS
 62
     0
100
AcDbLine
 10
-0.5
 20
-0.5
 30
0.0
 11
-0.5
 21
0.5
 31
0.0
  0
ENDBLK
  5
9E
330
9C
100
AcDbEntity
  8
0
100
AcDbBlockEnd
  0
BLOCK
  5
A0
330
9F
100
AcDbEntity
  8
0
100
AcDbBlockBegin
  2
EX_INTEGRAL
 70
     0
 10
0.0
 20
0.0
 30
0.0
  3
EX_INTEGRAL
  1

  0
LINE
  5
D1
330
9F
100
AcDbEntity
  8
0
  6
CONTINUOUS
 62
     0
100
AcDbLine
 10
0.0
 20
0.0
 30
0.0
 11
-1.0
 21
0.0
 31
0.0
  0
ARC
  5
D2
330
9F
100
AcDbEntity
  8
0
  6
CONTINUOUS
 62
     0
100
AcDbCircle
 10
0.542115
 20
0.164992
 30
0.0
 40
0.56667
100
AcDbArc
 50
73.07249033629006
 51
196.9275130221199
  0
ARC
  5
D3
330
9F
100
AcDbEntity
  8
0
  6
CONTINUOUS
 62
     0
100
AcDbCircle
 10
-0.542115
 20
-0.164992
 30
0.0
 40
0.56667
100
AcDbArc
 50
253.0724869220464
 51
16.9275130559125
  0
ENDBLK
  5
A1
330
9F
100
AcDbEntity
  8
0
100
AcDbBlockEnd
  0
BLOCK
  5
627
330
626
100
AcDbEntity
  8
0
100
AcDbBlockBegin
  2
*D15
 70
     1
 10
0.0
 20
0.0
 30
0.0
  3
*D15
  1

  0
LINE
  5
629
330
626
100
AcDbEntity
  8
LAY-20
  6
CONTINUOUS
 62
     4
100
AcDbLine
 10
1122.5
 20
310.0000000000001
 30
0.0
 11
1172.5
 21
310.0000000000001
 31
0.0
  0
LINE
  5
62A
330
626
100
AcDbEntity
  8
LAY-20
  6
CONTINUOUS
 62
     4
100
AcDbLine
 10
1107.50000000001
 20
350.0000000000001
 30
0.0
 11
1172.5
 21
350.0000000000001
 31
0.0
  0
LINE
  5
62B
330
626
100
AcDbEntity
  8
LAY-20
  6
CONTINUOUS
 62
     4
100
AcDbLine
 10
1165.0
 20
322.5000000000001
 30
0.0
 11
1165.0
 21
337.5000000000001
 31
0.0
  0
INSERT
  5
62C
330
626
100
AcDbEntity
  8
LAY-20
 62
     4
100
AcDbBlockReference
  2
EX_BNORM
 10
1165.0
 20
310.0000000000001
 30
0.0
 41
12.5
 42
12.5
 43
12.5
 50
270.0
  0
INSERT
  5
62D
330
626
100
AcDbEntity
  8
LAY-20
 62
     4
100
AcDbBlockReference
  2
EX_BNORM
 10
1165.0
 20
350.0000000000001
 30
0.0
 41
12.5
 42
12.5
 43
12.5
 50
90.0
  0
MTEXT
  5
62E
330
626
100
AcDbEntity
  8
LAY-20
 62
     7
100
AcDbMText
 10
1152.5
 20
330.0000000000001
 30
0.0
 40
15.590552
 41
0.0
 71
     5
 72
     1
  1
40
  7
EXCADDIM1
 11
0.0
 21
1.0
 31
0.0
  0
POINT
  5
62F
330
626
100
AcDbEntity
  8
DEFPOINTS
 62
     0
100
AcDbPoint
 10
1115.0
 20
310.0000000000001
 30
0.0
  0
POINT
  5
630
330
626
100
AcDbEntity
  8
DEFPOINTS
 62
     0
100
AcDbPoint
 10
1100.00000000001
 20
350.0000000000001
 30
0.0
  0
POINT
  5
631
330
626
100
AcDbEntity
  8
DEFPOINTS
 62
     0
100
AcDbPoint
 10
1165.0
 20
350.0000000000001
 30
0.0
  0
ENDBLK
  5
628
330
626
100
AcDbEntity
  8
0
100
AcDbBlockEnd
  0
BLOCK
  5
634
330
633
100
AcDbEntity
  8
0
100
AcDbBlockBegin
  2
*D16
 70
     1
 10
0.0
 20
0.0
 30
0.0
  3
*D16
  1

  0
LINE
  5
636
330
633
100
AcDbEntity
  8
LAY-20
  6
CONTINUOUS
 62
     4
100
AcDbLine
 10
918.0000000000001
 20
336.0
 30
0.0
 11
918.0000000000001
 21
350.0
 31
0.0
  0
LINE
  5
637
330
633
100
AcDbEntity
  8
LAY-20
  6
CONTINUOUS
 62
     4
100
AcDbLine
 10
918.0000000000001
 20
323.5
 30
0.0
 11
918.0000000000001
 21
311.0
 31
0.0
  0
LINE
  5
638
330
633
100
AcDbEntity
  8
LAY-20
  6
CONTINUOUS
 62
     4
100
AcDbLine
 10
918.0000000000001
 20
362.5
 30
0.0
 11
918.0000000000001
 21
375.0
 31
0.0
  0
INSERT
  5
639
330
633
100
AcDbEntity
  8
LAY-20
 62
     4
100
AcDbBlockReference
  2
EX_BNORM
 10
918.0000000000001
 20
336.0
 30
0.0
 41
12.5
 42
12.5
 43
12.5
 50
90.0
  0
INSERT
  5
63A
330
633
100
AcDbEntity
  8
LAY-20
 62
     4
100
AcDbBlockReference
  2
EX_BNORM
 10
918.0000000000001
 20
350.0
 30
0.0
 41
12.5
 42
12.5
 43
12.5
 50
270.0
  0
MTEXT
  5
63B
330
633
100
AcDbEntity
  8
LAY-20
 62
     7
100
AcDbMText
 10
905.5000000000001
 20
379.9999999999998
 30
0.0
 40
15.590552
 41
0.0
 71
     5
 72
     1
  1
14
  7
EXCADDIM1
 11
0.0
 21
1.0
 31
0.0
  0
POINT
  5
63C
330
633
100
AcDbEntity
  8
DEFPOINTS
 62
     0
100
AcDbPoint
 10
918.0000000000001
 20
336.0
 30
0.0
  0
POINT
  5
63D
330
633
100
AcDbEntity
  8
DEFPOINTS
 62
     0
100
AcDbPoint
 10
918.0000000000001
 20
350.0
 30
0.0
  0
POINT
  5
63E
330
633
100
AcDbEntity
  8
DEFPOINTS
 62
     0
100
AcDbPoint
 10
918.0000000000001
 20
350.0
 30
0.0
  0
ENDBLK
  5
635
330
633
100
AcDbEntity
  8
0
100
AcDbBlockEnd
  0
BLOCK
  5
641
330
640
100
AcDbEntity
  8
0
100
AcDbBlockBegin
  2
*D17
 70
     1
 10
0.0
 20
0.0
 30
0.0
  3
*D17
  1

  0
LINE
  5
643
330
640
100
AcDbEntity
  8
LAY-20
  6
CONTINUOUS
 62
     4
100
AcDbLine
 10
1100.000000000001
 20
357.5
 30
0.0
 11
1100.000000000001
 21
477.5
 31
0.0
  0
LINE
  5
644
330
640
100
AcDbEntity
  8
LAY-20
  6
CONTINUOUS
 62
     4
100
AcDbLine
 10
450.0000000000004
 20
357.5
 30
0.0
 11
450.0000000000004
 21
477.5
 31
0.0
  0
LINE
  5
645
330
640
100
AcDbEntity
  8
LAY-20
  6
CONTINUOUS
 62
     4
100
AcDbLine
 10
1087.500000000001
 20
470.0
 30
0.0
 11
462.5000000000004
 21
470.0
 31
0.0
  0
INSERT
  5
646
330
640
100
AcDbEntity
  8
LAY-20
 62
     4
100
AcDbBlockReference
  2
EX_BNORM
 10
1100.000000000001
 20
470.0
 30
0.0
 41
12.5
 42
12.5
 43
12.5
  0
INSERT
  5
647
330
640
100
AcDbEntity
  8
LAY-20
 62
     4
100
AcDbBlockReference
  2
EX_BNORM
 10
450.0000000000004
 20
470.0
 30
0.0
 41
12.5
 42
12.5
 43
12.5
 50
180.0
  0
MTEXT
  5
648
330
640
100
AcDbEntity
  8
LAY-20
 62
     7
100
AcDbMText
 10
775.0000000000007
 20
482.5
 30
0.0
 40
15.590552
 41
0.0
 71
     5
 72
     1
  1
□650
  7
EXCADDIM1
  0
POINT
  5
649
330
640
100
AcDbEntity
  8
DEFPOINTS
 62
     0
100
AcDbPoint
 10
1100.000000000001
 20
350.0
 30
0.0
  0
POINT
  5
64A
330
640
100
AcDbEntity
  8
DEFPOINTS
 62
     0
100
AcDbPoint
 10
450.0000000000004
 20
350.0
 30
0.0
  0
POINT
  5
64B
330
640
100
AcDbEntity
  8
DEFPOINTS
 62
     0
100
AcDbPoint
 10
450.0000000000004
 20
470.0
 30
0.0
  0
ENDBLK
  5
642
330
640
100
AcDbEntity
  8
0
100
AcDbBlockEnd
  0
BLOCK
  5
64E
330
64D
100
AcDbEntity
  8
0
100
AcDbBlockBegin
  2
*D18
 70
     1
 10
0.0
 20
0.0
 30
0.0
  3
*D18
  1

  0
LINE
  5
650
330
64D
100
AcDbEntity
  8
LAY-20
  6
CONTINUOUS
 62
     4
100
AcDbLine
 10
460.0000000000004
 20
357.5
 30
0.0
 11
460.0000000000005
 21
442.5
 31
0.0
  0
LINE
  5
651
330
64D
100
AcDbEntity
  8
LAY-20
  6
CONTINUOUS
 62
     4
100
AcDbLine
 10
1090.000000000001
 20
357.5
 30
0.0
 11
1090.000000000001
 21
442.5
 31
0.0
  0
LINE
  5
652
330
64D
100
AcDbEntity
  8
LAY-20
  6
CONTINUOUS
 62
     4
100
AcDbLine
 10
472.5000000000005
 20
435.0
 30
0.0
 11
1077.500000000001
 21
435.0
 31
0.0
  0
INSERT
  5
653
330
64D
100
AcDbEntity
  8
LAY-20
 62
     4
100
AcDbBlockReference
  2
EX_BNORM
 10
460.0000000000005
 20
435.0
 30
0.0
 41
12.5
 42
12.5
 43
12.5
 50
180.0
  0
INSERT
  5
654
330
64D
100
AcDbEntity
  8
LAY-20
 62
     4
100
AcDbBlockReference
  2
EX_BNORM
 10
1090.000000000001
 20
435.0
 30
0.0
 41
12.5
 42
12.5
 43
12.5
  0
MTEXT
  5
655
330
64D
100
AcDbEntity
  8
LAY-20
 62
     7
100
AcDbMText
 10
775.0000000000006
 20
447.5
 30
0.0
 40
15.590552
 41
0.0
 71
     5
 72
     1
  1
□630
  7
EXCADDIM1
  0
POINT
  5
656
330
64D
100
AcDbEntity
  8
DEFPOINTS
 62
     0
100
AcDbPoint
 10
460.0000000000004
 20
350.0
 30
0.0
  0
POINT
  5
657
330
64D
100
AcDbEntity
  8
DEFPOINTS
 62
     0
100
AcDbPoint
 10
1090.000000000001
 20
350.0
 30
0.0
  0
POINT
  5
658
330
64D
100
AcDbEntity
  8
DEFPOINTS
 62
     0
100
AcDbPoint
 10
1090.000000000001
 20
435.0
 30
0.0
  0
ENDBLK
  5
64F
330
64D
100
AcDbEntity
  8
0
100
AcDbBlockEnd
  0
BLOCK
  5
65B
330
65A
100
AcDbEntity
  8
0
100
AcDbBlockBegin
  2
*D19
 70
     1
 10
0.0
 20
0.0
 30
0.0
  3
*D19
  1

  0
LINE
  5
65D
330
65A
100
AcDbEntity
  8
LAY-20
  6
CONTINUOUS
 62
     4
100
AcDbLine
 10
475.0000000000004
 20
302.5
 30
0.0
 11
475.0000000000005
 21
252.5
 31
0.0
  0
LINE
  5
65E
330
65A
100
AcDbEntity
  8
LAY-20
  6
CONTINUOUS
 62
     4
100
AcDbLine
 10
1075.000000000001
 20
302.5
 30
0.0
 11
1075.000000000001
 21
252.5
 31
0.0
  0
LINE
  5
65F
330
65A
100
AcDbEntity
  8
LAY-20
  6
CONTINUOUS
 62
     4
100
AcDbLine
 10
487.5000000000005
 20
260.0
 30
0.0
 11
1062.500000000001
 21
260.0
 31
0.0
  0
INSERT
  5
660
330
65A
100
AcDbEntity
  8
LAY-20
 62
     4
100
AcDbBlockReference
  2
EX_BNORM
 10
475.0000000000005
 20
260.0
 30
0.0
 41
12.5
 42
12.5
 43
12.5
 50
180.0
  0
INSERT
  5
661
330
65A
100
AcDbEntity
  8
LAY-20
 62
     4
100
AcDbBlockReference
  2
EX_BNORM
 10
1075.000000000001
 20
260.0
 30
0.0
 41
12.5
 42
12.5
 43
12.5
  0
MTEXT
  5
662
330
65A
100
AcDbEntity
  8
LAY-20
 62
     7
100
AcDbMText
 10
775.0000000000006
 20
272.5
 30
0.0
 40
15.590552
 41
0.0
 71
     5
 72
     1
  1
桝径□600
  7
EXCADDIM1
  0
POINT
  5
663
330
65A
100
AcDbEntity
  8
DEFPOINTS
 62
     0
100
AcDbPoint
 10
475.0000000000004
 20
310.0
 30
0.0
  0
POINT
  5
664
330
65A
100
AcDbEntity
  8
DEFPOINTS
 62
     0
100
AcDbPoint
 10
1075.000000000001
 20
310.0
 30
0.0
  0
POINT
  5
665
330
65A
100
AcDbEntity
  8
DEFPOINTS
 62
     0
100
AcDbPoint
 10
1075.000000000001
 20
260.0
 30
0.0
  0
ENDBLK
  5
65C
330
65A
100
AcDbEntity
  8
0
100
AcDbBlockEnd
  0
BLOCK
  5
668
330
667
100
AcDbEntity
  8
0
100
AcDbBlockBegin
  2
*D20
 70
     1
 10
0.0
 20
0.0
 30
0.0
  3
*D20
  1

  0
LINE
  5
66A
330
667
100
AcDbEntity
  8
LAY-20
  6
CONTINUOUS
 62
     4
100
AcDbLine
 10
1115.000000000001
 20
302.5
 30
0.0
 11
1115.000000000001
 21
217.5
 31
0.0
  0
LINE
  5
66B
330
667
100
AcDbEntity
  8
LAY-20
  6
CONTINUOUS
 62
     4
100
AcDbLine
 10
435.0000000000004
 20
302.5
 30
0.0
 11
435.0000000000004
 21
217.5
 31
0.0
  0
LINE
  5
66C
330
667
100
AcDbEntity
  8
LAY-20
  6
CONTINUOUS
 62
     4
100
AcDbLine
 10
1102.500000000001
 20
225.0
 30
0.0
 11
447.5000000000004
 21
225.0
 31
0.0
  0
INSERT
  5
66D
330
667
100
AcDbEntity
  8
LAY-20
 62
     4
100
AcDbBlockReference
  2
EX_BNORM
 10
1115.000000000001
 20
225.0
 30
0.0
 41
12.5
 42
12.5
 43
12.5
  0
INSERT
  5
66E
330
667
100
AcDbEntity
  8
LAY-20
 62
     4
100
AcDbBlockReference
  2
EX_BNORM
 10
435.0000000000004
 20
225.0
 30
0.0
 41
12.5
 42
12.5
 43
12.5
 50
180.0
  0
MTEXT
  5
66F
330
667
100
AcDbEntity
  8
LAY-20
 62
     7
100
AcDbMText
 10
775.0000000000007
 20
237.5
 30
0.0
 40
15.590552
 41
0.0
 71
     5
 72
     1
  1
□680
  7
EXCADDIM1
  0
POINT
  5
670
330
667
100
AcDbEntity
  8
DEFPOINTS
 62
     0
100
AcDbPoint
 10
1115.000000000001
 20
310.0
 30
0.0
  0
POINT
  5
671
330
667
100
AcDbEntity
  8
DEFPOINTS
 62
     0
100
AcDbPoint
 10
435.0000000000004
 20
310.0
 30
0.0
  0
POINT
  5
672
330
667
100
AcDbEntity
  8
DEFPOINTS
 62
     0
100
AcDbPoint
 10
435.0000000000004
 20
225.0
 30
0.0
  0
ENDBLK
  5
669
330
667
100
AcDbEntity
  8
0
100
AcDbBlockEnd
  0
ENDSEC
  0
SECTION
  2
ENTITIES
  0
ARC
  5
D4
330
1F
100
AcDbEntity
  8
LAY-10
  6
CONTINUOUS
 62
     7
100
AcDbCircle
 10
460.4999999999997
 20
1189.5
 30
0.0
 40
3.000000000000003
100
AcDbArc
 50
90.0
 51
180.0
  0
ARC
  5
D5
330
1F
100
AcDbEntity
  8
LAY-10
  6
CONTINUOUS
 62
     7
100
AcDbCircle
 10
452.9999999999899
 20
1197.00000000001
 30
0.0
 40
3.000000000000003
100
AcDbArc
 50
90.0
 51
180.0
  0
ARC
  5
D6
330
1F
100
AcDbEntity
  8
LAY-10
  6
CONTINUOUS
 62
     7
100
AcDbCircle
 10
450.2003627671598
 20
1199.79963723284
 30
0.0
 40
3.000000000000003
100
AcDbArc
 50
90.0
 51
180.0
  0
ARC
  5
D7
330
1F
100
AcDbEntity
  8
LAY-10
  6
CONTINUOUS
 62
     7
100
AcDbCircle
 10
445.6999093082099
 20
1204.30009069179
 30
0.0
 40
10.0
100
AcDbArc
 50
90.0
 51
180.0
  0
ARC
  5
D8
330
1F
100
AcDbEntity
  8
LAY-10
  6
CONTINUOUS
 62
     7
100
AcDbCircle
 10
444.9999999999998
 20
1205.0
 30
0.0
 40
10.0
100
AcDbArc
 50
90.0
 51
180.0
  0
LINE
  5
D9
330
1F
100
AcDbEntity
  8
LAY-10
  6
CONTINUOUS
 62
     7
100
AcDbLine
 10
457.4999999999998
 20
560.5000000000001
 30
0.0
 11
457.4999999999998
 21
1189.5
 31
0.0
  0
ARC
  5
DA
330
1F
100
AcDbEntity
  8
LAY-10
  6
CONTINUOUS
 62
     7
100
AcDbCircle
 10
460.4999999999997
 20
560.5000000000001
 30
0.0
 40
3.000000000000003
100
AcDbArc
 50
180.0
 51
270.0
  0
LINE
  5
DB
330
1F
100
AcDbEntity
  8
LAY-10
  6
CONTINUOUS
 62
     7
100
AcDbLine
 10
449.9999999999899
 20
552.9999999999901
 30
0.0
 11
449.9999999999899
 21
1197.00000000001
 31
0.0
  0
ARC
  5
DC
330
1F
100
AcDbEntity
  8
LAY-10
  6
CONTINUOUS
 62
     7
100
AcDbCircle
 10
452.9999999999897
 20
552.9999999999901
 30
0.0
 40
3.000000000000003
100
AcDbArc
 50
180.0
 51
270.0
  0
LINE
  5
DD
330
1F
100
AcDbEntity
  8
LAY-10
  6
CONTINUOUS
 62
     7
100
AcDbLine
 10
447.2003627671598
 20
550.2003627671601
 30
0.0
 11
447.2003627671598
 21
1199.79963723284
 31
0.0
  0
ARC
  5
DE
330
1F
100
AcDbEntity
  8
LAY-10
  6
CONTINUOUS
 62
     7
100
AcDbCircle
 10
450.20036276716
 20
550.2003627671601
 30
0.0
 40
3.000000000000003
100
AcDbArc
 50
180.0
 51
270.0
  0
LINE
  5
DF
330
1F
100
AcDbEntity
  8
LAY-10
  6
CONTINUOUS
 62
     7
100
AcDbLine
 10
435.6999093082099
 20
545.6999093082102
 30
0.0
 11
435.6999093082099
 21
1204.30009069179
 31
0.0
  0
ARC
  5
E0
330
1F
100
AcDbEntity
  8
LAY-10
  6
CONTINUOUS
 62
     7
100
AcDbCircle
 10
445.6999093082099
 20
545.6999093082102
 30
0.0
 40
10.0
100
AcDbArc
 50
180.0
 51
270.0
  0
LINE
  5
E1
330
1F
100
AcDbEntity
  8
LAY-10
  6
CONTINUOUS
 62
     7
100
AcDbLine
 10
434.9999999999998
 20
545.0000000000001
 30
0.0
 11
434.9999999999998
 21
1205.0
 31
0.0
  0
ARC
  5
E2
330
1F
100
AcDbEntity
  8
LAY-10
  6
CONTINUOUS
 62
     7
100
AcDbCircle
 10
444.9999999999998
 20
545.0000000000001
 30
0.0
 40
10.0
100
AcDbArc
 50
180.0
 51
270.0
  0
LINE
  5
E3
330
1F
100
AcDbEntity
  8
LAY-10
  6
CONTINUOUS
 62
     7
100
AcDbLine
 10
1089.5
 20
557.5
 30
0.0
 11
460.4999999999997
 21
557.5000000000001
 31
0.0
  0
ARC
  5
E4
330
1F
100
AcDbEntity
  8
LAY-10
  6
CONTINUOUS
 62
     7
100
AcDbCircle
 10
1089.5
 20
560.4999999999999
 30
0.0
 40
3.000000000000003
100
AcDbArc
 50
270.0
 51
0.0
  0
LINE
  5
E5
330
1F
100
AcDbEntity
  8
LAY-10
  6
CONTINUOUS
 62
     7
100
AcDbLine
 10
1097.00000000001
 20
549.9999999999901
 30
0.0
 11
452.9999999999897
 21
549.9999999999901
 31
0.0
  0
ARC
  5
E6
330
1F
100
AcDbEntity
  8
LAY-10
  6
CONTINUOUS
 62
     7
100
AcDbCircle
 10
1097.00000000001
 20
552.9999999999901
 30
0.0
 40
3.000000000000003
100
AcDbArc
 50
270.0
 51
0.0
  0
LINE
  5
E7
330
1F
100
AcDbEntity
  8
LAY-10
  6
CONTINUOUS
 62
     7
100
AcDbLine
 10
1099.79963723284
 20
547.2003627671601
 30
0.0
 11
450.2003627671597
 21
547.2003627671601
 31
0.0
  0
ARC
  5
E8
330
1F
100
AcDbEntity
  8
LAY-10
  6
CONTINUOUS
 62
     7
100
AcDbCircle
 10
1099.79963723284
 20
550.2003627671601
 30
0.0
 40
3.000000000000003
100
AcDbArc
 50
270.0
 51
0.0
  0
LINE
  5
E9
330
1F
100
AcDbEntity
  8
LAY-10
  6
CONTINUOUS
 62
     7
100
AcDbLine
 10
1104.30009069179
 20
535.6999093082102
 30
0.0
 11
445.6999093082099
 21
535.6999093082102
 31
0.0
  0
ARC
  5
EA
330
1F
100
AcDbEntity
  8
LAY-10
  6
CONTINUOUS
 62
     7
100
AcDbCircle
 10
1104.30009069179
 20
545.6999093082102
 30
0.0
 40
10.0
100
AcDbArc
 50
270.0
 51
0.0
  0
LINE
  5
EB
330
1F
100
AcDbEntity
  8
LAY-10
  6
CONTINUOUS
 62
     7
100
AcDbLine
 10
1105.0
 20
535.0000000000001
 30
0.0
 11
444.9999999999995
 21
535.0000000000001
 31
0.0
  0
ARC
  5
EC
330
1F
100
AcDbEntity
  8
LAY-10
  6
CONTINUOUS
 62
     7
100
AcDbCircle
 10
1105.0
 20
545.0000000000001
 30
0.0
 40
10.0
100
AcDbArc
 50
270.0
 51
0.0
  0
LINE
  5
ED
330
1F
100
AcDbEntity
  8
LAY-10
  6
CONTINUOUS
 62
     7
100
AcDbLine
 10
1089.5
 20
1192.5
 30
0.0
 11
460.4999999999997
 21
1192.5
 31
0.0
  0
LINE
  5
EE
330
1F
100
AcDbEntity
  8
LAY-10
  6
CONTINUOUS
 62
     7
100
AcDbLine
 10
1092.5
 20
560.4999999999999
 30
0.0
 11
1092.5
 21
1189.5
 31
0.0
  0
ARC
  5
EF
330
1F
100
AcDbEntity
  8
LAY-10
  6
CONTINUOUS
 62
     7
100
AcDbCircle
 10
1089.5
 20
1189.5
 30
0.0
 40
3.000000000000003
100
AcDbArc
 50
0.0
 51
90.0
  0
LINE
  5
F0
330
1F
100
AcDbEntity
  8
LAY-10
  6
CONTINUOUS
 62
     7
100
AcDbLine
 10
1097.00000000001
 20
1200.00000000001
 30
0.0
 11
452.9999999999897
 21
1200.00000000001
 31
0.0
  0
LINE
  5
F1
330
1F
100
AcDbEntity
  8
LAY-10
  6
CONTINUOUS
 62
     7
100
AcDbLine
 10
1100.00000000001
 20
552.9999999999901
 30
0.0
 11
1100.00000000001
 21
1197.00000000001
 31
0.0
  0
ARC
  5
F2
330
1F
100
AcDbEntity
  8
LAY-10
  6
CONTINUOUS
 62
     7
100
AcDbCircle
 10
1097.00000000001
 20
1197.00000000001
 30
0.0
 40
3.000000000000003
100
AcDbArc
 50
0.0
 51
90.0
  0
LINE
  5
F3
330
1F
100
AcDbEntity
  8
LAY-10
  6
CONTINUOUS
 62
     7
100
AcDbLine
 10
1099.79963723284
 20
1202.79963723284
 30
0.0
 11
450.2003627671597
 21
1202.79963723284
 31
0.0
  0
LINE
  5
F4
330
1F
100
AcDbEntity
  8
LAY-10
  6
CONTINUOUS
 62
     7
100
AcDbLine
 10
1102.79963723284
 20
550.2003627671601
 30
0.0
 11
1102.79963723284
 21
1199.79963723284
 31
0.0
  0
ARC
  5
F5
330
1F
100
AcDbEntity
  8
LAY-10
  6
CONTINUOUS
 62
     7
100
AcDbCircle
 10
1099.79963723284
 20
1199.79963723284
 30
0.0
 40
3.000000000000003
100
AcDbArc
 50
0.0
 51
90.0
  0
LINE
  5
F6
330
1F
100
AcDbEntity
  8
LAY-10
  6
CONTINUOUS
 62
     7
100
AcDbLine
 10
1104.30009069179
 20
1214.30009069179
 30
0.0
 11
445.6999093082099
 21
1214.30009069179
 31
0.0
  0
LINE
  5
F7
330
1F
100
AcDbEntity
  8
LAY-10
  6
CONTINUOUS
 62
     7
100
AcDbLine
 10
1114.30009069179
 20
545.6999093082102
 30
0.0
 11
1114.30009069179
 21
1204.30009069179
 31
0.0
  0
ARC
  5
F8
330
1F
100
AcDbEntity
  8
LAY-10
  6
CONTINUOUS
 62
     7
100
AcDbCircle
 10
1104.30009069179
 20
1204.30009069179
 30
0.0
 40
10.0
100
AcDbArc
 50
0.0
 51
90.0
  0
LINE
  5
F9
330
1F
100
AcDbEntity
  8
LAY-10
  6
CONTINUOUS
 62
     7
100
AcDbLine
 10
1105.0
 20
1215.0
 30
0.0
 11
444.9999999999995
 21
1215.0
 31
0.0
  0
LINE
  5
FA
330
1F
100
AcDbEntity
  8
LAY-10
  6
CONTINUOUS
 62
     7
100
AcDbLine
 10
1115.0
 20
545.0000000000001
 30
0.0
 11
1115.0
 21
1205.0
 31
0.0
  0
ARC
  5
FB
330
1F
100
AcDbEntity
  8
LAY-10
  6
CONTINUOUS
 62
     7
100
AcDbCircle
 10
1105.0
 20
1205.0
 30
0.0
 40
10.0
100
AcDbArc
 50
0.0
 51
90.0
  0
ARC
  5
FC
330
1F
100
AcDbEntity
  8
LAY-10
  6
CONTINUOUS
 62
     7
100
AcDbCircle
 10
461.9999999999999
 20
1188.0
 30
0.0
 40
2.0
100
AcDbArc
 50
90.0
 51
180.0
  0
LINE
  5
FD
330
1F
100
AcDbEntity
  8
LAY-10
  6
CONTINUOUS
 62
     7
100
AcDbLine
 10
459.9999999999998
 20
562.0
 30
0.0
 11
459.9999999999998
 21
1188.0
 31
0.0
  0
ARC
  5
FE
330
1F
100
AcDbEntity
  8
LAY-10
  6
CONTINUOUS
 62
     7
100
AcDbCircle
 10
461.9999999999999
 20
562.0
 30
0.0
 40
2.0
100
AcDbArc
 50
180.0
 51
270.0
  0
LINE
  5
FF
330
1F
100
AcDbEntity
  8
LAY-10
  6
CONTINUOUS
 62
     7
100
AcDbLine
 10
1088.0
 20
560.0
 30
0.0
 11
461.9999999999999
 21
560.0000000000001
 31
0.0
  0
ARC
  5
100
330
1F
100
AcDbEntity
  8
LAY-10
  6
CONTINUOUS
 62
     7
100
AcDbCircle
 10
1088.0
 20
562.0
 30
0.0
 40
2.0
100
AcDbArc
 50
270.0
 51
0.0
  0
LINE
  5
101
330
1F
100
AcDbEntity
  8
LAY-10
  6
CONTINUOUS
 62
     7
100
AcDbLine
 10
1088.0
 20
1190.0
 30
0.0
 11
461.9999999999999
 21
1190.0
 31
0.0
  0
LINE
  5
102
330
1F
100
AcDbEntity
  8
LAY-10
  6
CONTINUOUS
 62
     7
100
AcDbLine
 10
1090.0
 20
562.0
 30
0.0
 11
1090.0
 21
1188.0
 31
0.0
  0
ARC
  5
103
330
1F
100
AcDbEntity
  8
LAY-10
  6
CONTINUOUS
 62
     7
100
AcDbCircle
 10
1088.0
 20
1188.0
 30
0.0
 40
2.0
100
AcDbArc
 50
0.0
 51
90.0
  0
LINE
  5
104
330
1F
100
AcDbEntity
  8
LAY-10
  6
CONTINUOUS
 62
     7
100
AcDbLine
 10
480.9999999999999
 20
1169.0
 30
0.0
 11
500.9999999999999
 21
1169.0
 31
0.0
  0
LINE
  5
105
330
1F
100
AcDbEntity
  8
LAY-10
  6
CONTINUOUS
 62
     7
100
AcDbLine
 10
500.9999999999999
 20
1169.0
 30
0.0
 11
500.9999999999999
 21
1149.0
 31
0.0
  0
LINE
  5
106
330
1F
100
AcDbEntity
  8
LAY-10
  6
CONTINUOUS
 62
     7
100
AcDbLine
 10
500.9999999999999
 20
1149.0
 30
0.0
 11
480.9999999999999
 21
1149.0
 31
0.0
  0
LINE
  5
107
330
1F
100
AcDbEntity
  8
LAY-10
  6
CONTINUOUS
 62
     7
100
AcDbLine
 10
480.9999999999999
 20
1149.0
 30
0.0
 11
480.9999999999999
 21
1169.0
 31
0.0
  0
LINE
  5
108
330
1F
100
AcDbEntity
  8
LAY-10
  6
CONTINUOUS
 62
     7
100
AcDbLine
 10
516.4999999999999
 20
1169.0
 30
0.0
 11
536.4999999999999
 21
1169.0
 31
0.0
  0
LINE
  5
109
330
1F
100
AcDbEntity
  8
LAY-10
  6
CONTINUOUS
 62
     7
100
AcDbLine
 10
536.4999999999999
 20
1169.0
 30
0.0
 11
536.4999999999999
 21
1149.0
 31
0.0
  0
LINE
  5
10A
330
1F
100
AcDbEntity
  8
LAY-10
  6
CONTINUOUS
 62
     7
100
AcDbLine
 10
536.4999999999999
 20
1149.0
 30
0.0
 11
516.4999999999999
 21
1149.0
 31
0.0
  0
LINE
  5
10B
330
1F
100
AcDbEntity
  8
LAY-10
  6
CONTINUOUS
 62
     7
100
AcDbLine
 10
516.4999999999999
 20
1149.0
 30
0.0
 11
516.4999999999999
 21
1169.0
 31
0.0
  0
LINE
  5
10C
330
1F
100
AcDbEntity
  8
LAY-10
  6
CONTINUOUS
 62
     7
100
AcDbLine
 10
551.9999999999999
 20
1169.0
 30
0.0
 11
571.9999999999999
 21
1169.0
 31
0.0
  0
LINE
  5
10D
330
1F
100
AcDbEntity
  8
LAY-10
  6
CONTINUOUS
 62
     7
100
AcDbLine
 10
571.9999999999999
 20
1169.0
 30
0.0
 11
571.9999999999999
 21
1149.0
 31
0.0
  0
LINE
  5
10E
330
1F
100
AcDbEntity
  8
LAY-10
  6
CONTINUOUS
 62
     7
100
AcDbLine
 10
571.9999999999999
 20
1149.0
 30
0.0
 11
551.9999999999999
 21
1149.0
 31
0.0
  0
LINE
  5
10F
330
1F
100
AcDbEntity
  8
LAY-10
  6
CONTINUOUS
 62
     7
100
AcDbLine
 10
551.9999999999999
 20
1149.0
 30
0.0
 11
551.9999999999999
 21
1169.0
 31
0.0
  0
LINE
  5
110
330
1F
100
AcDbEntity
  8
LAY-10
  6
CONTINUOUS
 62
     7
100
AcDbLine
 10
587.4999999999998
 20
1169.0
 30
0.0
 11
607.4999999999998
 21
1169.0
 31
0.0
  0
LINE
  5
111
330
1F
100
AcDbEntity
  8
LAY-10
  6
CONTINUOUS
 62
     7
100
AcDbLine
 10
607.4999999999998
 20
1169.0
 30
0.0
 11
607.4999999999998
 21
1149.0
 31
0.0
  0
LINE
  5
112
330
1F
100
AcDbEntity
  8
LAY-10
  6
CONTINUOUS
 62
     7
100
AcDbLine
 10
607.4999999999998
 20
1149.0
 30
0.0
 11
587.4999999999998
 21
1149.0
 31
0.0
  0
LINE
  5
113
330
1F
100
AcDbEntity
  8
LAY-10
  6
CONTINUOUS
 62
     7
100
AcDbLine
 10
587.4999999999998
 20
1149.0
 30
0.0
 11
587.4999999999998
 21
1169.0
 31
0.0
  0
LINE
  5
114
330
1F
100
AcDbEntity
  8
LAY-10
  6
CONTINUOUS
 62
     7
100
AcDbLine
 10
622.9999999999999
 20
1169.0
 30
0.0
 11
642.9999999999999
 21
1169.0
 31
0.0
  0
LINE
  5
115
330
1F
100
AcDbEntity
  8
LAY-10
  6
CONTINUOUS
 62
     7
100
AcDbLine
 10
642.9999999999999
 20
1169.0
 30
0.0
 11
642.9999999999999
 21
1149.0
 31
0.0
  0
LINE
  5
116
330
1F
100
AcDbEntity
  8
LAY-10
  6
CONTINUOUS
 62
     7
100
AcDbLine
 10
642.9999999999999
 20
1149.0
 30
0.0
 11
622.9999999999999
 21
1149.0
 31
0.0
  0
LINE
  5
117
330
1F
100
AcDbEntity
  8
LAY-10
  6
CONTINUOUS
 62
     7
100
AcDbLine
 10
622.9999999999999
 20
1149.0
 30
0.0
 11
622.9999999999999
 21
1169.0
 31
0.0
  0
LINE
  5
118
330
1F
100
AcDbEntity
  8
LAY-10
  6
CONTINUOUS
 62
     7
100
AcDbLine
 10
658.4999999999999
 20
1169.0
 30
0.0
 11
678.4999999999999
 21
1169.0
 31
0.0
  0
LINE
  5
119
330
1F
100
AcDbEntity
  8
LAY-10
  6
CONTINUOUS
 62
     7
100
AcDbLine
 10
678.4999999999999
 20
1169.0
 30
0.0
 11
678.4999999999999
 21
1149.0
 31
0.0
  0
LINE
  5
11A
330
1F
100
AcDbEntity
  8
LAY-10
  6
CONTINUOUS
 62
     7
100
AcDbLine
 10
678.4999999999999
 20
1149.0
 30
0.0
 11
658.4999999999999
 21
1149.0
 31
0.0
  0
LINE
  5
11B
330
1F
100
AcDbEntity
  8
LAY-10
  6
CONTINUOUS
 62
     7
100
AcDbLine
 10
658.4999999999999
 20
1149.0
 30
0.0
 11
658.4999999999999
 21
1169.0
 31
0.0
  0
LINE
  5
11C
330
1F
100
AcDbEntity
  8
LAY-10
  6
CONTINUOUS
 62
     7
100
AcDbLine
 10
693.9999999999999
 20
1169.0
 30
0.0
 11
713.9999999999999
 21
1169.0
 31
0.0
  0
LINE
  5
11D
330
1F
100
AcDbEntity
  8
LAY-10
  6
CONTINUOUS
 62
     7
100
AcDbLine
 10
713.9999999999999
 20
1169.0
 30
0.0
 11
713.9999999999999
 21
1149.0
 31
0.0
  0
LINE
  5
11E
330
1F
100
AcDbEntity
  8
LAY-10
  6
CONTINUOUS
 62
     7
100
AcDbLine
 10
713.9999999999999
 20
1149.0
 30
0.0
 11
693.9999999999999
 21
1149.0
 31
0.0
  0
LINE
  5
11F
330
1F
100
AcDbEntity
  8
LAY-10
  6
CONTINUOUS
 62
     7
100
AcDbLine
 10
693.9999999999999
 20
1149.0
 30
0.0
 11
693.9999999999999
 21
1169.0
 31
0.0
  0
LINE
  5
120
330
1F
100
AcDbEntity
  8
LAY-10
  6
CONTINUOUS
 62
     7
100
AcDbLine
 10
749.4999999999999
 20
1149.0
 30
0.0
 11
729.4999999999999
 21
1149.0
 31
0.0
  0
LINE
  5
121
330
1F
100
AcDbEntity
  8
LAY-10
  6
CONTINUOUS
 62
     7
100
AcDbLine
 10
785.0
 20
1149.0
 30
0.0
 11
765.0
 21
1149.0
 31
0.0
  0
LINE
  5
122
330
1F
100
AcDbEntity
  8
LAY-10
  6
CONTINUOUS
 62
     7
100
AcDbLine
 10
1069.0
 20
1169.0
 30
0.0
 11
1049.0
 21
1169.0
 31
0.0
  0
LINE
  5
123
330
1F
100
AcDbEntity
  8
LAY-10
  6
CONTINUOUS
 62
     7
100
AcDbLine
 10
1049.0
 20
1169.0
 30
0.0
 11
1049.0
 21
1149.0
 31
0.0
  0
LINE
  5
124
330
1F
100
AcDbEntity
  8
LAY-10
  6
CONTINUOUS
 62
     7
100
AcDbLine
 10
1049.0
 20
1149.0
 30
0.0
 11
1069.0
 21
1149.0
 31
0.0
  0
LINE
  5
125
330
1F
100
AcDbEntity
  8
LAY-10
  6
CONTINUOUS
 62
     7
100
AcDbLine
 10
1069.0
 20
1149.0
 30
0.0
 11
1069.0
 21
1169.0
 31
0.0
  0
LINE
  5
126
330
1F
100
AcDbEntity
  8
LAY-10
  6
CONTINUOUS
 62
     7
100
AcDbLine
 10
1033.5
 20
1169.0
 30
0.0
 11
1013.5
 21
1169.0
 31
0.0
  0
LINE
  5
127
330
1F
100
AcDbEntity
  8
LAY-10
  6
CONTINUOUS
 62
     7
100
AcDbLine
 10
1013.5
 20
1169.0
 30
0.0
 11
1013.5
 21
1149.0
 31
0.0
  0
LINE
  5
128
330
1F
100
AcDbEntity
  8
LAY-10
  6
CONTINUOUS
 62
     7
100
AcDbLine
 10
1013.5
 20
1149.0
 30
0.0
 11
1033.5
 21
1149.0
 31
0.0
  0
LINE
  5
129
330
1F
100
AcDbEntity
  8
LAY-10
  6
CONTINUOUS
 62
     7
100
AcDbLine
 10
1033.5
 20
1149.0
 30
0.0
 11
1033.5
 21
1169.0
 31
0.0
  0
LINE
  5
12A
330
1F
100
AcDbEntity
  8
LAY-10
  6
CONTINUOUS
 62
     7
100
AcDbLine
 10
997.9999999999999
 20
1169.0
 30
0.0
 11
977.9999999999999
 21
1169.0
 31
0.0
  0
LINE
  5
12B
330
1F
100
AcDbEntity
  8
LAY-10
  6
CONTINUOUS
 62
     7
100
AcDbLine
 10
977.9999999999999
 20
1169.0
 30
0.0
 11
977.9999999999999
 21
1149.0
 31
0.0
  0
LINE
  5
12C
330
1F
100
AcDbEntity
  8
LAY-10
  6
CONTINUOUS
 62
     7
100
AcDbLine
 10
977.9999999999999
 20
1149.0
 30
0.0
 11
997.9999999999999
 21
1149.0
 31
0.0
  0
LINE
  5
12D
330
1F
100
AcDbEntity
  8
LAY-10
  6
CONTINUOUS
 62
     7
100
AcDbLine
 10
997.9999999999999
 20
1149.0
 30
0.0
 11
997.9999999999999
 21
1169.0
 31
0.0
  0
LINE
  5
12E
330
1F
100
AcDbEntity
  8
LAY-10
  6
CONTINUOUS
 62
     7
100
AcDbLine
 10
962.5
 20
1169.0
 30
0.0
 11
942.5
 21
1169.0
 31
0.0
  0
LINE
  5
12F
330
1F
100
AcDbEntity
  8
LAY-10
  6
CONTINUOUS
 62
     7
100
AcDbLine
 10
942.5
 20
1169.0
 30
0.0
 11
942.5
 21
1149.0
 31
0.0
  0
LINE
  5
130
330
1F
100
AcDbEntity
  8
LAY-10
  6
CONTINUOUS
 62
     7
100
AcDbLine
 10
942.5
 20
1149.0
 30
0.0
 11
962.5
 21
1149.0
 31
0.0
  0
LINE
  5
131
330
1F
100
AcDbEntity
  8
LAY-10
  6
CONTINUOUS
 62
     7
100
AcDbLine
 10
962.5
 20
1149.0
 30
0.0
 11
962.5
 21
1169.0
 31
0.0
  0
LINE
  5
132
330
1F
100
AcDbEntity
  8
LAY-10
  6
CONTINUOUS
 62
     7
100
AcDbLine
 10
926.9999999999999
 20
1169.0
 30
0.0
 11
906.9999999999999
 21
1169.0
 31
0.0
  0
LINE
  5
133
330
1F
100
AcDbEntity
  8
LAY-10
  6
CONTINUOUS
 62
     7
100
AcDbLine
 10
906.9999999999999
 20
1169.0
 30
0.0
 11
906.9999999999999
 21
1149.0
 31
0.0
  0
LINE
  5
134
330
1F
100
AcDbEntity
  8
LAY-10
  6
CONTINUOUS
 62
     7
100
AcDbLine
 10
906.9999999999999
 20
1149.0
 30
0.0
 11
926.9999999999999
 21
1149.0
 31
0.0
  0
LINE
  5
135
330
1F
100
AcDbEntity
  8
LAY-10
  6
CONTINUOUS
 62
     7
100
AcDbLine
 10
926.9999999999999
 20
1149.0
 30
0.0
 11
926.9999999999999
 21
1169.0
 31
0.0
  0
LINE
  5
136
330
1F
100
AcDbEntity
  8
LAY-10
  6
CONTINUOUS
 62
     7
100
AcDbLine
 10
891.4999999999999
 20
1169.0
 30
0.0
 11
871.4999999999999
 21
1169.0
 31
0.0
  0
LINE
  5
137
330
1F
100
AcDbEntity
  8
LAY-10
  6
CONTINUOUS
 62
     7
100
AcDbLine
 10
871.4999999999999
 20
1169.0
 30
0.0
 11
871.4999999999999
 21
1149.0
 31
0.0
  0
LINE
  5
138
330
1F
100
AcDbEntity
  8
LAY-10
  6
CONTINUOUS
 62
     7
100
AcDbLine
 10
871.4999999999999
 20
1149.0
 30
0.0
 11
891.4999999999999
 21
1149.0
 31
0.0
  0
LINE
  5
139
330
1F
100
AcDbEntity
  8
LAY-10
  6
CONTINUOUS
 62
     7
100
AcDbLine
 10
891.4999999999999
 20
1149.0
 30
0.0
 11
891.4999999999999
 21
1169.0
 31
0.0
  0
LINE
  5
13A
330
1F
100
AcDbEntity
  8
LAY-10
  6
CONTINUOUS
 62
     7
100
AcDbLine
 10
855.9999999999999
 20
1169.0
 30
0.0
 11
835.9999999999999
 21
1169.0
 31
0.0
  0
LINE
  5
13B
330
1F
100
AcDbEntity
  8
LAY-10
  6
CONTINUOUS
 62
     7
100
AcDbLine
 10
835.9999999999999
 20
1169.0
 30
0.0
 11
835.9999999999999
 21
1149.0
 31
0.0
  0
LINE
  5
13C
330
1F
100
AcDbEntity
  8
LAY-10
  6
CONTINUOUS
 62
     7
100
AcDbLine
 10
835.9999999999999
 20
1149.0
 30
0.0
 11
855.9999999999999
 21
1149.0
 31
0.0
  0
LINE
  5
13D
330
1F
100
AcDbEntity
  8
LAY-10
  6
CONTINUOUS
 62
     7
100
AcDbLine
 10
855.9999999999999
 20
1149.0
 30
0.0
 11
855.9999999999999
 21
1169.0
 31
0.0
  0
LINE
  5
13E
330
1F
100
AcDbEntity
  8
LAY-10
  6
CONTINUOUS
 62
     7
100
AcDbLine
 10
800.4999999999999
 20
1149.0
 30
0.0
 11
820.4999999999999
 21
1149.0
 31
0.0
  0
LINE
  5
13F
330
1F
100
AcDbEntity
  8
LAY-10
  6
CONTINUOUS
 62
     7
100
AcDbLine
 10
480.9999999999999
 20
1133.5
 30
0.0
 11
500.9999999999999
 21
1133.5
 31
0.0
  0
LINE
  5
140
330
1F
100
AcDbEntity
  8
LAY-10
  6
CONTINUOUS
 62
     7
100
AcDbLine
 10
500.9999999999999
 20
1133.5
 30
0.0
 11
500.9999999999999
 21
1113.5
 31
0.0
  0
LINE
  5
141
330
1F
100
AcDbEntity
  8
LAY-10
  6
CONTINUOUS
 62
     7
100
AcDbLine
 10
500.9999999999999
 20
1113.5
 30
0.0
 11
480.9999999999999
 21
1113.5
 31
0.0
  0
LINE
  5
142
330
1F
100
AcDbEntity
  8
LAY-10
  6
CONTINUOUS
 62
     7
100
AcDbLine
 10
480.9999999999999
 20
1113.5
 30
0.0
 11
480.9999999999999
 21
1133.5
 31
0.0
  0
LINE
  5
143
330
1F
100
AcDbEntity
  8
LAY-10
  6
CONTINUOUS
 62
     7
100
AcDbLine
 10
516.4999999999999
 20
1133.5
 30
0.0
 11
536.4999999999999
 21
1133.5
 31
0.0
  0
LINE
  5
144
330
1F
100
AcDbEntity
  8
LAY-10
  6
CONTINUOUS
 62
     7
100
AcDbLine
 10
536.4999999999999
 20
1133.5
 30
0.0
 11
536.4999999999999
 21
1113.5
 31
0.0
  0
LINE
  5
145
330
1F
100
AcDbEntity
  8
LAY-10
  6
CONTINUOUS
 62
     7
100
AcDbLine
 10
536.4999999999999
 20
1113.5
 30
0.0
 11
516.4999999999999
 21
1113.5
 31
0.0
  0
LINE
  5
146
330
1F
100
AcDbEntity
  8
LAY-10
  6
CONTINUOUS
 62
     7
100
AcDbLine
 10
516.4999999999999
 20
1113.5
 30
0.0
 11
516.4999999999999
 21
1133.5
 31
0.0
  0
LINE
  5
147
330
1F
100
AcDbEntity
  8
LAY-10
  6
CONTINUOUS
 62
     7
100
AcDbLine
 10
551.9999999999999
 20
1133.5
 30
0.0
 11
571.9999999999999
 21
1133.5
 31
0.0
  0
LINE
  5
148
330
1F
100
AcDbEntity
  8
LAY-10
  6
CONTINUOUS
 62
     7
100
AcDbLine
 10
571.9999999999999
 20
1133.5
 30
0.0
 11
571.9999999999999
 21
1113.5
 31
0.0
  0
LINE
  5
149
330
1F
100
AcDbEntity
  8
LAY-10
  6
CONTINUOUS
 62
     7
100
AcDbLine
 10
571.9999999999999
 20
1113.5
 30
0.0
 11
551.9999999999999
 21
1113.5
 31
0.0
  0
LINE
  5
14A
330
1F
100
AcDbEntity
  8
LAY-10
  6
CONTINUOUS
 62
     7
100
AcDbLine
 10
551.9999999999999
 20
1113.5
 30
0.0
 11
551.9999999999999
 21
1133.5
 31
0.0
  0
LINE
  5
14B
330
1F
100
AcDbEntity
  8
LAY-10
  6
CONTINUOUS
 62
     7
100
AcDbLine
 10
587.4999999999998
 20
1133.5
 30
0.0
 11
607.4999999999998
 21
1133.5
 31
0.0
  0
LINE
  5
14C
330
1F
100
AcDbEntity
  8
LAY-10
  6
CONTINUOUS
 62
     7
100
AcDbLine
 10
607.4999999999998
 20
1133.5
 30
0.0
 11
607.4999999999998
 21
1113.5
 31
0.0
  0
LINE
  5
14D
330
1F
100
AcDbEntity
  8
LAY-10
  6
CONTINUOUS
 62
     7
100
AcDbLine
 10
607.4999999999998
 20
1113.5
 30
0.0
 11
587.4999999999998
 21
1113.5
 31
0.0
  0
LINE
  5
14E
330
1F
100
AcDbEntity
  8
LAY-10
  6
CONTINUOUS
 62
     7
100
AcDbLine
 10
587.4999999999998
 20
1113.5
 30
0.0
 11
587.4999999999998
 21
1133.5
 31
0.0
  0
LINE
  5
14F
330
1F
100
AcDbEntity
  8
LAY-10
  6
CONTINUOUS
 62
     7
100
AcDbLine
 10
622.9999999999999
 20
1133.5
 30
0.0
 11
642.9999999999999
 21
1133.5
 31
0.0
  0
LINE
  5
150
330
1F
100
AcDbEntity
  8
LAY-10
  6
CONTINUOUS
 62
     7
100
AcDbLine
 10
642.9999999999999
 20
1133.5
 30
0.0
 11
642.9999999999999
 21
1113.5
 31
0.0
  0
LINE
  5
151
330
1F
100
AcDbEntity
  8
LAY-10
  6
CONTINUOUS
 62
     7
100
AcDbLine
 10
642.9999999999999
 20
1113.5
 30
0.0
 11
622.9999999999999
 21
1113.5
 31
0.0
  0
LINE
  5
152
330
1F
100
AcDbEntity
  8
LAY-10
  6
CONTINUOUS
 62
     7
100
AcDbLine
 10
622.9999999999999
 20
1113.5
 30
0.0
 11
622.9999999999999
 21
1133.5
 31
0.0
  0
LINE
  5
153
330
1F
100
AcDbEntity
  8
LAY-10
  6
CONTINUOUS
 62
     7
100
AcDbLine
 10
658.4999999999999
 20
1133.5
 30
0.0
 11
678.4999999999999
 21
1133.5
 31
0.0
  0
LINE
  5
154
330
1F
100
AcDbEntity
  8
LAY-10
  6
CONTINUOUS
 62
     7
100
AcDbLine
 10
678.4999999999999
 20
1133.5
 30
0.0
 11
678.4999999999999
 21
1113.5
 31
0.0
  0
LINE
  5
155
330
1F
100
AcDbEntity
  8
LAY-10
  6
CONTINUOUS
 62
     7
100
AcDbLine
 10
678.4999999999999
 20
1113.5
 30
0.0
 11
658.4999999999999
 21
1113.5
 31
0.0
  0
LINE
  5
156
330
1F
100
AcDbEntity
  8
LAY-10
  6
CONTINUOUS
 62
     7
100
AcDbLine
 10
658.4999999999999
 20
1113.5
 30
0.0
 11
658.4999999999999
 21
1133.5
 31
0.0
  0
LINE
  5
157
330
1F
100
AcDbEntity
  8
LAY-10
  6
CONTINUOUS
 62
     7
100
AcDbLine
 10
693.9999999999999
 20
1133.5
 30
0.0
 11
713.9999999999999
 21
1133.5
 31
0.0
  0
LINE
  5
158
330
1F
100
AcDbEntity
  8
LAY-10
  6
CONTINUOUS
 62
     7
100
AcDbLine
 10
713.9999999999999
 20
1133.5
 30
0.0
 11
713.9999999999999
 21
1113.5
 31
0.0
  0
LINE
  5
159
330
1F
100
AcDbEntity
  8
LAY-10
  6
CONTINUOUS
 62
     7
100
AcDbLine
 10
713.9999999999999
 20
1113.5
 30
0.0
 11
693.9999999999999
 21
1113.5
 31
0.0
  0
LINE
  5
15A
330
1F
100
AcDbEntity
  8
LAY-10
  6
CONTINUOUS
 62
     7
100
AcDbLine
 10
693.9999999999999
 20
1113.5
 30
0.0
 11
693.9999999999999
 21
1133.5
 31
0.0
  0
LINE
  5
15B
330
1F
100
AcDbEntity
  8
LAY-10
  6
CONTINUOUS
 62
     7
100
AcDbLine
 10
729.4999999999999
 20
1133.5
 30
0.0
 11
749.4999999999999
 21
1133.5
 31
0.0
  0
LINE
  5
15C
330
1F
100
AcDbEntity
  8
LAY-10
  6
CONTINUOUS
 62
     7
100
AcDbLine
 10
749.4999999999999
 20
1133.5
 30
0.0
 11
749.4999999999999
 21
1113.5
 31
0.0
  0
LINE
  5
15D
330
1F
100
AcDbEntity
  8
LAY-10
  6
CONTINUOUS
 62
     7
100
AcDbLine
 10
749.4999999999999
 20
1113.5
 30
0.0
 11
729.4999999999999
 21
1113.5
 31
0.0
  0
LINE
  5
15E
330
1F
100
AcDbEntity
  8
LAY-10
  6
CONTINUOUS
 62
     7
100
AcDbLine
 10
729.4999999999999
 20
1113.5
 30
0.0
 11
729.4999999999999
 21
1133.5
 31
0.0
  0
LINE
  5
15F
330
1F
100
AcDbEntity
  8
LAY-10
  6
CONTINUOUS
 62
     7
100
AcDbLine
 10
765.0
 20
1133.5
 30
0.0
 11
785.0
 21
1133.5
 31
0.0
  0
LINE
  5
160
330
1F
100
AcDbEntity
  8
LAY-10
  6
CONTINUOUS
 62
     7
100
AcDbLine
 10
785.0
 20
1133.5
 30
0.0
 11
785.0
 21
1113.5
 31
0.0
  0
LINE
  5
161
330
1F
100
AcDbEntity
  8
LAY-10
  6
CONTINUOUS
 62
     7
100
AcDbLine
 10
785.0
 20
1113.5
 30
0.0
 11
765.0
 21
1113.5
 31
0.0
  0
LINE
  5
162
330
1F
100
AcDbEntity
  8
LAY-10
  6
CONTINUOUS
 62
     7
100
AcDbLine
 10
765.0
 20
1113.5
 30
0.0
 11
765.0
 21
1133.5
 31
0.0
  0
LINE
  5
163
330
1F
100
AcDbEntity
  8
LAY-10
  6
CONTINUOUS
 62
     7
100
AcDbLine
 10
1069.0
 20
1133.5
 30
0.0
 11
1049.0
 21
1133.5
 31
0.0
  0
LINE
  5
164
330
1F
100
AcDbEntity
  8
LAY-10
  6
CONTINUOUS
 62
     7
100
AcDbLine
 10
1049.0
 20
1133.5
 30
0.0
 11
1049.0
 21
1113.5
 31
0.0
  0
LINE
  5
165
330
1F
100
AcDbEntity
  8
LAY-10
  6
CONTINUOUS
 62
     7
100
AcDbLine
 10
1049.0
 20
1113.5
 30
0.0
 11
1069.0
 21
1113.5
 31
0.0
  0
LINE
  5
166
330
1F
100
AcDbEntity
  8
LAY-10
  6
CONTINUOUS
 62
     7
100
AcDbLine
 10
1069.0
 20
1113.5
 30
0.0
 11
1069.0
 21
1133.5
 31
0.0
  0
LINE
  5
167
330
1F
100
AcDbEntity
  8
LAY-10
  6
CONTINUOUS
 62
     7
100
AcDbLine
 10
1033.5
 20
1133.5
 30
0.0
 11
1013.5
 21
1133.5
 31
0.0
  0
LINE
  5
168
330
1F
100
AcDbEntity
  8
LAY-10
  6
CONTINUOUS
 62
     7
100
AcDbLine
 10
1013.5
 20
1133.5
 30
0.0
 11
1013.5
 21
1113.5
 31
0.0
  0
LINE
  5
169
330
1F
100
AcDbEntity
  8
LAY-10
  6
CONTINUOUS
 62
     7
100
AcDbLine
 10
1013.5
 20
1113.5
 30
0.0
 11
1033.5
 21
1113.5
 31
0.0
  0
LINE
  5
16A
330
1F
100
AcDbEntity
  8
LAY-10
  6
CONTINUOUS
 62
     7
100
AcDbLine
 10
1033.5
 20
1113.5
 30
0.0
 11
1033.5
 21
1133.5
 31
0.0
  0
LINE
  5
16B
330
1F
100
AcDbEntity
  8
LAY-10
  6
CONTINUOUS
 62
     7
100
AcDbLine
 10
997.9999999999999
 20
1133.5
 30
0.0
 11
977.9999999999999
 21
1133.5
 31
0.0
  0
LINE
  5
16C
330
1F
100
AcDbEntity
  8
LAY-10
  6
CONTINUOUS
 62
     7
100
AcDbLine
 10
977.9999999999999
 20
1133.5
 30
0.0
 11
977.9999999999999
 21
1113.5
 31
0.0
  0
LINE
  5
16D
330
1F
100
AcDbEntity
  8
LAY-10
  6
CONTINUOUS
 62
     7
100
AcDbLine
 10
977.9999999999999
 20
1113.5
 30
0.0
 11
997.9999999999999
 21
1113.5
 31
0.0
  0
LINE
  5
16E
330
1F
100
AcDbEntity
  8
LAY-10
  6
CONTINUOUS
 62
     7
100
AcDbLine
 10
997.9999999999999
 20
1113.5
 30
0.0
 11
997.9999999999999
 21
1133.5
 31
0.0
  0
LINE
  5
16F
330
1F
100
AcDbEntity
  8
LAY-10
  6
CONTINUOUS
 62
     7
100
AcDbLine
 10
962.5
 20
1133.5
 30
0.0
 11
942.5
 21
1133.5
 31
0.0
  0
LINE
  5
170
330
1F
100
AcDbEntity
  8
LAY-10
  6
CONTINUOUS
 62
     7
100
AcDbLine
 10
942.5
 20
1133.5
 30
0.0
 11
942.5
 21
1113.5
 31
0.0
  0
LINE
  5
171
330
1F
100
AcDbEntity
  8
LAY-10
  6
CONTINUOUS
 62
     7
100
AcDbLine
 10
942.5
 20
1113.5
 30
0.0
 11
962.5
 21
1113.5
 31
0.0
  0
LINE
  5
172
330
1F
100
AcDbEntity
  8
LAY-10
  6
CONTINUOUS
 62
     7
100
AcDbLine
 10
962.5
 20
1113.5
 30
0.0
 11
962.5
 21
1133.5
 31
0.0
  0
LINE
  5
173
330
1F
100
AcDbEntity
  8
LAY-10
  6
CONTINUOUS
 62
     7
100
AcDbLine
 10
926.9999999999999
 20
1133.5
 30
0.0
 11
906.9999999999999
 21
1133.5
 31
0.0
  0
LINE
  5
174
330
1F
100
AcDbEntity
  8
LAY-10
  6
CONTINUOUS
 62
     7
100
AcDbLine
 10
906.9999999999999
 20
1133.5
 30
0.0
 11
906.9999999999999
 21
1113.5
 31
0.0
  0
LINE
  5
175
330
1F
100
AcDbEntity
  8
LAY-10
  6
CONTINUOUS
 62
     7
100
AcDbLine
 10
906.9999999999999
 20
1113.5
 30
0.0
 11
926.9999999999999
 21
1113.5
 31
0.0
  0
LINE
  5
176
330
1F
100
AcDbEntity
  8
LAY-10
  6
CONTINUOUS
 62
     7
100
AcDbLine
 10
926.9999999999999
 20
1113.5
 30
0.0
 11
926.9999999999999
 21
1133.5
 31
0.0
  0
LINE
  5
177
330
1F
100
AcDbEntity
  8
LAY-10
  6
CONTINUOUS
 62
     7
100
AcDbLine
 10
891.4999999999999
 20
1133.5
 30
0.0
 11
871.4999999999999
 21
1133.5
 31
0.0
  0
LINE
  5
178
330
1F
100
AcDbEntity
  8
LAY-10
  6
CONTINUOUS
 62
     7
100
AcDbLine
 10
871.4999999999999
 20
1133.5
 30
0.0
 11
871.4999999999999
 21
1113.5
 31
0.0
  0
LINE
  5
179
330
1F
100
AcDbEntity
  8
LAY-10
  6
CONTINUOUS
 62
     7
100
AcDbLine
 10
871.4999999999999
 20
1113.5
 30
0.0
 11
891.4999999999999
 21
1113.5
 31
0.0
  0
LINE
  5
17A
330
1F
100
AcDbEntity
  8
LAY-10
  6
CONTINUOUS
 62
     7
100
AcDbLine
 10
891.4999999999999
 20
1113.5
 30
0.0
 11
891.4999999999999
 21
1133.5
 31
0.0
  0
LINE
  5
17B
330
1F
100
AcDbEntity
  8
LAY-10
  6
CONTINUOUS
 62
     7
100
AcDbLine
 10
855.9999999999999
 20
1133.5
 30
0.0
 11
835.9999999999999
 21
1133.5
 31
0.0
  0
LINE
  5
17C
330
1F
100
AcDbEntity
  8
LAY-10
  6
CONTINUOUS
 62
     7
100
AcDbLine
 10
835.9999999999999
 20
1133.5
 30
0.0
 11
835.9999999999999
 21
1113.5
 31
0.0
  0
LINE
  5
17D
330
1F
100
AcDbEntity
  8
LAY-10
  6
CONTINUOUS
 62
     7
100
AcDbLine
 10
835.9999999999999
 20
1113.5
 30
0.0
 11
855.9999999999999
 21
1113.5
 31
0.0
  0
LINE
  5
17E
330
1F
100
AcDbEntity
  8
LAY-10
  6
CONTINUOUS
 62
     7
100
AcDbLine
 10
855.9999999999999
 20
1113.5
 30
0.0
 11
855.9999999999999
 21
1133.5
 31
0.0
  0
LINE
  5
17F
330
1F
100
AcDbEntity
  8
LAY-10
  6
CONTINUOUS
 62
     7
100
AcDbLine
 10
820.4999999999999
 20
1133.5
 30
0.0
 11
800.4999999999999
 21
1133.5
 31
0.0
  0
LINE
  5
180
330
1F
100
AcDbEntity
  8
LAY-10
  6
CONTINUOUS
 62
     7
100
AcDbLine
 10
800.4999999999999
 20
1133.5
 30
0.0
 11
800.4999999999999
 21
1113.5
 31
0.0
  0
LINE
  5
181
330
1F
100
AcDbEntity
  8
LAY-10
  6
CONTINUOUS
 62
     7
100
AcDbLine
 10
800.4999999999999
 20
1113.5
 30
0.0
 11
820.4999999999999
 21
1113.5
 31
0.0
  0
LINE
  5
182
330
1F
100
AcDbEntity
  8
LAY-10
  6
CONTINUOUS
 62
     7
100
AcDbLine
 10
820.4999999999999
 20
1113.5
 30
0.0
 11
820.4999999999999
 21
1133.5
 31
0.0
  0
LINE
  5
183
330
1F
100
AcDbEntity
  8
LAY-10
  6
CONTINUOUS
 62
     7
100
AcDbLine
 10
480.9999999999999
 20
1098.0
 30
0.0
 11
500.9999999999999
 21
1098.0
 31
0.0
  0
LINE
  5
184
330
1F
100
AcDbEntity
  8
LAY-10
  6
CONTINUOUS
 62
     7
100
AcDbLine
 10
500.9999999999999
 20
1098.0
 30
0.0
 11
500.9999999999999
 21
1078.0
 31
0.0
  0
LINE
  5
185
330
1F
100
AcDbEntity
  8
LAY-10
  6
CONTINUOUS
 62
     7
100
AcDbLine
 10
500.9999999999999
 20
1078.0
 30
0.0
 11
480.9999999999999
 21
1078.0
 31
0.0
  0
LINE
  5
186
330
1F
100
AcDbEntity
  8
LAY-10
  6
CONTINUOUS
 62
     7
100
AcDbLine
 10
480.9999999999999
 20
1078.0
 30
0.0
 11
480.9999999999999
 21
1098.0
 31
0.0
  0
LINE
  5
187
330
1F
100
AcDbEntity
  8
LAY-10
  6
CONTINUOUS
 62
     7
100
AcDbLine
 10
516.4999999999999
 20
1098.0
 30
0.0
 11
536.4999999999999
 21
1098.0
 31
0.0
  0
LINE
  5
188
330
1F
100
AcDbEntity
  8
LAY-10
  6
CONTINUOUS
 62
     7
100
AcDbLine
 10
536.4999999999999
 20
1098.0
 30
0.0
 11
536.4999999999999
 21
1078.0
 31
0.0
  0
LINE
  5
189
330
1F
100
AcDbEntity
  8
LAY-10
  6
CONTINUOUS
 62
     7
100
AcDbLine
 10
536.4999999999999
 20
1078.0
 30
0.0
 11
516.4999999999999
 21
1078.0
 31
0.0
  0
LINE
  5
18A
330
1F
100
AcDbEntity
  8
LAY-10
  6
CONTINUOUS
 62
     7
100
AcDbLine
 10
516.4999999999999
 20
1078.0
 30
0.0
 11
516.4999999999999
 21
1098.0
 31
0.0
  0
LINE
  5
18B
330
1F
100
AcDbEntity
  8
LAY-10
  6
CONTINUOUS
 62
     7
100
AcDbLine
 10
551.9999999999999
 20
1098.0
 30
0.0
 11
571.9999999999999
 21
1098.0
 31
0.0
  0
LINE
  5
18C
330
1F
100
AcDbEntity
  8
LAY-10
  6
CONTINUOUS
 62
     7
100
AcDbLine
 10
571.9999999999999
 20
1098.0
 30
0.0
 11
571.9999999999999
 21
1078.0
 31
0.0
  0
LINE
  5
18D
330
1F
100
AcDbEntity
  8
LAY-10
  6
CONTINUOUS
 62
     7
100
AcDbLine
 10
571.9999999999999
 20
1078.0
 30
0.0
 11
551.9999999999999
 21
1078.0
 31
0.0
  0
LINE
  5
18E
330
1F
100
AcDbEntity
  8
LAY-10
  6
CONTINUOUS
 62
     7
100
AcDbLine
 10
551.9999999999999
 20
1078.0
 30
0.0
 11
551.9999999999999
 21
1098.0
 31
0.0
  0
LINE
  5
18F
330
1F
100
AcDbEntity
  8
LAY-10
  6
CONTINUOUS
 62
     7
100
AcDbLine
 10
587.4999999999998
 20
1098.0
 30
0.0
 11
607.4999999999998
 21
1098.0
 31
0.0
  0
LINE
  5
190
330
1F
100
AcDbEntity
  8
LAY-10
  6
CONTINUOUS
 62
     7
100
AcDbLine
 10
607.4999999999998
 20
1098.0
 30
0.0
 11
607.4999999999998
 21
1078.0
 31
0.0
  0
LINE
  5
191
330
1F
100
AcDbEntity
  8
LAY-10
  6
CONTINUOUS
 62
     7
100
AcDbLine
 10
607.4999999999998
 20
1078.0
 30
0.0
 11
587.4999999999998
 21
1078.0
 31
0.0
  0
LINE
  5
192
330
1F
100
AcDbEntity
  8
LAY-10
  6
CONTINUOUS
 62
     7
100
AcDbLine
 10
587.4999999999998
 20
1078.0
 30
0.0
 11
587.4999999999998
 21
1098.0
 31
0.0
  0
LINE
  5
193
330
1F
100
AcDbEntity
  8
LAY-10
  6
CONTINUOUS
 62
     7
100
AcDbLine
 10
622.9999999999999
 20
1098.0
 30
0.0
 11
642.9999999999999
 21
1098.0
 31
0.0
  0
LINE
  5
194
330
1F
100
AcDbEntity
  8
LAY-10
  6
CONTINUOUS
 62
     7
100
AcDbLine
 10
642.9999999999999
 20
1098.0
 30
0.0
 11
642.9999999999999
 21
1078.0
 31
0.0
  0
LINE
  5
195
330
1F
100
AcDbEntity
  8
LAY-10
  6
CONTINUOUS
 62
     7
100
AcDbLine
 10
642.9999999999999
 20
1078.0
 30
0.0
 11
622.9999999999999
 21
1078.0
 31
0.0
  0
LINE
  5
196
330
1F
100
AcDbEntity
  8
LAY-10
  6
CONTINUOUS
 62
     7
100
AcDbLine
 10
622.9999999999999
 20
1078.0
 30
0.0
 11
622.9999999999999
 21
1098.0
 31
0.0
  0
LINE
  5
197
330
1F
100
AcDbEntity
  8
LAY-10
  6
CONTINUOUS
 62
     7
100
AcDbLine
 10
658.4999999999999
 20
1098.0
 30
0.0
 11
678.4999999999999
 21
1098.0
 31
0.0
  0
LINE
  5
198
330
1F
100
AcDbEntity
  8
LAY-10
  6
CONTINUOUS
 62
     7
100
AcDbLine
 10
678.4999999999999
 20
1098.0
 30
0.0
 11
678.4999999999999
 21
1078.0
 31
0.0
  0
LINE
  5
199
330
1F
100
AcDbEntity
  8
LAY-10
  6
CONTINUOUS
 62
     7
100
AcDbLine
 10
678.4999999999999
 20
1078.0
 30
0.0
 11
658.4999999999999
 21
1078.0
 31
0.0
  0
LINE
  5
19A
330
1F
100
AcDbEntity
  8
LAY-10
  6
CONTINUOUS
 62
     7
100
AcDbLine
 10
658.4999999999999
 20
1078.0
 30
0.0
 11
658.4999999999999
 21
1098.0
 31
0.0
  0
LINE
  5
19B
330
1F
100
AcDbEntity
  8
LAY-10
  6
CONTINUOUS
 62
     7
100
AcDbLine
 10
693.9999999999999
 20
1098.0
 30
0.0
 11
713.9999999999999
 21
1098.0
 31
0.0
  0
LINE
  5
19C
330
1F
100
AcDbEntity
  8
LAY-10
  6
CONTINUOUS
 62
     7
100
AcDbLine
 10
713.9999999999999
 20
1098.0
 30
0.0
 11
713.9999999999999
 21
1078.0
 31
0.0
  0
LINE
  5
19D
330
1F
100
AcDbEntity
  8
LAY-10
  6
CONTINUOUS
 62
     7
100
AcDbLine
 10
713.9999999999999
 20
1078.0
 30
0.0
 11
693.9999999999999
 21
1078.0
 31
0.0
  0
LINE
  5
19E
330
1F
100
AcDbEntity
  8
LAY-10
  6
CONTINUOUS
 62
     7
100
AcDbLine
 10
693.9999999999999
 20
1078.0
 30
0.0
 11
693.9999999999999
 21
1098.0
 31
0.0
  0
LINE
  5
19F
330
1F
100
AcDbEntity
  8
LAY-10
  6
CONTINUOUS
 62
     7
100
AcDbLine
 10
729.4999999999999
 20
1098.0
 30
0.0
 11
749.4999999999999
 21
1098.0
 31
0.0
  0
LINE
  5
1A0
330
1F
100
AcDbEntity
  8
LAY-10
  6
CONTINUOUS
 62
     7
100
AcDbLine
 10
749.4999999999999
 20
1098.0
 30
0.0
 11
749.4999999999999
 21
1078.0
 31
0.0
  0
LINE
  5
1A1
330
1F
100
AcDbEntity
  8
LAY-10
  6
CONTINUOUS
 62
     7
100
AcDbLine
 10
749.4999999999999
 20
1078.0
 30
0.0
 11
729.4999999999999
 21
1078.0
 31
0.0
  0
LINE
  5
1A2
330
1F
100
AcDbEntity
  8
LAY-10
  6
CONTINUOUS
 62
     7
100
AcDbLine
 10
729.4999999999999
 20
1078.0
 30
0.0
 11
729.4999999999999
 21
1098.0
 31
0.0
  0
LINE
  5
1A3
330
1F
100
AcDbEntity
  8
LAY-10
  6
CONTINUOUS
 62
     7
100
AcDbLine
 10
765.0
 20
1098.0
 30
0.0
 11
785.0
 21
1098.0
 31
0.0
  0
LINE
  5
1A4
330
1F
100
AcDbEntity
  8
LAY-10
  6
CONTINUOUS
 62
     7
100
AcDbLine
 10
785.0
 20
1098.0
 30
0.0
 11
785.0
 21
1078.0
 31
0.0
  0
LINE
  5
1A5
330
1F
100
AcDbEntity
  8
LAY-10
  6
CONTINUOUS
 62
     7
100
AcDbLine
 10
785.0
 20
1078.0
 30
0.0
 11
765.0
 21
1078.0
 31
0.0
  0
LINE
  5
1A6
330
1F
100
AcDbEntity
  8
LAY-10
  6
CONTINUOUS
 62
     7
100
AcDbLine
 10
765.0
 20
1078.0
 30
0.0
 11
765.0
 21
1098.0
 31
0.0
  0
LINE
  5
1A7
330
1F
100
AcDbEntity
  8
LAY-10
  6
CONTINUOUS
 62
     7
100
AcDbLine
 10
1069.0
 20
1098.0
 30
0.0
 11
1049.0
 21
1098.0
 31
0.0
  0
LINE
  5
1A8
330
1F
100
AcDbEntity
  8
LAY-10
  6
CONTINUOUS
 62
     7
100
AcDbLine
 10
1049.0
 20
1098.0
 30
0.0
 11
1049.0
 21
1078.0
 31
0.0
  0
LINE
  5
1A9
330
1F
100
AcDbEntity
  8
LAY-10
  6
CONTINUOUS
 62
     7
100
AcDbLine
 10
1049.0
 20
1078.0
 30
0.0
 11
1069.0
 21
1078.0
 31
0.0
  0
LINE
  5
1AA
330
1F
100
AcDbEntity
  8
LAY-10
  6
CONTINUOUS
 62
     7
100
AcDbLine
 10
1069.0
 20
1078.0
 30
0.0
 11
1069.0
 21
1098.0
 31
0.0
  0
LINE
  5
1AB
330
1F
100
AcDbEntity
  8
LAY-10
  6
CONTINUOUS
 62
     7
100
AcDbLine
 10
1033.5
 20
1098.0
 30
0.0
 11
1013.5
 21
1098.0
 31
0.0
  0
LINE
  5
1AC
330
1F
100
AcDbEntity
  8
LAY-10
  6
CONTINUOUS
 62
     7
100
AcDbLine
 10
1013.5
 20
1098.0
 30
0.0
 11
1013.5
 21
1078.0
 31
0.0
  0
LINE
  5
1AD
330
1F
100
AcDbEntity
  8
LAY-10
  6
CONTINUOUS
 62
     7
100
AcDbLine
 10
1013.5
 20
1078.0
 30
0.0
 11
1033.5
 21
1078.0
 31
0.0
  0
LINE
  5
1AE
330
1F
100
AcDbEntity
  8
LAY-10
  6
CONTINUOUS
 62
     7
100
AcDbLine
 10
1033.5
 20
1078.0
 30
0.0
 11
1033.5
 21
1098.0
 31
0.0
  0
LINE
  5
1AF
330
1F
100
AcDbEntity
  8
LAY-10
  6
CONTINUOUS
 62
     7
100
AcDbLine
 10
997.9999999999999
 20
1098.0
 30
0.0
 11
977.9999999999999
 21
1098.0
 31
0.0
  0
LINE
  5
1B0
330
1F
100
AcDbEntity
  8
LAY-10
  6
CONTINUOUS
 62
     7
100
AcDbLine
 10
977.9999999999999
 20
1098.0
 30
0.0
 11
977.9999999999999
 21
1078.0
 31
0.0
  0
LINE
  5
1B1
330
1F
100
AcDbEntity
  8
LAY-10
  6
CONTINUOUS
 62
     7
100
AcDbLine
 10
977.9999999999999
 20
1078.0
 30
0.0
 11
997.9999999999999
 21
1078.0
 31
0.0
  0
LINE
  5
1B2
330
1F
100
AcDbEntity
  8
LAY-10
  6
CONTINUOUS
 62
     7
100
AcDbLine
 10
997.9999999999999
 20
1078.0
 30
0.0
 11
997.9999999999999
 21
1098.0
 31
0.0
  0
LINE
  5
1B3
330
1F
100
AcDbEntity
  8
LAY-10
  6
CONTINUOUS
 62
     7
100
AcDbLine
 10
962.5
 20
1098.0
 30
0.0
 11
942.5
 21
1098.0
 31
0.0
  0
LINE
  5
1B4
330
1F
100
AcDbEntity
  8
LAY-10
  6
CONTINUOUS
 62
     7
100
AcDbLine
 10
942.5
 20
1098.0
 30
0.0
 11
942.5
 21
1078.0
 31
0.0
  0
LINE
  5
1B5
330
1F
100
AcDbEntity
  8
LAY-10
  6
CONTINUOUS
 62
     7
100
AcDbLine
 10
942.5
 20
1078.0
 30
0.0
 11
962.5
 21
1078.0
 31
0.0
  0
LINE
  5
1B6
330
1F
100
AcDbEntity
  8
LAY-10
  6
CONTINUOUS
 62
     7
100
AcDbLine
 10
962.5
 20
1078.0
 30
0.0
 11
962.5
 21
1098.0
 31
0.0
  0
LINE
  5
1B7
330
1F
100
AcDbEntity
  8
LAY-10
  6
CONTINUOUS
 62
     7
100
AcDbLine
 10
926.9999999999999
 20
1098.0
 30
0.0
 11
906.9999999999999
 21
1098.0
 31
0.0
  0
LINE
  5
1B8
330
1F
100
AcDbEntity
  8
LAY-10
  6
CONTINUOUS
 62
     7
100
AcDbLine
 10
906.9999999999999
 20
1098.0
 30
0.0
 11
906.9999999999999
 21
1078.0
 31
0.0
  0
LINE
  5
1B9
330
1F
100
AcDbEntity
  8
LAY-10
  6
CONTINUOUS
 62
     7
100
AcDbLine
 10
906.9999999999999
 20
1078.0
 30
0.0
 11
926.9999999999999
 21
1078.0
 31
0.0
  0
LINE
  5
1BA
330
1F
100
AcDbEntity
  8
LAY-10
  6
CONTINUOUS
 62
     7
100
AcDbLine
 10
926.9999999999999
 20
1078.0
 30
0.0
 11
926.9999999999999
 21
1098.0
 31
0.0
  0
LINE
  5
1BB
330
1F
100
AcDbEntity
  8
LAY-10
  6
CONTINUOUS
 62
     7
100
AcDbLine
 10
891.4999999999999
 20
1098.0
 30
0.0
 11
871.4999999999999
 21
1098.0
 31
0.0
  0
LINE
  5
1BC
330
1F
100
AcDbEntity
  8
LAY-10
  6
CONTINUOUS
 62
     7
100
AcDbLine
 10
871.4999999999999
 20
1098.0
 30
0.0
 11
871.4999999999999
 21
1078.0
 31
0.0
  0
LINE
  5
1BD
330
1F
100
AcDbEntity
  8
LAY-10
  6
CONTINUOUS
 62
     7
100
AcDbLine
 10
871.4999999999999
 20
1078.0
 30
0.0
 11
891.4999999999999
 21
1078.0
 31
0.0
  0
LINE
  5
1BE
330
1F
100
AcDbEntity
  8
LAY-10
  6
CONTINUOUS
 62
     7
100
AcDbLine
 10
891.4999999999999
 20
1078.0
 30
0.0
 11
891.4999999999999
 21
1098.0
 31
0.0
  0
LINE
  5
1BF
330
1F
100
AcDbEntity
  8
LAY-10
  6
CONTINUOUS
 62
     7
100
AcDbLine
 10
855.9999999999999
 20
1098.0
 30
0.0
 11
835.9999999999999
 21
1098.0
 31
0.0
  0
LINE
  5
1C0
330
1F
100
AcDbEntity
  8
LAY-10
  6
CONTINUOUS
 62
     7
100
AcDbLine
 10
835.9999999999999
 20
1098.0
 30
0.0
 11
835.9999999999999
 21
1078.0
 31
0.0
  0
LINE
  5
1C1
330
1F
100
AcDbEntity
  8
LAY-10
  6
CONTINUOUS
 62
     7
100
AcDbLine
 10
835.9999999999999
 20
1078.0
 30
0.0
 11
855.9999999999999
 21
1078.0
 31
0.0
  0
LINE
  5
1C2
330
1F
100
AcDbEntity
  8
LAY-10
  6
CONTINUOUS
 62
     7
100
AcDbLine
 10
855.9999999999999
 20
1078.0
 30
0.0
 11
855.9999999999999
 21
1098.0
 31
0.0
  0
LINE
  5
1C3
330
1F
100
AcDbEntity
  8
LAY-10
  6
CONTINUOUS
 62
     7
100
AcDbLine
 10
820.4999999999999
 20
1098.0
 30
0.0
 11
800.4999999999999
 21
1098.0
 31
0.0
  0
LINE
  5
1C4
330
1F
100
AcDbEntity
  8
LAY-10
  6
CONTINUOUS
 62
     7
100
AcDbLine
 10
800.4999999999999
 20
1098.0
 30
0.0
 11
800.4999999999999
 21
1078.0
 31
0.0
  0
LINE
  5
1C5
330
1F
100
AcDbEntity
  8
LAY-10
  6
CONTINUOUS
 62
     7
100
AcDbLine
 10
800.4999999999999
 20
1078.0
 30
0.0
 11
820.4999999999999
 21
1078.0
 31
0.0
  0
LINE
  5
1C6
330
1F
100
AcDbEntity
  8
LAY-10
  6
CONTINUOUS
 62
     7
100
AcDbLine
 10
820.4999999999999
 20
1078.0
 30
0.0
 11
820.4999999999999
 21
1098.0
 31
0.0
  0
LINE
  5
1C7
330
1F
100
AcDbEntity
  8
LAY-10
  6
CONTINUOUS
 62
     7
100
AcDbLine
 10
480.9999999999999
 20
1062.5
 30
0.0
 11
500.9999999999999
 21
1062.5
 31
0.0
  0
LINE
  5
1C8
330
1F
100
AcDbEntity
  8
LAY-10
  6
CONTINUOUS
 62
     7
100
AcDbLine
 10
500.9999999999999
 20
1062.5
 30
0.0
 11
500.9999999999999
 21
1042.5
 31
0.0
  0
LINE
  5
1C9
330
1F
100
AcDbEntity
  8
LAY-10
  6
CONTINUOUS
 62
     7
100
AcDbLine
 10
500.9999999999999
 20
1042.5
 30
0.0
 11
480.9999999999999
 21
1042.5
 31
0.0
  0
LINE
  5
1CA
330
1F
100
AcDbEntity
  8
LAY-10
  6
CONTINUOUS
 62
     7
100
AcDbLine
 10
480.9999999999999
 20
1042.5
 30
0.0
 11
480.9999999999999
 21
1062.5
 31
0.0
  0
LINE
  5
1CB
330
1F
100
AcDbEntity
  8
LAY-10
  6
CONTINUOUS
 62
     7
100
AcDbLine
 10
516.4999999999999
 20
1062.5
 30
0.0
 11
536.4999999999999
 21
1062.5
 31
0.0
  0
LINE
  5
1CC
330
1F
100
AcDbEntity
  8
LAY-10
  6
CONTINUOUS
 62
     7
100
AcDbLine
 10
536.4999999999999
 20
1062.5
 30
0.0
 11
536.4999999999999
 21
1042.5
 31
0.0
  0
LINE
  5
1CD
330
1F
100
AcDbEntity
  8
LAY-10
  6
CONTINUOUS
 62
     7
100
AcDbLine
 10
536.4999999999999
 20
1042.5
 30
0.0
 11
516.4999999999999
 21
1042.5
 31
0.0
  0
LINE
  5
1CE
330
1F
100
AcDbEntity
  8
LAY-10
  6
CONTINUOUS
 62
     7
100
AcDbLine
 10
516.4999999999999
 20
1042.5
 30
0.0
 11
516.4999999999999
 21
1062.5
 31
0.0
  0
LINE
  5
1CF
330
1F
100
AcDbEntity
  8
LAY-10
  6
CONTINUOUS
 62
     7
100
AcDbLine
 10
551.9999999999999
 20
1062.5
 30
0.0
 11
571.9999999999999
 21
1062.5
 31
0.0
  0
LINE
  5
1D0
330
1F
100
AcDbEntity
  8
LAY-10
  6
CONTINUOUS
 62
     7
100
AcDbLine
 10
571.9999999999999
 20
1062.5
 30
0.0
 11
571.9999999999999
 21
1042.5
 31
0.0
  0
LINE
  5
1D1
330
1F
100
AcDbEntity
  8
LAY-10
  6
CONTINUOUS
 62
     7
100
AcDbLine
 10
571.9999999999999
 20
1042.5
 30
0.0
 11
551.9999999999999
 21
1042.5
 31
0.0
  0
LINE
  5
1D2
330
1F
100
AcDbEntity
  8
LAY-10
  6
CONTINUOUS
 62
     7
100
AcDbLine
 10
551.9999999999999
 20
1042.5
 30
0.0
 11
551.9999999999999
 21
1062.5
 31
0.0
  0
LINE
  5
1D3
330
1F
100
AcDbEntity
  8
LAY-10
  6
CONTINUOUS
 62
     7
100
AcDbLine
 10
587.4999999999998
 20
1062.5
 30
0.0
 11
607.4999999999998
 21
1062.5
 31
0.0
  0
LINE
  5
1D4
330
1F
100
AcDbEntity
  8
LAY-10
  6
CONTINUOUS
 62
     7
100
AcDbLine
 10
607.4999999999998
 20
1062.5
 30
0.0
 11
607.4999999999998
 21
1042.5
 31
0.0
  0
LINE
  5
1D5
330
1F
100
AcDbEntity
  8
LAY-10
  6
CONTINUOUS
 62
     7
100
AcDbLine
 10
607.4999999999998
 20
1042.5
 30
0.0
 11
587.4999999999998
 21
1042.5
 31
0.0
  0
LINE
  5
1D6
330
1F
100
AcDbEntity
  8
LAY-10
  6
CONTINUOUS
 62
     7
100
AcDbLine
 10
587.4999999999998
 20
1042.5
 30
0.0
 11
587.4999999999998
 21
1062.5
 31
0.0
  0
LINE
  5
1D7
330
1F
100
AcDbEntity
  8
LAY-10
  6
CONTINUOUS
 62
     7
100
AcDbLine
 10
622.9999999999999
 20
1062.5
 30
0.0
 11
642.9999999999999
 21
1062.5
 31
0.0
  0
LINE
  5
1D8
330
1F
100
AcDbEntity
  8
LAY-10
  6
CONTINUOUS
 62
     7
100
AcDbLine
 10
642.9999999999999
 20
1062.5
 30
0.0
 11
642.9999999999999
 21
1042.5
 31
0.0
  0
LINE
  5
1D9
330
1F
100
AcDbEntity
  8
LAY-10
  6
CONTINUOUS
 62
     7
100
AcDbLine
 10
642.9999999999999
 20
1042.5
 30
0.0
 11
622.9999999999999
 21
1042.5
 31
0.0
  0
LINE
  5
1DA
330
1F
100
AcDbEntity
  8
LAY-10
  6
CONTINUOUS
 62
     7
100
AcDbLine
 10
622.9999999999999
 20
1042.5
 30
0.0
 11
622.9999999999999
 21
1062.5
 31
0.0
  0
LINE
  5
1DB
330
1F
100
AcDbEntity
  8
LAY-10
  6
CONTINUOUS
 62
     7
100
AcDbLine
 10
658.4999999999999
 20
1062.5
 30
0.0
 11
678.4999999999999
 21
1062.5
 31
0.0
  0
LINE
  5
1DC
330
1F
100
AcDbEntity
  8
LAY-10
  6
CONTINUOUS
 62
     7
100
AcDbLine
 10
678.4999999999999
 20
1062.5
 30
0.0
 11
678.4999999999999
 21
1042.5
 31
0.0
  0
LINE
  5
1DD
330
1F
100
AcDbEntity
  8
LAY-10
  6
CONTINUOUS
 62
     7
100
AcDbLine
 10
678.4999999999999
 20
1042.5
 30
0.0
 11
658.4999999999999
 21
1042.5
 31
0.0
  0
LINE
  5
1DE
330
1F
100
AcDbEntity
  8
LAY-10
  6
CONTINUOUS
 62
     7
100
AcDbLine
 10
658.4999999999999
 20
1042.5
 30
0.0
 11
658.4999999999999
 21
1062.5
 31
0.0
  0
LINE
  5
1DF
330
1F
100
AcDbEntity
  8
LAY-10
  6
CONTINUOUS
 62
     7
100
AcDbLine
 10
693.9999999999999
 20
1062.5
 30
0.0
 11
713.9999999999999
 21
1062.5
 31
0.0
  0
LINE
  5
1E0
330
1F
100
AcDbEntity
  8
LAY-10
  6
CONTINUOUS
 62
     7
100
AcDbLine
 10
713.9999999999999
 20
1062.5
 30
0.0
 11
713.9999999999999
 21
1042.5
 31
0.0
  0
LINE
  5
1E1
330
1F
100
AcDbEntity
  8
LAY-10
  6
CONTINUOUS
 62
     7
100
AcDbLine
 10
713.9999999999999
 20
1042.5
 30
0.0
 11
693.9999999999999
 21
1042.5
 31
0.0
  0
LINE
  5
1E2
330
1F
100
AcDbEntity
  8
LAY-10
  6
CONTINUOUS
 62
     7
100
AcDbLine
 10
693.9999999999999
 20
1042.5
 30
0.0
 11
693.9999999999999
 21
1062.5
 31
0.0
  0
LINE
  5
1E3
330
1F
100
AcDbEntity
  8
LAY-10
  6
CONTINUOUS
 62
     7
100
AcDbLine
 10
729.4999999999999
 20
1062.5
 30
0.0
 11
749.4999999999999
 21
1062.5
 31
0.0
  0
LINE
  5
1E4
330
1F
100
AcDbEntity
  8
LAY-10
  6
CONTINUOUS
 62
     7
100
AcDbLine
 10
749.4999999999999
 20
1062.5
 30
0.0
 11
749.4999999999999
 21
1042.5
 31
0.0
  0
LINE
  5
1E5
330
1F
100
AcDbEntity
  8
LAY-10
  6
CONTINUOUS
 62
     7
100
AcDbLine
 10
749.4999999999999
 20
1042.5
 30
0.0
 11
729.4999999999999
 21
1042.5
 31
0.0
  0
LINE
  5
1E6
330
1F
100
AcDbEntity
  8
LAY-10
  6
CONTINUOUS
 62
     7
100
AcDbLine
 10
729.4999999999999
 20
1042.5
 30
0.0
 11
729.4999999999999
 21
1062.5
 31
0.0
  0
LINE
  5
1E7
330
1F
100
AcDbEntity
  8
LAY-10
  6
CONTINUOUS
 62
     7
100
AcDbLine
 10
765.0
 20
1062.5
 30
0.0
 11
785.0
 21
1062.5
 31
0.0
  0
LINE
  5
1E8
330
1F
100
AcDbEntity
  8
LAY-10
  6
CONTINUOUS
 62
     7
100
AcDbLine
 10
785.0
 20
1062.5
 30
0.0
 11
785.0
 21
1042.5
 31
0.0
  0
LINE
  5
1E9
330
1F
100
AcDbEntity
  8
LAY-10
  6
CONTINUOUS
 62
     7
100
AcDbLine
 10
785.0
 20
1042.5
 30
0.0
 11
765.0
 21
1042.5
 31
0.0
  0
LINE
  5
1EA
330
1F
100
AcDbEntity
  8
LAY-10
  6
CONTINUOUS
 62
     7
100
AcDbLine
 10
765.0
 20
1042.5
 30
0.0
 11
765.0
 21
1062.5
 31
0.0
  0
LINE
  5
1EB
330
1F
100
AcDbEntity
  8
LAY-10
  6
CONTINUOUS
 62
     7
100
AcDbLine
 10
1069.0
 20
1062.5
 30
0.0
 11
1049.0
 21
1062.5
 31
0.0
  0
LINE
  5
1EC
330
1F
100
AcDbEntity
  8
LAY-10
  6
CONTINUOUS
 62
     7
100
AcDbLine
 10
1049.0
 20
1062.5
 30
0.0
 11
1049.0
 21
1042.5
 31
0.0
  0
LINE
  5
1ED
330
1F
100
AcDbEntity
  8
LAY-10
  6
CONTINUOUS
 62
     7
100
AcDbLine
 10
1049.0
 20
1042.5
 30
0.0
 11
1069.0
 21
1042.5
 31
0.0
  0
LINE
  5
1EE
330
1F
100
AcDbEntity
  8
LAY-10
  6
CONTINUOUS
 62
     7
100
AcDbLine
 10
1069.0
 20
1042.5
 30
0.0
 11
1069.0
 21
1062.5
 31
0.0
  0
LINE
  5
1EF
330
1F
100
AcDbEntity
  8
LAY-10
  6
CONTINUOUS
 62
     7
100
AcDbLine
 10
1033.5
 20
1062.5
 30
0.0
 11
1013.5
 21
1062.5
 31
0.0
  0
LINE
  5
1F0
330
1F
100
AcDbEntity
  8
LAY-10
  6
CONTINUOUS
 62
     7
100
AcDbLine
 10
1013.5
 20
1062.5
 30
0.0
 11
1013.5
 21
1042.5
 31
0.0
  0
LINE
  5
1F1
330
1F
100
AcDbEntity
  8
LAY-10
  6
CONTINUOUS
 62
     7
100
AcDbLine
 10
1013.5
 20
1042.5
 30
0.0
 11
1033.5
 21
1042.5
 31
0.0
  0
LINE
  5
1F2
330
1F
100
AcDbEntity
  8
LAY-10
  6
CONTINUOUS
 62
     7
100
AcDbLine
 10
1033.5
 20
1042.5
 30
0.0
 11
1033.5
 21
1062.5
 31
0.0
  0
LINE
  5
1F3
330
1F
100
AcDbEntity
  8
LAY-10
  6
CONTINUOUS
 62
     7
100
AcDbLine
 10
997.9999999999999
 20
1062.5
 30
0.0
 11
977.9999999999999
 21
1062.5
 31
0.0
  0
LINE
  5
1F4
330
1F
100
AcDbEntity
  8
LAY-10
  6
CONTINUOUS
 62
     7
100
AcDbLine
 10
977.9999999999999
 20
1062.5
 30
0.0
 11
977.9999999999999
 21
1042.5
 31
0.0
  0
LINE
  5
1F5
330
1F
100
AcDbEntity
  8
LAY-10
  6
CONTINUOUS
 62
     7
100
AcDbLine
 10
977.9999999999999
 20
1042.5
 30
0.0
 11
997.9999999999999
 21
1042.5
 31
0.0
  0
LINE
  5
1F6
330
1F
100
AcDbEntity
  8
LAY-10
  6
CONTINUOUS
 62
     7
100
AcDbLine
 10
997.9999999999999
 20
1042.5
 30
0.0
 11
997.9999999999999
 21
1062.5
 31
0.0
  0
LINE
  5
1F7
330
1F
100
AcDbEntity
  8
LAY-10
  6
CONTINUOUS
 62
     7
100
AcDbLine
 10
962.5
 20
1062.5
 30
0.0
 11
942.5
 21
1062.5
 31
0.0
  0
LINE
  5
1F8
330
1F
100
AcDbEntity
  8
LAY-10
  6
CONTINUOUS
 62
     7
100
AcDbLine
 10
942.5
 20
1062.5
 30
0.0
 11
942.5
 21
1042.5
 31
0.0
  0
LINE
  5
1F9
330
1F
100
AcDbEntity
  8
LAY-10
  6
CONTINUOUS
 62
     7
100
AcDbLine
 10
942.5
 20
1042.5
 30
0.0
 11
962.5
 21
1042.5
 31
0.0
  0
LINE
  5
1FA
330
1F
100
AcDbEntity
  8
LAY-10
  6
CONTINUOUS
 62
     7
100
AcDbLine
 10
962.5
 20
1042.5
 30
0.0
 11
962.5
 21
1062.5
 31
0.0
  0
LINE
  5
1FB
330
1F
100
AcDbEntity
  8
LAY-10
  6
CONTINUOUS
 62
     7
100
AcDbLine
 10
926.9999999999999
 20
1062.5
 30
0.0
 11
906.9999999999999
 21
1062.5
 31
0.0
  0
LINE
  5
1FC
330
1F
100
AcDbEntity
  8
LAY-10
  6
CONTINUOUS
 62
     7
100
AcDbLine
 10
906.9999999999999
 20
1062.5
 30
0.0
 11
906.9999999999999
 21
1042.5
 31
0.0
  0
LINE
  5
1FD
330
1F
100
AcDbEntity
  8
LAY-10
  6
CONTINUOUS
 62
     7
100
AcDbLine
 10
906.9999999999999
 20
1042.5
 30
0.0
 11
926.9999999999999
 21
1042.5
 31
0.0
  0
LINE
  5
1FE
330
1F
100
AcDbEntity
  8
LAY-10
  6
CONTINUOUS
 62
     7
100
AcDbLine
 10
926.9999999999999
 20
1042.5
 30
0.0
 11
926.9999999999999
 21
1062.5
 31
0.0
  0
LINE
  5
1FF
330
1F
100
AcDbEntity
  8
LAY-10
  6
CONTINUOUS
 62
     7
100
AcDbLine
 10
891.4999999999999
 20
1062.5
 30
0.0
 11
871.4999999999999
 21
1062.5
 31
0.0
  0
LINE
  5
200
330
1F
100
AcDbEntity
  8
LAY-10
  6
CONTINUOUS
 62
     7
100
AcDbLine
 10
871.4999999999999
 20
1062.5
 30
0.0
 11
871.4999999999999
 21
1042.5
 31
0.0
  0
LINE
  5
201
330
1F
100
AcDbEntity
  8
LAY-10
  6
CONTINUOUS
 62
     7
100
AcDbLine
 10
871.4999999999999
 20
1042.5
 30
0.0
 11
891.4999999999999
 21
1042.5
 31
0.0
  0
LINE
  5
202
330
1F
100
AcDbEntity
  8
LAY-10
  6
CONTINUOUS
 62
     7
100
AcDbLine
 10
891.4999999999999
 20
1042.5
 30
0.0
 11
891.4999999999999
 21
1062.5
 31
0.0
  0
LINE
  5
203
330
1F
100
AcDbEntity
  8
LAY-10
  6
CONTINUOUS
 62
     7
100
AcDbLine
 10
855.9999999999999
 20
1062.5
 30
0.0
 11
835.9999999999999
 21
1062.5
 31
0.0
  0
LINE
  5
204
330
1F
100
AcDbEntity
  8
LAY-10
  6
CONTINUOUS
 62
     7
100
AcDbLine
 10
835.9999999999999
 20
1062.5
 30
0.0
 11
835.9999999999999
 21
1042.5
 31
0.0
  0
LINE
  5
205
330
1F
100
AcDbEntity
  8
LAY-10
  6
CONTINUOUS
 62
     7
100
AcDbLine
 10
835.9999999999999
 20
1042.5
 30
0.0
 11
855.9999999999999
 21
1042.5
 31
0.0
  0
LINE
  5
206
330
1F
100
AcDbEntity
  8
LAY-10
  6
CONTINUOUS
 62
     7
100
AcDbLine
 10
855.9999999999999
 20
1042.5
 30
0.0
 11
855.9999999999999
 21
1062.5
 31
0.0
  0
LINE
  5
207
330
1F
100
AcDbEntity
  8
LAY-10
  6
CONTINUOUS
 62
     7
100
AcDbLine
 10
820.4999999999999
 20
1062.5
 30
0.0
 11
800.4999999999999
 21
1062.5
 31
0.0
  0
LINE
  5
208
330
1F
100
AcDbEntity
  8
LAY-10
  6
CONTINUOUS
 62
     7
100
AcDbLine
 10
800.4999999999999
 20
1062.5
 30
0.0
 11
800.4999999999999
 21
1042.5
 31
0.0
  0
LINE
  5
209
330
1F
100
AcDbEntity
  8
LAY-10
  6
CONTINUOUS
 62
     7
100
AcDbLine
 10
800.4999999999999
 20
1042.5
 30
0.0
 11
820.4999999999999
 21
1042.5
 31
0.0
  0
LINE
  5
20A
330
1F
100
AcDbEntity
  8
LAY-10
  6
CONTINUOUS
 62
     7
100
AcDbLine
 10
820.4999999999999
 20
1042.5
 30
0.0
 11
820.4999999999999
 21
1062.5
 31
0.0
  0
LINE
  5
20B
330
1F
100
AcDbEntity
  8
LAY-10
  6
CONTINUOUS
 62
     7
100
AcDbLine
 10
480.9999999999999
 20
1027.0
 30
0.0
 11
500.9999999999999
 21
1027.0
 31
0.0
  0
LINE
  5
20C
330
1F
100
AcDbEntity
  8
LAY-10
  6
CONTINUOUS
 62
     7
100
AcDbLine
 10
500.9999999999999
 20
1027.0
 30
0.0
 11
500.9999999999999
 21
1007.0
 31
0.0
  0
LINE
  5
20D
330
1F
100
AcDbEntity
  8
LAY-10
  6
CONTINUOUS
 62
     7
100
AcDbLine
 10
500.9999999999999
 20
1007.0
 30
0.0
 11
480.9999999999999
 21
1007.0
 31
0.0
  0
LINE
  5
20E
330
1F
100
AcDbEntity
  8
LAY-10
  6
CONTINUOUS
 62
     7
100
AcDbLine
 10
480.9999999999999
 20
1007.0
 30
0.0
 11
480.9999999999999
 21
1027.0
 31
0.0
  0
LINE
  5
20F
330
1F
100
AcDbEntity
  8
LAY-10
  6
CONTINUOUS
 62
     7
100
AcDbLine
 10
516.4999999999999
 20
1027.0
 30
0.0
 11
536.4999999999999
 21
1027.0
 31
0.0
  0
LINE
  5
210
330
1F
100
AcDbEntity
  8
LAY-10
  6
CONTINUOUS
 62
     7
100
AcDbLine
 10
536.4999999999999
 20
1027.0
 30
0.0
 11
536.4999999999999
 21
1007.0
 31
0.0
  0
LINE
  5
211
330
1F
100
AcDbEntity
  8
LAY-10
  6
CONTINUOUS
 62
     7
100
AcDbLine
 10
536.4999999999999
 20
1007.0
 30
0.0
 11
516.4999999999999
 21
1007.0
 31
0.0
  0
LINE
  5
212
330
1F
100
AcDbEntity
  8
LAY-10
  6
CONTINUOUS
 62
     7
100
AcDbLine
 10
516.4999999999999
 20
1007.0
 30
0.0
 11
516.4999999999999
 21
1027.0
 31
0.0
  0
LINE
  5
213
330
1F
100
AcDbEntity
  8
LAY-10
  6
CONTINUOUS
 62
     7
100
AcDbLine
 10
551.9999999999999
 20
1027.0
 30
0.0
 11
571.9999999999999
 21
1027.0
 31
0.0
  0
LINE
  5
214
330
1F
100
AcDbEntity
  8
LAY-10
  6
CONTINUOUS
 62
     7
100
AcDbLine
 10
571.9999999999999
 20
1027.0
 30
0.0
 11
571.9999999999999
 21
1007.0
 31
0.0
  0
LINE
  5
215
330
1F
100
AcDbEntity
  8
LAY-10
  6
CONTINUOUS
 62
     7
100
AcDbLine
 10
571.9999999999999
 20
1007.0
 30
0.0
 11
551.9999999999999
 21
1007.0
 31
0.0
  0
LINE
  5
216
330
1F
100
AcDbEntity
  8
LAY-10
  6
CONTINUOUS
 62
     7
100
AcDbLine
 10
551.9999999999999
 20
1007.0
 30
0.0
 11
551.9999999999999
 21
1027.0
 31
0.0
  0
LINE
  5
217
330
1F
100
AcDbEntity
  8
LAY-10
  6
CONTINUOUS
 62
     7
100
AcDbLine
 10
587.4999999999998
 20
1027.0
 30
0.0
 11
607.4999999999998
 21
1027.0
 31
0.0
  0
LINE
  5
218
330
1F
100
AcDbEntity
  8
LAY-10
  6
CONTINUOUS
 62
     7
100
AcDbLine
 10
607.4999999999998
 20
1027.0
 30
0.0
 11
607.4999999999998
 21
1007.0
 31
0.0
  0
LINE
  5
219
330
1F
100
AcDbEntity
  8
LAY-10
  6
CONTINUOUS
 62
     7
100
AcDbLine
 10
607.4999999999998
 20
1007.0
 30
0.0
 11
587.4999999999998
 21
1007.0
 31
0.0
  0
LINE
  5
21A
330
1F
100
AcDbEntity
  8
LAY-10
  6
CONTINUOUS
 62
     7
100
AcDbLine
 10
587.4999999999998
 20
1007.0
 30
0.0
 11
587.4999999999998
 21
1027.0
 31
0.0
  0
LINE
  5
21B
330
1F
100
AcDbEntity
  8
LAY-10
  6
CONTINUOUS
 62
     7
100
AcDbLine
 10
622.9999999999999
 20
1027.0
 30
0.0
 11
642.9999999999999
 21
1027.0
 31
0.0
  0
LINE
  5
21C
330
1F
100
AcDbEntity
  8
LAY-10
  6
CONTINUOUS
 62
     7
100
AcDbLine
 10
642.9999999999999
 20
1027.0
 30
0.0
 11
642.9999999999999
 21
1007.0
 31
0.0
  0
LINE
  5
21D
330
1F
100
AcDbEntity
  8
LAY-10
  6
CONTINUOUS
 62
     7
100
AcDbLine
 10
642.9999999999999
 20
1007.0
 30
0.0
 11
622.9999999999999
 21
1007.0
 31
0.0
  0
LINE
  5
21E
330
1F
100
AcDbEntity
  8
LAY-10
  6
CONTINUOUS
 62
     7
100
AcDbLine
 10
622.9999999999999
 20
1007.0
 30
0.0
 11
622.9999999999999
 21
1027.0
 31
0.0
  0
LINE
  5
21F
330
1F
100
AcDbEntity
  8
LAY-10
  6
CONTINUOUS
 62
     7
100
AcDbLine
 10
658.4999999999999
 20
1027.0
 30
0.0
 11
678.4999999999999
 21
1027.0
 31
0.0
  0
LINE
  5
220
330
1F
100
AcDbEntity
  8
LAY-10
  6
CONTINUOUS
 62
     7
100
AcDbLine
 10
678.4999999999999
 20
1027.0
 30
0.0
 11
678.4999999999999
 21
1007.0
 31
0.0
  0
LINE
  5
221
330
1F
100
AcDbEntity
  8
LAY-10
  6
CONTINUOUS
 62
     7
100
AcDbLine
 10
678.4999999999999
 20
1007.0
 30
0.0
 11
658.4999999999999
 21
1007.0
 31
0.0
  0
LINE
  5
222
330
1F
100
AcDbEntity
  8
LAY-10
  6
CONTINUOUS
 62
     7
100
AcDbLine
 10
658.4999999999999
 20
1007.0
 30
0.0
 11
658.4999999999999
 21
1027.0
 31
0.0
  0
LINE
  5
223
330
1F
100
AcDbEntity
  8
LAY-10
  6
CONTINUOUS
 62
     7
100
AcDbLine
 10
693.9999999999999
 20
1027.0
 30
0.0
 11
713.9999999999999
 21
1027.0
 31
0.0
  0
LINE
  5
224
330
1F
100
AcDbEntity
  8
LAY-10
  6
CONTINUOUS
 62
     7
100
AcDbLine
 10
713.9999999999999
 20
1027.0
 30
0.0
 11
713.9999999999999
 21
1007.0
 31
0.0
  0
LINE
  5
225
330
1F
100
AcDbEntity
  8
LAY-10
  6
CONTINUOUS
 62
     7
100
AcDbLine
 10
713.9999999999999
 20
1007.0
 30
0.0
 11
693.9999999999999
 21
1007.0
 31
0.0
  0
LINE
  5
226
330
1F
100
AcDbEntity
  8
LAY-10
  6
CONTINUOUS
 62
     7
100
AcDbLine
 10
693.9999999999999
 20
1007.0
 30
0.0
 11
693.9999999999999
 21
1027.0
 31
0.0
  0
LINE
  5
227
330
1F
100
AcDbEntity
  8
LAY-10
  6
CONTINUOUS
 62
     7
100
AcDbLine
 10
729.4999999999999
 20
1027.0
 30
0.0
 11
749.4999999999999
 21
1027.0
 31
0.0
  0
LINE
  5
228
330
1F
100
AcDbEntity
  8
LAY-10
  6
CONTINUOUS
 62
     7
100
AcDbLine
 10
749.4999999999999
 20
1027.0
 30
0.0
 11
749.4999999999999
 21
1007.0
 31
0.0
  0
LINE
  5
229
330
1F
100
AcDbEntity
  8
LAY-10
  6
CONTINUOUS
 62
     7
100
AcDbLine
 10
749.4999999999999
 20
1007.0
 30
0.0
 11
729.4999999999999
 21
1007.0
 31
0.0
  0
LINE
  5
22A
330
1F
100
AcDbEntity
  8
LAY-10
  6
CONTINUOUS
 62
     7
100
AcDbLine
 10
729.4999999999999
 20
1007.0
 30
0.0
 11
729.4999999999999
 21
1027.0
 31
0.0
  0
LINE
  5
22B
330
1F
100
AcDbEntity
  8
LAY-10
  6
CONTINUOUS
 62
     7
100
AcDbLine
 10
765.0
 20
1027.0
 30
0.0
 11
785.0
 21
1027.0
 31
0.0
  0
LINE
  5
22C
330
1F
100
AcDbEntity
  8
LAY-10
  6
CONTINUOUS
 62
     7
100
AcDbLine
 10
785.0
 20
1027.0
 30
0.0
 11
785.0
 21
1007.0
 31
0.0
  0
LINE
  5
22D
330
1F
100
AcDbEntity
  8
LAY-10
  6
CONTINUOUS
 62
     7
100
AcDbLine
 10
785.0
 20
1007.0
 30
0.0
 11
765.0
 21
1007.0
 31
0.0
  0
LINE
  5
22E
330
1F
100
AcDbEntity
  8
LAY-10
  6
CONTINUOUS
 62
     7
100
AcDbLine
 10
765.0
 20
1007.0
 30
0.0
 11
765.0
 21
1027.0
 31
0.0
  0
LINE
  5
22F
330
1F
100
AcDbEntity
  8
LAY-10
  6
CONTINUOUS
 62
     7
100
AcDbLine
 10
1069.0
 20
1027.0
 30
0.0
 11
1049.0
 21
1027.0
 31
0.0
  0
LINE
  5
230
330
1F
100
AcDbEntity
  8
LAY-10
  6
CONTINUOUS
 62
     7
100
AcDbLine
 10
1049.0
 20
1027.0
 30
0.0
 11
1049.0
 21
1007.0
 31
0.0
  0
LINE
  5
231
330
1F
100
AcDbEntity
  8
LAY-10
  6
CONTINUOUS
 62
     7
100
AcDbLine
 10
1049.0
 20
1007.0
 30
0.0
 11
1069.0
 21
1007.0
 31
0.0
  0
LINE
  5
232
330
1F
100
AcDbEntity
  8
LAY-10
  6
CONTINUOUS
 62
     7
100
AcDbLine
 10
1069.0
 20
1007.0
 30
0.0
 11
1069.0
 21
1027.0
 31
0.0
  0
LINE
  5
233
330
1F
100
AcDbEntity
  8
LAY-10
  6
CONTINUOUS
 62
     7
100
AcDbLine
 10
1033.5
 20
1027.0
 30
0.0
 11
1013.5
 21
1027.0
 31
0.0
  0
LINE
  5
234
330
1F
100
AcDbEntity
  8
LAY-10
  6
CONTINUOUS
 62
     7
100
AcDbLine
 10
1013.5
 20
1027.0
 30
0.0
 11
1013.5
 21
1007.0
 31
0.0
  0
LINE
  5
235
330
1F
100
AcDbEntity
  8
LAY-10
  6
CONTINUOUS
 62
     7
100
AcDbLine
 10
1013.5
 20
1007.0
 30
0.0
 11
1033.5
 21
1007.0
 31
0.0
  0
LINE
  5
236
330
1F
100
AcDbEntity
  8
LAY-10
  6
CONTINUOUS
 62
     7
100
AcDbLine
 10
1033.5
 20
1007.0
 30
0.0
 11
1033.5
 21
1027.0
 31
0.0
  0
LINE
  5
237
330
1F
100
AcDbEntity
  8
LAY-10
  6
CONTINUOUS
 62
     7
100
AcDbLine
 10
997.9999999999999
 20
1027.0
 30
0.0
 11
977.9999999999999
 21
1027.0
 31
0.0
  0
LINE
  5
238
330
1F
100
AcDbEntity
  8
LAY-10
  6
CONTINUOUS
 62
     7
100
AcDbLine
 10
977.9999999999999
 20
1027.0
 30
0.0
 11
977.9999999999999
 21
1007.0
 31
0.0
  0
LINE
  5
239
330
1F
100
AcDbEntity
  8
LAY-10
  6
CONTINUOUS
 62
     7
100
AcDbLine
 10
977.9999999999999
 20
1007.0
 30
0.0
 11
997.9999999999999
 21
1007.0
 31
0.0
  0
LINE
  5
23A
330
1F
100
AcDbEntity
  8
LAY-10
  6
CONTINUOUS
 62
     7
100
AcDbLine
 10
997.9999999999999
 20
1007.0
 30
0.0
 11
997.9999999999999
 21
1027.0
 31
0.0
  0
LINE
  5
23B
330
1F
100
AcDbEntity
  8
LAY-10
  6
CONTINUOUS
 62
     7
100
AcDbLine
 10
962.5
 20
1027.0
 30
0.0
 11
942.5
 21
1027.0
 31
0.0
  0
LINE
  5
23C
330
1F
100
AcDbEntity
  8
LAY-10
  6
CONTINUOUS
 62
     7
100
AcDbLine
 10
942.5
 20
1027.0
 30
0.0
 11
942.5
 21
1007.0
 31
0.0
  0
LINE
  5
23D
330
1F
100
AcDbEntity
  8
LAY-10
  6
CONTINUOUS
 62
     7
100
AcDbLine
 10
942.5
 20
1007.0
 30
0.0
 11
962.5
 21
1007.0
 31
0.0
  0
LINE
  5
23E
330
1F
100
AcDbEntity
  8
LAY-10
  6
CONTINUOUS
 62
     7
100
AcDbLine
 10
962.5
 20
1007.0
 30
0.0
 11
962.5
 21
1027.0
 31
0.0
  0
LINE
  5
23F
330
1F
100
AcDbEntity
  8
LAY-10
  6
CONTINUOUS
 62
     7
100
AcDbLine
 10
926.9999999999999
 20
1027.0
 30
0.0
 11
906.9999999999999
 21
1027.0
 31
0.0
  0
LINE
  5
240
330
1F
100
AcDbEntity
  8
LAY-10
  6
CONTINUOUS
 62
     7
100
AcDbLine
 10
906.9999999999999
 20
1027.0
 30
0.0
 11
906.9999999999999
 21
1007.0
 31
0.0
  0
LINE
  5
241
330
1F
100
AcDbEntity
  8
LAY-10
  6
CONTINUOUS
 62
     7
100
AcDbLine
 10
906.9999999999999
 20
1007.0
 30
0.0
 11
926.9999999999999
 21
1007.0
 31
0.0
  0
LINE
  5
242
330
1F
100
AcDbEntity
  8
LAY-10
  6
CONTINUOUS
 62
     7
100
AcDbLine
 10
926.9999999999999
 20
1007.0
 30
0.0
 11
926.9999999999999
 21
1027.0
 31
0.0
  0
LINE
  5
243
330
1F
100
AcDbEntity
  8
LAY-10
  6
CONTINUOUS
 62
     7
100
AcDbLine
 10
891.4999999999999
 20
1027.0
 30
0.0
 11
871.4999999999999
 21
1027.0
 31
0.0
  0
LINE
  5
244
330
1F
100
AcDbEntity
  8
LAY-10
  6
CONTINUOUS
 62
     7
100
AcDbLine
 10
871.4999999999999
 20
1027.0
 30
0.0
 11
871.4999999999999
 21
1007.0
 31
0.0
  0
LINE
  5
245
330
1F
100
AcDbEntity
  8
LAY-10
  6
CONTINUOUS
 62
     7
100
AcDbLine
 10
871.4999999999999
 20
1007.0
 30
0.0
 11
891.4999999999999
 21
1007.0
 31
0.0
  0
LINE
  5
246
330
1F
100
AcDbEntity
  8
LAY-10
  6
CONTINUOUS
 62
     7
100
AcDbLine
 10
891.4999999999999
 20
1007.0
 30
0.0
 11
891.4999999999999
 21
1027.0
 31
0.0
  0
LINE
  5
247
330
1F
100
AcDbEntity
  8
LAY-10
  6
CONTINUOUS
 62
     7
100
AcDbLine
 10
855.9999999999999
 20
1027.0
 30
0.0
 11
835.9999999999999
 21
1027.0
 31
0.0
  0
LINE
  5
248
330
1F
100
AcDbEntity
  8
LAY-10
  6
CONTINUOUS
 62
     7
100
AcDbLine
 10
835.9999999999999
 20
1027.0
 30
0.0
 11
835.9999999999999
 21
1007.0
 31
0.0
  0
LINE
  5
249
330
1F
100
AcDbEntity
  8
LAY-10
  6
CONTINUOUS
 62
     7
100
AcDbLine
 10
835.9999999999999
 20
1007.0
 30
0.0
 11
855.9999999999999
 21
1007.0
 31
0.0
  0
LINE
  5
24A
330
1F
100
AcDbEntity
  8
LAY-10
  6
CONTINUOUS
 62
     7
100
AcDbLine
 10
855.9999999999999
 20
1007.0
 30
0.0
 11
855.9999999999999
 21
1027.0
 31
0.0
  0
LINE
  5
24B
330
1F
100
AcDbEntity
  8
LAY-10
  6
CONTINUOUS
 62
     7
100
AcDbLine
 10
820.4999999999999
 20
1027.0
 30
0.0
 11
800.4999999999999
 21
1027.0
 31
0.0
  0
LINE
  5
24C
330
1F
100
AcDbEntity
  8
LAY-10
  6
CONTINUOUS
 62
     7
100
AcDbLine
 10
800.4999999999999
 20
1027.0
 30
0.0
 11
800.4999999999999
 21
1007.0
 31
0.0
  0
LINE
  5
24D
330
1F
100
AcDbEntity
  8
LAY-10
  6
CONTINUOUS
 62
     7
100
AcDbLine
 10
800.4999999999999
 20
1007.0
 30
0.0
 11
820.4999999999999
 21
1007.0
 31
0.0
  0
LINE
  5
24E
330
1F
100
AcDbEntity
  8
LAY-10
  6
CONTINUOUS
 62
     7
100
AcDbLine
 10
820.4999999999999
 20
1007.0
 30
0.0
 11
820.4999999999999
 21
1027.0
 31
0.0
  0
LINE
  5
24F
330
1F
100
AcDbEntity
  8
LAY-10
  6
CONTINUOUS
 62
     7
100
AcDbLine
 10
480.9999999999999
 20
991.5000000000001
 30
0.0
 11
500.9999999999999
 21
991.5000000000001
 31
0.0
  0
LINE
  5
250
330
1F
100
AcDbEntity
  8
LAY-10
  6
CONTINUOUS
 62
     7
100
AcDbLine
 10
500.9999999999999
 20
991.5000000000001
 30
0.0
 11
500.9999999999999
 21
971.5000000000001
 31
0.0
  0
LINE
  5
251
330
1F
100
AcDbEntity
  8
LAY-10
  6
CONTINUOUS
 62
     7
100
AcDbLine
 10
500.9999999999999
 20
971.5000000000001
 30
0.0
 11
480.9999999999999
 21
971.5000000000001
 31
0.0
  0
LINE
  5
252
330
1F
100
AcDbEntity
  8
LAY-10
  6
CONTINUOUS
 62
     7
100
AcDbLine
 10
480.9999999999999
 20
971.5000000000001
 30
0.0
 11
480.9999999999999
 21
991.5000000000001
 31
0.0
  0
LINE
  5
253
330
1F
100
AcDbEntity
  8
LAY-10
  6
CONTINUOUS
 62
     7
100
AcDbLine
 10
516.4999999999999
 20
991.5000000000001
 30
0.0
 11
536.4999999999999
 21
991.5000000000001
 31
0.0
  0
LINE
  5
254
330
1F
100
AcDbEntity
  8
LAY-10
  6
CONTINUOUS
 62
     7
100
AcDbLine
 10
536.4999999999999
 20
991.5000000000001
 30
0.0
 11
536.4999999999999
 21
971.5000000000001
 31
0.0
  0
LINE
  5
255
330
1F
100
AcDbEntity
  8
LAY-10
  6
CONTINUOUS
 62
     7
100
AcDbLine
 10
536.4999999999999
 20
971.5000000000001
 30
0.0
 11
516.4999999999999
 21
971.5000000000001
 31
0.0
  0
LINE
  5
256
330
1F
100
AcDbEntity
  8
LAY-10
  6
CONTINUOUS
 62
     7
100
AcDbLine
 10
516.4999999999999
 20
971.5000000000001
 30
0.0
 11
516.4999999999999
 21
991.5000000000001
 31
0.0
  0
LINE
  5
257
330
1F
100
AcDbEntity
  8
LAY-10
  6
CONTINUOUS
 62
     7
100
AcDbLine
 10
551.9999999999999
 20
991.5000000000001
 30
0.0
 11
571.9999999999999
 21
991.5000000000001
 31
0.0
  0
LINE
  5
258
330
1F
100
AcDbEntity
  8
LAY-10
  6
CONTINUOUS
 62
     7
100
AcDbLine
 10
571.9999999999999
 20
991.5000000000001
 30
0.0
 11
571.9999999999999
 21
971.5000000000001
 31
0.0
  0
LINE
  5
259
330
1F
100
AcDbEntity
  8
LAY-10
  6
CONTINUOUS
 62
     7
100
AcDbLine
 10
571.9999999999999
 20
971.5000000000001
 30
0.0
 11
551.9999999999999
 21
971.5000000000001
 31
0.0
  0
LINE
  5
25A
330
1F
100
AcDbEntity
  8
LAY-10
  6
CONTINUOUS
 62
     7
100
AcDbLine
 10
551.9999999999999
 20
971.5000000000001
 30
0.0
 11
551.9999999999999
 21
991.5000000000001
 31
0.0
  0
LINE
  5
25B
330
1F
100
AcDbEntity
  8
LAY-10
  6
CONTINUOUS
 62
     7
100
AcDbLine
 10
587.4999999999998
 20
991.5000000000001
 30
0.0
 11
607.4999999999998
 21
991.5000000000001
 31
0.0
  0
LINE
  5
25C
330
1F
100
AcDbEntity
  8
LAY-10
  6
CONTINUOUS
 62
     7
100
AcDbLine
 10
607.4999999999998
 20
991.5000000000001
 30
0.0
 11
607.4999999999998
 21
971.5000000000001
 31
0.0
  0
LINE
  5
25D
330
1F
100
AcDbEntity
  8
LAY-10
  6
CONTINUOUS
 62
     7
100
AcDbLine
 10
607.4999999999998
 20
971.5000000000001
 30
0.0
 11
587.4999999999998
 21
971.5000000000001
 31
0.0
  0
LINE
  5
25E
330
1F
100
AcDbEntity
  8
LAY-10
  6
CONTINUOUS
 62
     7
100
AcDbLine
 10
587.4999999999998
 20
971.5000000000001
 30
0.0
 11
587.4999999999998
 21
991.5000000000001
 31
0.0
  0
LINE
  5
25F
330
1F
100
AcDbEntity
  8
LAY-10
  6
CONTINUOUS
 62
     7
100
AcDbLine
 10
622.9999999999999
 20
991.5000000000001
 30
0.0
 11
642.9999999999999
 21
991.5000000000001
 31
0.0
  0
LINE
  5
260
330
1F
100
AcDbEntity
  8
LAY-10
  6
CONTINUOUS
 62
     7
100
AcDbLine
 10
642.9999999999999
 20
991.5000000000001
 30
0.0
 11
642.9999999999999
 21
971.5000000000001
 31
0.0
  0
LINE
  5
261
330
1F
100
AcDbEntity
  8
LAY-10
  6
CONTINUOUS
 62
     7
100
AcDbLine
 10
642.9999999999999
 20
971.5000000000001
 30
0.0
 11
622.9999999999999
 21
971.5000000000001
 31
0.0
  0
LINE
  5
262
330
1F
100
AcDbEntity
  8
LAY-10
  6
CONTINUOUS
 62
     7
100
AcDbLine
 10
622.9999999999999
 20
971.5000000000001
 30
0.0
 11
622.9999999999999
 21
991.5000000000001
 31
0.0
  0
LINE
  5
263
330
1F
100
AcDbEntity
  8
LAY-10
  6
CONTINUOUS
 62
     7
100
AcDbLine
 10
658.4999999999999
 20
991.5000000000001
 30
0.0
 11
678.4999999999999
 21
991.5000000000001
 31
0.0
  0
LINE
  5
264
330
1F
100
AcDbEntity
  8
LAY-10
  6
CONTINUOUS
 62
     7
100
AcDbLine
 10
678.4999999999999
 20
991.5000000000001
 30
0.0
 11
678.4999999999999
 21
971.5000000000001
 31
0.0
  0
LINE
  5
265
330
1F
100
AcDbEntity
  8
LAY-10
  6
CONTINUOUS
 62
     7
100
AcDbLine
 10
678.4999999999999
 20
971.5000000000001
 30
0.0
 11
658.4999999999999
 21
971.5000000000001
 31
0.0
  0
LINE
  5
266
330
1F
100
AcDbEntity
  8
LAY-10
  6
CONTINUOUS
 62
     7
100
AcDbLine
 10
658.4999999999999
 20
971.5000000000001
 30
0.0
 11
658.4999999999999
 21
991.5000000000001
 31
0.0
  0
LINE
  5
267
330
1F
100
AcDbEntity
  8
LAY-10
  6
CONTINUOUS
 62
     7
100
AcDbLine
 10
693.9999999999999
 20
991.5000000000001
 30
0.0
 11
713.9999999999999
 21
991.5000000000001
 31
0.0
  0
LINE
  5
268
330
1F
100
AcDbEntity
  8
LAY-10
  6
CONTINUOUS
 62
     7
100
AcDbLine
 10
713.9999999999999
 20
991.5000000000001
 30
0.0
 11
713.9999999999999
 21
971.5000000000001
 31
0.0
  0
LINE
  5
269
330
1F
100
AcDbEntity
  8
LAY-10
  6
CONTINUOUS
 62
     7
100
AcDbLine
 10
713.9999999999999
 20
971.5000000000001
 30
0.0
 11
693.9999999999999
 21
971.5000000000001
 31
0.0
  0
LINE
  5
26A
330
1F
100
AcDbEntity
  8
LAY-10
  6
CONTINUOUS
 62
     7
100
AcDbLine
 10
693.9999999999999
 20
971.5000000000001
 30
0.0
 11
693.9999999999999
 21
991.5000000000001
 31
0.0
  0
LINE
  5
26B
330
1F
100
AcDbEntity
  8
LAY-10
  6
CONTINUOUS
 62
     7
100
AcDbLine
 10
729.4999999999999
 20
991.5000000000001
 30
0.0
 11
749.4999999999999
 21
991.5000000000001
 31
0.0
  0
LINE
  5
26C
330
1F
100
AcDbEntity
  8
LAY-10
  6
CONTINUOUS
 62
     7
100
AcDbLine
 10
749.4999999999999
 20
991.5000000000001
 30
0.0
 11
749.4999999999999
 21
971.5000000000001
 31
0.0
  0
LINE
  5
26D
330
1F
100
AcDbEntity
  8
LAY-10
  6
CONTINUOUS
 62
     7
100
AcDbLine
 10
749.4999999999999
 20
971.5000000000001
 30
0.0
 11
729.4999999999999
 21
971.5000000000001
 31
0.0
  0
LINE
  5
26E
330
1F
100
AcDbEntity
  8
LAY-10
  6
CONTINUOUS
 62
     7
100
AcDbLine
 10
729.4999999999999
 20
971.5000000000001
 30
0.0
 11
729.4999999999999
 21
991.5000000000001
 31
0.0
  0
LINE
  5
26F
330
1F
100
AcDbEntity
  8
LAY-10
  6
CONTINUOUS
 62
     7
100
AcDbLine
 10
765.0
 20
991.5000000000001
 30
0.0
 11
785.0
 21
991.5000000000001
 31
0.0
  0
LINE
  5
270
330
1F
100
AcDbEntity
  8
LAY-10
  6
CONTINUOUS
 62
     7
100
AcDbLine
 10
785.0
 20
991.5000000000001
 30
0.0
 11
785.0
 21
971.5000000000001
 31
0.0
  0
LINE
  5
271
330
1F
100
AcDbEntity
  8
LAY-10
  6
CONTINUOUS
 62
     7
100
AcDbLine
 10
785.0
 20
971.5000000000001
 30
0.0
 11
765.0
 21
971.5000000000001
 31
0.0
  0
LINE
  5
272
330
1F
100
AcDbEntity
  8
LAY-10
  6
CONTINUOUS
 62
     7
100
AcDbLine
 10
765.0
 20
971.5000000000001
 30
0.0
 11
765.0
 21
991.5000000000001
 31
0.0
  0
LINE
  5
273
330
1F
100
AcDbEntity
  8
LAY-10
  6
CONTINUOUS
 62
     7
100
AcDbLine
 10
1069.0
 20
991.5000000000001
 30
0.0
 11
1049.0
 21
991.5000000000001
 31
0.0
  0
LINE
  5
274
330
1F
100
AcDbEntity
  8
LAY-10
  6
CONTINUOUS
 62
     7
100
AcDbLine
 10
1049.0
 20
991.5000000000001
 30
0.0
 11
1049.0
 21
971.5000000000001
 31
0.0
  0
LINE
  5
275
330
1F
100
AcDbEntity
  8
LAY-10
  6
CONTINUOUS
 62
     7
100
AcDbLine
 10
1049.0
 20
971.5000000000001
 30
0.0
 11
1069.0
 21
971.5000000000001
 31
0.0
  0
LINE
  5
276
330
1F
100
AcDbEntity
  8
LAY-10
  6
CONTINUOUS
 62
     7
100
AcDbLine
 10
1069.0
 20
971.5000000000001
 30
0.0
 11
1069.0
 21
991.5000000000001
 31
0.0
  0
LINE
  5
277
330
1F
100
AcDbEntity
  8
LAY-10
  6
CONTINUOUS
 62
     7
100
AcDbLine
 10
1033.5
 20
991.5000000000001
 30
0.0
 11
1013.5
 21
991.5000000000001
 31
0.0
  0
LINE
  5
278
330
1F
100
AcDbEntity
  8
LAY-10
  6
CONTINUOUS
 62
     7
100
AcDbLine
 10
1013.5
 20
991.5000000000001
 30
0.0
 11
1013.5
 21
971.5000000000001
 31
0.0
  0
LINE
  5
279
330
1F
100
AcDbEntity
  8
LAY-10
  6
CONTINUOUS
 62
     7
100
AcDbLine
 10
1013.5
 20
971.5000000000001
 30
0.0
 11
1033.5
 21
971.5000000000001
 31
0.0
  0
LINE
  5
27A
330
1F
100
AcDbEntity
  8
LAY-10
  6
CONTINUOUS
 62
     7
100
AcDbLine
 10
1033.5
 20
971.5000000000001
 30
0.0
 11
1033.5
 21
991.5000000000001
 31
0.0
  0
LINE
  5
27B
330
1F
100
AcDbEntity
  8
LAY-10
  6
CONTINUOUS
 62
     7
100
AcDbLine
 10
997.9999999999999
 20
991.5000000000001
 30
0.0
 11
977.9999999999999
 21
991.5000000000001
 31
0.0
  0
LINE
  5
27C
330
1F
100
AcDbEntity
  8
LAY-10
  6
CONTINUOUS
 62
     7
100
AcDbLine
 10
977.9999999999999
 20
991.5000000000001
 30
0.0
 11
977.9999999999999
 21
971.5000000000001
 31
0.0
  0
LINE
  5
27D
330
1F
100
AcDbEntity
  8
LAY-10
  6
CONTINUOUS
 62
     7
100
AcDbLine
 10
977.9999999999999
 20
971.5000000000001
 30
0.0
 11
997.9999999999999
 21
971.5000000000001
 31
0.0
  0
LINE
  5
27E
330
1F
100
AcDbEntity
  8
LAY-10
  6
CONTINUOUS
 62
     7
100
AcDbLine
 10
997.9999999999999
 20
971.5000000000001
 30
0.0
 11
997.9999999999999
 21
991.5000000000001
 31
0.0
  0
LINE
  5
27F
330
1F
100
AcDbEntity
  8
LAY-10
  6
CONTINUOUS
 62
     7
100
AcDbLine
 10
962.5
 20
991.5000000000001
 30
0.0
 11
942.5
 21
991.5000000000001
 31
0.0
  0
LINE
  5
280
330
1F
100
AcDbEntity
  8
LAY-10
  6
CONTINUOUS
 62
     7
100
AcDbLine
 10
942.5
 20
991.5000000000001
 30
0.0
 11
942.5
 21
971.5000000000001
 31
0.0
  0
LINE
  5
281
330
1F
100
AcDbEntity
  8
LAY-10
  6
CONTINUOUS
 62
     7
100
AcDbLine
 10
942.5
 20
971.5000000000001
 30
0.0
 11
962.5
 21
971.5000000000001
 31
0.0
  0
LINE
  5
282
330
1F
100
AcDbEntity
  8
LAY-10
  6
CONTINUOUS
 62
     7
100
AcDbLine
 10
962.5
 20
971.5000000000001
 30
0.0
 11
962.5
 21
991.5000000000001
 31
0.0
  0
LINE
  5
283
330
1F
100
AcDbEntity
  8
LAY-10
  6
CONTINUOUS
 62
     7
100
AcDbLine
 10
926.9999999999999
 20
991.5000000000001
 30
0.0
 11
906.9999999999999
 21
991.5000000000001
 31
0.0
  0
LINE
  5
284
330
1F
100
AcDbEntity
  8
LAY-10
  6
CONTINUOUS
 62
     7
100
AcDbLine
 10
906.9999999999999
 20
991.5000000000001
 30
0.0
 11
906.9999999999999
 21
971.5000000000001
 31
0.0
  0
LINE
  5
285
330
1F
100
AcDbEntity
  8
LAY-10
  6
CONTINUOUS
 62
     7
100
AcDbLine
 10
906.9999999999999
 20
971.5000000000001
 30
0.0
 11
926.9999999999999
 21
971.5000000000001
 31
0.0
  0
LINE
  5
286
330
1F
100
AcDbEntity
  8
LAY-10
  6
CONTINUOUS
 62
     7
100
AcDbLine
 10
926.9999999999999
 20
971.5000000000001
 30
0.0
 11
926.9999999999999
 21
991.5000000000001
 31
0.0
  0
LINE
  5
287
330
1F
100
AcDbEntity
  8
LAY-10
  6
CONTINUOUS
 62
     7
100
AcDbLine
 10
891.4999999999999
 20
991.5000000000001
 30
0.0
 11
871.4999999999999
 21
991.5000000000001
 31
0.0
  0
LINE
  5
288
330
1F
100
AcDbEntity
  8
LAY-10
  6
CONTINUOUS
 62
     7
100
AcDbLine
 10
871.4999999999999
 20
991.5000000000001
 30
0.0
 11
871.4999999999999
 21
971.5000000000001
 31
0.0
  0
LINE
  5
289
330
1F
100
AcDbEntity
  8
LAY-10
  6
CONTINUOUS
 62
     7
100
AcDbLine
 10
871.4999999999999
 20
971.5000000000001
 30
0.0
 11
891.4999999999999
 21
971.5000000000001
 31
0.0
  0
LINE
  5
28A
330
1F
100
AcDbEntity
  8
LAY-10
  6
CONTINUOUS
 62
     7
100
AcDbLine
 10
891.4999999999999
 20
971.5000000000001
 30
0.0
 11
891.4999999999999
 21
991.5000000000001
 31
0.0
  0
LINE
  5
28B
330
1F
100
AcDbEntity
  8
LAY-10
  6
CONTINUOUS
 62
     7
100
AcDbLine
 10
855.9999999999999
 20
991.5000000000001
 30
0.0
 11
835.9999999999999
 21
991.5000000000001
 31
0.0
  0
LINE
  5
28C
330
1F
100
AcDbEntity
  8
LAY-10
  6
CONTINUOUS
 62
     7
100
AcDbLine
 10
835.9999999999999
 20
991.5000000000001
 30
0.0
 11
835.9999999999999
 21
971.5000000000001
 31
0.0
  0
LINE
  5
28D
330
1F
100
AcDbEntity
  8
LAY-10
  6
CONTINUOUS
 62
     7
100
AcDbLine
 10
835.9999999999999
 20
971.5000000000001
 30
0.0
 11
855.9999999999999
 21
971.5000000000001
 31
0.0
  0
LINE
  5
28E
330
1F
100
AcDbEntity
  8
LAY-10
  6
CONTINUOUS
 62
     7
100
AcDbLine
 10
855.9999999999999
 20
971.5000000000001
 30
0.0
 11
855.9999999999999
 21
991.5000000000001
 31
0.0
  0
LINE
  5
28F
330
1F
100
AcDbEntity
  8
LAY-10
  6
CONTINUOUS
 62
     7
100
AcDbLine
 10
820.4999999999999
 20
991.5000000000001
 30
0.0
 11
800.4999999999999
 21
991.5000000000001
 31
0.0
  0
LINE
  5
290
330
1F
100
AcDbEntity
  8
LAY-10
  6
CONTINUOUS
 62
     7
100
AcDbLine
 10
800.4999999999999
 20
991.5000000000001
 30
0.0
 11
800.4999999999999
 21
971.5000000000001
 31
0.0
  0
LINE
  5
291
330
1F
100
AcDbEntity
  8
LAY-10
  6
CONTINUOUS
 62
     7
100
AcDbLine
 10
800.4999999999999
 20
971.5000000000001
 30
0.0
 11
820.4999999999999
 21
971.5000000000001
 31
0.0
  0
LINE
  5
292
330
1F
100
AcDbEntity
  8
LAY-10
  6
CONTINUOUS
 62
     7
100
AcDbLine
 10
820.4999999999999
 20
971.5000000000001
 30
0.0
 11
820.4999999999999
 21
991.5000000000001
 31
0.0
  0
LINE
  5
293
330
1F
100
AcDbEntity
  8
LAY-10
  6
CONTINUOUS
 62
     7
100
AcDbLine
 10
480.9999999999999
 20
956.0
 30
0.0
 11
500.9999999999999
 21
956.0
 31
0.0
  0
LINE
  5
294
330
1F
100
AcDbEntity
  8
LAY-10
  6
CONTINUOUS
 62
     7
100
AcDbLine
 10
500.9999999999999
 20
956.0
 30
0.0
 11
500.9999999999999
 21
936.0
 31
0.0
  0
LINE
  5
295
330
1F
100
AcDbEntity
  8
LAY-10
  6
CONTINUOUS
 62
     7
100
AcDbLine
 10
500.9999999999999
 20
936.0
 30
0.0
 11
480.9999999999999
 21
936.0
 31
0.0
  0
LINE
  5
296
330
1F
100
AcDbEntity
  8
LAY-10
  6
CONTINUOUS
 62
     7
100
AcDbLine
 10
480.9999999999999
 20
936.0
 30
0.0
 11
480.9999999999999
 21
956.0
 31
0.0
  0
LINE
  5
297
330
1F
100
AcDbEntity
  8
LAY-10
  6
CONTINUOUS
 62
     7
100
AcDbLine
 10
516.4999999999999
 20
956.0
 30
0.0
 11
536.4999999999999
 21
956.0
 31
0.0
  0
LINE
  5
298
330
1F
100
AcDbEntity
  8
LAY-10
  6
CONTINUOUS
 62
     7
100
AcDbLine
 10
536.4999999999999
 20
956.0
 30
0.0
 11
536.4999999999999
 21
936.0
 31
0.0
  0
LINE
  5
299
330
1F
100
AcDbEntity
  8
LAY-10
  6
CONTINUOUS
 62
     7
100
AcDbLine
 10
536.4999999999999
 20
936.0
 30
0.0
 11
516.4999999999999
 21
936.0
 31
0.0
  0
LINE
  5
29A
330
1F
100
AcDbEntity
  8
LAY-10
  6
CONTINUOUS
 62
     7
100
AcDbLine
 10
516.4999999999999
 20
936.0
 30
0.0
 11
516.4999999999999
 21
956.0
 31
0.0
  0
LINE
  5
29B
330
1F
100
AcDbEntity
  8
LAY-10
  6
CONTINUOUS
 62
     7
100
AcDbLine
 10
551.9999999999999
 20
956.0
 30
0.0
 11
571.9999999999999
 21
956.0
 31
0.0
  0
LINE
  5
29C
330
1F
100
AcDbEntity
  8
LAY-10
  6
CONTINUOUS
 62
     7
100
AcDbLine
 10
571.9999999999999
 20
956.0
 30
0.0
 11
571.9999999999999
 21
936.0
 31
0.0
  0
LINE
  5
29D
330
1F
100
AcDbEntity
  8
LAY-10
  6
CONTINUOUS
 62
     7
100
AcDbLine
 10
571.9999999999999
 20
936.0
 30
0.0
 11
551.9999999999999
 21
936.0
 31
0.0
  0
LINE
  5
29E
330
1F
100
AcDbEntity
  8
LAY-10
  6
CONTINUOUS
 62
     7
100
AcDbLine
 10
551.9999999999999
 20
936.0
 30
0.0
 11
551.9999999999999
 21
956.0
 31
0.0
  0
LINE
  5
29F
330
1F
100
AcDbEntity
  8
LAY-10
  6
CONTINUOUS
 62
     7
100
AcDbLine
 10
587.4999999999998
 20
956.0
 30
0.0
 11
607.4999999999998
 21
956.0
 31
0.0
  0
LINE
  5
2A0
330
1F
100
AcDbEntity
  8
LAY-10
  6
CONTINUOUS
 62
     7
100
AcDbLine
 10
607.4999999999998
 20
956.0
 30
0.0
 11
607.4999999999998
 21
936.0
 31
0.0
  0
LINE
  5
2A1
330
1F
100
AcDbEntity
  8
LAY-10
  6
CONTINUOUS
 62
     7
100
AcDbLine
 10
607.4999999999998
 20
936.0
 30
0.0
 11
587.4999999999998
 21
936.0
 31
0.0
  0
LINE
  5
2A2
330
1F
100
AcDbEntity
  8
LAY-10
  6
CONTINUOUS
 62
     7
100
AcDbLine
 10
587.4999999999998
 20
936.0
 30
0.0
 11
587.4999999999998
 21
956.0
 31
0.0
  0
LINE
  5
2A3
330
1F
100
AcDbEntity
  8
LAY-10
  6
CONTINUOUS
 62
     7
100
AcDbLine
 10
622.9999999999999
 20
956.0
 30
0.0
 11
642.9999999999999
 21
956.0
 31
0.0
  0
LINE
  5
2A4
330
1F
100
AcDbEntity
  8
LAY-10
  6
CONTINUOUS
 62
     7
100
AcDbLine
 10
642.9999999999999
 20
956.0
 30
0.0
 11
642.9999999999999
 21
936.0
 31
0.0
  0
LINE
  5
2A5
330
1F
100
AcDbEntity
  8
LAY-10
  6
CONTINUOUS
 62
     7
100
AcDbLine
 10
642.9999999999999
 20
936.0
 30
0.0
 11
622.9999999999999
 21
936.0
 31
0.0
  0
LINE
  5
2A6
330
1F
100
AcDbEntity
  8
LAY-10
  6
CONTINUOUS
 62
     7
100
AcDbLine
 10
622.9999999999999
 20
936.0
 30
0.0
 11
622.9999999999999
 21
956.0
 31
0.0
  0
LINE
  5
2A7
330
1F
100
AcDbEntity
  8
LAY-10
  6
CONTINUOUS
 62
     7
100
AcDbLine
 10
658.4999999999999
 20
956.0
 30
0.0
 11
678.4999999999999
 21
956.0
 31
0.0
  0
LINE
  5
2A8
330
1F
100
AcDbEntity
  8
LAY-10
  6
CONTINUOUS
 62
     7
100
AcDbLine
 10
678.4999999999999
 20
956.0
 30
0.0
 11
678.4999999999999
 21
936.0
 31
0.0
  0
LINE
  5
2A9
330
1F
100
AcDbEntity
  8
LAY-10
  6
CONTINUOUS
 62
     7
100
AcDbLine
 10
678.4999999999999
 20
936.0
 30
0.0
 11
658.4999999999999
 21
936.0
 31
0.0
  0
LINE
  5
2AA
330
1F
100
AcDbEntity
  8
LAY-10
  6
CONTINUOUS
 62
     7
100
AcDbLine
 10
658.4999999999999
 20
936.0
 30
0.0
 11
658.4999999999999
 21
956.0
 31
0.0
  0
LINE
  5
2AB
330
1F
100
AcDbEntity
  8
LAY-10
  6
CONTINUOUS
 62
     7
100
AcDbLine
 10
693.9999999999999
 20
956.0
 30
0.0
 11
713.9999999999999
 21
956.0
 31
0.0
  0
LINE
  5
2AC
330
1F
100
AcDbEntity
  8
LAY-10
  6
CONTINUOUS
 62
     7
100
AcDbLine
 10
713.9999999999999
 20
956.0
 30
0.0
 11
713.9999999999999
 21
936.0
 31
0.0
  0
LINE
  5
2AD
330
1F
100
AcDbEntity
  8
LAY-10
  6
CONTINUOUS
 62
     7
100
AcDbLine
 10
713.9999999999999
 20
936.0
 30
0.0
 11
693.9999999999999
 21
936.0
 31
0.0
  0
LINE
  5
2AE
330
1F
100
AcDbEntity
  8
LAY-10
  6
CONTINUOUS
 62
     7
100
AcDbLine
 10
693.9999999999999
 20
936.0
 30
0.0
 11
693.9999999999999
 21
956.0
 31
0.0
  0
LINE
  5
2AF
330
1F
100
AcDbEntity
  8
LAY-10
  6
CONTINUOUS
 62
     7
100
AcDbLine
 10
729.4999999999999
 20
956.0
 30
0.0
 11
749.4999999999999
 21
956.0
 31
0.0
  0
LINE
  5
2B0
330
1F
100
AcDbEntity
  8
LAY-10
  6
CONTINUOUS
 62
     7
100
AcDbLine
 10
749.4999999999999
 20
956.0
 30
0.0
 11
749.4999999999999
 21
936.0
 31
0.0
  0
LINE
  5
2B1
330
1F
100
AcDbEntity
  8
LAY-10
  6
CONTINUOUS
 62
     7
100
AcDbLine
 10
749.4999999999999
 20
936.0
 30
0.0
 11
729.4999999999999
 21
936.0
 31
0.0
  0
LINE
  5
2B2
330
1F
100
AcDbEntity
  8
LAY-10
  6
CONTINUOUS
 62
     7
100
AcDbLine
 10
729.4999999999999
 20
936.0
 30
0.0
 11
729.4999999999999
 21
956.0
 31
0.0
  0
LINE
  5
2B3
330
1F
100
AcDbEntity
  8
LAY-10
  6
CONTINUOUS
 62
     7
100
AcDbLine
 10
765.0
 20
956.0
 30
0.0
 11
785.0
 21
956.0
 31
0.0
  0
LINE
  5
2B4
330
1F
100
AcDbEntity
  8
LAY-10
  6
CONTINUOUS
 62
     7
100
AcDbLine
 10
785.0
 20
956.0
 30
0.0
 11
785.0
 21
936.0
 31
0.0
  0
LINE
  5
2B5
330
1F
100
AcDbEntity
  8
LAY-10
  6
CONTINUOUS
 62
     7
100
AcDbLine
 10
785.0
 20
936.0
 30
0.0
 11
765.0
 21
936.0
 31
0.0
  0
LINE
  5
2B6
330
1F
100
AcDbEntity
  8
LAY-10
  6
CONTINUOUS
 62
     7
100
AcDbLine
 10
765.0
 20
936.0
 30
0.0
 11
765.0
 21
956.0
 31
0.0
  0
LINE
  5
2B7
330
1F
100
AcDbEntity
  8
LAY-10
  6
CONTINUOUS
 62
     7
100
AcDbLine
 10
1069.0
 20
956.0
 30
0.0
 11
1049.0
 21
956.0
 31
0.0
  0
LINE
  5
2B8
330
1F
100
AcDbEntity
  8
LAY-10
  6
CONTINUOUS
 62
     7
100
AcDbLine
 10
1049.0
 20
956.0
 30
0.0
 11
1049.0
 21
936.0
 31
0.0
  0
LINE
  5
2B9
330
1F
100
AcDbEntity
  8
LAY-10
  6
CONTINUOUS
 62
     7
100
AcDbLine
 10
1049.0
 20
936.0
 30
0.0
 11
1069.0
 21
936.0
 31
0.0
  0
LINE
  5
2BA
330
1F
100
AcDbEntity
  8
LAY-10
  6
CONTINUOUS
 62
     7
100
AcDbLine
 10
1069.0
 20
936.0
 30
0.0
 11
1069.0
 21
956.0
 31
0.0
  0
LINE
  5
2BB
330
1F
100
AcDbEntity
  8
LAY-10
  6
CONTINUOUS
 62
     7
100
AcDbLine
 10
1033.5
 20
956.0
 30
0.0
 11
1013.5
 21
956.0
 31
0.0
  0
LINE
  5
2BC
330
1F
100
AcDbEntity
  8
LAY-10
  6
CONTINUOUS
 62
     7
100
AcDbLine
 10
1013.5
 20
956.0
 30
0.0
 11
1013.5
 21
936.0
 31
0.0
  0
LINE
  5
2BD
330
1F
100
AcDbEntity
  8
LAY-10
  6
CONTINUOUS
 62
     7
100
AcDbLine
 10
1013.5
 20
936.0
 30
0.0
 11
1033.5
 21
936.0
 31
0.0
  0
LINE
  5
2BE
330
1F
100
AcDbEntity
  8
LAY-10
  6
CONTINUOUS
 62
     7
100
AcDbLine
 10
1033.5
 20
936.0
 30
0.0
 11
1033.5
 21
956.0
 31
0.0
  0
LINE
  5
2BF
330
1F
100
AcDbEntity
  8
LAY-10
  6
CONTINUOUS
 62
     7
100
AcDbLine
 10
997.9999999999999
 20
956.0
 30
0.0
 11
977.9999999999999
 21
956.0
 31
0.0
  0
LINE
  5
2C0
330
1F
100
AcDbEntity
  8
LAY-10
  6
CONTINUOUS
 62
     7
100
AcDbLine
 10
977.9999999999999
 20
956.0
 30
0.0
 11
977.9999999999999
 21
936.0
 31
0.0
  0
LINE
  5
2C1
330
1F
100
AcDbEntity
  8
LAY-10
  6
CONTINUOUS
 62
     7
100
AcDbLine
 10
977.9999999999999
 20
936.0
 30
0.0
 11
997.9999999999999
 21
936.0
 31
0.0
  0
LINE
  5
2C2
330
1F
100
AcDbEntity
  8
LAY-10
  6
CONTINUOUS
 62
     7
100
AcDbLine
 10
997.9999999999999
 20
936.0
 30
0.0
 11
997.9999999999999
 21
956.0
 31
0.0
  0
LINE
  5
2C3
330
1F
100
AcDbEntity
  8
LAY-10
  6
CONTINUOUS
 62
     7
100
AcDbLine
 10
962.5
 20
956.0
 30
0.0
 11
942.5
 21
956.0
 31
0.0
  0
LINE
  5
2C4
330
1F
100
AcDbEntity
  8
LAY-10
  6
CONTINUOUS
 62
     7
100
AcDbLine
 10
942.5
 20
956.0
 30
0.0
 11
942.5
 21
936.0
 31
0.0
  0
LINE
  5
2C5
330
1F
100
AcDbEntity
  8
LAY-10
  6
CONTINUOUS
 62
     7
100
AcDbLine
 10
942.5
 20
936.0
 30
0.0
 11
962.5
 21
936.0
 31
0.0
  0
LINE
  5
2C6
330
1F
100
AcDbEntity
  8
LAY-10
  6
CONTINUOUS
 62
     7
100
AcDbLine
 10
962.5
 20
936.0
 30
0.0
 11
962.5
 21
956.0
 31
0.0
  0
LINE
  5
2C7
330
1F
100
AcDbEntity
  8
LAY-10
  6
CONTINUOUS
 62
     7
100
AcDbLine
 10
926.9999999999999
 20
956.0
 30
0.0
 11
906.9999999999999
 21
956.0
 31
0.0
  0
LINE
  5
2C8
330
1F
100
AcDbEntity
  8
LAY-10
  6
CONTINUOUS
 62
     7
100
AcDbLine
 10
906.9999999999999
 20
956.0
 30
0.0
 11
906.9999999999999
 21
936.0
 31
0.0
  0
LINE
  5
2C9
330
1F
100
AcDbEntity
  8
LAY-10
  6
CONTINUOUS
 62
     7
100
AcDbLine
 10
906.9999999999999
 20
936.0
 30
0.0
 11
926.9999999999999
 21
936.0
 31
0.0
  0
LINE
  5
2CA
330
1F
100
AcDbEntity
  8
LAY-10
  6
CONTINUOUS
 62
     7
100
AcDbLine
 10
926.9999999999999
 20
936.0
 30
0.0
 11
926.9999999999999
 21
956.0
 31
0.0
  0
LINE
  5
2CB
330
1F
100
AcDbEntity
  8
LAY-10
  6
CONTINUOUS
 62
     7
100
AcDbLine
 10
891.4999999999999
 20
956.0
 30
0.0
 11
871.4999999999999
 21
956.0
 31
0.0
  0
LINE
  5
2CC
330
1F
100
AcDbEntity
  8
LAY-10
  6
CONTINUOUS
 62
     7
100
AcDbLine
 10
871.4999999999999
 20
956.0
 30
0.0
 11
871.4999999999999
 21
936.0
 31
0.0
  0
LINE
  5
2CD
330
1F
100
AcDbEntity
  8
LAY-10
  6
CONTINUOUS
 62
     7
100
AcDbLine
 10
871.4999999999999
 20
936.0
 30
0.0
 11
891.4999999999999
 21
936.0
 31
0.0
  0
LINE
  5
2CE
330
1F
100
AcDbEntity
  8
LAY-10
  6
CONTINUOUS
 62
     7
100
AcDbLine
 10
891.4999999999999
 20
936.0
 30
0.0
 11
891.4999999999999
 21
956.0
 31
0.0
  0
LINE
  5
2CF
330
1F
100
AcDbEntity
  8
LAY-10
  6
CONTINUOUS
 62
     7
100
AcDbLine
 10
855.9999999999999
 20
956.0
 30
0.0
 11
835.9999999999999
 21
956.0
 31
0.0
  0
LINE
  5
2D0
330
1F
100
AcDbEntity
  8
LAY-10
  6
CONTINUOUS
 62
     7
100
AcDbLine
 10
835.9999999999999
 20
956.0
 30
0.0
 11
835.9999999999999
 21
936.0
 31
0.0
  0
LINE
  5
2D1
330
1F
100
AcDbEntity
  8
LAY-10
  6
CONTINUOUS
 62
     7
100
AcDbLine
 10
835.9999999999999
 20
936.0
 30
0.0
 11
855.9999999999999
 21
936.0
 31
0.0
  0
LINE
  5
2D2
330
1F
100
AcDbEntity
  8
LAY-10
  6
CONTINUOUS
 62
     7
100
AcDbLine
 10
855.9999999999999
 20
936.0
 30
0.0
 11
855.9999999999999
 21
956.0
 31
0.0
  0
LINE
  5
2D3
330
1F
100
AcDbEntity
  8
LAY-10
  6
CONTINUOUS
 62
     7
100
AcDbLine
 10
820.4999999999999
 20
956.0
 30
0.0
 11
800.4999999999999
 21
956.0
 31
0.0
  0
LINE
  5
2D4
330
1F
100
AcDbEntity
  8
LAY-10
  6
CONTINUOUS
 62
     7
100
AcDbLine
 10
800.4999999999999
 20
956.0
 30
0.0
 11
800.4999999999999
 21
936.0
 31
0.0
  0
LINE
  5
2D5
330
1F
100
AcDbEntity
  8
LAY-10
  6
CONTINUOUS
 62
     7
100
AcDbLine
 10
800.4999999999999
 20
936.0
 30
0.0
 11
820.4999999999999
 21
936.0
 31
0.0
  0
LINE
  5
2D6
330
1F
100
AcDbEntity
  8
LAY-10
  6
CONTINUOUS
 62
     7
100
AcDbLine
 10
820.4999999999999
 20
936.0
 30
0.0
 11
820.4999999999999
 21
956.0
 31
0.0
  0
LINE
  5
2D7
330
1F
100
AcDbEntity
  8
LAY-10
  6
CONTINUOUS
 62
     7
100
AcDbLine
 10
480.9999999999999
 20
920.5000000000001
 30
0.0
 11
500.9999999999999
 21
920.5000000000001
 31
0.0
  0
LINE
  5
2D8
330
1F
100
AcDbEntity
  8
LAY-10
  6
CONTINUOUS
 62
     7
100
AcDbLine
 10
500.9999999999999
 20
920.5000000000001
 30
0.0
 11
500.9999999999999
 21
900.5000000000001
 31
0.0
  0
LINE
  5
2D9
330
1F
100
AcDbEntity
  8
LAY-10
  6
CONTINUOUS
 62
     7
100
AcDbLine
 10
500.9999999999999
 20
900.5000000000001
 30
0.0
 11
480.9999999999999
 21
900.5000000000001
 31
0.0
  0
LINE
  5
2DA
330
1F
100
AcDbEntity
  8
LAY-10
  6
CONTINUOUS
 62
     7
100
AcDbLine
 10
480.9999999999999
 20
900.5000000000001
 30
0.0
 11
480.9999999999999
 21
920.5000000000001
 31
0.0
  0
LINE
  5
2DB
330
1F
100
AcDbEntity
  8
LAY-10
  6
CONTINUOUS
 62
     7
100
AcDbLine
 10
516.4999999999999
 20
920.5000000000001
 30
0.0
 11
536.4999999999999
 21
920.5000000000001
 31
0.0
  0
LINE
  5
2DC
330
1F
100
AcDbEntity
  8
LAY-10
  6
CONTINUOUS
 62
     7
100
AcDbLine
 10
536.4999999999999
 20
920.5000000000001
 30
0.0
 11
536.4999999999999
 21
900.5000000000001
 31
0.0
  0
LINE
  5
2DD
330
1F
100
AcDbEntity
  8
LAY-10
  6
CONTINUOUS
 62
     7
100
AcDbLine
 10
536.4999999999999
 20
900.5000000000001
 30
0.0
 11
516.4999999999999
 21
900.5000000000001
 31
0.0
  0
LINE
  5
2DE
330
1F
100
AcDbEntity
  8
LAY-10
  6
CONTINUOUS
 62
     7
100
AcDbLine
 10
516.4999999999999
 20
900.5000000000001
 30
0.0
 11
516.4999999999999
 21
920.5000000000001
 31
0.0
  0
LINE
  5
2DF
330
1F
100
AcDbEntity
  8
LAY-10
  6
CONTINUOUS
 62
     7
100
AcDbLine
 10
551.9999999999999
 20
920.5000000000001
 30
0.0
 11
571.9999999999999
 21
920.5000000000001
 31
0.0
  0
LINE
  5
2E0
330
1F
100
AcDbEntity
  8
LAY-10
  6
CONTINUOUS
 62
     7
100
AcDbLine
 10
571.9999999999999
 20
920.5000000000001
 30
0.0
 11
571.9999999999999
 21
900.5000000000001
 31
0.0
  0
LINE
  5
2E1
330
1F
100
AcDbEntity
  8
LAY-10
  6
CONTINUOUS
 62
     7
100
AcDbLine
 10
571.9999999999999
 20
900.5000000000001
 30
0.0
 11
551.9999999999999
 21
900.5000000000001
 31
0.0
  0
LINE
  5
2E2
330
1F
100
AcDbEntity
  8
LAY-10
  6
CONTINUOUS
 62
     7
100
AcDbLine
 10
551.9999999999999
 20
900.5000000000001
 30
0.0
 11
551.9999999999999
 21
920.5000000000001
 31
0.0
  0
LINE
  5
2E3
330
1F
100
AcDbEntity
  8
LAY-10
  6
CONTINUOUS
 62
     7
100
AcDbLine
 10
587.4999999999998
 20
920.5000000000001
 30
0.0
 11
607.4999999999998
 21
920.5000000000001
 31
0.0
  0
LINE
  5
2E4
330
1F
100
AcDbEntity
  8
LAY-10
  6
CONTINUOUS
 62
     7
100
AcDbLine
 10
607.4999999999998
 20
920.5000000000001
 30
0.0
 11
607.4999999999998
 21
900.5000000000001
 31
0.0
  0
LINE
  5
2E5
330
1F
100
AcDbEntity
  8
LAY-10
  6
CONTINUOUS
 62
     7
100
AcDbLine
 10
607.4999999999998
 20
900.5000000000001
 30
0.0
 11
587.4999999999998
 21
900.5000000000001
 31
0.0
  0
LINE
  5
2E6
330
1F
100
AcDbEntity
  8
LAY-10
  6
CONTINUOUS
 62
     7
100
AcDbLine
 10
587.4999999999998
 20
900.5000000000001
 30
0.0
 11
587.4999999999998
 21
920.5000000000001
 31
0.0
  0
LINE
  5
2E7
330
1F
100
AcDbEntity
  8
LAY-10
  6
CONTINUOUS
 62
     7
100
AcDbLine
 10
622.9999999999999
 20
920.5000000000001
 30
0.0
 11
642.9999999999999
 21
920.5000000000001
 31
0.0
  0
LINE
  5
2E8
330
1F
100
AcDbEntity
  8
LAY-10
  6
CONTINUOUS
 62
     7
100
AcDbLine
 10
642.9999999999999
 20
920.5000000000001
 30
0.0
 11
642.9999999999999
 21
900.5000000000001
 31
0.0
  0
LINE
  5
2E9
330
1F
100
AcDbEntity
  8
LAY-10
  6
CONTINUOUS
 62
     7
100
AcDbLine
 10
642.9999999999999
 20
900.5000000000001
 30
0.0
 11
622.9999999999999
 21
900.5000000000001
 31
0.0
  0
LINE
  5
2EA
330
1F
100
AcDbEntity
  8
LAY-10
  6
CONTINUOUS
 62
     7
100
AcDbLine
 10
622.9999999999999
 20
900.5000000000001
 30
0.0
 11
622.9999999999999
 21
920.5000000000001
 31
0.0
  0
LINE
  5
2EB
330
1F
100
AcDbEntity
  8
LAY-10
  6
CONTINUOUS
 62
     7
100
AcDbLine
 10
658.4999999999999
 20
920.5000000000001
 30
0.0
 11
678.4999999999999
 21
920.5000000000001
 31
0.0
  0
LINE
  5
2EC
330
1F
100
AcDbEntity
  8
LAY-10
  6
CONTINUOUS
 62
     7
100
AcDbLine
 10
678.4999999999999
 20
920.5000000000001
 30
0.0
 11
678.4999999999999
 21
900.5000000000001
 31
0.0
  0
LINE
  5
2ED
330
1F
100
AcDbEntity
  8
LAY-10
  6
CONTINUOUS
 62
     7
100
AcDbLine
 10
678.4999999999999
 20
900.5000000000001
 30
0.0
 11
658.4999999999999
 21
900.5000000000001
 31
0.0
  0
LINE
  5
2EE
330
1F
100
AcDbEntity
  8
LAY-10
  6
CONTINUOUS
 62
     7
100
AcDbLine
 10
658.4999999999999
 20
900.5000000000001
 30
0.0
 11
658.4999999999999
 21
920.5000000000001
 31
0.0
  0
LINE
  5
2EF
330
1F
100
AcDbEntity
  8
LAY-10
  6
CONTINUOUS
 62
     7
100
AcDbLine
 10
693.9999999999999
 20
920.5000000000001
 30
0.0
 11
713.9999999999999
 21
920.5000000000001
 31
0.0
  0
LINE
  5
2F0
330
1F
100
AcDbEntity
  8
LAY-10
  6
CONTINUOUS
 62
     7
100
AcDbLine
 10
713.9999999999999
 20
920.5000000000001
 30
0.0
 11
713.9999999999999
 21
900.5000000000001
 31
0.0
  0
LINE
  5
2F1
330
1F
100
AcDbEntity
  8
LAY-10
  6
CONTINUOUS
 62
     7
100
AcDbLine
 10
713.9999999999999
 20
900.5000000000001
 30
0.0
 11
693.9999999999999
 21
900.5000000000001
 31
0.0
  0
LINE
  5
2F2
330
1F
100
AcDbEntity
  8
LAY-10
  6
CONTINUOUS
 62
     7
100
AcDbLine
 10
693.9999999999999
 20
900.5000000000001
 30
0.0
 11
693.9999999999999
 21
920.5000000000001
 31
0.0
  0
LINE
  5
2F3
330
1F
100
AcDbEntity
  8
LAY-10
  6
CONTINUOUS
 62
     7
100
AcDbLine
 10
729.4999999999999
 20
920.5000000000001
 30
0.0
 11
749.4999999999999
 21
920.5000000000001
 31
0.0
  0
LINE
  5
2F4
330
1F
100
AcDbEntity
  8
LAY-10
  6
CONTINUOUS
 62
     7
100
AcDbLine
 10
749.4999999999999
 20
920.5000000000001
 30
0.0
 11
749.4999999999999
 21
900.5000000000001
 31
0.0
  0
LINE
  5
2F5
330
1F
100
AcDbEntity
  8
LAY-10
  6
CONTINUOUS
 62
     7
100
AcDbLine
 10
749.4999999999999
 20
900.5000000000001
 30
0.0
 11
729.4999999999999
 21
900.5000000000001
 31
0.0
  0
LINE
  5
2F6
330
1F
100
AcDbEntity
  8
LAY-10
  6
CONTINUOUS
 62
     7
100
AcDbLine
 10
729.4999999999999
 20
900.5000000000001
 30
0.0
 11
729.4999999999999
 21
920.5000000000001
 31
0.0
  0
LINE
  5
2F7
330
1F
100
AcDbEntity
  8
LAY-10
  6
CONTINUOUS
 62
     7
100
AcDbLine
 10
765.0
 20
920.5000000000001
 30
0.0
 11
785.0
 21
920.5000000000001
 31
0.0
  0
LINE
  5
2F8
330
1F
100
AcDbEntity
  8
LAY-10
  6
CONTINUOUS
 62
     7
100
AcDbLine
 10
785.0
 20
920.5000000000001
 30
0.0
 11
785.0
 21
900.5000000000001
 31
0.0
  0
LINE
  5
2F9
330
1F
100
AcDbEntity
  8
LAY-10
  6
CONTINUOUS
 62
     7
100
AcDbLine
 10
785.0
 20
900.5000000000001
 30
0.0
 11
765.0
 21
900.5000000000001
 31
0.0
  0
LINE
  5
2FA
330
1F
100
AcDbEntity
  8
LAY-10
  6
CONTINUOUS
 62
     7
100
AcDbLine
 10
765.0
 20
900.5000000000001
 30
0.0
 11
765.0
 21
920.5000000000001
 31
0.0
  0
LINE
  5
2FB
330
1F
100
AcDbEntity
  8
LAY-10
  6
CONTINUOUS
 62
     7
100
AcDbLine
 10
1069.0
 20
920.5000000000001
 30
0.0
 11
1049.0
 21
920.5000000000001
 31
0.0
  0
LINE
  5
2FC
330
1F
100
AcDbEntity
  8
LAY-10
  6
CONTINUOUS
 62
     7
100
AcDbLine
 10
1049.0
 20
920.5000000000001
 30
0.0
 11
1049.0
 21
900.5000000000001
 31
0.0
  0
LINE
  5
2FD
330
1F
100
AcDbEntity
  8
LAY-10
  6
CONTINUOUS
 62
     7
100
AcDbLine
 10
1049.0
 20
900.5000000000001
 30
0.0
 11
1069.0
 21
900.5000000000001
 31
0.0
  0
LINE
  5
2FE
330
1F
100
AcDbEntity
  8
LAY-10
  6
CONTINUOUS
 62
     7
100
AcDbLine
 10
1069.0
 20
900.5000000000001
 30
0.0
 11
1069.0
 21
920.5000000000001
 31
0.0
  0
LINE
  5
2FF
330
1F
100
AcDbEntity
  8
LAY-10
  6
CONTINUOUS
 62
     7
100
AcDbLine
 10
1033.5
 20
920.5000000000001
 30
0.0
 11
1013.5
 21
920.5000000000001
 31
0.0
  0
LINE
  5
300
330
1F
100
AcDbEntity
  8
LAY-10
  6
CONTINUOUS
 62
     7
100
AcDbLine
 10
1013.5
 20
920.5000000000001
 30
0.0
 11
1013.5
 21
900.5000000000001
 31
0.0
  0
LINE
  5
301
330
1F
100
AcDbEntity
  8
LAY-10
  6
CONTINUOUS
 62
     7
100
AcDbLine
 10
1013.5
 20
900.5000000000001
 30
0.0
 11
1033.5
 21
900.5000000000001
 31
0.0
  0
LINE
  5
302
330
1F
100
AcDbEntity
  8
LAY-10
  6
CONTINUOUS
 62
     7
100
AcDbLine
 10
1033.5
 20
900.5000000000001
 30
0.0
 11
1033.5
 21
920.5000000000001
 31
0.0
  0
LINE
  5
303
330
1F
100
AcDbEntity
  8
LAY-10
  6
CONTINUOUS
 62
     7
100
AcDbLine
 10
997.9999999999999
 20
920.5000000000001
 30
0.0
 11
977.9999999999999
 21
920.5000000000001
 31
0.0
  0
LINE
  5
304
330
1F
100
AcDbEntity
  8
LAY-10
  6
CONTINUOUS
 62
     7
100
AcDbLine
 10
977.9999999999999
 20
920.5000000000001
 30
0.0
 11
977.9999999999999
 21
900.5000000000001
 31
0.0
  0
LINE
  5
305
330
1F
100
AcDbEntity
  8
LAY-10
  6
CONTINUOUS
 62
     7
100
AcDbLine
 10
977.9999999999999
 20
900.5000000000001
 30
0.0
 11
997.9999999999999
 21
900.5000000000001
 31
0.0
  0
LINE
  5
306
330
1F
100
AcDbEntity
  8
LAY-10
  6
CONTINUOUS
 62
     7
100
AcDbLine
 10
997.9999999999999
 20
900.5000000000001
 30
0.0
 11
997.9999999999999
 21
920.5000000000001
 31
0.0
  0
LINE
  5
307
330
1F
100
AcDbEntity
  8
LAY-10
  6
CONTINUOUS
 62
     7
100
AcDbLine
 10
962.5
 20
920.5000000000001
 30
0.0
 11
942.5
 21
920.5000000000001
 31
0.0
  0
LINE
  5
308
330
1F
100
AcDbEntity
  8
LAY-10
  6
CONTINUOUS
 62
     7
100
AcDbLine
 10
942.5
 20
920.5000000000001
 30
0.0
 11
942.5
 21
900.5000000000001
 31
0.0
  0
LINE
  5
309
330
1F
100
AcDbEntity
  8
LAY-10
  6
CONTINUOUS
 62
     7
100
AcDbLine
 10
942.5
 20
900.5000000000001
 30
0.0
 11
962.5
 21
900.5000000000001
 31
0.0
  0
LINE
  5
30A
330
1F
100
AcDbEntity
  8
LAY-10
  6
CONTINUOUS
 62
     7
100
AcDbLine
 10
962.5
 20
900.5000000000001
 30
0.0
 11
962.5
 21
920.5000000000001
 31
0.0
  0
LINE
  5
30B
330
1F
100
AcDbEntity
  8
LAY-10
  6
CONTINUOUS
 62
     7
100
AcDbLine
 10
926.9999999999999
 20
920.5000000000001
 30
0.0
 11
906.9999999999999
 21
920.5000000000001
 31
0.0
  0
LINE
  5
30C
330
1F
100
AcDbEntity
  8
LAY-10
  6
CONTINUOUS
 62
     7
100
AcDbLine
 10
906.9999999999999
 20
920.5000000000001
 30
0.0
 11
906.9999999999999
 21
900.5000000000001
 31
0.0
  0
LINE
  5
30D
330
1F
100
AcDbEntity
  8
LAY-10
  6
CONTINUOUS
 62
     7
100
AcDbLine
 10
906.9999999999999
 20
900.5000000000001
 30
0.0
 11
926.9999999999999
 21
900.5000000000001
 31
0.0
  0
LINE
  5
30E
330
1F
100
AcDbEntity
  8
LAY-10
  6
CONTINUOUS
 62
     7
100
AcDbLine
 10
926.9999999999999
 20
900.5000000000001
 30
0.0
 11
926.9999999999999
 21
920.5000000000001
 31
0.0
  0
LINE
  5
30F
330
1F
100
AcDbEntity
  8
LAY-10
  6
CONTINUOUS
 62
     7
100
AcDbLine
 10
891.4999999999999
 20
920.5000000000001
 30
0.0
 11
871.4999999999999
 21
920.5000000000001
 31
0.0
  0
LINE
  5
310
330
1F
100
AcDbEntity
  8
LAY-10
  6
CONTINUOUS
 62
     7
100
AcDbLine
 10
871.4999999999999
 20
920.5000000000001
 30
0.0
 11
871.4999999999999
 21
900.5000000000001
 31
0.0
  0
LINE
  5
311
330
1F
100
AcDbEntity
  8
LAY-10
  6
CONTINUOUS
 62
     7
100
AcDbLine
 10
871.4999999999999
 20
900.5000000000001
 30
0.0
 11
891.4999999999999
 21
900.5000000000001
 31
0.0
  0
LINE
  5
312
330
1F
100
AcDbEntity
  8
LAY-10
  6
CONTINUOUS
 62
     7
100
AcDbLine
 10
891.4999999999999
 20
900.5000000000001
 30
0.0
 11
891.4999999999999
 21
920.5000000000001
 31
0.0
  0
LINE
  5
313
330
1F
100
AcDbEntity
  8
LAY-10
  6
CONTINUOUS
 62
     7
100
AcDbLine
 10
855.9999999999999
 20
920.5000000000001
 30
0.0
 11
835.9999999999999
 21
920.5000000000001
 31
0.0
  0
LINE
  5
314
330
1F
100
AcDbEntity
  8
LAY-10
  6
CONTINUOUS
 62
     7
100
AcDbLine
 10
835.9999999999999
 20
920.5000000000001
 30
0.0
 11
835.9999999999999
 21
900.5000000000001
 31
0.0
  0
LINE
  5
315
330
1F
100
AcDbEntity
  8
LAY-10
  6
CONTINUOUS
 62
     7
100
AcDbLine
 10
835.9999999999999
 20
900.5000000000001
 30
0.0
 11
855.9999999999999
 21
900.5000000000001
 31
0.0
  0
LINE
  5
316
330
1F
100
AcDbEntity
  8
LAY-10
  6
CONTINUOUS
 62
     7
100
AcDbLine
 10
855.9999999999999
 20
900.5000000000001
 30
0.0
 11
855.9999999999999
 21
920.5000000000001
 31
0.0
  0
LINE
  5
317
330
1F
100
AcDbEntity
  8
LAY-10
  6
CONTINUOUS
 62
     7
100
AcDbLine
 10
820.4999999999999
 20
920.5000000000001
 30
0.0
 11
800.4999999999999
 21
920.5000000000001
 31
0.0
  0
LINE
  5
318
330
1F
100
AcDbEntity
  8
LAY-10
  6
CONTINUOUS
 62
     7
100
AcDbLine
 10
800.4999999999999
 20
920.5000000000001
 30
0.0
 11
800.4999999999999
 21
900.5000000000001
 31
0.0
  0
LINE
  5
319
330
1F
100
AcDbEntity
  8
LAY-10
  6
CONTINUOUS
 62
     7
100
AcDbLine
 10
800.4999999999999
 20
900.5000000000001
 30
0.0
 11
820.4999999999999
 21
900.5000000000001
 31
0.0
  0
LINE
  5
31A
330
1F
100
AcDbEntity
  8
LAY-10
  6
CONTINUOUS
 62
     7
100
AcDbLine
 10
820.4999999999999
 20
900.5000000000001
 30
0.0
 11
820.4999999999999
 21
920.5000000000001
 31
0.0
  0
LINE
  5
31B
330
1F
100
AcDbEntity
  8
LAY-10
  6
CONTINUOUS
 62
     7
100
AcDbLine
 10
480.9999999999999
 20
885.0000000000001
 30
0.0
 11
500.9999999999999
 21
885.0000000000001
 31
0.0
  0
LINE
  5
31C
330
1F
100
AcDbEntity
  8
LAY-10
  6
CONTINUOUS
 62
     7
100
AcDbLine
 10
500.9999999999999
 20
885.0000000000001
 30
0.0
 11
500.9999999999999
 21
865.0000000000001
 31
0.0
  0
LINE
  5
31D
330
1F
100
AcDbEntity
  8
LAY-10
  6
CONTINUOUS
 62
     7
100
AcDbLine
 10
500.9999999999999
 20
865.0000000000001
 30
0.0
 11
480.9999999999999
 21
865.0000000000001
 31
0.0
  0
LINE
  5
31E
330
1F
100
AcDbEntity
  8
LAY-10
  6
CONTINUOUS
 62
     7
100
AcDbLine
 10
480.9999999999999
 20
865.0000000000001
 30
0.0
 11
480.9999999999999
 21
885.0000000000001
 31
0.0
  0
LINE
  5
31F
330
1F
100
AcDbEntity
  8
LAY-10
  6
CONTINUOUS
 62
     7
100
AcDbLine
 10
516.4999999999999
 20
885.0000000000001
 30
0.0
 11
536.4999999999999
 21
885.0000000000001
 31
0.0
  0
LINE
  5
320
330
1F
100
AcDbEntity
  8
LAY-10
  6
CONTINUOUS
 62
     7
100
AcDbLine
 10
536.4999999999999
 20
885.0000000000001
 30
0.0
 11
536.4999999999999
 21
865.0000000000001
 31
0.0
  0
LINE
  5
321
330
1F
100
AcDbEntity
  8
LAY-10
  6
CONTINUOUS
 62
     7
100
AcDbLine
 10
536.4999999999999
 20
865.0000000000001
 30
0.0
 11
516.4999999999999
 21
865.0000000000001
 31
0.0
  0
LINE
  5
322
330
1F
100
AcDbEntity
  8
LAY-10
  6
CONTINUOUS
 62
     7
100
AcDbLine
 10
516.4999999999999
 20
865.0000000000001
 30
0.0
 11
516.4999999999999
 21
885.0000000000001
 31
0.0
  0
LINE
  5
323
330
1F
100
AcDbEntity
  8
LAY-10
  6
CONTINUOUS
 62
     7
100
AcDbLine
 10
551.9999999999999
 20
885.0000000000001
 30
0.0
 11
571.9999999999999
 21
885.0000000000001
 31
0.0
  0
LINE
  5
324
330
1F
100
AcDbEntity
  8
LAY-10
  6
CONTINUOUS
 62
     7
100
AcDbLine
 10
571.9999999999999
 20
885.0000000000001
 30
0.0
 11
571.9999999999999
 21
865.0000000000001
 31
0.0
  0
LINE
  5
325
330
1F
100
AcDbEntity
  8
LAY-10
  6
CONTINUOUS
 62
     7
100
AcDbLine
 10
571.9999999999999
 20
865.0000000000001
 30
0.0
 11
551.9999999999999
 21
865.0000000000001
 31
0.0
  0
LINE
  5
326
330
1F
100
AcDbEntity
  8
LAY-10
  6
CONTINUOUS
 62
     7
100
AcDbLine
 10
551.9999999999999
 20
865.0000000000001
 30
0.0
 11
551.9999999999999
 21
885.0000000000001
 31
0.0
  0
LINE
  5
327
330
1F
100
AcDbEntity
  8
LAY-10
  6
CONTINUOUS
 62
     7
100
AcDbLine
 10
587.4999999999998
 20
885.0000000000001
 30
0.0
 11
607.4999999999998
 21
885.0000000000001
 31
0.0
  0
LINE
  5
328
330
1F
100
AcDbEntity
  8
LAY-10
  6
CONTINUOUS
 62
     7
100
AcDbLine
 10
607.4999999999998
 20
885.0000000000001
 30
0.0
 11
607.4999999999998
 21
865.0000000000001
 31
0.0
  0
LINE
  5
329
330
1F
100
AcDbEntity
  8
LAY-10
  6
CONTINUOUS
 62
     7
100
AcDbLine
 10
607.4999999999998
 20
865.0000000000001
 30
0.0
 11
587.4999999999998
 21
865.0000000000001
 31
0.0
  0
LINE
  5
32A
330
1F
100
AcDbEntity
  8
LAY-10
  6
CONTINUOUS
 62
     7
100
AcDbLine
 10
587.4999999999998
 20
865.0000000000001
 30
0.0
 11
587.4999999999998
 21
885.0000000000001
 31
0.0
  0
LINE
  5
32B
330
1F
100
AcDbEntity
  8
LAY-10
  6
CONTINUOUS
 62
     7
100
AcDbLine
 10
622.9999999999999
 20
885.0000000000001
 30
0.0
 11
642.9999999999999
 21
885.0000000000001
 31
0.0
  0
LINE
  5
32C
330
1F
100
AcDbEntity
  8
LAY-10
  6
CONTINUOUS
 62
     7
100
AcDbLine
 10
642.9999999999999
 20
885.0000000000001
 30
0.0
 11
642.9999999999999
 21
865.0000000000001
 31
0.0
  0
LINE
  5
32D
330
1F
100
AcDbEntity
  8
LAY-10
  6
CONTINUOUS
 62
     7
100
AcDbLine
 10
642.9999999999999
 20
865.0000000000001
 30
0.0
 11
622.9999999999999
 21
865.0000000000001
 31
0.0
  0
LINE
  5
32E
330
1F
100
AcDbEntity
  8
LAY-10
  6
CONTINUOUS
 62
     7
100
AcDbLine
 10
622.9999999999999
 20
865.0000000000001
 30
0.0
 11
622.9999999999999
 21
885.0000000000001
 31
0.0
  0
LINE
  5
32F
330
1F
100
AcDbEntity
  8
LAY-10
  6
CONTINUOUS
 62
     7
100
AcDbLine
 10
658.4999999999999
 20
885.0000000000001
 30
0.0
 11
678.4999999999999
 21
885.0000000000001
 31
0.0
  0
LINE
  5
330
330
1F
100
AcDbEntity
  8
LAY-10
  6
CONTINUOUS
 62
     7
100
AcDbLine
 10
678.4999999999999
 20
885.0000000000001
 30
0.0
 11
678.4999999999999
 21
865.0000000000001
 31
0.0
  0
LINE
  5
331
330
1F
100
AcDbEntity
  8
LAY-10
  6
CONTINUOUS
 62
     7
100
AcDbLine
 10
678.4999999999999
 20
865.0000000000001
 30
0.0
 11
658.4999999999999
 21
865.0000000000001
 31
0.0
  0
LINE
  5
332
330
1F
100
AcDbEntity
  8
LAY-10
  6
CONTINUOUS
 62
     7
100
AcDbLine
 10
658.4999999999999
 20
865.0000000000001
 30
0.0
 11
658.4999999999999
 21
885.0000000000001
 31
0.0
  0
LINE
  5
333
330
1F
100
AcDbEntity
  8
LAY-10
  6
CONTINUOUS
 62
     7
100
AcDbLine
 10
693.9999999999999
 20
885.0000000000001
 30
0.0
 11
713.9999999999999
 21
885.0000000000001
 31
0.0
  0
LINE
  5
334
330
1F
100
AcDbEntity
  8
LAY-10
  6
CONTINUOUS
 62
     7
100
AcDbLine
 10
713.9999999999999
 20
885.0000000000001
 30
0.0
 11
713.9999999999999
 21
865.0000000000001
 31
0.0
  0
LINE
  5
335
330
1F
100
AcDbEntity
  8
LAY-10
  6
CONTINUOUS
 62
     7
100
AcDbLine
 10
713.9999999999999
 20
865.0000000000001
 30
0.0
 11
693.9999999999999
 21
865.0000000000001
 31
0.0
  0
LINE
  5
336
330
1F
100
AcDbEntity
  8
LAY-10
  6
CONTINUOUS
 62
     7
100
AcDbLine
 10
693.9999999999999
 20
865.0000000000001
 30
0.0
 11
693.9999999999999
 21
885.0000000000001
 31
0.0
  0
LINE
  5
337
330
1F
100
AcDbEntity
  8
LAY-10
  6
CONTINUOUS
 62
     7
100
AcDbLine
 10
729.4999999999999
 20
885.0000000000001
 30
0.0
 11
749.4999999999999
 21
885.0000000000001
 31
0.0
  0
LINE
  5
338
330
1F
100
AcDbEntity
  8
LAY-10
  6
CONTINUOUS
 62
     7
100
AcDbLine
 10
749.4999999999999
 20
885.0000000000001
 30
0.0
 11
749.4999999999999
 21
865.0000000000001
 31
0.0
  0
LINE
  5
339
330
1F
100
AcDbEntity
  8
LAY-10
  6
CONTINUOUS
 62
     7
100
AcDbLine
 10
749.4999999999999
 20
865.0000000000001
 30
0.0
 11
729.4999999999999
 21
865.0000000000001
 31
0.0
  0
LINE
  5
33A
330
1F
100
AcDbEntity
  8
LAY-10
  6
CONTINUOUS
 62
     7
100
AcDbLine
 10
729.4999999999999
 20
865.0000000000001
 30
0.0
 11
729.4999999999999
 21
885.0000000000001
 31
0.0
  0
LINE
  5
33B
330
1F
100
AcDbEntity
  8
LAY-10
  6
CONTINUOUS
 62
     7
100
AcDbLine
 10
765.0
 20
885.0000000000001
 30
0.0
 11
785.0
 21
885.0000000000001
 31
0.0
  0
LINE
  5
33C
330
1F
100
AcDbEntity
  8
LAY-10
  6
CONTINUOUS
 62
     7
100
AcDbLine
 10
785.0
 20
885.0000000000001
 30
0.0
 11
785.0
 21
865.0000000000001
 31
0.0
  0
LINE
  5
33D
330
1F
100
AcDbEntity
  8
LAY-10
  6
CONTINUOUS
 62
     7
100
AcDbLine
 10
785.0
 20
865.0000000000001
 30
0.0
 11
765.0
 21
865.0000000000001
 31
0.0
  0
LINE
  5
33E
330
1F
100
AcDbEntity
  8
LAY-10
  6
CONTINUOUS
 62
     7
100
AcDbLine
 10
765.0
 20
865.0000000000001
 30
0.0
 11
765.0
 21
885.0000000000001
 31
0.0
  0
LINE
  5
33F
330
1F
100
AcDbEntity
  8
LAY-10
  6
CONTINUOUS
 62
     7
100
AcDbLine
 10
1069.0
 20
885.0000000000001
 30
0.0
 11
1049.0
 21
885.0000000000001
 31
0.0
  0
LINE
  5
340
330
1F
100
AcDbEntity
  8
LAY-10
  6
CONTINUOUS
 62
     7
100
AcDbLine
 10
1049.0
 20
885.0000000000001
 30
0.0
 11
1049.0
 21
865.0000000000001
 31
0.0
  0
LINE
  5
341
330
1F
100
AcDbEntity
  8
LAY-10
  6
CONTINUOUS
 62
     7
100
AcDbLine
 10
1049.0
 20
865.0000000000001
 30
0.0
 11
1069.0
 21
865.0000000000001
 31
0.0
  0
LINE
  5
342
330
1F
100
AcDbEntity
  8
LAY-10
  6
CONTINUOUS
 62
     7
100
AcDbLine
 10
1069.0
 20
865.0000000000001
 30
0.0
 11
1069.0
 21
885.0000000000001
 31
0.0
  0
LINE
  5
343
330
1F
100
AcDbEntity
  8
LAY-10
  6
CONTINUOUS
 62
     7
100
AcDbLine
 10
1033.5
 20
885.0000000000001
 30
0.0
 11
1013.5
 21
885.0000000000001
 31
0.0
  0
LINE
  5
344
330
1F
100
AcDbEntity
  8
LAY-10
  6
CONTINUOUS
 62
     7
100
AcDbLine
 10
1013.5
 20
885.0000000000001
 30
0.0
 11
1013.5
 21
865.0000000000001
 31
0.0
  0
LINE
  5
345
330
1F
100
AcDbEntity
  8
LAY-10
  6
CONTINUOUS
 62
     7
100
AcDbLine
 10
1013.5
 20
865.0000000000001
 30
0.0
 11
1033.5
 21
865.0000000000001
 31
0.0
  0
LINE
  5
346
330
1F
100
AcDbEntity
  8
LAY-10
  6
CONTINUOUS
 62
     7
100
AcDbLine
 10
1033.5
 20
865.0000000000001
 30
0.0
 11
1033.5
 21
885.0000000000001
 31
0.0
  0
LINE
  5
347
330
1F
100
AcDbEntity
  8
LAY-10
  6
CONTINUOUS
 62
     7
100
AcDbLine
 10
997.9999999999999
 20
885.0000000000001
 30
0.0
 11
977.9999999999999
 21
885.0000000000001
 31
0.0
  0
LINE
  5
348
330
1F
100
AcDbEntity
  8
LAY-10
  6
CONTINUOUS
 62
     7
100
AcDbLine
 10
977.9999999999999
 20
885.0000000000001
 30
0.0
 11
977.9999999999999
 21
865.0000000000001
 31
0.0
  0
LINE
  5
349
330
1F
100
AcDbEntity
  8
LAY-10
  6
CONTINUOUS
 62
     7
100
AcDbLine
 10
977.9999999999999
 20
865.0000000000001
 30
0.0
 11
997.9999999999999
 21
865.0000000000001
 31
0.0
  0
LINE
  5
34A
330
1F
100
AcDbEntity
  8
LAY-10
  6
CONTINUOUS
 62
     7
100
AcDbLine
 10
997.9999999999999
 20
865.0000000000001
 30
0.0
 11
997.9999999999999
 21
885.0000000000001
 31
0.0
  0
LINE
  5
34B
330
1F
100
AcDbEntity
  8
LAY-10
  6
CONTINUOUS
 62
     7
100
AcDbLine
 10
962.5
 20
885.0000000000001
 30
0.0
 11
942.5
 21
885.0000000000001
 31
0.0
  0
LINE
  5
34C
330
1F
100
AcDbEntity
  8
LAY-10
  6
CONTINUOUS
 62
     7
100
AcDbLine
 10
942.5
 20
885.0000000000001
 30
0.0
 11
942.5
 21
865.0000000000001
 31
0.0
  0
LINE
  5
34D
330
1F
100
AcDbEntity
  8
LAY-10
  6
CONTINUOUS
 62
     7
100
AcDbLine
 10
942.5
 20
865.0000000000001
 30
0.0
 11
962.5
 21
865.0000000000001
 31
0.0
  0
LINE
  5
34E
330
1F
100
AcDbEntity
  8
LAY-10
  6
CONTINUOUS
 62
     7
100
AcDbLine
 10
962.5
 20
865.0000000000001
 30
0.0
 11
962.5
 21
885.0000000000001
 31
0.0
  0
LINE
  5
34F
330
1F
100
AcDbEntity
  8
LAY-10
  6
CONTINUOUS
 62
     7
100
AcDbLine
 10
926.9999999999999
 20
885.0000000000001
 30
0.0
 11
906.9999999999999
 21
885.0000000000001
 31
0.0
  0
LINE
  5
350
330
1F
100
AcDbEntity
  8
LAY-10
  6
CONTINUOUS
 62
     7
100
AcDbLine
 10
906.9999999999999
 20
885.0000000000001
 30
0.0
 11
906.9999999999999
 21
865.0000000000001
 31
0.0
  0
LINE
  5
351
330
1F
100
AcDbEntity
  8
LAY-10
  6
CONTINUOUS
 62
     7
100
AcDbLine
 10
906.9999999999999
 20
865.0000000000001
 30
0.0
 11
926.9999999999999
 21
865.0000000000001
 31
0.0
  0
LINE
  5
352
330
1F
100
AcDbEntity
  8
LAY-10
  6
CONTINUOUS
 62
     7
100
AcDbLine
 10
926.9999999999999
 20
865.0000000000001
 30
0.0
 11
926.9999999999999
 21
885.0000000000001
 31
0.0
  0
LINE
  5
353
330
1F
100
AcDbEntity
  8
LAY-10
  6
CONTINUOUS
 62
     7
100
AcDbLine
 10
891.4999999999999
 20
885.0000000000001
 30
0.0
 11
871.4999999999999
 21
885.0000000000001
 31
0.0
  0
LINE
  5
354
330
1F
100
AcDbEntity
  8
LAY-10
  6
CONTINUOUS
 62
     7
100
AcDbLine
 10
871.4999999999999
 20
885.0000000000001
 30
0.0
 11
871.4999999999999
 21
865.0000000000001
 31
0.0
  0
LINE
  5
355
330
1F
100
AcDbEntity
  8
LAY-10
  6
CONTINUOUS
 62
     7
100
AcDbLine
 10
871.4999999999999
 20
865.0000000000001
 30
0.0
 11
891.4999999999999
 21
865.0000000000001
 31
0.0
  0
LINE
  5
356
330
1F
100
AcDbEntity
  8
LAY-10
  6
CONTINUOUS
 62
     7
100
AcDbLine
 10
891.4999999999999
 20
865.0000000000001
 30
0.0
 11
891.4999999999999
 21
885.0000000000001
 31
0.0
  0
LINE
  5
357
330
1F
100
AcDbEntity
  8
LAY-10
  6
CONTINUOUS
 62
     7
100
AcDbLine
 10
855.9999999999999
 20
885.0000000000001
 30
0.0
 11
835.9999999999999
 21
885.0000000000001
 31
0.0
  0
LINE
  5
358
330
1F
100
AcDbEntity
  8
LAY-10
  6
CONTINUOUS
 62
     7
100
AcDbLine
 10
835.9999999999999
 20
885.0000000000001
 30
0.0
 11
835.9999999999999
 21
865.0000000000001
 31
0.0
  0
LINE
  5
359
330
1F
100
AcDbEntity
  8
LAY-10
  6
CONTINUOUS
 62
     7
100
AcDbLine
 10
835.9999999999999
 20
865.0000000000001
 30
0.0
 11
855.9999999999999
 21
865.0000000000001
 31
0.0
  0
LINE
  5
35A
330
1F
100
AcDbEntity
  8
LAY-10
  6
CONTINUOUS
 62
     7
100
AcDbLine
 10
855.9999999999999
 20
865.0000000000001
 30
0.0
 11
855.9999999999999
 21
885.0000000000001
 31
0.0
  0
LINE
  5
35B
330
1F
100
AcDbEntity
  8
LAY-10
  6
CONTINUOUS
 62
     7
100
AcDbLine
 10
820.4999999999999
 20
885.0000000000001
 30
0.0
 11
800.4999999999999
 21
885.0000000000001
 31
0.0
  0
LINE
  5
35C
330
1F
100
AcDbEntity
  8
LAY-10
  6
CONTINUOUS
 62
     7
100
AcDbLine
 10
800.4999999999999
 20
885.0000000000001
 30
0.0
 11
800.4999999999999
 21
865.0000000000001
 31
0.0
  0
LINE
  5
35D
330
1F
100
AcDbEntity
  8
LAY-10
  6
CONTINUOUS
 62
     7
100
AcDbLine
 10
800.4999999999999
 20
865.0000000000001
 30
0.0
 11
820.4999999999999
 21
865.0000000000001
 31
0.0
  0
LINE
  5
35E
330
1F
100
AcDbEntity
  8
LAY-10
  6
CONTINUOUS
 62
     7
100
AcDbLine
 10
820.4999999999999
 20
865.0000000000001
 30
0.0
 11
820.4999999999999
 21
885.0000000000001
 31
0.0
  0
LINE
  5
35F
330
1F
100
AcDbEntity
  8
LAY-10
  6
CONTINUOUS
 62
     7
100
AcDbLine
 10
480.9999999999999
 20
849.5
 30
0.0
 11
500.9999999999999
 21
849.5
 31
0.0
  0
LINE
  5
360
330
1F
100
AcDbEntity
  8
LAY-10
  6
CONTINUOUS
 62
     7
100
AcDbLine
 10
500.9999999999999
 20
849.5
 30
0.0
 11
500.9999999999999
 21
829.5
 31
0.0
  0
LINE
  5
361
330
1F
100
AcDbEntity
  8
LAY-10
  6
CONTINUOUS
 62
     7
100
AcDbLine
 10
500.9999999999999
 20
829.5
 30
0.0
 11
480.9999999999999
 21
829.5
 31
0.0
  0
LINE
  5
362
330
1F
100
AcDbEntity
  8
LAY-10
  6
CONTINUOUS
 62
     7
100
AcDbLine
 10
480.9999999999999
 20
829.5
 30
0.0
 11
480.9999999999999
 21
849.5
 31
0.0
  0
LINE
  5
363
330
1F
100
AcDbEntity
  8
LAY-10
  6
CONTINUOUS
 62
     7
100
AcDbLine
 10
516.4999999999999
 20
849.5
 30
0.0
 11
536.4999999999999
 21
849.5
 31
0.0
  0
LINE
  5
364
330
1F
100
AcDbEntity
  8
LAY-10
  6
CONTINUOUS
 62
     7
100
AcDbLine
 10
536.4999999999999
 20
849.5
 30
0.0
 11
536.4999999999999
 21
829.5
 31
0.0
  0
LINE
  5
365
330
1F
100
AcDbEntity
  8
LAY-10
  6
CONTINUOUS
 62
     7
100
AcDbLine
 10
536.4999999999999
 20
829.5
 30
0.0
 11
516.4999999999999
 21
829.5
 31
0.0
  0
LINE
  5
366
330
1F
100
AcDbEntity
  8
LAY-10
  6
CONTINUOUS
 62
     7
100
AcDbLine
 10
516.4999999999999
 20
829.5
 30
0.0
 11
516.4999999999999
 21
849.5
 31
0.0
  0
LINE
  5
367
330
1F
100
AcDbEntity
  8
LAY-10
  6
CONTINUOUS
 62
     7
100
AcDbLine
 10
551.9999999999999
 20
849.5
 30
0.0
 11
571.9999999999999
 21
849.5
 31
0.0
  0
LINE
  5
368
330
1F
100
AcDbEntity
  8
LAY-10
  6
CONTINUOUS
 62
     7
100
AcDbLine
 10
571.9999999999999
 20
849.5
 30
0.0
 11
571.9999999999999
 21
829.5
 31
0.0
  0
LINE
  5
369
330
1F
100
AcDbEntity
  8
LAY-10
  6
CONTINUOUS
 62
     7
100
AcDbLine
 10
571.9999999999999
 20
829.5
 30
0.0
 11
551.9999999999999
 21
829.5
 31
0.0
  0
LINE
  5
36A
330
1F
100
AcDbEntity
  8
LAY-10
  6
CONTINUOUS
 62
     7
100
AcDbLine
 10
551.9999999999999
 20
829.5
 30
0.0
 11
551.9999999999999
 21
849.5
 31
0.0
  0
LINE
  5
36B
330
1F
100
AcDbEntity
  8
LAY-10
  6
CONTINUOUS
 62
     7
100
AcDbLine
 10
587.4999999999998
 20
849.5
 30
0.0
 11
607.4999999999998
 21
849.5
 31
0.0
  0
LINE
  5
36C
330
1F
100
AcDbEntity
  8
LAY-10
  6
CONTINUOUS
 62
     7
100
AcDbLine
 10
607.4999999999998
 20
849.5
 30
0.0
 11
607.4999999999998
 21
829.5
 31
0.0
  0
LINE
  5
36D
330
1F
100
AcDbEntity
  8
LAY-10
  6
CONTINUOUS
 62
     7
100
AcDbLine
 10
607.4999999999998
 20
829.5
 30
0.0
 11
587.4999999999998
 21
829.5
 31
0.0
  0
LINE
  5
36E
330
1F
100
AcDbEntity
  8
LAY-10
  6
CONTINUOUS
 62
     7
100
AcDbLine
 10
587.4999999999998
 20
829.5
 30
0.0
 11
587.4999999999998
 21
849.5
 31
0.0
  0
LINE
  5
36F
330
1F
100
AcDbEntity
  8
LAY-10
  6
CONTINUOUS
 62
     7
100
AcDbLine
 10
622.9999999999999
 20
849.5
 30
0.0
 11
642.9999999999999
 21
849.5
 31
0.0
  0
LINE
  5
370
330
1F
100
AcDbEntity
  8
LAY-10
  6
CONTINUOUS
 62
     7
100
AcDbLine
 10
642.9999999999999
 20
849.5
 30
0.0
 11
642.9999999999999
 21
829.5
 31
0.0
  0
LINE
  5
371
330
1F
100
AcDbEntity
  8
LAY-10
  6
CONTINUOUS
 62
     7
100
AcDbLine
 10
642.9999999999999
 20
829.5
 30
0.0
 11
622.9999999999999
 21
829.5
 31
0.0
  0
LINE
  5
372
330
1F
100
AcDbEntity
  8
LAY-10
  6
CONTINUOUS
 62
     7
100
AcDbLine
 10
622.9999999999999
 20
829.5
 30
0.0
 11
622.9999999999999
 21
849.5
 31
0.0
  0
LINE
  5
373
330
1F
100
AcDbEntity
  8
LAY-10
  6
CONTINUOUS
 62
     7
100
AcDbLine
 10
658.4999999999999
 20
849.5
 30
0.0
 11
678.4999999999999
 21
849.5
 31
0.0
  0
LINE
  5
374
330
1F
100
AcDbEntity
  8
LAY-10
  6
CONTINUOUS
 62
     7
100
AcDbLine
 10
678.4999999999999
 20
849.5
 30
0.0
 11
678.4999999999999
 21
829.5
 31
0.0
  0
LINE
  5
375
330
1F
100
AcDbEntity
  8
LAY-10
  6
CONTINUOUS
 62
     7
100
AcDbLine
 10
678.4999999999999
 20
829.5
 30
0.0
 11
658.4999999999999
 21
829.5
 31
0.0
  0
LINE
  5
376
330
1F
100
AcDbEntity
  8
LAY-10
  6
CONTINUOUS
 62
     7
100
AcDbLine
 10
658.4999999999999
 20
829.5
 30
0.0
 11
658.4999999999999
 21
849.5
 31
0.0
  0
LINE
  5
377
330
1F
100
AcDbEntity
  8
LAY-10
  6
CONTINUOUS
 62
     7
100
AcDbLine
 10
693.9999999999999
 20
849.5
 30
0.0
 11
713.9999999999999
 21
849.5
 31
0.0
  0
LINE
  5
378
330
1F
100
AcDbEntity
  8
LAY-10
  6
CONTINUOUS
 62
     7
100
AcDbLine
 10
713.9999999999999
 20
849.5
 30
0.0
 11
713.9999999999999
 21
829.5
 31
0.0
  0
LINE
  5
379
330
1F
100
AcDbEntity
  8
LAY-10
  6
CONTINUOUS
 62
     7
100
AcDbLine
 10
713.9999999999999
 20
829.5
 30
0.0
 11
693.9999999999999
 21
829.5
 31
0.0
  0
LINE
  5
37A
330
1F
100
AcDbEntity
  8
LAY-10
  6
CONTINUOUS
 62
     7
100
AcDbLine
 10
693.9999999999999
 20
829.5
 30
0.0
 11
693.9999999999999
 21
849.5
 31
0.0
  0
LINE
  5
37B
330
1F
100
AcDbEntity
  8
LAY-10
  6
CONTINUOUS
 62
     7
100
AcDbLine
 10
729.4999999999999
 20
849.5
 30
0.0
 11
749.4999999999999
 21
849.5
 31
0.0
  0
LINE
  5
37C
330
1F
100
AcDbEntity
  8
LAY-10
  6
CONTINUOUS
 62
     7
100
AcDbLine
 10
749.4999999999999
 20
849.5
 30
0.0
 11
749.4999999999999
 21
829.5
 31
0.0
  0
LINE
  5
37D
330
1F
100
AcDbEntity
  8
LAY-10
  6
CONTINUOUS
 62
     7
100
AcDbLine
 10
749.4999999999999
 20
829.5
 30
0.0
 11
729.4999999999999
 21
829.5
 31
0.0
  0
LINE
  5
37E
330
1F
100
AcDbEntity
  8
LAY-10
  6
CONTINUOUS
 62
     7
100
AcDbLine
 10
729.4999999999999
 20
829.5
 30
0.0
 11
729.4999999999999
 21
849.5
 31
0.0
  0
LINE
  5
37F
330
1F
100
AcDbEntity
  8
LAY-10
  6
CONTINUOUS
 62
     7
100
AcDbLine
 10
765.0
 20
849.5
 30
0.0
 11
785.0
 21
849.5
 31
0.0
  0
LINE
  5
380
330
1F
100
AcDbEntity
  8
LAY-10
  6
CONTINUOUS
 62
     7
100
AcDbLine
 10
785.0
 20
849.5
 30
0.0
 11
785.0
 21
829.5
 31
0.0
  0
LINE
  5
381
330
1F
100
AcDbEntity
  8
LAY-10
  6
CONTINUOUS
 62
     7
100
AcDbLine
 10
785.0
 20
829.5
 30
0.0
 11
765.0
 21
829.5
 31
0.0
  0
LINE
  5
382
330
1F
100
AcDbEntity
  8
LAY-10
  6
CONTINUOUS
 62
     7
100
AcDbLine
 10
765.0
 20
829.5
 30
0.0
 11
765.0
 21
849.5
 31
0.0
  0
LINE
  5
383
330
1F
100
AcDbEntity
  8
LAY-10
  6
CONTINUOUS
 62
     7
100
AcDbLine
 10
1069.0
 20
849.5
 30
0.0
 11
1049.0
 21
849.5
 31
0.0
  0
LINE
  5
384
330
1F
100
AcDbEntity
  8
LAY-10
  6
CONTINUOUS
 62
     7
100
AcDbLine
 10
1049.0
 20
849.5
 30
0.0
 11
1049.0
 21
829.5
 31
0.0
  0
LINE
  5
385
330
1F
100
AcDbEntity
  8
LAY-10
  6
CONTINUOUS
 62
     7
100
AcDbLine
 10
1049.0
 20
829.5
 30
0.0
 11
1069.0
 21
829.5
 31
0.0
  0
LINE
  5
386
330
1F
100
AcDbEntity
  8
LAY-10
  6
CONTINUOUS
 62
     7
100
AcDbLine
 10
1069.0
 20
829.5
 30
0.0
 11
1069.0
 21
849.5
 31
0.0
  0
LINE
  5
387
330
1F
100
AcDbEntity
  8
LAY-10
  6
CONTINUOUS
 62
     7
100
AcDbLine
 10
1033.5
 20
849.5
 30
0.0
 11
1013.5
 21
849.5
 31
0.0
  0
LINE
  5
388
330
1F
100
AcDbEntity
  8
LAY-10
  6
CONTINUOUS
 62
     7
100
AcDbLine
 10
1013.5
 20
849.5
 30
0.0
 11
1013.5
 21
829.5
 31
0.0
  0
LINE
  5
389
330
1F
100
AcDbEntity
  8
LAY-10
  6
CONTINUOUS
 62
     7
100
AcDbLine
 10
1013.5
 20
829.5
 30
0.0
 11
1033.5
 21
829.5
 31
0.0
  0
LINE
  5
38A
330
1F
100
AcDbEntity
  8
LAY-10
  6
CONTINUOUS
 62
     7
100
AcDbLine
 10
1033.5
 20
829.5
 30
0.0
 11
1033.5
 21
849.5
 31
0.0
  0
LINE
  5
38B
330
1F
100
AcDbEntity
  8
LAY-10
  6
CONTINUOUS
 62
     7
100
AcDbLine
 10
997.9999999999999
 20
849.5
 30
0.0
 11
977.9999999999999
 21
849.5
 31
0.0
  0
LINE
  5
38C
330
1F
100
AcDbEntity
  8
LAY-10
  6
CONTINUOUS
 62
     7
100
AcDbLine
 10
977.9999999999999
 20
849.5
 30
0.0
 11
977.9999999999999
 21
829.5
 31
0.0
  0
LINE
  5
38D
330
1F
100
AcDbEntity
  8
LAY-10
  6
CONTINUOUS
 62
     7
100
AcDbLine
 10
977.9999999999999
 20
829.5
 30
0.0
 11
997.9999999999999
 21
829.5
 31
0.0
  0
LINE
  5
38E
330
1F
100
AcDbEntity
  8
LAY-10
  6
CONTINUOUS
 62
     7
100
AcDbLine
 10
997.9999999999999
 20
829.5
 30
0.0
 11
997.9999999999999
 21
849.5
 31
0.0
  0
LINE
  5
38F
330
1F
100
AcDbEntity
  8
LAY-10
  6
CONTINUOUS
 62
     7
100
AcDbLine
 10
962.5
 20
849.5
 30
0.0
 11
942.5
 21
849.5
 31
0.0
  0
LINE
  5
390
330
1F
100
AcDbEntity
  8
LAY-10
  6
CONTINUOUS
 62
     7
100
AcDbLine
 10
942.5
 20
849.5
 30
0.0
 11
942.5
 21
829.5
 31
0.0
  0
LINE
  5
391
330
1F
100
AcDbEntity
  8
LAY-10
  6
CONTINUOUS
 62
     7
100
AcDbLine
 10
942.5
 20
829.5
 30
0.0
 11
962.5
 21
829.5
 31
0.0
  0
LINE
  5
392
330
1F
100
AcDbEntity
  8
LAY-10
  6
CONTINUOUS
 62
     7
100
AcDbLine
 10
962.5
 20
829.5
 30
0.0
 11
962.5
 21
849.5
 31
0.0
  0
LINE
  5
393
330
1F
100
AcDbEntity
  8
LAY-10
  6
CONTINUOUS
 62
     7
100
AcDbLine
 10
926.9999999999999
 20
849.5
 30
0.0
 11
906.9999999999999
 21
849.5
 31
0.0
  0
LINE
  5
394
330
1F
100
AcDbEntity
  8
LAY-10
  6
CONTINUOUS
 62
     7
100
AcDbLine
 10
906.9999999999999
 20
849.5
 30
0.0
 11
906.9999999999999
 21
829.5
 31
0.0
  0
LINE
  5
395
330
1F
100
AcDbEntity
  8
LAY-10
  6
CONTINUOUS
 62
     7
100
AcDbLine
 10
906.9999999999999
 20
829.5
 30
0.0
 11
926.9999999999999
 21
829.5
 31
0.0
  0
LINE
  5
396
330
1F
100
AcDbEntity
  8
LAY-10
  6
CONTINUOUS
 62
     7
100
AcDbLine
 10
926.9999999999999
 20
829.5
 30
0.0
 11
926.9999999999999
 21
849.5
 31
0.0
  0
LINE
  5
397
330
1F
100
AcDbEntity
  8
LAY-10
  6
CONTINUOUS
 62
     7
100
AcDbLine
 10
891.4999999999999
 20
849.5
 30
0.0
 11
871.4999999999999
 21
849.5
 31
0.0
  0
LINE
  5
398
330
1F
100
AcDbEntity
  8
LAY-10
  6
CONTINUOUS
 62
     7
100
AcDbLine
 10
871.4999999999999
 20
849.5
 30
0.0
 11
871.4999999999999
 21
829.5
 31
0.0
  0
LINE
  5
399
330
1F
100
AcDbEntity
  8
LAY-10
  6
CONTINUOUS
 62
     7
100
AcDbLine
 10
871.4999999999999
 20
829.5
 30
0.0
 11
891.4999999999999
 21
829.5
 31
0.0
  0
LINE
  5
39A
330
1F
100
AcDbEntity
  8
LAY-10
  6
CONTINUOUS
 62
     7
100
AcDbLine
 10
891.4999999999999
 20
829.5
 30
0.0
 11
891.4999999999999
 21
849.5
 31
0.0
  0
LINE
  5
39B
330
1F
100
AcDbEntity
  8
LAY-10
  6
CONTINUOUS
 62
     7
100
AcDbLine
 10
855.9999999999999
 20
849.5
 30
0.0
 11
835.9999999999999
 21
849.5
 31
0.0
  0
LINE
  5
39C
330
1F
100
AcDbEntity
  8
LAY-10
  6
CONTINUOUS
 62
     7
100
AcDbLine
 10
835.9999999999999
 20
849.5
 30
0.0
 11
835.9999999999999
 21
829.5
 31
0.0
  0
LINE
  5
39D
330
1F
100
AcDbEntity
  8
LAY-10
  6
CONTINUOUS
 62
     7
100
AcDbLine
 10
835.9999999999999
 20
829.5
 30
0.0
 11
855.9999999999999
 21
829.5
 31
0.0
  0
LINE
  5
39E
330
1F
100
AcDbEntity
  8
LAY-10
  6
CONTINUOUS
 62
     7
100
AcDbLine
 10
855.9999999999999
 20
829.5
 30
0.0
 11
855.9999999999999
 21
849.5
 31
0.0
  0
LINE
  5
39F
330
1F
100
AcDbEntity
  8
LAY-10
  6
CONTINUOUS
 62
     7
100
AcDbLine
 10
820.4999999999999
 20
849.5
 30
0.0
 11
800.4999999999999
 21
849.5
 31
0.0
  0
LINE
  5
3A0
330
1F
100
AcDbEntity
  8
LAY-10
  6
CONTINUOUS
 62
     7
100
AcDbLine
 10
800.4999999999999
 20
849.5
 30
0.0
 11
800.4999999999999
 21
829.5
 31
0.0
  0
LINE
  5
3A1
330
1F
100
AcDbEntity
  8
LAY-10
  6
CONTINUOUS
 62
     7
100
AcDbLine
 10
800.4999999999999
 20
829.5
 30
0.0
 11
820.4999999999999
 21
829.5
 31
0.0
  0
LINE
  5
3A2
330
1F
100
AcDbEntity
  8
LAY-10
  6
CONTINUOUS
 62
     7
100
AcDbLine
 10
820.4999999999999
 20
829.5
 30
0.0
 11
820.4999999999999
 21
849.5
 31
0.0
  0
LINE
  5
3A3
330
1F
100
AcDbEntity
  8
LAY-10
  6
CONTINUOUS
 62
     7
100
AcDbLine
 10
480.9999999999999
 20
814.0
 30
0.0
 11
500.9999999999999
 21
814.0
 31
0.0
  0
LINE
  5
3A4
330
1F
100
AcDbEntity
  8
LAY-10
  6
CONTINUOUS
 62
     7
100
AcDbLine
 10
500.9999999999999
 20
814.0
 30
0.0
 11
500.9999999999999
 21
794.0
 31
0.0
  0
LINE
  5
3A5
330
1F
100
AcDbEntity
  8
LAY-10
  6
CONTINUOUS
 62
     7
100
AcDbLine
 10
500.9999999999999
 20
794.0
 30
0.0
 11
480.9999999999999
 21
794.0
 31
0.0
  0
LINE
  5
3A6
330
1F
100
AcDbEntity
  8
LAY-10
  6
CONTINUOUS
 62
     7
100
AcDbLine
 10
480.9999999999999
 20
794.0
 30
0.0
 11
480.9999999999999
 21
814.0
 31
0.0
  0
LINE
  5
3A7
330
1F
100
AcDbEntity
  8
LAY-10
  6
CONTINUOUS
 62
     7
100
AcDbLine
 10
516.4999999999999
 20
814.0
 30
0.0
 11
536.4999999999999
 21
814.0
 31
0.0
  0
LINE
  5
3A8
330
1F
100
AcDbEntity
  8
LAY-10
  6
CONTINUOUS
 62
     7
100
AcDbLine
 10
536.4999999999999
 20
814.0
 30
0.0
 11
536.4999999999999
 21
794.0
 31
0.0
  0
LINE
  5
3A9
330
1F
100
AcDbEntity
  8
LAY-10
  6
CONTINUOUS
 62
     7
100
AcDbLine
 10
536.4999999999999
 20
794.0
 30
0.0
 11
516.4999999999999
 21
794.0
 31
0.0
  0
LINE
  5
3AA
330
1F
100
AcDbEntity
  8
LAY-10
  6
CONTINUOUS
 62
     7
100
AcDbLine
 10
516.4999999999999
 20
794.0
 30
0.0
 11
516.4999999999999
 21
814.0
 31
0.0
  0
LINE
  5
3AB
330
1F
100
AcDbEntity
  8
LAY-10
  6
CONTINUOUS
 62
     7
100
AcDbLine
 10
551.9999999999999
 20
814.0
 30
0.0
 11
571.9999999999999
 21
814.0
 31
0.0
  0
LINE
  5
3AC
330
1F
100
AcDbEntity
  8
LAY-10
  6
CONTINUOUS
 62
     7
100
AcDbLine
 10
571.9999999999999
 20
814.0
 30
0.0
 11
571.9999999999999
 21
794.0
 31
0.0
  0
LINE
  5
3AD
330
1F
100
AcDbEntity
  8
LAY-10
  6
CONTINUOUS
 62
     7
100
AcDbLine
 10
571.9999999999999
 20
794.0
 30
0.0
 11
551.9999999999999
 21
794.0
 31
0.0
  0
LINE
  5
3AE
330
1F
100
AcDbEntity
  8
LAY-10
  6
CONTINUOUS
 62
     7
100
AcDbLine
 10
551.9999999999999
 20
794.0
 30
0.0
 11
551.9999999999999
 21
814.0
 31
0.0
  0
LINE
  5
3AF
330
1F
100
AcDbEntity
  8
LAY-10
  6
CONTINUOUS
 62
     7
100
AcDbLine
 10
587.4999999999998
 20
814.0
 30
0.0
 11
607.4999999999998
 21
814.0
 31
0.0
  0
LINE
  5
3B0
330
1F
100
AcDbEntity
  8
LAY-10
  6
CONTINUOUS
 62
     7
100
AcDbLine
 10
607.4999999999998
 20
814.0
 30
0.0
 11
607.4999999999998
 21
794.0
 31
0.0
  0
LINE
  5
3B1
330
1F
100
AcDbEntity
  8
LAY-10
  6
CONTINUOUS
 62
     7
100
AcDbLine
 10
607.4999999999998
 20
794.0
 30
0.0
 11
587.4999999999998
 21
794.0
 31
0.0
  0
LINE
  5
3B2
330
1F
100
AcDbEntity
  8
LAY-10
  6
CONTINUOUS
 62
     7
100
AcDbLine
 10
587.4999999999998
 20
794.0
 30
0.0
 11
587.4999999999998
 21
814.0
 31
0.0
  0
LINE
  5
3B3
330
1F
100
AcDbEntity
  8
LAY-10
  6
CONTINUOUS
 62
     7
100
AcDbLine
 10
622.9999999999999
 20
814.0
 30
0.0
 11
642.9999999999999
 21
814.0
 31
0.0
  0
LINE
  5
3B4
330
1F
100
AcDbEntity
  8
LAY-10
  6
CONTINUOUS
 62
     7
100
AcDbLine
 10
642.9999999999999
 20
814.0
 30
0.0
 11
642.9999999999999
 21
794.0
 31
0.0
  0
LINE
  5
3B5
330
1F
100
AcDbEntity
  8
LAY-10
  6
CONTINUOUS
 62
     7
100
AcDbLine
 10
642.9999999999999
 20
794.0
 30
0.0
 11
622.9999999999999
 21
794.0
 31
0.0
  0
LINE
  5
3B6
330
1F
100
AcDbEntity
  8
LAY-10
  6
CONTINUOUS
 62
     7
100
AcDbLine
 10
622.9999999999999
 20
794.0
 30
0.0
 11
622.9999999999999
 21
814.0
 31
0.0
  0
LINE
  5
3B7
330
1F
100
AcDbEntity
  8
LAY-10
  6
CONTINUOUS
 62
     7
100
AcDbLine
 10
658.4999999999999
 20
814.0
 30
0.0
 11
678.4999999999999
 21
814.0
 31
0.0
  0
LINE
  5
3B8
330
1F
100
AcDbEntity
  8
LAY-10
  6
CONTINUOUS
 62
     7
100
AcDbLine
 10
678.4999999999999
 20
814.0
 30
0.0
 11
678.4999999999999
 21
794.0
 31
0.0
  0
LINE
  5
3B9
330
1F
100
AcDbEntity
  8
LAY-10
  6
CONTINUOUS
 62
     7
100
AcDbLine
 10
678.4999999999999
 20
794.0
 30
0.0
 11
658.4999999999999
 21
794.0
 31
0.0
  0
LINE
  5
3BA
330
1F
100
AcDbEntity
  8
LAY-10
  6
CONTINUOUS
 62
     7
100
AcDbLine
 10
658.4999999999999
 20
794.0
 30
0.0
 11
658.4999999999999
 21
814.0
 31
0.0
  0
LINE
  5
3BB
330
1F
100
AcDbEntity
  8
LAY-10
  6
CONTINUOUS
 62
     7
100
AcDbLine
 10
693.9999999999999
 20
814.0
 30
0.0
 11
713.9999999999999
 21
814.0
 31
0.0
  0
LINE
  5
3BC
330
1F
100
AcDbEntity
  8
LAY-10
  6
CONTINUOUS
 62
     7
100
AcDbLine
 10
713.9999999999999
 20
814.0
 30
0.0
 11
713.9999999999999
 21
794.0
 31
0.0
  0
LINE
  5
3BD
330
1F
100
AcDbEntity
  8
LAY-10
  6
CONTINUOUS
 62
     7
100
AcDbLine
 10
713.9999999999999
 20
794.0
 30
0.0
 11
693.9999999999999
 21
794.0
 31
0.0
  0
LINE
  5
3BE
330
1F
100
AcDbEntity
  8
LAY-10
  6
CONTINUOUS
 62
     7
100
AcDbLine
 10
693.9999999999999
 20
794.0
 30
0.0
 11
693.9999999999999
 21
814.0
 31
0.0
  0
LINE
  5
3BF
330
1F
100
AcDbEntity
  8
LAY-10
  6
CONTINUOUS
 62
     7
100
AcDbLine
 10
729.4999999999999
 20
814.0
 30
0.0
 11
749.4999999999999
 21
814.0
 31
0.0
  0
LINE
  5
3C0
330
1F
100
AcDbEntity
  8
LAY-10
  6
CONTINUOUS
 62
     7
100
AcDbLine
 10
749.4999999999999
 20
814.0
 30
0.0
 11
749.4999999999999
 21
794.0
 31
0.0
  0
LINE
  5
3C1
330
1F
100
AcDbEntity
  8
LAY-10
  6
CONTINUOUS
 62
     7
100
AcDbLine
 10
749.4999999999999
 20
794.0
 30
0.0
 11
729.4999999999999
 21
794.0
 31
0.0
  0
LINE
  5
3C2
330
1F
100
AcDbEntity
  8
LAY-10
  6
CONTINUOUS
 62
     7
100
AcDbLine
 10
729.4999999999999
 20
794.0
 30
0.0
 11
729.4999999999999
 21
814.0
 31
0.0
  0
LINE
  5
3C3
330
1F
100
AcDbEntity
  8
LAY-10
  6
CONTINUOUS
 62
     7
100
AcDbLine
 10
765.0
 20
814.0
 30
0.0
 11
785.0
 21
814.0
 31
0.0
  0
LINE
  5
3C4
330
1F
100
AcDbEntity
  8
LAY-10
  6
CONTINUOUS
 62
     7
100
AcDbLine
 10
785.0
 20
814.0
 30
0.0
 11
785.0
 21
794.0
 31
0.0
  0
LINE
  5
3C5
330
1F
100
AcDbEntity
  8
LAY-10
  6
CONTINUOUS
 62
     7
100
AcDbLine
 10
785.0
 20
794.0
 30
0.0
 11
765.0
 21
794.0
 31
0.0
  0
LINE
  5
3C6
330
1F
100
AcDbEntity
  8
LAY-10
  6
CONTINUOUS
 62
     7
100
AcDbLine
 10
765.0
 20
794.0
 30
0.0
 11
765.0
 21
814.0
 31
0.0
  0
LINE
  5
3C7
330
1F
100
AcDbEntity
  8
LAY-10
  6
CONTINUOUS
 62
     7
100
AcDbLine
 10
1069.0
 20
814.0
 30
0.0
 11
1049.0
 21
814.0
 31
0.0
  0
LINE
  5
3C8
330
1F
100
AcDbEntity
  8
LAY-10
  6
CONTINUOUS
 62
     7
100
AcDbLine
 10
1049.0
 20
814.0
 30
0.0
 11
1049.0
 21
794.0
 31
0.0
  0
LINE
  5
3C9
330
1F
100
AcDbEntity
  8
LAY-10
  6
CONTINUOUS
 62
     7
100
AcDbLine
 10
1049.0
 20
794.0
 30
0.0
 11
1069.0
 21
794.0
 31
0.0
  0
LINE
  5
3CA
330
1F
100
AcDbEntity
  8
LAY-10
  6
CONTINUOUS
 62
     7
100
AcDbLine
 10
1069.0
 20
794.0
 30
0.0
 11
1069.0
 21
814.0
 31
0.0
  0
LINE
  5
3CB
330
1F
100
AcDbEntity
  8
LAY-10
  6
CONTINUOUS
 62
     7
100
AcDbLine
 10
1033.5
 20
814.0
 30
0.0
 11
1013.5
 21
814.0
 31
0.0
  0
LINE
  5
3CC
330
1F
100
AcDbEntity
  8
LAY-10
  6
CONTINUOUS
 62
     7
100
AcDbLine
 10
1013.5
 20
814.0
 30
0.0
 11
1013.5
 21
794.0
 31
0.0
  0
LINE
  5
3CD
330
1F
100
AcDbEntity
  8
LAY-10
  6
CONTINUOUS
 62
     7
100
AcDbLine
 10
1013.5
 20
794.0
 30
0.0
 11
1033.5
 21
794.0
 31
0.0
  0
LINE
  5
3CE
330
1F
100
AcDbEntity
  8
LAY-10
  6
CONTINUOUS
 62
     7
100
AcDbLine
 10
1033.5
 20
794.0
 30
0.0
 11
1033.5
 21
814.0
 31
0.0
  0
LINE
  5
3CF
330
1F
100
AcDbEntity
  8
LAY-10
  6
CONTINUOUS
 62
     7
100
AcDbLine
 10
997.9999999999999
 20
814.0
 30
0.0
 11
977.9999999999999
 21
814.0
 31
0.0
  0
LINE
  5
3D0
330
1F
100
AcDbEntity
  8
LAY-10
  6
CONTINUOUS
 62
     7
100
AcDbLine
 10
977.9999999999999
 20
814.0
 30
0.0
 11
977.9999999999999
 21
794.0
 31
0.0
  0
LINE
  5
3D1
330
1F
100
AcDbEntity
  8
LAY-10
  6
CONTINUOUS
 62
     7
100
AcDbLine
 10
977.9999999999999
 20
794.0
 30
0.0
 11
997.9999999999999
 21
794.0
 31
0.0
  0
LINE
  5
3D2
330
1F
100
AcDbEntity
  8
LAY-10
  6
CONTINUOUS
 62
     7
100
AcDbLine
 10
997.9999999999999
 20
794.0
 30
0.0
 11
997.9999999999999
 21
814.0
 31
0.0
  0
LINE
  5
3D3
330
1F
100
AcDbEntity
  8
LAY-10
  6
CONTINUOUS
 62
     7
100
AcDbLine
 10
962.5
 20
814.0
 30
0.0
 11
942.5
 21
814.0
 31
0.0
  0
LINE
  5
3D4
330
1F
100
AcDbEntity
  8
LAY-10
  6
CONTINUOUS
 62
     7
100
AcDbLine
 10
942.5
 20
814.0
 30
0.0
 11
942.5
 21
794.0
 31
0.0
  0
LINE
  5
3D5
330
1F
100
AcDbEntity
  8
LAY-10
  6
CONTINUOUS
 62
     7
100
AcDbLine
 10
942.5
 20
794.0
 30
0.0
 11
962.5
 21
794.0
 31
0.0
  0
LINE
  5
3D6
330
1F
100
AcDbEntity
  8
LAY-10
  6
CONTINUOUS
 62
     7
100
AcDbLine
 10
962.5
 20
794.0
 30
0.0
 11
962.5
 21
814.0
 31
0.0
  0
LINE
  5
3D7
330
1F
100
AcDbEntity
  8
LAY-10
  6
CONTINUOUS
 62
     7
100
AcDbLine
 10
926.9999999999999
 20
814.0
 30
0.0
 11
906.9999999999999
 21
814.0
 31
0.0
  0
LINE
  5
3D8
330
1F
100
AcDbEntity
  8
LAY-10
  6
CONTINUOUS
 62
     7
100
AcDbLine
 10
906.9999999999999
 20
814.0
 30
0.0
 11
906.9999999999999
 21
794.0
 31
0.0
  0
LINE
  5
3D9
330
1F
100
AcDbEntity
  8
LAY-10
  6
CONTINUOUS
 62
     7
100
AcDbLine
 10
906.9999999999999
 20
794.0
 30
0.0
 11
926.9999999999999
 21
794.0
 31
0.0
  0
LINE
  5
3DA
330
1F
100
AcDbEntity
  8
LAY-10
  6
CONTINUOUS
 62
     7
100
AcDbLine
 10
926.9999999999999
 20
794.0
 30
0.0
 11
926.9999999999999
 21
814.0
 31
0.0
  0
LINE
  5
3DB
330
1F
100
AcDbEntity
  8
LAY-10
  6
CONTINUOUS
 62
     7
100
AcDbLine
 10
891.4999999999999
 20
814.0
 30
0.0
 11
871.4999999999999
 21
814.0
 31
0.0
  0
LINE
  5
3DC
330
1F
100
AcDbEntity
  8
LAY-10
  6
CONTINUOUS
 62
     7
100
AcDbLine
 10
871.4999999999999
 20
814.0
 30
0.0
 11
871.4999999999999
 21
794.0
 31
0.0
  0
LINE
  5
3DD
330
1F
100
AcDbEntity
  8
LAY-10
  6
CONTINUOUS
 62
     7
100
AcDbLine
 10
871.4999999999999
 20
794.0
 30
0.0
 11
891.4999999999999
 21
794.0
 31
0.0
  0
LINE
  5
3DE
330
1F
100
AcDbEntity
  8
LAY-10
  6
CONTINUOUS
 62
     7
100
AcDbLine
 10
891.4999999999999
 20
794.0
 30
0.0
 11
891.4999999999999
 21
814.0
 31
0.0
  0
LINE
  5
3DF
330
1F
100
AcDbEntity
  8
LAY-10
  6
CONTINUOUS
 62
     7
100
AcDbLine
 10
855.9999999999999
 20
814.0
 30
0.0
 11
835.9999999999999
 21
814.0
 31
0.0
  0
LINE
  5
3E0
330
1F
100
AcDbEntity
  8
LAY-10
  6
CONTINUOUS
 62
     7
100
AcDbLine
 10
835.9999999999999
 20
814.0
 30
0.0
 11
835.9999999999999
 21
794.0
 31
0.0
  0
LINE
  5
3E1
330
1F
100
AcDbEntity
  8
LAY-10
  6
CONTINUOUS
 62
     7
100
AcDbLine
 10
835.9999999999999
 20
794.0
 30
0.0
 11
855.9999999999999
 21
794.0
 31
0.0
  0
LINE
  5
3E2
330
1F
100
AcDbEntity
  8
LAY-10
  6
CONTINUOUS
 62
     7
100
AcDbLine
 10
855.9999999999999
 20
794.0
 30
0.0
 11
855.9999999999999
 21
814.0
 31
0.0
  0
LINE
  5
3E3
330
1F
100
AcDbEntity
  8
LAY-10
  6
CONTINUOUS
 62
     7
100
AcDbLine
 10
820.4999999999999
 20
814.0
 30
0.0
 11
800.4999999999999
 21
814.0
 31
0.0
  0
LINE
  5
3E4
330
1F
100
AcDbEntity
  8
LAY-10
  6
CONTINUOUS
 62
     7
100
AcDbLine
 10
800.4999999999999
 20
814.0
 30
0.0
 11
800.4999999999999
 21
794.0
 31
0.0
  0
LINE
  5
3E5
330
1F
100
AcDbEntity
  8
LAY-10
  6
CONTINUOUS
 62
     7
100
AcDbLine
 10
800.4999999999999
 20
794.0
 30
0.0
 11
820.4999999999999
 21
794.0
 31
0.0
  0
LINE
  5
3E6
330
1F
100
AcDbEntity
  8
LAY-10
  6
CONTINUOUS
 62
     7
100
AcDbLine
 10
820.4999999999999
 20
794.0
 30
0.0
 11
820.4999999999999
 21
814.0
 31
0.0
  0
LINE
  5
3E7
330
1F
100
AcDbEntity
  8
LAY-10
  6
CONTINUOUS
 62
     7
100
AcDbLine
 10
480.9999999999999
 20
778.5
 30
0.0
 11
500.9999999999999
 21
778.5
 31
0.0
  0
LINE
  5
3E8
330
1F
100
AcDbEntity
  8
LAY-10
  6
CONTINUOUS
 62
     7
100
AcDbLine
 10
500.9999999999999
 20
778.5
 30
0.0
 11
500.9999999999999
 21
758.5
 31
0.0
  0
LINE
  5
3E9
330
1F
100
AcDbEntity
  8
LAY-10
  6
CONTINUOUS
 62
     7
100
AcDbLine
 10
500.9999999999999
 20
758.5
 30
0.0
 11
480.9999999999999
 21
758.5
 31
0.0
  0
LINE
  5
3EA
330
1F
100
AcDbEntity
  8
LAY-10
  6
CONTINUOUS
 62
     7
100
AcDbLine
 10
480.9999999999999
 20
758.5
 30
0.0
 11
480.9999999999999
 21
778.5
 31
0.0
  0
LINE
  5
3EB
330
1F
100
AcDbEntity
  8
LAY-10
  6
CONTINUOUS
 62
     7
100
AcDbLine
 10
516.4999999999999
 20
778.5
 30
0.0
 11
536.4999999999999
 21
778.5
 31
0.0
  0
LINE
  5
3EC
330
1F
100
AcDbEntity
  8
LAY-10
  6
CONTINUOUS
 62
     7
100
AcDbLine
 10
536.4999999999999
 20
778.5
 30
0.0
 11
536.4999999999999
 21
758.5
 31
0.0
  0
LINE
  5
3ED
330
1F
100
AcDbEntity
  8
LAY-10
  6
CONTINUOUS
 62
     7
100
AcDbLine
 10
536.4999999999999
 20
758.5
 30
0.0
 11
516.4999999999999
 21
758.5
 31
0.0
  0
LINE
  5
3EE
330
1F
100
AcDbEntity
  8
LAY-10
  6
CONTINUOUS
 62
     7
100
AcDbLine
 10
516.4999999999999
 20
758.5
 30
0.0
 11
516.4999999999999
 21
778.5
 31
0.0
  0
LINE
  5
3EF
330
1F
100
AcDbEntity
  8
LAY-10
  6
CONTINUOUS
 62
     7
100
AcDbLine
 10
551.9999999999999
 20
778.5
 30
0.0
 11
571.9999999999999
 21
778.5
 31
0.0
  0
LINE
  5
3F0
330
1F
100
AcDbEntity
  8
LAY-10
  6
CONTINUOUS
 62
     7
100
AcDbLine
 10
571.9999999999999
 20
778.5
 30
0.0
 11
571.9999999999999
 21
758.5
 31
0.0
  0
LINE
  5
3F1
330
1F
100
AcDbEntity
  8
LAY-10
  6
CONTINUOUS
 62
     7
100
AcDbLine
 10
571.9999999999999
 20
758.5
 30
0.0
 11
551.9999999999999
 21
758.5
 31
0.0
  0
LINE
  5
3F2
330
1F
100
AcDbEntity
  8
LAY-10
  6
CONTINUOUS
 62
     7
100
AcDbLine
 10
551.9999999999999
 20
758.5
 30
0.0
 11
551.9999999999999
 21
778.5
 31
0.0
  0
LINE
  5
3F3
330
1F
100
AcDbEntity
  8
LAY-10
  6
CONTINUOUS
 62
     7
100
AcDbLine
 10
587.4999999999998
 20
778.5
 30
0.0
 11
607.4999999999998
 21
778.5
 31
0.0
  0
LINE
  5
3F4
330
1F
100
AcDbEntity
  8
LAY-10
  6
CONTINUOUS
 62
     7
100
AcDbLine
 10
607.4999999999998
 20
778.5
 30
0.0
 11
607.4999999999998
 21
758.5
 31
0.0
  0
LINE
  5
3F5
330
1F
100
AcDbEntity
  8
LAY-10
  6
CONTINUOUS
 62
     7
100
AcDbLine
 10
607.4999999999998
 20
758.5
 30
0.0
 11
587.4999999999998
 21
758.5
 31
0.0
  0
LINE
  5
3F6
330
1F
100
AcDbEntity
  8
LAY-10
  6
CONTINUOUS
 62
     7
100
AcDbLine
 10
587.4999999999998
 20
758.5
 30
0.0
 11
587.4999999999998
 21
778.5
 31
0.0
  0
LINE
  5
3F7
330
1F
100
AcDbEntity
  8
LAY-10
  6
CONTINUOUS
 62
     7
100
AcDbLine
 10
622.9999999999999
 20
778.5
 30
0.0
 11
642.9999999999999
 21
778.5
 31
0.0
  0
LINE
  5
3F8
330
1F
100
AcDbEntity
  8
LAY-10
  6
CONTINUOUS
 62
     7
100
AcDbLine
 10
642.9999999999999
 20
778.5
 30
0.0
 11
642.9999999999999
 21
758.5
 31
0.0
  0
LINE
  5
3F9
330
1F
100
AcDbEntity
  8
LAY-10
  6
CONTINUOUS
 62
     7
100
AcDbLine
 10
642.9999999999999
 20
758.5
 30
0.0
 11
622.9999999999999
 21
758.5
 31
0.0
  0
LINE
  5
3FA
330
1F
100
AcDbEntity
  8
LAY-10
  6
CONTINUOUS
 62
     7
100
AcDbLine
 10
622.9999999999999
 20
758.5
 30
0.0
 11
622.9999999999999
 21
778.5
 31
0.0
  0
LINE
  5
3FB
330
1F
100
AcDbEntity
  8
LAY-10
  6
CONTINUOUS
 62
     7
100
AcDbLine
 10
658.4999999999999
 20
778.5
 30
0.0
 11
678.4999999999999
 21
778.5
 31
0.0
  0
LINE
  5
3FC
330
1F
100
AcDbEntity
  8
LAY-10
  6
CONTINUOUS
 62
     7
100
AcDbLine
 10
678.4999999999999
 20
778.5
 30
0.0
 11
678.4999999999999
 21
758.5
 31
0.0
  0
LINE
  5
3FD
330
1F
100
AcDbEntity
  8
LAY-10
  6
CONTINUOUS
 62
     7
100
AcDbLine
 10
678.4999999999999
 20
758.5
 30
0.0
 11
658.4999999999999
 21
758.5
 31
0.0
  0
LINE
  5
3FE
330
1F
100
AcDbEntity
  8
LAY-10
  6
CONTINUOUS
 62
     7
100
AcDbLine
 10
658.4999999999999
 20
758.5
 30
0.0
 11
658.4999999999999
 21
778.5
 31
0.0
  0
LINE
  5
3FF
330
1F
100
AcDbEntity
  8
LAY-10
  6
CONTINUOUS
 62
     7
100
AcDbLine
 10
693.9999999999999
 20
778.5
 30
0.0
 11
713.9999999999999
 21
778.5
 31
0.0
  0
LINE
  5
400
330
1F
100
AcDbEntity
  8
LAY-10
  6
CONTINUOUS
 62
     7
100
AcDbLine
 10
713.9999999999999
 20
778.5
 30
0.0
 11
713.9999999999999
 21
758.5
 31
0.0
  0
LINE
  5
401
330
1F
100
AcDbEntity
  8
LAY-10
  6
CONTINUOUS
 62
     7
100
AcDbLine
 10
713.9999999999999
 20
758.5
 30
0.0
 11
693.9999999999999
 21
758.5
 31
0.0
  0
LINE
  5
402
330
1F
100
AcDbEntity
  8
LAY-10
  6
CONTINUOUS
 62
     7
100
AcDbLine
 10
693.9999999999999
 20
758.5
 30
0.0
 11
693.9999999999999
 21
778.5
 31
0.0
  0
LINE
  5
403
330
1F
100
AcDbEntity
  8
LAY-10
  6
CONTINUOUS
 62
     7
100
AcDbLine
 10
729.4999999999999
 20
778.5
 30
0.0
 11
749.4999999999999
 21
778.5
 31
0.0
  0
LINE
  5
404
330
1F
100
AcDbEntity
  8
LAY-10
  6
CONTINUOUS
 62
     7
100
AcDbLine
 10
749.4999999999999
 20
778.5
 30
0.0
 11
749.4999999999999
 21
758.5
 31
0.0
  0
LINE
  5
405
330
1F
100
AcDbEntity
  8
LAY-10
  6
CONTINUOUS
 62
     7
100
AcDbLine
 10
749.4999999999999
 20
758.5
 30
0.0
 11
729.4999999999999
 21
758.5
 31
0.0
  0
LINE
  5
406
330
1F
100
AcDbEntity
  8
LAY-10
  6
CONTINUOUS
 62
     7
100
AcDbLine
 10
729.4999999999999
 20
758.5
 30
0.0
 11
729.4999999999999
 21
778.5
 31
0.0
  0
LINE
  5
407
330
1F
100
AcDbEntity
  8
LAY-10
  6
CONTINUOUS
 62
     7
100
AcDbLine
 10
765.0
 20
778.5
 30
0.0
 11
785.0
 21
778.5
 31
0.0
  0
LINE
  5
408
330
1F
100
AcDbEntity
  8
LAY-10
  6
CONTINUOUS
 62
     7
100
AcDbLine
 10
785.0
 20
778.5
 30
0.0
 11
785.0
 21
758.5
 31
0.0
  0
LINE
  5
409
330
1F
100
AcDbEntity
  8
LAY-10
  6
CONTINUOUS
 62
     7
100
AcDbLine
 10
785.0
 20
758.5
 30
0.0
 11
765.0
 21
758.5
 31
0.0
  0
LINE
  5
40A
330
1F
100
AcDbEntity
  8
LAY-10
  6
CONTINUOUS
 62
     7
100
AcDbLine
 10
765.0
 20
758.5
 30
0.0
 11
765.0
 21
778.5
 31
0.0
  0
LINE
  5
40B
330
1F
100
AcDbEntity
  8
LAY-10
  6
CONTINUOUS
 62
     7
100
AcDbLine
 10
1069.0
 20
778.5
 30
0.0
 11
1049.0
 21
778.5
 31
0.0
  0
LINE
  5
40C
330
1F
100
AcDbEntity
  8
LAY-10
  6
CONTINUOUS
 62
     7
100
AcDbLine
 10
1049.0
 20
778.5
 30
0.0
 11
1049.0
 21
758.5
 31
0.0
  0
LINE
  5
40D
330
1F
100
AcDbEntity
  8
LAY-10
  6
CONTINUOUS
 62
     7
100
AcDbLine
 10
1049.0
 20
758.5
 30
0.0
 11
1069.0
 21
758.5
 31
0.0
  0
LINE
  5
40E
330
1F
100
AcDbEntity
  8
LAY-10
  6
CONTINUOUS
 62
     7
100
AcDbLine
 10
1069.0
 20
758.5
 30
0.0
 11
1069.0
 21
778.5
 31
0.0
  0
LINE
  5
40F
330
1F
100
AcDbEntity
  8
LAY-10
  6
CONTINUOUS
 62
     7
100
AcDbLine
 10
1033.5
 20
778.5
 30
0.0
 11
1013.5
 21
778.5
 31
0.0
  0
LINE
  5
410
330
1F
100
AcDbEntity
  8
LAY-10
  6
CONTINUOUS
 62
     7
100
AcDbLine
 10
1013.5
 20
778.5
 30
0.0
 11
1013.5
 21
758.5
 31
0.0
  0
LINE
  5
411
330
1F
100
AcDbEntity
  8
LAY-10
  6
CONTINUOUS
 62
     7
100
AcDbLine
 10
1013.5
 20
758.5
 30
0.0
 11
1033.5
 21
758.5
 31
0.0
  0
LINE
  5
412
330
1F
100
AcDbEntity
  8
LAY-10
  6
CONTINUOUS
 62
     7
100
AcDbLine
 10
1033.5
 20
758.5
 30
0.0
 11
1033.5
 21
778.5
 31
0.0
  0
LINE
  5
413
330
1F
100
AcDbEntity
  8
LAY-10
  6
CONTINUOUS
 62
     7
100
AcDbLine
 10
997.9999999999999
 20
778.5
 30
0.0
 11
977.9999999999999
 21
778.5
 31
0.0
  0
LINE
  5
414
330
1F
100
AcDbEntity
  8
LAY-10
  6
CONTINUOUS
 62
     7
100
AcDbLine
 10
977.9999999999999
 20
778.5
 30
0.0
 11
977.9999999999999
 21
758.5
 31
0.0
  0
LINE
  5
415
330
1F
100
AcDbEntity
  8
LAY-10
  6
CONTINUOUS
 62
     7
100
AcDbLine
 10
977.9999999999999
 20
758.5
 30
0.0
 11
997.9999999999999
 21
758.5
 31
0.0
  0
LINE
  5
416
330
1F
100
AcDbEntity
  8
LAY-10
  6
CONTINUOUS
 62
     7
100
AcDbLine
 10
997.9999999999999
 20
758.5
 30
0.0
 11
997.9999999999999
 21
778.5
 31
0.0
  0
LINE
  5
417
330
1F
100
AcDbEntity
  8
LAY-10
  6
CONTINUOUS
 62
     7
100
AcDbLine
 10
962.5
 20
778.5
 30
0.0
 11
942.5
 21
778.5
 31
0.0
  0
LINE
  5
418
330
1F
100
AcDbEntity
  8
LAY-10
  6
CONTINUOUS
 62
     7
100
AcDbLine
 10
942.5
 20
778.5
 30
0.0
 11
942.5
 21
758.5
 31
0.0
  0
LINE
  5
419
330
1F
100
AcDbEntity
  8
LAY-10
  6
CONTINUOUS
 62
     7
100
AcDbLine
 10
942.5
 20
758.5
 30
0.0
 11
962.5
 21
758.5
 31
0.0
  0
LINE
  5
41A
330
1F
100
AcDbEntity
  8
LAY-10
  6
CONTINUOUS
 62
     7
100
AcDbLine
 10
962.5
 20
758.5
 30
0.0
 11
962.5
 21
778.5
 31
0.0
  0
LINE
  5
41B
330
1F
100
AcDbEntity
  8
LAY-10
  6
CONTINUOUS
 62
     7
100
AcDbLine
 10
926.9999999999999
 20
778.5
 30
0.0
 11
906.9999999999999
 21
778.5
 31
0.0
  0
LINE
  5
41C
330
1F
100
AcDbEntity
  8
LAY-10
  6
CONTINUOUS
 62
     7
100
AcDbLine
 10
906.9999999999999
 20
778.5
 30
0.0
 11
906.9999999999999
 21
758.5
 31
0.0
  0
LINE
  5
41D
330
1F
100
AcDbEntity
  8
LAY-10
  6
CONTINUOUS
 62
     7
100
AcDbLine
 10
906.9999999999999
 20
758.5
 30
0.0
 11
926.9999999999999
 21
758.5
 31
0.0
  0
LINE
  5
41E
330
1F
100
AcDbEntity
  8
LAY-10
  6
CONTINUOUS
 62
     7
100
AcDbLine
 10
926.9999999999999
 20
758.5
 30
0.0
 11
926.9999999999999
 21
778.5
 31
0.0
  0
LINE
  5
41F
330
1F
100
AcDbEntity
  8
LAY-10
  6
CONTINUOUS
 62
     7
100
AcDbLine
 10
891.4999999999999
 20
778.5
 30
0.0
 11
871.4999999999999
 21
778.5
 31
0.0
  0
LINE
  5
420
330
1F
100
AcDbEntity
  8
LAY-10
  6
CONTINUOUS
 62
     7
100
AcDbLine
 10
871.4999999999999
 20
778.5
 30
0.0
 11
871.4999999999999
 21
758.5
 31
0.0
  0
LINE
  5
421
330
1F
100
AcDbEntity
  8
LAY-10
  6
CONTINUOUS
 62
     7
100
AcDbLine
 10
871.4999999999999
 20
758.5
 30
0.0
 11
891.4999999999999
 21
758.5
 31
0.0
  0
LINE
  5
422
330
1F
100
AcDbEntity
  8
LAY-10
  6
CONTINUOUS
 62
     7
100
AcDbLine
 10
891.4999999999999
 20
758.5
 30
0.0
 11
891.4999999999999
 21
778.5
 31
0.0
  0
LINE
  5
423
330
1F
100
AcDbEntity
  8
LAY-10
  6
CONTINUOUS
 62
     7
100
AcDbLine
 10
855.9999999999999
 20
778.5
 30
0.0
 11
835.9999999999999
 21
778.5
 31
0.0
  0
LINE
  5
424
330
1F
100
AcDbEntity
  8
LAY-10
  6
CONTINUOUS
 62
     7
100
AcDbLine
 10
835.9999999999999
 20
778.5
 30
0.0
 11
835.9999999999999
 21
758.5
 31
0.0
  0
LINE
  5
425
330
1F
100
AcDbEntity
  8
LAY-10
  6
CONTINUOUS
 62
     7
100
AcDbLine
 10
835.9999999999999
 20
758.5
 30
0.0
 11
855.9999999999999
 21
758.5
 31
0.0
  0
LINE
  5
426
330
1F
100
AcDbEntity
  8
LAY-10
  6
CONTINUOUS
 62
     7
100
AcDbLine
 10
855.9999999999999
 20
758.5
 30
0.0
 11
855.9999999999999
 21
778.5
 31
0.0
  0
LINE
  5
427
330
1F
100
AcDbEntity
  8
LAY-10
  6
CONTINUOUS
 62
     7
100
AcDbLine
 10
820.4999999999999
 20
778.5
 30
0.0
 11
800.4999999999999
 21
778.5
 31
0.0
  0
LINE
  5
428
330
1F
100
AcDbEntity
  8
LAY-10
  6
CONTINUOUS
 62
     7
100
AcDbLine
 10
800.4999999999999
 20
778.5
 30
0.0
 11
800.4999999999999
 21
758.5
 31
0.0
  0
LINE
  5
429
330
1F
100
AcDbEntity
  8
LAY-10
  6
CONTINUOUS
 62
     7
100
AcDbLine
 10
800.4999999999999
 20
758.5
 30
0.0
 11
820.4999999999999
 21
758.5
 31
0.0
  0
LINE
  5
42A
330
1F
100
AcDbEntity
  8
LAY-10
  6
CONTINUOUS
 62
     7
100
AcDbLine
 10
820.4999999999999
 20
758.5
 30
0.0
 11
820.4999999999999
 21
778.5
 31
0.0
  0
LINE
  5
42B
330
1F
100
AcDbEntity
  8
LAY-10
  6
CONTINUOUS
 62
     7
100
AcDbLine
 10
480.9999999999999
 20
743.0000000000001
 30
0.0
 11
500.9999999999999
 21
743.0000000000001
 31
0.0
  0
LINE
  5
42C
330
1F
100
AcDbEntity
  8
LAY-10
  6
CONTINUOUS
 62
     7
100
AcDbLine
 10
500.9999999999999
 20
743.0000000000001
 30
0.0
 11
500.9999999999999
 21
723.0000000000001
 31
0.0
  0
LINE
  5
42D
330
1F
100
AcDbEntity
  8
LAY-10
  6
CONTINUOUS
 62
     7
100
AcDbLine
 10
500.9999999999999
 20
723.0000000000001
 30
0.0
 11
480.9999999999999
 21
723.0000000000001
 31
0.0
  0
LINE
  5
42E
330
1F
100
AcDbEntity
  8
LAY-10
  6
CONTINUOUS
 62
     7
100
AcDbLine
 10
480.9999999999999
 20
723.0000000000001
 30
0.0
 11
480.9999999999999
 21
743.0000000000001
 31
0.0
  0
LINE
  5
42F
330
1F
100
AcDbEntity
  8
LAY-10
  6
CONTINUOUS
 62
     7
100
AcDbLine
 10
516.4999999999999
 20
743.0000000000001
 30
0.0
 11
536.4999999999999
 21
743.0000000000001
 31
0.0
  0
LINE
  5
430
330
1F
100
AcDbEntity
  8
LAY-10
  6
CONTINUOUS
 62
     7
100
AcDbLine
 10
536.4999999999999
 20
743.0000000000001
 30
0.0
 11
536.4999999999999
 21
723.0000000000001
 31
0.0
  0
LINE
  5
431
330
1F
100
AcDbEntity
  8
LAY-10
  6
CONTINUOUS
 62
     7
100
AcDbLine
 10
536.4999999999999
 20
723.0000000000001
 30
0.0
 11
516.4999999999999
 21
723.0000000000001
 31
0.0
  0
LINE
  5
432
330
1F
100
AcDbEntity
  8
LAY-10
  6
CONTINUOUS
 62
     7
100
AcDbLine
 10
516.4999999999999
 20
723.0000000000001
 30
0.0
 11
516.4999999999999
 21
743.0000000000001
 31
0.0
  0
LINE
  5
433
330
1F
100
AcDbEntity
  8
LAY-10
  6
CONTINUOUS
 62
     7
100
AcDbLine
 10
551.9999999999999
 20
743.0000000000001
 30
0.0
 11
571.9999999999999
 21
743.0000000000001
 31
0.0
  0
LINE
  5
434
330
1F
100
AcDbEntity
  8
LAY-10
  6
CONTINUOUS
 62
     7
100
AcDbLine
 10
571.9999999999999
 20
743.0000000000001
 30
0.0
 11
571.9999999999999
 21
723.0000000000001
 31
0.0
  0
LINE
  5
435
330
1F
100
AcDbEntity
  8
LAY-10
  6
CONTINUOUS
 62
     7
100
AcDbLine
 10
571.9999999999999
 20
723.0000000000001
 30
0.0
 11
551.9999999999999
 21
723.0000000000001
 31
0.0
  0
LINE
  5
436
330
1F
100
AcDbEntity
  8
LAY-10
  6
CONTINUOUS
 62
     7
100
AcDbLine
 10
551.9999999999999
 20
723.0000000000001
 30
0.0
 11
551.9999999999999
 21
743.0000000000001
 31
0.0
  0
LINE
  5
437
330
1F
100
AcDbEntity
  8
LAY-10
  6
CONTINUOUS
 62
     7
100
AcDbLine
 10
587.4999999999998
 20
743.0000000000001
 30
0.0
 11
607.4999999999998
 21
743.0000000000001
 31
0.0
  0
LINE
  5
438
330
1F
100
AcDbEntity
  8
LAY-10
  6
CONTINUOUS
 62
     7
100
AcDbLine
 10
607.4999999999998
 20
743.0000000000001
 30
0.0
 11
607.4999999999998
 21
723.0000000000001
 31
0.0
  0
LINE
  5
439
330
1F
100
AcDbEntity
  8
LAY-10
  6
CONTINUOUS
 62
     7
100
AcDbLine
 10
607.4999999999998
 20
723.0000000000001
 30
0.0
 11
587.4999999999998
 21
723.0000000000001
 31
0.0
  0
LINE
  5
43A
330
1F
100
AcDbEntity
  8
LAY-10
  6
CONTINUOUS
 62
     7
100
AcDbLine
 10
587.4999999999998
 20
723.0000000000001
 30
0.0
 11
587.4999999999998
 21
743.0000000000001
 31
0.0
  0
LINE
  5
43B
330
1F
100
AcDbEntity
  8
LAY-10
  6
CONTINUOUS
 62
     7
100
AcDbLine
 10
622.9999999999999
 20
743.0000000000001
 30
0.0
 11
642.9999999999999
 21
743.0000000000001
 31
0.0
  0
LINE
  5
43C
330
1F
100
AcDbEntity
  8
LAY-10
  6
CONTINUOUS
 62
     7
100
AcDbLine
 10
642.9999999999999
 20
743.0000000000001
 30
0.0
 11
642.9999999999999
 21
723.0000000000001
 31
0.0
  0
LINE
  5
43D
330
1F
100
AcDbEntity
  8
LAY-10
  6
CONTINUOUS
 62
     7
100
AcDbLine
 10
642.9999999999999
 20
723.0000000000001
 30
0.0
 11
622.9999999999999
 21
723.0000000000001
 31
0.0
  0
LINE
  5
43E
330
1F
100
AcDbEntity
  8
LAY-10
  6
CONTINUOUS
 62
     7
100
AcDbLine
 10
622.9999999999999
 20
723.0000000000001
 30
0.0
 11
622.9999999999999
 21
743.0000000000001
 31
0.0
  0
LINE
  5
43F
330
1F
100
AcDbEntity
  8
LAY-10
  6
CONTINUOUS
 62
     7
100
AcDbLine
 10
658.4999999999999
 20
743.0000000000001
 30
0.0
 11
678.4999999999999
 21
743.0000000000001
 31
0.0
  0
LINE
  5
440
330
1F
100
AcDbEntity
  8
LAY-10
  6
CONTINUOUS
 62
     7
100
AcDbLine
 10
678.4999999999999
 20
743.0000000000001
 30
0.0
 11
678.4999999999999
 21
723.0000000000001
 31
0.0
  0
LINE
  5
441
330
1F
100
AcDbEntity
  8
LAY-10
  6
CONTINUOUS
 62
     7
100
AcDbLine
 10
678.4999999999999
 20
723.0000000000001
 30
0.0
 11
658.4999999999999
 21
723.0000000000001
 31
0.0
  0
LINE
  5
442
330
1F
100
AcDbEntity
  8
LAY-10
  6
CONTINUOUS
 62
     7
100
AcDbLine
 10
658.4999999999999
 20
723.0000000000001
 30
0.0
 11
658.4999999999999
 21
743.0000000000001
 31
0.0
  0
LINE
  5
443
330
1F
100
AcDbEntity
  8
LAY-10
  6
CONTINUOUS
 62
     7
100
AcDbLine
 10
693.9999999999999
 20
743.0000000000001
 30
0.0
 11
713.9999999999999
 21
743.0000000000001
 31
0.0
  0
LINE
  5
444
330
1F
100
AcDbEntity
  8
LAY-10
  6
CONTINUOUS
 62
     7
100
AcDbLine
 10
713.9999999999999
 20
743.0000000000001
 30
0.0
 11
713.9999999999999
 21
723.0000000000001
 31
0.0
  0
LINE
  5
445
330
1F
100
AcDbEntity
  8
LAY-10
  6
CONTINUOUS
 62
     7
100
AcDbLine
 10
713.9999999999999
 20
723.0000000000001
 30
0.0
 11
693.9999999999999
 21
723.0000000000001
 31
0.0
  0
LINE
  5
446
330
1F
100
AcDbEntity
  8
LAY-10
  6
CONTINUOUS
 62
     7
100
AcDbLine
 10
693.9999999999999
 20
723.0000000000001
 30
0.0
 11
693.9999999999999
 21
743.0000000000001
 31
0.0
  0
LINE
  5
447
330
1F
100
AcDbEntity
  8
LAY-10
  6
CONTINUOUS
 62
     7
100
AcDbLine
 10
729.4999999999999
 20
743.0000000000001
 30
0.0
 11
749.4999999999999
 21
743.0000000000001
 31
0.0
  0
LINE
  5
448
330
1F
100
AcDbEntity
  8
LAY-10
  6
CONTINUOUS
 62
     7
100
AcDbLine
 10
749.4999999999999
 20
743.0000000000001
 30
0.0
 11
749.4999999999999
 21
723.0000000000001
 31
0.0
  0
LINE
  5
449
330
1F
100
AcDbEntity
  8
LAY-10
  6
CONTINUOUS
 62
     7
100
AcDbLine
 10
749.4999999999999
 20
723.0000000000001
 30
0.0
 11
729.4999999999999
 21
723.0000000000001
 31
0.0
  0
LINE
  5
44A
330
1F
100
AcDbEntity
  8
LAY-10
  6
CONTINUOUS
 62
     7
100
AcDbLine
 10
729.4999999999999
 20
723.0000000000001
 30
0.0
 11
729.4999999999999
 21
743.0000000000001
 31
0.0
  0
LINE
  5
44B
330
1F
100
AcDbEntity
  8
LAY-10
  6
CONTINUOUS
 62
     7
100
AcDbLine
 10
765.0
 20
743.0000000000001
 30
0.0
 11
785.0
 21
743.0000000000001
 31
0.0
  0
LINE
  5
44C
330
1F
100
AcDbEntity
  8
LAY-10
  6
CONTINUOUS
 62
     7
100
AcDbLine
 10
785.0
 20
743.0000000000001
 30
0.0
 11
785.0
 21
723.0000000000001
 31
0.0
  0
LINE
  5
44D
330
1F
100
AcDbEntity
  8
LAY-10
  6
CONTINUOUS
 62
     7
100
AcDbLine
 10
785.0
 20
723.0000000000001
 30
0.0
 11
765.0
 21
723.0000000000001
 31
0.0
  0
LINE
  5
44E
330
1F
100
AcDbEntity
  8
LAY-10
  6
CONTINUOUS
 62
     7
100
AcDbLine
 10
765.0
 20
723.0000000000001
 30
0.0
 11
765.0
 21
743.0000000000001
 31
0.0
  0
LINE
  5
44F
330
1F
100
AcDbEntity
  8
LAY-10
  6
CONTINUOUS
 62
     7
100
AcDbLine
 10
1069.0
 20
743.0000000000001
 30
0.0
 11
1049.0
 21
743.0000000000001
 31
0.0
  0
LINE
  5
450
330
1F
100
AcDbEntity
  8
LAY-10
  6
CONTINUOUS
 62
     7
100
AcDbLine
 10
1049.0
 20
743.0000000000001
 30
0.0
 11
1049.0
 21
723.0000000000001
 31
0.0
  0
LINE
  5
451
330
1F
100
AcDbEntity
  8
LAY-10
  6
CONTINUOUS
 62
     7
100
AcDbLine
 10
1049.0
 20
723.0000000000001
 30
0.0
 11
1069.0
 21
723.0000000000001
 31
0.0
  0
LINE
  5
452
330
1F
100
AcDbEntity
  8
LAY-10
  6
CONTINUOUS
 62
     7
100
AcDbLine
 10
1069.0
 20
723.0000000000001
 30
0.0
 11
1069.0
 21
743.0000000000001
 31
0.0
  0
LINE
  5
453
330
1F
100
AcDbEntity
  8
LAY-10
  6
CONTINUOUS
 62
     7
100
AcDbLine
 10
1033.5
 20
743.0000000000001
 30
0.0
 11
1013.5
 21
743.0000000000001
 31
0.0
  0
LINE
  5
454
330
1F
100
AcDbEntity
  8
LAY-10
  6
CONTINUOUS
 62
     7
100
AcDbLine
 10
1013.5
 20
743.0000000000001
 30
0.0
 11
1013.5
 21
723.0000000000001
 31
0.0
  0
LINE
  5
455
330
1F
100
AcDbEntity
  8
LAY-10
  6
CONTINUOUS
 62
     7
100
AcDbLine
 10
1013.5
 20
723.0000000000001
 30
0.0
 11
1033.5
 21
723.0000000000001
 31
0.0
  0
LINE
  5
456
330
1F
100
AcDbEntity
  8
LAY-10
  6
CONTINUOUS
 62
     7
100
AcDbLine
 10
1033.5
 20
723.0000000000001
 30
0.0
 11
1033.5
 21
743.0000000000001
 31
0.0
  0
LINE
  5
457
330
1F
100
AcDbEntity
  8
LAY-10
  6
CONTINUOUS
 62
     7
100
AcDbLine
 10
997.9999999999999
 20
743.0000000000001
 30
0.0
 11
977.9999999999999
 21
743.0000000000001
 31
0.0
  0
LINE
  5
458
330
1F
100
AcDbEntity
  8
LAY-10
  6
CONTINUOUS
 62
     7
100
AcDbLine
 10
977.9999999999999
 20
743.0000000000001
 30
0.0
 11
977.9999999999999
 21
723.0000000000001
 31
0.0
  0
LINE
  5
459
330
1F
100
AcDbEntity
  8
LAY-10
  6
CONTINUOUS
 62
     7
100
AcDbLine
 10
977.9999999999999
 20
723.0000000000001
 30
0.0
 11
997.9999999999999
 21
723.0000000000001
 31
0.0
  0
LINE
  5
45A
330
1F
100
AcDbEntity
  8
LAY-10
  6
CONTINUOUS
 62
     7
100
AcDbLine
 10
997.9999999999999
 20
723.0000000000001
 30
0.0
 11
997.9999999999999
 21
743.0000000000001
 31
0.0
  0
LINE
  5
45B
330
1F
100
AcDbEntity
  8
LAY-10
  6
CONTINUOUS
 62
     7
100
AcDbLine
 10
962.5
 20
743.0000000000001
 30
0.0
 11
942.5
 21
743.0000000000001
 31
0.0
  0
LINE
  5
45C
330
1F
100
AcDbEntity
  8
LAY-10
  6
CONTINUOUS
 62
     7
100
AcDbLine
 10
942.5
 20
743.0000000000001
 30
0.0
 11
942.5
 21
723.0000000000001
 31
0.0
  0
LINE
  5
45D
330
1F
100
AcDbEntity
  8
LAY-10
  6
CONTINUOUS
 62
     7
100
AcDbLine
 10
942.5
 20
723.0000000000001
 30
0.0
 11
962.5
 21
723.0000000000001
 31
0.0
  0
LINE
  5
45E
330
1F
100
AcDbEntity
  8
LAY-10
  6
CONTINUOUS
 62
     7
100
AcDbLine
 10
962.5
 20
723.0000000000001
 30
0.0
 11
962.5
 21
743.0000000000001
 31
0.0
  0
LINE
  5
45F
330
1F
100
AcDbEntity
  8
LAY-10
  6
CONTINUOUS
 62
     7
100
AcDbLine
 10
926.9999999999999
 20
743.0000000000001
 30
0.0
 11
906.9999999999999
 21
743.0000000000001
 31
0.0
  0
LINE
  5
460
330
1F
100
AcDbEntity
  8
LAY-10
  6
CONTINUOUS
 62
     7
100
AcDbLine
 10
906.9999999999999
 20
743.0000000000001
 30
0.0
 11
906.9999999999999
 21
723.0000000000001
 31
0.0
  0
LINE
  5
461
330
1F
100
AcDbEntity
  8
LAY-10
  6
CONTINUOUS
 62
     7
100
AcDbLine
 10
906.9999999999999
 20
723.0000000000001
 30
0.0
 11
926.9999999999999
 21
723.0000000000001
 31
0.0
  0
LINE
  5
462
330
1F
100
AcDbEntity
  8
LAY-10
  6
CONTINUOUS
 62
     7
100
AcDbLine
 10
926.9999999999999
 20
723.0000000000001
 30
0.0
 11
926.9999999999999
 21
743.0000000000001
 31
0.0
  0
LINE
  5
463
330
1F
100
AcDbEntity
  8
LAY-10
  6
CONTINUOUS
 62
     7
100
AcDbLine
 10
891.4999999999999
 20
743.0000000000001
 30
0.0
 11
871.4999999999999
 21
743.0000000000001
 31
0.0
  0
LINE
  5
464
330
1F
100
AcDbEntity
  8
LAY-10
  6
CONTINUOUS
 62
     7
100
AcDbLine
 10
871.4999999999999
 20
743.0000000000001
 30
0.0
 11
871.4999999999999
 21
723.0000000000001
 31
0.0
  0
LINE
  5
465
330
1F
100
AcDbEntity
  8
LAY-10
  6
CONTINUOUS
 62
     7
100
AcDbLine
 10
871.4999999999999
 20
723.0000000000001
 30
0.0
 11
891.4999999999999
 21
723.0000000000001
 31
0.0
  0
LINE
  5
466
330
1F
100
AcDbEntity
  8
LAY-10
  6
CONTINUOUS
 62
     7
100
AcDbLine
 10
891.4999999999999
 20
723.0000000000001
 30
0.0
 11
891.4999999999999
 21
743.0000000000001
 31
0.0
  0
LINE
  5
467
330
1F
100
AcDbEntity
  8
LAY-10
  6
CONTINUOUS
 62
     7
100
AcDbLine
 10
855.9999999999999
 20
743.0000000000001
 30
0.0
 11
835.9999999999999
 21
743.0000000000001
 31
0.0
  0
LINE
  5
468
330
1F
100
AcDbEntity
  8
LAY-10
  6
CONTINUOUS
 62
     7
100
AcDbLine
 10
835.9999999999999
 20
743.0000000000001
 30
0.0
 11
835.9999999999999
 21
723.0000000000001
 31
0.0
  0
LINE
  5
469
330
1F
100
AcDbEntity
  8
LAY-10
  6
CONTINUOUS
 62
     7
100
AcDbLine
 10
835.9999999999999
 20
723.0000000000001
 30
0.0
 11
855.9999999999999
 21
723.0000000000001
 31
0.0
  0
LINE
  5
46A
330
1F
100
AcDbEntity
  8
LAY-10
  6
CONTINUOUS
 62
     7
100
AcDbLine
 10
855.9999999999999
 20
723.0000000000001
 30
0.0
 11
855.9999999999999
 21
743.0000000000001
 31
0.0
  0
LINE
  5
46B
330
1F
100
AcDbEntity
  8
LAY-10
  6
CONTINUOUS
 62
     7
100
AcDbLine
 10
820.4999999999999
 20
743.0000000000001
 30
0.0
 11
800.4999999999999
 21
743.0000000000001
 31
0.0
  0
LINE
  5
46C
330
1F
100
AcDbEntity
  8
LAY-10
  6
CONTINUOUS
 62
     7
100
AcDbLine
 10
800.4999999999999
 20
743.0000000000001
 30
0.0
 11
800.4999999999999
 21
723.0000000000001
 31
0.0
  0
LINE
  5
46D
330
1F
100
AcDbEntity
  8
LAY-10
  6
CONTINUOUS
 62
     7
100
AcDbLine
 10
800.4999999999999
 20
723.0000000000001
 30
0.0
 11
820.4999999999999
 21
723.0000000000001
 31
0.0
  0
LINE
  5
46E
330
1F
100
AcDbEntity
  8
LAY-10
  6
CONTINUOUS
 62
     7
100
AcDbLine
 10
820.4999999999999
 20
723.0000000000001
 30
0.0
 11
820.4999999999999
 21
743.0000000000001
 31
0.0
  0
LINE
  5
46F
330
1F
100
AcDbEntity
  8
LAY-10
  6
CONTINUOUS
 62
     7
100
AcDbLine
 10
480.9999999999999
 20
707.5000000000001
 30
0.0
 11
500.9999999999999
 21
707.5000000000001
 31
0.0
  0
LINE
  5
470
330
1F
100
AcDbEntity
  8
LAY-10
  6
CONTINUOUS
 62
     7
100
AcDbLine
 10
500.9999999999999
 20
707.5000000000001
 30
0.0
 11
500.9999999999999
 21
687.5000000000001
 31
0.0
  0
LINE
  5
471
330
1F
100
AcDbEntity
  8
LAY-10
  6
CONTINUOUS
 62
     7
100
AcDbLine
 10
500.9999999999999
 20
687.5000000000001
 30
0.0
 11
480.9999999999999
 21
687.5000000000001
 31
0.0
  0
LINE
  5
472
330
1F
100
AcDbEntity
  8
LAY-10
  6
CONTINUOUS
 62
     7
100
AcDbLine
 10
480.9999999999999
 20
687.5000000000001
 30
0.0
 11
480.9999999999999
 21
707.5000000000001
 31
0.0
  0
LINE
  5
473
330
1F
100
AcDbEntity
  8
LAY-10
  6
CONTINUOUS
 62
     7
100
AcDbLine
 10
516.4999999999999
 20
707.5000000000001
 30
0.0
 11
536.4999999999999
 21
707.5000000000001
 31
0.0
  0
LINE
  5
474
330
1F
100
AcDbEntity
  8
LAY-10
  6
CONTINUOUS
 62
     7
100
AcDbLine
 10
536.4999999999999
 20
707.5000000000001
 30
0.0
 11
536.4999999999999
 21
687.5000000000001
 31
0.0
  0
LINE
  5
475
330
1F
100
AcDbEntity
  8
LAY-10
  6
CONTINUOUS
 62
     7
100
AcDbLine
 10
536.4999999999999
 20
687.5000000000001
 30
0.0
 11
516.4999999999999
 21
687.5000000000001
 31
0.0
  0
LINE
  5
476
330
1F
100
AcDbEntity
  8
LAY-10
  6
CONTINUOUS
 62
     7
100
AcDbLine
 10
516.4999999999999
 20
687.5000000000001
 30
0.0
 11
516.4999999999999
 21
707.5000000000001
 31
0.0
  0
LINE
  5
477
330
1F
100
AcDbEntity
  8
LAY-10
  6
CONTINUOUS
 62
     7
100
AcDbLine
 10
551.9999999999999
 20
707.5000000000001
 30
0.0
 11
571.9999999999999
 21
707.5000000000001
 31
0.0
  0
LINE
  5
478
330
1F
100
AcDbEntity
  8
LAY-10
  6
CONTINUOUS
 62
     7
100
AcDbLine
 10
571.9999999999999
 20
707.5000000000001
 30
0.0
 11
571.9999999999999
 21
687.5000000000001
 31
0.0
  0
LINE
  5
479
330
1F
100
AcDbEntity
  8
LAY-10
  6
CONTINUOUS
 62
     7
100
AcDbLine
 10
571.9999999999999
 20
687.5000000000001
 30
0.0
 11
551.9999999999999
 21
687.5000000000001
 31
0.0
  0
LINE
  5
47A
330
1F
100
AcDbEntity
  8
LAY-10
  6
CONTINUOUS
 62
     7
100
AcDbLine
 10
551.9999999999999
 20
687.5000000000001
 30
0.0
 11
551.9999999999999
 21
707.5000000000001
 31
0.0
  0
LINE
  5
47B
330
1F
100
AcDbEntity
  8
LAY-10
  6
CONTINUOUS
 62
     7
100
AcDbLine
 10
587.4999999999998
 20
707.5000000000001
 30
0.0
 11
607.4999999999998
 21
707.5000000000001
 31
0.0
  0
LINE
  5
47C
330
1F
100
AcDbEntity
  8
LAY-10
  6
CONTINUOUS
 62
     7
100
AcDbLine
 10
607.4999999999998
 20
707.5000000000001
 30
0.0
 11
607.4999999999998
 21
687.5000000000001
 31
0.0
  0
LINE
  5
47D
330
1F
100
AcDbEntity
  8
LAY-10
  6
CONTINUOUS
 62
     7
100
AcDbLine
 10
607.4999999999998
 20
687.5000000000001
 30
0.0
 11
587.4999999999998
 21
687.5000000000001
 31
0.0
  0
LINE
  5
47E
330
1F
100
AcDbEntity
  8
LAY-10
  6
CONTINUOUS
 62
     7
100
AcDbLine
 10
587.4999999999998
 20
687.5000000000001
 30
0.0
 11
587.4999999999998
 21
707.5000000000001
 31
0.0
  0
LINE
  5
47F
330
1F
100
AcDbEntity
  8
LAY-10
  6
CONTINUOUS
 62
     7
100
AcDbLine
 10
622.9999999999999
 20
707.5000000000001
 30
0.0
 11
642.9999999999999
 21
707.5000000000001
 31
0.0
  0
LINE
  5
480
330
1F
100
AcDbEntity
  8
LAY-10
  6
CONTINUOUS
 62
     7
100
AcDbLine
 10
642.9999999999999
 20
707.5000000000001
 30
0.0
 11
642.9999999999999
 21
687.5000000000001
 31
0.0
  0
LINE
  5
481
330
1F
100
AcDbEntity
  8
LAY-10
  6
CONTINUOUS
 62
     7
100
AcDbLine
 10
642.9999999999999
 20
687.5000000000001
 30
0.0
 11
622.9999999999999
 21
687.5000000000001
 31
0.0
  0
LINE
  5
482
330
1F
100
AcDbEntity
  8
LAY-10
  6
CONTINUOUS
 62
     7
100
AcDbLine
 10
622.9999999999999
 20
687.5000000000001
 30
0.0
 11
622.9999999999999
 21
707.5000000000001
 31
0.0
  0
LINE
  5
483
330
1F
100
AcDbEntity
  8
LAY-10
  6
CONTINUOUS
 62
     7
100
AcDbLine
 10
658.4999999999999
 20
707.5000000000001
 30
0.0
 11
678.4999999999999
 21
707.5000000000001
 31
0.0
  0
LINE
  5
484
330
1F
100
AcDbEntity
  8
LAY-10
  6
CONTINUOUS
 62
     7
100
AcDbLine
 10
678.4999999999999
 20
707.5000000000001
 30
0.0
 11
678.4999999999999
 21
687.5000000000001
 31
0.0
  0
LINE
  5
485
330
1F
100
AcDbEntity
  8
LAY-10
  6
CONTINUOUS
 62
     7
100
AcDbLine
 10
678.4999999999999
 20
687.5000000000001
 30
0.0
 11
658.4999999999999
 21
687.5000000000001
 31
0.0
  0
LINE
  5
486
330
1F
100
AcDbEntity
  8
LAY-10
  6
CONTINUOUS
 62
     7
100
AcDbLine
 10
658.4999999999999
 20
687.5000000000001
 30
0.0
 11
658.4999999999999
 21
707.5000000000001
 31
0.0
  0
LINE
  5
487
330
1F
100
AcDbEntity
  8
LAY-10
  6
CONTINUOUS
 62
     7
100
AcDbLine
 10
693.9999999999999
 20
707.5000000000001
 30
0.0
 11
713.9999999999999
 21
707.5000000000001
 31
0.0
  0
LINE
  5
488
330
1F
100
AcDbEntity
  8
LAY-10
  6
CONTINUOUS
 62
     7
100
AcDbLine
 10
713.9999999999999
 20
707.5000000000001
 30
0.0
 11
713.9999999999999
 21
687.5000000000001
 31
0.0
  0
LINE
  5
489
330
1F
100
AcDbEntity
  8
LAY-10
  6
CONTINUOUS
 62
     7
100
AcDbLine
 10
713.9999999999999
 20
687.5000000000001
 30
0.0
 11
693.9999999999999
 21
687.5000000000001
 31
0.0
  0
LINE
  5
48A
330
1F
100
AcDbEntity
  8
LAY-10
  6
CONTINUOUS
 62
     7
100
AcDbLine
 10
693.9999999999999
 20
687.5000000000001
 30
0.0
 11
693.9999999999999
 21
707.5000000000001
 31
0.0
  0
LINE
  5
48B
330
1F
100
AcDbEntity
  8
LAY-10
  6
CONTINUOUS
 62
     7
100
AcDbLine
 10
729.4999999999999
 20
707.5000000000001
 30
0.0
 11
749.4999999999999
 21
707.5000000000001
 31
0.0
  0
LINE
  5
48C
330
1F
100
AcDbEntity
  8
LAY-10
  6
CONTINUOUS
 62
     7
100
AcDbLine
 10
749.4999999999999
 20
707.5000000000001
 30
0.0
 11
749.4999999999999
 21
687.5000000000001
 31
0.0
  0
LINE
  5
48D
330
1F
100
AcDbEntity
  8
LAY-10
  6
CONTINUOUS
 62
     7
100
AcDbLine
 10
749.4999999999999
 20
687.5000000000001
 30
0.0
 11
729.4999999999999
 21
687.5000000000001
 31
0.0
  0
LINE
  5
48E
330
1F
100
AcDbEntity
  8
LAY-10
  6
CONTINUOUS
 62
     7
100
AcDbLine
 10
729.4999999999999
 20
687.5000000000001
 30
0.0
 11
729.4999999999999
 21
707.5000000000001
 31
0.0
  0
LINE
  5
48F
330
1F
100
AcDbEntity
  8
LAY-10
  6
CONTINUOUS
 62
     7
100
AcDbLine
 10
765.0
 20
707.5000000000001
 30
0.0
 11
785.0
 21
707.5000000000001
 31
0.0
  0
LINE
  5
490
330
1F
100
AcDbEntity
  8
LAY-10
  6
CONTINUOUS
 62
     7
100
AcDbLine
 10
785.0
 20
707.5000000000001
 30
0.0
 11
785.0
 21
687.5000000000001
 31
0.0
  0
LINE
  5
491
330
1F
100
AcDbEntity
  8
LAY-10
  6
CONTINUOUS
 62
     7
100
AcDbLine
 10
785.0
 20
687.5000000000001
 30
0.0
 11
765.0
 21
687.5000000000001
 31
0.0
  0
LINE
  5
492
330
1F
100
AcDbEntity
  8
LAY-10
  6
CONTINUOUS
 62
     7
100
AcDbLine
 10
765.0
 20
687.5000000000001
 30
0.0
 11
765.0
 21
707.5000000000001
 31
0.0
  0
LINE
  5
493
330
1F
100
AcDbEntity
  8
LAY-10
  6
CONTINUOUS
 62
     7
100
AcDbLine
 10
1069.0
 20
707.5000000000001
 30
0.0
 11
1049.0
 21
707.5000000000001
 31
0.0
  0
LINE
  5
494
330
1F
100
AcDbEntity
  8
LAY-10
  6
CONTINUOUS
 62
     7
100
AcDbLine
 10
1049.0
 20
707.5000000000001
 30
0.0
 11
1049.0
 21
687.5000000000001
 31
0.0
  0
LINE
  5
495
330
1F
100
AcDbEntity
  8
LAY-10
  6
CONTINUOUS
 62
     7
100
AcDbLine
 10
1049.0
 20
687.5000000000001
 30
0.0
 11
1069.0
 21
687.5000000000001
 31
0.0
  0
LINE
  5
496
330
1F
100
AcDbEntity
  8
LAY-10
  6
CONTINUOUS
 62
     7
100
AcDbLine
 10
1069.0
 20
687.5000000000001
 30
0.0
 11
1069.0
 21
707.5000000000001
 31
0.0
  0
LINE
  5
497
330
1F
100
AcDbEntity
  8
LAY-10
  6
CONTINUOUS
 62
     7
100
AcDbLine
 10
1033.5
 20
707.5000000000001
 30
0.0
 11
1013.5
 21
707.5000000000001
 31
0.0
  0
LINE
  5
498
330
1F
100
AcDbEntity
  8
LAY-10
  6
CONTINUOUS
 62
     7
100
AcDbLine
 10
1013.5
 20
707.5000000000001
 30
0.0
 11
1013.5
 21
687.5000000000001
 31
0.0
  0
LINE
  5
499
330
1F
100
AcDbEntity
  8
LAY-10
  6
CONTINUOUS
 62
     7
100
AcDbLine
 10
1013.5
 20
687.5000000000001
 30
0.0
 11
1033.5
 21
687.5000000000001
 31
0.0
  0
LINE
  5
49A
330
1F
100
AcDbEntity
  8
LAY-10
  6
CONTINUOUS
 62
     7
100
AcDbLine
 10
1033.5
 20
687.5000000000001
 30
0.0
 11
1033.5
 21
707.5000000000001
 31
0.0
  0
LINE
  5
49B
330
1F
100
AcDbEntity
  8
LAY-10
  6
CONTINUOUS
 62
     7
100
AcDbLine
 10
997.9999999999999
 20
707.5000000000001
 30
0.0
 11
977.9999999999999
 21
707.5000000000001
 31
0.0
  0
LINE
  5
49C
330
1F
100
AcDbEntity
  8
LAY-10
  6
CONTINUOUS
 62
     7
100
AcDbLine
 10
977.9999999999999
 20
707.5000000000001
 30
0.0
 11
977.9999999999999
 21
687.5000000000001
 31
0.0
  0
LINE
  5
49D
330
1F
100
AcDbEntity
  8
LAY-10
  6
CONTINUOUS
 62
     7
100
AcDbLine
 10
977.9999999999999
 20
687.5000000000001
 30
0.0
 11
997.9999999999999
 21
687.5000000000001
 31
0.0
  0
LINE
  5
49E
330
1F
100
AcDbEntity
  8
LAY-10
  6
CONTINUOUS
 62
     7
100
AcDbLine
 10
997.9999999999999
 20
687.5000000000001
 30
0.0
 11
997.9999999999999
 21
707.5000000000001
 31
0.0
  0
LINE
  5
49F
330
1F
100
AcDbEntity
  8
LAY-10
  6
CONTINUOUS
 62
     7
100
AcDbLine
 10
962.5
 20
707.5000000000001
 30
0.0
 11
942.5
 21
707.5000000000001
 31
0.0
  0
LINE
  5
4A0
330
1F
100
AcDbEntity
  8
LAY-10
  6
CONTINUOUS
 62
     7
100
AcDbLine
 10
942.5
 20
707.5000000000001
 30
0.0
 11
942.5
 21
687.5000000000001
 31
0.0
  0
LINE
  5
4A1
330
1F
100
AcDbEntity
  8
LAY-10
  6
CONTINUOUS
 62
     7
100
AcDbLine
 10
942.5
 20
687.5000000000001
 30
0.0
 11
962.5
 21
687.5000000000001
 31
0.0
  0
LINE
  5
4A2
330
1F
100
AcDbEntity
  8
LAY-10
  6
CONTINUOUS
 62
     7
100
AcDbLine
 10
962.5
 20
687.5000000000001
 30
0.0
 11
962.5
 21
707.5000000000001
 31
0.0
  0
LINE
  5
4A3
330
1F
100
AcDbEntity
  8
LAY-10
  6
CONTINUOUS
 62
     7
100
AcDbLine
 10
926.9999999999999
 20
707.5000000000001
 30
0.0
 11
906.9999999999999
 21
707.5000000000001
 31
0.0
  0
LINE
  5
4A4
330
1F
100
AcDbEntity
  8
LAY-10
  6
CONTINUOUS
 62
     7
100
AcDbLine
 10
906.9999999999999
 20
707.5000000000001
 30
0.0
 11
906.9999999999999
 21
687.5000000000001
 31
0.0
  0
LINE
  5
4A5
330
1F
100
AcDbEntity
  8
LAY-10
  6
CONTINUOUS
 62
     7
100
AcDbLine
 10
906.9999999999999
 20
687.5000000000001
 30
0.0
 11
926.9999999999999
 21
687.5000000000001
 31
0.0
  0
LINE
  5
4A6
330
1F
100
AcDbEntity
  8
LAY-10
  6
CONTINUOUS
 62
     7
100
AcDbLine
 10
926.9999999999999
 20
687.5000000000001
 30
0.0
 11
926.9999999999999
 21
707.5000000000001
 31
0.0
  0
LINE
  5
4A7
330
1F
100
AcDbEntity
  8
LAY-10
  6
CONTINUOUS
 62
     7
100
AcDbLine
 10
891.4999999999999
 20
707.5000000000001
 30
0.0
 11
871.4999999999999
 21
707.5000000000001
 31
0.0
  0
LINE
  5
4A8
330
1F
100
AcDbEntity
  8
LAY-10
  6
CONTINUOUS
 62
     7
100
AcDbLine
 10
871.4999999999999
 20
707.5000000000001
 30
0.0
 11
871.4999999999999
 21
687.5000000000001
 31
0.0
  0
LINE
  5
4A9
330
1F
100
AcDbEntity
  8
LAY-10
  6
CONTINUOUS
 62
     7
100
AcDbLine
 10
871.4999999999999
 20
687.5000000000001
 30
0.0
 11
891.4999999999999
 21
687.5000000000001
 31
0.0
  0
LINE
  5
4AA
330
1F
100
AcDbEntity
  8
LAY-10
  6
CONTINUOUS
 62
     7
100
AcDbLine
 10
891.4999999999999
 20
687.5000000000001
 30
0.0
 11
891.4999999999999
 21
707.5000000000001
 31
0.0
  0
LINE
  5
4AB
330
1F
100
AcDbEntity
  8
LAY-10
  6
CONTINUOUS
 62
     7
100
AcDbLine
 10
855.9999999999999
 20
707.5000000000001
 30
0.0
 11
835.9999999999999
 21
707.5000000000001
 31
0.0
  0
LINE
  5
4AC
330
1F
100
AcDbEntity
  8
LAY-10
  6
CONTINUOUS
 62
     7
100
AcDbLine
 10
835.9999999999999
 20
707.5000000000001
 30
0.0
 11
835.9999999999999
 21
687.5000000000001
 31
0.0
  0
LINE
  5
4AD
330
1F
100
AcDbEntity
  8
LAY-10
  6
CONTINUOUS
 62
     7
100
AcDbLine
 10
835.9999999999999
 20
687.5000000000001
 30
0.0
 11
855.9999999999999
 21
687.5000000000001
 31
0.0
  0
LINE
  5
4AE
330
1F
100
AcDbEntity
  8
LAY-10
  6
CONTINUOUS
 62
     7
100
AcDbLine
 10
855.9999999999999
 20
687.5000000000001
 30
0.0
 11
855.9999999999999
 21
707.5000000000001
 31
0.0
  0
LINE
  5
4AF
330
1F
100
AcDbEntity
  8
LAY-10
  6
CONTINUOUS
 62
     7
100
AcDbLine
 10
820.4999999999999
 20
707.5000000000001
 30
0.0
 11
800.4999999999999
 21
707.5000000000001
 31
0.0
  0
LINE
  5
4B0
330
1F
100
AcDbEntity
  8
LAY-10
  6
CONTINUOUS
 62
     7
100
AcDbLine
 10
800.4999999999999
 20
707.5000000000001
 30
0.0
 11
800.4999999999999
 21
687.5000000000001
 31
0.0
  0
LINE
  5
4B1
330
1F
100
AcDbEntity
  8
LAY-10
  6
CONTINUOUS
 62
     7
100
AcDbLine
 10
800.4999999999999
 20
687.5000000000001
 30
0.0
 11
820.4999999999999
 21
687.5000000000001
 31
0.0
  0
LINE
  5
4B2
330
1F
100
AcDbEntity
  8
LAY-10
  6
CONTINUOUS
 62
     7
100
AcDbLine
 10
820.4999999999999
 20
687.5000000000001
 30
0.0
 11
820.4999999999999
 21
707.5000000000001
 31
0.0
  0
LINE
  5
4B3
330
1F
100
AcDbEntity
  8
LAY-10
  6
CONTINUOUS
 62
     7
100
AcDbLine
 10
480.9999999999999
 20
672.0000000000001
 30
0.0
 11
500.9999999999999
 21
672.0000000000001
 31
0.0
  0
LINE
  5
4B4
330
1F
100
AcDbEntity
  8
LAY-10
  6
CONTINUOUS
 62
     7
100
AcDbLine
 10
500.9999999999999
 20
672.0000000000001
 30
0.0
 11
500.9999999999999
 21
652.0000000000001
 31
0.0
  0
LINE
  5
4B5
330
1F
100
AcDbEntity
  8
LAY-10
  6
CONTINUOUS
 62
     7
100
AcDbLine
 10
500.9999999999999
 20
652.0000000000001
 30
0.0
 11
480.9999999999999
 21
652.0000000000001
 31
0.0
  0
LINE
  5
4B6
330
1F
100
AcDbEntity
  8
LAY-10
  6
CONTINUOUS
 62
     7
100
AcDbLine
 10
480.9999999999999
 20
652.0000000000001
 30
0.0
 11
480.9999999999999
 21
672.0000000000001
 31
0.0
  0
LINE
  5
4B7
330
1F
100
AcDbEntity
  8
LAY-10
  6
CONTINUOUS
 62
     7
100
AcDbLine
 10
516.4999999999999
 20
672.0000000000001
 30
0.0
 11
536.4999999999999
 21
672.0000000000001
 31
0.0
  0
LINE
  5
4B8
330
1F
100
AcDbEntity
  8
LAY-10
  6
CONTINUOUS
 62
     7
100
AcDbLine
 10
536.4999999999999
 20
672.0000000000001
 30
0.0
 11
536.4999999999999
 21
652.0000000000001
 31
0.0
  0
LINE
  5
4B9
330
1F
100
AcDbEntity
  8
LAY-10
  6
CONTINUOUS
 62
     7
100
AcDbLine
 10
536.4999999999999
 20
652.0000000000001
 30
0.0
 11
516.4999999999999
 21
652.0000000000001
 31
0.0
  0
LINE
  5
4BA
330
1F
100
AcDbEntity
  8
LAY-10
  6
CONTINUOUS
 62
     7
100
AcDbLine
 10
516.4999999999999
 20
652.0000000000001
 30
0.0
 11
516.4999999999999
 21
672.0000000000001
 31
0.0
  0
LINE
  5
4BB
330
1F
100
AcDbEntity
  8
LAY-10
  6
CONTINUOUS
 62
     7
100
AcDbLine
 10
551.9999999999999
 20
672.0000000000001
 30
0.0
 11
571.9999999999999
 21
672.0000000000001
 31
0.0
  0
LINE
  5
4BC
330
1F
100
AcDbEntity
  8
LAY-10
  6
CONTINUOUS
 62
     7
100
AcDbLine
 10
571.9999999999999
 20
672.0000000000001
 30
0.0
 11
571.9999999999999
 21
652.0000000000001
 31
0.0
  0
LINE
  5
4BD
330
1F
100
AcDbEntity
  8
LAY-10
  6
CONTINUOUS
 62
     7
100
AcDbLine
 10
571.9999999999999
 20
652.0000000000001
 30
0.0
 11
551.9999999999999
 21
652.0000000000001
 31
0.0
  0
LINE
  5
4BE
330
1F
100
AcDbEntity
  8
LAY-10
  6
CONTINUOUS
 62
     7
100
AcDbLine
 10
551.9999999999999
 20
652.0000000000001
 30
0.0
 11
551.9999999999999
 21
672.0000000000001
 31
0.0
  0
LINE
  5
4BF
330
1F
100
AcDbEntity
  8
LAY-10
  6
CONTINUOUS
 62
     7
100
AcDbLine
 10
587.4999999999998
 20
672.0000000000001
 30
0.0
 11
607.4999999999998
 21
672.0000000000001
 31
0.0
  0
LINE
  5
4C0
330
1F
100
AcDbEntity
  8
LAY-10
  6
CONTINUOUS
 62
     7
100
AcDbLine
 10
607.4999999999998
 20
672.0000000000001
 30
0.0
 11
607.4999999999998
 21
652.0000000000001
 31
0.0
  0
LINE
  5
4C1
330
1F
100
AcDbEntity
  8
LAY-10
  6
CONTINUOUS
 62
     7
100
AcDbLine
 10
607.4999999999998
 20
652.0000000000001
 30
0.0
 11
587.4999999999998
 21
652.0000000000001
 31
0.0
  0
LINE
  5
4C2
330
1F
100
AcDbEntity
  8
LAY-10
  6
CONTINUOUS
 62
     7
100
AcDbLine
 10
587.4999999999998
 20
652.0000000000001
 30
0.0
 11
587.4999999999998
 21
672.0000000000001
 31
0.0
  0
LINE
  5
4C3
330
1F
100
AcDbEntity
  8
LAY-10
  6
CONTINUOUS
 62
     7
100
AcDbLine
 10
622.9999999999999
 20
672.0000000000001
 30
0.0
 11
642.9999999999999
 21
672.0000000000001
 31
0.0
  0
LINE
  5
4C4
330
1F
100
AcDbEntity
  8
LAY-10
  6
CONTINUOUS
 62
     7
100
AcDbLine
 10
642.9999999999999
 20
672.0000000000001
 30
0.0
 11
642.9999999999999
 21
652.0000000000001
 31
0.0
  0
LINE
  5
4C5
330
1F
100
AcDbEntity
  8
LAY-10
  6
CONTINUOUS
 62
     7
100
AcDbLine
 10
642.9999999999999
 20
652.0000000000001
 30
0.0
 11
622.9999999999999
 21
652.0000000000001
 31
0.0
  0
LINE
  5
4C6
330
1F
100
AcDbEntity
  8
LAY-10
  6
CONTINUOUS
 62
     7
100
AcDbLine
 10
622.9999999999999
 20
652.0000000000001
 30
0.0
 11
622.9999999999999
 21
672.0000000000001
 31
0.0
  0
LINE
  5
4C7
330
1F
100
AcDbEntity
  8
LAY-10
  6
CONTINUOUS
 62
     7
100
AcDbLine
 10
658.4999999999999
 20
672.0000000000001
 30
0.0
 11
678.4999999999999
 21
672.0000000000001
 31
0.0
  0
LINE
  5
4C8
330
1F
100
AcDbEntity
  8
LAY-10
  6
CONTINUOUS
 62
     7
100
AcDbLine
 10
678.4999999999999
 20
672.0000000000001
 30
0.0
 11
678.4999999999999
 21
652.0000000000001
 31
0.0
  0
LINE
  5
4C9
330
1F
100
AcDbEntity
  8
LAY-10
  6
CONTINUOUS
 62
     7
100
AcDbLine
 10
678.4999999999999
 20
652.0000000000001
 30
0.0
 11
658.4999999999999
 21
652.0000000000001
 31
0.0
  0
LINE
  5
4CA
330
1F
100
AcDbEntity
  8
LAY-10
  6
CONTINUOUS
 62
     7
100
AcDbLine
 10
658.4999999999999
 20
652.0000000000001
 30
0.0
 11
658.4999999999999
 21
672.0000000000001
 31
0.0
  0
LINE
  5
4CB
330
1F
100
AcDbEntity
  8
LAY-10
  6
CONTINUOUS
 62
     7
100
AcDbLine
 10
693.9999999999999
 20
672.0000000000001
 30
0.0
 11
713.9999999999999
 21
672.0000000000001
 31
0.0
  0
LINE
  5
4CC
330
1F
100
AcDbEntity
  8
LAY-10
  6
CONTINUOUS
 62
     7
100
AcDbLine
 10
713.9999999999999
 20
672.0000000000001
 30
0.0
 11
713.9999999999999
 21
652.0000000000001
 31
0.0
  0
LINE
  5
4CD
330
1F
100
AcDbEntity
  8
LAY-10
  6
CONTINUOUS
 62
     7
100
AcDbLine
 10
713.9999999999999
 20
652.0000000000001
 30
0.0
 11
693.9999999999999
 21
652.0000000000001
 31
0.0
  0
LINE
  5
4CE
330
1F
100
AcDbEntity
  8
LAY-10
  6
CONTINUOUS
 62
     7
100
AcDbLine
 10
693.9999999999999
 20
652.0000000000001
 30
0.0
 11
693.9999999999999
 21
672.0000000000001
 31
0.0
  0
LINE
  5
4CF
330
1F
100
AcDbEntity
  8
LAY-10
  6
CONTINUOUS
 62
     7
100
AcDbLine
 10
729.4999999999999
 20
672.0000000000001
 30
0.0
 11
749.4999999999999
 21
672.0000000000001
 31
0.0
  0
LINE
  5
4D0
330
1F
100
AcDbEntity
  8
LAY-10
  6
CONTINUOUS
 62
     7
100
AcDbLine
 10
749.4999999999999
 20
672.0000000000001
 30
0.0
 11
749.4999999999999
 21
652.0000000000001
 31
0.0
  0
LINE
  5
4D1
330
1F
100
AcDbEntity
  8
LAY-10
  6
CONTINUOUS
 62
     7
100
AcDbLine
 10
749.4999999999999
 20
652.0000000000001
 30
0.0
 11
729.4999999999999
 21
652.0000000000001
 31
0.0
  0
LINE
  5
4D2
330
1F
100
AcDbEntity
  8
LAY-10
  6
CONTINUOUS
 62
     7
100
AcDbLine
 10
729.4999999999999
 20
652.0000000000001
 30
0.0
 11
729.4999999999999
 21
672.0000000000001
 31
0.0
  0
LINE
  5
4D3
330
1F
100
AcDbEntity
  8
LAY-10
  6
CONTINUOUS
 62
     7
100
AcDbLine
 10
765.0
 20
672.0000000000001
 30
0.0
 11
785.0
 21
672.0000000000001
 31
0.0
  0
LINE
  5
4D4
330
1F
100
AcDbEntity
  8
LAY-10
  6
CONTINUOUS
 62
     7
100
AcDbLine
 10
785.0
 20
672.0000000000001
 30
0.0
 11
785.0
 21
652.0000000000001
 31
0.0
  0
LINE
  5
4D5
330
1F
100
AcDbEntity
  8
LAY-10
  6
CONTINUOUS
 62
     7
100
AcDbLine
 10
785.0
 20
652.0000000000001
 30
0.0
 11
765.0
 21
652.0000000000001
 31
0.0
  0
LINE
  5
4D6
330
1F
100
AcDbEntity
  8
LAY-10
  6
CONTINUOUS
 62
     7
100
AcDbLine
 10
765.0
 20
652.0000000000001
 30
0.0
 11
765.0
 21
672.0000000000001
 31
0.0
  0
LINE
  5
4D7
330
1F
100
AcDbEntity
  8
LAY-10
  6
CONTINUOUS
 62
     7
100
AcDbLine
 10
1069.0
 20
672.0000000000001
 30
0.0
 11
1049.0
 21
672.0000000000001
 31
0.0
  0
LINE
  5
4D8
330
1F
100
AcDbEntity
  8
LAY-10
  6
CONTINUOUS
 62
     7
100
AcDbLine
 10
1049.0
 20
672.0000000000001
 30
0.0
 11
1049.0
 21
652.0000000000001
 31
0.0
  0
LINE
  5
4D9
330
1F
100
AcDbEntity
  8
LAY-10
  6
CONTINUOUS
 62
     7
100
AcDbLine
 10
1049.0
 20
652.0000000000001
 30
0.0
 11
1069.0
 21
652.0000000000001
 31
0.0
  0
LINE
  5
4DA
330
1F
100
AcDbEntity
  8
LAY-10
  6
CONTINUOUS
 62
     7
100
AcDbLine
 10
1069.0
 20
652.0000000000001
 30
0.0
 11
1069.0
 21
672.0000000000001
 31
0.0
  0
LINE
  5
4DB
330
1F
100
AcDbEntity
  8
LAY-10
  6
CONTINUOUS
 62
     7
100
AcDbLine
 10
1033.5
 20
672.0000000000001
 30
0.0
 11
1013.5
 21
672.0000000000001
 31
0.0
  0
LINE
  5
4DC
330
1F
100
AcDbEntity
  8
LAY-10
  6
CONTINUOUS
 62
     7
100
AcDbLine
 10
1013.5
 20
672.0000000000001
 30
0.0
 11
1013.5
 21
652.0000000000001
 31
0.0
  0
LINE
  5
4DD
330
1F
100
AcDbEntity
  8
LAY-10
  6
CONTINUOUS
 62
     7
100
AcDbLine
 10
1013.5
 20
652.0000000000001
 30
0.0
 11
1033.5
 21
652.0000000000001
 31
0.0
  0
LINE
  5
4DE
330
1F
100
AcDbEntity
  8
LAY-10
  6
CONTINUOUS
 62
     7
100
AcDbLine
 10
1033.5
 20
652.0000000000001
 30
0.0
 11
1033.5
 21
672.0000000000001
 31
0.0
  0
LINE
  5
4DF
330
1F
100
AcDbEntity
  8
LAY-10
  6
CONTINUOUS
 62
     7
100
AcDbLine
 10
997.9999999999999
 20
672.0000000000001
 30
0.0
 11
977.9999999999999
 21
672.0000000000001
 31
0.0
  0
LINE
  5
4E0
330
1F
100
AcDbEntity
  8
LAY-10
  6
CONTINUOUS
 62
     7
100
AcDbLine
 10
977.9999999999999
 20
672.0000000000001
 30
0.0
 11
977.9999999999999
 21
652.0000000000001
 31
0.0
  0
LINE
  5
4E1
330
1F
100
AcDbEntity
  8
LAY-10
  6
CONTINUOUS
 62
     7
100
AcDbLine
 10
977.9999999999999
 20
652.0000000000001
 30
0.0
 11
997.9999999999999
 21
652.0000000000001
 31
0.0
  0
LINE
  5
4E2
330
1F
100
AcDbEntity
  8
LAY-10
  6
CONTINUOUS
 62
     7
100
AcDbLine
 10
997.9999999999999
 20
652.0000000000001
 30
0.0
 11
997.9999999999999
 21
672.0000000000001
 31
0.0
  0
LINE
  5
4E3
330
1F
100
AcDbEntity
  8
LAY-10
  6
CONTINUOUS
 62
     7
100
AcDbLine
 10
962.5
 20
672.0000000000001
 30
0.0
 11
942.5
 21
672.0000000000001
 31
0.0
  0
LINE
  5
4E4
330
1F
100
AcDbEntity
  8
LAY-10
  6
CONTINUOUS
 62
     7
100
AcDbLine
 10
942.5
 20
672.0000000000001
 30
0.0
 11
942.5
 21
652.0000000000001
 31
0.0
  0
LINE
  5
4E5
330
1F
100
AcDbEntity
  8
LAY-10
  6
CONTINUOUS
 62
     7
100
AcDbLine
 10
942.5
 20
652.0000000000001
 30
0.0
 11
962.5
 21
652.0000000000001
 31
0.0
  0
LINE
  5
4E6
330
1F
100
AcDbEntity
  8
LAY-10
  6
CONTINUOUS
 62
     7
100
AcDbLine
 10
962.5
 20
652.0000000000001
 30
0.0
 11
962.5
 21
672.0000000000001
 31
0.0
  0
LINE
  5
4E7
330
1F
100
AcDbEntity
  8
LAY-10
  6
CONTINUOUS
 62
     7
100
AcDbLine
 10
926.9999999999999
 20
672.0000000000001
 30
0.0
 11
906.9999999999999
 21
672.0000000000001
 31
0.0
  0
LINE
  5
4E8
330
1F
100
AcDbEntity
  8
LAY-10
  6
CONTINUOUS
 62
     7
100
AcDbLine
 10
906.9999999999999
 20
672.0000000000001
 30
0.0
 11
906.9999999999999
 21
652.0000000000001
 31
0.0
  0
LINE
  5
4E9
330
1F
100
AcDbEntity
  8
LAY-10
  6
CONTINUOUS
 62
     7
100
AcDbLine
 10
906.9999999999999
 20
652.0000000000001
 30
0.0
 11
926.9999999999999
 21
652.0000000000001
 31
0.0
  0
LINE
  5
4EA
330
1F
100
AcDbEntity
  8
LAY-10
  6
CONTINUOUS
 62
     7
100
AcDbLine
 10
926.9999999999999
 20
652.0000000000001
 30
0.0
 11
926.9999999999999
 21
672.0000000000001
 31
0.0
  0
LINE
  5
4EB
330
1F
100
AcDbEntity
  8
LAY-10
  6
CONTINUOUS
 62
     7
100
AcDbLine
 10
891.4999999999999
 20
672.0000000000001
 30
0.0
 11
871.4999999999999
 21
672.0000000000001
 31
0.0
  0
LINE
  5
4EC
330
1F
100
AcDbEntity
  8
LAY-10
  6
CONTINUOUS
 62
     7
100
AcDbLine
 10
871.4999999999999
 20
672.0000000000001
 30
0.0
 11
871.4999999999999
 21
652.0000000000001
 31
0.0
  0
LINE
  5
4ED
330
1F
100
AcDbEntity
  8
LAY-10
  6
CONTINUOUS
 62
     7
100
AcDbLine
 10
871.4999999999999
 20
652.0000000000001
 30
0.0
 11
891.4999999999999
 21
652.0000000000001
 31
0.0
  0
LINE
  5
4EE
330
1F
100
AcDbEntity
  8
LAY-10
  6
CONTINUOUS
 62
     7
100
AcDbLine
 10
891.4999999999999
 20
652.0000000000001
 30
0.0
 11
891.4999999999999
 21
672.0000000000001
 31
0.0
  0
LINE
  5
4EF
330
1F
100
AcDbEntity
  8
LAY-10
  6
CONTINUOUS
 62
     7
100
AcDbLine
 10
855.9999999999999
 20
672.0000000000001
 30
0.0
 11
835.9999999999999
 21
672.0000000000001
 31
0.0
  0
LINE
  5
4F0
330
1F
100
AcDbEntity
  8
LAY-10
  6
CONTINUOUS
 62
     7
100
AcDbLine
 10
835.9999999999999
 20
672.0000000000001
 30
0.0
 11
835.9999999999999
 21
652.0000000000001
 31
0.0
  0
LINE
  5
4F1
330
1F
100
AcDbEntity
  8
LAY-10
  6
CONTINUOUS
 62
     7
100
AcDbLine
 10
835.9999999999999
 20
652.0000000000001
 30
0.0
 11
855.9999999999999
 21
652.0000000000001
 31
0.0
  0
LINE
  5
4F2
330
1F
100
AcDbEntity
  8
LAY-10
  6
CONTINUOUS
 62
     7
100
AcDbLine
 10
855.9999999999999
 20
652.0000000000001
 30
0.0
 11
855.9999999999999
 21
672.0000000000001
 31
0.0
  0
LINE
  5
4F3
330
1F
100
AcDbEntity
  8
LAY-10
  6
CONTINUOUS
 62
     7
100
AcDbLine
 10
820.4999999999999
 20
672.0000000000001
 30
0.0
 11
800.4999999999999
 21
672.0000000000001
 31
0.0
  0
LINE
  5
4F4
330
1F
100
AcDbEntity
  8
LAY-10
  6
CONTINUOUS
 62
     7
100
AcDbLine
 10
800.4999999999999
 20
672.0000000000001
 30
0.0
 11
800.4999999999999
 21
652.0000000000001
 31
0.0
  0
LINE
  5
4F5
330
1F
100
AcDbEntity
  8
LAY-10
  6
CONTINUOUS
 62
     7
100
AcDbLine
 10
800.4999999999999
 20
652.0000000000001
 30
0.0
 11
820.4999999999999
 21
652.0000000000001
 31
0.0
  0
LINE
  5
4F6
330
1F
100
AcDbEntity
  8
LAY-10
  6
CONTINUOUS
 62
     7
100
AcDbLine
 10
820.4999999999999
 20
652.0000000000001
 30
0.0
 11
820.4999999999999
 21
672.0000000000001
 31
0.0
  0
LINE
  5
4F7
330
1F
100
AcDbEntity
  8
LAY-10
  6
CONTINUOUS
 62
     7
100
AcDbLine
 10
480.9999999999999
 20
636.5000000000001
 30
0.0
 11
500.9999999999999
 21
636.5000000000001
 31
0.0
  0
LINE
  5
4F8
330
1F
100
AcDbEntity
  8
LAY-10
  6
CONTINUOUS
 62
     7
100
AcDbLine
 10
500.9999999999999
 20
636.5000000000001
 30
0.0
 11
500.9999999999999
 21
616.5000000000001
 31
0.0
  0
LINE
  5
4F9
330
1F
100
AcDbEntity
  8
LAY-10
  6
CONTINUOUS
 62
     7
100
AcDbLine
 10
500.9999999999999
 20
616.5000000000001
 30
0.0
 11
480.9999999999999
 21
616.5000000000001
 31
0.0
  0
LINE
  5
4FA
330
1F
100
AcDbEntity
  8
LAY-10
  6
CONTINUOUS
 62
     7
100
AcDbLine
 10
480.9999999999999
 20
616.5000000000001
 30
0.0
 11
480.9999999999999
 21
636.5000000000001
 31
0.0
  0
LINE
  5
4FB
330
1F
100
AcDbEntity
  8
LAY-10
  6
CONTINUOUS
 62
     7
100
AcDbLine
 10
516.4999999999999
 20
636.5000000000001
 30
0.0
 11
536.4999999999999
 21
636.5000000000001
 31
0.0
  0
LINE
  5
4FC
330
1F
100
AcDbEntity
  8
LAY-10
  6
CONTINUOUS
 62
     7
100
AcDbLine
 10
536.4999999999999
 20
636.5000000000001
 30
0.0
 11
536.4999999999999
 21
616.5000000000001
 31
0.0
  0
LINE
  5
4FD
330
1F
100
AcDbEntity
  8
LAY-10
  6
CONTINUOUS
 62
     7
100
AcDbLine
 10
536.4999999999999
 20
616.5000000000001
 30
0.0
 11
516.4999999999999
 21
616.5000000000001
 31
0.0
  0
LINE
  5
4FE
330
1F
100
AcDbEntity
  8
LAY-10
  6
CONTINUOUS
 62
     7
100
AcDbLine
 10
516.4999999999999
 20
616.5000000000001
 30
0.0
 11
516.4999999999999
 21
636.5000000000001
 31
0.0
  0
LINE
  5
4FF
330
1F
100
AcDbEntity
  8
LAY-10
  6
CONTINUOUS
 62
     7
100
AcDbLine
 10
551.9999999999999
 20
636.5000000000001
 30
0.0
 11
571.9999999999999
 21
636.5000000000001
 31
0.0
  0
LINE
  5
500
330
1F
100
AcDbEntity
  8
LAY-10
  6
CONTINUOUS
 62
     7
100
AcDbLine
 10
571.9999999999999
 20
636.5000000000001
 30
0.0
 11
571.9999999999999
 21
616.5000000000001
 31
0.0
  0
LINE
  5
501
330
1F
100
AcDbEntity
  8
LAY-10
  6
CONTINUOUS
 62
     7
100
AcDbLine
 10
571.9999999999999
 20
616.5000000000001
 30
0.0
 11
551.9999999999999
 21
616.5000000000001
 31
0.0
  0
LINE
  5
502
330
1F
100
AcDbEntity
  8
LAY-10
  6
CONTINUOUS
 62
     7
100
AcDbLine
 10
551.9999999999999
 20
616.5000000000001
 30
0.0
 11
551.9999999999999
 21
636.5000000000001
 31
0.0
  0
LINE
  5
503
330
1F
100
AcDbEntity
  8
LAY-10
  6
CONTINUOUS
 62
     7
100
AcDbLine
 10
587.4999999999998
 20
636.5000000000001
 30
0.0
 11
607.4999999999998
 21
636.5000000000001
 31
0.0
  0
LINE
  5
504
330
1F
100
AcDbEntity
  8
LAY-10
  6
CONTINUOUS
 62
     7
100
AcDbLine
 10
607.4999999999998
 20
636.5000000000001
 30
0.0
 11
607.4999999999998
 21
616.5000000000001
 31
0.0
  0
LINE
  5
505
330
1F
100
AcDbEntity
  8
LAY-10
  6
CONTINUOUS
 62
     7
100
AcDbLine
 10
607.4999999999998
 20
616.5000000000001
 30
0.0
 11
587.4999999999998
 21
616.5000000000001
 31
0.0
  0
LINE
  5
506
330
1F
100
AcDbEntity
  8
LAY-10
  6
CONTINUOUS
 62
     7
100
AcDbLine
 10
587.4999999999998
 20
616.5000000000001
 30
0.0
 11
587.4999999999998
 21
636.5000000000001
 31
0.0
  0
LINE
  5
507
330
1F
100
AcDbEntity
  8
LAY-10
  6
CONTINUOUS
 62
     7
100
AcDbLine
 10
622.9999999999999
 20
636.5000000000001
 30
0.0
 11
642.9999999999999
 21
636.5000000000001
 31
0.0
  0
LINE
  5
508
330
1F
100
AcDbEntity
  8
LAY-10
  6
CONTINUOUS
 62
     7
100
AcDbLine
 10
642.9999999999999
 20
636.5000000000001
 30
0.0
 11
642.9999999999999
 21
616.5000000000001
 31
0.0
  0
LINE
  5
509
330
1F
100
AcDbEntity
  8
LAY-10
  6
CONTINUOUS
 62
     7
100
AcDbLine
 10
642.9999999999999
 20
616.5000000000001
 30
0.0
 11
622.9999999999999
 21
616.5000000000001
 31
0.0
  0
LINE
  5
50A
330
1F
100
AcDbEntity
  8
LAY-10
  6
CONTINUOUS
 62
     7
100
AcDbLine
 10
622.9999999999999
 20
616.5000000000001
 30
0.0
 11
622.9999999999999
 21
636.5000000000001
 31
0.0
  0
LINE
  5
50B
330
1F
100
AcDbEntity
  8
LAY-10
  6
CONTINUOUS
 62
     7
100
AcDbLine
 10
658.4999999999999
 20
636.5000000000001
 30
0.0
 11
678.4999999999999
 21
636.5000000000001
 31
0.0
  0
LINE
  5
50C
330
1F
100
AcDbEntity
  8
LAY-10
  6
CONTINUOUS
 62
     7
100
AcDbLine
 10
678.4999999999999
 20
636.5000000000001
 30
0.0
 11
678.4999999999999
 21
616.5000000000001
 31
0.0
  0
LINE
  5
50D
330
1F
100
AcDbEntity
  8
LAY-10
  6
CONTINUOUS
 62
     7
100
AcDbLine
 10
678.4999999999999
 20
616.5000000000001
 30
0.0
 11
658.4999999999999
 21
616.5000000000001
 31
0.0
  0
LINE
  5
50E
330
1F
100
AcDbEntity
  8
LAY-10
  6
CONTINUOUS
 62
     7
100
AcDbLine
 10
658.4999999999999
 20
616.5000000000001
 30
0.0
 11
658.4999999999999
 21
636.5000000000001
 31
0.0
  0
LINE
  5
50F
330
1F
100
AcDbEntity
  8
LAY-10
  6
CONTINUOUS
 62
     7
100
AcDbLine
 10
693.9999999999999
 20
636.5000000000001
 30
0.0
 11
713.9999999999999
 21
636.5000000000001
 31
0.0
  0
LINE
  5
510
330
1F
100
AcDbEntity
  8
LAY-10
  6
CONTINUOUS
 62
     7
100
AcDbLine
 10
713.9999999999999
 20
636.5000000000001
 30
0.0
 11
713.9999999999999
 21
616.5000000000001
 31
0.0
  0
LINE
  5
511
330
1F
100
AcDbEntity
  8
LAY-10
  6
CONTINUOUS
 62
     7
100
AcDbLine
 10
713.9999999999999
 20
616.5000000000001
 30
0.0
 11
693.9999999999999
 21
616.5000000000001
 31
0.0
  0
LINE
  5
512
330
1F
100
AcDbEntity
  8
LAY-10
  6
CONTINUOUS
 62
     7
100
AcDbLine
 10
693.9999999999999
 20
616.5000000000001
 30
0.0
 11
693.9999999999999
 21
636.5000000000001
 31
0.0
  0
LINE
  5
513
330
1F
100
AcDbEntity
  8
LAY-10
  6
CONTINUOUS
 62
     7
100
AcDbLine
 10
729.4999999999999
 20
636.5000000000001
 30
0.0
 11
749.4999999999999
 21
636.5000000000001
 31
0.0
  0
LINE
  5
514
330
1F
100
AcDbEntity
  8
LAY-10
  6
CONTINUOUS
 62
     7
100
AcDbLine
 10
749.4999999999999
 20
636.5000000000001
 30
0.0
 11
749.4999999999999
 21
616.5000000000001
 31
0.0
  0
LINE
  5
515
330
1F
100
AcDbEntity
  8
LAY-10
  6
CONTINUOUS
 62
     7
100
AcDbLine
 10
749.4999999999999
 20
616.5000000000001
 30
0.0
 11
729.4999999999999
 21
616.5000000000001
 31
0.0
  0
LINE
  5
516
330
1F
100
AcDbEntity
  8
LAY-10
  6
CONTINUOUS
 62
     7
100
AcDbLine
 10
729.4999999999999
 20
616.5000000000001
 30
0.0
 11
729.4999999999999
 21
636.5000000000001
 31
0.0
  0
LINE
  5
517
330
1F
100
AcDbEntity
  8
LAY-10
  6
CONTINUOUS
 62
     7
100
AcDbLine
 10
765.0
 20
636.5000000000001
 30
0.0
 11
785.0
 21
636.5000000000001
 31
0.0
  0
LINE
  5
518
330
1F
100
AcDbEntity
  8
LAY-10
  6
CONTINUOUS
 62
     7
100
AcDbLine
 10
785.0
 20
636.5000000000001
 30
0.0
 11
785.0
 21
616.5000000000001
 31
0.0
  0
LINE
  5
519
330
1F
100
AcDbEntity
  8
LAY-10
  6
CONTINUOUS
 62
     7
100
AcDbLine
 10
785.0
 20
616.5000000000001
 30
0.0
 11
765.0
 21
616.5000000000001
 31
0.0
  0
LINE
  5
51A
330
1F
100
AcDbEntity
  8
LAY-10
  6
CONTINUOUS
 62
     7
100
AcDbLine
 10
765.0
 20
616.5000000000001
 30
0.0
 11
765.0
 21
636.5000000000001
 31
0.0
  0
LINE
  5
51B
330
1F
100
AcDbEntity
  8
LAY-10
  6
CONTINUOUS
 62
     7
100
AcDbLine
 10
1069.0
 20
636.5000000000001
 30
0.0
 11
1049.0
 21
636.5000000000001
 31
0.0
  0
LINE
  5
51C
330
1F
100
AcDbEntity
  8
LAY-10
  6
CONTINUOUS
 62
     7
100
AcDbLine
 10
1049.0
 20
636.5000000000001
 30
0.0
 11
1049.0
 21
616.5000000000001
 31
0.0
  0
LINE
  5
51D
330
1F
100
AcDbEntity
  8
LAY-10
  6
CONTINUOUS
 62
     7
100
AcDbLine
 10
1049.0
 20
616.5000000000001
 30
0.0
 11
1069.0
 21
616.5000000000001
 31
0.0
  0
LINE
  5
51E
330
1F
100
AcDbEntity
  8
LAY-10
  6
CONTINUOUS
 62
     7
100
AcDbLine
 10
1069.0
 20
616.5000000000001
 30
0.0
 11
1069.0
 21
636.5000000000001
 31
0.0
  0
LINE
  5
51F
330
1F
100
AcDbEntity
  8
LAY-10
  6
CONTINUOUS
 62
     7
100
AcDbLine
 10
1033.5
 20
636.5000000000001
 30
0.0
 11
1013.5
 21
636.5000000000001
 31
0.0
  0
LINE
  5
520
330
1F
100
AcDbEntity
  8
LAY-10
  6
CONTINUOUS
 62
     7
100
AcDbLine
 10
1013.5
 20
636.5000000000001
 30
0.0
 11
1013.5
 21
616.5000000000001
 31
0.0
  0
LINE
  5
521
330
1F
100
AcDbEntity
  8
LAY-10
  6
CONTINUOUS
 62
     7
100
AcDbLine
 10
1013.5
 20
616.5000000000001
 30
0.0
 11
1033.5
 21
616.5000000000001
 31
0.0
  0
LINE
  5
522
330
1F
100
AcDbEntity
  8
LAY-10
  6
CONTINUOUS
 62
     7
100
AcDbLine
 10
1033.5
 20
616.5000000000001
 30
0.0
 11
1033.5
 21
636.5000000000001
 31
0.0
  0
LINE
  5
523
330
1F
100
AcDbEntity
  8
LAY-10
  6
CONTINUOUS
 62
     7
100
AcDbLine
 10
997.9999999999999
 20
636.5000000000001
 30
0.0
 11
977.9999999999999
 21
636.5000000000001
 31
0.0
  0
LINE
  5
524
330
1F
100
AcDbEntity
  8
LAY-10
  6
CONTINUOUS
 62
     7
100
AcDbLine
 10
977.9999999999999
 20
636.5000000000001
 30
0.0
 11
977.9999999999999
 21
616.5000000000001
 31
0.0
  0
LINE
  5
525
330
1F
100
AcDbEntity
  8
LAY-10
  6
CONTINUOUS
 62
     7
100
AcDbLine
 10
977.9999999999999
 20
616.5000000000001
 30
0.0
 11
997.9999999999999
 21
616.5000000000001
 31
0.0
  0
LINE
  5
526
330
1F
100
AcDbEntity
  8
LAY-10
  6
CONTINUOUS
 62
     7
100
AcDbLine
 10
997.9999999999999
 20
616.5000000000001
 30
0.0
 11
997.9999999999999
 21
636.5000000000001
 31
0.0
  0
LINE
  5
527
330
1F
100
AcDbEntity
  8
LAY-10
  6
CONTINUOUS
 62
     7
100
AcDbLine
 10
962.5
 20
636.5000000000001
 30
0.0
 11
942.5
 21
636.5000000000001
 31
0.0
  0
LINE
  5
528
330
1F
100
AcDbEntity
  8
LAY-10
  6
CONTINUOUS
 62
     7
100
AcDbLine
 10
942.5
 20
636.5000000000001
 30
0.0
 11
942.5
 21
616.5000000000001
 31
0.0
  0
LINE
  5
529
330
1F
100
AcDbEntity
  8
LAY-10
  6
CONTINUOUS
 62
     7
100
AcDbLine
 10
942.5
 20
616.5000000000001
 30
0.0
 11
962.5
 21
616.5000000000001
 31
0.0
  0
LINE
  5
52A
330
1F
100
AcDbEntity
  8
LAY-10
  6
CONTINUOUS
 62
     7
100
AcDbLine
 10
962.5
 20
616.5000000000001
 30
0.0
 11
962.5
 21
636.5000000000001
 31
0.0
  0
LINE
  5
52B
330
1F
100
AcDbEntity
  8
LAY-10
  6
CONTINUOUS
 62
     7
100
AcDbLine
 10
926.9999999999999
 20
636.5000000000001
 30
0.0
 11
906.9999999999999
 21
636.5000000000001
 31
0.0
  0
LINE
  5
52C
330
1F
100
AcDbEntity
  8
LAY-10
  6
CONTINUOUS
 62
     7
100
AcDbLine
 10
906.9999999999999
 20
636.5000000000001
 30
0.0
 11
906.9999999999999
 21
616.5000000000001
 31
0.0
  0
LINE
  5
52D
330
1F
100
AcDbEntity
  8
LAY-10
  6
CONTINUOUS
 62
     7
100
AcDbLine
 10
906.9999999999999
 20
616.5000000000001
 30
0.0
 11
926.9999999999999
 21
616.5000000000001
 31
0.0
  0
LINE
  5
52E
330
1F
100
AcDbEntity
  8
LAY-10
  6
CONTINUOUS
 62
     7
100
AcDbLine
 10
926.9999999999999
 20
616.5000000000001
 30
0.0
 11
926.9999999999999
 21
636.5000000000001
 31
0.0
  0
LINE
  5
52F
330
1F
100
AcDbEntity
  8
LAY-10
  6
CONTINUOUS
 62
     7
100
AcDbLine
 10
891.4999999999999
 20
636.5000000000001
 30
0.0
 11
871.4999999999999
 21
636.5000000000001
 31
0.0
  0
LINE
  5
530
330
1F
100
AcDbEntity
  8
LAY-10
  6
CONTINUOUS
 62
     7
100
AcDbLine
 10
871.4999999999999
 20
636.5000000000001
 30
0.0
 11
871.4999999999999
 21
616.5000000000001
 31
0.0
  0
LINE
  5
531
330
1F
100
AcDbEntity
  8
LAY-10
  6
CONTINUOUS
 62
     7
100
AcDbLine
 10
871.4999999999999
 20
616.5000000000001
 30
0.0
 11
891.4999999999999
 21
616.5000000000001
 31
0.0
  0
LINE
  5
532
330
1F
100
AcDbEntity
  8
LAY-10
  6
CONTINUOUS
 62
     7
100
AcDbLine
 10
891.4999999999999
 20
616.5000000000001
 30
0.0
 11
891.4999999999999
 21
636.5000000000001
 31
0.0
  0
LINE
  5
533
330
1F
100
AcDbEntity
  8
LAY-10
  6
CONTINUOUS
 62
     7
100
AcDbLine
 10
855.9999999999999
 20
636.5000000000001
 30
0.0
 11
835.9999999999999
 21
636.5000000000001
 31
0.0
  0
LINE
  5
534
330
1F
100
AcDbEntity
  8
LAY-10
  6
CONTINUOUS
 62
     7
100
AcDbLine
 10
835.9999999999999
 20
636.5000000000001
 30
0.0
 11
835.9999999999999
 21
616.5000000000001
 31
0.0
  0
LINE
  5
535
330
1F
100
AcDbEntity
  8
LAY-10
  6
CONTINUOUS
 62
     7
100
AcDbLine
 10
835.9999999999999
 20
616.5000000000001
 30
0.0
 11
855.9999999999999
 21
616.5000000000001
 31
0.0
  0
LINE
  5
536
330
1F
100
AcDbEntity
  8
LAY-10
  6
CONTINUOUS
 62
     7
100
AcDbLine
 10
855.9999999999999
 20
616.5000000000001
 30
0.0
 11
855.9999999999999
 21
636.5000000000001
 31
0.0
  0
LINE
  5
537
330
1F
100
AcDbEntity
  8
LAY-10
  6
CONTINUOUS
 62
     7
100
AcDbLine
 10
820.4999999999999
 20
636.5000000000001
 30
0.0
 11
800.4999999999999
 21
636.5000000000001
 31
0.0
  0
LINE
  5
538
330
1F
100
AcDbEntity
  8
LAY-10
  6
CONTINUOUS
 62
     7
100
AcDbLine
 10
800.4999999999999
 20
636.5000000000001
 30
0.0
 11
800.4999999999999
 21
616.5000000000001
 31
0.0
  0
LINE
  5
539
330
1F
100
AcDbEntity
  8
LAY-10
  6
CONTINUOUS
 62
     7
100
AcDbLine
 10
800.4999999999999
 20
616.5000000000001
 30
0.0
 11
820.4999999999999
 21
616.5000000000001
 31
0.0
  0
LINE
  5
53A
330
1F
100
AcDbEntity
  8
LAY-10
  6
CONTINUOUS
 62
     7
100
AcDbLine
 10
820.4999999999999
 20
616.5000000000001
 30
0.0
 11
820.4999999999999
 21
636.5000000000001
 31
0.0
  0
LINE
  5
53B
330
1F
100
AcDbEntity
  8
LAY-10
  6
CONTINUOUS
 62
     7
100
AcDbLine
 10
480.9999999999999
 20
601.0
 30
0.0
 11
500.9999999999999
 21
601.0
 31
0.0
  0
LINE
  5
53C
330
1F
100
AcDbEntity
  8
LAY-10
  6
CONTINUOUS
 62
     7
100
AcDbLine
 10
500.9999999999999
 20
601.0
 30
0.0
 11
500.9999999999999
 21
581.0
 31
0.0
  0
LINE
  5
53D
330
1F
100
AcDbEntity
  8
LAY-10
  6
CONTINUOUS
 62
     7
100
AcDbLine
 10
500.9999999999999
 20
581.0
 30
0.0
 11
480.9999999999999
 21
581.0
 31
0.0
  0
LINE
  5
53E
330
1F
100
AcDbEntity
  8
LAY-10
  6
CONTINUOUS
 62
     7
100
AcDbLine
 10
480.9999999999999
 20
581.0
 30
0.0
 11
480.9999999999999
 21
601.0
 31
0.0
  0
LINE
  5
53F
330
1F
100
AcDbEntity
  8
LAY-10
  6
CONTINUOUS
 62
     7
100
AcDbLine
 10
516.4999999999999
 20
601.0
 30
0.0
 11
536.4999999999999
 21
601.0
 31
0.0
  0
LINE
  5
540
330
1F
100
AcDbEntity
  8
LAY-10
  6
CONTINUOUS
 62
     7
100
AcDbLine
 10
536.4999999999999
 20
601.0
 30
0.0
 11
536.4999999999999
 21
581.0
 31
0.0
  0
LINE
  5
541
330
1F
100
AcDbEntity
  8
LAY-10
  6
CONTINUOUS
 62
     7
100
AcDbLine
 10
536.4999999999999
 20
581.0
 30
0.0
 11
516.4999999999999
 21
581.0
 31
0.0
  0
LINE
  5
542
330
1F
100
AcDbEntity
  8
LAY-10
  6
CONTINUOUS
 62
     7
100
AcDbLine
 10
516.4999999999999
 20
581.0
 30
0.0
 11
516.4999999999999
 21
601.0
 31
0.0
  0
LINE
  5
543
330
1F
100
AcDbEntity
  8
LAY-10
  6
CONTINUOUS
 62
     7
100
AcDbLine
 10
551.9999999999999
 20
601.0
 30
0.0
 11
571.9999999999999
 21
601.0
 31
0.0
  0
LINE
  5
544
330
1F
100
AcDbEntity
  8
LAY-10
  6
CONTINUOUS
 62
     7
100
AcDbLine
 10
571.9999999999999
 20
601.0
 30
0.0
 11
571.9999999999999
 21
581.0
 31
0.0
  0
LINE
  5
545
330
1F
100
AcDbEntity
  8
LAY-10
  6
CONTINUOUS
 62
     7
100
AcDbLine
 10
571.9999999999999
 20
581.0
 30
0.0
 11
551.9999999999999
 21
581.0
 31
0.0
  0
LINE
  5
546
330
1F
100
AcDbEntity
  8
LAY-10
  6
CONTINUOUS
 62
     7
100
AcDbLine
 10
551.9999999999999
 20
581.0
 30
0.0
 11
551.9999999999999
 21
601.0
 31
0.0
  0
LINE
  5
547
330
1F
100
AcDbEntity
  8
LAY-10
  6
CONTINUOUS
 62
     7
100
AcDbLine
 10
587.4999999999998
 20
601.0
 30
0.0
 11
607.4999999999998
 21
601.0
 31
0.0
  0
LINE
  5
548
330
1F
100
AcDbEntity
  8
LAY-10
  6
CONTINUOUS
 62
     7
100
AcDbLine
 10
607.4999999999998
 20
601.0
 30
0.0
 11
607.4999999999998
 21
581.0
 31
0.0
  0
LINE
  5
549
330
1F
100
AcDbEntity
  8
LAY-10
  6
CONTINUOUS
 62
     7
100
AcDbLine
 10
607.4999999999998
 20
581.0
 30
0.0
 11
587.4999999999998
 21
581.0
 31
0.0
  0
LINE
  5
54A
330
1F
100
AcDbEntity
  8
LAY-10
  6
CONTINUOUS
 62
     7
100
AcDbLine
 10
587.4999999999998
 20
581.0
 30
0.0
 11
587.4999999999998
 21
601.0
 31
0.0
  0
LINE
  5
54B
330
1F
100
AcDbEntity
  8
LAY-10
  6
CONTINUOUS
 62
     7
100
AcDbLine
 10
622.9999999999999
 20
601.0
 30
0.0
 11
642.9999999999999
 21
601.0
 31
0.0
  0
LINE
  5
54C
330
1F
100
AcDbEntity
  8
LAY-10
  6
CONTINUOUS
 62
     7
100
AcDbLine
 10
642.9999999999999
 20
601.0
 30
0.0
 11
642.9999999999999
 21
581.0
 31
0.0
  0
LINE
  5
54D
330
1F
100
AcDbEntity
  8
LAY-10
  6
CONTINUOUS
 62
     7
100
AcDbLine
 10
642.9999999999999
 20
581.0
 30
0.0
 11
622.9999999999999
 21
581.0
 31
0.0
  0
LINE
  5
54E
330
1F
100
AcDbEntity
  8
LAY-10
  6
CONTINUOUS
 62
     7
100
AcDbLine
 10
622.9999999999999
 20
581.0
 30
0.0
 11
622.9999999999999
 21
601.0
 31
0.0
  0
LINE
  5
54F
330
1F
100
AcDbEntity
  8
LAY-10
  6
CONTINUOUS
 62
     7
100
AcDbLine
 10
658.4999999999999
 20
601.0
 30
0.0
 11
678.4999999999999
 21
601.0
 31
0.0
  0
LINE
  5
550
330
1F
100
AcDbEntity
  8
LAY-10
  6
CONTINUOUS
 62
     7
100
AcDbLine
 10
678.4999999999999
 20
601.0
 30
0.0
 11
678.4999999999999
 21
581.0
 31
0.0
  0
LINE
  5
551
330
1F
100
AcDbEntity
  8
LAY-10
  6
CONTINUOUS
 62
     7
100
AcDbLine
 10
678.4999999999999
 20
581.0
 30
0.0
 11
658.4999999999999
 21
581.0
 31
0.0
  0
LINE
  5
552
330
1F
100
AcDbEntity
  8
LAY-10
  6
CONTINUOUS
 62
     7
100
AcDbLine
 10
658.4999999999999
 20
581.0
 30
0.0
 11
658.4999999999999
 21
601.0
 31
0.0
  0
LINE
  5
553
330
1F
100
AcDbEntity
  8
LAY-10
  6
CONTINUOUS
 62
     7
100
AcDbLine
 10
693.9999999999999
 20
601.0
 30
0.0
 11
713.9999999999999
 21
601.0
 31
0.0
  0
LINE
  5
554
330
1F
100
AcDbEntity
  8
LAY-10
  6
CONTINUOUS
 62
     7
100
AcDbLine
 10
713.9999999999999
 20
601.0
 30
0.0
 11
713.9999999999999
 21
581.0
 31
0.0
  0
LINE
  5
555
330
1F
100
AcDbEntity
  8
LAY-10
  6
CONTINUOUS
 62
     7
100
AcDbLine
 10
713.9999999999999
 20
581.0
 30
0.0
 11
693.9999999999999
 21
581.0
 31
0.0
  0
LINE
  5
556
330
1F
100
AcDbEntity
  8
LAY-10
  6
CONTINUOUS
 62
     7
100
AcDbLine
 10
693.9999999999999
 20
581.0
 30
0.0
 11
693.9999999999999
 21
601.0
 31
0.0
  0
LINE
  5
557
330
1F
100
AcDbEntity
  8
LAY-10
  6
CONTINUOUS
 62
     7
100
AcDbLine
 10
729.4999999999999
 20
601.0
 30
0.0
 11
749.4999999999999
 21
601.0
 31
0.0
  0
LINE
  5
558
330
1F
100
AcDbEntity
  8
LAY-10
  6
CONTINUOUS
 62
     7
100
AcDbLine
 10
765.0
 20
601.0
 30
0.0
 11
785.0
 21
601.0
 31
0.0
  0
LINE
  5
559
330
1F
100
AcDbEntity
  8
LAY-10
  6
CONTINUOUS
 62
     7
100
AcDbLine
 10
1069.0
 20
601.0
 30
0.0
 11
1049.0
 21
601.0
 31
0.0
  0
LINE
  5
55A
330
1F
100
AcDbEntity
  8
LAY-10
  6
CONTINUOUS
 62
     7
100
AcDbLine
 10
1049.0
 20
601.0
 30
0.0
 11
1049.0
 21
581.0
 31
0.0
  0
LINE
  5
55B
330
1F
100
AcDbEntity
  8
LAY-10
  6
CONTINUOUS
 62
     7
100
AcDbLine
 10
1049.0
 20
581.0
 30
0.0
 11
1069.0
 21
581.0
 31
0.0
  0
LINE
  5
55C
330
1F
100
AcDbEntity
  8
LAY-10
  6
CONTINUOUS
 62
     7
100
AcDbLine
 10
1069.0
 20
581.0
 30
0.0
 11
1069.0
 21
601.0
 31
0.0
  0
LINE
  5
55D
330
1F
100
AcDbEntity
  8
LAY-10
  6
CONTINUOUS
 62
     7
100
AcDbLine
 10
1033.5
 20
601.0
 30
0.0
 11
1013.5
 21
601.0
 31
0.0
  0
LINE
  5
55E
330
1F
100
AcDbEntity
  8
LAY-10
  6
CONTINUOUS
 62
     7
100
AcDbLine
 10
1013.5
 20
601.0
 30
0.0
 11
1013.5
 21
581.0
 31
0.0
  0
LINE
  5
55F
330
1F
100
AcDbEntity
  8
LAY-10
  6
CONTINUOUS
 62
     7
100
AcDbLine
 10
1013.5
 20
581.0
 30
0.0
 11
1033.5
 21
581.0
 31
0.0
  0
LINE
  5
560
330
1F
100
AcDbEntity
  8
LAY-10
  6
CONTINUOUS
 62
     7
100
AcDbLine
 10
1033.5
 20
581.0
 30
0.0
 11
1033.5
 21
601.0
 31
0.0
  0
LINE
  5
561
330
1F
100
AcDbEntity
  8
LAY-10
  6
CONTINUOUS
 62
     7
100
AcDbLine
 10
997.9999999999999
 20
601.0
 30
0.0
 11
977.9999999999999
 21
601.0
 31
0.0
  0
LINE
  5
562
330
1F
100
AcDbEntity
  8
LAY-10
  6
CONTINUOUS
 62
     7
100
AcDbLine
 10
977.9999999999999
 20
601.0
 30
0.0
 11
977.9999999999999
 21
581.0
 31
0.0
  0
LINE
  5
563
330
1F
100
AcDbEntity
  8
LAY-10
  6
CONTINUOUS
 62
     7
100
AcDbLine
 10
977.9999999999999
 20
581.0
 30
0.0
 11
997.9999999999999
 21
581.0
 31
0.0
  0
LINE
  5
564
330
1F
100
AcDbEntity
  8
LAY-10
  6
CONTINUOUS
 62
     7
100
AcDbLine
 10
997.9999999999999
 20
581.0
 30
0.0
 11
997.9999999999999
 21
601.0
 31
0.0
  0
LINE
  5
565
330
1F
100
AcDbEntity
  8
LAY-10
  6
CONTINUOUS
 62
     7
100
AcDbLine
 10
962.5
 20
601.0
 30
0.0
 11
942.5
 21
601.0
 31
0.0
  0
LINE
  5
566
330
1F
100
AcDbEntity
  8
LAY-10
  6
CONTINUOUS
 62
     7
100
AcDbLine
 10
942.5
 20
601.0
 30
0.0
 11
942.5
 21
581.0
 31
0.0
  0
LINE
  5
567
330
1F
100
AcDbEntity
  8
LAY-10
  6
CONTINUOUS
 62
     7
100
AcDbLine
 10
942.5
 20
581.0
 30
0.0
 11
962.5
 21
581.0
 31
0.0
  0
LINE
  5
568
330
1F
100
AcDbEntity
  8
LAY-10
  6
CONTINUOUS
 62
     7
100
AcDbLine
 10
962.5
 20
581.0
 30
0.0
 11
962.5
 21
601.0
 31
0.0
  0
LINE
  5
569
330
1F
100
AcDbEntity
  8
LAY-10
  6
CONTINUOUS
 62
     7
100
AcDbLine
 10
926.9999999999999
 20
601.0
 30
0.0
 11
906.9999999999999
 21
601.0
 31
0.0
  0
LINE
  5
56A
330
1F
100
AcDbEntity
  8
LAY-10
  6
CONTINUOUS
 62
     7
100
AcDbLine
 10
906.9999999999999
 20
601.0
 30
0.0
 11
906.9999999999999
 21
581.0
 31
0.0
  0
LINE
  5
56B
330
1F
100
AcDbEntity
  8
LAY-10
  6
CONTINUOUS
 62
     7
100
AcDbLine
 10
906.9999999999999
 20
581.0
 30
0.0
 11
926.9999999999999
 21
581.0
 31
0.0
  0
LINE
  5
56C
330
1F
100
AcDbEntity
  8
LAY-10
  6
CONTINUOUS
 62
     7
100
AcDbLine
 10
926.9999999999999
 20
581.0
 30
0.0
 11
926.9999999999999
 21
601.0
 31
0.0
  0
LINE
  5
56D
330
1F
100
AcDbEntity
  8
LAY-10
  6
CONTINUOUS
 62
     7
100
AcDbLine
 10
891.4999999999999
 20
601.0
 30
0.0
 11
871.4999999999999
 21
601.0
 31
0.0
  0
LINE
  5
56E
330
1F
100
AcDbEntity
  8
LAY-10
  6
CONTINUOUS
 62
     7
100
AcDbLine
 10
871.4999999999999
 20
601.0
 30
0.0
 11
871.4999999999999
 21
581.0
 31
0.0
  0
LINE
  5
56F
330
1F
100
AcDbEntity
  8
LAY-10
  6
CONTINUOUS
 62
     7
100
AcDbLine
 10
871.4999999999999
 20
581.0
 30
0.0
 11
891.4999999999999
 21
581.0
 31
0.0
  0
LINE
  5
570
330
1F
100
AcDbEntity
  8
LAY-10
  6
CONTINUOUS
 62
     7
100
AcDbLine
 10
891.4999999999999
 20
581.0
 30
0.0
 11
891.4999999999999
 21
601.0
 31
0.0
  0
LINE
  5
571
330
1F
100
AcDbEntity
  8
LAY-10
  6
CONTINUOUS
 62
     7
100
AcDbLine
 10
855.9999999999999
 20
601.0
 30
0.0
 11
835.9999999999999
 21
601.0
 31
0.0
  0
LINE
  5
572
330
1F
100
AcDbEntity
  8
LAY-10
  6
CONTINUOUS
 62
     7
100
AcDbLine
 10
835.9999999999999
 20
601.0
 30
0.0
 11
835.9999999999999
 21
581.0
 31
0.0
  0
LINE
  5
573
330
1F
100
AcDbEntity
  8
LAY-10
  6
CONTINUOUS
 62
     7
100
AcDbLine
 10
835.9999999999999
 20
581.0
 30
0.0
 11
855.9999999999999
 21
581.0
 31
0.0
  0
LINE
  5
574
330
1F
100
AcDbEntity
  8
LAY-10
  6
CONTINUOUS
 62
     7
100
AcDbLine
 10
855.9999999999999
 20
581.0
 30
0.0
 11
855.9999999999999
 21
601.0
 31
0.0
  0
LINE
  5
575
330
1F
100
AcDbEntity
  8
LAY-10
  6
CONTINUOUS
 62
     7
100
AcDbLine
 10
820.4999999999999
 20
601.0
 30
0.0
 11
800.4999999999999
 21
601.0
 31
0.0
  0
LINE
  5
576
330
1F
100
AcDbEntity
  8
LAY-10
  6
CONTINUOUS
 62
     7
100
AcDbLine
 10
749.4999999999999
 20
601.0
 30
0.0
 11
749.4999999999999
 21
585.0000000000001
 31
0.0
  0
LINE
  5
577
330
1F
100
AcDbEntity
  8
LAY-10
  6
CONTINUOUS
 62
     7
100
AcDbLine
 10
749.4999999999999
 20
585.0000000000001
 30
0.0
 11
729.4999999999999
 21
585.0000000000001
 31
0.0
  0
LINE
  5
578
330
1F
100
AcDbEntity
  8
LAY-10
  6
CONTINUOUS
 62
     7
100
AcDbLine
 10
729.4999999999999
 20
585.0000000000001
 30
0.0
 11
729.4999999999999
 21
601.0
 31
0.0
  0
LINE
  5
579
330
1F
100
AcDbEntity
  8
LAY-10
  6
CONTINUOUS
 62
     7
100
AcDbLine
 10
785.0
 20
601.0
 30
0.0
 11
785.0
 21
585.0000000000001
 31
0.0
  0
LINE
  5
57A
330
1F
100
AcDbEntity
  8
LAY-10
  6
CONTINUOUS
 62
     7
100
AcDbLine
 10
785.0
 20
585.0000000000001
 30
0.0
 11
765.0
 21
585.0000000000001
 31
0.0
  0
LINE
  5
57B
330
1F
100
AcDbEntity
  8
LAY-10
  6
CONTINUOUS
 62
     7
100
AcDbLine
 10
765.0
 20
585.0000000000001
 30
0.0
 11
765.0
 21
601.0
 31
0.0
  0
LINE
  5
57C
330
1F
100
AcDbEntity
  8
LAY-10
  6
CONTINUOUS
 62
     7
100
AcDbLine
 10
800.4999999999999
 20
601.0
 30
0.0
 11
800.4999999999999
 21
585.0000000000001
 31
0.0
  0
LINE
  5
57D
330
1F
100
AcDbEntity
  8
LAY-10
  6
CONTINUOUS
 62
     7
100
AcDbLine
 10
800.4999999999999
 20
585.0000000000001
 30
0.0
 11
820.4999999999999
 21
585.0000000000001
 31
0.0
  0
LINE
  5
57E
330
1F
100
AcDbEntity
  8
LAY-10
  6
CONTINUOUS
 62
     7
100
AcDbLine
 10
820.4999999999999
 20
585.0000000000001
 30
0.0
 11
820.4999999999999
 21
601.0
 31
0.0
  0
LINE
  5
57F
330
1F
100
AcDbEntity
  8
LAY-10
  6
CONTINUOUS
 62
     7
100
AcDbLine
 10
729.4999999999999
 20
1165.0
 30
0.0
 11
749.4999999999999
 21
1165.0
 31
0.0
  0
LINE
  5
580
330
1F
100
AcDbEntity
  8
LAY-10
  6
CONTINUOUS
 62
     7
100
AcDbLine
 10
749.4999999999999
 20
1165.0
 30
0.0
 11
749.4999999999999
 21
1149.0
 31
0.0
  0
LINE
  5
581
330
1F
100
AcDbEntity
  8
LAY-10
  6
CONTINUOUS
 62
     7
100
AcDbLine
 10
729.4999999999999
 20
1149.0
 30
0.0
 11
729.4999999999999
 21
1165.0
 31
0.0
  0
LINE
  5
582
330
1F
100
AcDbEntity
  8
LAY-10
  6
CONTINUOUS
 62
     7
100
AcDbLine
 10
765.0
 20
1165.0
 30
0.0
 11
785.0
 21
1165.0
 31
0.0
  0
LINE
  5
583
330
1F
100
AcDbEntity
  8
LAY-10
  6
CONTINUOUS
 62
     7
100
AcDbLine
 10
785.0
 20
1165.0
 30
0.0
 11
785.0
 21
1149.0
 31
0.0
  0
LINE
  5
584
330
1F
100
AcDbEntity
  8
LAY-10
  6
CONTINUOUS
 62
     7
100
AcDbLine
 10
765.0
 20
1149.0
 30
0.0
 11
765.0
 21
1165.0
 31
0.0
  0
LINE
  5
585
330
1F
100
AcDbEntity
  8
LAY-10
  6
CONTINUOUS
 62
     7
100
AcDbLine
 10
820.4999999999999
 20
1165.0
 30
0.0
 11
800.4999999999999
 21
1165.0
 31
0.0
  0
LINE
  5
586
330
1F
100
AcDbEntity
  8
LAY-10
  6
CONTINUOUS
 62
     7
100
AcDbLine
 10
800.4999999999999
 20
1165.0
 30
0.0
 11
800.4999999999999
 21
1149.0
 31
0.0
  0
LINE
  5
587
330
1F
100
AcDbEntity
  8
LAY-10
  6
CONTINUOUS
 62
     7
100
AcDbLine
 10
820.4999999999999
 20
1149.0
 30
0.0
 11
820.4999999999999
 21
1165.0
 31
0.0
  0
LINE
  5
588
330
1F
100
AcDbEntity
  8
LAY-10
  6
CONTINUOUS
 62
     7
100
AcDbLine
 10
729.9999999999998
 20
565.0000000000002
 30
0.0
 11
820.0
 21
565.0000000000002
 31
0.0
  0
LINE
  5
589
330
1F
100
AcDbEntity
  8
LAY-10
  6
CONTINUOUS
 62
     7
100
AcDbLine
 10
729.9999999999998
 20
580.0000000000002
 30
0.0
 11
820.0
 21
580.0000000000002
 31
0.0
  0
LINE
  5
58A
330
1F
100
AcDbEntity
  8
LAY-10
  6
CONTINUOUS
 62
     7
100
AcDbLine
 10
729.9999999999998
 20
565.0000000000002
 30
0.0
 11
729.9999999999998
 21
580.0000000000002
 31
0.0
  0
LINE
  5
58B
330
1F
100
AcDbEntity
  8
LAY-10
  6
CONTINUOUS
 62
     7
100
AcDbLine
 10
820.0
 20
565.0000000000002
 30
0.0
 11
820.0
 21
580.0000000000002
 31
0.0
  0
LINE
  5
58C
330
1F
100
AcDbEntity
  8
LAY-10
  6
CONTINUOUS
 62
     7
100
AcDbLine
 10
819.46410161514
 20
565.5358983848603
 30
0.0
 11
730.5358983848598
 21
565.5358983848603
 31
0.0
  0
LINE
  5
58D
330
1F
100
AcDbEntity
  8
LAY-10
  6
CONTINUOUS
 62
     7
100
AcDbLine
 10
819.46410161514
 20
565.5358983848603
 30
0.0
 11
819.46410161514
 21
579.4641016151402
 31
0.0
  0
LINE
  5
58E
330
1F
100
AcDbEntity
  8
LAY-10
  6
CONTINUOUS
 62
     7
100
AcDbLine
 10
819.46410161514
 20
565.5358983848603
 30
0.0
 11
820.0
 21
565.0000000000002
 31
0.0
  0
LINE
  5
58F
330
1F
100
AcDbEntity
  8
LAY-10
  6
CONTINUOUS
 62
     7
100
AcDbLine
 10
819.46410161514
 20
579.4641016151402
 30
0.0
 11
820.0
 21
580.0000000000002
 31
0.0
  0
LINE
  5
590
330
1F
100
AcDbEntity
  8
LAY-10
  6
CONTINUOUS
 62
     7
100
AcDbLine
 10
730.5358983848598
 20
579.4641016151402
 30
0.0
 11
819.46410161514
 21
579.4641016151402
 31
0.0
  0
TEXT
  5
591
330
1F
100
AcDbEntity
  8
LAY-10
  6
CONTINUOUS
 62
     7
100
AcDbText
 10
756.5199999999999
 20
569.0047247
 30
0.0
 40
7.0157484
  1
ＦＵＫＵＮＩＳＨＩ
 41
0.8426941709642132
  7
EXCADSTD
100
AcDbText
  0
LINE
  5
592
330
1F
100
AcDbEntity
  8
LAY-10
  6
CONTINUOUS
 62
     7
100
AcDbLine
 10
751.9602540378415
 20
572.4999999999957
 30
0.0
 11
743.2999999999973
 21
577.4999999999957
 31
0.0
  0
TEXT
  5
593
330
1F
100
AcDbEntity
  8
LAY-10
  6
CONTINUOUS
 62
     7
100
AcDbText
 10
738.5999999999997
 20
570.0031498000003
 30
0.0
 40
4.6771656
  1
ＳＦ
 41
0.9583333333333331
  7
EXCADSTD
100
AcDbText
  0
LINE
  5
594
330
1F
100
AcDbEntity
  8
LAY-10
  6
CONTINUOUS
 62
     7
100
AcDbLine
 10
734.639745962158
 20
572.4999999999957
 30
0.0
 11
743.3000000000025
 21
577.4999999999957
 31
0.0
  0
LINE
  5
595
330
1F
100
AcDbEntity
  8
LAY-10
  6
CONTINUOUS
 62
     7
100
AcDbLine
 10
734.639745962158
 20
572.5000000000048
 30
0.0
 11
743.3000000000025
 21
567.5000000000048
 31
0.0
  0
LINE
  5
596
330
1F
100
AcDbEntity
  8
LAY-10
  6
CONTINUOUS
 62
     7
100
AcDbLine
 10
751.9602540378415
 20
572.5000000000048
 30
0.0
 11
743.2999999999973
 21
567.5000000000048
 31
0.0
  0
LINE
  5
597
330
1F
100
AcDbEntity
  8
LAY-10
  6
CONTINUOUS
 62
     7
100
AcDbLine
 10
730.5358983848598
 20
565.5358983848603
 30
0.0
 11
730.5358983848598
 21
579.4641016151402
 31
0.0
  0
LINE
  5
598
330
1F
100
AcDbEntity
  8
LAY-10
  6
CONTINUOUS
 62
     7
100
AcDbLine
 10
730.5358983848598
 20
579.4641016151402
 30
0.0
 11
729.9999999999998
 21
580.0000000000002
 31
0.0
  0
LINE
  5
599
330
1F
100
AcDbEntity
  8
LAY-10
  6
CONTINUOUS
 62
     7
100
AcDbLine
 10
730.5358983848598
 20
565.5358983848603
 30
0.0
 11
729.9999999999998
 21
565.0000000000002
 31
0.0
  0
LINE
  5
59A
330
1F
100
AcDbEntity
  8
LAY-10
  6
CONTINUOUS
 62
     7
100
AcDbLine
 10
741.9999999999997
 20
1170.0
 30
0.0
 11
741.9999999999997
 21
1185.0
 31
0.0
  0
LINE
  5
59B
330
1F
100
AcDbEntity
  8
LAY-10
  6
CONTINUOUS
 62
     7
100
AcDbLine
 10
808.0000000000001
 20
1170.0
 30
0.0
 11
808.0000000000001
 21
1185.0
 31
0.0
  0
LINE
  5
59C
330
1F
100
AcDbEntity
  8
LAY-10
  6
CONTINUOUS
 62
     7
100
AcDbLine
 10
741.9999999999997
 20
1185.0
 30
0.0
 11
808.0000000000001
 21
1185.0
 31
0.0
  0
LINE
  5
59D
330
1F
100
AcDbEntity
  8
LAY-10
  6
CONTINUOUS
 62
     7
100
AcDbLine
 10
741.9999999999997
 20
1170.0
 30
0.0
 11
808.0000000000001
 21
1170.0
 31
0.0
  0
LINE
  5
59E
330
1F
100
AcDbEntity
  8
LAY-10
  6
CONTINUOUS
 62
     7
100
AcDbLine
 10
742.5358983848597
 20
1170.53589838486
 30
0.0
 11
742.5358983848597
 21
1184.46410161514
 31
0.0
  0
LINE
  5
59F
330
1F
100
AcDbEntity
  8
LAY-10
  6
CONTINUOUS
 62
     7
100
AcDbLine
 10
742.5358983848597
 20
1184.46410161514
 30
0.0
 11
807.4641016151401
 21
1184.46410161514
 31
0.0
  0
LINE
  5
5A0
330
1F
100
AcDbEntity
  8
LAY-10
  6
CONTINUOUS
 62
     7
100
AcDbLine
 10
807.4641016151401
 20
1170.53589838486
 30
0.0
 11
742.5358983848597
 21
1170.53589838486
 31
0.0
  0
LINE
  5
5A1
330
1F
100
AcDbEntity
  8
LAY-10
  6
CONTINUOUS
 62
     7
100
AcDbLine
 10
807.4641016151401
 20
1184.46410161514
 30
0.0
 11
807.4641016151401
 21
1170.53589838486
 31
0.0
  0
LINE
  5
5A2
330
1F
100
AcDbEntity
  8
LAY-10
  6
CONTINUOUS
 62
     7
100
AcDbLine
 10
807.4641016151401
 20
1184.46410161514
 30
0.0
 11
808.0000000000001
 21
1185.0
 31
0.0
  0
LINE
  5
5A3
330
1F
100
AcDbEntity
  8
LAY-10
  6
CONTINUOUS
 62
     7
100
AcDbLine
 10
807.4641016151401
 20
1170.53589838486
 30
0.0
 11
808.0000000000001
 21
1170.0
 31
0.0
  0
LINE
  5
5A4
330
1F
100
AcDbEntity
  8
LAY-10
  6
CONTINUOUS
 62
     7
100
AcDbLine
 10
742.5358983848597
 20
1170.53589838486
 30
0.0
 11
741.9999999999997
 21
1170.0
 31
0.0
  0
LINE
  5
5A5
330
1F
100
AcDbEntity
  8
LAY-10
  6
CONTINUOUS
 62
     7
100
AcDbLine
 10
742.5358983848597
 20
1184.46410161514
 30
0.0
 11
741.9999999999997
 21
1185.0
 31
0.0
  0
TEXT
  5
5A6
330
1F
100
AcDbEntity
  8
LAY-10
  6
CONTINUOUS
 62
     7
100
AcDbText
 10
745.1199999999998
 20
1174.0047247
 30
0.0
 40
7.0157484
  1
６００－５００Ｋ
 41
0.9566666666666668
  7
EXCADSTD
100
AcDbText
  0
LINE
  5
5A7
330
1F
100
AcDbEntity
  8
LAY-10
  6
CONTINUOUS
 62
     7
100
AcDbLine
 10
435.5401822600587
 20
316.1743114854953
 30
0.0
 11
435.0
 21
310.0000000000001
 31
0.0
  0
ARC
  5
5A8
330
1F
100
AcDbEntity
  8
LAY-10
  6
CONTINUOUS
 62
     7
100
AcDbCircle
 10
437.5325716562422
 20
316.0000000000001
 30
0.0
 40
2.0
100
AcDbArc
 50
90.0
 51
175.0000000000035
  0
LINE
  5
5A9
330
1F
100
AcDbEntity
  8
LAY-10
  6
CONTINUOUS
 62
     7
100
AcDbLine
 10
447.4399533393841
 20
320.738532771757
 30
0.0
 11
449.9999999999907
 21
350.0000000000009
 31
0.0
  0
LINE
  5
5AA
330
1F
100
AcDbEntity
  8
LAY-10
  6
CONTINUOUS
 62
     7
100
AcDbLine
 10
444.4513692451089
 20
317.9999999999999
 30
0.0
 11
437.5325716562422
 21
317.9999999999999
 31
0.0
  0
ARC
  5
5AB
330
1F
100
AcDbEntity
  8
LAY-10
  6
CONTINUOUS
 62
     7
100
AcDbCircle
 10
444.4513692451089
 20
321.0000000000001
 30
0.0
 40
3.000000000000003
100
AcDbArc
 50
270.0
 51
354.9999999999981
  0
LINE
  5
5AC
330
1F
100
AcDbEntity
  8
LAY-10
  6
CONTINUOUS
 62
     7
100
AcDbLine
 10
460.2350239876571
 20
318.7385327717571
 30
0.0
 11
457.4999999999989
 21
349.9999999999998
 31
0.0
  0
ARC
  5
5AD
330
1F
100
AcDbEntity
  8
LAY-10
  6
CONTINUOUS
 62
     7
100
AcDbCircle
 10
463.2236080819324
 20
319.0000000000001
 30
0.0
 40
3.000000000000003
100
AcDbArc
 50
184.9999999999999
 51
270.0
  0
LINE
  5
5AE
330
1F
100
AcDbEntity
  8
LAY-10
  6
CONTINUOUS
 62
     7
100
AcDbLine
 10
474.6347950669813
 20
314.1743114854954
 30
0.0
 11
474.9999999999882
 21
309.9999999999991
 31
0.0
  0
ARC
  5
5AF
330
1F
100
AcDbEntity
  8
LAY-10
  6
CONTINUOUS
 62
     7
100
AcDbCircle
 10
472.6424056707978
 20
314.0000000000001
 30
0.0
 40
2.0
100
AcDbArc
 50
4.999999999999743
 51
90.0
  0
ARC
  5
5B0
330
1F
100
AcDbEntity
  8
LAY-10
  6
CONTINUOUS
 62
     7
100
AcDbCircle
 10
479.4987667925744
 20
333.0000000000002
 30
0.0
 40
3.000000000000003
100
AcDbArc
 50
90.0
 51
175.0000000000035
  0
LINE
  5
5B1
330
1F
100
AcDbEntity
  8
LAY-10
  6
CONTINUOUS
 62
     7
100
AcDbLine
 10
459.9999999999998
 20
350.0000000000001
 30
0.0
 11
464.7486747030865
 21
317.7090120190105
 31
0.0
  0
ARC
  5
5B2
330
1F
100
AcDbEntity
  8
LAY-10
  6
CONTINUOUS
 62
     7
100
AcDbCircle
 10
466.7273929738162
 20
317.9999999999999
 30
0.0
 40
2.0
100
AcDbArc
 50
188.3658861240276
 51
270.0
  0
LINE
  5
5B3
330
1F
100
AcDbEntity
  8
LAY-10
  6
CONTINUOUS
 62
     7
100
AcDbLine
 10
503.1771614862479
 20
337.6527036446661
 30
0.0
 11
500.9999999999994
 21
350.0000000000001
 31
0.0
  0
ARC
  5
5B4
330
1F
100
AcDbEntity
  8
LAY-10
  6
CONTINUOUS
 62
     7
100
AcDbCircle
 10
505.1467769922724
 20
338.0000000000002
 30
0.0
 40
2.0
100
AcDbArc
 50
190.0000000000069
 51
270.0
  0
LINE
  5
5B5
330
1F
100
AcDbEntity
  8
LAY-10
  6
CONTINUOUS
 62
     7
100
AcDbLine
 10
514.3228385137493
 20
337.6527036446664
 30
0.0
 11
516.4999999999978
 21
350.0000000000004
 31
0.0
  0
ARC
  5
5B6
330
1F
100
AcDbEntity
  8
LAY-10
  6
CONTINUOUS
 62
     7
100
AcDbCircle
 10
512.3532230077249
 20
338.0000000000002
 30
0.0
 40
2.0
100
AcDbArc
 50
270.0
 51
350.0000000000014
  0
LINE
  5
5B7
330
1F
100
AcDbEntity
  8
LAY-10
  6
CONTINUOUS
 62
     7
100
AcDbLine
 10
478.6720707987525
 20
336.7976574436643
 30
0.0
 11
480.9999999999906
 21
350.0000000000018
 31
0.0
  0
ARC
  5
5B8
330
1F
100
AcDbEntity
  8
LAY-10
  6
CONTINUOUS
 62
     7
100
AcDbCircle
 10
476.7024552927282
 20
337.1449537989981
 30
0.0
 40
2.0
100
AcDbArc
 50
304.004796210529
 51
350.0000000000014
  0
LINE
  5
5B9
330
1F
100
AcDbEntity
  8
LAY-10
  6
CONTINUOUS
 62
     7
100
AcDbLine
 10
538.677161486258
 20
337.6527036446661
 30
0.0
 11
536.5000000000094
 21
350.0000000000001
 31
0.0
  0
ARC
  5
5BA
330
1F
100
AcDbEntity
  8
LAY-10
  6
CONTINUOUS
 62
     7
100
AcDbCircle
 10
540.6467769922824
 20
338.0000000000002
 30
0.0
 40
2.0
100
AcDbArc
 50
190.0000000000067
 51
270.0
  0
LINE
  5
5BB
330
1F
100
AcDbEntity
  8
LAY-10
  6
CONTINUOUS
 62
     7
100
AcDbLine
 10
549.8228385137594
 20
337.6527036446664
 30
0.0
 11
552.000000000008
 21
350.0000000000004
 31
0.0
  0
ARC
  5
5BC
330
1F
100
AcDbEntity
  8
LAY-10
  6
CONTINUOUS
 62
     7
100
AcDbCircle
 10
547.853223007735
 20
338.0000000000002
 30
0.0
 40
2.0
100
AcDbArc
 50
270.0
 51
350.0000000000014
  0
LINE
  5
5BD
330
1F
100
AcDbEntity
  8
LAY-10
  6
CONTINUOUS
 62
     7
100
AcDbLine
 10
574.177161486268
 20
337.6527036446661
 30
0.0
 11
572.0000000000194
 21
350.0000000000001
 31
0.0
  0
ARC
  5
5BE
330
1F
100
AcDbEntity
  8
LAY-10
  6
CONTINUOUS
 62
     7
100
AcDbCircle
 10
576.1467769922924
 20
338.0000000000002
 30
0.0
 40
2.0
100
AcDbArc
 50
190.0000000000067
 51
270.0
  0
LINE
  5
5BF
330
1F
100
AcDbEntity
  8
LAY-10
  6
CONTINUOUS
 62
     7
100
AcDbLine
 10
585.3228385137694
 20
337.6527036446664
 30
0.0
 11
587.500000000018
 21
350.0000000000004
 31
0.0
  0
ARC
  5
5C0
330
1F
100
AcDbEntity
  8
LAY-10
  6
CONTINUOUS
 62
     7
100
AcDbCircle
 10
583.353223007745
 20
338.0000000000002
 30
0.0
 40
2.0
100
AcDbArc
 50
270.0
 51
350.0000000000014
  0
LINE
  5
5C1
330
1F
100
AcDbEntity
  8
LAY-10
  6
CONTINUOUS
 62
     7
100
AcDbLine
 10
609.677161486278
 20
337.6527036446661
 30
0.0
 11
607.5000000000293
 21
350.0000000000001
 31
0.0
  0
ARC
  5
5C2
330
1F
100
AcDbEntity
  8
LAY-10
  6
CONTINUOUS
 62
     7
100
AcDbCircle
 10
611.6467769923023
 20
338.0000000000002
 30
0.0
 40
2.0
100
AcDbArc
 50
190.0000000000067
 51
270.0
  0
LINE
  5
5C3
330
1F
100
AcDbEntity
  8
LAY-10
  6
CONTINUOUS
 62
     7
100
AcDbLine
 10
620.8228385137793
 20
337.6527036446664
 30
0.0
 11
623.000000000028
 21
350.0000000000004
 31
0.0
  0
ARC
  5
5C4
330
1F
100
AcDbEntity
  8
LAY-10
  6
CONTINUOUS
 62
     7
100
AcDbCircle
 10
618.853223007755
 20
338.0000000000002
 30
0.0
 40
2.0
100
AcDbArc
 50
270.0
 51
350.0000000000014
  0
LINE
  5
5C5
330
1F
100
AcDbEntity
  8
LAY-10
  6
CONTINUOUS
 62
     7
100
AcDbLine
 10
645.177161486288
 20
337.6527036446661
 30
0.0
 11
643.0000000000394
 21
350.0000000000001
 31
0.0
  0
ARC
  5
5C6
330
1F
100
AcDbEntity
  8
LAY-10
  6
CONTINUOUS
 62
     7
100
AcDbCircle
 10
647.1467769923124
 20
338.0000000000002
 30
0.0
 40
2.0
100
AcDbArc
 50
190.0000000000067
 51
270.0
  0
LINE
  5
5C7
330
1F
100
AcDbEntity
  8
LAY-10
  6
CONTINUOUS
 62
     7
100
AcDbLine
 10
656.3228385137894
 20
337.6527036446664
 30
0.0
 11
658.500000000038
 21
350.0000000000004
 31
0.0
  0
ARC
  5
5C8
330
1F
100
AcDbEntity
  8
LAY-10
  6
CONTINUOUS
 62
     7
100
AcDbCircle
 10
654.353223007765
 20
338.0000000000002
 30
0.0
 40
2.0
100
AcDbArc
 50
270.0
 51
350.0000000000014
  0
LINE
  5
5C9
330
1F
100
AcDbEntity
  8
LAY-10
  6
CONTINUOUS
 62
     7
100
AcDbLine
 10
680.6771614862981
 20
337.6527036446661
 30
0.0
 11
678.5000000000495
 21
350.0000000000001
 31
0.0
  0
ARC
  5
5CA
330
1F
100
AcDbEntity
  8
LAY-10
  6
CONTINUOUS
 62
     7
100
AcDbCircle
 10
682.6467769923224
 20
338.0000000000002
 30
0.0
 40
2.0
100
AcDbArc
 50
190.0000000000061
 51
270.0
  0
LINE
  5
5CB
330
1F
100
AcDbEntity
  8
LAY-10
  6
CONTINUOUS
 62
     7
100
AcDbLine
 10
691.8228385137994
 20
337.6527036446664
 30
0.0
 11
694.0000000000481
 21
350.0000000000004
 31
0.0
  0
ARC
  5
5CC
330
1F
100
AcDbEntity
  8
LAY-10
  6
CONTINUOUS
 62
     7
100
AcDbCircle
 10
689.8532230077751
 20
338.0000000000002
 30
0.0
 40
2.0
100
AcDbArc
 50
270.0
 51
350.0000000000009
  0
LINE
  5
5CD
330
1F
100
AcDbEntity
  8
LAY-10
  6
CONTINUOUS
 62
     7
100
AcDbLine
 10
716.177161486308
 20
337.6527036446661
 30
0.0
 11
714.0000000000595
 21
350.0000000000001
 31
0.0
  0
ARC
  5
5CE
330
1F
100
AcDbEntity
  8
LAY-10
  6
CONTINUOUS
 62
     7
100
AcDbCircle
 10
718.1467769923324
 20
338.0000000000002
 30
0.0
 40
2.0
100
AcDbArc
 50
190.0000000000067
 51
270.0
  0
LINE
  5
5CF
330
1F
100
AcDbEntity
  8
LAY-10
  6
CONTINUOUS
 62
     7
100
AcDbLine
 10
727.3228385138094
 20
337.6527036446664
 30
0.0
 11
729.500000000058
 21
350.0000000000004
 31
0.0
  0
ARC
  5
5D0
330
1F
100
AcDbEntity
  8
LAY-10
  6
CONTINUOUS
 62
     7
100
AcDbCircle
 10
725.353223007785
 20
338.0000000000002
 30
0.0
 40
2.0
100
AcDbArc
 50
270.0
 51
350.0000000000014
  0
LINE
  5
5D1
330
1F
100
AcDbEntity
  8
LAY-10
  6
CONTINUOUS
 62
     7
100
AcDbLine
 10
751.677161486318
 20
337.6527036446661
 30
0.0
 11
749.5000000000695
 21
350.0000000000001
 31
0.0
  0
ARC
  5
5D2
330
1F
100
AcDbEntity
  8
LAY-10
  6
CONTINUOUS
 62
     7
100
AcDbCircle
 10
753.6467769923424
 20
338.0000000000002
 30
0.0
 40
2.0
100
AcDbArc
 50
190.0000000000067
 51
270.0
  0
LINE
  5
5D3
330
1F
100
AcDbEntity
  8
LAY-10
  6
CONTINUOUS
 62
     7
100
AcDbLine
 10
762.8228385138194
 20
337.6527036446664
 30
0.0
 11
765.000000000068
 21
350.0000000000004
 31
0.0
  0
ARC
  5
5D4
330
1F
100
AcDbEntity
  8
LAY-10
  6
CONTINUOUS
 62
     7
100
AcDbCircle
 10
760.853223007795
 20
338.0000000000002
 30
0.0
 40
2.0
100
AcDbArc
 50
270.0
 51
350.0000000000014
  0
LINE
  5
5D5
330
1F
100
AcDbEntity
  8
LAY-10
  6
CONTINUOUS
 62
     7
100
AcDbLine
 10
1114.459817739941
 20
316.1743114854953
 30
0.0
 11
1115.0
 21
310.0000000000001
 31
0.0
  0
ARC
  5
5D6
330
1F
100
AcDbEntity
  8
LAY-10
  6
CONTINUOUS
 62
     7
100
AcDbCircle
 10
1112.467428343758
 20
316.0000000000001
 30
0.0
 40
2.0
100
AcDbArc
 50
4.999999999996764
 51
90.0
  0
LINE
  5
5D7
330
1F
100
AcDbEntity
  8
LAY-10
  6
CONTINUOUS
 62
     7
100
AcDbLine
 10
1102.560046660616
 20
320.738532771757
 30
0.0
 11
1100.000000000009
 21
350.0000000000009
 31
0.0
  0
LINE
  5
5D8
330
1F
100
AcDbEntity
  8
LAY-10
  6
CONTINUOUS
 62
     7
100
AcDbLine
 10
1105.548630754891
 20
317.9999999999999
 30
0.0
 11
1112.467428343758
 21
317.9999999999999
 31
0.0
  0
ARC
  5
5D9
330
1F
100
AcDbEntity
  8
LAY-10
  6
CONTINUOUS
 62
     7
100
AcDbCircle
 10
1105.548630754891
 20
321.0000000000001
 30
0.0
 40
3.000000000000003
100
AcDbArc
 50
185.000000000002
 51
270.0
  0
LINE
  5
5DA
330
1F
100
AcDbEntity
  8
LAY-10
  6
CONTINUOUS
 62
     7
100
AcDbLine
 10
1089.764976012343
 20
318.7385327717571
 30
0.0
 11
1092.500000000001
 21
349.9999999999998
 31
0.0
  0
ARC
  5
5DB
330
1F
100
AcDbEntity
  8
LAY-10
  6
CONTINUOUS
 62
     7
100
AcDbCircle
 10
1086.776391918067
 20
319.0000000000001
 30
0.0
 40
3.000000000000003
100
AcDbArc
 50
270.0
 51
355.0000000000003
  0
LINE
  5
5DC
330
1F
100
AcDbEntity
  8
LAY-10
  6
CONTINUOUS
 62
     7
100
AcDbLine
 10
1075.365204933019
 20
314.1743114854954
 30
0.0
 11
1075.000000000012
 21
309.9999999999991
 31
0.0
  0
ARC
  5
5DD
330
1F
100
AcDbEntity
  8
LAY-10
  6
CONTINUOUS
 62
     7
100
AcDbCircle
 10
1077.357594329202
 20
314.0000000000001
 30
0.0
 40
2.0
100
AcDbArc
 50
90.0
 51
175.0
  0
ARC
  5
5DE
330
1F
100
AcDbEntity
  8
LAY-10
  6
CONTINUOUS
 62
     7
100
AcDbCircle
 10
1070.501233207425
 20
333.0000000000002
 30
0.0
 40
3.000000000000003
100
AcDbArc
 50
4.999999999996592
 51
90.0
  0
LINE
  5
5DF
330
1F
100
AcDbEntity
  8
LAY-10
  6
CONTINUOUS
 62
     7
100
AcDbLine
 10
1090.0
 20
350.0000000000001
 30
0.0
 11
1085.251325296913
 21
317.7090120190105
 31
0.0
  0
ARC
  5
5E0
330
1F
100
AcDbEntity
  8
LAY-10
  6
CONTINUOUS
 62
     7
100
AcDbCircle
 10
1083.272607026184
 20
317.9999999999999
 30
0.0
 40
2.0
100
AcDbArc
 50
270.0
 51
351.634113875973
  0
LINE
  5
5E1
330
1F
100
AcDbEntity
  8
LAY-10
  6
CONTINUOUS
 62
     7
100
AcDbLine
 10
1046.822838513752
 20
337.6527036446661
 30
0.0
 11
1049.0
 21
350.0000000000001
 31
0.0
  0
ARC
  5
5E2
330
1F
100
AcDbEntity
  8
LAY-10
  6
CONTINUOUS
 62
     7
100
AcDbCircle
 10
1044.853223007727
 20
338.0000000000002
 30
0.0
 40
2.0
100
AcDbArc
 50
270.0
 51
349.9999999999935
  0
LINE
  5
5E3
330
1F
100
AcDbEntity
  8
LAY-10
  6
CONTINUOUS
 62
     7
100
AcDbLine
 10
1035.67716148625
 20
337.6527036446664
 30
0.0
 11
1033.500000000002
 21
350.0000000000004
 31
0.0
  0
ARC
  5
5E4
330
1F
100
AcDbEntity
  8
LAY-10
  6
CONTINUOUS
 62
     7
100
AcDbCircle
 10
1037.646776992275
 20
338.0000000000002
 30
0.0
 40
2.0
100
AcDbArc
 50
189.9999999999986
 51
270.0
  0
LINE
  5
5E5
330
1F
100
AcDbEntity
  8
LAY-10
  6
CONTINUOUS
 62
     7
100
AcDbLine
 10
1071.327929201247
 20
336.7976574436643
 30
0.0
 11
1069.000000000009
 21
350.0000000000018
 31
0.0
  0
ARC
  5
5E6
330
1F
100
AcDbEntity
  8
LAY-10
  6
CONTINUOUS
 62
     7
100
AcDbCircle
 10
1073.297544707272
 20
337.1449537989981
 30
0.0
 40
2.0
100
AcDbArc
 50
189.9999999999986
 51
235.9952037894724
  0
LINE
  5
5E7
330
1F
100
AcDbEntity
  8
LAY-10
  6
CONTINUOUS
 62
     7
100
AcDbLine
 10
1011.322838513742
 20
337.6527036446661
 30
0.0
 11
1013.49999999999
 21
350.0000000000001
 31
0.0
  0
ARC
  5
5E8
330
1F
100
AcDbEntity
  8
LAY-10
  6
CONTINUOUS
 62
     7
100
AcDbCircle
 10
1009.353223007717
 20
338.0000000000002
 30
0.0
 40
2.0
100
AcDbArc
 50
270.0
 51
349.9999999999935
  0
LINE
  5
5E9
330
1F
100
AcDbEntity
  8
LAY-10
  6
CONTINUOUS
 62
     7
100
AcDbLine
 10
1000.17716148624
 20
337.6527036446664
 30
0.0
 11
997.9999999999918
 21
350.0000000000004
 31
0.0
  0
ARC
  5
5EA
330
1F
100
AcDbEntity
  8
LAY-10
  6
CONTINUOUS
 62
     7
100
AcDbCircle
 10
1002.146776992265
 20
338.0000000000002
 30
0.0
 40
2.0
100
AcDbArc
 50
189.9999999999986
 51
270.0
  0
LINE
  5
5EB
330
1F
100
AcDbEntity
  8
LAY-10
  6
CONTINUOUS
 62
     7
100
AcDbLine
 10
975.8228385137318
 20
337.6527036446661
 30
0.0
 11
977.9999999999803
 21
350.0000000000001
 31
0.0
  0
ARC
  5
5EC
330
1F
100
AcDbEntity
  8
LAY-10
  6
CONTINUOUS
 62
     7
100
AcDbCircle
 10
973.8532230077074
 20
338.0000000000002
 30
0.0
 40
2.0
100
AcDbArc
 50
270.0
 51
349.9999999999935
  0
LINE
  5
5ED
330
1F
100
AcDbEntity
  8
LAY-10
  6
CONTINUOUS
 62
     7
100
AcDbLine
 10
964.6771614862304
 20
337.6527036446664
 30
0.0
 11
962.4999999999818
 21
350.0000000000004
 31
0.0
  0
ARC
  5
5EE
330
1F
100
AcDbEntity
  8
LAY-10
  6
CONTINUOUS
 62
     7
100
AcDbCircle
 10
966.6467769922548
 20
338.0000000000002
 30
0.0
 40
2.0
100
AcDbArc
 50
189.9999999999986
 51
270.0
  0
LINE
  5
5EF
330
1F
100
AcDbEntity
  8
LAY-10
  6
CONTINUOUS
 62
     7
100
AcDbLine
 10
940.3228385137218
 20
337.6527036446661
 30
0.0
 11
942.4999999999704
 21
350.0000000000001
 31
0.0
  0
ARC
  5
5F0
330
1F
100
AcDbEntity
  8
LAY-10
  6
CONTINUOUS
 62
     7
100
AcDbCircle
 10
938.3532230076975
 20
338.0000000000002
 30
0.0
 40
2.0
100
AcDbArc
 50
270.0
 51
349.999999999994
  0
LINE
  5
5F1
330
1F
100
AcDbEntity
  8
LAY-10
  6
CONTINUOUS
 62
     7
100
AcDbLine
 10
929.1771614862205
 20
337.6527036446664
 30
0.0
 11
926.9999999999718
 21
350.0000000000004
 31
0.0
  0
ARC
  5
5F2
330
1F
100
AcDbEntity
  8
LAY-10
  6
CONTINUOUS
 62
     7
100
AcDbCircle
 10
931.1467769922448
 20
338.0000000000002
 30
0.0
 40
2.0
100
AcDbArc
 50
189.9999999999992
 51
270.0
  0
LINE
  5
5F3
330
1F
100
AcDbEntity
  8
LAY-10
  6
CONTINUOUS
 62
     7
100
AcDbLine
 10
904.8228385137118
 20
337.6527036446661
 30
0.0
 11
906.9999999999603
 21
350.0000000000001
 31
0.0
  0
ARC
  5
5F4
330
1F
100
AcDbEntity
  8
LAY-10
  6
CONTINUOUS
 62
     7
100
AcDbCircle
 10
902.8532230076873
 20
338.0000000000002
 30
0.0
 40
2.0
100
AcDbArc
 50
270.0
 51
349.9999999999935
  0
LINE
  5
5F5
330
1F
100
AcDbEntity
  8
LAY-10
  6
CONTINUOUS
 62
     7
100
AcDbLine
 10
893.6771614862104
 20
337.6527036446664
 30
0.0
 11
891.4999999999618
 21
350.0000000000004
 31
0.0
  0
ARC
  5
5F6
330
1F
100
AcDbEntity
  8
LAY-10
  6
CONTINUOUS
 62
     7
100
AcDbCircle
 10
895.6467769922348
 20
338.0000000000002
 30
0.0
 40
2.0
100
AcDbArc
 50
189.9999999999986
 51
270.0
  0
LINE
  5
5F7
330
1F
100
AcDbEntity
  8
LAY-10
  6
CONTINUOUS
 62
     7
100
AcDbLine
 10
869.3228385137016
 20
337.6527036446661
 30
0.0
 11
871.4999999999503
 21
350.0000000000001
 31
0.0
  0
ARC
  5
5F8
330
1F
100
AcDbEntity
  8
LAY-10
  6
CONTINUOUS
 62
     7
100
AcDbCircle
 10
867.3532230076773
 20
338.0000000000002
 30
0.0
 40
2.0
100
AcDbArc
 50
270.0
 51
349.999999999994
  0
LINE
  5
5F9
330
1F
100
AcDbEntity
  8
LAY-10
  6
CONTINUOUS
 62
     7
100
AcDbLine
 10
858.1771614862004
 20
337.6527036446664
 30
0.0
 11
855.9999999999517
 21
350.0000000000004
 31
0.0
  0
ARC
  5
5FA
330
1F
100
AcDbEntity
  8
LAY-10
  6
CONTINUOUS
 62
     7
100
AcDbCircle
 10
860.1467769922247
 20
338.0000000000002
 30
0.0
 40
2.0
100
AcDbArc
 50
189.9999999999992
 51
270.0
  0
LINE
  5
5FB
330
1F
100
AcDbEntity
  8
LAY-10
  6
CONTINUOUS
 62
     7
100
AcDbLine
 10
833.8228385136917
 20
337.6527036446661
 30
0.0
 11
835.9999999999403
 21
350.0000000000001
 31
0.0
  0
ARC
  5
5FC
330
1F
100
AcDbEntity
  8
LAY-10
  6
CONTINUOUS
 62
     7
100
AcDbCircle
 10
831.8532230076673
 20
338.0000000000002
 30
0.0
 40
2.0
100
AcDbArc
 50
270.0
 51
349.9999999999935
  0
LINE
  5
5FD
330
1F
100
AcDbEntity
  8
LAY-10
  6
CONTINUOUS
 62
     7
100
AcDbLine
 10
822.6771614861904
 20
337.6527036446664
 30
0.0
 11
820.4999999999418
 21
350.0000000000004
 31
0.0
  0
ARC
  5
5FE
330
1F
100
AcDbEntity
  8
LAY-10
  6
CONTINUOUS
 62
     7
100
AcDbCircle
 10
824.6467769922148
 20
338.0000000000002
 30
0.0
 40
2.0
100
AcDbArc
 50
189.9999999999986
 51
270.0
  0
LINE
  5
5FF
330
1F
100
AcDbEntity
  8
LAY-10
  6
CONTINUOUS
 62
     7
100
AcDbLine
 10
798.3228385136817
 20
337.6527036446661
 30
0.0
 11
800.4999999999303
 21
350.0000000000001
 31
0.0
  0
ARC
  5
600
330
1F
100
AcDbEntity
  8
LAY-10
  6
CONTINUOUS
 62
     7
100
AcDbCircle
 10
796.3532230076573
 20
338.0000000000002
 30
0.0
 40
2.0
100
AcDbArc
 50
270.0
 51
349.9999999999935
  0
LINE
  5
601
330
1F
100
AcDbEntity
  8
LAY-10
  6
CONTINUOUS
 62
     7
100
AcDbLine
 10
787.1771614861804
 20
337.6527036446664
 30
0.0
 11
784.9999999999318
 21
350.0000000000004
 31
0.0
  0
ARC
  5
602
330
1F
100
AcDbEntity
  8
LAY-10
  6
CONTINUOUS
 62
     7
100
AcDbCircle
 10
789.1467769922048
 20
338.0000000000002
 30
0.0
 40
2.0
100
AcDbArc
 50
189.9999999999986
 51
270.0
  0
LINE
  5
603
330
1F
100
AcDbEntity
  8
LAY-10
  6
CONTINUOUS
 62
     7
100
AcDbLine
 10
479.4987667925744
 20
336.0000000000001
 30
0.0
 11
1070.501233207425
 21
336.0000000000001
 31
0.0
  0
LINE
  5
604
330
1F
100
AcDbEntity
  8
LAY-10
  6
CONTINUOUS
 62
     7
100
AcDbLine
 10
434.9999999999997
 20
310.0000000000001
 30
0.0
 11
1115.0
 21
310.0000000000001
 31
0.0
  0
LINE
  5
605
330
1F
100
AcDbEntity
  8
LAY-10
  6
CONTINUOUS
 62
     7
100
AcDbLine
 10
1092.500000000001
 20
350.0000000000001
 30
0.0
 11
1100.00000000001
 21
350.0000000000001
 31
0.0
  0
LINE
  5
606
330
1F
100
AcDbEntity
  8
LAY-10
  6
CONTINUOUS
 62
     7
100
AcDbLine
 10
449.9999999999907
 20
350.0000000000001
 30
0.0
 11
457.4999999999989
 21
350.0000000000001
 31
0.0
  0
LINE
  5
607
330
1F
100
AcDbEntity
  8
LAY-10
  6
CONTINUOUS
 62
     7
100
AcDbLine
 10
459.9999999999998
 20
350.0000000000001
 30
0.0
 11
1090.0
 21
350.0000000000001
 31
0.0
  0
ARC
  5
608
330
1F
100
AcDbEntity
  8
LAY-10
  6
CONTINUOUS
 62
     7
100
AcDbCircle
 10
492.8743999381143
 20
319.0000000000002
 30
0.0
 40
2.0
100
AcDbArc
 50
90.0
 51
165.0000000000056
  0
LINE
  5
609
330
1F
100
AcDbEntity
  8
LAY-10
  6
CONTINUOUS
 62
     7
100
AcDbLine
 10
490.9425482855361
 20
319.517638090205
 30
0.0
 11
490.397197676621
 21
317.4823619097951
 31
0.0
  0
ARC
  5
60A
330
1F
100
AcDbEntity
  8
LAY-10
  6
CONTINUOUS
 62
     7
100
AcDbCircle
 10
488.4653460240429
 20
317.9999999999999
 30
0.0
 40
2.0
100
AcDbArc
 50
270.0
 51
345.0000000000057
  0
ARC
  5
60B
330
1F
100
AcDbEntity
  8
LAY-10
  6
CONTINUOUS
 62
     7
100
AcDbCircle
 10
1057.125600061886
 20
319.0000000000002
 30
0.0
 40
2.0
100
AcDbArc
 50
14.99999999999448
 51
90.0
  0
LINE
  5
60C
330
1F
100
AcDbEntity
  8
LAY-10
  6
CONTINUOUS
 62
     7
100
AcDbLine
 10
1059.057451714464
 20
319.517638090205
 30
0.0
 11
1059.602802323379
 21
317.4823619097951
 31
0.0
  0
ARC
  5
60D
330
1F
100
AcDbEntity
  8
LAY-10
  6
CONTINUOUS
 62
     7
100
AcDbCircle
 10
1061.534653975957
 20
317.9999999999999
 30
0.0
 40
2.0
100
AcDbArc
 50
194.9999999999945
 51
270.0
  0
LINE
  5
60E
330
1F
100
AcDbEntity
  8
LAY-10
  6
CONTINUOUS
 62
     7
100
AcDbLine
 10
463.2236080819324
 20
316.0000000000001
 30
0.0
 11
1086.77639191807
 21
316.0000000000001
 31
0.0
  0
ARC
  5
60F
330
1F
100
AcDbEntity
  8
LAY-10
  6
CONTINUOUS
 62
     7
100
AcDbCircle
 10
757.5275238505319
 20
318.9999999999997
 30
0.0
 40
2.0
100
AcDbArc
 50
14.99999999999917
 51
90.00000000000004
  0
LINE
  5
610
330
1F
100
AcDbEntity
  8
LAY-10
  6
CONTINUOUS
 62
     7
100
AcDbLine
 10
759.4593755031102
 20
319.5176380902047
 30
0.0
 11
759.6028023233786
 21
318.9823619097947
 31
0.0
  0
ARC
  5
611
330
1F
100
AcDbEntity
  8
LAY-10
  6
CONTINUOUS
 62
     7
100
AcDbCircle
 10
761.5346539759569
 20
319.4999999999997
 30
0.0
 40
2.0
100
AcDbArc
 50
194.9999999999978
 51
270.0000000000002
  0
ARC
  5
612
330
1F
100
AcDbEntity
  8
LAY-10
  6
CONTINUOUS
 62
     7
100
AcDbCircle
 10
792.472476149468
 20
318.9999999999997
 30
0.0
 40
2.0
100
AcDbArc
 50
90.00000000000004
 51
165.0000000000008
  0
LINE
  5
613
330
1F
100
AcDbEntity
  8
LAY-10
  6
CONTINUOUS
 62
     7
100
AcDbLine
 10
790.5406244968898
 20
319.5176380902047
 30
0.0
 11
790.3971976766214
 21
318.9823619097947
 31
0.0
  0
ARC
  5
614
330
1F
100
AcDbEntity
  8
LAY-10
  6
CONTINUOUS
 62
     7
100
AcDbCircle
 10
788.4653460240431
 20
319.4999999999997
 30
0.0
 40
2.0
100
AcDbArc
 50
270.0000000000002
 51
345.0000000000026
  0
LINE
  5
615
330
1F
100
AcDbEntity
  8
LAY-10
  6
CONTINUOUS
 62
     7
100
AcDbLine
 10
761.5346539759569
 20
317.4999999999997
 30
0.0
 11
788.4653460240431
 21
317.4999999999997
 31
0.0
  0
LINE
  5
616
330
1F
100
AcDbEntity
  8
LAY-10
  6
CONTINUOUS
 62
     7
100
AcDbLine
 10
492.8743999381143
 20
321.0000000000001
 30
0.0
 11
757.52752385053
 21
321.0000000000001
 31
0.0
  0
LINE
  5
617
330
1F
100
AcDbEntity
  8
LAY-10
  6
CONTINUOUS
 62
     7
100
AcDbLine
 10
1057.125600061886
 20
321.0000000000001
 30
0.0
 11
792.472476149468
 21
321.0
 31
0.0
  0
ARC
  5
618
330
1F
100
AcDbEntity
  8
LAY-10
  6
CONTINUOUS
 62
     7
100
AcDbCircle
 10
1076.701429352735
 20
319.4999999999997
 30
0.0
 40
2.0
100
AcDbArc
 50
184.9999999999982
 51
270.0000000000002
  0
LINE
  5
619
330
1F
100
AcDbEntity
  8
LAY-10
  6
CONTINUOUS
 62
     7
100
AcDbLine
 10
1083.493195261478
 20
317.4999999999997
 30
0.0
 11
1076.701429352735
 21
317.4999999999997
 31
0.0
  0
ARC
  5
61A
330
1F
100
AcDbEntity
  8
LAY-10
  6
CONTINUOUS
 62
     7
100
AcDbCircle
 10
1083.493195261478
 20
319.4999999999997
 30
0.0
 40
2.0
100
AcDbArc
 50
270.0000000000002
 51
351.6341138759677
  0
LINE
  5
61B
330
1F
100
AcDbEntity
  8
LAY-10
  6
CONTINUOUS
 62
     7
100
AcDbLine
 10
1073.489817301701
 20
333.261467228243
 30
0.0
 11
1074.709039956558
 21
319.325688514505
 31
0.0
  0
ARC
  5
61C
330
1F
100
AcDbEntity
  8
LAY-10
  6
CONTINUOUS
 62
     7
100
AcDbCircle
 10
473.2985706472655
 20
319.4999999999997
 30
0.0
 40
2.0
100
AcDbArc
 50
270.0000000000001
 51
355.0000000000016
  0
LINE
  5
61D
330
1F
100
AcDbEntity
  8
LAY-10
  6
CONTINUOUS
 62
     7
100
AcDbLine
 10
466.5068047385221
 20
317.4999999999997
 30
0.0
 11
473.2985706472655
 21
317.4999999999997
 31
0.0
  0
ARC
  5
61E
330
1F
100
AcDbEntity
  8
LAY-10
  6
CONTINUOUS
 62
     7
100
AcDbCircle
 10
466.5068047385221
 20
319.4999999999997
 30
0.0
 40
2.0
100
AcDbArc
 50
188.365886124032
 51
270.0000000000001
  0
LINE
  5
61F
330
1F
100
AcDbEntity
  8
LAY-10
  6
CONTINUOUS
 62
     7
100
AcDbLine
 10
476.5101826982992
 20
333.261467228243
 30
0.0
 11
475.2909600434413
 21
319.3256885145051
 31
0.0
  0
LINE
  5
620
330
1F
100
AcDbEntity
  8
LAY-10
  6
CENTER
 62
     2
100
AcDbLine
 10
775.0
 20
524.0
 30
0.0
 11
775.0
 21
1232.0
 31
0.0
  0
LINE
  5
621
330
1F
100
AcDbEntity
  8
LAY-10
  6
CENTER
 62
     2
100
AcDbLine
 10
422.9999999999999
 20
875.0000000000001
 30
0.0
 11
1128.0
 21
875.0000000000001
 31
0.0
  0
LINE
  5
622
330
1F
100
AcDbEntity
  8
LAY-10
  6
CENTER
 62
     2
100
AcDbLine
 10
775.0
 20
355.0
 30
0.0
 11
775.0
 21
304.2999999999999
 31
0.0
  0
DIMENSION
  5
624
330
1F
100
AcDbEntity
  8
LAY-20
  6
CONTINUOUS
 62
     4
100
AcDbDimension
  2
*D15
 10
1165.0
 20
350.0000000000001
 30
0.0
 11
1152.5
 21
330.0000000000001
 31
0.0
 70
   160
  3
ISO-25
100
AcDbAlignedDimension
 13
1115.0
 23
310.0000000000001
 33
0.0
 14
1100.00000000001
 24
350.0000000000001
 34
0.0
 50
90.0
100
AcDbRotatedDimension
1001
ACAD
1000
DSTYLE
1002
{
1070
   270
1070
     2
1070
     6
1000
EX_BNORM
1070
     7
1000
EX_BNORM
1070
    41
1040
12.5
1070
    42
1040
7.5
1070
    44
1040
7.5
1070
    73
1070
     0
1070
    74
1070
     0
1070
    75
1070
     0
1070
    76
1070
     0
1070
    77
1070
     1
1070
    78
1070
     8
1070
   140
1040
15.590552
1070
   147
1040
0.0
1070
   173
1070
     1
1070
   176
1070
     4
1070
   177
1070
     4
1070
   178
1070
     7
1070
   271
1070
     1
1070
   277
1070
     2
1070
   279
1070
     2
1070
   280
1070
     0
1070
   287
1070
     5
1070
   340
1005
623
1002
}
  0
DIMENSION
  5
632
330
1F
100
AcDbEntity
  8
LAY-20
  6
CONTINUOUS
 62
     4
100
AcDbDimension
  2
*D16
 10
918.0000000000001
 20
350.0
 30
0.0
 11
905.5000000000001
 21
379.9999999999998
 31
0.0
 70
   160
  3
ISO-25
100
AcDbAlignedDimension
 13
918.0000000000001
 23
336.0
 33
0.0
 14
918.0000000000001
 24
350.0
 34
0.0
 50
90.0
100
AcDbRotatedDimension
1001
ACAD
1000
DSTYLE
1002
{
1070
   270
1070
     2
1070
     6
1000
EX_BNORM
1070
     7
1000
EX_BNORM
1070
    41
1040
12.5
1070
    42
1040
0.0
1070
    44
1040
0.0
1070
    73
1070
     0
1070
    74
1070
     0
1070
    75
1070
     1
1070
    76
1070
     1
1070
    77
1070
     1
1070
    78
1070
     8
1070
   140
1040
15.590552
1070
   147
1040
0.0
1070
   173
1070
     1
1070
   176
1070
     4
1070
   177
1070
     4
1070
   178
1070
     7
1070
   271
1070
     1
1070
   277
1070
     2
1070
   279
1070
     2
1070
   280
1070
     2
1070
   287
1070
     5
1070
   340
1005
623
1002
}
  0
DIMENSION
  5
63F
330
1F
100
AcDbEntity
  8
LAY-20
  6
CONTINUOUS
 62
     4
100
AcDbDimension
  2
*D17
 10
450.0000000000004
 20
470.0
 30
0.0
 11
775.0000000000007
 21
482.5
 31
0.0
 70
   160
  1
□<>
  3
ISO-25
100
AcDbAlignedDimension
 13
1100.000000000001
 23
350.0
 33
0.0
 14
450.0000000000004
 24
350.0
 34
0.0
100
AcDbRotatedDimension
1001
ACAD
1000
DSTYLE
1002
{
1070
   270
1070
     2
1070
     6
1000
EX_BNORM
1070
     7
1000
EX_BNORM
1070
    41
1040
12.5
1070
    42
1040
7.5
1070
    44
1040
7.5
1070
    73
1070
     0
1070
    74
1070
     0
1070
    75
1070
     0
1070
    76
1070
     0
1070
    77
1070
     1
1070
    78
1070
     8
1070
   140
1040
15.590552
1070
   147
1040
0.0
1070
   173
1070
     1
1070
   176
1070
     4
1070
   177
1070
     4
1070
   178
1070
     7
1070
   271
1070
     1
1070
   277
1070
     2
1070
   279
1070
     2
1070
   280
1070
     0
1070
   287
1070
     5
1070
   340
1005
623
1002
}
  0
DIMENSION
  5
64C
330
1F
100
AcDbEntity
  8
LAY-20
  6
CONTINUOUS
 62
     4
100
AcDbDimension
  2
*D18
 10
1090.000000000001
 20
435.0
 30
0.0
 11
775.0000000000006
 21
447.5
 31
0.0
 70
   160
  1
□<>
  3
ISO-25
100
AcDbAlignedDimension
 13
460.0000000000004
 23
350.0
 33
0.0
 14
1090.000000000001
 24
350.0
 34
0.0
100
AcDbRotatedDimension
1001
ACAD
1000
DSTYLE
1002
{
1070
   270
1070
     2
1070
     6
1000
EX_BNORM
1070
     7
1000
EX_BNORM
1070
    41
1040
12.5
1070
    42
1040
7.5
1070
    44
1040
7.5
1070
    73
1070
     0
1070
    74
1070
     0
1070
    75
1070
     0
1070
    76
1070
     0
1070
    77
1070
     1
1070
    78
1070
     8
1070
   140
1040
15.590552
1070
   147
1040
0.0
1070
   173
1070
     1
1070
   176
1070
     4
1070
   177
1070
     4
1070
   178
1070
     7
1070
   271
1070
     1
1070
   277
1070
     2
1070
   279
1070
     2
1070
   280
1070
     0
1070
   287
1070
     5
1070
   340
1005
623
1002
}
  0
DIMENSION
  5
659
330
1F
100
AcDbEntity
  8
LAY-20
  6
CONTINUOUS
 62
     4
100
AcDbDimension
  2
*D19
 10
1075.000000000001
 20
260.0
 30
0.0
 11
775.0000000000006
 21
272.5
 31
0.0
 70
   160
  1
桝径□<>
  3
ISO-25
100
AcDbAlignedDimension
 13
475.0000000000004
 23
310.0
 33
0.0
 14
1075.000000000001
 24
310.0
 34
0.0
100
AcDbRotatedDimension
1001
ACAD
1000
DSTYLE
1002
{
1070
   270
1070
     2
1070
     6
1000
EX_BNORM
1070
     7
1000
EX_BNORM
1070
    41
1040
12.5
1070
    42
1040
7.5
1070
    44
1040
7.5
1070
    73
1070
     0
1070
    74
1070
     0
1070
    75
1070
     0
1070
    76
1070
     0
1070
    77
1070
     1
1070
    78
1070
     8
1070
   140
1040
15.590552
1070
   147
1040
0.0
1070
   173
1070
     1
1070
   176
1070
     4
1070
   177
1070
     4
1070
   178
1070
     7
1070
   271
1070
     1
1070
   277
1070
     2
1070
   279
1070
     2
1070
   280
1070
     0
1070
   287
1070
     5
1070
   340
1005
623
1002
}
  0
DIMENSION
  5
666
330
1F
100
AcDbEntity
  8
LAY-20
  6
CONTINUOUS
 62
     4
100
AcDbDimension
  2
*D20
 10
435.0000000000004
 20
225.0
 30
0.0
 11
775.0000000000007
 21
237.5
 31
0.0
 70
   160
  1
□<>
  3
ISO-25
100
AcDbAlignedDimension
 13
1115.000000000001
 23
310.0
 33
0.0
 14
435.0000000000004
 24
310.0
 34
0.0
100
AcDbRotatedDimension
1001
ACAD
1000
DSTYLE
1002
{
1070
   270
1070
     2
1070
     6
1000
EX_BNORM
1070
     7
1000
EX_BNORM
1070
    41
1040
12.5
1070
    42
1040
7.5
1070
    44
1040
7.5
1070
    73
1070
     0
1070
    74
1070
     0
1070
    75
1070
     0
1070
    76
1070
     0
1070
    77
1070
     1
1070
    78
1070
     8
1070
   140
1040
15.590552
1070
   147
1040
0.0
1070
   173
1070
     1
1070
   176
1070
     4
1070
   177
1070
     4
1070
   178
1070
     7
1070
   271
1070
     1
1070
   277
1070
     2
1070
   279
1070
     2
1070
   280
1070
     0
1070
   287
1070
     5
1070
   340
1005
623
1002
}
  0
LINE
  5
673
330
1F
100
AcDbEntity
  8
LAY-255
  6
CONTINUOUS
 62
     7
100
AcDbLine
 10
1925.0
 20
110.0
 30
0.0
 11
1425.0
 21
110.0
 31
0.0
  0
LINE
  5
674
330
1F
100
AcDbEntity
  8
LAY-255
  6
CONTINUOUS
 62
     7
100
AcDbLine
 10
1444.0
 20
79.99999999999999
 30
0.0
 11
1484.0
 21
105.0
 31
0.0
  0
LINE
  5
675
330
1F
100
AcDbEntity
  8
LAY-255
  6
CONTINUOUS
 62
     7
100
AcDbLine
 10
1484.0
 20
105.0
 30
0.0
 11
1524.0
 21
79.99999999999999
 31
0.0
  0
LINE
  5
676
330
1F
100
AcDbEntity
  8
LAY-255
  6
CONTINUOUS
 62
     7
100
AcDbLine
 10
1524.0
 20
79.99999999999999
 30
0.0
 11
1484.0
 21
55.0
 31
0.0
  0
LINE
  5
677
330
1F
100
AcDbEntity
  8
LAY-255
  6
CONTINUOUS
 62
     7
100
AcDbLine
 10
1484.0
 20
55.0
 30
0.0
 11
1444.0
 21
79.99999999999999
 31
0.0
  0
LINE
  5
678
330
1F
100
AcDbEntity
  8
LAY-255
  6
CONTINUOUS
 62
     7
100
AcDbLine
 10
25.0
 20
50.0
 30
0.0
 11
1925.0
 21
50.0
 31
0.0
  0
LINE
  5
679
330
1F
100
AcDbEntity
  8
LAY-255
  6
CONTINUOUS
 62
     7
100
AcDbLine
 10
25.0
 20
1400.0
 30
0.0
 11
1925.0
 21
1400.0
 31
0.0
  0
LINE
  5
67A
330
1F
100
AcDbEntity
  8
LAY-255
  6
CONTINUOUS
 62
     7
100
AcDbLine
 10
25.0
 20
50.0
 30
0.0
 11
25.0
 21
1400.0
 31
0.0
  0
LINE
  5
67B
330
1F
100
AcDbEntity
  8
LAY-255
  6
CONTINUOUS
 62
     4
100
AcDbLine
 10
1425.0
 20
140.0
 30
0.0
 11
1925.0
 21
140.0
 31
0.0
  0
LINE
  5
67C
330
1F
100
AcDbEntity
  8
LAY-255
  6
CONTINUOUS
 62
     4
100
AcDbLine
 10
1675.0
 20
140.0
 30
0.0
 11
1675.0
 21
110.0
 31
0.0
  0
POINT
  5
67D
330
1F
100
AcDbEntity
  8
LAY-255
  6
CONTINUOUS
 62
     7
100
AcDbPoint
 10
1445.0
 20
225.0
 30
0.0
  0
POINT
  5
67E
330
1F
100
AcDbEntity
  8
LAY-255
  6
CONTINUOUS
 62
     7
100
AcDbPoint
 10
1445.0
 20
175.0
 30
0.0
  0
POINT
  5
67F
330
1F
100
AcDbEntity
  8
LAY-255
  6
CONTINUOUS
 62
     7
100
AcDbPoint
 10
1445.0
 20
200.0
 30
0.0
  0
POINT
  5
680
330
1F
100
AcDbEntity
  8
LAY-255
  6
CONTINUOUS
 62
     7
100
AcDbPoint
 10
1445.0
 20
149.9999999999999
 30
0.0
  0
LINE
  5
681
330
1F
100
AcDbEntity
  8
LAY-255
  6
CONTINUOUS
 62
     7
100
AcDbLine
 10
1925.0
 20
50.0
 30
0.0
 11
1925.0
 21
1400.0
 31
0.0
  0
LINE
  5
682
330
1F
100
AcDbEntity
  8
LAY-255
  6
CONTINUOUS
 62
     7
100
AcDbLine
 10
1425.0
 20
50.0
 30
0.0
 11
1425.0
 21
335.0
 31
0.0
  0
LINE
  5
683
330
1F
100
AcDbEntity
  8
LAY-255
  6
CONTINUOUS
 62
     7
100
AcDbLine
 10
1925.0
 20
335.0
 30
0.0
 11
1425.0
 21
335.0
 31
0.0
  0
LINE
  5
684
330
1F
100
AcDbEntity
  8
LAY-255
  6
CONTINUOUS
 62
     4
100
AcDbLine
 10
1915.0
 20
275.0000000000001
 30
0.0
 11
1435.0
 21
275.0000000000001
 31
0.0
  0
LINE
  5
685
330
1F
100
AcDbEntity
  8
LAY-255
  6
CONTINUOUS
 62
     4
100
AcDbLine
 10
1915.0
 20
305.0
 30
0.0
 11
1435.0
 21
305.0
 31
0.0
  0
POINT
  5
686
330
1F
100
AcDbEntity
  8
LAY-255
  6
CONTINUOUS
 62
     7
100
AcDbPoint
 10
1500.0
 20
280.0000000000001
 30
0.0
  0
POINT
  5
687
330
1F
100
AcDbEntity
  8
LAY-255
  6
CONTINUOUS
 62
     7
100
AcDbPoint
 10
1500.0
 20
310.0
 30
0.0
  0
POINT
  5
688
330
1F
100
AcDbEntity
  8
LAY-255
  6
CONTINUOUS
 62
     7
100
AcDbPoint
 10
1445.0
 20
250.0000000000001
 30
0.0
  0
TEXT
  5
689
330
1F
100
AcDbEntity
  8
LAY-255
  6
CONTINUOUS
 62
     7
100
AcDbText
 10
1540.691894370117
 20
77.71874999999999
 30
0.0
 40
25.78125
  1
福西鋳物株式会社
 41
1.342691871783662
  7
EXCADSTD
100
AcDbText
  0
TEXT
  5
68A
330
1F
100
AcDbEntity
  8
LAY-255
  6
CONTINUOUS
 62
     7
100
AcDbText
 10
1542.546875
 20
59.90624999999999
 30
0.0
 40
8.59375
  1
ＦＵＫＵＮＩＳＨＩ
 41
1.204799226045263
  7
EXCADSTD
100
AcDbText
  0
TEXT
  5
68B
330
1F
100
AcDbEntity
  8
LAY-255
  6
CONTINUOUS
 62
     7
100
AcDbText
 10
1663.595982142857
 20
59.90624999999999
 30
0.0
 40
8.59375
  1
ＦＯＵＮＤＲＹ
 41
1.243252752978497
  7
EXCADSTD
100
AcDbText
  0
TEXT
  5
68C
330
1F
100
AcDbEntity
  8
LAY-255
  6
CONTINUOUS
 62
     7
100
AcDbText
 10
1759.97295734375
 20
59.90624999999999
 30
0.0
 40
8.59375
  1
ＣＯ.,ＬＴＤ.
 41
1.243831100341625
  7
EXCADSTD
100
AcDbText
  0
TEXT
  5
68D
330
1F
100
AcDbEntity
  8
LAY-255
  6
CONTINUOUS
 62
     7
100
AcDbText
 10
1470.171875
 20
68.59375
 30
0.0
 40
25.78125
  1
S
 41
0.7582677563636363
  7
EXCADSTD
100
AcDbText
  0
TEXT
  5
68E
330
1F
100
AcDbEntity
  8
LAY-255
  6
CONTINUOUS
 62
     7
100
AcDbText
 10
1485.5234375
 20
68.7470518868
 30
0.0
 40
25.78125
  1
F
 41
0.7440945272727272
  7
EXCADSTD
100
AcDbText
  0
TEXT
  5
68F
330
1F
100
AcDbEntity
  8
LAY-255
  6
CONTINUOUS
 62
     7
100
AcDbText
 10
1685.52734375
 20
122.1093749999999
 30
0.0
 40
12.890625
  1
縮尺
 41
1.080708718181818
  7
EXCADSTD
100
AcDbText
  0
TEXT
  5
690
330
1F
100
AcDbEntity
  8
LAY-255
  6
CONTINUOUS
 62
     7
100
AcDbText
 10
1435.76171875
 20
122.1093749999999
 30
0.0
 40
12.890625
  1
作成日
 41
1.000629973818182
  7
EXCADSTD
100
AcDbText
  0
TEXT
  5
691
330
1F
100
AcDbEntity
  8
LAY-255
  6
CONTINUOUS
 62
     7
100
AcDbText
 10
1741.40625
 20
117.8124999999999
 30
0.0
 40
17.1875
  1
１：５
 41
0.888661464
  7
EXCADSTD
100
AcDbText
  0
TEXT
  5
692
330
1F
100
AcDbEntity
  8
LAY-255
  6
CONTINUOUS
 62
     7
100
AcDbText
 10
1504.453125
 20
117.8124999999999
 30
0.0
 40
17.1875
  1
０６／１１／０１
 41
0.9566929636363637
  7
EXCADSTD
100
AcDbText
  0
TEXT
  5
693
330
1F
100
AcDbEntity
  8
LAY-255
  6
CONTINUOUS
 62
     7
100
AcDbText
 10
1447.265625
 20
227.8125000000001
 30
0.0
 40
17.1875
  1
区分：軽荷重用
 41
1.007228657526081
  7
EXCADSTD
100
AcDbText
  0
TEXT
  5
694
330
1F
100
AcDbEntity
  8
LAY-255
  6
CONTINUOUS
 62
     7
100
AcDbText
 10
1446.171875
 20
202.8125
 30
0.0
 40
17.1875
  1
用途：集水桝用
 41
1.015360838152012
  7
EXCADSTD
100
AcDbText
  0
TEXT
  5
695
330
1F
100
AcDbEntity
  8
LAY-255
  6
CONTINUOUS
 62
     7
100
AcDbText
 10
1436.328125
 20
282.8125000000001
 30
0.0
 40
17.1875
  1
型式
 41
1.056348480681818
  7
EXCADSTD
100
AcDbText
  0
TEXT
  5
696
330
1F
100
AcDbEntity
  8
LAY-255
  6
CONTINUOUS
 62
     7
100
AcDbText
 10
1437.109375
 20
312.8125
 30
0.0
 40
17.1875
  1
品名
 41
0.9788386340909091
  7
EXCADSTD
100
AcDbText
  0
TEXT
  5
697
330
1F
100
AcDbEntity
  8
LAY-255
  6
CONTINUOUS
 62
     7
100
AcDbText
 10
1501.015625
 20
312.8125
 30
0.0
 40
17.1875
  1
鋳鉄製グレーチング
 41
1.023970949827388
  7
EXCADSTD
100
AcDbText
  0
TEXT
  5
698
330
1F
100
AcDbEntity
  8
LAY-255
  6
CONTINUOUS
 62
     7
100
AcDbText
 10
1504.21875
 20
282.8125000000001
 30
0.0
 40
17.1875
  1
ＨＢＧ－２０６０型
 41
1.0006479146145
  7
EXCADSTD
100
AcDbText
  0
TEXT
  5
699
330
1F
100
AcDbEntity
  8
LAY-255
  6
CONTINUOUS
 62
     7
100
AcDbText
 10
1446.015625
 20
252.8125000000001
 30
0.0
 40
17.1875
  1
適用桝径：６００×６００用
 41
1.012461538972332
  7
EXCADSTD
100
AcDbText
  0
TEXT
  5
69A
330
1F
100
AcDbEntity
  8
LAY-255
  6
CONTINUOUS
 62
     7
100
AcDbText
 10
1446.875
 20
177.8125
 30
0.0
 40
17.1875
  1
受枠：鋳鉄製
 41
1.020063651398601
  7
EXCADSTD
100
AcDbText
  0
TEXT
  5
69B
330
1F
100
AcDbEntity
  8
LAY-255
  6
CONTINUOUS
 62
     7
100
AcDbText
 10
1445.859375
 20
152.8124999999999
 30
0.0
 40
17.1875
  1
破壊荷重：２０ｋＮ以上
 41
1.016600426804124
  7
EXCADSTD
100
AcDbText
  0
ENDSEC
  0
SECTION
  2
OBJECTS
  0
DICTIONARY
  5
C
330
0
100
AcDbDictionary
  3
ACAD_GROUP
350
D
  3
ACAD_LAYOUT
350
1A
  3
ACAD_MATERIAL
350
43
  3
ACAD_MLEADERSTYLE
350
6B
  3
ACAD_MLINESTYLE
350
17
  3
ACAD_PLOTSETTINGS
350
19
  3
ACAD_SCALELIST
350
47
  3
ACAD_VISUALSTYLE
350
2A
  3
ACDBHEADERROUNDTRIPXREC
350
69C
  3
ACDBVARIABLEDICTIONARY
350
6BD
  0
DICTIONARY
  5
6C8
330
8
100
AcDbDictionary
280
     1
  3
ACAD_XREC_ROUNDTRIP
360
6C9
  0
DICTIONARY
  5
D
102
{ACAD_REACTORS
330
C
102
}
330
C
100
AcDbDictionary
  0
DICTIONARY
  5
1A
102
{ACAD_REACTORS
330
C
102
}
330
C
100
AcDbDictionary
  0
DICTIONARY
  5
43
102
{ACAD_REACTORS
330
C
102
}
330
C
100
AcDbDictionary
  3
BYBLOCK
350
45
  3
BYLAYER
350
44
  3
GLOBAL
350
46
  0
DICTIONARY
  5
6B
102
{ACAD_REACTORS
330
C
102
}
330
C
100
AcDbDictionary
  3
STANDARD
350
6C
  0
DICTIONARY
  5
17
102
{ACAD_REACTORS
330
C
102
}
330
C
100
AcDbDictionary
  3
STANDARD
350
18
  0
DICTIONARY
  5
19
102
{ACAD_REACTORS
330
C
102
}
330
C
100
AcDbDictionary
  0
DICTIONARY
  5
47
102
{ACAD_REACTORS
330
C
102
}
330
C
100
AcDbDictionary
  3
A0
350
48
  3
A1
350
49
  3
A2
350
4A
  3
A3
350
4B
  3
A4
350
4C
  3
A5
350
4D
  3
A6
350
4E
  3
A7
350
4F
  3
A8
350
50
  3
A9
350
51
  3
B0
350
52
  3
B1
350
53
  3
B2
350
54
  3
B3
350
55
  3
B4
350
56
  3
B5
350
57
  3
B6
350
58
  3
B7
350
59
  3
B8
350
5A
  3
B9
350
5B
  3
C0
350
5C
  3
C1
350
5D
  3
C2
350
5E
  3
C3
350
5F
  3
C4
350
60
  3
C5
350
61
  3
C6
350
62
  3
C7
350
63
  3
C8
350
64
  3
C9
350
65
  3
D0
350
66
  3
D1
350
67
  3
D2
350
68
  0
DICTIONARY
  5
2A
102
{ACAD_REACTORS
330
C
102
}
330
C
100
AcDbDictionary
  3
2DWIREFRAME
350
2F
  3
BASIC
350
32
  3
BRIGHTEN
350
36
  3
COLORCHANGE
350
3A
  3
CONCEPTUAL
350
34
  3
DIM
350
35
  3
EDGECOLOROFF
350
3D
  3
FACEPATTERN
350
39
  3
FLAT
350
2B
  3
FLATWITHEDGES
350
2C
  3
GOURAUD
350
2D
  3
GOURAUDWITHEDGES
350
2E
  3
HIDDEN
350
31
  3
JITTEROFF
350
3B
  3
LINEPATTERN
350
38
  3
OVERHANGOFF
350
3C
  3
REALISTIC
350
33
  3
SHADED
350
42
  3
SHADED_WITH_EDGES
350
41
  3
SHADES_OF_GRAY
350
3E
  3
SKETCHY
350
3F
  3
THICKEN
350
37
  3
WIREFRAME
350
30
  3
X-RAY
350
40
  0
DICTIONARY
  5
69C
102
{ACAD_REACTORS
330
C
102
}
330
C
100
AcDbDictionary
  3
CEPSNID
350
6A6
  3
CEPSNTYPE
350
6A5
  3
DIMSTYLEDATA
350
6BC
  3
FINGERPRINTGUID
350
6A7
  3
HYPERLINKBASE
350
69F
  3
INSUNITS
350
6A4
  3
LAYOUTDICT
350
6A1
  3
LWETCUNION
350
6A3
  3
PLOTSETDICT
350
6A2
  3
PSVPSCALE
350
6A9
  3
PUCSBASE
350
6AC
  3
PUCSORGBACK
350
6B2
  3
PUCSORGBOTTOM
350
6AE
  3
PUCSORGFRONT
350
6B1
  3
PUCSORGLEFT
350
6AF
  3
PUCSORGRIGHT
350
6B0
  3
PUCSORGTOP
350
6AD
  3
PUCSORTHOREF
350
6AA
  3
PUCSORTHOVIEW
350
6AB
  3
STYLESHEET
350
6A0
  3
TSTACKALIGN
350
69D
  3
TSTACKSIZE
350
69E
  3
UCSBASE
350
6B5
  3
UCSORGBACK
350
6BB
  3
UCSORGBOTTOM
350
6B7
  3
UCSORGFRONT
350
6BA
  3
UCSORGLEFT
350
6B8
  3
UCSORGRIGHT
350
6B9
  3
UCSORGTOP
350
6B6
  3
UCSORTHOREF
350
6B3
  3
UCSORTHOVIEW
350
6B4
  3
VERSIONGUID
350
6A8
  0
DICTIONARY
  5
6BD
102
{ACAD_REACTORS
330
C
102
}
330
C
100
AcDbDictionary
  3
CANNOSCALE
350
6CA
  3
CENTEREXE
350
6C4
  3
CENTERLTYPEFILE
350
6C5
  3
CMLEADERSTYLE
350
6BF
  3
CTABLESTYLE
350
6BE
  3
DIMASSOC
350
6C6
  3
HIDETEXT
350
6C7
  3
MSLTSCALE
350
6CB
  3
PSOLHEIGHT
350
6C1
  3
PSOLWIDTH
350
6C0
  0
XRECORD
  5
6C9
102
{ACAD_REACTORS
330
6C8
102
}
330
6C8
100
AcDbXrecord
102
VTR_0.000_0.000_1.000_1.000_VISUALSTYLE
340
2F
102
VTR_0.000_0.000_1.000_1.000_GRIDDISPLAY
 70
     3
102
VTR_0.000_0.000_1.000_1.000_GRIDMAJOR
 70
     5
102
VTR_0.000_0.000_1.000_1.000_DEFAULTLIGHTING
280
     1
102
VTR_0.000_0.000_1.000_1.000_DEFAULTLIGHTINGTYPE
 70
     1
102
VTR_0.000_0.000_1.000_1.000_BRIGHTNESS
141
0.0
102
VTR_0.000_0.000_1.000_1.000_CONTRAST
142
0.0
  0
MATERIAL
  5
45
102
{ACAD_REACTORS
330
43
102
}
102
{ACAD_XDICTIONARY
360
6CE
102
}
330
43
100
AcDbMaterial
  1
BYBLOCK
  0
MATERIAL
  5
44
102
{ACAD_REACTORS
330
43
102
}
102
{ACAD_XDICTIONARY
360
6CC
102
}
330
43
100
AcDbMaterial
  1
BYLAYER
  0
MATERIAL
  5
46
102
{ACAD_REACTORS
330
43
102
}
102
{ACAD_XDICTIONARY
360
6D0
102
}
330
43
100
AcDbMaterial
  1
GLOBAL
  0
ACAD_PROXY_OBJECT
  5
6C
102
{ACAD_REACTORS
330
6B
102
}
330
6B
100
AcDbProxyObject
 90
      499
 91
      505
 93
      610
310
40901902A4063FBFFFFFE0000000000000020400000000000020404214DD185B99185C990000000000000104090141901A00000000000004100000000000000041025764000000000000039000
340
14
340
0
340
11
340
0
 94
        0
1001
ACAD_MLEADERVER
1070
     2
  0
MLINESTYLE
  5
18
102
{ACAD_REACTORS
330
17
102
}
330
17
100
AcDbMlineStyle
  2
Standard
 70
     0
  3

 62
   256
 51
90.0
 52
90.0
 71
     2
 49
0.5
 62
   256
  6
BYLAYER
 49
-0.5
 62
   256
  6
BYLAYER
  0
ACAD_PROXY_OBJECT
  5
48
102
{ACAD_REACTORS
330
47
102
}
330
47
100
AcDbProxyObject
 90
      499
 91
      503
 93
       41
310
903313A31580
  0
ACAD_PROXY_OBJECT
  5
49
102
{ACAD_REACTORS
330
47
102
}
330
47
100
AcDbProxyObject
 90
      499
 91
      503
 93
      105
310
903313A324000000000000004000
  0
ACAD_PROXY_OBJECT
  5
4A
102
{ACAD_REACTORS
330
47
102
}
330
47
100
AcDbProxyObject
 90
      499
 91
      503
 93
      105
310
903313A344000000000000104000
  0
ACAD_PROXY_OBJECT
  5
4B
102
{ACAD_REACTORS
330
47
102
}
330
47
100
AcDbProxyObject
 90
      499
 91
      503
 93
      105
310
903313A354000000000000144000
  0
ACAD_PROXY_OBJECT
  5
4C
102
{ACAD_REACTORS
330
47
102
}
330
47
100
AcDbProxyObject
 90
      499
 91
      503
 93
      105
310
903313A384000000000000204000
  0
ACAD_PROXY_OBJECT
  5
4D
102
{ACAD_REACTORS
330
47
102
}
330
47
100
AcDbProxyObject
 90
      499
 91
      503
 93
      113
310
904313A31304000000000000244000
  0
ACAD_PROXY_OBJECT
  5
4E
102
{ACAD_REACTORS
330
47
102
}
330
47
100
AcDbProxyObject
 90
      499
 91
      503
 93
      113
310
904313A31364000000000000304000
  0
ACAD_PROXY_OBJECT
  5
4F
102
{ACAD_REACTORS
330
47
102
}
330
47
100
AcDbProxyObject
 90
      499
 91
      503
 93
      113
310
904313A32304000000000000344000
  0
ACAD_PROXY_OBJECT
  5
50
102
{ACAD_REACTORS
330
47
102
}
330
47
100
AcDbProxyObject
 90
      499
 91
      503
 93
      113
310
904313A333040000000000003E4000
  0
ACAD_PROXY_OBJECT
  5
51
102
{ACAD_REACTORS
330
47
102
}
330
47
100
AcDbProxyObject
 90
      499
 91
      503
 93
      113
310
904313A34304000000000000444000
  0
ACAD_PROXY_OBJECT
  5
52
102
{ACAD_REACTORS
330
47
102
}
330
47
100
AcDbProxyObject
 90
      499
 91
      503
 93
      113
310
904313A35304000000000000494000
  0
ACAD_PROXY_OBJECT
  5
53
102
{ACAD_REACTORS
330
47
102
}
330
47
100
AcDbProxyObject
 90
      499
 91
      503
 93
      121
310
905313A3130304000000000000594000
  0
ACAD_PROXY_OBJECT
  5
54
102
{ACAD_REACTORS
330
47
102
}
330
47
100
AcDbProxyObject
 90
      499
 91
      503
 93
      105
310
903323A310000000000000010100
  0
ACAD_PROXY_OBJECT
  5
55
102
{ACAD_REACTORS
330
47
102
}
330
47
100
AcDbProxyObject
 90
      499
 91
      503
 93
      105
310
903343A310000000000000410100
  0
ACAD_PROXY_OBJECT
  5
56
102
{ACAD_REACTORS
330
47
102
}
330
47
100
AcDbProxyObject
 90
      499
 91
      503
 93
      105
310
903383A310000000000000810100
  0
ACAD_PROXY_OBJECT
  5
57
102
{ACAD_REACTORS
330
47
102
}
330
47
100
AcDbProxyObject
 90
      499
 91
      503
 93
      113
310
90431303A310000000000000910100
  0
ACAD_PROXY_OBJECT
  5
58
102
{ACAD_REACTORS
330
47
102
}
330
47
100
AcDbProxyObject
 90
      499
 91
      503
 93
      121
310
9053130303A310000000000001650100
  0
ACAD_PROXY_OBJECT
  5
59
102
{ACAD_REACTORS
330
47
102
}
330
47
100
AcDbProxyObject
 90
      499
 91
      503
 93
      257
310
90E312F31323822203D2031272D3022000000000000200FC000000000000284000
  0
ACAD_PROXY_OBJECT
  5
5A
102
{ACAD_REACTORS
330
47
102
}
330
47
100
AcDbProxyObject
 90
      499
 91
      503
 93
      249
310
90D312F363422203D2031272D3022000000000000240FC000000000000284000
  0
ACAD_PROXY_OBJECT
  5
5B
102
{ACAD_REACTORS
330
47
102
}
330
47
100
AcDbProxyObject
 90
      499
 91
      503
 93
      249
310
90D312F333222203D2031272D3022000000000000280FC000000000000284000
  0
ACAD_PROXY_OBJECT
  5
5C
102
{ACAD_REACTORS
330
47
102
}
330
47
100
AcDbProxyObject
 90
      499
 91
      503
 93
      249
310
90D312F313622203D2031272D30220000000000002C0FC000000000000284000
  0
ACAD_PROXY_OBJECT
  5
5D
102
{ACAD_REACTORS
330
47
102
}
330
47
100
AcDbProxyObject
 90
      499
 91
      503
 93
      249
310
90D332F333222203D2031272D30220000000000002E0FC000000000000284000
  0
ACAD_PROXY_OBJECT
  5
5E
102
{ACAD_REACTORS
330
47
102
}
330
47
100
AcDbProxyObject
 90
      499
 91
      503
 93
      241
310
90C312F3822203D2031272D3022000000000000300FC000000000000284000
  0
ACAD_PROXY_OBJECT
  5
5F
102
{ACAD_REACTORS
330
47
102
}
330
47
100
AcDbProxyObject
 90
      499
 91
      503
 93
      249
310
90D332F313622203D2031272D3022000000000000320FC000000000000284000
  0
ACAD_PROXY_OBJECT
  5
60
102
{ACAD_REACTORS
330
47
102
}
330
47
100
AcDbProxyObject
 90
      499
 91
      503
 93
      241
310
90C312F3422203D2031272D3022000000000000340FC000000000000284000
  0
ACAD_PROXY_OBJECT
  5
61
102
{ACAD_REACTORS
330
47
102
}
330
47
100
AcDbProxyObject
 90
      499
 91
      503
 93
      241
310
90C332F3822203D2031272D3022000000000000360FC000000000000284000
  0
ACAD_PROXY_OBJECT
  5
62
102
{ACAD_REACTORS
330
47
102
}
330
47
100
AcDbProxyObject
 90
      499
 91
      503
 93
      241
310
90C312F3222203D2031272D3022000000000000380FC000000000000284000
  0
ACAD_PROXY_OBJECT
  5
63
102
{ACAD_REACTORS
330
47
102
}
330
47
100
AcDbProxyObject
 90
      499
 91
      503
 93
      241
310
90C332F3422203D2031272D30220000000000003A0FC000000000000284000
  0
ACAD_PROXY_OBJECT
  5
64
102
{ACAD_REACTORS
330
47
102
}
330
47
100
AcDbProxyObject
 90
      499
 91
      503
 93
      161
310
90A3122203D2031272D30224000000000000284000
  0
ACAD_PROXY_OBJECT
  5
65
102
{ACAD_REACTORS
330
47
102
}
330
47
100
AcDbProxyObject
 90
      499
 91
      503
 93
      257
310
90E312D312F3222203D2031272D30220000000000003E0FC000000000000284000
  0
ACAD_PROXY_OBJECT
  5
66
102
{ACAD_REACTORS
330
47
102
}
330
47
100
AcDbProxyObject
 90
      499
 91
      503
 93
      225
310
90A3322203D2031272D302200000000000002100000000000000284000
  0
ACAD_PROXY_OBJECT
  5
67
102
{ACAD_REACTORS
330
47
102
}
330
47
100
AcDbProxyObject
 90
      499
 91
      503
 93
      225
310
90A3622203D2031272D302200000000000006100000000000000284000
  0
ACAD_PROXY_OBJECT
  5
68
102
{ACAD_REACTORS
330
47
102
}
330
47
100
AcDbProxyObject
 90
      499
 91
      503
 93
      249
310
90D31272D3022203D2031272D30220000000000000A100000000000000284000
  0
ACAD_PROXY_OBJECT
  5
2F
102
{ACAD_REACTORS
330
2A
102
}
330
2A
100
AcDbProxyObject
 90
      499
 91
      501
 93
      436
310
42CC9915DA5C99599C985B595049028333333333333E33F0000000000000F90107901411070040501600405405064090741402480A0340
1001
ACAD
1000
AcDbSavedByObjectVersion
1070
     0
  0
ACAD_PROXY_OBJECT
  5
32
102
{ACAD_REACTORS
330
2A
102
}
330
2A
100
AcDbProxyObject
 90
      499
 91
      501
 93
      388
310
4150985CDA58D07406404333333333333E33F0000000000000F90107A41107004050150841D405064090741402480A0350
1001
ACAD
1000
AcDbSavedByObjectVersion
1070
     0
  0
ACAD_PROXY_OBJECT
  5
36
102
{ACAD_REACTORS
330
2A
102
}
330
2A
100
AcDbProxyObject
 90
      499
 91
      501
 93
      428
310
42109C9A59DA1D195B90C409028333333333333E33F0000000000000F9010790141107004050150841D405064090741402480A029950
1001
ACAD
1000
AcDbSavedByObjectVersion
1070
     0
  0
ACAD_PROXY_OBJECT
  5
3A
102
{ACAD_REACTORS
330
2A
102
}
330
2A
100
AcDbProxyObject
 90
      499
 91
      501
 93
      452
310
42D0DBDB1BDC90DA185B99D95104090240C333333333333E33F0000000000000F90108901411070040501508421405064090741402480A0350
1001
ACAD
1000
AcDbSavedByObjectVersion
1070
     0
  0
ACAD_PROXY_OBJECT
  5
34
102
{ACAD_REACTORS
330
2A
102
}
330
2A
100
AcDbProxyObject
 90
      499
 91
      501
 93
      500
310
4290DBDB98D95C1D1D585B10940D028333333333333E33F0000000000000F90107902409070040501000000000018199010841D405064090740C02480A0340
1001
ACAD
1000
AcDbSavedByObjectVersion
1070
     0
  0
ACAD_PROXY_OBJECT
  5
35
102
{ACAD_REACTORS
330
2A
102
}
330
2A
100
AcDbProxyObject
 90
      499
 91
      501
 93
      412
310
40D11A5B50B409028333333333333E33F0000000000000F9010790141107004050150841D405064090741402480A02677FFFFFD0
1001
ACAD
1000
AcDbSavedByObjectVersion
1070
     0
  0
ACAD_PROXY_OBJECT
  5
3D
102
{ACAD_REACTORS
330
2A
102
}
330
2A
100
AcDbProxyObject
 90
      499
 91
      501
 93
      452
310
43115919D950DBDB1BDC93D999916409028333333333333E33F0000000000000F9010790141107004050150841D405064090741402480A0350
1001
ACAD
1000
AcDbSavedByObjectVersion
1070
     0
  0
ACAD_PROXY_OBJECT
  5
39
102
{ACAD_REACTORS
330
2A
102
}
330
2A
100
AcDbProxyObject
 90
      499
 91
      501
 93
      444
310
42D19858D95C185D1D195C9B90F409028333333333333E33F0000000000000F9010790141107004050150841D405064090741402480A0350
1001
ACAD
1000
AcDbSavedByObjectVersion
1070
     0
  0
ACAD_PROXY_OBJECT
  5
2B
102
{ACAD_REACTORS
330
2A
102
}
330
2A
100
AcDbProxyObject
 90
      499
 91
      501
 93
      380
310
41119B185D240901404333333333333E33F0000000000000F9010740A907004050150841D405064090741402480A1B50
1001
ACAD
1000
AcDbSavedByObjectVersion
1070
     0
  0
ACAD_PROXY_OBJECT
  5
2C
102
{ACAD_REACTORS
330
2A
102
}
330
2A
100
AcDbProxyObject
 90
      499
 91
      501
 93
      468
310
43519B185D15DA5D1A115919D95CD0140901404333333333333E33F0000000000000F90107409019070040501600405405064090741402480A1B50
1001
ACAD
1000
AcDbSavedByObjectVersion
1070
     0
  0
ACAD_PROXY_OBJECT
  5
2D
102
{ACAD_REACTORS
330
2A
102
}
330
2A
100
AcDbProxyObject
 90
      499
 91
      501
 93
      404
310
41D1DBDD5C985D5910240902404333333333333E33F0000000000000F9010740A9070040501641D405064090741402480A1B50
1001
ACAD
1000
AcDbSavedByObjectVersion
1070
     0
  0
ACAD_PROXY_OBJECT
  5
2E
102
{ACAD_REACTORS
330
2A
102
}
330
2A
100
AcDbProxyObject
 90
      499
 91
      501
 93
      492
310
4411DBDD5C985D5915DA5D1A115919D95CD0340902404333333333333E33F0000000000000F90107409019070040501600405405064090741402480A1B50
1001
ACAD
1000
AcDbSavedByObjectVersion
1070
     0
  0
ACAD_PROXY_OBJECT
  5
31
102
{ACAD_REACTORS
330
2A
102
}
330
2A
100
AcDbProxyObject
 90
      499
 91
      501
 93
      476
310
41921A5919195B90640502408333333333333E33F0000000000000F901079024090700405020000000000001110200405405064090740C02480A0340
1001
ACAD
1000
AcDbSavedByObjectVersion
1070
     0
  0
ACAD_PROXY_OBJECT
  5
3B
102
{ACAD_REACTORS
330
2A
102
}
330
2A
100
AcDbProxyObject
 90
      499
 91
      501
 93
      428
310
42529A5D1D195C93D999914409028333333333333E33F0000000000000F9010790141107004050150A41D405064090741402480A0350
1001
ACAD
1000
AcDbSavedByObjectVersion
1070
     0
  0
ACAD_PROXY_OBJECT
  5
38
102
{ACAD_REACTORS
330
2A
102
}
330
2A
100
AcDbProxyObject
 90
      499
 91
      501
 93
      444
310
42D31A5B995C185D1D195C9B90E409028333333333333E33F0000000000000F9010790141107004050750841D405064090741402483A0350
1001
ACAD
1000
AcDbSavedByObjectVersion
1070
     0
  0
ACAD_PROXY_OBJECT
  5
3C
102
{ACAD_REACTORS
330
2A
102
}
330
2A
100
AcDbProxyObject
 90
      499
 91
      501
 93
      444
310
42D3DD995C9A185B99D3D999915409028333333333333E33F0000000000000F9010790141107004050150941D405064090741402480A0350
1001
ACAD
1000
AcDbSavedByObjectVersion
1070
     0
  0
ACAD_PROXY_OBJECT
  5
33
102
{ACAD_REACTORS
330
2A
102
}
330
2A
100
AcDbProxyObject
 90
      499
 91
      501
 93
      428
310
425499585B1A5CDD1A58D08409038333333333333E33F0000000000000F9010740A907004050150800405405064090740C02480A1B40
1001
ACAD
1000
AcDbSavedByObjectVersion
1070
     0
  0
ACAD_PROXY_OBJECT
  5
42
102
{ACAD_REACTORS
330
2A
102
}
330
2A
100
AcDbProxyObject
 90
      499
 91
      501
 93
      420
310
4194DA1859195911B40902404333333333333E33F0000000000000F9010740A41107004050150800405405064090840C02480A0B40
1001
ACAD
1000
AcDbSavedByObjectVersion
1070
     0
  0
ACAD_PROXY_OBJECT
  5
41
102
{ACAD_REACTORS
330
2A
102
}
330
2A
100
AcDbProxyObject
 90
      499
 91
      501
 93
      516
310
4454DA18591959081DDA5D1A08195919D95CD1A40902404333333333333E33F0000000000000F901074090142907004050250800405405064090740C02480A0B40
1001
ACAD
1000
AcDbSavedByObjectVersion
1070
     0
  0
ACAD_PROXY_OBJECT
  5
3E
102
{ACAD_REACTORS
330
2A
102
}
330
2A
100
AcDbProxyObject
 90
      499
 91
      501
 93
      532
310
4394DA1859195CC81BD98811DC985E5174090240C333333333333E33F0000000000000F901079024090741D01000000000000111010841D405064090740C02480A0340
1001
ACAD
1000
AcDbSavedByObjectVersion
1070
     0
  0
ACAD_PROXY_OBJECT
  5
3F
102
{ACAD_REACTORS
330
2A
102
}
330
2A
100
AcDbProxyObject
 90
      499
 91
      501
 93
      476
310
41D4DAD95D18DA1E51840502408333333333333E33F0000000000000F901079024090741D01000000000000111010B41D405064090741802480A0340
1001
ACAD
1000
AcDbSavedByObjectVersion
1070
     0
  0
ACAD_PROXY_OBJECT
  5
37
102
{ACAD_REACTORS
330
2A
102
}
330
2A
100
AcDbProxyObject
 90
      499
 91
      501
 93
      412
310
41D51A1A58DAD95B90D409028333333333333E33F0000000000000F9010790141107004050150C41D405064090741402480A0350
1001
ACAD
1000
AcDbSavedByObjectVersion
1070
     0
  0
ACAD_PROXY_OBJECT
  5
30
102
{ACAD_REACTORS
330
2A
102
}
330
2A
100
AcDbProxyObject
 90
      499
 91
      501
 93
      420
310
4255DA5C99599C985B595059028333333333333E33F0000000000000F90107901411070040501600405405064090740C02480A0340
1001
ACAD
1000
AcDbSavedByObjectVersion
1070
     0
  0
ACAD_PROXY_OBJECT
  5
40
102
{ACAD_REACTORS
330
2A
102
}
330
2A
100
AcDbProxyObject
 90
      499
 91
      501
 93
      404
310
41560B54985E51940902404000000000000E03F0000000000000F9010740501907004050150841D405064090740C02480A1B40
1001
ACAD
1000
AcDbSavedByObjectVersion
1070
     0
  0
XRECORD
  5
6A6
102
{ACAD_REACTORS
330
69C
102
}
330
69C
100
AcDbXrecord
340
0
  0
XRECORD
  5
6A5
102
{ACAD_REACTORS
330
69C
102
}
330
69C
100
AcDbXrecord
 90
        0
  0
XRECORD
  5
6BC
102
{ACAD_REACTORS
330
69C
102
}
330
69C
100
AcDbXrecord
1000
DSTYLE
1002
{
1070
   340
340
11
1002
}
  0
XRECORD
  5
6A7
102
{ACAD_REACTORS
330
69C
102
}
330
69C
100
AcDbXrecord
  1
{16e72e43-10e2-4fd9-8caf-06c70c29d31f}
  0
XRECORD
  5
69F
102
{ACAD_REACTORS
330
69C
102
}
330
69C
100
AcDbXrecord
  1

  0
XRECORD
  5
6A4
102
{ACAD_REACTORS
330
69C
102
}
330
69C
100
AcDbXrecord
 90
        4
  0
XRECORD
  5
6A1
102
{ACAD_REACTORS
330
69C
102
}
330
69C
100
AcDbXrecord
340
1A
  0
XRECORD
  5
6A3
102
{ACAD_REACTORS
330
69C
102
}
330
69C
100
AcDbXrecord
 90
    10781
  0
XRECORD
  5
6A2
102
{ACAD_REACTORS
330
69C
102
}
330
69C
100
AcDbXrecord
340
19
  0
XRECORD
  5
6A9
102
{ACAD_REACTORS
330
69C
102
}
330
69C
100
AcDbXrecord
 40
0.0
  0
XRECORD
  5
6AC
102
{ACAD_REACTORS
330
69C
102
}
330
69C
100
AcDbXrecord
340
0
  0
XRECORD
  5
6B2
102
{ACAD_REACTORS
330
69C
102
}
330
69C
100
AcDbXrecord
 10
0.0
 20
0.0
 30
0.0
  0
XRECORD
  5
6AE
102
{ACAD_REACTORS
330
69C
102
}
330
69C
100
AcDbXrecord
 10
0.0
 20
0.0
 30
0.0
  0
XRECORD
  5
6B1
102
{ACAD_REACTORS
330
69C
102
}
330
69C
100
AcDbXrecord
 10
0.0
 20
0.0
 30
0.0
  0
XRECORD
  5
6AF
102
{ACAD_REACTORS
330
69C
102
}
330
69C
100
AcDbXrecord
 10
0.0
 20
0.0
 30
0.0
  0
XRECORD
  5
6B0
102
{ACAD_REACTORS
330
69C
102
}
330
69C
100
AcDbXrecord
 10
0.0
 20
0.0
 30
0.0
  0
XRECORD
  5
6AD
102
{ACAD_REACTORS
330
69C
102
}
330
69C
100
AcDbXrecord
 10
0.0
 20
0.0
 30
0.0
  0
XRECORD
  5
6AA
102
{ACAD_REACTORS
330
69C
102
}
330
69C
100
AcDbXrecord
340
0
  0
XRECORD
  5
6AB
102
{ACAD_REACTORS
330
69C
102
}
330
69C
100
AcDbXrecord
 70
     0
  0
XRECORD
  5
6A0
102
{ACAD_REACTORS
330
69C
102
}
330
69C
100
AcDbXrecord
  1

  0
XRECORD
  5
69D
102
{ACAD_REACTORS
330
69C
102
}
330
69C
100
AcDbXrecord
 90
        1
  0
XRECORD
  5
69E
102
{ACAD_REACTORS
330
69C
102
}
330
69C
100
AcDbXrecord
 90
       70
  0
XRECORD
  5
6B5
102
{ACAD_REACTORS
330
69C
102
}
330
69C
100
AcDbXrecord
340
0
  0
XRECORD
  5
6BB
102
{ACAD_REACTORS
330
69C
102
}
330
69C
100
AcDbXrecord
 10
0.0
 20
0.0
 30
0.0
  0
XRECORD
  5
6B7
102
{ACAD_REACTORS
330
69C
102
}
330
69C
100
AcDbXrecord
 10
0.0
 20
0.0
 30
0.0
  0
XRECORD
  5
6BA
102
{ACAD_REACTORS
330
69C
102
}
330
69C
100
AcDbXrecord
 10
0.0
 20
0.0
 30
0.0
  0
XRECORD
  5
6B8
102
{ACAD_REACTORS
330
69C
102
}
330
69C
100
AcDbXrecord
 10
0.0
 20
0.0
 30
0.0
  0
XRECORD
  5
6B9
102
{ACAD_REACTORS
330
69C
102
}
330
69C
100
AcDbXrecord
 10
0.0
 20
0.0
 30
0.0
  0
XRECORD
  5
6B6
102
{ACAD_REACTORS
330
69C
102
}
330
69C
100
AcDbXrecord
 10
0.0
 20
0.0
 30
0.0
  0
XRECORD
  5
6B3
102
{ACAD_REACTORS
330
69C
102
}
330
69C
100
AcDbXrecord
340
0
  0
XRECORD
  5
6B4
102
{ACAD_REACTORS
330
69C
102
}
330
69C
100
AcDbXrecord
 70
     0
  0
XRECORD
  5
6A8
102
{ACAD_REACTORS
330
69C
102
}
330
69C
100
AcDbXrecord
  1
{FAEB1C32-E019-11D5-929B-00C0DF256EC4}
  0
DICTIONARYVAR
  5
6CA
102
{ACAD_REACTORS
330
6BD
102
}
330
6BD
100
DictionaryVariables
280
     0
  1
1:1
  0
DICTIONARYVAR
  5
6C4
102
{ACAD_REACTORS
330
6BD
102
}
330
6BD
100
DictionaryVariables
280
     0
  1
3.500000
  0
DICTIONARYVAR
  5
6C5
102
{ACAD_REACTORS
330
6BD
102
}
330
6BD
100
DictionaryVariables
280
     0
  1
acadiso.lin
  0
DICTIONARYVAR
  5
6BF
102
{ACAD_REACTORS
330
6BD
102
}
330
6BD
100
DictionaryVariables
280
     0
  1
Standard
  0
DICTIONARYVAR
  5
6BE
102
{ACAD_REACTORS
330
6BD
102
}
330
6BD
100
DictionaryVariables
280
     0
  1
Standard
  0
DICTIONARYVAR
  5
6C6
102
{ACAD_REACTORS
330
6BD
102
}
330
6BD
100
DictionaryVariables
280
     0
  1
2
  0
DICTIONARYVAR
  5
6C7
102
{ACAD_REACTORS
330
6BD
102
}
330
6BD
100
DictionaryVariables
280
     0
  1
1
  0
DICTIONARYVAR
  5
6CB
102
{ACAD_REACTORS
330
6BD
102
}
330
6BD
100
DictionaryVariables
280
     0
  1
1
  0
DICTIONARYVAR
  5
6C1
102
{ACAD_REACTORS
330
6BD
102
}
330
6BD
100
DictionaryVariables
280
     0
  1
80.000000
  0
DICTIONARYVAR
  5
6C0
102
{ACAD_REACTORS
330
6BD
102
}
330
6BD
100
DictionaryVariables
280
     0
  1
5.000000
  0
DICTIONARY
  5
6CE
330
45
100
AcDbDictionary
280
     1
  3
ACAD_XREC_ROUNDTRIP
360
6CF
  0
DICTIONARY
  5
6CC
330
44
100
AcDbDictionary
280
     1
  3
ACAD_XREC_ROUNDTRIP
360
6CD
  0
DICTIONARY
  5
6D0
330
46
100
AcDbDictionary
280
     1
  3
ACAD_XREC_ROUNDTRIP
360
6D1
  0
XRECORD
  5
6CF
102
{ACAD_REACTORS
330
6CE
102
}
330
6CE
100
AcDbXrecord
102
MATERIAL
148
0.0
149
0.0
149
0.0
 93
        0
 94
      127
282
     0
 72
     1
 77
     1
171
     1
175
     1
179
     1
273
     0
  0
XRECORD
  5
6CD
102
{ACAD_REACTORS
330
6CC
102
}
330
6CC
100
AcDbXrecord
102
MATERIAL
148
0.0
149
0.0
149
0.0
 93
        0
 94
      127
282
     0
 72
     1
 77
     1
171
     1
175
     1
179
     1
273
     0
  0
XRECORD
  5
6D1
102
{ACAD_REACTORS
330
6D0
102
}
330
6D0
100
AcDbXrecord
102
MATERIAL
148
0.0
149
0.0
149
0.0
 93
        0
 94
      127
282
     0
 72
     1
 77
     1
171
     1
175
     1
179
     1
273
     0
  0
ENDSEC
  0
EOF
