  0
SECTION
  2
HEADER
  9
$ACADVER
  1
AC1014
  9
$ACADMAINTVER
 70
     9
  9
$DWGCODEPAGE
  3
ANSI_932
  9
$INSBASE
 10
0.0
 20
0.0
 30
0.0
  9
$EXTMIN
 10
-1804.9
 20
50.0
 30
0.0
  9
$EXTMAX
 10
1925.0
 20
1400.0
 30
0.0
  9
$LIMMIN
 10
0.0
 20
0.0
  9
$LIMMAX
 10
420.0
 20
297.0
  9
$ORTHOMODE
 70
     0
  9
$REGENMODE
 70
     1
  9
$FILLMODE
 70
     1
  9
$QTEXTMODE
 70
     0
  9
$MIRRTEXT
 70
     1
  9
$DRAGMODE
 70
     2
  9
$LTSCALE
 40
0.2
  9
$OSMODE
 70
    37
  9
$ATTMODE
 70
     1
  9
$TEXTSIZE
 40
2.5
  9
$TRACEWID
 40
1.0
  9
$TEXTSTYLE
  7
STANDARD
  9
$CLAYER
  8
LAY-10
  9
$CELTYPE
  6
BYLAYER
  9
$CECOLOR
 62
   256
  9
$CELTSCALE
 40
1.0
  9
$DELOBJ
 70
     1
  9
$DISPSILH
 70
     0
  9
$DIMSCALE
 40
1.0
  9
$DIMASZ
 40
2.5
  9
$DIMEXO
 40
0.625
  9
$DIMDLI
 40
3.75
  9
$DIMRND
 40
0.0
  9
$DIMDLE
 40
0.0
  9
$DIMEXE
 40
1.25
  9
$DIMTP
 40
0.0
  9
$DIMTM
 40
0.0
  9
$DIMTXT
 40
2.5
  9
$DIMCEN
 40
2.5
  9
$DIMTSZ
 40
0.0
  9
$DIMTOL
 70
     0
  9
$DIMLIM
 70
     0
  9
$DIMTIH
 70
     0
  9
$DIMTOH
 70
     0
  9
$DIMSE1
 70
     0
  9
$DIMSE2
 70
     0
  9
$DIMTAD
 70
     1
  9
$DIMZIN
 70
     8
  9
$DIMBLK
  1

  9
$DIMASO
 70
     1
  9
$DIMSHO
 70
     1
  9
$DIMPOST
  1

  9
$DIMAPOST
  1

  9
$DIMALT
 70
     0
  9
$DIMALTD
 70
     3
  9
$DIMALTF
 40
0.03937007874016
  9
$DIMLFAC
 40
1.0
  9
$DIMTOFL
 70
     1
  9
$DIMTVP
 40
0.0
  9
$DIMTIX
 70
     0
  9
$DIMSOXD
 70
     0
  9
$DIMSAH
 70
     0
  9
$DIMBLK1
  1

  9
$DIMBLK2
  1

  9
$DIMSTYLE
  2
ISO-25
  9
$DIMCLRD
 70
     0
  9
$DIMCLRE
 70
     0
  9
$DIMCLRT
 70
     0
  9
$DIMTFAC
 40
1.0
  9
$DIMGAP
 40
0.625
  9
$DIMJUST
 70
     0
  9
$DIMSD1
 70
     0
  9
$DIMSD2
 70
     0
  9
$DIMTOLJ
 70
     0
  9
$DIMTZIN
 70
     8
  9
$DIMALTZ
 70
     0
  9
$DIMALTTZ
 70
     0
  9
$DIMFIT
 70
     3
  9
$DIMUPT
 70
     0
  9
$DIMUNIT
 70
     2
  9
$DIMDEC
 70
     2
  9
$DIMTDEC
 70
     2
  9
$DIMALTU
 70
     2
  9
$DIMALTTD
 70
     3
  9
$DIMTXSTY
  7
STANDARD
  9
$DIMAUNIT
 70
     0
  9
$LUNITS
 70
     2
  9
$LUPREC
 70
     4
  9
$SKETCHINC
 40
1.0
  9
$FILLETRAD
 40
10.0
  9
$AUNITS
 70
     0
  9
$AUPREC
 70
     0
  9
$MENU
  1
.
  9
$ELEVATION
 40
0.0
  9
$PELEVATION
 40
0.0
  9
$THICKNESS
 40
0.0
  9
$LIMCHECK
 70
     0
  9
$CHAMFERA
 40
0.0
  9
$CHAMFERB
 40
0.0
  9
$CHAMFERC
 40
0.0
  9
$CHAMFERD
 40
0.0
  9
$SKPOLY
 70
     0
  9
$TDCREATE
 40
2459229.336258264
  9
$TDUPDATE
 40
2459229.336258715
  9
$TDINDWG
 40
0.0000000116
  9
$TDUSRTIMER
 40
0.0000000116
  9
$USRTIMER
 70
     1
  9
$ANGBASE
 50
0.0
  9
$ANGDIR
 70
     0
  9
$PDMODE
 70
     0
  9
$PDSIZE
 40
0.0
  9
$PLINEWID
 40
0.0
  9
$COORDS
 70
     1
  9
$SPLFRAME
 70
     0
  9
$SPLINETYPE
 70
     6
  9
$SPLINESEGS
 70
     8
  9
$ATTDIA
 70
     0
  9
$ATTREQ
 70
     1
  9
$HANDLING
 70
     1
  9
$HANDSEED
  5
420
  9
$SURFTAB1
 70
     6
  9
$SURFTAB2
 70
     6
  9
$SURFTYPE
 70
     6
  9
$SURFU
 70
     6
  9
$SURFV
 70
     6
  9
$UCSNAME
  2

  9
$UCSORG
 10
0.0
 20
0.0
 30
0.0
  9
$UCSXDIR
 10
1.0
 20
0.0
 30
0.0
  9
$UCSYDIR
 10
0.0
 20
1.0
 30
0.0
  9
$PUCSNAME
  2

  9
$PUCSORG
 10
0.0
 20
0.0
 30
0.0
  9
$PUCSXDIR
 10
1.0
 20
0.0
 30
0.0
  9
$PUCSYDIR
 10
0.0
 20
1.0
 30
0.0
  9
$USERI1
 70
     0
  9
$USERI2
 70
     0
  9
$USERI3
 70
     0
  9
$USERI4
 70
     0
  9
$USERI5
 70
     0
  9
$USERR1
 40
0.0
  9
$USERR2
 40
0.0
  9
$USERR3
 40
0.0
  9
$USERR4
 40
0.0
  9
$USERR5
 40
0.0
  9
$WORLDVIEW
 70
     1
  9
$SHADEDGE
 70
     3
  9
$SHADEDIF
 70
    70
  9
$TILEMODE
 70
     1
  9
$MAXACTVP
 70
    64
  9
$PINSBASE
 10
0.0
 20
0.0
 30
0.0
  9
$PLIMCHECK
 70
     0
  9
$PEXTMIN
 10
1.000000000000000E+20
 20
1.000000000000000E+20
 30
1.000000000000000E+20
  9
$PEXTMAX
 10
-1.000000000000000E+20
 20
-1.000000000000000E+20
 30
-1.000000000000000E+20
  9
$PLIMMIN
 10
0.0
 20
0.0
  9
$PLIMMAX
 10
420.0
 20
297.0
  9
$UNITMODE
 70
     0
  9
$VISRETAIN
 70
     1
  9
$PLINEGEN
 70
     0
  9
$PSLTSCALE
 70
     1
  9
$TREEDEPTH
 70
  3020
  9
$PICKSTYLE
 70
     1
  9
$CMLSTYLE
  2
STANDARD
  9
$CMLJUST
 70
     0
  9
$CMLSCALE
 40
20.0
  9
$PROXYGRAPHICS
 70
     1
  9
$MEASUREMENT
 70
     1
  0
ENDSEC
  0
SECTION
  2
CLASSES
  0
CLASS
  1
ACDBDICTIONARYWDFLT
  2
AcDbDictionaryWithDefault
  3
ObjectDBX Classes
 90
        0
280
     0
281
     0
  0
CLASS
  1
VISUALSTYLE
  2
AcDbVisualStyle
  3
ObjectDBX Classes
 90
     4095
280
     0
281
     0
  0
CLASS
  1
MATERIAL
  2
AcDbMaterial
  3
ObjectDBX Classes
 90
     1153
280
     0
281
     0
  0
CLASS
  1
SCALE
  2
AcDbScale
  3
ObjectDBX Classes
 90
     1153
280
     0
281
     0
  0
CLASS
  1
TABLESTYLE
  2
AcDbTableStyle
  3
ObjectDBX Classes
 90
     4095
280
     0
281
     0
  0
CLASS
  1
MLEADERSTYLE
  2
AcDbMLeaderStyle
  3
ACDB_MLEADERSTYLE_CLASS
 90
     4095
280
     0
281
     0
  0
CLASS
  1
SUN
  2
AcDbSun
  3
SCENEOE
 90
     1153
280
     0
281
     0
  0
CLASS
  1
DICTIONARYVAR
  2
AcDbDictionaryVar
  3
ObjectDBX Classes
 90
        0
280
     0
281
     0
  0
CLASS
  1
XRECORD
  2
AcDbXrecord
  3
ObjectDBX Classes
 90
        0
280
     0
281
     0
  0
CLASS
  1
LWPOLYLINE
  2
AcDbPolyline
  3
ObjectDBX Classes
 90
        0
280
     0
281
     1
  0
CLASS
  1
HATCH
  2
AcDbHatch
  3
ObjectDBX Classes
 90
        0
280
     0
281
     1
  0
CLASS
  1
ACDBPLACEHOLDER
  2
AcDbPlaceHolder
  3
ObjectDBX Classes
 90
        0
280
     0
281
     0
  0
CLASS
  1
LAYOUT
  2
AcDbLayout
  3
ObjectDBX Classes
 90
        0
280
     0
281
     0
  0
ENDSEC
  0
SECTION
  2
TABLES
  0
TABLE
  2
VPORT
  5
8
102
{ACAD_XDICTIONARY
360
415
102
}
330
0
100
AcDbSymbolTable
 70
     1
  0
VPORT
  5
29
330
8
100
AcDbSymbolTableRecord
100
AcDbViewportTableRecord
  2
*ACTIVE
 70
     0
 10
0.0
 20
0.0
 11
1.0
 21
1.0
 12
60.05000000000024
 22
725.0
 13
0.0
 23
0.0
 14
10.0
 24
10.0
 15
10.0
 25
10.0
 16
0.0
 26
0.0
 36
1.0
 17
0.0
 27
0.0
 37
0.0
 40
1350.0
 41
2.762888888888889
 42
50.0
 43
0.0
 44
0.0
 50
0.0
 51
0.0
 71
     0
 72
  1000
 73
     1
 74
     3
 75
     0
 76
     0
 77
     0
 78
     0
  0
ENDTAB
  0
TABLE
  2
LTYPE
  5
5
330
0
100
AcDbSymbolTable
 70
     6
  0
LTYPE
  5
14
330
5
100
AcDbSymbolTableRecord
100
AcDbLinetypeTableRecord
  2
BYBLOCK
 70
     0
  3

 72
    65
 73
     0
 40
0.0
  0
LTYPE
  5
15
330
5
100
AcDbSymbolTableRecord
100
AcDbLinetypeTableRecord
  2
BYLAYER
 70
     0
  3

 72
    65
 73
     0
 40
0.0
  0
LTYPE
  5
16
330
5
100
AcDbSymbolTableRecord
100
AcDbLinetypeTableRecord
  2
CONTINUOUS
 70
     0
  3
Solid line
 72
    65
 73
     0
 40
0.0
  0
LTYPE
  5
6E
330
5
100
AcDbSymbolTableRecord
100
AcDbLinetypeTableRecord
  2
HIDDEN
 70
     0
  3
Hidden __ __ __ __ __ __ __ __ __ __ __ __ __ __
 72
    65
 73
     2
 40
9.524999999999999
 49
6.35
 74
     0
 49
-3.175
 74
     0
  0
LTYPE
  5
6F
330
5
100
AcDbSymbolTableRecord
100
AcDbLinetypeTableRecord
  2
CENTER
 70
     0
  3
Center ____ _ ____ _ ____ _ ____ _ ____ _ ____
 72
    65
 73
     4
 40
50.8
 49
31.75
 74
     0
 49
-6.35
 74
     0
 49
6.35
 74
     0
 49
-6.35
 74
     0
  0
LTYPE
  5
70
330
5
100
AcDbSymbolTableRecord
100
AcDbLinetypeTableRecord
  2
PHANTOM
 70
     0
  3
Phantom ______  __  __  ______  __  __  ______ 
 72
    65
 73
     6
 40
63.50000000000001
 49
31.75
 74
     0
 49
-6.35
 74
     0
 49
6.35
 74
     0
 49
-6.35
 74
     0
 49
6.35
 74
     0
 49
-6.35
 74
     0
  0
LTYPE
  5
71
330
5
100
AcDbSymbolTableRecord
100
AcDbLinetypeTableRecord
  2
ACAD_ISO06W100
 70
     0
  3
ISO long-dash triple-dot ____ ... ____ ... ____
 72
    65
 73
     8
 40
36.0
 49
24.0
 74
     0
 49
-3.0
 74
     0
 49
0.0
 74
     0
 49
-3.0
 74
     0
 49
0.0
 74
     0
 49
-3.0
 74
     0
 49
0.0
 74
     0
 49
-3.0
 74
     0
  0
LTYPE
  5
72
330
5
100
AcDbSymbolTableRecord
100
AcDbLinetypeTableRecord
  2
ACAD_ISO15W100
 70
     0
  3
ISO double-dash triple-dot __ __ . . . __ __ . .
 72
    65
 73
    10
 40
39.0
 49
12.0
 74
     0
 49
-3.0
 74
     0
 49
12.0
 74
     0
 49
-3.0
 74
     0
 49
0.0
 74
     0
 49
-3.0
 74
     0
 49
0.0
 74
     0
 49
-3.0
 74
     0
 49
0.0
 74
     0
 49
-3.0
 74
     0
  0
ENDTAB
  0
TABLE
  2
LAYER
  5
2
330
0
100
AcDbSymbolTable
 70
     5
  0
LAYER
  5
10
330
2
100
AcDbSymbolTableRecord
100
AcDbLayerTableRecord
  2
0
 70
     0
 62
     7
  6
CONTINUOUS
  0
LAYER
  5
75
330
2
100
AcDbSymbolTableRecord
100
AcDbLayerTableRecord
  2
LAY-10
 70
     0
 62
     7
  6
CONTINUOUS
  0
LAYER
  5
76
330
2
100
AcDbSymbolTableRecord
100
AcDbLayerTableRecord
  2
LAY-20
 70
     0
 62
     7
  6
CONTINUOUS
  0
LAYER
  5
77
330
2
100
AcDbSymbolTableRecord
100
AcDbLayerTableRecord
  2
LAY-255
 70
     0
 62
     7
  6
CONTINUOUS
  0
LAYER
  5
370
330
2
100
AcDbSymbolTableRecord
100
AcDbLayerTableRecord
  2
DEFPOINTS
 70
     0
 62
     7
  6
CONTINUOUS
  0
ENDTAB
  0
TABLE
  2
STYLE
  5
3
330
0
100
AcDbSymbolTable
 70
     4
  0
STYLE
  5
11
330
3
100
AcDbSymbolTableRecord
100
AcDbTextStyleTableRecord
  2
STANDARD
 70
     0
 40
0.0
 41
1.0
 50
0.0
 71
     0
 42
2.5
  3
simplex
  4
bigfont
  0
STYLE
  5
73
330
3
100
AcDbSymbolTableRecord
100
AcDbTextStyleTableRecord
  2
EXCADSTD
 70
     0
 40
0.0
 41
1.0
 50
0.0
 71
     0
 42
2.5
  3
simplex
  4
bigfont
  0
STYLE
  5
74
330
3
100
AcDbSymbolTableRecord
100
AcDbTextStyleTableRecord
  2
EXCADVERT
 70
     4
 40
0.0
 41
1.0
 50
0.0
 71
     0
 42
2.5
  3
simplex
  4
bigfont
  0
STYLE
  5
36E
330
3
100
AcDbSymbolTableRecord
100
AcDbTextStyleTableRecord
  2
EXCADDIM1
 70
     0
 40
0.0
 41
0.84
 50
0.0
 71
     0
 42
2.5
  3
simplex
  4
bigfont
  0
ENDTAB
  0
TABLE
  2
VIEW
  5
6
330
0
100
AcDbSymbolTable
 70
     0
  0
ENDTAB
  0
TABLE
  2
UCS
  5
7
330
0
100
AcDbSymbolTable
 70
     0
  0
ENDTAB
  0
TABLE
  2
APPID
  5
9
330
0
100
AcDbSymbolTable
 70
     2
  0
APPID
  5
12
330
9
100
AcDbSymbolTableRecord
100
AcDbRegAppTableRecord
  2
ACAD
 70
     0
  0
APPID
  5
41F
330
9
100
AcDbSymbolTableRecord
100
AcDbRegAppTableRecord
  2
ACAD_MLEADERVER
 70
     0
  0
ENDTAB
  0
TABLE
  2
DIMSTYLE
  5
A
330
0
100
AcDbSymbolTable
 70
     1
  0
DIMSTYLE
105
27
102
{ACAD_REACTORS
330
36F
330
37D
330
388
330
395
330
3A2
330
3AF
102
}
330
A
100
AcDbSymbolTableRecord
100
AcDbDimStyleTableRecord
  2
ISO-25
 70
     0
  3

  4

  5

  6

  7

 40
1.0
 41
2.5
 42
0.625
 43
3.75
 44
1.25
 45
0.0
 46
0.0
 47
0.0
 48
0.0
140
2.5
141
2.5
142
0.0
143
0.03937007874016
144
1.0
145
0.0
146
1.0
147
0.625
 71
     0
 72
     0
 73
     0
 74
     0
 75
     0
 76
     0
 77
     1
 78
     8
170
     0
171
     3
172
     1
173
     0
174
     0
175
     0
176
     0
177
     0
178
     0
270
     2
271
     2
272
     2
273
     2
274
     3
340
11
275
     0
280
     0
281
     0
282
     0
283
     0
284
     8
285
     0
286
     0
287
     5
288
     0
  0
ENDTAB
  0
TABLE
  2
BLOCK_RECORD
  5
1
330
0
100
AcDbSymbolTable
 70
    20
  0
BLOCK_RECORD
  5
1F
330
1
100
AcDbSymbolTableRecord
100
AcDbBlockTableRecord
  2
*MODEL_SPACE
  0
BLOCK_RECORD
  5
1B
330
1
100
AcDbSymbolTableRecord
100
AcDbBlockTableRecord
  2
*PAPER_SPACE
  0
BLOCK_RECORD
  5
78
330
1
100
AcDbSymbolTableRecord
100
AcDbBlockTableRecord
  2
EX_NORM
  0
BLOCK_RECORD
  5
7B
330
1
100
AcDbSymbolTableRecord
100
AcDbBlockTableRecord
  2
EX_BNORM
  0
BLOCK_RECORD
  5
7E
330
1
100
AcDbSymbolTableRecord
100
AcDbBlockTableRecord
  2
EX_BCIR
  0
BLOCK_RECORD
  5
81
330
1
100
AcDbSymbolTableRecord
100
AcDbBlockTableRecord
  2
EX_RCIVIL
  0
BLOCK_RECORD
  5
84
330
1
100
AcDbSymbolTableRecord
100
AcDbBlockTableRecord
  2
EX_SLANT
  0
BLOCK_RECORD
  5
87
330
1
100
AcDbSymbolTableRecord
100
AcDbBlockTableRecord
  2
EX_NONE
  0
BLOCK_RECORD
  5
8A
330
1
100
AcDbSymbolTableRecord
100
AcDbBlockTableRecord
  2
EX_CIVIL
  0
BLOCK_RECORD
  5
8D
330
1
100
AcDbSymbolTableRecord
100
AcDbBlockTableRecord
  2
EX_WCIR
  0
BLOCK_RECORD
  5
90
330
1
100
AcDbSymbolTableRecord
100
AcDbBlockTableRecord
  2
EX_WCIR2
  0
BLOCK_RECORD
  5
93
330
1
100
AcDbSymbolTableRecord
100
AcDbBlockTableRecord
  2
EX_WNORM
  0
BLOCK_RECORD
  5
96
330
1
100
AcDbSymbolTableRecord
100
AcDbBlockTableRecord
  2
EX_NNORM
  0
BLOCK_RECORD
  5
99
330
1
100
AcDbSymbolTableRecord
100
AcDbBlockTableRecord
  2
EX_BBOX
  0
BLOCK_RECORD
  5
9C
330
1
100
AcDbSymbolTableRecord
100
AcDbBlockTableRecord
  2
EX_WBOX
  0
BLOCK_RECORD
  5
9F
330
1
100
AcDbSymbolTableRecord
100
AcDbBlockTableRecord
  2
EX_INTEGRAL
  0
BLOCK_RECORD
  5
371
330
1
100
AcDbSymbolTableRecord
100
AcDbBlockTableRecord
  2
*D15
  0
BLOCK_RECORD
  5
37E
330
1
100
AcDbSymbolTableRecord
100
AcDbBlockTableRecord
  2
*D16
  0
BLOCK_RECORD
  5
389
330
1
100
AcDbSymbolTableRecord
100
AcDbBlockTableRecord
  2
*D17
  0
BLOCK_RECORD
  5
396
330
1
100
AcDbSymbolTableRecord
100
AcDbBlockTableRecord
  2
*D18
  0
BLOCK_RECORD
  5
3A3
330
1
100
AcDbSymbolTableRecord
100
AcDbBlockTableRecord
  2
*D19
  0
BLOCK_RECORD
  5
3B0
330
1
100
AcDbSymbolTableRecord
100
AcDbBlockTableRecord
  2
*D20
  0
ENDTAB
  0
ENDSEC
  0
SECTION
  2
BLOCKS
  0
BLOCK
  5
20
330
1F
100
AcDbEntity
  8
0
100
AcDbBlockBegin
  2
*MODEL_SPACE
 70
     0
 10
0.0
 20
0.0
 30
0.0
  3
*MODEL_SPACE
  1

  0
ENDBLK
  5
21
330
1F
100
AcDbEntity
  8
0
100
AcDbBlockEnd
  0
BLOCK
  5
1C
330
1B
100
AcDbEntity
 67
     1
  8
0
100
AcDbBlockBegin
  2
*PAPER_SPACE
 70
     0
 10
0.0
 20
0.0
 30
0.0
  3
*PAPER_SPACE
  1

  0
ENDBLK
  5
1D
330
1B
100
AcDbEntity
 67
     1
  8
0
100
AcDbBlockEnd
  0
BLOCK
  5
79
330
78
100
AcDbEntity
  8
0
100
AcDbBlockBegin
  2
EX_NORM
 70
     0
 10
0.0
 20
0.0
 30
0.0
  3
EX_NORM
  1

  0
LINE
  5
A2
330
78
100
AcDbEntity
  8
0
  6
CONTINUOUS
 62
     0
100
AcDbLine
 10
0.0
 20
0.0
 30
0.0
 11
-1.0
 21
0.0
 31
0.0
  0
LINE
  5
A3
330
78
100
AcDbEntity
  8
0
  6
CONTINUOUS
 62
     0
100
AcDbLine
 10
0.0
 20
0.0
 30
0.0
 11
-1.0
 21
0.166666667
 31
0.0
  0
LINE
  5
A4
330
78
100
AcDbEntity
  8
0
  6
CONTINUOUS
 62
     0
100
AcDbLine
 10
0.0
 20
0.0
 30
0.0
 11
-1.0
 21
-0.166666667
 31
0.0
  0
ENDBLK
  5
7A
330
78
100
AcDbEntity
  8
0
100
AcDbBlockEnd
  0
BLOCK
  5
7C
330
7B
100
AcDbEntity
  8
0
100
AcDbBlockBegin
  2
EX_BNORM
 70
     0
 10
0.0
 20
0.0
 30
0.0
  3
EX_BNORM
  1

  0
LINE
  5
A5
330
7B
100
AcDbEntity
  8
0
  6
CONTINUOUS
 62
     0
100
AcDbLine
 10
0.0
 20
0.0
 30
0.0
 11
-1.0
 21
0.0
 31
0.0
  0
LINE
  5
A6
330
7B
100
AcDbEntity
  8
0
  6
CONTINUOUS
 62
     0
100
AcDbLine
 10
0.0
 20
0.0
 30
0.0
 11
-1.0
 21
0.166666667
 31
0.0
  0
LINE
  5
A7
330
7B
100
AcDbEntity
  8
0
  6
CONTINUOUS
 62
     0
100
AcDbLine
 10
0.0
 20
0.0
 30
0.0
 11
-1.0
 21
-0.166666667
 31
0.0
  0
LINE
  5
A8
330
7B
100
AcDbEntity
  8
0
  6
CONTINUOUS
 62
     0
100
AcDbLine
 10
0.0
 20
0.0
 30
0.0
 11
-1.0
 21
0.083333333
 31
0.0
  0
LINE
  5
A9
330
7B
100
AcDbEntity
  8
0
  6
CONTINUOUS
 62
     0
100
AcDbLine
 10
0.0
 20
0.0
 30
0.0
 11
-1.0
 21
-0.083333333
 31
0.0
  0
LINE
  5
AA
330
7B
100
AcDbEntity
  8
0
  6
CONTINUOUS
 62
     0
100
AcDbLine
 10
-1.0
 20
0.166666667
 30
0.0
 11
-1.0
 21
-0.166666667
 31
0.0
  0
ENDBLK
  5
7D
330
7B
100
AcDbEntity
  8
0
100
AcDbBlockEnd
  0
BLOCK
  5
7F
330
7E
100
AcDbEntity
  8
0
100
AcDbBlockBegin
  2
EX_BCIR
 70
     0
 10
0.0
 20
0.0
 30
0.0
  3
EX_BCIR
  1

  0
LINE
  5
AB
330
7E
100
AcDbEntity
  8
0
  6
CONTINUOUS
 62
     0
100
AcDbLine
 10
0.0
 20
0.0
 30
0.0
 11
-1.0
 21
0.0
 31
0.0
  0
CIRCLE
  5
AC
330
7E
100
AcDbEntity
  8
0
  6
CONTINUOUS
 62
     0
100
AcDbCircle
 10
0.0
 20
0.0
 30
0.0
 40
0.5
  0
CIRCLE
  5
AD
330
7E
100
AcDbEntity
  8
0
  6
CONTINUOUS
 62
     0
100
AcDbCircle
 10
0.0
 20
0.0
 30
0.0
 40
0.25
  0
ENDBLK
  5
80
330
7E
100
AcDbEntity
  8
0
100
AcDbBlockEnd
  0
BLOCK
  5
82
330
81
100
AcDbEntity
  8
0
100
AcDbBlockBegin
  2
EX_RCIVIL
 70
     0
 10
0.0
 20
0.0
 30
0.0
  3
EX_RCIVIL
  1

  0
LINE
  5
AE
330
81
100
AcDbEntity
  8
0
  6
CONTINUOUS
 62
     0
100
AcDbLine
 10
0.0
 20
0.0
 30
0.0
 11
-1.0
 21
0.0
 31
0.0
  0
LINE
  5
AF
330
81
100
AcDbEntity
  8
0
  6
CONTINUOUS
 62
     0
100
AcDbLine
 10
-1.0
 20
-0.25
 30
0.0
 11
0.0
 21
-0.25
 31
0.0
  0
LINE
  5
B0
330
81
100
AcDbEntity
  8
0
  6
CONTINUOUS
 62
     0
100
AcDbLine
 10
-1.0
 20
-0.125
 30
0.0
 11
0.0
 21
-0.125
 31
0.0
  0
ENDBLK
  5
83
330
81
100
AcDbEntity
  8
0
100
AcDbBlockEnd
  0
BLOCK
  5
85
330
84
100
AcDbEntity
  8
0
100
AcDbBlockBegin
  2
EX_SLANT
 70
     0
 10
0.0
 20
0.0
 30
0.0
  3
EX_SLANT
  1

  0
LINE
  5
B1
330
84
100
AcDbEntity
  8
0
  6
CONTINUOUS
 62
     0
100
AcDbLine
 10
0.0
 20
0.0
 30
0.0
 11
-1.0
 21
0.0
 31
0.0
  0
LINE
  5
B2
330
84
100
AcDbEntity
  8
0
  6
CONTINUOUS
 62
     0
100
AcDbLine
 10
0.707106781
 20
0.707106781
 30
0.0
 11
-0.707106781
 21
-0.707106781
 31
0.0
  0
ENDBLK
  5
86
330
84
100
AcDbEntity
  8
0
100
AcDbBlockEnd
  0
BLOCK
  5
88
330
87
100
AcDbEntity
  8
0
100
AcDbBlockBegin
  2
EX_NONE
 70
     0
 10
0.0
 20
0.0
 30
0.0
  3
EX_NONE
  1

  0
LINE
  5
B3
330
87
100
AcDbEntity
  8
0
  6
CONTINUOUS
 62
     0
100
AcDbLine
 10
0.0
 20
0.0
 30
0.0
 11
-1.0
 21
0.0
 31
0.0
  0
ENDBLK
  5
89
330
87
100
AcDbEntity
  8
0
100
AcDbBlockEnd
  0
BLOCK
  5
8B
330
8A
100
AcDbEntity
  8
0
100
AcDbBlockBegin
  2
EX_CIVIL
 70
     0
 10
0.0
 20
0.0
 30
0.0
  3
EX_CIVIL
  1

  0
LINE
  5
B4
330
8A
100
AcDbEntity
  8
0
  6
CONTINUOUS
 62
     0
100
AcDbLine
 10
0.0
 20
0.0
 30
0.0
 11
-1.0
 21
0.0
 31
0.0
  0
LINE
  5
B5
330
8A
100
AcDbEntity
  8
0
  6
CONTINUOUS
 62
     0
100
AcDbLine
 10
-1.0
 20
0.25
 30
0.0
 11
0.0
 21
0.25
 31
0.0
  0
LINE
  5
B6
330
8A
100
AcDbEntity
  8
0
  6
CONTINUOUS
 62
     0
100
AcDbLine
 10
-1.0
 20
0.125
 30
0.0
 11
0.0
 21
0.125
 31
0.0
  0
ENDBLK
  5
8C
330
8A
100
AcDbEntity
  8
0
100
AcDbBlockEnd
  0
BLOCK
  5
8E
330
8D
100
AcDbEntity
  8
0
100
AcDbBlockBegin
  2
EX_WCIR
 70
     0
 10
0.0
 20
0.0
 30
0.0
  3
EX_WCIR
  1

  0
LINE
  5
B7
330
8D
100
AcDbEntity
  8
0
  6
CONTINUOUS
 62
     0
100
AcDbLine
 10
0.0
 20
0.0
 30
0.0
 11
-1.0
 21
0.0
 31
0.0
  0
CIRCLE
  5
B8
330
8D
100
AcDbEntity
  8
0
  6
CONTINUOUS
 62
     0
100
AcDbCircle
 10
0.0
 20
0.0
 30
0.0
 40
0.5
  0
ENDBLK
  5
8F
330
8D
100
AcDbEntity
  8
0
100
AcDbBlockEnd
  0
BLOCK
  5
91
330
90
100
AcDbEntity
  8
0
100
AcDbBlockBegin
  2
EX_WCIR2
 70
     0
 10
0.0
 20
0.0
 30
0.0
  3
EX_WCIR2
  1

  0
LINE
  5
B9
330
90
100
AcDbEntity
  8
0
  6
CONTINUOUS
 62
     0
100
AcDbLine
 10
-0.5
 20
0.0
 30
0.0
 11
-1.0
 21
0.0
 31
0.0
  0
CIRCLE
  5
BA
330
90
100
AcDbEntity
  8
0
  6
CONTINUOUS
 62
     0
100
AcDbCircle
 10
0.0
 20
0.0
 30
0.0
 40
0.5
  0
ENDBLK
  5
92
330
90
100
AcDbEntity
  8
0
100
AcDbBlockEnd
  0
BLOCK
  5
94
330
93
100
AcDbEntity
  8
0
100
AcDbBlockBegin
  2
EX_WNORM
 70
     0
 10
0.0
 20
0.0
 30
0.0
  3
EX_WNORM
  1

  0
LINE
  5
BB
330
93
100
AcDbEntity
  8
0
  6
CONTINUOUS
 62
     0
100
AcDbLine
 10
-1.0
 20
0.0
 30
0.0
 11
-1.0
 21
0.0
 31
0.0
  0
LINE
  5
BC
330
93
100
AcDbEntity
  8
0
  6
CONTINUOUS
 62
     0
100
AcDbLine
 10
0.0
 20
0.0
 30
0.0
 11
-1.0
 21
0.166666667
 31
0.0
  0
LINE
  5
BD
330
93
100
AcDbEntity
  8
0
  6
CONTINUOUS
 62
     0
100
AcDbLine
 10
0.0
 20
0.0
 30
0.0
 11
-1.0
 21
-0.166666667
 31
0.0
  0
LINE
  5
BE
330
93
100
AcDbEntity
  8
0
  6
CONTINUOUS
 62
     0
100
AcDbLine
 10
-1.0
 20
0.166666667
 30
0.0
 11
-1.0
 21
-0.166666667
 31
0.0
  0
ENDBLK
  5
95
330
93
100
AcDbEntity
  8
0
100
AcDbBlockEnd
  0
BLOCK
  5
97
330
96
100
AcDbEntity
  8
0
100
AcDbBlockBegin
  2
EX_NNORM
 70
     0
 10
0.0
 20
0.0
 30
0.0
  3
EX_NNORM
  1

  0
LINE
  5
BF
330
96
100
AcDbEntity
  8
0
  6
CONTINUOUS
 62
     0
100
AcDbLine
 10
0.0
 20
0.0
 30
0.0
 11
-1.0
 21
0.0
 31
0.0
  0
LINE
  5
C0
330
96
100
AcDbEntity
  8
0
  6
CONTINUOUS
 62
     0
100
AcDbLine
 10
0.0
 20
0.0
 30
0.0
 11
-1.0
 21
0.166666667
 31
0.0
  0
LINE
  5
C1
330
96
100
AcDbEntity
  8
0
  6
CONTINUOUS
 62
     0
100
AcDbLine
 10
0.0
 20
0.0
 30
0.0
 11
-1.0
 21
-0.166666667
 31
0.0
  0
LINE
  5
C2
330
96
100
AcDbEntity
  8
0
  6
CONTINUOUS
 62
     0
100
AcDbLine
 10
-1.0
 20
0.166666667
 30
0.0
 11
-1.0
 21
-0.166666667
 31
0.0
  0
ENDBLK
  5
98
330
96
100
AcDbEntity
  8
0
100
AcDbBlockEnd
  0
BLOCK
  5
9A
330
99
100
AcDbEntity
  8
0
100
AcDbBlockBegin
  2
EX_BBOX
 70
     0
 10
0.0
 20
0.0
 30
0.0
  3
EX_BBOX
  1

  0
LINE
  5
C3
330
99
100
AcDbEntity
  8
0
  6
CONTINUOUS
 62
     0
100
AcDbLine
 10
0.0
 20
0.0
 30
0.0
 11
-1.0
 21
0.0
 31
0.0
  0
LINE
  5
C4
330
99
100
AcDbEntity
  8
0
  6
CONTINUOUS
 62
     0
100
AcDbLine
 10
-0.5
 20
0.5
 30
0.0
 11
0.5
 21
0.5
 31
0.0
  0
LINE
  5
C5
330
99
100
AcDbEntity
  8
0
  6
CONTINUOUS
 62
     0
100
AcDbLine
 10
0.5
 20
0.5
 30
0.0
 11
0.5
 21
-0.5
 31
0.0
  0
LINE
  5
C6
330
99
100
AcDbEntity
  8
0
  6
CONTINUOUS
 62
     0
100
AcDbLine
 10
0.5
 20
-0.5
 30
0.0
 11
-0.5
 21
-0.5
 31
0.0
  0
LINE
  5
C7
330
99
100
AcDbEntity
  8
0
  6
CONTINUOUS
 62
     0
100
AcDbLine
 10
-0.5
 20
-0.5
 30
0.0
 11
-0.5
 21
0.5
 31
0.0
  0
LINE
  5
C8
330
99
100
AcDbEntity
  8
0
  6
CONTINUOUS
 62
     0
100
AcDbLine
 10
-0.25
 20
0.25
 30
0.0
 11
0.25
 21
0.25
 31
0.0
  0
LINE
  5
C9
330
99
100
AcDbEntity
  8
0
  6
CONTINUOUS
 62
     0
100
AcDbLine
 10
0.25
 20
0.25
 30
0.0
 11
0.25
 21
-0.25
 31
0.0
  0
LINE
  5
CA
330
99
100
AcDbEntity
  8
0
  6
CONTINUOUS
 62
     0
100
AcDbLine
 10
0.25
 20
-0.25
 30
0.0
 11
-0.25
 21
-0.25
 31
0.0
  0
LINE
  5
CB
330
99
100
AcDbEntity
  8
0
  6
CONTINUOUS
 62
     0
100
AcDbLine
 10
-0.25
 20
-0.25
 30
0.0
 11
-0.25
 21
0.25
 31
0.0
  0
ENDBLK
  5
9B
330
99
100
AcDbEntity
  8
0
100
AcDbBlockEnd
  0
BLOCK
  5
9D
330
9C
100
AcDbEntity
  8
0
100
AcDbBlockBegin
  2
EX_WBOX
 70
     0
 10
0.0
 20
0.0
 30
0.0
  3
EX_WBOX
  1

  0
LINE
  5
CC
330
9C
100
AcDbEntity
  8
0
  6
CONTINUOUS
 62
     0
100
AcDbLine
 10
-0.5
 20
0.0
 30
0.0
 11
-1.0
 21
0.0
 31
0.0
  0
LINE
  5
CD
330
9C
100
AcDbEntity
  8
0
  6
CONTINUOUS
 62
     0
100
AcDbLine
 10
-0.5
 20
0.5
 30
0.0
 11
0.5
 21
0.5
 31
0.0
  0
LINE
  5
CE
330
9C
100
AcDbEntity
  8
0
  6
CONTINUOUS
 62
     0
100
AcDbLine
 10
0.5
 20
0.5
 30
0.0
 11
0.5
 21
-0.5
 31
0.0
  0
LINE
  5
CF
330
9C
100
AcDbEntity
  8
0
  6
CONTINUOUS
 62
     0
100
AcDbLine
 10
0.5
 20
-0.5
 30
0.0
 11
-0.5
 21
-0.5
 31
0.0
  0
LINE
  5
D0
330
9C
100
AcDbEntity
  8
0
  6
CONTINUOUS
 62
     0
100
AcDbLine
 10
-0.5
 20
-0.5
 30
0.0
 11
-0.5
 21
0.5
 31
0.0
  0
ENDBLK
  5
9E
330
9C
100
AcDbEntity
  8
0
100
AcDbBlockEnd
  0
BLOCK
  5
A0
330
9F
100
AcDbEntity
  8
0
100
AcDbBlockBegin
  2
EX_INTEGRAL
 70
     0
 10
0.0
 20
0.0
 30
0.0
  3
EX_INTEGRAL
  1

  0
LINE
  5
D1
330
9F
100
AcDbEntity
  8
0
  6
CONTINUOUS
 62
     0
100
AcDbLine
 10
0.0
 20
0.0
 30
0.0
 11
-1.0
 21
0.0
 31
0.0
  0
ARC
  5
D2
330
9F
100
AcDbEntity
  8
0
  6
CONTINUOUS
 62
     0
100
AcDbCircle
 10
0.542115
 20
0.164992
 30
0.0
 40
0.56667
100
AcDbArc
 50
73.07249033629006
 51
196.9275130221199
  0
ARC
  5
D3
330
9F
100
AcDbEntity
  8
0
  6
CONTINUOUS
 62
     0
100
AcDbCircle
 10
-0.542115
 20
-0.164992
 30
0.0
 40
0.56667
100
AcDbArc
 50
253.0724869220464
 51
16.9275130559125
  0
ENDBLK
  5
A1
330
9F
100
AcDbEntity
  8
0
100
AcDbBlockEnd
  0
BLOCK
  5
372
330
371
100
AcDbEntity
  8
0
100
AcDbBlockBegin
  2
*D15
 70
     1
 10
0.0
 20
0.0
 30
0.0
  3
*D15
  1

  0
LINE
  5
374
330
371
100
AcDbEntity
  8
LAY-20
  6
CONTINUOUS
 62
     4
100
AcDbLine
 10
978.4999999999998
 20
383.0000000000002
 30
0.0
 11
1062.5
 21
383.0000000000002
 31
0.0
  0
LINE
  5
375
330
371
100
AcDbEntity
  8
LAY-20
  6
CONTINUOUS
 62
     4
100
AcDbLine
 10
1012.5
 20
308.0000000000002
 30
0.0
 11
1062.5
 21
308.0000000000002
 31
0.0
  0
LINE
  5
376
330
371
100
AcDbEntity
  8
LAY-20
  6
CONTINUOUS
 62
     4
100
AcDbLine
 10
1055.0
 20
370.5000000000002
 30
0.0
 11
1055.0
 21
320.5000000000002
 31
0.0
  0
INSERT
  5
377
330
371
100
AcDbEntity
  8
LAY-20
 62
     4
100
AcDbBlockReference
  2
EX_BNORM
 10
1055.0
 20
383.0000000000002
 30
0.0
 41
12.5
 42
12.5
 43
12.5
 50
90.0
  0
INSERT
  5
378
330
371
100
AcDbEntity
  8
LAY-20
 62
     4
100
AcDbBlockReference
  2
EX_BNORM
 10
1055.0
 20
308.0000000000002
 30
0.0
 41
12.5
 42
12.5
 43
12.5
 50
270.0
  0
MTEXT
  5
379
330
371
100
AcDbEntity
  8
LAY-20
 62
     7
100
AcDbMText
 10
1042.5
 20
345.5000000000002
 30
0.0
 40
15.590552
 41
0.0
 71
     5
 72
     1
  1
75
  7
EXCADDIM1
 11
0.0
 21
1.0
 31
0.0
  0
POINT
  5
37A
330
371
100
AcDbEntity
  8
DEFPOINTS
 62
     0
100
AcDbPoint
 10
970.9999999999998
 20
383.0000000000002
 30
0.0
  0
POINT
  5
37B
330
371
100
AcDbEntity
  8
DEFPOINTS
 62
     0
100
AcDbPoint
 10
1005.0
 20
308.0000000000002
 30
0.0
  0
POINT
  5
37C
330
371
100
AcDbEntity
  8
DEFPOINTS
 62
     0
100
AcDbPoint
 10
1055.0
 20
308.0000000000002
 30
0.0
  0
ENDBLK
  5
373
330
371
100
AcDbEntity
  8
0
100
AcDbBlockEnd
  0
BLOCK
  5
37F
330
37E
100
AcDbEntity
  8
0
100
AcDbBlockBegin
  2
*D16
 70
     1
 10
0.0
 20
0.0
 30
0.0
  3
*D16
  1

  0
LINE
  5
381
330
37E
100
AcDbEntity
  8
LAY-20
  6
CONTINUOUS
 62
     4
100
AcDbLine
 10
709.9999999999998
 20
355.5000000000002
 30
0.0
 11
709.9999999999998
 21
370.5000000000002
 31
0.0
  0
INSERT
  5
382
330
37E
100
AcDbEntity
  8
LAY-20
 62
     4
100
AcDbBlockReference
  2
EX_BNORM
 10
709.9999999999998
 20
343.0000000000002
 30
0.0
 41
12.5
 42
12.5
 43
12.5
 50
270.0
  0
INSERT
  5
383
330
37E
100
AcDbEntity
  8
LAY-20
 62
     4
100
AcDbBlockReference
  2
EX_BNORM
 10
709.9999999999998
 20
383.0000000000002
 30
0.0
 41
12.5
 42
12.5
 43
12.5
 50
90.0
  0
MTEXT
  5
384
330
37E
100
AcDbEntity
  8
LAY-20
 62
     7
100
AcDbMText
 10
697.4999999999998
 20
363.0000000000002
 30
0.0
 40
15.590552
 41
0.0
 71
     5
 72
     1
  1
40
  7
EXCADDIM1
 11
0.0
 21
1.0
 31
0.0
  0
POINT
  5
385
330
37E
100
AcDbEntity
  8
DEFPOINTS
 62
     0
100
AcDbPoint
 10
709.9999999999998
 20
343.0000000000002
 30
0.0
  0
POINT
  5
386
330
37E
100
AcDbEntity
  8
DEFPOINTS
 62
     0
100
AcDbPoint
 10
709.9999999999998
 20
383.0000000000002
 30
0.0
  0
POINT
  5
387
330
37E
100
AcDbEntity
  8
DEFPOINTS
 62
     0
100
AcDbPoint
 10
709.9999999999998
 20
383.0000000000002
 30
0.0
  0
ENDBLK
  5
380
330
37E
100
AcDbEntity
  8
0
100
AcDbBlockEnd
  0
BLOCK
  5
38A
330
389
100
AcDbEntity
  8
0
100
AcDbBlockBegin
  2
*D17
 70
     1
 10
0.0
 20
0.0
 30
0.0
  3
*D17
  1

  0
LINE
  5
38C
330
389
100
AcDbEntity
  8
LAY-20
  6
CONTINUOUS
 62
     4
100
AcDbLine
 10
278.9999999999999
 20
390.4999999999999
 30
0.0
 11
278.9999999999999
 21
475.4999999999999
 31
0.0
  0
LINE
  5
38D
330
389
100
AcDbEntity
  8
LAY-20
  6
CONTINUOUS
 62
     4
100
AcDbLine
 10
970.9999999999999
 20
390.4999999999999
 30
0.0
 11
970.9999999999999
 21
475.4999999999999
 31
0.0
  0
LINE
  5
38E
330
389
100
AcDbEntity
  8
LAY-20
  6
CONTINUOUS
 62
     4
100
AcDbLine
 10
293.9999999999999
 20
467.9999999999999
 30
0.0
 11
955.9999999999999
 21
467.9999999999999
 31
0.0
  0
INSERT
  5
38F
330
389
100
AcDbEntity
  8
LAY-20
 62
     4
100
AcDbBlockReference
  2
EX_BNORM
 10
278.9999999999999
 20
467.9999999999999
 30
0.0
 41
15.0
 42
15.0
 43
15.0
 50
180.0
  0
INSERT
  5
390
330
389
100
AcDbEntity
  8
LAY-20
 62
     4
100
AcDbBlockReference
  2
EX_BNORM
 10
970.9999999999999
 20
467.9999999999999
 30
0.0
 41
15.0
 42
15.0
 43
15.0
  0
MTEXT
  5
391
330
389
100
AcDbEntity
  8
LAY-20
 62
     7
100
AcDbMText
 10
625.0
 20
480.4999999999999
 30
0.0
 40
15.590552
 41
0.0
 71
     5
 72
     1
  1
□692
  7
EXCADDIM1
  0
POINT
  5
392
330
389
100
AcDbEntity
  8
DEFPOINTS
 62
     0
100
AcDbPoint
 10
278.9999999999999
 20
382.9999999999999
 30
0.0
  0
POINT
  5
393
330
389
100
AcDbEntity
  8
DEFPOINTS
 62
     0
100
AcDbPoint
 10
970.9999999999999
 20
382.9999999999999
 30
0.0
  0
POINT
  5
394
330
389
100
AcDbEntity
  8
DEFPOINTS
 62
     0
100
AcDbPoint
 10
970.9999999999999
 20
467.9999999999999
 30
0.0
  0
ENDBLK
  5
38B
330
389
100
AcDbEntity
  8
0
100
AcDbBlockEnd
  0
BLOCK
  5
397
330
396
100
AcDbEntity
  8
0
100
AcDbBlockBegin
  2
*D18
 70
     1
 10
0.0
 20
0.0
 30
0.0
  3
*D18
  1

  0
LINE
  5
399
330
396
100
AcDbEntity
  8
LAY-20
  6
CONTINUOUS
 62
     4
100
AcDbLine
 10
289.9999999999999
 20
390.4999999999999
 30
0.0
 11
289.9999999999999
 21
440.4999999999999
 31
0.0
  0
LINE
  5
39A
330
396
100
AcDbEntity
  8
LAY-20
  6
CONTINUOUS
 62
     4
100
AcDbLine
 10
960.0000000000001
 20
390.4999999999999
 30
0.0
 11
960.0000000000001
 21
440.4999999999999
 31
0.0
  0
LINE
  5
39B
330
396
100
AcDbEntity
  8
LAY-20
  6
CONTINUOUS
 62
     4
100
AcDbLine
 10
304.9999999999999
 20
432.9999999999999
 30
0.0
 11
945.0000000000001
 21
432.9999999999999
 31
0.0
  0
INSERT
  5
39C
330
396
100
AcDbEntity
  8
LAY-20
 62
     4
100
AcDbBlockReference
  2
EX_BNORM
 10
289.9999999999999
 20
432.9999999999999
 30
0.0
 41
15.0
 42
15.0
 43
15.0
 50
180.0
  0
INSERT
  5
39D
330
396
100
AcDbEntity
  8
LAY-20
 62
     4
100
AcDbBlockReference
  2
EX_BNORM
 10
960.0000000000001
 20
432.9999999999999
 30
0.0
 41
15.0
 42
15.0
 43
15.0
  0
MTEXT
  5
39E
330
396
100
AcDbEntity
  8
LAY-20
 62
     7
100
AcDbMText
 10
625.0
 20
445.4999999999999
 30
0.0
 40
15.590552
 41
0.0
 71
     5
 72
     1
  1
□670
  7
EXCADDIM1
  0
POINT
  5
39F
330
396
100
AcDbEntity
  8
DEFPOINTS
 62
     0
100
AcDbPoint
 10
289.9999999999999
 20
382.9999999999999
 30
0.0
  0
POINT
  5
3A0
330
396
100
AcDbEntity
  8
DEFPOINTS
 62
     0
100
AcDbPoint
 10
960.0000000000001
 20
382.9999999999999
 30
0.0
  0
POINT
  5
3A1
330
396
100
AcDbEntity
  8
DEFPOINTS
 62
     0
100
AcDbPoint
 10
960.0000000000001
 20
432.9999999999999
 30
0.0
  0
ENDBLK
  5
398
330
396
100
AcDbEntity
  8
0
100
AcDbBlockEnd
  0
BLOCK
  5
3A4
330
3A3
100
AcDbEntity
  8
0
100
AcDbBlockBegin
  2
*D19
 70
     1
 10
0.0
 20
0.0
 30
0.0
  3
*D19
  1

  0
LINE
  5
3A6
330
3A3
100
AcDbEntity
  8
LAY-20
  6
CONTINUOUS
 62
     4
100
AcDbLine
 10
244.9999999999993
 20
300.4999999999998
 30
0.0
 11
244.9999999999993
 21
215.5
 31
0.0
  0
LINE
  5
3A7
330
3A3
100
AcDbEntity
  8
LAY-20
  6
CONTINUOUS
 62
     4
100
AcDbLine
 10
1005.0
 20
300.4999999999998
 30
0.0
 11
1005.0
 21
215.5
 31
0.0
  0
LINE
  5
3A8
330
3A3
100
AcDbEntity
  8
LAY-20
  6
CONTINUOUS
 62
     4
100
AcDbLine
 10
259.9999999999993
 20
223.0
 30
0.0
 11
990.0
 21
223.0
 31
0.0
  0
INSERT
  5
3A9
330
3A3
100
AcDbEntity
  8
LAY-20
 62
     4
100
AcDbBlockReference
  2
EX_BNORM
 10
244.9999999999993
 20
223.0
 30
0.0
 41
15.0
 42
15.0
 43
15.0
 50
180.0
  0
INSERT
  5
3AA
330
3A3
100
AcDbEntity
  8
LAY-20
 62
     4
100
AcDbBlockReference
  2
EX_BNORM
 10
1005.0
 20
223.0
 30
0.0
 41
15.0
 42
15.0
 43
15.0
  0
MTEXT
  5
3AB
330
3A3
100
AcDbEntity
  8
LAY-20
 62
     7
100
AcDbMText
 10
624.9999999999997
 20
235.5
 30
0.0
 40
15.590552
 41
0.0
 71
     5
 72
     1
  1
□760
  7
EXCADDIM1
  0
POINT
  5
3AC
330
3A3
100
AcDbEntity
  8
DEFPOINTS
 62
     0
100
AcDbPoint
 10
244.9999999999993
 20
307.9999999999998
 30
0.0
  0
POINT
  5
3AD
330
3A3
100
AcDbEntity
  8
DEFPOINTS
 62
     0
100
AcDbPoint
 10
1005.0
 20
307.9999999999998
 30
0.0
  0
POINT
  5
3AE
330
3A3
100
AcDbEntity
  8
DEFPOINTS
 62
     0
100
AcDbPoint
 10
1005.0
 20
223.0
 30
0.0
  0
ENDBLK
  5
3A5
330
3A3
100
AcDbEntity
  8
0
100
AcDbBlockEnd
  0
BLOCK
  5
3B1
330
3B0
100
AcDbEntity
  8
0
100
AcDbBlockBegin
  2
*D20
 70
     1
 10
0.0
 20
0.0
 30
0.0
  3
*D20
  1

  0
LINE
  5
3B3
330
3B0
100
AcDbEntity
  8
LAY-20
  6
CONTINUOUS
 62
     4
100
AcDbLine
 10
324.9999999999999
 20
300.4999999999999
 30
0.0
 11
324.9999999999999
 21
250.5
 31
0.0
  0
LINE
  5
3B4
330
3B0
100
AcDbEntity
  8
LAY-20
  6
CONTINUOUS
 62
     4
100
AcDbLine
 10
925.0
 20
300.4999999999999
 30
0.0
 11
925.0
 21
250.5
 31
0.0
  0
LINE
  5
3B5
330
3B0
100
AcDbEntity
  8
LAY-20
  6
CONTINUOUS
 62
     4
100
AcDbLine
 10
339.9999999999999
 20
257.9999999999999
 30
0.0
 11
910.0
 21
257.9999999999999
 31
0.0
  0
INSERT
  5
3B6
330
3B0
100
AcDbEntity
  8
LAY-20
 62
     4
100
AcDbBlockReference
  2
EX_BNORM
 10
324.9999999999999
 20
257.9999999999999
 30
0.0
 41
15.0
 42
15.0
 43
15.0
 50
180.0
  0
INSERT
  5
3B7
330
3B0
100
AcDbEntity
  8
LAY-20
 62
     4
100
AcDbBlockReference
  2
EX_BNORM
 10
925.0
 20
257.9999999999999
 30
0.0
 41
15.0
 42
15.0
 43
15.0
  0
MTEXT
  5
3B8
330
3B0
100
AcDbEntity
  8
LAY-20
 62
     7
100
AcDbMText
 10
625.0
 20
270.4999999999999
 30
0.0
 40
15.590552
 41
0.0
 71
     5
 72
     1
  1
□600
  7
EXCADDIM1
  0
POINT
  5
3B9
330
3B0
100
AcDbEntity
  8
DEFPOINTS
 62
     0
100
AcDbPoint
 10
324.9999999999999
 20
307.9999999999999
 30
0.0
  0
POINT
  5
3BA
330
3B0
100
AcDbEntity
  8
DEFPOINTS
 62
     0
100
AcDbPoint
 10
925.0
 20
307.9999999999999
 30
0.0
  0
POINT
  5
3BB
330
3B0
100
AcDbEntity
  8
DEFPOINTS
 62
     0
100
AcDbPoint
 10
925.0
 20
257.9999999999999
 30
0.0
  0
ENDBLK
  5
3B2
330
3B0
100
AcDbEntity
  8
0
100
AcDbBlockEnd
  0
ENDSEC
  0
SECTION
  2
ENTITIES
  0
LINE
  5
D4
330
1F
100
AcDbEntity
  8
LAY-10
  6
CONTINUOUS
 62
     7
100
AcDbLine
 10
-1536.1
 20
411.1999999999902
 30
0.0
 11
-1535.1
 21
411.1999999999902
 31
0.0
  0
LINE
  5
D5
330
1F
100
AcDbEntity
  8
LAY-10
  6
CONTINUOUS
 62
     7
100
AcDbLine
 10
-1803.899999999999
 20
411.1999999999902
 30
0.0
 11
-1804.9
 21
411.1999999999902
 31
0.0
  0
LINE
  5
D6
330
1F
100
AcDbEntity
  8
LAY-10
  6
CONTINUOUS
 62
     7
100
AcDbLine
 10
1005.0
 20
1209.5
 30
0.0
 11
1005.0
 21
1280.0
 31
0.0
  0
LINE
  5
D7
330
1F
100
AcDbEntity
  8
LAY-10
  6
CONTINUOUS
 62
     7
100
AcDbLine
 10
1004.1251133648
 20
1210.4
 30
0.0
 11
1004.1251133648
 21
1280.0251133647
 31
0.0
  0
LINE
  5
D8
330
1F
100
AcDbEntity
  8
LAY-10
  6
CONTINUOUS
 62
     7
100
AcDbLine
 10
884.5000000000499
 20
1329.999999999999
 30
0.0
 11
955.0
 21
1329.999999999999
 31
0.0
  0
LINE
  5
D9
330
1F
100
AcDbEntity
  8
LAY-10
  6
CONTINUOUS
 62
     7
100
AcDbLine
 10
885.4000000000499
 20
1329.125113364699
 30
0.0
 11
955.0251133648001
 21
1329.125113364699
 31
0.0
  0
ARC
  5
DA
330
1F
100
AcDbEntity
  8
LAY-10
  6
CONTINUOUS
 62
     7
100
AcDbCircle
 10
955.0
 20
1280.0
 30
0.0
 40
50.00000000000004
100
AcDbArc
 50
0.0
 51
90.0
  0
ARC
  5
DB
330
1F
100
AcDbEntity
  8
LAY-10
  6
CONTINUOUS
 62
     7
100
AcDbCircle
 10
955.0251133648001
 20
1280.0251133647
 30
0.0
 40
49.10000000000001
100
AcDbArc
 50
0.0
 51
90.0
  0
ARC
  5
DC
330
1F
100
AcDbEntity
  8
LAY-10
  6
CONTINUOUS
 62
     7
100
AcDbCircle
 10
875.00000000005
 20
1314.999999999999
 30
0.0
 40
7.500000000000006
100
AcDbArc
 50
180.0
 51
0.0
  0
LINE
  5
DD
330
1F
100
AcDbEntity
  8
LAY-10
  6
CONTINUOUS
 62
     7
100
AcDbLine
 10
882.50000000005
 20
1314.999999999999
 30
0.0
 11
882.50000000005
 21
1328.0
 31
0.0
  0
LINE
  5
DE
330
1F
100
AcDbEntity
  8
LAY-10
  6
CONTINUOUS
 62
     7
100
AcDbLine
 10
867.50000000005
 20
1314.999999999999
 30
0.0
 11
867.50000000005
 21
1328.0
 31
0.0
  0
LINE
  5
DF
330
1F
100
AcDbEntity
  8
LAY-10
  6
CONTINUOUS
 62
     7
100
AcDbLine
 10
866.6000000000499
 20
1327.1251133647
 30
0.0
 11
866.6000000000499
 21
1314.999999999999
 31
0.0
  0
ARC
  5
E0
330
1F
100
AcDbEntity
  8
LAY-10
  6
CONTINUOUS
 62
     7
100
AcDbCircle
 10
875.00000000005
 20
1314.999999999999
 30
0.0
 40
8.4
100
AcDbArc
 50
180.0
 51
0.0
  0
LINE
  5
E1
330
1F
100
AcDbEntity
  8
LAY-10
  6
CONTINUOUS
 62
     7
100
AcDbLine
 10
883.40000000005
 20
1314.999999999999
 30
0.0
 11
883.40000000005
 21
1327.1251133647
 31
0.0
  0
ARC
  5
E2
330
1F
100
AcDbEntity
  8
LAY-10
  6
CONTINUOUS
 62
     7
100
AcDbCircle
 10
885.4000000000499
 20
1327.1251133647
 30
0.0
 40
2.0
100
AcDbArc
 50
90.0
 51
180.0
  0
ARC
  5
E3
330
1F
100
AcDbEntity
  8
LAY-10
  6
CONTINUOUS
 62
     7
100
AcDbCircle
 10
884.5000000000499
 20
1328.0
 30
0.0
 40
2.0
100
AcDbArc
 50
90.0
 51
180.0
  0
ARC
  5
E4
330
1F
100
AcDbEntity
  8
LAY-10
  6
CONTINUOUS
 62
     7
100
AcDbCircle
 10
864.60000000005
 20
1327.1251133647
 30
0.0
 40
2.0
100
AcDbArc
 50
0.0
 51
90.0
  0
ARC
  5
E5
330
1F
100
AcDbEntity
  8
LAY-10
  6
CONTINUOUS
 62
     7
100
AcDbCircle
 10
865.5000000000501
 20
1328.0
 30
0.0
 40
2.0
100
AcDbArc
 50
0.0
 51
90.0
  0
ARC
  5
E6
330
1F
100
AcDbEntity
  8
LAY-10
  6
CONTINUOUS
 62
     7
100
AcDbCircle
 10
990.0
 20
1200.0
 30
0.0
 40
7.500000000000006
100
AcDbArc
 50
90.0
 51
270.0
  0
LINE
  5
E7
330
1F
100
AcDbEntity
  8
LAY-10
  6
CONTINUOUS
 62
     7
100
AcDbLine
 10
990.0
 20
1207.5
 30
0.0
 11
1003.0
 21
1207.5
 31
0.0
  0
LINE
  5
E8
330
1F
100
AcDbEntity
  8
LAY-10
  6
CONTINUOUS
 62
     7
100
AcDbLine
 10
990.0
 20
1192.5
 30
0.0
 11
1003.0
 21
1192.5
 31
0.0
  0
LINE
  5
E9
330
1F
100
AcDbEntity
  8
LAY-10
  6
CONTINUOUS
 62
     7
100
AcDbLine
 10
1002.1251133648
 20
1191.6
 30
0.0
 11
990.0
 21
1191.6
 31
0.0
  0
ARC
  5
EA
330
1F
100
AcDbEntity
  8
LAY-10
  6
CONTINUOUS
 62
     7
100
AcDbCircle
 10
990.0
 20
1200.0
 30
0.0
 40
8.4
100
AcDbArc
 50
90.0
 51
270.0
  0
LINE
  5
EB
330
1F
100
AcDbEntity
  8
LAY-10
  6
CONTINUOUS
 62
     7
100
AcDbLine
 10
990.0
 20
1208.4
 30
0.0
 11
1002.1251133648
 21
1208.4
 31
0.0
  0
ARC
  5
EC
330
1F
100
AcDbEntity
  8
LAY-10
  6
CONTINUOUS
 62
     7
100
AcDbCircle
 10
1002.1251133648
 20
1210.4
 30
0.0
 40
2.0
100
AcDbArc
 50
270.0
 51
0.0
  0
ARC
  5
ED
330
1F
100
AcDbEntity
  8
LAY-10
  6
CONTINUOUS
 62
     7
100
AcDbCircle
 10
1003.0
 20
1209.5
 30
0.0
 40
2.0
100
AcDbArc
 50
270.0
 51
0.0
  0
ARC
  5
EE
330
1F
100
AcDbEntity
  8
LAY-10
  6
CONTINUOUS
 62
     7
100
AcDbCircle
 10
1002.1251133648
 20
1189.6
 30
0.0
 40
2.0
100
AcDbArc
 50
0.0
 51
90.0
  0
ARC
  5
EF
330
1F
100
AcDbEntity
  8
LAY-10
  6
CONTINUOUS
 62
     7
100
AcDbCircle
 10
1003.0
 20
1190.5
 30
0.0
 40
2.0
100
AcDbArc
 50
0.0
 51
90.0
  0
LINE
  5
F0
330
1F
100
AcDbEntity
  8
LAY-10
  6
CONTINUOUS
 62
     7
100
AcDbLine
 10
244.9999999999995
 20
1209.5
 30
0.0
 11
244.9999999999995
 21
1280.0
 31
0.0
  0
LINE
  5
F1
330
1F
100
AcDbEntity
  8
LAY-10
  6
CONTINUOUS
 62
     7
100
AcDbLine
 10
245.8748866351994
 20
1210.4
 30
0.0
 11
245.8748866351994
 21
1280.0251133647
 31
0.0
  0
LINE
  5
F2
330
1F
100
AcDbEntity
  8
LAY-10
  6
CONTINUOUS
 62
     7
100
AcDbLine
 10
365.4999999999494
 20
1329.999999999999
 30
0.0
 11
294.9999999999995
 21
1329.999999999999
 31
0.0
  0
LINE
  5
F3
330
1F
100
AcDbEntity
  8
LAY-10
  6
CONTINUOUS
 62
     7
100
AcDbLine
 10
364.5999999999494
 20
1329.125113364699
 30
0.0
 11
294.9748866351994
 21
1329.125113364699
 31
0.0
  0
ARC
  5
F4
330
1F
100
AcDbEntity
  8
LAY-10
  6
CONTINUOUS
 62
     7
100
AcDbCircle
 10
294.9999999999995
 20
1280.0
 30
0.0
 40
50.00000000000004
100
AcDbArc
 50
90.0
 51
180.0
  0
ARC
  5
F5
330
1F
100
AcDbEntity
  8
LAY-10
  6
CONTINUOUS
 62
     7
100
AcDbCircle
 10
294.9748866351994
 20
1280.0251133647
 30
0.0
 40
49.10000000000001
100
AcDbArc
 50
90.0
 51
180.0
  0
ARC
  5
F6
330
1F
100
AcDbEntity
  8
LAY-10
  6
CONTINUOUS
 62
     7
100
AcDbCircle
 10
374.9999999999495
 20
1314.999999999999
 30
0.0
 40
7.500000000000006
100
AcDbArc
 50
180.0
 51
0.0
  0
LINE
  5
F7
330
1F
100
AcDbEntity
  8
LAY-10
  6
CONTINUOUS
 62
     7
100
AcDbLine
 10
367.4999999999495
 20
1314.999999999999
 30
0.0
 11
367.4999999999495
 21
1328.0
 31
0.0
  0
LINE
  5
F8
330
1F
100
AcDbEntity
  8
LAY-10
  6
CONTINUOUS
 62
     7
100
AcDbLine
 10
382.4999999999495
 20
1314.999999999999
 30
0.0
 11
382.4999999999495
 21
1328.0
 31
0.0
  0
LINE
  5
F9
330
1F
100
AcDbEntity
  8
LAY-10
  6
CONTINUOUS
 62
     7
100
AcDbLine
 10
383.3999999999495
 20
1327.1251133647
 30
0.0
 11
383.3999999999495
 21
1314.999999999999
 31
0.0
  0
ARC
  5
FA
330
1F
100
AcDbEntity
  8
LAY-10
  6
CONTINUOUS
 62
     7
100
AcDbCircle
 10
374.9999999999495
 20
1314.999999999999
 30
0.0
 40
8.4
100
AcDbArc
 50
180.0
 51
0.0
  0
LINE
  5
FB
330
1F
100
AcDbEntity
  8
LAY-10
  6
CONTINUOUS
 62
     7
100
AcDbLine
 10
366.5999999999494
 20
1314.999999999999
 30
0.0
 11
366.5999999999494
 21
1327.1251133647
 31
0.0
  0
ARC
  5
FC
330
1F
100
AcDbEntity
  8
LAY-10
  6
CONTINUOUS
 62
     7
100
AcDbCircle
 10
364.5999999999494
 20
1327.1251133647
 30
0.0
 40
2.0
100
AcDbArc
 50
0.0
 51
90.0
  0
ARC
  5
FD
330
1F
100
AcDbEntity
  8
LAY-10
  6
CONTINUOUS
 62
     7
100
AcDbCircle
 10
365.4999999999494
 20
1328.0
 30
0.0
 40
2.0
100
AcDbArc
 50
0.0
 51
90.0
  0
ARC
  5
FE
330
1F
100
AcDbEntity
  8
LAY-10
  6
CONTINUOUS
 62
     7
100
AcDbCircle
 10
385.3999999999497
 20
1327.1251133647
 30
0.0
 40
2.0
100
AcDbArc
 50
90.0
 51
180.0
  0
ARC
  5
FF
330
1F
100
AcDbEntity
  8
LAY-10
  6
CONTINUOUS
 62
     7
100
AcDbCircle
 10
384.4999999999494
 20
1328.0
 30
0.0
 40
2.0
100
AcDbArc
 50
90.0
 51
180.0
  0
ARC
  5
100
330
1F
100
AcDbEntity
  8
LAY-10
  6
CONTINUOUS
 62
     7
100
AcDbCircle
 10
259.9999999999995
 20
1200.0
 30
0.0
 40
7.500000000000006
100
AcDbArc
 50
270.0
 51
90.0
  0
LINE
  5
101
330
1F
100
AcDbEntity
  8
LAY-10
  6
CONTINUOUS
 62
     7
100
AcDbLine
 10
259.9999999999995
 20
1207.5
 30
0.0
 11
246.9999999999994
 21
1207.5
 31
0.0
  0
LINE
  5
102
330
1F
100
AcDbEntity
  8
LAY-10
  6
CONTINUOUS
 62
     7
100
AcDbLine
 10
259.9999999999995
 20
1192.5
 30
0.0
 11
246.9999999999994
 21
1192.5
 31
0.0
  0
LINE
  5
103
330
1F
100
AcDbEntity
  8
LAY-10
  6
CONTINUOUS
 62
     7
100
AcDbLine
 10
247.8748866351996
 20
1191.6
 30
0.0
 11
259.9999999999995
 21
1191.6
 31
0.0
  0
ARC
  5
104
330
1F
100
AcDbEntity
  8
LAY-10
  6
CONTINUOUS
 62
     7
100
AcDbCircle
 10
259.9999999999995
 20
1200.0
 30
0.0
 40
8.4
100
AcDbArc
 50
270.0
 51
90.0
  0
LINE
  5
105
330
1F
100
AcDbEntity
  8
LAY-10
  6
CONTINUOUS
 62
     7
100
AcDbLine
 10
259.9999999999995
 20
1208.4
 30
0.0
 11
247.8748866351996
 21
1208.4
 31
0.0
  0
ARC
  5
106
330
1F
100
AcDbEntity
  8
LAY-10
  6
CONTINUOUS
 62
     7
100
AcDbCircle
 10
247.8748866351996
 20
1210.4
 30
0.0
 40
2.0
100
AcDbArc
 50
180.0
 51
270.0
  0
ARC
  5
107
330
1F
100
AcDbEntity
  8
LAY-10
  6
CONTINUOUS
 62
     7
100
AcDbCircle
 10
246.9999999999994
 20
1209.5
 30
0.0
 40
2.0
100
AcDbArc
 50
180.0
 51
270.0
  0
ARC
  5
108
330
1F
100
AcDbEntity
  8
LAY-10
  6
CONTINUOUS
 62
     7
100
AcDbCircle
 10
247.8748866351996
 20
1189.6
 30
0.0
 40
2.0
100
AcDbArc
 50
90.0
 51
180.0
  0
ARC
  5
109
330
1F
100
AcDbEntity
  8
LAY-10
  6
CONTINUOUS
 62
     7
100
AcDbCircle
 10
246.9999999999994
 20
1190.5
 30
0.0
 40
2.0
100
AcDbArc
 50
90.0
 51
180.0
  0
LINE
  5
10A
330
1F
100
AcDbEntity
  8
LAY-10
  6
CONTINUOUS
 62
     7
100
AcDbLine
 10
865.5000000000501
 20
1329.999999999999
 30
0.0
 11
384.4999999999494
 21
1329.999999999999
 31
0.0
  0
LINE
  5
10B
330
1F
100
AcDbEntity
  8
LAY-10
  6
CONTINUOUS
 62
     7
100
AcDbLine
 10
864.60000000005
 20
1329.125113364699
 30
0.0
 11
385.3999999999497
 21
1329.125113364699
 31
0.0
  0
LINE
  5
10C
330
1F
100
AcDbEntity
  8
LAY-10
  6
CONTINUOUS
 62
     7
100
AcDbLine
 10
1005.0
 20
690.4999999999998
 30
0.0
 11
1005.0
 21
619.9999999999998
 31
0.0
  0
LINE
  5
10D
330
1F
100
AcDbEntity
  8
LAY-10
  6
CONTINUOUS
 62
     7
100
AcDbLine
 10
1004.1251133648
 20
689.5999999999999
 30
0.0
 11
1004.1251133648
 21
619.9748866353
 31
0.0
  0
LINE
  5
10E
330
1F
100
AcDbEntity
  8
LAY-10
  6
CONTINUOUS
 62
     7
100
AcDbLine
 10
884.5000000000499
 20
570.0
 30
0.0
 11
955.0
 21
570.0
 31
0.0
  0
LINE
  5
10F
330
1F
100
AcDbEntity
  8
LAY-10
  6
CONTINUOUS
 62
     7
100
AcDbLine
 10
885.4000000000499
 20
570.8748866352997
 30
0.0
 11
955.0251133648001
 21
570.8748866352997
 31
0.0
  0
ARC
  5
110
330
1F
100
AcDbEntity
  8
LAY-10
  6
CONTINUOUS
 62
     7
100
AcDbCircle
 10
955.0
 20
619.9999999999998
 30
0.0
 40
50.00000000000004
100
AcDbArc
 50
270.0
 51
0.0
  0
ARC
  5
111
330
1F
100
AcDbEntity
  8
LAY-10
  6
CONTINUOUS
 62
     7
100
AcDbCircle
 10
955.0251133648001
 20
619.9748866353
 30
0.0
 40
49.10000000000001
100
AcDbArc
 50
270.0
 51
0.0
  0
ARC
  5
112
330
1F
100
AcDbEntity
  8
LAY-10
  6
CONTINUOUS
 62
     7
100
AcDbCircle
 10
875.00000000005
 20
585.0
 30
0.0
 40
7.500000000000006
100
AcDbArc
 50
0.0
 51
180.0
  0
LINE
  5
113
330
1F
100
AcDbEntity
  8
LAY-10
  6
CONTINUOUS
 62
     7
100
AcDbLine
 10
882.50000000005
 20
585.0
 30
0.0
 11
882.50000000005
 21
571.9999999999999
 31
0.0
  0
LINE
  5
114
330
1F
100
AcDbEntity
  8
LAY-10
  6
CONTINUOUS
 62
     7
100
AcDbLine
 10
867.50000000005
 20
585.0
 30
0.0
 11
867.50000000005
 21
571.9999999999999
 31
0.0
  0
LINE
  5
115
330
1F
100
AcDbEntity
  8
LAY-10
  6
CONTINUOUS
 62
     7
100
AcDbLine
 10
866.6000000000499
 20
572.8748866352998
 30
0.0
 11
866.6000000000499
 21
585.0
 31
0.0
  0
ARC
  5
116
330
1F
100
AcDbEntity
  8
LAY-10
  6
CONTINUOUS
 62
     7
100
AcDbCircle
 10
875.00000000005
 20
585.0
 30
0.0
 40
8.4
100
AcDbArc
 50
0.0
 51
180.0
  0
LINE
  5
117
330
1F
100
AcDbEntity
  8
LAY-10
  6
CONTINUOUS
 62
     7
100
AcDbLine
 10
883.40000000005
 20
585.0
 30
0.0
 11
883.40000000005
 21
572.8748866352998
 31
0.0
  0
ARC
  5
118
330
1F
100
AcDbEntity
  8
LAY-10
  6
CONTINUOUS
 62
     7
100
AcDbCircle
 10
885.4000000000499
 20
572.8748866352998
 30
0.0
 40
2.0
100
AcDbArc
 50
180.0
 51
270.0
  0
ARC
  5
119
330
1F
100
AcDbEntity
  8
LAY-10
  6
CONTINUOUS
 62
     7
100
AcDbCircle
 10
884.5000000000499
 20
571.9999999999999
 30
0.0
 40
2.0
100
AcDbArc
 50
180.0
 51
270.0
  0
ARC
  5
11A
330
1F
100
AcDbEntity
  8
LAY-10
  6
CONTINUOUS
 62
     7
100
AcDbCircle
 10
864.60000000005
 20
572.8748866352998
 30
0.0
 40
2.0
100
AcDbArc
 50
270.0
 51
0.0
  0
ARC
  5
11B
330
1F
100
AcDbEntity
  8
LAY-10
  6
CONTINUOUS
 62
     7
100
AcDbCircle
 10
865.5000000000501
 20
571.9999999999999
 30
0.0
 40
2.0
100
AcDbArc
 50
270.0
 51
0.0
  0
ARC
  5
11C
330
1F
100
AcDbEntity
  8
LAY-10
  6
CONTINUOUS
 62
     7
100
AcDbCircle
 10
990.0
 20
700.0000000000001
 30
0.0
 40
7.500000000000006
100
AcDbArc
 50
90.0
 51
270.0
  0
LINE
  5
11D
330
1F
100
AcDbEntity
  8
LAY-10
  6
CONTINUOUS
 62
     7
100
AcDbLine
 10
990.0
 20
692.5000000000001
 30
0.0
 11
1003.0
 21
692.5000000000001
 31
0.0
  0
LINE
  5
11E
330
1F
100
AcDbEntity
  8
LAY-10
  6
CONTINUOUS
 62
     7
100
AcDbLine
 10
990.0
 20
707.5000000000001
 30
0.0
 11
1003.0
 21
707.5000000000001
 31
0.0
  0
LINE
  5
11F
330
1F
100
AcDbEntity
  8
LAY-10
  6
CONTINUOUS
 62
     7
100
AcDbLine
 10
1002.1251133648
 20
708.3999999999999
 30
0.0
 11
990.0
 21
708.3999999999999
 31
0.0
  0
ARC
  5
120
330
1F
100
AcDbEntity
  8
LAY-10
  6
CONTINUOUS
 62
     7
100
AcDbCircle
 10
990.0
 20
700.0000000000001
 30
0.0
 40
8.4
100
AcDbArc
 50
90.0
 51
270.0
  0
LINE
  5
121
330
1F
100
AcDbEntity
  8
LAY-10
  6
CONTINUOUS
 62
     7
100
AcDbLine
 10
990.0
 20
691.5999999999998
 30
0.0
 11
1002.1251133648
 21
691.5999999999998
 31
0.0
  0
ARC
  5
122
330
1F
100
AcDbEntity
  8
LAY-10
  6
CONTINUOUS
 62
     7
100
AcDbCircle
 10
1002.1251133648
 20
689.5999999999999
 30
0.0
 40
2.0
100
AcDbArc
 50
0.0
 51
90.0
  0
ARC
  5
123
330
1F
100
AcDbEntity
  8
LAY-10
  6
CONTINUOUS
 62
     7
100
AcDbCircle
 10
1003.0
 20
690.4999999999998
 30
0.0
 40
2.0
100
AcDbArc
 50
0.0
 51
90.0
  0
ARC
  5
124
330
1F
100
AcDbEntity
  8
LAY-10
  6
CONTINUOUS
 62
     7
100
AcDbCircle
 10
1002.1251133648
 20
710.4000000000002
 30
0.0
 40
2.0
100
AcDbArc
 50
270.0
 51
0.0
  0
ARC
  5
125
330
1F
100
AcDbEntity
  8
LAY-10
  6
CONTINUOUS
 62
     7
100
AcDbCircle
 10
1003.0
 20
709.5
 30
0.0
 40
2.0
100
AcDbArc
 50
270.0
 51
0.0
  0
LINE
  5
126
330
1F
100
AcDbEntity
  8
LAY-10
  6
CONTINUOUS
 62
     7
100
AcDbLine
 10
244.9999999999995
 20
690.4999999999998
 30
0.0
 11
244.9999999999995
 21
619.9999999999998
 31
0.0
  0
LINE
  5
127
330
1F
100
AcDbEntity
  8
LAY-10
  6
CONTINUOUS
 62
     7
100
AcDbLine
 10
245.8748866351994
 20
689.5999999999999
 30
0.0
 11
245.8748866351994
 21
619.9748866353
 31
0.0
  0
LINE
  5
128
330
1F
100
AcDbEntity
  8
LAY-10
  6
CONTINUOUS
 62
     7
100
AcDbLine
 10
365.4999999999494
 20
570.0
 30
0.0
 11
294.9999999999995
 21
570.0
 31
0.0
  0
LINE
  5
129
330
1F
100
AcDbEntity
  8
LAY-10
  6
CONTINUOUS
 62
     7
100
AcDbLine
 10
364.5999999999494
 20
570.8748866353001
 30
0.0
 11
294.9748866351994
 21
570.8748866353001
 31
0.0
  0
ARC
  5
12A
330
1F
100
AcDbEntity
  8
LAY-10
  6
CONTINUOUS
 62
     7
100
AcDbCircle
 10
294.9999999999995
 20
619.9999999999998
 30
0.0
 40
50.00000000000004
100
AcDbArc
 50
180.0
 51
270.0
  0
ARC
  5
12B
330
1F
100
AcDbEntity
  8
LAY-10
  6
CONTINUOUS
 62
     7
100
AcDbCircle
 10
294.9748866351994
 20
619.9748866353
 30
0.0
 40
49.10000000000001
100
AcDbArc
 50
180.0
 51
270.0
  0
ARC
  5
12C
330
1F
100
AcDbEntity
  8
LAY-10
  6
CONTINUOUS
 62
     7
100
AcDbCircle
 10
374.9999999999495
 20
585.0
 30
0.0
 40
7.500000000000006
100
AcDbArc
 50
0.0
 51
180.0
  0
LINE
  5
12D
330
1F
100
AcDbEntity
  8
LAY-10
  6
CONTINUOUS
 62
     7
100
AcDbLine
 10
367.4999999999495
 20
585.0
 30
0.0
 11
367.4999999999495
 21
571.9999999999999
 31
0.0
  0
LINE
  5
12E
330
1F
100
AcDbEntity
  8
LAY-10
  6
CONTINUOUS
 62
     7
100
AcDbLine
 10
382.4999999999495
 20
585.0
 30
0.0
 11
382.4999999999495
 21
571.9999999999999
 31
0.0
  0
LINE
  5
12F
330
1F
100
AcDbEntity
  8
LAY-10
  6
CONTINUOUS
 62
     7
100
AcDbLine
 10
383.3999999999495
 20
572.8748866353
 30
0.0
 11
383.3999999999495
 21
585.0
 31
0.0
  0
ARC
  5
130
330
1F
100
AcDbEntity
  8
LAY-10
  6
CONTINUOUS
 62
     7
100
AcDbCircle
 10
374.9999999999495
 20
585.0
 30
0.0
 40
8.4
100
AcDbArc
 50
0.0
 51
180.0
  0
LINE
  5
131
330
1F
100
AcDbEntity
  8
LAY-10
  6
CONTINUOUS
 62
     7
100
AcDbLine
 10
366.5999999999493
 20
585.0
 30
0.0
 11
366.5999999999493
 21
572.8748866353
 31
0.0
  0
ARC
  5
132
330
1F
100
AcDbEntity
  8
LAY-10
  6
CONTINUOUS
 62
     7
100
AcDbCircle
 10
364.5999999999494
 20
572.8748866353
 30
0.0
 40
2.0
100
AcDbArc
 50
270.0
 51
0.0
  0
ARC
  5
133
330
1F
100
AcDbEntity
  8
LAY-10
  6
CONTINUOUS
 62
     7
100
AcDbCircle
 10
365.4999999999494
 20
571.9999999999999
 30
0.0
 40
2.0
100
AcDbArc
 50
270.0
 51
0.0
  0
ARC
  5
134
330
1F
100
AcDbEntity
  8
LAY-10
  6
CONTINUOUS
 62
     7
100
AcDbCircle
 10
385.3999999999497
 20
572.8748866353
 30
0.0
 40
2.0
100
AcDbArc
 50
180.0
 51
270.0
  0
ARC
  5
135
330
1F
100
AcDbEntity
  8
LAY-10
  6
CONTINUOUS
 62
     7
100
AcDbCircle
 10
384.4999999999494
 20
571.9999999999999
 30
0.0
 40
2.0
100
AcDbArc
 50
180.0
 51
270.0
  0
ARC
  5
136
330
1F
100
AcDbEntity
  8
LAY-10
  6
CONTINUOUS
 62
     7
100
AcDbCircle
 10
259.9999999999995
 20
700.0000000000001
 30
0.0
 40
7.500000000000006
100
AcDbArc
 50
270.0
 51
90.0
  0
LINE
  5
137
330
1F
100
AcDbEntity
  8
LAY-10
  6
CONTINUOUS
 62
     7
100
AcDbLine
 10
259.9999999999995
 20
692.5000000000001
 30
0.0
 11
246.9999999999994
 21
692.5000000000001
 31
0.0
  0
LINE
  5
138
330
1F
100
AcDbEntity
  8
LAY-10
  6
CONTINUOUS
 62
     7
100
AcDbLine
 10
259.9999999999995
 20
707.5000000000001
 30
0.0
 11
246.9999999999994
 21
707.5000000000001
 31
0.0
  0
LINE
  5
139
330
1F
100
AcDbEntity
  8
LAY-10
  6
CONTINUOUS
 62
     7
100
AcDbLine
 10
247.8748866351996
 20
708.3999999999999
 30
0.0
 11
259.9999999999995
 21
708.3999999999999
 31
0.0
  0
ARC
  5
13A
330
1F
100
AcDbEntity
  8
LAY-10
  6
CONTINUOUS
 62
     7
100
AcDbCircle
 10
259.9999999999995
 20
700.0000000000001
 30
0.0
 40
8.4
100
AcDbArc
 50
270.0
 51
90.0
  0
LINE
  5
13B
330
1F
100
AcDbEntity
  8
LAY-10
  6
CONTINUOUS
 62
     7
100
AcDbLine
 10
259.9999999999995
 20
691.6000000000003
 30
0.0
 11
247.8748866351996
 21
691.6000000000003
 31
0.0
  0
ARC
  5
13C
330
1F
100
AcDbEntity
  8
LAY-10
  6
CONTINUOUS
 62
     7
100
AcDbCircle
 10
247.8748866351996
 20
689.5999999999999
 30
0.0
 40
2.0
100
AcDbArc
 50
90.0
 51
180.0
  0
ARC
  5
13D
330
1F
100
AcDbEntity
  8
LAY-10
  6
CONTINUOUS
 62
     7
100
AcDbCircle
 10
246.9999999999994
 20
690.4999999999998
 30
0.0
 40
2.0
100
AcDbArc
 50
90.0
 51
180.0
  0
ARC
  5
13E
330
1F
100
AcDbEntity
  8
LAY-10
  6
CONTINUOUS
 62
     7
100
AcDbCircle
 10
247.8748866351996
 20
710.4000000000002
 30
0.0
 40
2.0
100
AcDbArc
 50
180.0
 51
270.0
  0
ARC
  5
13F
330
1F
100
AcDbEntity
  8
LAY-10
  6
CONTINUOUS
 62
     7
100
AcDbCircle
 10
246.9999999999994
 20
709.5
 30
0.0
 40
2.0
100
AcDbArc
 50
180.0
 51
270.0
  0
LINE
  5
140
330
1F
100
AcDbEntity
  8
LAY-10
  6
CONTINUOUS
 62
     7
100
AcDbLine
 10
865.5000000000501
 20
570.0
 30
0.0
 11
384.4999999999494
 21
570.0
 31
0.0
  0
LINE
  5
141
330
1F
100
AcDbEntity
  8
LAY-10
  6
CONTINUOUS
 62
     7
100
AcDbLine
 10
864.60000000005
 20
570.8748866352997
 30
0.0
 11
385.3999999999497
 21
570.8748866353001
 31
0.0
  0
LINE
  5
142
330
1F
100
AcDbEntity
  8
LAY-10
  6
CONTINUOUS
 62
     7
100
AcDbLine
 10
245.8748866351994
 20
710.4000000000002
 30
0.0
 11
245.8748866351994
 21
1189.6
 31
0.0
  0
LINE
  5
143
330
1F
100
AcDbEntity
  8
LAY-10
  6
CONTINUOUS
 62
     7
100
AcDbLine
 10
244.9999999999995
 20
709.5
 30
0.0
 11
244.9999999999995
 21
1190.5
 31
0.0
  0
LINE
  5
144
330
1F
100
AcDbEntity
  8
LAY-10
  6
CONTINUOUS
 62
     7
100
AcDbLine
 10
974.0
 20
743.9999999999999
 30
0.0
 11
972.0188679245299
 21
745.9999999999998
 31
0.0
  0
LINE
  5
145
330
1F
100
AcDbEntity
  8
LAY-10
  6
CONTINUOUS
 62
     7
100
AcDbLine
 10
974.0
 20
755.9999999999999
 30
0.0
 11
972.0188679245299
 21
754.0
 31
0.0
  0
LINE
  5
146
330
1F
100
AcDbEntity
  8
LAY-10
  6
CONTINUOUS
 62
     7
100
AcDbLine
 10
972.0188679245299
 20
745.9999999999998
 30
0.0
 11
972.0188679245299
 21
754.0
 31
0.0
  0
LINE
  5
147
330
1F
100
AcDbEntity
  8
LAY-10
  6
CONTINUOUS
 62
     7
100
AcDbLine
 10
981.0
 20
745.9999999999998
 30
0.0
 11
981.0
 21
754.0
 31
0.0
  0
LINE
  5
148
330
1F
100
AcDbEntity
  8
LAY-10
  6
CONTINUOUS
 62
     7
100
AcDbLine
 10
974.0
 20
755.9999999999999
 30
0.0
 11
974.0
 21
943.9999999999999
 31
0.0
  0
LINE
  5
149
330
1F
100
AcDbEntity
  8
LAY-10
  6
CONTINUOUS
 62
     7
100
AcDbLine
 10
974.0
 20
955.9999999999999
 30
0.0
 11
974.0
 21
1144.0
 31
0.0
  0
LINE
  5
14A
330
1F
100
AcDbEntity
  8
LAY-10
  6
CONTINUOUS
 62
     7
100
AcDbLine
 10
275.9999999999994
 20
755.9999999999999
 30
0.0
 11
275.9999999999994
 21
943.9999999999999
 31
0.0
  0
LINE
  5
14B
330
1F
100
AcDbEntity
  8
LAY-10
  6
CONTINUOUS
 62
     7
100
AcDbLine
 10
275.9999999999994
 20
955.9999999999999
 30
0.0
 11
275.9999999999994
 21
1144.0
 31
0.0
  0
LINE
  5
14C
330
1F
100
AcDbEntity
  8
LAY-10
  6
CONTINUOUS
 62
     7
100
AcDbLine
 10
619.0000000000007
 20
1298.999999999999
 30
0.0
 11
430.9999999999989
 21
1298.999999999999
 31
0.0
  0
LINE
  5
14D
330
1F
100
AcDbEntity
  8
LAY-10
  6
CONTINUOUS
 62
     7
100
AcDbLine
 10
819.0000000000007
 20
1298.999999999999
 30
0.0
 11
630.9999999999985
 21
1298.999999999999
 31
0.0
  0
LINE
  5
14E
330
1F
100
AcDbEntity
  8
LAY-10
  6
CONTINUOUS
 62
     7
100
AcDbLine
 10
618.9999999999995
 20
601.000000000001
 30
0.0
 11
430.9999999999989
 21
601.000000000001
 31
0.0
  0
LINE
  5
14F
330
1F
100
AcDbEntity
  8
LAY-10
  6
CONTINUOUS
 62
     7
100
AcDbLine
 10
818.9999999999994
 20
601.0000000000006
 30
0.0
 11
630.9999999999985
 21
601.000000000001
 31
0.0
  0
LINE
  5
150
330
1F
100
AcDbEntity
  8
LAY-10
  6
CONTINUOUS
 62
     7
100
AcDbLine
 10
1004.1251133648
 20
710.4000000000002
 30
0.0
 11
1004.1251133648
 21
1189.6
 31
0.0
  0
LINE
  5
151
330
1F
100
AcDbEntity
  8
LAY-10
  6
CONTINUOUS
 62
     7
100
AcDbLine
 10
1005.0
 20
709.5
 30
0.0
 11
1005.0
 21
1190.5
 31
0.0
  0
LINE
  5
152
330
1F
100
AcDbEntity
  8
LAY-10
  6
CONTINUOUS
 62
     7
100
AcDbLine
 10
996.0
 20
754.0
 30
0.0
 11
972.0188679245299
 21
754.0
 31
0.0
  0
LINE
  5
153
330
1F
100
AcDbEntity
  8
LAY-10
  6
CONTINUOUS
 62
     7
100
AcDbLine
 10
972.0188679245299
 20
745.9999999999998
 30
0.0
 11
996.0
 21
745.9999999999998
 31
0.0
  0
LINE
  5
154
330
1F
100
AcDbEntity
  8
LAY-10
  6
CONTINUOUS
 62
     7
100
AcDbLine
 10
996.0
 20
745.9999999999998
 30
0.0
 11
974.0
 21
743.9999999999999
 31
0.0
  0
LINE
  5
155
330
1F
100
AcDbEntity
  8
LAY-10
  6
CONTINUOUS
 62
     7
100
AcDbLine
 10
996.0
 20
754.0
 30
0.0
 11
974.0
 21
755.9999999999999
 31
0.0
  0
LINE
  5
156
330
1F
100
AcDbEntity
  8
LAY-10
  6
CONTINUOUS
 62
     7
100
AcDbLine
 10
996.0
 20
745.9999999999998
 30
0.0
 11
996.0
 21
754.0
 31
0.0
  0
LINE
  5
157
330
1F
100
AcDbEntity
  8
LAY-10
  6
CONTINUOUS
 62
     7
100
AcDbLine
 10
974.0
 20
1156.0
 30
0.0
 11
972.0188679245299
 21
1154.0
 31
0.0
  0
LINE
  5
158
330
1F
100
AcDbEntity
  8
LAY-10
  6
CONTINUOUS
 62
     7
100
AcDbLine
 10
974.0
 20
1144.0
 30
0.0
 11
972.0188679245299
 21
1146.0
 31
0.0
  0
LINE
  5
159
330
1F
100
AcDbEntity
  8
LAY-10
  6
CONTINUOUS
 62
     7
100
AcDbLine
 10
972.0188679245299
 20
1154.0
 30
0.0
 11
972.0188679245299
 21
1146.0
 31
0.0
  0
LINE
  5
15A
330
1F
100
AcDbEntity
  8
LAY-10
  6
CONTINUOUS
 62
     7
100
AcDbLine
 10
981.0
 20
1154.0
 30
0.0
 11
981.0
 21
1146.0
 31
0.0
  0
LINE
  5
15B
330
1F
100
AcDbEntity
  8
LAY-10
  6
CONTINUOUS
 62
     7
100
AcDbLine
 10
996.0
 20
1146.0
 30
0.0
 11
972.0188679245299
 21
1146.0
 31
0.0
  0
LINE
  5
15C
330
1F
100
AcDbEntity
  8
LAY-10
  6
CONTINUOUS
 62
     7
100
AcDbLine
 10
972.0188679245299
 20
1154.0
 30
0.0
 11
996.0
 21
1154.0
 31
0.0
  0
LINE
  5
15D
330
1F
100
AcDbEntity
  8
LAY-10
  6
CONTINUOUS
 62
     7
100
AcDbLine
 10
996.0
 20
1154.0
 30
0.0
 11
974.0
 21
1156.0
 31
0.0
  0
LINE
  5
15E
330
1F
100
AcDbEntity
  8
LAY-10
  6
CONTINUOUS
 62
     7
100
AcDbLine
 10
996.0
 20
1146.0
 30
0.0
 11
974.0
 21
1144.0
 31
0.0
  0
LINE
  5
15F
330
1F
100
AcDbEntity
  8
LAY-10
  6
CONTINUOUS
 62
     7
100
AcDbLine
 10
996.0
 20
1154.0
 30
0.0
 11
996.0
 21
1146.0
 31
0.0
  0
LINE
  5
160
330
1F
100
AcDbEntity
  8
LAY-10
  6
CONTINUOUS
 62
     7
100
AcDbLine
 10
418.9999999999998
 20
1299.0
 30
0.0
 11
421.0
 21
1297.01886792453
 31
0.0
  0
LINE
  5
161
330
1F
100
AcDbEntity
  8
LAY-10
  6
CONTINUOUS
 62
     7
100
AcDbLine
 10
430.9999999999998
 20
1299.0
 30
0.0
 11
428.9999999999999
 21
1297.01886792453
 31
0.0
  0
LINE
  5
162
330
1F
100
AcDbEntity
  8
LAY-10
  6
CONTINUOUS
 62
     7
100
AcDbLine
 10
421.0
 20
1297.01886792453
 30
0.0
 11
428.9999999999999
 21
1297.01886792453
 31
0.0
  0
LINE
  5
163
330
1F
100
AcDbEntity
  8
LAY-10
  6
CONTINUOUS
 62
     7
100
AcDbLine
 10
421.0
 20
1306.0
 30
0.0
 11
428.9999999999999
 21
1306.0
 31
0.0
  0
LINE
  5
164
330
1F
100
AcDbEntity
  8
LAY-10
  6
CONTINUOUS
 62
     7
100
AcDbLine
 10
428.9999999999999
 20
1321.0
 30
0.0
 11
428.9999999999999
 21
1297.01886792453
 31
0.0
  0
LINE
  5
165
330
1F
100
AcDbEntity
  8
LAY-10
  6
CONTINUOUS
 62
     7
100
AcDbLine
 10
421.0
 20
1297.01886792453
 30
0.0
 11
421.0
 21
1321.0
 31
0.0
  0
LINE
  5
166
330
1F
100
AcDbEntity
  8
LAY-10
  6
CONTINUOUS
 62
     7
100
AcDbLine
 10
421.0
 20
1321.0
 30
0.0
 11
418.9999999999998
 21
1299.0
 31
0.0
  0
LINE
  5
167
330
1F
100
AcDbEntity
  8
LAY-10
  6
CONTINUOUS
 62
     7
100
AcDbLine
 10
428.9999999999999
 20
1321.0
 30
0.0
 11
430.9999999999998
 21
1299.0
 31
0.0
  0
LINE
  5
168
330
1F
100
AcDbEntity
  8
LAY-10
  6
CONTINUOUS
 62
     7
100
AcDbLine
 10
421.0
 20
1321.0
 30
0.0
 11
428.9999999999999
 21
1321.0
 31
0.0
  0
LINE
  5
169
330
1F
100
AcDbEntity
  8
LAY-10
  6
CONTINUOUS
 62
     7
100
AcDbLine
 10
830.9999999999997
 20
1299.0
 30
0.0
 11
828.9999999999994
 21
1297.01886792453
 31
0.0
  0
LINE
  5
16A
330
1F
100
AcDbEntity
  8
LAY-10
  6
CONTINUOUS
 62
     7
100
AcDbLine
 10
818.9999999999994
 20
1299.0
 30
0.0
 11
820.9999999999997
 21
1297.01886792453
 31
0.0
  0
LINE
  5
16B
330
1F
100
AcDbEntity
  8
LAY-10
  6
CONTINUOUS
 62
     7
100
AcDbLine
 10
828.9999999999994
 20
1297.01886792453
 30
0.0
 11
820.9999999999997
 21
1297.01886792453
 31
0.0
  0
LINE
  5
16C
330
1F
100
AcDbEntity
  8
LAY-10
  6
CONTINUOUS
 62
     7
100
AcDbLine
 10
828.9999999999994
 20
1306.0
 30
0.0
 11
820.9999999999997
 21
1306.0
 31
0.0
  0
LINE
  5
16D
330
1F
100
AcDbEntity
  8
LAY-10
  6
CONTINUOUS
 62
     7
100
AcDbLine
 10
820.9999999999997
 20
1321.0
 30
0.0
 11
820.9999999999997
 21
1297.01886792453
 31
0.0
  0
LINE
  5
16E
330
1F
100
AcDbEntity
  8
LAY-10
  6
CONTINUOUS
 62
     7
100
AcDbLine
 10
828.9999999999994
 20
1297.01886792453
 30
0.0
 11
828.9999999999994
 21
1321.0
 31
0.0
  0
LINE
  5
16F
330
1F
100
AcDbEntity
  8
LAY-10
  6
CONTINUOUS
 62
     7
100
AcDbLine
 10
828.9999999999994
 20
1321.0
 30
0.0
 11
830.9999999999997
 21
1299.0
 31
0.0
  0
LINE
  5
170
330
1F
100
AcDbEntity
  8
LAY-10
  6
CONTINUOUS
 62
     7
100
AcDbLine
 10
820.9999999999997
 20
1321.0
 30
0.0
 11
818.9999999999994
 21
1299.0
 31
0.0
  0
LINE
  5
171
330
1F
100
AcDbEntity
  8
LAY-10
  6
CONTINUOUS
 62
     7
100
AcDbLine
 10
828.9999999999994
 20
1321.0
 30
0.0
 11
820.9999999999997
 21
1321.0
 31
0.0
  0
LINE
  5
172
330
1F
100
AcDbEntity
  8
LAY-10
  6
CONTINUOUS
 62
     7
100
AcDbLine
 10
630.9999999999994
 20
1299.0
 30
0.0
 11
628.9999999999995
 21
1297.01886792453
 31
0.0
  0
LINE
  5
173
330
1F
100
AcDbEntity
  8
LAY-10
  6
CONTINUOUS
 62
     7
100
AcDbLine
 10
618.9999999999995
 20
1299.0
 30
0.0
 11
620.9999999999994
 21
1297.01886792453
 31
0.0
  0
LINE
  5
174
330
1F
100
AcDbEntity
  8
LAY-10
  6
CONTINUOUS
 62
     7
100
AcDbLine
 10
628.9999999999995
 20
1297.01886792453
 30
0.0
 11
620.9999999999994
 21
1297.01886792453
 31
0.0
  0
LINE
  5
175
330
1F
100
AcDbEntity
  8
LAY-10
  6
CONTINUOUS
 62
     7
100
AcDbLine
 10
628.9999999999995
 20
1306.0
 30
0.0
 11
620.9999999999994
 21
1306.0
 31
0.0
  0
LINE
  5
176
330
1F
100
AcDbEntity
  8
LAY-10
  6
CONTINUOUS
 62
     7
100
AcDbLine
 10
620.9999999999994
 20
1321.0
 30
0.0
 11
620.9999999999994
 21
1297.01886792453
 31
0.0
  0
LINE
  5
177
330
1F
100
AcDbEntity
  8
LAY-10
  6
CONTINUOUS
 62
     7
100
AcDbLine
 10
628.9999999999995
 20
1297.01886792453
 30
0.0
 11
628.9999999999995
 21
1321.0
 31
0.0
  0
LINE
  5
178
330
1F
100
AcDbEntity
  8
LAY-10
  6
CONTINUOUS
 62
     7
100
AcDbLine
 10
628.9999999999995
 20
1321.0
 30
0.0
 11
630.9999999999994
 21
1299.0
 31
0.0
  0
LINE
  5
179
330
1F
100
AcDbEntity
  8
LAY-10
  6
CONTINUOUS
 62
     7
100
AcDbLine
 10
620.9999999999994
 20
1321.0
 30
0.0
 11
618.9999999999995
 21
1299.0
 31
0.0
  0
LINE
  5
17A
330
1F
100
AcDbEntity
  8
LAY-10
  6
CONTINUOUS
 62
     7
100
AcDbLine
 10
628.9999999999995
 20
1321.0
 30
0.0
 11
620.9999999999994
 21
1321.0
 31
0.0
  0
LINE
  5
17B
330
1F
100
AcDbEntity
  8
LAY-10
  6
CONTINUOUS
 62
     7
100
AcDbLine
 10
974.0
 20
943.9999999999999
 30
0.0
 11
972.0188679245299
 21
945.9999999999998
 31
0.0
  0
LINE
  5
17C
330
1F
100
AcDbEntity
  8
LAY-10
  6
CONTINUOUS
 62
     7
100
AcDbLine
 10
974.0
 20
955.9999999999999
 30
0.0
 11
972.0188679245299
 21
954.0
 31
0.0
  0
LINE
  5
17D
330
1F
100
AcDbEntity
  8
LAY-10
  6
CONTINUOUS
 62
     7
100
AcDbLine
 10
972.0188679245299
 20
945.9999999999998
 30
0.0
 11
972.0188679245299
 21
954.0
 31
0.0
  0
LINE
  5
17E
330
1F
100
AcDbEntity
  8
LAY-10
  6
CONTINUOUS
 62
     7
100
AcDbLine
 10
981.0
 20
945.9999999999998
 30
0.0
 11
981.0
 21
954.0
 31
0.0
  0
LINE
  5
17F
330
1F
100
AcDbEntity
  8
LAY-10
  6
CONTINUOUS
 62
     7
100
AcDbLine
 10
996.0
 20
954.0
 30
0.0
 11
972.0188679245299
 21
954.0
 31
0.0
  0
LINE
  5
180
330
1F
100
AcDbEntity
  8
LAY-10
  6
CONTINUOUS
 62
     7
100
AcDbLine
 10
972.0188679245299
 20
945.9999999999998
 30
0.0
 11
996.0
 21
945.9999999999998
 31
0.0
  0
LINE
  5
181
330
1F
100
AcDbEntity
  8
LAY-10
  6
CONTINUOUS
 62
     7
100
AcDbLine
 10
996.0
 20
945.9999999999998
 30
0.0
 11
974.0
 21
943.9999999999999
 31
0.0
  0
LINE
  5
182
330
1F
100
AcDbEntity
  8
LAY-10
  6
CONTINUOUS
 62
     7
100
AcDbLine
 10
996.0
 20
954.0
 30
0.0
 11
974.0
 21
955.9999999999999
 31
0.0
  0
LINE
  5
183
330
1F
100
AcDbEntity
  8
LAY-10
  6
CONTINUOUS
 62
     7
100
AcDbLine
 10
996.0
 20
945.9999999999998
 30
0.0
 11
996.0
 21
954.0
 31
0.0
  0
LINE
  5
184
330
1F
100
AcDbEntity
  8
LAY-10
  6
CONTINUOUS
 62
     7
100
AcDbLine
 10
276.0
 20
1156.0
 30
0.0
 11
277.9811320754699
 21
1153.999999999999
 31
0.0
  0
LINE
  5
185
330
1F
100
AcDbEntity
  8
LAY-10
  6
CONTINUOUS
 62
     7
100
AcDbLine
 10
276.0
 20
1143.999999999999
 30
0.0
 11
277.9811320754699
 21
1145.999999999999
 31
0.0
  0
LINE
  5
186
330
1F
100
AcDbEntity
  8
LAY-10
  6
CONTINUOUS
 62
     7
100
AcDbLine
 10
277.9811320754699
 20
1153.999999999999
 30
0.0
 11
277.9811320754699
 21
1145.999999999999
 31
0.0
  0
LINE
  5
187
330
1F
100
AcDbEntity
  8
LAY-10
  6
CONTINUOUS
 62
     7
100
AcDbLine
 10
268.9999999999998
 20
1153.999999999999
 30
0.0
 11
268.9999999999998
 21
1145.999999999999
 31
0.0
  0
LINE
  5
188
330
1F
100
AcDbEntity
  8
LAY-10
  6
CONTINUOUS
 62
     7
100
AcDbLine
 10
253.9999999999998
 20
1145.999999999999
 30
0.0
 11
277.9811320754699
 21
1145.999999999999
 31
0.0
  0
LINE
  5
189
330
1F
100
AcDbEntity
  8
LAY-10
  6
CONTINUOUS
 62
     7
100
AcDbLine
 10
277.9811320754699
 20
1153.999999999999
 30
0.0
 11
253.9999999999998
 21
1153.999999999999
 31
0.0
  0
LINE
  5
18A
330
1F
100
AcDbEntity
  8
LAY-10
  6
CONTINUOUS
 62
     7
100
AcDbLine
 10
253.9999999999998
 20
1153.999999999999
 30
0.0
 11
276.0
 21
1156.0
 31
0.0
  0
LINE
  5
18B
330
1F
100
AcDbEntity
  8
LAY-10
  6
CONTINUOUS
 62
     7
100
AcDbLine
 10
253.9999999999998
 20
1145.999999999999
 30
0.0
 11
276.0
 21
1143.999999999999
 31
0.0
  0
LINE
  5
18C
330
1F
100
AcDbEntity
  8
LAY-10
  6
CONTINUOUS
 62
     7
100
AcDbLine
 10
253.9999999999998
 20
1153.999999999999
 30
0.0
 11
253.9999999999998
 21
1145.999999999999
 31
0.0
  0
LINE
  5
18D
330
1F
100
AcDbEntity
  8
LAY-10
  6
CONTINUOUS
 62
     7
100
AcDbLine
 10
419.0000000000002
 20
601.0
 30
0.0
 11
421.0000000000003
 21
602.98113207547
 31
0.0
  0
LINE
  5
18E
330
1F
100
AcDbEntity
  8
LAY-10
  6
CONTINUOUS
 62
     7
100
AcDbLine
 10
431.0000000000003
 20
601.0
 30
0.0
 11
429.0000000000004
 21
602.98113207547
 31
0.0
  0
LINE
  5
18F
330
1F
100
AcDbEntity
  8
LAY-10
  6
CONTINUOUS
 62
     7
100
AcDbLine
 10
421.0000000000003
 20
602.98113207547
 30
0.0
 11
429.0000000000004
 21
602.98113207547
 31
0.0
  0
LINE
  5
190
330
1F
100
AcDbEntity
  8
LAY-10
  6
CONTINUOUS
 62
     7
100
AcDbLine
 10
421.0000000000001
 20
593.9999999999999
 30
0.0
 11
429.0000000000001
 21
593.9999999999999
 31
0.0
  0
LINE
  5
191
330
1F
100
AcDbEntity
  8
LAY-10
  6
CONTINUOUS
 62
     7
100
AcDbLine
 10
429.0000000000001
 20
579.0
 30
0.0
 11
429.0000000000004
 21
602.98113207547
 31
0.0
  0
LINE
  5
192
330
1F
100
AcDbEntity
  8
LAY-10
  6
CONTINUOUS
 62
     7
100
AcDbLine
 10
421.0000000000003
 20
602.98113207547
 30
0.0
 11
421.0000000000001
 21
579.0
 31
0.0
  0
LINE
  5
193
330
1F
100
AcDbEntity
  8
LAY-10
  6
CONTINUOUS
 62
     7
100
AcDbLine
 10
421.0000000000001
 20
579.0
 30
0.0
 11
419.0000000000002
 21
601.0
 31
0.0
  0
LINE
  5
194
330
1F
100
AcDbEntity
  8
LAY-10
  6
CONTINUOUS
 62
     7
100
AcDbLine
 10
429.0000000000001
 20
579.0
 30
0.0
 11
431.0000000000003
 21
601.0
 31
0.0
  0
LINE
  5
195
330
1F
100
AcDbEntity
  8
LAY-10
  6
CONTINUOUS
 62
     7
100
AcDbLine
 10
421.0000000000001
 20
579.0
 30
0.0
 11
429.0000000000001
 21
579.0
 31
0.0
  0
LINE
  5
196
330
1F
100
AcDbEntity
  8
LAY-10
  6
CONTINUOUS
 62
     7
100
AcDbLine
 10
830.9999999999993
 20
601.0
 30
0.0
 11
828.9999999999993
 21
602.98113207547
 31
0.0
  0
LINE
  5
197
330
1F
100
AcDbEntity
  8
LAY-10
  6
CONTINUOUS
 62
     7
100
AcDbLine
 10
818.9999999999994
 20
601.0
 30
0.0
 11
820.9999999999993
 21
602.98113207547
 31
0.0
  0
LINE
  5
198
330
1F
100
AcDbEntity
  8
LAY-10
  6
CONTINUOUS
 62
     7
100
AcDbLine
 10
828.9999999999993
 20
602.98113207547
 30
0.0
 11
820.9999999999993
 21
602.98113207547
 31
0.0
  0
LINE
  5
199
330
1F
100
AcDbEntity
  8
LAY-10
  6
CONTINUOUS
 62
     7
100
AcDbLine
 10
828.9999999999993
 20
593.9999999999999
 30
0.0
 11
820.9999999999993
 21
593.9999999999999
 31
0.0
  0
LINE
  5
19A
330
1F
100
AcDbEntity
  8
LAY-10
  6
CONTINUOUS
 62
     7
100
AcDbLine
 10
820.9999999999993
 20
579.0
 30
0.0
 11
820.9999999999993
 21
602.98113207547
 31
0.0
  0
LINE
  5
19B
330
1F
100
AcDbEntity
  8
LAY-10
  6
CONTINUOUS
 62
     7
100
AcDbLine
 10
828.9999999999993
 20
602.98113207547
 30
0.0
 11
828.9999999999993
 21
579.0
 31
0.0
  0
LINE
  5
19C
330
1F
100
AcDbEntity
  8
LAY-10
  6
CONTINUOUS
 62
     7
100
AcDbLine
 10
828.9999999999993
 20
579.0
 30
0.0
 11
830.9999999999993
 21
601.0
 31
0.0
  0
LINE
  5
19D
330
1F
100
AcDbEntity
  8
LAY-10
  6
CONTINUOUS
 62
     7
100
AcDbLine
 10
820.9999999999993
 20
579.0
 30
0.0
 11
818.9999999999994
 21
601.0
 31
0.0
  0
LINE
  5
19E
330
1F
100
AcDbEntity
  8
LAY-10
  6
CONTINUOUS
 62
     7
100
AcDbLine
 10
828.9999999999993
 20
579.0
 30
0.0
 11
820.9999999999993
 21
579.0
 31
0.0
  0
LINE
  5
19F
330
1F
100
AcDbEntity
  8
LAY-10
  6
CONTINUOUS
 62
     7
100
AcDbLine
 10
276.0
 20
744.0000000000003
 30
0.0
 11
277.9811320754699
 21
746.0000000000005
 31
0.0
  0
LINE
  5
1A0
330
1F
100
AcDbEntity
  8
LAY-10
  6
CONTINUOUS
 62
     7
100
AcDbLine
 10
276.0
 20
756.0000000000003
 30
0.0
 11
277.9811320754699
 21
754.0000000000005
 31
0.0
  0
LINE
  5
1A1
330
1F
100
AcDbEntity
  8
LAY-10
  6
CONTINUOUS
 62
     7
100
AcDbLine
 10
277.9811320754699
 20
746.0000000000005
 30
0.0
 11
277.9811320754699
 21
754.0000000000005
 31
0.0
  0
LINE
  5
1A2
330
1F
100
AcDbEntity
  8
LAY-10
  6
CONTINUOUS
 62
     7
100
AcDbLine
 10
268.9999999999998
 20
746.0000000000005
 30
0.0
 11
268.9999999999998
 21
754.0000000000005
 31
0.0
  0
LINE
  5
1A3
330
1F
100
AcDbEntity
  8
LAY-10
  6
CONTINUOUS
 62
     7
100
AcDbLine
 10
253.9999999999998
 20
754.0000000000005
 30
0.0
 11
277.9811320754699
 21
754.0000000000005
 31
0.0
  0
LINE
  5
1A4
330
1F
100
AcDbEntity
  8
LAY-10
  6
CONTINUOUS
 62
     7
100
AcDbLine
 10
277.9811320754699
 20
746.0000000000005
 30
0.0
 11
253.9999999999998
 21
746.0000000000005
 31
0.0
  0
LINE
  5
1A5
330
1F
100
AcDbEntity
  8
LAY-10
  6
CONTINUOUS
 62
     7
100
AcDbLine
 10
253.9999999999998
 20
746.0000000000005
 30
0.0
 11
276.0
 21
744.0000000000003
 31
0.0
  0
LINE
  5
1A6
330
1F
100
AcDbEntity
  8
LAY-10
  6
CONTINUOUS
 62
     7
100
AcDbLine
 10
253.9999999999998
 20
754.0000000000005
 30
0.0
 11
276.0
 21
756.0000000000003
 31
0.0
  0
LINE
  5
1A7
330
1F
100
AcDbEntity
  8
LAY-10
  6
CONTINUOUS
 62
     7
100
AcDbLine
 10
253.9999999999998
 20
746.0000000000005
 30
0.0
 11
253.9999999999998
 21
754.0000000000005
 31
0.0
  0
LINE
  5
1A8
330
1F
100
AcDbEntity
  8
LAY-10
  6
CONTINUOUS
 62
     7
100
AcDbLine
 10
276.0
 20
944.0000000000001
 30
0.0
 11
277.9811320754699
 21
946.0000000000005
 31
0.0
  0
LINE
  5
1A9
330
1F
100
AcDbEntity
  8
LAY-10
  6
CONTINUOUS
 62
     7
100
AcDbLine
 10
276.0
 20
956.0000000000002
 30
0.0
 11
277.9811320754699
 21
954.0000000000003
 31
0.0
  0
LINE
  5
1AA
330
1F
100
AcDbEntity
  8
LAY-10
  6
CONTINUOUS
 62
     7
100
AcDbLine
 10
277.9811320754699
 20
946.0000000000005
 30
0.0
 11
277.9811320754699
 21
954.0000000000003
 31
0.0
  0
LINE
  5
1AB
330
1F
100
AcDbEntity
  8
LAY-10
  6
CONTINUOUS
 62
     7
100
AcDbLine
 10
268.9999999999998
 20
946.0000000000005
 30
0.0
 11
268.9999999999998
 21
954.0000000000003
 31
0.0
  0
LINE
  5
1AC
330
1F
100
AcDbEntity
  8
LAY-10
  6
CONTINUOUS
 62
     7
100
AcDbLine
 10
253.9999999999998
 20
954.0000000000003
 30
0.0
 11
277.9811320754699
 21
954.0000000000003
 31
0.0
  0
LINE
  5
1AD
330
1F
100
AcDbEntity
  8
LAY-10
  6
CONTINUOUS
 62
     7
100
AcDbLine
 10
277.9811320754699
 20
946.0000000000005
 30
0.0
 11
253.9999999999998
 21
946.0000000000005
 31
0.0
  0
LINE
  5
1AE
330
1F
100
AcDbEntity
  8
LAY-10
  6
CONTINUOUS
 62
     7
100
AcDbLine
 10
253.9999999999998
 20
946.0000000000005
 30
0.0
 11
276.0
 21
944.0000000000001
 31
0.0
  0
LINE
  5
1AF
330
1F
100
AcDbEntity
  8
LAY-10
  6
CONTINUOUS
 62
     7
100
AcDbLine
 10
253.9999999999998
 20
954.0000000000003
 30
0.0
 11
276.0
 21
956.0000000000002
 31
0.0
  0
LINE
  5
1B0
330
1F
100
AcDbEntity
  8
LAY-10
  6
CONTINUOUS
 62
     7
100
AcDbLine
 10
253.9999999999998
 20
946.0000000000005
 30
0.0
 11
253.9999999999998
 21
954.0000000000003
 31
0.0
  0
LINE
  5
1B1
330
1F
100
AcDbEntity
  8
LAY-10
  6
CONTINUOUS
 62
     7
100
AcDbLine
 10
630.9999999999993
 20
601.0
 30
0.0
 11
628.9999999999992
 21
602.9811320754695
 31
0.0
  0
LINE
  5
1B2
330
1F
100
AcDbEntity
  8
LAY-10
  6
CONTINUOUS
 62
     7
100
AcDbLine
 10
618.9999999999992
 20
601.0
 30
0.0
 11
620.9999999999994
 21
602.9811320754695
 31
0.0
  0
LINE
  5
1B3
330
1F
100
AcDbEntity
  8
LAY-10
  6
CONTINUOUS
 62
     7
100
AcDbLine
 10
628.9999999999992
 20
602.9811320754695
 30
0.0
 11
620.9999999999994
 21
602.9811320754695
 31
0.0
  0
LINE
  5
1B4
330
1F
100
AcDbEntity
  8
LAY-10
  6
CONTINUOUS
 62
     7
100
AcDbLine
 10
628.9999999999992
 20
593.9999999999999
 30
0.0
 11
620.9999999999994
 21
593.9999999999999
 31
0.0
  0
LINE
  5
1B5
330
1F
100
AcDbEntity
  8
LAY-10
  6
CONTINUOUS
 62
     7
100
AcDbLine
 10
620.9999999999994
 20
579.0
 30
0.0
 11
620.9999999999994
 21
602.9811320754695
 31
0.0
  0
LINE
  5
1B6
330
1F
100
AcDbEntity
  8
LAY-10
  6
CONTINUOUS
 62
     7
100
AcDbLine
 10
628.9999999999992
 20
602.9811320754695
 30
0.0
 11
628.9999999999992
 21
579.0
 31
0.0
  0
LINE
  5
1B7
330
1F
100
AcDbEntity
  8
LAY-10
  6
CONTINUOUS
 62
     7
100
AcDbLine
 10
628.9999999999992
 20
579.0
 30
0.0
 11
630.9999999999993
 21
601.0
 31
0.0
  0
LINE
  5
1B8
330
1F
100
AcDbEntity
  8
LAY-10
  6
CONTINUOUS
 62
     7
100
AcDbLine
 10
620.9999999999994
 20
579.0
 30
0.0
 11
618.9999999999992
 21
601.0
 31
0.0
  0
LINE
  5
1B9
330
1F
100
AcDbEntity
  8
LAY-10
  6
CONTINUOUS
 62
     7
100
AcDbLine
 10
628.9999999999992
 20
579.0
 30
0.0
 11
620.9999999999994
 21
579.0
 31
0.0
  0
ARC
  5
1BA
330
1F
100
AcDbEntity
  8
LAY-10
  6
CONTINUOUS
 62
     7
100
AcDbCircle
 10
959.0
 20
1284.000000000004
 30
0.0
 40
3.000000000000003
100
AcDbArc
 50
0.0
 51
90.0
  0
LINE
  5
1BB
330
1F
100
AcDbEntity
  8
LAY-10
  6
CONTINUOUS
 62
     7
100
AcDbLine
 10
959.0
 20
1287.000000000004
 30
0.0
 11
290.9999999999994
 21
1287.000000000004
 31
0.0
  0
ARC
  5
1BC
330
1F
100
AcDbEntity
  8
LAY-10
  6
CONTINUOUS
 62
     7
100
AcDbCircle
 10
290.9999999999994
 20
1284.000000000004
 30
0.0
 40
3.000000000000003
100
AcDbArc
 50
90.0
 51
180.0
  0
LINE
  5
1BD
330
1F
100
AcDbEntity
  8
LAY-10
  6
CONTINUOUS
 62
     7
100
AcDbLine
 10
287.9999999999994
 20
615.9999999999959
 30
0.0
 11
287.9999999999994
 21
1284.000000000004
 31
0.0
  0
ARC
  5
1BE
330
1F
100
AcDbEntity
  8
LAY-10
  6
CONTINUOUS
 62
     7
100
AcDbCircle
 10
290.9999999999994
 20
615.9999999999959
 30
0.0
 40
3.000000000000003
100
AcDbArc
 50
180.0
 51
270.0
  0
LINE
  5
1BF
330
1F
100
AcDbEntity
  8
LAY-10
  6
CONTINUOUS
 62
     7
100
AcDbLine
 10
959.0
 20
612.9999999999959
 30
0.0
 11
290.9999999999994
 21
612.9999999999959
 31
0.0
  0
LINE
  5
1C0
330
1F
100
AcDbEntity
  8
LAY-10
  6
CONTINUOUS
 62
     7
100
AcDbLine
 10
961.9999999999999
 20
615.9999999999959
 30
0.0
 11
961.9999999999999
 21
1284.000000000004
 31
0.0
  0
ARC
  5
1C1
330
1F
100
AcDbEntity
  8
LAY-10
  6
CONTINUOUS
 62
     7
100
AcDbCircle
 10
959.0
 20
615.9999999999959
 30
0.0
 40
3.000000000000003
100
AcDbArc
 50
270.0
 51
0.0
  0
ARC
  5
1C2
330
1F
100
AcDbEntity
  8
LAY-10
  6
CONTINUOUS
 62
     7
100
AcDbCircle
 10
965.9999999999999
 20
1291.000000000004
 30
0.0
 40
5.0
100
AcDbArc
 50
0.0
 51
90.0
  0
LINE
  5
1C3
330
1F
100
AcDbEntity
  8
LAY-10
  6
CONTINUOUS
 62
     7
100
AcDbLine
 10
965.9999999999999
 20
1296.000000000004
 30
0.0
 11
283.9999999999997
 21
1296.000000000004
 31
0.0
  0
ARC
  5
1C4
330
1F
100
AcDbEntity
  8
LAY-10
  6
CONTINUOUS
 62
     7
100
AcDbCircle
 10
283.9999999999995
 20
1291.000000000004
 30
0.0
 40
5.0
100
AcDbArc
 50
90.0
 51
180.0
  0
LINE
  5
1C5
330
1F
100
AcDbEntity
  8
LAY-10
  6
CONTINUOUS
 62
     7
100
AcDbLine
 10
278.9999999999995
 20
608.999999999996
 30
0.0
 11
278.9999999999995
 21
1291.000000000004
 31
0.0
  0
ARC
  5
1C6
330
1F
100
AcDbEntity
  8
LAY-10
  6
CONTINUOUS
 62
     7
100
AcDbCircle
 10
283.9999999999995
 20
608.999999999996
 30
0.0
 40
5.0
100
AcDbArc
 50
180.0
 51
270.0
  0
LINE
  5
1C7
330
1F
100
AcDbEntity
  8
LAY-10
  6
CONTINUOUS
 62
     7
100
AcDbLine
 10
965.9999999999999
 20
603.9999999999959
 30
0.0
 11
283.9999999999995
 21
603.9999999999959
 31
0.0
  0
LINE
  5
1C8
330
1F
100
AcDbEntity
  8
LAY-10
  6
CONTINUOUS
 62
     7
100
AcDbLine
 10
970.9999999999999
 20
608.999999999996
 30
0.0
 11
970.9999999999999
 21
1291.000000000004
 31
0.0
  0
ARC
  5
1C9
330
1F
100
AcDbEntity
  8
LAY-10
  6
CONTINUOUS
 62
     7
100
AcDbCircle
 10
965.9999999999999
 20
608.999999999996
 30
0.0
 40
5.0
100
AcDbArc
 50
270.0
 51
0.0
  0
LINE
  5
1CA
330
1F
100
AcDbEntity
  8
LAY-10
  6
CONTINUOUS
 62
     7
100
AcDbLine
 10
974.0
 20
607.0000000000007
 30
0.0
 11
974.0
 21
743.9999999999999
 31
0.0
  0
LINE
  5
1CB
330
1F
100
AcDbEntity
  8
LAY-10
  6
CONTINUOUS
 62
     7
100
AcDbLine
 10
967.9999999999999
 20
601.0000000000006
 30
0.0
 11
830.9999999999983
 21
601.0000000000006
 31
0.0
  0
ARC
  5
1CC
330
1F
100
AcDbEntity
  8
LAY-10
  6
CONTINUOUS
 62
     7
100
AcDbCircle
 10
967.9999999999999
 20
607.0000000000007
 30
0.0
 40
6.000000000000005
100
AcDbArc
 50
270.0
 51
0.0
  0
LINE
  5
1CD
330
1F
100
AcDbEntity
  8
LAY-10
  6
CONTINUOUS
 62
     7
100
AcDbLine
 10
969.5355339059325
 20
605.4644660940631
 30
0.0
 11
972.2426406871213
 21
602.7573593128833
 31
0.0
  0
LINE
  5
1CE
330
1F
100
AcDbEntity
  8
LAY-10
  6
CONTINUOUS
 62
     7
100
AcDbLine
 10
974.0
 20
1156.0
 30
0.0
 11
974.0
 21
1293.999999999999
 31
0.0
  0
LINE
  5
1CF
330
1F
100
AcDbEntity
  8
LAY-10
  6
CONTINUOUS
 62
     7
100
AcDbLine
 10
968.9999999999999
 20
1298.999999999999
 30
0.0
 11
830.9999999999983
 21
1298.999999999999
 31
0.0
  0
ARC
  5
1D0
330
1F
100
AcDbEntity
  8
LAY-10
  6
CONTINUOUS
 62
     7
100
AcDbCircle
 10
968.9999999999999
 20
1293.999999999999
 30
0.0
 40
5.0
100
AcDbArc
 50
0.0
 51
90.0
  0
LINE
  5
1D1
330
1F
100
AcDbEntity
  8
LAY-10
  6
CONTINUOUS
 62
     7
100
AcDbLine
 10
969.5355339059325
 20
1294.535533905936
 30
0.0
 11
972.5355339059342
 21
1297.53553390593
 31
0.0
  0
LINE
  5
1D2
330
1F
100
AcDbEntity
  8
LAY-10
  6
CONTINUOUS
 62
     7
100
AcDbLine
 10
419.0000000000011
 20
1298.999999999999
 30
0.0
 11
280.9999999999994
 21
1298.999999999999
 31
0.0
  0
LINE
  5
1D3
330
1F
100
AcDbEntity
  8
LAY-10
  6
CONTINUOUS
 62
     7
100
AcDbLine
 10
275.9999999999994
 20
1156.0
 30
0.0
 11
275.9999999999994
 21
1293.999999999999
 31
0.0
  0
ARC
  5
1D4
330
1F
100
AcDbEntity
  8
LAY-10
  6
CONTINUOUS
 62
     7
100
AcDbCircle
 10
280.9999999999994
 20
1293.999999999999
 30
0.0
 40
5.0
100
AcDbArc
 50
90.0
 51
180.0
  0
LINE
  5
1D5
330
1F
100
AcDbEntity
  8
LAY-10
  6
CONTINUOUS
 62
     7
100
AcDbLine
 10
280.4644660940668
 20
1294.535533905936
 30
0.0
 11
277.4644660940651
 21
1297.53553390593
 31
0.0
  0
LINE
  5
1D6
330
1F
100
AcDbEntity
  8
LAY-10
  6
CONTINUOUS
 62
     7
100
AcDbLine
 10
418.9999999999998
 20
601.000000000001
 30
0.0
 11
280.9999999999994
 21
601.000000000001
 31
0.0
  0
LINE
  5
1D7
330
1F
100
AcDbEntity
  8
LAY-10
  6
CONTINUOUS
 62
     7
100
AcDbLine
 10
275.9999999999994
 20
606.000000000001
 30
0.0
 11
275.9999999999994
 21
743.9999999999999
 31
0.0
  0
ARC
  5
1D8
330
1F
100
AcDbEntity
  8
LAY-10
  6
CONTINUOUS
 62
     7
100
AcDbCircle
 10
280.9999999999994
 20
606.000000000001
 30
0.0
 40
5.0
100
AcDbArc
 50
180.0
 51
270.0
  0
LINE
  5
1D9
330
1F
100
AcDbEntity
  8
LAY-10
  6
CONTINUOUS
 62
     7
100
AcDbLine
 10
280.4644660940668
 20
605.4644660940633
 30
0.0
 11
277.4644660940652
 21
602.46446609407
 31
0.0
  0
TEXT
  5
1DA
330
1F
100
AcDbEntity
  8
LAY-10
  6
CONTINUOUS
 62
     7
100
AcDbText
 10
993.3937004
 20
783.0000000000001
 30
0.0
 40
9.3543312
  1
ＳＦ－６０ＨＣＴＤ－２
 50
90.00000000000004
 41
1.117525773195876
  7
EXCADSTD
100
AcDbText
  0
TEXT
  5
1DB
330
1F
100
AcDbEntity
  8
LAY-10
  6
CONTINUOUS
 62
     7
100
AcDbText
 10
256.6062996000001
 20
1118.0
 30
0.0
 40
9.3543312
  1
ＳＦ－６０ＨＣＴＤＢ－２
 50
270.0000000000001
 41
1.116981132075472
  7
EXCADSTD
100
AcDbText
  0
TEXT
  5
1DC
330
1F
100
AcDbEntity
  8
LAY-10
  6
CONTINUOUS
 62
     7
100
AcDbText
 10
466.7999999999998
 20
582.1062996000002
 30
0.0
 40
9.3543312
  1
ＳＦ－６０ＨＣＴ－２
 41
1.118181818181818
  7
EXCADSTD
100
AcDbText
  0
TEXT
  5
1DD
330
1F
100
AcDbEntity
  8
LAY-10
  6
CONTINUOUS
 62
     7
100
AcDbText
 10
788.9000000000001
 20
1318.3937004
 30
0.0
 40
9.3543312
  1
ＳＦ－６０ＨＣＴＢ－２
 50
180.0
 41
1.117525773195876
  7
EXCADSTD
100
AcDbText
  0
CIRCLE
  5
1DE
330
1F
100
AcDbEntity
  8
LAY-10
  6
CONTINUOUS
 62
     7
100
AcDbCircle
 10
312.0000000000002
 20
1263.0
 30
0.0
 40
13.00000000000001
  0
CIRCLE
  5
1DF
330
1F
100
AcDbEntity
  8
LAY-10
  6
CONTINUOUS
 62
     7
100
AcDbCircle
 10
938.0000000000001
 20
1263.0
 30
0.0
 40
13.00000000000001
  0
CIRCLE
  5
1E0
330
1F
100
AcDbEntity
  8
LAY-10
  6
CONTINUOUS
 62
     7
100
AcDbCircle
 10
312.0000000000002
 20
637.0000000000005
 30
0.0
 40
13.00000000000001
  0
CIRCLE
  5
1E1
330
1F
100
AcDbEntity
  8
LAY-10
  6
CONTINUOUS
 62
     7
100
AcDbCircle
 10
938.0000000000001
 20
637.0000000000005
 30
0.0
 40
13.00000000000001
  0
LINE
  5
1E2
330
1F
100
AcDbEntity
  8
LAY-10
  6
CONTINUOUS
 62
     7
100
AcDbLine
 10
899.99999999999
 20
1274.000000000074
 30
0.0
 11
948.999999999996
 21
1225.000000000068
 31
0.0
  0
LINE
  5
1E3
330
1F
100
AcDbEntity
  8
LAY-10
  6
CONTINUOUS
 62
     7
100
AcDbLine
 10
899.1715728752825
 20
1272.000000000029
 30
0.0
 11
946.9999999999965
 21
1224.171572875315
 31
0.0
  0
LINE
  5
1E4
330
1F
100
AcDbEntity
  8
LAY-10
  6
CONTINUOUS
 62
     7
100
AcDbLine
 10
899.99999999999
 20
1274.000000000074
 30
0.0
 11
899.171572875282
 21
1272.000000000036
 31
0.0
  0
LINE
  5
1E5
330
1F
100
AcDbEntity
  8
LAY-10
  6
CONTINUOUS
 62
     7
100
AcDbLine
 10
949.0000000000034
 20
1225.00000000006
 30
0.0
 11
946.9999999999652
 21
1224.171572875352
 31
0.0
  0
LINE
  5
1E6
330
1F
100
AcDbEntity
  8
LAY-10
  6
CONTINUOUS
 62
     7
100
AcDbLine
 10
949.0000000000733
 20
675.0000000000108
 30
0.0
 11
900.0000000000676
 21
626.0000000000043
 31
0.0
  0
LINE
  5
1E7
330
1F
100
AcDbEntity
  8
LAY-10
  6
CONTINUOUS
 62
     7
100
AcDbLine
 10
947.0000000000285
 20
675.8284271247182
 30
0.0
 11
899.1715728753146
 21
628.0000000000042
 31
0.0
  0
LINE
  5
1E8
330
1F
100
AcDbEntity
  8
LAY-10
  6
CONTINUOUS
 62
     7
100
AcDbLine
 10
949.0000000000733
 20
675.0000000000108
 30
0.0
 11
947.0000000000357
 21
675.8284271247189
 31
0.0
  0
LINE
  5
1E9
330
1F
100
AcDbEntity
  8
LAY-10
  6
CONTINUOUS
 62
     7
100
AcDbLine
 10
900.0000000000608
 20
625.9999999999975
 30
0.0
 11
899.1715728753521
 21
628.0000000000351
 31
0.0
  0
LINE
  5
1EA
330
1F
100
AcDbEntity
  8
LAY-10
  6
CONTINUOUS
 62
     7
100
AcDbLine
 10
350.0000000000103
 20
625.9999999999269
 30
0.0
 11
301.0000000000043
 21
674.9999999999332
 31
0.0
  0
LINE
  5
1EB
330
1F
100
AcDbEntity
  8
LAY-10
  6
CONTINUOUS
 62
     7
100
AcDbLine
 10
350.8284271247178
 20
627.9999999999718
 30
0.0
 11
303.0000000000039
 21
675.8284271246857
 31
0.0
  0
LINE
  5
1EC
330
1F
100
AcDbEntity
  8
LAY-10
  6
CONTINUOUS
 62
     7
100
AcDbLine
 10
350.0000000000103
 20
625.9999999999269
 30
0.0
 11
350.8284271247186
 21
627.999999999965
 31
0.0
  0
LINE
  5
1ED
330
1F
100
AcDbEntity
  8
LAY-10
  6
CONTINUOUS
 62
     7
100
AcDbLine
 10
300.9999999999972
 20
674.99999999994
 30
0.0
 11
303.0000000000354
 21
675.8284271246482
 31
0.0
  0
LINE
  5
1EE
330
1F
100
AcDbEntity
  8
LAY-10
  6
CONTINUOUS
 62
     7
100
AcDbLine
 10
300.9999999999267
 20
1224.99999999999
 30
0.0
 11
349.999999999933
 21
1273.999999999996
 31
0.0
  0
LINE
  5
1EF
330
1F
100
AcDbEntity
  8
LAY-10
  6
CONTINUOUS
 62
     7
100
AcDbLine
 10
302.9999999999717
 20
1224.171572875282
 30
0.0
 11
350.8284271246857
 21
1271.999999999996
 31
0.0
  0
LINE
  5
1F0
330
1F
100
AcDbEntity
  8
LAY-10
  6
CONTINUOUS
 62
     7
100
AcDbLine
 10
300.9999999999267
 20
1224.99999999999
 30
0.0
 11
302.9999999999646
 21
1224.171572875282
 31
0.0
  0
LINE
  5
1F1
330
1F
100
AcDbEntity
  8
LAY-10
  6
CONTINUOUS
 62
     7
100
AcDbLine
 10
349.9999999999401
 20
1274.000000000004
 30
0.0
 11
350.8284271246482
 21
1271.999999999965
 31
0.0
  0
LINE
  5
1F2
330
1F
100
AcDbEntity
  8
LAY-10
  6
CONTINUOUS
 62
     7
100
AcDbLine
 10
349.9999999999
 20
1274.000000000001
 30
0.0
 11
900.0000000000002
 21
1274.000000000001
 31
0.0
  0
LINE
  5
1F3
330
1F
100
AcDbEntity
  8
LAY-10
  6
CONTINUOUS
 62
     7
100
AcDbLine
 10
350.8284271247002
 20
1272.0
 30
0.0
 11
899.1715728753002
 21
1272.0
 31
0.0
  0
LINE
  5
1F4
330
1F
100
AcDbEntity
  8
LAY-10
  6
CONTINUOUS
 62
     7
100
AcDbLine
 10
303.0000000000002
 20
1224.1715728753
 30
0.0
 11
303.0000000000002
 21
675.8284271246005
 31
0.0
  0
LINE
  5
1F5
330
1F
100
AcDbEntity
  8
LAY-10
  6
CONTINUOUS
 62
     7
100
AcDbLine
 10
301.0000000000003
 20
1225.0
 30
0.0
 11
301.0000000000003
 21
674.9999999999005
 31
0.0
  0
LINE
  5
1F6
330
1F
100
AcDbEntity
  8
LAY-10
  6
CONTINUOUS
 62
     7
100
AcDbLine
 10
947.0000000000001
 20
1224.1715728753
 30
0.0
 11
947.0000000000001
 21
675.8284271247
 31
0.0
  0
LINE
  5
1F7
330
1F
100
AcDbEntity
  8
LAY-10
  6
CONTINUOUS
 62
     7
100
AcDbLine
 10
949.0
 20
1225.0000000001
 30
0.0
 11
949.0
 21
675.0000000000006
 31
0.0
  0
LINE
  5
1F8
330
1F
100
AcDbEntity
  8
LAY-10
  6
CONTINUOUS
 62
     7
100
AcDbLine
 10
350.8284271247002
 20
627.9999999999998
 30
0.0
 11
899.1715728754004
 21
627.9999999999998
 31
0.0
  0
LINE
  5
1F9
330
1F
100
AcDbEntity
  8
LAY-10
  6
CONTINUOUS
 62
     7
100
AcDbLine
 10
350.0000000000001
 20
626.0000000000002
 30
0.0
 11
900.0000000001003
 21
626.0000000000002
 31
0.0
  0
LINE
  5
1FA
330
1F
100
AcDbEntity
  8
LAY-10
  6
CONTINUOUS
 62
     7
100
AcDbLine
 10
720.0
 20
1180.0
 30
0.0
 11
529.9999999999998
 21
1180.0
 31
0.0
  0
LINE
  5
1FB
330
1F
100
AcDbEntity
  8
LAY-10
  6
CONTINUOUS
 62
     7
100
AcDbLine
 10
395.0000000000001
 20
855.0000000000006
 30
0.0
 11
395.0000000000001
 21
1045.0
 31
0.0
  0
ARC
  5
1FC
330
1F
100
AcDbEntity
  8
LAY-10
  6
CONTINUOUS
 62
     7
100
AcDbCircle
 10
732.0000000000005
 20
1057.0
 30
0.0
 40
3.000000000000003
100
AcDbArc
 50
180.0
 51
270.0
  0
LINE
  5
1FD
330
1F
100
AcDbEntity
  8
LAY-10
  6
CONTINUOUS
 62
     7
100
AcDbLine
 10
730.0
 20
1057.0
 30
0.0
 11
730.0
 21
1180.0
 31
0.0
  0
LINE
  5
1FE
330
1F
100
AcDbEntity
  8
LAY-10
  6
CONTINUOUS
 62
     7
100
AcDbLine
 10
855.0000000000002
 20
1055.0
 30
0.0
 11
732.0000000000001
 21
1055.0
 31
0.0
  0
ARC
  5
1FF
330
1F
100
AcDbEntity
  8
LAY-10
  6
CONTINUOUS
 62
     7
100
AcDbCircle
 10
732.0000000000001
 20
1057.0
 30
0.0
 40
2.0
100
AcDbArc
 50
180.0
 51
270.0
  0
ARC
  5
200
330
1F
100
AcDbEntity
  8
LAY-10
  6
CONTINUOUS
 62
     7
100
AcDbCircle
 10
718.0000000000001
 20
1057.0
 30
0.0
 40
3.000000000000003
100
AcDbArc
 50
270.0
 51
0.0
  0
ARC
  5
201
330
1F
100
AcDbEntity
  8
LAY-10
  6
CONTINUOUS
 62
     7
100
AcDbCircle
 10
718.0000000000001
 20
1057.0
 30
0.0
 40
2.0
100
AcDbArc
 50
270.0
 51
0.0
  0
LINE
  5
202
330
1F
100
AcDbEntity
  8
LAY-10
  6
CONTINUOUS
 62
     7
100
AcDbLine
 10
720.0
 20
1180.0
 30
0.0
 11
720.0
 21
1057.0
 31
0.0
  0
ARC
  5
203
330
1F
100
AcDbEntity
  8
LAY-10
  6
CONTINUOUS
 62
     7
100
AcDbCircle
 10
732.0000000000005
 20
1043.0
 30
0.0
 40
3.000000000000003
100
AcDbArc
 50
90.0
 51
180.0
  0
ARC
  5
204
330
1F
100
AcDbEntity
  8
LAY-10
  6
CONTINUOUS
 62
     7
100
AcDbCircle
 10
732.0000000000001
 20
1043.0
 30
0.0
 40
2.0
100
AcDbArc
 50
90.0
 51
180.0
  0
ARC
  5
205
330
1F
100
AcDbEntity
  8
LAY-10
  6
CONTINUOUS
 62
     7
100
AcDbCircle
 10
718.0000000000001
 20
1043.0
 30
0.0
 40
3.000000000000003
100
AcDbArc
 50
0.0
 51
90.0
  0
ARC
  5
206
330
1F
100
AcDbEntity
  8
LAY-10
  6
CONTINUOUS
 62
     7
100
AcDbCircle
 10
718.0000000000001
 20
1043.0
 30
0.0
 40
2.0
100
AcDbArc
 50
0.0
 51
90.0
  0
LINE
  5
207
330
1F
100
AcDbEntity
  8
LAY-10
  6
CONTINUOUS
 62
     7
100
AcDbLine
 10
732.0000000000001
 20
1045.0
 30
0.0
 11
855.0000000000002
 21
1045.0
 31
0.0
  0
ARC
  5
208
330
1F
100
AcDbEntity
  8
LAY-10
  6
CONTINUOUS
 62
     7
100
AcDbCircle
 10
518.0000000000001
 20
1057.0
 30
0.0
 40
3.000000000000003
100
AcDbArc
 50
270.0
 51
0.0
  0
ARC
  5
209
330
1F
100
AcDbEntity
  8
LAY-10
  6
CONTINUOUS
 62
     7
100
AcDbCircle
 10
518.0000000000001
 20
1057.0
 30
0.0
 40
2.0
100
AcDbArc
 50
270.0
 51
0.0
  0
ARC
  5
20A
330
1F
100
AcDbEntity
  8
LAY-10
  6
CONTINUOUS
 62
     7
100
AcDbCircle
 10
532.0000000000005
 20
1057.0
 30
0.0
 40
3.000000000000003
100
AcDbArc
 50
180.0
 51
270.0
  0
ARC
  5
20B
330
1F
100
AcDbEntity
  8
LAY-10
  6
CONTINUOUS
 62
     7
100
AcDbCircle
 10
532.0000000000002
 20
1057.0
 30
0.0
 40
2.0
100
AcDbArc
 50
180.0
 51
270.0
  0
ARC
  5
20C
330
1F
100
AcDbEntity
  8
LAY-10
  6
CONTINUOUS
 62
     7
100
AcDbCircle
 10
518.0000000000001
 20
1043.0
 30
0.0
 40
3.000000000000003
100
AcDbArc
 50
0.0
 51
90.0
  0
ARC
  5
20D
330
1F
100
AcDbEntity
  8
LAY-10
  6
CONTINUOUS
 62
     7
100
AcDbCircle
 10
518.0000000000001
 20
1043.0
 30
0.0
 40
2.0
100
AcDbArc
 50
0.0
 51
90.0
  0
ARC
  5
20E
330
1F
100
AcDbEntity
  8
LAY-10
  6
CONTINUOUS
 62
     7
100
AcDbCircle
 10
532.0000000000005
 20
1043.0
 30
0.0
 40
3.000000000000003
100
AcDbArc
 50
90.0
 51
180.0
  0
ARC
  5
20F
330
1F
100
AcDbEntity
  8
LAY-10
  6
CONTINUOUS
 62
     7
100
AcDbCircle
 10
532.0000000000002
 20
1043.0
 30
0.0
 40
2.0
100
AcDbArc
 50
90.0
 51
180.0
  0
LINE
  5
210
330
1F
100
AcDbEntity
  8
LAY-10
  6
CONTINUOUS
 62
     7
100
AcDbLine
 10
520.0
 20
1057.0
 30
0.0
 11
520.0
 21
1180.0
 31
0.0
  0
LINE
  5
211
330
1F
100
AcDbEntity
  8
LAY-10
  6
CONTINUOUS
 62
     7
100
AcDbLine
 10
518.0000000000001
 20
1055.0
 30
0.0
 11
394.9999999999998
 21
1055.0
 31
0.0
  0
LINE
  5
212
330
1F
100
AcDbEntity
  8
LAY-10
  6
CONTINUOUS
 62
     7
100
AcDbLine
 10
718.0000000000001
 20
1055.0
 30
0.0
 11
532.0000000000002
 21
1055.0
 31
0.0
  0
LINE
  5
213
330
1F
100
AcDbEntity
  8
LAY-10
  6
CONTINUOUS
 62
     7
100
AcDbLine
 10
530.0000000000003
 20
1180.0
 30
0.0
 11
530.0000000000003
 21
1057.0
 31
0.0
  0
LINE
  5
214
330
1F
100
AcDbEntity
  8
LAY-10
  6
CONTINUOUS
 62
     7
100
AcDbLine
 10
532.0000000000005
 20
1054.0
 30
0.0
 11
718.0000000000001
 21
1054.0
 31
0.0
  0
LINE
  5
215
330
1F
100
AcDbEntity
  8
LAY-10
  6
CONTINUOUS
 62
     7
100
AcDbLine
 10
532.0000000000002
 20
1045.0
 30
0.0
 11
718.0000000000001
 21
1045.0
 31
0.0
  0
LINE
  5
216
330
1F
100
AcDbEntity
  8
LAY-10
  6
CONTINUOUS
 62
     7
100
AcDbLine
 10
532.0000000000005
 20
1046.0
 30
0.0
 11
718.0000000000001
 21
1046.0
 31
0.0
  0
LINE
  5
217
330
1F
100
AcDbEntity
  8
LAY-10
  6
CONTINUOUS
 62
     7
100
AcDbLine
 10
394.9999999999998
 20
1045.0
 30
0.0
 11
518.0000000000001
 21
1045.0
 31
0.0
  0
ARC
  5
218
330
1F
100
AcDbEntity
  8
LAY-10
  6
CONTINUOUS
 62
     7
100
AcDbCircle
 10
732.0000000000005
 20
843.0000000000001
 30
0.0
 40
3.000000000000003
100
AcDbArc
 50
90.0
 51
180.0
  0
ARC
  5
219
330
1F
100
AcDbEntity
  8
LAY-10
  6
CONTINUOUS
 62
     7
100
AcDbCircle
 10
732.0000000000001
 20
843.0000000000001
 30
0.0
 40
2.0
100
AcDbArc
 50
90.0
 51
180.0
  0
ARC
  5
21A
330
1F
100
AcDbEntity
  8
LAY-10
  6
CONTINUOUS
 62
     7
100
AcDbCircle
 10
718.0000000000001
 20
843.0000000000001
 30
0.0
 40
3.000000000000003
100
AcDbArc
 50
0.0
 51
90.0
  0
ARC
  5
21B
330
1F
100
AcDbEntity
  8
LAY-10
  6
CONTINUOUS
 62
     7
100
AcDbCircle
 10
718.0000000000001
 20
843.0000000000001
 30
0.0
 40
2.0
100
AcDbArc
 50
0.0
 51
90.0
  0
ARC
  5
21C
330
1F
100
AcDbEntity
  8
LAY-10
  6
CONTINUOUS
 62
     7
100
AcDbCircle
 10
732.0000000000005
 20
857.0000000000002
 30
0.0
 40
3.000000000000003
100
AcDbArc
 50
180.0
 51
270.0
  0
ARC
  5
21D
330
1F
100
AcDbEntity
  8
LAY-10
  6
CONTINUOUS
 62
     7
100
AcDbCircle
 10
732.0000000000001
 20
857.0000000000002
 30
0.0
 40
2.0
100
AcDbArc
 50
180.0
 51
270.0
  0
ARC
  5
21E
330
1F
100
AcDbEntity
  8
LAY-10
  6
CONTINUOUS
 62
     7
100
AcDbCircle
 10
718.0000000000001
 20
857.0000000000002
 30
0.0
 40
3.000000000000003
100
AcDbArc
 50
270.0
 51
0.0
  0
ARC
  5
21F
330
1F
100
AcDbEntity
  8
LAY-10
  6
CONTINUOUS
 62
     7
100
AcDbCircle
 10
718.0000000000001
 20
857.0000000000002
 30
0.0
 40
2.0
100
AcDbArc
 50
270.0
 51
0.0
  0
ARC
  5
220
330
1F
100
AcDbEntity
  8
LAY-10
  6
CONTINUOUS
 62
     7
100
AcDbCircle
 10
518.0000000000001
 20
843.0000000000001
 30
0.0
 40
3.000000000000003
100
AcDbArc
 50
0.0
 51
90.0
  0
ARC
  5
221
330
1F
100
AcDbEntity
  8
LAY-10
  6
CONTINUOUS
 62
     7
100
AcDbCircle
 10
518.0000000000001
 20
843.0000000000001
 30
0.0
 40
2.0
100
AcDbArc
 50
0.0
 51
90.0
  0
ARC
  5
222
330
1F
100
AcDbEntity
  8
LAY-10
  6
CONTINUOUS
 62
     7
100
AcDbCircle
 10
532.0000000000005
 20
843.0000000000001
 30
0.0
 40
3.000000000000003
100
AcDbArc
 50
90.0
 51
180.0
  0
ARC
  5
223
330
1F
100
AcDbEntity
  8
LAY-10
  6
CONTINUOUS
 62
     7
100
AcDbCircle
 10
532.0000000000002
 20
843.0000000000001
 30
0.0
 40
2.0
100
AcDbArc
 50
90.0
 51
180.0
  0
ARC
  5
224
330
1F
100
AcDbEntity
  8
LAY-10
  6
CONTINUOUS
 62
     7
100
AcDbCircle
 10
518.0000000000001
 20
857.0000000000002
 30
0.0
 40
3.000000000000003
100
AcDbArc
 50
270.0
 51
0.0
  0
ARC
  5
225
330
1F
100
AcDbEntity
  8
LAY-10
  6
CONTINUOUS
 62
     7
100
AcDbCircle
 10
518.0000000000001
 20
857.0000000000002
 30
0.0
 40
2.0
100
AcDbArc
 50
270.0
 51
0.0
  0
ARC
  5
226
330
1F
100
AcDbEntity
  8
LAY-10
  6
CONTINUOUS
 62
     7
100
AcDbCircle
 10
532.0000000000005
 20
857.0000000000002
 30
0.0
 40
3.000000000000003
100
AcDbArc
 50
180.0
 51
270.0
  0
ARC
  5
227
330
1F
100
AcDbEntity
  8
LAY-10
  6
CONTINUOUS
 62
     7
100
AcDbCircle
 10
532.0000000000002
 20
857.0000000000002
 30
0.0
 40
2.0
100
AcDbArc
 50
180.0
 51
270.0
  0
LINE
  5
228
330
1F
100
AcDbEntity
  8
LAY-10
  6
CONTINUOUS
 62
     7
100
AcDbLine
 10
530.0000000000003
 20
1043.0
 30
0.0
 11
530.0000000000003
 21
857.0000000000002
 31
0.0
  0
LINE
  5
229
330
1F
100
AcDbEntity
  8
LAY-10
  6
CONTINUOUS
 62
     7
100
AcDbLine
 10
529.0000000000001
 20
1043.0
 30
0.0
 11
529.0000000000001
 21
857.0000000000002
 31
0.0
  0
LINE
  5
22A
330
1F
100
AcDbEntity
  8
LAY-10
  6
CONTINUOUS
 62
     7
100
AcDbLine
 10
394.9999999999998
 20
855.0000000000006
 30
0.0
 11
518.0000000000001
 21
855.0000000000006
 31
0.0
  0
LINE
  5
22B
330
1F
100
AcDbEntity
  8
LAY-10
  6
CONTINUOUS
 62
     7
100
AcDbLine
 10
520.0
 20
857.0000000000002
 30
0.0
 11
520.0
 21
1043.0
 31
0.0
  0
LINE
  5
22C
330
1F
100
AcDbEntity
  8
LAY-10
  6
CONTINUOUS
 62
     7
100
AcDbLine
 10
521.0000000000002
 20
1043.0
 30
0.0
 11
521.0000000000002
 21
857.0000000000002
 31
0.0
  0
LINE
  5
22D
330
1F
100
AcDbEntity
  8
LAY-10
  6
CONTINUOUS
 62
     7
100
AcDbLine
 10
520.0
 20
720.0
 30
0.0
 11
520.0
 21
843.0000000000001
 31
0.0
  0
LINE
  5
22E
330
1F
100
AcDbEntity
  8
LAY-10
  6
CONTINUOUS
 62
     7
100
AcDbLine
 10
518.0000000000001
 20
845.0000000000002
 30
0.0
 11
394.9999999999998
 21
845.0000000000002
 31
0.0
  0
LINE
  5
22F
330
1F
100
AcDbEntity
  8
LAY-10
  6
CONTINUOUS
 62
     7
100
AcDbLine
 10
530.0000000000003
 20
843.0000000000001
 30
0.0
 11
530.0000000000003
 21
720.0
 31
0.0
  0
LINE
  5
230
330
1F
100
AcDbEntity
  8
LAY-10
  6
CONTINUOUS
 62
     7
100
AcDbLine
 10
855.0
 20
855.0000000000006
 30
0.0
 11
855.0
 21
1045.0
 31
0.0
  0
LINE
  5
231
330
1F
100
AcDbEntity
  8
LAY-10
  6
CONTINUOUS
 62
     7
100
AcDbLine
 10
720.0
 20
720.0
 30
0.0
 11
529.9999999999998
 21
720.0
 31
0.0
  0
LINE
  5
232
330
1F
100
AcDbEntity
  8
LAY-10
  6
CONTINUOUS
 62
     7
100
AcDbLine
 10
378.0000000000002
 20
1054.0
 30
0.0
 11
518.0000000000001
 21
1054.0
 31
0.0
  0
ARC
  5
233
330
1F
100
AcDbEntity
  8
LAY-10
  6
CONTINUOUS
 62
     7
100
AcDbCircle
 10
378.0000000000002
 20
1057.0
 30
0.0
 40
3.000000000000003
100
AcDbArc
 50
180.0
 51
270.0
  0
LINE
  5
234
330
1F
100
AcDbEntity
  8
LAY-10
  6
CONTINUOUS
 62
     7
100
AcDbLine
 10
395.0000000000001
 20
1055.0
 30
0.0
 11
377.1958271341152
 21
1054.109791356706
 31
0.0
  0
LINE
  5
235
330
1F
100
AcDbEntity
  8
LAY-10
  6
CONTINUOUS
 62
     7
100
AcDbLine
 10
378.0000000000002
 20
1046.0
 30
0.0
 11
518.0000000000001
 21
1046.0
 31
0.0
  0
ARC
  5
236
330
1F
100
AcDbEntity
  8
LAY-10
  6
CONTINUOUS
 62
     7
100
AcDbCircle
 10
378.0000000000002
 20
1043.0
 30
0.0
 40
3.000000000000003
100
AcDbArc
 50
90.0
 51
180.0
  0
LINE
  5
237
330
1F
100
AcDbEntity
  8
LAY-10
  6
CONTINUOUS
 62
     7
100
AcDbLine
 10
377.195827134114
 20
1045.890208643294
 30
0.0
 11
395.0000000000001
 21
1045.0
 31
0.0
  0
ARC
  5
238
330
1F
100
AcDbEntity
  8
LAY-10
  6
CONTINUOUS
 62
     7
100
AcDbCircle
 10
378.0000000000002
 20
857.0000000000002
 30
0.0
 40
3.000000000000003
100
AcDbArc
 50
180.0
 51
270.0
  0
ARC
  5
239
330
1F
100
AcDbEntity
  8
LAY-10
  6
CONTINUOUS
 62
     7
100
AcDbCircle
 10
378.0000000000002
 20
843.0000000000007
 30
0.0
 40
3.000000000000003
100
AcDbArc
 50
90.0
 51
180.0
  0
LINE
  5
23A
330
1F
100
AcDbEntity
  8
LAY-10
  6
CONTINUOUS
 62
     7
100
AcDbLine
 10
378.0000000000002
 20
854.0000000000003
 30
0.0
 11
518.0000000000001
 21
854.0000000000003
 31
0.0
  0
LINE
  5
23B
330
1F
100
AcDbEntity
  8
LAY-10
  6
CONTINUOUS
 62
     7
100
AcDbLine
 10
375.0000000000003
 20
857.0000000000002
 30
0.0
 11
375.0000000000003
 21
1043.0
 31
0.0
  0
LINE
  5
23C
330
1F
100
AcDbEntity
  8
LAY-10
  6
CONTINUOUS
 62
     7
100
AcDbLine
 10
377.1958271341143
 20
854.1097913567065
 30
0.0
 11
395.0000000000001
 21
855.0000000000006
 31
0.0
  0
LINE
  5
23D
330
1F
100
AcDbEntity
  8
LAY-10
  6
CONTINUOUS
 62
     7
100
AcDbLine
 10
395.0000000000001
 20
845.0000000000008
 30
0.0
 11
377.1958271341146
 21
845.8902086432948
 31
0.0
  0
LINE
  5
23E
330
1F
100
AcDbEntity
  8
LAY-10
  6
CONTINUOUS
 62
     7
100
AcDbLine
 10
378.0000000000002
 20
846.0000000000005
 30
0.0
 11
518.0000000000001
 21
846.0000000000005
 31
0.0
  0
LINE
  5
23F
330
1F
100
AcDbEntity
  8
LAY-10
  6
CONTINUOUS
 62
     7
100
AcDbLine
 10
532.0000000000002
 20
855.0000000000006
 30
0.0
 11
718.0000000000001
 21
855.0000000000006
 31
0.0
  0
LINE
  5
240
330
1F
100
AcDbEntity
  8
LAY-10
  6
CONTINUOUS
 62
     7
100
AcDbLine
 10
720.0
 20
1043.0
 30
0.0
 11
720.0
 21
857.0000000000002
 31
0.0
  0
LINE
  5
241
330
1F
100
AcDbEntity
  8
LAY-10
  6
CONTINUOUS
 62
     7
100
AcDbLine
 10
720.9999999999999
 20
1043.0
 30
0.0
 11
720.9999999999999
 21
857.0000000000002
 31
0.0
  0
LINE
  5
242
330
1F
100
AcDbEntity
  8
LAY-10
  6
CONTINUOUS
 62
     7
100
AcDbLine
 10
532.0000000000005
 20
854.0000000000003
 30
0.0
 11
718.0000000000001
 21
854.0000000000003
 31
0.0
  0
LINE
  5
243
330
1F
100
AcDbEntity
  8
LAY-10
  6
CONTINUOUS
 62
     7
100
AcDbLine
 10
720.0
 20
843.0000000000001
 30
0.0
 11
720.0
 21
720.0
 31
0.0
  0
LINE
  5
244
330
1F
100
AcDbEntity
  8
LAY-10
  6
CONTINUOUS
 62
     7
100
AcDbLine
 10
718.0000000000001
 20
845.0000000000002
 30
0.0
 11
532.0000000000002
 21
845.0000000000002
 31
0.0
  0
LINE
  5
245
330
1F
100
AcDbEntity
  8
LAY-10
  6
CONTINUOUS
 62
     7
100
AcDbLine
 10
532.0000000000005
 20
846.0000000000005
 30
0.0
 11
718.0000000000001
 21
846.0000000000005
 31
0.0
  0
LINE
  5
246
330
1F
100
AcDbEntity
  8
LAY-10
  6
CONTINUOUS
 62
     7
100
AcDbLine
 10
855.0000000000002
 20
845.0000000000002
 30
0.0
 11
732.0000000000001
 21
845.0000000000002
 31
0.0
  0
LINE
  5
247
330
1F
100
AcDbEntity
  8
LAY-10
  6
CONTINUOUS
 62
     7
100
AcDbLine
 10
730.0
 20
720.0
 30
0.0
 11
730.0
 21
843.0000000000001
 31
0.0
  0
LINE
  5
248
330
1F
100
AcDbEntity
  8
LAY-10
  6
CONTINUOUS
 62
     7
100
AcDbLine
 10
732.0000000000001
 20
855.0000000000006
 30
0.0
 11
855.0000000000002
 21
855.0000000000006
 31
0.0
  0
LINE
  5
249
330
1F
100
AcDbEntity
  8
LAY-10
  6
CONTINUOUS
 62
     7
100
AcDbLine
 10
730.0
 20
857.0000000000002
 30
0.0
 11
730.0
 21
1043.0
 31
0.0
  0
LINE
  5
24A
330
1F
100
AcDbEntity
  8
LAY-10
  6
CONTINUOUS
 62
     7
100
AcDbLine
 10
729.0000000000003
 20
1043.0
 30
0.0
 11
729.0000000000003
 21
857.0000000000002
 31
0.0
  0
LINE
  5
24B
330
1F
100
AcDbEntity
  8
LAY-10
  6
CONTINUOUS
 62
     7
100
AcDbLine
 10
521.0000000000002
 20
843.0000000000001
 30
0.0
 11
521.0000000000002
 21
703.0000000000003
 31
0.0
  0
ARC
  5
24C
330
1F
100
AcDbEntity
  8
LAY-10
  6
CONTINUOUS
 62
     7
100
AcDbCircle
 10
518.0000000000001
 20
703.0000000000003
 30
0.0
 40
3.000000000000003
100
AcDbArc
 50
270.0
 51
0.0
  0
LINE
  5
24D
330
1F
100
AcDbEntity
  8
LAY-10
  6
CONTINUOUS
 62
     7
100
AcDbLine
 10
520.0000000000003
 20
720.0
 30
0.0
 11
520.8902086432946
 21
702.1958271341151
 31
0.0
  0
LINE
  5
24E
330
1F
100
AcDbEntity
  8
LAY-10
  6
CONTINUOUS
 62
     7
100
AcDbLine
 10
529.0000000000001
 20
843.0000000000001
 30
0.0
 11
529.0000000000001
 21
703.0000000000003
 31
0.0
  0
ARC
  5
24F
330
1F
100
AcDbEntity
  8
LAY-10
  6
CONTINUOUS
 62
     7
100
AcDbCircle
 10
532.0000000000002
 20
703.0000000000003
 30
0.0
 40
3.000000000000003
100
AcDbArc
 50
180.0
 51
270.0
  0
LINE
  5
250
330
1F
100
AcDbEntity
  8
LAY-10
  6
CONTINUOUS
 62
     7
100
AcDbLine
 10
530.0000000000003
 20
720.0
 30
0.0
 11
529.1097913567061
 21
702.1958271341142
 31
0.0
  0
ARC
  5
251
330
1F
100
AcDbEntity
  8
LAY-10
  6
CONTINUOUS
 62
     7
100
AcDbCircle
 10
871.9999999999999
 20
1057.0
 30
0.0
 40
3.000000000000003
100
AcDbArc
 50
270.0
 51
0.0
  0
ARC
  5
252
330
1F
100
AcDbEntity
  8
LAY-10
  6
CONTINUOUS
 62
     7
100
AcDbCircle
 10
871.9999999999999
 20
1043.0
 30
0.0
 40
3.000000000000003
100
AcDbArc
 50
0.0
 51
90.0
  0
ARC
  5
253
330
1F
100
AcDbEntity
  8
LAY-10
  6
CONTINUOUS
 62
     7
100
AcDbCircle
 10
871.9999999999999
 20
857.0000000000002
 30
0.0
 40
3.000000000000003
100
AcDbArc
 50
270.0
 51
0.0
  0
ARC
  5
254
330
1F
100
AcDbEntity
  8
LAY-10
  6
CONTINUOUS
 62
     7
100
AcDbCircle
 10
871.9999999999999
 20
843.0000000000007
 30
0.0
 40
3.000000000000003
100
AcDbArc
 50
0.0
 51
90.0
  0
LINE
  5
255
330
1F
100
AcDbEntity
  8
LAY-10
  6
CONTINUOUS
 62
     7
100
AcDbLine
 10
875.0
 20
857.0000000000002
 30
0.0
 11
875.0
 21
1043.0
 31
0.0
  0
LINE
  5
256
330
1F
100
AcDbEntity
  8
LAY-10
  6
CONTINUOUS
 62
     7
100
AcDbLine
 10
732.0000000000005
 20
854.0000000000003
 30
0.0
 11
871.9999999999999
 21
854.0000000000003
 31
0.0
  0
LINE
  5
257
330
1F
100
AcDbEntity
  8
LAY-10
  6
CONTINUOUS
 62
     7
100
AcDbLine
 10
855.0
 20
855.0000000000006
 30
0.0
 11
872.804172865886
 21
854.109791356706
 31
0.0
  0
LINE
  5
258
330
1F
100
AcDbEntity
  8
LAY-10
  6
CONTINUOUS
 62
     7
100
AcDbLine
 10
855.0
 20
845.0000000000008
 30
0.0
 11
872.8041728658857
 21
845.8902086432948
 31
0.0
  0
LINE
  5
259
330
1F
100
AcDbEntity
  8
LAY-10
  6
CONTINUOUS
 62
     7
100
AcDbLine
 10
732.0000000000005
 20
846.0000000000005
 30
0.0
 11
871.9999999999999
 21
846.0000000000005
 31
0.0
  0
LINE
  5
25A
330
1F
100
AcDbEntity
  8
LAY-10
  6
CONTINUOUS
 62
     7
100
AcDbLine
 10
875.0
 20
857.0000000000002
 30
0.0
 11
875.0
 21
1043.0
 31
0.0
  0
LINE
  5
25B
330
1F
100
AcDbEntity
  8
LAY-10
  6
CONTINUOUS
 62
     7
100
AcDbLine
 10
855.0
 20
1045.0
 30
0.0
 11
872.8041728658862
 21
1045.890208643294
 31
0.0
  0
LINE
  5
25C
330
1F
100
AcDbEntity
  8
LAY-10
  6
CONTINUOUS
 62
     7
100
AcDbLine
 10
732.0000000000005
 20
1046.0
 30
0.0
 11
871.9999999999999
 21
1046.0
 31
0.0
  0
LINE
  5
25D
330
1F
100
AcDbEntity
  8
LAY-10
  6
CONTINUOUS
 62
     7
100
AcDbLine
 10
855.0
 20
1055.0
 30
0.0
 11
872.8041728658854
 21
1054.109791356706
 31
0.0
  0
LINE
  5
25E
330
1F
100
AcDbEntity
  8
LAY-10
  6
CONTINUOUS
 62
     7
100
AcDbLine
 10
732.0000000000005
 20
1054.0
 30
0.0
 11
871.9999999999999
 21
1054.0
 31
0.0
  0
LINE
  5
25F
330
1F
100
AcDbEntity
  8
LAY-10
  6
CONTINUOUS
 62
     7
100
AcDbLine
 10
729.0000000000003
 20
843.0000000000001
 30
0.0
 11
729.0000000000003
 21
703.0000000000005
 31
0.0
  0
ARC
  5
260
330
1F
100
AcDbEntity
  8
LAY-10
  6
CONTINUOUS
 62
     7
100
AcDbCircle
 10
732.0000000000005
 20
703.0000000000005
 30
0.0
 40
3.000000000000003
100
AcDbArc
 50
180.0
 51
270.0
  0
LINE
  5
261
330
1F
100
AcDbEntity
  8
LAY-10
  6
CONTINUOUS
 62
     7
100
AcDbLine
 10
718.0000000000001
 20
700.0000000000006
 30
0.0
 11
532.0000000000002
 21
700.0000000000002
 31
0.0
  0
LINE
  5
262
330
1F
100
AcDbEntity
  8
LAY-10
  6
CONTINUOUS
 62
     7
100
AcDbLine
 10
720.9999999999999
 20
843.0000000000001
 30
0.0
 11
720.9999999999999
 21
703.0000000000005
 31
0.0
  0
ARC
  5
263
330
1F
100
AcDbEntity
  8
LAY-10
  6
CONTINUOUS
 62
     7
100
AcDbCircle
 10
718.0000000000001
 20
703.0000000000005
 30
0.0
 40
3.000000000000003
100
AcDbArc
 50
270.0
 51
0.0
  0
LINE
  5
264
330
1F
100
AcDbEntity
  8
LAY-10
  6
CONTINUOUS
 62
     7
100
AcDbLine
 10
720.0
 20
720.0
 30
0.0
 11
720.8902086432943
 21
702.1958271341142
 31
0.0
  0
LINE
  5
265
330
1F
100
AcDbEntity
  8
LAY-10
  6
CONTINUOUS
 62
     7
100
AcDbLine
 10
730.0
 20
720.0
 30
0.0
 11
729.1097913567057
 21
702.1958271341151
 31
0.0
  0
ARC
  5
266
330
1F
100
AcDbEntity
  8
LAY-10
  6
CONTINUOUS
 62
     7
100
AcDbCircle
 10
518.0000000000001
 20
1197.0
 30
0.0
 40
3.000000000000003
100
AcDbArc
 50
0.0
 51
90.0
  0
ARC
  5
267
330
1F
100
AcDbEntity
  8
LAY-10
  6
CONTINUOUS
 62
     7
100
AcDbCircle
 10
532.0000000000002
 20
1197.0
 30
0.0
 40
3.000000000000003
100
AcDbArc
 50
90.0
 51
180.0
  0
ARC
  5
268
330
1F
100
AcDbEntity
  8
LAY-10
  6
CONTINUOUS
 62
     7
100
AcDbCircle
 10
732.0000000000005
 20
1197.0
 30
0.0
 40
3.000000000000003
100
AcDbArc
 50
90.0
 51
180.0
  0
LINE
  5
269
330
1F
100
AcDbEntity
  8
LAY-10
  6
CONTINUOUS
 62
     7
100
AcDbLine
 10
718.0000000000001
 20
1200.0
 30
0.0
 11
532.0000000000002
 21
1200.0
 31
0.0
  0
ARC
  5
26A
330
1F
100
AcDbEntity
  8
LAY-10
  6
CONTINUOUS
 62
     7
100
AcDbCircle
 10
718.0000000000001
 20
1197.0
 30
0.0
 40
3.000000000000003
100
AcDbArc
 50
0.0
 51
90.0
  0
LINE
  5
26B
330
1F
100
AcDbEntity
  8
LAY-10
  6
CONTINUOUS
 62
     7
100
AcDbLine
 10
730.0
 20
1180.0
 30
0.0
 11
729.1097913567057
 21
1197.804172865885
 31
0.0
  0
LINE
  5
26C
330
1F
100
AcDbEntity
  8
LAY-10
  6
CONTINUOUS
 62
     7
100
AcDbLine
 10
729.0000000000003
 20
1197.0
 30
0.0
 11
729.0000000000003
 21
1057.0
 31
0.0
  0
LINE
  5
26D
330
1F
100
AcDbEntity
  8
LAY-10
  6
CONTINUOUS
 62
     7
100
AcDbLine
 10
720.8902086432943
 20
1197.804172865887
 30
0.0
 11
720.0
 21
1180.0
 31
0.0
  0
LINE
  5
26E
330
1F
100
AcDbEntity
  8
LAY-10
  6
CONTINUOUS
 62
     7
100
AcDbLine
 10
720.9999999999999
 20
1197.0
 30
0.0
 11
720.9999999999999
 21
1057.0
 31
0.0
  0
LINE
  5
26F
330
1F
100
AcDbEntity
  8
LAY-10
  6
CONTINUOUS
 62
     7
100
AcDbLine
 10
520.0000000000003
 20
1180.0
 30
0.0
 11
520.8902086432946
 21
1197.804172865885
 31
0.0
  0
LINE
  5
270
330
1F
100
AcDbEntity
  8
LAY-10
  6
CONTINUOUS
 62
     7
100
AcDbLine
 10
521.0000000000002
 20
1197.0
 30
0.0
 11
521.0000000000002
 21
1057.0
 31
0.0
  0
LINE
  5
271
330
1F
100
AcDbEntity
  8
LAY-10
  6
CONTINUOUS
 62
     7
100
AcDbLine
 10
529.1097913567061
 20
1197.804172865887
 30
0.0
 11
530.0000000000003
 21
1180.0
 31
0.0
  0
LINE
  5
272
330
1F
100
AcDbEntity
  8
LAY-10
  6
CONTINUOUS
 62
     7
100
AcDbLine
 10
718.0000000000001
 20
1200.0
 30
0.0
 11
532.0000000000002
 21
1200.0
 31
0.0
  0
LINE
  5
273
330
1F
100
AcDbEntity
  8
LAY-10
  6
CONTINUOUS
 62
     7
100
AcDbLine
 10
529.0000000000001
 20
1197.0
 30
0.0
 11
529.0000000000001
 21
1057.0
 31
0.0
  0
ARC
  5
274
330
1F
100
AcDbEntity
  8
LAY-10
  6
CONTINUOUS
 62
     7
100
AcDbCircle
 10
295.0000000000001
 20
1280.0
 30
0.0
 40
5.0
100
AcDbArc
 50
90.0
 51
180.0
  0
LINE
  5
275
330
1F
100
AcDbEntity
  8
LAY-10
  6
CONTINUOUS
 62
     7
100
AcDbLine
 10
955.0000000000006
 20
1285.0
 30
0.0
 11
295.0000000000001
 21
1285.0
 31
0.0
  0
ARC
  5
276
330
1F
100
AcDbEntity
  8
LAY-10
  6
CONTINUOUS
 62
     7
100
AcDbCircle
 10
955.0000000000006
 20
1280.0
 30
0.0
 40
5.0
100
AcDbArc
 50
0.0
 51
90.0
  0
LINE
  5
277
330
1F
100
AcDbEntity
  8
LAY-10
  6
CONTINUOUS
 62
     7
100
AcDbLine
 10
960.0000000000002
 20
1280.0
 30
0.0
 11
960.0000000000002
 21
620.0000000000006
 31
0.0
  0
ARC
  5
278
330
1F
100
AcDbEntity
  8
LAY-10
  6
CONTINUOUS
 62
     7
100
AcDbCircle
 10
955.0000000000006
 20
620.0000000000002
 30
0.0
 40
5.0
100
AcDbArc
 50
270.0
 51
0.0
  0
LINE
  5
279
330
1F
100
AcDbEntity
  8
LAY-10
  6
CONTINUOUS
 62
     7
100
AcDbLine
 10
290.0000000000001
 20
1280.0
 30
0.0
 11
290.0000000000001
 21
620.0000000000002
 31
0.0
  0
LINE
  5
27A
330
1F
100
AcDbEntity
  8
LAY-10
  6
CONTINUOUS
 62
     7
100
AcDbLine
 10
955.0000000000006
 20
615.0000000000003
 30
0.0
 11
295.0000000000001
 21
615.0000000000003
 31
0.0
  0
ARC
  5
27B
330
1F
100
AcDbEntity
  8
LAY-10
  6
CONTINUOUS
 62
     7
100
AcDbCircle
 10
295.0000000000001
 20
620.0000000000002
 30
0.0
 40
5.0
100
AcDbArc
 50
180.0
 51
270.0
  0
LINE
  5
27C
330
1F
100
AcDbEntity
  8
LAY-10
  6
CONTINUOUS
 62
     7
100
AcDbLine
 10
844.9999999999994
 20
1200.0
 30
0.0
 11
732.0000000000005
 21
1200.0
 31
0.0
  0
LINE
  5
27D
330
1F
100
AcDbEntity
  8
LAY-10
  6
CONTINUOUS
 62
     7
100
AcDbLine
 10
875.0
 20
1057.0
 30
0.0
 11
875.0
 21
1169.999999999999
 31
0.0
  0
LINE
  5
27E
330
1F
100
AcDbEntity
  8
LAY-10
  6
CONTINUOUS
 62
     7
100
AcDbLine
 10
875.0
 20
1170.00000000001
 30
0.0
 11
845.0
 21
1200.00000000001
 31
0.0
  0
LINE
  5
27F
330
1F
100
AcDbEntity
  8
LAY-10
  6
CONTINUOUS
 62
     7
100
AcDbLine
 10
836.715728752546
 20
1180.0
 30
0.0
 11
730.0
 21
1180.0
 31
0.0
  0
LINE
  5
280
330
1F
100
AcDbEntity
  8
LAY-10
  6
CONTINUOUS
 62
     7
100
AcDbLine
 10
855.0
 20
1161.715728752546
 30
0.0
 11
836.715728752546
 21
1180.0
 31
0.0
  0
LINE
  5
281
330
1F
100
AcDbEntity
  8
LAY-10
  6
CONTINUOUS
 62
     7
100
AcDbLine
 10
855.0
 20
1055.0
 30
0.0
 11
855.0
 21
1161.715728752546
 31
0.0
  0
LINE
  5
282
330
1F
100
AcDbEntity
  8
LAY-10
  6
CONTINUOUS
 62
     7
100
AcDbLine
 10
855.0
 20
1161.715728752509
 30
0.0
 11
875.0
 21
1170.00000000001
 31
0.0
  0
LINE
  5
283
330
1F
100
AcDbEntity
  8
LAY-10
  6
CONTINUOUS
 62
     7
100
AcDbLine
 10
836.7157287525498
 20
1180.00000000001
 30
0.0
 11
845.0
 21
1200.00000000001
 31
0.0
  0
LINE
  5
284
330
1F
100
AcDbEntity
  8
LAY-10
  6
CONTINUOUS
 62
     7
100
AcDbLine
 10
375.0000000000001
 20
1170.00000000001
 30
0.0
 11
405.0000000000003
 21
1200.00000000001
 31
0.0
  0
LINE
  5
285
330
1F
100
AcDbEntity
  8
LAY-10
  6
CONTINUOUS
 62
     7
100
AcDbLine
 10
395.0000000000001
 20
1161.715728752546
 30
0.0
 11
413.2842712474539
 21
1180.0
 31
0.0
  0
LINE
  5
286
330
1F
100
AcDbEntity
  8
LAY-10
  6
CONTINUOUS
 62
     7
100
AcDbLine
 10
395.0000000000001
 20
1161.715728752509
 30
0.0
 11
375.0000000000001
 21
1170.00000000001
 31
0.0
  0
LINE
  5
287
330
1F
100
AcDbEntity
  8
LAY-10
  6
CONTINUOUS
 62
     7
100
AcDbLine
 10
413.2842712474502
 20
1180.00000000001
 30
0.0
 11
405.0000000000003
 21
1200.00000000001
 31
0.0
  0
LINE
  5
288
330
1F
100
AcDbEntity
  8
LAY-10
  6
CONTINUOUS
 62
     7
100
AcDbLine
 10
875.0
 20
729.9999999999907
 30
0.0
 11
845.0
 21
699.9999999999907
 31
0.0
  0
LINE
  5
289
330
1F
100
AcDbEntity
  8
LAY-10
  6
CONTINUOUS
 62
     7
100
AcDbLine
 10
855.0
 20
738.2842712474538
 30
0.0
 11
836.715728752546
 21
720.0000000000002
 31
0.0
  0
LINE
  5
28A
330
1F
100
AcDbEntity
  8
LAY-10
  6
CONTINUOUS
 62
     7
100
AcDbLine
 10
855.0
 20
738.2842712474907
 30
0.0
 11
875.0
 21
729.9999999999907
 31
0.0
  0
LINE
  5
28B
330
1F
100
AcDbEntity
  8
LAY-10
  6
CONTINUOUS
 62
     7
100
AcDbLine
 10
836.7157287525498
 20
719.9999999999906
 30
0.0
 11
845.0
 21
699.9999999999907
 31
0.0
  0
LINE
  5
28C
330
1F
100
AcDbEntity
  8
LAY-10
  6
CONTINUOUS
 62
     7
100
AcDbLine
 10
375.0000000000001
 20
729.9999999999907
 30
0.0
 11
405.0000000000003
 21
699.9999999999907
 31
0.0
  0
LINE
  5
28D
330
1F
100
AcDbEntity
  8
LAY-10
  6
CONTINUOUS
 62
     7
100
AcDbLine
 10
395.0000000000001
 20
738.284271247454
 30
0.0
 11
413.2842712474539
 21
720.0000000000002
 31
0.0
  0
LINE
  5
28E
330
1F
100
AcDbEntity
  8
LAY-10
  6
CONTINUOUS
 62
     7
100
AcDbLine
 10
395.0000000000001
 20
738.2842712474908
 30
0.0
 11
375.0000000000001
 21
729.9999999999907
 31
0.0
  0
LINE
  5
28F
330
1F
100
AcDbEntity
  8
LAY-10
  6
CONTINUOUS
 62
     7
100
AcDbLine
 10
413.2842712474502
 20
719.9999999999906
 30
0.0
 11
405.0000000000003
 21
699.9999999999907
 31
0.0
  0
LINE
  5
290
330
1F
100
AcDbEntity
  8
LAY-10
  6
CONTINUOUS
 62
     7
100
AcDbLine
 10
520.0
 20
1180.0
 30
0.0
 11
413.2842712474539
 21
1180.0
 31
0.0
  0
LINE
  5
291
330
1F
100
AcDbEntity
  8
LAY-10
  6
CONTINUOUS
 62
     7
100
AcDbLine
 10
518.0000000000001
 20
1200.0
 30
0.0
 11
405.0000000000043
 21
1200.0
 31
0.0
  0
LINE
  5
292
330
1F
100
AcDbEntity
  8
LAY-10
  6
CONTINUOUS
 62
     7
100
AcDbLine
 10
395.0000000000001
 20
1055.0
 30
0.0
 11
395.0000000000001
 21
1161.715728752509
 31
0.0
  0
LINE
  5
293
330
1F
100
AcDbEntity
  8
LAY-10
  6
CONTINUOUS
 62
     7
100
AcDbLine
 10
375.0000000000003
 20
1057.0
 30
0.0
 11
375.0000000000003
 21
1170.00000000001
 31
0.0
  0
LINE
  5
294
330
1F
100
AcDbEntity
  8
LAY-10
  6
CONTINUOUS
 62
     7
100
AcDbLine
 10
375.0000000000003
 20
729.9999999999907
 30
0.0
 11
375.0000000000003
 21
843.0000000000007
 31
0.0
  0
LINE
  5
295
330
1F
100
AcDbEntity
  8
LAY-10
  6
CONTINUOUS
 62
     7
100
AcDbLine
 10
395.0000000000001
 20
738.2842712474908
 30
0.0
 11
395.0000000000001
 21
845.0000000000002
 31
0.0
  0
LINE
  5
296
330
1F
100
AcDbEntity
  8
LAY-10
  6
CONTINUOUS
 62
     7
100
AcDbLine
 10
520.0
 20
720.0
 30
0.0
 11
413.2842712474537
 21
720.0000000000006
 31
0.0
  0
LINE
  5
297
330
1F
100
AcDbEntity
  8
LAY-10
  6
CONTINUOUS
 62
     7
100
AcDbLine
 10
518.0000000000001
 20
700.0000000000002
 30
0.0
 11
405.000000000004
 21
700.0000000000002
 31
0.0
  0
LINE
  5
298
330
1F
100
AcDbEntity
  8
LAY-10
  6
CONTINUOUS
 62
     7
100
AcDbLine
 10
844.999999999996
 20
700.0000000000006
 30
0.0
 11
732.0000000000005
 21
700.0000000000006
 31
0.0
  0
LINE
  5
299
330
1F
100
AcDbEntity
  8
LAY-10
  6
CONTINUOUS
 62
     7
100
AcDbLine
 10
836.715728752546
 20
720.0
 30
0.0
 11
730.0
 21
720.0
 31
0.0
  0
LINE
  5
29A
330
1F
100
AcDbEntity
  8
LAY-10
  6
CONTINUOUS
 62
     7
100
AcDbLine
 10
855.0
 20
738.2842712474538
 30
0.0
 11
855.0
 21
845.0000000000002
 31
0.0
  0
LINE
  5
29B
330
1F
100
AcDbEntity
  8
LAY-10
  6
CONTINUOUS
 62
     7
100
AcDbLine
 10
875.0
 20
729.9999999999907
 30
0.0
 11
875.0
 21
843.0000000000007
 31
0.0
  0
LINE
  5
29C
330
1F
100
AcDbEntity
  8
LAY-10
  6
CONTINUOUS
 62
     7
100
AcDbLine
 10
924.0000000000233
 20
1219.00000000001
 30
0.0
 11
894.0000000000231
 21
1249.00000000001
 31
0.0
  0
LINE
  5
29D
330
1F
100
AcDbEntity
  8
LAY-10
  6
CONTINUOUS
 62
     7
100
AcDbLine
 10
890.2720779386649
 20
1240.000000000011
 30
0.0
 11
915.0000000000131
 21
1215.272077938663
 31
0.0
  0
LINE
  5
29E
330
1F
100
AcDbEntity
  8
LAY-10
  6
CONTINUOUS
 62
     7
100
AcDbLine
 10
890.2720779386632
 20
1240.00000000001
 30
0.0
 11
894.0000000000233
 21
1249.00000000001
 31
0.0
  0
LINE
  5
29F
330
1F
100
AcDbEntity
  8
LAY-10
  6
CONTINUOUS
 62
     7
100
AcDbLine
 10
915.0000000000133
 20
1215.27207793866
 30
0.0
 11
924.0000000000233
 21
1219.00000000001
 31
0.0
  0
LINE
  5
2A0
330
1F
100
AcDbEntity
  8
LAY-10
  6
CONTINUOUS
 62
     7
100
AcDbLine
 10
325.999999999977
 20
1219.00000000001
 30
0.0
 11
355.999999999977
 21
1249.00000000001
 31
0.0
  0
LINE
  5
2A1
330
1F
100
AcDbEntity
  8
LAY-10
  6
CONTINUOUS
 62
     7
100
AcDbLine
 10
359.7279220613354
 20
1240.000000000011
 30
0.0
 11
334.999999999987
 21
1215.272077938663
 31
0.0
  0
LINE
  5
2A2
330
1F
100
AcDbEntity
  8
LAY-10
  6
CONTINUOUS
 62
     7
100
AcDbLine
 10
359.7279220613371
 20
1240.00000000001
 30
0.0
 11
355.999999999977
 21
1249.00000000001
 31
0.0
  0
LINE
  5
2A3
330
1F
100
AcDbEntity
  8
LAY-10
  6
CONTINUOUS
 62
     7
100
AcDbLine
 10
334.999999999987
 20
1215.27207793866
 30
0.0
 11
325.999999999977
 21
1219.00000000001
 31
0.0
  0
LINE
  5
2A4
330
1F
100
AcDbEntity
  8
LAY-10
  6
CONTINUOUS
 62
     7
100
AcDbLine
 10
890.2720779386595
 20
1240.000000000001
 30
0.0
 11
359.7279220613257
 21
1240.000000000001
 31
0.0
  0
LINE
  5
2A5
330
1F
100
AcDbEntity
  8
LAY-10
  6
CONTINUOUS
 62
     7
100
AcDbLine
 10
894.0000000000197
 20
1249.000000000001
 30
0.0
 11
355.9999999999807
 21
1249.000000000001
 31
0.0
  0
LINE
  5
2A6
330
1F
100
AcDbEntity
  8
LAY-10
  6
CONTINUOUS
 62
     7
100
AcDbLine
 10
325.999999999977
 20
680.9999999999907
 30
0.0
 11
355.999999999977
 21
650.9999999999907
 31
0.0
  0
LINE
  5
2A7
330
1F
100
AcDbEntity
  8
LAY-10
  6
CONTINUOUS
 62
     7
100
AcDbLine
 10
359.7279220613354
 20
659.99999999999
 30
0.0
 11
334.999999999987
 21
684.727922061338
 31
0.0
  0
LINE
  5
2A8
330
1F
100
AcDbEntity
  8
LAY-10
  6
CONTINUOUS
 62
     7
100
AcDbLine
 10
359.7279220613368
 20
659.9999999999906
 30
0.0
 11
355.999999999977
 21
650.9999999999907
 31
0.0
  0
LINE
  5
2A9
330
1F
100
AcDbEntity
  8
LAY-10
  6
CONTINUOUS
 62
     7
100
AcDbLine
 10
334.999999999987
 20
684.7279220613407
 30
0.0
 11
325.999999999977
 21
680.9999999999907
 31
0.0
  0
LINE
  5
2AA
330
1F
100
AcDbEntity
  8
LAY-10
  6
CONTINUOUS
 62
     7
100
AcDbLine
 10
924.0000000000233
 20
680.9999999999907
 30
0.0
 11
894.0000000000231
 21
650.9999999999907
 31
0.0
  0
LINE
  5
2AB
330
1F
100
AcDbEntity
  8
LAY-10
  6
CONTINUOUS
 62
     7
100
AcDbLine
 10
890.2720779386649
 20
659.99999999999
 30
0.0
 11
915.0000000000131
 21
684.727922061338
 31
0.0
  0
LINE
  5
2AC
330
1F
100
AcDbEntity
  8
LAY-10
  6
CONTINUOUS
 62
     7
100
AcDbLine
 10
890.2720779386632
 20
659.9999999999906
 30
0.0
 11
894.0000000000233
 21
650.9999999999907
 31
0.0
  0
LINE
  5
2AD
330
1F
100
AcDbEntity
  8
LAY-10
  6
CONTINUOUS
 62
     7
100
AcDbLine
 10
915.0000000000133
 20
684.7279220613407
 30
0.0
 11
924.0000000000233
 21
680.9999999999907
 31
0.0
  0
LINE
  5
2AE
330
1F
100
AcDbEntity
  8
LAY-10
  6
CONTINUOUS
 62
     7
100
AcDbLine
 10
915.0
 20
1215.272077938654
 30
0.0
 11
915.0
 21
684.7279220613462
 31
0.0
  0
LINE
  5
2AF
330
1F
100
AcDbEntity
  8
LAY-10
  6
CONTINUOUS
 62
     7
100
AcDbLine
 10
924.00000000001
 20
680.9999999999965
 30
0.0
 11
924.00000000001
 21
1219.000000000004
 31
0.0
  0
LINE
  5
2B0
330
1F
100
AcDbEntity
  8
LAY-10
  6
CONTINUOUS
 62
     7
100
AcDbLine
 10
894.0000000000197
 20
650.9999999999997
 30
0.0
 11
355.9999999999807
 21
650.9999999999997
 31
0.0
  0
LINE
  5
2B1
330
1F
100
AcDbEntity
  8
LAY-10
  6
CONTINUOUS
 62
     7
100
AcDbLine
 10
890.2720779386749
 20
659.9999999999998
 30
0.0
 11
359.7279220613405
 21
659.9999999999998
 31
0.0
  0
LINE
  5
2B2
330
1F
100
AcDbEntity
  8
LAY-10
  6
CONTINUOUS
 62
     7
100
AcDbLine
 10
335.0000000000001
 20
1215.272077938654
 30
0.0
 11
335.0000000000001
 21
684.7279220613251
 31
0.0
  0
LINE
  5
2B3
330
1F
100
AcDbEntity
  8
LAY-10
  6
CONTINUOUS
 62
     7
100
AcDbLine
 10
325.9999999999903
 20
680.9999999999965
 30
0.0
 11
325.9999999999903
 21
1219.000000000004
 31
0.0
  0
LINE
  5
2B4
330
1F
100
AcDbEntity
  8
LAY-10
  6
CONTINUOUS
 62
     7
100
AcDbLine
 10
301.5000000000004
 20
633.0000000000008
 30
0.0
 11
299.8936999871967
 21
633.0000000000008
 31
0.0
  0
LINE
  5
2B5
330
1F
100
AcDbEntity
  8
LAY-10
  6
CONTINUOUS
 62
     7
100
AcDbLine
 10
301.5000000000004
 20
640.9999999999992
 30
0.0
 11
299.8936999871967
 21
640.9999999999992
 31
0.0
  0
LINE
  5
2B6
330
1F
100
AcDbEntity
  8
LAY-10
  6
CONTINUOUS
 62
     7
100
AcDbLine
 10
301.5000000000004
 20
640.9999999999992
 30
0.0
 11
301.5000000000004
 21
633.0000000000008
 31
0.0
  0
ARC
  5
2B7
330
1F
100
AcDbEntity
  8
LAY-10
  6
CONTINUOUS
 62
     7
100
AcDbCircle
 10
312.0000000000002
 20
637.0
 30
0.0
 40
12.75000000000001
100
AcDbArc
 50
198.2838899404029
 51
161.7161100595971
  0
LINE
  5
2B8
330
1F
100
AcDbEntity
  8
LAY-10
  6
CONTINUOUS
 62
     7
100
AcDbLine
 10
312.0000000000002
 20
630.5000000000002
 30
0.0
 11
308.0000000000002
 21
637.0
 31
0.0
  0
LINE
  5
2B9
330
1F
100
AcDbEntity
  8
LAY-10
  6
CONTINUOUS
 62
     7
100
AcDbLine
 10
308.0000000000002
 20
637.0
 30
0.0
 11
312.0000000000002
 21
643.4999999999998
 31
0.0
  0
LINE
  5
2BA
330
1F
100
AcDbEntity
  8
LAY-10
  6
CONTINUOUS
 62
     7
100
AcDbLine
 10
312.0000000000002
 20
643.4999999999998
 30
0.0
 11
316.0000000000003
 21
637.0
 31
0.0
  0
LINE
  5
2BB
330
1F
100
AcDbEntity
  8
LAY-10
  6
CONTINUOUS
 62
     7
100
AcDbLine
 10
316.0000000000003
 20
637.0
 30
0.0
 11
312.0000000000002
 21
630.5000000000002
 31
0.0
  0
LINE
  5
2BC
330
1F
100
AcDbEntity
  8
LAY-10
  6
CONTINUOUS
 62
     7
100
AcDbLine
 10
927.5000000000003
 20
633.0000000000008
 30
0.0
 11
925.8936999871967
 21
633.0000000000008
 31
0.0
  0
LINE
  5
2BD
330
1F
100
AcDbEntity
  8
LAY-10
  6
CONTINUOUS
 62
     7
100
AcDbLine
 10
927.5000000000003
 20
640.9999999999992
 30
0.0
 11
925.8936999871967
 21
640.9999999999992
 31
0.0
  0
LINE
  5
2BE
330
1F
100
AcDbEntity
  8
LAY-10
  6
CONTINUOUS
 62
     7
100
AcDbLine
 10
927.5000000000003
 20
640.9999999999992
 30
0.0
 11
927.5000000000003
 21
633.0000000000008
 31
0.0
  0
ARC
  5
2BF
330
1F
100
AcDbEntity
  8
LAY-10
  6
CONTINUOUS
 62
     7
100
AcDbCircle
 10
938.0000000000002
 20
637.0
 30
0.0
 40
12.75000000000001
100
AcDbArc
 50
198.2838899404029
 51
161.7161100595971
  0
LINE
  5
2C0
330
1F
100
AcDbEntity
  8
LAY-10
  6
CONTINUOUS
 62
     7
100
AcDbLine
 10
938.0000000000002
 20
630.5000000000002
 30
0.0
 11
934.0000000000001
 21
637.0
 31
0.0
  0
LINE
  5
2C1
330
1F
100
AcDbEntity
  8
LAY-10
  6
CONTINUOUS
 62
     7
100
AcDbLine
 10
934.0000000000001
 20
637.0
 30
0.0
 11
938.0000000000002
 21
643.4999999999998
 31
0.0
  0
LINE
  5
2C2
330
1F
100
AcDbEntity
  8
LAY-10
  6
CONTINUOUS
 62
     7
100
AcDbLine
 10
938.0000000000002
 20
643.4999999999998
 30
0.0
 11
942.0000000000002
 21
637.0
 31
0.0
  0
LINE
  5
2C3
330
1F
100
AcDbEntity
  8
LAY-10
  6
CONTINUOUS
 62
     7
100
AcDbLine
 10
942.0000000000002
 20
637.0
 30
0.0
 11
938.0000000000002
 21
630.5000000000002
 31
0.0
  0
LINE
  5
2C4
330
1F
100
AcDbEntity
  8
LAY-10
  6
CONTINUOUS
 62
     7
100
AcDbLine
 10
927.5000000000003
 20
1259.000000000001
 30
0.0
 11
925.8936999871967
 21
1259.000000000001
 31
0.0
  0
LINE
  5
2C5
330
1F
100
AcDbEntity
  8
LAY-10
  6
CONTINUOUS
 62
     7
100
AcDbLine
 10
927.5000000000003
 20
1266.999999999999
 30
0.0
 11
925.8936999871967
 21
1266.999999999999
 31
0.0
  0
LINE
  5
2C6
330
1F
100
AcDbEntity
  8
LAY-10
  6
CONTINUOUS
 62
     7
100
AcDbLine
 10
927.5000000000003
 20
1266.999999999999
 30
0.0
 11
927.5000000000003
 21
1259.000000000001
 31
0.0
  0
ARC
  5
2C7
330
1F
100
AcDbEntity
  8
LAY-10
  6
CONTINUOUS
 62
     7
100
AcDbCircle
 10
938.0000000000002
 20
1263.0
 30
0.0
 40
12.75000000000001
100
AcDbArc
 50
198.2838899404029
 51
161.7161100595971
  0
LINE
  5
2C8
330
1F
100
AcDbEntity
  8
LAY-10
  6
CONTINUOUS
 62
     7
100
AcDbLine
 10
938.0000000000002
 20
1256.5
 30
0.0
 11
934.0000000000001
 21
1263.0
 31
0.0
  0
LINE
  5
2C9
330
1F
100
AcDbEntity
  8
LAY-10
  6
CONTINUOUS
 62
     7
100
AcDbLine
 10
934.0000000000001
 20
1263.0
 30
0.0
 11
938.0000000000002
 21
1269.5
 31
0.0
  0
LINE
  5
2CA
330
1F
100
AcDbEntity
  8
LAY-10
  6
CONTINUOUS
 62
     7
100
AcDbLine
 10
938.0000000000002
 20
1269.5
 30
0.0
 11
942.0000000000002
 21
1263.0
 31
0.0
  0
LINE
  5
2CB
330
1F
100
AcDbEntity
  8
LAY-10
  6
CONTINUOUS
 62
     7
100
AcDbLine
 10
942.0000000000002
 20
1263.0
 30
0.0
 11
938.0000000000002
 21
1256.5
 31
0.0
  0
LINE
  5
2CC
330
1F
100
AcDbEntity
  8
LAY-10
  6
CONTINUOUS
 62
     7
100
AcDbLine
 10
301.5000000000004
 20
1259.000000000001
 30
0.0
 11
299.8936999871967
 21
1259.000000000001
 31
0.0
  0
LINE
  5
2CD
330
1F
100
AcDbEntity
  8
LAY-10
  6
CONTINUOUS
 62
     7
100
AcDbLine
 10
301.5000000000004
 20
1266.999999999999
 30
0.0
 11
299.8936999871967
 21
1266.999999999999
 31
0.0
  0
LINE
  5
2CE
330
1F
100
AcDbEntity
  8
LAY-10
  6
CONTINUOUS
 62
     7
100
AcDbLine
 10
301.5000000000004
 20
1266.999999999999
 30
0.0
 11
301.5000000000004
 21
1259.000000000001
 31
0.0
  0
ARC
  5
2CF
330
1F
100
AcDbEntity
  8
LAY-10
  6
CONTINUOUS
 62
     7
100
AcDbCircle
 10
312.0000000000002
 20
1263.0
 30
0.0
 40
12.75000000000001
100
AcDbArc
 50
198.2838899404029
 51
161.7161100595971
  0
LINE
  5
2D0
330
1F
100
AcDbEntity
  8
LAY-10
  6
CONTINUOUS
 62
     7
100
AcDbLine
 10
312.0000000000002
 20
1256.5
 30
0.0
 11
308.0000000000002
 21
1263.0
 31
0.0
  0
LINE
  5
2D1
330
1F
100
AcDbEntity
  8
LAY-10
  6
CONTINUOUS
 62
     7
100
AcDbLine
 10
308.0000000000002
 20
1263.0
 30
0.0
 11
312.0000000000002
 21
1269.5
 31
0.0
  0
LINE
  5
2D2
330
1F
100
AcDbEntity
  8
LAY-10
  6
CONTINUOUS
 62
     7
100
AcDbLine
 10
312.0000000000002
 20
1269.5
 30
0.0
 11
316.0000000000003
 21
1263.0
 31
0.0
  0
LINE
  5
2D3
330
1F
100
AcDbEntity
  8
LAY-10
  6
CONTINUOUS
 62
     7
100
AcDbLine
 10
316.0000000000003
 20
1263.0
 30
0.0
 11
312.0000000000002
 21
1256.5
 31
0.0
  0
LINE
  5
2D4
330
1F
100
AcDbEntity
  8
LAY-10
  6
CONTINUOUS
 62
     7
100
AcDbLine
 10
303.1114223764132
 20
319.7482480587029
 30
0.0
 11
308.3289143239158
 21
324.9657400062055
 31
0.0
  0
LINE
  5
2D5
330
1F
100
AcDbEntity
  8
LAY-10
  6
CONTINUOUS
 62
     7
100
AcDbLine
 10
303.8149626716469
 20
317.6233612291957
 30
0.0
 11
306.1915728709504
 21
319.9999714284991
 31
0.0
  0
LINE
  5
2D6
330
1F
100
AcDbEntity
  8
LAY-10
  6
CONTINUOUS
 62
     7
100
AcDbLine
 10
308.0771909541152
 20
321.8855895116639
 30
0.0
 11
310.9252056742133
 21
324.7336042317622
 31
0.0
  0
LINE
  5
2D7
330
1F
100
AcDbEntity
  8
LAY-10
  6
CONTINUOUS
 62
     7
100
AcDbLine
 10
305.2011869165704
 20
316.1811583493704
 30
0.0
 11
307.3870068338441
 21
318.3669782666441
 31
0.0
  0
LINE
  5
2D8
330
1F
100
AcDbEntity
  8
LAY-10
  6
CONTINUOUS
 62
     7
100
AcDbLine
 10
310.6529931575566
 20
321.6329645903565
 30
0.0
 11
312.8388130748302
 21
323.8187845076303
 31
0.0
  0
LINE
  5
2D9
330
1F
100
AcDbEntity
  8
LAY-10
  6
CONTINUOUS
 62
     7
100
AcDbLine
 10
307.1147943171874
 20
315.2663386252386
 30
0.0
 11
309.9628090372855
 21
318.1143533453366
 31
0.0
  0
LINE
  5
2DA
330
1F
100
AcDbEntity
  8
LAY-10
  6
CONTINUOUS
 62
     7
100
AcDbLine
 10
311.8484271204503
 20
319.9999714285015
 30
0.0
 11
314.2250373197538
 21
322.3765816278049
 31
0.0
  0
LINE
  5
2DB
330
1F
100
AcDbEntity
  8
LAY-10
  6
CONTINUOUS
 62
     7
100
AcDbLine
 10
309.7110856674877
 20
315.0342028507955
 30
0.0
 11
314.9285776149876
 21
320.2516947982953
 31
0.0
  0
LINE
  5
2DC
330
1F
100
AcDbEntity
  8
LAY-10
  6
CONTINUOUS
 62
     7
100
AcDbLine
 10
946.8885776235862
 20
319.7482480587029
 30
0.0
 11
941.6710856760835
 21
324.9657400062055
 31
0.0
  0
LINE
  5
2DD
330
1F
100
AcDbEntity
  8
LAY-10
  6
CONTINUOUS
 62
     7
100
AcDbLine
 10
946.1850373283523
 20
317.6233612291957
 30
0.0
 11
943.8084271290489
 21
319.9999714284991
 31
0.0
  0
LINE
  5
2DE
330
1F
100
AcDbEntity
  8
LAY-10
  6
CONTINUOUS
 62
     7
100
AcDbLine
 10
941.9228090458842
 20
321.8855895116639
 30
0.0
 11
939.0747943257861
 21
324.7336042317622
 31
0.0
  0
LINE
  5
2DF
330
1F
100
AcDbEntity
  8
LAY-10
  6
CONTINUOUS
 62
     7
100
AcDbLine
 10
944.798813083429
 20
316.1811583493704
 30
0.0
 11
942.6129931661552
 21
318.3669782666441
 31
0.0
  0
LINE
  5
2E0
330
1F
100
AcDbEntity
  8
LAY-10
  6
CONTINUOUS
 62
     7
100
AcDbLine
 10
939.3470068424427
 20
321.6329645903565
 30
0.0
 11
937.161186925169
 21
323.8187845076303
 31
0.0
  0
LINE
  5
2E1
330
1F
100
AcDbEntity
  8
LAY-10
  6
CONTINUOUS
 62
     7
100
AcDbLine
 10
942.8852056828118
 20
315.2663386252386
 30
0.0
 11
940.0371909627138
 21
318.1143533453366
 31
0.0
  0
LINE
  5
2E2
330
1F
100
AcDbEntity
  8
LAY-10
  6
CONTINUOUS
 62
     7
100
AcDbLine
 10
938.151572879549
 20
319.9999714285015
 30
0.0
 11
935.7749626802456
 21
322.3765816278049
 31
0.0
  0
LINE
  5
2E3
330
1F
100
AcDbEntity
  8
LAY-10
  6
CONTINUOUS
 62
     7
100
AcDbLine
 10
940.2889143325115
 20
315.0342028507955
 30
0.0
 11
935.0714223850116
 21
320.2516947982953
 31
0.0
  0
LINE
  5
2E4
330
1F
100
AcDbEntity
  8
LAY-10
  6
CONTINUOUS
 62
     7
100
AcDbLine
 10
980.9999999999999
 20
359.9999999999998
 30
0.0
 11
972.0188679245298
 21
364.9999999999999
 31
0.0
  0
LINE
  5
2E5
330
1F
100
AcDbEntity
  8
LAY-10
  6
CONTINUOUS
 62
     7
100
AcDbLine
 10
961.9999999999999
 20
383.0
 30
0.0
 11
970.9999999999998
 21
383.0
 31
0.0
  0
ARC
  5
2E6
330
1F
100
AcDbEntity
  8
LAY-10
  6
CONTINUOUS
 62
     7
100
AcDbCircle
 10
958.4765383373816
 20
371.0000000000001
 30
0.0
 40
2.0
100
AcDbArc
 50
90.00000000000001
 51
177.4551956201819
  0
LINE
  5
2E7
330
1F
100
AcDbEntity
  8
LAY-10
  6
CONTINUOUS
 62
     7
100
AcDbLine
 10
958.4765383373816
 20
373.0000000000002
 30
0.0
 11
959.0000000000003
 21
373.0000000000002
 31
0.0
  0
LINE
  5
2E8
330
1F
100
AcDbEntity
  8
LAY-10
  6
CONTINUOUS
 62
     7
100
AcDbLine
 10
959.0000000000003
 20
373.0000000000002
 30
0.0
 11
960.0000000000001
 21
382.9999999999999
 31
0.0
  0
LINE
  5
2E9
330
1F
100
AcDbEntity
  8
LAY-10
  6
CONTINUOUS
 62
     7
100
AcDbLine
 10
268.9999999999994
 20
359.9999999999998
 30
0.0
 11
277.9811320754694
 21
364.9999999999999
 31
0.0
  0
LINE
  5
2EA
330
1F
100
AcDbEntity
  8
LAY-10
  6
CONTINUOUS
 62
     7
100
AcDbLine
 10
278.9999999999994
 20
383.0
 30
0.0
 11
287.9999999999994
 21
383.0
 31
0.0
  0
ARC
  5
2EB
330
1F
100
AcDbEntity
  8
LAY-10
  6
CONTINUOUS
 62
     7
100
AcDbCircle
 10
291.5234616626184
 20
371.0000000000001
 30
0.0
 40
2.0
100
AcDbArc
 50
2.544804379818204
 51
90.00000000000001
  0
LINE
  5
2EC
330
1F
100
AcDbEntity
  8
LAY-10
  6
CONTINUOUS
 62
     7
100
AcDbLine
 10
291.5234616626184
 20
373.0000000000002
 30
0.0
 11
291.0000000000001
 21
373.0000000000002
 31
0.0
  0
LINE
  5
2ED
330
1F
100
AcDbEntity
  8
LAY-10
  6
CONTINUOUS
 62
     7
100
AcDbLine
 10
291.0000000000001
 20
373.0000000000002
 30
0.0
 11
289.9999999999999
 21
382.9999999999999
 31
0.0
  0
LINE
  5
2EE
330
1F
100
AcDbEntity
  8
LAY-10
  6
CONTINUOUS
 62
     7
100
AcDbLine
 10
289.9999999999999
 20
382.9999999999999
 30
0.0
 11
960.0000000000001
 21
382.9999999999999
 31
0.0
  0
LINE
  5
2EF
330
1F
100
AcDbEntity
  8
LAY-10
  6
CONTINUOUS
 62
     7
100
AcDbLine
 10
244.9999999999994
 20
307.9999999999998
 30
0.0
 11
245.7151595870993
 21
316.1743114854998
 31
0.0
  0
ARC
  5
2F0
330
1F
100
AcDbEntity
  8
LAY-10
  6
CONTINUOUS
 62
     7
100
AcDbCircle
 10
247.7075489831994
 20
315.9999999999999
 30
0.0
 40
2.0
100
AcDbArc
 50
90.00000000000001
 51
175.000000000002
  0
LINE
  5
2F1
330
1F
100
AcDbEntity
  8
LAY-10
  6
CONTINUOUS
 62
     7
100
AcDbLine
 10
247.7075489831994
 20
317.9999999999997
 30
0.0
 11
271.2750153056646
 21
317.9999999999997
 31
0.0
  0
ARC
  5
2F2
330
1F
100
AcDbEntity
  8
LAY-10
  6
CONTINUOUS
 62
     7
100
AcDbCircle
 10
271.2750153056646
 20
322.9999999999997
 30
0.0
 40
5.0
100
AcDbArc
 50
270.0
 51
356.760299703897
  0
ARC
  5
2F3
330
1F
100
AcDbEntity
  8
LAY-10
  6
CONTINUOUS
 62
     7
100
AcDbCircle
 10
308.9999999999994
 20
321.9999999999998
 30
0.0
 40
7.000000000000004
100
AcDbArc
 50
187.1807557814587
 51
351.7867896480995
  0
ARC
  5
2F4
330
1F
100
AcDbEntity
  8
LAY-10
  6
CONTINUOUS
 62
     7
100
AcDbCircle
 10
301.0627460668057
 20
320.9999999999998
 30
0.0
 40
1.0
100
AcDbArc
 50
7.180755781454935
 51
90.00000000000001
  0
LINE
  5
2F5
330
1F
100
AcDbEntity
  8
LAY-10
  6
CONTINUOUS
 62
     7
100
AcDbLine
 10
317.3771921388359
 20
324.9999999999999
 30
0.0
 11
323.5126927199996
 21
324.9999999999999
 31
0.0
  0
LINE
  5
2F6
330
1F
100
AcDbEntity
  8
LAY-10
  6
CONTINUOUS
 62
     7
100
AcDbLine
 10
315.9264473789084
 20
320.9879097336686
 30
0.0
 11
316.3876996561345
 21
324.1445843237615
 31
0.0
  0
ARC
  5
2F7
330
1F
100
AcDbEntity
  8
LAY-10
  6
CONTINUOUS
 62
     7
100
AcDbCircle
 10
317.3771921388359
 20
323.9999999999997
 30
0.0
 40
1.0
100
AcDbArc
 50
90.00000000000001
 51
171.6867909543513
  0
LINE
  5
2F8
330
1F
100
AcDbEntity
  8
LAY-10
  6
CONTINUOUS
 62
     7
100
AcDbLine
 10
323.5925562440765
 20
324.087155742751
 30
0.0
 11
324.9999999999994
 21
307.9999999999998
 31
0.0
  0
ARC
  5
2F9
330
1F
100
AcDbEntity
  8
LAY-10
  6
CONTINUOUS
 62
     7
100
AcDbCircle
 10
322.5963615459851
 20
323.9999999999997
 30
0.0
 40
1.0
100
AcDbArc
 50
5.000000000205837
 51
90.00000000000001
  0
LINE
  5
2FA
330
1F
100
AcDbEntity
  8
LAY-10
  6
CONTINUOUS
 62
     7
100
AcDbLine
 10
276.2670245343324
 20
322.7174334398863
 30
0.0
 11
278.9999999999994
 21
383.0
 31
0.0
  0
LINE
  5
2FB
330
1F
100
AcDbEntity
  8
LAY-10
  6
CONTINUOUS
 62
     7
100
AcDbLine
 10
253.9999999999994
 20
317.9999999999997
 30
0.0
 11
268.9999999999994
 21
359.9999999999998
 31
0.0
  0
LINE
  5
2FC
330
1F
100
AcDbEntity
  8
LAY-10
  6
CONTINUOUS
 62
     7
100
AcDbLine
 10
290.8597063710291
 20
324.8526371224004
 30
0.0
 11
287.9999999999994
 21
383.0
 31
0.0
  0
ARC
  5
2FD
330
1F
100
AcDbEntity
  8
LAY-10
  6
CONTINUOUS
 62
     7
100
AcDbCircle
 10
293.8560848822164
 20
324.9999999999999
 30
0.0
 40
3.000000000000003
100
AcDbArc
 50
182.8155566842125
 51
270.0
  0
LINE
  5
2FE
330
1F
100
AcDbEntity
  8
LAY-10
  6
CONTINUOUS
 62
     7
100
AcDbLine
 10
293.8560848822198
 20
321.9999999999998
 30
0.0
 11
301.0627460668057
 21
321.9999999999998
 31
0.0
  0
LINE
  5
2FF
330
1F
100
AcDbEntity
  8
LAY-10
  6
CONTINUOUS
 62
     7
100
AcDbLine
 10
244.9999999999994
 20
307.9999999999998
 30
0.0
 11
1005.0
 21
307.9999999999998
 31
0.0
  0
LINE
  5
300
330
1F
100
AcDbEntity
  8
LAY-10
  6
CONTINUOUS
 62
     7
100
AcDbLine
 10
915.0000000000013
 20
343.0000000000002
 30
0.0
 11
334.9999999999999
 21
343.0000000000002
 31
0.0
  0
LINE
  5
301
330
1F
100
AcDbEntity
  8
LAY-10
  6
CONTINUOUS
 62
     7
100
AcDbLine
 10
910.9999999999701
 20
309.0000000000031
 30
0.0
 11
339.0000000000299
 21
309.0000000000031
 31
0.0
  0
LINE
  5
302
330
1F
100
AcDbEntity
  8
LAY-10
  6
CONTINUOUS
 62
     7
100
AcDbLine
 10
329.9999999999999
 20
325.0000000000002
 30
0.0
 11
339.0000000000301
 21
308.9999999999999
 31
0.0
  0
LINE
  5
303
330
1F
100
AcDbEntity
  8
LAY-10
  6
CONTINUOUS
 62
     7
100
AcDbLine
 10
517.1933407243255
 20
323.9999999999997
 30
0.0
 11
392.8753882024897
 21
323.9999999999997
 31
0.0
  0
LINE
  5
304
330
1F
100
AcDbEntity
  8
LAY-10
  6
CONTINUOUS
 62
     7
100
AcDbLine
 10
717.1933407243297
 20
323.9999999999997
 30
0.0
 11
532.8066592756746
 21
323.9999999999997
 31
0.0
  0
LINE
  5
305
330
1F
100
AcDbEntity
  8
LAY-10
  6
CONTINUOUS
 62
     7
100
AcDbLine
 10
717.2850373136636
 20
333.0
 30
0.0
 11
532.7149626863362
 21
333.0
 31
0.0
  0
LINE
  5
306
330
1F
100
AcDbEntity
  8
LAY-10
  6
CONTINUOUS
 62
     7
100
AcDbLine
 10
517.2850373136637
 20
333.0
 30
0.0
 11
394.9999999999999
 21
333.0
 31
0.0
  0
ARC
  5
307
330
1F
100
AcDbEntity
  8
LAY-10
  6
CONTINUOUS
 62
     7
100
AcDbCircle
 10
307.8000815654038
 20
338.9999999999997
 30
0.0
 40
5.0
100
AcDbArc
 50
182.3373058591211
 51
270.0
  0
LINE
  5
308
330
1F
100
AcDbEntity
  8
LAY-10
  6
CONTINUOUS
 62
     7
100
AcDbLine
 10
325.9999999999978
 20
333.9999999999999
 30
0.0
 11
307.8000815654038
 21
333.9999999999999
 31
0.0
  0
LINE
  5
309
330
1F
100
AcDbEntity
  8
LAY-10
  6
CONTINUOUS
 62
     7
100
AcDbLine
 10
300.9999999999999
 20
382.9999999999999
 30
0.0
 11
302.8042412999008
 21
338.7960881524284
 31
0.0
  0
LINE
  5
30A
330
1F
100
AcDbEntity
  8
LAY-10
  6
CONTINUOUS
 62
     7
100
AcDbLine
 10
325.999999999994
 20
333.9999999999957
 30
0.0
 11
334.9999999999987
 21
343.0000000000002
 31
0.0
  0
LINE
  5
30B
330
1F
100
AcDbEntity
  8
LAY-10
  6
CONTINUOUS
 62
     7
100
AcDbLine
 10
339.0000000000265
 20
334.0000000000002
 30
0.0
 11
372.8753882024917
 21
334.0000000000002
 31
0.0
  0
LINE
  5
30C
330
1F
100
AcDbEntity
  8
LAY-10
  6
CONTINUOUS
 62
     7
100
AcDbLine
 10
339.0000000000133
 20
333.9999999999872
 30
0.0
 11
330.0000000000131
 21
324.9999999999872
 31
0.0
  0
LINE
  5
30D
330
1F
100
AcDbEntity
  8
LAY-10
  6
CONTINUOUS
 62
     7
100
AcDbLine
 10
392.875388202492
 20
323.9999999999997
 30
0.0
 11
517.1933407243255
 21
323.9999999999997
 31
0.0
  0
ARC
  5
30E
330
1F
100
AcDbEntity
  8
LAY-10
  6
CONTINUOUS
 62
     7
100
AcDbCircle
 10
532.8066592756746
 20
320.9999999999997
 30
0.0
 40
3.000000000000003
100
AcDbArc
 50
90.00000000000001
 51
176.1859251657065
  0
LINE
  5
30F
330
1F
100
AcDbEntity
  8
LAY-10
  6
CONTINUOUS
 62
     7
100
AcDbLine
 10
529.8133038021045
 20
321.1995570315712
 30
0.0
 11
529.0
 21
308.9999999999999
 31
0.0
  0
ARC
  5
310
330
1F
100
AcDbEntity
  8
LAY-10
  6
CONTINUOUS
 62
     7
100
AcDbCircle
 10
532.7149626863362
 20
336.0000000000001
 30
0.0
 40
3.000000000000003
100
AcDbArc
 50
185.710593137504
 51
270.0
  0
LINE
  5
311
330
1F
100
AcDbEntity
  8
LAY-10
  6
CONTINUOUS
 62
     7
100
AcDbLine
 10
529.0
 20
343.0000000000002
 30
0.0
 11
529.7298511157063
 21
335.7014888429368
 31
0.0
  0
ARC
  5
312
330
1F
100
AcDbEntity
  8
LAY-10
  6
CONTINUOUS
 62
     7
100
AcDbCircle
 10
517.1933407243255
 20
320.9999999999997
 30
0.0
 40
3.000000000000003
100
AcDbArc
 50
3.814074834293288
 51
90.00000000000001
  0
LINE
  5
313
330
1F
100
AcDbEntity
  8
LAY-10
  6
CONTINUOUS
 62
     7
100
AcDbLine
 10
520.1866961978956
 20
321.1995570315712
 30
0.0
 11
521.0000000000001
 21
308.9999999999999
 31
0.0
  0
ARC
  5
314
330
1F
100
AcDbEntity
  8
LAY-10
  6
CONTINUOUS
 62
     7
100
AcDbCircle
 10
517.2850373136637
 20
336.0000000000001
 30
0.0
 40
3.000000000000003
100
AcDbArc
 50
270.0
 51
354.2894068624963
  0
LINE
  5
315
330
1F
100
AcDbEntity
  8
LAY-10
  6
CONTINUOUS
 62
     7
100
AcDbLine
 10
395.0000000000003
 20
333.0
 30
0.0
 11
517.2850373136637
 21
333.0
 31
0.0
  0
LINE
  5
316
330
1F
100
AcDbEntity
  8
LAY-10
  6
CONTINUOUS
 62
     7
100
AcDbLine
 10
521.0000000000001
 20
343.0000000000002
 30
0.0
 11
520.2701488842938
 21
335.7014888429368
 31
0.0
  0
LINE
  5
317
330
1F
100
AcDbEntity
  8
LAY-10
  6
CONTINUOUS
 62
     7
100
AcDbLine
 10
372.8753882024995
 20
333.9999999999965
 30
0.0
 11
392.8753882024924
 21
323.9999999999997
 31
0.0
  0
LINE
  5
318
330
1F
100
AcDbEntity
  8
LAY-10
  6
CONTINUOUS
 62
     7
100
AcDbLine
 10
394.9999999999999
 20
333.0
 30
0.0
 11
375.0000000000002
 21
343.0000000000002
 31
0.0
  0
LINE
  5
319
330
1F
100
AcDbEntity
  8
LAY-10
  6
CONTINUOUS
 62
     7
100
AcDbLine
 10
293.5214892755511
 20
371.0888012272416
 30
0.0
 11
295.3575250220109
 21
329.7779969318962
 31
0.0
  0
LINE
  5
31A
330
1F
100
AcDbEntity
  8
LAY-10
  6
CONTINUOUS
 62
     7
100
AcDbLine
 10
300.3525940543419
 20
325.0000000000002
 30
0.0
 11
330.0000000000007
 21
325.0000000000002
 31
0.0
  0
LINE
  5
31B
330
1F
100
AcDbEntity
  8
LAY-10
  6
CONTINUOUS
 62
     7
100
AcDbLine
 10
359.9999999999999
 20
382.9999999999999
 30
0.0
 11
360.7363796664446
 21
343.0000000000002
 31
0.0
  0
ARC
  5
31C
330
1F
100
AcDbEntity
  8
LAY-10
  6
CONTINUOUS
 62
     7
100
AcDbCircle
 10
300.3525940543419
 20
330.0000000000004
 30
0.0
 40
5.0
100
AcDbArc
 50
182.5448043798198
 51
270.0
  0
LINE
  5
31D
330
1F
100
AcDbEntity
  8
LAY-10
  6
CONTINUOUS
 62
     7
100
AcDbLine
 10
300.5893841543176
 20
325.0000000000002
 30
0.0
 11
300.0604032121995
 21
321.9999999999998
 31
0.0
  0
ELLIPSE
  5
31E
330
1F
100
AcDbEntity
  8
LAY-10
  6
CONTINUOUS
 62
     7
100
AcDbEllipse
 10
309.0199999957003
 20
319.9999714285004
 30
0.0
 11
-2.82842712475
 21
3.463824224946639E-16
 31
0.0
210
0.0
220
0.0
230
1.0
 40
0.7071067811855953
 41
0.0
 42
6.283185307179586
  0
ELLIPSE
  5
31F
330
1F
100
AcDbEntity
  8
LAY-10
  6
CONTINUOUS
 62
     7
100
AcDbEllipse
 10
309.0199999957003
 20
319.9999714285004
 30
0.0
 11
-5.916079783100002
 21
7.245108169873784E-16
 31
0.0
210
0.0
220
0.0
230
1.0
 40
0.8451542547284623
 41
0.0
 42
6.283185307179586
  0
LINE
  5
320
330
1F
100
AcDbEntity
  8
LAY-10
  6
CONTINUOUS
 62
     7
100
AcDbLine
 10
1005.0
 20
307.9999999999998
 30
0.0
 11
1004.2848404129
 21
316.1743114854998
 31
0.0
  0
ARC
  5
321
330
1F
100
AcDbEntity
  8
LAY-10
  6
CONTINUOUS
 62
     7
100
AcDbCircle
 10
1002.2924510168
 20
315.9999999999999
 30
0.0
 40
2.0
100
AcDbArc
 50
4.999999999997853
 51
90.00000000000001
  0
LINE
  5
322
330
1F
100
AcDbEntity
  8
LAY-10
  6
CONTINUOUS
 62
     7
100
AcDbLine
 10
1002.2924510168
 20
317.9999999999997
 30
0.0
 11
978.7249846943348
 21
317.9999999999997
 31
0.0
  0
ARC
  5
323
330
1F
100
AcDbEntity
  8
LAY-10
  6
CONTINUOUS
 62
     7
100
AcDbCircle
 10
978.7249846943348
 20
322.9999999999997
 30
0.0
 40
5.0
100
AcDbArc
 50
183.2397002961032
 51
270.0
  0
LINE
  5
324
330
1F
100
AcDbEntity
  8
LAY-10
  6
CONTINUOUS
 62
     7
100
AcDbLine
 10
952.9999999999998
 20
321.0848377599477
 30
0.0
 11
952.9999999999998
 21
320.9999999999998
 31
0.0
  0
ARC
  5
325
330
1F
100
AcDbEntity
  8
LAY-10
  6
CONTINUOUS
 62
     7
100
AcDbCircle
 10
948.9372539331937
 20
320.9999999999998
 30
0.0
 40
1.0
100
AcDbArc
 50
90.00000000000001
 51
172.8192442185447
  0
LINE
  5
326
330
1F
100
AcDbEntity
  8
LAY-10
  6
CONTINUOUS
 62
     7
100
AcDbLine
 10
932.6228078611633
 20
324.9999999999999
 30
0.0
 11
926.4873072799998
 21
324.9999999999999
 31
0.0
  0
ARC
  5
327
330
1F
100
AcDbEntity
  8
LAY-10
  6
CONTINUOUS
 62
     7
100
AcDbCircle
 10
932.6228078611633
 20
323.9999999999997
 30
0.0
 40
1.0
100
AcDbArc
 50
8.313209045650167
 51
90.00000000000001
  0
LINE
  5
328
330
1F
100
AcDbEntity
  8
LAY-10
  6
CONTINUOUS
 62
     7
100
AcDbLine
 10
926.4074437559225
 20
324.087155742751
 30
0.0
 11
925.0
 21
307.9999999999998
 31
0.0
  0
ARC
  5
329
330
1F
100
AcDbEntity
  8
LAY-10
  6
CONTINUOUS
 62
     7
100
AcDbCircle
 10
927.4036384540142
 20
323.9999999999997
 30
0.0
 40
1.0
100
AcDbArc
 50
90.00000000000001
 51
174.9999999997945
  0
LINE
  5
32A
330
1F
100
AcDbEntity
  8
LAY-10
  6
CONTINUOUS
 62
     7
100
AcDbLine
 10
973.7329754656668
 20
322.7174334398863
 30
0.0
 11
970.9999999999998
 21
383.0
 31
0.0
  0
LINE
  5
32B
330
1F
100
AcDbEntity
  8
LAY-10
  6
CONTINUOUS
 62
     7
100
AcDbLine
 10
995.9999999999999
 20
317.9999999999997
 30
0.0
 11
980.9999999999999
 21
359.9999999999998
 31
0.0
  0
LINE
  5
32C
330
1F
100
AcDbEntity
  8
LAY-10
  6
CONTINUOUS
 62
     7
100
AcDbLine
 10
959.1402936289705
 20
324.8526371224004
 30
0.0
 11
961.9999999999999
 21
383.0
 31
0.0
  0
LINE
  5
32D
330
1F
100
AcDbEntity
  8
LAY-10
  6
CONTINUOUS
 62
     7
100
AcDbLine
 10
956.1439151177831
 20
321.9999999999998
 30
0.0
 11
948.9372539331937
 21
321.9999999999998
 31
0.0
  0
ARC
  5
32E
330
1F
100
AcDbEntity
  8
LAY-10
  6
CONTINUOUS
 62
     7
100
AcDbCircle
 10
956.1439151177831
 20
324.9999999999999
 30
0.0
 40
3.000000000000003
100
AcDbArc
 50
270.0
 51
357.1844433157874
  0
ARC
  5
32F
330
1F
100
AcDbEntity
  8
LAY-10
  6
CONTINUOUS
 62
     7
100
AcDbCircle
 10
940.9999999999998
 20
321.9999999999998
 30
0.0
 40
7.000000000000004
100
AcDbArc
 50
188.3132090456405
 51
352.8192442185415
  0
LINE
  5
330
330
1F
100
AcDbEntity
  8
LAY-10
  6
CONTINUOUS
 62
     7
100
AcDbLine
 10
934.0735526210906
 20
320.9879097336686
 30
0.0
 11
933.6123003438645
 21
324.1445843237615
 31
0.0
  0
LINE
  5
331
330
1F
100
AcDbEntity
  8
LAY-10
  6
CONTINUOUS
 62
     7
100
AcDbLine
 10
855.0
 20
333.0
 30
0.0
 11
732.7149626863361
 21
333.0
 31
0.0
  0
LINE
  5
332
330
1F
100
AcDbEntity
  8
LAY-10
  6
CONTINUOUS
 62
     7
100
AcDbLine
 10
920.0000000000001
 20
325.0000000000002
 30
0.0
 11
910.9999999999701
 21
308.9999999999999
 31
0.0
  0
LINE
  5
333
330
1F
100
AcDbEntity
  8
LAY-10
  6
CONTINUOUS
 62
     7
100
AcDbLine
 10
857.1246117975079
 20
323.9999999999997
 30
0.0
 11
732.8066592756745
 21
323.9999999999997
 31
0.0
  0
LINE
  5
334
330
1F
100
AcDbEntity
  8
LAY-10
  6
CONTINUOUS
 62
     7
100
AcDbLine
 10
956.4785107244489
 20
371.0888012272413
 30
0.0
 11
954.6424749779892
 21
329.7779969318962
 31
0.0
  0
ARC
  5
335
330
1F
100
AcDbEntity
  8
LAY-10
  6
CONTINUOUS
 62
     7
100
AcDbCircle
 10
942.1999184345964
 20
338.9999999999997
 30
0.0
 40
5.0
100
AcDbArc
 50
270.0
 51
357.6626941408791
  0
LINE
  5
336
330
1F
100
AcDbEntity
  8
LAY-10
  6
CONTINUOUS
 62
     7
100
AcDbLine
 10
924.0000000000022
 20
333.9999999999999
 30
0.0
 11
942.1999184345964
 21
333.9999999999999
 31
0.0
  0
LINE
  5
337
330
1F
100
AcDbEntity
  8
LAY-10
  6
CONTINUOUS
 62
     7
100
AcDbLine
 10
948.9999999999999
 20
382.9999999999999
 30
0.0
 11
947.1957587000992
 21
338.7960881524284
 31
0.0
  0
LINE
  5
338
330
1F
100
AcDbEntity
  8
LAY-10
  6
CONTINUOUS
 62
     7
100
AcDbLine
 10
924.0000000000066
 20
333.9999999999957
 30
0.0
 11
915.0000000000013
 21
343.0000000000002
 31
0.0
  0
LINE
  5
339
330
1F
100
AcDbEntity
  8
LAY-10
  6
CONTINUOUS
 62
     7
100
AcDbLine
 10
910.9999999999741
 20
334.0000000000002
 30
0.0
 11
877.1246117975085
 21
334.0000000000002
 31
0.0
  0
LINE
  5
33A
330
1F
100
AcDbEntity
  8
LAY-10
  6
CONTINUOUS
 62
     7
100
AcDbLine
 10
910.9999999999867
 20
333.9999999999872
 30
0.0
 11
919.9999999999869
 21
324.9999999999872
 31
0.0
  0
ARC
  5
33B
330
1F
100
AcDbEntity
  8
LAY-10
  6
CONTINUOUS
 62
     7
100
AcDbCircle
 10
717.1933407243254
 20
320.9999999999997
 30
0.0
 40
3.000000000000003
100
AcDbArc
 50
3.814074834293631
 51
90.00000000000001
  0
LINE
  5
33C
330
1F
100
AcDbEntity
  8
LAY-10
  6
CONTINUOUS
 62
     7
100
AcDbLine
 10
720.1866961978955
 20
321.1995570315712
 30
0.0
 11
721.0000000000003
 21
308.9999999999999
 31
0.0
  0
ARC
  5
33D
330
1F
100
AcDbEntity
  8
LAY-10
  6
CONTINUOUS
 62
     7
100
AcDbCircle
 10
717.2850373136636
 20
336.0000000000001
 30
0.0
 40
3.000000000000003
100
AcDbArc
 50
270.0
 51
354.2894068624963
  0
LINE
  5
33E
330
1F
100
AcDbEntity
  8
LAY-10
  6
CONTINUOUS
 62
     7
100
AcDbLine
 10
720.9999999999998
 20
343.0000000000002
 30
0.0
 11
720.2701488842937
 21
335.7014888429368
 31
0.0
  0
ARC
  5
33F
330
1F
100
AcDbEntity
  8
LAY-10
  6
CONTINUOUS
 62
     7
100
AcDbCircle
 10
732.8066592756745
 20
320.9999999999997
 30
0.0
 40
3.000000000000003
100
AcDbArc
 50
90.00000000000001
 51
176.1859251657065
  0
LINE
  5
340
330
1F
100
AcDbEntity
  8
LAY-10
  6
CONTINUOUS
 62
     7
100
AcDbLine
 10
729.8133038021048
 20
321.1995570315712
 30
0.0
 11
728.9999999999999
 21
308.9999999999999
 31
0.0
  0
ARC
  5
341
330
1F
100
AcDbEntity
  8
LAY-10
  6
CONTINUOUS
 62
     7
100
AcDbCircle
 10
732.7149626863361
 20
336.0000000000001
 30
0.0
 40
3.000000000000003
100
AcDbArc
 50
185.710593137504
 51
270.0
  0
LINE
  5
342
330
1F
100
AcDbEntity
  8
LAY-10
  6
CONTINUOUS
 62
     7
100
AcDbLine
 10
728.9999999999999
 20
343.0000000000002
 30
0.0
 11
729.7298511157062
 21
335.7014888429368
 31
0.0
  0
LINE
  5
343
330
1F
100
AcDbEntity
  8
LAY-10
  6
CONTINUOUS
 62
     7
100
AcDbLine
 10
877.1246117975006
 20
333.9999999999965
 30
0.0
 11
857.1246117975079
 21
323.9999999999997
 31
0.0
  0
LINE
  5
344
330
1F
100
AcDbEntity
  8
LAY-10
  6
CONTINUOUS
 62
     7
100
AcDbLine
 10
855.0
 20
333.0
 30
0.0
 11
875.0
 21
343.0000000000002
 31
0.0
  0
LINE
  5
345
330
1F
100
AcDbEntity
  8
LAY-10
  6
CONTINUOUS
 62
     7
100
AcDbLine
 10
949.6474059456585
 20
325.0000000000002
 30
0.0
 11
919.9999999999994
 21
325.0000000000002
 31
0.0
  0
LINE
  5
346
330
1F
100
AcDbEntity
  8
LAY-10
  6
CONTINUOUS
 62
     7
100
AcDbLine
 10
890.0000000000001
 20
382.9999999999999
 30
0.0
 11
889.2636203335559
 21
343.0000000000002
 31
0.0
  0
ARC
  5
347
330
1F
100
AcDbEntity
  8
LAY-10
  6
CONTINUOUS
 62
     7
100
AcDbCircle
 10
949.6474059456585
 20
330.0000000000004
 30
0.0
 40
5.0
100
AcDbArc
 50
270.0
 51
357.4551956201802
  0
LINE
  5
348
330
1F
100
AcDbEntity
  8
LAY-10
  6
CONTINUOUS
 62
     7
100
AcDbLine
 10
949.4106158456817
 20
325.0000000000002
 30
0.0
 11
949.9395967877998
 21
321.9999999999998
 31
0.0
  0
ELLIPSE
  5
349
330
1F
100
AcDbEntity
  8
LAY-10
  6
CONTINUOUS
 62
     7
100
AcDbEllipse
 10
940.9800000042989
 20
319.9999714285004
 30
0.0
 11
-5.916079783100002
 21
7.245108169873784E-16
 31
0.0
210
0.0
220
0.0
230
1.0
 40
0.8451542547284623
 41
0.0
 42
6.283185307179586
  0
ELLIPSE
  5
34A
330
1F
100
AcDbEntity
  8
LAY-10
  6
CONTINUOUS
 62
     7
100
AcDbEllipse
 10
940.9800000042989
 20
319.9999714285004
 30
0.0
 11
-2.82842712475
 21
3.463824224946639E-16
 31
0.0
210
0.0
220
0.0
230
1.0
 40
0.7071067811855953
 41
0.0
 42
6.283185307179586
  0
LINE
  5
34B
330
1F
100
AcDbEntity
  8
LAY-10
  6
CENTER
 62
     2
100
AcDbLine
 10
875.00000000005
 20
1300.8382395419
 30
0.0
 11
875.00000000005
 21
1332.8382395419
 31
0.0
  0
LINE
  5
34C
330
1F
100
AcDbEntity
  8
LAY-10
  6
CENTER
 62
     2
100
AcDbLine
 10
861.5571909584698
 20
1314.999999999999
 30
0.0
 11
889.1571909584701
 21
1314.999999999999
 31
0.0
  0
LINE
  5
34D
330
1F
100
AcDbEntity
  8
LAY-10
  6
CENTER
 62
     2
100
AcDbLine
 10
975.838239542
 20
1200.0
 30
0.0
 11
1007.838239542
 21
1200.0
 31
0.0
  0
LINE
  5
34E
330
1F
100
AcDbEntity
  8
LAY-10
  6
CENTER
 62
     2
100
AcDbLine
 10
990.0
 20
1186.5571909584
 30
0.0
 11
990.0
 21
1214.1571909584
 31
0.0
  0
LINE
  5
34F
330
1F
100
AcDbEntity
  8
LAY-10
  6
CENTER
 62
     2
100
AcDbLine
 10
374.9999999999495
 20
1300.8382395419
 30
0.0
 11
374.9999999999495
 21
1332.8382395419
 31
0.0
  0
LINE
  5
350
330
1F
100
AcDbEntity
  8
LAY-10
  6
CENTER
 62
     2
100
AcDbLine
 10
388.4428090415296
 20
1314.999999999999
 30
0.0
 11
360.8428090415295
 21
1314.999999999999
 31
0.0
  0
LINE
  5
351
330
1F
100
AcDbEntity
  8
LAY-10
  6
CENTER
 62
     2
100
AcDbLine
 10
274.1617604579993
 20
1200.0
 30
0.0
 11
242.1617604579993
 21
1200.0
 31
0.0
  0
LINE
  5
352
330
1F
100
AcDbEntity
  8
LAY-10
  6
CENTER
 62
     2
100
AcDbLine
 10
259.9999999999995
 20
1186.5571909584
 30
0.0
 11
259.9999999999995
 21
1214.1571909584
 31
0.0
  0
LINE
  5
353
330
1F
100
AcDbEntity
  8
LAY-10
  6
CENTER
 62
     2
100
AcDbLine
 10
875.00000000005
 20
599.1617604581002
 30
0.0
 11
875.00000000005
 21
567.1617604580999
 31
0.0
  0
LINE
  5
354
330
1F
100
AcDbEntity
  8
LAY-10
  6
CENTER
 62
     2
100
AcDbLine
 10
861.5571909584698
 20
585.0
 30
0.0
 11
889.1571909584701
 21
585.0
 31
0.0
  0
LINE
  5
355
330
1F
100
AcDbEntity
  8
LAY-10
  6
CENTER
 62
     2
100
AcDbLine
 10
975.838239542
 20
700.0000000000001
 30
0.0
 11
1007.838239542
 21
700.0000000000001
 31
0.0
  0
LINE
  5
356
330
1F
100
AcDbEntity
  8
LAY-10
  6
CENTER
 62
     2
100
AcDbLine
 10
990.0
 20
713.4428090416
 30
0.0
 11
990.0
 21
685.8428090415999
 31
0.0
  0
LINE
  5
357
330
1F
100
AcDbEntity
  8
LAY-10
  6
CENTER
 62
     2
100
AcDbLine
 10
374.9999999999495
 20
599.1617604581002
 30
0.0
 11
374.9999999999495
 21
567.1617604580999
 31
0.0
  0
LINE
  5
358
330
1F
100
AcDbEntity
  8
LAY-10
  6
CENTER
 62
     2
100
AcDbLine
 10
388.4428090415293
 20
585.0
 30
0.0
 11
360.8428090415295
 21
585.0
 31
0.0
  0
LINE
  5
359
330
1F
100
AcDbEntity
  8
LAY-10
  6
CENTER
 62
     2
100
AcDbLine
 10
274.1617604579993
 20
700.0000000000001
 30
0.0
 11
242.1617604579993
 21
700.0000000000001
 31
0.0
  0
LINE
  5
35A
330
1F
100
AcDbEntity
  8
LAY-10
  6
CENTER
 62
     2
100
AcDbLine
 10
259.9999999999995
 20
713.4428090416
 30
0.0
 11
259.9999999999995
 21
685.8428090415999
 31
0.0
  0
LINE
  5
35B
330
1F
100
AcDbEntity
  8
LAY-10
  6
CENTER
 62
     2
100
AcDbLine
 10
966.1905242917999
 20
750.0
 30
0.0
 11
1008.9905242918
 21
750.0
 31
0.0
  0
LINE
  5
35C
330
1F
100
AcDbEntity
  8
LAY-10
  6
CENTER
 62
     2
100
AcDbLine
 10
966.1905242917999
 20
1149.999999999999
 30
0.0
 11
1008.9905242918
 21
1149.999999999999
 31
0.0
  0
LINE
  5
35D
330
1F
100
AcDbEntity
  8
LAY-10
  6
CENTER
 62
     2
100
AcDbLine
 10
425.0000000000002
 20
1291.1905242918
 30
0.0
 11
425.0000000000002
 21
1333.9905242918
 31
0.0
  0
LINE
  5
35E
330
1F
100
AcDbEntity
  8
LAY-10
  6
CENTER
 62
     2
100
AcDbLine
 10
824.9999999999994
 20
1291.1905242918
 30
0.0
 11
824.9999999999994
 21
1333.9905242918
 31
0.0
  0
LINE
  5
35F
330
1F
100
AcDbEntity
  8
LAY-10
  6
CENTER
 62
     2
100
AcDbLine
 10
283.8094757081999
 20
1149.999999999999
 30
0.0
 11
241.0094757081999
 21
1149.999999999999
 31
0.0
  0
LINE
  5
360
330
1F
100
AcDbEntity
  8
LAY-10
  6
CENTER
 62
     2
100
AcDbLine
 10
425.0000000000006
 20
608.8094757081999
 30
0.0
 11
425.0000000000003
 21
566.0094757082
 31
0.0
  0
LINE
  5
361
330
1F
100
AcDbEntity
  8
LAY-10
  6
CENTER
 62
     2
100
AcDbLine
 10
824.9999999999989
 20
608.8094757081999
 30
0.0
 11
824.9999999999991
 21
566.0094757082
 31
0.0
  0
LINE
  5
362
330
1F
100
AcDbEntity
  8
LAY-10
  6
CENTER
 62
     2
100
AcDbLine
 10
283.8094757081999
 20
750.0000000000007
 30
0.0
 11
241.0094757081999
 21
750.0000000000007
 31
0.0
  0
LINE
  5
363
330
1F
100
AcDbEntity
  8
LAY-10
  6
CENTER
 62
     2
100
AcDbLine
 10
624.9999999999998
 20
1341.7382395419
 30
0.0
 11
624.9999999999998
 21
552.7382395418999
 31
0.0
  0
LINE
  5
364
330
1F
100
AcDbEntity
  8
LAY-10
  6
CENTER
 62
     2
100
AcDbLine
 10
229.9905242917999
 20
949.9999999999998
 30
0.0
 11
1046.0905242918
 21
949.9999999999998
 31
0.0
  0
LINE
  5
365
330
1F
100
AcDbEntity
  8
LAY-10
  6
CENTER
 62
     2
100
AcDbLine
 10
312.0000000000002
 20
1280.438239541901
 30
0.0
 11
312.0000000000002
 21
1245.5382395419
 31
0.0
  0
LINE
  5
366
330
1F
100
AcDbEntity
  8
LAY-10
  6
CENTER
 62
     2
100
AcDbLine
 10
294.8000000000002
 20
1263.0
 30
0.0
 11
329.0000000000001
 21
1263.0
 31
0.0
  0
LINE
  5
367
330
1F
100
AcDbEntity
  8
LAY-10
  6
CENTER
 62
     2
100
AcDbLine
 10
938.0000000000001
 20
1280.438239541901
 30
0.0
 11
938.0000000000001
 21
1245.5382395419
 31
0.0
  0
LINE
  5
368
330
1F
100
AcDbEntity
  8
LAY-10
  6
CENTER
 62
     2
100
AcDbLine
 10
955.2000000000004
 20
1263.0
 30
0.0
 11
921.0000000000002
 21
1263.0
 31
0.0
  0
LINE
  5
369
330
1F
100
AcDbEntity
  8
LAY-10
  6
CENTER
 62
     2
100
AcDbLine
 10
312.0000000000002
 20
619.5617604581005
 30
0.0
 11
312.0000000000002
 21
654.4617604581005
 31
0.0
  0
LINE
  5
36A
330
1F
100
AcDbEntity
  8
LAY-10
  6
CENTER
 62
     2
100
AcDbLine
 10
294.8000000000002
 20
637.0000000000005
 30
0.0
 11
329.0000000000001
 21
637.0000000000005
 31
0.0
  0
LINE
  5
36B
330
1F
100
AcDbEntity
  8
LAY-10
  6
CENTER
 62
     2
100
AcDbLine
 10
938.0000000000001
 20
619.5617604581
 30
0.0
 11
938.0000000000001
 21
654.4617604581001
 31
0.0
  0
LINE
  5
36C
330
1F
100
AcDbEntity
  8
LAY-10
  6
CENTER
 62
     2
100
AcDbLine
 10
955.2000000000004
 20
637.0000000000005
 30
0.0
 11
921.0000000000002
 21
637.0000000000005
 31
0.0
  0
LINE
  5
36D
330
1F
100
AcDbEntity
  8
LAY-10
  6
CENTER
 62
     2
100
AcDbLine
 10
624.9999999999997
 20
390.5000000000001
 30
0.0
 11
624.9999999999997
 21
301.4999999999999
 31
0.0
  0
DIMENSION
  5
36F
330
1F
100
AcDbEntity
  8
LAY-20
  6
CONTINUOUS
 62
     4
100
AcDbDimension
  2
*D15
 10
1055.0
 20
308.0000000000002
 30
0.0
 11
1042.5
 21
345.5000000000002
 31
0.0
 70
   160
  3
ISO-25
100
AcDbAlignedDimension
 13
970.9999999999998
 23
383.0000000000002
 33
0.0
 14
1005.0
 24
308.0000000000002
 34
0.0
 50
90.0
100
AcDbRotatedDimension
1001
ACAD
1000
DSTYLE
1002
{
1070
   270
1070
     2
1070
     6
1000
EX_BNORM
1070
     7
1000
EX_BNORM
1070
    41
1040
12.5
1070
    42
1040
7.5
1070
    44
1040
7.5
1070
    73
1070
     0
1070
    74
1070
     0
1070
    75
1070
     0
1070
    76
1070
     0
1070
    77
1070
     1
1070
    78
1070
     8
1070
   140
1040
15.590552
1070
   147
1040
0.0
1070
   173
1070
     1
1070
   176
1070
     4
1070
   177
1070
     4
1070
   178
1070
     7
1070
   271
1070
     1
1070
   277
1070
     2
1070
   279
1070
     2
1070
   280
1070
     0
1070
   287
1070
     5
1070
   340
1005
36E
1002
}
  0
DIMENSION
  5
37D
330
1F
100
AcDbEntity
  8
LAY-20
  6
CONTINUOUS
 62
     4
100
AcDbDimension
  2
*D16
 10
709.9999999999998
 20
383.0000000000002
 30
0.0
 11
697.4999999999998
 21
363.0000000000002
 31
0.0
 70
   160
  3
ISO-25
100
AcDbAlignedDimension
 13
709.9999999999998
 23
343.0000000000002
 33
0.0
 14
709.9999999999998
 24
383.0000000000002
 34
0.0
 50
90.0
100
AcDbRotatedDimension
1001
ACAD
1000
DSTYLE
1002
{
1070
   270
1070
     2
1070
     6
1000
EX_BNORM
1070
     7
1000
EX_BNORM
1070
    41
1040
12.5
1070
    42
1040
0.0
1070
    44
1040
0.0
1070
    73
1070
     0
1070
    74
1070
     0
1070
    75
1070
     1
1070
    76
1070
     1
1070
    77
1070
     1
1070
    78
1070
     8
1070
   140
1040
15.590552
1070
   147
1040
0.0
1070
   173
1070
     1
1070
   176
1070
     4
1070
   177
1070
     4
1070
   178
1070
     7
1070
   271
1070
     1
1070
   277
1070
     2
1070
   279
1070
     2
1070
   280
1070
     0
1070
   287
1070
     5
1070
   340
1005
36E
1002
}
  0
DIMENSION
  5
388
330
1F
100
AcDbEntity
  8
LAY-20
  6
CONTINUOUS
 62
     4
100
AcDbDimension
  2
*D17
 10
970.9999999999999
 20
467.9999999999999
 30
0.0
 11
625.0
 21
480.4999999999999
 31
0.0
 70
   160
  1
□<>
  3
ISO-25
100
AcDbAlignedDimension
 13
278.9999999999999
 23
382.9999999999999
 33
0.0
 14
970.9999999999999
 24
382.9999999999999
 34
0.0
100
AcDbRotatedDimension
1001
ACAD
1000
DSTYLE
1002
{
1070
   270
1070
     2
1070
     6
1000
EX_BNORM
1070
     7
1000
EX_BNORM
1070
    41
1040
15.0
1070
    42
1040
7.5
1070
    44
1040
7.5
1070
    73
1070
     0
1070
    74
1070
     0
1070
    75
1070
     0
1070
    76
1070
     0
1070
    77
1070
     1
1070
    78
1070
     8
1070
   140
1040
15.590552
1070
   147
1040
0.0
1070
   173
1070
     1
1070
   176
1070
     4
1070
   177
1070
     4
1070
   178
1070
     7
1070
   271
1070
     1
1070
   277
1070
     2
1070
   279
1070
     2
1070
   280
1070
     0
1070
   287
1070
     5
1070
   340
1005
36E
1002
}
  0
DIMENSION
  5
395
330
1F
100
AcDbEntity
  8
LAY-20
  6
CONTINUOUS
 62
     4
100
AcDbDimension
  2
*D18
 10
960.0000000000001
 20
432.9999999999999
 30
0.0
 11
625.0
 21
445.4999999999999
 31
0.0
 70
   160
  1
□<>
  3
ISO-25
100
AcDbAlignedDimension
 13
289.9999999999999
 23
382.9999999999999
 33
0.0
 14
960.0000000000001
 24
382.9999999999999
 34
0.0
100
AcDbRotatedDimension
1001
ACAD
1000
DSTYLE
1002
{
1070
   270
1070
     2
1070
     6
1000
EX_BNORM
1070
     7
1000
EX_BNORM
1070
    41
1040
15.0
1070
    42
1040
7.5
1070
    44
1040
7.5
1070
    73
1070
     0
1070
    74
1070
     0
1070
    75
1070
     0
1070
    76
1070
     0
1070
    77
1070
     1
1070
    78
1070
     8
1070
   140
1040
15.590552
1070
   147
1040
0.0
1070
   173
1070
     1
1070
   176
1070
     4
1070
   177
1070
     4
1070
   178
1070
     7
1070
   271
1070
     1
1070
   277
1070
     2
1070
   279
1070
     2
1070
   280
1070
     0
1070
   287
1070
     5
1070
   340
1005
36E
1002
}
  0
DIMENSION
  5
3A2
330
1F
100
AcDbEntity
  8
LAY-20
  6
CONTINUOUS
 62
     4
100
AcDbDimension
  2
*D19
 10
1005.0
 20
223.0
 30
0.0
 11
624.9999999999997
 21
235.5
 31
0.0
 70
   160
  1
□<>
  3
ISO-25
100
AcDbAlignedDimension
 13
244.9999999999993
 23
307.9999999999998
 33
0.0
 14
1005.0
 24
307.9999999999998
 34
0.0
100
AcDbRotatedDimension
1001
ACAD
1000
DSTYLE
1002
{
1070
   270
1070
     2
1070
     6
1000
EX_BNORM
1070
     7
1000
EX_BNORM
1070
    41
1040
15.0
1070
    42
1040
7.5
1070
    44
1040
7.5
1070
    73
1070
     0
1070
    74
1070
     0
1070
    75
1070
     0
1070
    76
1070
     0
1070
    77
1070
     1
1070
    78
1070
     8
1070
   140
1040
15.590552
1070
   147
1040
0.0
1070
   173
1070
     1
1070
   176
1070
     4
1070
   177
1070
     4
1070
   178
1070
     7
1070
   271
1070
     1
1070
   277
1070
     2
1070
   279
1070
     2
1070
   280
1070
     0
1070
   287
1070
     5
1070
   340
1005
36E
1002
}
  0
DIMENSION
  5
3AF
330
1F
100
AcDbEntity
  8
LAY-20
  6
CONTINUOUS
 62
     4
100
AcDbDimension
  2
*D20
 10
925.0
 20
257.9999999999999
 30
0.0
 11
625.0
 21
270.4999999999999
 31
0.0
 70
   160
  1
□<>
  3
ISO-25
100
AcDbAlignedDimension
 13
324.9999999999999
 23
307.9999999999999
 33
0.0
 14
925.0
 24
307.9999999999999
 34
0.0
100
AcDbRotatedDimension
1001
ACAD
1000
DSTYLE
1002
{
1070
   270
1070
     2
1070
     6
1000
EX_BNORM
1070
     7
1000
EX_BNORM
1070
    41
1040
15.0
1070
    42
1040
7.5
1070
    44
1040
7.499999999999972
1070
    73
1070
     0
1070
    74
1070
     0
1070
    75
1070
     0
1070
    76
1070
     0
1070
    77
1070
     1
1070
    78
1070
     8
1070
   140
1040
15.590552
1070
   147
1040
0.0
1070
   173
1070
     1
1070
   176
1070
     4
1070
   177
1070
     4
1070
   178
1070
     7
1070
   271
1070
     1
1070
   277
1070
     2
1070
   279
1070
     2
1070
   280
1070
     0
1070
   287
1070
     5
1070
   340
1005
36E
1002
}
  0
LINE
  5
3BC
330
1F
100
AcDbEntity
  8
LAY-255
  6
CONTINUOUS
 62
     7
100
AcDbLine
 10
1925.0
 20
110.0
 30
0.0
 11
1425.0
 21
110.0
 31
0.0
  0
LINE
  5
3BD
330
1F
100
AcDbEntity
  8
LAY-255
  6
CONTINUOUS
 62
     7
100
AcDbLine
 10
1444.0
 20
79.99999999999999
 30
0.0
 11
1484.0
 21
105.0
 31
0.0
  0
LINE
  5
3BE
330
1F
100
AcDbEntity
  8
LAY-255
  6
CONTINUOUS
 62
     7
100
AcDbLine
 10
1484.0
 20
105.0
 30
0.0
 11
1524.0
 21
79.99999999999999
 31
0.0
  0
LINE
  5
3BF
330
1F
100
AcDbEntity
  8
LAY-255
  6
CONTINUOUS
 62
     7
100
AcDbLine
 10
1524.0
 20
79.99999999999999
 30
0.0
 11
1484.0
 21
55.0
 31
0.0
  0
LINE
  5
3C0
330
1F
100
AcDbEntity
  8
LAY-255
  6
CONTINUOUS
 62
     7
100
AcDbLine
 10
1484.0
 20
55.0
 30
0.0
 11
1444.0
 21
79.99999999999999
 31
0.0
  0
LINE
  5
3C1
330
1F
100
AcDbEntity
  8
LAY-255
  6
CONTINUOUS
 62
     7
100
AcDbLine
 10
25.0
 20
50.0
 30
0.0
 11
1925.0
 21
50.0
 31
0.0
  0
LINE
  5
3C2
330
1F
100
AcDbEntity
  8
LAY-255
  6
CONTINUOUS
 62
     7
100
AcDbLine
 10
25.0
 20
1400.0
 30
0.0
 11
1925.0
 21
1400.0
 31
0.0
  0
LINE
  5
3C3
330
1F
100
AcDbEntity
  8
LAY-255
  6
CONTINUOUS
 62
     7
100
AcDbLine
 10
25.0
 20
50.0
 30
0.0
 11
25.0
 21
1400.0
 31
0.0
  0
LINE
  5
3C4
330
1F
100
AcDbEntity
  8
LAY-255
  6
CONTINUOUS
 62
     4
100
AcDbLine
 10
1425.0
 20
140.0
 30
0.0
 11
1925.0
 21
140.0
 31
0.0
  0
LINE
  5
3C5
330
1F
100
AcDbEntity
  8
LAY-255
  6
CONTINUOUS
 62
     4
100
AcDbLine
 10
1675.0
 20
140.0
 30
0.0
 11
1675.0
 21
110.0
 31
0.0
  0
POINT
  5
3C6
330
1F
100
AcDbEntity
  8
LAY-255
  6
CONTINUOUS
 62
     7
100
AcDbPoint
 10
1445.0
 20
175.0000000000001
 30
0.0
  0
POINT
  5
3C7
330
1F
100
AcDbEntity
  8
LAY-255
  6
CONTINUOUS
 62
     7
100
AcDbPoint
 10
1445.0
 20
150.0000000000001
 30
0.0
  0
POINT
  5
3C8
330
1F
100
AcDbEntity
  8
LAY-255
  6
CONTINUOUS
 62
     7
100
AcDbPoint
 10
1445.0
 20
200.0000000000001
 30
0.0
  0
POINT
  5
3C9
330
1F
100
AcDbEntity
  8
LAY-255
  6
CONTINUOUS
 62
     7
100
AcDbPoint
 10
1445.0
 20
300.0000000000001
 30
0.0
  0
POINT
  5
3CA
330
1F
100
AcDbEntity
  8
LAY-255
  6
CONTINUOUS
 62
     7
100
AcDbPoint
 10
1445.0
 20
275.0000000000001
 30
0.0
  0
LINE
  5
3CB
330
1F
100
AcDbEntity
  8
LAY-255
  6
CONTINUOUS
 62
     7
100
AcDbLine
 10
1925.0
 20
50.0
 30
0.0
 11
1925.0
 21
1400.0
 31
0.0
  0
LINE
  5
3CC
330
1F
100
AcDbEntity
  8
LAY-255
  6
CONTINUOUS
 62
     7
100
AcDbLine
 10
1425.0
 20
50.0
 30
0.0
 11
1425.0
 21
385.0000000000001
 31
0.0
  0
LINE
  5
3CD
330
1F
100
AcDbEntity
  8
LAY-255
  6
CONTINUOUS
 62
     7
100
AcDbLine
 10
1925.0
 20
385.0000000000001
 30
0.0
 11
1425.0
 21
385.0000000000001
 31
0.0
  0
LINE
  5
3CE
330
1F
100
AcDbEntity
  8
LAY-255
  6
CONTINUOUS
 62
     4
100
AcDbLine
 10
1915.0
 20
325.0000000000001
 30
0.0
 11
1435.0
 21
325.0000000000001
 31
0.0
  0
LINE
  5
3CF
330
1F
100
AcDbEntity
  8
LAY-255
  6
CONTINUOUS
 62
     4
100
AcDbLine
 10
1915.0
 20
355.0000000000001
 30
0.0
 11
1435.0
 21
355.0000000000001
 31
0.0
  0
POINT
  5
3D0
330
1F
100
AcDbEntity
  8
LAY-255
  6
CONTINUOUS
 62
     7
100
AcDbPoint
 10
1500.0
 20
330.0000000000001
 30
0.0
  0
POINT
  5
3D1
330
1F
100
AcDbEntity
  8
LAY-255
  6
CONTINUOUS
 62
     7
100
AcDbPoint
 10
1500.0
 20
360.0000000000001
 30
0.0
  0
POINT
  5
3D2
330
1F
100
AcDbEntity
  8
LAY-255
  6
CONTINUOUS
 62
     7
100
AcDbPoint
 10
1445.0
 20
225.0000000000001
 30
0.0
  0
POINT
  5
3D3
330
1F
100
AcDbEntity
  8
LAY-255
  6
CONTINUOUS
 62
     7
100
AcDbPoint
 10
1445.0
 20
250.0000000000001
 30
0.0
  0
TEXT
  5
3D4
330
1F
100
AcDbEntity
  8
LAY-255
  6
CONTINUOUS
 62
     7
100
AcDbText
 10
1540.691894370117
 20
77.71874999999999
 30
0.0
 40
25.78125
  1
福西鋳物株式会社
 41
1.342691871783662
  7
EXCADSTD
100
AcDbText
  0
TEXT
  5
3D5
330
1F
100
AcDbEntity
  8
LAY-255
  6
CONTINUOUS
 62
     7
100
AcDbText
 10
1542.546875
 20
59.90624999999999
 30
0.0
 40
8.59375
  1
ＦＵＫＵＮＩＳＨＩ
 41
1.204799226045263
  7
EXCADSTD
100
AcDbText
  0
TEXT
  5
3D6
330
1F
100
AcDbEntity
  8
LAY-255
  6
CONTINUOUS
 62
     7
100
AcDbText
 10
1663.595982142857
 20
59.90624999999999
 30
0.0
 40
8.59375
  1
ＦＯＵＮＤＲＹ
 41
1.243252752978497
  7
EXCADSTD
100
AcDbText
  0
TEXT
  5
3D7
330
1F
100
AcDbEntity
  8
LAY-255
  6
CONTINUOUS
 62
     7
100
AcDbText
 10
1759.97295734375
 20
59.90624999999999
 30
0.0
 40
8.59375
  1
ＣＯ.,ＬＴＤ.
 41
1.243831100341625
  7
EXCADSTD
100
AcDbText
  0
TEXT
  5
3D8
330
1F
100
AcDbEntity
  8
LAY-255
  6
CONTINUOUS
 62
     7
100
AcDbText
 10
1470.171875
 20
68.59375
 30
0.0
 40
25.78125
  1
S
 41
0.7582677563636363
  7
EXCADSTD
100
AcDbText
  0
TEXT
  5
3D9
330
1F
100
AcDbEntity
  8
LAY-255
  6
CONTINUOUS
 62
     7
100
AcDbText
 10
1485.5234375
 20
68.7470518868
 30
0.0
 40
25.78125
  1
F
 41
0.7440945272727272
  7
EXCADSTD
100
AcDbText
  0
TEXT
  5
3DA
330
1F
100
AcDbEntity
  8
LAY-255
  6
CONTINUOUS
 62
     7
100
AcDbText
 10
1685.52734375
 20
122.1093749999999
 30
0.0
 40
12.890625
  1
縮尺
 41
1.080708718181818
  7
EXCADSTD
100
AcDbText
  0
TEXT
  5
3DB
330
1F
100
AcDbEntity
  8
LAY-255
  6
CONTINUOUS
 62
     7
100
AcDbText
 10
1435.76171875
 20
122.1093749999999
 30
0.0
 40
12.890625
  1
作成日
 41
1.000629973818182
  7
EXCADSTD
100
AcDbText
  0
TEXT
  5
3DC
330
1F
100
AcDbEntity
  8
LAY-255
  6
CONTINUOUS
 62
     7
100
AcDbText
 10
1741.40625
 20
117.8124999999999
 30
0.0
 40
17.1875
  1
１：５
 41
0.888661464
  7
EXCADSTD
100
AcDbText
  0
TEXT
  5
3DD
330
1F
100
AcDbEntity
  8
LAY-255
  6
CONTINUOUS
 62
     7
100
AcDbText
 10
1446.875
 20
202.8125000000001
 30
0.0
 40
17.1875
  1
受枠：水抜穴付
 41
1.018265188375559
  7
EXCADSTD
100
AcDbText
  0
TEXT
  5
3DE
330
1F
100
AcDbEntity
  8
LAY-255
  6
CONTINUOUS
 62
     7
100
AcDbText
 10
1448.90625
 20
177.8125
 30
0.0
 40
17.1875
  1
目地：鋳鉄
 41
1.006958485412262
  7
EXCADSTD
100
AcDbText
  0
TEXT
  5
3DF
330
1F
100
AcDbEntity
  8
LAY-255
  6
CONTINUOUS
 62
     7
100
AcDbText
 10
1504.453125
 20
117.8124999999999
 30
0.0
 40
17.1875
  1
０２／０５／１６
 41
0.9779528072727273
  7
EXCADSTD
100
AcDbText
  0
TEXT
  5
3E0
330
1F
100
AcDbEntity
  8
LAY-255
  6
CONTINUOUS
 62
     7
100
AcDbText
 10
1445.859375
 20
302.8125000000001
 30
0.0
 40
17.1875
  1
仕上：磁器タイル用
 41
1.015449071576525
  7
EXCADSTD
100
AcDbText
  0
TEXT
  5
3E1
330
1F
100
AcDbEntity
  8
LAY-255
  6
CONTINUOUS
 62
     7
100
AcDbText
 10
1446.015625
 20
277.8125000000001
 30
0.0
 40
17.1875
  1
貼代：４０
 41
0.9987182359408034
  7
EXCADSTD
100
AcDbText
  0
TEXT
  5
3E2
330
1F
100
AcDbEntity
  8
LAY-255
  6
CONTINUOUS
 62
     7
100
AcDbText
 10
1436.328125
 20
332.8125000000001
 30
0.0
 40
17.1875
  1
型式
 41
1.056348480681818
  7
EXCADSTD
100
AcDbText
  0
TEXT
  5
3E3
330
1F
100
AcDbEntity
  8
LAY-255
  6
CONTINUOUS
 62
     7
100
AcDbText
 10
1437.109375
 20
362.8125000000001
 30
0.0
 40
17.1875
  1
品名
 41
0.9788386340909091
  7
EXCADSTD
100
AcDbText
  0
TEXT
  5
3E4
330
1F
100
AcDbEntity
  8
LAY-255
  6
CONTINUOUS
 62
     7
100
AcDbText
 10
1501.25
 20
362.8125000000001
 30
0.0
 40
17.1875
  1
化粧用鉄蓋
 41
1.030031183932347
  7
EXCADSTD
100
AcDbText
  0
TEXT
  5
3E5
330
1F
100
AcDbEntity
  8
LAY-255
  6
CONTINUOUS
 62
     7
100
AcDbText
 10
1445.703125
 20
252.8125000000001
 30
0.0
 40
17.1875
  1
構造：ボルト固定式
 41
1.021279830379747
  7
EXCADSTD
100
AcDbText
  0
TEXT
  5
3E6
330
1F
100
AcDbEntity
  8
LAY-255
  6
CONTINUOUS
 62
     7
100
AcDbText
 10
1446.875
 20
227.8125000000001
 30
0.0
 40
17.1875
  1
防水：密閉式防水防臭型
 41
1.012947532708528
  7
EXCADSTD
100
AcDbText
  0
TEXT
  5
3E7
330
1F
100
AcDbEntity
  8
LAY-255
  6
CONTINUOUS
 62
     7
100
AcDbText
 10
1503.75
 20
332.8125000000001
 30
0.0
 40
17.1875
  1
ＳＦ－６０ＨＣＴＢ－２型
 41
1.00449418439108
  7
EXCADSTD
100
AcDbText
  0
TEXT
  5
3E8
330
1F
100
AcDbEntity
  8
LAY-255
  6
CONTINUOUS
 62
     7
100
AcDbText
 10
1445.859375
 20
152.8124999999999
 30
0.0
 40
17.1875
  1
破壊荷重：６０ｋＮ以上
 41
1.016600426804124
  7
EXCADSTD
100
AcDbText
  0
ENDSEC
  0
SECTION
  2
OBJECTS
  0
DICTIONARY
  5
C
330
0
100
AcDbDictionary
  3
ACAD_GROUP
350
D
  3
ACAD_LAYOUT
350
1A
  3
ACAD_MATERIAL
350
43
  3
ACAD_MLEADERSTYLE
350
6B
  3
ACAD_MLINESTYLE
350
17
  3
ACAD_PLOTSETTINGS
350
19
  3
ACAD_SCALELIST
350
47
  3
ACAD_VISUALSTYLE
350
2A
  3
ACDBHEADERROUNDTRIPXREC
350
3E9
  3
ACDBVARIABLEDICTIONARY
350
40A
  0
DICTIONARY
  5
415
330
8
100
AcDbDictionary
280
     1
  3
ACAD_XREC_ROUNDTRIP
360
416
  0
DICTIONARY
  5
D
102
{ACAD_REACTORS
330
C
102
}
330
C
100
AcDbDictionary
  0
DICTIONARY
  5
1A
102
{ACAD_REACTORS
330
C
102
}
330
C
100
AcDbDictionary
  0
DICTIONARY
  5
43
102
{ACAD_REACTORS
330
C
102
}
330
C
100
AcDbDictionary
  3
BYBLOCK
350
45
  3
BYLAYER
350
44
  3
GLOBAL
350
46
  0
DICTIONARY
  5
6B
102
{ACAD_REACTORS
330
C
102
}
330
C
100
AcDbDictionary
  3
STANDARD
350
6C
  0
DICTIONARY
  5
17
102
{ACAD_REACTORS
330
C
102
}
330
C
100
AcDbDictionary
  3
STANDARD
350
18
  0
DICTIONARY
  5
19
102
{ACAD_REACTORS
330
C
102
}
330
C
100
AcDbDictionary
  0
DICTIONARY
  5
47
102
{ACAD_REACTORS
330
C
102
}
330
C
100
AcDbDictionary
  3
A0
350
48
  3
A1
350
49
  3
A2
350
4A
  3
A3
350
4B
  3
A4
350
4C
  3
A5
350
4D
  3
A6
350
4E
  3
A7
350
4F
  3
A8
350
50
  3
A9
350
51
  3
B0
350
52
  3
B1
350
53
  3
B2
350
54
  3
B3
350
55
  3
B4
350
56
  3
B5
350
57
  3
B6
350
58
  3
B7
350
59
  3
B8
350
5A
  3
B9
350
5B
  3
C0
350
5C
  3
C1
350
5D
  3
C2
350
5E
  3
C3
350
5F
  3
C4
350
60
  3
C5
350
61
  3
C6
350
62
  3
C7
350
63
  3
C8
350
64
  3
C9
350
65
  3
D0
350
66
  3
D1
350
67
  3
D2
350
68
  0
DICTIONARY
  5
2A
102
{ACAD_REACTORS
330
C
102
}
330
C
100
AcDbDictionary
  3
2DWIREFRAME
350
2F
  3
BASIC
350
32
  3
BRIGHTEN
350
36
  3
COLORCHANGE
350
3A
  3
CONCEPTUAL
350
34
  3
DIM
350
35
  3
EDGECOLOROFF
350
3D
  3
FACEPATTERN
350
39
  3
FLAT
350
2B
  3
FLATWITHEDGES
350
2C
  3
GOURAUD
350
2D
  3
GOURAUDWITHEDGES
350
2E
  3
HIDDEN
350
31
  3
JITTEROFF
350
3B
  3
LINEPATTERN
350
38
  3
OVERHANGOFF
350
3C
  3
REALISTIC
350
33
  3
SHADED
350
42
  3
SHADED_WITH_EDGES
350
41
  3
SHADES_OF_GRAY
350
3E
  3
SKETCHY
350
3F
  3
THICKEN
350
37
  3
WIREFRAME
350
30
  3
X-RAY
350
40
  0
DICTIONARY
  5
3E9
102
{ACAD_REACTORS
330
C
102
}
330
C
100
AcDbDictionary
  3
CEPSNID
350
3F3
  3
CEPSNTYPE
350
3F2
  3
DIMSTYLEDATA
350
409
  3
FINGERPRINTGUID
350
3F4
  3
HYPERLINKBASE
350
3EC
  3
INSUNITS
350
3F1
  3
LAYOUTDICT
350
3EE
  3
LWETCUNION
350
3F0
  3
PLOTSETDICT
350
3EF
  3
PSVPSCALE
350
3F6
  3
PUCSBASE
350
3F9
  3
PUCSORGBACK
350
3FF
  3
PUCSORGBOTTOM
350
3FB
  3
PUCSORGFRONT
350
3FE
  3
PUCSORGLEFT
350
3FC
  3
PUCSORGRIGHT
350
3FD
  3
PUCSORGTOP
350
3FA
  3
PUCSORTHOREF
350
3F7
  3
PUCSORTHOVIEW
350
3F8
  3
STYLESHEET
350
3ED
  3
TSTACKALIGN
350
3EA
  3
TSTACKSIZE
350
3EB
  3
UCSBASE
350
402
  3
UCSORGBACK
350
408
  3
UCSORGBOTTOM
350
404
  3
UCSORGFRONT
350
407
  3
UCSORGLEFT
350
405
  3
UCSORGRIGHT
350
406
  3
UCSORGTOP
350
403
  3
UCSORTHOREF
350
400
  3
UCSORTHOVIEW
350
401
  3
VERSIONGUID
350
3F5
  0
DICTIONARY
  5
40A
102
{ACAD_REACTORS
330
C
102
}
330
C
100
AcDbDictionary
  3
CANNOSCALE
350
417
  3
CENTEREXE
350
411
  3
CENTERLTYPEFILE
350
412
  3
CMLEADERSTYLE
350
40C
  3
CTABLESTYLE
350
40B
  3
DIMASSOC
350
413
  3
HIDETEXT
350
414
  3
MSLTSCALE
350
418
  3
PSOLHEIGHT
350
40E
  3
PSOLWIDTH
350
40D
  0
XRECORD
  5
416
102
{ACAD_REACTORS
330
415
102
}
330
415
100
AcDbXrecord
102
VTR_0.000_0.000_1.000_1.000_VISUALSTYLE
340
2F
102
VTR_0.000_0.000_1.000_1.000_GRIDDISPLAY
 70
     3
102
VTR_0.000_0.000_1.000_1.000_GRIDMAJOR
 70
     5
102
VTR_0.000_0.000_1.000_1.000_DEFAULTLIGHTING
280
     1
102
VTR_0.000_0.000_1.000_1.000_DEFAULTLIGHTINGTYPE
 70
     1
102
VTR_0.000_0.000_1.000_1.000_BRIGHTNESS
141
0.0
102
VTR_0.000_0.000_1.000_1.000_CONTRAST
142
0.0
  0
MATERIAL
  5
45
102
{ACAD_REACTORS
330
43
102
}
102
{ACAD_XDICTIONARY
360
41B
102
}
330
43
100
AcDbMaterial
  1
BYBLOCK
  0
MATERIAL
  5
44
102
{ACAD_REACTORS
330
43
102
}
102
{ACAD_XDICTIONARY
360
419
102
}
330
43
100
AcDbMaterial
  1
BYLAYER
  0
MATERIAL
  5
46
102
{ACAD_REACTORS
330
43
102
}
102
{ACAD_XDICTIONARY
360
41D
102
}
330
43
100
AcDbMaterial
  1
GLOBAL
  0
ACAD_PROXY_OBJECT
  5
6C
102
{ACAD_REACTORS
330
6B
102
}
330
6B
100
AcDbProxyObject
 90
      499
 91
      505
 93
      610
310
40901902A4063FBFFFFFE0000000000000020400000000000020404214DD185B99185C990000000000000104090141901A00000000000004100000000000000041025764000000000000039000
340
14
340
0
340
11
340
0
 94
        0
1001
ACAD_MLEADERVER
1070
     2
  0
MLINESTYLE
  5
18
102
{ACAD_REACTORS
330
17
102
}
330
17
100
AcDbMlineStyle
  2
Standard
 70
     0
  3

 62
   256
 51
90.0
 52
90.0
 71
     2
 49
0.5
 62
   256
  6
BYLAYER
 49
-0.5
 62
   256
  6
BYLAYER
  0
ACAD_PROXY_OBJECT
  5
48
102
{ACAD_REACTORS
330
47
102
}
330
47
100
AcDbProxyObject
 90
      499
 91
      503
 93
       41
310
903313A31580
  0
ACAD_PROXY_OBJECT
  5
49
102
{ACAD_REACTORS
330
47
102
}
330
47
100
AcDbProxyObject
 90
      499
 91
      503
 93
      105
310
903313A324000000000000004000
  0
ACAD_PROXY_OBJECT
  5
4A
102
{ACAD_REACTORS
330
47
102
}
330
47
100
AcDbProxyObject
 90
      499
 91
      503
 93
      105
310
903313A344000000000000104000
  0
ACAD_PROXY_OBJECT
  5
4B
102
{ACAD_REACTORS
330
47
102
}
330
47
100
AcDbProxyObject
 90
      499
 91
      503
 93
      105
310
903313A354000000000000144000
  0
ACAD_PROXY_OBJECT
  5
4C
102
{ACAD_REACTORS
330
47
102
}
330
47
100
AcDbProxyObject
 90
      499
 91
      503
 93
      105
310
903313A384000000000000204000
  0
ACAD_PROXY_OBJECT
  5
4D
102
{ACAD_REACTORS
330
47
102
}
330
47
100
AcDbProxyObject
 90
      499
 91
      503
 93
      113
310
904313A31304000000000000244000
  0
ACAD_PROXY_OBJECT
  5
4E
102
{ACAD_REACTORS
330
47
102
}
330
47
100
AcDbProxyObject
 90
      499
 91
      503
 93
      113
310
904313A31364000000000000304000
  0
ACAD_PROXY_OBJECT
  5
4F
102
{ACAD_REACTORS
330
47
102
}
330
47
100
AcDbProxyObject
 90
      499
 91
      503
 93
      113
310
904313A32304000000000000344000
  0
ACAD_PROXY_OBJECT
  5
50
102
{ACAD_REACTORS
330
47
102
}
330
47
100
AcDbProxyObject
 90
      499
 91
      503
 93
      113
310
904313A333040000000000003E4000
  0
ACAD_PROXY_OBJECT
  5
51
102
{ACAD_REACTORS
330
47
102
}
330
47
100
AcDbProxyObject
 90
      499
 91
      503
 93
      113
310
904313A34304000000000000444000
  0
ACAD_PROXY_OBJECT
  5
52
102
{ACAD_REACTORS
330
47
102
}
330
47
100
AcDbProxyObject
 90
      499
 91
      503
 93
      113
310
904313A35304000000000000494000
  0
ACAD_PROXY_OBJECT
  5
53
102
{ACAD_REACTORS
330
47
102
}
330
47
100
AcDbProxyObject
 90
      499
 91
      503
 93
      121
310
905313A3130304000000000000594000
  0
ACAD_PROXY_OBJECT
  5
54
102
{ACAD_REACTORS
330
47
102
}
330
47
100
AcDbProxyObject
 90
      499
 91
      503
 93
      105
310
903323A310000000000000010100
  0
ACAD_PROXY_OBJECT
  5
55
102
{ACAD_REACTORS
330
47
102
}
330
47
100
AcDbProxyObject
 90
      499
 91
      503
 93
      105
310
903343A310000000000000410100
  0
ACAD_PROXY_OBJECT
  5
56
102
{ACAD_REACTORS
330
47
102
}
330
47
100
AcDbProxyObject
 90
      499
 91
      503
 93
      105
310
903383A310000000000000810100
  0
ACAD_PROXY_OBJECT
  5
57
102
{ACAD_REACTORS
330
47
102
}
330
47
100
AcDbProxyObject
 90
      499
 91
      503
 93
      113
310
90431303A310000000000000910100
  0
ACAD_PROXY_OBJECT
  5
58
102
{ACAD_REACTORS
330
47
102
}
330
47
100
AcDbProxyObject
 90
      499
 91
      503
 93
      121
310
9053130303A310000000000001650100
  0
ACAD_PROXY_OBJECT
  5
59
102
{ACAD_REACTORS
330
47
102
}
330
47
100
AcDbProxyObject
 90
      499
 91
      503
 93
      257
310
90E312F31323822203D2031272D3022000000000000200FC000000000000284000
  0
ACAD_PROXY_OBJECT
  5
5A
102
{ACAD_REACTORS
330
47
102
}
330
47
100
AcDbProxyObject
 90
      499
 91
      503
 93
      249
310
90D312F363422203D2031272D3022000000000000240FC000000000000284000
  0
ACAD_PROXY_OBJECT
  5
5B
102
{ACAD_REACTORS
330
47
102
}
330
47
100
AcDbProxyObject
 90
      499
 91
      503
 93
      249
310
90D312F333222203D2031272D3022000000000000280FC000000000000284000
  0
ACAD_PROXY_OBJECT
  5
5C
102
{ACAD_REACTORS
330
47
102
}
330
47
100
AcDbProxyObject
 90
      499
 91
      503
 93
      249
310
90D312F313622203D2031272D30220000000000002C0FC000000000000284000
  0
ACAD_PROXY_OBJECT
  5
5D
102
{ACAD_REACTORS
330
47
102
}
330
47
100
AcDbProxyObject
 90
      499
 91
      503
 93
      249
310
90D332F333222203D2031272D30220000000000002E0FC000000000000284000
  0
ACAD_PROXY_OBJECT
  5
5E
102
{ACAD_REACTORS
330
47
102
}
330
47
100
AcDbProxyObject
 90
      499
 91
      503
 93
      241
310
90C312F3822203D2031272D3022000000000000300FC000000000000284000
  0
ACAD_PROXY_OBJECT
  5
5F
102
{ACAD_REACTORS
330
47
102
}
330
47
100
AcDbProxyObject
 90
      499
 91
      503
 93
      249
310
90D332F313622203D2031272D3022000000000000320FC000000000000284000
  0
ACAD_PROXY_OBJECT
  5
60
102
{ACAD_REACTORS
330
47
102
}
330
47
100
AcDbProxyObject
 90
      499
 91
      503
 93
      241
310
90C312F3422203D2031272D3022000000000000340FC000000000000284000
  0
ACAD_PROXY_OBJECT
  5
61
102
{ACAD_REACTORS
330
47
102
}
330
47
100
AcDbProxyObject
 90
      499
 91
      503
 93
      241
310
90C332F3822203D2031272D3022000000000000360FC000000000000284000
  0
ACAD_PROXY_OBJECT
  5
62
102
{ACAD_REACTORS
330
47
102
}
330
47
100
AcDbProxyObject
 90
      499
 91
      503
 93
      241
310
90C312F3222203D2031272D3022000000000000380FC000000000000284000
  0
ACAD_PROXY_OBJECT
  5
63
102
{ACAD_REACTORS
330
47
102
}
330
47
100
AcDbProxyObject
 90
      499
 91
      503
 93
      241
310
90C332F3422203D2031272D30220000000000003A0FC000000000000284000
  0
ACAD_PROXY_OBJECT
  5
64
102
{ACAD_REACTORS
330
47
102
}
330
47
100
AcDbProxyObject
 90
      499
 91
      503
 93
      161
310
90A3122203D2031272D30224000000000000284000
  0
ACAD_PROXY_OBJECT
  5
65
102
{ACAD_REACTORS
330
47
102
}
330
47
100
AcDbProxyObject
 90
      499
 91
      503
 93
      257
310
90E312D312F3222203D2031272D30220000000000003E0FC000000000000284000
  0
ACAD_PROXY_OBJECT
  5
66
102
{ACAD_REACTORS
330
47
102
}
330
47
100
AcDbProxyObject
 90
      499
 91
      503
 93
      225
310
90A3322203D2031272D302200000000000002100000000000000284000
  0
ACAD_PROXY_OBJECT
  5
67
102
{ACAD_REACTORS
330
47
102
}
330
47
100
AcDbProxyObject
 90
      499
 91
      503
 93
      225
310
90A3622203D2031272D302200000000000006100000000000000284000
  0
ACAD_PROXY_OBJECT
  5
68
102
{ACAD_REACTORS
330
47
102
}
330
47
100
AcDbProxyObject
 90
      499
 91
      503
 93
      249
310
90D31272D3022203D2031272D30220000000000000A100000000000000284000
  0
ACAD_PROXY_OBJECT
  5
2F
102
{ACAD_REACTORS
330
2A
102
}
330
2A
100
AcDbProxyObject
 90
      499
 91
      501
 93
      436
310
42CC9915DA5C99599C985B595049028333333333333E33F0000000000000F90107901411070040501600405405064090741402480A0340
1001
ACAD
1000
AcDbSavedByObjectVersion
1070
     0
  0
ACAD_PROXY_OBJECT
  5
32
102
{ACAD_REACTORS
330
2A
102
}
330
2A
100
AcDbProxyObject
 90
      499
 91
      501
 93
      388
310
4150985CDA58D07406404333333333333E33F0000000000000F90107A41107004050150841D405064090741402480A0350
1001
ACAD
1000
AcDbSavedByObjectVersion
1070
     0
  0
ACAD_PROXY_OBJECT
  5
36
102
{ACAD_REACTORS
330
2A
102
}
330
2A
100
AcDbProxyObject
 90
      499
 91
      501
 93
      428
310
42109C9A59DA1D195B90C409028333333333333E33F0000000000000F9010790141107004050150841D405064090741402480A029950
1001
ACAD
1000
AcDbSavedByObjectVersion
1070
     0
  0
ACAD_PROXY_OBJECT
  5
3A
102
{ACAD_REACTORS
330
2A
102
}
330
2A
100
AcDbProxyObject
 90
      499
 91
      501
 93
      452
310
42D0DBDB1BDC90DA185B99D95104090240C333333333333E33F0000000000000F90108901411070040501508421405064090741402480A0350
1001
ACAD
1000
AcDbSavedByObjectVersion
1070
     0
  0
ACAD_PROXY_OBJECT
  5
34
102
{ACAD_REACTORS
330
2A
102
}
330
2A
100
AcDbProxyObject
 90
      499
 91
      501
 93
      500
310
4290DBDB98D95C1D1D585B10940D028333333333333E33F0000000000000F90107902409070040501000000000018199010841D405064090740C02480A0340
1001
ACAD
1000
AcDbSavedByObjectVersion
1070
     0
  0
ACAD_PROXY_OBJECT
  5
35
102
{ACAD_REACTORS
330
2A
102
}
330
2A
100
AcDbProxyObject
 90
      499
 91
      501
 93
      412
310
40D11A5B50B409028333333333333E33F0000000000000F9010790141107004050150841D405064090741402480A02677FFFFFD0
1001
ACAD
1000
AcDbSavedByObjectVersion
1070
     0
  0
ACAD_PROXY_OBJECT
  5
3D
102
{ACAD_REACTORS
330
2A
102
}
330
2A
100
AcDbProxyObject
 90
      499
 91
      501
 93
      452
310
43115919D950DBDB1BDC93D999916409028333333333333E33F0000000000000F9010790141107004050150841D405064090741402480A0350
1001
ACAD
1000
AcDbSavedByObjectVersion
1070
     0
  0
ACAD_PROXY_OBJECT
  5
39
102
{ACAD_REACTORS
330
2A
102
}
330
2A
100
AcDbProxyObject
 90
      499
 91
      501
 93
      444
310
42D19858D95C185D1D195C9B90F409028333333333333E33F0000000000000F9010790141107004050150841D405064090741402480A0350
1001
ACAD
1000
AcDbSavedByObjectVersion
1070
     0
  0
ACAD_PROXY_OBJECT
  5
2B
102
{ACAD_REACTORS
330
2A
102
}
330
2A
100
AcDbProxyObject
 90
      499
 91
      501
 93
      380
310
41119B185D240901404333333333333E33F0000000000000F9010740A907004050150841D405064090741402480A1B50
1001
ACAD
1000
AcDbSavedByObjectVersion
1070
     0
  0
ACAD_PROXY_OBJECT
  5
2C
102
{ACAD_REACTORS
330
2A
102
}
330
2A
100
AcDbProxyObject
 90
      499
 91
      501
 93
      468
310
43519B185D15DA5D1A115919D95CD0140901404333333333333E33F0000000000000F90107409019070040501600405405064090741402480A1B50
1001
ACAD
1000
AcDbSavedByObjectVersion
1070
     0
  0
ACAD_PROXY_OBJECT
  5
2D
102
{ACAD_REACTORS
330
2A
102
}
330
2A
100
AcDbProxyObject
 90
      499
 91
      501
 93
      404
310
41D1DBDD5C985D5910240902404333333333333E33F0000000000000F9010740A9070040501641D405064090741402480A1B50
1001
ACAD
1000
AcDbSavedByObjectVersion
1070
     0
  0
ACAD_PROXY_OBJECT
  5
2E
102
{ACAD_REACTORS
330
2A
102
}
330
2A
100
AcDbProxyObject
 90
      499
 91
      501
 93
      492
310
4411DBDD5C985D5915DA5D1A115919D95CD0340902404333333333333E33F0000000000000F90107409019070040501600405405064090741402480A1B50
1001
ACAD
1000
AcDbSavedByObjectVersion
1070
     0
  0
ACAD_PROXY_OBJECT
  5
31
102
{ACAD_REACTORS
330
2A
102
}
330
2A
100
AcDbProxyObject
 90
      499
 91
      501
 93
      476
310
41921A5919195B90640502408333333333333E33F0000000000000F901079024090700405020000000000001110200405405064090740C02480A0340
1001
ACAD
1000
AcDbSavedByObjectVersion
1070
     0
  0
ACAD_PROXY_OBJECT
  5
3B
102
{ACAD_REACTORS
330
2A
102
}
330
2A
100
AcDbProxyObject
 90
      499
 91
      501
 93
      428
310
42529A5D1D195C93D999914409028333333333333E33F0000000000000F9010790141107004050150A41D405064090741402480A0350
1001
ACAD
1000
AcDbSavedByObjectVersion
1070
     0
  0
ACAD_PROXY_OBJECT
  5
38
102
{ACAD_REACTORS
330
2A
102
}
330
2A
100
AcDbProxyObject
 90
      499
 91
      501
 93
      444
310
42D31A5B995C185D1D195C9B90E409028333333333333E33F0000000000000F9010790141107004050750841D405064090741402483A0350
1001
ACAD
1000
AcDbSavedByObjectVersion
1070
     0
  0
ACAD_PROXY_OBJECT
  5
3C
102
{ACAD_REACTORS
330
2A
102
}
330
2A
100
AcDbProxyObject
 90
      499
 91
      501
 93
      444
310
42D3DD995C9A185B99D3D999915409028333333333333E33F0000000000000F9010790141107004050150941D405064090741402480A0350
1001
ACAD
1000
AcDbSavedByObjectVersion
1070
     0
  0
ACAD_PROXY_OBJECT
  5
33
102
{ACAD_REACTORS
330
2A
102
}
330
2A
100
AcDbProxyObject
 90
      499
 91
      501
 93
      428
310
425499585B1A5CDD1A58D08409038333333333333E33F0000000000000F9010740A907004050150800405405064090740C02480A1B40
1001
ACAD
1000
AcDbSavedByObjectVersion
1070
     0
  0
ACAD_PROXY_OBJECT
  5
42
102
{ACAD_REACTORS
330
2A
102
}
330
2A
100
AcDbProxyObject
 90
      499
 91
      501
 93
      420
310
4194DA1859195911B40902404333333333333E33F0000000000000F9010740A41107004050150800405405064090840C02480A0B40
1001
ACAD
1000
AcDbSavedByObjectVersion
1070
     0
  0
ACAD_PROXY_OBJECT
  5
41
102
{ACAD_REACTORS
330
2A
102
}
330
2A
100
AcDbProxyObject
 90
      499
 91
      501
 93
      516
310
4454DA18591959081DDA5D1A08195919D95CD1A40902404333333333333E33F0000000000000F901074090142907004050250800405405064090740C02480A0B40
1001
ACAD
1000
AcDbSavedByObjectVersion
1070
     0
  0
ACAD_PROXY_OBJECT
  5
3E
102
{ACAD_REACTORS
330
2A
102
}
330
2A
100
AcDbProxyObject
 90
      499
 91
      501
 93
      532
310
4394DA1859195CC81BD98811DC985E5174090240C333333333333E33F0000000000000F901079024090741D01000000000000111010841D405064090740C02480A0340
1001
ACAD
1000
AcDbSavedByObjectVersion
1070
     0
  0
ACAD_PROXY_OBJECT
  5
3F
102
{ACAD_REACTORS
330
2A
102
}
330
2A
100
AcDbProxyObject
 90
      499
 91
      501
 93
      476
310
41D4DAD95D18DA1E51840502408333333333333E33F0000000000000F901079024090741D01000000000000111010B41D405064090741802480A0340
1001
ACAD
1000
AcDbSavedByObjectVersion
1070
     0
  0
ACAD_PROXY_OBJECT
  5
37
102
{ACAD_REACTORS
330
2A
102
}
330
2A
100
AcDbProxyObject
 90
      499
 91
      501
 93
      412
310
41D51A1A58DAD95B90D409028333333333333E33F0000000000000F9010790141107004050150C41D405064090741402480A0350
1001
ACAD
1000
AcDbSavedByObjectVersion
1070
     0
  0
ACAD_PROXY_OBJECT
  5
30
102
{ACAD_REACTORS
330
2A
102
}
330
2A
100
AcDbProxyObject
 90
      499
 91
      501
 93
      420
310
4255DA5C99599C985B595059028333333333333E33F0000000000000F90107901411070040501600405405064090740C02480A0340
1001
ACAD
1000
AcDbSavedByObjectVersion
1070
     0
  0
ACAD_PROXY_OBJECT
  5
40
102
{ACAD_REACTORS
330
2A
102
}
330
2A
100
AcDbProxyObject
 90
      499
 91
      501
 93
      404
310
41560B54985E51940902404000000000000E03F0000000000000F9010740501907004050150841D405064090740C02480A1B40
1001
ACAD
1000
AcDbSavedByObjectVersion
1070
     0
  0
XRECORD
  5
3F3
102
{ACAD_REACTORS
330
3E9
102
}
330
3E9
100
AcDbXrecord
340
0
  0
XRECORD
  5
3F2
102
{ACAD_REACTORS
330
3E9
102
}
330
3E9
100
AcDbXrecord
 90
        0
  0
XRECORD
  5
409
102
{ACAD_REACTORS
330
3E9
102
}
330
3E9
100
AcDbXrecord
1000
DSTYLE
1002
{
1070
   340
340
11
1002
}
  0
XRECORD
  5
3F4
102
{ACAD_REACTORS
330
3E9
102
}
330
3E9
100
AcDbXrecord
  1
{74029a36-fc90-4b97-b3ea-1a030f4382e9}
  0
XRECORD
  5
3EC
102
{ACAD_REACTORS
330
3E9
102
}
330
3E9
100
AcDbXrecord
  1

  0
XRECORD
  5
3F1
102
{ACAD_REACTORS
330
3E9
102
}
330
3E9
100
AcDbXrecord
 90
        4
  0
XRECORD
  5
3EE
102
{ACAD_REACTORS
330
3E9
102
}
330
3E9
100
AcDbXrecord
340
1A
  0
XRECORD
  5
3F0
102
{ACAD_REACTORS
330
3E9
102
}
330
3E9
100
AcDbXrecord
 90
    10781
  0
XRECORD
  5
3EF
102
{ACAD_REACTORS
330
3E9
102
}
330
3E9
100
AcDbXrecord
340
19
  0
XRECORD
  5
3F6
102
{ACAD_REACTORS
330
3E9
102
}
330
3E9
100
AcDbXrecord
 40
0.0
  0
XRECORD
  5
3F9
102
{ACAD_REACTORS
330
3E9
102
}
330
3E9
100
AcDbXrecord
340
0
  0
XRECORD
  5
3FF
102
{ACAD_REACTORS
330
3E9
102
}
330
3E9
100
AcDbXrecord
 10
0.0
 20
0.0
 30
0.0
  0
XRECORD
  5
3FB
102
{ACAD_REACTORS
330
3E9
102
}
330
3E9
100
AcDbXrecord
 10
0.0
 20
0.0
 30
0.0
  0
XRECORD
  5
3FE
102
{ACAD_REACTORS
330
3E9
102
}
330
3E9
100
AcDbXrecord
 10
0.0
 20
0.0
 30
0.0
  0
XRECORD
  5
3FC
102
{ACAD_REACTORS
330
3E9
102
}
330
3E9
100
AcDbXrecord
 10
0.0
 20
0.0
 30
0.0
  0
XRECORD
  5
3FD
102
{ACAD_REACTORS
330
3E9
102
}
330
3E9
100
AcDbXrecord
 10
0.0
 20
0.0
 30
0.0
  0
XRECORD
  5
3FA
102
{ACAD_REACTORS
330
3E9
102
}
330
3E9
100
AcDbXrecord
 10
0.0
 20
0.0
 30
0.0
  0
XRECORD
  5
3F7
102
{ACAD_REACTORS
330
3E9
102
}
330
3E9
100
AcDbXrecord
340
0
  0
XRECORD
  5
3F8
102
{ACAD_REACTORS
330
3E9
102
}
330
3E9
100
AcDbXrecord
 70
     0
  0
XRECORD
  5
3ED
102
{ACAD_REACTORS
330
3E9
102
}
330
3E9
100
AcDbXrecord
  1

  0
XRECORD
  5
3EA
102
{ACAD_REACTORS
330
3E9
102
}
330
3E9
100
AcDbXrecord
 90
        1
  0
XRECORD
  5
3EB
102
{ACAD_REACTORS
330
3E9
102
}
330
3E9
100
AcDbXrecord
 90
       70
  0
XRECORD
  5
402
102
{ACAD_REACTORS
330
3E9
102
}
330
3E9
100
AcDbXrecord
340
0
  0
XRECORD
  5
408
102
{ACAD_REACTORS
330
3E9
102
}
330
3E9
100
AcDbXrecord
 10
0.0
 20
0.0
 30
0.0
  0
XRECORD
  5
404
102
{ACAD_REACTORS
330
3E9
102
}
330
3E9
100
AcDbXrecord
 10
0.0
 20
0.0
 30
0.0
  0
XRECORD
  5
407
102
{ACAD_REACTORS
330
3E9
102
}
330
3E9
100
AcDbXrecord
 10
0.0
 20
0.0
 30
0.0
  0
XRECORD
  5
405
102
{ACAD_REACTORS
330
3E9
102
}
330
3E9
100
AcDbXrecord
 10
0.0
 20
0.0
 30
0.0
  0
XRECORD
  5
406
102
{ACAD_REACTORS
330
3E9
102
}
330
3E9
100
AcDbXrecord
 10
0.0
 20
0.0
 30
0.0
  0
XRECORD
  5
403
102
{ACAD_REACTORS
330
3E9
102
}
330
3E9
100
AcDbXrecord
 10
0.0
 20
0.0
 30
0.0
  0
XRECORD
  5
400
102
{ACAD_REACTORS
330
3E9
102
}
330
3E9
100
AcDbXrecord
340
0
  0
XRECORD
  5
401
102
{ACAD_REACTORS
330
3E9
102
}
330
3E9
100
AcDbXrecord
 70
     0
  0
XRECORD
  5
3F5
102
{ACAD_REACTORS
330
3E9
102
}
330
3E9
100
AcDbXrecord
  1
{FAEB1C32-E019-11D5-929B-00C0DF256EC4}
  0
DICTIONARYVAR
  5
417
102
{ACAD_REACTORS
330
40A
102
}
330
40A
100
DictionaryVariables
280
     0
  1
1:1
  0
DICTIONARYVAR
  5
411
102
{ACAD_REACTORS
330
40A
102
}
330
40A
100
DictionaryVariables
280
     0
  1
3.500000
  0
DICTIONARYVAR
  5
412
102
{ACAD_REACTORS
330
40A
102
}
330
40A
100
DictionaryVariables
280
     0
  1
acadiso.lin
  0
DICTIONARYVAR
  5
40C
102
{ACAD_REACTORS
330
40A
102
}
330
40A
100
DictionaryVariables
280
     0
  1
Standard
  0
DICTIONARYVAR
  5
40B
102
{ACAD_REACTORS
330
40A
102
}
330
40A
100
DictionaryVariables
280
     0
  1
Standard
  0
DICTIONARYVAR
  5
413
102
{ACAD_REACTORS
330
40A
102
}
330
40A
100
DictionaryVariables
280
     0
  1
2
  0
DICTIONARYVAR
  5
414
102
{ACAD_REACTORS
330
40A
102
}
330
40A
100
DictionaryVariables
280
     0
  1
1
  0
DICTIONARYVAR
  5
418
102
{ACAD_REACTORS
330
40A
102
}
330
40A
100
DictionaryVariables
280
     0
  1
1
  0
DICTIONARYVAR
  5
40E
102
{ACAD_REACTORS
330
40A
102
}
330
40A
100
DictionaryVariables
280
     0
  1
80.000000
  0
DICTIONARYVAR
  5
40D
102
{ACAD_REACTORS
330
40A
102
}
330
40A
100
DictionaryVariables
280
     0
  1
5.000000
  0
DICTIONARY
  5
41B
330
45
100
AcDbDictionary
280
     1
  3
ACAD_XREC_ROUNDTRIP
360
41C
  0
DICTIONARY
  5
419
330
44
100
AcDbDictionary
280
     1
  3
ACAD_XREC_ROUNDTRIP
360
41A
  0
DICTIONARY
  5
41D
330
46
100
AcDbDictionary
280
     1
  3
ACAD_XREC_ROUNDTRIP
360
41E
  0
XRECORD
  5
41C
102
{ACAD_REACTORS
330
41B
102
}
330
41B
100
AcDbXrecord
102
MATERIAL
148
0.0
149
0.0
149
0.0
 93
        0
 94
      127
282
     0
 72
     1
 77
     1
171
     1
175
     1
179
     1
273
     0
  0
XRECORD
  5
41A
102
{ACAD_REACTORS
330
419
102
}
330
419
100
AcDbXrecord
102
MATERIAL
148
0.0
149
0.0
149
0.0
 93
        0
 94
      127
282
     0
 72
     1
 77
     1
171
     1
175
     1
179
     1
273
     0
  0
XRECORD
  5
41E
102
{ACAD_REACTORS
330
41D
102
}
330
41D
100
AcDbXrecord
102
MATERIAL
148
0.0
149
0.0
149
0.0
 93
        0
 94
      127
282
     0
 72
     1
 77
     1
171
     1
175
     1
179
     1
273
     0
  0
ENDSEC
  0
EOF
