  0
SECTION
  2
HEADER
  9
$ACADVER
  1
AC1014
  9
$ACADMAINTVER
 70
     9
  9
$DWGCODEPAGE
  3
ANSI_932
  9
$INSBASE
 10
0.0
 20
0.0
 30
0.0
  9
$EXTMIN
 10
25.0
 20
50.0
 30
0.0
  9
$EXTMAX
 10
1925.0
 20
1400.0
 30
0.0
  9
$LIMMIN
 10
0.0
 20
0.0
  9
$LIMMAX
 10
420.0
 20
297.0
  9
$ORTHOMODE
 70
     0
  9
$REGENMODE
 70
     1
  9
$FILLMODE
 70
     1
  9
$QTEXTMODE
 70
     0
  9
$MIRRTEXT
 70
     1
  9
$DRAGMODE
 70
     2
  9
$LTSCALE
 40
0.2
  9
$OSMODE
 70
    37
  9
$ATTMODE
 70
     1
  9
$TEXTSIZE
 40
2.5
  9
$TRACEWID
 40
1.0
  9
$TEXTSTYLE
  7
STANDARD
  9
$CLAYER
  8
LAY-10
  9
$CELTYPE
  6
BYLAYER
  9
$CECOLOR
 62
   256
  9
$CELTSCALE
 40
1.0
  9
$DELOBJ
 70
     1
  9
$DISPSILH
 70
     0
  9
$DIMSCALE
 40
1.0
  9
$DIMASZ
 40
2.5
  9
$DIMEXO
 40
0.625
  9
$DIMDLI
 40
3.75
  9
$DIMRND
 40
0.0
  9
$DIMDLE
 40
0.0
  9
$DIMEXE
 40
1.25
  9
$DIMTP
 40
0.0
  9
$DIMTM
 40
0.0
  9
$DIMTXT
 40
2.5
  9
$DIMCEN
 40
2.5
  9
$DIMTSZ
 40
0.0
  9
$DIMTOL
 70
     0
  9
$DIMLIM
 70
     0
  9
$DIMTIH
 70
     0
  9
$DIMTOH
 70
     0
  9
$DIMSE1
 70
     0
  9
$DIMSE2
 70
     0
  9
$DIMTAD
 70
     1
  9
$DIMZIN
 70
     8
  9
$DIMBLK
  1

  9
$DIMASO
 70
     1
  9
$DIMSHO
 70
     1
  9
$DIMPOST
  1

  9
$DIMAPOST
  1

  9
$DIMALT
 70
     0
  9
$DIMALTD
 70
     3
  9
$DIMALTF
 40
0.03937007874016
  9
$DIMLFAC
 40
1.0
  9
$DIMTOFL
 70
     1
  9
$DIMTVP
 40
0.0
  9
$DIMTIX
 70
     0
  9
$DIMSOXD
 70
     0
  9
$DIMSAH
 70
     0
  9
$DIMBLK1
  1

  9
$DIMBLK2
  1

  9
$DIMSTYLE
  2
ISO-25
  9
$DIMCLRD
 70
     0
  9
$DIMCLRE
 70
     0
  9
$DIMCLRT
 70
     0
  9
$DIMTFAC
 40
1.0
  9
$DIMGAP
 40
0.625
  9
$DIMJUST
 70
     0
  9
$DIMSD1
 70
     0
  9
$DIMSD2
 70
     0
  9
$DIMTOLJ
 70
     0
  9
$DIMTZIN
 70
     8
  9
$DIMALTZ
 70
     0
  9
$DIMALTTZ
 70
     0
  9
$DIMFIT
 70
     3
  9
$DIMUPT
 70
     0
  9
$DIMUNIT
 70
     2
  9
$DIMDEC
 70
     2
  9
$DIMTDEC
 70
     2
  9
$DIMALTU
 70
     2
  9
$DIMALTTD
 70
     3
  9
$DIMTXSTY
  7
STANDARD
  9
$DIMAUNIT
 70
     0
  9
$LUNITS
 70
     2
  9
$LUPREC
 70
     4
  9
$SKETCHINC
 40
1.0
  9
$FILLETRAD
 40
10.0
  9
$AUNITS
 70
     0
  9
$AUPREC
 70
     0
  9
$MENU
  1
.
  9
$ELEVATION
 40
0.0
  9
$PELEVATION
 40
0.0
  9
$THICKNESS
 40
0.0
  9
$LIMCHECK
 70
     0
  9
$CHAMFERA
 40
0.0
  9
$CHAMFERB
 40
0.0
  9
$CHAMFERC
 40
0.0
  9
$CHAMFERD
 40
0.0
  9
$SKPOLY
 70
     0
  9
$TDCREATE
 40
2459229.33646169
  9
$TDUPDATE
 40
2459229.336462141
  9
$TDINDWG
 40
0.0000000116
  9
$TDUSRTIMER
 40
0.0000000116
  9
$USRTIMER
 70
     1
  9
$ANGBASE
 50
0.0
  9
$ANGDIR
 70
     0
  9
$PDMODE
 70
     0
  9
$PDSIZE
 40
0.0
  9
$PLINEWID
 40
0.0
  9
$COORDS
 70
     1
  9
$SPLFRAME
 70
     0
  9
$SPLINETYPE
 70
     6
  9
$SPLINESEGS
 70
     8
  9
$ATTDIA
 70
     0
  9
$ATTREQ
 70
     1
  9
$HANDLING
 70
     1
  9
$HANDSEED
  5
445
  9
$SURFTAB1
 70
     6
  9
$SURFTAB2
 70
     6
  9
$SURFTYPE
 70
     6
  9
$SURFU
 70
     6
  9
$SURFV
 70
     6
  9
$UCSNAME
  2

  9
$UCSORG
 10
0.0
 20
0.0
 30
0.0
  9
$UCSXDIR
 10
1.0
 20
0.0
 30
0.0
  9
$UCSYDIR
 10
0.0
 20
1.0
 30
0.0
  9
$PUCSNAME
  2

  9
$PUCSORG
 10
0.0
 20
0.0
 30
0.0
  9
$PUCSXDIR
 10
1.0
 20
0.0
 30
0.0
  9
$PUCSYDIR
 10
0.0
 20
1.0
 30
0.0
  9
$USERI1
 70
     0
  9
$USERI2
 70
     0
  9
$USERI3
 70
     0
  9
$USERI4
 70
     0
  9
$USERI5
 70
     0
  9
$USERR1
 40
0.0
  9
$USERR2
 40
0.0
  9
$USERR3
 40
0.0
  9
$USERR4
 40
0.0
  9
$USERR5
 40
0.0
  9
$WORLDVIEW
 70
     1
  9
$SHADEDGE
 70
     3
  9
$SHADEDIF
 70
    70
  9
$TILEMODE
 70
     1
  9
$MAXACTVP
 70
    64
  9
$PINSBASE
 10
0.0
 20
0.0
 30
0.0
  9
$PLIMCHECK
 70
     0
  9
$PEXTMIN
 10
1.000000000000000E+20
 20
1.000000000000000E+20
 30
1.000000000000000E+20
  9
$PEXTMAX
 10
-1.000000000000000E+20
 20
-1.000000000000000E+20
 30
-1.000000000000000E+20
  9
$PLIMMIN
 10
0.0
 20
0.0
  9
$PLIMMAX
 10
420.0
 20
297.0
  9
$UNITMODE
 70
     0
  9
$VISRETAIN
 70
     1
  9
$PLINEGEN
 70
     0
  9
$PSLTSCALE
 70
     1
  9
$TREEDEPTH
 70
  3020
  9
$PICKSTYLE
 70
     1
  9
$CMLSTYLE
  2
STANDARD
  9
$CMLJUST
 70
     0
  9
$CMLSCALE
 40
20.0
  9
$PROXYGRAPHICS
 70
     1
  9
$MEASUREMENT
 70
     1
  0
ENDSEC
  0
SECTION
  2
CLASSES
  0
CLASS
  1
ACDBDICTIONARYWDFLT
  2
AcDbDictionaryWithDefault
  3
ObjectDBX Classes
 90
        0
280
     0
281
     0
  0
CLASS
  1
VISUALSTYLE
  2
AcDbVisualStyle
  3
ObjectDBX Classes
 90
     4095
280
     0
281
     0
  0
CLASS
  1
MATERIAL
  2
AcDbMaterial
  3
ObjectDBX Classes
 90
     1153
280
     0
281
     0
  0
CLASS
  1
SCALE
  2
AcDbScale
  3
ObjectDBX Classes
 90
     1153
280
     0
281
     0
  0
CLASS
  1
TABLESTYLE
  2
AcDbTableStyle
  3
ObjectDBX Classes
 90
     4095
280
     0
281
     0
  0
CLASS
  1
MLEADERSTYLE
  2
AcDbMLeaderStyle
  3
ACDB_MLEADERSTYLE_CLASS
 90
     4095
280
     0
281
     0
  0
CLASS
  1
SUN
  2
AcDbSun
  3
SCENEOE
 90
     1153
280
     0
281
     0
  0
CLASS
  1
DICTIONARYVAR
  2
AcDbDictionaryVar
  3
ObjectDBX Classes
 90
        0
280
     0
281
     0
  0
CLASS
  1
XRECORD
  2
AcDbXrecord
  3
ObjectDBX Classes
 90
        0
280
     0
281
     0
  0
CLASS
  1
LWPOLYLINE
  2
AcDbPolyline
  3
ObjectDBX Classes
 90
        0
280
     0
281
     1
  0
CLASS
  1
HATCH
  2
AcDbHatch
  3
ObjectDBX Classes
 90
        0
280
     0
281
     1
  0
CLASS
  1
ACDBPLACEHOLDER
  2
AcDbPlaceHolder
  3
ObjectDBX Classes
 90
        0
280
     0
281
     0
  0
CLASS
  1
LAYOUT
  2
AcDbLayout
  3
ObjectDBX Classes
 90
        0
280
     0
281
     0
  0
ENDSEC
  0
SECTION
  2
TABLES
  0
TABLE
  2
VPORT
  5
8
102
{ACAD_XDICTIONARY
360
43A
102
}
330
0
100
AcDbSymbolTable
 70
     1
  0
VPORT
  5
29
330
8
100
AcDbSymbolTableRecord
100
AcDbViewportTableRecord
  2
*ACTIVE
 70
     0
 10
0.0
 20
0.0
 11
1.0
 21
1.0
 12
975.0000000000001
 22
725.0
 13
0.0
 23
0.0
 14
10.0
 24
10.0
 15
10.0
 25
10.0
 16
0.0
 26
0.0
 36
1.0
 17
0.0
 27
0.0
 37
0.0
 40
1350.0
 41
1.407407407407408
 42
50.0
 43
0.0
 44
0.0
 50
0.0
 51
0.0
 71
     0
 72
  1000
 73
     1
 74
     3
 75
     0
 76
     0
 77
     0
 78
     0
  0
ENDTAB
  0
TABLE
  2
LTYPE
  5
5
330
0
100
AcDbSymbolTable
 70
     6
  0
LTYPE
  5
14
330
5
100
AcDbSymbolTableRecord
100
AcDbLinetypeTableRecord
  2
BYBLOCK
 70
     0
  3

 72
    65
 73
     0
 40
0.0
  0
LTYPE
  5
15
330
5
100
AcDbSymbolTableRecord
100
AcDbLinetypeTableRecord
  2
BYLAYER
 70
     0
  3

 72
    65
 73
     0
 40
0.0
  0
LTYPE
  5
16
330
5
100
AcDbSymbolTableRecord
100
AcDbLinetypeTableRecord
  2
CONTINUOUS
 70
     0
  3
Solid line
 72
    65
 73
     0
 40
0.0
  0
LTYPE
  5
6E
330
5
100
AcDbSymbolTableRecord
100
AcDbLinetypeTableRecord
  2
HIDDEN
 70
     0
  3
Hidden __ __ __ __ __ __ __ __ __ __ __ __ __ __
 72
    65
 73
     2
 40
9.524999999999999
 49
6.35
 74
     0
 49
-3.175
 74
     0
  0
LTYPE
  5
6F
330
5
100
AcDbSymbolTableRecord
100
AcDbLinetypeTableRecord
  2
CENTER
 70
     0
  3
Center ____ _ ____ _ ____ _ ____ _ ____ _ ____
 72
    65
 73
     4
 40
50.8
 49
31.75
 74
     0
 49
-6.35
 74
     0
 49
6.35
 74
     0
 49
-6.35
 74
     0
  0
LTYPE
  5
70
330
5
100
AcDbSymbolTableRecord
100
AcDbLinetypeTableRecord
  2
PHANTOM
 70
     0
  3
Phantom ______  __  __  ______  __  __  ______ 
 72
    65
 73
     6
 40
63.50000000000001
 49
31.75
 74
     0
 49
-6.35
 74
     0
 49
6.35
 74
     0
 49
-6.35
 74
     0
 49
6.35
 74
     0
 49
-6.35
 74
     0
  0
LTYPE
  5
71
330
5
100
AcDbSymbolTableRecord
100
AcDbLinetypeTableRecord
  2
ACAD_ISO06W100
 70
     0
  3
ISO long-dash triple-dot ____ ... ____ ... ____
 72
    65
 73
     8
 40
36.0
 49
24.0
 74
     0
 49
-3.0
 74
     0
 49
0.0
 74
     0
 49
-3.0
 74
     0
 49
0.0
 74
     0
 49
-3.0
 74
     0
 49
0.0
 74
     0
 49
-3.0
 74
     0
  0
LTYPE
  5
72
330
5
100
AcDbSymbolTableRecord
100
AcDbLinetypeTableRecord
  2
ACAD_ISO15W100
 70
     0
  3
ISO double-dash triple-dot __ __ . . . __ __ . .
 72
    65
 73
    10
 40
39.0
 49
12.0
 74
     0
 49
-3.0
 74
     0
 49
12.0
 74
     0
 49
-3.0
 74
     0
 49
0.0
 74
     0
 49
-3.0
 74
     0
 49
0.0
 74
     0
 49
-3.0
 74
     0
 49
0.0
 74
     0
 49
-3.0
 74
     0
  0
ENDTAB
  0
TABLE
  2
LAYER
  5
2
330
0
100
AcDbSymbolTable
 70
     6
  0
LAYER
  5
10
330
2
100
AcDbSymbolTableRecord
100
AcDbLayerTableRecord
  2
0
 70
     0
 62
     7
  6
CONTINUOUS
  0
LAYER
  5
75
330
2
100
AcDbSymbolTableRecord
100
AcDbLayerTableRecord
  2
LAY-10
 70
     0
 62
     7
  6
CONTINUOUS
  0
LAYER
  5
76
330
2
100
AcDbSymbolTableRecord
100
AcDbLayerTableRecord
  2
LAY-11
 70
     0
 62
     7
  6
CONTINUOUS
  0
LAYER
  5
77
330
2
100
AcDbSymbolTableRecord
100
AcDbLayerTableRecord
  2
LAY-20
 70
     0
 62
     7
  6
CONTINUOUS
  0
LAYER
  5
78
330
2
100
AcDbSymbolTableRecord
100
AcDbLayerTableRecord
  2
LAY-255
 70
     0
 62
     7
  6
CONTINUOUS
  0
LAYER
  5
3A4
330
2
100
AcDbSymbolTableRecord
100
AcDbLayerTableRecord
  2
DEFPOINTS
 70
     0
 62
     7
  6
CONTINUOUS
  0
ENDTAB
  0
TABLE
  2
STYLE
  5
3
330
0
100
AcDbSymbolTable
 70
     4
  0
STYLE
  5
11
330
3
100
AcDbSymbolTableRecord
100
AcDbTextStyleTableRecord
  2
STANDARD
 70
     0
 40
0.0
 41
1.0
 50
0.0
 71
     0
 42
2.5
  3
simplex
  4
bigfont
  0
STYLE
  5
73
330
3
100
AcDbSymbolTableRecord
100
AcDbTextStyleTableRecord
  2
EXCADSTD
 70
     0
 40
0.0
 41
1.0
 50
0.0
 71
     0
 42
2.5
  3
simplex
  4
bigfont
  0
STYLE
  5
74
330
3
100
AcDbSymbolTableRecord
100
AcDbTextStyleTableRecord
  2
EXCADVERT
 70
     4
 40
0.0
 41
1.0
 50
0.0
 71
     0
 42
2.5
  3
simplex
  4
bigfont
  0
STYLE
  5
3A2
330
3
100
AcDbSymbolTableRecord
100
AcDbTextStyleTableRecord
  2
EXCADDIM1
 70
     0
 40
0.0
 41
0.84
 50
0.0
 71
     0
 42
2.5
  3
simplex
  4
bigfont
  0
ENDTAB
  0
TABLE
  2
VIEW
  5
6
330
0
100
AcDbSymbolTable
 70
     0
  0
ENDTAB
  0
TABLE
  2
UCS
  5
7
330
0
100
AcDbSymbolTable
 70
     0
  0
ENDTAB
  0
TABLE
  2
APPID
  5
9
330
0
100
AcDbSymbolTable
 70
     2
  0
APPID
  5
12
330
9
100
AcDbSymbolTableRecord
100
AcDbRegAppTableRecord
  2
ACAD
 70
     0
  0
APPID
  5
444
330
9
100
AcDbSymbolTableRecord
100
AcDbRegAppTableRecord
  2
ACAD_MLEADERVER
 70
     0
  0
ENDTAB
  0
TABLE
  2
DIMSTYLE
  5
A
330
0
100
AcDbSymbolTable
 70
     1
  0
DIMSTYLE
105
27
102
{ACAD_REACTORS
330
3A3
330
3B1
330
3BE
330
3CB
330
3D7
102
}
330
A
100
AcDbSymbolTableRecord
100
AcDbDimStyleTableRecord
  2
ISO-25
 70
     0
  3

  4

  5

  6

  7

 40
1.0
 41
2.5
 42
0.625
 43
3.75
 44
1.25
 45
0.0
 46
0.0
 47
0.0
 48
0.0
140
2.5
141
2.5
142
0.0
143
0.03937007874016
144
1.0
145
0.0
146
1.0
147
0.625
 71
     0
 72
     0
 73
     0
 74
     0
 75
     0
 76
     0
 77
     1
 78
     8
170
     0
171
     3
172
     1
173
     0
174
     0
175
     0
176
     0
177
     0
178
     0
270
     2
271
     2
272
     2
273
     2
274
     3
340
11
275
     0
280
     0
281
     0
282
     0
283
     0
284
     8
285
     0
286
     0
287
     5
288
     0
  0
ENDTAB
  0
TABLE
  2
BLOCK_RECORD
  5
1
330
0
100
AcDbSymbolTable
 70
    19
  0
BLOCK_RECORD
  5
1F
330
1
100
AcDbSymbolTableRecord
100
AcDbBlockTableRecord
  2
*MODEL_SPACE
  0
BLOCK_RECORD
  5
1B
330
1
100
AcDbSymbolTableRecord
100
AcDbBlockTableRecord
  2
*PAPER_SPACE
  0
BLOCK_RECORD
  5
79
330
1
100
AcDbSymbolTableRecord
100
AcDbBlockTableRecord
  2
EX_NORM
  0
BLOCK_RECORD
  5
7C
330
1
100
AcDbSymbolTableRecord
100
AcDbBlockTableRecord
  2
EX_BNORM
  0
BLOCK_RECORD
  5
7F
330
1
100
AcDbSymbolTableRecord
100
AcDbBlockTableRecord
  2
EX_BCIR
  0
BLOCK_RECORD
  5
82
330
1
100
AcDbSymbolTableRecord
100
AcDbBlockTableRecord
  2
EX_RCIVIL
  0
BLOCK_RECORD
  5
85
330
1
100
AcDbSymbolTableRecord
100
AcDbBlockTableRecord
  2
EX_SLANT
  0
BLOCK_RECORD
  5
88
330
1
100
AcDbSymbolTableRecord
100
AcDbBlockTableRecord
  2
EX_NONE
  0
BLOCK_RECORD
  5
8B
330
1
100
AcDbSymbolTableRecord
100
AcDbBlockTableRecord
  2
EX_CIVIL
  0
BLOCK_RECORD
  5
8E
330
1
100
AcDbSymbolTableRecord
100
AcDbBlockTableRecord
  2
EX_WCIR
  0
BLOCK_RECORD
  5
91
330
1
100
AcDbSymbolTableRecord
100
AcDbBlockTableRecord
  2
EX_WCIR2
  0
BLOCK_RECORD
  5
94
330
1
100
AcDbSymbolTableRecord
100
AcDbBlockTableRecord
  2
EX_WNORM
  0
BLOCK_RECORD
  5
97
330
1
100
AcDbSymbolTableRecord
100
AcDbBlockTableRecord
  2
EX_NNORM
  0
BLOCK_RECORD
  5
9A
330
1
100
AcDbSymbolTableRecord
100
AcDbBlockTableRecord
  2
EX_BBOX
  0
BLOCK_RECORD
  5
9D
330
1
100
AcDbSymbolTableRecord
100
AcDbBlockTableRecord
  2
EX_WBOX
  0
BLOCK_RECORD
  5
A0
330
1
100
AcDbSymbolTableRecord
100
AcDbBlockTableRecord
  2
EX_INTEGRAL
  0
BLOCK_RECORD
  5
3A5
330
1
100
AcDbSymbolTableRecord
100
AcDbBlockTableRecord
  2
*D15
  0
BLOCK_RECORD
  5
3B2
330
1
100
AcDbSymbolTableRecord
100
AcDbBlockTableRecord
  2
*D16
  0
BLOCK_RECORD
  5
3BF
330
1
100
AcDbSymbolTableRecord
100
AcDbBlockTableRecord
  2
*D17
  0
BLOCK_RECORD
  5
3CC
330
1
100
AcDbSymbolTableRecord
100
AcDbBlockTableRecord
  2
*D18
  0
BLOCK_RECORD
  5
3D8
330
1
100
AcDbSymbolTableRecord
100
AcDbBlockTableRecord
  2
*D19
  0
ENDTAB
  0
ENDSEC
  0
SECTION
  2
BLOCKS
  0
BLOCK
  5
20
330
1F
100
AcDbEntity
  8
0
100
AcDbBlockBegin
  2
*MODEL_SPACE
 70
     0
 10
0.0
 20
0.0
 30
0.0
  3
*MODEL_SPACE
  1

  0
ENDBLK
  5
21
330
1F
100
AcDbEntity
  8
0
100
AcDbBlockEnd
  0
BLOCK
  5
1C
330
1B
100
AcDbEntity
 67
     1
  8
0
100
AcDbBlockBegin
  2
*PAPER_SPACE
 70
     0
 10
0.0
 20
0.0
 30
0.0
  3
*PAPER_SPACE
  1

  0
ENDBLK
  5
1D
330
1B
100
AcDbEntity
 67
     1
  8
0
100
AcDbBlockEnd
  0
BLOCK
  5
7A
330
79
100
AcDbEntity
  8
0
100
AcDbBlockBegin
  2
EX_NORM
 70
     0
 10
0.0
 20
0.0
 30
0.0
  3
EX_NORM
  1

  0
LINE
  5
A3
330
79
100
AcDbEntity
  8
0
  6
CONTINUOUS
 62
     0
100
AcDbLine
 10
0.0
 20
0.0
 30
0.0
 11
-1.0
 21
0.0
 31
0.0
  0
LINE
  5
A4
330
79
100
AcDbEntity
  8
0
  6
CONTINUOUS
 62
     0
100
AcDbLine
 10
0.0
 20
0.0
 30
0.0
 11
-1.0
 21
0.166666667
 31
0.0
  0
LINE
  5
A5
330
79
100
AcDbEntity
  8
0
  6
CONTINUOUS
 62
     0
100
AcDbLine
 10
0.0
 20
0.0
 30
0.0
 11
-1.0
 21
-0.166666667
 31
0.0
  0
ENDBLK
  5
7B
330
79
100
AcDbEntity
  8
0
100
AcDbBlockEnd
  0
BLOCK
  5
7D
330
7C
100
AcDbEntity
  8
0
100
AcDbBlockBegin
  2
EX_BNORM
 70
     0
 10
0.0
 20
0.0
 30
0.0
  3
EX_BNORM
  1

  0
LINE
  5
A6
330
7C
100
AcDbEntity
  8
0
  6
CONTINUOUS
 62
     0
100
AcDbLine
 10
0.0
 20
0.0
 30
0.0
 11
-1.0
 21
0.0
 31
0.0
  0
LINE
  5
A7
330
7C
100
AcDbEntity
  8
0
  6
CONTINUOUS
 62
     0
100
AcDbLine
 10
0.0
 20
0.0
 30
0.0
 11
-1.0
 21
0.166666667
 31
0.0
  0
LINE
  5
A8
330
7C
100
AcDbEntity
  8
0
  6
CONTINUOUS
 62
     0
100
AcDbLine
 10
0.0
 20
0.0
 30
0.0
 11
-1.0
 21
-0.166666667
 31
0.0
  0
LINE
  5
A9
330
7C
100
AcDbEntity
  8
0
  6
CONTINUOUS
 62
     0
100
AcDbLine
 10
0.0
 20
0.0
 30
0.0
 11
-1.0
 21
0.083333333
 31
0.0
  0
LINE
  5
AA
330
7C
100
AcDbEntity
  8
0
  6
CONTINUOUS
 62
     0
100
AcDbLine
 10
0.0
 20
0.0
 30
0.0
 11
-1.0
 21
-0.083333333
 31
0.0
  0
LINE
  5
AB
330
7C
100
AcDbEntity
  8
0
  6
CONTINUOUS
 62
     0
100
AcDbLine
 10
-1.0
 20
0.166666667
 30
0.0
 11
-1.0
 21
-0.166666667
 31
0.0
  0
ENDBLK
  5
7E
330
7C
100
AcDbEntity
  8
0
100
AcDbBlockEnd
  0
BLOCK
  5
80
330
7F
100
AcDbEntity
  8
0
100
AcDbBlockBegin
  2
EX_BCIR
 70
     0
 10
0.0
 20
0.0
 30
0.0
  3
EX_BCIR
  1

  0
LINE
  5
AC
330
7F
100
AcDbEntity
  8
0
  6
CONTINUOUS
 62
     0
100
AcDbLine
 10
0.0
 20
0.0
 30
0.0
 11
-1.0
 21
0.0
 31
0.0
  0
CIRCLE
  5
AD
330
7F
100
AcDbEntity
  8
0
  6
CONTINUOUS
 62
     0
100
AcDbCircle
 10
0.0
 20
0.0
 30
0.0
 40
0.5
  0
CIRCLE
  5
AE
330
7F
100
AcDbEntity
  8
0
  6
CONTINUOUS
 62
     0
100
AcDbCircle
 10
0.0
 20
0.0
 30
0.0
 40
0.25
  0
ENDBLK
  5
81
330
7F
100
AcDbEntity
  8
0
100
AcDbBlockEnd
  0
BLOCK
  5
83
330
82
100
AcDbEntity
  8
0
100
AcDbBlockBegin
  2
EX_RCIVIL
 70
     0
 10
0.0
 20
0.0
 30
0.0
  3
EX_RCIVIL
  1

  0
LINE
  5
AF
330
82
100
AcDbEntity
  8
0
  6
CONTINUOUS
 62
     0
100
AcDbLine
 10
0.0
 20
0.0
 30
0.0
 11
-1.0
 21
0.0
 31
0.0
  0
LINE
  5
B0
330
82
100
AcDbEntity
  8
0
  6
CONTINUOUS
 62
     0
100
AcDbLine
 10
-1.0
 20
-0.25
 30
0.0
 11
0.0
 21
-0.25
 31
0.0
  0
LINE
  5
B1
330
82
100
AcDbEntity
  8
0
  6
CONTINUOUS
 62
     0
100
AcDbLine
 10
-1.0
 20
-0.125
 30
0.0
 11
0.0
 21
-0.125
 31
0.0
  0
ENDBLK
  5
84
330
82
100
AcDbEntity
  8
0
100
AcDbBlockEnd
  0
BLOCK
  5
86
330
85
100
AcDbEntity
  8
0
100
AcDbBlockBegin
  2
EX_SLANT
 70
     0
 10
0.0
 20
0.0
 30
0.0
  3
EX_SLANT
  1

  0
LINE
  5
B2
330
85
100
AcDbEntity
  8
0
  6
CONTINUOUS
 62
     0
100
AcDbLine
 10
0.0
 20
0.0
 30
0.0
 11
-1.0
 21
0.0
 31
0.0
  0
LINE
  5
B3
330
85
100
AcDbEntity
  8
0
  6
CONTINUOUS
 62
     0
100
AcDbLine
 10
0.707106781
 20
0.707106781
 30
0.0
 11
-0.707106781
 21
-0.707106781
 31
0.0
  0
ENDBLK
  5
87
330
85
100
AcDbEntity
  8
0
100
AcDbBlockEnd
  0
BLOCK
  5
89
330
88
100
AcDbEntity
  8
0
100
AcDbBlockBegin
  2
EX_NONE
 70
     0
 10
0.0
 20
0.0
 30
0.0
  3
EX_NONE
  1

  0
LINE
  5
B4
330
88
100
AcDbEntity
  8
0
  6
CONTINUOUS
 62
     0
100
AcDbLine
 10
0.0
 20
0.0
 30
0.0
 11
-1.0
 21
0.0
 31
0.0
  0
ENDBLK
  5
8A
330
88
100
AcDbEntity
  8
0
100
AcDbBlockEnd
  0
BLOCK
  5
8C
330
8B
100
AcDbEntity
  8
0
100
AcDbBlockBegin
  2
EX_CIVIL
 70
     0
 10
0.0
 20
0.0
 30
0.0
  3
EX_CIVIL
  1

  0
LINE
  5
B5
330
8B
100
AcDbEntity
  8
0
  6
CONTINUOUS
 62
     0
100
AcDbLine
 10
0.0
 20
0.0
 30
0.0
 11
-1.0
 21
0.0
 31
0.0
  0
LINE
  5
B6
330
8B
100
AcDbEntity
  8
0
  6
CONTINUOUS
 62
     0
100
AcDbLine
 10
-1.0
 20
0.25
 30
0.0
 11
0.0
 21
0.25
 31
0.0
  0
LINE
  5
B7
330
8B
100
AcDbEntity
  8
0
  6
CONTINUOUS
 62
     0
100
AcDbLine
 10
-1.0
 20
0.125
 30
0.0
 11
0.0
 21
0.125
 31
0.0
  0
ENDBLK
  5
8D
330
8B
100
AcDbEntity
  8
0
100
AcDbBlockEnd
  0
BLOCK
  5
8F
330
8E
100
AcDbEntity
  8
0
100
AcDbBlockBegin
  2
EX_WCIR
 70
     0
 10
0.0
 20
0.0
 30
0.0
  3
EX_WCIR
  1

  0
LINE
  5
B8
330
8E
100
AcDbEntity
  8
0
  6
CONTINUOUS
 62
     0
100
AcDbLine
 10
0.0
 20
0.0
 30
0.0
 11
-1.0
 21
0.0
 31
0.0
  0
CIRCLE
  5
B9
330
8E
100
AcDbEntity
  8
0
  6
CONTINUOUS
 62
     0
100
AcDbCircle
 10
0.0
 20
0.0
 30
0.0
 40
0.5
  0
ENDBLK
  5
90
330
8E
100
AcDbEntity
  8
0
100
AcDbBlockEnd
  0
BLOCK
  5
92
330
91
100
AcDbEntity
  8
0
100
AcDbBlockBegin
  2
EX_WCIR2
 70
     0
 10
0.0
 20
0.0
 30
0.0
  3
EX_WCIR2
  1

  0
LINE
  5
BA
330
91
100
AcDbEntity
  8
0
  6
CONTINUOUS
 62
     0
100
AcDbLine
 10
-0.5
 20
0.0
 30
0.0
 11
-1.0
 21
0.0
 31
0.0
  0
CIRCLE
  5
BB
330
91
100
AcDbEntity
  8
0
  6
CONTINUOUS
 62
     0
100
AcDbCircle
 10
0.0
 20
0.0
 30
0.0
 40
0.5
  0
ENDBLK
  5
93
330
91
100
AcDbEntity
  8
0
100
AcDbBlockEnd
  0
BLOCK
  5
95
330
94
100
AcDbEntity
  8
0
100
AcDbBlockBegin
  2
EX_WNORM
 70
     0
 10
0.0
 20
0.0
 30
0.0
  3
EX_WNORM
  1

  0
LINE
  5
BC
330
94
100
AcDbEntity
  8
0
  6
CONTINUOUS
 62
     0
100
AcDbLine
 10
-1.0
 20
0.0
 30
0.0
 11
-1.0
 21
0.0
 31
0.0
  0
LINE
  5
BD
330
94
100
AcDbEntity
  8
0
  6
CONTINUOUS
 62
     0
100
AcDbLine
 10
0.0
 20
0.0
 30
0.0
 11
-1.0
 21
0.166666667
 31
0.0
  0
LINE
  5
BE
330
94
100
AcDbEntity
  8
0
  6
CONTINUOUS
 62
     0
100
AcDbLine
 10
0.0
 20
0.0
 30
0.0
 11
-1.0
 21
-0.166666667
 31
0.0
  0
LINE
  5
BF
330
94
100
AcDbEntity
  8
0
  6
CONTINUOUS
 62
     0
100
AcDbLine
 10
-1.0
 20
0.166666667
 30
0.0
 11
-1.0
 21
-0.166666667
 31
0.0
  0
ENDBLK
  5
96
330
94
100
AcDbEntity
  8
0
100
AcDbBlockEnd
  0
BLOCK
  5
98
330
97
100
AcDbEntity
  8
0
100
AcDbBlockBegin
  2
EX_NNORM
 70
     0
 10
0.0
 20
0.0
 30
0.0
  3
EX_NNORM
  1

  0
LINE
  5
C0
330
97
100
AcDbEntity
  8
0
  6
CONTINUOUS
 62
     0
100
AcDbLine
 10
0.0
 20
0.0
 30
0.0
 11
-1.0
 21
0.0
 31
0.0
  0
LINE
  5
C1
330
97
100
AcDbEntity
  8
0
  6
CONTINUOUS
 62
     0
100
AcDbLine
 10
0.0
 20
0.0
 30
0.0
 11
-1.0
 21
0.166666667
 31
0.0
  0
LINE
  5
C2
330
97
100
AcDbEntity
  8
0
  6
CONTINUOUS
 62
     0
100
AcDbLine
 10
0.0
 20
0.0
 30
0.0
 11
-1.0
 21
-0.166666667
 31
0.0
  0
LINE
  5
C3
330
97
100
AcDbEntity
  8
0
  6
CONTINUOUS
 62
     0
100
AcDbLine
 10
-1.0
 20
0.166666667
 30
0.0
 11
-1.0
 21
-0.166666667
 31
0.0
  0
ENDBLK
  5
99
330
97
100
AcDbEntity
  8
0
100
AcDbBlockEnd
  0
BLOCK
  5
9B
330
9A
100
AcDbEntity
  8
0
100
AcDbBlockBegin
  2
EX_BBOX
 70
     0
 10
0.0
 20
0.0
 30
0.0
  3
EX_BBOX
  1

  0
LINE
  5
C4
330
9A
100
AcDbEntity
  8
0
  6
CONTINUOUS
 62
     0
100
AcDbLine
 10
0.0
 20
0.0
 30
0.0
 11
-1.0
 21
0.0
 31
0.0
  0
LINE
  5
C5
330
9A
100
AcDbEntity
  8
0
  6
CONTINUOUS
 62
     0
100
AcDbLine
 10
-0.5
 20
0.5
 30
0.0
 11
0.5
 21
0.5
 31
0.0
  0
LINE
  5
C6
330
9A
100
AcDbEntity
  8
0
  6
CONTINUOUS
 62
     0
100
AcDbLine
 10
0.5
 20
0.5
 30
0.0
 11
0.5
 21
-0.5
 31
0.0
  0
LINE
  5
C7
330
9A
100
AcDbEntity
  8
0
  6
CONTINUOUS
 62
     0
100
AcDbLine
 10
0.5
 20
-0.5
 30
0.0
 11
-0.5
 21
-0.5
 31
0.0
  0
LINE
  5
C8
330
9A
100
AcDbEntity
  8
0
  6
CONTINUOUS
 62
     0
100
AcDbLine
 10
-0.5
 20
-0.5
 30
0.0
 11
-0.5
 21
0.5
 31
0.0
  0
LINE
  5
C9
330
9A
100
AcDbEntity
  8
0
  6
CONTINUOUS
 62
     0
100
AcDbLine
 10
-0.25
 20
0.25
 30
0.0
 11
0.25
 21
0.25
 31
0.0
  0
LINE
  5
CA
330
9A
100
AcDbEntity
  8
0
  6
CONTINUOUS
 62
     0
100
AcDbLine
 10
0.25
 20
0.25
 30
0.0
 11
0.25
 21
-0.25
 31
0.0
  0
LINE
  5
CB
330
9A
100
AcDbEntity
  8
0
  6
CONTINUOUS
 62
     0
100
AcDbLine
 10
0.25
 20
-0.25
 30
0.0
 11
-0.25
 21
-0.25
 31
0.0
  0
LINE
  5
CC
330
9A
100
AcDbEntity
  8
0
  6
CONTINUOUS
 62
     0
100
AcDbLine
 10
-0.25
 20
-0.25
 30
0.0
 11
-0.25
 21
0.25
 31
0.0
  0
ENDBLK
  5
9C
330
9A
100
AcDbEntity
  8
0
100
AcDbBlockEnd
  0
BLOCK
  5
9E
330
9D
100
AcDbEntity
  8
0
100
AcDbBlockBegin
  2
EX_WBOX
 70
     0
 10
0.0
 20
0.0
 30
0.0
  3
EX_WBOX
  1

  0
LINE
  5
CD
330
9D
100
AcDbEntity
  8
0
  6
CONTINUOUS
 62
     0
100
AcDbLine
 10
-0.5
 20
0.0
 30
0.0
 11
-1.0
 21
0.0
 31
0.0
  0
LINE
  5
CE
330
9D
100
AcDbEntity
  8
0
  6
CONTINUOUS
 62
     0
100
AcDbLine
 10
-0.5
 20
0.5
 30
0.0
 11
0.5
 21
0.5
 31
0.0
  0
LINE
  5
CF
330
9D
100
AcDbEntity
  8
0
  6
CONTINUOUS
 62
     0
100
AcDbLine
 10
0.5
 20
0.5
 30
0.0
 11
0.5
 21
-0.5
 31
0.0
  0
LINE
  5
D0
330
9D
100
AcDbEntity
  8
0
  6
CONTINUOUS
 62
     0
100
AcDbLine
 10
0.5
 20
-0.5
 30
0.0
 11
-0.5
 21
-0.5
 31
0.0
  0
LINE
  5
D1
330
9D
100
AcDbEntity
  8
0
  6
CONTINUOUS
 62
     0
100
AcDbLine
 10
-0.5
 20
-0.5
 30
0.0
 11
-0.5
 21
0.5
 31
0.0
  0
ENDBLK
  5
9F
330
9D
100
AcDbEntity
  8
0
100
AcDbBlockEnd
  0
BLOCK
  5
A1
330
A0
100
AcDbEntity
  8
0
100
AcDbBlockBegin
  2
EX_INTEGRAL
 70
     0
 10
0.0
 20
0.0
 30
0.0
  3
EX_INTEGRAL
  1

  0
LINE
  5
D2
330
A0
100
AcDbEntity
  8
0
  6
CONTINUOUS
 62
     0
100
AcDbLine
 10
0.0
 20
0.0
 30
0.0
 11
-1.0
 21
0.0
 31
0.0
  0
ARC
  5
D3
330
A0
100
AcDbEntity
  8
0
  6
CONTINUOUS
 62
     0
100
AcDbCircle
 10
0.542115
 20
0.164992
 30
0.0
 40
0.56667
100
AcDbArc
 50
73.07249033629006
 51
196.9275130221199
  0
ARC
  5
D4
330
A0
100
AcDbEntity
  8
0
  6
CONTINUOUS
 62
     0
100
AcDbCircle
 10
-0.542115
 20
-0.164992
 30
0.0
 40
0.56667
100
AcDbArc
 50
253.0724869220464
 51
16.9275130559125
  0
ENDBLK
  5
A2
330
A0
100
AcDbEntity
  8
0
100
AcDbBlockEnd
  0
BLOCK
  5
3A6
330
3A5
100
AcDbEntity
  8
0
100
AcDbBlockBegin
  2
*D15
 70
     1
 10
0.0
 20
0.0
 30
0.0
  3
*D15
  1

  0
LINE
  5
3A8
330
3A5
100
AcDbEntity
  8
LAY-20
  6
CONTINUOUS
 62
     4
100
AcDbLine
 10
249.0
 20
273.0
 30
0.0
 11
249.0
 21
357.37729558173
 31
0.0
  0
LINE
  5
3A9
330
3A5
100
AcDbEntity
  8
LAY-20
  6
CONTINUOUS
 62
     4
100
AcDbLine
 10
1037.0
 20
273.0
 30
0.0
 11
1037.0
 21
357.37729558173
 31
0.0
  0
LINE
  5
3AA
330
3A5
100
AcDbEntity
  8
LAY-20
  6
CONTINUOUS
 62
     4
100
AcDbLine
 10
264.0
 20
349.87729558173
 30
0.0
 11
1022.0
 21
349.87729558173
 31
0.0
  0
INSERT
  5
3AB
330
3A5
100
AcDbEntity
  8
LAY-20
 62
     4
100
AcDbBlockReference
  2
EX_BNORM
 10
249.0
 20
349.87729558173
 30
0.0
 41
15.0
 42
15.0
 43
15.0
 50
180.0
  0
INSERT
  5
3AC
330
3A5
100
AcDbEntity
  8
LAY-20
 62
     4
100
AcDbBlockReference
  2
EX_BNORM
 10
1037.0
 20
349.87729558173
 30
0.0
 41
15.0
 42
15.0
 43
15.0
  0
MTEXT
  5
3AD
330
3A5
100
AcDbEntity
  8
LAY-20
 62
     7
100
AcDbMText
 10
642.9999999999999
 20
362.37729558173
 30
0.0
 40
15.590552
 41
0.0
 71
     5
 72
     1
  1
%%c788
  7
EXCADDIM1
  0
POINT
  5
3AE
330
3A5
100
AcDbEntity
  8
DEFPOINTS
 62
     0
100
AcDbPoint
 10
249.0
 20
265.5
 30
0.0
  0
POINT
  5
3AF
330
3A5
100
AcDbEntity
  8
DEFPOINTS
 62
     0
100
AcDbPoint
 10
1037.0
 20
265.5
 30
0.0
  0
POINT
  5
3B0
330
3A5
100
AcDbEntity
  8
DEFPOINTS
 62
     0
100
AcDbPoint
 10
1037.0
 20
349.87729558173
 30
0.0
  0
ENDBLK
  5
3A7
330
3A5
100
AcDbEntity
  8
0
100
AcDbBlockEnd
  0
BLOCK
  5
3B3
330
3B2
100
AcDbEntity
  8
0
100
AcDbBlockBegin
  2
*D16
 70
     1
 10
0.0
 20
0.0
 30
0.0
  3
*D16
  1

  0
LINE
  5
3B5
330
3B2
100
AcDbEntity
  8
LAY-20
  6
CONTINUOUS
 62
     4
100
AcDbLine
 10
234.0
 20
265.5
 30
0.0
 11
234.0
 21
392.37729558175
 31
0.0
  0
LINE
  5
3B6
330
3B2
100
AcDbEntity
  8
LAY-20
  6
CONTINUOUS
 62
     4
100
AcDbLine
 10
1052.0
 20
265.5
 30
0.0
 11
1052.0
 21
392.37729558175
 31
0.0
  0
LINE
  5
3B7
330
3B2
100
AcDbEntity
  8
LAY-20
  6
CONTINUOUS
 62
     4
100
AcDbLine
 10
249.0
 20
384.87729558175
 30
0.0
 11
1037.0
 21
384.87729558175
 31
0.0
  0
INSERT
  5
3B8
330
3B2
100
AcDbEntity
  8
LAY-20
 62
     4
100
AcDbBlockReference
  2
EX_BNORM
 10
234.0
 20
384.87729558175
 30
0.0
 41
15.0
 42
15.0
 43
15.0
 50
180.0
  0
INSERT
  5
3B9
330
3B2
100
AcDbEntity
  8
LAY-20
 62
     4
100
AcDbBlockReference
  2
EX_BNORM
 10
1052.0
 20
384.87729558175
 30
0.0
 41
15.0
 42
15.0
 43
15.0
  0
MTEXT
  5
3BA
330
3B2
100
AcDbEntity
  8
LAY-20
 62
     7
100
AcDbMText
 10
642.9999999999999
 20
397.37729558175
 30
0.0
 40
15.590552
 41
0.0
 71
     5
 72
     1
  1
%%c818
  7
EXCADDIM1
  0
POINT
  5
3BB
330
3B2
100
AcDbEntity
  8
DEFPOINTS
 62
     0
100
AcDbPoint
 10
234.0
 20
258.0
 30
0.0
  0
POINT
  5
3BC
330
3B2
100
AcDbEntity
  8
DEFPOINTS
 62
     0
100
AcDbPoint
 10
1052.0
 20
258.0
 30
0.0
  0
POINT
  5
3BD
330
3B2
100
AcDbEntity
  8
DEFPOINTS
 62
     0
100
AcDbPoint
 10
1052.0
 20
384.87729558175
 30
0.0
  0
ENDBLK
  5
3B4
330
3B2
100
AcDbEntity
  8
0
100
AcDbBlockEnd
  0
BLOCK
  5
3C0
330
3BF
100
AcDbEntity
  8
0
100
AcDbBlockBegin
  2
*D17
 70
     1
 10
0.0
 20
0.0
 30
0.0
  3
*D17
  1

  0
LINE
  5
3C2
330
3BF
100
AcDbEntity
  8
LAY-20
  6
CONTINUOUS
 62
     4
100
AcDbLine
 10
268.0
 20
200.0
 30
0.0
 11
268.0
 21
140.5
 31
0.0
  0
LINE
  5
3C3
330
3BF
100
AcDbEntity
  8
LAY-20
  6
CONTINUOUS
 62
     4
100
AcDbLine
 10
1018.0
 20
195.5
 30
0.0
 11
1018.0
 21
140.5
 31
0.0
  0
LINE
  5
3C4
330
3BF
100
AcDbEntity
  8
LAY-20
  6
CONTINUOUS
 62
     4
100
AcDbLine
 10
283.0
 20
148.0
 30
0.0
 11
1003.0
 21
148.0
 31
0.0
  0
INSERT
  5
3C5
330
3BF
100
AcDbEntity
  8
LAY-20
 62
     4
100
AcDbBlockReference
  2
EX_BNORM
 10
268.0
 20
148.0
 30
0.0
 41
15.0
 42
15.0
 43
15.0
 50
180.0
  0
INSERT
  5
3C6
330
3BF
100
AcDbEntity
  8
LAY-20
 62
     4
100
AcDbBlockReference
  2
EX_BNORM
 10
1018.0
 20
148.0
 30
0.0
 41
15.0
 42
15.0
 43
15.0
  0
MTEXT
  5
3C7
330
3BF
100
AcDbEntity
  8
LAY-20
 62
     7
100
AcDbMText
 10
643.0000000000001
 20
160.5
 30
0.0
 40
15.590552
 41
0.0
 71
     5
 72
     1
  1
%%c750
  7
EXCADDIM1
  0
POINT
  5
3C8
330
3BF
100
AcDbEntity
  8
DEFPOINTS
 62
     0
100
AcDbPoint
 10
268.0
 20
207.5
 30
0.0
  0
POINT
  5
3C9
330
3BF
100
AcDbEntity
  8
DEFPOINTS
 62
     0
100
AcDbPoint
 10
1018.0
 20
203.0
 30
0.0
  0
POINT
  5
3CA
330
3BF
100
AcDbEntity
  8
DEFPOINTS
 62
     0
100
AcDbPoint
 10
1018.0
 20
148.0
 30
0.0
  0
ENDBLK
  5
3C1
330
3BF
100
AcDbEntity
  8
0
100
AcDbBlockEnd
  0
BLOCK
  5
3CD
330
3CC
100
AcDbEntity
  8
0
100
AcDbBlockBegin
  2
*D18
 70
     1
 10
0.0
 20
0.0
 30
0.0
  3
*D18
  1

  0
LINE
  5
3CF
330
3CC
100
AcDbEntity
  8
LAY-20
  6
CONTINUOUS
 62
     4
100
AcDbLine
 10
218.0
 20
190.5
 30
0.0
 11
218.0
 21
105.5
 31
0.0
  0
LINE
  5
3D0
330
3CC
100
AcDbEntity
  8
LAY-20
  6
CONTINUOUS
 62
     4
100
AcDbLine
 10
233.0
 20
113.0
 30
0.0
 11
1053.0
 21
113.0
 31
0.0
  0
INSERT
  5
3D1
330
3CC
100
AcDbEntity
  8
LAY-20
 62
     4
100
AcDbBlockReference
  2
EX_BNORM
 10
218.0
 20
113.0
 30
0.0
 41
15.0
 42
15.0
 43
15.0
 50
180.0
  0
INSERT
  5
3D2
330
3CC
100
AcDbEntity
  8
LAY-20
 62
     4
100
AcDbBlockReference
  2
EX_NONE
 10
1068.0
 20
113.0
 30
0.0
 41
15.0
 42
15.0
 43
15.0
  0
MTEXT
  5
3D3
330
3CC
100
AcDbEntity
  8
LAY-20
 62
     7
100
AcDbMText
 10
643.0000000000001
 20
125.5
 30
0.0
 40
15.590552
 41
0.0
 71
     5
 72
     1
  1
□850
  7
EXCADDIM1
  0
POINT
  5
3D4
330
3CC
100
AcDbEntity
  8
DEFPOINTS
 62
     0
100
AcDbPoint
 10
218.0
 20
198.0
 30
0.0
  0
POINT
  5
3D5
330
3CC
100
AcDbEntity
  8
DEFPOINTS
 62
     0
100
AcDbPoint
 10
1068.0
 20
113.0
 30
0.0
  0
POINT
  5
3D6
330
3CC
100
AcDbEntity
  8
DEFPOINTS
 62
     0
100
AcDbPoint
 10
1068.0
 20
113.0
 30
0.0
  0
ENDBLK
  5
3CE
330
3CC
100
AcDbEntity
  8
0
100
AcDbBlockEnd
  0
BLOCK
  5
3D9
330
3D8
100
AcDbEntity
  8
0
100
AcDbBlockBegin
  2
*D19
 70
     1
 10
0.0
 20
0.0
 30
0.0
  3
*D19
  1

  0
LINE
  5
3DB
330
3D8
100
AcDbEntity
  8
LAY-20
  6
CONTINUOUS
 62
     4
100
AcDbLine
 10
1230.5
 20
198.0
 30
0.0
 11
1280.5
 21
198.0
 31
0.0
  0
LINE
  5
3DC
330
3D8
100
AcDbEntity
  8
LAY-20
  6
CONTINUOUS
 62
     4
100
AcDbLine
 10
1059.5
 20
258.0
 30
0.0
 11
1280.5
 21
258.0
 31
0.0
  0
LINE
  5
3DD
330
3D8
100
AcDbEntity
  8
LAY-20
  6
CONTINUOUS
 62
     4
100
AcDbLine
 10
1273.0
 20
213.0
 30
0.0
 11
1273.0
 21
243.0
 31
0.0
  0
INSERT
  5
3DE
330
3D8
100
AcDbEntity
  8
LAY-20
 62
     4
100
AcDbBlockReference
  2
EX_BNORM
 10
1273.0
 20
198.0
 30
0.0
 41
15.0
 42
15.0
 43
15.0
 50
270.0
  0
INSERT
  5
3DF
330
3D8
100
AcDbEntity
  8
LAY-20
 62
     4
100
AcDbBlockReference
  2
EX_BNORM
 10
1273.0
 20
258.0
 30
0.0
 41
15.0
 42
15.0
 43
15.0
 50
90.0
  0
MTEXT
  5
3E0
330
3D8
100
AcDbEntity
  8
LAY-20
 62
     7
100
AcDbMText
 10
1260.5
 20
228.0
 30
0.0
 40
15.590552
 41
0.0
 71
     5
 72
     1
  1
60
  7
EXCADDIM1
 11
0.0
 21
1.0
 31
0.0
  0
POINT
  5
3E1
330
3D8
100
AcDbEntity
  8
DEFPOINTS
 62
     0
100
AcDbPoint
 10
1223.0
 20
198.0
 30
0.0
  0
POINT
  5
3E2
330
3D8
100
AcDbEntity
  8
DEFPOINTS
 62
     0
100
AcDbPoint
 10
1052.0
 20
258.0
 30
0.0
  0
POINT
  5
3E3
330
3D8
100
AcDbEntity
  8
DEFPOINTS
 62
     0
100
AcDbPoint
 10
1273.0
 20
258.0
 30
0.0
  0
ENDBLK
  5
3DA
330
3D8
100
AcDbEntity
  8
0
100
AcDbBlockEnd
  0
ENDSEC
  0
SECTION
  2
ENTITIES
  0
LINE
  5
D5
330
1F
100
AcDbEntity
  8
LAY-10
  6
CONTINUOUS
 62
     7
100
AcDbLine
 10
329.0380652052041
 20
250.1948074863692
 30
0.0
 11
329.9761483571682
 21
251.1328906383337
 31
0.0
  0
LINE
  5
D6
330
1F
100
AcDbEntity
  8
LAY-10
  6
CONTINUOUS
 62
     7
100
AcDbLine
 10
328.3821909595657
 20
250.2460400219177
 30
0.0
 11
329.9249158216197
 21
251.7887648839719
 31
0.0
  0
LINE
  5
D7
330
1F
100
AcDbEntity
  8
LAY-10
  6
CONTINUOUS
 62
     7
100
AcDbLine
 10
327.9514718625757
 20
250.5224277061143
 30
0.0
 11
329.6485281374236
 21
252.219483980962
 31
0.0
  0
LINE
  5
D8
330
1F
100
AcDbEntity
  8
LAY-10
  6
CONTINUOUS
 62
     7
100
AcDbLine
 10
327.6750841783791
 20
250.9531468031044
 30
0.0
 11
329.2178090404337
 21
252.4958716651584
 31
0.0
  0
LINE
  5
D9
330
1F
100
AcDbEntity
  8
LAY-10
  6
CONTINUOUS
 62
     7
100
AcDbLine
 10
327.6238516428306
 20
251.6090210487423
 30
0.0
 11
328.5619347947953
 21
252.5471042007071
 31
0.0
  0
LINE
  5
DA
330
1F
100
AcDbEntity
  8
LAY-10
  6
CONTINUOUS
 62
     7
100
AcDbLine
 10
349.4380652052142
 20
250.1948074863692
 30
0.0
 11
350.3761483571783
 21
251.1328906383337
 31
0.0
  0
LINE
  5
DB
330
1F
100
AcDbEntity
  8
LAY-10
  6
CONTINUOUS
 62
     7
100
AcDbLine
 10
348.782190959576
 20
250.2460400219177
 30
0.0
 11
350.32491582163
 21
251.7887648839719
 31
0.0
  0
LINE
  5
DC
330
1F
100
AcDbEntity
  8
LAY-10
  6
CONTINUOUS
 62
     7
100
AcDbLine
 10
348.3514718625857
 20
250.5224277061143
 30
0.0
 11
350.0485281374334
 21
252.219483980962
 31
0.0
  0
LINE
  5
DD
330
1F
100
AcDbEntity
  8
LAY-10
  6
CONTINUOUS
 62
     7
100
AcDbLine
 10
348.0750841783891
 20
250.9531468031044
 30
0.0
 11
349.6178090404438
 21
252.4958716651584
 31
0.0
  0
LINE
  5
DE
330
1F
100
AcDbEntity
  8
LAY-10
  6
CONTINUOUS
 62
     7
100
AcDbLine
 10
348.0238516428409
 20
251.6090210487423
 30
0.0
 11
348.9619347948054
 21
252.5471042007071
 31
0.0
  0
LINE
  5
DF
330
1F
100
AcDbEntity
  8
LAY-10
  6
CONTINUOUS
 62
     7
100
AcDbLine
 10
355.0032286761457
 20
242.9883980820673
 30
0.0
 11
356.2325577614603
 21
244.2177271673818
 31
0.0
  0
LINE
  5
E0
330
1F
100
AcDbEntity
  8
LAY-10
  6
CONTINUOUS
 62
     7
100
AcDbLine
 10
355.1037989274424
 20
242.3818615521775
 30
0.0
 11
356.8390942913503
 21
244.1171569160852
 31
0.0
  0
LINE
  5
E1
330
1F
100
AcDbEntity
  8
LAY-10
  6
CONTINUOUS
 62
     7
100
AcDbLine
 10
355.3880835149174
 20
241.9590393584658
 30
0.0
 11
357.2619164850618
 21
243.8328723286102
 31
0.0
  0
LINE
  5
E2
330
1F
100
AcDbEntity
  8
LAY-10
  6
CONTINUOUS
 62
     7
100
AcDbLine
 10
355.8109057086289
 20
241.6747547709908
 30
0.0
 11
357.5462010725367
 21
243.4100501348987
 31
0.0
  0
LINE
  5
E3
330
1F
100
AcDbEntity
  8
LAY-10
  6
CONTINUOUS
 62
     7
100
AcDbLine
 10
356.4174422385189
 20
241.5741845196942
 30
0.0
 11
357.6467713238334
 21
242.8035136050087
 31
0.0
  0
LINE
  5
E4
330
1F
100
AcDbEntity
  8
LAY-10
  6
CONTINUOUS
 62
     7
100
AcDbLine
 10
320.3532286761855
 20
242.9883980820673
 30
0.0
 11
321.5825577615
 21
244.2177271673818
 31
0.0
  0
LINE
  5
E5
330
1F
100
AcDbEntity
  8
LAY-10
  6
CONTINUOUS
 62
     7
100
AcDbLine
 10
320.4537989274821
 20
242.3818615521775
 30
0.0
 11
322.18909429139
 21
244.1171569160852
 31
0.0
  0
LINE
  5
E6
330
1F
100
AcDbEntity
  8
LAY-10
  6
CONTINUOUS
 62
     7
100
AcDbLine
 10
320.7380835149576
 20
241.9590393584658
 30
0.0
 11
322.6119164851015
 21
243.8328723286102
 31
0.0
  0
LINE
  5
E7
330
1F
100
AcDbEntity
  8
LAY-10
  6
CONTINUOUS
 62
     7
100
AcDbLine
 10
321.160905708669
 20
241.6747547709908
 30
0.0
 11
322.8962010725769
 21
243.4100501348987
 31
0.0
  0
LINE
  5
E8
330
1F
100
AcDbEntity
  8
LAY-10
  6
CONTINUOUS
 62
     7
100
AcDbLine
 10
321.7674422385591
 20
241.5741845196942
 30
0.0
 11
322.9967713238735
 21
242.8035136050087
 31
0.0
  0
LINE
  5
E9
330
1F
100
AcDbEntity
  8
LAY-10
  6
CONTINUOUS
 62
     7
100
AcDbLine
 10
1222.372829220403
 20
209.9671313722101
 30
0.0
 11
1223.000000000009
 21
198.0000000000005
 31
0.0
  0
LINE
  5
EA
330
1F
100
AcDbEntity
  8
LAY-10
  6
CONTINUOUS
 62
     7
100
AcDbLine
 10
1204.00000000001
 20
210.0
 30
0.0
 11
1201.50000000001
 21
198.0
 31
0.0
  0
LINE
  5
EB
330
1F
100
AcDbEntity
  8
LAY-10
  6
CONTINUOUS
 62
     7
100
AcDbLine
 10
1184.00000000001
 20
210.0
 30
0.0
 11
1186.50000000001
 21
198.0
 31
0.0
  0
LINE
  5
EC
330
1F
100
AcDbEntity
  8
LAY-10
  6
CONTINUOUS
 62
     7
100
AcDbLine
 10
1038.5
 20
258.0
 30
0.0
 11
1038.5
 21
243.0000000000003
 31
0.0
  0
LINE
  5
ED
330
1F
100
AcDbEntity
  8
LAY-10
  6
CONTINUOUS
 62
     7
100
AcDbLine
 10
218.4798984472772
 20
207.1570078687289
 30
0.0
 11
217.9999999999997
 21
198.0
 31
0.0
  0
ARC
  5
EE
330
1F
100
AcDbEntity
  8
LAY-10
  6
CONTINUOUS
 62
     7
100
AcDbCircle
 10
221.4757870515406
 20
207.0
 30
0.0
 40
3.000000000000003
100
AcDbArc
 50
90.00000000000004
 51
177.000000000001
  0
LINE
  5
EF
330
1F
100
AcDbEntity
  8
LAY-10
  6
CONTINUOUS
 62
     7
100
AcDbLine
 10
221.4757870515406
 20
210.0
 30
0.0
 11
226.7396037608422
 21
210.0
 31
0.0
  0
ARC
  5
F0
330
1F
100
AcDbEntity
  8
LAY-10
  6
CONTINUOUS
 62
     7
100
AcDbCircle
 10
226.7396037608422
 20
215.0
 30
0.0
 40
5.0
100
AcDbArc
 50
270.0000000000002
 51
357.0000000000012
  0
LINE
  5
F1
330
1F
100
AcDbEntity
  8
LAY-10
  6
CONTINUOUS
 62
     7
100
AcDbLine
 10
247.4999999999999
 20
258.0
 30
0.0
 11
247.4999999999999
 21
243.0
 31
0.0
  0
LINE
  5
F2
330
1F
100
AcDbEntity
  8
LAY-10
  6
CONTINUOUS
 62
     7
100
AcDbLine
 10
247.4999999999999
 20
243.0
 30
0.0
 11
251.9999999999999
 21
243.0
 31
0.0
  0
LINE
  5
F3
330
1F
100
AcDbEntity
  8
LAY-10
  6
CONTINUOUS
 62
     7
100
AcDbLine
 10
267.3711066486031
 20
203.0
 30
0.0
 11
267.9999999999994
 21
215.0
 31
0.0
  0
LINE
  5
F4
330
1F
100
AcDbEntity
  8
LAY-10
  6
CONTINUOUS
 62
     7
100
AcDbLine
 10
260.7620388964148
 20
203.0
 30
0.0
 11
260.4999999999994
 21
198.0
 31
0.0
  0
LINE
  5
F5
330
1F
100
AcDbEntity
  8
LAY-10
  6
CONTINUOUS
 62
     7
100
AcDbLine
 10
280.0805941196596
 20
241.002740930491
 30
0.0
 11
277.9759222071697
 21
243.0
 31
0.0
  0
ARC
  5
F6
330
1F
100
AcDbEntity
  8
LAY-10
  6
CONTINUOUS
 62
     7
100
AcDbCircle
 10
272.7448228335737
 20
210.0
 30
0.0
 40
5.0
100
AcDbArc
 50
90.00000000000004
 51
177.000000000001
  0
LINE
  5
F7
330
1F
100
AcDbEntity
  8
LAY-10
  6
CONTINUOUS
 62
     7
100
AcDbLine
 10
251.9999999999999
 20
243.0
 30
0.0
 11
251.9999999999999
 21
232.0
 31
0.0
  0
LINE
  5
F8
330
1F
100
AcDbEntity
  8
LAY-10
  6
CONTINUOUS
 62
     7
100
AcDbLine
 10
267.9999999999997
 20
215.0
 30
0.0
 11
265.4999999999997
 21
232.0
 31
0.0
  0
LINE
  5
F9
330
1F
100
AcDbEntity
  8
LAY-10
  6
CONTINUOUS
 62
     7
100
AcDbLine
 10
280.0805941196594
 20
241.0027409304914
 30
0.0
 11
281.4433400270981
 21
215.0
 31
0.0
  0
LINE
  5
FA
330
1F
100
AcDbEntity
  8
LAY-10
  6
CONTINUOUS
 62
     7
100
AcDbLine
 10
260.2499999999997
 20
217.0000000000002
 30
0.0
 11
254.7499999999999
 21
217.0000000000002
 31
0.0
  0
LINE
  5
FB
330
1F
100
AcDbEntity
  8
LAY-10
  6
CONTINUOUS
 62
     7
100
AcDbLine
 10
231.7327514346151
 20
214.7383202187855
 30
0.0
 11
234.0000000000019
 21
258.0
 31
0.0
  0
LINE
  5
FC
330
1F
100
AcDbEntity
  8
LAY-10
  6
CONTINUOUS
 62
     7
100
AcDbLine
 10
260.2499999999997
 20
232.0
 30
0.0
 11
260.2499999999997
 21
217.0000000000002
 31
0.0
  0
LINE
  5
FD
330
1F
100
AcDbEntity
  8
LAY-10
  6
CONTINUOUS
 62
     7
100
AcDbLine
 10
254.7499999999999
 20
232.0
 30
0.0
 11
254.7499999999999
 21
217.0000000000002
 31
0.0
  0
LINE
  5
FE
330
1F
100
AcDbEntity
  8
LAY-10
  6
CONTINUOUS
 62
     7
100
AcDbLine
 10
268.4474411167411
 20
243.0000000000005
 30
0.0
 11
265.4999999999983
 21
232.0
 31
0.0
  0
LINE
  5
FF
330
1F
100
AcDbEntity
  8
LAY-10
  6
CONTINUOUS
 62
     7
100
AcDbLine
 10
280.0805941196596
 20
241.002740930491
 30
0.0
 11
267.9122771619901
 21
241.002740930491
 31
0.0
  0
LINE
  5
100
330
1F
100
AcDbEntity
  8
LAY-10
  6
CONTINUOUS
 62
     7
100
AcDbLine
 10
268.4474411167408
 20
243.0
 30
0.0
 11
277.9759222071697
 21
243.0
 31
0.0
  0
LINE
  5
101
330
1F
100
AcDbEntity
  8
LAY-10
  6
CONTINUOUS
 62
     7
100
AcDbLine
 10
248.9999999999999
 20
258.0000000000002
 30
0.0
 11
248.9999999999999
 21
243.0
 31
0.0
  0
LINE
  5
102
330
1F
100
AcDbEntity
  8
LAY-10
  6
CONTINUOUS
 62
     7
100
AcDbLine
 10
247.4999999999999
 20
258.0
 30
0.0
 11
233.9999999999997
 21
258.0
 31
0.0
  0
LINE
  5
103
330
1F
100
AcDbEntity
  8
LAY-10
  6
CONTINUOUS
 62
     7
100
AcDbLine
 10
272.9999999999997
 20
200.0000000000002
 30
0.0
 11
272.9999999999997
 21
213.5
 31
0.0
  0
LINE
  5
104
330
1F
100
AcDbEntity
  8
LAY-10
  6
CONTINUOUS
 62
     7
100
AcDbLine
 10
272.9999999999997
 20
213.5
 30
0.0
 11
283.2769076046483
 21
213.5
 31
0.0
  0
ARC
  5
105
330
1F
100
AcDbEntity
  8
LAY-10
  6
CONTINUOUS
 62
     7
100
AcDbCircle
 10
283.2769076046483
 20
215.5
 30
0.0
 40
2.0
100
AcDbArc
 50
270.0000000000002
 51
2.663000766066975
  0
LINE
  5
106
330
1F
100
AcDbEntity
  8
LAY-10
  6
CONTINUOUS
 62
     7
100
AcDbLine
 10
280.1817221860405
 20
243.0
 30
0.0
 11
248.9999999999997
 21
243.0
 31
0.0
  0
ARC
  5
107
330
1F
100
AcDbEntity
  8
LAY-10
  6
CONTINUOUS
 62
     7
100
AcDbCircle
 10
280.1817221860405
 20
239.0
 30
0.0
 40
4.0
100
AcDbArc
 50
2.663000766066975
 51
90.00000000000004
  0
ARC
  5
108
330
1F
100
AcDbEntity
  8
LAY-10
  6
CONTINUOUS
 62
     7
100
AcDbCircle
 10
300.095982739616
 20
239.888989463461
 30
0.0
 40
4.0
100
AcDbArc
 50
91.00000000000014
 51
177.000000000001
  0
LINE
  5
109
330
1F
100
AcDbEntity
  8
LAY-10
  6
CONTINUOUS
 62
     7
100
AcDbLine
 10
248.9999999999997
 20
258.0000000000041
 30
0.0
 11
248.9999999999997
 21
243.0
 31
0.0
  0
LINE
  5
10A
330
1F
100
AcDbEntity
  8
LAY-10
  6
CONTINUOUS
 62
     7
100
AcDbLine
 10
272.7448228335737
 20
215.0
 30
0.0
 11
285.3023255813952
 21
215.0
 31
0.0
  0
LINE
  5
10B
330
1F
100
AcDbEntity
  8
LAY-10
  6
CONTINUOUS
 62
     7
100
AcDbLine
 10
260.7620388964095
 20
203.0
 30
0.0
 11
272.9999999999994
 21
203.0
 31
0.0
  0
LINE
  5
10C
330
1F
100
AcDbEntity
  8
LAY-10
  6
CONTINUOUS
 62
     7
100
AcDbLine
 10
281.3647283581753
 20
213.5
 30
0.0
 11
281.4433400270997
 21
215.0
 31
0.0
  0
LINE
  5
10D
330
1F
100
AcDbEntity
  8
LAY-10
  6
CONTINUOUS
 62
     7
100
AcDbLine
 10
300.0261731139
 20
243.8883802440871
 30
0.0
 11
321.5990030964655
 21
244.2649353921183
 31
0.0
  0
LINE
  5
10E
330
1F
100
AcDbEntity
  8
LAY-10
  6
CONTINUOUS
 62
     7
100
AcDbLine
 10
356.0000000000094
 20
259.2428553725713
 30
0.0
 11
356.0000000000094
 21
244.070955843534
 31
0.0
  0
LINE
  5
10F
330
1F
100
AcDbEntity
  8
LAY-10
  6
CONTINUOUS
 62
     7
100
AcDbLine
 10
355.0000000000142
 20
256.5709558435381
 30
0.0
 11
355.0000000000142
 21
242.5709558435381
 31
0.0
  0
LINE
  5
110
330
1F
100
AcDbEntity
  8
LAY-10
  6
CONTINUOUS
 62
     7
100
AcDbLine
 10
350.500000000004
 20
256.5709558435381
 30
0.0
 11
351.5000000000042
 21
255.5709558435381
 31
0.0
  0
LINE
  5
111
330
1F
100
AcDbEntity
  8
LAY-10
  6
CONTINUOUS
 62
     7
100
AcDbLine
 10
352.0000000000038
 20
256.5709558435378
 30
0.0
 11
352.0000000000038
 21
252.6141586848498
 31
0.0
  0
LINE
  5
112
330
1F
100
AcDbEntity
  8
LAY-10
  6
CONTINUOUS
 62
     7
100
AcDbLine
 10
351.5000000000042
 20
255.5709558435381
 30
0.0
 11
351.5000000000042
 21
252.5709558435381
 31
0.0
  0
LINE
  5
113
330
1F
100
AcDbEntity
  8
LAY-10
  6
CONTINUOUS
 62
     7
100
AcDbLine
 10
352.0000000000069
 20
252.6141586848516
 30
0.0
 11
349.0000000000099
 21
250.3121777209174
 31
0.0
  0
LINE
  5
114
330
1F
100
AcDbEntity
  8
LAY-10
  6
CONTINUOUS
 62
     7
100
AcDbLine
 10
340.7500000000038
 20
256.5709558435381
 30
0.0
 11
340.7500000000038
 21
254.0709558435381
 31
0.0
  0
LINE
  5
115
330
1F
100
AcDbEntity
  8
LAY-10
  6
CONTINUOUS
 62
     7
100
AcDbLine
 10
340.7500000000038
 20
254.0709558435381
 30
0.0
 11
337.2500000000042
 21
254.0709558435381
 31
0.0
  0
LINE
  5
116
330
1F
100
AcDbEntity
  8
LAY-10
  6
CONTINUOUS
 62
     7
100
AcDbLine
 10
337.2500000000042
 20
256.5709558435381
 30
0.0
 11
337.2500000000042
 21
254.0709558435381
 31
0.0
  0
LINE
  5
117
330
1F
100
AcDbEntity
  8
LAY-10
  6
CONTINUOUS
 62
     7
100
AcDbLine
 10
322.0000000000094
 20
258.7091034102471
 30
0.0
 11
322.0000000000094
 21
244.070955843534
 31
0.0
  0
LINE
  5
118
330
1F
100
AcDbEntity
  8
LAY-10
  6
CONTINUOUS
 62
     7
100
AcDbLine
 10
323.0000000000138
 20
256.5709558435381
 30
0.0
 11
323.0000000000138
 21
242.5709558435381
 31
0.0
  0
LINE
  5
119
330
1F
100
AcDbEntity
  8
LAY-10
  6
CONTINUOUS
 62
     7
100
AcDbLine
 10
323.0000000000097
 20
256.5709558435381
 30
0.0
 11
355.0000000000097
 21
256.5709558435381
 31
0.0
  0
LINE
  5
11A
330
1F
100
AcDbEntity
  8
LAY-10
  6
CONTINUOUS
 62
     7
100
AcDbLine
 10
351.5000000000042
 20
252.5709558435381
 30
0.0
 11
326.5000000000038
 21
252.5709558435381
 31
0.0
  0
LINE
  5
11B
330
1F
100
AcDbEntity
  8
LAY-10
  6
CONTINUOUS
 62
     7
100
AcDbLine
 10
327.5000000000041
 20
256.5709558435381
 30
0.0
 11
326.5000000000038
 21
255.5709558435381
 31
0.0
  0
LINE
  5
11C
330
1F
100
AcDbEntity
  8
LAY-10
  6
CONTINUOUS
 62
     7
100
AcDbLine
 10
326.5000000000038
 20
255.5709558435381
 30
0.0
 11
326.5000000000038
 21
252.5709558435381
 31
0.0
  0
LINE
  5
11D
330
1F
100
AcDbEntity
  8
LAY-10
  6
CONTINUOUS
 62
     7
100
AcDbLine
 10
326.0000000000035
 20
256.5709558435378
 30
0.0
 11
326.0000000000035
 21
252.6141586848501
 31
0.0
  0
LINE
  5
11E
330
1F
100
AcDbEntity
  8
LAY-10
  6
CONTINUOUS
 62
     7
100
AcDbLine
 10
350.0000000000035
 20
243.1483061127276
 30
0.0
 11
328.0000000000037
 21
243.1483061127276
 31
0.0
  0
LINE
  5
11F
330
1F
100
AcDbEntity
  8
LAY-10
  6
CONTINUOUS
 62
     7
100
AcDbLine
 10
328.9999999999997
 20
242.5709558435381
 30
0.0
 11
348.9999999999997
 21
242.5709558435381
 31
0.0
  0
LINE
  5
120
330
1F
100
AcDbEntity
  8
LAY-10
  6
CONTINUOUS
 62
     7
100
AcDbLine
 10
350.0000000000041
 20
249.5709558435381
 30
0.0
 11
328.0000000000037
 21
249.5709558435381
 31
0.0
  0
LINE
  5
121
330
1F
100
AcDbEntity
  8
LAY-10
  6
CONTINUOUS
 62
     7
100
AcDbLine
 10
299.5000000000094
 20
241.5709558435369
 30
0.0
 11
367.5000000000097
 21
241.5709558435369
 31
0.0
  0
LINE
  5
122
330
1F
100
AcDbEntity
  8
LAY-10
  6
CONTINUOUS
 62
     7
100
AcDbLine
 10
299.5000000000083
 20
212.0709558435381
 30
0.0
 11
299.5000000000083
 21
241.5709558435369
 31
0.0
  0
LINE
  5
123
330
1F
100
AcDbEntity
  8
LAY-10
  6
CONTINUOUS
 62
     7
100
AcDbLine
 10
367.5000000000097
 20
207.5709558435369
 30
0.0
 11
320.5000000000097
 21
207.5709558435369
 31
0.0
  0
LINE
  5
124
330
1F
100
AcDbEntity
  8
LAY-10
  6
CONTINUOUS
 62
     7
100
AcDbLine
 10
367.5000000000067
 20
207.5709558435371
 30
0.0
 11
367.500000000009
 21
241.5709558435369
 31
0.0
  0
LINE
  5
125
330
1F
100
AcDbEntity
  8
LAY-10
  6
CONTINUOUS
 62
     7
100
AcDbLine
 10
320.5000000000097
 20
207.5709558435371
 30
0.0
 11
320.5000000000097
 21
236.5709558435378
 31
0.0
  0
LINE
  5
126
330
1F
100
AcDbEntity
  8
LAY-10
  6
CONTINUOUS
 62
     7
100
AcDbLine
 10
299.5000000000094
 20
212.0709558435371
 30
0.0
 11
320.5000000000097
 21
212.0709558435371
 31
0.0
  0
LINE
  5
127
330
1F
100
AcDbEntity
  8
LAY-10
  6
CONTINUOUS
 62
     7
100
AcDbLine
 10
370.5000000000097
 20
238.570955843536
 30
0.0
 11
370.5000000000097
 21
208.570955843536
 31
0.0
  0
LINE
  5
128
330
1F
100
AcDbEntity
  8
LAY-10
  6
CONTINUOUS
 62
     7
100
AcDbLine
 10
370.5000000000097
 20
208.570955843536
 30
0.0
 11
367.5000000000097
 21
208.570955843536
 31
0.0
  0
LINE
  5
129
330
1F
100
AcDbEntity
  8
LAY-10
  6
CONTINUOUS
 62
     7
100
AcDbLine
 10
359.5000000000128
 20
234.97095584354
 30
0.0
 11
359.5000000000128
 21
229.5709558435401
 31
0.0
  0
LINE
  5
12A
330
1F
100
AcDbEntity
  8
LAY-10
  6
CONTINUOUS
 62
     7
100
AcDbLine
 10
359.5000000000128
 20
229.5709558435401
 30
0.0
 11
349.5000000000128
 21
229.5709558435401
 31
0.0
  0
LINE
  5
12B
330
1F
100
AcDbEntity
  8
LAY-10
  6
CONTINUOUS
 62
     7
100
AcDbLine
 10
358.9000000000129
 20
228.97095584354
 30
0.0
 11
350.1000000000125
 21
228.97095584354
 31
0.0
  0
LINE
  5
12C
330
1F
100
AcDbEntity
  8
LAY-10
  6
CONTINUOUS
 62
     7
100
AcDbLine
 10
348.2500000000128
 20
234.97095584354
 30
0.0
 11
360.7500000000128
 21
234.97095584354
 31
0.0
  0
LINE
  5
12D
330
1F
100
AcDbEntity
  8
LAY-10
  6
CONTINUOUS
 62
     7
100
AcDbLine
 10
360.7500000000128
 20
236.5709558435401
 30
0.0
 11
360.7500000000128
 21
234.97095584354
 31
0.0
  0
LINE
  5
12E
330
1F
100
AcDbEntity
  8
LAY-10
  6
CONTINUOUS
 62
     7
100
AcDbLine
 10
348.2500000000128
 20
236.5709558435401
 30
0.0
 11
348.2500000000128
 21
234.97095584354
 31
0.0
  0
LINE
  5
12F
330
1F
100
AcDbEntity
  8
LAY-10
  6
CONTINUOUS
 62
     7
100
AcDbLine
 10
355.7500000000128
 20
229.5709558435401
 30
0.0
 11
355.7500000000128
 21
230.92095584354
 31
0.0
  0
LINE
  5
130
330
1F
100
AcDbEntity
  8
LAY-10
  6
CONTINUOUS
 62
     7
100
AcDbLine
 10
357.0000000000128
 20
229.5709558435401
 30
0.0
 11
357.0000000000128
 21
232.2709558435399
 31
0.0
  0
LINE
  5
131
330
1F
100
AcDbEntity
  8
LAY-10
  6
CONTINUOUS
 62
     7
100
AcDbLine
 10
358.2500000000128
 20
229.5709558435401
 30
0.0
 11
358.2500000000128
 21
233.6209558435401
 31
0.0
  0
LINE
  5
132
330
1F
100
AcDbEntity
  8
LAY-10
  6
CONTINUOUS
 62
     7
100
AcDbLine
 10
349.5000000000128
 20
234.97095584354
 30
0.0
 11
349.5000000000128
 21
229.5709558435401
 31
0.0
  0
LINE
  5
133
330
1F
100
AcDbEntity
  8
LAY-10
  6
CONTINUOUS
 62
     7
100
AcDbLine
 10
349.5000000000128
 20
229.5709558435401
 30
0.0
 11
350.1000000000125
 21
228.97095584354
 31
0.0
  0
LINE
  5
134
330
1F
100
AcDbEntity
  8
LAY-10
  6
CONTINUOUS
 62
     7
100
AcDbLine
 10
367.5000000000097
 20
236.5709558435378
 30
0.0
 11
299.5000000000094
 21
236.5709558435378
 31
0.0
  0
LINE
  5
135
330
1F
100
AcDbEntity
  8
LAY-10
  6
CONTINUOUS
 62
     7
100
AcDbLine
 10
367.5000000000097
 20
238.570955843536
 30
0.0
 11
370.5000000000097
 21
238.570955843536
 31
0.0
  0
LINE
  5
136
330
1F
100
AcDbEntity
  8
LAY-10
  6
CONTINUOUS
 62
     7
100
AcDbLine
 10
312.5000000000126
 20
234.97095584354
 30
0.0
 11
312.5000000000126
 21
229.5709558435401
 31
0.0
  0
LINE
  5
137
330
1F
100
AcDbEntity
  8
LAY-10
  6
CONTINUOUS
 62
     7
100
AcDbLine
 10
302.5000000000126
 20
234.97095584354
 30
0.0
 11
302.5000000000126
 21
229.5709558435401
 31
0.0
  0
LINE
  5
138
330
1F
100
AcDbEntity
  8
LAY-10
  6
CONTINUOUS
 62
     7
100
AcDbLine
 10
312.5000000000126
 20
229.5709558435401
 30
0.0
 11
302.5000000000126
 21
229.5709558435401
 31
0.0
  0
LINE
  5
139
330
1F
100
AcDbEntity
  8
LAY-10
  6
CONTINUOUS
 62
     7
100
AcDbLine
 10
312.5000000000126
 20
229.5709558435401
 30
0.0
 11
311.9000000000129
 21
228.97095584354
 31
0.0
  0
LINE
  5
13A
330
1F
100
AcDbEntity
  8
LAY-10
  6
CONTINUOUS
 62
     7
100
AcDbLine
 10
302.5000000000126
 20
229.5709558435401
 30
0.0
 11
303.1000000000128
 21
228.97095584354
 31
0.0
  0
LINE
  5
13B
330
1F
100
AcDbEntity
  8
LAY-10
  6
CONTINUOUS
 62
     7
100
AcDbLine
 10
311.9000000000129
 20
228.97095584354
 30
0.0
 11
303.1000000000128
 21
228.97095584354
 31
0.0
  0
LINE
  5
13C
330
1F
100
AcDbEntity
  8
LAY-10
  6
CONTINUOUS
 62
     7
100
AcDbLine
 10
308.7500000000126
 20
229.5709558435401
 30
0.0
 11
308.7500000000126
 21
230.92095584354
 31
0.0
  0
LINE
  5
13D
330
1F
100
AcDbEntity
  8
LAY-10
  6
CONTINUOUS
 62
     7
100
AcDbLine
 10
310.0000000000126
 20
229.5709558435401
 30
0.0
 11
310.0000000000126
 21
232.2709558435399
 31
0.0
  0
LINE
  5
13E
330
1F
100
AcDbEntity
  8
LAY-10
  6
CONTINUOUS
 62
     7
100
AcDbLine
 10
311.2500000000126
 20
229.5709558435401
 30
0.0
 11
311.2500000000126
 21
233.6209558435401
 31
0.0
  0
LINE
  5
13F
330
1F
100
AcDbEntity
  8
LAY-10
  6
CONTINUOUS
 62
     7
100
AcDbLine
 10
301.2500000000126
 20
234.97095584354
 30
0.0
 11
313.7500000000126
 21
234.97095584354
 31
0.0
  0
LINE
  5
140
330
1F
100
AcDbEntity
  8
LAY-10
  6
CONTINUOUS
 62
     7
100
AcDbLine
 10
313.7500000000126
 20
236.5709558435401
 30
0.0
 11
313.7500000000126
 21
234.97095584354
 31
0.0
  0
LINE
  5
141
330
1F
100
AcDbEntity
  8
LAY-10
  6
CONTINUOUS
 62
     7
100
AcDbLine
 10
301.2500000000126
 20
236.5709558435401
 30
0.0
 11
301.2500000000126
 21
234.97095584354
 31
0.0
  0
LINE
  5
142
330
1F
100
AcDbEntity
  8
LAY-10
  6
CONTINUOUS
 62
     7
100
AcDbLine
 10
359.5000000000128
 20
229.5709558435401
 30
0.0
 11
358.9000000000129
 21
228.97095584354
 31
0.0
  0
LINE
  5
143
330
1F
100
AcDbEntity
  8
LAY-10
  6
CONTINUOUS
 62
     7
100
AcDbLine
 10
357.8736263736197
 20
242.1973294699199
 30
0.0
 11
364.9999999999999
 21
242.1973294699199
 31
0.0
  0
LINE
  5
144
330
1F
100
AcDbEntity
  8
LAY-10
  6
CONTINUOUS
 62
     7
100
AcDbLine
 10
280.500000000004
 20
232.0
 30
0.0
 11
280.5524077792869
 21
232.0
 31
0.0
  0
LINE
  5
145
330
1F
100
AcDbEntity
  8
LAY-10
  6
CONTINUOUS
 62
     7
100
AcDbLine
 10
251.9999999999999
 20
232.0
 30
0.0
 11
254.7499999999999
 21
232.0
 31
0.0
  0
LINE
  5
146
330
1F
100
AcDbEntity
  8
LAY-10
  6
CONTINUOUS
 62
     7
100
AcDbLine
 10
260.2499999999997
 20
232.0
 30
0.0
 11
265.4999999999994
 21
232.0
 31
0.0
  0
LINE
  5
147
330
1F
100
AcDbEntity
  8
LAY-10
  6
CONTINUOUS
 62
     7
100
AcDbLine
 10
1052.0
 20
258.0
 30
0.0
 11
1038.5
 21
258.0
 31
0.0
  0
LINE
  5
148
330
1F
100
AcDbEntity
  8
LAY-10
  6
CONTINUOUS
 62
     7
100
AcDbLine
 10
1037.0
 20
258.0
 30
0.0
 11
1037.0
 21
243.0
 31
0.0
  0
LINE
  5
149
330
1F
100
AcDbEntity
  8
LAY-10
  6
CONTINUOUS
 62
     7
100
AcDbLine
 10
1038.5
 20
258.0
 30
0.0
 11
1038.5
 21
243.0
 31
0.0
  0
LINE
  5
14A
330
1F
100
AcDbEntity
  8
LAY-10
  6
CONTINUOUS
 62
     7
100
AcDbLine
 10
1038.5
 20
243.0
 30
0.0
 11
1034.0
 21
243.0
 31
0.0
  0
LINE
  5
14B
330
1F
100
AcDbEntity
  8
LAY-10
  6
CONTINUOUS
 62
     7
100
AcDbLine
 10
1018.628893351397
 20
203.0
 30
0.0
 11
1018.0
 21
215.0
 31
0.0
  0
LINE
  5
14C
330
1F
100
AcDbEntity
  8
LAY-10
  6
CONTINUOUS
 62
     7
100
AcDbLine
 10
1025.237961103585
 20
203.0
 30
0.0
 11
1025.5
 21
198.0
 31
0.0
  0
LINE
  5
14D
330
1F
100
AcDbEntity
  8
LAY-10
  6
CONTINUOUS
 62
     7
100
AcDbLine
 10
1034.0
 20
243.0
 30
0.0
 11
1034.0
 21
232.0
 31
0.0
  0
LINE
  5
14E
330
1F
100
AcDbEntity
  8
LAY-10
  6
CONTINUOUS
 62
     7
100
AcDbLine
 10
1018.0
 20
215.0
 30
0.0
 11
1020.5
 21
232.0
 31
0.0
  0
LINE
  5
14F
330
1F
100
AcDbEntity
  8
LAY-10
  6
CONTINUOUS
 62
     7
100
AcDbLine
 10
1025.75
 20
217.0
 30
0.0
 11
1031.25
 21
217.0
 31
0.0
  0
LINE
  5
150
330
1F
100
AcDbEntity
  8
LAY-10
  6
CONTINUOUS
 62
     7
100
AcDbLine
 10
1025.75
 20
232.0
 30
0.0
 11
1025.75
 21
217.0
 31
0.0
  0
LINE
  5
151
330
1F
100
AcDbEntity
  8
LAY-10
  6
CONTINUOUS
 62
     7
100
AcDbLine
 10
1031.25
 20
232.0
 30
0.0
 11
1031.25
 21
217.0
 31
0.0
  0
LINE
  5
152
330
1F
100
AcDbEntity
  8
LAY-10
  6
CONTINUOUS
 62
     7
100
AcDbLine
 10
1037.0
 20
258.0
 30
0.0
 11
1037.0
 21
243.0
 31
0.0
  0
LINE
  5
153
330
1F
100
AcDbEntity
  8
LAY-10
  6
CONTINUOUS
 62
     7
100
AcDbLine
 10
1037.0
 20
258.0000000000039
 30
0.0
 11
1037.0
 21
242.9999999999998
 31
0.0
  0
LINE
  5
154
330
1F
100
AcDbEntity
  8
LAY-10
  6
CONTINUOUS
 62
     7
100
AcDbLine
 10
1034.0
 20
232.0
 30
0.0
 11
1031.25
 21
232.0
 31
0.0
  0
LINE
  5
155
330
1F
100
AcDbEntity
  8
LAY-10
  6
CONTINUOUS
 62
     7
100
AcDbLine
 10
895.0000000000003
 20
260.4786192198094
 30
0.0
 11
895.0000000000003
 21
252.815326752537
 31
0.0
  0
LINE
  5
156
330
1F
100
AcDbEntity
  8
LAY-10
  6
CONTINUOUS
 62
     7
100
AcDbLine
 10
971.0000000000006
 20
259.1520342852646
 30
0.0
 11
971.0000000000006
 21
252.815326752537
 31
0.0
  0
LINE
  5
157
330
1F
100
AcDbEntity
  8
LAY-10
  6
CONTINUOUS
 62
     7
100
AcDbLine
 10
971.0000000000006
 20
252.815326752537
 30
0.0
 11
965.500000000001
 21
252.815326752537
 31
0.0
  0
ARC
  5
158
330
1F
100
AcDbEntity
  8
LAY-10
  6
CONTINUOUS
 62
     7
100
AcDbCircle
 10
933.000000000001
 20
246.315326752537
 30
0.0
 40
32.5
100
AcDbArc
 50
180.0
 51
0.0
  0
ARC
  5
159
330
1F
100
AcDbEntity
  8
LAY-10
  6
CONTINUOUS
 62
     7
100
AcDbCircle
 10
933.000000000001
 20
242.3153267525367
 30
0.0
 40
5.500000000000116
100
AcDbArc
 50
182.6931989600599
 51
357.3068010399402
  0
LINE
  5
15A
330
1F
100
AcDbEntity
  8
LAY-10
  6
CONTINUOUS
 62
     7
100
AcDbLine
 10
927.0000000000008
 20
252.815326752537
 30
0.0
 11
927.5060749728281
 21
242.0568934036764
 31
0.0
  0
LINE
  5
15B
330
1F
100
AcDbEntity
  8
LAY-10
  6
CONTINUOUS
 62
     7
100
AcDbLine
 10
939.0000000000006
 20
252.815326752537
 30
0.0
 11
938.493925027174
 21
242.0568934036764
 31
0.0
  0
LINE
  5
15C
330
1F
100
AcDbEntity
  8
LAY-10
  6
CONTINUOUS
 62
     7
100
AcDbLine
 10
900.500000000001
 20
246.315326752537
 30
0.0
 11
900.500000000001
 21
252.815326752537
 31
0.0
  0
LINE
  5
15D
330
1F
100
AcDbEntity
  8
LAY-10
  6
CONTINUOUS
 62
     7
100
AcDbLine
 10
965.500000000001
 20
246.315326752537
 30
0.0
 11
965.500000000001
 21
252.815326752537
 31
0.0
  0
LINE
  5
15E
330
1F
100
AcDbEntity
  8
LAY-10
  6
CONTINUOUS
 62
     7
100
AcDbLine
 10
900.500000000001
 20
252.815326752537
 30
0.0
 11
895.0000000000003
 21
252.815326752537
 31
0.0
  0
LINE
  5
15F
330
1F
100
AcDbEntity
  8
LAY-10
  6
CONTINUOUS
 62
     7
100
AcDbLine
 10
939.0000000000006
 20
252.815326752537
 30
0.0
 11
927.0000000000008
 21
252.815326752537
 31
0.0
  0
LINE
  5
160
330
1F
100
AcDbEntity
  8
LAY-10
  6
CONTINUOUS
 62
     7
100
AcDbLine
 10
364.9999999999999
 20
242.1973294699201
 30
0.0
 11
365.4815860825732
 21
244.2736991377087
 31
0.0
  0
ARC
  5
161
330
1F
100
AcDbEntity
  8
LAY-10
  6
CONTINUOUS
 62
     7
100
AcDbCircle
 10
366.4557275260498
 20
244.0477601014602
 30
0.0
 40
1.0
100
AcDbArc
 50
91.00000000000173
 51
166.9418969933833
  0
LINE
  5
162
330
1F
100
AcDbEntity
  8
LAY-10
  6
CONTINUOUS
 62
     7
100
AcDbLine
 10
642.9999999999999
 20
264.8772955817228
 30
0.0
 11
248.9999999999997
 21
258.0000000000041
 31
0.0
  0
LINE
  5
163
330
1F
100
AcDbEntity
  8
LAY-10
  6
CONTINUOUS
 62
     7
100
AcDbLine
 10
642.9999999999999
 20
264.8772955817228
 30
0.0
 11
1037.0
 21
258.0000000000039
 31
0.0
  0
LINE
  5
164
330
1F
100
AcDbEntity
  8
LAY-10
  6
CONTINUOUS
 62
     7
100
AcDbLine
 10
642.9999999999999
 20
249.8750106610642
 30
0.0
 11
885.9280745441278
 21
245.6346853470088
 31
0.0
  0
ARC
  5
165
330
1F
100
AcDbEntity
  8
LAY-10
  6
CONTINUOUS
 62
     7
100
AcDbCircle
 10
885.8408125119414
 20
240.635446871227
 30
0.0
 40
5.0
100
AcDbArc
 50
6.867657129789711
 51
88.99999999999952
  0
ARC
  5
166
330
1F
100
AcDbEntity
  8
LAY-10
  6
CONTINUOUS
 62
     7
100
AcDbCircle
 10
932.9999999999999
 20
246.3153267525399
 30
0.0
 40
42.5
100
AcDbArc
 50
186.8676571297899
 51
349.9178787267675
  0
ARC
  5
167
330
1F
100
AcDbEntity
  8
LAY-10
  6
CONTINUOUS
 62
     7
100
AcDbCircle
 10
979.7664980621649
 20
238.0
 30
0.0
 40
5.0
100
AcDbArc
 50
90.00000000000004
 51
169.9178787267676
  0
LINE
  5
168
330
1F
100
AcDbEntity
  8
LAY-10
  6
CONTINUOUS
 62
     7
100
AcDbLine
 10
1038.5
 20
243.0
 30
0.0
 11
1006.998357342738
 21
243.0
 31
0.0
  0
LINE
  5
169
330
1F
100
AcDbEntity
  8
LAY-10
  6
CONTINUOUS
 62
     7
100
AcDbLine
 10
1002.005209668965
 20
238.2616797812148
 30
0.0
 11
999.9999999999932
 21
200.0000000000005
 31
0.0
  0
ARC
  5
16A
330
1F
100
AcDbEntity
  8
LAY-10
  6
CONTINUOUS
 62
     7
100
AcDbCircle
 10
1006.998357342738
 20
238.0
 30
0.0
 40
5.0
100
AcDbArc
 50
90.00000000000004
 51
177.000000000001
  0
LINE
  5
16B
330
1F
100
AcDbEntity
  8
LAY-10
  6
CONTINUOUS
 62
     7
100
AcDbLine
 10
985.0016426572606
 20
243.0
 30
0.0
 11
979.7664980621648
 21
243.0
 31
0.0
  0
LINE
  5
16C
330
1F
100
AcDbEntity
  8
LAY-10
  6
CONTINUOUS
 62
     7
100
AcDbLine
 10
989.9947903310335
 20
238.2616797812148
 30
0.0
 11
992.0000000000053
 21
200.0000000000002
 31
0.0
  0
ARC
  5
16D
330
1F
100
AcDbEntity
  8
LAY-10
  6
CONTINUOUS
 62
     7
100
AcDbCircle
 10
985.0016426572606
 20
238.0
 30
0.0
 40
5.0
100
AcDbArc
 50
2.999999999999376
 51
90.00000000000004
  0
LINE
  5
16E
330
1F
100
AcDbEntity
  8
LAY-10
  6
CONTINUOUS
 62
     7
100
AcDbLine
 10
1025.75
 20
232.0
 30
0.0
 11
1001.67704893705
 21
232.0
 31
0.0
  0
LINE
  5
16F
330
1F
100
AcDbEntity
  8
LAY-10
  6
CONTINUOUS
 62
     7
100
AcDbLine
 10
1018.0
 20
215.0
 30
0.0
 11
1000.786116689238
 21
215.0
 31
0.0
  0
LINE
  5
170
330
1F
100
AcDbEntity
  8
LAY-10
  6
CONTINUOUS
 62
     7
100
AcDbLine
 10
1000.157223337842
 20
203.0
 30
0.0
 11
1025.23796110359
 21
203.0
 31
0.0
  0
LINE
  5
171
330
1F
100
AcDbEntity
  8
LAY-10
  6
CONTINUOUS
 62
     7
100
AcDbLine
 10
296.1014646005978
 20
240.0983332884302
 30
0.0
 11
294.0000000000006
 21
200.0000000000002
 31
0.0
  0
LINE
  5
172
330
1F
100
AcDbEntity
  8
LAY-10
  6
CONTINUOUS
 62
     7
100
AcDbLine
 10
284.1774025303527
 20
239.1858455974098
 30
0.0
 11
285.2747477768058
 21
215.5929227987004
 31
0.0
  0
LINE
  5
173
330
1F
100
AcDbEntity
  8
LAY-10
  6
CONTINUOUS
 62
     7
100
AcDbLine
 10
280.4475922206999
 20
234.5709558435401
 30
0.0
 11
284.3920485653999
 21
234.5709558435401
 31
0.0
  0
LINE
  5
174
330
1F
100
AcDbEntity
  8
LAY-10
  6
CONTINUOUS
 62
     7
100
AcDbLine
 10
281.0974486837998
 20
216.5709558435401
 30
0.0
 11
285.2292578676999
 21
216.5709558435401
 31
0.0
  0
LINE
  5
175
330
1F
100
AcDbEntity
  8
LAY-10
  6
CONTINUOUS
 62
     7
100
AcDbLine
 10
295.9690103612999
 20
237.5709558435401
 30
0.0
 11
299.5000000000083
 21
237.5709558435401
 31
0.0
  0
LINE
  5
176
330
1F
100
AcDbEntity
  8
LAY-10
  6
CONTINUOUS
 62
     7
100
AcDbLine
 10
294.7112236585
 20
213.5709558435401
 30
0.0
 11
299.5000000000083
 21
213.5709558435401
 31
0.0
  0
LINE
  5
177
330
1F
100
AcDbEntity
  8
LAY-10
  6
CONTINUOUS
 62
     7
100
AcDbLine
 10
1059.260396239159
 20
210.0
 30
0.0
 11
1222.3728292204
 21
210.0
 31
0.0
  0
LINE
  5
178
330
1F
100
AcDbEntity
  8
LAY-10
  6
CONTINUOUS
 62
     7
100
AcDbLine
 10
1054.267248565386
 20
214.7383202187855
 30
0.0
 11
1051.999999999999
 21
258.0
 31
0.0
  0
ARC
  5
179
330
1F
100
AcDbEntity
  8
LAY-10
  6
CONTINUOUS
 62
     7
100
AcDbCircle
 10
1059.260396239159
 20
215.0
 30
0.0
 40
5.0
100
AcDbArc
 50
182.9999999999994
 51
270.0000000000002
  0
LINE
  5
17A
330
1F
100
AcDbEntity
  8
LAY-10
  6
CONTINUOUS
 62
     7
100
AcDbLine
 10
1057.0
 20
248.0
 30
0.0
 11
1052.524077792829
 21
248.0
 31
0.0
  0
LINE
  5
17B
330
1F
100
AcDbEntity
  8
LAY-10
  6
CONTINUOUS
 62
     7
100
AcDbLine
 10
1161.404141939279
 20
210.0
 30
0.0
 11
1057.000000000001
 21
248.0000000000023
 31
0.0
  0
LINE
  5
17C
330
1F
100
AcDbEntity
  8
LAY-10
  6
CONTINUOUS
 62
     7
100
AcDbLine
 10
1000.15722333785
 20
200.0000000000002
 30
0.0
 11
272.9999999999994
 21
200.0000000000002
 31
0.0
  0
LINE
  5
17D
330
1F
100
AcDbEntity
  8
LAY-10
  6
CONTINUOUS
 62
     7
100
AcDbLine
 10
217.9999999999994
 20
198.0
 30
0.0
 11
1223.0
 21
198.0000000000003
 31
0.0
  0
CIRCLE
  5
17E
330
1F
100
AcDbEntity
  8
LAY-10
  6
CONTINUOUS
 62
     7
100
AcDbCircle
 10
642.9999999999999
 20
879.0000000000001
 30
0.0
 40
409.0000000000003
  0
CIRCLE
  5
17F
330
1F
100
AcDbEntity
  8
LAY-10
  6
CONTINUOUS
 62
     7
100
AcDbCircle
 10
642.9999999999999
 20
879.0000000000001
 30
0.0
 40
395.5000000000003
  0
CIRCLE
  5
180
330
1F
100
AcDbEntity
  8
LAY-10
  6
CONTINUOUS
 62
     7
100
AcDbCircle
 10
642.9999999999999
 20
879.0000000000001
 30
0.0
 40
394.0000000000003
  0
LINE
  5
181
330
1F
100
AcDbEntity
  8
LAY-10
  6
CONTINUOUS
 62
     7
100
AcDbLine
 10
949.3435663723626
 20
608.0117726869647
 30
0.0
 11
1040.928932188134
 21
516.4264068711927
 31
0.0
  0
ARC
  5
182
330
1F
100
AcDbEntity
  8
LAY-10
  6
CONTINUOUS
 62
     7
100
AcDbCircle
 10
1048.0
 20
523.4974746830583
 30
0.0
 40
10.0
100
AcDbArc
 50
225.0000000000001
 51
0.0
  0
ARC
  5
183
330
1F
100
AcDbEntity
  8
LAY-10
  6
CONTINUOUS
 62
     7
100
AcDbCircle
 10
1018.0
 20
504.0000000000002
 30
0.0
 40
50.00000000000004
100
AcDbArc
 50
270.0000000000002
 51
0.0
  0
CIRCLE
  5
184
330
1F
100
AcDbEntity
  8
LAY-10
  6
CONTINUOUS
 62
     7
100
AcDbCircle
 10
1033.0
 20
489.0000000000001
 30
0.0
 40
7.500000000000004
  0
CIRCLE
  5
185
330
1F
100
AcDbEntity
  8
LAY-10
  6
CONTINUOUS
 62
     7
100
AcDbCircle
 10
1033.0
 20
489.0000000000001
 30
0.0
 40
10.0
  0
LINE
  5
186
330
1F
100
AcDbEntity
  8
LAY-10
  6
CONTINUOUS
 62
     7
100
AcDbLine
 10
336.6564336276368
 20
608.0117726869648
 30
0.0
 11
245.0710678118652
 21
516.4264068711929
 31
0.0
  0
ARC
  5
187
330
1F
100
AcDbEntity
  8
LAY-10
  6
CONTINUOUS
 62
     7
100
AcDbCircle
 10
237.9999999999997
 20
523.4974746830584
 30
0.0
 40
10.0
100
AcDbArc
 50
180.0
 51
315.0000000000002
  0
LINE
  5
188
330
1F
100
AcDbEntity
  8
LAY-10
  6
CONTINUOUS
 62
     7
100
AcDbLine
 10
372.011772686964
 20
572.6564336276372
 30
0.0
 11
280.4264068711931
 21
481.071067811866
 31
0.0
  0
ARC
  5
189
330
1F
100
AcDbEntity
  8
LAY-10
  6
CONTINUOUS
 62
     7
100
AcDbCircle
 10
287.4974746830584
 20
474.0000000000005
 30
0.0
 40
10.0
100
AcDbArc
 50
134.9999999999996
 51
270.0000000000002
  0
ARC
  5
18A
330
1F
100
AcDbEntity
  8
LAY-10
  6
CONTINUOUS
 62
     7
100
AcDbCircle
 10
267.9999999999994
 20
504.0000000000003
 30
0.0
 40
50.00000000000004
100
AcDbArc
 50
180.0
 51
270.0000000000002
  0
CIRCLE
  5
18B
330
1F
100
AcDbEntity
  8
LAY-10
  6
CONTINUOUS
 62
     7
100
AcDbCircle
 10
252.9999999999997
 20
489.0000000000002
 30
0.0
 40
7.500000000000004
  0
CIRCLE
  5
18C
330
1F
100
AcDbEntity
  8
LAY-10
  6
CONTINUOUS
 62
     7
100
AcDbCircle
 10
252.9999999999997
 20
489.0000000000002
 30
0.0
 40
10.0
  0
LINE
  5
18D
330
1F
100
AcDbEntity
  8
LAY-10
  6
CONTINUOUS
 62
     7
100
AcDbLine
 10
267.9999999999997
 20
454.0000000000002
 30
0.0
 11
1018.0
 21
454.0000000000002
 31
0.0
  0
LINE
  5
18E
330
1F
100
AcDbEntity
  8
LAY-10
  6
CONTINUOUS
 62
     7
100
AcDbLine
 10
336.6564336276368
 20
1149.988227313036
 30
0.0
 11
245.0710678118652
 21
1241.573593128807
 31
0.0
  0
ARC
  5
18F
330
1F
100
AcDbEntity
  8
LAY-10
  6
CONTINUOUS
 62
     7
100
AcDbCircle
 10
237.9999999999997
 20
1234.502525316942
 30
0.0
 40
10.0
100
AcDbArc
 50
44.99999999999999
 51
180.0
  0
ARC
  5
190
330
1F
100
AcDbEntity
  8
LAY-10
  6
CONTINUOUS
 62
     7
100
AcDbCircle
 10
267.9999999999994
 20
1254.0
 30
0.0
 40
50.00000000000004
100
AcDbArc
 50
90.00000000000004
 51
180.0
  0
CIRCLE
  5
191
330
1F
100
AcDbEntity
  8
LAY-10
  6
CONTINUOUS
 62
     7
100
AcDbCircle
 10
252.9999999999997
 20
1269.0
 30
0.0
 40
7.500000000000004
  0
CIRCLE
  5
192
330
1F
100
AcDbEntity
  8
LAY-10
  6
CONTINUOUS
 62
     7
100
AcDbCircle
 10
252.9999999999997
 20
1269.0
 30
0.0
 40
10.0
  0
LINE
  5
193
330
1F
100
AcDbEntity
  8
LAY-10
  6
CONTINUOUS
 62
     7
100
AcDbLine
 10
949.3435663723626
 20
1149.988227313036
 30
0.0
 11
1040.928932188134
 21
1241.573593128808
 31
0.0
  0
ARC
  5
194
330
1F
100
AcDbEntity
  8
LAY-10
  6
CONTINUOUS
 62
     7
100
AcDbCircle
 10
1048.0
 20
1234.502525316942
 30
0.0
 40
10.0
100
AcDbArc
 50
0.0
 51
135.0000000000001
  0
LINE
  5
195
330
1F
100
AcDbEntity
  8
LAY-10
  6
CONTINUOUS
 62
     7
100
AcDbLine
 10
913.9882273130355
 20
1185.343566372363
 30
0.0
 11
1005.573593128806
 21
1276.928932188134
 31
0.0
  0
ARC
  5
196
330
1F
100
AcDbEntity
  8
LAY-10
  6
CONTINUOUS
 62
     7
100
AcDbCircle
 10
998.5025253169412
 20
1284.0
 30
0.0
 40
10.0
100
AcDbArc
 50
314.9999999999993
 51
90.00000000000004
  0
ARC
  5
197
330
1F
100
AcDbEntity
  8
LAY-10
  6
CONTINUOUS
 62
     7
100
AcDbCircle
 10
1018.0
 20
1254.0
 30
0.0
 40
50.00000000000004
100
AcDbArc
 50
0.0
 51
90.00000000000004
  0
CIRCLE
  5
198
330
1F
100
AcDbEntity
  8
LAY-10
  6
CONTINUOUS
 62
     7
100
AcDbCircle
 10
1033.0
 20
1269.0
 30
0.0
 40
7.500000000000004
  0
CIRCLE
  5
199
330
1F
100
AcDbEntity
  8
LAY-10
  6
CONTINUOUS
 62
     7
100
AcDbCircle
 10
1033.0
 20
1269.0
 30
0.0
 40
10.0
  0
LINE
  5
19A
330
1F
100
AcDbEntity
  8
LAY-10
  6
CONTINUOUS
 62
     7
100
AcDbLine
 10
1068.0
 20
1254.0
 30
0.0
 11
1068.0
 21
504.0000000000002
 31
0.0
  0
LINE
  5
19B
330
1F
100
AcDbEntity
  8
LAY-10
  6
CONTINUOUS
 62
     7
100
AcDbLine
 10
217.9999999999997
 20
1254.0
 30
0.0
 11
217.9999999999997
 21
504.0000000000001
 31
0.0
  0
LINE
  5
19C
330
1F
100
AcDbEntity
  8
LAY-10
  6
CONTINUOUS
 62
     7
100
AcDbLine
 10
267.9999999999997
 20
1304.0
 30
0.0
 11
1018.0
 21
1304.000000000001
 31
0.0
  0
LINE
  5
19D
330
1F
100
AcDbEntity
  8
LAY-10
  6
CONTINUOUS
 62
     7
100
AcDbLine
 10
888.3660530719663
 20
1097.4959953871
 30
0.0
 11
861.4959953871007
 21
1124.366053071966
 31
0.0
  0
LINE
  5
19E
330
1F
100
AcDbEntity
  8
LAY-10
  6
CONTINUOUS
 62
     7
100
AcDbLine
 10
838.8685783883545
 20
1101.73863607422
 30
0.0
 11
865.7386360742197
 21
1074.868578388354
 31
0.0
  0
LINE
  5
19F
330
1F
100
AcDbEntity
  8
LAY-10
  6
CONTINUOUS
 62
     7
100
AcDbLine
 10
830.3832970149813
 20
1093.253354699847
 30
0.0
 11
857.2533546998466
 21
1066.383297014981
 31
0.0
  0
LINE
  5
1A0
330
1F
100
AcDbEntity
  8
LAY-10
  6
CONTINUOUS
 62
     7
100
AcDbLine
 10
834.6259377021005
 20
1043.755880016235
 30
0.0
 11
888.3660530719663
 21
1097.4959953871
 31
0.0
  0
LINE
  5
1A1
330
1F
100
AcDbEntity
  8
LAY-10
  6
CONTINUOUS
 62
     7
100
AcDbLine
 10
861.4959953871007
 20
1124.366053071966
 30
0.0
 11
807.755880016235
 21
1070.6259377021
 31
0.0
  0
LINE
  5
1A2
330
1F
100
AcDbEntity
  8
LAY-10
  6
CONTINUOUS
 62
     7
100
AcDbLine
 10
834.6259377021005
 20
1043.755880016235
 30
0.0
 11
807.755880016235
 21
1070.6259377021
 31
0.0
  0
LINE
  5
1A3
330
1F
100
AcDbEntity
  8
LAY-10
  6
CONTINUOUS
 62
     7
100
AcDbLine
 10
811.6449673131339
 20
1074.51502499794
 30
0.0
 11
838.5150249984347
 21
1047.644967312639
 31
0.0
  0
LINE
  5
1A4
330
1F
100
AcDbEntity
  8
LAY-10
  6
CONTINUOUS
 62
     7
100
AcDbLine
 10
857.6069080902598
 20
1120.476965775066
 30
0.0
 11
884.4769657750658
 21
1093.60690809026
 31
0.0
  0
LINE
  5
1A5
330
1F
100
AcDbEntity
  8
LAY-10
  6
CONTINUOUS
 62
     7
100
AcDbLine
 10
397.6339469280339
 20
1097.4959953871
 30
0.0
 11
424.5040046128995
 21
1124.366053071966
 31
0.0
  0
LINE
  5
1A6
330
1F
100
AcDbEntity
  8
LAY-10
  6
CONTINUOUS
 62
     7
100
AcDbLine
 10
447.1314216116458
 20
1101.73863607422
 30
0.0
 11
420.2613639257805
 21
1074.868578388354
 31
0.0
  0
LINE
  5
1A7
330
1F
100
AcDbEntity
  8
LAY-10
  6
CONTINUOUS
 62
     7
100
AcDbLine
 10
455.6167029850188
 20
1093.253354699847
 30
0.0
 11
428.7466453001535
 21
1066.383297014981
 31
0.0
  0
LINE
  5
1A8
330
1F
100
AcDbEntity
  8
LAY-10
  6
CONTINUOUS
 62
     7
100
AcDbLine
 10
451.3740622978997
 20
1043.755880016235
 30
0.0
 11
397.6339469280339
 21
1097.4959953871
 31
0.0
  0
LINE
  5
1A9
330
1F
100
AcDbEntity
  8
LAY-10
  6
CONTINUOUS
 62
     7
100
AcDbLine
 10
424.5040046128995
 20
1124.366053071966
 30
0.0
 11
478.2441199837652
 21
1070.6259377021
 31
0.0
  0
LINE
  5
1AA
330
1F
100
AcDbEntity
  8
LAY-10
  6
CONTINUOUS
 62
     7
100
AcDbLine
 10
451.3740622978997
 20
1043.755880016235
 30
0.0
 11
478.2441199837652
 21
1070.6259377021
 31
0.0
  0
LINE
  5
1AB
330
1F
100
AcDbEntity
  8
LAY-10
  6
CONTINUOUS
 62
     7
100
AcDbLine
 10
474.3550326868664
 20
1074.51502499794
 30
0.0
 11
447.4849750015654
 21
1047.644967312639
 31
0.0
  0
LINE
  5
1AC
330
1F
100
AcDbEntity
  8
LAY-10
  6
CONTINUOUS
 62
     7
100
AcDbLine
 10
428.3930919097403
 20
1120.476965775066
 30
0.0
 11
401.5230342249346
 21
1093.60690809026
 31
0.0
  0
LINE
  5
1AD
330
1F
100
AcDbEntity
  8
LAY-10
  6
CONTINUOUS
 62
     7
100
AcDbLine
 10
888.3660530719663
 20
660.5040046129002
 30
0.0
 11
861.4959953871007
 21
633.6339469280347
 31
0.0
  0
LINE
  5
1AE
330
1F
100
AcDbEntity
  8
LAY-10
  6
CONTINUOUS
 62
     7
100
AcDbLine
 10
838.8685783883545
 20
656.2613639257805
 30
0.0
 11
865.7386360742197
 21
683.1314216116461
 31
0.0
  0
LINE
  5
1AF
330
1F
100
AcDbEntity
  8
LAY-10
  6
CONTINUOUS
 62
     7
100
AcDbLine
 10
830.3832970149813
 20
664.7466453001539
 30
0.0
 11
857.2533546998466
 21
691.6167029850192
 31
0.0
  0
LINE
  5
1B0
330
1F
100
AcDbEntity
  8
LAY-10
  6
CONTINUOUS
 62
     7
100
AcDbLine
 10
834.6259377021005
 20
714.2441199837654
 30
0.0
 11
888.3660530719663
 21
660.5040046129002
 31
0.0
  0
LINE
  5
1B1
330
1F
100
AcDbEntity
  8
LAY-10
  6
CONTINUOUS
 62
     7
100
AcDbLine
 10
861.4959953871007
 20
633.6339469280347
 30
0.0
 11
807.755880016235
 21
687.3740622979001
 31
0.0
  0
LINE
  5
1B2
330
1F
100
AcDbEntity
  8
LAY-10
  6
CONTINUOUS
 62
     7
100
AcDbLine
 10
834.6259377021005
 20
714.2441199837654
 30
0.0
 11
807.755880016235
 21
687.3740622979001
 31
0.0
  0
LINE
  5
1B3
330
1F
100
AcDbEntity
  8
LAY-10
  6
CONTINUOUS
 62
     7
100
AcDbLine
 10
811.6449673131339
 20
683.4849750020604
 30
0.0
 11
838.5150249984347
 21
710.3550326873611
 31
0.0
  0
LINE
  5
1B4
330
1F
100
AcDbEntity
  8
LAY-10
  6
CONTINUOUS
 62
     7
100
AcDbLine
 10
857.6069080902598
 20
637.5230342249345
 30
0.0
 11
884.4769657750658
 21
664.3930919097404
 31
0.0
  0
LINE
  5
1B5
330
1F
100
AcDbEntity
  8
LAY-10
  6
CONTINUOUS
 62
     7
100
AcDbLine
 10
397.6339469280339
 20
660.5040046129001
 30
0.0
 11
424.5040046128995
 21
633.6339469280346
 31
0.0
  0
LINE
  5
1B6
330
1F
100
AcDbEntity
  8
LAY-10
  6
CONTINUOUS
 62
     7
100
AcDbLine
 10
447.1314216116458
 20
656.2613639257805
 30
0.0
 11
420.2613639257805
 21
683.131421611646
 31
0.0
  0
LINE
  5
1B7
330
1F
100
AcDbEntity
  8
LAY-10
  6
CONTINUOUS
 62
     7
100
AcDbLine
 10
455.6167029850188
 20
664.7466453001537
 30
0.0
 11
428.7466453001535
 21
691.616702985019
 31
0.0
  0
LINE
  5
1B8
330
1F
100
AcDbEntity
  8
LAY-10
  6
CONTINUOUS
 62
     7
100
AcDbLine
 10
451.3740622978997
 20
714.2441199837652
 30
0.0
 11
397.6339469280339
 21
660.5040046129001
 31
0.0
  0
LINE
  5
1B9
330
1F
100
AcDbEntity
  8
LAY-10
  6
CONTINUOUS
 62
     7
100
AcDbLine
 10
424.5040046128995
 20
633.6339469280346
 30
0.0
 11
478.2441199837652
 21
687.3740622979
 31
0.0
  0
LINE
  5
1BA
330
1F
100
AcDbEntity
  8
LAY-10
  6
CONTINUOUS
 62
     7
100
AcDbLine
 10
451.3740622978997
 20
714.2441199837652
 30
0.0
 11
478.2441199837652
 21
687.3740622979
 31
0.0
  0
LINE
  5
1BB
330
1F
100
AcDbEntity
  8
LAY-10
  6
CONTINUOUS
 62
     7
100
AcDbLine
 10
474.3550326868664
 20
683.4849750020604
 30
0.0
 11
447.4849750015654
 21
710.3550326873611
 31
0.0
  0
LINE
  5
1BC
330
1F
100
AcDbEntity
  8
LAY-10
  6
CONTINUOUS
 62
     7
100
AcDbLine
 10
428.3930919097403
 20
637.5230342249343
 30
0.0
 11
401.5230342249346
 21
664.3930919097403
 31
0.0
  0
LINE
  5
1BD
330
1F
100
AcDbEntity
  8
LAY-10
  6
CONTINUOUS
 62
     7
100
AcDbLine
 10
287.4974746831
 20
464.0000000000003
 30
0.0
 11
558.0000000000003
 21
464.0000000000003
 31
0.0
  0
LINE
  5
1BE
330
1F
100
AcDbEntity
  8
LAY-10
  6
CONTINUOUS
 62
     7
100
AcDbLine
 10
568.0000000000003
 20
474.0000000000003
 30
0.0
 11
568.0000000000003
 21
476.9353285850644
 31
0.0
  0
ARC
  5
1BF
330
1F
100
AcDbEntity
  8
LAY-10
  6
CONTINUOUS
 62
     7
100
AcDbCircle
 10
558.0000000000003
 20
474.0000000000003
 30
0.0
 40
10.0
100
AcDbArc
 50
270.0000000000002
 51
0.0
  0
LINE
  5
1C0
330
1F
100
AcDbEntity
  8
LAY-10
  6
CONTINUOUS
 62
     7
100
AcDbLine
 10
718.0000000000001
 20
474.0000000000003
 30
0.0
 11
718.0000000000001
 21
476.9353285850644
 31
0.0
  0
ARC
  5
1C1
330
1F
100
AcDbEntity
  8
LAY-10
  6
CONTINUOUS
 62
     7
100
AcDbCircle
 10
728.0000000000001
 20
474.0000000000003
 30
0.0
 40
10.0
100
AcDbArc
 50
180.0
 51
270.0000000000002
  0
LINE
  5
1C2
330
1F
100
AcDbEntity
  8
LAY-10
  6
CONTINUOUS
 62
     7
100
AcDbLine
 10
568.0000000000003
 20
1284.0
 30
0.0
 11
568.0000000000003
 21
1281.064671414936
 31
0.0
  0
ARC
  5
1C3
330
1F
100
AcDbEntity
  8
LAY-10
  6
CONTINUOUS
 62
     7
100
AcDbCircle
 10
558.0000000000003
 20
1284.0
 30
0.0
 40
10.0
100
AcDbArc
 50
0.0
 51
90.00000000000004
  0
LINE
  5
1C4
330
1F
100
AcDbEntity
  8
LAY-10
  6
CONTINUOUS
 62
     7
100
AcDbLine
 10
718.0000000000001
 20
1284.0
 30
0.0
 11
718.0000000000001
 21
1281.064671414936
 31
0.0
  0
ARC
  5
1C5
330
1F
100
AcDbEntity
  8
LAY-10
  6
CONTINUOUS
 62
     7
100
AcDbCircle
 10
728.0000000000001
 20
1284.0
 30
0.0
 40
10.0
100
AcDbArc
 50
90.00000000000004
 51
180.0
  0
LINE
  5
1C6
330
1F
100
AcDbEntity
  8
LAY-10
  6
CONTINUOUS
 62
     7
100
AcDbLine
 10
238.0000000000001
 20
804.0000000000006
 30
0.0
 11
240.9353285850642
 21
804.0000000000006
 31
0.0
  0
ARC
  5
1C7
330
1F
100
AcDbEntity
  8
LAY-10
  6
CONTINUOUS
 62
     7
100
AcDbCircle
 10
238.0000000000001
 20
794.0000000000006
 30
0.0
 40
10.0
100
AcDbArc
 50
90.00000000000004
 51
180.0000000000002
  0
LINE
  5
1C8
330
1F
100
AcDbEntity
  8
LAY-10
  6
CONTINUOUS
 62
     7
100
AcDbLine
 10
238.0000000000001
 20
954.0000000000003
 30
0.0
 11
240.9353285850642
 21
954.0000000000003
 31
0.0
  0
ARC
  5
1C9
330
1F
100
AcDbEntity
  8
LAY-10
  6
CONTINUOUS
 62
     7
100
AcDbCircle
 10
238.0000000000001
 20
964.0000000000003
 30
0.0
 40
10.0
100
AcDbArc
 50
180.0000000000002
 51
270.0000000000002
  0
LINE
  5
1CA
330
1F
100
AcDbEntity
  8
LAY-10
  6
CONTINUOUS
 62
     7
100
AcDbLine
 10
1048.0
 20
953.9999999999998
 30
0.0
 11
1045.064671414936
 21
953.9999999999998
 31
0.0
  0
ARC
  5
1CB
330
1F
100
AcDbEntity
  8
LAY-10
  6
CONTINUOUS
 62
     7
100
AcDbCircle
 10
1048.0
 20
963.9999999999998
 30
0.0
 40
10.0
100
AcDbArc
 50
270.0000000000002
 51
0.0000000000000573
  0
LINE
  5
1CC
330
1F
100
AcDbEntity
  8
LAY-10
  6
CONTINUOUS
 62
     7
100
AcDbLine
 10
1048.0
 20
803.9999999999999
 30
0.0
 11
1045.064671414936
 21
803.9999999999999
 31
0.0
  0
ARC
  5
1CD
330
1F
100
AcDbEntity
  8
LAY-10
  6
CONTINUOUS
 62
     7
100
AcDbCircle
 10
1048.0
 20
793.9999999999999
 30
0.0
 40
10.0
100
AcDbArc
 50
0.0000000000000573
 51
90.00000000000004
  0
LINE
  5
1CE
330
1F
100
AcDbEntity
  8
LAY-10
  6
CONTINUOUS
 62
     7
100
AcDbLine
 10
998.5025253169398
 20
1294.0
 30
0.0
 11
728.0000000000001
 21
1294.0
 31
0.0
  0
LINE
  5
1CF
330
1F
100
AcDbEntity
  8
LAY-10
  6
CONTINUOUS
 62
     7
100
AcDbLine
 10
227.9999999999997
 20
1234.5025253169
 30
0.0
 11
227.9999999999994
 21
964.0000000000003
 31
0.0
  0
LINE
  5
1D0
330
1F
100
AcDbEntity
  8
LAY-10
  6
CONTINUOUS
 62
     7
100
AcDbLine
 10
227.9999999999992
 20
794.0000000000006
 30
0.0
 11
227.999999999999
 21
523.4974746830601
 31
0.0
  0
LINE
  5
1D1
330
1F
100
AcDbEntity
  8
LAY-10
  6
CONTINUOUS
 62
     7
100
AcDbLine
 10
1058.0
 20
963.9999999999998
 30
0.0
 11
1058.0
 21
1234.5025253169
 31
0.0
  0
LINE
  5
1D2
330
1F
100
AcDbEntity
  8
LAY-10
  6
CONTINUOUS
 62
     7
100
AcDbLine
 10
1058.0
 20
523.4974746830583
 30
0.0
 11
1058.0
 21
793.9999999999999
 31
0.0
  0
TEXT
  5
1D3
330
1F
100
AcDbEntity
  8
LAY-10
  6
CONTINUOUS
 62
     7
100
AcDbText
 10
832.8037151846978
 20
560.3510053678206
 30
0.0
 40
9.3543312
  1
Ｓ
 50
31.6732831415
 41
1.2
  7
EXCADSTD
100
AcDbText
  0
TEXT
  5
1D4
330
1F
100
AcDbEntity
  8
LAY-10
  6
CONTINUOUS
 62
     7
100
AcDbText
 10
843.7080069982252
 20
566.1711127817467
 30
0.0
 40
9.3543312
  1
Ｆ
 50
33.48783107169999
 41
1.2
  7
EXCADSTD
100
AcDbText
  0
TEXT
  5
1D5
330
1F
100
AcDbEntity
  8
LAY-10
  6
CONTINUOUS
 62
     7
100
AcDbText
 10
853.4820598432801
 20
572.6613397793573
 30
0.0
 40
9.3543312
  1
－
 50
35.30237900179999
 41
1.2
  7
EXCADSTD
100
AcDbText
  0
TEXT
  5
1D6
330
1F
100
AcDbEntity
  8
LAY-10
  6
CONTINUOUS
 62
     7
100
AcDbText
 10
863.0464196685692
 20
579.4568465394125
 30
0.0
 40
9.3543312
  1
７
 50
37.11692693200003
 41
1.2
  7
EXCADSTD
100
AcDbText
  0
TEXT
  5
1D7
330
1F
100
AcDbEntity
  8
LAY-10
  6
CONTINUOUS
 62
     7
100
AcDbText
 10
872.3915547527429
 20
586.5508636433975
 30
0.0
 40
9.3543312
  1
５
 50
38.93147486220002
 41
1.2
  7
EXCADSTD
100
AcDbText
  0
TEXT
  5
1D8
330
1F
100
AcDbEntity
  8
LAY-10
  6
CONTINUOUS
 62
     7
100
AcDbText
 10
881.508151735491
 20
593.9363241713777
 30
0.0
 40
9.3543312
  1
Ｌ
 50
40.74602279230002
 41
1.2
  7
EXCADSTD
100
AcDbText
  0
TEXT
  5
1D9
330
1F
100
AcDbEntity
  8
LAY-10
  6
CONTINUOUS
 62
     7
100
AcDbText
 10
890.3871248995798
 20
601.6058707402794
 30
0.0
 40
9.3543312
  1
Ａ
 50
42.56057072250001
 41
1.2
  7
EXCADSTD
100
AcDbText
  0
TEXT
  5
1DA
330
1F
100
AcDbEntity
  8
LAY-10
  6
CONTINUOUS
 62
     7
100
AcDbText
 10
387.8227046330539
 20
608.4922179114423
 30
0.0
 40
9.3543312
  1
Ｐ
 50
317.5821211631002
 41
1.2
  7
EXCADSTD
100
AcDbText
  0
TEXT
  5
1DB
330
1F
100
AcDbEntity
  8
LAY-10
  6
CONTINUOUS
 62
     7
100
AcDbText
 10
397.5274304114092
 20
599.8829396669424
 30
0.0
 40
9.3543312
  1
Ａ
 50
319.6983562439
 41
1.2
  7
EXCADSTD
100
AcDbText
  0
TEXT
  5
1DC
330
1F
100
AcDbEntity
  8
LAY-10
  6
CONTINUOUS
 62
     7
100
AcDbText
 10
407.9920879210791
 20
591.0164156051026
 30
0.0
 40
9.3543312
  1
Ｔ
 50
321.8145913251
 41
1.2
  7
EXCADSTD
100
AcDbText
  0
TEXT
  5
1DD
330
1F
100
AcDbEntity
  8
LAY-10
  6
CONTINUOUS
 62
     7
100
AcDbText
 10
418.7767445491876
 20
582.542004355106
 30
0.0
 40
9.3543312
  1
Ｅ
 50
323.9308264059001
 41
1.2
  7
EXCADSTD
100
AcDbText
  0
TEXT
  5
1DE
330
1F
100
AcDbEntity
  8
LAY-10
  6
CONTINUOUS
 62
     7
100
AcDbText
 10
429.8667160416712
 20
574.4712450408725
 30
0.0
 40
9.3543312
  1
Ｎ
 50
326.0470614870001
 41
1.2
  7
EXCADSTD
100
AcDbText
  0
TEXT
  5
1DF
330
1F
100
AcDbEntity
  8
LAY-10
  6
CONTINUOUS
 62
     7
100
AcDbText
 10
441.2469024179543
 20
566.815127176526
 30
0.0
 40
9.3543312
  1
Ｔ
 50
328.1632965681002
 41
1.2
  7
EXCADSTD
100
AcDbText
  0
TEXT
  5
1E0
330
1F
100
AcDbEntity
  8
LAY-10
  6
CONTINUOUS
 62
     7
100
AcDbText
 10
489.3544129164532
 20
540.5368078721402
 30
0.0
 40
9.3543312
  1
Ｆ
 50
336.6282368923
 41
1.2
  7
EXCADSTD
100
AcDbText
  0
TEXT
  5
1E1
330
1F
100
AcDbEntity
  8
LAY-10
  6
CONTINUOUS
 62
     7
100
AcDbText
 10
501.946092098572
 20
535.0984997545054
 30
0.0
 40
9.3543312
  1
Ｕ
 50
338.7444719732002
 41
1.2
  7
EXCADSTD
100
AcDbText
  0
TEXT
  5
1E2
330
1F
100
AcDbEntity
  8
LAY-10
  6
CONTINUOUS
 62
     7
100
AcDbText
 10
514.7298434234756
 20
530.1284452672538
 30
0.0
 40
9.3543312
  1
Ｋ
 50
340.8607070544
 41
1.2
  7
EXCADSTD
100
AcDbText
  0
TEXT
  5
1E3
330
1F
100
AcDbEntity
  8
LAY-10
  6
CONTINUOUS
 62
     7
100
AcDbText
 10
527.6882605901332
 20
525.6334120165141
 30
0.0
 40
9.3543312
  1
Ｕ
 50
342.9769421353001
 41
1.2
  7
EXCADSTD
100
AcDbText
  0
TEXT
  5
1E4
330
1F
100
AcDbEntity
  8
LAY-10
  6
CONTINUOUS
 62
     7
100
AcDbText
 10
540.8036994621446
 20
521.6195208201827
 30
0.0
 40
9.3543312
  1
Ｎ
 50
345.0931772164001
 41
1.2
  7
EXCADSTD
100
AcDbText
  0
TEXT
  5
1E5
330
1F
100
AcDbEntity
  8
LAY-10
  6
CONTINUOUS
 62
     7
100
AcDbText
 10
554.0583020925282
 20
518.0922373737709
 30
0.0
 40
9.3543312
  1
Ｉ
 50
347.2094122974001
 41
1.2
  7
EXCADSTD
100
AcDbText
  0
TEXT
  5
1E6
330
1F
100
AcDbEntity
  8
LAY-10
  6
CONTINUOUS
 62
     7
100
AcDbText
 10
567.4340210387523
 20
515.0563648079806
 30
0.0
 40
9.3543312
  1
Ｓ
 50
349.3256473785
 41
1.2
  7
EXCADSTD
100
AcDbText
  0
TEXT
  5
1E7
330
1F
100
AcDbEntity
  8
LAY-10
  6
CONTINUOUS
 62
     7
100
AcDbText
 10
580.9126439364612
 20
512.5160371486185
 30
0.0
 40
9.3543312
  1
Ｈ
 50
351.4418824595
 41
1.2
  7
EXCADSTD
100
AcDbText
  0
TEXT
  5
1E8
330
1F
100
AcDbEntity
  8
LAY-10
  6
CONTINUOUS
 62
     7
100
AcDbText
 10
594.4758182971934
 20
510.474713687441
 30
0.0
 40
9.3543312
  1
Ｉ
 50
353.5581175405003
 41
1.2
  7
EXCADSTD
100
AcDbText
  0
TEXT
  5
1E9
330
1F
100
AcDbEntity
  8
LAY-10
  6
CONTINUOUS
 62
     7
100
AcDbText
 10
621.7818609232793
 20
507.8995155192992
 30
0.0
 40
9.3543312
  1
Ｆ
 50
357.7905877026002
 41
1.2
  7
EXCADSTD
100
AcDbText
  0
TEXT
  5
1EA
330
1F
100
AcDbEntity
  8
LAY-10
  6
CONTINUOUS
 62
     7
100
AcDbText
 10
635.4875492401849
 20
507.369147963022
 30
0.0
 40
9.3543312
  1
Ｏ
 50
359.9068227836001
 41
1.2
  7
EXCADSTD
100
AcDbText
  0
TEXT
  5
1EB
330
1F
100
AcDbEntity
  8
LAY-10
  6
CONTINUOUS
 62
     7
100
AcDbText
 10
649.2034797471914
 20
507.3447941305221
 30
0.0
 40
9.3543312
  1
Ｕ
 50
2.023057864600021
 41
1.2
  7
EXCADSTD
100
AcDbText
  0
TEXT
  5
1EC
330
1F
100
AcDbEntity
  8
LAY-10
  6
CONTINUOUS
 62
     7
100
AcDbText
 10
662.9109767883734
 20
507.8264875598925
 30
0.0
 40
9.3543312
  1
Ｎ
 50
4.139292945700007
 41
1.2
  7
EXCADSTD
100
AcDbText
  0
TEXT
  5
1ED
330
1F
100
AcDbEntity
  8
LAY-10
  6
CONTINUOUS
 62
     7
100
AcDbText
 10
676.5913761805018
 20
508.8135727539452
 30
0.0
 40
9.3543312
  1
Ｄ
 50
6.255528026799996
 41
1.2
  7
EXCADSTD
100
AcDbText
  0
TEXT
  5
1EE
330
1F
100
AcDbEntity
  8
LAY-10
  6
CONTINUOUS
 62
     7
100
AcDbText
 10
690.2260506266117
 20
510.3047060724357
 30
0.0
 40
9.3543312
  1
Ｒ
 50
8.371763107700021
 41
1.2
  7
EXCADSTD
100
AcDbText
  0
TEXT
  5
1EF
330
1F
100
AcDbEntity
  8
LAY-10
  6
CONTINUOUS
 62
     7
100
AcDbText
 10
703.7964350793994
 20
512.2978575613641
 30
0.0
 40
9.3543312
  1
Ｙ
 50
10.48799818870003
 41
1.2
  7
EXCADSTD
100
AcDbText
  0
TEXT
  5
1F0
330
1F
100
AcDbEntity
  8
LAY-10
  6
CONTINUOUS
 62
     7
100
AcDbText
 10
730.6705366107224
 20
517.7786811792176
 30
0.0
 40
9.3543312
  1
Ｃ
 50
14.72046835090001
 41
1.2
  7
EXCADSTD
100
AcDbText
  0
TEXT
  5
1F1
330
1F
100
AcDbEntity
  8
LAY-10
  6
CONTINUOUS
 62
     7
100
AcDbText
 10
743.9376617141995
 20
521.2588913539471
 30
0.0
 40
9.3543312
  1
Ｏ
 50
16.83670343199999
 41
1.2
  7
EXCADSTD
100
AcDbText
  0
TEXT
  5
1F2
330
1F
100
AcDbEntity
  8
LAY-10
  6
CONTINUOUS
 62
     7
100
AcDbText
 10
795.4542269832033
 20
539.9934897217225
 30
0.0
 40
9.3543312
  1
Ｄ
 50
25.30164375589998
 41
1.2
  7
EXCADSTD
100
AcDbText
  0
TEXT
  5
1F3
330
1F
100
AcDbEntity
  8
LAY-10
  6
CONTINUOUS
 62
     7
100
AcDbText
 10
808.1265500226642
 20
546.9516896695884
 30
0.0
 40
9.3543312
  1
．
 50
27.4178788371
 41
1.2
  7
EXCADSTD
100
AcDbText
  0
TEXT
  5
1F4
330
1F
100
AcDbEntity
  8
LAY-10
  6
CONTINUOUS
 62
     7
100
AcDbText
 10
782.8431936554011
 20
534.5998863800024
 30
0.0
 40
9.3543312
  1
Ｔ
 50
23.18540867500001
 41
1.2
  7
EXCADSTD
100
AcDbText
  0
TEXT
  5
1F5
330
1F
100
AcDbEntity
  8
LAY-10
  6
CONTINUOUS
 62
     7
100
AcDbText
 10
770.0417620361957
 20
529.6752234340023
 30
0.0
 40
9.3543312
  1
Ｌ
 50
21.06917359409999
 41
1.2
  7
EXCADSTD
100
AcDbText
  0
TEXT
  5
1F6
330
1F
100
AcDbEntity
  8
LAY-10
  6
CONTINUOUS
 62
     7
100
AcDbText
 10
757.8716966634843
 20
525.5024215628591
 30
0.0
 40
9.3543312
  1
.,
 50
18.95293851279997
 41
0.626768
  7
EXCADSTD
100
AcDbText
  0
TEXT
  5
1F7
330
1F
100
AcDbEntity
  8
LAY-10
  6
CONTINUOUS
 62
     7
100
AcDbText
 10
717.2840520187222
 20
514.7903137167727
 30
0.0
 40
9.3543312
  1
．
 50
12.60423326980001
 41
1.2
  7
EXCADSTD
100
AcDbText
  0
TEXT
  5
1F8
330
1F
100
AcDbEntity
  8
LAY-10
  6
CONTINUOUS
 62
     7
100
AcDbText
 10
466.3228774309993
 20
554.9119963358668
 30
0.0
 40
5.4566932
  1
ＳＦ
 50
332.3957667302001
 41
1.026785714285714
  7
EXCADSTD
100
AcDbText
  0
TEXT
  5
1F9
330
1F
100
AcDbEntity
  8
LAY-10
  6
CONTINUOUS
 62
     7
100
AcDbText
 10
586.7785174437045
 20
1246.881831095661
 30
0.0
 40
9.3543312
  1
Ｏ
 50
7.780622024100024
 41
1.2
  7
EXCADSTD
100
AcDbText
  0
TEXT
  5
1FA
330
1F
100
AcDbEntity
  8
LAY-10
  6
CONTINUOUS
 62
     7
100
AcDbText
 10
598.7982033950709
 20
1248.518065644202
 30
0.0
 40
9.3543312
  1
Ｐ
 50
5.91932675200001
 41
1.2
  7
EXCADSTD
100
AcDbText
  0
TEXT
  5
1FB
330
1F
100
AcDbEntity
  8
LAY-10
  6
CONTINUOUS
 62
     7
100
AcDbText
 10
610.8648196881734
 20
1249.761692564166
 30
0.0
 40
9.3543312
  1
Ｅ
 50
4.058031479999976
 41
1.2
  7
EXCADSTD
100
AcDbText
  0
TEXT
  5
1FC
330
1F
100
AcDbEntity
  8
LAY-10
  6
CONTINUOUS
 62
     7
100
AcDbText
 10
622.9655458523662
 20
1250.611390939446
 30
0.0
 40
9.3543312
  1
Ｎ
 50
2.196736208699983
 41
1.2
  7
EXCADSTD
100
AcDbText
  0
LINE
  5
1FD
330
1F
100
AcDbEntity
  8
LAY-10
  6
CONTINUOUS
 62
     7
100
AcDbLine
 10
460.5664504538337
 20
829.5025253169251
 30
0.0
 11
464.8090911409523
 21
825.2598846298065
 31
0.0
  0
LINE
  5
1FE
330
1F
100
AcDbEntity
  8
LAY-10
  6
CONTINUOUS
 62
     7
100
AcDbLine
 10
464.8090911409523
 20
825.2598846298065
 30
0.0
 11
494.507575950788
 21
854.9583694396415
 31
0.0
  0
LINE
  5
1FF
330
1F
100
AcDbEntity
  8
LAY-10
  6
CONTINUOUS
 62
     7
100
AcDbLine
 10
494.507575950788
 20
854.9583694396415
 30
0.0
 11
500.16443020028
 21
849.3015151901488
 31
0.0
  0
LINE
  5
200
330
1F
100
AcDbEntity
  8
LAY-10
  6
CONTINUOUS
 62
     7
100
AcDbLine
 10
500.16443020028
 20
849.3015151901488
 30
0.0
 11
470.465945390445
 21
819.6030303803138
 31
0.0
  0
LINE
  5
201
330
1F
100
AcDbEntity
  8
LAY-10
  6
CONTINUOUS
 62
     7
100
AcDbLine
 10
470.465945390445
 20
819.6030303803138
 30
0.0
 11
474.7085860775643
 21
815.3603896931944
 31
0.0
  0
LINE
  5
202
330
1F
100
AcDbEntity
  8
LAY-10
  6
CONTINUOUS
 62
     7
100
AcDbLine
 10
474.7085860775643
 20
815.3603896931944
 30
0.0
 11
508.6497115745179
 21
849.3015151901477
 31
0.0
  0
LINE
  5
203
330
1F
100
AcDbEntity
  8
LAY-10
  6
CONTINUOUS
 62
     7
100
AcDbLine
 10
508.6497115745179
 20
849.3015151901477
 30
0.0
 11
494.5075759507869
 21
863.4436508138782
 31
0.0
  0
LINE
  5
204
330
1F
100
AcDbEntity
  8
LAY-10
  6
CONTINUOUS
 62
     7
100
AcDbLine
 10
494.5075759507869
 20
863.4436508138782
 30
0.0
 11
460.5664504538337
 21
829.5025253169251
 31
0.0
  0
LINE
  5
205
330
1F
100
AcDbEntity
  8
LAY-10
  6
CONTINUOUS
 62
     7
100
AcDbLine
 10
460.5664504538337
 20
789.9045455704751
 30
0.0
 11
464.8090911409523
 21
785.6619048833564
 31
0.0
  0
LINE
  5
206
330
1F
100
AcDbEntity
  8
LAY-10
  6
CONTINUOUS
 62
     7
100
AcDbLine
 10
464.8090911409523
 20
785.6619048833564
 30
0.0
 11
494.507575950788
 21
815.3603896931915
 31
0.0
  0
LINE
  5
207
330
1F
100
AcDbEntity
  8
LAY-10
  6
CONTINUOUS
 62
     7
100
AcDbLine
 10
494.507575950788
 20
815.3603896931915
 30
0.0
 11
500.16443020028
 21
809.7035354436988
 31
0.0
  0
LINE
  5
208
330
1F
100
AcDbEntity
  8
LAY-10
  6
CONTINUOUS
 62
     7
100
AcDbLine
 10
500.16443020028
 20
809.7035354436988
 30
0.0
 11
470.465945390445
 21
780.0050506338638
 31
0.0
  0
LINE
  5
209
330
1F
100
AcDbEntity
  8
LAY-10
  6
CONTINUOUS
 62
     7
100
AcDbLine
 10
470.465945390445
 20
780.0050506338638
 30
0.0
 11
474.7085860775643
 21
775.7624099467444
 31
0.0
  0
LINE
  5
20A
330
1F
100
AcDbEntity
  8
LAY-10
  6
CONTINUOUS
 62
     7
100
AcDbLine
 10
474.7085860775643
 20
775.7624099467444
 30
0.0
 11
508.6497115745179
 21
809.7035354436977
 31
0.0
  0
LINE
  5
20B
330
1F
100
AcDbEntity
  8
LAY-10
  6
CONTINUOUS
 62
     7
100
AcDbLine
 10
508.6497115745179
 20
809.7035354436977
 30
0.0
 11
494.5075759507869
 21
823.8456710674283
 31
0.0
  0
LINE
  5
20C
330
1F
100
AcDbEntity
  8
LAY-10
  6
CONTINUOUS
 62
     7
100
AcDbLine
 10
494.5075759507869
 20
823.8456710674283
 30
0.0
 11
460.5664504538337
 21
789.9045455704751
 31
0.0
  0
LINE
  5
20D
330
1F
100
AcDbEntity
  8
LAY-10
  6
CONTINUOUS
 62
     7
100
AcDbLine
 10
460.5664504538337
 20
869.1005050633752
 30
0.0
 11
464.8090911409523
 21
864.8578643762565
 31
0.0
  0
LINE
  5
20E
330
1F
100
AcDbEntity
  8
LAY-10
  6
CONTINUOUS
 62
     7
100
AcDbLine
 10
464.8090911409523
 20
864.8578643762565
 30
0.0
 11
494.507575950788
 21
894.5563491860916
 31
0.0
  0
LINE
  5
20F
330
1F
100
AcDbEntity
  8
LAY-10
  6
CONTINUOUS
 62
     7
100
AcDbLine
 10
494.507575950788
 20
894.5563491860916
 30
0.0
 11
500.16443020028
 21
888.8994949365989
 31
0.0
  0
LINE
  5
210
330
1F
100
AcDbEntity
  8
LAY-10
  6
CONTINUOUS
 62
     7
100
AcDbLine
 10
500.16443020028
 20
888.8994949365989
 30
0.0
 11
470.465945390445
 21
859.2010101267639
 31
0.0
  0
LINE
  5
211
330
1F
100
AcDbEntity
  8
LAY-10
  6
CONTINUOUS
 62
     7
100
AcDbLine
 10
470.465945390445
 20
859.2010101267639
 30
0.0
 11
474.7085860775643
 21
854.9583694396443
 31
0.0
  0
LINE
  5
212
330
1F
100
AcDbEntity
  8
LAY-10
  6
CONTINUOUS
 62
     7
100
AcDbLine
 10
474.7085860775643
 20
854.9583694396443
 30
0.0
 11
508.6497115745179
 21
888.8994949365978
 31
0.0
  0
LINE
  5
213
330
1F
100
AcDbEntity
  8
LAY-10
  6
CONTINUOUS
 62
     7
100
AcDbLine
 10
508.6497115745179
 20
888.8994949365978
 30
0.0
 11
494.5075759507869
 21
903.0416305603281
 31
0.0
  0
LINE
  5
214
330
1F
100
AcDbEntity
  8
LAY-10
  6
CONTINUOUS
 62
     7
100
AcDbLine
 10
494.5075759507869
 20
903.0416305603281
 30
0.0
 11
460.5664504538337
 21
869.1005050633752
 31
0.0
  0
LINE
  5
215
330
1F
100
AcDbEntity
  8
LAY-10
  6
CONTINUOUS
 62
     7
100
AcDbLine
 10
460.5664504538337
 20
908.6984848098251
 30
0.0
 11
464.8090911409523
 21
904.4558441227065
 31
0.0
  0
LINE
  5
216
330
1F
100
AcDbEntity
  8
LAY-10
  6
CONTINUOUS
 62
     7
100
AcDbLine
 10
464.8090911409523
 20
904.4558441227065
 30
0.0
 11
494.507575950788
 21
934.1543289325415
 31
0.0
  0
LINE
  5
217
330
1F
100
AcDbEntity
  8
LAY-10
  6
CONTINUOUS
 62
     7
100
AcDbLine
 10
494.507575950788
 20
934.1543289325415
 30
0.0
 11
500.16443020028
 21
928.4974746830488
 31
0.0
  0
LINE
  5
218
330
1F
100
AcDbEntity
  8
LAY-10
  6
CONTINUOUS
 62
     7
100
AcDbLine
 10
500.16443020028
 20
928.4974746830488
 30
0.0
 11
470.465945390445
 21
898.7989898732138
 31
0.0
  0
LINE
  5
219
330
1F
100
AcDbEntity
  8
LAY-10
  6
CONTINUOUS
 62
     7
100
AcDbLine
 10
470.465945390445
 20
898.7989898732138
 30
0.0
 11
474.7085860775643
 21
894.5563491860943
 31
0.0
  0
LINE
  5
21A
330
1F
100
AcDbEntity
  8
LAY-10
  6
CONTINUOUS
 62
     7
100
AcDbLine
 10
474.7085860775643
 20
894.5563491860943
 30
0.0
 11
508.6497115745179
 21
928.4974746830477
 31
0.0
  0
LINE
  5
21B
330
1F
100
AcDbEntity
  8
LAY-10
  6
CONTINUOUS
 62
     7
100
AcDbLine
 10
508.6497115745179
 20
928.4974746830477
 30
0.0
 11
494.5075759507869
 21
942.6396103067782
 31
0.0
  0
LINE
  5
21C
330
1F
100
AcDbEntity
  8
LAY-10
  6
CONTINUOUS
 62
     7
100
AcDbLine
 10
494.5075759507869
 20
942.6396103067782
 30
0.0
 11
460.5664504538337
 21
908.6984848098251
 31
0.0
  0
LINE
  5
21D
330
1F
100
AcDbEntity
  8
LAY-10
  6
CONTINUOUS
 62
     7
100
AcDbLine
 10
435.110606331115
 20
922.840620433526
 30
0.0
 11
430.8679656439959
 21
918.5979797464074
 31
0.0
  0
LINE
  5
21E
330
1F
100
AcDbEntity
  8
LAY-10
  6
CONTINUOUS
 62
     7
100
AcDbLine
 10
430.8679656439959
 20
918.5979797464074
 30
0.0
 11
460.566450453831
 21
888.8994949365721
 31
0.0
  0
LINE
  5
21F
330
1F
100
AcDbEntity
  8
LAY-10
  6
CONTINUOUS
 62
     7
100
AcDbLine
 10
460.566450453831
 20
888.8994949365721
 30
0.0
 11
454.9095962043388
 21
883.2426406870801
 31
0.0
  0
LINE
  5
220
330
1F
100
AcDbEntity
  8
LAY-10
  6
CONTINUOUS
 62
     7
100
AcDbLine
 10
454.9095962043388
 20
883.2426406870801
 30
0.0
 11
425.2111113945037
 21
912.9411254969148
 31
0.0
  0
LINE
  5
221
330
1F
100
AcDbEntity
  8
LAY-10
  6
CONTINUOUS
 62
     7
100
AcDbLine
 10
425.2111113945037
 20
912.9411254969148
 30
0.0
 11
420.968470707384
 21
908.6984848097956
 31
0.0
  0
LINE
  5
222
330
1F
100
AcDbEntity
  8
LAY-10
  6
CONTINUOUS
 62
     7
100
AcDbLine
 10
420.968470707384
 20
908.6984848097956
 30
0.0
 11
454.9095962043372
 21
874.7573593128421
 31
0.0
  0
LINE
  5
223
330
1F
100
AcDbEntity
  8
LAY-10
  6
CONTINUOUS
 62
     7
100
AcDbLine
 10
454.9095962043372
 20
874.7573593128421
 30
0.0
 11
469.0517318280682
 21
888.899494936573
 31
0.0
  0
LINE
  5
224
330
1F
100
AcDbEntity
  8
LAY-10
  6
CONTINUOUS
 62
     7
100
AcDbLine
 10
469.0517318280682
 20
888.899494936573
 30
0.0
 11
435.110606331115
 21
922.840620433526
 31
0.0
  0
LINE
  5
225
330
1F
100
AcDbEntity
  8
LAY-10
  6
CONTINUOUS
 62
     7
100
AcDbLine
 10
435.110606331115
 20
883.2426406870763
 30
0.0
 11
430.8679656439959
 21
878.9999999999574
 31
0.0
  0
LINE
  5
226
330
1F
100
AcDbEntity
  8
LAY-10
  6
CONTINUOUS
 62
     7
100
AcDbLine
 10
430.8679656439959
 20
878.9999999999574
 30
0.0
 11
460.566450453831
 21
849.3015151901221
 31
0.0
  0
LINE
  5
227
330
1F
100
AcDbEntity
  8
LAY-10
  6
CONTINUOUS
 62
     7
100
AcDbLine
 10
460.566450453831
 20
849.3015151901221
 30
0.0
 11
454.9095962043388
 21
843.64466094063
 31
0.0
  0
LINE
  5
228
330
1F
100
AcDbEntity
  8
LAY-10
  6
CONTINUOUS
 62
     7
100
AcDbLine
 10
454.9095962043388
 20
843.64466094063
 30
0.0
 11
425.2111113945037
 21
873.343145750465
 31
0.0
  0
LINE
  5
229
330
1F
100
AcDbEntity
  8
LAY-10
  6
CONTINUOUS
 62
     7
100
AcDbLine
 10
425.2111113945037
 20
873.343145750465
 30
0.0
 11
420.968470707384
 21
869.1005050633453
 31
0.0
  0
LINE
  5
22A
330
1F
100
AcDbEntity
  8
LAY-10
  6
CONTINUOUS
 62
     7
100
AcDbLine
 10
420.968470707384
 20
869.1005050633453
 30
0.0
 11
454.9095962043372
 21
835.1593795663922
 31
0.0
  0
LINE
  5
22B
330
1F
100
AcDbEntity
  8
LAY-10
  6
CONTINUOUS
 62
     7
100
AcDbLine
 10
454.9095962043372
 20
835.1593795663922
 30
0.0
 11
469.0517318280682
 21
849.3015151901227
 31
0.0
  0
LINE
  5
22C
330
1F
100
AcDbEntity
  8
LAY-10
  6
CONTINUOUS
 62
     7
100
AcDbLine
 10
469.0517318280682
 20
849.3015151901227
 30
0.0
 11
435.110606331115
 21
883.2426406870763
 31
0.0
  0
LINE
  5
22D
330
1F
100
AcDbEntity
  8
LAY-10
  6
CONTINUOUS
 62
     7
100
AcDbLine
 10
435.110606331115
 20
843.6446609406261
 30
0.0
 11
430.8679656439959
 21
839.4020202535074
 31
0.0
  0
LINE
  5
22E
330
1F
100
AcDbEntity
  8
LAY-10
  6
CONTINUOUS
 62
     7
100
AcDbLine
 10
430.8679656439959
 20
839.4020202535074
 30
0.0
 11
460.566450453831
 21
809.7035354436719
 31
0.0
  0
LINE
  5
22F
330
1F
100
AcDbEntity
  8
LAY-10
  6
CONTINUOUS
 62
     7
100
AcDbLine
 10
460.566450453831
 20
809.7035354436719
 30
0.0
 11
454.9095962043388
 21
804.0466811941798
 31
0.0
  0
LINE
  5
230
330
1F
100
AcDbEntity
  8
LAY-10
  6
CONTINUOUS
 62
     7
100
AcDbLine
 10
454.9095962043388
 20
804.0466811941798
 30
0.0
 11
425.2111113945037
 21
833.7451660040148
 31
0.0
  0
LINE
  5
231
330
1F
100
AcDbEntity
  8
LAY-10
  6
CONTINUOUS
 62
     7
100
AcDbLine
 10
425.2111113945037
 20
833.7451660040148
 30
0.0
 11
420.968470707384
 21
829.5025253168952
 31
0.0
  0
LINE
  5
232
330
1F
100
AcDbEntity
  8
LAY-10
  6
CONTINUOUS
 62
     7
100
AcDbLine
 10
420.968470707384
 20
829.5025253168952
 30
0.0
 11
454.9095962043372
 21
795.5613998199419
 31
0.0
  0
LINE
  5
233
330
1F
100
AcDbEntity
  8
LAY-10
  6
CONTINUOUS
 62
     7
100
AcDbLine
 10
454.9095962043372
 20
795.5613998199419
 30
0.0
 11
469.0517318280682
 21
809.7035354436726
 31
0.0
  0
LINE
  5
234
330
1F
100
AcDbEntity
  8
LAY-10
  6
CONTINUOUS
 62
     7
100
AcDbLine
 10
469.0517318280682
 20
809.7035354436726
 30
0.0
 11
435.110606331115
 21
843.6446609406261
 31
0.0
  0
LINE
  5
235
330
1F
100
AcDbEntity
  8
LAY-10
  6
CONTINUOUS
 62
     7
100
AcDbLine
 10
435.110606331115
 20
962.4386001799763
 30
0.0
 11
430.8679656439959
 21
958.1959594928577
 31
0.0
  0
LINE
  5
236
330
1F
100
AcDbEntity
  8
LAY-10
  6
CONTINUOUS
 62
     7
100
AcDbLine
 10
430.8679656439959
 20
958.1959594928577
 30
0.0
 11
460.566450453831
 21
928.4974746830221
 31
0.0
  0
LINE
  5
237
330
1F
100
AcDbEntity
  8
LAY-10
  6
CONTINUOUS
 62
     7
100
AcDbLine
 10
460.566450453831
 20
928.4974746830221
 30
0.0
 11
454.9095962043388
 21
922.84062043353
 31
0.0
  0
LINE
  5
238
330
1F
100
AcDbEntity
  8
LAY-10
  6
CONTINUOUS
 62
     7
100
AcDbLine
 10
454.9095962043388
 20
922.84062043353
 30
0.0
 11
425.2111113945037
 21
952.539105243365
 31
0.0
  0
LINE
  5
239
330
1F
100
AcDbEntity
  8
LAY-10
  6
CONTINUOUS
 62
     7
100
AcDbLine
 10
425.2111113945037
 20
952.539105243365
 30
0.0
 11
420.968470707384
 21
948.2964645562453
 31
0.0
  0
LINE
  5
23A
330
1F
100
AcDbEntity
  8
LAY-10
  6
CONTINUOUS
 62
     7
100
AcDbLine
 10
420.968470707384
 20
948.2964645562453
 30
0.0
 11
454.9095962043372
 21
914.3553390592922
 31
0.0
  0
LINE
  5
23B
330
1F
100
AcDbEntity
  8
LAY-10
  6
CONTINUOUS
 62
     7
100
AcDbLine
 10
454.9095962043372
 20
914.3553390592922
 30
0.0
 11
469.0517318280682
 21
928.4974746830227
 31
0.0
  0
LINE
  5
23C
330
1F
100
AcDbEntity
  8
LAY-10
  6
CONTINUOUS
 62
     7
100
AcDbLine
 10
469.0517318280682
 20
928.4974746830227
 30
0.0
 11
435.110606331115
 21
962.4386001799763
 31
0.0
  0
LINE
  5
23D
330
1F
100
AcDbEntity
  8
LAY-10
  6
CONTINUOUS
 62
     7
100
AcDbLine
 10
460.5664504538337
 20
948.2964645563248
 30
0.0
 11
464.8090911409523
 21
944.0538238692062
 31
0.0
  0
LINE
  5
23E
330
1F
100
AcDbEntity
  8
LAY-10
  6
CONTINUOUS
 62
     7
100
AcDbLine
 10
464.8090911409523
 20
944.0538238692062
 30
0.0
 11
494.507575950788
 21
973.7523086790412
 31
0.0
  0
LINE
  5
23F
330
1F
100
AcDbEntity
  8
LAY-10
  6
CONTINUOUS
 62
     7
100
AcDbLine
 10
494.507575950788
 20
973.7523086790412
 30
0.0
 11
500.16443020028
 21
968.0954544295486
 31
0.0
  0
LINE
  5
240
330
1F
100
AcDbEntity
  8
LAY-10
  6
CONTINUOUS
 62
     7
100
AcDbLine
 10
500.16443020028
 20
968.0954544295486
 30
0.0
 11
470.465945390445
 21
938.3969696197136
 31
0.0
  0
LINE
  5
241
330
1F
100
AcDbEntity
  8
LAY-10
  6
CONTINUOUS
 62
     7
100
AcDbLine
 10
470.465945390445
 20
938.3969696197136
 30
0.0
 11
474.7085860775643
 21
934.154328932594
 31
0.0
  0
LINE
  5
242
330
1F
100
AcDbEntity
  8
LAY-10
  6
CONTINUOUS
 62
     7
100
AcDbLine
 10
474.7085860775643
 20
934.154328932594
 30
0.0
 11
508.6497115745179
 21
968.0954544295474
 31
0.0
  0
LINE
  5
243
330
1F
100
AcDbEntity
  8
LAY-10
  6
CONTINUOUS
 62
     7
100
AcDbLine
 10
508.6497115745179
 20
968.0954544295474
 30
0.0
 11
494.5075759507869
 21
982.2375900532779
 31
0.0
  0
LINE
  5
244
330
1F
100
AcDbEntity
  8
LAY-10
  6
CONTINUOUS
 62
     7
100
AcDbLine
 10
494.5075759507869
 20
982.2375900532779
 30
0.0
 11
460.5664504538337
 21
948.2964645563248
 31
0.0
  0
LINE
  5
245
330
1F
100
AcDbEntity
  8
LAY-10
  6
CONTINUOUS
 62
     7
100
AcDbLine
 10
435.110606331115
 20
804.0466811942262
 30
0.0
 11
430.8679656439959
 21
799.8040405071075
 31
0.0
  0
LINE
  5
246
330
1F
100
AcDbEntity
  8
LAY-10
  6
CONTINUOUS
 62
     7
100
AcDbLine
 10
430.8679656439959
 20
799.8040405071075
 30
0.0
 11
460.566450453831
 21
770.1055556972718
 31
0.0
  0
LINE
  5
247
330
1F
100
AcDbEntity
  8
LAY-10
  6
CONTINUOUS
 62
     7
100
AcDbLine
 10
460.566450453831
 20
770.1055556972718
 30
0.0
 11
454.9095962043388
 21
764.4487014477799
 31
0.0
  0
LINE
  5
248
330
1F
100
AcDbEntity
  8
LAY-10
  6
CONTINUOUS
 62
     7
100
AcDbLine
 10
454.9095962043388
 20
764.4487014477799
 30
0.0
 11
425.2111113945037
 21
794.1471862576149
 31
0.0
  0
LINE
  5
249
330
1F
100
AcDbEntity
  8
LAY-10
  6
CONTINUOUS
 62
     7
100
AcDbLine
 10
425.2111113945037
 20
794.1471862576149
 30
0.0
 11
420.968470707384
 21
789.9045455704953
 31
0.0
  0
LINE
  5
24A
330
1F
100
AcDbEntity
  8
LAY-10
  6
CONTINUOUS
 62
     7
100
AcDbLine
 10
420.968470707384
 20
789.9045455704953
 30
0.0
 11
454.9095962043372
 21
755.9634200735419
 31
0.0
  0
LINE
  5
24B
330
1F
100
AcDbEntity
  8
LAY-10
  6
CONTINUOUS
 62
     7
100
AcDbLine
 10
454.9095962043372
 20
755.9634200735419
 30
0.0
 11
469.0517318280682
 21
770.1055556972727
 31
0.0
  0
LINE
  5
24C
330
1F
100
AcDbEntity
  8
LAY-10
  6
CONTINUOUS
 62
     7
100
AcDbLine
 10
469.0517318280682
 20
770.1055556972727
 30
0.0
 11
435.110606331115
 21
804.0466811942262
 31
0.0
  0
LINE
  5
24D
330
1F
100
AcDbEntity
  8
LAY-10
  6
CONTINUOUS
 62
     7
100
AcDbLine
 10
429.4537520816156
 20
809.7035354436952
 30
0.0
 11
425.2111113944969
 21
813.9461761308138
 31
0.0
  0
LINE
  5
24E
330
1F
100
AcDbEntity
  8
LAY-10
  6
CONTINUOUS
 62
     7
100
AcDbLine
 10
425.2111113944969
 20
813.9461761308138
 30
0.0
 11
395.5126265846619
 21
784.2476913209788
 31
0.0
  0
LINE
  5
24F
330
1F
100
AcDbEntity
  8
LAY-10
  6
CONTINUOUS
 62
     7
100
AcDbLine
 10
395.5126265846619
 20
784.2476913209788
 30
0.0
 11
389.8557723351699
 21
789.9045455704714
 31
0.0
  0
LINE
  5
250
330
1F
100
AcDbEntity
  8
LAY-10
  6
CONTINUOUS
 62
     7
100
AcDbLine
 10
389.8557723351699
 20
789.9045455704714
 30
0.0
 11
419.5542571450043
 21
819.6030303803064
 31
0.0
  0
LINE
  5
251
330
1F
100
AcDbEntity
  8
LAY-10
  6
CONTINUOUS
 62
     7
100
AcDbLine
 10
419.5542571450043
 20
819.6030303803064
 30
0.0
 11
415.3116164578852
 21
823.845671067426
 31
0.0
  0
LINE
  5
252
330
1F
100
AcDbEntity
  8
LAY-10
  6
CONTINUOUS
 62
     7
100
AcDbLine
 10
415.3116164578852
 20
823.845671067426
 30
0.0
 11
381.3704909609318
 21
789.9045455704726
 31
0.0
  0
LINE
  5
253
330
1F
100
AcDbEntity
  8
LAY-10
  6
CONTINUOUS
 62
     7
100
AcDbLine
 10
381.3704909609318
 20
789.9045455704726
 30
0.0
 11
395.5126265846626
 21
775.7624099467417
 31
0.0
  0
LINE
  5
254
330
1F
100
AcDbEntity
  8
LAY-10
  6
CONTINUOUS
 62
     7
100
AcDbLine
 10
395.5126265846626
 20
775.7624099467417
 30
0.0
 11
429.4537520816156
 21
809.7035354436952
 31
0.0
  0
LINE
  5
255
330
1F
100
AcDbEntity
  8
LAY-10
  6
CONTINUOUS
 62
     7
100
AcDbLine
 10
429.4537520816156
 20
849.3015151900951
 30
0.0
 11
425.2111113944969
 21
853.5441558772137
 31
0.0
  0
LINE
  5
256
330
1F
100
AcDbEntity
  8
LAY-10
  6
CONTINUOUS
 62
     7
100
AcDbLine
 10
425.2111113944969
 20
853.5441558772137
 30
0.0
 11
395.5126265846619
 21
823.8456710673787
 31
0.0
  0
LINE
  5
257
330
1F
100
AcDbEntity
  8
LAY-10
  6
CONTINUOUS
 62
     7
100
AcDbLine
 10
395.5126265846619
 20
823.8456710673787
 30
0.0
 11
389.8557723351699
 21
829.5025253168714
 31
0.0
  0
LINE
  5
258
330
1F
100
AcDbEntity
  8
LAY-10
  6
CONTINUOUS
 62
     7
100
AcDbLine
 10
389.8557723351699
 20
829.5025253168714
 30
0.0
 11
419.5542571450043
 21
859.2010101267064
 31
0.0
  0
LINE
  5
259
330
1F
100
AcDbEntity
  8
LAY-10
  6
CONTINUOUS
 62
     7
100
AcDbLine
 10
419.5542571450043
 20
859.2010101267064
 30
0.0
 11
415.3116164578852
 21
863.4436508138259
 31
0.0
  0
LINE
  5
25A
330
1F
100
AcDbEntity
  8
LAY-10
  6
CONTINUOUS
 62
     7
100
AcDbLine
 10
415.3116164578852
 20
863.4436508138259
 30
0.0
 11
381.3704909609318
 21
829.5025253168725
 31
0.0
  0
LINE
  5
25B
330
1F
100
AcDbEntity
  8
LAY-10
  6
CONTINUOUS
 62
     7
100
AcDbLine
 10
381.3704909609318
 20
829.5025253168725
 30
0.0
 11
395.5126265846626
 21
815.3603896931418
 31
0.0
  0
LINE
  5
25C
330
1F
100
AcDbEntity
  8
LAY-10
  6
CONTINUOUS
 62
     7
100
AcDbLine
 10
395.5126265846626
 20
815.3603896931418
 30
0.0
 11
429.4537520816156
 21
849.3015151900951
 31
0.0
  0
LINE
  5
25D
330
1F
100
AcDbEntity
  8
LAY-10
  6
CONTINUOUS
 62
     7
100
AcDbLine
 10
429.4537520816156
 20
888.8994949364951
 30
0.0
 11
425.2111113944969
 21
893.1421356236137
 31
0.0
  0
LINE
  5
25E
330
1F
100
AcDbEntity
  8
LAY-10
  6
CONTINUOUS
 62
     7
100
AcDbLine
 10
425.2111113944969
 20
893.1421356236137
 30
0.0
 11
395.5126265846619
 21
863.4436508137787
 31
0.0
  0
LINE
  5
25F
330
1F
100
AcDbEntity
  8
LAY-10
  6
CONTINUOUS
 62
     7
100
AcDbLine
 10
395.5126265846619
 20
863.4436508137787
 30
0.0
 11
389.8557723351699
 21
869.1005050632714
 31
0.0
  0
LINE
  5
260
330
1F
100
AcDbEntity
  8
LAY-10
  6
CONTINUOUS
 62
     7
100
AcDbLine
 10
389.8557723351699
 20
869.1005050632714
 30
0.0
 11
419.5542571450043
 21
898.7989898731064
 31
0.0
  0
LINE
  5
261
330
1F
100
AcDbEntity
  8
LAY-10
  6
CONTINUOUS
 62
     7
100
AcDbLine
 10
419.5542571450043
 20
898.7989898731064
 30
0.0
 11
415.3116164578852
 21
903.0416305602258
 31
0.0
  0
LINE
  5
262
330
1F
100
AcDbEntity
  8
LAY-10
  6
CONTINUOUS
 62
     7
100
AcDbLine
 10
415.3116164578852
 20
903.0416305602258
 30
0.0
 11
381.3704909609318
 21
869.1005050632725
 31
0.0
  0
LINE
  5
263
330
1F
100
AcDbEntity
  8
LAY-10
  6
CONTINUOUS
 62
     7
100
AcDbLine
 10
381.3704909609318
 20
869.1005050632725
 30
0.0
 11
395.5126265846626
 21
854.9583694395418
 31
0.0
  0
LINE
  5
264
330
1F
100
AcDbEntity
  8
LAY-10
  6
CONTINUOUS
 62
     7
100
AcDbLine
 10
395.5126265846626
 20
854.9583694395418
 30
0.0
 11
429.4537520816156
 21
888.8994949364951
 31
0.0
  0
LINE
  5
265
330
1F
100
AcDbEntity
  8
LAY-10
  6
CONTINUOUS
 62
     7
100
AcDbLine
 10
429.4537520816156
 20
928.4974746829952
 30
0.0
 11
425.2111113944969
 21
932.7401153701138
 31
0.0
  0
LINE
  5
266
330
1F
100
AcDbEntity
  8
LAY-10
  6
CONTINUOUS
 62
     7
100
AcDbLine
 10
425.2111113944969
 20
932.7401153701138
 30
0.0
 11
395.5126265846619
 21
903.0416305602788
 31
0.0
  0
LINE
  5
267
330
1F
100
AcDbEntity
  8
LAY-10
  6
CONTINUOUS
 62
     7
100
AcDbLine
 10
395.5126265846619
 20
903.0416305602788
 30
0.0
 11
389.8557723351699
 21
908.6984848097715
 31
0.0
  0
LINE
  5
268
330
1F
100
AcDbEntity
  8
LAY-10
  6
CONTINUOUS
 62
     7
100
AcDbLine
 10
389.8557723351699
 20
908.6984848097715
 30
0.0
 11
419.5542571450043
 21
938.3969696196065
 31
0.0
  0
LINE
  5
269
330
1F
100
AcDbEntity
  8
LAY-10
  6
CONTINUOUS
 62
     7
100
AcDbLine
 10
419.5542571450043
 20
938.3969696196065
 30
0.0
 11
415.3116164578852
 21
942.6396103067259
 31
0.0
  0
LINE
  5
26A
330
1F
100
AcDbEntity
  8
LAY-10
  6
CONTINUOUS
 62
     7
100
AcDbLine
 10
415.3116164578852
 20
942.6396103067259
 30
0.0
 11
381.3704909609318
 21
908.6984848097726
 31
0.0
  0
LINE
  5
26B
330
1F
100
AcDbEntity
  8
LAY-10
  6
CONTINUOUS
 62
     7
100
AcDbLine
 10
381.3704909609318
 20
908.6984848097726
 30
0.0
 11
395.5126265846626
 21
894.5563491860418
 31
0.0
  0
LINE
  5
26C
330
1F
100
AcDbEntity
  8
LAY-10
  6
CONTINUOUS
 62
     7
100
AcDbLine
 10
395.5126265846626
 20
894.5563491860418
 30
0.0
 11
429.4537520816156
 21
928.4974746829952
 31
0.0
  0
LINE
  5
26D
330
1F
100
AcDbEntity
  8
LAY-10
  6
CONTINUOUS
 62
     7
100
AcDbLine
 10
429.4537520816156
 20
968.0954544293951
 30
0.0
 11
425.2111113944969
 21
972.3380951165137
 31
0.0
  0
LINE
  5
26E
330
1F
100
AcDbEntity
  8
LAY-10
  6
CONTINUOUS
 62
     7
100
AcDbLine
 10
425.2111113944969
 20
972.3380951165137
 30
0.0
 11
395.5126265846619
 21
942.6396103066787
 31
0.0
  0
LINE
  5
26F
330
1F
100
AcDbEntity
  8
LAY-10
  6
CONTINUOUS
 62
     7
100
AcDbLine
 10
395.5126265846619
 20
942.6396103066787
 30
0.0
 11
389.8557723351699
 21
948.2964645561714
 31
0.0
  0
LINE
  5
270
330
1F
100
AcDbEntity
  8
LAY-10
  6
CONTINUOUS
 62
     7
100
AcDbLine
 10
389.8557723351699
 20
948.2964645561714
 30
0.0
 11
419.5542571450043
 21
977.9949493660064
 31
0.0
  0
LINE
  5
271
330
1F
100
AcDbEntity
  8
LAY-10
  6
CONTINUOUS
 62
     7
100
AcDbLine
 10
419.5542571450043
 20
977.9949493660064
 30
0.0
 11
415.3116164578852
 21
982.2375900531259
 31
0.0
  0
LINE
  5
272
330
1F
100
AcDbEntity
  8
LAY-10
  6
CONTINUOUS
 62
     7
100
AcDbLine
 10
415.3116164578852
 20
982.2375900531259
 30
0.0
 11
381.3704909609318
 21
948.2964645561725
 31
0.0
  0
LINE
  5
273
330
1F
100
AcDbEntity
  8
LAY-10
  6
CONTINUOUS
 62
     7
100
AcDbLine
 10
381.3704909609318
 20
948.2964645561725
 30
0.0
 11
395.5126265846626
 21
934.1543289324417
 31
0.0
  0
LINE
  5
274
330
1F
100
AcDbEntity
  8
LAY-10
  6
CONTINUOUS
 62
     7
100
AcDbLine
 10
395.5126265846626
 20
934.1543289324417
 30
0.0
 11
429.4537520816156
 21
968.0954544293951
 31
0.0
  0
LINE
  5
275
330
1F
100
AcDbEntity
  8
LAY-10
  6
CONTINUOUS
 62
     7
100
AcDbLine
 10
375.7136367114646
 20
835.159379566424
 30
0.0
 11
379.9562773985834
 21
839.4020202535427
 31
0.0
  0
LINE
  5
276
330
1F
100
AcDbEntity
  8
LAY-10
  6
CONTINUOUS
 62
     7
100
AcDbLine
 10
379.9562773985834
 20
839.4020202535427
 30
0.0
 11
350.2577925887484
 21
869.1005050633779
 31
0.0
  0
LINE
  5
277
330
1F
100
AcDbEntity
  8
LAY-10
  6
CONTINUOUS
 62
     7
100
AcDbLine
 10
350.2577925887484
 20
869.1005050633779
 30
0.0
 11
355.9146468382409
 21
874.7573593128703
 31
0.0
  0
LINE
  5
278
330
1F
100
AcDbEntity
  8
LAY-10
  6
CONTINUOUS
 62
     7
100
AcDbLine
 10
355.9146468382409
 20
874.7573593128703
 30
0.0
 11
385.6131316480759
 21
845.0588745030353
 31
0.0
  0
LINE
  5
279
330
1F
100
AcDbEntity
  8
LAY-10
  6
CONTINUOUS
 62
     7
100
AcDbLine
 10
385.6131316480759
 20
845.0588745030353
 30
0.0
 11
389.8557723351954
 21
849.3015151901549
 31
0.0
  0
LINE
  5
27A
330
1F
100
AcDbEntity
  8
LAY-10
  6
CONTINUOUS
 62
     7
100
AcDbLine
 10
389.8557723351954
 20
849.3015151901549
 30
0.0
 11
355.9146468382422
 21
883.2426406871082
 31
0.0
  0
LINE
  5
27B
330
1F
100
AcDbEntity
  8
LAY-10
  6
CONTINUOUS
 62
     7
100
AcDbLine
 10
355.9146468382422
 20
883.2426406871082
 30
0.0
 11
341.7725112145118
 21
869.1005050633775
 31
0.0
  0
LINE
  5
27C
330
1F
100
AcDbEntity
  8
LAY-10
  6
CONTINUOUS
 62
     7
100
AcDbLine
 10
341.7725112145118
 20
869.1005050633775
 30
0.0
 11
375.7136367114646
 21
835.159379566424
 31
0.0
  0
LINE
  5
27D
330
1F
100
AcDbEntity
  8
LAY-10
  6
CONTINUOUS
 62
     7
100
AcDbLine
 10
375.7136367114646
 20
795.5613998199741
 30
0.0
 11
379.9562773985834
 21
799.804040507093
 31
0.0
  0
LINE
  5
27E
330
1F
100
AcDbEntity
  8
LAY-10
  6
CONTINUOUS
 62
     7
100
AcDbLine
 10
379.9562773985834
 20
799.804040507093
 30
0.0
 11
350.2577925887484
 21
829.502525316928
 31
0.0
  0
LINE
  5
27F
330
1F
100
AcDbEntity
  8
LAY-10
  6
CONTINUOUS
 62
     7
100
AcDbLine
 10
350.2577925887484
 20
829.502525316928
 30
0.0
 11
355.9146468382409
 21
835.1593795664204
 31
0.0
  0
LINE
  5
280
330
1F
100
AcDbEntity
  8
LAY-10
  6
CONTINUOUS
 62
     7
100
AcDbLine
 10
355.9146468382409
 20
835.1593795664204
 30
0.0
 11
385.6131316480759
 21
805.4608947565854
 31
0.0
  0
LINE
  5
281
330
1F
100
AcDbEntity
  8
LAY-10
  6
CONTINUOUS
 62
     7
100
AcDbLine
 10
385.6131316480759
 20
805.4608947565854
 30
0.0
 11
389.8557723351954
 21
809.7035354437048
 31
0.0
  0
LINE
  5
282
330
1F
100
AcDbEntity
  8
LAY-10
  6
CONTINUOUS
 62
     7
100
AcDbLine
 10
389.8557723351954
 20
809.7035354437048
 30
0.0
 11
355.9146468382422
 21
843.6446609406579
 31
0.0
  0
LINE
  5
283
330
1F
100
AcDbEntity
  8
LAY-10
  6
CONTINUOUS
 62
     7
100
AcDbLine
 10
355.9146468382422
 20
843.6446609406579
 30
0.0
 11
341.7725112145118
 21
829.5025253169274
 31
0.0
  0
LINE
  5
284
330
1F
100
AcDbEntity
  8
LAY-10
  6
CONTINUOUS
 62
     7
100
AcDbLine
 10
341.7725112145118
 20
829.5025253169274
 30
0.0
 11
375.7136367114646
 21
795.5613998199741
 31
0.0
  0
LINE
  5
285
330
1F
100
AcDbEntity
  8
LAY-10
  6
CONTINUOUS
 62
     7
100
AcDbLine
 10
375.7136367114646
 20
874.757359312874
 30
0.0
 11
379.9562773985834
 21
878.999999999993
 31
0.0
  0
LINE
  5
286
330
1F
100
AcDbEntity
  8
LAY-10
  6
CONTINUOUS
 62
     7
100
AcDbLine
 10
379.9562773985834
 20
878.999999999993
 30
0.0
 11
350.2577925887484
 21
908.698484809828
 31
0.0
  0
LINE
  5
287
330
1F
100
AcDbEntity
  8
LAY-10
  6
CONTINUOUS
 62
     7
100
AcDbLine
 10
350.2577925887484
 20
908.698484809828
 30
0.0
 11
355.9146468382409
 21
914.3553390593203
 31
0.0
  0
LINE
  5
288
330
1F
100
AcDbEntity
  8
LAY-10
  6
CONTINUOUS
 62
     7
100
AcDbLine
 10
355.9146468382409
 20
914.3553390593203
 30
0.0
 11
385.6131316480759
 21
884.6568542494853
 31
0.0
  0
LINE
  5
289
330
1F
100
AcDbEntity
  8
LAY-10
  6
CONTINUOUS
 62
     7
100
AcDbLine
 10
385.6131316480759
 20
884.6568542494853
 30
0.0
 11
389.8557723351954
 21
888.8994949366048
 31
0.0
  0
LINE
  5
28A
330
1F
100
AcDbEntity
  8
LAY-10
  6
CONTINUOUS
 62
     7
100
AcDbLine
 10
389.8557723351954
 20
888.8994949366048
 30
0.0
 11
355.9146468382422
 21
922.8406204335579
 31
0.0
  0
LINE
  5
28B
330
1F
100
AcDbEntity
  8
LAY-10
  6
CONTINUOUS
 62
     7
100
AcDbLine
 10
355.9146468382422
 20
922.8406204335579
 30
0.0
 11
341.7725112145118
 21
908.6984848098274
 31
0.0
  0
LINE
  5
28C
330
1F
100
AcDbEntity
  8
LAY-10
  6
CONTINUOUS
 62
     7
100
AcDbLine
 10
341.7725112145118
 20
908.6984848098274
 30
0.0
 11
375.7136367114646
 21
874.757359312874
 31
0.0
  0
LINE
  5
28D
330
1F
100
AcDbEntity
  8
LAY-10
  6
CONTINUOUS
 62
     7
100
AcDbLine
 10
375.7136367114646
 20
914.355339059324
 30
0.0
 11
379.9562773985834
 21
918.5979797464427
 31
0.0
  0
LINE
  5
28E
330
1F
100
AcDbEntity
  8
LAY-10
  6
CONTINUOUS
 62
     7
100
AcDbLine
 10
379.9562773985834
 20
918.5979797464427
 30
0.0
 11
350.2577925887484
 21
948.2964645562782
 31
0.0
  0
LINE
  5
28F
330
1F
100
AcDbEntity
  8
LAY-10
  6
CONTINUOUS
 62
     7
100
AcDbLine
 10
350.2577925887484
 20
948.2964645562782
 30
0.0
 11
355.9146468382409
 21
953.9533188057703
 31
0.0
  0
LINE
  5
290
330
1F
100
AcDbEntity
  8
LAY-10
  6
CONTINUOUS
 62
     7
100
AcDbLine
 10
355.9146468382409
 20
953.9533188057703
 30
0.0
 11
385.6131316480759
 21
924.2548339959353
 31
0.0
  0
LINE
  5
291
330
1F
100
AcDbEntity
  8
LAY-10
  6
CONTINUOUS
 62
     7
100
AcDbLine
 10
385.6131316480759
 20
924.2548339959353
 30
0.0
 11
389.8557723351954
 21
928.4974746830547
 31
0.0
  0
LINE
  5
292
330
1F
100
AcDbEntity
  8
LAY-10
  6
CONTINUOUS
 62
     7
100
AcDbLine
 10
389.8557723351954
 20
928.4974746830547
 30
0.0
 11
355.9146468382422
 21
962.4386001800082
 31
0.0
  0
LINE
  5
293
330
1F
100
AcDbEntity
  8
LAY-10
  6
CONTINUOUS
 62
     7
100
AcDbLine
 10
355.9146468382422
 20
962.4386001800082
 30
0.0
 11
341.7725112145118
 21
948.2964645562771
 31
0.0
  0
LINE
  5
294
330
1F
100
AcDbEntity
  8
LAY-10
  6
CONTINUOUS
 62
     7
100
AcDbLine
 10
341.7725112145118
 20
948.2964645562771
 30
0.0
 11
375.7136367114646
 21
914.355339059324
 31
0.0
  0
LINE
  5
295
330
1F
100
AcDbEntity
  8
LAY-10
  6
CONTINUOUS
 62
     7
100
AcDbLine
 10
375.7136367114646
 20
755.9634200735738
 30
0.0
 11
379.9562773985834
 21
760.206060760693
 31
0.0
  0
LINE
  5
296
330
1F
100
AcDbEntity
  8
LAY-10
  6
CONTINUOUS
 62
     7
100
AcDbLine
 10
379.9562773985834
 20
760.206060760693
 30
0.0
 11
350.2577925887484
 21
789.9045455705281
 31
0.0
  0
LINE
  5
297
330
1F
100
AcDbEntity
  8
LAY-10
  6
CONTINUOUS
 62
     7
100
AcDbLine
 10
350.2577925887484
 20
789.9045455705281
 30
0.0
 11
355.9146468382409
 21
795.5613998200204
 31
0.0
  0
LINE
  5
298
330
1F
100
AcDbEntity
  8
LAY-10
  6
CONTINUOUS
 62
     7
100
AcDbLine
 10
355.9146468382409
 20
795.5613998200204
 30
0.0
 11
385.6131316480759
 21
765.8629150101851
 31
0.0
  0
LINE
  5
299
330
1F
100
AcDbEntity
  8
LAY-10
  6
CONTINUOUS
 62
     7
100
AcDbLine
 10
385.6131316480759
 20
765.8629150101851
 30
0.0
 11
389.8557723351954
 21
770.1055556973048
 31
0.0
  0
LINE
  5
29A
330
1F
100
AcDbEntity
  8
LAY-10
  6
CONTINUOUS
 62
     7
100
AcDbLine
 10
389.8557723351954
 20
770.1055556973048
 30
0.0
 11
355.9146468382422
 21
804.046681194258
 31
0.0
  0
LINE
  5
29B
330
1F
100
AcDbEntity
  8
LAY-10
  6
CONTINUOUS
 62
     7
100
AcDbLine
 10
355.9146468382422
 20
804.046681194258
 30
0.0
 11
341.7725112145118
 21
789.9045455705274
 31
0.0
  0
LINE
  5
29C
330
1F
100
AcDbEntity
  8
LAY-10
  6
CONTINUOUS
 62
     7
100
AcDbLine
 10
341.7725112145118
 20
789.9045455705274
 30
0.0
 11
375.7136367114646
 21
755.9634200735738
 31
0.0
  0
CIRCLE
  5
29D
330
1F
100
AcDbEntity
  8
LAY-10
  6
CONTINUOUS
 62
     7
100
AcDbCircle
 10
643.0000000000005
 20
1191.0
 30
0.0
 40
12.50000000000001
  0
CIRCLE
  5
29E
330
1F
100
AcDbEntity
  8
LAY-10
  6
CONTINUOUS
 62
     7
100
AcDbCircle
 10
643.0000000000005
 20
1191.0
 30
0.0
 40
13.00000000000001
  0
CIRCLE
  5
29F
330
1F
100
AcDbEntity
  8
LAY-10
  6
CONTINUOUS
 62
     7
100
AcDbCircle
 10
643.0000000000005
 20
1191.0
 30
0.0
 40
16.0
  0
LINE
  5
2A0
330
1F
100
AcDbEntity
  8
LAY-10
  6
CONTINUOUS
 62
     7
100
AcDbLine
 10
655.3389626790007
 20
1193.0
 30
0.0
 11
630.6610373210007
 21
1193.0
 31
0.0
  0
LINE
  5
2A1
330
1F
100
AcDbEntity
  8
LAY-10
  6
CONTINUOUS
 62
     7
100
AcDbLine
 10
630.6610373210007
 20
1189.0
 30
0.0
 11
655.3389626790007
 21
1189.0
 31
0.0
  0
LINE
  5
2A2
330
1F
100
AcDbEntity
  8
LAY-10
  6
CONTINUOUS
 62
     7
100
AcDbLine
 10
1014.160349444818
 20
517.0320387106067
 30
0.0
 11
1004.967961289393
 21
507.8396505551817
 31
0.0
  0
LINE
  5
2A3
330
1F
100
AcDbEntity
  8
LAY-10
  6
CONTINUOUS
 62
     7
100
AcDbLine
 10
936.0959815902487
 20
593.6826345796487
 30
0.0
 11
936.0696104995965
 21
593.7085640934554
 31
0.0
  0
LINE
  5
2A4
330
1F
100
AcDbEntity
  8
LAY-10
  6
CONTINUOUS
 62
     7
100
AcDbLine
 10
936.0959815902498
 20
593.6826345796501
 30
0.0
 11
1014.16034944482
 21
517.0320387106101
 31
0.0
  0
LINE
  5
2A5
330
1F
100
AcDbEntity
  8
LAY-10
  6
CONTINUOUS
 62
     7
100
AcDbLine
 10
1004.96796128939
 20
507.8396505551801
 30
0.0
 11
928.2914359065398
 21
585.9303895004001
 31
0.0
  0
LINE
  5
2A6
330
1F
100
AcDbEntity
  8
LAY-10
  6
CONTINUOUS
 62
     7
100
AcDbLine
 10
935.3238019205766
 20
578.7683192862455
 30
0.0
 11
943.231664209498
 21
586.676181575167
 31
0.0
  0
LINE
  5
2A7
330
1F
100
AcDbEntity
  8
LAY-10
  6
CONTINUOUS
 62
     7
100
AcDbLine
 10
281.0320387106091
 20
507.8396505551808
 30
0.0
 11
357.7085640934591
 21
585.9303895004007
 31
0.0
  0
LINE
  5
2A8
330
1F
100
AcDbEntity
  8
LAY-10
  6
CONTINUOUS
 62
     7
100
AcDbLine
 10
349.9040184097493
 20
593.6826345796507
 30
0.0
 11
271.839650555179
 21
517.0320387106109
 31
0.0
  0
LINE
  5
2A9
330
1F
100
AcDbEntity
  8
LAY-10
  6
CONTINUOUS
 62
     7
100
AcDbLine
 10
350.6761980794225
 20
578.7683192862461
 30
0.0
 11
342.7683357905011
 21
586.6761815751676
 31
0.0
  0
LINE
  5
2AA
330
1F
100
AcDbEntity
  8
LAY-10
  6
CONTINUOUS
 62
     7
100
AcDbLine
 10
271.8396505551808
 20
517.0320387106075
 30
0.0
 11
281.0320387106057
 21
507.8396505551823
 31
0.0
  0
LINE
  5
2AB
330
1F
100
AcDbEntity
  8
LAY-10
  6
CONTINUOUS
 62
     7
100
AcDbLine
 10
1004.96796128939
 20
1250.16034944482
 30
0.0
 11
928.2914359065398
 21
1172.0696104996
 31
0.0
  0
LINE
  5
2AC
330
1F
100
AcDbEntity
  8
LAY-10
  6
CONTINUOUS
 62
     7
100
AcDbLine
 10
936.0959815902498
 20
1164.31736542035
 30
0.0
 11
1014.16034944482
 21
1240.96796128939
 31
0.0
  0
LINE
  5
2AD
330
1F
100
AcDbEntity
  8
LAY-10
  6
CONTINUOUS
 62
     7
100
AcDbLine
 10
935.3238019205766
 20
1179.231680713755
 30
0.0
 11
943.231664209498
 21
1171.323818424833
 31
0.0
  0
LINE
  5
2AE
330
1F
100
AcDbEntity
  8
LAY-10
  6
CONTINUOUS
 62
     7
100
AcDbLine
 10
1014.160349444818
 20
1240.967961289394
 30
0.0
 11
1004.967961289393
 21
1250.160349444819
 31
0.0
  0
LINE
  5
2AF
330
1F
100
AcDbEntity
  8
LAY-10
  6
CONTINUOUS
 62
     7
100
AcDbLine
 10
349.9040184097493
 20
1164.31736542035
 30
0.0
 11
271.839650555179
 21
1240.967961289389
 31
0.0
  0
LINE
  5
2B0
330
1F
100
AcDbEntity
  8
LAY-10
  6
CONTINUOUS
 62
     7
100
AcDbLine
 10
281.0320387106091
 20
1250.16034944482
 30
0.0
 11
357.7085640934591
 21
1172.0696104996
 31
0.0
  0
LINE
  5
2B1
330
1F
100
AcDbEntity
  8
LAY-10
  6
CONTINUOUS
 62
     7
100
AcDbLine
 10
271.8396505551808
 20
1240.967961289393
 30
0.0
 11
281.0320387106057
 21
1250.160349444818
 31
0.0
  0
LINE
  5
2B2
330
1F
100
AcDbEntity
  8
LAY-10
  6
CONTINUOUS
 62
     7
100
AcDbLine
 10
350.6761980794225
 20
1179.231680713754
 30
0.0
 11
342.7683357905011
 21
1171.323818424833
 31
0.0
  0
LINE
  5
2B3
330
1F
100
AcDbEntity
  8
LAY-10
  6
CONTINUOUS
 62
     7
100
AcDbLine
 10
243.0000000001006
 20
879.0000000000001
 30
0.0
 11
234.0403619913008
 21
873.8271505840002
 31
0.0
  0
LINE
  5
2B4
330
1F
100
AcDbEntity
  8
LAY-10
  6
CONTINUOUS
 62
     7
100
AcDbLine
 10
243.0000000001006
 20
879.0000000000001
 30
0.0
 11
234.0403619913008
 21
884.1728494160001
 31
0.0
  0
LINE
  5
2B5
330
1F
100
AcDbEntity
  8
LAY-10
  6
CONTINUOUS
 62
     7
100
AcDbLine
 10
642.9999999999999
 20
1278.9999999999
 30
0.0
 11
637.8271505839999
 21
1287.9596380087
 31
0.0
  0
LINE
  5
2B6
330
1F
100
AcDbEntity
  8
LAY-10
  6
CONTINUOUS
 62
     7
100
AcDbLine
 10
642.9999999999999
 20
1278.9999999999
 30
0.0
 11
648.1728494159998
 21
1287.9596380087
 31
0.0
  0
LINE
  5
2B7
330
1F
100
AcDbEntity
  8
LAY-10
  6
CONTINUOUS
 62
     7
100
AcDbLine
 10
651.2580365821999
 20
1255.4094244726
 30
0.0
 11
659.4239239876653
 21
1260.124001764318
 31
0.0
  0
LINE
  5
2B8
330
1F
100
AcDbEntity
  8
LAY-10
  6
CONTINUOUS
 62
     7
100
AcDbLine
 10
651.2580365821999
 20
1255.4094244726
 30
0.0
 11
659.1309220845429
 21
1250.864011908523
 31
0.0
  0
ARC
  5
2B9
330
1F
100
AcDbEntity
  8
LAY-10
  6
CONTINUOUS
 62
     7
100
AcDbCircle
 10
642.9999999999999
 20
879.0000000000001
 30
0.0
 40
379.0000000000002
100
AcDbArc
 50
81.2583376427174
 51
87.5281738631689
  0
ARC
  5
2BA
330
1F
100
AcDbEntity
  8
LAY-10
  6
CONTINUOUS
 62
     7
100
AcDbCircle
 10
642.9999999999999
 20
879.0000000000001
 30
0.0
 40
374.0000000000002
100
AcDbArc
 50
81.28865907046458
 51
87.51935669541979
  0
LINE
  5
2BB
330
1F
100
AcDbEntity
  8
LAY-10
  6
CONTINUOUS
 62
     7
100
AcDbLine
 10
700.6002528183998
 20
1253.5973983829
 30
0.0
 11
699.6447221597999
 21
1248.685508847
 31
0.0
  0
LINE
  5
2BC
330
1F
100
AcDbEntity
  8
LAY-10
  6
CONTINUOUS
 62
     7
100
AcDbLine
 10
659.4239239876998
 20
1260.1240017643
 30
0.0
 11
659.3455587879852
 21
1257.647359304021
 31
0.0
  0
LINE
  5
2BD
330
1F
100
AcDbEntity
  8
LAY-10
  6
CONTINUOUS
 62
     7
100
AcDbLine
 10
659.187418767432
 20
1252.649524920945
 30
0.0
 11
659.1309220845
 21
1250.8640119085
 31
0.0
  0
LINE
  5
2BE
330
1F
100
AcDbEntity
  8
LAY-10
  6
CONTINUOUS
 62
     7
100
AcDbLine
 10
648.196152422685
 20
1251.000000000045
 30
0.0
 11
642.9999999999787
 21
1260.000000000045
 31
0.0
  0
LINE
  5
2BF
330
1F
100
AcDbEntity
  8
LAY-10
  6
CONTINUOUS
 62
     7
100
AcDbLine
 10
637.8038475770255
 20
1251.0
 30
0.0
 11
648.1961524227754
 21
1251.0
 31
0.0
  0
LINE
  5
2C0
330
1F
100
AcDbEntity
  8
LAY-10
  6
CONTINUOUS
 62
     7
100
AcDbLine
 10
637.8038475771158
 20
1251.000000000045
 30
0.0
 11
642.9999999998219
 21
1260.000000000045
 31
0.0
  0
LINE
  5
2C1
330
1F
100
AcDbEntity
  8
LAY-10
  6
CONTINUOUS
 62
     7
100
AcDbLine
 10
476.5242389736521
 20
560.9335018499011
 30
0.0
 11
462.1048362161852
 21
560.0097464071822
 31
0.0
  0
LINE
  5
2C2
330
1F
100
AcDbEntity
  8
LAY-10
  6
CONTINUOUS
 62
     7
100
AcDbLine
 10
476.5242389736521
 20
560.9335018499011
 30
0.0
 11
482.9298158570147
 21
549.120750909018
 31
0.0
  0
LINE
  5
2C3
330
1F
100
AcDbEntity
  8
LAY-10
  6
CONTINUOUS
 62
     7
100
AcDbLine
 10
469.5738163152495
 20
547.6409616536271
 30
0.0
 11
462.1048362161852
 21
560.0097464071822
 31
0.0
  0
LINE
  5
2C4
330
1F
100
AcDbEntity
  8
LAY-10
  6
CONTINUOUS
 62
     7
100
AcDbLine
 10
482.9298158570147
 20
549.120750909018
 30
0.0
 11
469.5738163152495
 21
547.6409616536271
 31
0.0
  0
LINE
  5
2C5
330
1F
100
AcDbEntity
  8
LAY-10
  6
CONTINUOUS
 62
     7
100
AcDbLine
 10
892.9999999999995
 20
464.0000000000004
 30
0.0
 11
892.9999999999995
 21
482.0000000000002
 31
0.0
  0
LINE
  5
2C6
330
1F
100
AcDbEntity
  8
LAY-10
  6
CONTINUOUS
 62
     7
100
AcDbLine
 10
728.0000000000001
 20
464.0000000000003
 30
0.0
 11
892.9999999999999
 21
464.0000000000004
 31
0.0
  0
LINE
  5
2C7
330
1F
100
AcDbEntity
  8
LAY-10
  6
CONTINUOUS
 62
     7
100
AcDbLine
 10
892.9999999999995
 20
482.0000000000002
 30
0.0
 11
980.5025253169414
 21
482.0000000000002
 31
0.0
  0
LINE
  5
2C8
330
1F
100
AcDbEntity
  8
LAY-10
  6
CONTINUOUS
 62
     7
100
AcDbLine
 10
913.9882273130355
 20
572.656433627637
 30
0.0
 11
987.5735931288068
 21
499.0710678118657
 31
0.0
  0
ARC
  5
2C9
330
1F
100
AcDbEntity
  8
LAY-10
  6
CONTINUOUS
 62
     7
100
AcDbCircle
 10
980.5025253169414
 20
492.0000000000002
 30
0.0
 40
10.0
100
AcDbArc
 50
270.0000000000002
 51
44.99999999999999
  0
TEXT
  5
2CA
330
1F
100
AcDbEntity
  8
LAY-10
  6
CONTINUOUS
 62
     7
100
AcDbText
 10
898.4
 20
466.7386002170001
 30
0.0
 40
7.795275999999999
  1
ＳＦ－７５ＬＡ,ＭＡ
 41
1.079768786127168
  7
EXCADSTD
100
AcDbText
  0
LINE
  5
2CB
330
1F
100
AcDbEntity
  8
LAY-10
  6
CONTINUOUS
 62
     7
100
AcDbLine
 10
558.0000000000003
 20
1294.0
 30
0.0
 11
392.9999999999999
 21
1294.0
 31
0.0
  0
LINE
  5
2CC
330
1F
100
AcDbEntity
  8
LAY-10
  6
CONTINUOUS
 62
     7
100
AcDbLine
 10
392.9999999999999
 20
1276.0
 30
0.0
 11
305.4974746830583
 21
1276.0
 31
0.0
  0
LINE
  5
2CD
330
1F
100
AcDbEntity
  8
LAY-10
  6
CONTINUOUS
 62
     7
100
AcDbLine
 10
372.011772686964
 20
1185.343566372363
 30
0.0
 11
298.4264068711928
 21
1258.928932188135
 31
0.0
  0
ARC
  5
2CE
330
1F
100
AcDbEntity
  8
LAY-10
  6
CONTINUOUS
 62
     7
100
AcDbCircle
 10
305.4974746830583
 20
1266.0
 30
0.0
 40
10.0
100
AcDbArc
 50
90.00000000000004
 51
225.0000000000003
  0
LINE
  5
2CF
330
1F
100
AcDbEntity
  8
LAY-10
  6
CONTINUOUS
 62
     7
100
AcDbLine
 10
393.0000000000004
 20
1294.0
 30
0.0
 11
393.0000000000004
 21
1276.0
 31
0.0
  0
TEXT
  5
2D0
330
1F
100
AcDbEntity
  8
LAY-10
  6
CONTINUOUS
 62
     7
100
AcDbText
 10
387.5999999999999
 20
1291.261399783
 30
0.0
 40
7.795275999999999
  1
ＳＦ－７５ＣＴＬ
 50
180.0
 41
1.12
  7
EXCADSTD
100
AcDbText
  0
LINE
  5
2D1
330
1F
100
AcDbEntity
  8
LAY-10
  6
CONTINUOUS
 62
     7
100
AcDbLine
 10
296.829246384386
 20
242.1973294699199
 30
0.0
 11
320.1263736263996
 21
242.1973294699199
 31
0.0
  0
LINE
  5
2D2
330
1F
100
AcDbEntity
  8
LAY-10
  6
CONTINUOUS
 62
     7
100
AcDbLine
 10
642.9999999999999
 20
249.8750106610642
 30
0.0
 11
356.0000000000094
 21
244.8654070266653
 31
0.0
  0
LINE
  5
2D3
330
1F
100
AcDbEntity
  8
LAY-10
  6
CONTINUOUS
 62
     7
100
AcDbLine
 10
1032.691125496978
 20
232.0000000000007
 30
0.0
 11
1027.749999999978
 21
236.9411254969006
 31
0.0
  0
LINE
  5
2D4
330
1F
100
AcDbEntity
  8
LAY-10
  6
CONTINUOUS
 62
     7
100
AcDbLine
 10
1031.249999999979
 20
229.1984848098006
 30
0.0
 11
1024.448484809779
 21
236.0000000000006
 31
0.0
  0
LINE
  5
2D5
330
1F
100
AcDbEntity
  8
LAY-10
  6
CONTINUOUS
 62
     7
100
AcDbLine
 10
1031.249999999979
 20
224.9558441227006
 30
0.0
 11
1025.749999999978
 21
230.4558441227007
 31
0.0
  0
LINE
  5
2D6
330
1F
100
AcDbEntity
  8
LAY-10
  6
CONTINUOUS
 62
     7
100
AcDbLine
 10
1024.205844122678
 20
232.0000000000007
 30
0.0
 11
1021.249999999979
 21
234.9558441227006
 31
0.0
  0
LINE
  5
2D7
330
1F
100
AcDbEntity
  8
LAY-10
  6
CONTINUOUS
 62
     7
100
AcDbLine
 10
1031.249999999979
 20
220.7132034356007
 30
0.0
 11
1025.749999999978
 21
226.2132034356007
 31
0.0
  0
LINE
  5
2D8
330
1F
100
AcDbEntity
  8
LAY-10
  6
CONTINUOUS
 62
     7
100
AcDbLine
 10
1030.720562748478
 20
217.0000000000007
 30
0.0
 11
1025.749999999978
 21
221.9705627484006
 31
0.0
  0
LINE
  5
2D9
330
1F
100
AcDbEntity
  8
LAY-10
  6
CONTINUOUS
 62
     7
100
AcDbLine
 10
1026.477922061378
 20
217.0000000000007
 30
0.0
 11
1025.749999999978
 21
217.7279220613006
 31
0.0
  0
LINE
  5
2DA
330
1F
100
AcDbEntity
  8
LAY-10
  6
CONTINUOUS
 62
     7
100
AcDbLine
 10
1031.096266522079
 20
237.8374996619007
 30
0.0
 11
1025.933766184078
 21
243.0000000000006
 31
0.0
  0
LINE
  5
2DB
330
1F
100
AcDbEntity
  8
LAY-10
  6
CONTINUOUS
 62
     7
100
AcDbLine
 10
1025.749999999989
 20
231.9999999999999
 30
0.0
 11
1025.749999999989
 21
216.9999999999999
 31
0.0
  0
LINE
  5
2DC
330
1F
100
AcDbEntity
  8
LAY-10
  6
CONTINUOUS
 62
     7
100
AcDbLine
 10
1021.148134471879
 20
243.0000000000006
 30
0.0
 11
1021.472952113379
 21
242.3503647171006
 31
0.0
  0
ARC
  5
2DD
330
1F
100
AcDbEntity
  8
LAY-10
  6
CONTINUOUS
 62
     7
100
AcDbCircle
 10
1022.062390170679
 20
236.6555264196005
 30
0.0
 40
5.725261606040002
100
AcDbArc
 50
353.4253748618003
 51
95.90929521177019
  0
ARC
  5
2DE
330
1F
100
AcDbEntity
  8
LAY-10
  6
CONTINUOUS
 62
     7
100
AcDbCircle
 10
1023.489982733579
 20
236.2759429362006
 30
0.0
 40
7.764921923570004
100
AcDbArc
 50
357.9634443894002
 51
59.99169870799965
  0
LINE
  5
2DF
330
1F
100
AcDbEntity
  8
LAY-10
  6
CONTINUOUS
 62
     7
100
AcDbLine
 10
1025.749999999978
 20
217.0000000000007
 30
0.0
 11
1031.249999999979
 21
217.0000000000007
 31
0.0
  0
LINE
  5
2E0
330
1F
100
AcDbEntity
  8
LAY-10
  6
CONTINUOUS
 62
     7
100
AcDbLine
 10
1021.249999999979
 20
236.0000000000006
 30
0.0
 11
1027.749999999978
 21
236.0000000000006
 31
0.0
  0
LINE
  5
2E1
330
1F
100
AcDbEntity
  8
LAY-10
  6
CONTINUOUS
 62
     7
100
AcDbLine
 10
1032.749999999978
 20
236.0000000000006
 30
0.0
 11
1031.249999999979
 21
236.0000000000006
 31
0.0
  0
LINE
  5
2E2
330
1F
100
AcDbEntity
  8
LAY-10
  6
CONTINUOUS
 62
     7
100
AcDbLine
 10
1032.749999999978
 20
232.0000000000007
 30
0.0
 11
1032.749999999978
 21
236.0000000000006
 31
0.0
  0
LINE
  5
2E3
330
1F
100
AcDbEntity
  8
LAY-10
  6
CONTINUOUS
 62
     7
100
AcDbLine
 10
1021.249999999979
 20
232.0000000000007
 30
0.0
 11
1021.249999999979
 21
236.0000000000006
 31
0.0
  0
LINE
  5
2E4
330
1F
100
AcDbEntity
  8
LAY-10
  6
CONTINUOUS
 62
     7
100
AcDbLine
 10
1031.249999999979
 20
232.0000000000007
 30
0.0
 11
1031.249999999979
 21
217.0000000000007
 31
0.0
  0
LINE
  5
2E5
330
1F
100
AcDbEntity
  8
LAY-10
  6
CONTINUOUS
 62
     7
100
AcDbLine
 10
1025.749999999978
 20
232.0000000000007
 30
0.0
 11
1025.749999999978
 21
217.0000000000007
 31
0.0
  0
LINE
  5
2E6
330
1F
100
AcDbEntity
  8
LAY-10
  6
CONTINUOUS
 62
     7
100
AcDbLine
 10
1031.249999999979
 20
232.0000000000007
 30
0.0
 11
1031.249999999979
 21
217.0000000000007
 31
0.0
  0
LINE
  5
2E7
330
1F
100
AcDbEntity
  8
LAY-10
  6
CONTINUOUS
 62
     7
100
AcDbLine
 10
1031.249999999979
 20
217.0000000000007
 30
0.0
 11
1025.749999999978
 21
217.0000000000007
 31
0.0
  0
LINE
  5
2E8
330
1F
100
AcDbEntity
  8
LAY-10
  6
CONTINUOUS
 62
     7
100
AcDbLine
 10
260.2499999999998
 20
217.0000000000001
 30
0.0
 11
254.7499999999998
 21
217.0000000000001
 31
0.0
  0
LINE
  5
2E9
330
1F
100
AcDbEntity
  8
LAY-10
  6
CONTINUOUS
 62
     7
100
AcDbLine
 10
260.2499999999998
 20
232.0000000000001
 30
0.0
 11
260.2499999999998
 21
217.0000000000001
 31
0.0
  0
LINE
  5
2EA
330
1F
100
AcDbEntity
  8
LAY-10
  6
CONTINUOUS
 62
     7
100
AcDbLine
 10
254.7499999999998
 20
232.0000000000001
 30
0.0
 11
254.7499999999998
 21
217.0000000000001
 31
0.0
  0
LINE
  5
2EB
330
1F
100
AcDbEntity
  8
LAY-10
  6
CONTINUOUS
 62
     7
100
AcDbLine
 10
253.3088745030213
 20
232.0000000000008
 30
0.0
 11
258.2500000000214
 21
236.9411254969007
 31
0.0
  0
LINE
  5
2EC
330
1F
100
AcDbEntity
  8
LAY-10
  6
CONTINUOUS
 62
     7
100
AcDbLine
 10
254.7500000000209
 20
229.1984848098007
 30
0.0
 11
261.5515151902209
 21
236.0000000000007
 31
0.0
  0
LINE
  5
2ED
330
1F
100
AcDbEntity
  8
LAY-10
  6
CONTINUOUS
 62
     7
100
AcDbLine
 10
254.7500000000209
 20
224.9558441227007
 30
0.0
 11
260.2500000000214
 21
230.4558441227008
 31
0.0
  0
LINE
  5
2EE
330
1F
100
AcDbEntity
  8
LAY-10
  6
CONTINUOUS
 62
     7
100
AcDbLine
 10
261.7941558773214
 20
232.0000000000008
 30
0.0
 11
264.7500000000209
 21
234.9558441227007
 31
0.0
  0
LINE
  5
2EF
330
1F
100
AcDbEntity
  8
LAY-10
  6
CONTINUOUS
 62
     7
100
AcDbLine
 10
254.7500000000209
 20
220.7132034356008
 30
0.0
 11
260.2500000000214
 21
226.2132034356008
 31
0.0
  0
LINE
  5
2F0
330
1F
100
AcDbEntity
  8
LAY-10
  6
CONTINUOUS
 62
     7
100
AcDbLine
 10
255.2794372515214
 20
217.0000000000008
 30
0.0
 11
260.2500000000214
 21
221.9705627484007
 31
0.0
  0
LINE
  5
2F1
330
1F
100
AcDbEntity
  8
LAY-10
  6
CONTINUOUS
 62
     7
100
AcDbLine
 10
259.5220779386214
 20
217.0000000000008
 30
0.0
 11
260.2500000000214
 21
217.7279220613007
 31
0.0
  0
LINE
  5
2F2
330
1F
100
AcDbEntity
  8
LAY-10
  6
CONTINUOUS
 62
     7
100
AcDbLine
 10
254.9037334779209
 20
237.8374996619008
 30
0.0
 11
260.0662338159214
 21
243.0000000000007
 31
0.0
  0
LINE
  5
2F3
330
1F
100
AcDbEntity
  8
LAY-10
  6
CONTINUOUS
 62
     7
100
AcDbLine
 10
260.2500000000105
 20
232.0
 30
0.0
 11
260.2500000000105
 21
217.0
 31
0.0
  0
LINE
  5
2F4
330
1F
100
AcDbEntity
  8
LAY-10
  6
CONTINUOUS
 62
     7
100
AcDbLine
 10
264.8518655281209
 20
243.0000000000007
 30
0.0
 11
264.5270478866209
 21
242.3503647171007
 31
0.0
  0
ARC
  5
2F5
330
1F
100
AcDbEntity
  8
LAY-10
  6
CONTINUOUS
 62
     7
100
AcDbCircle
 10
263.937609829321
 20
236.6555264196006
 30
0.0
 40
5.725261606040002
100
AcDbArc
 50
84.09070478822984
 51
186.5746251381997
  0
ARC
  5
2F6
330
1F
100
AcDbEntity
  8
LAY-10
  6
CONTINUOUS
 62
     7
100
AcDbCircle
 10
262.5100172664211
 20
236.2759429362006
 30
0.0
 40
7.764921923570004
100
AcDbArc
 50
120.0083012920007
 51
182.0365556105999
  0
LINE
  5
2F7
330
1F
100
AcDbEntity
  8
LAY-10
  6
CONTINUOUS
 62
     7
100
AcDbLine
 10
260.2500000000214
 20
217.0000000000008
 30
0.0
 11
254.7500000000209
 21
217.0000000000008
 31
0.0
  0
LINE
  5
2F8
330
1F
100
AcDbEntity
  8
LAY-10
  6
CONTINUOUS
 62
     7
100
AcDbLine
 10
264.7500000000209
 20
236.0000000000007
 30
0.0
 11
258.2500000000214
 21
236.0000000000007
 31
0.0
  0
LINE
  5
2F9
330
1F
100
AcDbEntity
  8
LAY-10
  6
CONTINUOUS
 62
     7
100
AcDbLine
 10
253.2500000000214
 20
236.0000000000007
 30
0.0
 11
254.7500000000209
 21
236.0000000000007
 31
0.0
  0
LINE
  5
2FA
330
1F
100
AcDbEntity
  8
LAY-10
  6
CONTINUOUS
 62
     7
100
AcDbLine
 10
253.2500000000214
 20
232.0000000000008
 30
0.0
 11
253.2500000000214
 21
236.0000000000007
 31
0.0
  0
LINE
  5
2FB
330
1F
100
AcDbEntity
  8
LAY-10
  6
CONTINUOUS
 62
     7
100
AcDbLine
 10
264.7500000000209
 20
232.0000000000008
 30
0.0
 11
264.7500000000209
 21
236.0000000000007
 31
0.0
  0
LINE
  5
2FC
330
1F
100
AcDbEntity
  8
LAY-10
  6
CONTINUOUS
 62
     7
100
AcDbLine
 10
254.7500000000209
 20
232.0000000000008
 30
0.0
 11
254.7500000000209
 21
217.0000000000008
 31
0.0
  0
LINE
  5
2FD
330
1F
100
AcDbEntity
  8
LAY-10
  6
CONTINUOUS
 62
     7
100
AcDbLine
 10
260.2500000000214
 20
232.0000000000008
 30
0.0
 11
260.2500000000214
 21
217.0000000000008
 31
0.0
  0
LINE
  5
2FE
330
1F
100
AcDbEntity
  8
LAY-10
  6
CONTINUOUS
 62
     7
100
AcDbLine
 10
254.7500000000209
 20
232.0000000000008
 30
0.0
 11
254.7500000000209
 21
217.0000000000008
 31
0.0
  0
LINE
  5
2FF
330
1F
100
AcDbEntity
  8
LAY-10
  6
CONTINUOUS
 62
     7
100
AcDbLine
 10
254.7500000000209
 20
217.0000000000008
 30
0.0
 11
260.2500000000214
 21
217.0000000000008
 31
0.0
  0
LINE
  5
300
330
1F
100
AcDbEntity
  8
LAY-10
  6
CENTER
 62
     2
100
AcDbLine
 10
1194.00000000001
 20
213.7
 30
0.0
 11
1194.00000000001
 21
194.2
 31
0.0
  0
LINE
  5
301
330
1F
100
AcDbEntity
  8
LAY-10
  6
CENTER
 62
     2
100
AcDbLine
 10
257.4999999999999
 20
234.9000000000001
 30
0.0
 11
257.4999999999999
 21
215.5
 31
0.0
  0
LINE
  5
302
330
1F
100
AcDbEntity
  8
LAY-10
  6
CENTER
 62
     2
100
AcDbLine
 10
339.0000000000096
 20
259.5709558435381
 30
0.0
 11
339.0000000000096
 21
238.9343878336101
 31
0.0
  0
LINE
  5
303
330
1F
100
AcDbEntity
  8
LAY-10
  6
CENTER
 62
     2
100
AcDbLine
 10
1028.5
 20
234.8999999999999
 30
0.0
 11
1028.5
 21
215.5
 31
0.0
  0
LINE
  5
304
330
1F
100
AcDbEntity
  8
LAY-10
  6
CENTER
 62
     2
100
AcDbLine
 10
933.0000000000002
 20
263.0647513459417
 30
0.0
 11
933.0000000000002
 21
200.0000000000002
 31
0.0
  0
LINE
  5
305
330
1F
100
AcDbEntity
  8
LAY-10
  6
CENTER
 62
     2
100
AcDbLine
 10
642.9999999999999
 20
287.0
 30
0.0
 11
642.9999999999999
 21
180.0
 31
0.0
  0
LINE
  5
306
330
1F
100
AcDbEntity
  8
LAY-10
  6
CENTER
 62
     2
100
AcDbLine
 10
1033.0
 20
505.2929432577421
 30
0.0
 11
1033.0
 21
472.7070567422581
 31
0.0
  0
LINE
  5
307
330
1F
100
AcDbEntity
  8
LAY-10
  6
CENTER
 62
     2
100
AcDbLine
 10
1016.707056742258
 20
489.0000000000001
 30
0.0
 11
1049.292943257742
 21
489.0000000000001
 31
0.0
  0
LINE
  5
308
330
1F
100
AcDbEntity
  8
LAY-10
  6
CENTER
 62
     2
100
AcDbLine
 10
252.9999999999997
 20
505.2929432577422
 30
0.0
 11
252.9999999999997
 21
472.7070567422583
 31
0.0
  0
LINE
  5
309
330
1F
100
AcDbEntity
  8
LAY-10
  6
CENTER
 62
     2
100
AcDbLine
 10
269.2929432577415
 20
489.0000000000002
 30
0.0
 11
236.7070567422578
 21
489.0000000000002
 31
0.0
  0
LINE
  5
30A
330
1F
100
AcDbEntity
  8
LAY-10
  6
CENTER
 62
     2
100
AcDbLine
 10
252.9999999999997
 20
1252.707056742258
 30
0.0
 11
252.9999999999997
 21
1285.292943257742
 31
0.0
  0
LINE
  5
30B
330
1F
100
AcDbEntity
  8
LAY-10
  6
CENTER
 62
     2
100
AcDbLine
 10
269.2929432577415
 20
1269.0
 30
0.0
 11
236.7070567422578
 21
1269.0
 31
0.0
  0
LINE
  5
30C
330
1F
100
AcDbEntity
  8
LAY-10
  6
CENTER
 62
     2
100
AcDbLine
 10
1033.0
 20
1252.707056742258
 30
0.0
 11
1033.0
 21
1285.292943257742
 31
0.0
  0
LINE
  5
30D
330
1F
100
AcDbEntity
  8
LAY-10
  6
CENTER
 62
     2
100
AcDbLine
 10
1016.707056742258
 20
1269.0
 30
0.0
 11
1049.292943257742
 21
1269.0
 31
0.0
  0
LINE
  5
30E
330
1F
100
AcDbEntity
  8
LAY-10
  6
CENTER
 62
     2
100
AcDbLine
 10
869.7691447265274
 20
1062.352788361673
 30
0.0
 11
825.9992349711679
 21
1106.122698117033
 31
0.0
  0
LINE
  5
30F
330
1F
100
AcDbEntity
  8
LAY-10
  6
CENTER
 62
     2
100
AcDbLine
 10
811.644967312993
 20
1047.644967312993
 30
0.0
 11
884.1234123846144
 21
1120.123412384613
 31
0.0
  0
LINE
  5
310
330
1F
100
AcDbEntity
  8
LAY-10
  6
CENTER
 62
     2
100
AcDbLine
 10
416.2308552734727
 20
1062.352788361673
 30
0.0
 11
460.0007650288322
 21
1106.122698117033
 31
0.0
  0
LINE
  5
311
330
1F
100
AcDbEntity
  8
LAY-10
  6
CENTER
 62
     2
100
AcDbLine
 10
474.3550326870071
 20
1047.644967312993
 30
0.0
 11
401.8765876153859
 21
1120.123412384613
 31
0.0
  0
LINE
  5
312
330
1F
100
AcDbEntity
  8
LAY-10
  6
CENTER
 62
     2
100
AcDbLine
 10
869.7691447265274
 20
695.647211638327
 30
0.0
 11
825.9992349711679
 21
651.8773018829675
 31
0.0
  0
LINE
  5
313
330
1F
100
AcDbEntity
  8
LAY-10
  6
CENTER
 62
     2
100
AcDbLine
 10
811.644967312993
 20
710.3550326870076
 30
0.0
 11
884.1234123846144
 21
637.876587615387
 31
0.0
  0
LINE
  5
314
330
1F
100
AcDbEntity
  8
LAY-10
  6
CENTER
 62
     2
100
AcDbLine
 10
416.2308552734727
 20
695.6472116383268
 30
0.0
 11
460.0007650288322
 21
651.8773018829673
 31
0.0
  0
LINE
  5
315
330
1F
100
AcDbEntity
  8
LAY-10
  6
CENTER
 62
     2
100
AcDbLine
 10
474.3550326870071
 20
710.3550326870076
 30
0.0
 11
401.8765876153859
 21
637.8765876153869
 31
0.0
  0
LINE
  5
316
330
1F
100
AcDbEntity
  8
LAY-10
  6
CENTER
 62
     2
100
AcDbLine
 10
619.258685798802
 20
1191.0
 30
0.0
 11
666.7413142011977
 21
1191.0
 31
0.0
  0
LINE
  5
317
330
1F
100
AcDbEntity
  8
LAY-10
  6
CENTER
 62
     2
100
AcDbLine
 10
182.607793115087
 20
879.0000000000001
 30
0.0
 11
1103.392206884913
 21
879.0000000000001
 31
0.0
  0
LINE
  5
318
330
1F
100
AcDbEntity
  8
LAY-10
  6
CENTER
 62
     2
100
AcDbLine
 10
643.0000000000005
 20
1339.392206884913
 30
0.0
 11
642.9999999999993
 21
418.6077931150874
 31
0.0
  0
LINE
  5
319
330
1F
100
AcDbEntity
  8
LAY-10
  6
CENTER
 62
     2
100
AcDbLine
 10
257.4999999999998
 20
234.8999999999999
 30
0.0
 11
257.4999999999998
 21
215.5000000000001
 31
0.0
  0
LINE
  5
31A
330
1F
100
AcDbEntity
  8
LAY-10
  6
HIDDEN
 62
     7
100
AcDbLine
 10
277.5000000000099
 20
234.5709558435431
 30
0.0
 11
280.4475922207286
 21
234.5709558435431
 31
0.0
  0
LINE
  5
31B
330
1F
100
AcDbEntity
  8
LAY-10
  6
HIDDEN
 62
     7
100
AcDbLine
 10
277.5000000000092
 20
216.5709558435431
 30
0.0
 11
277.5000000000092
 21
234.5709558435431
 31
0.0
  0
LINE
  5
31C
330
1F
100
AcDbEntity
  8
LAY-10
  6
HIDDEN
 62
     7
100
AcDbLine
 10
276.5000000000099
 20
217.5709558435531
 30
0.0
 11
276.5000000000099
 21
233.5709558435431
 31
0.0
  0
LINE
  5
31D
330
1F
100
AcDbEntity
  8
LAY-10
  6
HIDDEN
 62
     7
100
AcDbLine
 10
277.5000000000115
 20
234.5709558435412
 30
0.0
 11
276.5000000000099
 21
233.5709558435394
 31
0.0
  0
LINE
  5
31E
330
1F
100
AcDbEntity
  8
LAY-10
  6
HIDDEN
 62
     7
100
AcDbLine
 10
277.5000000000147
 20
216.5709558435483
 30
0.0
 11
276.5000000000099
 21
217.5709558435535
 31
0.0
  0
LINE
  5
31F
330
1F
100
AcDbEntity
  8
LAY-10
  6
HIDDEN
 62
     7
100
AcDbLine
 10
277.5000000000199
 20
216.5709558435431
 30
0.0
 11
281.0974486838326
 21
216.5709558435428
 31
0.0
  0
LINE
  5
320
330
1F
100
AcDbEntity
  8
LAY-10
  6
HIDDEN
 62
     7
100
AcDbLine
 10
287.5000000000099
 20
237.5709558435381
 30
0.0
 11
287.5000000000099
 21
213.5709558435381
 31
0.0
  0
LINE
  5
321
330
1F
100
AcDbEntity
  8
LAY-10
  6
HIDDEN
 62
     7
100
AcDbLine
 10
287.5000000000099
 20
213.5709558435381
 30
0.0
 11
294.7112236585002
 21
213.5709558435381
 31
0.0
  0
LINE
  5
322
330
1F
100
AcDbEntity
  8
LAY-10
  6
HIDDEN
 62
     7
100
AcDbLine
 10
295.9690103612999
 20
237.5709558435381
 30
0.0
 11
287.5000000000099
 21
237.5709558435381
 31
0.0
  0
LINE
  5
323
330
1F
100
AcDbEntity
  8
LAY-10
  6
HIDDEN
 62
     7
100
AcDbLine
 10
284.3920485654165
 20
234.5709558435431
 30
0.0
 11
287.5000000000099
 21
234.5709558435431
 31
0.0
  0
LINE
  5
324
330
1F
100
AcDbEntity
  8
LAY-10
  6
HIDDEN
 62
     7
100
AcDbLine
 10
285.2292578677435
 20
216.5709558435431
 30
0.0
 11
287.5000000000099
 21
216.5709558435431
 31
0.0
  0
ARC
  5
325
330
1F
100
AcDbEntity
  8
LAY-10
  6
CONTINUOUS
 62
     7
100
AcDbCircle
 10
322.0000000000094
 20
242.5709558435381
 30
0.0
 40
1.0
100
AcDbArc
 50
270.0000000000002
 51
0.0
  0
LINE
  5
326
330
1F
100
AcDbEntity
  8
LAY-10
  6
CONTINUOUS
 62
     7
100
AcDbLine
 10
319.5000000000138
 20
241.5709558435342
 30
0.0
 11
322.000000000014
 21
244.0709558435346
 31
0.0
  0
CIRCLE
  5
327
330
1F
100
AcDbEntity
  8
LAY-10
  6
CONTINUOUS
 62
     7
100
AcDbCircle
 10
321.6750000000292
 20
242.8959558435381
 30
0.0
 40
1.325000000000003
  0
CIRCLE
  5
328
330
1F
100
AcDbEntity
  8
LAY-10
  6
CONTINUOUS
 62
     7
100
AcDbCircle
 10
328.7999999999996
 20
251.370955843538
 30
0.0
 40
1.199999999999989
  0
LINE
  5
329
330
1F
100
AcDbEntity
  8
LAY-10
  6
CONTINUOUS
 62
     7
100
AcDbLine
 10
328.0000000000037
 20
251.0795047089002
 30
0.0
 11
328.0000000000037
 21
249.5709558435381
 31
0.0
  0
LINE
  5
32A
330
1F
100
AcDbEntity
  8
LAY-10
  6
CONTINUOUS
 62
     7
100
AcDbLine
 10
329.0000000000038
 20
249.5709558435381
 30
0.0
 11
329.0000000000038
 21
242.5709558435381
 31
0.0
  0
LINE
  5
32B
330
1F
100
AcDbEntity
  8
LAY-10
  6
CONTINUOUS
 62
     7
100
AcDbLine
 10
328.0000000000037
 20
243.1483061127278
 30
0.0
 11
328.0000000000037
 21
241.5709558435381
 31
0.0
  0
LINE
  5
32C
330
1F
100
AcDbEntity
  8
LAY-10
  6
CONTINUOUS
 62
     7
100
AcDbLine
 10
329.0000000000038
 20
250.3121777209212
 30
0.0
 11
329.0000000000038
 21
249.5709558435381
 31
0.0
  0
LINE
  5
32D
330
1F
100
AcDbEntity
  8
LAY-10
  6
CONTINUOUS
 62
     7
100
AcDbLine
 10
326.0000000000123
 20
252.6141586848516
 30
0.0
 11
329.0000000000096
 21
250.3121777209169
 31
0.0
  0
LINE
  5
32E
330
1F
100
AcDbEntity
  8
LAY-10
  6
CONTINUOUS
 62
     7
100
AcDbLine
 10
330.0000000000035
 20
252.5709558435381
 30
0.0
 11
330.0000000000035
 21
249.5709558435381
 31
0.0
  0
LINE
  5
32F
330
1F
100
AcDbEntity
  8
LAY-10
  6
CONTINUOUS
 62
     7
100
AcDbLine
 10
328.0000000000037
 20
243.1483061127278
 30
0.0
 11
329.0000000000038
 21
242.5709558435381
 31
0.0
  0
LINE
  5
330
330
1F
100
AcDbEntity
  8
LAY-10
  6
CONTINUOUS
 62
     7
100
AcDbLine
 10
328.9999999999997
 20
242.5709558435381
 30
0.0
 11
328.9999999999997
 21
241.5709558435369
 31
0.0
  0
LINE
  5
331
330
1F
100
AcDbEntity
  8
LAY-10
  6
CONTINUOUS
 62
     7
100
AcDbLine
 10
328.0000000000037
 20
249.5709558435381
 30
0.0
 11
328.0000000000037
 21
243.1483061127278
 31
0.0
  0
LINE
  5
332
330
1F
100
AcDbEntity
  8
LAY-10
  6
CONTINUOUS
 62
     7
100
AcDbLine
 10
350.0000000000035
 20
251.0795047088914
 30
0.0
 11
350.0000000000035
 21
249.5709558435381
 31
0.0
  0
CIRCLE
  5
333
330
1F
100
AcDbEntity
  8
LAY-10
  6
CONTINUOUS
 62
     7
100
AcDbCircle
 10
349.2000000000097
 20
251.370955843538
 30
0.0
 40
1.199999999999989
  0
LINE
  5
334
330
1F
100
AcDbEntity
  8
LAY-10
  6
CONTINUOUS
 62
     7
100
AcDbLine
 10
350.0000000000035
 20
243.1483061127276
 30
0.0
 11
350.0000000000035
 21
241.5709558435371
 31
0.0
  0
LINE
  5
335
330
1F
100
AcDbEntity
  8
LAY-10
  6
CONTINUOUS
 62
     7
100
AcDbLine
 10
349.0000000000038
 20
249.5709558435381
 30
0.0
 11
349.0000000000038
 21
242.5709558435381
 31
0.0
  0
LINE
  5
336
330
1F
100
AcDbEntity
  8
LAY-10
  6
CONTINUOUS
 62
     7
100
AcDbLine
 10
348.9999999999997
 20
242.5709558435381
 30
0.0
 11
348.9999999999997
 21
241.5709558435381
 31
0.0
  0
LINE
  5
337
330
1F
100
AcDbEntity
  8
LAY-10
  6
CONTINUOUS
 62
     7
100
AcDbLine
 10
350.0000000000035
 20
243.1483061127276
 30
0.0
 11
349.0000000000038
 21
242.5709558435381
 31
0.0
  0
LINE
  5
338
330
1F
100
AcDbEntity
  8
LAY-10
  6
CONTINUOUS
 62
     7
100
AcDbLine
 10
350.0000000000035
 20
249.5709558435381
 30
0.0
 11
350.0000000000035
 21
243.1483061127276
 31
0.0
  0
LINE
  5
339
330
1F
100
AcDbEntity
  8
LAY-10
  6
CONTINUOUS
 62
     7
100
AcDbLine
 10
349.0000000000038
 20
250.3121777209124
 30
0.0
 11
349.0000000000038
 21
249.5709558435381
 31
0.0
  0
LINE
  5
33A
330
1F
100
AcDbEntity
  8
LAY-10
  6
CONTINUOUS
 62
     7
100
AcDbLine
 10
348.0000000000037
 20
252.5709558435381
 30
0.0
 11
348.0000000000037
 21
249.5709558435381
 31
0.0
  0
CIRCLE
  5
33B
330
1F
100
AcDbEntity
  8
LAY-10
  6
CONTINUOUS
 62
     7
100
AcDbCircle
 10
356.3249999999892
 20
242.8959558435381
 30
0.0
 40
1.325000000000003
  0
ARC
  5
33C
330
1F
100
AcDbEntity
  8
LAY-10
  6
CONTINUOUS
 62
     7
100
AcDbCircle
 10
356.0000000000094
 20
242.5709558435381
 30
0.0
 40
1.0
100
AcDbArc
 50
180.0
 51
270.0000000000002
  0
LINE
  5
33D
330
1F
100
AcDbEntity
  8
LAY-10
  6
CONTINUOUS
 62
     7
100
AcDbLine
 10
358.5000000000055
 20
241.5709558435342
 30
0.0
 11
356.0000000000049
 21
244.0709558435346
 31
0.0
  0
ARC
  5
33E
330
1F
100
AcDbEntity
  8
LAY-10
  6
CONTINUOUS
 62
     7
100
AcDbCircle
 10
642.9999999999999
 20
879.0000000000001
 30
0.0
 40
348.9999999999999
100
AcDbArc
 50
225.0000000000001
 51
315.0000000000002
  0
LINE
  5
33F
330
1F
100
AcDbEntity
  8
LAY-10
  6
CONTINUOUS
 62
     7
100
AcDbLine
 10
396.2197333658997
 20
632.2197333658902
 30
0.0
 11
385.6131316481
 21
621.6131316480902
 31
0.0
  0
LINE
  5
340
330
1F
100
AcDbEntity
  8
LAY-10
  6
CONTINUOUS
 62
     7
100
AcDbLine
 10
383.4918113044999
 20
619.4918113045402
 30
0.0
 11
379.9562773985996
 21
615.9562773986203
 31
0.0
  0
LINE
  5
341
330
1F
100
AcDbEntity
  8
LAY-10
  6
CONTINUOUS
 62
     7
100
AcDbLine
 10
396.2447030710897
 20
625.1736352592085
 30
0.0
 11
378.5653863148331
 21
607.4943185029518
 31
0.0
  0
LINE
  5
342
330
1F
100
AcDbEntity
  8
LAY-10
  6
CONTINUOUS
 62
     7
100
AcDbLine
 10
900.3868683518999
 20
621.6131316481001
 30
0.0
 11
889.7802666341099
 21
632.21973336589
 31
0.0
  0
LINE
  5
343
330
1F
100
AcDbEntity
  8
LAY-10
  6
CONTINUOUS
 62
     7
100
AcDbLine
 10
902.5081886954598
 20
619.49181130454
 30
0.0
 11
906.0437226013997
 21
615.9562773986
 31
0.0
  0
LINE
  5
344
330
1F
100
AcDbEntity
  8
LAY-10
  6
CONTINUOUS
 62
     7
100
AcDbLine
 10
889.7552969289208
 20
625.173635259219
 30
0.0
 11
907.4346136851776
 21
607.4943185029623
 31
0.0
  0
LINE
  5
345
330
1F
100
AcDbEntity
  8
LAY-10
  6
CONTINUOUS
 62
     7
100
AcDbLine
 10
832.499999999921
 20
550.7763719656521
 30
0.0
 11
819.9999999999204
 21
572.4270070602629
 31
0.0
  0
LINE
  5
346
330
1F
100
AcDbEntity
  8
LAY-10
  6
CONTINUOUS
 62
     7
100
AcDbLine
 10
815.6522167331349
 20
569.9575885786314
 30
0.0
 11
828.1533814982294
 21
548.3049360516985
 31
0.0
  0
ARC
  5
347
330
1F
100
AcDbEntity
  8
LAY-10
  6
CONTINUOUS
 62
     7
100
AcDbCircle
 10
642.9999999999999
 20
879.0000000000001
 30
0.0
 40
353.9999999999999
100
AcDbArc
 50
225.8092893323123
 51
299.190710667676
  0
ARC
  5
348
330
1F
100
AcDbEntity
  8
LAY-10
  6
CONTINUOUS
 62
     7
100
AcDbCircle
 10
642.9999999999999
 20
879.0000000000001
 30
0.0
 40
353.9999999999999
100
AcDbArc
 50
299.9999999999853
 51
314.1907106676916
  0
ARC
  5
349
330
1F
100
AcDbEntity
  8
LAY-10
  6
CONTINUOUS
 62
     7
100
AcDbCircle
 10
642.9999999999999
 20
879.0000000000001
 30
0.0
 40
379.0000000000002
100
AcDbArc
 50
225.7559029241507
 51
299.2440970758342
  0
ARC
  5
34A
330
1F
100
AcDbEntity
  8
LAY-10
  6
CONTINUOUS
 62
     7
100
AcDbCircle
 10
642.9999999999999
 20
879.0000000000001
 30
0.0
 40
379.0000000000002
100
AcDbArc
 50
299.9999999999862
 51
314.2440970758485
  0
LINE
  5
34B
330
1F
100
AcDbEntity
  8
LAY-10
  6
CONTINUOUS
 62
     7
100
AcDbLine
 10
702.9999999999999
 20
1238.0208907571
 30
0.0
 11
707.1208791208738
 21
1262.678918968408
 31
0.0
  0
ARC
  5
34C
330
1F
100
AcDbEntity
  8
LAY-10
  6
CONTINUOUS
 62
     7
100
AcDbCircle
 10
642.9999999999999
 20
879.0000000000001
 30
0.0
 40
363.9999999999999
100
AcDbArc
 50
315.0000000000002
 51
79.72528631375874
  0
LINE
  5
34D
330
1F
100
AcDbEntity
  8
LAY-10
  6
CONTINUOUS
 62
     7
100
AcDbLine
 10
707.9259448269781
 20
1237.162842417139
 30
0.0
 11
707.1064930381302
 21
1232.259503897727
 31
0.0
  0
ARC
  5
34E
330
1F
100
AcDbEntity
  8
LAY-10
  6
CONTINUOUS
 62
     7
100
AcDbCircle
 10
642.9999999999999
 20
879.0000000000001
 30
0.0
 40
367.0000000000003
100
AcDbArc
 50
315.0000000000002
 51
79.731720403081
  0
ARC
  5
34F
330
1F
100
AcDbEntity
  8
LAY-10
  6
CONTINUOUS
 62
     7
100
AcDbCircle
 10
642.9999999999999
 20
879.0000000000001
 30
0.0
 40
372.0000000000003
100
AcDbArc
 50
315.0000000000002
 51
79.74221325167859
  0
LINE
  5
350
330
1F
100
AcDbEntity
  8
LAY-10
  6
CONTINUOUS
 62
     7
100
AcDbLine
 10
709.2447478947673
 20
1245.054139952505
 30
0.0
 11
708.4204965995222
 21
1240.122082715396
 31
0.0
  0
LINE
  5
351
330
1F
100
AcDbEntity
  8
LAY-10
  6
CONTINUOUS
 62
     7
100
AcDbLine
 10
583.0000000000003
 20
1238.0208907571
 30
0.0
 11
578.8791208791264
 21
1262.678918968408
 31
0.0
  0
LINE
  5
352
330
1F
100
AcDbEntity
  8
LAY-10
  6
CONTINUOUS
 62
     7
100
AcDbLine
 10
578.074055173022
 20
1237.162842417139
 30
0.0
 11
578.89350696187
 21
1232.259503897727
 31
0.0
  0
LINE
  5
353
330
1F
100
AcDbEntity
  8
LAY-10
  6
CONTINUOUS
 62
     7
100
AcDbLine
 10
576.7552521052329
 20
1245.054139952505
 30
0.0
 11
577.5795034004781
 21
1240.122082715396
 31
0.0
  0
ARC
  5
354
330
1F
100
AcDbEntity
  8
LAY-10
  6
CONTINUOUS
 62
     7
100
AcDbCircle
 10
642.9999999999999
 20
879.0000000000001
 30
0.0
 40
363.9999999999999
100
AcDbArc
 50
80.51234100434314
 51
99.48765899565693
  0
ARC
  5
355
330
1F
100
AcDbEntity
  8
LAY-10
  6
CONTINUOUS
 62
     7
100
AcDbCircle
 10
642.9999999999999
 20
879.0000000000001
 30
0.0
 40
358.9999999999999
100
AcDbArc
 50
79.71438860733628
 51
100.2856113926638
  0
ARC
  5
356
330
1F
100
AcDbEntity
  8
LAY-10
  6
CONTINUOUS
 62
     7
100
AcDbCircle
 10
642.9999999999999
 20
879.0000000000001
 30
0.0
 40
363.9999999999999
100
AcDbArc
 50
100.2856113926638
 51
225.0000000000003
  0
ARC
  5
357
330
1F
100
AcDbEntity
  8
LAY-10
  6
CONTINUOUS
 62
     7
100
AcDbCircle
 10
642.9999999999999
 20
879.0000000000001
 30
0.0
 40
367.0000000000003
100
AcDbArc
 50
100.2682795969192
 51
225.0000000000003
  0
ARC
  5
358
330
1F
100
AcDbEntity
  8
LAY-10
  6
CONTINUOUS
 62
     7
100
AcDbCircle
 10
642.9999999999999
 20
879.0000000000001
 30
0.0
 40
372.0000000000003
100
AcDbArc
 50
100.2577867483265
 51
225.0000000000003
  0
ARC
  5
359
330
1F
100
AcDbEntity
  8
LAY-10
  6
CONTINUOUS
 62
     7
100
AcDbCircle
 10
642.9999999999999
 20
879.0000000000001
 30
0.0
 40
389.0000000000003
100
AcDbArc
 50
80.51234100434309
 51
99.48765899566092
  0
LINE
  5
35A
330
1F
100
AcDbEntity
  8
LAY-10
  6
CONTINUOUS
 62
     7
100
AcDbLine
 10
861.4959953871008
 20
1131.437120883965
 30
0.0
 11
895.4371208839661
 21
1097.4959953871
 31
0.0
  0
LINE
  5
35B
330
1F
100
AcDbEntity
  8
LAY-10
  6
CONTINUOUS
 62
     7
100
AcDbLine
 10
834.6259377021007
 20
1036.684812204235
 30
0.0
 11
895.4371208839661
 21
1097.4959953871
 31
0.0
  0
LINE
  5
35C
330
1F
100
AcDbEntity
  8
LAY-10
  6
CONTINUOUS
 62
     7
100
AcDbLine
 10
800.6848122052352
 20
1070.6259377021
 30
0.0
 11
861.4959953871008
 21
1131.437120883965
 31
0.0
  0
LINE
  5
35D
330
1F
100
AcDbEntity
  8
LAY-10
  6
CONTINUOUS
 62
     7
100
AcDbLine
 10
800.6848122052352
 20
1070.6259377021
 30
0.0
 11
834.6259377021007
 21
1036.684812204235
 31
0.0
  0
LINE
  5
35E
330
1F
100
AcDbEntity
  8
LAY-10
  6
CONTINUOUS
 62
     7
100
AcDbLine
 10
424.5040046128995
 20
1131.437120883965
 30
0.0
 11
390.562879116034
 21
1097.4959953871
 31
0.0
  0
LINE
  5
35F
330
1F
100
AcDbEntity
  8
LAY-10
  6
CONTINUOUS
 62
     7
100
AcDbLine
 10
451.3740622978995
 20
1036.684812204235
 30
0.0
 11
390.562879116034
 21
1097.4959953871
 31
0.0
  0
LINE
  5
360
330
1F
100
AcDbEntity
  8
LAY-10
  6
CONTINUOUS
 62
     7
100
AcDbLine
 10
485.315187794765
 20
1070.6259377021
 30
0.0
 11
424.5040046128995
 21
1131.437120883965
 31
0.0
  0
LINE
  5
361
330
1F
100
AcDbEntity
  8
LAY-10
  6
CONTINUOUS
 62
     7
100
AcDbLine
 10
485.315187794765
 20
1070.6259377021
 30
0.0
 11
451.3740622978995
 21
1036.684812204235
 31
0.0
  0
LINE
  5
362
330
1F
100
AcDbEntity
  8
LAY-10
  6
CONTINUOUS
 62
     7
100
AcDbLine
 10
861.4959953871008
 20
626.562879116035
 30
0.0
 11
895.4371208839661
 21
660.5040046129002
 31
0.0
  0
LINE
  5
363
330
1F
100
AcDbEntity
  8
LAY-10
  6
CONTINUOUS
 62
     7
100
AcDbLine
 10
834.6259377021007
 20
721.3151877957655
 30
0.0
 11
895.4371208839661
 21
660.5040046129002
 31
0.0
  0
LINE
  5
364
330
1F
100
AcDbEntity
  8
LAY-10
  6
CONTINUOUS
 62
     7
100
AcDbLine
 10
800.6848122052352
 20
687.3740622979001
 30
0.0
 11
861.4959953871008
 21
626.562879116035
 31
0.0
  0
LINE
  5
365
330
1F
100
AcDbEntity
  8
LAY-10
  6
CONTINUOUS
 62
     7
100
AcDbLine
 10
800.6848122052352
 20
687.3740622979001
 30
0.0
 11
834.6259377021007
 21
721.3151877957655
 31
0.0
  0
LINE
  5
366
330
1F
100
AcDbEntity
  8
LAY-10
  6
CONTINUOUS
 62
     7
100
AcDbLine
 10
424.5040046128995
 20
626.5628791160349
 30
0.0
 11
390.562879116034
 21
660.5040046129001
 31
0.0
  0
LINE
  5
367
330
1F
100
AcDbEntity
  8
LAY-10
  6
CONTINUOUS
 62
     7
100
AcDbLine
 10
451.3740622978995
 20
721.3151877957654
 30
0.0
 11
390.562879116034
 21
660.5040046129001
 31
0.0
  0
LINE
  5
368
330
1F
100
AcDbEntity
  8
LAY-10
  6
CONTINUOUS
 62
     7
100
AcDbLine
 10
485.315187794765
 20
687.3740622979
 30
0.0
 11
424.5040046128995
 21
626.5628791160349
 31
0.0
  0
LINE
  5
369
330
1F
100
AcDbEntity
  8
LAY-10
  6
CONTINUOUS
 62
     7
100
AcDbLine
 10
485.315187794765
 20
687.3740622979
 30
0.0
 11
451.3740622978995
 21
721.3151877957654
 31
0.0
  0
LINE
  5
36A
330
1F
100
AcDbEntity
  8
LAY-10
  6
PHANTOM
 62
     7
100
AcDbLine
 10
264.5274381720955
 20
255.2705754573294
 30
0.0
 11
263.9999999999612
 21
258.2618259739234
 31
0.0
  0
LINE
  5
36B
330
1F
100
AcDbEntity
  8
LAY-10
  6
PHANTOM
 62
     7
100
AcDbLine
 10
288.4693051070896
 20
255.6884822991879
 30
0.0
 11
289.0000000000031
 21
258.6982025971295
 31
0.0
  0
LINE
  5
36C
330
1F
100
AcDbEntity
  8
LAY-10
  6
PHANTOM
 62
     7
100
AcDbLine
 10
294.5274381721441
 20
255.7942274051848
 30
0.0
 11
294.0000000000113
 21
258.7854779217721
 31
0.0
  0
LINE
  5
36D
330
1F
100
AcDbEntity
  8
LAY-10
  6
PHANTOM
 62
     7
100
AcDbLine
 10
264.5922724510998
 20
255.2717071438851
 30
0.0
 11
288.46930510709
 21
255.6884822991886
 31
0.0
  0
LINE
  5
36E
330
1F
100
AcDbEntity
  8
LAY-10
  6
PHANTOM
 62
     7
100
AcDbLine
 10
294.5274381721443
 20
255.794227405183
 30
0.0
 11
642.9999999999999
 21
261.8768385975918
 31
0.0
  0
LINE
  5
36F
330
1F
100
AcDbEntity
  8
LAY-10
  6
PHANTOM
 62
     7
100
AcDbLine
 10
889.7378942954299
 20
257.5700126324123
 30
0.0
 11
642.9999999999999
 21
261.8768385975918
 31
0.0
  0
LINE
  5
370
330
1F
100
AcDbEntity
  8
LAY-10
  6
PHANTOM
 62
     7
100
AcDbLine
 10
889.7378942954341
 20
257.5700126324098
 30
0.0
 11
890.0000000000003
 21
260.5658945444504
 31
0.0
  0
LINE
  5
371
330
1F
100
AcDbEntity
  8
LAY-10
  6
PHANTOM
 62
     7
100
AcDbLine
 10
1021.472561827904
 20
255.2705754573294
 30
0.0
 11
1022.000000000039
 21
258.2618259739231
 31
0.0
  0
LINE
  5
372
330
1F
100
AcDbEntity
  8
LAY-10
  6
PHANTOM
 62
     7
100
AcDbLine
 10
976.2629074628334
 20
256.0597129096579
 30
0.0
 11
976.0000000000006
 21
259.0647589606233
 31
0.0
  0
LINE
  5
373
330
1F
100
AcDbEntity
  8
LAY-10
  6
PHANTOM
 62
     7
100
AcDbLine
 10
976.2629074628298
 20
256.0597129096598
 30
0.0
 11
1021.4725618279
 21
255.2705754573351
 31
0.0
  0
LINE
  5
374
330
1F
100
AcDbEntity
  8
LAY-20
  6
CONTINUOUS
 62
     4
100
AcDbLine
 10
233.9999999999999
 20
265.5
 30
0.0
 11
233.9999999999999
 21
392.37729558175
 31
0.0
  0
LINE
  5
375
330
1F
100
AcDbEntity
  8
LAY-20
  6
CONTINUOUS
 62
     4
100
AcDbLine
 10
1052.0
 20
265.5
 30
0.0
 11
1052.0
 21
392.37729558175
 31
0.0
  0
LINE
  5
376
330
1F
100
AcDbEntity
  8
LAY-20
  6
CONTINUOUS
 62
     4
100
AcDbLine
 10
233.9999999999999
 20
384.87729558175
 30
0.0
 11
1052.0
 21
384.87729558175
 31
0.0
  0
LINE
  5
377
330
1F
100
AcDbEntity
  8
LAY-20
  6
CONTINUOUS
 62
     4
100
AcDbLine
 10
246.4999999999999
 20
386.9606289150834
 30
0.0
 11
233.9999999999999
 21
384.87729558175
 31
0.0
  0
LINE
  5
378
330
1F
100
AcDbEntity
  8
LAY-20
  6
CONTINUOUS
 62
     4
100
AcDbLine
 10
233.9999999999999
 20
384.87729558175
 30
0.0
 11
246.4999999999999
 21
382.7939622484167
 31
0.0
  0
LINE
  5
379
330
1F
100
AcDbEntity
  8
LAY-20
  6
CONTINUOUS
 62
     4
100
AcDbLine
 10
246.4999999999999
 20
382.7939622484167
 30
0.0
 11
246.4999999999999
 21
386.9606289150834
 31
0.0
  0
LINE
  5
37A
330
1F
100
AcDbEntity
  8
LAY-20
  6
CONTINUOUS
 62
     4
100
AcDbLine
 10
246.4999999999999
 20
385.9189622484167
 30
0.0
 11
233.9999999999999
 21
384.87729558175
 31
0.0
  0
LINE
  5
37B
330
1F
100
AcDbEntity
  8
LAY-20
  6
CONTINUOUS
 62
     4
100
AcDbLine
 10
233.9999999999999
 20
384.87729558175
 30
0.0
 11
246.4999999999999
 21
383.8356289150834
 31
0.0
  0
LINE
  5
37C
330
1F
100
AcDbEntity
  8
LAY-20
  6
CONTINUOUS
 62
     4
100
AcDbLine
 10
1039.5
 20
382.7939622484167
 30
0.0
 11
1052.0
 21
384.87729558175
 31
0.0
  0
LINE
  5
37D
330
1F
100
AcDbEntity
  8
LAY-20
  6
CONTINUOUS
 62
     4
100
AcDbLine
 10
1052.0
 20
384.87729558175
 30
0.0
 11
1039.5
 21
386.9606289150834
 31
0.0
  0
LINE
  5
37E
330
1F
100
AcDbEntity
  8
LAY-20
  6
CONTINUOUS
 62
     4
100
AcDbLine
 10
1039.5
 20
386.9606289150834
 30
0.0
 11
1039.5
 21
382.7939622484167
 31
0.0
  0
LINE
  5
37F
330
1F
100
AcDbEntity
  8
LAY-20
  6
CONTINUOUS
 62
     4
100
AcDbLine
 10
1039.5
 20
383.8356289150834
 30
0.0
 11
1052.0
 21
384.87729558175
 31
0.0
  0
LINE
  5
380
330
1F
100
AcDbEntity
  8
LAY-20
  6
CONTINUOUS
 62
     4
100
AcDbLine
 10
1052.0
 20
384.87729558175
 30
0.0
 11
1039.5
 21
385.9189622484167
 31
0.0
  0
LINE
  5
381
330
1F
100
AcDbEntity
  8
LAY-20
  6
CONTINUOUS
 62
     4
100
AcDbLine
 10
248.9999999999999
 20
265.5
 30
0.0
 11
248.9999999999999
 21
357.37729558173
 31
0.0
  0
LINE
  5
382
330
1F
100
AcDbEntity
  8
LAY-20
  6
CONTINUOUS
 62
     4
100
AcDbLine
 10
1037.0
 20
265.5
 30
0.0
 11
1037.0
 21
357.37729558173
 31
0.0
  0
LINE
  5
383
330
1F
100
AcDbEntity
  8
LAY-20
  6
CONTINUOUS
 62
     4
100
AcDbLine
 10
248.9999999999999
 20
349.87729558173
 30
0.0
 11
1037.0
 21
349.87729558173
 31
0.0
  0
LINE
  5
384
330
1F
100
AcDbEntity
  8
LAY-20
  6
CONTINUOUS
 62
     4
100
AcDbLine
 10
261.4999999999999
 20
351.9606289150634
 30
0.0
 11
248.9999999999999
 21
349.87729558173
 31
0.0
  0
LINE
  5
385
330
1F
100
AcDbEntity
  8
LAY-20
  6
CONTINUOUS
 62
     4
100
AcDbLine
 10
248.9999999999999
 20
349.87729558173
 30
0.0
 11
261.4999999999999
 21
347.7939622483967
 31
0.0
  0
LINE
  5
386
330
1F
100
AcDbEntity
  8
LAY-20
  6
CONTINUOUS
 62
     4
100
AcDbLine
 10
261.4999999999999
 20
347.7939622483967
 30
0.0
 11
261.4999999999999
 21
351.9606289150634
 31
0.0
  0
LINE
  5
387
330
1F
100
AcDbEntity
  8
LAY-20
  6
CONTINUOUS
 62
     4
100
AcDbLine
 10
261.4999999999999
 20
350.9189622483967
 30
0.0
 11
248.9999999999999
 21
349.87729558173
 31
0.0
  0
LINE
  5
388
330
1F
100
AcDbEntity
  8
LAY-20
  6
CONTINUOUS
 62
     4
100
AcDbLine
 10
248.9999999999999
 20
349.87729558173
 30
0.0
 11
261.4999999999999
 21
348.8356289150634
 31
0.0
  0
LINE
  5
389
330
1F
100
AcDbEntity
  8
LAY-20
  6
CONTINUOUS
 62
     4
100
AcDbLine
 10
1024.5
 20
347.7939622483967
 30
0.0
 11
1037.0
 21
349.87729558173
 31
0.0
  0
LINE
  5
38A
330
1F
100
AcDbEntity
  8
LAY-20
  6
CONTINUOUS
 62
     4
100
AcDbLine
 10
1037.0
 20
349.87729558173
 30
0.0
 11
1024.5
 21
351.9606289150634
 31
0.0
  0
LINE
  5
38B
330
1F
100
AcDbEntity
  8
LAY-20
  6
CONTINUOUS
 62
     4
100
AcDbLine
 10
1024.5
 20
351.9606289150634
 30
0.0
 11
1024.5
 21
347.7939622483967
 31
0.0
  0
LINE
  5
38C
330
1F
100
AcDbEntity
  8
LAY-20
  6
CONTINUOUS
 62
     4
100
AcDbLine
 10
1024.5
 20
348.8356289150634
 30
0.0
 11
1037.0
 21
349.87729558173
 31
0.0
  0
LINE
  5
38D
330
1F
100
AcDbEntity
  8
LAY-20
  6
CONTINUOUS
 62
     4
100
AcDbLine
 10
1037.0
 20
349.87729558173
 30
0.0
 11
1024.5
 21
350.9189622483967
 31
0.0
  0
LINE
  5
38E
330
1F
100
AcDbEntity
  8
LAY-20
  6
CONTINUOUS
 62
     4
100
AcDbLine
 10
267.9999999999997
 20
207.5
 30
0.0
 11
267.9999999999997
 21
140.5
 31
0.0
  0
LINE
  5
38F
330
1F
100
AcDbEntity
  8
LAY-20
  6
CONTINUOUS
 62
     4
100
AcDbLine
 10
1018.0
 20
207.5
 30
0.0
 11
1018.0
 21
140.5
 31
0.0
  0
LINE
  5
390
330
1F
100
AcDbEntity
  8
LAY-20
  6
CONTINUOUS
 62
     4
100
AcDbLine
 10
267.9999999999997
 20
148.0
 30
0.0
 11
1018.0
 21
148.0
 31
0.0
  0
LINE
  5
391
330
1F
100
AcDbEntity
  8
LAY-20
  6
CONTINUOUS
 62
     4
100
AcDbLine
 10
280.4999999999997
 20
150.0833333333333
 30
0.0
 11
267.9999999999997
 21
148.0
 31
0.0
  0
LINE
  5
392
330
1F
100
AcDbEntity
  8
LAY-20
  6
CONTINUOUS
 62
     4
100
AcDbLine
 10
267.9999999999997
 20
148.0
 30
0.0
 11
280.4999999999997
 21
145.9166666666667
 31
0.0
  0
LINE
  5
393
330
1F
100
AcDbEntity
  8
LAY-20
  6
CONTINUOUS
 62
     4
100
AcDbLine
 10
280.4999999999997
 20
145.9166666666667
 30
0.0
 11
280.4999999999997
 21
150.0833333333333
 31
0.0
  0
LINE
  5
394
330
1F
100
AcDbEntity
  8
LAY-20
  6
CONTINUOUS
 62
     4
100
AcDbLine
 10
280.4999999999997
 20
149.0416666666667
 30
0.0
 11
267.9999999999997
 21
148.0
 31
0.0
  0
LINE
  5
395
330
1F
100
AcDbEntity
  8
LAY-20
  6
CONTINUOUS
 62
     4
100
AcDbLine
 10
267.9999999999997
 20
148.0
 30
0.0
 11
280.4999999999997
 21
146.9583333333333
 31
0.0
  0
LINE
  5
396
330
1F
100
AcDbEntity
  8
LAY-20
  6
CONTINUOUS
 62
     4
100
AcDbLine
 10
1005.5
 20
145.9166666666667
 30
0.0
 11
1018.0
 21
148.0
 31
0.0
  0
LINE
  5
397
330
1F
100
AcDbEntity
  8
LAY-20
  6
CONTINUOUS
 62
     4
100
AcDbLine
 10
1018.0
 20
148.0
 30
0.0
 11
1005.5
 21
150.0833333333333
 31
0.0
  0
LINE
  5
398
330
1F
100
AcDbEntity
  8
LAY-20
  6
CONTINUOUS
 62
     4
100
AcDbLine
 10
1005.5
 20
150.0833333333333
 30
0.0
 11
1005.5
 21
145.9166666666667
 31
0.0
  0
LINE
  5
399
330
1F
100
AcDbEntity
  8
LAY-20
  6
CONTINUOUS
 62
     4
100
AcDbLine
 10
1005.5
 20
146.9583333333333
 30
0.0
 11
1018.0
 21
148.0
 31
0.0
  0
LINE
  5
39A
330
1F
100
AcDbEntity
  8
LAY-20
  6
CONTINUOUS
 62
     4
100
AcDbLine
 10
1018.0
 20
148.0
 30
0.0
 11
1005.5
 21
149.0416666666667
 31
0.0
  0
LINE
  5
39B
330
1F
100
AcDbEntity
  8
LAY-20
  6
CONTINUOUS
 62
     4
100
AcDbLine
 10
217.9999999999997
 20
190.5
 30
0.0
 11
217.9999999999997
 21
105.5
 31
0.0
  0
LINE
  5
39C
330
1F
100
AcDbEntity
  8
LAY-20
  6
CONTINUOUS
 62
     4
100
AcDbLine
 10
217.9999999999997
 20
113.0
 30
0.0
 11
1068.0
 21
113.0
 31
0.0
  0
LINE
  5
39D
330
1F
100
AcDbEntity
  8
LAY-20
  6
CONTINUOUS
 62
     4
100
AcDbLine
 10
230.4999999999997
 20
115.0833333333333
 30
0.0
 11
217.9999999999997
 21
113.0
 31
0.0
  0
LINE
  5
39E
330
1F
100
AcDbEntity
  8
LAY-20
  6
CONTINUOUS
 62
     4
100
AcDbLine
 10
217.9999999999997
 20
113.0
 30
0.0
 11
230.4999999999997
 21
110.9166666666667
 31
0.0
  0
LINE
  5
39F
330
1F
100
AcDbEntity
  8
LAY-20
  6
CONTINUOUS
 62
     4
100
AcDbLine
 10
230.4999999999997
 20
110.9166666666667
 30
0.0
 11
230.4999999999997
 21
115.0833333333333
 31
0.0
  0
LINE
  5
3A0
330
1F
100
AcDbEntity
  8
LAY-20
  6
CONTINUOUS
 62
     4
100
AcDbLine
 10
230.4999999999997
 20
114.0416666666667
 30
0.0
 11
217.9999999999997
 21
113.0
 31
0.0
  0
LINE
  5
3A1
330
1F
100
AcDbEntity
  8
LAY-20
  6
CONTINUOUS
 62
     4
100
AcDbLine
 10
217.9999999999997
 20
113.0
 30
0.0
 11
230.4999999999997
 21
111.9583333333333
 31
0.0
  0
DIMENSION
  5
3A3
330
1F
100
AcDbEntity
  8
LAY-20
  6
CONTINUOUS
 62
     4
100
AcDbDimension
  2
*D15
 10
1037.0
 20
349.87729558173
 30
0.0
 11
642.9999999999999
 21
362.37729558173
 31
0.0
 70
   160
  1
%%c<>
  3
ISO-25
100
AcDbAlignedDimension
 13
249.0
 23
265.5
 33
0.0
 14
1037.0
 24
265.5
 34
0.0
100
AcDbRotatedDimension
1001
ACAD
1000
DSTYLE
1002
{
1070
   270
1070
     2
1070
     6
1000
EX_BNORM
1070
     7
1000
EX_BNORM
1070
    41
1040
15.0
1070
    42
1040
7.5
1070
    44
1040
7.5
1070
    73
1070
     0
1070
    74
1070
     0
1070
    75
1070
     0
1070
    76
1070
     0
1070
    77
1070
     1
1070
    78
1070
     8
1070
   140
1040
15.590552
1070
   147
1040
0.0
1070
   173
1070
     1
1070
   176
1070
     4
1070
   177
1070
     4
1070
   178
1070
     7
1070
   271
1070
     1
1070
   277
1070
     2
1070
   279
1070
     2
1070
   280
1070
     0
1070
   287
1070
     5
1070
   340
1005
3A2
1002
}
  0
DIMENSION
  5
3B1
330
1F
100
AcDbEntity
  8
LAY-20
  6
CONTINUOUS
 62
     4
100
AcDbDimension
  2
*D16
 10
1052.0
 20
384.87729558175
 30
0.0
 11
642.9999999999999
 21
397.37729558175
 31
0.0
 70
   160
  1
%%c<>
  3
ISO-25
100
AcDbAlignedDimension
 13
234.0
 23
258.0
 33
0.0
 14
1052.0
 24
258.0
 34
0.0
100
AcDbRotatedDimension
1001
ACAD
1000
DSTYLE
1002
{
1070
   270
1070
     2
1070
     6
1000
EX_BNORM
1070
     7
1000
EX_BNORM
1070
    41
1040
15.0
1070
    42
1040
7.5
1070
    44
1040
7.5
1070
    73
1070
     0
1070
    74
1070
     0
1070
    75
1070
     0
1070
    76
1070
     0
1070
    77
1070
     1
1070
    78
1070
     8
1070
   140
1040
15.590552
1070
   147
1040
0.0
1070
   173
1070
     1
1070
   176
1070
     4
1070
   177
1070
     4
1070
   178
1070
     7
1070
   271
1070
     1
1070
   277
1070
     2
1070
   279
1070
     2
1070
   280
1070
     0
1070
   287
1070
     5
1070
   340
1005
3A2
1002
}
  0
DIMENSION
  5
3BE
330
1F
100
AcDbEntity
  8
LAY-20
  6
CONTINUOUS
 62
     4
100
AcDbDimension
  2
*D17
 10
1018.0
 20
148.0
 30
0.0
 11
643.0000000000001
 21
160.5
 31
0.0
 70
   160
  1
%%c<>
  3
ISO-25
100
AcDbAlignedDimension
 13
268.0
 23
207.5
 33
0.0
 14
1018.0
 24
203.0
 34
0.0
100
AcDbRotatedDimension
1001
ACAD
1000
DSTYLE
1002
{
1070
   270
1070
     2
1070
     6
1000
EX_BNORM
1070
     7
1000
EX_BNORM
1070
    41
1040
15.0
1070
    42
1040
7.5
1070
    44
1040
7.5
1070
    73
1070
     0
1070
    74
1070
     0
1070
    75
1070
     0
1070
    76
1070
     0
1070
    77
1070
     1
1070
    78
1070
     8
1070
   140
1040
15.590552
1070
   147
1040
0.0
1070
   173
1070
     1
1070
   176
1070
     4
1070
   177
1070
     4
1070
   178
1070
     7
1070
   271
1070
     1
1070
   277
1070
     2
1070
   279
1070
     2
1070
   280
1070
     0
1070
   287
1070
     5
1070
   340
1005
3A2
1002
}
  0
DIMENSION
  5
3CB
330
1F
100
AcDbEntity
  8
LAY-20
  6
CONTINUOUS
 62
     4
100
AcDbDimension
  2
*D18
 10
1068.0
 20
113.0
 30
0.0
 11
643.0000000000001
 21
125.5
 31
0.0
 70
   160
  1
□<>
  3
ISO-25
100
AcDbAlignedDimension
 13
218.0
 23
198.0
 33
0.0
 14
1068.0
 24
113.0
 34
0.0
100
AcDbRotatedDimension
1001
ACAD
1000
DSTYLE
1002
{
1070
   270
1070
     2
1070
     6
1000
EX_BNORM
1070
     7
1000
EX_NONE
1070
    41
1040
15.0
1070
    42
1040
7.5
1070
    44
1040
7.5
1070
    73
1070
     0
1070
    74
1070
     0
1070
    75
1070
     0
1070
    76
1070
     1
1070
    77
1070
     1
1070
    78
1070
     8
1070
   140
1040
15.590552
1070
   147
1040
0.0
1070
   173
1070
     1
1070
   176
1070
     4
1070
   177
1070
     4
1070
   178
1070
     7
1070
   271
1070
     1
1070
   277
1070
     2
1070
   279
1070
     2
1070
   280
1070
     0
1070
   287
1070
     5
1070
   340
1005
3A2
1002
}
  0
DIMENSION
  5
3D7
330
1F
100
AcDbEntity
  8
LAY-20
  6
CONTINUOUS
 62
     4
100
AcDbDimension
  2
*D19
 10
1273.0
 20
258.0
 30
0.0
 11
1260.5
 21
228.0
 31
0.0
 70
   160
  3
ISO-25
100
AcDbAlignedDimension
 13
1223.0
 23
198.0
 33
0.0
 14
1052.0
 24
258.0
 34
0.0
 50
90.0
100
AcDbRotatedDimension
1001
ACAD
1000
DSTYLE
1002
{
1070
   270
1070
     2
1070
     6
1000
EX_BNORM
1070
     7
1000
EX_BNORM
1070
    41
1040
15.0
1070
    42
1040
7.5
1070
    44
1040
7.5
1070
    73
1070
     0
1070
    74
1070
     0
1070
    75
1070
     0
1070
    76
1070
     0
1070
    77
1070
     1
1070
    78
1070
     8
1070
   140
1040
15.590552
1070
   147
1040
0.0
1070
   173
1070
     1
1070
   176
1070
     4
1070
   177
1070
     4
1070
   178
1070
     7
1070
   271
1070
     1
1070
   277
1070
     2
1070
   279
1070
     2
1070
   280
1070
     0
1070
   287
1070
     5
1070
   340
1005
3A2
1002
}
  0
LINE
  5
3E4
330
1F
100
AcDbEntity
  8
LAY-255
  6
CONTINUOUS
 62
     7
100
AcDbLine
 10
1925.0
 20
110.0
 30
0.0
 11
1425.0
 21
110.0
 31
0.0
  0
LINE
  5
3E5
330
1F
100
AcDbEntity
  8
LAY-255
  6
CONTINUOUS
 62
     7
100
AcDbLine
 10
1444.0
 20
79.99999999999999
 30
0.0
 11
1484.0
 21
105.0
 31
0.0
  0
LINE
  5
3E6
330
1F
100
AcDbEntity
  8
LAY-255
  6
CONTINUOUS
 62
     7
100
AcDbLine
 10
1484.0
 20
105.0
 30
0.0
 11
1524.0
 21
79.99999999999999
 31
0.0
  0
LINE
  5
3E7
330
1F
100
AcDbEntity
  8
LAY-255
  6
CONTINUOUS
 62
     7
100
AcDbLine
 10
1524.0
 20
79.99999999999999
 30
0.0
 11
1484.0
 21
55.0
 31
0.0
  0
LINE
  5
3E8
330
1F
100
AcDbEntity
  8
LAY-255
  6
CONTINUOUS
 62
     7
100
AcDbLine
 10
1484.0
 20
55.0
 30
0.0
 11
1444.0
 21
79.99999999999999
 31
0.0
  0
LINE
  5
3E9
330
1F
100
AcDbEntity
  8
LAY-255
  6
CONTINUOUS
 62
     7
100
AcDbLine
 10
25.0
 20
50.0
 30
0.0
 11
1925.0
 21
50.0
 31
0.0
  0
LINE
  5
3EA
330
1F
100
AcDbEntity
  8
LAY-255
  6
CONTINUOUS
 62
     7
100
AcDbLine
 10
25.0
 20
1400.0
 30
0.0
 11
1925.0
 21
1400.0
 31
0.0
  0
LINE
  5
3EB
330
1F
100
AcDbEntity
  8
LAY-255
  6
CONTINUOUS
 62
     7
100
AcDbLine
 10
25.0
 20
50.0
 30
0.0
 11
25.0
 21
1400.0
 31
0.0
  0
LINE
  5
3EC
330
1F
100
AcDbEntity
  8
LAY-255
  6
CONTINUOUS
 62
     4
100
AcDbLine
 10
1425.0
 20
140.0
 30
0.0
 11
1925.0
 21
140.0
 31
0.0
  0
LINE
  5
3ED
330
1F
100
AcDbEntity
  8
LAY-255
  6
CONTINUOUS
 62
     4
100
AcDbLine
 10
1675.0
 20
140.0
 30
0.0
 11
1675.0
 21
110.0
 31
0.0
  0
POINT
  5
3EE
330
1F
100
AcDbEntity
  8
LAY-255
  6
CONTINUOUS
 62
     7
100
AcDbPoint
 10
1445.0
 20
200.0
 30
0.0
  0
POINT
  5
3EF
330
1F
100
AcDbEntity
  8
LAY-255
  6
CONTINUOUS
 62
     7
100
AcDbPoint
 10
1445.0
 20
174.9999999999999
 30
0.0
  0
POINT
  5
3F0
330
1F
100
AcDbEntity
  8
LAY-255
  6
CONTINUOUS
 62
     7
100
AcDbPoint
 10
1445.0
 20
149.9999999999999
 30
0.0
  0
LINE
  5
3F1
330
1F
100
AcDbEntity
  8
LAY-255
  6
CONTINUOUS
 62
     7
100
AcDbLine
 10
1925.0
 20
50.0
 30
0.0
 11
1925.0
 21
1400.0
 31
0.0
  0
LINE
  5
3F2
330
1F
100
AcDbEntity
  8
LAY-255
  6
CONTINUOUS
 62
     7
100
AcDbLine
 10
1425.0
 20
50.0
 30
0.0
 11
1425.0
 21
360.0
 31
0.0
  0
LINE
  5
3F3
330
1F
100
AcDbEntity
  8
LAY-255
  6
CONTINUOUS
 62
     7
100
AcDbLine
 10
1925.0
 20
360.0
 30
0.0
 11
1425.0
 21
360.0
 31
0.0
  0
LINE
  5
3F4
330
1F
100
AcDbEntity
  8
LAY-255
  6
CONTINUOUS
 62
     4
100
AcDbLine
 10
1915.0
 20
300.0
 30
0.0
 11
1435.0
 21
300.0
 31
0.0
  0
LINE
  5
3F5
330
1F
100
AcDbEntity
  8
LAY-255
  6
CONTINUOUS
 62
     4
100
AcDbLine
 10
1915.0
 20
330.0
 30
0.0
 11
1435.0
 21
330.0
 31
0.0
  0
POINT
  5
3F6
330
1F
100
AcDbEntity
  8
LAY-255
  6
CONTINUOUS
 62
     7
100
AcDbPoint
 10
1445.0
 20
275.0
 30
0.0
  0
POINT
  5
3F7
330
1F
100
AcDbEntity
  8
LAY-255
  6
CONTINUOUS
 62
     7
100
AcDbPoint
 10
1500.0
 20
305.0
 30
0.0
  0
POINT
  5
3F8
330
1F
100
AcDbEntity
  8
LAY-255
  6
CONTINUOUS
 62
     7
100
AcDbPoint
 10
1500.0
 20
335.0
 30
0.0
  0
POINT
  5
3F9
330
1F
100
AcDbEntity
  8
LAY-255
  6
CONTINUOUS
 62
     7
100
AcDbPoint
 10
1445.0
 20
250.0
 30
0.0
  0
TEXT
  5
3FA
330
1F
100
AcDbEntity
  8
LAY-255
  6
CONTINUOUS
 62
     7
100
AcDbText
 10
1540.691894370117
 20
77.71874999999999
 30
0.0
 40
25.78125
  1
福西鋳物株式会社
 41
1.342691871783662
  7
EXCADSTD
100
AcDbText
  0
TEXT
  5
3FB
330
1F
100
AcDbEntity
  8
LAY-255
  6
CONTINUOUS
 62
     7
100
AcDbText
 10
1542.546875
 20
59.90624999999999
 30
0.0
 40
8.59375
  1
ＦＵＫＵＮＩＳＨＩ
 41
1.204799226045263
  7
EXCADSTD
100
AcDbText
  0
TEXT
  5
3FC
330
1F
100
AcDbEntity
  8
LAY-255
  6
CONTINUOUS
 62
     7
100
AcDbText
 10
1663.595982142857
 20
59.90624999999999
 30
0.0
 40
8.59375
  1
ＦＯＵＮＤＲＹ
 41
1.243252752978497
  7
EXCADSTD
100
AcDbText
  0
TEXT
  5
3FD
330
1F
100
AcDbEntity
  8
LAY-255
  6
CONTINUOUS
 62
     7
100
AcDbText
 10
1759.97295734375
 20
59.90624999999999
 30
0.0
 40
8.59375
  1
ＣＯ.,ＬＴＤ.
 41
1.243831100341625
  7
EXCADSTD
100
AcDbText
  0
TEXT
  5
3FE
330
1F
100
AcDbEntity
  8
LAY-255
  6
CONTINUOUS
 62
     7
100
AcDbText
 10
1470.171875
 20
68.59375
 30
0.0
 40
25.78125
  1
S
 41
0.7582677563636363
  7
EXCADSTD
100
AcDbText
  0
TEXT
  5
3FF
330
1F
100
AcDbEntity
  8
LAY-255
  6
CONTINUOUS
 62
     7
100
AcDbText
 10
1485.5234375
 20
68.7470518868
 30
0.0
 40
25.78125
  1
F
 41
0.7440945272727272
  7
EXCADSTD
100
AcDbText
  0
TEXT
  5
400
330
1F
100
AcDbEntity
  8
LAY-255
  6
CONTINUOUS
 62
     7
100
AcDbText
 10
1685.52734375
 20
122.1093749999999
 30
0.0
 40
12.890625
  1
縮尺
 41
1.080708718181818
  7
EXCADSTD
100
AcDbText
  0
TEXT
  5
401
330
1F
100
AcDbEntity
  8
LAY-255
  6
CONTINUOUS
 62
     7
100
AcDbText
 10
1435.76171875
 20
122.1093749999999
 30
0.0
 40
12.890625
  1
作成日
 41
1.000629973818182
  7
EXCADSTD
100
AcDbText
  0
TEXT
  5
402
330
1F
100
AcDbEntity
  8
LAY-255
  6
CONTINUOUS
 62
     7
100
AcDbText
 10
1741.40625
 20
117.8124999999999
 30
0.0
 40
17.1875
  1
１：５
 41
0.888661464
  7
EXCADSTD
100
AcDbText
  0
TEXT
  5
403
330
1F
100
AcDbEntity
  8
LAY-255
  6
CONTINUOUS
 62
     7
100
AcDbText
 10
1446.875
 20
177.8125
 30
0.0
 40
17.1875
  1
防水：防水防臭型
 41
1.01490444025974
  7
EXCADSTD
100
AcDbText
  0
TEXT
  5
404
330
1F
100
AcDbEntity
  8
LAY-255
  6
CONTINUOUS
 62
     7
100
AcDbText
 10
1445.703125
 20
202.8125
 30
0.0
 40
17.1875
  1
機能：施錠装置付
 41
1.024521988571429
  7
EXCADSTD
100
AcDbText
  0
TEXT
  5
405
330
1F
100
AcDbEntity
  8
LAY-255
  6
CONTINUOUS
 62
     7
100
AcDbText
 10
1436.328125
 20
307.8125
 30
0.0
 40
17.1875
  1
型式
 41
1.056348480681818
  7
EXCADSTD
100
AcDbText
  0
TEXT
  5
406
330
1F
100
AcDbEntity
  8
LAY-255
  6
CONTINUOUS
 62
     7
100
AcDbText
 10
1437.109375
 20
337.8125
 30
0.0
 40
17.1875
  1
品名
 41
0.9788386340909091
  7
EXCADSTD
100
AcDbText
  0
TEXT
  5
407
330
1F
100
AcDbEntity
  8
LAY-255
  6
CONTINUOUS
 62
     7
100
AcDbText
 10
1447.265625
 20
277.8125000000001
 30
0.0
 40
17.1875
  1
区分：中荷重用
 41
1.007228657526081
  7
EXCADSTD
100
AcDbText
  0
TEXT
  5
408
330
1F
100
AcDbEntity
  8
LAY-255
  6
CONTINUOUS
 62
     7
100
AcDbText
 10
1501.953125
 20
337.8125
 30
0.0
 40
17.1875
  1
マンホールカバー
 41
1.015410627012987
  7
EXCADSTD
100
AcDbText
  0
TEXT
  5
409
330
1F
100
AcDbEntity
  8
LAY-255
  6
CONTINUOUS
 62
     7
100
AcDbText
 10
1445.703125
 20
252.8125
 30
0.0
 40
17.1875
  1
構造：新回転ロック方式
 41
1.018792163261481
  7
EXCADSTD
100
AcDbText
  0
TEXT
  5
40A
330
1F
100
AcDbEntity
  8
LAY-255
  6
CONTINUOUS
 62
     7
100
AcDbText
 10
1503.75
 20
307.8125
 30
0.0
 40
17.1875
  1
ＳＦ－７５ＬＡＳＫ型
 41
1.003802844421487
  7
EXCADSTD
100
AcDbText
  0
TEXT
  5
40B
330
1F
100
AcDbEntity
  8
LAY-255
  6
CONTINUOUS
 62
     7
100
AcDbText
 10
1445.9375
 20
227.8125
 30
0.0
 40
17.1875
  1
処理：耐腐食性金属処理加工
 41
1.015542675731225
  7
EXCADSTD
100
AcDbText
  0
TEXT
  5
40C
330
1F
100
AcDbEntity
  8
LAY-255
  6
CONTINUOUS
 62
     7
100
AcDbText
 10
1506.40625
 20
117.8124999999999
 30
0.0
 40
17.1875
  1
１４／１０／１５
 41
0.9652981384415584
  7
EXCADSTD
100
AcDbText
  0
TEXT
  5
40D
330
1F
100
AcDbEntity
  8
LAY-255
  6
CONTINUOUS
 62
     7
100
AcDbText
 10
1445.859375
 20
152.8124999999999
 30
0.0
 40
17.1875
  1
破壊荷重：６０ｋＮ以上
 41
1.016600426804124
  7
EXCADSTD
100
AcDbText
  0
ENDSEC
  0
SECTION
  2
OBJECTS
  0
DICTIONARY
  5
C
330
0
100
AcDbDictionary
  3
ACAD_GROUP
350
D
  3
ACAD_LAYOUT
350
1A
  3
ACAD_MATERIAL
350
43
  3
ACAD_MLEADERSTYLE
350
6B
  3
ACAD_MLINESTYLE
350
17
  3
ACAD_PLOTSETTINGS
350
19
  3
ACAD_SCALELIST
350
47
  3
ACAD_VISUALSTYLE
350
2A
  3
ACDBHEADERROUNDTRIPXREC
350
40E
  3
ACDBVARIABLEDICTIONARY
350
42F
  0
DICTIONARY
  5
43A
330
8
100
AcDbDictionary
280
     1
  3
ACAD_XREC_ROUNDTRIP
360
43B
  0
DICTIONARY
  5
D
102
{ACAD_REACTORS
330
C
102
}
330
C
100
AcDbDictionary
  0
DICTIONARY
  5
1A
102
{ACAD_REACTORS
330
C
102
}
330
C
100
AcDbDictionary
  0
DICTIONARY
  5
43
102
{ACAD_REACTORS
330
C
102
}
330
C
100
AcDbDictionary
  3
BYBLOCK
350
45
  3
BYLAYER
350
44
  3
GLOBAL
350
46
  0
DICTIONARY
  5
6B
102
{ACAD_REACTORS
330
C
102
}
330
C
100
AcDbDictionary
  3
STANDARD
350
6C
  0
DICTIONARY
  5
17
102
{ACAD_REACTORS
330
C
102
}
330
C
100
AcDbDictionary
  3
STANDARD
350
18
  0
DICTIONARY
  5
19
102
{ACAD_REACTORS
330
C
102
}
330
C
100
AcDbDictionary
  0
DICTIONARY
  5
47
102
{ACAD_REACTORS
330
C
102
}
330
C
100
AcDbDictionary
  3
A0
350
48
  3
A1
350
49
  3
A2
350
4A
  3
A3
350
4B
  3
A4
350
4C
  3
A5
350
4D
  3
A6
350
4E
  3
A7
350
4F
  3
A8
350
50
  3
A9
350
51
  3
B0
350
52
  3
B1
350
53
  3
B2
350
54
  3
B3
350
55
  3
B4
350
56
  3
B5
350
57
  3
B6
350
58
  3
B7
350
59
  3
B8
350
5A
  3
B9
350
5B
  3
C0
350
5C
  3
C1
350
5D
  3
C2
350
5E
  3
C3
350
5F
  3
C4
350
60
  3
C5
350
61
  3
C6
350
62
  3
C7
350
63
  3
C8
350
64
  3
C9
350
65
  3
D0
350
66
  3
D1
350
67
  3
D2
350
68
  0
DICTIONARY
  5
2A
102
{ACAD_REACTORS
330
C
102
}
330
C
100
AcDbDictionary
  3
2DWIREFRAME
350
2F
  3
BASIC
350
32
  3
BRIGHTEN
350
36
  3
COLORCHANGE
350
3A
  3
CONCEPTUAL
350
34
  3
DIM
350
35
  3
EDGECOLOROFF
350
3D
  3
FACEPATTERN
350
39
  3
FLAT
350
2B
  3
FLATWITHEDGES
350
2C
  3
GOURAUD
350
2D
  3
GOURAUDWITHEDGES
350
2E
  3
HIDDEN
350
31
  3
JITTEROFF
350
3B
  3
LINEPATTERN
350
38
  3
OVERHANGOFF
350
3C
  3
REALISTIC
350
33
  3
SHADED
350
42
  3
SHADED_WITH_EDGES
350
41
  3
SHADES_OF_GRAY
350
3E
  3
SKETCHY
350
3F
  3
THICKEN
350
37
  3
WIREFRAME
350
30
  3
X-RAY
350
40
  0
DICTIONARY
  5
40E
102
{ACAD_REACTORS
330
C
102
}
330
C
100
AcDbDictionary
  3
CEPSNID
350
418
  3
CEPSNTYPE
350
417
  3
DIMSTYLEDATA
350
42E
  3
FINGERPRINTGUID
350
419
  3
HYPERLINKBASE
350
411
  3
INSUNITS
350
416
  3
LAYOUTDICT
350
413
  3
LWETCUNION
350
415
  3
PLOTSETDICT
350
414
  3
PSVPSCALE
350
41B
  3
PUCSBASE
350
41E
  3
PUCSORGBACK
350
424
  3
PUCSORGBOTTOM
350
420
  3
PUCSORGFRONT
350
423
  3
PUCSORGLEFT
350
421
  3
PUCSORGRIGHT
350
422
  3
PUCSORGTOP
350
41F
  3
PUCSORTHOREF
350
41C
  3
PUCSORTHOVIEW
350
41D
  3
STYLESHEET
350
412
  3
TSTACKALIGN
350
40F
  3
TSTACKSIZE
350
410
  3
UCSBASE
350
427
  3
UCSORGBACK
350
42D
  3
UCSORGBOTTOM
350
429
  3
UCSORGFRONT
350
42C
  3
UCSORGLEFT
350
42A
  3
UCSORGRIGHT
350
42B
  3
UCSORGTOP
350
428
  3
UCSORTHOREF
350
425
  3
UCSORTHOVIEW
350
426
  3
VERSIONGUID
350
41A
  0
DICTIONARY
  5
42F
102
{ACAD_REACTORS
330
C
102
}
330
C
100
AcDbDictionary
  3
CANNOSCALE
350
43C
  3
CENTEREXE
350
436
  3
CENTERLTYPEFILE
350
437
  3
CMLEADERSTYLE
350
431
  3
CTABLESTYLE
350
430
  3
DIMASSOC
350
438
  3
HIDETEXT
350
439
  3
MSLTSCALE
350
43D
  3
PSOLHEIGHT
350
433
  3
PSOLWIDTH
350
432
  0
XRECORD
  5
43B
102
{ACAD_REACTORS
330
43A
102
}
330
43A
100
AcDbXrecord
102
VTR_0.000_0.000_1.000_1.000_VISUALSTYLE
340
2F
102
VTR_0.000_0.000_1.000_1.000_GRIDDISPLAY
 70
     3
102
VTR_0.000_0.000_1.000_1.000_GRIDMAJOR
 70
     5
102
VTR_0.000_0.000_1.000_1.000_DEFAULTLIGHTING
280
     1
102
VTR_0.000_0.000_1.000_1.000_DEFAULTLIGHTINGTYPE
 70
     1
102
VTR_0.000_0.000_1.000_1.000_BRIGHTNESS
141
0.0
102
VTR_0.000_0.000_1.000_1.000_CONTRAST
142
0.0
  0
MATERIAL
  5
45
102
{ACAD_REACTORS
330
43
102
}
102
{ACAD_XDICTIONARY
360
440
102
}
330
43
100
AcDbMaterial
  1
BYBLOCK
  0
MATERIAL
  5
44
102
{ACAD_REACTORS
330
43
102
}
102
{ACAD_XDICTIONARY
360
43E
102
}
330
43
100
AcDbMaterial
  1
BYLAYER
  0
MATERIAL
  5
46
102
{ACAD_REACTORS
330
43
102
}
102
{ACAD_XDICTIONARY
360
442
102
}
330
43
100
AcDbMaterial
  1
GLOBAL
  0
ACAD_PROXY_OBJECT
  5
6C
102
{ACAD_REACTORS
330
6B
102
}
330
6B
100
AcDbProxyObject
 90
      499
 91
      505
 93
      610
310
40901902A4063FBFFFFFE0000000000000020400000000000020404214DD185B99185C990000000000000104090141901A00000000000004100000000000000041025764000000000000039000
340
14
340
0
340
11
340
0
 94
        0
1001
ACAD_MLEADERVER
1070
     2
  0
MLINESTYLE
  5
18
102
{ACAD_REACTORS
330
17
102
}
330
17
100
AcDbMlineStyle
  2
Standard
 70
     0
  3

 62
   256
 51
90.0
 52
90.0
 71
     2
 49
0.5
 62
   256
  6
BYLAYER
 49
-0.5
 62
   256
  6
BYLAYER
  0
ACAD_PROXY_OBJECT
  5
48
102
{ACAD_REACTORS
330
47
102
}
330
47
100
AcDbProxyObject
 90
      499
 91
      503
 93
       41
310
903313A31580
  0
ACAD_PROXY_OBJECT
  5
49
102
{ACAD_REACTORS
330
47
102
}
330
47
100
AcDbProxyObject
 90
      499
 91
      503
 93
      105
310
903313A324000000000000004000
  0
ACAD_PROXY_OBJECT
  5
4A
102
{ACAD_REACTORS
330
47
102
}
330
47
100
AcDbProxyObject
 90
      499
 91
      503
 93
      105
310
903313A344000000000000104000
  0
ACAD_PROXY_OBJECT
  5
4B
102
{ACAD_REACTORS
330
47
102
}
330
47
100
AcDbProxyObject
 90
      499
 91
      503
 93
      105
310
903313A354000000000000144000
  0
ACAD_PROXY_OBJECT
  5
4C
102
{ACAD_REACTORS
330
47
102
}
330
47
100
AcDbProxyObject
 90
      499
 91
      503
 93
      105
310
903313A384000000000000204000
  0
ACAD_PROXY_OBJECT
  5
4D
102
{ACAD_REACTORS
330
47
102
}
330
47
100
AcDbProxyObject
 90
      499
 91
      503
 93
      113
310
904313A31304000000000000244000
  0
ACAD_PROXY_OBJECT
  5
4E
102
{ACAD_REACTORS
330
47
102
}
330
47
100
AcDbProxyObject
 90
      499
 91
      503
 93
      113
310
904313A31364000000000000304000
  0
ACAD_PROXY_OBJECT
  5
4F
102
{ACAD_REACTORS
330
47
102
}
330
47
100
AcDbProxyObject
 90
      499
 91
      503
 93
      113
310
904313A32304000000000000344000
  0
ACAD_PROXY_OBJECT
  5
50
102
{ACAD_REACTORS
330
47
102
}
330
47
100
AcDbProxyObject
 90
      499
 91
      503
 93
      113
310
904313A333040000000000003E4000
  0
ACAD_PROXY_OBJECT
  5
51
102
{ACAD_REACTORS
330
47
102
}
330
47
100
AcDbProxyObject
 90
      499
 91
      503
 93
      113
310
904313A34304000000000000444000
  0
ACAD_PROXY_OBJECT
  5
52
102
{ACAD_REACTORS
330
47
102
}
330
47
100
AcDbProxyObject
 90
      499
 91
      503
 93
      113
310
904313A35304000000000000494000
  0
ACAD_PROXY_OBJECT
  5
53
102
{ACAD_REACTORS
330
47
102
}
330
47
100
AcDbProxyObject
 90
      499
 91
      503
 93
      121
310
905313A3130304000000000000594000
  0
ACAD_PROXY_OBJECT
  5
54
102
{ACAD_REACTORS
330
47
102
}
330
47
100
AcDbProxyObject
 90
      499
 91
      503
 93
      105
310
903323A310000000000000010100
  0
ACAD_PROXY_OBJECT
  5
55
102
{ACAD_REACTORS
330
47
102
}
330
47
100
AcDbProxyObject
 90
      499
 91
      503
 93
      105
310
903343A310000000000000410100
  0
ACAD_PROXY_OBJECT
  5
56
102
{ACAD_REACTORS
330
47
102
}
330
47
100
AcDbProxyObject
 90
      499
 91
      503
 93
      105
310
903383A310000000000000810100
  0
ACAD_PROXY_OBJECT
  5
57
102
{ACAD_REACTORS
330
47
102
}
330
47
100
AcDbProxyObject
 90
      499
 91
      503
 93
      113
310
90431303A310000000000000910100
  0
ACAD_PROXY_OBJECT
  5
58
102
{ACAD_REACTORS
330
47
102
}
330
47
100
AcDbProxyObject
 90
      499
 91
      503
 93
      121
310
9053130303A310000000000001650100
  0
ACAD_PROXY_OBJECT
  5
59
102
{ACAD_REACTORS
330
47
102
}
330
47
100
AcDbProxyObject
 90
      499
 91
      503
 93
      257
310
90E312F31323822203D2031272D3022000000000000200FC000000000000284000
  0
ACAD_PROXY_OBJECT
  5
5A
102
{ACAD_REACTORS
330
47
102
}
330
47
100
AcDbProxyObject
 90
      499
 91
      503
 93
      249
310
90D312F363422203D2031272D3022000000000000240FC000000000000284000
  0
ACAD_PROXY_OBJECT
  5
5B
102
{ACAD_REACTORS
330
47
102
}
330
47
100
AcDbProxyObject
 90
      499
 91
      503
 93
      249
310
90D312F333222203D2031272D3022000000000000280FC000000000000284000
  0
ACAD_PROXY_OBJECT
  5
5C
102
{ACAD_REACTORS
330
47
102
}
330
47
100
AcDbProxyObject
 90
      499
 91
      503
 93
      249
310
90D312F313622203D2031272D30220000000000002C0FC000000000000284000
  0
ACAD_PROXY_OBJECT
  5
5D
102
{ACAD_REACTORS
330
47
102
}
330
47
100
AcDbProxyObject
 90
      499
 91
      503
 93
      249
310
90D332F333222203D2031272D30220000000000002E0FC000000000000284000
  0
ACAD_PROXY_OBJECT
  5
5E
102
{ACAD_REACTORS
330
47
102
}
330
47
100
AcDbProxyObject
 90
      499
 91
      503
 93
      241
310
90C312F3822203D2031272D3022000000000000300FC000000000000284000
  0
ACAD_PROXY_OBJECT
  5
5F
102
{ACAD_REACTORS
330
47
102
}
330
47
100
AcDbProxyObject
 90
      499
 91
      503
 93
      249
310
90D332F313622203D2031272D3022000000000000320FC000000000000284000
  0
ACAD_PROXY_OBJECT
  5
60
102
{ACAD_REACTORS
330
47
102
}
330
47
100
AcDbProxyObject
 90
      499
 91
      503
 93
      241
310
90C312F3422203D2031272D3022000000000000340FC000000000000284000
  0
ACAD_PROXY_OBJECT
  5
61
102
{ACAD_REACTORS
330
47
102
}
330
47
100
AcDbProxyObject
 90
      499
 91
      503
 93
      241
310
90C332F3822203D2031272D3022000000000000360FC000000000000284000
  0
ACAD_PROXY_OBJECT
  5
62
102
{ACAD_REACTORS
330
47
102
}
330
47
100
AcDbProxyObject
 90
      499
 91
      503
 93
      241
310
90C312F3222203D2031272D3022000000000000380FC000000000000284000
  0
ACAD_PROXY_OBJECT
  5
63
102
{ACAD_REACTORS
330
47
102
}
330
47
100
AcDbProxyObject
 90
      499
 91
      503
 93
      241
310
90C332F3422203D2031272D30220000000000003A0FC000000000000284000
  0
ACAD_PROXY_OBJECT
  5
64
102
{ACAD_REACTORS
330
47
102
}
330
47
100
AcDbProxyObject
 90
      499
 91
      503
 93
      161
310
90A3122203D2031272D30224000000000000284000
  0
ACAD_PROXY_OBJECT
  5
65
102
{ACAD_REACTORS
330
47
102
}
330
47
100
AcDbProxyObject
 90
      499
 91
      503
 93
      257
310
90E312D312F3222203D2031272D30220000000000003E0FC000000000000284000
  0
ACAD_PROXY_OBJECT
  5
66
102
{ACAD_REACTORS
330
47
102
}
330
47
100
AcDbProxyObject
 90
      499
 91
      503
 93
      225
310
90A3322203D2031272D302200000000000002100000000000000284000
  0
ACAD_PROXY_OBJECT
  5
67
102
{ACAD_REACTORS
330
47
102
}
330
47
100
AcDbProxyObject
 90
      499
 91
      503
 93
      225
310
90A3622203D2031272D302200000000000006100000000000000284000
  0
ACAD_PROXY_OBJECT
  5
68
102
{ACAD_REACTORS
330
47
102
}
330
47
100
AcDbProxyObject
 90
      499
 91
      503
 93
      249
310
90D31272D3022203D2031272D30220000000000000A100000000000000284000
  0
ACAD_PROXY_OBJECT
  5
2F
102
{ACAD_REACTORS
330
2A
102
}
330
2A
100
AcDbProxyObject
 90
      499
 91
      501
 93
      436
310
42CC9915DA5C99599C985B595049028333333333333E33F0000000000000F90107901411070040501600405405064090741402480A0340
1001
ACAD
1000
AcDbSavedByObjectVersion
1070
     0
  0
ACAD_PROXY_OBJECT
  5
32
102
{ACAD_REACTORS
330
2A
102
}
330
2A
100
AcDbProxyObject
 90
      499
 91
      501
 93
      388
310
4150985CDA58D07406404333333333333E33F0000000000000F90107A41107004050150841D405064090741402480A0350
1001
ACAD
1000
AcDbSavedByObjectVersion
1070
     0
  0
ACAD_PROXY_OBJECT
  5
36
102
{ACAD_REACTORS
330
2A
102
}
330
2A
100
AcDbProxyObject
 90
      499
 91
      501
 93
      428
310
42109C9A59DA1D195B90C409028333333333333E33F0000000000000F9010790141107004050150841D405064090741402480A029950
1001
ACAD
1000
AcDbSavedByObjectVersion
1070
     0
  0
ACAD_PROXY_OBJECT
  5
3A
102
{ACAD_REACTORS
330
2A
102
}
330
2A
100
AcDbProxyObject
 90
      499
 91
      501
 93
      452
310
42D0DBDB1BDC90DA185B99D95104090240C333333333333E33F0000000000000F90108901411070040501508421405064090741402480A0350
1001
ACAD
1000
AcDbSavedByObjectVersion
1070
     0
  0
ACAD_PROXY_OBJECT
  5
34
102
{ACAD_REACTORS
330
2A
102
}
330
2A
100
AcDbProxyObject
 90
      499
 91
      501
 93
      500
310
4290DBDB98D95C1D1D585B10940D028333333333333E33F0000000000000F90107902409070040501000000000018199010841D405064090740C02480A0340
1001
ACAD
1000
AcDbSavedByObjectVersion
1070
     0
  0
ACAD_PROXY_OBJECT
  5
35
102
{ACAD_REACTORS
330
2A
102
}
330
2A
100
AcDbProxyObject
 90
      499
 91
      501
 93
      412
310
40D11A5B50B409028333333333333E33F0000000000000F9010790141107004050150841D405064090741402480A02677FFFFFD0
1001
ACAD
1000
AcDbSavedByObjectVersion
1070
     0
  0
ACAD_PROXY_OBJECT
  5
3D
102
{ACAD_REACTORS
330
2A
102
}
330
2A
100
AcDbProxyObject
 90
      499
 91
      501
 93
      452
310
43115919D950DBDB1BDC93D999916409028333333333333E33F0000000000000F9010790141107004050150841D405064090741402480A0350
1001
ACAD
1000
AcDbSavedByObjectVersion
1070
     0
  0
ACAD_PROXY_OBJECT
  5
39
102
{ACAD_REACTORS
330
2A
102
}
330
2A
100
AcDbProxyObject
 90
      499
 91
      501
 93
      444
310
42D19858D95C185D1D195C9B90F409028333333333333E33F0000000000000F9010790141107004050150841D405064090741402480A0350
1001
ACAD
1000
AcDbSavedByObjectVersion
1070
     0
  0
ACAD_PROXY_OBJECT
  5
2B
102
{ACAD_REACTORS
330
2A
102
}
330
2A
100
AcDbProxyObject
 90
      499
 91
      501
 93
      380
310
41119B185D240901404333333333333E33F0000000000000F9010740A907004050150841D405064090741402480A1B50
1001
ACAD
1000
AcDbSavedByObjectVersion
1070
     0
  0
ACAD_PROXY_OBJECT
  5
2C
102
{ACAD_REACTORS
330
2A
102
}
330
2A
100
AcDbProxyObject
 90
      499
 91
      501
 93
      468
310
43519B185D15DA5D1A115919D95CD0140901404333333333333E33F0000000000000F90107409019070040501600405405064090741402480A1B50
1001
ACAD
1000
AcDbSavedByObjectVersion
1070
     0
  0
ACAD_PROXY_OBJECT
  5
2D
102
{ACAD_REACTORS
330
2A
102
}
330
2A
100
AcDbProxyObject
 90
      499
 91
      501
 93
      404
310
41D1DBDD5C985D5910240902404333333333333E33F0000000000000F9010740A9070040501641D405064090741402480A1B50
1001
ACAD
1000
AcDbSavedByObjectVersion
1070
     0
  0
ACAD_PROXY_OBJECT
  5
2E
102
{ACAD_REACTORS
330
2A
102
}
330
2A
100
AcDbProxyObject
 90
      499
 91
      501
 93
      492
310
4411DBDD5C985D5915DA5D1A115919D95CD0340902404333333333333E33F0000000000000F90107409019070040501600405405064090741402480A1B50
1001
ACAD
1000
AcDbSavedByObjectVersion
1070
     0
  0
ACAD_PROXY_OBJECT
  5
31
102
{ACAD_REACTORS
330
2A
102
}
330
2A
100
AcDbProxyObject
 90
      499
 91
      501
 93
      476
310
41921A5919195B90640502408333333333333E33F0000000000000F901079024090700405020000000000001110200405405064090740C02480A0340
1001
ACAD
1000
AcDbSavedByObjectVersion
1070
     0
  0
ACAD_PROXY_OBJECT
  5
3B
102
{ACAD_REACTORS
330
2A
102
}
330
2A
100
AcDbProxyObject
 90
      499
 91
      501
 93
      428
310
42529A5D1D195C93D999914409028333333333333E33F0000000000000F9010790141107004050150A41D405064090741402480A0350
1001
ACAD
1000
AcDbSavedByObjectVersion
1070
     0
  0
ACAD_PROXY_OBJECT
  5
38
102
{ACAD_REACTORS
330
2A
102
}
330
2A
100
AcDbProxyObject
 90
      499
 91
      501
 93
      444
310
42D31A5B995C185D1D195C9B90E409028333333333333E33F0000000000000F9010790141107004050750841D405064090741402483A0350
1001
ACAD
1000
AcDbSavedByObjectVersion
1070
     0
  0
ACAD_PROXY_OBJECT
  5
3C
102
{ACAD_REACTORS
330
2A
102
}
330
2A
100
AcDbProxyObject
 90
      499
 91
      501
 93
      444
310
42D3DD995C9A185B99D3D999915409028333333333333E33F0000000000000F9010790141107004050150941D405064090741402480A0350
1001
ACAD
1000
AcDbSavedByObjectVersion
1070
     0
  0
ACAD_PROXY_OBJECT
  5
33
102
{ACAD_REACTORS
330
2A
102
}
330
2A
100
AcDbProxyObject
 90
      499
 91
      501
 93
      428
310
425499585B1A5CDD1A58D08409038333333333333E33F0000000000000F9010740A907004050150800405405064090740C02480A1B40
1001
ACAD
1000
AcDbSavedByObjectVersion
1070
     0
  0
ACAD_PROXY_OBJECT
  5
42
102
{ACAD_REACTORS
330
2A
102
}
330
2A
100
AcDbProxyObject
 90
      499
 91
      501
 93
      420
310
4194DA1859195911B40902404333333333333E33F0000000000000F9010740A41107004050150800405405064090840C02480A0B40
1001
ACAD
1000
AcDbSavedByObjectVersion
1070
     0
  0
ACAD_PROXY_OBJECT
  5
41
102
{ACAD_REACTORS
330
2A
102
}
330
2A
100
AcDbProxyObject
 90
      499
 91
      501
 93
      516
310
4454DA18591959081DDA5D1A08195919D95CD1A40902404333333333333E33F0000000000000F901074090142907004050250800405405064090740C02480A0B40
1001
ACAD
1000
AcDbSavedByObjectVersion
1070
     0
  0
ACAD_PROXY_OBJECT
  5
3E
102
{ACAD_REACTORS
330
2A
102
}
330
2A
100
AcDbProxyObject
 90
      499
 91
      501
 93
      532
310
4394DA1859195CC81BD98811DC985E5174090240C333333333333E33F0000000000000F901079024090741D01000000000000111010841D405064090740C02480A0340
1001
ACAD
1000
AcDbSavedByObjectVersion
1070
     0
  0
ACAD_PROXY_OBJECT
  5
3F
102
{ACAD_REACTORS
330
2A
102
}
330
2A
100
AcDbProxyObject
 90
      499
 91
      501
 93
      476
310
41D4DAD95D18DA1E51840502408333333333333E33F0000000000000F901079024090741D01000000000000111010B41D405064090741802480A0340
1001
ACAD
1000
AcDbSavedByObjectVersion
1070
     0
  0
ACAD_PROXY_OBJECT
  5
37
102
{ACAD_REACTORS
330
2A
102
}
330
2A
100
AcDbProxyObject
 90
      499
 91
      501
 93
      412
310
41D51A1A58DAD95B90D409028333333333333E33F0000000000000F9010790141107004050150C41D405064090741402480A0350
1001
ACAD
1000
AcDbSavedByObjectVersion
1070
     0
  0
ACAD_PROXY_OBJECT
  5
30
102
{ACAD_REACTORS
330
2A
102
}
330
2A
100
AcDbProxyObject
 90
      499
 91
      501
 93
      420
310
4255DA5C99599C985B595059028333333333333E33F0000000000000F90107901411070040501600405405064090740C02480A0340
1001
ACAD
1000
AcDbSavedByObjectVersion
1070
     0
  0
ACAD_PROXY_OBJECT
  5
40
102
{ACAD_REACTORS
330
2A
102
}
330
2A
100
AcDbProxyObject
 90
      499
 91
      501
 93
      404
310
41560B54985E51940902404000000000000E03F0000000000000F9010740501907004050150841D405064090740C02480A1B40
1001
ACAD
1000
AcDbSavedByObjectVersion
1070
     0
  0
XRECORD
  5
418
102
{ACAD_REACTORS
330
40E
102
}
330
40E
100
AcDbXrecord
340
0
  0
XRECORD
  5
417
102
{ACAD_REACTORS
330
40E
102
}
330
40E
100
AcDbXrecord
 90
        0
  0
XRECORD
  5
42E
102
{ACAD_REACTORS
330
40E
102
}
330
40E
100
AcDbXrecord
1000
DSTYLE
1002
{
1070
   340
340
11
1002
}
  0
XRECORD
  5
419
102
{ACAD_REACTORS
330
40E
102
}
330
40E
100
AcDbXrecord
  1
{0b37410c-e11a-4c22-bfde-0a1305cedc74}
  0
XRECORD
  5
411
102
{ACAD_REACTORS
330
40E
102
}
330
40E
100
AcDbXrecord
  1

  0
XRECORD
  5
416
102
{ACAD_REACTORS
330
40E
102
}
330
40E
100
AcDbXrecord
 90
        4
  0
XRECORD
  5
413
102
{ACAD_REACTORS
330
40E
102
}
330
40E
100
AcDbXrecord
340
1A
  0
XRECORD
  5
415
102
{ACAD_REACTORS
330
40E
102
}
330
40E
100
AcDbXrecord
 90
    10781
  0
XRECORD
  5
414
102
{ACAD_REACTORS
330
40E
102
}
330
40E
100
AcDbXrecord
340
19
  0
XRECORD
  5
41B
102
{ACAD_REACTORS
330
40E
102
}
330
40E
100
AcDbXrecord
 40
0.0
  0
XRECORD
  5
41E
102
{ACAD_REACTORS
330
40E
102
}
330
40E
100
AcDbXrecord
340
0
  0
XRECORD
  5
424
102
{ACAD_REACTORS
330
40E
102
}
330
40E
100
AcDbXrecord
 10
0.0
 20
0.0
 30
0.0
  0
XRECORD
  5
420
102
{ACAD_REACTORS
330
40E
102
}
330
40E
100
AcDbXrecord
 10
0.0
 20
0.0
 30
0.0
  0
XRECORD
  5
423
102
{ACAD_REACTORS
330
40E
102
}
330
40E
100
AcDbXrecord
 10
0.0
 20
0.0
 30
0.0
  0
XRECORD
  5
421
102
{ACAD_REACTORS
330
40E
102
}
330
40E
100
AcDbXrecord
 10
0.0
 20
0.0
 30
0.0
  0
XRECORD
  5
422
102
{ACAD_REACTORS
330
40E
102
}
330
40E
100
AcDbXrecord
 10
0.0
 20
0.0
 30
0.0
  0
XRECORD
  5
41F
102
{ACAD_REACTORS
330
40E
102
}
330
40E
100
AcDbXrecord
 10
0.0
 20
0.0
 30
0.0
  0
XRECORD
  5
41C
102
{ACAD_REACTORS
330
40E
102
}
330
40E
100
AcDbXrecord
340
0
  0
XRECORD
  5
41D
102
{ACAD_REACTORS
330
40E
102
}
330
40E
100
AcDbXrecord
 70
     0
  0
XRECORD
  5
412
102
{ACAD_REACTORS
330
40E
102
}
330
40E
100
AcDbXrecord
  1

  0
XRECORD
  5
40F
102
{ACAD_REACTORS
330
40E
102
}
330
40E
100
AcDbXrecord
 90
        1
  0
XRECORD
  5
410
102
{ACAD_REACTORS
330
40E
102
}
330
40E
100
AcDbXrecord
 90
       70
  0
XRECORD
  5
427
102
{ACAD_REACTORS
330
40E
102
}
330
40E
100
AcDbXrecord
340
0
  0
XRECORD
  5
42D
102
{ACAD_REACTORS
330
40E
102
}
330
40E
100
AcDbXrecord
 10
0.0
 20
0.0
 30
0.0
  0
XRECORD
  5
429
102
{ACAD_REACTORS
330
40E
102
}
330
40E
100
AcDbXrecord
 10
0.0
 20
0.0
 30
0.0
  0
XRECORD
  5
42C
102
{ACAD_REACTORS
330
40E
102
}
330
40E
100
AcDbXrecord
 10
0.0
 20
0.0
 30
0.0
  0
XRECORD
  5
42A
102
{ACAD_REACTORS
330
40E
102
}
330
40E
100
AcDbXrecord
 10
0.0
 20
0.0
 30
0.0
  0
XRECORD
  5
42B
102
{ACAD_REACTORS
330
40E
102
}
330
40E
100
AcDbXrecord
 10
0.0
 20
0.0
 30
0.0
  0
XRECORD
  5
428
102
{ACAD_REACTORS
330
40E
102
}
330
40E
100
AcDbXrecord
 10
0.0
 20
0.0
 30
0.0
  0
XRECORD
  5
425
102
{ACAD_REACTORS
330
40E
102
}
330
40E
100
AcDbXrecord
340
0
  0
XRECORD
  5
426
102
{ACAD_REACTORS
330
40E
102
}
330
40E
100
AcDbXrecord
 70
     0
  0
XRECORD
  5
41A
102
{ACAD_REACTORS
330
40E
102
}
330
40E
100
AcDbXrecord
  1
{FAEB1C32-E019-11D5-929B-00C0DF256EC4}
  0
DICTIONARYVAR
  5
43C
102
{ACAD_REACTORS
330
42F
102
}
330
42F
100
DictionaryVariables
280
     0
  1
1:1
  0
DICTIONARYVAR
  5
436
102
{ACAD_REACTORS
330
42F
102
}
330
42F
100
DictionaryVariables
280
     0
  1
3.500000
  0
DICTIONARYVAR
  5
437
102
{ACAD_REACTORS
330
42F
102
}
330
42F
100
DictionaryVariables
280
     0
  1
acadiso.lin
  0
DICTIONARYVAR
  5
431
102
{ACAD_REACTORS
330
42F
102
}
330
42F
100
DictionaryVariables
280
     0
  1
Standard
  0
DICTIONARYVAR
  5
430
102
{ACAD_REACTORS
330
42F
102
}
330
42F
100
DictionaryVariables
280
     0
  1
Standard
  0
DICTIONARYVAR
  5
438
102
{ACAD_REACTORS
330
42F
102
}
330
42F
100
DictionaryVariables
280
     0
  1
2
  0
DICTIONARYVAR
  5
439
102
{ACAD_REACTORS
330
42F
102
}
330
42F
100
DictionaryVariables
280
     0
  1
1
  0
DICTIONARYVAR
  5
43D
102
{ACAD_REACTORS
330
42F
102
}
330
42F
100
DictionaryVariables
280
     0
  1
1
  0
DICTIONARYVAR
  5
433
102
{ACAD_REACTORS
330
42F
102
}
330
42F
100
DictionaryVariables
280
     0
  1
80.000000
  0
DICTIONARYVAR
  5
432
102
{ACAD_REACTORS
330
42F
102
}
330
42F
100
DictionaryVariables
280
     0
  1
5.000000
  0
DICTIONARY
  5
440
330
45
100
AcDbDictionary
280
     1
  3
ACAD_XREC_ROUNDTRIP
360
441
  0
DICTIONARY
  5
43E
330
44
100
AcDbDictionary
280
     1
  3
ACAD_XREC_ROUNDTRIP
360
43F
  0
DICTIONARY
  5
442
330
46
100
AcDbDictionary
280
     1
  3
ACAD_XREC_ROUNDTRIP
360
443
  0
XRECORD
  5
441
102
{ACAD_REACTORS
330
440
102
}
330
440
100
AcDbXrecord
102
MATERIAL
148
0.0
149
0.0
149
0.0
 93
        0
 94
      127
282
     0
 72
     1
 77
     1
171
     1
175
     1
179
     1
273
     0
  0
XRECORD
  5
43F
102
{ACAD_REACTORS
330
43E
102
}
330
43E
100
AcDbXrecord
102
MATERIAL
148
0.0
149
0.0
149
0.0
 93
        0
 94
      127
282
     0
 72
     1
 77
     1
171
     1
175
     1
179
     1
273
     0
  0
XRECORD
  5
443
102
{ACAD_REACTORS
330
442
102
}
330
442
100
AcDbXrecord
102
MATERIAL
148
0.0
149
0.0
149
0.0
 93
        0
 94
      127
282
     0
 72
     1
 77
     1
171
     1
175
     1
179
     1
273
     0
  0
ENDSEC
  0
EOF
