  0
SECTION
  2
HEADER
  9
$ACADVER
  1
AC1014
  9
$ACADMAINTVER
 70
     9
  9
$DWGCODEPAGE
  3
ANSI_932
  9
$INSBASE
 10
0.0
 20
0.0
 30
0.0
  9
$EXTMIN
 10
25.0
 20
50.0
 30
0.0
  9
$EXTMAX
 10
1925.0
 20
1400.0
 30
0.0
  9
$LIMMIN
 10
0.0
 20
0.0
  9
$LIMMAX
 10
420.0
 20
297.0
  9
$ORTHOMODE
 70
     0
  9
$REGENMODE
 70
     1
  9
$FILLMODE
 70
     1
  9
$QTEXTMODE
 70
     0
  9
$MIRRTEXT
 70
     1
  9
$DRAGMODE
 70
     2
  9
$LTSCALE
 40
0.2
  9
$OSMODE
 70
    37
  9
$ATTMODE
 70
     1
  9
$TEXTSIZE
 40
2.5
  9
$TRACEWID
 40
1.0
  9
$TEXTSTYLE
  7
STANDARD
  9
$CLAYER
  8
LAY-10
  9
$CELTYPE
  6
BYLAYER
  9
$CECOLOR
 62
   256
  9
$CELTSCALE
 40
1.0
  9
$DELOBJ
 70
     1
  9
$DISPSILH
 70
     0
  9
$DIMSCALE
 40
1.0
  9
$DIMASZ
 40
2.5
  9
$DIMEXO
 40
0.625
  9
$DIMDLI
 40
3.75
  9
$DIMRND
 40
0.0
  9
$DIMDLE
 40
0.0
  9
$DIMEXE
 40
1.25
  9
$DIMTP
 40
0.0
  9
$DIMTM
 40
0.0
  9
$DIMTXT
 40
2.5
  9
$DIMCEN
 40
2.5
  9
$DIMTSZ
 40
0.0
  9
$DIMTOL
 70
     0
  9
$DIMLIM
 70
     0
  9
$DIMTIH
 70
     0
  9
$DIMTOH
 70
     0
  9
$DIMSE1
 70
     0
  9
$DIMSE2
 70
     0
  9
$DIMTAD
 70
     1
  9
$DIMZIN
 70
     8
  9
$DIMBLK
  1

  9
$DIMASO
 70
     1
  9
$DIMSHO
 70
     1
  9
$DIMPOST
  1

  9
$DIMAPOST
  1

  9
$DIMALT
 70
     0
  9
$DIMALTD
 70
     3
  9
$DIMALTF
 40
0.03937007874016
  9
$DIMLFAC
 40
1.0
  9
$DIMTOFL
 70
     1
  9
$DIMTVP
 40
0.0
  9
$DIMTIX
 70
     0
  9
$DIMSOXD
 70
     0
  9
$DIMSAH
 70
     0
  9
$DIMBLK1
  1

  9
$DIMBLK2
  1

  9
$DIMSTYLE
  2
ISO-25
  9
$DIMCLRD
 70
     0
  9
$DIMCLRE
 70
     0
  9
$DIMCLRT
 70
     0
  9
$DIMTFAC
 40
1.0
  9
$DIMGAP
 40
0.625
  9
$DIMJUST
 70
     0
  9
$DIMSD1
 70
     0
  9
$DIMSD2
 70
     0
  9
$DIMTOLJ
 70
     0
  9
$DIMTZIN
 70
     8
  9
$DIMALTZ
 70
     0
  9
$DIMALTTZ
 70
     0
  9
$DIMFIT
 70
     3
  9
$DIMUPT
 70
     0
  9
$DIMUNIT
 70
     2
  9
$DIMDEC
 70
     2
  9
$DIMTDEC
 70
     2
  9
$DIMALTU
 70
     2
  9
$DIMALTTD
 70
     3
  9
$DIMTXSTY
  7
STANDARD
  9
$DIMAUNIT
 70
     0
  9
$LUNITS
 70
     2
  9
$LUPREC
 70
     4
  9
$SKETCHINC
 40
1.0
  9
$FILLETRAD
 40
10.0
  9
$AUNITS
 70
     0
  9
$AUPREC
 70
     0
  9
$MENU
  1
.
  9
$ELEVATION
 40
0.0
  9
$PELEVATION
 40
0.0
  9
$THICKNESS
 40
0.0
  9
$LIMCHECK
 70
     0
  9
$CHAMFERA
 40
0.0
  9
$CHAMFERB
 40
0.0
  9
$CHAMFERC
 40
0.0
  9
$CHAMFERD
 40
0.0
  9
$SKPOLY
 70
     0
  9
$TDCREATE
 40
2459229.336515625
  9
$TDUPDATE
 40
2459229.336516065
  9
$TDINDWG
 40
0.0000000116
  9
$TDUSRTIMER
 40
0.0000000116
  9
$USRTIMER
 70
     1
  9
$ANGBASE
 50
0.0
  9
$ANGDIR
 70
     0
  9
$PDMODE
 70
     0
  9
$PDSIZE
 40
0.0
  9
$PLINEWID
 40
0.0
  9
$COORDS
 70
     1
  9
$SPLFRAME
 70
     0
  9
$SPLINETYPE
 70
     6
  9
$SPLINESEGS
 70
     8
  9
$ATTDIA
 70
     0
  9
$ATTREQ
 70
     1
  9
$HANDLING
 70
     1
  9
$HANDSEED
  5
3F9
  9
$SURFTAB1
 70
     6
  9
$SURFTAB2
 70
     6
  9
$SURFTYPE
 70
     6
  9
$SURFU
 70
     6
  9
$SURFV
 70
     6
  9
$UCSNAME
  2

  9
$UCSORG
 10
0.0
 20
0.0
 30
0.0
  9
$UCSXDIR
 10
1.0
 20
0.0
 30
0.0
  9
$UCSYDIR
 10
0.0
 20
1.0
 30
0.0
  9
$PUCSNAME
  2

  9
$PUCSORG
 10
0.0
 20
0.0
 30
0.0
  9
$PUCSXDIR
 10
1.0
 20
0.0
 30
0.0
  9
$PUCSYDIR
 10
0.0
 20
1.0
 30
0.0
  9
$USERI1
 70
     0
  9
$USERI2
 70
     0
  9
$USERI3
 70
     0
  9
$USERI4
 70
     0
  9
$USERI5
 70
     0
  9
$USERR1
 40
0.0
  9
$USERR2
 40
0.0
  9
$USERR3
 40
0.0
  9
$USERR4
 40
0.0
  9
$USERR5
 40
0.0
  9
$WORLDVIEW
 70
     1
  9
$SHADEDGE
 70
     3
  9
$SHADEDIF
 70
    70
  9
$TILEMODE
 70
     1
  9
$MAXACTVP
 70
    64
  9
$PINSBASE
 10
0.0
 20
0.0
 30
0.0
  9
$PLIMCHECK
 70
     0
  9
$PEXTMIN
 10
1.000000000000000E+20
 20
1.000000000000000E+20
 30
1.000000000000000E+20
  9
$PEXTMAX
 10
-1.000000000000000E+20
 20
-1.000000000000000E+20
 30
-1.000000000000000E+20
  9
$PLIMMIN
 10
0.0
 20
0.0
  9
$PLIMMAX
 10
420.0
 20
297.0
  9
$UNITMODE
 70
     0
  9
$VISRETAIN
 70
     1
  9
$PLINEGEN
 70
     0
  9
$PSLTSCALE
 70
     1
  9
$TREEDEPTH
 70
  3020
  9
$PICKSTYLE
 70
     1
  9
$CMLSTYLE
  2
STANDARD
  9
$CMLJUST
 70
     0
  9
$CMLSCALE
 40
20.0
  9
$PROXYGRAPHICS
 70
     1
  9
$MEASUREMENT
 70
     1
  0
ENDSEC
  0
SECTION
  2
CLASSES
  0
CLASS
  1
ACDBDICTIONARYWDFLT
  2
AcDbDictionaryWithDefault
  3
ObjectDBX Classes
 90
        0
280
     0
281
     0
  0
CLASS
  1
VISUALSTYLE
  2
AcDbVisualStyle
  3
ObjectDBX Classes
 90
     4095
280
     0
281
     0
  0
CLASS
  1
MATERIAL
  2
AcDbMaterial
  3
ObjectDBX Classes
 90
     1153
280
     0
281
     0
  0
CLASS
  1
SCALE
  2
AcDbScale
  3
ObjectDBX Classes
 90
     1153
280
     0
281
     0
  0
CLASS
  1
TABLESTYLE
  2
AcDbTableStyle
  3
ObjectDBX Classes
 90
     4095
280
     0
281
     0
  0
CLASS
  1
MLEADERSTYLE
  2
AcDbMLeaderStyle
  3
ACDB_MLEADERSTYLE_CLASS
 90
     4095
280
     0
281
     0
  0
CLASS
  1
SUN
  2
AcDbSun
  3
SCENEOE
 90
     1153
280
     0
281
     0
  0
CLASS
  1
DICTIONARYVAR
  2
AcDbDictionaryVar
  3
ObjectDBX Classes
 90
        0
280
     0
281
     0
  0
CLASS
  1
XRECORD
  2
AcDbXrecord
  3
ObjectDBX Classes
 90
        0
280
     0
281
     0
  0
CLASS
  1
LWPOLYLINE
  2
AcDbPolyline
  3
ObjectDBX Classes
 90
        0
280
     0
281
     1
  0
CLASS
  1
HATCH
  2
AcDbHatch
  3
ObjectDBX Classes
 90
        0
280
     0
281
     1
  0
CLASS
  1
ACDBPLACEHOLDER
  2
AcDbPlaceHolder
  3
ObjectDBX Classes
 90
        0
280
     0
281
     0
  0
CLASS
  1
LAYOUT
  2
AcDbLayout
  3
ObjectDBX Classes
 90
        0
280
     0
281
     0
  0
ENDSEC
  0
SECTION
  2
TABLES
  0
TABLE
  2
VPORT
  5
8
102
{ACAD_XDICTIONARY
360
3EE
102
}
330
0
100
AcDbSymbolTable
 70
     1
  0
VPORT
  5
29
330
8
100
AcDbSymbolTableRecord
100
AcDbViewportTableRecord
  2
*ACTIVE
 70
     0
 10
0.0
 20
0.0
 11
1.0
 21
1.0
 12
975.0000000000001
 22
725.0
 13
0.0
 23
0.0
 14
10.0
 24
10.0
 15
10.0
 25
10.0
 16
0.0
 26
0.0
 36
1.0
 17
0.0
 27
0.0
 37
0.0
 40
1350.0
 41
1.407407407407408
 42
50.0
 43
0.0
 44
0.0
 50
0.0
 51
0.0
 71
     0
 72
  1000
 73
     1
 74
     3
 75
     0
 76
     0
 77
     0
 78
     0
  0
ENDTAB
  0
TABLE
  2
LTYPE
  5
5
330
0
100
AcDbSymbolTable
 70
     6
  0
LTYPE
  5
14
330
5
100
AcDbSymbolTableRecord
100
AcDbLinetypeTableRecord
  2
BYBLOCK
 70
     0
  3

 72
    65
 73
     0
 40
0.0
  0
LTYPE
  5
15
330
5
100
AcDbSymbolTableRecord
100
AcDbLinetypeTableRecord
  2
BYLAYER
 70
     0
  3

 72
    65
 73
     0
 40
0.0
  0
LTYPE
  5
16
330
5
100
AcDbSymbolTableRecord
100
AcDbLinetypeTableRecord
  2
CONTINUOUS
 70
     0
  3
Solid line
 72
    65
 73
     0
 40
0.0
  0
LTYPE
  5
6E
330
5
100
AcDbSymbolTableRecord
100
AcDbLinetypeTableRecord
  2
HIDDEN
 70
     0
  3
Hidden __ __ __ __ __ __ __ __ __ __ __ __ __ __
 72
    65
 73
     2
 40
9.524999999999999
 49
6.35
 74
     0
 49
-3.175
 74
     0
  0
LTYPE
  5
6F
330
5
100
AcDbSymbolTableRecord
100
AcDbLinetypeTableRecord
  2
CENTER
 70
     0
  3
Center ____ _ ____ _ ____ _ ____ _ ____ _ ____
 72
    65
 73
     4
 40
50.8
 49
31.75
 74
     0
 49
-6.35
 74
     0
 49
6.35
 74
     0
 49
-6.35
 74
     0
  0
LTYPE
  5
70
330
5
100
AcDbSymbolTableRecord
100
AcDbLinetypeTableRecord
  2
PHANTOM
 70
     0
  3
Phantom ______  __  __  ______  __  __  ______ 
 72
    65
 73
     6
 40
63.50000000000001
 49
31.75
 74
     0
 49
-6.35
 74
     0
 49
6.35
 74
     0
 49
-6.35
 74
     0
 49
6.35
 74
     0
 49
-6.35
 74
     0
  0
LTYPE
  5
71
330
5
100
AcDbSymbolTableRecord
100
AcDbLinetypeTableRecord
  2
ACAD_ISO06W100
 70
     0
  3
ISO long-dash triple-dot ____ ... ____ ... ____
 72
    65
 73
     8
 40
36.0
 49
24.0
 74
     0
 49
-3.0
 74
     0
 49
0.0
 74
     0
 49
-3.0
 74
     0
 49
0.0
 74
     0
 49
-3.0
 74
     0
 49
0.0
 74
     0
 49
-3.0
 74
     0
  0
LTYPE
  5
72
330
5
100
AcDbSymbolTableRecord
100
AcDbLinetypeTableRecord
  2
ACAD_ISO15W100
 70
     0
  3
ISO double-dash triple-dot __ __ . . . __ __ . .
 72
    65
 73
    10
 40
39.0
 49
12.0
 74
     0
 49
-3.0
 74
     0
 49
12.0
 74
     0
 49
-3.0
 74
     0
 49
0.0
 74
     0
 49
-3.0
 74
     0
 49
0.0
 74
     0
 49
-3.0
 74
     0
 49
0.0
 74
     0
 49
-3.0
 74
     0
  0
ENDTAB
  0
TABLE
  2
LAYER
  5
2
330
0
100
AcDbSymbolTable
 70
     6
  0
LAYER
  5
10
330
2
100
AcDbSymbolTableRecord
100
AcDbLayerTableRecord
  2
0
 70
     0
 62
     7
  6
CONTINUOUS
  0
LAYER
  5
75
330
2
100
AcDbSymbolTableRecord
100
AcDbLayerTableRecord
  2
LAY-10
 70
     0
 62
     7
  6
CONTINUOUS
  0
LAYER
  5
76
330
2
100
AcDbSymbolTableRecord
100
AcDbLayerTableRecord
  2
LAY-11
 70
     0
 62
     7
  6
CONTINUOUS
  0
LAYER
  5
77
330
2
100
AcDbSymbolTableRecord
100
AcDbLayerTableRecord
  2
LAY-20
 70
     0
 62
     7
  6
CONTINUOUS
  0
LAYER
  5
78
330
2
100
AcDbSymbolTableRecord
100
AcDbLayerTableRecord
  2
LAY-255
 70
     0
 62
     7
  6
CONTINUOUS
  0
LAYER
  5
31E
330
2
100
AcDbSymbolTableRecord
100
AcDbLayerTableRecord
  2
DEFPOINTS
 70
     0
 62
     7
  6
CONTINUOUS
  0
ENDTAB
  0
TABLE
  2
STYLE
  5
3
330
0
100
AcDbSymbolTable
 70
     4
  0
STYLE
  5
11
330
3
100
AcDbSymbolTableRecord
100
AcDbTextStyleTableRecord
  2
STANDARD
 70
     0
 40
0.0
 41
1.0
 50
0.0
 71
     0
 42
2.5
  3
simplex
  4
bigfont
  0
STYLE
  5
73
330
3
100
AcDbSymbolTableRecord
100
AcDbTextStyleTableRecord
  2
EXCADSTD
 70
     0
 40
0.0
 41
1.0
 50
0.0
 71
     0
 42
2.5
  3
simplex
  4
bigfont
  0
STYLE
  5
74
330
3
100
AcDbSymbolTableRecord
100
AcDbTextStyleTableRecord
  2
EXCADVERT
 70
     4
 40
0.0
 41
1.0
 50
0.0
 71
     0
 42
2.5
  3
simplex
  4
bigfont
  0
STYLE
  5
31C
330
3
100
AcDbSymbolTableRecord
100
AcDbTextStyleTableRecord
  2
EXCADDIM1
 70
     0
 40
0.0
 41
0.84
 50
0.0
 71
     0
 42
2.5
  3
simplex
  4
bigfont
  0
ENDTAB
  0
TABLE
  2
VIEW
  5
6
330
0
100
AcDbSymbolTable
 70
     0
  0
ENDTAB
  0
TABLE
  2
UCS
  5
7
330
0
100
AcDbSymbolTable
 70
     0
  0
ENDTAB
  0
TABLE
  2
APPID
  5
9
330
0
100
AcDbSymbolTable
 70
     2
  0
APPID
  5
12
330
9
100
AcDbSymbolTableRecord
100
AcDbRegAppTableRecord
  2
ACAD
 70
     0
  0
APPID
  5
3F8
330
9
100
AcDbSymbolTableRecord
100
AcDbRegAppTableRecord
  2
ACAD_MLEADERVER
 70
     0
  0
ENDTAB
  0
TABLE
  2
DIMSTYLE
  5
A
330
0
100
AcDbSymbolTable
 70
     1
  0
DIMSTYLE
105
27
102
{ACAD_REACTORS
330
31D
330
32B
330
338
330
345
330
351
102
}
330
A
100
AcDbSymbolTableRecord
100
AcDbDimStyleTableRecord
  2
ISO-25
 70
     0
  3

  4

  5

  6

  7

 40
1.0
 41
2.5
 42
0.625
 43
3.75
 44
1.25
 45
0.0
 46
0.0
 47
0.0
 48
0.0
140
2.5
141
2.5
142
0.0
143
0.03937007874016
144
1.0
145
0.0
146
1.0
147
0.625
 71
     0
 72
     0
 73
     0
 74
     0
 75
     0
 76
     0
 77
     1
 78
     8
170
     0
171
     3
172
     1
173
     0
174
     0
175
     0
176
     0
177
     0
178
     0
270
     2
271
     2
272
     2
273
     2
274
     3
340
11
275
     0
280
     0
281
     0
282
     0
283
     0
284
     8
285
     0
286
     0
287
     5
288
     0
  0
ENDTAB
  0
TABLE
  2
BLOCK_RECORD
  5
1
330
0
100
AcDbSymbolTable
 70
    19
  0
BLOCK_RECORD
  5
1F
330
1
100
AcDbSymbolTableRecord
100
AcDbBlockTableRecord
  2
*MODEL_SPACE
  0
BLOCK_RECORD
  5
1B
330
1
100
AcDbSymbolTableRecord
100
AcDbBlockTableRecord
  2
*PAPER_SPACE
  0
BLOCK_RECORD
  5
79
330
1
100
AcDbSymbolTableRecord
100
AcDbBlockTableRecord
  2
EX_NORM
  0
BLOCK_RECORD
  5
7C
330
1
100
AcDbSymbolTableRecord
100
AcDbBlockTableRecord
  2
EX_BNORM
  0
BLOCK_RECORD
  5
7F
330
1
100
AcDbSymbolTableRecord
100
AcDbBlockTableRecord
  2
EX_BCIR
  0
BLOCK_RECORD
  5
82
330
1
100
AcDbSymbolTableRecord
100
AcDbBlockTableRecord
  2
EX_RCIVIL
  0
BLOCK_RECORD
  5
85
330
1
100
AcDbSymbolTableRecord
100
AcDbBlockTableRecord
  2
EX_SLANT
  0
BLOCK_RECORD
  5
88
330
1
100
AcDbSymbolTableRecord
100
AcDbBlockTableRecord
  2
EX_NONE
  0
BLOCK_RECORD
  5
8B
330
1
100
AcDbSymbolTableRecord
100
AcDbBlockTableRecord
  2
EX_CIVIL
  0
BLOCK_RECORD
  5
8E
330
1
100
AcDbSymbolTableRecord
100
AcDbBlockTableRecord
  2
EX_WCIR
  0
BLOCK_RECORD
  5
91
330
1
100
AcDbSymbolTableRecord
100
AcDbBlockTableRecord
  2
EX_WCIR2
  0
BLOCK_RECORD
  5
94
330
1
100
AcDbSymbolTableRecord
100
AcDbBlockTableRecord
  2
EX_WNORM
  0
BLOCK_RECORD
  5
97
330
1
100
AcDbSymbolTableRecord
100
AcDbBlockTableRecord
  2
EX_NNORM
  0
BLOCK_RECORD
  5
9A
330
1
100
AcDbSymbolTableRecord
100
AcDbBlockTableRecord
  2
EX_BBOX
  0
BLOCK_RECORD
  5
9D
330
1
100
AcDbSymbolTableRecord
100
AcDbBlockTableRecord
  2
EX_WBOX
  0
BLOCK_RECORD
  5
A0
330
1
100
AcDbSymbolTableRecord
100
AcDbBlockTableRecord
  2
EX_INTEGRAL
  0
BLOCK_RECORD
  5
31F
330
1
100
AcDbSymbolTableRecord
100
AcDbBlockTableRecord
  2
*D15
  0
BLOCK_RECORD
  5
32C
330
1
100
AcDbSymbolTableRecord
100
AcDbBlockTableRecord
  2
*D16
  0
BLOCK_RECORD
  5
339
330
1
100
AcDbSymbolTableRecord
100
AcDbBlockTableRecord
  2
*D17
  0
BLOCK_RECORD
  5
346
330
1
100
AcDbSymbolTableRecord
100
AcDbBlockTableRecord
  2
*D18
  0
BLOCK_RECORD
  5
352
330
1
100
AcDbSymbolTableRecord
100
AcDbBlockTableRecord
  2
*D19
  0
ENDTAB
  0
ENDSEC
  0
SECTION
  2
BLOCKS
  0
BLOCK
  5
20
330
1F
100
AcDbEntity
  8
0
100
AcDbBlockBegin
  2
*MODEL_SPACE
 70
     0
 10
0.0
 20
0.0
 30
0.0
  3
*MODEL_SPACE
  1

  0
ENDBLK
  5
21
330
1F
100
AcDbEntity
  8
0
100
AcDbBlockEnd
  0
BLOCK
  5
1C
330
1B
100
AcDbEntity
 67
     1
  8
0
100
AcDbBlockBegin
  2
*PAPER_SPACE
 70
     0
 10
0.0
 20
0.0
 30
0.0
  3
*PAPER_SPACE
  1

  0
ENDBLK
  5
1D
330
1B
100
AcDbEntity
 67
     1
  8
0
100
AcDbBlockEnd
  0
BLOCK
  5
7A
330
79
100
AcDbEntity
  8
0
100
AcDbBlockBegin
  2
EX_NORM
 70
     0
 10
0.0
 20
0.0
 30
0.0
  3
EX_NORM
  1

  0
LINE
  5
A3
330
79
100
AcDbEntity
  8
0
  6
CONTINUOUS
 62
     0
100
AcDbLine
 10
0.0
 20
0.0
 30
0.0
 11
-1.0
 21
0.0
 31
0.0
  0
LINE
  5
A4
330
79
100
AcDbEntity
  8
0
  6
CONTINUOUS
 62
     0
100
AcDbLine
 10
0.0
 20
0.0
 30
0.0
 11
-1.0
 21
0.166666667
 31
0.0
  0
LINE
  5
A5
330
79
100
AcDbEntity
  8
0
  6
CONTINUOUS
 62
     0
100
AcDbLine
 10
0.0
 20
0.0
 30
0.0
 11
-1.0
 21
-0.166666667
 31
0.0
  0
ENDBLK
  5
7B
330
79
100
AcDbEntity
  8
0
100
AcDbBlockEnd
  0
BLOCK
  5
7D
330
7C
100
AcDbEntity
  8
0
100
AcDbBlockBegin
  2
EX_BNORM
 70
     0
 10
0.0
 20
0.0
 30
0.0
  3
EX_BNORM
  1

  0
LINE
  5
A6
330
7C
100
AcDbEntity
  8
0
  6
CONTINUOUS
 62
     0
100
AcDbLine
 10
0.0
 20
0.0
 30
0.0
 11
-1.0
 21
0.0
 31
0.0
  0
LINE
  5
A7
330
7C
100
AcDbEntity
  8
0
  6
CONTINUOUS
 62
     0
100
AcDbLine
 10
0.0
 20
0.0
 30
0.0
 11
-1.0
 21
0.166666667
 31
0.0
  0
LINE
  5
A8
330
7C
100
AcDbEntity
  8
0
  6
CONTINUOUS
 62
     0
100
AcDbLine
 10
0.0
 20
0.0
 30
0.0
 11
-1.0
 21
-0.166666667
 31
0.0
  0
LINE
  5
A9
330
7C
100
AcDbEntity
  8
0
  6
CONTINUOUS
 62
     0
100
AcDbLine
 10
0.0
 20
0.0
 30
0.0
 11
-1.0
 21
0.083333333
 31
0.0
  0
LINE
  5
AA
330
7C
100
AcDbEntity
  8
0
  6
CONTINUOUS
 62
     0
100
AcDbLine
 10
0.0
 20
0.0
 30
0.0
 11
-1.0
 21
-0.083333333
 31
0.0
  0
LINE
  5
AB
330
7C
100
AcDbEntity
  8
0
  6
CONTINUOUS
 62
     0
100
AcDbLine
 10
-1.0
 20
0.166666667
 30
0.0
 11
-1.0
 21
-0.166666667
 31
0.0
  0
ENDBLK
  5
7E
330
7C
100
AcDbEntity
  8
0
100
AcDbBlockEnd
  0
BLOCK
  5
80
330
7F
100
AcDbEntity
  8
0
100
AcDbBlockBegin
  2
EX_BCIR
 70
     0
 10
0.0
 20
0.0
 30
0.0
  3
EX_BCIR
  1

  0
LINE
  5
AC
330
7F
100
AcDbEntity
  8
0
  6
CONTINUOUS
 62
     0
100
AcDbLine
 10
0.0
 20
0.0
 30
0.0
 11
-1.0
 21
0.0
 31
0.0
  0
CIRCLE
  5
AD
330
7F
100
AcDbEntity
  8
0
  6
CONTINUOUS
 62
     0
100
AcDbCircle
 10
0.0
 20
0.0
 30
0.0
 40
0.5
  0
CIRCLE
  5
AE
330
7F
100
AcDbEntity
  8
0
  6
CONTINUOUS
 62
     0
100
AcDbCircle
 10
0.0
 20
0.0
 30
0.0
 40
0.25
  0
ENDBLK
  5
81
330
7F
100
AcDbEntity
  8
0
100
AcDbBlockEnd
  0
BLOCK
  5
83
330
82
100
AcDbEntity
  8
0
100
AcDbBlockBegin
  2
EX_RCIVIL
 70
     0
 10
0.0
 20
0.0
 30
0.0
  3
EX_RCIVIL
  1

  0
LINE
  5
AF
330
82
100
AcDbEntity
  8
0
  6
CONTINUOUS
 62
     0
100
AcDbLine
 10
0.0
 20
0.0
 30
0.0
 11
-1.0
 21
0.0
 31
0.0
  0
LINE
  5
B0
330
82
100
AcDbEntity
  8
0
  6
CONTINUOUS
 62
     0
100
AcDbLine
 10
-1.0
 20
-0.25
 30
0.0
 11
0.0
 21
-0.25
 31
0.0
  0
LINE
  5
B1
330
82
100
AcDbEntity
  8
0
  6
CONTINUOUS
 62
     0
100
AcDbLine
 10
-1.0
 20
-0.125
 30
0.0
 11
0.0
 21
-0.125
 31
0.0
  0
ENDBLK
  5
84
330
82
100
AcDbEntity
  8
0
100
AcDbBlockEnd
  0
BLOCK
  5
86
330
85
100
AcDbEntity
  8
0
100
AcDbBlockBegin
  2
EX_SLANT
 70
     0
 10
0.0
 20
0.0
 30
0.0
  3
EX_SLANT
  1

  0
LINE
  5
B2
330
85
100
AcDbEntity
  8
0
  6
CONTINUOUS
 62
     0
100
AcDbLine
 10
0.0
 20
0.0
 30
0.0
 11
-1.0
 21
0.0
 31
0.0
  0
LINE
  5
B3
330
85
100
AcDbEntity
  8
0
  6
CONTINUOUS
 62
     0
100
AcDbLine
 10
0.707106781
 20
0.707106781
 30
0.0
 11
-0.707106781
 21
-0.707106781
 31
0.0
  0
ENDBLK
  5
87
330
85
100
AcDbEntity
  8
0
100
AcDbBlockEnd
  0
BLOCK
  5
89
330
88
100
AcDbEntity
  8
0
100
AcDbBlockBegin
  2
EX_NONE
 70
     0
 10
0.0
 20
0.0
 30
0.0
  3
EX_NONE
  1

  0
LINE
  5
B4
330
88
100
AcDbEntity
  8
0
  6
CONTINUOUS
 62
     0
100
AcDbLine
 10
0.0
 20
0.0
 30
0.0
 11
-1.0
 21
0.0
 31
0.0
  0
ENDBLK
  5
8A
330
88
100
AcDbEntity
  8
0
100
AcDbBlockEnd
  0
BLOCK
  5
8C
330
8B
100
AcDbEntity
  8
0
100
AcDbBlockBegin
  2
EX_CIVIL
 70
     0
 10
0.0
 20
0.0
 30
0.0
  3
EX_CIVIL
  1

  0
LINE
  5
B5
330
8B
100
AcDbEntity
  8
0
  6
CONTINUOUS
 62
     0
100
AcDbLine
 10
0.0
 20
0.0
 30
0.0
 11
-1.0
 21
0.0
 31
0.0
  0
LINE
  5
B6
330
8B
100
AcDbEntity
  8
0
  6
CONTINUOUS
 62
     0
100
AcDbLine
 10
-1.0
 20
0.25
 30
0.0
 11
0.0
 21
0.25
 31
0.0
  0
LINE
  5
B7
330
8B
100
AcDbEntity
  8
0
  6
CONTINUOUS
 62
     0
100
AcDbLine
 10
-1.0
 20
0.125
 30
0.0
 11
0.0
 21
0.125
 31
0.0
  0
ENDBLK
  5
8D
330
8B
100
AcDbEntity
  8
0
100
AcDbBlockEnd
  0
BLOCK
  5
8F
330
8E
100
AcDbEntity
  8
0
100
AcDbBlockBegin
  2
EX_WCIR
 70
     0
 10
0.0
 20
0.0
 30
0.0
  3
EX_WCIR
  1

  0
LINE
  5
B8
330
8E
100
AcDbEntity
  8
0
  6
CONTINUOUS
 62
     0
100
AcDbLine
 10
0.0
 20
0.0
 30
0.0
 11
-1.0
 21
0.0
 31
0.0
  0
CIRCLE
  5
B9
330
8E
100
AcDbEntity
  8
0
  6
CONTINUOUS
 62
     0
100
AcDbCircle
 10
0.0
 20
0.0
 30
0.0
 40
0.5
  0
ENDBLK
  5
90
330
8E
100
AcDbEntity
  8
0
100
AcDbBlockEnd
  0
BLOCK
  5
92
330
91
100
AcDbEntity
  8
0
100
AcDbBlockBegin
  2
EX_WCIR2
 70
     0
 10
0.0
 20
0.0
 30
0.0
  3
EX_WCIR2
  1

  0
LINE
  5
BA
330
91
100
AcDbEntity
  8
0
  6
CONTINUOUS
 62
     0
100
AcDbLine
 10
-0.5
 20
0.0
 30
0.0
 11
-1.0
 21
0.0
 31
0.0
  0
CIRCLE
  5
BB
330
91
100
AcDbEntity
  8
0
  6
CONTINUOUS
 62
     0
100
AcDbCircle
 10
0.0
 20
0.0
 30
0.0
 40
0.5
  0
ENDBLK
  5
93
330
91
100
AcDbEntity
  8
0
100
AcDbBlockEnd
  0
BLOCK
  5
95
330
94
100
AcDbEntity
  8
0
100
AcDbBlockBegin
  2
EX_WNORM
 70
     0
 10
0.0
 20
0.0
 30
0.0
  3
EX_WNORM
  1

  0
LINE
  5
BC
330
94
100
AcDbEntity
  8
0
  6
CONTINUOUS
 62
     0
100
AcDbLine
 10
-1.0
 20
0.0
 30
0.0
 11
-1.0
 21
0.0
 31
0.0
  0
LINE
  5
BD
330
94
100
AcDbEntity
  8
0
  6
CONTINUOUS
 62
     0
100
AcDbLine
 10
0.0
 20
0.0
 30
0.0
 11
-1.0
 21
0.166666667
 31
0.0
  0
LINE
  5
BE
330
94
100
AcDbEntity
  8
0
  6
CONTINUOUS
 62
     0
100
AcDbLine
 10
0.0
 20
0.0
 30
0.0
 11
-1.0
 21
-0.166666667
 31
0.0
  0
LINE
  5
BF
330
94
100
AcDbEntity
  8
0
  6
CONTINUOUS
 62
     0
100
AcDbLine
 10
-1.0
 20
0.166666667
 30
0.0
 11
-1.0
 21
-0.166666667
 31
0.0
  0
ENDBLK
  5
96
330
94
100
AcDbEntity
  8
0
100
AcDbBlockEnd
  0
BLOCK
  5
98
330
97
100
AcDbEntity
  8
0
100
AcDbBlockBegin
  2
EX_NNORM
 70
     0
 10
0.0
 20
0.0
 30
0.0
  3
EX_NNORM
  1

  0
LINE
  5
C0
330
97
100
AcDbEntity
  8
0
  6
CONTINUOUS
 62
     0
100
AcDbLine
 10
0.0
 20
0.0
 30
0.0
 11
-1.0
 21
0.0
 31
0.0
  0
LINE
  5
C1
330
97
100
AcDbEntity
  8
0
  6
CONTINUOUS
 62
     0
100
AcDbLine
 10
0.0
 20
0.0
 30
0.0
 11
-1.0
 21
0.166666667
 31
0.0
  0
LINE
  5
C2
330
97
100
AcDbEntity
  8
0
  6
CONTINUOUS
 62
     0
100
AcDbLine
 10
0.0
 20
0.0
 30
0.0
 11
-1.0
 21
-0.166666667
 31
0.0
  0
LINE
  5
C3
330
97
100
AcDbEntity
  8
0
  6
CONTINUOUS
 62
     0
100
AcDbLine
 10
-1.0
 20
0.166666667
 30
0.0
 11
-1.0
 21
-0.166666667
 31
0.0
  0
ENDBLK
  5
99
330
97
100
AcDbEntity
  8
0
100
AcDbBlockEnd
  0
BLOCK
  5
9B
330
9A
100
AcDbEntity
  8
0
100
AcDbBlockBegin
  2
EX_BBOX
 70
     0
 10
0.0
 20
0.0
 30
0.0
  3
EX_BBOX
  1

  0
LINE
  5
C4
330
9A
100
AcDbEntity
  8
0
  6
CONTINUOUS
 62
     0
100
AcDbLine
 10
0.0
 20
0.0
 30
0.0
 11
-1.0
 21
0.0
 31
0.0
  0
LINE
  5
C5
330
9A
100
AcDbEntity
  8
0
  6
CONTINUOUS
 62
     0
100
AcDbLine
 10
-0.5
 20
0.5
 30
0.0
 11
0.5
 21
0.5
 31
0.0
  0
LINE
  5
C6
330
9A
100
AcDbEntity
  8
0
  6
CONTINUOUS
 62
     0
100
AcDbLine
 10
0.5
 20
0.5
 30
0.0
 11
0.5
 21
-0.5
 31
0.0
  0
LINE
  5
C7
330
9A
100
AcDbEntity
  8
0
  6
CONTINUOUS
 62
     0
100
AcDbLine
 10
0.5
 20
-0.5
 30
0.0
 11
-0.5
 21
-0.5
 31
0.0
  0
LINE
  5
C8
330
9A
100
AcDbEntity
  8
0
  6
CONTINUOUS
 62
     0
100
AcDbLine
 10
-0.5
 20
-0.5
 30
0.0
 11
-0.5
 21
0.5
 31
0.0
  0
LINE
  5
C9
330
9A
100
AcDbEntity
  8
0
  6
CONTINUOUS
 62
     0
100
AcDbLine
 10
-0.25
 20
0.25
 30
0.0
 11
0.25
 21
0.25
 31
0.0
  0
LINE
  5
CA
330
9A
100
AcDbEntity
  8
0
  6
CONTINUOUS
 62
     0
100
AcDbLine
 10
0.25
 20
0.25
 30
0.0
 11
0.25
 21
-0.25
 31
0.0
  0
LINE
  5
CB
330
9A
100
AcDbEntity
  8
0
  6
CONTINUOUS
 62
     0
100
AcDbLine
 10
0.25
 20
-0.25
 30
0.0
 11
-0.25
 21
-0.25
 31
0.0
  0
LINE
  5
CC
330
9A
100
AcDbEntity
  8
0
  6
CONTINUOUS
 62
     0
100
AcDbLine
 10
-0.25
 20
-0.25
 30
0.0
 11
-0.25
 21
0.25
 31
0.0
  0
ENDBLK
  5
9C
330
9A
100
AcDbEntity
  8
0
100
AcDbBlockEnd
  0
BLOCK
  5
9E
330
9D
100
AcDbEntity
  8
0
100
AcDbBlockBegin
  2
EX_WBOX
 70
     0
 10
0.0
 20
0.0
 30
0.0
  3
EX_WBOX
  1

  0
LINE
  5
CD
330
9D
100
AcDbEntity
  8
0
  6
CONTINUOUS
 62
     0
100
AcDbLine
 10
-0.5
 20
0.0
 30
0.0
 11
-1.0
 21
0.0
 31
0.0
  0
LINE
  5
CE
330
9D
100
AcDbEntity
  8
0
  6
CONTINUOUS
 62
     0
100
AcDbLine
 10
-0.5
 20
0.5
 30
0.0
 11
0.5
 21
0.5
 31
0.0
  0
LINE
  5
CF
330
9D
100
AcDbEntity
  8
0
  6
CONTINUOUS
 62
     0
100
AcDbLine
 10
0.5
 20
0.5
 30
0.0
 11
0.5
 21
-0.5
 31
0.0
  0
LINE
  5
D0
330
9D
100
AcDbEntity
  8
0
  6
CONTINUOUS
 62
     0
100
AcDbLine
 10
0.5
 20
-0.5
 30
0.0
 11
-0.5
 21
-0.5
 31
0.0
  0
LINE
  5
D1
330
9D
100
AcDbEntity
  8
0
  6
CONTINUOUS
 62
     0
100
AcDbLine
 10
-0.5
 20
-0.5
 30
0.0
 11
-0.5
 21
0.5
 31
0.0
  0
ENDBLK
  5
9F
330
9D
100
AcDbEntity
  8
0
100
AcDbBlockEnd
  0
BLOCK
  5
A1
330
A0
100
AcDbEntity
  8
0
100
AcDbBlockBegin
  2
EX_INTEGRAL
 70
     0
 10
0.0
 20
0.0
 30
0.0
  3
EX_INTEGRAL
  1

  0
LINE
  5
D2
330
A0
100
AcDbEntity
  8
0
  6
CONTINUOUS
 62
     0
100
AcDbLine
 10
0.0
 20
0.0
 30
0.0
 11
-1.0
 21
0.0
 31
0.0
  0
ARC
  5
D3
330
A0
100
AcDbEntity
  8
0
  6
CONTINUOUS
 62
     0
100
AcDbCircle
 10
0.542115
 20
0.164992
 30
0.0
 40
0.56667
100
AcDbArc
 50
73.07249033629006
 51
196.9275130221199
  0
ARC
  5
D4
330
A0
100
AcDbEntity
  8
0
  6
CONTINUOUS
 62
     0
100
AcDbCircle
 10
-0.542115
 20
-0.164992
 30
0.0
 40
0.56667
100
AcDbArc
 50
253.0724869220464
 51
16.9275130559125
  0
ENDBLK
  5
A2
330
A0
100
AcDbEntity
  8
0
100
AcDbBlockEnd
  0
BLOCK
  5
320
330
31F
100
AcDbEntity
  8
0
100
AcDbBlockBegin
  2
*D15
 70
     1
 10
0.0
 20
0.0
 30
0.0
  3
*D15
  1

  0
LINE
  5
322
330
31F
100
AcDbEntity
  8
LAY-20
  6
CONTINUOUS
 62
     4
100
AcDbLine
 10
376.0
 20
366.4999999999999
 30
0.0
 11
376.0
 21
491.1405166213601
 31
0.0
  0
LINE
  5
323
330
31F
100
AcDbEntity
  8
LAY-20
  6
CONTINUOUS
 62
     4
100
AcDbLine
 10
995.99999999999
 20
366.4999999999999
 30
0.0
 11
995.99999999999
 21
491.1405166213601
 31
0.0
  0
LINE
  5
324
330
31F
100
AcDbEntity
  8
LAY-20
  6
CONTINUOUS
 62
     4
100
AcDbLine
 10
391.0
 20
483.6405166213601
 30
0.0
 11
980.99999999999
 21
483.6405166213601
 31
0.0
  0
INSERT
  5
325
330
31F
100
AcDbEntity
  8
LAY-20
 62
     4
100
AcDbBlockReference
  2
EX_BNORM
 10
376.0
 20
483.6405166213601
 30
0.0
 41
15.0
 42
15.0
 43
15.0
 50
180.0
  0
INSERT
  5
326
330
31F
100
AcDbEntity
  8
LAY-20
 62
     4
100
AcDbBlockReference
  2
EX_BNORM
 10
995.99999999999
 20
483.6405166213601
 30
0.0
 41
15.0
 42
15.0
 43
15.0
  0
MTEXT
  5
327
330
31F
100
AcDbEntity
  8
LAY-20
 62
     7
100
AcDbMText
 10
685.9999999999949
 20
496.1405166213601
 30
0.0
 40
15.590552
 41
0.0
 71
     5
 72
     1
  1
%%c620
  7
EXCADDIM1
  0
POINT
  5
328
330
31F
100
AcDbEntity
  8
DEFPOINTS
 62
     0
100
AcDbPoint
 10
376.0
 20
358.9999999999999
 30
0.0
  0
POINT
  5
329
330
31F
100
AcDbEntity
  8
DEFPOINTS
 62
     0
100
AcDbPoint
 10
995.99999999999
 20
358.9999999999999
 30
0.0
  0
POINT
  5
32A
330
31F
100
AcDbEntity
  8
DEFPOINTS
 62
     0
100
AcDbPoint
 10
995.99999999999
 20
483.6405166213601
 30
0.0
  0
ENDBLK
  5
321
330
31F
100
AcDbEntity
  8
0
100
AcDbBlockEnd
  0
BLOCK
  5
32D
330
32C
100
AcDbEntity
  8
0
100
AcDbBlockBegin
  2
*D16
 70
     1
 10
0.0
 20
0.0
 30
0.0
  3
*D16
  1

  0
LINE
  5
32F
330
32C
100
AcDbEntity
  8
LAY-20
  6
CONTINUOUS
 62
     4
100
AcDbLine
 10
391.5000000000001
 20
366.0
 30
0.0
 11
391.5000000000001
 21
456.0
 31
0.0
  0
LINE
  5
330
330
32C
100
AcDbEntity
  8
LAY-20
  6
CONTINUOUS
 62
     4
100
AcDbLine
 10
980.5000000000001
 20
366.0
 30
0.0
 11
980.5000000000001
 21
456.0
 31
0.0
  0
LINE
  5
331
330
32C
100
AcDbEntity
  8
LAY-20
  6
CONTINUOUS
 62
     4
100
AcDbLine
 10
406.5000000000001
 20
448.5
 30
0.0
 11
965.5000000000001
 21
448.5
 31
0.0
  0
INSERT
  5
332
330
32C
100
AcDbEntity
  8
LAY-20
 62
     4
100
AcDbBlockReference
  2
EX_BNORM
 10
391.5000000000001
 20
448.5
 30
0.0
 41
15.0
 42
15.0
 43
15.0
 50
180.0
  0
INSERT
  5
333
330
32C
100
AcDbEntity
  8
LAY-20
 62
     4
100
AcDbBlockReference
  2
EX_BNORM
 10
980.5000000000001
 20
448.5
 30
0.0
 41
15.0
 42
15.0
 43
15.0
  0
MTEXT
  5
334
330
32C
100
AcDbEntity
  8
LAY-20
 62
     7
100
AcDbMText
 10
686.0
 20
461.0
 30
0.0
 40
15.590552
 41
0.0
 71
     5
 72
     1
  1
%%c589
  7
EXCADDIM1
  0
POINT
  5
335
330
32C
100
AcDbEntity
  8
DEFPOINTS
 62
     0
100
AcDbPoint
 10
391.5000000000001
 20
358.5
 30
0.0
  0
POINT
  5
336
330
32C
100
AcDbEntity
  8
DEFPOINTS
 62
     0
100
AcDbPoint
 10
980.5000000000001
 20
358.5
 30
0.0
  0
POINT
  5
337
330
32C
100
AcDbEntity
  8
DEFPOINTS
 62
     0
100
AcDbPoint
 10
980.5000000000001
 20
448.5
 30
0.0
  0
ENDBLK
  5
32E
330
32C
100
AcDbEntity
  8
0
100
AcDbBlockEnd
  0
BLOCK
  5
33A
330
339
100
AcDbEntity
  8
0
100
AcDbBlockBegin
  2
*D17
 70
     1
 10
0.0
 20
0.0
 30
0.0
  3
*D17
  1

  0
LINE
  5
33C
330
339
100
AcDbEntity
  8
LAY-20
  6
CONTINUOUS
 62
     4
100
AcDbLine
 10
436.0
 20
290.3
 30
0.0
 11
436.0
 21
240.3
 31
0.0
  0
LINE
  5
33D
330
339
100
AcDbEntity
  8
LAY-20
  6
CONTINUOUS
 62
     4
100
AcDbLine
 10
936.0
 20
290.3
 30
0.0
 11
936.0
 21
240.3
 31
0.0
  0
LINE
  5
33E
330
339
100
AcDbEntity
  8
LAY-20
  6
CONTINUOUS
 62
     4
100
AcDbLine
 10
451.0
 20
247.8
 30
0.0
 11
921.0
 21
247.8
 31
0.0
  0
INSERT
  5
33F
330
339
100
AcDbEntity
  8
LAY-20
 62
     4
100
AcDbBlockReference
  2
EX_BNORM
 10
436.0
 20
247.8
 30
0.0
 41
15.0
 42
15.0
 43
15.0
 50
180.0
  0
INSERT
  5
340
330
339
100
AcDbEntity
  8
LAY-20
 62
     4
100
AcDbBlockReference
  2
EX_BNORM
 10
936.0
 20
247.8
 30
0.0
 41
15.0
 42
15.0
 43
15.0
  0
MTEXT
  5
341
330
339
100
AcDbEntity
  8
LAY-20
 62
     7
100
AcDbMText
 10
686.0
 20
260.3
 30
0.0
 40
15.590552
 41
0.0
 71
     5
 72
     1
  1
%%c500
  7
EXCADDIM1
  0
POINT
  5
342
330
339
100
AcDbEntity
  8
DEFPOINTS
 62
     0
100
AcDbPoint
 10
436.0
 20
297.8
 30
0.0
  0
POINT
  5
343
330
339
100
AcDbEntity
  8
DEFPOINTS
 62
     0
100
AcDbPoint
 10
936.0
 20
297.8
 30
0.0
  0
POINT
  5
344
330
339
100
AcDbEntity
  8
DEFPOINTS
 62
     0
100
AcDbPoint
 10
936.0
 20
247.8
 30
0.0
  0
ENDBLK
  5
33B
330
339
100
AcDbEntity
  8
0
100
AcDbBlockEnd
  0
BLOCK
  5
347
330
346
100
AcDbEntity
  8
0
100
AcDbBlockBegin
  2
*D18
 70
     1
 10
0.0
 20
0.0
 30
0.0
  3
*D18
  1

  0
LINE
  5
349
330
346
100
AcDbEntity
  8
LAY-20
  6
CONTINUOUS
 62
     4
100
AcDbLine
 10
378.0
 20
290.3
 30
0.0
 11
378.0
 21
205.3
 31
0.0
  0
LINE
  5
34A
330
346
100
AcDbEntity
  8
LAY-20
  6
CONTINUOUS
 62
     4
100
AcDbLine
 10
393.0
 20
212.8
 30
0.0
 11
975.0
 21
212.8
 31
0.0
  0
INSERT
  5
34B
330
346
100
AcDbEntity
  8
LAY-20
 62
     4
100
AcDbBlockReference
  2
EX_BNORM
 10
378.0
 20
212.8
 30
0.0
 41
15.0
 42
15.0
 43
15.0
 50
180.0
  0
INSERT
  5
34C
330
346
100
AcDbEntity
  8
LAY-20
 62
     4
100
AcDbBlockReference
  2
EX_NONE
 10
990.0
 20
212.8
 30
0.0
 41
15.0
 42
15.0
 43
15.0
  0
MTEXT
  5
34D
330
346
100
AcDbEntity
  8
LAY-20
 62
     7
100
AcDbMText
 10
684.0
 20
225.3
 30
0.0
 40
15.590552
 41
0.0
 71
     5
 72
     1
  1
□612
  7
EXCADDIM1
  0
POINT
  5
34E
330
346
100
AcDbEntity
  8
DEFPOINTS
 62
     0
100
AcDbPoint
 10
378.0
 20
297.8
 30
0.0
  0
POINT
  5
34F
330
346
100
AcDbEntity
  8
DEFPOINTS
 62
     0
100
AcDbPoint
 10
990.0
 20
211.0
 30
0.0
  0
POINT
  5
350
330
346
100
AcDbEntity
  8
DEFPOINTS
 62
     0
100
AcDbPoint
 10
990.0
 20
212.8
 30
0.0
  0
ENDBLK
  5
348
330
346
100
AcDbEntity
  8
0
100
AcDbBlockEnd
  0
BLOCK
  5
353
330
352
100
AcDbEntity
  8
0
100
AcDbBlockBegin
  2
*D19
 70
     1
 10
0.0
 20
0.0
 30
0.0
  3
*D19
  1

  0
LINE
  5
355
330
352
100
AcDbEntity
  8
LAY-20
  6
CONTINUOUS
 62
     4
100
AcDbLine
 10
1101.0
 20
297.8
 30
0.0
 11
1148.0
 21
297.8
 31
0.0
  0
LINE
  5
356
330
352
100
AcDbEntity
  8
LAY-20
  6
CONTINUOUS
 62
     4
100
AcDbLine
 10
1011.0419262234
 20
359.8
 30
0.0
 11
1148.0
 21
359.8
 31
0.0
  0
LINE
  5
357
330
352
100
AcDbEntity
  8
LAY-20
  6
CONTINUOUS
 62
     4
100
AcDbLine
 10
1140.5
 20
312.8
 30
0.0
 11
1140.5
 21
344.8
 31
0.0
  0
INSERT
  5
358
330
352
100
AcDbEntity
  8
LAY-20
 62
     4
100
AcDbBlockReference
  2
EX_BNORM
 10
1140.5
 20
297.8
 30
0.0
 41
15.0
 42
15.0
 43
15.0
 50
270.0
  0
INSERT
  5
359
330
352
100
AcDbEntity
  8
LAY-20
 62
     4
100
AcDbBlockReference
  2
EX_BNORM
 10
1140.5
 20
359.8
 30
0.0
 41
15.0
 42
15.0
 43
15.0
 50
90.0
  0
MTEXT
  5
35A
330
352
100
AcDbEntity
  8
LAY-20
 62
     7
100
AcDbMText
 10
1128.0
 20
328.8
 30
0.0
 40
15.590552
 41
0.0
 71
     5
 72
     1
  1
62
  7
EXCADDIM1
 11
0.0
 21
1.0
 31
0.0
  0
POINT
  5
35B
330
352
100
AcDbEntity
  8
DEFPOINTS
 62
     0
100
AcDbPoint
 10
1093.5
 20
297.8
 30
0.0
  0
POINT
  5
35C
330
352
100
AcDbEntity
  8
DEFPOINTS
 62
     0
100
AcDbPoint
 10
1003.5419262234
 20
359.8
 30
0.0
  0
POINT
  5
35D
330
352
100
AcDbEntity
  8
DEFPOINTS
 62
     0
100
AcDbPoint
 10
1140.5
 20
359.8
 30
0.0
  0
ENDBLK
  5
354
330
352
100
AcDbEntity
  8
0
100
AcDbBlockEnd
  0
ENDSEC
  0
SECTION
  2
ENTITIES
  0
LINE
  5
D5
330
1F
100
AcDbEntity
  8
LAY-10
  6
CONTINUOUS
 62
     7
100
AcDbLine
 10
390.0
 20
358.9999999999999
 30
0.0
 11
390.0
 21
348.9999999999998
 31
0.0
  0
LINE
  5
D6
330
1F
100
AcDbEntity
  8
LAY-10
  6
CONTINUOUS
 62
     7
100
AcDbLine
 10
435.0
 20
335.9999999999999
 30
0.0
 11
436.0
 21
297.7999999999999
 31
0.0
  0
LINE
  5
D7
330
1F
100
AcDbEntity
  8
LAY-10
  6
CONTINUOUS
 62
     7
100
AcDbLine
 10
420.5789822529212
 20
309.6255025164873
 30
0.0
 11
421.5000000000038
 21
335.9999999999998
 31
0.0
  0
ARC
  5
D8
330
1F
100
AcDbEntity
  8
LAY-10
  6
CONTINUOUS
 62
     7
100
AcDbCircle
 10
415.5820281178256
 20
309.7999999999999
 30
0.0
 40
5.0
100
AcDbArc
 50
270.0
 51
358.000000000001
  0
LINE
  5
D9
330
1F
100
AcDbEntity
  8
LAY-10
  6
CONTINUOUS
 62
     7
100
AcDbLine
 10
415.5820281178256
 20
304.7999999999999
 30
0.0
 11
404.8719418855644
 21
304.7999999999999
 31
0.0
  0
ARC
  5
DA
330
1F
100
AcDbEntity
  8
LAY-10
  6
CONTINUOUS
 62
     7
100
AcDbCircle
 10
404.8719418855644
 20
309.7999999999999
 30
0.0
 40
5.0
100
AcDbArc
 50
182.0000000000012
 51
270.0
  0
LINE
  5
DB
330
1F
100
AcDbEntity
  8
LAY-10
  6
CONTINUOUS
 62
     7
100
AcDbLine
 10
389.0447640040637
 20
333.3999999999996
 30
0.0
 11
399.044764004065
 21
333.3999999999996
 31
0.0
  0
LINE
  5
DC
330
1F
100
AcDbEntity
  8
LAY-10
  6
CONTINUOUS
 62
     7
100
AcDbLine
 10
389.0447640040637
 20
333.3999999999996
 30
0.0
 11
389.6942903166102
 21
314.8000000000001
 31
0.0
  0
LINE
  5
DD
330
1F
100
AcDbEntity
  8
LAY-10
  6
CONTINUOUS
 62
     7
100
AcDbLine
 10
389.6942903166102
 20
314.8000000000001
 30
0.0
 11
399.6942903166115
 21
314.8000000000001
 31
0.0
  0
LINE
  5
DE
330
1F
100
AcDbEntity
  8
LAY-10
  6
CONTINUOUS
 62
     7
100
AcDbLine
 10
379.9433400270942
 20
337.9999999999993
 30
0.0
 11
376.9433400270941
 21
340.9999999999994
 31
0.0
  0
LINE
  5
DF
330
1F
100
AcDbEntity
  8
LAY-10
  6
CONTINUOUS
 62
     7
100
AcDbLine
 10
379.94334002709
 20
338.0
 30
0.0
 11
378.0
 21
297.7999999999999
 31
0.0
  0
LINE
  5
E0
330
1F
100
AcDbEntity
  8
LAY-10
  6
CONTINUOUS
 62
     7
100
AcDbLine
 10
376.9433400270941
 20
340.9999999999994
 30
0.0
 11
375.9999999999993
 21
358.9999999999999
 31
0.0
  0
LINE
  5
E1
330
1F
100
AcDbEntity
  8
LAY-10
  6
CONTINUOUS
 62
     7
100
AcDbLine
 10
685.9999999999999
 20
363.6405166213608
 30
0.0
 11
391.4999999999999
 21
358.4999999999999
 31
0.0
  0
LINE
  5
E2
330
1F
100
AcDbEntity
  8
LAY-10
  6
CONTINUOUS
 62
     7
100
AcDbLine
 10
393.5
 20
319.4999999999998
 30
0.0
 11
393.5
 21
329.9999999999996
 31
0.0
  0
LINE
  5
E3
330
1F
100
AcDbEntity
  8
LAY-10
  6
CONTINUOUS
 62
     7
100
AcDbLine
 10
391.4999999999999
 20
348.9999999999998
 30
0.0
 11
391.4999999999999
 21
358.4999999999999
 31
0.0
  0
LINE
  5
E4
330
1F
100
AcDbEntity
  8
LAY-10
  6
CONTINUOUS
 62
     7
100
AcDbLine
 10
393.5
 20
329.9999999999996
 30
0.0
 11
403.913962339814
 21
329.9999999999996
 31
0.0
  0
ARC
  5
E5
330
1F
100
AcDbEntity
  8
LAY-10
  6
CONTINUOUS
 62
     7
100
AcDbCircle
 10
403.913962339814
 20
330.9999999999995
 30
0.0
 40
1.0
100
AcDbArc
 50
270.0
 51
2.910837826167143
  0
LINE
  5
E6
330
1F
100
AcDbEntity
  8
LAY-10
  6
CONTINUOUS
 62
     7
100
AcDbLine
 10
405.5
 20
319.4999999999998
 30
0.0
 11
404.0965306590493
 21
347.1015637053596
 31
0.0
  0
ARC
  5
E7
330
1F
100
AcDbEntity
  8
LAY-10
  6
CONTINUOUS
 62
     7
100
AcDbCircle
 10
402.0991111203061
 20
346.9999999999998
 30
0.0
 40
2.0
100
AcDbArc
 50
2.910837826167086
 51
90.00000000000001
  0
LINE
  5
E8
330
1F
100
AcDbEntity
  8
LAY-10
  6
CONTINUOUS
 62
     7
100
AcDbLine
 10
417.3469112545891
 20
346.6999999999992
 30
0.0
 11
418.9999999999989
 21
346.6999999999992
 31
0.0
  0
LINE
  5
E9
330
1F
100
AcDbEntity
  8
LAY-10
  6
CONTINUOUS
 62
     7
100
AcDbLine
 10
414.348738773532
 20
343.8046984901067
 30
0.0
 11
413.4999999999923
 21
319.4999999999998
 31
0.0
  0
ARC
  5
EA
330
1F
100
AcDbEntity
  8
LAY-10
  6
CONTINUOUS
 62
     7
100
AcDbCircle
 10
417.3469112545891
 20
343.6999999999992
 30
0.0
 40
3.000000000000003
100
AcDbArc
 50
90.00000000000001
 51
178.0000000000008
  0
LINE
  5
EB
330
1F
100
AcDbEntity
  8
LAY-10
  6
CONTINUOUS
 62
     7
100
AcDbLine
 10
418.9999999999989
 20
347.499999999999
 30
0.0
 11
446.9999999999999
 21
347.499999999999
 31
0.0
  0
LINE
  5
EC
330
1F
100
AcDbEntity
  8
LAY-10
  6
CONTINUOUS
 62
     7
100
AcDbLine
 10
418.9999999999989
 20
347.499999999999
 30
0.0
 11
418.9999999999989
 21
346.6999999999999
 31
0.0
  0
LINE
  5
ED
330
1F
100
AcDbEntity
  8
LAY-10
  6
CONTINUOUS
 62
     7
100
AcDbLine
 10
375.9999999999993
 20
358.9999999999999
 30
0.0
 11
390.0
 21
358.9999999999999
 31
0.0
  0
LINE
  5
EE
330
1F
100
AcDbEntity
  8
LAY-10
  6
CONTINUOUS
 62
     7
100
AcDbLine
 10
390.0
 20
348.9999999999998
 30
0.0
 11
402.09911112031
 21
348.9999999999998
 31
0.0
  0
LINE
  5
EF
330
1F
100
AcDbEntity
  8
LAY-10
  6
CONTINUOUS
 62
     7
100
AcDbLine
 10
399.874987750469
 20
309.6255025164873
 30
0.0
 11
399.5301627000003
 21
319.4999999999998
 31
0.0
  0
LINE
  5
F0
330
1F
100
AcDbEntity
  8
LAY-10
  6
CONTINUOUS
 62
     7
100
AcDbLine
 10
399.1634946203368
 20
329.9999999999996
 30
0.0
 11
398.4999999999935
 21
348.9999999999998
 31
0.0
  0
LINE
  5
F1
330
1F
100
AcDbEntity
  8
LAY-10
  6
CONTINUOUS
 62
     7
100
AcDbLine
 10
393.5
 20
319.4999999999998
 30
0.0
 11
420.9238073033899
 21
319.4999999999998
 31
0.0
  0
LINE
  5
F2
330
1F
100
AcDbEntity
  8
LAY-10
  6
CONTINUOUS
 62
     7
100
AcDbLine
 10
982.0
 20
358.9999999999999
 30
0.0
 11
982.0
 21
348.9999999999998
 31
0.0
  0
LINE
  5
F3
330
1F
100
AcDbEntity
  8
LAY-10
  6
CONTINUOUS
 62
     7
100
AcDbLine
 10
996.0000000000003
 20
358.9999999999999
 30
0.0
 11
982.0
 21
358.9999999999999
 31
0.0
  0
ARC
  5
F4
330
1F
100
AcDbEntity
  8
LAY-10
  6
CONTINUOUS
 62
     7
100
AcDbCircle
 10
983.9999999999984
 20
310.7999999999998
 30
0.0
 40
3.000000000000003
100
AcDbArc
 50
180.0
 51
270.0
  0
LINE
  5
F5
330
1F
100
AcDbEntity
  8
LAY-10
  6
CONTINUOUS
 62
     7
100
AcDbLine
 10
1093.124917111283
 20
304.9570078687287
 30
0.0
 11
1093.499999999995
 21
297.7999999999999
 31
0.0
  0
LINE
  5
F6
330
1F
100
AcDbEntity
  8
LAY-10
  6
CONTINUOUS
 62
     7
100
AcDbLine
 10
1090.129028507019
 20
307.7999999999999
 30
0.0
 11
983.9999999999984
 21
307.7999999999999
 31
0.0
  0
ARC
  5
F7
330
1F
100
AcDbEntity
  8
LAY-10
  6
CONTINUOUS
 62
     7
100
AcDbCircle
 10
1090.129028507019
 20
304.7999999999999
 30
0.0
 40
3.000000000000003
100
AcDbArc
 50
3.000000000002413
 51
90.00000000000001
  0
LINE
  5
F8
330
1F
100
AcDbEntity
  8
LAY-10
  6
CONTINUOUS
 62
     7
100
AcDbLine
 10
951.4210177470786
 20
309.6255025164872
 30
0.0
 11
950.4999999999959
 21
335.9999999999998
 31
0.0
  0
ARC
  5
F9
330
1F
100
AcDbEntity
  8
LAY-10
  6
CONTINUOUS
 62
     7
100
AcDbCircle
 10
956.417971882174
 20
309.7999999999999
 30
0.0
 40
5.0
100
AcDbArc
 50
181.9999999999984
 51
270.0
  0
LINE
  5
FA
330
1F
100
AcDbEntity
  8
LAY-10
  6
CONTINUOUS
 62
     7
100
AcDbLine
 10
937.0
 20
335.9999999999999
 30
0.0
 11
935.9999999999999
 21
297.7999999999999
 31
0.0
  0
LINE
  5
FB
330
1F
100
AcDbEntity
  8
LAY-10
  6
CONTINUOUS
 62
     7
100
AcDbLine
 10
956.417971882174
 20
304.7999999999999
 30
0.0
 11
967.1280581144354
 21
304.7999999999999
 31
0.0
  0
ARC
  5
FC
330
1F
100
AcDbEntity
  8
LAY-10
  6
CONTINUOUS
 62
     7
100
AcDbCircle
 10
967.1280581144354
 20
309.7999999999999
 30
0.0
 40
5.0
100
AcDbArc
 50
270.0
 51
357.9999999999985
  0
LINE
  5
FD
330
1F
100
AcDbEntity
  8
LAY-10
  6
CONTINUOUS
 62
     7
100
AcDbLine
 10
972.125012249531
 20
309.6255025164872
 30
0.0
 11
973.4999999999998
 21
348.9999999998099
 31
0.0
  0
LINE
  5
FE
330
1F
100
AcDbEntity
  8
LAY-10
  6
CONTINUOUS
 62
     7
100
AcDbLine
 10
995.2138833107427
 20
343.9999999999971
 30
0.0
 11
995.9999999999881
 21
358.9999999999999
 31
0.0
  0
LINE
  5
FF
330
1F
100
AcDbEntity
  8
LAY-10
  6
CONTINUOUS
 62
     7
100
AcDbLine
 10
995.2310899506662
 20
344.328322248313
 30
0.0
 11
1058.499999999999
 21
307.7999999999973
 31
0.0
  0
LINE
  5
100
330
1F
100
AcDbEntity
  8
LAY-10
  6
CONTINUOUS
 62
     7
100
AcDbLine
 10
980.9999999999985
 20
334.0615598367738
 30
0.0
 11
980.9999999999985
 21
310.7999999999998
 31
0.0
  0
LINE
  5
101
330
1F
100
AcDbEntity
  8
LAY-10
  6
CONTINUOUS
 62
     7
100
AcDbLine
 10
982.4999999999985
 20
336.659636048127
 30
0.0
 11
995.2138833106975
 21
344.0000000000045
 31
0.0
  0
ARC
  5
102
330
1F
100
AcDbEntity
  8
LAY-10
  6
CONTINUOUS
 62
     7
100
AcDbCircle
 10
983.9999999999984
 20
334.0615598367738
 30
0.0
 40
3.000000000000003
100
AcDbArc
 50
119.9999999999995
 51
180.0
  0
LINE
  5
103
330
1F
100
AcDbEntity
  8
LAY-10
  6
CONTINUOUS
 62
     7
100
AcDbLine
 10
966.4999999999999
 20
319.4999999999998
 30
0.0
 11
967.9034693409503
 21
347.1015637053596
 31
0.0
  0
ARC
  5
104
330
1F
100
AcDbEntity
  8
LAY-10
  6
CONTINUOUS
 62
     7
100
AcDbCircle
 10
969.9008888796938
 20
346.9999999999998
 30
0.0
 40
2.0
100
AcDbArc
 50
90.00000000000001
 51
177.0891621738328
  0
LINE
  5
105
330
1F
100
AcDbEntity
  8
LAY-10
  6
CONTINUOUS
 62
     7
100
AcDbLine
 10
966.4999999999999
 20
319.4999999999998
 30
0.0
 11
951.07619269661
 21
319.4999999999998
 31
0.0
  0
LINE
  5
106
330
1F
100
AcDbEntity
  8
LAY-10
  6
CONTINUOUS
 62
     7
100
AcDbLine
 10
685.9999999999999
 20
363.6405166213608
 30
0.0
 11
980.4999999999999
 21
358.4999999999999
 31
0.0
  0
LINE
  5
107
330
1F
100
AcDbEntity
  8
LAY-10
  6
CONTINUOUS
 62
     7
100
AcDbLine
 10
957.651261226468
 20
343.8046984901067
 30
0.0
 11
958.5000000000076
 21
319.4999999999998
 31
0.0
  0
LINE
  5
108
330
1F
100
AcDbEntity
  8
LAY-10
  6
CONTINUOUS
 62
     7
100
AcDbLine
 10
922.9999999999985
 20
345.4999999999987
 30
0.0
 11
924.9999999999998
 21
347.5
 31
0.0
  0
LINE
  5
109
330
1F
100
AcDbEntity
  8
LAY-10
  6
CONTINUOUS
 62
     7
100
AcDbLine
 10
917.4999999999956
 20
349.0000000000001
 30
0.0
 11
920.9999999999977
 21
345.4999999999977
 31
0.0
  0
LINE
  5
10A
330
1F
100
AcDbEntity
  8
LAY-10
  6
CONTINUOUS
 62
     7
100
AcDbLine
 10
954.6530887454106
 20
346.6999999999992
 30
0.0
 11
953.0000000000008
 21
346.6999999999992
 31
0.0
  0
ARC
  5
10B
330
1F
100
AcDbEntity
  8
LAY-10
  6
CONTINUOUS
 62
     7
100
AcDbCircle
 10
954.6530887454106
 20
343.6999999999992
 30
0.0
 40
3.000000000000003
100
AcDbArc
 50
1.999999999999221
 51
90.00000000000001
  0
LINE
  5
10C
330
1F
100
AcDbEntity
  8
LAY-10
  6
CONTINUOUS
 62
     7
100
AcDbLine
 10
952.9999999999999
 20
347.5
 30
0.0
 11
925.0
 21
347.5
 31
0.0
  0
LINE
  5
10D
330
1F
100
AcDbEntity
  8
LAY-10
  6
CONTINUOUS
 62
     7
100
AcDbLine
 10
969.9008888797
 20
348.9999999998099
 30
0.0
 11
982.0
 21
348.9999999998099
 31
0.0
  0
LINE
  5
10E
330
1F
100
AcDbEntity
  8
LAY-10
  6
CONTINUOUS
 62
     7
100
AcDbLine
 10
980.4999999999999
 20
358.4999999999999
 30
0.0
 11
980.4999999999999
 21
348.9999999998099
 31
0.0
  0
LINE
  5
10F
330
1F
100
AcDbEntity
  8
LAY-10
  6
CONTINUOUS
 62
     7
100
AcDbLine
 10
1093.499999999995
 20
297.7999999999999
 30
0.0
 11
377.9999999999997
 21
297.7999999999999
 31
0.0
  0
LINE
  5
110
330
1F
100
AcDbEntity
  8
LAY-10
  6
CONTINUOUS
 62
     7
100
AcDbLine
 10
875.9999999999998
 20
347.2367789603572
 30
0.0
 11
875.9999999999998
 21
354.2367789603594
 31
0.0
  0
ARC
  5
111
330
1F
100
AcDbEntity
  8
LAY-10
  6
CONTINUOUS
 62
     7
100
AcDbCircle
 10
878.9999999999998
 20
347.2367789603572
 30
0.0
 40
3.000000000000003
100
AcDbArc
 50
180.0
 51
270.0
  0
LINE
  5
112
330
1F
100
AcDbEntity
  8
LAY-10
  6
CONTINUOUS
 62
     7
100
AcDbLine
 10
886.0000000000002
 20
354.2367789603594
 30
0.0
 11
886.0000000000002
 21
347.2367789603572
 31
0.0
  0
LINE
  5
113
330
1F
100
AcDbEntity
  8
LAY-10
  6
CONTINUOUS
 62
     7
100
AcDbLine
 10
878.9999999999998
 20
344.2367789603573
 30
0.0
 11
883.0000000000002
 21
344.2367789603573
 31
0.0
  0
ARC
  5
114
330
1F
100
AcDbEntity
  8
LAY-10
  6
CONTINUOUS
 62
     7
100
AcDbCircle
 10
883.0000000000002
 20
347.2367789603572
 30
0.0
 40
3.000000000000003
100
AcDbArc
 50
270.0
 51
0.0
  0
LINE
  5
115
330
1F
100
AcDbEntity
  8
LAY-10
  6
CONTINUOUS
 62
     7
100
AcDbLine
 10
875.9999999999998
 20
354.2367789603594
 30
0.0
 11
886.0000000000002
 21
354.2367789603594
 31
0.0
  0
ARC
  5
116
330
1F
100
AcDbEntity
  8
LAY-10
  6
CONTINUOUS
 62
     7
100
AcDbCircle
 10
837.99084187345
 20
339.0000000000001
 30
0.0
 40
10.0
100
AcDbArc
 50
17.10661323835097
 51
90.00000000000001
  0
LINE
  5
117
330
1F
100
AcDbEntity
  8
LAY-10
  6
CONTINUOUS
 62
     7
100
AcDbLine
 10
916.749821035091
 20
349.0000000000002
 30
0.0
 11
917.5
 21
349.0000000000003
 31
0.0
  0
ARC
  5
118
330
1F
100
AcDbEntity
  8
LAY-10
  6
CONTINUOUS
 62
     7
100
AcDbCircle
 10
880.9999999999999
 20
352.23677896036
 30
0.0
 40
35.0
100
AcDbArc
 50
197.106613238351
 51
353.2412932369028
  0
ARC
  5
119
330
1F
100
AcDbEntity
  8
LAY-10
  6
CONTINUOUS
 62
     7
100
AcDbCircle
 10
916.7498210350911
 20
348.0000000000001
 30
0.0
 40
1.0
100
AcDbArc
 50
90.00000000000001
 51
173.2412932369072
  0
LINE
  5
11A
330
1F
100
AcDbEntity
  8
LAY-10
  6
CONTINUOUS
 62
     7
100
AcDbLine
 10
914.0000000000001
 20
354.2367789603594
 30
0.0
 11
914.0000000000001
 21
359.6607618177267
 31
0.0
  0
LINE
  5
11B
330
1F
100
AcDbEntity
  8
LAY-10
  6
CONTINUOUS
 62
     7
100
AcDbLine
 10
848.0000000000002
 20
354.2367789603594
 30
0.0
 11
848.0000000000002
 21
360.8127961029891
 31
0.0
  0
LINE
  5
11C
330
1F
100
AcDbEntity
  8
LAY-10
  6
CONTINUOUS
 62
     7
100
AcDbLine
 10
848.0000000000002
 20
354.2367789603594
 30
0.0
 11
853.071519912462
 21
354.2367789603594
 31
0.0
  0
LINE
  5
11D
330
1F
100
AcDbEntity
  8
LAY-10
  6
CONTINUOUS
 62
     7
100
AcDbLine
 10
908.9284800875379
 20
354.2367789603594
 30
0.0
 11
914.0000000000001
 21
354.2367789603594
 31
0.0
  0
ARC
  5
11E
330
1F
100
AcDbEntity
  8
LAY-10
  6
CONTINUOUS
 62
     7
100
AcDbCircle
 10
880.9999999999999
 20
352.23677896036
 30
0.0
 40
28.00000000000005
100
AcDbArc
 50
175.9039562418489
 51
4.096043758151157
  0
LINE
  5
11F
330
1F
100
AcDbEntity
  8
LAY-10
  6
CONTINUOUS
 62
     7
100
AcDbLine
 10
922.9999999999984
 20
345.4999999999986
 30
0.0
 11
915.3455355066598
 21
345.4999999999986
 31
0.0
  0
ARC
  5
120
330
1F
100
AcDbEntity
  8
LAY-10
  6
CONTINUOUS
 62
     7
100
AcDbCircle
 10
926.2142494561232
 20
1145.214249456124
 30
0.0
 40
67.78575054387673
100
AcDbArc
 50
0.0
 51
90.00000000000001
  0
ARC
  5
121
330
1F
100
AcDbEntity
  8
LAY-10
  6
CONTINUOUS
 62
     7
100
AcDbCircle
 10
445.7857505438767
 20
1145.214249456124
 30
0.0
 40
67.78575054387673
100
AcDbArc
 50
90.00000000000001
 51
180.0
  0
ARC
  5
122
330
1F
100
AcDbEntity
  8
LAY-10
  6
CONTINUOUS
 62
     7
100
AcDbCircle
 10
926.2142494561232
 20
664.7857505438766
 30
0.0
 40
67.78575054387673
100
AcDbArc
 50
270.0
 51
0.0
  0
ARC
  5
123
330
1F
100
AcDbEntity
  8
LAY-10
  6
CONTINUOUS
 62
     7
100
AcDbCircle
 10
445.7857505438767
 20
664.7857505438766
 30
0.0
 40
67.78575054387673
100
AcDbArc
 50
180.0
 51
270.0
  0
ARC
  5
124
330
1F
100
AcDbEntity
  8
LAY-10
  6
CONTINUOUS
 62
     7
100
AcDbCircle
 10
445.7857505438767
 20
1145.214249456124
 30
0.0
 40
67.28575054387673
100
AcDbArc
 50
90.00000000000001
 51
180.0
  0
ARC
  5
125
330
1F
100
AcDbEntity
  8
LAY-10
  6
CONTINUOUS
 62
     7
100
AcDbCircle
 10
445.7857505438767
 20
664.7857505438766
 30
0.0
 40
67.28575054387673
100
AcDbArc
 50
180.0
 51
270.0
  0
ARC
  5
126
330
1F
100
AcDbEntity
  8
LAY-10
  6
CONTINUOUS
 62
     7
100
AcDbCircle
 10
926.2142494561232
 20
664.7857505438766
 30
0.0
 40
67.28575054387673
100
AcDbArc
 50
270.0
 51
0.0
  0
ARC
  5
127
330
1F
100
AcDbEntity
  8
LAY-10
  6
CONTINUOUS
 62
     7
100
AcDbCircle
 10
926.2142494561232
 20
1145.214249456124
 30
0.0
 40
67.28575054387673
100
AcDbArc
 50
0.0
 51
90.00000000000001
  0
CIRCLE
  5
128
330
1F
100
AcDbEntity
  8
LAY-10
  6
CONTINUOUS
 62
     7
100
AcDbCircle
 10
686.0
 20
905.0
 30
0.0
 40
310.0000000000001
  0
LINE
  5
129
330
1F
100
AcDbEntity
  8
LAY-10
  6
CONTINUOUS
 62
     7
100
AcDbLine
 10
378.4999999999998
 20
1145.214249456124
 30
0.0
 11
378.4999999999998
 21
944.2905841137539
 31
0.0
  0
LINE
  5
12A
330
1F
100
AcDbEntity
  8
LAY-10
  6
CONTINUOUS
 62
     7
100
AcDbLine
 10
378.0
 20
940.1567916624941
 30
0.0
 11
377.9999999999999
 21
1145.214249456124
 31
0.0
  0
LINE
  5
12B
330
1F
100
AcDbEntity
  8
LAY-10
  6
CONTINUOUS
 62
     7
100
AcDbLine
 10
378.0
 20
664.7857505438766
 30
0.0
 11
378.0
 21
869.8432083375062
 31
0.0
  0
LINE
  5
12C
330
1F
100
AcDbEntity
  8
LAY-10
  6
CONTINUOUS
 62
     7
100
AcDbLine
 10
378.5
 20
865.7094158862459
 30
0.0
 11
378.5
 21
664.7857505438766
 31
0.0
  0
LINE
  5
12D
330
1F
100
AcDbEntity
  8
LAY-10
  6
CONTINUOUS
 62
     7
100
AcDbLine
 10
926.2142494561232
 20
1212.5
 30
0.0
 11
725.2905841137558
 21
1212.5
 31
0.0
  0
LINE
  5
12E
330
1F
100
AcDbEntity
  8
LAY-10
  6
CONTINUOUS
 62
     7
100
AcDbLine
 10
721.1567916624955
 20
1213.0
 30
0.0
 11
926.2142494561232
 21
1213.0
 31
0.0
  0
LINE
  5
12F
330
1F
100
AcDbEntity
  8
LAY-10
  6
CONTINUOUS
 62
     7
100
AcDbLine
 10
646.7094158862446
 20
1212.5
 30
0.0
 11
445.7857505438767
 21
1212.5
 31
0.0
  0
LINE
  5
130
330
1F
100
AcDbEntity
  8
LAY-10
  6
CONTINUOUS
 62
     7
100
AcDbLine
 10
445.7857505438767
 20
1213.0
 30
0.0
 11
650.8432083375046
 21
1213.0
 31
0.0
  0
LINE
  5
131
330
1F
100
AcDbEntity
  8
LAY-10
  6
CONTINUOUS
 62
     7
100
AcDbLine
 10
993.9999999999999
 20
940.1567916624971
 30
0.0
 11
993.9999999999998
 21
1145.214249456124
 31
0.0
  0
LINE
  5
132
330
1F
100
AcDbEntity
  8
LAY-10
  6
CONTINUOUS
 62
     7
100
AcDbLine
 10
993.4999999999999
 20
944.2905841137571
 30
0.0
 11
993.4999999999998
 21
1145.214249456124
 31
0.0
  0
LINE
  5
133
330
1F
100
AcDbEntity
  8
LAY-10
  6
CONTINUOUS
 62
     7
100
AcDbLine
 10
993.9999999999999
 20
664.7857505438766
 30
0.0
 11
993.9999999999999
 21
869.8432083375031
 31
0.0
  0
LINE
  5
134
330
1F
100
AcDbEntity
  8
LAY-10
  6
CONTINUOUS
 62
     7
100
AcDbLine
 10
993.4999999999999
 20
664.7857505438766
 30
0.0
 11
993.4999999999999
 21
865.7094158862432
 31
0.0
  0
LINE
  5
135
330
1F
100
AcDbEntity
  8
LAY-10
  6
CONTINUOUS
 62
     7
100
AcDbLine
 10
445.7857505438767
 20
597.0000000000001
 30
0.0
 11
650.8432083375046
 21
597.0000000000001
 31
0.0
  0
LINE
  5
136
330
1F
100
AcDbEntity
  8
LAY-10
  6
CONTINUOUS
 62
     7
100
AcDbLine
 10
445.7857505438767
 20
597.5000000000001
 30
0.0
 11
646.7094158862446
 21
597.5000000000001
 31
0.0
  0
LINE
  5
137
330
1F
100
AcDbEntity
  8
LAY-10
  6
CONTINUOUS
 62
     7
100
AcDbLine
 10
721.1567916624955
 20
597.0000000000001
 30
0.0
 11
926.2142494561232
 21
597.0000000000001
 31
0.0
  0
LINE
  5
138
330
1F
100
AcDbEntity
  8
LAY-10
  6
CONTINUOUS
 62
     7
100
AcDbLine
 10
725.2905841137556
 20
597.5000000000001
 30
0.0
 11
926.2142494561232
 21
597.5000000000001
 31
0.0
  0
CIRCLE
  5
139
330
1F
100
AcDbEntity
  8
LAY-10
  6
CONTINUOUS
 62
     7
100
AcDbCircle
 10
686.0
 20
905.0
 30
0.0
 40
294.5000000000001
  0
CIRCLE
  5
13A
330
1F
100
AcDbEntity
  8
LAY-10
  6
CONTINUOUS
 62
     7
100
AcDbCircle
 10
686.0
 20
905.0
 30
0.0
 40
296.0000000000001
  0
LINE
  5
13B
330
1F
100
AcDbEntity
  8
LAY-10
  6
CONTINUOUS
 62
     7
100
AcDbLine
 10
933.230447378312
 20
1180.514718625762
 30
0.0
 11
890.6042929185493
 21
1137.888564165999
 31
0.0
  0
LINE
  5
13C
330
1F
100
AcDbEntity
  8
LAY-10
  6
CONTINUOUS
 62
     7
100
AcDbLine
 10
778.1086315173565
 20
1201.0
 30
0.0
 11
924.7451660040733
 21
1201.0
 31
0.0
  0
ARC
  5
13D
330
1F
100
AcDbEntity
  8
LAY-10
  6
CONTINUOUS
 62
     7
100
AcDbCircle
 10
924.7451660040733
 20
1189.0
 30
0.0
 40
12.0
100
AcDbArc
 50
315.0000000000001
 51
90.00000000000001
  0
ARC
  5
13E
330
1F
100
AcDbEntity
  8
LAY-10
  6
CONTINUOUS
 62
     7
100
AcDbCircle
 10
970.0000000000126
 20
1143.745166004061
 30
0.0
 40
12.00000000000001
100
AcDbArc
 50
0.0
 51
135.0000000000012
  0
LINE
  5
13F
330
1F
100
AcDbEntity
  8
LAY-10
  6
CONTINUOUS
 62
     7
100
AcDbLine
 10
918.8885641660107
 20
1109.604292918536
 30
0.0
 11
961.5147186257739
 21
1152.2304473783
 31
0.0
  0
LINE
  5
140
330
1F
100
AcDbEntity
  8
LAY-10
  6
CONTINUOUS
 62
     7
100
AcDbLine
 10
982.0000000000002
 20
1143.745166004061
 30
0.0
 11
982.0000000000002
 21
997.1086315173553
 31
0.0
  0
LINE
  5
141
330
1F
100
AcDbEntity
  8
LAY-10
  6
CONTINUOUS
 62
     7
100
AcDbLine
 10
945.1546353048701
 20
1172.6399166791
 30
0.0
 11
902.35642636655
 21
1127.013280616
 31
0.0
  0
LINE
  5
142
330
1F
100
AcDbEntity
  8
LAY-10
  6
CONTINUOUS
 62
     7
100
AcDbLine
 10
953.6399166791123
 20
1164.154635304858
 30
0.0
 11
908.0132806160124
 21
1121.356426366538
 31
0.0
  0
LINE
  5
143
330
1F
100
AcDbEntity
  8
LAY-10
  6
CONTINUOUS
 62
     7
100
AcDbLine
 10
945.1546353048658
 20
1172.639916679095
 30
0.0
 11
953.6399166791076
 21
1164.154635304853
 31
0.0
  0
LINE
  5
144
330
1F
100
AcDbEntity
  8
LAY-10
  6
CONTINUOUS
 62
     7
100
AcDbLine
 10
438.7695526216879
 20
1180.514718625762
 30
0.0
 11
481.3957070814506
 21
1137.888564165999
 31
0.0
  0
LINE
  5
145
330
1F
100
AcDbEntity
  8
LAY-10
  6
CONTINUOUS
 62
     7
100
AcDbLine
 10
453.1114358339892
 20
1109.604292918536
 30
0.0
 11
410.4852813742259
 21
1152.2304473783
 31
0.0
  0
LINE
  5
146
330
1F
100
AcDbEntity
  8
LAY-10
  6
CONTINUOUS
 62
     7
100
AcDbLine
 10
426.8453646951298
 20
1172.6399166791
 30
0.0
 11
469.6435736334499
 21
1127.013280616
 31
0.0
  0
LINE
  5
147
330
1F
100
AcDbEntity
  8
LAY-10
  6
CONTINUOUS
 62
     7
100
AcDbLine
 10
418.3600833208875
 20
1164.154635304858
 30
0.0
 11
463.9867193839875
 21
1121.356426366538
 31
0.0
  0
LINE
  5
148
330
1F
100
AcDbEntity
  8
LAY-10
  6
CONTINUOUS
 62
     7
100
AcDbLine
 10
426.8453646951341
 20
1172.639916679095
 30
0.0
 11
418.3600833208923
 21
1164.154635304853
 31
0.0
  0
ARC
  5
149
330
1F
100
AcDbEntity
  8
LAY-10
  6
CONTINUOUS
 62
     7
100
AcDbCircle
 10
401.9999999999873
 20
1143.745166004061
 30
0.0
 40
12.00000000000001
100
AcDbArc
 50
44.99999999999907
 51
180.0
  0
ARC
  5
14A
330
1F
100
AcDbEntity
  8
LAY-10
  6
CONTINUOUS
 62
     7
100
AcDbCircle
 10
447.2548339959264
 20
1189.0
 30
0.0
 40
12.00000000000001
100
AcDbArc
 50
90.00000000000001
 51
225.0000000000004
  0
LINE
  5
14B
330
1F
100
AcDbEntity
  8
LAY-10
  6
CONTINUOUS
 62
     7
100
AcDbLine
 10
593.8913684826434
 20
1201.0
 30
0.0
 11
447.2548339959264
 21
1201.0
 31
0.0
  0
LINE
  5
14C
330
1F
100
AcDbEntity
  8
LAY-10
  6
CONTINUOUS
 62
     7
100
AcDbLine
 10
389.9999999999995
 20
1143.745166004061
 30
0.0
 11
389.9999999999995
 21
997.1086315173553
 31
0.0
  0
CIRCLE
  5
14D
330
1F
100
AcDbEntity
  8
LAY-10
  6
CONTINUOUS
 62
     7
100
AcDbCircle
 10
418.0
 20
1113.0
 30
0.0
 40
10.0
  0
CIRCLE
  5
14E
330
1F
100
AcDbEntity
  8
LAY-10
  6
CONTINUOUS
 62
     7
100
AcDbCircle
 10
418.0
 20
1113.0
 30
0.0
 40
11.0
  0
CIRCLE
  5
14F
330
1F
100
AcDbEntity
  8
LAY-10
  6
CONTINUOUS
 62
     7
100
AcDbCircle
 10
478.0000000000001
 20
637.0
 30
0.0
 40
10.0
  0
CIRCLE
  5
150
330
1F
100
AcDbEntity
  8
LAY-10
  6
CONTINUOUS
 62
     7
100
AcDbCircle
 10
478.0000000000001
 20
637.0
 30
0.0
 40
11.0
  0
CIRCLE
  5
151
330
1F
100
AcDbEntity
  8
LAY-10
  6
CONTINUOUS
 62
     7
100
AcDbCircle
 10
954.0
 20
697.0000000000001
 30
0.0
 40
10.0
  0
CIRCLE
  5
152
330
1F
100
AcDbEntity
  8
LAY-10
  6
CONTINUOUS
 62
     7
100
AcDbCircle
 10
954.0
 20
697.0000000000001
 30
0.0
 40
11.0
  0
CIRCLE
  5
153
330
1F
100
AcDbEntity
  8
LAY-10
  6
CONTINUOUS
 62
     7
100
AcDbCircle
 10
894.0
 20
1173.0
 30
0.0
 40
10.0
  0
CIRCLE
  5
154
330
1F
100
AcDbEntity
  8
LAY-10
  6
CONTINUOUS
 62
     7
100
AcDbCircle
 10
894.0
 20
1173.0
 30
0.0
 40
11.0
  0
LINE
  5
155
330
1F
100
AcDbEntity
  8
LAY-10
  6
CONTINUOUS
 62
     7
100
AcDbLine
 10
918.8885641660107
 20
700.3957070814637
 30
0.0
 11
961.5147186257739
 21
657.7695526217003
 31
0.0
  0
LINE
  5
156
330
1F
100
AcDbEntity
  8
LAY-10
  6
CONTINUOUS
 62
     7
100
AcDbLine
 10
953.6399166791123
 20
645.8453646951424
 30
0.0
 11
908.0132806160124
 21
688.6435736334626
 31
0.0
  0
LINE
  5
157
330
1F
100
AcDbEntity
  8
LAY-10
  6
CONTINUOUS
 62
     7
100
AcDbLine
 10
945.1546353048701
 20
637.3600833209001
 30
0.0
 11
902.35642636655
 21
682.986719384
 31
0.0
  0
LINE
  5
158
330
1F
100
AcDbEntity
  8
LAY-10
  6
CONTINUOUS
 62
     7
100
AcDbLine
 10
933.230447378312
 20
629.4852813742385
 30
0.0
 11
890.6042929185493
 21
672.111435834001
 31
0.0
  0
ARC
  5
159
330
1F
100
AcDbEntity
  8
LAY-10
  6
CONTINUOUS
 62
     7
100
AcDbCircle
 10
924.7451660040733
 20
620.9999999999998
 30
0.0
 40
12.00000000000001
100
AcDbArc
 50
270.0
 51
45.00000000000039
  0
ARC
  5
15A
330
1F
100
AcDbEntity
  8
LAY-10
  6
CONTINUOUS
 62
     7
100
AcDbCircle
 10
970.0000000000126
 20
666.254833995939
 30
0.0
 40
12.00000000000001
100
AcDbArc
 50
224.9999999999989
 51
0.0
  0
LINE
  5
15B
330
1F
100
AcDbEntity
  8
LAY-10
  6
CONTINUOUS
 62
     7
100
AcDbLine
 10
982.0000000000002
 20
666.254833995939
 30
0.0
 11
982.0000000000002
 21
812.8913684826447
 31
0.0
  0
LINE
  5
15C
330
1F
100
AcDbEntity
  8
LAY-10
  6
CONTINUOUS
 62
     7
100
AcDbLine
 10
778.1086315173565
 20
608.9999999999999
 30
0.0
 11
924.7451660040732
 21
608.9999999999998
 31
0.0
  0
LINE
  5
15D
330
1F
100
AcDbEntity
  8
LAY-10
  6
CONTINUOUS
 62
     7
100
AcDbLine
 10
945.1546353048658
 20
637.3600833209048
 30
0.0
 11
953.6399166791076
 21
645.8453646951467
 31
0.0
  0
LINE
  5
15E
330
1F
100
AcDbEntity
  8
LAY-10
  6
CONTINUOUS
 62
     7
100
AcDbLine
 10
453.1114358339892
 20
700.3957070814637
 30
0.0
 11
410.4852813742259
 21
657.7695526217003
 31
0.0
  0
LINE
  5
15F
330
1F
100
AcDbEntity
  8
LAY-10
  6
CONTINUOUS
 62
     7
100
AcDbLine
 10
418.3600833208875
 20
645.8453646951424
 30
0.0
 11
463.9867193839875
 21
688.6435736334626
 31
0.0
  0
LINE
  5
160
330
1F
100
AcDbEntity
  8
LAY-10
  6
CONTINUOUS
 62
     7
100
AcDbLine
 10
426.8453646951298
 20
637.3600833209001
 30
0.0
 11
469.6435736334499
 21
682.986719384
 31
0.0
  0
LINE
  5
161
330
1F
100
AcDbEntity
  8
LAY-10
  6
CONTINUOUS
 62
     7
100
AcDbLine
 10
438.7695526216879
 20
629.4852813742385
 30
0.0
 11
481.3957070814506
 21
672.111435834001
 31
0.0
  0
ARC
  5
162
330
1F
100
AcDbEntity
  8
LAY-10
  6
CONTINUOUS
 62
     7
100
AcDbCircle
 10
401.9999999999873
 20
666.254833995939
 30
0.0
 40
12.00000000000001
100
AcDbArc
 50
180.0
 51
315.0000000000011
  0
ARC
  5
163
330
1F
100
AcDbEntity
  8
LAY-10
  6
CONTINUOUS
 62
     7
100
AcDbCircle
 10
447.2548339959264
 20
620.9999999999998
 30
0.0
 40
12.00000000000001
100
AcDbArc
 50
134.9999999999996
 51
270.0
  0
LINE
  5
164
330
1F
100
AcDbEntity
  8
LAY-10
  6
CONTINUOUS
 62
     7
100
AcDbLine
 10
426.8453646951341
 20
637.3600833209048
 30
0.0
 11
418.3600833208923
 21
645.8453646951467
 31
0.0
  0
LINE
  5
165
330
1F
100
AcDbEntity
  8
LAY-10
  6
CONTINUOUS
 62
     7
100
AcDbLine
 10
389.9999999999995
 20
666.254833995939
 30
0.0
 11
389.9999999999995
 21
812.8913684826447
 31
0.0
  0
LINE
  5
166
330
1F
100
AcDbEntity
  8
LAY-10
  6
CONTINUOUS
 62
     7
100
AcDbLine
 10
593.8913684826434
 20
608.9999999999999
 30
0.0
 11
447.2548339959267
 21
608.9999999999999
 31
0.0
  0
TEXT
  5
167
330
1F
100
AcDbEntity
  8
LAY-10
  6
CONTINUOUS
 62
     7
100
AcDbText
 10
893.9164885373197
 20
733.0242078840986
 30
0.0
 40
15.590552
  1
Ｄ
 50
52.03266789469999
 41
1.2
  7
EXCADSTD
100
AcDbText
  0
TEXT
  5
168
330
1F
100
AcDbEntity
  8
LAY-10
  6
CONTINUOUS
 62
     7
100
AcDbText
 10
903.2600971663741
 20
744.9906582138466
 30
0.0
 40
15.590552
  1
５
 50
55.25695716780001
 41
1.2
  7
EXCADSTD
100
AcDbText
  0
TEXT
  5
169
330
1F
100
AcDbEntity
  8
LAY-10
  6
CONTINUOUS
 62
     7
100
AcDbText
 10
911.9158647504507
 20
757.4636948624532
 30
0.0
 40
15.590552
  1
０
 50
58.48124644090004
 41
1.2
  7
EXCADSTD
100
AcDbText
  0
TEXT
  5
16A
330
1F
100
AcDbEntity
  8
LAY-10
  6
CONTINUOUS
 62
     7
100
AcDbText
 10
919.8563873055749
 20
770.4038284498145
 30
0.0
 40
15.590552
  1
０
 50
61.70553571409997
 41
1.2
  7
EXCADSTD
100
AcDbText
  0
TEXT
  5
16B
330
1F
100
AcDbEntity
  8
LAY-10
  6
CONTINUOUS
 62
     7
100
AcDbText
 10
879.8044802867902
 20
716.304258573577
 30
0.0
 40
11.692914
  1
．
 50
47.04616244660001
 41
1.2
  7
EXCADSTD
100
AcDbText
  0
TEXT
  5
16C
330
1F
100
AcDbEntity
  8
LAY-10
  6
CONTINUOUS
 62
     7
100
AcDbText
 10
483.9547362837398
 20
727.1557039505373
 30
0.0
 40
11.692914
  1
Ｐ
 50
312.9538375534003
 41
1.2
  7
EXCADSTD
100
AcDbText
  0
TEXT
  5
16D
330
1F
100
AcDbEntity
  8
LAY-10
  6
CONTINUOUS
 62
     7
100
AcDbText
 10
492.1333664484822
 20
718.3681156137653
 30
0.0
 40
11.692914
  1
Ａ
 50
315.4968733613001
 41
1.2
  7
EXCADSTD
100
AcDbText
  0
TEXT
  5
16E
330
1F
100
AcDbEntity
  8
LAY-10
  6
CONTINUOUS
 62
     7
100
AcDbText
 10
500.6938454379089
 20
709.9520654939276
 30
0.0
 40
11.692914
  1
Ｔ
 50
318.0399091692
 41
1.2
  7
EXCADSTD
100
AcDbText
  0
TEXT
  5
16F
330
1F
100
AcDbEntity
  8
LAY-10
  6
CONTINUOUS
 62
     7
100
AcDbText
 10
509.6193121306421
 20
701.9241302385143
 30
0.0
 40
11.692914
  1
Ｅ
 50
320.5829449770999
 41
1.2
  7
EXCADSTD
100
AcDbText
  0
TEXT
  5
170
330
1F
100
AcDbEntity
  8
LAY-10
  6
CONTINUOUS
 62
     7
100
AcDbText
 10
518.892186508365
 20
694.3001220457725
 30
0.0
 40
11.692914
  1
Ｎ
 50
323.1259807851002
 41
1.2
  7
EXCADSTD
100
AcDbText
  0
TEXT
  5
171
330
1F
100
AcDbEntity
  8
LAY-10
  6
CONTINUOUS
 62
     7
100
AcDbText
 10
528.4942042822975
 20
687.0950575202321
 30
0.0
 40
11.692914
  1
Ｔ
 50
325.6690165930002
 41
1.2
  7
EXCADSTD
100
AcDbText
  0
TEXT
  5
172
330
1F
100
AcDbEntity
  8
LAY-10
  6
CONTINUOUS
 62
     7
100
AcDbText
 10
550.753956367463
 20
676.1679664024898
 30
0.0
 40
7.795275999999999
  1
ＳＦ
 50
330.7550882089
 41
0.89125
  7
EXCADSTD
100
AcDbText
  0
TEXT
  5
173
330
1F
100
AcDbEntity
  8
LAY-10
  6
CONTINUOUS
 62
     7
100
AcDbText
 10
569.8065238165876
 20
662.7351120113403
 30
0.0
 40
11.692914
  1
Ｆ
 50
335.8411598247
 41
1.2
  7
EXCADSTD
100
AcDbText
  0
TEXT
  5
174
330
1F
100
AcDbEntity
  8
LAY-10
  6
CONTINUOUS
 62
     7
100
AcDbText
 10
591.9186287330333
 20
653.3960666862089
 30
0.0
 40
11.692914
  1
Ｋ
 50
340.9272314406
 41
1.2
  7
EXCADSTD
100
AcDbText
  0
TEXT
  5
175
330
1F
100
AcDbEntity
  8
LAY-10
  6
CONTINUOUS
 62
     7
100
AcDbText
 10
580.7589324005723
 20
657.8201912228232
 30
0.0
 40
11.692914
  1
Ｕ
 50
338.3841956326001
 41
1.2
  7
EXCADSTD
100
AcDbText
  0
TEXT
  5
176
330
1F
100
AcDbEntity
  8
LAY-10
  6
CONTINUOUS
 62
     7
100
AcDbText
 10
614.7715970061518
 20
646.0540783636488
 30
0.0
 40
11.692914
  1
Ｎ
 50
346.0133030564001
 41
1.2
  7
EXCADSTD
100
AcDbText
  0
TEXT
  5
177
330
1F
100
AcDbEntity
  8
LAY-10
  6
CONTINUOUS
 62
     7
100
AcDbText
 10
603.263632152048
 20
649.4714523649358
 30
0.0
 40
11.692914
  1
Ｕ
 50
343.4702672485002
 41
1.2
  7
EXCADSTD
100
AcDbText
  0
TEXT
  5
178
330
1F
100
AcDbEntity
  8
LAY-10
  6
CONTINUOUS
 62
     7
100
AcDbText
 10
626.419856667415
 20
643.1506757026544
 30
0.0
 40
11.692914
  1
Ｉ
 50
348.5563388643
 41
1.2
  7
EXCADSTD
100
AcDbText
  0
TEXT
  5
179
330
1F
100
AcDbEntity
  8
LAY-10
  6
CONTINUOUS
 62
     7
100
AcDbText
 10
638.1854681766469
 20
640.7669630601607
 30
0.0
 40
11.692914
  1
Ｓ
 50
351.0993746723004
 41
1.2
  7
EXCADSTD
100
AcDbText
  0
TEXT
  5
17A
330
1F
100
AcDbEntity
  8
LAY-10
  6
CONTINUOUS
 62
     7
100
AcDbText
 10
650.0452574329504
 20
638.9076355085166
 30
0.0
 40
11.692914
  1
Ｈ
 50
353.6424104802002
 41
1.2
  7
EXCADSTD
100
AcDbText
  0
TEXT
  5
17B
330
1F
100
AcDbEntity
  8
LAY-10
  6
CONTINUOUS
 62
     7
100
AcDbText
 10
661.9758648385092
 20
637.5763552665802
 30
0.0
 40
11.692914
  1
Ｉ
 50
356.1854462881001
 41
1.2
  7
EXCADSTD
100
AcDbText
  0
TEXT
  5
17C
330
1F
100
AcDbEntity
  8
LAY-10
  6
CONTINUOUS
 62
     7
100
AcDbText
 10
673.9537913087615
 20
636.7757444864219
 30
0.0
 40
11.692914
  1
Ｃ
 50
358.7284820961001
 41
1.2
  7
EXCADSTD
100
AcDbText
  0
TEXT
  5
17D
330
1F
100
AcDbEntity
  8
LAY-10
  6
CONTINUOUS
 62
     7
100
AcDbText
 10
685.9554445572985
 20
636.5073800886419
 30
0.0
 40
11.692914
  1
Ａ
 50
1.271517903900009
 41
1.2
  7
EXCADSTD
100
AcDbText
  0
TEXT
  5
17E
330
1F
100
AcDbEntity
  8
LAY-10
  6
CONTINUOUS
 62
     7
100
AcDbText
 10
697.9571855643208
 20
636.7717906563403
 30
0.0
 40
11.692914
  1
Ｓ
 50
3.814553711899988
 41
1.2
  7
EXCADSTD
100
AcDbText
  0
TEXT
  5
17F
330
1F
100
AcDbEntity
  8
LAY-10
  6
CONTINUOUS
 62
     7
100
AcDbText
 10
709.9353751371996
 20
637.5684553940665
 30
0.0
 40
11.692914
  1
Ｔ
 50
6.357589519799987
 41
1.2
  7
EXCADSTD
100
AcDbText
  0
TEXT
  5
180
330
1F
100
AcDbEntity
  8
LAY-10
  6
CONTINUOUS
 62
     7
100
AcDbText
 10
721.8664204712896
 20
638.8958051535302
 30
0.0
 40
11.692914
  1
．
 50
8.900625327800025
 41
1.2
  7
EXCADSTD
100
AcDbText
  0
TEXT
  5
181
330
1F
100
AcDbEntity
  8
LAY-10
  6
CONTINUOUS
 62
     7
100
AcDbText
 10
745.4932177787282
 20
643.1310619833589
 30
0.0
 40
11.692914
  1
Ｏ
 50
13.98669694360002
 41
1.2
  7
EXCADSTD
100
AcDbText
  0
TEXT
  5
182
330
1F
100
AcDbEntity
  8
LAY-10
  6
CONTINUOUS
 62
     7
100
AcDbText
 10
733.726821619475
 20
640.7512255243245
 30
0.0
 40
11.692914
  1
Ｆ
 50
11.44366113570002
 41
1.2
  7
EXCADSTD
100
AcDbText
  0
TEXT
  5
183
330
1F
100
AcDbEntity
  8
LAY-10
  6
CONTINUOUS
 62
     7
100
AcDbText
 10
757.1424333026619
 20
646.0306270929957
 30
0.0
 40
11.692914
  1
Ｕ
 50
16.52973275150002
 41
1.2
  7
EXCADSTD
100
AcDbText
  0
TEXT
  5
184
330
1F
100
AcDbEntity
  8
LAY-10
  6
CONTINUOUS
 62
     7
100
AcDbText
 10
768.6515233493833
 20
649.4442097336479
 30
0.0
 40
11.692914
  1
Ｎ
 50
19.0727685595
 41
1.2
  7
EXCADSTD
100
AcDbText
  0
TEXT
  5
185
330
1F
100
AcDbEntity
  8
LAY-10
  6
CONTINUOUS
 62
     7
100
AcDbText
 10
779.9978190747076
 20
653.365086352653
 30
0.0
 40
11.692914
  1
Ｄ
 50
21.6158043674
 41
1.2
  7
EXCADSTD
100
AcDbText
  0
TEXT
  5
186
330
1F
100
AcDbEntity
  8
LAY-10
  6
CONTINUOUS
 62
     7
100
AcDbText
 10
802.1129994392302
 20
662.6968465759744
 30
0.0
 40
11.692914
  1
Ｙ
 50
26.7018759832
 41
1.2
  7
EXCADSTD
100
AcDbText
  0
TEXT
  5
187
330
1F
100
AcDbEntity
  8
LAY-10
  6
CONTINUOUS
 62
     7
100
AcDbText
 10
791.1589722818125
 20
657.7855342073203
 30
0.0
 40
11.692914
  1
Ｒ
 50
24.1588401753
 41
1.2
  7
EXCADSTD
100
AcDbText
  0
TEXT
  5
188
330
1F
100
AcDbEntity
  8
LAY-10
  6
CONTINUOUS
 62
     7
100
AcDbText
 10
812.8383249807353
 20
668.0893499071736
 30
0.0
 40
11.692914
  1
．
 50
29.24491179109999
 41
1.2
  7
EXCADSTD
100
AcDbText
  0
TEXT
  5
189
330
1F
100
AcDbEntity
  8
LAY-10
  6
CONTINUOUS
 62
     7
100
AcDbText
 10
823.3138238015102
 20
673.9524228731268
 30
0.0
 40
11.692914
  1
Ｃ
 50
31.78794759909998
 41
1.2
  7
EXCADSTD
100
AcDbText
  0
TEXT
  5
18A
330
1F
100
AcDbEntity
  8
LAY-10
  6
CONTINUOUS
 62
     7
100
AcDbText
 10
833.5188628671825
 20
680.274517290022
 30
0.0
 40
11.692914
  1
Ｏ
 50
34.33098340700003
 41
1.2
  7
EXCADSTD
100
AcDbText
  0
TEXT
  5
18B
330
1F
100
AcDbEntity
  8
LAY-10
  6
CONTINUOUS
 62
     7
100
AcDbText
 10
853.0377327374781
 20
694.2450817169643
 30
0.0
 40
11.692914
  1
Ｌ
 50
39.41705502290001
 41
1.2
  7
EXCADSTD
100
AcDbText
  0
TEXT
  5
18C
330
1F
100
AcDbEntity
  8
LAY-10
  6
CONTINUOUS
 62
     7
100
AcDbText
 10
844.2837359691556
 20
687.6810720385515
 30
0.0
 40
11.692914
  1
.,
 50
36.87401921490003
 41
0.626768
  7
EXCADSTD
100
AcDbText
  0
TEXT
  5
18D
330
1F
100
AcDbEntity
  8
LAY-10
  6
CONTINUOUS
 62
     7
100
AcDbText
 10
862.3131182594711
 20
701.8660346473077
 30
0.0
 40
11.692914
  1
Ｔ
 50
41.96009083080001
 41
1.2
  7
EXCADSTD
100
AcDbText
  0
TEXT
  5
18E
330
1F
100
AcDbEntity
  8
LAY-10
  6
CONTINUOUS
 62
     7
100
AcDbText
 10
871.241229184748
 20
709.8910290681251
 30
0.0
 40
11.692914
  1
Ｄ
 50
44.5031266387
 41
1.2
  7
EXCADSTD
100
AcDbText
  0
LINE
  5
18F
330
1F
100
AcDbEntity
  8
LAY-10
  6
CONTINUOUS
 62
     7
100
AcDbLine
 10
581.3481963843908
 20
780.549206511168
 30
0.0
 11
561.5492065111675
 21
800.3481963843911
 31
0.0
  0
LINE
  5
190
330
1F
100
AcDbEntity
  8
LAY-10
  6
CONTINUOUS
 62
     7
100
AcDbLine
 10
561.5492065111675
 20
800.3481963843911
 30
0.0
 11
514.8801589528553
 21
753.679148826079
 31
0.0
  0
LINE
  5
191
330
1F
100
AcDbEntity
  8
LAY-10
  6
CONTINUOUS
 62
     7
100
AcDbLine
 10
577.812662478458
 20
777.0136726052351
 30
0.0
 11
558.0136726052345
 21
796.8126624784584
 31
0.0
  0
LINE
  5
192
330
1F
100
AcDbEntity
  8
LAY-10
  6
CONTINUOUS
 62
     7
100
AcDbLine
 10
581.3481963843908
 20
780.549206511168
 30
0.0
 11
534.6791488260785
 21
733.8801589528556
 31
0.0
  0
LINE
  5
193
330
1F
100
AcDbEntity
  8
LAY-10
  6
CONTINUOUS
 62
     7
100
AcDbLine
 10
561.5492065111671
 20
760.7502166379439
 30
0.0
 11
541.7502166379436
 21
780.5492065111674
 31
0.0
  0
LINE
  5
194
330
1F
100
AcDbEntity
  8
LAY-10
  6
CONTINUOUS
 62
     7
100
AcDbLine
 10
554.4781386993022
 20
753.679148826079
 30
0.0
 11
534.6791488260789
 21
773.4781386993026
 31
0.0
  0
LINE
  5
195
330
1F
100
AcDbEntity
  8
LAY-10
  6
CONTINUOUS
 62
     7
100
AcDbLine
 10
538.2146827320117
 20
737.4156928587886
 30
0.0
 11
518.4156928587885
 21
757.2146827320121
 31
0.0
  0
LINE
  5
196
330
1F
100
AcDbEntity
  8
LAY-10
  6
CONTINUOUS
 62
     7
100
AcDbLine
 10
534.679148826079
 20
733.8801589528558
 30
0.0
 11
514.8801589528555
 21
753.6791488260793
 31
0.0
  0
LINE
  5
197
330
1F
100
AcDbEntity
  8
LAY-10
  6
CONTINUOUS
 62
     7
100
AcDbLine
 10
790.651803615609
 20
780.549206511168
 30
0.0
 11
810.4507934888323
 21
800.3481963843911
 31
0.0
  0
LINE
  5
198
330
1F
100
AcDbEntity
  8
LAY-10
  6
CONTINUOUS
 62
     7
100
AcDbLine
 10
810.4507934888323
 20
800.3481963843911
 30
0.0
 11
857.1198410471445
 21
753.679148826079
 31
0.0
  0
LINE
  5
199
330
1F
100
AcDbEntity
  8
LAY-10
  6
CONTINUOUS
 62
     7
100
AcDbLine
 10
794.1873375215417
 20
777.0136726052351
 30
0.0
 11
813.9863273947653
 21
796.8126624784584
 31
0.0
  0
LINE
  5
19A
330
1F
100
AcDbEntity
  8
LAY-10
  6
CONTINUOUS
 62
     7
100
AcDbLine
 10
790.651803615609
 20
780.549206511168
 30
0.0
 11
837.3208511739213
 21
733.8801589528556
 31
0.0
  0
LINE
  5
19B
330
1F
100
AcDbEntity
  8
LAY-10
  6
CONTINUOUS
 62
     7
100
AcDbLine
 10
810.4507934888327
 20
760.7502166379439
 30
0.0
 11
830.2497833620563
 21
780.5492065111674
 31
0.0
  0
LINE
  5
19C
330
1F
100
AcDbEntity
  8
LAY-10
  6
CONTINUOUS
 62
     7
100
AcDbLine
 10
817.5218613006975
 20
753.679148826079
 30
0.0
 11
837.320851173921
 21
773.4781386993026
 31
0.0
  0
LINE
  5
19D
330
1F
100
AcDbEntity
  8
LAY-10
  6
CONTINUOUS
 62
     7
100
AcDbLine
 10
833.785317267988
 20
737.4156928587886
 30
0.0
 11
853.5843071412114
 21
757.2146827320121
 31
0.0
  0
LINE
  5
19E
330
1F
100
AcDbEntity
  8
LAY-10
  6
CONTINUOUS
 62
     7
100
AcDbLine
 10
837.3208511739208
 20
733.8801589528558
 30
0.0
 11
857.1198410471443
 21
753.6791488260793
 31
0.0
  0
LINE
  5
19F
330
1F
100
AcDbEntity
  8
LAY-10
  6
CONTINUOUS
 62
     7
100
AcDbLine
 10
790.651803615609
 20
1029.450793488832
 30
0.0
 11
810.4507934888323
 21
1009.651803615609
 31
0.0
  0
LINE
  5
1A0
330
1F
100
AcDbEntity
  8
LAY-10
  6
CONTINUOUS
 62
     7
100
AcDbLine
 10
810.4507934888323
 20
1009.651803615609
 30
0.0
 11
857.1198410471445
 21
1056.320851173921
 31
0.0
  0
LINE
  5
1A1
330
1F
100
AcDbEntity
  8
LAY-10
  6
CONTINUOUS
 62
     7
100
AcDbLine
 10
794.1873375215417
 20
1032.986327394765
 30
0.0
 11
813.9863273947653
 21
1013.187337521542
 31
0.0
  0
LINE
  5
1A2
330
1F
100
AcDbEntity
  8
LAY-10
  6
CONTINUOUS
 62
     7
100
AcDbLine
 10
790.651803615609
 20
1029.450793488832
 30
0.0
 11
837.3208511739213
 21
1076.119841047145
 31
0.0
  0
LINE
  5
1A3
330
1F
100
AcDbEntity
  8
LAY-10
  6
CONTINUOUS
 62
     7
100
AcDbLine
 10
810.4507934888327
 20
1049.249783362056
 30
0.0
 11
830.2497833620563
 21
1029.450793488833
 31
0.0
  0
LINE
  5
1A4
330
1F
100
AcDbEntity
  8
LAY-10
  6
CONTINUOUS
 62
     7
100
AcDbLine
 10
817.5218613006975
 20
1056.320851173921
 30
0.0
 11
837.320851173921
 21
1036.521861300698
 31
0.0
  0
LINE
  5
1A5
330
1F
100
AcDbEntity
  8
LAY-10
  6
CONTINUOUS
 62
     7
100
AcDbLine
 10
833.785317267988
 20
1072.584307141211
 30
0.0
 11
853.5843071412114
 21
1052.785317267988
 31
0.0
  0
LINE
  5
1A6
330
1F
100
AcDbEntity
  8
LAY-10
  6
CONTINUOUS
 62
     7
100
AcDbLine
 10
837.3208511739208
 20
1076.119841047144
 30
0.0
 11
857.1198410471443
 21
1056.320851173921
 31
0.0
  0
LINE
  5
1A7
330
1F
100
AcDbEntity
  8
LAY-10
  6
CONTINUOUS
 62
     7
100
AcDbLine
 10
581.3481963843908
 20
1029.450793488832
 30
0.0
 11
561.5492065111675
 21
1009.651803615609
 31
0.0
  0
LINE
  5
1A8
330
1F
100
AcDbEntity
  8
LAY-10
  6
CONTINUOUS
 62
     7
100
AcDbLine
 10
561.5492065111675
 20
1009.651803615609
 30
0.0
 11
514.8801589528553
 21
1056.320851173921
 31
0.0
  0
LINE
  5
1A9
330
1F
100
AcDbEntity
  8
LAY-10
  6
CONTINUOUS
 62
     7
100
AcDbLine
 10
577.812662478458
 20
1032.986327394765
 30
0.0
 11
558.0136726052345
 21
1013.187337521542
 31
0.0
  0
LINE
  5
1AA
330
1F
100
AcDbEntity
  8
LAY-10
  6
CONTINUOUS
 62
     7
100
AcDbLine
 10
581.3481963843908
 20
1029.450793488832
 30
0.0
 11
534.6791488260785
 21
1076.119841047145
 31
0.0
  0
LINE
  5
1AB
330
1F
100
AcDbEntity
  8
LAY-10
  6
CONTINUOUS
 62
     7
100
AcDbLine
 10
561.5492065111671
 20
1049.249783362056
 30
0.0
 11
541.7502166379436
 21
1029.450793488833
 31
0.0
  0
LINE
  5
1AC
330
1F
100
AcDbEntity
  8
LAY-10
  6
CONTINUOUS
 62
     7
100
AcDbLine
 10
554.4781386993022
 20
1056.320851173921
 30
0.0
 11
534.6791488260789
 21
1036.521861300698
 31
0.0
  0
LINE
  5
1AD
330
1F
100
AcDbEntity
  8
LAY-10
  6
CONTINUOUS
 62
     7
100
AcDbLine
 10
538.2146827320117
 20
1072.584307141211
 30
0.0
 11
518.4156928587885
 21
1052.785317267988
 31
0.0
  0
LINE
  5
1AE
330
1F
100
AcDbEntity
  8
LAY-10
  6
CONTINUOUS
 62
     7
100
AcDbLine
 10
534.679148826079
 20
1076.119841047144
 30
0.0
 11
514.8801589528555
 21
1056.320851173921
 31
0.0
  0
TEXT
  5
1AF
330
1F
100
AcDbEntity
  8
LAY-10
  6
CONTINUOUS
 62
     7
100
AcDbText
 10
646.6389923969524
 20
1171.952152008141
 30
0.0
 40
7.795275999999999
  1
Ｏ
 50
7.343698937000021
 41
1.2
  7
EXCADSTD
100
AcDbText
  0
TEXT
  5
1B0
330
1F
100
AcDbEntity
  8
LAY-10
  6
CONTINUOUS
 62
     7
100
AcDbText
 10
656.4391167544952
 20
1173.214269872233
 30
0.0
 40
7.795275999999999
  1
Ｐ
 50
5.245499240200005
 41
1.2
  7
EXCADSTD
100
AcDbText
  0
TEXT
  5
1B1
330
1F
100
AcDbEntity
  8
LAY-10
  6
CONTINUOUS
 62
     7
100
AcDbText
 10
666.2788796151425
 20
1174.116736365649
 30
0.0
 40
7.795275999999999
  1
Ｅ
 50
3.147299543999991
 41
1.2
  7
EXCADSTD
100
AcDbText
  0
TEXT
  5
1B2
330
1F
100
AcDbEntity
  8
LAY-10
  6
CONTINUOUS
 62
     7
100
AcDbText
 10
676.1450867360954
 20
1174.658341361569
 30
0.0
 40
7.795275999999999
  1
Ｎ
 50
1.049099848299998
 41
1.2
  7
EXCADSTD
100
AcDbText
  0
LINE
  5
1B3
330
1F
100
AcDbEntity
  8
LAY-10
  6
CONTINUOUS
 62
     7
100
AcDbLine
 10
706.7325745239999
 20
1174.7794636832
 30
0.0
 11
724.37893277168
 21
1173.480366720801
 31
0.0
  0
LINE
  5
1B4
330
1F
100
AcDbEntity
  8
LAY-10
  6
CONTINUOUS
 62
     7
100
AcDbLine
 10
707.0986356731199
 20
1179.8863704512
 30
0.0
 11
724.7475989437598
 21
1178.587081712001
 31
0.0
  0
LINE
  5
1B5
330
1F
100
AcDbEntity
  8
LAY-10
  6
CONTINUOUS
 62
     7
100
AcDbLine
 10
705.7159718416
 20
1178.704696071201
 30
0.0
 11
707.0986356731199
 21
1179.8863704512
 31
0.0
  0
LINE
  5
1B6
330
1F
100
AcDbEntity
  8
LAY-10
  6
CONTINUOUS
 62
     7
100
AcDbLine
 10
724.7475989437598
 20
1178.587081712001
 30
0.0
 11
722.6680352744
 21
1176.178152072001
 31
0.0
  0
LINE
  5
1B7
330
1F
100
AcDbEntity
  8
LAY-10
  6
CONTINUOUS
 62
     7
100
AcDbLine
 10
724.37893277168
 20
1173.480366720801
 30
0.0
 11
722.6680352744
 21
1176.178152072001
 31
0.0
  0
LINE
  5
1B8
330
1F
100
AcDbEntity
  8
LAY-10
  6
CONTINUOUS
 62
     7
100
AcDbLine
 10
705.5378652027199
 20
1176.1508801944
 30
0.0
 11
706.7325745239999
 21
1174.7794636832
 31
0.0
  0
LINE
  5
1B9
330
1F
100
AcDbEntity
  8
LAY-10
  6
CONTINUOUS
 62
     7
100
AcDbLine
 10
688.87765104752
 20
1178.660842692
 30
0.0
 11
695.5998906592672
 21
1181.477569537526
 31
0.0
  0
LINE
  5
1BA
330
1F
100
AcDbEntity
  8
LAY-10
  6
CONTINUOUS
 62
     7
100
AcDbLine
 10
695.3379879123255
 20
1174.873635433415
 30
0.0
 11
688.87765104752
 21
1178.660842692
 31
0.0
  0
LINE
  5
1BB
330
1F
100
AcDbEntity
  8
LAY-10
  6
CONTINUOUS
 62
     7
100
AcDbLine
 10
695.4181870871704
 20
1176.895874879381
 30
0.0
 11
705.5378652027199
 21
1176.1508801944
 31
0.0
  0
LINE
  5
1BC
330
1F
100
AcDbEntity
  8
LAY-10
  6
CONTINUOUS
 62
     7
100
AcDbLine
 10
705.7159718416
 20
1178.704696071201
 30
0.0
 11
695.5196914844223
 21
1179.455330091467
 31
0.0
  0
LINE
  5
1BD
330
1F
100
AcDbEntity
  8
LAY-10
  6
CONTINUOUS
 62
     7
100
AcDbLine
 10
695.3379879123255
 20
1174.873635433415
 30
0.0
 11
695.4181870871704
 21
1176.895874879381
 31
0.0
  0
LINE
  5
1BE
330
1F
100
AcDbEntity
  8
LAY-10
  6
CONTINUOUS
 62
     7
100
AcDbLine
 10
695.5196914844223
 20
1179.455330091467
 30
0.0
 11
695.5998906592699
 21
1181.4775695375
 31
0.0
  0
LINE
  5
1BF
330
1F
100
AcDbEntity
  8
LAY-10
  6
CONTINUOUS
 62
     7
100
AcDbLine
 10
426.4260941583307
 20
345.6025010295235
 30
0.0
 11
430.6974989704765
 21
349.8739058416693
 31
0.0
  0
LINE
  5
1C0
330
1F
100
AcDbEntity
  8
LAY-10
  6
CONTINUOUS
 62
     7
100
AcDbLine
 10
421.2000000000019
 20
337.5479797464483
 30
0.0
 11
423.6520202535499
 21
339.9999999999963
 31
0.0
  0
LINE
  5
1C1
330
1F
100
AcDbEntity
  8
LAY-10
  6
CONTINUOUS
 62
     7
100
AcDbLine
 10
425.7999999999996
 20
342.147979746446
 30
0.0
 11
434.1492605358528
 21
350.4972402822992
 31
0.0
  0
LINE
  5
1C2
330
1F
100
AcDbEntity
  8
LAY-10
  6
CONTINUOUS
 62
     7
100
AcDbLine
 10
422.4804473783017
 20
336.0000000000021
 30
0.0
 11
430.150000000003
 21
343.6695526217032
 31
0.0
  0
LINE
  5
1C3
330
1F
100
AcDbEntity
  8
LAY-10
  6
CONTINUOUS
 62
     7
100
AcDbLine
 10
425.3088745030466
 20
336.0000000000008
 30
0.0
 11
430.1609946646295
 21
340.8521201615836
 31
0.0
  0
LINE
  5
1C4
330
1F
100
AcDbEntity
  8
LAY-10
  6
CONTINUOUS
 62
     7
100
AcDbLine
 10
425.5500000000013
 20
333.4126983722094
 30
0.0
 11
432.1373016277845
 21
339.9999999999925
 31
0.0
  0
LINE
  5
1C5
330
1F
100
AcDbEntity
  8
LAY-10
  6
CONTINUOUS
 62
     7
100
AcDbLine
 10
425.5500000000027
 20
330.5842712474645
 30
0.0
 11
434.9657287525295
 21
339.9999999999912
 31
0.0
  0
LINE
  5
1C6
330
1F
100
AcDbEntity
  8
LAY-10
  6
CONTINUOUS
 62
     7
100
AcDbLine
 10
425.5499999999976
 20
327.7558441227131
 30
0.0
 11
431.4499999999991
 21
333.6558441227147
 31
0.0
  0
LINE
  5
1C7
330
1F
100
AcDbEntity
  8
LAY-10
  6
CONTINUOUS
 62
     7
100
AcDbLine
 10
433.7941558772814
 20
335.999999999997
 30
0.0
 11
436.1499999999976
 21
338.3558441227132
 31
0.0
  0
LINE
  5
1C8
330
1F
100
AcDbEntity
  8
LAY-10
  6
CONTINUOUS
 62
     7
100
AcDbLine
 10
425.5499999999988
 20
324.9274169979682
 30
0.0
 11
431.4500000000004
 21
330.8274169979697
 31
0.0
  0
LINE
  5
1C9
330
1F
100
AcDbEntity
  8
LAY-10
  6
CONTINUOUS
 62
     7
100
AcDbLine
 10
426.1510101267757
 20
322.6999999999989
 30
0.0
 11
431.4499999999952
 21
327.9989898732184
 31
0.0
  0
LINE
  5
1CA
330
1F
100
AcDbEntity
  8
LAY-10
  6
CONTINUOUS
 62
     7
100
AcDbLine
 10
428.9794372515205
 20
322.6999999999975
 30
0.0
 11
431.4499999999964
 21
325.1705627484735
 31
0.0
  0
LINE
  5
1CB
330
1F
100
AcDbEntity
  8
LAY-10
  6
CONTINUOUS
 62
     7
100
AcDbLine
 10
945.5739058416691
 20
345.6025010295234
 30
0.0
 11
941.3025010295232
 21
349.8739058416693
 31
0.0
  0
LINE
  5
1CC
330
1F
100
AcDbEntity
  8
LAY-10
  6
CONTINUOUS
 62
     7
100
AcDbLine
 10
950.7999999999979
 20
337.5479797464483
 30
0.0
 11
948.3479797464499
 21
339.9999999999962
 31
0.0
  0
LINE
  5
1CD
330
1F
100
AcDbEntity
  8
LAY-10
  6
CONTINUOUS
 62
     7
100
AcDbLine
 10
946.2000000000003
 20
342.147979746446
 30
0.0
 11
937.8507394641471
 21
350.4972402822992
 31
0.0
  0
LINE
  5
1CE
330
1F
100
AcDbEntity
  8
LAY-10
  6
CONTINUOUS
 62
     7
100
AcDbLine
 10
949.519552621698
 20
336.000000000002
 30
0.0
 11
941.8499999999968
 21
343.6695526217032
 31
0.0
  0
LINE
  5
1CF
330
1F
100
AcDbEntity
  8
LAY-10
  6
CONTINUOUS
 62
     7
100
AcDbLine
 10
946.6911254969532
 20
336.0000000000007
 30
0.0
 11
941.8390053353704
 21
340.8521201615835
 31
0.0
  0
LINE
  5
1D0
330
1F
100
AcDbEntity
  8
LAY-10
  6
CONTINUOUS
 62
     7
100
AcDbLine
 10
946.4499999999985
 20
333.4126983722093
 30
0.0
 11
939.8626983722153
 21
339.9999999999924
 31
0.0
  0
LINE
  5
1D1
330
1F
100
AcDbEntity
  8
LAY-10
  6
CONTINUOUS
 62
     7
100
AcDbLine
 10
946.4499999999971
 20
330.5842712474645
 30
0.0
 11
937.0342712474703
 21
339.9999999999911
 31
0.0
  0
LINE
  5
1D2
330
1F
100
AcDbEntity
  8
LAY-10
  6
CONTINUOUS
 62
     7
100
AcDbLine
 10
946.4500000000022
 20
327.755844122713
 30
0.0
 11
940.5500000000006
 21
333.6558441227146
 31
0.0
  0
LINE
  5
1D3
330
1F
100
AcDbEntity
  8
LAY-10
  6
CONTINUOUS
 62
     7
100
AcDbLine
 10
938.2058441227184
 20
335.9999999999969
 30
0.0
 11
935.8500000000022
 21
338.3558441227131
 31
0.0
  0
LINE
  5
1D4
330
1F
100
AcDbEntity
  8
LAY-10
  6
CONTINUOUS
 62
     7
100
AcDbLine
 10
946.450000000001
 20
324.9274169979681
 30
0.0
 11
940.5499999999995
 21
330.8274169979697
 31
0.0
  0
LINE
  5
1D5
330
1F
100
AcDbEntity
  8
LAY-10
  6
CONTINUOUS
 62
     7
100
AcDbLine
 10
945.8489898732241
 20
322.6999999999988
 30
0.0
 11
940.5500000000046
 21
327.9989898732184
 31
0.0
  0
LINE
  5
1D6
330
1F
100
AcDbEntity
  8
LAY-10
  6
CONTINUOUS
 62
     7
100
AcDbLine
 10
943.0205627484793
 20
322.6999999999974
 30
0.0
 11
940.5500000000035
 21
325.1705627484735
 31
0.0
  0
LINE
  5
1D7
330
1F
100
AcDbEntity
  8
LAY-10
  6
CONTINUOUS
 62
     7
100
AcDbLine
 10
940.549999999999
 20
335.9999999999998
 30
0.0
 11
912.0059189348162
 21
335.9999999999998
 31
0.0
  0
LINE
  5
1D8
330
1F
100
AcDbEntity
  8
LAY-10
  6
CONTINUOUS
 62
     7
100
AcDbLine
 10
440.4999999999175
 20
335.9999999999998
 30
0.0
 11
450.5000000000102
 21
335.9999999999998
 31
0.0
  0
LINE
  5
1D9
330
1F
100
AcDbEntity
  8
LAY-10
  6
CONTINUOUS
 62
     7
100
AcDbLine
 10
462.5000000000084
 20
335.9999999999998
 30
0.0
 11
530.5000000000074
 21
335.9999999999998
 31
0.0
  0
LINE
  5
1DA
330
1F
100
AcDbEntity
  8
LAY-10
  6
CONTINUOUS
 62
     7
100
AcDbLine
 10
533.5000000000101
 20
335.9999999999998
 30
0.0
 11
849.9940810651835
 21
335.9999999999998
 31
0.0
  0
LINE
  5
1DB
330
1F
100
AcDbEntity
  8
LAY-10
  6
CONTINUOUS
 62
     7
100
AcDbLine
 10
461.5833333334496
 20
345.4999999999987
 30
0.0
 11
448.9999999999999
 21
345.4999999999986
 31
0.0
  0
LINE
  5
1DC
330
1F
100
AcDbEntity
  8
LAY-10
  6
CONTINUOUS
 62
     7
100
AcDbLine
 10
845.5901839502367
 20
345.4999999999986
 30
0.0
 11
532.4166666666505
 21
345.4999999999987
 31
0.0
  0
LINE
  5
1DD
330
1F
100
AcDbEntity
  8
LAY-10
  6
CONTINUOUS
 62
     7
100
AcDbLine
 10
535.5413812651484
 20
349.0000000000001
 30
0.0
 11
837.99084187345
 21
349.0000000000001
 31
0.0
  0
LINE
  5
1DE
330
1F
100
AcDbEntity
  8
LAY-10
  6
CONTINUOUS
 62
     7
100
AcDbLine
 10
454.5000000000043
 20
349.0000000000001
 30
0.0
 11
458.4586187349516
 21
349.0000000000001
 31
0.0
  0
CIRCLE
  5
1DF
330
1F
100
AcDbEntity
  8
LAY-10
  6
CONTINUOUS
 62
     7
100
AcDbCircle
 10
686.0
 20
1088.991780235699
 30
0.0
 40
16.0
  0
CIRCLE
  5
1E0
330
1F
100
AcDbEntity
  8
LAY-10
  6
CONTINUOUS
 62
     7
100
AcDbCircle
 10
686.0
 20
1088.991780235699
 30
0.0
 40
12.50000000000001
  0
LINE
  5
1E1
330
1F
100
AcDbEntity
  8
LAY-10
  6
CONTINUOUS
 62
     7
100
AcDbLine
 10
676.1562955540635
 20
1081.287788881795
 30
0.0
 11
697.5937044459855
 21
1093.664682676274
 31
0.0
  0
LINE
  5
1E2
330
1F
100
AcDbEntity
  8
LAY-10
  6
CONTINUOUS
 62
     7
100
AcDbLine
 10
674.4062955540503
 20
1084.318877795035
 30
0.0
 11
695.8437044459962
 21
1096.695771589528
 31
0.0
  0
CIRCLE
  5
1E3
330
1F
100
AcDbEntity
  8
LAY-10
  6
CONTINUOUS
 62
     7
100
AcDbCircle
 10
686.0
 20
1088.991780235699
 30
0.0
 40
13.00000000000001
  0
LINE
  5
1E4
330
1F
100
AcDbEntity
  8
LAY-10
  6
CENTER
 62
     2
100
AcDbLine
 10
880.9999999999999
 20
310.7
 30
0.0
 11
880.9999999999999
 21
366.6
 31
0.0
  0
LINE
  5
1E5
330
1F
100
AcDbEntity
  8
LAY-10
  6
CENTER
 62
     2
100
AcDbLine
 10
347.0
 20
905.0000000000001
 30
0.0
 11
1026.0
 21
905.0000000000001
 31
0.0
  0
LINE
  5
1E6
330
1F
100
AcDbEntity
  8
LAY-10
  6
CENTER
 62
     2
100
AcDbLine
 10
418.0
 20
1129.2
 30
0.0
 11
418.0
 21
1098.4
 31
0.0
  0
LINE
  5
1E7
330
1F
100
AcDbEntity
  8
LAY-10
  6
CENTER
 62
     2
100
AcDbLine
 10
404.0000000000001
 20
1113.0
 30
0.0
 11
431.2
 21
1113.0
 31
0.0
  0
LINE
  5
1E8
330
1F
100
AcDbEntity
  8
LAY-10
  6
CENTER
 62
     2
100
AcDbLine
 10
461.8000000000001
 20
637.0
 30
0.0
 11
492.6
 21
637.0
 31
0.0
  0
LINE
  5
1E9
330
1F
100
AcDbEntity
  8
LAY-10
  6
CENTER
 62
     2
100
AcDbLine
 10
478.0000000000005
 20
623.0
 30
0.0
 11
478.0000000000005
 21
650.2
 31
0.0
  0
LINE
  5
1EA
330
1F
100
AcDbEntity
  8
LAY-10
  6
CENTER
 62
     2
100
AcDbLine
 10
954.0000000000001
 20
680.8000000000001
 30
0.0
 11
954.0000000000001
 21
711.6
 31
0.0
  0
LINE
  5
1EB
330
1F
100
AcDbEntity
  8
LAY-10
  6
CENTER
 62
     2
100
AcDbLine
 10
968.0000000000001
 20
697.0000000000002
 30
0.0
 11
940.8000000000001
 21
697.0000000000002
 31
0.0
  0
LINE
  5
1EC
330
1F
100
AcDbEntity
  8
LAY-10
  6
CENTER
 62
     2
100
AcDbLine
 10
910.2
 20
1173.0
 30
0.0
 11
879.4000000000001
 21
1173.0
 31
0.0
  0
LINE
  5
1ED
330
1F
100
AcDbEntity
  8
LAY-10
  6
CENTER
 62
     2
100
AcDbLine
 10
893.9999999999998
 20
1187.0
 30
0.0
 11
893.9999999999998
 21
1159.8
 31
0.0
  0
LINE
  5
1EE
330
1F
100
AcDbEntity
  8
LAY-10
  6
CENTER
 62
     2
100
AcDbLine
 10
527.678791692332
 20
787.5495636449148
 30
0.0
 11
566.9939287263039
 21
748.2344266109427
 31
0.0
  0
LINE
  5
1EF
330
1F
100
AcDbEntity
  8
LAY-10
  6
CENTER
 62
     2
100
AcDbLine
 10
581.2499999999998
 20
800.2500000000003
 30
0.0
 11
516.9499999999998
 21
735.95
 31
0.0
  0
LINE
  5
1F0
330
1F
100
AcDbEntity
  8
LAY-10
  6
CENTER
 62
     2
100
AcDbLine
 10
844.3212083076679
 20
787.5495636449148
 30
0.0
 11
805.0060712736959
 21
748.2344266109427
 31
0.0
  0
LINE
  5
1F1
330
1F
100
AcDbEntity
  8
LAY-10
  6
CENTER
 62
     2
100
AcDbLine
 10
790.7500000000001
 20
800.2500000000003
 30
0.0
 11
855.0500000000001
 21
735.95
 31
0.0
  0
LINE
  5
1F2
330
1F
100
AcDbEntity
  8
LAY-10
  6
CENTER
 62
     2
100
AcDbLine
 10
844.3212083076679
 20
1022.450436355085
 30
0.0
 11
805.0060712736959
 21
1061.765573389057
 31
0.0
  0
LINE
  5
1F3
330
1F
100
AcDbEntity
  8
LAY-10
  6
CENTER
 62
     2
100
AcDbLine
 10
790.7500000000001
 20
1009.75
 30
0.0
 11
855.0500000000001
 21
1074.05
 31
0.0
  0
LINE
  5
1F4
330
1F
100
AcDbEntity
  8
LAY-10
  6
CENTER
 62
     2
100
AcDbLine
 10
527.678791692332
 20
1022.450436355085
 30
0.0
 11
566.9939287263039
 21
1061.765573389057
 31
0.0
  0
LINE
  5
1F5
330
1F
100
AcDbEntity
  8
LAY-10
  6
CENTER
 62
     2
100
AcDbLine
 10
581.2499999999998
 20
1009.75
 30
0.0
 11
516.9499999999998
 21
1074.05
 31
0.0
  0
LINE
  5
1F6
330
1F
100
AcDbEntity
  8
LAY-10
  6
CENTER
 62
     2
100
AcDbLine
 10
685.9999999999999
 20
1251.0
 30
0.0
 11
686.0
 21
594.9999999999999
 31
0.0
  0
LINE
  5
1F7
330
1F
100
AcDbEntity
  8
LAY-10
  6
CENTER
 62
     2
100
AcDbLine
 10
685.9999999999999
 20
373.9999999999999
 30
0.0
 11
685.9999999999999
 21
290.0
 31
0.0
  0
LINE
  5
1F8
330
1F
100
AcDbEntity
  8
LAY-10
  6
CENTER
 62
     2
100
AcDbLine
 10
668.1499999999997
 20
1088.99178023571
 30
0.0
 11
704.5499999999996
 21
1088.99178023571
 31
0.0
  0
LINE
  5
1F9
330
1F
100
AcDbEntity
  8
LAY-10
  6
CONTINUOUS
 62
     7
100
AcDbLine
 10
431.4500000000007
 20
335.9999999999998
 30
0.0
 11
431.4500000000007
 21
322.6999999999999
 31
0.0
  0
LINE
  5
1FA
330
1F
100
AcDbEntity
  8
LAY-10
  6
CONTINUOUS
 62
     7
100
AcDbLine
 10
425.55
 20
335.9999999999998
 30
0.0
 11
425.55
 21
322.6999999999999
 31
0.0
  0
LINE
  5
1FB
330
1F
100
AcDbEntity
  8
LAY-10
  6
CONTINUOUS
 62
     7
100
AcDbLine
 10
425.5500000000002
 20
322.6999999999999
 30
0.0
 11
431.4500000000003
 21
322.6999999999999
 31
0.0
  0
LINE
  5
1FC
330
1F
100
AcDbEntity
  8
LAY-10
  6
CONTINUOUS
 62
     7
100
AcDbLine
 10
421.2000000000005
 20
335.9999999999998
 30
0.0
 11
421.2000000000005
 21
339.9999999999899
 31
0.0
  0
LINE
  5
1FD
330
1F
100
AcDbEntity
  8
LAY-10
  6
CONTINUOUS
 62
     7
100
AcDbLine
 10
436.1499999999999
 20
335.9999999999998
 30
0.0
 11
436.1499999999999
 21
339.9999999999899
 31
0.0
  0
ARC
  5
1FE
330
1F
100
AcDbEntity
  8
LAY-10
  6
CONTINUOUS
 62
     7
100
AcDbCircle
 10
433.8000000000002
 20
342.4999999999999
 30
0.0
 40
8.00000000000006
100
AcDbArc
 50
90.00000000000001
 51
180.0
  0
LINE
  5
1FF
330
1F
100
AcDbEntity
  8
LAY-10
  6
CONTINUOUS
 62
     7
100
AcDbLine
 10
433.8000000000002
 20
350.4999999999999
 30
0.0
 11
434.1500000000001
 21
350.4999999999999
 31
0.0
  0
LINE
  5
200
330
1F
100
AcDbEntity
  8
LAY-10
  6
CONTINUOUS
 62
     7
100
AcDbLine
 10
436.1500000000001
 20
335.9999999999998
 30
0.0
 11
431.4500000000007
 21
335.9999999999998
 31
0.0
  0
LINE
  5
201
330
1F
100
AcDbEntity
  8
LAY-10
  6
CONTINUOUS
 62
     7
100
AcDbLine
 10
425.55
 20
335.9999999999998
 30
0.0
 11
421.2000000000003
 21
335.9999999999998
 31
0.0
  0
LINE
  5
202
330
1F
100
AcDbEntity
  8
LAY-10
  6
CONTINUOUS
 62
     7
100
AcDbLine
 10
421.2000000000003
 20
339.9999999999936
 30
0.0
 11
425.8
 21
339.9999999999936
 31
0.0
  0
LINE
  5
203
330
1F
100
AcDbEntity
  8
LAY-10
  6
CONTINUOUS
 62
     7
100
AcDbLine
 10
425.8
 20
339.9999999999899
 30
0.0
 11
425.8
 21
342.4999999999999
 31
0.0
  0
ARC
  5
204
330
1F
100
AcDbEntity
  8
LAY-10
  6
CONTINUOUS
 62
     7
100
AcDbCircle
 10
435.1500000000001
 20
343.7417423197899
 30
0.0
 40
5.0
100
AcDbArc
 50
107.8893466609189
 51
180.0
  0
LINE
  5
205
330
1F
100
AcDbEntity
  8
LAY-10
  6
CONTINUOUS
 62
     7
100
AcDbLine
 10
431.1500000000004
 20
339.9999999999936
 30
0.0
 11
436.1500000000001
 21
339.9999999999936
 31
0.0
  0
LINE
  5
206
330
1F
100
AcDbEntity
  8
LAY-10
  6
CONTINUOUS
 62
     7
100
AcDbLine
 10
430.1500000000003
 20
340.9999999999937
 30
0.0
 11
430.1500000000003
 21
343.7417423197899
 31
0.0
  0
ARC
  5
207
330
1F
100
AcDbEntity
  8
LAY-10
  6
CONTINUOUS
 62
     7
100
AcDbCircle
 10
431.1500000000004
 20
340.9999999999937
 30
0.0
 40
1.0
100
AcDbArc
 50
180.0
 51
270.0000000000002
  0
LINE
  5
208
330
1F
100
AcDbEntity
  8
LAY-10
  6
CONTINUOUS
 62
     7
100
AcDbLine
 10
434.1499999999813
 20
350.5000000000049
 30
0.0
 11
433.6141016151169
 21
348.4999999999963
 31
0.0
  0
LINE
  5
209
330
1F
100
AcDbEntity
  8
LAY-10
  6
CONTINUOUS
 62
     7
100
AcDbLine
 10
435.0
 20
335.9999999999998
 30
0.0
 11
436.1499999999999
 21
335.9999999999998
 31
0.0
  0
LINE
  5
20A
330
1F
100
AcDbEntity
  8
LAY-10
  6
CONTINUOUS
 62
     7
100
AcDbLine
 10
953.0000000000008
 20
347.499999999999
 30
0.0
 11
953.0000000000008
 21
346.6999999999999
 31
0.0
  0
LINE
  5
20B
330
1F
100
AcDbEntity
  8
LAY-10
  6
CONTINUOUS
 62
     7
100
AcDbLine
 10
940.549999999999
 20
335.9999999999998
 30
0.0
 11
940.549999999999
 21
322.6999999999998
 31
0.0
  0
LINE
  5
20C
330
1F
100
AcDbEntity
  8
LAY-10
  6
CONTINUOUS
 62
     7
100
AcDbLine
 10
946.4499999999998
 20
335.9999999999998
 30
0.0
 11
946.4499999999998
 21
322.6999999999999
 31
0.0
  0
LINE
  5
20D
330
1F
100
AcDbEntity
  8
LAY-10
  6
CONTINUOUS
 62
     7
100
AcDbLine
 10
946.4499999999996
 20
322.6999999999999
 30
0.0
 11
940.5499999999995
 21
322.6999999999999
 31
0.0
  0
LINE
  5
20E
330
1F
100
AcDbEntity
  8
LAY-10
  6
CONTINUOUS
 62
     7
100
AcDbLine
 10
950.7999999999993
 20
335.9999999999998
 30
0.0
 11
950.7999999999993
 21
339.9999999999899
 31
0.0
  0
LINE
  5
20F
330
1F
100
AcDbEntity
  8
LAY-10
  6
CONTINUOUS
 62
     7
100
AcDbLine
 10
935.8499999999999
 20
335.9999999999998
 30
0.0
 11
935.8499999999999
 21
339.9999999999899
 31
0.0
  0
ARC
  5
210
330
1F
100
AcDbEntity
  8
LAY-10
  6
CONTINUOUS
 62
     7
100
AcDbCircle
 10
938.1999999999996
 20
342.4999999999999
 30
0.0
 40
8.00000000000006
100
AcDbArc
 50
0.0
 51
90.00000000000001
  0
LINE
  5
211
330
1F
100
AcDbEntity
  8
LAY-10
  6
CONTINUOUS
 62
     7
100
AcDbLine
 10
938.1999999999996
 20
350.4999999999998
 30
0.0
 11
937.8499999999997
 21
350.4999999999998
 31
0.0
  0
LINE
  5
212
330
1F
100
AcDbEntity
  8
LAY-10
  6
CONTINUOUS
 62
     7
100
AcDbLine
 10
950.7999999999995
 20
339.9999999999936
 30
0.0
 11
946.1999999999998
 21
339.9999999999936
 31
0.0
  0
LINE
  5
213
330
1F
100
AcDbEntity
  8
LAY-10
  6
CONTINUOUS
 62
     7
100
AcDbLine
 10
946.1999999999998
 20
339.9999999999899
 30
0.0
 11
946.1999999999998
 21
342.4999999999999
 31
0.0
  0
ARC
  5
214
330
1F
100
AcDbEntity
  8
LAY-10
  6
CONTINUOUS
 62
     7
100
AcDbCircle
 10
936.8499999999997
 20
343.7417423197898
 30
0.0
 40
5.0
100
AcDbArc
 50
0.0
 51
72.1106533390812
  0
LINE
  5
215
330
1F
100
AcDbEntity
  8
LAY-10
  6
CONTINUOUS
 62
     7
100
AcDbLine
 10
940.8499999999995
 20
339.9999999999936
 30
0.0
 11
935.8499999999998
 21
339.9999999999936
 31
0.0
  0
LINE
  5
216
330
1F
100
AcDbEntity
  8
LAY-10
  6
CONTINUOUS
 62
     7
100
AcDbLine
 10
941.8499999999995
 20
340.9999999999936
 30
0.0
 11
941.8499999999995
 21
343.7417423197898
 31
0.0
  0
ARC
  5
217
330
1F
100
AcDbEntity
  8
LAY-10
  6
CONTINUOUS
 62
     7
100
AcDbCircle
 10
940.8499999999995
 20
340.9999999999936
 30
0.0
 40
1.0
100
AcDbArc
 50
270.0000000000002
 51
0.0
  0
LINE
  5
218
330
1F
100
AcDbEntity
  8
LAY-10
  6
CONTINUOUS
 62
     7
100
AcDbLine
 10
937.8500000000184
 20
350.5000000000048
 30
0.0
 11
938.385898384883
 21
348.4999999999962
 31
0.0
  0
LINE
  5
219
330
1F
100
AcDbEntity
  8
LAY-10
  6
CONTINUOUS
 62
     7
100
AcDbLine
 10
950.8
 20
336.0
 30
0.0
 11
950.5000000000001
 21
336.0
 31
0.0
  0
LINE
  5
21A
330
1F
100
AcDbEntity
  8
LAY-10
  6
CONTINUOUS
 62
     7
100
AcDbLine
 10
950.499999999998
 20
335.9999999999998
 30
0.0
 11
946.4499999999998
 21
335.9999999999998
 31
0.0
  0
LINE
  5
21B
330
1F
100
AcDbEntity
  8
LAY-10
  6
CONTINUOUS
 62
     7
100
AcDbLine
 10
548.6586392762372
 20
681.8468745471496
 30
0.0
 11
555.2666548928325
 21
669.5513784111657
 31
0.0
  0
LINE
  5
21C
330
1F
100
AcDbEntity
  8
LAY-10
  6
CONTINUOUS
 62
     7
100
AcDbLine
 10
548.6586392762282
 20
681.8468745471333
 30
0.0
 11
562.5948112431902
 21
682.6394693530845
 31
0.0
  0
LINE
  5
21D
330
1F
100
AcDbEntity
  8
LAY-10
  6
CONTINUOUS
 62
     7
100
AcDbLine
 10
569.2028268597857
 20
670.3439732171008
 30
0.0
 11
562.5948112431902
 21
682.6394693530845
 31
0.0
  0
LINE
  5
21E
330
1F
100
AcDbEntity
  8
LAY-10
  6
CONTINUOUS
 62
     7
100
AcDbLine
 10
569.2028268597946
 20
670.3439732171169
 30
0.0
 11
555.2666548928325
 21
669.5513784111657
 31
0.0
  0
LINE
  5
21F
330
1F
100
AcDbEntity
  8
LAY-10
  6
CONTINUOUS
 62
     7
100
AcDbLine
 10
504.7882758608191
 20
873.4400794764282
 30
0.0
 11
518.9304114845487
 21
887.5822151001576
 31
0.0
  0
LINE
  5
220
330
1F
100
AcDbEntity
  8
LAY-10
  6
CONTINUOUS
 62
     7
100
AcDbLine
 10
544.3862556072669
 20
873.4400794764276
 30
0.0
 11
578.3273811042217
 21
907.3812049733824
 31
0.0
  0
LINE
  5
221
330
1F
100
AcDbEntity
  8
LAY-10
  6
CONTINUOUS
 62
     7
100
AcDbLine
 10
553.5786437626917
 20
872.73297269524
 30
0.0
 11
583.2771285725279
 21
902.4314575050762
 31
0.0
  0
LINE
  5
222
330
1F
100
AcDbEntity
  8
LAY-10
  6
CONTINUOUS
 62
     7
100
AcDbLine
 10
587.5197692596456
 20
898.1888168179581
 30
0.0
 11
557.8212844498095
 21
868.490332008122
 31
0.0
  0
LINE
  5
223
330
1F
100
AcDbEntity
  8
LAY-10
  6
CONTINUOUS
 62
     7
100
AcDbLine
 10
583.2771285725279
 20
902.4314575050762
 30
0.0
 11
578.3273811042217
 21
907.3812049733824
 31
0.0
  0
LINE
  5
224
330
1F
100
AcDbEntity
  8
LAY-10
  6
CONTINUOUS
 62
     7
100
AcDbLine
 10
592.469516727951
 20
893.239069349653
 30
0.0
 11
587.5197692596456
 21
898.1888168179581
 31
0.0
  0
LINE
  5
225
330
1F
100
AcDbEntity
  8
LAY-10
  6
CONTINUOUS
 62
     7
100
AcDbLine
 10
518.9304114845487
 20
927.1801948466044
 30
0.0
 11
552.8715369815035
 21
893.2390693496496
 31
0.0
  0
LINE
  5
226
330
1F
100
AcDbEntity
  8
LAY-10
  6
CONTINUOUS
 62
     7
100
AcDbLine
 10
504.7882758608191
 20
913.0380592228751
 30
0.0
 11
538.7294013577739
 21
879.0969337259203
 31
0.0
  0
LINE
  5
227
330
1F
100
AcDbEntity
  8
LAY-10
  6
CONTINUOUS
 62
     7
100
AcDbLine
 10
504.7882758608191
 20
913.0380592228751
 30
0.0
 11
518.9304114845487
 21
927.1801948466044
 31
0.0
  0
LINE
  5
228
330
1F
100
AcDbEntity
  8
LAY-10
  6
CONTINUOUS
 62
     7
100
AcDbLine
 10
513.9806640162485
 20
913.7451660040564
 30
0.0
 11
518.2233047033664
 21
917.9878066911745
 31
0.0
  0
LINE
  5
229
330
1F
100
AcDbEntity
  8
LAY-10
  6
CONTINUOUS
 62
     7
100
AcDbLine
 10
518.2233047033611
 20
917.9878066911796
 30
0.0
 11
547.9217895131973
 21
888.2893218813434
 31
0.0
  0
LINE
  5
22A
330
1F
100
AcDbEntity
  8
LAY-10
  6
CONTINUOUS
 62
     7
100
AcDbLine
 10
543.6791488260794
 20
884.0466811942259
 30
0.0
 11
513.9806640162433
 21
913.7451660040621
 31
0.0
  0
LINE
  5
22B
330
1F
100
AcDbEntity
  8
LAY-10
  6
CONTINUOUS
 62
     7
100
AcDbLine
 10
547.9217895131973
 20
888.2893218813434
 30
0.0
 11
552.8715369815035
 21
893.2390693496496
 31
0.0
  0
LINE
  5
22C
330
1F
100
AcDbEntity
  8
LAY-10
  6
CONTINUOUS
 62
     7
100
AcDbLine
 10
544.3862556072669
 20
913.0380592228745
 30
0.0
 11
578.3273811042217
 21
946.9791847198293
 31
0.0
  0
LINE
  5
22D
330
1F
100
AcDbEntity
  8
LAY-10
  6
CONTINUOUS
 62
     7
100
AcDbLine
 10
558.5283912309962
 20
898.8959235991451
 30
0.0
 11
592.469516727951
 21
932.8370490960999
 31
0.0
  0
LINE
  5
22E
330
1F
100
AcDbEntity
  8
LAY-10
  6
CONTINUOUS
 62
     7
100
AcDbLine
 10
558.5283912309962
 20
898.8959235991451
 30
0.0
 11
544.3862556072669
 21
913.0380592228745
 31
0.0
  0
LINE
  5
22F
330
1F
100
AcDbEntity
  8
LAY-10
  6
CONTINUOUS
 62
     7
100
AcDbLine
 10
557.8212844498148
 20
908.088311754574
 30
0.0
 11
553.578643762697
 21
912.330952441692
 31
0.0
  0
LINE
  5
230
330
1F
100
AcDbEntity
  8
LAY-10
  6
CONTINUOUS
 62
     7
100
AcDbLine
 10
553.5786437626917
 20
912.3309524416869
 30
0.0
 11
583.2771285725279
 21
942.0294372515231
 31
0.0
  0
LINE
  5
231
330
1F
100
AcDbEntity
  8
LAY-10
  6
CONTINUOUS
 62
     7
100
AcDbLine
 10
587.5197692596456
 20
937.786796564405
 30
0.0
 11
557.8212844498095
 21
908.0883117545688
 31
0.0
  0
LINE
  5
232
330
1F
100
AcDbEntity
  8
LAY-10
  6
CONTINUOUS
 62
     7
100
AcDbLine
 10
583.2771285725279
 20
942.0294372515231
 30
0.0
 11
578.3273811042217
 21
946.9791847198293
 31
0.0
  0
LINE
  5
233
330
1F
100
AcDbEntity
  8
LAY-10
  6
CONTINUOUS
 62
     7
100
AcDbLine
 10
592.469516727951
 20
932.8370490960999
 30
0.0
 11
587.5197692596456
 21
937.786796564405
 31
0.0
  0
LINE
  5
234
330
1F
100
AcDbEntity
  8
LAY-10
  6
CONTINUOUS
 62
     7
100
AcDbLine
 10
518.9304114845487
 20
966.7781745930513
 30
0.0
 11
552.8715369815035
 21
932.8370490960965
 31
0.0
  0
LINE
  5
235
330
1F
100
AcDbEntity
  8
LAY-10
  6
CONTINUOUS
 62
     7
100
AcDbLine
 10
504.7882758608191
 20
952.6360389693219
 30
0.0
 11
538.7294013577739
 21
918.6949134723671
 31
0.0
  0
LINE
  5
236
330
1F
100
AcDbEntity
  8
LAY-10
  6
CONTINUOUS
 62
     7
100
AcDbLine
 10
518.2233047033611
 20
957.5857864376264
 30
0.0
 11
547.9217895131973
 21
927.8873016277903
 31
0.0
  0
LINE
  5
237
330
1F
100
AcDbEntity
  8
LAY-10
  6
CONTINUOUS
 62
     7
100
AcDbLine
 10
543.6791488260794
 20
923.6446609406728
 30
0.0
 11
513.9806640162433
 21
953.3431457505089
 31
0.0
  0
LINE
  5
238
330
1F
100
AcDbEntity
  8
LAY-10
  6
CONTINUOUS
 62
     7
100
AcDbLine
 10
547.9217895131973
 20
927.8873016277903
 30
0.0
 11
552.8715369815035
 21
932.8370490960965
 31
0.0
  0
LINE
  5
239
330
1F
100
AcDbEntity
  8
LAY-10
  6
CONTINUOUS
 62
     7
100
AcDbLine
 10
538.7294013577739
 20
918.6949134723671
 30
0.0
 11
543.6791488260794
 21
923.6446609406728
 31
0.0
  0
LINE
  5
23A
330
1F
100
AcDbEntity
  8
LAY-10
  6
CONTINUOUS
 62
     7
100
AcDbLine
 10
544.3862556072668
 20
952.6360389693214
 30
0.0
 11
578.3273811042216
 21
986.5771644662756
 31
0.0
  0
LINE
  5
23B
330
1F
100
AcDbEntity
  8
LAY-10
  6
CONTINUOUS
 62
     7
100
AcDbLine
 10
558.5283912309961
 20
938.493903345592
 30
0.0
 11
592.4695167279509
 21
972.4350288425468
 31
0.0
  0
LINE
  5
23C
330
1F
100
AcDbEntity
  8
LAY-10
  6
CONTINUOUS
 62
     7
100
AcDbLine
 10
558.5283912309961
 20
938.493903345592
 30
0.0
 11
544.3862556072668
 21
952.6360389693214
 31
0.0
  0
LINE
  5
23D
330
1F
100
AcDbEntity
  8
LAY-10
  6
CONTINUOUS
 62
     7
100
AcDbLine
 10
553.5786437626916
 20
951.9289321881338
 30
0.0
 11
583.2771285725278
 21
981.6274169979699
 31
0.0
  0
LINE
  5
23E
330
1F
100
AcDbEntity
  8
LAY-10
  6
CONTINUOUS
 62
     7
100
AcDbLine
 10
587.5197692596455
 20
977.3847763108519
 30
0.0
 11
557.8212844498094
 21
947.6862915010157
 31
0.0
  0
LINE
  5
23F
330
1F
100
AcDbEntity
  8
LAY-10
  6
CONTINUOUS
 62
     7
100
AcDbLine
 10
583.2771285725278
 20
981.6274169979699
 30
0.0
 11
578.3273811042216
 21
986.5771644662756
 31
0.0
  0
LINE
  5
240
330
1F
100
AcDbEntity
  8
LAY-10
  6
CONTINUOUS
 62
     7
100
AcDbLine
 10
592.4695167279509
 20
972.4350288425468
 30
0.0
 11
587.5197692596455
 21
977.3847763108519
 31
0.0
  0
LINE
  5
241
330
1F
100
AcDbEntity
  8
LAY-10
  6
CONTINUOUS
 62
     7
100
AcDbLine
 10
499.1314216113265
 20
907.3812049733818
 30
0.0
 11
513.2735572350559
 21
893.2390693496525
 31
0.0
  0
LINE
  5
242
330
1F
100
AcDbEntity
  8
LAY-10
  6
CONTINUOUS
 62
     7
100
AcDbLine
 10
499.838528392508
 20
898.1888168179524
 30
0.0
 11
504.0811690796259
 21
893.9461761308344
 31
0.0
  0
LINE
  5
243
330
1F
100
AcDbEntity
  8
LAY-10
  6
CONTINUOUS
 62
     7
100
AcDbLine
 10
504.0811690796312
 20
893.9461761308401
 30
0.0
 11
474.382684269795
 21
864.2476913210039
 31
0.0
  0
LINE
  5
244
330
1F
100
AcDbEntity
  8
LAY-10
  6
CONTINUOUS
 62
     7
100
AcDbLine
 10
470.1400435826771
 20
868.4903320081214
 30
0.0
 11
499.8385283925132
 21
898.1888168179576
 31
0.0
  0
LINE
  5
245
330
1F
100
AcDbEntity
  8
LAY-10
  6
CONTINUOUS
 62
     7
100
AcDbLine
 10
513.2735572350562
 20
932.8370490960988
 30
0.0
 11
479.3324317381014
 21
898.895923599144
 31
0.0
  0
LINE
  5
246
330
1F
100
AcDbEntity
  8
LAY-10
  6
CONTINUOUS
 62
     7
100
AcDbLine
 10
499.1314216113268
 20
946.9791847198281
 30
0.0
 11
513.2735572350562
 21
932.8370490960988
 31
0.0
  0
LINE
  5
247
330
1F
100
AcDbEntity
  8
LAY-10
  6
CONTINUOUS
 62
     7
100
AcDbLine
 10
499.8385283925084
 20
937.7867965643987
 30
0.0
 11
504.0811690796262
 21
933.5441558772807
 31
0.0
  0
LINE
  5
248
330
1F
100
AcDbEntity
  8
LAY-10
  6
CONTINUOUS
 62
     7
100
AcDbLine
 10
504.0811690796315
 20
933.5441558772864
 30
0.0
 11
474.3826842697954
 21
903.8456710674502
 31
0.0
  0
LINE
  5
249
330
1F
100
AcDbEntity
  8
LAY-10
  6
CONTINUOUS
 62
     7
100
AcDbLine
 10
470.1400435826774
 20
908.0883117545677
 30
0.0
 11
499.8385283925136
 21
937.7867965644039
 31
0.0
  0
LINE
  5
24A
330
1F
100
AcDbEntity
  8
LAY-10
  6
CONTINUOUS
 62
     7
100
AcDbLine
 10
474.3826842697954
 20
903.8456710674502
 30
0.0
 11
479.3324317381014
 21
898.895923599144
 31
0.0
  0
LINE
  5
24B
330
1F
100
AcDbEntity
  8
LAY-10
  6
CONTINUOUS
 62
     7
100
AcDbLine
 10
513.273557235056
 20
972.4350288425451
 30
0.0
 11
479.3324317381013
 21
938.4939033455903
 31
0.0
  0
LINE
  5
24C
330
1F
100
AcDbEntity
  8
LAY-10
  6
CONTINUOUS
 62
     7
100
AcDbLine
 10
499.1314216113267
 20
986.5771644662744
 30
0.0
 11
513.273557235056
 21
972.4350288425451
 31
0.0
  0
LINE
  5
24D
330
1F
100
AcDbEntity
  8
LAY-10
  6
CONTINUOUS
 62
     7
100
AcDbLine
 10
474.3826842697952
 20
943.4436508138965
 30
0.0
 11
479.3324317381013
 21
938.4939033455903
 31
0.0
  0
LINE
  5
24E
330
1F
100
AcDbEntity
  8
LAY-10
  6
CONTINUOUS
 62
     7
100
AcDbLine
 10
598.126370977435
 20
887.582215100153
 30
0.0
 11
593.1766235091295
 21
882.6324676318474
 31
0.0
  0
LINE
  5
24F
330
1F
100
AcDbEntity
  8
LAY-10
  6
CONTINUOUS
 62
     7
100
AcDbLine
 10
617.9253608506601
 20
879.0969337259152
 30
0.0
 11
583.9842353537053
 21
913.03805922287
 31
0.0
  0
LINE
  5
250
330
1F
100
AcDbEntity
  8
LAY-10
  6
CONTINUOUS
 62
     7
100
AcDbLine
 10
632.0674964743896
 20
893.2390693496445
 30
0.0
 11
598.1263709774348
 21
927.1801948465993
 31
0.0
  0
LINE
  5
251
330
1F
100
AcDbEntity
  8
LAY-10
  6
CONTINUOUS
 62
     7
100
AcDbLine
 10
632.0674964743896
 20
893.2390693496445
 30
0.0
 11
617.9253608506601
 21
879.0969337259152
 31
0.0
  0
LINE
  5
252
330
1F
100
AcDbEntity
  8
LAY-10
  6
CONTINUOUS
 62
     7
100
AcDbLine
 10
622.8751083189602
 20
892.5319625684632
 30
0.0
 11
618.6324676318425
 21
888.2893218813451
 31
0.0
  0
LINE
  5
253
330
1F
100
AcDbEntity
  8
LAY-10
  6
CONTINUOUS
 62
     7
100
AcDbLine
 10
618.6324676318477
 20
888.28932188134
 30
0.0
 11
588.9339828220116
 21
917.9878066911762
 31
0.0
  0
LINE
  5
254
330
1F
100
AcDbEntity
  8
LAY-10
  6
CONTINUOUS
 62
     7
100
AcDbLine
 10
593.1766235091294
 20
922.2304473782942
 30
0.0
 11
622.8751083189655
 21
892.5319625684581
 31
0.0
  0
LINE
  5
255
330
1F
100
AcDbEntity
  8
LAY-10
  6
CONTINUOUS
 62
     7
100
AcDbLine
 10
588.9339828220116
 20
917.9878066911762
 30
0.0
 11
583.9842353537053
 21
913.03805922287
 31
0.0
  0
LINE
  5
256
330
1F
100
AcDbEntity
  8
LAY-10
  6
CONTINUOUS
 62
     7
100
AcDbLine
 10
598.1263709774348
 20
927.1801948465993
 30
0.0
 11
593.1766235091294
 21
922.2304473782942
 31
0.0
  0
LINE
  5
257
330
1F
100
AcDbEntity
  8
LAY-10
  6
CONTINUOUS
 62
     7
100
AcDbLine
 10
617.92536085066
 20
918.694913472362
 30
0.0
 11
583.9842353537053
 21
952.6360389693168
 31
0.0
  0
LINE
  5
258
330
1F
100
AcDbEntity
  8
LAY-10
  6
CONTINUOUS
 62
     7
100
AcDbLine
 10
632.0674964743895
 20
932.8370490960914
 30
0.0
 11
598.1263709774347
 21
966.7781745930462
 31
0.0
  0
LINE
  5
259
330
1F
100
AcDbEntity
  8
LAY-10
  6
CONTINUOUS
 62
     7
100
AcDbLine
 10
632.0674964743895
 20
932.8370490960914
 30
0.0
 11
617.92536085066
 21
918.694913472362
 31
0.0
  0
LINE
  5
25A
330
1F
100
AcDbEntity
  8
LAY-10
  6
CONTINUOUS
 62
     7
100
AcDbLine
 10
622.8751083189601
 20
932.1299423149101
 30
0.0
 11
618.6324676318424
 21
927.887301627792
 31
0.0
  0
LINE
  5
25B
330
1F
100
AcDbEntity
  8
LAY-10
  6
CONTINUOUS
 62
     7
100
AcDbLine
 10
618.6324676318476
 20
927.8873016277869
 30
0.0
 11
588.9339828220114
 21
957.585786437623
 31
0.0
  0
LINE
  5
25C
330
1F
100
AcDbEntity
  8
LAY-10
  6
CONTINUOUS
 62
     7
100
AcDbLine
 10
593.1766235091294
 20
961.8284271247405
 30
0.0
 11
622.8751083189653
 21
932.1299423149044
 31
0.0
  0
LINE
  5
25D
330
1F
100
AcDbEntity
  8
LAY-10
  6
CONTINUOUS
 62
     7
100
AcDbLine
 10
588.9339828220114
 20
957.585786437623
 30
0.0
 11
583.9842353537053
 21
952.6360389693168
 31
0.0
  0
LINE
  5
25E
330
1F
100
AcDbEntity
  8
LAY-10
  6
CONTINUOUS
 62
     7
100
AcDbLine
 10
598.1263709774347
 20
966.7781745930462
 30
0.0
 11
593.1766235091294
 21
961.8284271247405
 31
0.0
  0
LINE
  5
25F
330
1F
100
AcDbEntity
  8
LAY-10
  6
CONTINUOUS
 62
     7
100
AcDbLine
 10
499.1314216113267
 20
986.5771644662744
 30
0.0
 11
465.1902961143719
 21
952.6360389693197
 31
0.0
  0
LINE
  5
260
330
1F
100
AcDbEntity
  8
LAY-10
  6
CONTINUOUS
 62
     7
100
AcDbLine
 10
465.1902961143719
 20
952.6360389693197
 30
0.0
 11
470.1400435826773
 21
947.6862915010146
 31
0.0
  0
LINE
  5
261
330
1F
100
AcDbEntity
  8
LAY-10
  6
CONTINUOUS
 62
     7
100
AcDbLine
 10
499.8385283925084
 20
977.3847763108456
 30
0.0
 11
504.0811690796261
 21
973.1421356237275
 31
0.0
  0
LINE
  5
262
330
1F
100
AcDbEntity
  8
LAY-10
  6
CONTINUOUS
 62
     7
100
AcDbLine
 10
504.0811690796313
 20
973.1421356237327
 30
0.0
 11
474.3826842697952
 21
943.4436508138965
 31
0.0
  0
LINE
  5
263
330
1F
100
AcDbEntity
  8
LAY-10
  6
CONTINUOUS
 62
     7
100
AcDbLine
 10
470.1400435826773
 20
947.6862915010146
 30
0.0
 11
499.8385283925134
 21
977.3847763108507
 31
0.0
  0
LINE
  5
264
330
1F
100
AcDbEntity
  8
LAY-10
  6
CONTINUOUS
 62
     7
100
AcDbLine
 10
518.9304114845486
 20
1006.376154339498
 30
0.0
 11
552.8715369815033
 21
972.4350288425434
 31
0.0
  0
LINE
  5
265
330
1F
100
AcDbEntity
  8
LAY-10
  6
CONTINUOUS
 62
     7
100
AcDbLine
 10
504.7882758608191
 20
992.2340187157688
 30
0.0
 11
518.9304114845486
 21
1006.376154339498
 31
0.0
  0
LINE
  5
266
330
1F
100
AcDbEntity
  8
LAY-10
  6
CONTINUOUS
 62
     7
100
AcDbLine
 10
504.7882758608191
 20
952.6360389693219
 30
0.0
 11
518.9304114845487
 21
966.7781745930513
 31
0.0
  0
LINE
  5
267
330
1F
100
AcDbEntity
  8
LAY-10
  6
CONTINUOUS
 62
     7
100
AcDbLine
 10
513.9806640162485
 20
953.3431457505033
 30
0.0
 11
518.2233047033664
 21
957.5857864376213
 31
0.0
  0
LINE
  5
268
330
1F
100
AcDbEntity
  8
LAY-10
  6
CONTINUOUS
 62
     7
100
AcDbLine
 10
557.8212844498146
 20
947.6862915010208
 30
0.0
 11
553.5786437626969
 21
951.9289321881389
 31
0.0
  0
LINE
  5
269
330
1F
100
AcDbEntity
  8
LAY-10
  6
CONTINUOUS
 62
     7
100
AcDbLine
 10
504.7882758608191
 20
992.2340187157688
 30
0.0
 11
538.7294013577738
 21
958.292893218814
 31
0.0
  0
LINE
  5
26A
330
1F
100
AcDbEntity
  8
LAY-10
  6
CONTINUOUS
 62
     7
100
AcDbLine
 10
513.9806640162485
 20
992.9411254969501
 30
0.0
 11
518.2233047033662
 21
997.1837661840682
 31
0.0
  0
LINE
  5
26B
330
1F
100
AcDbEntity
  8
LAY-10
  6
CONTINUOUS
 62
     7
100
AcDbLine
 10
518.2233047033611
 20
997.1837661840733
 30
0.0
 11
547.921789513197
 21
967.4852813742372
 31
0.0
  0
LINE
  5
26C
330
1F
100
AcDbEntity
  8
LAY-10
  6
CONTINUOUS
 62
     7
100
AcDbLine
 10
543.6791488260793
 20
963.2426406871191
 30
0.0
 11
513.9806640162432
 21
992.9411254969552
 31
0.0
  0
LINE
  5
26D
330
1F
100
AcDbEntity
  8
LAY-10
  6
CONTINUOUS
 62
     7
100
AcDbLine
 10
547.921789513197
 20
967.4852813742372
 30
0.0
 11
552.8715369815033
 21
972.4350288425434
 31
0.0
  0
LINE
  5
26E
330
1F
100
AcDbEntity
  8
LAY-10
  6
CONTINUOUS
 62
     7
100
AcDbLine
 10
538.7294013577738
 20
958.292893218814
 30
0.0
 11
543.6791488260793
 21
963.2426406871191
 31
0.0
  0
LINE
  5
26F
330
1F
100
AcDbEntity
  8
LAY-10
  6
CONTINUOUS
 62
     7
100
AcDbLine
 10
504.7882758608191
 20
873.4400794764282
 30
0.0
 11
538.7294013577739
 21
839.4989539794734
 31
0.0
  0
LINE
  5
270
330
1F
100
AcDbEntity
  8
LAY-10
  6
CONTINUOUS
 62
     7
100
AcDbLine
 10
518.2233047033611
 20
878.3898269447327
 30
0.0
 11
547.9217895131973
 21
848.6913421348966
 31
0.0
  0
LINE
  5
271
330
1F
100
AcDbEntity
  8
LAY-10
  6
CONTINUOUS
 62
     7
100
AcDbLine
 10
543.6791488260794
 20
844.4487014477791
 30
0.0
 11
513.9806640162433
 21
874.1471862576152
 31
0.0
  0
LINE
  5
272
330
1F
100
AcDbEntity
  8
LAY-10
  6
CONTINUOUS
 62
     7
100
AcDbLine
 10
547.9217895131973
 20
848.6913421348966
 30
0.0
 11
552.8715369815035
 21
853.6410896032028
 31
0.0
  0
LINE
  5
273
330
1F
100
AcDbEntity
  8
LAY-10
  6
CONTINUOUS
 62
     7
100
AcDbLine
 10
538.7294013577739
 20
839.4989539794734
 30
0.0
 11
543.6791488260794
 21
844.4487014477791
 31
0.0
  0
LINE
  5
274
330
1F
100
AcDbEntity
  8
LAY-10
  6
CONTINUOUS
 62
     7
100
AcDbLine
 10
558.5283912309962
 20
859.2979438526983
 30
0.0
 11
544.3862556072669
 21
873.4400794764276
 31
0.0
  0
LINE
  5
275
330
1F
100
AcDbEntity
  8
LAY-10
  6
CONTINUOUS
 62
     7
100
AcDbLine
 10
474.382684269795
 20
864.2476913210039
 30
0.0
 11
479.3324317381011
 21
859.2979438526977
 31
0.0
  0
LINE
  5
276
330
1F
100
AcDbEntity
  8
LAY-10
  6
CONTINUOUS
 62
     7
100
AcDbLine
 10
465.1902961143717
 20
873.4400794764271
 30
0.0
 11
470.1400435826771
 21
868.4903320081214
 31
0.0
  0
LINE
  5
277
330
1F
100
AcDbEntity
  8
LAY-10
  6
CONTINUOUS
 62
     7
100
AcDbLine
 10
617.9253608506602
 20
839.4989539794683
 30
0.0
 11
583.9842353537055
 21
873.4400794764231
 31
0.0
  0
LINE
  5
278
330
1F
100
AcDbEntity
  8
LAY-10
  6
CONTINUOUS
 62
     7
100
AcDbLine
 10
632.0674964743896
 20
853.6410896031982
 30
0.0
 11
617.9253608506602
 21
839.4989539794683
 31
0.0
  0
LINE
  5
279
330
1F
100
AcDbEntity
  8
LAY-10
  6
CONTINUOUS
 62
     7
100
AcDbLine
 10
622.8751083189604
 20
852.9339828220163
 30
0.0
 11
618.6324676318426
 21
848.6913421348988
 31
0.0
  0
LINE
  5
27A
330
1F
100
AcDbEntity
  8
LAY-10
  6
CONTINUOUS
 62
     7
100
AcDbLine
 10
618.6324676318477
 20
848.6913421348931
 30
0.0
 11
588.9339828220116
 21
878.3898269447293
 31
0.0
  0
LINE
  5
27B
330
1F
100
AcDbEntity
  8
LAY-10
  6
CONTINUOUS
 62
     7
100
AcDbLine
 10
593.1766235091295
 20
882.6324676318474
 30
0.0
 11
622.8751083189657
 21
852.9339828220112
 31
0.0
  0
LINE
  5
27C
330
1F
100
AcDbEntity
  8
LAY-10
  6
CONTINUOUS
 62
     7
100
AcDbLine
 10
513.9806640162485
 20
874.1471862576101
 30
0.0
 11
518.2233047033664
 21
878.3898269447276
 31
0.0
  0
LINE
  5
27D
330
1F
100
AcDbEntity
  8
LAY-10
  6
CONTINUOUS
 62
     7
100
AcDbLine
 10
557.8212844498148
 20
868.4903320081277
 30
0.0
 11
553.578643762697
 21
872.7329726952452
 31
0.0
  0
LINE
  5
27E
330
1F
100
AcDbEntity
  8
LAY-10
  6
CONTINUOUS
 62
     7
100
AcDbLine
 10
538.7294013577739
 20
879.0969337259203
 30
0.0
 11
543.6791488260794
 21
884.0466811942259
 31
0.0
  0
LINE
  5
27F
330
1F
100
AcDbEntity
  8
LAY-10
  6
CONTINUOUS
 62
     7
100
AcDbLine
 10
588.9339828220116
 20
878.3898269447293
 30
0.0
 11
583.9842353537055
 21
873.4400794764231
 31
0.0
  0
LINE
  5
280
330
1F
100
AcDbEntity
  8
LAY-10
  6
CONTINUOUS
 62
     7
100
AcDbLine
 10
632.0674964743896
 20
853.6410896031982
 30
0.0
 11
598.126370977435
 21
887.582215100153
 31
0.0
  0
LINE
  5
281
330
1F
100
AcDbEntity
  8
LAY-10
  6
CONTINUOUS
 62
     7
100
AcDbLine
 10
558.5283912309962
 20
859.2979438526983
 30
0.0
 11
592.469516727951
 21
893.239069349653
 31
0.0
  0
LINE
  5
282
330
1F
100
AcDbEntity
  8
LAY-10
  6
CONTINUOUS
 62
     7
100
AcDbLine
 10
518.9304114845487
 20
887.5822151001576
 30
0.0
 11
552.8715369815035
 21
853.6410896032028
 31
0.0
  0
LINE
  5
283
330
1F
100
AcDbEntity
  8
LAY-10
  6
CONTINUOUS
 62
     7
100
AcDbLine
 10
513.2735572350559
 20
893.2390693496525
 30
0.0
 11
479.3324317381011
 21
859.2979438526977
 31
0.0
  0
LINE
  5
284
330
1F
100
AcDbEntity
  8
LAY-10
  6
CONTINUOUS
 62
     7
100
AcDbLine
 10
499.1314216113265
 20
907.3812049733818
 30
0.0
 11
465.1902961143717
 21
873.4400794764271
 31
0.0
  0
LINE
  5
285
330
1F
100
AcDbEntity
  8
LAY-10
  6
CONTINUOUS
 62
     7
100
AcDbLine
 10
499.1314216113268
 20
946.9791847198281
 30
0.0
 11
465.1902961143722
 21
913.0380592228734
 31
0.0
  0
LINE
  5
286
330
1F
100
AcDbEntity
  8
LAY-10
  6
CONTINUOUS
 62
     7
100
AcDbLine
 10
465.1902961143722
 20
913.0380592228734
 30
0.0
 11
470.1400435826774
 21
908.0883117545677
 31
0.0
  0
CIRCLE
  5
287
330
1F
100
AcDbEntity
  8
LAY-10
  6
CONTINUOUS
 62
     7
100
AcDbCircle
 10
686.0
 20
905.0
 30
0.0
 40
284.5
  0
ARC
  5
288
330
1F
100
AcDbEntity
  8
LAY-10
  6
CONTINUOUS
 62
     7
100
AcDbCircle
 10
686.0
 20
905.0000000000001
 30
0.0
 40
243.5000000000001
100
AcDbArc
 50
220.0000000000001
 51
335.0
  0
LINE
  5
289
330
1F
100
AcDbEntity
  8
LAY-10
  6
CONTINUOUS
 62
     7
100
AcDbLine
 10
934.7814875415618
 20
788.9912871521808
 30
0.0
 11
906.6859461434243
 21
802.0924532661396
 31
0.0
  0
LINE
  5
28A
330
1F
100
AcDbEntity
  8
LAY-10
  6
CONTINUOUS
 62
     7
100
AcDbLine
 10
475.7208003638366
 20
728.5548011410496
 30
0.0
 11
499.4681781005293
 21
748.481217041327
 31
0.0
  0
LINE
  5
28B
330
1F
100
AcDbEntity
  8
LAY-10
  6
CONTINUOUS
 62
     7
100
AcDbLine
 10
498.7839108238062
 20
740.0746048858106
 30
0.0
 11
479.6277644457602
 21
724.0006895252214
 31
0.0
  0
LINE
  5
28C
330
1F
100
AcDbEntity
  8
LAY-10
  6
CONTINUOUS
 62
     7
100
AcDbLine
 10
909.5226889087327
 20
794.1493908766848
 30
0.0
 11
932.1863408521463
 21
783.5811564137143
 31
0.0
  0
LINE
  5
28D
330
1F
100
AcDbEntity
  8
LAY-10
  6
CONTINUOUS
 62
     7
100
AcDbLine
 10
873.2160891761947
 20
740.0746048858114
 30
0.0
 11
892.3722355542386
 21
724.0006895252199
 31
0.0
  0
LINE
  5
28E
330
1F
100
AcDbEntity
  8
LAY-10
  6
CONTINUOUS
 62
     7
100
AcDbLine
 10
896.2791996361615
 20
728.5548011410473
 30
0.0
 11
877.1280885582013
 21
744.6244913832275
 31
0.0
  0
ARC
  5
28F
330
1F
100
AcDbEntity
  8
LAY-10
  6
CONTINUOUS
 62
     7
100
AcDbCircle
 10
686.0
 20
905.0000000000001
 30
0.0
 40
249.5000000000002
100
AcDbArc
 50
221.3779872564329
 51
318.6220127435675
  0
ARC
  5
290
330
1F
100
AcDbEntity
  8
LAY-10
  6
CONTINUOUS
 62
     7
100
AcDbCircle
 10
686.0
 20
905.0000000000001
 30
0.0
 40
249.5000000000002
100
AcDbArc
 50
319.9999999999499
 51
333.6220127435671
  0
ARC
  5
291
330
1F
100
AcDbEntity
  8
LAY-10
  6
CONTINUOUS
 62
     7
100
AcDbCircle
 10
686.0
 20
905.0000000000001
 30
0.0
 40
274.5
100
AcDbArc
 50
221.2524665103901
 51
318.7475334896096
  0
ARC
  5
292
330
1F
100
AcDbEntity
  8
LAY-10
  6
CONTINUOUS
 62
     7
100
AcDbCircle
 10
686.0
 20
905.0000000000001
 30
0.0
 40
274.5
100
AcDbArc
 50
319.9999999999499
 51
333.7475334896092
  0
LINE
  5
293
330
1F
100
AcDbEntity
  8
LAY-10
  6
CONTINUOUS
 62
     7
100
AcDbLine
 10
588.4192641962563
 20
780.549206511168
 30
0.0
 11
561.5492065111675
 21
807.4192641962567
 31
0.0
  0
LINE
  5
294
330
1F
100
AcDbEntity
  8
LAY-10
  6
CONTINUOUS
 62
     7
100
AcDbLine
 10
561.5492065111675
 20
807.4192641962567
 30
0.0
 11
507.8090911409902
 21
753.6791488260793
 31
0.0
  0
LINE
  5
295
330
1F
100
AcDbEntity
  8
LAY-10
  6
CONTINUOUS
 62
     7
100
AcDbLine
 10
507.8090911409902
 20
753.6791488260793
 30
0.0
 11
534.679148826079
 21
726.8090911409903
 31
0.0
  0
LINE
  5
296
330
1F
100
AcDbEntity
  8
LAY-10
  6
CONTINUOUS
 62
     7
100
AcDbLine
 10
534.679148826079
 20
726.8090911409903
 30
0.0
 11
588.4192641962563
 21
780.549206511168
 31
0.0
  0
LINE
  5
297
330
1F
100
AcDbEntity
  8
LAY-10
  6
CONTINUOUS
 62
     7
100
AcDbLine
 10
783.5807358037434
 20
780.549206511168
 30
0.0
 11
810.4507934888323
 21
807.4192641962567
 31
0.0
  0
LINE
  5
298
330
1F
100
AcDbEntity
  8
LAY-10
  6
CONTINUOUS
 62
     7
100
AcDbLine
 10
810.4507934888323
 20
807.4192641962567
 30
0.0
 11
864.1909088590097
 21
753.6791488260793
 31
0.0
  0
LINE
  5
299
330
1F
100
AcDbEntity
  8
LAY-10
  6
CONTINUOUS
 62
     7
100
AcDbLine
 10
864.1909088590097
 20
753.6791488260793
 30
0.0
 11
837.3208511739208
 21
726.8090911409903
 31
0.0
  0
LINE
  5
29A
330
1F
100
AcDbEntity
  8
LAY-10
  6
CONTINUOUS
 62
     7
100
AcDbLine
 10
837.3208511739208
 20
726.8090911409903
 30
0.0
 11
783.5807358037434
 21
780.549206511168
 31
0.0
  0
LINE
  5
29B
330
1F
100
AcDbEntity
  8
LAY-10
  6
CONTINUOUS
 62
     7
100
AcDbLine
 10
783.5807358037434
 20
1029.450793488832
 30
0.0
 11
810.4507934888323
 21
1002.580735803744
 31
0.0
  0
LINE
  5
29C
330
1F
100
AcDbEntity
  8
LAY-10
  6
CONTINUOUS
 62
     7
100
AcDbLine
 10
810.4507934888323
 20
1002.580735803744
 30
0.0
 11
864.1909088590097
 21
1056.320851173921
 31
0.0
  0
LINE
  5
29D
330
1F
100
AcDbEntity
  8
LAY-10
  6
CONTINUOUS
 62
     7
100
AcDbLine
 10
864.1909088590097
 20
1056.320851173921
 30
0.0
 11
837.3208511739208
 21
1083.19090885901
 31
0.0
  0
LINE
  5
29E
330
1F
100
AcDbEntity
  8
LAY-10
  6
CONTINUOUS
 62
     7
100
AcDbLine
 10
837.3208511739208
 20
1083.19090885901
 30
0.0
 11
783.5807358037434
 21
1029.450793488832
 31
0.0
  0
LINE
  5
29F
330
1F
100
AcDbEntity
  8
LAY-10
  6
CONTINUOUS
 62
     7
100
AcDbLine
 10
588.4192641962563
 20
1029.450793488832
 30
0.0
 11
561.5492065111675
 21
1002.580735803744
 31
0.0
  0
LINE
  5
2A0
330
1F
100
AcDbEntity
  8
LAY-10
  6
CONTINUOUS
 62
     7
100
AcDbLine
 10
561.5492065111675
 20
1002.580735803744
 30
0.0
 11
507.8090911409902
 21
1056.320851173921
 31
0.0
  0
LINE
  5
2A1
330
1F
100
AcDbEntity
  8
LAY-10
  6
CONTINUOUS
 62
     7
100
AcDbLine
 10
507.8090911409902
 20
1056.320851173921
 30
0.0
 11
534.679148826079
 21
1083.19090885901
 31
0.0
  0
LINE
  5
2A2
330
1F
100
AcDbEntity
  8
LAY-10
  6
CONTINUOUS
 62
     7
100
AcDbLine
 10
534.679148826079
 20
1083.19090885901
 30
0.0
 11
588.4192641962563
 21
1029.450793488832
 31
0.0
  0
ARC
  5
2A3
330
1F
100
AcDbEntity
  8
LAY-10
  6
CONTINUOUS
 62
     7
100
AcDbCircle
 10
686.0
 20
905.0000000000001
 30
0.0
 40
274.5
100
AcDbArc
 50
335.0000000000059
 51
79.91866050178639
  0
ARC
  5
2A4
330
1F
100
AcDbEntity
  8
LAY-10
  6
CONTINUOUS
 62
     7
100
AcDbCircle
 10
686.0
 20
905.0000000000001
 30
0.0
 40
274.5
100
AcDbArc
 50
100.0813394982137
 51
219.9999999999876
  0
ARC
  5
2A5
330
1F
100
AcDbEntity
  8
LAY-10
  6
CONTINUOUS
 62
     7
100
AcDbCircle
 10
686.0
 20
905.0000000000001
 30
0.0
 40
280.5
100
AcDbArc
 50
99.24639877077162
 51
80.75360122922831
  0
ARC
  5
2A6
330
1F
100
AcDbEntity
  8
LAY-10
  6
CONTINUOUS
 62
     7
100
AcDbCircle
 10
686.0
 20
905.0000000000001
 30
0.0
 40
264.5
100
AcDbArc
 50
80.75360122922858
 51
99.24639877077152
  0
LINE
  5
2A7
330
1F
100
AcDbEntity
  8
LAY-10
  6
CONTINUOUS
 62
     7
100
AcDbLine
 10
728.4999999999999
 20
1166.063210736398
 30
0.0
 11
731.0708884688099
 21
1181.855314221404
 31
0.0
  0
LINE
  5
2A8
330
1F
100
AcDbEntity
  8
LAY-10
  6
CONTINUOUS
 62
     7
100
AcDbLine
 10
731.8003689363384
 20
1161.442149821934
 30
0.0
 11
734.0501480586826
 21
1175.261786554331
 31
0.0
  0
ARC
  5
2A9
330
1F
100
AcDbEntity
  8
LAY-10
  6
CONTINUOUS
 62
     7
100
AcDbCircle
 10
686.0
 20
905.0000000000001
 30
0.0
 40
260.5
100
AcDbArc
 50
79.87378501007265
 51
100.1262149899275
  0
LINE
  5
2AA
330
1F
100
AcDbEntity
  8
LAY-10
  6
CONTINUOUS
 62
     7
100
AcDbLine
 10
640.1996310636614
 20
1161.442149821934
 30
0.0
 11
637.9498519413172
 21
1175.261786554331
 31
0.0
  0
LINE
  5
2AB
330
1F
100
AcDbEntity
  8
LAY-10
  6
CONTINUOUS
 62
     7
100
AcDbLine
 10
643.4999999999999
 20
1166.063210736398
 30
0.0
 11
640.9291115311898
 21
1181.855314221404
 31
0.0
  0
LINE
  5
2AC
330
1F
100
AcDbEntity
  8
LAY-10
  6
PHANTOM
 62
     7
100
AcDbLine
 10
401.4999999999098
 20
358.6745506494051
 30
0.0
 11
401.7184214203841
 21
356.1779823893406
 31
0.0
  0
LINE
  5
2AD
330
1F
100
AcDbEntity
  8
LAY-10
  6
PHANTOM
 62
     7
100
AcDbLine
 10
401.6347002684911
 20
356.1765210311048
 30
0.0
 11
685.9999999999999
 21
361.1401358012511
 31
0.0
  0
LINE
  5
2AE
330
1F
100
AcDbEntity
  8
LAY-10
  6
PHANTOM
 62
     7
100
AcDbLine
 10
970.2815785796184
 20
356.1779823892469
 30
0.0
 11
685.9999999999999
 21
361.1401358012511
 31
0.0
  0
LINE
  5
2AF
330
1F
100
AcDbEntity
  8
LAY-10
  6
PHANTOM
 62
     7
100
AcDbLine
 10
970.50000000009
 20
358.674550649405
 30
0.0
 11
970.2815785796156
 21
356.1779823893405
 31
0.0
  0
LINE
  5
2B0
330
1F
100
AcDbEntity
  8
LAY-20
  6
CONTINUOUS
 62
     7
100
AcDbLine
 10
435.0000000000003
 20
336.000000000004
 30
0.0
 11
435.9999999999999
 21
297.800000000004
 31
0.0
  0
ARC
  5
2B1
330
1F
100
AcDbEntity
  8
LAY-20
  6
CONTINUOUS
 62
     7
100
AcDbCircle
 10
438.0010277563022
 20
335.999999999979
 30
0.0
 40
3.000000000000003
100
AcDbArc
 50
181.499547037981
 51
270.0
  0
LINE
  5
2B2
330
1F
100
AcDbEntity
  8
LAY-20
  6
CONTINUOUS
 62
     7
100
AcDbLine
 10
444.9999999999931
 20
297.800000000004
 30
0.0
 11
444.1040269883364
 21
332.0261690453166
 31
0.0
  0
LINE
  5
2B3
330
1F
100
AcDbEntity
  8
LAY-20
  6
CONTINUOUS
 62
     7
100
AcDbLine
 10
438.0010277563022
 20
332.9999999999789
 30
0.0
 11
443.1043694564454
 21
332.9999999999789
 31
0.0
  0
ARC
  5
2B4
330
1F
100
AcDbEntity
  8
LAY-20
  6
CONTINUOUS
 62
     7
100
AcDbCircle
 10
443.1043694564454
 20
331.9999999999787
 30
0.0
 40
1.0
100
AcDbArc
 50
1.499547037963587
 51
90.00000000000001
  0
LINE
  5
2B5
330
1F
100
AcDbEntity
  8
LAY-20
  6
CONTINUOUS
 62
     7
100
AcDbLine
 10
439.0000000000001
 20
297.800000000004
 30
0.0
 11
438.1013460348174
 21
332.1285814699901
 31
0.0
  0
ARC
  5
2B6
330
1F
100
AcDbEntity
  8
LAY-20
  6
CONTINUOUS
 62
     7
100
AcDbCircle
 10
437.1016885029264
 20
332.1024124246527
 30
0.0
 40
1.0
100
AcDbArc
 50
1.499547037976593
 51
77.00683521307174
  0
LINE
  5
2B7
330
1F
100
AcDbEntity
  8
LAY-20
  6
CONTINUOUS
 62
     7
100
AcDbLine
 10
446.9999999999759
 20
347.5000000000897
 30
0.0
 11
448.1547005383554
 21
345.5000000000892
 31
0.0
  0
LINE
  5
2B8
330
1F
100
AcDbEntity
  8
LAY-20
  6
CONTINUOUS
 62
     7
100
AcDbLine
 10
448.1547005384002
 20
345.5000000000892
 30
0.0
 11
461.3875793554535
 21
345.5000000000892
 31
0.0
  0
LINE
  5
2B9
330
1F
100
AcDbEntity
  8
LAY-20
  6
CONTINUOUS
 62
     7
100
AcDbLine
 10
462.0000000001
 20
343.0000000001037
 30
0.0
 11
532.0000000000002
 21
343.0000000001037
 31
0.0
  0
LINE
  5
2BA
330
1F
100
AcDbEntity
  8
LAY-20
  6
CONTINUOUS
 62
     7
100
AcDbLine
 10
462.0000000001
 20
343.000000000104
 30
0.0
 11
461.4178005064477
 21
346.493196962006
 31
0.0
  0
LINE
  5
2BB
330
1F
100
AcDbEntity
  8
LAY-20
  6
CONTINUOUS
 62
     7
100
AcDbLine
 10
451.6754264804999
 20
349.0000000000883
 30
0.0
 11
458.4586187349516
 21
349.0000000000883
 31
0.0
  0
ARC
  5
2BC
330
1F
100
AcDbEntity
  8
LAY-20
  6
CONTINUOUS
 62
     7
100
AcDbCircle
 10
458.4586187349516
 20
346.0000000000883
 30
0.0
 40
3.000000000000003
100
AcDbArc
 50
9.462322208056223
 51
90.00000000000001
  0
LINE
  5
2BD
330
1F
100
AcDbEntity
  8
LAY-20
  6
CONTINUOUS
 62
     7
100
AcDbLine
 10
532.0
 20
343.000000000104
 30
0.0
 11
532.5821994936523
 21
346.493196962006
 31
0.0
  0
ARC
  5
2BE
330
1F
100
AcDbEntity
  8
LAY-20
  6
CONTINUOUS
 62
     7
100
AcDbCircle
 10
535.5413812651484
 20
346.0000000000883
 30
0.0
 40
3.000000000000003
100
AcDbArc
 50
90.00000000000001
 51
170.5376777919439
  0
LINE
  5
2BF
330
1F
100
AcDbEntity
  8
LAY-20
  6
CONTINUOUS
 62
     7
100
AcDbLine
 10
449.6547005383836
 20
345.5000000001138
 30
0.0
 11
451.6754264805228
 21
349.0000000000708
 31
0.0
  0
LINE
  5
2C0
330
1F
100
AcDbEntity
  8
LAY-20
  6
CONTINUOUS
 62
     7
100
AcDbLine
 10
512.4380652052145
 20
351.6238516429322
 30
0.0
 11
513.376148357179
 21
352.5619347948967
 31
0.0
  0
LINE
  5
2C1
330
1F
100
AcDbEntity
  8
LAY-20
  6
CONTINUOUS
 62
     7
100
AcDbLine
 10
511.7821909595765
 20
351.6750841784807
 30
0.0
 11
513.3249158216305
 21
353.2178090405348
 31
0.0
  0
LINE
  5
2C2
330
1F
100
AcDbEntity
  8
LAY-20
  6
CONTINUOUS
 62
     7
100
AcDbLine
 10
511.3514718625865
 20
351.9514718626772
 30
0.0
 11
513.0485281374341
 21
353.6485281375248
 31
0.0
  0
LINE
  5
2C3
330
1F
100
AcDbEntity
  8
LAY-20
  6
CONTINUOUS
 62
     7
100
AcDbLine
 10
511.0750841783898
 20
352.3821909596672
 30
0.0
 11
512.6178090404441
 21
353.9249158217213
 31
0.0
  0
LINE
  5
2C4
330
1F
100
AcDbEntity
  8
LAY-20
  6
CONTINUOUS
 62
     7
100
AcDbLine
 10
511.0238516428414
 20
353.0380652053053
 30
0.0
 11
511.9619347948061
 21
353.9761483572699
 31
0.0
  0
LINE
  5
2C5
330
1F
100
AcDbEntity
  8
LAY-20
  6
CONTINUOUS
 62
     7
100
AcDbLine
 10
492.0380652052043
 20
351.6238516429322
 30
0.0
 11
492.976148357169
 21
352.5619347948967
 31
0.0
  0
LINE
  5
2C6
330
1F
100
AcDbEntity
  8
LAY-20
  6
CONTINUOUS
 62
     7
100
AcDbLine
 10
491.3821909595663
 20
351.6750841784807
 30
0.0
 11
492.9249158216203
 21
353.2178090405348
 31
0.0
  0
LINE
  5
2C7
330
1F
100
AcDbEntity
  8
LAY-20
  6
CONTINUOUS
 62
     7
100
AcDbLine
 10
490.9514718625762
 20
351.9514718626772
 30
0.0
 11
492.6485281374239
 21
353.6485281375248
 31
0.0
  0
LINE
  5
2C8
330
1F
100
AcDbEntity
  8
LAY-20
  6
CONTINUOUS
 62
     7
100
AcDbLine
 10
490.6750841783796
 20
352.3821909596672
 30
0.0
 11
492.2178090404341
 21
353.9249158217213
 31
0.0
  0
LINE
  5
2C9
330
1F
100
AcDbEntity
  8
LAY-20
  6
CONTINUOUS
 62
     7
100
AcDbLine
 10
490.6238516428311
 20
353.0380652053053
 30
0.0
 11
491.5619347947959
 21
353.9761483572699
 31
0.0
  0
LINE
  5
2CA
330
1F
100
AcDbEntity
  8
LAY-20
  6
CONTINUOUS
 62
     7
100
AcDbLine
 10
450.5000000000102
 20
315.0000000001011
 30
0.0
 11
462.5000000000102
 21
315.0000000001011
 31
0.0
  0
LINE
  5
2CB
330
1F
100
AcDbEntity
  8
LAY-20
  6
CONTINUOUS
 62
     7
100
AcDbLine
 10
450.5000000000102
 20
339.0000000001011
 30
0.0
 11
450.5000000000102
 21
315.0000000001011
 31
0.0
  0
LINE
  5
2CC
330
1F
100
AcDbEntity
  8
LAY-20
  6
CONTINUOUS
 62
     7
100
AcDbLine
 10
530.5000000000103
 20
309.000000000101
 30
0.0
 11
483.5000000000102
 21
309.000000000101
 31
0.0
  0
LINE
  5
2CD
330
1F
100
AcDbEntity
  8
LAY-20
  6
CONTINUOUS
 62
     7
100
AcDbLine
 10
462.5000000000102
 20
313.5000000001011
 30
0.0
 11
483.5000000000102
 21
313.5000000001011
 31
0.0
  0
LINE
  5
2CE
330
1F
100
AcDbEntity
  8
LAY-20
  6
CONTINUOUS
 62
     7
100
AcDbLine
 10
486.00000000001
 20
358.0000000001008
 30
0.0
 11
518.0000000000101
 21
358.0000000001008
 31
0.0
  0
LINE
  5
2CF
330
1F
100
AcDbEntity
  8
LAY-20
  6
CONTINUOUS
 62
     7
100
AcDbLine
 10
486.00000000001
 20
358.0000000001008
 30
0.0
 11
486.00000000001
 21
344.000000000101
 31
0.0
  0
LINE
  5
2D0
330
1F
100
AcDbEntity
  8
LAY-20
  6
CONTINUOUS
 62
     7
100
AcDbLine
 10
518.0000000000101
 20
358.0000000001008
 30
0.0
 11
518.0000000000101
 21
344.0000000001008
 31
0.0
  0
LINE
  5
2D1
330
1F
100
AcDbEntity
  8
LAY-20
  6
CONTINUOUS
 62
     7
100
AcDbLine
 10
462.50000000001
 20
339.0000000001011
 30
0.0
 11
450.5000000000102
 21
339.0000000001011
 31
0.0
  0
LINE
  5
2D2
330
1F
100
AcDbEntity
  8
LAY-20
  6
CONTINUOUS
 62
     7
100
AcDbLine
 10
530.5000000000074
 20
309.0000000001011
 30
0.0
 11
530.5000000000097
 21
343.0000000001008
 31
0.0
  0
LINE
  5
2D3
330
1F
100
AcDbEntity
  8
LAY-20
  6
CONTINUOUS
 62
     7
100
AcDbLine
 10
483.5000000000102
 20
309.0000000001011
 30
0.0
 11
483.5000000000102
 21
338.0000000001017
 31
0.0
  0
LINE
  5
2D4
330
1F
100
AcDbEntity
  8
LAY-20
  6
CONTINUOUS
 62
     7
100
AcDbLine
 10
462.5000000000084
 20
313.5000000001011
 30
0.0
 11
462.5000000000084
 21
343.0000000001008
 31
0.0
  0
LINE
  5
2D5
330
1F
100
AcDbEntity
  8
LAY-20
  6
CONTINUOUS
 62
     7
100
AcDbLine
 10
530.5000000000101
 20
338.0000000001017
 30
0.0
 11
462.50000000001
 21
338.0000000001017
 31
0.0
  0
LINE
  5
2D6
330
1F
100
AcDbEntity
  8
LAY-20
  6
CONTINUOUS
 62
     7
100
AcDbLine
 10
533.5000000000101
 20
340.0000000001011
 30
0.0
 11
530.5000000000101
 21
340.0000000001011
 31
0.0
  0
LINE
  5
2D7
330
1F
100
AcDbEntity
  8
LAY-20
  6
CONTINUOUS
 62
     7
100
AcDbLine
 10
533.5000000000101
 20
310.000000000101
 30
0.0
 11
533.5000000000101
 21
340.0000000001011
 31
0.0
  0
LINE
  5
2D8
330
1F
100
AcDbEntity
  8
LAY-20
  6
CONTINUOUS
 62
     7
100
AcDbLine
 10
530.5000000000101
 20
310.000000000101
 30
0.0
 11
533.5000000000101
 21
310.000000000101
 31
0.0
  0
LINE
  5
2D9
330
1F
100
AcDbEntity
  8
LAY-20
  6
CONTINUOUS
 62
     7
100
AcDbLine
 10
522.5000000000233
 20
336.4000000001021
 30
0.0
 11
522.5000000000231
 21
331.0000000001024
 31
0.0
  0
LINE
  5
2DA
330
1F
100
AcDbEntity
  8
LAY-20
  6
CONTINUOUS
 62
     7
100
AcDbLine
 10
512.5000000000231
 20
336.4000000001021
 30
0.0
 11
512.5000000000231
 21
331.0000000001024
 31
0.0
  0
LINE
  5
2DB
330
1F
100
AcDbEntity
  8
LAY-20
  6
CONTINUOUS
 62
     7
100
AcDbLine
 10
522.5000000000231
 20
331.0000000001024
 30
0.0
 11
512.5000000000231
 21
331.0000000001024
 31
0.0
  0
LINE
  5
2DC
330
1F
100
AcDbEntity
  8
LAY-20
  6
CONTINUOUS
 62
     7
100
AcDbLine
 10
522.5000000000231
 20
331.0000000001024
 30
0.0
 11
521.9000000000229
 21
330.400000000103
 31
0.0
  0
LINE
  5
2DD
330
1F
100
AcDbEntity
  8
LAY-20
  6
CONTINUOUS
 62
     7
100
AcDbLine
 10
512.5000000000231
 20
331.0000000001024
 30
0.0
 11
513.100000000023
 21
330.400000000103
 31
0.0
  0
LINE
  5
2DE
330
1F
100
AcDbEntity
  8
LAY-20
  6
CONTINUOUS
 62
     7
100
AcDbLine
 10
521.9000000000229
 20
330.400000000103
 30
0.0
 11
513.100000000023
 21
330.400000000103
 31
0.0
  0
LINE
  5
2DF
330
1F
100
AcDbEntity
  8
LAY-20
  6
CONTINUOUS
 62
     7
100
AcDbLine
 10
518.7500000000231
 20
331.0000000001024
 30
0.0
 11
518.7500000000231
 21
332.3500000001023
 31
0.0
  0
LINE
  5
2E0
330
1F
100
AcDbEntity
  8
LAY-20
  6
CONTINUOUS
 62
     7
100
AcDbLine
 10
520.0000000000231
 20
331.0000000001024
 30
0.0
 11
520.0000000000231
 21
333.7000000001022
 31
0.0
  0
LINE
  5
2E1
330
1F
100
AcDbEntity
  8
LAY-20
  6
CONTINUOUS
 62
     7
100
AcDbLine
 10
521.2500000000231
 20
331.0000000001024
 30
0.0
 11
521.2500000000231
 21
335.0500000001022
 31
0.0
  0
LINE
  5
2E2
330
1F
100
AcDbEntity
  8
LAY-20
  6
CONTINUOUS
 62
     7
100
AcDbLine
 10
511.2500000000231
 20
336.4000000001021
 30
0.0
 11
523.7500000000231
 21
336.4000000001021
 31
0.0
  0
LINE
  5
2E3
330
1F
100
AcDbEntity
  8
LAY-20
  6
CONTINUOUS
 62
     7
100
AcDbLine
 10
523.7500000000231
 20
338.0000000001029
 30
0.0
 11
523.7500000000231
 21
336.4000000001021
 31
0.0
  0
LINE
  5
2E4
330
1F
100
AcDbEntity
  8
LAY-20
  6
CONTINUOUS
 62
     7
100
AcDbLine
 10
511.2500000000231
 20
338.0000000001029
 30
0.0
 11
511.2500000000231
 21
336.4000000001021
 31
0.0
  0
LINE
  5
2E5
330
1F
100
AcDbEntity
  8
LAY-20
  6
CONTINUOUS
 62
     7
100
AcDbLine
 10
475.5000000000232
 20
336.4000000001021
 30
0.0
 11
475.500000000023
 21
331.0000000001024
 31
0.0
  0
LINE
  5
2E6
330
1F
100
AcDbEntity
  8
LAY-20
  6
CONTINUOUS
 62
     7
100
AcDbLine
 10
465.500000000023
 20
336.4000000001021
 30
0.0
 11
465.500000000023
 21
331.0000000001024
 31
0.0
  0
LINE
  5
2E7
330
1F
100
AcDbEntity
  8
LAY-20
  6
CONTINUOUS
 62
     7
100
AcDbLine
 10
475.500000000023
 20
331.0000000001024
 30
0.0
 11
465.500000000023
 21
331.0000000001024
 31
0.0
  0
LINE
  5
2E8
330
1F
100
AcDbEntity
  8
LAY-20
  6
CONTINUOUS
 62
     7
100
AcDbLine
 10
475.500000000023
 20
331.0000000001024
 30
0.0
 11
474.9000000000228
 21
330.400000000103
 31
0.0
  0
LINE
  5
2E9
330
1F
100
AcDbEntity
  8
LAY-20
  6
CONTINUOUS
 62
     7
100
AcDbLine
 10
465.500000000023
 20
331.0000000001024
 30
0.0
 11
466.1000000000229
 21
330.400000000103
 31
0.0
  0
LINE
  5
2EA
330
1F
100
AcDbEntity
  8
LAY-20
  6
CONTINUOUS
 62
     7
100
AcDbLine
 10
474.9000000000228
 20
330.400000000103
 30
0.0
 11
466.1000000000229
 21
330.400000000103
 31
0.0
  0
LINE
  5
2EB
330
1F
100
AcDbEntity
  8
LAY-20
  6
CONTINUOUS
 62
     7
100
AcDbLine
 10
471.750000000023
 20
331.0000000001024
 30
0.0
 11
471.750000000023
 21
332.3500000001023
 31
0.0
  0
LINE
  5
2EC
330
1F
100
AcDbEntity
  8
LAY-20
  6
CONTINUOUS
 62
     7
100
AcDbLine
 10
473.000000000023
 20
331.0000000001024
 30
0.0
 11
473.000000000023
 21
333.7000000001022
 31
0.0
  0
LINE
  5
2ED
330
1F
100
AcDbEntity
  8
LAY-20
  6
CONTINUOUS
 62
     7
100
AcDbLine
 10
474.250000000023
 20
331.0000000001024
 30
0.0
 11
474.250000000023
 21
335.0500000001022
 31
0.0
  0
LINE
  5
2EE
330
1F
100
AcDbEntity
  8
LAY-20
  6
CONTINUOUS
 62
     7
100
AcDbLine
 10
464.250000000023
 20
336.4000000001021
 30
0.0
 11
476.750000000023
 21
336.4000000001021
 31
0.0
  0
LINE
  5
2EF
330
1F
100
AcDbEntity
  8
LAY-20
  6
CONTINUOUS
 62
     7
100
AcDbLine
 10
476.750000000023
 20
338.0000000001029
 30
0.0
 11
476.750000000023
 21
336.4000000001021
 31
0.0
  0
LINE
  5
2F0
330
1F
100
AcDbEntity
  8
LAY-20
  6
CONTINUOUS
 62
     7
100
AcDbLine
 10
464.250000000023
 20
338.0000000001029
 30
0.0
 11
464.250000000023
 21
336.4000000001021
 31
0.0
  0
LINE
  5
2F1
330
1F
100
AcDbEntity
  8
LAY-20
  6
CONTINUOUS
 62
     7
100
AcDbLine
 10
515.0000000000076
 20
354.0432028414147
 30
0.0
 11
512.0000000000108
 21
351.7412218774803
 31
0.0
  0
LINE
  5
2F2
330
1F
100
AcDbEntity
  8
LAY-20
  6
CONTINUOUS
 62
     7
100
AcDbLine
 10
513.0000000000044
 20
344.5773502692906
 30
0.0
 11
491.0000000000043
 21
344.5773502692906
 31
0.0
  0
LINE
  5
2F3
330
1F
100
AcDbEntity
  8
LAY-20
  6
CONTINUOUS
 62
     7
100
AcDbLine
 10
513.0000000000044
 20
351.000000000101
 30
0.0
 11
513.0000000000044
 21
344.5773502692906
 31
0.0
  0
LINE
  5
2F4
330
1F
100
AcDbEntity
  8
LAY-20
  6
CONTINUOUS
 62
     7
100
AcDbLine
 10
491.0000000000043
 20
351.000000000101
 30
0.0
 11
491.0000000000043
 21
344.5773502692907
 31
0.0
  0
LINE
  5
2F5
330
1F
100
AcDbEntity
  8
LAY-20
  6
CONTINUOUS
 62
     7
100
AcDbLine
 10
491.0000000000043
 20
344.5773502692907
 30
0.0
 11
492.0000000000043
 21
344.0000000001011
 31
0.0
  0
LINE
  5
2F6
330
1F
100
AcDbEntity
  8
LAY-20
  6
CONTINUOUS
 62
     7
100
AcDbLine
 10
513.0000000000044
 20
344.5773502692906
 30
0.0
 11
512.0000000000044
 21
344.0000000001011
 31
0.0
  0
LINE
  5
2F7
330
1F
100
AcDbEntity
  8
LAY-20
  6
CONTINUOUS
 62
     7
100
AcDbLine
 10
489.0000000000043
 20
358.0000000001008
 30
0.0
 11
489.0000000000043
 21
354.0432028414129
 31
0.0
  0
LINE
  5
2F8
330
1F
100
AcDbEntity
  8
LAY-20
  6
CONTINUOUS
 62
     7
100
AcDbLine
 10
515.0000000000044
 20
358.0000000001008
 30
0.0
 11
515.0000000000044
 21
354.0432028414128
 31
0.0
  0
LINE
  5
2F9
330
1F
100
AcDbEntity
  8
LAY-20
  6
CONTINUOUS
 62
     7
100
AcDbLine
 10
514.5000000000049
 20
354.0000000001011
 30
0.0
 11
489.5000000000043
 21
354.0000000001011
 31
0.0
  0
LINE
  5
2FA
330
1F
100
AcDbEntity
  8
LAY-20
  6
CONTINUOUS
 62
     7
100
AcDbLine
 10
513.5000000000049
 20
358.0000000001011
 30
0.0
 11
514.5000000000049
 21
357.0000000001011
 31
0.0
  0
LINE
  5
2FB
330
1F
100
AcDbEntity
  8
LAY-20
  6
CONTINUOUS
 62
     7
100
AcDbLine
 10
490.5000000000048
 20
358.0000000001011
 30
0.0
 11
489.5000000000043
 21
357.0000000001011
 31
0.0
  0
LINE
  5
2FC
330
1F
100
AcDbEntity
  8
LAY-20
  6
CONTINUOUS
 62
     7
100
AcDbLine
 10
513.0000000000049
 20
351.000000000101
 30
0.0
 11
491.0000000000043
 21
351.000000000101
 31
0.0
  0
LINE
  5
2FD
330
1F
100
AcDbEntity
  8
LAY-20
  6
CONTINUOUS
 62
     7
100
AcDbLine
 10
511.0000000000045
 20
354.0000000001011
 30
0.0
 11
511.0000000000045
 21
351.000000000101
 31
0.0
  0
LINE
  5
2FE
330
1F
100
AcDbEntity
  8
LAY-20
  6
CONTINUOUS
 62
     7
100
AcDbLine
 10
503.7500000000043
 20
358.0000000001011
 30
0.0
 11
503.7500000000043
 21
355.5000000001011
 31
0.0
  0
LINE
  5
2FF
330
1F
100
AcDbEntity
  8
LAY-20
  6
CONTINUOUS
 62
     7
100
AcDbLine
 10
500.2500000000048
 20
358.0000000001011
 30
0.0
 11
500.2500000000048
 21
355.5000000001011
 31
0.0
  0
LINE
  5
300
330
1F
100
AcDbEntity
  8
LAY-20
  6
CONTINUOUS
 62
     7
100
AcDbLine
 10
503.7500000000043
 20
355.5000000001011
 30
0.0
 11
500.2500000000048
 21
355.5000000001011
 31
0.0
  0
LINE
  5
301
330
1F
100
AcDbEntity
  8
LAY-20
  6
CONTINUOUS
 62
     7
100
AcDbLine
 10
489.5000000000043
 20
357.0000000001011
 30
0.0
 11
489.5000000000043
 21
354.0000000001011
 31
0.0
  0
LINE
  5
302
330
1F
100
AcDbEntity
  8
LAY-20
  6
CONTINUOUS
 62
     7
100
AcDbLine
 10
514.5000000000049
 20
357.0000000001011
 30
0.0
 11
514.5000000000049
 21
354.0000000001011
 31
0.0
  0
LINE
  5
303
330
1F
100
AcDbEntity
  8
LAY-20
  6
CONTINUOUS
 62
     7
100
AcDbLine
 10
512.0000000000044
 20
351.7412218774753
 30
0.0
 11
512.0000000000044
 21
351.000000000101
 31
0.0
  0
LINE
  5
304
330
1F
100
AcDbEntity
  8
LAY-20
  6
CONTINUOUS
 62
     7
100
AcDbLine
 10
492.0
 20
344.0000000001011
 30
0.0
 11
512.0000000000001
 21
344.0000000001011
 31
0.0
  0
LINE
  5
305
330
1F
100
AcDbEntity
  8
LAY-20
  6
CONTINUOUS
 62
     7
100
AcDbLine
 10
512.0000000000001
 20
344.0000000001011
 30
0.0
 11
512.0000000000001
 21
343.0000000001009
 31
0.0
  0
LINE
  5
306
330
1F
100
AcDbEntity
  8
LAY-20
  6
CONTINUOUS
 62
     7
100
AcDbLine
 10
492.0
 20
344.0000000001011
 30
0.0
 11
492.0
 21
343.0000000001009
 31
0.0
  0
LINE
  5
307
330
1F
100
AcDbEntity
  8
LAY-20
  6
CONTINUOUS
 62
     7
100
AcDbLine
 10
440.5000000000101
 20
336.0000000000961
 30
0.0
 11
450.5000000000101
 21
336.0000000000961
 31
0.0
  0
LINE
  5
308
330
1F
100
AcDbEntity
  8
LAY-20
  6
CONTINUOUS
 62
     7
100
AcDbLine
 10
440.5000000000118
 20
336.0000000000942
 30
0.0
 11
439.50000000001
 21
335.0000000000924
 31
0.0
  0
LINE
  5
309
330
1F
100
AcDbEntity
  8
LAY-20
  6
CONTINUOUS
 62
     7
100
AcDbLine
 10
440.5000000000101
 20
332.999999999979
 30
0.0
 11
440.5000000000101
 21
336.0000000000961
 31
0.0
  0
LINE
  5
30A
330
1F
100
AcDbEntity
  8
LAY-20
  6
CONTINUOUS
 62
     7
100
AcDbLine
 10
439.50000000001
 20
335.000000000092
 30
0.0
 11
439.50000000001
 21
332.999999999979
 31
0.0
  0
LINE
  5
30B
330
1F
100
AcDbEntity
  8
LAY-20
  6
CONTINUOUS
 62
     7
100
AcDbLine
 10
444.4712041884728
 20
318.0000000000961
 30
0.0
 11
450.5000000000101
 21
318.0000000000961
 31
0.0
  0
LINE
  5
30C
330
1F
100
AcDbEntity
  8
LAY-20
  6
CONTINUOUS
 62
     7
100
AcDbLine
 10
519.0000000000115
 20
358.2251399583258
 30
0.0
 11
519.0000000000115
 21
345.5000000000911
 31
0.0
  0
LINE
  5
30D
330
1F
100
AcDbEntity
  8
LAY-20
  6
CONTINUOUS
 62
     7
100
AcDbLine
 10
485.0000000000111
 20
357.6316677507676
 30
0.0
 11
485.0000000000111
 21
345.5000000000911
 31
0.0
  0
LINE
  5
30E
330
1F
100
AcDbEntity
  8
LAY-20
  6
CONTINUOUS
 62
     7
100
AcDbLine
 10
482.551962389031
 20
345.1732827326848
 30
0.0
 11
483.826717267429
 21
346.4480376110827
 31
0.0
  0
LINE
  5
30F
330
1F
100
AcDbEntity
  8
LAY-20
  6
CONTINUOUS
 62
     7
100
AcDbLine
 10
482.5273884182438
 20
344.4416019807109
 30
0.0
 11
484.5583980194027
 21
346.4726115818699
 31
0.0
  0
LINE
  5
310
330
1F
100
AcDbEntity
  8
LAY-20
  6
CONTINUOUS
 62
     7
100
AcDbLine
 10
482.7105924868534
 20
343.9176992681341
 30
0.0
 11
485.0823007319797
 21
346.2894075132603
 31
0.0
  0
LINE
  5
311
330
1F
100
AcDbEntity
  8
LAY-20
  6
CONTINUOUS
 62
     7
100
AcDbLine
 10
483.0125631329335
 20
343.5125631330273
 30
0.0
 11
485.4874368670863
 21
345.9874368671803
 31
0.0
  0
LINE
  5
312
330
1F
100
AcDbEntity
  8
LAY-20
  6
CONTINUOUS
 62
     7
100
AcDbLine
 10
483.4176992680399
 20
343.2105924869474
 30
0.0
 11
485.7894075131663
 21
345.5823007320738
 31
0.0
  0
LINE
  5
313
330
1F
100
AcDbEntity
  8
LAY-20
  6
CONTINUOUS
 62
     7
100
AcDbLine
 10
483.9416019806168
 20
343.0273884183378
 30
0.0
 11
485.9726115817759
 21
345.0583980194969
 31
0.0
  0
LINE
  5
314
330
1F
100
AcDbEntity
  8
LAY-20
  6
CONTINUOUS
 62
     7
100
AcDbLine
 10
484.6732827325905
 20
343.0519623891249
 30
0.0
 11
485.9480376109889
 21
344.3267172675233
 31
0.0
  0
LINE
  5
315
330
1F
100
AcDbEntity
  8
LAY-20
  6
CONTINUOUS
 62
     7
100
AcDbLine
 10
518.051962389031
 20
345.1732827326848
 30
0.0
 11
519.326717267429
 21
346.4480376110827
 31
0.0
  0
LINE
  5
316
330
1F
100
AcDbEntity
  8
LAY-20
  6
CONTINUOUS
 62
     7
100
AcDbLine
 10
518.0273884182438
 20
344.4416019807109
 30
0.0
 11
520.0583980194027
 21
346.4726115818699
 31
0.0
  0
LINE
  5
317
330
1F
100
AcDbEntity
  8
LAY-20
  6
CONTINUOUS
 62
     7
100
AcDbLine
 10
518.2105924868534
 20
343.9176992681341
 30
0.0
 11
520.5823007319797
 21
346.2894075132603
 31
0.0
  0
LINE
  5
318
330
1F
100
AcDbEntity
  8
LAY-20
  6
CONTINUOUS
 62
     7
100
AcDbLine
 10
518.5125631329335
 20
343.5125631330273
 30
0.0
 11
520.9874368670863
 21
345.9874368671803
 31
0.0
  0
LINE
  5
319
330
1F
100
AcDbEntity
  8
LAY-20
  6
CONTINUOUS
 62
     7
100
AcDbLine
 10
518.9176992680399
 20
343.2105924869474
 30
0.0
 11
521.2894075131663
 21
345.5823007320738
 31
0.0
  0
LINE
  5
31A
330
1F
100
AcDbEntity
  8
LAY-20
  6
CONTINUOUS
 62
     7
100
AcDbLine
 10
519.4416019806168
 20
343.0273884183378
 30
0.0
 11
521.4726115817759
 21
345.0583980194969
 31
0.0
  0
LINE
  5
31B
330
1F
100
AcDbEntity
  8
LAY-20
  6
CONTINUOUS
 62
     7
100
AcDbLine
 10
520.1732827325905
 20
343.0519623891249
 30
0.0
 11
521.4480376109889
 21
344.3267172675233
 31
0.0
  0
DIMENSION
  5
31D
330
1F
100
AcDbEntity
  8
LAY-20
  6
CONTINUOUS
 62
     4
100
AcDbDimension
  2
*D15
 10
995.99999999999
 20
483.6405166213601
 30
0.0
 11
685.9999999999949
 21
496.1405166213601
 31
0.0
 70
   160
  1
%%c<>
  3
ISO-25
100
AcDbAlignedDimension
 13
376.0
 23
358.9999999999999
 33
0.0
 14
995.99999999999
 24
358.9999999999999
 34
0.0
100
AcDbRotatedDimension
1001
ACAD
1000
DSTYLE
1002
{
1070
   270
1070
     2
1070
     6
1000
EX_BNORM
1070
     7
1000
EX_BNORM
1070
    41
1040
15.0
1070
    42
1040
7.5
1070
    44
1040
7.5
1070
    73
1070
     0
1070
    74
1070
     0
1070
    75
1070
     0
1070
    76
1070
     0
1070
    77
1070
     1
1070
    78
1070
     8
1070
   140
1040
15.590552
1070
   147
1040
0.0
1070
   173
1070
     1
1070
   176
1070
     4
1070
   177
1070
     4
1070
   178
1070
     7
1070
   271
1070
     1
1070
   277
1070
     2
1070
   279
1070
     2
1070
   280
1070
     0
1070
   287
1070
     5
1070
   340
1005
31C
1002
}
  0
DIMENSION
  5
32B
330
1F
100
AcDbEntity
  8
LAY-20
  6
CONTINUOUS
 62
     4
100
AcDbDimension
  2
*D16
 10
980.5000000000001
 20
448.5
 30
0.0
 11
686.0
 21
461.0
 31
0.0
 70
   160
  1
%%c<>
  3
ISO-25
100
AcDbAlignedDimension
 13
391.5000000000001
 23
358.5
 33
0.0
 14
980.5000000000001
 24
358.5
 34
0.0
100
AcDbRotatedDimension
1001
ACAD
1000
DSTYLE
1002
{
1070
   270
1070
     2
1070
     6
1000
EX_BNORM
1070
     7
1000
EX_BNORM
1070
    41
1040
15.0
1070
    42
1040
7.5
1070
    44
1040
7.5
1070
    73
1070
     0
1070
    74
1070
     0
1070
    75
1070
     0
1070
    76
1070
     0
1070
    77
1070
     1
1070
    78
1070
     8
1070
   140
1040
15.590552
1070
   147
1040
0.0
1070
   173
1070
     1
1070
   176
1070
     4
1070
   177
1070
     4
1070
   178
1070
     7
1070
   271
1070
     1
1070
   277
1070
     2
1070
   279
1070
     2
1070
   280
1070
     0
1070
   287
1070
     5
1070
   340
1005
31C
1002
}
  0
DIMENSION
  5
338
330
1F
100
AcDbEntity
  8
LAY-20
  6
CONTINUOUS
 62
     4
100
AcDbDimension
  2
*D17
 10
936.0
 20
247.8
 30
0.0
 11
686.0
 21
260.3
 31
0.0
 70
   160
  1
%%c<>
  3
ISO-25
100
AcDbAlignedDimension
 13
436.0
 23
297.8
 33
0.0
 14
936.0
 24
297.8
 34
0.0
100
AcDbRotatedDimension
1001
ACAD
1000
DSTYLE
1002
{
1070
   270
1070
     2
1070
     6
1000
EX_BNORM
1070
     7
1000
EX_BNORM
1070
    41
1040
15.0
1070
    42
1040
7.5
1070
    44
1040
7.5
1070
    73
1070
     0
1070
    74
1070
     0
1070
    75
1070
     0
1070
    76
1070
     0
1070
    77
1070
     1
1070
    78
1070
     8
1070
   140
1040
15.590552
1070
   147
1040
0.0
1070
   173
1070
     1
1070
   176
1070
     4
1070
   177
1070
     4
1070
   178
1070
     7
1070
   271
1070
     1
1070
   277
1070
     2
1070
   279
1070
     2
1070
   280
1070
     0
1070
   287
1070
     5
1070
   340
1005
31C
1002
}
  0
DIMENSION
  5
345
330
1F
100
AcDbEntity
  8
LAY-20
  6
CONTINUOUS
 62
     4
100
AcDbDimension
  2
*D18
 10
990.0
 20
212.8
 30
0.0
 11
684.0
 21
225.3
 31
0.0
 70
   160
  1
□<>
  3
ISO-25
100
AcDbAlignedDimension
 13
378.0
 23
297.8
 33
0.0
 14
990.0
 24
211.0
 34
0.0
100
AcDbRotatedDimension
1001
ACAD
1000
DSTYLE
1002
{
1070
   270
1070
     2
1070
     6
1000
EX_BNORM
1070
     7
1000
EX_NONE
1070
    41
1040
15.0
1070
    42
1040
7.5
1070
    44
1040
7.5
1070
    73
1070
     0
1070
    74
1070
     0
1070
    75
1070
     0
1070
    76
1070
     1
1070
    77
1070
     1
1070
    78
1070
     8
1070
   140
1040
15.590552
1070
   147
1040
0.0
1070
   173
1070
     1
1070
   176
1070
     4
1070
   177
1070
     4
1070
   178
1070
     7
1070
   271
1070
     1
1070
   277
1070
     2
1070
   279
1070
     2
1070
   280
1070
     0
1070
   287
1070
     5
1070
   340
1005
31C
1002
}
  0
DIMENSION
  5
351
330
1F
100
AcDbEntity
  8
LAY-20
  6
CONTINUOUS
 62
     4
100
AcDbDimension
  2
*D19
 10
1140.5
 20
359.8
 30
0.0
 11
1128.0
 21
328.8
 31
0.0
 70
   160
  3
ISO-25
100
AcDbAlignedDimension
 13
1093.5
 23
297.8
 33
0.0
 14
1003.5419262234
 24
359.8
 34
0.0
 50
90.0
100
AcDbRotatedDimension
1001
ACAD
1000
DSTYLE
1002
{
1070
   270
1070
     2
1070
     6
1000
EX_BNORM
1070
     7
1000
EX_BNORM
1070
    41
1040
15.0
1070
    42
1040
7.5
1070
    44
1040
7.5
1070
    73
1070
     0
1070
    74
1070
     0
1070
    75
1070
     0
1070
    76
1070
     0
1070
    77
1070
     1
1070
    78
1070
     8
1070
   140
1040
15.590552
1070
   147
1040
0.0
1070
   173
1070
     1
1070
   176
1070
     4
1070
   177
1070
     4
1070
   178
1070
     7
1070
   271
1070
     1
1070
   277
1070
     2
1070
   279
1070
     2
1070
   280
1070
     0
1070
   287
1070
     5
1070
   340
1005
31C
1002
}
  0
LINE
  5
35E
330
1F
100
AcDbEntity
  8
LAY-20
  6
CENTER
 62
     2
100
AcDbLine
 10
517.5000000000103
 20
327.4000000001028
 30
0.0
 11
517.5000000000103
 21
363.8302511680211
 31
0.0
  0
LINE
  5
35F
330
1F
100
AcDbEntity
  8
LAY-20
  6
CENTER
 62
     2
100
AcDbLine
 10
470.5000000000114
 20
327.4000000001028
 30
0.0
 11
470.5000000000112
 21
363.0098631163961
 31
0.0
  0
LINE
  5
360
330
1F
100
AcDbEntity
  8
LAY-20
  6
CENTER
 62
     2
100
AcDbLine
 10
436.50000000001
 20
327.000000000096
 30
0.0
 11
536.2000000000102
 21
327.000000000096
 31
0.0
  0
LINE
  5
361
330
1F
100
AcDbEntity
  8
LAY-20
  6
CENTER
 62
     2
100
AcDbLine
 10
502.0000000000114
 20
338.0000000001043
 30
0.0
 11
502.0000000000114
 21
363.5596976616341
 31
0.0
  0
LINE
  5
362
330
1F
100
AcDbEntity
  8
LAY-20
  6
CENTER
 62
     2
100
AcDbLine
 10
494.0000000000109
 20
363.4200571422085
 30
0.0
 11
494.0000000000109
 21
306.0000000001008
 31
0.0
  0
LINE
  5
363
330
1F
100
AcDbEntity
  8
LAY-20
  6
HIDDEN
 62
     7
100
AcDbLine
 10
458.4586187349501
 20
349.000000000084
 30
0.0
 11
535.54138126515
 21
349.000000000084
 31
0.0
  0
LINE
  5
364
330
1F
100
AcDbEntity
  8
LAY-20
  6
HIDDEN
 62
     7
100
AcDbLine
 10
461.38757935545
 20
345.500000000094
 30
0.0
 11
485.00000000001
 21
345.500000000094
 31
0.0
  0
LINE
  5
365
330
1F
100
AcDbEntity
  8
LAY-20
  6
HIDDEN
 62
     7
100
AcDbLine
 10
521.5000000000101
 20
343.0000000001009
 30
0.0
 11
521.5000000000101
 21
338.0000000001017
 31
0.0
  0
LINE
  5
366
330
1F
100
AcDbEntity
  8
LAY-20
  6
HIDDEN
 62
     7
100
AcDbLine
 10
513.5000000000106
 20
343.0000000001009
 30
0.0
 11
513.5000000000106
 21
338.0000000001017
 31
0.0
  0
LINE
  5
367
330
1F
100
AcDbEntity
  8
LAY-20
  6
HIDDEN
 62
     7
100
AcDbLine
 10
474.50000000001
 20
343.0000000001009
 30
0.0
 11
474.50000000001
 21
338.0000000001017
 31
0.0
  0
LINE
  5
368
330
1F
100
AcDbEntity
  8
LAY-20
  6
HIDDEN
 62
     7
100
AcDbLine
 10
466.5000000000105
 20
343.0000000001009
 30
0.0
 11
466.5000000000105
 21
338.0000000001017
 31
0.0
  0
ARC
  5
369
330
1F
100
AcDbEntity
  8
LAY-20
  6
HIDDEN
 62
     7
100
AcDbCircle
 10
435.3038475772855
 20
327.0000000000931
 30
0.0
 40
10.39230484542481
100
AcDbArc
 50
300.0000000001406
 51
59.99999999992313
  0
ARC
  5
36A
330
1F
100
AcDbEntity
  8
LAY-20
  6
HIDDEN
 62
     7
100
AcDbCircle
 10
435.0339873318596
 20
327.0000000001011
 30
0.0
 40
9.162165090850557
100
AcDbArc
 50
299.1725081650565
 51
60.82749183494314
  0
LINE
  5
36B
330
1F
100
AcDbEntity
  8
LAY-20
  6
HIDDEN
 62
     7
100
AcDbLine
 10
440.5000000000155
 20
318.0000000001012
 30
0.0
 11
439.50000000001
 21
319.0000000001064
 31
0.0
  0
LINE
  5
36C
330
1F
100
AcDbEntity
  8
LAY-20
  6
HIDDEN
 62
     7
100
AcDbLine
 10
468.5000000000109
 20
356.4000000001017
 30
0.0
 11
472.5000000000114
 21
356.4000000001017
 31
0.0
  0
LINE
  5
36D
330
1F
100
AcDbEntity
  8
LAY-20
  6
HIDDEN
 62
     7
100
AcDbLine
 10
467.5000000000109
 20
355.4000000001017
 30
0.0
 11
473.5000000000114
 21
355.4000000001017
 31
0.0
  0
LINE
  5
36E
330
1F
100
AcDbEntity
  8
LAY-20
  6
HIDDEN
 62
     7
100
AcDbLine
 10
473.50000000001
 20
355.4000000001021
 30
0.0
 11
473.50000000001
 21
338.000000000102
 31
0.0
  0
LINE
  5
36F
330
1F
100
AcDbEntity
  8
LAY-20
  6
HIDDEN
 62
     7
100
AcDbLine
 10
467.50000000001
 20
355.4000000001021
 30
0.0
 11
467.50000000001
 21
338.000000000102
 31
0.0
  0
LINE
  5
370
330
1F
100
AcDbEntity
  8
LAY-20
  6
HIDDEN
 62
     7
100
AcDbLine
 10
467.50000000001
 20
355.4000000001021
 30
0.0
 11
468.50000000001
 21
356.4000000001021
 31
0.0
  0
LINE
  5
371
330
1F
100
AcDbEntity
  8
LAY-20
  6
HIDDEN
 62
     7
100
AcDbLine
 10
472.50000000001
 20
356.4000000001021
 30
0.0
 11
473.50000000001
 21
355.4000000001021
 31
0.0
  0
LINE
  5
372
330
1F
100
AcDbEntity
  8
LAY-20
  6
HIDDEN
 62
     7
100
AcDbLine
 10
472.50000000001
 20
356.4000000001021
 30
0.0
 11
472.50000000001
 21
338.000000000102
 31
0.0
  0
LINE
  5
373
330
1F
100
AcDbEntity
  8
LAY-20
  6
HIDDEN
 62
     7
100
AcDbLine
 10
468.50000000001
 20
356.4000000001021
 30
0.0
 11
468.50000000001
 21
338.000000000102
 31
0.0
  0
LINE
  5
374
330
1F
100
AcDbEntity
  8
LAY-20
  6
HIDDEN
 62
     7
100
AcDbLine
 10
515.500000000011
 20
356.4000000001017
 30
0.0
 11
519.5000000000115
 21
356.4000000001017
 31
0.0
  0
LINE
  5
375
330
1F
100
AcDbEntity
  8
LAY-20
  6
HIDDEN
 62
     7
100
AcDbLine
 10
514.500000000011
 20
355.4000000001017
 30
0.0
 11
520.5000000000115
 21
355.4000000001017
 31
0.0
  0
LINE
  5
376
330
1F
100
AcDbEntity
  8
LAY-20
  6
HIDDEN
 62
     7
100
AcDbLine
 10
520.5000000000101
 20
355.4000000001021
 30
0.0
 11
520.5000000000101
 21
338.000000000102
 31
0.0
  0
LINE
  5
377
330
1F
100
AcDbEntity
  8
LAY-20
  6
HIDDEN
 62
     7
100
AcDbLine
 10
514.5000000000101
 20
355.4000000001021
 30
0.0
 11
514.5000000000101
 21
338.000000000102
 31
0.0
  0
LINE
  5
378
330
1F
100
AcDbEntity
  8
LAY-20
  6
HIDDEN
 62
     7
100
AcDbLine
 10
514.5000000000101
 20
355.4000000001021
 30
0.0
 11
515.5000000000101
 21
356.4000000001021
 31
0.0
  0
LINE
  5
379
330
1F
100
AcDbEntity
  8
LAY-20
  6
HIDDEN
 62
     7
100
AcDbLine
 10
519.5000000000101
 20
356.4000000001021
 30
0.0
 11
520.5000000000101
 21
355.4000000001021
 31
0.0
  0
LINE
  5
37A
330
1F
100
AcDbEntity
  8
LAY-20
  6
HIDDEN
 62
     7
100
AcDbLine
 10
519.5000000000101
 20
356.4000000001021
 30
0.0
 11
519.5000000000101
 21
338.000000000102
 31
0.0
  0
LINE
  5
37B
330
1F
100
AcDbEntity
  8
LAY-20
  6
HIDDEN
 62
     7
100
AcDbLine
 10
515.5000000000101
 20
356.4000000001021
 30
0.0
 11
515.5000000000101
 21
338.000000000102
 31
0.0
  0
LINE
  5
37C
330
1F
100
AcDbEntity
  8
LAY-20
  6
HIDDEN
 62
     7
100
AcDbLine
 10
440.5000000000101
 20
318.0000000000961
 30
0.0
 11
440.5000000000102
 21
332.9999999999789
 31
0.0
  0
LINE
  5
37D
330
1F
100
AcDbEntity
  8
LAY-20
  6
HIDDEN
 62
     7
100
AcDbLine
 10
439.50000000001
 20
319.000000000106
 30
0.0
 11
439.5000000000105
 21
332.9999999999789
 31
0.0
  0
LINE
  5
37E
330
1F
100
AcDbEntity
  8
LAY-20
  6
HIDDEN
 62
     7
100
AcDbLine
 10
440.50000000002
 20
318.0000000000961
 30
0.0
 11
444.47120418847
 21
318.0000000000961
 31
0.0
  0
LINE
  5
37F
330
1F
100
AcDbEntity
  8
LAY-20
  6
HIDDEN
 62
     7
100
AcDbLine
 10
520.5000000000115
 20
358.251322555718
 30
0.0
 11
520.5000000000115
 21
355.4000000001021
 31
0.0
  0
LINE
  5
380
330
1F
100
AcDbEntity
  8
LAY-20
  6
HIDDEN
 62
     7
100
AcDbLine
 10
519.5000000000115
 20
358.2338674907899
 30
0.0
 11
519.5000000000115
 21
356.4000000001021
 31
0.0
  0
LINE
  5
381
330
1F
100
AcDbEntity
  8
LAY-20
  6
HIDDEN
 62
     7
100
AcDbLine
 10
515.500000000011
 20
358.1640472310771
 30
0.0
 11
515.500000000011
 21
356.4000000001021
 31
0.0
  0
LINE
  5
382
330
1F
100
AcDbEntity
  8
LAY-20
  6
HIDDEN
 62
     7
100
AcDbLine
 10
514.500000000011
 20
358.146592166149
 30
0.0
 11
514.500000000011
 21
355.4000000001021
 31
0.0
  0
LINE
  5
383
330
1F
100
AcDbEntity
  8
LAY-20
  6
HIDDEN
 62
     7
100
AcDbLine
 10
473.5000000000114
 20
357.4309345040935
 30
0.0
 11
473.5000000000114
 21
355.4000000001021
 31
0.0
  0
LINE
  5
384
330
1F
100
AcDbEntity
  8
LAY-20
  6
HIDDEN
 62
     7
100
AcDbLine
 10
472.5000000000114
 20
357.4134794391653
 30
0.0
 11
472.5000000000114
 21
356.4000000001021
 31
0.0
  0
LINE
  5
385
330
1F
100
AcDbEntity
  8
LAY-20
  6
HIDDEN
 62
     7
100
AcDbLine
 10
468.5000000000109
 20
357.3436591794526
 30
0.0
 11
468.5000000000109
 21
356.4000000001021
 31
0.0
  0
LINE
  5
386
330
1F
100
AcDbEntity
  8
LAY-20
  6
HIDDEN
 62
     7
100
AcDbLine
 10
467.5000000000109
 20
357.3262041145243
 30
0.0
 11
467.5000000000109
 21
355.4000000001021
 31
0.0
  0
LINE
  5
387
330
1F
100
AcDbEntity
  8
LAY-20
  6
HIDDEN
 62
     7
100
AcDbLine
 10
485.00000000001
 20
345.500000000094
 30
0.0
 11
532.61242064467
 21
345.500000000094
 31
0.0
  0
LINE
  5
388
330
1F
100
AcDbEntity
  8
LAY-20
  6
CONTINUOUS
 62
     7
100
AcDbLine
 10
482.5000000000166
 20
343.0000000001003
 30
0.0
 11
485.0000000000111
 21
345.5000000000948
 31
0.0
  0
ARC
  5
389
330
1F
100
AcDbEntity
  8
LAY-20
  6
CONTINUOUS
 62
     7
100
AcDbCircle
 10
485.00000000001
 20
344.000000000101
 30
0.0
 40
1.0
100
AcDbArc
 50
270.0
 51
0.0
  0
CIRCLE
  5
38A
330
1F
100
AcDbEntity
  8
LAY-20
  6
CONTINUOUS
 62
     7
100
AcDbCircle
 10
484.2500000000101
 20
344.7500000001038
 30
0.0
 40
1.75
  0
LINE
  5
38B
330
1F
100
AcDbEntity
  8
LAY-20
  6
CONTINUOUS
 62
     7
100
AcDbLine
 10
489.000000000013
 20
354.0432028414147
 30
0.0
 11
492.0000000000102
 21
351.7412218774798
 31
0.0
  0
LINE
  5
38C
330
1F
100
AcDbEntity
  8
LAY-20
  6
CONTINUOUS
 62
     7
100
AcDbLine
 10
493.0000000000044
 20
354.0000000001011
 30
0.0
 11
493.0000000000044
 21
351.000000000101
 31
0.0
  0
LINE
  5
38D
330
1F
100
AcDbEntity
  8
LAY-20
  6
CONTINUOUS
 62
     7
100
AcDbLine
 10
492.0000000000043
 20
351.7412218774842
 30
0.0
 11
492.0000000000043
 21
351.000000000101
 31
0.0
  0
LINE
  5
38E
330
1F
100
AcDbEntity
  8
LAY-20
  6
CONTINUOUS
 62
     7
100
AcDbLine
 10
491.0000000000043
 20
352.5085488654631
 30
0.0
 11
491.0000000000043
 21
351.000000000101
 31
0.0
  0
CIRCLE
  5
38F
330
1F
100
AcDbEntity
  8
LAY-20
  6
CONTINUOUS
 62
     7
100
AcDbCircle
 10
491.8000000000002
 20
352.800000000101
 30
0.0
 40
1.199999999999989
  0
LINE
  5
390
330
1F
100
AcDbEntity
  8
LAY-20
  6
CONTINUOUS
 62
     7
100
AcDbLine
 10
492.0000000000043
 20
351.000000000101
 30
0.0
 11
492.0000000000043
 21
344.0000000001011
 31
0.0
  0
LINE
  5
391
330
1F
100
AcDbEntity
  8
LAY-20
  6
CONTINUOUS
 62
     7
100
AcDbLine
 10
491.0000000000043
 20
344.5773502692907
 30
0.0
 11
491.0000000000043
 21
343.0000000001009
 31
0.0
  0
LINE
  5
392
330
1F
100
AcDbEntity
  8
LAY-20
  6
CONTINUOUS
 62
     7
100
AcDbLine
 10
512.0000000000044
 20
351.000000000101
 30
0.0
 11
512.0000000000044
 21
344.0000000001011
 31
0.0
  0
LINE
  5
393
330
1F
100
AcDbEntity
  8
LAY-20
  6
CONTINUOUS
 62
     7
100
AcDbLine
 10
513.0000000000044
 20
344.5773502692906
 30
0.0
 11
513.0000000000044
 21
343.0000000001011
 31
0.0
  0
LINE
  5
394
330
1F
100
AcDbEntity
  8
LAY-20
  6
CONTINUOUS
 62
     7
100
AcDbLine
 10
513.0000000000044
 20
352.5085488654543
 30
0.0
 11
513.0000000000044
 21
351.000000000101
 31
0.0
  0
CIRCLE
  5
395
330
1F
100
AcDbEntity
  8
LAY-20
  6
CONTINUOUS
 62
     7
100
AcDbCircle
 10
512.2000000000102
 20
352.800000000101
 30
0.0
 40
1.199999999999989
  0
LINE
  5
396
330
1F
100
AcDbEntity
  8
LAY-20
  6
CONTINUOUS
 62
     7
100
AcDbLine
 10
521.500000000006
 20
343.0000000001003
 30
0.0
 11
519.0000000000115
 21
345.5000000000948
 31
0.0
  0
ARC
  5
397
330
1F
100
AcDbEntity
  8
LAY-20
  6
CONTINUOUS
 62
     7
100
AcDbCircle
 10
519.0000000000101
 20
344.0000000001008
 30
0.0
 40
1.0
100
AcDbArc
 50
180.0
 51
270.0
  0
CIRCLE
  5
398
330
1F
100
AcDbEntity
  8
LAY-20
  6
CONTINUOUS
 62
     7
100
AcDbCircle
 10
519.7500000000127
 20
344.7500000001038
 30
0.0
 40
1.75
  0
LINE
  5
399
330
1F
100
AcDbEntity
  8
LAY-255
  6
CONTINUOUS
 62
     7
100
AcDbLine
 10
1925.0
 20
110.0
 30
0.0
 11
1425.0
 21
110.0
 31
0.0
  0
LINE
  5
39A
330
1F
100
AcDbEntity
  8
LAY-255
  6
CONTINUOUS
 62
     7
100
AcDbLine
 10
1444.0
 20
79.99999999999999
 30
0.0
 11
1484.0
 21
105.0
 31
0.0
  0
LINE
  5
39B
330
1F
100
AcDbEntity
  8
LAY-255
  6
CONTINUOUS
 62
     7
100
AcDbLine
 10
1484.0
 20
105.0
 30
0.0
 11
1524.0
 21
79.99999999999999
 31
0.0
  0
LINE
  5
39C
330
1F
100
AcDbEntity
  8
LAY-255
  6
CONTINUOUS
 62
     7
100
AcDbLine
 10
1524.0
 20
79.99999999999999
 30
0.0
 11
1484.0
 21
55.0
 31
0.0
  0
LINE
  5
39D
330
1F
100
AcDbEntity
  8
LAY-255
  6
CONTINUOUS
 62
     7
100
AcDbLine
 10
1484.0
 20
55.0
 30
0.0
 11
1444.0
 21
79.99999999999999
 31
0.0
  0
LINE
  5
39E
330
1F
100
AcDbEntity
  8
LAY-255
  6
CONTINUOUS
 62
     7
100
AcDbLine
 10
25.0
 20
50.0
 30
0.0
 11
1925.0
 21
50.0
 31
0.0
  0
LINE
  5
39F
330
1F
100
AcDbEntity
  8
LAY-255
  6
CONTINUOUS
 62
     7
100
AcDbLine
 10
25.0
 20
1400.0
 30
0.0
 11
1925.0
 21
1400.0
 31
0.0
  0
LINE
  5
3A0
330
1F
100
AcDbEntity
  8
LAY-255
  6
CONTINUOUS
 62
     7
100
AcDbLine
 10
25.0
 20
50.0
 30
0.0
 11
25.0
 21
1400.0
 31
0.0
  0
LINE
  5
3A1
330
1F
100
AcDbEntity
  8
LAY-255
  6
CONTINUOUS
 62
     7
100
AcDbLine
 10
1925.0
 20
50.0
 30
0.0
 11
1925.0
 21
1400.0
 31
0.0
  0
LINE
  5
3A2
330
1F
100
AcDbEntity
  8
LAY-255
  6
CONTINUOUS
 62
     4
100
AcDbLine
 10
1425.0
 20
140.0
 30
0.0
 11
1925.0
 21
140.0
 31
0.0
  0
LINE
  5
3A3
330
1F
100
AcDbEntity
  8
LAY-255
  6
CONTINUOUS
 62
     7
100
AcDbLine
 10
1425.0
 20
50.0
 30
0.0
 11
1425.0
 21
335.0
 31
0.0
  0
LINE
  5
3A4
330
1F
100
AcDbEntity
  8
LAY-255
  6
CONTINUOUS
 62
     4
100
AcDbLine
 10
1675.0
 20
140.0
 30
0.0
 11
1675.0
 21
110.0
 31
0.0
  0
LINE
  5
3A5
330
1F
100
AcDbEntity
  8
LAY-255
  6
CONTINUOUS
 62
     7
100
AcDbLine
 10
1925.0
 20
335.0
 30
0.0
 11
1425.0
 21
335.0
 31
0.0
  0
LINE
  5
3A6
330
1F
100
AcDbEntity
  8
LAY-255
  6
CONTINUOUS
 62
     4
100
AcDbLine
 10
1915.0
 20
275.0
 30
0.0
 11
1435.0
 21
275.0
 31
0.0
  0
LINE
  5
3A7
330
1F
100
AcDbEntity
  8
LAY-255
  6
CONTINUOUS
 62
     4
100
AcDbLine
 10
1915.0
 20
305.0
 30
0.0
 11
1435.0
 21
305.0
 31
0.0
  0
POINT
  5
3A8
330
1F
100
AcDbEntity
  8
LAY-255
  6
CONTINUOUS
 62
     7
100
AcDbPoint
 10
1445.0
 20
250.0
 30
0.0
  0
POINT
  5
3A9
330
1F
100
AcDbEntity
  8
LAY-255
  6
CONTINUOUS
 62
     7
100
AcDbPoint
 10
1500.0
 20
280.0
 30
0.0
  0
POINT
  5
3AA
330
1F
100
AcDbEntity
  8
LAY-255
  6
CONTINUOUS
 62
     7
100
AcDbPoint
 10
1500.0
 20
310.0
 30
0.0
  0
POINT
  5
3AB
330
1F
100
AcDbEntity
  8
LAY-255
  6
CONTINUOUS
 62
     7
100
AcDbPoint
 10
1445.0
 20
200.0
 30
0.0
  0
POINT
  5
3AC
330
1F
100
AcDbEntity
  8
LAY-255
  6
CONTINUOUS
 62
     7
100
AcDbPoint
 10
1445.0
 20
225.0
 30
0.0
  0
POINT
  5
3AD
330
1F
100
AcDbEntity
  8
LAY-255
  6
CONTINUOUS
 62
     7
100
AcDbPoint
 10
1445.0
 20
174.9999999999999
 30
0.0
  0
POINT
  5
3AE
330
1F
100
AcDbEntity
  8
LAY-255
  6
CONTINUOUS
 62
     7
100
AcDbPoint
 10
1445.0
 20
149.9999999999999
 30
0.0
  0
TEXT
  5
3AF
330
1F
100
AcDbEntity
  8
LAY-255
  6
CONTINUOUS
 62
     7
100
AcDbText
 10
1540.691894370117
 20
77.71874999999999
 30
0.0
 40
25.78125
  1
福西鋳物株式会社
 41
1.342691871783662
  7
EXCADSTD
100
AcDbText
  0
TEXT
  5
3B0
330
1F
100
AcDbEntity
  8
LAY-255
  6
CONTINUOUS
 62
     7
100
AcDbText
 10
1542.546875
 20
59.90624999999999
 30
0.0
 40
8.59375
  1
ＦＵＫＵＮＩＳＨＩ
 41
1.204799226045263
  7
EXCADSTD
100
AcDbText
  0
TEXT
  5
3B1
330
1F
100
AcDbEntity
  8
LAY-255
  6
CONTINUOUS
 62
     7
100
AcDbText
 10
1663.595982142857
 20
59.90624999999999
 30
0.0
 40
8.59375
  1
ＦＯＵＮＤＲＹ
 41
1.243252752978497
  7
EXCADSTD
100
AcDbText
  0
TEXT
  5
3B2
330
1F
100
AcDbEntity
  8
LAY-255
  6
CONTINUOUS
 62
     7
100
AcDbText
 10
1759.97295734375
 20
59.90624999999999
 30
0.0
 40
8.59375
  1
ＣＯ.,ＬＴＤ.
 41
1.243831100341625
  7
EXCADSTD
100
AcDbText
  0
TEXT
  5
3B3
330
1F
100
AcDbEntity
  8
LAY-255
  6
CONTINUOUS
 62
     7
100
AcDbText
 10
1470.171875
 20
68.59375
 30
0.0
 40
25.78125
  1
S
 41
0.7582677563636363
  7
EXCADSTD
100
AcDbText
  0
TEXT
  5
3B4
330
1F
100
AcDbEntity
  8
LAY-255
  6
CONTINUOUS
 62
     7
100
AcDbText
 10
1485.5234375
 20
68.7470518868
 30
0.0
 40
25.78125
  1
F
 41
0.7440945272727272
  7
EXCADSTD
100
AcDbText
  0
TEXT
  5
3B5
330
1F
100
AcDbEntity
  8
LAY-255
  6
CONTINUOUS
 62
     7
100
AcDbText
 10
1685.52734375
 20
122.1093749999999
 30
0.0
 40
12.890625
  1
縮尺
 41
1.080708718181818
  7
EXCADSTD
100
AcDbText
  0
TEXT
  5
3B6
330
1F
100
AcDbEntity
  8
LAY-255
  6
CONTINUOUS
 62
     7
100
AcDbText
 10
1436.328125
 20
282.8125
 30
0.0
 40
17.1875
  1
型式
 41
1.056348480681818
  7
EXCADSTD
100
AcDbText
  0
TEXT
  5
3B7
330
1F
100
AcDbEntity
  8
LAY-255
  6
CONTINUOUS
 62
     7
100
AcDbText
 10
1437.109375
 20
312.8125
 30
0.0
 40
17.1875
  1
品名
 41
0.9788386340909091
  7
EXCADSTD
100
AcDbText
  0
TEXT
  5
3B8
330
1F
100
AcDbEntity
  8
LAY-255
  6
CONTINUOUS
 62
     7
100
AcDbText
 10
1435.76171875
 20
122.1093749999999
 30
0.0
 40
12.890625
  1
作成日
 41
1.000629973818182
  7
EXCADSTD
100
AcDbText
  0
TEXT
  5
3B9
330
1F
100
AcDbEntity
  8
LAY-255
  6
CONTINUOUS
 62
     7
100
AcDbText
 10
1447.265625
 20
252.8125000000001
 30
0.0
 40
17.1875
  1
区分：中荷重用
 41
1.007228657526081
  7
EXCADSTD
100
AcDbText
  0
TEXT
  5
3BA
330
1F
100
AcDbEntity
  8
LAY-255
  6
CONTINUOUS
 62
     7
100
AcDbText
 10
1741.40625
 20
117.8124999999999
 30
0.0
 40
17.1875
  1
１：５
 41
0.888661464
  7
EXCADSTD
100
AcDbText
  0
TEXT
  5
3BB
330
1F
100
AcDbEntity
  8
LAY-255
  6
CONTINUOUS
 62
     7
100
AcDbText
 10
1501.953125
 20
312.8125
 30
0.0
 40
17.1875
  1
マンホールカバー
 41
1.015410627012987
  7
EXCADSTD
100
AcDbText
  0
TEXT
  5
3BC
330
1F
100
AcDbEntity
  8
LAY-255
  6
CONTINUOUS
 62
     7
100
AcDbText
 10
1445.703125
 20
227.8125
 30
0.0
 40
17.1875
  1
構造：回転ロック方式
 41
1.019908786570248
  7
EXCADSTD
100
AcDbText
  0
TEXT
  5
3BD
330
1F
100
AcDbEntity
  8
LAY-255
  6
CONTINUOUS
 62
     7
100
AcDbText
 10
1446.875
 20
177.8124999999999
 30
0.0
 40
17.1875
  1
受枠：水抜穴付
 41
1.018265188375559
  7
EXCADSTD
100
AcDbText
  0
TEXT
  5
3BE
330
1F
100
AcDbEntity
  8
LAY-255
  6
CONTINUOUS
 62
     7
100
AcDbText
 10
1445.703125
 20
202.8125
 30
0.0
 40
17.1875
  1
機能：施錠装置付
 41
1.024521988571429
  7
EXCADSTD
100
AcDbText
  0
TEXT
  5
3BF
330
1F
100
AcDbEntity
  8
LAY-255
  6
CONTINUOUS
 62
     7
100
AcDbText
 10
1506.40625
 20
117.8124999999999
 30
0.0
 40
17.1875
  1
１３／１０／１７
 41
0.9607424576623377
  7
EXCADSTD
100
AcDbText
  0
TEXT
  5
3C0
330
1F
100
AcDbEntity
  8
LAY-255
  6
CONTINUOUS
 62
     7
100
AcDbText
 10
1503.75
 20
282.8125
 30
0.0
 40
17.1875
  1
ＳＦ－５０ＬＫＢ型
 41
1.00333903406214
  7
EXCADSTD
100
AcDbText
  0
TEXT
  5
3C1
330
1F
100
AcDbEntity
  8
LAY-255
  6
CONTINUOUS
 62
     7
100
AcDbText
 10
1445.859375
 20
152.8124999999999
 30
0.0
 40
17.1875
  1
破壊荷重：６０ｋＮ以上
 41
1.016600426804124
  7
EXCADSTD
100
AcDbText
  0
ENDSEC
  0
SECTION
  2
OBJECTS
  0
DICTIONARY
  5
C
330
0
100
AcDbDictionary
  3
ACAD_GROUP
350
D
  3
ACAD_LAYOUT
350
1A
  3
ACAD_MATERIAL
350
43
  3
ACAD_MLEADERSTYLE
350
6B
  3
ACAD_MLINESTYLE
350
17
  3
ACAD_PLOTSETTINGS
350
19
  3
ACAD_SCALELIST
350
47
  3
ACAD_VISUALSTYLE
350
2A
  3
ACDBHEADERROUNDTRIPXREC
350
3C2
  3
ACDBVARIABLEDICTIONARY
350
3E3
  0
DICTIONARY
  5
3EE
330
8
100
AcDbDictionary
280
     1
  3
ACAD_XREC_ROUNDTRIP
360
3EF
  0
DICTIONARY
  5
D
102
{ACAD_REACTORS
330
C
102
}
330
C
100
AcDbDictionary
  0
DICTIONARY
  5
1A
102
{ACAD_REACTORS
330
C
102
}
330
C
100
AcDbDictionary
  0
DICTIONARY
  5
43
102
{ACAD_REACTORS
330
C
102
}
330
C
100
AcDbDictionary
  3
BYBLOCK
350
45
  3
BYLAYER
350
44
  3
GLOBAL
350
46
  0
DICTIONARY
  5
6B
102
{ACAD_REACTORS
330
C
102
}
330
C
100
AcDbDictionary
  3
STANDARD
350
6C
  0
DICTIONARY
  5
17
102
{ACAD_REACTORS
330
C
102
}
330
C
100
AcDbDictionary
  3
STANDARD
350
18
  0
DICTIONARY
  5
19
102
{ACAD_REACTORS
330
C
102
}
330
C
100
AcDbDictionary
  0
DICTIONARY
  5
47
102
{ACAD_REACTORS
330
C
102
}
330
C
100
AcDbDictionary
  3
A0
350
48
  3
A1
350
49
  3
A2
350
4A
  3
A3
350
4B
  3
A4
350
4C
  3
A5
350
4D
  3
A6
350
4E
  3
A7
350
4F
  3
A8
350
50
  3
A9
350
51
  3
B0
350
52
  3
B1
350
53
  3
B2
350
54
  3
B3
350
55
  3
B4
350
56
  3
B5
350
57
  3
B6
350
58
  3
B7
350
59
  3
B8
350
5A
  3
B9
350
5B
  3
C0
350
5C
  3
C1
350
5D
  3
C2
350
5E
  3
C3
350
5F
  3
C4
350
60
  3
C5
350
61
  3
C6
350
62
  3
C7
350
63
  3
C8
350
64
  3
C9
350
65
  3
D0
350
66
  3
D1
350
67
  3
D2
350
68
  0
DICTIONARY
  5
2A
102
{ACAD_REACTORS
330
C
102
}
330
C
100
AcDbDictionary
  3
2DWIREFRAME
350
2F
  3
BASIC
350
32
  3
BRIGHTEN
350
36
  3
COLORCHANGE
350
3A
  3
CONCEPTUAL
350
34
  3
DIM
350
35
  3
EDGECOLOROFF
350
3D
  3
FACEPATTERN
350
39
  3
FLAT
350
2B
  3
FLATWITHEDGES
350
2C
  3
GOURAUD
350
2D
  3
GOURAUDWITHEDGES
350
2E
  3
HIDDEN
350
31
  3
JITTEROFF
350
3B
  3
LINEPATTERN
350
38
  3
OVERHANGOFF
350
3C
  3
REALISTIC
350
33
  3
SHADED
350
42
  3
SHADED_WITH_EDGES
350
41
  3
SHADES_OF_GRAY
350
3E
  3
SKETCHY
350
3F
  3
THICKEN
350
37
  3
WIREFRAME
350
30
  3
X-RAY
350
40
  0
DICTIONARY
  5
3C2
102
{ACAD_REACTORS
330
C
102
}
330
C
100
AcDbDictionary
  3
CEPSNID
350
3CC
  3
CEPSNTYPE
350
3CB
  3
DIMSTYLEDATA
350
3E2
  3
FINGERPRINTGUID
350
3CD
  3
HYPERLINKBASE
350
3C5
  3
INSUNITS
350
3CA
  3
LAYOUTDICT
350
3C7
  3
LWETCUNION
350
3C9
  3
PLOTSETDICT
350
3C8
  3
PSVPSCALE
350
3CF
  3
PUCSBASE
350
3D2
  3
PUCSORGBACK
350
3D8
  3
PUCSORGBOTTOM
350
3D4
  3
PUCSORGFRONT
350
3D7
  3
PUCSORGLEFT
350
3D5
  3
PUCSORGRIGHT
350
3D6
  3
PUCSORGTOP
350
3D3
  3
PUCSORTHOREF
350
3D0
  3
PUCSORTHOVIEW
350
3D1
  3
STYLESHEET
350
3C6
  3
TSTACKALIGN
350
3C3
  3
TSTACKSIZE
350
3C4
  3
UCSBASE
350
3DB
  3
UCSORGBACK
350
3E1
  3
UCSORGBOTTOM
350
3DD
  3
UCSORGFRONT
350
3E0
  3
UCSORGLEFT
350
3DE
  3
UCSORGRIGHT
350
3DF
  3
UCSORGTOP
350
3DC
  3
UCSORTHOREF
350
3D9
  3
UCSORTHOVIEW
350
3DA
  3
VERSIONGUID
350
3CE
  0
DICTIONARY
  5
3E3
102
{ACAD_REACTORS
330
C
102
}
330
C
100
AcDbDictionary
  3
CANNOSCALE
350
3F0
  3
CENTEREXE
350
3EA
  3
CENTERLTYPEFILE
350
3EB
  3
CMLEADERSTYLE
350
3E5
  3
CTABLESTYLE
350
3E4
  3
DIMASSOC
350
3EC
  3
HIDETEXT
350
3ED
  3
MSLTSCALE
350
3F1
  3
PSOLHEIGHT
350
3E7
  3
PSOLWIDTH
350
3E6
  0
XRECORD
  5
3EF
102
{ACAD_REACTORS
330
3EE
102
}
330
3EE
100
AcDbXrecord
102
VTR_0.000_0.000_1.000_1.000_VISUALSTYLE
340
2F
102
VTR_0.000_0.000_1.000_1.000_GRIDDISPLAY
 70
     3
102
VTR_0.000_0.000_1.000_1.000_GRIDMAJOR
 70
     5
102
VTR_0.000_0.000_1.000_1.000_DEFAULTLIGHTING
280
     1
102
VTR_0.000_0.000_1.000_1.000_DEFAULTLIGHTINGTYPE
 70
     1
102
VTR_0.000_0.000_1.000_1.000_BRIGHTNESS
141
0.0
102
VTR_0.000_0.000_1.000_1.000_CONTRAST
142
0.0
  0
MATERIAL
  5
45
102
{ACAD_REACTORS
330
43
102
}
102
{ACAD_XDICTIONARY
360
3F4
102
}
330
43
100
AcDbMaterial
  1
BYBLOCK
  0
MATERIAL
  5
44
102
{ACAD_REACTORS
330
43
102
}
102
{ACAD_XDICTIONARY
360
3F2
102
}
330
43
100
AcDbMaterial
  1
BYLAYER
  0
MATERIAL
  5
46
102
{ACAD_REACTORS
330
43
102
}
102
{ACAD_XDICTIONARY
360
3F6
102
}
330
43
100
AcDbMaterial
  1
GLOBAL
  0
ACAD_PROXY_OBJECT
  5
6C
102
{ACAD_REACTORS
330
6B
102
}
330
6B
100
AcDbProxyObject
 90
      499
 91
      505
 93
      610
310
40901902A4063FBFFFFFE0000000000000020400000000000020404214DD185B99185C990000000000000104090141901A00000000000004100000000000000041025764000000000000039000
340
14
340
0
340
11
340
0
 94
        0
1001
ACAD_MLEADERVER
1070
     2
  0
MLINESTYLE
  5
18
102
{ACAD_REACTORS
330
17
102
}
330
17
100
AcDbMlineStyle
  2
Standard
 70
     0
  3

 62
   256
 51
90.0
 52
90.0
 71
     2
 49
0.5
 62
   256
  6
BYLAYER
 49
-0.5
 62
   256
  6
BYLAYER
  0
ACAD_PROXY_OBJECT
  5
48
102
{ACAD_REACTORS
330
47
102
}
330
47
100
AcDbProxyObject
 90
      499
 91
      503
 93
       41
310
903313A31580
  0
ACAD_PROXY_OBJECT
  5
49
102
{ACAD_REACTORS
330
47
102
}
330
47
100
AcDbProxyObject
 90
      499
 91
      503
 93
      105
310
903313A324000000000000004000
  0
ACAD_PROXY_OBJECT
  5
4A
102
{ACAD_REACTORS
330
47
102
}
330
47
100
AcDbProxyObject
 90
      499
 91
      503
 93
      105
310
903313A344000000000000104000
  0
ACAD_PROXY_OBJECT
  5
4B
102
{ACAD_REACTORS
330
47
102
}
330
47
100
AcDbProxyObject
 90
      499
 91
      503
 93
      105
310
903313A354000000000000144000
  0
ACAD_PROXY_OBJECT
  5
4C
102
{ACAD_REACTORS
330
47
102
}
330
47
100
AcDbProxyObject
 90
      499
 91
      503
 93
      105
310
903313A384000000000000204000
  0
ACAD_PROXY_OBJECT
  5
4D
102
{ACAD_REACTORS
330
47
102
}
330
47
100
AcDbProxyObject
 90
      499
 91
      503
 93
      113
310
904313A31304000000000000244000
  0
ACAD_PROXY_OBJECT
  5
4E
102
{ACAD_REACTORS
330
47
102
}
330
47
100
AcDbProxyObject
 90
      499
 91
      503
 93
      113
310
904313A31364000000000000304000
  0
ACAD_PROXY_OBJECT
  5
4F
102
{ACAD_REACTORS
330
47
102
}
330
47
100
AcDbProxyObject
 90
      499
 91
      503
 93
      113
310
904313A32304000000000000344000
  0
ACAD_PROXY_OBJECT
  5
50
102
{ACAD_REACTORS
330
47
102
}
330
47
100
AcDbProxyObject
 90
      499
 91
      503
 93
      113
310
904313A333040000000000003E4000
  0
ACAD_PROXY_OBJECT
  5
51
102
{ACAD_REACTORS
330
47
102
}
330
47
100
AcDbProxyObject
 90
      499
 91
      503
 93
      113
310
904313A34304000000000000444000
  0
ACAD_PROXY_OBJECT
  5
52
102
{ACAD_REACTORS
330
47
102
}
330
47
100
AcDbProxyObject
 90
      499
 91
      503
 93
      113
310
904313A35304000000000000494000
  0
ACAD_PROXY_OBJECT
  5
53
102
{ACAD_REACTORS
330
47
102
}
330
47
100
AcDbProxyObject
 90
      499
 91
      503
 93
      121
310
905313A3130304000000000000594000
  0
ACAD_PROXY_OBJECT
  5
54
102
{ACAD_REACTORS
330
47
102
}
330
47
100
AcDbProxyObject
 90
      499
 91
      503
 93
      105
310
903323A310000000000000010100
  0
ACAD_PROXY_OBJECT
  5
55
102
{ACAD_REACTORS
330
47
102
}
330
47
100
AcDbProxyObject
 90
      499
 91
      503
 93
      105
310
903343A310000000000000410100
  0
ACAD_PROXY_OBJECT
  5
56
102
{ACAD_REACTORS
330
47
102
}
330
47
100
AcDbProxyObject
 90
      499
 91
      503
 93
      105
310
903383A310000000000000810100
  0
ACAD_PROXY_OBJECT
  5
57
102
{ACAD_REACTORS
330
47
102
}
330
47
100
AcDbProxyObject
 90
      499
 91
      503
 93
      113
310
90431303A310000000000000910100
  0
ACAD_PROXY_OBJECT
  5
58
102
{ACAD_REACTORS
330
47
102
}
330
47
100
AcDbProxyObject
 90
      499
 91
      503
 93
      121
310
9053130303A310000000000001650100
  0
ACAD_PROXY_OBJECT
  5
59
102
{ACAD_REACTORS
330
47
102
}
330
47
100
AcDbProxyObject
 90
      499
 91
      503
 93
      257
310
90E312F31323822203D2031272D3022000000000000200FC000000000000284000
  0
ACAD_PROXY_OBJECT
  5
5A
102
{ACAD_REACTORS
330
47
102
}
330
47
100
AcDbProxyObject
 90
      499
 91
      503
 93
      249
310
90D312F363422203D2031272D3022000000000000240FC000000000000284000
  0
ACAD_PROXY_OBJECT
  5
5B
102
{ACAD_REACTORS
330
47
102
}
330
47
100
AcDbProxyObject
 90
      499
 91
      503
 93
      249
310
90D312F333222203D2031272D3022000000000000280FC000000000000284000
  0
ACAD_PROXY_OBJECT
  5
5C
102
{ACAD_REACTORS
330
47
102
}
330
47
100
AcDbProxyObject
 90
      499
 91
      503
 93
      249
310
90D312F313622203D2031272D30220000000000002C0FC000000000000284000
  0
ACAD_PROXY_OBJECT
  5
5D
102
{ACAD_REACTORS
330
47
102
}
330
47
100
AcDbProxyObject
 90
      499
 91
      503
 93
      249
310
90D332F333222203D2031272D30220000000000002E0FC000000000000284000
  0
ACAD_PROXY_OBJECT
  5
5E
102
{ACAD_REACTORS
330
47
102
}
330
47
100
AcDbProxyObject
 90
      499
 91
      503
 93
      241
310
90C312F3822203D2031272D3022000000000000300FC000000000000284000
  0
ACAD_PROXY_OBJECT
  5
5F
102
{ACAD_REACTORS
330
47
102
}
330
47
100
AcDbProxyObject
 90
      499
 91
      503
 93
      249
310
90D332F313622203D2031272D3022000000000000320FC000000000000284000
  0
ACAD_PROXY_OBJECT
  5
60
102
{ACAD_REACTORS
330
47
102
}
330
47
100
AcDbProxyObject
 90
      499
 91
      503
 93
      241
310
90C312F3422203D2031272D3022000000000000340FC000000000000284000
  0
ACAD_PROXY_OBJECT
  5
61
102
{ACAD_REACTORS
330
47
102
}
330
47
100
AcDbProxyObject
 90
      499
 91
      503
 93
      241
310
90C332F3822203D2031272D3022000000000000360FC000000000000284000
  0
ACAD_PROXY_OBJECT
  5
62
102
{ACAD_REACTORS
330
47
102
}
330
47
100
AcDbProxyObject
 90
      499
 91
      503
 93
      241
310
90C312F3222203D2031272D3022000000000000380FC000000000000284000
  0
ACAD_PROXY_OBJECT
  5
63
102
{ACAD_REACTORS
330
47
102
}
330
47
100
AcDbProxyObject
 90
      499
 91
      503
 93
      241
310
90C332F3422203D2031272D30220000000000003A0FC000000000000284000
  0
ACAD_PROXY_OBJECT
  5
64
102
{ACAD_REACTORS
330
47
102
}
330
47
100
AcDbProxyObject
 90
      499
 91
      503
 93
      161
310
90A3122203D2031272D30224000000000000284000
  0
ACAD_PROXY_OBJECT
  5
65
102
{ACAD_REACTORS
330
47
102
}
330
47
100
AcDbProxyObject
 90
      499
 91
      503
 93
      257
310
90E312D312F3222203D2031272D30220000000000003E0FC000000000000284000
  0
ACAD_PROXY_OBJECT
  5
66
102
{ACAD_REACTORS
330
47
102
}
330
47
100
AcDbProxyObject
 90
      499
 91
      503
 93
      225
310
90A3322203D2031272D302200000000000002100000000000000284000
  0
ACAD_PROXY_OBJECT
  5
67
102
{ACAD_REACTORS
330
47
102
}
330
47
100
AcDbProxyObject
 90
      499
 91
      503
 93
      225
310
90A3622203D2031272D302200000000000006100000000000000284000
  0
ACAD_PROXY_OBJECT
  5
68
102
{ACAD_REACTORS
330
47
102
}
330
47
100
AcDbProxyObject
 90
      499
 91
      503
 93
      249
310
90D31272D3022203D2031272D30220000000000000A100000000000000284000
  0
ACAD_PROXY_OBJECT
  5
2F
102
{ACAD_REACTORS
330
2A
102
}
330
2A
100
AcDbProxyObject
 90
      499
 91
      501
 93
      436
310
42CC9915DA5C99599C985B595049028333333333333E33F0000000000000F90107901411070040501600405405064090741402480A0340
1001
ACAD
1000
AcDbSavedByObjectVersion
1070
     0
  0
ACAD_PROXY_OBJECT
  5
32
102
{ACAD_REACTORS
330
2A
102
}
330
2A
100
AcDbProxyObject
 90
      499
 91
      501
 93
      388
310
4150985CDA58D07406404333333333333E33F0000000000000F90107A41107004050150841D405064090741402480A0350
1001
ACAD
1000
AcDbSavedByObjectVersion
1070
     0
  0
ACAD_PROXY_OBJECT
  5
36
102
{ACAD_REACTORS
330
2A
102
}
330
2A
100
AcDbProxyObject
 90
      499
 91
      501
 93
      428
310
42109C9A59DA1D195B90C409028333333333333E33F0000000000000F9010790141107004050150841D405064090741402480A029950
1001
ACAD
1000
AcDbSavedByObjectVersion
1070
     0
  0
ACAD_PROXY_OBJECT
  5
3A
102
{ACAD_REACTORS
330
2A
102
}
330
2A
100
AcDbProxyObject
 90
      499
 91
      501
 93
      452
310
42D0DBDB1BDC90DA185B99D95104090240C333333333333E33F0000000000000F90108901411070040501508421405064090741402480A0350
1001
ACAD
1000
AcDbSavedByObjectVersion
1070
     0
  0
ACAD_PROXY_OBJECT
  5
34
102
{ACAD_REACTORS
330
2A
102
}
330
2A
100
AcDbProxyObject
 90
      499
 91
      501
 93
      500
310
4290DBDB98D95C1D1D585B10940D028333333333333E33F0000000000000F90107902409070040501000000000018199010841D405064090740C02480A0340
1001
ACAD
1000
AcDbSavedByObjectVersion
1070
     0
  0
ACAD_PROXY_OBJECT
  5
35
102
{ACAD_REACTORS
330
2A
102
}
330
2A
100
AcDbProxyObject
 90
      499
 91
      501
 93
      412
310
40D11A5B50B409028333333333333E33F0000000000000F9010790141107004050150841D405064090741402480A02677FFFFFD0
1001
ACAD
1000
AcDbSavedByObjectVersion
1070
     0
  0
ACAD_PROXY_OBJECT
  5
3D
102
{ACAD_REACTORS
330
2A
102
}
330
2A
100
AcDbProxyObject
 90
      499
 91
      501
 93
      452
310
43115919D950DBDB1BDC93D999916409028333333333333E33F0000000000000F9010790141107004050150841D405064090741402480A0350
1001
ACAD
1000
AcDbSavedByObjectVersion
1070
     0
  0
ACAD_PROXY_OBJECT
  5
39
102
{ACAD_REACTORS
330
2A
102
}
330
2A
100
AcDbProxyObject
 90
      499
 91
      501
 93
      444
310
42D19858D95C185D1D195C9B90F409028333333333333E33F0000000000000F9010790141107004050150841D405064090741402480A0350
1001
ACAD
1000
AcDbSavedByObjectVersion
1070
     0
  0
ACAD_PROXY_OBJECT
  5
2B
102
{ACAD_REACTORS
330
2A
102
}
330
2A
100
AcDbProxyObject
 90
      499
 91
      501
 93
      380
310
41119B185D240901404333333333333E33F0000000000000F9010740A907004050150841D405064090741402480A1B50
1001
ACAD
1000
AcDbSavedByObjectVersion
1070
     0
  0
ACAD_PROXY_OBJECT
  5
2C
102
{ACAD_REACTORS
330
2A
102
}
330
2A
100
AcDbProxyObject
 90
      499
 91
      501
 93
      468
310
43519B185D15DA5D1A115919D95CD0140901404333333333333E33F0000000000000F90107409019070040501600405405064090741402480A1B50
1001
ACAD
1000
AcDbSavedByObjectVersion
1070
     0
  0
ACAD_PROXY_OBJECT
  5
2D
102
{ACAD_REACTORS
330
2A
102
}
330
2A
100
AcDbProxyObject
 90
      499
 91
      501
 93
      404
310
41D1DBDD5C985D5910240902404333333333333E33F0000000000000F9010740A9070040501641D405064090741402480A1B50
1001
ACAD
1000
AcDbSavedByObjectVersion
1070
     0
  0
ACAD_PROXY_OBJECT
  5
2E
102
{ACAD_REACTORS
330
2A
102
}
330
2A
100
AcDbProxyObject
 90
      499
 91
      501
 93
      492
310
4411DBDD5C985D5915DA5D1A115919D95CD0340902404333333333333E33F0000000000000F90107409019070040501600405405064090741402480A1B50
1001
ACAD
1000
AcDbSavedByObjectVersion
1070
     0
  0
ACAD_PROXY_OBJECT
  5
31
102
{ACAD_REACTORS
330
2A
102
}
330
2A
100
AcDbProxyObject
 90
      499
 91
      501
 93
      476
310
41921A5919195B90640502408333333333333E33F0000000000000F901079024090700405020000000000001110200405405064090740C02480A0340
1001
ACAD
1000
AcDbSavedByObjectVersion
1070
     0
  0
ACAD_PROXY_OBJECT
  5
3B
102
{ACAD_REACTORS
330
2A
102
}
330
2A
100
AcDbProxyObject
 90
      499
 91
      501
 93
      428
310
42529A5D1D195C93D999914409028333333333333E33F0000000000000F9010790141107004050150A41D405064090741402480A0350
1001
ACAD
1000
AcDbSavedByObjectVersion
1070
     0
  0
ACAD_PROXY_OBJECT
  5
38
102
{ACAD_REACTORS
330
2A
102
}
330
2A
100
AcDbProxyObject
 90
      499
 91
      501
 93
      444
310
42D31A5B995C185D1D195C9B90E409028333333333333E33F0000000000000F9010790141107004050750841D405064090741402483A0350
1001
ACAD
1000
AcDbSavedByObjectVersion
1070
     0
  0
ACAD_PROXY_OBJECT
  5
3C
102
{ACAD_REACTORS
330
2A
102
}
330
2A
100
AcDbProxyObject
 90
      499
 91
      501
 93
      444
310
42D3DD995C9A185B99D3D999915409028333333333333E33F0000000000000F9010790141107004050150941D405064090741402480A0350
1001
ACAD
1000
AcDbSavedByObjectVersion
1070
     0
  0
ACAD_PROXY_OBJECT
  5
33
102
{ACAD_REACTORS
330
2A
102
}
330
2A
100
AcDbProxyObject
 90
      499
 91
      501
 93
      428
310
425499585B1A5CDD1A58D08409038333333333333E33F0000000000000F9010740A907004050150800405405064090740C02480A1B40
1001
ACAD
1000
AcDbSavedByObjectVersion
1070
     0
  0
ACAD_PROXY_OBJECT
  5
42
102
{ACAD_REACTORS
330
2A
102
}
330
2A
100
AcDbProxyObject
 90
      499
 91
      501
 93
      420
310
4194DA1859195911B40902404333333333333E33F0000000000000F9010740A41107004050150800405405064090840C02480A0B40
1001
ACAD
1000
AcDbSavedByObjectVersion
1070
     0
  0
ACAD_PROXY_OBJECT
  5
41
102
{ACAD_REACTORS
330
2A
102
}
330
2A
100
AcDbProxyObject
 90
      499
 91
      501
 93
      516
310
4454DA18591959081DDA5D1A08195919D95CD1A40902404333333333333E33F0000000000000F901074090142907004050250800405405064090740C02480A0B40
1001
ACAD
1000
AcDbSavedByObjectVersion
1070
     0
  0
ACAD_PROXY_OBJECT
  5
3E
102
{ACAD_REACTORS
330
2A
102
}
330
2A
100
AcDbProxyObject
 90
      499
 91
      501
 93
      532
310
4394DA1859195CC81BD98811DC985E5174090240C333333333333E33F0000000000000F901079024090741D01000000000000111010841D405064090740C02480A0340
1001
ACAD
1000
AcDbSavedByObjectVersion
1070
     0
  0
ACAD_PROXY_OBJECT
  5
3F
102
{ACAD_REACTORS
330
2A
102
}
330
2A
100
AcDbProxyObject
 90
      499
 91
      501
 93
      476
310
41D4DAD95D18DA1E51840502408333333333333E33F0000000000000F901079024090741D01000000000000111010B41D405064090741802480A0340
1001
ACAD
1000
AcDbSavedByObjectVersion
1070
     0
  0
ACAD_PROXY_OBJECT
  5
37
102
{ACAD_REACTORS
330
2A
102
}
330
2A
100
AcDbProxyObject
 90
      499
 91
      501
 93
      412
310
41D51A1A58DAD95B90D409028333333333333E33F0000000000000F9010790141107004050150C41D405064090741402480A0350
1001
ACAD
1000
AcDbSavedByObjectVersion
1070
     0
  0
ACAD_PROXY_OBJECT
  5
30
102
{ACAD_REACTORS
330
2A
102
}
330
2A
100
AcDbProxyObject
 90
      499
 91
      501
 93
      420
310
4255DA5C99599C985B595059028333333333333E33F0000000000000F90107901411070040501600405405064090740C02480A0340
1001
ACAD
1000
AcDbSavedByObjectVersion
1070
     0
  0
ACAD_PROXY_OBJECT
  5
40
102
{ACAD_REACTORS
330
2A
102
}
330
2A
100
AcDbProxyObject
 90
      499
 91
      501
 93
      404
310
41560B54985E51940902404000000000000E03F0000000000000F9010740501907004050150841D405064090740C02480A1B40
1001
ACAD
1000
AcDbSavedByObjectVersion
1070
     0
  0
XRECORD
  5
3CC
102
{ACAD_REACTORS
330
3C2
102
}
330
3C2
100
AcDbXrecord
340
0
  0
XRECORD
  5
3CB
102
{ACAD_REACTORS
330
3C2
102
}
330
3C2
100
AcDbXrecord
 90
        0
  0
XRECORD
  5
3E2
102
{ACAD_REACTORS
330
3C2
102
}
330
3C2
100
AcDbXrecord
1000
DSTYLE
1002
{
1070
   340
340
11
1002
}
  0
XRECORD
  5
3CD
102
{ACAD_REACTORS
330
3C2
102
}
330
3C2
100
AcDbXrecord
  1
{c59c53ad-ec4c-4894-964e-f1eb3925a02a}
  0
XRECORD
  5
3C5
102
{ACAD_REACTORS
330
3C2
102
}
330
3C2
100
AcDbXrecord
  1

  0
XRECORD
  5
3CA
102
{ACAD_REACTORS
330
3C2
102
}
330
3C2
100
AcDbXrecord
 90
        4
  0
XRECORD
  5
3C7
102
{ACAD_REACTORS
330
3C2
102
}
330
3C2
100
AcDbXrecord
340
1A
  0
XRECORD
  5
3C9
102
{ACAD_REACTORS
330
3C2
102
}
330
3C2
100
AcDbXrecord
 90
    10781
  0
XRECORD
  5
3C8
102
{ACAD_REACTORS
330
3C2
102
}
330
3C2
100
AcDbXrecord
340
19
  0
XRECORD
  5
3CF
102
{ACAD_REACTORS
330
3C2
102
}
330
3C2
100
AcDbXrecord
 40
0.0
  0
XRECORD
  5
3D2
102
{ACAD_REACTORS
330
3C2
102
}
330
3C2
100
AcDbXrecord
340
0
  0
XRECORD
  5
3D8
102
{ACAD_REACTORS
330
3C2
102
}
330
3C2
100
AcDbXrecord
 10
0.0
 20
0.0
 30
0.0
  0
XRECORD
  5
3D4
102
{ACAD_REACTORS
330
3C2
102
}
330
3C2
100
AcDbXrecord
 10
0.0
 20
0.0
 30
0.0
  0
XRECORD
  5
3D7
102
{ACAD_REACTORS
330
3C2
102
}
330
3C2
100
AcDbXrecord
 10
0.0
 20
0.0
 30
0.0
  0
XRECORD
  5
3D5
102
{ACAD_REACTORS
330
3C2
102
}
330
3C2
100
AcDbXrecord
 10
0.0
 20
0.0
 30
0.0
  0
XRECORD
  5
3D6
102
{ACAD_REACTORS
330
3C2
102
}
330
3C2
100
AcDbXrecord
 10
0.0
 20
0.0
 30
0.0
  0
XRECORD
  5
3D3
102
{ACAD_REACTORS
330
3C2
102
}
330
3C2
100
AcDbXrecord
 10
0.0
 20
0.0
 30
0.0
  0
XRECORD
  5
3D0
102
{ACAD_REACTORS
330
3C2
102
}
330
3C2
100
AcDbXrecord
340
0
  0
XRECORD
  5
3D1
102
{ACAD_REACTORS
330
3C2
102
}
330
3C2
100
AcDbXrecord
 70
     0
  0
XRECORD
  5
3C6
102
{ACAD_REACTORS
330
3C2
102
}
330
3C2
100
AcDbXrecord
  1

  0
XRECORD
  5
3C3
102
{ACAD_REACTORS
330
3C2
102
}
330
3C2
100
AcDbXrecord
 90
        1
  0
XRECORD
  5
3C4
102
{ACAD_REACTORS
330
3C2
102
}
330
3C2
100
AcDbXrecord
 90
       70
  0
XRECORD
  5
3DB
102
{ACAD_REACTORS
330
3C2
102
}
330
3C2
100
AcDbXrecord
340
0
  0
XRECORD
  5
3E1
102
{ACAD_REACTORS
330
3C2
102
}
330
3C2
100
AcDbXrecord
 10
0.0
 20
0.0
 30
0.0
  0
XRECORD
  5
3DD
102
{ACAD_REACTORS
330
3C2
102
}
330
3C2
100
AcDbXrecord
 10
0.0
 20
0.0
 30
0.0
  0
XRECORD
  5
3E0
102
{ACAD_REACTORS
330
3C2
102
}
330
3C2
100
AcDbXrecord
 10
0.0
 20
0.0
 30
0.0
  0
XRECORD
  5
3DE
102
{ACAD_REACTORS
330
3C2
102
}
330
3C2
100
AcDbXrecord
 10
0.0
 20
0.0
 30
0.0
  0
XRECORD
  5
3DF
102
{ACAD_REACTORS
330
3C2
102
}
330
3C2
100
AcDbXrecord
 10
0.0
 20
0.0
 30
0.0
  0
XRECORD
  5
3DC
102
{ACAD_REACTORS
330
3C2
102
}
330
3C2
100
AcDbXrecord
 10
0.0
 20
0.0
 30
0.0
  0
XRECORD
  5
3D9
102
{ACAD_REACTORS
330
3C2
102
}
330
3C2
100
AcDbXrecord
340
0
  0
XRECORD
  5
3DA
102
{ACAD_REACTORS
330
3C2
102
}
330
3C2
100
AcDbXrecord
 70
     0
  0
XRECORD
  5
3CE
102
{ACAD_REACTORS
330
3C2
102
}
330
3C2
100
AcDbXrecord
  1
{FAEB1C32-E019-11D5-929B-00C0DF256EC4}
  0
DICTIONARYVAR
  5
3F0
102
{ACAD_REACTORS
330
3E3
102
}
330
3E3
100
DictionaryVariables
280
     0
  1
1:1
  0
DICTIONARYVAR
  5
3EA
102
{ACAD_REACTORS
330
3E3
102
}
330
3E3
100
DictionaryVariables
280
     0
  1
3.500000
  0
DICTIONARYVAR
  5
3EB
102
{ACAD_REACTORS
330
3E3
102
}
330
3E3
100
DictionaryVariables
280
     0
  1
acadiso.lin
  0
DICTIONARYVAR
  5
3E5
102
{ACAD_REACTORS
330
3E3
102
}
330
3E3
100
DictionaryVariables
280
     0
  1
Standard
  0
DICTIONARYVAR
  5
3E4
102
{ACAD_REACTORS
330
3E3
102
}
330
3E3
100
DictionaryVariables
280
     0
  1
Standard
  0
DICTIONARYVAR
  5
3EC
102
{ACAD_REACTORS
330
3E3
102
}
330
3E3
100
DictionaryVariables
280
     0
  1
2
  0
DICTIONARYVAR
  5
3ED
102
{ACAD_REACTORS
330
3E3
102
}
330
3E3
100
DictionaryVariables
280
     0
  1
1
  0
DICTIONARYVAR
  5
3F1
102
{ACAD_REACTORS
330
3E3
102
}
330
3E3
100
DictionaryVariables
280
     0
  1
1
  0
DICTIONARYVAR
  5
3E7
102
{ACAD_REACTORS
330
3E3
102
}
330
3E3
100
DictionaryVariables
280
     0
  1
80.000000
  0
DICTIONARYVAR
  5
3E6
102
{ACAD_REACTORS
330
3E3
102
}
330
3E3
100
DictionaryVariables
280
     0
  1
5.000000
  0
DICTIONARY
  5
3F4
330
45
100
AcDbDictionary
280
     1
  3
ACAD_XREC_ROUNDTRIP
360
3F5
  0
DICTIONARY
  5
3F2
330
44
100
AcDbDictionary
280
     1
  3
ACAD_XREC_ROUNDTRIP
360
3F3
  0
DICTIONARY
  5
3F6
330
46
100
AcDbDictionary
280
     1
  3
ACAD_XREC_ROUNDTRIP
360
3F7
  0
XRECORD
  5
3F5
102
{ACAD_REACTORS
330
3F4
102
}
330
3F4
100
AcDbXrecord
102
MATERIAL
148
0.0
149
0.0
149
0.0
 93
        0
 94
      127
282
     0
 72
     1
 77
     1
171
     1
175
     1
179
     1
273
     0
  0
XRECORD
  5
3F3
102
{ACAD_REACTORS
330
3F2
102
}
330
3F2
100
AcDbXrecord
102
MATERIAL
148
0.0
149
0.0
149
0.0
 93
        0
 94
      127
282
     0
 72
     1
 77
     1
171
     1
175
     1
179
     1
273
     0
  0
XRECORD
  5
3F7
102
{ACAD_REACTORS
330
3F6
102
}
330
3F6
100
AcDbXrecord
102
MATERIAL
148
0.0
149
0.0
149
0.0
 93
        0
 94
      127
282
     0
 72
     1
 77
     1
171
     1
175
     1
179
     1
273
     0
  0
ENDSEC
  0
EOF
