  0
SECTION
  2
HEADER
  9
$ACADVER
  1
AC1014
  9
$ACADMAINTVER
 70
     9
  9
$DWGCODEPAGE
  3
ANSI_932
  9
$INSBASE
 10
0.0
 20
0.0
 30
0.0
  9
$EXTMIN
 10
50.0
 20
100.0
 30
0.0
  9
$EXTMAX
 10
3850.0
 20
2800.0
 30
0.0
  9
$LIMMIN
 10
0.0
 20
0.0
  9
$LIMMAX
 10
420.0
 20
297.0
  9
$ORTHOMODE
 70
     0
  9
$REGENMODE
 70
     1
  9
$FILLMODE
 70
     1
  9
$QTEXTMODE
 70
     0
  9
$MIRRTEXT
 70
     1
  9
$DRAGMODE
 70
     2
  9
$LTSCALE
 40
0.2
  9
$OSMODE
 70
    37
  9
$ATTMODE
 70
     1
  9
$TEXTSIZE
 40
2.5
  9
$TRACEWID
 40
1.0
  9
$TEXTSTYLE
  7
STANDARD
  9
$CLAYER
  8
LAY-10
  9
$CELTYPE
  6
BYLAYER
  9
$CECOLOR
 62
   256
  9
$CELTSCALE
 40
1.0
  9
$DELOBJ
 70
     1
  9
$DISPSILH
 70
     0
  9
$DIMSCALE
 40
1.0
  9
$DIMASZ
 40
2.5
  9
$DIMEXO
 40
0.625
  9
$DIMDLI
 40
3.75
  9
$DIMRND
 40
0.0
  9
$DIMDLE
 40
0.0
  9
$DIMEXE
 40
1.25
  9
$DIMTP
 40
0.0
  9
$DIMTM
 40
0.0
  9
$DIMTXT
 40
2.5
  9
$DIMCEN
 40
2.5
  9
$DIMTSZ
 40
0.0
  9
$DIMTOL
 70
     0
  9
$DIMLIM
 70
     0
  9
$DIMTIH
 70
     0
  9
$DIMTOH
 70
     0
  9
$DIMSE1
 70
     0
  9
$DIMSE2
 70
     0
  9
$DIMTAD
 70
     1
  9
$DIMZIN
 70
     8
  9
$DIMBLK
  1

  9
$DIMASO
 70
     1
  9
$DIMSHO
 70
     1
  9
$DIMPOST
  1

  9
$DIMAPOST
  1

  9
$DIMALT
 70
     0
  9
$DIMALTD
 70
     3
  9
$DIMALTF
 40
0.03937007874016
  9
$DIMLFAC
 40
1.0
  9
$DIMTOFL
 70
     1
  9
$DIMTVP
 40
0.0
  9
$DIMTIX
 70
     0
  9
$DIMSOXD
 70
     0
  9
$DIMSAH
 70
     0
  9
$DIMBLK1
  1

  9
$DIMBLK2
  1

  9
$DIMSTYLE
  2
ISO-25
  9
$DIMCLRD
 70
     0
  9
$DIMCLRE
 70
     0
  9
$DIMCLRT
 70
     0
  9
$DIMTFAC
 40
1.0
  9
$DIMGAP
 40
0.625
  9
$DIMJUST
 70
     0
  9
$DIMSD1
 70
     0
  9
$DIMSD2
 70
     0
  9
$DIMTOLJ
 70
     0
  9
$DIMTZIN
 70
     8
  9
$DIMALTZ
 70
     0
  9
$DIMALTTZ
 70
     0
  9
$DIMFIT
 70
     3
  9
$DIMUPT
 70
     0
  9
$DIMUNIT
 70
     2
  9
$DIMDEC
 70
     2
  9
$DIMTDEC
 70
     2
  9
$DIMALTU
 70
     2
  9
$DIMALTTD
 70
     3
  9
$DIMTXSTY
  7
STANDARD
  9
$DIMAUNIT
 70
     0
  9
$LUNITS
 70
     2
  9
$LUPREC
 70
     4
  9
$SKETCHINC
 40
1.0
  9
$FILLETRAD
 40
10.0
  9
$AUNITS
 70
     0
  9
$AUPREC
 70
     0
  9
$MENU
  1
.
  9
$ELEVATION
 40
0.0
  9
$PELEVATION
 40
0.0
  9
$THICKNESS
 40
0.0
  9
$LIMCHECK
 70
     0
  9
$CHAMFERA
 40
0.0
  9
$CHAMFERB
 40
0.0
  9
$CHAMFERC
 40
0.0
  9
$CHAMFERD
 40
0.0
  9
$SKPOLY
 70
     0
  9
$TDCREATE
 40
2459229.336520544
  9
$TDUPDATE
 40
2459229.336520984
  9
$TDINDWG
 40
0.0000000116
  9
$TDUSRTIMER
 40
0.0000000116
  9
$USRTIMER
 70
     1
  9
$ANGBASE
 50
0.0
  9
$ANGDIR
 70
     0
  9
$PDMODE
 70
     0
  9
$PDSIZE
 40
0.0
  9
$PLINEWID
 40
0.0
  9
$COORDS
 70
     1
  9
$SPLFRAME
 70
     0
  9
$SPLINETYPE
 70
     6
  9
$SPLINESEGS
 70
     8
  9
$ATTDIA
 70
     0
  9
$ATTREQ
 70
     1
  9
$HANDLING
 70
     1
  9
$HANDSEED
  5
41B
  9
$SURFTAB1
 70
     6
  9
$SURFTAB2
 70
     6
  9
$SURFTYPE
 70
     6
  9
$SURFU
 70
     6
  9
$SURFV
 70
     6
  9
$UCSNAME
  2

  9
$UCSORG
 10
0.0
 20
0.0
 30
0.0
  9
$UCSXDIR
 10
1.0
 20
0.0
 30
0.0
  9
$UCSYDIR
 10
0.0
 20
1.0
 30
0.0
  9
$PUCSNAME
  2

  9
$PUCSORG
 10
0.0
 20
0.0
 30
0.0
  9
$PUCSXDIR
 10
1.0
 20
0.0
 30
0.0
  9
$PUCSYDIR
 10
0.0
 20
1.0
 30
0.0
  9
$USERI1
 70
     0
  9
$USERI2
 70
     0
  9
$USERI3
 70
     0
  9
$USERI4
 70
     0
  9
$USERI5
 70
     0
  9
$USERR1
 40
0.0
  9
$USERR2
 40
0.0
  9
$USERR3
 40
0.0
  9
$USERR4
 40
0.0
  9
$USERR5
 40
0.0
  9
$WORLDVIEW
 70
     1
  9
$SHADEDGE
 70
     3
  9
$SHADEDIF
 70
    70
  9
$TILEMODE
 70
     1
  9
$MAXACTVP
 70
    64
  9
$PINSBASE
 10
0.0
 20
0.0
 30
0.0
  9
$PLIMCHECK
 70
     0
  9
$PEXTMIN
 10
1.000000000000000E+20
 20
1.000000000000000E+20
 30
1.000000000000000E+20
  9
$PEXTMAX
 10
-1.000000000000000E+20
 20
-1.000000000000000E+20
 30
-1.000000000000000E+20
  9
$PLIMMIN
 10
0.0
 20
0.0
  9
$PLIMMAX
 10
420.0
 20
297.0
  9
$UNITMODE
 70
     0
  9
$VISRETAIN
 70
     1
  9
$PLINEGEN
 70
     0
  9
$PSLTSCALE
 70
     1
  9
$TREEDEPTH
 70
  3020
  9
$PICKSTYLE
 70
     1
  9
$CMLSTYLE
  2
STANDARD
  9
$CMLJUST
 70
     0
  9
$CMLSCALE
 40
20.0
  9
$PROXYGRAPHICS
 70
     1
  9
$MEASUREMENT
 70
     1
  0
ENDSEC
  0
SECTION
  2
CLASSES
  0
CLASS
  1
ACDBDICTIONARYWDFLT
  2
AcDbDictionaryWithDefault
  3
ObjectDBX Classes
 90
        0
280
     0
281
     0
  0
CLASS
  1
VISUALSTYLE
  2
AcDbVisualStyle
  3
ObjectDBX Classes
 90
     4095
280
     0
281
     0
  0
CLASS
  1
MATERIAL
  2
AcDbMaterial
  3
ObjectDBX Classes
 90
     1153
280
     0
281
     0
  0
CLASS
  1
SCALE
  2
AcDbScale
  3
ObjectDBX Classes
 90
     1153
280
     0
281
     0
  0
CLASS
  1
TABLESTYLE
  2
AcDbTableStyle
  3
ObjectDBX Classes
 90
     4095
280
     0
281
     0
  0
CLASS
  1
MLEADERSTYLE
  2
AcDbMLeaderStyle
  3
ACDB_MLEADERSTYLE_CLASS
 90
     4095
280
     0
281
     0
  0
CLASS
  1
SUN
  2
AcDbSun
  3
SCENEOE
 90
     1153
280
     0
281
     0
  0
CLASS
  1
DICTIONARYVAR
  2
AcDbDictionaryVar
  3
ObjectDBX Classes
 90
        0
280
     0
281
     0
  0
CLASS
  1
XRECORD
  2
AcDbXrecord
  3
ObjectDBX Classes
 90
        0
280
     0
281
     0
  0
CLASS
  1
LWPOLYLINE
  2
AcDbPolyline
  3
ObjectDBX Classes
 90
        0
280
     0
281
     1
  0
CLASS
  1
HATCH
  2
AcDbHatch
  3
ObjectDBX Classes
 90
        0
280
     0
281
     1
  0
CLASS
  1
ACDBPLACEHOLDER
  2
AcDbPlaceHolder
  3
ObjectDBX Classes
 90
        0
280
     0
281
     0
  0
CLASS
  1
LAYOUT
  2
AcDbLayout
  3
ObjectDBX Classes
 90
        0
280
     0
281
     0
  0
ENDSEC
  0
SECTION
  2
TABLES
  0
TABLE
  2
VPORT
  5
8
102
{ACAD_XDICTIONARY
360
410
102
}
330
0
100
AcDbSymbolTable
 70
     1
  0
VPORT
  5
29
330
8
100
AcDbSymbolTableRecord
100
AcDbViewportTableRecord
  2
*ACTIVE
 70
     0
 10
0.0
 20
0.0
 11
1.0
 21
1.0
 12
1950.0
 22
1450.0
 13
0.0
 23
0.0
 14
10.0
 24
10.0
 15
10.0
 25
10.0
 16
0.0
 26
0.0
 36
1.0
 17
0.0
 27
0.0
 37
0.0
 40
2700.0
 41
1.407407407407408
 42
50.0
 43
0.0
 44
0.0
 50
0.0
 51
0.0
 71
     0
 72
  1000
 73
     1
 74
     3
 75
     0
 76
     0
 77
     0
 78
     0
  0
ENDTAB
  0
TABLE
  2
LTYPE
  5
5
330
0
100
AcDbSymbolTable
 70
     6
  0
LTYPE
  5
14
330
5
100
AcDbSymbolTableRecord
100
AcDbLinetypeTableRecord
  2
BYBLOCK
 70
     0
  3

 72
    65
 73
     0
 40
0.0
  0
LTYPE
  5
15
330
5
100
AcDbSymbolTableRecord
100
AcDbLinetypeTableRecord
  2
BYLAYER
 70
     0
  3

 72
    65
 73
     0
 40
0.0
  0
LTYPE
  5
16
330
5
100
AcDbSymbolTableRecord
100
AcDbLinetypeTableRecord
  2
CONTINUOUS
 70
     0
  3
Solid line
 72
    65
 73
     0
 40
0.0
  0
LTYPE
  5
6E
330
5
100
AcDbSymbolTableRecord
100
AcDbLinetypeTableRecord
  2
HIDDEN
 70
     0
  3
Hidden __ __ __ __ __ __ __ __ __ __ __ __ __ __
 72
    65
 73
     2
 40
9.524999999999999
 49
6.35
 74
     0
 49
-3.175
 74
     0
  0
LTYPE
  5
6F
330
5
100
AcDbSymbolTableRecord
100
AcDbLinetypeTableRecord
  2
CENTER
 70
     0
  3
Center ____ _ ____ _ ____ _ ____ _ ____ _ ____
 72
    65
 73
     4
 40
50.8
 49
31.75
 74
     0
 49
-6.35
 74
     0
 49
6.35
 74
     0
 49
-6.35
 74
     0
  0
LTYPE
  5
70
330
5
100
AcDbSymbolTableRecord
100
AcDbLinetypeTableRecord
  2
PHANTOM
 70
     0
  3
Phantom ______  __  __  ______  __  __  ______ 
 72
    65
 73
     6
 40
63.50000000000001
 49
31.75
 74
     0
 49
-6.35
 74
     0
 49
6.35
 74
     0
 49
-6.35
 74
     0
 49
6.35
 74
     0
 49
-6.35
 74
     0
  0
LTYPE
  5
71
330
5
100
AcDbSymbolTableRecord
100
AcDbLinetypeTableRecord
  2
ACAD_ISO06W100
 70
     0
  3
ISO long-dash triple-dot ____ ... ____ ... ____
 72
    65
 73
     8
 40
36.0
 49
24.0
 74
     0
 49
-3.0
 74
     0
 49
0.0
 74
     0
 49
-3.0
 74
     0
 49
0.0
 74
     0
 49
-3.0
 74
     0
 49
0.0
 74
     0
 49
-3.0
 74
     0
  0
LTYPE
  5
72
330
5
100
AcDbSymbolTableRecord
100
AcDbLinetypeTableRecord
  2
ACAD_ISO15W100
 70
     0
  3
ISO double-dash triple-dot __ __ . . . __ __ . .
 72
    65
 73
    10
 40
39.0
 49
12.0
 74
     0
 49
-3.0
 74
     0
 49
12.0
 74
     0
 49
-3.0
 74
     0
 49
0.0
 74
     0
 49
-3.0
 74
     0
 49
0.0
 74
     0
 49
-3.0
 74
     0
 49
0.0
 74
     0
 49
-3.0
 74
     0
  0
ENDTAB
  0
TABLE
  2
LAYER
  5
2
330
0
100
AcDbSymbolTable
 70
     6
  0
LAYER
  5
10
330
2
100
AcDbSymbolTableRecord
100
AcDbLayerTableRecord
  2
0
 70
     0
 62
     7
  6
CONTINUOUS
  0
LAYER
  5
75
330
2
100
AcDbSymbolTableRecord
100
AcDbLayerTableRecord
  2
LAY-10
 70
     0
 62
     7
  6
CONTINUOUS
  0
LAYER
  5
76
330
2
100
AcDbSymbolTableRecord
100
AcDbLayerTableRecord
  2
LAY-11
 70
     0
 62
     7
  6
CONTINUOUS
  0
LAYER
  5
77
330
2
100
AcDbSymbolTableRecord
100
AcDbLayerTableRecord
  2
LAY-20
 70
     0
 62
     7
  6
CONTINUOUS
  0
LAYER
  5
78
330
2
100
AcDbSymbolTableRecord
100
AcDbLayerTableRecord
  2
LAY-255
 70
     0
 62
     7
  6
CONTINUOUS
  0
LAYER
  5
362
330
2
100
AcDbSymbolTableRecord
100
AcDbLayerTableRecord
  2
DEFPOINTS
 70
     0
 62
     7
  6
CONTINUOUS
  0
ENDTAB
  0
TABLE
  2
STYLE
  5
3
330
0
100
AcDbSymbolTable
 70
     4
  0
STYLE
  5
11
330
3
100
AcDbSymbolTableRecord
100
AcDbTextStyleTableRecord
  2
STANDARD
 70
     0
 40
0.0
 41
1.0
 50
0.0
 71
     0
 42
2.5
  3
simplex
  4
bigfont
  0
STYLE
  5
73
330
3
100
AcDbSymbolTableRecord
100
AcDbTextStyleTableRecord
  2
EXCADSTD
 70
     0
 40
0.0
 41
1.0
 50
0.0
 71
     0
 42
2.5
  3
simplex
  4
bigfont
  0
STYLE
  5
74
330
3
100
AcDbSymbolTableRecord
100
AcDbTextStyleTableRecord
  2
EXCADVERT
 70
     4
 40
0.0
 41
1.0
 50
0.0
 71
     0
 42
2.5
  3
simplex
  4
bigfont
  0
STYLE
  5
360
330
3
100
AcDbSymbolTableRecord
100
AcDbTextStyleTableRecord
  2
EXCADDIM1
 70
     0
 40
0.0
 41
0.84
 50
0.0
 71
     0
 42
2.5
  3
simplex
  4
bigfont
  0
ENDTAB
  0
TABLE
  2
VIEW
  5
6
330
0
100
AcDbSymbolTable
 70
     0
  0
ENDTAB
  0
TABLE
  2
UCS
  5
7
330
0
100
AcDbSymbolTable
 70
     0
  0
ENDTAB
  0
TABLE
  2
APPID
  5
9
330
0
100
AcDbSymbolTable
 70
     2
  0
APPID
  5
12
330
9
100
AcDbSymbolTableRecord
100
AcDbRegAppTableRecord
  2
ACAD
 70
     0
  0
APPID
  5
41A
330
9
100
AcDbSymbolTableRecord
100
AcDbRegAppTableRecord
  2
ACAD_MLEADERVER
 70
     0
  0
ENDTAB
  0
TABLE
  2
DIMSTYLE
  5
A
330
0
100
AcDbSymbolTable
 70
     1
  0
DIMSTYLE
105
27
102
{ACAD_REACTORS
330
361
330
36F
330
37C
330
389
330
395
102
}
330
A
100
AcDbSymbolTableRecord
100
AcDbDimStyleTableRecord
  2
ISO-25
 70
     0
  3

  4

  5

  6

  7

 40
1.0
 41
2.5
 42
0.625
 43
3.75
 44
1.25
 45
0.0
 46
0.0
 47
0.0
 48
0.0
140
2.5
141
2.5
142
0.0
143
0.03937007874016
144
1.0
145
0.0
146
1.0
147
0.625
 71
     0
 72
     0
 73
     0
 74
     0
 75
     0
 76
     0
 77
     1
 78
     8
170
     0
171
     3
172
     1
173
     0
174
     0
175
     0
176
     0
177
     0
178
     0
270
     2
271
     2
272
     2
273
     2
274
     3
340
11
275
     0
280
     0
281
     0
282
     0
283
     0
284
     8
285
     0
286
     0
287
     5
288
     0
  0
ENDTAB
  0
TABLE
  2
BLOCK_RECORD
  5
1
330
0
100
AcDbSymbolTable
 70
    19
  0
BLOCK_RECORD
  5
1F
330
1
100
AcDbSymbolTableRecord
100
AcDbBlockTableRecord
  2
*MODEL_SPACE
  0
BLOCK_RECORD
  5
1B
330
1
100
AcDbSymbolTableRecord
100
AcDbBlockTableRecord
  2
*PAPER_SPACE
  0
BLOCK_RECORD
  5
79
330
1
100
AcDbSymbolTableRecord
100
AcDbBlockTableRecord
  2
EX_NORM
  0
BLOCK_RECORD
  5
7C
330
1
100
AcDbSymbolTableRecord
100
AcDbBlockTableRecord
  2
EX_BNORM
  0
BLOCK_RECORD
  5
7F
330
1
100
AcDbSymbolTableRecord
100
AcDbBlockTableRecord
  2
EX_BCIR
  0
BLOCK_RECORD
  5
82
330
1
100
AcDbSymbolTableRecord
100
AcDbBlockTableRecord
  2
EX_RCIVIL
  0
BLOCK_RECORD
  5
85
330
1
100
AcDbSymbolTableRecord
100
AcDbBlockTableRecord
  2
EX_SLANT
  0
BLOCK_RECORD
  5
88
330
1
100
AcDbSymbolTableRecord
100
AcDbBlockTableRecord
  2
EX_NONE
  0
BLOCK_RECORD
  5
8B
330
1
100
AcDbSymbolTableRecord
100
AcDbBlockTableRecord
  2
EX_CIVIL
  0
BLOCK_RECORD
  5
8E
330
1
100
AcDbSymbolTableRecord
100
AcDbBlockTableRecord
  2
EX_WCIR
  0
BLOCK_RECORD
  5
91
330
1
100
AcDbSymbolTableRecord
100
AcDbBlockTableRecord
  2
EX_WCIR2
  0
BLOCK_RECORD
  5
94
330
1
100
AcDbSymbolTableRecord
100
AcDbBlockTableRecord
  2
EX_WNORM
  0
BLOCK_RECORD
  5
97
330
1
100
AcDbSymbolTableRecord
100
AcDbBlockTableRecord
  2
EX_NNORM
  0
BLOCK_RECORD
  5
9A
330
1
100
AcDbSymbolTableRecord
100
AcDbBlockTableRecord
  2
EX_BBOX
  0
BLOCK_RECORD
  5
9D
330
1
100
AcDbSymbolTableRecord
100
AcDbBlockTableRecord
  2
EX_WBOX
  0
BLOCK_RECORD
  5
A0
330
1
100
AcDbSymbolTableRecord
100
AcDbBlockTableRecord
  2
EX_INTEGRAL
  0
BLOCK_RECORD
  5
363
330
1
100
AcDbSymbolTableRecord
100
AcDbBlockTableRecord
  2
*D15
  0
BLOCK_RECORD
  5
370
330
1
100
AcDbSymbolTableRecord
100
AcDbBlockTableRecord
  2
*D16
  0
BLOCK_RECORD
  5
37D
330
1
100
AcDbSymbolTableRecord
100
AcDbBlockTableRecord
  2
*D17
  0
BLOCK_RECORD
  5
38A
330
1
100
AcDbSymbolTableRecord
100
AcDbBlockTableRecord
  2
*D18
  0
BLOCK_RECORD
  5
396
330
1
100
AcDbSymbolTableRecord
100
AcDbBlockTableRecord
  2
*D19
  0
ENDTAB
  0
ENDSEC
  0
SECTION
  2
BLOCKS
  0
BLOCK
  5
20
330
1F
100
AcDbEntity
  8
0
100
AcDbBlockBegin
  2
*MODEL_SPACE
 70
     0
 10
0.0
 20
0.0
 30
0.0
  3
*MODEL_SPACE
  1

  0
ENDBLK
  5
21
330
1F
100
AcDbEntity
  8
0
100
AcDbBlockEnd
  0
BLOCK
  5
1C
330
1B
100
AcDbEntity
 67
     1
  8
0
100
AcDbBlockBegin
  2
*PAPER_SPACE
 70
     0
 10
0.0
 20
0.0
 30
0.0
  3
*PAPER_SPACE
  1

  0
ENDBLK
  5
1D
330
1B
100
AcDbEntity
 67
     1
  8
0
100
AcDbBlockEnd
  0
BLOCK
  5
7A
330
79
100
AcDbEntity
  8
0
100
AcDbBlockBegin
  2
EX_NORM
 70
     0
 10
0.0
 20
0.0
 30
0.0
  3
EX_NORM
  1

  0
LINE
  5
A3
330
79
100
AcDbEntity
  8
0
  6
CONTINUOUS
 62
     0
100
AcDbLine
 10
0.0
 20
0.0
 30
0.0
 11
-1.0
 21
0.0
 31
0.0
  0
LINE
  5
A4
330
79
100
AcDbEntity
  8
0
  6
CONTINUOUS
 62
     0
100
AcDbLine
 10
0.0
 20
0.0
 30
0.0
 11
-1.0
 21
0.166666667
 31
0.0
  0
LINE
  5
A5
330
79
100
AcDbEntity
  8
0
  6
CONTINUOUS
 62
     0
100
AcDbLine
 10
0.0
 20
0.0
 30
0.0
 11
-1.0
 21
-0.166666667
 31
0.0
  0
ENDBLK
  5
7B
330
79
100
AcDbEntity
  8
0
100
AcDbBlockEnd
  0
BLOCK
  5
7D
330
7C
100
AcDbEntity
  8
0
100
AcDbBlockBegin
  2
EX_BNORM
 70
     0
 10
0.0
 20
0.0
 30
0.0
  3
EX_BNORM
  1

  0
LINE
  5
A6
330
7C
100
AcDbEntity
  8
0
  6
CONTINUOUS
 62
     0
100
AcDbLine
 10
0.0
 20
0.0
 30
0.0
 11
-1.0
 21
0.0
 31
0.0
  0
LINE
  5
A7
330
7C
100
AcDbEntity
  8
0
  6
CONTINUOUS
 62
     0
100
AcDbLine
 10
0.0
 20
0.0
 30
0.0
 11
-1.0
 21
0.166666667
 31
0.0
  0
LINE
  5
A8
330
7C
100
AcDbEntity
  8
0
  6
CONTINUOUS
 62
     0
100
AcDbLine
 10
0.0
 20
0.0
 30
0.0
 11
-1.0
 21
-0.166666667
 31
0.0
  0
LINE
  5
A9
330
7C
100
AcDbEntity
  8
0
  6
CONTINUOUS
 62
     0
100
AcDbLine
 10
0.0
 20
0.0
 30
0.0
 11
-1.0
 21
0.083333333
 31
0.0
  0
LINE
  5
AA
330
7C
100
AcDbEntity
  8
0
  6
CONTINUOUS
 62
     0
100
AcDbLine
 10
0.0
 20
0.0
 30
0.0
 11
-1.0
 21
-0.083333333
 31
0.0
  0
LINE
  5
AB
330
7C
100
AcDbEntity
  8
0
  6
CONTINUOUS
 62
     0
100
AcDbLine
 10
-1.0
 20
0.166666667
 30
0.0
 11
-1.0
 21
-0.166666667
 31
0.0
  0
ENDBLK
  5
7E
330
7C
100
AcDbEntity
  8
0
100
AcDbBlockEnd
  0
BLOCK
  5
80
330
7F
100
AcDbEntity
  8
0
100
AcDbBlockBegin
  2
EX_BCIR
 70
     0
 10
0.0
 20
0.0
 30
0.0
  3
EX_BCIR
  1

  0
LINE
  5
AC
330
7F
100
AcDbEntity
  8
0
  6
CONTINUOUS
 62
     0
100
AcDbLine
 10
0.0
 20
0.0
 30
0.0
 11
-1.0
 21
0.0
 31
0.0
  0
CIRCLE
  5
AD
330
7F
100
AcDbEntity
  8
0
  6
CONTINUOUS
 62
     0
100
AcDbCircle
 10
0.0
 20
0.0
 30
0.0
 40
0.5
  0
CIRCLE
  5
AE
330
7F
100
AcDbEntity
  8
0
  6
CONTINUOUS
 62
     0
100
AcDbCircle
 10
0.0
 20
0.0
 30
0.0
 40
0.25
  0
ENDBLK
  5
81
330
7F
100
AcDbEntity
  8
0
100
AcDbBlockEnd
  0
BLOCK
  5
83
330
82
100
AcDbEntity
  8
0
100
AcDbBlockBegin
  2
EX_RCIVIL
 70
     0
 10
0.0
 20
0.0
 30
0.0
  3
EX_RCIVIL
  1

  0
LINE
  5
AF
330
82
100
AcDbEntity
  8
0
  6
CONTINUOUS
 62
     0
100
AcDbLine
 10
0.0
 20
0.0
 30
0.0
 11
-1.0
 21
0.0
 31
0.0
  0
LINE
  5
B0
330
82
100
AcDbEntity
  8
0
  6
CONTINUOUS
 62
     0
100
AcDbLine
 10
-1.0
 20
-0.25
 30
0.0
 11
0.0
 21
-0.25
 31
0.0
  0
LINE
  5
B1
330
82
100
AcDbEntity
  8
0
  6
CONTINUOUS
 62
     0
100
AcDbLine
 10
-1.0
 20
-0.125
 30
0.0
 11
0.0
 21
-0.125
 31
0.0
  0
ENDBLK
  5
84
330
82
100
AcDbEntity
  8
0
100
AcDbBlockEnd
  0
BLOCK
  5
86
330
85
100
AcDbEntity
  8
0
100
AcDbBlockBegin
  2
EX_SLANT
 70
     0
 10
0.0
 20
0.0
 30
0.0
  3
EX_SLANT
  1

  0
LINE
  5
B2
330
85
100
AcDbEntity
  8
0
  6
CONTINUOUS
 62
     0
100
AcDbLine
 10
0.0
 20
0.0
 30
0.0
 11
-1.0
 21
0.0
 31
0.0
  0
LINE
  5
B3
330
85
100
AcDbEntity
  8
0
  6
CONTINUOUS
 62
     0
100
AcDbLine
 10
0.707106781
 20
0.707106781
 30
0.0
 11
-0.707106781
 21
-0.707106781
 31
0.0
  0
ENDBLK
  5
87
330
85
100
AcDbEntity
  8
0
100
AcDbBlockEnd
  0
BLOCK
  5
89
330
88
100
AcDbEntity
  8
0
100
AcDbBlockBegin
  2
EX_NONE
 70
     0
 10
0.0
 20
0.0
 30
0.0
  3
EX_NONE
  1

  0
LINE
  5
B4
330
88
100
AcDbEntity
  8
0
  6
CONTINUOUS
 62
     0
100
AcDbLine
 10
0.0
 20
0.0
 30
0.0
 11
-1.0
 21
0.0
 31
0.0
  0
ENDBLK
  5
8A
330
88
100
AcDbEntity
  8
0
100
AcDbBlockEnd
  0
BLOCK
  5
8C
330
8B
100
AcDbEntity
  8
0
100
AcDbBlockBegin
  2
EX_CIVIL
 70
     0
 10
0.0
 20
0.0
 30
0.0
  3
EX_CIVIL
  1

  0
LINE
  5
B5
330
8B
100
AcDbEntity
  8
0
  6
CONTINUOUS
 62
     0
100
AcDbLine
 10
0.0
 20
0.0
 30
0.0
 11
-1.0
 21
0.0
 31
0.0
  0
LINE
  5
B6
330
8B
100
AcDbEntity
  8
0
  6
CONTINUOUS
 62
     0
100
AcDbLine
 10
-1.0
 20
0.25
 30
0.0
 11
0.0
 21
0.25
 31
0.0
  0
LINE
  5
B7
330
8B
100
AcDbEntity
  8
0
  6
CONTINUOUS
 62
     0
100
AcDbLine
 10
-1.0
 20
0.125
 30
0.0
 11
0.0
 21
0.125
 31
0.0
  0
ENDBLK
  5
8D
330
8B
100
AcDbEntity
  8
0
100
AcDbBlockEnd
  0
BLOCK
  5
8F
330
8E
100
AcDbEntity
  8
0
100
AcDbBlockBegin
  2
EX_WCIR
 70
     0
 10
0.0
 20
0.0
 30
0.0
  3
EX_WCIR
  1

  0
LINE
  5
B8
330
8E
100
AcDbEntity
  8
0
  6
CONTINUOUS
 62
     0
100
AcDbLine
 10
0.0
 20
0.0
 30
0.0
 11
-1.0
 21
0.0
 31
0.0
  0
CIRCLE
  5
B9
330
8E
100
AcDbEntity
  8
0
  6
CONTINUOUS
 62
     0
100
AcDbCircle
 10
0.0
 20
0.0
 30
0.0
 40
0.5
  0
ENDBLK
  5
90
330
8E
100
AcDbEntity
  8
0
100
AcDbBlockEnd
  0
BLOCK
  5
92
330
91
100
AcDbEntity
  8
0
100
AcDbBlockBegin
  2
EX_WCIR2
 70
     0
 10
0.0
 20
0.0
 30
0.0
  3
EX_WCIR2
  1

  0
LINE
  5
BA
330
91
100
AcDbEntity
  8
0
  6
CONTINUOUS
 62
     0
100
AcDbLine
 10
-0.5
 20
0.0
 30
0.0
 11
-1.0
 21
0.0
 31
0.0
  0
CIRCLE
  5
BB
330
91
100
AcDbEntity
  8
0
  6
CONTINUOUS
 62
     0
100
AcDbCircle
 10
0.0
 20
0.0
 30
0.0
 40
0.5
  0
ENDBLK
  5
93
330
91
100
AcDbEntity
  8
0
100
AcDbBlockEnd
  0
BLOCK
  5
95
330
94
100
AcDbEntity
  8
0
100
AcDbBlockBegin
  2
EX_WNORM
 70
     0
 10
0.0
 20
0.0
 30
0.0
  3
EX_WNORM
  1

  0
LINE
  5
BC
330
94
100
AcDbEntity
  8
0
  6
CONTINUOUS
 62
     0
100
AcDbLine
 10
-1.0
 20
0.0
 30
0.0
 11
-1.0
 21
0.0
 31
0.0
  0
LINE
  5
BD
330
94
100
AcDbEntity
  8
0
  6
CONTINUOUS
 62
     0
100
AcDbLine
 10
0.0
 20
0.0
 30
0.0
 11
-1.0
 21
0.166666667
 31
0.0
  0
LINE
  5
BE
330
94
100
AcDbEntity
  8
0
  6
CONTINUOUS
 62
     0
100
AcDbLine
 10
0.0
 20
0.0
 30
0.0
 11
-1.0
 21
-0.166666667
 31
0.0
  0
LINE
  5
BF
330
94
100
AcDbEntity
  8
0
  6
CONTINUOUS
 62
     0
100
AcDbLine
 10
-1.0
 20
0.166666667
 30
0.0
 11
-1.0
 21
-0.166666667
 31
0.0
  0
ENDBLK
  5
96
330
94
100
AcDbEntity
  8
0
100
AcDbBlockEnd
  0
BLOCK
  5
98
330
97
100
AcDbEntity
  8
0
100
AcDbBlockBegin
  2
EX_NNORM
 70
     0
 10
0.0
 20
0.0
 30
0.0
  3
EX_NNORM
  1

  0
LINE
  5
C0
330
97
100
AcDbEntity
  8
0
  6
CONTINUOUS
 62
     0
100
AcDbLine
 10
0.0
 20
0.0
 30
0.0
 11
-1.0
 21
0.0
 31
0.0
  0
LINE
  5
C1
330
97
100
AcDbEntity
  8
0
  6
CONTINUOUS
 62
     0
100
AcDbLine
 10
0.0
 20
0.0
 30
0.0
 11
-1.0
 21
0.166666667
 31
0.0
  0
LINE
  5
C2
330
97
100
AcDbEntity
  8
0
  6
CONTINUOUS
 62
     0
100
AcDbLine
 10
0.0
 20
0.0
 30
0.0
 11
-1.0
 21
-0.166666667
 31
0.0
  0
LINE
  5
C3
330
97
100
AcDbEntity
  8
0
  6
CONTINUOUS
 62
     0
100
AcDbLine
 10
-1.0
 20
0.166666667
 30
0.0
 11
-1.0
 21
-0.166666667
 31
0.0
  0
ENDBLK
  5
99
330
97
100
AcDbEntity
  8
0
100
AcDbBlockEnd
  0
BLOCK
  5
9B
330
9A
100
AcDbEntity
  8
0
100
AcDbBlockBegin
  2
EX_BBOX
 70
     0
 10
0.0
 20
0.0
 30
0.0
  3
EX_BBOX
  1

  0
LINE
  5
C4
330
9A
100
AcDbEntity
  8
0
  6
CONTINUOUS
 62
     0
100
AcDbLine
 10
0.0
 20
0.0
 30
0.0
 11
-1.0
 21
0.0
 31
0.0
  0
LINE
  5
C5
330
9A
100
AcDbEntity
  8
0
  6
CONTINUOUS
 62
     0
100
AcDbLine
 10
-0.5
 20
0.5
 30
0.0
 11
0.5
 21
0.5
 31
0.0
  0
LINE
  5
C6
330
9A
100
AcDbEntity
  8
0
  6
CONTINUOUS
 62
     0
100
AcDbLine
 10
0.5
 20
0.5
 30
0.0
 11
0.5
 21
-0.5
 31
0.0
  0
LINE
  5
C7
330
9A
100
AcDbEntity
  8
0
  6
CONTINUOUS
 62
     0
100
AcDbLine
 10
0.5
 20
-0.5
 30
0.0
 11
-0.5
 21
-0.5
 31
0.0
  0
LINE
  5
C8
330
9A
100
AcDbEntity
  8
0
  6
CONTINUOUS
 62
     0
100
AcDbLine
 10
-0.5
 20
-0.5
 30
0.0
 11
-0.5
 21
0.5
 31
0.0
  0
LINE
  5
C9
330
9A
100
AcDbEntity
  8
0
  6
CONTINUOUS
 62
     0
100
AcDbLine
 10
-0.25
 20
0.25
 30
0.0
 11
0.25
 21
0.25
 31
0.0
  0
LINE
  5
CA
330
9A
100
AcDbEntity
  8
0
  6
CONTINUOUS
 62
     0
100
AcDbLine
 10
0.25
 20
0.25
 30
0.0
 11
0.25
 21
-0.25
 31
0.0
  0
LINE
  5
CB
330
9A
100
AcDbEntity
  8
0
  6
CONTINUOUS
 62
     0
100
AcDbLine
 10
0.25
 20
-0.25
 30
0.0
 11
-0.25
 21
-0.25
 31
0.0
  0
LINE
  5
CC
330
9A
100
AcDbEntity
  8
0
  6
CONTINUOUS
 62
     0
100
AcDbLine
 10
-0.25
 20
-0.25
 30
0.0
 11
-0.25
 21
0.25
 31
0.0
  0
ENDBLK
  5
9C
330
9A
100
AcDbEntity
  8
0
100
AcDbBlockEnd
  0
BLOCK
  5
9E
330
9D
100
AcDbEntity
  8
0
100
AcDbBlockBegin
  2
EX_WBOX
 70
     0
 10
0.0
 20
0.0
 30
0.0
  3
EX_WBOX
  1

  0
LINE
  5
CD
330
9D
100
AcDbEntity
  8
0
  6
CONTINUOUS
 62
     0
100
AcDbLine
 10
-0.5
 20
0.0
 30
0.0
 11
-1.0
 21
0.0
 31
0.0
  0
LINE
  5
CE
330
9D
100
AcDbEntity
  8
0
  6
CONTINUOUS
 62
     0
100
AcDbLine
 10
-0.5
 20
0.5
 30
0.0
 11
0.5
 21
0.5
 31
0.0
  0
LINE
  5
CF
330
9D
100
AcDbEntity
  8
0
  6
CONTINUOUS
 62
     0
100
AcDbLine
 10
0.5
 20
0.5
 30
0.0
 11
0.5
 21
-0.5
 31
0.0
  0
LINE
  5
D0
330
9D
100
AcDbEntity
  8
0
  6
CONTINUOUS
 62
     0
100
AcDbLine
 10
0.5
 20
-0.5
 30
0.0
 11
-0.5
 21
-0.5
 31
0.0
  0
LINE
  5
D1
330
9D
100
AcDbEntity
  8
0
  6
CONTINUOUS
 62
     0
100
AcDbLine
 10
-0.5
 20
-0.5
 30
0.0
 11
-0.5
 21
0.5
 31
0.0
  0
ENDBLK
  5
9F
330
9D
100
AcDbEntity
  8
0
100
AcDbBlockEnd
  0
BLOCK
  5
A1
330
A0
100
AcDbEntity
  8
0
100
AcDbBlockBegin
  2
EX_INTEGRAL
 70
     0
 10
0.0
 20
0.0
 30
0.0
  3
EX_INTEGRAL
  1

  0
LINE
  5
D2
330
A0
100
AcDbEntity
  8
0
  6
CONTINUOUS
 62
     0
100
AcDbLine
 10
0.0
 20
0.0
 30
0.0
 11
-1.0
 21
0.0
 31
0.0
  0
ARC
  5
D3
330
A0
100
AcDbEntity
  8
0
  6
CONTINUOUS
 62
     0
100
AcDbCircle
 10
0.542115
 20
0.164992
 30
0.0
 40
0.56667
100
AcDbArc
 50
73.07249033629006
 51
196.9275130221199
  0
ARC
  5
D4
330
A0
100
AcDbEntity
  8
0
  6
CONTINUOUS
 62
     0
100
AcDbCircle
 10
-0.542115
 20
-0.164992
 30
0.0
 40
0.56667
100
AcDbArc
 50
253.0724869220464
 51
16.9275130559125
  0
ENDBLK
  5
A2
330
A0
100
AcDbEntity
  8
0
100
AcDbBlockEnd
  0
BLOCK
  5
364
330
363
100
AcDbEntity
  8
0
100
AcDbBlockBegin
  2
*D15
 70
     1
 10
0.0
 20
0.0
 30
0.0
  3
*D15
  1

  0
LINE
  5
366
330
363
100
AcDbEntity
  8
LAY-20
  6
CONTINUOUS
 62
     4
100
AcDbLine
 10
806.5
 20
790.90271108913
 30
0.0
 11
806.5
 21
1045.0
 31
0.0
  0
LINE
  5
367
330
363
100
AcDbEntity
  8
LAY-20
  6
CONTINUOUS
 62
     4
100
AcDbLine
 10
1771.5
 20
790.90271108913
 30
0.0
 11
1771.5
 21
1045.0
 31
0.0
  0
LINE
  5
368
330
363
100
AcDbEntity
  8
LAY-20
  6
CONTINUOUS
 62
     4
100
AcDbLine
 10
836.5
 20
1030.0
 30
0.0
 11
1741.5
 21
1030.0
 31
0.0
  0
INSERT
  5
369
330
363
100
AcDbEntity
  8
LAY-20
 62
     4
100
AcDbBlockReference
  2
EX_BNORM
 10
806.5
 20
1030.0
 30
0.0
 41
30.0
 42
30.0
 43
30.0
 50
180.0
  0
INSERT
  5
36A
330
363
100
AcDbEntity
  8
LAY-20
 62
     4
100
AcDbBlockReference
  2
EX_BNORM
 10
1771.5
 20
1030.0
 30
0.0
 41
30.0
 42
30.0
 43
30.0
  0
MTEXT
  5
36B
330
363
100
AcDbEntity
  8
LAY-20
 62
     7
100
AcDbMText
 10
1289.0
 20
1055.0
 30
0.0
 40
31.181104
 41
0.0
 71
     5
 72
     1
  1
%%c965
  7
EXCADDIM1
  0
POINT
  5
36C
330
363
100
AcDbEntity
  8
DEFPOINTS
 62
     0
100
AcDbPoint
 10
806.5
 20
775.90271108913
 30
0.0
  0
POINT
  5
36D
330
363
100
AcDbEntity
  8
DEFPOINTS
 62
     0
100
AcDbPoint
 10
1771.5
 20
775.90271108913
 30
0.0
  0
POINT
  5
36E
330
363
100
AcDbEntity
  8
DEFPOINTS
 62
     0
100
AcDbPoint
 10
1771.5
 20
1030.0
 30
0.0
  0
ENDBLK
  5
365
330
363
100
AcDbEntity
  8
0
100
AcDbBlockEnd
  0
BLOCK
  5
371
330
370
100
AcDbEntity
  8
0
100
AcDbBlockBegin
  2
*D16
 70
     1
 10
0.0
 20
0.0
 30
0.0
  3
*D16
  1

  0
LINE
  5
373
330
370
100
AcDbEntity
  8
LAY-20
  6
CONTINUOUS
 62
     4
100
AcDbLine
 10
828.0000000000001
 20
795.90271108913
 30
0.0
 11
828.0000000000001
 21
975.0
 31
0.0
  0
LINE
  5
374
330
370
100
AcDbEntity
  8
LAY-20
  6
CONTINUOUS
 62
     4
100
AcDbLine
 10
1750.0
 20
795.90271108913
 30
0.0
 11
1750.0
 21
975.0
 31
0.0
  0
LINE
  5
375
330
370
100
AcDbEntity
  8
LAY-20
  6
CONTINUOUS
 62
     4
100
AcDbLine
 10
858.0000000000001
 20
960.0
 30
0.0
 11
1720.0
 21
960.0
 31
0.0
  0
INSERT
  5
376
330
370
100
AcDbEntity
  8
LAY-20
 62
     4
100
AcDbBlockReference
  2
EX_BNORM
 10
828.0000000000001
 20
960.0
 30
0.0
 41
30.0
 42
30.0
 43
30.0
 50
180.0
  0
INSERT
  5
377
330
370
100
AcDbEntity
  8
LAY-20
 62
     4
100
AcDbBlockReference
  2
EX_BNORM
 10
1750.0
 20
960.0
 30
0.0
 41
30.0
 42
30.0
 43
30.0
  0
MTEXT
  5
378
330
370
100
AcDbEntity
  8
LAY-20
 62
     7
100
AcDbMText
 10
1289.0
 20
985.0
 30
0.0
 40
31.181104
 41
0.0
 71
     5
 72
     1
  1
%%c922
  7
EXCADDIM1
  0
POINT
  5
379
330
370
100
AcDbEntity
  8
DEFPOINTS
 62
     0
100
AcDbPoint
 10
828.0000000000001
 20
780.90271108913
 30
0.0
  0
POINT
  5
37A
330
370
100
AcDbEntity
  8
DEFPOINTS
 62
     0
100
AcDbPoint
 10
1750.0
 20
780.90271108913
 30
0.0
  0
POINT
  5
37B
330
370
100
AcDbEntity
  8
DEFPOINTS
 62
     0
100
AcDbPoint
 10
1750.0
 20
960.0
 30
0.0
  0
ENDBLK
  5
372
330
370
100
AcDbEntity
  8
0
100
AcDbBlockEnd
  0
BLOCK
  5
37E
330
37D
100
AcDbEntity
  8
0
100
AcDbBlockBegin
  2
*D17
 70
     1
 10
0.0
 20
0.0
 30
0.0
  3
*D17
  1

  0
LINE
  5
380
330
37D
100
AcDbEntity
  8
LAY-20
  6
CONTINUOUS
 62
     4
100
AcDbLine
 10
889.0
 20
686.9027110891298
 30
0.0
 11
889.0
 21
586.90271108913
 31
0.0
  0
LINE
  5
381
330
37D
100
AcDbEntity
  8
LAY-20
  6
CONTINUOUS
 62
     4
100
AcDbLine
 10
1689.0
 20
686.9027110891298
 30
0.0
 11
1689.0
 21
586.90271108913
 31
0.0
  0
LINE
  5
382
330
37D
100
AcDbEntity
  8
LAY-20
  6
CONTINUOUS
 62
     4
100
AcDbLine
 10
919.0
 20
601.90271108913
 30
0.0
 11
1659.0
 21
601.90271108913
 31
0.0
  0
INSERT
  5
383
330
37D
100
AcDbEntity
  8
LAY-20
 62
     4
100
AcDbBlockReference
  2
EX_BNORM
 10
889.0
 20
601.90271108913
 30
0.0
 41
30.0
 42
30.0
 43
30.0
 50
180.0
  0
INSERT
  5
384
330
37D
100
AcDbEntity
  8
LAY-20
 62
     4
100
AcDbBlockReference
  2
EX_BNORM
 10
1689.0
 20
601.90271108913
 30
0.0
 41
30.0
 42
30.0
 43
30.0
  0
MTEXT
  5
385
330
37D
100
AcDbEntity
  8
LAY-20
 62
     7
100
AcDbMText
 10
1289.0
 20
626.90271108913
 30
0.0
 40
31.181104
 41
0.0
 71
     5
 72
     1
  1
%%c800
  7
EXCADDIM1
  0
POINT
  5
386
330
37D
100
AcDbEntity
  8
DEFPOINTS
 62
     0
100
AcDbPoint
 10
889.0
 20
701.9027110891298
 30
0.0
  0
POINT
  5
387
330
37D
100
AcDbEntity
  8
DEFPOINTS
 62
     0
100
AcDbPoint
 10
1689.0
 20
701.9027110891298
 30
0.0
  0
POINT
  5
388
330
37D
100
AcDbEntity
  8
DEFPOINTS
 62
     0
100
AcDbPoint
 10
1689.0
 20
601.90271108913
 30
0.0
  0
ENDBLK
  5
37F
330
37D
100
AcDbEntity
  8
0
100
AcDbBlockEnd
  0
BLOCK
  5
38B
330
38A
100
AcDbEntity
  8
0
100
AcDbBlockBegin
  2
*D18
 70
     1
 10
0.0
 20
0.0
 30
0.0
  3
*D18
  1

  0
LINE
  5
38D
330
38A
100
AcDbEntity
  8
LAY-20
  6
CONTINUOUS
 62
     4
100
AcDbLine
 10
819.0
 20
686.9027110891298
 30
0.0
 11
819.0
 21
516.90271108913
 31
0.0
  0
LINE
  5
38E
330
38A
100
AcDbEntity
  8
LAY-20
  6
CONTINUOUS
 62
     4
100
AcDbLine
 10
849.0
 20
531.90271108913
 30
0.0
 11
1729.0
 21
531.90271108913
 31
0.0
  0
INSERT
  5
38F
330
38A
100
AcDbEntity
  8
LAY-20
 62
     4
100
AcDbBlockReference
  2
EX_BNORM
 10
819.0
 20
531.90271108913
 30
0.0
 41
30.0
 42
30.0
 43
30.0
 50
180.0
  0
INSERT
  5
390
330
38A
100
AcDbEntity
  8
LAY-20
 62
     4
100
AcDbBlockReference
  2
EX_NONE
 10
1759.0
 20
531.90271108913
 30
0.0
 41
30.0
 42
30.0
 43
30.0
  0
MTEXT
  5
391
330
38A
100
AcDbEntity
  8
LAY-20
 62
     7
100
AcDbMText
 10
1289.0
 20
556.90271108913
 30
0.0
 40
31.181104
 41
0.0
 71
     5
 72
     1
  1
□940
  7
EXCADDIM1
  0
POINT
  5
392
330
38A
100
AcDbEntity
  8
DEFPOINTS
 62
     0
100
AcDbPoint
 10
819.0
 20
701.9027110891298
 30
0.0
  0
POINT
  5
393
330
38A
100
AcDbEntity
  8
DEFPOINTS
 62
     0
100
AcDbPoint
 10
1759.0
 20
531.90271108913
 30
0.0
  0
POINT
  5
394
330
38A
100
AcDbEntity
  8
DEFPOINTS
 62
     0
100
AcDbPoint
 10
1759.0
 20
531.90271108913
 30
0.0
  0
ENDBLK
  5
38C
330
38A
100
AcDbEntity
  8
0
100
AcDbBlockEnd
  0
BLOCK
  5
397
330
396
100
AcDbEntity
  8
0
100
AcDbBlockBegin
  2
*D19
 70
     1
 10
0.0
 20
0.0
 30
0.0
  3
*D19
  1

  0
LINE
  5
399
330
396
100
AcDbEntity
  8
LAY-20
  6
CONTINUOUS
 62
     4
100
AcDbLine
 10
1800.4518444143
 20
781.90271108912
 30
0.0
 11
2021.5
 21
781.90271108912
 31
0.0
  0
LINE
  5
39A
330
396
100
AcDbEntity
  8
LAY-20
  6
CONTINUOUS
 62
     4
100
AcDbLine
 10
1921.5
 20
701.9027110891298
 30
0.0
 11
2021.5
 21
701.9027110891298
 31
0.0
  0
LINE
  5
39B
330
396
100
AcDbEntity
  8
LAY-20
  6
CONTINUOUS
 62
     4
100
AcDbLine
 10
2006.5
 20
751.90271108912
 30
0.0
 11
2006.5
 21
731.9027110891298
 31
0.0
  0
INSERT
  5
39C
330
396
100
AcDbEntity
  8
LAY-20
 62
     4
100
AcDbBlockReference
  2
EX_BNORM
 10
2006.5
 20
781.90271108912
 30
0.0
 41
30.0
 42
30.0
 43
30.0
 50
90.0
  0
INSERT
  5
39D
330
396
100
AcDbEntity
  8
LAY-20
 62
     4
100
AcDbBlockReference
  2
EX_BNORM
 10
2006.5
 20
701.9027110891298
 30
0.0
 41
30.0
 42
30.0
 43
30.0
 50
270.0
  0
MTEXT
  5
39E
330
396
100
AcDbEntity
  8
LAY-20
 62
     7
100
AcDbMText
 10
1981.5
 20
741.902711089125
 30
0.0
 40
31.181104
 41
0.0
 71
     5
 72
     1
  1
80
  7
EXCADDIM1
 11
0.0
 21
1.0
 31
0.0
  0
POINT
  5
39F
330
396
100
AcDbEntity
  8
DEFPOINTS
 62
     0
100
AcDbPoint
 10
1785.4518444143
 20
781.90271108912
 30
0.0
  0
POINT
  5
3A0
330
396
100
AcDbEntity
  8
DEFPOINTS
 62
     0
100
AcDbPoint
 10
1906.5
 20
701.9027110891298
 30
0.0
  0
POINT
  5
3A1
330
396
100
AcDbEntity
  8
DEFPOINTS
 62
     0
100
AcDbPoint
 10
2006.5
 20
701.9027110891298
 30
0.0
  0
ENDBLK
  5
398
330
396
100
AcDbEntity
  8
0
100
AcDbBlockEnd
  0
ENDSEC
  0
SECTION
  2
ENTITIES
  0
LINE
  5
D5
330
1F
100
AcDbEntity
  8
LAY-10
  6
CONTINUOUS
 62
     7
100
AcDbLine
 10
826.5000000000005
 20
780.9027110891259
 30
0.0
 11
807.5481555856613
 21
780.9027110891259
 31
0.0
  0
LINE
  5
D6
330
1F
100
AcDbEntity
  8
LAY-10
  6
CONTINUOUS
 62
     7
100
AcDbLine
 10
807.5481555856613
 20
780.9027110891259
 30
0.0
 11
806.5000000000005
 21
760.9027110891259
 31
0.0
  0
LINE
  5
D7
330
1F
100
AcDbEntity
  8
LAY-10
  6
CONTINUOUS
 62
     7
100
AcDbLine
 10
822.0000000000007
 20
745.4027110891261
 30
0.0
 11
822.0000000000007
 21
715.8459916753318
 31
0.0
  0
LINE
  5
D8
330
1F
100
AcDbEntity
  8
LAY-10
  6
CONTINUOUS
 62
     7
100
AcDbLine
 10
826.5000000000005
 20
780.9027110891259
 30
0.0
 11
826.5000000000005
 21
762.9027110891259
 31
0.0
  0
LINE
  5
D9
330
1F
100
AcDbEntity
  8
LAY-10
  6
CONTINUOUS
 62
     7
100
AcDbLine
 10
826.5000000000005
 20
762.9027110891259
 30
0.0
 11
840.5000000000005
 21
762.9027110891259
 31
0.0
  0
LINE
  5
DA
330
1F
100
AcDbEntity
  8
LAY-10
  6
CONTINUOUS
 62
     7
100
AcDbLine
 10
822.0000000000007
 20
745.4027110891261
 30
0.0
 11
806.5000000000005
 21
760.9027110891259
 31
0.0
  0
LINE
  5
DB
330
1F
100
AcDbEntity
  8
LAY-10
  6
CONTINUOUS
 62
     7
100
AcDbLine
 10
819.5847140058441
 20
713.0597189578547
 30
0.0
 11
819.0000000000005
 21
701.9027110891257
 31
0.0
  0
ARC
  5
DC
330
1F
100
AcDbEntity
  8
LAY-10
  6
CONTINUOUS
 62
     7
100
AcDbCircle
 10
822.5806026101079
 20
712.9027110891255
 30
0.0
 40
3.000000000000003
100
AcDbArc
 50
101.1591085425006
 51
177.0000000000011
  0
LINE
  5
DD
330
1F
100
AcDbEntity
  8
LAY-10
  6
CONTINUOUS
 62
     7
100
AcDbLine
 10
842.9244719032372
 20
716.6410313079109
 30
0.0
 11
840.5000000000005
 21
762.9027110891259
 31
0.0
  0
LINE
  5
DE
330
1F
100
AcDbEntity
  8
LAY-10
  6
CONTINUOUS
 62
     7
100
AcDbLine
 10
847.9176195770101
 20
711.9027110891257
 30
0.0
 11
862.852923706651
 21
711.9027110891257
 31
0.0
  0
LINE
  5
DF
330
1F
100
AcDbEntity
  8
LAY-10
  6
CONTINUOUS
 62
     7
100
AcDbLine
 10
886.5368343736977
 20
748.9027110891257
 30
0.0
 11
889.0000000000005
 21
701.9027110891257
 31
0.0
  0
LINE
  5
E0
330
1F
100
AcDbEntity
  8
LAY-10
  6
CONTINUOUS
 62
     7
100
AcDbLine
 10
867.8460713804238
 20
716.6410313079109
 30
0.0
 11
869.5368343736977
 21
748.9027110891257
 31
0.0
  0
ARC
  5
E1
330
1F
100
AcDbEntity
  8
LAY-10
  6
CONTINUOUS
 62
     7
100
AcDbCircle
 10
862.852923706651
 20
716.9027110891257
 30
0.0
 40
5.0
100
AcDbArc
 50
270.0000000000002
 51
356.9999999999997
  0
ARC
  5
E2
330
1F
100
AcDbEntity
  8
LAY-10
  6
CONTINUOUS
 62
     7
100
AcDbCircle
 10
847.9176195770101
 20
716.9027110891257
 30
0.0
 40
5.0
100
AcDbArc
 50
183.0000000000003
 51
270.0000000000002
  0
LINE
  5
E3
330
1F
100
AcDbEntity
  8
LAY-10
  6
CONTINUOUS
 62
     7
100
AcDbLine
 10
1751.5
 20
780.9027110891259
 30
0.0
 11
1770.45184441434
 21
780.9027110891259
 31
0.0
  0
LINE
  5
E4
330
1F
100
AcDbEntity
  8
LAY-10
  6
CONTINUOUS
 62
     7
100
AcDbLine
 10
1770.45184441434
 20
780.9027110891259
 30
0.0
 11
1771.5
 21
760.9027110891259
 31
0.0
  0
LINE
  5
E5
330
1F
100
AcDbEntity
  8
LAY-10
  6
CONTINUOUS
 62
     7
100
AcDbLine
 10
1761.5
 20
750.9027110891261
 30
0.0
 11
1771.5
 21
760.9027110891259
 31
0.0
  0
LINE
  5
E6
330
1F
100
AcDbEntity
  8
LAY-10
  6
CONTINUOUS
 62
     7
100
AcDbLine
 10
1751.5
 20
780.9027110891259
 30
0.0
 11
1751.5
 21
762.9027110891259
 31
0.0
  0
LINE
  5
E7
330
1F
100
AcDbEntity
  8
LAY-10
  6
CONTINUOUS
 62
     7
100
AcDbLine
 10
1751.5
 20
762.9027110891259
 30
0.0
 11
1737.5
 21
762.9027110891259
 31
0.0
  0
LINE
  5
E8
330
1F
100
AcDbEntity
  8
LAY-10
  6
CONTINUOUS
 62
     7
100
AcDbLine
 10
1691.463165626304
 20
748.9027110891257
 30
0.0
 11
1689.0
 21
701.9027110891257
 31
0.0
  0
LINE
  5
E9
330
1F
100
AcDbEntity
  8
LAY-10
  6
CONTINUOUS
 62
     7
100
AcDbLine
 10
1710.153928619577
 20
716.6410313079109
 30
0.0
 11
1708.463165626303
 21
748.9027110891257
 31
0.0
  0
ARC
  5
EA
330
1F
100
AcDbEntity
  8
LAY-10
  6
CONTINUOUS
 62
     7
100
AcDbCircle
 10
1715.14707629335
 20
716.9027110891257
 30
0.0
 40
5.0
100
AcDbArc
 50
183.0000000000005
 51
270.0000000000002
  0
LINE
  5
EB
330
1F
100
AcDbEntity
  8
LAY-10
  6
CONTINUOUS
 62
     7
100
AcDbLine
 10
1735.075528096764
 20
716.6410313079109
 30
0.0
 11
1735.456096607962
 21
723.9027110891257
 31
0.0
  0
LINE
  5
EC
330
1F
100
AcDbEntity
  8
LAY-10
  6
CONTINUOUS
 62
     7
100
AcDbLine
 10
1751.5
 20
711.9027110891257
 30
0.0
 11
1715.14707629335
 21
711.9027110891257
 31
0.0
  0
ARC
  5
ED
330
1F
100
AcDbEntity
  8
LAY-10
  6
CONTINUOUS
 62
     7
100
AcDbCircle
 10
1730.082380422991
 20
716.9027110891257
 30
0.0
 40
5.0
100
AcDbArc
 50
270.0000000000002
 51
356.9999999999997
  0
LINE
  5
EE
330
1F
100
AcDbEntity
  8
LAY-10
  6
CONTINUOUS
 62
     7
100
AcDbLine
 10
1761.5
 20
750.9027110891261
 30
0.0
 11
1761.5
 21
720.9027110891257
 31
0.0
  0
LINE
  5
EF
330
1F
100
AcDbEntity
  8
LAY-10
  6
CONTINUOUS
 62
     7
100
AcDbLine
 10
1751.5
 20
745.4027110891259
 30
0.0
 11
1751.5
 21
711.9027110891257
 31
0.0
  0
LINE
  5
F0
330
1F
100
AcDbEntity
  8
LAY-10
  6
CONTINUOUS
 62
     7
100
AcDbLine
 10
1736.582863862548
 20
745.4027110891259
 30
0.0
 11
1751.5
 21
745.4027110891259
 31
0.0
  0
LINE
  5
F1
330
1F
100
AcDbEntity
  8
LAY-10
  6
CONTINUOUS
 62
     7
100
AcDbLine
 10
1766.5
 20
715.9027110891257
 30
0.0
 11
1902.919397389893
 21
715.9027110891257
 31
0.0
  0
LINE
  5
F2
330
1F
100
AcDbEntity
  8
LAY-10
  6
CONTINUOUS
 62
     7
100
AcDbLine
 10
1766.499999999999
 20
755.9027110891261
 30
0.0
 11
1876.399096778185
 21
715.9027110891257
 31
0.0
  0
ARC
  5
F3
330
1F
100
AcDbEntity
  8
LAY-10
  6
CONTINUOUS
 62
     7
100
AcDbCircle
 10
1766.5
 20
720.9027110891257
 30
0.0
 40
5.0
100
AcDbArc
 50
180.0
 51
270.0000000000002
  0
LINE
  5
F4
330
1F
100
AcDbEntity
  8
LAY-10
  6
CONTINUOUS
 62
     7
100
AcDbLine
 10
1905.915285994157
 20
713.0597189578547
 30
0.0
 11
1906.5
 21
701.9027110891257
 31
0.0
  0
ARC
  5
F5
330
1F
100
AcDbEntity
  8
LAY-10
  6
CONTINUOUS
 62
     7
100
AcDbCircle
 10
1902.919397389893
 20
712.9027110891255
 30
0.0
 40
3.000000000000003
100
AcDbArc
 50
2.999999999996741
 51
90.00000000000001
  0
LINE
  5
F6
330
1F
100
AcDbEntity
  8
LAY-10
  6
CONTINUOUS
 62
     7
100
AcDbLine
 10
828.0000000000005
 20
762.9027110891259
 30
0.0
 11
828.0000000000005
 21
780.9027110891259
 31
0.0
  0
LINE
  5
F7
330
1F
100
AcDbEntity
  8
LAY-10
  6
CONTINUOUS
 62
     7
100
AcDbLine
 10
843.0000000000005
 20
782.2150410420147
 30
0.0
 11
1289.0
 21
790.0000000000009
 31
0.0
  0
LINE
  5
F8
330
1F
100
AcDbEntity
  8
LAY-10
  6
CONTINUOUS
 62
     7
100
AcDbLine
 10
828.0000000000005
 20
780.9027110891257
 30
0.0
 11
843.0000000000005
 21
782.2150410420145
 31
0.0
  0
LINE
  5
F9
330
1F
100
AcDbEntity
  8
LAY-10
  6
CONTINUOUS
 62
     7
100
AcDbLine
 10
847.5000000000009
 20
723.9027110891257
 30
0.0
 11
868.2266398916217
 21
723.9027110891257
 31
0.0
  0
LINE
  5
FA
330
1F
100
AcDbEntity
  8
LAY-10
  6
CONTINUOUS
 62
     7
100
AcDbLine
 10
828.0000000000005
 20
762.9027110891259
 30
0.0
 11
843.5581674745324
 21
762.9027110891259
 31
0.0
  0
LINE
  5
FB
330
1F
100
AcDbEntity
  8
LAY-10
  6
CONTINUOUS
 62
     7
100
AcDbLine
 10
845.5554265440414
 20
761.0073830016117
 30
0.0
 11
847.5000000000009
 21
723.9027110891257
 31
0.0
  0
ARC
  5
FC
330
1F
100
AcDbEntity
  8
LAY-10
  6
CONTINUOUS
 62
     7
100
AcDbCircle
 10
843.5581674745324
 20
760.9027110891259
 30
0.0
 40
2.0
100
AcDbArc
 50
2.999999999995996
 51
90.00000000000001
  0
LINE
  5
FD
330
1F
100
AcDbEntity
  8
LAY-10
  6
CONTINUOUS
 62
     7
100
AcDbLine
 10
1735.0
 20
782.2150410420147
 30
0.0
 11
1289.0
 21
790.0000000000009
 31
0.0
  0
LINE
  5
FE
330
1F
100
AcDbEntity
  8
LAY-10
  6
CONTINUOUS
 62
     7
100
AcDbLine
 10
1750.0
 20
780.9027110891257
 30
0.0
 11
1735.0
 21
782.2150410420145
 31
0.0
  0
LINE
  5
FF
330
1F
100
AcDbEntity
  8
LAY-10
  6
CONTINUOUS
 62
     7
100
AcDbLine
 10
1744.000000000001
 20
723.9027110891257
 30
0.0
 11
1709.773360108379
 21
723.9027110891257
 31
0.0
  0
LINE
  5
100
330
1F
100
AcDbEntity
  8
LAY-10
  6
CONTINUOUS
 62
     7
100
AcDbLine
 10
1750.0
 20
762.9027110891259
 30
0.0
 11
1734.441832525469
 21
762.9027110891259
 31
0.0
  0
ARC
  5
101
330
1F
100
AcDbEntity
  8
LAY-10
  6
CONTINUOUS
 62
     7
100
AcDbCircle
 10
1734.441832525469
 20
760.9027110891259
 30
0.0
 40
2.0
100
AcDbArc
 50
90.00000000000001
 51
177.000000000004
  0
ARC
  5
102
330
1F
100
AcDbEntity
  8
LAY-10
  6
CONTINUOUS
 62
     7
100
AcDbCircle
 10
1672.0
 20
762.311511243571
 30
0.0
 40
2.0
100
AcDbArc
 50
17.19351484575851
 51
88.99999999999173
  0
LINE
  5
103
330
1F
100
AcDbEntity
  8
LAY-10
  6
CONTINUOUS
 62
     7
100
AcDbLine
 10
1750.0
 20
762.9027110891259
 30
0.0
 11
1750.0
 21
780.9027110891259
 31
0.0
  0
LINE
  5
104
330
1F
100
AcDbEntity
  8
LAY-10
  6
CONTINUOUS
 62
     7
100
AcDbLine
 10
1744.0
 20
743.9027110891257
 30
0.0
 11
1744.0
 21
723.9027110891257
 31
0.0
  0
LINE
  5
105
330
1F
100
AcDbEntity
  8
LAY-10
  6
CONTINUOUS
 62
     7
100
AcDbLine
 10
1731.548155585662
 20
743.9027110891257
 30
0.0
 11
1744.000000000001
 21
743.9027110891257
 31
0.0
  0
LINE
  5
106
330
1F
100
AcDbEntity
  8
LAY-10
  6
CONTINUOUS
 62
     7
100
AcDbLine
 10
1732.44457345596
 20
761.0073830016117
 30
0.0
 11
1731.548155585662
 21
743.9027110891257
 31
0.0
  0
LINE
  5
107
330
1F
100
AcDbEntity
  8
LAY-10
  6
CONTINUOUS
 62
     7
100
AcDbLine
 10
1736.504252193623
 20
743.9027110891257
 30
0.0
 11
1737.5
 21
762.9027110891259
 31
0.0
  0
LINE
  5
108
330
1F
100
AcDbEntity
  8
LAY-10
  6
CONTINUOUS
 62
     7
100
AcDbLine
 10
1398.115764213976
 20
2360.0
 30
0.0
 11
1649.546144766296
 21
2360.0
 31
0.0
  0
LINE
  5
109
330
1F
100
AcDbEntity
  8
LAY-10
  6
CONTINUOUS
 62
     7
100
AcDbLine
 10
1759.0
 20
1999.115764213976
 30
0.0
 11
1759.0
 21
2239.70929556081
 31
0.0
  0
LINE
  5
10A
330
1F
100
AcDbEntity
  8
LAY-10
  6
CONTINUOUS
 62
     7
100
AcDbLine
 10
1625.910001102448
 20
2235.395282476686
 30
0.0
 11
1700.111882581859
 21
2309.597163956097
 31
0.0
  0
LINE
  5
10B
330
1F
100
AcDbEntity
  8
LAY-10
  6
CONTINUOUS
 62
     7
100
AcDbLine
 10
1634.395282476686
 20
2226.910001102447
 30
0.0
 11
1708.597163956098
 21
2301.111882581859
 31
0.0
  0
LINE
  5
10C
330
1F
100
AcDbEntity
  8
LAY-10
  6
CONTINUOUS
 62
     7
100
AcDbLine
 10
1708.597163956098
 20
2301.111882581858
 30
0.0
 11
1700.111882581859
 21
2309.597163956097
 31
0.0
  0
LINE
  5
10D
330
1F
100
AcDbEntity
  8
LAY-10
  6
CONTINUOUS
 62
     7
100
AcDbLine
 10
1449.565407233315
 20
2345.0
 30
0.0
 11
1665.36038969321
 21
2345.0
 31
0.0
  0
ARC
  5
10E
330
1F
100
AcDbEntity
  8
LAY-10
  6
CONTINUOUS
 62
     7
100
AcDbCircle
 10
1644.127720163547
 20
2245.127720163548
 30
0.0
 40
115.0
100
AcDbArc
 50
357.2994100597861
 51
87.29941005978047
  0
LINE
  5
10F
330
1F
100
AcDbEntity
  8
LAY-10
  6
CONTINUOUS
 62
     7
100
AcDbLine
 10
1744.0
 20
2050.565407233315
 30
0.0
 11
1744.0
 21
2266.360389693211
 31
0.0
  0
LINE
  5
110
330
1F
100
AcDbEntity
  8
LAY-10
  6
CONTINUOUS
 62
     7
100
AcDbLine
 10
1608.30570206012
 20
2251.732108931313
 30
0.0
 11
1675.966991411009
 21
2319.393398282202
 31
0.0
  0
LINE
  5
111
330
1F
100
AcDbEntity
  8
LAY-10
  6
CONTINUOUS
 62
     7
100
AcDbLine
 10
1650.732108931312
 20
2209.30570206012
 30
0.0
 11
1718.393398282202
 21
2276.966991411009
 31
0.0
  0
ARC
  5
112
330
1F
100
AcDbEntity
  8
LAY-10
  6
CONTINUOUS
 62
     7
100
AcDbCircle
 10
1665.36038969321
 20
2330.0
 30
0.0
 40
15.0
100
AcDbArc
 50
315.0000000000002
 51
90.00000000000001
  0
ARC
  5
113
330
1F
100
AcDbEntity
  8
LAY-10
  6
CONTINUOUS
 62
     7
100
AcDbCircle
 10
1729.0
 20
2266.360389693211
 30
0.0
 40
15.0
100
AcDbArc
 50
0.0
 51
135.0000000000001
  0
CIRCLE
  5
114
330
1F
100
AcDbEntity
  8
LAY-10
  6
CONTINUOUS
 62
     7
100
AcDbCircle
 10
1289.0
 20
1890.0
 30
0.0
 40
462.5000000000001
  0
CIRCLE
  5
115
330
1F
100
AcDbEntity
  8
LAY-10
  6
CONTINUOUS
 62
     7
100
AcDbCircle
 10
1289.0
 20
1890.0
 30
0.0
 40
461.0000000000003
  0
CIRCLE
  5
116
330
1F
100
AcDbEntity
  8
LAY-10
  6
CONTINUOUS
 62
     7
100
AcDbCircle
 10
1289.0
 20
1890.0
 30
0.0
 40
482.5000000000001
  0
LINE
  5
117
330
1F
100
AcDbEntity
  8
LAY-10
  6
CONTINUOUS
 62
     7
100
AcDbLine
 10
877.8881174181427
 20
2309.597163956098
 30
0.0
 11
869.4028360439038
 21
2301.111882581859
 31
0.0
  0
LINE
  5
118
330
1F
100
AcDbEntity
  8
LAY-10
  6
CONTINUOUS
 62
     7
100
AcDbLine
 10
952.0899988975534
 20
2235.395282476686
 30
0.0
 11
877.8881174181415
 21
2309.597163956098
 31
0.0
  0
LINE
  5
119
330
1F
100
AcDbEntity
  8
LAY-10
  6
CONTINUOUS
 62
     7
100
AcDbLine
 10
943.6047175233153
 20
2226.910001102448
 30
0.0
 11
869.4028360439038
 21
2301.111882581859
 31
0.0
  0
LINE
  5
11A
330
1F
100
AcDbEntity
  8
LAY-10
  6
CONTINUOUS
 62
     7
100
AcDbLine
 10
819.0000000000005
 20
1999.115764213976
 30
0.0
 11
819.0000000000005
 21
2250.546144766296
 31
0.0
  0
ARC
  5
11B
330
1F
100
AcDbEntity
  8
LAY-10
  6
CONTINUOUS
 62
     7
100
AcDbCircle
 10
933.8722798364535
 20
2245.127720163547
 30
0.0
 40
115.0
100
AcDbArc
 50
87.29941005978603
 51
177.2994100597806
  0
LINE
  5
11C
330
1F
100
AcDbEntity
  8
LAY-10
  6
CONTINUOUS
 62
     7
100
AcDbLine
 10
1179.884235786024
 20
2360.0
 30
0.0
 11
939.290704439191
 21
2360.0
 31
0.0
  0
LINE
  5
11D
330
1F
100
AcDbEntity
  8
LAY-10
  6
CONTINUOUS
 62
     7
100
AcDbLine
 10
834.0000000000005
 20
2050.565407233315
 30
0.0
 11
834.0000000000005
 21
2266.36038969321
 31
0.0
  0
LINE
  5
11E
330
1F
100
AcDbEntity
  8
LAY-10
  6
CONTINUOUS
 62
     7
100
AcDbLine
 10
927.2678910686882
 20
2209.30570206012
 30
0.0
 11
859.6066017177989
 21
2276.966991411009
 31
0.0
  0
ARC
  5
11F
330
1F
100
AcDbEntity
  8
LAY-10
  6
CONTINUOUS
 62
     7
100
AcDbCircle
 10
849.0000000000005
 20
2266.36038969321
 30
0.0
 40
15.0
100
AcDbArc
 50
44.99999999999969
 51
180.0
  0
LINE
  5
120
330
1F
100
AcDbEntity
  8
LAY-10
  6
CONTINUOUS
 62
     7
100
AcDbLine
 10
969.6942979398809
 20
2251.732108931312
 30
0.0
 11
902.0330085889921
 21
2319.393398282202
 31
0.0
  0
LINE
  5
121
330
1F
100
AcDbEntity
  8
LAY-10
  6
CONTINUOUS
 62
     7
100
AcDbLine
 10
1128.434592766686
 20
2345.0
 30
0.0
 11
912.6396103067901
 21
2345.0
 31
0.0
  0
ARC
  5
122
330
1F
100
AcDbEntity
  8
LAY-10
  6
CONTINUOUS
 62
     7
100
AcDbCircle
 10
912.6396103067901
 20
2330.0
 30
0.0
 40
15.0
100
AcDbArc
 50
90.00000000000001
 51
225.0000000000007
  0
LINE
  5
123
330
1F
100
AcDbEntity
  8
LAY-10
  6
CONTINUOUS
 62
     7
100
AcDbLine
 10
869.4028360439034
 20
1478.888117418143
 30
0.0
 11
877.8881174181415
 21
1470.402836043904
 31
0.0
  0
LINE
  5
124
330
1F
100
AcDbEntity
  8
LAY-10
  6
CONTINUOUS
 62
     7
100
AcDbLine
 10
943.6047175233153
 20
1553.089998897553
 30
0.0
 11
869.4028360439034
 21
1478.888117418142
 31
0.0
  0
LINE
  5
125
330
1F
100
AcDbEntity
  8
LAY-10
  6
CONTINUOUS
 62
     7
100
AcDbLine
 10
952.089998897553
 20
1544.604717523315
 30
0.0
 11
877.8881174181415
 21
1470.402836043904
 31
0.0
  0
LINE
  5
126
330
1F
100
AcDbEntity
  8
LAY-10
  6
CONTINUOUS
 62
     7
100
AcDbLine
 10
1179.884235786024
 20
1420.0
 30
0.0
 11
928.4538552337053
 21
1420.0
 31
0.0
  0
ARC
  5
127
330
1F
100
AcDbEntity
  8
LAY-10
  6
CONTINUOUS
 62
     7
100
AcDbCircle
 10
933.8722798364538
 20
1534.872279836453
 30
0.0
 40
115.0
100
AcDbArc
 50
177.299410059786
 51
267.2994100597805
  0
LINE
  5
128
330
1F
100
AcDbEntity
  8
LAY-10
  6
CONTINUOUS
 62
     7
100
AcDbLine
 10
819.0000000000005
 20
1780.884235786024
 30
0.0
 11
819.0000000000005
 21
1540.290704439191
 31
0.0
  0
LINE
  5
129
330
1F
100
AcDbEntity
  8
LAY-10
  6
CONTINUOUS
 62
     7
100
AcDbLine
 10
1128.434592766686
 20
1435.0
 30
0.0
 11
912.6396103067905
 21
1435.0
 31
0.0
  0
LINE
  5
12A
330
1F
100
AcDbEntity
  8
LAY-10
  6
CONTINUOUS
 62
     7
100
AcDbLine
 10
969.6942979398814
 20
1528.267891068688
 30
0.0
 11
902.0330085889924
 21
1460.606601717799
 31
0.0
  0
ARC
  5
12B
330
1F
100
AcDbEntity
  8
LAY-10
  6
CONTINUOUS
 62
     7
100
AcDbCircle
 10
912.6396103067905
 20
1450.0
 30
0.0
 40
15.0
100
AcDbArc
 50
134.9999999999997
 51
270.0000000000002
  0
LINE
  5
12C
330
1F
100
AcDbEntity
  8
LAY-10
  6
CONTINUOUS
 62
     7
100
AcDbLine
 10
927.2678910686889
 20
1570.694297939881
 30
0.0
 11
859.6066017177989
 21
1503.033008588992
 31
0.0
  0
LINE
  5
12D
330
1F
100
AcDbEntity
  8
LAY-10
  6
CONTINUOUS
 62
     7
100
AcDbLine
 10
834.0000000000005
 20
1729.434592766686
 30
0.0
 11
834.0000000000005
 21
1513.63961030679
 31
0.0
  0
ARC
  5
12E
330
1F
100
AcDbEntity
  8
LAY-10
  6
CONTINUOUS
 62
     7
100
AcDbCircle
 10
849.0000000000005
 20
1513.63961030679
 30
0.0
 40
15.0
100
AcDbArc
 50
180.0
 51
315.0000000000003
  0
LINE
  5
12F
330
1F
100
AcDbEntity
  8
LAY-10
  6
CONTINUOUS
 62
     7
100
AcDbLine
 10
1700.111882581858
 20
1470.402836043903
 30
0.0
 11
1708.597163956097
 21
1478.888117418142
 31
0.0
  0
LINE
  5
130
330
1F
100
AcDbEntity
  8
LAY-10
  6
CONTINUOUS
 62
     7
100
AcDbLine
 10
1625.910001102447
 20
1544.604717523315
 30
0.0
 11
1700.111882581859
 21
1470.402836043903
 31
0.0
  0
LINE
  5
131
330
1F
100
AcDbEntity
  8
LAY-10
  6
CONTINUOUS
 62
     7
100
AcDbLine
 10
1634.395282476686
 20
1553.089998897553
 30
0.0
 11
1708.597163956097
 21
1478.888117418142
 31
0.0
  0
LINE
  5
132
330
1F
100
AcDbEntity
  8
LAY-10
  6
CONTINUOUS
 62
     7
100
AcDbLine
 10
1759.0
 20
1780.884235786024
 30
0.0
 11
1759.0
 21
1529.453855233705
 31
0.0
  0
ARC
  5
133
330
1F
100
AcDbEntity
  8
LAY-10
  6
CONTINUOUS
 62
     7
100
AcDbCircle
 10
1644.127720163548
 20
1534.872279836454
 30
0.0
 40
115.0
100
AcDbArc
 50
267.2994100597863
 51
357.2994100597809
  0
LINE
  5
134
330
1F
100
AcDbEntity
  8
LAY-10
  6
CONTINUOUS
 62
     7
100
AcDbLine
 10
1398.115764213976
 20
1420.0
 30
0.0
 11
1638.70929556081
 21
1420.0
 31
0.0
  0
TEXT
  5
135
330
1F
100
AcDbEntity
  8
LAY-10
  6
CONTINUOUS
 62
     7
100
AcDbText
 10
1565.500000000001
 20
1442.877166
 30
0.0
 40
15.590552
  1
８０
 41
1.00625
  7
EXCADSTD
100
AcDbText
  0
LINE
  5
136
330
1F
100
AcDbEntity
  8
LAY-10
  6
CONTINUOUS
 62
     7
100
AcDbLine
 10
1744.0
 20
1729.434592766686
 30
0.0
 11
1744.0
 21
1513.63961030679
 31
0.0
  0
LINE
  5
137
330
1F
100
AcDbEntity
  8
LAY-10
  6
CONTINUOUS
 62
     7
100
AcDbLine
 10
1650.732108931313
 20
1570.694297939881
 30
0.0
 11
1718.393398282202
 21
1503.033008588992
 31
0.0
  0
ARC
  5
138
330
1F
100
AcDbEntity
  8
LAY-10
  6
CONTINUOUS
 62
     7
100
AcDbCircle
 10
1729.0
 20
1513.63961030679
 30
0.0
 40
15.0
100
AcDbArc
 50
225.0000000000001
 51
0.0
  0
LINE
  5
139
330
1F
100
AcDbEntity
  8
LAY-10
  6
CONTINUOUS
 62
     7
100
AcDbLine
 10
1608.30570206012
 20
1528.267891068688
 30
0.0
 11
1675.966991411009
 21
1460.606601717799
 31
0.0
  0
LINE
  5
13A
330
1F
100
AcDbEntity
  8
LAY-10
  6
CONTINUOUS
 62
     7
100
AcDbLine
 10
1449.565407233315
 20
1435.0
 30
0.0
 11
1665.360389693211
 21
1435.0
 31
0.0
  0
ARC
  5
13B
330
1F
100
AcDbEntity
  8
LAY-10
  6
CONTINUOUS
 62
     7
100
AcDbCircle
 10
1665.360389693211
 20
1450.0
 30
0.0
 40
15.0
100
AcDbArc
 50
270.0000000000002
 51
45.00000000000062
  0
LINE
  5
13C
330
1F
100
AcDbEntity
  8
LAY-10
  6
CONTINUOUS
 62
     7
100
AcDbLine
 10
1437.545517328089
 20
2185.288383249
 30
0.0
 11
1456.545517328089
 21
2218.197348593
 31
0.0
  0
LINE
  5
13D
330
1F
100
AcDbEntity
  8
LAY-10
  6
CONTINUOUS
 62
     7
100
AcDbLine
 10
1453.795517328089
 20
2213.434208872
 30
0.0
 11
1486.70448267209
 21
2194.434208872
 31
0.0
  0
LINE
  5
13E
330
1F
100
AcDbEntity
  8
LAY-10
  6
CONTINUOUS
 62
     7
100
AcDbLine
 10
1456.545517328089
 20
2218.197348593
 30
0.0
 11
1489.45448267209
 21
2199.197348593
 31
0.0
  0
LINE
  5
13F
330
1F
100
AcDbEntity
  8
LAY-10
  6
CONTINUOUS
 62
     7
100
AcDbLine
 10
1440.54551732809
 20
2190.484535672
 30
0.0
 11
1473.454482672089
 21
2171.484535672
 31
0.0
  0
LINE
  5
140
330
1F
100
AcDbEntity
  8
LAY-10
  6
CONTINUOUS
 62
     4
100
AcDbLine
 10
1432.782377607089
 20
2188.038383249001
 30
0.0
 11
1454.53237760709
 21
2225.710488314
 31
0.0
  0
LINE
  5
141
330
1F
100
AcDbEntity
  8
LAY-10
  6
CONTINUOUS
 62
     4
100
AcDbLine
 10
1454.53237760709
 20
2225.710488314
 30
0.0
 11
1496.967622393089
 21
2201.210488314
 31
0.0
  0
LINE
  5
142
330
1F
100
AcDbEntity
  8
LAY-10
  6
CONTINUOUS
 62
     7
100
AcDbLine
 10
1470.45448267209
 20
2166.288383249
 30
0.0
 11
1489.45448267209
 21
2199.197348593
 31
0.0
  0
LINE
  5
143
330
1F
100
AcDbEntity
  8
LAY-10
  6
CONTINUOUS
 62
     4
100
AcDbLine
 10
1423.169495625089
 20
2193.588383249
 30
0.0
 11
1488.641016151089
 21
2155.788383249
 31
0.0
  0
LINE
  5
144
330
1F
100
AcDbEntity
  8
LAY-10
  6
CONTINUOUS
 62
     4
100
AcDbLine
 10
1475.21762239309
 20
2163.538383249
 30
0.0
 11
1496.967622393089
 21
2201.210488314
 31
0.0
  0
LINE
  5
145
330
1F
100
AcDbEntity
  8
LAY-10
  6
CONTINUOUS
 62
     7
100
AcDbLine
 10
1421.295517328089
 20
2157.142557626
 30
0.0
 11
1454.204482672089
 21
2138.142557626001
 31
0.0
  0
LINE
  5
146
330
1F
100
AcDbEntity
  8
LAY-10
  6
CONTINUOUS
 62
     7
100
AcDbLine
 10
1418.54551732809
 20
2152.379417905
 30
0.0
 11
1451.454482672089
 21
2133.379417905
 31
0.0
  0
LINE
  5
147
330
1F
100
AcDbEntity
  8
LAY-10
  6
CONTINUOUS
 62
     7
100
AcDbLine
 10
1437.545517328089
 20
2185.288383249
 30
0.0
 11
1418.54551732809
 21
2152.379417905
 31
0.0
  0
LINE
  5
148
330
1F
100
AcDbEntity
  8
LAY-10
  6
CONTINUOUS
 62
     7
100
AcDbLine
 10
1434.54551732809
 20
2180.092230826
 30
0.0
 11
1467.454482672089
 21
2161.092230826
 31
0.0
  0
LINE
  5
149
330
1F
100
AcDbEntity
  8
LAY-10
  6
CONTINUOUS
 62
     4
100
AcDbLine
 10
1411.03237760709
 20
2150.366278184
 30
0.0
 11
1453.467622393089
 21
2125.866278184001
 31
0.0
  0
LINE
  5
14A
330
1F
100
AcDbEntity
  8
LAY-10
  6
CONTINUOUS
 62
     4
100
AcDbLine
 10
1432.782377607089
 20
2188.038383249001
 30
0.0
 11
1411.03237760709
 21
2150.366278184
 31
0.0
  0
LINE
  5
14B
330
1F
100
AcDbEntity
  8
LAY-10
  6
CONTINUOUS
 62
     7
100
AcDbLine
 10
1470.45448267209
 20
2166.288383249
 30
0.0
 11
1451.454482672089
 21
2133.379417905
 31
0.0
  0
LINE
  5
14C
330
1F
100
AcDbEntity
  8
LAY-10
  6
CONTINUOUS
 62
     4
100
AcDbLine
 10
1475.21762239309
 20
2163.538383249
 30
0.0
 11
1453.467622393089
 21
2125.866278184001
 31
0.0
  0
LINE
  5
14D
330
1F
100
AcDbEntity
  8
LAY-10
  6
CONTINUOUS
 62
     4
100
AcDbLine
 10
1423.16579230909
 20
2122.381968917
 30
0.0
 11
1486.165792309089
 21
2231.501169794
 31
0.0
  0
LINE
  5
14E
330
1F
100
AcDbEntity
  8
LAY-10
  6
CONTINUOUS
 62
     7
100
AcDbLine
 10
1107.545517327976
 20
2166.288383248927
 30
0.0
 11
1088.54551732781
 21
2199.197348592831
 31
0.0
  0
LINE
  5
14F
330
1F
100
AcDbEntity
  8
LAY-10
  6
CONTINUOUS
 62
     7
100
AcDbLine
 10
1091.295517327971
 20
2194.434208871925
 30
0.0
 11
1124.204482671875
 21
2213.43420887209
 31
0.0
  0
LINE
  5
150
330
1F
100
AcDbEntity
  8
LAY-10
  6
CONTINUOUS
 62
     7
100
AcDbLine
 10
1088.54551732781
 20
2199.197348592831
 30
0.0
 11
1121.454482671715
 21
2218.197348592997
 31
0.0
  0
LINE
  5
151
330
1F
100
AcDbEntity
  8
LAY-10
  6
CONTINUOUS
 62
     7
100
AcDbLine
 10
1104.545517327722
 20
2171.484535671781
 30
0.0
 11
1137.454482671626
 21
2190.484535671946
 31
0.0
  0
LINE
  5
152
330
1F
100
AcDbEntity
  8
LAY-10
  6
CONTINUOUS
 62
     4
100
AcDbLine
 10
1102.782377607069
 20
2163.538383248766
 30
0.0
 11
1081.032377606742
 21
2201.210488313578
 31
0.0
  0
LINE
  5
153
330
1F
100
AcDbEntity
  8
LAY-10
  6
CONTINUOUS
 62
     4
100
AcDbLine
 10
1081.032377606742
 20
2201.210488313578
 30
0.0
 11
1123.467622392461
 21
2225.710488314065
 31
0.0
  0
LINE
  5
154
330
1F
100
AcDbEntity
  8
LAY-10
  6
CONTINUOUS
 62
     7
100
AcDbLine
 10
1140.454482671881
 20
2185.288383249093
 30
0.0
 11
1121.454482671715
 21
2218.197348592997
 31
0.0
  0
LINE
  5
155
330
1F
100
AcDbEntity
  8
LAY-10
  6
CONTINUOUS
 62
     4
100
AcDbLine
 10
1093.169495625065
 20
2157.988383248773
 30
0.0
 11
1158.641016151117
 21
2195.788383248683
 31
0.0
  0
LINE
  5
156
330
1F
100
AcDbEntity
  8
LAY-10
  6
CONTINUOUS
 62
     4
100
AcDbLine
 10
1145.217622392788
 20
2188.038383249254
 30
0.0
 11
1123.467622392461
 21
2225.710488314065
 31
0.0
  0
LINE
  5
157
330
1F
100
AcDbEntity
  8
LAY-10
  6
CONTINUOUS
 62
     7
100
AcDbLine
 10
1123.795517327981
 20
2138.14255762593
 30
0.0
 11
1156.704482671885
 21
2157.142557626096
 31
0.0
  0
LINE
  5
158
330
1F
100
AcDbEntity
  8
LAY-10
  6
CONTINUOUS
 62
     7
100
AcDbLine
 10
1126.545517328142
 20
2133.379417905023
 30
0.0
 11
1159.454482672046
 21
2152.379417905188
 31
0.0
  0
LINE
  5
159
330
1F
100
AcDbEntity
  8
LAY-10
  6
CONTINUOUS
 62
     7
100
AcDbLine
 10
1107.545517327976
 20
2166.288383248927
 30
0.0
 11
1126.545517328142
 21
2133.379417905023
 31
0.0
  0
LINE
  5
15A
330
1F
100
AcDbEntity
  8
LAY-10
  6
CONTINUOUS
 62
     7
100
AcDbLine
 10
1110.54551732823
 20
2161.092230826074
 30
0.0
 11
1143.454482672135
 21
2180.092230826239
 31
0.0
  0
LINE
  5
15B
330
1F
100
AcDbEntity
  8
LAY-10
  6
CONTINUOUS
 62
     4
100
AcDbLine
 10
1124.532377607396
 20
2125.866278183955
 30
0.0
 11
1166.967622393114
 21
2150.366278184442
 31
0.0
  0
LINE
  5
15C
330
1F
100
AcDbEntity
  8
LAY-10
  6
CONTINUOUS
 62
     4
100
AcDbLine
 10
1102.782377607069
 20
2163.538383248766
 30
0.0
 11
1124.532377607396
 21
2125.866278183955
 31
0.0
  0
LINE
  5
15D
330
1F
100
AcDbEntity
  8
LAY-10
  6
CONTINUOUS
 62
     7
100
AcDbLine
 10
1140.454482671881
 20
2185.288383249093
 30
0.0
 11
1159.454482672046
 21
2152.379417905188
 31
0.0
  0
LINE
  5
15E
330
1F
100
AcDbEntity
  8
LAY-10
  6
CONTINUOUS
 62
     4
100
AcDbLine
 10
1145.217622392788
 20
2188.038383249254
 30
0.0
 11
1166.967622393114
 21
2150.366278184442
 31
0.0
  0
LINE
  5
15F
330
1F
100
AcDbEntity
  8
LAY-10
  6
CONTINUOUS
 62
     4
100
AcDbLine
 10
1154.834207690978
 20
2122.381968917039
 30
0.0
 11
1091.834207690838
 21
2231.501169793958
 31
0.0
  0
LINE
  5
160
330
1F
100
AcDbEntity
  8
LAY-10
  6
CONTINUOUS
 62
     7
100
AcDbLine
 10
958.9999999998868
 20
1870.999999999927
 30
0.0
 11
920.9999999997212
 21
1870.999999999832
 31
0.0
  0
LINE
  5
161
330
1F
100
AcDbEntity
  8
LAY-10
  6
CONTINUOUS
 62
     7
100
AcDbLine
 10
926.4999999998818
 20
1870.999999999925
 30
0.0
 11
926.4999999997863
 21
1909.000000000091
 31
0.0
  0
LINE
  5
162
330
1F
100
AcDbEntity
  8
LAY-10
  6
CONTINUOUS
 62
     7
100
AcDbLine
 10
920.9999999997212
 20
1870.999999999832
 30
0.0
 11
920.9999999996253
 21
1908.999999999997
 31
0.0
  0
LINE
  5
163
330
1F
100
AcDbEntity
  8
LAY-10
  6
CONTINUOUS
 62
     7
100
AcDbLine
 10
952.9999999996326
 20
1870.999999999781
 30
0.0
 11
952.9999999995371
 21
1908.999999999946
 31
0.0
  0
LINE
  5
164
330
1F
100
AcDbEntity
  8
LAY-10
  6
CONTINUOUS
 62
     4
100
AcDbLine
 10
958.9999999999795
 20
1865.499999999767
 30
0.0
 11
915.499999999653
 21
1865.499999999578
 31
0.0
  0
LINE
  5
165
330
1F
100
AcDbEntity
  8
LAY-10
  6
CONTINUOUS
 62
     4
100
AcDbLine
 10
915.499999999653
 20
1865.499999999578
 30
0.0
 11
915.4999999993726
 21
1914.500000000065
 31
0.0
  0
LINE
  5
166
330
1F
100
AcDbEntity
  8
LAY-10
  6
CONTINUOUS
 62
     7
100
AcDbLine
 10
958.9999999997913
 20
1909.000000000093
 30
0.0
 11
920.9999999996253
 21
1908.999999999997
 31
0.0
  0
LINE
  5
167
330
1F
100
AcDbEntity
  8
LAY-10
  6
CONTINUOUS
 62
     4
100
AcDbLine
 10
958.9999999999761
 20
1854.399999999773
 30
0.0
 11
959.0000000000277
 21
1929.999999999683
 31
0.0
  0
LINE
  5
168
330
1F
100
AcDbEntity
  8
LAY-10
  6
CONTINUOUS
 62
     4
100
AcDbLine
 10
958.9999999996987
 20
1914.500000000254
 30
0.0
 11
915.4999999993726
 21
1914.500000000065
 31
0.0
  0
LINE
  5
169
330
1F
100
AcDbEntity
  8
LAY-10
  6
CONTINUOUS
 62
     7
100
AcDbLine
 10
991.499999999892
 20
1870.99999999993
 30
0.0
 11
991.4999999997958
 21
1909.000000000095
 31
0.0
  0
LINE
  5
16A
330
1F
100
AcDbEntity
  8
LAY-10
  6
CONTINUOUS
 62
     7
100
AcDbLine
 10
997.0000000000523
 20
1871.000000000023
 30
0.0
 11
996.9999999999568
 21
1909.000000000189
 31
0.0
  0
LINE
  5
16B
330
1F
100
AcDbEntity
  8
LAY-10
  6
CONTINUOUS
 62
     7
100
AcDbLine
 10
958.9999999998868
 20
1870.999999999927
 30
0.0
 11
997.0000000000523
 21
1871.000000000023
 31
0.0
  0
LINE
  5
16C
330
1F
100
AcDbEntity
  8
LAY-10
  6
CONTINUOUS
 62
     7
100
AcDbLine
 10
965.0000000001412
 20
1871.000000000074
 30
0.0
 11
965.0000000000457
 21
1909.00000000024
 31
0.0
  0
LINE
  5
16D
330
1F
100
AcDbEntity
  8
LAY-10
  6
CONTINUOUS
 62
     4
100
AcDbLine
 10
1002.500000000306
 20
1865.499999999955
 30
0.0
 11
1002.500000000025
 21
1914.500000000442
 31
0.0
  0
LINE
  5
16E
330
1F
100
AcDbEntity
  8
LAY-10
  6
CONTINUOUS
 62
     4
100
AcDbLine
 10
958.9999999999795
 20
1865.499999999767
 30
0.0
 11
1002.500000000306
 21
1865.499999999955
 31
0.0
  0
LINE
  5
16F
330
1F
100
AcDbEntity
  8
LAY-10
  6
CONTINUOUS
 62
     7
100
AcDbLine
 10
958.9999999997913
 20
1909.000000000093
 30
0.0
 11
996.9999999999568
 21
1909.000000000189
 31
0.0
  0
LINE
  5
170
330
1F
100
AcDbEntity
  8
LAY-10
  6
CONTINUOUS
 62
     4
100
AcDbLine
 10
958.9999999996987
 20
1914.500000000254
 30
0.0
 11
1002.500000000025
 21
1914.500000000442
 31
0.0
  0
LINE
  5
171
330
1F
100
AcDbEntity
  8
LAY-10
  6
CONTINUOUS
 62
     4
100
AcDbLine
 10
1020.668415381888
 20
1890.000000000039
 30
0.0
 11
894.6684153817491
 21
1889.999999999958
 31
0.0
  0
LINE
  5
172
330
1F
100
AcDbEntity
  8
LAY-10
  6
CONTINUOUS
 62
     7
100
AcDbLine
 10
1140.454482671911
 20
1594.711616751001
 30
0.0
 11
1121.454482671912
 21
1561.802651407
 31
0.0
  0
LINE
  5
173
330
1F
100
AcDbEntity
  8
LAY-10
  6
CONTINUOUS
 62
     7
100
AcDbLine
 10
1124.204482671911
 20
1566.565791128
 30
0.0
 11
1091.295517327911
 21
1585.565791128001
 31
0.0
  0
LINE
  5
174
330
1F
100
AcDbEntity
  8
LAY-10
  6
CONTINUOUS
 62
     7
100
AcDbLine
 10
1121.454482671912
 20
1561.802651407
 30
0.0
 11
1088.545517327912
 21
1580.802651407001
 31
0.0
  0
LINE
  5
175
330
1F
100
AcDbEntity
  8
LAY-10
  6
CONTINUOUS
 62
     7
100
AcDbLine
 10
1137.454482671911
 20
1589.515464328001
 30
0.0
 11
1104.545517327912
 21
1608.515464328001
 31
0.0
  0
LINE
  5
176
330
1F
100
AcDbEntity
  8
LAY-10
  6
CONTINUOUS
 62
     4
100
AcDbLine
 10
1145.217622392911
 20
1591.961616751
 30
0.0
 11
1123.467622392911
 21
1554.289511686001
 31
0.0
  0
LINE
  5
177
330
1F
100
AcDbEntity
  8
LAY-10
  6
CONTINUOUS
 62
     4
100
AcDbLine
 10
1123.467622392911
 20
1554.289511686001
 30
0.0
 11
1081.032377606912
 21
1578.789511686001
 31
0.0
  0
LINE
  5
178
330
1F
100
AcDbEntity
  8
LAY-10
  6
CONTINUOUS
 62
     7
100
AcDbLine
 10
1107.545517327911
 20
1613.711616751001
 30
0.0
 11
1088.545517327912
 21
1580.802651407001
 31
0.0
  0
LINE
  5
179
330
1F
100
AcDbEntity
  8
LAY-10
  6
CONTINUOUS
 62
     4
100
AcDbLine
 10
1154.830504374911
 20
1586.411616751001
 30
0.0
 11
1089.358983848912
 21
1624.211616751001
 31
0.0
  0
LINE
  5
17A
330
1F
100
AcDbEntity
  8
LAY-10
  6
CONTINUOUS
 62
     4
100
AcDbLine
 10
1102.782377606911
 20
1616.461616751001
 30
0.0
 11
1081.032377606912
 21
1578.789511686001
 31
0.0
  0
LINE
  5
17B
330
1F
100
AcDbEntity
  8
LAY-10
  6
CONTINUOUS
 62
     7
100
AcDbLine
 10
1156.704482671911
 20
1622.857442374
 30
0.0
 11
1123.795517327912
 21
1641.857442374
 31
0.0
  0
LINE
  5
17C
330
1F
100
AcDbEntity
  8
LAY-10
  6
CONTINUOUS
 62
     7
100
AcDbLine
 10
1159.454482671911
 20
1627.620582095001
 30
0.0
 11
1126.545517327912
 21
1646.620582095001
 31
0.0
  0
LINE
  5
17D
330
1F
100
AcDbEntity
  8
LAY-10
  6
CONTINUOUS
 62
     7
100
AcDbLine
 10
1140.454482671911
 20
1594.711616751001
 30
0.0
 11
1159.454482671911
 21
1627.620582095001
 31
0.0
  0
LINE
  5
17E
330
1F
100
AcDbEntity
  8
LAY-10
  6
CONTINUOUS
 62
     7
100
AcDbLine
 10
1143.454482671911
 20
1599.907769174001
 30
0.0
 11
1110.545517327911
 21
1618.907769174001
 31
0.0
  0
LINE
  5
17F
330
1F
100
AcDbEntity
  8
LAY-10
  6
CONTINUOUS
 62
     4
100
AcDbLine
 10
1166.967622392911
 20
1629.633721816001
 30
0.0
 11
1124.532377606912
 21
1654.133721816
 31
0.0
  0
LINE
  5
180
330
1F
100
AcDbEntity
  8
LAY-10
  6
CONTINUOUS
 62
     4
100
AcDbLine
 10
1145.217622392911
 20
1591.961616751
 30
0.0
 11
1166.967622392911
 21
1629.633721816001
 31
0.0
  0
LINE
  5
181
330
1F
100
AcDbEntity
  8
LAY-10
  6
CONTINUOUS
 62
     7
100
AcDbLine
 10
1107.545517327911
 20
1613.711616751001
 30
0.0
 11
1126.545517327912
 21
1646.620582095001
 31
0.0
  0
LINE
  5
182
330
1F
100
AcDbEntity
  8
LAY-10
  6
CONTINUOUS
 62
     4
100
AcDbLine
 10
1102.782377606911
 20
1616.461616751001
 30
0.0
 11
1124.532377606912
 21
1654.133721816
 31
0.0
  0
LINE
  5
183
330
1F
100
AcDbEntity
  8
LAY-10
  6
CONTINUOUS
 62
     4
100
AcDbLine
 10
1154.834207690911
 20
1657.618031083001
 30
0.0
 11
1091.834207690912
 21
1548.498830206
 31
0.0
  0
LINE
  5
184
330
1F
100
AcDbEntity
  8
LAY-10
  6
CONTINUOUS
 62
     7
100
AcDbLine
 10
1619.000000000114
 20
1909.000000000074
 30
0.0
 11
1657.00000000028
 21
1909.00000000017
 31
0.0
  0
LINE
  5
185
330
1F
100
AcDbEntity
  8
LAY-10
  6
CONTINUOUS
 62
     7
100
AcDbLine
 10
1651.500000000119
 20
1909.000000000077
 30
0.0
 11
1651.500000000215
 21
1870.999999999911
 31
0.0
  0
LINE
  5
186
330
1F
100
AcDbEntity
  8
LAY-10
  6
CONTINUOUS
 62
     7
100
AcDbLine
 10
1657.00000000028
 20
1909.00000000017
 30
0.0
 11
1657.000000000376
 21
1871.000000000004
 31
0.0
  0
LINE
  5
187
330
1F
100
AcDbEntity
  8
LAY-10
  6
CONTINUOUS
 62
     7
100
AcDbLine
 10
1625.000000000368
 20
1909.00000000022
 30
0.0
 11
1625.000000000464
 21
1871.000000000055
 31
0.0
  0
LINE
  5
188
330
1F
100
AcDbEntity
  8
LAY-10
  6
CONTINUOUS
 62
     4
100
AcDbLine
 10
1619.000000000022
 20
1914.500000000235
 30
0.0
 11
1662.500000000348
 21
1914.500000000423
 31
0.0
  0
LINE
  5
189
330
1F
100
AcDbEntity
  8
LAY-10
  6
CONTINUOUS
 62
     4
100
AcDbLine
 10
1662.500000000348
 20
1914.500000000423
 30
0.0
 11
1662.500000000629
 21
1865.499999999936
 31
0.0
  0
LINE
  5
18A
330
1F
100
AcDbEntity
  8
LAY-10
  6
CONTINUOUS
 62
     7
100
AcDbLine
 10
1619.00000000021
 20
1870.999999999908
 30
0.0
 11
1657.000000000376
 21
1871.000000000004
 31
0.0
  0
LINE
  5
18B
330
1F
100
AcDbEntity
  8
LAY-10
  6
CONTINUOUS
 62
     4
100
AcDbLine
 10
1619.000000000025
 20
1925.600000000228
 30
0.0
 11
1618.999999999973
 21
1850.000000000318
 31
0.0
  0
LINE
  5
18C
330
1F
100
AcDbEntity
  8
LAY-10
  6
CONTINUOUS
 62
     4
100
AcDbLine
 10
1619.000000000303
 20
1865.499999999747
 30
0.0
 11
1662.500000000629
 21
1865.499999999936
 31
0.0
  0
LINE
  5
18D
330
1F
100
AcDbEntity
  8
LAY-10
  6
CONTINUOUS
 62
     7
100
AcDbLine
 10
1586.500000000109
 20
1909.000000000071
 30
0.0
 11
1586.500000000205
 21
1870.999999999906
 31
0.0
  0
LINE
  5
18E
330
1F
100
AcDbEntity
  8
LAY-10
  6
CONTINUOUS
 62
     7
100
AcDbLine
 10
1580.999999999949
 20
1908.999999999978
 30
0.0
 11
1581.000000000044
 21
1870.999999999812
 31
0.0
  0
LINE
  5
18F
330
1F
100
AcDbEntity
  8
LAY-10
  6
CONTINUOUS
 62
     7
100
AcDbLine
 10
1619.000000000114
 20
1909.000000000074
 30
0.0
 11
1580.999999999949
 21
1908.999999999978
 31
0.0
  0
LINE
  5
190
330
1F
100
AcDbEntity
  8
LAY-10
  6
CONTINUOUS
 62
     7
100
AcDbLine
 10
1612.99999999986
 20
1908.999999999927
 30
0.0
 11
1612.999999999956
 21
1870.999999999761
 31
0.0
  0
LINE
  5
191
330
1F
100
AcDbEntity
  8
LAY-10
  6
CONTINUOUS
 62
     4
100
AcDbLine
 10
1575.499999999695
 20
1914.500000000045
 30
0.0
 11
1575.499999999976
 21
1865.49999999956
 31
0.0
  0
LINE
  5
192
330
1F
100
AcDbEntity
  8
LAY-10
  6
CONTINUOUS
 62
     4
100
AcDbLine
 10
1619.000000000022
 20
1914.500000000235
 30
0.0
 11
1575.499999999695
 21
1914.500000000045
 31
0.0
  0
LINE
  5
193
330
1F
100
AcDbEntity
  8
LAY-10
  6
CONTINUOUS
 62
     7
100
AcDbLine
 10
1619.00000000021
 20
1870.999999999908
 30
0.0
 11
1581.000000000044
 21
1870.999999999812
 31
0.0
  0
LINE
  5
194
330
1F
100
AcDbEntity
  8
LAY-10
  6
CONTINUOUS
 62
     4
100
AcDbLine
 10
1619.000000000303
 20
1865.499999999747
 30
0.0
 11
1575.499999999976
 21
1865.49999999956
 31
0.0
  0
LINE
  5
195
330
1F
100
AcDbEntity
  8
LAY-10
  6
CONTINUOUS
 62
     4
100
AcDbLine
 10
1557.331584618113
 20
1889.999999999962
 30
0.0
 11
1683.331584618252
 21
1890.000000000043
 31
0.0
  0
LINE
  5
196
330
1F
100
AcDbEntity
  8
LAY-10
  6
CONTINUOUS
 62
     7
100
AcDbLine
 10
1470.454482672025
 20
1613.711616751074
 30
0.0
 11
1489.454482672191
 21
1580.80265140717
 31
0.0
  0
LINE
  5
197
330
1F
100
AcDbEntity
  8
LAY-10
  6
CONTINUOUS
 62
     7
100
AcDbLine
 10
1486.70448267203
 20
1585.565791128077
 30
0.0
 11
1453.795517328125
 21
1566.565791127911
 31
0.0
  0
LINE
  5
198
330
1F
100
AcDbEntity
  8
LAY-10
  6
CONTINUOUS
 62
     7
100
AcDbLine
 10
1489.454482672191
 20
1580.80265140717
 30
0.0
 11
1456.545517328287
 21
1561.802651407004
 31
0.0
  0
LINE
  5
199
330
1F
100
AcDbEntity
  8
LAY-10
  6
CONTINUOUS
 62
     7
100
AcDbLine
 10
1473.454482672279
 20
1608.51546432822
 30
0.0
 11
1440.545517328375
 21
1589.515464328055
 31
0.0
  0
LINE
  5
19A
330
1F
100
AcDbEntity
  8
LAY-10
  6
CONTINUOUS
 62
     4
100
AcDbLine
 10
1475.217622392932
 20
1616.461616751234
 30
0.0
 11
1496.967622393259
 21
1578.789511686423
 31
0.0
  0
LINE
  5
19B
330
1F
100
AcDbEntity
  8
LAY-10
  6
CONTINUOUS
 62
     4
100
AcDbLine
 10
1496.967622393259
 20
1578.789511686423
 30
0.0
 11
1454.53237760754
 21
1554.289511685936
 31
0.0
  0
LINE
  5
19C
330
1F
100
AcDbEntity
  8
LAY-10
  6
CONTINUOUS
 62
     7
100
AcDbLine
 10
1437.545517328121
 20
1594.711616750908
 30
0.0
 11
1456.545517328287
 21
1561.802651407004
 31
0.0
  0
LINE
  5
19D
330
1F
100
AcDbEntity
  8
LAY-10
  6
CONTINUOUS
 62
     4
100
AcDbLine
 10
1484.830504374936
 20
1622.011616751228
 30
0.0
 11
1419.358983848884
 21
1584.211616751318
 31
0.0
  0
LINE
  5
19E
330
1F
100
AcDbEntity
  8
LAY-10
  6
CONTINUOUS
 62
     4
100
AcDbLine
 10
1432.782377607213
 20
1591.961616750747
 30
0.0
 11
1454.53237760754
 21
1554.289511685936
 31
0.0
  0
LINE
  5
19F
330
1F
100
AcDbEntity
  8
LAY-10
  6
CONTINUOUS
 62
     7
100
AcDbLine
 10
1454.204482672021
 20
1641.857442374071
 30
0.0
 11
1421.295517328116
 21
1622.857442373905
 31
0.0
  0
LINE
  5
1A0
330
1F
100
AcDbEntity
  8
LAY-10
  6
CONTINUOUS
 62
     7
100
AcDbLine
 10
1451.454482671859
 20
1646.620582094978
 30
0.0
 11
1418.545517327955
 21
1627.620582094813
 31
0.0
  0
LINE
  5
1A1
330
1F
100
AcDbEntity
  8
LAY-10
  6
CONTINUOUS
 62
     7
100
AcDbLine
 10
1470.454482672025
 20
1613.711616751074
 30
0.0
 11
1451.454482671859
 21
1646.620582094978
 31
0.0
  0
LINE
  5
1A2
330
1F
100
AcDbEntity
  8
LAY-10
  6
CONTINUOUS
 62
     7
100
AcDbLine
 10
1467.454482671771
 20
1618.907769173927
 30
0.0
 11
1434.545517327866
 21
1599.907769173761
 31
0.0
  0
LINE
  5
1A3
330
1F
100
AcDbEntity
  8
LAY-10
  6
CONTINUOUS
 62
     4
100
AcDbLine
 10
1453.467622392606
 20
1654.133721816046
 30
0.0
 11
1411.032377606887
 21
1629.633721815559
 31
0.0
  0
LINE
  5
1A4
330
1F
100
AcDbEntity
  8
LAY-10
  6
CONTINUOUS
 62
     4
100
AcDbLine
 10
1475.217622392932
 20
1616.461616751234
 30
0.0
 11
1453.467622392606
 21
1654.133721816046
 31
0.0
  0
LINE
  5
1A5
330
1F
100
AcDbEntity
  8
LAY-10
  6
CONTINUOUS
 62
     7
100
AcDbLine
 10
1437.545517328121
 20
1594.711616750908
 30
0.0
 11
1418.545517327955
 21
1627.620582094813
 31
0.0
  0
LINE
  5
1A6
330
1F
100
AcDbEntity
  8
LAY-10
  6
CONTINUOUS
 62
     4
100
AcDbLine
 10
1432.782377607213
 20
1591.961616750747
 30
0.0
 11
1411.032377606887
 21
1629.633721815559
 31
0.0
  0
LINE
  5
1A7
330
1F
100
AcDbEntity
  8
LAY-10
  6
CONTINUOUS
 62
     4
100
AcDbLine
 10
1423.165792309024
 20
1657.618031082962
 30
0.0
 11
1486.165792309163
 21
1548.498830206043
 31
0.0
  0
LINE
  5
1A8
330
1F
100
AcDbEntity
  8
LAY-10
  6
CONTINUOUS
 62
     4
100
AcDbLine
 10
952.7064894707696
 20
1607.816239347609
 30
0.0
 11
955.7706672432462
 21
1610.387389786355
 31
0.0
  0
ARC
  5
1A9
330
1F
100
AcDbEntity
  8
LAY-10
  6
CONTINUOUS
 62
     4
100
AcDbCircle
 10
1289.0
 20
1890.0
 30
0.0
 40
429.0000000000002
100
AcDbArc
 50
320.0000000000005
 51
81.36144442128445
  0
ARC
  5
1AA
330
1F
100
AcDbEntity
  8
LAY-10
  6
CONTINUOUS
 62
     4
100
AcDbCircle
 10
1289.0
 20
1890.0
 30
0.0
 40
435.0000000000001
100
AcDbArc
 50
320.0000000000001
 51
82.14455462799513
  0
ARC
  5
1AB
330
1F
100
AcDbEntity
  8
LAY-10
  6
CONTINUOUS
 62
     4
100
AcDbCircle
 10
1289.0
 20
1890.0
 30
0.0
 40
439.0000000000002
100
AcDbArc
 50
320.0000000000005
 51
220.0000000000001
  0
ARC
  5
1AC
330
1F
100
AcDbEntity
  8
LAY-10
  6
CONTINUOUS
 62
     4
100
AcDbCircle
 10
1289.0
 20
1890.0
 30
0.0
 40
407.0000000000003
100
AcDbArc
 50
220.0000000000002
 51
320.0
  0
ARC
  5
1AD
330
1F
100
AcDbEntity
  8
LAY-10
  6
CONTINUOUS
 62
     4
100
AcDbCircle
 10
1289.0
 20
1890.0
 30
0.0
 40
413.0000000000003
100
AcDbArc
 50
220.832413489046
 51
297.9704600350175
  0
ARC
  5
1AE
330
1F
100
AcDbEntity
  8
LAY-10
  6
CONTINUOUS
 62
     4
100
AcDbCircle
 10
1289.0
 20
1890.0
 30
0.0
 40
446.0000000000006
100
AcDbArc
 50
220.7708184918515
 51
297.9704600350175
  0
LINE
  5
1AF
330
1F
100
AcDbEntity
  8
LAY-10
  6
CONTINUOUS
 62
     4
100
AcDbLine
 10
960.36693390196
 20
1614.244115444474
 30
0.0
 11
977.2199116505777
 21
1628.385442857577
 31
0.0
  0
LINE
  5
1B0
330
1F
100
AcDbEntity
  8
LAY-10
  6
CONTINUOUS
 62
     4
100
AcDbLine
 10
976.5137593366976
 20
1619.960466975452
 30
0.0
 11
951.2318220178852
 21
1598.746402695791
 31
0.0
  0
LINE
  5
1B1
330
1F
100
AcDbEntity
  8
LAY-10
  6
CONTINUOUS
 62
     4
100
AcDbLine
 10
1625.293510529231
 20
1607.816239347609
 30
0.0
 11
1622.229332756755
 21
1610.387389786355
 31
0.0
  0
LINE
  5
1B2
330
1F
100
AcDbEntity
  8
LAY-10
  6
CONTINUOUS
 62
     4
100
AcDbLine
 10
1617.633066098041
 20
1614.244115444474
 30
0.0
 11
1600.780088349424
 21
1628.385442857577
 31
0.0
  0
LINE
  5
1B3
330
1F
100
AcDbEntity
  8
LAY-10
  6
CONTINUOUS
 62
     4
100
AcDbLine
 10
1601.486240663304
 20
1619.960466975452
 30
0.0
 11
1626.768177982116
 21
1598.746402695791
 31
0.0
  0
LINE
  5
1B4
330
1F
100
AcDbEntity
  8
LAY-10
  6
CONTINUOUS
 62
     4
100
AcDbLine
 10
1558.886427893422
 20
1577.381516798944
 30
0.0
 11
1580.451203003551
 21
1552.402315962056
 31
0.0
  0
LINE
  5
1B5
330
1F
100
AcDbEntity
  8
LAY-10
  6
CONTINUOUS
 62
     4
100
AcDbLine
 10
1554.316272628226
 20
1573.493640697908
 30
0.0
 11
1575.515877947189
 21
1548.20378632268
 31
0.0
  0
LINE
  5
1B6
330
1F
100
AcDbEntity
  8
LAY-10
  6
CONTINUOUS
 62
     4
100
AcDbLine
 10
1503.881739602921
 20
1499.17799705592
 30
0.0
 11
1487.982418062795
 21
1528.095320143711
 31
0.0
  0
ARC
  5
1B7
330
1F
100
AcDbEntity
  8
LAY-10
  6
CONTINUOUS
 62
     4
100
AcDbCircle
 10
1289.0
 20
1890.0
 30
0.0
 40
446.0000000000006
100
AcDbArc
 50
310.8043469033204
 51
319.2291815081487
  0
ARC
  5
1B8
330
1F
100
AcDbEntity
  8
LAY-10
  6
CONTINUOUS
 62
     4
100
AcDbCircle
 10
1289.0
 20
1890.0
 30
0.0
 40
413.0000000000003
100
AcDbArc
 50
310.8043469033204
 51
319.1675865109539
  0
LINE
  5
1B9
330
1F
100
AcDbEntity
  8
LAY-10
  6
CONTINUOUS
 62
     4
100
AcDbLine
 10
1498.181260625403
 20
1496.097473728376
 30
0.0
 11
1482.703723404241
 21
1525.242727914393
 31
0.0
  0
ARC
  5
1BA
330
1F
100
AcDbEntity
  8
LAY-10
  6
CONTINUOUS
 62
     4
100
AcDbCircle
 10
1289.0
 20
1890.0
 30
0.0
 40
413.0000000000003
100
AcDbArc
 50
298.8028735240636
 51
309.9719334142746
  0
ARC
  5
1BB
330
1F
100
AcDbEntity
  8
LAY-10
  6
CONTINUOUS
 62
     4
100
AcDbCircle
 10
1289.0
 20
1890.0
 30
0.0
 40
446.0000000000006
100
AcDbArc
 50
298.8028735240636
 51
309.9719334142746
  0
ARC
  5
1BC
330
1F
100
AcDbEntity
  8
LAY-10
  6
CONTINUOUS
 62
     4
100
AcDbCircle
 10
1289.0
 20
1890.0
 30
0.0
 40
412.9999999999998
100
AcDbArc
 50
81.36144442128445
 51
98.63855557871537
  0
ARC
  5
1BD
330
1F
100
AcDbEntity
  8
LAY-10
  6
CONTINUOUS
 62
     4
100
AcDbCircle
 10
1289.0
 20
1890.0
 30
0.0
 40
419.0000000000002
100
AcDbArc
 50
82.14455462799513
 51
97.85544537200474
  0
LINE
  5
1BE
330
1F
100
AcDbEntity
  8
LAY-10
  6
CONTINUOUS
 62
     4
100
AcDbLine
 10
1231.733485193623
 20
2305.068122459352
 30
0.0
 11
1229.546697038725
 21
2320.917979164243
 31
0.0
  0
LINE
  5
1BF
330
1F
100
AcDbEntity
  8
LAY-10
  6
CONTINUOUS
 62
     4
100
AcDbLine
 10
1224.563914605914
 20
2314.133223055076
 30
0.0
 11
1226.967125249983
 21
2298.314734549525
 31
0.0
  0
ARC
  5
1C0
330
1F
100
AcDbEntity
  8
LAY-10
  6
CONTINUOUS
 62
     4
100
AcDbCircle
 10
1289.0
 20
1890.0
 30
0.0
 40
435.0000000000001
100
AcDbArc
 50
97.85544537200492
 51
220.0000000000001
  0
ARC
  5
1C1
330
1F
100
AcDbEntity
  8
LAY-10
  6
CONTINUOUS
 62
     4
100
AcDbCircle
 10
1289.0
 20
1890.0
 30
0.0
 40
429.0000000000002
100
AcDbArc
 50
98.63855557871524
 51
220.0000000000001
  0
LINE
  5
1C2
330
1F
100
AcDbEntity
  8
LAY-10
  6
CONTINUOUS
 62
     4
100
AcDbLine
 10
1353.436085394087
 20
2314.133223055076
 30
0.0
 11
1351.032874750018
 21
2298.314734549525
 31
0.0
  0
LINE
  5
1C3
330
1F
100
AcDbEntity
  8
LAY-10
  6
CONTINUOUS
 62
     4
100
AcDbLine
 10
1346.266514806378
 20
2305.068122459352
 30
0.0
 11
1348.453302961276
 21
2320.917979164243
 31
0.0
  0
LINE
  5
1C4
330
1F
100
AcDbEntity
  8
LAY-10
  6
CONTINUOUS
 62
     7
100
AcDbLine
 10
1319.453857963001
 20
2311.626954849001
 30
0.0
 11
1340.498210392001
 21
2310.629496184001
 31
0.0
  0
TEXT
  5
1C5
330
1F
100
AcDbEntity
  8
LAY-10
  6
CONTINUOUS
 62
     7
100
AcDbText
 10
1253.286285758649
 20
2311.19038633208
 30
0.0
 40
11.692914
  1
P
 50
3.697526193100021
 41
0.7558933333333333
 51
0.0000000000000891
  7
EXCADSTD
100
AcDbText
  0
TEXT
  5
1C6
330
1F
100
AcDbEntity
  8
LAY-10
  6
CONTINUOUS
 62
     7
100
AcDbText
 10
1238.046417266975
 20
2310.405870436726
 30
0.0
 40
11.692914
  1
O
 50
3.855480348600014
 41
0.7558933333333333
 51
0.0000000000000254
  7
EXCADSTD
100
AcDbText
  0
LINE
  5
1C7
330
1F
100
AcDbEntity
  8
LAY-10
  6
CONTINUOUS
 62
     7
100
AcDbLine
 10
1300.666974257001
 20
2316.763893966001
 30
0.0
 11
1315.959569111001
 21
2315.638077339001
 31
0.0
  0
POLYLINE
  5
1C8
330
1F
100
AcDbEntity
  8
LAY-10
  6
CONTINUOUS
 62
     7
100
AcDb2dPolyline
 66
     1
 10
0.0
 20
0.0
 30
0.0
 70
   128
  0
VERTEX
  5
1C9
330
1C8
100
AcDbEntity
  8
LAY-10
  6
CONTINUOUS
 62
     7
100
AcDbVertex
100
AcDb2dVertex
 10
1301.131369302
 20
2324.691491317001
 30
0.0
  0
VERTEX
  5
1CA
330
1C8
100
AcDbEntity
  8
LAY-10
  6
CONTINUOUS
 62
     7
100
AcDbVertex
100
AcDb2dVertex
 10
1290.988962445001
 20
2319.360076468001
 30
0.0
  0
VERTEX
  5
1CB
330
1C8
100
AcDbEntity
  8
LAY-10
  6
CONTINUOUS
 62
     7
100
AcDbVertex
100
AcDb2dVertex
 10
1300.677306571001
 20
2313.242201900001
 30
0.0
  0
VERTEX
  5
1CC
330
1C8
100
AcDbEntity
  8
LAY-10
  6
CONTINUOUS
 62
     7
100
AcDbVertex
100
AcDb2dVertex
 10
1301.131369302
 20
2324.691491317001
 30
0.0
  0
SEQEND
  5
1CD
330
1C8
100
AcDbEntity
  8
LAY-10
  6
CONTINUOUS
 62
     7
  0
TEXT
  5
1CE
330
1F
100
AcDbEntity
  8
LAY-10
  6
CONTINUOUS
 62
     7
100
AcDbText
 10
1279.691422209001
 20
2312.767395546001
 30
0.0
 40
11.692914
  1
N
 41
0.7558933333333333
  7
EXCADSTD
100
AcDbText
  0
TEXT
  5
1CF
330
1F
100
AcDbEntity
  8
LAY-10
  6
CONTINUOUS
 62
     7
100
AcDbText
 10
1266.099371155228
 20
2312.23666722431
 30
0.0
 40
11.692914
  1
E
 50
2.360524758800001
 41
0.7558933333333333
 51
-0.0000000000001018
  7
EXCADSTD
100
AcDbText
  0
LINE
  5
1D0
330
1F
100
AcDbEntity
  8
LAY-10
  6
CONTINUOUS
 62
     7
100
AcDbLine
 10
1315.959569111001
 20
2315.638077339001
 30
0.0
 11
1319.453857963001
 21
2311.626954849001
 31
0.0
  0
LINE
  5
1D1
330
1F
100
AcDbEntity
  8
LAY-10
  6
CONTINUOUS
 62
     7
100
AcDbLine
 10
1300.992140601001
 20
2321.180809696001
 30
0.0
 11
1316.284735456001
 21
2320.054993069001
 31
0.0
  0
LINE
  5
1D2
330
1F
100
AcDbEntity
  8
LAY-10
  6
CONTINUOUS
 62
     7
100
AcDbLine
 10
1340.498210392001
 20
2310.629496184001
 30
0.0
 11
1336.890912816001
 21
2316.317571929001
 31
0.0
  0
LINE
  5
1D3
330
1F
100
AcDbEntity
  8
LAY-10
  6
CONTINUOUS
 62
     7
100
AcDbLine
 10
1341.292300217001
 20
2321.416060963001
 30
0.0
 11
1336.890912816001
 21
2316.317571929001
 31
0.0
  0
LINE
  5
1D4
330
1F
100
AcDbEntity
  8
LAY-10
  6
CONTINUOUS
 62
     7
100
AcDbLine
 10
1320.328754135001
 20
2323.511157292001
 30
0.0
 11
1341.292300217001
 21
2321.416060963001
 31
0.0
  0
LINE
  5
1D5
330
1F
100
AcDbEntity
  8
LAY-10
  6
CONTINUOUS
 62
     7
100
AcDbLine
 10
1316.284735456001
 20
2320.054993069001
 30
0.0
 11
1320.328754135001
 21
2323.511157292001
 31
0.0
  0
TEXT
  5
1D6
330
1F
100
AcDbEntity
  8
LAY-10
  6
CONTINUOUS
 62
     7
100
AcDbText
 10
964.2331540314201
 20
1596.824548988399
 30
0.0
 40
17.9291348
  1
Ｐ
 50
313.177997945076
 41
1.2
  7
EXCADSTD
100
AcDbText
  0
TEXT
  5
1D7
330
1F
100
AcDbEntity
  8
LAY-10
  6
CONTINUOUS
 62
     7
100
AcDbText
 10
975.6937929164001
 20
1584.607514959645
 30
0.0
 40
17.9291348
  1
Ａ
 50
315.3717874044728
 41
1.2
  7
EXCADSTD
100
AcDbText
  0
TEXT
  5
1D8
330
1F
100
AcDbEntity
  8
LAY-10
  6
CONTINUOUS
 62
     7
100
AcDbText
 10
987.6136938586328
 20
1572.83814260429
 30
0.0
 40
17.9291348
  1
Ｔ
 50
317.5655768638712
 41
1.2
  7
EXCADSTD
100
AcDbText
  0
TEXT
  5
1D9
330
1F
100
AcDbEntity
  8
LAY-10
  6
CONTINUOUS
 62
     7
100
AcDbText
 10
999.9753839893867
 20
1561.5336841377
 30
0.0
 40
17.9291348
  1
Ｅ
 50
319.7593663232685
 41
1.2
  7
EXCADSTD
100
AcDbText
  0
TEXT
  5
1DA
330
1F
100
AcDbEntity
  8
LAY-10
  6
CONTINUOUS
 62
     7
100
AcDbText
 10
1012.760742840213
 20
1550.710710278022
 30
0.0
 40
17.9291348
  1
Ｎ
 50
321.9531557826678
 41
1.2
  7
EXCADSTD
100
AcDbText
  0
TEXT
  5
1DB
330
1F
100
AcDbEntity
  8
LAY-10
  6
CONTINUOUS
 62
     7
100
AcDbText
 10
1025.951028904955
 20
1540.385085955886
 30
0.0
 40
17.9291348
  1
Ｔ
 50
324.1469452420653
 41
1.2
  7
EXCADSTD
100
AcDbText
  0
TEXT
  5
1DC
330
1F
100
AcDbEntity
  8
LAY-10
  6
CONTINUOUS
 62
     7
100
AcDbText
 10
1082.366441341477
 20
1504.347407953286
 30
0.0
 40
17.9291348
  1
Ｆ
 50
332.9221030796569
 41
1.2
  7
EXCADSTD
100
AcDbText
  0
TEXT
  5
1DD
330
1F
100
AcDbEntity
  8
LAY-10
  6
CONTINUOUS
 62
     7
100
AcDbText
 10
1097.280475181015
 20
1496.720235558175
 30
0.0
 40
17.9291348
  1
Ｕ
 50
335.1158925390549
 41
1.2
  7
EXCADSTD
100
AcDbText
  0
TEXT
  5
1DE
330
1F
100
AcDbEntity
  8
LAY-10
  6
CONTINUOUS
 62
     7
100
AcDbText
 10
1112.475542403848
 20
1489.669555009091
 30
0.0
 40
17.9291348
  1
Ｋ
 50
337.3096819984536
 41
1.2
  7
EXCADSTD
100
AcDbText
  0
TEXT
  5
1DF
330
1F
100
AcDbEntity
  8
LAY-10
  6
CONTINUOUS
 62
     7
100
AcDbText
 10
1127.929369216239
 20
1483.205701594582
 30
0.0
 40
17.9291348
  1
Ｕ
 50
339.503471457852
 41
1.2
  7
EXCADSTD
100
AcDbText
  0
TEXT
  5
1E0
330
1F
100
AcDbEntity
  8
LAY-10
  6
CONTINUOUS
 62
     7
100
AcDbText
 10
1143.61930251993
 20
1477.338150398607
 30
0.0
 40
17.9291348
  1
Ｎ
 50
341.6972609172489
 41
1.2
  7
EXCADSTD
100
AcDbText
  0
TEXT
  5
1E1
330
1F
100
AcDbEntity
  8
LAY-10
  6
CONTINUOUS
 62
     7
100
AcDbText
 10
1159.522343118336
 20
1472.075502411417
 30
0.0
 40
17.9291348
  1
Ｉ
 50
343.8910503766468
 41
1.2
  7
EXCADSTD
100
AcDbText
  0
TEXT
  5
1E2
330
1F
100
AcDbEntity
  8
LAY-10
  6
CONTINUOUS
 62
     7
100
AcDbText
 10
1175.615179430084
 20
1467.425471921741
 30
0.0
 40
17.9291348
  1
Ｓ
 50
346.0848398360464
 41
1.2
  7
EXCADSTD
100
AcDbText
  0
TEXT
  5
1E3
330
1F
100
AcDbEntity
  8
LAY-10
  6
CONTINUOUS
 62
     7
100
AcDbText
 10
1191.874221660448
 20
1463.394875208734
 30
0.0
 40
17.9291348
  1
Ｈ
 50
348.2786292954434
 41
1.2
  7
EXCADSTD
100
AcDbText
  0
TEXT
  5
1E4
330
1F
100
AcDbEntity
  8
LAY-10
  6
CONTINUOUS
 62
     7
100
AcDbText
 10
1208.275636380612
 20
1459.989620550294
 30
0.0
 40
17.9291348
  1
Ｉ
 50
350.4724187548413
 41
1.2
  7
EXCADSTD
100
AcDbText
  0
TEXT
  5
1E5
330
1F
100
AcDbEntity
  8
LAY-10
  6
CONTINUOUS
 62
     7
100
AcDbText
 10
1241.409241328937
 20
1455.074179881963
 30
0.0
 40
17.9291348
  1
Ｆ
 50
354.8599976736365
 41
1.2
  7
EXCADSTD
100
AcDbText
  0
TEXT
  5
1E6
330
1F
100
AcDbEntity
  8
LAY-10
  6
CONTINUOUS
 62
     7
100
AcDbText
 10
1258.09286243453
 20
1453.571199204562
 30
0.0
 40
17.9291348
  1
Ｏ
 50
357.0537871330353
 41
1.2
  7
EXCADSTD
100
AcDbText
  0
TEXT
  5
1E7
330
1F
100
AcDbEntity
  8
LAY-10
  6
CONTINUOUS
 62
     7
100
AcDbText
 10
1274.821788980173
 20
1452.707960684725
 30
0.0
 40
17.9291348
  1
Ｕ
 50
359.2475765924327
 41
1.2
  7
EXCADSTD
100
AcDbText
  0
TEXT
  5
1E8
330
1F
100
AcDbEntity
  8
LAY-10
  6
CONTINUOUS
 62
     7
100
AcDbText
 10
1291.571498753897
 20
1452.485729706568
 30
0.0
 40
17.9291348
  1
Ｎ
 50
1.441366051831619
 41
1.2
  7
EXCADSTD
100
AcDbText
  0
TEXT
  5
1E9
330
1F
100
AcDbEntity
  8
LAY-10
  6
CONTINUOUS
 62
     7
100
AcDbText
 10
1308.317439078497
 20
1452.904832028901
 30
0.0
 40
17.9291348
  1
Ｄ
 50
3.6351555112293
 41
1.2
  7
EXCADSTD
100
AcDbText
  0
TEXT
  5
1EA
330
1F
100
AcDbEntity
  8
LAY-10
  6
CONTINUOUS
 62
     7
100
AcDbText
 10
1325.03506280224
 20
1453.964653307701
 30
0.0
 40
17.9291348
  1
Ｒ
 50
5.828944970626182
 41
1.2
  7
EXCADSTD
100
AcDbText
  0
TEXT
  5
1EB
330
1F
100
AcDbEntity
  8
LAY-10
  6
CONTINUOUS
 62
     7
100
AcDbText
 10
1341.699864281476
 20
1455.663639996662
 30
0.0
 40
17.9291348
  1
Ｙ
 50
8.022734430024547
 41
1.2
  7
EXCADSTD
100
AcDbText
  0
TEXT
  5
1EC
330
1F
100
AcDbEntity
  8
LAY-10
  6
CONTINUOUS
 62
     7
100
AcDbText
 10
1374.773400889354
 20
1460.968214445469
 30
0.0
 40
17.9291348
  1
Ｃ
 50
12.4103133488198
 41
1.2
  7
EXCADSTD
100
AcDbText
  0
TEXT
  5
1ED
330
1F
100
AcDbEntity
  8
LAY-10
  6
CONTINUOUS
 62
     7
100
AcDbText
 10
1391.133654947017
 20
1464.566026458395
 30
0.0
 40
17.9291348
  1
Ｏ
 50
14.60410280821971
 41
1.2
  7
EXCADSTD
100
AcDbText
  0
TEXT
  5
1EE
330
1F
100
AcDbEntity
  8
LAY-10
  6
CONTINUOUS
 62
     7
100
AcDbText
 10
1423.381260769329
 20
1473.626338404696
 30
0.0
 40
17.9291348
  1
Ｌ
 50
18.99168172701473
 41
1.2
  7
EXCADSTD
100
AcDbText
  0
TEXT
  5
1EF
330
1F
100
AcDbEntity
  8
LAY-10
  6
CONTINUOUS
 62
     7
100
AcDbText
 10
1439.221342159321
 20
1479.075557217525
 30
0.0
 40
17.9291348
  1
Ｔ
 50
21.18547118641316
 41
1.2
  7
EXCADSTD
100
AcDbText
  0
TEXT
  5
1F0
330
1F
100
AcDbEntity
  8
LAY-10
  6
CONTINUOUS
 62
     7
100
AcDbText
 10
1454.841220562318
 20
1485.127132449412
 30
0.0
 40
17.9291348
  1
Ｄ
 50
23.37926064581101
 41
1.2
  7
EXCADSTD
100
AcDbText
  0
TEXT
  5
1F1
330
1F
100
AcDbEntity
  8
LAY-10
  6
CONTINUOUS
 62
     7
100
AcDbText
 10
1470.217999472199
 20
1491.772193357208
 30
0.0
 40
17.9291348
  1
．
 50
25.57305010520858
 41
1.2
  7
EXCADSTD
100
AcDbText
  0
TEXT
  5
1F2
330
1F
100
AcDbEntity
  8
LAY-10
  6
CONTINUOUS
 62
     7
100
AcDbText
 10
1409.243780945484
 20
1470.127610667671
 30
0.0
 40
17.9291362868309
  1
.,
 50
21.85289471813002
 41
0.6267680000000001
  7
EXCADSTD
100
AcDbText
  0
LINE
  5
1F3
330
1F
100
AcDbEntity
  8
LAY-10
  6
CONTINUOUS
 62
     7
100
AcDbLine
 10
1047.031584618
 20
1535.8
 30
0.0
 11
1070.915296499
 21
1534.574303546
 31
0.0
  0
LINE
  5
1F4
330
1F
100
AcDbEntity
  8
LAY-10
  6
CONTINUOUS
 62
     7
100
AcDbLine
 10
1070.915296499
 20
1534.574303546
 30
0.0
 11
1080.279443095
 21
1512.568695545
 31
0.0
  0
LINE
  5
1F5
330
1F
100
AcDbEntity
  8
LAY-10
  6
CONTINUOUS
 62
     7
100
AcDbLine
 10
1080.279443095
 20
1512.568695545
 30
0.0
 11
1056.395731214
 21
1513.794391998
 31
0.0
  0
LINE
  5
1F6
330
1F
100
AcDbEntity
  8
LAY-10
  6
CONTINUOUS
 62
     7
100
AcDbLine
 10
1056.395731214
 20
1513.794391998
 30
0.0
 11
1047.031584618
 21
1535.8
 31
0.0
  0
TEXT
  5
1F7
330
1F
100
AcDbEntity
  8
LAY-10
  6
CONTINUOUS
 62
     7
100
AcDbText
 10
1054.933918368954
 20
1523.098032292917
 30
0.0
 40
11.85661556915207
  1
S
 50
325.0568121724002
 41
0.56692
  7
EXCADSTD
100
AcDbText
  0
TEXT
  5
1F8
330
1F
100
AcDbEntity
  8
LAY-10
  6
CONTINUOUS
 62
     7
100
AcDbText
 10
1061.212409367954
 20
1518.805874699917
 30
0.0
 40
11.85661556915207
  1
F
 50
325.0568121724002
 41
0.56692
  7
EXCADSTD
100
AcDbText
  0
TEXT
  5
1F9
330
1F
100
AcDbEntity
  8
LAY-10
  6
CONTINUOUS
 62
     7
100
AcDbText
 10
975.6937929164001
 20
1584.607514959645
 30
0.0
 40
17.9291348
  1
Ａ
 50
315.3717874044728
 41
1.2
  7
EXCADSTD
100
AcDbText
  0
TEXT
  5
1FA
330
1F
100
AcDbEntity
  8
LAY-10
  6
CONTINUOUS
 62
     7
100
AcDbText
 10
987.6136938586328
 20
1572.83814260429
 30
0.0
 40
17.9291348
  1
Ｔ
 50
317.5655768638712
 41
1.2
  7
EXCADSTD
100
AcDbText
  0
TEXT
  5
1FB
330
1F
100
AcDbEntity
  8
LAY-10
  6
CONTINUOUS
 62
     7
100
AcDbText
 10
999.9753839893867
 20
1561.5336841377
 30
0.0
 40
17.9291348
  1
Ｅ
 50
319.7593663232685
 41
1.2
  7
EXCADSTD
100
AcDbText
  0
TEXT
  5
1FC
330
1F
100
AcDbEntity
  8
LAY-10
  6
CONTINUOUS
 62
     7
100
AcDbText
 10
1012.760742840213
 20
1550.710710278022
 30
0.0
 40
17.9291348
  1
Ｎ
 50
321.9531557826678
 41
1.2
  7
EXCADSTD
100
AcDbText
  0
TEXT
  5
1FD
330
1F
100
AcDbEntity
  8
LAY-10
  6
CONTINUOUS
 62
     7
100
AcDbText
 10
1025.951028904955
 20
1540.385085955886
 30
0.0
 40
17.9291348
  1
Ｔ
 50
324.1469452420653
 41
1.2
  7
EXCADSTD
100
AcDbText
  0
TEXT
  5
1FE
330
1F
100
AcDbEntity
  8
LAY-10
  6
CONTINUOUS
 62
     7
100
AcDbText
 10
1082.366441341477
 20
1504.347407953286
 30
0.0
 40
17.9291348
  1
Ｆ
 50
332.9221030796569
 41
1.2
  7
EXCADSTD
100
AcDbText
  0
TEXT
  5
1FF
330
1F
100
AcDbEntity
  8
LAY-10
  6
CONTINUOUS
 62
     7
100
AcDbText
 10
1097.280475181015
 20
1496.720235558175
 30
0.0
 40
17.9291348
  1
Ｕ
 50
335.1158925390549
 41
1.2
  7
EXCADSTD
100
AcDbText
  0
TEXT
  5
200
330
1F
100
AcDbEntity
  8
LAY-10
  6
CONTINUOUS
 62
     7
100
AcDbText
 10
1112.475542403848
 20
1489.669555009091
 30
0.0
 40
17.9291348
  1
Ｋ
 50
337.3096819984536
 41
1.2
  7
EXCADSTD
100
AcDbText
  0
TEXT
  5
201
330
1F
100
AcDbEntity
  8
LAY-10
  6
CONTINUOUS
 62
     7
100
AcDbText
 10
1127.929369216239
 20
1483.205701594582
 30
0.0
 40
17.9291348
  1
Ｕ
 50
339.503471457852
 41
1.2
  7
EXCADSTD
100
AcDbText
  0
TEXT
  5
202
330
1F
100
AcDbEntity
  8
LAY-10
  6
CONTINUOUS
 62
     7
100
AcDbText
 10
1143.61930251993
 20
1477.338150398607
 30
0.0
 40
17.9291348
  1
Ｎ
 50
341.6972609172489
 41
1.2
  7
EXCADSTD
100
AcDbText
  0
TEXT
  5
203
330
1F
100
AcDbEntity
  8
LAY-10
  6
CONTINUOUS
 62
     7
100
AcDbText
 10
1159.522343118336
 20
1472.075502411417
 30
0.0
 40
17.9291348
  1
Ｉ
 50
343.8910503766468
 41
1.2
  7
EXCADSTD
100
AcDbText
  0
TEXT
  5
204
330
1F
100
AcDbEntity
  8
LAY-10
  6
CONTINUOUS
 62
     7
100
AcDbText
 10
1175.615179430084
 20
1467.425471921741
 30
0.0
 40
17.9291348
  1
Ｓ
 50
346.0848398360464
 41
1.2
  7
EXCADSTD
100
AcDbText
  0
TEXT
  5
205
330
1F
100
AcDbEntity
  8
LAY-10
  6
CONTINUOUS
 62
     7
100
AcDbText
 10
1191.874221660448
 20
1463.394875208734
 30
0.0
 40
17.9291348
  1
Ｈ
 50
348.2786292954434
 41
1.2
  7
EXCADSTD
100
AcDbText
  0
TEXT
  5
206
330
1F
100
AcDbEntity
  8
LAY-10
  6
CONTINUOUS
 62
     7
100
AcDbText
 10
1208.275636380612
 20
1459.989620550294
 30
0.0
 40
17.9291348
  1
Ｉ
 50
350.4724187548413
 41
1.2
  7
EXCADSTD
100
AcDbText
  0
TEXT
  5
207
330
1F
100
AcDbEntity
  8
LAY-10
  6
CONTINUOUS
 62
     7
100
AcDbText
 10
1241.409241328937
 20
1455.074179881963
 30
0.0
 40
17.9291348
  1
Ｆ
 50
354.8599976736365
 41
1.2
  7
EXCADSTD
100
AcDbText
  0
TEXT
  5
208
330
1F
100
AcDbEntity
  8
LAY-10
  6
CONTINUOUS
 62
     7
100
AcDbText
 10
1258.09286243453
 20
1453.571199204562
 30
0.0
 40
17.9291348
  1
Ｏ
 50
357.0537871330353
 41
1.2
  7
EXCADSTD
100
AcDbText
  0
TEXT
  5
209
330
1F
100
AcDbEntity
  8
LAY-10
  6
CONTINUOUS
 62
     7
100
AcDbText
 10
1274.821788980173
 20
1452.707960684725
 30
0.0
 40
17.9291348
  1
Ｕ
 50
359.2475765924327
 41
1.2
  7
EXCADSTD
100
AcDbText
  0
TEXT
  5
20A
330
1F
100
AcDbEntity
  8
LAY-10
  6
CONTINUOUS
 62
     7
100
AcDbText
 10
1291.571498753897
 20
1452.485729706568
 30
0.0
 40
17.9291348
  1
Ｎ
 50
1.441366051831619
 41
1.2
  7
EXCADSTD
100
AcDbText
  0
TEXT
  5
20B
330
1F
100
AcDbEntity
  8
LAY-10
  6
CONTINUOUS
 62
     7
100
AcDbText
 10
1308.317439078497
 20
1452.904832028901
 30
0.0
 40
17.9291348
  1
Ｄ
 50
3.6351555112293
 41
1.2
  7
EXCADSTD
100
AcDbText
  0
TEXT
  5
20C
330
1F
100
AcDbEntity
  8
LAY-10
  6
CONTINUOUS
 62
     7
100
AcDbText
 10
1325.03506280224
 20
1453.964653307701
 30
0.0
 40
17.9291348
  1
Ｒ
 50
5.828944970626182
 41
1.2
  7
EXCADSTD
100
AcDbText
  0
TEXT
  5
20D
330
1F
100
AcDbEntity
  8
LAY-10
  6
CONTINUOUS
 62
     7
100
AcDbText
 10
1341.699864281476
 20
1455.663639996662
 30
0.0
 40
17.9291348
  1
Ｙ
 50
8.022734430024547
 41
1.2
  7
EXCADSTD
100
AcDbText
  0
TEXT
  5
20E
330
1F
100
AcDbEntity
  8
LAY-10
  6
CONTINUOUS
 62
     7
100
AcDbText
 10
1374.773400889354
 20
1460.968214445469
 30
0.0
 40
17.9291348
  1
Ｃ
 50
12.4103133488198
 41
1.2
  7
EXCADSTD
100
AcDbText
  0
TEXT
  5
20F
330
1F
100
AcDbEntity
  8
LAY-10
  6
CONTINUOUS
 62
     7
100
AcDbText
 10
1391.133654947017
 20
1464.566026458395
 30
0.0
 40
17.9291348
  1
Ｏ
 50
14.60410280821971
 41
1.2
  7
EXCADSTD
100
AcDbText
  0
TEXT
  5
210
330
1F
100
AcDbEntity
  8
LAY-10
  6
CONTINUOUS
 62
     7
100
AcDbText
 10
1423.381260769329
 20
1473.626338404696
 30
0.0
 40
17.9291348
  1
Ｌ
 50
18.99168172701473
 41
1.2
  7
EXCADSTD
100
AcDbText
  0
TEXT
  5
211
330
1F
100
AcDbEntity
  8
LAY-10
  6
CONTINUOUS
 62
     7
100
AcDbText
 10
1439.221342159321
 20
1479.075557217525
 30
0.0
 40
17.9291348
  1
Ｔ
 50
21.18547118641316
 41
1.2
  7
EXCADSTD
100
AcDbText
  0
TEXT
  5
212
330
1F
100
AcDbEntity
  8
LAY-10
  6
CONTINUOUS
 62
     7
100
AcDbText
 10
1454.841220562318
 20
1485.127132449412
 30
0.0
 40
17.9291348
  1
Ｄ
 50
23.37926064581101
 41
1.2
  7
EXCADSTD
100
AcDbText
  0
TEXT
  5
213
330
1F
100
AcDbEntity
  8
LAY-10
  6
CONTINUOUS
 62
     7
100
AcDbText
 10
1409.243780945484
 20
1470.127610667671
 30
0.0
 40
17.9291362868309
  1
.,
 50
21.85289471813002
 41
0.6267680000000001
  7
EXCADSTD
100
AcDbText
  0
LINE
  5
214
330
1F
100
AcDbEntity
  8
LAY-10
  6
CONTINUOUS
 62
     7
100
AcDbLine
 10
1047.031584618
 20
1535.8
 30
0.0
 11
1070.915296499
 21
1534.574303546
 31
0.0
  0
LINE
  5
215
330
1F
100
AcDbEntity
  8
LAY-10
  6
CONTINUOUS
 62
     7
100
AcDbLine
 10
1070.915296499
 20
1534.574303546
 30
0.0
 11
1080.279443095
 21
1512.568695545
 31
0.0
  0
LINE
  5
216
330
1F
100
AcDbEntity
  8
LAY-10
  6
CONTINUOUS
 62
     7
100
AcDbLine
 10
1080.279443095
 20
1512.568695545
 30
0.0
 11
1056.395731214
 21
1513.794391998
 31
0.0
  0
LINE
  5
217
330
1F
100
AcDbEntity
  8
LAY-10
  6
CONTINUOUS
 62
     7
100
AcDbLine
 10
1056.395731214
 20
1513.794391998
 30
0.0
 11
1047.031584618
 21
1535.8
 31
0.0
  0
TEXT
  5
218
330
1F
100
AcDbEntity
  8
LAY-10
  6
CONTINUOUS
 62
     7
100
AcDbText
 10
1054.933918368954
 20
1523.098032292917
 30
0.0
 40
11.85661556915207
  1
S
 50
325.0568121724002
 41
0.56692
  7
EXCADSTD
100
AcDbText
  0
TEXT
  5
219
330
1F
100
AcDbEntity
  8
LAY-10
  6
CONTINUOUS
 62
     7
100
AcDbText
 10
1061.212409367954
 20
1518.805874699917
 30
0.0
 40
11.85661556915207
  1
F
 50
325.0568121724002
 41
0.56692
  7
EXCADSTD
100
AcDbText
  0
TEXT
  5
21A
330
1F
100
AcDbEntity
  8
LAY-10
  6
CONTINUOUS
 62
     7
100
AcDbText
 10
1504.942325317455
 20
1509.481458584227
 30
0.0
 40
17.9291348
  1
Ｄ
 50
30.78420568658977
 41
1.2
  7
EXCADSTD
100
AcDbText
  0
TEXT
  5
21B
330
1F
100
AcDbEntity
  8
LAY-10
  6
CONTINUOUS
 62
     7
100
AcDbText
 10
1520.701179138779
 20
1518.866584891098
 30
0.0
 40
17.9291348
  1
８
 50
33.18633754164288
 41
1.2
  7
EXCADSTD
100
AcDbText
  0
TEXT
  5
21C
330
1F
100
AcDbEntity
  8
LAY-10
  6
CONTINUOUS
 62
     7
100
AcDbText
 10
1536.052828009414
 20
1528.903962362852
 30
0.0
 40
17.9291348
  1
０
 50
35.58846939669559
 41
1.2
  7
EXCADSTD
100
AcDbText
  0
TEXT
  5
21D
330
1F
100
AcDbEntity
  8
LAY-10
  6
CONTINUOUS
 62
     7
100
AcDbText
 10
1550.970292060528
 20
1539.575950736227
 30
0.0
 40
17.9291348
  1
０
 50
37.99060125174704
 41
1.2
  7
EXCADSTD
100
AcDbText
  0
LINE
  5
21E
330
1F
100
AcDbEntity
  8
LAY-10
  6
CONTINUOUS
 62
     7
100
AcDbLine
 10
1009.291107550079
 20
2000.332738110423
 30
0.0
 11
1014.947961799572
 21
1994.67588386093
 31
0.0
  0
LINE
  5
21F
330
1F
100
AcDbEntity
  8
LAY-10
  6
CONTINUOUS
 62
     7
100
AcDbLine
 10
1055.960155108392
 20
2047.001785668735
 30
0.0
 11
1096.972348417211
 21
2005.989592359914
 31
0.0
  0
LINE
  5
220
330
1F
100
AcDbEntity
  8
LAY-10
  6
CONTINUOUS
 62
     7
100
AcDbLine
 10
980.2997295214313
 20
2018.010407640086
 30
0.0
 11
1021.311922830251
 21
1976.998214331266
 31
0.0
  0
LINE
  5
221
330
1F
100
AcDbEntity
  8
LAY-10
  6
CONTINUOUS
 62
     7
100
AcDbLine
 10
1055.960155108392
 20
2047.001785668735
 30
0.0
 11
1073.637824638055
 21
2064.679455198398
 31
0.0
  0
LINE
  5
222
330
1F
100
AcDbEntity
  8
LAY-10
  6
CONTINUOUS
 62
     7
100
AcDbLine
 10
1050.3033008589
 20
2030.031222920258
 30
0.0
 11
1014.947961799572
 21
1994.67588386093
 31
0.0
  0
LINE
  5
223
330
1F
100
AcDbEntity
  8
LAY-10
  6
CONTINUOUS
 62
     7
100
AcDbLine
 10
1050.303300858899
 20
2041.344931419242
 30
0.0
 11
1067.980970388563
 21
2023.667261889579
 31
0.0
  0
LINE
  5
224
330
1F
100
AcDbEntity
  8
LAY-10
  6
CONTINUOUS
 62
     7
100
AcDbLine
 10
1067.980970388563
 20
2023.667261889578
 30
0.0
 11
1026.968777079743
 21
1982.655068580759
 31
0.0
  0
LINE
  5
225
330
1F
100
AcDbEntity
  8
LAY-10
  6
CONTINUOUS
 62
     7
100
AcDbLine
 10
1056.667261889579
 20
2023.667261889579
 30
0.0
 11
1021.311922830251
 21
1988.311922830251
 31
0.0
  0
LINE
  5
226
330
1F
100
AcDbEntity
  8
LAY-10
  6
CONTINUOUS
 62
     7
100
AcDbLine
 10
1050.3033008589
 20
2030.031222920257
 30
0.0
 11
1056.667261889578
 21
2023.667261889579
 31
0.0
  0
LINE
  5
227
330
1F
100
AcDbEntity
  8
LAY-10
  6
CONTINUOUS
 62
     7
100
AcDbLine
 10
1009.29110755008
 20
2000.332738110422
 30
0.0
 11
1050.303300858899
 21
2041.344931419242
 31
0.0
  0
LINE
  5
228
330
1F
100
AcDbEntity
  8
LAY-10
  6
CONTINUOUS
 62
     7
100
AcDbLine
 10
1021.311922830251
 20
1988.311922830251
 30
0.0
 11
1026.968777079743
 21
1982.655068580759
 31
0.0
  0
LINE
  5
229
330
1F
100
AcDbEntity
  8
LAY-10
  6
CONTINUOUS
 62
     7
100
AcDbLine
 10
1009.998214331266
 20
1976.998214331266
 30
0.0
 11
1003.634253300588
 21
1970.634253300587
 31
0.0
  0
LINE
  5
22A
330
1F
100
AcDbEntity
  8
LAY-10
  6
CONTINUOUS
 62
     7
100
AcDbLine
 10
1021.311922830251
 20
1976.998214331266
 30
0.0
 11
1003.634253300588
 21
1959.320544801603
 31
0.0
  0
LINE
  5
22B
330
1F
100
AcDbEntity
  8
LAY-10
  6
CONTINUOUS
 62
     7
100
AcDbLine
 10
1067.273863607376
 20
2047.001785668735
 30
0.0
 11
1102.629202666704
 21
2011.646446609407
 31
0.0
  0
LINE
  5
22C
330
1F
100
AcDbEntity
  8
LAY-10
  6
CONTINUOUS
 62
     7
100
AcDbLine
 10
1073.637824638055
 20
2053.365746699413
 30
0.0
 11
1108.993163697383
 21
2018.010407640086
 31
0.0
  0
LINE
  5
22D
330
1F
100
AcDbEntity
  8
LAY-10
  6
CONTINUOUS
 62
     7
100
AcDbLine
 10
1114.650017946875
 20
2023.667261889578
 30
0.0
 11
1073.637824638055
 21
2064.679455198398
 31
0.0
  0
LINE
  5
22E
330
1F
100
AcDbEntity
  8
LAY-10
  6
CONTINUOUS
 62
     7
100
AcDbLine
 10
1073.637824638055
 20
2053.365746699413
 30
0.0
 11
1067.273863607376
 21
2047.001785668735
 31
0.0
  0
LINE
  5
22F
330
1F
100
AcDbEntity
  8
LAY-10
  6
CONTINUOUS
 62
     7
100
AcDbLine
 10
1096.972348417211
 20
2005.989592359914
 30
0.0
 11
1102.629202666704
 21
2011.646446609407
 31
0.0
  0
LINE
  5
230
330
1F
100
AcDbEntity
  8
LAY-10
  6
CONTINUOUS
 62
     7
100
AcDbLine
 10
1108.993163697383
 20
2018.010407640086
 30
0.0
 11
1114.650017946876
 21
2023.667261889578
 31
0.0
  0
LINE
  5
231
330
1F
100
AcDbEntity
  8
LAY-10
  6
CONTINUOUS
 62
     7
100
AcDbLine
 10
1009.998214331266
 20
1976.998214331266
 30
0.0
 11
974.642875271939
 21
2012.353553390594
 31
0.0
  0
LINE
  5
232
330
1F
100
AcDbEntity
  8
LAY-10
  6
CONTINUOUS
 62
     7
100
AcDbLine
 10
1003.634253300588
 20
1970.634253300587
 30
0.0
 11
968.2789142412603
 21
2005.989592359915
 31
0.0
  0
LINE
  5
233
330
1F
100
AcDbEntity
  8
LAY-10
  6
CONTINUOUS
 62
     7
100
AcDbLine
 10
1003.634253300588
 20
1959.320544801603
 30
0.0
 11
962.6220599917681
 21
2000.332738110422
 31
0.0
  0
LINE
  5
234
330
1F
100
AcDbEntity
  8
LAY-10
  6
CONTINUOUS
 62
     7
100
AcDbLine
 10
962.6220599917681
 20
2000.332738110422
 30
0.0
 11
968.2789142412603
 21
2005.989592359915
 31
0.0
  0
LINE
  5
235
330
1F
100
AcDbEntity
  8
LAY-10
  6
CONTINUOUS
 62
     7
100
AcDbLine
 10
950.9547981021901
 20
2012.0
 30
0.0
 11
950.3954185357557
 21
2012.559379566435
 31
0.0
  0
LINE
  5
236
330
1F
100
AcDbEntity
  8
LAY-10
  6
CONTINUOUS
 62
     7
100
AcDbLine
 10
974.6428752719394
 20
2012.353553390594
 30
0.0
 11
980.2997295214313
 21
2018.010407640086
 31
0.0
  0
LINE
  5
237
330
1F
100
AcDbEntity
  8
LAY-10
  6
CONTINUOUS
 62
     7
100
AcDbLine
 10
1050.303300858899
 20
2088.013978977554
 30
0.0
 11
1067.980970388563
 21
2070.33630944789
 31
0.0
  0
LINE
  5
238
330
1F
100
AcDbEntity
  8
LAY-10
  6
CONTINUOUS
 62
     7
100
AcDbLine
 10
1050.303300858899
 20
2076.700270478569
 30
0.0
 11
1056.667261889578
 21
2070.33630944789
 31
0.0
  0
LINE
  5
239
330
1F
100
AcDbEntity
  8
LAY-10
  6
CONTINUOUS
 62
     7
100
AcDbLine
 10
1050.303300858899
 20
2076.700270478569
 30
0.0
 11
1014.947961799572
 21
2041.344931419241
 31
0.0
  0
LINE
  5
23A
330
1F
100
AcDbEntity
  8
LAY-10
  6
CONTINUOUS
 62
     7
100
AcDbLine
 10
1009.291107550079
 20
2047.001785668734
 30
0.0
 11
1050.303300858899
 21
2088.013978977554
 31
0.0
  0
LINE
  5
23B
330
1F
100
AcDbEntity
  8
LAY-10
  6
CONTINUOUS
 62
     7
100
AcDbLine
 10
1009.291107550079
 20
2047.001785668734
 30
0.0
 11
1014.947961799572
 21
2041.344931419241
 31
0.0
  0
LINE
  5
23C
330
1F
100
AcDbEntity
  8
LAY-10
  6
CONTINUOUS
 62
     7
100
AcDbLine
 10
1021.311922830251
 20
2034.980970388563
 30
0.0
 11
1026.968777079743
 21
2029.32411613907
 31
0.0
  0
LINE
  5
23D
330
1F
100
AcDbEntity
  8
LAY-10
  6
CONTINUOUS
 62
     7
100
AcDbLine
 10
1056.667261889578
 20
2070.33630944789
 30
0.0
 11
1021.311922830251
 21
2034.980970388563
 31
0.0
  0
LINE
  5
23E
330
1F
100
AcDbEntity
  8
LAY-10
  6
CONTINUOUS
 62
     7
100
AcDbLine
 10
1067.980970388563
 20
2070.33630944789
 30
0.0
 11
1026.968777079743
 21
2029.32411613907
 31
0.0
  0
LINE
  5
23F
330
1F
100
AcDbEntity
  8
LAY-10
  6
CONTINUOUS
 62
     7
100
AcDbLine
 10
1009.998214331266
 20
2023.667261889578
 30
0.0
 11
1003.634253300587
 21
2017.303300858899
 31
0.0
  0
LINE
  5
240
330
1F
100
AcDbEntity
  8
LAY-10
  6
CONTINUOUS
 62
     7
100
AcDbLine
 10
1021.311922830251
 20
2023.667261889578
 30
0.0
 11
1003.634253300587
 21
2005.989592359914
 31
0.0
  0
LINE
  5
241
330
1F
100
AcDbEntity
  8
LAY-10
  6
CONTINUOUS
 62
     7
100
AcDbLine
 10
980.2997295214305
 20
2064.679455198398
 30
0.0
 11
1021.311922830251
 21
2023.667261889578
 31
0.0
  0
LINE
  5
242
330
1F
100
AcDbEntity
  8
LAY-10
  6
CONTINUOUS
 62
     7
100
AcDbLine
 10
1003.634253300587
 20
2017.303300858899
 30
0.0
 11
968.2789142412596
 21
2052.658639918226
 31
0.0
  0
LINE
  5
243
330
1F
100
AcDbEntity
  8
LAY-10
  6
CONTINUOUS
 62
     7
100
AcDbLine
 10
1003.634253300587
 20
2005.989592359914
 30
0.0
 11
962.622059991767
 21
2047.001785668734
 31
0.0
  0
LINE
  5
244
330
1F
100
AcDbEntity
  8
LAY-10
  6
CONTINUOUS
 62
     7
100
AcDbLine
 10
1009.998214331266
 20
2023.667261889578
 30
0.0
 11
974.642875271938
 21
2059.022600948905
 31
0.0
  0
LINE
  5
245
330
1F
100
AcDbEntity
  8
LAY-10
  6
CONTINUOUS
 62
     7
100
AcDbLine
 10
962.622059991767
 20
2047.001785668734
 30
0.0
 11
968.2789142412596
 21
2052.658639918226
 31
0.0
  0
LINE
  5
246
330
1F
100
AcDbEntity
  8
LAY-10
  6
CONTINUOUS
 62
     7
100
AcDbLine
 10
974.6428752719387
 20
2059.022600948905
 30
0.0
 11
980.2997295214305
 21
2064.679455198398
 31
0.0
  0
LINE
  5
247
330
1F
100
AcDbEntity
  8
LAY-10
  6
CONTINUOUS
 62
     7
100
AcDbLine
 10
1055.960155108392
 20
2000.332738110422
 30
0.0
 11
1073.637824638055
 21
2018.010407640086
 31
0.0
  0
LINE
  5
248
330
1F
100
AcDbEntity
  8
LAY-10
  6
CONTINUOUS
 62
     7
100
AcDbLine
 10
1073.637824638055
 20
2006.696699141101
 30
0.0
 11
1067.273863607376
 21
2000.332738110422
 31
0.0
  0
LINE
  5
249
330
1F
100
AcDbEntity
  8
LAY-10
  6
CONTINUOUS
 62
     7
100
AcDbLine
 10
1073.637824638055
 20
2006.696699141101
 30
0.0
 11
1108.993163697383
 21
1971.341360081774
 31
0.0
  0
LINE
  5
24A
330
1F
100
AcDbEntity
  8
LAY-10
  6
CONTINUOUS
 62
     7
100
AcDbLine
 10
1067.273863607376
 20
2000.332738110422
 30
0.0
 11
1102.629202666704
 21
1964.977399051095
 31
0.0
  0
LINE
  5
24B
330
1F
100
AcDbEntity
  8
LAY-10
  6
CONTINUOUS
 62
     7
100
AcDbLine
 10
1055.960155108392
 20
2000.332738110422
 30
0.0
 11
1096.972348417211
 21
1959.320544801602
 31
0.0
  0
LINE
  5
24C
330
1F
100
AcDbEntity
  8
LAY-10
  6
CONTINUOUS
 62
     7
100
AcDbLine
 10
1108.993163697383
 20
1971.341360081774
 30
0.0
 11
1114.650017946876
 21
1976.998214331266
 31
0.0
  0
LINE
  5
24D
330
1F
100
AcDbEntity
  8
LAY-10
  6
CONTINUOUS
 62
     7
100
AcDbLine
 10
1096.972348417211
 20
1959.320544801602
 30
0.0
 11
1102.629202666704
 21
1964.977399051095
 31
0.0
  0
LINE
  5
24E
330
1F
100
AcDbEntity
  8
LAY-10
  6
CONTINUOUS
 62
     7
100
AcDbLine
 10
1114.650017946875
 20
1976.998214331266
 30
0.0
 11
1073.637824638055
 21
2018.010407640086
 31
0.0
  0
LINE
  5
24F
330
1F
100
AcDbEntity
  8
LAY-10
  6
CONTINUOUS
 62
     7
100
AcDbLine
 10
1050.3033008589
 20
1983.362175361945
 30
0.0
 11
1056.667261889578
 21
1976.998214331266
 31
0.0
  0
LINE
  5
250
330
1F
100
AcDbEntity
  8
LAY-10
  6
CONTINUOUS
 62
     7
100
AcDbLine
 10
1050.3033008589
 20
1983.362175361945
 30
0.0
 11
1014.947961799572
 21
1948.006836302617
 31
0.0
  0
LINE
  5
251
330
1F
100
AcDbEntity
  8
LAY-10
  6
CONTINUOUS
 62
     7
100
AcDbLine
 10
1009.29110755008
 20
1953.66369055211
 30
0.0
 11
1050.303300858899
 21
1994.67588386093
 31
0.0
  0
LINE
  5
252
330
1F
100
AcDbEntity
  8
LAY-10
  6
CONTINUOUS
 62
     7
100
AcDbLine
 10
1009.291107550079
 20
1953.66369055211
 30
0.0
 11
1014.947961799572
 21
1948.006836302617
 31
0.0
  0
LINE
  5
253
330
1F
100
AcDbEntity
  8
LAY-10
  6
CONTINUOUS
 62
     7
100
AcDbLine
 10
1021.311922830251
 20
1941.642875271938
 30
0.0
 11
1026.968777079743
 21
1935.986021022446
 31
0.0
  0
LINE
  5
254
330
1F
100
AcDbEntity
  8
LAY-10
  6
CONTINUOUS
 62
     7
100
AcDbLine
 10
1056.667261889579
 20
1976.998214331266
 30
0.0
 11
1021.311922830251
 21
1941.642875271938
 31
0.0
  0
LINE
  5
255
330
1F
100
AcDbEntity
  8
LAY-10
  6
CONTINUOUS
 62
     7
100
AcDbLine
 10
1067.980970388563
 20
1976.998214331266
 30
0.0
 11
1026.968777079743
 21
1935.986021022446
 31
0.0
  0
LINE
  5
256
330
1F
100
AcDbEntity
  8
LAY-10
  6
CONTINUOUS
 62
     7
100
AcDbLine
 10
1050.303300858899
 20
1994.67588386093
 30
0.0
 11
1067.980970388563
 21
1976.998214331266
 31
0.0
  0
LINE
  5
257
330
1F
100
AcDbEntity
  8
LAY-10
  6
CONTINUOUS
 62
     7
100
AcDbLine
 10
1009.998214331266
 20
2070.33630944789
 30
0.0
 11
1003.634253300587
 21
2063.972348417211
 31
0.0
  0
LINE
  5
258
330
1F
100
AcDbEntity
  8
LAY-10
  6
CONTINUOUS
 62
     7
100
AcDbLine
 10
1021.311922830251
 20
2070.33630944789
 30
0.0
 11
1003.634253300587
 21
2052.658639918226
 31
0.0
  0
LINE
  5
259
330
1F
100
AcDbEntity
  8
LAY-10
  6
CONTINUOUS
 62
     7
100
AcDbLine
 10
980.2997295214305
 20
2111.348502756709
 30
0.0
 11
1021.311922830251
 21
2070.33630944789
 31
0.0
  0
LINE
  5
25A
330
1F
100
AcDbEntity
  8
LAY-10
  6
CONTINUOUS
 62
     7
100
AcDbLine
 10
1003.634253300587
 20
2063.972348417211
 30
0.0
 11
968.2789142412596
 21
2099.327687476538
 31
0.0
  0
LINE
  5
25B
330
1F
100
AcDbEntity
  8
LAY-10
  6
CONTINUOUS
 62
     7
100
AcDbLine
 10
1003.634253300587
 20
2052.658639918226
 30
0.0
 11
962.622059991767
 21
2093.670833227046
 31
0.0
  0
LINE
  5
25C
330
1F
100
AcDbEntity
  8
LAY-10
  6
CONTINUOUS
 62
     7
100
AcDbLine
 10
1009.998214331266
 20
2070.33630944789
 30
0.0
 11
974.642875271938
 21
2105.691648507217
 31
0.0
  0
LINE
  5
25D
330
1F
100
AcDbEntity
  8
LAY-10
  6
CONTINUOUS
 62
     7
100
AcDbLine
 10
962.622059991767
 20
2093.670833227046
 30
0.0
 11
968.2789142412596
 21
2099.327687476538
 31
0.0
  0
LINE
  5
25E
330
1F
100
AcDbEntity
  8
LAY-10
  6
CONTINUOUS
 62
     7
100
AcDbLine
 10
974.6428752719387
 20
2105.691648507217
 30
0.0
 11
980.2997295214305
 21
2111.348502756709
 31
0.0
  0
LINE
  5
25F
330
1F
100
AcDbEntity
  8
LAY-10
  6
CONTINUOUS
 62
     7
100
AcDbLine
 10
1050.303300858899
 20
2134.683026535865
 30
0.0
 11
1067.980970388562
 21
2117.005357006202
 31
0.0
  0
LINE
  5
260
330
1F
100
AcDbEntity
  8
LAY-10
  6
CONTINUOUS
 62
     7
100
AcDbLine
 10
1050.303300858899
 20
2123.36931803688
 30
0.0
 11
1056.667261889578
 21
2117.005357006202
 31
0.0
  0
LINE
  5
261
330
1F
100
AcDbEntity
  8
LAY-10
  6
CONTINUOUS
 62
     7
100
AcDbLine
 10
1050.303300858899
 20
2123.36931803688
 30
0.0
 11
1014.947961799571
 21
2088.013978977553
 31
0.0
  0
LINE
  5
262
330
1F
100
AcDbEntity
  8
LAY-10
  6
CONTINUOUS
 62
     7
100
AcDbLine
 10
1009.291107550079
 20
2093.670833227045
 30
0.0
 11
1050.303300858899
 21
2134.683026535865
 31
0.0
  0
LINE
  5
263
330
1F
100
AcDbEntity
  8
LAY-10
  6
CONTINUOUS
 62
     7
100
AcDbLine
 10
1021.311922830251
 20
2081.650017946874
 30
0.0
 11
1026.968777079743
 21
2075.993163697382
 31
0.0
  0
LINE
  5
264
330
1F
100
AcDbEntity
  8
LAY-10
  6
CONTINUOUS
 62
     7
100
AcDbLine
 10
1056.667261889578
 20
2117.005357006202
 30
0.0
 11
1021.311922830251
 21
2081.650017946874
 31
0.0
  0
LINE
  5
265
330
1F
100
AcDbEntity
  8
LAY-10
  6
CONTINUOUS
 62
     7
100
AcDbLine
 10
1067.980970388563
 20
2117.005357006201
 30
0.0
 11
1026.968777079743
 21
2075.993163697382
 31
0.0
  0
LINE
  5
266
330
1F
100
AcDbEntity
  8
LAY-10
  6
CONTINUOUS
 62
     7
100
AcDbLine
 10
1009.291107550079
 20
2093.670833227046
 30
0.0
 11
1014.947961799572
 21
2088.013978977553
 31
0.0
  0
LINE
  5
267
330
1F
100
AcDbEntity
  8
LAY-10
  6
CONTINUOUS
 62
     7
100
AcDbLine
 10
1055.960155108392
 20
2093.670833227046
 30
0.0
 11
1073.637824638055
 21
2111.348502756709
 31
0.0
  0
LINE
  5
268
330
1F
100
AcDbEntity
  8
LAY-10
  6
CONTINUOUS
 62
     7
100
AcDbLine
 10
1073.637824638055
 20
2100.034794257725
 30
0.0
 11
1067.273863607376
 21
2093.670833227046
 31
0.0
  0
LINE
  5
269
330
1F
100
AcDbEntity
  8
LAY-10
  6
CONTINUOUS
 62
     7
100
AcDbLine
 10
1073.637824638055
 20
2100.034794257725
 30
0.0
 11
1108.993163697383
 21
2064.679455198398
 31
0.0
  0
LINE
  5
26A
330
1F
100
AcDbEntity
  8
LAY-10
  6
CONTINUOUS
 62
     7
100
AcDbLine
 10
1067.273863607376
 20
2093.670833227046
 30
0.0
 11
1102.629202666704
 21
2058.315494167718
 31
0.0
  0
LINE
  5
26B
330
1F
100
AcDbEntity
  8
LAY-10
  6
CONTINUOUS
 62
     7
100
AcDbLine
 10
1055.960155108392
 20
2093.670833227046
 30
0.0
 11
1096.972348417211
 21
2052.658639918226
 31
0.0
  0
LINE
  5
26C
330
1F
100
AcDbEntity
  8
LAY-10
  6
CONTINUOUS
 62
     7
100
AcDbLine
 10
1108.993163697383
 20
2064.679455198398
 30
0.0
 11
1114.650017946875
 21
2070.33630944789
 31
0.0
  0
LINE
  5
26D
330
1F
100
AcDbEntity
  8
LAY-10
  6
CONTINUOUS
 62
     7
100
AcDbLine
 10
1096.972348417211
 20
2052.658639918226
 30
0.0
 11
1102.629202666704
 21
2058.315494167718
 31
0.0
  0
LINE
  5
26E
330
1F
100
AcDbEntity
  8
LAY-10
  6
CONTINUOUS
 62
     7
100
AcDbLine
 10
1114.650017946875
 20
2070.33630944789
 30
0.0
 11
1073.637824638055
 21
2111.348502756709
 31
0.0
  0
POLYLINE
  5
26F
330
1F
100
AcDbEntity
  8
LAY-10
  6
CONTINUOUS
 62
     7
100
AcDb2dPolyline
 66
     1
 10
0.0
 20
0.0
 30
0.0
 70
   128
  0
VERTEX
  5
270
330
26F
100
AcDbEntity
  8
LAY-10
  6
CONTINUOUS
 62
     7
100
AcDbVertex
100
AcDb2dVertex
 10
819.0000000000005
 20
701.9027110891257
 30
0.0
  0
VERTEX
  5
271
330
26F
100
AcDbEntity
  8
LAY-10
  6
CONTINUOUS
 62
     7
100
AcDbVertex
100
AcDb2dVertex
 10
1289.0
 20
701.9027110891257
 30
0.0
  0
VERTEX
  5
272
330
26F
100
AcDbEntity
  8
LAY-10
  6
CONTINUOUS
 62
     7
100
AcDbVertex
100
AcDb2dVertex
 10
1906.5
 20
701.9027110891257
 30
0.0
  0
SEQEND
  5
273
330
26F
100
AcDbEntity
  8
LAY-10
  6
CONTINUOUS
 62
     7
  0
LINE
  5
274
330
1F
100
AcDbEntity
  8
LAY-10
  6
CONTINUOUS
 62
     7
100
AcDbLine
 10
1164.0
 20
762.0000000000011
 30
0.0
 11
1414.0
 21
762.0000000000011
 31
0.0
  0
CIRCLE
  5
275
330
1F
100
AcDbEntity
  8
LAY-10
  6
CONTINUOUS
 62
     7
100
AcDbCircle
 10
874.0
 20
2215.0
 30
0.0
 40
10.0
  0
CIRCLE
  5
276
330
1F
100
AcDbEntity
  8
LAY-10
  6
CONTINUOUS
 62
     7
100
AcDbCircle
 10
874.0
 20
2215.0
 30
0.0
 40
11.0
  0
CIRCLE
  5
277
330
1F
100
AcDbEntity
  8
LAY-10
  6
CONTINUOUS
 62
     7
100
AcDbCircle
 10
964.0
 20
1475.0
 30
0.0
 40
10.0
  0
CIRCLE
  5
278
330
1F
100
AcDbEntity
  8
LAY-10
  6
CONTINUOUS
 62
     7
100
AcDbCircle
 10
964.0
 20
1475.0
 30
0.0
 40
11.0
  0
CIRCLE
  5
279
330
1F
100
AcDbEntity
  8
LAY-10
  6
CONTINUOUS
 62
     7
100
AcDbCircle
 10
1704.0
 20
1565.0
 30
0.0
 40
10.0
  0
CIRCLE
  5
27A
330
1F
100
AcDbEntity
  8
LAY-10
  6
CONTINUOUS
 62
     7
100
AcDbCircle
 10
1704.0
 20
1565.0
 30
0.0
 40
11.0
  0
CIRCLE
  5
27B
330
1F
100
AcDbEntity
  8
LAY-10
  6
CONTINUOUS
 62
     7
100
AcDbCircle
 10
1614.0
 20
2305.0
 30
0.0
 40
10.0
  0
CIRCLE
  5
27C
330
1F
100
AcDbEntity
  8
LAY-10
  6
CONTINUOUS
 62
     7
100
AcDbCircle
 10
1614.0
 20
2305.0
 30
0.0
 40
11.0
  0
LINE
  5
27D
330
1F
100
AcDbEntity
  8
LAY-10
  6
CONTINUOUS
 62
     7
100
AcDbLine
 10
860.8476325894248
 20
760.9027110891266
 30
0.0
 11
903.45
 21
760.9027110891266
 31
0.0
  0
LINE
  5
27E
330
1F
100
AcDbEntity
  8
LAY-10
  6
CONTINUOUS
 62
     7
100
AcDbLine
 10
857.5000000000009
 20
723.9027110891257
 30
0.0
 11
858.8491102401622
 21
758.979577333329
 31
0.0
  0
ARC
  5
27F
330
1F
100
AcDbEntity
  8
LAY-10
  6
CONTINUOUS
 62
     7
100
AcDbCircle
 10
860.8476325894248
 20
758.9027110891266
 30
0.0
 40
2.0
100
AcDbArc
 50
90.00000000000001
 51
177.7974018382347
  0
LINE
  5
280
330
1F
100
AcDbEntity
  8
LAY-10
  6
CONTINUOUS
 62
     7
100
AcDbLine
 10
1673.910623652791
 20
762.9027110891298
 30
0.0
 11
1674.550000000002
 21
760.9027110891262
 31
0.0
  0
LINE
  5
281
330
1F
100
AcDbEntity
  8
LAY-10
  6
CONTINUOUS
 62
     7
100
AcDbLine
 10
1717.152367410576
 20
760.9027110891262
 30
0.0
 11
1674.550000000001
 21
760.9027110891262
 31
0.0
  0
ARC
  5
282
330
1F
100
AcDbEntity
  8
LAY-10
  6
CONTINUOUS
 62
     7
100
AcDbCircle
 10
1717.152367410576
 20
758.9027110891263
 30
0.0
 40
2.0
100
AcDbArc
 50
2.202598161765291
 51
90.00000000000001
  0
LINE
  5
283
330
1F
100
AcDbEntity
  8
LAY-10
  6
CONTINUOUS
 62
     7
100
AcDbLine
 10
1720.500000000001
 20
723.9027110891257
 30
0.0
 11
1719.150889759839
 21
758.9795773333317
 31
0.0
  0
LINE
  5
284
330
1F
100
AcDbEntity
  8
LAY-10
  6
CONTINUOUS
 62
     7
100
AcDbLine
 10
1625.0
 20
777.2398285737506
 30
0.0
 11
1613.0
 21
777.2398285737506
 31
0.0
  0
ARC
  5
285
330
1F
100
AcDbEntity
  8
LAY-10
  6
CONTINUOUS
 62
     7
100
AcDbCircle
 10
1619.0
 20
770.7398285737498
 30
0.0
 40
32.5
100
AcDbArc
 50
180.0
 51
0.0
  0
LINE
  5
286
330
1F
100
AcDbEntity
  8
LAY-10
  6
CONTINUOUS
 62
     7
100
AcDbLine
 10
1586.5
 20
770.7398285737498
 30
0.0
 11
1586.5
 21
777.2398285737506
 31
0.0
  0
LINE
  5
287
330
1F
100
AcDbEntity
  8
LAY-10
  6
CONTINUOUS
 62
     7
100
AcDbLine
 10
1651.5
 20
770.7398285737498
 30
0.0
 11
1651.5
 21
777.2398285737506
 31
0.0
  0
LINE
  5
288
330
1F
100
AcDbEntity
  8
LAY-10
  6
CONTINUOUS
 62
     7
100
AcDbLine
 10
1651.5
 20
777.2398285737506
 30
0.0
 11
1657.0
 21
777.2398285737506
 31
0.0
  0
LINE
  5
289
330
1F
100
AcDbEntity
  8
LAY-10
  6
CONTINUOUS
 62
     7
100
AcDbLine
 10
1586.5
 20
777.2398285737506
 30
0.0
 11
1581.0
 21
777.2398285737506
 31
0.0
  0
LINE
  5
28A
330
1F
100
AcDbEntity
  8
LAY-10
  6
CONTINUOUS
 62
     7
100
AcDbLine
 10
1581.0
 20
777.2398285737506
 30
0.0
 11
1581.0
 21
784.9031210409502
 31
0.0
  0
LINE
  5
28B
330
1F
100
AcDbEntity
  8
LAY-10
  6
CONTINUOUS
 62
     7
100
AcDbLine
 10
1657.0
 20
777.2398285737506
 30
0.0
 11
1657.0
 21
783.5765361064504
 31
0.0
  0
ARC
  5
28C
330
1F
100
AcDbEntity
  8
LAY-10
  6
CONTINUOUS
 62
     7
100
AcDbCircle
 10
1619.0
 20
766.7398285737503
 30
0.0
 40
5.5
100
AcDbArc
 50
180.0
 51
0.0
  0
LINE
  5
28D
330
1F
100
AcDbEntity
  8
LAY-10
  6
CONTINUOUS
 62
     7
100
AcDbLine
 10
1613.5
 20
766.7398285737503
 30
0.0
 11
1613.0
 21
777.2398285737506
 31
0.0
  0
LINE
  5
28E
330
1F
100
AcDbEntity
  8
LAY-10
  6
CONTINUOUS
 62
     7
100
AcDbLine
 10
1624.5
 20
766.7398285737503
 30
0.0
 11
1625.0
 21
777.2398285737506
 31
0.0
  0
ARC
  5
28F
330
1F
100
AcDbEntity
  8
LAY-10
  6
CONTINUOUS
 62
     7
100
AcDbCircle
 10
1619.0
 20
770.7398285737498
 30
0.0
 40
42.5
100
AcDbArc
 50
193.3516232414754
 51
346.2265903098
  0
ARC
  5
290
330
1F
100
AcDbEntity
  8
LAY-10
  6
CONTINUOUS
 62
     7
100
AcDbCircle
 10
1665.134131607576
 20
759.4308984380175
 30
0.0
 40
5.0
100
AcDbArc
 50
89.00000000000342
 51
166.2265903098017
  0
ARC
  5
291
330
1F
100
AcDbEntity
  8
LAY-10
  6
CONTINUOUS
 62
     7
100
AcDbCircle
 10
1572.783867809554
 20
759.7708210819509
 30
0.0
 40
5.0
100
AcDbArc
 50
13.35162324148126
 51
91.00000000000178
  0
LINE
  5
292
330
1F
100
AcDbEntity
  8
LAY-10
  6
CONTINUOUS
 62
     7
100
AcDbLine
 10
1672.034904812875
 20
764.3112066338838
 30
0.0
 11
1665.221393639763
 21
764.4301369137995
 31
0.0
  0
LINE
  5
293
330
1F
100
AcDbEntity
  8
LAY-10
  6
CONTINUOUS
 62
     7
100
AcDbLine
 10
1572.696605777367
 20
764.7700595577329
 30
0.0
 11
1414.0
 21
762.0000000000011
 31
0.0
  0
ARC
  5
294
330
1F
100
AcDbEntity
  8
LAY-10
  6
CONTINUOUS
 62
     7
100
AcDbCircle
 10
1107.0
 20
765.8199792941432
 30
0.0
 40
2.0
100
AcDbArc
 50
0.0
 51
91.00000000000178
  0
LINE
  5
295
330
1F
100
AcDbEntity
  8
LAY-10
  6
CONTINUOUS
 62
     7
100
AcDbLine
 10
1109.0
 20
765.9081203604003
 30
0.0
 11
1109.0
 21
765.8199792941432
 31
0.0
  0
LINE
  5
296
330
1F
100
AcDbEntity
  8
LAY-10
  6
CONTINUOUS
 62
     7
100
AcDbLine
 10
898.0000000000001
 20
755.40271108913
 30
0.0
 11
899.0
 21
701.9027110891299
 31
0.0
  0
LINE
  5
297
330
1F
100
AcDbEntity
  8
LAY-10
  6
CONTINUOUS
 62
     7
100
AcDbLine
 10
997.1423243631975
 20
765.9027110891274
 30
0.0
 11
1106.965095187126
 21
767.8196746844555
 31
0.0
  0
LINE
  5
298
330
1F
100
AcDbEntity
  8
LAY-10
  6
CONTINUOUS
 62
     7
100
AcDbLine
 10
898.0000000000001
 20
755.4027110891265
 30
0.0
 11
888.5368343737296
 21
755.4027110891265
 31
0.0
  0
CIRCLE
  5
299
330
1F
100
AcDbEntity
  8
LAY-10
  6
CONTINUOUS
 62
     7
100
AcDbCircle
 10
1287.00000000002
 20
2224.0
 30
0.0
 40
16.0
  0
CIRCLE
  5
29A
330
1F
100
AcDbEntity
  8
LAY-10
  6
CONTINUOUS
 62
     7
100
AcDbCircle
 10
1287.00000000002
 20
2224.0
 30
0.0
 40
12.50000000000001
  0
LINE
  5
29B
330
1F
100
AcDbEntity
  8
LAY-10
  6
CONTINUOUS
 62
     7
100
AcDbLine
 10
1277.156295554083
 20
2216.296008646095
 30
0.0
 11
1298.593704446005
 21
2228.672902440575
 31
0.0
  0
LINE
  5
29C
330
1F
100
AcDbEntity
  8
LAY-10
  6
CONTINUOUS
 62
     7
100
AcDbLine
 10
1275.40629555407
 20
2219.327097559335
 30
0.0
 11
1296.843704446016
 21
2231.703991353828
 31
0.0
  0
CIRCLE
  5
29D
330
1F
100
AcDbEntity
  8
LAY-10
  6
CONTINUOUS
 62
     7
100
AcDbCircle
 10
1287.00000000002
 20
2224.0
 30
0.0
 40
13.00000000000001
  0
LINE
  5
29E
330
1F
100
AcDbEntity
  8
LAY-10
  6
CONTINUOUS
 62
     7
100
AcDbLine
 10
986.5
 20
748.9027110891257
 30
0.0
 11
1582.539195017627
 21
748.9027110891257
 31
0.0
  0
LINE
  5
29F
330
1F
100
AcDbEntity
  8
LAY-10
  6
CONTINUOUS
 62
     7
100
AcDbLine
 10
983.4999999999993
 20
765.9027110891302
 30
0.0
 11
915.5000000000001
 21
765.9027110891302
 31
0.0
  0
LINE
  5
2A0
330
1F
100
AcDbEntity
  8
LAY-10
  6
CONTINUOUS
 62
     7
100
AcDbLine
 10
915.4999999999984
 20
765.9027110891274
 30
0.0
 11
997.1423243631975
 21
765.9027110891274
 31
0.0
  0
ARC
  5
2A1
330
1F
100
AcDbEntity
  8
LAY-10
  6
CONTINUOUS
 62
     7
100
AcDbCircle
 10
1112.0
 20
765.9081203604003
 30
0.0
 40
3.000000000000003
100
AcDbArc
 50
180.0
 51
269.000000000224
  0
LINE
  5
2A2
330
1F
100
AcDbEntity
  8
LAY-10
  6
CONTINUOUS
 62
     7
100
AcDbLine
 10
1111.947642780688
 20
762.9085772749308
 30
0.0
 11
1164.0
 21
762.0000000000011
 31
0.0
  0
LINE
  5
2A3
330
1F
100
AcDbEntity
  8
LAY-10
  6
CONTINUOUS
 62
     7
100
AcDbLine
 10
1655.460804982375
 20
748.9027110891257
 30
0.0
 11
1695.750000000077
 21
748.9027110891257
 31
0.0
  0
LINE
  5
2A4
330
1F
100
AcDbEntity
  8
LAY-10
  6
CONTINUOUS
 62
     7
100
AcDbLine
 10
1702.250000000084
 20
748.9027110891257
 30
0.0
 11
1708.4631656263
 21
748.9027110891257
 31
0.0
  0
LINE
  5
2A5
330
1F
100
AcDbEntity
  8
LAY-10
  6
CONTINUOUS
 62
     7
100
AcDbLine
 10
877.5455141332492
 20
761.1543389693038
 30
0.0
 11
882.3901113766406
 21
765.9989362126954
 31
0.0
  0
LINE
  5
2A6
330
1F
100
AcDbEntity
  8
LAY-10
  6
CONTINUOUS
 62
     7
100
AcDbLine
 10
871.4999999999238
 20
752.2803977112325
 30
0.0
 11
873.1223133778125
 21
753.9027110891211
 31
0.0
  0
LINE
  5
2A7
330
1F
100
AcDbEntity
  8
LAY-10
  6
CONTINUOUS
 62
     7
100
AcDbLine
 10
876.1985111393841
 20
756.9789088506926
 30
0.0
 11
886.5655414952519
 21
767.3459392065605
 31
0.0
  0
LINE
  5
2A8
330
1F
100
AcDbEntity
  8
LAY-10
  6
CONTINUOUS
 62
     7
100
AcDbLine
 10
873.7791676273145
 20
748.9027110891307
 30
0.0
 11
881.1092798355885
 21
756.2328232974046
 31
0.0
  0
LINE
  5
2A9
330
1F
100
AcDbEntity
  8
LAY-10
  6
CONTINUOUS
 62
     7
100
AcDbLine
 10
875.9999999999181
 20
748.2951163369883
 30
0.0
 11
881.9625436637187
 21
754.2576600007886
 31
0.0
  0
LINE
  5
2AA
330
1F
100
AcDbEntity
  8
LAY-10
  6
CONTINUOUS
 62
     7
100
AcDbLine
 10
875.999999999913
 20
745.4666892122369
 30
0.0
 11
884.4360218767921
 21
753.902711089116
 31
0.0
  0
LINE
  5
2AB
330
1F
100
AcDbEntity
  8
LAY-10
  6
CONTINUOUS
 62
     7
100
AcDbLine
 10
875.9999999999206
 20
742.6382620874984
 30
0.0
 11
881.9999999999166
 21
748.6382620874944
 31
0.0
  0
LINE
  5
2AC
330
1F
100
AcDbEntity
  8
LAY-10
  6
CONTINUOUS
 62
     7
100
AcDbLine
 10
882.8644490015474
 20
749.502711089125
 30
0.0
 11
886.4999999999136
 21
753.1382620874912
 31
0.0
  0
LINE
  5
2AD
330
1F
100
AcDbEntity
  8
LAY-10
  6
CONTINUOUS
 62
     7
100
AcDbLine
 10
875.9999999999156
 20
739.8098349627471
 30
0.0
 11
881.9999999999116
 21
745.8098349627429
 31
0.0
  0
LINE
  5
2AE
330
1F
100
AcDbEntity
  8
LAY-10
  6
CONTINUOUS
 62
     7
100
AcDbLine
 10
885.6928761262986
 20
749.5027110891302
 30
0.0
 11
886.4999999999213
 21
750.3098349627528
 31
0.0
  0
LINE
  5
2AF
330
1F
100
AcDbEntity
  8
LAY-10
  6
CONTINUOUS
 62
     7
100
AcDbLine
 10
875.9999999999235
 20
736.9814078380086
 30
0.0
 11
881.9999999999192
 21
742.9814078380045
 31
0.0
  0
LINE
  5
2B0
330
1F
100
AcDbEntity
  8
LAY-10
  6
CONTINUOUS
 62
     7
100
AcDbLine
 10
877.7497303757841
 20
735.9027110891233
 30
0.0
 11
881.999999999914
 21
740.1529807132533
 31
0.0
  0
LINE
  5
2B1
330
1F
100
AcDbEntity
  8
LAY-10
  6
CONTINUOUS
 62
     7
100
AcDbLine
 10
880.5781575005227
 20
735.9027110891157
 30
0.0
 11
881.9999999999218
 21
737.3245535885147
 31
0.0
  0
LINE
  5
2B2
330
1F
100
AcDbEntity
  8
LAY-10
  6
CONTINUOUS
 62
     7
100
AcDbLine
 10
871.4999999999316
 20
749.4519705864941
 30
0.0
 11
875.9507405025626
 21
753.902711089125
 31
0.0
  0
LINE
  5
2B3
330
1F
100
AcDbEntity
  8
LAY-10
  6
CONTINUOUS
 62
     7
100
AcDbLine
 10
876.0999999999198
 20
754.0519705864822
 30
0.0
 11
881.4952603177308
 21
759.4472309042931
 31
0.0
  0
LINE
  5
2B4
330
1F
100
AcDbEntity
  8
LAY-10
  6
CONTINUOUS
 62
     7
100
AcDbLine
 10
1700.454485866752
 20
761.1543389693037
 30
0.0
 11
1695.60988862336
 21
765.9989362126953
 31
0.0
  0
LINE
  5
2B5
330
1F
100
AcDbEntity
  8
LAY-10
  6
CONTINUOUS
 62
     7
100
AcDbLine
 10
1706.500000000077
 20
752.2803977112324
 30
0.0
 11
1704.877686622189
 21
753.902711089121
 31
0.0
  0
LINE
  5
2B6
330
1F
100
AcDbEntity
  8
LAY-10
  6
CONTINUOUS
 62
     7
100
AcDbLine
 10
1701.801488860617
 20
756.9789088506926
 30
0.0
 11
1691.434458504749
 21
767.3459392065604
 31
0.0
  0
LINE
  5
2B7
330
1F
100
AcDbEntity
  8
LAY-10
  6
CONTINUOUS
 62
     7
100
AcDbLine
 10
1704.220832372687
 20
748.9027110891305
 30
0.0
 11
1696.890720164412
 21
756.2328232974045
 31
0.0
  0
LINE
  5
2B8
330
1F
100
AcDbEntity
  8
LAY-10
  6
CONTINUOUS
 62
     7
100
AcDbLine
 10
1702.000000000083
 20
748.2951163369881
 30
0.0
 11
1696.037456336283
 21
754.2576600007885
 31
0.0
  0
LINE
  5
2B9
330
1F
100
AcDbEntity
  8
LAY-10
  6
CONTINUOUS
 62
     7
100
AcDbLine
 10
1702.000000000088
 20
745.4666892122368
 30
0.0
 11
1693.563978123209
 21
753.9027110891159
 31
0.0
  0
LINE
  5
2BA
330
1F
100
AcDbEntity
  8
LAY-10
  6
CONTINUOUS
 62
     7
100
AcDbLine
 10
1702.00000000008
 20
742.6382620874983
 30
0.0
 11
1696.000000000084
 21
748.6382620874944
 31
0.0
  0
LINE
  5
2BB
330
1F
100
AcDbEntity
  8
LAY-10
  6
CONTINUOUS
 62
     7
100
AcDbLine
 10
1695.135550998453
 20
749.5027110891249
 30
0.0
 11
1691.500000000087
 21
753.1382620874911
 31
0.0
  0
LINE
  5
2BC
330
1F
100
AcDbEntity
  8
LAY-10
  6
CONTINUOUS
 62
     7
100
AcDbLine
 10
1702.000000000085
 20
739.809834962747
 30
0.0
 11
1696.000000000089
 21
745.8098349627429
 31
0.0
  0
LINE
  5
2BD
330
1F
100
AcDbEntity
  8
LAY-10
  6
CONTINUOUS
 62
     7
100
AcDbLine
 10
1692.307123873702
 20
749.5027110891301
 30
0.0
 11
1691.50000000008
 21
750.3098349627527
 31
0.0
  0
LINE
  5
2BE
330
1F
100
AcDbEntity
  8
LAY-10
  6
CONTINUOUS
 62
     7
100
AcDbLine
 10
1702.000000000078
 20
736.9814078380085
 30
0.0
 11
1696.000000000082
 21
742.9814078380045
 31
0.0
  0
LINE
  5
2BF
330
1F
100
AcDbEntity
  8
LAY-10
  6
CONTINUOUS
 62
     7
100
AcDbLine
 10
1700.250269624217
 20
735.9027110891232
 30
0.0
 11
1696.000000000087
 21
740.1529807132531
 31
0.0
  0
LINE
  5
2C0
330
1F
100
AcDbEntity
  8
LAY-10
  6
CONTINUOUS
 62
     7
100
AcDbLine
 10
1697.421842499479
 20
735.9027110891154
 30
0.0
 11
1696.000000000079
 21
737.3245535885147
 31
0.0
  0
LINE
  5
2C1
330
1F
100
AcDbEntity
  8
LAY-10
  6
CONTINUOUS
 62
     7
100
AcDbLine
 10
1706.500000000069
 20
749.451970586494
 30
0.0
 11
1702.049259497438
 21
753.9027110891249
 31
0.0
  0
LINE
  5
2C2
330
1F
100
AcDbEntity
  8
LAY-10
  6
CONTINUOUS
 62
     7
100
AcDbLine
 10
1701.900000000081
 20
754.0519705864821
 30
0.0
 11
1696.504739682271
 21
759.4472309042927
 31
0.0
  0
TEXT
  5
2C3
330
1F
100
AcDbEntity
  8
LAY-10
  6
CONTINUOUS
 62
     7
100
AcDbText
 10
1578.841175463339
 20
1561.718975147969
 30
0.0
 40
17.9291348
  1
Ｆ
 50
43.23315595970001
 41
1.2
  7
EXCADSTD
100
AcDbText
  0
TEXT
  5
2C4
330
1F
100
AcDbEntity
  8
LAY-10
  6
CONTINUOUS
 62
     7
100
AcDbText
 10
1598.657245471558
 20
1580.340947817066
 30
0.0
 40
17.9291348
  1
Ｃ
 50
46.79152221030004
 41
1.2
  7
EXCADSTD
100
AcDbText
  0
LINE
  5
2C5
330
1F
100
AcDbEntity
  8
LAY-10
  6
CENTER
 62
     2
100
AcDbLine
 10
783.0000000000005
 20
1890.0
 30
0.0
 11
1798.000000000001
 21
1890.0
 31
0.0
  0
LINE
  5
2C6
330
1F
100
AcDbEntity
  8
LAY-10
  6
CENTER
 62
     2
100
AcDbLine
 10
1289.0
 20
2403.0
 30
0.0
 11
1289.0
 21
1373.0
 31
0.0
  0
LINE
  5
2C7
330
1F
100
AcDbEntity
  8
LAY-10
  6
CENTER
 62
     2
100
AcDbLine
 10
1289.0
 20
808.9027110891261
 30
0.0
 11
1289.0
 21
683.9027110891261
 31
0.0
  0
LINE
  5
2C8
330
1F
100
AcDbEntity
  8
LAY-10
  6
CENTER
 62
     2
100
AcDbLine
 10
874.0000000000005
 20
2199.5
 30
0.0
 11
874.0000000000005
 21
2234.0
 31
0.0
  0
LINE
  5
2C9
330
1F
100
AcDbEntity
  8
LAY-10
  6
CENTER
 62
     2
100
AcDbLine
 10
859.3000000000009
 20
2215.0
 30
0.0
 11
888.0000000000005
 21
2215.0
 31
0.0
  0
LINE
  5
2CA
330
1F
100
AcDbEntity
  8
LAY-10
  6
CENTER
 62
     2
100
AcDbLine
 10
979.5000000000007
 20
1475.0
 30
0.0
 11
945.0000000000009
 21
1475.0
 31
0.0
  0
LINE
  5
2CB
330
1F
100
AcDbEntity
  8
LAY-10
  6
CENTER
 62
     2
100
AcDbLine
 10
964.0000000000005
 20
1460.300000000001
 30
0.0
 11
964.0000000000005
 21
1489.0
 31
0.0
  0
LINE
  5
2CC
330
1F
100
AcDbEntity
  8
LAY-10
  6
CENTER
 62
     2
100
AcDbLine
 10
1704.0
 20
1580.500000000001
 30
0.0
 11
1704.0
 21
1546.000000000001
 31
0.0
  0
LINE
  5
2CD
330
1F
100
AcDbEntity
  8
LAY-10
  6
CENTER
 62
     2
100
AcDbLine
 10
1718.7
 20
1565.0
 30
0.0
 11
1690.0
 21
1565.0
 31
0.0
  0
LINE
  5
2CE
330
1F
100
AcDbEntity
  8
LAY-10
  6
CENTER
 62
     2
100
AcDbLine
 10
1598.5
 20
2305.0
 30
0.0
 11
1633.0
 21
2305.0
 31
0.0
  0
LINE
  5
2CF
330
1F
100
AcDbEntity
  8
LAY-10
  6
CENTER
 62
     2
100
AcDbLine
 10
1614.0
 20
2319.7
 30
0.0
 11
1614.0
 21
2291.0
 31
0.0
  0
LINE
  5
2D0
330
1F
100
AcDbEntity
  8
LAY-10
  6
CENTER
 62
     2
100
AcDbLine
 10
1619.0
 20
798.0274271931502
 30
0.0
 11
1619.0
 21
712.0274271931502
 31
0.0
  0
LINE
  5
2D1
330
1F
100
AcDbEntity
  8
LAY-10
  6
CENTER
 62
     2
100
AcDbLine
 10
1263.00000000002
 20
2224.00000000001
 30
0.0
 11
1311.00000000002
 21
2224.00000000001
 31
0.0
  0
LINE
  5
2D2
330
1F
100
AcDbEntity
  8
LAY-10
  6
CENTER
 62
     2
100
AcDbLine
 10
1287.00000000002
 20
2248.00000000001
 30
0.0
 11
1287.00000000002
 21
2200.00000000001
 31
0.0
  0
LINE
  5
2D3
330
1F
100
AcDbEntity
  8
LAY-10
  6
CENTER
 62
     2
100
AcDbLine
 10
955.0000000000014
 20
751.6999999999999
 30
0.0
 11
955.0000000000014
 21
786.0
 31
0.0
  0
LINE
  5
2D4
330
1F
100
AcDbEntity
  8
LAY-10
  6
CONTINUOUS
 62
     7
100
AcDbLine
 10
888.53683437373
 20
755.40271108913
 30
0.0
 11
887.53683437372
 21
748.90271108913
 31
0.0
  0
LINE
  5
2D5
330
1F
100
AcDbEntity
  8
LAY-10
  6
CONTINUOUS
 62
     7
100
AcDbLine
 10
882.2499999999246
 20
733.9027110891303
 30
0.0
 11
875.7499999999166
 21
733.9027110891303
 31
0.0
  0
LINE
  5
2D6
330
1F
100
AcDbEntity
  8
LAY-10
  6
CONTINUOUS
 62
     7
100
AcDbLine
 10
875.7499999999166
 20
733.9027110891303
 30
0.0
 11
875.7499999999166
 21
748.9027110891302
 31
0.0
  0
LINE
  5
2D7
330
1F
100
AcDbEntity
  8
LAY-10
  6
CONTINUOUS
 62
     7
100
AcDbLine
 10
882.2499999999246
 20
733.9027110891303
 30
0.0
 11
882.2499999999246
 21
748.9027110891302
 31
0.0
  0
LINE
  5
2D8
330
1F
100
AcDbEntity
  8
LAY-10
  6
CONTINUOUS
 62
     7
100
AcDbLine
 10
882.2499999999246
 20
748.9027110891257
 30
0.0
 11
887.5368343737196
 21
748.9027110891257
 31
0.0
  0
LINE
  5
2D9
330
1F
100
AcDbEntity
  8
LAY-10
  6
CONTINUOUS
 62
     7
100
AcDbLine
 10
869.5368343737
 20
748.9027110891257
 30
0.0
 11
875.7499999999166
 21
748.9027110891257
 31
0.0
  0
LINE
  5
2DA
330
1F
100
AcDbEntity
  8
LAY-10
  6
CONTINUOUS
 62
     7
100
AcDbLine
 10
881.9999999999189
 20
749.5027110891255
 30
0.0
 11
886.4999999999199
 21
749.5027110891255
 31
0.0
  0
LINE
  5
2DB
330
1F
100
AcDbEntity
  8
LAY-10
  6
CONTINUOUS
 62
     7
100
AcDbLine
 10
881.9999999999189
 20
735.902711089125
 30
0.0
 11
881.9999999999189
 21
749.5027110891261
 31
0.0
  0
LINE
  5
2DC
330
1F
100
AcDbEntity
  8
LAY-10
  6
CONTINUOUS
 62
     7
100
AcDbLine
 10
886.4999999999199
 20
753.902711089125
 30
0.0
 11
886.4999999999199
 21
749.5027110891261
 31
0.0
  0
ARC
  5
2DD
330
1F
100
AcDbEntity
  8
LAY-10
  6
CONTINUOUS
 62
     7
100
AcDbCircle
 10
883.0999999999195
 20
755.902711089125
 30
0.0
 40
2.0
100
AcDbArc
 50
197.6097141264617
 51
270.0
  0
ARC
  5
2DE
330
1F
100
AcDbEntity
  8
LAY-10
  6
CONTINUOUS
 62
     7
100
AcDbCircle
 10
891.0999999999198
 20
756.663532709915
 30
0.0
 40
10.0
100
AcDbArc
 50
116.630233955468
 51
187.8504829210005
  0
ARC
  5
2DF
330
1F
100
AcDbEntity
  8
LAY-10
  6
CONTINUOUS
 62
     7
100
AcDbCircle
 10
888.0999999999199
 20
755.444450346025
 30
0.0
 40
12.0
100
AcDbArc
 50
94.78019184709028
 51
180.0
  0
LINE
  5
2E0
330
1F
100
AcDbEntity
  8
LAY-10
  6
CONTINUOUS
 62
     7
100
AcDbLine
 10
876.0999999999198
 20
753.902711089125
 30
0.0
 11
876.0999999999198
 21
755.444450346025
 31
0.0
  0
LINE
  5
2E1
330
1F
100
AcDbEntity
  8
LAY-10
  6
CONTINUOUS
 62
     7
100
AcDbLine
 10
876.0999999999198
 20
753.902711089125
 30
0.0
 11
876.0999999999198
 21
755.402711089125
 31
0.0
  0
LINE
  5
2E2
330
1F
100
AcDbEntity
  8
LAY-10
  6
CONTINUOUS
 62
     7
100
AcDbLine
 10
886.4999999999199
 20
753.902711089125
 30
0.0
 11
883.0999999999195
 21
753.902711089125
 31
0.0
  0
LINE
  5
2E3
330
1F
100
AcDbEntity
  8
LAY-10
  6
CONTINUOUS
 62
     7
100
AcDbLine
 10
886.6176914535652
 20
765.6027110891234
 30
0.0
 11
887.0999999999412
 21
767.402711089123
 31
0.0
  0
LINE
  5
2E4
330
1F
100
AcDbEntity
  8
LAY-10
  6
CONTINUOUS
 62
     7
100
AcDbLine
 10
876.0999999999198
 20
753.902711089125
 30
0.0
 11
871.4999999999199
 21
753.902711089125
 31
0.0
  0
LINE
  5
2E5
330
1F
100
AcDbEntity
  8
LAY-10
  6
CONTINUOUS
 62
     7
100
AcDbLine
 10
881.9999999999189
 20
735.902711089125
 30
0.0
 11
875.9999999999208
 21
735.902711089125
 31
0.0
  0
LINE
  5
2E6
330
1F
100
AcDbEntity
  8
LAY-10
  6
CONTINUOUS
 62
     7
100
AcDbLine
 10
875.9999999999208
 20
735.902711089125
 30
0.0
 11
875.9999999999208
 21
748.902711089125
 31
0.0
  0
LINE
  5
2E7
330
1F
100
AcDbEntity
  8
LAY-10
  6
CONTINUOUS
 62
     7
100
AcDbLine
 10
871.4999999999199
 20
753.902711089125
 30
0.0
 11
871.4999999999199
 21
748.902711089125
 31
0.0
  0
LINE
  5
2E8
330
1F
100
AcDbEntity
  8
LAY-10
  6
CONTINUOUS
 62
     7
100
AcDbLine
 10
875.9999999999208
 20
748.902711089125
 30
0.0
 11
871.4999999999199
 21
748.902711089125
 31
0.0
  0
LINE
  5
2E9
330
1F
100
AcDbEntity
  8
LAY-10
  6
CONTINUOUS
 62
     7
100
AcDbLine
 10
1695.750000000077
 20
733.9027110891303
 30
0.0
 11
1702.250000000084
 21
733.9027110891303
 31
0.0
  0
LINE
  5
2EA
330
1F
100
AcDbEntity
  8
LAY-10
  6
CONTINUOUS
 62
     7
100
AcDbLine
 10
1702.250000000084
 20
733.9027110891303
 30
0.0
 11
1702.250000000084
 21
748.9027110891301
 31
0.0
  0
LINE
  5
2EB
330
1F
100
AcDbEntity
  8
LAY-10
  6
CONTINUOUS
 62
     7
100
AcDbLine
 10
1695.750000000077
 20
733.9027110891303
 30
0.0
 11
1695.750000000077
 21
748.9027110891301
 31
0.0
  0
LINE
  5
2EC
330
1F
100
AcDbEntity
  8
LAY-10
  6
CONTINUOUS
 62
     7
100
AcDbLine
 10
1696.000000000082
 20
749.5027110891252
 30
0.0
 11
1691.500000000081
 21
749.5027110891252
 31
0.0
  0
LINE
  5
2ED
330
1F
100
AcDbEntity
  8
LAY-10
  6
CONTINUOUS
 62
     7
100
AcDbLine
 10
1696.000000000082
 20
735.9027110891249
 30
0.0
 11
1696.000000000082
 21
749.502711089126
 31
0.0
  0
LINE
  5
2EE
330
1F
100
AcDbEntity
  8
LAY-10
  6
CONTINUOUS
 62
     7
100
AcDbLine
 10
1691.500000000081
 20
753.9027110891249
 30
0.0
 11
1691.500000000081
 21
749.502711089126
 31
0.0
  0
ARC
  5
2EF
330
1F
100
AcDbEntity
  8
LAY-10
  6
CONTINUOUS
 62
     7
100
AcDbCircle
 10
1694.900000000081
 20
755.9027110891249
 30
0.0
 40
2.0
100
AcDbArc
 50
270.0
 51
342.3902858735365
  0
ARC
  5
2F0
330
1F
100
AcDbEntity
  8
LAY-10
  6
CONTINUOUS
 62
     7
100
AcDbCircle
 10
1686.900000000081
 20
756.6635327099149
 30
0.0
 40
10.0
100
AcDbArc
 50
352.1495170789995
 51
63.36976604453091
  0
ARC
  5
2F1
330
1F
100
AcDbEntity
  8
LAY-10
  6
CONTINUOUS
 62
     7
100
AcDbCircle
 10
1689.900000000081
 20
755.4444503460248
 30
0.0
 40
12.0
100
AcDbArc
 50
0.0
 51
85.21980815290978
  0
LINE
  5
2F2
330
1F
100
AcDbEntity
  8
LAY-10
  6
CONTINUOUS
 62
     7
100
AcDbLine
 10
1701.900000000081
 20
753.9027110891249
 30
0.0
 11
1701.900000000081
 21
755.4444503460248
 31
0.0
  0
LINE
  5
2F3
330
1F
100
AcDbEntity
  8
LAY-10
  6
CONTINUOUS
 62
     7
100
AcDbLine
 10
1701.900000000081
 20
753.9027110891249
 30
0.0
 11
1701.900000000081
 21
755.4027110891249
 31
0.0
  0
LINE
  5
2F4
330
1F
100
AcDbEntity
  8
LAY-10
  6
CONTINUOUS
 62
     7
100
AcDbLine
 10
1691.500000000081
 20
753.9027110891249
 30
0.0
 11
1694.900000000081
 21
753.9027110891249
 31
0.0
  0
LINE
  5
2F5
330
1F
100
AcDbEntity
  8
LAY-10
  6
CONTINUOUS
 62
     7
100
AcDbLine
 10
1691.382308546436
 20
765.6027110891233
 30
0.0
 11
1690.90000000006
 21
767.4027110891229
 31
0.0
  0
LINE
  5
2F6
330
1F
100
AcDbEntity
  8
LAY-10
  6
CONTINUOUS
 62
     7
100
AcDbLine
 10
1701.900000000081
 20
753.9027110891249
 30
0.0
 11
1706.500000000081
 21
753.9027110891249
 31
0.0
  0
LINE
  5
2F7
330
1F
100
AcDbEntity
  8
LAY-10
  6
CONTINUOUS
 62
     7
100
AcDbLine
 10
1696.000000000082
 20
735.9027110891249
 30
0.0
 11
1702.00000000008
 21
735.9027110891249
 31
0.0
  0
LINE
  5
2F8
330
1F
100
AcDbEntity
  8
LAY-10
  6
CONTINUOUS
 62
     7
100
AcDbLine
 10
1702.00000000008
 20
735.9027110891249
 30
0.0
 11
1702.00000000008
 21
748.9027110891249
 31
0.0
  0
LINE
  5
2F9
330
1F
100
AcDbEntity
  8
LAY-10
  6
CONTINUOUS
 62
     7
100
AcDbLine
 10
1706.500000000081
 20
753.9027110891249
 30
0.0
 11
1706.500000000081
 21
748.9027110891249
 31
0.0
  0
LINE
  5
2FA
330
1F
100
AcDbEntity
  8
LAY-10
  6
CONTINUOUS
 62
     7
100
AcDbLine
 10
1702.00000000008
 20
748.9027110891249
 30
0.0
 11
1706.500000000081
 21
748.9027110891249
 31
0.0
  0
LINE
  5
2FB
330
1F
100
AcDbEntity
  8
LAY-10
  6
PHANTOM
 62
     7
100
AcDbLine
 10
850.2621057045662
 20
779.3413445844717
 30
0.0
 11
853.7370925371679
 21
779.4020007052595
 31
0.0
  0
LINE
  5
2FC
330
1F
100
AcDbEntity
  8
LAY-10
  6
PHANTOM
 62
     7
100
AcDbLine
 10
850.2621057045662
 20
779.3413445844722
 30
0.0
 11
849.9999999999995
 21
782.3372264965237
 31
0.0
  0
LINE
  5
2FD
330
1F
100
AcDbEntity
  8
LAY-10
  6
PHANTOM
 62
     7
100
AcDbLine
 10
853.7370925371679
 20
779.4020007052595
 30
0.0
 11
854.0000000000018
 21
782.407046756237
 31
0.0
  0
LINE
  5
2FE
330
1F
100
AcDbEntity
  8
LAY-10
  6
PHANTOM
 62
     7
100
AcDbLine
 10
860.2621057045669
 20
779.515895233754
 30
0.0
 11
859.9999999999995
 21
782.5117771458067
 31
0.0
  0
LINE
  5
2FF
330
1F
100
AcDbEntity
  8
LAY-10
  6
PHANTOM
 62
     7
100
AcDbLine
 10
860.2621057045699
 20
779.5158952337542
 30
0.0
 11
1289.052357219312
 21
787.0004569145319
 31
0.0
  0
LINE
  5
300
330
1F
100
AcDbEntity
  8
LAY-10
  6
PHANTOM
 62
     7
100
AcDbLine
 10
1717.737894295434
 20
779.5158952337542
 30
0.0
 11
1288.947642780689
 21
787.0004569145319
 31
0.0
  0
LINE
  5
301
330
1F
100
AcDbEntity
  8
LAY-10
  6
PHANTOM
 62
     7
100
AcDbLine
 10
1575.737894295434
 20
781.9945144535612
 30
0.0
 11
1576.0
 21
784.9903963656044
 31
0.0
  0
LINE
  5
302
330
1F
100
AcDbEntity
  8
LAY-10
  6
PHANTOM
 62
     7
100
AcDbLine
 10
1662.262907462833
 20
780.4842147308092
 30
0.0
 11
1662.0
 21
783.4892607817718
 31
0.0
  0
LINE
  5
303
330
1F
100
AcDbEntity
  8
LAY-10
  6
PHANTOM
 62
     7
100
AcDbLine
 10
1727.737894295435
 20
779.3413445844722
 30
0.0
 11
1724.262907462833
 21
779.4020007052598
 31
0.0
  0
LINE
  5
304
330
1F
100
AcDbEntity
  8
LAY-10
  6
PHANTOM
 62
     7
100
AcDbLine
 10
1727.737894295435
 20
779.3413445844722
 30
0.0
 11
1728.000000000001
 21
782.3372264965237
 31
0.0
  0
LINE
  5
305
330
1F
100
AcDbEntity
  8
LAY-10
  6
PHANTOM
 62
     7
100
AcDbLine
 10
1724.262907462833
 20
779.4020007052595
 30
0.0
 11
1723.999999999999
 21
782.407046756237
 31
0.0
  0
LINE
  5
306
330
1F
100
AcDbEntity
  8
LAY-10
  6
PHANTOM
 62
     7
100
AcDbLine
 10
1717.737894295434
 20
779.515895233754
 30
0.0
 11
1718.000000000002
 21
782.5117771458067
 31
0.0
  0
LINE
  5
307
330
1F
100
AcDbEntity
  8
LAY-20
  6
CONTINUOUS
 62
     7
100
AcDbLine
 10
965.4380652052041
 20
774.5265627319584
 30
0.0
 11
966.3761483571689
 21
775.4646458839227
 31
0.0
  0
LINE
  5
308
330
1F
100
AcDbEntity
  8
LAY-20
  6
CONTINUOUS
 62
     7
100
AcDbLine
 10
964.7821909595664
 20
774.577795267507
 30
0.0
 11
966.3249158216204
 21
776.120520129561
 31
0.0
  0
LINE
  5
309
330
1F
100
AcDbEntity
  8
LAY-20
  6
CONTINUOUS
 62
     7
100
AcDbLine
 10
964.3514718625761
 20
774.8541829517033
 30
0.0
 11
966.0485281374241
 21
776.5512392265507
 31
0.0
  0
LINE
  5
30A
330
1F
100
AcDbEntity
  8
LAY-20
  6
CONTINUOUS
 62
     7
100
AcDbLine
 10
964.0750841783797
 20
775.2849020486931
 30
0.0
 11
965.6178090404342
 21
776.8276269107475
 31
0.0
  0
LINE
  5
30B
330
1F
100
AcDbEntity
  8
LAY-20
  6
CONTINUOUS
 62
     7
100
AcDbLine
 10
964.0238516428312
 20
775.9407762943313
 30
0.0
 11
964.961934794796
 21
776.8788594462961
 31
0.0
  0
LINE
  5
30C
330
1F
100
AcDbEntity
  8
LAY-20
  6
CONTINUOUS
 62
     7
100
AcDbLine
 10
945.0380652051945
 20
774.5265627319584
 30
0.0
 11
945.9761483571589
 21
775.4646458839227
 31
0.0
  0
LINE
  5
30D
330
1F
100
AcDbEntity
  8
LAY-20
  6
CONTINUOUS
 62
     7
100
AcDbLine
 10
944.3821909595563
 20
774.577795267507
 30
0.0
 11
945.9249158216103
 21
776.120520129561
 31
0.0
  0
LINE
  5
30E
330
1F
100
AcDbEntity
  8
LAY-20
  6
CONTINUOUS
 62
     7
100
AcDbLine
 10
943.951471862566
 20
774.8541829517033
 30
0.0
 11
945.6485281374139
 21
776.5512392265507
 31
0.0
  0
LINE
  5
30F
330
1F
100
AcDbEntity
  8
LAY-20
  6
CONTINUOUS
 62
     7
100
AcDbLine
 10
943.6750841783697
 20
775.2849020486931
 30
0.0
 11
945.2178090404241
 21
776.8276269107475
 31
0.0
  0
LINE
  5
310
330
1F
100
AcDbEntity
  8
LAY-20
  6
CONTINUOUS
 62
     7
100
AcDbLine
 10
943.6238516428211
 20
775.9407762943313
 30
0.0
 11
944.561934794786
 21
776.8788594462961
 31
0.0
  0
LINE
  5
311
330
1F
100
AcDbEntity
  8
LAY-20
  6
CONTINUOUS
 62
     7
100
AcDbLine
 10
971.0519623890212
 20
768.0759938217109
 30
0.0
 11
972.3267172674191
 21
769.3507487001086
 31
0.0
  0
LINE
  5
312
330
1F
100
AcDbEntity
  8
LAY-20
  6
CONTINUOUS
 62
     7
100
AcDbLine
 10
971.027388418234
 20
767.3443130697372
 30
0.0
 11
973.0583980193928
 21
769.3753226708961
 31
0.0
  0
LINE
  5
313
330
1F
100
AcDbEntity
  8
LAY-20
  6
CONTINUOUS
 62
     7
100
AcDbLine
 10
971.2105924868436
 20
766.82041035716
 30
0.0
 11
973.5823007319698
 21
769.1921186022862
 31
0.0
  0
LINE
  5
314
330
1F
100
AcDbEntity
  8
LAY-20
  6
CONTINUOUS
 62
     7
100
AcDbLine
 10
971.5125631329236
 20
766.4152742220532
 30
0.0
 11
973.9874368670764
 21
768.8901479562062
 31
0.0
  0
LINE
  5
315
330
1F
100
AcDbEntity
  8
LAY-20
  6
CONTINUOUS
 62
     7
100
AcDbLine
 10
971.91769926803
 20
766.1133035759738
 30
0.0
 11
974.2894075131564
 21
768.4850118211
 31
0.0
  0
LINE
  5
316
330
1F
100
AcDbEntity
  8
LAY-20
  6
CONTINUOUS
 62
     7
100
AcDbLine
 10
972.441601980607
 20
765.9300995073638
 30
0.0
 11
974.4726115817662
 21
767.9611091085227
 31
0.0
  0
LINE
  5
317
330
1F
100
AcDbEntity
  8
LAY-20
  6
CONTINUOUS
 62
     7
100
AcDbLine
 10
973.1732827325806
 20
765.9546734781509
 30
0.0
 11
974.4480376109791
 21
767.2294283565495
 31
0.0
  0
LINE
  5
318
330
1F
100
AcDbEntity
  8
LAY-20
  6
CONTINUOUS
 62
     7
100
AcDbLine
 10
935.5519623890211
 20
768.0759938217109
 30
0.0
 11
936.8267172674191
 21
769.3507487001086
 31
0.0
  0
LINE
  5
319
330
1F
100
AcDbEntity
  8
LAY-20
  6
CONTINUOUS
 62
     7
100
AcDbLine
 10
935.5273884182338
 20
767.3443130697372
 30
0.0
 11
937.5583980193928
 21
769.3753226708961
 31
0.0
  0
LINE
  5
31A
330
1F
100
AcDbEntity
  8
LAY-20
  6
CONTINUOUS
 62
     7
100
AcDbLine
 10
935.7105924868436
 20
766.82041035716
 30
0.0
 11
938.0823007319698
 21
769.1921186022862
 31
0.0
  0
LINE
  5
31B
330
1F
100
AcDbEntity
  8
LAY-20
  6
CONTINUOUS
 62
     7
100
AcDbLine
 10
936.0125631329237
 20
766.4152742220532
 30
0.0
 11
938.4874368670764
 21
768.8901479562062
 31
0.0
  0
LINE
  5
31C
330
1F
100
AcDbEntity
  8
LAY-20
  6
CONTINUOUS
 62
     7
100
AcDbLine
 10
936.41769926803
 20
766.1133035759738
 30
0.0
 11
938.7894075131564
 21
768.4850118211
 31
0.0
  0
LINE
  5
31D
330
1F
100
AcDbEntity
  8
LAY-20
  6
CONTINUOUS
 62
     7
100
AcDbLine
 10
936.941601980607
 20
765.9300995073638
 30
0.0
 11
938.9726115817662
 21
767.9611091085227
 31
0.0
  0
LINE
  5
31E
330
1F
100
AcDbEntity
  8
LAY-20
  6
CONTINUOUS
 62
     7
100
AcDbLine
 10
937.6732827325804
 20
765.9546734781509
 30
0.0
 11
938.9480376109791
 21
767.2294283565495
 31
0.0
  0
LINE
  5
31F
330
1F
100
AcDbEntity
  8
LAY-20
  6
CONTINUOUS
 62
     7
100
AcDbLine
 10
892.5000000000006
 20
755.3901668533482
 30
0.0
 11
892.5
 21
757.9027110891218
 31
0.0
  0
LINE
  5
320
330
1F
100
AcDbEntity
  8
LAY-20
  6
CONTINUOUS
 62
     7
100
AcDbLine
 10
893.5000000000002
 20
755.3901668533482
 30
0.0
 11
893.5
 21
758.9027110891218
 31
0.0
  0
LINE
  5
321
330
1F
100
AcDbEntity
  8
LAY-20
  6
CONTINUOUS
 62
     7
100
AcDbLine
 10
893.5000000000019
 20
758.90271108912
 30
0.0
 11
892.5
 21
757.9027110891182
 31
0.0
  0
LINE
  5
322
330
1F
100
AcDbEntity
  8
LAY-20
  6
CONTINUOUS
 62
     7
100
AcDbLine
 10
893.5
 20
758.9027110891218
 30
0.0
 11
903.5
 21
758.9027110891218
 31
0.0
  0
LINE
  5
323
330
1F
100
AcDbEntity
  8
LAY-20
  6
CONTINUOUS
 62
     7
100
AcDbLine
 10
944.99999999999
 20
766.9027110891273
 30
0.0
 11
944.99999999999
 21
765.9027110891273
 31
0.0
  0
LINE
  5
324
330
1F
100
AcDbEntity
  8
LAY-20
  6
CONTINUOUS
 62
     7
100
AcDbLine
 10
964.99999999999
 20
766.9027110891273
 30
0.0
 11
964.99999999999
 21
765.9027110891273
 31
0.0
  0
LINE
  5
325
330
1F
100
AcDbEntity
  8
LAY-20
  6
CONTINUOUS
 62
     7
100
AcDbLine
 10
944.99999999999
 20
766.9027110891273
 30
0.0
 11
964.99999999999
 21
766.9027110891273
 31
0.0
  0
LINE
  5
326
330
1F
100
AcDbEntity
  8
LAY-20
  6
CONTINUOUS
 62
     7
100
AcDbLine
 10
967.4999999999945
 20
779.9027110891274
 30
0.0
 11
967.4999999999945
 21
776.9027110891273
 31
0.0
  0
LINE
  5
327
330
1F
100
AcDbEntity
  8
LAY-20
  6
CONTINUOUS
 62
     7
100
AcDbLine
 10
942.4999999999941
 20
779.9027110891274
 30
0.0
 11
942.4999999999941
 21
776.9027110891273
 31
0.0
  0
LINE
  5
328
330
1F
100
AcDbEntity
  8
LAY-20
  6
CONTINUOUS
 62
     7
100
AcDbLine
 10
956.7499999999941
 20
778.4027110891273
 30
0.0
 11
953.2499999999945
 21
778.4027110891273
 31
0.0
  0
LINE
  5
329
330
1F
100
AcDbEntity
  8
LAY-20
  6
CONTINUOUS
 62
     7
100
AcDbLine
 10
953.2499999999945
 20
780.9027110891273
 30
0.0
 11
953.2499999999945
 21
778.4027110891273
 31
0.0
  0
LINE
  5
32A
330
1F
100
AcDbEntity
  8
LAY-20
  6
CONTINUOUS
 62
     7
100
AcDbLine
 10
956.7499999999941
 20
780.9027110891273
 30
0.0
 11
956.7499999999941
 21
778.4027110891273
 31
0.0
  0
LINE
  5
32B
330
1F
100
AcDbEntity
  8
LAY-20
  6
CONTINUOUS
 62
     7
100
AcDbLine
 10
965.9999999999945
 20
773.9027110891273
 30
0.0
 11
943.9999999999941
 21
773.9027110891273
 31
0.0
  0
LINE
  5
32C
330
1F
100
AcDbEntity
  8
LAY-20
  6
CONTINUOUS
 62
     7
100
AcDbLine
 10
943.4999999999945
 20
780.9027110891273
 30
0.0
 11
942.4999999999941
 21
779.9027110891274
 31
0.0
  0
LINE
  5
32D
330
1F
100
AcDbEntity
  8
LAY-20
  6
CONTINUOUS
 62
     7
100
AcDbLine
 10
966.4999999999947
 20
780.9027110891273
 30
0.0
 11
967.4999999999945
 21
779.9027110891274
 31
0.0
  0
LINE
  5
32E
330
1F
100
AcDbEntity
  8
LAY-20
  6
CONTINUOUS
 62
     7
100
AcDbLine
 10
967.4999999999945
 20
776.9027110891273
 30
0.0
 11
942.4999999999941
 21
776.9027110891273
 31
0.0
  0
LINE
  5
32F
330
1F
100
AcDbEntity
  8
LAY-20
  6
CONTINUOUS
 62
     7
100
AcDbLine
 10
967.9999999999941
 20
780.9027110891268
 30
0.0
 11
967.9999999999941
 21
776.9459139304388
 31
0.0
  0
LINE
  5
330
330
1F
100
AcDbEntity
  8
LAY-20
  6
CONTINUOUS
 62
     7
100
AcDbLine
 10
941.9999999999942
 20
780.9027110891268
 30
0.0
 11
941.9999999999942
 21
776.9459139304388
 31
0.0
  0
LINE
  5
331
330
1F
100
AcDbEntity
  8
LAY-20
  6
CONTINUOUS
 62
     7
100
AcDbLine
 10
965.9999999999941
 20
767.4800613583162
 30
0.0
 11
964.9999999999941
 21
766.9027110891273
 31
0.0
  0
LINE
  5
332
330
1F
100
AcDbEntity
  8
LAY-20
  6
CONTINUOUS
 62
     7
100
AcDbLine
 10
943.9999999999941
 20
767.4800613583168
 30
0.0
 11
944.9999999999941
 21
766.9027110891273
 31
0.0
  0
LINE
  5
333
330
1F
100
AcDbEntity
  8
LAY-20
  6
CONTINUOUS
 62
     7
100
AcDbLine
 10
943.9999999999941
 20
773.9027110891273
 30
0.0
 11
943.9999999999941
 21
767.4800613583168
 31
0.0
  0
LINE
  5
334
330
1F
100
AcDbEntity
  8
LAY-20
  6
CONTINUOUS
 62
     7
100
AcDbLine
 10
965.9999999999941
 20
773.9027110891273
 30
0.0
 11
965.9999999999941
 21
767.4800613583162
 31
0.0
  0
LINE
  5
335
330
1F
100
AcDbEntity
  8
LAY-20
  6
CONTINUOUS
 62
     7
100
AcDbLine
 10
965.9999999999941
 20
767.4800613583162
 30
0.0
 11
943.9999999999941
 21
767.4800613583162
 31
0.0
  0
LINE
  5
336
330
1F
100
AcDbEntity
  8
LAY-20
  6
CONTINUOUS
 62
     7
100
AcDbLine
 10
967.9999999999973
 20
776.9459139304406
 30
0.0
 11
965.0000000000006
 21
774.6439329665061
 31
0.0
  0
LINE
  5
337
330
1F
100
AcDbEntity
  8
LAY-20
  6
CONTINUOUS
 62
     7
100
AcDbLine
 10
917.250000000013
 20
760.9027110891291
 30
0.0
 11
917.250000000013
 21
759.3027110891277
 31
0.0
  0
LINE
  5
338
330
1F
100
AcDbEntity
  8
LAY-20
  6
CONTINUOUS
 62
     7
100
AcDbLine
 10
929.7500000000127
 20
760.9027110891291
 30
0.0
 11
929.7500000000127
 21
759.3027110891277
 31
0.0
  0
LINE
  5
339
330
1F
100
AcDbEntity
  8
LAY-20
  6
CONTINUOUS
 62
     7
100
AcDbLine
 10
917.250000000013
 20
759.3027110891277
 30
0.0
 11
929.7500000000127
 21
759.3027110891277
 31
0.0
  0
LINE
  5
33A
330
1F
100
AcDbEntity
  8
LAY-20
  6
CONTINUOUS
 62
     7
100
AcDbLine
 10
927.2500000000127
 20
753.902711089128
 30
0.0
 11
927.2500000000127
 21
757.9527110891283
 31
0.0
  0
LINE
  5
33B
330
1F
100
AcDbEntity
  8
LAY-20
  6
CONTINUOUS
 62
     7
100
AcDbLine
 10
926.0000000000127
 20
753.902711089128
 30
0.0
 11
926.0000000000127
 21
756.6027110891279
 31
0.0
  0
LINE
  5
33C
330
1F
100
AcDbEntity
  8
LAY-20
  6
CONTINUOUS
 62
     7
100
AcDbLine
 10
924.7500000000127
 20
753.902711089128
 30
0.0
 11
924.7500000000127
 21
755.2527110891285
 31
0.0
  0
LINE
  5
33D
330
1F
100
AcDbEntity
  8
LAY-20
  6
CONTINUOUS
 62
     7
100
AcDbLine
 10
927.9000000000128
 20
753.3027110891286
 30
0.0
 11
919.1000000000129
 21
753.3027110891286
 31
0.0
  0
LINE
  5
33E
330
1F
100
AcDbEntity
  8
LAY-20
  6
CONTINUOUS
 62
     7
100
AcDbLine
 10
918.500000000013
 20
753.902711089128
 30
0.0
 11
919.1000000000129
 21
753.3027110891286
 31
0.0
  0
LINE
  5
33F
330
1F
100
AcDbEntity
  8
LAY-20
  6
CONTINUOUS
 62
     7
100
AcDbLine
 10
928.5000000000127
 20
753.902711089128
 30
0.0
 11
927.9000000000128
 21
753.3027110891286
 31
0.0
  0
LINE
  5
340
330
1F
100
AcDbEntity
  8
LAY-20
  6
CONTINUOUS
 62
     7
100
AcDbLine
 10
928.5000000000127
 20
753.902711089128
 30
0.0
 11
918.500000000013
 21
753.902711089128
 31
0.0
  0
LINE
  5
341
330
1F
100
AcDbEntity
  8
LAY-20
  6
CONTINUOUS
 62
     7
100
AcDbLine
 10
918.500000000013
 20
759.3027110891277
 30
0.0
 11
918.500000000013
 21
753.902711089128
 31
0.0
  0
LINE
  5
342
330
1F
100
AcDbEntity
  8
LAY-20
  6
CONTINUOUS
 62
     7
100
AcDbLine
 10
928.5000000000133
 20
759.3027110891277
 30
0.0
 11
928.5000000000127
 21
753.902711089128
 31
0.0
  0
LINE
  5
343
330
1F
100
AcDbEntity
  8
LAY-20
  6
CONTINUOUS
 62
     7
100
AcDbLine
 10
964.2500000000127
 20
760.9027110891291
 30
0.0
 11
964.2500000000127
 21
759.3027110891277
 31
0.0
  0
LINE
  5
344
330
1F
100
AcDbEntity
  8
LAY-20
  6
CONTINUOUS
 62
     7
100
AcDbLine
 10
976.7500000000127
 20
760.9027110891291
 30
0.0
 11
976.7500000000127
 21
759.3027110891277
 31
0.0
  0
LINE
  5
345
330
1F
100
AcDbEntity
  8
LAY-20
  6
CONTINUOUS
 62
     7
100
AcDbLine
 10
964.2500000000127
 20
759.3027110891277
 30
0.0
 11
976.7500000000127
 21
759.3027110891277
 31
0.0
  0
LINE
  5
346
330
1F
100
AcDbEntity
  8
LAY-20
  6
CONTINUOUS
 62
     7
100
AcDbLine
 10
974.2500000000127
 20
753.902711089128
 30
0.0
 11
974.2500000000127
 21
757.9527110891283
 31
0.0
  0
LINE
  5
347
330
1F
100
AcDbEntity
  8
LAY-20
  6
CONTINUOUS
 62
     7
100
AcDbLine
 10
973.0000000000127
 20
753.902711089128
 30
0.0
 11
973.0000000000127
 21
756.6027110891279
 31
0.0
  0
LINE
  5
348
330
1F
100
AcDbEntity
  8
LAY-20
  6
CONTINUOUS
 62
     7
100
AcDbLine
 10
971.7500000000127
 20
753.902711089128
 30
0.0
 11
971.7500000000127
 21
755.2527110891285
 31
0.0
  0
LINE
  5
349
330
1F
100
AcDbEntity
  8
LAY-20
  6
CONTINUOUS
 62
     7
100
AcDbLine
 10
974.9000000000128
 20
753.3027110891286
 30
0.0
 11
966.1000000000126
 21
753.3027110891286
 31
0.0
  0
LINE
  5
34A
330
1F
100
AcDbEntity
  8
LAY-20
  6
CONTINUOUS
 62
     7
100
AcDbLine
 10
965.5000000000127
 20
753.902711089128
 30
0.0
 11
966.1000000000126
 21
753.3027110891286
 31
0.0
  0
LINE
  5
34B
330
1F
100
AcDbEntity
  8
LAY-20
  6
CONTINUOUS
 62
     7
100
AcDbLine
 10
975.5000000000127
 20
753.902711089128
 30
0.0
 11
974.9000000000128
 21
753.3027110891286
 31
0.0
  0
LINE
  5
34C
330
1F
100
AcDbEntity
  8
LAY-20
  6
CONTINUOUS
 62
     7
100
AcDbLine
 10
975.5000000000127
 20
753.902711089128
 30
0.0
 11
965.5000000000127
 21
753.902711089128
 31
0.0
  0
LINE
  5
34D
330
1F
100
AcDbEntity
  8
LAY-20
  6
CONTINUOUS
 62
     7
100
AcDbLine
 10
965.5000000000127
 20
759.3027110891277
 30
0.0
 11
965.5000000000127
 21
753.902711089128
 31
0.0
  0
LINE
  5
34E
330
1F
100
AcDbEntity
  8
LAY-20
  6
CONTINUOUS
 62
     7
100
AcDbLine
 10
975.5000000000132
 20
759.3027110891277
 30
0.0
 11
975.5000000000127
 21
753.902711089128
 31
0.0
  0
LINE
  5
34F
330
1F
100
AcDbEntity
  8
LAY-20
  6
CONTINUOUS
 62
     7
100
AcDbLine
 10
983.5
 20
732.9027110891273
 30
0.0
 11
986.5
 21
732.9027110891273
 31
0.0
  0
LINE
  5
350
330
1F
100
AcDbEntity
  8
LAY-20
  6
CONTINUOUS
 62
     7
100
AcDbLine
 10
983.5
 20
760.9027110891277
 30
0.0
 11
915.5000000000001
 21
760.9027110891277
 31
0.0
  0
LINE
  5
351
330
1F
100
AcDbEntity
  8
LAY-20
  6
CONTINUOUS
 62
     7
100
AcDbLine
 10
915.4999999999986
 20
736.4027110891273
 30
0.0
 11
915.4999999999986
 21
765.9027110891268
 31
0.0
  0
LINE
  5
352
330
1F
100
AcDbEntity
  8
LAY-20
  6
CONTINUOUS
 62
     7
100
AcDbLine
 10
936.5
 20
731.9027110891273
 30
0.0
 11
936.5
 21
760.9027110891277
 31
0.0
  0
LINE
  5
353
330
1F
100
AcDbEntity
  8
LAY-20
  6
CONTINUOUS
 62
     7
100
AcDbLine
 10
983.4999999999974
 20
731.9027110891273
 30
0.0
 11
983.4999999999997
 21
765.9027110891268
 31
0.0
  0
LINE
  5
354
330
1F
100
AcDbEntity
  8
LAY-20
  6
CONTINUOUS
 62
     7
100
AcDbLine
 10
915.5000000000001
 20
761.9027110891273
 30
0.0
 11
903.5
 21
761.9027110891273
 31
0.0
  0
LINE
  5
355
330
1F
100
AcDbEntity
  8
LAY-20
  6
CONTINUOUS
 62
     7
100
AcDbLine
 10
971.0
 20
780.9027110891268
 30
0.0
 11
971.0
 21
766.9027110891268
 31
0.0
  0
LINE
  5
356
330
1F
100
AcDbEntity
  8
LAY-20
  6
CONTINUOUS
 62
     7
100
AcDbLine
 10
939.0
 20
780.9027110891268
 30
0.0
 11
939.0
 21
766.9027110891273
 31
0.0
  0
LINE
  5
357
330
1F
100
AcDbEntity
  8
LAY-20
  6
CONTINUOUS
 62
     7
100
AcDbLine
 10
939.0
 20
780.9027110891268
 30
0.0
 11
971.0
 21
780.9027110891268
 31
0.0
  0
LINE
  5
358
330
1F
100
AcDbEntity
  8
LAY-20
  6
CONTINUOUS
 62
     7
100
AcDbLine
 10
915.5000000000001
 20
736.4027110891273
 30
0.0
 11
936.5
 21
736.4027110891273
 31
0.0
  0
LINE
  5
359
330
1F
100
AcDbEntity
  8
LAY-20
  6
CONTINUOUS
 62
     7
100
AcDbLine
 10
983.5
 20
731.9027110891268
 30
0.0
 11
936.5
 21
731.9027110891268
 31
0.0
  0
LINE
  5
35A
330
1F
100
AcDbEntity
  8
LAY-20
  6
CONTINUOUS
 62
     7
100
AcDbLine
 10
903.5
 20
761.9027110891273
 30
0.0
 11
903.5
 21
737.9027110891273
 31
0.0
  0
LINE
  5
35B
330
1F
100
AcDbEntity
  8
LAY-20
  6
CONTINUOUS
 62
     7
100
AcDbLine
 10
903.5
 20
737.9027110891273
 30
0.0
 11
915.5000000000001
 21
737.9027110891273
 31
0.0
  0
LINE
  5
35C
330
1F
100
AcDbEntity
  8
LAY-20
  6
CONTINUOUS
 62
     7
100
AcDbLine
 10
898.2710280373834
 20
740.9027110891222
 30
0.0
 11
903.5
 21
740.9027110891222
 31
0.0
  0
LINE
  5
35D
330
1F
100
AcDbEntity
  8
LAY-20
  6
CONTINUOUS
 62
     7
100
AcDbLine
 10
986.5
 20
732.9027110891273
 30
0.0
 11
986.5
 21
765.9027110891274
 31
0.0
  0
LINE
  5
35E
330
1F
100
AcDbEntity
  8
LAY-20
  6
CONTINUOUS
 62
     7
100
AcDbLine
 10
972.0000000000014
 20
781.4662874336236
 30
0.0
 11
972.0000000000014
 21
768.4027110891174
 31
0.0
  0
LINE
  5
35F
330
1F
100
AcDbEntity
  8
LAY-20
  6
CONTINUOUS
 62
     7
100
AcDbLine
 10
938.0000000000009
 20
780.90271108913
 30
0.0
 11
938.0000000000009
 21
768.4027110891174
 31
0.0
  0
DIMENSION
  5
361
330
1F
100
AcDbEntity
  8
LAY-20
  6
CONTINUOUS
 62
     4
100
AcDbDimension
  2
*D15
 10
1771.5
 20
1030.0
 30
0.0
 11
1289.0
 21
1055.0
 31
0.0
 70
   160
  1
%%c<>
  3
ISO-25
100
AcDbAlignedDimension
 13
806.5
 23
775.90271108913
 33
0.0
 14
1771.5
 24
775.90271108913
 34
0.0
100
AcDbRotatedDimension
1001
ACAD
1000
DSTYLE
1002
{
1070
   270
1070
     2
1070
     6
1000
EX_BNORM
1070
     7
1000
EX_BNORM
1070
    41
1040
30.0
1070
    42
1040
15.0
1070
    44
1040
15.0
1070
    73
1070
     0
1070
    74
1070
     0
1070
    75
1070
     0
1070
    76
1070
     0
1070
    77
1070
     1
1070
    78
1070
     8
1070
   140
1040
31.181104
1070
   147
1040
0.0
1070
   173
1070
     1
1070
   176
1070
     4
1070
   177
1070
     4
1070
   178
1070
     7
1070
   271
1070
     1
1070
   277
1070
     2
1070
   279
1070
     2
1070
   280
1070
     0
1070
   287
1070
     5
1070
   340
1005
360
1002
}
  0
DIMENSION
  5
36F
330
1F
100
AcDbEntity
  8
LAY-20
  6
CONTINUOUS
 62
     4
100
AcDbDimension
  2
*D16
 10
1750.0
 20
960.0
 30
0.0
 11
1289.0
 21
985.0
 31
0.0
 70
   160
  1
%%c<>
  3
ISO-25
100
AcDbAlignedDimension
 13
828.0000000000001
 23
780.90271108913
 33
0.0
 14
1750.0
 24
780.90271108913
 34
0.0
100
AcDbRotatedDimension
1001
ACAD
1000
DSTYLE
1002
{
1070
   270
1070
     2
1070
     6
1000
EX_BNORM
1070
     7
1000
EX_BNORM
1070
    41
1040
30.0
1070
    42
1040
15.0
1070
    44
1040
15.0
1070
    73
1070
     0
1070
    74
1070
     0
1070
    75
1070
     0
1070
    76
1070
     0
1070
    77
1070
     1
1070
    78
1070
     8
1070
   140
1040
31.181104
1070
   147
1040
0.0
1070
   173
1070
     1
1070
   176
1070
     4
1070
   177
1070
     4
1070
   178
1070
     7
1070
   271
1070
     1
1070
   277
1070
     2
1070
   279
1070
     2
1070
   280
1070
     0
1070
   287
1070
     5
1070
   340
1005
360
1002
}
  0
DIMENSION
  5
37C
330
1F
100
AcDbEntity
  8
LAY-20
  6
CONTINUOUS
 62
     4
100
AcDbDimension
  2
*D17
 10
1689.0
 20
601.90271108913
 30
0.0
 11
1289.0
 21
626.90271108913
 31
0.0
 70
   160
  1
%%c<>
  3
ISO-25
100
AcDbAlignedDimension
 13
889.0
 23
701.9027110891298
 33
0.0
 14
1689.0
 24
701.9027110891298
 34
0.0
100
AcDbRotatedDimension
1001
ACAD
1000
DSTYLE
1002
{
1070
   270
1070
     2
1070
     6
1000
EX_BNORM
1070
     7
1000
EX_BNORM
1070
    41
1040
30.0
1070
    42
1040
15.0
1070
    44
1040
15.0
1070
    73
1070
     0
1070
    74
1070
     0
1070
    75
1070
     0
1070
    76
1070
     0
1070
    77
1070
     1
1070
    78
1070
     8
1070
   140
1040
31.181104
1070
   147
1040
0.0
1070
   173
1070
     1
1070
   176
1070
     4
1070
   177
1070
     4
1070
   178
1070
     7
1070
   271
1070
     1
1070
   277
1070
     2
1070
   279
1070
     2
1070
   280
1070
     0
1070
   287
1070
     5
1070
   340
1005
360
1002
}
  0
DIMENSION
  5
389
330
1F
100
AcDbEntity
  8
LAY-20
  6
CONTINUOUS
 62
     4
100
AcDbDimension
  2
*D18
 10
1759.0
 20
531.90271108913
 30
0.0
 11
1289.0
 21
556.90271108913
 31
0.0
 70
   160
  1
□<>
  3
ISO-25
100
AcDbAlignedDimension
 13
819.0
 23
701.9027110891298
 33
0.0
 14
1759.0
 24
531.90271108913
 34
0.0
100
AcDbRotatedDimension
1001
ACAD
1000
DSTYLE
1002
{
1070
   270
1070
     2
1070
     6
1000
EX_BNORM
1070
     7
1000
EX_NONE
1070
    41
1040
30.0
1070
    42
1040
15.0
1070
    44
1040
15.0
1070
    73
1070
     0
1070
    74
1070
     0
1070
    75
1070
     0
1070
    76
1070
     1
1070
    77
1070
     1
1070
    78
1070
     8
1070
   140
1040
31.181104
1070
   147
1040
0.0
1070
   173
1070
     1
1070
   176
1070
     4
1070
   177
1070
     4
1070
   178
1070
     7
1070
   271
1070
     1
1070
   277
1070
     2
1070
   279
1070
     2
1070
   280
1070
     0
1070
   287
1070
     5
1070
   340
1005
360
1002
}
  0
DIMENSION
  5
395
330
1F
100
AcDbEntity
  8
LAY-20
  6
CONTINUOUS
 62
     4
100
AcDbDimension
  2
*D19
 10
2006.5
 20
701.9027110891298
 30
0.0
 11
1981.5
 21
741.902711089125
 31
0.0
 70
   160
  3
ISO-25
100
AcDbAlignedDimension
 13
1785.4518444143
 23
781.90271108912
 33
0.0
 14
1906.5
 24
701.9027110891298
 34
0.0
 50
90.0
100
AcDbRotatedDimension
1001
ACAD
1000
DSTYLE
1002
{
1070
   270
1070
     2
1070
     6
1000
EX_BNORM
1070
     7
1000
EX_BNORM
1070
    41
1040
30.0
1070
    42
1040
15.0
1070
    44
1040
15.0
1070
    73
1070
     0
1070
    74
1070
     0
1070
    75
1070
     0
1070
    76
1070
     0
1070
    77
1070
     1
1070
    78
1070
     8
1070
   140
1040
31.181104
1070
   147
1040
0.0
1070
   173
1070
     1
1070
   176
1070
     4
1070
   177
1070
     4
1070
   178
1070
     7
1070
   271
1070
     1
1070
   277
1070
     2
1070
   279
1070
     2
1070
   280
1070
     0
1070
   287
1070
     5
1070
   340
1005
360
1002
}
  0
LINE
  5
3A2
330
1F
100
AcDbEntity
  8
LAY-20
  6
CENTER
 62
     2
100
AcDbLine
 10
923.5000000000014
 20
750.3027110891287
 30
0.0
 11
923.5000000000011
 21
762.5447085505099
 31
0.0
  0
LINE
  5
3A3
330
1F
100
AcDbEntity
  8
LAY-20
  6
CENTER
 62
     2
100
AcDbLine
 10
889.5
 20
749.9027110891218
 30
0.0
 11
989.2000000000003
 21
749.9027110891218
 31
0.0
  0
LINE
  5
3A4
330
1F
100
AcDbEntity
  8
LAY-20
  6
CENTER
 62
     2
100
AcDbLine
 10
955.0000000000014
 20
760.9027110891304
 30
0.0
 11
955.0000000000014
 21
786.4624087506602
 31
0.0
  0
LINE
  5
3A5
330
1F
100
AcDbEntity
  8
LAY-20
  6
CENTER
 62
     2
100
AcDbLine
 10
970.5000000000001
 20
750.3027110891287
 30
0.0
 11
970.5000000000001
 21
786.7329622570471
 31
0.0
  0
CIRCLE
  5
3A6
330
1F
100
AcDbEntity
  8
LAY-20
  6
CONTINUOUS
 62
     7
100
AcDbCircle
 10
937.25
 20
767.65271108913
 30
0.0
 40
1.75
  0
ARC
  5
3A7
330
1F
100
AcDbEntity
  8
LAY-20
  6
CONTINUOUS
 62
     7
100
AcDbCircle
 10
938.0000000000001
 20
766.9027110891273
 30
0.0
 40
1.0
100
AcDbArc
 50
270.0000000000002
 51
0.0
  0
LINE
  5
3A8
330
1F
100
AcDbEntity
  8
LAY-20
  6
CONTINUOUS
 62
     7
100
AcDbLine
 10
935.5000000000064
 20
765.9027110891262
 30
0.0
 11
938.0000000000009
 21
768.4027110891209
 31
0.0
  0
LINE
  5
3A9
330
1F
100
AcDbEntity
  8
LAY-20
  6
CONTINUOUS
 62
     7
100
AcDbLine
 10
943.9999999999941
 20
767.4800613583168
 30
0.0
 11
943.9999999999941
 21
765.9027110891273
 31
0.0
  0
LINE
  5
3AA
330
1F
100
AcDbEntity
  8
LAY-20
  6
CONTINUOUS
 62
     7
100
AcDbLine
 10
944.9999999999941
 20
773.9027110891273
 30
0.0
 11
944.9999999999941
 21
766.9027110891273
 31
0.0
  0
CIRCLE
  5
3AB
330
1F
100
AcDbEntity
  8
LAY-20
  6
CONTINUOUS
 62
     7
100
AcDbCircle
 10
944.7999999999902
 20
775.702711089127
 30
0.0
 40
1.199999999999989
  0
LINE
  5
3AC
330
1F
100
AcDbEntity
  8
LAY-20
  6
CONTINUOUS
 62
     7
100
AcDbLine
 10
943.9999999999941
 20
775.4112599544894
 30
0.0
 11
943.9999999999941
 21
773.9027110891273
 31
0.0
  0
LINE
  5
3AD
330
1F
100
AcDbEntity
  8
LAY-20
  6
CONTINUOUS
 62
     7
100
AcDbLine
 10
944.9999999999941
 20
774.6439329665102
 30
0.0
 11
944.9999999999941
 21
773.9027110891273
 31
0.0
  0
LINE
  5
3AE
330
1F
100
AcDbEntity
  8
LAY-20
  6
CONTINUOUS
 62
     7
100
AcDbLine
 10
945.9999999999941
 20
776.9027110891273
 30
0.0
 11
945.9999999999941
 21
773.9027110891273
 31
0.0
  0
LINE
  5
3AF
330
1F
100
AcDbEntity
  8
LAY-20
  6
CONTINUOUS
 62
     7
100
AcDbLine
 10
942.0000000000027
 20
776.9459139304406
 30
0.0
 11
945.0
 21
774.6439329665061
 31
0.0
  0
CIRCLE
  5
3B0
330
1F
100
AcDbEntity
  8
LAY-20
  6
CONTINUOUS
 62
     7
100
AcDbCircle
 10
965.2000000000004
 20
775.702711089127
 30
0.0
 40
1.199999999999989
  0
LINE
  5
3B1
330
1F
100
AcDbEntity
  8
LAY-20
  6
CONTINUOUS
 62
     7
100
AcDbLine
 10
964.9999999999941
 20
774.6439329665016
 30
0.0
 11
964.9999999999941
 21
773.9027110891273
 31
0.0
  0
LINE
  5
3B2
330
1F
100
AcDbEntity
  8
LAY-20
  6
CONTINUOUS
 62
     7
100
AcDbLine
 10
965.9999999999941
 20
775.4112599544803
 30
0.0
 11
965.9999999999941
 21
773.9027110891273
 31
0.0
  0
LINE
  5
3B3
330
1F
100
AcDbEntity
  8
LAY-20
  6
CONTINUOUS
 62
     7
100
AcDbLine
 10
963.9999999999941
 20
776.9027110891273
 30
0.0
 11
963.9999999999941
 21
773.9027110891273
 31
0.0
  0
LINE
  5
3B4
330
1F
100
AcDbEntity
  8
LAY-20
  6
CONTINUOUS
 62
     7
100
AcDbLine
 10
964.9999999999941
 20
773.9027110891273
 30
0.0
 11
964.9999999999941
 21
766.9027110891273
 31
0.0
  0
LINE
  5
3B5
330
1F
100
AcDbEntity
  8
LAY-20
  6
CONTINUOUS
 62
     7
100
AcDbLine
 10
965.9999999999941
 20
767.4800613583162
 30
0.0
 11
965.9999999999941
 21
765.9027110891273
 31
0.0
  0
CIRCLE
  5
3B6
330
1F
100
AcDbEntity
  8
LAY-20
  6
CONTINUOUS
 62
     7
100
AcDbCircle
 10
972.7500000000027
 20
767.65271108913
 30
0.0
 40
1.75
  0
ARC
  5
3B7
330
1F
100
AcDbEntity
  8
LAY-20
  6
CONTINUOUS
 62
     7
100
AcDbCircle
 10
972.0
 20
766.9027110891268
 30
0.0
 40
1.0
100
AcDbArc
 50
180.0
 51
270.0000000000002
  0
LINE
  5
3B8
330
1F
100
AcDbEntity
  8
LAY-20
  6
CONTINUOUS
 62
     7
100
AcDbLine
 10
974.4999999999959
 20
765.9027110891262
 30
0.0
 11
972.0000000000014
 21
768.4027110891209
 31
0.0
  0
LINE
  5
3B9
330
1F
100
AcDbEntity
  8
LAY-255
  6
CONTINUOUS
 62
     7
100
AcDbLine
 10
50.0
 20
100.0
 30
0.0
 11
3850.0
 21
100.0
 31
0.0
  0
LINE
  5
3BA
330
1F
100
AcDbEntity
  8
LAY-255
  6
CONTINUOUS
 62
     7
100
AcDbLine
 10
50.0
 20
2800.0
 30
0.0
 11
3850.0
 21
2800.0
 31
0.0
  0
LINE
  5
3BB
330
1F
100
AcDbEntity
  8
LAY-255
  6
CONTINUOUS
 62
     7
100
AcDbLine
 10
50.0
 20
100.0
 30
0.0
 11
50.0
 21
2800.0
 31
0.0
  0
LINE
  5
3BC
330
1F
100
AcDbEntity
  8
LAY-255
  6
CONTINUOUS
 62
     7
100
AcDbLine
 10
3850.0
 20
100.0
 30
0.0
 11
3850.0
 21
2800.0
 31
0.0
  0
LINE
  5
3BD
330
1F
100
AcDbEntity
  8
LAY-255
  6
CONTINUOUS
 62
     7
100
AcDbLine
 10
3850.0
 20
219.9999999999999
 30
0.0
 11
2850.0
 21
219.9999999999999
 31
0.0
  0
LINE
  5
3BE
330
1F
100
AcDbEntity
  8
LAY-255
  6
CONTINUOUS
 62
     7
100
AcDbLine
 10
2888.0
 20
160.0
 30
0.0
 11
2968.0
 21
210.0
 31
0.0
  0
LINE
  5
3BF
330
1F
100
AcDbEntity
  8
LAY-255
  6
CONTINUOUS
 62
     7
100
AcDbLine
 10
2968.0
 20
210.0
 30
0.0
 11
3048.0
 21
160.0
 31
0.0
  0
LINE
  5
3C0
330
1F
100
AcDbEntity
  8
LAY-255
  6
CONTINUOUS
 62
     7
100
AcDbLine
 10
3048.0
 20
160.0
 30
0.0
 11
2968.0
 21
110.0
 31
0.0
  0
LINE
  5
3C1
330
1F
100
AcDbEntity
  8
LAY-255
  6
CONTINUOUS
 62
     7
100
AcDbLine
 10
2968.0
 20
110.0
 30
0.0
 11
2888.0
 21
160.0
 31
0.0
  0
LINE
  5
3C2
330
1F
100
AcDbEntity
  8
LAY-255
  6
CONTINUOUS
 62
     4
100
AcDbLine
 10
2850.0
 20
279.9999999999999
 30
0.0
 11
3850.0
 21
279.9999999999999
 31
0.0
  0
LINE
  5
3C3
330
1F
100
AcDbEntity
  8
LAY-255
  6
CONTINUOUS
 62
     4
100
AcDbLine
 10
3350.0
 20
279.9999999999999
 30
0.0
 11
3350.0
 21
220.0
 31
0.0
  0
POINT
  5
3C4
330
1F
100
AcDbEntity
  8
LAY-255
  6
CONTINUOUS
 62
     7
100
AcDbPoint
 10
2890.0
 20
299.9999999999998
 30
0.0
  0
LINE
  5
3C5
330
1F
100
AcDbEntity
  8
LAY-255
  6
CONTINUOUS
 62
     7
100
AcDbLine
 10
2850.0
 20
100.0
 30
0.0
 11
2850.0
 21
720.0
 31
0.0
  0
LINE
  5
3C6
330
1F
100
AcDbEntity
  8
LAY-255
  6
CONTINUOUS
 62
     7
100
AcDbLine
 10
3850.0
 20
720.0
 30
0.0
 11
2850.0
 21
720.0
 31
0.0
  0
LINE
  5
3C7
330
1F
100
AcDbEntity
  8
LAY-255
  6
CONTINUOUS
 62
     4
100
AcDbLine
 10
3830.0
 20
599.9999999999999
 30
0.0
 11
2870.0
 21
599.9999999999999
 31
0.0
  0
LINE
  5
3C8
330
1F
100
AcDbEntity
  8
LAY-255
  6
CONTINUOUS
 62
     4
100
AcDbLine
 10
3830.0
 20
660.0
 30
0.0
 11
2870.0
 21
660.0
 31
0.0
  0
POINT
  5
3C9
330
1F
100
AcDbEntity
  8
LAY-255
  6
CONTINUOUS
 62
     7
100
AcDbPoint
 10
2890.0
 20
549.9999999999999
 30
0.0
  0
POINT
  5
3CA
330
1F
100
AcDbEntity
  8
LAY-255
  6
CONTINUOUS
 62
     7
100
AcDbPoint
 10
3000.0
 20
609.9999999999999
 30
0.0
  0
POINT
  5
3CB
330
1F
100
AcDbEntity
  8
LAY-255
  6
CONTINUOUS
 62
     7
100
AcDbPoint
 10
3000.0
 20
670.0
 30
0.0
  0
POINT
  5
3CC
330
1F
100
AcDbEntity
  8
LAY-255
  6
CONTINUOUS
 62
     7
100
AcDbPoint
 10
2890.0
 20
449.9999999999999
 30
0.0
  0
POINT
  5
3CD
330
1F
100
AcDbEntity
  8
LAY-255
  6
CONTINUOUS
 62
     7
100
AcDbPoint
 10
2890.0
 20
499.9999999999999
 30
0.0
  0
POINT
  5
3CE
330
1F
100
AcDbEntity
  8
LAY-255
  6
CONTINUOUS
 62
     7
100
AcDbPoint
 10
2890.0
 20
399.9999999999996
 30
0.0
  0
POINT
  5
3CF
330
1F
100
AcDbEntity
  8
LAY-255
  6
CONTINUOUS
 62
     7
100
AcDbPoint
 10
2890.0
 20
349.9999999999996
 30
0.0
  0
TEXT
  5
3D0
330
1F
100
AcDbEntity
  8
LAY-255
  6
CONTINUOUS
 62
     7
100
AcDbText
 10
3081.3837890625
 20
155.4375
 30
0.0
 40
51.5625
  1
福西鋳物株式会社
 41
1.342691999659091
  7
EXCADSTD
100
AcDbText
  0
TEXT
  5
3D1
330
1F
100
AcDbEntity
  8
LAY-255
  6
CONTINUOUS
 62
     7
100
AcDbText
 10
3085.09375
 20
119.8125
 30
0.0
 40
17.1875
  1
ＦＵＫＵＮＩＳＨＩ
 41
1.204799226045263
  7
EXCADSTD
100
AcDbText
  0
TEXT
  5
3D2
330
1F
100
AcDbEntity
  8
LAY-255
  6
CONTINUOUS
 62
     7
100
AcDbText
 10
3327.191964285714
 20
119.8125
 30
0.0
 40
17.1875
  1
ＦＯＵＮＤＲＹ
 41
1.243252752978497
  7
EXCADSTD
100
AcDbText
  0
TEXT
  5
3D3
330
1F
100
AcDbEntity
  8
LAY-255
  6
CONTINUOUS
 62
     7
100
AcDbText
 10
3519.945914381009
 20
119.8125
 30
0.0
 40
17.1875
  1
ＣＯ.,ＬＴＤ.
 41
1.243831036226633
  7
EXCADSTD
100
AcDbText
  0
TEXT
  5
3D4
330
1F
100
AcDbEntity
  8
LAY-255
  6
CONTINUOUS
 62
     7
100
AcDbText
 10
2940.34375
 20
137.1875
 30
0.0
 40
51.5625
  1
S
 41
0.7582677563636363
  7
EXCADSTD
100
AcDbText
  0
TEXT
  5
3D5
330
1F
100
AcDbEntity
  8
LAY-255
  6
CONTINUOUS
 62
     7
100
AcDbText
 10
2971.046875
 20
137.4941037736
 30
0.0
 40
51.5625
  1
F
 41
0.7440945272727272
  7
EXCADSTD
100
AcDbText
  0
TEXT
  5
3D6
330
1F
100
AcDbEntity
  8
LAY-255
  6
CONTINUOUS
 62
     7
100
AcDbText
 10
3371.0546875
 20
244.2187499999999
 30
0.0
 40
25.78125
  1
縮尺
 41
1.080708718181818
  7
EXCADSTD
100
AcDbText
  0
TEXT
  5
3D7
330
1F
100
AcDbEntity
  8
LAY-255
  6
CONTINUOUS
 62
     7
100
AcDbText
 10
2871.5234375
 20
244.2187499999999
 30
0.0
 40
25.78125
  1
作成日
 41
1.000629973818182
  7
EXCADSTD
100
AcDbText
  0
TEXT
  5
3D8
330
1F
100
AcDbEntity
  8
LAY-255
  6
CONTINUOUS
 62
     7
100
AcDbText
 10
2872.65625
 20
615.6249999999999
 30
0.0
 40
34.375
  1
型式
 41
1.056348480681818
  7
EXCADSTD
100
AcDbText
  0
TEXT
  5
3D9
330
1F
100
AcDbEntity
  8
LAY-255
  6
CONTINUOUS
 62
     7
100
AcDbText
 10
2874.21875
 20
675.625
 30
0.0
 40
34.375
  1
品名
 41
0.9788386340909091
  7
EXCADSTD
100
AcDbText
  0
TEXT
  5
3DA
330
1F
100
AcDbEntity
  8
LAY-255
  6
CONTINUOUS
 62
     7
100
AcDbText
 10
2891.40625
 20
455.6249999999999
 30
0.0
 40
34.375
  1
機能：施錠装置付
 41
1.024521988571429
  7
EXCADSTD
100
AcDbText
  0
TEXT
  5
3DB
330
1F
100
AcDbEntity
  8
LAY-255
  6
CONTINUOUS
 62
     7
100
AcDbText
 10
3003.90625
 20
675.625
 30
0.0
 40
34.375
  1
マンホールカバー
 41
1.015410627012987
  7
EXCADSTD
100
AcDbText
  0
TEXT
  5
3DC
330
1F
100
AcDbEntity
  8
LAY-255
  6
CONTINUOUS
 62
     7
100
AcDbText
 10
2891.40625
 20
505.6249999999999
 30
0.0
 40
34.375
  1
構造：回転ロック方式
 41
1.019908786570248
  7
EXCADSTD
100
AcDbText
  0
TEXT
  5
3DD
330
1F
100
AcDbEntity
  8
LAY-255
  6
CONTINUOUS
 62
     7
100
AcDbText
 10
2893.75
 20
405.6249999999997
 30
0.0
 40
34.375
  1
防水：防水防臭型
 41
1.01490444025974
  7
EXCADSTD
100
AcDbText
  0
TEXT
  5
3DE
330
1F
100
AcDbEntity
  8
LAY-255
  6
CONTINUOUS
 62
     7
100
AcDbText
 10
2893.75
 20
355.6249999999997
 30
0.0
 40
34.375
  1
受枠：水抜穴付
 41
1.018265188375559
  7
EXCADSTD
100
AcDbText
  0
TEXT
  5
3DF
330
1F
100
AcDbEntity
  8
LAY-255
  6
CONTINUOUS
 62
     7
100
AcDbText
 10
3482.8125
 20
235.6249999999999
 30
0.0
 40
34.375
  1
１：１０
 41
0.9243863385026738
  7
EXCADSTD
100
AcDbText
  0
TEXT
  5
3E0
330
1F
100
AcDbEntity
  8
LAY-255
  6
CONTINUOUS
 62
     7
100
AcDbText
 10
3007.5
 20
615.6249999999999
 30
0.0
 40
34.375
  1
ＳＦ－８０ＬＫＢ型
 41
1.00333903406214
  7
EXCADSTD
100
AcDbText
  0
TEXT
  5
3E1
330
1F
100
AcDbEntity
  8
LAY-255
  6
CONTINUOUS
 62
     7
100
AcDbText
 10
2894.53125
 20
555.625
 30
0.0
 40
34.375
  1
区分：中荷重用
 41
1.007228657526081
  7
EXCADSTD
100
AcDbText
  0
TEXT
  5
3E2
330
1F
100
AcDbEntity
  8
LAY-255
  6
CONTINUOUS
 62
     7
100
AcDbText
 10
3012.8125
 20
235.6249999999999
 30
0.0
 40
34.375
  1
１３／０９／１０
 41
0.9673228854545455
  7
EXCADSTD
100
AcDbText
  0
TEXT
  5
3E3
330
1F
100
AcDbEntity
  8
LAY-255
  6
CONTINUOUS
 62
     7
100
AcDbText
 10
2891.71875
 20
305.6249999999999
 30
0.0
 40
34.375
  1
破壊荷重：６０ｋＮ以上
 41
1.016600426804124
  7
EXCADSTD
100
AcDbText
  0
ENDSEC
  0
SECTION
  2
OBJECTS
  0
DICTIONARY
  5
C
330
0
100
AcDbDictionary
  3
ACAD_GROUP
350
D
  3
ACAD_LAYOUT
350
1A
  3
ACAD_MATERIAL
350
43
  3
ACAD_MLEADERSTYLE
350
6B
  3
ACAD_MLINESTYLE
350
17
  3
ACAD_PLOTSETTINGS
350
19
  3
ACAD_SCALELIST
350
47
  3
ACAD_VISUALSTYLE
350
2A
  3
ACDBHEADERROUNDTRIPXREC
350
3E4
  3
ACDBVARIABLEDICTIONARY
350
405
  0
DICTIONARY
  5
410
330
8
100
AcDbDictionary
280
     1
  3
ACAD_XREC_ROUNDTRIP
360
411
  0
DICTIONARY
  5
D
102
{ACAD_REACTORS
330
C
102
}
330
C
100
AcDbDictionary
  0
DICTIONARY
  5
1A
102
{ACAD_REACTORS
330
C
102
}
330
C
100
AcDbDictionary
  0
DICTIONARY
  5
43
102
{ACAD_REACTORS
330
C
102
}
330
C
100
AcDbDictionary
  3
BYBLOCK
350
45
  3
BYLAYER
350
44
  3
GLOBAL
350
46
  0
DICTIONARY
  5
6B
102
{ACAD_REACTORS
330
C
102
}
330
C
100
AcDbDictionary
  3
STANDARD
350
6C
  0
DICTIONARY
  5
17
102
{ACAD_REACTORS
330
C
102
}
330
C
100
AcDbDictionary
  3
STANDARD
350
18
  0
DICTIONARY
  5
19
102
{ACAD_REACTORS
330
C
102
}
330
C
100
AcDbDictionary
  0
DICTIONARY
  5
47
102
{ACAD_REACTORS
330
C
102
}
330
C
100
AcDbDictionary
  3
A0
350
48
  3
A1
350
49
  3
A2
350
4A
  3
A3
350
4B
  3
A4
350
4C
  3
A5
350
4D
  3
A6
350
4E
  3
A7
350
4F
  3
A8
350
50
  3
A9
350
51
  3
B0
350
52
  3
B1
350
53
  3
B2
350
54
  3
B3
350
55
  3
B4
350
56
  3
B5
350
57
  3
B6
350
58
  3
B7
350
59
  3
B8
350
5A
  3
B9
350
5B
  3
C0
350
5C
  3
C1
350
5D
  3
C2
350
5E
  3
C3
350
5F
  3
C4
350
60
  3
C5
350
61
  3
C6
350
62
  3
C7
350
63
  3
C8
350
64
  3
C9
350
65
  3
D0
350
66
  3
D1
350
67
  3
D2
350
68
  0
DICTIONARY
  5
2A
102
{ACAD_REACTORS
330
C
102
}
330
C
100
AcDbDictionary
  3
2DWIREFRAME
350
2F
  3
BASIC
350
32
  3
BRIGHTEN
350
36
  3
COLORCHANGE
350
3A
  3
CONCEPTUAL
350
34
  3
DIM
350
35
  3
EDGECOLOROFF
350
3D
  3
FACEPATTERN
350
39
  3
FLAT
350
2B
  3
FLATWITHEDGES
350
2C
  3
GOURAUD
350
2D
  3
GOURAUDWITHEDGES
350
2E
  3
HIDDEN
350
31
  3
JITTEROFF
350
3B
  3
LINEPATTERN
350
38
  3
OVERHANGOFF
350
3C
  3
REALISTIC
350
33
  3
SHADED
350
42
  3
SHADED_WITH_EDGES
350
41
  3
SHADES_OF_GRAY
350
3E
  3
SKETCHY
350
3F
  3
THICKEN
350
37
  3
WIREFRAME
350
30
  3
X-RAY
350
40
  0
DICTIONARY
  5
3E4
102
{ACAD_REACTORS
330
C
102
}
330
C
100
AcDbDictionary
  3
CEPSNID
350
3EE
  3
CEPSNTYPE
350
3ED
  3
DIMSTYLEDATA
350
404
  3
FINGERPRINTGUID
350
3EF
  3
HYPERLINKBASE
350
3E7
  3
INSUNITS
350
3EC
  3
LAYOUTDICT
350
3E9
  3
LWETCUNION
350
3EB
  3
PLOTSETDICT
350
3EA
  3
PSVPSCALE
350
3F1
  3
PUCSBASE
350
3F4
  3
PUCSORGBACK
350
3FA
  3
PUCSORGBOTTOM
350
3F6
  3
PUCSORGFRONT
350
3F9
  3
PUCSORGLEFT
350
3F7
  3
PUCSORGRIGHT
350
3F8
  3
PUCSORGTOP
350
3F5
  3
PUCSORTHOREF
350
3F2
  3
PUCSORTHOVIEW
350
3F3
  3
STYLESHEET
350
3E8
  3
TSTACKALIGN
350
3E5
  3
TSTACKSIZE
350
3E6
  3
UCSBASE
350
3FD
  3
UCSORGBACK
350
403
  3
UCSORGBOTTOM
350
3FF
  3
UCSORGFRONT
350
402
  3
UCSORGLEFT
350
400
  3
UCSORGRIGHT
350
401
  3
UCSORGTOP
350
3FE
  3
UCSORTHOREF
350
3FB
  3
UCSORTHOVIEW
350
3FC
  3
VERSIONGUID
350
3F0
  0
DICTIONARY
  5
405
102
{ACAD_REACTORS
330
C
102
}
330
C
100
AcDbDictionary
  3
CANNOSCALE
350
412
  3
CENTEREXE
350
40C
  3
CENTERLTYPEFILE
350
40D
  3
CMLEADERSTYLE
350
407
  3
CTABLESTYLE
350
406
  3
DIMASSOC
350
40E
  3
HIDETEXT
350
40F
  3
MSLTSCALE
350
413
  3
PSOLHEIGHT
350
409
  3
PSOLWIDTH
350
408
  0
XRECORD
  5
411
102
{ACAD_REACTORS
330
410
102
}
330
410
100
AcDbXrecord
102
VTR_0.000_0.000_1.000_1.000_VISUALSTYLE
340
2F
102
VTR_0.000_0.000_1.000_1.000_GRIDDISPLAY
 70
     3
102
VTR_0.000_0.000_1.000_1.000_GRIDMAJOR
 70
     5
102
VTR_0.000_0.000_1.000_1.000_DEFAULTLIGHTING
280
     1
102
VTR_0.000_0.000_1.000_1.000_DEFAULTLIGHTINGTYPE
 70
     1
102
VTR_0.000_0.000_1.000_1.000_BRIGHTNESS
141
0.0
102
VTR_0.000_0.000_1.000_1.000_CONTRAST
142
0.0
  0
MATERIAL
  5
45
102
{ACAD_REACTORS
330
43
102
}
102
{ACAD_XDICTIONARY
360
416
102
}
330
43
100
AcDbMaterial
  1
BYBLOCK
  0
MATERIAL
  5
44
102
{ACAD_REACTORS
330
43
102
}
102
{ACAD_XDICTIONARY
360
414
102
}
330
43
100
AcDbMaterial
  1
BYLAYER
  0
MATERIAL
  5
46
102
{ACAD_REACTORS
330
43
102
}
102
{ACAD_XDICTIONARY
360
418
102
}
330
43
100
AcDbMaterial
  1
GLOBAL
  0
ACAD_PROXY_OBJECT
  5
6C
102
{ACAD_REACTORS
330
6B
102
}
330
6B
100
AcDbProxyObject
 90
      499
 91
      505
 93
      610
310
40901902A4063FBFFFFFE0000000000000020400000000000020404214DD185B99185C990000000000000104090141901A00000000000004100000000000000041025764000000000000039000
340
14
340
0
340
11
340
0
 94
        0
1001
ACAD_MLEADERVER
1070
     2
  0
MLINESTYLE
  5
18
102
{ACAD_REACTORS
330
17
102
}
330
17
100
AcDbMlineStyle
  2
Standard
 70
     0
  3

 62
   256
 51
90.0
 52
90.0
 71
     2
 49
0.5
 62
   256
  6
BYLAYER
 49
-0.5
 62
   256
  6
BYLAYER
  0
ACAD_PROXY_OBJECT
  5
48
102
{ACAD_REACTORS
330
47
102
}
330
47
100
AcDbProxyObject
 90
      499
 91
      503
 93
       41
310
903313A31580
  0
ACAD_PROXY_OBJECT
  5
49
102
{ACAD_REACTORS
330
47
102
}
330
47
100
AcDbProxyObject
 90
      499
 91
      503
 93
      105
310
903313A324000000000000004000
  0
ACAD_PROXY_OBJECT
  5
4A
102
{ACAD_REACTORS
330
47
102
}
330
47
100
AcDbProxyObject
 90
      499
 91
      503
 93
      105
310
903313A344000000000000104000
  0
ACAD_PROXY_OBJECT
  5
4B
102
{ACAD_REACTORS
330
47
102
}
330
47
100
AcDbProxyObject
 90
      499
 91
      503
 93
      105
310
903313A354000000000000144000
  0
ACAD_PROXY_OBJECT
  5
4C
102
{ACAD_REACTORS
330
47
102
}
330
47
100
AcDbProxyObject
 90
      499
 91
      503
 93
      105
310
903313A384000000000000204000
  0
ACAD_PROXY_OBJECT
  5
4D
102
{ACAD_REACTORS
330
47
102
}
330
47
100
AcDbProxyObject
 90
      499
 91
      503
 93
      113
310
904313A31304000000000000244000
  0
ACAD_PROXY_OBJECT
  5
4E
102
{ACAD_REACTORS
330
47
102
}
330
47
100
AcDbProxyObject
 90
      499
 91
      503
 93
      113
310
904313A31364000000000000304000
  0
ACAD_PROXY_OBJECT
  5
4F
102
{ACAD_REACTORS
330
47
102
}
330
47
100
AcDbProxyObject
 90
      499
 91
      503
 93
      113
310
904313A32304000000000000344000
  0
ACAD_PROXY_OBJECT
  5
50
102
{ACAD_REACTORS
330
47
102
}
330
47
100
AcDbProxyObject
 90
      499
 91
      503
 93
      113
310
904313A333040000000000003E4000
  0
ACAD_PROXY_OBJECT
  5
51
102
{ACAD_REACTORS
330
47
102
}
330
47
100
AcDbProxyObject
 90
      499
 91
      503
 93
      113
310
904313A34304000000000000444000
  0
ACAD_PROXY_OBJECT
  5
52
102
{ACAD_REACTORS
330
47
102
}
330
47
100
AcDbProxyObject
 90
      499
 91
      503
 93
      113
310
904313A35304000000000000494000
  0
ACAD_PROXY_OBJECT
  5
53
102
{ACAD_REACTORS
330
47
102
}
330
47
100
AcDbProxyObject
 90
      499
 91
      503
 93
      121
310
905313A3130304000000000000594000
  0
ACAD_PROXY_OBJECT
  5
54
102
{ACAD_REACTORS
330
47
102
}
330
47
100
AcDbProxyObject
 90
      499
 91
      503
 93
      105
310
903323A310000000000000010100
  0
ACAD_PROXY_OBJECT
  5
55
102
{ACAD_REACTORS
330
47
102
}
330
47
100
AcDbProxyObject
 90
      499
 91
      503
 93
      105
310
903343A310000000000000410100
  0
ACAD_PROXY_OBJECT
  5
56
102
{ACAD_REACTORS
330
47
102
}
330
47
100
AcDbProxyObject
 90
      499
 91
      503
 93
      105
310
903383A310000000000000810100
  0
ACAD_PROXY_OBJECT
  5
57
102
{ACAD_REACTORS
330
47
102
}
330
47
100
AcDbProxyObject
 90
      499
 91
      503
 93
      113
310
90431303A310000000000000910100
  0
ACAD_PROXY_OBJECT
  5
58
102
{ACAD_REACTORS
330
47
102
}
330
47
100
AcDbProxyObject
 90
      499
 91
      503
 93
      121
310
9053130303A310000000000001650100
  0
ACAD_PROXY_OBJECT
  5
59
102
{ACAD_REACTORS
330
47
102
}
330
47
100
AcDbProxyObject
 90
      499
 91
      503
 93
      257
310
90E312F31323822203D2031272D3022000000000000200FC000000000000284000
  0
ACAD_PROXY_OBJECT
  5
5A
102
{ACAD_REACTORS
330
47
102
}
330
47
100
AcDbProxyObject
 90
      499
 91
      503
 93
      249
310
90D312F363422203D2031272D3022000000000000240FC000000000000284000
  0
ACAD_PROXY_OBJECT
  5
5B
102
{ACAD_REACTORS
330
47
102
}
330
47
100
AcDbProxyObject
 90
      499
 91
      503
 93
      249
310
90D312F333222203D2031272D3022000000000000280FC000000000000284000
  0
ACAD_PROXY_OBJECT
  5
5C
102
{ACAD_REACTORS
330
47
102
}
330
47
100
AcDbProxyObject
 90
      499
 91
      503
 93
      249
310
90D312F313622203D2031272D30220000000000002C0FC000000000000284000
  0
ACAD_PROXY_OBJECT
  5
5D
102
{ACAD_REACTORS
330
47
102
}
330
47
100
AcDbProxyObject
 90
      499
 91
      503
 93
      249
310
90D332F333222203D2031272D30220000000000002E0FC000000000000284000
  0
ACAD_PROXY_OBJECT
  5
5E
102
{ACAD_REACTORS
330
47
102
}
330
47
100
AcDbProxyObject
 90
      499
 91
      503
 93
      241
310
90C312F3822203D2031272D3022000000000000300FC000000000000284000
  0
ACAD_PROXY_OBJECT
  5
5F
102
{ACAD_REACTORS
330
47
102
}
330
47
100
AcDbProxyObject
 90
      499
 91
      503
 93
      249
310
90D332F313622203D2031272D3022000000000000320FC000000000000284000
  0
ACAD_PROXY_OBJECT
  5
60
102
{ACAD_REACTORS
330
47
102
}
330
47
100
AcDbProxyObject
 90
      499
 91
      503
 93
      241
310
90C312F3422203D2031272D3022000000000000340FC000000000000284000
  0
ACAD_PROXY_OBJECT
  5
61
102
{ACAD_REACTORS
330
47
102
}
330
47
100
AcDbProxyObject
 90
      499
 91
      503
 93
      241
310
90C332F3822203D2031272D3022000000000000360FC000000000000284000
  0
ACAD_PROXY_OBJECT
  5
62
102
{ACAD_REACTORS
330
47
102
}
330
47
100
AcDbProxyObject
 90
      499
 91
      503
 93
      241
310
90C312F3222203D2031272D3022000000000000380FC000000000000284000
  0
ACAD_PROXY_OBJECT
  5
63
102
{ACAD_REACTORS
330
47
102
}
330
47
100
AcDbProxyObject
 90
      499
 91
      503
 93
      241
310
90C332F3422203D2031272D30220000000000003A0FC000000000000284000
  0
ACAD_PROXY_OBJECT
  5
64
102
{ACAD_REACTORS
330
47
102
}
330
47
100
AcDbProxyObject
 90
      499
 91
      503
 93
      161
310
90A3122203D2031272D30224000000000000284000
  0
ACAD_PROXY_OBJECT
  5
65
102
{ACAD_REACTORS
330
47
102
}
330
47
100
AcDbProxyObject
 90
      499
 91
      503
 93
      257
310
90E312D312F3222203D2031272D30220000000000003E0FC000000000000284000
  0
ACAD_PROXY_OBJECT
  5
66
102
{ACAD_REACTORS
330
47
102
}
330
47
100
AcDbProxyObject
 90
      499
 91
      503
 93
      225
310
90A3322203D2031272D302200000000000002100000000000000284000
  0
ACAD_PROXY_OBJECT
  5
67
102
{ACAD_REACTORS
330
47
102
}
330
47
100
AcDbProxyObject
 90
      499
 91
      503
 93
      225
310
90A3622203D2031272D302200000000000006100000000000000284000
  0
ACAD_PROXY_OBJECT
  5
68
102
{ACAD_REACTORS
330
47
102
}
330
47
100
AcDbProxyObject
 90
      499
 91
      503
 93
      249
310
90D31272D3022203D2031272D30220000000000000A100000000000000284000
  0
ACAD_PROXY_OBJECT
  5
2F
102
{ACAD_REACTORS
330
2A
102
}
330
2A
100
AcDbProxyObject
 90
      499
 91
      501
 93
      436
310
42CC9915DA5C99599C985B595049028333333333333E33F0000000000000F90107901411070040501600405405064090741402480A0340
1001
ACAD
1000
AcDbSavedByObjectVersion
1070
     0
  0
ACAD_PROXY_OBJECT
  5
32
102
{ACAD_REACTORS
330
2A
102
}
330
2A
100
AcDbProxyObject
 90
      499
 91
      501
 93
      388
310
4150985CDA58D07406404333333333333E33F0000000000000F90107A41107004050150841D405064090741402480A0350
1001
ACAD
1000
AcDbSavedByObjectVersion
1070
     0
  0
ACAD_PROXY_OBJECT
  5
36
102
{ACAD_REACTORS
330
2A
102
}
330
2A
100
AcDbProxyObject
 90
      499
 91
      501
 93
      428
310
42109C9A59DA1D195B90C409028333333333333E33F0000000000000F9010790141107004050150841D405064090741402480A029950
1001
ACAD
1000
AcDbSavedByObjectVersion
1070
     0
  0
ACAD_PROXY_OBJECT
  5
3A
102
{ACAD_REACTORS
330
2A
102
}
330
2A
100
AcDbProxyObject
 90
      499
 91
      501
 93
      452
310
42D0DBDB1BDC90DA185B99D95104090240C333333333333E33F0000000000000F90108901411070040501508421405064090741402480A0350
1001
ACAD
1000
AcDbSavedByObjectVersion
1070
     0
  0
ACAD_PROXY_OBJECT
  5
34
102
{ACAD_REACTORS
330
2A
102
}
330
2A
100
AcDbProxyObject
 90
      499
 91
      501
 93
      500
310
4290DBDB98D95C1D1D585B10940D028333333333333E33F0000000000000F90107902409070040501000000000018199010841D405064090740C02480A0340
1001
ACAD
1000
AcDbSavedByObjectVersion
1070
     0
  0
ACAD_PROXY_OBJECT
  5
35
102
{ACAD_REACTORS
330
2A
102
}
330
2A
100
AcDbProxyObject
 90
      499
 91
      501
 93
      412
310
40D11A5B50B409028333333333333E33F0000000000000F9010790141107004050150841D405064090741402480A02677FFFFFD0
1001
ACAD
1000
AcDbSavedByObjectVersion
1070
     0
  0
ACAD_PROXY_OBJECT
  5
3D
102
{ACAD_REACTORS
330
2A
102
}
330
2A
100
AcDbProxyObject
 90
      499
 91
      501
 93
      452
310
43115919D950DBDB1BDC93D999916409028333333333333E33F0000000000000F9010790141107004050150841D405064090741402480A0350
1001
ACAD
1000
AcDbSavedByObjectVersion
1070
     0
  0
ACAD_PROXY_OBJECT
  5
39
102
{ACAD_REACTORS
330
2A
102
}
330
2A
100
AcDbProxyObject
 90
      499
 91
      501
 93
      444
310
42D19858D95C185D1D195C9B90F409028333333333333E33F0000000000000F9010790141107004050150841D405064090741402480A0350
1001
ACAD
1000
AcDbSavedByObjectVersion
1070
     0
  0
ACAD_PROXY_OBJECT
  5
2B
102
{ACAD_REACTORS
330
2A
102
}
330
2A
100
AcDbProxyObject
 90
      499
 91
      501
 93
      380
310
41119B185D240901404333333333333E33F0000000000000F9010740A907004050150841D405064090741402480A1B50
1001
ACAD
1000
AcDbSavedByObjectVersion
1070
     0
  0
ACAD_PROXY_OBJECT
  5
2C
102
{ACAD_REACTORS
330
2A
102
}
330
2A
100
AcDbProxyObject
 90
      499
 91
      501
 93
      468
310
43519B185D15DA5D1A115919D95CD0140901404333333333333E33F0000000000000F90107409019070040501600405405064090741402480A1B50
1001
ACAD
1000
AcDbSavedByObjectVersion
1070
     0
  0
ACAD_PROXY_OBJECT
  5
2D
102
{ACAD_REACTORS
330
2A
102
}
330
2A
100
AcDbProxyObject
 90
      499
 91
      501
 93
      404
310
41D1DBDD5C985D5910240902404333333333333E33F0000000000000F9010740A9070040501641D405064090741402480A1B50
1001
ACAD
1000
AcDbSavedByObjectVersion
1070
     0
  0
ACAD_PROXY_OBJECT
  5
2E
102
{ACAD_REACTORS
330
2A
102
}
330
2A
100
AcDbProxyObject
 90
      499
 91
      501
 93
      492
310
4411DBDD5C985D5915DA5D1A115919D95CD0340902404333333333333E33F0000000000000F90107409019070040501600405405064090741402480A1B50
1001
ACAD
1000
AcDbSavedByObjectVersion
1070
     0
  0
ACAD_PROXY_OBJECT
  5
31
102
{ACAD_REACTORS
330
2A
102
}
330
2A
100
AcDbProxyObject
 90
      499
 91
      501
 93
      476
310
41921A5919195B90640502408333333333333E33F0000000000000F901079024090700405020000000000001110200405405064090740C02480A0340
1001
ACAD
1000
AcDbSavedByObjectVersion
1070
     0
  0
ACAD_PROXY_OBJECT
  5
3B
102
{ACAD_REACTORS
330
2A
102
}
330
2A
100
AcDbProxyObject
 90
      499
 91
      501
 93
      428
310
42529A5D1D195C93D999914409028333333333333E33F0000000000000F9010790141107004050150A41D405064090741402480A0350
1001
ACAD
1000
AcDbSavedByObjectVersion
1070
     0
  0
ACAD_PROXY_OBJECT
  5
38
102
{ACAD_REACTORS
330
2A
102
}
330
2A
100
AcDbProxyObject
 90
      499
 91
      501
 93
      444
310
42D31A5B995C185D1D195C9B90E409028333333333333E33F0000000000000F9010790141107004050750841D405064090741402483A0350
1001
ACAD
1000
AcDbSavedByObjectVersion
1070
     0
  0
ACAD_PROXY_OBJECT
  5
3C
102
{ACAD_REACTORS
330
2A
102
}
330
2A
100
AcDbProxyObject
 90
      499
 91
      501
 93
      444
310
42D3DD995C9A185B99D3D999915409028333333333333E33F0000000000000F9010790141107004050150941D405064090741402480A0350
1001
ACAD
1000
AcDbSavedByObjectVersion
1070
     0
  0
ACAD_PROXY_OBJECT
  5
33
102
{ACAD_REACTORS
330
2A
102
}
330
2A
100
AcDbProxyObject
 90
      499
 91
      501
 93
      428
310
425499585B1A5CDD1A58D08409038333333333333E33F0000000000000F9010740A907004050150800405405064090740C02480A1B40
1001
ACAD
1000
AcDbSavedByObjectVersion
1070
     0
  0
ACAD_PROXY_OBJECT
  5
42
102
{ACAD_REACTORS
330
2A
102
}
330
2A
100
AcDbProxyObject
 90
      499
 91
      501
 93
      420
310
4194DA1859195911B40902404333333333333E33F0000000000000F9010740A41107004050150800405405064090840C02480A0B40
1001
ACAD
1000
AcDbSavedByObjectVersion
1070
     0
  0
ACAD_PROXY_OBJECT
  5
41
102
{ACAD_REACTORS
330
2A
102
}
330
2A
100
AcDbProxyObject
 90
      499
 91
      501
 93
      516
310
4454DA18591959081DDA5D1A08195919D95CD1A40902404333333333333E33F0000000000000F901074090142907004050250800405405064090740C02480A0B40
1001
ACAD
1000
AcDbSavedByObjectVersion
1070
     0
  0
ACAD_PROXY_OBJECT
  5
3E
102
{ACAD_REACTORS
330
2A
102
}
330
2A
100
AcDbProxyObject
 90
      499
 91
      501
 93
      532
310
4394DA1859195CC81BD98811DC985E5174090240C333333333333E33F0000000000000F901079024090741D01000000000000111010841D405064090740C02480A0340
1001
ACAD
1000
AcDbSavedByObjectVersion
1070
     0
  0
ACAD_PROXY_OBJECT
  5
3F
102
{ACAD_REACTORS
330
2A
102
}
330
2A
100
AcDbProxyObject
 90
      499
 91
      501
 93
      476
310
41D4DAD95D18DA1E51840502408333333333333E33F0000000000000F901079024090741D01000000000000111010B41D405064090741802480A0340
1001
ACAD
1000
AcDbSavedByObjectVersion
1070
     0
  0
ACAD_PROXY_OBJECT
  5
37
102
{ACAD_REACTORS
330
2A
102
}
330
2A
100
AcDbProxyObject
 90
      499
 91
      501
 93
      412
310
41D51A1A58DAD95B90D409028333333333333E33F0000000000000F9010790141107004050150C41D405064090741402480A0350
1001
ACAD
1000
AcDbSavedByObjectVersion
1070
     0
  0
ACAD_PROXY_OBJECT
  5
30
102
{ACAD_REACTORS
330
2A
102
}
330
2A
100
AcDbProxyObject
 90
      499
 91
      501
 93
      420
310
4255DA5C99599C985B595059028333333333333E33F0000000000000F90107901411070040501600405405064090740C02480A0340
1001
ACAD
1000
AcDbSavedByObjectVersion
1070
     0
  0
ACAD_PROXY_OBJECT
  5
40
102
{ACAD_REACTORS
330
2A
102
}
330
2A
100
AcDbProxyObject
 90
      499
 91
      501
 93
      404
310
41560B54985E51940902404000000000000E03F0000000000000F9010740501907004050150841D405064090740C02480A1B40
1001
ACAD
1000
AcDbSavedByObjectVersion
1070
     0
  0
XRECORD
  5
3EE
102
{ACAD_REACTORS
330
3E4
102
}
330
3E4
100
AcDbXrecord
340
0
  0
XRECORD
  5
3ED
102
{ACAD_REACTORS
330
3E4
102
}
330
3E4
100
AcDbXrecord
 90
        0
  0
XRECORD
  5
404
102
{ACAD_REACTORS
330
3E4
102
}
330
3E4
100
AcDbXrecord
1000
DSTYLE
1002
{
1070
   340
340
11
1002
}
  0
XRECORD
  5
3EF
102
{ACAD_REACTORS
330
3E4
102
}
330
3E4
100
AcDbXrecord
  1
{e043a0d5-5740-49f7-94e1-75d0b0c3b946}
  0
XRECORD
  5
3E7
102
{ACAD_REACTORS
330
3E4
102
}
330
3E4
100
AcDbXrecord
  1

  0
XRECORD
  5
3EC
102
{ACAD_REACTORS
330
3E4
102
}
330
3E4
100
AcDbXrecord
 90
        4
  0
XRECORD
  5
3E9
102
{ACAD_REACTORS
330
3E4
102
}
330
3E4
100
AcDbXrecord
340
1A
  0
XRECORD
  5
3EB
102
{ACAD_REACTORS
330
3E4
102
}
330
3E4
100
AcDbXrecord
 90
    10781
  0
XRECORD
  5
3EA
102
{ACAD_REACTORS
330
3E4
102
}
330
3E4
100
AcDbXrecord
340
19
  0
XRECORD
  5
3F1
102
{ACAD_REACTORS
330
3E4
102
}
330
3E4
100
AcDbXrecord
 40
0.0
  0
XRECORD
  5
3F4
102
{ACAD_REACTORS
330
3E4
102
}
330
3E4
100
AcDbXrecord
340
0
  0
XRECORD
  5
3FA
102
{ACAD_REACTORS
330
3E4
102
}
330
3E4
100
AcDbXrecord
 10
0.0
 20
0.0
 30
0.0
  0
XRECORD
  5
3F6
102
{ACAD_REACTORS
330
3E4
102
}
330
3E4
100
AcDbXrecord
 10
0.0
 20
0.0
 30
0.0
  0
XRECORD
  5
3F9
102
{ACAD_REACTORS
330
3E4
102
}
330
3E4
100
AcDbXrecord
 10
0.0
 20
0.0
 30
0.0
  0
XRECORD
  5
3F7
102
{ACAD_REACTORS
330
3E4
102
}
330
3E4
100
AcDbXrecord
 10
0.0
 20
0.0
 30
0.0
  0
XRECORD
  5
3F8
102
{ACAD_REACTORS
330
3E4
102
}
330
3E4
100
AcDbXrecord
 10
0.0
 20
0.0
 30
0.0
  0
XRECORD
  5
3F5
102
{ACAD_REACTORS
330
3E4
102
}
330
3E4
100
AcDbXrecord
 10
0.0
 20
0.0
 30
0.0
  0
XRECORD
  5
3F2
102
{ACAD_REACTORS
330
3E4
102
}
330
3E4
100
AcDbXrecord
340
0
  0
XRECORD
  5
3F3
102
{ACAD_REACTORS
330
3E4
102
}
330
3E4
100
AcDbXrecord
 70
     0
  0
XRECORD
  5
3E8
102
{ACAD_REACTORS
330
3E4
102
}
330
3E4
100
AcDbXrecord
  1

  0
XRECORD
  5
3E5
102
{ACAD_REACTORS
330
3E4
102
}
330
3E4
100
AcDbXrecord
 90
        1
  0
XRECORD
  5
3E6
102
{ACAD_REACTORS
330
3E4
102
}
330
3E4
100
AcDbXrecord
 90
       70
  0
XRECORD
  5
3FD
102
{ACAD_REACTORS
330
3E4
102
}
330
3E4
100
AcDbXrecord
340
0
  0
XRECORD
  5
403
102
{ACAD_REACTORS
330
3E4
102
}
330
3E4
100
AcDbXrecord
 10
0.0
 20
0.0
 30
0.0
  0
XRECORD
  5
3FF
102
{ACAD_REACTORS
330
3E4
102
}
330
3E4
100
AcDbXrecord
 10
0.0
 20
0.0
 30
0.0
  0
XRECORD
  5
402
102
{ACAD_REACTORS
330
3E4
102
}
330
3E4
100
AcDbXrecord
 10
0.0
 20
0.0
 30
0.0
  0
XRECORD
  5
400
102
{ACAD_REACTORS
330
3E4
102
}
330
3E4
100
AcDbXrecord
 10
0.0
 20
0.0
 30
0.0
  0
XRECORD
  5
401
102
{ACAD_REACTORS
330
3E4
102
}
330
3E4
100
AcDbXrecord
 10
0.0
 20
0.0
 30
0.0
  0
XRECORD
  5
3FE
102
{ACAD_REACTORS
330
3E4
102
}
330
3E4
100
AcDbXrecord
 10
0.0
 20
0.0
 30
0.0
  0
XRECORD
  5
3FB
102
{ACAD_REACTORS
330
3E4
102
}
330
3E4
100
AcDbXrecord
340
0
  0
XRECORD
  5
3FC
102
{ACAD_REACTORS
330
3E4
102
}
330
3E4
100
AcDbXrecord
 70
     0
  0
XRECORD
  5
3F0
102
{ACAD_REACTORS
330
3E4
102
}
330
3E4
100
AcDbXrecord
  1
{FAEB1C32-E019-11D5-929B-00C0DF256EC4}
  0
DICTIONARYVAR
  5
412
102
{ACAD_REACTORS
330
405
102
}
330
405
100
DictionaryVariables
280
     0
  1
1:1
  0
DICTIONARYVAR
  5
40C
102
{ACAD_REACTORS
330
405
102
}
330
405
100
DictionaryVariables
280
     0
  1
3.500000
  0
DICTIONARYVAR
  5
40D
102
{ACAD_REACTORS
330
405
102
}
330
405
100
DictionaryVariables
280
     0
  1
acadiso.lin
  0
DICTIONARYVAR
  5
407
102
{ACAD_REACTORS
330
405
102
}
330
405
100
DictionaryVariables
280
     0
  1
Standard
  0
DICTIONARYVAR
  5
406
102
{ACAD_REACTORS
330
405
102
}
330
405
100
DictionaryVariables
280
     0
  1
Standard
  0
DICTIONARYVAR
  5
40E
102
{ACAD_REACTORS
330
405
102
}
330
405
100
DictionaryVariables
280
     0
  1
2
  0
DICTIONARYVAR
  5
40F
102
{ACAD_REACTORS
330
405
102
}
330
405
100
DictionaryVariables
280
     0
  1
1
  0
DICTIONARYVAR
  5
413
102
{ACAD_REACTORS
330
405
102
}
330
405
100
DictionaryVariables
280
     0
  1
1
  0
DICTIONARYVAR
  5
409
102
{ACAD_REACTORS
330
405
102
}
330
405
100
DictionaryVariables
280
     0
  1
80.000000
  0
DICTIONARYVAR
  5
408
102
{ACAD_REACTORS
330
405
102
}
330
405
100
DictionaryVariables
280
     0
  1
5.000000
  0
DICTIONARY
  5
416
330
45
100
AcDbDictionary
280
     1
  3
ACAD_XREC_ROUNDTRIP
360
417
  0
DICTIONARY
  5
414
330
44
100
AcDbDictionary
280
     1
  3
ACAD_XREC_ROUNDTRIP
360
415
  0
DICTIONARY
  5
418
330
46
100
AcDbDictionary
280
     1
  3
ACAD_XREC_ROUNDTRIP
360
419
  0
XRECORD
  5
417
102
{ACAD_REACTORS
330
416
102
}
330
416
100
AcDbXrecord
102
MATERIAL
148
0.0
149
0.0
149
0.0
 93
        0
 94
      127
282
     0
 72
     1
 77
     1
171
     1
175
     1
179
     1
273
     0
  0
XRECORD
  5
415
102
{ACAD_REACTORS
330
414
102
}
330
414
100
AcDbXrecord
102
MATERIAL
148
0.0
149
0.0
149
0.0
 93
        0
 94
      127
282
     0
 72
     1
 77
     1
171
     1
175
     1
179
     1
273
     0
  0
XRECORD
  5
419
102
{ACAD_REACTORS
330
418
102
}
330
418
100
AcDbXrecord
102
MATERIAL
148
0.0
149
0.0
149
0.0
 93
        0
 94
      127
282
     0
 72
     1
 77
     1
171
     1
175
     1
179
     1
273
     0
  0
ENDSEC
  0
EOF
