  0
SECTION
  2
HEADER
  9
$ACADVER
  1
AC1014
  9
$ACADMAINTVER
 70
     9
  9
$DWGCODEPAGE
  3
ANSI_932
  9
$INSBASE
 10
0.0
 20
0.0
 30
0.0
  9
$EXTMIN
 10
25.0
 20
50.0
 30
0.0
  9
$EXTMAX
 10
1925.0
 20
1400.0
 30
0.0
  9
$LIMMIN
 10
0.0
 20
0.0
  9
$LIMMAX
 10
420.0
 20
297.0
  9
$ORTHOMODE
 70
     0
  9
$REGENMODE
 70
     1
  9
$FILLMODE
 70
     1
  9
$QTEXTMODE
 70
     0
  9
$MIRRTEXT
 70
     1
  9
$DRAGMODE
 70
     2
  9
$LTSCALE
 40
0.2
  9
$OSMODE
 70
    37
  9
$ATTMODE
 70
     1
  9
$TEXTSIZE
 40
2.5
  9
$TRACEWID
 40
1.0
  9
$TEXTSTYLE
  7
STANDARD
  9
$CLAYER
  8
LAY-10
  9
$CELTYPE
  6
BYLAYER
  9
$CECOLOR
 62
   256
  9
$CELTSCALE
 40
1.0
  9
$DELOBJ
 70
     1
  9
$DISPSILH
 70
     0
  9
$DIMSCALE
 40
1.0
  9
$DIMASZ
 40
2.5
  9
$DIMEXO
 40
0.625
  9
$DIMDLI
 40
3.75
  9
$DIMRND
 40
0.0
  9
$DIMDLE
 40
0.0
  9
$DIMEXE
 40
1.25
  9
$DIMTP
 40
0.0
  9
$DIMTM
 40
0.0
  9
$DIMTXT
 40
2.5
  9
$DIMCEN
 40
2.5
  9
$DIMTSZ
 40
0.0
  9
$DIMTOL
 70
     0
  9
$DIMLIM
 70
     0
  9
$DIMTIH
 70
     0
  9
$DIMTOH
 70
     0
  9
$DIMSE1
 70
     0
  9
$DIMSE2
 70
     0
  9
$DIMTAD
 70
     1
  9
$DIMZIN
 70
     8
  9
$DIMBLK
  1

  9
$DIMASO
 70
     1
  9
$DIMSHO
 70
     1
  9
$DIMPOST
  1

  9
$DIMAPOST
  1

  9
$DIMALT
 70
     0
  9
$DIMALTD
 70
     3
  9
$DIMALTF
 40
0.03937007874016
  9
$DIMLFAC
 40
1.0
  9
$DIMTOFL
 70
     1
  9
$DIMTVP
 40
0.0
  9
$DIMTIX
 70
     0
  9
$DIMSOXD
 70
     0
  9
$DIMSAH
 70
     0
  9
$DIMBLK1
  1

  9
$DIMBLK2
  1

  9
$DIMSTYLE
  2
ISO-25
  9
$DIMCLRD
 70
     0
  9
$DIMCLRE
 70
     0
  9
$DIMCLRT
 70
     0
  9
$DIMTFAC
 40
1.0
  9
$DIMGAP
 40
0.625
  9
$DIMJUST
 70
     0
  9
$DIMSD1
 70
     0
  9
$DIMSD2
 70
     0
  9
$DIMTOLJ
 70
     0
  9
$DIMTZIN
 70
     8
  9
$DIMALTZ
 70
     0
  9
$DIMALTTZ
 70
     0
  9
$DIMFIT
 70
     3
  9
$DIMUPT
 70
     0
  9
$DIMUNIT
 70
     2
  9
$DIMDEC
 70
     2
  9
$DIMTDEC
 70
     2
  9
$DIMALTU
 70
     2
  9
$DIMALTTD
 70
     3
  9
$DIMTXSTY
  7
STANDARD
  9
$DIMAUNIT
 70
     0
  9
$LUNITS
 70
     2
  9
$LUPREC
 70
     4
  9
$SKETCHINC
 40
1.0
  9
$FILLETRAD
 40
10.0
  9
$AUNITS
 70
     0
  9
$AUPREC
 70
     0
  9
$MENU
  1
.
  9
$ELEVATION
 40
0.0
  9
$PELEVATION
 40
0.0
  9
$THICKNESS
 40
0.0
  9
$LIMCHECK
 70
     0
  9
$CHAMFERA
 40
0.0
  9
$CHAMFERB
 40
0.0
  9
$CHAMFERC
 40
0.0
  9
$CHAMFERD
 40
0.0
  9
$SKPOLY
 70
     0
  9
$TDCREATE
 40
2459229.336606574
  9
$TDUPDATE
 40
2459229.336606979
  9
$TDINDWG
 40
0.0000000116
  9
$TDUSRTIMER
 40
0.0000000116
  9
$USRTIMER
 70
     1
  9
$ANGBASE
 50
0.0
  9
$ANGDIR
 70
     0
  9
$PDMODE
 70
     0
  9
$PDSIZE
 40
0.0
  9
$PLINEWID
 40
0.0
  9
$COORDS
 70
     1
  9
$SPLFRAME
 70
     0
  9
$SPLINETYPE
 70
     6
  9
$SPLINESEGS
 70
     8
  9
$ATTDIA
 70
     0
  9
$ATTREQ
 70
     1
  9
$HANDLING
 70
     1
  9
$HANDSEED
  5
3E5
  9
$SURFTAB1
 70
     6
  9
$SURFTAB2
 70
     6
  9
$SURFTYPE
 70
     6
  9
$SURFU
 70
     6
  9
$SURFV
 70
     6
  9
$UCSNAME
  2

  9
$UCSORG
 10
0.0
 20
0.0
 30
0.0
  9
$UCSXDIR
 10
1.0
 20
0.0
 30
0.0
  9
$UCSYDIR
 10
0.0
 20
1.0
 30
0.0
  9
$PUCSNAME
  2

  9
$PUCSORG
 10
0.0
 20
0.0
 30
0.0
  9
$PUCSXDIR
 10
1.0
 20
0.0
 30
0.0
  9
$PUCSYDIR
 10
0.0
 20
1.0
 30
0.0
  9
$USERI1
 70
     0
  9
$USERI2
 70
     0
  9
$USERI3
 70
     0
  9
$USERI4
 70
     0
  9
$USERI5
 70
     0
  9
$USERR1
 40
0.0
  9
$USERR2
 40
0.0
  9
$USERR3
 40
0.0
  9
$USERR4
 40
0.0
  9
$USERR5
 40
0.0
  9
$WORLDVIEW
 70
     1
  9
$SHADEDGE
 70
     3
  9
$SHADEDIF
 70
    70
  9
$TILEMODE
 70
     1
  9
$MAXACTVP
 70
    64
  9
$PINSBASE
 10
0.0
 20
0.0
 30
0.0
  9
$PLIMCHECK
 70
     0
  9
$PEXTMIN
 10
1.000000000000000E+20
 20
1.000000000000000E+20
 30
1.000000000000000E+20
  9
$PEXTMAX
 10
-1.000000000000000E+20
 20
-1.000000000000000E+20
 30
-1.000000000000000E+20
  9
$PLIMMIN
 10
0.0
 20
0.0
  9
$PLIMMAX
 10
420.0
 20
297.0
  9
$UNITMODE
 70
     0
  9
$VISRETAIN
 70
     1
  9
$PLINEGEN
 70
     0
  9
$PSLTSCALE
 70
     1
  9
$TREEDEPTH
 70
  3020
  9
$PICKSTYLE
 70
     1
  9
$CMLSTYLE
  2
STANDARD
  9
$CMLJUST
 70
     0
  9
$CMLSCALE
 40
20.0
  9
$PROXYGRAPHICS
 70
     1
  9
$MEASUREMENT
 70
     1
  0
ENDSEC
  0
SECTION
  2
CLASSES
  0
CLASS
  1
ACDBDICTIONARYWDFLT
  2
AcDbDictionaryWithDefault
  3
ObjectDBX Classes
 90
        0
280
     0
281
     0
  0
CLASS
  1
VISUALSTYLE
  2
AcDbVisualStyle
  3
ObjectDBX Classes
 90
     4095
280
     0
281
     0
  0
CLASS
  1
MATERIAL
  2
AcDbMaterial
  3
ObjectDBX Classes
 90
     1153
280
     0
281
     0
  0
CLASS
  1
SCALE
  2
AcDbScale
  3
ObjectDBX Classes
 90
     1153
280
     0
281
     0
  0
CLASS
  1
TABLESTYLE
  2
AcDbTableStyle
  3
ObjectDBX Classes
 90
     4095
280
     0
281
     0
  0
CLASS
  1
MLEADERSTYLE
  2
AcDbMLeaderStyle
  3
ACDB_MLEADERSTYLE_CLASS
 90
     4095
280
     0
281
     0
  0
CLASS
  1
SUN
  2
AcDbSun
  3
SCENEOE
 90
     1153
280
     0
281
     0
  0
CLASS
  1
DICTIONARYVAR
  2
AcDbDictionaryVar
  3
ObjectDBX Classes
 90
        0
280
     0
281
     0
  0
CLASS
  1
XRECORD
  2
AcDbXrecord
  3
ObjectDBX Classes
 90
        0
280
     0
281
     0
  0
CLASS
  1
LWPOLYLINE
  2
AcDbPolyline
  3
ObjectDBX Classes
 90
        0
280
     0
281
     1
  0
CLASS
  1
HATCH
  2
AcDbHatch
  3
ObjectDBX Classes
 90
        0
280
     0
281
     1
  0
CLASS
  1
ACDBPLACEHOLDER
  2
AcDbPlaceHolder
  3
ObjectDBX Classes
 90
        0
280
     0
281
     0
  0
CLASS
  1
LAYOUT
  2
AcDbLayout
  3
ObjectDBX Classes
 90
        0
280
     0
281
     0
  0
ENDSEC
  0
SECTION
  2
TABLES
  0
TABLE
  2
VPORT
  5
8
102
{ACAD_XDICTIONARY
360
3DA
102
}
330
0
100
AcDbSymbolTable
 70
     1
  0
VPORT
  5
29
330
8
100
AcDbSymbolTableRecord
100
AcDbViewportTableRecord
  2
*ACTIVE
 70
     0
 10
0.0
 20
0.0
 11
1.0
 21
1.0
 12
975.0000000000001
 22
725.0
 13
0.0
 23
0.0
 14
10.0
 24
10.0
 15
10.0
 25
10.0
 16
0.0
 26
0.0
 36
1.0
 17
0.0
 27
0.0
 37
0.0
 40
1350.0
 41
1.407407407407408
 42
50.0
 43
0.0
 44
0.0
 50
0.0
 51
0.0
 71
     0
 72
  1000
 73
     1
 74
     3
 75
     0
 76
     0
 77
     0
 78
     0
  0
ENDTAB
  0
TABLE
  2
LTYPE
  5
5
330
0
100
AcDbSymbolTable
 70
     6
  0
LTYPE
  5
14
330
5
100
AcDbSymbolTableRecord
100
AcDbLinetypeTableRecord
  2
BYBLOCK
 70
     0
  3

 72
    65
 73
     0
 40
0.0
  0
LTYPE
  5
15
330
5
100
AcDbSymbolTableRecord
100
AcDbLinetypeTableRecord
  2
BYLAYER
 70
     0
  3

 72
    65
 73
     0
 40
0.0
  0
LTYPE
  5
16
330
5
100
AcDbSymbolTableRecord
100
AcDbLinetypeTableRecord
  2
CONTINUOUS
 70
     0
  3
Solid line
 72
    65
 73
     0
 40
0.0
  0
LTYPE
  5
6E
330
5
100
AcDbSymbolTableRecord
100
AcDbLinetypeTableRecord
  2
HIDDEN
 70
     0
  3
Hidden __ __ __ __ __ __ __ __ __ __ __ __ __ __
 72
    65
 73
     2
 40
9.524999999999999
 49
6.35
 74
     0
 49
-3.175
 74
     0
  0
LTYPE
  5
6F
330
5
100
AcDbSymbolTableRecord
100
AcDbLinetypeTableRecord
  2
CENTER
 70
     0
  3
Center ____ _ ____ _ ____ _ ____ _ ____ _ ____
 72
    65
 73
     4
 40
50.8
 49
31.75
 74
     0
 49
-6.35
 74
     0
 49
6.35
 74
     0
 49
-6.35
 74
     0
  0
LTYPE
  5
70
330
5
100
AcDbSymbolTableRecord
100
AcDbLinetypeTableRecord
  2
PHANTOM
 70
     0
  3
Phantom ______  __  __  ______  __  __  ______ 
 72
    65
 73
     6
 40
63.50000000000001
 49
31.75
 74
     0
 49
-6.35
 74
     0
 49
6.35
 74
     0
 49
-6.35
 74
     0
 49
6.35
 74
     0
 49
-6.35
 74
     0
  0
LTYPE
  5
71
330
5
100
AcDbSymbolTableRecord
100
AcDbLinetypeTableRecord
  2
ACAD_ISO06W100
 70
     0
  3
ISO long-dash triple-dot ____ ... ____ ... ____
 72
    65
 73
     8
 40
36.0
 49
24.0
 74
     0
 49
-3.0
 74
     0
 49
0.0
 74
     0
 49
-3.0
 74
     0
 49
0.0
 74
     0
 49
-3.0
 74
     0
 49
0.0
 74
     0
 49
-3.0
 74
     0
  0
LTYPE
  5
72
330
5
100
AcDbSymbolTableRecord
100
AcDbLinetypeTableRecord
  2
ACAD_ISO15W100
 70
     0
  3
ISO double-dash triple-dot __ __ . . . __ __ . .
 72
    65
 73
    10
 40
39.0
 49
12.0
 74
     0
 49
-3.0
 74
     0
 49
12.0
 74
     0
 49
-3.0
 74
     0
 49
0.0
 74
     0
 49
-3.0
 74
     0
 49
0.0
 74
     0
 49
-3.0
 74
     0
 49
0.0
 74
     0
 49
-3.0
 74
     0
  0
ENDTAB
  0
TABLE
  2
LAYER
  5
2
330
0
100
AcDbSymbolTable
 70
     6
  0
LAYER
  5
10
330
2
100
AcDbSymbolTableRecord
100
AcDbLayerTableRecord
  2
0
 70
     0
 62
     7
  6
CONTINUOUS
  0
LAYER
  5
75
330
2
100
AcDbSymbolTableRecord
100
AcDbLayerTableRecord
  2
LAY-10
 70
     0
 62
     7
  6
CONTINUOUS
  0
LAYER
  5
76
330
2
100
AcDbSymbolTableRecord
100
AcDbLayerTableRecord
  2
LAY-11
 70
     0
 62
     7
  6
CONTINUOUS
  0
LAYER
  5
77
330
2
100
AcDbSymbolTableRecord
100
AcDbLayerTableRecord
  2
LAY-20
 70
     0
 62
     7
  6
CONTINUOUS
  0
LAYER
  5
78
330
2
100
AcDbSymbolTableRecord
100
AcDbLayerTableRecord
  2
LAY-255
 70
     0
 62
     7
  6
CONTINUOUS
  0
LAYER
  5
343
330
2
100
AcDbSymbolTableRecord
100
AcDbLayerTableRecord
  2
DEFPOINTS
 70
     0
 62
     7
  6
CONTINUOUS
  0
ENDTAB
  0
TABLE
  2
STYLE
  5
3
330
0
100
AcDbSymbolTable
 70
     4
  0
STYLE
  5
11
330
3
100
AcDbSymbolTableRecord
100
AcDbTextStyleTableRecord
  2
STANDARD
 70
     0
 40
0.0
 41
1.0
 50
0.0
 71
     0
 42
2.5
  3
simplex
  4
bigfont
  0
STYLE
  5
73
330
3
100
AcDbSymbolTableRecord
100
AcDbTextStyleTableRecord
  2
EXCADSTD
 70
     0
 40
0.0
 41
1.0
 50
0.0
 71
     0
 42
2.5
  3
simplex
  4
bigfont
  0
STYLE
  5
74
330
3
100
AcDbSymbolTableRecord
100
AcDbTextStyleTableRecord
  2
EXCADVERT
 70
     4
 40
0.0
 41
1.0
 50
0.0
 71
     0
 42
2.5
  3
simplex
  4
bigfont
  0
STYLE
  5
341
330
3
100
AcDbSymbolTableRecord
100
AcDbTextStyleTableRecord
  2
EXCADDIM1
 70
     0
 40
0.0
 41
0.84
 50
0.0
 71
     0
 42
2.5
  3
simplex
  4
bigfont
  0
ENDTAB
  0
TABLE
  2
VIEW
  5
6
330
0
100
AcDbSymbolTable
 70
     0
  0
ENDTAB
  0
TABLE
  2
UCS
  5
7
330
0
100
AcDbSymbolTable
 70
     0
  0
ENDTAB
  0
TABLE
  2
APPID
  5
9
330
0
100
AcDbSymbolTable
 70
     2
  0
APPID
  5
12
330
9
100
AcDbSymbolTableRecord
100
AcDbRegAppTableRecord
  2
ACAD
 70
     0
  0
APPID
  5
3E4
330
9
100
AcDbSymbolTableRecord
100
AcDbRegAppTableRecord
  2
ACAD_MLEADERVER
 70
     0
  0
ENDTAB
  0
TABLE
  2
DIMSTYLE
  5
A
330
0
100
AcDbSymbolTable
 70
     1
  0
DIMSTYLE
105
27
102
{ACAD_REACTORS
330
342
330
350
330
35D
330
36A
330
376
102
}
330
A
100
AcDbSymbolTableRecord
100
AcDbDimStyleTableRecord
  2
ISO-25
 70
     0
  3

  4

  5

  6

  7

 40
1.0
 41
2.5
 42
0.625
 43
3.75
 44
1.25
 45
0.0
 46
0.0
 47
0.0
 48
0.0
140
2.5
141
2.5
142
0.0
143
0.03937007874016
144
1.0
145
0.0
146
1.0
147
0.625
 71
     0
 72
     0
 73
     0
 74
     0
 75
     0
 76
     0
 77
     1
 78
     8
170
     0
171
     3
172
     1
173
     0
174
     0
175
     0
176
     0
177
     0
178
     0
270
     2
271
     2
272
     2
273
     2
274
     3
340
11
275
     0
280
     0
281
     0
282
     0
283
     0
284
     8
285
     0
286
     0
287
     5
288
     0
  0
ENDTAB
  0
TABLE
  2
BLOCK_RECORD
  5
1
330
0
100
AcDbSymbolTable
 70
    19
  0
BLOCK_RECORD
  5
1F
330
1
100
AcDbSymbolTableRecord
100
AcDbBlockTableRecord
  2
*MODEL_SPACE
  0
BLOCK_RECORD
  5
1B
330
1
100
AcDbSymbolTableRecord
100
AcDbBlockTableRecord
  2
*PAPER_SPACE
  0
BLOCK_RECORD
  5
79
330
1
100
AcDbSymbolTableRecord
100
AcDbBlockTableRecord
  2
EX_NORM
  0
BLOCK_RECORD
  5
7C
330
1
100
AcDbSymbolTableRecord
100
AcDbBlockTableRecord
  2
EX_BNORM
  0
BLOCK_RECORD
  5
7F
330
1
100
AcDbSymbolTableRecord
100
AcDbBlockTableRecord
  2
EX_BCIR
  0
BLOCK_RECORD
  5
82
330
1
100
AcDbSymbolTableRecord
100
AcDbBlockTableRecord
  2
EX_RCIVIL
  0
BLOCK_RECORD
  5
85
330
1
100
AcDbSymbolTableRecord
100
AcDbBlockTableRecord
  2
EX_SLANT
  0
BLOCK_RECORD
  5
88
330
1
100
AcDbSymbolTableRecord
100
AcDbBlockTableRecord
  2
EX_NONE
  0
BLOCK_RECORD
  5
8B
330
1
100
AcDbSymbolTableRecord
100
AcDbBlockTableRecord
  2
EX_CIVIL
  0
BLOCK_RECORD
  5
8E
330
1
100
AcDbSymbolTableRecord
100
AcDbBlockTableRecord
  2
EX_WCIR
  0
BLOCK_RECORD
  5
91
330
1
100
AcDbSymbolTableRecord
100
AcDbBlockTableRecord
  2
EX_WCIR2
  0
BLOCK_RECORD
  5
94
330
1
100
AcDbSymbolTableRecord
100
AcDbBlockTableRecord
  2
EX_WNORM
  0
BLOCK_RECORD
  5
97
330
1
100
AcDbSymbolTableRecord
100
AcDbBlockTableRecord
  2
EX_NNORM
  0
BLOCK_RECORD
  5
9A
330
1
100
AcDbSymbolTableRecord
100
AcDbBlockTableRecord
  2
EX_BBOX
  0
BLOCK_RECORD
  5
9D
330
1
100
AcDbSymbolTableRecord
100
AcDbBlockTableRecord
  2
EX_WBOX
  0
BLOCK_RECORD
  5
A0
330
1
100
AcDbSymbolTableRecord
100
AcDbBlockTableRecord
  2
EX_INTEGRAL
  0
BLOCK_RECORD
  5
344
330
1
100
AcDbSymbolTableRecord
100
AcDbBlockTableRecord
  2
*D15
  0
BLOCK_RECORD
  5
351
330
1
100
AcDbSymbolTableRecord
100
AcDbBlockTableRecord
  2
*D16
  0
BLOCK_RECORD
  5
35E
330
1
100
AcDbSymbolTableRecord
100
AcDbBlockTableRecord
  2
*D17
  0
BLOCK_RECORD
  5
36B
330
1
100
AcDbSymbolTableRecord
100
AcDbBlockTableRecord
  2
*D18
  0
BLOCK_RECORD
  5
377
330
1
100
AcDbSymbolTableRecord
100
AcDbBlockTableRecord
  2
*D19
  0
ENDTAB
  0
ENDSEC
  0
SECTION
  2
BLOCKS
  0
BLOCK
  5
20
330
1F
100
AcDbEntity
  8
0
100
AcDbBlockBegin
  2
*MODEL_SPACE
 70
     0
 10
0.0
 20
0.0
 30
0.0
  3
*MODEL_SPACE
  1

  0
ENDBLK
  5
21
330
1F
100
AcDbEntity
  8
0
100
AcDbBlockEnd
  0
BLOCK
  5
1C
330
1B
100
AcDbEntity
 67
     1
  8
0
100
AcDbBlockBegin
  2
*PAPER_SPACE
 70
     0
 10
0.0
 20
0.0
 30
0.0
  3
*PAPER_SPACE
  1

  0
ENDBLK
  5
1D
330
1B
100
AcDbEntity
 67
     1
  8
0
100
AcDbBlockEnd
  0
BLOCK
  5
7A
330
79
100
AcDbEntity
  8
0
100
AcDbBlockBegin
  2
EX_NORM
 70
     0
 10
0.0
 20
0.0
 30
0.0
  3
EX_NORM
  1

  0
LINE
  5
A3
330
79
100
AcDbEntity
  8
0
  6
CONTINUOUS
 62
     0
100
AcDbLine
 10
0.0
 20
0.0
 30
0.0
 11
-1.0
 21
0.0
 31
0.0
  0
LINE
  5
A4
330
79
100
AcDbEntity
  8
0
  6
CONTINUOUS
 62
     0
100
AcDbLine
 10
0.0
 20
0.0
 30
0.0
 11
-1.0
 21
0.166666667
 31
0.0
  0
LINE
  5
A5
330
79
100
AcDbEntity
  8
0
  6
CONTINUOUS
 62
     0
100
AcDbLine
 10
0.0
 20
0.0
 30
0.0
 11
-1.0
 21
-0.166666667
 31
0.0
  0
ENDBLK
  5
7B
330
79
100
AcDbEntity
  8
0
100
AcDbBlockEnd
  0
BLOCK
  5
7D
330
7C
100
AcDbEntity
  8
0
100
AcDbBlockBegin
  2
EX_BNORM
 70
     0
 10
0.0
 20
0.0
 30
0.0
  3
EX_BNORM
  1

  0
LINE
  5
A6
330
7C
100
AcDbEntity
  8
0
  6
CONTINUOUS
 62
     0
100
AcDbLine
 10
0.0
 20
0.0
 30
0.0
 11
-1.0
 21
0.0
 31
0.0
  0
LINE
  5
A7
330
7C
100
AcDbEntity
  8
0
  6
CONTINUOUS
 62
     0
100
AcDbLine
 10
0.0
 20
0.0
 30
0.0
 11
-1.0
 21
0.166666667
 31
0.0
  0
LINE
  5
A8
330
7C
100
AcDbEntity
  8
0
  6
CONTINUOUS
 62
     0
100
AcDbLine
 10
0.0
 20
0.0
 30
0.0
 11
-1.0
 21
-0.166666667
 31
0.0
  0
LINE
  5
A9
330
7C
100
AcDbEntity
  8
0
  6
CONTINUOUS
 62
     0
100
AcDbLine
 10
0.0
 20
0.0
 30
0.0
 11
-1.0
 21
0.083333333
 31
0.0
  0
LINE
  5
AA
330
7C
100
AcDbEntity
  8
0
  6
CONTINUOUS
 62
     0
100
AcDbLine
 10
0.0
 20
0.0
 30
0.0
 11
-1.0
 21
-0.083333333
 31
0.0
  0
LINE
  5
AB
330
7C
100
AcDbEntity
  8
0
  6
CONTINUOUS
 62
     0
100
AcDbLine
 10
-1.0
 20
0.166666667
 30
0.0
 11
-1.0
 21
-0.166666667
 31
0.0
  0
ENDBLK
  5
7E
330
7C
100
AcDbEntity
  8
0
100
AcDbBlockEnd
  0
BLOCK
  5
80
330
7F
100
AcDbEntity
  8
0
100
AcDbBlockBegin
  2
EX_BCIR
 70
     0
 10
0.0
 20
0.0
 30
0.0
  3
EX_BCIR
  1

  0
LINE
  5
AC
330
7F
100
AcDbEntity
  8
0
  6
CONTINUOUS
 62
     0
100
AcDbLine
 10
0.0
 20
0.0
 30
0.0
 11
-1.0
 21
0.0
 31
0.0
  0
CIRCLE
  5
AD
330
7F
100
AcDbEntity
  8
0
  6
CONTINUOUS
 62
     0
100
AcDbCircle
 10
0.0
 20
0.0
 30
0.0
 40
0.5
  0
CIRCLE
  5
AE
330
7F
100
AcDbEntity
  8
0
  6
CONTINUOUS
 62
     0
100
AcDbCircle
 10
0.0
 20
0.0
 30
0.0
 40
0.25
  0
ENDBLK
  5
81
330
7F
100
AcDbEntity
  8
0
100
AcDbBlockEnd
  0
BLOCK
  5
83
330
82
100
AcDbEntity
  8
0
100
AcDbBlockBegin
  2
EX_RCIVIL
 70
     0
 10
0.0
 20
0.0
 30
0.0
  3
EX_RCIVIL
  1

  0
LINE
  5
AF
330
82
100
AcDbEntity
  8
0
  6
CONTINUOUS
 62
     0
100
AcDbLine
 10
0.0
 20
0.0
 30
0.0
 11
-1.0
 21
0.0
 31
0.0
  0
LINE
  5
B0
330
82
100
AcDbEntity
  8
0
  6
CONTINUOUS
 62
     0
100
AcDbLine
 10
-1.0
 20
-0.25
 30
0.0
 11
0.0
 21
-0.25
 31
0.0
  0
LINE
  5
B1
330
82
100
AcDbEntity
  8
0
  6
CONTINUOUS
 62
     0
100
AcDbLine
 10
-1.0
 20
-0.125
 30
0.0
 11
0.0
 21
-0.125
 31
0.0
  0
ENDBLK
  5
84
330
82
100
AcDbEntity
  8
0
100
AcDbBlockEnd
  0
BLOCK
  5
86
330
85
100
AcDbEntity
  8
0
100
AcDbBlockBegin
  2
EX_SLANT
 70
     0
 10
0.0
 20
0.0
 30
0.0
  3
EX_SLANT
  1

  0
LINE
  5
B2
330
85
100
AcDbEntity
  8
0
  6
CONTINUOUS
 62
     0
100
AcDbLine
 10
0.0
 20
0.0
 30
0.0
 11
-1.0
 21
0.0
 31
0.0
  0
LINE
  5
B3
330
85
100
AcDbEntity
  8
0
  6
CONTINUOUS
 62
     0
100
AcDbLine
 10
0.707106781
 20
0.707106781
 30
0.0
 11
-0.707106781
 21
-0.707106781
 31
0.0
  0
ENDBLK
  5
87
330
85
100
AcDbEntity
  8
0
100
AcDbBlockEnd
  0
BLOCK
  5
89
330
88
100
AcDbEntity
  8
0
100
AcDbBlockBegin
  2
EX_NONE
 70
     0
 10
0.0
 20
0.0
 30
0.0
  3
EX_NONE
  1

  0
LINE
  5
B4
330
88
100
AcDbEntity
  8
0
  6
CONTINUOUS
 62
     0
100
AcDbLine
 10
0.0
 20
0.0
 30
0.0
 11
-1.0
 21
0.0
 31
0.0
  0
ENDBLK
  5
8A
330
88
100
AcDbEntity
  8
0
100
AcDbBlockEnd
  0
BLOCK
  5
8C
330
8B
100
AcDbEntity
  8
0
100
AcDbBlockBegin
  2
EX_CIVIL
 70
     0
 10
0.0
 20
0.0
 30
0.0
  3
EX_CIVIL
  1

  0
LINE
  5
B5
330
8B
100
AcDbEntity
  8
0
  6
CONTINUOUS
 62
     0
100
AcDbLine
 10
0.0
 20
0.0
 30
0.0
 11
-1.0
 21
0.0
 31
0.0
  0
LINE
  5
B6
330
8B
100
AcDbEntity
  8
0
  6
CONTINUOUS
 62
     0
100
AcDbLine
 10
-1.0
 20
0.25
 30
0.0
 11
0.0
 21
0.25
 31
0.0
  0
LINE
  5
B7
330
8B
100
AcDbEntity
  8
0
  6
CONTINUOUS
 62
     0
100
AcDbLine
 10
-1.0
 20
0.125
 30
0.0
 11
0.0
 21
0.125
 31
0.0
  0
ENDBLK
  5
8D
330
8B
100
AcDbEntity
  8
0
100
AcDbBlockEnd
  0
BLOCK
  5
8F
330
8E
100
AcDbEntity
  8
0
100
AcDbBlockBegin
  2
EX_WCIR
 70
     0
 10
0.0
 20
0.0
 30
0.0
  3
EX_WCIR
  1

  0
LINE
  5
B8
330
8E
100
AcDbEntity
  8
0
  6
CONTINUOUS
 62
     0
100
AcDbLine
 10
0.0
 20
0.0
 30
0.0
 11
-1.0
 21
0.0
 31
0.0
  0
CIRCLE
  5
B9
330
8E
100
AcDbEntity
  8
0
  6
CONTINUOUS
 62
     0
100
AcDbCircle
 10
0.0
 20
0.0
 30
0.0
 40
0.5
  0
ENDBLK
  5
90
330
8E
100
AcDbEntity
  8
0
100
AcDbBlockEnd
  0
BLOCK
  5
92
330
91
100
AcDbEntity
  8
0
100
AcDbBlockBegin
  2
EX_WCIR2
 70
     0
 10
0.0
 20
0.0
 30
0.0
  3
EX_WCIR2
  1

  0
LINE
  5
BA
330
91
100
AcDbEntity
  8
0
  6
CONTINUOUS
 62
     0
100
AcDbLine
 10
-0.5
 20
0.0
 30
0.0
 11
-1.0
 21
0.0
 31
0.0
  0
CIRCLE
  5
BB
330
91
100
AcDbEntity
  8
0
  6
CONTINUOUS
 62
     0
100
AcDbCircle
 10
0.0
 20
0.0
 30
0.0
 40
0.5
  0
ENDBLK
  5
93
330
91
100
AcDbEntity
  8
0
100
AcDbBlockEnd
  0
BLOCK
  5
95
330
94
100
AcDbEntity
  8
0
100
AcDbBlockBegin
  2
EX_WNORM
 70
     0
 10
0.0
 20
0.0
 30
0.0
  3
EX_WNORM
  1

  0
LINE
  5
BC
330
94
100
AcDbEntity
  8
0
  6
CONTINUOUS
 62
     0
100
AcDbLine
 10
-1.0
 20
0.0
 30
0.0
 11
-1.0
 21
0.0
 31
0.0
  0
LINE
  5
BD
330
94
100
AcDbEntity
  8
0
  6
CONTINUOUS
 62
     0
100
AcDbLine
 10
0.0
 20
0.0
 30
0.0
 11
-1.0
 21
0.166666667
 31
0.0
  0
LINE
  5
BE
330
94
100
AcDbEntity
  8
0
  6
CONTINUOUS
 62
     0
100
AcDbLine
 10
0.0
 20
0.0
 30
0.0
 11
-1.0
 21
-0.166666667
 31
0.0
  0
LINE
  5
BF
330
94
100
AcDbEntity
  8
0
  6
CONTINUOUS
 62
     0
100
AcDbLine
 10
-1.0
 20
0.166666667
 30
0.0
 11
-1.0
 21
-0.166666667
 31
0.0
  0
ENDBLK
  5
96
330
94
100
AcDbEntity
  8
0
100
AcDbBlockEnd
  0
BLOCK
  5
98
330
97
100
AcDbEntity
  8
0
100
AcDbBlockBegin
  2
EX_NNORM
 70
     0
 10
0.0
 20
0.0
 30
0.0
  3
EX_NNORM
  1

  0
LINE
  5
C0
330
97
100
AcDbEntity
  8
0
  6
CONTINUOUS
 62
     0
100
AcDbLine
 10
0.0
 20
0.0
 30
0.0
 11
-1.0
 21
0.0
 31
0.0
  0
LINE
  5
C1
330
97
100
AcDbEntity
  8
0
  6
CONTINUOUS
 62
     0
100
AcDbLine
 10
0.0
 20
0.0
 30
0.0
 11
-1.0
 21
0.166666667
 31
0.0
  0
LINE
  5
C2
330
97
100
AcDbEntity
  8
0
  6
CONTINUOUS
 62
     0
100
AcDbLine
 10
0.0
 20
0.0
 30
0.0
 11
-1.0
 21
-0.166666667
 31
0.0
  0
LINE
  5
C3
330
97
100
AcDbEntity
  8
0
  6
CONTINUOUS
 62
     0
100
AcDbLine
 10
-1.0
 20
0.166666667
 30
0.0
 11
-1.0
 21
-0.166666667
 31
0.0
  0
ENDBLK
  5
99
330
97
100
AcDbEntity
  8
0
100
AcDbBlockEnd
  0
BLOCK
  5
9B
330
9A
100
AcDbEntity
  8
0
100
AcDbBlockBegin
  2
EX_BBOX
 70
     0
 10
0.0
 20
0.0
 30
0.0
  3
EX_BBOX
  1

  0
LINE
  5
C4
330
9A
100
AcDbEntity
  8
0
  6
CONTINUOUS
 62
     0
100
AcDbLine
 10
0.0
 20
0.0
 30
0.0
 11
-1.0
 21
0.0
 31
0.0
  0
LINE
  5
C5
330
9A
100
AcDbEntity
  8
0
  6
CONTINUOUS
 62
     0
100
AcDbLine
 10
-0.5
 20
0.5
 30
0.0
 11
0.5
 21
0.5
 31
0.0
  0
LINE
  5
C6
330
9A
100
AcDbEntity
  8
0
  6
CONTINUOUS
 62
     0
100
AcDbLine
 10
0.5
 20
0.5
 30
0.0
 11
0.5
 21
-0.5
 31
0.0
  0
LINE
  5
C7
330
9A
100
AcDbEntity
  8
0
  6
CONTINUOUS
 62
     0
100
AcDbLine
 10
0.5
 20
-0.5
 30
0.0
 11
-0.5
 21
-0.5
 31
0.0
  0
LINE
  5
C8
330
9A
100
AcDbEntity
  8
0
  6
CONTINUOUS
 62
     0
100
AcDbLine
 10
-0.5
 20
-0.5
 30
0.0
 11
-0.5
 21
0.5
 31
0.0
  0
LINE
  5
C9
330
9A
100
AcDbEntity
  8
0
  6
CONTINUOUS
 62
     0
100
AcDbLine
 10
-0.25
 20
0.25
 30
0.0
 11
0.25
 21
0.25
 31
0.0
  0
LINE
  5
CA
330
9A
100
AcDbEntity
  8
0
  6
CONTINUOUS
 62
     0
100
AcDbLine
 10
0.25
 20
0.25
 30
0.0
 11
0.25
 21
-0.25
 31
0.0
  0
LINE
  5
CB
330
9A
100
AcDbEntity
  8
0
  6
CONTINUOUS
 62
     0
100
AcDbLine
 10
0.25
 20
-0.25
 30
0.0
 11
-0.25
 21
-0.25
 31
0.0
  0
LINE
  5
CC
330
9A
100
AcDbEntity
  8
0
  6
CONTINUOUS
 62
     0
100
AcDbLine
 10
-0.25
 20
-0.25
 30
0.0
 11
-0.25
 21
0.25
 31
0.0
  0
ENDBLK
  5
9C
330
9A
100
AcDbEntity
  8
0
100
AcDbBlockEnd
  0
BLOCK
  5
9E
330
9D
100
AcDbEntity
  8
0
100
AcDbBlockBegin
  2
EX_WBOX
 70
     0
 10
0.0
 20
0.0
 30
0.0
  3
EX_WBOX
  1

  0
LINE
  5
CD
330
9D
100
AcDbEntity
  8
0
  6
CONTINUOUS
 62
     0
100
AcDbLine
 10
-0.5
 20
0.0
 30
0.0
 11
-1.0
 21
0.0
 31
0.0
  0
LINE
  5
CE
330
9D
100
AcDbEntity
  8
0
  6
CONTINUOUS
 62
     0
100
AcDbLine
 10
-0.5
 20
0.5
 30
0.0
 11
0.5
 21
0.5
 31
0.0
  0
LINE
  5
CF
330
9D
100
AcDbEntity
  8
0
  6
CONTINUOUS
 62
     0
100
AcDbLine
 10
0.5
 20
0.5
 30
0.0
 11
0.5
 21
-0.5
 31
0.0
  0
LINE
  5
D0
330
9D
100
AcDbEntity
  8
0
  6
CONTINUOUS
 62
     0
100
AcDbLine
 10
0.5
 20
-0.5
 30
0.0
 11
-0.5
 21
-0.5
 31
0.0
  0
LINE
  5
D1
330
9D
100
AcDbEntity
  8
0
  6
CONTINUOUS
 62
     0
100
AcDbLine
 10
-0.5
 20
-0.5
 30
0.0
 11
-0.5
 21
0.5
 31
0.0
  0
ENDBLK
  5
9F
330
9D
100
AcDbEntity
  8
0
100
AcDbBlockEnd
  0
BLOCK
  5
A1
330
A0
100
AcDbEntity
  8
0
100
AcDbBlockBegin
  2
EX_INTEGRAL
 70
     0
 10
0.0
 20
0.0
 30
0.0
  3
EX_INTEGRAL
  1

  0
LINE
  5
D2
330
A0
100
AcDbEntity
  8
0
  6
CONTINUOUS
 62
     0
100
AcDbLine
 10
0.0
 20
0.0
 30
0.0
 11
-1.0
 21
0.0
 31
0.0
  0
ARC
  5
D3
330
A0
100
AcDbEntity
  8
0
  6
CONTINUOUS
 62
     0
100
AcDbCircle
 10
0.542115
 20
0.164992
 30
0.0
 40
0.56667
100
AcDbArc
 50
73.07249033629006
 51
196.9275130221199
  0
ARC
  5
D4
330
A0
100
AcDbEntity
  8
0
  6
CONTINUOUS
 62
     0
100
AcDbCircle
 10
-0.542115
 20
-0.164992
 30
0.0
 40
0.56667
100
AcDbArc
 50
253.0724869220464
 51
16.9275130559125
  0
ENDBLK
  5
A2
330
A0
100
AcDbEntity
  8
0
100
AcDbBlockEnd
  0
BLOCK
  5
345
330
344
100
AcDbEntity
  8
0
100
AcDbBlockBegin
  2
*D15
 70
     1
 10
0.0
 20
0.0
 30
0.0
  3
*D15
  1

  0
LINE
  5
347
330
344
100
AcDbEntity
  8
LAY-20
  6
CONTINUOUS
 62
     4
100
AcDbLine
 10
370.0
 20
403.3107844172
 30
0.0
 11
370.0
 21
527.5
 31
0.0
  0
LINE
  5
348
330
344
100
AcDbEntity
  8
LAY-20
  6
CONTINUOUS
 62
     4
100
AcDbLine
 10
879.9999999999
 20
403.3107844172
 30
0.0
 11
879.9999999999
 21
527.5
 31
0.0
  0
LINE
  5
349
330
344
100
AcDbEntity
  8
LAY-20
  6
CONTINUOUS
 62
     4
100
AcDbLine
 10
385.0
 20
520.0
 30
0.0
 11
864.9999999999
 21
520.0
 31
0.0
  0
INSERT
  5
34A
330
344
100
AcDbEntity
  8
LAY-20
 62
     4
100
AcDbBlockReference
  2
EX_BNORM
 10
370.0
 20
520.0
 30
0.0
 41
15.0
 42
15.0
 43
15.0
 50
180.0
  0
INSERT
  5
34B
330
344
100
AcDbEntity
  8
LAY-20
 62
     4
100
AcDbBlockReference
  2
EX_BNORM
 10
879.9999999999
 20
520.0
 30
0.0
 41
15.0
 42
15.0
 43
15.0
  0
MTEXT
  5
34C
330
344
100
AcDbEntity
  8
LAY-20
 62
     7
100
AcDbMText
 10
624.99999999995
 20
532.5
 30
0.0
 40
15.590552
 41
0.0
 71
     5
 72
     1
  1
%%c510
  7
EXCADDIM1
  0
POINT
  5
34D
330
344
100
AcDbEntity
  8
DEFPOINTS
 62
     0
100
AcDbPoint
 10
370.0
 20
395.8107844172
 30
0.0
  0
POINT
  5
34E
330
344
100
AcDbEntity
  8
DEFPOINTS
 62
     0
100
AcDbPoint
 10
879.9999999999
 20
395.8107844172
 30
0.0
  0
POINT
  5
34F
330
344
100
AcDbEntity
  8
DEFPOINTS
 62
     0
100
AcDbPoint
 10
879.9999999999
 20
520.0
 30
0.0
  0
ENDBLK
  5
346
330
344
100
AcDbEntity
  8
0
100
AcDbBlockEnd
  0
BLOCK
  5
352
330
351
100
AcDbEntity
  8
0
100
AcDbBlockBegin
  2
*D16
 70
     1
 10
0.0
 20
0.0
 30
0.0
  3
*D16
  1

  0
LINE
  5
354
330
351
100
AcDbEntity
  8
LAY-20
  6
CONTINUOUS
 62
     4
100
AcDbLine
 10
385.0
 20
403.3107844172
 30
0.0
 11
385.0
 21
492.5
 31
0.0
  0
LINE
  5
355
330
351
100
AcDbEntity
  8
LAY-20
  6
CONTINUOUS
 62
     4
100
AcDbLine
 10
865.0
 20
403.3107844172
 30
0.0
 11
865.0
 21
492.5
 31
0.0
  0
LINE
  5
356
330
351
100
AcDbEntity
  8
LAY-20
  6
CONTINUOUS
 62
     4
100
AcDbLine
 10
400.0
 20
485.0
 30
0.0
 11
850.0
 21
485.0
 31
0.0
  0
INSERT
  5
357
330
351
100
AcDbEntity
  8
LAY-20
 62
     4
100
AcDbBlockReference
  2
EX_BNORM
 10
385.0
 20
485.0
 30
0.0
 41
15.0
 42
15.0
 43
15.0
 50
180.0
  0
INSERT
  5
358
330
351
100
AcDbEntity
  8
LAY-20
 62
     4
100
AcDbBlockReference
  2
EX_BNORM
 10
865.0
 20
485.0
 30
0.0
 41
15.0
 42
15.0
 43
15.0
  0
MTEXT
  5
359
330
351
100
AcDbEntity
  8
LAY-20
 62
     7
100
AcDbMText
 10
625.0
 20
497.5
 30
0.0
 40
15.590552
 41
0.0
 71
     5
 72
     1
  1
%%c480
  7
EXCADDIM1
  0
POINT
  5
35A
330
351
100
AcDbEntity
  8
DEFPOINTS
 62
     0
100
AcDbPoint
 10
385.0
 20
395.8107844172
 30
0.0
  0
POINT
  5
35B
330
351
100
AcDbEntity
  8
DEFPOINTS
 62
     0
100
AcDbPoint
 10
865.0
 20
395.8107844172
 30
0.0
  0
POINT
  5
35C
330
351
100
AcDbEntity
  8
DEFPOINTS
 62
     0
100
AcDbPoint
 10
865.0
 20
485.0
 30
0.0
  0
ENDBLK
  5
353
330
351
100
AcDbEntity
  8
0
100
AcDbBlockEnd
  0
BLOCK
  5
35F
330
35E
100
AcDbEntity
  8
0
100
AcDbBlockBegin
  2
*D17
 70
     1
 10
0.0
 20
0.0
 30
0.0
  3
*D17
  1

  0
LINE
  5
361
330
35E
100
AcDbEntity
  8
LAY-20
  6
CONTINUOUS
 62
     4
100
AcDbLine
 10
400.0
 20
345.6107844172
 30
0.0
 11
400.0
 21
283.3107844172
 31
0.0
  0
LINE
  5
362
330
35E
100
AcDbEntity
  8
LAY-20
  6
CONTINUOUS
 62
     4
100
AcDbLine
 10
850.0
 20
345.6107844172
 30
0.0
 11
850.0
 21
283.3107844172
 31
0.0
  0
LINE
  5
363
330
35E
100
AcDbEntity
  8
LAY-20
  6
CONTINUOUS
 62
     4
100
AcDbLine
 10
415.0
 20
290.8107844172
 30
0.0
 11
835.0
 21
290.8107844172
 31
0.0
  0
INSERT
  5
364
330
35E
100
AcDbEntity
  8
LAY-20
 62
     4
100
AcDbBlockReference
  2
EX_BNORM
 10
400.0
 20
290.8107844172
 30
0.0
 41
15.0
 42
15.0
 43
15.0
 50
180.0
  0
INSERT
  5
365
330
35E
100
AcDbEntity
  8
LAY-20
 62
     4
100
AcDbBlockReference
  2
EX_BNORM
 10
850.0
 20
290.8107844172
 30
0.0
 41
15.0
 42
15.0
 43
15.0
  0
MTEXT
  5
366
330
35E
100
AcDbEntity
  8
LAY-20
 62
     7
100
AcDbMText
 10
625.0
 20
303.3107844172
 30
0.0
 40
15.590552
 41
0.0
 71
     5
 72
     1
  1
%%c450
  7
EXCADDIM1
  0
POINT
  5
367
330
35E
100
AcDbEntity
  8
DEFPOINTS
 62
     0
100
AcDbPoint
 10
400.0
 20
353.1107844172
 30
0.0
  0
POINT
  5
368
330
35E
100
AcDbEntity
  8
DEFPOINTS
 62
     0
100
AcDbPoint
 10
850.0
 20
353.1107844172
 30
0.0
  0
POINT
  5
369
330
35E
100
AcDbEntity
  8
DEFPOINTS
 62
     0
100
AcDbPoint
 10
850.0
 20
290.8107844172
 30
0.0
  0
ENDBLK
  5
360
330
35E
100
AcDbEntity
  8
0
100
AcDbBlockEnd
  0
BLOCK
  5
36C
330
36B
100
AcDbEntity
  8
0
100
AcDbBlockBegin
  2
*D18
 70
     1
 10
0.0
 20
0.0
 30
0.0
  3
*D18
  1

  0
LINE
  5
36E
330
36B
100
AcDbEntity
  8
LAY-20
  6
CONTINUOUS
 62
     4
100
AcDbLine
 10
357.5
 20
333.3107844172
 30
0.0
 11
357.5
 21
248.3107844172
 31
0.0
  0
LINE
  5
36F
330
36B
100
AcDbEntity
  8
LAY-20
  6
CONTINUOUS
 62
     4
100
AcDbLine
 10
372.5
 20
255.8107844172
 30
0.0
 11
877.4999999999
 21
255.8107844172
 31
0.0
  0
INSERT
  5
370
330
36B
100
AcDbEntity
  8
LAY-20
 62
     4
100
AcDbBlockReference
  2
EX_BNORM
 10
357.5
 20
255.8107844172
 30
0.0
 41
15.0
 42
15.0
 43
15.0
 50
180.0
  0
INSERT
  5
371
330
36B
100
AcDbEntity
  8
LAY-20
 62
     4
100
AcDbBlockReference
  2
EX_NONE
 10
892.4999999999
 20
255.8107844172
 30
0.0
 41
15.0
 42
15.0
 43
15.0
  0
MTEXT
  5
372
330
36B
100
AcDbEntity
  8
LAY-20
 62
     7
100
AcDbMText
 10
624.99999999995
 20
268.3107844172
 30
0.0
 40
15.590552
 41
0.0
 71
     5
 72
     1
  1
□535
  7
EXCADDIM1
  0
POINT
  5
373
330
36B
100
AcDbEntity
  8
DEFPOINTS
 62
     0
100
AcDbPoint
 10
357.5
 20
340.8107844172
 30
0.0
  0
POINT
  5
374
330
36B
100
AcDbEntity
  8
DEFPOINTS
 62
     0
100
AcDbPoint
 10
892.4999999999
 20
255.8107844172
 30
0.0
  0
POINT
  5
375
330
36B
100
AcDbEntity
  8
DEFPOINTS
 62
     0
100
AcDbPoint
 10
892.4999999999
 20
255.8107844172
 30
0.0
  0
ENDBLK
  5
36D
330
36B
100
AcDbEntity
  8
0
100
AcDbBlockEnd
  0
BLOCK
  5
378
330
377
100
AcDbEntity
  8
0
100
AcDbBlockBegin
  2
*D19
 70
     1
 10
0.0
 20
0.0
 30
0.0
  3
*D19
  1

  0
LINE
  5
37A
330
377
100
AcDbEntity
  8
LAY-20
  6
CONTINUOUS
 62
     4
100
AcDbLine
 10
887.4999999999
 20
395.8107844172
 30
0.0
 11
1041.0
 21
395.8107844172
 31
0.0
  0
LINE
  5
37B
330
377
100
AcDbEntity
  8
LAY-20
  6
CONTINUOUS
 62
     4
100
AcDbLine
 10
992.1999999999
 20
340.8107844172
 30
0.0
 11
1041.0
 21
340.8107844172
 31
0.0
  0
LINE
  5
37C
330
377
100
AcDbEntity
  8
LAY-20
  6
CONTINUOUS
 62
     4
100
AcDbLine
 10
1033.5
 20
380.8107844172
 30
0.0
 11
1033.5
 21
355.8107844172
 31
0.0
  0
INSERT
  5
37D
330
377
100
AcDbEntity
  8
LAY-20
 62
     4
100
AcDbBlockReference
  2
EX_BNORM
 10
1033.5
 20
395.8107844172
 30
0.0
 41
15.0
 42
15.0
 43
15.0
 50
90.0
  0
INSERT
  5
37E
330
377
100
AcDbEntity
  8
LAY-20
 62
     4
100
AcDbBlockReference
  2
EX_BNORM
 10
1033.5
 20
340.8107844172
 30
0.0
 41
15.0
 42
15.0
 43
15.0
 50
270.0
  0
MTEXT
  5
37F
330
377
100
AcDbEntity
  8
LAY-20
 62
     7
100
AcDbMText
 10
1021.0
 20
368.3107844172
 30
0.0
 40
15.590552
 41
0.0
 71
     5
 72
     1
  1
55
  7
EXCADDIM1
 11
0.0
 21
1.0
 31
0.0
  0
POINT
  5
380
330
377
100
AcDbEntity
  8
DEFPOINTS
 62
     0
100
AcDbPoint
 10
879.9999999999
 20
395.8107844172
 30
0.0
  0
POINT
  5
381
330
377
100
AcDbEntity
  8
DEFPOINTS
 62
     0
100
AcDbPoint
 10
984.6999999999
 20
340.8107844172
 30
0.0
  0
POINT
  5
382
330
377
100
AcDbEntity
  8
DEFPOINTS
 62
     0
100
AcDbPoint
 10
1033.5
 20
340.8107844172
 30
0.0
  0
ENDBLK
  5
379
330
377
100
AcDbEntity
  8
0
100
AcDbBlockEnd
  0
ENDSEC
  0
SECTION
  2
ENTITIES
  0
LINE
  5
D5
330
1F
100
AcDbEntity
  8
LAY-10
  6
CONTINUOUS
 62
     7
100
AcDbLine
 10
571.7727608763008
 20
1045.090454557
 30
0.0
 11
600.7641389049008
 21
1074.081832586
 31
0.0
  0
LINE
  5
D6
330
1F
100
AcDbEntity
  8
LAY-10
  6
CONTINUOUS
 62
     7
100
AcDbLine
 10
571.7727608763008
 20
1045.090454557
 30
0.0
 11
583.7935761565009
 21
1033.069639277
 31
0.0
  0
LINE
  5
D7
330
1F
100
AcDbEntity
  8
LAY-10
  6
CONTINUOUS
 62
     7
100
AcDbLine
 10
583.7935761565009
 20
1033.069639277
 30
0.0
 11
612.7849541851009
 21
1062.061017306
 31
0.0
  0
LINE
  5
D8
330
1F
100
AcDbEntity
  8
LAY-10
  6
CONTINUOUS
 62
     7
100
AcDbLine
 10
612.7849541851009
 20
1062.061017306
 30
0.0
 11
609.2494202792009
 21
1065.596551211
 31
0.0
  0
LINE
  5
D9
330
1F
100
AcDbEntity
  8
LAY-10
  6
CONTINUOUS
 62
     7
100
AcDbLine
 10
600.7641389049008
 20
1074.081832586
 30
0.0
 11
604.2996728109008
 21
1070.54629868
 31
0.0
  0
LINE
  5
DA
330
1F
100
AcDbEntity
  8
LAY-10
  6
CONTINUOUS
 62
     7
100
AcDbLine
 10
583.7935761565009
 20
1040.140707089
 30
0.0
 11
578.8438286881009
 21
1045.090454557
 31
0.0
  0
LINE
  5
DB
330
1F
100
AcDbEntity
  8
LAY-10
  6
CONTINUOUS
 62
     7
100
AcDbLine
 10
604.2996728109008
 20
1070.54629868
 30
0.0
 11
578.8438286881009
 21
1045.090454557
 31
0.0
  0
LINE
  5
DC
330
1F
100
AcDbEntity
  8
LAY-10
  6
CONTINUOUS
 62
     7
100
AcDbLine
 10
583.7935761565009
 20
1040.140707089
 30
0.0
 11
609.2494202792009
 21
1065.596551211
 31
0.0
  0
LINE
  5
DD
330
1F
100
AcDbEntity
  8
LAY-10
  6
CONTINUOUS
 62
     7
100
AcDbLine
 10
537.8316353793009
 20
1045.090454557
 30
0.0
 11
566.8230134080009
 21
1074.081832586
 31
0.0
  0
LINE
  5
DE
330
1F
100
AcDbEntity
  8
LAY-10
  6
CONTINUOUS
 62
     7
100
AcDbLine
 10
537.8316353793009
 20
1045.090454557
 30
0.0
 11
549.8524506595007
 21
1033.069639277
 31
0.0
  0
LINE
  5
DF
330
1F
100
AcDbEntity
  8
LAY-10
  6
CONTINUOUS
 62
     7
100
AcDbLine
 10
549.8524506595007
 20
1033.069639277
 30
0.0
 11
578.8438286881009
 21
1062.061017306
 31
0.0
  0
LINE
  5
E0
330
1F
100
AcDbEntity
  8
LAY-10
  6
CONTINUOUS
 62
     7
100
AcDbLine
 10
578.8438286881009
 20
1062.061017306
 30
0.0
 11
575.3082947822008
 21
1065.596551211
 31
0.0
  0
LINE
  5
E1
330
1F
100
AcDbEntity
  8
LAY-10
  6
CONTINUOUS
 62
     7
100
AcDbLine
 10
566.8230134080009
 20
1074.081832586
 30
0.0
 11
570.3585473139009
 21
1070.54629868
 31
0.0
  0
LINE
  5
E2
330
1F
100
AcDbEntity
  8
LAY-10
  6
CONTINUOUS
 62
     7
100
AcDbLine
 10
549.8524506595007
 20
1040.140707089
 30
0.0
 11
544.9027031912008
 21
1045.090454557
 31
0.0
  0
LINE
  5
E3
330
1F
100
AcDbEntity
  8
LAY-10
  6
CONTINUOUS
 62
     7
100
AcDbLine
 10
570.3585473139009
 20
1070.54629868
 30
0.0
 11
544.9027031912008
 21
1045.090454557
 31
0.0
  0
LINE
  5
E4
330
1F
100
AcDbEntity
  8
LAY-10
  6
CONTINUOUS
 62
     7
100
AcDbLine
 10
549.8524506595007
 20
1040.140707089
 30
0.0
 11
575.3082947822008
 21
1065.596551211
 31
0.0
  0
LINE
  5
E5
330
1F
100
AcDbEntity
  8
LAY-10
  6
CONTINUOUS
 62
     7
100
AcDbLine
 10
503.890509882401
 20
1045.090454557
 30
0.0
 11
532.8818879110008
 21
1074.081832586
 31
0.0
  0
LINE
  5
E6
330
1F
100
AcDbEntity
  8
LAY-10
  6
CONTINUOUS
 62
     7
100
AcDbLine
 10
503.890509882401
 20
1045.090454557
 30
0.0
 11
515.9113251625009
 21
1033.069639277
 31
0.0
  0
LINE
  5
E7
330
1F
100
AcDbEntity
  8
LAY-10
  6
CONTINUOUS
 62
     7
100
AcDbLine
 10
515.9113251625009
 20
1033.069639277
 30
0.0
 11
544.9027031912008
 21
1062.061017306
 31
0.0
  0
LINE
  5
E8
330
1F
100
AcDbEntity
  8
LAY-10
  6
CONTINUOUS
 62
     7
100
AcDbLine
 10
544.9027031912008
 20
1062.061017306
 30
0.0
 11
541.3671692853007
 21
1065.596551211
 31
0.0
  0
LINE
  5
E9
330
1F
100
AcDbEntity
  8
LAY-10
  6
CONTINUOUS
 62
     7
100
AcDbLine
 10
532.8818879110008
 20
1074.081832586
 30
0.0
 11
536.4174218170009
 21
1070.54629868
 31
0.0
  0
LINE
  5
EA
330
1F
100
AcDbEntity
  8
LAY-10
  6
CONTINUOUS
 62
     7
100
AcDbLine
 10
515.9113251625009
 20
1040.140707089
 30
0.0
 11
510.9615776942009
 21
1045.090454557
 31
0.0
  0
LINE
  5
EB
330
1F
100
AcDbEntity
  8
LAY-10
  6
CONTINUOUS
 62
     7
100
AcDbLine
 10
536.4174218170009
 20
1070.54629868
 30
0.0
 11
510.9615776942009
 21
1045.090454557
 31
0.0
  0
LINE
  5
EC
330
1F
100
AcDbEntity
  8
LAY-10
  6
CONTINUOUS
 62
     7
100
AcDbLine
 10
515.9113251625009
 20
1040.140707089
 30
0.0
 11
541.3671692853007
 21
1065.596551211
 31
0.0
  0
LINE
  5
ED
330
1F
100
AcDbEntity
  8
LAY-10
  6
CONTINUOUS
 62
     7
100
AcDbLine
 10
617.7347016534009
 20
1067.010764774
 30
0.0
 11
588.7433236248008
 21
1096.002142802
 31
0.0
  0
LINE
  5
EE
330
1F
100
AcDbEntity
  8
LAY-10
  6
CONTINUOUS
 62
     7
100
AcDbLine
 10
617.7347016534009
 20
1067.010764774
 30
0.0
 11
629.755516933601
 21
1079.031580054
 31
0.0
  0
LINE
  5
EF
330
1F
100
AcDbEntity
  8
LAY-10
  6
CONTINUOUS
 62
     7
100
AcDbLine
 10
600.7641389049008
 20
1108.022958083
 30
0.0
 11
597.2286049990007
 21
1104.487424177
 31
0.0
  0
LINE
  5
F0
330
1F
100
AcDbEntity
  8
LAY-10
  6
CONTINUOUS
 62
     7
100
AcDbLine
 10
588.7433236248008
 20
1096.002142802
 30
0.0
 11
592.2788575307007
 21
1099.537676708
 31
0.0
  0
LINE
  5
F1
330
1F
100
AcDbEntity
  8
LAY-10
  6
CONTINUOUS
 62
     7
100
AcDbLine
 10
622.6844491217008
 20
1079.031580054
 30
0.0
 11
617.7347016534009
 21
1074.081832586
 31
0.0
  0
LINE
  5
F2
330
1F
100
AcDbEntity
  8
LAY-10
  6
CONTINUOUS
 62
     7
100
AcDbLine
 10
592.2788575307007
 20
1099.537676708
 30
0.0
 11
617.7347016534009
 21
1074.081832586
 31
0.0
  0
LINE
  5
F3
330
1F
100
AcDbEntity
  8
LAY-10
  6
CONTINUOUS
 62
     7
100
AcDbLine
 10
622.6844491217008
 20
1079.031580054
 30
0.0
 11
597.2286049990007
 21
1104.487424177
 31
0.0
  0
LINE
  5
F4
330
1F
100
AcDbEntity
  8
LAY-10
  6
CONTINUOUS
 62
     7
100
AcDbLine
 10
583.7935761565009
 20
1067.010764774
 30
0.0
 11
554.8021981278009
 21
1096.002142802
 31
0.0
  0
LINE
  5
F5
330
1F
100
AcDbEntity
  8
LAY-10
  6
CONTINUOUS
 62
     7
100
AcDbLine
 10
583.7935761565009
 20
1067.010764774
 30
0.0
 11
595.8143914366009
 21
1079.031580054
 31
0.0
  0
LINE
  5
F6
330
1F
100
AcDbEntity
  8
LAY-10
  6
CONTINUOUS
 62
     7
100
AcDbLine
 10
595.8143914366009
 20
1079.031580054
 30
0.0
 11
566.8230134080009
 21
1108.022958083
 31
0.0
  0
LINE
  5
F7
330
1F
100
AcDbEntity
  8
LAY-10
  6
CONTINUOUS
 62
     7
100
AcDbLine
 10
566.8230134080009
 20
1108.022958083
 30
0.0
 11
563.2874795020009
 21
1104.487424177
 31
0.0
  0
LINE
  5
F8
330
1F
100
AcDbEntity
  8
LAY-10
  6
CONTINUOUS
 62
     7
100
AcDbLine
 10
554.8021981278009
 20
1096.002142802
 30
0.0
 11
558.3377320337008
 21
1099.537676708
 31
0.0
  0
LINE
  5
F9
330
1F
100
AcDbEntity
  8
LAY-10
  6
CONTINUOUS
 62
     7
100
AcDbLine
 10
588.7433236248008
 20
1079.031580054
 30
0.0
 11
583.7935761565009
 21
1074.081832586
 31
0.0
  0
LINE
  5
FA
330
1F
100
AcDbEntity
  8
LAY-10
  6
CONTINUOUS
 62
     7
100
AcDbLine
 10
558.3377320337008
 20
1099.537676708
 30
0.0
 11
583.7935761565009
 21
1074.081832586
 31
0.0
  0
LINE
  5
FB
330
1F
100
AcDbEntity
  8
LAY-10
  6
CONTINUOUS
 62
     7
100
AcDbLine
 10
588.7433236248008
 20
1079.031580054
 30
0.0
 11
563.2874795020009
 21
1104.487424177
 31
0.0
  0
LINE
  5
FC
330
1F
100
AcDbEntity
  8
LAY-10
  6
CONTINUOUS
 62
     7
100
AcDbLine
 10
549.8524506595007
 20
1067.010764774
 30
0.0
 11
520.8610726309008
 21
1096.002142802
 31
0.0
  0
LINE
  5
FD
330
1F
100
AcDbEntity
  8
LAY-10
  6
CONTINUOUS
 62
     7
100
AcDbLine
 10
549.8524506595007
 20
1067.010764774
 30
0.0
 11
561.8732659397008
 21
1079.031580054
 31
0.0
  0
LINE
  5
FE
330
1F
100
AcDbEntity
  8
LAY-10
  6
CONTINUOUS
 62
     7
100
AcDbLine
 10
561.8732659397008
 20
1079.031580054
 30
0.0
 11
532.8818879110008
 21
1108.022958083
 31
0.0
  0
LINE
  5
FF
330
1F
100
AcDbEntity
  8
LAY-10
  6
CONTINUOUS
 62
     7
100
AcDbLine
 10
532.8818879110008
 20
1108.022958083
 30
0.0
 11
529.3463540051008
 21
1104.487424177
 31
0.0
  0
LINE
  5
100
330
1F
100
AcDbEntity
  8
LAY-10
  6
CONTINUOUS
 62
     7
100
AcDbLine
 10
520.8610726309008
 20
1096.002142802
 30
0.0
 11
524.3966065368008
 21
1099.537676708
 31
0.0
  0
LINE
  5
101
330
1F
100
AcDbEntity
  8
LAY-10
  6
CONTINUOUS
 62
     7
100
AcDbLine
 10
554.8021981278009
 20
1079.031580054
 30
0.0
 11
549.8524506595007
 21
1074.081832586
 31
0.0
  0
LINE
  5
102
330
1F
100
AcDbEntity
  8
LAY-10
  6
CONTINUOUS
 62
     7
100
AcDbLine
 10
524.3966065368008
 20
1099.537676708
 30
0.0
 11
549.8524506595007
 21
1074.081832586
 31
0.0
  0
LINE
  5
103
330
1F
100
AcDbEntity
  8
LAY-10
  6
CONTINUOUS
 62
     7
100
AcDbLine
 10
554.8021981278009
 20
1079.031580054
 30
0.0
 11
529.3463540051008
 21
1104.487424177
 31
0.0
  0
LINE
  5
104
330
1F
100
AcDbEntity
  8
LAY-10
  6
CONTINUOUS
 62
     7
100
AcDbLine
 10
515.9113251625009
 20
1067.010764774
 30
0.0
 11
486.9199471339008
 21
1096.002142802
 31
0.0
  0
LINE
  5
105
330
1F
100
AcDbEntity
  8
LAY-10
  6
CONTINUOUS
 62
     7
100
AcDbLine
 10
515.9113251625009
 20
1067.010764774
 30
0.0
 11
527.9321404427009
 21
1079.031580054
 31
0.0
  0
LINE
  5
106
330
1F
100
AcDbEntity
  8
LAY-10
  6
CONTINUOUS
 62
     7
100
AcDbLine
 10
527.9321404427009
 20
1079.031580054
 30
0.0
 11
498.9407624141007
 21
1108.022958083
 31
0.0
  0
LINE
  5
107
330
1F
100
AcDbEntity
  8
LAY-10
  6
CONTINUOUS
 62
     7
100
AcDbLine
 10
498.9407624141007
 20
1108.022958083
 30
0.0
 11
495.4052285081009
 21
1104.487424177
 31
0.0
  0
LINE
  5
108
330
1F
100
AcDbEntity
  8
LAY-10
  6
CONTINUOUS
 62
     7
100
AcDbLine
 10
486.9199471339008
 20
1096.002142802
 30
0.0
 11
490.4554810398009
 21
1099.537676708
 31
0.0
  0
LINE
  5
109
330
1F
100
AcDbEntity
  8
LAY-10
  6
CONTINUOUS
 62
     7
100
AcDbLine
 10
520.8610726309008
 20
1079.031580054
 30
0.0
 11
515.9113251625009
 21
1074.081832586
 31
0.0
  0
LINE
  5
10A
330
1F
100
AcDbEntity
  8
LAY-10
  6
CONTINUOUS
 62
     7
100
AcDbLine
 10
490.4554810398009
 20
1099.537676708
 30
0.0
 11
515.9113251625009
 21
1074.081832586
 31
0.0
  0
LINE
  5
10B
330
1F
100
AcDbEntity
  8
LAY-10
  6
CONTINUOUS
 62
     7
100
AcDbLine
 10
520.8610726309008
 20
1079.031580054
 30
0.0
 11
495.4052285081009
 21
1104.487424177
 31
0.0
  0
LINE
  5
10C
330
1F
100
AcDbEntity
  8
LAY-10
  6
CONTINUOUS
 62
     7
100
AcDbLine
 10
566.8230134080009
 20
1040.140707089
 30
0.0
 11
595.8143914366009
 21
1011.14932906
 31
0.0
  0
LINE
  5
10D
330
1F
100
AcDbEntity
  8
LAY-10
  6
CONTINUOUS
 62
     7
100
AcDbLine
 10
566.8230134080009
 20
1040.140707089
 30
0.0
 11
554.8021981278009
 21
1028.119891809
 31
0.0
  0
LINE
  5
10E
330
1F
100
AcDbEntity
  8
LAY-10
  6
CONTINUOUS
 62
     7
100
AcDbLine
 10
554.8021981278009
 20
1028.119891809
 30
0.0
 11
583.7935761565009
 21
999.1285137800003
 31
0.0
  0
LINE
  5
10F
330
1F
100
AcDbEntity
  8
LAY-10
  6
CONTINUOUS
 62
     7
100
AcDbLine
 10
583.7935761565009
 20
999.1285137800003
 30
0.0
 11
587.329110062401
 21
1002.664047686
 31
0.0
  0
LINE
  5
110
330
1F
100
AcDbEntity
  8
LAY-10
  6
CONTINUOUS
 62
     7
100
AcDbLine
 10
595.8143914366009
 20
1011.14932906
 30
0.0
 11
592.2788575307007
 21
1007.613795154
 31
0.0
  0
LINE
  5
111
330
1F
100
AcDbEntity
  8
LAY-10
  6
CONTINUOUS
 62
     7
100
AcDbLine
 10
561.8732659397008
 20
1028.119891809
 30
0.0
 11
566.8230134080009
 21
1033.069639277
 31
0.0
  0
LINE
  5
112
330
1F
100
AcDbEntity
  8
LAY-10
  6
CONTINUOUS
 62
     7
100
AcDbLine
 10
592.2788575307007
 20
1007.613795154
 30
0.0
 11
566.8230134080009
 21
1033.069639277
 31
0.0
  0
LINE
  5
113
330
1F
100
AcDbEntity
  8
LAY-10
  6
CONTINUOUS
 62
     7
100
AcDbLine
 10
561.8732659397008
 20
1028.119891809
 30
0.0
 11
587.329110062401
 21
1002.664047686
 31
0.0
  0
LINE
  5
114
330
1F
100
AcDbEntity
  8
LAY-10
  6
CONTINUOUS
 62
     7
100
AcDbLine
 10
532.8818879110008
 20
1040.140707089
 30
0.0
 11
561.8732659397008
 21
1011.14932906
 31
0.0
  0
LINE
  5
115
330
1F
100
AcDbEntity
  8
LAY-10
  6
CONTINUOUS
 62
     7
100
AcDbLine
 10
532.8818879110008
 20
1040.140707089
 30
0.0
 11
520.8610726309008
 21
1028.119891809
 31
0.0
  0
LINE
  5
116
330
1F
100
AcDbEntity
  8
LAY-10
  6
CONTINUOUS
 62
     7
100
AcDbLine
 10
520.8610726309008
 20
1028.119891809
 30
0.0
 11
549.8524506595007
 21
999.1285137800003
 31
0.0
  0
LINE
  5
117
330
1F
100
AcDbEntity
  8
LAY-10
  6
CONTINUOUS
 62
     7
100
AcDbLine
 10
549.8524506595007
 20
999.1285137800003
 30
0.0
 11
553.3879845654009
 21
1002.664047686
 31
0.0
  0
LINE
  5
118
330
1F
100
AcDbEntity
  8
LAY-10
  6
CONTINUOUS
 62
     7
100
AcDbLine
 10
561.8732659397008
 20
1011.14932906
 30
0.0
 11
558.3377320337008
 21
1007.613795154
 31
0.0
  0
LINE
  5
119
330
1F
100
AcDbEntity
  8
LAY-10
  6
CONTINUOUS
 62
     7
100
AcDbLine
 10
527.9321404427009
 20
1028.119891809
 30
0.0
 11
532.8818879110008
 21
1033.069639277
 31
0.0
  0
LINE
  5
11A
330
1F
100
AcDbEntity
  8
LAY-10
  6
CONTINUOUS
 62
     7
100
AcDbLine
 10
558.3377320337008
 20
1007.613795154
 30
0.0
 11
532.8818879110008
 21
1033.069639277
 31
0.0
  0
LINE
  5
11B
330
1F
100
AcDbEntity
  8
LAY-10
  6
CONTINUOUS
 62
     7
100
AcDbLine
 10
527.9321404427009
 20
1028.119891809
 30
0.0
 11
553.3879845654009
 21
1002.664047686
 31
0.0
  0
LINE
  5
11C
330
1F
100
AcDbEntity
  8
LAY-10
  6
CONTINUOUS
 62
     7
100
AcDbLine
 10
612.7849541851009
 20
1129.943268299
 30
0.0
 11
583.7935761565009
 21
1100.951890271
 31
0.0
  0
LINE
  5
11D
330
1F
100
AcDbEntity
  8
LAY-10
  6
CONTINUOUS
 62
     7
100
AcDbLine
 10
612.7849541851009
 20
1129.943268299
 30
0.0
 11
600.7641389049008
 21
1141.96408358
 31
0.0
  0
LINE
  5
11E
330
1F
100
AcDbEntity
  8
LAY-10
  6
CONTINUOUS
 62
     7
100
AcDbLine
 10
600.7641389049008
 20
1141.96408358
 30
0.0
 11
571.7727608763008
 21
1112.972705551
 31
0.0
  0
LINE
  5
11F
330
1F
100
AcDbEntity
  8
LAY-10
  6
CONTINUOUS
 62
     7
100
AcDbLine
 10
571.7727608763008
 20
1112.972705551
 30
0.0
 11
575.3082947822008
 21
1109.437171645
 31
0.0
  0
LINE
  5
120
330
1F
100
AcDbEntity
  8
LAY-10
  6
CONTINUOUS
 62
     7
100
AcDbLine
 10
583.7935761565009
 20
1100.951890271
 30
0.0
 11
580.2580422505009
 21
1104.487424177
 31
0.0
  0
LINE
  5
121
330
1F
100
AcDbEntity
  8
LAY-10
  6
CONTINUOUS
 62
     7
100
AcDbLine
 10
600.7641389049008
 20
1134.893015768
 30
0.0
 11
605.7138863732009
 21
1129.943268299
 31
0.0
  0
LINE
  5
122
330
1F
100
AcDbEntity
  8
LAY-10
  6
CONTINUOUS
 62
     7
100
AcDbLine
 10
580.2580422505009
 20
1104.487424177
 30
0.0
 11
605.7138863732009
 21
1129.943268299
 31
0.0
  0
LINE
  5
123
330
1F
100
AcDbEntity
  8
LAY-10
  6
CONTINUOUS
 62
     7
100
AcDbLine
 10
600.7641389049008
 20
1134.893015768
 30
0.0
 11
575.3082947822008
 21
1109.437171645
 31
0.0
  0
LINE
  5
124
330
1F
100
AcDbEntity
  8
LAY-10
  6
CONTINUOUS
 62
     7
100
AcDbLine
 10
578.8438286881009
 20
1129.943268299
 30
0.0
 11
549.8524506595007
 21
1100.951890271
 31
0.0
  0
LINE
  5
125
330
1F
100
AcDbEntity
  8
LAY-10
  6
CONTINUOUS
 62
     7
100
AcDbLine
 10
578.8438286881009
 20
1129.943268299
 30
0.0
 11
566.8230134080009
 21
1141.96408358
 31
0.0
  0
LINE
  5
126
330
1F
100
AcDbEntity
  8
LAY-10
  6
CONTINUOUS
 62
     7
100
AcDbLine
 10
566.8230134080009
 20
1141.96408358
 30
0.0
 11
537.8316353793009
 21
1112.972705551
 31
0.0
  0
LINE
  5
127
330
1F
100
AcDbEntity
  8
LAY-10
  6
CONTINUOUS
 62
     7
100
AcDbLine
 10
537.8316353793009
 20
1112.972705551
 30
0.0
 11
541.3671692853007
 21
1109.437171645
 31
0.0
  0
LINE
  5
128
330
1F
100
AcDbEntity
  8
LAY-10
  6
CONTINUOUS
 62
     7
100
AcDbLine
 10
549.8524506595007
 20
1100.951890271
 30
0.0
 11
546.3169167536008
 21
1104.487424177
 31
0.0
  0
LINE
  5
129
330
1F
100
AcDbEntity
  8
LAY-10
  6
CONTINUOUS
 62
     7
100
AcDbLine
 10
566.8230134080009
 20
1134.893015768
 30
0.0
 11
571.7727608763008
 21
1129.943268299
 31
0.0
  0
LINE
  5
12A
330
1F
100
AcDbEntity
  8
LAY-10
  6
CONTINUOUS
 62
     7
100
AcDbLine
 10
546.3169167536008
 20
1104.487424177
 30
0.0
 11
571.7727608763008
 21
1129.943268299
 31
0.0
  0
LINE
  5
12B
330
1F
100
AcDbEntity
  8
LAY-10
  6
CONTINUOUS
 62
     7
100
AcDbLine
 10
566.8230134080009
 20
1134.893015768
 30
0.0
 11
541.3671692853007
 21
1109.437171645
 31
0.0
  0
LINE
  5
12C
330
1F
100
AcDbEntity
  8
LAY-10
  6
CONTINUOUS
 62
     7
100
AcDbLine
 10
544.9027031912008
 20
1129.943268299
 30
0.0
 11
515.9113251625009
 21
1100.951890271
 31
0.0
  0
LINE
  5
12D
330
1F
100
AcDbEntity
  8
LAY-10
  6
CONTINUOUS
 62
     7
100
AcDbLine
 10
544.9027031912008
 20
1129.943268299
 30
0.0
 11
532.8818879110008
 21
1141.96408358
 31
0.0
  0
LINE
  5
12E
330
1F
100
AcDbEntity
  8
LAY-10
  6
CONTINUOUS
 62
     7
100
AcDbLine
 10
532.8818879110008
 20
1141.96408358
 30
0.0
 11
503.890509882401
 21
1112.972705551
 31
0.0
  0
LINE
  5
12F
330
1F
100
AcDbEntity
  8
LAY-10
  6
CONTINUOUS
 62
     7
100
AcDbLine
 10
503.890509882401
 20
1112.972705551
 30
0.0
 11
507.4260437883008
 21
1109.437171645
 31
0.0
  0
LINE
  5
130
330
1F
100
AcDbEntity
  8
LAY-10
  6
CONTINUOUS
 62
     7
100
AcDbLine
 10
515.9113251625009
 20
1100.951890271
 30
0.0
 11
512.3757912566009
 21
1104.487424177
 31
0.0
  0
LINE
  5
131
330
1F
100
AcDbEntity
  8
LAY-10
  6
CONTINUOUS
 62
     7
100
AcDbLine
 10
532.8818879110008
 20
1134.893015768
 30
0.0
 11
537.8316353793009
 21
1129.943268299
 31
0.0
  0
LINE
  5
132
330
1F
100
AcDbEntity
  8
LAY-10
  6
CONTINUOUS
 62
     7
100
AcDbLine
 10
512.3757912566009
 20
1104.487424177
 30
0.0
 11
537.8316353793009
 21
1129.943268299
 31
0.0
  0
LINE
  5
133
330
1F
100
AcDbEntity
  8
LAY-10
  6
CONTINUOUS
 62
     7
100
AcDbLine
 10
532.8818879110008
 20
1134.893015768
 30
0.0
 11
507.4260437883008
 21
1109.437171645
 31
0.0
  0
LINE
  5
134
330
1F
100
AcDbEntity
  8
LAY-10
  6
CONTINUOUS
 62
     7
100
AcDbLine
 10
729.500000000001
 20
936.0
 30
0.0
 11
795.5000000000009
 21
936.0
 31
0.0
  0
LINE
  5
135
330
1F
100
AcDbEntity
  8
LAY-10
  6
CONTINUOUS
 62
     7
100
AcDbLine
 10
795.5000000000009
 20
936.0
 30
0.0
 11
795.5000000000009
 21
964.0000000000001
 31
0.0
  0
LINE
  5
136
330
1F
100
AcDbEntity
  8
LAY-10
  6
CONTINUOUS
 62
     7
100
AcDbLine
 10
795.5000000000009
 20
964.0000000000001
 30
0.0
 11
729.500000000001
 21
964.0000000000001
 31
0.0
  0
LINE
  5
137
330
1F
100
AcDbEntity
  8
LAY-10
  6
CONTINUOUS
 62
     7
100
AcDbLine
 10
729.500000000001
 20
936.0
 30
0.0
 11
729.500000000001
 21
964.0000000000001
 31
0.0
  0
LINE
  5
138
330
1F
100
AcDbEntity
  8
LAY-10
  6
CONTINUOUS
 62
     7
100
AcDbLine
 10
790.5000000000009
 20
964.0000000000001
 30
0.0
 11
790.5000000000009
 21
936.0
 31
0.0
  0
LINE
  5
139
330
1F
100
AcDbEntity
  8
LAY-10
  6
CONTINUOUS
 62
     7
100
AcDbLine
 10
767.5000000000008
 20
964.0000000000001
 30
0.0
 11
767.5000000000008
 21
936.0
 31
0.0
  0
LINE
  5
13A
330
1F
100
AcDbEntity
  8
LAY-10
  6
CONTINUOUS
 62
     7
100
AcDbLine
 10
757.5000000000009
 20
964.0000000000001
 30
0.0
 11
757.5000000000009
 21
936.0
 31
0.0
  0
LINE
  5
13B
330
1F
100
AcDbEntity
  8
LAY-10
  6
CONTINUOUS
 62
     7
100
AcDbLine
 10
734.5000000000008
 20
964.0000000000001
 30
0.0
 11
734.5000000000008
 21
936.0
 31
0.0
  0
LINE
  5
13C
330
1F
100
AcDbEntity
  8
LAY-10
  6
CONTINUOUS
 62
     7
100
AcDbLine
 10
625.0000000000008
 20
682.5
 30
0.0
 11
847.5000000000009
 21
682.5
 31
0.0
  0
LINE
  5
13D
330
1F
100
AcDbEntity
  8
LAY-10
  6
CONTINUOUS
 62
     7
100
AcDbLine
 10
892.4999999999009
 20
950.0000000000001
 30
0.0
 11
892.4999999999009
 21
727.5
 31
0.0
  0
ARC
  5
13E
330
1F
100
AcDbEntity
  8
LAY-10
  6
CONTINUOUS
 62
     7
100
AcDbCircle
 10
847.5000000000009
 20
727.5
 30
0.0
 40
45.00000000000001
100
AcDbArc
 50
270.0
 51
0.0
  0
CIRCLE
  5
13F
330
1F
100
AcDbEntity
  8
LAY-10
  6
CONTINUOUS
 62
     7
100
AcDbCircle
 10
859.9999999999009
 20
715.0000000000001
 30
0.0
 40
7.500000000000002
  0
CIRCLE
  5
140
330
1F
100
AcDbEntity
  8
LAY-10
  6
CONTINUOUS
 62
     7
100
AcDbCircle
 10
859.9999999999009
 20
715.0000000000001
 30
0.0
 40
10.0
  0
LINE
  5
141
330
1F
100
AcDbEntity
  8
LAY-10
  6
CONTINUOUS
 62
     7
100
AcDbLine
 10
695.6036911975009
 20
690.5000000000001
 30
0.0
 11
730.0000000000008
 21
690.5000000000001
 31
0.0
  0
LINE
  5
142
330
1F
100
AcDbEntity
  8
LAY-10
  6
CONTINUOUS
 62
     7
100
AcDbLine
 10
793.5310856470009
 20
753.1846431055001
 30
0.0
 11
827.6801948466008
 21
719.0355339059001
 31
0.0
  0
LINE
  5
143
330
1F
100
AcDbEntity
  8
LAY-10
  6
CONTINUOUS
 62
     7
100
AcDbLine
 10
842.647467249201
 20
725.2814649389001
 30
0.0
 11
846.1830011552008
 21
728.8169988448001
 31
0.0
  0
LINE
  5
144
330
1F
100
AcDbEntity
  8
LAY-10
  6
CONTINUOUS
 62
     7
100
AcDbLine
 10
806.0193359838008
 20
763.3238097668001
 30
0.0
 11
811.737709072201
 21
769.0421828552002
 31
0.0
  0
LINE
  5
145
330
1F
100
AcDbEntity
  8
LAY-10
  6
CONTINUOUS
 62
     7
100
AcDbLine
 10
842.647467249201
 20
725.2814649389001
 30
0.0
 11
802.4616169709009
 21
766.8815287796002
 31
0.0
  0
ARC
  5
146
330
1F
100
AcDbEntity
  8
LAY-10
  6
CONTINUOUS
 62
     7
100
AcDbCircle
 10
695.6036911975009
 20
695.5000000000001
 30
0.0
 40
5.0
100
AcDbArc
 50
105.5051414688006
 51
270.0
  0
LINE
  5
147
330
1F
100
AcDbEntity
  8
LAY-10
  6
CONTINUOUS
 62
     7
100
AcDbLine
 10
849.7185350611009
 20
732.3525327508003
 30
0.0
 11
808.118471220401
 21
772.5383830291
 31
0.0
  0
LINE
  5
148
330
1F
100
AcDbEntity
  8
LAY-10
  6
CONTINUOUS
 62
     7
100
AcDbLine
 10
849.7185350611009
 20
732.3525327508003
 30
0.0
 11
846.1830011552008
 21
728.8169988448001
 31
0.0
  0
LINE
  5
149
330
1F
100
AcDbEntity
  8
LAY-10
  6
CONTINUOUS
 62
     7
100
AcDbLine
 10
821.8153568945008
 20
781.4689143530001
 30
0.0
 11
867.4289321879008
 21
735.8553390593001
 31
0.0
  0
ARC
  5
14A
330
1F
100
AcDbEntity
  8
LAY-10
  6
CONTINUOUS
 62
     7
100
AcDbCircle
 10
874.4999999999006
 20
742.9264068712001
 30
0.0
 40
10.0
100
AcDbArc
 50
224.9999999999995
 51
0.0
  0
LINE
  5
14B
330
1F
100
AcDbEntity
  8
LAY-10
  6
CONTINUOUS
 62
     7
100
AcDbLine
 10
884.499999999901
 20
879.3963088025001
 30
0.0
 11
884.499999999901
 21
742.9264068712001
 31
0.0
  0
ARC
  5
14C
330
1F
100
AcDbEntity
  8
LAY-10
  6
CONTINUOUS
 62
     7
100
AcDbCircle
 10
879.4999999999011
 20
879.3963088025001
 30
0.0
 40
5.0
100
AcDbArc
 50
0.0
 51
164.4948585312001
  0
ARC
  5
14D
330
1F
100
AcDbEntity
  8
LAY-10
  6
CONTINUOUS
 62
     7
100
AcDbCircle
 10
625.0000000000008
 20
950.0000000000001
 30
0.0
 40
259.1119671857
100
AcDbArc
 50
270.0
 51
314.0997482683001
  0
ARC
  5
14E
330
1F
100
AcDbEntity
  8
LAY-10
  6
CONTINUOUS
 62
     7
100
AcDbCircle
 10
625.0000000000008
 20
950.0000000000001
 30
0.0
 40
259.1119671857
100
AcDbArc
 50
315.9002517317002
 51
0.0
  0
LINE
  5
14F
330
1F
100
AcDbEntity
  8
LAY-10
  6
CONTINUOUS
 62
     7
100
AcDbLine
 10
870.9999999999009
 20
950.0000000000001
 30
0.0
 11
879.9476673419009
 21
944.8340618520001
 31
0.0
  0
LINE
  5
150
330
1F
100
AcDbEntity
  8
LAY-10
  6
CONTINUOUS
 62
     7
100
AcDbLine
 10
625.0000000000008
 20
704.0
 30
0.0
 11
630.1659381484008
 21
695.0523326582002
 31
0.0
  0
LINE
  5
151
330
1F
100
AcDbEntity
  8
LAY-10
  6
CONTINUOUS
 62
     7
100
AcDbLine
 10
625.0000000000008
 20
1217.5
 30
0.0
 11
847.5000000000009
 21
1217.5
 31
0.0
  0
LINE
  5
152
330
1F
100
AcDbEntity
  8
LAY-10
  6
CONTINUOUS
 62
     7
100
AcDbLine
 10
892.4999999999009
 20
950.0000000000001
 30
0.0
 11
892.4999999999009
 21
1172.5
 31
0.0
  0
ARC
  5
153
330
1F
100
AcDbEntity
  8
LAY-10
  6
CONTINUOUS
 62
     7
100
AcDbCircle
 10
847.5000000000009
 20
1172.5
 30
0.0
 40
45.00000000000001
100
AcDbArc
 50
0.0
 51
90.0
  0
CIRCLE
  5
154
330
1F
100
AcDbEntity
  8
LAY-10
  6
CONTINUOUS
 62
     7
100
AcDbCircle
 10
859.9999999999009
 20
1185.0
 30
0.0
 40
7.500000000000002
  0
CIRCLE
  5
155
330
1F
100
AcDbEntity
  8
LAY-10
  6
CONTINUOUS
 62
     7
100
AcDbCircle
 10
859.9999999999009
 20
1185.0
 30
0.0
 40
10.0
  0
LINE
  5
156
330
1F
100
AcDbEntity
  8
LAY-10
  6
CONTINUOUS
 62
     7
100
AcDbLine
 10
695.6036911975009
 20
1209.5
 30
0.0
 11
832.0735931288008
 21
1209.5
 31
0.0
  0
LINE
  5
157
330
1F
100
AcDbEntity
  8
LAY-10
  6
CONTINUOUS
 62
     7
100
AcDbLine
 10
793.5310856470009
 20
1146.815356894
 30
0.0
 11
839.1446609407008
 21
1192.428932188
 31
0.0
  0
LINE
  5
158
330
1F
100
AcDbEntity
  8
LAY-10
  6
CONTINUOUS
 62
     7
100
AcDbLine
 10
842.647467249201
 20
1174.718535061
 30
0.0
 11
846.1830011552008
 21
1171.183001155
 31
0.0
  0
LINE
  5
159
330
1F
100
AcDbEntity
  8
LAY-10
  6
CONTINUOUS
 62
     7
100
AcDbLine
 10
842.647467249201
 20
1174.718535061
 30
0.0
 11
802.4616169709009
 21
1133.11847122
 31
0.0
  0
ARC
  5
15A
330
1F
100
AcDbEntity
  8
LAY-10
  6
CONTINUOUS
 62
     7
100
AcDbCircle
 10
832.0735931288008
 20
1199.5
 30
0.0
 40
10.0
100
AcDbArc
 50
314.9999999999995
 51
90.0
  0
ARC
  5
15B
330
1F
100
AcDbEntity
  8
LAY-10
  6
CONTINUOUS
 62
     7
100
AcDbCircle
 10
695.6036911975009
 20
1204.5
 30
0.0
 40
5.0
100
AcDbArc
 50
90.0
 51
254.4948585312
  0
LINE
  5
15C
330
1F
100
AcDbEntity
  8
LAY-10
  6
CONTINUOUS
 62
     7
100
AcDbLine
 10
849.7185350611009
 20
1167.647467249
 30
0.0
 11
808.118471220401
 21
1127.461616971
 31
0.0
  0
LINE
  5
15D
330
1F
100
AcDbEntity
  8
LAY-10
  6
CONTINUOUS
 62
     7
100
AcDbLine
 10
849.7185350611009
 20
1167.647467249
 30
0.0
 11
846.1830011552008
 21
1171.183001155
 31
0.0
  0
LINE
  5
15E
330
1F
100
AcDbEntity
  8
LAY-10
  6
CONTINUOUS
 62
     7
100
AcDbLine
 10
821.8153568945008
 20
1118.531085647
 30
0.0
 11
867.4289321879008
 21
1164.144660941
 31
0.0
  0
ARC
  5
15F
330
1F
100
AcDbEntity
  8
LAY-10
  6
CONTINUOUS
 62
     7
100
AcDbCircle
 10
874.4999999999006
 20
1157.073593129
 30
0.0
 40
10.0
100
AcDbArc
 50
0.0
 51
134.9999999999977
  0
LINE
  5
160
330
1F
100
AcDbEntity
  8
LAY-10
  6
CONTINUOUS
 62
     7
100
AcDbLine
 10
884.499999999901
 20
1020.603691197
 30
0.0
 11
884.499999999901
 21
1157.073593129
 31
0.0
  0
ARC
  5
161
330
1F
100
AcDbEntity
  8
LAY-10
  6
CONTINUOUS
 62
     7
100
AcDbCircle
 10
879.4999999999011
 20
1020.603691197
 30
0.0
 40
5.0
100
AcDbArc
 50
195.5051414688012
 51
0.0
  0
ARC
  5
162
330
1F
100
AcDbEntity
  8
LAY-10
  6
CONTINUOUS
 62
     7
100
AcDbCircle
 10
625.0000000000008
 20
950.0000000000001
 30
0.0
 40
259.1119671857
100
AcDbArc
 50
45.90025173165979
 51
90.0
  0
ARC
  5
163
330
1F
100
AcDbEntity
  8
LAY-10
  6
CONTINUOUS
 62
     7
100
AcDbCircle
 10
625.0000000000008
 20
950.0000000000001
 30
0.0
 40
259.1119671857
100
AcDbArc
 50
0.0
 51
44.09974826833989
  0
LINE
  5
164
330
1F
100
AcDbEntity
  8
LAY-10
  6
CONTINUOUS
 62
     7
100
AcDbLine
 10
870.9999999999009
 20
950.0000000000001
 30
0.0
 11
879.9476673419009
 21
955.1659381480001
 31
0.0
  0
LINE
  5
165
330
1F
100
AcDbEntity
  8
LAY-10
  6
CONTINUOUS
 62
     7
100
AcDbLine
 10
625.0000000000008
 20
1196.0
 30
0.0
 11
630.1659381484008
 21
1204.947667342
 31
0.0
  0
LINE
  5
166
330
1F
100
AcDbEntity
  8
LAY-10
  6
CONTINUOUS
 62
     7
100
AcDbLine
 10
806.0193359838008
 20
1136.676190233
 30
0.0
 11
811.737709072201
 21
1130.957817145
 31
0.0
  0
LINE
  5
167
330
1F
100
AcDbEntity
  8
LAY-10
  6
CONTINUOUS
 62
     7
100
AcDbLine
 10
625.0000000000008
 20
682.5
 30
0.0
 11
402.500000000001
 21
682.5
 31
0.0
  0
LINE
  5
168
330
1F
100
AcDbEntity
  8
LAY-10
  6
CONTINUOUS
 62
     7
100
AcDbLine
 10
357.5000000000009
 20
950.0000000000001
 30
0.0
 11
357.5000000000009
 21
727.5
 31
0.0
  0
ARC
  5
169
330
1F
100
AcDbEntity
  8
LAY-10
  6
CONTINUOUS
 62
     7
100
AcDbCircle
 10
402.500000000001
 20
727.5
 30
0.0
 40
45.00000000000001
100
AcDbArc
 50
180.0
 51
270.0
  0
CIRCLE
  5
16A
330
1F
100
AcDbEntity
  8
LAY-10
  6
CONTINUOUS
 62
     7
100
AcDbCircle
 10
390.0000000000009
 20
715.0000000000001
 30
0.0
 40
7.500000000000002
  0
CIRCLE
  5
16B
330
1F
100
AcDbEntity
  8
LAY-10
  6
CONTINUOUS
 62
     7
100
AcDbCircle
 10
390.0000000000009
 20
715.0000000000001
 30
0.0
 40
10.0
  0
LINE
  5
16C
330
1F
100
AcDbEntity
  8
LAY-10
  6
CONTINUOUS
 62
     7
100
AcDbLine
 10
554.3963088025009
 20
690.5000000000001
 30
0.0
 11
417.926406871201
 21
690.5000000000001
 31
0.0
  0
LINE
  5
16D
330
1F
100
AcDbEntity
  8
LAY-10
  6
CONTINUOUS
 62
     7
100
AcDbLine
 10
456.4689143530007
 20
753.1846431055001
 30
0.0
 11
410.8553390593009
 21
707.5710678119001
 31
0.0
  0
LINE
  5
16E
330
1F
100
AcDbEntity
  8
LAY-10
  6
CONTINUOUS
 62
     7
100
AcDbLine
 10
407.3525327508007
 20
725.2814649389001
 30
0.0
 11
403.8169988448008
 21
728.8169988448001
 31
0.0
  0
LINE
  5
16F
330
1F
100
AcDbEntity
  8
LAY-10
  6
CONTINUOUS
 62
     7
100
AcDbLine
 10
407.3525327508007
 20
725.2814649389001
 30
0.0
 11
447.5383830291007
 21
766.8815287796002
 31
0.0
  0
ARC
  5
170
330
1F
100
AcDbEntity
  8
LAY-10
  6
CONTINUOUS
 62
     7
100
AcDbCircle
 10
417.926406871201
 20
700.5000000000001
 30
0.0
 40
10.0
100
AcDbArc
 50
134.9999999999995
 51
270.0
  0
ARC
  5
171
330
1F
100
AcDbEntity
  8
LAY-10
  6
CONTINUOUS
 62
     7
100
AcDbCircle
 10
554.3963088025009
 20
695.5000000000001
 30
0.0
 40
5.0
100
AcDbArc
 50
270.0
 51
74.49485853121044
  0
LINE
  5
172
330
1F
100
AcDbEntity
  8
LAY-10
  6
CONTINUOUS
 62
     7
100
AcDbLine
 10
400.2814649389007
 20
732.3525327508003
 30
0.0
 11
441.8815287796008
 21
772.5383830291
 31
0.0
  0
LINE
  5
173
330
1F
100
AcDbEntity
  8
LAY-10
  6
CONTINUOUS
 62
     7
100
AcDbLine
 10
400.2814649389007
 20
732.3525327508003
 30
0.0
 11
403.8169988448008
 21
728.8169988448001
 31
0.0
  0
LINE
  5
174
330
1F
100
AcDbEntity
  8
LAY-10
  6
CONTINUOUS
 62
     7
100
AcDbLine
 10
428.1846431055009
 20
781.4689143530001
 30
0.0
 11
382.5710678119008
 21
735.8553390593001
 31
0.0
  0
ARC
  5
175
330
1F
100
AcDbEntity
  8
LAY-10
  6
CONTINUOUS
 62
     7
100
AcDbCircle
 10
375.500000000001
 20
742.9264068712001
 30
0.0
 40
10.0
100
AcDbArc
 50
180.0
 51
314.9999999999982
  0
LINE
  5
176
330
1F
100
AcDbEntity
  8
LAY-10
  6
CONTINUOUS
 62
     7
100
AcDbLine
 10
365.5000000000008
 20
879.3963088025001
 30
0.0
 11
365.5000000000008
 21
742.9264068712001
 31
0.0
  0
ARC
  5
177
330
1F
100
AcDbEntity
  8
LAY-10
  6
CONTINUOUS
 62
     7
100
AcDbCircle
 10
370.5000000000008
 20
879.3963088025001
 30
0.0
 40
5.0
100
AcDbArc
 50
15.5051414687877
 51
180.0
  0
ARC
  5
178
330
1F
100
AcDbEntity
  8
LAY-10
  6
CONTINUOUS
 62
     7
100
AcDbCircle
 10
625.0000000000008
 20
950.0000000000001
 30
0.0
 40
259.1119671857
100
AcDbArc
 50
225.9002517316999
 51
270.0
  0
ARC
  5
179
330
1F
100
AcDbEntity
  8
LAY-10
  6
CONTINUOUS
 62
     7
100
AcDbCircle
 10
625.0000000000008
 20
950.0000000000001
 30
0.0
 40
259.1119671857
100
AcDbArc
 50
180.0
 51
224.0997482683
  0
LINE
  5
17A
330
1F
100
AcDbEntity
  8
LAY-10
  6
CONTINUOUS
 62
     7
100
AcDbLine
 10
379.0000000000008
 20
950.0000000000001
 30
0.0
 11
370.0523326582008
 21
944.8340618520001
 31
0.0
  0
LINE
  5
17B
330
1F
100
AcDbEntity
  8
LAY-10
  6
CONTINUOUS
 62
     7
100
AcDbLine
 10
625.0000000000008
 20
704.0
 30
0.0
 11
619.8340618516008
 21
695.0523326582002
 31
0.0
  0
LINE
  5
17C
330
1F
100
AcDbEntity
  8
LAY-10
  6
CONTINUOUS
 62
     7
100
AcDbLine
 10
443.9806640162008
 20
763.3238097668001
 30
0.0
 11
438.2622909278008
 21
769.0421828552002
 31
0.0
  0
LINE
  5
17D
330
1F
100
AcDbEntity
  8
LAY-10
  6
CONTINUOUS
 62
     7
100
AcDbLine
 10
625.0000000000008
 20
1217.5
 30
0.0
 11
402.500000000001
 21
1217.5
 31
0.0
  0
LINE
  5
17E
330
1F
100
AcDbEntity
  8
LAY-10
  6
CONTINUOUS
 62
     7
100
AcDbLine
 10
357.5000000000009
 20
950.0000000000001
 30
0.0
 11
357.5000000000009
 21
1172.5
 31
0.0
  0
ARC
  5
17F
330
1F
100
AcDbEntity
  8
LAY-10
  6
CONTINUOUS
 62
     7
100
AcDbCircle
 10
402.500000000001
 20
1172.5
 30
0.0
 40
45.00000000000001
100
AcDbArc
 50
90.0
 51
180.0
  0
CIRCLE
  5
180
330
1F
100
AcDbEntity
  8
LAY-10
  6
CONTINUOUS
 62
     7
100
AcDbCircle
 10
625.0000000000008
 20
950.0000000000001
 30
0.0
 40
255.0
  0
CIRCLE
  5
181
330
1F
100
AcDbEntity
  8
LAY-10
  6
CONTINUOUS
 62
     7
100
AcDbCircle
 10
625.0000000000008
 20
950.0000000000001
 30
0.0
 40
241.5
  0
CIRCLE
  5
182
330
1F
100
AcDbEntity
  8
LAY-10
  6
CONTINUOUS
 62
     7
100
AcDbCircle
 10
625.0000000000008
 20
950.0000000000001
 30
0.0
 40
240.0
  0
CIRCLE
  5
183
330
1F
100
AcDbEntity
  8
LAY-10
  6
CONTINUOUS
 62
     7
100
AcDbCircle
 10
390.0000000000009
 20
1185.0
 30
0.0
 40
7.500000000000002
  0
CIRCLE
  5
184
330
1F
100
AcDbEntity
  8
LAY-10
  6
CONTINUOUS
 62
     7
100
AcDbCircle
 10
390.0000000000009
 20
1185.0
 30
0.0
 40
10.0
  0
LINE
  5
185
330
1F
100
AcDbEntity
  8
LAY-10
  6
CONTINUOUS
 62
     7
100
AcDbLine
 10
456.4689143530007
 20
1146.815356894
 30
0.0
 11
422.319805153401
 21
1180.964466094
 31
0.0
  0
LINE
  5
186
330
1F
100
AcDbEntity
  8
LAY-10
  6
CONTINUOUS
 62
     7
100
AcDbLine
 10
407.3525327508007
 20
1174.718535061
 30
0.0
 11
403.8169988448008
 21
1171.183001155
 31
0.0
  0
LINE
  5
187
330
1F
100
AcDbEntity
  8
LAY-10
  6
CONTINUOUS
 62
     7
100
AcDbLine
 10
407.3525327508007
 20
1174.718535061
 30
0.0
 11
447.5383830291007
 21
1133.11847122
 31
0.0
  0
LINE
  5
188
330
1F
100
AcDbEntity
  8
LAY-10
  6
CONTINUOUS
 62
     7
100
AcDbLine
 10
400.2814649389007
 20
1167.647467249
 30
0.0
 11
441.8815287796008
 21
1127.461616971
 31
0.0
  0
LINE
  5
189
330
1F
100
AcDbEntity
  8
LAY-10
  6
CONTINUOUS
 62
     7
100
AcDbLine
 10
400.2814649389007
 20
1167.647467249
 30
0.0
 11
403.8169988448008
 21
1171.183001155
 31
0.0
  0
LINE
  5
18A
330
1F
100
AcDbEntity
  8
LAY-10
  6
CONTINUOUS
 62
     7
100
AcDbLine
 10
428.1846431055009
 20
1118.531085647
 30
0.0
 11
382.5710678119008
 21
1164.144660941
 31
0.0
  0
ARC
  5
18B
330
1F
100
AcDbEntity
  8
LAY-10
  6
CONTINUOUS
 62
     7
100
AcDbCircle
 10
375.500000000001
 20
1157.073593129
 30
0.0
 40
10.0
100
AcDbArc
 50
45.00000000000067
 51
180.0
  0
LINE
  5
18C
330
1F
100
AcDbEntity
  8
LAY-10
  6
CONTINUOUS
 62
     7
100
AcDbLine
 10
365.5000000000008
 20
1020.603691197
 30
0.0
 11
365.5000000000008
 21
1157.073593129
 31
0.0
  0
ARC
  5
18D
330
1F
100
AcDbEntity
  8
LAY-10
  6
CONTINUOUS
 62
     7
100
AcDbCircle
 10
370.5000000000008
 20
1020.603691197
 30
0.0
 40
5.0
100
AcDbArc
 50
180.0
 51
344.4948585311985
  0
ARC
  5
18E
330
1F
100
AcDbEntity
  8
LAY-10
  6
CONTINUOUS
 62
     7
100
AcDbCircle
 10
625.0000000000008
 20
950.0000000000001
 30
0.0
 40
259.1119671857
100
AcDbArc
 50
90.0
 51
134.0997482682999
  0
ARC
  5
18F
330
1F
100
AcDbEntity
  8
LAY-10
  6
CONTINUOUS
 62
     7
100
AcDbCircle
 10
625.0000000000008
 20
950.0000000000001
 30
0.0
 40
259.1119671857
100
AcDbArc
 50
135.9002517316999
 51
180.0
  0
LINE
  5
190
330
1F
100
AcDbEntity
  8
LAY-10
  6
CONTINUOUS
 62
     7
100
AcDbLine
 10
379.0000000000008
 20
950.0000000000001
 30
0.0
 11
370.0523326582008
 21
955.1659381480001
 31
0.0
  0
LINE
  5
191
330
1F
100
AcDbEntity
  8
LAY-10
  6
CONTINUOUS
 62
     7
100
AcDbLine
 10
625.0000000000008
 20
1196.0
 30
0.0
 11
619.8340618516008
 21
1204.947667342
 31
0.0
  0
LINE
  5
192
330
1F
100
AcDbEntity
  8
LAY-10
  6
CONTINUOUS
 62
     7
100
AcDbLine
 10
443.9806640162008
 20
1136.676190233
 30
0.0
 11
438.2622909278008
 21
1130.957817145
 31
0.0
  0
LINE
  5
193
330
1F
100
AcDbEntity
  8
LAY-10
  6
CONTINUOUS
 62
     7
100
AcDbLine
 10
735.0000000000009
 20
695.5000000000001
 30
0.0
 11
735.0000000000009
 21
710.5000000000001
 31
0.0
  0
LINE
  5
194
330
1F
100
AcDbEntity
  8
LAY-10
  6
CONTINUOUS
 62
     7
100
AcDbLine
 10
735.0000000000009
 20
710.5000000000001
 30
0.0
 11
824.1446609407008
 21
710.5000000000001
 31
0.0
  0
ARC
  5
195
330
1F
100
AcDbEntity
  8
LAY-10
  6
CONTINUOUS
 62
     7
100
AcDbCircle
 10
824.1446609407008
 20
715.5000000000001
 30
0.0
 40
5.0
100
AcDbArc
 50
270.0
 51
44.99999999999815
  0
ARC
  5
196
330
1F
100
AcDbEntity
  8
LAY-10
  6
CONTINUOUS
 62
     7
100
AcDbCircle
 10
730.0000000000008
 20
695.5000000000001
 30
0.0
 40
5.0
100
AcDbArc
 50
270.0
 51
0.0
  0
LINE
  5
197
330
1F
100
AcDbEntity
  8
LAY-10
  6
CONTINUOUS
 62
     7
100
AcDbLine
 10
554.3963088025009
 20
1209.5
 30
0.0
 11
520.0000000000009
 21
1209.5
 31
0.0
  0
ARC
  5
198
330
1F
100
AcDbEntity
  8
LAY-10
  6
CONTINUOUS
 62
     7
100
AcDbCircle
 10
554.3963088025009
 20
1204.5
 30
0.0
 40
5.0
100
AcDbArc
 50
285.5051414687988
 51
90.0
  0
LINE
  5
199
330
1F
100
AcDbEntity
  8
LAY-10
  6
CONTINUOUS
 62
     7
100
AcDbLine
 10
515.0000000000009
 20
1204.5
 30
0.0
 11
515.0000000000009
 21
1189.5
 31
0.0
  0
LINE
  5
19A
330
1F
100
AcDbEntity
  8
LAY-10
  6
CONTINUOUS
 62
     7
100
AcDbLine
 10
515.0000000000009
 20
1189.5
 30
0.0
 11
425.8553390593009
 21
1189.5
 31
0.0
  0
ARC
  5
19B
330
1F
100
AcDbEntity
  8
LAY-10
  6
CONTINUOUS
 62
     7
100
AcDbCircle
 10
425.8553390593009
 20
1184.5
 30
0.0
 40
5.0
100
AcDbArc
 50
90.0
 51
224.9999999999982
  0
ARC
  5
19C
330
1F
100
AcDbEntity
  8
LAY-10
  6
CONTINUOUS
 62
     7
100
AcDbCircle
 10
520.0000000000009
 20
1204.5
 30
0.0
 40
5.0
100
AcDbArc
 50
90.0
 51
180.0
  0
TEXT
  5
19D
330
1F
100
AcDbEntity
  8
LAY-10
  6
CONTINUOUS
 62
     7
100
AcDbText
 10
740.0000000000009
 20
688.9055120223428
 30
0.0
 40
8.185039056584548
  1
Ｓ
 41
1.2
  7
EXCADSTD
100
AcDbText
  0
TEXT
  5
19E
330
1F
100
AcDbEntity
  8
LAY-10
  6
CONTINUOUS
 62
     7
100
AcDbText
 10
750.0000000000009
 20
688.9055120223428
 30
0.0
 40
8.185039056584548
  1
Ｆ
 41
1.2
  7
EXCADSTD
100
AcDbText
  0
TEXT
  5
19F
330
1F
100
AcDbEntity
  8
LAY-10
  6
CONTINUOUS
 62
     7
100
AcDbText
 10
760.0000000000008
 20
688.9055120223428
 30
0.0
 40
8.185039056584548
  1
－
 41
1.2
  7
EXCADSTD
100
AcDbText
  0
TEXT
  5
1A0
330
1F
100
AcDbEntity
  8
LAY-10
  6
CONTINUOUS
 62
     7
100
AcDbText
 10
770.0000000000009
 20
688.9055120223428
 30
0.0
 40
8.185039056584548
  1
４
 41
1.2
  7
EXCADSTD
100
AcDbText
  0
TEXT
  5
1A1
330
1F
100
AcDbEntity
  8
LAY-10
  6
CONTINUOUS
 62
     7
100
AcDbText
 10
780.0000000000009
 20
688.9055120223428
 30
0.0
 40
8.185039056584548
  1
５
 41
1.2
  7
EXCADSTD
100
AcDbText
  0
TEXT
  5
1A2
330
1F
100
AcDbEntity
  8
LAY-10
  6
CONTINUOUS
 62
     7
100
AcDbText
 10
790.0000000000008
 20
688.9055120223428
 30
0.0
 40
8.185039056584548
  1
Ｌ
 41
1.2
  7
EXCADSTD
100
AcDbText
  0
TEXT
  5
1A3
330
1F
100
AcDbEntity
  8
LAY-10
  6
CONTINUOUS
 62
     7
100
AcDbText
 10
800.0000000000009
 20
688.9055120223428
 30
0.0
 40
8.185039056584548
  1
Ａ
 41
1.2
  7
EXCADSTD
100
AcDbText
  0
TEXT
  5
1A4
330
1F
100
AcDbEntity
  8
LAY-10
  6
CONTINUOUS
 62
     7
100
AcDbText
 10
820.0000000000008
 20
688.9055120223428
 30
0.0
 40
8.185039056584548
  1
Ｍ
 41
1.2
  7
EXCADSTD
100
AcDbText
  0
TEXT
  5
1A5
330
1F
100
AcDbEntity
  8
LAY-10
  6
CONTINUOUS
 62
     7
100
AcDbText
 10
830.0000000000009
 20
688.9055120223428
 30
0.0
 40
8.185039056584548
  1
Ａ
 41
1.2
  7
EXCADSTD
100
AcDbText
  0
TEXT
  5
1A6
330
1F
100
AcDbEntity
  8
LAY-10
  6
CONTINUOUS
 62
     7
100
AcDbText
 10
810.744134932414
 20
688.9055120223428
 30
0.0
 40
8.185039056584548
  1
,
 41
0.5669200000000001
  7
EXCADSTD
100
AcDbText
  0
LINE
  5
1A7
330
1F
100
AcDbEntity
  8
LAY-10
  6
CONTINUOUS
 62
     7
100
AcDbLine
 10
520.5000000000008
 20
936.0
 30
0.0
 11
454.5000000000009
 21
936.0
 31
0.0
  0
LINE
  5
1A8
330
1F
100
AcDbEntity
  8
LAY-10
  6
CONTINUOUS
 62
     7
100
AcDbLine
 10
454.5000000000009
 20
936.0
 30
0.0
 11
454.5000000000009
 21
964.0000000000001
 31
0.0
  0
LINE
  5
1A9
330
1F
100
AcDbEntity
  8
LAY-10
  6
CONTINUOUS
 62
     7
100
AcDbLine
 10
454.5000000000009
 20
964.0000000000001
 30
0.0
 11
520.5000000000008
 21
964.0000000000001
 31
0.0
  0
LINE
  5
1AA
330
1F
100
AcDbEntity
  8
LAY-10
  6
CONTINUOUS
 62
     7
100
AcDbLine
 10
520.5000000000008
 20
936.0
 30
0.0
 11
520.5000000000008
 21
964.0000000000001
 31
0.0
  0
LINE
  5
1AB
330
1F
100
AcDbEntity
  8
LAY-10
  6
CONTINUOUS
 62
     7
100
AcDbLine
 10
459.5000000000009
 20
964.0000000000001
 30
0.0
 11
459.5000000000009
 21
936.0
 31
0.0
  0
LINE
  5
1AC
330
1F
100
AcDbEntity
  8
LAY-10
  6
CONTINUOUS
 62
     7
100
AcDbLine
 10
482.500000000001
 20
964.0000000000001
 30
0.0
 11
482.500000000001
 21
936.0
 31
0.0
  0
LINE
  5
1AD
330
1F
100
AcDbEntity
  8
LAY-10
  6
CONTINUOUS
 62
     7
100
AcDbLine
 10
492.500000000001
 20
964.0000000000001
 30
0.0
 11
492.500000000001
 21
936.0
 31
0.0
  0
LINE
  5
1AE
330
1F
100
AcDbEntity
  8
LAY-10
  6
CONTINUOUS
 62
     7
100
AcDbLine
 10
515.5000000000009
 20
964.0000000000001
 30
0.0
 11
515.5000000000009
 21
936.0
 31
0.0
  0
TEXT
  5
1AF
330
1F
100
AcDbEntity
  8
LAY-10
  6
CONTINUOUS
 62
     7
100
AcDbText
 10
456.8135150129264
 20
802.5623694057637
 30
0.0
 40
7.795275999999999
  1
Ｐ
 50
312.3854921236002
 41
1.2
  7
EXCADSTD
100
AcDbText
  0
TEXT
  5
1B0
330
1F
100
AcDbEntity
  8
LAY-10
  6
CONTINUOUS
 62
     7
100
AcDbText
 10
462.81127838472
 20
795.9890678284173
 30
0.0
 40
7.795275999999999
  1
Ａ
 50
314.6651592676001
 41
1.2
  7
EXCADSTD
100
AcDbText
  0
TEXT
  5
1B1
330
1F
100
AcDbEntity
  8
LAY-10
  6
CONTINUOUS
 62
     7
100
AcDbText
 10
469.0657625060562
 20
789.6595427700286
 30
0.0
 40
7.795275999999999
  1
Ｔ
 50
316.9448264116001
 41
1.2
  7
EXCADSTD
100
AcDbText
  0
TEXT
  5
1B2
330
1F
100
AcDbEntity
  8
LAY-10
  6
CONTINUOUS
 62
     7
100
AcDbText
 10
475.5670674538863
 20
783.5838129320954
 30
0.0
 40
7.795275999999999
  1
Ｅ
 50
319.2244935557
 41
1.2
  7
EXCADSTD
100
AcDbText
  0
TEXT
  5
1B3
330
1F
100
AcDbEntity
  8
LAY-10
  6
CONTINUOUS
 62
     7
100
AcDbText
 10
482.3049026245551
 20
777.7714952960584
 30
0.0
 40
7.795275999999999
  1
Ｎ
 50
321.5041606997002
 41
1.2
  7
EXCADSTD
100
AcDbText
  0
TEXT
  5
1B4
330
1F
100
AcDbEntity
  8
LAY-10
  6
CONTINUOUS
 62
     7
100
AcDbText
 10
489.2686030218023
 20
772.2317899007437
 30
0.0
 40
7.795275999999999
  1
Ｔ
 50
323.7838278437001
 41
1.2
  7
EXCADSTD
100
AcDbText
  0
TEXT
  5
1B5
330
1F
100
AcDbEntity
  8
LAY-10
  6
CONTINUOUS
 62
     7
100
AcDbText
 10
519.1566141862479
 20
752.967702325176
 30
0.0
 40
7.795275999999999
  1
Ｆ
 50
332.9024964198001
 41
1.2
  7
EXCADSTD
100
AcDbText
  0
TEXT
  5
1B6
330
1F
100
AcDbEntity
  8
LAY-10
  6
CONTINUOUS
 62
     7
100
AcDbText
 10
527.0777746290618
 20
748.9134852210668
 30
0.0
 40
7.795275999999999
  1
Ｕ
 50
335.1821635638001
 41
1.2
  7
EXCADSTD
100
AcDbText
  0
TEXT
  5
1B7
330
1F
100
AcDbEntity
  8
LAY-10
  6
CONTINUOUS
 62
     7
100
AcDbText
 10
535.153931466564
 20
745.1775583179052
 30
0.0
 40
7.795275999999999
  1
Ｋ
 50
337.4618307079
 41
1.2
  7
EXCADSTD
100
AcDbText
  0
TEXT
  5
1B8
330
1F
100
AcDbEntity
  8
LAY-10
  6
CONTINUOUS
 62
     7
100
AcDbText
 10
543.3723013372456
 20
741.7658350352273
 30
0.0
 40
7.795275999999999
  1
Ｕ
 50
339.7414978519001
 41
1.2
  7
EXCADSTD
100
AcDbText
  0
TEXT
  5
1B9
330
1F
100
AcDbEntity
  8
LAY-10
  6
CONTINUOUS
 62
     7
100
AcDbText
 10
551.7198757776658
 20
738.6837156262449
 30
0.0
 40
7.795275999999999
  1
Ｎ
 50
342.0211649959001
 41
1.2
  7
EXCADSTD
100
AcDbText
  0
TEXT
  5
1BA
330
1F
100
AcDbEntity
  8
LAY-10
  6
CONTINUOUS
 62
     7
100
AcDbText
 10
560.1834418125301
 20
735.9360786300193
 30
0.0
 40
7.795275999999999
  1
Ｉ
 50
344.3008321399001
 41
1.2
  7
EXCADSTD
100
AcDbText
  0
TEXT
  5
1BB
330
1F
100
AcDbEntity
  8
LAY-10
  6
CONTINUOUS
 62
     7
100
AcDbText
 10
568.7496028689179
 20
733.5272731493679
 30
0.0
 40
7.795275999999999
  1
Ｓ
 50
346.580499284
 41
1.2
  7
EXCADSTD
100
AcDbText
  0
TEXT
  5
1BC
330
1F
100
AcDbEntity
  8
LAY-10
  6
CONTINUOUS
 62
     7
100
AcDbText
 10
577.4047999814849
 20
731.4611119669111
 30
0.0
 40
7.795275999999999
  1
Ｈ
 50
348.8601664280001
 41
1.2
  7
EXCADSTD
100
AcDbText
  0
TEXT
  5
1BD
330
1F
100
AcDbEntity
  8
LAY-10
  6
CONTINUOUS
 62
     7
100
AcDbText
 10
586.1353332537063
 20
729.7408655101173
 30
0.0
 40
7.795275999999999
  1
Ｉ
 50
351.139833572
 41
1.2
  7
EXCADSTD
100
AcDbText
  0
TEXT
  5
1BE
330
1F
100
AcDbEntity
  8
LAY-10
  6
CONTINUOUS
 62
     7
100
AcDbText
 10
603.7670343349788
 20
727.3484565141858
 30
0.0
 40
7.795275999999999
  1
Ｆ
 50
355.6991678600001
 41
1.2
  7
EXCADSTD
100
AcDbText
  0
TEXT
  5
1BF
330
1F
100
AcDbEntity
  8
LAY-10
  6
CONTINUOUS
 62
     7
100
AcDbText
 10
612.6402937699189
 20
726.6800808045408
 30
0.0
 40
7.795275999999999
  1
Ｏ
 50
357.9788350041001
 41
1.2
  7
EXCADSTD
100
AcDbText
  0
TEXT
  5
1C0
330
1F
100
AcDbEntity
  8
LAY-10
  6
CONTINUOUS
 62
     7
100
AcDbText
 10
621.5331167911534
 20
726.36518748552
 30
0.0
 40
7.795275999999999
  1
Ｕ
 50
0.2585021480973069
 41
1.2
  7
EXCADSTD
100
AcDbText
  0
TEXT
  5
1C1
330
1F
100
AcDbEntity
  8
LAY-10
  6
CONTINUOUS
 62
     7
100
AcDbText
 10
630.4314273754784
 20
726.404274986726
 30
0.0
 40
7.795275999999999
  1
Ｎ
 50
2.538169292120014
 41
1.2
  7
EXCADSTD
100
AcDbText
  0
TEXT
  5
1C2
330
1F
100
AcDbEntity
  8
LAY-10
  6
CONTINUOUS
 62
     7
100
AcDbText
 10
639.3211408139618
 20
726.7972814383397
 30
0.0
 40
7.795275999999999
  1
Ｄ
 50
4.817836436149998
 41
1.2
  7
EXCADSTD
100
AcDbText
  0
TEXT
  5
1C3
330
1F
100
AcDbEntity
  8
LAY-10
  6
CONTINUOUS
 62
     7
100
AcDbText
 10
648.1881860054526
 20
727.5435847692661
 30
0.0
 40
7.795275999999999
  1
Ｒ
 50
7.097503580170008
 41
1.2
  7
EXCADSTD
100
AcDbText
  0
TEXT
  5
1C4
330
1F
100
AcDbEntity
  8
LAY-10
  6
CONTINUOUS
 62
     7
100
AcDbText
 10
657.0185277292276
 20
728.6420036917738
 30
0.0
 40
7.795275999999999
  1
Ｙ
 50
9.377170724190023
 41
1.2
  7
EXCADSTD
100
AcDbText
  0
TEXT
  5
1C5
330
1F
100
AcDbEntity
  8
LAY-10
  6
CONTINUOUS
 62
     7
100
AcDbText
 10
674.5132724961912
 20
731.8876791781661
 30
0.0
 40
7.795275999999999
  1
Ｃ
 50
13.93650501224002
 41
1.2
  7
EXCADSTD
100
AcDbText
  0
TEXT
  5
1C6
330
1F
100
AcDbEntity
  8
LAY-10
  6
CONTINUOUS
 62
     7
100
AcDbText
 10
683.1499839466995
 20
734.0297983180584
 30
0.0
 40
7.795275999999999
  1
Ｏ
 50
16.21617215625998
 41
1.2
  7
EXCADSTD
100
AcDbText
  0
TEXT
  5
1C7
330
1F
100
AcDbEntity
  8
LAY-10
  6
CONTINUOUS
 62
     7
100
AcDbText
 10
692.3667458787689
 20
736.738591337717
 30
0.0
 40
7.795275999999999
  1
.,
 50
18.49583930029002
 41
0.626768
  7
EXCADSTD
100
AcDbText
  0
TEXT
  5
1C8
330
1F
100
AcDbEntity
  8
LAY-10
  6
CONTINUOUS
 62
     7
100
AcDbText
 10
700.1337534386407
 20
739.3356514695148
 30
0.0
 40
7.795275999999999
  1
Ｌ
 50
20.77550644430998
 41
1.2
  7
EXCADSTD
100
AcDbText
  0
TEXT
  5
1C9
330
1F
100
AcDbEntity
  8
LAY-10
  6
CONTINUOUS
 62
     7
100
AcDbText
 10
708.453928685868
 20
742.4909871006668
 30
0.0
 40
7.795275999999999
  1
Ｔ
 50
23.05517358834001
 41
1.2
  7
EXCADSTD
100
AcDbText
  0
TEXT
  5
1CA
330
1F
100
AcDbEntity
  8
LAY-10
  6
CONTINUOUS
 62
     7
100
AcDbText
 10
716.642008711365
 20
745.9747787971284
 30
0.0
 40
7.795275999999999
  1
Ｄ
 50
25.33484073236002
 41
1.2
  7
EXCADSTD
100
AcDbText
  0
TEXT
  5
1CB
330
1F
100
AcDbEntity
  8
LAY-10
  6
CONTINUOUS
 62
     7
100
AcDbText
 10
724.6850329961102
 20
749.7815122319774
 30
0.0
 40
7.795275999999999
  1
．
 50
27.61450787637999
 41
1.2
  7
EXCADSTD
100
AcDbText
  0
TEXT
  5
1CC
330
1F
100
AcDbEntity
  8
LAY-10
  6
CONTINUOUS
 62
     7
100
AcDbText
 10
736.8037902853047
 20
756.2875673509707
 30
0.0
 40
7.795275999999999
  1
Ｓ
 50
31.33959581774998
 41
1.2
  7
EXCADSTD
100
AcDbText
  0
TEXT
  5
1CD
330
1F
100
AcDbEntity
  8
LAY-10
  6
CONTINUOUS
 62
     7
100
AcDbText
 10
745.7364107054012
 20
761.7254313112322
 30
0.0
 40
7.795275999999999
  1
Ｆ
 50
34.01878745323
 41
1.2
  7
EXCADSTD
100
AcDbText
  0
TEXT
  5
1CE
330
1F
100
AcDbEntity
  8
LAY-10
  6
CONTINUOUS
 62
     7
100
AcDbText
 10
754.4050812767437
 20
767.5748947520481
 30
0.0
 40
7.795275999999999
  1
－
 50
36.69797908871999
 41
1.2
  7
EXCADSTD
100
AcDbText
  0
TEXT
  5
1CF
330
1F
100
AcDbEntity
  8
LAY-10
  6
CONTINUOUS
 62
     7
100
AcDbText
 10
762.7908508455116
 20
773.8231697746703
 30
0.0
 40
7.795275999999999
  1
４
 50
39.37717072421002
 41
1.2
  7
EXCADSTD
100
AcDbText
  0
TEXT
  5
1D0
330
1F
100
AcDbEntity
  8
LAY-10
  6
CONTINUOUS
 62
     7
100
AcDbText
 10
770.875386726547
 20
780.4565966121609
 30
0.0
 40
7.795275999999999
  1
５
 50
42.0563623597
 41
1.2
  7
EXCADSTD
100
AcDbText
  0
TEXT
  5
1D1
330
1F
100
AcDbEntity
  8
LAY-10
  6
CONTINUOUS
 62
     7
100
AcDbText
 10
786.070758057614
 20
794.8200883371455
 30
0.0
 40
7.795275999999999
  1
Ａ
 50
47.41474563067001
 41
1.2
  7
EXCADSTD
100
AcDbText
  0
LINE
  5
1D2
330
1F
100
AcDbEntity
  8
LAY-10
  6
CONTINUOUS
 62
     7
100
AcDbLine
 10
657.7749604780008
 20
1170.259607923
 30
0.0
 11
659.1132558116008
 21
1168.421703377
 31
0.0
  0
LINE
  5
1D3
330
1F
100
AcDbEntity
  8
LAY-10
  6
CONTINUOUS
 62
     7
100
AcDbLine
 10
680.9457367696009
 20
1164.881534671
 30
0.0
 11
679.1091623574008
 21
1168.427327178
 31
0.0
  0
LINE
  5
1D4
330
1F
100
AcDbEntity
  8
LAY-10
  6
CONTINUOUS
 62
     7
100
AcDbLine
 10
681.9611652996008
 20
1171.200473451
 30
0.0
 11
679.1091623574008
 21
1168.427327178
 31
0.0
  0
LINE
  5
1D5
330
1F
100
AcDbEntity
  8
LAY-10
  6
CONTINUOUS
 62
     7
100
AcDbLine
 10
658.2749712391008
 20
1173.420326447
 30
0.0
 11
660.1254613472008
 21
1174.741164771
 31
0.0
  0
LINE
  5
1D6
330
1F
100
AcDbEntity
  8
LAY-10
  6
CONTINUOUS
 62
     7
100
AcDbLine
 10
643.2182559727007
 20
1170.99910084
 30
0.0
 11
643.4208743243007
 21
1172.587143978
 31
0.0
  0
LINE
  5
1D7
330
1F
100
AcDbEntity
  8
LAY-10
  6
CONTINUOUS
 62
     7
100
AcDbLine
 10
643.8261110275008
 20
1175.763230255
 30
0.0
 11
644.0287293791008
 21
1177.351273394
 31
0.0
  0
LINE
  5
1D8
330
1F
100
AcDbEntity
  8
LAY-10
  6
CONTINUOUS
 62
     7
100
AcDbLine
 10
658.2749712391008
 20
1173.420326447
 30
0.0
 11
643.8261110275008
 21
1175.763230255
 31
0.0
  0
LINE
  5
1D9
330
1F
100
AcDbEntity
  8
LAY-10
  6
CONTINUOUS
 62
     7
100
AcDbLine
 10
643.4208743243007
 20
1172.587143978
 30
0.0
 11
657.7749604780008
 21
1170.259607923
 31
0.0
  0
LINE
  5
1DA
330
1F
100
AcDbEntity
  8
LAY-10
  6
CONTINUOUS
 62
     7
100
AcDbLine
 10
660.1254613472008
 20
1174.741164771
 30
0.0
 11
681.9611652996008
 21
1171.200473451
 31
0.0
  0
LINE
  5
1DB
330
1F
100
AcDbEntity
  8
LAY-10
  6
CONTINUOUS
 62
     7
100
AcDbLine
 10
659.1132558116008
 20
1168.421703377
 30
0.0
 11
680.9457367696009
 21
1164.881534671
 31
0.0
  0
LINE
  5
1DC
330
1F
100
AcDbEntity
  8
LAY-10
  6
CONTINUOUS
 62
     7
100
AcDbLine
 10
637.3023862721008
 20
1175.200163762
 30
0.0
 11
644.0287293791008
 21
1177.351273394
 31
0.0
  0
LINE
  5
1DD
330
1F
100
AcDbEntity
  8
LAY-10
  6
CONTINUOUS
 62
     7
100
AcDbLine
 10
643.2182559727007
 20
1170.99910084
 30
0.0
 11
637.3023862721008
 21
1175.200163762
 31
0.0
  0
LINE
  5
1DE
330
1F
100
AcDbEntity
  8
LAY-10
  6
CONTINUOUS
 62
     7
100
AcDbLine
 10
617.5000000000009
 20
1169.009618943
 30
0.0
 11
632.5000000000008
 21
1169.009618943
 31
0.0
  0
LINE
  5
1DF
330
1F
100
AcDbEntity
  8
LAY-10
  6
CONTINUOUS
 62
     7
100
AcDbLine
 10
625.0000000000008
 20
1182.0
 30
0.0
 11
617.5000000000009
 21
1169.009618943
 31
0.0
  0
LINE
  5
1E0
330
1F
100
AcDbEntity
  8
LAY-10
  6
CONTINUOUS
 62
     7
100
AcDbLine
 10
625.0000000000008
 20
1182.0
 30
0.0
 11
632.5000000000008
 21
1169.009618943
 31
0.0
  0
TEXT
  5
1E1
330
1F
100
AcDbEntity
  8
LAY-10
  6
CONTINUOUS
 62
     7
100
AcDbText
 10
568.1106826693587
 20
1163.90227378653
 30
0.0
 40
7.795275999999999
  1
Ｏ
 50
13.44255816895999
 41
1.2
  7
EXCADSTD
100
AcDbText
  0
TEXT
  5
1E2
330
1F
100
AcDbEntity
  8
LAY-10
  6
CONTINUOUS
 62
     7
100
AcDbText
 10
579.079898443619
 20
1166.522334714493
 30
0.0
 40
7.795275999999999
  1
Ｐ
 50
10.52286562383003
 41
1.2
  7
EXCADSTD
100
AcDbText
  0
TEXT
  5
1E3
330
1F
100
AcDbEntity
  8
LAY-10
  6
CONTINUOUS
 62
     7
100
AcDbText
 10
590.1683311208144
 20
1168.580264434101
 30
0.0
 40
7.795275999999999
  1
Ｅ
 50
7.603173078710029
 41
1.2
  7
EXCADSTD
100
AcDbText
  0
TEXT
  5
1E4
330
1F
100
AcDbEntity
  8
LAY-10
  6
CONTINUOUS
 62
     7
100
AcDbText
 10
601.3471931209118
 20
1170.070720187977
 30
0.0
 40
7.795275999999999
  1
Ｎ
 50
4.683480533580009
 41
1.2
  7
EXCADSTD
100
AcDbText
  0
LINE
  5
1E5
330
1F
100
AcDbEntity
  8
LAY-10
  6
CONTINUOUS
 62
     7
100
AcDbLine
 10
500.8743351359008
 20
768.9158191919001
 30
0.0
 11
513.7516533744009
 21
768.9570500591001
 31
0.0
  0
LINE
  5
1E6
330
1F
100
AcDbEntity
  8
LAY-10
  6
CONTINUOUS
 62
     7
100
AcDbLine
 10
513.7516533744009
 20
768.9570500591001
 30
0.0
 11
519.4315846179009
 21
757.4000000000001
 31
0.0
  0
LINE
  5
1E7
330
1F
100
AcDbEntity
  8
LAY-10
  6
CONTINUOUS
 62
     7
100
AcDbLine
 10
519.4315846179009
 20
757.4000000000001
 30
0.0
 11
506.5542663794009
 21
757.3587691328
 31
0.0
  0
LINE
  5
1E8
330
1F
100
AcDbEntity
  8
LAY-10
  6
CONTINUOUS
 62
     7
100
AcDbLine
 10
506.5542663794009
 20
757.3587691328
 30
0.0
 11
500.8743351359008
 21
768.9158191919001
 31
0.0
  0
TEXT
  5
1E9
330
1F
100
AcDbEntity
  8
LAY-10
  6
CONTINUOUS
 62
     7
100
AcDbText
 10
505.4955322023158
 20
762.3181312837812
 30
0.0
 40
6.384330716897201
  1
S
 50
328.1780669915002
 41
0.56692
  7
EXCADSTD
100
AcDbText
  0
TEXT
  5
1EA
330
1F
100
AcDbEntity
  8
LAY-10
  6
CONTINUOUS
 62
     7
100
AcDbText
 10
508.9970839403159
 20
760.1944759522813
 30
0.0
 40
6.384330716897201
  1
F
 50
328.1780669915002
 41
0.56692
  7
EXCADSTD
100
AcDbText
  0
LINE
  5
1EB
330
1F
100
AcDbEntity
  8
LAY-10
  6
CONTINUOUS
 62
     7
100
AcDbLine
 10
866.2499999999008
 20
395.8107844172004
 30
0.0
 11
879.9999999999009
 21
395.8107844172004
 31
0.0
  0
LINE
  5
1EC
330
1F
100
AcDbEntity
  8
LAY-10
  6
CONTINUOUS
 62
     7
100
AcDbLine
 10
886.860960707901
 20
348.8107844172002
 30
0.0
 11
982.1674283439008
 21
348.8107844172002
 31
0.0
  0
LINE
  5
1ED
330
1F
100
AcDbEntity
  8
LAY-10
  6
CONTINUOUS
 62
     7
100
AcDbLine
 10
879.9999999999009
 20
395.8107844172004
 30
0.0
 11
883.872376613901
 21
351.5493171890003
 31
0.0
  0
LINE
  5
1EE
330
1F
100
AcDbEntity
  8
LAY-10
  6
CONTINUOUS
 62
     7
100
AcDbLine
 10
880.8748866349009
 20
385.8107844172003
 30
0.0
 11
884.9999999999009
 21
385.8107844172003
 31
0.0
  0
LINE
  5
1EF
330
1F
100
AcDbEntity
  8
LAY-10
  6
CONTINUOUS
 62
     7
100
AcDbLine
 10
884.9999999999009
 20
385.8107844172003
 30
0.0
 11
937.8414762499008
 21
348.8107844172002
 31
0.0
  0
LINE
  5
1F0
330
1F
100
AcDbEntity
  8
LAY-10
  6
CONTINUOUS
 62
     7
100
AcDbLine
 10
866.2499999999008
 20
383.8107844172004
 30
0.0
 11
863.4999999999009
 21
383.8107844172004
 31
0.0
  0
LINE
  5
1F1
330
1F
100
AcDbEntity
  8
LAY-10
  6
CONTINUOUS
 62
     7
100
AcDbLine
 10
866.2499999999008
 20
395.8107844172004
 30
0.0
 11
866.2499999999008
 21
383.8107844172004
 31
0.0
  0
LINE
  5
1F2
330
1F
100
AcDbEntity
  8
LAY-10
  6
CONTINUOUS
 62
     7
100
AcDbLine
 10
863.4999999999009
 20
383.8107844172004
 30
0.0
 11
863.4999999999009
 21
372.8107844172003
 31
0.0
  0
LINE
  5
1F3
330
1F
100
AcDbEntity
  8
LAY-10
  6
CONTINUOUS
 62
     7
100
AcDbLine
 10
835.0924341641008
 20
360.6107844172003
 30
0.0
 11
850.0000000000008
 21
360.6107844172003
 31
0.0
  0
LINE
  5
1F4
330
1F
100
AcDbEntity
  8
LAY-10
  6
CONTINUOUS
 62
     7
100
AcDbLine
 10
834.5374958332009
 20
345.8107844172003
 30
0.0
 11
857.4999999999009
 21
345.8107844172003
 31
0.0
  0
LINE
  5
1F5
330
1F
100
AcDbEntity
  8
LAY-10
  6
CONTINUOUS
 62
     7
100
AcDbLine
 10
857.4999999999009
 20
340.8107844172003
 30
0.0
 11
857.4999999999009
 21
345.8107844172003
 31
0.0
  0
LINE
  5
1F6
330
1F
100
AcDbEntity
  8
LAY-10
  6
CONTINUOUS
 62
     7
100
AcDbLine
 10
850.0000000000008
 20
360.6107844172003
 30
0.0
 11
850.7756351334009
 21
345.8107844172003
 31
0.0
  0
LINE
  5
1F7
330
1F
100
AcDbEntity
  8
LAY-10
  6
CONTINUOUS
 62
     7
100
AcDbLine
 10
984.6999999999009
 20
340.8107844172003
 30
0.0
 11
984.1598177399007
 21
346.9850959027003
 31
0.0
  0
LINE
  5
1F8
330
1F
100
AcDbEntity
  8
LAY-10
  6
CONTINUOUS
 62
     7
100
AcDbLine
 10
864.9999999999009
 20
383.8107844172004
 30
0.0
 11
864.9999999999009
 21
395.8107844172004
 31
0.0
  0
LINE
  5
1F9
330
1F
100
AcDbEntity
  8
LAY-10
  6
CONTINUOUS
 62
     7
100
AcDbLine
 10
385.0000000001007
 20
395.8107844172004
 30
0.0
 11
625.0000000000008
 21
400.0000000000003
 31
0.0
  0
LINE
  5
1FA
330
1F
100
AcDbEntity
  8
LAY-10
  6
CONTINUOUS
 62
     7
100
AcDbLine
 10
826.5000000000009
 20
344.8107844172004
 30
0.0
 11
834.500000000001
 21
344.8107844172004
 31
0.0
  0
LINE
  5
1FB
330
1F
100
AcDbEntity
  8
LAY-10
  6
CONTINUOUS
 62
     7
100
AcDbLine
 10
826.5000000000009
 20
344.8107844172004
 30
0.0
 11
824.5880541317009
 21
381.2928848700003
 31
0.0
  0
LINE
  5
1FC
330
1F
100
AcDbEntity
  8
LAY-10
  6
CONTINUOUS
 62
     7
100
AcDbLine
 10
834.500000000001
 20
344.8107844172004
 30
0.0
 11
835.817973961901
 21
379.9606624274003
 31
0.0
  0
LINE
  5
1FD
330
1F
100
AcDbEntity
  8
LAY-10
  6
CONTINUOUS
 62
     7
100
AcDbLine
 10
864.9999999999009
 20
383.8107844172004
 30
0.0
 11
839.8151650484008
 21
383.8107844172004
 31
0.0
  0
LINE
  5
1FE
330
1F
100
AcDbEntity
  8
LAY-10
  6
CONTINUOUS
 62
     7
100
AcDbLine
 10
850.639374907301
 20
372.8107844172003
 30
0.0
 11
835.5498833288008
 21
372.8107844172003
 31
0.0
  0
ARC
  5
1FF
330
1F
100
AcDbEntity
  8
LAY-10
  6
CONTINUOUS
 62
     7
100
AcDbCircle
 10
839.8151650484008
 20
379.8107844172004
 30
0.0
 40
4.0
100
AcDbArc
 50
90.0
 51
177.8526529781009
  0
ARC
  5
200
330
1F
100
AcDbEntity
  8
LAY-10
  6
CONTINUOUS
 62
     7
100
AcDbCircle
 10
820.5935359927009
 20
381.0835410450003
 30
0.0
 40
4.0
100
AcDbArc
 50
2.99999999999909
 51
89.00000000000148
  0
LINE
  5
201
330
1F
100
AcDbEntity
  8
LAY-10
  6
CONTINUOUS
 62
     7
100
AcDbLine
 10
535.0000000000008
 20
386.0000000000003
 30
0.0
 11
534.0886158849008
 21
386.9113841151003
 31
0.0
  0
ARC
  5
202
330
1F
100
AcDbEntity
  8
LAY-10
  6
CONTINUOUS
 62
     7
100
AcDbCircle
 10
886.860960707901
 20
351.8107844172003
 30
0.0
 40
3.000000000000001
100
AcDbArc
 50
185.0000000000009
 51
270.0
  0
ARC
  5
203
330
1F
100
AcDbEntity
  8
LAY-10
  6
CONTINUOUS
 62
     7
100
AcDbCircle
 10
982.1674283439008
 20
346.8107844172003
 30
0.0
 40
2.0
100
AcDbArc
 50
5.000000000001347
 51
90.0
  0
LINE
  5
204
330
1F
100
AcDbEntity
  8
LAY-10
  6
CONTINUOUS
 62
     7
100
AcDbLine
 10
392.5000000000009
 20
340.8107844172003
 30
0.0
 11
392.5000000000009
 21
345.8107844172003
 31
0.0
  0
LINE
  5
205
330
1F
100
AcDbEntity
  8
LAY-10
  6
CONTINUOUS
 62
     7
100
AcDbLine
 10
400.0000000000009
 20
360.6107844172003
 30
0.0
 11
399.2243648666009
 21
345.8107844172003
 31
0.0
  0
LINE
  5
206
330
1F
100
AcDbEntity
  8
LAY-10
  6
CONTINUOUS
 62
     7
100
AcDbLine
 10
386.5000000000008
 20
383.8107844172004
 30
0.0
 11
386.5000000000008
 21
372.8107844172003
 31
0.0
  0
LINE
  5
207
330
1F
100
AcDbEntity
  8
LAY-10
  6
CONTINUOUS
 62
     7
100
AcDbLine
 10
383.750000000001
 20
383.8107844172004
 30
0.0
 11
386.5000000000008
 21
383.8107844172004
 31
0.0
  0
LINE
  5
208
330
1F
100
AcDbEntity
  8
LAY-10
  6
CONTINUOUS
 62
     7
100
AcDbLine
 10
383.750000000001
 20
395.8107844172004
 30
0.0
 11
383.750000000001
 21
383.8107844172004
 31
0.0
  0
LINE
  5
209
330
1F
100
AcDbEntity
  8
LAY-10
  6
CONTINUOUS
 62
     7
100
AcDbLine
 10
865.0000000000008
 20
395.8107844172004
 30
0.0
 11
625.0000000000008
 21
400.0000000000003
 31
0.0
  0
LINE
  5
20A
330
1F
100
AcDbEntity
  8
LAY-10
  6
CONTINUOUS
 62
     7
100
AcDbLine
 10
383.750000000001
 20
395.8107844172004
 30
0.0
 11
370.0000000000009
 21
395.8107844172004
 31
0.0
  0
LINE
  5
20B
330
1F
100
AcDbEntity
  8
LAY-10
  6
CONTINUOUS
 62
     7
100
AcDbLine
 10
423.5000000000009
 20
344.8107844172004
 30
0.0
 11
406.0000000000009
 21
344.8107844172004
 31
0.0
  0
LINE
  5
20C
330
1F
100
AcDbEntity
  8
LAY-10
  6
CONTINUOUS
 62
     7
100
AcDbLine
 10
406.0000000000009
 20
345.8107844172003
 30
0.0
 11
392.5000000000009
 21
345.8107844172003
 31
0.0
  0
LINE
  5
20D
330
1F
100
AcDbEntity
  8
LAY-10
  6
CONTINUOUS
 62
     7
100
AcDbLine
 10
385.0000000000009
 20
383.8107844172004
 30
0.0
 11
385.0000000000009
 21
395.8107844172004
 31
0.0
  0
LINE
  5
20E
330
1F
100
AcDbEntity
  8
LAY-10
  6
CONTINUOUS
 62
     7
100
AcDbLine
 10
410.3606250927008
 20
372.8107844172003
 30
0.0
 11
414.450116671201
 21
372.8107844172003
 31
0.0
  0
LINE
  5
20F
330
1F
100
AcDbEntity
  8
LAY-10
  6
CONTINUOUS
 62
     7
100
AcDbLine
 10
385.0000000000009
 20
383.8107844172004
 30
0.0
 11
410.184834951601
 21
383.8107844172004
 31
0.0
  0
ARC
  5
210
330
1F
100
AcDbEntity
  8
LAY-10
  6
CONTINUOUS
 62
     7
100
AcDbCircle
 10
410.184834951601
 20
379.8107844172004
 30
0.0
 40
4.0
100
AcDbArc
 50
2.147347021858359
 51
90.0
  0
LINE
  5
211
330
1F
100
AcDbEntity
  8
LAY-10
  6
CONTINUOUS
 62
     7
100
AcDbLine
 10
715.0000000000008
 20
386.0000000000003
 30
0.0
 11
715.9113841151009
 21
386.9113841151003
 31
0.0
  0
LINE
  5
212
330
1F
100
AcDbEntity
  8
LAY-10
  6
CONTINUOUS
 62
     7
100
AcDbLine
 10
370.0000000000009
 20
395.8107844172004
 30
0.0
 11
366.1276233865008
 21
351.5493171890003
 31
0.0
  0
ARC
  5
213
330
1F
100
AcDbEntity
  8
LAY-10
  6
CONTINUOUS
 62
     7
100
AcDbCircle
 10
363.1390392922008
 20
351.8107844172003
 30
0.0
 40
3.000000000000001
100
AcDbArc
 50
270.0
 51
354.9999999999991
  0
LINE
  5
214
330
1F
100
AcDbEntity
  8
LAY-10
  6
CONTINUOUS
 62
     7
100
AcDbLine
 10
363.1390392922008
 20
348.8107844172002
 30
0.0
 11
360.0325716562009
 21
348.8107844172002
 31
0.0
  0
LINE
  5
215
330
1F
100
AcDbEntity
  8
LAY-10
  6
CONTINUOUS
 62
     7
100
AcDbLine
 10
357.5000000000009
 20
340.8107844172003
 30
0.0
 11
358.0401822601008
 21
346.9850959027003
 31
0.0
  0
ARC
  5
216
330
1F
100
AcDbEntity
  8
LAY-10
  6
CONTINUOUS
 62
     7
100
AcDbCircle
 10
360.0325716562009
 20
346.8107844172003
 30
0.0
 40
2.0
100
AcDbArc
 50
90.0
 51
174.9999999999987
  0
LINE
  5
217
330
1F
100
AcDbEntity
  8
LAY-10
  6
CONTINUOUS
 62
     7
100
AcDbLine
 10
409.8562897900008
 20
382.4340752658003
 30
0.0
 11
411.0000000000009
 21
360.6107844172003
 31
0.0
  0
LINE
  5
218
330
1F
100
AcDbEntity
  8
LAY-10
  6
CONTINUOUS
 62
     7
100
AcDbLine
 10
411.0000000000009
 20
360.6107844172003
 30
0.0
 11
410.9371106649008
 21
359.4107844172003
 31
0.0
  0
LINE
  5
219
330
1F
100
AcDbEntity
  8
LAY-10
  6
CONTINUOUS
 62
     7
100
AcDbLine
 10
399.3606250927008
 20
372.8107844172003
 30
0.0
 11
402.3080662095008
 21
383.8107844172004
 31
0.0
  0
LINE
  5
21A
330
1F
100
AcDbEntity
  8
LAY-10
  6
CONTINUOUS
 62
     7
100
AcDbLine
 10
408.4055410480009
 20
383.8107844172004
 30
0.0
 11
409.8562897900008
 21
382.4340752658003
 31
0.0
  0
LINE
  5
21B
330
1F
100
AcDbEntity
  8
LAY-10
  6
CONTINUOUS
 62
     7
100
AcDbLine
 10
409.8562897900008
 20
382.4340752658003
 30
0.0
 11
401.9391781042008
 21
382.4340752658003
 31
0.0
  0
LINE
  5
21C
330
1F
100
AcDbEntity
  8
LAY-10
  6
CONTINUOUS
 62
     7
100
AcDbLine
 10
386.5000000000008
 20
383.8107844172004
 30
0.0
 11
386.5000000000008
 21
372.8107844172003
 31
0.0
  0
LINE
  5
21D
330
1F
100
AcDbEntity
  8
LAY-10
  6
CONTINUOUS
 62
     7
100
AcDbLine
 10
390.500000000001
 20
357.8107844172002
 30
0.0
 11
390.500000000001
 21
372.8107844172003
 31
0.0
  0
LINE
  5
21E
330
1F
100
AcDbEntity
  8
LAY-10
  6
CONTINUOUS
 62
     7
100
AcDbLine
 10
395.5000000000008
 20
357.8107844172002
 30
0.0
 11
390.500000000001
 21
357.8107844172002
 31
0.0
  0
LINE
  5
21F
330
1F
100
AcDbEntity
  8
LAY-10
  6
CONTINUOUS
 62
     7
100
AcDbLine
 10
390.500000000001
 20
357.8107844172002
 30
0.0
 11
396.0000000000009
 21
357.8107844172002
 31
0.0
  0
LINE
  5
220
330
1F
100
AcDbEntity
  8
LAY-10
  6
CONTINUOUS
 62
     7
100
AcDbLine
 10
390.500000000001
 20
372.8107844172003
 30
0.0
 11
390.500000000001
 21
357.8107844172002
 31
0.0
  0
LINE
  5
221
330
1F
100
AcDbEntity
  8
LAY-10
  6
CONTINUOUS
 62
     7
100
AcDbLine
 10
396.0000000000009
 20
372.8107844172003
 30
0.0
 11
396.0000000000009
 21
357.8107844172002
 31
0.0
  0
LINE
  5
222
330
1F
100
AcDbEntity
  8
LAY-10
  6
CONTINUOUS
 62
     7
100
AcDbLine
 10
389.0000000000008
 20
372.8107844172003
 30
0.0
 11
390.500000000001
 21
372.8107844172003
 31
0.0
  0
LINE
  5
223
330
1F
100
AcDbEntity
  8
LAY-10
  6
CONTINUOUS
 62
     7
100
AcDbLine
 10
390.500000000001
 20
372.8107844172003
 30
0.0
 11
390.500000000001
 21
357.8107844172002
 31
0.0
  0
LINE
  5
224
330
1F
100
AcDbEntity
  8
LAY-10
  6
CONTINUOUS
 62
     7
100
AcDbLine
 10
396.0000000000009
 20
357.8107844172002
 30
0.0
 11
396.0000000000009
 21
372.8107844172003
 31
0.0
  0
LINE
  5
225
330
1F
100
AcDbEntity
  8
LAY-10
  6
CONTINUOUS
 62
     7
100
AcDbLine
 10
396.0000000000009
 20
372.8107844172003
 30
0.0
 11
399.0000000000008
 21
372.8107844172003
 31
0.0
  0
LINE
  5
226
330
1F
100
AcDbEntity
  8
LAY-10
  6
CONTINUOUS
 62
     7
100
AcDbLine
 10
389.0000000000008
 20
372.8107844172003
 30
0.0
 11
389.0000000000008
 21
376.8107844172003
 31
0.0
  0
LINE
  5
227
330
1F
100
AcDbEntity
  8
LAY-10
  6
CONTINUOUS
 62
     7
100
AcDbLine
 10
389.0000000000008
 20
376.8107844172003
 30
0.0
 11
390.3395614911008
 21
376.8107844172003
 31
0.0
  0
LINE
  5
228
330
1F
100
AcDbEntity
  8
LAY-10
  6
CONTINUOUS
 62
     7
100
AcDbLine
 10
399.0000000000008
 20
376.8107844172003
 30
0.0
 11
394.0000000000008
 21
376.8107844172003
 31
0.0
  0
LINE
  5
229
330
1F
100
AcDbEntity
  8
LAY-10
  6
CONTINUOUS
 62
     7
100
AcDbLine
 10
396.0000000000009
 20
357.8107844172002
 30
0.0
 11
390.500000000001
 21
357.8107844172002
 31
0.0
  0
LINE
  5
22A
330
1F
100
AcDbEntity
  8
LAY-10
  6
CONTINUOUS
 62
     7
100
AcDbLine
 10
389.0588745030008
 20
372.8107844172003
 30
0.0
 11
394.0000000000008
 21
377.7519099142003
 31
0.0
  0
LINE
  5
22B
330
1F
100
AcDbEntity
  8
LAY-10
  6
CONTINUOUS
 62
     7
100
AcDbLine
 10
390.500000000001
 20
370.0092692271003
 30
0.0
 11
397.3015151902008
 21
376.8107844172003
 31
0.0
  0
LINE
  5
22C
330
1F
100
AcDbEntity
  8
LAY-10
  6
CONTINUOUS
 62
     7
100
AcDbLine
 10
390.500000000001
 20
365.7666285399003
 30
0.0
 11
396.0000000000009
 21
371.2666285399003
 31
0.0
  0
LINE
  5
22D
330
1F
100
AcDbEntity
  8
LAY-10
  6
CONTINUOUS
 62
     7
100
AcDbLine
 10
390.500000000001
 20
361.5239878528002
 30
0.0
 11
396.0000000000009
 21
367.0239878528003
 31
0.0
  0
LINE
  5
22E
330
1F
100
AcDbEntity
  8
LAY-10
  6
CONTINUOUS
 62
     7
100
AcDbLine
 10
391.029437251501
 20
357.8107844172002
 30
0.0
 11
396.0000000000009
 21
362.7813471657002
 31
0.0
  0
LINE
  5
22F
330
1F
100
AcDbEntity
  8
LAY-10
  6
CONTINUOUS
 62
     7
100
AcDbLine
 10
395.2720779386008
 20
357.8107844172002
 30
0.0
 11
396.0000000000009
 21
358.5387064786003
 31
0.0
  0
LINE
  5
230
330
1F
100
AcDbEntity
  8
LAY-10
  6
CONTINUOUS
 62
     7
100
AcDbLine
 10
397.5441558773009
 20
372.8107844172003
 30
0.0
 11
399.0000000000008
 21
374.2666285399004
 31
0.0
  0
LINE
  5
231
330
1F
100
AcDbEntity
  8
LAY-10
  6
CONTINUOUS
 62
     7
100
AcDbLine
 10
390.500000000001
 20
378.4945506013003
 30
0.0
 11
395.8162338159009
 21
383.8107844172004
 31
0.0
  0
LINE
  5
232
330
1F
100
AcDbEntity
  8
LAY-10
  6
CONTINUOUS
 62
     7
100
AcDbLine
 10
399.0000000000008
 20
376.8107844172003
 30
0.0
 11
399.0000000000008
 21
372.8107844172003
 31
0.0
  0
LINE
  5
233
330
1F
100
AcDbEntity
  8
LAY-10
  6
CONTINUOUS
 62
     7
100
AcDbLine
 10
386.5000000000008
 20
372.8107844172003
 30
0.0
 11
390.500000000001
 21
372.8107844172003
 31
0.0
  0
LINE
  5
234
330
1F
100
AcDbEntity
  8
LAY-10
  6
CONTINUOUS
 62
     7
100
AcDbLine
 10
396.0000000000009
 20
372.8107844172003
 30
0.0
 11
399.3606250927008
 21
372.8107844172003
 31
0.0
  0
LINE
  5
235
330
1F
100
AcDbEntity
  8
LAY-10
  6
CONTINUOUS
 62
     7
100
AcDbLine
 10
406.0000000000009
 20
344.8107844172004
 30
0.0
 11
406.0000000000009
 21
359.4107844172003
 31
0.0
  0
ARC
  5
236
330
1F
100
AcDbEntity
  8
LAY-10
  6
CONTINUOUS
 62
     7
100
AcDbCircle
 10
397.4386635755009
 20
377.1513029949003
 30
0.0
 40
7.107264122500002
100
AcDbArc
 50
110.4468794367009
 51
182.7461691348999
  0
ARC
  5
237
330
1F
100
AcDbEntity
  8
LAY-10
  6
CONTINUOUS
 62
     7
100
AcDbCircle
 10
399.5516124482008
 20
377.6831477978003
 30
0.0
 40
5.619734748460002
100
AcDbArc
 50
88.51357719312992
 51
188.9302591261998
  0
LINE
  5
238
330
1F
100
AcDbEntity
  8
LAY-10
  6
CONTINUOUS
 62
     7
100
AcDbLine
 10
399.913070332901
 20
383.8107844172004
 30
0.0
 11
399.697388716301
 21
383.3009915054002
 31
0.0
  0
LINE
  5
239
330
1F
100
AcDbEntity
  8
LAY-10
  6
CONTINUOUS
 62
     7
100
AcDbLine
 10
386.5000000000008
 20
372.8107844172003
 30
0.0
 11
390.500000000001
 21
372.8107844172003
 31
0.0
  0
LINE
  5
23A
330
1F
100
AcDbEntity
  8
LAY-10
  6
CONTINUOUS
 62
     7
100
AcDbLine
 10
396.0000000000009
 20
372.8107844172003
 30
0.0
 11
399.3606250927008
 21
372.8107844172003
 31
0.0
  0
LINE
  5
23B
330
1F
100
AcDbEntity
  8
LAY-10
  6
CONTINUOUS
 62
     7
100
AcDbLine
 10
859.4999999999008
 20
357.8107844172002
 30
0.0
 11
859.4999999999008
 21
372.8107844172003
 31
0.0
  0
LINE
  5
23C
330
1F
100
AcDbEntity
  8
LAY-10
  6
CONTINUOUS
 62
     7
100
AcDbLine
 10
854.499999999901
 20
357.8107844172002
 30
0.0
 11
859.4999999999008
 21
357.8107844172002
 31
0.0
  0
LINE
  5
23D
330
1F
100
AcDbEntity
  8
LAY-10
  6
CONTINUOUS
 62
     7
100
AcDbLine
 10
850.0000000000008
 20
360.6107844172003
 30
0.0
 11
850.639374907301
 21
372.8107844172003
 31
0.0
  0
LINE
  5
23E
330
1F
100
AcDbEntity
  8
LAY-10
  6
CONTINUOUS
 62
     7
100
AcDbLine
 10
859.4999999999008
 20
357.8107844172002
 30
0.0
 11
853.9999999999009
 21
357.8107844172002
 31
0.0
  0
LINE
  5
23F
330
1F
100
AcDbEntity
  8
LAY-10
  6
CONTINUOUS
 62
     7
100
AcDbLine
 10
859.4999999999008
 20
372.8107844172003
 30
0.0
 11
859.4999999999008
 21
357.8107844172002
 31
0.0
  0
LINE
  5
240
330
1F
100
AcDbEntity
  8
LAY-10
  6
CONTINUOUS
 62
     7
100
AcDbLine
 10
853.9999999999009
 20
372.8107844172003
 30
0.0
 11
853.9999999999009
 21
357.8107844172002
 31
0.0
  0
LINE
  5
241
330
1F
100
AcDbEntity
  8
LAY-10
  6
CONTINUOUS
 62
     7
100
AcDbLine
 10
860.9999999999009
 20
372.8107844172003
 30
0.0
 11
859.4999999999008
 21
372.8107844172003
 31
0.0
  0
LINE
  5
242
330
1F
100
AcDbEntity
  8
LAY-10
  6
CONTINUOUS
 62
     7
100
AcDbLine
 10
859.4999999999008
 20
372.8107844172003
 30
0.0
 11
859.4999999999008
 21
357.8107844172002
 31
0.0
  0
LINE
  5
243
330
1F
100
AcDbEntity
  8
LAY-10
  6
CONTINUOUS
 62
     7
100
AcDbLine
 10
853.9999999999009
 20
357.8107844172002
 30
0.0
 11
853.9999999999009
 21
372.8107844172003
 31
0.0
  0
LINE
  5
244
330
1F
100
AcDbEntity
  8
LAY-10
  6
CONTINUOUS
 62
     7
100
AcDbLine
 10
853.9999999999009
 20
372.8107844172003
 30
0.0
 11
851.0000000000009
 21
372.8107844172003
 31
0.0
  0
LINE
  5
245
330
1F
100
AcDbEntity
  8
LAY-10
  6
CONTINUOUS
 62
     7
100
AcDbLine
 10
860.9999999999009
 20
372.8107844172003
 30
0.0
 11
860.9999999999009
 21
376.8107844172003
 31
0.0
  0
LINE
  5
246
330
1F
100
AcDbEntity
  8
LAY-10
  6
CONTINUOUS
 62
     7
100
AcDbLine
 10
851.0000000000009
 20
376.8107844172003
 30
0.0
 11
855.9999999999009
 21
376.8107844172003
 31
0.0
  0
LINE
  5
247
330
1F
100
AcDbEntity
  8
LAY-10
  6
CONTINUOUS
 62
     7
100
AcDbLine
 10
853.9999999999009
 20
357.8107844172002
 30
0.0
 11
859.4999999999008
 21
357.8107844172002
 31
0.0
  0
LINE
  5
248
330
1F
100
AcDbEntity
  8
LAY-10
  6
CONTINUOUS
 62
     7
100
AcDbLine
 10
860.9411254969009
 20
372.8107844172003
 30
0.0
 11
855.9999999999009
 21
377.7519099142003
 31
0.0
  0
LINE
  5
249
330
1F
100
AcDbEntity
  8
LAY-10
  6
CONTINUOUS
 62
     7
100
AcDbLine
 10
859.4999999999008
 20
370.0092692271003
 30
0.0
 11
852.6984848099008
 21
376.8107844172003
 31
0.0
  0
LINE
  5
24A
330
1F
100
AcDbEntity
  8
LAY-10
  6
CONTINUOUS
 62
     7
100
AcDbLine
 10
859.4999999999008
 20
365.7666285399003
 30
0.0
 11
853.9999999999009
 21
371.2666285399003
 31
0.0
  0
LINE
  5
24B
330
1F
100
AcDbEntity
  8
LAY-10
  6
CONTINUOUS
 62
     7
100
AcDbLine
 10
859.4999999999008
 20
361.5239878528002
 30
0.0
 11
853.9999999999009
 21
367.0239878528003
 31
0.0
  0
LINE
  5
24C
330
1F
100
AcDbEntity
  8
LAY-10
  6
CONTINUOUS
 62
     7
100
AcDbLine
 10
858.9705627489009
 20
357.8107844172002
 30
0.0
 11
853.9999999999009
 21
362.7813471657002
 31
0.0
  0
LINE
  5
24D
330
1F
100
AcDbEntity
  8
LAY-10
  6
CONTINUOUS
 62
     7
100
AcDbLine
 10
854.7279220609008
 20
357.8107844172002
 30
0.0
 11
853.9999999999009
 21
358.5387064786003
 31
0.0
  0
LINE
  5
24E
330
1F
100
AcDbEntity
  8
LAY-10
  6
CONTINUOUS
 62
     7
100
AcDbLine
 10
859.4999999999008
 20
378.4945506013003
 30
0.0
 11
854.1837661839008
 21
383.8107844172004
 31
0.0
  0
LINE
  5
24F
330
1F
100
AcDbEntity
  8
LAY-10
  6
CONTINUOUS
 62
     7
100
AcDbLine
 10
852.4558441229008
 20
372.8107844172003
 30
0.0
 11
851.0000000000009
 21
374.2666285399004
 31
0.0
  0
LINE
  5
250
330
1F
100
AcDbEntity
  8
LAY-10
  6
CONTINUOUS
 62
     7
100
AcDbLine
 10
851.0000000000009
 20
376.8107844172003
 30
0.0
 11
851.0000000000009
 21
372.8107844172003
 31
0.0
  0
LINE
  5
251
330
1F
100
AcDbEntity
  8
LAY-10
  6
CONTINUOUS
 62
     7
100
AcDbLine
 10
853.9999999999009
 20
372.8107844172003
 30
0.0
 11
850.639374907301
 21
372.8107844172003
 31
0.0
  0
LINE
  5
252
330
1F
100
AcDbEntity
  8
LAY-10
  6
CONTINUOUS
 62
     7
100
AcDbLine
 10
860.9999999999009
 20
376.8107844172003
 30
0.0
 11
859.6604385089008
 21
376.8107844172003
 31
0.0
  0
ARC
  5
253
330
1F
100
AcDbEntity
  8
LAY-10
  6
CONTINUOUS
 62
     7
100
AcDbCircle
 10
852.5613364249009
 20
377.1513029949003
 30
0.0
 40
7.107264122500002
100
AcDbArc
 50
357.2538308651002
 51
69.55312056333989
  0
ARC
  5
254
330
1F
100
AcDbEntity
  8
LAY-10
  6
CONTINUOUS
 62
     7
100
AcDbCircle
 10
850.4483875518009
 20
377.6831477978003
 30
0.0
 40
5.619734748460002
100
AcDbArc
 50
351.0697408738004
 51
91.48642280686828
  0
LINE
  5
255
330
1F
100
AcDbEntity
  8
LAY-10
  6
CONTINUOUS
 62
     7
100
AcDbLine
 10
850.0869296671008
 20
383.8107844172004
 30
0.0
 11
850.3026112837009
 21
383.3009915054002
 31
0.0
  0
LINE
  5
256
330
1F
100
AcDbEntity
  8
LAY-10
  6
CONTINUOUS
 62
     7
100
AcDbLine
 10
853.9999999999009
 20
372.8107844172003
 30
0.0
 11
850.639374907301
 21
372.8107844172003
 31
0.0
  0
LINE
  5
257
330
1F
100
AcDbEntity
  8
LAY-10
  6
CONTINUOUS
 62
     7
100
AcDbLine
 10
863.4999999999009
 20
372.8107844172003
 30
0.0
 11
859.4999999999008
 21
372.8107844172003
 31
0.0
  0
LINE
  5
258
330
1F
100
AcDbEntity
  8
LAY-10
  6
CONTINUOUS
 62
     7
100
AcDbLine
 10
853.9999999999009
 20
372.8107844172003
 30
0.0
 11
850.639374907301
 21
372.8107844172003
 31
0.0
  0
LINE
  5
259
330
1F
100
AcDbEntity
  8
LAY-10
  6
CONTINUOUS
 62
     7
100
AcDbLine
 10
964.7999999999008
 20
340.8107844172003
 30
0.0
 11
967.299999999901
 21
348.8107844172002
 31
0.0
  0
LINE
  5
25A
330
1F
100
AcDbEntity
  8
LAY-10
  6
CONTINUOUS
 62
     7
100
AcDbLine
 10
949.7999999999008
 20
340.8107844172003
 30
0.0
 11
947.2999999999008
 21
348.8107844172002
 31
0.0
  0
LINE
  5
25B
330
1F
100
AcDbEntity
  8
LAY-10
  6
CONTINUOUS
 62
     7
100
AcDbLine
 10
357.5000000000009
 20
340.8107844172003
 30
0.0
 11
984.6999999999009
 21
340.8107844172003
 31
0.0
  0
LINE
  5
25C
330
1F
100
AcDbEntity
  8
LAY-10
  6
CONTINUOUS
 62
     7
100
AcDbLine
 10
423.5000000000009
 20
344.8107844172004
 30
0.0
 11
826.5000000000009
 21
344.8107844172004
 31
0.0
  0
LINE
  5
25D
330
1F
100
AcDbEntity
  8
LAY-10
  6
CONTINUOUS
 62
     7
100
AcDbLine
 10
535.0000000000008
 20
386.0000000000003
 30
0.0
 11
715.0000000000008
 21
386.0000000000003
 31
0.0
  0
LINE
  5
25E
330
1F
100
AcDbEntity
  8
LAY-10
  6
CONTINUOUS
 62
     7
100
AcDbLine
 10
757.5000000000009
 20
391.5999285724002
 30
0.0
 11
767.5000000000007
 21
391.5999285724002
 31
0.0
  0
LINE
  5
25F
330
1F
100
AcDbEntity
  8
LAY-10
  6
CONTINUOUS
 62
     7
100
AcDbLine
 10
760.5000000000009
 20
381.5999285724002
 30
0.0
 11
764.5000000000008
 21
381.5999285724002
 31
0.0
  0
LINE
  5
260
330
1F
100
AcDbEntity
  8
LAY-10
  6
CONTINUOUS
 62
     7
100
AcDbLine
 10
767.5000000000007
 20
391.5999285724002
 30
0.0
 11
767.5000000000007
 21
384.5999285724002
 31
0.0
  0
LINE
  5
261
330
1F
100
AcDbEntity
  8
LAY-10
  6
CONTINUOUS
 62
     7
100
AcDbLine
 10
757.5000000000009
 20
384.5999285724002
 30
0.0
 11
757.5000000000009
 21
391.5999285724002
 31
0.0
  0
ARC
  5
262
330
1F
100
AcDbEntity
  8
LAY-10
  6
CONTINUOUS
 62
     7
100
AcDbCircle
 10
764.5000000000008
 20
384.5999285724002
 30
0.0
 40
3.000000000000001
100
AcDbArc
 50
270.0
 51
0.0
  0
ARC
  5
263
330
1F
100
AcDbEntity
  8
LAY-10
  6
CONTINUOUS
 62
     7
100
AcDbCircle
 10
760.5000000000009
 20
384.5999285724002
 30
0.0
 40
3.000000000000001
100
AcDbArc
 50
180.0
 51
270.0
  0
LINE
  5
264
330
1F
100
AcDbEntity
  8
LAY-10
  6
CONTINUOUS
 62
     7
100
AcDbLine
 10
790.5000000000009
 20
391.5999285724002
 30
0.0
 11
790.5000000000009
 21
389.5999285724002
 31
0.0
  0
LINE
  5
265
330
1F
100
AcDbEntity
  8
LAY-10
  6
CONTINUOUS
 62
     7
100
AcDbLine
 10
734.5000000000008
 20
391.5999285724002
 30
0.0
 11
734.5000000000008
 21
389.5999285724002
 31
0.0
  0
LINE
  5
266
330
1F
100
AcDbEntity
  8
LAY-10
  6
CONTINUOUS
 62
     7
100
AcDbLine
 10
795.5000000000009
 20
397.0239114297002
 30
0.0
 11
795.5000000000009
 21
391.5999285724002
 31
0.0
  0
LINE
  5
267
330
1F
100
AcDbEntity
  8
LAY-10
  6
CONTINUOUS
 62
     7
100
AcDbLine
 10
729.5000000000008
 20
398.1759457150003
 30
0.0
 11
729.5000000000008
 21
391.5999285724003
 31
0.0
  0
LINE
  5
268
330
1F
100
AcDbEntity
  8
LAY-10
  6
CONTINUOUS
 62
     7
100
AcDbLine
 10
729.5000000000008
 20
391.5999285724003
 30
0.0
 11
734.5000000000008
 21
391.5999285724002
 31
0.0
  0
LINE
  5
269
330
1F
100
AcDbEntity
  8
LAY-10
  6
CONTINUOUS
 62
     7
100
AcDbLine
 10
790.5000000000009
 20
391.5999285724002
 30
0.0
 11
795.5000000000009
 21
391.5999285724002
 31
0.0
  0
ARC
  5
26A
330
1F
100
AcDbEntity
  8
LAY-10
  6
CONTINUOUS
 62
     7
100
AcDbCircle
 10
762.5000000000009
 20
389.5999285724002
 30
0.0
 40
28.0
100
AcDbArc
 50
179.9999999999999
 51
346.8648591553003
  0
ARC
  5
26B
330
1F
100
AcDbEntity
  8
LAY-10
  6
CONTINUOUS
 62
     7
100
AcDbCircle
 10
762.5000000000009
 20
389.5999285724002
 30
0.0
 40
28.0
100
AcDbArc
 50
347.9133059423003
 51
0.0
  0
ARC
  5
26C
330
1F
100
AcDbEntity
  8
LAY-10
  6
CONTINUOUS
 62
     7
100
AcDbCircle
 10
762.5000000000009
 20
389.5999285724002
 30
0.0
 40
36.0
100
AcDbArc
 50
190.9669125804998
 51
347.0330874195001
  0
ARC
  5
26D
330
1F
100
AcDbEntity
  8
LAY-10
  6
CONTINUOUS
 62
     7
100
AcDbCircle
 10
802.4544921294007
 20
380.4000069054002
 30
0.0
 40
5.0
100
AcDbArc
 50
88.99999999999821
 51
167.0330874194997
  0
ARC
  5
26E
330
1F
100
AcDbEntity
  8
LAY-10
  6
CONTINUOUS
 62
     7
100
AcDbCircle
 10
722.2487744318007
 20
381.8000029154003
 30
0.0
 40
5.0
100
AcDbArc
 50
10.96691258045
 51
88.99999999999821
  0
LINE
  5
26F
330
1F
100
AcDbEntity
  8
LAY-10
  6
CONTINUOUS
 62
     7
100
AcDbLine
 10
715.9113841151009
 20
386.9113841151003
 30
0.0
 11
722.3360364639877
 21
386.7992413912091
 31
0.0
  0
LINE
  5
270
330
1F
100
AcDbEntity
  8
LAY-10
  6
CONTINUOUS
 62
     7
100
AcDbLine
 10
802.54175416159
 20
385.3992453811819
 30
0.0
 11
820.6633456184009
 21
385.0829318257003
 31
0.0
  0
CIRCLE
  5
271
330
1F
100
AcDbEntity
  8
LAY-10
  6
CONTINUOUS
 62
     7
100
AcDbCircle
 10
625.0000000000006
 20
1105.000000000001
 30
0.0
 40
12.50000000000001
  0
CIRCLE
  5
272
330
1F
100
AcDbEntity
  8
LAY-10
  6
CONTINUOUS
 62
     7
100
AcDbCircle
 10
625.0000000000006
 20
1105.000000000001
 30
0.0
 40
13.00000000000001
  0
CIRCLE
  5
273
330
1F
100
AcDbEntity
  8
LAY-10
  6
CONTINUOUS
 62
     7
100
AcDbCircle
 10
625.0000000000006
 20
1105.000000000001
 30
0.0
 40
16.0
  0
LINE
  5
274
330
1F
100
AcDbEntity
  8
LAY-10
  6
CONTINUOUS
 62
     7
100
AcDbLine
 10
632.310750620756
 20
1115.139177745502
 30
0.0
 11
614.8608222544988
 21
1097.689249379245
 31
0.0
  0
LINE
  5
275
330
1F
100
AcDbEntity
  8
LAY-10
  6
CONTINUOUS
 62
     7
100
AcDbLine
 10
617.6892493792451
 20
1094.860822254499
 30
0.0
 11
635.1391777455021
 21
1112.310750620756
 31
0.0
  0
LINE
  5
276
330
1F
100
AcDbEntity
  8
LAY-10
  6
CONTINUOUS
 62
     7
100
AcDbLine
 10
629.755516933601
 20
1079.031580054
 30
0.0
 11
618.3309570893547
 21
1090.456139898364
 31
0.0
  0
LINE
  5
277
330
1F
100
AcDbEntity
  8
LAY-10
  6
CONTINUOUS
 62
     7
100
AcDbLine
 10
610.4561398982954
 20
1098.330957089505
 30
0.0
 11
600.7641389049008
 21
1108.022958083
 31
0.0
  0
LINE
  5
278
330
1F
100
AcDbEntity
  8
LAY-10
  6
CONTINUOUS
 62
     7
100
AcDbLine
 10
496.0
 20
379.8107844172
 30
0.0
 11
497.0
 21
386.26399991643
 31
0.0
  0
LINE
  5
279
330
1F
100
AcDbEntity
  8
LAY-10
  6
CONTINUOUS
 62
     7
100
AcDbLine
 10
415.2375000000002
 20
349.8107844171989
 30
0.0
 11
423.7444453864407
 21
349.8107844171989
 31
0.0
  0
LINE
  5
27A
330
1F
100
AcDbEntity
  8
LAY-10
  6
CONTINUOUS
 62
     7
100
AcDbLine
 10
451.3532286761762
 20
381.2282266557303
 30
0.0
 11
452.5825577614907
 21
382.4575557410447
 31
0.0
  0
LINE
  5
27B
330
1F
100
AcDbEntity
  8
LAY-10
  6
CONTINUOUS
 62
     7
100
AcDbLine
 10
451.4537989274729
 20
380.6216901258402
 30
0.0
 11
453.1890942913807
 21
382.3569854897481
 31
0.0
  0
LINE
  5
27C
330
1F
100
AcDbEntity
  8
LAY-10
  6
CONTINUOUS
 62
     7
100
AcDbLine
 10
451.738083514948
 20
380.1988679321288
 30
0.0
 11
453.6119164850922
 21
382.0727009022731
 31
0.0
  0
LINE
  5
27D
330
1F
100
AcDbEntity
  8
LAY-10
  6
CONTINUOUS
 62
     7
100
AcDbLine
 10
452.1609057086595
 20
379.9145833446537
 30
0.0
 11
453.8962010725674
 21
381.6498787085616
 31
0.0
  0
LINE
  5
27E
330
1F
100
AcDbEntity
  8
LAY-10
  6
CONTINUOUS
 62
     7
100
AcDbLine
 10
452.7674422385495
 20
379.8140130933571
 30
0.0
 11
453.996771323864
 21
381.0433421786716
 31
0.0
  0
LINE
  5
27F
330
1F
100
AcDbEntity
  8
LAY-10
  6
CONTINUOUS
 62
     7
100
AcDbLine
 10
486.0032286761362
 20
381.2282266557303
 30
0.0
 11
487.2325577614507
 21
382.4575557410447
 31
0.0
  0
LINE
  5
280
330
1F
100
AcDbEntity
  8
LAY-10
  6
CONTINUOUS
 62
     7
100
AcDbLine
 10
486.1037989274329
 20
380.6216901258402
 30
0.0
 11
487.8390942913408
 21
382.3569854897481
 31
0.0
  0
LINE
  5
281
330
1F
100
AcDbEntity
  8
LAY-10
  6
CONTINUOUS
 62
     7
100
AcDbLine
 10
486.3880835149081
 20
380.1988679321288
 30
0.0
 11
488.2619164850522
 21
382.0727009022731
 31
0.0
  0
LINE
  5
282
330
1F
100
AcDbEntity
  8
LAY-10
  6
CONTINUOUS
 62
     7
100
AcDbLine
 10
486.8109057086195
 20
379.9145833446537
 30
0.0
 11
488.5462010725274
 21
381.6498787085616
 31
0.0
  0
LINE
  5
283
330
1F
100
AcDbEntity
  8
LAY-10
  6
CONTINUOUS
 62
     7
100
AcDbLine
 10
487.4174422385096
 20
379.8140130933571
 30
0.0
 11
488.6467713238241
 21
381.0433421786716
 31
0.0
  0
LINE
  5
284
330
1F
100
AcDbEntity
  8
LAY-10
  6
CONTINUOUS
 62
     7
100
AcDbLine
 10
480.4380652052045
 20
388.4346360600321
 30
0.0
 11
481.376148357169
 21
389.3727192119966
 31
0.0
  0
LINE
  5
285
330
1F
100
AcDbEntity
  8
LAY-10
  6
CONTINUOUS
 62
     7
100
AcDbLine
 10
479.7821909595663
 20
388.4858685955806
 30
0.0
 11
481.3249158216205
 21
390.0285934576348
 31
0.0
  0
LINE
  5
286
330
1F
100
AcDbEntity
  8
LAY-10
  6
CONTINUOUS
 62
     7
100
AcDbLine
 10
479.3514718625762
 20
388.7622562797771
 30
0.0
 11
481.0485281374239
 21
390.4593125546248
 31
0.0
  0
LINE
  5
287
330
1F
100
AcDbEntity
  8
LAY-10
  6
CONTINUOUS
 62
     7
100
AcDbLine
 10
479.0750841783799
 20
389.1929753767672
 30
0.0
 11
480.6178090404341
 21
390.7357002388213
 31
0.0
  0
LINE
  5
288
330
1F
100
AcDbEntity
  8
LAY-10
  6
CONTINUOUS
 62
     7
100
AcDbLine
 10
479.0238516428313
 20
389.8488496224052
 30
0.0
 11
479.9619347947959
 21
390.7869327743699
 31
0.0
  0
LINE
  5
289
330
1F
100
AcDbEntity
  8
LAY-10
  6
CONTINUOUS
 62
     7
100
AcDbLine
 10
460.0380652051944
 20
388.4346360600321
 30
0.0
 11
460.9761483571589
 21
389.3727192119966
 31
0.0
  0
LINE
  5
28A
330
1F
100
AcDbEntity
  8
LAY-10
  6
CONTINUOUS
 62
     7
100
AcDbLine
 10
459.3821909595562
 20
388.4858685955806
 30
0.0
 11
460.9249158216105
 21
390.0285934576348
 31
0.0
  0
LINE
  5
28B
330
1F
100
AcDbEntity
  8
LAY-10
  6
CONTINUOUS
 62
     7
100
AcDbLine
 10
458.9514718625661
 20
388.7622562797771
 30
0.0
 11
460.648528137414
 21
390.4593125546248
 31
0.0
  0
LINE
  5
28C
330
1F
100
AcDbEntity
  8
LAY-10
  6
CONTINUOUS
 62
     7
100
AcDbLine
 10
458.6750841783697
 20
389.1929753767672
 30
0.0
 11
460.217809040424
 21
390.7357002388213
 31
0.0
  0
LINE
  5
28D
330
1F
100
AcDbEntity
  8
LAY-10
  6
CONTINUOUS
 62
     7
100
AcDbLine
 10
458.6238516428213
 20
389.8488496224052
 30
0.0
 11
459.561934794786
 21
390.7869327743699
 31
0.0
  0
LINE
  5
28E
330
1F
100
AcDbEntity
  8
LAY-10
  6
CONTINUOUS
 62
     7
100
AcDbLine
 10
418.5000000000002
 20
351.8107844172009
 30
0.0
 11
430.5000000000002
 21
351.8107844172009
 31
0.0
  0
LINE
  5
28F
330
1F
100
AcDbEntity
  8
LAY-10
  6
CONTINUOUS
 62
     7
100
AcDbLine
 10
454.0000000000001
 20
394.8107844172009
 30
0.0
 11
486.0000000000001
 21
394.8107844172009
 31
0.0
  0
LINE
  5
290
330
1F
100
AcDbEntity
  8
LAY-10
  6
CONTINUOUS
 62
     7
100
AcDbLine
 10
418.5000000000002
 20
375.810784417201
 30
0.0
 11
418.5000000000002
 21
351.8107844172009
 31
0.0
  0
LINE
  5
291
330
1F
100
AcDbEntity
  8
LAY-10
  6
CONTINUOUS
 62
     7
100
AcDbLine
 10
480.9999999999943
 20
381.3881346863905
 30
0.0
 11
458.9999999999942
 21
381.3881346863905
 31
0.0
  0
LINE
  5
292
330
1F
100
AcDbEntity
  8
LAY-10
  6
CONTINUOUS
 62
     7
100
AcDbLine
 10
482.4999999999947
 20
390.810784417201
 30
0.0
 11
457.4999999999942
 21
390.810784417201
 31
0.0
  0
LINE
  5
293
330
1F
100
AcDbEntity
  8
LAY-10
  6
CONTINUOUS
 62
     7
100
AcDbLine
 10
480.9999999999947
 20
387.810784417201
 30
0.0
 11
458.9999999999942
 21
387.810784417201
 31
0.0
  0
LINE
  5
294
330
1F
100
AcDbEntity
  8
LAY-10
  6
CONTINUOUS
 62
     7
100
AcDbLine
 10
471.7499999999942
 20
394.810784417201
 30
0.0
 11
471.7499999999942
 21
392.310784417201
 31
0.0
  0
LINE
  5
295
330
1F
100
AcDbEntity
  8
LAY-10
  6
CONTINUOUS
 62
     7
100
AcDbLine
 10
468.2499999999947
 20
394.810784417201
 30
0.0
 11
468.2499999999947
 21
392.310784417201
 31
0.0
  0
LINE
  5
296
330
1F
100
AcDbEntity
  8
LAY-10
  6
CONTINUOUS
 62
     7
100
AcDbLine
 10
471.7499999999942
 20
392.310784417201
 30
0.0
 11
468.2499999999947
 21
392.310784417201
 31
0.0
  0
LINE
  5
297
330
1F
100
AcDbEntity
  8
LAY-10
  6
CONTINUOUS
 62
     7
100
AcDbLine
 10
498.5000000000001
 20
345.8107844171998
 30
0.0
 11
451.5000000000001
 21
345.8107844171998
 31
0.0
  0
LINE
  5
298
330
1F
100
AcDbEntity
  8
LAY-10
  6
CONTINUOUS
 62
     7
100
AcDbLine
 10
430.5000000000002
 20
350.3107844172
 30
0.0
 11
451.5000000000001
 21
350.3107844172
 31
0.0
  0
LINE
  5
299
330
1F
100
AcDbEntity
  8
LAY-10
  6
CONTINUOUS
 62
     7
100
AcDbLine
 10
498.4999999999974
 20
345.8107844172
 30
0.0
 11
498.4999999999994
 21
379.8107844171998
 31
0.0
  0
LINE
  5
29A
330
1F
100
AcDbEntity
  8
LAY-10
  6
CONTINUOUS
 62
     7
100
AcDbLine
 10
501.5000000000001
 20
346.8107844171989
 30
0.0
 11
498.5000000000001
 21
346.8107844171989
 31
0.0
  0
LINE
  5
29B
330
1F
100
AcDbEntity
  8
LAY-10
  6
CONTINUOUS
 62
     7
100
AcDbLine
 10
501.5000000000001
 20
376.8107844171989
 30
0.0
 11
501.5000000000001
 21
346.8107844171989
 31
0.0
  0
LINE
  5
29C
330
1F
100
AcDbEntity
  8
LAY-10
  6
CONTINUOUS
 62
     7
100
AcDbLine
 10
498.5000000000001
 20
376.8107844171989
 30
0.0
 11
501.5000000000001
 21
376.8107844171989
 31
0.0
  0
LINE
  5
29D
330
1F
100
AcDbEntity
  8
LAY-10
  6
CONTINUOUS
 62
     7
100
AcDbLine
 10
430.5000000000002
 20
379.8107844171999
 30
0.0
 11
498.5000000000001
 21
379.8107844171999
 31
0.0
  0
LINE
  5
29E
330
1F
100
AcDbEntity
  8
LAY-10
  6
CONTINUOUS
 62
     7
100
AcDbLine
 10
430.4999999999987
 20
350.310784417201
 30
0.0
 11
430.4999999999987
 21
379.8107844171998
 31
0.0
  0
LINE
  5
29F
330
1F
100
AcDbEntity
  8
LAY-10
  6
CONTINUOUS
 62
     7
100
AcDbLine
 10
451.5000000000001
 20
345.8107844172
 30
0.0
 11
451.5000000000001
 21
374.8107844172006
 31
0.0
  0
LINE
  5
2A0
330
1F
100
AcDbEntity
  8
LAY-10
  6
CONTINUOUS
 62
     7
100
AcDbLine
 10
498.5000000000001
 20
374.8107844172006
 30
0.0
 11
430.5000000000002
 21
374.8107844172006
 31
0.0
  0
LINE
  5
2A1
330
1F
100
AcDbEntity
  8
LAY-10
  6
CONTINUOUS
 62
     7
100
AcDbLine
 10
430.5000000000002
 20
375.8107844172009
 30
0.0
 11
418.5000000000002
 21
375.8107844172009
 31
0.0
  0
LINE
  5
2A2
330
1F
100
AcDbEntity
  8
LAY-10
  6
CONTINUOUS
 62
     7
100
AcDbLine
 10
459.9999999999901
 20
380.810784417201
 30
0.0
 11
479.9999999999901
 21
380.810784417201
 31
0.0
  0
LINE
  5
2A3
330
1F
100
AcDbEntity
  8
LAY-10
  6
CONTINUOUS
 62
     7
100
AcDbLine
 10
490.5000000000033
 20
373.2107844172029
 30
0.0
 11
490.5000000000033
 21
367.8107844172029
 31
0.0
  0
LINE
  5
2A4
330
1F
100
AcDbEntity
  8
LAY-10
  6
CONTINUOUS
 62
     7
100
AcDbLine
 10
480.5000000000033
 20
373.2107844172029
 30
0.0
 11
480.5000000000033
 21
367.8107844172029
 31
0.0
  0
LINE
  5
2A5
330
1F
100
AcDbEntity
  8
LAY-10
  6
CONTINUOUS
 62
     7
100
AcDbLine
 10
490.5000000000033
 20
367.8107844172029
 30
0.0
 11
480.5000000000033
 21
367.8107844172029
 31
0.0
  0
LINE
  5
2A6
330
1F
100
AcDbEntity
  8
LAY-10
  6
CONTINUOUS
 62
     7
100
AcDbLine
 10
490.5000000000033
 20
367.8107844172029
 30
0.0
 11
489.9000000000034
 21
367.2107844172028
 31
0.0
  0
LINE
  5
2A7
330
1F
100
AcDbEntity
  8
LAY-10
  6
CONTINUOUS
 62
     7
100
AcDbLine
 10
480.5000000000033
 20
367.8107844172029
 30
0.0
 11
481.1000000000033
 21
367.2107844172028
 31
0.0
  0
LINE
  5
2A8
330
1F
100
AcDbEntity
  8
LAY-10
  6
CONTINUOUS
 62
     7
100
AcDbLine
 10
489.9000000000034
 20
367.2107844172028
 30
0.0
 11
481.1000000000033
 21
367.2107844172028
 31
0.0
  0
LINE
  5
2A9
330
1F
100
AcDbEntity
  8
LAY-10
  6
CONTINUOUS
 62
     7
100
AcDbLine
 10
486.7500000000033
 20
367.8107844172029
 30
0.0
 11
486.7500000000033
 21
369.1607844172029
 31
0.0
  0
LINE
  5
2AA
330
1F
100
AcDbEntity
  8
LAY-10
  6
CONTINUOUS
 62
     7
100
AcDbLine
 10
488.0000000000033
 20
367.8107844172029
 30
0.0
 11
488.0000000000033
 21
370.5107844172029
 31
0.0
  0
LINE
  5
2AB
330
1F
100
AcDbEntity
  8
LAY-10
  6
CONTINUOUS
 62
     7
100
AcDbLine
 10
489.2500000000033
 20
367.8107844172029
 30
0.0
 11
489.2500000000033
 21
371.8607844172029
 31
0.0
  0
LINE
  5
2AC
330
1F
100
AcDbEntity
  8
LAY-10
  6
CONTINUOUS
 62
     7
100
AcDbLine
 10
479.2500000000033
 20
373.2107844172029
 30
0.0
 11
491.7500000000033
 21
373.2107844172029
 31
0.0
  0
LINE
  5
2AD
330
1F
100
AcDbEntity
  8
LAY-10
  6
CONTINUOUS
 62
     7
100
AcDbLine
 10
491.7500000000033
 20
374.8107844172029
 30
0.0
 11
491.7500000000033
 21
373.2107844172029
 31
0.0
  0
LINE
  5
2AE
330
1F
100
AcDbEntity
  8
LAY-10
  6
CONTINUOUS
 62
     7
100
AcDbLine
 10
479.2500000000033
 20
374.8107844172029
 30
0.0
 11
479.2500000000033
 21
373.2107844172029
 31
0.0
  0
LINE
  5
2AF
330
1F
100
AcDbEntity
  8
LAY-10
  6
CONTINUOUS
 62
     7
100
AcDbLine
 10
443.5000000000034
 20
373.2107844172029
 30
0.0
 11
443.5000000000034
 21
367.8107844172029
 31
0.0
  0
LINE
  5
2B0
330
1F
100
AcDbEntity
  8
LAY-10
  6
CONTINUOUS
 62
     7
100
AcDbLine
 10
433.5000000000034
 20
373.2107844172029
 30
0.0
 11
433.5000000000034
 21
367.8107844172029
 31
0.0
  0
LINE
  5
2B1
330
1F
100
AcDbEntity
  8
LAY-10
  6
CONTINUOUS
 62
     7
100
AcDbLine
 10
443.5000000000034
 20
367.8107844172029
 30
0.0
 11
433.5000000000034
 21
367.8107844172029
 31
0.0
  0
LINE
  5
2B2
330
1F
100
AcDbEntity
  8
LAY-10
  6
CONTINUOUS
 62
     7
100
AcDbLine
 10
443.5000000000034
 20
367.8107844172029
 30
0.0
 11
442.9000000000034
 21
367.2107844172028
 31
0.0
  0
LINE
  5
2B3
330
1F
100
AcDbEntity
  8
LAY-10
  6
CONTINUOUS
 62
     7
100
AcDbLine
 10
433.5000000000034
 20
367.8107844172029
 30
0.0
 11
434.1000000000034
 21
367.2107844172028
 31
0.0
  0
LINE
  5
2B4
330
1F
100
AcDbEntity
  8
LAY-10
  6
CONTINUOUS
 62
     7
100
AcDbLine
 10
442.9000000000034
 20
367.2107844172028
 30
0.0
 11
434.1000000000034
 21
367.2107844172028
 31
0.0
  0
LINE
  5
2B5
330
1F
100
AcDbEntity
  8
LAY-10
  6
CONTINUOUS
 62
     7
100
AcDbLine
 10
439.7500000000034
 20
367.8107844172029
 30
0.0
 11
439.7500000000034
 21
369.1607844172029
 31
0.0
  0
LINE
  5
2B6
330
1F
100
AcDbEntity
  8
LAY-10
  6
CONTINUOUS
 62
     7
100
AcDbLine
 10
441.0000000000034
 20
367.8107844172029
 30
0.0
 11
441.0000000000034
 21
370.5107844172029
 31
0.0
  0
LINE
  5
2B7
330
1F
100
AcDbEntity
  8
LAY-10
  6
CONTINUOUS
 62
     7
100
AcDbLine
 10
442.2500000000034
 20
367.8107844172029
 30
0.0
 11
442.2500000000034
 21
371.8607844172029
 31
0.0
  0
LINE
  5
2B8
330
1F
100
AcDbEntity
  8
LAY-10
  6
CONTINUOUS
 62
     7
100
AcDbLine
 10
432.2500000000034
 20
373.2107844172029
 30
0.0
 11
444.7500000000034
 21
373.2107844172029
 31
0.0
  0
LINE
  5
2B9
330
1F
100
AcDbEntity
  8
LAY-10
  6
CONTINUOUS
 62
     7
100
AcDbLine
 10
444.7500000000034
 20
374.8107844172029
 30
0.0
 11
444.7500000000034
 21
373.2107844172029
 31
0.0
  0
LINE
  5
2BA
330
1F
100
AcDbEntity
  8
LAY-10
  6
CONTINUOUS
 62
     7
100
AcDbLine
 10
432.2500000000034
 20
374.8107844172029
 30
0.0
 11
432.2500000000034
 21
373.2107844172029
 31
0.0
  0
LINE
  5
2BB
330
1F
100
AcDbEntity
  8
LAY-10
  6
CONTINUOUS
 62
     7
100
AcDbLine
 10
410.9475922207189
 20
372.810784417206
 30
0.0
 11
418.5000000000002
 21
372.8107844172059
 31
0.0
  0
LINE
  5
2BC
330
1F
100
AcDbEntity
  8
LAY-10
  6
CONTINUOUS
 62
     7
100
AcDbLine
 10
425.2294567163303
 20
377.8107844171989
 30
0.0
 11
414.1875
 21
377.8107844171989
 31
0.0
  0
LINE
  5
2BD
330
1F
100
AcDbEntity
  8
LAY-10
  6
CONTINUOUS
 62
     7
100
AcDbLine
 10
423.5000000000009
 20
344.8107844172004
 30
0.0
 11
423.8668544549799
 21
351.8107844172009
 31
0.0
  0
LINE
  5
2BE
330
1F
100
AcDbEntity
  8
LAY-10
  6
CONTINUOUS
 62
     7
100
AcDbLine
 10
414.45011667118
 20
372.8107844172003
 30
0.0
 11
414.1820260381008
 21
379.9606624274003
 31
0.0
  0
LINE
  5
2BF
330
1F
100
AcDbEntity
  8
LAY-10
  6
CONTINUOUS
 62
     7
100
AcDbLine
 10
415.5000000000294
 20
344.8107844172004
 30
0.0
 11
415.1250416682973
 21
354.8107844172059
 31
0.0
  0
LINE
  5
2C0
330
1F
100
AcDbEntity
  8
LAY-10
  6
CONTINUOUS
 62
     7
100
AcDbLine
 10
411.0000000000009
 20
360.6107844172003
 30
0.0
 11
400.0000000000009
 21
360.6107844172003
 31
0.0
  0
LINE
  5
2C1
330
1F
100
AcDbEntity
  8
LAY-10
  6
CONTINUOUS
 62
     7
100
AcDbLine
 10
418.5000000000002
 20
359.4107844172003
 30
0.0
 11
406.0000000000009
 21
359.4107844172003
 31
0.0
  0
LINE
  5
2C2
330
1F
100
AcDbEntity
  8
LAY-10
  6
CONTINUOUS
 62
     7
100
AcDbLine
 10
534.0886158849082
 20
386.9113841146302
 30
0.0
 11
496.9999999999996
 21
386.2639999164273
 31
0.0
  0
LINE
  5
2C3
330
1F
100
AcDbEntity
  8
LAY-10
  6
CONTINUOUS
 62
     7
100
AcDbLine
 10
425.3342722748957
 20
379.8107844172003
 30
0.0
 11
496.0000000000001
 21
379.8107844172003
 31
0.0
  0
LINE
  5
2C4
330
1F
100
AcDbEntity
  8
LAY-10
  6
CONTINUOUS
 62
     7
100
AcDbLine
 10
425.1246411577649
 20
375.8107844172009
 30
0.0
 11
425.3342722748957
 21
379.8107844172003
 31
0.0
  0
TEXT
  5
2C5
330
1F
100
AcDbEntity
  8
LAY-10
  6
CONTINUOUS
 62
     7
100
AcDbText
 10
778.6410147815615
 20
787.4606734914767
 30
0.0
 40
7.795275999999999
  1
Ｍ
 50
44.73555399517996
 41
1.2
  7
EXCADSTD
100
AcDbText
  0
TEXT
  5
2C6
330
1F
100
AcDbEntity
  8
LAY-10
  6
CONTINUOUS
 62
     7
100
AcDbText
 10
509.399999999999
 20
1211.094487977657
 30
0.0
 40
8.185039056584548
  1
Ｓ
 50
180.0
 41
1.2
  7
EXCADSTD
100
AcDbText
  0
TEXT
  5
2C7
330
1F
100
AcDbEntity
  8
LAY-10
  6
CONTINUOUS
 62
     7
100
AcDbText
 10
499.399999999999
 20
1211.094487977657
 30
0.0
 40
8.185039056584548
  1
Ｆ
 50
180.0
 41
1.2
  7
EXCADSTD
100
AcDbText
  0
TEXT
  5
2C8
330
1F
100
AcDbEntity
  8
LAY-10
  6
CONTINUOUS
 62
     7
100
AcDbText
 10
489.3999999999991
 20
1211.094487977657
 30
0.0
 40
8.185039056584548
  1
－
 50
180.0
 41
1.2
  7
EXCADSTD
100
AcDbText
  0
TEXT
  5
2C9
330
1F
100
AcDbEntity
  8
LAY-10
  6
CONTINUOUS
 62
     7
100
AcDbText
 10
479.399999999999
 20
1211.094487977657
 30
0.0
 40
8.185039056584548
  1
４
 50
180.0
 41
1.2
  7
EXCADSTD
100
AcDbText
  0
TEXT
  5
2CA
330
1F
100
AcDbEntity
  8
LAY-10
  6
CONTINUOUS
 62
     7
100
AcDbText
 10
469.399999999999
 20
1211.094487977657
 30
0.0
 40
8.185039056584548
  1
５
 50
180.0
 41
1.2
  7
EXCADSTD
100
AcDbText
  0
TEXT
  5
2CB
330
1F
100
AcDbEntity
  8
LAY-10
  6
CONTINUOUS
 62
     7
100
AcDbText
 10
459.3999999999991
 20
1211.094487977657
 30
0.0
 40
8.185039056584548
  1
Ｃ
 50
180.0
 41
1.2
  7
EXCADSTD
100
AcDbText
  0
TEXT
  5
2CC
330
1F
100
AcDbEntity
  8
LAY-10
  6
CONTINUOUS
 62
     7
100
AcDbText
 10
449.399999999999
 20
1211.094487977657
 30
0.0
 40
8.185039056584548
  1
Ｔ
 50
180.0
 41
1.2
  7
EXCADSTD
100
AcDbText
  0
TEXT
  5
2CD
330
1F
100
AcDbEntity
  8
LAY-10
  6
CONTINUOUS
 62
     7
100
AcDbText
 10
439.399999999999
 20
1211.094487977657
 30
0.0
 40
8.185039056584548
  1
Ｌ
 50
180.0
 41
1.2
  7
EXCADSTD
100
AcDbText
  0
LINE
  5
2CE
330
1F
100
AcDbEntity
  8
LAY-10
  6
CENTER
 62
     2
100
AcDbLine
 10
340.0
 20
950.0000000000001
 30
0.0
 11
907.0000000000001
 21
950.0000000000001
 31
0.0
  0
LINE
  5
2CF
330
1F
100
AcDbEntity
  8
LAY-10
  6
CENTER
 62
     2
100
AcDbLine
 10
625.0000000000007
 20
1232.0
 30
0.0
 11
625.0000000000007
 21
665.0
 31
0.0
  0
LINE
  5
2D0
330
1F
100
AcDbEntity
  8
LAY-10
  6
CENTER
 62
     2
100
AcDbLine
 10
762.5000000000009
 20
920.6000000000001
 30
0.0
 11
762.5000000000009
 21
976.2000000000002
 31
0.0
  0
LINE
  5
2D1
330
1F
100
AcDbEntity
  8
LAY-10
  6
CENTER
 62
     2
100
AcDbLine
 10
874.2315846179009
 20
715.0000000000001
 30
0.0
 11
845.931584617901
 21
715.0000000000001
 31
0.0
  0
LINE
  5
2D2
330
1F
100
AcDbEntity
  8
LAY-10
  6
CENTER
 62
     2
100
AcDbLine
 10
859.9999999999009
 20
701.0
 30
0.0
 11
859.9999999999009
 21
729.0
 31
0.0
  0
LINE
  5
2D3
330
1F
100
AcDbEntity
  8
LAY-10
  6
CENTER
 62
     2
100
AcDbLine
 10
874.2315846179009
 20
1185.0
 30
0.0
 11
845.931584617901
 21
1185.0
 31
0.0
  0
LINE
  5
2D4
330
1F
100
AcDbEntity
  8
LAY-10
  6
CENTER
 62
     2
100
AcDbLine
 10
859.9999999999009
 20
1199.0
 30
0.0
 11
859.9999999999009
 21
1171.0
 31
0.0
  0
LINE
  5
2D5
330
1F
100
AcDbEntity
  8
LAY-10
  6
CENTER
 62
     2
100
AcDbLine
 10
375.7684153821008
 20
715.0000000000001
 30
0.0
 11
404.0684153821009
 21
715.0000000000001
 31
0.0
  0
LINE
  5
2D6
330
1F
100
AcDbEntity
  8
LAY-10
  6
CENTER
 62
     2
100
AcDbLine
 10
390.0000000000009
 20
701.0
 30
0.0
 11
390.0000000000009
 21
729.0
 31
0.0
  0
LINE
  5
2D7
330
1F
100
AcDbEntity
  8
LAY-10
  6
CENTER
 62
     2
100
AcDbLine
 10
375.7684153821008
 20
1185.0
 30
0.0
 11
404.0684153821009
 21
1185.0
 31
0.0
  0
LINE
  5
2D8
330
1F
100
AcDbEntity
  8
LAY-10
  6
CENTER
 62
     2
100
AcDbLine
 10
390.0000000000009
 20
1199.0
 30
0.0
 11
390.0000000000009
 21
1171.0
 31
0.0
  0
LINE
  5
2D9
330
1F
100
AcDbEntity
  8
LAY-10
  6
CENTER
 62
     2
100
AcDbLine
 10
487.5000000000009
 20
920.6000000000001
 30
0.0
 11
487.5000000000009
 21
976.2000000000002
 31
0.0
  0
LINE
  5
2DA
330
1F
100
AcDbEntity
  8
LAY-10
  6
CENTER
 62
     2
100
AcDbLine
 10
625.0000000000008
 20
420.8107844172003
 30
0.0
 11
625.0000000000008
 21
316.8107844172003
 31
0.0
  0
LINE
  5
2DB
330
1F
100
AcDbEntity
  8
LAY-10
  6
CENTER
 62
     2
100
AcDbLine
 10
957.2999999999008
 20
357.2000000000003
 30
0.0
 11
957.2999999999008
 21
333.7000000000002
 31
0.0
  0
LINE
  5
2DC
330
1F
100
AcDbEntity
  8
LAY-10
  6
CENTER
 62
     2
100
AcDbLine
 10
762.5000000000009
 20
402.7000000000002
 30
0.0
 11
762.5000000000009
 21
347.7000000000003
 31
0.0
  0
LINE
  5
2DD
330
1F
100
AcDbEntity
  8
LAY-10
  6
CENTER
 62
     2
100
AcDbLine
 10
601.6999999999999
 20
1105.0
 30
0.0
 11
646.6
 21
1105.0
 31
0.0
  0
LINE
  5
2DE
330
1F
100
AcDbEntity
  8
LAY-10
  6
CENTER
 62
     2
100
AcDbLine
 10
470.0000000000001
 20
397.8107844172009
 30
0.0
 11
470.0000000000001
 21
370.3107844172008
 31
0.0
  0
LINE
  5
2DF
330
1F
100
AcDbEntity
  8
LAY-10
  6
CENTER
 62
     2
100
AcDbLine
 10
438.5000000000001
 20
377.4499999999999
 30
0.0
 11
438.5000000000001
 21
365.8
 31
0.0
  0
LINE
  5
2E0
330
1F
100
AcDbEntity
  8
LAY-10
  6
CENTER
 62
     2
100
AcDbLine
 10
485.5000000000001
 20
377.4499999999999
 30
0.0
 11
485.5000000000001
 21
365.8
 31
0.0
  0
LINE
  5
2E1
330
1F
100
AcDbEntity
  8
LAY-10
  6
HIDDEN
 62
     7
100
AcDbLine
 10
414.4501166712
 20
372.8107844172
 30
0.0
 11
415.1250416683
 21
354.81078441721
 31
0.0
  0
LINE
  5
2E2
330
1F
100
AcDbEntity
  8
LAY-10
  6
HIDDEN
 62
     7
100
AcDbLine
 10
410.2243648670965
 20
345.8107844172003
 30
0.0
 11
410.9371106648966
 21
359.4107844172003
 31
0.0
  0
LINE
  5
2E3
330
1F
100
AcDbEntity
  8
LAY-10
  6
HIDDEN
 62
     7
100
AcDbLine
 10
406.0
 20
345.8107844172
 30
0.0
 11
410.2243648671001
 21
345.8107844172
 31
0.0
  0
ARC
  5
2E4
330
1F
100
AcDbEntity
  8
LAY-10
  6
HIDDEN
 62
     7
100
AcDbCircle
 10
403.3038475772753
 20
363.810784417203
 30
0.0
 40
10.39230484542481
100
AcDbArc
 50
300.0000000001436
 51
59.9999999999202
  0
ARC
  5
2E5
330
1F
100
AcDbEntity
  8
LAY-10
  6
HIDDEN
 62
     7
100
AcDbCircle
 10
403.0339873318496
 20
363.8107844172109
 30
0.0
 40
9.162165090850557
100
AcDbArc
 50
299.1725081650582
 51
60.82749183494193
  0
LINE
  5
2E6
330
1F
100
AcDbEntity
  8
LAY-10
  6
HIDDEN
 62
     7
100
AcDbLine
 10
408.500000000002
 20
372.810784417204
 30
0.0
 11
407.5000000000003
 21
371.8107844172022
 31
0.0
  0
LINE
  5
2E7
330
1F
100
AcDbEntity
  8
LAY-10
  6
HIDDEN
 62
     7
100
AcDbLine
 10
408.4999999999998
 20
354.810784417206
 30
0.0
 11
408.4999999999998
 21
372.8107844172059
 31
0.0
  0
LINE
  5
2E8
330
1F
100
AcDbEntity
  8
LAY-10
  6
HIDDEN
 62
     7
100
AcDbLine
 10
407.5000000000003
 20
355.8107844172159
 30
0.0
 11
407.5000000000003
 21
371.8107844172059
 31
0.0
  0
LINE
  5
2E9
330
1F
100
AcDbEntity
  8
LAY-10
  6
HIDDEN
 62
     7
100
AcDbLine
 10
408.5000000000052
 20
354.8107844172111
 30
0.0
 11
407.5000000000003
 21
355.8107844172163
 31
0.0
  0
LINE
  5
2EA
330
1F
100
AcDbEntity
  8
LAY-10
  6
HIDDEN
 62
     7
100
AcDbLine
 10
408.5000000000002
 20
372.8107844172059
 30
0.0
 11
410.3606250927604
 21
372.810784417206
 31
0.0
  0
LINE
  5
2EB
330
1F
100
AcDbEntity
  8
LAY-10
  6
HIDDEN
 62
     7
100
AcDbLine
 10
408.5000000000102
 20
354.810784417206
 30
0.0
 11
418.5000000000002
 21
354.810784417206
 31
0.0
  0
ARC
  5
2EC
330
1F
100
AcDbEntity
  8
LAY-10
  6
CONTINUOUS
 62
     7
100
AcDbCircle
 10
453.0000000000001
 20
380.810784417201
 30
0.0
 40
1.0
100
AcDbArc
 50
270.0000000000002
 51
0.0
  0
LINE
  5
2ED
330
1F
100
AcDbEntity
  8
LAY-10
  6
CONTINUOUS
 62
     7
100
AcDbLine
 10
457.0000000000028
 20
390.8539872585146
 30
0.0
 11
460.0000000000001
 21
388.5520062945797
 31
0.0
  0
LINE
  5
2EE
330
1F
100
AcDbEntity
  8
LAY-10
  6
CONTINUOUS
 62
     7
100
AcDbLine
 10
458.9999999999942
 20
387.810784417201
 30
0.0
 11
458.9999999999942
 21
381.3881346863906
 31
0.0
  0
LINE
  5
2EF
330
1F
100
AcDbEntity
  8
LAY-10
  6
CONTINUOUS
 62
     7
100
AcDbLine
 10
458.9999999999942
 20
381.3881346863906
 30
0.0
 11
459.9999999999942
 21
380.810784417201
 31
0.0
  0
LINE
  5
2F0
330
1F
100
AcDbEntity
  8
LAY-10
  6
CONTINUOUS
 62
     7
100
AcDbLine
 10
456.9999999999942
 20
394.8107844172008
 30
0.0
 11
456.9999999999942
 21
390.8539872585129
 31
0.0
  0
LINE
  5
2F1
330
1F
100
AcDbEntity
  8
LAY-10
  6
CONTINUOUS
 62
     7
100
AcDbLine
 10
458.4999999999947
 20
394.810784417201
 30
0.0
 11
457.4999999999942
 21
393.810784417201
 31
0.0
  0
LINE
  5
2F2
330
1F
100
AcDbEntity
  8
LAY-10
  6
CONTINUOUS
 62
     7
100
AcDbLine
 10
460.9999999999943
 20
390.810784417201
 30
0.0
 11
460.9999999999943
 21
387.810784417201
 31
0.0
  0
LINE
  5
2F3
330
1F
100
AcDbEntity
  8
LAY-10
  6
CONTINUOUS
 62
     7
100
AcDbLine
 10
457.4999999999942
 20
393.810784417201
 30
0.0
 11
457.4999999999942
 21
390.810784417201
 31
0.0
  0
LINE
  5
2F4
330
1F
100
AcDbEntity
  8
LAY-10
  6
CONTINUOUS
 62
     7
100
AcDbLine
 10
459.9999999999942
 20
387.810784417201
 30
0.0
 11
459.9999999999942
 21
380.810784417201
 31
0.0
  0
LINE
  5
2F5
330
1F
100
AcDbEntity
  8
LAY-10
  6
CONTINUOUS
 62
     7
100
AcDbLine
 10
459.9999999999942
 20
388.5520062945841
 30
0.0
 11
459.9999999999942
 21
387.810784417201
 31
0.0
  0
LINE
  5
2F6
330
1F
100
AcDbEntity
  8
LAY-10
  6
CONTINUOUS
 62
     7
100
AcDbLine
 10
458.9999999999942
 20
389.319333282563
 30
0.0
 11
458.9999999999942
 21
387.810784417201
 31
0.0
  0
LINE
  5
2F7
330
1F
100
AcDbEntity
  8
LAY-10
  6
CONTINUOUS
 62
     7
100
AcDbLine
 10
454.0000000000042
 20
394.810784417201
 30
0.0
 11
454.0000000000042
 21
380.810784417201
 31
0.0
  0
CIRCLE
  5
2F8
330
1F
100
AcDbEntity
  8
LAY-10
  6
CONTINUOUS
 62
     7
100
AcDbCircle
 10
452.6750000000198
 20
381.1357844172009
 30
0.0
 40
1.325000000000003
  0
CIRCLE
  5
2F9
330
1F
100
AcDbEntity
  8
LAY-10
  6
CONTINUOUS
 62
     7
100
AcDbCircle
 10
459.7999999999901
 20
389.6107844172009
 30
0.0
 40
1.199999999999989
  0
LINE
  5
2FA
330
1F
100
AcDbEntity
  8
LAY-10
  6
CONTINUOUS
 62
     7
100
AcDbLine
 10
458.9999999999942
 20
381.3881346863906
 30
0.0
 11
458.9999999999942
 21
379.8107844172009
 31
0.0
  0
LINE
  5
2FB
330
1F
100
AcDbEntity
  8
LAY-10
  6
CONTINUOUS
 62
     7
100
AcDbLine
 10
459.9999999999901
 20
380.810784417201
 30
0.0
 11
459.9999999999901
 21
379.8107844171999
 31
0.0
  0
LINE
  5
2FC
330
1F
100
AcDbEntity
  8
LAY-10
  6
CONTINUOUS
 62
     7
100
AcDbLine
 10
450.5000000000042
 20
379.810784417197
 30
0.0
 11
453.0000000000047
 21
382.3107844171975
 31
0.0
  0
LINE
  5
2FD
330
1F
100
AcDbEntity
  8
LAY-10
  6
CONTINUOUS
 62
     7
100
AcDbLine
 10
453.0000000000001
 20
396.94893198391
 30
0.0
 11
453.0000000000001
 21
382.3107844171969
 31
0.0
  0
ARC
  5
2FE
330
1F
100
AcDbEntity
  8
LAY-10
  6
CONTINUOUS
 62
     7
100
AcDbCircle
 10
487.0000000000002
 20
380.8107844172009
 30
0.0
 40
1.0
100
AcDbArc
 50
180.0
 51
270.0000000000002
  0
LINE
  5
2FF
330
1F
100
AcDbEntity
  8
LAY-10
  6
CONTINUOUS
 62
     7
100
AcDbLine
 10
482.9999999999974
 20
390.8539872585146
 30
0.0
 11
480.0000000000006
 21
388.5520062945802
 31
0.0
  0
LINE
  5
300
330
1F
100
AcDbEntity
  8
LAY-10
  6
CONTINUOUS
 62
     7
100
AcDbLine
 10
480.9999999999943
 20
387.810784417201
 30
0.0
 11
480.9999999999943
 21
381.3881346863905
 31
0.0
  0
LINE
  5
301
330
1F
100
AcDbEntity
  8
LAY-10
  6
CONTINUOUS
 62
     7
100
AcDbLine
 10
480.9999999999943
 20
381.3881346863905
 30
0.0
 11
479.9999999999942
 21
380.810784417201
 31
0.0
  0
LINE
  5
302
330
1F
100
AcDbEntity
  8
LAY-10
  6
CONTINUOUS
 62
     7
100
AcDbLine
 10
482.9999999999942
 20
394.8107844172008
 30
0.0
 11
482.9999999999942
 21
390.8539872585127
 31
0.0
  0
LINE
  5
303
330
1F
100
AcDbEntity
  8
LAY-10
  6
CONTINUOUS
 62
     7
100
AcDbLine
 10
481.4999999999947
 20
394.810784417201
 30
0.0
 11
482.4999999999947
 21
393.810784417201
 31
0.0
  0
LINE
  5
304
330
1F
100
AcDbEntity
  8
LAY-10
  6
CONTINUOUS
 62
     7
100
AcDbLine
 10
478.9999999999942
 20
390.810784417201
 30
0.0
 11
478.9999999999942
 21
387.810784417201
 31
0.0
  0
LINE
  5
305
330
1F
100
AcDbEntity
  8
LAY-10
  6
CONTINUOUS
 62
     7
100
AcDbLine
 10
482.4999999999947
 20
393.810784417201
 30
0.0
 11
482.4999999999947
 21
390.810784417201
 31
0.0
  0
LINE
  5
306
330
1F
100
AcDbEntity
  8
LAY-10
  6
CONTINUOUS
 62
     7
100
AcDbLine
 10
479.9999999999942
 20
387.810784417201
 30
0.0
 11
479.9999999999942
 21
380.810784417201
 31
0.0
  0
LINE
  5
307
330
1F
100
AcDbEntity
  8
LAY-10
  6
CONTINUOUS
 62
     7
100
AcDbLine
 10
480.9999999999943
 20
389.3193332825542
 30
0.0
 11
480.9999999999943
 21
387.810784417201
 31
0.0
  0
LINE
  5
308
330
1F
100
AcDbEntity
  8
LAY-10
  6
CONTINUOUS
 62
     7
100
AcDbLine
 10
479.9999999999942
 20
388.5520062945753
 30
0.0
 11
479.9999999999942
 21
387.810784417201
 31
0.0
  0
LINE
  5
309
330
1F
100
AcDbEntity
  8
LAY-10
  6
CONTINUOUS
 62
     7
100
AcDbLine
 10
486.0000000000047
 20
394.810784417201
 30
0.0
 11
486.0000000000047
 21
380.810784417201
 31
0.0
  0
CIRCLE
  5
30A
330
1F
100
AcDbEntity
  8
LAY-10
  6
CONTINUOUS
 62
     7
100
AcDbCircle
 10
487.32499999998
 20
381.1357844172009
 30
0.0
 40
1.325000000000003
  0
CIRCLE
  5
30B
330
1F
100
AcDbEntity
  8
LAY-10
  6
CONTINUOUS
 62
     7
100
AcDbCircle
 10
480.2000000000002
 20
389.6107844172009
 30
0.0
 40
1.199999999999989
  0
LINE
  5
30C
330
1F
100
AcDbEntity
  8
LAY-10
  6
CONTINUOUS
 62
     7
100
AcDbLine
 10
480.9999999999943
 20
381.3881346863905
 30
0.0
 11
480.9999999999943
 21
379.8107844171999
 31
0.0
  0
LINE
  5
30D
330
1F
100
AcDbEntity
  8
LAY-10
  6
CONTINUOUS
 62
     7
100
AcDbLine
 10
479.9999999999901
 20
380.810784417201
 30
0.0
 11
479.9999999999901
 21
379.8107844172009
 31
0.0
  0
LINE
  5
30E
330
1F
100
AcDbEntity
  8
LAY-10
  6
CONTINUOUS
 62
     7
100
AcDbLine
 10
489.499999999996
 20
379.810784417197
 30
0.0
 11
486.9999999999956
 21
382.3107844171975
 31
0.0
  0
LINE
  5
30F
330
1F
100
AcDbEntity
  8
LAY-10
  6
CONTINUOUS
 62
     7
100
AcDbLine
 10
487.0000000000002
 20
397.4826839462341
 30
0.0
 11
487.0000000000002
 21
382.3107844171969
 31
0.0
  0
LINE
  5
310
330
1F
100
AcDbEntity
  8
LAY-10
  6
CONTINUOUS
 62
     7
100
AcDbLine
 10
800.5000000000008
 20
969.0
 30
0.0
 11
800.5000000000008
 21
931.0000000000002
 31
0.0
  0
LINE
  5
311
330
1F
100
AcDbEntity
  8
LAY-10
  6
CONTINUOUS
 62
     7
100
AcDbLine
 10
724.5000000000008
 20
969.0
 30
0.0
 11
724.5000000000008
 21
931.0000000000002
 31
0.0
  0
LINE
  5
312
330
1F
100
AcDbEntity
  8
LAY-10
  6
CONTINUOUS
 62
     7
100
AcDbLine
 10
724.5000000000008
 20
969.0
 30
0.0
 11
800.5000000000008
 21
969.0
 31
0.0
  0
LINE
  5
313
330
1F
100
AcDbEntity
  8
LAY-10
  6
CONTINUOUS
 62
     7
100
AcDbLine
 10
724.5000000000008
 20
931.0000000000002
 30
0.0
 11
800.5000000000008
 21
931.0000000000002
 31
0.0
  0
ARC
  5
314
330
1F
100
AcDbEntity
  8
LAY-10
  6
CONTINUOUS
 62
     7
100
AcDbCircle
 10
625.0000000000008
 20
950.0000000000001
 30
0.0
 40
215.0
100
AcDbArc
 50
73.79530662329978
 51
106.2046933766999
  0
ARC
  5
315
330
1F
100
AcDbEntity
  8
LAY-10
  6
CONTINUOUS
 62
     7
100
AcDbCircle
 10
625.0000000000008
 20
950.0000000000001
 30
0.0
 40
235.0
100
AcDbArc
 50
73.79530662329984
 51
106.2046933766999
  0
LINE
  5
316
330
1F
100
AcDbEntity
  8
LAY-10
  6
CONTINUOUS
 62
     7
100
AcDbLine
 10
690.5813953488009
 20
1175.663644799
 30
0.0
 11
685.0000000000008
 21
1156.458228221
 31
0.0
  0
LINE
  5
317
330
1F
100
AcDbEntity
  8
LAY-10
  6
CONTINUOUS
 62
     7
100
AcDbLine
 10
559.4186046512008
 20
1175.663644799
 30
0.0
 11
565.0000000000009
 21
1156.458228221
 31
0.0
  0
LINE
  5
318
330
1F
100
AcDbEntity
  8
LAY-10
  6
CONTINUOUS
 62
     7
100
AcDbLine
 10
692.0182673935008
 20
1162.691212408
 30
0.0
 11
691.1808446970009
 21
1159.809665638
 31
0.0
  0
ARC
  5
319
330
1F
100
AcDbEntity
  8
LAY-10
  6
CONTINUOUS
 62
     7
100
AcDbCircle
 10
625.0000000000008
 20
950.0000000000001
 30
0.0
 40
220.0
100
AcDbArc
 50
320.0000000000002
 51
72.49301768809984
  0
ARC
  5
31A
330
1F
100
AcDbEntity
  8
LAY-10
  6
CONTINUOUS
 62
     7
100
AcDbCircle
 10
625.0000000000008
 20
950.0000000000001
 30
0.0
 40
223.0
100
AcDbArc
 50
320.0000000000001
 51
72.51054022719994
  0
ARC
  5
31B
330
1F
100
AcDbEntity
  8
LAY-10
  6
CONTINUOUS
 62
     7
100
AcDbCircle
 10
625.0000000000008
 20
950.0000000000001
 30
0.0
 40
223.0
100
AcDbArc
 50
107.4894597727998
 51
219.9999999999999
  0
ARC
  5
31C
330
1F
100
AcDbEntity
  8
LAY-10
  6
CONTINUOUS
 62
     7
100
AcDbCircle
 10
625.0000000000008
 20
950.0000000000001
 30
0.0
 40
220.0
100
AcDbArc
 50
107.5069823118999
 51
219.9999999999999
  0
LINE
  5
31D
330
1F
100
AcDbEntity
  8
LAY-10
  6
CONTINUOUS
 62
     7
100
AcDbLine
 10
557.9817326065008
 20
1162.691212408
 30
0.0
 11
558.8191553030009
 21
1159.809665638
 31
0.0
  0
LINE
  5
31E
330
1F
100
AcDbEntity
  8
LAY-10
  6
CONTINUOUS
 62
     7
100
AcDbLine
 10
730.0000000000008
 20
768.1346652053
 30
0.0
 11
740.0000000000009
 21
750.8141571296002
 31
0.0
  0
LINE
  5
31F
330
1F
100
AcDbEntity
  8
LAY-10
  6
CONTINUOUS
 62
     7
100
AcDbLine
 10
782.6097906589008
 20
811.2226463415002
 30
0.0
 11
797.9346460988007
 21
798.3635657941002
 31
0.0
  0
LINE
  5
320
330
1F
100
AcDbEntity
  8
LAY-10
  6
CONTINUOUS
 62
     7
100
AcDbLine
 10
467.3902093411008
 20
811.2226463415002
 30
0.0
 11
452.0653539012009
 21
798.3635657941002
 31
0.0
  0
LINE
  5
321
330
1F
100
AcDbEntity
  8
LAY-10
  6
CONTINUOUS
 62
     7
100
AcDbLine
 10
725.6401068572007
 20
765.6862216442001
 30
0.0
 11
735.6426958567008
 21
748.3612292897001
 31
0.0
  0
ARC
  5
322
330
1F
100
AcDbEntity
  8
LAY-10
  6
CONTINUOUS
 62
     7
100
AcDbCircle
 10
625.0000000000008
 20
950.0000000000001
 30
0.0
 40
230.0
100
AcDbArc
 50
221.2456585515999
 51
298.7543414484002
  0
ARC
  5
323
330
1F
100
AcDbEntity
  8
LAY-10
  6
CONTINUOUS
 62
     7
100
AcDbCircle
 10
625.0000000000008
 20
950.0000000000001
 30
0.0
 40
210.0
100
AcDbArc
 50
221.2456585515999
 51
298.6356858492999
  0
ARC
  5
324
330
1F
100
AcDbEntity
  8
LAY-10
  6
CONTINUOUS
 62
     7
100
AcDbCircle
 10
625.0000000000008
 20
950.0000000000001
 30
0.0
 40
210.0
100
AcDbArc
 50
300.0
 51
318.7543414483999
  0
ARC
  5
325
330
1F
100
AcDbEntity
  8
LAY-10
  6
CONTINUOUS
 62
     7
100
AcDbCircle
 10
625.0000000000008
 20
950.0000000000001
 30
0.0
 40
230.0
100
AcDbArc
 50
300.0000000000001
 51
318.7543414484001
  0
LINE
  5
326
330
1F
100
AcDbEntity
  8
LAY-10
  6
CONTINUOUS
 62
     7
100
AcDbLine
 10
793.5297774862007
 20
808.5867258690001
 30
0.0
 11
795.8279108155009
 21
806.6583630399
 31
0.0
  0
LINE
  5
327
330
1F
100
AcDbEntity
  8
LAY-10
  6
CONTINUOUS
 62
     7
100
AcDbLine
 10
454.172089184501
 20
806.6583630399
 30
0.0
 11
456.4702225138009
 21
808.5867258690001
 31
0.0
  0
ARC
  5
328
330
1F
100
AcDbEntity
  8
LAY-10
  6
CONTINUOUS
 62
     7
100
AcDbCircle
 10
625.0000000000008
 20
950.0000000000001
 30
0.0
 40
205.0
100
AcDbArc
 50
219.9999999999999
 51
320.0000000000002
  0
ARC
  5
329
330
1F
100
AcDbEntity
  8
LAY-10
  6
CONTINUOUS
 62
     7
100
AcDbCircle
 10
625.0000000000008
 20
950.0000000000001
 30
0.0
 40
215.0
100
AcDbArc
 50
320.0000000000002
 51
72.46272649900989
  0
ARC
  5
32A
330
1F
100
AcDbEntity
  8
LAY-10
  6
CONTINUOUS
 62
     7
100
AcDbCircle
 10
625.0000000000008
 20
950.0000000000001
 30
0.0
 40
215.0
100
AcDbArc
 50
107.5372735009998
 51
219.9999999999998
  0
ARC
  5
32B
330
1F
100
AcDbEntity
  8
LAY-10
  6
CONTINUOUS
 62
     7
100
AcDbCircle
 10
625.0000000000008
 20
950.0000000000001
 30
0.0
 40
210.0
100
AcDbArc
 50
72.43099247261996
 51
107.5690075273999
  0
LINE
  5
32C
330
1F
100
AcDbEntity
  8
LAY-10
  6
CONTINUOUS
 62
     7
100
AcDbLine
 10
689.7851269638007
 20
1155.007042133
 30
0.0
 11
688.3893916569009
 21
1150.204358158
 31
0.0
  0
LINE
  5
32D
330
1F
100
AcDbEntity
  8
LAY-10
  6
CONTINUOUS
 62
     7
100
AcDbLine
 10
560.2148730362009
 20
1155.007042133
 30
0.0
 11
561.6106083431009
 21
1150.204358158
 31
0.0
  0
LINE
  5
32E
330
1F
100
AcDbEntity
  8
LAY-10
  6
CONTINUOUS
 62
     7
100
AcDbLine
 10
789.6995552706009
 20
811.8006639174001
 30
0.0
 11
782.0391108394008
 21
818.2285400142001
 31
0.0
  0
LINE
  5
32F
330
1F
100
AcDbEntity
  8
LAY-10
  6
CONTINUOUS
 62
     7
100
AcDbLine
 10
460.3004447294007
 20
811.8006639174001
 30
0.0
 11
467.960889160601
 21
818.2285400142001
 31
0.0
  0
LINE
  5
330
330
1F
100
AcDbEntity
  8
LAY-10
  6
CONTINUOUS
 62
     7
100
AcDbLine
 10
449.5000000000009
 20
969.0
 30
0.0
 11
449.5000000000009
 21
931.0000000000002
 31
0.0
  0
LINE
  5
331
330
1F
100
AcDbEntity
  8
LAY-10
  6
CONTINUOUS
 62
     7
100
AcDbLine
 10
525.5000000000009
 20
969.0
 30
0.0
 11
525.5000000000009
 21
931.0000000000002
 31
0.0
  0
LINE
  5
332
330
1F
100
AcDbEntity
  8
LAY-10
  6
CONTINUOUS
 62
     7
100
AcDbLine
 10
525.5000000000009
 20
969.0
 30
0.0
 11
449.5000000000009
 21
969.0
 31
0.0
  0
LINE
  5
333
330
1F
100
AcDbEntity
  8
LAY-10
  6
CONTINUOUS
 62
     7
100
AcDbLine
 10
525.5000000000009
 20
931.0000000000002
 30
0.0
 11
449.5000000000009
 21
931.0000000000002
 31
0.0
  0
LINE
  5
334
330
1F
100
AcDbEntity
  8
LAY-10
  6
PHANTOM
 62
     7
100
AcDbLine
 10
402.0000000000009
 20
396.1075205209804
 30
0.0
 11
402.8560823667267
 21
393.1220065101439
 31
0.0
  0
LINE
  5
335
330
1F
100
AcDbEntity
  8
LAY-10
  6
PHANTOM
 62
     7
100
AcDbLine
 10
410.000000000001
 20
396.2471610404071
 30
0.0
 11
410.8560823667265
 21
393.2616470295706
 31
0.0
  0
LINE
  5
336
330
1F
100
AcDbEntity
  8
LAY-10
  6
PHANTOM
 62
     7
100
AcDbLine
 10
405.000000000001
 20
396.1598857157654
 30
0.0
 11
404.2486320718991
 21
393.1463135556637
 31
0.0
  0
LINE
  5
337
330
1F
100
AcDbEntity
  8
LAY-10
  6
PHANTOM
 62
     7
100
AcDbLine
 10
404.2486320718991
 20
393.1463135556637
 30
0.0
 11
402.8560823667267
 21
393.1220065101439
 31
0.0
  0
LINE
  5
338
330
1F
100
AcDbEntity
  8
LAY-10
  6
PHANTOM
 62
     7
100
AcDbLine
 10
625.0000000000008
 20
396.9995430158685
 30
0.0
 11
410.85608236673
 21
393.2616470295709
 31
0.0
  0
LINE
  5
339
330
1F
100
AcDbEntity
  8
LAY-10
  6
PHANTOM
 62
     7
100
AcDbLine
 10
723.6439176332756
 20
395.2777070287949
 30
0.0
 11
625.0000000000008
 21
396.9995430158688
 31
0.0
  0
LINE
  5
33A
330
1F
100
AcDbEntity
  8
LAY-10
  6
PHANTOM
 62
     7
100
AcDbLine
 10
724.5000000000011
 20
398.2632210396305
 30
0.0
 11
723.6439176332752
 21
395.2777070287938
 31
0.0
  0
LINE
  5
33B
330
1F
100
AcDbEntity
  8
LAY-10
  6
PHANTOM
 62
     7
100
AcDbLine
 10
854.1439176331752
 20
392.9998210556491
 30
0.0
 11
835.7513679280029
 21
393.3208642049503
 31
0.0
  0
LINE
  5
33C
330
1F
100
AcDbEntity
  8
LAY-10
  6
PHANTOM
 62
     7
100
AcDbLine
 10
854.9999999999008
 20
395.9853350664854
 30
0.0
 11
854.1439176331752
 21
392.9998210556491
 31
0.0
  0
LINE
  5
33D
330
1F
100
AcDbEntity
  8
LAY-10
  6
PHANTOM
 62
     7
100
AcDbLine
 10
829.9999999999006
 20
396.4217116896938
 30
0.0
 11
829.1439176331751
 21
393.4361976788574
 31
0.0
  0
LINE
  5
33E
330
1F
100
AcDbEntity
  8
LAY-10
  6
PHANTOM
 62
     7
100
AcDbLine
 10
834.9999999999009
 20
396.3344363650521
 30
0.0
 11
835.7513679280029
 21
393.3208642049503
 31
0.0
  0
LINE
  5
33F
330
1F
100
AcDbEntity
  8
LAY-10
  6
PHANTOM
 62
     7
100
AcDbLine
 10
800.5000000000007
 20
396.9366361050766
 30
0.0
 11
801.2513679281028
 21
393.9230639449747
 31
0.0
  0
LINE
  5
340
330
1F
100
AcDbEntity
  8
LAY-10
  6
PHANTOM
 62
     7
100
AcDbLine
 10
829.1439176331751
 20
393.4361976788574
 30
0.0
 11
801.2513679281001
 21
393.9230639449763
 31
0.0
  0
DIMENSION
  5
342
330
1F
100
AcDbEntity
  8
LAY-20
  6
CONTINUOUS
 62
     4
100
AcDbDimension
  2
*D15
 10
879.9999999999
 20
520.0
 30
0.0
 11
624.99999999995
 21
532.5
 31
0.0
 70
   160
  1
%%c<>
  3
ISO-25
100
AcDbAlignedDimension
 13
370.0
 23
395.8107844172
 33
0.0
 14
879.9999999999
 24
395.8107844172
 34
0.0
100
AcDbRotatedDimension
1001
ACAD
1000
DSTYLE
1002
{
1070
   270
1070
     2
1070
     6
1000
EX_BNORM
1070
     7
1000
EX_BNORM
1070
    41
1040
15.0
1070
    42
1040
7.5
1070
    44
1040
7.5
1070
    73
1070
     0
1070
    74
1070
     0
1070
    75
1070
     0
1070
    76
1070
     0
1070
    77
1070
     1
1070
    78
1070
     8
1070
   140
1040
15.590552
1070
   147
1040
0.0
1070
   173
1070
     1
1070
   176
1070
     4
1070
   177
1070
     4
1070
   178
1070
     7
1070
   271
1070
     1
1070
   277
1070
     2
1070
   279
1070
     2
1070
   280
1070
     0
1070
   287
1070
     5
1070
   340
1005
341
1002
}
  0
DIMENSION
  5
350
330
1F
100
AcDbEntity
  8
LAY-20
  6
CONTINUOUS
 62
     4
100
AcDbDimension
  2
*D16
 10
865.0
 20
485.0
 30
0.0
 11
625.0
 21
497.5
 31
0.0
 70
   160
  1
%%c<>
  3
ISO-25
100
AcDbAlignedDimension
 13
385.0
 23
395.8107844172
 33
0.0
 14
865.0
 24
395.8107844172
 34
0.0
100
AcDbRotatedDimension
1001
ACAD
1000
DSTYLE
1002
{
1070
   270
1070
     2
1070
     6
1000
EX_BNORM
1070
     7
1000
EX_BNORM
1070
    41
1040
15.0
1070
    42
1040
7.5
1070
    44
1040
7.5
1070
    73
1070
     0
1070
    74
1070
     0
1070
    75
1070
     0
1070
    76
1070
     0
1070
    77
1070
     1
1070
    78
1070
     8
1070
   140
1040
15.590552
1070
   147
1040
0.0
1070
   173
1070
     1
1070
   176
1070
     4
1070
   177
1070
     4
1070
   178
1070
     7
1070
   271
1070
     1
1070
   277
1070
     2
1070
   279
1070
     2
1070
   280
1070
     0
1070
   287
1070
     5
1070
   340
1005
341
1002
}
  0
DIMENSION
  5
35D
330
1F
100
AcDbEntity
  8
LAY-20
  6
CONTINUOUS
 62
     4
100
AcDbDimension
  2
*D17
 10
850.0
 20
290.8107844172
 30
0.0
 11
625.0
 21
303.3107844172
 31
0.0
 70
   160
  1
%%c<>
  3
ISO-25
100
AcDbAlignedDimension
 13
400.0
 23
353.1107844172
 33
0.0
 14
850.0
 24
353.1107844172
 34
0.0
100
AcDbRotatedDimension
1001
ACAD
1000
DSTYLE
1002
{
1070
   270
1070
     2
1070
     6
1000
EX_BNORM
1070
     7
1000
EX_BNORM
1070
    41
1040
15.0
1070
    42
1040
7.5
1070
    44
1040
7.5
1070
    73
1070
     0
1070
    74
1070
     0
1070
    75
1070
     0
1070
    76
1070
     0
1070
    77
1070
     1
1070
    78
1070
     8
1070
   140
1040
15.590552
1070
   147
1040
0.0
1070
   173
1070
     1
1070
   176
1070
     4
1070
   177
1070
     4
1070
   178
1070
     7
1070
   271
1070
     1
1070
   277
1070
     2
1070
   279
1070
     2
1070
   280
1070
     0
1070
   287
1070
     5
1070
   340
1005
341
1002
}
  0
DIMENSION
  5
36A
330
1F
100
AcDbEntity
  8
LAY-20
  6
CONTINUOUS
 62
     4
100
AcDbDimension
  2
*D18
 10
892.4999999999
 20
255.8107844172
 30
0.0
 11
624.99999999995
 21
268.3107844172
 31
0.0
 70
   160
  1
□<>
  3
ISO-25
100
AcDbAlignedDimension
 13
357.5
 23
340.8107844172
 33
0.0
 14
892.4999999999
 24
255.8107844172
 34
0.0
100
AcDbRotatedDimension
1001
ACAD
1000
DSTYLE
1002
{
1070
   270
1070
     2
1070
     6
1000
EX_BNORM
1070
     7
1000
EX_NONE
1070
    41
1040
15.0
1070
    42
1040
7.5
1070
    44
1040
7.5
1070
    73
1070
     0
1070
    74
1070
     0
1070
    75
1070
     0
1070
    76
1070
     1
1070
    77
1070
     1
1070
    78
1070
     8
1070
   140
1040
15.590552
1070
   147
1040
0.0
1070
   173
1070
     1
1070
   176
1070
     4
1070
   177
1070
     4
1070
   178
1070
     7
1070
   271
1070
     1
1070
   277
1070
     2
1070
   279
1070
     2
1070
   280
1070
     0
1070
   287
1070
     5
1070
   340
1005
341
1002
}
  0
DIMENSION
  5
376
330
1F
100
AcDbEntity
  8
LAY-20
  6
CONTINUOUS
 62
     4
100
AcDbDimension
  2
*D19
 10
1033.5
 20
340.8107844172
 30
0.0
 11
1021.0
 21
368.3107844172
 31
0.0
 70
   160
  3
ISO-25
100
AcDbAlignedDimension
 13
879.9999999999
 23
395.8107844172
 33
0.0
 14
984.6999999999
 24
340.8107844172
 34
0.0
 50
90.0
100
AcDbRotatedDimension
1001
ACAD
1000
DSTYLE
1002
{
1070
   270
1070
     2
1070
     6
1000
EX_BNORM
1070
     7
1000
EX_BNORM
1070
    41
1040
15.0
1070
    42
1040
7.5
1070
    44
1040
7.5
1070
    73
1070
     0
1070
    74
1070
     0
1070
    75
1070
     0
1070
    76
1070
     0
1070
    77
1070
     1
1070
    78
1070
     8
1070
   140
1040
15.590552
1070
   147
1040
0.0
1070
   173
1070
     1
1070
   176
1070
     4
1070
   177
1070
     4
1070
   178
1070
     7
1070
   271
1070
     1
1070
   277
1070
     2
1070
   279
1070
     2
1070
   280
1070
     0
1070
   287
1070
     5
1070
   340
1005
341
1002
}
  0
LINE
  5
383
330
1F
100
AcDbEntity
  8
LAY-255
  6
CONTINUOUS
 62
     7
100
AcDbLine
 10
25.0
 20
50.0
 30
0.0
 11
1925.0
 21
50.0
 31
0.0
  0
LINE
  5
384
330
1F
100
AcDbEntity
  8
LAY-255
  6
CONTINUOUS
 62
     7
100
AcDbLine
 10
25.0
 20
1400.0
 30
0.0
 11
1925.0
 21
1400.0
 31
0.0
  0
LINE
  5
385
330
1F
100
AcDbEntity
  8
LAY-255
  6
CONTINUOUS
 62
     7
100
AcDbLine
 10
25.0
 20
50.0
 30
0.0
 11
25.0
 21
1400.0
 31
0.0
  0
LINE
  5
386
330
1F
100
AcDbEntity
  8
LAY-255
  6
CONTINUOUS
 62
     7
100
AcDbLine
 10
1925.0
 20
50.0
 30
0.0
 11
1925.0
 21
1400.0
 31
0.0
  0
LINE
  5
387
330
1F
100
AcDbEntity
  8
LAY-255
  6
CONTINUOUS
 62
     7
100
AcDbLine
 10
1925.0
 20
110.0
 30
0.0
 11
1425.0
 21
110.0
 31
0.0
  0
LINE
  5
388
330
1F
100
AcDbEntity
  8
LAY-255
  6
CONTINUOUS
 62
     7
100
AcDbLine
 10
1444.0
 20
79.99999999999999
 30
0.0
 11
1484.0
 21
105.0
 31
0.0
  0
LINE
  5
389
330
1F
100
AcDbEntity
  8
LAY-255
  6
CONTINUOUS
 62
     7
100
AcDbLine
 10
1484.0
 20
105.0
 30
0.0
 11
1524.0
 21
79.99999999999999
 31
0.0
  0
LINE
  5
38A
330
1F
100
AcDbEntity
  8
LAY-255
  6
CONTINUOUS
 62
     7
100
AcDbLine
 10
1524.0
 20
79.99999999999999
 30
0.0
 11
1484.0
 21
55.0
 31
0.0
  0
LINE
  5
38B
330
1F
100
AcDbEntity
  8
LAY-255
  6
CONTINUOUS
 62
     7
100
AcDbLine
 10
1484.0
 20
55.0
 30
0.0
 11
1444.0
 21
79.99999999999999
 31
0.0
  0
LINE
  5
38C
330
1F
100
AcDbEntity
  8
LAY-255
  6
CONTINUOUS
 62
     4
100
AcDbLine
 10
1425.0
 20
140.0
 30
0.0
 11
1925.0
 21
140.0
 31
0.0
  0
LINE
  5
38D
330
1F
100
AcDbEntity
  8
LAY-255
  6
CONTINUOUS
 62
     4
100
AcDbLine
 10
1675.0
 20
140.0
 30
0.0
 11
1675.0
 21
110.0
 31
0.0
  0
POINT
  5
38E
330
1F
100
AcDbEntity
  8
LAY-255
  6
CONTINUOUS
 62
     7
100
AcDbPoint
 10
1445.0
 20
250.0
 30
0.0
  0
POINT
  5
38F
330
1F
100
AcDbEntity
  8
LAY-255
  6
CONTINUOUS
 62
     7
100
AcDbPoint
 10
1445.0
 20
149.9999999999999
 30
0.0
  0
LINE
  5
390
330
1F
100
AcDbEntity
  8
LAY-255
  6
CONTINUOUS
 62
     7
100
AcDbLine
 10
1425.0
 20
50.0
 30
0.0
 11
1425.0
 21
360.0
 31
0.0
  0
LINE
  5
391
330
1F
100
AcDbEntity
  8
LAY-255
  6
CONTINUOUS
 62
     7
100
AcDbLine
 10
1925.0
 20
360.0
 30
0.0
 11
1425.0
 21
360.0
 31
0.0
  0
LINE
  5
392
330
1F
100
AcDbEntity
  8
LAY-255
  6
CONTINUOUS
 62
     4
100
AcDbLine
 10
1915.0
 20
300.0
 30
0.0
 11
1435.0
 21
300.0
 31
0.0
  0
LINE
  5
393
330
1F
100
AcDbEntity
  8
LAY-255
  6
CONTINUOUS
 62
     4
100
AcDbLine
 10
1915.0
 20
330.0
 30
0.0
 11
1435.0
 21
330.0
 31
0.0
  0
POINT
  5
394
330
1F
100
AcDbEntity
  8
LAY-255
  6
CONTINUOUS
 62
     7
100
AcDbPoint
 10
1500.0
 20
305.0
 30
0.0
  0
POINT
  5
395
330
1F
100
AcDbEntity
  8
LAY-255
  6
CONTINUOUS
 62
     7
100
AcDbPoint
 10
1500.0
 20
335.0
 30
0.0
  0
POINT
  5
396
330
1F
100
AcDbEntity
  8
LAY-255
  6
CONTINUOUS
 62
     7
100
AcDbPoint
 10
1445.0
 20
275.0
 30
0.0
  0
POINT
  5
397
330
1F
100
AcDbEntity
  8
LAY-255
  6
CONTINUOUS
 62
     7
100
AcDbPoint
 10
1445.0
 20
175.0
 30
0.0
  0
POINT
  5
398
330
1F
100
AcDbEntity
  8
LAY-255
  6
CONTINUOUS
 62
     7
100
AcDbPoint
 10
1445.0
 20
200.0
 30
0.0
  0
POINT
  5
399
330
1F
100
AcDbEntity
  8
LAY-255
  6
CONTINUOUS
 62
     7
100
AcDbPoint
 10
1445.0
 20
149.9999999999999
 30
0.0
  0
TEXT
  5
39A
330
1F
100
AcDbEntity
  8
LAY-255
  6
CONTINUOUS
 62
     7
100
AcDbText
 10
1540.691894370117
 20
77.71874999999999
 30
0.0
 40
25.78125
  1
福西鋳物株式会社
 41
1.342691871783662
  7
EXCADSTD
100
AcDbText
  0
TEXT
  5
39B
330
1F
100
AcDbEntity
  8
LAY-255
  6
CONTINUOUS
 62
     7
100
AcDbText
 10
1542.546875
 20
59.90624999999999
 30
0.0
 40
8.59375
  1
ＦＵＫＵＮＩＳＨＩ
 41
1.204799226045263
  7
EXCADSTD
100
AcDbText
  0
TEXT
  5
39C
330
1F
100
AcDbEntity
  8
LAY-255
  6
CONTINUOUS
 62
     7
100
AcDbText
 10
1663.595982142857
 20
59.90624999999999
 30
0.0
 40
8.59375
  1
ＦＯＵＮＤＲＹ
 41
1.243252752978497
  7
EXCADSTD
100
AcDbText
  0
TEXT
  5
39D
330
1F
100
AcDbEntity
  8
LAY-255
  6
CONTINUOUS
 62
     7
100
AcDbText
 10
1759.97295734375
 20
59.90624999999999
 30
0.0
 40
8.59375
  1
ＣＯ.,ＬＴＤ.
 41
1.243831100341625
  7
EXCADSTD
100
AcDbText
  0
TEXT
  5
39E
330
1F
100
AcDbEntity
  8
LAY-255
  6
CONTINUOUS
 62
     7
100
AcDbText
 10
1470.171875
 20
68.59375
 30
0.0
 40
25.78125
  1
S
 41
0.7582677563636363
  7
EXCADSTD
100
AcDbText
  0
TEXT
  5
39F
330
1F
100
AcDbEntity
  8
LAY-255
  6
CONTINUOUS
 62
     7
100
AcDbText
 10
1485.5234375
 20
68.7470518868
 30
0.0
 40
25.78125
  1
F
 41
0.7440945272727272
  7
EXCADSTD
100
AcDbText
  0
TEXT
  5
3A0
330
1F
100
AcDbEntity
  8
LAY-255
  6
CONTINUOUS
 62
     7
100
AcDbText
 10
1685.52734375
 20
122.1093749999999
 30
0.0
 40
12.890625
  1
縮尺
 41
1.080708718181818
  7
EXCADSTD
100
AcDbText
  0
TEXT
  5
3A1
330
1F
100
AcDbEntity
  8
LAY-255
  6
CONTINUOUS
 62
     7
100
AcDbText
 10
1435.76171875
 20
122.1093749999999
 30
0.0
 40
12.890625
  1
作成日
 41
1.000629973818182
  7
EXCADSTD
100
AcDbText
  0
TEXT
  5
3A2
330
1F
100
AcDbEntity
  8
LAY-255
  6
CONTINUOUS
 62
     7
100
AcDbText
 10
1741.40625
 20
117.8124999999999
 30
0.0
 40
17.1875
  1
１：５
 41
0.888661464
  7
EXCADSTD
100
AcDbText
  0
TEXT
  5
3A3
330
1F
100
AcDbEntity
  8
LAY-255
  6
CONTINUOUS
 62
     7
100
AcDbText
 10
1436.328125
 20
307.8125
 30
0.0
 40
17.1875
  1
型式
 41
1.056348480681818
  7
EXCADSTD
100
AcDbText
  0
TEXT
  5
3A4
330
1F
100
AcDbEntity
  8
LAY-255
  6
CONTINUOUS
 62
     7
100
AcDbText
 10
1437.109375
 20
337.8125
 30
0.0
 40
17.1875
  1
品名
 41
0.9788386340909091
  7
EXCADSTD
100
AcDbText
  0
TEXT
  5
3A5
330
1F
100
AcDbEntity
  8
LAY-255
  6
CONTINUOUS
 62
     7
100
AcDbText
 10
1501.953125
 20
337.8125
 30
0.0
 40
17.1875
  1
マンホールカバー
 41
1.015410627012987
  7
EXCADSTD
100
AcDbText
  0
TEXT
  5
3A6
330
1F
100
AcDbEntity
  8
LAY-255
  6
CONTINUOUS
 62
     7
100
AcDbText
 10
1445.703125
 20
252.8125
 30
0.0
 40
17.1875
  1
構造：新回転ロック方式
 41
1.018792163261481
  7
EXCADSTD
100
AcDbText
  0
TEXT
  5
3A7
330
1F
100
AcDbEntity
  8
LAY-255
  6
CONTINUOUS
 62
     7
100
AcDbText
 10
1447.265625
 20
277.8125000000001
 30
0.0
 40
17.1875
  1
区分：重荷重用
 41
1.007228657526081
  7
EXCADSTD
100
AcDbText
  0
TEXT
  5
3A8
330
1F
100
AcDbEntity
  8
LAY-255
  6
CONTINUOUS
 62
     7
100
AcDbText
 10
1445.703125
 20
202.8125
 30
0.0
 40
17.1875
  1
機能：施錠装置付
 41
1.024521988571429
  7
EXCADSTD
100
AcDbText
  0
TEXT
  5
3A9
330
1F
100
AcDbEntity
  8
LAY-255
  6
CONTINUOUS
 62
     7
100
AcDbText
 10
1446.875
 20
177.8125
 30
0.0
 40
17.1875
  1
防水：防水防臭型
 41
1.01490444025974
  7
EXCADSTD
100
AcDbText
  0
TEXT
  5
3AA
330
1F
100
AcDbEntity
  8
LAY-255
  6
CONTINUOUS
 62
     7
100
AcDbText
 10
1445.9375
 20
227.8125
 30
0.0
 40
17.1875
  1
処理：耐腐食性金属処理加工
 41
1.015542675731225
  7
EXCADSTD
100
AcDbText
  0
TEXT
  5
3AB
330
1F
100
AcDbEntity
  8
LAY-255
  6
CONTINUOUS
 62
     7
100
AcDbText
 10
1503.75
 20
307.8125
 30
0.0
 40
17.1875
  1
ＳＦ－４５ＭＡＳＫ型
 41
1.003802844421487
  7
EXCADSTD
100
AcDbText
  0
TEXT
  5
3AC
330
1F
100
AcDbEntity
  8
LAY-255
  6
CONTINUOUS
 62
     7
100
AcDbText
 10
1506.40625
 20
117.8124999999999
 30
0.0
 40
17.1875
  1
１４／１０／１６
 41
0.9652981384415584
  7
EXCADSTD
100
AcDbText
  0
TEXT
  5
3AD
330
1F
100
AcDbEntity
  8
LAY-255
  6
CONTINUOUS
 62
     7
100
AcDbText
 10
1445.859375
 20
152.8124999999999
 30
0.0
 40
17.1875
  1
破壊荷重：２５０ｋＮ以上
 41
1.015859509605489
  7
EXCADSTD
100
AcDbText
  0
ENDSEC
  0
SECTION
  2
OBJECTS
  0
DICTIONARY
  5
C
330
0
100
AcDbDictionary
  3
ACAD_GROUP
350
D
  3
ACAD_LAYOUT
350
1A
  3
ACAD_MATERIAL
350
43
  3
ACAD_MLEADERSTYLE
350
6B
  3
ACAD_MLINESTYLE
350
17
  3
ACAD_PLOTSETTINGS
350
19
  3
ACAD_SCALELIST
350
47
  3
ACAD_VISUALSTYLE
350
2A
  3
ACDBHEADERROUNDTRIPXREC
350
3AE
  3
ACDBVARIABLEDICTIONARY
350
3CF
  0
DICTIONARY
  5
3DA
330
8
100
AcDbDictionary
280
     1
  3
ACAD_XREC_ROUNDTRIP
360
3DB
  0
DICTIONARY
  5
D
102
{ACAD_REACTORS
330
C
102
}
330
C
100
AcDbDictionary
  0
DICTIONARY
  5
1A
102
{ACAD_REACTORS
330
C
102
}
330
C
100
AcDbDictionary
  0
DICTIONARY
  5
43
102
{ACAD_REACTORS
330
C
102
}
330
C
100
AcDbDictionary
  3
BYBLOCK
350
45
  3
BYLAYER
350
44
  3
GLOBAL
350
46
  0
DICTIONARY
  5
6B
102
{ACAD_REACTORS
330
C
102
}
330
C
100
AcDbDictionary
  3
STANDARD
350
6C
  0
DICTIONARY
  5
17
102
{ACAD_REACTORS
330
C
102
}
330
C
100
AcDbDictionary
  3
STANDARD
350
18
  0
DICTIONARY
  5
19
102
{ACAD_REACTORS
330
C
102
}
330
C
100
AcDbDictionary
  0
DICTIONARY
  5
47
102
{ACAD_REACTORS
330
C
102
}
330
C
100
AcDbDictionary
  3
A0
350
48
  3
A1
350
49
  3
A2
350
4A
  3
A3
350
4B
  3
A4
350
4C
  3
A5
350
4D
  3
A6
350
4E
  3
A7
350
4F
  3
A8
350
50
  3
A9
350
51
  3
B0
350
52
  3
B1
350
53
  3
B2
350
54
  3
B3
350
55
  3
B4
350
56
  3
B5
350
57
  3
B6
350
58
  3
B7
350
59
  3
B8
350
5A
  3
B9
350
5B
  3
C0
350
5C
  3
C1
350
5D
  3
C2
350
5E
  3
C3
350
5F
  3
C4
350
60
  3
C5
350
61
  3
C6
350
62
  3
C7
350
63
  3
C8
350
64
  3
C9
350
65
  3
D0
350
66
  3
D1
350
67
  3
D2
350
68
  0
DICTIONARY
  5
2A
102
{ACAD_REACTORS
330
C
102
}
330
C
100
AcDbDictionary
  3
2DWIREFRAME
350
2F
  3
BASIC
350
32
  3
BRIGHTEN
350
36
  3
COLORCHANGE
350
3A
  3
CONCEPTUAL
350
34
  3
DIM
350
35
  3
EDGECOLOROFF
350
3D
  3
FACEPATTERN
350
39
  3
FLAT
350
2B
  3
FLATWITHEDGES
350
2C
  3
GOURAUD
350
2D
  3
GOURAUDWITHEDGES
350
2E
  3
HIDDEN
350
31
  3
JITTEROFF
350
3B
  3
LINEPATTERN
350
38
  3
OVERHANGOFF
350
3C
  3
REALISTIC
350
33
  3
SHADED
350
42
  3
SHADED_WITH_EDGES
350
41
  3
SHADES_OF_GRAY
350
3E
  3
SKETCHY
350
3F
  3
THICKEN
350
37
  3
WIREFRAME
350
30
  3
X-RAY
350
40
  0
DICTIONARY
  5
3AE
102
{ACAD_REACTORS
330
C
102
}
330
C
100
AcDbDictionary
  3
CEPSNID
350
3B8
  3
CEPSNTYPE
350
3B7
  3
DIMSTYLEDATA
350
3CE
  3
FINGERPRINTGUID
350
3B9
  3
HYPERLINKBASE
350
3B1
  3
INSUNITS
350
3B6
  3
LAYOUTDICT
350
3B3
  3
LWETCUNION
350
3B5
  3
PLOTSETDICT
350
3B4
  3
PSVPSCALE
350
3BB
  3
PUCSBASE
350
3BE
  3
PUCSORGBACK
350
3C4
  3
PUCSORGBOTTOM
350
3C0
  3
PUCSORGFRONT
350
3C3
  3
PUCSORGLEFT
350
3C1
  3
PUCSORGRIGHT
350
3C2
  3
PUCSORGTOP
350
3BF
  3
PUCSORTHOREF
350
3BC
  3
PUCSORTHOVIEW
350
3BD
  3
STYLESHEET
350
3B2
  3
TSTACKALIGN
350
3AF
  3
TSTACKSIZE
350
3B0
  3
UCSBASE
350
3C7
  3
UCSORGBACK
350
3CD
  3
UCSORGBOTTOM
350
3C9
  3
UCSORGFRONT
350
3CC
  3
UCSORGLEFT
350
3CA
  3
UCSORGRIGHT
350
3CB
  3
UCSORGTOP
350
3C8
  3
UCSORTHOREF
350
3C5
  3
UCSORTHOVIEW
350
3C6
  3
VERSIONGUID
350
3BA
  0
DICTIONARY
  5
3CF
102
{ACAD_REACTORS
330
C
102
}
330
C
100
AcDbDictionary
  3
CANNOSCALE
350
3DC
  3
CENTEREXE
350
3D6
  3
CENTERLTYPEFILE
350
3D7
  3
CMLEADERSTYLE
350
3D1
  3
CTABLESTYLE
350
3D0
  3
DIMASSOC
350
3D8
  3
HIDETEXT
350
3D9
  3
MSLTSCALE
350
3DD
  3
PSOLHEIGHT
350
3D3
  3
PSOLWIDTH
350
3D2
  0
XRECORD
  5
3DB
102
{ACAD_REACTORS
330
3DA
102
}
330
3DA
100
AcDbXrecord
102
VTR_0.000_0.000_1.000_1.000_VISUALSTYLE
340
2F
102
VTR_0.000_0.000_1.000_1.000_GRIDDISPLAY
 70
     3
102
VTR_0.000_0.000_1.000_1.000_GRIDMAJOR
 70
     5
102
VTR_0.000_0.000_1.000_1.000_DEFAULTLIGHTING
280
     1
102
VTR_0.000_0.000_1.000_1.000_DEFAULTLIGHTINGTYPE
 70
     1
102
VTR_0.000_0.000_1.000_1.000_BRIGHTNESS
141
0.0
102
VTR_0.000_0.000_1.000_1.000_CONTRAST
142
0.0
  0
MATERIAL
  5
45
102
{ACAD_REACTORS
330
43
102
}
102
{ACAD_XDICTIONARY
360
3E0
102
}
330
43
100
AcDbMaterial
  1
BYBLOCK
  0
MATERIAL
  5
44
102
{ACAD_REACTORS
330
43
102
}
102
{ACAD_XDICTIONARY
360
3DE
102
}
330
43
100
AcDbMaterial
  1
BYLAYER
  0
MATERIAL
  5
46
102
{ACAD_REACTORS
330
43
102
}
102
{ACAD_XDICTIONARY
360
3E2
102
}
330
43
100
AcDbMaterial
  1
GLOBAL
  0
ACAD_PROXY_OBJECT
  5
6C
102
{ACAD_REACTORS
330
6B
102
}
330
6B
100
AcDbProxyObject
 90
      499
 91
      505
 93
      610
310
40901902A4063FBFFFFFE0000000000000020400000000000020404214DD185B99185C990000000000000104090141901A00000000000004100000000000000041025764000000000000039000
340
14
340
0
340
11
340
0
 94
        0
1001
ACAD_MLEADERVER
1070
     2
  0
MLINESTYLE
  5
18
102
{ACAD_REACTORS
330
17
102
}
330
17
100
AcDbMlineStyle
  2
Standard
 70
     0
  3

 62
   256
 51
90.0
 52
90.0
 71
     2
 49
0.5
 62
   256
  6
BYLAYER
 49
-0.5
 62
   256
  6
BYLAYER
  0
ACAD_PROXY_OBJECT
  5
48
102
{ACAD_REACTORS
330
47
102
}
330
47
100
AcDbProxyObject
 90
      499
 91
      503
 93
       41
310
903313A31580
  0
ACAD_PROXY_OBJECT
  5
49
102
{ACAD_REACTORS
330
47
102
}
330
47
100
AcDbProxyObject
 90
      499
 91
      503
 93
      105
310
903313A324000000000000004000
  0
ACAD_PROXY_OBJECT
  5
4A
102
{ACAD_REACTORS
330
47
102
}
330
47
100
AcDbProxyObject
 90
      499
 91
      503
 93
      105
310
903313A344000000000000104000
  0
ACAD_PROXY_OBJECT
  5
4B
102
{ACAD_REACTORS
330
47
102
}
330
47
100
AcDbProxyObject
 90
      499
 91
      503
 93
      105
310
903313A354000000000000144000
  0
ACAD_PROXY_OBJECT
  5
4C
102
{ACAD_REACTORS
330
47
102
}
330
47
100
AcDbProxyObject
 90
      499
 91
      503
 93
      105
310
903313A384000000000000204000
  0
ACAD_PROXY_OBJECT
  5
4D
102
{ACAD_REACTORS
330
47
102
}
330
47
100
AcDbProxyObject
 90
      499
 91
      503
 93
      113
310
904313A31304000000000000244000
  0
ACAD_PROXY_OBJECT
  5
4E
102
{ACAD_REACTORS
330
47
102
}
330
47
100
AcDbProxyObject
 90
      499
 91
      503
 93
      113
310
904313A31364000000000000304000
  0
ACAD_PROXY_OBJECT
  5
4F
102
{ACAD_REACTORS
330
47
102
}
330
47
100
AcDbProxyObject
 90
      499
 91
      503
 93
      113
310
904313A32304000000000000344000
  0
ACAD_PROXY_OBJECT
  5
50
102
{ACAD_REACTORS
330
47
102
}
330
47
100
AcDbProxyObject
 90
      499
 91
      503
 93
      113
310
904313A333040000000000003E4000
  0
ACAD_PROXY_OBJECT
  5
51
102
{ACAD_REACTORS
330
47
102
}
330
47
100
AcDbProxyObject
 90
      499
 91
      503
 93
      113
310
904313A34304000000000000444000
  0
ACAD_PROXY_OBJECT
  5
52
102
{ACAD_REACTORS
330
47
102
}
330
47
100
AcDbProxyObject
 90
      499
 91
      503
 93
      113
310
904313A35304000000000000494000
  0
ACAD_PROXY_OBJECT
  5
53
102
{ACAD_REACTORS
330
47
102
}
330
47
100
AcDbProxyObject
 90
      499
 91
      503
 93
      121
310
905313A3130304000000000000594000
  0
ACAD_PROXY_OBJECT
  5
54
102
{ACAD_REACTORS
330
47
102
}
330
47
100
AcDbProxyObject
 90
      499
 91
      503
 93
      105
310
903323A310000000000000010100
  0
ACAD_PROXY_OBJECT
  5
55
102
{ACAD_REACTORS
330
47
102
}
330
47
100
AcDbProxyObject
 90
      499
 91
      503
 93
      105
310
903343A310000000000000410100
  0
ACAD_PROXY_OBJECT
  5
56
102
{ACAD_REACTORS
330
47
102
}
330
47
100
AcDbProxyObject
 90
      499
 91
      503
 93
      105
310
903383A310000000000000810100
  0
ACAD_PROXY_OBJECT
  5
57
102
{ACAD_REACTORS
330
47
102
}
330
47
100
AcDbProxyObject
 90
      499
 91
      503
 93
      113
310
90431303A310000000000000910100
  0
ACAD_PROXY_OBJECT
  5
58
102
{ACAD_REACTORS
330
47
102
}
330
47
100
AcDbProxyObject
 90
      499
 91
      503
 93
      121
310
9053130303A310000000000001650100
  0
ACAD_PROXY_OBJECT
  5
59
102
{ACAD_REACTORS
330
47
102
}
330
47
100
AcDbProxyObject
 90
      499
 91
      503
 93
      257
310
90E312F31323822203D2031272D3022000000000000200FC000000000000284000
  0
ACAD_PROXY_OBJECT
  5
5A
102
{ACAD_REACTORS
330
47
102
}
330
47
100
AcDbProxyObject
 90
      499
 91
      503
 93
      249
310
90D312F363422203D2031272D3022000000000000240FC000000000000284000
  0
ACAD_PROXY_OBJECT
  5
5B
102
{ACAD_REACTORS
330
47
102
}
330
47
100
AcDbProxyObject
 90
      499
 91
      503
 93
      249
310
90D312F333222203D2031272D3022000000000000280FC000000000000284000
  0
ACAD_PROXY_OBJECT
  5
5C
102
{ACAD_REACTORS
330
47
102
}
330
47
100
AcDbProxyObject
 90
      499
 91
      503
 93
      249
310
90D312F313622203D2031272D30220000000000002C0FC000000000000284000
  0
ACAD_PROXY_OBJECT
  5
5D
102
{ACAD_REACTORS
330
47
102
}
330
47
100
AcDbProxyObject
 90
      499
 91
      503
 93
      249
310
90D332F333222203D2031272D30220000000000002E0FC000000000000284000
  0
ACAD_PROXY_OBJECT
  5
5E
102
{ACAD_REACTORS
330
47
102
}
330
47
100
AcDbProxyObject
 90
      499
 91
      503
 93
      241
310
90C312F3822203D2031272D3022000000000000300FC000000000000284000
  0
ACAD_PROXY_OBJECT
  5
5F
102
{ACAD_REACTORS
330
47
102
}
330
47
100
AcDbProxyObject
 90
      499
 91
      503
 93
      249
310
90D332F313622203D2031272D3022000000000000320FC000000000000284000
  0
ACAD_PROXY_OBJECT
  5
60
102
{ACAD_REACTORS
330
47
102
}
330
47
100
AcDbProxyObject
 90
      499
 91
      503
 93
      241
310
90C312F3422203D2031272D3022000000000000340FC000000000000284000
  0
ACAD_PROXY_OBJECT
  5
61
102
{ACAD_REACTORS
330
47
102
}
330
47
100
AcDbProxyObject
 90
      499
 91
      503
 93
      241
310
90C332F3822203D2031272D3022000000000000360FC000000000000284000
  0
ACAD_PROXY_OBJECT
  5
62
102
{ACAD_REACTORS
330
47
102
}
330
47
100
AcDbProxyObject
 90
      499
 91
      503
 93
      241
310
90C312F3222203D2031272D3022000000000000380FC000000000000284000
  0
ACAD_PROXY_OBJECT
  5
63
102
{ACAD_REACTORS
330
47
102
}
330
47
100
AcDbProxyObject
 90
      499
 91
      503
 93
      241
310
90C332F3422203D2031272D30220000000000003A0FC000000000000284000
  0
ACAD_PROXY_OBJECT
  5
64
102
{ACAD_REACTORS
330
47
102
}
330
47
100
AcDbProxyObject
 90
      499
 91
      503
 93
      161
310
90A3122203D2031272D30224000000000000284000
  0
ACAD_PROXY_OBJECT
  5
65
102
{ACAD_REACTORS
330
47
102
}
330
47
100
AcDbProxyObject
 90
      499
 91
      503
 93
      257
310
90E312D312F3222203D2031272D30220000000000003E0FC000000000000284000
  0
ACAD_PROXY_OBJECT
  5
66
102
{ACAD_REACTORS
330
47
102
}
330
47
100
AcDbProxyObject
 90
      499
 91
      503
 93
      225
310
90A3322203D2031272D302200000000000002100000000000000284000
  0
ACAD_PROXY_OBJECT
  5
67
102
{ACAD_REACTORS
330
47
102
}
330
47
100
AcDbProxyObject
 90
      499
 91
      503
 93
      225
310
90A3622203D2031272D302200000000000006100000000000000284000
  0
ACAD_PROXY_OBJECT
  5
68
102
{ACAD_REACTORS
330
47
102
}
330
47
100
AcDbProxyObject
 90
      499
 91
      503
 93
      249
310
90D31272D3022203D2031272D30220000000000000A100000000000000284000
  0
ACAD_PROXY_OBJECT
  5
2F
102
{ACAD_REACTORS
330
2A
102
}
330
2A
100
AcDbProxyObject
 90
      499
 91
      501
 93
      436
310
42CC9915DA5C99599C985B595049028333333333333E33F0000000000000F90107901411070040501600405405064090741402480A0340
1001
ACAD
1000
AcDbSavedByObjectVersion
1070
     0
  0
ACAD_PROXY_OBJECT
  5
32
102
{ACAD_REACTORS
330
2A
102
}
330
2A
100
AcDbProxyObject
 90
      499
 91
      501
 93
      388
310
4150985CDA58D07406404333333333333E33F0000000000000F90107A41107004050150841D405064090741402480A0350
1001
ACAD
1000
AcDbSavedByObjectVersion
1070
     0
  0
ACAD_PROXY_OBJECT
  5
36
102
{ACAD_REACTORS
330
2A
102
}
330
2A
100
AcDbProxyObject
 90
      499
 91
      501
 93
      428
310
42109C9A59DA1D195B90C409028333333333333E33F0000000000000F9010790141107004050150841D405064090741402480A029950
1001
ACAD
1000
AcDbSavedByObjectVersion
1070
     0
  0
ACAD_PROXY_OBJECT
  5
3A
102
{ACAD_REACTORS
330
2A
102
}
330
2A
100
AcDbProxyObject
 90
      499
 91
      501
 93
      452
310
42D0DBDB1BDC90DA185B99D95104090240C333333333333E33F0000000000000F90108901411070040501508421405064090741402480A0350
1001
ACAD
1000
AcDbSavedByObjectVersion
1070
     0
  0
ACAD_PROXY_OBJECT
  5
34
102
{ACAD_REACTORS
330
2A
102
}
330
2A
100
AcDbProxyObject
 90
      499
 91
      501
 93
      500
310
4290DBDB98D95C1D1D585B10940D028333333333333E33F0000000000000F90107902409070040501000000000018199010841D405064090740C02480A0340
1001
ACAD
1000
AcDbSavedByObjectVersion
1070
     0
  0
ACAD_PROXY_OBJECT
  5
35
102
{ACAD_REACTORS
330
2A
102
}
330
2A
100
AcDbProxyObject
 90
      499
 91
      501
 93
      412
310
40D11A5B50B409028333333333333E33F0000000000000F9010790141107004050150841D405064090741402480A02677FFFFFD0
1001
ACAD
1000
AcDbSavedByObjectVersion
1070
     0
  0
ACAD_PROXY_OBJECT
  5
3D
102
{ACAD_REACTORS
330
2A
102
}
330
2A
100
AcDbProxyObject
 90
      499
 91
      501
 93
      452
310
43115919D950DBDB1BDC93D999916409028333333333333E33F0000000000000F9010790141107004050150841D405064090741402480A0350
1001
ACAD
1000
AcDbSavedByObjectVersion
1070
     0
  0
ACAD_PROXY_OBJECT
  5
39
102
{ACAD_REACTORS
330
2A
102
}
330
2A
100
AcDbProxyObject
 90
      499
 91
      501
 93
      444
310
42D19858D95C185D1D195C9B90F409028333333333333E33F0000000000000F9010790141107004050150841D405064090741402480A0350
1001
ACAD
1000
AcDbSavedByObjectVersion
1070
     0
  0
ACAD_PROXY_OBJECT
  5
2B
102
{ACAD_REACTORS
330
2A
102
}
330
2A
100
AcDbProxyObject
 90
      499
 91
      501
 93
      380
310
41119B185D240901404333333333333E33F0000000000000F9010740A907004050150841D405064090741402480A1B50
1001
ACAD
1000
AcDbSavedByObjectVersion
1070
     0
  0
ACAD_PROXY_OBJECT
  5
2C
102
{ACAD_REACTORS
330
2A
102
}
330
2A
100
AcDbProxyObject
 90
      499
 91
      501
 93
      468
310
43519B185D15DA5D1A115919D95CD0140901404333333333333E33F0000000000000F90107409019070040501600405405064090741402480A1B50
1001
ACAD
1000
AcDbSavedByObjectVersion
1070
     0
  0
ACAD_PROXY_OBJECT
  5
2D
102
{ACAD_REACTORS
330
2A
102
}
330
2A
100
AcDbProxyObject
 90
      499
 91
      501
 93
      404
310
41D1DBDD5C985D5910240902404333333333333E33F0000000000000F9010740A9070040501641D405064090741402480A1B50
1001
ACAD
1000
AcDbSavedByObjectVersion
1070
     0
  0
ACAD_PROXY_OBJECT
  5
2E
102
{ACAD_REACTORS
330
2A
102
}
330
2A
100
AcDbProxyObject
 90
      499
 91
      501
 93
      492
310
4411DBDD5C985D5915DA5D1A115919D95CD0340902404333333333333E33F0000000000000F90107409019070040501600405405064090741402480A1B50
1001
ACAD
1000
AcDbSavedByObjectVersion
1070
     0
  0
ACAD_PROXY_OBJECT
  5
31
102
{ACAD_REACTORS
330
2A
102
}
330
2A
100
AcDbProxyObject
 90
      499
 91
      501
 93
      476
310
41921A5919195B90640502408333333333333E33F0000000000000F901079024090700405020000000000001110200405405064090740C02480A0340
1001
ACAD
1000
AcDbSavedByObjectVersion
1070
     0
  0
ACAD_PROXY_OBJECT
  5
3B
102
{ACAD_REACTORS
330
2A
102
}
330
2A
100
AcDbProxyObject
 90
      499
 91
      501
 93
      428
310
42529A5D1D195C93D999914409028333333333333E33F0000000000000F9010790141107004050150A41D405064090741402480A0350
1001
ACAD
1000
AcDbSavedByObjectVersion
1070
     0
  0
ACAD_PROXY_OBJECT
  5
38
102
{ACAD_REACTORS
330
2A
102
}
330
2A
100
AcDbProxyObject
 90
      499
 91
      501
 93
      444
310
42D31A5B995C185D1D195C9B90E409028333333333333E33F0000000000000F9010790141107004050750841D405064090741402483A0350
1001
ACAD
1000
AcDbSavedByObjectVersion
1070
     0
  0
ACAD_PROXY_OBJECT
  5
3C
102
{ACAD_REACTORS
330
2A
102
}
330
2A
100
AcDbProxyObject
 90
      499
 91
      501
 93
      444
310
42D3DD995C9A185B99D3D999915409028333333333333E33F0000000000000F9010790141107004050150941D405064090741402480A0350
1001
ACAD
1000
AcDbSavedByObjectVersion
1070
     0
  0
ACAD_PROXY_OBJECT
  5
33
102
{ACAD_REACTORS
330
2A
102
}
330
2A
100
AcDbProxyObject
 90
      499
 91
      501
 93
      428
310
425499585B1A5CDD1A58D08409038333333333333E33F0000000000000F9010740A907004050150800405405064090740C02480A1B40
1001
ACAD
1000
AcDbSavedByObjectVersion
1070
     0
  0
ACAD_PROXY_OBJECT
  5
42
102
{ACAD_REACTORS
330
2A
102
}
330
2A
100
AcDbProxyObject
 90
      499
 91
      501
 93
      420
310
4194DA1859195911B40902404333333333333E33F0000000000000F9010740A41107004050150800405405064090840C02480A0B40
1001
ACAD
1000
AcDbSavedByObjectVersion
1070
     0
  0
ACAD_PROXY_OBJECT
  5
41
102
{ACAD_REACTORS
330
2A
102
}
330
2A
100
AcDbProxyObject
 90
      499
 91
      501
 93
      516
310
4454DA18591959081DDA5D1A08195919D95CD1A40902404333333333333E33F0000000000000F901074090142907004050250800405405064090740C02480A0B40
1001
ACAD
1000
AcDbSavedByObjectVersion
1070
     0
  0
ACAD_PROXY_OBJECT
  5
3E
102
{ACAD_REACTORS
330
2A
102
}
330
2A
100
AcDbProxyObject
 90
      499
 91
      501
 93
      532
310
4394DA1859195CC81BD98811DC985E5174090240C333333333333E33F0000000000000F901079024090741D01000000000000111010841D405064090740C02480A0340
1001
ACAD
1000
AcDbSavedByObjectVersion
1070
     0
  0
ACAD_PROXY_OBJECT
  5
3F
102
{ACAD_REACTORS
330
2A
102
}
330
2A
100
AcDbProxyObject
 90
      499
 91
      501
 93
      476
310
41D4DAD95D18DA1E51840502408333333333333E33F0000000000000F901079024090741D01000000000000111010B41D405064090741802480A0340
1001
ACAD
1000
AcDbSavedByObjectVersion
1070
     0
  0
ACAD_PROXY_OBJECT
  5
37
102
{ACAD_REACTORS
330
2A
102
}
330
2A
100
AcDbProxyObject
 90
      499
 91
      501
 93
      412
310
41D51A1A58DAD95B90D409028333333333333E33F0000000000000F9010790141107004050150C41D405064090741402480A0350
1001
ACAD
1000
AcDbSavedByObjectVersion
1070
     0
  0
ACAD_PROXY_OBJECT
  5
30
102
{ACAD_REACTORS
330
2A
102
}
330
2A
100
AcDbProxyObject
 90
      499
 91
      501
 93
      420
310
4255DA5C99599C985B595059028333333333333E33F0000000000000F90107901411070040501600405405064090740C02480A0340
1001
ACAD
1000
AcDbSavedByObjectVersion
1070
     0
  0
ACAD_PROXY_OBJECT
  5
40
102
{ACAD_REACTORS
330
2A
102
}
330
2A
100
AcDbProxyObject
 90
      499
 91
      501
 93
      404
310
41560B54985E51940902404000000000000E03F0000000000000F9010740501907004050150841D405064090740C02480A1B40
1001
ACAD
1000
AcDbSavedByObjectVersion
1070
     0
  0
XRECORD
  5
3B8
102
{ACAD_REACTORS
330
3AE
102
}
330
3AE
100
AcDbXrecord
340
0
  0
XRECORD
  5
3B7
102
{ACAD_REACTORS
330
3AE
102
}
330
3AE
100
AcDbXrecord
 90
        0
  0
XRECORD
  5
3CE
102
{ACAD_REACTORS
330
3AE
102
}
330
3AE
100
AcDbXrecord
1000
DSTYLE
1002
{
1070
   340
340
11
1002
}
  0
XRECORD
  5
3B9
102
{ACAD_REACTORS
330
3AE
102
}
330
3AE
100
AcDbXrecord
  1
{f5235144-028f-45a7-ae91-ac4eea1d455d}
  0
XRECORD
  5
3B1
102
{ACAD_REACTORS
330
3AE
102
}
330
3AE
100
AcDbXrecord
  1

  0
XRECORD
  5
3B6
102
{ACAD_REACTORS
330
3AE
102
}
330
3AE
100
AcDbXrecord
 90
        4
  0
XRECORD
  5
3B3
102
{ACAD_REACTORS
330
3AE
102
}
330
3AE
100
AcDbXrecord
340
1A
  0
XRECORD
  5
3B5
102
{ACAD_REACTORS
330
3AE
102
}
330
3AE
100
AcDbXrecord
 90
    10781
  0
XRECORD
  5
3B4
102
{ACAD_REACTORS
330
3AE
102
}
330
3AE
100
AcDbXrecord
340
19
  0
XRECORD
  5
3BB
102
{ACAD_REACTORS
330
3AE
102
}
330
3AE
100
AcDbXrecord
 40
0.0
  0
XRECORD
  5
3BE
102
{ACAD_REACTORS
330
3AE
102
}
330
3AE
100
AcDbXrecord
340
0
  0
XRECORD
  5
3C4
102
{ACAD_REACTORS
330
3AE
102
}
330
3AE
100
AcDbXrecord
 10
0.0
 20
0.0
 30
0.0
  0
XRECORD
  5
3C0
102
{ACAD_REACTORS
330
3AE
102
}
330
3AE
100
AcDbXrecord
 10
0.0
 20
0.0
 30
0.0
  0
XRECORD
  5
3C3
102
{ACAD_REACTORS
330
3AE
102
}
330
3AE
100
AcDbXrecord
 10
0.0
 20
0.0
 30
0.0
  0
XRECORD
  5
3C1
102
{ACAD_REACTORS
330
3AE
102
}
330
3AE
100
AcDbXrecord
 10
0.0
 20
0.0
 30
0.0
  0
XRECORD
  5
3C2
102
{ACAD_REACTORS
330
3AE
102
}
330
3AE
100
AcDbXrecord
 10
0.0
 20
0.0
 30
0.0
  0
XRECORD
  5
3BF
102
{ACAD_REACTORS
330
3AE
102
}
330
3AE
100
AcDbXrecord
 10
0.0
 20
0.0
 30
0.0
  0
XRECORD
  5
3BC
102
{ACAD_REACTORS
330
3AE
102
}
330
3AE
100
AcDbXrecord
340
0
  0
XRECORD
  5
3BD
102
{ACAD_REACTORS
330
3AE
102
}
330
3AE
100
AcDbXrecord
 70
     0
  0
XRECORD
  5
3B2
102
{ACAD_REACTORS
330
3AE
102
}
330
3AE
100
AcDbXrecord
  1

  0
XRECORD
  5
3AF
102
{ACAD_REACTORS
330
3AE
102
}
330
3AE
100
AcDbXrecord
 90
        1
  0
XRECORD
  5
3B0
102
{ACAD_REACTORS
330
3AE
102
}
330
3AE
100
AcDbXrecord
 90
       70
  0
XRECORD
  5
3C7
102
{ACAD_REACTORS
330
3AE
102
}
330
3AE
100
AcDbXrecord
340
0
  0
XRECORD
  5
3CD
102
{ACAD_REACTORS
330
3AE
102
}
330
3AE
100
AcDbXrecord
 10
0.0
 20
0.0
 30
0.0
  0
XRECORD
  5
3C9
102
{ACAD_REACTORS
330
3AE
102
}
330
3AE
100
AcDbXrecord
 10
0.0
 20
0.0
 30
0.0
  0
XRECORD
  5
3CC
102
{ACAD_REACTORS
330
3AE
102
}
330
3AE
100
AcDbXrecord
 10
0.0
 20
0.0
 30
0.0
  0
XRECORD
  5
3CA
102
{ACAD_REACTORS
330
3AE
102
}
330
3AE
100
AcDbXrecord
 10
0.0
 20
0.0
 30
0.0
  0
XRECORD
  5
3CB
102
{ACAD_REACTORS
330
3AE
102
}
330
3AE
100
AcDbXrecord
 10
0.0
 20
0.0
 30
0.0
  0
XRECORD
  5
3C8
102
{ACAD_REACTORS
330
3AE
102
}
330
3AE
100
AcDbXrecord
 10
0.0
 20
0.0
 30
0.0
  0
XRECORD
  5
3C5
102
{ACAD_REACTORS
330
3AE
102
}
330
3AE
100
AcDbXrecord
340
0
  0
XRECORD
  5
3C6
102
{ACAD_REACTORS
330
3AE
102
}
330
3AE
100
AcDbXrecord
 70
     0
  0
XRECORD
  5
3BA
102
{ACAD_REACTORS
330
3AE
102
}
330
3AE
100
AcDbXrecord
  1
{FAEB1C32-E019-11D5-929B-00C0DF256EC4}
  0
DICTIONARYVAR
  5
3DC
102
{ACAD_REACTORS
330
3CF
102
}
330
3CF
100
DictionaryVariables
280
     0
  1
1:1
  0
DICTIONARYVAR
  5
3D6
102
{ACAD_REACTORS
330
3CF
102
}
330
3CF
100
DictionaryVariables
280
     0
  1
3.500000
  0
DICTIONARYVAR
  5
3D7
102
{ACAD_REACTORS
330
3CF
102
}
330
3CF
100
DictionaryVariables
280
     0
  1
acadiso.lin
  0
DICTIONARYVAR
  5
3D1
102
{ACAD_REACTORS
330
3CF
102
}
330
3CF
100
DictionaryVariables
280
     0
  1
Standard
  0
DICTIONARYVAR
  5
3D0
102
{ACAD_REACTORS
330
3CF
102
}
330
3CF
100
DictionaryVariables
280
     0
  1
Standard
  0
DICTIONARYVAR
  5
3D8
102
{ACAD_REACTORS
330
3CF
102
}
330
3CF
100
DictionaryVariables
280
     0
  1
2
  0
DICTIONARYVAR
  5
3D9
102
{ACAD_REACTORS
330
3CF
102
}
330
3CF
100
DictionaryVariables
280
     0
  1
1
  0
DICTIONARYVAR
  5
3DD
102
{ACAD_REACTORS
330
3CF
102
}
330
3CF
100
DictionaryVariables
280
     0
  1
1
  0
DICTIONARYVAR
  5
3D3
102
{ACAD_REACTORS
330
3CF
102
}
330
3CF
100
DictionaryVariables
280
     0
  1
80.000000
  0
DICTIONARYVAR
  5
3D2
102
{ACAD_REACTORS
330
3CF
102
}
330
3CF
100
DictionaryVariables
280
     0
  1
5.000000
  0
DICTIONARY
  5
3E0
330
45
100
AcDbDictionary
280
     1
  3
ACAD_XREC_ROUNDTRIP
360
3E1
  0
DICTIONARY
  5
3DE
330
44
100
AcDbDictionary
280
     1
  3
ACAD_XREC_ROUNDTRIP
360
3DF
  0
DICTIONARY
  5
3E2
330
46
100
AcDbDictionary
280
     1
  3
ACAD_XREC_ROUNDTRIP
360
3E3
  0
XRECORD
  5
3E1
102
{ACAD_REACTORS
330
3E0
102
}
330
3E0
100
AcDbXrecord
102
MATERIAL
148
0.0
149
0.0
149
0.0
 93
        0
 94
      127
282
     0
 72
     1
 77
     1
171
     1
175
     1
179
     1
273
     0
  0
XRECORD
  5
3DF
102
{ACAD_REACTORS
330
3DE
102
}
330
3DE
100
AcDbXrecord
102
MATERIAL
148
0.0
149
0.0
149
0.0
 93
        0
 94
      127
282
     0
 72
     1
 77
     1
171
     1
175
     1
179
     1
273
     0
  0
XRECORD
  5
3E3
102
{ACAD_REACTORS
330
3E2
102
}
330
3E2
100
AcDbXrecord
102
MATERIAL
148
0.0
149
0.0
149
0.0
 93
        0
 94
      127
282
     0
 72
     1
 77
     1
171
     1
175
     1
179
     1
273
     0
  0
ENDSEC
  0
EOF
