  0
SECTION
  2
HEADER
  9
$ACADVER
  1
AC1014
  9
$ACADMAINTVER
 70
     9
  9
$DWGCODEPAGE
  3
ANSI_932
  9
$INSBASE
 10
0.0
 20
0.0
 30
0.0
  9
$EXTMIN
 10
25.0
 20
50.0
 30
0.0
  9
$EXTMAX
 10
1925.0
 20
1400.0
 30
0.0
  9
$LIMMIN
 10
0.0
 20
0.0
  9
$LIMMAX
 10
420.0
 20
297.0
  9
$ORTHOMODE
 70
     0
  9
$REGENMODE
 70
     1
  9
$FILLMODE
 70
     1
  9
$QTEXTMODE
 70
     0
  9
$MIRRTEXT
 70
     1
  9
$DRAGMODE
 70
     2
  9
$LTSCALE
 40
0.2
  9
$OSMODE
 70
    37
  9
$ATTMODE
 70
     1
  9
$TEXTSIZE
 40
2.5
  9
$TRACEWID
 40
1.0
  9
$TEXTSTYLE
  7
STANDARD
  9
$CLAYER
  8
LAY-10
  9
$CELTYPE
  6
BYLAYER
  9
$CECOLOR
 62
   256
  9
$CELTSCALE
 40
1.0
  9
$DELOBJ
 70
     1
  9
$DISPSILH
 70
     0
  9
$DIMSCALE
 40
1.0
  9
$DIMASZ
 40
2.5
  9
$DIMEXO
 40
0.625
  9
$DIMDLI
 40
3.75
  9
$DIMRND
 40
0.0
  9
$DIMDLE
 40
0.0
  9
$DIMEXE
 40
1.25
  9
$DIMTP
 40
0.0
  9
$DIMTM
 40
0.0
  9
$DIMTXT
 40
2.5
  9
$DIMCEN
 40
2.5
  9
$DIMTSZ
 40
0.0
  9
$DIMTOL
 70
     0
  9
$DIMLIM
 70
     0
  9
$DIMTIH
 70
     0
  9
$DIMTOH
 70
     0
  9
$DIMSE1
 70
     0
  9
$DIMSE2
 70
     0
  9
$DIMTAD
 70
     1
  9
$DIMZIN
 70
     8
  9
$DIMBLK
  1

  9
$DIMASO
 70
     1
  9
$DIMSHO
 70
     1
  9
$DIMPOST
  1

  9
$DIMAPOST
  1

  9
$DIMALT
 70
     0
  9
$DIMALTD
 70
     3
  9
$DIMALTF
 40
0.03937007874016
  9
$DIMLFAC
 40
1.0
  9
$DIMTOFL
 70
     1
  9
$DIMTVP
 40
0.0
  9
$DIMTIX
 70
     0
  9
$DIMSOXD
 70
     0
  9
$DIMSAH
 70
     0
  9
$DIMBLK1
  1

  9
$DIMBLK2
  1

  9
$DIMSTYLE
  2
ISO-25
  9
$DIMCLRD
 70
     0
  9
$DIMCLRE
 70
     0
  9
$DIMCLRT
 70
     0
  9
$DIMTFAC
 40
1.0
  9
$DIMGAP
 40
0.625
  9
$DIMJUST
 70
     0
  9
$DIMSD1
 70
     0
  9
$DIMSD2
 70
     0
  9
$DIMTOLJ
 70
     0
  9
$DIMTZIN
 70
     8
  9
$DIMALTZ
 70
     0
  9
$DIMALTTZ
 70
     0
  9
$DIMFIT
 70
     3
  9
$DIMUPT
 70
     0
  9
$DIMUNIT
 70
     2
  9
$DIMDEC
 70
     2
  9
$DIMTDEC
 70
     2
  9
$DIMALTU
 70
     2
  9
$DIMALTTD
 70
     3
  9
$DIMTXSTY
  7
STANDARD
  9
$DIMAUNIT
 70
     0
  9
$LUNITS
 70
     2
  9
$LUPREC
 70
     4
  9
$SKETCHINC
 40
1.0
  9
$FILLETRAD
 40
10.0
  9
$AUNITS
 70
     0
  9
$AUPREC
 70
     0
  9
$MENU
  1
.
  9
$ELEVATION
 40
0.0
  9
$PELEVATION
 40
0.0
  9
$THICKNESS
 40
0.0
  9
$LIMCHECK
 70
     0
  9
$CHAMFERA
 40
0.0
  9
$CHAMFERB
 40
0.0
  9
$CHAMFERC
 40
0.0
  9
$CHAMFERD
 40
0.0
  9
$SKPOLY
 70
     0
  9
$TDCREATE
 40
2459229.336609896
  9
$TDUPDATE
 40
2459229.336610313
  9
$TDINDWG
 40
0.0000000116
  9
$TDUSRTIMER
 40
0.0000000116
  9
$USRTIMER
 70
     1
  9
$ANGBASE
 50
0.0
  9
$ANGDIR
 70
     0
  9
$PDMODE
 70
     0
  9
$PDSIZE
 40
0.0
  9
$PLINEWID
 40
0.0
  9
$COORDS
 70
     1
  9
$SPLFRAME
 70
     0
  9
$SPLINETYPE
 70
     6
  9
$SPLINESEGS
 70
     8
  9
$ATTDIA
 70
     0
  9
$ATTREQ
 70
     1
  9
$HANDLING
 70
     1
  9
$HANDSEED
  5
3DB
  9
$SURFTAB1
 70
     6
  9
$SURFTAB2
 70
     6
  9
$SURFTYPE
 70
     6
  9
$SURFU
 70
     6
  9
$SURFV
 70
     6
  9
$UCSNAME
  2

  9
$UCSORG
 10
0.0
 20
0.0
 30
0.0
  9
$UCSXDIR
 10
1.0
 20
0.0
 30
0.0
  9
$UCSYDIR
 10
0.0
 20
1.0
 30
0.0
  9
$PUCSNAME
  2

  9
$PUCSORG
 10
0.0
 20
0.0
 30
0.0
  9
$PUCSXDIR
 10
1.0
 20
0.0
 30
0.0
  9
$PUCSYDIR
 10
0.0
 20
1.0
 30
0.0
  9
$USERI1
 70
     0
  9
$USERI2
 70
     0
  9
$USERI3
 70
     0
  9
$USERI4
 70
     0
  9
$USERI5
 70
     0
  9
$USERR1
 40
0.0
  9
$USERR2
 40
0.0
  9
$USERR3
 40
0.0
  9
$USERR4
 40
0.0
  9
$USERR5
 40
0.0
  9
$WORLDVIEW
 70
     1
  9
$SHADEDGE
 70
     3
  9
$SHADEDIF
 70
    70
  9
$TILEMODE
 70
     1
  9
$MAXACTVP
 70
    64
  9
$PINSBASE
 10
0.0
 20
0.0
 30
0.0
  9
$PLIMCHECK
 70
     0
  9
$PEXTMIN
 10
1.000000000000000E+20
 20
1.000000000000000E+20
 30
1.000000000000000E+20
  9
$PEXTMAX
 10
-1.000000000000000E+20
 20
-1.000000000000000E+20
 30
-1.000000000000000E+20
  9
$PLIMMIN
 10
0.0
 20
0.0
  9
$PLIMMAX
 10
420.0
 20
297.0
  9
$UNITMODE
 70
     0
  9
$VISRETAIN
 70
     1
  9
$PLINEGEN
 70
     0
  9
$PSLTSCALE
 70
     1
  9
$TREEDEPTH
 70
  3020
  9
$PICKSTYLE
 70
     1
  9
$CMLSTYLE
  2
STANDARD
  9
$CMLJUST
 70
     0
  9
$CMLSCALE
 40
20.0
  9
$PROXYGRAPHICS
 70
     1
  9
$MEASUREMENT
 70
     1
  0
ENDSEC
  0
SECTION
  2
CLASSES
  0
CLASS
  1
ACDBDICTIONARYWDFLT
  2
AcDbDictionaryWithDefault
  3
ObjectDBX Classes
 90
        0
280
     0
281
     0
  0
CLASS
  1
VISUALSTYLE
  2
AcDbVisualStyle
  3
ObjectDBX Classes
 90
     4095
280
     0
281
     0
  0
CLASS
  1
MATERIAL
  2
AcDbMaterial
  3
ObjectDBX Classes
 90
     1153
280
     0
281
     0
  0
CLASS
  1
SCALE
  2
AcDbScale
  3
ObjectDBX Classes
 90
     1153
280
     0
281
     0
  0
CLASS
  1
TABLESTYLE
  2
AcDbTableStyle
  3
ObjectDBX Classes
 90
     4095
280
     0
281
     0
  0
CLASS
  1
MLEADERSTYLE
  2
AcDbMLeaderStyle
  3
ACDB_MLEADERSTYLE_CLASS
 90
     4095
280
     0
281
     0
  0
CLASS
  1
SUN
  2
AcDbSun
  3
SCENEOE
 90
     1153
280
     0
281
     0
  0
CLASS
  1
DICTIONARYVAR
  2
AcDbDictionaryVar
  3
ObjectDBX Classes
 90
        0
280
     0
281
     0
  0
CLASS
  1
XRECORD
  2
AcDbXrecord
  3
ObjectDBX Classes
 90
        0
280
     0
281
     0
  0
CLASS
  1
LWPOLYLINE
  2
AcDbPolyline
  3
ObjectDBX Classes
 90
        0
280
     0
281
     1
  0
CLASS
  1
HATCH
  2
AcDbHatch
  3
ObjectDBX Classes
 90
        0
280
     0
281
     1
  0
CLASS
  1
ACDBPLACEHOLDER
  2
AcDbPlaceHolder
  3
ObjectDBX Classes
 90
        0
280
     0
281
     0
  0
CLASS
  1
LAYOUT
  2
AcDbLayout
  3
ObjectDBX Classes
 90
        0
280
     0
281
     0
  0
ENDSEC
  0
SECTION
  2
TABLES
  0
TABLE
  2
VPORT
  5
8
102
{ACAD_XDICTIONARY
360
3D0
102
}
330
0
100
AcDbSymbolTable
 70
     1
  0
VPORT
  5
29
330
8
100
AcDbSymbolTableRecord
100
AcDbViewportTableRecord
  2
*ACTIVE
 70
     0
 10
0.0
 20
0.0
 11
1.0
 21
1.0
 12
975.0000000000001
 22
725.0
 13
0.0
 23
0.0
 14
10.0
 24
10.0
 15
10.0
 25
10.0
 16
0.0
 26
0.0
 36
1.0
 17
0.0
 27
0.0
 37
0.0
 40
1350.0
 41
1.407407407407408
 42
50.0
 43
0.0
 44
0.0
 50
0.0
 51
0.0
 71
     0
 72
  1000
 73
     1
 74
     3
 75
     0
 76
     0
 77
     0
 78
     0
  0
ENDTAB
  0
TABLE
  2
LTYPE
  5
5
330
0
100
AcDbSymbolTable
 70
     6
  0
LTYPE
  5
14
330
5
100
AcDbSymbolTableRecord
100
AcDbLinetypeTableRecord
  2
BYBLOCK
 70
     0
  3

 72
    65
 73
     0
 40
0.0
  0
LTYPE
  5
15
330
5
100
AcDbSymbolTableRecord
100
AcDbLinetypeTableRecord
  2
BYLAYER
 70
     0
  3

 72
    65
 73
     0
 40
0.0
  0
LTYPE
  5
16
330
5
100
AcDbSymbolTableRecord
100
AcDbLinetypeTableRecord
  2
CONTINUOUS
 70
     0
  3
Solid line
 72
    65
 73
     0
 40
0.0
  0
LTYPE
  5
6E
330
5
100
AcDbSymbolTableRecord
100
AcDbLinetypeTableRecord
  2
HIDDEN
 70
     0
  3
Hidden __ __ __ __ __ __ __ __ __ __ __ __ __ __
 72
    65
 73
     2
 40
9.524999999999999
 49
6.35
 74
     0
 49
-3.175
 74
     0
  0
LTYPE
  5
6F
330
5
100
AcDbSymbolTableRecord
100
AcDbLinetypeTableRecord
  2
CENTER
 70
     0
  3
Center ____ _ ____ _ ____ _ ____ _ ____ _ ____
 72
    65
 73
     4
 40
50.8
 49
31.75
 74
     0
 49
-6.35
 74
     0
 49
6.35
 74
     0
 49
-6.35
 74
     0
  0
LTYPE
  5
70
330
5
100
AcDbSymbolTableRecord
100
AcDbLinetypeTableRecord
  2
PHANTOM
 70
     0
  3
Phantom ______  __  __  ______  __  __  ______ 
 72
    65
 73
     6
 40
63.50000000000001
 49
31.75
 74
     0
 49
-6.35
 74
     0
 49
6.35
 74
     0
 49
-6.35
 74
     0
 49
6.35
 74
     0
 49
-6.35
 74
     0
  0
LTYPE
  5
71
330
5
100
AcDbSymbolTableRecord
100
AcDbLinetypeTableRecord
  2
ACAD_ISO06W100
 70
     0
  3
ISO long-dash triple-dot ____ ... ____ ... ____
 72
    65
 73
     8
 40
36.0
 49
24.0
 74
     0
 49
-3.0
 74
     0
 49
0.0
 74
     0
 49
-3.0
 74
     0
 49
0.0
 74
     0
 49
-3.0
 74
     0
 49
0.0
 74
     0
 49
-3.0
 74
     0
  0
LTYPE
  5
72
330
5
100
AcDbSymbolTableRecord
100
AcDbLinetypeTableRecord
  2
ACAD_ISO15W100
 70
     0
  3
ISO double-dash triple-dot __ __ . . . __ __ . .
 72
    65
 73
    10
 40
39.0
 49
12.0
 74
     0
 49
-3.0
 74
     0
 49
12.0
 74
     0
 49
-3.0
 74
     0
 49
0.0
 74
     0
 49
-3.0
 74
     0
 49
0.0
 74
     0
 49
-3.0
 74
     0
 49
0.0
 74
     0
 49
-3.0
 74
     0
  0
ENDTAB
  0
TABLE
  2
LAYER
  5
2
330
0
100
AcDbSymbolTable
 70
     6
  0
LAYER
  5
10
330
2
100
AcDbSymbolTableRecord
100
AcDbLayerTableRecord
  2
0
 70
     0
 62
     7
  6
CONTINUOUS
  0
LAYER
  5
75
330
2
100
AcDbSymbolTableRecord
100
AcDbLayerTableRecord
  2
LAY-10
 70
     0
 62
     7
  6
CONTINUOUS
  0
LAYER
  5
76
330
2
100
AcDbSymbolTableRecord
100
AcDbLayerTableRecord
  2
LAY-11
 70
     0
 62
     7
  6
CONTINUOUS
  0
LAYER
  5
77
330
2
100
AcDbSymbolTableRecord
100
AcDbLayerTableRecord
  2
LAY-20
 70
     0
 62
     7
  6
CONTINUOUS
  0
LAYER
  5
78
330
2
100
AcDbSymbolTableRecord
100
AcDbLayerTableRecord
  2
LAY-255
 70
     0
 62
     7
  6
CONTINUOUS
  0
LAYER
  5
339
330
2
100
AcDbSymbolTableRecord
100
AcDbLayerTableRecord
  2
DEFPOINTS
 70
     0
 62
     7
  6
CONTINUOUS
  0
ENDTAB
  0
TABLE
  2
STYLE
  5
3
330
0
100
AcDbSymbolTable
 70
     4
  0
STYLE
  5
11
330
3
100
AcDbSymbolTableRecord
100
AcDbTextStyleTableRecord
  2
STANDARD
 70
     0
 40
0.0
 41
1.0
 50
0.0
 71
     0
 42
2.5
  3
simplex
  4
bigfont
  0
STYLE
  5
73
330
3
100
AcDbSymbolTableRecord
100
AcDbTextStyleTableRecord
  2
EXCADSTD
 70
     0
 40
0.0
 41
1.0
 50
0.0
 71
     0
 42
2.5
  3
simplex
  4
bigfont
  0
STYLE
  5
74
330
3
100
AcDbSymbolTableRecord
100
AcDbTextStyleTableRecord
  2
EXCADVERT
 70
     4
 40
0.0
 41
1.0
 50
0.0
 71
     0
 42
2.5
  3
simplex
  4
bigfont
  0
STYLE
  5
337
330
3
100
AcDbSymbolTableRecord
100
AcDbTextStyleTableRecord
  2
EXCADDIM1
 70
     0
 40
0.0
 41
0.84
 50
0.0
 71
     0
 42
2.5
  3
simplex
  4
bigfont
  0
ENDTAB
  0
TABLE
  2
VIEW
  5
6
330
0
100
AcDbSymbolTable
 70
     0
  0
ENDTAB
  0
TABLE
  2
UCS
  5
7
330
0
100
AcDbSymbolTable
 70
     0
  0
ENDTAB
  0
TABLE
  2
APPID
  5
9
330
0
100
AcDbSymbolTable
 70
     2
  0
APPID
  5
12
330
9
100
AcDbSymbolTableRecord
100
AcDbRegAppTableRecord
  2
ACAD
 70
     0
  0
APPID
  5
3DA
330
9
100
AcDbSymbolTableRecord
100
AcDbRegAppTableRecord
  2
ACAD_MLEADERVER
 70
     0
  0
ENDTAB
  0
TABLE
  2
DIMSTYLE
  5
A
330
0
100
AcDbSymbolTable
 70
     1
  0
DIMSTYLE
105
27
102
{ACAD_REACTORS
330
338
330
346
330
353
330
360
330
36C
102
}
330
A
100
AcDbSymbolTableRecord
100
AcDbDimStyleTableRecord
  2
ISO-25
 70
     0
  3

  4

  5

  6

  7

 40
1.0
 41
2.5
 42
0.625
 43
3.75
 44
1.25
 45
0.0
 46
0.0
 47
0.0
 48
0.0
140
2.5
141
2.5
142
0.0
143
0.03937007874016
144
1.0
145
0.0
146
1.0
147
0.625
 71
     0
 72
     0
 73
     0
 74
     0
 75
     0
 76
     0
 77
     1
 78
     8
170
     0
171
     3
172
     1
173
     0
174
     0
175
     0
176
     0
177
     0
178
     0
270
     2
271
     2
272
     2
273
     2
274
     3
340
11
275
     0
280
     0
281
     0
282
     0
283
     0
284
     8
285
     0
286
     0
287
     5
288
     0
  0
ENDTAB
  0
TABLE
  2
BLOCK_RECORD
  5
1
330
0
100
AcDbSymbolTable
 70
    19
  0
BLOCK_RECORD
  5
1F
330
1
100
AcDbSymbolTableRecord
100
AcDbBlockTableRecord
  2
*MODEL_SPACE
  0
BLOCK_RECORD
  5
1B
330
1
100
AcDbSymbolTableRecord
100
AcDbBlockTableRecord
  2
*PAPER_SPACE
  0
BLOCK_RECORD
  5
79
330
1
100
AcDbSymbolTableRecord
100
AcDbBlockTableRecord
  2
EX_NORM
  0
BLOCK_RECORD
  5
7C
330
1
100
AcDbSymbolTableRecord
100
AcDbBlockTableRecord
  2
EX_BNORM
  0
BLOCK_RECORD
  5
7F
330
1
100
AcDbSymbolTableRecord
100
AcDbBlockTableRecord
  2
EX_BCIR
  0
BLOCK_RECORD
  5
82
330
1
100
AcDbSymbolTableRecord
100
AcDbBlockTableRecord
  2
EX_RCIVIL
  0
BLOCK_RECORD
  5
85
330
1
100
AcDbSymbolTableRecord
100
AcDbBlockTableRecord
  2
EX_SLANT
  0
BLOCK_RECORD
  5
88
330
1
100
AcDbSymbolTableRecord
100
AcDbBlockTableRecord
  2
EX_NONE
  0
BLOCK_RECORD
  5
8B
330
1
100
AcDbSymbolTableRecord
100
AcDbBlockTableRecord
  2
EX_CIVIL
  0
BLOCK_RECORD
  5
8E
330
1
100
AcDbSymbolTableRecord
100
AcDbBlockTableRecord
  2
EX_WCIR
  0
BLOCK_RECORD
  5
91
330
1
100
AcDbSymbolTableRecord
100
AcDbBlockTableRecord
  2
EX_WCIR2
  0
BLOCK_RECORD
  5
94
330
1
100
AcDbSymbolTableRecord
100
AcDbBlockTableRecord
  2
EX_WNORM
  0
BLOCK_RECORD
  5
97
330
1
100
AcDbSymbolTableRecord
100
AcDbBlockTableRecord
  2
EX_NNORM
  0
BLOCK_RECORD
  5
9A
330
1
100
AcDbSymbolTableRecord
100
AcDbBlockTableRecord
  2
EX_BBOX
  0
BLOCK_RECORD
  5
9D
330
1
100
AcDbSymbolTableRecord
100
AcDbBlockTableRecord
  2
EX_WBOX
  0
BLOCK_RECORD
  5
A0
330
1
100
AcDbSymbolTableRecord
100
AcDbBlockTableRecord
  2
EX_INTEGRAL
  0
BLOCK_RECORD
  5
33A
330
1
100
AcDbSymbolTableRecord
100
AcDbBlockTableRecord
  2
*D15
  0
BLOCK_RECORD
  5
347
330
1
100
AcDbSymbolTableRecord
100
AcDbBlockTableRecord
  2
*D16
  0
BLOCK_RECORD
  5
354
330
1
100
AcDbSymbolTableRecord
100
AcDbBlockTableRecord
  2
*D17
  0
BLOCK_RECORD
  5
361
330
1
100
AcDbSymbolTableRecord
100
AcDbBlockTableRecord
  2
*D18
  0
BLOCK_RECORD
  5
36D
330
1
100
AcDbSymbolTableRecord
100
AcDbBlockTableRecord
  2
*D19
  0
ENDTAB
  0
ENDSEC
  0
SECTION
  2
BLOCKS
  0
BLOCK
  5
20
330
1F
100
AcDbEntity
  8
0
100
AcDbBlockBegin
  2
*MODEL_SPACE
 70
     0
 10
0.0
 20
0.0
 30
0.0
  3
*MODEL_SPACE
  1

  0
ENDBLK
  5
21
330
1F
100
AcDbEntity
  8
0
100
AcDbBlockEnd
  0
BLOCK
  5
1C
330
1B
100
AcDbEntity
 67
     1
  8
0
100
AcDbBlockBegin
  2
*PAPER_SPACE
 70
     0
 10
0.0
 20
0.0
 30
0.0
  3
*PAPER_SPACE
  1

  0
ENDBLK
  5
1D
330
1B
100
AcDbEntity
 67
     1
  8
0
100
AcDbBlockEnd
  0
BLOCK
  5
7A
330
79
100
AcDbEntity
  8
0
100
AcDbBlockBegin
  2
EX_NORM
 70
     0
 10
0.0
 20
0.0
 30
0.0
  3
EX_NORM
  1

  0
LINE
  5
A3
330
79
100
AcDbEntity
  8
0
  6
CONTINUOUS
 62
     0
100
AcDbLine
 10
0.0
 20
0.0
 30
0.0
 11
-1.0
 21
0.0
 31
0.0
  0
LINE
  5
A4
330
79
100
AcDbEntity
  8
0
  6
CONTINUOUS
 62
     0
100
AcDbLine
 10
0.0
 20
0.0
 30
0.0
 11
-1.0
 21
0.166666667
 31
0.0
  0
LINE
  5
A5
330
79
100
AcDbEntity
  8
0
  6
CONTINUOUS
 62
     0
100
AcDbLine
 10
0.0
 20
0.0
 30
0.0
 11
-1.0
 21
-0.166666667
 31
0.0
  0
ENDBLK
  5
7B
330
79
100
AcDbEntity
  8
0
100
AcDbBlockEnd
  0
BLOCK
  5
7D
330
7C
100
AcDbEntity
  8
0
100
AcDbBlockBegin
  2
EX_BNORM
 70
     0
 10
0.0
 20
0.0
 30
0.0
  3
EX_BNORM
  1

  0
LINE
  5
A6
330
7C
100
AcDbEntity
  8
0
  6
CONTINUOUS
 62
     0
100
AcDbLine
 10
0.0
 20
0.0
 30
0.0
 11
-1.0
 21
0.0
 31
0.0
  0
LINE
  5
A7
330
7C
100
AcDbEntity
  8
0
  6
CONTINUOUS
 62
     0
100
AcDbLine
 10
0.0
 20
0.0
 30
0.0
 11
-1.0
 21
0.166666667
 31
0.0
  0
LINE
  5
A8
330
7C
100
AcDbEntity
  8
0
  6
CONTINUOUS
 62
     0
100
AcDbLine
 10
0.0
 20
0.0
 30
0.0
 11
-1.0
 21
-0.166666667
 31
0.0
  0
LINE
  5
A9
330
7C
100
AcDbEntity
  8
0
  6
CONTINUOUS
 62
     0
100
AcDbLine
 10
0.0
 20
0.0
 30
0.0
 11
-1.0
 21
0.083333333
 31
0.0
  0
LINE
  5
AA
330
7C
100
AcDbEntity
  8
0
  6
CONTINUOUS
 62
     0
100
AcDbLine
 10
0.0
 20
0.0
 30
0.0
 11
-1.0
 21
-0.083333333
 31
0.0
  0
LINE
  5
AB
330
7C
100
AcDbEntity
  8
0
  6
CONTINUOUS
 62
     0
100
AcDbLine
 10
-1.0
 20
0.166666667
 30
0.0
 11
-1.0
 21
-0.166666667
 31
0.0
  0
ENDBLK
  5
7E
330
7C
100
AcDbEntity
  8
0
100
AcDbBlockEnd
  0
BLOCK
  5
80
330
7F
100
AcDbEntity
  8
0
100
AcDbBlockBegin
  2
EX_BCIR
 70
     0
 10
0.0
 20
0.0
 30
0.0
  3
EX_BCIR
  1

  0
LINE
  5
AC
330
7F
100
AcDbEntity
  8
0
  6
CONTINUOUS
 62
     0
100
AcDbLine
 10
0.0
 20
0.0
 30
0.0
 11
-1.0
 21
0.0
 31
0.0
  0
CIRCLE
  5
AD
330
7F
100
AcDbEntity
  8
0
  6
CONTINUOUS
 62
     0
100
AcDbCircle
 10
0.0
 20
0.0
 30
0.0
 40
0.5
  0
CIRCLE
  5
AE
330
7F
100
AcDbEntity
  8
0
  6
CONTINUOUS
 62
     0
100
AcDbCircle
 10
0.0
 20
0.0
 30
0.0
 40
0.25
  0
ENDBLK
  5
81
330
7F
100
AcDbEntity
  8
0
100
AcDbBlockEnd
  0
BLOCK
  5
83
330
82
100
AcDbEntity
  8
0
100
AcDbBlockBegin
  2
EX_RCIVIL
 70
     0
 10
0.0
 20
0.0
 30
0.0
  3
EX_RCIVIL
  1

  0
LINE
  5
AF
330
82
100
AcDbEntity
  8
0
  6
CONTINUOUS
 62
     0
100
AcDbLine
 10
0.0
 20
0.0
 30
0.0
 11
-1.0
 21
0.0
 31
0.0
  0
LINE
  5
B0
330
82
100
AcDbEntity
  8
0
  6
CONTINUOUS
 62
     0
100
AcDbLine
 10
-1.0
 20
-0.25
 30
0.0
 11
0.0
 21
-0.25
 31
0.0
  0
LINE
  5
B1
330
82
100
AcDbEntity
  8
0
  6
CONTINUOUS
 62
     0
100
AcDbLine
 10
-1.0
 20
-0.125
 30
0.0
 11
0.0
 21
-0.125
 31
0.0
  0
ENDBLK
  5
84
330
82
100
AcDbEntity
  8
0
100
AcDbBlockEnd
  0
BLOCK
  5
86
330
85
100
AcDbEntity
  8
0
100
AcDbBlockBegin
  2
EX_SLANT
 70
     0
 10
0.0
 20
0.0
 30
0.0
  3
EX_SLANT
  1

  0
LINE
  5
B2
330
85
100
AcDbEntity
  8
0
  6
CONTINUOUS
 62
     0
100
AcDbLine
 10
0.0
 20
0.0
 30
0.0
 11
-1.0
 21
0.0
 31
0.0
  0
LINE
  5
B3
330
85
100
AcDbEntity
  8
0
  6
CONTINUOUS
 62
     0
100
AcDbLine
 10
0.707106781
 20
0.707106781
 30
0.0
 11
-0.707106781
 21
-0.707106781
 31
0.0
  0
ENDBLK
  5
87
330
85
100
AcDbEntity
  8
0
100
AcDbBlockEnd
  0
BLOCK
  5
89
330
88
100
AcDbEntity
  8
0
100
AcDbBlockBegin
  2
EX_NONE
 70
     0
 10
0.0
 20
0.0
 30
0.0
  3
EX_NONE
  1

  0
LINE
  5
B4
330
88
100
AcDbEntity
  8
0
  6
CONTINUOUS
 62
     0
100
AcDbLine
 10
0.0
 20
0.0
 30
0.0
 11
-1.0
 21
0.0
 31
0.0
  0
ENDBLK
  5
8A
330
88
100
AcDbEntity
  8
0
100
AcDbBlockEnd
  0
BLOCK
  5
8C
330
8B
100
AcDbEntity
  8
0
100
AcDbBlockBegin
  2
EX_CIVIL
 70
     0
 10
0.0
 20
0.0
 30
0.0
  3
EX_CIVIL
  1

  0
LINE
  5
B5
330
8B
100
AcDbEntity
  8
0
  6
CONTINUOUS
 62
     0
100
AcDbLine
 10
0.0
 20
0.0
 30
0.0
 11
-1.0
 21
0.0
 31
0.0
  0
LINE
  5
B6
330
8B
100
AcDbEntity
  8
0
  6
CONTINUOUS
 62
     0
100
AcDbLine
 10
-1.0
 20
0.25
 30
0.0
 11
0.0
 21
0.25
 31
0.0
  0
LINE
  5
B7
330
8B
100
AcDbEntity
  8
0
  6
CONTINUOUS
 62
     0
100
AcDbLine
 10
-1.0
 20
0.125
 30
0.0
 11
0.0
 21
0.125
 31
0.0
  0
ENDBLK
  5
8D
330
8B
100
AcDbEntity
  8
0
100
AcDbBlockEnd
  0
BLOCK
  5
8F
330
8E
100
AcDbEntity
  8
0
100
AcDbBlockBegin
  2
EX_WCIR
 70
     0
 10
0.0
 20
0.0
 30
0.0
  3
EX_WCIR
  1

  0
LINE
  5
B8
330
8E
100
AcDbEntity
  8
0
  6
CONTINUOUS
 62
     0
100
AcDbLine
 10
0.0
 20
0.0
 30
0.0
 11
-1.0
 21
0.0
 31
0.0
  0
CIRCLE
  5
B9
330
8E
100
AcDbEntity
  8
0
  6
CONTINUOUS
 62
     0
100
AcDbCircle
 10
0.0
 20
0.0
 30
0.0
 40
0.5
  0
ENDBLK
  5
90
330
8E
100
AcDbEntity
  8
0
100
AcDbBlockEnd
  0
BLOCK
  5
92
330
91
100
AcDbEntity
  8
0
100
AcDbBlockBegin
  2
EX_WCIR2
 70
     0
 10
0.0
 20
0.0
 30
0.0
  3
EX_WCIR2
  1

  0
LINE
  5
BA
330
91
100
AcDbEntity
  8
0
  6
CONTINUOUS
 62
     0
100
AcDbLine
 10
-0.5
 20
0.0
 30
0.0
 11
-1.0
 21
0.0
 31
0.0
  0
CIRCLE
  5
BB
330
91
100
AcDbEntity
  8
0
  6
CONTINUOUS
 62
     0
100
AcDbCircle
 10
0.0
 20
0.0
 30
0.0
 40
0.5
  0
ENDBLK
  5
93
330
91
100
AcDbEntity
  8
0
100
AcDbBlockEnd
  0
BLOCK
  5
95
330
94
100
AcDbEntity
  8
0
100
AcDbBlockBegin
  2
EX_WNORM
 70
     0
 10
0.0
 20
0.0
 30
0.0
  3
EX_WNORM
  1

  0
LINE
  5
BC
330
94
100
AcDbEntity
  8
0
  6
CONTINUOUS
 62
     0
100
AcDbLine
 10
-1.0
 20
0.0
 30
0.0
 11
-1.0
 21
0.0
 31
0.0
  0
LINE
  5
BD
330
94
100
AcDbEntity
  8
0
  6
CONTINUOUS
 62
     0
100
AcDbLine
 10
0.0
 20
0.0
 30
0.0
 11
-1.0
 21
0.166666667
 31
0.0
  0
LINE
  5
BE
330
94
100
AcDbEntity
  8
0
  6
CONTINUOUS
 62
     0
100
AcDbLine
 10
0.0
 20
0.0
 30
0.0
 11
-1.0
 21
-0.166666667
 31
0.0
  0
LINE
  5
BF
330
94
100
AcDbEntity
  8
0
  6
CONTINUOUS
 62
     0
100
AcDbLine
 10
-1.0
 20
0.166666667
 30
0.0
 11
-1.0
 21
-0.166666667
 31
0.0
  0
ENDBLK
  5
96
330
94
100
AcDbEntity
  8
0
100
AcDbBlockEnd
  0
BLOCK
  5
98
330
97
100
AcDbEntity
  8
0
100
AcDbBlockBegin
  2
EX_NNORM
 70
     0
 10
0.0
 20
0.0
 30
0.0
  3
EX_NNORM
  1

  0
LINE
  5
C0
330
97
100
AcDbEntity
  8
0
  6
CONTINUOUS
 62
     0
100
AcDbLine
 10
0.0
 20
0.0
 30
0.0
 11
-1.0
 21
0.0
 31
0.0
  0
LINE
  5
C1
330
97
100
AcDbEntity
  8
0
  6
CONTINUOUS
 62
     0
100
AcDbLine
 10
0.0
 20
0.0
 30
0.0
 11
-1.0
 21
0.166666667
 31
0.0
  0
LINE
  5
C2
330
97
100
AcDbEntity
  8
0
  6
CONTINUOUS
 62
     0
100
AcDbLine
 10
0.0
 20
0.0
 30
0.0
 11
-1.0
 21
-0.166666667
 31
0.0
  0
LINE
  5
C3
330
97
100
AcDbEntity
  8
0
  6
CONTINUOUS
 62
     0
100
AcDbLine
 10
-1.0
 20
0.166666667
 30
0.0
 11
-1.0
 21
-0.166666667
 31
0.0
  0
ENDBLK
  5
99
330
97
100
AcDbEntity
  8
0
100
AcDbBlockEnd
  0
BLOCK
  5
9B
330
9A
100
AcDbEntity
  8
0
100
AcDbBlockBegin
  2
EX_BBOX
 70
     0
 10
0.0
 20
0.0
 30
0.0
  3
EX_BBOX
  1

  0
LINE
  5
C4
330
9A
100
AcDbEntity
  8
0
  6
CONTINUOUS
 62
     0
100
AcDbLine
 10
0.0
 20
0.0
 30
0.0
 11
-1.0
 21
0.0
 31
0.0
  0
LINE
  5
C5
330
9A
100
AcDbEntity
  8
0
  6
CONTINUOUS
 62
     0
100
AcDbLine
 10
-0.5
 20
0.5
 30
0.0
 11
0.5
 21
0.5
 31
0.0
  0
LINE
  5
C6
330
9A
100
AcDbEntity
  8
0
  6
CONTINUOUS
 62
     0
100
AcDbLine
 10
0.5
 20
0.5
 30
0.0
 11
0.5
 21
-0.5
 31
0.0
  0
LINE
  5
C7
330
9A
100
AcDbEntity
  8
0
  6
CONTINUOUS
 62
     0
100
AcDbLine
 10
0.5
 20
-0.5
 30
0.0
 11
-0.5
 21
-0.5
 31
0.0
  0
LINE
  5
C8
330
9A
100
AcDbEntity
  8
0
  6
CONTINUOUS
 62
     0
100
AcDbLine
 10
-0.5
 20
-0.5
 30
0.0
 11
-0.5
 21
0.5
 31
0.0
  0
LINE
  5
C9
330
9A
100
AcDbEntity
  8
0
  6
CONTINUOUS
 62
     0
100
AcDbLine
 10
-0.25
 20
0.25
 30
0.0
 11
0.25
 21
0.25
 31
0.0
  0
LINE
  5
CA
330
9A
100
AcDbEntity
  8
0
  6
CONTINUOUS
 62
     0
100
AcDbLine
 10
0.25
 20
0.25
 30
0.0
 11
0.25
 21
-0.25
 31
0.0
  0
LINE
  5
CB
330
9A
100
AcDbEntity
  8
0
  6
CONTINUOUS
 62
     0
100
AcDbLine
 10
0.25
 20
-0.25
 30
0.0
 11
-0.25
 21
-0.25
 31
0.0
  0
LINE
  5
CC
330
9A
100
AcDbEntity
  8
0
  6
CONTINUOUS
 62
     0
100
AcDbLine
 10
-0.25
 20
-0.25
 30
0.0
 11
-0.25
 21
0.25
 31
0.0
  0
ENDBLK
  5
9C
330
9A
100
AcDbEntity
  8
0
100
AcDbBlockEnd
  0
BLOCK
  5
9E
330
9D
100
AcDbEntity
  8
0
100
AcDbBlockBegin
  2
EX_WBOX
 70
     0
 10
0.0
 20
0.0
 30
0.0
  3
EX_WBOX
  1

  0
LINE
  5
CD
330
9D
100
AcDbEntity
  8
0
  6
CONTINUOUS
 62
     0
100
AcDbLine
 10
-0.5
 20
0.0
 30
0.0
 11
-1.0
 21
0.0
 31
0.0
  0
LINE
  5
CE
330
9D
100
AcDbEntity
  8
0
  6
CONTINUOUS
 62
     0
100
AcDbLine
 10
-0.5
 20
0.5
 30
0.0
 11
0.5
 21
0.5
 31
0.0
  0
LINE
  5
CF
330
9D
100
AcDbEntity
  8
0
  6
CONTINUOUS
 62
     0
100
AcDbLine
 10
0.5
 20
0.5
 30
0.0
 11
0.5
 21
-0.5
 31
0.0
  0
LINE
  5
D0
330
9D
100
AcDbEntity
  8
0
  6
CONTINUOUS
 62
     0
100
AcDbLine
 10
0.5
 20
-0.5
 30
0.0
 11
-0.5
 21
-0.5
 31
0.0
  0
LINE
  5
D1
330
9D
100
AcDbEntity
  8
0
  6
CONTINUOUS
 62
     0
100
AcDbLine
 10
-0.5
 20
-0.5
 30
0.0
 11
-0.5
 21
0.5
 31
0.0
  0
ENDBLK
  5
9F
330
9D
100
AcDbEntity
  8
0
100
AcDbBlockEnd
  0
BLOCK
  5
A1
330
A0
100
AcDbEntity
  8
0
100
AcDbBlockBegin
  2
EX_INTEGRAL
 70
     0
 10
0.0
 20
0.0
 30
0.0
  3
EX_INTEGRAL
  1

  0
LINE
  5
D2
330
A0
100
AcDbEntity
  8
0
  6
CONTINUOUS
 62
     0
100
AcDbLine
 10
0.0
 20
0.0
 30
0.0
 11
-1.0
 21
0.0
 31
0.0
  0
ARC
  5
D3
330
A0
100
AcDbEntity
  8
0
  6
CONTINUOUS
 62
     0
100
AcDbCircle
 10
0.542115
 20
0.164992
 30
0.0
 40
0.56667
100
AcDbArc
 50
73.07249033629006
 51
196.9275130221199
  0
ARC
  5
D4
330
A0
100
AcDbEntity
  8
0
  6
CONTINUOUS
 62
     0
100
AcDbCircle
 10
-0.542115
 20
-0.164992
 30
0.0
 40
0.56667
100
AcDbArc
 50
253.0724869220464
 51
16.9275130559125
  0
ENDBLK
  5
A2
330
A0
100
AcDbEntity
  8
0
100
AcDbBlockEnd
  0
BLOCK
  5
33B
330
33A
100
AcDbEntity
  8
0
100
AcDbBlockBegin
  2
*D15
 70
     1
 10
0.0
 20
0.0
 30
0.0
  3
*D15
  1

  0
LINE
  5
33D
330
33A
100
AcDbEntity
  8
LAY-20
  6
CONTINUOUS
 62
     4
100
AcDbLine
 10
293.5000000001
 20
401.9405620000001
 30
0.0
 11
293.5000000001
 21
527.5
 31
0.0
  0
LINE
  5
33E
330
33A
100
AcDbEntity
  8
LAY-20
  6
CONTINUOUS
 62
     4
100
AcDbLine
 10
956.5
 20
401.9405620000001
 30
0.0
 11
956.5
 21
527.5
 31
0.0
  0
LINE
  5
33F
330
33A
100
AcDbEntity
  8
LAY-20
  6
CONTINUOUS
 62
     4
100
AcDbLine
 10
308.5000000001
 20
520.0
 30
0.0
 11
941.5
 21
520.0
 31
0.0
  0
INSERT
  5
340
330
33A
100
AcDbEntity
  8
LAY-20
 62
     4
100
AcDbBlockReference
  2
EX_BNORM
 10
293.5000000001
 20
520.0
 30
0.0
 41
15.0
 42
15.0
 43
15.0
 50
180.0
  0
INSERT
  5
341
330
33A
100
AcDbEntity
  8
LAY-20
 62
     4
100
AcDbBlockReference
  2
EX_BNORM
 10
956.5
 20
520.0
 30
0.0
 41
15.0
 42
15.0
 43
15.0
  0
MTEXT
  5
342
330
33A
100
AcDbEntity
  8
LAY-20
 62
     7
100
AcDbMText
 10
625.00000000005
 20
532.5
 30
0.0
 40
15.590552
 41
0.0
 71
     5
 72
     1
  1
%%c663
  7
EXCADDIM1
  0
POINT
  5
343
330
33A
100
AcDbEntity
  8
DEFPOINTS
 62
     0
100
AcDbPoint
 10
293.5000000001
 20
394.4405620000001
 30
0.0
  0
POINT
  5
344
330
33A
100
AcDbEntity
  8
DEFPOINTS
 62
     0
100
AcDbPoint
 10
956.5
 20
394.4405620000001
 30
0.0
  0
POINT
  5
345
330
33A
100
AcDbEntity
  8
DEFPOINTS
 62
     0
100
AcDbPoint
 10
956.5
 20
520.0
 30
0.0
  0
ENDBLK
  5
33C
330
33A
100
AcDbEntity
  8
0
100
AcDbBlockEnd
  0
BLOCK
  5
348
330
347
100
AcDbEntity
  8
0
100
AcDbBlockBegin
  2
*D16
 70
     1
 10
0.0
 20
0.0
 30
0.0
  3
*D16
  1

  0
LINE
  5
34A
330
347
100
AcDbEntity
  8
LAY-20
  6
CONTINUOUS
 62
     4
100
AcDbLine
 10
306.5000000001
 20
401.9405620000001
 30
0.0
 11
306.5000000001
 21
492.5
 31
0.0
  0
LINE
  5
34B
330
347
100
AcDbEntity
  8
LAY-20
  6
CONTINUOUS
 62
     4
100
AcDbLine
 10
943.5
 20
401.9405620000001
 30
0.0
 11
943.5
 21
492.5
 31
0.0
  0
LINE
  5
34C
330
347
100
AcDbEntity
  8
LAY-20
  6
CONTINUOUS
 62
     4
100
AcDbLine
 10
321.5000000001
 20
485.0
 30
0.0
 11
928.5
 21
485.0
 31
0.0
  0
INSERT
  5
34D
330
347
100
AcDbEntity
  8
LAY-20
 62
     4
100
AcDbBlockReference
  2
EX_BNORM
 10
306.5000000001
 20
485.0
 30
0.0
 41
15.0
 42
15.0
 43
15.0
 50
180.0
  0
INSERT
  5
34E
330
347
100
AcDbEntity
  8
LAY-20
 62
     4
100
AcDbBlockReference
  2
EX_BNORM
 10
943.5
 20
485.0
 30
0.0
 41
15.0
 42
15.0
 43
15.0
  0
MTEXT
  5
34F
330
347
100
AcDbEntity
  8
LAY-20
 62
     7
100
AcDbMText
 10
625.00000000005
 20
497.5
 30
0.0
 40
15.590552
 41
0.0
 71
     5
 72
     1
  1
%%c637
  7
EXCADDIM1
  0
POINT
  5
350
330
347
100
AcDbEntity
  8
DEFPOINTS
 62
     0
100
AcDbPoint
 10
306.5000000001
 20
394.4405620000001
 30
0.0
  0
POINT
  5
351
330
347
100
AcDbEntity
  8
DEFPOINTS
 62
     0
100
AcDbPoint
 10
943.5
 20
394.4405620000001
 30
0.0
  0
POINT
  5
352
330
347
100
AcDbEntity
  8
DEFPOINTS
 62
     0
100
AcDbPoint
 10
943.5
 20
485.0
 30
0.0
  0
ENDBLK
  5
349
330
347
100
AcDbEntity
  8
0
100
AcDbBlockEnd
  0
BLOCK
  5
355
330
354
100
AcDbEntity
  8
0
100
AcDbBlockBegin
  2
*D17
 70
     1
 10
0.0
 20
0.0
 30
0.0
  3
*D17
  1

  0
LINE
  5
357
330
354
100
AcDbEntity
  8
LAY-20
  6
CONTINUOUS
 62
     4
100
AcDbLine
 10
325.0000000000999
 20
341.240562
 30
0.0
 11
325.0000000000999
 21
276.940562
 31
0.0
  0
LINE
  5
358
330
354
100
AcDbEntity
  8
LAY-20
  6
CONTINUOUS
 62
     4
100
AcDbLine
 10
925.0
 20
336.4999999999999
 30
0.0
 11
925.0
 21
276.940562
 31
0.0
  0
LINE
  5
359
330
354
100
AcDbEntity
  8
LAY-20
  6
CONTINUOUS
 62
     4
100
AcDbLine
 10
340.0000000000999
 20
284.440562
 30
0.0
 11
910.0
 21
284.440562
 31
0.0
  0
INSERT
  5
35A
330
354
100
AcDbEntity
  8
LAY-20
 62
     4
100
AcDbBlockReference
  2
EX_BNORM
 10
325.0000000000999
 20
284.440562
 30
0.0
 41
15.0
 42
15.0
 43
15.0
 50
180.0
  0
INSERT
  5
35B
330
354
100
AcDbEntity
  8
LAY-20
 62
     4
100
AcDbBlockReference
  2
EX_BNORM
 10
925.0
 20
284.440562
 30
0.0
 41
15.0
 42
15.0
 43
15.0
  0
MTEXT
  5
35C
330
354
100
AcDbEntity
  8
LAY-20
 62
     7
100
AcDbMText
 10
625.00000000005
 20
296.940562
 30
0.0
 40
15.590552
 41
0.0
 71
     5
 72
     1
  1
%%c600
  7
EXCADDIM1
  0
POINT
  5
35D
330
354
100
AcDbEntity
  8
DEFPOINTS
 62
     0
100
AcDbPoint
 10
325.0000000000999
 20
348.740562
 30
0.0
  0
POINT
  5
35E
330
354
100
AcDbEntity
  8
DEFPOINTS
 62
     0
100
AcDbPoint
 10
925.0
 20
343.9999999999999
 30
0.0
  0
POINT
  5
35F
330
354
100
AcDbEntity
  8
DEFPOINTS
 62
     0
100
AcDbPoint
 10
925.0
 20
284.440562
 30
0.0
  0
ENDBLK
  5
356
330
354
100
AcDbEntity
  8
0
100
AcDbBlockEnd
  0
BLOCK
  5
362
330
361
100
AcDbEntity
  8
0
100
AcDbBlockBegin
  2
*D18
 70
     1
 10
0.0
 20
0.0
 30
0.0
  3
*D18
  1

  0
LINE
  5
364
330
361
100
AcDbEntity
  8
LAY-20
  6
CONTINUOUS
 62
     4
100
AcDbLine
 10
282.5000000001
 20
326.9405619999999
 30
0.0
 11
282.5000000001
 21
249.440562
 31
0.0
  0
LINE
  5
365
330
361
100
AcDbEntity
  8
LAY-20
  6
CONTINUOUS
 62
     4
100
AcDbLine
 10
297.5000000001
 20
249.440562
 30
0.0
 11
952.5
 21
249.440562
 31
0.0
  0
INSERT
  5
366
330
361
100
AcDbEntity
  8
LAY-20
 62
     4
100
AcDbBlockReference
  2
EX_BNORM
 10
282.5000000001
 20
249.440562
 30
0.0
 41
15.0
 42
15.0
 43
15.0
 50
180.0
  0
INSERT
  5
367
330
361
100
AcDbEntity
  8
LAY-20
 62
     4
100
AcDbBlockReference
  2
EX_NONE
 10
967.5
 20
249.440562
 30
0.0
 41
15.0
 42
15.0
 43
15.0
  0
MTEXT
  5
368
330
361
100
AcDbEntity
  8
LAY-20
 62
     7
100
AcDbMText
 10
625.00000000005
 20
261.940562
 30
0.0
 40
15.590552
 41
0.0
 71
     5
 72
     1
  1
□685
  7
EXCADDIM1
  0
POINT
  5
369
330
361
100
AcDbEntity
  8
DEFPOINTS
 62
     0
100
AcDbPoint
 10
282.5000000001
 20
326.9405619999999
 30
0.0
  0
POINT
  5
36A
330
361
100
AcDbEntity
  8
DEFPOINTS
 62
     0
100
AcDbPoint
 10
967.5
 20
249.440562
 30
0.0
  0
POINT
  5
36B
330
361
100
AcDbEntity
  8
DEFPOINTS
 62
     0
100
AcDbPoint
 10
967.5
 20
249.440562
 30
0.0
  0
ENDBLK
  5
363
330
361
100
AcDbEntity
  8
0
100
AcDbBlockEnd
  0
BLOCK
  5
36E
330
36D
100
AcDbEntity
  8
0
100
AcDbBlockBegin
  2
*D19
 70
     1
 10
0.0
 20
0.0
 30
0.0
  3
*D19
  1

  0
LINE
  5
370
330
36D
100
AcDbEntity
  8
LAY-20
  6
CONTINUOUS
 62
     4
100
AcDbLine
 10
964.0
 20
394.4405620000001
 30
0.0
 11
1146.5
 21
394.4405620000001
 31
0.0
  0
LINE
  5
371
330
36D
100
AcDbEntity
  8
LAY-20
  6
CONTINUOUS
 62
     4
100
AcDbLine
 10
1097.0
 20
334.4405619999999
 30
0.0
 11
1146.5
 21
334.4405619999999
 31
0.0
  0
LINE
  5
372
330
36D
100
AcDbEntity
  8
LAY-20
  6
CONTINUOUS
 62
     4
100
AcDbLine
 10
1139.0
 20
379.4405620000001
 30
0.0
 11
1139.0
 21
349.4405619999999
 31
0.0
  0
INSERT
  5
373
330
36D
100
AcDbEntity
  8
LAY-20
 62
     4
100
AcDbBlockReference
  2
EX_BNORM
 10
1139.0
 20
394.4405620000001
 30
0.0
 41
15.0
 42
15.0
 43
15.0
 50
90.0
  0
INSERT
  5
374
330
36D
100
AcDbEntity
  8
LAY-20
 62
     4
100
AcDbBlockReference
  2
EX_BNORM
 10
1139.0
 20
334.4405619999999
 30
0.0
 41
15.0
 42
15.0
 43
15.0
 50
270.0
  0
MTEXT
  5
375
330
36D
100
AcDbEntity
  8
LAY-20
 62
     7
100
AcDbMText
 10
1126.5
 20
364.4405620000001
 30
0.0
 40
15.590552
 41
0.0
 71
     5
 72
     1
  1
60
  7
EXCADDIM1
 11
0.0
 21
1.0
 31
0.0
  0
POINT
  5
376
330
36D
100
AcDbEntity
  8
DEFPOINTS
 62
     0
100
AcDbPoint
 10
956.5
 20
394.4405620000001
 30
0.0
  0
POINT
  5
377
330
36D
100
AcDbEntity
  8
DEFPOINTS
 62
     0
100
AcDbPoint
 10
1089.5
 20
334.4405619999999
 30
0.0
  0
POINT
  5
378
330
36D
100
AcDbEntity
  8
DEFPOINTS
 62
     0
100
AcDbPoint
 10
1139.0
 20
334.4405619999999
 30
0.0
  0
ENDBLK
  5
36F
330
36D
100
AcDbEntity
  8
0
100
AcDbBlockEnd
  0
ENDSEC
  0
SECTION
  2
ENTITIES
  0
LINE
  5
D5
330
1F
100
AcDbEntity
  8
LAY-10
  6
CONTINUOUS
 62
     7
100
AcDbLine
 10
459.3212282151007
 20
712.4511702740001
 30
0.0
 11
477.7173971272009
 21
712.510071513
 31
0.0
  0
LINE
  5
D6
330
1F
100
AcDbEntity
  8
LAY-10
  6
CONTINUOUS
 62
     7
100
AcDbLine
 10
477.7173971272009
 20
712.510071513
 30
0.0
 11
485.8315846180008
 21
696.0
 31
0.0
  0
LINE
  5
D7
330
1F
100
AcDbEntity
  8
LAY-10
  6
CONTINUOUS
 62
     7
100
AcDbLine
 10
485.8315846180008
 20
696.0
 30
0.0
 11
467.4354157059008
 21
695.9410987609999
 31
0.0
  0
LINE
  5
D8
330
1F
100
AcDbEntity
  8
LAY-10
  6
CONTINUOUS
 62
     7
100
AcDbLine
 10
467.4354157059008
 20
695.9410987609999
 30
0.0
 11
459.3212282151007
 21
712.4511702740001
 31
0.0
  0
TEXT
  5
D9
330
1F
100
AcDbEntity
  8
LAY-10
  6
CONTINUOUS
 62
     7
100
AcDbText
 10
465.9229383634247
 20
703.0259018656152
 30
0.0
 40
9.12047277131691
  1
S
 50
328.1780669915002
 41
0.56692
  7
EXCADSTD
100
AcDbText
  0
TEXT
  5
DA
330
1F
100
AcDbEntity
  8
LAY-10
  6
CONTINUOUS
 62
     7
100
AcDbText
 10
470.9251551320246
 20
699.9921085346152
 30
0.0
 40
9.12047277131691
  1
F
 50
328.1780669915002
 41
0.56692
  7
EXCADSTD
100
AcDbText
  0
LINE
  5
DB
330
1F
100
AcDbEntity
  8
LAY-10
  6
CONTINUOUS
 62
     7
100
AcDbLine
 10
967.5000000000008
 20
950.0
 30
0.0
 11
967.5000000000008
 21
655.4999999999999
 31
0.0
  0
LINE
  5
DC
330
1F
100
AcDbEntity
  8
LAY-10
  6
CONTINUOUS
 62
     7
100
AcDbLine
 10
919.5000000000007
 20
607.5000000000001
 30
0.0
 11
625.0000000000007
 21
607.5000000000001
 31
0.0
  0
ARC
  5
DD
330
1F
100
AcDbEntity
  8
LAY-10
  6
CONTINUOUS
 62
     7
100
AcDbCircle
 10
919.5000000000007
 20
655.4999999999999
 30
0.0
 40
48.00000000000001
100
AcDbArc
 50
270.0
 51
0.0
  0
LINE
  5
DE
330
1F
100
AcDbEntity
  8
LAY-10
  6
CONTINUOUS
 62
     7
100
AcDbLine
 10
705.2021708630006
 20
615.4999999999999
 30
0.0
 11
795.0000000000007
 21
615.4999999999999
 31
0.0
  0
LINE
  5
DF
330
1F
100
AcDbEntity
  8
LAY-10
  6
CONTINUOUS
 62
     7
100
AcDbLine
 10
844.8125871450009
 20
698.367607701
 30
0.0
 11
899.1446609410008
 21
644.035533906
 31
0.0
  0
ARC
  5
E0
330
1F
100
AcDbEntity
  8
LAY-10
  6
CONTINUOUS
 62
     7
100
AcDbCircle
 10
705.2021708630006
 20
620.4999999999999
 30
0.0
 40
5.0
100
AcDbArc
 50
103.680093725599
 51
270.0
  0
LINE
  5
E1
330
1F
100
AcDbEntity
  8
LAY-10
  6
CONTINUOUS
 62
     7
100
AcDbLine
 10
907.6885860380008
 20
658.8261325880001
 30
0.0
 11
855.8703162340007
 21
712.111061455
 31
0.0
  0
LINE
  5
E2
330
1F
100
AcDbEntity
  8
LAY-10
  6
CONTINUOUS
 62
     7
100
AcDbLine
 10
907.6885860380008
 20
658.8261325880001
 30
0.0
 11
911.9312267250004
 21
663.068773275
 31
0.0
  0
CIRCLE
  5
E3
330
1F
100
AcDbEntity
  8
LAY-10
  6
CONTINUOUS
 62
     7
100
AcDbCircle
 10
930.0000000000008
 20
645.0
 30
0.0
 40
7.5
  0
CIRCLE
  5
E4
330
1F
100
AcDbEntity
  8
LAY-10
  6
CONTINUOUS
 62
     7
100
AcDbCircle
 10
930.0000000000008
 20
645.0
 30
0.0
 40
10.0
  0
ARC
  5
E5
330
1F
100
AcDbEntity
  8
LAY-10
  6
CONTINUOUS
 62
     7
100
AcDbCircle
 10
949.5000000000007
 20
671.4619407770001
 30
0.0
 40
10.0
100
AcDbArc
 50
224.9999999999995
 51
0.0
  0
LINE
  5
E6
330
1F
100
AcDbEntity
  8
LAY-10
  6
CONTINUOUS
 62
     7
100
AcDbLine
 10
959.5000000000007
 20
869.797829137
 30
0.0
 11
959.5000000000007
 21
671.4619407770001
 31
0.0
  0
ARC
  5
E7
330
1F
100
AcDbEntity
  8
LAY-10
  6
CONTINUOUS
 62
     7
100
AcDbCircle
 10
954.5000000000007
 20
869.797829137
 30
0.0
 40
5.0
100
AcDbArc
 50
0.0
 51
166.3199062743985
  0
LINE
  5
E8
330
1F
100
AcDbEntity
  8
LAY-10
  6
CONTINUOUS
 62
     7
100
AcDbLine
 10
916.1738674120008
 20
667.311413962
 30
0.0
 11
862.8889385450007
 21
719.129683766
 31
0.0
  0
LINE
  5
E9
330
1F
100
AcDbEntity
  8
LAY-10
  6
CONTINUOUS
 62
     7
100
AcDbLine
 10
916.1738674120008
 20
667.311413962
 30
0.0
 11
911.9312267250004
 21
663.068773275
 31
0.0
  0
LINE
  5
EA
330
1F
100
AcDbEntity
  8
LAY-10
  6
CONTINUOUS
 62
     7
100
AcDbLine
 10
876.6323922990008
 20
730.187412855
 30
0.0
 11
942.4289321880005
 21
664.390872965
 31
0.0
  0
LINE
  5
EB
330
1F
100
AcDbEntity
  8
LAY-10
  6
CONTINUOUS
 62
     7
100
AcDbLine
 10
895.6091270350007
 20
635.4999999999999
 30
0.0
 11
795.0000000000007
 21
635.4999999999999
 31
0.0
  0
LINE
  5
EC
330
1F
100
AcDbEntity
  8
LAY-10
  6
CONTINUOUS
 62
     7
100
AcDbLine
 10
795.0000000000007
 20
635.4999999999999
 30
0.0
 11
795.0000000000007
 21
615.4999999999999
 31
0.0
  0
ARC
  5
ED
330
1F
100
AcDbEntity
  8
LAY-10
  6
CONTINUOUS
 62
     7
100
AcDbCircle
 10
895.6091270350007
 20
640.4999999999999
 30
0.0
 40
5.0
100
AcDbArc
 50
270.0
 51
45.0000000000009
  0
LINE
  5
EE
330
1F
100
AcDbEntity
  8
LAY-10
  6
CONTINUOUS
 62
     7
100
AcDbLine
 10
947.5000000000008
 20
950.0
 30
0.0
 11
956.4596380090009
 21
944.827150584
 31
0.0
  0
LINE
  5
EF
330
1F
100
AcDbEntity
  8
LAY-10
  6
CONTINUOUS
 62
     7
100
AcDbLine
 10
625.0000000000007
 20
627.5000000000001
 30
0.0
 11
630.1728494160009
 21
618.540361991
 31
0.0
  0
LINE
  5
F0
330
1F
100
AcDbEntity
  8
LAY-10
  6
CONTINUOUS
 62
     7
100
AcDbLine
 10
919.5000000000007
 20
1292.5
 30
0.0
 11
625.0000000000007
 21
1292.5
 31
0.0
  0
LINE
  5
F1
330
1F
100
AcDbEntity
  8
LAY-10
  6
CONTINUOUS
 62
     7
100
AcDbLine
 10
967.5000000000008
 20
950.0
 30
0.0
 11
967.5000000000008
 21
1244.5
 31
0.0
  0
ARC
  5
F2
330
1F
100
AcDbEntity
  8
LAY-10
  6
CONTINUOUS
 62
     7
100
AcDbCircle
 10
919.5000000000007
 20
1244.5
 30
0.0
 40
48.00000000000001
100
AcDbArc
 50
0.0
 51
90.0
  0
LINE
  5
F3
330
1F
100
AcDbEntity
  8
LAY-10
  6
CONTINUOUS
 62
     7
100
AcDbLine
 10
907.6885860380008
 20
1241.173867412
 30
0.0
 11
855.8703162340007
 21
1187.888938545
 31
0.0
  0
LINE
  5
F4
330
1F
100
AcDbEntity
  8
LAY-10
  6
CONTINUOUS
 62
     7
100
AcDbLine
 10
907.6885860380008
 20
1241.173867412
 30
0.0
 11
911.9312267250004
 21
1236.931226725
 31
0.0
  0
CIRCLE
  5
F5
330
1F
100
AcDbEntity
  8
LAY-10
  6
CONTINUOUS
 62
     7
100
AcDbCircle
 10
930.0000000000008
 20
1255.0
 30
0.0
 40
7.5
  0
CIRCLE
  5
F6
330
1F
100
AcDbEntity
  8
LAY-10
  6
CONTINUOUS
 62
     7
100
AcDbCircle
 10
930.0000000000008
 20
1255.0
 30
0.0
 40
10.0
  0
ARC
  5
F7
330
1F
100
AcDbEntity
  8
LAY-10
  6
CONTINUOUS
 62
     7
100
AcDbCircle
 10
949.5000000000007
 20
1228.538059223
 30
0.0
 40
10.0
100
AcDbArc
 50
0.0
 51
135.0
  0
LINE
  5
F8
330
1F
100
AcDbEntity
  8
LAY-10
  6
CONTINUOUS
 62
     7
100
AcDbLine
 10
959.5000000000007
 20
1030.202170863
 30
0.0
 11
959.5000000000007
 21
1228.538059223
 31
0.0
  0
ARC
  5
F9
330
1F
100
AcDbEntity
  8
LAY-10
  6
CONTINUOUS
 62
     7
100
AcDbCircle
 10
954.5000000000007
 20
1030.202170863
 30
0.0
 40
5.0
100
AcDbArc
 50
193.6800937256002
 51
0.0
  0
LINE
  5
FA
330
1F
100
AcDbEntity
  8
LAY-10
  6
CONTINUOUS
 62
     7
100
AcDbLine
 10
916.1738674120008
 20
1232.688586038
 30
0.0
 11
862.8889385450007
 21
1180.870316234
 31
0.0
  0
LINE
  5
FB
330
1F
100
AcDbEntity
  8
LAY-10
  6
CONTINUOUS
 62
     7
100
AcDbLine
 10
916.1738674120008
 20
1232.688586038
 30
0.0
 11
911.9312267250004
 21
1236.931226725
 31
0.0
  0
LINE
  5
FC
330
1F
100
AcDbEntity
  8
LAY-10
  6
CONTINUOUS
 62
     7
100
AcDbLine
 10
876.6323922990008
 20
1169.812587145
 30
0.0
 11
942.4289321880005
 21
1235.609127035
 31
0.0
  0
LINE
  5
FD
330
1F
100
AcDbEntity
  8
LAY-10
  6
CONTINUOUS
 62
     7
100
AcDbLine
 10
844.8125871450009
 20
1201.632392299
 30
0.0
 11
912.5058897320008
 21
1269.325694886
 31
0.0
  0
LINE
  5
FE
330
1F
100
AcDbEntity
  8
LAY-10
  6
CONTINUOUS
 62
     7
100
AcDbLine
 10
947.5000000000008
 20
950.0
 30
0.0
 11
956.4596380090009
 21
955.172849416
 31
0.0
  0
LINE
  5
FF
330
1F
100
AcDbEntity
  8
LAY-10
  6
CONTINUOUS
 62
     7
100
AcDbLine
 10
625.0000000000007
 20
1272.5
 30
0.0
 11
630.1728494160009
 21
1281.459638009
 31
0.0
  0
LINE
  5
100
330
1F
100
AcDbEntity
  8
LAY-10
  6
CONTINUOUS
 62
     7
100
AcDbLine
 10
330.5000000001007
 20
607.5000000000001
 30
0.0
 11
625.0000000000007
 21
607.5000000000001
 31
0.0
  0
LINE
  5
101
330
1F
100
AcDbEntity
  8
LAY-10
  6
CONTINUOUS
 62
     7
100
AcDbLine
 10
282.5000000001007
 20
950.0
 30
0.0
 11
282.5000000001007
 21
655.4999999999999
 31
0.0
  0
ARC
  5
102
330
1F
100
AcDbEntity
  8
LAY-10
  6
CONTINUOUS
 62
     7
100
AcDbCircle
 10
330.5000000001007
 20
655.4999999999999
 30
0.0
 40
48.00000000000001
100
AcDbArc
 50
180.0
 51
270.0
  0
LINE
  5
103
330
1F
100
AcDbEntity
  8
LAY-10
  6
CONTINUOUS
 62
     7
100
AcDbLine
 10
342.3114139623008
 20
658.8261325880001
 30
0.0
 11
394.1296837663007
 21
712.111061455
 31
0.0
  0
LINE
  5
104
330
1F
100
AcDbEntity
  8
LAY-10
  6
CONTINUOUS
 62
     7
100
AcDbLine
 10
342.3114139623008
 20
658.8261325880001
 30
0.0
 11
338.0687732752008
 21
663.068773275
 31
0.0
  0
CIRCLE
  5
105
330
1F
100
AcDbEntity
  8
LAY-10
  6
CONTINUOUS
 62
     7
100
AcDbCircle
 10
320.0000000001007
 20
645.0
 30
0.0
 40
7.5
  0
CIRCLE
  5
106
330
1F
100
AcDbEntity
  8
LAY-10
  6
CONTINUOUS
 62
     7
100
AcDbCircle
 10
320.0000000001007
 20
645.0
 30
0.0
 40
10.0
  0
ARC
  5
107
330
1F
100
AcDbEntity
  8
LAY-10
  6
CONTINUOUS
 62
     7
100
AcDbCircle
 10
300.5000000001007
 20
671.4619407770001
 30
0.0
 40
10.0
100
AcDbArc
 50
180.0
 51
314.9999999999995
  0
LINE
  5
108
330
1F
100
AcDbEntity
  8
LAY-10
  6
CONTINUOUS
 62
     7
100
AcDbLine
 10
290.5000000001007
 20
869.797829137
 30
0.0
 11
290.5000000001007
 21
671.4619407770001
 31
0.0
  0
ARC
  5
109
330
1F
100
AcDbEntity
  8
LAY-10
  6
CONTINUOUS
 62
     7
100
AcDbCircle
 10
295.5000000001007
 20
869.797829137
 30
0.0
 40
5.0
100
AcDbArc
 50
13.68009372562993
 51
180.0
  0
LINE
  5
10A
330
1F
100
AcDbEntity
  8
LAY-10
  6
CONTINUOUS
 62
     7
100
AcDbLine
 10
333.8261325880007
 20
667.311413962
 30
0.0
 11
387.1110614550007
 21
719.129683766
 31
0.0
  0
LINE
  5
10B
330
1F
100
AcDbEntity
  8
LAY-10
  6
CONTINUOUS
 62
     7
100
AcDbLine
 10
333.8261325880007
 20
667.311413962
 30
0.0
 11
338.0687732752008
 21
663.068773275
 31
0.0
  0
LINE
  5
10C
330
1F
100
AcDbEntity
  8
LAY-10
  6
CONTINUOUS
 62
     7
100
AcDbLine
 10
373.3676077013008
 20
730.187412855
 30
0.0
 11
307.5710678120007
 21
664.390872965
 31
0.0
  0
LINE
  5
10D
330
1F
100
AcDbEntity
  8
LAY-10
  6
CONTINUOUS
 62
     7
100
AcDbLine
 10
405.1874128547007
 20
698.367607701
 30
0.0
 11
339.3908729654007
 21
632.5710678119999
 31
0.0
  0
LINE
  5
10E
330
1F
100
AcDbEntity
  8
LAY-10
  6
CONTINUOUS
 62
     7
100
AcDbLine
 10
302.5000000001007
 20
950.0
 30
0.0
 11
293.5403619913008
 21
944.827150584
 31
0.0
  0
LINE
  5
10F
330
1F
100
AcDbEntity
  8
LAY-10
  6
CONTINUOUS
 62
     7
100
AcDbLine
 10
625.0000000000007
 20
627.5000000000001
 30
0.0
 11
619.8271505840007
 21
618.540361991
 31
0.0
  0
CIRCLE
  5
110
330
1F
100
AcDbEntity
  8
LAY-10
  6
CONTINUOUS
 62
     7
100
AcDbCircle
 10
625.0000000000007
 20
950.0
 30
0.0
 40
320.0
  0
CIRCLE
  5
111
330
1F
100
AcDbEntity
  8
LAY-10
  6
CONTINUOUS
 62
     7
100
AcDbCircle
 10
625.0000000000007
 20
950.0
 30
0.0
 40
331.4999999999999
  0
CIRCLE
  5
112
330
1F
100
AcDbEntity
  8
LAY-10
  6
CONTINUOUS
 62
     7
100
AcDbCircle
 10
625.0000000000007
 20
950.0
 30
0.0
 40
318.5
  0
LINE
  5
113
330
1F
100
AcDbEntity
  8
LAY-10
  6
CONTINUOUS
 62
     7
100
AcDbLine
 10
330.5000000001007
 20
1292.5
 30
0.0
 11
625.0000000000007
 21
1292.5
 31
0.0
  0
LINE
  5
114
330
1F
100
AcDbEntity
  8
LAY-10
  6
CONTINUOUS
 62
     7
100
AcDbLine
 10
282.5000000001007
 20
950.0
 30
0.0
 11
282.5000000001007
 21
1244.5
 31
0.0
  0
ARC
  5
115
330
1F
100
AcDbEntity
  8
LAY-10
  6
CONTINUOUS
 62
     7
100
AcDbCircle
 10
330.5000000001007
 20
1244.5
 30
0.0
 40
48.00000000000001
100
AcDbArc
 50
90.0
 51
180.0
  0
ARC
  5
116
330
1F
100
AcDbEntity
  8
LAY-10
  6
CONTINUOUS
 62
     7
100
AcDbCircle
 10
544.7978291367008
 20
1279.5
 30
0.0
 40
5.0
100
AcDbArc
 50
283.6800937256003
 51
90.0
  0
LINE
  5
117
330
1F
100
AcDbEntity
  8
LAY-10
  6
CONTINUOUS
 62
     7
100
AcDbLine
 10
342.3114139623008
 20
1241.173867412
 30
0.0
 11
394.1296837663007
 21
1187.888938545
 31
0.0
  0
LINE
  5
118
330
1F
100
AcDbEntity
  8
LAY-10
  6
CONTINUOUS
 62
     7
100
AcDbLine
 10
342.3114139623008
 20
1241.173867412
 30
0.0
 11
338.0687732752008
 21
1236.931226725
 31
0.0
  0
CIRCLE
  5
119
330
1F
100
AcDbEntity
  8
LAY-10
  6
CONTINUOUS
 62
     7
100
AcDbCircle
 10
320.0000000001007
 20
1255.0
 30
0.0
 40
7.5
  0
CIRCLE
  5
11A
330
1F
100
AcDbEntity
  8
LAY-10
  6
CONTINUOUS
 62
     7
100
AcDbCircle
 10
320.0000000001007
 20
1255.0
 30
0.0
 40
10.0
  0
ARC
  5
11B
330
1F
100
AcDbEntity
  8
LAY-10
  6
CONTINUOUS
 62
     7
100
AcDbCircle
 10
300.5000000001007
 20
1228.538059223
 30
0.0
 40
10.0
100
AcDbArc
 50
44.99999999999998
 51
180.0
  0
LINE
  5
11C
330
1F
100
AcDbEntity
  8
LAY-10
  6
CONTINUOUS
 62
     7
100
AcDbLine
 10
290.5000000001007
 20
1030.202170863
 30
0.0
 11
290.5000000001007
 21
1228.538059223
 31
0.0
  0
ARC
  5
11D
330
1F
100
AcDbEntity
  8
LAY-10
  6
CONTINUOUS
 62
     7
100
AcDbCircle
 10
295.5000000001007
 20
1030.202170863
 30
0.0
 40
5.0
100
AcDbArc
 50
180.0
 51
346.3199062743997
  0
LINE
  5
11E
330
1F
100
AcDbEntity
  8
LAY-10
  6
CONTINUOUS
 62
     7
100
AcDbLine
 10
333.8261325880007
 20
1232.688586038
 30
0.0
 11
387.1110614550007
 21
1180.870316234
 31
0.0
  0
LINE
  5
11F
330
1F
100
AcDbEntity
  8
LAY-10
  6
CONTINUOUS
 62
     7
100
AcDbLine
 10
333.8261325880007
 20
1232.688586038
 30
0.0
 11
338.0687732752008
 21
1236.931226725
 31
0.0
  0
LINE
  5
120
330
1F
100
AcDbEntity
  8
LAY-10
  6
CONTINUOUS
 62
     7
100
AcDbLine
 10
373.3676077013008
 20
1169.812587145
 30
0.0
 11
307.5710678120007
 21
1235.609127035
 31
0.0
  0
LINE
  5
121
330
1F
100
AcDbEntity
  8
LAY-10
  6
CONTINUOUS
 62
     7
100
AcDbLine
 10
544.7978291367008
 20
1284.5
 30
0.0
 11
455.0000000001007
 21
1284.5
 31
0.0
  0
LINE
  5
122
330
1F
100
AcDbEntity
  8
LAY-10
  6
CONTINUOUS
 62
     7
100
AcDbLine
 10
455.0000000001007
 20
1264.5
 30
0.0
 11
455.0000000001007
 21
1284.5
 31
0.0
  0
LINE
  5
123
330
1F
100
AcDbEntity
  8
LAY-10
  6
CONTINUOUS
 62
     7
100
AcDbLine
 10
405.1874128547007
 20
1201.632392299
 30
0.0
 11
350.8553390594008
 21
1255.964466094
 31
0.0
  0
LINE
  5
124
330
1F
100
AcDbEntity
  8
LAY-10
  6
CONTINUOUS
 62
     7
100
AcDbLine
 10
354.3908729654007
 20
1264.5
 30
0.0
 11
455.0000000001007
 21
1264.5
 31
0.0
  0
ARC
  5
125
330
1F
100
AcDbEntity
  8
LAY-10
  6
CONTINUOUS
 62
     7
100
AcDbCircle
 10
354.3908729654007
 20
1259.5
 30
0.0
 40
5.0
100
AcDbArc
 50
90.0
 51
225.0000000000018
  0
LINE
  5
126
330
1F
100
AcDbEntity
  8
LAY-10
  6
CONTINUOUS
 62
     7
100
AcDbLine
 10
302.5000000001007
 20
950.0
 30
0.0
 11
293.5403619913008
 21
955.172849416
 31
0.0
  0
LINE
  5
127
330
1F
100
AcDbEntity
  8
LAY-10
  6
CONTINUOUS
 62
     7
100
AcDbLine
 10
625.0000000000007
 20
1272.5
 30
0.0
 11
619.8271505840007
 21
1281.459638009
 31
0.0
  0
LINE
  5
128
330
1F
100
AcDbEntity
  8
LAY-10
  6
CONTINUOUS
 62
     7
100
AcDbLine
 10
916.1738674120008
 20
1232.688586038
 30
0.0
 11
911.9312267250004
 21
1236.931226725
 31
0.0
  0
LINE
  5
129
330
1F
100
AcDbEntity
  8
LAY-10
  6
CONTINUOUS
 62
     7
100
AcDbLine
 10
907.6885860380008
 20
1241.173867412
 30
0.0
 11
911.9312267250004
 21
1236.931226725
 31
0.0
  0
ARC
  5
12A
330
1F
100
AcDbEntity
  8
LAY-10
  6
CONTINUOUS
 62
     7
100
AcDbCircle
 10
903.5380592230009
 20
1274.5
 30
0.0
 40
10.0
100
AcDbArc
 50
315.0
 51
90.0
  0
LINE
  5
12B
330
1F
100
AcDbEntity
  8
LAY-10
  6
CONTINUOUS
 62
     7
100
AcDbLine
 10
705.2021708630006
 20
1284.5
 30
0.0
 11
903.5380592230009
 21
1284.5
 31
0.0
  0
ARC
  5
12C
330
1F
100
AcDbEntity
  8
LAY-10
  6
CONTINUOUS
 62
     7
100
AcDbCircle
 10
705.2021708630006
 20
1279.5
 30
0.0
 40
5.0
100
AcDbArc
 50
90.0
 51
256.319906274401
  0
ARC
  5
12D
330
1F
100
AcDbEntity
  8
LAY-10
  6
CONTINUOUS
 62
     7
100
AcDbCircle
 10
346.4619407772008
 20
625.4999999999999
 30
0.0
 40
10.0
100
AcDbArc
 50
134.9999999999995
 51
270.0
  0
LINE
  5
12E
330
1F
100
AcDbEntity
  8
LAY-10
  6
CONTINUOUS
 62
     7
100
AcDbLine
 10
544.7978291367008
 20
615.4999999999999
 30
0.0
 11
346.4619407772008
 21
615.4999999999999
 31
0.0
  0
ARC
  5
12F
330
1F
100
AcDbEntity
  8
LAY-10
  6
CONTINUOUS
 62
     7
100
AcDbCircle
 10
544.7978291367008
 20
620.4999999999999
 30
0.0
 40
5.0
100
AcDbArc
 50
270.0
 51
76.3199062743713
  0
TEXT
  5
130
330
1F
100
AcDbEntity
  8
LAY-10
  6
CONTINUOUS
 62
     7
100
AcDbText
 10
800.0000000000007
 20
613.9055120223429
 30
0.0
 40
8.185039056584548
  1
Ｓ
 41
1.2
  7
EXCADSTD
100
AcDbText
  0
TEXT
  5
131
330
1F
100
AcDbEntity
  8
LAY-10
  6
CONTINUOUS
 62
     7
100
AcDbText
 10
810.0000000000007
 20
613.9055120223429
 30
0.0
 40
8.185039056584548
  1
Ｆ
 41
1.2
  7
EXCADSTD
100
AcDbText
  0
TEXT
  5
132
330
1F
100
AcDbEntity
  8
LAY-10
  6
CONTINUOUS
 62
     7
100
AcDbText
 10
820.0000000000007
 20
613.9055120223429
 30
0.0
 40
8.185039056584548
  1
－
 41
1.2
  7
EXCADSTD
100
AcDbText
  0
TEXT
  5
133
330
1F
100
AcDbEntity
  8
LAY-10
  6
CONTINUOUS
 62
     7
100
AcDbText
 10
830.0000000000007
 20
613.9055120223429
 30
0.0
 40
8.185039056584548
  1
６
 41
1.2
  7
EXCADSTD
100
AcDbText
  0
TEXT
  5
134
330
1F
100
AcDbEntity
  8
LAY-10
  6
CONTINUOUS
 62
     7
100
AcDbText
 10
840.0000000000007
 20
613.9055120223429
 30
0.0
 40
8.185039056584548
  1
０
 41
1.2
  7
EXCADSTD
100
AcDbText
  0
TEXT
  5
135
330
1F
100
AcDbEntity
  8
LAY-10
  6
CONTINUOUS
 62
     7
100
AcDbText
 10
850.0000000000007
 20
613.9055120223429
 30
0.0
 40
8.185039056584548
  1
Ｌ
 41
1.2
  7
EXCADSTD
100
AcDbText
  0
TEXT
  5
136
330
1F
100
AcDbEntity
  8
LAY-10
  6
CONTINUOUS
 62
     7
100
AcDbText
 10
860.0000000000007
 20
613.9055120223429
 30
0.0
 40
8.185039056584548
  1
Ａ
 41
1.2
  7
EXCADSTD
100
AcDbText
  0
TEXT
  5
137
330
1F
100
AcDbEntity
  8
LAY-10
  6
CONTINUOUS
 62
     7
100
AcDbText
 10
880.0000000000008
 20
613.9055120223429
 30
0.0
 40
8.185039056584548
  1
Ｍ
 41
1.2
  7
EXCADSTD
100
AcDbText
  0
TEXT
  5
138
330
1F
100
AcDbEntity
  8
LAY-10
  6
CONTINUOUS
 62
     7
100
AcDbText
 10
890.0000000000008
 20
613.9055120223429
 30
0.0
 40
8.185039056584548
  1
Ａ
 41
1.2
  7
EXCADSTD
100
AcDbText
  0
TEXT
  5
139
330
1F
100
AcDbEntity
  8
LAY-10
  6
CONTINUOUS
 62
     7
100
AcDbText
 10
870.7441349324138
 20
613.9055120223429
 30
0.0
 40
8.185039056584548
  1
,
 41
0.5669200000000001
  7
EXCADSTD
100
AcDbText
  0
LINE
  5
13A
330
1F
100
AcDbEntity
  8
LAY-10
  6
CONTINUOUS
 62
     7
100
AcDbLine
 10
479.4558441228008
 20
903.201010127
 30
0.0
 11
513.3969696198008
 21
937.142135624
 31
0.0
  0
LINE
  5
13B
330
1F
100
AcDbEntity
  8
LAY-10
  6
CONTINUOUS
 62
     7
100
AcDbLine
 10
513.3969696198008
 20
937.142135624
 30
0.0
 11
527.5391052435007
 21
923.0000000000001
 31
0.0
  0
LINE
  5
13C
330
1F
100
AcDbEntity
  8
LAY-10
  6
CONTINUOUS
 62
     7
100
AcDbLine
 10
527.5391052435007
 20
923.0000000000001
 30
0.0
 11
493.5979797465008
 21
889.058874503
 31
0.0
  0
LINE
  5
13D
330
1F
100
AcDbEntity
  8
LAY-10
  6
CONTINUOUS
 62
     7
100
AcDbLine
 10
479.4558441228008
 20
903.201010127
 30
0.0
 11
483.6984848099007
 21
898.9583694400001
 31
0.0
  0
LINE
  5
13E
330
1F
100
AcDbEntity
  8
LAY-10
  6
CONTINUOUS
 62
     7
100
AcDbLine
 10
493.5979797465008
 20
889.058874503
 30
0.0
 11
489.3553390594008
 21
893.3015151899999
 31
0.0
  0
LINE
  5
13F
330
1F
100
AcDbEntity
  8
LAY-10
  6
CONTINUOUS
 62
     7
100
AcDbLine
 10
513.3969696198008
 20
928.6568542489999
 30
0.0
 11
519.0538238693008
 21
923.0000000000001
 31
0.0
  0
LINE
  5
140
330
1F
100
AcDbEntity
  8
LAY-10
  6
CONTINUOUS
 62
     7
100
AcDbLine
 10
513.3969696198008
 20
928.6568542489999
 30
0.0
 11
483.6984848099007
 21
898.9583694400001
 31
0.0
  0
LINE
  5
141
330
1F
100
AcDbEntity
  8
LAY-10
  6
CONTINUOUS
 62
     7
100
AcDbLine
 10
489.3553390594008
 20
893.3015151899999
 30
0.0
 11
519.0538238693008
 21
923.0000000000001
 31
0.0
  0
LINE
  5
142
330
1F
100
AcDbEntity
  8
LAY-10
  6
CONTINUOUS
 62
     7
100
AcDbLine
 10
473.7989898733008
 20
976.7401153700001
 30
0.0
 11
507.7401153703008
 21
942.798989873
 31
0.0
  0
LINE
  5
143
330
1F
100
AcDbEntity
  8
LAY-10
  6
CONTINUOUS
 62
     7
100
AcDbLine
 10
507.7401153703008
 20
942.798989873
 30
0.0
 11
493.5979797465008
 21
928.6568542489999
 31
0.0
  0
LINE
  5
144
330
1F
100
AcDbEntity
  8
LAY-10
  6
CONTINUOUS
 62
     7
100
AcDbLine
 10
493.5979797465008
 20
928.6568542489999
 30
0.0
 11
459.6568542496007
 21
962.597979746
 31
0.0
  0
LINE
  5
145
330
1F
100
AcDbEntity
  8
LAY-10
  6
CONTINUOUS
 62
     7
100
AcDbLine
 10
473.7989898733008
 20
976.7401153700001
 30
0.0
 11
469.5563491862009
 21
972.4974746830001
 31
0.0
  0
LINE
  5
146
330
1F
100
AcDbEntity
  8
LAY-10
  6
CONTINUOUS
 62
     7
100
AcDbLine
 10
459.6568542496007
 20
962.597979746
 30
0.0
 11
463.8994949367007
 21
966.8406204339999
 31
0.0
  0
LINE
  5
147
330
1F
100
AcDbEntity
  8
LAY-10
  6
CONTINUOUS
 62
     7
100
AcDbLine
 10
499.2548339960008
 20
942.798989873
 30
0.0
 11
493.5979797465008
 21
937.142135624
 31
0.0
  0
LINE
  5
148
330
1F
100
AcDbEntity
  8
LAY-10
  6
CONTINUOUS
 62
     7
100
AcDbLine
 10
499.2548339960008
 20
942.798989873
 30
0.0
 11
469.5563491862009
 21
972.4974746830001
 31
0.0
  0
LINE
  5
149
330
1F
100
AcDbEntity
  8
LAY-10
  6
CONTINUOUS
 62
     7
100
AcDbLine
 10
463.8994949367007
 20
966.8406204339999
 30
0.0
 11
493.5979797465008
 21
937.142135624
 31
0.0
  0
LINE
  5
14A
330
1F
100
AcDbEntity
  8
LAY-10
  6
CONTINUOUS
 62
     7
100
AcDbLine
 10
527.5391052435007
 20
1002.195959493
 30
0.0
 11
493.5979797465008
 21
968.2548339959999
 31
0.0
  0
LINE
  5
14B
330
1F
100
AcDbEntity
  8
LAY-10
  6
CONTINUOUS
 62
     7
100
AcDbLine
 10
493.5979797465008
 20
968.2548339959999
 30
0.0
 11
479.4558441228008
 21
982.3969696199999
 31
0.0
  0
LINE
  5
14C
330
1F
100
AcDbEntity
  8
LAY-10
  6
CONTINUOUS
 62
     7
100
AcDbLine
 10
479.4558441228008
 20
982.3969696199999
 30
0.0
 11
513.3969696198008
 21
1016.338095117
 31
0.0
  0
LINE
  5
14D
330
1F
100
AcDbEntity
  8
LAY-10
  6
CONTINUOUS
 62
     7
100
AcDbLine
 10
513.3969696198008
 20
1016.338095117
 30
0.0
 11
517.6396103069006
 21
1012.09545443
 31
0.0
  0
LINE
  5
14E
330
1F
100
AcDbEntity
  8
LAY-10
  6
CONTINUOUS
 62
     7
100
AcDbLine
 10
493.5979797465008
 20
976.7401153700001
 30
0.0
 11
487.9411254971007
 21
982.3969696199999
 31
0.0
  0
LINE
  5
14F
330
1F
100
AcDbEntity
  8
LAY-10
  6
CONTINUOUS
 62
     7
100
AcDbLine
 10
493.5979797465008
 20
976.7401153700001
 30
0.0
 11
523.2964645564007
 21
1006.43860018
 31
0.0
  0
LINE
  5
150
330
1F
100
AcDbEntity
  8
LAY-10
  6
CONTINUOUS
 62
     7
100
AcDbLine
 10
517.6396103069006
 20
1012.09545443
 30
0.0
 11
487.9411254971007
 21
982.3969696199999
 31
0.0
  0
LINE
  5
151
330
1F
100
AcDbEntity
  8
LAY-10
  6
CONTINUOUS
 62
     7
100
AcDbLine
 10
360.6619048835007
 20
903.201010127
 30
0.0
 11
394.6030303804008
 21
937.142135624
 31
0.0
  0
LINE
  5
152
330
1F
100
AcDbEntity
  8
LAY-10
  6
CONTINUOUS
 62
     7
100
AcDbLine
 10
394.6030303804008
 20
937.142135624
 30
0.0
 11
408.7451660042007
 21
923.0000000000001
 31
0.0
  0
LINE
  5
153
330
1F
100
AcDbEntity
  8
LAY-10
  6
CONTINUOUS
 62
     7
100
AcDbLine
 10
408.7451660042007
 20
923.0000000000001
 30
0.0
 11
374.8040405072007
 21
889.058874503
 31
0.0
  0
LINE
  5
154
330
1F
100
AcDbEntity
  8
LAY-10
  6
CONTINUOUS
 62
     7
100
AcDbLine
 10
360.6619048835007
 20
903.201010127
 30
0.0
 11
364.9045455706008
 21
898.9583694400001
 31
0.0
  0
LINE
  5
155
330
1F
100
AcDbEntity
  8
LAY-10
  6
CONTINUOUS
 62
     7
100
AcDbLine
 10
374.8040405072007
 20
889.058874503
 30
0.0
 11
370.5613998201008
 21
893.3015151899999
 31
0.0
  0
LINE
  5
156
330
1F
100
AcDbEntity
  8
LAY-10
  6
CONTINUOUS
 62
     7
100
AcDbLine
 10
394.6030303804008
 20
928.6568542489999
 30
0.0
 11
400.2598846299007
 21
923.0000000000001
 31
0.0
  0
LINE
  5
157
330
1F
100
AcDbEntity
  8
LAY-10
  6
CONTINUOUS
 62
     7
100
AcDbLine
 10
394.6030303804008
 20
928.6568542489999
 30
0.0
 11
364.9045455706008
 21
898.9583694400001
 31
0.0
  0
LINE
  5
158
330
1F
100
AcDbEntity
  8
LAY-10
  6
CONTINUOUS
 62
     7
100
AcDbLine
 10
370.5613998201008
 20
893.3015151899999
 30
0.0
 11
400.2598846299007
 21
923.0000000000001
 31
0.0
  0
LINE
  5
159
330
1F
100
AcDbEntity
  8
LAY-10
  6
CONTINUOUS
 62
     7
100
AcDbLine
 10
400.2598846299007
 20
903.201010127
 30
0.0
 11
434.2010101269008
 21
937.142135624
 31
0.0
  0
LINE
  5
15A
330
1F
100
AcDbEntity
  8
LAY-10
  6
CONTINUOUS
 62
     7
100
AcDbLine
 10
434.2010101269008
 20
937.142135624
 30
0.0
 11
448.3431457506007
 21
923.0000000000001
 31
0.0
  0
LINE
  5
15B
330
1F
100
AcDbEntity
  8
LAY-10
  6
CONTINUOUS
 62
     7
100
AcDbLine
 10
448.3431457506007
 20
923.0000000000001
 30
0.0
 11
414.4020202537008
 21
889.058874503
 31
0.0
  0
LINE
  5
15C
330
1F
100
AcDbEntity
  8
LAY-10
  6
CONTINUOUS
 62
     7
100
AcDbLine
 10
400.2598846299007
 20
903.201010127
 30
0.0
 11
404.5025253170007
 21
898.9583694400001
 31
0.0
  0
LINE
  5
15D
330
1F
100
AcDbEntity
  8
LAY-10
  6
CONTINUOUS
 62
     7
100
AcDbLine
 10
414.4020202537008
 20
889.058874503
 30
0.0
 11
410.1593795665008
 21
893.3015151899999
 31
0.0
  0
LINE
  5
15E
330
1F
100
AcDbEntity
  8
LAY-10
  6
CONTINUOUS
 62
     7
100
AcDbLine
 10
434.2010101269008
 20
928.6568542489999
 30
0.0
 11
439.8578643764009
 21
923.0000000000001
 31
0.0
  0
LINE
  5
15F
330
1F
100
AcDbEntity
  8
LAY-10
  6
CONTINUOUS
 62
     7
100
AcDbLine
 10
434.2010101269008
 20
928.6568542489999
 30
0.0
 11
404.5025253170007
 21
898.9583694400001
 31
0.0
  0
LINE
  5
160
330
1F
100
AcDbEntity
  8
LAY-10
  6
CONTINUOUS
 62
     7
100
AcDbLine
 10
410.1593795665008
 20
893.3015151899999
 30
0.0
 11
439.8578643764009
 21
923.0000000000001
 31
0.0
  0
LINE
  5
161
330
1F
100
AcDbEntity
  8
LAY-10
  6
CONTINUOUS
 62
     7
100
AcDbLine
 10
414.4020202537008
 20
849.460894757
 30
0.0
 11
380.4608947567007
 21
883.402020254
 31
0.0
  0
LINE
  5
162
330
1F
100
AcDbEntity
  8
LAY-10
  6
CONTINUOUS
 62
     7
100
AcDbLine
 10
380.4608947567007
 20
883.402020254
 30
0.0
 11
394.6030303804008
 21
897.5441558770001
 31
0.0
  0
LINE
  5
163
330
1F
100
AcDbEntity
  8
LAY-10
  6
CONTINUOUS
 62
     7
100
AcDbLine
 10
394.6030303804008
 20
897.5441558770001
 30
0.0
 11
428.5441558774008
 21
863.6030303800001
 31
0.0
  0
LINE
  5
164
330
1F
100
AcDbEntity
  8
LAY-10
  6
CONTINUOUS
 62
     7
100
AcDbLine
 10
414.4020202537008
 20
849.460894757
 30
0.0
 11
418.6446609408009
 21
853.703535444
 31
0.0
  0
LINE
  5
165
330
1F
100
AcDbEntity
  8
LAY-10
  6
CONTINUOUS
 62
     7
100
AcDbLine
 10
428.5441558774008
 20
863.6030303800001
 30
0.0
 11
424.3015151903007
 21
859.360389693
 31
0.0
  0
LINE
  5
166
330
1F
100
AcDbEntity
  8
LAY-10
  6
CONTINUOUS
 62
     7
100
AcDbLine
 10
388.9461761309008
 20
883.402020254
 30
0.0
 11
394.6030303804008
 21
889.058874503
 31
0.0
  0
LINE
  5
167
330
1F
100
AcDbEntity
  8
LAY-10
  6
CONTINUOUS
 62
     7
100
AcDbLine
 10
388.9461761309008
 20
883.402020254
 30
0.0
 11
418.6446609408009
 21
853.703535444
 31
0.0
  0
LINE
  5
168
330
1F
100
AcDbEntity
  8
LAY-10
  6
CONTINUOUS
 62
     7
100
AcDbLine
 10
424.3015151903007
 20
859.360389693
 30
0.0
 11
394.6030303804008
 21
889.058874503
 31
0.0
  0
LINE
  5
169
330
1F
100
AcDbEntity
  8
LAY-10
  6
CONTINUOUS
 62
     7
100
AcDbLine
 10
454.0000000001007
 20
849.460894757
 30
0.0
 11
420.0588745031008
 21
883.402020254
 31
0.0
  0
LINE
  5
16A
330
1F
100
AcDbEntity
  8
LAY-10
  6
CONTINUOUS
 62
     7
100
AcDbLine
 10
420.0588745031008
 20
883.402020254
 30
0.0
 11
434.2010101269008
 21
897.5441558770001
 31
0.0
  0
LINE
  5
16B
330
1F
100
AcDbEntity
  8
LAY-10
  6
CONTINUOUS
 62
     7
100
AcDbLine
 10
434.2010101269008
 20
897.5441558770001
 30
0.0
 11
468.1421356238008
 21
863.6030303800001
 31
0.0
  0
LINE
  5
16C
330
1F
100
AcDbEntity
  8
LAY-10
  6
CONTINUOUS
 62
     7
100
AcDbLine
 10
454.0000000001007
 20
849.460894757
 30
0.0
 11
458.2426406872007
 21
853.703535444
 31
0.0
  0
LINE
  5
16D
330
1F
100
AcDbEntity
  8
LAY-10
  6
CONTINUOUS
 62
     7
100
AcDbLine
 10
468.1421356238008
 20
863.6030303800001
 30
0.0
 11
463.8994949367007
 21
859.360389693
 31
0.0
  0
LINE
  5
16E
330
1F
100
AcDbEntity
  8
LAY-10
  6
CONTINUOUS
 62
     7
100
AcDbLine
 10
428.5441558774008
 20
883.402020254
 30
0.0
 11
434.2010101269008
 21
889.058874503
 31
0.0
  0
LINE
  5
16F
330
1F
100
AcDbEntity
  8
LAY-10
  6
CONTINUOUS
 62
     7
100
AcDbLine
 10
428.5441558774008
 20
883.402020254
 30
0.0
 11
458.2426406872007
 21
853.703535444
 31
0.0
  0
LINE
  5
170
330
1F
100
AcDbEntity
  8
LAY-10
  6
CONTINUOUS
 62
     7
100
AcDbLine
 10
463.8994949367007
 20
859.360389693
 30
0.0
 11
434.2010101269008
 21
889.058874503
 31
0.0
  0
LINE
  5
171
330
1F
100
AcDbEntity
  8
LAY-10
  6
CONTINUOUS
 62
     7
100
AcDbLine
 10
439.8578643764009
 20
903.201010127
 30
0.0
 11
473.7989898733008
 21
937.142135624
 31
0.0
  0
LINE
  5
172
330
1F
100
AcDbEntity
  8
LAY-10
  6
CONTINUOUS
 62
     7
100
AcDbLine
 10
473.7989898733008
 20
937.142135624
 30
0.0
 11
487.9411254971007
 21
923.0000000000001
 31
0.0
  0
LINE
  5
173
330
1F
100
AcDbEntity
  8
LAY-10
  6
CONTINUOUS
 62
     7
100
AcDbLine
 10
487.9411254971007
 20
923.0000000000001
 30
0.0
 11
454.0000000001007
 21
889.058874503
 31
0.0
  0
LINE
  5
174
330
1F
100
AcDbEntity
  8
LAY-10
  6
CONTINUOUS
 62
     7
100
AcDbLine
 10
439.8578643764009
 20
903.201010127
 30
0.0
 11
444.1005050635007
 21
898.9583694400001
 31
0.0
  0
LINE
  5
175
330
1F
100
AcDbEntity
  8
LAY-10
  6
CONTINUOUS
 62
     7
100
AcDbLine
 10
454.0000000001007
 20
889.058874503
 30
0.0
 11
449.7573593130008
 21
893.3015151899999
 31
0.0
  0
LINE
  5
176
330
1F
100
AcDbEntity
  8
LAY-10
  6
CONTINUOUS
 62
     7
100
AcDbLine
 10
473.7989898733008
 20
928.6568542489999
 30
0.0
 11
479.4558441228008
 21
923.0000000000001
 31
0.0
  0
LINE
  5
177
330
1F
100
AcDbEntity
  8
LAY-10
  6
CONTINUOUS
 62
     7
100
AcDbLine
 10
473.7989898733008
 20
928.6568542489999
 30
0.0
 11
444.1005050635007
 21
898.9583694400001
 31
0.0
  0
LINE
  5
178
330
1F
100
AcDbEntity
  8
LAY-10
  6
CONTINUOUS
 62
     7
100
AcDbLine
 10
449.7573593130008
 20
893.3015151899999
 30
0.0
 11
479.4558441228008
 21
923.0000000000001
 31
0.0
  0
LINE
  5
179
330
1F
100
AcDbEntity
  8
LAY-10
  6
CONTINUOUS
 62
     7
100
AcDbLine
 10
493.5979797465008
 20
849.460894757
 30
0.0
 11
459.6568542496007
 21
883.402020254
 31
0.0
  0
LINE
  5
17A
330
1F
100
AcDbEntity
  8
LAY-10
  6
CONTINUOUS
 62
     7
100
AcDbLine
 10
459.6568542496007
 20
883.402020254
 30
0.0
 11
473.7989898733008
 21
897.5441558770001
 31
0.0
  0
LINE
  5
17B
330
1F
100
AcDbEntity
  8
LAY-10
  6
CONTINUOUS
 62
     7
100
AcDbLine
 10
473.7989898733008
 20
897.5441558770001
 30
0.0
 11
507.7401153703008
 21
863.6030303800001
 31
0.0
  0
LINE
  5
17C
330
1F
100
AcDbEntity
  8
LAY-10
  6
CONTINUOUS
 62
     7
100
AcDbLine
 10
493.5979797465008
 20
849.460894757
 30
0.0
 11
497.8406204337008
 21
853.703535444
 31
0.0
  0
LINE
  5
17D
330
1F
100
AcDbEntity
  8
LAY-10
  6
CONTINUOUS
 62
     7
100
AcDbLine
 10
507.7401153703008
 20
863.6030303800001
 30
0.0
 11
503.4974746832007
 21
859.360389693
 31
0.0
  0
LINE
  5
17E
330
1F
100
AcDbEntity
  8
LAY-10
  6
CONTINUOUS
 62
     7
100
AcDbLine
 10
468.1421356238008
 20
883.402020254
 30
0.0
 11
473.7989898733008
 21
889.058874503
 31
0.0
  0
LINE
  5
17F
330
1F
100
AcDbEntity
  8
LAY-10
  6
CONTINUOUS
 62
     7
100
AcDbLine
 10
468.1421356238008
 20
883.402020254
 30
0.0
 11
497.8406204337008
 21
853.703535444
 31
0.0
  0
LINE
  5
180
330
1F
100
AcDbEntity
  8
LAY-10
  6
CONTINUOUS
 62
     7
100
AcDbLine
 10
503.4974746832007
 20
859.360389693
 30
0.0
 11
473.7989898733008
 21
889.058874503
 31
0.0
  0
LINE
  5
181
330
1F
100
AcDbEntity
  8
LAY-10
  6
CONTINUOUS
 62
     7
100
AcDbLine
 10
434.2010101269008
 20
976.7401153700001
 30
0.0
 11
468.1421356238008
 21
942.798989873
 31
0.0
  0
LINE
  5
182
330
1F
100
AcDbEntity
  8
LAY-10
  6
CONTINUOUS
 62
     7
100
AcDbLine
 10
468.1421356238008
 20
942.798989873
 30
0.0
 11
454.0000000001007
 21
928.6568542489999
 31
0.0
  0
LINE
  5
183
330
1F
100
AcDbEntity
  8
LAY-10
  6
CONTINUOUS
 62
     7
100
AcDbLine
 10
454.0000000001007
 20
928.6568542489999
 30
0.0
 11
420.0588745031008
 21
962.597979746
 31
0.0
  0
LINE
  5
184
330
1F
100
AcDbEntity
  8
LAY-10
  6
CONTINUOUS
 62
     7
100
AcDbLine
 10
434.2010101269008
 20
976.7401153700001
 30
0.0
 11
429.9583694398007
 21
972.4974746830001
 31
0.0
  0
LINE
  5
185
330
1F
100
AcDbEntity
  8
LAY-10
  6
CONTINUOUS
 62
     7
100
AcDbLine
 10
420.0588745031008
 20
962.597979746
 30
0.0
 11
424.3015151903007
 21
966.8406204339999
 31
0.0
  0
LINE
  5
186
330
1F
100
AcDbEntity
  8
LAY-10
  6
CONTINUOUS
 62
     7
100
AcDbLine
 10
459.6568542496007
 20
942.798989873
 30
0.0
 11
454.0000000001007
 21
937.142135624
 31
0.0
  0
LINE
  5
187
330
1F
100
AcDbEntity
  8
LAY-10
  6
CONTINUOUS
 62
     7
100
AcDbLine
 10
459.6568542496007
 20
942.798989873
 30
0.0
 11
429.9583694398007
 21
972.4974746830001
 31
0.0
  0
LINE
  5
188
330
1F
100
AcDbEntity
  8
LAY-10
  6
CONTINUOUS
 62
     7
100
AcDbLine
 10
424.3015151903007
 20
966.8406204339999
 30
0.0
 11
454.0000000001007
 21
937.142135624
 31
0.0
  0
LINE
  5
189
330
1F
100
AcDbEntity
  8
LAY-10
  6
CONTINUOUS
 62
     7
100
AcDbLine
 10
394.6030303804008
 20
976.7401153700001
 30
0.0
 11
428.5441558774008
 21
942.798989873
 31
0.0
  0
LINE
  5
18A
330
1F
100
AcDbEntity
  8
LAY-10
  6
CONTINUOUS
 62
     7
100
AcDbLine
 10
428.5441558774008
 20
942.798989873
 30
0.0
 11
414.4020202537008
 21
928.6568542489999
 31
0.0
  0
LINE
  5
18B
330
1F
100
AcDbEntity
  8
LAY-10
  6
CONTINUOUS
 62
     7
100
AcDbLine
 10
414.4020202537008
 20
928.6568542489999
 30
0.0
 11
380.4608947567007
 21
962.597979746
 31
0.0
  0
LINE
  5
18C
330
1F
100
AcDbEntity
  8
LAY-10
  6
CONTINUOUS
 62
     7
100
AcDbLine
 10
394.6030303804008
 20
976.7401153700001
 30
0.0
 11
390.3603896933008
 21
972.4974746830001
 31
0.0
  0
LINE
  5
18D
330
1F
100
AcDbEntity
  8
LAY-10
  6
CONTINUOUS
 62
     7
100
AcDbLine
 10
380.4608947567007
 20
962.597979746
 30
0.0
 11
384.7035354438007
 21
966.8406204339999
 31
0.0
  0
LINE
  5
18E
330
1F
100
AcDbEntity
  8
LAY-10
  6
CONTINUOUS
 62
     7
100
AcDbLine
 10
420.0588745031008
 20
942.798989873
 30
0.0
 11
414.4020202537008
 21
937.142135624
 31
0.0
  0
LINE
  5
18F
330
1F
100
AcDbEntity
  8
LAY-10
  6
CONTINUOUS
 62
     7
100
AcDbLine
 10
420.0588745031008
 20
942.798989873
 30
0.0
 11
390.3603896933008
 21
972.4974746830001
 31
0.0
  0
LINE
  5
190
330
1F
100
AcDbEntity
  8
LAY-10
  6
CONTINUOUS
 62
     7
100
AcDbLine
 10
384.7035354438007
 20
966.8406204339999
 30
0.0
 11
414.4020202537008
 21
937.142135624
 31
0.0
  0
LINE
  5
191
330
1F
100
AcDbEntity
  8
LAY-10
  6
CONTINUOUS
 62
     7
100
AcDbLine
 10
355.0050506340008
 20
976.7401153700001
 30
0.0
 11
388.9461761309008
 21
942.798989873
 31
0.0
  0
LINE
  5
192
330
1F
100
AcDbEntity
  8
LAY-10
  6
CONTINUOUS
 62
     7
100
AcDbLine
 10
388.9461761309008
 20
942.798989873
 30
0.0
 11
374.8040405072007
 21
928.6568542489999
 31
0.0
  0
LINE
  5
193
330
1F
100
AcDbEntity
  8
LAY-10
  6
CONTINUOUS
 62
     7
100
AcDbLine
 10
374.8040405072007
 20
928.6568542489999
 30
0.0
 11
340.8629150103008
 21
962.597979746
 31
0.0
  0
LINE
  5
194
330
1F
100
AcDbEntity
  8
LAY-10
  6
CONTINUOUS
 62
     7
100
AcDbLine
 10
355.0050506340008
 20
976.7401153700001
 30
0.0
 11
350.7624099469008
 21
972.4974746830001
 31
0.0
  0
LINE
  5
195
330
1F
100
AcDbEntity
  8
LAY-10
  6
CONTINUOUS
 62
     7
100
AcDbLine
 10
340.8629150103008
 20
962.597979746
 30
0.0
 11
345.1055556974007
 21
966.8406204339999
 31
0.0
  0
LINE
  5
196
330
1F
100
AcDbEntity
  8
LAY-10
  6
CONTINUOUS
 62
     7
100
AcDbLine
 10
380.4608947567007
 20
942.798989873
 30
0.0
 11
374.8040405072007
 21
937.142135624
 31
0.0
  0
LINE
  5
197
330
1F
100
AcDbEntity
  8
LAY-10
  6
CONTINUOUS
 62
     7
100
AcDbLine
 10
380.4608947567007
 20
942.798989873
 30
0.0
 11
350.7624099469008
 21
972.4974746830001
 31
0.0
  0
LINE
  5
198
330
1F
100
AcDbEntity
  8
LAY-10
  6
CONTINUOUS
 62
     7
100
AcDbLine
 10
345.1055556974007
 20
966.8406204339999
 30
0.0
 11
374.8040405072007
 21
937.142135624
 31
0.0
  0
LINE
  5
199
330
1F
100
AcDbEntity
  8
LAY-10
  6
CONTINUOUS
 62
     7
100
AcDbLine
 10
487.9411254971007
 20
1002.195959493
 30
0.0
 11
454.0000000001007
 21
968.2548339959999
 31
0.0
  0
LINE
  5
19A
330
1F
100
AcDbEntity
  8
LAY-10
  6
CONTINUOUS
 62
     7
100
AcDbLine
 10
454.0000000001007
 20
968.2548339959999
 30
0.0
 11
439.8578643764009
 21
982.3969696199999
 31
0.0
  0
LINE
  5
19B
330
1F
100
AcDbEntity
  8
LAY-10
  6
CONTINUOUS
 62
     7
100
AcDbLine
 10
439.8578643764009
 20
982.3969696199999
 30
0.0
 11
473.7989898733008
 21
1016.338095117
 31
0.0
  0
LINE
  5
19C
330
1F
100
AcDbEntity
  8
LAY-10
  6
CONTINUOUS
 62
     7
100
AcDbLine
 10
487.9411254971007
 20
1002.195959493
 30
0.0
 11
483.6984848099007
 21
1006.43860018
 31
0.0
  0
LINE
  5
19D
330
1F
100
AcDbEntity
  8
LAY-10
  6
CONTINUOUS
 62
     7
100
AcDbLine
 10
473.7989898733008
 20
1016.338095117
 30
0.0
 11
478.0416305604007
 21
1012.09545443
 31
0.0
  0
LINE
  5
19E
330
1F
100
AcDbEntity
  8
LAY-10
  6
CONTINUOUS
 62
     7
100
AcDbLine
 10
454.0000000001007
 20
976.7401153700001
 30
0.0
 11
448.3431457506007
 21
982.3969696199999
 31
0.0
  0
LINE
  5
19F
330
1F
100
AcDbEntity
  8
LAY-10
  6
CONTINUOUS
 62
     7
100
AcDbLine
 10
454.0000000001007
 20
976.7401153700001
 30
0.0
 11
483.6984848099007
 21
1006.43860018
 31
0.0
  0
LINE
  5
1A0
330
1F
100
AcDbEntity
  8
LAY-10
  6
CONTINUOUS
 62
     7
100
AcDbLine
 10
478.0416305604007
 20
1012.09545443
 30
0.0
 11
448.3431457506007
 21
982.3969696199999
 31
0.0
  0
LINE
  5
1A1
330
1F
100
AcDbEntity
  8
LAY-10
  6
CONTINUOUS
 62
     7
100
AcDbLine
 10
448.3431457506007
 20
1002.195959493
 30
0.0
 11
414.4020202537008
 21
968.2548339959999
 31
0.0
  0
LINE
  5
1A2
330
1F
100
AcDbEntity
  8
LAY-10
  6
CONTINUOUS
 62
     7
100
AcDbLine
 10
414.4020202537008
 20
968.2548339959999
 30
0.0
 11
400.2598846299007
 21
982.3969696199999
 31
0.0
  0
LINE
  5
1A3
330
1F
100
AcDbEntity
  8
LAY-10
  6
CONTINUOUS
 62
     7
100
AcDbLine
 10
400.2598846299007
 20
982.3969696199999
 30
0.0
 11
434.2010101269008
 21
1016.338095117
 31
0.0
  0
LINE
  5
1A4
330
1F
100
AcDbEntity
  8
LAY-10
  6
CONTINUOUS
 62
     7
100
AcDbLine
 10
448.3431457506007
 20
1002.195959493
 30
0.0
 11
444.1005050635007
 21
1006.43860018
 31
0.0
  0
LINE
  5
1A5
330
1F
100
AcDbEntity
  8
LAY-10
  6
CONTINUOUS
 62
     7
100
AcDbLine
 10
434.2010101269008
 20
1016.338095117
 30
0.0
 11
438.4436508140007
 21
1012.09545443
 31
0.0
  0
LINE
  5
1A6
330
1F
100
AcDbEntity
  8
LAY-10
  6
CONTINUOUS
 62
     7
100
AcDbLine
 10
414.4020202537008
 20
976.7401153700001
 30
0.0
 11
408.7451660042007
 21
982.3969696199999
 31
0.0
  0
LINE
  5
1A7
330
1F
100
AcDbEntity
  8
LAY-10
  6
CONTINUOUS
 62
     7
100
AcDbLine
 10
414.4020202537008
 20
976.7401153700001
 30
0.0
 11
444.1005050635007
 21
1006.43860018
 31
0.0
  0
LINE
  5
1A8
330
1F
100
AcDbEntity
  8
LAY-10
  6
CONTINUOUS
 62
     7
100
AcDbLine
 10
438.4436508140007
 20
1012.09545443
 30
0.0
 11
408.7451660042007
 21
982.3969696199999
 31
0.0
  0
LINE
  5
1A9
330
1F
100
AcDbEntity
  8
LAY-10
  6
CONTINUOUS
 62
     7
100
AcDbLine
 10
408.7451660042007
 20
1002.195959493
 30
0.0
 11
374.8040405072007
 21
968.2548339959999
 31
0.0
  0
LINE
  5
1AA
330
1F
100
AcDbEntity
  8
LAY-10
  6
CONTINUOUS
 62
     7
100
AcDbLine
 10
374.8040405072007
 20
968.2548339959999
 30
0.0
 11
360.6619048835007
 21
982.3969696199999
 31
0.0
  0
LINE
  5
1AB
330
1F
100
AcDbEntity
  8
LAY-10
  6
CONTINUOUS
 62
     7
100
AcDbLine
 10
360.6619048835007
 20
982.3969696199999
 30
0.0
 11
394.6030303804008
 21
1016.338095117
 31
0.0
  0
LINE
  5
1AC
330
1F
100
AcDbEntity
  8
LAY-10
  6
CONTINUOUS
 62
     7
100
AcDbLine
 10
408.7451660042007
 20
1002.195959493
 30
0.0
 11
404.5025253170007
 21
1006.43860018
 31
0.0
  0
LINE
  5
1AD
330
1F
100
AcDbEntity
  8
LAY-10
  6
CONTINUOUS
 62
     7
100
AcDbLine
 10
394.6030303804008
 20
1016.338095117
 30
0.0
 11
398.8456710675007
 21
1012.09545443
 31
0.0
  0
LINE
  5
1AE
330
1F
100
AcDbEntity
  8
LAY-10
  6
CONTINUOUS
 62
     7
100
AcDbLine
 10
374.8040405072007
 20
976.7401153700001
 30
0.0
 11
369.1471862577008
 21
982.3969696199999
 31
0.0
  0
LINE
  5
1AF
330
1F
100
AcDbEntity
  8
LAY-10
  6
CONTINUOUS
 62
     7
100
AcDbLine
 10
374.8040405072007
 20
976.7401153700001
 30
0.0
 11
404.5025253170007
 21
1006.43860018
 31
0.0
  0
LINE
  5
1B0
330
1F
100
AcDbEntity
  8
LAY-10
  6
CONTINUOUS
 62
     7
100
AcDbLine
 10
398.8456710675007
 20
1012.09545443
 30
0.0
 11
369.1471862577008
 21
982.3969696199999
 31
0.0
  0
LINE
  5
1B1
330
1F
100
AcDbEntity
  8
LAY-10
  6
CONTINUOUS
 62
     7
100
AcDbLine
 10
527.5391052435007
 20
1002.195959493
 30
0.0
 11
523.2964645564007
 21
1006.43860018
 31
0.0
  0
LINE
  5
1B2
330
1F
100
AcDbEntity
  8
LAY-10
  6
CONTINUOUS
 62
     7
100
AcDbLine
 10
484.6393039346009
 20
829.438293808
 30
0.0
 11
437.9702563763007
 21
782.7692462489998
 31
0.0
  0
LINE
  5
1B3
330
1F
100
AcDbEntity
  8
LAY-10
  6
CONTINUOUS
 62
     7
100
AcDbLine
 10
437.9702563763007
 20
782.7692462489998
 30
0.0
 11
457.7692462495007
 21
762.970256376
 31
0.0
  0
LINE
  5
1B4
330
1F
100
AcDbEntity
  8
LAY-10
  6
CONTINUOUS
 62
     7
100
AcDbLine
 10
457.7692462495007
 20
762.970256376
 30
0.0
 11
504.4382938078007
 21
809.639303934
 31
0.0
  0
LINE
  5
1B5
330
1F
100
AcDbEntity
  8
LAY-10
  6
CONTINUOUS
 62
     7
100
AcDbLine
 10
484.6393039346009
 20
829.438293808
 30
0.0
 11
504.4382938078007
 21
809.639303934
 31
0.0
  0
LINE
  5
1B6
330
1F
100
AcDbEntity
  8
LAY-10
  6
CONTINUOUS
 62
     7
100
AcDbLine
 10
461.3047801554007
 20
766.5057902819999
 30
0.0
 11
441.5057902822008
 21
786.3047801549999
 31
0.0
  0
LINE
  5
1B7
330
1F
100
AcDbEntity
  8
LAY-10
  6
CONTINUOUS
 62
     7
100
AcDbLine
 10
477.5682361227007
 20
782.7692462489998
 30
0.0
 11
457.7692462495007
 21
802.5682361229999
 31
0.0
  0
LINE
  5
1B8
330
1F
100
AcDbEntity
  8
LAY-10
  6
CONTINUOUS
 62
     7
100
AcDbLine
 10
484.6393039346009
 20
789.8403140610001
 30
0.0
 11
464.8403140613007
 21
809.639303934
 31
0.0
  0
LINE
  5
1B9
330
1F
100
AcDbEntity
  8
LAY-10
  6
CONTINUOUS
 62
     7
100
AcDbLine
 10
500.9027599019007
 20
806.1037700290001
 30
0.0
 11
481.1037700286008
 21
825.9027599020001
 31
0.0
  0
LINE
  5
1BA
330
1F
100
AcDbEntity
  8
LAY-10
  6
CONTINUOUS
 62
     7
100
AcDbLine
 10
745.5617061920007
 20
809.639303934
 30
0.0
 11
792.2307537510007
 21
762.970256376
 31
0.0
  0
LINE
  5
1BB
330
1F
100
AcDbEntity
  8
LAY-10
  6
CONTINUOUS
 62
     7
100
AcDbLine
 10
792.2307537510007
 20
762.970256376
 30
0.0
 11
812.0297436240008
 21
782.7692462489998
 31
0.0
  0
LINE
  5
1BC
330
1F
100
AcDbEntity
  8
LAY-10
  6
CONTINUOUS
 62
     7
100
AcDbLine
 10
812.0297436240008
 20
782.7692462489998
 30
0.0
 11
765.3606960660009
 21
829.438293808
 31
0.0
  0
LINE
  5
1BD
330
1F
100
AcDbEntity
  8
LAY-10
  6
CONTINUOUS
 62
     7
100
AcDbLine
 10
745.5617061920007
 20
809.639303934
 30
0.0
 11
765.3606960660009
 21
829.438293808
 31
0.0
  0
LINE
  5
1BE
330
1F
100
AcDbEntity
  8
LAY-10
  6
CONTINUOUS
 62
     7
100
AcDbLine
 10
808.4942097180008
 20
786.3047801549999
 30
0.0
 11
788.6952198450008
 21
766.5057902819999
 31
0.0
  0
LINE
  5
1BF
330
1F
100
AcDbEntity
  8
LAY-10
  6
CONTINUOUS
 62
     7
100
AcDbLine
 10
792.2307537510007
 20
802.5682361229999
 30
0.0
 11
772.4317638770009
 21
782.7692462489998
 31
0.0
  0
LINE
  5
1C0
330
1F
100
AcDbEntity
  8
LAY-10
  6
CONTINUOUS
 62
     7
100
AcDbLine
 10
785.1596859390008
 20
809.639303934
 30
0.0
 11
765.3606960660009
 21
789.8403140610001
 31
0.0
  0
LINE
  5
1C1
330
1F
100
AcDbEntity
  8
LAY-10
  6
CONTINUOUS
 62
     7
100
AcDbLine
 10
768.8962299720009
 20
825.9027599020001
 30
0.0
 11
749.0972400980008
 21
806.1037700290001
 31
0.0
  0
LINE
  5
1C2
330
1F
100
AcDbEntity
  8
LAY-10
  6
CONTINUOUS
 62
     7
100
AcDbLine
 10
765.3606960660009
 20
1070.561706192
 30
0.0
 11
812.0297436240008
 21
1117.230753751
 31
0.0
  0
LINE
  5
1C3
330
1F
100
AcDbEntity
  8
LAY-10
  6
CONTINUOUS
 62
     7
100
AcDbLine
 10
812.0297436240008
 20
1117.230753751
 30
0.0
 11
792.2307537510007
 21
1137.029743624
 31
0.0
  0
LINE
  5
1C4
330
1F
100
AcDbEntity
  8
LAY-10
  6
CONTINUOUS
 62
     7
100
AcDbLine
 10
792.2307537510007
 20
1137.029743624
 30
0.0
 11
745.5617061920007
 21
1090.360696066
 31
0.0
  0
LINE
  5
1C5
330
1F
100
AcDbEntity
  8
LAY-10
  6
CONTINUOUS
 62
     7
100
AcDbLine
 10
765.3606960660009
 20
1070.561706192
 30
0.0
 11
745.5617061920007
 21
1090.360696066
 31
0.0
  0
LINE
  5
1C6
330
1F
100
AcDbEntity
  8
LAY-10
  6
CONTINUOUS
 62
     7
100
AcDbLine
 10
788.6952198450008
 20
1133.494209718
 30
0.0
 11
808.4942097180008
 21
1113.695219845
 31
0.0
  0
LINE
  5
1C7
330
1F
100
AcDbEntity
  8
LAY-10
  6
CONTINUOUS
 62
     7
100
AcDbLine
 10
772.4317638770009
 20
1117.230753751
 30
0.0
 11
792.2307537510007
 21
1097.431763877
 31
0.0
  0
LINE
  5
1C8
330
1F
100
AcDbEntity
  8
LAY-10
  6
CONTINUOUS
 62
     7
100
AcDbLine
 10
765.3606960660009
 20
1110.159685939
 30
0.0
 11
785.1596859390008
 21
1090.360696066
 31
0.0
  0
LINE
  5
1C9
330
1F
100
AcDbEntity
  8
LAY-10
  6
CONTINUOUS
 62
     7
100
AcDbLine
 10
749.0972400980008
 20
1093.896229971
 30
0.0
 11
768.8962299720009
 21
1074.097240098
 31
0.0
  0
LINE
  5
1CA
330
1F
100
AcDbEntity
  8
LAY-10
  6
CONTINUOUS
 62
     7
100
AcDbLine
 10
504.4382938078007
 20
1090.360696066
 30
0.0
 11
457.7692462495007
 21
1137.029743624
 31
0.0
  0
LINE
  5
1CB
330
1F
100
AcDbEntity
  8
LAY-10
  6
CONTINUOUS
 62
     7
100
AcDbLine
 10
457.7692462495007
 20
1137.029743624
 30
0.0
 11
437.9702563763007
 21
1117.230753751
 31
0.0
  0
LINE
  5
1CC
330
1F
100
AcDbEntity
  8
LAY-10
  6
CONTINUOUS
 62
     7
100
AcDbLine
 10
437.9702563763007
 20
1117.230753751
 30
0.0
 11
484.6393039346009
 21
1070.561706192
 31
0.0
  0
LINE
  5
1CD
330
1F
100
AcDbEntity
  8
LAY-10
  6
CONTINUOUS
 62
     7
100
AcDbLine
 10
504.4382938078007
 20
1090.360696066
 30
0.0
 11
484.6393039346009
 21
1070.561706192
 31
0.0
  0
LINE
  5
1CE
330
1F
100
AcDbEntity
  8
LAY-10
  6
CONTINUOUS
 62
     7
100
AcDbLine
 10
441.5057902822008
 20
1113.695219845
 30
0.0
 11
461.3047801554007
 21
1133.494209718
 31
0.0
  0
LINE
  5
1CF
330
1F
100
AcDbEntity
  8
LAY-10
  6
CONTINUOUS
 62
     7
100
AcDbLine
 10
457.7692462495007
 20
1097.431763877
 30
0.0
 11
477.5682361227007
 21
1117.230753751
 31
0.0
  0
LINE
  5
1D0
330
1F
100
AcDbEntity
  8
LAY-10
  6
CONTINUOUS
 62
     7
100
AcDbLine
 10
464.8403140613007
 20
1090.360696066
 30
0.0
 11
484.6393039346009
 21
1110.159685939
 31
0.0
  0
LINE
  5
1D1
330
1F
100
AcDbEntity
  8
LAY-10
  6
CONTINUOUS
 62
     7
100
AcDbLine
 10
481.1037700286008
 20
1074.097240098
 30
0.0
 11
500.9027599019007
 21
1093.896229971
 31
0.0
  0
LINE
  5
1D2
330
1F
100
AcDbEntity
  8
LAY-10
  6
CONTINUOUS
 62
     7
100
AcDbLine
 10
660.8039161210008
 20
1244.613600243
 30
0.0
 11
662.2973027730009
 21
1242.899329604
 31
0.0
  0
LINE
  5
1D3
330
1F
100
AcDbEntity
  8
LAY-10
  6
CONTINUOUS
 62
     7
100
AcDbLine
 10
684.3552505830007
 20
1241.275458401
 30
0.0
 11
682.2166287110008
 21
1244.64769009
 31
0.0
  0
LINE
  5
1D4
330
1F
100
AcDbEntity
  8
LAY-10
  6
CONTINUOUS
 62
     7
100
AcDbLine
 10
684.8160832980006
 20
1247.65885214
 30
0.0
 11
682.2166287110008
 21
1244.64769009
 31
0.0
  0
LINE
  5
1D5
330
1F
100
AcDbEntity
  8
LAY-10
  6
CONTINUOUS
 62
     7
100
AcDbLine
 10
661.0265494200007
 20
1247.805870089
 30
0.0
 11
662.7548792090008
 21
1249.282963064
 31
0.0
  0
LINE
  5
1D6
330
1F
100
AcDbEntity
  8
LAY-10
  6
CONTINUOUS
 62
     7
100
AcDbLine
 10
646.2381532170006
 20
1244.081578774
 30
0.0
 11
646.3015934650006
 21
1245.681238282
 31
0.0
  0
LINE
  5
1D7
330
1F
100
AcDbEntity
  8
LAY-10
  6
CONTINUOUS
 62
     7
100
AcDbLine
 10
646.4284739620007
 20
1248.880557297
 30
0.0
 11
646.4919142110007
 21
1250.480216805
 31
0.0
  0
LINE
  5
1D8
330
1F
100
AcDbEntity
  8
LAY-10
  6
CONTINUOUS
 62
     7
100
AcDbLine
 10
661.0265494200007
 20
1247.805870089
 30
0.0
 11
646.4284739620007
 21
1248.880557297
 31
0.0
  0
LINE
  5
1D9
330
1F
100
AcDbEntity
  8
LAY-10
  6
CONTINUOUS
 62
     7
100
AcDbLine
 10
646.3015934650006
 20
1245.681238282
 30
0.0
 11
660.8039161210008
 21
1244.613600243
 31
0.0
  0
LINE
  5
1DA
330
1F
100
AcDbEntity
  8
LAY-10
  6
CONTINUOUS
 62
     7
100
AcDbLine
 10
662.7548792090008
 20
1249.282963064
 30
0.0
 11
684.8160832980006
 21
1247.65885214
 31
0.0
  0
LINE
  5
1DB
330
1F
100
AcDbEntity
  8
LAY-10
  6
CONTINUOUS
 62
     7
100
AcDbLine
 10
662.2973027730009
 20
1242.899329604
 30
0.0
 11
684.3552505830007
 21
1241.275458401
 31
0.0
  0
LINE
  5
1DC
330
1F
100
AcDbEntity
  8
LAY-10
  6
CONTINUOUS
 62
     7
100
AcDbLine
 10
639.9786484270007
 20
1247.751053365
 30
0.0
 11
646.4919142110007
 21
1250.480216805
 31
0.0
  0
LINE
  5
1DD
330
1F
100
AcDbEntity
  8
LAY-10
  6
CONTINUOUS
 62
     7
100
AcDbLine
 10
646.2381532170006
 20
1244.081578774
 30
0.0
 11
639.9786484270007
 21
1247.751053365
 31
0.0
  0
LINE
  5
1DE
330
1F
100
AcDbEntity
  8
LAY-10
  6
CONTINUOUS
 62
     7
100
AcDbLine
 10
617.5000000000007
 20
1243.209618943
 30
0.0
 11
632.5000000000007
 21
1243.209618943
 31
0.0
  0
LINE
  5
1DF
330
1F
100
AcDbEntity
  8
LAY-10
  6
CONTINUOUS
 62
     7
100
AcDbLine
 10
625.0000000000007
 20
1256.2
 30
0.0
 11
617.5000000000007
 21
1243.209618943
 31
0.0
  0
LINE
  5
1E0
330
1F
100
AcDbEntity
  8
LAY-10
  6
CONTINUOUS
 62
     7
100
AcDbLine
 10
625.0000000000007
 20
1256.2
 30
0.0
 11
632.5000000000007
 21
1243.209618943
 31
0.0
  0
TEXT
  5
1E1
330
1F
100
AcDbEntity
  8
LAY-10
  6
CONTINUOUS
 62
     7
100
AcDbText
 10
403.4247460767072
 20
757.6866448925213
 30
0.0
 40
9.3543312
  1
Ｐ
 50
309.9097269969
 41
1.2
  7
EXCADSTD
100
AcDbText
  0
TEXT
  5
1E2
330
1F
100
AcDbEntity
  8
LAY-10
  6
CONTINUOUS
 62
     7
100
AcDbText
 10
411.2686743674294
 20
749.0050391717772
 30
0.0
 40
9.3543312
  1
Ａ
 50
314.3957932338002
 41
1.2
  7
EXCADSTD
100
AcDbText
  0
TEXT
  5
1E3
330
1F
100
AcDbEntity
  8
LAY-10
  6
CONTINUOUS
 62
     7
100
AcDbText
 10
419.4963477623254
 20
740.6001366956741
 30
0.0
 40
9.3543312
  1
Ｔ
 50
316.6928388601001
 41
1.2
  7
EXCADSTD
100
AcDbText
  0
TEXT
  5
1E4
330
1F
100
AcDbEntity
  8
LAY-10
  6
CONTINUOUS
 62
     7
100
AcDbText
 10
428.0542806827751
 20
732.5317552437511
 30
0.0
 40
9.3543312
  1
Ｅ
 50
318.9898844864001
 41
1.2
  7
EXCADSTD
100
AcDbText
  0
TEXT
  5
1E5
330
1F
100
AcDbEntity
  8
LAY-10
  6
CONTINUOUS
 62
     7
100
AcDbText
 10
436.9287198995082
 20
724.8128612989057
 30
0.0
 40
9.3543312
  1
Ｎ
 50
321.2869301127002
 41
1.2
  7
EXCADSTD
100
AcDbText
  0
TEXT
  5
1E6
330
1F
100
AcDbEntity
  8
LAY-10
  6
CONTINUOUS
 62
     7
100
AcDbText
 10
446.1054035340127
 20
717.4558596955188
 30
0.0
 40
9.3543312
  1
Ｔ
 50
323.5839757390002
 41
1.2
  7
EXCADSTD
100
AcDbText
  0
TEXT
  5
1E7
330
1F
100
AcDbEntity
  8
LAY-10
  6
CONTINUOUS
 62
     7
100
AcDbText
 10
485.5328470349318
 20
691.874125515358
 30
0.0
 40
9.3543312
  1
Ｆ
 50
332.7721582441
 41
1.2
  7
EXCADSTD
100
AcDbText
  0
TEXT
  5
1E8
330
1F
100
AcDbEntity
  8
LAY-10
  6
CONTINUOUS
 62
     7
100
AcDbText
 10
495.990668900155
 20
686.4916579616072
 30
0.0
 40
9.3543312
  1
Ｕ
 50
335.0692038704001
 41
1.2
  7
EXCADSTD
100
AcDbText
  0
TEXT
  5
1E9
330
1F
100
AcDbEntity
  8
LAY-10
  6
CONTINUOUS
 62
     7
100
AcDbText
 10
506.6558182752024
 20
681.5326677479387
 30
0.0
 40
9.3543312
  1
Ｋ
 50
337.3662494967002
 41
1.2
  7
EXCADSTD
100
AcDbText
  0
TEXT
  5
1EA
330
1F
100
AcDbEntity
  8
LAY-10
  6
CONTINUOUS
 62
     7
100
AcDbText
 10
517.5111554784147
 20
677.005124336489
 30
0.0
 40
9.3543312
  1
Ｕ
 50
339.663295123
 41
1.2
  7
EXCADSTD
100
AcDbText
  0
TEXT
  5
1EB
330
1F
100
AcDbEntity
  8
LAY-10
  6
CONTINUOUS
 62
     7
100
AcDbText
 10
528.5392351823657
 20
672.916303825454
 30
0.0
 40
9.3543312
  1
Ｎ
 50
341.9603407492002
 41
1.2
  7
EXCADSTD
100
AcDbText
  0
TEXT
  5
1EC
330
1F
100
AcDbEntity
  8
LAY-10
  6
CONTINUOUS
 62
     7
100
AcDbText
 10
539.7223344496003
 20
669.2727772500053
 30
0.0
 40
9.3543312
  1
Ｉ
 50
344.2573863755001
 41
1.2
  7
EXCADSTD
100
AcDbText
  0
TEXT
  5
1ED
330
1F
100
AcDbEntity
  8
LAY-10
  6
CONTINUOUS
 62
     7
100
AcDbText
 10
551.0424812148789
 20
666.0804000249451
 30
0.0
 40
9.3543312
  1
Ｓ
 50
346.5544320018
 41
1.2
  7
EXCADSTD
100
AcDbText
  0
TEXT
  5
1EE
330
1F
100
AcDbEntity
  8
LAY-10
  6
CONTINUOUS
 62
     7
100
AcDbText
 10
562.4814831673345
 20
663.3443025370328
 30
0.0
 40
9.3543312
  1
Ｈ
 50
348.8514776281003
 41
1.2
  7
EXCADSTD
100
AcDbText
  0
TEXT
  5
1EF
330
1F
100
AcDbEntity
  8
LAY-10
  6
CONTINUOUS
 62
     7
100
AcDbText
 10
574.0209569872309
 20
661.0688818968883
 30
0.0
 40
9.3543312
  1
Ｉ
 50
351.1485232544001
 41
1.2
  7
EXCADSTD
100
AcDbText
  0
TEXT
  5
1F0
330
1F
100
AcDbEntity
  8
LAY-10
  6
CONTINUOUS
 62
     7
100
AcDbText
 10
597.3270094247089
 20
657.9139520146654
 30
0.0
 40
9.3543312
  1
Ｆ
 50
355.7426145069003
 41
1.2
  7
EXCADSTD
100
AcDbText
  0
TEXT
  5
1F1
330
1F
100
AcDbEntity
  8
LAY-10
  6
CONTINUOUS
 62
     7
100
AcDbText
 10
609.056133497148
 20
657.0395129781614
 30
0.0
 40
9.3543312
  1
Ｏ
 50
358.0396601332002
 41
1.2
  7
EXCADSTD
100
AcDbText
  0
TEXT
  5
1F2
330
1F
100
AcDbEntity
  8
LAY-10
  6
CONTINUOUS
 62
     7
100
AcDbText
 10
620.8108805383698
 20
656.6358830515336
 30
0.0
 40
9.3543312
  1
Ｕ
 50
0.3367057595018235
 41
1.2
  7
EXCADSTD
100
AcDbText
  0
TEXT
  5
1F3
330
1F
100
AcDbEntity
  8
LAY-10
  6
CONTINUOUS
 62
     7
100
AcDbText
 10
632.572359803669
 20
656.7037108965544
 30
0.0
 40
9.3543312
  1
Ｎ
 50
2.633751385779979
 41
1.2
  7
EXCADSTD
100
AcDbText
  0
TEXT
  5
1F4
330
1F
100
AcDbEntity
  8
LAY-10
  6
CONTINUOUS
 62
     7
100
AcDbText
 10
644.3216697289586
 20
657.2428875094928
 30
0.0
 40
9.3543312
  1
Ｄ
 50
4.930797012069996
 41
1.2
  7
EXCADSTD
100
AcDbText
  0
TEXT
  5
1F5
330
1F
100
AcDbEntity
  8
LAY-10
  6
CONTINUOUS
 62
     7
100
AcDbText
 10
656.0399283055208
 20
658.2525463938027
 30
0.0
 40
9.3543312
  1
Ｒ
 50
7.227842638349984
 41
1.2
  7
EXCADSTD
100
AcDbText
  0
TEXT
  5
1F6
330
1F
100
AcDbEntity
  8
LAY-10
  6
CONTINUOUS
 62
     7
100
AcDbText
 10
667.7083034280577
 20
659.7310649531529
 30
0.0
 40
9.3543312
  1
Ｙ
 50
9.524888264629974
 41
1.2
  7
EXCADSTD
100
AcDbText
  0
TEXT
  5
1F7
330
1F
100
AcDbEntity
  8
LAY-10
  6
CONTINUOUS
 62
     7
100
AcDbText
 10
690.8205058555611
 20
664.0844270704307
 30
0.0
 40
9.3543312
  1
Ｃ
 50
14.11897951719998
 41
1.2
  7
EXCADSTD
100
AcDbText
  0
TEXT
  5
1F8
330
1F
100
AcDbEntity
  8
LAY-10
  6
CONTINUOUS
 62
     7
100
AcDbText
 10
702.2271901461281
 20
666.9522744532211
 30
0.0
 40
9.3543312
  1
Ｏ
 50
16.41602514348003
 41
1.2
  7
EXCADSTD
100
AcDbText
  0
TEXT
  5
1F9
330
1F
100
AcDbEntity
  8
LAY-10
  6
CONTINUOUS
 62
     7
100
AcDbText
 10
714.3152479331646
 20
670.5478462797244
 30
0.0
 40
9.3543312
  1
.,
 50
18.71307076976002
 41
0.626768
  7
EXCADSTD
100
AcDbText
  0
TEXT
  5
1FA
330
1F
100
AcDbEntity
  8
LAY-10
  6
CONTINUOUS
 62
     7
100
AcDbText
 10
724.6500974282222
 20
674.0472650666218
 30
0.0
 40
9.3543312
  1
Ｌ
 50
21.01011639604998
 41
1.2
  7
EXCADSTD
100
AcDbText
  0
TEXT
  5
1FB
330
1F
100
AcDbEntity
  8
LAY-10
  6
CONTINUOUS
 62
     7
100
AcDbText
 10
735.630285153625
 20
678.2630061223208
 30
0.0
 40
9.3543312
  1
Ｔ
 50
23.30716202233002
 41
1.2
  7
EXCADSTD
100
AcDbText
  0
TEXT
  5
1FC
330
1F
100
AcDbEntity
  8
LAY-10
  6
CONTINUOUS
 62
     7
100
AcDbText
 10
746.4326818511299
 20
682.9154485686788
 30
0.0
 40
9.3543312
  1
Ｄ
 50
25.60420764861998
 41
1.2
  7
EXCADSTD
100
AcDbText
  0
TEXT
  5
1FD
330
1F
100
AcDbEntity
  8
LAY-10
  6
CONTINUOUS
 62
     7
100
AcDbText
 10
757.0399272738637
 20
687.9971155876616
 30
0.0
 40
9.3543312
  1
．
 50
27.90125327490004
 41
1.2
  7
EXCADSTD
100
AcDbText
  0
TEXT
  5
1FE
330
1F
100
AcDbEntity
  8
LAY-10
  6
CONTINUOUS
 62
     7
100
AcDbText
 10
775.9531718869662
 20
698.4185652229452
 30
0.0
 40
9.3543312
  1
Ｓ
 50
32.19160514577002
 41
1.2
  7
EXCADSTD
100
AcDbText
  0
TEXT
  5
1FF
330
1F
100
AcDbEntity
  8
LAY-10
  6
CONTINUOUS
 62
     7
100
AcDbText
 10
786.5307358881339
 20
705.0757264164163
 30
0.0
 40
9.3543312
  1
Ｆ
 50
34.63249596374998
 41
1.2
  7
EXCADSTD
100
AcDbText
  0
TEXT
  5
200
330
1F
100
AcDbEntity
  8
LAY-10
  6
CONTINUOUS
 62
     7
100
AcDbText
 10
796.8151829412969
 20
712.1773321615269
 30
0.0
 40
9.3543312
  1
－
 50
37.07338678173999
 41
1.2
  7
EXCADSTD
100
AcDbText
  0
TEXT
  5
201
330
1F
100
AcDbEntity
  8
LAY-10
  6
CONTINUOUS
 62
     7
100
AcDbText
 10
806.7878506804303
 20
719.7104957405721
 30
0.0
 40
9.3543312
  1
６
 50
39.51427759972
 41
1.2
  7
EXCADSTD
100
AcDbText
  0
TEXT
  5
202
330
1F
100
AcDbEntity
  8
LAY-10
  6
CONTINUOUS
 62
     7
100
AcDbText
 10
816.4306425009204
 20
727.6615473229878
 30
0.0
 40
9.3543312
  1
０
 50
41.95516841770002
 41
1.2
  7
EXCADSTD
100
AcDbText
  0
TEXT
  5
203
330
1F
100
AcDbEntity
  8
LAY-10
  6
CONTINUOUS
 62
     7
100
AcDbText
 10
825.7260603957294
 20
736.0160587687236
 30
0.0
 40
9.3543312
  1
Ｍ
 50
44.39605923568
 41
1.2
  7
EXCADSTD
100
AcDbText
  0
TEXT
  5
204
330
1F
100
AcDbEntity
  8
LAY-10
  6
CONTINUOUS
 62
     7
100
AcDbText
 10
834.6572367126657
 20
744.758869812213
 30
0.0
 40
9.3543312
  1
Ａ
 50
46.83695005366001
 41
1.2
  7
EXCADSTD
100
AcDbText
  0
TEXT
  5
205
330
1F
100
AcDbEntity
  8
LAY-10
  6
CONTINUOUS
 62
     7
100
AcDbText
 10
568.2571066131916
 20
1239.089860768436
 30
0.0
 40
9.3543312
  1
Ｏ
 50
10.02759972924998
 41
1.2
  7
EXCADSTD
100
AcDbText
  0
TEXT
  5
206
330
1F
100
AcDbEntity
  8
LAY-10
  6
CONTINUOUS
 62
     7
100
AcDbText
 10
579.225924404531
 20
1241.028241847225
 30
0.0
 40
9.3543312
  1
Ｐ
 50
7.861171601090014
 41
1.2
  7
EXCADSTD
100
AcDbText
  0
TEXT
  5
207
330
1F
100
AcDbEntity
  8
LAY-10
  6
CONTINUOUS
 62
     7
100
AcDbText
 10
590.2601773526123
 20
1242.55059096082
 30
0.0
 40
9.3543312
  1
Ｅ
 50
5.694743472929994
 41
1.2
  7
EXCADSTD
100
AcDbText
  0
TEXT
  5
208
330
1F
100
AcDbEntity
  8
LAY-10
  6
CONTINUOUS
 62
     7
100
AcDbText
 10
601.3440917231903
 20
1243.654731874697
 30
0.0
 40
9.3543312
  1
Ｎ
 50
3.528315344769978
 41
1.2
  7
EXCADSTD
100
AcDbText
  0
LINE
  5
209
330
1F
100
AcDbEntity
  8
LAY-10
  6
CONTINUOUS
 62
     7
100
AcDbLine
 10
861.2094562800007
 20
1193.37919707
 30
0.0
 11
868.3791970710008
 21
1186.20945628
 31
0.0
  0
LINE
  5
20A
330
1F
100
AcDbEntity
  8
LAY-10
  6
CONTINUOUS
 62
     7
100
AcDbLine
 10
381.6208029296008
 20
1186.20945628
 30
0.0
 11
388.7905437202008
 21
1193.37919707
 31
0.0
  0
LINE
  5
20B
330
1F
100
AcDbEntity
  8
LAY-10
  6
CONTINUOUS
 62
     7
100
AcDbLine
 10
388.7905437202008
 20
706.6208029300001
 30
0.0
 11
381.6208029296008
 21
713.79054372
 31
0.0
  0
LINE
  5
20C
330
1F
100
AcDbEntity
  8
LAY-10
  6
CONTINUOUS
 62
     7
100
AcDbLine
 10
868.3791970710008
 20
713.79054372
 30
0.0
 11
861.2094562800007
 21
706.6208029300001
 31
0.0
  0
ARC
  5
20D
330
1F
100
AcDbEntity
  8
LAY-10
  6
CONTINUOUS
 62
     7
100
AcDbCircle
 10
625.0000000000007
 20
950.0
 30
0.0
 40
334.1203889642
100
AcDbArc
 50
180.0
 51
224.1426453161999
  0
ARC
  5
20E
330
1F
100
AcDbEntity
  8
LAY-10
  6
CONTINUOUS
 62
     7
100
AcDbCircle
 10
625.0000000000007
 20
950.0
 30
0.0
 40
334.1203889642
100
AcDbArc
 50
225.8573546838
 51
270.0
  0
ARC
  5
20F
330
1F
100
AcDbEntity
  8
LAY-10
  6
CONTINUOUS
 62
     7
100
AcDbCircle
 10
625.0000000000007
 20
950.0
 30
0.0
 40
334.1203889642
100
AcDbArc
 50
270.0
 51
314.1426453162002
  0
ARC
  5
210
330
1F
100
AcDbEntity
  8
LAY-10
  6
CONTINUOUS
 62
     7
100
AcDbCircle
 10
625.0000000000007
 20
950.0
 30
0.0
 40
334.1203889642
100
AcDbArc
 50
315.8573546838001
 51
0.0
  0
ARC
  5
211
330
1F
100
AcDbEntity
  8
LAY-10
  6
CONTINUOUS
 62
     7
100
AcDbCircle
 10
625.0000000000007
 20
950.0
 30
0.0
 40
334.1203889642
100
AcDbArc
 50
0.0
 51
44.14264531615994
  0
ARC
  5
212
330
1F
100
AcDbEntity
  8
LAY-10
  6
CONTINUOUS
 62
     7
100
AcDbCircle
 10
625.0000000000007
 20
950.0
 30
0.0
 40
334.1203889642
100
AcDbArc
 50
45.85735468383987
 51
90.0
  0
ARC
  5
213
330
1F
100
AcDbEntity
  8
LAY-10
  6
CONTINUOUS
 62
     7
100
AcDbCircle
 10
625.0000000000007
 20
950.0
 30
0.0
 40
334.1203889642
100
AcDbArc
 50
90.0
 51
134.1426453161999
  0
ARC
  5
214
330
1F
100
AcDbEntity
  8
LAY-10
  6
CONTINUOUS
 62
     7
100
AcDbCircle
 10
625.0000000000007
 20
950.0
 30
0.0
 40
334.1203889642
100
AcDbArc
 50
135.8573546837999
 51
180.0
  0
CIRCLE
  5
215
330
1F
100
AcDbEntity
  8
LAY-10
  6
CONTINUOUS
 62
     7
100
AcDbCircle
 10
625.0000000000007
 20
1181.5
 30
0.0
 40
12.5
  0
CIRCLE
  5
216
330
1F
100
AcDbEntity
  8
LAY-10
  6
CONTINUOUS
 62
     7
100
AcDbCircle
 10
625.0000000000007
 20
1181.5
 30
0.0
 40
13.0
  0
CIRCLE
  5
217
330
1F
100
AcDbEntity
  8
LAY-10
  6
CONTINUOUS
 62
     7
100
AcDbCircle
 10
625.0000000000007
 20
1181.5
 30
0.0
 40
16.0
  0
LINE
  5
218
330
1F
100
AcDbEntity
  8
LAY-10
  6
CONTINUOUS
 62
     7
100
AcDbLine
 10
637.3389626790007
 20
1183.5
 30
0.0
 11
612.6610373210008
 21
1183.5
 31
0.0
  0
LINE
  5
219
330
1F
100
AcDbEntity
  8
LAY-10
  6
CONTINUOUS
 62
     7
100
AcDbLine
 10
612.6610373210008
 20
1179.5
 30
0.0
 11
637.3389626790007
 21
1179.5
 31
0.0
  0
LINE
  5
21A
330
1F
100
AcDbEntity
  8
LAY-10
  6
CONTINUOUS
 62
     7
100
AcDbLine
 10
956.5000000000006
 20
394.4405620000003
 30
0.0
 11
945.0000000000008
 21
394.4405620000003
 31
0.0
  0
LINE
  5
21B
330
1F
100
AcDbEntity
  8
LAY-10
  6
CONTINUOUS
 62
     7
100
AcDbLine
 10
963.8652120000008
 20
344.4405620000003
 30
0.0
 11
1086.792451000001
 21
344.4405620000003
 31
0.0
  0
LINE
  5
21C
330
1F
100
AcDbEntity
  8
LAY-10
  6
CONTINUOUS
 62
     7
100
AcDbLine
 10
956.5000000000006
 20
394.4405620000003
 30
0.0
 11
958.8720650000007
 21
349.1788820000003
 31
0.0
  0
LINE
  5
21D
330
1F
100
AcDbEntity
  8
LAY-10
  6
CONTINUOUS
 62
     7
100
AcDbLine
 10
957.0240780000008
 20
384.4405620000003
 30
0.0
 11
961.5000000000006
 21
384.4405620000003
 31
0.0
  0
LINE
  5
21E
330
1F
100
AcDbEntity
  8
LAY-10
  6
CONTINUOUS
 62
     7
100
AcDbLine
 10
1030.782033000001
 20
344.4405620000003
 30
0.0
 11
961.5000000000006
 21
384.4405620000003
 31
0.0
  0
LINE
  5
21F
330
1F
100
AcDbEntity
  8
LAY-10
  6
CONTINUOUS
 62
     7
100
AcDbLine
 10
945.0000000000008
 20
394.4405620000003
 30
0.0
 11
945.0000000000008
 21
381.4405620000003
 31
0.0
  0
LINE
  5
220
330
1F
100
AcDbEntity
  8
LAY-10
  6
CONTINUOUS
 62
     7
100
AcDbLine
 10
943.5000000000008
 20
394.4405620000003
 30
0.0
 11
943.5000000000008
 21
381.4405620000003
 31
0.0
  0
LINE
  5
221
330
1F
100
AcDbEntity
  8
LAY-10
  6
CONTINUOUS
 62
     7
100
AcDbLine
 10
1089.500000000001
 20
334.4405620000003
 30
0.0
 11
1088.784841000001
 21
342.6148730000003
 31
0.0
  0
LINE
  5
222
330
1F
100
AcDbEntity
  8
LAY-10
  6
CONTINUOUS
 62
     7
100
AcDbLine
 10
945.0000000000008
 20
381.4405620000003
 30
0.0
 11
913.8528120000009
 21
381.4405620000003
 31
0.0
  0
LINE
  5
223
330
1F
100
AcDbEntity
  8
LAY-10
  6
CONTINUOUS
 62
     7
100
AcDbLine
 10
941.0000000000008
 20
381.4405620000003
 30
0.0
 11
941.0000000000008
 21
370.4405620000003
 31
0.0
  0
LINE
  5
224
330
1F
100
AcDbEntity
  8
LAY-10
  6
CONTINUOUS
 62
     7
100
AcDbLine
 10
909.0550000000005
 20
356.2405620000002
 30
0.0
 11
925.0000000000008
 21
356.2405620000002
 31
0.0
  0
LINE
  5
225
330
1F
100
AcDbEntity
  8
LAY-10
  6
CONTINUOUS
 62
     7
100
AcDbLine
 10
932.5000000000008
 20
339.4405620000003
 30
0.0
 11
932.5000000000008
 21
334.4405620000003
 31
0.0
  0
LINE
  5
226
330
1F
100
AcDbEntity
  8
LAY-10
  6
CONTINUOUS
 62
     7
100
AcDbLine
 10
925.0000000000008
 20
356.2405620000002
 30
0.0
 11
925.8804510000007
 21
339.4405620000003
 31
0.0
  0
LINE
  5
227
330
1F
100
AcDbEntity
  8
LAY-10
  6
CONTINUOUS
 62
     7
100
AcDbLine
 10
925.0000000000008
 20
356.2405620000002
 30
0.0
 11
926.5000000000007
 21
370.4405620000003
 31
0.0
  0
LINE
  5
228
330
1F
100
AcDbEntity
  8
LAY-10
  6
CONTINUOUS
 62
     7
100
AcDbLine
 10
908.5000000000008
 20
341.4405620000003
 30
0.0
 11
900.5000000000005
 21
341.4405620000003
 31
0.0
  0
LINE
  5
229
330
1F
100
AcDbEntity
  8
LAY-10
  6
CONTINUOUS
 62
     7
100
AcDbLine
 10
943.5000000000008
 20
394.4405620000003
 30
0.0
 11
625.0000000000007
 21
400.0000000000003
 31
0.0
  0
LINE
  5
22A
330
1F
100
AcDbEntity
  8
LAY-10
  6
CONTINUOUS
 62
     7
100
AcDbLine
 10
908.5000000000008
 20
341.4405620000003
 30
0.0
 11
909.855621000001
 21
377.5904560000004
 31
0.0
  0
LINE
  5
22B
330
1F
100
AcDbEntity
  8
LAY-10
  6
CONTINUOUS
 62
     7
100
AcDbLine
 10
900.5000000000005
 20
341.4405620000003
 30
0.0
 11
899.2261080000009
 21
377.9200750000002
 31
0.0
  0
ARC
  5
22C
330
1F
100
AcDbEntity
  8
LAY-10
  6
CONTINUOUS
 62
     7
100
AcDbCircle
 10
913.8528120000009
 20
377.4405620000003
 30
0.0
 40
4.0
100
AcDbArc
 50
90.0
 51
177.8524149999994
  0
ARC
  5
22D
330
1F
100
AcDbEntity
  8
LAY-10
  6
CONTINUOUS
 62
     7
100
AcDbCircle
 10
895.2285440000009
 20
377.7804780000004
 30
0.0
 40
4.0
100
AcDbArc
 50
2.000000000000367
 51
89.00000000000308
  0
LINE
  5
22E
330
1F
100
AcDbEntity
  8
LAY-10
  6
CONTINUOUS
 62
     7
100
AcDbLine
 10
740.0000000000007
 20
383.0000000000002
 30
0.0
 11
741.4650390000008
 21
384.4650390000004
 31
0.0
  0
LINE
  5
22F
330
1F
100
AcDbEntity
  8
LAY-10
  6
CONTINUOUS
 62
     7
100
AcDbLine
 10
926.5000000000007
 20
370.4405620000003
 30
0.0
 11
909.5875000000009
 21
370.4405620000003
 31
0.0
  0
LINE
  5
230
330
1F
100
AcDbEntity
  8
LAY-10
  6
CONTINUOUS
 62
     7
100
AcDbLine
 10
837.5000000000007
 20
390.2035230000002
 30
0.0
 11
847.5000000000007
 21
390.2035230000002
 31
0.0
  0
LINE
  5
231
330
1F
100
AcDbEntity
  8
LAY-10
  6
CONTINUOUS
 62
     7
100
AcDbLine
 10
840.5000000000007
 20
380.2035230000002
 30
0.0
 11
844.5000000000007
 21
380.2035230000002
 31
0.0
  0
LINE
  5
232
330
1F
100
AcDbEntity
  8
LAY-10
  6
CONTINUOUS
 62
     7
100
AcDbLine
 10
847.5000000000007
 20
390.2035230000002
 30
0.0
 11
847.5000000000007
 21
383.2035230000004
 31
0.0
  0
LINE
  5
233
330
1F
100
AcDbEntity
  8
LAY-10
  6
CONTINUOUS
 62
     7
100
AcDbLine
 10
837.5000000000007
 20
383.2035230000004
 30
0.0
 11
837.5000000000007
 21
390.2035230000002
 31
0.0
  0
ARC
  5
234
330
1F
100
AcDbEntity
  8
LAY-10
  6
CONTINUOUS
 62
     7
100
AcDbCircle
 10
844.5000000000007
 20
383.2035230000004
 30
0.0
 40
3.000000000000001
100
AcDbArc
 50
270.0
 51
0.0
  0
ARC
  5
235
330
1F
100
AcDbEntity
  8
LAY-10
  6
CONTINUOUS
 62
     7
100
AcDbCircle
 10
840.5000000000007
 20
383.2035230000004
 30
0.0
 40
3.000000000000001
100
AcDbArc
 50
180.0
 51
270.0
  0
ARC
  5
236
330
1F
100
AcDbEntity
  8
LAY-10
  6
CONTINUOUS
 62
     7
100
AcDbCircle
 10
842.5000000000007
 20
388.2035230000004
 30
0.0
 40
40.0
100
AcDbArc
 50
192.4949939999998
 51
345.5050059999999
  0
LINE
  5
237
330
1F
100
AcDbEntity
  8
LAY-10
  6
CONTINUOUS
 62
     7
100
AcDbLine
 10
870.5000000000007
 20
390.2035230000002
 30
0.0
 11
870.5000000000007
 21
388.2035230000004
 31
0.0
  0
LINE
  5
238
330
1F
100
AcDbEntity
  8
LAY-10
  6
CONTINUOUS
 62
     7
100
AcDbLine
 10
814.5000000000007
 20
390.2035230000002
 30
0.0
 11
814.5000000000007
 21
388.2035230000004
 31
0.0
  0
LINE
  5
239
330
1F
100
AcDbEntity
  8
LAY-10
  6
CONTINUOUS
 62
     7
100
AcDbLine
 10
875.5000000000005
 20
395.6275060000003
 30
0.0
 11
875.5000000000005
 21
390.2035230000002
 31
0.0
  0
LINE
  5
23A
330
1F
100
AcDbEntity
  8
LAY-10
  6
CONTINUOUS
 62
     7
100
AcDbLine
 10
809.5000000000007
 20
396.7795410000003
 30
0.0
 11
809.5000000000007
 21
390.2035230000002
 31
0.0
  0
LINE
  5
23B
330
1F
100
AcDbEntity
  8
LAY-10
  6
CONTINUOUS
 62
     7
100
AcDbLine
 10
809.5000000000007
 20
390.2035230000002
 30
0.0
 11
814.5000000000007
 21
390.2035230000002
 31
0.0
  0
LINE
  5
23C
330
1F
100
AcDbEntity
  8
LAY-10
  6
CONTINUOUS
 62
     7
100
AcDbLine
 10
870.5000000000007
 20
390.2035230000002
 30
0.0
 11
875.5000000000005
 21
390.2035230000002
 31
0.0
  0
LINE
  5
23D
330
1F
100
AcDbEntity
  8
LAY-10
  6
CONTINUOUS
 62
     7
100
AcDbLine
 10
741.4650390000008
 20
384.4650390000004
 30
0.0
 11
798.6530910000008
 21
383.4668180000003
 31
0.0
  0
ARC
  5
23E
330
1F
100
AcDbEntity
  8
LAY-10
  6
CONTINUOUS
 62
     7
100
AcDbCircle
 10
842.5000000000007
 20
388.2035230000004
 30
0.0
 40
28.0
100
AcDbArc
 50
180.0
 51
346.864859
  0
ARC
  5
23F
330
1F
100
AcDbEntity
  8
LAY-10
  6
CONTINUOUS
 62
     7
100
AcDbCircle
 10
842.5000000000007
 20
388.2035230000004
 30
0.0
 40
28.0
100
AcDbArc
 50
347.9133060000003
 51
0.0
  0
LINE
  5
240
330
1F
100
AcDbEntity
  8
LAY-10
  6
CONTINUOUS
 62
     7
100
AcDbLine
 10
886.1548900000008
 20
381.9394680000003
 30
0.0
 11
895.2983540000008
 21
381.7798680000002
 31
0.0
  0
ARC
  5
241
330
1F
100
AcDbEntity
  8
LAY-10
  6
CONTINUOUS
 62
     7
100
AcDbCircle
 10
886.0676280000005
 20
376.9402300000003
 30
0.0
 40
5.0
100
AcDbArc
 50
88.99999999999821
 51
165.5050059999984
  0
ARC
  5
242
330
1F
100
AcDbEntity
  8
LAY-10
  6
CONTINUOUS
 62
     7
100
AcDbCircle
 10
798.5658290000009
 20
378.4675790000003
 30
0.0
 40
5.0
100
AcDbArc
 50
12.49499400000004
 51
89.00000000000212
  0
ARC
  5
243
330
1F
100
AcDbEntity
  8
LAY-10
  6
CONTINUOUS
 62
     7
100
AcDbCircle
 10
963.8652120000008
 20
349.4405620000003
 30
0.0
 40
5.0
100
AcDbArc
 50
183.000000000001
 51
270.0
  0
ARC
  5
244
330
1F
100
AcDbEntity
  8
LAY-10
  6
CONTINUOUS
 62
     7
100
AcDbCircle
 10
1086.792451000001
 20
342.4405620000003
 30
0.0
 40
2.0
100
AcDbArc
 50
5.000000000001634
 51
90.0
  0
LINE
  5
245
330
1F
100
AcDbEntity
  8
LAY-10
  6
CONTINUOUS
 62
     7
100
AcDbLine
 10
317.5000000001007
 20
339.4405620000003
 30
0.0
 11
317.5000000001007
 21
334.4405620000003
 31
0.0
  0
LINE
  5
246
330
1F
100
AcDbEntity
  8
LAY-10
  6
CONTINUOUS
 62
     7
100
AcDbLine
 10
325.0000000001007
 20
356.2405620000002
 30
0.0
 11
324.1195500001007
 21
339.4405620000003
 31
0.0
  0
LINE
  5
247
330
1F
100
AcDbEntity
  8
LAY-10
  6
CONTINUOUS
 62
     7
100
AcDbLine
 10
305.0000000001007
 20
394.4405620000003
 30
0.0
 11
305.0000000001007
 21
381.4405620000003
 31
0.0
  0
LINE
  5
248
330
1F
100
AcDbEntity
  8
LAY-10
  6
CONTINUOUS
 62
     7
100
AcDbLine
 10
306.5000000001007
 20
394.4405620000003
 30
0.0
 11
306.5000000001007
 21
381.4405620000003
 31
0.0
  0
LINE
  5
249
330
1F
100
AcDbEntity
  8
LAY-10
  6
CONTINUOUS
 62
     7
100
AcDbLine
 10
309.0000000001007
 20
381.4405620000003
 30
0.0
 11
309.0000000001007
 21
370.4405620000003
 31
0.0
  0
LINE
  5
24A
330
1F
100
AcDbEntity
  8
LAY-10
  6
CONTINUOUS
 62
     7
100
AcDbLine
 10
306.5000000001007
 20
394.4405620000003
 30
0.0
 11
625.0000000000007
 21
400.0000000000003
 31
0.0
  0
LINE
  5
24B
330
1F
100
AcDbEntity
  8
LAY-10
  6
CONTINUOUS
 62
     7
100
AcDbLine
 10
293.5000000001007
 20
394.4405620000003
 30
0.0
 11
305.0000000001007
 21
394.4405620000003
 31
0.0
  0
LINE
  5
24C
330
1F
100
AcDbEntity
  8
LAY-10
  6
CONTINUOUS
 62
     7
100
AcDbLine
 10
330.0000000001007
 20
341.4405620000003
 30
0.0
 11
349.5000000001008
 21
341.4405620000003
 31
0.0
  0
LINE
  5
24D
330
1F
100
AcDbEntity
  8
LAY-10
  6
CONTINUOUS
 62
     7
100
AcDbLine
 10
340.9450000001008
 20
356.2405620000002
 30
0.0
 11
325.0000000001007
 21
356.2405620000002
 31
0.0
  0
LINE
  5
24E
330
1F
100
AcDbEntity
  8
LAY-10
  6
CONTINUOUS
 62
     7
100
AcDbLine
 10
340.9937500001008
 20
354.9405620000003
 30
0.0
 11
340.1443790001008
 21
377.5904560000004
 31
0.0
  0
LINE
  5
24F
330
1F
100
AcDbEntity
  8
LAY-10
  6
CONTINUOUS
 62
     7
100
AcDbLine
 10
305.0000000001007
 20
381.4405620000003
 30
0.0
 11
336.1471890001008
 21
381.4405620000003
 31
0.0
  0
ARC
  5
250
330
1F
100
AcDbEntity
  8
LAY-10
  6
CONTINUOUS
 62
     7
100
AcDbCircle
 10
336.1471890001008
 20
377.4405620000003
 30
0.0
 40
4.0
100
AcDbArc
 50
2.147585000000549
 51
90.0
  0
LINE
  5
251
330
1F
100
AcDbEntity
  8
LAY-10
  6
CONTINUOUS
 62
     7
100
AcDbLine
 10
349.5000000001008
 20
341.4405620000003
 30
0.0
 11
350.7703653030007
 21
377.8190550000003
 31
0.0
  0
LINE
  5
252
330
1F
100
AcDbEntity
  8
LAY-10
  6
CONTINUOUS
 62
     7
100
AcDbLine
 10
510.0000000001007
 20
383.0000000000002
 30
0.0
 11
508.5349620001008
 21
384.4650390000004
 31
0.0
  0
LINE
  5
253
330
1F
100
AcDbEntity
  8
LAY-10
  6
CONTINUOUS
 62
     7
100
AcDbLine
 10
336.5000000001007
 20
370.4405620000003
 30
0.0
 11
340.4125000001008
 21
370.4405620000003
 31
0.0
  0
LINE
  5
254
330
1F
100
AcDbEntity
  8
LAY-10
  6
CONTINUOUS
 62
     7
100
AcDbLine
 10
508.5349620001008
 20
384.4650390000004
 30
0.0
 11
419.8660753301007
 21
382.9173175387002
 31
0.0
  0
LINE
  5
255
330
1F
100
AcDbEntity
  8
LAY-10
  6
CONTINUOUS
 62
     7
100
AcDbLine
 10
293.5000000001007
 20
394.4405620000003
 30
0.0
 11
291.1279360001008
 21
349.1788820000003
 31
0.0
  0
LINE
  5
256
330
1F
100
AcDbEntity
  8
LAY-10
  6
CONTINUOUS
 62
     7
100
AcDbLine
 10
285.2075490001008
 20
344.4405620000003
 30
0.0
 11
286.1347890001008
 21
344.4405620000003
 31
0.0
  0
LINE
  5
257
330
1F
100
AcDbEntity
  8
LAY-10
  6
CONTINUOUS
 62
     7
100
AcDbLine
 10
282.5000000001007
 20
334.4405620000003
 30
0.0
 11
283.2151600001008
 21
342.6148730000003
 31
0.0
  0
ARC
  5
258
330
1F
100
AcDbEntity
  8
LAY-10
  6
CONTINUOUS
 62
     7
100
AcDbCircle
 10
286.1347890001008
 20
349.4405620000003
 30
0.0
 40
5.0
100
AcDbArc
 50
270.0
 51
356.999999999999
  0
ARC
  5
259
330
1F
100
AcDbEntity
  8
LAY-10
  6
CONTINUOUS
 62
     7
100
AcDbCircle
 10
285.2075490001008
 20
342.4405620000003
 30
0.0
 40
2.0
100
AcDbArc
 50
90.0
 51
174.9999999999985
  0
LINE
  5
25A
330
1F
100
AcDbEntity
  8
LAY-10
  6
CONTINUOUS
 62
     7
100
AcDbLine
 10
323.5000000001007
 20
370.4405620000003
 30
0.0
 11
326.4474420001008
 21
381.4405620000003
 31
0.0
  0
LINE
  5
25B
330
1F
100
AcDbEntity
  8
LAY-10
  6
CONTINUOUS
 62
     7
100
AcDbLine
 10
335.9235150001008
 20
381.4405620000003
 30
0.0
 11
337.2441910001007
 21
356.2405620000002
 31
0.0
  0
LINE
  5
25C
330
1F
100
AcDbEntity
  8
LAY-10
  6
CONTINUOUS
 62
     7
100
AcDbLine
 10
330.0000000001007
 20
354.9405620000003
 30
0.0
 11
330.0000000001007
 21
341.4405620000003
 31
0.0
  0
LINE
  5
25D
330
1F
100
AcDbEntity
  8
LAY-10
  6
CONTINUOUS
 62
     7
100
AcDbLine
 10
330.0000000001007
 20
354.9405620000003
 30
0.0
 11
340.9937500001008
 21
354.9405620000003
 31
0.0
  0
LINE
  5
25E
330
1F
100
AcDbEntity
  8
LAY-10
  6
CONTINUOUS
 62
     7
100
AcDbLine
 10
337.2441910001007
 20
356.2405620000002
 30
0.0
 11
337.1760610001007
 21
354.9405620000003
 31
0.0
  0
LINE
  5
25F
330
1F
100
AcDbEntity
  8
LAY-10
  6
CONTINUOUS
 62
     7
100
AcDbLine
 10
336.4685560001008
 20
341.4405620000003
 30
0.0
 11
336.3637400001008
 21
339.4405620000003
 31
0.0
  0
LINE
  5
260
330
1F
100
AcDbEntity
  8
LAY-10
  6
CONTINUOUS
 62
     7
100
AcDbLine
 10
941.0000000000008
 20
370.4405620000003
 30
0.0
 11
937.7500000000007
 21
370.4405620000003
 31
0.0
  0
LINE
  5
261
330
1F
100
AcDbEntity
  8
LAY-10
  6
CONTINUOUS
 62
     7
100
AcDbLine
 10
932.2500000000008
 20
370.4405620000003
 30
0.0
 11
926.5000000000007
 21
370.4405620000003
 31
0.0
  0
LINE
  5
262
330
1F
100
AcDbEntity
  8
LAY-10
  6
CONTINUOUS
 62
     7
100
AcDbLine
 10
309.0000000001007
 20
370.4405620000003
 30
0.0
 11
312.2500000001007
 21
370.4405620000003
 31
0.0
  0
LINE
  5
263
330
1F
100
AcDbEntity
  8
LAY-10
  6
CONTINUOUS
 62
     7
100
AcDbLine
 10
317.7500000001007
 20
370.4405620000003
 30
0.0
 11
323.5000000001007
 21
370.4405620000003
 31
0.0
  0
LINE
  5
264
330
1F
100
AcDbEntity
  8
LAY-10
  6
CONTINUOUS
 62
     7
100
AcDbLine
 10
368.5000000001007
 20
372.8190550000003
 30
0.0
 11
418.5000000001007
 21
372.8190550000003
 31
0.0
  0
LINE
  5
265
330
1F
100
AcDbEntity
  8
LAY-10
  6
CONTINUOUS
 62
     7
100
AcDbLine
 10
368.5000000001007
 20
377.8190550000003
 30
0.0
 11
368.5000000001007
 21
372.8190550000003
 31
0.0
  0
LINE
  5
266
330
1F
100
AcDbEntity
  8
LAY-10
  6
CONTINUOUS
 62
     7
100
AcDbLine
 10
418.5000000001007
 20
377.8190550000003
 30
0.0
 11
418.5000000001007
 21
372.8190550000003
 31
0.0
  0
LINE
  5
267
330
1F
100
AcDbEntity
  8
LAY-10
  6
CONTINUOUS
 62
     7
100
AcDbLine
 10
368.5000000001007
 20
377.8190550000003
 30
0.0
 11
377.5000000001007
 21
377.8190550000003
 31
0.0
  0
LINE
  5
268
330
1F
100
AcDbEntity
  8
LAY-10
  6
CONTINUOUS
 62
     7
100
AcDbLine
 10
377.5000000001007
 20
395.6798715699003
 30
0.0
 11
377.5000000001007
 21
377.8190550000003
 31
0.0
  0
LINE
  5
269
330
1F
100
AcDbEntity
  8
LAY-10
  6
CONTINUOUS
 62
     7
100
AcDbLine
 10
409.5000000001008
 20
396.2384336295004
 30
0.0
 11
409.5000000001008
 21
377.8190550000003
 31
0.0
  0
LINE
  5
26A
330
1F
100
AcDbEntity
  8
LAY-10
  6
CONTINUOUS
 62
     7
100
AcDbLine
 10
409.5000000001008
 20
377.8190550000003
 30
0.0
 11
418.5000000001007
 21
377.8190550000003
 31
0.0
  0
LINE
  5
26B
330
1F
100
AcDbEntity
  8
LAY-10
  6
CONTINUOUS
 62
     7
100
AcDbLine
 10
380.5000000001007
 20
395.7322367630003
 30
0.0
 11
380.5000000001007
 21
388.8190550000003
 31
0.0
  0
LINE
  5
26C
330
1F
100
AcDbEntity
  8
LAY-10
  6
CONTINUOUS
 62
     7
100
AcDbLine
 10
406.5000000001007
 20
396.1860684364002
 30
0.0
 11
406.5000000001007
 21
388.8190550000003
 31
0.0
  0
LINE
  5
26D
330
1F
100
AcDbEntity
  8
LAY-10
  6
CONTINUOUS
 62
     7
100
AcDbLine
 10
380.5000000001007
 20
388.8190550000003
 30
0.0
 11
406.5000000001007
 21
388.8190550000003
 31
0.0
  0
LINE
  5
26E
330
1F
100
AcDbEntity
  8
LAY-10
  6
CONTINUOUS
 62
     7
100
AcDbLine
 10
382.5000000001007
 20
385.8190550000003
 30
0.0
 11
404.5000000001008
 21
385.8190550000003
 31
0.0
  0
LINE
  5
26F
330
1F
100
AcDbEntity
  8
LAY-10
  6
CONTINUOUS
 62
     7
100
AcDbLine
 10
405.0000000001007
 20
392.8190550000003
 30
0.0
 11
395.2500000001007
 21
392.8190550000003
 31
0.0
  0
LINE
  5
270
330
1F
100
AcDbEntity
  8
LAY-10
  6
CONTINUOUS
 62
     7
100
AcDbLine
 10
404.5000000001008
 20
378.8190550000003
 30
0.0
 11
382.5000000001007
 21
378.8190550000003
 31
0.0
  0
LINE
  5
271
330
1F
100
AcDbEntity
  8
LAY-10
  6
CONTINUOUS
 62
     7
100
AcDbLine
 10
406.0000000001007
 20
391.8190550000004
 30
0.0
 11
406.0000000001007
 21
388.8190550000003
 31
0.0
  0
LINE
  5
272
330
1F
100
AcDbEntity
  8
LAY-10
  6
CONTINUOUS
 62
     7
100
AcDbLine
 10
381.0000000001007
 20
391.8190550000004
 30
0.0
 11
381.0000000001007
 21
388.8190550000003
 31
0.0
  0
LINE
  5
273
330
1F
100
AcDbEntity
  8
LAY-10
  6
CONTINUOUS
 62
     7
100
AcDbLine
 10
395.2500000001007
 20
390.3190550000003
 30
0.0
 11
391.7500000001007
 21
390.3190550000003
 31
0.0
  0
LINE
  5
274
330
1F
100
AcDbEntity
  8
LAY-10
  6
CONTINUOUS
 62
     7
100
AcDbLine
 10
391.7500000001007
 20
392.8190550000003
 30
0.0
 11
391.7500000001007
 21
390.3190550000003
 31
0.0
  0
LINE
  5
275
330
1F
100
AcDbEntity
  8
LAY-10
  6
CONTINUOUS
 62
     7
100
AcDbLine
 10
395.2500000001007
 20
392.8190550000003
 30
0.0
 11
395.2500000001007
 21
390.3190550000003
 31
0.0
  0
LINE
  5
276
330
1F
100
AcDbEntity
  8
LAY-10
  6
CONTINUOUS
 62
     7
100
AcDbLine
 10
391.7500000001007
 20
392.8190550000003
 30
0.0
 11
382.0000000001008
 21
392.8190550000003
 31
0.0
  0
LINE
  5
277
330
1F
100
AcDbEntity
  8
LAY-10
  6
CONTINUOUS
 62
     7
100
AcDbLine
 10
406.0000000001007
 20
388.8190550000003
 30
0.0
 11
381.0000000001007
 21
388.8190550000003
 31
0.0
  0
LINE
  5
278
330
1F
100
AcDbEntity
  8
LAY-10
  6
CONTINUOUS
 62
     7
100
AcDbLine
 10
404.5000000001008
 20
385.8190550000003
 30
0.0
 11
382.5000000001007
 21
385.8190550000003
 31
0.0
  0
LINE
  5
279
330
1F
100
AcDbEntity
  8
LAY-10
  6
CONTINUOUS
 62
     7
100
AcDbLine
 10
382.0000000001008
 20
392.8190550000003
 30
0.0
 11
381.0000000001007
 21
391.8190550000004
 31
0.0
  0
LINE
  5
27A
330
1F
100
AcDbEntity
  8
LAY-10
  6
CONTINUOUS
 62
     7
100
AcDbLine
 10
405.0000000001007
 20
392.8190550000003
 30
0.0
 11
406.0000000001007
 21
391.8190550000004
 31
0.0
  0
LINE
  5
27B
330
1F
100
AcDbEntity
  8
LAY-10
  6
CONTINUOUS
 62
     7
100
AcDbLine
 10
395.2500000001007
 20
392.8190550000003
 30
0.0
 11
391.7500000001007
 21
392.8190550000003
 31
0.0
  0
LINE
  5
27C
330
1F
100
AcDbEntity
  8
LAY-10
  6
CONTINUOUS
 62
     7
100
AcDbLine
 10
416.5000000001007
 20
372.8190550000003
 30
0.0
 11
354.5000000001008
 21
372.8190550000003
 31
0.0
  0
LINE
  5
27D
330
1F
100
AcDbEntity
  8
LAY-10
  6
CONTINUOUS
 62
     7
100
AcDbLine
 10
416.5000000001007
 20
349.8190550000004
 30
0.0
 11
363.0358990001008
 21
349.8190550000004
 31
0.0
  0
LINE
  5
27E
330
1F
100
AcDbEntity
  8
LAY-10
  6
CONTINUOUS
 62
     7
100
AcDbLine
 10
354.5000000001008
 20
347.8190550000003
 30
0.0
 11
354.5000000001008
 21
372.8190550000003
 31
0.0
  0
LINE
  5
27F
330
1F
100
AcDbEntity
  8
LAY-10
  6
CONTINUOUS
 62
     7
100
AcDbLine
 10
416.5000000001007
 20
349.8190550000004
 30
0.0
 11
416.5000000001007
 21
372.8190550000003
 31
0.0
  0
LINE
  5
280
330
1F
100
AcDbEntity
  8
LAY-10
  6
CONTINUOUS
 62
     7
100
AcDbLine
 10
416.5000000001007
 20
367.3190550000004
 30
0.0
 11
354.5000000001008
 21
367.3190550000004
 31
0.0
  0
LINE
  5
281
330
1F
100
AcDbEntity
  8
LAY-10
  6
CONTINUOUS
 62
     7
100
AcDbLine
 10
406.1300000001007
 20
363.8190550000003
 30
0.0
 11
406.1300000001007
 21
367.3190550000004
 31
0.0
  0
LINE
  5
282
330
1F
100
AcDbEntity
  8
LAY-10
  6
CONTINUOUS
 62
     7
100
AcDbLine
 10
411.8700000001007
 20
363.8190550000003
 30
0.0
 11
411.8700000001007
 21
367.3190550000004
 31
0.0
  0
LINE
  5
283
330
1F
100
AcDbEntity
  8
LAY-10
  6
CONTINUOUS
 62
     7
100
AcDbLine
 10
414.7500000001007
 20
363.8190550000003
 30
0.0
 11
414.7500000001007
 21
367.3190550000004
 31
0.0
  0
LINE
  5
284
330
1F
100
AcDbEntity
  8
LAY-10
  6
CONTINUOUS
 62
     7
100
AcDbLine
 10
404.1160260001007
 20
363.3190550000003
 30
0.0
 11
413.8839750001009
 21
363.3190550000003
 31
0.0
  0
LINE
  5
285
330
1F
100
AcDbEntity
  8
LAY-10
  6
CONTINUOUS
 62
     7
100
AcDbLine
 10
414.7500000001007
 20
363.8190550000003
 30
0.0
 11
413.8839750001009
 21
363.3190550000003
 31
0.0
  0
LINE
  5
286
330
1F
100
AcDbEntity
  8
LAY-10
  6
CONTINUOUS
 62
     7
100
AcDbLine
 10
411.8700000001007
 20
363.8190550000003
 30
0.0
 11
412.7360260001007
 21
363.3190550000003
 31
0.0
  0
LINE
  5
287
330
1F
100
AcDbEntity
  8
LAY-10
  6
CONTINUOUS
 62
     7
100
AcDbLine
 10
406.1300000001007
 20
363.8190550000003
 30
0.0
 11
405.2639750001007
 21
363.3190550000003
 31
0.0
  0
LINE
  5
288
330
1F
100
AcDbEntity
  8
LAY-10
  6
CONTINUOUS
 62
     7
100
AcDbLine
 10
403.2500000001008
 20
363.8190550000003
 30
0.0
 11
404.1160260001007
 21
363.3190550000003
 31
0.0
  0
ARC
  5
289
330
1F
100
AcDbEntity
  8
LAY-10
  6
CONTINUOUS
 62
     7
100
AcDbCircle
 10
409.0000000001007
 20
371.8059550000004
 30
0.0
 40
8.4869
100
AcDbArc
 50
250.2346880000013
 51
289.7653119999998
  0
LINE
  5
28A
330
1F
100
AcDbEntity
  8
LAY-10
  6
CONTINUOUS
 62
     7
100
AcDbLine
 10
403.2500000001008
 20
363.8190550000003
 30
0.0
 11
403.2500000001008
 21
367.3190550000004
 31
0.0
  0
LINE
  5
28B
330
1F
100
AcDbEntity
  8
LAY-10
  6
CONTINUOUS
 62
     7
100
AcDbLine
 10
403.2500000001008
 20
367.3190550000004
 30
0.0
 11
414.7500000001007
 21
367.3190550000004
 31
0.0
  0
LINE
  5
28C
330
1F
100
AcDbEntity
  8
LAY-10
  6
CONTINUOUS
 62
     7
100
AcDbLine
 10
359.1300000001007
 20
363.8190550000003
 30
0.0
 11
359.1300000001007
 21
367.3190550000004
 31
0.0
  0
LINE
  5
28D
330
1F
100
AcDbEntity
  8
LAY-10
  6
CONTINUOUS
 62
     7
100
AcDbLine
 10
364.8700000001007
 20
363.8190550000003
 30
0.0
 11
364.8700000001007
 21
367.3190550000004
 31
0.0
  0
LINE
  5
28E
330
1F
100
AcDbEntity
  8
LAY-10
  6
CONTINUOUS
 62
     7
100
AcDbLine
 10
367.7500000001007
 20
363.8190550000003
 30
0.0
 11
367.7500000001007
 21
367.3190550000004
 31
0.0
  0
LINE
  5
28F
330
1F
100
AcDbEntity
  8
LAY-10
  6
CONTINUOUS
 62
     7
100
AcDbLine
 10
357.1160260001008
 20
363.3190550000003
 30
0.0
 11
366.8839750001007
 21
363.3190550000003
 31
0.0
  0
LINE
  5
290
330
1F
100
AcDbEntity
  8
LAY-10
  6
CONTINUOUS
 62
     7
100
AcDbLine
 10
367.7500000001007
 20
363.8190550000003
 30
0.0
 11
366.8839750001007
 21
363.3190550000003
 31
0.0
  0
LINE
  5
291
330
1F
100
AcDbEntity
  8
LAY-10
  6
CONTINUOUS
 62
     7
100
AcDbLine
 10
364.8700000001007
 20
363.8190550000003
 30
0.0
 11
365.7360260001008
 21
363.3190550000003
 31
0.0
  0
LINE
  5
292
330
1F
100
AcDbEntity
  8
LAY-10
  6
CONTINUOUS
 62
     7
100
AcDbLine
 10
359.1300000001007
 20
363.8190550000003
 30
0.0
 11
358.2639750001008
 21
363.3190550000003
 31
0.0
  0
LINE
  5
293
330
1F
100
AcDbEntity
  8
LAY-10
  6
CONTINUOUS
 62
     7
100
AcDbLine
 10
356.2500000001007
 20
363.8190550000003
 30
0.0
 11
357.1160260001008
 21
363.3190550000003
 31
0.0
  0
ARC
  5
294
330
1F
100
AcDbEntity
  8
LAY-10
  6
CONTINUOUS
 62
     7
100
AcDbCircle
 10
362.0000000001008
 20
371.8059550000004
 30
0.0
 40
8.4869
100
AcDbArc
 50
250.2346880000002
 51
289.7653119999988
  0
LINE
  5
295
330
1F
100
AcDbEntity
  8
LAY-10
  6
CONTINUOUS
 62
     7
100
AcDbLine
 10
356.2500000001007
 20
363.8190550000003
 30
0.0
 11
356.2500000001007
 21
367.3190550000004
 31
0.0
  0
LINE
  5
296
330
1F
100
AcDbEntity
  8
LAY-10
  6
CONTINUOUS
 62
     7
100
AcDbLine
 10
356.2500000001007
 20
367.3190550000004
 30
0.0
 11
367.7500000001007
 21
367.3190550000004
 31
0.0
  0
LINE
  5
297
330
1F
100
AcDbEntity
  8
LAY-10
  6
CONTINUOUS
 62
     7
100
AcDbLine
 10
362.5000000001007
 20
347.8190550000003
 30
0.0
 11
354.5000000001008
 21
347.8190550000003
 31
0.0
  0
LINE
  5
298
330
1F
100
AcDbEntity
  8
LAY-10
  6
CONTINUOUS
 62
     7
100
AcDbLine
 10
362.5000000001007
 20
347.8190550000003
 30
0.0
 11
363.0358990001008
 21
349.8190550000004
 31
0.0
  0
LINE
  5
299
330
1F
100
AcDbEntity
  8
LAY-10
  6
CONTINUOUS
 62
     7
100
AcDbLine
 10
368.5000000001007
 20
377.8190550000003
 30
0.0
 11
350.7703653030007
 21
377.8190550000003
 31
0.0
  0
LINE
  5
29A
330
1F
100
AcDbEntity
  8
LAY-10
  6
CONTINUOUS
 62
     7
100
AcDbLine
 10
418.5000000001007
 20
377.8190550000003
 30
0.0
 11
419.8660753301007
 21
382.9173175387002
 31
0.0
  0
LINE
  5
29B
330
1F
100
AcDbEntity
  8
LAY-10
  6
CONTINUOUS
 62
     7
100
AcDbLine
 10
350.4560782949008
 20
368.8190550000003
 30
0.0
 11
354.5000000001008
 21
368.8190550000003
 31
0.0
  0
LINE
  5
29C
330
1F
100
AcDbEntity
  8
LAY-10
  6
CONTINUOUS
 62
     7
100
AcDbLine
 10
349.9322666146007
 20
353.8190550000003
 30
0.0
 11
354.5000000001008
 21
353.8190550000003
 31
0.0
  0
LINE
  5
29D
330
1F
100
AcDbEntity
  8
LAY-10
  6
CONTINUOUS
 62
     7
100
AcDbLine
 10
937.7500000000007
 20
355.4405620000003
 30
0.0
 11
932.2500000000008
 21
355.4405620000003
 31
0.0
  0
LINE
  5
29E
330
1F
100
AcDbEntity
  8
LAY-10
  6
CONTINUOUS
 62
     7
100
AcDbLine
 10
937.7500000000007
 20
370.4405620000003
 30
0.0
 11
937.7500000000007
 21
355.4405620000003
 31
0.0
  0
LINE
  5
29F
330
1F
100
AcDbEntity
  8
LAY-10
  6
CONTINUOUS
 62
     7
100
AcDbLine
 10
932.2500000000008
 20
370.4405620000003
 30
0.0
 11
932.2500000000008
 21
355.4405620000003
 31
0.0
  0
LINE
  5
2A0
330
1F
100
AcDbEntity
  8
LAY-10
  6
CONTINUOUS
 62
     7
100
AcDbLine
 10
939.2500000000005
 20
370.4405620000003
 30
0.0
 11
937.7500000000007
 21
370.4405620000003
 31
0.0
  0
LINE
  5
2A1
330
1F
100
AcDbEntity
  8
LAY-10
  6
CONTINUOUS
 62
     7
100
AcDbLine
 10
937.7500000000007
 20
370.4405620000003
 30
0.0
 11
937.7500000000007
 21
355.4405620000003
 31
0.0
  0
LINE
  5
2A2
330
1F
100
AcDbEntity
  8
LAY-10
  6
CONTINUOUS
 62
     7
100
AcDbLine
 10
932.2500000000008
 20
355.4405620000003
 30
0.0
 11
932.2500000000008
 21
370.4405620000003
 31
0.0
  0
LINE
  5
2A3
330
1F
100
AcDbEntity
  8
LAY-10
  6
CONTINUOUS
 62
     7
100
AcDbLine
 10
932.2500000000008
 20
370.4405620000003
 30
0.0
 11
927.7500000000007
 21
370.4405620000003
 31
0.0
  0
LINE
  5
2A4
330
1F
100
AcDbEntity
  8
LAY-10
  6
CONTINUOUS
 62
     7
100
AcDbLine
 10
927.7500000000007
 20
370.4405620000003
 30
0.0
 11
927.7500000000007
 21
374.4405620000003
 31
0.0
  0
LINE
  5
2A5
330
1F
100
AcDbEntity
  8
LAY-10
  6
CONTINUOUS
 62
     7
100
AcDbLine
 10
939.2500000000005
 20
370.4405620000003
 30
0.0
 11
939.2500000000005
 21
374.4405620000003
 31
0.0
  0
LINE
  5
2A6
330
1F
100
AcDbEntity
  8
LAY-10
  6
CONTINUOUS
 62
     7
100
AcDbLine
 10
939.2500000000005
 20
374.4405620000003
 30
0.0
 11
937.7500000000007
 21
374.4405620000003
 31
0.0
  0
LINE
  5
2A7
330
1F
100
AcDbEntity
  8
LAY-10
  6
CONTINUOUS
 62
     7
100
AcDbLine
 10
927.7500000000007
 20
374.4405620000003
 30
0.0
 11
934.2500000000005
 21
374.4405620000003
 31
0.0
  0
LINE
  5
2A8
330
1F
100
AcDbEntity
  8
LAY-10
  6
CONTINUOUS
 62
     7
100
AcDbLine
 10
932.2500000000008
 20
355.4405620000003
 30
0.0
 11
937.7500000000007
 21
355.4405620000003
 31
0.0
  0
LINE
  5
2A9
330
1F
100
AcDbEntity
  8
LAY-10
  6
CONTINUOUS
 62
     7
100
AcDbLine
 10
939.1911254970008
 20
370.4405620000003
 30
0.0
 11
934.2500000000005
 21
375.3816874970003
 31
0.0
  0
LINE
  5
2AA
330
1F
100
AcDbEntity
  8
LAY-10
  6
CONTINUOUS
 62
     7
100
AcDbLine
 10
937.7500000000007
 20
367.6390468098003
 30
0.0
 11
930.9484848100008
 21
374.4405620000003
 31
0.0
  0
LINE
  5
2AB
330
1F
100
AcDbEntity
  8
LAY-10
  6
CONTINUOUS
 62
     7
100
AcDbLine
 10
937.7500000000007
 20
363.3964061227003
 30
0.0
 11
932.2500000000008
 21
368.8964061227003
 31
0.0
  0
LINE
  5
2AC
330
1F
100
AcDbEntity
  8
LAY-10
  6
CONTINUOUS
 62
     7
100
AcDbLine
 10
930.7058441230009
 20
370.4405620000003
 30
0.0
 11
927.7500000000007
 21
373.3964061227003
 31
0.0
  0
LINE
  5
2AD
330
1F
100
AcDbEntity
  8
LAY-10
  6
CONTINUOUS
 62
     7
100
AcDbLine
 10
937.7500000000007
 20
359.1537654356003
 30
0.0
 11
932.2500000000008
 21
364.6537654356002
 31
0.0
  0
LINE
  5
2AE
330
1F
100
AcDbEntity
  8
LAY-10
  6
CONTINUOUS
 62
     7
100
AcDbLine
 10
937.2205627490005
 20
355.4405620000003
 30
0.0
 11
932.2500000000008
 21
360.4111247485004
 31
0.0
  0
LINE
  5
2AF
330
1F
100
AcDbEntity
  8
LAY-10
  6
CONTINUOUS
 62
     7
100
AcDbLine
 10
932.9779220610008
 20
355.4405620000003
 30
0.0
 11
932.2500000000008
 21
356.1684840614004
 31
0.0
  0
LINE
  5
2B0
330
1F
100
AcDbEntity
  8
LAY-10
  6
CONTINUOUS
 62
     7
100
AcDbLine
 10
937.596266522001
 20
376.2780616620003
 30
0.0
 11
932.4337661840008
 21
381.4405620000003
 31
0.0
  0
ARC
  5
2B1
330
1F
100
AcDbEntity
  8
LAY-10
  6
CONTINUOUS
 62
     7
100
AcDbCircle
 10
929.9899827340007
 20
374.7165049362003
 30
0.0
 40
7.764921923570004
100
AcDbArc
 50
357.9634443894002
 51
59.99169870798887
  0
LINE
  5
2B2
330
1F
100
AcDbEntity
  8
LAY-10
  6
CONTINUOUS
 62
     7
100
AcDbLine
 10
927.6481344720008
 20
381.4405620000003
 30
0.0
 11
927.9729521130008
 21
380.7909267171003
 31
0.0
  0
ARC
  5
2B3
330
1F
100
AcDbEntity
  8
LAY-10
  6
CONTINUOUS
 62
     7
100
AcDbCircle
 10
928.5623901710007
 20
375.0960884196003
 30
0.0
 40
5.725261606040002
100
AcDbArc
 50
353.4253748618015
 51
95.90929521177009
  0
LINE
  5
2B4
330
1F
100
AcDbEntity
  8
LAY-10
  6
CONTINUOUS
 62
     7
100
AcDbLine
 10
312.2500000001007
 20
355.4405620000003
 30
0.0
 11
317.7500000001007
 21
355.4405620000003
 31
0.0
  0
LINE
  5
2B5
330
1F
100
AcDbEntity
  8
LAY-10
  6
CONTINUOUS
 62
     7
100
AcDbLine
 10
312.2500000001007
 20
370.4405620000003
 30
0.0
 11
312.2500000001007
 21
355.4405620000003
 31
0.0
  0
LINE
  5
2B6
330
1F
100
AcDbEntity
  8
LAY-10
  6
CONTINUOUS
 62
     7
100
AcDbLine
 10
317.7500000001007
 20
370.4405620000003
 30
0.0
 11
317.7500000001007
 21
355.4405620000003
 31
0.0
  0
LINE
  5
2B7
330
1F
100
AcDbEntity
  8
LAY-10
  6
CONTINUOUS
 62
     7
100
AcDbLine
 10
310.7500000001008
 20
370.4405620000003
 30
0.0
 11
312.2500000001007
 21
370.4405620000003
 31
0.0
  0
LINE
  5
2B8
330
1F
100
AcDbEntity
  8
LAY-10
  6
CONTINUOUS
 62
     7
100
AcDbLine
 10
312.2500000001007
 20
370.4405620000003
 30
0.0
 11
312.2500000001007
 21
355.4405620000003
 31
0.0
  0
LINE
  5
2B9
330
1F
100
AcDbEntity
  8
LAY-10
  6
CONTINUOUS
 62
     7
100
AcDbLine
 10
317.7500000001007
 20
355.4405620000003
 30
0.0
 11
317.7500000001007
 21
370.4405620000003
 31
0.0
  0
LINE
  5
2BA
330
1F
100
AcDbEntity
  8
LAY-10
  6
CONTINUOUS
 62
     7
100
AcDbLine
 10
317.7500000001007
 20
370.4405620000003
 30
0.0
 11
322.2500000001007
 21
370.4405620000003
 31
0.0
  0
LINE
  5
2BB
330
1F
100
AcDbEntity
  8
LAY-10
  6
CONTINUOUS
 62
     7
100
AcDbLine
 10
322.2500000001007
 20
370.4405620000003
 30
0.0
 11
322.2500000001007
 21
374.4405620000003
 31
0.0
  0
LINE
  5
2BC
330
1F
100
AcDbEntity
  8
LAY-10
  6
CONTINUOUS
 62
     7
100
AcDbLine
 10
310.7500000001008
 20
370.4405620000003
 30
0.0
 11
310.7500000001008
 21
374.4405620000003
 31
0.0
  0
LINE
  5
2BD
330
1F
100
AcDbEntity
  8
LAY-10
  6
CONTINUOUS
 62
     7
100
AcDbLine
 10
310.7500000001008
 20
374.4405620000003
 30
0.0
 11
312.2500000001007
 21
374.4405620000003
 31
0.0
  0
LINE
  5
2BE
330
1F
100
AcDbEntity
  8
LAY-10
  6
CONTINUOUS
 62
     7
100
AcDbLine
 10
322.2500000001007
 20
374.4405620000003
 30
0.0
 11
315.7500000001008
 21
374.4405620000003
 31
0.0
  0
LINE
  5
2BF
330
1F
100
AcDbEntity
  8
LAY-10
  6
CONTINUOUS
 62
     7
100
AcDbLine
 10
317.7500000001007
 20
355.4405620000003
 30
0.0
 11
312.2500000001007
 21
355.4405620000003
 31
0.0
  0
LINE
  5
2C0
330
1F
100
AcDbEntity
  8
LAY-10
  6
CONTINUOUS
 62
     7
100
AcDbLine
 10
310.8088745031009
 20
370.4405620000003
 30
0.0
 11
315.7500000001008
 21
375.3816874970003
 31
0.0
  0
LINE
  5
2C1
330
1F
100
AcDbEntity
  8
LAY-10
  6
CONTINUOUS
 62
     7
100
AcDbLine
 10
312.2500000001007
 20
367.6390468098003
 30
0.0
 11
319.0515151903007
 21
374.4405620000003
 31
0.0
  0
LINE
  5
2C2
330
1F
100
AcDbEntity
  8
LAY-10
  6
CONTINUOUS
 62
     7
100
AcDbLine
 10
312.2500000001007
 20
363.3964061227003
 30
0.0
 11
317.7500000001007
 21
368.8964061227003
 31
0.0
  0
LINE
  5
2C3
330
1F
100
AcDbEntity
  8
LAY-10
  6
CONTINUOUS
 62
     7
100
AcDbLine
 10
319.2941558774007
 20
370.4405620000003
 30
0.0
 11
322.2500000001007
 21
373.3964061227003
 31
0.0
  0
LINE
  5
2C4
330
1F
100
AcDbEntity
  8
LAY-10
  6
CONTINUOUS
 62
     7
100
AcDbLine
 10
312.2500000001007
 20
359.1537654356003
 30
0.0
 11
317.7500000001007
 21
364.6537654356002
 31
0.0
  0
LINE
  5
2C5
330
1F
100
AcDbEntity
  8
LAY-10
  6
CONTINUOUS
 62
     7
100
AcDbLine
 10
312.7794372516007
 20
355.4405620000003
 30
0.0
 11
317.7500000001007
 21
360.4111247485004
 31
0.0
  0
LINE
  5
2C6
330
1F
100
AcDbEntity
  8
LAY-10
  6
CONTINUOUS
 62
     7
100
AcDbLine
 10
317.0220779387009
 20
355.4405620000003
 30
0.0
 11
317.7500000001007
 21
356.1684840614004
 31
0.0
  0
LINE
  5
2C7
330
1F
100
AcDbEntity
  8
LAY-10
  6
CONTINUOUS
 62
     7
100
AcDbLine
 10
312.4037334780007
 20
376.2780616620003
 30
0.0
 11
317.5662338160008
 21
381.4405620000003
 31
0.0
  0
ARC
  5
2C8
330
1F
100
AcDbEntity
  8
LAY-10
  6
CONTINUOUS
 62
     7
100
AcDbCircle
 10
320.0100172665007
 20
374.7165049362003
 30
0.0
 40
7.764921923570004
100
AcDbArc
 50
120.0083012919995
 51
182.0365556105998
  0
ARC
  5
2C9
330
1F
100
AcDbEntity
  8
LAY-10
  6
CONTINUOUS
 62
     7
100
AcDbCircle
 10
321.4376098294008
 20
375.0960884196003
 30
0.0
 40
5.725261606040002
100
AcDbArc
 50
84.09070478822984
 51
186.5746251381987
  0
LINE
  5
2CA
330
1F
100
AcDbEntity
  8
LAY-10
  6
CONTINUOUS
 62
     7
100
AcDbLine
 10
322.3518655282007
 20
381.4405620000003
 30
0.0
 11
322.0270478867008
 21
380.7909267171003
 31
0.0
  0
LINE
  5
2CB
330
1F
100
AcDbEntity
  8
LAY-10
  6
HIDDEN
 62
     7
100
AcDbLine
 10
350.4560782949008
 20
368.8190550000003
 30
0.0
 11
329.5000000001008
 21
368.8190550000003
 31
0.0
  0
LINE
  5
2CC
330
1F
100
AcDbEntity
  8
LAY-10
  6
HIDDEN
 62
     7
100
AcDbLine
 10
329.5000000001008
 20
353.8190550000003
 30
0.0
 11
329.5000000001008
 21
368.8190550000003
 31
0.0
  0
LINE
  5
2CD
330
1F
100
AcDbEntity
  8
LAY-10
  6
HIDDEN
 62
     7
100
AcDbLine
 10
349.9322666146008
 20
353.8190550000003
 30
0.0
 11
329.5000000001008
 21
353.8190550000003
 31
0.0
  0
LINE
  5
2CE
330
1F
100
AcDbEntity
  8
LAY-10
  6
CONTINUOUS
 62
     7
100
AcDbLine
 10
1063.800000000001
 20
334.4405620000003
 30
0.0
 11
1066.300000000001
 21
344.4405620000003
 31
0.0
  0
LINE
  5
2CF
330
1F
100
AcDbEntity
  8
LAY-10
  6
CONTINUOUS
 62
     7
100
AcDbLine
 10
1048.800000000001
 20
334.4405620000003
 30
0.0
 11
1046.300000000001
 21
344.4405620000003
 31
0.0
  0
LINE
  5
2D0
330
1F
100
AcDbEntity
  8
LAY-10
  6
CONTINUOUS
 62
     7
100
AcDbLine
 10
282.5000000001007
 20
334.4405620000003
 30
0.0
 11
1089.500000000001
 21
334.4405620000003
 31
0.0
  0
LINE
  5
2D1
330
1F
100
AcDbEntity
  8
LAY-10
  6
CONTINUOUS
 62
     7
100
AcDbLine
 10
317.5000000001007
 20
339.4405620000003
 30
0.0
 11
932.5000000000008
 21
339.4405620000003
 31
0.0
  0
LINE
  5
2D2
330
1F
100
AcDbEntity
  8
LAY-10
  6
CONTINUOUS
 62
     7
100
AcDbLine
 10
349.5000000001008
 20
341.4405620000003
 30
0.0
 11
900.5000000000005
 21
341.4405620000003
 31
0.0
  0
LINE
  5
2D3
330
1F
100
AcDbEntity
  8
LAY-10
  6
CONTINUOUS
 62
     7
100
AcDbLine
 10
510.0000000001007
 20
383.0000000000002
 30
0.0
 11
740.0000000000007
 21
383.0000000000002
 31
0.0
  0
LINE
  5
2D4
330
1F
100
AcDbEntity
  8
LAY-10
  6
CENTER
 62
     2
100
AcDbLine
 10
625.0000000000007
 20
1314.0
 30
0.0
 11
625.0000000000007
 21
590.0
 31
0.0
  0
LINE
  5
2D5
330
1F
100
AcDbEntity
  8
LAY-10
  6
CENTER
 62
     2
100
AcDbLine
 10
985.0000000000001
 20
950.0000000000001
 30
0.0
 11
262.0
 21
950.0000000000001
 31
0.0
  0
LINE
  5
2D6
330
1F
100
AcDbEntity
  8
LAY-10
  6
CENTER
 62
     2
100
AcDbLine
 10
930.0000000000008
 20
665.0
 30
0.0
 11
930.0000000000008
 21
626.0
 31
0.0
  0
LINE
  5
2D7
330
1F
100
AcDbEntity
  8
LAY-10
  6
CENTER
 62
     2
100
AcDbLine
 10
910.8315846180008
 20
645.0
 30
0.0
 11
949.8315846180009
 21
645.0
 31
0.0
  0
LINE
  5
2D8
330
1F
100
AcDbEntity
  8
LAY-10
  6
CENTER
 62
     2
100
AcDbLine
 10
910.8315846180008
 20
1255.0
 30
0.0
 11
949.8315846180009
 21
1255.0
 31
0.0
  0
LINE
  5
2D9
330
1F
100
AcDbEntity
  8
LAY-10
  6
CENTER
 62
     2
100
AcDbLine
 10
930.0000000000008
 20
1235.0
 30
0.0
 11
930.0000000000008
 21
1274.0
 31
0.0
  0
LINE
  5
2DA
330
1F
100
AcDbEntity
  8
LAY-10
  6
CENTER
 62
     2
100
AcDbLine
 10
339.1684153822008
 20
645.0
 30
0.0
 11
300.1684153822008
 21
645.0
 31
0.0
  0
LINE
  5
2DB
330
1F
100
AcDbEntity
  8
LAY-10
  6
CENTER
 62
     2
100
AcDbLine
 10
320.0000000001007
 20
665.0
 30
0.0
 11
320.0000000001007
 21
626.0
 31
0.0
  0
LINE
  5
2DC
330
1F
100
AcDbEntity
  8
LAY-10
  6
CENTER
 62
     2
100
AcDbLine
 10
339.1684153822008
 20
1255.0
 30
0.0
 11
300.1684153822008
 21
1255.0
 31
0.0
  0
LINE
  5
2DD
330
1F
100
AcDbEntity
  8
LAY-10
  6
CENTER
 62
     2
100
AcDbLine
 10
320.0000000001007
 20
1235.0
 30
0.0
 11
320.0000000001007
 21
1274.0
 31
0.0
  0
LINE
  5
2DE
330
1F
100
AcDbEntity
  8
LAY-10
  6
CENTER
 62
     2
100
AcDbLine
 10
450.4153357251008
 20
816.9932144589999
 30
0.0
 11
489.7304727591007
 21
777.6780774250001
 31
0.0
  0
LINE
  5
2DF
330
1F
100
AcDbEntity
  8
LAY-10
  6
CENTER
 62
     2
100
AcDbLine
 10
513.8428139976006
 20
838.8428139969998
 30
0.0
 11
432.7500000001007
 21
757.75
 31
0.0
  0
LINE
  5
2E0
330
1F
100
AcDbEntity
  8
LAY-10
  6
CENTER
 62
     2
100
AcDbLine
 10
758.0067855410007
 20
775.415335725
 30
0.0
 11
797.3219225750008
 21
814.7304727589998
 31
0.0
  0
LINE
  5
2E1
330
1F
100
AcDbEntity
  8
LAY-10
  6
CENTER
 62
     2
100
AcDbLine
 10
736.1571860030008
 20
838.8428139969998
 30
0.0
 11
817.2500000000008
 21
757.75
 31
0.0
  0
LINE
  5
2E2
330
1F
100
AcDbEntity
  8
LAY-10
  6
CENTER
 62
     2
100
AcDbLine
 10
799.5846642750007
 20
1083.006785541
 30
0.0
 11
760.2695272410008
 21
1122.321922575
 31
0.0
  0
LINE
  5
2E3
330
1F
100
AcDbEntity
  8
LAY-10
  6
CENTER
 62
     2
100
AcDbLine
 10
736.1571860030008
 20
1061.157186003
 30
0.0
 11
817.2500000000008
 21
1142.25
 31
0.0
  0
LINE
  5
2E4
330
1F
100
AcDbEntity
  8
LAY-10
  6
CENTER
 62
     2
100
AcDbLine
 10
491.9932144589008
 20
1124.584664275
 30
0.0
 11
452.6780774249008
 21
1085.269527241
 31
0.0
  0
LINE
  5
2E5
330
1F
100
AcDbEntity
  8
LAY-10
  6
CENTER
 62
     2
100
AcDbLine
 10
513.8428139976006
 20
1061.157186003
 30
0.0
 11
432.7500000001007
 21
1142.25
 31
0.0
  0
LINE
  5
2E6
330
1F
100
AcDbEntity
  8
LAY-10
  6
CENTER
 62
     2
100
AcDbLine
 10
589.0000000000007
 20
1181.5
 30
0.0
 11
661.0000000000006
 21
1181.5
 31
0.0
  0
LINE
  5
2E7
330
1F
100
AcDbEntity
  8
LAY-10
  6
CENTER
 62
     2
100
AcDbLine
 10
625.0000000000007
 20
416.4405620000003
 30
0.0
 11
625.0000000000007
 21
308.4405620000002
 31
0.0
  0
LINE
  5
2E8
330
1F
100
AcDbEntity
  8
LAY-10
  6
CENTER
 62
     2
100
AcDbLine
 10
393.5000000001007
 20
369.5905250000002
 30
0.0
 11
393.5000000001007
 21
404.7448650000002
 31
0.0
  0
LINE
  5
2E9
330
1F
100
AcDbEntity
  8
LAY-10
  6
CENTER
 62
     2
100
AcDbLine
 10
842.5000000000007
 20
401.5000000000003
 30
0.0
 11
842.5000000000007
 21
342.5000000000003
 31
0.0
  0
LINE
  5
2EA
330
1F
100
AcDbEntity
  8
LAY-10
  6
CENTER
 62
     2
100
AcDbLine
 10
1056.300000000001
 20
327.7000001796003
 30
0.0
 11
1056.300000000001
 21
354.6000001796003
 31
0.0
  0
LINE
  5
2EB
330
1F
100
AcDbEntity
  8
LAY-10
  6
CONTINUOUS
 62
     7
100
AcDbLine
 10
382.5000000001007
 20
388.8190550000003
 30
0.0
 11
382.5000000001007
 21
385.8190550000003
 31
0.0
  0
LINE
  5
2EC
330
1F
100
AcDbEntity
  8
LAY-10
  6
CONTINUOUS
 62
     7
100
AcDbLine
 10
382.5000000001007
 20
385.8190550000003
 30
0.0
 11
382.5000000001007
 21
378.8190550000003
 31
0.0
  0
LINE
  5
2ED
330
1F
100
AcDbEntity
  8
LAY-10
  6
CONTINUOUS
 62
     7
100
AcDbLine
 10
384.5000000001008
 20
388.8190550000003
 30
0.0
 11
384.5000000001008
 21
385.8190550000003
 31
0.0
  0
LINE
  5
2EE
330
1F
100
AcDbEntity
  8
LAY-10
  6
CONTINUOUS
 62
     7
100
AcDbLine
 10
382.5000000001007
 20
385.8190550000003
 30
0.0
 11
382.5000000001007
 21
378.8190550000003
 31
0.0
  0
CIRCLE
  5
2EF
330
1F
100
AcDbEntity
  8
LAY-10
  6
CONTINUOUS
 62
     7
100
AcDbCircle
 10
383.3000000001007
 20
387.3190550000004
 30
0.0
 40
1.2
  0
LINE
  5
2F0
330
1F
100
AcDbEntity
  8
LAY-10
  6
CONTINUOUS
 62
     7
100
AcDbLine
 10
383.3000000001007
 20
388.5190550000003
 30
0.0
 11
384.5000000001008
 21
388.5190550000003
 31
0.0
  0
LINE
  5
2F1
330
1F
100
AcDbEntity
  8
LAY-10
  6
CONTINUOUS
 62
     7
100
AcDbLine
 10
383.3000000001007
 20
386.1190550000003
 30
0.0
 11
384.5000000001008
 21
386.1190550000003
 31
0.0
  0
LINE
  5
2F2
330
1F
100
AcDbEntity
  8
LAY-10
  6
CONTINUOUS
 62
     7
100
AcDbLine
 10
383.5000000001007
 20
385.8190550000003
 30
0.0
 11
383.5000000001007
 21
378.8190550000003
 31
0.0
  0
LINE
  5
2F3
330
1F
100
AcDbEntity
  8
LAY-10
  6
CONTINUOUS
 62
     7
100
AcDbLine
 10
382.5000000001007
 20
378.8190550000003
 30
0.0
 11
382.5000000001007
 21
372.8190550000003
 31
0.0
  0
LINE
  5
2F4
330
1F
100
AcDbEntity
  8
LAY-10
  6
CONTINUOUS
 62
     7
100
AcDbLine
 10
383.5000000001007
 20
378.8190550000003
 30
0.0
 11
383.5000000001007
 21
372.8190550000003
 31
0.0
  0
LINE
  5
2F5
330
1F
100
AcDbEntity
  8
LAY-10
  6
CONTINUOUS
 62
     7
100
AcDbLine
 10
404.5000000001008
 20
388.8190550000003
 30
0.0
 11
404.5000000001008
 21
385.8190550000003
 31
0.0
  0
LINE
  5
2F6
330
1F
100
AcDbEntity
  8
LAY-10
  6
CONTINUOUS
 62
     7
100
AcDbLine
 10
404.5000000001008
 20
385.8190550000003
 30
0.0
 11
404.5000000001008
 21
378.8190550000003
 31
0.0
  0
LINE
  5
2F7
330
1F
100
AcDbEntity
  8
LAY-10
  6
CONTINUOUS
 62
     7
100
AcDbLine
 10
402.5000000001007
 20
388.8190550000003
 30
0.0
 11
402.5000000001007
 21
385.8190550000003
 31
0.0
  0
LINE
  5
2F8
330
1F
100
AcDbEntity
  8
LAY-10
  6
CONTINUOUS
 62
     7
100
AcDbLine
 10
404.5000000001008
 20
385.8190550000003
 30
0.0
 11
404.5000000001008
 21
378.8190550000003
 31
0.0
  0
CIRCLE
  5
2F9
330
1F
100
AcDbEntity
  8
LAY-10
  6
CONTINUOUS
 62
     7
100
AcDbCircle
 10
403.7000000001007
 20
387.3190550000004
 30
0.0
 40
1.2
  0
LINE
  5
2FA
330
1F
100
AcDbEntity
  8
LAY-10
  6
CONTINUOUS
 62
     7
100
AcDbLine
 10
403.7000000001007
 20
386.1190550000003
 30
0.0
 11
402.5000000001007
 21
386.1190550000003
 31
0.0
  0
LINE
  5
2FB
330
1F
100
AcDbEntity
  8
LAY-10
  6
CONTINUOUS
 62
     7
100
AcDbLine
 10
403.7000000001007
 20
388.5190550000003
 30
0.0
 11
402.5000000001007
 21
388.5190550000003
 31
0.0
  0
LINE
  5
2FC
330
1F
100
AcDbEntity
  8
LAY-10
  6
CONTINUOUS
 62
     7
100
AcDbLine
 10
403.5000000001007
 20
385.8190550000003
 30
0.0
 11
403.5000000001007
 21
378.8190550000003
 31
0.0
  0
LINE
  5
2FD
330
1F
100
AcDbEntity
  8
LAY-10
  6
CONTINUOUS
 62
     7
100
AcDbLine
 10
404.5000000001008
 20
378.8190550000003
 30
0.0
 11
404.5000000001008
 21
372.8190550000003
 31
0.0
  0
LINE
  5
2FE
330
1F
100
AcDbEntity
  8
LAY-10
  6
CONTINUOUS
 62
     7
100
AcDbLine
 10
403.5000000001007
 20
378.8190550000003
 30
0.0
 11
403.5000000001007
 21
372.8190550000003
 31
0.0
  0
LINE
  5
2FF
330
1F
100
AcDbEntity
  8
LAY-10
  6
CONTINUOUS
 62
     7
100
AcDbLine
 10
690.2356020940008
 20
1254.592442012
 30
0.0
 11
685.0000000000007
 21
1230.146819281
 31
0.0
  0
LINE
  5
300
330
1F
100
AcDbEntity
  8
LAY-10
  6
CONTINUOUS
 62
     7
100
AcDbLine
 10
559.7643979059008
 20
1254.592442012
 30
0.0
 11
565.0000000001007
 21
1230.146819281
 31
0.0
  0
LINE
  5
301
330
1F
100
AcDbEntity
  8
LAY-10
  6
CONTINUOUS
 62
     7
100
AcDbLine
 10
691.5556276080008
 20
1236.880791541
 30
0.0
 11
690.9272638550008
 21
1233.946889582
 31
0.0
  0
LINE
  5
302
330
1F
100
AcDbEntity
  8
LAY-10
  6
CONTINUOUS
 62
     7
100
AcDbLine
 10
558.4443723923008
 20
1236.880791541
 30
0.0
 11
559.0727361452008
 21
1233.946889582
 31
0.0
  0
ARC
  5
303
330
1F
100
AcDbEntity
  8
LAY-10
  6
CONTINUOUS
 62
     7
100
AcDbCircle
 10
625.0000000000007
 20
949.999982783
 30
0.0
 40
286.5
100
AcDbArc
 50
77.91139577329997
 51
102.0886042267
  0
ARC
  5
304
330
1F
100
AcDbEntity
  8
LAY-10
  6
CONTINUOUS
 62
     7
100
AcDbCircle
 10
625.0000000000007
 20
949.999982783
 30
0.0
 40
311.5
100
AcDbArc
 50
77.91139577329986
 51
102.0886042266999
  0
ARC
  5
305
330
1F
100
AcDbEntity
  8
LAY-10
  6
CONTINUOUS
 62
     7
100
AcDbCircle
 10
625.0000000000007
 20
949.999982783
 30
0.0
 40
291.5
100
AcDbArc
 50
103.0714273727998
 51
219.9999999999999
  0
ARC
  5
306
330
1F
100
AcDbEntity
  8
LAY-10
  6
CONTINUOUS
 62
     7
100
AcDbCircle
 10
625.0000000000007
 20
949.999982783
 30
0.0
 40
294.5
100
AcDbArc
 50
103.0614146249
 51
219.9999999999999
  0
LINE
  5
307
330
1F
100
AcDbEntity
  8
LAY-10
  6
CONTINUOUS
 62
     7
100
AcDbLine
 10
763.2500000000007
 20
710.5439586370001
 30
0.0
 11
775.7500000000007
 21
688.8933235419998
 31
0.0
  0
LINE
  5
308
330
1F
100
AcDbEntity
  8
LAY-10
  6
CONTINUOUS
 62
     7
100
AcDbLine
 10
833.5627163390009
 20
768.4680479789998
 30
0.0
 11
852.7166996480008
 21
752.3959476489998
 31
0.0
  0
LINE
  5
309
330
1F
100
AcDbEntity
  8
LAY-10
  6
CONTINUOUS
 62
     7
100
AcDbLine
 10
758.8972671550007
 20
708.083113077
 30
0.0
 11
771.3991418710007
 21
686.429230878
 31
0.0
  0
LINE
  5
30A
330
1F
100
AcDbEntity
  8
LAY-10
  6
CONTINUOUS
 62
     7
100
AcDbLine
 10
416.4372836617008
 20
768.4680479789998
 30
0.0
 11
397.2833003520007
 21
752.3959476489998
 31
0.0
  0
ARC
  5
30B
330
1F
100
AcDbEntity
  8
LAY-10
  6
CONTINUOUS
 62
     7
100
AcDbCircle
 10
625.0000000000007
 20
949.999982783
 30
0.0
 40
291.5
100
AcDbArc
 50
320.0000000000002
 51
76.92857262719987
  0
ARC
  5
30C
330
1F
100
AcDbEntity
  8
LAY-10
  6
CONTINUOUS
 62
     7
100
AcDbCircle
 10
625.0000000000007
 20
949.999982783
 30
0.0
 40
294.5
100
AcDbArc
 50
320.0000000000002
 51
76.93858537509998
  0
ARC
  5
30D
330
1F
100
AcDbEntity
  8
LAY-10
  6
CONTINUOUS
 62
     7
100
AcDbCircle
 10
625.0000000000007
 20
949.999982783
 30
0.0
 40
301.5
100
AcDbArc
 50
220.9502223232999
 51
299.0497776767002
  0
ARC
  5
30E
330
1F
100
AcDbEntity
  8
LAY-10
  6
CONTINUOUS
 62
     7
100
AcDbCircle
 10
625.0000000000007
 20
949.999982783
 30
0.0
 40
276.5
100
AcDbArc
 50
221.0361465208999
 51
298.9638534791002
  0
ARC
  5
30F
330
1F
100
AcDbEntity
  8
LAY-10
  6
CONTINUOUS
 62
     7
100
AcDbCircle
 10
625.0000000000007
 20
949.999982783
 30
0.0
 40
301.5
100
AcDbArc
 50
300.0000000000001
 51
319.0497776767
  0
ARC
  5
310
330
1F
100
AcDbEntity
  8
LAY-10
  6
CONTINUOUS
 62
     7
100
AcDbCircle
 10
625.0000000000007
 20
949.999982783
 30
0.0
 40
276.5
100
AcDbArc
 50
300.0
 51
318.9638534791
  0
LINE
  5
311
330
1F
100
AcDbEntity
  8
LAY-10
  6
CONTINUOUS
 62
     7
100
AcDbLine
 10
401.6980448309008
 20
762.6273945590001
 30
0.0
 11
399.3999115016007
 21
760.6990317299998
 31
0.0
  0
LINE
  5
312
330
1F
100
AcDbEntity
  8
LAY-10
  6
CONTINUOUS
 62
     7
100
AcDbLine
 10
848.3019551690008
 20
762.6273945590001
 30
0.0
 11
850.6000884990008
 21
760.6990317299998
 31
0.0
  0
LINE
  5
313
330
1F
100
AcDbEntity
  8
LAY-10
  6
CONTINUOUS
 62
     7
100
AcDbLine
 10
457.7692462495007
 20
755.899188564
 30
0.0
 11
430.8991885644008
 21
782.7692462489998
 31
0.0
  0
LINE
  5
314
330
1F
100
AcDbEntity
  8
LAY-10
  6
CONTINUOUS
 62
     7
100
AcDbLine
 10
511.5093616197007
 20
809.639303934
 30
0.0
 11
484.6393039346009
 21
836.5093616199999
 31
0.0
  0
LINE
  5
315
330
1F
100
AcDbEntity
  8
LAY-10
  6
CONTINUOUS
 62
     7
100
AcDbLine
 10
511.5093616197007
 20
809.639303934
 30
0.0
 11
457.7692462495007
 21
755.899188564
 31
0.0
  0
LINE
  5
316
330
1F
100
AcDbEntity
  8
LAY-10
  6
CONTINUOUS
 62
     7
100
AcDbLine
 10
484.6393039346009
 20
836.5093616199999
 30
0.0
 11
430.8991885644008
 21
782.7692462489998
 31
0.0
  0
LINE
  5
317
330
1F
100
AcDbEntity
  8
LAY-10
  6
CONTINUOUS
 62
     7
100
AcDbLine
 10
819.1008114360009
 20
782.7692462489998
 30
0.0
 11
792.2307537510007
 21
755.899188564
 31
0.0
  0
LINE
  5
318
330
1F
100
AcDbEntity
  8
LAY-10
  6
CONTINUOUS
 62
     7
100
AcDbLine
 10
765.3606960660009
 20
836.5093616199999
 30
0.0
 11
738.4906383810007
 21
809.639303934
 31
0.0
  0
LINE
  5
319
330
1F
100
AcDbEntity
  8
LAY-10
  6
CONTINUOUS
 62
     7
100
AcDbLine
 10
765.3606960660009
 20
836.5093616199999
 30
0.0
 11
819.1008114360009
 21
782.7692462489998
 31
0.0
  0
LINE
  5
31A
330
1F
100
AcDbEntity
  8
LAY-10
  6
CONTINUOUS
 62
     7
100
AcDbLine
 10
738.4906383810007
 20
809.639303934
 30
0.0
 11
792.2307537510007
 21
755.899188564
 31
0.0
  0
LINE
  5
31B
330
1F
100
AcDbEntity
  8
LAY-10
  6
CONTINUOUS
 62
     7
100
AcDbLine
 10
792.2307537510007
 20
1144.100811436
 30
0.0
 11
819.1008114360009
 21
1117.230753751
 31
0.0
  0
LINE
  5
31C
330
1F
100
AcDbEntity
  8
LAY-10
  6
CONTINUOUS
 62
     7
100
AcDbLine
 10
738.4906383810007
 20
1090.360696066
 30
0.0
 11
765.3606960660009
 21
1063.49063838
 31
0.0
  0
LINE
  5
31D
330
1F
100
AcDbEntity
  8
LAY-10
  6
CONTINUOUS
 62
     7
100
AcDbLine
 10
738.4906383810007
 20
1090.360696066
 30
0.0
 11
792.2307537510007
 21
1144.100811436
 31
0.0
  0
LINE
  5
31E
330
1F
100
AcDbEntity
  8
LAY-10
  6
CONTINUOUS
 62
     7
100
AcDbLine
 10
765.3606960660009
 20
1063.49063838
 30
0.0
 11
819.1008114360009
 21
1117.230753751
 31
0.0
  0
LINE
  5
31F
330
1F
100
AcDbEntity
  8
LAY-10
  6
CONTINUOUS
 62
     7
100
AcDbLine
 10
430.8991885644008
 20
1117.230753751
 30
0.0
 11
457.7692462495007
 21
1144.100811436
 31
0.0
  0
LINE
  5
320
330
1F
100
AcDbEntity
  8
LAY-10
  6
CONTINUOUS
 62
     7
100
AcDbLine
 10
484.6393039346009
 20
1063.49063838
 30
0.0
 11
511.5093616197007
 21
1090.360696066
 31
0.0
  0
LINE
  5
321
330
1F
100
AcDbEntity
  8
LAY-10
  6
CONTINUOUS
 62
     7
100
AcDbLine
 10
484.6393039346009
 20
1063.49063838
 30
0.0
 11
430.8991885644008
 21
1117.230753751
 31
0.0
  0
LINE
  5
322
330
1F
100
AcDbEntity
  8
LAY-10
  6
CONTINUOUS
 62
     7
100
AcDbLine
 10
511.5093616197007
 20
1090.360696066
 30
0.0
 11
457.7692462495007
 21
1144.100811436
 31
0.0
  0
ARC
  5
323
330
1F
100
AcDbEntity
  8
LAY-10
  6
CONTINUOUS
 62
     7
100
AcDbCircle
 10
625.0000000000007
 20
950.0
 30
0.0
 40
271.5
100
AcDbArc
 50
220.0000027832999
 51
319.9999972167003
  0
ARC
  5
324
330
1F
100
AcDbEntity
  8
LAY-10
  6
CONTINUOUS
 62
     7
100
AcDbCircle
 10
625.0000000000007
 20
950.0
 30
0.0
 40
286.5
100
AcDbArc
 50
319.9999973624
 51
76.91141794278
  0
ARC
  5
325
330
1F
100
AcDbEntity
  8
LAY-10
  6
CONTINUOUS
 62
     7
100
AcDbCircle
 10
625.0000000000007
 20
950.0
 30
0.0
 40
286.5
100
AcDbArc
 50
103.0885820571999
 51
220.0000026375999
  0
ARC
  5
326
330
1F
100
AcDbEntity
  8
LAY-10
  6
CONTINUOUS
 62
     7
100
AcDbCircle
 10
625.0000000000007
 20
950.0
 30
0.0
 40
281.5
100
AcDbArc
 50
76.8936544952198
 51
103.1063455048
  0
LINE
  5
327
330
1F
100
AcDbEntity
  8
LAY-10
  6
CONTINUOUS
 62
     7
100
AcDbLine
 10
689.8799901870007
 20
1229.057049496
 30
0.0
 11
688.8327074350005
 21
1224.167167001
 31
0.0
  0
LINE
  5
328
330
1F
100
AcDbEntity
  8
LAY-10
  6
CONTINUOUS
 62
     7
100
AcDbLine
 10
560.1200098136007
 20
1229.057049496
 30
0.0
 11
561.1672925649007
 21
1224.167167001
 31
0.0
  0
LINE
  5
329
330
1F
100
AcDbEntity
  8
LAY-10
  6
CONTINUOUS
 62
     7
100
AcDbLine
 10
844.4717244760009
 20
765.8413397209998
 30
0.0
 11
832.9810578290007
 21
775.483153867
 31
0.0
  0
LINE
  5
32A
330
1F
100
AcDbEntity
  8
LAY-10
  6
CONTINUOUS
 62
     7
100
AcDbLine
 10
405.5282755242008
 20
765.8413397209998
 30
0.0
 11
417.0189421710007
 21
775.483153867
 31
0.0
  0
ARC
  5
32B
330
1F
100
AcDbEntity
  8
LAY-10
  6
PHANTOM
 62
     7
100
AcDbCircle
 10
332.002993200841
 20
394.7141858001066
 30
0.0
 40
1.51
100
AcDbArc
 50
174.4782457499284
 51
7.521754250059032
  0
LINE
  5
32C
330
1F
100
AcDbEntity
  8
LAY-10
  6
PHANTOM
 62
     7
100
AcDbLine
 10
338.5000000001006
 20
394.9991240776998
 30
0.0
 11
339.3560823668264
 21
392.013610066863
 31
0.0
  0
LINE
  5
32D
330
1F
100
AcDbEntity
  8
LAY-10
  6
PHANTOM
 62
     7
100
AcDbLine
 10
339.3560823668264
 20
392.013610066863
 30
0.0
 11
377.5000000001007
 21
392.679414625764
 31
0.0
  0
LINE
  5
32E
330
1F
100
AcDbEntity
  8
LAY-10
  6
PHANTOM
 62
     7
100
AcDbLine
 10
409.5000000001008
 20
393.2379767034633
 30
0.0
 11
625.0000000000007
 21
396.9995431954684
 31
0.0
  0
LINE
  5
32F
330
1F
100
AcDbEntity
  8
LAY-10
  6
PHANTOM
 62
     7
100
AcDbLine
 10
625.0000000000007
 20
396.9995431954686
 30
0.0
 11
803.6439176332749
 21
393.8813020141695
 31
0.0
  0
LINE
  5
330
330
1F
100
AcDbEntity
  8
LAY-10
  6
PHANTOM
 62
     7
100
AcDbLine
 10
803.6439176332749
 20
393.8813020141694
 30
0.0
 11
804.5000000000007
 21
396.8668160250064
 31
0.0
  0
LINE
  5
331
330
1F
100
AcDbEntity
  8
LAY-10
  6
PHANTOM
 62
     7
100
AcDbLine
 10
880.5000000000005
 20
395.5402310904706
 30
0.0
 11
881.2513679281026
 21
392.526658930369
 31
0.0
  0
LINE
  5
332
330
1F
100
AcDbEntity
  8
LAY-10
  6
PHANTOM
 62
     7
100
AcDbLine
 10
881.2513679281026
 20
392.526658930369
 30
0.0
 11
895.643917633275
 21
392.2754360407843
 31
0.0
  0
LINE
  5
333
330
1F
100
AcDbEntity
  8
LAY-10
  6
PHANTOM
 62
     7
100
AcDbLine
 10
896.5000000000007
 20
395.260950051621
 30
0.0
 11
895.643917633275
 21
392.2754360407843
 31
0.0
  0
LINE
  5
334
330
1F
100
AcDbEntity
  8
LAY-10
  6
PHANTOM
 62
     7
100
AcDbLine
 10
901.5000000000007
 20
395.1736747269807
 30
0.0
 11
902.2513679281028
 21
392.1601025668788
 31
0.0
  0
LINE
  5
335
330
1F
100
AcDbEntity
  8
LAY-10
  6
PHANTOM
 62
     7
100
AcDbLine
 10
902.2513679281028
 20
392.1601025668788
 30
0.0
 11
925.643917633275
 21
391.7517840929413
 31
0.0
  0
LINE
  5
336
330
1F
100
AcDbEntity
  8
LAY-10
  6
PHANTOM
 62
     7
100
AcDbLine
 10
926.5000000000007
 20
394.737298103778
 30
0.0
 11
925.643917633275
 21
391.7517840929413
 31
0.0
  0
DIMENSION
  5
338
330
1F
100
AcDbEntity
  8
LAY-20
  6
CONTINUOUS
 62
     4
100
AcDbDimension
  2
*D15
 10
956.5
 20
520.0
 30
0.0
 11
625.00000000005
 21
532.5
 31
0.0
 70
   160
  1
%%c<>
  3
ISO-25
100
AcDbAlignedDimension
 13
293.5000000001
 23
394.4405620000001
 33
0.0
 14
956.5
 24
394.4405620000001
 34
0.0
100
AcDbRotatedDimension
1001
ACAD
1000
DSTYLE
1002
{
1070
   270
1070
     2
1070
     6
1000
EX_BNORM
1070
     7
1000
EX_BNORM
1070
    41
1040
15.0
1070
    42
1040
7.5
1070
    44
1040
7.5
1070
    73
1070
     0
1070
    74
1070
     0
1070
    75
1070
     0
1070
    76
1070
     0
1070
    77
1070
     1
1070
    78
1070
     8
1070
   140
1040
15.590552
1070
   147
1040
0.0
1070
   173
1070
     1
1070
   176
1070
     4
1070
   177
1070
     4
1070
   178
1070
     7
1070
   271
1070
     1
1070
   277
1070
     2
1070
   279
1070
     2
1070
   280
1070
     0
1070
   287
1070
     5
1070
   340
1005
337
1002
}
  0
DIMENSION
  5
346
330
1F
100
AcDbEntity
  8
LAY-20
  6
CONTINUOUS
 62
     4
100
AcDbDimension
  2
*D16
 10
943.5
 20
485.0
 30
0.0
 11
625.00000000005
 21
497.5
 31
0.0
 70
   160
  1
%%c<>
  3
ISO-25
100
AcDbAlignedDimension
 13
306.5000000001
 23
394.4405620000001
 33
0.0
 14
943.5
 24
394.4405620000001
 34
0.0
100
AcDbRotatedDimension
1001
ACAD
1000
DSTYLE
1002
{
1070
   270
1070
     2
1070
     6
1000
EX_BNORM
1070
     7
1000
EX_BNORM
1070
    41
1040
15.0
1070
    42
1040
7.5
1070
    44
1040
7.5
1070
    73
1070
     0
1070
    74
1070
     0
1070
    75
1070
     0
1070
    76
1070
     0
1070
    77
1070
     1
1070
    78
1070
     8
1070
   140
1040
15.590552
1070
   147
1040
0.0
1070
   173
1070
     1
1070
   176
1070
     4
1070
   177
1070
     4
1070
   178
1070
     7
1070
   271
1070
     1
1070
   277
1070
     2
1070
   279
1070
     2
1070
   280
1070
     0
1070
   287
1070
     5
1070
   340
1005
337
1002
}
  0
DIMENSION
  5
353
330
1F
100
AcDbEntity
  8
LAY-20
  6
CONTINUOUS
 62
     4
100
AcDbDimension
  2
*D17
 10
925.0
 20
284.440562
 30
0.0
 11
625.00000000005
 21
296.940562
 31
0.0
 70
   160
  1
%%c<>
  3
ISO-25
100
AcDbAlignedDimension
 13
325.0000000000999
 23
348.740562
 33
0.0
 14
925.0
 24
343.9999999999999
 34
0.0
100
AcDbRotatedDimension
1001
ACAD
1000
DSTYLE
1002
{
1070
   270
1070
     2
1070
     6
1000
EX_BNORM
1070
     7
1000
EX_BNORM
1070
    41
1040
15.0
1070
    42
1040
7.5
1070
    44
1040
7.5
1070
    73
1070
     0
1070
    74
1070
     0
1070
    75
1070
     0
1070
    76
1070
     0
1070
    77
1070
     1
1070
    78
1070
     8
1070
   140
1040
15.590552
1070
   147
1040
0.0
1070
   173
1070
     1
1070
   176
1070
     4
1070
   177
1070
     4
1070
   178
1070
     7
1070
   271
1070
     1
1070
   277
1070
     2
1070
   279
1070
     2
1070
   280
1070
     0
1070
   287
1070
     5
1070
   340
1005
337
1002
}
  0
DIMENSION
  5
360
330
1F
100
AcDbEntity
  8
LAY-20
  6
CONTINUOUS
 62
     4
100
AcDbDimension
  2
*D18
 10
967.5
 20
249.440562
 30
0.0
 11
625.00000000005
 21
261.940562
 31
0.0
 70
   160
  1
□<>
  3
ISO-25
100
AcDbAlignedDimension
 13
282.5000000001
 23
326.9405619999999
 33
0.0
 14
967.5
 24
249.440562
 34
0.0
100
AcDbRotatedDimension
1001
ACAD
1000
DSTYLE
1002
{
1070
   270
1070
     2
1070
     6
1000
EX_BNORM
1070
     7
1000
EX_NONE
1070
    41
1040
15.0
1070
    42
1040
0.0
1070
    44
1040
0.0
1070
    73
1070
     0
1070
    74
1070
     0
1070
    75
1070
     0
1070
    76
1070
     1
1070
    77
1070
     1
1070
    78
1070
     8
1070
   140
1040
15.590552
1070
   147
1040
0.0
1070
   173
1070
     1
1070
   176
1070
     4
1070
   177
1070
     4
1070
   178
1070
     7
1070
   271
1070
     1
1070
   277
1070
     2
1070
   279
1070
     2
1070
   280
1070
     0
1070
   287
1070
     5
1070
   340
1005
337
1002
}
  0
DIMENSION
  5
36C
330
1F
100
AcDbEntity
  8
LAY-20
  6
CONTINUOUS
 62
     4
100
AcDbDimension
  2
*D19
 10
1139.0
 20
334.4405619999999
 30
0.0
 11
1126.5
 21
364.4405620000001
 31
0.0
 70
   160
  3
ISO-25
100
AcDbAlignedDimension
 13
956.5
 23
394.4405620000001
 33
0.0
 14
1089.5
 24
334.4405619999999
 34
0.0
 50
90.0
100
AcDbRotatedDimension
1001
ACAD
1000
DSTYLE
1002
{
1070
   270
1070
     2
1070
     6
1000
EX_BNORM
1070
     7
1000
EX_BNORM
1070
    41
1040
15.0
1070
    42
1040
7.5
1070
    44
1040
7.5
1070
    73
1070
     0
1070
    74
1070
     0
1070
    75
1070
     0
1070
    76
1070
     0
1070
    77
1070
     1
1070
    78
1070
     8
1070
   140
1040
15.590552
1070
   147
1040
0.0
1070
   173
1070
     1
1070
   176
1070
     4
1070
   177
1070
     4
1070
   178
1070
     7
1070
   271
1070
     1
1070
   277
1070
     2
1070
   279
1070
     2
1070
   280
1070
     0
1070
   287
1070
     5
1070
   340
1005
337
1002
}
  0
LINE
  5
379
330
1F
100
AcDbEntity
  8
LAY-255
  6
CONTINUOUS
 62
     7
100
AcDbLine
 10
1925.0
 20
110.0
 30
0.0
 11
1425.0
 21
110.0
 31
0.0
  0
LINE
  5
37A
330
1F
100
AcDbEntity
  8
LAY-255
  6
CONTINUOUS
 62
     7
100
AcDbLine
 10
1444.0
 20
79.99999999999999
 30
0.0
 11
1484.0
 21
105.0
 31
0.0
  0
LINE
  5
37B
330
1F
100
AcDbEntity
  8
LAY-255
  6
CONTINUOUS
 62
     7
100
AcDbLine
 10
1484.0
 20
105.0
 30
0.0
 11
1524.0
 21
79.99999999999999
 31
0.0
  0
LINE
  5
37C
330
1F
100
AcDbEntity
  8
LAY-255
  6
CONTINUOUS
 62
     7
100
AcDbLine
 10
1524.0
 20
79.99999999999999
 30
0.0
 11
1484.0
 21
55.0
 31
0.0
  0
LINE
  5
37D
330
1F
100
AcDbEntity
  8
LAY-255
  6
CONTINUOUS
 62
     7
100
AcDbLine
 10
1484.0
 20
55.0
 30
0.0
 11
1444.0
 21
79.99999999999999
 31
0.0
  0
LINE
  5
37E
330
1F
100
AcDbEntity
  8
LAY-255
  6
CONTINUOUS
 62
     7
100
AcDbLine
 10
25.0
 20
50.0
 30
0.0
 11
1925.0
 21
50.0
 31
0.0
  0
LINE
  5
37F
330
1F
100
AcDbEntity
  8
LAY-255
  6
CONTINUOUS
 62
     7
100
AcDbLine
 10
25.0
 20
1400.0
 30
0.0
 11
1925.0
 21
1400.0
 31
0.0
  0
LINE
  5
380
330
1F
100
AcDbEntity
  8
LAY-255
  6
CONTINUOUS
 62
     7
100
AcDbLine
 10
25.0
 20
50.0
 30
0.0
 11
25.0
 21
1400.0
 31
0.0
  0
LINE
  5
381
330
1F
100
AcDbEntity
  8
LAY-255
  6
CONTINUOUS
 62
     4
100
AcDbLine
 10
1425.0
 20
140.0
 30
0.0
 11
1925.0
 21
140.0
 31
0.0
  0
LINE
  5
382
330
1F
100
AcDbEntity
  8
LAY-255
  6
CONTINUOUS
 62
     4
100
AcDbLine
 10
1675.0
 20
140.0
 30
0.0
 11
1675.0
 21
110.0
 31
0.0
  0
LINE
  5
383
330
1F
100
AcDbEntity
  8
LAY-255
  6
CONTINUOUS
 62
     7
100
AcDbLine
 10
1925.0
 20
50.0
 30
0.0
 11
1925.0
 21
1400.0
 31
0.0
  0
LINE
  5
384
330
1F
100
AcDbEntity
  8
LAY-255
  6
CONTINUOUS
 62
     7
100
AcDbLine
 10
1425.0
 20
50.0
 30
0.0
 11
1425.0
 21
360.0
 31
0.0
  0
LINE
  5
385
330
1F
100
AcDbEntity
  8
LAY-255
  6
CONTINUOUS
 62
     7
100
AcDbLine
 10
1925.0
 20
360.0
 30
0.0
 11
1425.0
 21
360.0
 31
0.0
  0
LINE
  5
386
330
1F
100
AcDbEntity
  8
LAY-255
  6
CONTINUOUS
 62
     4
100
AcDbLine
 10
1915.0
 20
300.0
 30
0.0
 11
1435.0
 21
300.0
 31
0.0
  0
LINE
  5
387
330
1F
100
AcDbEntity
  8
LAY-255
  6
CONTINUOUS
 62
     4
100
AcDbLine
 10
1915.0
 20
330.0
 30
0.0
 11
1435.0
 21
330.0
 31
0.0
  0
POINT
  5
388
330
1F
100
AcDbEntity
  8
LAY-255
  6
CONTINUOUS
 62
     7
100
AcDbPoint
 10
1445.0
 20
275.0
 30
0.0
  0
POINT
  5
389
330
1F
100
AcDbEntity
  8
LAY-255
  6
CONTINUOUS
 62
     7
100
AcDbPoint
 10
1500.0
 20
305.0
 30
0.0
  0
POINT
  5
38A
330
1F
100
AcDbEntity
  8
LAY-255
  6
CONTINUOUS
 62
     7
100
AcDbPoint
 10
1500.0
 20
335.0
 30
0.0
  0
POINT
  5
38B
330
1F
100
AcDbEntity
  8
LAY-255
  6
CONTINUOUS
 62
     7
100
AcDbPoint
 10
1445.0
 20
225.0
 30
0.0
  0
POINT
  5
38C
330
1F
100
AcDbEntity
  8
LAY-255
  6
CONTINUOUS
 62
     7
100
AcDbPoint
 10
1445.0
 20
250.0
 30
0.0
  0
POINT
  5
38D
330
1F
100
AcDbEntity
  8
LAY-255
  6
CONTINUOUS
 62
     7
100
AcDbPoint
 10
1445.0
 20
199.9999999999999
 30
0.0
  0
POINT
  5
38E
330
1F
100
AcDbEntity
  8
LAY-255
  6
CONTINUOUS
 62
     7
100
AcDbPoint
 10
1445.0
 20
174.9999999999999
 30
0.0
  0
POINT
  5
38F
330
1F
100
AcDbEntity
  8
LAY-255
  6
CONTINUOUS
 62
     7
100
AcDbPoint
 10
1445.0
 20
149.9999999999999
 30
0.0
  0
TEXT
  5
390
330
1F
100
AcDbEntity
  8
LAY-255
  6
CONTINUOUS
 62
     7
100
AcDbText
 10
1540.691894370117
 20
77.71874999999999
 30
0.0
 40
25.78125
  1
福西鋳物株式会社
 41
1.342691871783662
  7
EXCADSTD
100
AcDbText
  0
TEXT
  5
391
330
1F
100
AcDbEntity
  8
LAY-255
  6
CONTINUOUS
 62
     7
100
AcDbText
 10
1542.546875
 20
59.90624999999999
 30
0.0
 40
8.59375
  1
ＦＵＫＵＮＩＳＨＩ
 41
1.204799226045263
  7
EXCADSTD
100
AcDbText
  0
TEXT
  5
392
330
1F
100
AcDbEntity
  8
LAY-255
  6
CONTINUOUS
 62
     7
100
AcDbText
 10
1663.595982142857
 20
59.90624999999999
 30
0.0
 40
8.59375
  1
ＦＯＵＮＤＲＹ
 41
1.243252752978497
  7
EXCADSTD
100
AcDbText
  0
TEXT
  5
393
330
1F
100
AcDbEntity
  8
LAY-255
  6
CONTINUOUS
 62
     7
100
AcDbText
 10
1759.97295734375
 20
59.90624999999999
 30
0.0
 40
8.59375
  1
ＣＯ.,ＬＴＤ.
 41
1.243831100341625
  7
EXCADSTD
100
AcDbText
  0
TEXT
  5
394
330
1F
100
AcDbEntity
  8
LAY-255
  6
CONTINUOUS
 62
     7
100
AcDbText
 10
1470.171875
 20
68.59375
 30
0.0
 40
25.78125
  1
S
 41
0.7582677563636363
  7
EXCADSTD
100
AcDbText
  0
TEXT
  5
395
330
1F
100
AcDbEntity
  8
LAY-255
  6
CONTINUOUS
 62
     7
100
AcDbText
 10
1485.5234375
 20
68.7470518868
 30
0.0
 40
25.78125
  1
F
 41
0.7440945272727272
  7
EXCADSTD
100
AcDbText
  0
TEXT
  5
396
330
1F
100
AcDbEntity
  8
LAY-255
  6
CONTINUOUS
 62
     7
100
AcDbText
 10
1685.52734375
 20
122.1093749999999
 30
0.0
 40
12.890625
  1
縮尺
 41
1.080708718181818
  7
EXCADSTD
100
AcDbText
  0
TEXT
  5
397
330
1F
100
AcDbEntity
  8
LAY-255
  6
CONTINUOUS
 62
     7
100
AcDbText
 10
1435.76171875
 20
122.1093749999999
 30
0.0
 40
12.890625
  1
作成日
 41
1.000629973818182
  7
EXCADSTD
100
AcDbText
  0
TEXT
  5
398
330
1F
100
AcDbEntity
  8
LAY-255
  6
CONTINUOUS
 62
     7
100
AcDbText
 10
1741.40625
 20
117.8124999999999
 30
0.0
 40
17.1875
  1
１：５
 41
0.888661464
  7
EXCADSTD
100
AcDbText
  0
TEXT
  5
399
330
1F
100
AcDbEntity
  8
LAY-255
  6
CONTINUOUS
 62
     7
100
AcDbText
 10
1436.328125
 20
307.8125
 30
0.0
 40
17.1875
  1
型式
 41
1.056348480681818
  7
EXCADSTD
100
AcDbText
  0
TEXT
  5
39A
330
1F
100
AcDbEntity
  8
LAY-255
  6
CONTINUOUS
 62
     7
100
AcDbText
 10
1437.109375
 20
337.8125
 30
0.0
 40
17.1875
  1
品名
 41
0.9788386340909091
  7
EXCADSTD
100
AcDbText
  0
TEXT
  5
39B
330
1F
100
AcDbEntity
  8
LAY-255
  6
CONTINUOUS
 62
     7
100
AcDbText
 10
1447.265625
 20
277.8125000000001
 30
0.0
 40
17.1875
  1
区分：重荷重用
 41
1.007228657526081
  7
EXCADSTD
100
AcDbText
  0
TEXT
  5
39C
330
1F
100
AcDbEntity
  8
LAY-255
  6
CONTINUOUS
 62
     7
100
AcDbText
 10
1501.953125
 20
337.8125
 30
0.0
 40
17.1875
  1
マンホールカバー
 41
1.015410627012987
  7
EXCADSTD
100
AcDbText
  0
TEXT
  5
39D
330
1F
100
AcDbEntity
  8
LAY-255
  6
CONTINUOUS
 62
     7
100
AcDbText
 10
1445.703125
 20
252.8125
 30
0.0
 40
17.1875
  1
構造：新回転ロック方式
 41
1.018792163261481
  7
EXCADSTD
100
AcDbText
  0
TEXT
  5
39E
330
1F
100
AcDbEntity
  8
LAY-255
  6
CONTINUOUS
 62
     7
100
AcDbText
 10
1446.875
 20
177.8125
 30
0.0
 40
17.1875
  1
防水：防水防臭型
 41
1.01490444025974
  7
EXCADSTD
100
AcDbText
  0
TEXT
  5
39F
330
1F
100
AcDbEntity
  8
LAY-255
  6
CONTINUOUS
 62
     7
100
AcDbText
 10
1445.703125
 20
202.8125
 30
0.0
 40
17.1875
  1
機能：施錠装置付
 41
1.024521988571429
  7
EXCADSTD
100
AcDbText
  0
TEXT
  5
3A0
330
1F
100
AcDbEntity
  8
LAY-255
  6
CONTINUOUS
 62
     7
100
AcDbText
 10
1503.75
 20
307.8125
 30
0.0
 40
17.1875
  1
ＳＦ－６０ＭＡＳＫ型
 41
1.003802844421487
  7
EXCADSTD
100
AcDbText
  0
TEXT
  5
3A1
330
1F
100
AcDbEntity
  8
LAY-255
  6
CONTINUOUS
 62
     7
100
AcDbText
 10
1445.9375
 20
227.8125
 30
0.0
 40
17.1875
  1
処理：耐腐食性金属処理加工
 41
1.015542675731225
  7
EXCADSTD
100
AcDbText
  0
TEXT
  5
3A2
330
1F
100
AcDbEntity
  8
LAY-255
  6
CONTINUOUS
 62
     7
100
AcDbText
 10
1504.453125
 20
117.8124999999999
 30
0.0
 40
17.1875
  1
０７／０３／２８
 41
0.9769404337662339
  7
EXCADSTD
100
AcDbText
  0
TEXT
  5
3A3
330
1F
100
AcDbEntity
  8
LAY-255
  6
CONTINUOUS
 62
     7
100
AcDbText
 10
1445.859375
 20
152.8124999999999
 30
0.0
 40
17.1875
  1
破壊荷重：２５０ｋＮ以上
 41
1.015859509605489
  7
EXCADSTD
100
AcDbText
  0
ENDSEC
  0
SECTION
  2
OBJECTS
  0
DICTIONARY
  5
C
330
0
100
AcDbDictionary
  3
ACAD_GROUP
350
D
  3
ACAD_LAYOUT
350
1A
  3
ACAD_MATERIAL
350
43
  3
ACAD_MLEADERSTYLE
350
6B
  3
ACAD_MLINESTYLE
350
17
  3
ACAD_PLOTSETTINGS
350
19
  3
ACAD_SCALELIST
350
47
  3
ACAD_VISUALSTYLE
350
2A
  3
ACDBHEADERROUNDTRIPXREC
350
3A4
  3
ACDBVARIABLEDICTIONARY
350
3C5
  0
DICTIONARY
  5
3D0
330
8
100
AcDbDictionary
280
     1
  3
ACAD_XREC_ROUNDTRIP
360
3D1
  0
DICTIONARY
  5
D
102
{ACAD_REACTORS
330
C
102
}
330
C
100
AcDbDictionary
  0
DICTIONARY
  5
1A
102
{ACAD_REACTORS
330
C
102
}
330
C
100
AcDbDictionary
  0
DICTIONARY
  5
43
102
{ACAD_REACTORS
330
C
102
}
330
C
100
AcDbDictionary
  3
BYBLOCK
350
45
  3
BYLAYER
350
44
  3
GLOBAL
350
46
  0
DICTIONARY
  5
6B
102
{ACAD_REACTORS
330
C
102
}
330
C
100
AcDbDictionary
  3
STANDARD
350
6C
  0
DICTIONARY
  5
17
102
{ACAD_REACTORS
330
C
102
}
330
C
100
AcDbDictionary
  3
STANDARD
350
18
  0
DICTIONARY
  5
19
102
{ACAD_REACTORS
330
C
102
}
330
C
100
AcDbDictionary
  0
DICTIONARY
  5
47
102
{ACAD_REACTORS
330
C
102
}
330
C
100
AcDbDictionary
  3
A0
350
48
  3
A1
350
49
  3
A2
350
4A
  3
A3
350
4B
  3
A4
350
4C
  3
A5
350
4D
  3
A6
350
4E
  3
A7
350
4F
  3
A8
350
50
  3
A9
350
51
  3
B0
350
52
  3
B1
350
53
  3
B2
350
54
  3
B3
350
55
  3
B4
350
56
  3
B5
350
57
  3
B6
350
58
  3
B7
350
59
  3
B8
350
5A
  3
B9
350
5B
  3
C0
350
5C
  3
C1
350
5D
  3
C2
350
5E
  3
C3
350
5F
  3
C4
350
60
  3
C5
350
61
  3
C6
350
62
  3
C7
350
63
  3
C8
350
64
  3
C9
350
65
  3
D0
350
66
  3
D1
350
67
  3
D2
350
68
  0
DICTIONARY
  5
2A
102
{ACAD_REACTORS
330
C
102
}
330
C
100
AcDbDictionary
  3
2DWIREFRAME
350
2F
  3
BASIC
350
32
  3
BRIGHTEN
350
36
  3
COLORCHANGE
350
3A
  3
CONCEPTUAL
350
34
  3
DIM
350
35
  3
EDGECOLOROFF
350
3D
  3
FACEPATTERN
350
39
  3
FLAT
350
2B
  3
FLATWITHEDGES
350
2C
  3
GOURAUD
350
2D
  3
GOURAUDWITHEDGES
350
2E
  3
HIDDEN
350
31
  3
JITTEROFF
350
3B
  3
LINEPATTERN
350
38
  3
OVERHANGOFF
350
3C
  3
REALISTIC
350
33
  3
SHADED
350
42
  3
SHADED_WITH_EDGES
350
41
  3
SHADES_OF_GRAY
350
3E
  3
SKETCHY
350
3F
  3
THICKEN
350
37
  3
WIREFRAME
350
30
  3
X-RAY
350
40
  0
DICTIONARY
  5
3A4
102
{ACAD_REACTORS
330
C
102
}
330
C
100
AcDbDictionary
  3
CEPSNID
350
3AE
  3
CEPSNTYPE
350
3AD
  3
DIMSTYLEDATA
350
3C4
  3
FINGERPRINTGUID
350
3AF
  3
HYPERLINKBASE
350
3A7
  3
INSUNITS
350
3AC
  3
LAYOUTDICT
350
3A9
  3
LWETCUNION
350
3AB
  3
PLOTSETDICT
350
3AA
  3
PSVPSCALE
350
3B1
  3
PUCSBASE
350
3B4
  3
PUCSORGBACK
350
3BA
  3
PUCSORGBOTTOM
350
3B6
  3
PUCSORGFRONT
350
3B9
  3
PUCSORGLEFT
350
3B7
  3
PUCSORGRIGHT
350
3B8
  3
PUCSORGTOP
350
3B5
  3
PUCSORTHOREF
350
3B2
  3
PUCSORTHOVIEW
350
3B3
  3
STYLESHEET
350
3A8
  3
TSTACKALIGN
350
3A5
  3
TSTACKSIZE
350
3A6
  3
UCSBASE
350
3BD
  3
UCSORGBACK
350
3C3
  3
UCSORGBOTTOM
350
3BF
  3
UCSORGFRONT
350
3C2
  3
UCSORGLEFT
350
3C0
  3
UCSORGRIGHT
350
3C1
  3
UCSORGTOP
350
3BE
  3
UCSORTHOREF
350
3BB
  3
UCSORTHOVIEW
350
3BC
  3
VERSIONGUID
350
3B0
  0
DICTIONARY
  5
3C5
102
{ACAD_REACTORS
330
C
102
}
330
C
100
AcDbDictionary
  3
CANNOSCALE
350
3D2
  3
CENTEREXE
350
3CC
  3
CENTERLTYPEFILE
350
3CD
  3
CMLEADERSTYLE
350
3C7
  3
CTABLESTYLE
350
3C6
  3
DIMASSOC
350
3CE
  3
HIDETEXT
350
3CF
  3
MSLTSCALE
350
3D3
  3
PSOLHEIGHT
350
3C9
  3
PSOLWIDTH
350
3C8
  0
XRECORD
  5
3D1
102
{ACAD_REACTORS
330
3D0
102
}
330
3D0
100
AcDbXrecord
102
VTR_0.000_0.000_1.000_1.000_VISUALSTYLE
340
2F
102
VTR_0.000_0.000_1.000_1.000_GRIDDISPLAY
 70
     3
102
VTR_0.000_0.000_1.000_1.000_GRIDMAJOR
 70
     5
102
VTR_0.000_0.000_1.000_1.000_DEFAULTLIGHTING
280
     1
102
VTR_0.000_0.000_1.000_1.000_DEFAULTLIGHTINGTYPE
 70
     1
102
VTR_0.000_0.000_1.000_1.000_BRIGHTNESS
141
0.0
102
VTR_0.000_0.000_1.000_1.000_CONTRAST
142
0.0
  0
MATERIAL
  5
45
102
{ACAD_REACTORS
330
43
102
}
102
{ACAD_XDICTIONARY
360
3D6
102
}
330
43
100
AcDbMaterial
  1
BYBLOCK
  0
MATERIAL
  5
44
102
{ACAD_REACTORS
330
43
102
}
102
{ACAD_XDICTIONARY
360
3D4
102
}
330
43
100
AcDbMaterial
  1
BYLAYER
  0
MATERIAL
  5
46
102
{ACAD_REACTORS
330
43
102
}
102
{ACAD_XDICTIONARY
360
3D8
102
}
330
43
100
AcDbMaterial
  1
GLOBAL
  0
ACAD_PROXY_OBJECT
  5
6C
102
{ACAD_REACTORS
330
6B
102
}
330
6B
100
AcDbProxyObject
 90
      499
 91
      505
 93
      610
310
40901902A4063FBFFFFFE0000000000000020400000000000020404214DD185B99185C990000000000000104090141901A00000000000004100000000000000041025764000000000000039000
340
14
340
0
340
11
340
0
 94
        0
1001
ACAD_MLEADERVER
1070
     2
  0
MLINESTYLE
  5
18
102
{ACAD_REACTORS
330
17
102
}
330
17
100
AcDbMlineStyle
  2
Standard
 70
     0
  3

 62
   256
 51
90.0
 52
90.0
 71
     2
 49
0.5
 62
   256
  6
BYLAYER
 49
-0.5
 62
   256
  6
BYLAYER
  0
ACAD_PROXY_OBJECT
  5
48
102
{ACAD_REACTORS
330
47
102
}
330
47
100
AcDbProxyObject
 90
      499
 91
      503
 93
       41
310
903313A31580
  0
ACAD_PROXY_OBJECT
  5
49
102
{ACAD_REACTORS
330
47
102
}
330
47
100
AcDbProxyObject
 90
      499
 91
      503
 93
      105
310
903313A324000000000000004000
  0
ACAD_PROXY_OBJECT
  5
4A
102
{ACAD_REACTORS
330
47
102
}
330
47
100
AcDbProxyObject
 90
      499
 91
      503
 93
      105
310
903313A344000000000000104000
  0
ACAD_PROXY_OBJECT
  5
4B
102
{ACAD_REACTORS
330
47
102
}
330
47
100
AcDbProxyObject
 90
      499
 91
      503
 93
      105
310
903313A354000000000000144000
  0
ACAD_PROXY_OBJECT
  5
4C
102
{ACAD_REACTORS
330
47
102
}
330
47
100
AcDbProxyObject
 90
      499
 91
      503
 93
      105
310
903313A384000000000000204000
  0
ACAD_PROXY_OBJECT
  5
4D
102
{ACAD_REACTORS
330
47
102
}
330
47
100
AcDbProxyObject
 90
      499
 91
      503
 93
      113
310
904313A31304000000000000244000
  0
ACAD_PROXY_OBJECT
  5
4E
102
{ACAD_REACTORS
330
47
102
}
330
47
100
AcDbProxyObject
 90
      499
 91
      503
 93
      113
310
904313A31364000000000000304000
  0
ACAD_PROXY_OBJECT
  5
4F
102
{ACAD_REACTORS
330
47
102
}
330
47
100
AcDbProxyObject
 90
      499
 91
      503
 93
      113
310
904313A32304000000000000344000
  0
ACAD_PROXY_OBJECT
  5
50
102
{ACAD_REACTORS
330
47
102
}
330
47
100
AcDbProxyObject
 90
      499
 91
      503
 93
      113
310
904313A333040000000000003E4000
  0
ACAD_PROXY_OBJECT
  5
51
102
{ACAD_REACTORS
330
47
102
}
330
47
100
AcDbProxyObject
 90
      499
 91
      503
 93
      113
310
904313A34304000000000000444000
  0
ACAD_PROXY_OBJECT
  5
52
102
{ACAD_REACTORS
330
47
102
}
330
47
100
AcDbProxyObject
 90
      499
 91
      503
 93
      113
310
904313A35304000000000000494000
  0
ACAD_PROXY_OBJECT
  5
53
102
{ACAD_REACTORS
330
47
102
}
330
47
100
AcDbProxyObject
 90
      499
 91
      503
 93
      121
310
905313A3130304000000000000594000
  0
ACAD_PROXY_OBJECT
  5
54
102
{ACAD_REACTORS
330
47
102
}
330
47
100
AcDbProxyObject
 90
      499
 91
      503
 93
      105
310
903323A310000000000000010100
  0
ACAD_PROXY_OBJECT
  5
55
102
{ACAD_REACTORS
330
47
102
}
330
47
100
AcDbProxyObject
 90
      499
 91
      503
 93
      105
310
903343A310000000000000410100
  0
ACAD_PROXY_OBJECT
  5
56
102
{ACAD_REACTORS
330
47
102
}
330
47
100
AcDbProxyObject
 90
      499
 91
      503
 93
      105
310
903383A310000000000000810100
  0
ACAD_PROXY_OBJECT
  5
57
102
{ACAD_REACTORS
330
47
102
}
330
47
100
AcDbProxyObject
 90
      499
 91
      503
 93
      113
310
90431303A310000000000000910100
  0
ACAD_PROXY_OBJECT
  5
58
102
{ACAD_REACTORS
330
47
102
}
330
47
100
AcDbProxyObject
 90
      499
 91
      503
 93
      121
310
9053130303A310000000000001650100
  0
ACAD_PROXY_OBJECT
  5
59
102
{ACAD_REACTORS
330
47
102
}
330
47
100
AcDbProxyObject
 90
      499
 91
      503
 93
      257
310
90E312F31323822203D2031272D3022000000000000200FC000000000000284000
  0
ACAD_PROXY_OBJECT
  5
5A
102
{ACAD_REACTORS
330
47
102
}
330
47
100
AcDbProxyObject
 90
      499
 91
      503
 93
      249
310
90D312F363422203D2031272D3022000000000000240FC000000000000284000
  0
ACAD_PROXY_OBJECT
  5
5B
102
{ACAD_REACTORS
330
47
102
}
330
47
100
AcDbProxyObject
 90
      499
 91
      503
 93
      249
310
90D312F333222203D2031272D3022000000000000280FC000000000000284000
  0
ACAD_PROXY_OBJECT
  5
5C
102
{ACAD_REACTORS
330
47
102
}
330
47
100
AcDbProxyObject
 90
      499
 91
      503
 93
      249
310
90D312F313622203D2031272D30220000000000002C0FC000000000000284000
  0
ACAD_PROXY_OBJECT
  5
5D
102
{ACAD_REACTORS
330
47
102
}
330
47
100
AcDbProxyObject
 90
      499
 91
      503
 93
      249
310
90D332F333222203D2031272D30220000000000002E0FC000000000000284000
  0
ACAD_PROXY_OBJECT
  5
5E
102
{ACAD_REACTORS
330
47
102
}
330
47
100
AcDbProxyObject
 90
      499
 91
      503
 93
      241
310
90C312F3822203D2031272D3022000000000000300FC000000000000284000
  0
ACAD_PROXY_OBJECT
  5
5F
102
{ACAD_REACTORS
330
47
102
}
330
47
100
AcDbProxyObject
 90
      499
 91
      503
 93
      249
310
90D332F313622203D2031272D3022000000000000320FC000000000000284000
  0
ACAD_PROXY_OBJECT
  5
60
102
{ACAD_REACTORS
330
47
102
}
330
47
100
AcDbProxyObject
 90
      499
 91
      503
 93
      241
310
90C312F3422203D2031272D3022000000000000340FC000000000000284000
  0
ACAD_PROXY_OBJECT
  5
61
102
{ACAD_REACTORS
330
47
102
}
330
47
100
AcDbProxyObject
 90
      499
 91
      503
 93
      241
310
90C332F3822203D2031272D3022000000000000360FC000000000000284000
  0
ACAD_PROXY_OBJECT
  5
62
102
{ACAD_REACTORS
330
47
102
}
330
47
100
AcDbProxyObject
 90
      499
 91
      503
 93
      241
310
90C312F3222203D2031272D3022000000000000380FC000000000000284000
  0
ACAD_PROXY_OBJECT
  5
63
102
{ACAD_REACTORS
330
47
102
}
330
47
100
AcDbProxyObject
 90
      499
 91
      503
 93
      241
310
90C332F3422203D2031272D30220000000000003A0FC000000000000284000
  0
ACAD_PROXY_OBJECT
  5
64
102
{ACAD_REACTORS
330
47
102
}
330
47
100
AcDbProxyObject
 90
      499
 91
      503
 93
      161
310
90A3122203D2031272D30224000000000000284000
  0
ACAD_PROXY_OBJECT
  5
65
102
{ACAD_REACTORS
330
47
102
}
330
47
100
AcDbProxyObject
 90
      499
 91
      503
 93
      257
310
90E312D312F3222203D2031272D30220000000000003E0FC000000000000284000
  0
ACAD_PROXY_OBJECT
  5
66
102
{ACAD_REACTORS
330
47
102
}
330
47
100
AcDbProxyObject
 90
      499
 91
      503
 93
      225
310
90A3322203D2031272D302200000000000002100000000000000284000
  0
ACAD_PROXY_OBJECT
  5
67
102
{ACAD_REACTORS
330
47
102
}
330
47
100
AcDbProxyObject
 90
      499
 91
      503
 93
      225
310
90A3622203D2031272D302200000000000006100000000000000284000
  0
ACAD_PROXY_OBJECT
  5
68
102
{ACAD_REACTORS
330
47
102
}
330
47
100
AcDbProxyObject
 90
      499
 91
      503
 93
      249
310
90D31272D3022203D2031272D30220000000000000A100000000000000284000
  0
ACAD_PROXY_OBJECT
  5
2F
102
{ACAD_REACTORS
330
2A
102
}
330
2A
100
AcDbProxyObject
 90
      499
 91
      501
 93
      436
310
42CC9915DA5C99599C985B595049028333333333333E33F0000000000000F90107901411070040501600405405064090741402480A0340
1001
ACAD
1000
AcDbSavedByObjectVersion
1070
     0
  0
ACAD_PROXY_OBJECT
  5
32
102
{ACAD_REACTORS
330
2A
102
}
330
2A
100
AcDbProxyObject
 90
      499
 91
      501
 93
      388
310
4150985CDA58D07406404333333333333E33F0000000000000F90107A41107004050150841D405064090741402480A0350
1001
ACAD
1000
AcDbSavedByObjectVersion
1070
     0
  0
ACAD_PROXY_OBJECT
  5
36
102
{ACAD_REACTORS
330
2A
102
}
330
2A
100
AcDbProxyObject
 90
      499
 91
      501
 93
      428
310
42109C9A59DA1D195B90C409028333333333333E33F0000000000000F9010790141107004050150841D405064090741402480A029950
1001
ACAD
1000
AcDbSavedByObjectVersion
1070
     0
  0
ACAD_PROXY_OBJECT
  5
3A
102
{ACAD_REACTORS
330
2A
102
}
330
2A
100
AcDbProxyObject
 90
      499
 91
      501
 93
      452
310
42D0DBDB1BDC90DA185B99D95104090240C333333333333E33F0000000000000F90108901411070040501508421405064090741402480A0350
1001
ACAD
1000
AcDbSavedByObjectVersion
1070
     0
  0
ACAD_PROXY_OBJECT
  5
34
102
{ACAD_REACTORS
330
2A
102
}
330
2A
100
AcDbProxyObject
 90
      499
 91
      501
 93
      500
310
4290DBDB98D95C1D1D585B10940D028333333333333E33F0000000000000F90107902409070040501000000000018199010841D405064090740C02480A0340
1001
ACAD
1000
AcDbSavedByObjectVersion
1070
     0
  0
ACAD_PROXY_OBJECT
  5
35
102
{ACAD_REACTORS
330
2A
102
}
330
2A
100
AcDbProxyObject
 90
      499
 91
      501
 93
      412
310
40D11A5B50B409028333333333333E33F0000000000000F9010790141107004050150841D405064090741402480A02677FFFFFD0
1001
ACAD
1000
AcDbSavedByObjectVersion
1070
     0
  0
ACAD_PROXY_OBJECT
  5
3D
102
{ACAD_REACTORS
330
2A
102
}
330
2A
100
AcDbProxyObject
 90
      499
 91
      501
 93
      452
310
43115919D950DBDB1BDC93D999916409028333333333333E33F0000000000000F9010790141107004050150841D405064090741402480A0350
1001
ACAD
1000
AcDbSavedByObjectVersion
1070
     0
  0
ACAD_PROXY_OBJECT
  5
39
102
{ACAD_REACTORS
330
2A
102
}
330
2A
100
AcDbProxyObject
 90
      499
 91
      501
 93
      444
310
42D19858D95C185D1D195C9B90F409028333333333333E33F0000000000000F9010790141107004050150841D405064090741402480A0350
1001
ACAD
1000
AcDbSavedByObjectVersion
1070
     0
  0
ACAD_PROXY_OBJECT
  5
2B
102
{ACAD_REACTORS
330
2A
102
}
330
2A
100
AcDbProxyObject
 90
      499
 91
      501
 93
      380
310
41119B185D240901404333333333333E33F0000000000000F9010740A907004050150841D405064090741402480A1B50
1001
ACAD
1000
AcDbSavedByObjectVersion
1070
     0
  0
ACAD_PROXY_OBJECT
  5
2C
102
{ACAD_REACTORS
330
2A
102
}
330
2A
100
AcDbProxyObject
 90
      499
 91
      501
 93
      468
310
43519B185D15DA5D1A115919D95CD0140901404333333333333E33F0000000000000F90107409019070040501600405405064090741402480A1B50
1001
ACAD
1000
AcDbSavedByObjectVersion
1070
     0
  0
ACAD_PROXY_OBJECT
  5
2D
102
{ACAD_REACTORS
330
2A
102
}
330
2A
100
AcDbProxyObject
 90
      499
 91
      501
 93
      404
310
41D1DBDD5C985D5910240902404333333333333E33F0000000000000F9010740A9070040501641D405064090741402480A1B50
1001
ACAD
1000
AcDbSavedByObjectVersion
1070
     0
  0
ACAD_PROXY_OBJECT
  5
2E
102
{ACAD_REACTORS
330
2A
102
}
330
2A
100
AcDbProxyObject
 90
      499
 91
      501
 93
      492
310
4411DBDD5C985D5915DA5D1A115919D95CD0340902404333333333333E33F0000000000000F90107409019070040501600405405064090741402480A1B50
1001
ACAD
1000
AcDbSavedByObjectVersion
1070
     0
  0
ACAD_PROXY_OBJECT
  5
31
102
{ACAD_REACTORS
330
2A
102
}
330
2A
100
AcDbProxyObject
 90
      499
 91
      501
 93
      476
310
41921A5919195B90640502408333333333333E33F0000000000000F901079024090700405020000000000001110200405405064090740C02480A0340
1001
ACAD
1000
AcDbSavedByObjectVersion
1070
     0
  0
ACAD_PROXY_OBJECT
  5
3B
102
{ACAD_REACTORS
330
2A
102
}
330
2A
100
AcDbProxyObject
 90
      499
 91
      501
 93
      428
310
42529A5D1D195C93D999914409028333333333333E33F0000000000000F9010790141107004050150A41D405064090741402480A0350
1001
ACAD
1000
AcDbSavedByObjectVersion
1070
     0
  0
ACAD_PROXY_OBJECT
  5
38
102
{ACAD_REACTORS
330
2A
102
}
330
2A
100
AcDbProxyObject
 90
      499
 91
      501
 93
      444
310
42D31A5B995C185D1D195C9B90E409028333333333333E33F0000000000000F9010790141107004050750841D405064090741402483A0350
1001
ACAD
1000
AcDbSavedByObjectVersion
1070
     0
  0
ACAD_PROXY_OBJECT
  5
3C
102
{ACAD_REACTORS
330
2A
102
}
330
2A
100
AcDbProxyObject
 90
      499
 91
      501
 93
      444
310
42D3DD995C9A185B99D3D999915409028333333333333E33F0000000000000F9010790141107004050150941D405064090741402480A0350
1001
ACAD
1000
AcDbSavedByObjectVersion
1070
     0
  0
ACAD_PROXY_OBJECT
  5
33
102
{ACAD_REACTORS
330
2A
102
}
330
2A
100
AcDbProxyObject
 90
      499
 91
      501
 93
      428
310
425499585B1A5CDD1A58D08409038333333333333E33F0000000000000F9010740A907004050150800405405064090740C02480A1B40
1001
ACAD
1000
AcDbSavedByObjectVersion
1070
     0
  0
ACAD_PROXY_OBJECT
  5
42
102
{ACAD_REACTORS
330
2A
102
}
330
2A
100
AcDbProxyObject
 90
      499
 91
      501
 93
      420
310
4194DA1859195911B40902404333333333333E33F0000000000000F9010740A41107004050150800405405064090840C02480A0B40
1001
ACAD
1000
AcDbSavedByObjectVersion
1070
     0
  0
ACAD_PROXY_OBJECT
  5
41
102
{ACAD_REACTORS
330
2A
102
}
330
2A
100
AcDbProxyObject
 90
      499
 91
      501
 93
      516
310
4454DA18591959081DDA5D1A08195919D95CD1A40902404333333333333E33F0000000000000F901074090142907004050250800405405064090740C02480A0B40
1001
ACAD
1000
AcDbSavedByObjectVersion
1070
     0
  0
ACAD_PROXY_OBJECT
  5
3E
102
{ACAD_REACTORS
330
2A
102
}
330
2A
100
AcDbProxyObject
 90
      499
 91
      501
 93
      532
310
4394DA1859195CC81BD98811DC985E5174090240C333333333333E33F0000000000000F901079024090741D01000000000000111010841D405064090740C02480A0340
1001
ACAD
1000
AcDbSavedByObjectVersion
1070
     0
  0
ACAD_PROXY_OBJECT
  5
3F
102
{ACAD_REACTORS
330
2A
102
}
330
2A
100
AcDbProxyObject
 90
      499
 91
      501
 93
      476
310
41D4DAD95D18DA1E51840502408333333333333E33F0000000000000F901079024090741D01000000000000111010B41D405064090741802480A0340
1001
ACAD
1000
AcDbSavedByObjectVersion
1070
     0
  0
ACAD_PROXY_OBJECT
  5
37
102
{ACAD_REACTORS
330
2A
102
}
330
2A
100
AcDbProxyObject
 90
      499
 91
      501
 93
      412
310
41D51A1A58DAD95B90D409028333333333333E33F0000000000000F9010790141107004050150C41D405064090741402480A0350
1001
ACAD
1000
AcDbSavedByObjectVersion
1070
     0
  0
ACAD_PROXY_OBJECT
  5
30
102
{ACAD_REACTORS
330
2A
102
}
330
2A
100
AcDbProxyObject
 90
      499
 91
      501
 93
      420
310
4255DA5C99599C985B595059028333333333333E33F0000000000000F90107901411070040501600405405064090740C02480A0340
1001
ACAD
1000
AcDbSavedByObjectVersion
1070
     0
  0
ACAD_PROXY_OBJECT
  5
40
102
{ACAD_REACTORS
330
2A
102
}
330
2A
100
AcDbProxyObject
 90
      499
 91
      501
 93
      404
310
41560B54985E51940902404000000000000E03F0000000000000F9010740501907004050150841D405064090740C02480A1B40
1001
ACAD
1000
AcDbSavedByObjectVersion
1070
     0
  0
XRECORD
  5
3AE
102
{ACAD_REACTORS
330
3A4
102
}
330
3A4
100
AcDbXrecord
340
0
  0
XRECORD
  5
3AD
102
{ACAD_REACTORS
330
3A4
102
}
330
3A4
100
AcDbXrecord
 90
        0
  0
XRECORD
  5
3C4
102
{ACAD_REACTORS
330
3A4
102
}
330
3A4
100
AcDbXrecord
1000
DSTYLE
1002
{
1070
   340
340
11
1002
}
  0
XRECORD
  5
3AF
102
{ACAD_REACTORS
330
3A4
102
}
330
3A4
100
AcDbXrecord
  1
{c2626a19-1c01-42ee-9ebe-02af46409649}
  0
XRECORD
  5
3A7
102
{ACAD_REACTORS
330
3A4
102
}
330
3A4
100
AcDbXrecord
  1

  0
XRECORD
  5
3AC
102
{ACAD_REACTORS
330
3A4
102
}
330
3A4
100
AcDbXrecord
 90
        4
  0
XRECORD
  5
3A9
102
{ACAD_REACTORS
330
3A4
102
}
330
3A4
100
AcDbXrecord
340
1A
  0
XRECORD
  5
3AB
102
{ACAD_REACTORS
330
3A4
102
}
330
3A4
100
AcDbXrecord
 90
    10781
  0
XRECORD
  5
3AA
102
{ACAD_REACTORS
330
3A4
102
}
330
3A4
100
AcDbXrecord
340
19
  0
XRECORD
  5
3B1
102
{ACAD_REACTORS
330
3A4
102
}
330
3A4
100
AcDbXrecord
 40
0.0
  0
XRECORD
  5
3B4
102
{ACAD_REACTORS
330
3A4
102
}
330
3A4
100
AcDbXrecord
340
0
  0
XRECORD
  5
3BA
102
{ACAD_REACTORS
330
3A4
102
}
330
3A4
100
AcDbXrecord
 10
0.0
 20
0.0
 30
0.0
  0
XRECORD
  5
3B6
102
{ACAD_REACTORS
330
3A4
102
}
330
3A4
100
AcDbXrecord
 10
0.0
 20
0.0
 30
0.0
  0
XRECORD
  5
3B9
102
{ACAD_REACTORS
330
3A4
102
}
330
3A4
100
AcDbXrecord
 10
0.0
 20
0.0
 30
0.0
  0
XRECORD
  5
3B7
102
{ACAD_REACTORS
330
3A4
102
}
330
3A4
100
AcDbXrecord
 10
0.0
 20
0.0
 30
0.0
  0
XRECORD
  5
3B8
102
{ACAD_REACTORS
330
3A4
102
}
330
3A4
100
AcDbXrecord
 10
0.0
 20
0.0
 30
0.0
  0
XRECORD
  5
3B5
102
{ACAD_REACTORS
330
3A4
102
}
330
3A4
100
AcDbXrecord
 10
0.0
 20
0.0
 30
0.0
  0
XRECORD
  5
3B2
102
{ACAD_REACTORS
330
3A4
102
}
330
3A4
100
AcDbXrecord
340
0
  0
XRECORD
  5
3B3
102
{ACAD_REACTORS
330
3A4
102
}
330
3A4
100
AcDbXrecord
 70
     0
  0
XRECORD
  5
3A8
102
{ACAD_REACTORS
330
3A4
102
}
330
3A4
100
AcDbXrecord
  1

  0
XRECORD
  5
3A5
102
{ACAD_REACTORS
330
3A4
102
}
330
3A4
100
AcDbXrecord
 90
        1
  0
XRECORD
  5
3A6
102
{ACAD_REACTORS
330
3A4
102
}
330
3A4
100
AcDbXrecord
 90
       70
  0
XRECORD
  5
3BD
102
{ACAD_REACTORS
330
3A4
102
}
330
3A4
100
AcDbXrecord
340
0
  0
XRECORD
  5
3C3
102
{ACAD_REACTORS
330
3A4
102
}
330
3A4
100
AcDbXrecord
 10
0.0
 20
0.0
 30
0.0
  0
XRECORD
  5
3BF
102
{ACAD_REACTORS
330
3A4
102
}
330
3A4
100
AcDbXrecord
 10
0.0
 20
0.0
 30
0.0
  0
XRECORD
  5
3C2
102
{ACAD_REACTORS
330
3A4
102
}
330
3A4
100
AcDbXrecord
 10
0.0
 20
0.0
 30
0.0
  0
XRECORD
  5
3C0
102
{ACAD_REACTORS
330
3A4
102
}
330
3A4
100
AcDbXrecord
 10
0.0
 20
0.0
 30
0.0
  0
XRECORD
  5
3C1
102
{ACAD_REACTORS
330
3A4
102
}
330
3A4
100
AcDbXrecord
 10
0.0
 20
0.0
 30
0.0
  0
XRECORD
  5
3BE
102
{ACAD_REACTORS
330
3A4
102
}
330
3A4
100
AcDbXrecord
 10
0.0
 20
0.0
 30
0.0
  0
XRECORD
  5
3BB
102
{ACAD_REACTORS
330
3A4
102
}
330
3A4
100
AcDbXrecord
340
0
  0
XRECORD
  5
3BC
102
{ACAD_REACTORS
330
3A4
102
}
330
3A4
100
AcDbXrecord
 70
     0
  0
XRECORD
  5
3B0
102
{ACAD_REACTORS
330
3A4
102
}
330
3A4
100
AcDbXrecord
  1
{FAEB1C32-E019-11D5-929B-00C0DF256EC4}
  0
DICTIONARYVAR
  5
3D2
102
{ACAD_REACTORS
330
3C5
102
}
330
3C5
100
DictionaryVariables
280
     0
  1
1:1
  0
DICTIONARYVAR
  5
3CC
102
{ACAD_REACTORS
330
3C5
102
}
330
3C5
100
DictionaryVariables
280
     0
  1
3.500000
  0
DICTIONARYVAR
  5
3CD
102
{ACAD_REACTORS
330
3C5
102
}
330
3C5
100
DictionaryVariables
280
     0
  1
acadiso.lin
  0
DICTIONARYVAR
  5
3C7
102
{ACAD_REACTORS
330
3C5
102
}
330
3C5
100
DictionaryVariables
280
     0
  1
Standard
  0
DICTIONARYVAR
  5
3C6
102
{ACAD_REACTORS
330
3C5
102
}
330
3C5
100
DictionaryVariables
280
     0
  1
Standard
  0
DICTIONARYVAR
  5
3CE
102
{ACAD_REACTORS
330
3C5
102
}
330
3C5
100
DictionaryVariables
280
     0
  1
2
  0
DICTIONARYVAR
  5
3CF
102
{ACAD_REACTORS
330
3C5
102
}
330
3C5
100
DictionaryVariables
280
     0
  1
1
  0
DICTIONARYVAR
  5
3D3
102
{ACAD_REACTORS
330
3C5
102
}
330
3C5
100
DictionaryVariables
280
     0
  1
1
  0
DICTIONARYVAR
  5
3C9
102
{ACAD_REACTORS
330
3C5
102
}
330
3C5
100
DictionaryVariables
280
     0
  1
80.000000
  0
DICTIONARYVAR
  5
3C8
102
{ACAD_REACTORS
330
3C5
102
}
330
3C5
100
DictionaryVariables
280
     0
  1
5.000000
  0
DICTIONARY
  5
3D6
330
45
100
AcDbDictionary
280
     1
  3
ACAD_XREC_ROUNDTRIP
360
3D7
  0
DICTIONARY
  5
3D4
330
44
100
AcDbDictionary
280
     1
  3
ACAD_XREC_ROUNDTRIP
360
3D5
  0
DICTIONARY
  5
3D8
330
46
100
AcDbDictionary
280
     1
  3
ACAD_XREC_ROUNDTRIP
360
3D9
  0
XRECORD
  5
3D7
102
{ACAD_REACTORS
330
3D6
102
}
330
3D6
100
AcDbXrecord
102
MATERIAL
148
0.0
149
0.0
149
0.0
 93
        0
 94
      127
282
     0
 72
     1
 77
     1
171
     1
175
     1
179
     1
273
     0
  0
XRECORD
  5
3D5
102
{ACAD_REACTORS
330
3D4
102
}
330
3D4
100
AcDbXrecord
102
MATERIAL
148
0.0
149
0.0
149
0.0
 93
        0
 94
      127
282
     0
 72
     1
 77
     1
171
     1
175
     1
179
     1
273
     0
  0
XRECORD
  5
3D9
102
{ACAD_REACTORS
330
3D8
102
}
330
3D8
100
AcDbXrecord
102
MATERIAL
148
0.0
149
0.0
149
0.0
 93
        0
 94
      127
282
     0
 72
     1
 77
     1
171
     1
175
     1
179
     1
273
     0
  0
ENDSEC
  0
EOF
