  0
SECTION
  2
HEADER
  9
$ACADVER
  1
AC1014
  9
$ACADMAINTVER
 70
     9
  9
$DWGCODEPAGE
  3
ANSI_932
  9
$INSBASE
 10
0.0
 20
0.0
 30
0.0
  9
$EXTMIN
 10
25.0
 20
50.0
 30
0.0
  9
$EXTMAX
 10
1925.0
 20
1400.0
 30
0.0
  9
$LIMMIN
 10
0.0
 20
0.0
  9
$LIMMAX
 10
420.0
 20
297.0
  9
$ORTHOMODE
 70
     0
  9
$REGENMODE
 70
     1
  9
$FILLMODE
 70
     1
  9
$QTEXTMODE
 70
     0
  9
$MIRRTEXT
 70
     1
  9
$DRAGMODE
 70
     2
  9
$LTSCALE
 40
0.2
  9
$OSMODE
 70
    37
  9
$ATTMODE
 70
     1
  9
$TEXTSIZE
 40
2.5
  9
$TRACEWID
 40
1.0
  9
$TEXTSTYLE
  7
STANDARD
  9
$CLAYER
  8
LAY-10
  9
$CELTYPE
  6
BYLAYER
  9
$CECOLOR
 62
   256
  9
$CELTSCALE
 40
1.0
  9
$DELOBJ
 70
     1
  9
$DISPSILH
 70
     0
  9
$DIMSCALE
 40
1.0
  9
$DIMASZ
 40
2.5
  9
$DIMEXO
 40
0.625
  9
$DIMDLI
 40
3.75
  9
$DIMRND
 40
0.0
  9
$DIMDLE
 40
0.0
  9
$DIMEXE
 40
1.25
  9
$DIMTP
 40
0.0
  9
$DIMTM
 40
0.0
  9
$DIMTXT
 40
2.5
  9
$DIMCEN
 40
2.5
  9
$DIMTSZ
 40
0.0
  9
$DIMTOL
 70
     0
  9
$DIMLIM
 70
     0
  9
$DIMTIH
 70
     0
  9
$DIMTOH
 70
     0
  9
$DIMSE1
 70
     0
  9
$DIMSE2
 70
     0
  9
$DIMTAD
 70
     1
  9
$DIMZIN
 70
     8
  9
$DIMBLK
  1

  9
$DIMASO
 70
     1
  9
$DIMSHO
 70
     1
  9
$DIMPOST
  1

  9
$DIMAPOST
  1

  9
$DIMALT
 70
     0
  9
$DIMALTD
 70
     3
  9
$DIMALTF
 40
0.03937007874016
  9
$DIMLFAC
 40
1.0
  9
$DIMTOFL
 70
     1
  9
$DIMTVP
 40
0.0
  9
$DIMTIX
 70
     0
  9
$DIMSOXD
 70
     0
  9
$DIMSAH
 70
     0
  9
$DIMBLK1
  1

  9
$DIMBLK2
  1

  9
$DIMSTYLE
  2
ISO-25
  9
$DIMCLRD
 70
     0
  9
$DIMCLRE
 70
     0
  9
$DIMCLRT
 70
     0
  9
$DIMTFAC
 40
1.0
  9
$DIMGAP
 40
0.625
  9
$DIMJUST
 70
     0
  9
$DIMSD1
 70
     0
  9
$DIMSD2
 70
     0
  9
$DIMTOLJ
 70
     0
  9
$DIMTZIN
 70
     8
  9
$DIMALTZ
 70
     0
  9
$DIMALTTZ
 70
     0
  9
$DIMFIT
 70
     3
  9
$DIMUPT
 70
     0
  9
$DIMUNIT
 70
     2
  9
$DIMDEC
 70
     2
  9
$DIMTDEC
 70
     2
  9
$DIMALTU
 70
     2
  9
$DIMALTTD
 70
     3
  9
$DIMTXSTY
  7
STANDARD
  9
$DIMAUNIT
 70
     0
  9
$LUNITS
 70
     2
  9
$LUPREC
 70
     4
  9
$SKETCHINC
 40
1.0
  9
$FILLETRAD
 40
10.0
  9
$AUNITS
 70
     0
  9
$AUPREC
 70
     0
  9
$MENU
  1
.
  9
$ELEVATION
 40
0.0
  9
$PELEVATION
 40
0.0
  9
$THICKNESS
 40
0.0
  9
$LIMCHECK
 70
     0
  9
$CHAMFERA
 40
0.0
  9
$CHAMFERB
 40
0.0
  9
$CHAMFERC
 40
0.0
  9
$CHAMFERD
 40
0.0
  9
$SKPOLY
 70
     0
  9
$TDCREATE
 40
2459229.336698646
  9
$TDUPDATE
 40
2459229.336699306
  9
$TDINDWG
 40
0.0000000116
  9
$TDUSRTIMER
 40
0.0000000116
  9
$USRTIMER
 70
     1
  9
$ANGBASE
 50
0.0
  9
$ANGDIR
 70
     0
  9
$PDMODE
 70
     0
  9
$PDSIZE
 40
0.0
  9
$PLINEWID
 40
0.0
  9
$COORDS
 70
     1
  9
$SPLFRAME
 70
     0
  9
$SPLINETYPE
 70
     6
  9
$SPLINESEGS
 70
     8
  9
$ATTDIA
 70
     0
  9
$ATTREQ
 70
     1
  9
$HANDLING
 70
     1
  9
$HANDSEED
  5
3E4
  9
$SURFTAB1
 70
     6
  9
$SURFTAB2
 70
     6
  9
$SURFTYPE
 70
     6
  9
$SURFU
 70
     6
  9
$SURFV
 70
     6
  9
$UCSNAME
  2

  9
$UCSORG
 10
0.0
 20
0.0
 30
0.0
  9
$UCSXDIR
 10
1.0
 20
0.0
 30
0.0
  9
$UCSYDIR
 10
0.0
 20
1.0
 30
0.0
  9
$PUCSNAME
  2

  9
$PUCSORG
 10
0.0
 20
0.0
 30
0.0
  9
$PUCSXDIR
 10
1.0
 20
0.0
 30
0.0
  9
$PUCSYDIR
 10
0.0
 20
1.0
 30
0.0
  9
$USERI1
 70
     0
  9
$USERI2
 70
     0
  9
$USERI3
 70
     0
  9
$USERI4
 70
     0
  9
$USERI5
 70
     0
  9
$USERR1
 40
0.0
  9
$USERR2
 40
0.0
  9
$USERR3
 40
0.0
  9
$USERR4
 40
0.0
  9
$USERR5
 40
0.0
  9
$WORLDVIEW
 70
     1
  9
$SHADEDGE
 70
     3
  9
$SHADEDIF
 70
    70
  9
$TILEMODE
 70
     1
  9
$MAXACTVP
 70
    64
  9
$PINSBASE
 10
0.0
 20
0.0
 30
0.0
  9
$PLIMCHECK
 70
     0
  9
$PEXTMIN
 10
1.000000000000000E+20
 20
1.000000000000000E+20
 30
1.000000000000000E+20
  9
$PEXTMAX
 10
-1.000000000000000E+20
 20
-1.000000000000000E+20
 30
-1.000000000000000E+20
  9
$PLIMMIN
 10
0.0
 20
0.0
  9
$PLIMMAX
 10
420.0
 20
297.0
  9
$UNITMODE
 70
     0
  9
$VISRETAIN
 70
     1
  9
$PLINEGEN
 70
     0
  9
$PSLTSCALE
 70
     1
  9
$TREEDEPTH
 70
  3020
  9
$PICKSTYLE
 70
     1
  9
$CMLSTYLE
  2
STANDARD
  9
$CMLJUST
 70
     0
  9
$CMLSCALE
 40
20.0
  9
$PROXYGRAPHICS
 70
     1
  9
$MEASUREMENT
 70
     1
  0
ENDSEC
  0
SECTION
  2
CLASSES
  0
CLASS
  1
ACDBDICTIONARYWDFLT
  2
AcDbDictionaryWithDefault
  3
ObjectDBX Classes
 90
        0
280
     0
281
     0
  0
CLASS
  1
VISUALSTYLE
  2
AcDbVisualStyle
  3
ObjectDBX Classes
 90
     4095
280
     0
281
     0
  0
CLASS
  1
MATERIAL
  2
AcDbMaterial
  3
ObjectDBX Classes
 90
     1153
280
     0
281
     0
  0
CLASS
  1
SCALE
  2
AcDbScale
  3
ObjectDBX Classes
 90
     1153
280
     0
281
     0
  0
CLASS
  1
TABLESTYLE
  2
AcDbTableStyle
  3
ObjectDBX Classes
 90
     4095
280
     0
281
     0
  0
CLASS
  1
MLEADERSTYLE
  2
AcDbMLeaderStyle
  3
ACDB_MLEADERSTYLE_CLASS
 90
     4095
280
     0
281
     0
  0
CLASS
  1
SUN
  2
AcDbSun
  3
SCENEOE
 90
     1153
280
     0
281
     0
  0
CLASS
  1
DICTIONARYVAR
  2
AcDbDictionaryVar
  3
ObjectDBX Classes
 90
        0
280
     0
281
     0
  0
CLASS
  1
XRECORD
  2
AcDbXrecord
  3
ObjectDBX Classes
 90
        0
280
     0
281
     0
  0
CLASS
  1
LWPOLYLINE
  2
AcDbPolyline
  3
ObjectDBX Classes
 90
        0
280
     0
281
     1
  0
CLASS
  1
HATCH
  2
AcDbHatch
  3
ObjectDBX Classes
 90
        0
280
     0
281
     1
  0
CLASS
  1
ACDBPLACEHOLDER
  2
AcDbPlaceHolder
  3
ObjectDBX Classes
 90
        0
280
     0
281
     0
  0
CLASS
  1
LAYOUT
  2
AcDbLayout
  3
ObjectDBX Classes
 90
        0
280
     0
281
     0
  0
ENDSEC
  0
SECTION
  2
TABLES
  0
TABLE
  2
VPORT
  5
8
102
{ACAD_XDICTIONARY
360
3D9
102
}
330
0
100
AcDbSymbolTable
 70
     1
  0
VPORT
  5
29
330
8
100
AcDbSymbolTableRecord
100
AcDbViewportTableRecord
  2
*ACTIVE
 70
     0
 10
0.0
 20
0.0
 11
1.0
 21
1.0
 12
975.0000000000001
 22
725.0
 13
0.0
 23
0.0
 14
10.0
 24
10.0
 15
10.0
 25
10.0
 16
0.0
 26
0.0
 36
1.0
 17
0.0
 27
0.0
 37
0.0
 40
1350.0
 41
1.407407407407408
 42
50.0
 43
0.0
 44
0.0
 50
0.0
 51
0.0
 71
     0
 72
  1000
 73
     1
 74
     3
 75
     0
 76
     0
 77
     0
 78
     0
  0
ENDTAB
  0
TABLE
  2
LTYPE
  5
5
330
0
100
AcDbSymbolTable
 70
     6
  0
LTYPE
  5
14
330
5
100
AcDbSymbolTableRecord
100
AcDbLinetypeTableRecord
  2
BYBLOCK
 70
     0
  3

 72
    65
 73
     0
 40
0.0
  0
LTYPE
  5
15
330
5
100
AcDbSymbolTableRecord
100
AcDbLinetypeTableRecord
  2
BYLAYER
 70
     0
  3

 72
    65
 73
     0
 40
0.0
  0
LTYPE
  5
16
330
5
100
AcDbSymbolTableRecord
100
AcDbLinetypeTableRecord
  2
CONTINUOUS
 70
     0
  3
Solid line
 72
    65
 73
     0
 40
0.0
  0
LTYPE
  5
6E
330
5
100
AcDbSymbolTableRecord
100
AcDbLinetypeTableRecord
  2
HIDDEN
 70
     0
  3
Hidden __ __ __ __ __ __ __ __ __ __ __ __ __ __
 72
    65
 73
     2
 40
9.524999999999999
 49
6.35
 74
     0
 49
-3.175
 74
     0
  0
LTYPE
  5
6F
330
5
100
AcDbSymbolTableRecord
100
AcDbLinetypeTableRecord
  2
CENTER
 70
     0
  3
Center ____ _ ____ _ ____ _ ____ _ ____ _ ____
 72
    65
 73
     4
 40
50.8
 49
31.75
 74
     0
 49
-6.35
 74
     0
 49
6.35
 74
     0
 49
-6.35
 74
     0
  0
LTYPE
  5
70
330
5
100
AcDbSymbolTableRecord
100
AcDbLinetypeTableRecord
  2
PHANTOM
 70
     0
  3
Phantom ______  __  __  ______  __  __  ______ 
 72
    65
 73
     6
 40
63.50000000000001
 49
31.75
 74
     0
 49
-6.35
 74
     0
 49
6.35
 74
     0
 49
-6.35
 74
     0
 49
6.35
 74
     0
 49
-6.35
 74
     0
  0
LTYPE
  5
71
330
5
100
AcDbSymbolTableRecord
100
AcDbLinetypeTableRecord
  2
ACAD_ISO06W100
 70
     0
  3
ISO long-dash triple-dot ____ ... ____ ... ____
 72
    65
 73
     8
 40
36.0
 49
24.0
 74
     0
 49
-3.0
 74
     0
 49
0.0
 74
     0
 49
-3.0
 74
     0
 49
0.0
 74
     0
 49
-3.0
 74
     0
 49
0.0
 74
     0
 49
-3.0
 74
     0
  0
LTYPE
  5
72
330
5
100
AcDbSymbolTableRecord
100
AcDbLinetypeTableRecord
  2
ACAD_ISO15W100
 70
     0
  3
ISO double-dash triple-dot __ __ . . . __ __ . .
 72
    65
 73
    10
 40
39.0
 49
12.0
 74
     0
 49
-3.0
 74
     0
 49
12.0
 74
     0
 49
-3.0
 74
     0
 49
0.0
 74
     0
 49
-3.0
 74
     0
 49
0.0
 74
     0
 49
-3.0
 74
     0
 49
0.0
 74
     0
 49
-3.0
 74
     0
  0
ENDTAB
  0
TABLE
  2
LAYER
  5
2
330
0
100
AcDbSymbolTable
 70
     6
  0
LAYER
  5
10
330
2
100
AcDbSymbolTableRecord
100
AcDbLayerTableRecord
  2
0
 70
     0
 62
     7
  6
CONTINUOUS
  0
LAYER
  5
75
330
2
100
AcDbSymbolTableRecord
100
AcDbLayerTableRecord
  2
LAY-10
 70
     0
 62
     7
  6
CONTINUOUS
  0
LAYER
  5
76
330
2
100
AcDbSymbolTableRecord
100
AcDbLayerTableRecord
  2
LAY-11
 70
     0
 62
     7
  6
CONTINUOUS
  0
LAYER
  5
77
330
2
100
AcDbSymbolTableRecord
100
AcDbLayerTableRecord
  2
LAY-20
 70
     0
 62
     7
  6
CONTINUOUS
  0
LAYER
  5
78
330
2
100
AcDbSymbolTableRecord
100
AcDbLayerTableRecord
  2
LAY-255
 70
     0
 62
     7
  6
CONTINUOUS
  0
LAYER
  5
345
330
2
100
AcDbSymbolTableRecord
100
AcDbLayerTableRecord
  2
DEFPOINTS
 70
     0
 62
     7
  6
CONTINUOUS
  0
ENDTAB
  0
TABLE
  2
STYLE
  5
3
330
0
100
AcDbSymbolTable
 70
     4
  0
STYLE
  5
11
330
3
100
AcDbSymbolTableRecord
100
AcDbTextStyleTableRecord
  2
STANDARD
 70
     0
 40
0.0
 41
1.0
 50
0.0
 71
     0
 42
2.5
  3
simplex
  4
bigfont
  0
STYLE
  5
73
330
3
100
AcDbSymbolTableRecord
100
AcDbTextStyleTableRecord
  2
EXCADSTD
 70
     0
 40
0.0
 41
1.0
 50
0.0
 71
     0
 42
2.5
  3
simplex
  4
bigfont
  0
STYLE
  5
74
330
3
100
AcDbSymbolTableRecord
100
AcDbTextStyleTableRecord
  2
EXCADVERT
 70
     4
 40
0.0
 41
1.0
 50
0.0
 71
     0
 42
2.5
  3
simplex
  4
bigfont
  0
STYLE
  5
343
330
3
100
AcDbSymbolTableRecord
100
AcDbTextStyleTableRecord
  2
EXCADDIM1
 70
     0
 40
0.0
 41
0.84
 50
0.0
 71
     0
 42
2.5
  3
simplex
  4
bigfont
  0
ENDTAB
  0
TABLE
  2
VIEW
  5
6
330
0
100
AcDbSymbolTable
 70
     0
  0
ENDTAB
  0
TABLE
  2
UCS
  5
7
330
0
100
AcDbSymbolTable
 70
     0
  0
ENDTAB
  0
TABLE
  2
APPID
  5
9
330
0
100
AcDbSymbolTable
 70
     2
  0
APPID
  5
12
330
9
100
AcDbSymbolTableRecord
100
AcDbRegAppTableRecord
  2
ACAD
 70
     0
  0
APPID
  5
3E3
330
9
100
AcDbSymbolTableRecord
100
AcDbRegAppTableRecord
  2
ACAD_MLEADERVER
 70
     0
  0
ENDTAB
  0
TABLE
  2
DIMSTYLE
  5
A
330
0
100
AcDbSymbolTable
 70
     1
  0
DIMSTYLE
105
27
102
{ACAD_REACTORS
330
344
330
352
330
35F
330
36C
330
379
102
}
330
A
100
AcDbSymbolTableRecord
100
AcDbDimStyleTableRecord
  2
ISO-25
 70
     0
  3

  4

  5

  6

  7

 40
1.0
 41
2.5
 42
0.625
 43
3.75
 44
1.25
 45
0.0
 46
0.0
 47
0.0
 48
0.0
140
2.5
141
2.5
142
0.0
143
0.03937007874016
144
1.0
145
0.0
146
1.0
147
0.625
 71
     0
 72
     0
 73
     0
 74
     0
 75
     0
 76
     0
 77
     1
 78
     8
170
     0
171
     3
172
     1
173
     0
174
     0
175
     0
176
     0
177
     0
178
     0
270
     2
271
     2
272
     2
273
     2
274
     3
340
11
275
     0
280
     0
281
     0
282
     0
283
     0
284
     8
285
     0
286
     0
287
     5
288
     0
  0
ENDTAB
  0
TABLE
  2
BLOCK_RECORD
  5
1
330
0
100
AcDbSymbolTable
 70
    19
  0
BLOCK_RECORD
  5
1F
330
1
100
AcDbSymbolTableRecord
100
AcDbBlockTableRecord
  2
*MODEL_SPACE
  0
BLOCK_RECORD
  5
1B
330
1
100
AcDbSymbolTableRecord
100
AcDbBlockTableRecord
  2
*PAPER_SPACE
  0
BLOCK_RECORD
  5
79
330
1
100
AcDbSymbolTableRecord
100
AcDbBlockTableRecord
  2
EX_NORM
  0
BLOCK_RECORD
  5
7C
330
1
100
AcDbSymbolTableRecord
100
AcDbBlockTableRecord
  2
EX_BNORM
  0
BLOCK_RECORD
  5
7F
330
1
100
AcDbSymbolTableRecord
100
AcDbBlockTableRecord
  2
EX_BCIR
  0
BLOCK_RECORD
  5
82
330
1
100
AcDbSymbolTableRecord
100
AcDbBlockTableRecord
  2
EX_RCIVIL
  0
BLOCK_RECORD
  5
85
330
1
100
AcDbSymbolTableRecord
100
AcDbBlockTableRecord
  2
EX_SLANT
  0
BLOCK_RECORD
  5
88
330
1
100
AcDbSymbolTableRecord
100
AcDbBlockTableRecord
  2
EX_NONE
  0
BLOCK_RECORD
  5
8B
330
1
100
AcDbSymbolTableRecord
100
AcDbBlockTableRecord
  2
EX_CIVIL
  0
BLOCK_RECORD
  5
8E
330
1
100
AcDbSymbolTableRecord
100
AcDbBlockTableRecord
  2
EX_WCIR
  0
BLOCK_RECORD
  5
91
330
1
100
AcDbSymbolTableRecord
100
AcDbBlockTableRecord
  2
EX_WCIR2
  0
BLOCK_RECORD
  5
94
330
1
100
AcDbSymbolTableRecord
100
AcDbBlockTableRecord
  2
EX_WNORM
  0
BLOCK_RECORD
  5
97
330
1
100
AcDbSymbolTableRecord
100
AcDbBlockTableRecord
  2
EX_NNORM
  0
BLOCK_RECORD
  5
9A
330
1
100
AcDbSymbolTableRecord
100
AcDbBlockTableRecord
  2
EX_BBOX
  0
BLOCK_RECORD
  5
9D
330
1
100
AcDbSymbolTableRecord
100
AcDbBlockTableRecord
  2
EX_WBOX
  0
BLOCK_RECORD
  5
A0
330
1
100
AcDbSymbolTableRecord
100
AcDbBlockTableRecord
  2
EX_INTEGRAL
  0
BLOCK_RECORD
  5
346
330
1
100
AcDbSymbolTableRecord
100
AcDbBlockTableRecord
  2
*D15
  0
BLOCK_RECORD
  5
353
330
1
100
AcDbSymbolTableRecord
100
AcDbBlockTableRecord
  2
*D16
  0
BLOCK_RECORD
  5
360
330
1
100
AcDbSymbolTableRecord
100
AcDbBlockTableRecord
  2
*D17
  0
BLOCK_RECORD
  5
36D
330
1
100
AcDbSymbolTableRecord
100
AcDbBlockTableRecord
  2
*D18
  0
BLOCK_RECORD
  5
37A
330
1
100
AcDbSymbolTableRecord
100
AcDbBlockTableRecord
  2
*D19
  0
ENDTAB
  0
ENDSEC
  0
SECTION
  2
BLOCKS
  0
BLOCK
  5
20
330
1F
100
AcDbEntity
  8
0
100
AcDbBlockBegin
  2
*MODEL_SPACE
 70
     0
 10
0.0
 20
0.0
 30
0.0
  3
*MODEL_SPACE
  1

  0
ENDBLK
  5
21
330
1F
100
AcDbEntity
  8
0
100
AcDbBlockEnd
  0
BLOCK
  5
1C
330
1B
100
AcDbEntity
 67
     1
  8
0
100
AcDbBlockBegin
  2
*PAPER_SPACE
 70
     0
 10
0.0
 20
0.0
 30
0.0
  3
*PAPER_SPACE
  1

  0
ENDBLK
  5
1D
330
1B
100
AcDbEntity
 67
     1
  8
0
100
AcDbBlockEnd
  0
BLOCK
  5
7A
330
79
100
AcDbEntity
  8
0
100
AcDbBlockBegin
  2
EX_NORM
 70
     0
 10
0.0
 20
0.0
 30
0.0
  3
EX_NORM
  1

  0
LINE
  5
A3
330
79
100
AcDbEntity
  8
0
  6
CONTINUOUS
 62
     0
100
AcDbLine
 10
0.0
 20
0.0
 30
0.0
 11
-1.0
 21
0.0
 31
0.0
  0
LINE
  5
A4
330
79
100
AcDbEntity
  8
0
  6
CONTINUOUS
 62
     0
100
AcDbLine
 10
0.0
 20
0.0
 30
0.0
 11
-1.0
 21
0.166666667
 31
0.0
  0
LINE
  5
A5
330
79
100
AcDbEntity
  8
0
  6
CONTINUOUS
 62
     0
100
AcDbLine
 10
0.0
 20
0.0
 30
0.0
 11
-1.0
 21
-0.166666667
 31
0.0
  0
ENDBLK
  5
7B
330
79
100
AcDbEntity
  8
0
100
AcDbBlockEnd
  0
BLOCK
  5
7D
330
7C
100
AcDbEntity
  8
0
100
AcDbBlockBegin
  2
EX_BNORM
 70
     0
 10
0.0
 20
0.0
 30
0.0
  3
EX_BNORM
  1

  0
LINE
  5
A6
330
7C
100
AcDbEntity
  8
0
  6
CONTINUOUS
 62
     0
100
AcDbLine
 10
0.0
 20
0.0
 30
0.0
 11
-1.0
 21
0.0
 31
0.0
  0
LINE
  5
A7
330
7C
100
AcDbEntity
  8
0
  6
CONTINUOUS
 62
     0
100
AcDbLine
 10
0.0
 20
0.0
 30
0.0
 11
-1.0
 21
0.166666667
 31
0.0
  0
LINE
  5
A8
330
7C
100
AcDbEntity
  8
0
  6
CONTINUOUS
 62
     0
100
AcDbLine
 10
0.0
 20
0.0
 30
0.0
 11
-1.0
 21
-0.166666667
 31
0.0
  0
LINE
  5
A9
330
7C
100
AcDbEntity
  8
0
  6
CONTINUOUS
 62
     0
100
AcDbLine
 10
0.0
 20
0.0
 30
0.0
 11
-1.0
 21
0.083333333
 31
0.0
  0
LINE
  5
AA
330
7C
100
AcDbEntity
  8
0
  6
CONTINUOUS
 62
     0
100
AcDbLine
 10
0.0
 20
0.0
 30
0.0
 11
-1.0
 21
-0.083333333
 31
0.0
  0
LINE
  5
AB
330
7C
100
AcDbEntity
  8
0
  6
CONTINUOUS
 62
     0
100
AcDbLine
 10
-1.0
 20
0.166666667
 30
0.0
 11
-1.0
 21
-0.166666667
 31
0.0
  0
ENDBLK
  5
7E
330
7C
100
AcDbEntity
  8
0
100
AcDbBlockEnd
  0
BLOCK
  5
80
330
7F
100
AcDbEntity
  8
0
100
AcDbBlockBegin
  2
EX_BCIR
 70
     0
 10
0.0
 20
0.0
 30
0.0
  3
EX_BCIR
  1

  0
LINE
  5
AC
330
7F
100
AcDbEntity
  8
0
  6
CONTINUOUS
 62
     0
100
AcDbLine
 10
0.0
 20
0.0
 30
0.0
 11
-1.0
 21
0.0
 31
0.0
  0
CIRCLE
  5
AD
330
7F
100
AcDbEntity
  8
0
  6
CONTINUOUS
 62
     0
100
AcDbCircle
 10
0.0
 20
0.0
 30
0.0
 40
0.5
  0
CIRCLE
  5
AE
330
7F
100
AcDbEntity
  8
0
  6
CONTINUOUS
 62
     0
100
AcDbCircle
 10
0.0
 20
0.0
 30
0.0
 40
0.25
  0
ENDBLK
  5
81
330
7F
100
AcDbEntity
  8
0
100
AcDbBlockEnd
  0
BLOCK
  5
83
330
82
100
AcDbEntity
  8
0
100
AcDbBlockBegin
  2
EX_RCIVIL
 70
     0
 10
0.0
 20
0.0
 30
0.0
  3
EX_RCIVIL
  1

  0
LINE
  5
AF
330
82
100
AcDbEntity
  8
0
  6
CONTINUOUS
 62
     0
100
AcDbLine
 10
0.0
 20
0.0
 30
0.0
 11
-1.0
 21
0.0
 31
0.0
  0
LINE
  5
B0
330
82
100
AcDbEntity
  8
0
  6
CONTINUOUS
 62
     0
100
AcDbLine
 10
-1.0
 20
-0.25
 30
0.0
 11
0.0
 21
-0.25
 31
0.0
  0
LINE
  5
B1
330
82
100
AcDbEntity
  8
0
  6
CONTINUOUS
 62
     0
100
AcDbLine
 10
-1.0
 20
-0.125
 30
0.0
 11
0.0
 21
-0.125
 31
0.0
  0
ENDBLK
  5
84
330
82
100
AcDbEntity
  8
0
100
AcDbBlockEnd
  0
BLOCK
  5
86
330
85
100
AcDbEntity
  8
0
100
AcDbBlockBegin
  2
EX_SLANT
 70
     0
 10
0.0
 20
0.0
 30
0.0
  3
EX_SLANT
  1

  0
LINE
  5
B2
330
85
100
AcDbEntity
  8
0
  6
CONTINUOUS
 62
     0
100
AcDbLine
 10
0.0
 20
0.0
 30
0.0
 11
-1.0
 21
0.0
 31
0.0
  0
LINE
  5
B3
330
85
100
AcDbEntity
  8
0
  6
CONTINUOUS
 62
     0
100
AcDbLine
 10
0.707106781
 20
0.707106781
 30
0.0
 11
-0.707106781
 21
-0.707106781
 31
0.0
  0
ENDBLK
  5
87
330
85
100
AcDbEntity
  8
0
100
AcDbBlockEnd
  0
BLOCK
  5
89
330
88
100
AcDbEntity
  8
0
100
AcDbBlockBegin
  2
EX_NONE
 70
     0
 10
0.0
 20
0.0
 30
0.0
  3
EX_NONE
  1

  0
LINE
  5
B4
330
88
100
AcDbEntity
  8
0
  6
CONTINUOUS
 62
     0
100
AcDbLine
 10
0.0
 20
0.0
 30
0.0
 11
-1.0
 21
0.0
 31
0.0
  0
ENDBLK
  5
8A
330
88
100
AcDbEntity
  8
0
100
AcDbBlockEnd
  0
BLOCK
  5
8C
330
8B
100
AcDbEntity
  8
0
100
AcDbBlockBegin
  2
EX_CIVIL
 70
     0
 10
0.0
 20
0.0
 30
0.0
  3
EX_CIVIL
  1

  0
LINE
  5
B5
330
8B
100
AcDbEntity
  8
0
  6
CONTINUOUS
 62
     0
100
AcDbLine
 10
0.0
 20
0.0
 30
0.0
 11
-1.0
 21
0.0
 31
0.0
  0
LINE
  5
B6
330
8B
100
AcDbEntity
  8
0
  6
CONTINUOUS
 62
     0
100
AcDbLine
 10
-1.0
 20
0.25
 30
0.0
 11
0.0
 21
0.25
 31
0.0
  0
LINE
  5
B7
330
8B
100
AcDbEntity
  8
0
  6
CONTINUOUS
 62
     0
100
AcDbLine
 10
-1.0
 20
0.125
 30
0.0
 11
0.0
 21
0.125
 31
0.0
  0
ENDBLK
  5
8D
330
8B
100
AcDbEntity
  8
0
100
AcDbBlockEnd
  0
BLOCK
  5
8F
330
8E
100
AcDbEntity
  8
0
100
AcDbBlockBegin
  2
EX_WCIR
 70
     0
 10
0.0
 20
0.0
 30
0.0
  3
EX_WCIR
  1

  0
LINE
  5
B8
330
8E
100
AcDbEntity
  8
0
  6
CONTINUOUS
 62
     0
100
AcDbLine
 10
0.0
 20
0.0
 30
0.0
 11
-1.0
 21
0.0
 31
0.0
  0
CIRCLE
  5
B9
330
8E
100
AcDbEntity
  8
0
  6
CONTINUOUS
 62
     0
100
AcDbCircle
 10
0.0
 20
0.0
 30
0.0
 40
0.5
  0
ENDBLK
  5
90
330
8E
100
AcDbEntity
  8
0
100
AcDbBlockEnd
  0
BLOCK
  5
92
330
91
100
AcDbEntity
  8
0
100
AcDbBlockBegin
  2
EX_WCIR2
 70
     0
 10
0.0
 20
0.0
 30
0.0
  3
EX_WCIR2
  1

  0
LINE
  5
BA
330
91
100
AcDbEntity
  8
0
  6
CONTINUOUS
 62
     0
100
AcDbLine
 10
-0.5
 20
0.0
 30
0.0
 11
-1.0
 21
0.0
 31
0.0
  0
CIRCLE
  5
BB
330
91
100
AcDbEntity
  8
0
  6
CONTINUOUS
 62
     0
100
AcDbCircle
 10
0.0
 20
0.0
 30
0.0
 40
0.5
  0
ENDBLK
  5
93
330
91
100
AcDbEntity
  8
0
100
AcDbBlockEnd
  0
BLOCK
  5
95
330
94
100
AcDbEntity
  8
0
100
AcDbBlockBegin
  2
EX_WNORM
 70
     0
 10
0.0
 20
0.0
 30
0.0
  3
EX_WNORM
  1

  0
LINE
  5
BC
330
94
100
AcDbEntity
  8
0
  6
CONTINUOUS
 62
     0
100
AcDbLine
 10
-1.0
 20
0.0
 30
0.0
 11
-1.0
 21
0.0
 31
0.0
  0
LINE
  5
BD
330
94
100
AcDbEntity
  8
0
  6
CONTINUOUS
 62
     0
100
AcDbLine
 10
0.0
 20
0.0
 30
0.0
 11
-1.0
 21
0.166666667
 31
0.0
  0
LINE
  5
BE
330
94
100
AcDbEntity
  8
0
  6
CONTINUOUS
 62
     0
100
AcDbLine
 10
0.0
 20
0.0
 30
0.0
 11
-1.0
 21
-0.166666667
 31
0.0
  0
LINE
  5
BF
330
94
100
AcDbEntity
  8
0
  6
CONTINUOUS
 62
     0
100
AcDbLine
 10
-1.0
 20
0.166666667
 30
0.0
 11
-1.0
 21
-0.166666667
 31
0.0
  0
ENDBLK
  5
96
330
94
100
AcDbEntity
  8
0
100
AcDbBlockEnd
  0
BLOCK
  5
98
330
97
100
AcDbEntity
  8
0
100
AcDbBlockBegin
  2
EX_NNORM
 70
     0
 10
0.0
 20
0.0
 30
0.0
  3
EX_NNORM
  1

  0
LINE
  5
C0
330
97
100
AcDbEntity
  8
0
  6
CONTINUOUS
 62
     0
100
AcDbLine
 10
0.0
 20
0.0
 30
0.0
 11
-1.0
 21
0.0
 31
0.0
  0
LINE
  5
C1
330
97
100
AcDbEntity
  8
0
  6
CONTINUOUS
 62
     0
100
AcDbLine
 10
0.0
 20
0.0
 30
0.0
 11
-1.0
 21
0.166666667
 31
0.0
  0
LINE
  5
C2
330
97
100
AcDbEntity
  8
0
  6
CONTINUOUS
 62
     0
100
AcDbLine
 10
0.0
 20
0.0
 30
0.0
 11
-1.0
 21
-0.166666667
 31
0.0
  0
LINE
  5
C3
330
97
100
AcDbEntity
  8
0
  6
CONTINUOUS
 62
     0
100
AcDbLine
 10
-1.0
 20
0.166666667
 30
0.0
 11
-1.0
 21
-0.166666667
 31
0.0
  0
ENDBLK
  5
99
330
97
100
AcDbEntity
  8
0
100
AcDbBlockEnd
  0
BLOCK
  5
9B
330
9A
100
AcDbEntity
  8
0
100
AcDbBlockBegin
  2
EX_BBOX
 70
     0
 10
0.0
 20
0.0
 30
0.0
  3
EX_BBOX
  1

  0
LINE
  5
C4
330
9A
100
AcDbEntity
  8
0
  6
CONTINUOUS
 62
     0
100
AcDbLine
 10
0.0
 20
0.0
 30
0.0
 11
-1.0
 21
0.0
 31
0.0
  0
LINE
  5
C5
330
9A
100
AcDbEntity
  8
0
  6
CONTINUOUS
 62
     0
100
AcDbLine
 10
-0.5
 20
0.5
 30
0.0
 11
0.5
 21
0.5
 31
0.0
  0
LINE
  5
C6
330
9A
100
AcDbEntity
  8
0
  6
CONTINUOUS
 62
     0
100
AcDbLine
 10
0.5
 20
0.5
 30
0.0
 11
0.5
 21
-0.5
 31
0.0
  0
LINE
  5
C7
330
9A
100
AcDbEntity
  8
0
  6
CONTINUOUS
 62
     0
100
AcDbLine
 10
0.5
 20
-0.5
 30
0.0
 11
-0.5
 21
-0.5
 31
0.0
  0
LINE
  5
C8
330
9A
100
AcDbEntity
  8
0
  6
CONTINUOUS
 62
     0
100
AcDbLine
 10
-0.5
 20
-0.5
 30
0.0
 11
-0.5
 21
0.5
 31
0.0
  0
LINE
  5
C9
330
9A
100
AcDbEntity
  8
0
  6
CONTINUOUS
 62
     0
100
AcDbLine
 10
-0.25
 20
0.25
 30
0.0
 11
0.25
 21
0.25
 31
0.0
  0
LINE
  5
CA
330
9A
100
AcDbEntity
  8
0
  6
CONTINUOUS
 62
     0
100
AcDbLine
 10
0.25
 20
0.25
 30
0.0
 11
0.25
 21
-0.25
 31
0.0
  0
LINE
  5
CB
330
9A
100
AcDbEntity
  8
0
  6
CONTINUOUS
 62
     0
100
AcDbLine
 10
0.25
 20
-0.25
 30
0.0
 11
-0.25
 21
-0.25
 31
0.0
  0
LINE
  5
CC
330
9A
100
AcDbEntity
  8
0
  6
CONTINUOUS
 62
     0
100
AcDbLine
 10
-0.25
 20
-0.25
 30
0.0
 11
-0.25
 21
0.25
 31
0.0
  0
ENDBLK
  5
9C
330
9A
100
AcDbEntity
  8
0
100
AcDbBlockEnd
  0
BLOCK
  5
9E
330
9D
100
AcDbEntity
  8
0
100
AcDbBlockBegin
  2
EX_WBOX
 70
     0
 10
0.0
 20
0.0
 30
0.0
  3
EX_WBOX
  1

  0
LINE
  5
CD
330
9D
100
AcDbEntity
  8
0
  6
CONTINUOUS
 62
     0
100
AcDbLine
 10
-0.5
 20
0.0
 30
0.0
 11
-1.0
 21
0.0
 31
0.0
  0
LINE
  5
CE
330
9D
100
AcDbEntity
  8
0
  6
CONTINUOUS
 62
     0
100
AcDbLine
 10
-0.5
 20
0.5
 30
0.0
 11
0.5
 21
0.5
 31
0.0
  0
LINE
  5
CF
330
9D
100
AcDbEntity
  8
0
  6
CONTINUOUS
 62
     0
100
AcDbLine
 10
0.5
 20
0.5
 30
0.0
 11
0.5
 21
-0.5
 31
0.0
  0
LINE
  5
D0
330
9D
100
AcDbEntity
  8
0
  6
CONTINUOUS
 62
     0
100
AcDbLine
 10
0.5
 20
-0.5
 30
0.0
 11
-0.5
 21
-0.5
 31
0.0
  0
LINE
  5
D1
330
9D
100
AcDbEntity
  8
0
  6
CONTINUOUS
 62
     0
100
AcDbLine
 10
-0.5
 20
-0.5
 30
0.0
 11
-0.5
 21
0.5
 31
0.0
  0
ENDBLK
  5
9F
330
9D
100
AcDbEntity
  8
0
100
AcDbBlockEnd
  0
BLOCK
  5
A1
330
A0
100
AcDbEntity
  8
0
100
AcDbBlockBegin
  2
EX_INTEGRAL
 70
     0
 10
0.0
 20
0.0
 30
0.0
  3
EX_INTEGRAL
  1

  0
LINE
  5
D2
330
A0
100
AcDbEntity
  8
0
  6
CONTINUOUS
 62
     0
100
AcDbLine
 10
0.0
 20
0.0
 30
0.0
 11
-1.0
 21
0.0
 31
0.0
  0
ARC
  5
D3
330
A0
100
AcDbEntity
  8
0
  6
CONTINUOUS
 62
     0
100
AcDbCircle
 10
0.542115
 20
0.164992
 30
0.0
 40
0.56667
100
AcDbArc
 50
73.07249033629006
 51
196.9275130221199
  0
ARC
  5
D4
330
A0
100
AcDbEntity
  8
0
  6
CONTINUOUS
 62
     0
100
AcDbCircle
 10
-0.542115
 20
-0.164992
 30
0.0
 40
0.56667
100
AcDbArc
 50
253.0724869220464
 51
16.9275130559125
  0
ENDBLK
  5
A2
330
A0
100
AcDbEntity
  8
0
100
AcDbBlockEnd
  0
BLOCK
  5
347
330
346
100
AcDbEntity
  8
0
100
AcDbBlockBegin
  2
*D15
 70
     1
 10
0.0
 20
0.0
 30
0.0
  3
*D15
  1

  0
LINE
  5
349
330
346
100
AcDbEntity
  8
LAY-20
  6
CONTINUOUS
 62
     4
100
AcDbLine
 10
891.12550546996
 20
393.96231989076
 30
0.0
 11
1058.5686794125
 21
393.96231989076
 31
0.0
  0
LINE
  5
34A
330
346
100
AcDbEntity
  8
LAY-20
  6
CONTINUOUS
 62
     4
100
AcDbLine
 10
1008.5686794125
 20
346.96231989076
 30
0.0
 11
1058.5686794125
 21
346.96231989076
 31
0.0
  0
LINE
  5
34B
330
346
100
AcDbEntity
  8
LAY-20
  6
CONTINUOUS
 62
     4
100
AcDbLine
 10
1051.0686794125
 20
381.46231989076
 30
0.0
 11
1051.0686794125
 21
359.46231989076
 31
0.0
  0
INSERT
  5
34C
330
346
100
AcDbEntity
  8
LAY-20
 62
     4
100
AcDbBlockReference
  2
EX_BNORM
 10
1051.0686794125
 20
393.96231989076
 30
0.0
 41
12.5
 42
12.5
 43
12.5
 50
90.0
  0
INSERT
  5
34D
330
346
100
AcDbEntity
  8
LAY-20
 62
     4
100
AcDbBlockReference
  2
EX_BNORM
 10
1051.0686794125
 20
346.96231989076
 30
0.0
 41
12.5
 42
12.5
 43
12.5
 50
270.0
  0
MTEXT
  5
34E
330
346
100
AcDbEntity
  8
LAY-20
 62
     7
100
AcDbMText
 10
1038.5686794125
 20
370.4623198907601
 30
0.0
 40
15.590552
 41
0.0
 71
     5
 72
     1
  1
47
  7
EXCADDIM1
 11
0.0
 21
1.0
 31
0.0
  0
POINT
  5
34F
330
346
100
AcDbEntity
  8
DEFPOINTS
 62
     0
100
AcDbPoint
 10
883.62550546996
 20
393.96231989076
 30
0.0
  0
POINT
  5
350
330
346
100
AcDbEntity
  8
DEFPOINTS
 62
     0
100
AcDbPoint
 10
1001.0686794125
 20
346.96231989076
 30
0.0
  0
POINT
  5
351
330
346
100
AcDbEntity
  8
DEFPOINTS
 62
     0
100
AcDbPoint
 10
1051.0686794125
 20
346.96231989076
 30
0.0
  0
ENDBLK
  5
348
330
346
100
AcDbEntity
  8
0
100
AcDbBlockEnd
  0
BLOCK
  5
354
330
353
100
AcDbEntity
  8
0
100
AcDbBlockBegin
  2
*D16
 70
     1
 10
0.0
 20
0.0
 30
0.0
  3
*D16
  1

  0
LINE
  5
356
330
353
100
AcDbEntity
  8
LAY-20
  6
CONTINUOUS
 62
     4
100
AcDbLine
 10
365.50140768014
 20
408.96231989076
 30
0.0
 11
365.50140768014
 21
527.49999999999
 31
0.0
  0
LINE
  5
357
330
353
100
AcDbEntity
  8
LAY-20
  6
CONTINUOUS
 62
     4
100
AcDbLine
 10
884.49943006507
 20
408.96231989076
 30
0.0
 11
884.49943006507
 21
527.49999999999
 31
0.0
  0
LINE
  5
358
330
353
100
AcDbEntity
  8
LAY-20
  6
CONTINUOUS
 62
     4
100
AcDbLine
 10
380.50140768014
 20
519.99999999999
 30
0.0
 11
869.49943006507
 21
519.99999999999
 31
0.0
  0
INSERT
  5
359
330
353
100
AcDbEntity
  8
LAY-20
 62
     4
100
AcDbBlockReference
  2
EX_BNORM
 10
365.50140768014
 20
519.99999999999
 30
0.0
 41
15.0
 42
15.0
 43
15.0
 50
180.0
  0
INSERT
  5
35A
330
353
100
AcDbEntity
  8
LAY-20
 62
     4
100
AcDbBlockReference
  2
EX_BNORM
 10
884.49943006507
 20
519.99999999999
 30
0.0
 41
15.0
 42
15.0
 43
15.0
  0
MTEXT
  5
35B
330
353
100
AcDbEntity
  8
LAY-20
 62
     7
100
AcDbMText
 10
625.000418872605
 20
532.49999999999
 30
0.0
 40
15.590552
 41
0.0
 71
     5
 72
     1
  1
%%c519
  7
EXCADDIM1
  0
POINT
  5
35C
330
353
100
AcDbEntity
  8
DEFPOINTS
 62
     0
100
AcDbPoint
 10
365.50140768014
 20
401.46231989076
 30
0.0
  0
POINT
  5
35D
330
353
100
AcDbEntity
  8
DEFPOINTS
 62
     0
100
AcDbPoint
 10
884.49943006507
 20
401.46231989076
 30
0.0
  0
POINT
  5
35E
330
353
100
AcDbEntity
  8
DEFPOINTS
 62
     0
100
AcDbPoint
 10
884.49943006507
 20
519.99999999999
 30
0.0
  0
ENDBLK
  5
355
330
353
100
AcDbEntity
  8
0
100
AcDbBlockEnd
  0
BLOCK
  5
361
330
360
100
AcDbEntity
  8
0
100
AcDbBlockBegin
  2
*D17
 70
     1
 10
0.0
 20
0.0
 30
0.0
  3
*D17
  1

  0
LINE
  5
363
330
360
100
AcDbEntity
  8
LAY-20
  6
CONTINUOUS
 62
     4
100
AcDbLine
 10
376.50123434056
 20
402.82053942251
 30
0.0
 11
376.50123434056
 21
492.4999999999901
 31
0.0
  0
LINE
  5
364
330
360
100
AcDbEntity
  8
LAY-20
  6
CONTINUOUS
 62
     4
100
AcDbLine
 10
873.49960340465
 20
402.82053942251
 30
0.0
 11
873.49960340465
 21
492.4999999999901
 31
0.0
  0
LINE
  5
365
330
360
100
AcDbEntity
  8
LAY-20
  6
CONTINUOUS
 62
     4
100
AcDbLine
 10
391.50123434056
 20
484.9999999999901
 30
0.0
 11
858.49960340465
 21
484.9999999999901
 31
0.0
  0
INSERT
  5
366
330
360
100
AcDbEntity
  8
LAY-20
 62
     4
100
AcDbBlockReference
  2
EX_BNORM
 10
376.50123434056
 20
484.9999999999901
 30
0.0
 41
15.0
 42
15.0
 43
15.0
 50
180.0
  0
INSERT
  5
367
330
360
100
AcDbEntity
  8
LAY-20
 62
     4
100
AcDbBlockReference
  2
EX_BNORM
 10
873.49960340465
 20
484.9999999999901
 30
0.0
 41
15.0
 42
15.0
 43
15.0
  0
MTEXT
  5
368
330
360
100
AcDbEntity
  8
LAY-20
 62
     7
100
AcDbMText
 10
625.000418872605
 20
497.4999999999901
 30
0.0
 40
15.590552
 41
0.0
 71
     5
 72
     1
  1
%%c497
  7
EXCADDIM1
  0
POINT
  5
369
330
360
100
AcDbEntity
  8
DEFPOINTS
 62
     0
100
AcDbPoint
 10
376.50123434056
 20
395.32053942251
 30
0.0
  0
POINT
  5
36A
330
360
100
AcDbEntity
  8
DEFPOINTS
 62
     0
100
AcDbPoint
 10
873.49960340465
 20
395.32053942251
 30
0.0
  0
POINT
  5
36B
330
360
100
AcDbEntity
  8
DEFPOINTS
 62
     0
100
AcDbPoint
 10
873.49960340465
 20
484.9999999999901
 30
0.0
  0
ENDBLK
  5
362
330
360
100
AcDbEntity
  8
0
100
AcDbBlockEnd
  0
BLOCK
  5
36E
330
36D
100
AcDbEntity
  8
0
100
AcDbBlockBegin
  2
*D18
 70
     1
 10
0.0
 20
0.0
 30
0.0
  3
*D18
  1

  0
LINE
  5
370
330
36D
100
AcDbEntity
  8
LAY-20
  6
CONTINUOUS
 62
     4
100
AcDbLine
 10
400.00137027525
 20
339.46231989076
 30
0.0
 11
400.00137027525
 21
289.46231989076
 31
0.0
  0
LINE
  5
371
330
36D
100
AcDbEntity
  8
LAY-20
  6
CONTINUOUS
 62
     4
100
AcDbLine
 10
849.99946746996
 20
339.46231989076
 30
0.0
 11
849.99946746996
 21
289.46231989076
 31
0.0
  0
LINE
  5
372
330
36D
100
AcDbEntity
  8
LAY-20
  6
CONTINUOUS
 62
     4
100
AcDbLine
 10
415.00137027525
 20
296.96231989076
 30
0.0
 11
834.99946746996
 21
296.96231989076
 31
0.0
  0
INSERT
  5
373
330
36D
100
AcDbEntity
  8
LAY-20
 62
     4
100
AcDbBlockReference
  2
EX_BNORM
 10
400.00137027525
 20
296.96231989076
 30
0.0
 41
15.0
 42
15.0
 43
15.0
 50
180.0
  0
INSERT
  5
374
330
36D
100
AcDbEntity
  8
LAY-20
 62
     4
100
AcDbBlockReference
  2
EX_BNORM
 10
849.99946746996
 20
296.96231989076
 30
0.0
 41
15.0
 42
15.0
 43
15.0
  0
MTEXT
  5
375
330
36D
100
AcDbEntity
  8
LAY-20
 62
     7
100
AcDbMText
 10
625.000418872605
 20
309.46231989076
 30
0.0
 40
15.590552
 41
0.0
 71
     5
 72
     1
  1
%%c450
  7
EXCADDIM1
  0
POINT
  5
376
330
36D
100
AcDbEntity
  8
DEFPOINTS
 62
     0
100
AcDbPoint
 10
400.00137027525
 20
346.96231989076
 30
0.0
  0
POINT
  5
377
330
36D
100
AcDbEntity
  8
DEFPOINTS
 62
     0
100
AcDbPoint
 10
849.99946746996
 20
346.96231989076
 30
0.0
  0
POINT
  5
378
330
36D
100
AcDbEntity
  8
DEFPOINTS
 62
     0
100
AcDbPoint
 10
849.99946746996
 20
296.96231989076
 30
0.0
  0
ENDBLK
  5
36F
330
36D
100
AcDbEntity
  8
0
100
AcDbBlockEnd
  0
BLOCK
  5
37B
330
37A
100
AcDbEntity
  8
0
100
AcDbBlockBegin
  2
*D19
 70
     1
 10
0.0
 20
0.0
 30
0.0
  3
*D19
  1

  0
LINE
  5
37D
330
37A
100
AcDbEntity
  8
LAY-20
  6
CONTINUOUS
 62
     4
100
AcDbLine
 10
350.00137027525
 20
339.46231989076
 30
0.0
 11
350.00137027525
 21
254.46231989076
 31
0.0
  0
LINE
  5
37E
330
37A
100
AcDbEntity
  8
LAY-20
  6
CONTINUOUS
 62
     4
100
AcDbLine
 10
365.00137027525
 20
261.96231989076
 30
0.0
 11
884.99946746996
 21
261.96231989076
 31
0.0
  0
INSERT
  5
37F
330
37A
100
AcDbEntity
  8
LAY-20
 62
     4
100
AcDbBlockReference
  2
EX_BNORM
 10
350.00137027525
 20
261.96231989076
 30
0.0
 41
15.0
 42
15.0
 43
15.0
 50
180.0
  0
INSERT
  5
380
330
37A
100
AcDbEntity
  8
LAY-20
 62
     4
100
AcDbBlockReference
  2
EX_NONE
 10
899.99946746996
 20
261.96231989076
 30
0.0
 41
15.0
 42
15.0
 43
15.0
  0
MTEXT
  5
381
330
37A
100
AcDbEntity
  8
LAY-20
 62
     7
100
AcDbMText
 10
625.000418872605
 20
274.46231989076
 30
0.0
 40
15.590552
 41
0.0
 71
     5
 72
     1
  1
□550
  7
EXCADDIM1
  0
POINT
  5
382
330
37A
100
AcDbEntity
  8
DEFPOINTS
 62
     0
100
AcDbPoint
 10
350.00137027525
 20
346.96231989076
 30
0.0
  0
POINT
  5
383
330
37A
100
AcDbEntity
  8
DEFPOINTS
 62
     0
100
AcDbPoint
 10
899.99946746996
 20
261.96231989076
 30
0.0
  0
POINT
  5
384
330
37A
100
AcDbEntity
  8
DEFPOINTS
 62
     0
100
AcDbPoint
 10
899.99946746996
 20
261.96231989076
 30
0.0
  0
ENDBLK
  5
37C
330
37A
100
AcDbEntity
  8
0
100
AcDbBlockEnd
  0
ENDSEC
  0
SECTION
  2
ENTITIES
  0
ARC
  5
D5
330
1F
100
AcDbEntity
  8
LAY-10
  6
CONTINUOUS
 62
     7
100
AcDbCircle
 10
624.9999999999989
 20
899.9999389999914
 30
0.0
 40
115.0000000000001
100
AcDbArc
 50
1.744083528378627
 51
20.75591179062986
  0
ARC
  5
D6
330
1F
100
AcDbEntity
  8
LAY-10
  6
CONTINUOUS
 62
     7
100
AcDbCircle
 10
624.9999999999989
 20
899.9999389999914
 30
0.0
 40
115.0000000000001
100
AcDbArc
 50
339.2440706092763
 51
358.2559561673073
  0
LINE
  5
D7
330
1F
100
AcDbEntity
  8
LAY-10
  6
CONTINUOUS
 62
     7
100
AcDbLine
 10
732.0974429999987
 20
1002.147644999991
 30
0.0
 11
750.4865419999987
 21
1020.536743999991
 31
0.0
  0
LINE
  5
D8
330
1F
100
AcDbEntity
  8
LAY-10
  6
CONTINUOUS
 62
     7
100
AcDbLine
 10
753.8874819999987
 20
957.1752929999914
 30
0.0
 11
729.8574519999988
 21
947.2217409999913
 31
0.0
  0
LINE
  5
D9
330
1F
100
AcDbEntity
  8
LAY-10
  6
CONTINUOUS
 62
     7
100
AcDbLine
 10
732.5362849999988
 20
940.7545779999913
 30
0.0
 11
756.5663149999989
 21
950.7080689999913
 31
0.0
  0
LINE
  5
DA
330
1F
100
AcDbEntity
  8
LAY-10
  6
CONTINUOUS
 62
     7
100
AcDbLine
 10
756.5663149999989
 20
849.2918709999913
 30
0.0
 11
732.5362849999988
 21
859.2453619999914
 31
0.0
  0
LINE
  5
DB
330
1F
100
AcDbEntity
  8
LAY-10
  6
CONTINUOUS
 62
     7
100
AcDbLine
 10
729.8575739999986
 20
852.7781379999914
 30
0.0
 11
753.8874819999987
 21
842.8245849999913
 31
0.0
  0
LINE
  5
DC
330
1F
100
AcDbEntity
  8
LAY-10
  6
CONTINUOUS
 62
     7
100
AcDbLine
 10
750.4866029999988
 20
779.4631959999913
 30
0.0
 11
732.0974429999987
 21
797.8522949999913
 31
0.0
  0
ARC
  5
DD
330
1F
100
AcDbEntity
  8
LAY-10
  6
CONTINUOUS
 62
     7
100
AcDbCircle
 10
624.9999999999989
 20
899.9999389999914
 30
0.0
 40
148.0
100
AcDbArc
 50
23.8550978002716
 51
43.64488815675158
  0
ARC
  5
DE
330
1F
100
AcDbEntity
  8
LAY-10
  6
CONTINUOUS
 62
     7
100
AcDbCircle
 10
624.9999999999989
 20
899.9999389999914
 30
0.0
 40
148.0
100
AcDbArc
 50
316.3551515389349
 51
336.1449418954142
  0
ARC
  5
DF
330
1F
100
AcDbEntity
  8
LAY-10
  6
CONTINUOUS
 62
     7
100
AcDbCircle
 10
624.9999999999989
 20
899.9999389999914
 30
0.0
 40
174.0
100
AcDbArc
 50
46.15260983448092
 51
66.34742405633939
  0
ARC
  5
E0
330
1F
100
AcDbEntity
  8
LAY-10
  6
CONTINUOUS
 62
     7
100
AcDbCircle
 10
624.9999999999989
 20
899.9999389999914
 30
0.0
 40
181.0
100
AcDbArc
 50
46.10803371801847
 51
66.39200017279983
  0
ARC
  5
E1
330
1F
100
AcDbEntity
  8
LAY-10
  6
CONTINUOUS
 62
     7
100
AcDbCircle
 10
624.9999999999989
 20
899.9999389999914
 30
0.0
 40
207.0000000000002
100
AcDbArc
 50
45.96886226958211
 51
66.53226024104715
  0
ARC
  5
E2
330
1F
100
AcDbEntity
  8
LAY-10
  6
CONTINUOUS
 62
     7
100
AcDbCircle
 10
624.9999999999989
 20
899.9999389999914
 30
0.0
 40
214.0000000000001
100
AcDbArc
 50
45.94668880291124
 51
66.56285618730845
  0
LINE
  5
E3
330
1F
100
AcDbEntity
  8
LAY-10
  6
CONTINUOUS
 62
     7
100
AcDbLine
 10
745.5367739999988
 20
1025.486572999991
 30
0.0
 11
727.147613999999
 21
1007.097412999991
 31
0.0
  0
ARC
  5
E4
330
1F
100
AcDbEntity
  8
LAY-10
  6
CONTINUOUS
 62
     7
100
AcDbCircle
 10
624.9999999999989
 20
899.9999389999914
 30
0.0
 40
141.0
100
AcDbArc
 50
23.9224203412001
 51
43.57762291160288
  0
ARC
  5
E5
330
1F
100
AcDbEntity
  8
LAY-10
  6
CONTINUOUS
 62
     7
100
AcDbCircle
 10
624.9999999999989
 20
899.9999389999914
 30
0.0
 40
141.0
100
AcDbArc
 50
316.4224167840823
 51
336.0776193544859
  0
LINE
  5
E6
330
1F
100
AcDbEntity
  8
LAY-10
  6
CONTINUOUS
 62
     7
100
AcDbLine
 10
727.147613999999
 20
792.9025269999914
 30
0.0
 11
745.5368349999989
 21
774.5133669999913
 31
0.0
  0
ARC
  5
E7
330
1F
100
AcDbEntity
  8
LAY-10
  6
CONTINUOUS
 62
     7
100
AcDbCircle
 10
624.9999999999989
 20
899.9999389999914
 30
0.0
 40
174.0
100
AcDbArc
 50
293.6526156393475
 51
313.8474298612049
  0
ARC
  5
E8
330
1F
100
AcDbEntity
  8
LAY-10
  6
CONTINUOUS
 62
     7
100
AcDbCircle
 10
624.9999999999989
 20
899.9999389999914
 30
0.0
 40
181.0
100
AcDbArc
 50
293.607982227107
 51
313.8920059776673
  0
ARC
  5
E9
330
1F
100
AcDbEntity
  8
LAY-10
  6
CONTINUOUS
 62
     7
100
AcDbCircle
 10
624.9999999999989
 20
899.9999389999914
 30
0.0
 40
207.0000000000002
100
AcDbArc
 50
293.4688107786687
 51
314.0322087501349
  0
ARC
  5
EA
330
1F
100
AcDbEntity
  8
LAY-10
  6
CONTINUOUS
 62
     7
100
AcDbCircle
 10
624.9999999999989
 20
899.9999389999914
 30
0.0
 40
214.0000000000001
100
AcDbArc
 50
293.4466946077778
 51
314.0628619921749
  0
ARC
  5
EB
330
1F
100
AcDbEntity
  8
LAY-10
  6
CONTINUOUS
 62
     7
100
AcDbCircle
 10
624.9999999999989
 20
899.9999389999914
 30
0.0
 40
240.0000000000001
100
AcDbArc
 50
45.83564958221374
 51
66.66444160438482
  0
ARC
  5
EC
330
1F
100
AcDbEntity
  8
LAY-10
  6
CONTINUOUS
 62
     7
100
AcDbCircle
 10
624.9999999999989
 20
899.9999389999914
 30
0.0
 40
240.0000000000001
100
AcDbArc
 50
293.3355980913012
 51
314.1643901134713
  0
CIRCLE
  5
ED
330
1F
100
AcDbEntity
  8
LAY-10
  6
CONTINUOUS
 62
     7
100
AcDbCircle
 10
624.9999999999989
 20
899.9999389999914
 30
0.0
 40
248.5000000000001
  0
LINE
  5
EE
330
1F
100
AcDbEntity
  8
LAY-10
  6
CONTINUOUS
 62
     7
100
AcDbLine
 10
504.4631959999988
 20
774.5133669999913
 30
0.0
 11
522.8523559999988
 21
792.9025269999914
 31
0.0
  0
LINE
  5
EF
330
1F
100
AcDbEntity
  8
LAY-10
  6
CONTINUOUS
 62
     7
100
AcDbLine
 10
517.9025879999989
 20
797.8522339999912
 30
0.0
 11
499.5134279999989
 21
779.4631349999914
 31
0.0
  0
ARC
  5
F0
330
1F
100
AcDbEntity
  8
LAY-10
  6
CONTINUOUS
 62
     7
100
AcDbCircle
 10
624.9999999999989
 20
899.9999389999914
 30
0.0
 40
115.0000000000001
100
AcDbArc
 50
181.7440460804412
 51
200.7559316384732
  0
ARC
  5
F1
330
1F
100
AcDbEntity
  8
LAY-10
  6
CONTINUOUS
 62
     7
100
AcDbCircle
 10
624.9999999999989
 20
899.9999389999914
 30
0.0
 40
115.0000000000001
100
AcDbArc
 50
159.2440507614338
 51
178.2559363194654
  0
LINE
  5
F2
330
1F
100
AcDbEntity
  8
LAY-10
  6
CONTINUOUS
 62
     7
100
AcDbLine
 10
499.5134279999989
 20
1020.536743999991
 30
0.0
 11
517.9025269999988
 21
1002.147582999991
 31
0.0
  0
LINE
  5
F3
330
1F
100
AcDbEntity
  8
LAY-10
  6
CONTINUOUS
 62
     7
100
AcDbLine
 10
522.8522949999988
 20
1007.097351999991
 30
0.0
 11
504.4631959999988
 21
1025.486511999991
 31
0.0
  0
ARC
  5
F4
330
1F
100
AcDbEntity
  8
LAY-10
  6
CONTINUOUS
 62
     7
100
AcDbCircle
 10
624.9999999999989
 20
899.9999389999914
 30
0.0
 40
174.0
100
AcDbArc
 50
226.1525723865444
 51
246.3473866084019
  0
ARC
  5
F5
330
1F
100
AcDbEntity
  8
LAY-10
  6
CONTINUOUS
 62
     7
100
AcDbCircle
 10
624.9999999999989
 20
899.9999389999914
 30
0.0
 40
174.0
100
AcDbArc
 50
113.6525957915043
 51
133.8474100133631
  0
ARC
  5
F6
330
1F
100
AcDbEntity
  8
LAY-10
  6
CONTINUOUS
 62
     7
100
AcDbCircle
 10
624.9999999999989
 20
899.9999389999914
 30
0.0
 40
181.0
100
AcDbArc
 50
226.107996270083
 51
246.3920200206426
  0
ARC
  5
F7
330
1F
100
AcDbEntity
  8
LAY-10
  6
CONTINUOUS
 62
     7
100
AcDbCircle
 10
624.9999999999989
 20
899.9999389999914
 30
0.0
 40
207.0000000000002
100
AcDbArc
 50
225.9688248216463
 51
246.5322227931112
  0
ARC
  5
F8
330
1F
100
AcDbEntity
  8
LAY-10
  6
CONTINUOUS
 62
     7
100
AcDbCircle
 10
624.9999999999989
 20
899.9999389999914
 30
0.0
 40
214.0000000000001
100
AcDbArc
 50
225.9466513549737
 51
246.5628760351516
  0
ARC
  5
F9
330
1F
100
AcDbEntity
  8
LAY-10
  6
CONTINUOUS
 62
     7
100
AcDbCircle
 10
624.9999999999989
 20
899.9999389999914
 30
0.0
 40
240.0000000000001
100
AcDbArc
 50
225.8356121342777
 51
246.6644041564473
  0
ARC
  5
FA
330
1F
100
AcDbEntity
  8
LAY-10
  6
CONTINUOUS
 62
     7
100
AcDbCircle
 10
624.9999999999989
 20
899.9999389999914
 30
0.0
 40
141.0
100
AcDbArc
 50
203.9223828932628
 51
223.5775854636674
  0
ARC
  5
FB
330
1F
100
AcDbEntity
  8
LAY-10
  6
CONTINUOUS
 62
     7
100
AcDbCircle
 10
624.9999999999989
 20
899.9999389999914
 30
0.0
 40
148.0
100
AcDbArc
 50
203.8551176481145
 51
223.6449080045954
  0
LINE
  5
FC
330
1F
100
AcDbEntity
  8
LAY-10
  6
CONTINUOUS
 62
     7
100
AcDbLine
 10
496.1125489999989
 20
842.8245849999913
 30
0.0
 11
520.1424559999989
 21
852.7781379999914
 31
0.0
  0
LINE
  5
FD
330
1F
100
AcDbEntity
  8
LAY-10
  6
CONTINUOUS
 62
     7
100
AcDbLine
 10
517.4636839999989
 20
859.2453009999913
 30
0.0
 11
493.433715999999
 21
849.2918099999913
 31
0.0
  0
LINE
  5
FE
330
1F
100
AcDbEntity
  8
LAY-10
  6
CONTINUOUS
 62
     7
100
AcDbLine
 10
493.433715999999
 20
950.7080689999913
 30
0.0
 11
517.4636839999989
 21
940.7545169999912
 31
0.0
  0
LINE
  5
FF
330
1F
100
AcDbEntity
  8
LAY-10
  6
CONTINUOUS
 62
     7
100
AcDbLine
 10
520.1424559999989
 20
947.2217409999913
 30
0.0
 11
496.112487999999
 21
957.1752929999914
 31
0.0
  0
ARC
  5
100
330
1F
100
AcDbEntity
  8
LAY-10
  6
CONTINUOUS
 62
     7
100
AcDbCircle
 10
624.9999999999989
 20
899.9999389999914
 30
0.0
 40
141.0
100
AcDbArc
 50
136.4223969362394
 51
156.0775995066435
  0
ARC
  5
101
330
1F
100
AcDbEntity
  8
LAY-10
  6
CONTINUOUS
 62
     7
100
AcDbCircle
 10
624.9999999999989
 20
899.9999389999914
 30
0.0
 40
148.0
100
AcDbArc
 50
136.3551316910907
 51
156.144922047572
  0
ARC
  5
102
330
1F
100
AcDbEntity
  8
LAY-10
  6
CONTINUOUS
 62
     7
100
AcDbCircle
 10
624.9999999999989
 20
899.9999389999914
 30
0.0
 40
181.0
100
AcDbArc
 50
113.6080196750425
 51
133.8919861298246
  0
ARC
  5
103
330
1F
100
AcDbEntity
  8
LAY-10
  6
CONTINUOUS
 62
     7
100
AcDbCircle
 10
624.9999999999989
 20
899.9999389999914
 30
0.0
 40
207.0000000000002
100
AcDbArc
 50
113.4688482266067
 51
134.032246198072
  0
ARC
  5
104
330
1F
100
AcDbEntity
  8
LAY-10
  6
CONTINUOUS
 62
     7
100
AcDbCircle
 10
624.9999999999989
 20
899.9999389999914
 30
0.0
 40
214.0000000000001
100
AcDbArc
 50
113.4466747599344
 51
134.0628994401115
  0
ARC
  5
105
330
1F
100
AcDbEntity
  8
LAY-10
  6
CONTINUOUS
 62
     7
100
AcDbCircle
 10
624.9999999999989
 20
899.9999389999914
 30
0.0
 40
240.0000000000001
100
AcDbArc
 50
113.3355782434586
 51
134.1643702656292
  0
LINE
  5
106
330
1F
100
AcDbEntity
  8
LAY-10
  6
CONTINUOUS
 62
     7
100
AcDbLine
 10
411.0286249999988
 20
896.4998779999912
 30
0.0
 11
385.0255129999989
 21
896.4998779999912
 31
0.0
  0
LINE
  5
107
330
1F
100
AcDbEntity
  8
LAY-10
  6
CONTINUOUS
 62
     7
100
AcDbLine
 10
411.0286249999988
 20
903.4999999999912
 30
0.0
 11
385.0255129999989
 21
903.4999999999912
 31
0.0
  0
ARC
  5
108
330
1F
100
AcDbEntity
  8
LAY-10
  6
CONTINUOUS
 62
     7
100
AcDbCircle
 10
624.9999999999989
 20
899.9999389999914
 30
0.0
 40
240.0000000000001
100
AcDbArc
 50
180.8356214962611
 51
201.6644135184312
  0
ARC
  5
109
330
1F
100
AcDbEntity
  8
LAY-10
  6
CONTINUOUS
 62
     7
100
AcDbCircle
 10
624.9999999999989
 20
899.9999389999914
 30
0.0
 40
240.0000000000001
100
AcDbArc
 50
158.3356261772532
 51
179.1644181994249
  0
ARC
  5
10A
330
1F
100
AcDbEntity
  8
LAY-10
  6
CONTINUOUS
 62
     7
100
AcDbCircle
 10
624.9999999999989
 20
899.9999389999914
 30
0.0
 40
207.0000000000002
100
AcDbArc
 50
203.4688295026379
 51
224.0322274741031
  0
ARC
  5
10B
330
1F
100
AcDbEntity
  8
LAY-10
  6
CONTINUOUS
 62
     7
100
AcDbCircle
 10
624.9999999999989
 20
899.9999389999914
 30
0.0
 40
214.0000000000001
100
AcDbArc
 50
203.4466560359658
 51
224.0628807161419
  0
ARC
  5
10C
330
1F
100
AcDbEntity
  8
LAY-10
  6
CONTINUOUS
 62
     7
100
AcDbCircle
 10
624.9999999999989
 20
899.9999389999914
 30
0.0
 40
240.0000000000001
100
AcDbArc
 50
203.335616815269
 51
224.1644088374409
  0
LINE
  5
10D
330
1F
100
AcDbEntity
  8
LAY-10
  6
CONTINUOUS
 62
     7
100
AcDbLine
 10
435.1236569999987
 20
817.5621949999911
 30
0.0
 11
459.1484379999989
 21
827.5135499999911
 31
0.0
  0
LINE
  5
10E
330
1F
100
AcDbEntity
  8
LAY-10
  6
CONTINUOUS
 62
     7
100
AcDbLine
 10
456.4696659999989
 20
833.9807739999914
 30
0.0
 11
432.4448849999989
 21
824.0293579999914
 31
0.0
  0
ARC
  5
10F
330
1F
100
AcDbEntity
  8
LAY-10
  6
CONTINUOUS
 62
     7
100
AcDbCircle
 10
624.9999999999989
 20
899.9999389999914
 30
0.0
 40
181.0
100
AcDbArc
 50
181.1080056320668
 51
201.3920293826266
  0
ARC
  5
110
330
1F
100
AcDbEntity
  8
LAY-10
  6
CONTINUOUS
 62
     7
100
AcDbCircle
 10
624.9999999999989
 20
899.9999389999914
 30
0.0
 40
181.0
100
AcDbArc
 50
158.6080103130594
 51
178.8919767678394
  0
LINE
  5
111
330
1F
100
AcDbEntity
  8
LAY-10
  6
CONTINUOUS
 62
     7
100
AcDbLine
 10
432.4448849999989
 20
975.9704589999913
 30
0.0
 11
456.4696039999988
 21
966.0191039999912
 31
0.0
  0
LINE
  5
112
330
1F
100
AcDbEntity
  8
LAY-10
  6
CONTINUOUS
 62
     7
100
AcDbLine
 10
459.1484379999989
 20
972.4862679999912
 30
0.0
 11
435.1236569999987
 21
982.4376839999911
 31
0.0
  0
ARC
  5
113
330
1F
100
AcDbEntity
  8
LAY-10
  6
CONTINUOUS
 62
     7
100
AcDbCircle
 10
624.9999999999989
 20
899.9999389999914
 30
0.0
 40
207.0000000000002
100
AcDbArc
 50
135.9688435456133
 51
156.5322415170789
  0
ARC
  5
114
330
1F
100
AcDbEntity
  8
LAY-10
  6
CONTINUOUS
 62
     7
100
AcDbCircle
 10
624.9999999999989
 20
899.9999389999914
 30
0.0
 40
214.0000000000001
100
AcDbArc
 50
135.9466700789423
 51
156.5628947591188
  0
ARC
  5
115
330
1F
100
AcDbEntity
  8
LAY-10
  6
CONTINUOUS
 62
     7
100
AcDbCircle
 10
624.9999999999989
 20
899.9999389999914
 30
0.0
 40
240.0000000000001
100
AcDbArc
 50
135.8356308582467
 51
156.6644228804155
  0
ARC
  5
116
330
1F
100
AcDbEntity
  8
LAY-10
  6
CONTINUOUS
 62
     7
100
AcDbCircle
 10
624.9999999999989
 20
899.9999389999914
 30
0.0
 40
207.0000000000002
100
AcDbArc
 50
180.9688341836301
 51
201.5322321550952
  0
ARC
  5
117
330
1F
100
AcDbEntity
  8
LAY-10
  6
CONTINUOUS
 62
     7
100
AcDbCircle
 10
624.9999999999989
 20
899.9999389999914
 30
0.0
 40
207.0000000000002
100
AcDbArc
 50
158.4688388646222
 51
179.0322368360871
  0
LINE
  5
118
330
1F
100
AcDbEntity
  8
LAY-10
  6
CONTINUOUS
 62
     7
100
AcDbLine
 10
428.6556399999989
 20
814.8829959999912
 30
0.0
 11
404.6318969999988
 21
804.9320679999912
 31
0.0
  0
LINE
  5
119
330
1F
100
AcDbEntity
  8
LAY-10
  6
CONTINUOUS
 62
     7
100
AcDbLine
 10
425.9768069999988
 20
821.3502199999912
 30
0.0
 11
401.9530639999989
 21
811.3992919999913
 31
0.0
  0
ARC
  5
11A
330
1F
100
AcDbEntity
  8
LAY-10
  6
CONTINUOUS
 62
     7
100
AcDbCircle
 10
624.9999999999989
 20
899.9999389999914
 30
0.0
 40
214.0000000000001
100
AcDbArc
 50
180.9466607169577
 51
201.5628853971355
  0
ARC
  5
11B
330
1F
100
AcDbEntity
  8
LAY-10
  6
CONTINUOUS
 62
     7
100
AcDbCircle
 10
624.9999999999989
 20
899.9999389999914
 30
0.0
 40
214.0000000000001
100
AcDbArc
 50
158.4466653979503
 51
179.0628900781264
  0
LINE
  5
11C
330
1F
100
AcDbEntity
  8
LAY-10
  6
CONTINUOUS
 62
     7
100
AcDbLine
 10
425.9768069999988
 20
978.6496589999913
 30
0.0
 11
401.9530639999989
 21
988.6005859999912
 31
0.0
  0
LINE
  5
11D
330
1F
100
AcDbEntity
  8
LAY-10
  6
CONTINUOUS
 62
     7
100
AcDbLine
 10
428.6556399999989
 20
985.116882999991
 30
0.0
 11
404.6318969999988
 21
995.0678109999913
 31
0.0
  0
LINE
  5
11E
330
1F
100
AcDbEntity
  8
LAY-10
  6
CONTINUOUS
 62
     7
100
AcDbLine
 10
418.0296019999989
 20
896.4998779999912
 30
0.0
 11
444.0338129999988
 21
896.4998779999912
 31
0.0
  0
LINE
  5
11F
330
1F
100
AcDbEntity
  8
LAY-10
  6
CONTINUOUS
 62
     7
100
AcDbLine
 10
444.0338129999988
 20
903.4999389999913
 30
0.0
 11
418.0296019999989
 21
903.4999389999913
 31
0.0
  0
LINE
  5
120
330
1F
100
AcDbEntity
  8
LAY-10
  6
CONTINUOUS
 62
     7
100
AcDbLine
 10
494.5626829999988
 20
774.5123909999912
 30
0.0
 11
476.1749269999988
 21
756.1246339999913
 31
0.0
  0
LINE
  5
121
330
1F
100
AcDbEntity
  8
LAY-10
  6
CONTINUOUS
 62
     7
100
AcDbLine
 10
476.1749269999988
 20
1043.875183999991
 30
0.0
 11
494.5626829999988
 21
1025.487487999991
 31
0.0
  0
ARC
  5
122
330
1F
100
AcDbEntity
  8
LAY-10
  6
CONTINUOUS
 62
     7
100
AcDbCircle
 10
624.9999999999989
 20
899.9999389999914
 30
0.0
 40
181.0
100
AcDbArc
 50
203.608000951074
 51
223.8920247016347
  0
LINE
  5
123
330
1F
100
AcDbEntity
  8
LAY-10
  6
CONTINUOUS
 62
     7
100
AcDbLine
 10
465.6168819999989
 20
830.1928719999912
 30
0.0
 11
489.6434329999989
 21
840.1450199999912
 31
0.0
  0
LINE
  5
124
330
1F
100
AcDbEntity
  8
LAY-10
  6
CONTINUOUS
 62
     7
100
AcDbLine
 10
489.6434329999989
 20
959.8548589999912
 30
0.0
 11
465.6168819999989
 21
969.8069459999914
 31
0.0
  0
ARC
  5
125
330
1F
100
AcDbEntity
  8
LAY-10
  6
CONTINUOUS
 62
     7
100
AcDbCircle
 10
624.9999999999989
 20
899.9999389999914
 30
0.0
 40
181.0
100
AcDbArc
 50
136.1080149940512
 51
156.3919814488323
  0
LINE
  5
126
330
1F
100
AcDbEntity
  8
LAY-10
  6
CONTINUOUS
 62
     7
100
AcDbLine
 10
481.124694999999
 20
751.1748659999912
 30
0.0
 11
499.5124509999989
 21
769.5626229999912
 31
0.0
  0
ARC
  5
127
330
1F
100
AcDbEntity
  8
LAY-10
  6
CONTINUOUS
 62
     7
100
AcDbCircle
 10
624.9999999999989
 20
899.9999389999914
 30
0.0
 40
174.0
100
AcDbArc
 50
203.6525770675365
 51
223.8474485851735
  0
ARC
  5
128
330
1F
100
AcDbEntity
  8
LAY-10
  6
CONTINUOUS
 62
     7
100
AcDbCircle
 10
624.9999999999989
 20
899.9999389999914
 30
0.0
 40
174.0
100
AcDbArc
 50
136.1525911105125
 51
156.3474053323702
  0
LINE
  5
129
330
1F
100
AcDbEntity
  8
LAY-10
  6
CONTINUOUS
 62
     7
100
AcDbLine
 10
499.5124509999989
 20
1030.437194999991
 30
0.0
 11
481.124694999999
 21
1048.825012999991
 31
0.0
  0
LINE
  5
12A
330
1F
100
AcDbEntity
  8
LAY-10
  6
CONTINUOUS
 62
     7
100
AcDbLine
 10
478.999999999999
 20
883.9998779999912
 30
0.0
 11
478.999999999999
 21
865.9998779999912
 31
0.0
  0
LINE
  5
12B
330
1F
100
AcDbEntity
  8
LAY-10
  6
CONTINUOUS
 62
     7
100
AcDbLine
 10
478.999999999999
 20
916.0001229999912
 30
0.0
 11
478.999999999999
 21
934.0001229999913
 31
0.0
  0
ARC
  5
12C
330
1F
100
AcDbEntity
  8
LAY-10
  6
CONTINUOUS
 62
     7
100
AcDbCircle
 10
472.999999999999
 20
934.0001229999913
 30
0.0
 40
6.000000000000006
100
AcDbArc
 50
359.9999823999065
 51
90.00002097171736
  0
ARC
  5
12D
330
1F
100
AcDbEntity
  8
LAY-10
  6
CONTINUOUS
 62
     7
100
AcDbCircle
 10
472.999999999999
 20
883.9998779999912
 30
0.0
 40
6.000000000000006
100
AcDbArc
 50
0.05735307529271
 51
77.91062909455074
  0
ARC
  5
12E
330
1F
100
AcDbEntity
  8
LAY-10
  6
CONTINUOUS
 62
     7
100
AcDbCircle
 10
472.999999999999
 20
865.9998779999912
 30
0.0
 40
6.000000000000006
100
AcDbArc
 50
270.0000011238739
 51
359.9426866203934
  0
ARC
  5
12F
330
1F
100
AcDbEntity
  8
LAY-10
  6
CONTINUOUS
 62
     7
100
AcDbCircle
 10
472.999999999999
 20
916.0001229999912
 30
0.0
 40
6.000000000000006
100
AcDbArc
 50
282.0894106011359
 51
359.9426866203934
  0
LINE
  5
130
330
1F
100
AcDbEntity
  8
LAY-10
  6
CONTINUOUS
 62
     7
100
AcDbLine
 10
454.999999999999
 20
865.9998779999912
 30
0.0
 11
454.999999999999
 21
883.9998779999912
 31
0.0
  0
LINE
  5
131
330
1F
100
AcDbEntity
  8
LAY-10
  6
CONTINUOUS
 62
     7
100
AcDbLine
 10
454.999999999999
 20
934.0001229999913
 30
0.0
 11
454.999999999999
 21
916.0001229999912
 31
0.0
  0
ARC
  5
132
330
1F
100
AcDbEntity
  8
LAY-10
  6
CONTINUOUS
 62
     7
100
AcDbCircle
 10
460.9999999999989
 20
883.9998779999912
 30
0.0
 40
6.000000000000006
100
AcDbArc
 50
90.00003857181143
 51
180.0000198478435
  0
ARC
  5
133
330
1F
100
AcDbEntity
  8
LAY-10
  6
CONTINUOUS
 62
     7
100
AcDbCircle
 10
460.9999999999989
 20
865.9998779999912
 30
0.0
 40
6.000000000000006
100
AcDbArc
 50
180.0000198478446
 51
270.0000011238739
  0
ARC
  5
134
330
1F
100
AcDbEntity
  8
LAY-10
  6
CONTINUOUS
 62
     7
100
AcDbCircle
 10
460.9999999999989
 20
916.0001229999912
 30
0.0
 40
6.000000000000006
100
AcDbArc
 50
180.0000198478413
 51
270.0000011238739
  0
ARC
  5
135
330
1F
100
AcDbEntity
  8
LAY-10
  6
CONTINUOUS
 62
     7
100
AcDbCircle
 10
460.9999999999989
 20
934.0001229999913
 30
0.0
 40
6.000000000000006
100
AcDbArc
 50
89.99998127603207
 51
180.0000198478446
  0
LINE
  5
136
330
1F
100
AcDbEntity
  8
LAY-10
  6
CONTINUOUS
 62
     7
100
AcDbLine
 10
460.9999999999989
 20
859.9998779999911
 30
0.0
 11
472.999999999999
 21
859.9998779999911
 31
0.0
  0
LINE
  5
137
330
1F
100
AcDbEntity
  8
LAY-10
  6
CONTINUOUS
 62
     7
100
AcDbLine
 10
474.4999389999988
 20
889.9998779999911
 30
0.0
 11
460.9999999999989
 21
889.9998779999911
 31
0.0
  0
LINE
  5
138
330
1F
100
AcDbEntity
  8
LAY-10
  6
CONTINUOUS
 62
     7
100
AcDbLine
 10
460.9999999999989
 20
940.0001229999913
 30
0.0
 11
472.999999999999
 21
940.0001229999913
 31
0.0
  0
LINE
  5
139
330
1F
100
AcDbEntity
  8
LAY-10
  6
CONTINUOUS
 62
     7
100
AcDbLine
 10
474.4999389999988
 20
910.0001229999913
 30
0.0
 11
460.9999999999989
 21
910.0001229999913
 31
0.0
  0
LINE
  5
13A
330
1F
100
AcDbEntity
  8
LAY-10
  6
CONTINUOUS
 62
     7
100
AcDbLine
 10
476.1742549999989
 20
746.2244269999912
 30
0.0
 11
457.7872919999989
 21
727.8374639999911
 31
0.0
  0
LINE
  5
13B
330
1F
100
AcDbEntity
  8
LAY-10
  6
CONTINUOUS
 62
     7
100
AcDbLine
 10
471.2244869999989
 20
751.1741949999913
 30
0.0
 11
452.8375239999988
 21
732.7872319999911
 31
0.0
  0
LINE
  5
13C
330
1F
100
AcDbEntity
  8
LAY-10
  6
CONTINUOUS
 62
     7
100
AcDbLine
 10
471.2244869999989
 20
1048.825622999991
 30
0.0
 11
452.8375239999988
 21
1067.212646999991
 31
0.0
  0
LINE
  5
13D
330
1F
100
AcDbEntity
  8
LAY-10
  6
CONTINUOUS
 62
     7
100
AcDbLine
 10
476.1742549999989
 20
1053.775451999991
 30
0.0
 11
457.7872919999989
 21
1072.162414999991
 31
0.0
  0
ARC
  5
13E
330
1F
100
AcDbEntity
  8
LAY-10
  6
CONTINUOUS
 62
     7
100
AcDbCircle
 10
624.9999999999989
 20
899.9999389999914
 30
0.0
 40
141.0
100
AcDbArc
 50
181.4223875742559
 51
201.0775901446582
  0
ARC
  5
13F
330
1F
100
AcDbEntity
  8
LAY-10
  6
CONTINUOUS
 62
     7
100
AcDbCircle
 10
624.9999999999989
 20
899.9999389999914
 30
0.0
 40
141.0
100
AcDbArc
 50
158.9223922552468
 51
178.5775948256514
  0
LINE
  5
140
330
1F
100
AcDbEntity
  8
LAY-10
  6
CONTINUOUS
 62
     7
100
AcDbLine
 10
504.8502809999989
 20
899.9999999999911
 30
0.0
 11
490.2678219999988
 21
899.9999999999911
 31
0.0
  0
LINE
  5
141
330
1F
100
AcDbEntity
  8
LAY-10
  6
CONTINUOUS
 62
     7
100
AcDbLine
 10
484.0434569999989
 20
896.4998779999912
 30
0.0
 11
510.0532839999988
 21
896.4998779999912
 31
0.0
  0
LINE
  5
142
330
1F
100
AcDbEntity
  8
LAY-10
  6
CONTINUOUS
 62
     7
100
AcDbLine
 10
510.0532839999988
 20
903.4999389999913
 30
0.0
 11
484.0434569999989
 21
903.4999999999912
 31
0.0
  0
CIRCLE
  5
143
330
1F
100
AcDbEntity
  8
LAY-10
  6
CONTINUOUS
 62
     7
100
AcDbCircle
 10
624.9999999999989
 20
899.9999389999914
 30
0.0
 40
75.0
  0
LINE
  5
144
330
1F
100
AcDbEntity
  8
LAY-10
  6
CONTINUOUS
 62
     7
100
AcDbLine
 10
561.6601559999989
 20
737.9379889999911
 30
0.0
 11
571.6123049999989
 21
761.9645999999912
 31
0.0
  0
LINE
  5
145
330
1F
100
AcDbEntity
  8
LAY-10
  6
CONTINUOUS
 62
     7
100
AcDbLine
 10
571.6122439999989
 20
1038.035278999991
 30
0.0
 11
561.6601559999989
 21
1062.061828999991
 31
0.0
  0
ARC
  5
146
330
1F
100
AcDbEntity
  8
LAY-10
  6
CONTINUOUS
 62
     7
100
AcDbCircle
 10
624.9999999999989
 20
899.9999389999914
 30
0.0
 40
174.0
100
AcDbArc
 50
248.6526250013322
 51
268.8474392231892
  0
ARC
  5
147
330
1F
100
AcDbEntity
  8
LAY-10
  6
CONTINUOUS
 62
     7
100
AcDbCircle
 10
624.9999999999989
 20
899.9999389999914
 30
0.0
 40
181.0
100
AcDbArc
 50
248.6079915890905
 51
268.8920153396506
  0
ARC
  5
148
330
1F
100
AcDbEntity
  8
LAY-10
  6
CONTINUOUS
 62
     7
100
AcDbCircle
 10
624.9999999999989
 20
899.9999389999914
 30
0.0
 40
181.0
100
AcDbArc
 50
91.10802435603459
 51
111.3919908108159
  0
ARC
  5
149
330
1F
100
AcDbEntity
  8
LAY-10
  6
CONTINUOUS
 62
     7
100
AcDbCircle
 10
624.9999999999989
 20
899.9999389999914
 30
0.0
 40
174.0
100
AcDbArc
 50
91.15260047249627
 51
111.3474146943548
  0
CIRCLE
  5
14A
330
1F
100
AcDbEntity
  8
LAY-10
  6
CONTINUOUS
 62
     7
100
AcDbCircle
 10
565.4391479999989
 20
716.1405639999913
 30
0.0
 40
10.0
  0
ARC
  5
14B
330
1F
100
AcDbEntity
  8
LAY-10
  6
CONTINUOUS
 62
     7
100
AcDbCircle
 10
624.9999999999989
 20
899.9999389999914
 30
0.0
 40
207.0000000000002
100
AcDbArc
 50
248.4688201406525
 51
269.0322181121187
  0
ARC
  5
14C
330
1F
100
AcDbEntity
  8
LAY-10
  6
CONTINUOUS
 62
     7
100
AcDbCircle
 10
624.9999999999989
 20
899.9999389999914
 30
0.0
 40
214.0000000000001
100
AcDbArc
 50
248.4467039697615
 51
269.0628713541587
  0
ARC
  5
14D
330
1F
100
AcDbEntity
  8
LAY-10
  6
CONTINUOUS
 62
     7
100
AcDbCircle
 10
624.9999999999989
 20
899.9999389999914
 30
0.0
 40
240.0000000000001
100
AcDbArc
 50
248.3356074532848
 51
269.1643994754556
  0
ARC
  5
14E
330
1F
100
AcDbEntity
  8
LAY-10
  6
CONTINUOUS
 62
     7
100
AcDbCircle
 10
624.9999999999989
 20
899.9999389999914
 30
0.0
 40
108.0000000000001
100
AcDbArc
 50
226.857138587217
 51
245.6428204077295
  0
ARC
  5
14F
330
1F
100
AcDbEntity
  8
LAY-10
  6
CONTINUOUS
 62
     7
100
AcDbCircle
 10
624.9999999999989
 20
899.9999389999914
 30
0.0
 40
115.0000000000001
100
AcDbArc
 50
226.7440940142368
 51
245.7559222764892
  0
ARC
  5
150
330
1F
100
AcDbEntity
  8
LAY-10
  6
CONTINUOUS
 62
     7
100
AcDbCircle
 10
624.9999999999989
 20
899.9999389999914
 30
0.0
 40
141.0
100
AcDbArc
 50
226.422378212272
 51
246.0776380784546
  0
LINE
  5
151
330
1F
100
AcDbEntity
  8
LAY-10
  6
CONTINUOUS
 62
     7
100
AcDbLine
 10
569.5449219999989
 20
839.5950929999913
 30
0.0
 11
551.1474609999989
 21
821.1976319999914
 31
0.0
  0
LINE
  5
152
330
1F
100
AcDbEntity
  8
LAY-10
  6
CONTINUOUS
 62
     7
100
AcDbLine
 10
569.5449219999989
 20
960.4047859999913
 30
0.0
 11
551.1474609999989
 21
978.8022469999913
 31
0.0
  0
ARC
  5
153
330
1F
100
AcDbEntity
  8
LAY-10
  6
CONTINUOUS
 62
     7
100
AcDbCircle
 10
624.9999999999989
 20
899.9999389999914
 30
0.0
 40
108.0000000000001
100
AcDbArc
 50
114.3571619921763
 51
133.1428438126906
  0
ARC
  5
154
330
1F
100
AcDbEntity
  8
LAY-10
  6
CONTINUOUS
 62
     7
100
AcDbCircle
 10
624.9999999999989
 20
899.9999389999914
 30
0.0
 40
115.0000000000001
100
AcDbArc
 50
114.2440601234179
 51
133.2559456814492
  0
ARC
  5
155
330
1F
100
AcDbEntity
  8
LAY-10
  6
CONTINUOUS
 62
     7
100
AcDbCircle
 10
624.9999999999989
 20
899.9999389999914
 30
0.0
 40
141.0
100
AcDbArc
 50
113.9224016172307
 51
133.5776041876357
  0
ARC
  5
156
330
1F
100
AcDbEntity
  8
LAY-10
  6
CONTINUOUS
 62
     7
100
AcDbCircle
 10
624.9999999999989
 20
899.9999389999914
 30
0.0
 40
207.0000000000002
100
AcDbArc
 50
90.96885290759789
 51
111.5322508790642
  0
ARC
  5
157
330
1F
100
AcDbEntity
  8
LAY-10
  6
CONTINUOUS
 62
     7
100
AcDbCircle
 10
624.9999999999989
 20
899.9999389999914
 30
0.0
 40
240.0000000000001
100
AcDbArc
 50
90.83558292444982
 51
111.6643749466203
  0
ARC
  5
158
330
1F
100
AcDbEntity
  8
LAY-10
  6
CONTINUOUS
 62
     7
100
AcDbCircle
 10
624.9999999999989
 20
899.9999389999914
 30
0.0
 40
214.0000000000001
100
AcDbArc
 50
90.94667944092626
 51
111.5628468253231
  0
LINE
  5
159
330
1F
100
AcDbEntity
  8
LAY-10
  6
CONTINUOUS
 62
     7
100
AcDbLine
 10
539.8830569999988
 20
703.6555789999911
 30
0.0
 11
529.9321289999989
 21
679.6318359999913
 31
0.0
  0
LINE
  5
15A
330
1F
100
AcDbEntity
  8
LAY-10
  6
CONTINUOUS
 62
     7
100
AcDbLine
 10
539.8830569999988
 20
1096.344299999991
 30
0.0
 11
529.9321289999989
 21
1120.368041999991
 31
0.0
  0
LINE
  5
15B
330
1F
100
AcDbEntity
  8
LAY-10
  6
CONTINUOUS
 62
     7
100
AcDbLine
 10
546.3503419999987
 20
700.9767459999912
 30
0.0
 11
536.3993529999989
 21
676.9530029999913
 31
0.0
  0
LINE
  5
15C
330
1F
100
AcDbEntity
  8
LAY-10
  6
CONTINUOUS
 62
     7
100
AcDbLine
 10
527.8035279999989
 20
797.8536989999914
 30
0.0
 11
546.195250999999
 21
816.2454229999913
 31
0.0
  0
LINE
  5
15D
330
1F
100
AcDbEntity
  8
LAY-10
  6
CONTINUOUS
 62
     7
100
AcDbLine
 10
546.195250999999
 20
983.7543949999913
 30
0.0
 11
527.8035279999989
 21
1002.146179999991
 31
0.0
  0
LINE
  5
15E
330
1F
100
AcDbEntity
  8
LAY-10
  6
CONTINUOUS
 62
     7
100
AcDbLine
 10
546.3502809999989
 20
1099.023132999991
 30
0.0
 11
536.3993529999989
 21
1123.046874999991
 31
0.0
  0
ARC
  5
15F
330
1F
100
AcDbEntity
  8
LAY-10
  6
CONTINUOUS
 62
     7
100
AcDbCircle
 10
624.9999999999989
 20
899.9999389999914
 30
0.0
 40
108.0000000000001
100
AcDbArc
 50
204.357143268209
 51
223.1428823845018
  0
LINE
  5
160
330
1F
100
AcDbEntity
  8
LAY-10
  6
CONTINUOUS
 62
     7
100
AcDbLine
 10
541.2454829999988
 20
821.1951909999912
 30
0.0
 11
522.8537599999988
 21
802.8034669999914
 31
0.0
  0
ARC
  5
161
330
1F
100
AcDbEntity
  8
LAY-10
  6
CONTINUOUS
 62
     7
100
AcDbCircle
 10
624.9999999999989
 20
899.9999389999914
 30
0.0
 40
115.0000000000001
100
AcDbArc
 50
204.2440986952285
 51
223.25592695748
  0
LINE
  5
162
330
1F
100
AcDbEntity
  8
LAY-10
  6
CONTINUOUS
 62
     7
100
AcDbLine
 10
550.6502689999988
 20
865.4148559999913
 30
0.0
 11
526.6127929999989
 21
855.4581909999913
 31
0.0
  0
LINE
  5
163
330
1F
100
AcDbEntity
  8
LAY-10
  6
CONTINUOUS
 62
     7
100
AcDbLine
 10
547.971496999999
 20
871.8820809999912
 30
0.0
 11
523.9340209999989
 21
861.9254159999913
 31
0.0
  0
LINE
  5
164
330
1F
100
AcDbEntity
  8
LAY-10
  6
CONTINUOUS
 62
     7
100
AcDbLine
 10
543.0747069999987
 20
896.4998779999912
 30
0.0
 11
517.0567019999988
 21
896.4998779999912
 31
0.0
  0
LINE
  5
165
330
1F
100
AcDbEntity
  8
LAY-10
  6
CONTINUOUS
 62
     7
100
AcDbLine
 10
543.0747069999987
 20
903.4999389999913
 30
0.0
 11
517.0567019999988
 21
903.4999999999912
 31
0.0
  0
LINE
  5
166
330
1F
100
AcDbEntity
  8
LAY-10
  6
CONTINUOUS
 62
     7
100
AcDbLine
 10
547.971496999999
 20
928.1177979999912
 30
0.0
 11
523.9339599999988
 21
938.0744629999913
 31
0.0
  0
LINE
  5
167
330
1F
100
AcDbEntity
  8
LAY-10
  6
CONTINUOUS
 62
     7
100
AcDbLine
 10
550.6502689999988
 20
934.584960999991
 30
0.0
 11
526.6127929999989
 21
944.5416259999913
 31
0.0
  0
ARC
  5
168
330
1F
100
AcDbEntity
  8
LAY-10
  6
CONTINUOUS
 62
     7
100
AcDbCircle
 10
624.9999999999989
 20
899.9999389999914
 30
0.0
 40
108.0000000000001
100
AcDbArc
 50
136.8571573111853
 51
155.6428391316976
  0
ARC
  5
169
330
1F
100
AcDbEntity
  8
LAY-10
  6
CONTINUOUS
 62
     7
100
AcDbCircle
 10
624.9999999999989
 20
899.9999389999914
 30
0.0
 40
115.0000000000001
100
AcDbArc
 50
136.7440554424263
 51
155.7559410004571
  0
LINE
  5
16A
330
1F
100
AcDbEntity
  8
LAY-10
  6
CONTINUOUS
 62
     7
100
AcDbLine
 10
522.8537599999988
 20
997.1963509999912
 30
0.0
 11
541.2454829999988
 21
978.8046269999911
 31
0.0
  0
ARC
  5
16B
330
1F
100
AcDbEntity
  8
LAY-10
  6
CONTINUOUS
 62
     7
100
AcDbCircle
 10
624.9999999999989
 20
899.9999389999914
 30
0.0
 40
148.0
100
AcDbArc
 50
226.3551129671224
 51
246.1449033236023
  0
ARC
  5
16C
330
1F
100
AcDbEntity
  8
LAY-10
  6
CONTINUOUS
 62
     7
100
AcDbCircle
 10
624.9999999999989
 20
899.9999389999914
 30
0.0
 40
148.0
100
AcDbArc
 50
113.8551363720827
 51
133.6449267285634
  0
ARC
  5
16D
330
1F
100
AcDbEntity
  8
LAY-10
  6
CONTINUOUS
 62
     7
100
AcDbCircle
 10
624.9999999999989
 20
899.9999389999914
 30
0.0
 40
108.0000000000001
100
AcDbArc
 50
181.8571479492006
 51
200.6428297697143
  0
ARC
  5
16E
330
1F
100
AcDbEntity
  8
LAY-10
  6
CONTINUOUS
 62
     7
100
AcDbCircle
 10
624.9999999999989
 20
899.9999389999914
 30
0.0
 40
108.0000000000001
100
AcDbArc
 50
159.3571526301936
 51
178.1428344507053
  0
ARC
  5
16F
330
1F
100
AcDbEntity
  8
LAY-10
  6
CONTINUOUS
 62
     7
100
AcDbCircle
 10
624.9999999999989
 20
899.9999389999914
 30
0.0
 40
82.0
100
AcDbArc
 50
182.4463204499332
 51
200.0537145647608
  0
ARC
  5
170
330
1F
100
AcDbEntity
  8
LAY-10
  6
CONTINUOUS
 62
     7
100
AcDbCircle
 10
624.9999999999989
 20
899.9999389999914
 30
0.0
 40
82.0
100
AcDbArc
 50
159.946325130926
 51
177.5537192457524
  0
LINE
  5
171
330
1F
100
AcDbEntity
  8
LAY-10
  6
CONTINUOUS
 62
     7
100
AcDbLine
 10
552.5136719999989
 20
734.1483769999912
 30
0.0
 11
542.5622559999989
 21
710.1235969999912
 31
0.0
  0
LINE
  5
172
330
1F
100
AcDbEntity
  8
LAY-10
  6
CONTINUOUS
 62
     7
100
AcDbLine
 10
542.5622559999989
 20
1089.876220999991
 30
0.0
 11
552.5136109999988
 21
1065.851501999991
 31
0.0
  0
LINE
  5
173
330
1F
100
AcDbEntity
  8
LAY-10
  6
CONTINUOUS
 62
     7
100
AcDbLine
 10
558.9808349999988
 20
731.4695439999913
 30
0.0
 11
549.0294799999989
 21
707.4447639999912
 31
0.0
  0
LINE
  5
174
330
1F
100
AcDbEntity
  8
LAY-10
  6
CONTINUOUS
 62
     7
100
AcDbLine
 10
565.1450809999989
 20
764.6433719999911
 30
0.0
 11
555.1929319999989
 21
740.6168219999912
 31
0.0
  0
ARC
  5
175
330
1F
100
AcDbEntity
  8
LAY-10
  6
CONTINUOUS
 62
     7
100
AcDbCircle
 10
624.9999999999989
 20
899.9999389999914
 30
0.0
 40
82.0
100
AcDbArc
 50
204.9463157689409
 51
222.5537098837688
  0
LINE
  5
176
330
1F
100
AcDbEntity
  8
LAY-10
  6
CONTINUOUS
 62
     7
100
AcDbLine
 10
564.5951539999988
 20
844.5448609999911
 30
0.0
 11
546.1976929999989
 21
826.1473999999913
 31
0.0
  0
ARC
  5
177
330
1F
100
AcDbEntity
  8
LAY-10
  6
CONTINUOUS
 62
     7
100
AcDbCircle
 10
624.9999999999989
 20
899.9999389999914
 30
0.0
 40
82.0
100
AcDbArc
 50
137.4463298119177
 51
155.0537239267446
  0
LINE
  5
178
330
1F
100
AcDbEntity
  8
LAY-10
  6
CONTINUOUS
 62
     7
100
AcDbLine
 10
564.5951539999988
 20
955.4549569999912
 30
0.0
 11
546.1976319999989
 21
973.8524779999912
 31
0.0
  0
LINE
  5
179
330
1F
100
AcDbEntity
  8
LAY-10
  6
CONTINUOUS
 62
     7
100
AcDbLine
 10
555.1929319999989
 20
1059.383056999991
 30
0.0
 11
565.1450809999989
 21
1035.356445999991
 31
0.0
  0
LINE
  5
17A
330
1F
100
AcDbEntity
  8
LAY-10
  6
CONTINUOUS
 62
     7
100
AcDbLine
 10
558.9808349999988
 20
1068.530273999991
 30
0.0
 11
549.0294189999989
 21
1092.555053999991
 31
0.0
  0
LINE
  5
17B
330
1F
100
AcDbEntity
  8
LAY-10
  6
CONTINUOUS
 62
     7
100
AcDbLine
 10
596.8821409999989
 20
822.9714359999913
 30
0.0
 11
586.9254759999988
 21
798.9338989999911
 31
0.0
  0
LINE
  5
17C
330
1F
100
AcDbEntity
  8
LAY-10
  6
CONTINUOUS
 62
     7
100
AcDbLine
 10
596.8821409999989
 20
977.0284429999913
 30
0.0
 11
586.9254759999988
 21
1001.065917999991
 31
0.0
  0
CIRCLE
  5
17D
330
1F
100
AcDbEntity
  8
LAY-10
  6
CONTINUOUS
 62
     7
100
AcDbCircle
 10
587.4413449999988
 20
710.0094609999913
 30
0.0
 40
10.0
  0
ARC
  5
17E
330
1F
100
AcDbEntity
  8
LAY-10
  6
CONTINUOUS
 62
     7
100
AcDbCircle
 10
624.9999999999989
 20
899.9999389999914
 30
0.0
 40
108.0000000000001
100
AcDbArc
 50
249.357133906225
 51
268.1428730225174
  0
ARC
  5
17F
330
1F
100
AcDbEntity
  8
LAY-10
  6
CONTINUOUS
 62
     7
100
AcDbCircle
 10
624.9999999999989
 20
899.9999389999914
 30
0.0
 40
115.0000000000001
100
AcDbArc
 50
249.2440893332443
 51
268.2559748912759
  0
ARC
  5
180
330
1F
100
AcDbEntity
  8
LAY-10
  6
CONTINUOUS
 62
     7
100
AcDbCircle
 10
624.9999999999989
 20
899.9999389999914
 30
0.0
 40
141.0
100
AcDbArc
 50
248.9224308270581
 51
268.5776333974617
  0
ARC
  5
181
330
1F
100
AcDbEntity
  8
LAY-10
  6
CONTINUOUS
 62
     7
100
AcDbCircle
 10
624.9999999999989
 20
899.9999389999914
 30
0.0
 40
148.0
100
AcDbArc
 50
248.8551082861312
 51
268.6448986426108
  0
ARC
  5
182
330
1F
100
AcDbEntity
  8
LAY-10
  6
CONTINUOUS
 62
     7
100
AcDbCircle
 10
624.9999999999989
 20
899.9999389999914
 30
0.0
 40
148.0
100
AcDbArc
 50
91.35508375729593
 51
111.1448741137752
  0
ARC
  5
183
330
1F
100
AcDbEntity
  8
LAY-10
  6
CONTINUOUS
 62
     7
100
AcDbCircle
 10
624.9999999999989
 20
899.9999389999914
 30
0.0
 40
141.0
100
AcDbArc
 50
91.42240629822379
 51
111.0776088686276
  0
ARC
  5
184
330
1F
100
AcDbEntity
  8
LAY-10
  6
CONTINUOUS
 62
     7
100
AcDbCircle
 10
624.9999999999989
 20
899.9999389999914
 30
0.0
 40
115.0000000000001
100
AcDbArc
 50
91.74406480440983
 51
110.7559503624403
  0
ARC
  5
185
330
1F
100
AcDbEntity
  8
LAY-10
  6
CONTINUOUS
 62
     7
100
AcDbCircle
 10
624.9999999999989
 20
899.9999389999914
 30
0.0
 40
108.0000000000001
100
AcDbArc
 50
91.85716667316821
 51
110.6428484936816
  0
LINE
  5
186
330
1F
100
AcDbEntity
  8
LAY-10
  6
CONTINUOUS
 62
     7
100
AcDbLine
 10
574.2918699999988
 20
768.4336549999912
 30
0.0
 11
584.2454219999988
 21
792.4636239999912
 31
0.0
  0
LINE
  5
187
330
1F
100
AcDbEntity
  8
LAY-10
  6
CONTINUOUS
 62
     7
100
AcDbLine
 10
584.2453609999988
 20
1007.536254999991
 30
0.0
 11
574.2918699999988
 21
1031.566223999991
 31
0.0
  0
LINE
  5
188
330
1F
100
AcDbEntity
  8
LAY-10
  6
CONTINUOUS
 62
     7
100
AcDbLine
 10
577.778197999999
 20
795.1423949999913
 30
0.0
 11
567.8246459999989
 21
771.1124879999911
 31
0.0
  0
LINE
  5
189
330
1F
100
AcDbEntity
  8
LAY-10
  6
CONTINUOUS
 62
     7
100
AcDbLine
 10
567.8246459999989
 20
1028.887390999991
 30
0.0
 11
577.778197999999
 21
1004.857421999991
 31
0.0
  0
ARC
  5
18A
330
1F
100
AcDbEntity
  8
LAY-10
  6
CONTINUOUS
 62
     7
100
AcDbCircle
 10
624.9999999999989
 20
899.9999389999914
 30
0.0
 40
82.0
100
AcDbArc
 50
227.4463110879504
 51
245.0537052027751
  0
LINE
  5
18B
330
1F
100
AcDbEntity
  8
LAY-10
  6
CONTINUOUS
 62
     7
100
AcDbLine
 10
590.4149169999988
 20
825.6502079999913
 30
0.0
 11
580.4582519999988
 21
801.6127929999914
 31
0.0
  0
ARC
  5
18C
330
1F
100
AcDbEntity
  8
LAY-10
  6
CONTINUOUS
 62
     7
100
AcDbCircle
 10
624.9999999999989
 20
899.9999389999914
 30
0.0
 40
82.0
100
AcDbArc
 50
114.9463344929093
 51
132.5536713119576
  0
LINE
  5
18D
330
1F
100
AcDbEntity
  8
LAY-10
  6
CONTINUOUS
 62
     7
100
AcDbLine
 10
590.4149169999988
 20
974.3496099999913
 30
0.0
 11
580.4582519999988
 21
998.3871459999912
 31
0.0
  0
LINE
  5
18E
330
1F
100
AcDbEntity
  8
LAY-10
  6
CONTINUOUS
 62
     7
100
AcDbLine
 10
621.5000609999989
 20
719.0338139999911
 30
0.0
 11
621.5038449999988
 21
693.0294799999913
 31
0.0
  0
LINE
  5
18F
330
1F
100
AcDbEntity
  8
LAY-10
  6
CONTINUOUS
 62
     7
100
AcDbLine
 10
621.4999999999989
 20
818.0746459999912
 30
0.0
 11
621.4999999999989
 21
792.0566409999913
 31
0.0
  0
LINE
  5
190
330
1F
100
AcDbEntity
  8
LAY-10
  6
CONTINUOUS
 62
     7
100
AcDbLine
 10
621.4999999999989
 20
785.0532229999914
 30
0.0
 11
621.4999999999989
 21
759.0433959999913
 31
0.0
  0
LINE
  5
191
330
1F
100
AcDbEntity
  8
LAY-10
  6
CONTINUOUS
 62
     7
100
AcDbLine
 10
621.4999999999989
 20
752.0413209999911
 30
0.0
 11
621.4999999999989
 21
726.0351569999912
 31
0.0
  0
LINE
  5
192
330
1F
100
AcDbEntity
  8
LAY-10
  6
CONTINUOUS
 62
     7
100
AcDbLine
 10
621.4999999999989
 20
686.0285039999914
 30
0.0
 11
621.4999999999989
 21
660.0254519999913
 31
0.0
  0
LINE
  5
193
330
1F
100
AcDbEntity
  8
LAY-10
  6
CONTINUOUS
 62
     7
100
AcDbLine
 10
621.4999389999988
 20
1113.971313999991
 30
0.0
 11
621.4999389999988
 21
1139.974426999991
 31
0.0
  0
LINE
  5
194
330
1F
100
AcDbEntity
  8
LAY-10
  6
CONTINUOUS
 62
     7
100
AcDbLine
 10
621.4999389999988
 20
1106.970336999991
 30
0.0
 11
621.4999389999988
 21
1080.966125999991
 31
0.0
  0
LINE
  5
195
330
1F
100
AcDbEntity
  8
LAY-10
  6
CONTINUOUS
 62
     7
100
AcDbLine
 10
621.4999389999988
 20
1073.964721999991
 30
0.0
 11
621.4999389999988
 21
1047.958557999991
 31
0.0
  0
LINE
  5
196
330
1F
100
AcDbEntity
  8
LAY-10
  6
CONTINUOUS
 62
     7
100
AcDbLine
 10
621.4999389999988
 20
1040.956481999991
 30
0.0
 11
621.4999389999988
 21
1014.946655999991
 31
0.0
  0
LINE
  5
197
330
1F
100
AcDbEntity
  8
LAY-10
  6
CONTINUOUS
 62
     7
100
AcDbLine
 10
621.4999389999988
 20
981.9252319999913
 30
0.0
 11
621.4999389999988
 21
1007.943237999991
 31
0.0
  0
CIRCLE
  5
198
330
1F
100
AcDbEntity
  8
LAY-10
  6
CONTINUOUS
 62
     7
100
AcDbCircle
 10
609.9019169999988
 20
706.0315559999913
 30
0.0
 40
10.0
  0
ARC
  5
199
330
1F
100
AcDbEntity
  8
LAY-10
  6
CONTINUOUS
 62
     7
100
AcDbCircle
 10
624.9999999999989
 20
899.9999389999914
 30
0.0
 40
82.0
100
AcDbArc
 50
249.9463064069582
 51
267.5537005217836
  0
ARC
  5
19A
330
1F
100
AcDbEntity
  8
LAY-10
  6
CONTINUOUS
 62
     7
100
AcDbCircle
 10
624.9999999999989
 20
899.9999389999914
 30
0.0
 40
82.0
100
AcDbArc
 50
92.44633917390254
 51
110.053675992949
  0
CIRCLE
  5
19B
330
1F
100
AcDbEntity
  8
LAY-10
  6
CONTINUOUS
 62
     7
100
AcDbCircle
 10
684.5608519999987
 20
716.1405639999913
 30
0.0
 40
10.0
  0
LINE
  5
19C
330
1F
100
AcDbEntity
  8
LAY-10
  6
CONTINUOUS
 62
     7
100
AcDbLine
 10
678.3876949999988
 20
1038.035278999991
 30
0.0
 11
688.3398439999987
 21
1062.061828999991
 31
0.0
  0
LINE
  5
19D
330
1F
100
AcDbEntity
  8
LAY-10
  6
CONTINUOUS
 62
     7
100
AcDbLine
 10
680.4550169999987
 20
960.4047859999913
 30
0.0
 11
698.8525389999987
 21
978.8023079999914
 31
0.0
  0
LINE
  5
19E
330
1F
100
AcDbEntity
  8
LAY-10
  6
CONTINUOUS
 62
     7
100
AcDbLine
 10
680.4550169999987
 20
839.5950929999913
 30
0.0
 11
698.8525389999987
 21
821.1976319999914
 31
0.0
  0
LINE
  5
19F
330
1F
100
AcDbEntity
  8
LAY-10
  6
CONTINUOUS
 62
     7
100
AcDbLine
 10
678.3877559999987
 20
761.9645999999912
 30
0.0
 11
688.3398439999987
 21
737.9380499999912
 31
0.0
  0
ARC
  5
1A0
330
1F
100
AcDbEntity
  8
LAY-10
  6
CONTINUOUS
 62
     7
100
AcDbCircle
 10
624.9999999999989
 20
899.9999389999914
 30
0.0
 40
115.0000000000001
100
AcDbArc
 50
46.74407416639417
 51
65.75595972442441
  0
ARC
  5
1A1
330
1F
100
AcDbEntity
  8
LAY-10
  6
CONTINUOUS
 62
     7
100
AcDbCircle
 10
624.9999999999989
 20
899.9999389999914
 30
0.0
 40
141.0
100
AcDbArc
 50
46.42241566020824
 51
66.07761823061098
  0
ARC
  5
1A2
330
1F
100
AcDbEntity
  8
LAY-10
  6
CONTINUOUS
 62
     7
100
AcDbCircle
 10
624.9999999999989
 20
899.9999389999914
 30
0.0
 40
115.0000000000001
100
AcDbArc
 50
294.2440799712618
 51
313.2559655292911
  0
ARC
  5
1A3
330
1F
100
AcDbEntity
  8
LAY-10
  6
CONTINUOUS
 62
     7
100
AcDbCircle
 10
624.9999999999989
 20
899.9999389999914
 30
0.0
 40
141.0
100
AcDbArc
 50
293.9223641692951
 51
313.5775667396988
  0
ARC
  5
1A4
330
1F
100
AcDbEntity
  8
LAY-10
  6
CONTINUOUS
 62
     7
100
AcDbCircle
 10
624.9999999999989
 20
899.9999389999914
 30
0.0
 40
207.0000000000002
100
AcDbArc
 50
68.46776896877893
 51
89.03116694024483
  0
ARC
  5
1A5
330
1F
100
AcDbEntity
  8
LAY-10
  6
CONTINUOUS
 62
     7
100
AcDbCircle
 10
624.9999999999989
 20
899.9999389999914
 30
0.0
 40
240.0000000000001
100
AcDbArc
 50
68.33564490122228
 51
89.16443692339227
  0
ARC
  5
1A6
330
1F
100
AcDbEntity
  8
LAY-10
  6
CONTINUOUS
 62
     7
100
AcDbCircle
 10
624.9999999999989
 20
899.9999389999914
 30
0.0
 40
214.0000000000001
100
AcDbArc
 50
68.43717302251912
 51
89.05334040691658
  0
ARC
  5
1A7
330
1F
100
AcDbEntity
  8
LAY-10
  6
CONTINUOUS
 62
     7
100
AcDbCircle
 10
624.9999999999989
 20
899.9999389999914
 30
0.0
 40
181.0
100
AcDbArc
 50
68.60802903702776
 51
88.89199549180735
  0
ARC
  5
1A8
330
1F
100
AcDbEntity
  8
LAY-10
  6
CONTINUOUS
 62
     7
100
AcDbCircle
 10
624.9999999999989
 20
899.9999389999914
 30
0.0
 40
174.0
100
AcDbArc
 50
68.65260515348821
 51
88.84741937534577
  0
ARC
  5
1A9
330
1F
100
AcDbEntity
  8
LAY-10
  6
CONTINUOUS
 62
     7
100
AcDbCircle
 10
624.9999999999989
 20
899.9999389999914
 30
0.0
 40
108.0000000000001
100
AcDbArc
 50
46.85711873937343
 51
65.64285785566622
  0
ARC
  5
1AA
330
1F
100
AcDbEntity
  8
LAY-10
  6
CONTINUOUS
 62
     7
100
AcDbCircle
 10
624.9999999999989
 20
899.9999389999914
 30
0.0
 40
108.0000000000001
100
AcDbArc
 50
294.35718184002
 51
313.1428636605329
  0
ARC
  5
1AB
330
1F
100
AcDbEntity
  8
LAY-10
  6
CONTINUOUS
 62
     7
100
AcDbCircle
 10
624.9999999999989
 20
899.9999389999914
 30
0.0
 40
174.0
100
AcDbArc
 50
271.1526203203399
 51
291.347434542197
  0
ARC
  5
1AC
330
1F
100
AcDbEntity
  8
LAY-10
  6
CONTINUOUS
 62
     7
100
AcDbCircle
 10
624.9999999999989
 20
899.9999389999914
 30
0.0
 40
181.0
100
AcDbArc
 50
271.1080442038781
 51
291.3920106586584
  0
ARC
  5
1AD
330
1F
100
AcDbEntity
  8
LAY-10
  6
CONTINUOUS
 62
     7
100
AcDbCircle
 10
624.9999999999989
 20
899.9999389999914
 30
0.0
 40
207.0000000000002
100
AcDbArc
 50
270.968815459661
 51
291.5322707269068
  0
ARC
  5
1AE
330
1F
100
AcDbEntity
  8
LAY-10
  6
CONTINUOUS
 62
     7
100
AcDbCircle
 10
624.9999999999989
 20
899.9999389999914
 30
0.0
 40
214.0000000000001
100
AcDbArc
 50
270.9466419929891
 51
291.5628666731661
  0
ARC
  5
1AF
330
1F
100
AcDbEntity
  8
LAY-10
  6
CONTINUOUS
 62
     7
100
AcDbCircle
 10
624.9999999999989
 20
899.9999389999914
 30
0.0
 40
240.0000000000001
100
AcDbArc
 50
270.8356027722936
 51
291.6643947944641
  0
LINE
  5
1B0
330
1F
100
AcDbEntity
  8
LAY-10
  6
CONTINUOUS
 62
     7
100
AcDbLine
 10
653.1178589999988
 20
977.0284429999913
 30
0.0
 11
663.0744629999989
 21
1001.065917999991
 31
0.0
  0
LINE
  5
1B1
330
1F
100
AcDbEntity
  8
LAY-10
  6
CONTINUOUS
 62
     7
100
AcDbLine
 10
653.1178589999988
 20
822.9714359999913
 30
0.0
 11
663.0745239999987
 21
798.9339599999912
 31
0.0
  0
ARC
  5
1B2
330
1F
100
AcDbEntity
  8
LAY-10
  6
CONTINUOUS
 62
     7
100
AcDbCircle
 10
624.9999999999989
 20
899.9999389999914
 30
0.0
 40
115.0000000000001
100
AcDbArc
 50
69.24406948540256
 51
88.2559550434324
  0
ARC
  5
1B3
330
1F
100
AcDbEntity
  8
LAY-10
  6
CONTINUOUS
 62
     7
100
AcDbCircle
 10
624.9999999999989
 20
899.9999389999914
 30
0.0
 40
108.0000000000001
100
AcDbArc
 50
69.35717135416081
 51
88.14285317467419
  0
ARC
  5
1B4
330
1F
100
AcDbEntity
  8
LAY-10
  6
CONTINUOUS
 62
     7
100
AcDbCircle
 10
624.9999999999989
 20
899.9999389999914
 30
0.0
 40
108.0000000000001
100
AcDbArc
 50
271.8571292252319
 51
290.6428683415245
  0
ARC
  5
1B5
330
1F
100
AcDbEntity
  8
LAY-10
  6
CONTINUOUS
 62
     7
100
AcDbCircle
 10
624.9999999999989
 20
899.9999389999914
 30
0.0
 40
115.0000000000001
100
AcDbArc
 50
271.7440846522521
 51
290.7559129145048
  0
CIRCLE
  5
1B6
330
1F
100
AcDbEntity
  8
LAY-10
  6
CONTINUOUS
 62
     7
100
AcDbCircle
 10
662.5586549999988
 20
710.0094609999913
 30
0.0
 40
10.0
  0
ARC
  5
1B7
330
1F
100
AcDbEntity
  8
LAY-10
  6
CONTINUOUS
 62
     7
100
AcDbCircle
 10
624.9999999999989
 20
899.9999389999914
 30
0.0
 40
148.0
100
AcDbArc
 50
68.85508843828835
 51
88.64487879476769
  0
ARC
  5
1B8
330
1F
100
AcDbEntity
  8
LAY-10
  6
CONTINUOUS
 62
     7
100
AcDbCircle
 10
624.9999999999989
 20
899.9999389999914
 30
0.0
 40
148.0
100
AcDbArc
 50
68.85508843828835
 51
88.64487879476769
  0
ARC
  5
1B9
330
1F
100
AcDbEntity
  8
LAY-10
  6
CONTINUOUS
 62
     7
100
AcDbCircle
 10
624.9999999999989
 20
899.9999389999914
 30
0.0
 40
141.0
100
AcDbArc
 50
68.92241097921577
 51
88.57761354961929
  0
ARC
  5
1BA
330
1F
100
AcDbEntity
  8
LAY-10
  6
CONTINUOUS
 62
     7
100
AcDbCircle
 10
624.9999999999989
 20
899.9999389999914
 30
0.0
 40
141.0
100
AcDbArc
 50
271.4224261460667
 51
291.0776287164699
  0
ARC
  5
1BB
330
1F
100
AcDbEntity
  8
LAY-10
  6
CONTINUOUS
 62
     7
100
AcDbCircle
 10
624.9999999999989
 20
899.9999389999914
 30
0.0
 40
148.0
100
AcDbArc
 50
271.3551036051388
 51
291.1448939616189
  0
LINE
  5
1BC
330
1F
100
AcDbEntity
  8
LAY-10
  6
CONTINUOUS
 62
     7
100
AcDbLine
 10
628.4999999999987
 20
719.0337529999911
 30
0.0
 11
628.4999999999987
 21
693.0295409999914
 31
0.0
  0
LINE
  5
1BD
330
1F
100
AcDbEntity
  8
LAY-10
  6
CONTINUOUS
 62
     7
100
AcDbLine
 10
628.4999999999987
 20
1113.971313999991
 30
0.0
 11
628.4999999999987
 21
1139.974426999991
 31
0.0
  0
LINE
  5
1BE
330
1F
100
AcDbEntity
  8
LAY-10
  6
CONTINUOUS
 62
     7
100
AcDbLine
 10
628.4999999999987
 20
1106.970336999991
 30
0.0
 11
628.4999999999987
 21
1080.966125999991
 31
0.0
  0
LINE
  5
1BF
330
1F
100
AcDbEntity
  8
LAY-10
  6
CONTINUOUS
 62
     7
100
AcDbLine
 10
628.4999999999987
 20
1073.964721999991
 30
0.0
 11
628.4999999999987
 21
1047.958557999991
 31
0.0
  0
LINE
  5
1C0
330
1F
100
AcDbEntity
  8
LAY-10
  6
CONTINUOUS
 62
     7
100
AcDbLine
 10
628.4999999999987
 20
1040.956481999991
 30
0.0
 11
628.4999999999987
 21
1014.946655999991
 31
0.0
  0
LINE
  5
1C1
330
1F
100
AcDbEntity
  8
LAY-10
  6
CONTINUOUS
 62
     7
100
AcDbLine
 10
628.4999999999987
 20
981.9252319999913
 30
0.0
 11
628.4999999999987
 21
1007.943237999991
 31
0.0
  0
LINE
  5
1C2
330
1F
100
AcDbEntity
  8
LAY-10
  6
CONTINUOUS
 62
     7
100
AcDbLine
 10
628.5000609999988
 20
686.0285649999913
 30
0.0
 11
628.5000609999988
 21
660.0254519999913
 31
0.0
  0
LINE
  5
1C3
330
1F
100
AcDbEntity
  8
LAY-10
  6
CONTINUOUS
 62
     7
100
AcDbLine
 10
628.5000609999988
 20
693.0295409999914
 30
0.0
 11
628.5000609999988
 21
719.0337529999911
 31
0.0
  0
LINE
  5
1C4
330
1F
100
AcDbEntity
  8
LAY-10
  6
CONTINUOUS
 62
     7
100
AcDbLine
 10
628.4999999999987
 20
726.0351569999912
 30
0.0
 11
628.4999999999987
 21
752.0413209999911
 31
0.0
  0
LINE
  5
1C5
330
1F
100
AcDbEntity
  8
LAY-10
  6
CONTINUOUS
 62
     7
100
AcDbLine
 10
628.4999999999987
 20
759.0433959999913
 30
0.0
 11
628.4999999999987
 21
785.0532229999914
 31
0.0
  0
LINE
  5
1C6
330
1F
100
AcDbEntity
  8
LAY-10
  6
CONTINUOUS
 62
     7
100
AcDbLine
 10
628.4999999999987
 20
818.0746459999912
 30
0.0
 11
628.4999999999987
 21
792.0566409999913
 31
0.0
  0
CIRCLE
  5
1C7
330
1F
100
AcDbEntity
  8
LAY-10
  6
CONTINUOUS
 62
     7
100
AcDbCircle
 10
640.4981079999988
 20
706.0315559999913
 30
0.0
 40
10.0
  0
ARC
  5
1C8
330
1F
100
AcDbEntity
  8
LAY-10
  6
CONTINUOUS
 62
     7
100
AcDbCircle
 10
624.9999999999989
 20
899.9999389999914
 30
0.0
 40
82.0
100
AcDbArc
 50
69.94628655911443
 51
87.55373796972096
  0
ARC
  5
1C9
330
1F
100
AcDbEntity
  8
LAY-10
  6
CONTINUOUS
 62
     7
100
AcDbCircle
 10
624.9999999999989
 20
899.9999389999914
 30
0.0
 40
82.0
100
AcDbArc
 50
272.4463017259657
 51
290.0536958407921
  0
LINE
  5
1CA
330
1F
100
AcDbEntity
  8
LAY-10
  6
CONTINUOUS
 62
     7
100
AcDbLine
 10
672.2217409999987
 20
1004.857482999991
 30
0.0
 11
682.1752929999988
 21
1028.887451999991
 31
0.0
  0
LINE
  5
1CB
330
1F
100
AcDbEntity
  8
LAY-10
  6
CONTINUOUS
 62
     7
100
AcDbLine
 10
682.1753539999988
 20
771.1124879999911
 30
0.0
 11
672.2218019999988
 21
795.1424569999912
 31
0.0
  0
LINE
  5
1CC
330
1F
100
AcDbEntity
  8
LAY-10
  6
CONTINUOUS
 62
     7
100
AcDbLine
 10
659.5850219999988
 20
974.3496709999914
 30
0.0
 11
669.5416869999988
 21
998.3871459999912
 31
0.0
  0
LINE
  5
1CD
330
1F
100
AcDbEntity
  8
LAY-10
  6
CONTINUOUS
 62
     7
100
AcDbLine
 10
659.5850829999989
 20
825.6502689999913
 30
0.0
 11
669.5417479999988
 21
801.6127319999913
 31
0.0
  0
LINE
  5
1CE
330
1F
100
AcDbEntity
  8
LAY-10
  6
CONTINUOUS
 62
     7
100
AcDbLine
 10
665.7546389999987
 20
1007.536254999991
 30
0.0
 11
675.7081299999987
 21
1031.566223999991
 31
0.0
  0
ARC
  5
1CF
330
1F
100
AcDbEntity
  8
LAY-10
  6
CONTINUOUS
 62
     7
100
AcDbCircle
 10
624.9999999999989
 20
899.9999389999914
 30
0.0
 40
82.0
100
AcDbArc
 50
47.44629124010571
 51
65.05368535493297
  0
ARC
  5
1D0
330
1F
100
AcDbEntity
  8
LAY-10
  6
CONTINUOUS
 62
     7
100
AcDbCircle
 10
624.9999999999989
 20
899.9999389999914
 30
0.0
 40
82.0
100
AcDbArc
 50
294.9462970449734
 51
312.5536911598007
  0
LINE
  5
1D1
330
1F
100
AcDbEntity
  8
LAY-10
  6
CONTINUOUS
 62
     7
100
AcDbLine
 10
665.7546389999987
 20
792.4636239999912
 30
0.0
 11
675.7081299999987
 21
768.4336549999912
 31
0.0
  0
LINE
  5
1D2
330
1F
100
AcDbEntity
  8
LAY-10
  6
CONTINUOUS
 62
     7
100
AcDbLine
 10
703.6496889999987
 20
1099.023132999991
 30
0.0
 11
713.6006159999988
 21
1123.046874999991
 31
0.0
  0
LINE
  5
1D3
330
1F
100
AcDbEntity
  8
LAY-10
  6
CONTINUOUS
 62
     7
100
AcDbLine
 10
703.6496889999987
 20
700.9767459999912
 30
0.0
 11
713.6006159999988
 21
676.9530029999913
 31
0.0
  0
LINE
  5
1D4
330
1F
100
AcDbEntity
  8
LAY-10
  6
CONTINUOUS
 62
     7
100
AcDbLine
 10
710.1168519999987
 20
1096.344360999991
 30
0.0
 11
720.0677799999988
 21
1120.368102999991
 31
0.0
  0
LINE
  5
1D5
330
1F
100
AcDbEntity
  8
LAY-10
  6
CONTINUOUS
 62
     7
100
AcDbLine
 10
722.1964419999989
 20
1002.146179999991
 30
0.0
 11
703.8047179999987
 21
983.7544559999913
 31
0.0
  0
ARC
  5
1D6
330
1F
100
AcDbEntity
  8
LAY-10
  6
CONTINUOUS
 62
     7
100
AcDbCircle
 10
624.9999999999989
 20
899.9999389999914
 30
0.0
 40
108.0000000000001
100
AcDbArc
 50
24.3571234203662
 51
43.14286253665864
  0
LINE
  5
1D7
330
1F
100
AcDbEntity
  8
LAY-10
  6
CONTINUOUS
 62
     7
100
AcDbLine
 10
708.7544249999987
 20
978.8046879999913
 30
0.0
 11
727.1462709999988
 21
997.1964119999911
 31
0.0
  0
LINE
  5
1D8
330
1F
100
AcDbEntity
  8
LAY-10
  6
CONTINUOUS
 62
     7
100
AcDbLine
 10
702.0284729999988
 20
928.1177979999912
 30
0.0
 11
726.0659479999989
 21
938.0744629999913
 31
0.0
  0
LINE
  5
1D9
330
1F
100
AcDbEntity
  8
LAY-10
  6
CONTINUOUS
 62
     7
100
AcDbLine
 10
702.0284729999988
 20
871.8821419999912
 30
0.0
 11
726.0660709999988
 21
861.9254769999914
 31
0.0
  0
ARC
  5
1DA
330
1F
100
AcDbEntity
  8
LAY-10
  6
CONTINUOUS
 62
     7
100
AcDbCircle
 10
624.9999999999989
 20
899.9999389999914
 30
0.0
 40
108.0000000000001
100
AcDbArc
 50
316.8571771590272
 51
335.6428589795415
  0
LINE
  5
1DB
330
1F
100
AcDbEntity
  8
LAY-10
  6
CONTINUOUS
 62
     7
100
AcDbLine
 10
727.1462709999988
 20
802.8035279999912
 30
0.0
 11
708.7545469999989
 21
821.1952519999912
 31
0.0
  0
LINE
  5
1DC
330
1F
100
AcDbEntity
  8
LAY-10
  6
CONTINUOUS
 62
     7
100
AcDbLine
 10
703.8047179999987
 20
816.2454839999913
 30
0.0
 11
722.1964419999989
 21
797.8536989999914
 31
0.0
  0
LINE
  5
1DD
330
1F
100
AcDbEntity
  8
LAY-10
  6
CONTINUOUS
 62
     7
100
AcDbLine
 10
710.1168519999987
 20
703.6555789999911
 30
0.0
 11
720.0679019999986
 21
679.6318359999913
 31
0.0
  0
ARC
  5
1DE
330
1F
100
AcDbEntity
  8
LAY-10
  6
CONTINUOUS
 62
     7
100
AcDbCircle
 10
624.9999999999989
 20
899.9999389999914
 30
0.0
 40
148.0
100
AcDbArc
 50
46.35509311927911
 51
66.14494077153866
  0
LINE
  5
1DF
330
1F
100
AcDbEntity
  8
LAY-10
  6
CONTINUOUS
 62
     7
100
AcDbLine
 10
699.3496699999988
 20
934.5850219999911
 30
0.0
 11
723.3872379999988
 21
944.5416869999913
 31
0.0
  0
LINE
  5
1E0
330
1F
100
AcDbEntity
  8
LAY-10
  6
CONTINUOUS
 62
     7
100
AcDbLine
 10
699.3497309999989
 20
865.4149169999912
 30
0.0
 11
723.3872379999988
 21
855.4582519999913
 31
0.0
  0
ARC
  5
1E1
330
1F
100
AcDbEntity
  8
LAY-10
  6
CONTINUOUS
 62
     7
100
AcDbCircle
 10
624.9999999999989
 20
899.9999389999914
 30
0.0
 40
148.0
100
AcDbArc
 50
293.8550989241468
 51
313.644889280627
  0
ARC
  5
1E2
330
1F
100
AcDbEntity
  8
LAY-10
  6
CONTINUOUS
 62
     7
100
AcDbCircle
 10
624.9999999999989
 20
899.9999389999914
 30
0.0
 40
115.0000000000001
100
AcDbArc
 50
24.24407884738552
 51
43.25596440541775
  0
LINE
  5
1E3
330
1F
100
AcDbEntity
  8
LAY-10
  6
CONTINUOUS
 62
     7
100
AcDbLine
 10
706.9253229999989
 20
903.4999999999912
 30
0.0
 11
732.9432679999987
 21
903.4999999999912
 31
0.0
  0
LINE
  5
1E4
330
1F
100
AcDbEntity
  8
LAY-10
  6
CONTINUOUS
 62
     7
100
AcDbLine
 10
706.9253229999989
 20
896.4999389999913
 30
0.0
 11
732.9432679999987
 21
896.4999389999913
 31
0.0
  0
ARC
  5
1E5
330
1F
100
AcDbEntity
  8
LAY-10
  6
CONTINUOUS
 62
     7
100
AcDbCircle
 10
624.9999999999989
 20
899.9999389999914
 30
0.0
 40
115.0000000000001
100
AcDbArc
 50
316.7440752902686
 51
335.7559608483002
  0
ARC
  5
1E6
330
1F
100
AcDbEntity
  8
LAY-10
  6
CONTINUOUS
 62
     7
100
AcDbCircle
 10
624.9999999999989
 20
899.9999389999914
 30
0.0
 40
82.0
100
AcDbArc
 50
2.446300602090334
 51
20.05369471691684
  0
ARC
  5
1E7
330
1F
100
AcDbEntity
  8
LAY-10
  6
CONTINUOUS
 62
     7
100
AcDbCircle
 10
624.9999999999989
 20
899.9999389999914
 30
0.0
 40
82.0
100
AcDbArc
 50
339.9463449787684
 51
357.5536817978163
  0
LINE
  5
1E8
330
1F
100
AcDbEntity
  8
LAY-10
  6
CONTINUOUS
 62
     7
100
AcDbLine
 10
684.8548579999988
 20
1035.356506999991
 30
0.0
 11
694.8069459999988
 21
1059.383056999991
 31
0.0
  0
LINE
  5
1E9
330
1F
100
AcDbEntity
  8
LAY-10
  6
CONTINUOUS
 62
     7
100
AcDbLine
 10
694.8070679999987
 20
740.6168219999912
 30
0.0
 11
684.8549189999989
 21
764.6434329999911
 31
0.0
  0
LINE
  5
1EA
330
1F
100
AcDbEntity
  8
LAY-10
  6
CONTINUOUS
 62
     7
100
AcDbLine
 10
691.0191649999988
 20
1068.530273999991
 30
0.0
 11
700.9706119999987
 21
1092.555053999991
 31
0.0
  0
LINE
  5
1EB
330
1F
100
AcDbEntity
  8
LAY-10
  6
CONTINUOUS
 62
     7
100
AcDbLine
 10
697.4862669999987
 20
1065.851501999991
 30
0.0
 11
707.4376529999989
 21
1089.876281999991
 31
0.0
  0
ARC
  5
1EC
330
1F
100
AcDbEntity
  8
LAY-10
  6
CONTINUOUS
 62
     7
100
AcDbCircle
 10
624.9999999999989
 20
899.9999389999914
 30
0.0
 40
82.0
100
AcDbArc
 50
24.94629592109779
 51
42.55369003592499
  0
LINE
  5
1ED
330
1F
100
AcDbEntity
  8
LAY-10
  6
CONTINUOUS
 62
     7
100
AcDbLine
 10
685.4047849999989
 20
955.4550179999912
 30
0.0
 11
703.8022769999986
 21
973.8524779999912
 31
0.0
  0
ARC
  5
1EE
330
1F
100
AcDbEntity
  8
LAY-10
  6
CONTINUOUS
 62
     7
100
AcDbCircle
 10
624.9999999999989
 20
899.9999389999914
 30
0.0
 40
82.0
100
AcDbArc
 50
317.4462923639808
 51
335.0536864788087
  0
LINE
  5
1EF
330
1F
100
AcDbEntity
  8
LAY-10
  6
CONTINUOUS
 62
     7
100
AcDbLine
 10
685.4048459999988
 20
844.5449219999912
 30
0.0
 11
703.8023989999988
 21
826.1473999999913
 31
0.0
  0
LINE
  5
1F0
330
1F
100
AcDbEntity
  8
LAY-10
  6
CONTINUOUS
 62
     7
100
AcDbLine
 10
707.4377749999987
 20
710.1235969999912
 30
0.0
 11
697.4863889999989
 21
734.1483769999912
 31
0.0
  0
LINE
  5
1F1
330
1F
100
AcDbEntity
  8
LAY-10
  6
CONTINUOUS
 62
     7
100
AcDbLine
 10
691.0191649999988
 20
731.4696049999912
 30
0.0
 11
700.9706119999987
 21
707.4448249999912
 31
0.0
  0
ARC
  5
1F2
330
1F
100
AcDbEntity
  8
LAY-10
  6
CONTINUOUS
 62
     7
100
AcDbCircle
 10
624.9999999999989
 20
899.9999389999914
 30
0.0
 40
108.0000000000001
100
AcDbArc
 50
1.857128101357136
 51
20.64280992187035
  0
ARC
  5
1F3
330
1F
100
AcDbEntity
  8
LAY-10
  6
CONTINUOUS
 62
     7
100
AcDbCircle
 10
624.9999999999989
 20
899.9999389999914
 30
0.0
 40
108.0000000000001
100
AcDbArc
 50
339.3571724780357
 51
358.1428542985486
  0
ARC
  5
1F4
330
1F
100
AcDbEntity
  8
LAY-10
  6
CONTINUOUS
 62
     7
100
AcDbCircle
 10
624.9999999999989
 20
899.9999389999914
 30
0.0
 40
240.0000000000001
100
AcDbArc
 50
0.8356016484189073
 51
21.66439367058884
  0
ARC
  5
1F5
330
1F
100
AcDbEntity
  8
LAY-10
  6
CONTINUOUS
 62
     7
100
AcDbCircle
 10
624.9999999999989
 20
899.9999389999914
 30
0.0
 40
240.0000000000001
100
AcDbArc
 50
338.3355887293174
 51
359.1643807514883
  0
LINE
  5
1F6
330
1F
100
AcDbEntity
  8
LAY-10
  6
CONTINUOUS
 62
     7
100
AcDbLine
 10
838.9714049999989
 20
903.4999999999912
 30
0.0
 11
864.9745179999987
 21
903.4999999999912
 31
0.0
  0
LINE
  5
1F7
330
1F
100
AcDbEntity
  8
LAY-10
  6
CONTINUOUS
 62
     7
100
AcDbLine
 10
838.9714049999989
 20
896.4999999999914
 30
0.0
 11
864.9745179999987
 21
896.4999999999914
 31
0.0
  0
ARC
  5
1F8
330
1F
100
AcDbEntity
  8
LAY-10
  6
CONTINUOUS
 62
     7
100
AcDbCircle
 10
624.9999999999989
 20
899.9999389999914
 30
0.0
 40
181.0
100
AcDbArc
 50
1.107985784223356
 51
21.39200953478341
  0
ARC
  5
1F9
330
1F
100
AcDbEntity
  8
LAY-10
  6
CONTINUOUS
 62
     7
100
AcDbCircle
 10
624.9999999999989
 20
899.9999389999914
 30
0.0
 40
181.0
100
AcDbArc
 50
338.6080301609023
 51
358.891996615683
  0
LINE
  5
1FA
330
1F
100
AcDbEntity
  8
LAY-10
  6
CONTINUOUS
 62
     7
100
AcDbLine
 10
814.8763119999987
 20
982.4377449999913
 30
0.0
 11
790.8515929999988
 21
972.4863289999913
 31
0.0
  0
LINE
  5
1FB
330
1F
100
AcDbEntity
  8
LAY-10
  6
CONTINUOUS
 62
     7
100
AcDbLine
 10
793.5303649999988
 20
966.0191039999912
 30
0.0
 11
817.5551449999989
 21
975.9705199999912
 31
0.0
  0
LINE
  5
1FC
330
1F
100
AcDbEntity
  8
LAY-10
  6
CONTINUOUS
 62
     7
100
AcDbLine
 10
817.5552059999987
 20
824.029479999991
 30
0.0
 11
793.5304259999989
 21
833.9808349999913
 31
0.0
  0
LINE
  5
1FD
330
1F
100
AcDbEntity
  8
LAY-10
  6
CONTINUOUS
 62
     7
100
AcDbLine
 10
790.8515929999988
 20
827.5136109999912
 30
0.0
 11
814.8763729999987
 21
817.5622559999911
 31
0.0
  0
ARC
  5
1FE
330
1F
100
AcDbEntity
  8
LAY-10
  6
CONTINUOUS
 62
     7
100
AcDbCircle
 10
624.9999999999989
 20
899.9999389999914
 30
0.0
 40
240.0000000000001
100
AcDbArc
 50
23.33559696742746
 51
44.16438898959699
  0
ARC
  5
1FF
330
1F
100
AcDbEntity
  8
LAY-10
  6
CONTINUOUS
 62
     7
100
AcDbCircle
 10
624.9999999999989
 20
899.9999389999914
 30
0.0
 40
240.0000000000001
100
AcDbArc
 50
315.8355934103093
 51
336.6643854324797
  0
ARC
  5
200
330
1F
100
AcDbEntity
  8
LAY-10
  6
CONTINUOUS
 62
     7
100
AcDbCircle
 10
624.9999999999989
 20
899.9999389999914
 30
0.0
 40
207.0000000000002
100
AcDbArc
 50
23.46880965479422
 51
44.03220762625961
  0
ARC
  5
201
330
1F
100
AcDbEntity
  8
LAY-10
  6
CONTINUOUS
 62
     7
100
AcDbCircle
 10
624.9999999999989
 20
899.9999389999914
 30
0.0
 40
214.0000000000001
100
AcDbArc
 50
23.44669348390286
 51
44.06286086829981
  0
ARC
  5
202
330
1F
100
AcDbEntity
  8
LAY-10
  6
CONTINUOUS
 62
     7
100
AcDbCircle
 10
624.9999999999989
 20
899.9999389999914
 30
0.0
 40
207.0000000000002
100
AcDbArc
 50
315.9688633934563
 51
336.5322613649221
  0
ARC
  5
203
330
1F
100
AcDbEntity
  8
LAY-10
  6
CONTINUOUS
 62
     7
100
AcDbCircle
 10
624.9999999999989
 20
899.9999389999914
 30
0.0
 40
214.0000000000001
100
AcDbArc
 50
315.946689926784
 51
336.5628573111817
  0
LINE
  5
204
330
1F
100
AcDbEntity
  8
LAY-10
  6
CONTINUOUS
 62
     7
100
AcDbLine
 10
784.3830869999989
 20
969.8070069999911
 30
0.0
 11
760.3565369999986
 21
959.8548589999912
 31
0.0
  0
LINE
  5
205
330
1F
100
AcDbEntity
  8
LAY-10
  6
CONTINUOUS
 62
     7
100
AcDbLine
 10
760.3565979999987
 20
840.1450809999911
 30
0.0
 11
784.3831479999986
 21
830.1929329999912
 31
0.0
  0
LINE
  5
206
330
1F
100
AcDbEntity
  8
LAY-10
  6
CONTINUOUS
 62
     7
100
AcDbLine
 10
768.8752749999989
 20
1048.825073999991
 30
0.0
 11
750.4875179999988
 21
1030.437316999991
 31
0.0
  0
LINE
  5
207
330
1F
100
AcDbEntity
  8
LAY-10
  6
CONTINUOUS
 62
     7
100
AcDbLine
 10
755.4372859999987
 20
1025.487487999991
 30
0.0
 11
773.8250429999988
 21
1043.875244999991
 31
0.0
  0
LINE
  5
208
330
1F
100
AcDbEntity
  8
LAY-10
  6
CONTINUOUS
 62
     7
100
AcDbLine
 10
773.8251039999989
 20
756.1246949999912
 30
0.0
 11
755.4373469999987
 21
774.5124519999912
 31
0.0
  0
LINE
  5
209
330
1F
100
AcDbEntity
  8
LAY-10
  6
CONTINUOUS
 62
     7
100
AcDbLine
 10
750.4875789999988
 20
769.5626839999911
 30
0.0
 11
768.8753359999987
 21
751.1748659999912
 31
0.0
  0
ARC
  5
20A
330
1F
100
AcDbEntity
  8
LAY-10
  6
CONTINUOUS
 62
     7
100
AcDbCircle
 10
624.9999999999989
 20
899.9999389999914
 30
0.0
 40
174.0
100
AcDbArc
 50
23.65261451547316
 51
43.84742873733033
  0
ARC
  5
20B
330
1F
100
AcDbEntity
  8
LAY-10
  6
CONTINUOUS
 62
     7
100
AcDbCircle
 10
624.9999999999989
 20
899.9999389999914
 30
0.0
 40
181.0
100
AcDbArc
 50
23.60798110323127
 51
43.8920048537919
  0
ARC
  5
20C
330
1F
100
AcDbEntity
  8
LAY-10
  6
CONTINUOUS
 62
     7
100
AcDbCircle
 10
624.9999999999989
 20
899.9999389999914
 30
0.0
 40
174.0
100
AcDbArc
 50
316.1526109583542
 51
336.3474251802136
  0
ARC
  5
20D
330
1F
100
AcDbEntity
  8
LAY-10
  6
CONTINUOUS
 62
     7
100
AcDbCircle
 10
624.9999999999989
 20
899.9999389999914
 30
0.0
 40
181.0
100
AcDbArc
 50
316.1080348418951
 51
336.3920012966738
  0
ARC
  5
20E
330
1F
100
AcDbEntity
  8
LAY-10
  6
CONTINUOUS
 62
     7
100
AcDbCircle
 10
624.9999999999989
 20
899.9999389999914
 30
0.0
 40
141.0
100
AcDbArc
 50
1.422425022191839
 51
21.07762759259582
  0
LINE
  5
20F
330
1F
100
AcDbEntity
  8
LAY-10
  6
CONTINUOUS
 62
     7
100
AcDbLine
 10
765.9565729999988
 20
903.4999999999912
 30
0.0
 11
739.9467469999988
 21
903.4999999999912
 31
0.0
  0
LINE
  5
210
330
1F
100
AcDbEntity
  8
LAY-10
  6
CONTINUOUS
 62
     7
100
AcDbLine
 10
739.9467469999988
 20
896.4999389999913
 30
0.0
 11
765.9565729999988
 21
896.4999389999913
 31
0.0
  0
ARC
  5
211
330
1F
100
AcDbEntity
  8
LAY-10
  6
CONTINUOUS
 62
     7
100
AcDbCircle
 10
624.9999999999989
 20
899.9999389999914
 30
0.0
 40
141.0
100
AcDbArc
 50
338.9224121030895
 51
358.5776146734941
  0
LINE
  5
212
330
1F
100
AcDbEntity
  8
LAY-10
  6
CONTINUOUS
 62
     7
100
AcDbLine
 10
795.0000309999988
 20
865.9998779999912
 30
0.0
 11
795.0000309999988
 21
883.9998779999912
 31
0.0
  0
LINE
  5
213
330
1F
100
AcDbEntity
  8
LAY-10
  6
CONTINUOUS
 62
     7
100
AcDbLine
 10
795.0000309999988
 20
934.0001229999913
 30
0.0
 11
795.0000309999988
 21
916.0001229999912
 31
0.0
  0
ARC
  5
214
330
1F
100
AcDbEntity
  8
LAY-10
  6
CONTINUOUS
 62
     7
100
AcDbCircle
 10
789.0000309999989
 20
883.9998779999912
 30
0.0
 40
6.000000000000006
100
AcDbArc
 50
359.9999823999065
 51
90.00002097171844
  0
ARC
  5
215
330
1F
100
AcDbEntity
  8
LAY-10
  6
CONTINUOUS
 62
     7
100
AcDbCircle
 10
789.0000309999989
 20
865.9998779999912
 30
0.0
 40
6.000000000000006
100
AcDbArc
 50
270.0000011238729
 51
359.9999823999065
  0
ARC
  5
216
330
1F
100
AcDbEntity
  8
LAY-10
  6
CONTINUOUS
 62
     7
100
AcDbCircle
 10
789.0000309999989
 20
916.0001229999912
 30
0.0
 40
6.000000000000006
100
AcDbArc
 50
270.0000011238729
 51
359.9999823999076
  0
ARC
  5
217
330
1F
100
AcDbEntity
  8
LAY-10
  6
CONTINUOUS
 62
     7
100
AcDbCircle
 10
789.0000309999989
 20
934.0001229999913
 30
0.0
 40
6.000000000000006
100
AcDbArc
 50
359.9999823999065
 51
90.00002097171844
  0
LINE
  5
218
330
1F
100
AcDbEntity
  8
LAY-10
  6
CONTINUOUS
 62
     7
100
AcDbLine
 10
771.0000309999989
 20
883.9998779999912
 30
0.0
 11
771.0000309999989
 21
865.9998779999912
 31
0.0
  0
LINE
  5
219
330
1F
100
AcDbEntity
  8
LAY-10
  6
CONTINUOUS
 62
     7
100
AcDbLine
 10
771.0000309999989
 20
916.0001229999912
 30
0.0
 11
771.0000309999989
 21
934.0001229999913
 31
0.0
  0
ARC
  5
21A
330
1F
100
AcDbEntity
  8
LAY-10
  6
CONTINUOUS
 62
     7
100
AcDbCircle
 10
777.0000309999989
 20
883.9998779999912
 30
0.0
 40
6.000000000000006
100
AcDbArc
 50
102.0893907532933
 51
179.9426667725498
  0
ARC
  5
21B
330
1F
100
AcDbEntity
  8
LAY-10
  6
CONTINUOUS
 62
     7
100
AcDbCircle
 10
777.0000309999989
 20
865.9998779999912
 30
0.0
 40
6.000000000000006
100
AcDbArc
 50
180.0573156273555
 51
270.0000011238729
  0
ARC
  5
21C
330
1F
100
AcDbEntity
  8
LAY-10
  6
CONTINUOUS
 62
     7
100
AcDbCircle
 10
777.0000309999989
 20
916.0001229999912
 30
0.0
 40
6.000000000000006
100
AcDbArc
 50
180.0573156273544
 51
257.9106489423933
  0
ARC
  5
21D
330
1F
100
AcDbEntity
  8
LAY-10
  6
CONTINUOUS
 62
     7
100
AcDbCircle
 10
777.0000309999989
 20
934.0001229999913
 30
0.0
 40
6.000000000000006
100
AcDbArc
 50
89.99998127603368
 51
179.9426667725498
  0
LINE
  5
21E
330
1F
100
AcDbEntity
  8
LAY-10
  6
CONTINUOUS
 62
     7
100
AcDbLine
 10
789.0000309999989
 20
859.9998779999911
 30
0.0
 11
777.0000309999989
 21
859.9998779999911
 31
0.0
  0
LINE
  5
21F
330
1F
100
AcDbEntity
  8
LAY-10
  6
CONTINUOUS
 62
     7
100
AcDbLine
 10
775.5000919999987
 20
889.9998779999911
 30
0.0
 11
789.0000309999989
 21
889.9998779999911
 31
0.0
  0
LINE
  5
220
330
1F
100
AcDbEntity
  8
LAY-10
  6
CONTINUOUS
 62
     7
100
AcDbLine
 10
789.0000309999989
 20
940.0001229999913
 30
0.0
 11
777.0000309999989
 21
940.0001229999913
 31
0.0
  0
LINE
  5
221
330
1F
100
AcDbEntity
  8
LAY-10
  6
CONTINUOUS
 62
     7
100
AcDbLine
 10
775.5000919999987
 20
910.0001229999913
 30
0.0
 11
789.0000309999989
 21
910.0001229999913
 31
0.0
  0
LINE
  5
222
330
1F
100
AcDbEntity
  8
LAY-10
  6
CONTINUOUS
 62
     7
100
AcDbLine
 10
773.8257139999987
 20
1053.775512999991
 30
0.0
 11
792.2126769999986
 21
1072.162475999991
 31
0.0
  0
LINE
  5
223
330
1F
100
AcDbEntity
  8
LAY-10
  6
CONTINUOUS
 62
     7
100
AcDbLine
 10
778.775542999999
 20
1048.825683999991
 30
0.0
 11
797.1625059999988
 21
1067.212646999991
 31
0.0
  0
LINE
  5
224
330
1F
100
AcDbEntity
  8
LAY-10
  6
CONTINUOUS
 62
     7
100
AcDbLine
 10
778.775542999999
 20
751.174255999991
 30
0.0
 11
797.1625669999988
 21
732.7872929999912
 31
0.0
  0
LINE
  5
225
330
1F
100
AcDbEntity
  8
LAY-10
  6
CONTINUOUS
 62
     7
100
AcDbLine
 10
773.8257139999987
 20
746.2244269999912
 30
0.0
 11
792.2127379999989
 21
727.8374639999911
 31
0.0
  0
ARC
  5
226
330
1F
100
AcDbEntity
  8
LAY-10
  6
CONTINUOUS
 62
     7
100
AcDbCircle
 10
624.9999999999989
 20
899.9999389999914
 30
0.0
 40
207.0000000000002
100
AcDbArc
 50
0.9688143357859641
 51
21.53221230725227
  0
ARC
  5
227
330
1F
100
AcDbEntity
  8
LAY-10
  6
CONTINUOUS
 62
     7
100
AcDbCircle
 10
624.9999999999989
 20
899.9999389999914
 30
0.0
 40
214.0000000000001
100
AcDbArc
 50
0.9466408691148598
 51
21.56286554929126
  0
ARC
  5
228
330
1F
100
AcDbEntity
  8
LAY-10
  6
CONTINUOUS
 62
     7
100
AcDbCircle
 10
624.9999999999989
 20
899.9999389999914
 30
0.0
 40
207.0000000000002
100
AcDbArc
 50
338.4688587124641
 51
359.0322566839297
  0
ARC
  5
229
330
1F
100
AcDbEntity
  8
LAY-10
  6
CONTINUOUS
 62
     7
100
AcDbCircle
 10
624.9999999999989
 20
899.9999389999914
 30
0.0
 40
214.0000000000001
100
AcDbArc
 50
338.4466852457934
 51
359.0629099259703
  0
LINE
  5
22A
330
1F
100
AcDbEntity
  8
LAY-10
  6
CONTINUOUS
 62
     7
100
AcDbLine
 10
831.9704279999987
 20
903.4999999999912
 30
0.0
 11
805.9662169999988
 21
903.4999999999912
 31
0.0
  0
LINE
  5
22B
330
1F
100
AcDbEntity
  8
LAY-10
  6
CONTINUOUS
 62
     7
100
AcDbLine
 10
805.9662169999988
 20
896.4999999999914
 30
0.0
 11
831.9704279999987
 21
896.4999999999914
 31
0.0
  0
LINE
  5
22C
330
1F
100
AcDbEntity
  8
LAY-10
  6
CONTINUOUS
 62
     7
100
AcDbLine
 10
821.3443909999987
 20
985.116882999991
 30
0.0
 11
845.3681339999988
 21
995.0678719999912
 31
0.0
  0
LINE
  5
22D
330
1F
100
AcDbEntity
  8
LAY-10
  6
CONTINUOUS
 62
     7
100
AcDbLine
 10
824.0232239999989
 20
978.6496589999913
 30
0.0
 11
848.0469669999987
 21
988.6005859999912
 31
0.0
  0
LINE
  5
22E
330
1F
100
AcDbEntity
  8
LAY-10
  6
CONTINUOUS
 62
     7
100
AcDbLine
 10
824.0232239999989
 20
821.3502809999912
 30
0.0
 11
848.0469669999987
 21
811.399352999991
 31
0.0
  0
LINE
  5
22F
330
1F
100
AcDbEntity
  8
LAY-10
  6
CONTINUOUS
 62
     7
100
AcDbLine
 10
821.3443909999987
 20
814.8830569999913
 30
0.0
 11
845.3681339999988
 21
804.9320679999912
 31
0.0
  0
CIRCLE
  5
230
330
1F
100
AcDbEntity
  8
LAY-10
  6
CONTINUOUS
 62
     7
100
AcDbCircle
 10
379.999954999999
 20
1145.000000999991
 30
0.0
 40
5.0
  0
CIRCLE
  5
231
330
1F
100
AcDbEntity
  8
LAY-10
  6
CONTINUOUS
 62
     7
100
AcDbCircle
 10
870.0000309999987
 20
1145.000122999991
 30
0.0
 40
5.0
  0
LINE
  5
232
330
1F
100
AcDbEntity
  8
LAY-10
  6
CONTINUOUS
 62
     7
100
AcDbLine
 10
423.1915899999988
 20
1070.978454999991
 30
0.0
 11
419.0797729999989
 21
1085.385925999991
 31
0.0
  0
LINE
  5
233
330
1F
100
AcDbEntity
  8
LAY-10
  6
CONTINUOUS
 62
     7
100
AcDbLine
 10
406.9913329999989
 20
1134.978942999991
 30
0.0
 11
430.9603879999989
 21
1111.010192999991
 31
0.0
  0
LINE
  5
234
330
1F
100
AcDbEntity
  8
LAY-10
  6
CONTINUOUS
 62
     7
100
AcDbLine
 10
404.8699949999989
 20
1132.857849999991
 30
0.0
 11
444.442443999999
 21
1093.285095999991
 31
0.0
  0
ARC
  5
235
330
1F
100
AcDbEntity
  8
LAY-10
  6
CONTINUOUS
 62
     7
100
AcDbCircle
 10
445.102538999999
 20
1125.152282999991
 30
0.0
 40
20.0
100
AcDbArc
 50
225.0000104858606
 51
254.0717744192379
  0
ARC
  5
236
330
1F
100
AcDbEntity
  8
LAY-10
  6
CONTINUOUS
 62
     7
100
AcDbCircle
 10
399.8476569999989
 20
1079.897399999991
 30
0.0
 40
20.0
100
AcDbArc
 50
15.9282267046374
 51
44.99999063801893
  0
LINE
  5
237
330
1F
100
AcDbEntity
  8
LAY-10
  6
CONTINUOUS
 62
     7
100
AcDbLine
 10
439.6138919999988
 20
1105.919860999991
 30
0.0
 11
454.021423999999
 21
1101.808044999991
 31
0.0
  0
LINE
  5
238
330
1F
100
AcDbEntity
  8
LAY-10
  6
CONTINUOUS
 62
     7
100
AcDbLine
 10
390.0207519999988
 20
1118.008483999991
 30
0.0
 11
413.9898069999988
 21
1094.039489999991
 31
0.0
  0
LINE
  5
239
330
1F
100
AcDbEntity
  8
LAY-10
  6
CONTINUOUS
 62
     7
100
AcDbLine
 10
392.142089999999
 20
1120.129821999991
 30
0.0
 11
431.714538999999
 21
1080.557556999991
 31
0.0
  0
ARC
  5
23A
330
1F
100
AcDbEntity
  8
LAY-10
  6
CONTINUOUS
 62
     7
100
AcDbCircle
 10
377.999999999999
 20
1105.987731999991
 30
0.0
 40
20.0
100
AcDbArc
 50
44.99999063801882
 51
180.0000198478435
  0
ARC
  5
23B
330
1F
100
AcDbEntity
  8
LAY-10
  6
CONTINUOUS
 62
     7
100
AcDbCircle
 10
377.999999999999
 20
1105.987731999991
 30
0.0
 40
17.0
100
AcDbArc
 50
44.99999063801806
 51
180.0000198478433
  0
ARC
  5
23C
330
1F
100
AcDbEntity
  8
LAY-10
  6
CONTINUOUS
 62
     7
100
AcDbCircle
 10
419.012206999999
 20
1146.999877999991
 30
0.0
 40
20.0
100
AcDbArc
 50
89.99998127603368
 51
225.0000104858606
  0
ARC
  5
23D
330
1F
100
AcDbEntity
  8
LAY-10
  6
CONTINUOUS
 62
     7
100
AcDbCircle
 10
419.012206999999
 20
1146.999877999991
 30
0.0
 40
17.0
100
AcDbArc
 50
89.99998127603368
 51
225.00001048586
  0
LINE
  5
23E
330
1F
100
AcDbEntity
  8
LAY-10
  6
CONTINUOUS
 62
     7
100
AcDbLine
 10
569.0000609999988
 20
1163.999877999991
 30
0.0
 11
569.0000609999988
 21
1158.132690999991
 31
0.0
  0
LINE
  5
23F
330
1F
100
AcDbEntity
  8
LAY-10
  6
CONTINUOUS
 62
     7
100
AcDbLine
 10
572.0000609999988
 20
1166.999877999991
 30
0.0
 11
572.0000609999988
 21
1159.145874999991
 31
0.0
  0
LINE
  5
240
330
1F
100
AcDbEntity
  8
LAY-10
  6
CONTINUOUS
 62
     7
100
AcDbLine
 10
419.012206999999
 20
1163.999877999991
 30
0.0
 11
568.9999999999989
 21
1163.999877999991
 31
0.0
  0
LINE
  5
241
330
1F
100
AcDbEntity
  8
LAY-10
  6
CONTINUOUS
 62
     7
100
AcDbLine
 10
419.012206999999
 20
1166.999877999991
 30
0.0
 11
571.9999999999989
 21
1166.999877999991
 31
0.0
  0
LINE
  5
242
330
1F
100
AcDbEntity
  8
LAY-10
  6
CONTINUOUS
 62
     7
100
AcDbLine
 10
888.9999089999989
 20
1105.987731999991
 30
0.0
 11
888.9999089999989
 21
955.9999389999913
 31
0.0
  0
LINE
  5
243
330
1F
100
AcDbEntity
  8
LAY-10
  6
CONTINUOUS
 62
     7
100
AcDbLine
 10
891.9999089999989
 20
1105.987731999991
 30
0.0
 11
891.9999089999989
 21
952.9999389999912
 31
0.0
  0
LINE
  5
244
330
1F
100
AcDbEntity
  8
LAY-10
  6
CONTINUOUS
 62
     7
100
AcDbLine
 10
680.9999999999989
 20
1163.999877999991
 30
0.0
 11
680.9999999999989
 21
1158.132690999991
 31
0.0
  0
LINE
  5
245
330
1F
100
AcDbEntity
  8
LAY-10
  6
CONTINUOUS
 62
     7
100
AcDbLine
 10
677.999999999999
 20
1166.999877999991
 30
0.0
 11
677.999999999999
 21
1159.145874999991
 31
0.0
  0
ARC
  5
246
330
1F
100
AcDbEntity
  8
LAY-10
  6
CONTINUOUS
 62
     7
100
AcDbCircle
 10
830.9878239999987
 20
1146.999877999991
 30
0.0
 40
20.0
100
AcDbArc
 50
314.9999917618907
 51
90.00002097171408
  0
ARC
  5
247
330
1F
100
AcDbEntity
  8
LAY-10
  6
CONTINUOUS
 62
     7
100
AcDbCircle
 10
830.9878239999987
 20
1146.999877999991
 30
0.0
 40
17.0
100
AcDbArc
 50
314.9999917618903
 51
90.00002097171375
  0
LINE
  5
248
330
1F
100
AcDbEntity
  8
LAY-10
  6
CONTINUOUS
 62
     7
100
AcDbLine
 10
830.9878239999987
 20
1163.999877999991
 30
0.0
 11
681.0000609999988
 21
1163.999877999991
 31
0.0
  0
LINE
  5
249
330
1F
100
AcDbEntity
  8
LAY-10
  6
CONTINUOUS
 62
     7
100
AcDbLine
 10
830.9878239999987
 20
1166.999877999991
 30
0.0
 11
678.0000609999988
 21
1166.999877999991
 31
0.0
  0
LINE
  5
24A
330
1F
100
AcDbEntity
  8
LAY-10
  6
CONTINUOUS
 62
     7
100
AcDbLine
 10
843.0086979999988
 20
1134.978942999991
 30
0.0
 11
819.0395819999989
 21
1111.010192999991
 31
0.0
  0
LINE
  5
24B
330
1F
100
AcDbEntity
  8
LAY-10
  6
CONTINUOUS
 62
     7
100
AcDbLine
 10
845.130035999999
 20
1132.857849999991
 30
0.0
 11
805.5575259999987
 21
1093.285095999991
 31
0.0
  0
ARC
  5
24C
330
1F
100
AcDbEntity
  8
LAY-10
  6
CONTINUOUS
 62
     7
100
AcDbCircle
 10
872.0000309999989
 20
1105.987731999991
 30
0.0
 40
20.0
100
AcDbArc
 50
0.0
 51
134.9999719140511
  0
ARC
  5
24D
330
1F
100
AcDbEntity
  8
LAY-10
  6
CONTINUOUS
 62
     7
100
AcDbCircle
 10
872.0000309999989
 20
1105.987731999991
 30
0.0
 40
17.0
100
AcDbArc
 50
0.0
 51
134.9999719140521
  0
ARC
  5
24E
330
1F
100
AcDbEntity
  8
LAY-10
  6
CONTINUOUS
 62
     7
100
AcDbCircle
 10
804.8974919999987
 20
1125.152282999991
 30
0.0
 40
20.0
100
AcDbArc
 50
285.9282278285147
 51
314.9999917618896
  0
ARC
  5
24F
330
1F
100
AcDbEntity
  8
LAY-10
  6
CONTINUOUS
 62
     7
100
AcDbCircle
 10
850.152374999999
 20
1079.897399999991
 30
0.0
 40
20.0
100
AcDbArc
 50
134.9999719140522
 51
164.0717358474272
  0
LINE
  5
250
330
1F
100
AcDbEntity
  8
LAY-10
  6
CONTINUOUS
 62
     7
100
AcDbLine
 10
810.3861389999988
 20
1105.919860999991
 30
0.0
 11
795.9785459999987
 21
1101.808044999991
 31
0.0
  0
LINE
  5
251
330
1F
100
AcDbEntity
  8
LAY-10
  6
CONTINUOUS
 62
     7
100
AcDbLine
 10
826.8083799999989
 20
1070.978454999991
 30
0.0
 11
830.9201969999989
 21
1085.385925999991
 31
0.0
  0
LINE
  5
252
330
1F
100
AcDbEntity
  8
LAY-10
  6
CONTINUOUS
 62
     7
100
AcDbLine
 10
859.9792789999989
 20
1118.008483999991
 30
0.0
 11
836.0101629999988
 21
1094.039489999991
 31
0.0
  0
LINE
  5
253
330
1F
100
AcDbEntity
  8
LAY-10
  6
CONTINUOUS
 62
     7
100
AcDbLine
 10
857.8579409999988
 20
1120.129821999991
 30
0.0
 11
818.285430999999
 21
1080.557556999991
 31
0.0
  0
LINE
  5
254
330
1F
100
AcDbEntity
  8
LAY-10
  6
CONTINUOUS
 62
     7
100
AcDbLine
 10
360.9999999999991
 20
1105.987731999991
 30
0.0
 11
360.9999999999991
 21
955.9999389999913
 31
0.0
  0
LINE
  5
255
330
1F
100
AcDbEntity
  8
LAY-10
  6
CONTINUOUS
 62
     7
100
AcDbLine
 10
357.9999999999991
 20
1105.987731999991
 30
0.0
 11
357.9999999999991
 21
952.9999389999912
 31
0.0
  0
ARC
  5
256
330
1F
100
AcDbEntity
  8
LAY-10
  6
CONTINUOUS
 62
     7
100
AcDbCircle
 10
869.0000309999989
 20
1143.999877999991
 30
0.0
 40
31.00000000000002
100
AcDbArc
 50
0.0
 51
89.9999812760339
  0
ARC
  5
257
330
1F
100
AcDbEntity
  8
LAY-10
  6
CONTINUOUS
 62
     7
100
AcDbCircle
 10
869.0000309999989
 20
1143.999877999991
 30
0.0
 40
30.00000000000002
100
AcDbArc
 50
0.0
 51
89.99998127603368
  0
ARC
  5
258
330
1F
100
AcDbEntity
  8
LAY-10
  6
CONTINUOUS
 62
     7
100
AcDbCircle
 10
380.9999999999989
 20
1143.999877999991
 30
0.0
 40
31.00000000000002
100
AcDbArc
 50
89.9999812760338
 51
180.0000198478436
  0
ARC
  5
259
330
1F
100
AcDbEntity
  8
LAY-10
  6
CONTINUOUS
 62
     7
100
AcDbCircle
 10
380.9999999999989
 20
1143.999877999991
 30
0.0
 40
30.00000000000002
100
AcDbArc
 50
89.99998127603368
 51
180.0000198478437
  0
LINE
  5
25A
330
1F
100
AcDbEntity
  8
LAY-10
  6
CONTINUOUS
 62
     7
100
AcDbLine
 10
899.0000309999988
 20
655.9998169999911
 30
0.0
 11
899.0000309999988
 21
1143.999877999991
 31
0.0
  0
LINE
  5
25B
330
1F
100
AcDbEntity
  8
LAY-10
  6
CONTINUOUS
 62
     7
100
AcDbLine
 10
350.9999999999991
 20
1143.999877999991
 30
0.0
 11
350.9999999999991
 21
655.9998169999911
 31
0.0
  0
LINE
  5
25C
330
1F
100
AcDbEntity
  8
LAY-10
  6
CONTINUOUS
 62
     7
100
AcDbLine
 10
869.0000309999989
 20
1173.999877999991
 30
0.0
 11
380.9999999999989
 21
1173.999877999991
 31
0.0
  0
CIRCLE
  5
25D
330
1F
100
AcDbEntity
  8
LAY-10
  6
CONTINUOUS
 62
     7
100
AcDbCircle
 10
624.9999999999989
 20
899.9999389999914
 30
0.0
 40
249.5000000000002
  0
CIRCLE
  5
25E
330
1F
100
AcDbEntity
  8
LAY-10
  6
CONTINUOUS
 62
     7
100
AcDbCircle
 10
624.9999999999989
 20
899.9999389999914
 30
0.0
 40
259.5
  0
CIRCLE
  5
25F
330
1F
100
AcDbEntity
  8
LAY-10
  6
CONTINUOUS
 62
     7
100
AcDbCircle
 10
624.9999999999989
 20
899.9999389999914
 30
0.0
 40
264.5
  0
LINE
  5
260
330
1F
100
AcDbEntity
  8
LAY-10
  6
CONTINUOUS
 62
     7
100
AcDbLine
 10
349.999999999999
 20
1143.999877999991
 30
0.0
 11
349.999999999999
 21
655.9998169999911
 31
0.0
  0
LINE
  5
261
330
1F
100
AcDbEntity
  8
LAY-10
  6
CONTINUOUS
 62
     7
100
AcDbLine
 10
869.0000309999989
 20
1174.999877999991
 30
0.0
 11
380.9999999999989
 21
1174.999877999991
 31
0.0
  0
LINE
  5
262
330
1F
100
AcDbEntity
  8
LAY-10
  6
CONTINUOUS
 62
     7
100
AcDbLine
 10
900.0000309999988
 20
655.9998169999911
 30
0.0
 11
900.0000309999988
 21
1143.999877999991
 31
0.0
  0
LINE
  5
263
330
1F
100
AcDbEntity
  8
LAY-10
  6
CONTINUOUS
 62
     7
100
AcDbLine
 10
392.1421509999989
 20
679.8698129999913
 30
0.0
 11
431.7145999999989
 21
719.4421999999912
 31
0.0
  0
ARC
  5
264
330
1F
100
AcDbEntity
  8
LAY-10
  6
CONTINUOUS
 62
     7
100
AcDbCircle
 10
399.8477789999988
 20
720.102355999991
 30
0.0
 40
20.0
100
AcDbArc
 50
314.9999917618906
 51
344.0718129910479
  0
LINE
  5
265
330
1F
100
AcDbEntity
  8
LAY-10
  6
CONTINUOUS
 62
     7
100
AcDbLine
 10
406.9913939999988
 20
665.0205689999913
 30
0.0
 11
430.960449999999
 21
688.9895629999911
 31
0.0
  0
LINE
  5
266
330
1F
100
AcDbEntity
  8
LAY-10
  6
CONTINUOUS
 62
     7
100
AcDbLine
 10
404.8700559999989
 20
667.1419069999912
 30
0.0
 11
444.442504999999
 21
706.7144169999912
 31
0.0
  0
ARC
  5
267
330
1F
100
AcDbEntity
  8
LAY-10
  6
CONTINUOUS
 62
     7
100
AcDbCircle
 10
419.012206999999
 20
652.9998169999911
 30
0.0
 40
20.0
100
AcDbArc
 50
135.0000292098267
 51
270.0000011238739
  0
ARC
  5
268
330
1F
100
AcDbEntity
  8
LAY-10
  6
CONTINUOUS
 62
     7
100
AcDbCircle
 10
419.012206999999
 20
652.9998169999911
 30
0.0
 40
17.0
100
AcDbArc
 50
135.0000292098268
 51
270.0000011238739
  0
LINE
  5
269
330
1F
100
AcDbEntity
  8
LAY-10
  6
CONTINUOUS
 62
     7
100
AcDbLine
 10
406.9913939999988
 20
665.0206909999912
 30
0.0
 11
430.960449999999
 21
688.9898079999912
 31
0.0
  0
LINE
  5
26A
330
1F
100
AcDbEntity
  8
LAY-10
  6
CONTINUOUS
 62
     7
100
AcDbLine
 10
404.8700559999989
 20
667.142028999991
 30
0.0
 11
444.442504999999
 21
706.7144169999912
 31
0.0
  0
ARC
  5
26B
330
1F
100
AcDbEntity
  8
LAY-10
  6
CONTINUOUS
 62
     7
100
AcDbCircle
 10
399.8477179999989
 20
720.1024789999913
 30
0.0
 40
20.0
100
AcDbArc
 50
314.99999176189
 51
344.0717556952691
  0
LINE
  5
26C
330
1F
100
AcDbEntity
  8
LAY-10
  6
CONTINUOUS
 62
     7
100
AcDbLine
 10
392.1421509999989
 20
679.8699349999911
 30
0.0
 11
431.7145999999989
 21
719.4424439999912
 31
0.0
  0
LINE
  5
26D
330
1F
100
AcDbEntity
  8
LAY-10
  6
CONTINUOUS
 62
     7
100
AcDbLine
 10
380.9999999999989
 20
625.9998169999911
 30
0.0
 11
869.0000309999989
 21
625.9998169999911
 31
0.0
  0
LINE
  5
26E
330
1F
100
AcDbEntity
  8
LAY-10
  6
CONTINUOUS
 62
     7
100
AcDbLine
 10
380.9999999999989
 20
624.999816999991
 30
0.0
 11
869.0000309999989
 21
624.999816999991
 31
0.0
  0
LINE
  5
26F
330
1F
100
AcDbEntity
  8
LAY-10
  6
CONTINUOUS
 62
     7
100
AcDbLine
 10
360.9999999999991
 20
694.0120239999911
 30
0.0
 11
360.9999999999991
 21
843.9998169999911
 31
0.0
  0
LINE
  5
270
330
1F
100
AcDbEntity
  8
LAY-10
  6
CONTINUOUS
 62
     7
100
AcDbLine
 10
357.9999999999991
 20
694.0120239999911
 30
0.0
 11
357.9999999999991
 21
846.9998169999913
 31
0.0
  0
LINE
  5
271
330
1F
100
AcDbEntity
  8
LAY-10
  6
CONTINUOUS
 62
     7
100
AcDbLine
 10
390.020812999999
 20
681.9911499999911
 30
0.0
 11
413.9898679999989
 21
705.9602669999913
 31
0.0
  0
LINE
  5
272
330
1F
100
AcDbEntity
  8
LAY-10
  6
CONTINUOUS
 62
     7
100
AcDbLine
 10
390.020812999999
 20
681.9912719999912
 30
0.0
 11
413.9898679999989
 21
705.9602669999913
 31
0.0
  0
ARC
  5
273
330
1F
100
AcDbEntity
  8
LAY-10
  6
CONTINUOUS
 62
     7
100
AcDbCircle
 10
380.9999999999989
 20
655.9998169999911
 30
0.0
 40
31.00000000000002
100
AcDbArc
 50
180.0000198478434
 51
270.0000011238739
  0
ARC
  5
274
330
1F
100
AcDbEntity
  8
LAY-10
  6
CONTINUOUS
 62
     7
100
AcDbCircle
 10
380.9999999999989
 20
655.9998169999911
 30
0.0
 40
30.00000000000002
100
AcDbArc
 50
180.0000198478435
 51
270.0000011238739
  0
CIRCLE
  5
275
330
1F
100
AcDbEntity
  8
LAY-10
  6
CONTINUOUS
 62
     7
100
AcDbCircle
 10
379.999954999999
 20
654.999877999991
 30
0.0
 40
5.0
  0
ARC
  5
276
330
1F
100
AcDbEntity
  8
LAY-10
  6
CONTINUOUS
 62
     7
100
AcDbCircle
 10
377.999999999999
 20
694.0120239999911
 30
0.0
 40
20.0
100
AcDbArc
 50
180.0000198478435
 51
314.99999176189
  0
ARC
  5
277
330
1F
100
AcDbEntity
  8
LAY-10
  6
CONTINUOUS
 62
     7
100
AcDbCircle
 10
377.999999999999
 20
694.0120239999911
 30
0.0
 40
17.0
100
AcDbArc
 50
180.0000198478436
 51
314.9999917618904
  0
LINE
  5
278
330
1F
100
AcDbEntity
  8
LAY-10
  6
CONTINUOUS
 62
     7
100
AcDbLine
 10
357.9999999999991
 20
846.9998169999913
 30
0.0
 11
365.853942999999
 21
846.9998169999913
 31
0.0
  0
LINE
  5
279
330
1F
100
AcDbEntity
  8
LAY-10
  6
CONTINUOUS
 62
     7
100
AcDbLine
 10
360.9999999999991
 20
843.9998169999911
 30
0.0
 11
366.8673099999991
 21
843.9998169999911
 31
0.0
  0
LINE
  5
27A
330
1F
100
AcDbEntity
  8
LAY-10
  6
CONTINUOUS
 62
     7
100
AcDbLine
 10
357.9999999999991
 20
952.9999389999912
 30
0.0
 11
365.853942999999
 21
952.9999389999912
 31
0.0
  0
LINE
  5
27B
330
1F
100
AcDbEntity
  8
LAY-10
  6
CONTINUOUS
 62
     7
100
AcDbLine
 10
360.9999999999991
 20
955.9999389999913
 30
0.0
 11
366.8673099999991
 21
955.9999389999913
 31
0.0
  0
LINE
  5
27C
330
1F
100
AcDbEntity
  8
LAY-10
  6
CONTINUOUS
 62
     7
100
AcDbLine
 10
419.012206999999
 20
635.9998169999911
 30
0.0
 11
568.9999999999989
 21
635.9998169999911
 31
0.0
  0
LINE
  5
27D
330
1F
100
AcDbEntity
  8
LAY-10
  6
CONTINUOUS
 62
     7
100
AcDbLine
 10
419.012206999999
 20
632.999816999991
 30
0.0
 11
571.9999999999989
 21
632.999816999991
 31
0.0
  0
LINE
  5
27E
330
1F
100
AcDbEntity
  8
LAY-10
  6
CONTINUOUS
 62
     7
100
AcDbLine
 10
454.0215459999989
 20
698.1914679999911
 30
0.0
 11
439.6139529999989
 21
694.0796509999913
 31
0.0
  0
LINE
  5
27F
330
1F
100
AcDbEntity
  8
LAY-10
  6
CONTINUOUS
 62
     7
100
AcDbLine
 10
439.6139529999989
 20
694.0797729999913
 30
0.0
 11
454.021484999999
 21
698.1914679999911
 31
0.0
  0
ARC
  5
280
330
1F
100
AcDbEntity
  8
LAY-10
  6
CONTINUOUS
 62
     7
100
AcDbCircle
 10
445.1025999999989
 20
674.8474739999912
 30
0.0
 40
20.0
100
AcDbArc
 50
105.9282079806749
 51
135.0000292098267
  0
ARC
  5
281
330
1F
100
AcDbEntity
  8
LAY-10
  6
CONTINUOUS
 62
     7
100
AcDbCircle
 10
445.1025999999989
 20
674.8475959999911
 30
0.0
 40
20.0
100
AcDbArc
 50
105.9282079806746
 51
135.0000292098266
  0
LINE
  5
282
330
1F
100
AcDbEntity
  8
LAY-10
  6
CONTINUOUS
 62
     7
100
AcDbLine
 10
419.0798949999988
 20
714.6137089999912
 30
0.0
 11
423.1916509999991
 21
729.0213019999911
 31
0.0
  0
LINE
  5
283
330
1F
100
AcDbEntity
  8
LAY-10
  6
CONTINUOUS
 62
     7
100
AcDbLine
 10
423.1916509999991
 20
729.0214239999912
 30
0.0
 11
419.0798339999988
 21
714.613830999991
 31
0.0
  0
LINE
  5
284
330
1F
100
AcDbEntity
  8
LAY-10
  6
CONTINUOUS
 62
     7
100
AcDbLine
 10
568.9999999999989
 20
635.9998169999911
 30
0.0
 11
568.9999999999989
 21
641.8672489999911
 31
0.0
  0
LINE
  5
285
330
1F
100
AcDbEntity
  8
LAY-10
  6
CONTINUOUS
 62
     7
100
AcDbLine
 10
571.9999999999989
 20
632.999816999991
 30
0.0
 11
571.9999999999989
 21
640.8538209999912
 31
0.0
  0
LINE
  5
286
330
1F
100
AcDbEntity
  8
LAY-10
  6
CONTINUOUS
 62
     7
100
AcDbLine
 10
888.9999089999989
 20
694.0120239999911
 30
0.0
 11
888.9999089999989
 21
843.9998169999911
 31
0.0
  0
LINE
  5
287
330
1F
100
AcDbEntity
  8
LAY-10
  6
CONTINUOUS
 62
     7
100
AcDbLine
 10
891.9999089999989
 20
694.0120239999911
 30
0.0
 11
891.9999089999989
 21
846.9998169999913
 31
0.0
  0
LINE
  5
288
330
1F
100
AcDbEntity
  8
LAY-10
  6
CONTINUOUS
 62
     7
100
AcDbLine
 10
830.9878239999987
 20
635.9998169999911
 30
0.0
 11
681.0000609999988
 21
635.9998169999911
 31
0.0
  0
LINE
  5
289
330
1F
100
AcDbEntity
  8
LAY-10
  6
CONTINUOUS
 62
     7
100
AcDbLine
 10
830.9878239999987
 20
632.999816999991
 30
0.0
 11
678.0000609999988
 21
632.999816999991
 31
0.0
  0
LINE
  5
28A
330
1F
100
AcDbEntity
  8
LAY-10
  6
CONTINUOUS
 62
     7
100
AcDbLine
 10
680.9999999999989
 20
635.9998169999911
 30
0.0
 11
680.9999999999989
 21
641.8672489999911
 31
0.0
  0
LINE
  5
28B
330
1F
100
AcDbEntity
  8
LAY-10
  6
CONTINUOUS
 62
     7
100
AcDbLine
 10
677.999999999999
 20
632.999816999991
 30
0.0
 11
677.999999999999
 21
640.8538209999912
 31
0.0
  0
LINE
  5
28C
330
1F
100
AcDbEntity
  8
LAY-10
  6
CONTINUOUS
 62
     7
100
AcDbLine
 10
805.5676579999989
 20
706.7043459999912
 30
0.0
 11
845.130035999999
 21
667.142028999991
 31
0.0
  0
LINE
  5
28D
330
1F
100
AcDbEntity
  8
LAY-10
  6
CONTINUOUS
 62
     7
100
AcDbLine
 10
859.9792789999989
 20
681.9912719999912
 30
0.0
 11
836.0101629999988
 21
705.9602669999913
 31
0.0
  0
LINE
  5
28E
330
1F
100
AcDbEntity
  8
LAY-10
  6
CONTINUOUS
 62
     7
100
AcDbLine
 10
857.8579409999988
 20
679.8699349999911
 30
0.0
 11
818.285430999999
 21
719.4424439999912
 31
0.0
  0
ARC
  5
28F
330
1F
100
AcDbEntity
  8
LAY-10
  6
CONTINUOUS
 62
     7
100
AcDbCircle
 10
830.9878239999987
 20
652.9998169999911
 30
0.0
 40
20.0
100
AcDbArc
 50
270.0000011238739
 51
44.99997303792338
  0
ARC
  5
290
330
1F
100
AcDbEntity
  8
LAY-10
  6
CONTINUOUS
 62
     7
100
AcDbCircle
 10
830.9878239999987
 20
652.9998169999911
 30
0.0
 40
17.0
100
AcDbArc
 50
270.0000011238743
 51
44.99997303792383
  0
LINE
  5
291
330
1F
100
AcDbEntity
  8
LAY-10
  6
CONTINUOUS
 62
     7
100
AcDbLine
 10
843.0086979999988
 20
665.0206909999912
 30
0.0
 11
819.0395819999989
 21
688.9898079999912
 31
0.0
  0
LINE
  5
292
330
1F
100
AcDbEntity
  8
LAY-10
  6
CONTINUOUS
 62
     7
100
AcDbLine
 10
810.3861389999988
 20
694.0797729999913
 30
0.0
 11
795.9785459999987
 21
698.1914679999911
 31
0.0
  0
ARC
  5
293
330
1F
100
AcDbEntity
  8
LAY-10
  6
CONTINUOUS
 62
     7
100
AcDbCircle
 10
804.8974919999987
 20
674.8475959999911
 30
0.0
 40
20.0
100
AcDbArc
 50
44.99999063801904
 51
74.07181186717465
  0
ARC
  5
294
330
1F
100
AcDbEntity
  8
LAY-10
  6
CONTINUOUS
 62
     7
100
AcDbCircle
 10
869.0000309999989
 20
655.9998169999911
 30
0.0
 40
31.00000000000002
100
AcDbArc
 50
270.0000011238737
 51
359.9999823999062
  0
ARC
  5
295
330
1F
100
AcDbEntity
  8
LAY-10
  6
CONTINUOUS
 62
     7
100
AcDbCircle
 10
869.0000309999989
 20
655.9998169999911
 30
0.0
 40
30.00000000000002
100
AcDbArc
 50
270.0000011238737
 51
359.9999823999057
  0
CIRCLE
  5
296
330
1F
100
AcDbEntity
  8
LAY-10
  6
CONTINUOUS
 62
     7
100
AcDbCircle
 10
870.0000309999987
 20
654.9998169999913
 30
0.0
 40
5.0
  0
ARC
  5
297
330
1F
100
AcDbEntity
  8
LAY-10
  6
CONTINUOUS
 62
     7
100
AcDbCircle
 10
872.0000309999989
 20
694.0120239999911
 30
0.0
 40
20.0
100
AcDbArc
 50
225.0000104858603
 51
359.999982399906
  0
ARC
  5
298
330
1F
100
AcDbEntity
  8
LAY-10
  6
CONTINUOUS
 62
     7
100
AcDbCircle
 10
872.0000309999989
 20
694.0120239999911
 30
0.0
 40
17.0
100
AcDbArc
 50
225.0000104858607
 51
359.9999823999064
  0
LINE
  5
299
330
1F
100
AcDbEntity
  8
LAY-10
  6
CONTINUOUS
 62
     7
100
AcDbLine
 10
826.8083799999989
 20
729.0214239999912
 30
0.0
 11
830.9201969999989
 21
714.613830999991
 31
0.0
  0
ARC
  5
29A
330
1F
100
AcDbEntity
  8
LAY-10
  6
CONTINUOUS
 62
     7
100
AcDbCircle
 10
850.152374999999
 20
720.1024789999913
 30
0.0
 40
20.0
100
AcDbArc
 50
195.9282465524784
 51
225.0000104858607
  0
LINE
  5
29B
330
1F
100
AcDbEntity
  8
LAY-10
  6
CONTINUOUS
 62
     7
100
AcDbLine
 10
883.5038149999988
 20
843.9998169999911
 30
0.0
 11
889.0000309999989
 21
843.9998169999911
 31
0.0
  0
LINE
  5
29C
330
1F
100
AcDbEntity
  8
LAY-10
  6
CONTINUOUS
 62
     7
100
AcDbLine
 10
892.0000309999989
 20
846.9998169999913
 30
0.0
 11
884.146026999999
 21
846.9998169999913
 31
0.0
  0
LINE
  5
29D
330
1F
100
AcDbEntity
  8
LAY-10
  6
CONTINUOUS
 62
     7
100
AcDbLine
 10
883.5038759999989
 20
955.9999389999913
 30
0.0
 11
889.0000309999989
 21
955.9999389999913
 31
0.0
  0
LINE
  5
29E
330
1F
100
AcDbEntity
  8
LAY-10
  6
CONTINUOUS
 62
     7
100
AcDbLine
 10
892.0000309999989
 20
952.9999389999912
 30
0.0
 11
884.146026999999
 21
952.9999389999912
 31
0.0
  0
ARC
  5
29F
330
1F
100
AcDbEntity
  8
LAY-10
  6
CONTINUOUS
 62
     7
100
AcDbCircle
 10
623.636227275252
 20
-5599.577118363248
 30
0.0
 40
5987.000000000005
100
AcDbArc
 50
90.67652984052145
 51
91.13713061202861
  0
ARC
  5
2A0
330
1F
100
AcDbEntity
  8
LAY-10
  6
CONTINUOUS
 62
     7
100
AcDbCircle
 10
625.0014922752521
 20
-5599.531220363249
 30
0.0
 40
5999.000000000004
100
AcDbArc
 50
92.04996697123
 51
92.28740068153269
  0
ARC
  5
2A1
330
1F
100
AcDbEntity
  8
LAY-10
  6
CONTINUOUS
 62
     7
100
AcDbCircle
 10
623.636227275252
 20
-5599.577118363248
 30
0.0
 40
5987.000000000005
100
AcDbArc
 50
91.85854177187703
 51
92.20518123793087
  0
LINE
  5
2A2
330
1F
100
AcDbEntity
  8
LAY-10
  6
CONTINUOUS
 62
     7
100
AcDbLine
 10
390.3869902752522
 20
380.1133416367512
 30
0.0
 11
389.5402492752522
 21
359.2807306367513
 31
0.0
  0
LINE
  5
2A3
330
1F
100
AcDbEntity
  8
LAY-10
  6
CONTINUOUS
 62
     7
100
AcDbLine
 10
385.0014312752522
 20
395.6673886367511
 30
0.0
 11
385.5661892752522
 21
394.6891776367512
 31
0.0
  0
ARC
  5
2A4
330
1F
100
AcDbEntity
  8
LAY-10
  6
CONTINUOUS
 62
     7
100
AcDbCircle
 10
393.3845182752522
 20
379.9914846367514
 30
0.0
 40
3.000000000000003
100
AcDbArc
 50
92.20512394215413
 51
177.6723788051254
  0
ARC
  5
2A5
330
1F
100
AcDbEntity
  8
LAY-10
  6
CONTINUOUS
 62
     7
100
AcDbCircle
 10
453.8306542752522
 20
363.3877866367513
 30
0.0
 40
6.000000000000006
100
AcDbArc
 50
204.9047763287953
 51
270.0000011238733
  0
ARC
  5
2A6
330
1F
100
AcDbEntity
  8
LAY-10
  6
CONTINUOUS
 62
     7
100
AcDbCircle
 10
625.0014922752521
 20
-5599.531220363249
 30
0.0
 40
5999.000000000004
100
AcDbArc
 50
91.73541314170389
 51
91.97198741531248
  0
LINE
  5
2A7
330
1F
100
AcDbEntity
  8
LAY-10
  6
CONTINUOUS
 62
     7
100
AcDbLine
 10
418.5675622752522
 20
395.9175716367511
 30
0.0
 11
418.0011562752523
 21
396.8986506367511
 31
0.0
  0
LINE
  5
2A8
330
1F
100
AcDbEntity
  8
LAY-10
  6
CONTINUOUS
 62
     7
100
AcDbLine
 10
411.0011562752522
 20
396.6529226367513
 30
0.0
 11
410.4112512752523
 21
395.6311946367512
 31
0.0
  0
LINE
  5
2A9
330
1F
100
AcDbEntity
  8
LAY-10
  6
CONTINUOUS
 62
     7
100
AcDbLine
 10
443.3272362752521
 20
396.7171316367512
 30
0.0
 11
444.0016752752522
 21
397.8852226367513
 31
0.0
  0
ARC
  5
2AA
330
1F
100
AcDbEntity
  8
LAY-10
  6
CONTINUOUS
 62
     7
100
AcDbCircle
 10
429.8567772752523
 20
372.2798146367512
 30
0.0
 40
12.00000000000001
100
AcDbArc
 50
24.9048137767317
 51
91.85848447609735
  0
LINE
  5
2AB
330
1F
100
AcDbEntity
  8
LAY-10
  6
CONTINUOUS
 62
     7
100
AcDbLine
 10
440.7408872752522
 20
377.3331596367512
 30
0.0
 11
448.3886382752522
 21
360.8611136367514
 31
0.0
  0
ARC
  5
2AC
330
1F
100
AcDbEntity
  8
LAY-10
  6
CONTINUOUS
 62
     7
100
AcDbCircle
 10
480.1718412752522
 20
363.3877866367513
 30
0.0
 40
6.000000000000006
100
AcDbArc
 50
270.0000011238733
 51
335.0952259189563
  0
ARC
  5
2AD
330
1F
100
AcDbEntity
  8
LAY-10
  6
CONTINUOUS
 62
     7
100
AcDbCircle
 10
480.8663602752521
 20
396.7366936367513
 30
0.0
 40
2.0
100
AcDbArc
 50
91.37708533662659
 51
175.0726974012782
  0
ARC
  5
2AE
330
1F
100
AcDbEntity
  8
LAY-10
  6
CONTINUOUS
 62
     7
100
AcDbCircle
 10
473.7487452752522
 20
372.3877866367513
 30
0.0
 40
3.000000000000003
100
AcDbArc
 50
270.0
 51
355.0728891364557
  0
LINE
  5
2AF
330
1F
100
AcDbEntity
  8
LAY-10
  6
CONTINUOUS
 62
     7
100
AcDbLine
 10
478.8737452752524
 20
396.9084766367513
 30
0.0
 11
476.7376372752521
 21
372.1301266367513
 31
0.0
  0
ARC
  5
2B0
330
1F
100
AcDbEntity
  8
LAY-10
  6
CONTINUOUS
 62
     7
100
AcDbCircle
 10
460.2537502752521
 20
372.3877866367513
 30
0.0
 40
3.000000000000003
100
AcDbArc
 50
184.927113111294
 51
270.0
  0
ARC
  5
2B1
330
1F
100
AcDbEntity
  8
LAY-10
  6
CONTINUOUS
 62
     7
100
AcDbCircle
 10
453.1989712752522
 20
396.0077816367513
 30
0.0
 40
2.0
100
AcDbArc
 50
4.927265150787343
 51
91.64121888018512
  0
LINE
  5
2B2
330
1F
100
AcDbEntity
  8
LAY-10
  6
CONTINUOUS
 62
     7
100
AcDbLine
 10
455.1915862752521
 20
396.1795646367514
 30
0.0
 11
457.2648582752522
 21
372.1301266367513
 31
0.0
  0
ARC
  5
2B3
330
1F
100
AcDbEntity
  8
LAY-10
  6
CONTINUOUS
 62
     7
100
AcDbCircle
 10
467.0012482752524
 20
376.3877866367514
 30
0.0
 40
7.000000000000004
100
AcDbArc
 50
311.6598197036146
 51
228.3401649440377
  0
LINE
  5
2B4
330
1F
100
AcDbEntity
  8
LAY-10
  6
CONTINUOUS
 62
     7
100
AcDbLine
 10
462.3482942752521
 20
371.1580496367513
 30
0.0
 11
471.6542022752521
 21
371.1580496367513
 31
0.0
  0
LINE
  5
2B5
330
1F
100
AcDbEntity
  8
LAY-10
  6
CONTINUOUS
 62
     7
100
AcDbLine
 10
473.7487452752522
 20
369.3877866367512
 30
0.0
 11
460.2537502752521
 21
369.3877866367512
 31
0.0
  0
LINE
  5
2B6
330
1F
100
AcDbEntity
  8
LAY-10
  6
CONTINUOUS
 62
     7
100
AcDbLine
 10
480.1718412752522
 20
357.3877866367513
 30
0.0
 11
453.8306542752522
 21
357.3877866367513
 31
0.0
  0
LINE
  5
2B7
330
1F
100
AcDbEntity
  8
LAY-10
  6
CONTINUOUS
 62
     7
100
AcDbLine
 10
509.4169892752521
 20
398.3571466367513
 30
0.0
 11
510.0009122752522
 21
399.3684986367512
 31
0.0
  0
LINE
  5
2B8
330
1F
100
AcDbEntity
  8
LAY-10
  6
CONTINUOUS
 62
     7
100
AcDbLine
 10
494.1745572752522
 20
379.2995296367513
 30
0.0
 11
485.6138572752523
 21
360.8611136367514
 31
0.0
  0
LINE
  5
2B9
330
1F
100
AcDbEntity
  8
LAY-10
  6
CONTINUOUS
 62
     7
100
AcDbLine
 10
484.5707672752523
 20
397.7784726367511
 30
0.0
 11
484.0009732752521
 21
398.7654106367512
 31
0.0
  0
ARC
  5
2BA
330
1F
100
AcDbEntity
  8
LAY-10
  6
CONTINUOUS
 62
     7
100
AcDbCircle
 10
505.0586822752522
 20
374.2461846367513
 30
0.0
 40
12.00000000000001
100
AcDbArc
 50
91.1371879078072
 51
155.0952060711137
  0
ARC
  5
2BB
330
1F
100
AcDbEntity
  8
LAY-10
  6
CONTINUOUS
 62
     7
100
AcDbCircle
 10
625.0014922752521
 20
-5599.531220363249
 30
0.0
 40
5999.000000000004
100
AcDbArc
 50
91.10401365146936
 51
91.3413900659927
  0
LINE
  5
2BC
330
1F
100
AcDbEntity
  8
LAY-10
  6
CONTINUOUS
 62
     7
100
AcDbLine
 10
697.0605132752521
 20
386.9995416367513
 30
0.0
 11
552.9436002752522
 21
386.9995416367513
 31
0.0
  0
ARC
  5
2BD
330
1F
100
AcDbEntity
  8
LAY-10
  6
CONTINUOUS
 62
     7
100
AcDbCircle
 10
625.0014922752521
 20
-5599.531220363249
 30
0.0
 40
5999.000000000004
100
AcDbArc
 50
90.78877227258765
 51
91.02609139133124
  0
LINE
  5
2BE
330
1F
100
AcDbEntity
  8
LAY-10
  6
CONTINUOUS
 62
     7
100
AcDbLine
 10
517.5724452752522
 20
398.5087576367513
 30
0.0
 11
517.0009122752522
 21
399.4986256367514
 31
0.0
  0
LINE
  5
2BF
330
1F
100
AcDbEntity
  8
LAY-10
  6
CONTINUOUS
 62
     7
100
AcDbLine
 10
550.5784882752522
 20
399.0019216367514
 30
0.0
 11
550.0010652752522
 21
400.0020436367512
 31
0.0
  0
LINE
  5
2C0
330
1F
100
AcDbEntity
  8
LAY-10
  6
CONTINUOUS
 62
     7
100
AcDbLine
 10
542.4189722752523
 20
398.9026786367513
 30
0.0
 11
543.0010032752521
 21
399.9107356367513
 31
0.0
  0
ARC
  5
2C1
330
1F
100
AcDbEntity
  8
LAY-10
  6
CONTINUOUS
 62
     7
100
AcDbCircle
 10
356.1315582752522
 20
361.962319890759
 30
0.0
 40
5.0
100
AcDbArc
 50
270.0
 51
352.303955999929
  0
ARC
  5
2C2
330
1F
100
AcDbEntity
  8
LAY-10
  6
CONTINUOUS
 62
     7
100
AcDbCircle
 10
351.9063382752523
 20
355.962319890759
 30
0.0
 40
1.0
100
AcDbArc
 50
89.99998127603041
 51
174.2894067995539
  0
LINE
  5
2C3
330
1F
100
AcDbEntity
  8
LAY-10
  6
CONTINUOUS
 62
     7
100
AcDbLine
 10
350.0013702752523
 20
346.962319890759
 30
0.0
 11
350.9113432752524
 21
356.0618078907589
 31
0.0
  0
LINE
  5
2C4
330
1F
100
AcDbEntity
  8
LAY-10
  6
CONTINUOUS
 62
     7
100
AcDbLine
 10
351.9063382752523
 20
356.962319890759
 30
0.0
 11
356.1315582752522
 21
356.962319890759
 31
0.0
  0
ARC
  5
2C5
330
1F
100
AcDbEntity
  8
LAY-10
  6
CONTINUOUS
 62
     7
100
AcDbCircle
 10
374.5260892752522
 20
392.9623198907589
 30
0.0
 40
1.0
100
AcDbArc
 50
1.432108008925711
 51
89.9999812760272
  0
ARC
  5
2C6
330
1F
100
AcDbEntity
  8
LAY-10
  6
CONTINUOUS
 62
     7
100
AcDbCircle
 10
366.3753322752521
 20
392.9623198907589
 30
0.0
 40
1.0
100
AcDbArc
 50
89.99998127603041
 51
172.30393615209
  0
LINE
  5
2C7
330
1F
100
AcDbEntity
  8
LAY-10
  6
CONTINUOUS
 62
     7
100
AcDbLine
 10
375.5257232752522
 20
392.9873448907588
 30
0.0
 11
376.4526032752522
 21
355.912270890759
 31
0.0
  0
ARC
  5
2C8
330
1F
100
AcDbEntity
  8
LAY-10
  6
CONTINUOUS
 62
     7
100
AcDbCircle
 10
398.0287752752523
 20
380.9623198907589
 30
0.0
 40
1.0
100
AcDbArc
 50
1.591161092863711
 51
89.99998127603041
  0
ARC
  5
2C9
330
1F
100
AcDbEntity
  8
LAY-10
  6
CONTINUOUS
 62
     7
100
AcDbCircle
 10
392.9674952752522
 20
380.9623198907589
 30
0.0
 40
1.0
100
AcDbArc
 50
89.99998127603695
 51
178.0250916238055
  0
LINE
  5
2CA
330
1F
100
AcDbEntity
  8
LAY-10
  6
CONTINUOUS
 62
     7
100
AcDbLine
 10
391.0679592752522
 20
355.893472890759
 30
0.0
 11
391.9681062752524
 21
380.9967438907589
 31
0.0
  0
LINE
  5
2CB
330
1F
100
AcDbEntity
  8
LAY-10
  6
CONTINUOUS
 62
     7
100
AcDbLine
 10
399.0284082752522
 20
380.9901518907589
 30
0.0
 11
400.0013702752523
 21
346.962319890759
 31
0.0
  0
LINE
  5
2CC
330
1F
100
AcDbEntity
  8
LAY-10
  6
CONTINUOUS
 62
     7
100
AcDbLine
 10
366.3753322752521
 20
393.9623198907589
 30
0.0
 11
374.5260892752522
 21
393.9623198907589
 31
0.0
  0
LINE
  5
2CD
330
1F
100
AcDbEntity
  8
LAY-10
  6
CONTINUOUS
 62
     7
100
AcDbLine
 10
398.0287752752523
 20
381.962319890759
 30
0.0
 11
392.9674952752522
 21
381.962319890759
 31
0.0
  0
LINE
  5
2CE
330
1F
100
AcDbEntity
  8
LAY-10
  6
CONTINUOUS
 62
     7
100
AcDbLine
 10
874.4751144699577
 20
392.9873448907588
 30
0.0
 11
873.5482344699576
 21
355.912270890759
 31
0.0
  0
ARC
  5
2CF
330
1F
100
AcDbEntity
  8
LAY-10
  6
CONTINUOUS
 62
     7
100
AcDbCircle
 10
875.474748469958
 20
392.9623198907589
 30
0.0
 40
1.0
100
AcDbArc
 50
90.00001872397287
 51
178.5678919910744
  0
ARC
  5
2D0
330
1F
100
AcDbEntity
  8
LAY-10
  6
CONTINUOUS
 62
     7
100
AcDbCircle
 10
883.6255054699577
 20
392.9623198907589
 30
0.0
 40
1.0
100
AcDbArc
 50
7.696063847909564
 51
90.0000187239598
  0
LINE
  5
2D1
330
1F
100
AcDbEntity
  8
LAY-10
  6
CONTINUOUS
 62
     7
100
AcDbLine
 10
883.6255054699577
 20
393.9623198907589
 30
0.0
 11
875.474748469958
 21
393.9623198907589
 31
0.0
  0
ARC
  5
2D2
330
1F
100
AcDbEntity
  8
LAY-10
  6
CONTINUOUS
 62
     7
100
AcDbCircle
 10
893.869279469958
 20
361.962319890759
 30
0.0
 40
5.0
100
AcDbArc
 50
187.6960440000724
 51
270.0
  0
ARC
  5
2D3
330
1F
100
AcDbEntity
  8
LAY-10
  6
CONTINUOUS
 62
     7
100
AcDbCircle
 10
851.9720624699577
 20
380.9623198907589
 30
0.0
 40
1.0
100
AcDbArc
 50
90.0000187239598
 51
178.4088389071362
  0
ARC
  5
2D4
330
1F
100
AcDbEntity
  8
LAY-10
  6
CONTINUOUS
 62
     7
100
AcDbCircle
 10
857.033342469958
 20
380.9623198907589
 30
0.0
 40
1.0
100
AcDbArc
 50
1.974908376194567
 51
90.00001872397287
  0
LINE
  5
2D5
330
1F
100
AcDbEntity
  8
LAY-10
  6
CONTINUOUS
 62
     7
100
AcDbLine
 10
858.9328784699578
 20
355.893472890759
 30
0.0
 11
858.0327314699578
 21
380.9967438907589
 31
0.0
  0
LINE
  5
2D6
330
1F
100
AcDbEntity
  8
LAY-10
  6
CONTINUOUS
 62
     7
100
AcDbLine
 10
850.9724294699579
 20
380.9901518907589
 30
0.0
 11
849.9994674699578
 21
346.962319890759
 31
0.0
  0
LINE
  5
2D7
330
1F
100
AcDbEntity
  8
LAY-10
  6
CONTINUOUS
 62
     7
100
AcDbLine
 10
851.9720624699577
 20
381.962319890759
 30
0.0
 11
857.033342469958
 21
381.962319890759
 31
0.0
  0
ARC
  5
2D8
330
1F
100
AcDbEntity
  8
LAY-10
  6
CONTINUOUS
 62
     7
100
AcDbCircle
 10
856.6163194699581
 20
379.9914846367514
 30
0.0
 40
3.000000000000003
100
AcDbArc
 50
2.327621194874524
 51
87.79487605785133
  0
LINE
  5
2D9
330
1F
100
AcDbEntity
  8
LAY-10
  6
CONTINUOUS
 62
     7
100
AcDbLine
 10
859.6138474699577
 20
380.1133416367512
 30
0.0
 11
860.4605884699579
 21
359.2807306367513
 31
0.0
  0
LINE
  5
2DA
330
1F
100
AcDbEntity
  8
LAY-10
  6
CONTINUOUS
 62
     7
100
AcDbLine
 10
700.00025137633
 20
399.9999999999901
 30
0.0
 11
550.00223328757
 21
399.9999999999901
 31
0.0
  0
LINE
  5
2DB
330
1F
100
AcDbEntity
  8
LAY-10
  6
CONTINUOUS
 62
     7
100
AcDbLine
 10
888.9143234699578
 20
361.2927648907589
 30
0.0
 11
884.6154844585694
 21
393.1035346283301
 31
0.0
  0
LINE
  5
2DC
330
1F
100
AcDbEntity
  8
LAY-10
  6
CONTINUOUS
 62
     7
100
AcDbLine
 10
361.0865142752523
 20
361.2927648907589
 30
0.0
 11
365.3853532866431
 21
393.1035346283497
 31
0.0
  0
ARC
  5
2DD
330
1F
100
AcDbEntity
  8
LAY-10
  6
CONTINUOUS
 62
     7
100
AcDbCircle
 10
625.0014922752521
 20
-5599.531220363249
 30
0.0
 40
6000.000000000005
100
AcDbArc
 50
90.71620881949563
 51
92.37368160805535
  0
LINE
  5
2DE
330
1F
100
AcDbEntity
  8
LAY-10
  6
CONTINUOUS
 62
     7
100
AcDbLine
 10
376.5012343405622
 20
395.320539422512
 30
0.0
 11
378.4501002752523
 21
359.2673636367513
 31
0.0
  0
LINE
  5
2DF
330
1F
100
AcDbEntity
  8
LAY-10
  6
CONTINUOUS
 62
     7
100
AcDbLine
 10
873.4996034046507
 20
395.320539422512
 30
0.0
 11
871.5507374699578
 21
359.2673636367513
 31
0.0
  0
ARC
  5
2E0
330
1F
100
AcDbEntity
  8
LAY-10
  6
CONTINUOUS
 62
     7
100
AcDbCircle
 10
624.9993454699578
 20
-5599.531220363249
 30
0.0
 40
6000.000000000005
100
AcDbArc
 50
87.62631839194465
 51
89.28377545236049
  0
LINE
  5
2E1
330
1F
100
AcDbEntity
  8
LAY-10
  6
CONTINUOUS
 62
     7
100
AcDbLine
 10
699.4229863612156
 20
399.0001516367512
 30
0.0
 11
700.0014312752521
 21
400.0020436367512
 31
0.0
  0
LINE
  5
2E2
330
1F
100
AcDbEntity
  8
LAY-10
  6
CONTINUOUS
 62
     7
100
AcDbLine
 10
550.5784882752522
 20
399.0001516367512
 30
0.0
 11
699.4229863612156
 21
399.0001516367512
 31
0.0
  0
TEXT
  5
2E3
330
1F
100
AcDbEntity
  8
LAY-10
  6
CONTINUOUS
 62
     7
100
AcDbText
 10
556.8818289970577
 20
711.2739270982132
 30
0.0
 40
14.0314968
  1
Ｍ
 50
342.6242773998176
 41
1.11999994913737
 51
-0.0000000000000509
  7
EXCADSTD
100
AcDbText
  0
TEXT
  5
2E4
330
1F
100
AcDbEntity
  8
LAY-10
  6
CONTINUOUS
 62
     7
100
AcDbText
 10
579.51789309997
 20
704.1723114137308
 30
0.0
 40
14.0314968
  1
Ｋ
 50
349.3639514067657
 41
1.11999994913737
 51
-0.0000000000001018
  7
EXCADSTD
100
AcDbText
  0
TEXT
  5
2E5
330
1F
100
AcDbEntity
  8
LAY-10
  6
CONTINUOUS
 62
     7
100
AcDbText
 10
602.7218255422716
 20
699.3096218950079
 30
0.0
 40
14.0314968
  1
Ａ
 50
356.0676757299477
 41
1.11999994913737
  7
EXCADSTD
100
AcDbText
  0
TEXT
  5
2E6
330
1F
100
AcDbEntity
  8
LAY-10
  6
CONTINUOUS
 62
     7
100
AcDbText
 10
634.4556452592327
 20
698.2722355187238
 30
0.0
 40
14.0314968
  1
４
 50
5.049272457790464
 41
1.11999994913737
 51
-0.0000000000001018
  7
EXCADSTD
100
AcDbText
  0
TEXT
  5
2E7
330
1F
100
AcDbEntity
  8
LAY-10
  6
CONTINUOUS
 62
     7
100
AcDbText
 10
658.0257777516191
 20
701.7284631369365
 30
0.0
 40
14.0314968
  1
５
 50
11.63604859323436
 41
1.040000025431315
 51
0.0000000000001018
  7
EXCADSTD
100
AcDbText
  0
TEXT
  5
2E8
330
1F
100
AcDbEntity
  8
LAY-10
  6
CONTINUOUS
 62
     7
100
AcDbText
 10
680.4581578912394
 20
707.1953482334955
 30
0.0
 40
14.0314968
  1
０
 50
18.37572260018261
 41
1.11999994913737
 51
0.0000000000000254
  7
EXCADSTD
100
AcDbText
  0
LINE
  5
2E9
330
1F
100
AcDbEntity
  8
LAY-10
  6
CONTINUOUS
 62
     7
100
AcDbLine
 10
350.0013702752523
 20
346.962319890759
 30
0.0
 11
1001.068679412492
 21
346.962319890759
 31
0.0
  0
LINE
  5
2EA
330
1F
100
AcDbEntity
  8
LAY-10
  6
CONTINUOUS
 62
     7
100
AcDbLine
 10
998.2587042882759
 20
356.962319890759
 30
0.0
 11
893.869279469958
 21
356.962319890759
 31
0.0
  0
LINE
  5
2EB
330
1F
100
AcDbEntity
  8
LAY-10
  6
CONTINUOUS
 62
     7
100
AcDbLine
 10
1000.248778668696
 20
355.161327328801
 30
0.0
 11
1001.0686794125
 21
346.96231989076
 31
0.0
  0
ARC
  5
2EC
330
1F
100
AcDbEntity
  8
LAY-10
  6
CONTINUOUS
 62
     7
100
AcDbCircle
 10
998.2587042882759
 20
354.9623198907589
 30
0.0
 40
2.0
100
AcDbArc
 50
5.710593137499642
 51
90.0
  0
LINE
  5
2ED
330
1F
100
AcDbEntity
  8
LAY-10
  6
CONTINUOUS
 62
     7
100
AcDbLine
 10
976.4828929748774
 20
356.962319890759
 30
0.0
 11
976.4828929748774
 21
346.962319890759
 31
0.0
  0
LINE
  5
2EE
330
1F
100
AcDbEntity
  8
LAY-10
  6
CONTINUOUS
 62
     7
100
AcDbLine
 10
966.4828929748774
 20
356.962319890759
 30
0.0
 11
966.4828929748774
 21
346.962319890759
 31
0.0
  0
ARC
  5
2EF
330
1F
100
AcDbEntity
  8
LAY-10
  6
CONTINUOUS
 62
     7
100
AcDbCircle
 10
626.3662682752522
 20
-5599.577118363248
 30
0.0
 40
5987.000000000005
100
AcDbArc
 50
87.79485065953575
 51
89.32343271154079
  0
LINE
  5
2F0
330
1F
100
AcDbEntity
  8
LAY-10
  6
CENTER
 62
     2
100
AcDbLine
 10
624.9999999999989
 20
617.2193429739781
 30
0.0
 11
624.9999999999989
 21
1182.780535026004
 31
0.0
  0
LINE
  5
2F1
330
1F
100
AcDbEntity
  8
LAY-10
  6
CENTER
 62
     2
100
AcDbLine
 10
907.7805960260055
 20
899.9999999999911
 30
0.0
 11
342.2194039739922
 21
899.9999999999915
 31
0.0
  0
LINE
  5
2F2
330
1F
100
AcDbEntity
  8
LAY-10
  6
CENTER
 62
     2
100
AcDbLine
 10
467.0
 20
947.7503278920201
 30
0.0
 11
467.0
 21
850.8503278920201
 31
0.0
  0
LINE
  5
2F3
330
1F
100
AcDbEntity
  8
LAY-10
  6
CENTER
 62
     2
100
AcDbLine
 10
782.9999999999976
 20
947.7503278920201
 30
0.0
 11
782.9999999999976
 21
850.8503278920201
 31
0.0
  0
LINE
  5
2F4
330
1F
100
AcDbEntity
  8
LAY-10
  6
CENTER
 62
     2
100
AcDbLine
 10
880.0000310000019
 20
1145.000123000008
 30
0.0
 11
860.000031000002
 21
1145.000123000008
 31
0.0
  0
LINE
  5
2F5
330
1F
100
AcDbEntity
  8
LAY-10
  6
CENTER
 62
     2
100
AcDbLine
 10
870.0000310000019
 20
1155.000123000008
 30
0.0
 11
870.0000310000019
 21
1135.000123000008
 31
0.0
  0
LINE
  5
2F6
330
1F
100
AcDbEntity
  8
LAY-10
  6
CENTER
 62
     2
100
AcDbLine
 10
389.9999550000018
 20
1145.000001000009
 30
0.0
 11
369.9999550000019
 21
1145.000001000009
 31
0.0
  0
LINE
  5
2F7
330
1F
100
AcDbEntity
  8
LAY-10
  6
CENTER
 62
     2
100
AcDbLine
 10
379.9999550000018
 20
1155.000001000009
 30
0.0
 11
379.9999550000018
 21
1135.000001000008
 31
0.0
  0
LINE
  5
2F8
330
1F
100
AcDbEntity
  8
LAY-10
  6
CENTER
 62
     2
100
AcDbLine
 10
389.9999550000018
 20
654.9998779999785
 30
0.0
 11
369.9999550000019
 21
654.9998779999785
 31
0.0
  0
LINE
  5
2F9
330
1F
100
AcDbEntity
  8
LAY-10
  6
CENTER
 62
     2
100
AcDbLine
 10
379.9999550000018
 20
664.9998779999785
 30
0.0
 11
379.9999550000018
 21
644.9998779999784
 31
0.0
  0
LINE
  5
2FA
330
1F
100
AcDbEntity
  8
LAY-10
  6
CENTER
 62
     2
100
AcDbLine
 10
880.0000310000019
 20
654.9998169999784
 30
0.0
 11
860.000031000002
 21
654.9998169999784
 31
0.0
  0
LINE
  5
2FB
330
1F
100
AcDbEntity
  8
LAY-10
  6
CENTER
 62
     2
100
AcDbLine
 10
870.0000310000019
 20
664.9998169999784
 30
0.0
 11
870.0000310000019
 21
644.9998169999783
 31
0.0
  0
LINE
  5
2FC
330
1F
100
AcDbEntity
  8
LAY-10
  6
CENTER
 62
     2
100
AcDbLine
 10
625.00041887261
 20
338.2142365287801
 30
0.0
 11
625.00041887261
 21
409.2142365287802
 31
0.0
  0
LINE
  5
2FD
330
1F
100
AcDbEntity
  8
LAY-10
  6
CENTER
 62
     2
100
AcDbLine
 10
467.0012482752498
 20
353.8142365287801
 30
0.0
 11
467.0012482752498
 21
401.0142365287801
 31
0.0
  0
LINE
  5
2FE
330
1F
100
AcDbEntity
  8
LAY-10
  6
CENTER
 62
     2
100
AcDbLine
 10
971.48289297488
 20
360.6
 30
0.0
 11
971.48289297488
 21
343.0
 31
0.0
  0
ARC
  5
2FF
330
1F
100
AcDbEntity
  8
LAY-10
  6
CONTINUOUS
 62
     7
100
AcDbCircle
 10
388.5410732752521
 20
359.3213186367512
 30
0.0
 40
1.0
100
AcDbArc
 50
270.0
 51
357.6724559487532
  0
ARC
  5
300
330
1F
100
AcDbEntity
  8
LAY-10
  6
CONTINUOUS
 62
     7
100
AcDbCircle
 10
379.4486352752523
 20
359.3213186367512
 30
0.0
 40
1.0
100
AcDbArc
 50
183.0941638288859
 51
270.0
  0
LINE
  5
301
330
1F
100
AcDbEntity
  8
LAY-10
  6
CONTINUOUS
 62
     7
100
AcDbLine
 10
388.7587754699579
 20
358.3213186367513
 30
0.0
 11
378.7587754699579
 21
358.3213186367513
 31
0.0
  0
LINE
  5
302
330
1F
100
AcDbEntity
  8
LAY-10
  6
CONTINUOUS
 62
     7
100
AcDbLine
 10
378.4519922752523
 20
353.9623198907589
 30
0.0
 11
389.0691802752522
 21
353.9623198907589
 31
0.0
  0
ARC
  5
303
330
1F
100
AcDbEntity
  8
LAY-10
  6
CONTINUOUS
 62
     7
100
AcDbCircle
 10
378.4519922752523
 20
355.962319890759
 30
0.0
 40
2.0
100
AcDbArc
 50
181.4321278567727
 51
270.0
  0
ARC
  5
304
330
1F
100
AcDbEntity
  8
LAY-10
  6
CONTINUOUS
 62
     7
100
AcDbCircle
 10
389.0691802752522
 20
355.962319890759
 30
0.0
 40
2.0
100
AcDbArc
 50
270.0
 51
358.0250541758654
  0
LINE
  5
305
330
1F
100
AcDbEntity
  8
LAY-10
  6
CONTINUOUS
 62
     7
100
AcDbLine
 10
378.7587754699579
 20
353.9623198907589
 30
0.0
 11
378.7587754699579
 21
358.3213186367513
 31
0.0
  0
LINE
  5
306
330
1F
100
AcDbEntity
  8
LAY-10
  6
CONTINUOUS
 62
     7
100
AcDbLine
 10
388.7587754699579
 20
353.9623198907589
 30
0.0
 11
388.7587754699579
 21
358.3213186367513
 31
0.0
  0
LINE
  5
307
330
1F
100
AcDbEntity
  8
LAY-10
  6
CONTINUOUS
 62
     7
100
AcDbLine
 10
378.7587754699579
 20
353.9623198907589
 30
0.0
 11
383.1177742159504
 21
358.3213186367513
 31
0.0
  0
LINE
  5
308
330
1F
100
AcDbEntity
  8
LAY-10
  6
CONTINUOUS
 62
     7
100
AcDbLine
 10
383.1177742159504
 20
353.9623198907589
 30
0.0
 11
387.4767729619428
 21
358.3213186367513
 31
0.0
  0
LINE
  5
309
330
1F
100
AcDbEntity
  8
LAY-10
  6
CONTINUOUS
 62
     7
100
AcDbLine
 10
387.4767729619428
 20
353.9623198907589
 30
0.0
 11
388.7587754699579
 21
355.244322398774
 31
0.0
  0
ARC
  5
30A
330
1F
100
AcDbEntity
  8
LAY-10
  6
CONTINUOUS
 62
     7
100
AcDbCircle
 10
871.5488454699577
 20
355.962319890759
 30
0.0
 40
2.0
100
AcDbArc
 50
270.0
 51
358.5678721432274
  0
LINE
  5
30B
330
1F
100
AcDbEntity
  8
LAY-10
  6
CONTINUOUS
 62
     7
100
AcDbLine
 10
871.5488454699577
 20
353.9623198907589
 30
0.0
 11
860.9316574699579
 21
353.9623198907589
 31
0.0
  0
ARC
  5
30C
330
1F
100
AcDbEntity
  8
LAY-10
  6
CONTINUOUS
 62
     7
100
AcDbCircle
 10
860.9316574699579
 20
355.962319890759
 30
0.0
 40
2.0
100
AcDbArc
 50
181.9749458241348
 51
270.0
  0
LINE
  5
30D
330
1F
100
AcDbEntity
  8
LAY-10
  6
CONTINUOUS
 62
     7
100
AcDbLine
 10
861.240312469958
 20
358.3213186367513
 30
0.0
 11
871.2403124699576
 21
358.3213186367513
 31
0.0
  0
ARC
  5
30E
330
1F
100
AcDbEntity
  8
LAY-10
  6
CONTINUOUS
 62
     7
100
AcDbCircle
 10
870.5522024699578
 20
359.3213186367512
 30
0.0
 40
1.0
100
AcDbArc
 50
270.0
 51
356.9058361711145
  0
ARC
  5
30F
330
1F
100
AcDbEntity
  8
LAY-10
  6
CONTINUOUS
 62
     7
100
AcDbCircle
 10
861.459764469958
 20
359.3213186367512
 30
0.0
 40
1.0
100
AcDbArc
 50
182.3275440512468
 51
270.0
  0
LINE
  5
310
330
1F
100
AcDbEntity
  8
LAY-10
  6
CONTINUOUS
 62
     7
100
AcDbLine
 10
861.240312469958
 20
353.9623198907589
 30
0.0
 11
861.240312469958
 21
358.3213186367513
 31
0.0
  0
LINE
  5
311
330
1F
100
AcDbEntity
  8
LAY-10
  6
CONTINUOUS
 62
     7
100
AcDbLine
 10
871.240312469958
 20
353.9623198907589
 30
0.0
 11
871.2403124699578
 21
358.3213186367513
 31
0.0
  0
LINE
  5
312
330
1F
100
AcDbEntity
  8
LAY-10
  6
CONTINUOUS
 62
     7
100
AcDbLine
 10
869.9583099619426
 20
353.9623198907589
 30
0.0
 11
871.240312469958
 21
355.244322398774
 31
0.0
  0
LINE
  5
313
330
1F
100
AcDbEntity
  8
LAY-10
  6
CONTINUOUS
 62
     7
100
AcDbLine
 10
865.5993112159503
 20
353.9623198907589
 30
0.0
 11
869.9583099619426
 21
358.3213186367513
 31
0.0
  0
LINE
  5
314
330
1F
100
AcDbEntity
  8
LAY-10
  6
CONTINUOUS
 62
     7
100
AcDbLine
 10
861.240312469958
 20
353.9623198907589
 30
0.0
 11
865.5993112159503
 21
358.3213186367513
 31
0.0
  0
LINE
  5
315
330
1F
100
AcDbEntity
  8
LAY-20
  6
CONTINUOUS
 62
     4
100
AcDbLine
 10
400.00137027525
 20
339.4623198907601
 30
0.0
 11
400.00137027525
 21
289.4623198907601
 31
0.0
  0
LINE
  5
316
330
1F
100
AcDbEntity
  8
LAY-20
  6
CONTINUOUS
 62
     4
100
AcDbLine
 10
849.99946746996
 20
339.4623198907601
 30
0.0
 11
849.99946746996
 21
289.4623198907601
 31
0.0
  0
LINE
  5
317
330
1F
100
AcDbEntity
  8
LAY-20
  6
CONTINUOUS
 62
     4
100
AcDbLine
 10
400.00137027525
 20
296.9623198907601
 30
0.0
 11
849.99946746996
 21
296.9623198907601
 31
0.0
  0
LINE
  5
318
330
1F
100
AcDbEntity
  8
LAY-20
  6
CONTINUOUS
 62
     4
100
AcDbLine
 10
412.50137027525
 20
299.0456532240934
 30
0.0
 11
400.00137027525
 21
296.9623198907601
 31
0.0
  0
LINE
  5
319
330
1F
100
AcDbEntity
  8
LAY-20
  6
CONTINUOUS
 62
     4
100
AcDbLine
 10
400.00137027525
 20
296.9623198907601
 30
0.0
 11
412.50137027525
 21
294.8789865574268
 31
0.0
  0
LINE
  5
31A
330
1F
100
AcDbEntity
  8
LAY-20
  6
CONTINUOUS
 62
     4
100
AcDbLine
 10
412.50137027525
 20
294.8789865574268
 30
0.0
 11
412.50137027525
 21
299.0456532240934
 31
0.0
  0
LINE
  5
31B
330
1F
100
AcDbEntity
  8
LAY-20
  6
CONTINUOUS
 62
     4
100
AcDbLine
 10
412.50137027525
 20
298.0039865574267
 30
0.0
 11
400.00137027525
 21
296.9623198907601
 31
0.0
  0
LINE
  5
31C
330
1F
100
AcDbEntity
  8
LAY-20
  6
CONTINUOUS
 62
     4
100
AcDbLine
 10
400.00137027525
 20
296.9623198907601
 30
0.0
 11
412.50137027525
 21
295.9206532240935
 31
0.0
  0
LINE
  5
31D
330
1F
100
AcDbEntity
  8
LAY-20
  6
CONTINUOUS
 62
     4
100
AcDbLine
 10
837.49946746996
 20
294.8789865574268
 30
0.0
 11
849.99946746996
 21
296.9623198907601
 31
0.0
  0
LINE
  5
31E
330
1F
100
AcDbEntity
  8
LAY-20
  6
CONTINUOUS
 62
     4
100
AcDbLine
 10
849.99946746996
 20
296.9623198907601
 30
0.0
 11
837.49946746996
 21
299.0456532240934
 31
0.0
  0
LINE
  5
31F
330
1F
100
AcDbEntity
  8
LAY-20
  6
CONTINUOUS
 62
     4
100
AcDbLine
 10
837.49946746996
 20
299.0456532240934
 30
0.0
 11
837.49946746996
 21
294.8789865574268
 31
0.0
  0
LINE
  5
320
330
1F
100
AcDbEntity
  8
LAY-20
  6
CONTINUOUS
 62
     4
100
AcDbLine
 10
837.49946746996
 20
295.9206532240935
 30
0.0
 11
849.99946746996
 21
296.9623198907601
 31
0.0
  0
LINE
  5
321
330
1F
100
AcDbEntity
  8
LAY-20
  6
CONTINUOUS
 62
     4
100
AcDbLine
 10
849.99946746996
 20
296.9623198907601
 30
0.0
 11
837.49946746996
 21
298.0039865574267
 31
0.0
  0
LINE
  5
322
330
1F
100
AcDbEntity
  8
LAY-20
  6
CONTINUOUS
 62
     4
100
AcDbLine
 10
884.49943006507
 20
401.46231989076
 30
0.0
 11
884.49943006507
 21
527.49999999999
 31
0.0
  0
LINE
  5
323
330
1F
100
AcDbEntity
  8
LAY-20
  6
CONTINUOUS
 62
     4
100
AcDbLine
 10
365.50140768014
 20
401.46231989076
 30
0.0
 11
365.50140768014
 21
527.49999999999
 31
0.0
  0
LINE
  5
324
330
1F
100
AcDbEntity
  8
LAY-20
  6
CONTINUOUS
 62
     4
100
AcDbLine
 10
884.49943006507
 20
519.99999999999
 30
0.0
 11
365.50140768014
 21
519.99999999999
 31
0.0
  0
LINE
  5
325
330
1F
100
AcDbEntity
  8
LAY-20
  6
CONTINUOUS
 62
     4
100
AcDbLine
 10
871.99943006507
 20
517.9166666666566
 30
0.0
 11
884.49943006507
 21
519.99999999999
 31
0.0
  0
LINE
  5
326
330
1F
100
AcDbEntity
  8
LAY-20
  6
CONTINUOUS
 62
     4
100
AcDbLine
 10
884.49943006507
 20
519.99999999999
 30
0.0
 11
871.99943006507
 21
522.0833333333234
 31
0.0
  0
LINE
  5
327
330
1F
100
AcDbEntity
  8
LAY-20
  6
CONTINUOUS
 62
     4
100
AcDbLine
 10
871.99943006507
 20
522.0833333333234
 30
0.0
 11
871.99943006507
 21
517.9166666666566
 31
0.0
  0
LINE
  5
328
330
1F
100
AcDbEntity
  8
LAY-20
  6
CONTINUOUS
 62
     4
100
AcDbLine
 10
871.99943006507
 20
518.9583333333233
 30
0.0
 11
884.49943006507
 21
519.99999999999
 31
0.0
  0
LINE
  5
329
330
1F
100
AcDbEntity
  8
LAY-20
  6
CONTINUOUS
 62
     4
100
AcDbLine
 10
884.49943006507
 20
519.99999999999
 30
0.0
 11
871.99943006507
 21
521.0416666666567
 31
0.0
  0
LINE
  5
32A
330
1F
100
AcDbEntity
  8
LAY-20
  6
CONTINUOUS
 62
     4
100
AcDbLine
 10
378.00140768014
 20
522.0833333333234
 30
0.0
 11
365.50140768014
 21
519.99999999999
 31
0.0
  0
LINE
  5
32B
330
1F
100
AcDbEntity
  8
LAY-20
  6
CONTINUOUS
 62
     4
100
AcDbLine
 10
365.50140768014
 20
519.99999999999
 30
0.0
 11
378.00140768014
 21
517.9166666666566
 31
0.0
  0
LINE
  5
32C
330
1F
100
AcDbEntity
  8
LAY-20
  6
CONTINUOUS
 62
     4
100
AcDbLine
 10
378.00140768014
 20
517.9166666666566
 30
0.0
 11
378.00140768014
 21
522.0833333333234
 31
0.0
  0
LINE
  5
32D
330
1F
100
AcDbEntity
  8
LAY-20
  6
CONTINUOUS
 62
     4
100
AcDbLine
 10
378.00140768014
 20
521.0416666666567
 30
0.0
 11
365.50140768014
 21
519.99999999999
 31
0.0
  0
LINE
  5
32E
330
1F
100
AcDbEntity
  8
LAY-20
  6
CONTINUOUS
 62
     4
100
AcDbLine
 10
365.50140768014
 20
519.99999999999
 30
0.0
 11
378.00140768014
 21
518.9583333333233
 31
0.0
  0
LINE
  5
32F
330
1F
100
AcDbEntity
  8
LAY-20
  6
CONTINUOUS
 62
     4
100
AcDbLine
 10
873.49960340465
 20
402.8205394225101
 30
0.0
 11
873.49960340465
 21
492.4999999999901
 31
0.0
  0
LINE
  5
330
330
1F
100
AcDbEntity
  8
LAY-20
  6
CONTINUOUS
 62
     4
100
AcDbLine
 10
376.50123434056
 20
402.8205394225101
 30
0.0
 11
376.50123434056
 21
492.4999999999901
 31
0.0
  0
LINE
  5
331
330
1F
100
AcDbEntity
  8
LAY-20
  6
CONTINUOUS
 62
     4
100
AcDbLine
 10
873.49960340465
 20
484.9999999999901
 30
0.0
 11
376.50123434056
 21
484.9999999999901
 31
0.0
  0
LINE
  5
332
330
1F
100
AcDbEntity
  8
LAY-20
  6
CONTINUOUS
 62
     4
100
AcDbLine
 10
860.99960340465
 20
482.9166666666567
 30
0.0
 11
873.49960340465
 21
484.9999999999901
 31
0.0
  0
LINE
  5
333
330
1F
100
AcDbEntity
  8
LAY-20
  6
CONTINUOUS
 62
     4
100
AcDbLine
 10
873.49960340465
 20
484.9999999999901
 30
0.0
 11
860.99960340465
 21
487.0833333333234
 31
0.0
  0
LINE
  5
334
330
1F
100
AcDbEntity
  8
LAY-20
  6
CONTINUOUS
 62
     4
100
AcDbLine
 10
860.99960340465
 20
487.0833333333234
 30
0.0
 11
860.99960340465
 21
482.9166666666567
 31
0.0
  0
LINE
  5
335
330
1F
100
AcDbEntity
  8
LAY-20
  6
CONTINUOUS
 62
     4
100
AcDbLine
 10
860.99960340465
 20
483.9583333333234
 30
0.0
 11
873.49960340465
 21
484.9999999999901
 31
0.0
  0
LINE
  5
336
330
1F
100
AcDbEntity
  8
LAY-20
  6
CONTINUOUS
 62
     4
100
AcDbLine
 10
873.49960340465
 20
484.9999999999901
 30
0.0
 11
860.99960340465
 21
486.0416666666567
 31
0.0
  0
LINE
  5
337
330
1F
100
AcDbEntity
  8
LAY-20
  6
CONTINUOUS
 62
     4
100
AcDbLine
 10
389.00123434056
 20
487.0833333333234
 30
0.0
 11
376.50123434056
 21
484.9999999999901
 31
0.0
  0
LINE
  5
338
330
1F
100
AcDbEntity
  8
LAY-20
  6
CONTINUOUS
 62
     4
100
AcDbLine
 10
376.50123434056
 20
484.9999999999901
 30
0.0
 11
389.00123434056
 21
482.9166666666567
 31
0.0
  0
LINE
  5
339
330
1F
100
AcDbEntity
  8
LAY-20
  6
CONTINUOUS
 62
     4
100
AcDbLine
 10
389.00123434056
 20
482.9166666666567
 30
0.0
 11
389.00123434056
 21
487.0833333333234
 31
0.0
  0
LINE
  5
33A
330
1F
100
AcDbEntity
  8
LAY-20
  6
CONTINUOUS
 62
     4
100
AcDbLine
 10
389.00123434056
 20
486.0416666666567
 30
0.0
 11
376.50123434056
 21
484.9999999999901
 31
0.0
  0
LINE
  5
33B
330
1F
100
AcDbEntity
  8
LAY-20
  6
CONTINUOUS
 62
     4
100
AcDbLine
 10
376.50123434056
 20
484.9999999999901
 30
0.0
 11
389.00123434056
 21
483.9583333333234
 31
0.0
  0
LINE
  5
33C
330
1F
100
AcDbEntity
  8
LAY-20
  6
CONTINUOUS
 62
     4
100
AcDbLine
 10
350.00137027525
 20
339.46231989076
 30
0.0
 11
350.00137027525
 21
254.46231989076
 31
0.0
  0
LINE
  5
33D
330
1F
100
AcDbEntity
  8
LAY-20
  6
CONTINUOUS
 62
     4
100
AcDbLine
 10
350.00137027525
 20
261.96231989076
 30
0.0
 11
899.99946746996
 21
261.96231989076
 31
0.0
  0
LINE
  5
33E
330
1F
100
AcDbEntity
  8
LAY-20
  6
CONTINUOUS
 62
     4
100
AcDbLine
 10
362.50137027525
 20
264.0456532240933
 30
0.0
 11
350.00137027525
 21
261.96231989076
 31
0.0
  0
LINE
  5
33F
330
1F
100
AcDbEntity
  8
LAY-20
  6
CONTINUOUS
 62
     4
100
AcDbLine
 10
350.00137027525
 20
261.96231989076
 30
0.0
 11
362.50137027525
 21
259.8789865574267
 31
0.0
  0
LINE
  5
340
330
1F
100
AcDbEntity
  8
LAY-20
  6
CONTINUOUS
 62
     4
100
AcDbLine
 10
362.50137027525
 20
259.8789865574267
 30
0.0
 11
362.50137027525
 21
264.0456532240933
 31
0.0
  0
LINE
  5
341
330
1F
100
AcDbEntity
  8
LAY-20
  6
CONTINUOUS
 62
     4
100
AcDbLine
 10
362.50137027525
 20
263.0039865574266
 30
0.0
 11
350.00137027525
 21
261.96231989076
 31
0.0
  0
LINE
  5
342
330
1F
100
AcDbEntity
  8
LAY-20
  6
CONTINUOUS
 62
     4
100
AcDbLine
 10
350.00137027525
 20
261.96231989076
 30
0.0
 11
362.50137027525
 21
260.9206532240934
 31
0.0
  0
DIMENSION
  5
344
330
1F
100
AcDbEntity
  8
LAY-20
  6
CONTINUOUS
 62
     4
100
AcDbDimension
  2
*D15
 10
1051.0686794125
 20
346.96231989076
 30
0.0
 11
1038.5686794125
 21
370.4623198907601
 31
0.0
 70
   160
  3
ISO-25
100
AcDbAlignedDimension
 13
883.62550546996
 23
393.96231989076
 33
0.0
 14
1001.0686794125
 24
346.96231989076
 34
0.0
 50
90.0
100
AcDbRotatedDimension
1001
ACAD
1000
DSTYLE
1002
{
1070
   270
1070
     2
1070
     6
1000
EX_BNORM
1070
     7
1000
EX_BNORM
1070
    41
1040
12.5
1070
    42
1040
7.5
1070
    44
1040
7.5
1070
    73
1070
     0
1070
    74
1070
     0
1070
    75
1070
     0
1070
    76
1070
     0
1070
    77
1070
     1
1070
    78
1070
     8
1070
   140
1040
15.590552
1070
   147
1040
0.0
1070
   173
1070
     1
1070
   176
1070
     4
1070
   177
1070
     4
1070
   178
1070
     7
1070
   271
1070
     1
1070
   277
1070
     2
1070
   279
1070
     2
1070
   280
1070
     0
1070
   287
1070
     5
1070
   340
1005
343
1002
}
  0
DIMENSION
  5
352
330
1F
100
AcDbEntity
  8
LAY-20
  6
CONTINUOUS
 62
     4
100
AcDbDimension
  2
*D16
 10
884.49943006507
 20
519.99999999999
 30
0.0
 11
625.000418872605
 21
532.49999999999
 31
0.0
 70
   160
  1
%%c<>
  3
ISO-25
100
AcDbAlignedDimension
 13
365.50140768014
 23
401.46231989076
 33
0.0
 14
884.49943006507
 24
401.46231989076
 34
0.0
100
AcDbRotatedDimension
1001
ACAD
1000
DSTYLE
1002
{
1070
   270
1070
     2
1070
     6
1000
EX_BNORM
1070
     7
1000
EX_BNORM
1070
    41
1040
15.0
1070
    42
1040
7.5
1070
    44
1040
7.5
1070
    73
1070
     0
1070
    74
1070
     0
1070
    75
1070
     0
1070
    76
1070
     0
1070
    77
1070
     1
1070
    78
1070
     8
1070
   140
1040
15.590552
1070
   147
1040
0.0
1070
   173
1070
     1
1070
   176
1070
     4
1070
   177
1070
     4
1070
   178
1070
     7
1070
   271
1070
     1
1070
   277
1070
     2
1070
   279
1070
     2
1070
   280
1070
     0
1070
   287
1070
     5
1070
   340
1005
343
1002
}
  0
DIMENSION
  5
35F
330
1F
100
AcDbEntity
  8
LAY-20
  6
CONTINUOUS
 62
     4
100
AcDbDimension
  2
*D17
 10
873.49960340465
 20
484.9999999999901
 30
0.0
 11
625.000418872605
 21
497.4999999999901
 31
0.0
 70
   160
  1
%%c<>
  3
ISO-25
100
AcDbAlignedDimension
 13
376.50123434056
 23
395.32053942251
 33
0.0
 14
873.49960340465
 24
395.32053942251
 34
0.0
100
AcDbRotatedDimension
1001
ACAD
1000
DSTYLE
1002
{
1070
   270
1070
     2
1070
     6
1000
EX_BNORM
1070
     7
1000
EX_BNORM
1070
    41
1040
15.0
1070
    42
1040
7.5
1070
    44
1040
7.5
1070
    73
1070
     0
1070
    74
1070
     0
1070
    75
1070
     0
1070
    76
1070
     0
1070
    77
1070
     1
1070
    78
1070
     8
1070
   140
1040
15.590552
1070
   147
1040
0.0
1070
   173
1070
     1
1070
   176
1070
     4
1070
   177
1070
     4
1070
   178
1070
     7
1070
   271
1070
     1
1070
   277
1070
     2
1070
   279
1070
     2
1070
   280
1070
     0
1070
   287
1070
     5
1070
   340
1005
343
1002
}
  0
DIMENSION
  5
36C
330
1F
100
AcDbEntity
  8
LAY-20
  6
CONTINUOUS
 62
     4
100
AcDbDimension
  2
*D18
 10
849.99946746996
 20
296.96231989076
 30
0.0
 11
625.000418872605
 21
309.46231989076
 31
0.0
 70
   160
  1
%%c<>
  3
ISO-25
100
AcDbAlignedDimension
 13
400.00137027525
 23
346.96231989076
 33
0.0
 14
849.99946746996
 24
346.96231989076
 34
0.0
100
AcDbRotatedDimension
1001
ACAD
1000
DSTYLE
1002
{
1070
   270
1070
     2
1070
     6
1000
EX_BNORM
1070
     7
1000
EX_BNORM
1070
    41
1040
15.0
1070
    42
1040
7.5
1070
    44
1040
7.5
1070
    73
1070
     0
1070
    74
1070
     0
1070
    75
1070
     0
1070
    76
1070
     0
1070
    77
1070
     1
1070
    78
1070
     8
1070
   140
1040
15.590552
1070
   147
1040
0.0
1070
   173
1070
     1
1070
   176
1070
     4
1070
   177
1070
     4
1070
   178
1070
     7
1070
   271
1070
     1
1070
   277
1070
     2
1070
   279
1070
     2
1070
   280
1070
     0
1070
   287
1070
     5
1070
   340
1005
343
1002
}
  0
DIMENSION
  5
379
330
1F
100
AcDbEntity
  8
LAY-20
  6
CONTINUOUS
 62
     4
100
AcDbDimension
  2
*D19
 10
899.99946746996
 20
261.96231989076
 30
0.0
 11
625.000418872605
 21
274.46231989076
 31
0.0
 70
   160
  1
□<>
  3
ISO-25
100
AcDbAlignedDimension
 13
350.00137027525
 23
346.96231989076
 33
0.0
 14
899.99946746996
 24
261.96231989076
 34
0.0
100
AcDbRotatedDimension
1001
ACAD
1000
DSTYLE
1002
{
1070
   270
1070
     2
1070
     6
1000
EX_BNORM
1070
     7
1000
EX_NONE
1070
    41
1040
15.0
1070
    42
1040
7.5
1070
    44
1040
7.5
1070
    73
1070
     0
1070
    74
1070
     0
1070
    75
1070
     0
1070
    76
1070
     1
1070
    77
1070
     1
1070
    78
1070
     8
1070
   140
1040
15.590552
1070
   147
1040
0.0
1070
   173
1070
     1
1070
   176
1070
     4
1070
   177
1070
     4
1070
   178
1070
     7
1070
   271
1070
     1
1070
   277
1070
     2
1070
   279
1070
     2
1070
   280
1070
     0
1070
   287
1070
     5
1070
   340
1005
343
1002
}
  0
LINE
  5
385
330
1F
100
AcDbEntity
  8
LAY-255
  6
CONTINUOUS
 62
     7
100
AcDbLine
 10
1925.0
 20
110.0
 30
0.0
 11
1425.0
 21
110.0
 31
0.0
  0
LINE
  5
386
330
1F
100
AcDbEntity
  8
LAY-255
  6
CONTINUOUS
 62
     7
100
AcDbLine
 10
1444.0
 20
79.99999999999999
 30
0.0
 11
1484.0
 21
105.0
 31
0.0
  0
LINE
  5
387
330
1F
100
AcDbEntity
  8
LAY-255
  6
CONTINUOUS
 62
     7
100
AcDbLine
 10
1484.0
 20
105.0
 30
0.0
 11
1524.0
 21
79.99999999999999
 31
0.0
  0
LINE
  5
388
330
1F
100
AcDbEntity
  8
LAY-255
  6
CONTINUOUS
 62
     7
100
AcDbLine
 10
1524.0
 20
79.99999999999999
 30
0.0
 11
1484.0
 21
55.0
 31
0.0
  0
LINE
  5
389
330
1F
100
AcDbEntity
  8
LAY-255
  6
CONTINUOUS
 62
     7
100
AcDbLine
 10
1484.0
 20
55.0
 30
0.0
 11
1444.0
 21
79.99999999999999
 31
0.0
  0
LINE
  5
38A
330
1F
100
AcDbEntity
  8
LAY-255
  6
CONTINUOUS
 62
     7
100
AcDbLine
 10
25.0
 20
50.0
 30
0.0
 11
1925.0
 21
50.0
 31
0.0
  0
LINE
  5
38B
330
1F
100
AcDbEntity
  8
LAY-255
  6
CONTINUOUS
 62
     7
100
AcDbLine
 10
25.0
 20
1400.0
 30
0.0
 11
1925.0
 21
1400.0
 31
0.0
  0
LINE
  5
38C
330
1F
100
AcDbEntity
  8
LAY-255
  6
CONTINUOUS
 62
     7
100
AcDbLine
 10
25.0
 20
50.0
 30
0.0
 11
25.0
 21
1400.0
 31
0.0
  0
LINE
  5
38D
330
1F
100
AcDbEntity
  8
LAY-255
  6
CONTINUOUS
 62
     4
100
AcDbLine
 10
1425.0
 20
140.0
 30
0.0
 11
1925.0
 21
140.0
 31
0.0
  0
LINE
  5
38E
330
1F
100
AcDbEntity
  8
LAY-255
  6
CONTINUOUS
 62
     4
100
AcDbLine
 10
1675.0
 20
140.0
 30
0.0
 11
1675.0
 21
110.0
 31
0.0
  0
POINT
  5
38F
330
1F
100
AcDbEntity
  8
LAY-255
  6
CONTINUOUS
 62
     7
100
AcDbPoint
 10
1445.0
 20
200.0
 30
0.0
  0
POINT
  5
390
330
1F
100
AcDbEntity
  8
LAY-255
  6
CONTINUOUS
 62
     7
100
AcDbPoint
 10
1445.0
 20
225.0
 30
0.0
  0
POINT
  5
391
330
1F
100
AcDbEntity
  8
LAY-255
  6
CONTINUOUS
 62
     7
100
AcDbPoint
 10
1445.0
 20
174.9999999999999
 30
0.0
  0
POINT
  5
392
330
1F
100
AcDbEntity
  8
LAY-255
  6
CONTINUOUS
 62
     7
100
AcDbPoint
 10
1445.0
 20
149.9999999999999
 30
0.0
  0
POINT
  5
393
330
1F
100
AcDbEntity
  8
LAY-255
  6
CONTINUOUS
 62
     7
100
AcDbPoint
 10
1445.0
 20
250.0
 30
0.0
  0
LINE
  5
394
330
1F
100
AcDbEntity
  8
LAY-255
  6
CONTINUOUS
 62
     7
100
AcDbLine
 10
1925.0
 20
50.0
 30
0.0
 11
1925.0
 21
1400.0
 31
0.0
  0
LINE
  5
395
330
1F
100
AcDbEntity
  8
LAY-255
  6
CONTINUOUS
 62
     7
100
AcDbLine
 10
1425.0
 20
50.0
 30
0.0
 11
1425.0
 21
335.0
 31
0.0
  0
LINE
  5
396
330
1F
100
AcDbEntity
  8
LAY-255
  6
CONTINUOUS
 62
     7
100
AcDbLine
 10
1925.0
 20
335.0
 30
0.0
 11
1425.0
 21
335.0
 31
0.0
  0
LINE
  5
397
330
1F
100
AcDbEntity
  8
LAY-255
  6
CONTINUOUS
 62
     4
100
AcDbLine
 10
1915.0
 20
275.0
 30
0.0
 11
1435.0
 21
275.0
 31
0.0
  0
LINE
  5
398
330
1F
100
AcDbEntity
  8
LAY-255
  6
CONTINUOUS
 62
     4
100
AcDbLine
 10
1915.0
 20
305.0
 30
0.0
 11
1435.0
 21
305.0
 31
0.0
  0
POINT
  5
399
330
1F
100
AcDbEntity
  8
LAY-255
  6
CONTINUOUS
 62
     7
100
AcDbPoint
 10
1500.0
 20
280.0
 30
0.0
  0
POINT
  5
39A
330
1F
100
AcDbEntity
  8
LAY-255
  6
CONTINUOUS
 62
     7
100
AcDbPoint
 10
1500.0
 20
310.0
 30
0.0
  0
TEXT
  5
39B
330
1F
100
AcDbEntity
  8
LAY-255
  6
CONTINUOUS
 62
     7
100
AcDbText
 10
1540.691894370117
 20
77.71874999999999
 30
0.0
 40
25.78125
  1
福西鋳物株式会社
 41
1.342691871783662
  7
EXCADSTD
100
AcDbText
  0
TEXT
  5
39C
330
1F
100
AcDbEntity
  8
LAY-255
  6
CONTINUOUS
 62
     7
100
AcDbText
 10
1542.546875
 20
59.90624999999999
 30
0.0
 40
8.59375
  1
ＦＵＫＵＮＩＳＨＩ
 41
1.204799226045263
  7
EXCADSTD
100
AcDbText
  0
TEXT
  5
39D
330
1F
100
AcDbEntity
  8
LAY-255
  6
CONTINUOUS
 62
     7
100
AcDbText
 10
1663.595982142857
 20
59.90624999999999
 30
0.0
 40
8.59375
  1
ＦＯＵＮＤＲＹ
 41
1.243252752978497
  7
EXCADSTD
100
AcDbText
  0
TEXT
  5
39E
330
1F
100
AcDbEntity
  8
LAY-255
  6
CONTINUOUS
 62
     7
100
AcDbText
 10
1759.97295734375
 20
59.90624999999999
 30
0.0
 40
8.59375
  1
ＣＯ.,ＬＴＤ.
 41
1.243831100341625
  7
EXCADSTD
100
AcDbText
  0
TEXT
  5
39F
330
1F
100
AcDbEntity
  8
LAY-255
  6
CONTINUOUS
 62
     7
100
AcDbText
 10
1470.171875
 20
68.59375
 30
0.0
 40
25.78125
  1
S
 41
0.7582677563636363
  7
EXCADSTD
100
AcDbText
  0
TEXT
  5
3A0
330
1F
100
AcDbEntity
  8
LAY-255
  6
CONTINUOUS
 62
     7
100
AcDbText
 10
1485.5234375
 20
68.7470518868
 30
0.0
 40
25.78125
  1
F
 41
0.7440945272727272
  7
EXCADSTD
100
AcDbText
  0
TEXT
  5
3A1
330
1F
100
AcDbEntity
  8
LAY-255
  6
CONTINUOUS
 62
     7
100
AcDbText
 10
1685.52734375
 20
122.1093749999999
 30
0.0
 40
12.890625
  1
縮尺
 41
1.080708718181818
  7
EXCADSTD
100
AcDbText
  0
TEXT
  5
3A2
330
1F
100
AcDbEntity
  8
LAY-255
  6
CONTINUOUS
 62
     7
100
AcDbText
 10
1435.76171875
 20
122.1093749999999
 30
0.0
 40
12.890625
  1
作成日
 41
1.000629973818182
  7
EXCADSTD
100
AcDbText
  0
TEXT
  5
3A3
330
1F
100
AcDbEntity
  8
LAY-255
  6
CONTINUOUS
 62
     7
100
AcDbText
 10
1741.40625
 20
117.8124999999999
 30
0.0
 40
17.1875
  1
１：５
 41
0.888661464
  7
EXCADSTD
100
AcDbText
  0
TEXT
  5
3A4
330
1F
100
AcDbEntity
  8
LAY-255
  6
CONTINUOUS
 62
     7
100
AcDbText
 10
1446.875
 20
202.8125
 30
0.0
 40
17.1875
  1
防水：簡易防水防臭型
 41
1.013466409710744
  7
EXCADSTD
100
AcDbText
  0
TEXT
  5
3A5
330
1F
100
AcDbEntity
  8
LAY-255
  6
CONTINUOUS
 62
     7
100
AcDbText
 10
1436.328125
 20
282.8125
 30
0.0
 40
17.1875
  1
型式
 41
1.056348480681818
  7
EXCADSTD
100
AcDbText
  0
TEXT
  5
3A6
330
1F
100
AcDbEntity
  8
LAY-255
  6
CONTINUOUS
 62
     7
100
AcDbText
 10
1437.109375
 20
312.8125
 30
0.0
 40
17.1875
  1
品名
 41
0.9788386340909091
  7
EXCADSTD
100
AcDbText
  0
TEXT
  5
3A7
330
1F
100
AcDbEntity
  8
LAY-255
  6
CONTINUOUS
 62
     7
100
AcDbText
 10
1501.953125
 20
312.8125
 30
0.0
 40
17.1875
  1
マンホールカバー
 41
1.015410627012987
  7
EXCADSTD
100
AcDbText
  0
TEXT
  5
3A8
330
1F
100
AcDbEntity
  8
LAY-255
  6
CONTINUOUS
 62
     7
100
AcDbText
 10
1447.265625
 20
252.8125
 30
0.0
 40
17.1875
  1
区分：軽荷重用
 41
1.007228657526081
  7
EXCADSTD
100
AcDbText
  0
TEXT
  5
3A9
330
1F
100
AcDbEntity
  8
LAY-255
  6
CONTINUOUS
 62
     7
100
AcDbText
 10
1445.703125
 20
227.8125
 30
0.0
 40
17.1875
  1
材質：ＦＲＰ製
 41
1.0269782390462
  7
EXCADSTD
100
AcDbText
  0
TEXT
  5
3AA
330
1F
100
AcDbEntity
  8
LAY-255
  6
CONTINUOUS
 62
     7
100
AcDbText
 10
1503.75
 20
282.8125
 30
0.0
 40
17.1875
  1
ＳＦ－ＭＫ－４５ＡＰ型
 41
1.0041805868791
  7
EXCADSTD
100
AcDbText
  0
TEXT
  5
3AB
330
1F
100
AcDbEntity
  8
LAY-255
  6
CONTINUOUS
 62
     7
100
AcDbText
 10
1504.453125
 20
117.8124999999999
 30
0.0
 40
17.1875
  1
０７／０１／０６
 41
0.9779528072727273
  7
EXCADSTD
100
AcDbText
  0
TEXT
  5
3AC
330
1F
100
AcDbEntity
  8
LAY-255
  6
CONTINUOUS
 62
     7
100
AcDbText
 10
1445.859375
 20
177.8124999999999
 30
0.0
 40
17.1875
  1
破壊荷重：２０ｋＮ以上
 41
1.016600426804124
  7
EXCADSTD
100
AcDbText
  0
ENDSEC
  0
SECTION
  2
OBJECTS
  0
DICTIONARY
  5
C
330
0
100
AcDbDictionary
  3
ACAD_GROUP
350
D
  3
ACAD_LAYOUT
350
1A
  3
ACAD_MATERIAL
350
43
  3
ACAD_MLEADERSTYLE
350
6B
  3
ACAD_MLINESTYLE
350
17
  3
ACAD_PLOTSETTINGS
350
19
  3
ACAD_SCALELIST
350
47
  3
ACAD_VISUALSTYLE
350
2A
  3
ACDBHEADERROUNDTRIPXREC
350
3AD
  3
ACDBVARIABLEDICTIONARY
350
3CE
  0
DICTIONARY
  5
3D9
330
8
100
AcDbDictionary
280
     1
  3
ACAD_XREC_ROUNDTRIP
360
3DA
  0
DICTIONARY
  5
D
102
{ACAD_REACTORS
330
C
102
}
330
C
100
AcDbDictionary
  0
DICTIONARY
  5
1A
102
{ACAD_REACTORS
330
C
102
}
330
C
100
AcDbDictionary
  0
DICTIONARY
  5
43
102
{ACAD_REACTORS
330
C
102
}
330
C
100
AcDbDictionary
  3
BYBLOCK
350
45
  3
BYLAYER
350
44
  3
GLOBAL
350
46
  0
DICTIONARY
  5
6B
102
{ACAD_REACTORS
330
C
102
}
330
C
100
AcDbDictionary
  3
STANDARD
350
6C
  0
DICTIONARY
  5
17
102
{ACAD_REACTORS
330
C
102
}
330
C
100
AcDbDictionary
  3
STANDARD
350
18
  0
DICTIONARY
  5
19
102
{ACAD_REACTORS
330
C
102
}
330
C
100
AcDbDictionary
  0
DICTIONARY
  5
47
102
{ACAD_REACTORS
330
C
102
}
330
C
100
AcDbDictionary
  3
A0
350
48
  3
A1
350
49
  3
A2
350
4A
  3
A3
350
4B
  3
A4
350
4C
  3
A5
350
4D
  3
A6
350
4E
  3
A7
350
4F
  3
A8
350
50
  3
A9
350
51
  3
B0
350
52
  3
B1
350
53
  3
B2
350
54
  3
B3
350
55
  3
B4
350
56
  3
B5
350
57
  3
B6
350
58
  3
B7
350
59
  3
B8
350
5A
  3
B9
350
5B
  3
C0
350
5C
  3
C1
350
5D
  3
C2
350
5E
  3
C3
350
5F
  3
C4
350
60
  3
C5
350
61
  3
C6
350
62
  3
C7
350
63
  3
C8
350
64
  3
C9
350
65
  3
D0
350
66
  3
D1
350
67
  3
D2
350
68
  0
DICTIONARY
  5
2A
102
{ACAD_REACTORS
330
C
102
}
330
C
100
AcDbDictionary
  3
2DWIREFRAME
350
2F
  3
BASIC
350
32
  3
BRIGHTEN
350
36
  3
COLORCHANGE
350
3A
  3
CONCEPTUAL
350
34
  3
DIM
350
35
  3
EDGECOLOROFF
350
3D
  3
FACEPATTERN
350
39
  3
FLAT
350
2B
  3
FLATWITHEDGES
350
2C
  3
GOURAUD
350
2D
  3
GOURAUDWITHEDGES
350
2E
  3
HIDDEN
350
31
  3
JITTEROFF
350
3B
  3
LINEPATTERN
350
38
  3
OVERHANGOFF
350
3C
  3
REALISTIC
350
33
  3
SHADED
350
42
  3
SHADED_WITH_EDGES
350
41
  3
SHADES_OF_GRAY
350
3E
  3
SKETCHY
350
3F
  3
THICKEN
350
37
  3
WIREFRAME
350
30
  3
X-RAY
350
40
  0
DICTIONARY
  5
3AD
102
{ACAD_REACTORS
330
C
102
}
330
C
100
AcDbDictionary
  3
CEPSNID
350
3B7
  3
CEPSNTYPE
350
3B6
  3
DIMSTYLEDATA
350
3CD
  3
FINGERPRINTGUID
350
3B8
  3
HYPERLINKBASE
350
3B0
  3
INSUNITS
350
3B5
  3
LAYOUTDICT
350
3B2
  3
LWETCUNION
350
3B4
  3
PLOTSETDICT
350
3B3
  3
PSVPSCALE
350
3BA
  3
PUCSBASE
350
3BD
  3
PUCSORGBACK
350
3C3
  3
PUCSORGBOTTOM
350
3BF
  3
PUCSORGFRONT
350
3C2
  3
PUCSORGLEFT
350
3C0
  3
PUCSORGRIGHT
350
3C1
  3
PUCSORGTOP
350
3BE
  3
PUCSORTHOREF
350
3BB
  3
PUCSORTHOVIEW
350
3BC
  3
STYLESHEET
350
3B1
  3
TSTACKALIGN
350
3AE
  3
TSTACKSIZE
350
3AF
  3
UCSBASE
350
3C6
  3
UCSORGBACK
350
3CC
  3
UCSORGBOTTOM
350
3C8
  3
UCSORGFRONT
350
3CB
  3
UCSORGLEFT
350
3C9
  3
UCSORGRIGHT
350
3CA
  3
UCSORGTOP
350
3C7
  3
UCSORTHOREF
350
3C4
  3
UCSORTHOVIEW
350
3C5
  3
VERSIONGUID
350
3B9
  0
DICTIONARY
  5
3CE
102
{ACAD_REACTORS
330
C
102
}
330
C
100
AcDbDictionary
  3
CANNOSCALE
350
3DB
  3
CENTEREXE
350
3D5
  3
CENTERLTYPEFILE
350
3D6
  3
CMLEADERSTYLE
350
3D0
  3
CTABLESTYLE
350
3CF
  3
DIMASSOC
350
3D7
  3
HIDETEXT
350
3D8
  3
MSLTSCALE
350
3DC
  3
PSOLHEIGHT
350
3D2
  3
PSOLWIDTH
350
3D1
  0
XRECORD
  5
3DA
102
{ACAD_REACTORS
330
3D9
102
}
330
3D9
100
AcDbXrecord
102
VTR_0.000_0.000_1.000_1.000_VISUALSTYLE
340
2F
102
VTR_0.000_0.000_1.000_1.000_GRIDDISPLAY
 70
     3
102
VTR_0.000_0.000_1.000_1.000_GRIDMAJOR
 70
     5
102
VTR_0.000_0.000_1.000_1.000_DEFAULTLIGHTING
280
     1
102
VTR_0.000_0.000_1.000_1.000_DEFAULTLIGHTINGTYPE
 70
     1
102
VTR_0.000_0.000_1.000_1.000_BRIGHTNESS
141
0.0
102
VTR_0.000_0.000_1.000_1.000_CONTRAST
142
0.0
  0
MATERIAL
  5
45
102
{ACAD_REACTORS
330
43
102
}
102
{ACAD_XDICTIONARY
360
3DF
102
}
330
43
100
AcDbMaterial
  1
BYBLOCK
  0
MATERIAL
  5
44
102
{ACAD_REACTORS
330
43
102
}
102
{ACAD_XDICTIONARY
360
3DD
102
}
330
43
100
AcDbMaterial
  1
BYLAYER
  0
MATERIAL
  5
46
102
{ACAD_REACTORS
330
43
102
}
102
{ACAD_XDICTIONARY
360
3E1
102
}
330
43
100
AcDbMaterial
  1
GLOBAL
  0
ACAD_PROXY_OBJECT
  5
6C
102
{ACAD_REACTORS
330
6B
102
}
330
6B
100
AcDbProxyObject
 90
      499
 91
      505
 93
      610
310
40901902A4063FBFFFFFE0000000000000020400000000000020404214DD185B99185C990000000000000104090141901A00000000000004100000000000000041025764000000000000039000
340
14
340
0
340
11
340
0
 94
        0
1001
ACAD_MLEADERVER
1070
     2
  0
MLINESTYLE
  5
18
102
{ACAD_REACTORS
330
17
102
}
330
17
100
AcDbMlineStyle
  2
Standard
 70
     0
  3

 62
   256
 51
90.0
 52
90.0
 71
     2
 49
0.5
 62
   256
  6
BYLAYER
 49
-0.5
 62
   256
  6
BYLAYER
  0
ACAD_PROXY_OBJECT
  5
48
102
{ACAD_REACTORS
330
47
102
}
330
47
100
AcDbProxyObject
 90
      499
 91
      503
 93
       41
310
903313A31580
  0
ACAD_PROXY_OBJECT
  5
49
102
{ACAD_REACTORS
330
47
102
}
330
47
100
AcDbProxyObject
 90
      499
 91
      503
 93
      105
310
903313A324000000000000004000
  0
ACAD_PROXY_OBJECT
  5
4A
102
{ACAD_REACTORS
330
47
102
}
330
47
100
AcDbProxyObject
 90
      499
 91
      503
 93
      105
310
903313A344000000000000104000
  0
ACAD_PROXY_OBJECT
  5
4B
102
{ACAD_REACTORS
330
47
102
}
330
47
100
AcDbProxyObject
 90
      499
 91
      503
 93
      105
310
903313A354000000000000144000
  0
ACAD_PROXY_OBJECT
  5
4C
102
{ACAD_REACTORS
330
47
102
}
330
47
100
AcDbProxyObject
 90
      499
 91
      503
 93
      105
310
903313A384000000000000204000
  0
ACAD_PROXY_OBJECT
  5
4D
102
{ACAD_REACTORS
330
47
102
}
330
47
100
AcDbProxyObject
 90
      499
 91
      503
 93
      113
310
904313A31304000000000000244000
  0
ACAD_PROXY_OBJECT
  5
4E
102
{ACAD_REACTORS
330
47
102
}
330
47
100
AcDbProxyObject
 90
      499
 91
      503
 93
      113
310
904313A31364000000000000304000
  0
ACAD_PROXY_OBJECT
  5
4F
102
{ACAD_REACTORS
330
47
102
}
330
47
100
AcDbProxyObject
 90
      499
 91
      503
 93
      113
310
904313A32304000000000000344000
  0
ACAD_PROXY_OBJECT
  5
50
102
{ACAD_REACTORS
330
47
102
}
330
47
100
AcDbProxyObject
 90
      499
 91
      503
 93
      113
310
904313A333040000000000003E4000
  0
ACAD_PROXY_OBJECT
  5
51
102
{ACAD_REACTORS
330
47
102
}
330
47
100
AcDbProxyObject
 90
      499
 91
      503
 93
      113
310
904313A34304000000000000444000
  0
ACAD_PROXY_OBJECT
  5
52
102
{ACAD_REACTORS
330
47
102
}
330
47
100
AcDbProxyObject
 90
      499
 91
      503
 93
      113
310
904313A35304000000000000494000
  0
ACAD_PROXY_OBJECT
  5
53
102
{ACAD_REACTORS
330
47
102
}
330
47
100
AcDbProxyObject
 90
      499
 91
      503
 93
      121
310
905313A3130304000000000000594000
  0
ACAD_PROXY_OBJECT
  5
54
102
{ACAD_REACTORS
330
47
102
}
330
47
100
AcDbProxyObject
 90
      499
 91
      503
 93
      105
310
903323A310000000000000010100
  0
ACAD_PROXY_OBJECT
  5
55
102
{ACAD_REACTORS
330
47
102
}
330
47
100
AcDbProxyObject
 90
      499
 91
      503
 93
      105
310
903343A310000000000000410100
  0
ACAD_PROXY_OBJECT
  5
56
102
{ACAD_REACTORS
330
47
102
}
330
47
100
AcDbProxyObject
 90
      499
 91
      503
 93
      105
310
903383A310000000000000810100
  0
ACAD_PROXY_OBJECT
  5
57
102
{ACAD_REACTORS
330
47
102
}
330
47
100
AcDbProxyObject
 90
      499
 91
      503
 93
      113
310
90431303A310000000000000910100
  0
ACAD_PROXY_OBJECT
  5
58
102
{ACAD_REACTORS
330
47
102
}
330
47
100
AcDbProxyObject
 90
      499
 91
      503
 93
      121
310
9053130303A310000000000001650100
  0
ACAD_PROXY_OBJECT
  5
59
102
{ACAD_REACTORS
330
47
102
}
330
47
100
AcDbProxyObject
 90
      499
 91
      503
 93
      257
310
90E312F31323822203D2031272D3022000000000000200FC000000000000284000
  0
ACAD_PROXY_OBJECT
  5
5A
102
{ACAD_REACTORS
330
47
102
}
330
47
100
AcDbProxyObject
 90
      499
 91
      503
 93
      249
310
90D312F363422203D2031272D3022000000000000240FC000000000000284000
  0
ACAD_PROXY_OBJECT
  5
5B
102
{ACAD_REACTORS
330
47
102
}
330
47
100
AcDbProxyObject
 90
      499
 91
      503
 93
      249
310
90D312F333222203D2031272D3022000000000000280FC000000000000284000
  0
ACAD_PROXY_OBJECT
  5
5C
102
{ACAD_REACTORS
330
47
102
}
330
47
100
AcDbProxyObject
 90
      499
 91
      503
 93
      249
310
90D312F313622203D2031272D30220000000000002C0FC000000000000284000
  0
ACAD_PROXY_OBJECT
  5
5D
102
{ACAD_REACTORS
330
47
102
}
330
47
100
AcDbProxyObject
 90
      499
 91
      503
 93
      249
310
90D332F333222203D2031272D30220000000000002E0FC000000000000284000
  0
ACAD_PROXY_OBJECT
  5
5E
102
{ACAD_REACTORS
330
47
102
}
330
47
100
AcDbProxyObject
 90
      499
 91
      503
 93
      241
310
90C312F3822203D2031272D3022000000000000300FC000000000000284000
  0
ACAD_PROXY_OBJECT
  5
5F
102
{ACAD_REACTORS
330
47
102
}
330
47
100
AcDbProxyObject
 90
      499
 91
      503
 93
      249
310
90D332F313622203D2031272D3022000000000000320FC000000000000284000
  0
ACAD_PROXY_OBJECT
  5
60
102
{ACAD_REACTORS
330
47
102
}
330
47
100
AcDbProxyObject
 90
      499
 91
      503
 93
      241
310
90C312F3422203D2031272D3022000000000000340FC000000000000284000
  0
ACAD_PROXY_OBJECT
  5
61
102
{ACAD_REACTORS
330
47
102
}
330
47
100
AcDbProxyObject
 90
      499
 91
      503
 93
      241
310
90C332F3822203D2031272D3022000000000000360FC000000000000284000
  0
ACAD_PROXY_OBJECT
  5
62
102
{ACAD_REACTORS
330
47
102
}
330
47
100
AcDbProxyObject
 90
      499
 91
      503
 93
      241
310
90C312F3222203D2031272D3022000000000000380FC000000000000284000
  0
ACAD_PROXY_OBJECT
  5
63
102
{ACAD_REACTORS
330
47
102
}
330
47
100
AcDbProxyObject
 90
      499
 91
      503
 93
      241
310
90C332F3422203D2031272D30220000000000003A0FC000000000000284000
  0
ACAD_PROXY_OBJECT
  5
64
102
{ACAD_REACTORS
330
47
102
}
330
47
100
AcDbProxyObject
 90
      499
 91
      503
 93
      161
310
90A3122203D2031272D30224000000000000284000
  0
ACAD_PROXY_OBJECT
  5
65
102
{ACAD_REACTORS
330
47
102
}
330
47
100
AcDbProxyObject
 90
      499
 91
      503
 93
      257
310
90E312D312F3222203D2031272D30220000000000003E0FC000000000000284000
  0
ACAD_PROXY_OBJECT
  5
66
102
{ACAD_REACTORS
330
47
102
}
330
47
100
AcDbProxyObject
 90
      499
 91
      503
 93
      225
310
90A3322203D2031272D302200000000000002100000000000000284000
  0
ACAD_PROXY_OBJECT
  5
67
102
{ACAD_REACTORS
330
47
102
}
330
47
100
AcDbProxyObject
 90
      499
 91
      503
 93
      225
310
90A3622203D2031272D302200000000000006100000000000000284000
  0
ACAD_PROXY_OBJECT
  5
68
102
{ACAD_REACTORS
330
47
102
}
330
47
100
AcDbProxyObject
 90
      499
 91
      503
 93
      249
310
90D31272D3022203D2031272D30220000000000000A100000000000000284000
  0
ACAD_PROXY_OBJECT
  5
2F
102
{ACAD_REACTORS
330
2A
102
}
330
2A
100
AcDbProxyObject
 90
      499
 91
      501
 93
      436
310
42CC9915DA5C99599C985B595049028333333333333E33F0000000000000F90107901411070040501600405405064090741402480A0340
1001
ACAD
1000
AcDbSavedByObjectVersion
1070
     0
  0
ACAD_PROXY_OBJECT
  5
32
102
{ACAD_REACTORS
330
2A
102
}
330
2A
100
AcDbProxyObject
 90
      499
 91
      501
 93
      388
310
4150985CDA58D07406404333333333333E33F0000000000000F90107A41107004050150841D405064090741402480A0350
1001
ACAD
1000
AcDbSavedByObjectVersion
1070
     0
  0
ACAD_PROXY_OBJECT
  5
36
102
{ACAD_REACTORS
330
2A
102
}
330
2A
100
AcDbProxyObject
 90
      499
 91
      501
 93
      428
310
42109C9A59DA1D195B90C409028333333333333E33F0000000000000F9010790141107004050150841D405064090741402480A029950
1001
ACAD
1000
AcDbSavedByObjectVersion
1070
     0
  0
ACAD_PROXY_OBJECT
  5
3A
102
{ACAD_REACTORS
330
2A
102
}
330
2A
100
AcDbProxyObject
 90
      499
 91
      501
 93
      452
310
42D0DBDB1BDC90DA185B99D95104090240C333333333333E33F0000000000000F90108901411070040501508421405064090741402480A0350
1001
ACAD
1000
AcDbSavedByObjectVersion
1070
     0
  0
ACAD_PROXY_OBJECT
  5
34
102
{ACAD_REACTORS
330
2A
102
}
330
2A
100
AcDbProxyObject
 90
      499
 91
      501
 93
      500
310
4290DBDB98D95C1D1D585B10940D028333333333333E33F0000000000000F90107902409070040501000000000018199010841D405064090740C02480A0340
1001
ACAD
1000
AcDbSavedByObjectVersion
1070
     0
  0
ACAD_PROXY_OBJECT
  5
35
102
{ACAD_REACTORS
330
2A
102
}
330
2A
100
AcDbProxyObject
 90
      499
 91
      501
 93
      412
310
40D11A5B50B409028333333333333E33F0000000000000F9010790141107004050150841D405064090741402480A02677FFFFFD0
1001
ACAD
1000
AcDbSavedByObjectVersion
1070
     0
  0
ACAD_PROXY_OBJECT
  5
3D
102
{ACAD_REACTORS
330
2A
102
}
330
2A
100
AcDbProxyObject
 90
      499
 91
      501
 93
      452
310
43115919D950DBDB1BDC93D999916409028333333333333E33F0000000000000F9010790141107004050150841D405064090741402480A0350
1001
ACAD
1000
AcDbSavedByObjectVersion
1070
     0
  0
ACAD_PROXY_OBJECT
  5
39
102
{ACAD_REACTORS
330
2A
102
}
330
2A
100
AcDbProxyObject
 90
      499
 91
      501
 93
      444
310
42D19858D95C185D1D195C9B90F409028333333333333E33F0000000000000F9010790141107004050150841D405064090741402480A0350
1001
ACAD
1000
AcDbSavedByObjectVersion
1070
     0
  0
ACAD_PROXY_OBJECT
  5
2B
102
{ACAD_REACTORS
330
2A
102
}
330
2A
100
AcDbProxyObject
 90
      499
 91
      501
 93
      380
310
41119B185D240901404333333333333E33F0000000000000F9010740A907004050150841D405064090741402480A1B50
1001
ACAD
1000
AcDbSavedByObjectVersion
1070
     0
  0
ACAD_PROXY_OBJECT
  5
2C
102
{ACAD_REACTORS
330
2A
102
}
330
2A
100
AcDbProxyObject
 90
      499
 91
      501
 93
      468
310
43519B185D15DA5D1A115919D95CD0140901404333333333333E33F0000000000000F90107409019070040501600405405064090741402480A1B50
1001
ACAD
1000
AcDbSavedByObjectVersion
1070
     0
  0
ACAD_PROXY_OBJECT
  5
2D
102
{ACAD_REACTORS
330
2A
102
}
330
2A
100
AcDbProxyObject
 90
      499
 91
      501
 93
      404
310
41D1DBDD5C985D5910240902404333333333333E33F0000000000000F9010740A9070040501641D405064090741402480A1B50
1001
ACAD
1000
AcDbSavedByObjectVersion
1070
     0
  0
ACAD_PROXY_OBJECT
  5
2E
102
{ACAD_REACTORS
330
2A
102
}
330
2A
100
AcDbProxyObject
 90
      499
 91
      501
 93
      492
310
4411DBDD5C985D5915DA5D1A115919D95CD0340902404333333333333E33F0000000000000F90107409019070040501600405405064090741402480A1B50
1001
ACAD
1000
AcDbSavedByObjectVersion
1070
     0
  0
ACAD_PROXY_OBJECT
  5
31
102
{ACAD_REACTORS
330
2A
102
}
330
2A
100
AcDbProxyObject
 90
      499
 91
      501
 93
      476
310
41921A5919195B90640502408333333333333E33F0000000000000F901079024090700405020000000000001110200405405064090740C02480A0340
1001
ACAD
1000
AcDbSavedByObjectVersion
1070
     0
  0
ACAD_PROXY_OBJECT
  5
3B
102
{ACAD_REACTORS
330
2A
102
}
330
2A
100
AcDbProxyObject
 90
      499
 91
      501
 93
      428
310
42529A5D1D195C93D999914409028333333333333E33F0000000000000F9010790141107004050150A41D405064090741402480A0350
1001
ACAD
1000
AcDbSavedByObjectVersion
1070
     0
  0
ACAD_PROXY_OBJECT
  5
38
102
{ACAD_REACTORS
330
2A
102
}
330
2A
100
AcDbProxyObject
 90
      499
 91
      501
 93
      444
310
42D31A5B995C185D1D195C9B90E409028333333333333E33F0000000000000F9010790141107004050750841D405064090741402483A0350
1001
ACAD
1000
AcDbSavedByObjectVersion
1070
     0
  0
ACAD_PROXY_OBJECT
  5
3C
102
{ACAD_REACTORS
330
2A
102
}
330
2A
100
AcDbProxyObject
 90
      499
 91
      501
 93
      444
310
42D3DD995C9A185B99D3D999915409028333333333333E33F0000000000000F9010790141107004050150941D405064090741402480A0350
1001
ACAD
1000
AcDbSavedByObjectVersion
1070
     0
  0
ACAD_PROXY_OBJECT
  5
33
102
{ACAD_REACTORS
330
2A
102
}
330
2A
100
AcDbProxyObject
 90
      499
 91
      501
 93
      428
310
425499585B1A5CDD1A58D08409038333333333333E33F0000000000000F9010740A907004050150800405405064090740C02480A1B40
1001
ACAD
1000
AcDbSavedByObjectVersion
1070
     0
  0
ACAD_PROXY_OBJECT
  5
42
102
{ACAD_REACTORS
330
2A
102
}
330
2A
100
AcDbProxyObject
 90
      499
 91
      501
 93
      420
310
4194DA1859195911B40902404333333333333E33F0000000000000F9010740A41107004050150800405405064090840C02480A0B40
1001
ACAD
1000
AcDbSavedByObjectVersion
1070
     0
  0
ACAD_PROXY_OBJECT
  5
41
102
{ACAD_REACTORS
330
2A
102
}
330
2A
100
AcDbProxyObject
 90
      499
 91
      501
 93
      516
310
4454DA18591959081DDA5D1A08195919D95CD1A40902404333333333333E33F0000000000000F901074090142907004050250800405405064090740C02480A0B40
1001
ACAD
1000
AcDbSavedByObjectVersion
1070
     0
  0
ACAD_PROXY_OBJECT
  5
3E
102
{ACAD_REACTORS
330
2A
102
}
330
2A
100
AcDbProxyObject
 90
      499
 91
      501
 93
      532
310
4394DA1859195CC81BD98811DC985E5174090240C333333333333E33F0000000000000F901079024090741D01000000000000111010841D405064090740C02480A0340
1001
ACAD
1000
AcDbSavedByObjectVersion
1070
     0
  0
ACAD_PROXY_OBJECT
  5
3F
102
{ACAD_REACTORS
330
2A
102
}
330
2A
100
AcDbProxyObject
 90
      499
 91
      501
 93
      476
310
41D4DAD95D18DA1E51840502408333333333333E33F0000000000000F901079024090741D01000000000000111010B41D405064090741802480A0340
1001
ACAD
1000
AcDbSavedByObjectVersion
1070
     0
  0
ACAD_PROXY_OBJECT
  5
37
102
{ACAD_REACTORS
330
2A
102
}
330
2A
100
AcDbProxyObject
 90
      499
 91
      501
 93
      412
310
41D51A1A58DAD95B90D409028333333333333E33F0000000000000F9010790141107004050150C41D405064090741402480A0350
1001
ACAD
1000
AcDbSavedByObjectVersion
1070
     0
  0
ACAD_PROXY_OBJECT
  5
30
102
{ACAD_REACTORS
330
2A
102
}
330
2A
100
AcDbProxyObject
 90
      499
 91
      501
 93
      420
310
4255DA5C99599C985B595059028333333333333E33F0000000000000F90107901411070040501600405405064090740C02480A0340
1001
ACAD
1000
AcDbSavedByObjectVersion
1070
     0
  0
ACAD_PROXY_OBJECT
  5
40
102
{ACAD_REACTORS
330
2A
102
}
330
2A
100
AcDbProxyObject
 90
      499
 91
      501
 93
      404
310
41560B54985E51940902404000000000000E03F0000000000000F9010740501907004050150841D405064090740C02480A1B40
1001
ACAD
1000
AcDbSavedByObjectVersion
1070
     0
  0
XRECORD
  5
3B7
102
{ACAD_REACTORS
330
3AD
102
}
330
3AD
100
AcDbXrecord
340
0
  0
XRECORD
  5
3B6
102
{ACAD_REACTORS
330
3AD
102
}
330
3AD
100
AcDbXrecord
 90
        0
  0
XRECORD
  5
3CD
102
{ACAD_REACTORS
330
3AD
102
}
330
3AD
100
AcDbXrecord
1000
DSTYLE
1002
{
1070
   340
340
11
1002
}
  0
XRECORD
  5
3B8
102
{ACAD_REACTORS
330
3AD
102
}
330
3AD
100
AcDbXrecord
  1
{3621ee29-80c6-4716-a6bb-a13c6f24bf4d}
  0
XRECORD
  5
3B0
102
{ACAD_REACTORS
330
3AD
102
}
330
3AD
100
AcDbXrecord
  1

  0
XRECORD
  5
3B5
102
{ACAD_REACTORS
330
3AD
102
}
330
3AD
100
AcDbXrecord
 90
        4
  0
XRECORD
  5
3B2
102
{ACAD_REACTORS
330
3AD
102
}
330
3AD
100
AcDbXrecord
340
1A
  0
XRECORD
  5
3B4
102
{ACAD_REACTORS
330
3AD
102
}
330
3AD
100
AcDbXrecord
 90
    10781
  0
XRECORD
  5
3B3
102
{ACAD_REACTORS
330
3AD
102
}
330
3AD
100
AcDbXrecord
340
19
  0
XRECORD
  5
3BA
102
{ACAD_REACTORS
330
3AD
102
}
330
3AD
100
AcDbXrecord
 40
0.0
  0
XRECORD
  5
3BD
102
{ACAD_REACTORS
330
3AD
102
}
330
3AD
100
AcDbXrecord
340
0
  0
XRECORD
  5
3C3
102
{ACAD_REACTORS
330
3AD
102
}
330
3AD
100
AcDbXrecord
 10
0.0
 20
0.0
 30
0.0
  0
XRECORD
  5
3BF
102
{ACAD_REACTORS
330
3AD
102
}
330
3AD
100
AcDbXrecord
 10
0.0
 20
0.0
 30
0.0
  0
XRECORD
  5
3C2
102
{ACAD_REACTORS
330
3AD
102
}
330
3AD
100
AcDbXrecord
 10
0.0
 20
0.0
 30
0.0
  0
XRECORD
  5
3C0
102
{ACAD_REACTORS
330
3AD
102
}
330
3AD
100
AcDbXrecord
 10
0.0
 20
0.0
 30
0.0
  0
XRECORD
  5
3C1
102
{ACAD_REACTORS
330
3AD
102
}
330
3AD
100
AcDbXrecord
 10
0.0
 20
0.0
 30
0.0
  0
XRECORD
  5
3BE
102
{ACAD_REACTORS
330
3AD
102
}
330
3AD
100
AcDbXrecord
 10
0.0
 20
0.0
 30
0.0
  0
XRECORD
  5
3BB
102
{ACAD_REACTORS
330
3AD
102
}
330
3AD
100
AcDbXrecord
340
0
  0
XRECORD
  5
3BC
102
{ACAD_REACTORS
330
3AD
102
}
330
3AD
100
AcDbXrecord
 70
     0
  0
XRECORD
  5
3B1
102
{ACAD_REACTORS
330
3AD
102
}
330
3AD
100
AcDbXrecord
  1

  0
XRECORD
  5
3AE
102
{ACAD_REACTORS
330
3AD
102
}
330
3AD
100
AcDbXrecord
 90
        1
  0
XRECORD
  5
3AF
102
{ACAD_REACTORS
330
3AD
102
}
330
3AD
100
AcDbXrecord
 90
       70
  0
XRECORD
  5
3C6
102
{ACAD_REACTORS
330
3AD
102
}
330
3AD
100
AcDbXrecord
340
0
  0
XRECORD
  5
3CC
102
{ACAD_REACTORS
330
3AD
102
}
330
3AD
100
AcDbXrecord
 10
0.0
 20
0.0
 30
0.0
  0
XRECORD
  5
3C8
102
{ACAD_REACTORS
330
3AD
102
}
330
3AD
100
AcDbXrecord
 10
0.0
 20
0.0
 30
0.0
  0
XRECORD
  5
3CB
102
{ACAD_REACTORS
330
3AD
102
}
330
3AD
100
AcDbXrecord
 10
0.0
 20
0.0
 30
0.0
  0
XRECORD
  5
3C9
102
{ACAD_REACTORS
330
3AD
102
}
330
3AD
100
AcDbXrecord
 10
0.0
 20
0.0
 30
0.0
  0
XRECORD
  5
3CA
102
{ACAD_REACTORS
330
3AD
102
}
330
3AD
100
AcDbXrecord
 10
0.0
 20
0.0
 30
0.0
  0
XRECORD
  5
3C7
102
{ACAD_REACTORS
330
3AD
102
}
330
3AD
100
AcDbXrecord
 10
0.0
 20
0.0
 30
0.0
  0
XRECORD
  5
3C4
102
{ACAD_REACTORS
330
3AD
102
}
330
3AD
100
AcDbXrecord
340
0
  0
XRECORD
  5
3C5
102
{ACAD_REACTORS
330
3AD
102
}
330
3AD
100
AcDbXrecord
 70
     0
  0
XRECORD
  5
3B9
102
{ACAD_REACTORS
330
3AD
102
}
330
3AD
100
AcDbXrecord
  1
{FAEB1C32-E019-11D5-929B-00C0DF256EC4}
  0
DICTIONARYVAR
  5
3DB
102
{ACAD_REACTORS
330
3CE
102
}
330
3CE
100
DictionaryVariables
280
     0
  1
1:1
  0
DICTIONARYVAR
  5
3D5
102
{ACAD_REACTORS
330
3CE
102
}
330
3CE
100
DictionaryVariables
280
     0
  1
3.500000
  0
DICTIONARYVAR
  5
3D6
102
{ACAD_REACTORS
330
3CE
102
}
330
3CE
100
DictionaryVariables
280
     0
  1
acadiso.lin
  0
DICTIONARYVAR
  5
3D0
102
{ACAD_REACTORS
330
3CE
102
}
330
3CE
100
DictionaryVariables
280
     0
  1
Standard
  0
DICTIONARYVAR
  5
3CF
102
{ACAD_REACTORS
330
3CE
102
}
330
3CE
100
DictionaryVariables
280
     0
  1
Standard
  0
DICTIONARYVAR
  5
3D7
102
{ACAD_REACTORS
330
3CE
102
}
330
3CE
100
DictionaryVariables
280
     0
  1
2
  0
DICTIONARYVAR
  5
3D8
102
{ACAD_REACTORS
330
3CE
102
}
330
3CE
100
DictionaryVariables
280
     0
  1
1
  0
DICTIONARYVAR
  5
3DC
102
{ACAD_REACTORS
330
3CE
102
}
330
3CE
100
DictionaryVariables
280
     0
  1
1
  0
DICTIONARYVAR
  5
3D2
102
{ACAD_REACTORS
330
3CE
102
}
330
3CE
100
DictionaryVariables
280
     0
  1
80.000000
  0
DICTIONARYVAR
  5
3D1
102
{ACAD_REACTORS
330
3CE
102
}
330
3CE
100
DictionaryVariables
280
     0
  1
5.000000
  0
DICTIONARY
  5
3DF
330
45
100
AcDbDictionary
280
     1
  3
ACAD_XREC_ROUNDTRIP
360
3E0
  0
DICTIONARY
  5
3DD
330
44
100
AcDbDictionary
280
     1
  3
ACAD_XREC_ROUNDTRIP
360
3DE
  0
DICTIONARY
  5
3E1
330
46
100
AcDbDictionary
280
     1
  3
ACAD_XREC_ROUNDTRIP
360
3E2
  0
XRECORD
  5
3E0
102
{ACAD_REACTORS
330
3DF
102
}
330
3DF
100
AcDbXrecord
102
MATERIAL
148
0.0
149
0.0
149
0.0
 93
        0
 94
      127
282
     0
 72
     1
 77
     1
171
     1
175
     1
179
     1
273
     0
  0
XRECORD
  5
3DE
102
{ACAD_REACTORS
330
3DD
102
}
330
3DD
100
AcDbXrecord
102
MATERIAL
148
0.0
149
0.0
149
0.0
 93
        0
 94
      127
282
     0
 72
     1
 77
     1
171
     1
175
     1
179
     1
273
     0
  0
XRECORD
  5
3E2
102
{ACAD_REACTORS
330
3E1
102
}
330
3E1
100
AcDbXrecord
102
MATERIAL
148
0.0
149
0.0
149
0.0
 93
        0
 94
      127
282
     0
 72
     1
 77
     1
171
     1
175
     1
179
     1
273
     0
  0
ENDSEC
  0
EOF
