  0
SECTION
  2
HEADER
  9
$ACADVER
  1
AC1014
  9
$ACADMAINTVER
 70
     9
  9
$DWGCODEPAGE
  3
ANSI_932
  9
$INSBASE
 10
0.0
 20
0.0
 30
0.0
  9
$EXTMIN
 10
25.0
 20
50.0
 30
0.0
  9
$EXTMAX
 10
1925.0
 20
1400.0
 30
0.0
  9
$LIMMIN
 10
0.0
 20
0.0
  9
$LIMMAX
 10
420.0
 20
297.0
  9
$ORTHOMODE
 70
     0
  9
$REGENMODE
 70
     1
  9
$FILLMODE
 70
     1
  9
$QTEXTMODE
 70
     0
  9
$MIRRTEXT
 70
     1
  9
$DRAGMODE
 70
     2
  9
$LTSCALE
 40
0.2
  9
$OSMODE
 70
    37
  9
$ATTMODE
 70
     1
  9
$TEXTSIZE
 40
2.5
  9
$TRACEWID
 40
1.0
  9
$TEXTSTYLE
  7
STANDARD
  9
$CLAYER
  8
LAY-10
  9
$CELTYPE
  6
BYLAYER
  9
$CECOLOR
 62
   256
  9
$CELTSCALE
 40
1.0
  9
$DELOBJ
 70
     1
  9
$DISPSILH
 70
     0
  9
$DIMSCALE
 40
1.0
  9
$DIMASZ
 40
2.5
  9
$DIMEXO
 40
0.625
  9
$DIMDLI
 40
3.75
  9
$DIMRND
 40
0.0
  9
$DIMDLE
 40
0.0
  9
$DIMEXE
 40
1.25
  9
$DIMTP
 40
0.0
  9
$DIMTM
 40
0.0
  9
$DIMTXT
 40
2.5
  9
$DIMCEN
 40
2.5
  9
$DIMTSZ
 40
0.0
  9
$DIMTOL
 70
     0
  9
$DIMLIM
 70
     0
  9
$DIMTIH
 70
     0
  9
$DIMTOH
 70
     0
  9
$DIMSE1
 70
     0
  9
$DIMSE2
 70
     0
  9
$DIMTAD
 70
     1
  9
$DIMZIN
 70
     8
  9
$DIMBLK
  1

  9
$DIMASO
 70
     1
  9
$DIMSHO
 70
     1
  9
$DIMPOST
  1

  9
$DIMAPOST
  1

  9
$DIMALT
 70
     0
  9
$DIMALTD
 70
     3
  9
$DIMALTF
 40
0.03937007874016
  9
$DIMLFAC
 40
1.0
  9
$DIMTOFL
 70
     1
  9
$DIMTVP
 40
0.0
  9
$DIMTIX
 70
     0
  9
$DIMSOXD
 70
     0
  9
$DIMSAH
 70
     0
  9
$DIMBLK1
  1

  9
$DIMBLK2
  1

  9
$DIMSTYLE
  2
ISO-25
  9
$DIMCLRD
 70
     0
  9
$DIMCLRE
 70
     0
  9
$DIMCLRT
 70
     0
  9
$DIMTFAC
 40
1.0
  9
$DIMGAP
 40
0.625
  9
$DIMJUST
 70
     0
  9
$DIMSD1
 70
     0
  9
$DIMSD2
 70
     0
  9
$DIMTOLJ
 70
     0
  9
$DIMTZIN
 70
     8
  9
$DIMALTZ
 70
     0
  9
$DIMALTTZ
 70
     0
  9
$DIMFIT
 70
     3
  9
$DIMUPT
 70
     0
  9
$DIMUNIT
 70
     2
  9
$DIMDEC
 70
     2
  9
$DIMTDEC
 70
     2
  9
$DIMALTU
 70
     2
  9
$DIMALTTD
 70
     3
  9
$DIMTXSTY
  7
STANDARD
  9
$DIMAUNIT
 70
     0
  9
$LUNITS
 70
     2
  9
$LUPREC
 70
     4
  9
$SKETCHINC
 40
1.0
  9
$FILLETRAD
 40
10.0
  9
$AUNITS
 70
     0
  9
$AUPREC
 70
     0
  9
$MENU
  1
.
  9
$ELEVATION
 40
0.0
  9
$PELEVATION
 40
0.0
  9
$THICKNESS
 40
0.0
  9
$LIMCHECK
 70
     0
  9
$CHAMFERA
 40
0.0
  9
$CHAMFERB
 40
0.0
  9
$CHAMFERC
 40
0.0
  9
$CHAMFERD
 40
0.0
  9
$SKPOLY
 70
     0
  9
$TDCREATE
 40
2459229.336714294
  9
$TDUPDATE
 40
2459229.336714711
  9
$TDINDWG
 40
0.0000000116
  9
$TDUSRTIMER
 40
0.0000000116
  9
$USRTIMER
 70
     1
  9
$ANGBASE
 50
0.0
  9
$ANGDIR
 70
     0
  9
$PDMODE
 70
     0
  9
$PDSIZE
 40
0.0
  9
$PLINEWID
 40
0.0
  9
$COORDS
 70
     1
  9
$SPLFRAME
 70
     0
  9
$SPLINETYPE
 70
     6
  9
$SPLINESEGS
 70
     8
  9
$ATTDIA
 70
     0
  9
$ATTREQ
 70
     1
  9
$HANDLING
 70
     1
  9
$HANDSEED
  5
3BA
  9
$SURFTAB1
 70
     6
  9
$SURFTAB2
 70
     6
  9
$SURFTYPE
 70
     6
  9
$SURFU
 70
     6
  9
$SURFV
 70
     6
  9
$UCSNAME
  2

  9
$UCSORG
 10
0.0
 20
0.0
 30
0.0
  9
$UCSXDIR
 10
1.0
 20
0.0
 30
0.0
  9
$UCSYDIR
 10
0.0
 20
1.0
 30
0.0
  9
$PUCSNAME
  2

  9
$PUCSORG
 10
0.0
 20
0.0
 30
0.0
  9
$PUCSXDIR
 10
1.0
 20
0.0
 30
0.0
  9
$PUCSYDIR
 10
0.0
 20
1.0
 30
0.0
  9
$USERI1
 70
     0
  9
$USERI2
 70
     0
  9
$USERI3
 70
     0
  9
$USERI4
 70
     0
  9
$USERI5
 70
     0
  9
$USERR1
 40
0.0
  9
$USERR2
 40
0.0
  9
$USERR3
 40
0.0
  9
$USERR4
 40
0.0
  9
$USERR5
 40
0.0
  9
$WORLDVIEW
 70
     1
  9
$SHADEDGE
 70
     3
  9
$SHADEDIF
 70
    70
  9
$TILEMODE
 70
     1
  9
$MAXACTVP
 70
    64
  9
$PINSBASE
 10
0.0
 20
0.0
 30
0.0
  9
$PLIMCHECK
 70
     0
  9
$PEXTMIN
 10
1.000000000000000E+20
 20
1.000000000000000E+20
 30
1.000000000000000E+20
  9
$PEXTMAX
 10
-1.000000000000000E+20
 20
-1.000000000000000E+20
 30
-1.000000000000000E+20
  9
$PLIMMIN
 10
0.0
 20
0.0
  9
$PLIMMAX
 10
420.0
 20
297.0
  9
$UNITMODE
 70
     0
  9
$VISRETAIN
 70
     1
  9
$PLINEGEN
 70
     0
  9
$PSLTSCALE
 70
     1
  9
$TREEDEPTH
 70
  3020
  9
$PICKSTYLE
 70
     1
  9
$CMLSTYLE
  2
STANDARD
  9
$CMLJUST
 70
     0
  9
$CMLSCALE
 40
20.0
  9
$PROXYGRAPHICS
 70
     1
  9
$MEASUREMENT
 70
     1
  0
ENDSEC
  0
SECTION
  2
CLASSES
  0
CLASS
  1
ACDBDICTIONARYWDFLT
  2
AcDbDictionaryWithDefault
  3
ObjectDBX Classes
 90
        0
280
     0
281
     0
  0
CLASS
  1
VISUALSTYLE
  2
AcDbVisualStyle
  3
ObjectDBX Classes
 90
     4095
280
     0
281
     0
  0
CLASS
  1
MATERIAL
  2
AcDbMaterial
  3
ObjectDBX Classes
 90
     1153
280
     0
281
     0
  0
CLASS
  1
SCALE
  2
AcDbScale
  3
ObjectDBX Classes
 90
     1153
280
     0
281
     0
  0
CLASS
  1
TABLESTYLE
  2
AcDbTableStyle
  3
ObjectDBX Classes
 90
     4095
280
     0
281
     0
  0
CLASS
  1
MLEADERSTYLE
  2
AcDbMLeaderStyle
  3
ACDB_MLEADERSTYLE_CLASS
 90
     4095
280
     0
281
     0
  0
CLASS
  1
SUN
  2
AcDbSun
  3
SCENEOE
 90
     1153
280
     0
281
     0
  0
CLASS
  1
DICTIONARYVAR
  2
AcDbDictionaryVar
  3
ObjectDBX Classes
 90
        0
280
     0
281
     0
  0
CLASS
  1
XRECORD
  2
AcDbXrecord
  3
ObjectDBX Classes
 90
        0
280
     0
281
     0
  0
CLASS
  1
LWPOLYLINE
  2
AcDbPolyline
  3
ObjectDBX Classes
 90
        0
280
     0
281
     1
  0
CLASS
  1
HATCH
  2
AcDbHatch
  3
ObjectDBX Classes
 90
        0
280
     0
281
     1
  0
CLASS
  1
ACDBPLACEHOLDER
  2
AcDbPlaceHolder
  3
ObjectDBX Classes
 90
        0
280
     0
281
     0
  0
CLASS
  1
LAYOUT
  2
AcDbLayout
  3
ObjectDBX Classes
 90
        0
280
     0
281
     0
  0
ENDSEC
  0
SECTION
  2
TABLES
  0
TABLE
  2
VPORT
  5
8
102
{ACAD_XDICTIONARY
360
3AF
102
}
330
0
100
AcDbSymbolTable
 70
     1
  0
VPORT
  5
29
330
8
100
AcDbSymbolTableRecord
100
AcDbViewportTableRecord
  2
*ACTIVE
 70
     0
 10
0.0
 20
0.0
 11
1.0
 21
1.0
 12
975.0000000000001
 22
725.0
 13
0.0
 23
0.0
 14
10.0
 24
10.0
 15
10.0
 25
10.0
 16
0.0
 26
0.0
 36
1.0
 17
0.0
 27
0.0
 37
0.0
 40
1350.0
 41
1.407407407407408
 42
50.0
 43
0.0
 44
0.0
 50
0.0
 51
0.0
 71
     0
 72
  1000
 73
     1
 74
     3
 75
     0
 76
     0
 77
     0
 78
     0
  0
ENDTAB
  0
TABLE
  2
LTYPE
  5
5
330
0
100
AcDbSymbolTable
 70
     6
  0
LTYPE
  5
14
330
5
100
AcDbSymbolTableRecord
100
AcDbLinetypeTableRecord
  2
BYBLOCK
 70
     0
  3

 72
    65
 73
     0
 40
0.0
  0
LTYPE
  5
15
330
5
100
AcDbSymbolTableRecord
100
AcDbLinetypeTableRecord
  2
BYLAYER
 70
     0
  3

 72
    65
 73
     0
 40
0.0
  0
LTYPE
  5
16
330
5
100
AcDbSymbolTableRecord
100
AcDbLinetypeTableRecord
  2
CONTINUOUS
 70
     0
  3
Solid line
 72
    65
 73
     0
 40
0.0
  0
LTYPE
  5
6E
330
5
100
AcDbSymbolTableRecord
100
AcDbLinetypeTableRecord
  2
HIDDEN
 70
     0
  3
Hidden __ __ __ __ __ __ __ __ __ __ __ __ __ __
 72
    65
 73
     2
 40
9.524999999999999
 49
6.35
 74
     0
 49
-3.175
 74
     0
  0
LTYPE
  5
6F
330
5
100
AcDbSymbolTableRecord
100
AcDbLinetypeTableRecord
  2
CENTER
 70
     0
  3
Center ____ _ ____ _ ____ _ ____ _ ____ _ ____
 72
    65
 73
     4
 40
50.8
 49
31.75
 74
     0
 49
-6.35
 74
     0
 49
6.35
 74
     0
 49
-6.35
 74
     0
  0
LTYPE
  5
70
330
5
100
AcDbSymbolTableRecord
100
AcDbLinetypeTableRecord
  2
PHANTOM
 70
     0
  3
Phantom ______  __  __  ______  __  __  ______ 
 72
    65
 73
     6
 40
63.50000000000001
 49
31.75
 74
     0
 49
-6.35
 74
     0
 49
6.35
 74
     0
 49
-6.35
 74
     0
 49
6.35
 74
     0
 49
-6.35
 74
     0
  0
LTYPE
  5
71
330
5
100
AcDbSymbolTableRecord
100
AcDbLinetypeTableRecord
  2
ACAD_ISO06W100
 70
     0
  3
ISO long-dash triple-dot ____ ... ____ ... ____
 72
    65
 73
     8
 40
36.0
 49
24.0
 74
     0
 49
-3.0
 74
     0
 49
0.0
 74
     0
 49
-3.0
 74
     0
 49
0.0
 74
     0
 49
-3.0
 74
     0
 49
0.0
 74
     0
 49
-3.0
 74
     0
  0
LTYPE
  5
72
330
5
100
AcDbSymbolTableRecord
100
AcDbLinetypeTableRecord
  2
ACAD_ISO15W100
 70
     0
  3
ISO double-dash triple-dot __ __ . . . __ __ . .
 72
    65
 73
    10
 40
39.0
 49
12.0
 74
     0
 49
-3.0
 74
     0
 49
12.0
 74
     0
 49
-3.0
 74
     0
 49
0.0
 74
     0
 49
-3.0
 74
     0
 49
0.0
 74
     0
 49
-3.0
 74
     0
 49
0.0
 74
     0
 49
-3.0
 74
     0
  0
ENDTAB
  0
TABLE
  2
LAYER
  5
2
330
0
100
AcDbSymbolTable
 70
     6
  0
LAYER
  5
10
330
2
100
AcDbSymbolTableRecord
100
AcDbLayerTableRecord
  2
0
 70
     0
 62
     7
  6
CONTINUOUS
  0
LAYER
  5
75
330
2
100
AcDbSymbolTableRecord
100
AcDbLayerTableRecord
  2
LAY-10
 70
     0
 62
     7
  6
CONTINUOUS
  0
LAYER
  5
76
330
2
100
AcDbSymbolTableRecord
100
AcDbLayerTableRecord
  2
LAY-11
 70
     0
 62
     7
  6
CONTINUOUS
  0
LAYER
  5
77
330
2
100
AcDbSymbolTableRecord
100
AcDbLayerTableRecord
  2
LAY-20
 70
     0
 62
     7
  6
CONTINUOUS
  0
LAYER
  5
78
330
2
100
AcDbSymbolTableRecord
100
AcDbLayerTableRecord
  2
LAY-255
 70
     0
 62
     7
  6
CONTINUOUS
  0
LAYER
  5
31A
330
2
100
AcDbSymbolTableRecord
100
AcDbLayerTableRecord
  2
DEFPOINTS
 70
     0
 62
     7
  6
CONTINUOUS
  0
ENDTAB
  0
TABLE
  2
STYLE
  5
3
330
0
100
AcDbSymbolTable
 70
     4
  0
STYLE
  5
11
330
3
100
AcDbSymbolTableRecord
100
AcDbTextStyleTableRecord
  2
STANDARD
 70
     0
 40
0.0
 41
1.0
 50
0.0
 71
     0
 42
2.5
  3
simplex
  4
bigfont
  0
STYLE
  5
73
330
3
100
AcDbSymbolTableRecord
100
AcDbTextStyleTableRecord
  2
EXCADSTD
 70
     0
 40
0.0
 41
1.0
 50
0.0
 71
     0
 42
2.5
  3
simplex
  4
bigfont
  0
STYLE
  5
74
330
3
100
AcDbSymbolTableRecord
100
AcDbTextStyleTableRecord
  2
EXCADVERT
 70
     4
 40
0.0
 41
1.0
 50
0.0
 71
     0
 42
2.5
  3
simplex
  4
bigfont
  0
STYLE
  5
318
330
3
100
AcDbSymbolTableRecord
100
AcDbTextStyleTableRecord
  2
EXCADDIM1
 70
     0
 40
0.0
 41
0.84
 50
0.0
 71
     0
 42
2.5
  3
simplex
  4
bigfont
  0
ENDTAB
  0
TABLE
  2
VIEW
  5
6
330
0
100
AcDbSymbolTable
 70
     0
  0
ENDTAB
  0
TABLE
  2
UCS
  5
7
330
0
100
AcDbSymbolTable
 70
     0
  0
ENDTAB
  0
TABLE
  2
APPID
  5
9
330
0
100
AcDbSymbolTable
 70
     2
  0
APPID
  5
12
330
9
100
AcDbSymbolTableRecord
100
AcDbRegAppTableRecord
  2
ACAD
 70
     0
  0
APPID
  5
3B9
330
9
100
AcDbSymbolTableRecord
100
AcDbRegAppTableRecord
  2
ACAD_MLEADERVER
 70
     0
  0
ENDTAB
  0
TABLE
  2
DIMSTYLE
  5
A
330
0
100
AcDbSymbolTable
 70
     1
  0
DIMSTYLE
105
27
102
{ACAD_REACTORS
330
319
330
327
330
334
330
341
330
34E
102
}
330
A
100
AcDbSymbolTableRecord
100
AcDbDimStyleTableRecord
  2
ISO-25
 70
     0
  3

  4

  5

  6

  7

 40
1.0
 41
2.5
 42
0.625
 43
3.75
 44
1.25
 45
0.0
 46
0.0
 47
0.0
 48
0.0
140
2.5
141
2.5
142
0.0
143
0.03937007874016
144
1.0
145
0.0
146
1.0
147
0.625
 71
     0
 72
     0
 73
     0
 74
     0
 75
     0
 76
     0
 77
     1
 78
     8
170
     0
171
     3
172
     1
173
     0
174
     0
175
     0
176
     0
177
     0
178
     0
270
     2
271
     2
272
     2
273
     2
274
     3
340
11
275
     0
280
     0
281
     0
282
     0
283
     0
284
     8
285
     0
286
     0
287
     5
288
     0
  0
ENDTAB
  0
TABLE
  2
BLOCK_RECORD
  5
1
330
0
100
AcDbSymbolTable
 70
    19
  0
BLOCK_RECORD
  5
1F
330
1
100
AcDbSymbolTableRecord
100
AcDbBlockTableRecord
  2
*MODEL_SPACE
  0
BLOCK_RECORD
  5
1B
330
1
100
AcDbSymbolTableRecord
100
AcDbBlockTableRecord
  2
*PAPER_SPACE
  0
BLOCK_RECORD
  5
79
330
1
100
AcDbSymbolTableRecord
100
AcDbBlockTableRecord
  2
EX_NORM
  0
BLOCK_RECORD
  5
7C
330
1
100
AcDbSymbolTableRecord
100
AcDbBlockTableRecord
  2
EX_BNORM
  0
BLOCK_RECORD
  5
7F
330
1
100
AcDbSymbolTableRecord
100
AcDbBlockTableRecord
  2
EX_BCIR
  0
BLOCK_RECORD
  5
82
330
1
100
AcDbSymbolTableRecord
100
AcDbBlockTableRecord
  2
EX_RCIVIL
  0
BLOCK_RECORD
  5
85
330
1
100
AcDbSymbolTableRecord
100
AcDbBlockTableRecord
  2
EX_SLANT
  0
BLOCK_RECORD
  5
88
330
1
100
AcDbSymbolTableRecord
100
AcDbBlockTableRecord
  2
EX_NONE
  0
BLOCK_RECORD
  5
8B
330
1
100
AcDbSymbolTableRecord
100
AcDbBlockTableRecord
  2
EX_CIVIL
  0
BLOCK_RECORD
  5
8E
330
1
100
AcDbSymbolTableRecord
100
AcDbBlockTableRecord
  2
EX_WCIR
  0
BLOCK_RECORD
  5
91
330
1
100
AcDbSymbolTableRecord
100
AcDbBlockTableRecord
  2
EX_WCIR2
  0
BLOCK_RECORD
  5
94
330
1
100
AcDbSymbolTableRecord
100
AcDbBlockTableRecord
  2
EX_WNORM
  0
BLOCK_RECORD
  5
97
330
1
100
AcDbSymbolTableRecord
100
AcDbBlockTableRecord
  2
EX_NNORM
  0
BLOCK_RECORD
  5
9A
330
1
100
AcDbSymbolTableRecord
100
AcDbBlockTableRecord
  2
EX_BBOX
  0
BLOCK_RECORD
  5
9D
330
1
100
AcDbSymbolTableRecord
100
AcDbBlockTableRecord
  2
EX_WBOX
  0
BLOCK_RECORD
  5
A0
330
1
100
AcDbSymbolTableRecord
100
AcDbBlockTableRecord
  2
EX_INTEGRAL
  0
BLOCK_RECORD
  5
31B
330
1
100
AcDbSymbolTableRecord
100
AcDbBlockTableRecord
  2
*D15
  0
BLOCK_RECORD
  5
328
330
1
100
AcDbSymbolTableRecord
100
AcDbBlockTableRecord
  2
*D16
  0
BLOCK_RECORD
  5
335
330
1
100
AcDbSymbolTableRecord
100
AcDbBlockTableRecord
  2
*D17
  0
BLOCK_RECORD
  5
342
330
1
100
AcDbSymbolTableRecord
100
AcDbBlockTableRecord
  2
*D18
  0
BLOCK_RECORD
  5
34F
330
1
100
AcDbSymbolTableRecord
100
AcDbBlockTableRecord
  2
*D19
  0
ENDTAB
  0
ENDSEC
  0
SECTION
  2
BLOCKS
  0
BLOCK
  5
20
330
1F
100
AcDbEntity
  8
0
100
AcDbBlockBegin
  2
*MODEL_SPACE
 70
     0
 10
0.0
 20
0.0
 30
0.0
  3
*MODEL_SPACE
  1

  0
ENDBLK
  5
21
330
1F
100
AcDbEntity
  8
0
100
AcDbBlockEnd
  0
BLOCK
  5
1C
330
1B
100
AcDbEntity
 67
     1
  8
0
100
AcDbBlockBegin
  2
*PAPER_SPACE
 70
     0
 10
0.0
 20
0.0
 30
0.0
  3
*PAPER_SPACE
  1

  0
ENDBLK
  5
1D
330
1B
100
AcDbEntity
 67
     1
  8
0
100
AcDbBlockEnd
  0
BLOCK
  5
7A
330
79
100
AcDbEntity
  8
0
100
AcDbBlockBegin
  2
EX_NORM
 70
     0
 10
0.0
 20
0.0
 30
0.0
  3
EX_NORM
  1

  0
LINE
  5
A3
330
79
100
AcDbEntity
  8
0
  6
CONTINUOUS
 62
     0
100
AcDbLine
 10
0.0
 20
0.0
 30
0.0
 11
-1.0
 21
0.0
 31
0.0
  0
LINE
  5
A4
330
79
100
AcDbEntity
  8
0
  6
CONTINUOUS
 62
     0
100
AcDbLine
 10
0.0
 20
0.0
 30
0.0
 11
-1.0
 21
0.166666667
 31
0.0
  0
LINE
  5
A5
330
79
100
AcDbEntity
  8
0
  6
CONTINUOUS
 62
     0
100
AcDbLine
 10
0.0
 20
0.0
 30
0.0
 11
-1.0
 21
-0.166666667
 31
0.0
  0
ENDBLK
  5
7B
330
79
100
AcDbEntity
  8
0
100
AcDbBlockEnd
  0
BLOCK
  5
7D
330
7C
100
AcDbEntity
  8
0
100
AcDbBlockBegin
  2
EX_BNORM
 70
     0
 10
0.0
 20
0.0
 30
0.0
  3
EX_BNORM
  1

  0
LINE
  5
A6
330
7C
100
AcDbEntity
  8
0
  6
CONTINUOUS
 62
     0
100
AcDbLine
 10
0.0
 20
0.0
 30
0.0
 11
-1.0
 21
0.0
 31
0.0
  0
LINE
  5
A7
330
7C
100
AcDbEntity
  8
0
  6
CONTINUOUS
 62
     0
100
AcDbLine
 10
0.0
 20
0.0
 30
0.0
 11
-1.0
 21
0.166666667
 31
0.0
  0
LINE
  5
A8
330
7C
100
AcDbEntity
  8
0
  6
CONTINUOUS
 62
     0
100
AcDbLine
 10
0.0
 20
0.0
 30
0.0
 11
-1.0
 21
-0.166666667
 31
0.0
  0
LINE
  5
A9
330
7C
100
AcDbEntity
  8
0
  6
CONTINUOUS
 62
     0
100
AcDbLine
 10
0.0
 20
0.0
 30
0.0
 11
-1.0
 21
0.083333333
 31
0.0
  0
LINE
  5
AA
330
7C
100
AcDbEntity
  8
0
  6
CONTINUOUS
 62
     0
100
AcDbLine
 10
0.0
 20
0.0
 30
0.0
 11
-1.0
 21
-0.083333333
 31
0.0
  0
LINE
  5
AB
330
7C
100
AcDbEntity
  8
0
  6
CONTINUOUS
 62
     0
100
AcDbLine
 10
-1.0
 20
0.166666667
 30
0.0
 11
-1.0
 21
-0.166666667
 31
0.0
  0
ENDBLK
  5
7E
330
7C
100
AcDbEntity
  8
0
100
AcDbBlockEnd
  0
BLOCK
  5
80
330
7F
100
AcDbEntity
  8
0
100
AcDbBlockBegin
  2
EX_BCIR
 70
     0
 10
0.0
 20
0.0
 30
0.0
  3
EX_BCIR
  1

  0
LINE
  5
AC
330
7F
100
AcDbEntity
  8
0
  6
CONTINUOUS
 62
     0
100
AcDbLine
 10
0.0
 20
0.0
 30
0.0
 11
-1.0
 21
0.0
 31
0.0
  0
CIRCLE
  5
AD
330
7F
100
AcDbEntity
  8
0
  6
CONTINUOUS
 62
     0
100
AcDbCircle
 10
0.0
 20
0.0
 30
0.0
 40
0.5
  0
CIRCLE
  5
AE
330
7F
100
AcDbEntity
  8
0
  6
CONTINUOUS
 62
     0
100
AcDbCircle
 10
0.0
 20
0.0
 30
0.0
 40
0.25
  0
ENDBLK
  5
81
330
7F
100
AcDbEntity
  8
0
100
AcDbBlockEnd
  0
BLOCK
  5
83
330
82
100
AcDbEntity
  8
0
100
AcDbBlockBegin
  2
EX_RCIVIL
 70
     0
 10
0.0
 20
0.0
 30
0.0
  3
EX_RCIVIL
  1

  0
LINE
  5
AF
330
82
100
AcDbEntity
  8
0
  6
CONTINUOUS
 62
     0
100
AcDbLine
 10
0.0
 20
0.0
 30
0.0
 11
-1.0
 21
0.0
 31
0.0
  0
LINE
  5
B0
330
82
100
AcDbEntity
  8
0
  6
CONTINUOUS
 62
     0
100
AcDbLine
 10
-1.0
 20
-0.25
 30
0.0
 11
0.0
 21
-0.25
 31
0.0
  0
LINE
  5
B1
330
82
100
AcDbEntity
  8
0
  6
CONTINUOUS
 62
     0
100
AcDbLine
 10
-1.0
 20
-0.125
 30
0.0
 11
0.0
 21
-0.125
 31
0.0
  0
ENDBLK
  5
84
330
82
100
AcDbEntity
  8
0
100
AcDbBlockEnd
  0
BLOCK
  5
86
330
85
100
AcDbEntity
  8
0
100
AcDbBlockBegin
  2
EX_SLANT
 70
     0
 10
0.0
 20
0.0
 30
0.0
  3
EX_SLANT
  1

  0
LINE
  5
B2
330
85
100
AcDbEntity
  8
0
  6
CONTINUOUS
 62
     0
100
AcDbLine
 10
0.0
 20
0.0
 30
0.0
 11
-1.0
 21
0.0
 31
0.0
  0
LINE
  5
B3
330
85
100
AcDbEntity
  8
0
  6
CONTINUOUS
 62
     0
100
AcDbLine
 10
0.707106781
 20
0.707106781
 30
0.0
 11
-0.707106781
 21
-0.707106781
 31
0.0
  0
ENDBLK
  5
87
330
85
100
AcDbEntity
  8
0
100
AcDbBlockEnd
  0
BLOCK
  5
89
330
88
100
AcDbEntity
  8
0
100
AcDbBlockBegin
  2
EX_NONE
 70
     0
 10
0.0
 20
0.0
 30
0.0
  3
EX_NONE
  1

  0
LINE
  5
B4
330
88
100
AcDbEntity
  8
0
  6
CONTINUOUS
 62
     0
100
AcDbLine
 10
0.0
 20
0.0
 30
0.0
 11
-1.0
 21
0.0
 31
0.0
  0
ENDBLK
  5
8A
330
88
100
AcDbEntity
  8
0
100
AcDbBlockEnd
  0
BLOCK
  5
8C
330
8B
100
AcDbEntity
  8
0
100
AcDbBlockBegin
  2
EX_CIVIL
 70
     0
 10
0.0
 20
0.0
 30
0.0
  3
EX_CIVIL
  1

  0
LINE
  5
B5
330
8B
100
AcDbEntity
  8
0
  6
CONTINUOUS
 62
     0
100
AcDbLine
 10
0.0
 20
0.0
 30
0.0
 11
-1.0
 21
0.0
 31
0.0
  0
LINE
  5
B6
330
8B
100
AcDbEntity
  8
0
  6
CONTINUOUS
 62
     0
100
AcDbLine
 10
-1.0
 20
0.25
 30
0.0
 11
0.0
 21
0.25
 31
0.0
  0
LINE
  5
B7
330
8B
100
AcDbEntity
  8
0
  6
CONTINUOUS
 62
     0
100
AcDbLine
 10
-1.0
 20
0.125
 30
0.0
 11
0.0
 21
0.125
 31
0.0
  0
ENDBLK
  5
8D
330
8B
100
AcDbEntity
  8
0
100
AcDbBlockEnd
  0
BLOCK
  5
8F
330
8E
100
AcDbEntity
  8
0
100
AcDbBlockBegin
  2
EX_WCIR
 70
     0
 10
0.0
 20
0.0
 30
0.0
  3
EX_WCIR
  1

  0
LINE
  5
B8
330
8E
100
AcDbEntity
  8
0
  6
CONTINUOUS
 62
     0
100
AcDbLine
 10
0.0
 20
0.0
 30
0.0
 11
-1.0
 21
0.0
 31
0.0
  0
CIRCLE
  5
B9
330
8E
100
AcDbEntity
  8
0
  6
CONTINUOUS
 62
     0
100
AcDbCircle
 10
0.0
 20
0.0
 30
0.0
 40
0.5
  0
ENDBLK
  5
90
330
8E
100
AcDbEntity
  8
0
100
AcDbBlockEnd
  0
BLOCK
  5
92
330
91
100
AcDbEntity
  8
0
100
AcDbBlockBegin
  2
EX_WCIR2
 70
     0
 10
0.0
 20
0.0
 30
0.0
  3
EX_WCIR2
  1

  0
LINE
  5
BA
330
91
100
AcDbEntity
  8
0
  6
CONTINUOUS
 62
     0
100
AcDbLine
 10
-0.5
 20
0.0
 30
0.0
 11
-1.0
 21
0.0
 31
0.0
  0
CIRCLE
  5
BB
330
91
100
AcDbEntity
  8
0
  6
CONTINUOUS
 62
     0
100
AcDbCircle
 10
0.0
 20
0.0
 30
0.0
 40
0.5
  0
ENDBLK
  5
93
330
91
100
AcDbEntity
  8
0
100
AcDbBlockEnd
  0
BLOCK
  5
95
330
94
100
AcDbEntity
  8
0
100
AcDbBlockBegin
  2
EX_WNORM
 70
     0
 10
0.0
 20
0.0
 30
0.0
  3
EX_WNORM
  1

  0
LINE
  5
BC
330
94
100
AcDbEntity
  8
0
  6
CONTINUOUS
 62
     0
100
AcDbLine
 10
-1.0
 20
0.0
 30
0.0
 11
-1.0
 21
0.0
 31
0.0
  0
LINE
  5
BD
330
94
100
AcDbEntity
  8
0
  6
CONTINUOUS
 62
     0
100
AcDbLine
 10
0.0
 20
0.0
 30
0.0
 11
-1.0
 21
0.166666667
 31
0.0
  0
LINE
  5
BE
330
94
100
AcDbEntity
  8
0
  6
CONTINUOUS
 62
     0
100
AcDbLine
 10
0.0
 20
0.0
 30
0.0
 11
-1.0
 21
-0.166666667
 31
0.0
  0
LINE
  5
BF
330
94
100
AcDbEntity
  8
0
  6
CONTINUOUS
 62
     0
100
AcDbLine
 10
-1.0
 20
0.166666667
 30
0.0
 11
-1.0
 21
-0.166666667
 31
0.0
  0
ENDBLK
  5
96
330
94
100
AcDbEntity
  8
0
100
AcDbBlockEnd
  0
BLOCK
  5
98
330
97
100
AcDbEntity
  8
0
100
AcDbBlockBegin
  2
EX_NNORM
 70
     0
 10
0.0
 20
0.0
 30
0.0
  3
EX_NNORM
  1

  0
LINE
  5
C0
330
97
100
AcDbEntity
  8
0
  6
CONTINUOUS
 62
     0
100
AcDbLine
 10
0.0
 20
0.0
 30
0.0
 11
-1.0
 21
0.0
 31
0.0
  0
LINE
  5
C1
330
97
100
AcDbEntity
  8
0
  6
CONTINUOUS
 62
     0
100
AcDbLine
 10
0.0
 20
0.0
 30
0.0
 11
-1.0
 21
0.166666667
 31
0.0
  0
LINE
  5
C2
330
97
100
AcDbEntity
  8
0
  6
CONTINUOUS
 62
     0
100
AcDbLine
 10
0.0
 20
0.0
 30
0.0
 11
-1.0
 21
-0.166666667
 31
0.0
  0
LINE
  5
C3
330
97
100
AcDbEntity
  8
0
  6
CONTINUOUS
 62
     0
100
AcDbLine
 10
-1.0
 20
0.166666667
 30
0.0
 11
-1.0
 21
-0.166666667
 31
0.0
  0
ENDBLK
  5
99
330
97
100
AcDbEntity
  8
0
100
AcDbBlockEnd
  0
BLOCK
  5
9B
330
9A
100
AcDbEntity
  8
0
100
AcDbBlockBegin
  2
EX_BBOX
 70
     0
 10
0.0
 20
0.0
 30
0.0
  3
EX_BBOX
  1

  0
LINE
  5
C4
330
9A
100
AcDbEntity
  8
0
  6
CONTINUOUS
 62
     0
100
AcDbLine
 10
0.0
 20
0.0
 30
0.0
 11
-1.0
 21
0.0
 31
0.0
  0
LINE
  5
C5
330
9A
100
AcDbEntity
  8
0
  6
CONTINUOUS
 62
     0
100
AcDbLine
 10
-0.5
 20
0.5
 30
0.0
 11
0.5
 21
0.5
 31
0.0
  0
LINE
  5
C6
330
9A
100
AcDbEntity
  8
0
  6
CONTINUOUS
 62
     0
100
AcDbLine
 10
0.5
 20
0.5
 30
0.0
 11
0.5
 21
-0.5
 31
0.0
  0
LINE
  5
C7
330
9A
100
AcDbEntity
  8
0
  6
CONTINUOUS
 62
     0
100
AcDbLine
 10
0.5
 20
-0.5
 30
0.0
 11
-0.5
 21
-0.5
 31
0.0
  0
LINE
  5
C8
330
9A
100
AcDbEntity
  8
0
  6
CONTINUOUS
 62
     0
100
AcDbLine
 10
-0.5
 20
-0.5
 30
0.0
 11
-0.5
 21
0.5
 31
0.0
  0
LINE
  5
C9
330
9A
100
AcDbEntity
  8
0
  6
CONTINUOUS
 62
     0
100
AcDbLine
 10
-0.25
 20
0.25
 30
0.0
 11
0.25
 21
0.25
 31
0.0
  0
LINE
  5
CA
330
9A
100
AcDbEntity
  8
0
  6
CONTINUOUS
 62
     0
100
AcDbLine
 10
0.25
 20
0.25
 30
0.0
 11
0.25
 21
-0.25
 31
0.0
  0
LINE
  5
CB
330
9A
100
AcDbEntity
  8
0
  6
CONTINUOUS
 62
     0
100
AcDbLine
 10
0.25
 20
-0.25
 30
0.0
 11
-0.25
 21
-0.25
 31
0.0
  0
LINE
  5
CC
330
9A
100
AcDbEntity
  8
0
  6
CONTINUOUS
 62
     0
100
AcDbLine
 10
-0.25
 20
-0.25
 30
0.0
 11
-0.25
 21
0.25
 31
0.0
  0
ENDBLK
  5
9C
330
9A
100
AcDbEntity
  8
0
100
AcDbBlockEnd
  0
BLOCK
  5
9E
330
9D
100
AcDbEntity
  8
0
100
AcDbBlockBegin
  2
EX_WBOX
 70
     0
 10
0.0
 20
0.0
 30
0.0
  3
EX_WBOX
  1

  0
LINE
  5
CD
330
9D
100
AcDbEntity
  8
0
  6
CONTINUOUS
 62
     0
100
AcDbLine
 10
-0.5
 20
0.0
 30
0.0
 11
-1.0
 21
0.0
 31
0.0
  0
LINE
  5
CE
330
9D
100
AcDbEntity
  8
0
  6
CONTINUOUS
 62
     0
100
AcDbLine
 10
-0.5
 20
0.5
 30
0.0
 11
0.5
 21
0.5
 31
0.0
  0
LINE
  5
CF
330
9D
100
AcDbEntity
  8
0
  6
CONTINUOUS
 62
     0
100
AcDbLine
 10
0.5
 20
0.5
 30
0.0
 11
0.5
 21
-0.5
 31
0.0
  0
LINE
  5
D0
330
9D
100
AcDbEntity
  8
0
  6
CONTINUOUS
 62
     0
100
AcDbLine
 10
0.5
 20
-0.5
 30
0.0
 11
-0.5
 21
-0.5
 31
0.0
  0
LINE
  5
D1
330
9D
100
AcDbEntity
  8
0
  6
CONTINUOUS
 62
     0
100
AcDbLine
 10
-0.5
 20
-0.5
 30
0.0
 11
-0.5
 21
0.5
 31
0.0
  0
ENDBLK
  5
9F
330
9D
100
AcDbEntity
  8
0
100
AcDbBlockEnd
  0
BLOCK
  5
A1
330
A0
100
AcDbEntity
  8
0
100
AcDbBlockBegin
  2
EX_INTEGRAL
 70
     0
 10
0.0
 20
0.0
 30
0.0
  3
EX_INTEGRAL
  1

  0
LINE
  5
D2
330
A0
100
AcDbEntity
  8
0
  6
CONTINUOUS
 62
     0
100
AcDbLine
 10
0.0
 20
0.0
 30
0.0
 11
-1.0
 21
0.0
 31
0.0
  0
ARC
  5
D3
330
A0
100
AcDbEntity
  8
0
  6
CONTINUOUS
 62
     0
100
AcDbCircle
 10
0.542115
 20
0.164992
 30
0.0
 40
0.56667
100
AcDbArc
 50
73.07249033629006
 51
196.9275130221199
  0
ARC
  5
D4
330
A0
100
AcDbEntity
  8
0
  6
CONTINUOUS
 62
     0
100
AcDbCircle
 10
-0.542115
 20
-0.164992
 30
0.0
 40
0.56667
100
AcDbArc
 50
253.0724869220464
 51
16.9275130559125
  0
ENDBLK
  5
A2
330
A0
100
AcDbEntity
  8
0
100
AcDbBlockEnd
  0
BLOCK
  5
31C
330
31B
100
AcDbEntity
  8
0
100
AcDbBlockBegin
  2
*D15
 70
     1
 10
0.0
 20
0.0
 30
0.0
  3
*D15
  1

  0
LINE
  5
31E
330
31B
100
AcDbEntity
  8
LAY-20
  6
CONTINUOUS
 62
     4
100
AcDbLine
 10
309.99997007679
 20
316.2096665650499
 30
0.0
 11
309.99997007679
 21
196.20966656505
 31
0.0
  0
LINE
  5
31F
330
31B
100
AcDbEntity
  8
LAY-20
  6
CONTINUOUS
 62
     4
100
AcDbLine
 10
929.99990907679
 20
316.2096665650499
 30
0.0
 11
929.99990907679
 21
196.20966656505
 31
0.0
  0
LINE
  5
320
330
31B
100
AcDbEntity
  8
LAY-20
  6
CONTINUOUS
 62
     4
100
AcDbLine
 10
324.99997007679
 20
203.70966656505
 30
0.0
 11
914.99990907679
 21
203.70966656505
 31
0.0
  0
INSERT
  5
321
330
31B
100
AcDbEntity
  8
LAY-20
 62
     4
100
AcDbBlockReference
  2
EX_BNORM
 10
309.99997007679
 20
203.70966656505
 30
0.0
 41
15.0
 42
15.0
 43
15.0
 50
180.0
  0
INSERT
  5
322
330
31B
100
AcDbEntity
  8
LAY-20
 62
     4
100
AcDbBlockReference
  2
EX_BNORM
 10
929.99990907679
 20
203.70966656505
 30
0.0
 41
15.0
 42
15.0
 43
15.0
  0
MTEXT
  5
323
330
31B
100
AcDbEntity
  8
LAY-20
 62
     7
100
AcDbMText
 10
619.99993957679
 20
216.20966656505
 30
0.0
 40
15.590552
 41
0.0
 71
     5
 72
     1
  1
%%c620
  7
EXCADDIM1
  0
POINT
  5
324
330
31B
100
AcDbEntity
  8
DEFPOINTS
 62
     0
100
AcDbPoint
 10
309.99997007679
 20
323.7096665650499
 30
0.0
  0
POINT
  5
325
330
31B
100
AcDbEntity
  8
DEFPOINTS
 62
     0
100
AcDbPoint
 10
929.99990907679
 20
323.7096665650499
 30
0.0
  0
POINT
  5
326
330
31B
100
AcDbEntity
  8
DEFPOINTS
 62
     0
100
AcDbPoint
 10
929.99990907679
 20
203.70966656505
 30
0.0
  0
ENDBLK
  5
31D
330
31B
100
AcDbEntity
  8
0
100
AcDbBlockEnd
  0
BLOCK
  5
329
330
328
100
AcDbEntity
  8
0
100
AcDbBlockBegin
  2
*D16
 70
     1
 10
0.0
 20
0.0
 30
0.0
  3
*D16
  1

  0
LINE
  5
32B
330
328
100
AcDbEntity
  8
LAY-20
  6
CONTINUOUS
 62
     4
100
AcDbLine
 10
870.0000155767901
 20
316.2096665650499
 30
0.0
 11
870.0000155767901
 21
231.20966656505
 31
0.0
  0
LINE
  5
32C
330
328
100
AcDbEntity
  8
LAY-20
  6
CONTINUOUS
 62
     4
100
AcDbLine
 10
370.00001623038
 20
316.2096665650499
 30
0.0
 11
370.00001623038
 21
231.20966656505
 31
0.0
  0
LINE
  5
32D
330
328
100
AcDbEntity
  8
LAY-20
  6
CONTINUOUS
 62
     4
100
AcDbLine
 10
855.0000155767901
 20
238.70966656505
 30
0.0
 11
385.00001623038
 21
238.70966656505
 31
0.0
  0
INSERT
  5
32E
330
328
100
AcDbEntity
  8
LAY-20
 62
     4
100
AcDbBlockReference
  2
EX_BNORM
 10
870.0000155767901
 20
238.70966656505
 30
0.0
 41
15.0
 42
15.0
 43
15.0
  0
INSERT
  5
32F
330
328
100
AcDbEntity
  8
LAY-20
 62
     4
100
AcDbBlockReference
  2
EX_BNORM
 10
370.00001623038
 20
238.70966656505
 30
0.0
 41
15.0
 42
15.0
 43
15.0
 50
180.0
  0
MTEXT
  5
330
330
328
100
AcDbEntity
  8
LAY-20
 62
     7
100
AcDbMText
 10
620.0000159035849
 20
251.20966656505
 30
0.0
 40
15.590552
 41
0.0
 71
     5
 72
     1
  1
%%c500
  7
EXCADDIM1
  0
POINT
  5
331
330
328
100
AcDbEntity
  8
DEFPOINTS
 62
     0
100
AcDbPoint
 10
870.0000155767901
 20
323.7096665650499
 30
0.0
  0
POINT
  5
332
330
328
100
AcDbEntity
  8
DEFPOINTS
 62
     0
100
AcDbPoint
 10
370.00001623038
 20
323.7096665650499
 30
0.0
  0
POINT
  5
333
330
328
100
AcDbEntity
  8
DEFPOINTS
 62
     0
100
AcDbPoint
 10
370.00001623038
 20
238.70966656505
 30
0.0
  0
ENDBLK
  5
32A
330
328
100
AcDbEntity
  8
0
100
AcDbBlockEnd
  0
BLOCK
  5
336
330
335
100
AcDbEntity
  8
0
100
AcDbBlockBegin
  2
*D17
 70
     1
 10
0.0
 20
0.0
 30
0.0
  3
*D17
  1

  0
LINE
  5
338
330
335
100
AcDbEntity
  8
LAY-20
  6
CONTINUOUS
 62
     4
100
AcDbLine
 10
345.99926724999
 20
383.20919775001
 30
0.0
 11
345.99926724999
 21
473.99995536307
 31
0.0
  0
LINE
  5
339
330
335
100
AcDbEntity
  8
LAY-20
  6
CONTINUOUS
 62
     4
100
AcDbLine
 10
893.98920047279
 20
383.20966656505
 30
0.0
 11
893.98920047279
 21
473.99995536307
 31
0.0
  0
LINE
  5
33A
330
335
100
AcDbEntity
  8
LAY-20
  6
CONTINUOUS
 62
     4
100
AcDbLine
 10
360.99926724999
 20
466.49995536307
 30
0.0
 11
878.98920047279
 21
466.49995536307
 31
0.0
  0
INSERT
  5
33B
330
335
100
AcDbEntity
  8
LAY-20
 62
     4
100
AcDbBlockReference
  2
EX_BNORM
 10
345.99926724999
 20
466.49995536307
 30
0.0
 41
15.0
 42
15.0
 43
15.0
 50
180.0
  0
INSERT
  5
33C
330
335
100
AcDbEntity
  8
LAY-20
 62
     4
100
AcDbBlockReference
  2
EX_BNORM
 10
893.98920047279
 20
466.49995536307
 30
0.0
 41
15.0
 42
15.0
 43
15.0
  0
MTEXT
  5
33D
330
335
100
AcDbEntity
  8
LAY-20
 62
     7
100
AcDbMText
 10
619.99423386139
 20
478.99995536307
 30
0.0
 40
15.590552
 41
0.0
 71
     5
 72
     1
  1
%%c548
  7
EXCADDIM1
  0
POINT
  5
33E
330
335
100
AcDbEntity
  8
DEFPOINTS
 62
     0
100
AcDbPoint
 10
345.99926724999
 20
375.70919775001
 30
0.0
  0
POINT
  5
33F
330
335
100
AcDbEntity
  8
DEFPOINTS
 62
     0
100
AcDbPoint
 10
893.98920047279
 20
375.70966656505
 30
0.0
  0
POINT
  5
340
330
335
100
AcDbEntity
  8
DEFPOINTS
 62
     0
100
AcDbPoint
 10
893.98920047279
 20
466.49995536307
 30
0.0
  0
ENDBLK
  5
337
330
335
100
AcDbEntity
  8
0
100
AcDbBlockEnd
  0
BLOCK
  5
343
330
342
100
AcDbEntity
  8
0
100
AcDbBlockBegin
  2
*D18
 70
     1
 10
0.0
 20
0.0
 30
0.0
  3
*D18
  1

  0
LINE
  5
345
330
342
100
AcDbEntity
  8
LAY-20
  6
CONTINUOUS
 62
     4
100
AcDbLine
 10
904.99990488289
 20
382.20966656505
 30
0.0
 11
904.99990488289
 21
508.99995536307
 31
0.0
  0
LINE
  5
346
330
342
100
AcDbEntity
  8
LAY-20
  6
CONTINUOUS
 62
     4
100
AcDbLine
 10
334.99997427068
 20
382.20966656505
 30
0.0
 11
334.99997427068
 21
508.99995536307
 31
0.0
  0
LINE
  5
347
330
342
100
AcDbEntity
  8
LAY-20
  6
CONTINUOUS
 62
     4
100
AcDbLine
 10
889.99990488289
 20
501.49995536307
 30
0.0
 11
349.99997427068
 21
501.49995536307
 31
0.0
  0
INSERT
  5
348
330
342
100
AcDbEntity
  8
LAY-20
 62
     4
100
AcDbBlockReference
  2
EX_BNORM
 10
904.99990488289
 20
501.49995536307
 30
0.0
 41
15.0
 42
15.0
 43
15.0
  0
INSERT
  5
349
330
342
100
AcDbEntity
  8
LAY-20
 62
     4
100
AcDbBlockReference
  2
EX_BNORM
 10
334.99997427068
 20
501.49995536307
 30
0.0
 41
15.0
 42
15.0
 43
15.0
 50
180.0
  0
MTEXT
  5
34A
330
342
100
AcDbEntity
  8
LAY-20
 62
     7
100
AcDbMText
 10
619.999939576785
 20
513.99995536307
 30
0.0
 40
15.590552
 41
0.0
 71
     5
 72
     1
  1
%%c570
  7
EXCADDIM1
  0
POINT
  5
34B
330
342
100
AcDbEntity
  8
DEFPOINTS
 62
     0
100
AcDbPoint
 10
904.99990488289
 20
374.70966656505
 30
0.0
  0
POINT
  5
34C
330
342
100
AcDbEntity
  8
DEFPOINTS
 62
     0
100
AcDbPoint
 10
334.99997427068
 20
374.70966656505
 30
0.0
  0
POINT
  5
34D
330
342
100
AcDbEntity
  8
DEFPOINTS
 62
     0
100
AcDbPoint
 10
334.99997427068
 20
501.49995536307
 30
0.0
  0
ENDBLK
  5
344
330
342
100
AcDbEntity
  8
0
100
AcDbBlockEnd
  0
BLOCK
  5
350
330
34F
100
AcDbEntity
  8
0
100
AcDbBlockBegin
  2
*D19
 70
     1
 10
0.0
 20
0.0
 30
0.0
  3
*D19
  1

  0
LINE
  5
352
330
34F
100
AcDbEntity
  8
LAY-20
  6
CONTINUOUS
 62
     4
100
AcDbLine
 10
937.49990907679
 20
323.7096665650499
 30
0.0
 11
987.49990907679
 21
323.7096665650499
 31
0.0
  0
LINE
  5
353
330
34F
100
AcDbEntity
  8
LAY-20
  6
CONTINUOUS
 62
     4
100
AcDbLine
 10
909.8
 20
374.70966656505
 30
0.0
 11
987.49990907679
 21
374.70966656505
 31
0.0
  0
LINE
  5
354
330
34F
100
AcDbEntity
  8
LAY-20
  6
CONTINUOUS
 62
     4
100
AcDbLine
 10
979.99990907679
 20
338.7096665650499
 30
0.0
 11
979.99990907679
 21
359.70966656505
 31
0.0
  0
INSERT
  5
355
330
34F
100
AcDbEntity
  8
LAY-20
 62
     4
100
AcDbBlockReference
  2
EX_BNORM
 10
979.99990907679
 20
323.7096665650499
 30
0.0
 41
15.0
 42
15.0
 43
15.0
 50
270.0
  0
INSERT
  5
356
330
34F
100
AcDbEntity
  8
LAY-20
 62
     4
100
AcDbBlockReference
  2
EX_BNORM
 10
979.99990907679
 20
374.70966656505
 30
0.0
 41
15.0
 42
15.0
 43
15.0
 50
90.0
  0
MTEXT
  5
357
330
34F
100
AcDbEntity
  8
LAY-20
 62
     7
100
AcDbMText
 10
967.49990907679
 20
349.20966656505
 30
0.0
 40
15.590552
 41
0.0
 71
     5
 72
     1
  1
51
  7
EXCADDIM1
 11
0.0
 21
1.0
 31
0.0
  0
POINT
  5
358
330
34F
100
AcDbEntity
  8
DEFPOINTS
 62
     0
100
AcDbPoint
 10
929.99990907679
 20
323.7096665650499
 30
0.0
  0
POINT
  5
359
330
34F
100
AcDbEntity
  8
DEFPOINTS
 62
     0
100
AcDbPoint
 10
902.3
 20
374.70966656505
 30
0.0
  0
POINT
  5
35A
330
34F
100
AcDbEntity
  8
DEFPOINTS
 62
     0
100
AcDbPoint
 10
979.99990907679
 20
374.70966656505
 30
0.0
  0
ENDBLK
  5
351
330
34F
100
AcDbEntity
  8
0
100
AcDbBlockEnd
  0
ENDSEC
  0
SECTION
  2
ENTITIES
  0
TEXT
  5
D5
330
1F
100
AcDbEntity
  8
LAY-10
  6
CONTINUOUS
 62
     7
100
AcDbText
 10
546.8175513886019
 20
678.50433255908
 30
0.0
 40
12.0000003374424
  1
M
 50
342.256692757961
 41
1.039370115519943
  7
EXCADSTD
100
AcDbText
  0
TEXT
  5
D6
330
1F
100
AcDbEntity
  8
LAY-10
  6
CONTINUOUS
 62
     7
100
AcDbText
 10
571.6049617475911
 20
671.6538633239932
 30
0.0
 40
12.0000003374424
  1
K
 50
348.6929999666102
 41
1.039370115519943
  7
EXCADSTD
100
AcDbText
  0
TEXT
  5
D7
330
1F
100
AcDbEntity
  8
LAY-10
  6
CONTINUOUS
 62
     7
100
AcDbText
 10
597.0050930531721
 20
667.6316275831819
 30
0.0
 40
12.0000003374424
  1
B
 50
355.1303929197126
 41
1.039370115519943
  7
EXCADSTD
100
AcDbText
  0
TEXT
  5
D8
330
1F
100
AcDbEntity
  8
LAY-10
  6
CONTINUOUS
 62
     7
100
AcDbText
 10
635.0127123244522
 20
666.9586082396247
 30
0.0
 40
12.0000003374424
  1
5
 50
4.769426171186435
 41
1.039370115519943
  7
EXCADSTD
100
AcDbText
  0
TEXT
  5
D9
330
1F
100
AcDbEntity
  8
LAY-10
  6
CONTINUOUS
 62
     7
100
AcDbText
 10
686.3675595923474
 20
676.5702007228807
 30
0.0
 40
12.0000003374424
  1
0
 50
17.67212301353069
 41
0.7795276393220919
  7
EXCADSTD
100
AcDbText
  0
TEXT
  5
DA
330
1F
100
AcDbEntity
  8
LAY-10
  6
CONTINUOUS
 62
     7
100
AcDbText
 10
661.5065763616127
 20
670.2880787100563
 30
0.0
 40
12.0000003374424
  1
0
 50
11.09177765865784
 41
0.7795276393220919
  7
EXCADSTD
100
AcDbText
  0
CIRCLE
  5
DB
330
1F
100
AcDbEntity
  8
LAY-10
  6
CONTINUOUS
 62
     7
100
AcDbCircle
 10
619.9999999999951
 20
895.0000000000047
 30
0.0
 40
310.0
  0
CIRCLE
  5
DC
330
1F
100
AcDbEntity
  8
LAY-10
  6
CONTINUOUS
 62
     7
100
AcDbCircle
 10
619.9999999999951
 20
895.0000000000047
 30
0.0
 40
275.0
  0
CIRCLE
  5
DD
330
1F
100
AcDbEntity
  8
LAY-10
  6
CONTINUOUS
 62
     7
100
AcDbCircle
 10
619.9999999999951
 20
895.0000000000047
 30
0.0
 40
309.0
  0
CIRCLE
  5
DE
330
1F
100
AcDbEntity
  8
LAY-10
  6
CONTINUOUS
 62
     7
100
AcDbCircle
 10
619.9999999999951
 20
895.0000000000047
 30
0.0
 40
290.0
  0
CIRCLE
  5
DF
330
1F
100
AcDbEntity
  8
LAY-10
  6
CONTINUOUS
 62
     7
100
AcDbCircle
 10
619.9999999999951
 20
895.0000000000047
 30
0.0
 40
285.0
  0
ARC
  5
E0
330
1F
100
AcDbEntity
  8
LAY-10
  6
CONTINUOUS
 62
     7
100
AcDbCircle
 10
619.9999852499933
 20
894.999969750007
 30
0.0
 40
235.0000000000001
100
AcDbArc
 50
225.8533711432154
 51
246.6466097860958
  0
ARC
  5
E1
330
1F
100
AcDbEntity
  8
LAY-10
  6
CONTINUOUS
 62
     7
100
AcDbCircle
 10
619.9999852499933
 20
894.999969750007
 30
0.0
 40
242.0000000000001
100
AcDbArc
 50
225.8286852743881
 51
246.6712992712028
  0
ARC
  5
E2
330
1F
100
AcDbEntity
  8
LAY-10
  6
CONTINUOUS
 62
     7
100
AcDbCircle
 10
619.9999852499933
 20
894.999969750007
 30
0.0
 40
267.0
100
AcDbArc
 50
203.2510983798415
 51
224.2489116543287
  0
LINE
  5
E3
330
1F
100
AcDbEntity
  8
LAY-10
  6
CONTINUOUS
 62
     7
100
AcDbLine
 10
446.4231728845456
 20
726.3728953845596
 30
0.0
 11
428.7438273905492
 21
708.693549890563
 31
0.0
  0
LINE
  5
E4
330
1F
100
AcDbEntity
  8
LAY-10
  6
CONTINUOUS
 62
     7
100
AcDbLine
 10
433.6935653905492
 20
703.7438118905632
 30
0.0
 11
451.3729108845456
 21
721.4231573845595
 31
0.0
  0
ARC
  5
E5
330
1F
100
AcDbEntity
  8
LAY-10
  6
CONTINUOUS
 62
     7
100
AcDbCircle
 10
619.9999852499933
 20
894.999969750007
 30
0.0
 40
203.0000000000001
100
AcDbArc
 50
225.9879051271078
 51
246.5120724181076
  0
ARC
  5
E6
330
1F
100
AcDbEntity
  8
LAY-10
  6
CONTINUOUS
 62
     7
100
AcDbCircle
 10
619.9999852499933
 20
894.999969750007
 30
0.0
 40
210.0000000000001
100
AcDbArc
 50
225.9549718539095
 51
246.5450135100818
  0
LINE
  5
E7
330
1F
100
AcDbEntity
  8
LAY-10
  6
CONTINUOUS
 62
     7
100
AcDbLine
 10
548.6618784402552
 20
731.9206193809232
 30
0.0
 11
539.0931512811991
 21
708.8197231685128
 31
0.0
  0
LINE
  5
E8
330
1F
100
AcDbEntity
  8
LAY-10
  6
CONTINUOUS
 62
     7
100
AcDbLine
 10
545.5603298871202
 20
706.1409278445248
 30
0.0
 11
555.1290355076175
 21
729.2418330582532
 31
0.0
  0
LINE
  5
E9
330
1F
100
AcDbEntity
  8
LAY-10
  6
CONTINUOUS
 62
     7
100
AcDbLine
 10
616.4999852499933
 20
692.0301444064353
 30
0.0
 11
616.4999852499933
 21
717.0343831890093
 31
0.0
  0
ARC
  5
EA
330
1F
100
AcDbEntity
  8
LAY-10
  6
CONTINUOUS
 62
     7
100
AcDbCircle
 10
619.9999852499933
 20
894.999969750007
 30
0.0
 40
267.0
100
AcDbArc
 50
315.7510883456715
 51
336.7489016201582
  0
LINE
  5
EB
330
1F
100
AcDbEntity
  8
LAY-10
  6
CONTINUOUS
 62
     7
100
AcDbLine
 10
806.3064051094372
 20
703.7438118905632
 30
0.0
 11
788.627059615441
 21
721.4231573845595
 31
0.0
  0
LINE
  5
EC
330
1F
100
AcDbEntity
  8
LAY-10
  6
CONTINUOUS
 62
     7
100
AcDbLine
 10
793.5767976154409
 20
726.3728953845596
 30
0.0
 11
811.2561431094372
 21
708.693549890563
 31
0.0
  0
ARC
  5
ED
330
1F
100
AcDbEntity
  8
LAY-10
  6
CONTINUOUS
 62
     7
100
AcDbCircle
 10
619.9999852499933
 20
894.999969750007
 30
0.0
 40
203.0000000000001
100
AcDbArc
 50
293.4879275818923
 51
314.0120948728924
  0
ARC
  5
EE
330
1F
100
AcDbEntity
  8
LAY-10
  6
CONTINUOUS
 62
     7
100
AcDbCircle
 10
619.9999852499933
 20
894.999969750007
 30
0.0
 40
242.0000000000001
100
AcDbArc
 50
293.328700728797
 51
314.1713147256119
  0
ARC
  5
EF
330
1F
100
AcDbEntity
  8
LAY-10
  6
CONTINUOUS
 62
     7
100
AcDbCircle
 10
619.9999852499933
 20
894.999969750007
 30
0.0
 40
210.0000000000001
100
AcDbArc
 50
293.4549864899181
 51
314.0450281460904
  0
ARC
  5
F0
330
1F
100
AcDbEntity
  8
LAY-10
  6
CONTINUOUS
 62
     7
100
AcDbCircle
 10
619.9999852499933
 20
894.999969750007
 30
0.0
 40
235.0000000000001
100
AcDbArc
 50
293.353390213904
 51
314.1466288567847
  0
LINE
  5
F1
330
1F
100
AcDbEntity
  8
LAY-10
  6
CONTINUOUS
 62
     7
100
AcDbLine
 10
694.4396406128661
 20
706.1409278445248
 30
0.0
 11
684.8709349923691
 21
729.2418330582532
 31
0.0
  0
LINE
  5
F2
330
1F
100
AcDbEntity
  8
LAY-10
  6
CONTINUOUS
 62
     7
100
AcDbLine
 10
691.3380920597314
 20
731.9206193809232
 30
0.0
 11
700.9068192187875
 21
708.8197231685128
 31
0.0
  0
LINE
  5
F3
330
1F
100
AcDbEntity
  8
LAY-10
  6
CONTINUOUS
 62
     7
100
AcDbLine
 10
623.4999852499933
 20
692.0301444064353
 30
0.0
 11
623.4999852499933
 21
717.0343831890093
 31
0.0
  0
CIRCLE
  5
F4
330
1F
100
AcDbEntity
  8
LAY-10
  6
CONTINUOUS
 62
     7
100
AcDbCircle
 10
619.9999999999951
 20
895.0000000000047
 30
0.0
 40
274.0
  0
ARC
  5
F5
330
1F
100
AcDbEntity
  8
LAY-10
  6
CONTINUOUS
 62
     7
100
AcDbCircle
 10
619.9999852499933
 20
894.999969750007
 30
0.0
 40
267.0
100
AcDbArc
 50
225.7510883456691
 51
246.7488979375133
  0
LINE
  5
F6
330
1F
100
AcDbEntity
  8
LAY-10
  6
CONTINUOUS
 62
     7
100
AcDbLine
 10
715.8333218435786
 20
672.7839226306764
 30
0.0
 11
725.4013134689783
 21
649.6847439492553
 31
0.0
  0
ARC
  5
F7
330
1F
100
AcDbEntity
  8
LAY-10
  6
CONTINUOUS
 62
     7
100
AcDbCircle
 10
619.9999852499933
 20
894.999969750007
 30
0.0
 40
203.0000000000001
100
AcDbArc
 50
248.4878937776986
 51
269.0120927833372
  0
ARC
  5
F8
330
1F
100
AcDbEntity
  8
LAY-10
  6
CONTINUOUS
 62
     7
100
AcDbCircle
 10
619.9999852499933
 20
894.999969750007
 30
0.0
 40
210.0000000000001
100
AcDbArc
 50
248.4549593157359
 51
269.045026126216
  0
ARC
  5
F9
330
1F
100
AcDbEntity
  8
LAY-10
  6
CONTINUOUS
 62
     7
100
AcDbCircle
 10
619.9999852499933
 20
894.999969750007
 30
0.0
 40
235.0000000000001
100
AcDbArc
 50
248.3533616653206
 51
269.1466270518421
  0
ARC
  5
FA
330
1F
100
AcDbEntity
  8
LAY-10
  6
CONTINUOUS
 62
     7
100
AcDbCircle
 10
619.9999852499933
 20
894.999969750007
 30
0.0
 40
242.0000000000001
100
AcDbArc
 50
248.3286732729412
 51
269.1713131403189
  0
ARC
  5
FB
330
1F
100
AcDbEntity
  8
LAY-10
  6
CONTINUOUS
 62
     7
100
AcDbCircle
 10
619.9999852499933
 20
894.999969750007
 30
0.0
 40
267.0
100
AcDbArc
 50
248.2510777584509
 51
269.2489102175053
  0
LINE
  5
FC
330
1F
100
AcDbEntity
  8
LAY-10
  6
CONTINUOUS
 62
     7
100
AcDbLine
 10
524.1666486564078
 20
672.7839226306764
 30
0.0
 11
514.598657031008
 21
649.6847439492553
 31
0.0
  0
LINE
  5
FD
330
1F
100
AcDbEntity
  8
LAY-10
  6
CONTINUOUS
 62
     7
100
AcDbLine
 10
521.065814292254
 20
647.0059580946751
 30
0.0
 11
530.6338058439741
 21
670.1051365982177
 31
0.0
  0
CIRCLE
  5
FE
330
1F
100
AcDbEntity
  8
LAY-10
  6
CONTINUOUS
 62
     7
100
AcDbCircle
 10
552.4557952499932
 20
682.999908750007
 30
0.0
 40
10.0
  0
LINE
  5
FF
330
1F
100
AcDbEntity
  8
LAY-10
  6
CONTINUOUS
 62
     7
100
AcDbLine
 10
536.4140060450176
 20
702.3516266988782
 30
0.0
 11
526.8457100149827
 21
679.2517808689879
 31
0.0
  0
LINE
  5
100
330
1F
100
AcDbEntity
  8
LAY-10
  6
CONTINUOUS
 62
     7
100
AcDbLine
 10
533.3128887437725
 20
676.5729858416053
 30
0.0
 11
542.8811555625763
 21
699.672843862067
 31
0.0
  0
CIRCLE
  5
101
330
1F
100
AcDbEntity
  8
LAY-10
  6
CONTINUOUS
 62
     7
100
AcDbCircle
 10
576.7037202499934
 20
676.7531437500069
 30
0.0
 40
10.0
  0
ARC
  5
102
330
1F
100
AcDbEntity
  8
LAY-10
  6
CONTINUOUS
 62
     7
100
AcDbCircle
 10
619.9999852499933
 20
894.999969750007
 30
0.0
 40
203.0000000000001
100
AcDbArc
 50
270.9879072166499
 51
291.5121062223012
  0
ARC
  5
103
330
1F
100
AcDbEntity
  8
LAY-10
  6
CONTINUOUS
 62
     7
100
AcDbCircle
 10
619.9999852499933
 20
894.999969750007
 30
0.0
 40
235.0000000000001
100
AcDbArc
 50
270.853372948158
 51
291.6466383346794
  0
ARC
  5
104
330
1F
100
AcDbEntity
  8
LAY-10
  6
CONTINUOUS
 62
     7
100
AcDbCircle
 10
619.9999852499933
 20
894.999969750007
 30
0.0
 40
210.0000000000001
100
AcDbArc
 50
270.9549738737841
 51
291.545040684264
  0
CIRCLE
  5
105
330
1F
100
AcDbEntity
  8
LAY-10
  6
CONTINUOUS
 62
     7
100
AcDbCircle
 10
663.2962502499932
 20
676.7531437500069
 30
0.0
 40
10.0
  0
ARC
  5
106
330
1F
100
AcDbEntity
  8
LAY-10
  6
CONTINUOUS
 62
     7
100
AcDbCircle
 10
619.9999852499933
 20
894.999969750007
 30
0.0
 40
242.0000000000001
100
AcDbArc
 50
270.8286868596811
 51
291.6713267270587
  0
ARC
  5
107
330
1F
100
AcDbEntity
  8
LAY-10
  6
CONTINUOUS
 62
     7
100
AcDbCircle
 10
619.9999852499933
 20
894.999969750007
 30
0.0
 40
267.0
100
AcDbArc
 50
270.7510897824947
 51
291.7489222415491
  0
CIRCLE
  5
108
330
1F
100
AcDbEntity
  8
LAY-10
  6
CONTINUOUS
 62
     7
100
AcDbCircle
 10
601.4999852499933
 20
673.2704167500069
 30
0.0
 40
10.0
  0
LINE
  5
109
330
1F
100
AcDbEntity
  8
LAY-10
  6
CONTINUOUS
 62
     7
100
AcDbLine
 10
616.4999852499933
 20
685.029138442418
 30
0.0
 11
616.4999852499933
 21
660.0260350253232
 31
0.0
  0
CIRCLE
  5
10A
330
1F
100
AcDbEntity
  8
LAY-10
  6
CONTINUOUS
 62
     7
100
AcDbCircle
 10
638.4999852499933
 20
673.2704167500069
 30
0.0
 40
10.0
  0
LINE
  5
10B
330
1F
100
AcDbEntity
  8
LAY-10
  6
CONTINUOUS
 62
     7
100
AcDbLine
 10
623.4999852499933
 20
685.029138442418
 30
0.0
 11
623.4999852499933
 21
660.0260350253232
 31
0.0
  0
LINE
  5
10C
330
1F
100
AcDbEntity
  8
LAY-10
  6
CONTINUOUS
 62
     7
100
AcDbLine
 10
616.4999852499933
 20
653.0252809910379
 30
0.0
 11
616.4999852499933
 21
628.0229108104794
 31
0.0
  0
LINE
  5
10D
330
1F
100
AcDbEntity
  8
LAY-10
  6
CONTINUOUS
 62
     7
100
AcDbLine
 10
623.4999852499933
 20
653.0252809910379
 30
0.0
 11
623.4999852499933
 21
628.0229108104794
 31
0.0
  0
LINE
  5
10E
330
1F
100
AcDbEntity
  8
LAY-10
  6
CONTINUOUS
 62
     7
100
AcDbLine
 10
718.9341562077326
 20
647.0059580946751
 30
0.0
 11
709.3661646560123
 21
670.1051365982177
 31
0.0
  0
CIRCLE
  5
10F
330
1F
100
AcDbEntity
  8
LAY-10
  6
CONTINUOUS
 62
     7
100
AcDbCircle
 10
687.5441752499934
 20
682.999908750007
 30
0.0
 40
10.0
  0
LINE
  5
110
330
1F
100
AcDbEntity
  8
LAY-10
  6
CONTINUOUS
 62
     7
100
AcDbLine
 10
706.6870817562138
 20
676.5729858416053
 30
0.0
 11
697.1188149374103
 21
699.672843862067
 31
0.0
  0
LINE
  5
111
330
1F
100
AcDbEntity
  8
LAY-10
  6
CONTINUOUS
 62
     7
100
AcDbLine
 10
703.5859644549688
 20
702.3516266988782
 30
0.0
 11
713.1542604850038
 21
679.2517808689879
 31
0.0
  0
ARC
  5
112
330
1F
100
AcDbEntity
  8
LAY-10
  6
CONTINUOUS
 62
     7
100
AcDbCircle
 10
619.9999852499933
 20
894.999969750007
 30
0.0
 40
267.0
100
AcDbArc
 50
293.2511020624864
 51
314.248911654331
  0
LINE
  5
113
330
1F
100
AcDbEntity
  8
LAY-10
  6
CONTINUOUS
 62
     7
100
AcDbLine
 10
474.0419433338317
 20
891.499969750007
 30
0.0
 11
449.0358077156337
 21
891.499969750007
 31
0.0
  0
ARC
  5
114
330
1F
100
AcDbEntity
  8
LAY-10
  6
CONTINUOUS
 62
     7
100
AcDbCircle
 10
619.9999852499933
 20
894.999969750007
 30
0.0
 40
210.0000000000001
100
AcDbArc
 50
203.454991172391
 51
224.0450279531383
  0
ARC
  5
115
330
1F
100
AcDbEntity
  8
LAY-10
  6
CONTINUOUS
 62
     7
100
AcDbCircle
 10
619.9999852499933
 20
894.999969750007
 30
0.0
 40
203.0000000000001
100
AcDbArc
 50
203.4879161482772
 51
224.0120946732876
  0
ARC
  5
116
330
1F
100
AcDbEntity
  8
LAY-10
  6
CONTINUOUS
 62
     7
100
AcDbCircle
 10
619.9999852499933
 20
894.999969750007
 30
0.0
 40
171.0
100
AcDbArc
 50
181.1728025305109
 51
201.3271993141669
  0
ARC
  5
117
330
1F
100
AcDbEntity
  8
LAY-10
  6
CONTINUOUS
 62
     7
100
AcDbCircle
 10
619.9999852499933
 20
894.999969750007
 30
0.0
 40
235.0000000000001
100
AcDbArc
 50
203.3533803375865
 51
224.146628856232
  0
LINE
  5
118
330
1F
100
AcDbEntity
  8
LAY-10
  6
CONTINUOUS
 62
     7
100
AcDbLine
 10
433.8197225232105
 20
814.0931729342503
 30
0.0
 11
456.9206186449627
 21
823.6619000557546
 31
0.0
  0
ARC
  5
119
330
1F
100
AcDbEntity
  8
LAY-10
  6
CONTINUOUS
 62
     7
100
AcDbCircle
 10
619.9999852499933
 20
894.999969750007
 30
0.0
 40
242.0000000000001
100
AcDbArc
 50
113.3287007287972
 51
134.1713147256117
  0
ARC
  5
11A
330
1F
100
AcDbEntity
  8
LAY-10
  6
CONTINUOUS
 62
     7
100
AcDbCircle
 10
619.9999852499933
 20
894.999969750007
 30
0.0
 40
267.0
100
AcDbArc
 50
113.2511020624867
 51
134.248911654331
  0
LINE
  5
11B
330
1F
100
AcDbEntity
  8
LAY-10
  6
CONTINUOUS
 62
     7
100
AcDbLine
 10
433.6935653905492
 20
1086.256127609451
 30
0.0
 11
451.3729108845456
 21
1068.576782115455
 31
0.0
  0
LINE
  5
11C
330
1F
100
AcDbEntity
  8
LAY-10
  6
CONTINUOUS
 62
     7
100
AcDbLine
 10
433.8197225232105
 20
975.9067665657637
 30
0.0
 11
456.9206186449627
 21
966.3380394442595
 31
0.0
  0
ARC
  5
11D
330
1F
100
AcDbEntity
  8
LAY-10
  6
CONTINUOUS
 62
     7
100
AcDbCircle
 10
619.9999852499933
 20
894.999969750007
 30
0.0
 40
203.0000000000001
100
AcDbArc
 50
135.9879053267125
 51
156.5120838517228
  0
ARC
  5
11E
330
1F
100
AcDbEntity
  8
LAY-10
  6
CONTINUOUS
 62
     7
100
AcDbCircle
 10
619.9999852499933
 20
894.999969750007
 30
0.0
 40
210.0000000000001
100
AcDbArc
 50
135.9549720468615
 51
156.5450088276091
  0
ARC
  5
11F
330
1F
100
AcDbEntity
  8
LAY-10
  6
CONTINUOUS
 62
     7
100
AcDbCircle
 10
619.9999852499933
 20
894.999969750007
 30
0.0
 40
171.0
100
AcDbArc
 50
158.672800685833
 51
178.8271974694891
  0
ARC
  5
120
330
1F
100
AcDbEntity
  8
LAY-10
  6
CONTINUOUS
 62
     7
100
AcDbCircle
 10
619.9999852499933
 20
894.999969750007
 30
0.0
 40
235.0000000000001
100
AcDbArc
 50
135.853371143768
 51
156.6466196624135
  0
LINE
  5
121
330
1F
100
AcDbEntity
  8
LAY-10
  6
CONTINUOUS
 62
     7
100
AcDbLine
 10
474.0419433338317
 20
898.499969750007
 30
0.0
 11
449.0358077156337
 21
898.499969750007
 31
0.0
  0
ARC
  5
122
330
1F
100
AcDbEntity
  8
LAY-10
  6
CONTINUOUS
 62
     7
100
AcDbCircle
 10
619.9999852499933
 20
894.999969750007
 30
0.0
 40
242.0000000000001
100
AcDbArc
 50
158.3286827729077
 51
179.1713131403221
  0
ARC
  5
123
330
1F
100
AcDbEntity
  8
LAY-10
  6
CONTINUOUS
 62
     7
100
AcDbCircle
 10
619.9999852499933
 20
894.999969750007
 30
0.0
 40
235.0000000000001
100
AcDbArc
 50
158.3533715416327
 51
179.1466270518405
  0
ARC
  5
124
330
1F
100
AcDbEntity
  8
LAY-10
  6
CONTINUOUS
 62
     7
100
AcDbCircle
 10
619.9999852499933
 20
894.999969750007
 30
0.0
 40
210.0000000000001
100
AcDbArc
 50
158.4549722789337
 51
179.0450261262141
  0
ARC
  5
125
330
1F
100
AcDbEntity
  8
LAY-10
  6
CONTINUOUS
 62
     7
100
AcDbCircle
 10
619.9999852499933
 20
894.999969750007
 30
0.0
 40
267.0
100
AcDbArc
 50
158.2510832075848
 51
179.2489102175005
  0
LINE
  5
126
330
1F
100
AcDbEntity
  8
LAY-10
  6
CONTINUOUS
 62
     7
100
AcDbLine
 10
442.9999542499933
 20
906.9999697500072
 30
0.0
 11
442.9999542499933
 21
932.999969750007
 31
0.0
  0
LINE
  5
127
330
1F
100
AcDbEntity
  8
LAY-10
  6
CONTINUOUS
 62
     7
100
AcDbLine
 10
418.9999542499933
 20
906.9999697500072
 30
0.0
 11
418.9999542499933
 21
932.999969750007
 31
0.0
  0
ARC
  5
128
330
1F
100
AcDbEntity
  8
LAY-10
  6
CONTINUOUS
 62
     7
100
AcDbCircle
 10
619.9999852499933
 20
894.999969750007
 30
0.0
 40
267.0
100
AcDbArc
 50
180.7510897824996
 51
201.7489167924153
  0
ARC
  5
129
330
1F
100
AcDbEntity
  8
LAY-10
  6
CONTINUOUS
 62
     7
100
AcDbCircle
 10
619.9999852499933
 20
894.999969750007
 30
0.0
 40
242.0000000000001
100
AcDbArc
 50
180.8286868596779
 51
201.6713172270923
  0
ARC
  5
12A
330
1F
100
AcDbEntity
  8
LAY-10
  6
CONTINUOUS
 62
     7
100
AcDbCircle
 10
619.9999852499933
 20
894.999969750007
 30
0.0
 40
235.0000000000001
100
AcDbArc
 50
180.8533729481594
 51
201.6466284583674
  0
LINE
  5
12B
330
1F
100
AcDbEntity
  8
LAY-10
  6
CONTINUOUS
 62
     7
100
AcDbLine
 10
401.5729863989711
 20
808.3129108949767
 30
0.0
 11
424.6728419138859
 21
817.8811842554478
 31
0.0
  0
LINE
  5
12C
330
1F
100
AcDbEntity
  8
LAY-10
  6
CONTINUOUS
 62
     7
100
AcDbLine
 10
372.0059641854972
 20
796.0658223778165
 30
0.0
 11
395.1051372807862
 21
805.6338276328315
 31
0.0
  0
LINE
  5
12D
330
1F
100
AcDbEntity
  8
LAY-10
  6
CONTINUOUS
 62
     7
100
AcDbLine
 10
397.7839314861511
 20
799.1666485635571
 30
0.0
 11
374.684752674645
 21
789.5986572984879
 31
0.0
  0
ARC
  5
12E
330
1F
100
AcDbEntity
  8
LAY-10
  6
CONTINUOUS
 62
     7
100
AcDbCircle
 10
619.9999852499933
 20
894.999969750007
 30
0.0
 40
242.0000000000001
100
AcDbArc
 50
203.328696756252
 51
224.1713147256222
  0
LINE
  5
12F
330
1F
100
AcDbEntity
  8
LAY-10
  6
CONTINUOUS
 62
     7
100
AcDbLine
 10
404.2517803115695
 20
801.8457317044524
 30
0.0
 11
427.3516490298822
 21
811.4139748009544
 31
0.0
  0
LINE
  5
130
330
1F
100
AcDbEntity
  8
LAY-10
  6
CONTINUOUS
 62
     7
100
AcDbLine
 10
378.025296491024
 20
891.499969750007
 30
0.0
 11
353.0229263104656
 21
891.499969750007
 31
0.0
  0
LINE
  5
131
330
1F
100
AcDbEntity
  8
LAY-10
  6
CONTINUOUS
 62
     7
100
AcDbLine
 10
378.025296491024
 20
898.499969750007
 30
0.0
 11
353.0229263104656
 21
898.499969750007
 31
0.0
  0
ARC
  5
132
330
1F
100
AcDbEntity
  8
LAY-10
  6
CONTINUOUS
 62
     7
100
AcDbCircle
 10
619.9999852499933
 20
894.999969750007
 30
0.0
 40
210.0000000000001
100
AcDbArc
 50
180.9549738737859
 51
201.5450277210663
  0
LINE
  5
133
330
1F
100
AcDbEntity
  8
LAY-10
  6
CONTINUOUS
 62
     7
100
AcDbLine
 10
418.9999542499933
 20
882.999969750007
 30
0.0
 11
418.9999542499933
 21
856.9999697500072
 31
0.0
  0
LINE
  5
134
330
1F
100
AcDbEntity
  8
LAY-10
  6
CONTINUOUS
 62
     7
100
AcDbLine
 10
442.9999542499933
 20
882.999969750007
 30
0.0
 11
442.9999542499933
 21
856.9999697500072
 31
0.0
  0
LINE
  5
135
330
1F
100
AcDbEntity
  8
LAY-10
  6
CONTINUOUS
 62
     7
100
AcDbLine
 10
420.9999542499933
 20
854.999969750007
 30
0.0
 11
440.9999542499933
 21
854.999969750007
 31
0.0
  0
ARC
  5
136
330
1F
100
AcDbEntity
  8
LAY-10
  6
CONTINUOUS
 62
     7
100
AcDbCircle
 10
420.9999542499933
 20
856.9999697500072
 30
0.0
 40
2.0
100
AcDbArc
 50
180.0000198478434
 51
270.0000011238739
  0
ARC
  5
137
330
1F
100
AcDbEntity
  8
LAY-10
  6
CONTINUOUS
 62
     7
100
AcDbCircle
 10
440.9999542499933
 20
856.9999697500072
 30
0.0
 40
2.0
100
AcDbArc
 50
270.0000011238739
 51
359.9999823999059
  0
LINE
  5
138
330
1F
100
AcDbEntity
  8
LAY-10
  6
CONTINUOUS
 62
     7
100
AcDbLine
 10
410.0291539424042
 20
891.499969750007
 30
0.0
 11
385.0260505253094
 21
891.499969750007
 31
0.0
  0
LINE
  5
139
330
1F
100
AcDbEntity
  8
LAY-10
  6
CONTINUOUS
 62
     7
100
AcDbLine
 10
410.0291539424042
 20
898.499969750007
 30
0.0
 11
385.0260505253094
 21
898.499969750007
 31
0.0
  0
LINE
  5
13A
330
1F
100
AcDbEntity
  8
LAY-10
  6
CONTINUOUS
 62
     7
100
AcDbLine
 10
420.9999542499933
 20
884.999969750007
 30
0.0
 11
440.9999542499933
 21
884.999969750007
 31
0.0
  0
ARC
  5
13B
330
1F
100
AcDbEntity
  8
LAY-10
  6
CONTINUOUS
 62
     7
100
AcDbCircle
 10
420.9999542499933
 20
882.999969750007
 30
0.0
 40
2.0
100
AcDbArc
 50
90.00003857180653
 51
180.0000198478434
  0
ARC
  5
13C
330
1F
100
AcDbEntity
  8
LAY-10
  6
CONTINUOUS
 62
     7
100
AcDbCircle
 10
440.9999542499933
 20
882.999969750007
 30
0.0
 40
2.0
100
AcDbArc
 50
0.0
 51
90.00003857180653
  0
LINE
  5
13D
330
1F
100
AcDbEntity
  8
LAY-10
  6
CONTINUOUS
 62
     7
100
AcDbLine
 10
420.9999542499933
 20
904.999969750007
 30
0.0
 11
440.9999542499933
 21
904.999969750007
 31
0.0
  0
ARC
  5
13E
330
1F
100
AcDbEntity
  8
LAY-10
  6
CONTINUOUS
 62
     7
100
AcDbCircle
 10
420.9999542499933
 20
906.9999697500072
 30
0.0
 40
2.0
100
AcDbArc
 50
179.9999801521566
 51
269.9999614281936
  0
ARC
  5
13F
330
1F
100
AcDbEntity
  8
LAY-10
  6
CONTINUOUS
 62
     7
100
AcDbCircle
 10
440.9999542499933
 20
906.9999697500072
 30
0.0
 40
2.0
100
AcDbArc
 50
269.9999614281936
 51
0.0
  0
ARC
  5
140
330
1F
100
AcDbEntity
  8
LAY-10
  6
CONTINUOUS
 62
     7
100
AcDbCircle
 10
619.9999852499933
 20
894.999969750007
 30
0.0
 40
267.0
100
AcDbArc
 50
135.7510883456713
 51
156.7489016201583
  0
ARC
  5
141
330
1F
100
AcDbEntity
  8
LAY-10
  6
CONTINUOUS
 62
     7
100
AcDbCircle
 10
619.9999852499933
 20
894.999969750007
 30
0.0
 40
242.0000000000001
100
AcDbArc
 50
135.8286852743777
 51
156.6713032437481
  0
LINE
  5
142
330
1F
100
AcDbEntity
  8
LAY-10
  6
CONTINUOUS
 62
     7
100
AcDbLine
 10
397.7839314861511
 20
990.8332909364569
 30
0.0
 11
374.684752674645
 21
1000.401282201526
 31
0.0
  0
LINE
  5
143
330
1F
100
AcDbEntity
  8
LAY-10
  6
CONTINUOUS
 62
     7
100
AcDbLine
 10
372.0059641854972
 20
993.9341171221976
 30
0.0
 11
395.1051372807862
 21
984.3661118671827
 31
0.0
  0
LINE
  5
144
330
1F
100
AcDbEntity
  8
LAY-10
  6
CONTINUOUS
 62
     7
100
AcDbLine
 10
420.9999542499933
 20
934.999969750007
 30
0.0
 11
440.9999542499933
 21
934.999969750007
 31
0.0
  0
ARC
  5
145
330
1F
100
AcDbEntity
  8
LAY-10
  6
CONTINUOUS
 62
     7
100
AcDbCircle
 10
420.9999542499933
 20
932.999969750007
 30
0.0
 40
2.0
100
AcDbArc
 50
89.99999887612611
 51
179.9999801521566
  0
ARC
  5
146
330
1F
100
AcDbEntity
  8
LAY-10
  6
CONTINUOUS
 62
     7
100
AcDbCircle
 10
440.9999542499933
 20
932.999969750007
 30
0.0
 40
2.0
100
AcDbArc
 50
0.0000176000940596
 51
89.99999887612611
  0
LINE
  5
147
330
1F
100
AcDbEntity
  8
LAY-10
  6
CONTINUOUS
 62
     7
100
AcDbLine
 10
401.5729863989711
 20
981.6870286050374
 30
0.0
 11
424.6728419138859
 21
972.1187552445663
 31
0.0
  0
LINE
  5
148
330
1F
100
AcDbEntity
  8
LAY-10
  6
CONTINUOUS
 62
     7
100
AcDbLine
 10
404.2517803115695
 20
988.1542077955618
 30
0.0
 11
427.3516490298822
 21
978.5859646990597
 31
0.0
  0
LINE
  5
149
330
1F
100
AcDbEntity
  8
LAY-10
  6
CONTINUOUS
 62
     7
100
AcDbLine
 10
446.4231728845456
 20
1063.627044115455
 30
0.0
 11
428.7438273905492
 21
1081.306389609451
 31
0.0
  0
LINE
  5
14A
330
1F
100
AcDbEntity
  8
LAY-10
  6
CONTINUOUS
 62
     7
100
AcDbLine
 10
616.4999852499933
 20
1104.970801057596
 30
0.0
 11
616.4999852499933
 21
1129.973904474691
 31
0.0
  0
ARC
  5
14B
330
1F
100
AcDbEntity
  8
LAY-10
  6
CONTINUOUS
 62
     7
100
AcDbCircle
 10
619.9999852499933
 20
894.999969750007
 30
0.0
 40
235.0000000000001
100
AcDbArc
 50
113.3533902139043
 51
134.1466288567846
  0
LINE
  5
14C
330
1F
100
AcDbEntity
  8
LAY-10
  6
CONTINUOUS
 62
     7
100
AcDbLine
 10
533.3128887437725
 20
1113.426953658409
 30
0.0
 11
542.8811555625763
 21
1090.327095637947
 31
0.0
  0
LINE
  5
14D
330
1F
100
AcDbEntity
  8
LAY-10
  6
CONTINUOUS
 62
     7
100
AcDbLine
 10
536.4140060450176
 20
1087.648312801136
 30
0.0
 11
526.8457100149827
 21
1110.748158631026
 31
0.0
  0
ARC
  5
14E
330
1F
100
AcDbEntity
  8
LAY-10
  6
CONTINUOUS
 62
     7
100
AcDbCircle
 10
619.9999852499933
 20
894.999969750007
 30
0.0
 40
242.0000000000001
100
AcDbArc
 50
45.82868527438814
 51
66.671299271203
  0
LINE
  5
14F
330
1F
100
AcDbEntity
  8
LAY-10
  6
CONTINUOUS
 62
     7
100
AcDbLine
 10
703.5859644549688
 20
1087.648312801136
 30
0.0
 11
713.1542604850038
 21
1110.748158631026
 31
0.0
  0
LINE
  5
150
330
1F
100
AcDbEntity
  8
LAY-10
  6
CONTINUOUS
 62
     7
100
AcDbLine
 10
706.6870817562138
 20
1113.426953658409
 30
0.0
 11
697.1188149374103
 21
1090.327095637947
 31
0.0
  0
ARC
  5
151
330
1F
100
AcDbEntity
  8
LAY-10
  6
CONTINUOUS
 62
     7
100
AcDbCircle
 10
619.9999852499933
 20
894.999969750007
 30
0.0
 40
235.0000000000001
100
AcDbArc
 50
45.85337114321539
 51
66.64660978609561
  0
LINE
  5
152
330
1F
100
AcDbEntity
  8
LAY-10
  6
CONTINUOUS
 62
     7
100
AcDbLine
 10
623.4999852499933
 20
1104.970801057596
 30
0.0
 11
623.4999852499933
 21
1129.973904474691
 31
0.0
  0
ARC
  5
153
330
1F
100
AcDbEntity
  8
LAY-10
  6
CONTINUOUS
 62
     7
100
AcDbCircle
 10
619.9999852499933
 20
894.999969750007
 30
0.0
 40
267.0
100
AcDbArc
 50
45.75108834566903
 51
66.74889793751356
  0
ARC
  5
154
330
1F
100
AcDbEntity
  8
LAY-10
  6
CONTINUOUS
 62
     7
100
AcDbCircle
 10
619.9999852499933
 20
894.999969750007
 30
0.0
 40
107.0
100
AcDbArc
 50
1.874495386780023
 51
20.62551929251413
  0
LINE
  5
155
330
1F
100
AcDbEntity
  8
LAY-10
  6
CONTINUOUS
 62
     7
100
AcDbLine
 10
726.9427269391794
 20
898.499969750007
 30
0.0
 11
701.9252560765214
 21
898.499969750007
 31
0.0
  0
LINE
  5
156
330
1F
100
AcDbEntity
  8
LAY-10
  6
CONTINUOUS
 62
     7
100
AcDbLine
 10
738.4150461316736
 20
1018.364767631688
 30
0.0
 11
720.7330380831337
 21
1000.682759583148
 31
0.0
  0
ARC
  5
157
330
1F
100
AcDbEntity
  8
LAY-10
  6
CONTINUOUS
 62
     7
100
AcDbCircle
 10
619.9999852499933
 20
894.999969750007
 30
0.0
 40
114.0
100
AcDbArc
 50
24.25935269812367
 51
43.24062425938908
  0
ARC
  5
158
330
1F
100
AcDbEntity
  8
LAY-10
  6
CONTINUOUS
 62
     7
100
AcDbCircle
 10
619.9999852499933
 20
894.999969750007
 30
0.0
 40
139.0
100
AcDbArc
 50
23.94283458717001
 51
43.55715078165475
  0
LINE
  5
159
330
1F
100
AcDbEntity
  8
LAY-10
  6
CONTINUOUS
 62
     7
100
AcDbLine
 10
747.0391484047096
 20
951.4096411277887
 30
0.0
 11
723.9332138345338
 21
941.838885151558
 31
0.0
  0
ARC
  5
15A
330
1F
100
AcDbEntity
  8
LAY-10
  6
CONTINUOUS
 62
     7
100
AcDbCircle
 10
619.9999852499933
 20
894.999969750007
 30
0.0
 40
178.0
100
AcDbArc
 50
46.12667263212286
 51
66.3733084937156
  0
ARC
  5
15B
330
1F
100
AcDbEntity
  8
LAY-10
  6
CONTINUOUS
 62
     7
100
AcDbCircle
 10
619.9999852499933
 20
894.999969750007
 30
0.0
 40
171.0
100
AcDbArc
 50
46.1728000497791
 51
66.32718165107124
  0
ARC
  5
15C
330
1F
100
AcDbEntity
  8
LAY-10
  6
CONTINUOUS
 62
     7
100
AcDbCircle
 10
619.9999852499933
 20
894.999969750007
 30
0.0
 40
203.0000000000001
100
AcDbArc
 50
45.9879051271076
 51
66.51207241810822
  0
ARC
  5
15D
330
1F
100
AcDbEntity
  8
LAY-10
  6
CONTINUOUS
 62
     7
100
AcDbCircle
 10
619.9999852499933
 20
894.999969750007
 30
0.0
 40
210.0000000000001
100
AcDbArc
 50
45.95497185390965
 51
66.54501351008196
  0
ARC
  5
15E
330
1F
100
AcDbEntity
  8
LAY-10
  6
CONTINUOUS
 62
     7
100
AcDbCircle
 10
619.9999852499933
 20
894.999969750007
 30
0.0
 40
139.0
100
AcDbArc
 50
316.4428492183453
 51
336.05716541283
  0
ARC
  5
15F
330
1F
100
AcDbEntity
  8
LAY-10
  6
CONTINUOUS
 62
     7
100
AcDbCircle
 10
619.9999852499933
 20
894.999969750007
 30
0.0
 40
114.0
100
AcDbArc
 50
316.7593757406109
 51
335.7406473018763
  0
ARC
  5
160
330
1F
100
AcDbEntity
  8
LAY-10
  6
CONTINUOUS
 62
     7
100
AcDbCircle
 10
619.9999852499933
 20
894.999969750007
 30
0.0
 40
107.0
100
AcDbArc
 50
339.3744807074859
 51
358.1255046132201
  0
LINE
  5
161
330
1F
100
AcDbEntity
  8
LAY-10
  6
CONTINUOUS
 62
     7
100
AcDbLine
 10
747.0391484047096
 20
838.5902983722254
 30
0.0
 11
723.9332138345338
 21
848.1610543484561
 31
0.0
  0
LINE
  5
162
330
1F
100
AcDbEntity
  8
LAY-10
  6
CONTINUOUS
 62
     7
100
AcDbLine
 10
726.9427269391794
 20
891.499969750007
 30
0.0
 11
701.9252560765214
 21
891.499969750007
 31
0.0
  0
LINE
  5
163
330
1F
100
AcDbEntity
  8
LAY-10
  6
CONTINUOUS
 62
     7
100
AcDbLine
 10
738.4150461316736
 20
771.6351718683266
 30
0.0
 11
720.7330380831337
 21
789.3171799168665
 31
0.0
  0
ARC
  5
164
330
1F
100
AcDbEntity
  8
LAY-10
  6
CONTINUOUS
 62
     7
100
AcDbCircle
 10
619.9999852499933
 20
894.999969750007
 30
0.0
 40
171.0
100
AcDbArc
 50
293.6728183489288
 51
313.8271999502209
  0
ARC
  5
165
330
1F
100
AcDbEntity
  8
LAY-10
  6
CONTINUOUS
 62
     7
100
AcDbCircle
 10
619.9999852499933
 20
894.999969750007
 30
0.0
 40
178.0
100
AcDbArc
 50
293.6266915062844
 51
313.8733273678772
  0
CIRCLE
  5
166
330
1F
100
AcDbEntity
  8
LAY-10
  6
CONTINUOUS
 62
     7
100
AcDbCircle
 10
619.9999999999951
 20
895.0000000000047
 30
0.0
 40
75.0
  0
ARC
  5
167
330
1F
100
AcDbEntity
  8
LAY-10
  6
CONTINUOUS
 62
     7
100
AcDbCircle
 10
619.9999852499933
 20
894.999969750007
 30
0.0
 40
146.0
100
AcDbArc
 50
158.8736665474376
 51
178.6263394471321
  0
ARC
  5
168
330
1F
100
AcDbEntity
  8
LAY-10
  6
CONTINUOUS
 62
     7
100
AcDbCircle
 10
619.9999852499933
 20
894.999969750007
 30
0.0
 40
114.0
100
AcDbArc
 50
159.2593508076079
 51
178.2406425818017
  0
ARC
  5
169
330
1F
100
AcDbEntity
  8
LAY-10
  6
CONTINUOUS
 62
     7
100
AcDbCircle
 10
619.9999852499933
 20
894.999969750007
 30
0.0
 40
139.0
100
AcDbArc
 50
158.9428466249014
 51
178.5571480210519
  0
ARC
  5
16A
330
1F
100
AcDbEntity
  8
LAY-10
  6
CONTINUOUS
 62
     7
100
AcDbCircle
 10
619.9999852499933
 20
894.999969750007
 30
0.0
 40
107.0
100
AcDbArc
 50
159.3744807074859
 51
178.12550461322
  0
ARC
  5
16B
330
1F
100
AcDbEntity
  8
LAY-10
  6
CONTINUOUS
 62
     7
100
AcDbCircle
 10
619.9999852499933
 20
894.999969750007
 30
0.0
 40
82.0
100
AcDbArc
 50
159.9462779982449
 51
177.5537052618693
  0
ARC
  5
16C
330
1F
100
AcDbEntity
  8
LAY-10
  6
CONTINUOUS
 62
     7
100
AcDbCircle
 10
619.9999852499933
 20
894.999969750007
 30
0.0
 40
82.0
100
AcDbArc
 50
2.446294738130689
 51
20.05372200175501
  0
ARC
  5
16D
330
1F
100
AcDbEntity
  8
LAY-10
  6
CONTINUOUS
 62
     7
100
AcDbCircle
 10
619.9999852499933
 20
894.999969750007
 30
0.0
 40
114.0
100
AcDbArc
 50
249.2593423715531
 51
268.2406425818017
  0
ARC
  5
16E
330
1F
100
AcDbEntity
  8
LAY-10
  6
CONTINUOUS
 62
     7
100
AcDbCircle
 10
619.9999852499933
 20
894.999969750007
 30
0.0
 40
107.0
100
AcDbArc
 50
249.3744736102618
 51
268.125504613225
  0
ARC
  5
16F
330
1F
100
AcDbEntity
  8
LAY-10
  6
CONTINUOUS
 62
     7
100
AcDbCircle
 10
619.9999852499933
 20
894.999969750007
 30
0.0
 40
171.0
100
AcDbArc
 50
248.6727871117784
 51
268.8271974694924
  0
ARC
  5
170
330
1F
100
AcDbEntity
  8
LAY-10
  6
CONTINUOUS
 62
     7
100
AcDbCircle
 10
619.9999852499933
 20
894.999969750007
 30
0.0
 40
146.0
100
AcDbArc
 50
248.8736394051006
 51
268.6263394471256
  0
ARC
  5
171
330
1F
100
AcDbEntity
  8
LAY-10
  6
CONTINUOUS
 62
     7
100
AcDbCircle
 10
619.9999852499933
 20
894.999969750007
 30
0.0
 40
139.0
100
AcDbArc
 50
248.9428299240775
 51
268.5571480210534
  0
ARC
  5
172
330
1F
100
AcDbEntity
  8
LAY-10
  6
CONTINUOUS
 62
     7
100
AcDbCircle
 10
619.9999852499933
 20
894.999969750007
 30
0.0
 40
178.0
100
AcDbArc
 50
248.6266589081998
 51
268.8733249847405
  0
LINE
  5
173
330
1F
100
AcDbEntity
  8
LAY-10
  6
CONTINUOUS
 62
     7
100
AcDbLine
 10
591.8820877039119
 20
817.9715085321684
 30
0.0
 11
582.3083100966156
 21
794.8583818649917
 31
0.0
  0
ARC
  5
174
330
1F
100
AcDbEntity
  8
LAY-10
  6
CONTINUOUS
 62
     7
100
AcDbCircle
 10
619.9999852499933
 20
894.999969750007
 30
0.0
 40
178.0
100
AcDbArc
 50
203.6266784662444
 51
223.8733271402251
  0
ARC
  5
175
330
1F
100
AcDbEntity
  8
LAY-10
  6
CONTINUOUS
 62
     7
100
AcDbCircle
 10
619.9999852499933
 20
894.999969750007
 30
0.0
 40
171.0
100
AcDbArc
 50
203.6728050844821
 51
223.8271997132395
  0
LINE
  5
176
330
1F
100
AcDbEntity
  8
LAY-10
  6
CONTINUOUS
 62
     7
100
AcDbLine
 10
536.9529139257855
 20
816.9026974258603
 30
0.0
 11
519.2684369684854
 21
799.2181594684602
 31
0.0
  0
ARC
  5
177
330
1F
100
AcDbEntity
  8
LAY-10
  6
CONTINUOUS
 62
     7
100
AcDbCircle
 10
619.9999852499933
 20
894.999969750007
 30
0.0
 40
146.0
100
AcDbArc
 50
203.8736553891135
 51
223.626342075294
  0
ARC
  5
178
330
1F
100
AcDbEntity
  8
LAY-10
  6
CONTINUOUS
 62
     7
100
AcDbCircle
 10
619.9999852499933
 20
894.999969750007
 30
0.0
 40
139.0
100
AcDbArc
 50
203.94283458717
 51
223.5571507816546
  0
ARC
  5
179
330
1F
100
AcDbEntity
  8
LAY-10
  6
CONTINUOUS
 62
     7
100
AcDbCircle
 10
619.9999852499933
 20
894.999969750007
 30
0.0
 40
107.0
100
AcDbArc
 50
226.8744800557406
 51
245.6254696910963
  0
LINE
  5
17A
330
1F
100
AcDbEntity
  8
LAY-10
  6
CONTINUOUS
 62
     7
100
AcDbLine
 10
585.41490585593
 20
820.650307455506
 30
0.0
 11
575.8411320258948
 21
797.5371784810693
 31
0.0
  0
ARC
  5
17B
330
1F
100
AcDbEntity
  8
LAY-10
  6
CONTINUOUS
 62
     7
100
AcDbCircle
 10
619.9999852499933
 20
894.999969750007
 30
0.0
 40
171.0
100
AcDbArc
 50
226.1728000497791
 51
246.327181651071
  0
ARC
  5
17C
330
1F
100
AcDbEntity
  8
LAY-10
  6
CONTINUOUS
 62
     7
100
AcDbCircle
 10
619.9999852499933
 20
894.999969750007
 30
0.0
 40
178.0
100
AcDbArc
 50
226.1266726321216
 51
246.3733084937156
  0
LINE
  5
17D
330
1F
100
AcDbEntity
  8
LAY-10
  6
CONTINUOUS
 62
     7
100
AcDbLine
 10
501.5849243683127
 20
771.6351718683266
 30
0.0
 11
519.2669324168529
 21
789.3171799168665
 31
0.0
  0
LINE
  5
17E
330
1F
100
AcDbEntity
  8
LAY-10
  6
CONTINUOUS
 62
     7
100
AcDbLine
 10
491.6844430817652
 20
771.6341655817787
 30
0.0
 11
474.0037762916692
 21
753.9534987916829
 31
0.0
  0
LINE
  5
17F
330
1F
100
AcDbEntity
  8
LAY-10
  6
CONTINUOUS
 62
     7
100
AcDbLine
 10
478.9535137830472
 20
749.0037612830608
 30
0.0
 11
496.6341805719318
 21
766.6844280719454
 31
0.0
  0
LINE
  5
180
330
1F
100
AcDbEntity
  8
LAY-10
  6
CONTINUOUS
 62
     7
100
AcDbLine
 10
469.0533175021066
 20
749.0030400021212
 30
0.0
 11
451.3734540245466
 21
731.3231755277551
 31
0.0
  0
LINE
  5
181
330
1F
100
AcDbEntity
  8
LAY-10
  6
CONTINUOUS
 62
     7
100
AcDbLine
 10
456.3231910261201
 20
726.3734385261339
 30
0.0
 11
474.0030549937725
 21
744.0533024937863
 31
0.0
  0
LINE
  5
182
330
1F
100
AcDbEntity
  8
LAY-10
  6
CONTINUOUS
 62
     7
100
AcDbLine
 10
496.6351868785488
 20
776.5849093785625
 30
0.0
 11
514.3171949288425
 21
794.2669174288565
 31
0.0
  0
ARC
  5
183
330
1F
100
AcDbEntity
  8
LAY-10
  6
CONTINUOUS
 62
     7
100
AcDbCircle
 10
619.9999852499933
 20
894.999969750007
 30
0.0
 40
146.0
100
AcDbArc
 50
226.3736576471311
 51
246.1263178312034
  0
LINE
  5
184
330
1F
100
AcDbEntity
  8
LAY-10
  6
CONTINUOUS
 62
     7
100
AcDbLine
 10
560.9106320559093
 20
761.4917365240937
 30
0.0
 11
551.3412053782137
 21
738.3890763022058
 31
0.0
  0
LINE
  5
185
330
1F
100
AcDbEntity
  8
LAY-10
  6
CONTINUOUS
 62
     7
100
AcDbLine
 10
557.8083624773891
 20
735.710290056343
 30
0.0
 11
567.3777888856313
 21
758.8129496277114
 31
0.0
  0
ARC
  5
186
330
1F
100
AcDbEntity
  8
LAY-10
  6
CONTINUOUS
 62
     7
100
AcDbCircle
 10
619.9999852499933
 20
894.999969750007
 30
0.0
 40
139.0
100
AcDbArc
 50
226.4428492183569
 51
246.057125474439
  0
ARC
  5
187
330
1F
100
AcDbEntity
  8
LAY-10
  6
CONTINUOUS
 62
     7
100
AcDbCircle
 10
619.9999852499933
 20
894.999969750007
 30
0.0
 40
114.0
100
AcDbArc
 50
226.7593536961264
 51
245.7406007963243
  0
LINE
  5
188
330
1F
100
AcDbEntity
  8
LAY-10
  6
CONTINUOUS
 62
     7
100
AcDbLine
 10
541.9026809736073
 20
811.952928473622
 30
0.0
 11
524.2181749684659
 21
794.2684214684807
 31
0.0
  0
LINE
  5
189
330
1F
100
AcDbEntity
  8
LAY-10
  6
CONTINUOUS
 62
     7
100
AcDbLine
 10
570.057382105509
 20
765.2820589159493
 30
0.0
 11
579.6281900161688
 21
788.3879715997136
 31
0.0
  0
LINE
  5
18A
330
1F
100
AcDbEntity
  8
LAY-10
  6
CONTINUOUS
 62
     7
100
AcDbLine
 10
573.1609854884492
 20
791.0667791834796
 30
0.0
 11
563.590225318767
 21
767.9608459160422
 31
0.0
  0
ARC
  5
18B
330
1F
100
AcDbEntity
  8
LAY-10
  6
CONTINUOUS
 62
     7
100
AcDbCircle
 10
619.9999852499933
 20
894.999969750007
 30
0.0
 40
114.0
100
AcDbArc
 50
204.2593526981237
 51
223.2406242593891
  0
LINE
  5
18C
330
1F
100
AcDbEntity
  8
LAY-10
  6
CONTINUOUS
 62
     7
100
AcDbLine
 10
513.057243560807
 20
891.499969750007
 30
0.0
 11
538.074714423465
 21
891.499969750007
 31
0.0
  0
ARC
  5
18D
330
1F
100
AcDbEntity
  8
LAY-10
  6
CONTINUOUS
 62
     7
100
AcDbCircle
 10
619.9999852499933
 20
894.999969750007
 30
0.0
 40
107.0
100
AcDbArc
 50
181.87449538678
 51
200.6255192925141
  0
LINE
  5
18E
330
1F
100
AcDbEntity
  8
LAY-10
  6
CONTINUOUS
 62
     7
100
AcDbLine
 10
513.057243560807
 20
898.499969750007
 30
0.0
 11
538.074714423465
 21
898.499969750007
 31
0.0
  0
ARC
  5
18F
330
1F
100
AcDbEntity
  8
LAY-10
  6
CONTINUOUS
 62
     7
100
AcDbCircle
 10
619.9999852499933
 20
894.999969750007
 30
0.0
 40
146.0
100
AcDbArc
 50
181.3736605528679
 51
201.1263334525625
  0
ARC
  5
190
330
1F
100
AcDbEntity
  8
LAY-10
  6
CONTINUOUS
 62
     7
100
AcDbCircle
 10
619.9999852499933
 20
894.999969750007
 30
0.0
 40
139.0
100
AcDbArc
 50
181.4428519789481
 51
201.0571533750986
  0
ARC
  5
191
330
1F
100
AcDbEntity
  8
LAY-10
  6
CONTINUOUS
 62
     7
100
AcDbCircle
 10
619.9999852499933
 20
894.999969750007
 30
0.0
 40
114.0
100
AcDbArc
 50
181.7593574181981
 51
200.7406491923921
  0
LINE
  5
192
330
1F
100
AcDbEntity
  8
LAY-10
  6
CONTINUOUS
 62
     7
100
AcDbLine
 10
483.8129401993571
 20
842.3778379006037
 30
0.0
 11
460.7102908223945
 21
832.8083847150348
 31
0.0
  0
LINE
  5
193
330
1F
100
AcDbEntity
  8
LAY-10
  6
CONTINUOUS
 62
     7
100
AcDbLine
 10
463.3890759071313
 20
826.3412261349229
 30
0.0
 11
486.4917244061113
 21
835.9106789568187
 31
0.0
  0
LINE
  5
194
330
1F
100
AcDbEntity
  8
LAY-10
  6
CONTINUOUS
 62
     7
100
AcDbLine
 10
490.282059858458
 20
845.0574044162548
 30
0.0
 11
513.387981155489
 21
854.6281902133876
 31
0.0
  0
LINE
  5
195
330
1F
100
AcDbEntity
  8
LAY-10
  6
CONTINUOUS
 62
     7
100
AcDbLine
 10
492.9608220952767
 20
838.5902983722254
 30
0.0
 11
516.0667566654528
 21
848.1610543484561
 31
0.0
  0
LINE
  5
196
330
1F
100
AcDbEntity
  8
LAY-10
  6
CONTINUOUS
 62
     7
100
AcDbLine
 10
481.0440569849494
 20
891.499969750007
 30
0.0
 11
506.0537259871286
 21
891.499969750007
 31
0.0
  0
LINE
  5
197
330
1F
100
AcDbEntity
  8
LAY-10
  6
CONTINUOUS
 62
     7
100
AcDbLine
 10
481.0440569849494
 20
898.499969750007
 30
0.0
 11
506.0537259871286
 21
898.499969750007
 31
0.0
  0
LINE
  5
198
330
1F
100
AcDbEntity
  8
LAY-10
  6
CONTINUOUS
 62
     7
100
AcDbLine
 10
519.8583926961093
 20
857.3083070011725
 30
0.0
 11
542.9715205397334
 21
866.882081771351
 31
0.0
  0
ARC
  5
199
330
1F
100
AcDbEntity
  8
LAY-10
  6
CONTINUOUS
 62
     7
100
AcDbCircle
 10
619.9999852499933
 20
894.999969750007
 30
0.0
 40
82.0
100
AcDbArc
 50
204.9462646317394
 51
222.5536644477201
  0
LINE
  5
19A
330
1F
100
AcDbEntity
  8
LAY-10
  6
CONTINUOUS
 62
     7
100
AcDbLine
 10
541.9051487461669
 20
821.8549322461502
 30
0.0
 11
559.5951574609632
 21
839.5449719610106
 31
0.0
  0
LINE
  5
19B
330
1F
100
AcDbEntity
  8
LAY-10
  6
CONTINUOUS
 62
     7
100
AcDbLine
 10
546.8549002406684
 20
816.9051777406889
 30
0.0
 11
564.5449389743998
 21
834.5951864744105
 31
0.0
  0
ARC
  5
19C
330
1F
100
AcDbEntity
  8
LAY-10
  6
CONTINUOUS
 62
     7
100
AcDbCircle
 10
619.9999852499933
 20
894.999969750007
 30
0.0
 40
107.0
100
AcDbArc
 50
204.3744664033389
 51
223.1254850909473
  0
LINE
  5
19D
330
1F
100
AcDbEntity
  8
LAY-10
  6
CONTINUOUS
 62
     7
100
AcDbLine
 10
522.5371447279946
 20
850.8412252322622
 30
0.0
 11
545.6502781783146
 21
860.4149866163467
 31
0.0
  0
ARC
  5
19E
330
1F
100
AcDbEntity
  8
LAY-10
  6
CONTINUOUS
 62
     7
100
AcDbCircle
 10
619.9999852499933
 20
894.999969750007
 30
0.0
 40
82.0
100
AcDbArc
 50
227.4462895612783
 51
245.0536611875177
  0
ARC
  5
19F
330
1F
100
AcDbEntity
  8
LAY-10
  6
CONTINUOUS
 62
     7
100
AcDbCircle
 10
619.9999852499933
 20
894.999969750007
 30
0.0
 40
82.0
100
AcDbArc
 50
182.4462947381307
 51
200.0537220017551
  0
LINE
  5
1A0
330
1F
100
AcDbEntity
  8
LAY-10
  6
CONTINUOUS
 62
     7
100
AcDbLine
 10
616.4999852499933
 20
788.0572280608209
 30
0.0
 11
616.4999852499933
 21
813.0746989234788
 31
0.0
  0
ARC
  5
1A1
330
1F
100
AcDbEntity
  8
LAY-10
  6
CONTINUOUS
 62
     7
100
AcDbCircle
 10
619.9999852499933
 20
894.999969750007
 30
0.0
 40
82.0
100
AcDbArc
 50
249.9462708817403
 51
267.553705261871
  0
LINE
  5
1A2
330
1F
100
AcDbEntity
  8
LAY-10
  6
CONTINUOUS
 62
     7
100
AcDbLine
 10
703.0470565742011
 20
816.9026974258603
 30
0.0
 11
720.7315335315011
 21
799.2181594684602
 31
0.0
  0
ARC
  5
1A3
330
1F
100
AcDbEntity
  8
LAY-10
  6
CONTINUOUS
 62
     7
100
AcDbCircle
 10
619.9999852499933
 20
894.999969750007
 30
0.0
 40
107.0
100
AcDbArc
 50
294.3745303089036
 51
313.1255199442595
  0
LINE
  5
1A4
330
1F
100
AcDbEntity
  8
LAY-10
  6
CONTINUOUS
 62
     7
100
AcDbLine
 10
648.1178827960747
 20
817.9715085321684
 30
0.0
 11
657.691660403371
 21
794.8583818649917
 31
0.0
  0
LINE
  5
1A5
330
1F
100
AcDbEntity
  8
LAY-10
  6
CONTINUOUS
 62
     7
100
AcDbLine
 10
654.5850646440565
 20
820.650307455506
 30
0.0
 11
664.1588384740916
 21
797.5371784810693
 31
0.0
  0
LINE
  5
1A6
330
1F
100
AcDbEntity
  8
LAY-10
  6
CONTINUOUS
 62
     7
100
AcDbLine
 10
623.4999852499933
 20
788.0572280608209
 30
0.0
 11
623.4999852499933
 21
813.0746989234788
 31
0.0
  0
ARC
  5
1A7
330
1F
100
AcDbEntity
  8
LAY-10
  6
CONTINUOUS
 62
     7
100
AcDbCircle
 10
619.9999852499933
 20
894.999969750007
 30
0.0
 40
82.0
100
AcDbArc
 50
272.446294738129
 51
290.05372911826
  0
ARC
  5
1A8
330
1F
100
AcDbEntity
  8
LAY-10
  6
CONTINUOUS
 62
     7
100
AcDbCircle
 10
619.9999852499933
 20
894.999969750007
 30
0.0
 40
107.0
100
AcDbArc
 50
271.8744953867752
 51
290.6255263897383
  0
ARC
  5
1A9
330
1F
100
AcDbEntity
  8
LAY-10
  6
CONTINUOUS
 62
     7
100
AcDbCircle
 10
619.9999852499933
 20
894.999969750007
 30
0.0
 40
139.0
100
AcDbArc
 50
271.4428519789467
 51
291.0571700759223
  0
ARC
  5
1AA
330
1F
100
AcDbEntity
  8
LAY-10
  6
CONTINUOUS
 62
     7
100
AcDbCircle
 10
619.9999852499933
 20
894.999969750007
 30
0.0
 40
114.0
100
AcDbArc
 50
271.7593574181984
 51
290.7406576284469
  0
ARC
  5
1AB
330
1F
100
AcDbEntity
  8
LAY-10
  6
CONTINUOUS
 62
     7
100
AcDbCircle
 10
619.9999852499933
 20
894.999969750007
 30
0.0
 40
171.0
100
AcDbArc
 50
271.1728025305077
 51
291.3272128882218
  0
ARC
  5
1AC
330
1F
100
AcDbEntity
  8
LAY-10
  6
CONTINUOUS
 62
     7
100
AcDbCircle
 10
619.9999852499933
 20
894.999969750007
 30
0.0
 40
146.0
100
AcDbArc
 50
271.3736605528614
 51
291.1263605948996
  0
ARC
  5
1AD
330
1F
100
AcDbEntity
  8
LAY-10
  6
CONTINUOUS
 62
     7
100
AcDbCircle
 10
619.9999852499933
 20
894.999969750007
 30
0.0
 40
178.0
100
AcDbArc
 50
271.1266750152595
 51
291.3733410918004
  0
LINE
  5
1AE
330
1F
100
AcDbEntity
  8
LAY-10
  6
CONTINUOUS
 62
     7
100
AcDbLine
 10
616.4999852499933
 20
756.0440414849631
 30
0.0
 11
616.4999852499933
 21
781.0537104871423
 31
0.0
  0
LINE
  5
1AF
330
1F
100
AcDbEntity
  8
LAY-10
  6
CONTINUOUS
 62
     7
100
AcDbLine
 10
623.4999852499933
 20
756.0440414849631
 30
0.0
 11
623.4999852499933
 21
781.0537104871423
 31
0.0
  0
LINE
  5
1B0
330
1F
100
AcDbEntity
  8
LAY-10
  6
CONTINUOUS
 62
     7
100
AcDbLine
 10
616.4999852499933
 20
749.0419278338454
 30
0.0
 11
616.4999852499933
 21
724.0357922156475
 31
0.0
  0
LINE
  5
1B1
330
1F
100
AcDbEntity
  8
LAY-10
  6
CONTINUOUS
 62
     7
100
AcDbLine
 10
623.4999852499933
 20
749.0419278338454
 30
0.0
 11
623.4999852499933
 21
724.0357922156475
 31
0.0
  0
ARC
  5
1B2
330
1F
100
AcDbEntity
  8
LAY-10
  6
CONTINUOUS
 62
     7
100
AcDbCircle
 10
619.9999852499933
 20
894.999969750007
 30
0.0
 40
146.0
100
AcDbArc
 50
293.8736821687966
 51
313.6263423528688
  0
LINE
  5
1B3
330
1F
100
AcDbEntity
  8
LAY-10
  6
CONTINUOUS
 62
     7
100
AcDbLine
 10
679.089338444077
 20
761.4917365240937
 30
0.0
 11
688.658765121773
 21
738.3890763022058
 31
0.0
  0
LINE
  5
1B4
330
1F
100
AcDbEntity
  8
LAY-10
  6
CONTINUOUS
 62
     7
100
AcDbLine
 10
682.1916080225973
 20
735.710290056343
 30
0.0
 11
672.6221816143553
 21
758.8129496277114
 31
0.0
  0
ARC
  5
1B5
330
1F
100
AcDbEntity
  8
LAY-10
  6
CONTINUOUS
 62
     7
100
AcDbCircle
 10
619.9999852499933
 20
894.999969750007
 30
0.0
 40
114.0
100
AcDbArc
 50
294.2593992036756
 51
313.2406463038739
  0
ARC
  5
1B6
330
1F
100
AcDbEntity
  8
LAY-10
  6
CONTINUOUS
 62
     7
100
AcDbCircle
 10
619.9999852499933
 20
894.999969750007
 30
0.0
 40
139.0
100
AcDbArc
 50
293.9428745255611
 51
313.5571507816431
  0
LINE
  5
1B7
330
1F
100
AcDbEntity
  8
LAY-10
  6
CONTINUOUS
 62
     7
100
AcDbLine
 10
669.9425883944773
 20
765.2820589159493
 30
0.0
 11
660.3717804838176
 21
788.3879715997136
 31
0.0
  0
LINE
  5
1B8
330
1F
100
AcDbEntity
  8
LAY-10
  6
CONTINUOUS
 62
     7
100
AcDbLine
 10
666.8389850115371
 20
791.0667791834796
 30
0.0
 11
676.4097451812194
 21
767.9608459160422
 31
0.0
  0
LINE
  5
1B9
330
1F
100
AcDbEntity
  8
LAY-10
  6
CONTINUOUS
 62
     7
100
AcDbLine
 10
698.0972895263791
 20
811.952928473622
 30
0.0
 11
715.7817955315207
 21
794.2684214684807
 31
0.0
  0
ARC
  5
1BA
330
1F
100
AcDbEntity
  8
LAY-10
  6
CONTINUOUS
 62
     7
100
AcDbCircle
 10
619.9999852499933
 20
894.999969750007
 30
0.0
 40
82.0
100
AcDbArc
 50
294.9463388124826
 51
312.5537104387214
  0
LINE
  5
1BB
330
1F
100
AcDbEntity
  8
LAY-10
  6
CONTINUOUS
 62
     7
100
AcDbLine
 10
720.1415778038773
 20
857.3083070011725
 30
0.0
 11
697.0284499602532
 21
866.882081771351
 31
0.0
  0
LINE
  5
1BC
330
1F
100
AcDbEntity
  8
LAY-10
  6
CONTINUOUS
 62
     7
100
AcDbLine
 10
693.145070259318
 20
816.9051777406889
 30
0.0
 11
675.4550315255867
 21
834.5951864744105
 31
0.0
  0
LINE
  5
1BD
330
1F
100
AcDbEntity
  8
LAY-10
  6
CONTINUOUS
 62
     7
100
AcDbLine
 10
698.0948217538194
 20
821.8549322461502
 30
0.0
 11
680.4048130390235
 21
839.5449719610106
 31
0.0
  0
ARC
  5
1BE
330
1F
100
AcDbEntity
  8
LAY-10
  6
CONTINUOUS
 62
     7
100
AcDbCircle
 10
619.9999852499933
 20
894.999969750007
 30
0.0
 40
82.0
100
AcDbArc
 50
317.44633555228
 51
335.0537353682606
  0
ARC
  5
1BF
330
1F
100
AcDbEntity
  8
LAY-10
  6
CONTINUOUS
 62
     7
100
AcDbCircle
 10
619.9999852499933
 20
894.999969750007
 30
0.0
 40
107.0
100
AcDbArc
 50
316.8745149090516
 51
335.6255335966609
  0
LINE
  5
1C0
330
1F
100
AcDbEntity
  8
LAY-10
  6
CONTINUOUS
 62
     7
100
AcDbLine
 10
717.462825771992
 20
850.8412252322622
 30
0.0
 11
694.349692321672
 21
860.4149866163467
 31
0.0
  0
ARC
  5
1C1
330
1F
100
AcDbEntity
  8
LAY-10
  6
CONTINUOUS
 62
     7
100
AcDbCircle
 10
619.9999852499933
 20
894.999969750007
 30
0.0
 40
82.0
100
AcDbArc
 50
339.946277998245
 51
357.5537052618694
  0
ARC
  5
1C2
330
1F
100
AcDbEntity
  8
LAY-10
  6
CONTINUOUS
 62
     7
100
AcDbCircle
 10
619.9999852499933
 20
894.999969750007
 30
0.0
 40
203.0000000000001
100
AcDbArc
 50
90.98790721666295
 51
111.5121062223013
  0
ARC
  5
1C3
330
1F
100
AcDbEntity
  8
LAY-10
  6
CONTINUOUS
 62
     7
100
AcDbCircle
 10
619.9999852499933
 20
894.999969750007
 30
0.0
 40
210.0000000000001
100
AcDbArc
 50
90.95497387378406
 51
111.5450406842642
  0
ARC
  5
1C4
330
1F
100
AcDbEntity
  8
LAY-10
  6
CONTINUOUS
 62
     7
100
AcDbCircle
 10
619.9999852499933
 20
894.999969750007
 30
0.0
 40
107.0
100
AcDbArc
 50
91.87449538677511
 51
110.6255263897382
  0
LINE
  5
1C5
330
1F
100
AcDbEntity
  8
LAY-10
  6
CONTINUOUS
 62
     7
100
AcDbLine
 10
591.8820877039119
 20
972.0284309678457
 30
0.0
 11
582.3083100966156
 21
995.1415576350224
 31
0.0
  0
ARC
  5
1C6
330
1F
100
AcDbEntity
  8
LAY-10
  6
CONTINUOUS
 62
     7
100
AcDbCircle
 10
619.9999852499933
 20
894.999969750007
 30
0.0
 40
139.0
100
AcDbArc
 50
91.4428519789466
 51
111.0571700759225
  0
ARC
  5
1C7
330
1F
100
AcDbEntity
  8
LAY-10
  6
CONTINUOUS
 62
     7
100
AcDbCircle
 10
619.9999852499933
 20
894.999969750007
 30
0.0
 40
114.0
100
AcDbArc
 50
91.7593574181983
 51
110.740657628447
  0
ARC
  5
1C8
330
1F
100
AcDbEntity
  8
LAY-10
  6
CONTINUOUS
 62
     7
100
AcDbCircle
 10
619.9999852499933
 20
894.999969750007
 30
0.0
 40
171.0
100
AcDbArc
 50
91.17280253050764
 51
111.3272128882216
  0
ARC
  5
1C9
330
1F
100
AcDbEntity
  8
LAY-10
  6
CONTINUOUS
 62
     7
100
AcDbCircle
 10
619.9999852499933
 20
894.999969750007
 30
0.0
 40
146.0
100
AcDbArc
 50
91.37366055287444
 51
111.1263605948994
  0
ARC
  5
1CA
330
1F
100
AcDbEntity
  8
LAY-10
  6
CONTINUOUS
 62
     7
100
AcDbCircle
 10
619.9999852499933
 20
894.999969750007
 30
0.0
 40
178.0
100
AcDbArc
 50
91.1266750152595
 51
111.3733410918004
  0
ARC
  5
1CB
330
1F
100
AcDbEntity
  8
LAY-10
  6
CONTINUOUS
 62
     7
100
AcDbCircle
 10
619.9999852499933
 20
894.999969750007
 30
0.0
 40
146.0
100
AcDbArc
 50
113.8736821687968
 51
133.6263423528689
  0
ARC
  5
1CC
330
1F
100
AcDbEntity
  8
LAY-10
  6
CONTINUOUS
 62
     7
100
AcDbCircle
 10
619.9999852499933
 20
894.999969750007
 30
0.0
 40
139.0
100
AcDbArc
 50
113.942874525561
 51
133.5571507816431
  0
LINE
  5
1CD
330
1F
100
AcDbEntity
  8
LAY-10
  6
CONTINUOUS
 62
     7
100
AcDbLine
 10
570.057382105509
 20
1024.717880584065
 30
0.0
 11
579.6281900161688
 21
1001.6119679003
 31
0.0
  0
LINE
  5
1CE
330
1F
100
AcDbEntity
  8
LAY-10
  6
CONTINUOUS
 62
     7
100
AcDbLine
 10
573.1609854884492
 20
998.9331603165346
 30
0.0
 11
563.590225318767
 21
1022.039093583972
 31
0.0
  0
ARC
  5
1CF
330
1F
100
AcDbEntity
  8
LAY-10
  6
CONTINUOUS
 62
     7
100
AcDbCircle
 10
619.9999852499933
 20
894.999969750007
 30
0.0
 40
171.0
100
AcDbArc
 50
136.1728002867605
 51
156.3271949155177
  0
ARC
  5
1D0
330
1F
100
AcDbEntity
  8
LAY-10
  6
CONTINUOUS
 62
     7
100
AcDbCircle
 10
619.9999852499933
 20
894.999969750007
 30
0.0
 40
178.0
100
AcDbArc
 50
136.1266728597749
 51
156.3733215337556
  0
LINE
  5
1D1
330
1F
100
AcDbEntity
  8
LAY-10
  6
CONTINUOUS
 62
     7
100
AcDbLine
 10
501.5849243683127
 20
1018.364767631688
 30
0.0
 11
519.2669324168529
 21
1000.682759583148
 31
0.0
  0
LINE
  5
1D2
330
1F
100
AcDbEntity
  8
LAY-10
  6
CONTINUOUS
 62
     7
100
AcDbLine
 10
496.6351868785488
 20
1013.415030121452
 30
0.0
 11
514.3171949288425
 21
995.7330220711577
 31
0.0
  0
ARC
  5
1D3
330
1F
100
AcDbEntity
  8
LAY-10
  6
CONTINUOUS
 62
     7
100
AcDbCircle
 10
619.9999852499933
 20
894.999969750007
 30
0.0
 40
139.0
100
AcDbArc
 50
136.4428492183454
 51
156.05716541283
  0
ARC
  5
1D4
330
1F
100
AcDbEntity
  8
LAY-10
  6
CONTINUOUS
 62
     7
100
AcDbCircle
 10
619.9999852499933
 20
894.999969750007
 30
0.0
 40
114.0
100
AcDbArc
 50
136.7593757406109
 51
155.7406473018764
  0
ARC
  5
1D5
330
1F
100
AcDbEntity
  8
LAY-10
  6
CONTINUOUS
 62
     7
100
AcDbCircle
 10
619.9999852499933
 20
894.999969750007
 30
0.0
 40
146.0
100
AcDbArc
 50
136.3736579247059
 51
156.1263446108865
  0
LINE
  5
1D6
330
1F
100
AcDbEntity
  8
LAY-10
  6
CONTINUOUS
 62
     7
100
AcDbLine
 10
463.3890759071313
 20
963.6587133650912
 30
0.0
 11
486.4917244061113
 21
954.0892605431953
 31
0.0
  0
LINE
  5
1D7
330
1F
100
AcDbEntity
  8
LAY-10
  6
CONTINUOUS
 62
     7
100
AcDbLine
 10
483.8129401993571
 20
947.6221015994105
 30
0.0
 11
460.7102908223945
 21
957.1915547849793
 31
0.0
  0
LINE
  5
1D8
330
1F
100
AcDbEntity
  8
LAY-10
  6
CONTINUOUS
 62
     7
100
AcDbLine
 10
490.282059858458
 20
944.9425350837593
 30
0.0
 11
513.387981155489
 21
935.3717492866265
 31
0.0
  0
LINE
  5
1D9
330
1F
100
AcDbEntity
  8
LAY-10
  6
CONTINUOUS
 62
     7
100
AcDbLine
 10
492.9608220952767
 20
951.4096411277887
 30
0.0
 11
516.0667566654528
 21
941.838885151558
 31
0.0
  0
LINE
  5
1DA
330
1F
100
AcDbEntity
  8
LAY-10
  6
CONTINUOUS
 62
     7
100
AcDbLine
 10
546.8549002406684
 20
973.0947617593251
 30
0.0
 11
564.5449389743998
 21
955.4047530256037
 31
0.0
  0
LINE
  5
1DB
330
1F
100
AcDbEntity
  8
LAY-10
  6
CONTINUOUS
 62
     7
100
AcDbLine
 10
541.9051487461669
 20
968.1450072538639
 30
0.0
 11
559.5951574609632
 21
950.4549675390035
 31
0.0
  0
ARC
  5
1DC
330
1F
100
AcDbEntity
  8
LAY-10
  6
CONTINUOUS
 62
     7
100
AcDbCircle
 10
619.9999852499933
 20
894.999969750007
 30
0.0
 40
107.0
100
AcDbArc
 50
136.8745149090528
 51
155.6255335966611
  0
ARC
  5
1DD
330
1F
100
AcDbEntity
  8
LAY-10
  6
CONTINUOUS
 62
     7
100
AcDbCircle
 10
619.9999852499933
 20
894.999969750007
 30
0.0
 40
82.0
100
AcDbArc
 50
114.9463388124824
 51
132.5537104387216
  0
ARC
  5
1DE
330
1F
100
AcDbEntity
  8
LAY-10
  6
CONTINUOUS
 62
     7
100
AcDbCircle
 10
619.9999852499933
 20
894.999969750007
 30
0.0
 40
82.0
100
AcDbArc
 50
137.44633555228
 51
155.0537353682607
  0
LINE
  5
1DF
330
1F
100
AcDbEntity
  8
LAY-10
  6
CONTINUOUS
 62
     7
100
AcDbLine
 10
522.5371447279946
 20
939.158714267752
 30
0.0
 11
545.6502781783146
 21
929.5849528836675
 31
0.0
  0
LINE
  5
1E0
330
1F
100
AcDbEntity
  8
LAY-10
  6
CONTINUOUS
 62
     7
100
AcDbLine
 10
519.8583926961093
 20
932.6916324988417
 30
0.0
 11
542.9715205397334
 21
923.1178577286632
 31
0.0
  0
ARC
  5
1E1
330
1F
100
AcDbEntity
  8
LAY-10
  6
CONTINUOUS
 62
     7
100
AcDbCircle
 10
619.9999852499933
 20
894.999969750007
 30
0.0
 40
107.0
100
AcDbArc
 50
114.3745303089037
 51
133.1255199442595
  0
ARC
  5
1E2
330
1F
100
AcDbEntity
  8
LAY-10
  6
CONTINUOUS
 62
     7
100
AcDbCircle
 10
619.9999852499933
 20
894.999969750007
 30
0.0
 40
114.0
100
AcDbArc
 50
114.2593992036756
 51
133.2406463038736
  0
LINE
  5
1E3
330
1F
100
AcDbEntity
  8
LAY-10
  6
CONTINUOUS
 62
     7
100
AcDbLine
 10
536.9529139257855
 20
973.0972420741538
 30
0.0
 11
519.2684369684854
 21
990.7817800315539
 31
0.0
  0
LINE
  5
1E4
330
1F
100
AcDbEntity
  8
LAY-10
  6
CONTINUOUS
 62
     7
100
AcDbLine
 10
541.9026809736073
 20
978.047011026392
 30
0.0
 11
524.2181749684659
 21
995.7315180315334
 31
0.0
  0
LINE
  5
1E5
330
1F
100
AcDbEntity
  8
LAY-10
  6
CONTINUOUS
 62
     7
100
AcDbLine
 10
585.41490585593
 20
969.3496320445081
 30
0.0
 11
575.8411320258948
 21
992.4627610189448
 31
0.0
  0
ARC
  5
1E6
330
1F
100
AcDbEntity
  8
LAY-10
  6
CONTINUOUS
 62
     7
100
AcDbCircle
 10
619.9999852499933
 20
894.999969750007
 30
0.0
 40
210.0000000000001
100
AcDbArc
 50
113.4549864899183
 51
134.0450281460905
  0
ARC
  5
1E7
330
1F
100
AcDbEntity
  8
LAY-10
  6
CONTINUOUS
 62
     7
100
AcDbCircle
 10
619.9999852499933
 20
894.999969750007
 30
0.0
 40
203.0000000000001
100
AcDbArc
 50
113.4879275818918
 51
134.0120948728923
  0
ARC
  5
1E8
330
1F
100
AcDbEntity
  8
LAY-10
  6
CONTINUOUS
 62
     7
100
AcDbCircle
 10
619.9999852499933
 20
894.999969750007
 30
0.0
 40
171.0
100
AcDbArc
 50
113.672818348929
 51
133.8271999502209
  0
ARC
  5
1E9
330
1F
100
AcDbEntity
  8
LAY-10
  6
CONTINUOUS
 62
     7
100
AcDbCircle
 10
619.9999852499933
 20
894.999969750007
 30
0.0
 40
178.0
100
AcDbArc
 50
113.6266915062845
 51
133.8733273678773
  0
LINE
  5
1EA
330
1F
100
AcDbEntity
  8
LAY-10
  6
CONTINUOUS
 62
     7
100
AcDbLine
 10
456.3231910261201
 20
1063.62650097388
 30
0.0
 11
474.0030549937725
 21
1045.946637006228
 31
0.0
  0
LINE
  5
1EB
330
1F
100
AcDbEntity
  8
LAY-10
  6
CONTINUOUS
 62
     7
100
AcDbLine
 10
478.9535137830472
 20
1040.996178216953
 30
0.0
 11
496.6341805719318
 21
1023.315511428069
 31
0.0
  0
LINE
  5
1EC
330
1F
100
AcDbEntity
  8
LAY-10
  6
CONTINUOUS
 62
     7
100
AcDbLine
 10
491.6844430817652
 20
1018.365773918235
 30
0.0
 11
474.0037762916692
 21
1036.046440708331
 31
0.0
  0
LINE
  5
1ED
330
1F
100
AcDbEntity
  8
LAY-10
  6
CONTINUOUS
 62
     7
100
AcDbLine
 10
469.0533175021066
 20
1040.996899497893
 30
0.0
 11
451.3734540245466
 21
1058.676763972259
 31
0.0
  0
LINE
  5
1EE
330
1F
100
AcDbEntity
  8
LAY-10
  6
CONTINUOUS
 62
     7
100
AcDbLine
 10
548.6618784402552
 20
1058.079320119091
 30
0.0
 11
539.0931512811991
 21
1081.180216331501
 31
0.0
  0
LINE
  5
1EF
330
1F
100
AcDbEntity
  8
LAY-10
  6
CONTINUOUS
 62
     7
100
AcDbLine
 10
560.9106320559093
 20
1028.50820297592
 30
0.0
 11
551.3412053782137
 21
1051.610863197808
 31
0.0
  0
LINE
  5
1F0
330
1F
100
AcDbEntity
  8
LAY-10
  6
CONTINUOUS
 62
     7
100
AcDbLine
 10
557.8083624773891
 20
1054.289649443671
 30
0.0
 11
567.3777888856313
 21
1031.186989872303
 31
0.0
  0
LINE
  5
1F1
330
1F
100
AcDbEntity
  8
LAY-10
  6
CONTINUOUS
 62
     7
100
AcDbLine
 10
545.5603298871202
 20
1083.859011655489
 30
0.0
 11
555.1290355076175
 21
1060.758106441761
 31
0.0
  0
LINE
  5
1F2
330
1F
100
AcDbEntity
  8
LAY-10
  6
CONTINUOUS
 62
     7
100
AcDbLine
 10
616.4999852499933
 20
1033.955898015051
 30
0.0
 11
616.4999852499933
 21
1008.946229012872
 31
0.0
  0
LINE
  5
1F3
330
1F
100
AcDbEntity
  8
LAY-10
  6
CONTINUOUS
 62
     7
100
AcDbLine
 10
666.8389850115371
 20
998.9331603165346
 30
0.0
 11
676.4097451812194
 21
1022.039093583972
 31
0.0
  0
LINE
  5
1F4
330
1F
100
AcDbEntity
  8
LAY-10
  6
CONTINUOUS
 62
     7
100
AcDbLine
 10
669.9425883944773
 20
1024.717880584065
 30
0.0
 11
660.3717804838176
 21
1001.6119679003
 31
0.0
  0
ARC
  5
1F5
330
1F
100
AcDbEntity
  8
LAY-10
  6
CONTINUOUS
 62
     7
100
AcDbCircle
 10
619.9999852499933
 20
894.999969750007
 30
0.0
 40
139.0
100
AcDbArc
 50
46.44284921835691
 51
66.05712547443895
  0
ARC
  5
1F6
330
1F
100
AcDbEntity
  8
LAY-10
  6
CONTINUOUS
 62
     7
100
AcDbCircle
 10
619.9999852499933
 20
894.999969750007
 30
0.0
 40
146.0
100
AcDbArc
 50
46.37365764713118
 51
66.12631783120305
  0
LINE
  5
1F7
330
1F
100
AcDbEntity
  8
LAY-10
  6
CONTINUOUS
 62
     7
100
AcDbLine
 10
623.4999852499933
 20
1033.955898015051
 30
0.0
 11
623.4999852499933
 21
1008.946229012872
 31
0.0
  0
ARC
  5
1F8
330
1F
100
AcDbEntity
  8
LAY-10
  6
CONTINUOUS
 62
     7
100
AcDbCircle
 10
619.9999852499933
 20
894.999969750007
 30
0.0
 40
114.0
100
AcDbArc
 50
69.25934237155307
 51
88.24064258180168
  0
LINE
  5
1F9
330
1F
100
AcDbEntity
  8
LAY-10
  6
CONTINUOUS
 62
     7
100
AcDbLine
 10
648.1178827960747
 20
972.0284309678457
 30
0.0
 11
657.691660403371
 21
995.1415576350224
 31
0.0
  0
ARC
  5
1FA
330
1F
100
AcDbEntity
  8
LAY-10
  6
CONTINUOUS
 62
     7
100
AcDbCircle
 10
619.9999852499933
 20
894.999969750007
 30
0.0
 40
107.0
100
AcDbArc
 50
69.3744736102618
 51
88.12550461322488
  0
ARC
  5
1FB
330
1F
100
AcDbEntity
  8
LAY-10
  6
CONTINUOUS
 62
     7
100
AcDbCircle
 10
619.9999852499933
 20
894.999969750007
 30
0.0
 40
82.0
100
AcDbArc
 50
47.44628956127829
 51
65.05366118751746
  0
LINE
  5
1FC
330
1F
100
AcDbEntity
  8
LAY-10
  6
CONTINUOUS
 62
     7
100
AcDbLine
 10
654.5850646440565
 20
969.3496320445081
 30
0.0
 11
664.1588384740916
 21
992.4627610189448
 31
0.0
  0
LINE
  5
1FD
330
1F
100
AcDbEntity
  8
LAY-10
  6
CONTINUOUS
 62
     7
100
AcDbLine
 10
616.4999852499933
 20
1001.942711439193
 30
0.0
 11
616.4999852499933
 21
976.9252405765354
 31
0.0
  0
ARC
  5
1FE
330
1F
100
AcDbEntity
  8
LAY-10
  6
CONTINUOUS
 62
     7
100
AcDbCircle
 10
619.9999852499933
 20
894.999969750007
 30
0.0
 40
82.0
100
AcDbArc
 50
92.44629473812904
 51
110.0537291182597
  0
LINE
  5
1FF
330
1F
100
AcDbEntity
  8
LAY-10
  6
CONTINUOUS
 62
     7
100
AcDbLine
 10
623.4999852499933
 20
1001.942711439193
 30
0.0
 11
623.4999852499933
 21
976.9252405765354
 31
0.0
  0
ARC
  5
200
330
1F
100
AcDbEntity
  8
LAY-10
  6
CONTINUOUS
 62
     7
100
AcDbCircle
 10
619.9999852499933
 20
894.999969750007
 30
0.0
 40
82.0
100
AcDbArc
 50
69.94627088174005
 51
87.55370526187095
  0
ARC
  5
201
330
1F
100
AcDbEntity
  8
LAY-10
  6
CONTINUOUS
 62
     7
100
AcDbCircle
 10
619.9999852499933
 20
894.999969750007
 30
0.0
 40
107.0
100
AcDbArc
 50
24.37446640333902
 51
43.12548509094739
  0
LINE
  5
202
330
1F
100
AcDbEntity
  8
LAY-10
  6
CONTINUOUS
 62
     7
100
AcDbLine
 10
698.0948217538194
 20
968.1450072538639
 30
0.0
 11
680.4048130390235
 21
950.4549675390035
 31
0.0
  0
LINE
  5
203
330
1F
100
AcDbEntity
  8
LAY-10
  6
CONTINUOUS
 62
     7
100
AcDbLine
 10
693.145070259318
 20
973.0947617593251
 30
0.0
 11
675.4550315255867
 21
955.4047530256037
 31
0.0
  0
ARC
  5
204
330
1F
100
AcDbEntity
  8
LAY-10
  6
CONTINUOUS
 62
     7
100
AcDbCircle
 10
619.9999852499933
 20
894.999969750007
 30
0.0
 40
82.0
100
AcDbArc
 50
24.94626463173933
 51
42.55366444772003
  0
LINE
  5
205
330
1F
100
AcDbEntity
  8
LAY-10
  6
CONTINUOUS
 62
     7
100
AcDbLine
 10
717.462825771992
 20
939.158714267752
 30
0.0
 11
694.349692321672
 21
929.5849528836675
 31
0.0
  0
LINE
  5
206
330
1F
100
AcDbEntity
  8
LAY-10
  6
CONTINUOUS
 62
     7
100
AcDbLine
 10
720.1415778038773
 20
932.6916324988417
 30
0.0
 11
697.0284499602532
 21
923.1178577286632
 31
0.0
  0
ARC
  5
207
330
1F
100
AcDbEntity
  8
LAY-10
  6
CONTINUOUS
 62
     7
100
AcDbCircle
 10
619.9999852499933
 20
894.999969750007
 30
0.0
 40
114.0
100
AcDbArc
 50
46.75935369612624
 51
65.74060079632446
  0
ARC
  5
208
330
1F
100
AcDbEntity
  8
LAY-10
  6
CONTINUOUS
 62
     7
100
AcDbCircle
 10
619.9999852499933
 20
894.999969750007
 30
0.0
 40
107.0
100
AcDbArc
 50
46.87448005574068
 51
65.6254696910965
  0
LINE
  5
209
330
1F
100
AcDbEntity
  8
LAY-10
  6
CONTINUOUS
 62
     7
100
AcDbLine
 10
698.0972895263791
 20
978.047011026392
 30
0.0
 11
715.7817955315207
 21
995.7315180315334
 31
0.0
  0
LINE
  5
20A
330
1F
100
AcDbEntity
  8
LAY-10
  6
CONTINUOUS
 62
     7
100
AcDbLine
 10
703.0470565742011
 20
973.0972420741538
 30
0.0
 11
720.7315335315011
 21
990.7817800315539
 31
0.0
  0
ARC
  5
20B
330
1F
100
AcDbEntity
  8
LAY-10
  6
CONTINUOUS
 62
     7
100
AcDbCircle
 10
619.9999852499933
 20
894.999969750007
 30
0.0
 40
178.0
100
AcDbArc
 50
68.6266589081996
 51
88.8733249847405
  0
ARC
  5
20C
330
1F
100
AcDbEntity
  8
LAY-10
  6
CONTINUOUS
 62
     7
100
AcDbCircle
 10
619.9999852499933
 20
894.999969750007
 30
0.0
 40
146.0
100
AcDbArc
 50
68.87363940510042
 51
88.62633944713862
  0
ARC
  5
20D
330
1F
100
AcDbEntity
  8
LAY-10
  6
CONTINUOUS
 62
     7
100
AcDbCircle
 10
619.9999852499933
 20
894.999969750007
 30
0.0
 40
171.0
100
AcDbArc
 50
68.6727871117782
 51
88.82719746949236
  0
ARC
  5
20E
330
1F
100
AcDbEntity
  8
LAY-10
  6
CONTINUOUS
 62
     7
100
AcDbCircle
 10
619.9999852499933
 20
894.999969750007
 30
0.0
 40
139.0
100
AcDbArc
 50
68.9428299240777
 51
88.55714802105338
  0
ARC
  5
20F
330
1F
100
AcDbEntity
  8
LAY-10
  6
CONTINUOUS
 62
     7
100
AcDbCircle
 10
619.9999852499933
 20
894.999969750007
 30
0.0
 40
210.0000000000001
100
AcDbArc
 50
68.45495931573561
 51
89.04502612621594
  0
ARC
  5
210
330
1F
100
AcDbEntity
  8
LAY-10
  6
CONTINUOUS
 62
     7
100
AcDbCircle
 10
619.9999852499933
 20
894.999969750007
 30
0.0
 40
203.0000000000001
100
AcDbArc
 50
68.48789377769872
 51
89.01209278333711
  0
LINE
  5
211
330
1F
100
AcDbEntity
  8
LAY-10
  6
CONTINUOUS
 62
     7
100
AcDbLine
 10
616.4999852499933
 20
1040.958011666169
 30
0.0
 11
616.4999852499933
 21
1065.964147284367
 31
0.0
  0
LINE
  5
212
330
1F
100
AcDbEntity
  8
LAY-10
  6
CONTINUOUS
 62
     7
100
AcDbLine
 10
623.4999852499933
 20
1040.958011666169
 30
0.0
 11
623.4999852499933
 21
1065.964147284367
 31
0.0
  0
LINE
  5
213
330
1F
100
AcDbEntity
  8
LAY-10
  6
CONTINUOUS
 62
     7
100
AcDbLine
 10
616.4999852499933
 20
1097.969795093579
 30
0.0
 11
616.4999852499933
 21
1072.965556311005
 31
0.0
  0
LINE
  5
214
330
1F
100
AcDbEntity
  8
LAY-10
  6
CONTINUOUS
 62
     7
100
AcDbLine
 10
623.4999852499933
 20
1097.969795093579
 30
0.0
 11
623.4999852499933
 21
1072.965556311005
 31
0.0
  0
LINE
  5
215
330
1F
100
AcDbEntity
  8
LAY-10
  6
CONTINUOUS
 62
     7
100
AcDbLine
 10
691.3380920597314
 20
1058.079320119091
 30
0.0
 11
700.9068192187875
 21
1081.180216331501
 31
0.0
  0
LINE
  5
216
330
1F
100
AcDbEntity
  8
LAY-10
  6
CONTINUOUS
 62
     7
100
AcDbLine
 10
679.089338444077
 20
1028.50820297592
 30
0.0
 11
688.658765121773
 21
1051.610863197808
 31
0.0
  0
LINE
  5
217
330
1F
100
AcDbEntity
  8
LAY-10
  6
CONTINUOUS
 62
     7
100
AcDbLine
 10
682.1916080225973
 20
1054.289649443671
 30
0.0
 11
672.6221816143553
 21
1031.186989872303
 31
0.0
  0
LINE
  5
218
330
1F
100
AcDbEntity
  8
LAY-10
  6
CONTINUOUS
 62
     7
100
AcDbLine
 10
694.4396406128661
 20
1083.859011655489
 30
0.0
 11
684.8709349923691
 21
1060.758106441761
 31
0.0
  0
ARC
  5
219
330
1F
100
AcDbEntity
  8
LAY-10
  6
CONTINUOUS
 62
     7
100
AcDbCircle
 10
619.9999852499933
 20
894.999969750007
 30
0.0
 40
171.0
100
AcDbArc
 50
1.172802530510874
 51
21.32719931416708
  0
LINE
  5
21A
330
1F
100
AcDbEntity
  8
LAY-10
  6
CONTINUOUS
 62
     7
100
AcDbLine
 10
821.0000162499933
 20
906.9999697500072
 30
0.0
 11
821.0000162499933
 21
932.999969750007
 31
0.0
  0
LINE
  5
21B
330
1F
100
AcDbEntity
  8
LAY-10
  6
CONTINUOUS
 62
     7
100
AcDbLine
 10
797.0000162499935
 20
906.9999697500072
 30
0.0
 11
797.0000162499935
 21
932.999969750007
 31
0.0
  0
ARC
  5
21C
330
1F
100
AcDbEntity
  8
LAY-10
  6
CONTINUOUS
 62
     7
100
AcDbCircle
 10
619.9999852499933
 20
894.999969750007
 30
0.0
 40
267.0
100
AcDbArc
 50
0.7510897824995366
 51
21.74891679241535
  0
ARC
  5
21D
330
1F
100
AcDbEntity
  8
LAY-10
  6
CONTINUOUS
 62
     7
100
AcDbCircle
 10
619.9999852499933
 20
894.999969750007
 30
0.0
 40
210.0000000000001
100
AcDbArc
 50
0.9549738737856868
 51
21.54502772106634
  0
ARC
  5
21E
330
1F
100
AcDbEntity
  8
LAY-10
  6
CONTINUOUS
 62
     7
100
AcDbCircle
 10
619.9999852499933
 20
894.999969750007
 30
0.0
 40
235.0000000000001
100
AcDbArc
 50
0.8533729481596055
 51
21.64662845836743
  0
ARC
  5
21F
330
1F
100
AcDbEntity
  8
LAY-10
  6
CONTINUOUS
 62
     7
100
AcDbCircle
 10
619.9999852499933
 20
894.999969750007
 30
0.0
 40
242.0000000000001
100
AcDbArc
 50
0.828686859677866
 51
21.67131722709234
  0
ARC
  5
220
330
1F
100
AcDbEntity
  8
LAY-10
  6
CONTINUOUS
 62
     7
100
AcDbCircle
 10
619.9999852499933
 20
894.999969750007
 30
0.0
 40
139.0
100
AcDbArc
 50
1.442851978948085
 51
21.0571533750986
  0
ARC
  5
221
330
1F
100
AcDbEntity
  8
LAY-10
  6
CONTINUOUS
 62
     7
100
AcDbCircle
 10
619.9999852499933
 20
894.999969750007
 30
0.0
 40
114.0
100
AcDbArc
 50
1.75935741819812
 51
20.74064919239222
  0
ARC
  5
222
330
1F
100
AcDbEntity
  8
LAY-10
  6
CONTINUOUS
 62
     7
100
AcDbCircle
 10
619.9999852499933
 20
894.999969750007
 30
0.0
 40
146.0
100
AcDbArc
 50
1.373660552867872
 51
21.12633345256251
  0
ARC
  5
223
330
1F
100
AcDbEntity
  8
LAY-10
  6
CONTINUOUS
 62
     7
100
AcDbCircle
 10
619.9999852499933
 20
894.999969750007
 30
0.0
 40
242.0000000000001
100
AcDbArc
 50
338.3286827729077
 51
359.1713131403222
  0
LINE
  5
224
330
1F
100
AcDbEntity
  8
LAY-10
  6
CONTINUOUS
 62
     7
100
AcDbLine
 10
842.2160390138353
 20
799.1666485635571
 30
0.0
 11
865.3152178253414
 21
789.5986572984879
 31
0.0
  0
LINE
  5
225
330
1F
100
AcDbEntity
  8
LAY-10
  6
CONTINUOUS
 62
     7
100
AcDbLine
 10
867.9940063144892
 20
796.0658223778165
 30
0.0
 11
844.8948332192003
 21
805.6338276328315
 31
0.0
  0
ARC
  5
226
330
1F
100
AcDbEntity
  8
LAY-10
  6
CONTINUOUS
 62
     7
100
AcDbCircle
 10
619.9999852499933
 20
894.999969750007
 30
0.0
 40
203.0000000000001
100
AcDbArc
 50
315.9879053267123
 51
336.5120838517228
  0
ARC
  5
227
330
1F
100
AcDbEntity
  8
LAY-10
  6
CONTINUOUS
 62
     7
100
AcDbCircle
 10
619.9999852499933
 20
894.999969750007
 30
0.0
 40
235.0000000000001
100
AcDbArc
 50
338.3533715416326
 51
359.1466270518405
  0
LINE
  5
228
330
1F
100
AcDbEntity
  8
LAY-10
  6
CONTINUOUS
 62
     7
100
AcDbLine
 10
838.4269841010156
 20
808.3129108949767
 30
0.0
 11
815.3271285861005
 21
817.8811842554478
 31
0.0
  0
ARC
  5
229
330
1F
100
AcDbEntity
  8
LAY-10
  6
CONTINUOUS
 62
     7
100
AcDbCircle
 10
619.9999852499933
 20
894.999969750007
 30
0.0
 40
146.0
100
AcDbArc
 50
316.373657924706
 51
336.1263446108865
  0
ARC
  5
22A
330
1F
100
AcDbEntity
  8
LAY-10
  6
CONTINUOUS
 62
     7
100
AcDbCircle
 10
619.9999852499933
 20
894.999969750007
 30
0.0
 40
171.0
100
AcDbArc
 50
316.1728002867605
 51
336.3271949155177
  0
ARC
  5
22B
330
1F
100
AcDbEntity
  8
LAY-10
  6
CONTINUOUS
 62
     7
100
AcDbCircle
 10
619.9999852499933
 20
894.999969750007
 30
0.0
 40
178.0
100
AcDbArc
 50
316.1266728597748
 51
336.3733215337555
  0
ARC
  5
22C
330
1F
100
AcDbEntity
  8
LAY-10
  6
CONTINUOUS
 62
     7
100
AcDbCircle
 10
619.9999852499933
 20
894.999969750007
 30
0.0
 40
210.0000000000001
100
AcDbArc
 50
315.9549720468617
 51
336.545008827609
  0
ARC
  5
22D
330
1F
100
AcDbEntity
  8
LAY-10
  6
CONTINUOUS
 62
     7
100
AcDbCircle
 10
619.9999852499933
 20
894.999969750007
 30
0.0
 40
235.0000000000001
100
AcDbArc
 50
315.8533711437681
 51
336.6466196624134
  0
LINE
  5
22E
330
1F
100
AcDbEntity
  8
LAY-10
  6
CONTINUOUS
 62
     7
100
AcDbLine
 10
761.0464567169394
 20
749.0037612830608
 30
0.0
 11
743.3657899280548
 21
766.6844280719454
 31
0.0
  0
LINE
  5
22F
330
1F
100
AcDbEntity
  8
LAY-10
  6
CONTINUOUS
 62
     7
100
AcDbLine
 10
748.3155274182214
 20
771.6341655817787
 30
0.0
 11
765.9961942083174
 21
753.9534987916829
 31
0.0
  0
LINE
  5
230
330
1F
100
AcDbEntity
  8
LAY-10
  6
CONTINUOUS
 62
     7
100
AcDbLine
 10
783.6767794738663
 20
726.3734385261339
 30
0.0
 11
765.9969155062138
 21
744.0533024937863
 31
0.0
  0
LINE
  5
231
330
1F
100
AcDbEntity
  8
LAY-10
  6
CONTINUOUS
 62
     7
100
AcDbLine
 10
770.94665299788
 20
749.0030400021212
 30
0.0
 11
788.6265164754401
 21
731.3231755277551
 31
0.0
  0
LINE
  5
232
330
1F
100
AcDbEntity
  8
LAY-10
  6
CONTINUOUS
 62
     7
100
AcDbLine
 10
743.3647836214377
 20
776.5849093785625
 30
0.0
 11
725.6827755711439
 21
794.2669174288565
 31
0.0
  0
ARC
  5
233
330
1F
100
AcDbEntity
  8
LAY-10
  6
CONTINUOUS
 62
     7
100
AcDbCircle
 10
619.9999852499933
 20
894.999969750007
 30
0.0
 40
242.0000000000001
100
AcDbArc
 50
315.8286852743778
 51
336.6713032437478
  0
LINE
  5
234
330
1F
100
AcDbEntity
  8
LAY-10
  6
CONTINUOUS
 62
     7
100
AcDbLine
 10
835.7481901884172
 20
801.8457317044524
 30
0.0
 11
812.6483214701045
 21
811.4139748009544
 31
0.0
  0
LINE
  5
235
330
1F
100
AcDbEntity
  8
LAY-10
  6
CONTINUOUS
 62
     7
100
AcDbLine
 10
806.1802479767761
 20
814.0931729342503
 30
0.0
 11
783.079351855024
 21
823.6619000557546
 31
0.0
  0
ARC
  5
236
330
1F
100
AcDbEntity
  8
LAY-10
  6
CONTINUOUS
 62
     7
100
AcDbCircle
 10
619.9999852499933
 20
894.999969750007
 30
0.0
 40
171.0
100
AcDbArc
 50
338.672800685833
 51
358.8271974694875
  0
ARC
  5
237
330
1F
100
AcDbEntity
  8
LAY-10
  6
CONTINUOUS
 62
     7
100
AcDbCircle
 10
619.9999852499933
 20
894.999969750007
 30
0.0
 40
146.0
100
AcDbArc
 50
338.8736665474376
 51
358.6263394471321
  0
ARC
  5
238
330
1F
100
AcDbEntity
  8
LAY-10
  6
CONTINUOUS
 62
     7
100
AcDbCircle
 10
619.9999852499933
 20
894.999969750007
 30
0.0
 40
114.0
100
AcDbArc
 50
339.2593508076076
 51
358.2406425818019
  0
ARC
  5
239
330
1F
100
AcDbEntity
  8
LAY-10
  6
CONTINUOUS
 62
     7
100
AcDbCircle
 10
619.9999852499933
 20
894.999969750007
 30
0.0
 40
139.0
100
AcDbArc
 50
338.9428466249014
 51
358.5571480210519
  0
LINE
  5
23A
330
1F
100
AcDbEntity
  8
LAY-10
  6
CONTINUOUS
 62
     7
100
AcDbLine
 10
776.6108945928553
 20
826.3412261349229
 30
0.0
 11
753.5082460938753
 21
835.9106789568187
 31
0.0
  0
LINE
  5
23B
330
1F
100
AcDbEntity
  8
LAY-10
  6
CONTINUOUS
 62
     7
100
AcDbLine
 10
756.1870303006295
 20
842.3778379006037
 30
0.0
 11
779.2896796775921
 21
832.8083847150348
 31
0.0
  0
LINE
  5
23C
330
1F
100
AcDbEntity
  8
LAY-10
  6
CONTINUOUS
 62
     7
100
AcDbLine
 10
749.7179106415283
 20
845.0574044162548
 30
0.0
 11
726.6119893444975
 21
854.6281902133876
 31
0.0
  0
LINE
  5
23D
330
1F
100
AcDbEntity
  8
LAY-10
  6
CONTINUOUS
 62
     7
100
AcDbLine
 10
758.9559135150372
 20
898.499969750007
 30
0.0
 11
733.946244512858
 21
898.499969750007
 31
0.0
  0
LINE
  5
23E
330
1F
100
AcDbEntity
  8
LAY-10
  6
CONTINUOUS
 62
     7
100
AcDbLine
 10
758.9559135150372
 20
891.499969750007
 30
0.0
 11
733.946244512858
 21
891.499969750007
 31
0.0
  0
LINE
  5
23F
330
1F
100
AcDbEntity
  8
LAY-10
  6
CONTINUOUS
 62
     7
100
AcDbLine
 10
765.9580271661549
 20
898.499969750007
 30
0.0
 11
790.9641627843527
 21
898.499969750007
 31
0.0
  0
LINE
  5
240
330
1F
100
AcDbEntity
  8
LAY-10
  6
CONTINUOUS
 62
     7
100
AcDbLine
 10
765.9580271661549
 20
891.499969750007
 30
0.0
 11
790.9641627843527
 21
891.499969750007
 31
0.0
  0
ARC
  5
241
330
1F
100
AcDbEntity
  8
LAY-10
  6
CONTINUOUS
 62
     7
100
AcDbCircle
 10
619.9999852499933
 20
894.999969750007
 30
0.0
 40
210.0000000000001
100
AcDbArc
 50
338.4549722789337
 51
359.0450261262141
  0
LINE
  5
242
330
1F
100
AcDbEntity
  8
LAY-10
  6
CONTINUOUS
 62
     7
100
AcDbLine
 10
797.0000162499935
 20
882.999969750007
 30
0.0
 11
797.0000162499935
 21
856.9999697500072
 31
0.0
  0
LINE
  5
243
330
1F
100
AcDbEntity
  8
LAY-10
  6
CONTINUOUS
 62
     7
100
AcDbLine
 10
821.0000162499933
 20
882.999969750007
 30
0.0
 11
821.0000162499933
 21
856.9999697500072
 31
0.0
  0
LINE
  5
244
330
1F
100
AcDbEntity
  8
LAY-10
  6
CONTINUOUS
 62
     7
100
AcDbLine
 10
819.0000162499933
 20
854.999969750007
 30
0.0
 11
799.0000162499933
 21
854.999969750007
 31
0.0
  0
ARC
  5
245
330
1F
100
AcDbEntity
  8
LAY-10
  6
CONTINUOUS
 62
     7
100
AcDbCircle
 10
799.0000162499933
 20
856.9999697500072
 30
0.0
 40
2.0
100
AcDbArc
 50
180.0000176000941
 51
269.9999988761261
  0
ARC
  5
246
330
1F
100
AcDbEntity
  8
LAY-10
  6
CONTINUOUS
 62
     7
100
AcDbCircle
 10
819.0000162499933
 20
856.9999697500072
 30
0.0
 40
2.0
100
AcDbArc
 50
269.9999988761261
 51
359.9999801521565
  0
LINE
  5
247
330
1F
100
AcDbEntity
  8
LAY-10
  6
CONTINUOUS
 62
     7
100
AcDbLine
 10
819.0000162499933
 20
884.999969750007
 30
0.0
 11
799.0000162499933
 21
884.999969750007
 31
0.0
  0
ARC
  5
248
330
1F
100
AcDbEntity
  8
LAY-10
  6
CONTINUOUS
 62
     7
100
AcDbCircle
 10
799.0000162499933
 20
882.999969750007
 30
0.0
 40
2.0
100
AcDbArc
 50
89.99996142819346
 51
180.0
  0
ARC
  5
249
330
1F
100
AcDbEntity
  8
LAY-10
  6
CONTINUOUS
 62
     7
100
AcDbCircle
 10
819.0000162499933
 20
882.999969750007
 30
0.0
 40
2.0
100
AcDbArc
 50
359.9999801521565
 51
89.99996142819346
  0
LINE
  5
24A
330
1F
100
AcDbEntity
  8
LAY-10
  6
CONTINUOUS
 62
     7
100
AcDbLine
 10
819.0000162499933
 20
904.999969750007
 30
0.0
 11
799.0000162499933
 21
904.999969750007
 31
0.0
  0
ARC
  5
24B
330
1F
100
AcDbEntity
  8
LAY-10
  6
CONTINUOUS
 62
     7
100
AcDbCircle
 10
799.0000162499933
 20
906.9999697500072
 30
0.0
 40
2.0
100
AcDbArc
 50
180.0
 51
270.0000385718066
  0
ARC
  5
24C
330
1F
100
AcDbEntity
  8
LAY-10
  6
CONTINUOUS
 62
     7
100
AcDbCircle
 10
819.0000162499933
 20
906.9999697500072
 30
0.0
 40
2.0
100
AcDbArc
 50
270.0000385718066
 51
0.0000198478434716
  0
LINE
  5
24D
330
1F
100
AcDbEntity
  8
LAY-10
  6
CONTINUOUS
 62
     7
100
AcDbLine
 10
829.9708165575822
 20
898.499969750007
 30
0.0
 11
854.9739199746773
 21
898.499969750007
 31
0.0
  0
LINE
  5
24E
330
1F
100
AcDbEntity
  8
LAY-10
  6
CONTINUOUS
 62
     7
100
AcDbLine
 10
829.9708165575822
 20
891.499969750007
 30
0.0
 11
854.9739199746773
 21
891.499969750007
 31
0.0
  0
ARC
  5
24F
330
1F
100
AcDbEntity
  8
LAY-10
  6
CONTINUOUS
 62
     7
100
AcDbCircle
 10
619.9999852499933
 20
894.999969750007
 30
0.0
 40
267.0
100
AcDbArc
 50
338.2510832075846
 51
359.2489102175005
  0
LINE
  5
250
330
1F
100
AcDbEntity
  8
LAY-10
  6
CONTINUOUS
 62
     7
100
AcDbLine
 10
861.9746740089624
 20
898.499969750007
 30
0.0
 11
886.9770441895208
 21
898.499969750007
 31
0.0
  0
LINE
  5
251
330
1F
100
AcDbEntity
  8
LAY-10
  6
CONTINUOUS
 62
     7
100
AcDbLine
 10
861.9746740089624
 20
891.499969750007
 30
0.0
 11
886.9770441895208
 21
891.499969750007
 31
0.0
  0
ARC
  5
252
330
1F
100
AcDbEntity
  8
LAY-10
  6
CONTINUOUS
 62
     7
100
AcDbCircle
 10
619.9999852499933
 20
894.999969750007
 30
0.0
 40
267.0
100
AcDbArc
 50
23.25109837984177
 51
44.24891165432865
  0
LINE
  5
253
330
1F
100
AcDbEntity
  8
LAY-10
  6
CONTINUOUS
 62
     7
100
AcDbLine
 10
867.9940063144892
 20
993.9341171221976
 30
0.0
 11
844.8948332192003
 21
984.3661118671827
 31
0.0
  0
LINE
  5
254
330
1F
100
AcDbEntity
  8
LAY-10
  6
CONTINUOUS
 62
     7
100
AcDbLine
 10
842.2160390138353
 20
990.8332909364569
 30
0.0
 11
865.3152178253414
 21
1000.401282201526
 31
0.0
  0
ARC
  5
255
330
1F
100
AcDbEntity
  8
LAY-10
  6
CONTINUOUS
 62
     7
100
AcDbCircle
 10
619.9999852499933
 20
894.999969750007
 30
0.0
 40
235.0000000000001
100
AcDbArc
 50
23.3533803375866
 51
44.14662885623196
  0
ARC
  5
256
330
1F
100
AcDbEntity
  8
LAY-10
  6
CONTINUOUS
 62
     7
100
AcDbCircle
 10
619.9999852499933
 20
894.999969750007
 30
0.0
 40
210.0000000000001
100
AcDbArc
 50
23.45499117239106
 51
44.04502795313835
  0
ARC
  5
257
330
1F
100
AcDbEntity
  8
LAY-10
  6
CONTINUOUS
 62
     7
100
AcDbCircle
 10
619.9999852499933
 20
894.999969750007
 30
0.0
 40
203.0000000000001
100
AcDbArc
 50
23.48791614827727
 51
44.01209467328768
  0
ARC
  5
258
330
1F
100
AcDbEntity
  8
LAY-10
  6
CONTINUOUS
 62
     7
100
AcDbCircle
 10
619.9999852499933
 20
894.999969750007
 30
0.0
 40
242.0000000000001
100
AcDbArc
 50
23.32869675625186
 51
44.17131472562225
  0
LINE
  5
259
330
1F
100
AcDbEntity
  8
LAY-10
  6
CONTINUOUS
 62
     7
100
AcDbLine
 10
743.3647836214377
 20
1013.415030121452
 30
0.0
 11
725.6827755711439
 21
995.7330220711577
 31
0.0
  0
ARC
  5
25A
330
1F
100
AcDbEntity
  8
LAY-10
  6
CONTINUOUS
 62
     7
100
AcDbCircle
 10
619.9999852499933
 20
894.999969750007
 30
0.0
 40
178.0
100
AcDbArc
 50
23.62667846624453
 51
43.87332714022522
  0
ARC
  5
25B
330
1F
100
AcDbEntity
  8
LAY-10
  6
CONTINUOUS
 62
     7
100
AcDbCircle
 10
619.9999852499933
 20
894.999969750007
 30
0.0
 40
171.0
100
AcDbArc
 50
23.67280508448232
 51
43.82719971323956
  0
LINE
  5
25C
330
1F
100
AcDbEntity
  8
LAY-10
  6
CONTINUOUS
 62
     7
100
AcDbLine
 10
806.1802479767761
 20
975.9067665657637
 30
0.0
 11
783.079351855024
 21
966.3380394442595
 31
0.0
  0
LINE
  5
25D
330
1F
100
AcDbEntity
  8
LAY-10
  6
CONTINUOUS
 62
     7
100
AcDbLine
 10
776.6108945928553
 20
963.6587133650912
 30
0.0
 11
753.5082460938753
 21
954.0892605431953
 31
0.0
  0
ARC
  5
25E
330
1F
100
AcDbEntity
  8
LAY-10
  6
CONTINUOUS
 62
     7
100
AcDbCircle
 10
619.9999852499933
 20
894.999969750007
 30
0.0
 40
146.0
100
AcDbArc
 50
23.87365538911347
 51
43.62634207529399
  0
LINE
  5
25F
330
1F
100
AcDbEntity
  8
LAY-10
  6
CONTINUOUS
 62
     7
100
AcDbLine
 10
756.1870303006295
 20
947.6221015994105
 30
0.0
 11
779.2896796775921
 21
957.1915547849793
 31
0.0
  0
LINE
  5
260
330
1F
100
AcDbEntity
  8
LAY-10
  6
CONTINUOUS
 62
     7
100
AcDbLine
 10
749.7179106415283
 20
944.9425350837593
 30
0.0
 11
726.6119893444975
 21
935.3717492866265
 31
0.0
  0
LINE
  5
261
330
1F
100
AcDbEntity
  8
LAY-10
  6
CONTINUOUS
 62
     7
100
AcDbLine
 10
819.0000162499933
 20
934.999969750007
 30
0.0
 11
799.0000162499933
 21
934.999969750007
 31
0.0
  0
ARC
  5
262
330
1F
100
AcDbEntity
  8
LAY-10
  6
CONTINUOUS
 62
     7
100
AcDbCircle
 10
799.0000162499933
 20
932.999969750007
 30
0.0
 40
2.0
100
AcDbArc
 50
90.00000112387387
 51
179.9999823999059
  0
ARC
  5
263
330
1F
100
AcDbEntity
  8
LAY-10
  6
CONTINUOUS
 62
     7
100
AcDbCircle
 10
819.0000162499933
 20
932.999969750007
 30
0.0
 40
2.0
100
AcDbArc
 50
0.0000198478434716
 51
90.00000112387387
  0
LINE
  5
264
330
1F
100
AcDbEntity
  8
LAY-10
  6
CONTINUOUS
 62
     7
100
AcDbLine
 10
835.7481901884172
 20
988.1542077955618
 30
0.0
 11
812.6483214701045
 21
978.5859646990597
 31
0.0
  0
LINE
  5
265
330
1F
100
AcDbEntity
  8
LAY-10
  6
CONTINUOUS
 62
     7
100
AcDbLine
 10
838.4269841010156
 20
981.6870286050374
 30
0.0
 11
815.3271285861005
 21
972.1187552445663
 31
0.0
  0
LINE
  5
266
330
1F
100
AcDbEntity
  8
LAY-10
  6
CONTINUOUS
 62
     7
100
AcDbLine
 10
806.3064051094372
 20
1086.256127609451
 30
0.0
 11
788.627059615441
 21
1068.576782115455
 31
0.0
  0
LINE
  5
267
330
1F
100
AcDbEntity
  8
LAY-10
  6
CONTINUOUS
 62
     7
100
AcDbLine
 10
783.6767794738663
 20
1063.62650097388
 30
0.0
 11
765.9969155062138
 21
1045.946637006228
 31
0.0
  0
LINE
  5
268
330
1F
100
AcDbEntity
  8
LAY-10
  6
CONTINUOUS
 62
     7
100
AcDbLine
 10
748.3155274182214
 20
1018.365773918235
 30
0.0
 11
765.9961942083174
 21
1036.046440708331
 31
0.0
  0
LINE
  5
269
330
1F
100
AcDbEntity
  8
LAY-10
  6
CONTINUOUS
 62
     7
100
AcDbLine
 10
761.0464567169394
 20
1040.996178216953
 30
0.0
 11
743.3657899280548
 21
1023.315511428069
 31
0.0
  0
LINE
  5
26A
330
1F
100
AcDbEntity
  8
LAY-10
  6
CONTINUOUS
 62
     7
100
AcDbLine
 10
770.94665299788
 20
1040.996899497893
 30
0.0
 11
788.6265164754401
 21
1058.676763972259
 31
0.0
  0
LINE
  5
26B
330
1F
100
AcDbEntity
  8
LAY-10
  6
CONTINUOUS
 62
     7
100
AcDbLine
 10
793.5767976154409
 20
1063.627044115455
 30
0.0
 11
811.2561431094372
 21
1081.306389609451
 31
0.0
  0
LINE
  5
26C
330
1F
100
AcDbEntity
  8
LAY-10
  6
CONTINUOUS
 62
     7
100
AcDbLine
 10
715.8333218435786
 20
1117.216016869338
 30
0.0
 11
725.4013134689783
 21
1140.315195550759
 31
0.0
  0
ARC
  5
26D
330
1F
100
AcDbEntity
  8
LAY-10
  6
CONTINUOUS
 62
     7
100
AcDbCircle
 10
619.9999852499933
 20
894.999969750007
 30
0.0
 40
235.0000000000001
100
AcDbArc
 50
90.85337294815797
 51
111.6466383346795
  0
ARC
  5
26E
330
1F
100
AcDbEntity
  8
LAY-10
  6
CONTINUOUS
 62
     7
100
AcDbCircle
 10
619.9999852499933
 20
894.999969750007
 30
0.0
 40
242.0000000000001
100
AcDbArc
 50
90.82868685968116
 51
111.6713267270589
  0
ARC
  5
26F
330
1F
100
AcDbEntity
  8
LAY-10
  6
CONTINUOUS
 62
     7
100
AcDbCircle
 10
619.9999852499933
 20
894.999969750007
 30
0.0
 40
267.0
100
AcDbArc
 50
90.75108978249469
 51
111.7489222415492
  0
LINE
  5
270
330
1F
100
AcDbEntity
  8
LAY-10
  6
CONTINUOUS
 62
     7
100
AcDbLine
 10
524.1666486564078
 20
1117.216016869338
 30
0.0
 11
514.598657031008
 21
1140.315195550759
 31
0.0
  0
LINE
  5
271
330
1F
100
AcDbEntity
  8
LAY-10
  6
CONTINUOUS
 62
     7
100
AcDbLine
 10
521.065814292254
 20
1142.993981405339
 30
0.0
 11
530.6338058439741
 21
1119.894802901797
 31
0.0
  0
ARC
  5
272
330
1F
100
AcDbEntity
  8
LAY-10
  6
CONTINUOUS
 62
     7
100
AcDbCircle
 10
619.9999852499933
 20
894.999969750007
 30
0.0
 40
267.0
100
AcDbArc
 50
68.25107775845105
 51
89.2489102175053
  0
ARC
  5
273
330
1F
100
AcDbEntity
  8
LAY-10
  6
CONTINUOUS
 62
     7
100
AcDbCircle
 10
619.9999852499933
 20
894.999969750007
 30
0.0
 40
242.0000000000001
100
AcDbArc
 50
68.32867327294137
 51
89.1713131403189
  0
ARC
  5
274
330
1F
100
AcDbEntity
  8
LAY-10
  6
CONTINUOUS
 62
     7
100
AcDbCircle
 10
619.9999852499933
 20
894.999969750007
 30
0.0
 40
235.0000000000001
100
AcDbArc
 50
68.35336166532049
 51
89.14662705184207
  0
LINE
  5
275
330
1F
100
AcDbEntity
  8
LAY-10
  6
CONTINUOUS
 62
     7
100
AcDbLine
 10
616.4999852499933
 20
1136.974658508976
 30
0.0
 11
616.4999852499933
 21
1161.977028689535
 31
0.0
  0
LINE
  5
276
330
1F
100
AcDbEntity
  8
LAY-10
  6
CONTINUOUS
 62
     7
100
AcDbLine
 10
623.4999852499933
 20
1136.974658508976
 30
0.0
 11
623.4999852499933
 21
1161.977028689535
 31
0.0
  0
LINE
  5
277
330
1F
100
AcDbEntity
  8
LAY-10
  6
CONTINUOUS
 62
     7
100
AcDbLine
 10
718.9341562077326
 20
1142.993981405339
 30
0.0
 11
709.3661646560123
 21
1119.894802901797
 31
0.0
  0
CIRCLE
  5
278
330
1F
100
AcDbEntity
  8
LAY-10
  6
CONTINUOUS
 62
     7
100
AcDbCircle
 10
619.9999999999951
 20
594.4331658933971
 30
0.0
 40
5.0
  0
CIRCLE
  5
279
330
1F
100
AcDbEntity
  8
LAY-10
  6
CONTINUOUS
 62
     7
100
AcDbCircle
 10
319.4331658933875
 20
895.0000000000045
 30
0.0
 40
5.0
  0
CIRCLE
  5
27A
330
1F
100
AcDbEntity
  8
LAY-10
  6
CONTINUOUS
 62
     7
100
AcDbCircle
 10
920.5668341066028
 20
895.0000000000045
 30
0.0
 40
5.0
  0
CIRCLE
  5
27B
330
1F
100
AcDbEntity
  8
LAY-10
  6
CONTINUOUS
 62
     7
100
AcDbCircle
 10
619.9999999999951
 20
1195.566834106612
 30
0.0
 40
5.0
  0
LINE
  5
27C
330
1F
100
AcDbEntity
  8
LAY-10
  6
CONTINUOUS
 62
     7
100
AcDbLine
 10
309.999970076788
 20
323.7096665650499
 30
0.0
 11
929.9999090767882
 21
323.7096665650499
 31
0.0
  0
ARC
  5
27D
330
1F
100
AcDbEntity
  8
LAY-10
  6
CONTINUOUS
 62
     7
100
AcDbCircle
 10
444.1705472499932
 20
342.9912717500072
 30
0.0
 40
6.000000000000005
100
AcDbArc
 50
270.0000011238739
 51
335.0952259189608
  0
LINE
  5
27E
330
1F
100
AcDbEntity
  8
LAY-10
  6
CONTINUOUS
 62
     7
100
AcDbLine
 10
449.6861033346304
 20
378.5506384757564
 30
0.0
 11
448.9992805633522
 21
379.5314985868338
 31
0.0
  0
ARC
  5
27F
330
1F
100
AcDbEntity
  8
LAY-10
  6
CONTINUOUS
 62
     7
100
AcDbCircle
 10
311.9310920767882
 20
336.70966656505
 30
0.0
 40
1.0
100
AcDbArc
 50
89.99998127603206
 51
175.9143724023179
  0
LINE
  5
280
330
1F
100
AcDbEntity
  8
LAY-10
  6
CONTINUOUS
 62
     7
100
AcDbLine
 10
309.9999700767883
 20
323.7096665650499
 30
0.0
 11
310.9336250767883
 21
336.7809255650498
 31
0.0
  0
LINE
  5
281
330
1F
100
AcDbEntity
  8
LAY-10
  6
CONTINUOUS
 62
     7
100
AcDbLine
 10
361.0768132303783
 20
338.62972556505
 30
0.0
 11
361.9616092303783
 21
361.4875481958437
 31
0.0
  0
LINE
  5
282
330
1F
100
AcDbEntity
  8
LAY-10
  6
CONTINUOUS
 62
     7
100
AcDbLine
 10
369.0256352303782
 20
361.4738911958436
 30
0.0
 11
370.0000162303782
 21
323.7096665650499
 31
0.0
  0
LINE
  5
283
330
1F
100
AcDbEntity
  8
LAY-10
  6
CONTINUOUS
 62
     7
100
AcDbLine
 10
330.5851600767882
 20
342.04008056505
 30
0.0
 11
334.8829350767882
 21
373.8435775650499
 31
0.0
  0
LINE
  5
284
330
1F
100
AcDbEntity
  8
LAY-10
  6
CONTINUOUS
 62
     7
100
AcDbLine
 10
345.025604576788
 20
373.73597256505
 30
0.0
 11
345.9487305767881
 21
338.65705456505
 31
0.0
  0
LINE
  5
285
330
1F
100
AcDbEntity
  8
LAY-10
  6
CONTINUOUS
 62
     7
100
AcDbLine
 10
359.0441592499933
 20
341.6629637500071
 30
0.0
 11
359.9154662499932
 21
360.493041750007
 31
0.0
  0
LINE
  5
286
330
1F
100
AcDbEntity
  8
LAY-10
  6
CONTINUOUS
 62
     7
100
AcDbLine
 10
345.9992672499932
 20
375.709197750007
 30
0.0
 11
347.9460902499932
 21
341.6521307500071
 31
0.0
  0
ARC
  5
287
330
1F
100
AcDbEntity
  8
LAY-10
  6
CONTINUOUS
 62
     7
100
AcDbCircle
 10
430.9999542499932
 20
356.9912717500072
 30
0.0
 40
7.000000000000004
100
AcDbArc
 50
303.5650719740107
 51
236.4350272652087
  0
LINE
  5
288
330
1F
100
AcDbEntity
  8
LAY-10
  6
CONTINUOUS
 62
     7
100
AcDbLine
 10
442.8821562499932
 20
377.5777287500071
 30
0.0
 11
440.7292022499933
 21
351.742126750007
 31
0.0
  0
LINE
  5
289
330
1F
100
AcDbEntity
  8
LAY-10
  6
CONTINUOUS
 62
     7
100
AcDbLine
 10
419.1904452499932
 20
376.7053227500072
 30
0.0
 11
421.2707062499933
 21
351.742126750007
 31
0.0
  0
ARC
  5
28A
330
1F
100
AcDbEntity
  8
LAY-10
  6
CONTINUOUS
 62
     7
100
AcDbCircle
 10
393.9450639329891
 20
351.6903005118068
 30
0.0
 40
12.0
100
AcDbArc
 50
24.90490965135083
 51
92.16857344662004
  0
ARC
  5
28B
330
1F
100
AcDbEntity
  8
LAY-10
  6
CONTINUOUS
 62
     7
100
AcDbCircle
 10
325.6302040767882
 20
342.70966656505
 30
0.0
 40
5.0
100
AcDbArc
 50
270.0000011238739
 51
352.3039559999276
  0
LINE
  5
28C
330
1F
100
AcDbEntity
  8
LAY-10
  6
CONTINUOUS
 62
     7
100
AcDbLine
 10
325.6302040767882
 20
337.70966656505
 30
0.0
 11
311.9310920767882
 21
337.70966656505
 31
0.0
  0
ARC
  5
28D
330
1F
100
AcDbEntity
  8
LAY-10
  6
CONTINUOUS
 62
     7
100
AcDbCircle
 10
417.8293612499934
 20
342.9912717500072
 30
0.0
 40
6.000000000000005
100
AcDbArc
 50
204.9048336245796
 51
270.0000011238739
  0
LINE
  5
28E
330
1F
100
AcDbEntity
  8
LAY-10
  6
CONTINUOUS
 62
     7
100
AcDbLine
 10
404.8291591239358
 20
356.7436629443274
 30
0.0
 11
412.3873442499932
 21
340.464599750007
 31
0.0
  0
LINE
  5
28F
330
1F
100
AcDbEntity
  8
LAY-10
  6
CONTINUOUS
 62
     7
100
AcDbLine
 10
434.8701322499933
 20
351.1584477500072
 30
0.0
 11
427.1297762499933
 21
351.1584477500072
 31
0.0
  0
LINE
  5
290
330
1F
100
AcDbEntity
  8
LAY-10
  6
CONTINUOUS
 62
     7
100
AcDbLine
 10
424.2603302499933
 20
348.9912717500072
 30
0.0
 11
437.7395782499932
 21
348.9912717500072
 31
0.0
  0
LINE
  5
291
330
1F
100
AcDbEntity
  8
LAY-10
  6
CONTINUOUS
 62
     7
100
AcDbLine
 10
417.8293612499934
 20
336.9912717500072
 30
0.0
 11
444.1705472499932
 21
336.9912717500072
 31
0.0
  0
ARC
  5
292
330
1F
100
AcDbEntity
  8
LAY-10
  6
CONTINUOUS
 62
     7
100
AcDbCircle
 10
424.2603302499933
 20
351.9912717500072
 30
0.0
 40
3.000000000000003
100
AcDbArc
 50
184.7636482523407
 51
270.0000011238739
  0
ARC
  5
293
330
1F
100
AcDbEntity
  8
LAY-10
  6
CONTINUOUS
 62
     7
100
AcDbCircle
 10
437.7395782499932
 20
351.9912717500072
 30
0.0
 40
3.000000000000003
100
AcDbArc
 50
270.0000011238739
 51
355.2364112911897
  0
ARC
  5
294
330
1F
100
AcDbEntity
  8
LAY-10
  6
CONTINUOUS
 62
     7
100
AcDbCircle
 10
619.9994962499932
 20
-5618.031250249993
 30
0.0
 40
5986.000000000002
100
AcDbArc
 50
92.16857344662004
 51
92.47189309155912
  0
ARC
  5
295
330
1F
100
AcDbEntity
  8
LAY-10
  6
CONTINUOUS
 62
     7
100
AcDbCircle
 10
619.9994962499932
 20
-5618.031250249993
 30
0.0
 40
6000.000000000002
100
AcDbArc
 50
92.24466098106161
 51
92.31155901732922
  0
ARC
  5
296
330
1F
100
AcDbEntity
  8
LAY-10
  6
CONTINUOUS
 62
     7
100
AcDbCircle
 10
619.9994962499932
 20
-5618.031250249993
 30
0.0
 40
6000.000000000002
100
AcDbArc
 50
92.55050656334889
 51
92.61730977996672
  0
ARC
  5
297
330
1F
100
AcDbEntity
  8
LAY-10
  6
CONTINUOUS
 62
     7
100
AcDbCircle
 10
344.0259555767882
 20
373.7096665650499
 30
0.0
 40
1.0
100
AcDbArc
 50
1.507451958985242
 51
89.99998127603367
  0
ARC
  5
298
330
1F
100
AcDbEntity
  8
LAY-10
  6
CONTINUOUS
 62
     7
100
AcDbCircle
 10
335.8739170767883
 20
373.7096665650499
 30
0.0
 40
1.0
100
AcDbArc
 50
89.99998127603206
 51
172.3039361520835
  0
LINE
  5
299
330
1F
100
AcDbEntity
  8
LAY-10
  6
CONTINUOUS
 62
     7
100
AcDbLine
 10
335.8739174035832
 20
374.70966656505
 30
0.0
 11
344.025940403583
 21
374.70966656505
 31
0.0
  0
LINE
  5
29A
330
1F
100
AcDbEntity
  8
LAY-10
  6
CONTINUOUS
 62
     7
100
AcDbLine
 10
368.0259862303783
 20
362.4475851958437
 30
0.0
 11
362.9608162303782
 21
362.4475851958437
 31
0.0
  0
ARC
  5
29B
330
1F
100
AcDbEntity
  8
LAY-10
  6
CONTINUOUS
 62
     7
100
AcDbCircle
 10
619.9994962499932
 20
-5618.031250249993
 30
0.0
 40
5999.000000000002
100
AcDbArc
 50
92.31883818452502
 51
92.5444334350812
  0
ARC
  5
29C
330
1F
100
AcDbEntity
  8
LAY-10
  6
CONTINUOUS
 62
     7
100
AcDbCircle
 10
362.9608162303782
 20
361.4475851958437
 30
0.0
 40
1.0
100
AcDbArc
 50
89.99998127603206
 51
177.7093918786879
  0
LINE
  5
29D
330
1F
100
AcDbEntity
  8
LAY-10
  6
CONTINUOUS
 62
     7
100
AcDbLine
 10
353.6790156095753
 20
375.0542990802915
 30
0.0
 11
352.9992734692139
 21
376.025045868274
 31
0.0
  0
ARC
  5
29E
330
1F
100
AcDbEntity
  8
LAY-10
  6
CONTINUOUS
 62
     7
100
AcDbCircle
 10
361.9133302499931
 20
360.4006047500071
 30
0.0
 40
2.0
100
AcDbArc
 50
92.47189309155912
 51
177.3508921862721
  0
ARC
  5
29F
330
1F
100
AcDbEntity
  8
LAY-10
  6
CONTINUOUS
 62
     7
100
AcDbCircle
 10
368.0259862303783
 20
361.4475851958437
 30
0.0
 40
1.0
100
AcDbArc
 50
1.507451958985242
 51
89.99998127603206
  0
LINE
  5
2A0
330
1F
100
AcDbEntity
  8
LAY-10
  6
CONTINUOUS
 62
     7
100
AcDbLine
 10
377.2780735891747
 20
376.0564460538845
 30
0.0
 11
377.9992636488055
 21
377.0864206069355
 31
0.0
  0
ARC
  5
2A1
330
1F
100
AcDbEntity
  8
LAY-10
  6
CONTINUOUS
 62
     7
100
AcDbCircle
 10
619.9994962499932
 20
-5618.031250249993
 30
0.0
 40
6000.000000000002
100
AcDbArc
 50
91.63315291532163
 51
92.00576403509584
  0
ARC
  5
2A2
330
1F
100
AcDbEntity
  8
LAY-10
  6
CONTINUOUS
 62
     7
100
AcDbCircle
 10
619.9994962499932
 20
-5618.031250249993
 30
0.0
 40
5999.000000000002
100
AcDbArc
 50
92.01283930610093
 51
92.23851600562428
  0
LINE
  5
2A3
330
1F
100
AcDbEntity
  8
LAY-10
  6
CONTINUOUS
 62
     7
100
AcDbLine
 10
385.6813398714967
 20
376.3908237777787
 30
0.0
 11
384.9992724263684
 21
377.3648913575717
 31
0.0
  0
LINE
  5
2A4
330
1F
100
AcDbEntity
  8
LAY-10
  6
CONTINUOUS
 62
     7
100
AcDbLine
 10
409.2809984913117
 20
377.2668002811352
 30
0.0
 11
409.9992764532854
 21
378.2926158937763
 31
0.0
  0
ARC
  5
2A5
330
1F
100
AcDbEntity
  8
LAY-10
  6
CONTINUOUS
 62
     7
100
AcDbCircle
 10
417.1974032499934
 20
376.5392457500071
 30
0.0
 40
2.0
100
AcDbArc
 50
4.763341925594341
 51
91.93772453916755
  0
ARC
  5
2A6
330
1F
100
AcDbEntity
  8
LAY-10
  6
CONTINUOUS
 62
     7
100
AcDbCircle
 10
444.8752592499932
 20
377.4116517500072
 30
0.0
 40
2.0
100
AcDbArc
 50
91.6735909956093
 51
175.2367925138043
  0
ARC
  5
2A7
330
1F
100
AcDbEntity
  8
LAY-10
  6
CONTINUOUS
 62
     7
100
AcDbCircle
 10
620.0004742499896
 20
-5618.031250249993
 30
0.0
 40
5999.000000000002
100
AcDbArc
 50
88.98460633974653
 51
89.21004699135266
  0
ARC
  5
2A8
330
1F
100
AcDbEntity
  8
LAY-10
  6
CONTINUOUS
 62
     7
100
AcDbCircle
 10
620.0004742499896
 20
-5618.031250249993
 30
0.0
 40
5986.000000000002
100
AcDbArc
 50
88.55313696540293
 51
89.28293810318088
  0
LINE
  5
2A9
330
1F
100
AcDbEntity
  8
LAY-10
  6
CONTINUOUS
 62
     7
100
AcDbLine
 10
694.9128755979609
 20
367.4999697500071
 30
0.0
 11
545.0861169019261
 21
367.4999697500071
 31
0.0
  0
LINE
  5
2AA
330
1F
100
AcDbEntity
  8
LAY-10
  6
CONTINUOUS
 62
     7
100
AcDbLine
 10
694.3005222499933
 20
380.4999697500071
 30
0.0
 11
545.6995082499932
 21
380.4999697500071
 31
0.0
  0
ARC
  5
2AB
330
1F
100
AcDbEntity
  8
LAY-10
  6
CONTINUOUS
 62
     7
100
AcDbCircle
 10
469.1569521819774
 20
354.0640710672345
 30
0.0
 40
12.0
100
AcDbArc
 50
91.44686303459707
 51
155.0951086335264
  0
LINE
  5
2AC
330
1F
100
AcDbEntity
  8
LAY-10
  6
CONTINUOUS
 62
     7
100
AcDbLine
 10
458.2728553783454
 20
359.1174300262995
 30
0.0
 11
449.6125642499933
 21
340.464599750007
 31
0.0
  0
ARC
  5
2AD
330
1F
100
AcDbEntity
  8
LAY-10
  6
CONTINUOUS
 62
     7
100
AcDbCircle
 10
619.9994962499932
 20
-5618.031250249993
 30
0.0
 40
5999.000000000002
100
AcDbArc
 50
90.78995300864734
 51
91.01539366025345
  0
ARC
  5
2AE
330
1F
100
AcDbEntity
  8
LAY-10
  6
CONTINUOUS
 62
     7
100
AcDbCircle
 10
619.9994962499932
 20
-5618.031250249993
 30
0.0
 40
5986.000000000002
100
AcDbArc
 50
90.71706189681917
 51
91.44686303459707
  0
ARC
  5
2AF
330
1F
100
AcDbEntity
  8
LAY-10
  6
CONTINUOUS
 62
     7
100
AcDbCircle
 10
619.9994962499932
 20
-5618.031250249993
 30
0.0
 40
5999.000000000002
100
AcDbArc
 50
91.09564937487839
 51
91.32110949112646
  0
ARC
  5
2B0
330
1F
100
AcDbEntity
  8
LAY-10
  6
CONTINUOUS
 62
     7
100
AcDbCircle
 10
619.9994962499932
 20
-5618.031250249993
 30
0.0
 40
5999.000000000002
100
AcDbArc
 50
91.40137723234011
 51
91.62686280306993
  0
LINE
  5
2B1
330
1F
100
AcDbEntity
  8
LAY-10
  6
CONTINUOUS
 62
     7
100
AcDbLine
 10
473.2867032032887
 20
379.1744621094268
 30
0.0
 11
473.9992899870385
 21
380.1921483715697
 31
0.0
  0
LINE
  5
2B2
330
1F
100
AcDbEntity
  8
LAY-10
  6
CONTINUOUS
 62
     7
100
AcDbLine
 10
481.6885480100989
 20
379.374112204424
 30
0.0
 11
480.9992931431871
 21
380.3584456214149
 31
0.0
  0
ARC
  5
2B3
330
1F
100
AcDbEntity
  8
LAY-10
  6
CONTINUOUS
 62
     7
100
AcDbCircle
 10
619.9994962499932
 20
-5618.031250249993
 30
0.0
 40
6000.000000000002
100
AcDbArc
 50
91.32747292454442
 51
91.39433689501926
  0
LINE
  5
2B4
330
1F
100
AcDbEntity
  8
LAY-10
  6
CONTINUOUS
 62
     7
100
AcDbLine
 10
505.2894761429102
 20
379.8719343043441
 30
0.0
 11
505.9992812586363
 21
380.885647906036
 31
0.0
  0
LINE
  5
2B5
330
1F
100
AcDbEntity
  8
LAY-10
  6
CONTINUOUS
 62
     7
100
AcDbLine
 10
513.6910076468228
 20
380.0267275667384
 30
0.0
 11
512.9992839421029
 21
381.0145867615975
 31
0.0
  0
ARC
  5
2B6
330
1F
100
AcDbEntity
  8
LAY-10
  6
CONTINUOUS
 62
     7
100
AcDbCircle
 10
619.9994962499932
 20
-5618.031250249993
 30
0.0
 40
6000.000000000002
100
AcDbArc
 50
91.02183092890247
 51
91.0886873733993
  0
ARC
  5
2B7
330
1F
100
AcDbEntity
  8
LAY-10
  6
CONTINUOUS
 62
     7
100
AcDbCircle
 10
619.9994962499932
 20
-5618.031250249993
 30
0.0
 40
6000.000000000002
100
AcDbArc
 50
90.71623581572139
 51
90.78306872808963
  0
LINE
  5
2B8
330
1F
100
AcDbEntity
  8
LAY-10
  6
CONTINUOUS
 62
     7
100
AcDbLine
 10
537.2922182598229
 20
380.3985864795723
 30
0.0
 11
537.9992836660408
 21
381.4083873441887
 31
0.0
  0
LINE
  5
2B9
330
1F
100
AcDbEntity
  8
LAY-10
  6
CONTINUOUS
 62
     7
100
AcDbLine
 10
545.6995082499932
 20
380.4999697500071
 30
0.0
 11
544.9992769850842
 21
381.4999786970012
 31
0.0
  0
LINE
  5
2BA
330
1F
100
AcDbEntity
  8
LAY-10
  6
CONTINUOUS
 62
     7
100
AcDbLine
 10
702.7077522401637
 20
380.3985864795721
 30
0.0
 11
702.0006868339456
 21
381.4083873441885
 31
0.0
  0
LINE
  5
2BB
330
1F
100
AcDbEntity
  8
LAY-10
  6
CONTINUOUS
 62
     7
100
AcDbLine
 10
694.3004622499934
 20
380.4999697500071
 30
0.0
 11
695.0006935149022
 21
381.4999786970009
 31
0.0
  0
ARC
  5
2BC
330
1F
100
AcDbEntity
  8
LAY-10
  6
CONTINUOUS
 62
     7
100
AcDbCircle
 10
620.0004742499896
 20
-5618.031250249993
 30
0.0
 40
6000.000000000002
100
AcDbArc
 50
89.21693127191035
 51
89.28376418427861
  0
ARC
  5
2BD
330
1F
100
AcDbEntity
  8
LAY-10
  6
CONTINUOUS
 62
     7
100
AcDbCircle
 10
620.0004742499896
 20
-5618.031250249993
 30
0.0
 40
6000.000000000002
100
AcDbArc
 50
87.68844098267078
 51
87.75533901893843
  0
ARC
  5
2BE
330
1F
100
AcDbEntity
  8
LAY-10
  6
CONTINUOUS
 62
     7
100
AcDbCircle
 10
620.0004742499896
 20
-5618.031250249993
 30
0.0
 40
5986.000000000002
100
AcDbArc
 50
87.52810690844092
 51
87.83142655336694
  0
LINE
  5
2BF
330
1F
100
AcDbEntity
  8
LAY-10
  6
CONTINUOUS
 62
     7
100
AcDbLine
 10
797.1178142499932
 20
377.5777287500071
 30
0.0
 11
799.2707682499935
 21
351.742126750007
 31
0.0
  0
LINE
  5
2C0
330
1F
100
AcDbEntity
  8
LAY-10
  6
CONTINUOUS
 62
     7
100
AcDbLine
 10
820.8095252499934
 20
376.7053227500069
 30
0.0
 11
818.7292642499933
 21
351.742126750007
 31
0.0
  0
ARC
  5
2C1
330
1F
100
AcDbEntity
  8
LAY-10
  6
CONTINUOUS
 62
     7
100
AcDbCircle
 10
809.0000162499933
 20
356.991271750007
 30
0.0
 40
7.000000000000004
100
AcDbArc
 50
303.5649727347915
 51
236.4349280259891
  0
ARC
  5
2C2
330
1F
100
AcDbEntity
  8
LAY-10
  6
CONTINUOUS
 62
     7
100
AcDbCircle
 10
846.0549065669968
 20
351.6903005118059
 30
0.0
 40
12.0
100
AcDbArc
 50
87.83142655336694
 51
155.0950903486492
  0
ARC
  5
2C3
330
1F
100
AcDbEntity
  8
LAY-10
  6
CONTINUOUS
 62
     7
100
AcDbCircle
 10
770.8430183180085
 20
354.0640710672345
 30
0.0
 40
12.0
100
AcDbArc
 50
24.90489136647365
 51
88.55313696540293
  0
ARC
  5
2C4
330
1F
100
AcDbEntity
  8
LAY-10
  6
CONTINUOUS
 62
     7
100
AcDbCircle
 10
795.8294232499932
 20
342.9912717500069
 30
0.0
 40
6.000000000000005
100
AcDbArc
 50
204.9047740810394
 51
269.9999988761261
  0
LINE
  5
2C5
330
1F
100
AcDbEntity
  8
LAY-10
  6
CONTINUOUS
 62
     7
100
AcDbLine
 10
781.727115121641
 20
359.1174300262995
 30
0.0
 11
790.3874062499933
 21
340.464599750007
 31
0.0
  0
ARC
  5
2C6
330
1F
100
AcDbEntity
  8
LAY-10
  6
CONTINUOUS
 62
     7
100
AcDbCircle
 10
822.1706092499933
 20
342.9912717500069
 30
0.0
 40
6.000000000000005
100
AcDbArc
 50
269.9999988761261
 51
335.0951663754205
  0
LINE
  5
2C7
330
1F
100
AcDbEntity
  8
LAY-10
  6
CONTINUOUS
 62
     7
100
AcDbLine
 10
822.1706092499933
 20
336.991271750007
 30
0.0
 11
795.8294232499932
 21
336.991271750007
 31
0.0
  0
LINE
  5
2C8
330
1F
100
AcDbEntity
  8
LAY-10
  6
CONTINUOUS
 62
     7
100
AcDbLine
 10
815.7396402499933
 20
348.991271750007
 30
0.0
 11
802.2603922499932
 21
348.991271750007
 31
0.0
  0
LINE
  5
2C9
330
1F
100
AcDbEntity
  8
LAY-10
  6
CONTINUOUS
 62
     7
100
AcDbLine
 10
805.1298382499933
 20
351.1584477500069
 30
0.0
 11
812.8701942499933
 21
351.1584477500069
 31
0.0
  0
ARC
  5
2CA
330
1F
100
AcDbEntity
  8
LAY-10
  6
CONTINUOUS
 62
     7
100
AcDbCircle
 10
802.2603922499932
 20
351.991271750007
 30
0.0
 40
3.000000000000003
100
AcDbArc
 50
184.7635887088103
 51
269.9999988761261
  0
ARC
  5
2CB
330
1F
100
AcDbEntity
  8
LAY-10
  6
CONTINUOUS
 62
     7
100
AcDbCircle
 10
815.7396402499933
 20
351.991271750007
 30
0.0
 40
3.000000000000003
100
AcDbArc
 50
269.9999988761261
 51
355.2363517476592
  0
LINE
  5
2CC
330
1F
100
AcDbEntity
  8
LAY-10
  6
CONTINUOUS
 62
     7
100
AcDbLine
 10
835.1708113760503
 20
356.7436629443264
 30
0.0
 11
827.6126262499935
 21
340.464599750007
 31
0.0
  0
ARC
  5
2CD
330
1F
100
AcDbEntity
  8
LAY-10
  6
CONTINUOUS
 62
     7
100
AcDbCircle
 10
620.0004742499896
 20
-5618.031250249993
 30
0.0
 40
6000.000000000002
100
AcDbArc
 50
87.99423596490422
 51
88.36684708467843
  0
LINE
  5
2CE
330
1F
100
AcDbEntity
  8
LAY-10
  6
CONTINUOUS
 62
     7
100
AcDbLine
 10
758.3114224898876
 20
379.3741122044237
 30
0.0
 11
759.0006773567993
 21
380.3584456214147
 31
0.0
  0
ARC
  5
2CF
330
1F
100
AcDbEntity
  8
LAY-10
  6
CONTINUOUS
 62
     7
100
AcDbCircle
 10
620.0004742499896
 20
-5618.031250249993
 30
0.0
 40
5999.000000000002
100
AcDbArc
 50
88.67889050887355
 51
88.90435062512161
  0
ARC
  5
2D0
330
1F
100
AcDbEntity
  8
LAY-10
  6
CONTINUOUS
 62
     7
100
AcDbCircle
 10
620.0004742499896
 20
-5618.031250249993
 30
0.0
 40
6000.000000000002
100
AcDbArc
 50
88.9113126266007
 51
88.97816907109751
  0
LINE
  5
2D1
330
1F
100
AcDbEntity
  8
LAY-10
  6
CONTINUOUS
 62
     7
100
AcDbLine
 10
726.3089628531637
 20
380.0267275667382
 30
0.0
 11
727.0006865578837
 21
381.0145867615973
 31
0.0
  0
LINE
  5
2D2
330
1F
100
AcDbEntity
  8
LAY-10
  6
CONTINUOUS
 62
     7
100
AcDbLine
 10
734.7104943570764
 20
379.8719343043438
 30
0.0
 11
734.0006892413502
 21
380.8856479060357
 31
0.0
  0
ARC
  5
2D3
330
1F
100
AcDbEntity
  8
LAY-10
  6
CONTINUOUS
 62
     7
100
AcDbCircle
 10
620.0004742499896
 20
-5618.031250249993
 30
0.0
 40
5999.000000000002
100
AcDbArc
 50
88.37313719693006
 51
88.59862276765988
  0
LINE
  5
2D4
330
1F
100
AcDbEntity
  8
LAY-10
  6
CONTINUOUS
 62
     7
100
AcDbLine
 10
766.7132672966977
 20
379.1744621094265
 30
0.0
 11
766.0006805129481
 21
380.1921483715694
 31
0.0
  0
ARC
  5
2D5
330
1F
100
AcDbEntity
  8
LAY-10
  6
CONTINUOUS
 62
     7
100
AcDbCircle
 10
620.0004742499896
 20
-5618.031250249993
 30
0.0
 40
6000.000000000002
100
AcDbArc
 50
88.60566310496773
 51
88.67252707545563
  0
LINE
  5
2D6
330
1F
100
AcDbEntity
  8
LAY-10
  6
CONTINUOUS
 62
     7
100
AcDbLine
 10
790.313867165356
 20
378.5506384757562
 30
0.0
 11
791.0006899366342
 21
379.5314985868334
 31
0.0
  0
ARC
  5
2D7
330
1F
100
AcDbEntity
  8
LAY-10
  6
CONTINUOUS
 62
     7
100
AcDbCircle
 10
795.1247112499932
 20
377.411651750007
 30
0.0
 40
2.0
100
AcDbArc
 50
4.763207486195738
 51
88.32640900439068
  0
ARC
  5
2D8
330
1F
100
AcDbEntity
  8
LAY-10
  6
CONTINUOUS
 62
     7
100
AcDbCircle
 10
822.8025672499933
 20
376.5392457500071
 30
0.0
 40
2.0
100
AcDbArc
 50
88.06227546083245
 51
175.2366580744057
  0
ARC
  5
2D9
330
1F
100
AcDbEntity
  8
LAY-10
  6
CONTINUOUS
 62
     7
100
AcDbCircle
 10
620.0004742499896
 20
-5618.031250249993
 30
0.0
 40
5999.000000000002
100
AcDbArc
 50
87.76148399437572
 51
87.98716069389911
  0
LINE
  5
2DA
330
1F
100
AcDbEntity
  8
LAY-10
  6
CONTINUOUS
 62
     7
100
AcDbLine
 10
830.7189720086749
 20
377.266800281135
 30
0.0
 11
830.0006940467011
 21
378.292615893776
 31
0.0
  0
LINE
  5
2DB
330
1F
100
AcDbEntity
  8
LAY-10
  6
CONTINUOUS
 62
     7
100
AcDbLine
 10
854.31863062849
 20
376.3908237777785
 30
0.0
 11
855.0006980736182
 21
377.3648913575714
 31
0.0
  0
LINE
  5
2DC
330
1F
100
AcDbEntity
  8
LAY-10
  6
CONTINUOUS
 62
     7
100
AcDbLine
 10
878.9232185767881
 20
338.6297255650497
 30
0.0
 11
878.0384225767882
 21
361.4875481958437
 31
0.0
  0
LINE
  5
2DD
330
1F
100
AcDbEntity
  8
LAY-10
  6
CONTINUOUS
 62
     7
100
AcDbLine
 10
870.9743965767882
 20
361.4738911958436
 30
0.0
 11
870.0000155767882
 21
323.7096665650499
 31
0.0
  0
LINE
  5
2DE
330
1F
100
AcDbEntity
  8
LAY-10
  6
CONTINUOUS
 62
     7
100
AcDbLine
 10
894.9743805767883
 20
373.73597256505
 30
0.0
 11
894.0512855767881
 21
338.65705456505
 31
0.0
  0
LINE
  5
2DF
330
1F
100
AcDbEntity
  8
LAY-10
  6
CONTINUOUS
 62
     7
100
AcDbLine
 10
909.4147190767882
 20
342.04008056505
 30
0.0
 11
905.1169440767882
 21
373.8435775650499
 31
0.0
  0
LINE
  5
2E0
330
1F
100
AcDbEntity
  8
LAY-10
  6
CONTINUOUS
 62
     7
100
AcDbLine
 10
894.0007032499932
 20
375.709197750007
 30
0.0
 11
892.0538802499932
 21
341.6521307500068
 31
0.0
  0
LINE
  5
2E1
330
1F
100
AcDbEntity
  8
LAY-10
  6
CONTINUOUS
 62
     7
100
AcDbLine
 10
880.9558112499934
 20
341.6629637500069
 30
0.0
 11
880.0845042499932
 21
360.493041750007
 31
0.0
  0
LINE
  5
2E2
330
1F
100
AcDbEntity
  8
LAY-10
  6
CONTINUOUS
 62
     7
100
AcDbLine
 10
929.9999090767881
 20
323.7096665650499
 30
0.0
 11
929.066254076788
 21
336.7809255650498
 31
0.0
  0
ARC
  5
2E3
330
1F
100
AcDbEntity
  8
LAY-10
  6
CONTINUOUS
 62
     7
100
AcDbCircle
 10
914.3696750767881
 20
342.70966656505
 30
0.0
 40
5.0
100
AcDbArc
 50
187.6960440000724
 51
269.9999988761261
  0
LINE
  5
2E4
330
1F
100
AcDbEntity
  8
LAY-10
  6
CONTINUOUS
 62
     7
100
AcDbLine
 10
914.3696750767881
 20
337.70966656505
 30
0.0
 11
928.0687870767881
 21
337.70966656505
 31
0.0
  0
ARC
  5
2E5
330
1F
100
AcDbEntity
  8
LAY-10
  6
CONTINUOUS
 62
     7
100
AcDbCircle
 10
928.0687870767881
 20
336.70966656505
 30
0.0
 40
1.0
100
AcDbArc
 50
4.085627597682107
 51
90.00001872396794
  0
LINE
  5
2E6
330
1F
100
AcDbEntity
  8
LAY-10
  6
CONTINUOUS
 62
     7
100
AcDbLine
 10
904.1200105767882
 20
374.70966656505
 30
0.0
 11
895.9740145767882
 21
374.70966656505
 31
0.0
  0
ARC
  5
2E7
330
1F
100
AcDbEntity
  8
LAY-10
  6
CONTINUOUS
 62
     7
100
AcDbCircle
 10
620.0004742499896
 20
-5618.031250249993
 30
0.0
 40
5999.000000000002
100
AcDbArc
 50
87.45556656491884
 51
87.68116181547502
  0
ARC
  5
2E8
330
1F
100
AcDbEntity
  8
LAY-10
  6
CONTINUOUS
 62
     7
100
AcDbCircle
 10
878.0866402499933
 20
360.4006047500068
 30
0.0
 40
2.0
100
AcDbArc
 50
2.649107813727929
 51
87.52810690844092
  0
ARC
  5
2E9
330
1F
100
AcDbEntity
  8
LAY-10
  6
CONTINUOUS
 62
     7
100
AcDbCircle
 10
877.0392155767883
 20
361.4475851958437
 30
0.0
 40
1.0
100
AcDbArc
 50
2.290608121312109
 51
90.00001872396794
  0
ARC
  5
2EA
330
1F
100
AcDbEntity
  8
LAY-10
  6
CONTINUOUS
 62
     7
100
AcDbCircle
 10
871.9740455767882
 20
361.4475851958437
 30
0.0
 40
1.0
100
AcDbArc
 50
90.00001872396794
 51
178.4925480410148
  0
LINE
  5
2EB
330
1F
100
AcDbEntity
  8
LAY-10
  6
CONTINUOUS
 62
     7
100
AcDbLine
 10
871.9740455767882
 20
362.4475851958437
 30
0.0
 11
877.0392155767883
 21
362.4475851958437
 31
0.0
  0
LINE
  5
2EC
330
1F
100
AcDbEntity
  8
LAY-10
  6
CONTINUOUS
 62
     7
100
AcDbLine
 10
862.7218969108119
 20
376.0564460538843
 30
0.0
 11
862.0007068511809
 21
377.0864206069352
 31
0.0
  0
ARC
  5
2ED
330
1F
100
AcDbEntity
  8
LAY-10
  6
CONTINUOUS
 62
     7
100
AcDbCircle
 10
895.9740145767882
 20
373.7096665650499
 30
0.0
 40
1.0
100
AcDbArc
 50
89.99998127603367
 51
178.4925678888585
  0
ARC
  5
2EE
330
1F
100
AcDbEntity
  8
LAY-10
  6
CONTINUOUS
 62
     7
100
AcDbCircle
 10
620.0004742499896
 20
-5618.031250249993
 30
0.0
 40
6000.000000000002
100
AcDbArc
 50
87.38269022003327
 51
87.44949343665111
  0
LINE
  5
2EF
330
1F
100
AcDbEntity
  8
LAY-10
  6
CONTINUOUS
 62
     7
100
AcDbLine
 10
886.320954890411
 20
375.0542990802913
 30
0.0
 11
887.0006970307727
 21
376.0250458682738
 31
0.0
  0
ARC
  5
2F0
330
1F
100
AcDbEntity
  8
LAY-10
  6
CONTINUOUS
 62
     7
100
AcDbCircle
 10
904.125962076788
 20
373.7096665650499
 30
0.0
 40
1.0
100
AcDbArc
 50
7.696063847916496
 51
90.00001872396794
  0
LINE
  5
2F1
330
1F
100
AcDbEntity
  8
LAY-10
  6
CONTINUOUS
 62
     7
100
AcDbLine
 10
348.5132145767876
 20
339.77006882628
 30
0.0
 11
349.4523435005138
 21
340.7091977500062
 31
0.0
  0
LINE
  5
2F2
330
1F
100
AcDbEntity
  8
LAY-10
  6
CONTINUOUS
 62
     7
100
AcDbLine
 10
348.5132145767851
 20
338.3558552639043
 30
0.0
 11
350.8665570628895
 21
340.7091977500088
 31
0.0
  0
LINE
  5
2F3
330
1F
100
AcDbEntity
  8
LAY-10
  6
CONTINUOUS
 62
     7
100
AcDbLine
 10
348.5132145767825
 20
336.9416417015286
 30
0.0
 11
352.2807706252587
 21
340.7091977500049
 31
0.0
  0
LINE
  5
2F4
330
1F
100
AcDbEntity
  8
LAY-10
  6
CONTINUOUS
 62
     7
100
AcDbLine
 10
349.6954530026727
 20
336.7096665650458
 30
0.0
 11
353.6949841876344
 21
340.7091977500074
 31
0.0
  0
LINE
  5
2F5
330
1F
100
AcDbEntity
  8
LAY-10
  6
CONTINUOUS
 62
     7
100
AcDbLine
 10
351.1096665650484
 20
336.7096665650483
 30
0.0
 11
355.1091977500101
 21
340.70919775001
 31
0.0
  0
LINE
  5
2F6
330
1F
100
AcDbEntity
  8
LAY-10
  6
CONTINUOUS
 62
     7
100
AcDbLine
 10
352.5238801274176
 20
336.7096665650445
 30
0.0
 11
356.5234113123793
 21
340.7091977500062
 31
0.0
  0
LINE
  5
2F7
330
1F
100
AcDbEntity
  8
LAY-10
  6
CONTINUOUS
 62
     7
100
AcDbLine
 10
353.9380936897933
 20
336.7096665650471
 30
0.0
 11
357.937624874755
 21
340.7091977500087
 31
0.0
  0
LINE
  5
2F8
330
1F
100
AcDbEntity
  8
LAY-10
  6
CONTINUOUS
 62
     7
100
AcDbLine
 10
355.3523072521689
 20
336.7096665650496
 30
0.0
 11
358.5132145767906
 21
339.8705738896713
 31
0.0
  0
LINE
  5
2F9
330
1F
100
AcDbEntity
  8
LAY-10
  6
CONTINUOUS
 62
     7
100
AcDbLine
 10
356.7665208145382
 20
336.7096665650457
 30
0.0
 11
358.5132145767881
 21
338.4563603272956
 31
0.0
  0
LINE
  5
2FA
330
1F
100
AcDbEntity
  8
LAY-10
  6
CONTINUOUS
 62
     7
100
AcDbLine
 10
358.1807343769138
 20
336.7096665650483
 30
0.0
 11
358.5132145767854
 21
337.04214676492
 31
0.0
  0
LINE
  5
2FB
330
1F
100
AcDbEntity
  8
LAY-10
  6
CONTINUOUS
 62
     7
100
AcDbLine
 10
881.486755923197
 20
339.7436101726892
 30
0.0
 11
882.4523435005126
 21
340.7091977500048
 31
0.0
  0
LINE
  5
2FC
330
1F
100
AcDbEntity
  8
LAY-10
  6
CONTINUOUS
 62
     7
100
AcDbLine
 10
881.486755923201
 20
338.3293966103199
 30
0.0
 11
883.8665570628883
 21
340.7091977500073
 31
0.0
  0
LINE
  5
2FD
330
1F
100
AcDbEntity
  8
LAY-10
  6
CONTINUOUS
 62
     7
100
AcDbLine
 10
881.4867559231983
 20
336.9151830479443
 30
0.0
 11
885.2807706252574
 21
340.7091977500035
 31
0.0
  0
LINE
  5
2FE
330
1F
100
AcDbEntity
  8
LAY-10
  6
CONTINUOUS
 62
     7
100
AcDbLine
 10
882.6954530026779
 20
336.7096665650507
 30
0.0
 11
886.6949841876332
 21
340.709197750006
 31
0.0
  0
LINE
  5
2FF
330
1F
100
AcDbEntity
  8
LAY-10
  6
CONTINUOUS
 62
     7
100
AcDbLine
 10
884.1096665650537
 20
336.7096665650533
 30
0.0
 11
888.1091977500088
 21
340.7091977500086
 31
0.0
  0
LINE
  5
300
330
1F
100
AcDbEntity
  8
LAY-10
  6
CONTINUOUS
 62
     7
100
AcDbLine
 10
885.5238801274294
 20
336.7096665650558
 30
0.0
 11
889.5234113123781
 21
340.7091977500048
 31
0.0
  0
LINE
  5
301
330
1F
100
AcDbEntity
  8
LAY-10
  6
CONTINUOUS
 62
     7
100
AcDbLine
 10
886.9380936897985
 20
336.709666565052
 30
0.0
 11
890.9376248747537
 21
340.7091977500073
 31
0.0
  0
LINE
  5
302
330
1F
100
AcDbEntity
  8
LAY-10
  6
CONTINUOUS
 62
     7
100
AcDbLine
 10
888.3523072521742
 20
336.7096665650545
 30
0.0
 11
891.4867559232001
 21
339.8441152360804
 31
0.0
  0
LINE
  5
303
330
1F
100
AcDbEntity
  8
LAY-10
  6
CONTINUOUS
 62
     7
100
AcDbLine
 10
889.7665208145435
 20
336.7096665650507
 30
0.0
 11
891.4867559231974
 21
338.4299016737047
 31
0.0
  0
LINE
  5
304
330
1F
100
AcDbEntity
  8
LAY-10
  6
CONTINUOUS
 62
     7
100
AcDbLine
 10
891.1807343769192
 20
336.7096665650533
 30
0.0
 11
891.4867559232013
 21
337.0156881113354
 31
0.0
  0
LINE
  5
305
330
1F
100
AcDbEntity
  8
LAY-10
  6
CENTER
 62
     2
100
AcDbLine
 10
941.9999999999891
 20
895.0000000000047
 30
0.0
 11
298.000000000001
 21
895.0000000000047
 31
0.0
  0
LINE
  5
306
330
1F
100
AcDbEntity
  8
LAY-10
  6
CENTER
 62
     2
100
AcDbLine
 10
619.9999999999951
 20
1217.000000000005
 30
0.0
 11
619.9999999999951
 21
582.5
 31
0.0
  0
LINE
  5
307
330
1F
100
AcDbEntity
  8
LAY-10
  6
CENTER
 62
     2
100
AcDbLine
 10
619.999999999995
 20
383.7500000000001
 30
0.0
 11
619.9999999999951
 21
316.7500000000001
 31
0.0
  0
ARC
  5
308
330
1F
100
AcDbEntity
  8
LAY-10
  6
CONTINUOUS
 62
     7
100
AcDbCircle
 10
347.9480445767881
 20
338.7096665650499
 30
0.0
 40
2.0
100
AcDbArc
 50
181.507414511055
 51
270.0000011238739
  0
ARC
  5
309
330
1F
100
AcDbEntity
  8
LAY-10
  6
CONTINUOUS
 62
     7
100
AcDbCircle
 10
359.0783845767883
 20
338.7096665650499
 30
0.0
 40
2.0
100
AcDbArc
 50
270.0000011238739
 51
357.7094117265327
  0
LINE
  5
30A
330
1F
100
AcDbEntity
  8
LAY-10
  6
CONTINUOUS
 62
     7
100
AcDbLine
 10
359.0783845767883
 20
336.70966656505
 30
0.0
 11
347.9480445767881
 21
336.70966656505
 31
0.0
  0
LINE
  5
30B
330
1F
100
AcDbEntity
  8
LAY-10
  6
CONTINUOUS
 62
     7
100
AcDbLine
 10
358.5132145767882
 20
340.709197750007
 30
0.0
 11
348.5132145767882
 21
340.709197750007
 31
0.0
  0
ARC
  5
30C
330
1F
100
AcDbEntity
  8
LAY-10
  6
CONTINUOUS
 62
     7
100
AcDbCircle
 10
348.9444582499932
 20
341.709197750007
 30
0.0
 40
1.0
100
AcDbArc
 50
183.2716661538196
 51
270.0
  0
ARC
  5
30D
330
1F
100
AcDbEntity
  8
LAY-10
  6
CONTINUOUS
 62
     7
100
AcDbCircle
 10
358.0451812499932
 20
341.709197750007
 30
0.0
 40
1.0
100
AcDbArc
 50
270.0
 51
357.3505682594406
  0
LINE
  5
30E
330
1F
100
AcDbEntity
  8
LAY-10
  6
CONTINUOUS
 62
     7
100
AcDbLine
 10
348.5132145767882
 20
340.709197750007
 30
0.0
 11
348.5132145767882
 21
336.70966656505
 31
0.0
  0
LINE
  5
30F
330
1F
100
AcDbEntity
  8
LAY-10
  6
CONTINUOUS
 62
     7
100
AcDbLine
 10
358.5132145767882
 20
340.709197750007
 30
0.0
 11
358.5132145767882
 21
336.70966656505
 31
0.0
  0
ARC
  5
310
330
1F
100
AcDbEntity
  8
LAY-10
  6
CONTINUOUS
 62
     7
100
AcDbCircle
 10
880.9214945767881
 20
338.7096665650499
 30
0.0
 40
2.0
100
AcDbArc
 50
182.2905882734674
 51
269.9999988761261
  0
ARC
  5
311
330
1F
100
AcDbEntity
  8
LAY-10
  6
CONTINUOUS
 62
     7
100
AcDbCircle
 10
892.0518345767881
 20
338.7096665650499
 30
0.0
 40
2.0
100
AcDbArc
 50
269.9999988761261
 51
358.492585488945
  0
LINE
  5
312
330
1F
100
AcDbEntity
  8
LAY-10
  6
CONTINUOUS
 62
     7
100
AcDbLine
 10
880.9214945767881
 20
336.70966656505
 30
0.0
 11
892.0518345767881
 21
336.70966656505
 31
0.0
  0
LINE
  5
313
330
1F
100
AcDbEntity
  8
LAY-10
  6
CONTINUOUS
 62
     7
100
AcDbLine
 10
881.4867559231978
 20
340.709197750007
 30
0.0
 11
891.4867559231982
 21
340.709197750007
 31
0.0
  0
ARC
  5
314
330
1F
100
AcDbEntity
  8
LAY-10
  6
CONTINUOUS
 62
     7
100
AcDbCircle
 10
891.0554209035831
 20
341.709197750007
 30
0.0
 40
1.0
100
AcDbArc
 50
270.0
 51
356.7283338461805
  0
ARC
  5
315
330
1F
100
AcDbEntity
  8
LAY-10
  6
CONTINUOUS
 62
     7
100
AcDbCircle
 10
881.954697903583
 20
341.709197750007
 30
0.0
 40
1.0
100
AcDbArc
 50
182.6494317405594
 51
270.0
  0
LINE
  5
316
330
1F
100
AcDbEntity
  8
LAY-10
  6
CONTINUOUS
 62
     7
100
AcDbLine
 10
881.4867559231978
 20
340.709197750007
 30
0.0
 11
881.4867559231982
 21
336.70966656505
 31
0.0
  0
LINE
  5
317
330
1F
100
AcDbEntity
  8
LAY-10
  6
CONTINUOUS
 62
     7
100
AcDbLine
 10
891.4867559231982
 20
340.709197750007
 30
0.0
 11
891.4867559231982
 21
336.70966656505
 31
0.0
  0
DIMENSION
  5
319
330
1F
100
AcDbEntity
  8
LAY-20
  6
CONTINUOUS
 62
     4
100
AcDbDimension
  2
*D15
 10
929.99990907679
 20
203.70966656505
 30
0.0
 11
619.99993957679
 21
216.20966656505
 31
0.0
 70
   160
  1
%%c<>
  3
ISO-25
100
AcDbAlignedDimension
 13
309.99997007679
 23
323.7096665650499
 33
0.0
 14
929.99990907679
 24
323.7096665650499
 34
0.0
100
AcDbRotatedDimension
1001
ACAD
1000
DSTYLE
1002
{
1070
   270
1070
     2
1070
     6
1000
EX_BNORM
1070
     7
1000
EX_BNORM
1070
    41
1040
15.0
1070
    42
1040
7.5
1070
    44
1040
7.5
1070
    73
1070
     0
1070
    74
1070
     0
1070
    75
1070
     0
1070
    76
1070
     0
1070
    77
1070
     1
1070
    78
1070
     8
1070
   140
1040
15.590552
1070
   147
1040
0.0
1070
   173
1070
     1
1070
   176
1070
     4
1070
   177
1070
     4
1070
   178
1070
     7
1070
   271
1070
     1
1070
   277
1070
     2
1070
   279
1070
     2
1070
   280
1070
     0
1070
   287
1070
     5
1070
   340
1005
318
1002
}
  0
DIMENSION
  5
327
330
1F
100
AcDbEntity
  8
LAY-20
  6
CONTINUOUS
 62
     4
100
AcDbDimension
  2
*D16
 10
370.00001623038
 20
238.70966656505
 30
0.0
 11
620.0000159035849
 21
251.20966656505
 31
0.0
 70
   160
  1
%%c<>
  3
ISO-25
100
AcDbAlignedDimension
 13
870.0000155767901
 23
323.7096665650499
 33
0.0
 14
370.00001623038
 24
323.7096665650499
 34
0.0
100
AcDbRotatedDimension
1001
ACAD
1000
DSTYLE
1002
{
1070
   270
1070
     2
1070
     6
1000
EX_BNORM
1070
     7
1000
EX_BNORM
1070
    41
1040
15.0
1070
    42
1040
7.5
1070
    44
1040
7.5
1070
    73
1070
     0
1070
    74
1070
     0
1070
    75
1070
     0
1070
    76
1070
     0
1070
    77
1070
     1
1070
    78
1070
     8
1070
   140
1040
15.590552
1070
   147
1040
0.0
1070
   173
1070
     1
1070
   176
1070
     4
1070
   177
1070
     4
1070
   178
1070
     7
1070
   271
1070
     1
1070
   277
1070
     2
1070
   279
1070
     2
1070
   280
1070
     0
1070
   287
1070
     5
1070
   340
1005
318
1002
}
  0
DIMENSION
  5
334
330
1F
100
AcDbEntity
  8
LAY-20
  6
CONTINUOUS
 62
     4
100
AcDbDimension
  2
*D17
 10
893.98920047279
 20
466.49995536307
 30
0.0
 11
619.99423386139
 21
478.99995536307
 31
0.0
 70
   160
  1
%%c<>
  3
ISO-25
100
AcDbAlignedDimension
 13
345.99926724999
 23
375.70919775001
 33
0.0
 14
893.98920047279
 24
375.70966656505
 34
0.0
100
AcDbRotatedDimension
1001
ACAD
1000
DSTYLE
1002
{
1070
   270
1070
     2
1070
     6
1000
EX_BNORM
1070
     7
1000
EX_BNORM
1070
    41
1040
15.0
1070
    42
1040
7.5
1070
    44
1040
7.5
1070
    73
1070
     0
1070
    74
1070
     0
1070
    75
1070
     0
1070
    76
1070
     0
1070
    77
1070
     1
1070
    78
1070
     8
1070
   140
1040
15.590552
1070
   147
1040
0.0
1070
   173
1070
     1
1070
   176
1070
     4
1070
   177
1070
     4
1070
   178
1070
     7
1070
   271
1070
     1
1070
   277
1070
     2
1070
   279
1070
     2
1070
   280
1070
     0
1070
   287
1070
     5
1070
   340
1005
318
1002
}
  0
DIMENSION
  5
341
330
1F
100
AcDbEntity
  8
LAY-20
  6
CONTINUOUS
 62
     4
100
AcDbDimension
  2
*D18
 10
334.99997427068
 20
501.49995536307
 30
0.0
 11
619.999939576785
 21
513.99995536307
 31
0.0
 70
   160
  1
%%c<>
  3
ISO-25
100
AcDbAlignedDimension
 13
904.99990488289
 23
374.70966656505
 33
0.0
 14
334.99997427068
 24
374.70966656505
 34
0.0
100
AcDbRotatedDimension
1001
ACAD
1000
DSTYLE
1002
{
1070
   270
1070
     2
1070
     6
1000
EX_BNORM
1070
     7
1000
EX_BNORM
1070
    41
1040
15.0
1070
    42
1040
7.5
1070
    44
1040
7.5
1070
    73
1070
     0
1070
    74
1070
     0
1070
    75
1070
     0
1070
    76
1070
     0
1070
    77
1070
     1
1070
    78
1070
     8
1070
   140
1040
15.590552
1070
   147
1040
0.0
1070
   173
1070
     1
1070
   176
1070
     4
1070
   177
1070
     4
1070
   178
1070
     7
1070
   271
1070
     1
1070
   277
1070
     2
1070
   279
1070
     2
1070
   280
1070
     0
1070
   287
1070
     5
1070
   340
1005
318
1002
}
  0
DIMENSION
  5
34E
330
1F
100
AcDbEntity
  8
LAY-20
  6
CONTINUOUS
 62
     4
100
AcDbDimension
  2
*D19
 10
979.99990907679
 20
374.70966656505
 30
0.0
 11
967.49990907679
 21
349.20966656505
 31
0.0
 70
   160
  3
ISO-25
100
AcDbAlignedDimension
 13
929.99990907679
 23
323.7096665650499
 33
0.0
 14
902.3
 24
374.70966656505
 34
0.0
 50
90.0
100
AcDbRotatedDimension
1001
ACAD
1000
DSTYLE
1002
{
1070
   270
1070
     2
1070
     6
1000
EX_BNORM
1070
     7
1000
EX_BNORM
1070
    41
1040
15.0
1070
    42
1040
7.5
1070
    44
1040
7.5
1070
    73
1070
     0
1070
    74
1070
     0
1070
    75
1070
     0
1070
    76
1070
     0
1070
    77
1070
     1
1070
    78
1070
     8
1070
   140
1040
15.590552
1070
   147
1040
0.0
1070
   173
1070
     1
1070
   176
1070
     4
1070
   177
1070
     4
1070
   178
1070
     7
1070
   271
1070
     1
1070
   277
1070
     2
1070
   279
1070
     2
1070
   280
1070
     0
1070
   287
1070
     5
1070
   340
1005
318
1002
}
  0
LINE
  5
35B
330
1F
100
AcDbEntity
  8
LAY-255
  6
CONTINUOUS
 62
     7
100
AcDbLine
 10
1925.0
 20
110.0
 30
0.0
 11
1425.0
 21
110.0
 31
0.0
  0
LINE
  5
35C
330
1F
100
AcDbEntity
  8
LAY-255
  6
CONTINUOUS
 62
     7
100
AcDbLine
 10
1444.0
 20
79.99999999999999
 30
0.0
 11
1484.0
 21
105.0
 31
0.0
  0
LINE
  5
35D
330
1F
100
AcDbEntity
  8
LAY-255
  6
CONTINUOUS
 62
     7
100
AcDbLine
 10
1484.0
 20
105.0
 30
0.0
 11
1524.0
 21
79.99999999999999
 31
0.0
  0
LINE
  5
35E
330
1F
100
AcDbEntity
  8
LAY-255
  6
CONTINUOUS
 62
     7
100
AcDbLine
 10
1524.0
 20
79.99999999999999
 30
0.0
 11
1484.0
 21
55.0
 31
0.0
  0
LINE
  5
35F
330
1F
100
AcDbEntity
  8
LAY-255
  6
CONTINUOUS
 62
     7
100
AcDbLine
 10
1484.0
 20
55.0
 30
0.0
 11
1444.0
 21
79.99999999999999
 31
0.0
  0
LINE
  5
360
330
1F
100
AcDbEntity
  8
LAY-255
  6
CONTINUOUS
 62
     7
100
AcDbLine
 10
25.0
 20
50.0
 30
0.0
 11
1925.0
 21
50.0
 31
0.0
  0
LINE
  5
361
330
1F
100
AcDbEntity
  8
LAY-255
  6
CONTINUOUS
 62
     7
100
AcDbLine
 10
25.0
 20
1400.0
 30
0.0
 11
1925.0
 21
1400.0
 31
0.0
  0
LINE
  5
362
330
1F
100
AcDbEntity
  8
LAY-255
  6
CONTINUOUS
 62
     7
100
AcDbLine
 10
25.0
 20
50.0
 30
0.0
 11
25.0
 21
1400.0
 31
0.0
  0
LINE
  5
363
330
1F
100
AcDbEntity
  8
LAY-255
  6
CONTINUOUS
 62
     4
100
AcDbLine
 10
1425.0
 20
140.0
 30
0.0
 11
1925.0
 21
140.0
 31
0.0
  0
LINE
  5
364
330
1F
100
AcDbEntity
  8
LAY-255
  6
CONTINUOUS
 62
     4
100
AcDbLine
 10
1675.0
 20
140.0
 30
0.0
 11
1675.0
 21
110.0
 31
0.0
  0
POINT
  5
365
330
1F
100
AcDbEntity
  8
LAY-255
  6
CONTINUOUS
 62
     7
100
AcDbPoint
 10
1445.0
 20
200.0
 30
0.0
  0
POINT
  5
366
330
1F
100
AcDbEntity
  8
LAY-255
  6
CONTINUOUS
 62
     7
100
AcDbPoint
 10
1445.0
 20
225.0
 30
0.0
  0
POINT
  5
367
330
1F
100
AcDbEntity
  8
LAY-255
  6
CONTINUOUS
 62
     7
100
AcDbPoint
 10
1445.0
 20
174.9999999999999
 30
0.0
  0
POINT
  5
368
330
1F
100
AcDbEntity
  8
LAY-255
  6
CONTINUOUS
 62
     7
100
AcDbPoint
 10
1445.0
 20
149.9999999999999
 30
0.0
  0
POINT
  5
369
330
1F
100
AcDbEntity
  8
LAY-255
  6
CONTINUOUS
 62
     7
100
AcDbPoint
 10
1445.0
 20
250.0
 30
0.0
  0
LINE
  5
36A
330
1F
100
AcDbEntity
  8
LAY-255
  6
CONTINUOUS
 62
     7
100
AcDbLine
 10
1925.0
 20
50.0
 30
0.0
 11
1925.0
 21
1400.0
 31
0.0
  0
LINE
  5
36B
330
1F
100
AcDbEntity
  8
LAY-255
  6
CONTINUOUS
 62
     7
100
AcDbLine
 10
1425.0
 20
50.0
 30
0.0
 11
1425.0
 21
335.0
 31
0.0
  0
LINE
  5
36C
330
1F
100
AcDbEntity
  8
LAY-255
  6
CONTINUOUS
 62
     7
100
AcDbLine
 10
1925.0
 20
335.0
 30
0.0
 11
1425.0
 21
335.0
 31
0.0
  0
LINE
  5
36D
330
1F
100
AcDbEntity
  8
LAY-255
  6
CONTINUOUS
 62
     4
100
AcDbLine
 10
1915.0
 20
275.0
 30
0.0
 11
1435.0
 21
275.0
 31
0.0
  0
LINE
  5
36E
330
1F
100
AcDbEntity
  8
LAY-255
  6
CONTINUOUS
 62
     4
100
AcDbLine
 10
1915.0
 20
305.0
 30
0.0
 11
1435.0
 21
305.0
 31
0.0
  0
POINT
  5
36F
330
1F
100
AcDbEntity
  8
LAY-255
  6
CONTINUOUS
 62
     7
100
AcDbPoint
 10
1500.0
 20
280.0
 30
0.0
  0
POINT
  5
370
330
1F
100
AcDbEntity
  8
LAY-255
  6
CONTINUOUS
 62
     7
100
AcDbPoint
 10
1500.0
 20
310.0
 30
0.0
  0
TEXT
  5
371
330
1F
100
AcDbEntity
  8
LAY-255
  6
CONTINUOUS
 62
     7
100
AcDbText
 10
1540.691894370117
 20
77.71874999999999
 30
0.0
 40
25.78125
  1
福西鋳物株式会社
 41
1.342691871783662
  7
EXCADSTD
100
AcDbText
  0
TEXT
  5
372
330
1F
100
AcDbEntity
  8
LAY-255
  6
CONTINUOUS
 62
     7
100
AcDbText
 10
1542.546875
 20
59.90624999999999
 30
0.0
 40
8.59375
  1
ＦＵＫＵＮＩＳＨＩ
 41
1.204799226045263
  7
EXCADSTD
100
AcDbText
  0
TEXT
  5
373
330
1F
100
AcDbEntity
  8
LAY-255
  6
CONTINUOUS
 62
     7
100
AcDbText
 10
1663.595982142857
 20
59.90624999999999
 30
0.0
 40
8.59375
  1
ＦＯＵＮＤＲＹ
 41
1.243252752978497
  7
EXCADSTD
100
AcDbText
  0
TEXT
  5
374
330
1F
100
AcDbEntity
  8
LAY-255
  6
CONTINUOUS
 62
     7
100
AcDbText
 10
1759.97295734375
 20
59.90624999999999
 30
0.0
 40
8.59375
  1
ＣＯ.,ＬＴＤ.
 41
1.243831100341625
  7
EXCADSTD
100
AcDbText
  0
TEXT
  5
375
330
1F
100
AcDbEntity
  8
LAY-255
  6
CONTINUOUS
 62
     7
100
AcDbText
 10
1470.171875
 20
68.59375
 30
0.0
 40
25.78125
  1
S
 41
0.7582677563636363
  7
EXCADSTD
100
AcDbText
  0
TEXT
  5
376
330
1F
100
AcDbEntity
  8
LAY-255
  6
CONTINUOUS
 62
     7
100
AcDbText
 10
1485.5234375
 20
68.7470518868
 30
0.0
 40
25.78125
  1
F
 41
0.7440945272727272
  7
EXCADSTD
100
AcDbText
  0
TEXT
  5
377
330
1F
100
AcDbEntity
  8
LAY-255
  6
CONTINUOUS
 62
     7
100
AcDbText
 10
1685.52734375
 20
122.1093749999999
 30
0.0
 40
12.890625
  1
縮尺
 41
1.080708718181818
  7
EXCADSTD
100
AcDbText
  0
TEXT
  5
378
330
1F
100
AcDbEntity
  8
LAY-255
  6
CONTINUOUS
 62
     7
100
AcDbText
 10
1435.76171875
 20
122.1093749999999
 30
0.0
 40
12.890625
  1
作成日
 41
1.000629973818182
  7
EXCADSTD
100
AcDbText
  0
TEXT
  5
379
330
1F
100
AcDbEntity
  8
LAY-255
  6
CONTINUOUS
 62
     7
100
AcDbText
 10
1741.40625
 20
117.8124999999999
 30
0.0
 40
17.1875
  1
１：５
 41
0.888661464
  7
EXCADSTD
100
AcDbText
  0
TEXT
  5
37A
330
1F
100
AcDbEntity
  8
LAY-255
  6
CONTINUOUS
 62
     7
100
AcDbText
 10
1446.875
 20
202.8125
 30
0.0
 40
17.1875
  1
防水：簡易防水防臭型
 41
1.013466409710744
  7
EXCADSTD
100
AcDbText
  0
TEXT
  5
37B
330
1F
100
AcDbEntity
  8
LAY-255
  6
CONTINUOUS
 62
     7
100
AcDbText
 10
1436.328125
 20
282.8125
 30
0.0
 40
17.1875
  1
型式
 41
1.056348480681818
  7
EXCADSTD
100
AcDbText
  0
TEXT
  5
37C
330
1F
100
AcDbEntity
  8
LAY-255
  6
CONTINUOUS
 62
     7
100
AcDbText
 10
1437.109375
 20
312.8125
 30
0.0
 40
17.1875
  1
品名
 41
0.9788386340909091
  7
EXCADSTD
100
AcDbText
  0
TEXT
  5
37D
330
1F
100
AcDbEntity
  8
LAY-255
  6
CONTINUOUS
 62
     7
100
AcDbText
 10
1501.953125
 20
312.8125
 30
0.0
 40
17.1875
  1
マンホールカバー
 41
1.015410627012987
  7
EXCADSTD
100
AcDbText
  0
TEXT
  5
37E
330
1F
100
AcDbEntity
  8
LAY-255
  6
CONTINUOUS
 62
     7
100
AcDbText
 10
1445.703125
 20
227.8125
 30
0.0
 40
17.1875
  1
材質：ＦＲＰ製
 41
1.0269782390462
  7
EXCADSTD
100
AcDbText
  0
TEXT
  5
37F
330
1F
100
AcDbEntity
  8
LAY-255
  6
CONTINUOUS
 62
     7
100
AcDbText
 10
1447.265625
 20
252.8125
 30
0.0
 40
17.1875
  1
区分：中荷重用
 41
1.007228657526081
  7
EXCADSTD
100
AcDbText
  0
TEXT
  5
380
330
1F
100
AcDbEntity
  8
LAY-255
  6
CONTINUOUS
 62
     7
100
AcDbText
 10
1506.40625
 20
117.8124999999999
 30
0.0
 40
17.1875
  1
１６／１２／１７
 41
0.9607424576623377
  7
EXCADSTD
100
AcDbText
  0
TEXT
  5
381
330
1F
100
AcDbEntity
  8
LAY-255
  6
CONTINUOUS
 62
     7
100
AcDbText
 10
1503.75
 20
282.8125
 30
0.0
 40
17.1875
  1
ＳＦ－ＭＫ－５０ＢＯＰ型
 41
1.00449418439108
  7
EXCADSTD
100
AcDbText
  0
TEXT
  5
382
330
1F
100
AcDbEntity
  8
LAY-255
  6
CONTINUOUS
 62
     7
100
AcDbText
 10
1445.859375
 20
177.8124999999999
 30
0.0
 40
17.1875
  1
破壊荷重：４０ｋＮ以上
 41
1.016600426804124
  7
EXCADSTD
100
AcDbText
  0
ENDSEC
  0
SECTION
  2
OBJECTS
  0
DICTIONARY
  5
C
330
0
100
AcDbDictionary
  3
ACAD_GROUP
350
D
  3
ACAD_LAYOUT
350
1A
  3
ACAD_MATERIAL
350
43
  3
ACAD_MLEADERSTYLE
350
6B
  3
ACAD_MLINESTYLE
350
17
  3
ACAD_PLOTSETTINGS
350
19
  3
ACAD_SCALELIST
350
47
  3
ACAD_VISUALSTYLE
350
2A
  3
ACDBHEADERROUNDTRIPXREC
350
383
  3
ACDBVARIABLEDICTIONARY
350
3A4
  0
DICTIONARY
  5
3AF
330
8
100
AcDbDictionary
280
     1
  3
ACAD_XREC_ROUNDTRIP
360
3B0
  0
DICTIONARY
  5
D
102
{ACAD_REACTORS
330
C
102
}
330
C
100
AcDbDictionary
  0
DICTIONARY
  5
1A
102
{ACAD_REACTORS
330
C
102
}
330
C
100
AcDbDictionary
  0
DICTIONARY
  5
43
102
{ACAD_REACTORS
330
C
102
}
330
C
100
AcDbDictionary
  3
BYBLOCK
350
45
  3
BYLAYER
350
44
  3
GLOBAL
350
46
  0
DICTIONARY
  5
6B
102
{ACAD_REACTORS
330
C
102
}
330
C
100
AcDbDictionary
  3
STANDARD
350
6C
  0
DICTIONARY
  5
17
102
{ACAD_REACTORS
330
C
102
}
330
C
100
AcDbDictionary
  3
STANDARD
350
18
  0
DICTIONARY
  5
19
102
{ACAD_REACTORS
330
C
102
}
330
C
100
AcDbDictionary
  0
DICTIONARY
  5
47
102
{ACAD_REACTORS
330
C
102
}
330
C
100
AcDbDictionary
  3
A0
350
48
  3
A1
350
49
  3
A2
350
4A
  3
A3
350
4B
  3
A4
350
4C
  3
A5
350
4D
  3
A6
350
4E
  3
A7
350
4F
  3
A8
350
50
  3
A9
350
51
  3
B0
350
52
  3
B1
350
53
  3
B2
350
54
  3
B3
350
55
  3
B4
350
56
  3
B5
350
57
  3
B6
350
58
  3
B7
350
59
  3
B8
350
5A
  3
B9
350
5B
  3
C0
350
5C
  3
C1
350
5D
  3
C2
350
5E
  3
C3
350
5F
  3
C4
350
60
  3
C5
350
61
  3
C6
350
62
  3
C7
350
63
  3
C8
350
64
  3
C9
350
65
  3
D0
350
66
  3
D1
350
67
  3
D2
350
68
  0
DICTIONARY
  5
2A
102
{ACAD_REACTORS
330
C
102
}
330
C
100
AcDbDictionary
  3
2DWIREFRAME
350
2F
  3
BASIC
350
32
  3
BRIGHTEN
350
36
  3
COLORCHANGE
350
3A
  3
CONCEPTUAL
350
34
  3
DIM
350
35
  3
EDGECOLOROFF
350
3D
  3
FACEPATTERN
350
39
  3
FLAT
350
2B
  3
FLATWITHEDGES
350
2C
  3
GOURAUD
350
2D
  3
GOURAUDWITHEDGES
350
2E
  3
HIDDEN
350
31
  3
JITTEROFF
350
3B
  3
LINEPATTERN
350
38
  3
OVERHANGOFF
350
3C
  3
REALISTIC
350
33
  3
SHADED
350
42
  3
SHADED_WITH_EDGES
350
41
  3
SHADES_OF_GRAY
350
3E
  3
SKETCHY
350
3F
  3
THICKEN
350
37
  3
WIREFRAME
350
30
  3
X-RAY
350
40
  0
DICTIONARY
  5
383
102
{ACAD_REACTORS
330
C
102
}
330
C
100
AcDbDictionary
  3
CEPSNID
350
38D
  3
CEPSNTYPE
350
38C
  3
DIMSTYLEDATA
350
3A3
  3
FINGERPRINTGUID
350
38E
  3
HYPERLINKBASE
350
386
  3
INSUNITS
350
38B
  3
LAYOUTDICT
350
388
  3
LWETCUNION
350
38A
  3
PLOTSETDICT
350
389
  3
PSVPSCALE
350
390
  3
PUCSBASE
350
393
  3
PUCSORGBACK
350
399
  3
PUCSORGBOTTOM
350
395
  3
PUCSORGFRONT
350
398
  3
PUCSORGLEFT
350
396
  3
PUCSORGRIGHT
350
397
  3
PUCSORGTOP
350
394
  3
PUCSORTHOREF
350
391
  3
PUCSORTHOVIEW
350
392
  3
STYLESHEET
350
387
  3
TSTACKALIGN
350
384
  3
TSTACKSIZE
350
385
  3
UCSBASE
350
39C
  3
UCSORGBACK
350
3A2
  3
UCSORGBOTTOM
350
39E
  3
UCSORGFRONT
350
3A1
  3
UCSORGLEFT
350
39F
  3
UCSORGRIGHT
350
3A0
  3
UCSORGTOP
350
39D
  3
UCSORTHOREF
350
39A
  3
UCSORTHOVIEW
350
39B
  3
VERSIONGUID
350
38F
  0
DICTIONARY
  5
3A4
102
{ACAD_REACTORS
330
C
102
}
330
C
100
AcDbDictionary
  3
CANNOSCALE
350
3B1
  3
CENTEREXE
350
3AB
  3
CENTERLTYPEFILE
350
3AC
  3
CMLEADERSTYLE
350
3A6
  3
CTABLESTYLE
350
3A5
  3
DIMASSOC
350
3AD
  3
HIDETEXT
350
3AE
  3
MSLTSCALE
350
3B2
  3
PSOLHEIGHT
350
3A8
  3
PSOLWIDTH
350
3A7
  0
XRECORD
  5
3B0
102
{ACAD_REACTORS
330
3AF
102
}
330
3AF
100
AcDbXrecord
102
VTR_0.000_0.000_1.000_1.000_VISUALSTYLE
340
2F
102
VTR_0.000_0.000_1.000_1.000_GRIDDISPLAY
 70
     3
102
VTR_0.000_0.000_1.000_1.000_GRIDMAJOR
 70
     5
102
VTR_0.000_0.000_1.000_1.000_DEFAULTLIGHTING
280
     1
102
VTR_0.000_0.000_1.000_1.000_DEFAULTLIGHTINGTYPE
 70
     1
102
VTR_0.000_0.000_1.000_1.000_BRIGHTNESS
141
0.0
102
VTR_0.000_0.000_1.000_1.000_CONTRAST
142
0.0
  0
MATERIAL
  5
45
102
{ACAD_REACTORS
330
43
102
}
102
{ACAD_XDICTIONARY
360
3B5
102
}
330
43
100
AcDbMaterial
  1
BYBLOCK
  0
MATERIAL
  5
44
102
{ACAD_REACTORS
330
43
102
}
102
{ACAD_XDICTIONARY
360
3B3
102
}
330
43
100
AcDbMaterial
  1
BYLAYER
  0
MATERIAL
  5
46
102
{ACAD_REACTORS
330
43
102
}
102
{ACAD_XDICTIONARY
360
3B7
102
}
330
43
100
AcDbMaterial
  1
GLOBAL
  0
ACAD_PROXY_OBJECT
  5
6C
102
{ACAD_REACTORS
330
6B
102
}
330
6B
100
AcDbProxyObject
 90
      499
 91
      505
 93
      610
310
40901902A4063FBFFFFFE0000000000000020400000000000020404214DD185B99185C990000000000000104090141901A00000000000004100000000000000041025764000000000000039000
340
14
340
0
340
11
340
0
 94
        0
1001
ACAD_MLEADERVER
1070
     2
  0
MLINESTYLE
  5
18
102
{ACAD_REACTORS
330
17
102
}
330
17
100
AcDbMlineStyle
  2
Standard
 70
     0
  3

 62
   256
 51
90.0
 52
90.0
 71
     2
 49
0.5
 62
   256
  6
BYLAYER
 49
-0.5
 62
   256
  6
BYLAYER
  0
ACAD_PROXY_OBJECT
  5
48
102
{ACAD_REACTORS
330
47
102
}
330
47
100
AcDbProxyObject
 90
      499
 91
      503
 93
       41
310
903313A31580
  0
ACAD_PROXY_OBJECT
  5
49
102
{ACAD_REACTORS
330
47
102
}
330
47
100
AcDbProxyObject
 90
      499
 91
      503
 93
      105
310
903313A324000000000000004000
  0
ACAD_PROXY_OBJECT
  5
4A
102
{ACAD_REACTORS
330
47
102
}
330
47
100
AcDbProxyObject
 90
      499
 91
      503
 93
      105
310
903313A344000000000000104000
  0
ACAD_PROXY_OBJECT
  5
4B
102
{ACAD_REACTORS
330
47
102
}
330
47
100
AcDbProxyObject
 90
      499
 91
      503
 93
      105
310
903313A354000000000000144000
  0
ACAD_PROXY_OBJECT
  5
4C
102
{ACAD_REACTORS
330
47
102
}
330
47
100
AcDbProxyObject
 90
      499
 91
      503
 93
      105
310
903313A384000000000000204000
  0
ACAD_PROXY_OBJECT
  5
4D
102
{ACAD_REACTORS
330
47
102
}
330
47
100
AcDbProxyObject
 90
      499
 91
      503
 93
      113
310
904313A31304000000000000244000
  0
ACAD_PROXY_OBJECT
  5
4E
102
{ACAD_REACTORS
330
47
102
}
330
47
100
AcDbProxyObject
 90
      499
 91
      503
 93
      113
310
904313A31364000000000000304000
  0
ACAD_PROXY_OBJECT
  5
4F
102
{ACAD_REACTORS
330
47
102
}
330
47
100
AcDbProxyObject
 90
      499
 91
      503
 93
      113
310
904313A32304000000000000344000
  0
ACAD_PROXY_OBJECT
  5
50
102
{ACAD_REACTORS
330
47
102
}
330
47
100
AcDbProxyObject
 90
      499
 91
      503
 93
      113
310
904313A333040000000000003E4000
  0
ACAD_PROXY_OBJECT
  5
51
102
{ACAD_REACTORS
330
47
102
}
330
47
100
AcDbProxyObject
 90
      499
 91
      503
 93
      113
310
904313A34304000000000000444000
  0
ACAD_PROXY_OBJECT
  5
52
102
{ACAD_REACTORS
330
47
102
}
330
47
100
AcDbProxyObject
 90
      499
 91
      503
 93
      113
310
904313A35304000000000000494000
  0
ACAD_PROXY_OBJECT
  5
53
102
{ACAD_REACTORS
330
47
102
}
330
47
100
AcDbProxyObject
 90
      499
 91
      503
 93
      121
310
905313A3130304000000000000594000
  0
ACAD_PROXY_OBJECT
  5
54
102
{ACAD_REACTORS
330
47
102
}
330
47
100
AcDbProxyObject
 90
      499
 91
      503
 93
      105
310
903323A310000000000000010100
  0
ACAD_PROXY_OBJECT
  5
55
102
{ACAD_REACTORS
330
47
102
}
330
47
100
AcDbProxyObject
 90
      499
 91
      503
 93
      105
310
903343A310000000000000410100
  0
ACAD_PROXY_OBJECT
  5
56
102
{ACAD_REACTORS
330
47
102
}
330
47
100
AcDbProxyObject
 90
      499
 91
      503
 93
      105
310
903383A310000000000000810100
  0
ACAD_PROXY_OBJECT
  5
57
102
{ACAD_REACTORS
330
47
102
}
330
47
100
AcDbProxyObject
 90
      499
 91
      503
 93
      113
310
90431303A310000000000000910100
  0
ACAD_PROXY_OBJECT
  5
58
102
{ACAD_REACTORS
330
47
102
}
330
47
100
AcDbProxyObject
 90
      499
 91
      503
 93
      121
310
9053130303A310000000000001650100
  0
ACAD_PROXY_OBJECT
  5
59
102
{ACAD_REACTORS
330
47
102
}
330
47
100
AcDbProxyObject
 90
      499
 91
      503
 93
      257
310
90E312F31323822203D2031272D3022000000000000200FC000000000000284000
  0
ACAD_PROXY_OBJECT
  5
5A
102
{ACAD_REACTORS
330
47
102
}
330
47
100
AcDbProxyObject
 90
      499
 91
      503
 93
      249
310
90D312F363422203D2031272D3022000000000000240FC000000000000284000
  0
ACAD_PROXY_OBJECT
  5
5B
102
{ACAD_REACTORS
330
47
102
}
330
47
100
AcDbProxyObject
 90
      499
 91
      503
 93
      249
310
90D312F333222203D2031272D3022000000000000280FC000000000000284000
  0
ACAD_PROXY_OBJECT
  5
5C
102
{ACAD_REACTORS
330
47
102
}
330
47
100
AcDbProxyObject
 90
      499
 91
      503
 93
      249
310
90D312F313622203D2031272D30220000000000002C0FC000000000000284000
  0
ACAD_PROXY_OBJECT
  5
5D
102
{ACAD_REACTORS
330
47
102
}
330
47
100
AcDbProxyObject
 90
      499
 91
      503
 93
      249
310
90D332F333222203D2031272D30220000000000002E0FC000000000000284000
  0
ACAD_PROXY_OBJECT
  5
5E
102
{ACAD_REACTORS
330
47
102
}
330
47
100
AcDbProxyObject
 90
      499
 91
      503
 93
      241
310
90C312F3822203D2031272D3022000000000000300FC000000000000284000
  0
ACAD_PROXY_OBJECT
  5
5F
102
{ACAD_REACTORS
330
47
102
}
330
47
100
AcDbProxyObject
 90
      499
 91
      503
 93
      249
310
90D332F313622203D2031272D3022000000000000320FC000000000000284000
  0
ACAD_PROXY_OBJECT
  5
60
102
{ACAD_REACTORS
330
47
102
}
330
47
100
AcDbProxyObject
 90
      499
 91
      503
 93
      241
310
90C312F3422203D2031272D3022000000000000340FC000000000000284000
  0
ACAD_PROXY_OBJECT
  5
61
102
{ACAD_REACTORS
330
47
102
}
330
47
100
AcDbProxyObject
 90
      499
 91
      503
 93
      241
310
90C332F3822203D2031272D3022000000000000360FC000000000000284000
  0
ACAD_PROXY_OBJECT
  5
62
102
{ACAD_REACTORS
330
47
102
}
330
47
100
AcDbProxyObject
 90
      499
 91
      503
 93
      241
310
90C312F3222203D2031272D3022000000000000380FC000000000000284000
  0
ACAD_PROXY_OBJECT
  5
63
102
{ACAD_REACTORS
330
47
102
}
330
47
100
AcDbProxyObject
 90
      499
 91
      503
 93
      241
310
90C332F3422203D2031272D30220000000000003A0FC000000000000284000
  0
ACAD_PROXY_OBJECT
  5
64
102
{ACAD_REACTORS
330
47
102
}
330
47
100
AcDbProxyObject
 90
      499
 91
      503
 93
      161
310
90A3122203D2031272D30224000000000000284000
  0
ACAD_PROXY_OBJECT
  5
65
102
{ACAD_REACTORS
330
47
102
}
330
47
100
AcDbProxyObject
 90
      499
 91
      503
 93
      257
310
90E312D312F3222203D2031272D30220000000000003E0FC000000000000284000
  0
ACAD_PROXY_OBJECT
  5
66
102
{ACAD_REACTORS
330
47
102
}
330
47
100
AcDbProxyObject
 90
      499
 91
      503
 93
      225
310
90A3322203D2031272D302200000000000002100000000000000284000
  0
ACAD_PROXY_OBJECT
  5
67
102
{ACAD_REACTORS
330
47
102
}
330
47
100
AcDbProxyObject
 90
      499
 91
      503
 93
      225
310
90A3622203D2031272D302200000000000006100000000000000284000
  0
ACAD_PROXY_OBJECT
  5
68
102
{ACAD_REACTORS
330
47
102
}
330
47
100
AcDbProxyObject
 90
      499
 91
      503
 93
      249
310
90D31272D3022203D2031272D30220000000000000A100000000000000284000
  0
ACAD_PROXY_OBJECT
  5
2F
102
{ACAD_REACTORS
330
2A
102
}
330
2A
100
AcDbProxyObject
 90
      499
 91
      501
 93
      436
310
42CC9915DA5C99599C985B595049028333333333333E33F0000000000000F90107901411070040501600405405064090741402480A0340
1001
ACAD
1000
AcDbSavedByObjectVersion
1070
     0
  0
ACAD_PROXY_OBJECT
  5
32
102
{ACAD_REACTORS
330
2A
102
}
330
2A
100
AcDbProxyObject
 90
      499
 91
      501
 93
      388
310
4150985CDA58D07406404333333333333E33F0000000000000F90107A41107004050150841D405064090741402480A0350
1001
ACAD
1000
AcDbSavedByObjectVersion
1070
     0
  0
ACAD_PROXY_OBJECT
  5
36
102
{ACAD_REACTORS
330
2A
102
}
330
2A
100
AcDbProxyObject
 90
      499
 91
      501
 93
      428
310
42109C9A59DA1D195B90C409028333333333333E33F0000000000000F9010790141107004050150841D405064090741402480A029950
1001
ACAD
1000
AcDbSavedByObjectVersion
1070
     0
  0
ACAD_PROXY_OBJECT
  5
3A
102
{ACAD_REACTORS
330
2A
102
}
330
2A
100
AcDbProxyObject
 90
      499
 91
      501
 93
      452
310
42D0DBDB1BDC90DA185B99D95104090240C333333333333E33F0000000000000F90108901411070040501508421405064090741402480A0350
1001
ACAD
1000
AcDbSavedByObjectVersion
1070
     0
  0
ACAD_PROXY_OBJECT
  5
34
102
{ACAD_REACTORS
330
2A
102
}
330
2A
100
AcDbProxyObject
 90
      499
 91
      501
 93
      500
310
4290DBDB98D95C1D1D585B10940D028333333333333E33F0000000000000F90107902409070040501000000000018199010841D405064090740C02480A0340
1001
ACAD
1000
AcDbSavedByObjectVersion
1070
     0
  0
ACAD_PROXY_OBJECT
  5
35
102
{ACAD_REACTORS
330
2A
102
}
330
2A
100
AcDbProxyObject
 90
      499
 91
      501
 93
      412
310
40D11A5B50B409028333333333333E33F0000000000000F9010790141107004050150841D405064090741402480A02677FFFFFD0
1001
ACAD
1000
AcDbSavedByObjectVersion
1070
     0
  0
ACAD_PROXY_OBJECT
  5
3D
102
{ACAD_REACTORS
330
2A
102
}
330
2A
100
AcDbProxyObject
 90
      499
 91
      501
 93
      452
310
43115919D950DBDB1BDC93D999916409028333333333333E33F0000000000000F9010790141107004050150841D405064090741402480A0350
1001
ACAD
1000
AcDbSavedByObjectVersion
1070
     0
  0
ACAD_PROXY_OBJECT
  5
39
102
{ACAD_REACTORS
330
2A
102
}
330
2A
100
AcDbProxyObject
 90
      499
 91
      501
 93
      444
310
42D19858D95C185D1D195C9B90F409028333333333333E33F0000000000000F9010790141107004050150841D405064090741402480A0350
1001
ACAD
1000
AcDbSavedByObjectVersion
1070
     0
  0
ACAD_PROXY_OBJECT
  5
2B
102
{ACAD_REACTORS
330
2A
102
}
330
2A
100
AcDbProxyObject
 90
      499
 91
      501
 93
      380
310
41119B185D240901404333333333333E33F0000000000000F9010740A907004050150841D405064090741402480A1B50
1001
ACAD
1000
AcDbSavedByObjectVersion
1070
     0
  0
ACAD_PROXY_OBJECT
  5
2C
102
{ACAD_REACTORS
330
2A
102
}
330
2A
100
AcDbProxyObject
 90
      499
 91
      501
 93
      468
310
43519B185D15DA5D1A115919D95CD0140901404333333333333E33F0000000000000F90107409019070040501600405405064090741402480A1B50
1001
ACAD
1000
AcDbSavedByObjectVersion
1070
     0
  0
ACAD_PROXY_OBJECT
  5
2D
102
{ACAD_REACTORS
330
2A
102
}
330
2A
100
AcDbProxyObject
 90
      499
 91
      501
 93
      404
310
41D1DBDD5C985D5910240902404333333333333E33F0000000000000F9010740A9070040501641D405064090741402480A1B50
1001
ACAD
1000
AcDbSavedByObjectVersion
1070
     0
  0
ACAD_PROXY_OBJECT
  5
2E
102
{ACAD_REACTORS
330
2A
102
}
330
2A
100
AcDbProxyObject
 90
      499
 91
      501
 93
      492
310
4411DBDD5C985D5915DA5D1A115919D95CD0340902404333333333333E33F0000000000000F90107409019070040501600405405064090741402480A1B50
1001
ACAD
1000
AcDbSavedByObjectVersion
1070
     0
  0
ACAD_PROXY_OBJECT
  5
31
102
{ACAD_REACTORS
330
2A
102
}
330
2A
100
AcDbProxyObject
 90
      499
 91
      501
 93
      476
310
41921A5919195B90640502408333333333333E33F0000000000000F901079024090700405020000000000001110200405405064090740C02480A0340
1001
ACAD
1000
AcDbSavedByObjectVersion
1070
     0
  0
ACAD_PROXY_OBJECT
  5
3B
102
{ACAD_REACTORS
330
2A
102
}
330
2A
100
AcDbProxyObject
 90
      499
 91
      501
 93
      428
310
42529A5D1D195C93D999914409028333333333333E33F0000000000000F9010790141107004050150A41D405064090741402480A0350
1001
ACAD
1000
AcDbSavedByObjectVersion
1070
     0
  0
ACAD_PROXY_OBJECT
  5
38
102
{ACAD_REACTORS
330
2A
102
}
330
2A
100
AcDbProxyObject
 90
      499
 91
      501
 93
      444
310
42D31A5B995C185D1D195C9B90E409028333333333333E33F0000000000000F9010790141107004050750841D405064090741402483A0350
1001
ACAD
1000
AcDbSavedByObjectVersion
1070
     0
  0
ACAD_PROXY_OBJECT
  5
3C
102
{ACAD_REACTORS
330
2A
102
}
330
2A
100
AcDbProxyObject
 90
      499
 91
      501
 93
      444
310
42D3DD995C9A185B99D3D999915409028333333333333E33F0000000000000F9010790141107004050150941D405064090741402480A0350
1001
ACAD
1000
AcDbSavedByObjectVersion
1070
     0
  0
ACAD_PROXY_OBJECT
  5
33
102
{ACAD_REACTORS
330
2A
102
}
330
2A
100
AcDbProxyObject
 90
      499
 91
      501
 93
      428
310
425499585B1A5CDD1A58D08409038333333333333E33F0000000000000F9010740A907004050150800405405064090740C02480A1B40
1001
ACAD
1000
AcDbSavedByObjectVersion
1070
     0
  0
ACAD_PROXY_OBJECT
  5
42
102
{ACAD_REACTORS
330
2A
102
}
330
2A
100
AcDbProxyObject
 90
      499
 91
      501
 93
      420
310
4194DA1859195911B40902404333333333333E33F0000000000000F9010740A41107004050150800405405064090840C02480A0B40
1001
ACAD
1000
AcDbSavedByObjectVersion
1070
     0
  0
ACAD_PROXY_OBJECT
  5
41
102
{ACAD_REACTORS
330
2A
102
}
330
2A
100
AcDbProxyObject
 90
      499
 91
      501
 93
      516
310
4454DA18591959081DDA5D1A08195919D95CD1A40902404333333333333E33F0000000000000F901074090142907004050250800405405064090740C02480A0B40
1001
ACAD
1000
AcDbSavedByObjectVersion
1070
     0
  0
ACAD_PROXY_OBJECT
  5
3E
102
{ACAD_REACTORS
330
2A
102
}
330
2A
100
AcDbProxyObject
 90
      499
 91
      501
 93
      532
310
4394DA1859195CC81BD98811DC985E5174090240C333333333333E33F0000000000000F901079024090741D01000000000000111010841D405064090740C02480A0340
1001
ACAD
1000
AcDbSavedByObjectVersion
1070
     0
  0
ACAD_PROXY_OBJECT
  5
3F
102
{ACAD_REACTORS
330
2A
102
}
330
2A
100
AcDbProxyObject
 90
      499
 91
      501
 93
      476
310
41D4DAD95D18DA1E51840502408333333333333E33F0000000000000F901079024090741D01000000000000111010B41D405064090741802480A0340
1001
ACAD
1000
AcDbSavedByObjectVersion
1070
     0
  0
ACAD_PROXY_OBJECT
  5
37
102
{ACAD_REACTORS
330
2A
102
}
330
2A
100
AcDbProxyObject
 90
      499
 91
      501
 93
      412
310
41D51A1A58DAD95B90D409028333333333333E33F0000000000000F9010790141107004050150C41D405064090741402480A0350
1001
ACAD
1000
AcDbSavedByObjectVersion
1070
     0
  0
ACAD_PROXY_OBJECT
  5
30
102
{ACAD_REACTORS
330
2A
102
}
330
2A
100
AcDbProxyObject
 90
      499
 91
      501
 93
      420
310
4255DA5C99599C985B595059028333333333333E33F0000000000000F90107901411070040501600405405064090740C02480A0340
1001
ACAD
1000
AcDbSavedByObjectVersion
1070
     0
  0
ACAD_PROXY_OBJECT
  5
40
102
{ACAD_REACTORS
330
2A
102
}
330
2A
100
AcDbProxyObject
 90
      499
 91
      501
 93
      404
310
41560B54985E51940902404000000000000E03F0000000000000F9010740501907004050150841D405064090740C02480A1B40
1001
ACAD
1000
AcDbSavedByObjectVersion
1070
     0
  0
XRECORD
  5
38D
102
{ACAD_REACTORS
330
383
102
}
330
383
100
AcDbXrecord
340
0
  0
XRECORD
  5
38C
102
{ACAD_REACTORS
330
383
102
}
330
383
100
AcDbXrecord
 90
        0
  0
XRECORD
  5
3A3
102
{ACAD_REACTORS
330
383
102
}
330
383
100
AcDbXrecord
1000
DSTYLE
1002
{
1070
   340
340
11
1002
}
  0
XRECORD
  5
38E
102
{ACAD_REACTORS
330
383
102
}
330
383
100
AcDbXrecord
  1
{52419f31-400c-496f-91e9-1ef045bbb63e}
  0
XRECORD
  5
386
102
{ACAD_REACTORS
330
383
102
}
330
383
100
AcDbXrecord
  1

  0
XRECORD
  5
38B
102
{ACAD_REACTORS
330
383
102
}
330
383
100
AcDbXrecord
 90
        4
  0
XRECORD
  5
388
102
{ACAD_REACTORS
330
383
102
}
330
383
100
AcDbXrecord
340
1A
  0
XRECORD
  5
38A
102
{ACAD_REACTORS
330
383
102
}
330
383
100
AcDbXrecord
 90
    10781
  0
XRECORD
  5
389
102
{ACAD_REACTORS
330
383
102
}
330
383
100
AcDbXrecord
340
19
  0
XRECORD
  5
390
102
{ACAD_REACTORS
330
383
102
}
330
383
100
AcDbXrecord
 40
0.0
  0
XRECORD
  5
393
102
{ACAD_REACTORS
330
383
102
}
330
383
100
AcDbXrecord
340
0
  0
XRECORD
  5
399
102
{ACAD_REACTORS
330
383
102
}
330
383
100
AcDbXrecord
 10
0.0
 20
0.0
 30
0.0
  0
XRECORD
  5
395
102
{ACAD_REACTORS
330
383
102
}
330
383
100
AcDbXrecord
 10
0.0
 20
0.0
 30
0.0
  0
XRECORD
  5
398
102
{ACAD_REACTORS
330
383
102
}
330
383
100
AcDbXrecord
 10
0.0
 20
0.0
 30
0.0
  0
XRECORD
  5
396
102
{ACAD_REACTORS
330
383
102
}
330
383
100
AcDbXrecord
 10
0.0
 20
0.0
 30
0.0
  0
XRECORD
  5
397
102
{ACAD_REACTORS
330
383
102
}
330
383
100
AcDbXrecord
 10
0.0
 20
0.0
 30
0.0
  0
XRECORD
  5
394
102
{ACAD_REACTORS
330
383
102
}
330
383
100
AcDbXrecord
 10
0.0
 20
0.0
 30
0.0
  0
XRECORD
  5
391
102
{ACAD_REACTORS
330
383
102
}
330
383
100
AcDbXrecord
340
0
  0
XRECORD
  5
392
102
{ACAD_REACTORS
330
383
102
}
330
383
100
AcDbXrecord
 70
     0
  0
XRECORD
  5
387
102
{ACAD_REACTORS
330
383
102
}
330
383
100
AcDbXrecord
  1

  0
XRECORD
  5
384
102
{ACAD_REACTORS
330
383
102
}
330
383
100
AcDbXrecord
 90
        1
  0
XRECORD
  5
385
102
{ACAD_REACTORS
330
383
102
}
330
383
100
AcDbXrecord
 90
       70
  0
XRECORD
  5
39C
102
{ACAD_REACTORS
330
383
102
}
330
383
100
AcDbXrecord
340
0
  0
XRECORD
  5
3A2
102
{ACAD_REACTORS
330
383
102
}
330
383
100
AcDbXrecord
 10
0.0
 20
0.0
 30
0.0
  0
XRECORD
  5
39E
102
{ACAD_REACTORS
330
383
102
}
330
383
100
AcDbXrecord
 10
0.0
 20
0.0
 30
0.0
  0
XRECORD
  5
3A1
102
{ACAD_REACTORS
330
383
102
}
330
383
100
AcDbXrecord
 10
0.0
 20
0.0
 30
0.0
  0
XRECORD
  5
39F
102
{ACAD_REACTORS
330
383
102
}
330
383
100
AcDbXrecord
 10
0.0
 20
0.0
 30
0.0
  0
XRECORD
  5
3A0
102
{ACAD_REACTORS
330
383
102
}
330
383
100
AcDbXrecord
 10
0.0
 20
0.0
 30
0.0
  0
XRECORD
  5
39D
102
{ACAD_REACTORS
330
383
102
}
330
383
100
AcDbXrecord
 10
0.0
 20
0.0
 30
0.0
  0
XRECORD
  5
39A
102
{ACAD_REACTORS
330
383
102
}
330
383
100
AcDbXrecord
340
0
  0
XRECORD
  5
39B
102
{ACAD_REACTORS
330
383
102
}
330
383
100
AcDbXrecord
 70
     0
  0
XRECORD
  5
38F
102
{ACAD_REACTORS
330
383
102
}
330
383
100
AcDbXrecord
  1
{FAEB1C32-E019-11D5-929B-00C0DF256EC4}
  0
DICTIONARYVAR
  5
3B1
102
{ACAD_REACTORS
330
3A4
102
}
330
3A4
100
DictionaryVariables
280
     0
  1
1:1
  0
DICTIONARYVAR
  5
3AB
102
{ACAD_REACTORS
330
3A4
102
}
330
3A4
100
DictionaryVariables
280
     0
  1
3.500000
  0
DICTIONARYVAR
  5
3AC
102
{ACAD_REACTORS
330
3A4
102
}
330
3A4
100
DictionaryVariables
280
     0
  1
acadiso.lin
  0
DICTIONARYVAR
  5
3A6
102
{ACAD_REACTORS
330
3A4
102
}
330
3A4
100
DictionaryVariables
280
     0
  1
Standard
  0
DICTIONARYVAR
  5
3A5
102
{ACAD_REACTORS
330
3A4
102
}
330
3A4
100
DictionaryVariables
280
     0
  1
Standard
  0
DICTIONARYVAR
  5
3AD
102
{ACAD_REACTORS
330
3A4
102
}
330
3A4
100
DictionaryVariables
280
     0
  1
2
  0
DICTIONARYVAR
  5
3AE
102
{ACAD_REACTORS
330
3A4
102
}
330
3A4
100
DictionaryVariables
280
     0
  1
1
  0
DICTIONARYVAR
  5
3B2
102
{ACAD_REACTORS
330
3A4
102
}
330
3A4
100
DictionaryVariables
280
     0
  1
1
  0
DICTIONARYVAR
  5
3A8
102
{ACAD_REACTORS
330
3A4
102
}
330
3A4
100
DictionaryVariables
280
     0
  1
80.000000
  0
DICTIONARYVAR
  5
3A7
102
{ACAD_REACTORS
330
3A4
102
}
330
3A4
100
DictionaryVariables
280
     0
  1
5.000000
  0
DICTIONARY
  5
3B5
330
45
100
AcDbDictionary
280
     1
  3
ACAD_XREC_ROUNDTRIP
360
3B6
  0
DICTIONARY
  5
3B3
330
44
100
AcDbDictionary
280
     1
  3
ACAD_XREC_ROUNDTRIP
360
3B4
  0
DICTIONARY
  5
3B7
330
46
100
AcDbDictionary
280
     1
  3
ACAD_XREC_ROUNDTRIP
360
3B8
  0
XRECORD
  5
3B6
102
{ACAD_REACTORS
330
3B5
102
}
330
3B5
100
AcDbXrecord
102
MATERIAL
148
0.0
149
0.0
149
0.0
 93
        0
 94
      127
282
     0
 72
     1
 77
     1
171
     1
175
     1
179
     1
273
     0
  0
XRECORD
  5
3B4
102
{ACAD_REACTORS
330
3B3
102
}
330
3B3
100
AcDbXrecord
102
MATERIAL
148
0.0
149
0.0
149
0.0
 93
        0
 94
      127
282
     0
 72
     1
 77
     1
171
     1
175
     1
179
     1
273
     0
  0
XRECORD
  5
3B8
102
{ACAD_REACTORS
330
3B7
102
}
330
3B7
100
AcDbXrecord
102
MATERIAL
148
0.0
149
0.0
149
0.0
 93
        0
 94
      127
282
     0
 72
     1
 77
     1
171
     1
175
     1
179
     1
273
     0
  0
ENDSEC
  0
EOF
