  0
SECTION
  2
HEADER
  9
$ACADVER
  1
AC1014
  9
$ACADMAINTVER
 70
     9
  9
$DWGCODEPAGE
  3
ANSI_932
  9
$INSBASE
 10
0.0
 20
0.0
 30
0.0
  9
$EXTMIN
 10
25.0
 20
50.0
 30
0.0
  9
$EXTMAX
 10
1925.0
 20
1400.0
 30
0.0
  9
$LIMMIN
 10
0.0
 20
0.0
  9
$LIMMAX
 10
420.0
 20
297.0
  9
$ORTHOMODE
 70
     0
  9
$REGENMODE
 70
     1
  9
$FILLMODE
 70
     1
  9
$QTEXTMODE
 70
     0
  9
$MIRRTEXT
 70
     1
  9
$DRAGMODE
 70
     2
  9
$LTSCALE
 40
0.2
  9
$OSMODE
 70
    37
  9
$ATTMODE
 70
     1
  9
$TEXTSIZE
 40
2.5
  9
$TRACEWID
 40
1.0
  9
$TEXTSTYLE
  7
STANDARD
  9
$CLAYER
  8
LAY-10
  9
$CELTYPE
  6
BYLAYER
  9
$CECOLOR
 62
   256
  9
$CELTSCALE
 40
1.0
  9
$DELOBJ
 70
     1
  9
$DISPSILH
 70
     0
  9
$DIMSCALE
 40
1.0
  9
$DIMASZ
 40
2.5
  9
$DIMEXO
 40
0.625
  9
$DIMDLI
 40
3.75
  9
$DIMRND
 40
0.0
  9
$DIMDLE
 40
0.0
  9
$DIMEXE
 40
1.25
  9
$DIMTP
 40
0.0
  9
$DIMTM
 40
0.0
  9
$DIMTXT
 40
2.5
  9
$DIMCEN
 40
2.5
  9
$DIMTSZ
 40
0.0
  9
$DIMTOL
 70
     0
  9
$DIMLIM
 70
     0
  9
$DIMTIH
 70
     0
  9
$DIMTOH
 70
     0
  9
$DIMSE1
 70
     0
  9
$DIMSE2
 70
     0
  9
$DIMTAD
 70
     1
  9
$DIMZIN
 70
     8
  9
$DIMBLK
  1

  9
$DIMASO
 70
     1
  9
$DIMSHO
 70
     1
  9
$DIMPOST
  1

  9
$DIMAPOST
  1

  9
$DIMALT
 70
     0
  9
$DIMALTD
 70
     3
  9
$DIMALTF
 40
0.03937007874016
  9
$DIMLFAC
 40
1.0
  9
$DIMTOFL
 70
     1
  9
$DIMTVP
 40
0.0
  9
$DIMTIX
 70
     0
  9
$DIMSOXD
 70
     0
  9
$DIMSAH
 70
     0
  9
$DIMBLK1
  1

  9
$DIMBLK2
  1

  9
$DIMSTYLE
  2
ISO-25
  9
$DIMCLRD
 70
     0
  9
$DIMCLRE
 70
     0
  9
$DIMCLRT
 70
     0
  9
$DIMTFAC
 40
1.0
  9
$DIMGAP
 40
0.625
  9
$DIMJUST
 70
     0
  9
$DIMSD1
 70
     0
  9
$DIMSD2
 70
     0
  9
$DIMTOLJ
 70
     0
  9
$DIMTZIN
 70
     8
  9
$DIMALTZ
 70
     0
  9
$DIMALTTZ
 70
     0
  9
$DIMFIT
 70
     3
  9
$DIMUPT
 70
     0
  9
$DIMUNIT
 70
     2
  9
$DIMDEC
 70
     2
  9
$DIMTDEC
 70
     2
  9
$DIMALTU
 70
     2
  9
$DIMALTTD
 70
     3
  9
$DIMTXSTY
  7
STANDARD
  9
$DIMAUNIT
 70
     0
  9
$LUNITS
 70
     2
  9
$LUPREC
 70
     4
  9
$SKETCHINC
 40
1.0
  9
$FILLETRAD
 40
10.0
  9
$AUNITS
 70
     0
  9
$AUPREC
 70
     0
  9
$MENU
  1
.
  9
$ELEVATION
 40
0.0
  9
$PELEVATION
 40
0.0
  9
$THICKNESS
 40
0.0
  9
$LIMCHECK
 70
     0
  9
$CHAMFERA
 40
0.0
  9
$CHAMFERB
 40
0.0
  9
$CHAMFERC
 40
0.0
  9
$CHAMFERD
 40
0.0
  9
$SKPOLY
 70
     0
  9
$TDCREATE
 40
2459229.336724815
  9
$TDUPDATE
 40
2459229.336725301
  9
$TDINDWG
 40
0.0000000116
  9
$TDUSRTIMER
 40
0.0000000116
  9
$USRTIMER
 70
     1
  9
$ANGBASE
 50
0.0
  9
$ANGDIR
 70
     0
  9
$PDMODE
 70
     0
  9
$PDSIZE
 40
0.0
  9
$PLINEWID
 40
0.0
  9
$COORDS
 70
     1
  9
$SPLFRAME
 70
     0
  9
$SPLINETYPE
 70
     6
  9
$SPLINESEGS
 70
     8
  9
$ATTDIA
 70
     0
  9
$ATTREQ
 70
     1
  9
$HANDLING
 70
     1
  9
$HANDSEED
  5
466
  9
$SURFTAB1
 70
     6
  9
$SURFTAB2
 70
     6
  9
$SURFTYPE
 70
     6
  9
$SURFU
 70
     6
  9
$SURFV
 70
     6
  9
$UCSNAME
  2

  9
$UCSORG
 10
0.0
 20
0.0
 30
0.0
  9
$UCSXDIR
 10
1.0
 20
0.0
 30
0.0
  9
$UCSYDIR
 10
0.0
 20
1.0
 30
0.0
  9
$PUCSNAME
  2

  9
$PUCSORG
 10
0.0
 20
0.0
 30
0.0
  9
$PUCSXDIR
 10
1.0
 20
0.0
 30
0.0
  9
$PUCSYDIR
 10
0.0
 20
1.0
 30
0.0
  9
$USERI1
 70
     0
  9
$USERI2
 70
     0
  9
$USERI3
 70
     0
  9
$USERI4
 70
     0
  9
$USERI5
 70
     0
  9
$USERR1
 40
0.0
  9
$USERR2
 40
0.0
  9
$USERR3
 40
0.0
  9
$USERR4
 40
0.0
  9
$USERR5
 40
0.0
  9
$WORLDVIEW
 70
     1
  9
$SHADEDGE
 70
     3
  9
$SHADEDIF
 70
    70
  9
$TILEMODE
 70
     1
  9
$MAXACTVP
 70
    64
  9
$PINSBASE
 10
0.0
 20
0.0
 30
0.0
  9
$PLIMCHECK
 70
     0
  9
$PEXTMIN
 10
1.000000000000000E+20
 20
1.000000000000000E+20
 30
1.000000000000000E+20
  9
$PEXTMAX
 10
-1.000000000000000E+20
 20
-1.000000000000000E+20
 30
-1.000000000000000E+20
  9
$PLIMMIN
 10
0.0
 20
0.0
  9
$PLIMMAX
 10
420.0
 20
297.0
  9
$UNITMODE
 70
     0
  9
$VISRETAIN
 70
     1
  9
$PLINEGEN
 70
     0
  9
$PSLTSCALE
 70
     1
  9
$TREEDEPTH
 70
  3020
  9
$PICKSTYLE
 70
     1
  9
$CMLSTYLE
  2
STANDARD
  9
$CMLJUST
 70
     0
  9
$CMLSCALE
 40
20.0
  9
$PROXYGRAPHICS
 70
     1
  9
$MEASUREMENT
 70
     1
  0
ENDSEC
  0
SECTION
  2
CLASSES
  0
CLASS
  1
ACDBDICTIONARYWDFLT
  2
AcDbDictionaryWithDefault
  3
ObjectDBX Classes
 90
        0
280
     0
281
     0
  0
CLASS
  1
VISUALSTYLE
  2
AcDbVisualStyle
  3
ObjectDBX Classes
 90
     4095
280
     0
281
     0
  0
CLASS
  1
MATERIAL
  2
AcDbMaterial
  3
ObjectDBX Classes
 90
     1153
280
     0
281
     0
  0
CLASS
  1
SCALE
  2
AcDbScale
  3
ObjectDBX Classes
 90
     1153
280
     0
281
     0
  0
CLASS
  1
TABLESTYLE
  2
AcDbTableStyle
  3
ObjectDBX Classes
 90
     4095
280
     0
281
     0
  0
CLASS
  1
MLEADERSTYLE
  2
AcDbMLeaderStyle
  3
ACDB_MLEADERSTYLE_CLASS
 90
     4095
280
     0
281
     0
  0
CLASS
  1
SUN
  2
AcDbSun
  3
SCENEOE
 90
     1153
280
     0
281
     0
  0
CLASS
  1
DICTIONARYVAR
  2
AcDbDictionaryVar
  3
ObjectDBX Classes
 90
        0
280
     0
281
     0
  0
CLASS
  1
XRECORD
  2
AcDbXrecord
  3
ObjectDBX Classes
 90
        0
280
     0
281
     0
  0
CLASS
  1
LWPOLYLINE
  2
AcDbPolyline
  3
ObjectDBX Classes
 90
        0
280
     0
281
     1
  0
CLASS
  1
HATCH
  2
AcDbHatch
  3
ObjectDBX Classes
 90
        0
280
     0
281
     1
  0
CLASS
  1
ACDBPLACEHOLDER
  2
AcDbPlaceHolder
  3
ObjectDBX Classes
 90
        0
280
     0
281
     0
  0
CLASS
  1
LAYOUT
  2
AcDbLayout
  3
ObjectDBX Classes
 90
        0
280
     0
281
     0
  0
ENDSEC
  0
SECTION
  2
TABLES
  0
TABLE
  2
VPORT
  5
8
102
{ACAD_XDICTIONARY
360
45B
102
}
330
0
100
AcDbSymbolTable
 70
     1
  0
VPORT
  5
29
330
8
100
AcDbSymbolTableRecord
100
AcDbViewportTableRecord
  2
*ACTIVE
 70
     0
 10
0.0
 20
0.0
 11
1.0
 21
1.0
 12
975.0000000000001
 22
725.0
 13
0.0
 23
0.0
 14
10.0
 24
10.0
 15
10.0
 25
10.0
 16
0.0
 26
0.0
 36
1.0
 17
0.0
 27
0.0
 37
0.0
 40
1350.0
 41
1.407407407407408
 42
50.0
 43
0.0
 44
0.0
 50
0.0
 51
0.0
 71
     0
 72
  1000
 73
     1
 74
     3
 75
     0
 76
     0
 77
     0
 78
     0
  0
ENDTAB
  0
TABLE
  2
LTYPE
  5
5
330
0
100
AcDbSymbolTable
 70
     6
  0
LTYPE
  5
14
330
5
100
AcDbSymbolTableRecord
100
AcDbLinetypeTableRecord
  2
BYBLOCK
 70
     0
  3

 72
    65
 73
     0
 40
0.0
  0
LTYPE
  5
15
330
5
100
AcDbSymbolTableRecord
100
AcDbLinetypeTableRecord
  2
BYLAYER
 70
     0
  3

 72
    65
 73
     0
 40
0.0
  0
LTYPE
  5
16
330
5
100
AcDbSymbolTableRecord
100
AcDbLinetypeTableRecord
  2
CONTINUOUS
 70
     0
  3
Solid line
 72
    65
 73
     0
 40
0.0
  0
LTYPE
  5
6E
330
5
100
AcDbSymbolTableRecord
100
AcDbLinetypeTableRecord
  2
HIDDEN
 70
     0
  3
Hidden __ __ __ __ __ __ __ __ __ __ __ __ __ __
 72
    65
 73
     2
 40
9.524999999999999
 49
6.35
 74
     0
 49
-3.175
 74
     0
  0
LTYPE
  5
6F
330
5
100
AcDbSymbolTableRecord
100
AcDbLinetypeTableRecord
  2
CENTER
 70
     0
  3
Center ____ _ ____ _ ____ _ ____ _ ____ _ ____
 72
    65
 73
     4
 40
50.8
 49
31.75
 74
     0
 49
-6.35
 74
     0
 49
6.35
 74
     0
 49
-6.35
 74
     0
  0
LTYPE
  5
70
330
5
100
AcDbSymbolTableRecord
100
AcDbLinetypeTableRecord
  2
PHANTOM
 70
     0
  3
Phantom ______  __  __  ______  __  __  ______ 
 72
    65
 73
     6
 40
63.50000000000001
 49
31.75
 74
     0
 49
-6.35
 74
     0
 49
6.35
 74
     0
 49
-6.35
 74
     0
 49
6.35
 74
     0
 49
-6.35
 74
     0
  0
LTYPE
  5
71
330
5
100
AcDbSymbolTableRecord
100
AcDbLinetypeTableRecord
  2
ACAD_ISO06W100
 70
     0
  3
ISO long-dash triple-dot ____ ... ____ ... ____
 72
    65
 73
     8
 40
36.0
 49
24.0
 74
     0
 49
-3.0
 74
     0
 49
0.0
 74
     0
 49
-3.0
 74
     0
 49
0.0
 74
     0
 49
-3.0
 74
     0
 49
0.0
 74
     0
 49
-3.0
 74
     0
  0
LTYPE
  5
72
330
5
100
AcDbSymbolTableRecord
100
AcDbLinetypeTableRecord
  2
ACAD_ISO15W100
 70
     0
  3
ISO double-dash triple-dot __ __ . . . __ __ . .
 72
    65
 73
    10
 40
39.0
 49
12.0
 74
     0
 49
-3.0
 74
     0
 49
12.0
 74
     0
 49
-3.0
 74
     0
 49
0.0
 74
     0
 49
-3.0
 74
     0
 49
0.0
 74
     0
 49
-3.0
 74
     0
 49
0.0
 74
     0
 49
-3.0
 74
     0
  0
ENDTAB
  0
TABLE
  2
LAYER
  5
2
330
0
100
AcDbSymbolTable
 70
     6
  0
LAYER
  5
10
330
2
100
AcDbSymbolTableRecord
100
AcDbLayerTableRecord
  2
0
 70
     0
 62
     7
  6
CONTINUOUS
  0
LAYER
  5
75
330
2
100
AcDbSymbolTableRecord
100
AcDbLayerTableRecord
  2
LAY-10
 70
     0
 62
     7
  6
CONTINUOUS
  0
LAYER
  5
76
330
2
100
AcDbSymbolTableRecord
100
AcDbLayerTableRecord
  2
LAY-11
 70
     0
 62
     7
  6
CONTINUOUS
  0
LAYER
  5
77
330
2
100
AcDbSymbolTableRecord
100
AcDbLayerTableRecord
  2
LAY-20
 70
     0
 62
     7
  6
CONTINUOUS
  0
LAYER
  5
78
330
2
100
AcDbSymbolTableRecord
100
AcDbLayerTableRecord
  2
LAY-255
 70
     0
 62
     7
  6
CONTINUOUS
  0
LAYER
  5
3C7
330
2
100
AcDbSymbolTableRecord
100
AcDbLayerTableRecord
  2
DEFPOINTS
 70
     0
 62
     7
  6
CONTINUOUS
  0
ENDTAB
  0
TABLE
  2
STYLE
  5
3
330
0
100
AcDbSymbolTable
 70
     4
  0
STYLE
  5
11
330
3
100
AcDbSymbolTableRecord
100
AcDbTextStyleTableRecord
  2
STANDARD
 70
     0
 40
0.0
 41
1.0
 50
0.0
 71
     0
 42
2.5
  3
simplex
  4
bigfont
  0
STYLE
  5
73
330
3
100
AcDbSymbolTableRecord
100
AcDbTextStyleTableRecord
  2
EXCADSTD
 70
     0
 40
0.0
 41
1.0
 50
0.0
 71
     0
 42
2.5
  3
simplex
  4
bigfont
  0
STYLE
  5
74
330
3
100
AcDbSymbolTableRecord
100
AcDbTextStyleTableRecord
  2
EXCADVERT
 70
     4
 40
0.0
 41
1.0
 50
0.0
 71
     0
 42
2.5
  3
simplex
  4
bigfont
  0
STYLE
  5
3C5
330
3
100
AcDbSymbolTableRecord
100
AcDbTextStyleTableRecord
  2
EXCADDIM1
 70
     0
 40
0.0
 41
0.84
 50
0.0
 71
     0
 42
2.5
  3
simplex
  4
bigfont
  0
ENDTAB
  0
TABLE
  2
VIEW
  5
6
330
0
100
AcDbSymbolTable
 70
     0
  0
ENDTAB
  0
TABLE
  2
UCS
  5
7
330
0
100
AcDbSymbolTable
 70
     0
  0
ENDTAB
  0
TABLE
  2
APPID
  5
9
330
0
100
AcDbSymbolTable
 70
     2
  0
APPID
  5
12
330
9
100
AcDbSymbolTableRecord
100
AcDbRegAppTableRecord
  2
ACAD
 70
     0
  0
APPID
  5
465
330
9
100
AcDbSymbolTableRecord
100
AcDbRegAppTableRecord
  2
ACAD_MLEADERVER
 70
     0
  0
ENDTAB
  0
TABLE
  2
DIMSTYLE
  5
A
330
0
100
AcDbSymbolTable
 70
     1
  0
DIMSTYLE
105
27
102
{ACAD_REACTORS
330
3C6
330
3D4
330
3E1
330
3EE
330
3FB
102
}
330
A
100
AcDbSymbolTableRecord
100
AcDbDimStyleTableRecord
  2
ISO-25
 70
     0
  3

  4

  5

  6

  7

 40
1.0
 41
2.5
 42
0.625
 43
3.75
 44
1.25
 45
0.0
 46
0.0
 47
0.0
 48
0.0
140
2.5
141
2.5
142
0.0
143
0.03937007874016
144
1.0
145
0.0
146
1.0
147
0.625
 71
     0
 72
     0
 73
     0
 74
     0
 75
     0
 76
     0
 77
     1
 78
     8
170
     0
171
     3
172
     1
173
     0
174
     0
175
     0
176
     0
177
     0
178
     0
270
     2
271
     2
272
     2
273
     2
274
     3
340
11
275
     0
280
     0
281
     0
282
     0
283
     0
284
     8
285
     0
286
     0
287
     5
288
     0
  0
ENDTAB
  0
TABLE
  2
BLOCK_RECORD
  5
1
330
0
100
AcDbSymbolTable
 70
    19
  0
BLOCK_RECORD
  5
1F
330
1
100
AcDbSymbolTableRecord
100
AcDbBlockTableRecord
  2
*MODEL_SPACE
  0
BLOCK_RECORD
  5
1B
330
1
100
AcDbSymbolTableRecord
100
AcDbBlockTableRecord
  2
*PAPER_SPACE
  0
BLOCK_RECORD
  5
79
330
1
100
AcDbSymbolTableRecord
100
AcDbBlockTableRecord
  2
EX_NORM
  0
BLOCK_RECORD
  5
7C
330
1
100
AcDbSymbolTableRecord
100
AcDbBlockTableRecord
  2
EX_BNORM
  0
BLOCK_RECORD
  5
7F
330
1
100
AcDbSymbolTableRecord
100
AcDbBlockTableRecord
  2
EX_BCIR
  0
BLOCK_RECORD
  5
82
330
1
100
AcDbSymbolTableRecord
100
AcDbBlockTableRecord
  2
EX_RCIVIL
  0
BLOCK_RECORD
  5
85
330
1
100
AcDbSymbolTableRecord
100
AcDbBlockTableRecord
  2
EX_SLANT
  0
BLOCK_RECORD
  5
88
330
1
100
AcDbSymbolTableRecord
100
AcDbBlockTableRecord
  2
EX_NONE
  0
BLOCK_RECORD
  5
8B
330
1
100
AcDbSymbolTableRecord
100
AcDbBlockTableRecord
  2
EX_CIVIL
  0
BLOCK_RECORD
  5
8E
330
1
100
AcDbSymbolTableRecord
100
AcDbBlockTableRecord
  2
EX_WCIR
  0
BLOCK_RECORD
  5
91
330
1
100
AcDbSymbolTableRecord
100
AcDbBlockTableRecord
  2
EX_WCIR2
  0
BLOCK_RECORD
  5
94
330
1
100
AcDbSymbolTableRecord
100
AcDbBlockTableRecord
  2
EX_WNORM
  0
BLOCK_RECORD
  5
97
330
1
100
AcDbSymbolTableRecord
100
AcDbBlockTableRecord
  2
EX_NNORM
  0
BLOCK_RECORD
  5
9A
330
1
100
AcDbSymbolTableRecord
100
AcDbBlockTableRecord
  2
EX_BBOX
  0
BLOCK_RECORD
  5
9D
330
1
100
AcDbSymbolTableRecord
100
AcDbBlockTableRecord
  2
EX_WBOX
  0
BLOCK_RECORD
  5
A0
330
1
100
AcDbSymbolTableRecord
100
AcDbBlockTableRecord
  2
EX_INTEGRAL
  0
BLOCK_RECORD
  5
3C8
330
1
100
AcDbSymbolTableRecord
100
AcDbBlockTableRecord
  2
*D15
  0
BLOCK_RECORD
  5
3D5
330
1
100
AcDbSymbolTableRecord
100
AcDbBlockTableRecord
  2
*D16
  0
BLOCK_RECORD
  5
3E2
330
1
100
AcDbSymbolTableRecord
100
AcDbBlockTableRecord
  2
*D17
  0
BLOCK_RECORD
  5
3EF
330
1
100
AcDbSymbolTableRecord
100
AcDbBlockTableRecord
  2
*D18
  0
BLOCK_RECORD
  5
3FC
330
1
100
AcDbSymbolTableRecord
100
AcDbBlockTableRecord
  2
*D19
  0
ENDTAB
  0
ENDSEC
  0
SECTION
  2
BLOCKS
  0
BLOCK
  5
20
330
1F
100
AcDbEntity
  8
0
100
AcDbBlockBegin
  2
*MODEL_SPACE
 70
     0
 10
0.0
 20
0.0
 30
0.0
  3
*MODEL_SPACE
  1

  0
ENDBLK
  5
21
330
1F
100
AcDbEntity
  8
0
100
AcDbBlockEnd
  0
BLOCK
  5
1C
330
1B
100
AcDbEntity
 67
     1
  8
0
100
AcDbBlockBegin
  2
*PAPER_SPACE
 70
     0
 10
0.0
 20
0.0
 30
0.0
  3
*PAPER_SPACE
  1

  0
ENDBLK
  5
1D
330
1B
100
AcDbEntity
 67
     1
  8
0
100
AcDbBlockEnd
  0
BLOCK
  5
7A
330
79
100
AcDbEntity
  8
0
100
AcDbBlockBegin
  2
EX_NORM
 70
     0
 10
0.0
 20
0.0
 30
0.0
  3
EX_NORM
  1

  0
LINE
  5
A3
330
79
100
AcDbEntity
  8
0
  6
CONTINUOUS
 62
     0
100
AcDbLine
 10
0.0
 20
0.0
 30
0.0
 11
-1.0
 21
0.0
 31
0.0
  0
LINE
  5
A4
330
79
100
AcDbEntity
  8
0
  6
CONTINUOUS
 62
     0
100
AcDbLine
 10
0.0
 20
0.0
 30
0.0
 11
-1.0
 21
0.166666667
 31
0.0
  0
LINE
  5
A5
330
79
100
AcDbEntity
  8
0
  6
CONTINUOUS
 62
     0
100
AcDbLine
 10
0.0
 20
0.0
 30
0.0
 11
-1.0
 21
-0.166666667
 31
0.0
  0
ENDBLK
  5
7B
330
79
100
AcDbEntity
  8
0
100
AcDbBlockEnd
  0
BLOCK
  5
7D
330
7C
100
AcDbEntity
  8
0
100
AcDbBlockBegin
  2
EX_BNORM
 70
     0
 10
0.0
 20
0.0
 30
0.0
  3
EX_BNORM
  1

  0
LINE
  5
A6
330
7C
100
AcDbEntity
  8
0
  6
CONTINUOUS
 62
     0
100
AcDbLine
 10
0.0
 20
0.0
 30
0.0
 11
-1.0
 21
0.0
 31
0.0
  0
LINE
  5
A7
330
7C
100
AcDbEntity
  8
0
  6
CONTINUOUS
 62
     0
100
AcDbLine
 10
0.0
 20
0.0
 30
0.0
 11
-1.0
 21
0.166666667
 31
0.0
  0
LINE
  5
A8
330
7C
100
AcDbEntity
  8
0
  6
CONTINUOUS
 62
     0
100
AcDbLine
 10
0.0
 20
0.0
 30
0.0
 11
-1.0
 21
-0.166666667
 31
0.0
  0
LINE
  5
A9
330
7C
100
AcDbEntity
  8
0
  6
CONTINUOUS
 62
     0
100
AcDbLine
 10
0.0
 20
0.0
 30
0.0
 11
-1.0
 21
0.083333333
 31
0.0
  0
LINE
  5
AA
330
7C
100
AcDbEntity
  8
0
  6
CONTINUOUS
 62
     0
100
AcDbLine
 10
0.0
 20
0.0
 30
0.0
 11
-1.0
 21
-0.083333333
 31
0.0
  0
LINE
  5
AB
330
7C
100
AcDbEntity
  8
0
  6
CONTINUOUS
 62
     0
100
AcDbLine
 10
-1.0
 20
0.166666667
 30
0.0
 11
-1.0
 21
-0.166666667
 31
0.0
  0
ENDBLK
  5
7E
330
7C
100
AcDbEntity
  8
0
100
AcDbBlockEnd
  0
BLOCK
  5
80
330
7F
100
AcDbEntity
  8
0
100
AcDbBlockBegin
  2
EX_BCIR
 70
     0
 10
0.0
 20
0.0
 30
0.0
  3
EX_BCIR
  1

  0
LINE
  5
AC
330
7F
100
AcDbEntity
  8
0
  6
CONTINUOUS
 62
     0
100
AcDbLine
 10
0.0
 20
0.0
 30
0.0
 11
-1.0
 21
0.0
 31
0.0
  0
CIRCLE
  5
AD
330
7F
100
AcDbEntity
  8
0
  6
CONTINUOUS
 62
     0
100
AcDbCircle
 10
0.0
 20
0.0
 30
0.0
 40
0.5
  0
CIRCLE
  5
AE
330
7F
100
AcDbEntity
  8
0
  6
CONTINUOUS
 62
     0
100
AcDbCircle
 10
0.0
 20
0.0
 30
0.0
 40
0.25
  0
ENDBLK
  5
81
330
7F
100
AcDbEntity
  8
0
100
AcDbBlockEnd
  0
BLOCK
  5
83
330
82
100
AcDbEntity
  8
0
100
AcDbBlockBegin
  2
EX_RCIVIL
 70
     0
 10
0.0
 20
0.0
 30
0.0
  3
EX_RCIVIL
  1

  0
LINE
  5
AF
330
82
100
AcDbEntity
  8
0
  6
CONTINUOUS
 62
     0
100
AcDbLine
 10
0.0
 20
0.0
 30
0.0
 11
-1.0
 21
0.0
 31
0.0
  0
LINE
  5
B0
330
82
100
AcDbEntity
  8
0
  6
CONTINUOUS
 62
     0
100
AcDbLine
 10
-1.0
 20
-0.25
 30
0.0
 11
0.0
 21
-0.25
 31
0.0
  0
LINE
  5
B1
330
82
100
AcDbEntity
  8
0
  6
CONTINUOUS
 62
     0
100
AcDbLine
 10
-1.0
 20
-0.125
 30
0.0
 11
0.0
 21
-0.125
 31
0.0
  0
ENDBLK
  5
84
330
82
100
AcDbEntity
  8
0
100
AcDbBlockEnd
  0
BLOCK
  5
86
330
85
100
AcDbEntity
  8
0
100
AcDbBlockBegin
  2
EX_SLANT
 70
     0
 10
0.0
 20
0.0
 30
0.0
  3
EX_SLANT
  1

  0
LINE
  5
B2
330
85
100
AcDbEntity
  8
0
  6
CONTINUOUS
 62
     0
100
AcDbLine
 10
0.0
 20
0.0
 30
0.0
 11
-1.0
 21
0.0
 31
0.0
  0
LINE
  5
B3
330
85
100
AcDbEntity
  8
0
  6
CONTINUOUS
 62
     0
100
AcDbLine
 10
0.707106781
 20
0.707106781
 30
0.0
 11
-0.707106781
 21
-0.707106781
 31
0.0
  0
ENDBLK
  5
87
330
85
100
AcDbEntity
  8
0
100
AcDbBlockEnd
  0
BLOCK
  5
89
330
88
100
AcDbEntity
  8
0
100
AcDbBlockBegin
  2
EX_NONE
 70
     0
 10
0.0
 20
0.0
 30
0.0
  3
EX_NONE
  1

  0
LINE
  5
B4
330
88
100
AcDbEntity
  8
0
  6
CONTINUOUS
 62
     0
100
AcDbLine
 10
0.0
 20
0.0
 30
0.0
 11
-1.0
 21
0.0
 31
0.0
  0
ENDBLK
  5
8A
330
88
100
AcDbEntity
  8
0
100
AcDbBlockEnd
  0
BLOCK
  5
8C
330
8B
100
AcDbEntity
  8
0
100
AcDbBlockBegin
  2
EX_CIVIL
 70
     0
 10
0.0
 20
0.0
 30
0.0
  3
EX_CIVIL
  1

  0
LINE
  5
B5
330
8B
100
AcDbEntity
  8
0
  6
CONTINUOUS
 62
     0
100
AcDbLine
 10
0.0
 20
0.0
 30
0.0
 11
-1.0
 21
0.0
 31
0.0
  0
LINE
  5
B6
330
8B
100
AcDbEntity
  8
0
  6
CONTINUOUS
 62
     0
100
AcDbLine
 10
-1.0
 20
0.25
 30
0.0
 11
0.0
 21
0.25
 31
0.0
  0
LINE
  5
B7
330
8B
100
AcDbEntity
  8
0
  6
CONTINUOUS
 62
     0
100
AcDbLine
 10
-1.0
 20
0.125
 30
0.0
 11
0.0
 21
0.125
 31
0.0
  0
ENDBLK
  5
8D
330
8B
100
AcDbEntity
  8
0
100
AcDbBlockEnd
  0
BLOCK
  5
8F
330
8E
100
AcDbEntity
  8
0
100
AcDbBlockBegin
  2
EX_WCIR
 70
     0
 10
0.0
 20
0.0
 30
0.0
  3
EX_WCIR
  1

  0
LINE
  5
B8
330
8E
100
AcDbEntity
  8
0
  6
CONTINUOUS
 62
     0
100
AcDbLine
 10
0.0
 20
0.0
 30
0.0
 11
-1.0
 21
0.0
 31
0.0
  0
CIRCLE
  5
B9
330
8E
100
AcDbEntity
  8
0
  6
CONTINUOUS
 62
     0
100
AcDbCircle
 10
0.0
 20
0.0
 30
0.0
 40
0.5
  0
ENDBLK
  5
90
330
8E
100
AcDbEntity
  8
0
100
AcDbBlockEnd
  0
BLOCK
  5
92
330
91
100
AcDbEntity
  8
0
100
AcDbBlockBegin
  2
EX_WCIR2
 70
     0
 10
0.0
 20
0.0
 30
0.0
  3
EX_WCIR2
  1

  0
LINE
  5
BA
330
91
100
AcDbEntity
  8
0
  6
CONTINUOUS
 62
     0
100
AcDbLine
 10
-0.5
 20
0.0
 30
0.0
 11
-1.0
 21
0.0
 31
0.0
  0
CIRCLE
  5
BB
330
91
100
AcDbEntity
  8
0
  6
CONTINUOUS
 62
     0
100
AcDbCircle
 10
0.0
 20
0.0
 30
0.0
 40
0.5
  0
ENDBLK
  5
93
330
91
100
AcDbEntity
  8
0
100
AcDbBlockEnd
  0
BLOCK
  5
95
330
94
100
AcDbEntity
  8
0
100
AcDbBlockBegin
  2
EX_WNORM
 70
     0
 10
0.0
 20
0.0
 30
0.0
  3
EX_WNORM
  1

  0
LINE
  5
BC
330
94
100
AcDbEntity
  8
0
  6
CONTINUOUS
 62
     0
100
AcDbLine
 10
-1.0
 20
0.0
 30
0.0
 11
-1.0
 21
0.0
 31
0.0
  0
LINE
  5
BD
330
94
100
AcDbEntity
  8
0
  6
CONTINUOUS
 62
     0
100
AcDbLine
 10
0.0
 20
0.0
 30
0.0
 11
-1.0
 21
0.166666667
 31
0.0
  0
LINE
  5
BE
330
94
100
AcDbEntity
  8
0
  6
CONTINUOUS
 62
     0
100
AcDbLine
 10
0.0
 20
0.0
 30
0.0
 11
-1.0
 21
-0.166666667
 31
0.0
  0
LINE
  5
BF
330
94
100
AcDbEntity
  8
0
  6
CONTINUOUS
 62
     0
100
AcDbLine
 10
-1.0
 20
0.166666667
 30
0.0
 11
-1.0
 21
-0.166666667
 31
0.0
  0
ENDBLK
  5
96
330
94
100
AcDbEntity
  8
0
100
AcDbBlockEnd
  0
BLOCK
  5
98
330
97
100
AcDbEntity
  8
0
100
AcDbBlockBegin
  2
EX_NNORM
 70
     0
 10
0.0
 20
0.0
 30
0.0
  3
EX_NNORM
  1

  0
LINE
  5
C0
330
97
100
AcDbEntity
  8
0
  6
CONTINUOUS
 62
     0
100
AcDbLine
 10
0.0
 20
0.0
 30
0.0
 11
-1.0
 21
0.0
 31
0.0
  0
LINE
  5
C1
330
97
100
AcDbEntity
  8
0
  6
CONTINUOUS
 62
     0
100
AcDbLine
 10
0.0
 20
0.0
 30
0.0
 11
-1.0
 21
0.166666667
 31
0.0
  0
LINE
  5
C2
330
97
100
AcDbEntity
  8
0
  6
CONTINUOUS
 62
     0
100
AcDbLine
 10
0.0
 20
0.0
 30
0.0
 11
-1.0
 21
-0.166666667
 31
0.0
  0
LINE
  5
C3
330
97
100
AcDbEntity
  8
0
  6
CONTINUOUS
 62
     0
100
AcDbLine
 10
-1.0
 20
0.166666667
 30
0.0
 11
-1.0
 21
-0.166666667
 31
0.0
  0
ENDBLK
  5
99
330
97
100
AcDbEntity
  8
0
100
AcDbBlockEnd
  0
BLOCK
  5
9B
330
9A
100
AcDbEntity
  8
0
100
AcDbBlockBegin
  2
EX_BBOX
 70
     0
 10
0.0
 20
0.0
 30
0.0
  3
EX_BBOX
  1

  0
LINE
  5
C4
330
9A
100
AcDbEntity
  8
0
  6
CONTINUOUS
 62
     0
100
AcDbLine
 10
0.0
 20
0.0
 30
0.0
 11
-1.0
 21
0.0
 31
0.0
  0
LINE
  5
C5
330
9A
100
AcDbEntity
  8
0
  6
CONTINUOUS
 62
     0
100
AcDbLine
 10
-0.5
 20
0.5
 30
0.0
 11
0.5
 21
0.5
 31
0.0
  0
LINE
  5
C6
330
9A
100
AcDbEntity
  8
0
  6
CONTINUOUS
 62
     0
100
AcDbLine
 10
0.5
 20
0.5
 30
0.0
 11
0.5
 21
-0.5
 31
0.0
  0
LINE
  5
C7
330
9A
100
AcDbEntity
  8
0
  6
CONTINUOUS
 62
     0
100
AcDbLine
 10
0.5
 20
-0.5
 30
0.0
 11
-0.5
 21
-0.5
 31
0.0
  0
LINE
  5
C8
330
9A
100
AcDbEntity
  8
0
  6
CONTINUOUS
 62
     0
100
AcDbLine
 10
-0.5
 20
-0.5
 30
0.0
 11
-0.5
 21
0.5
 31
0.0
  0
LINE
  5
C9
330
9A
100
AcDbEntity
  8
0
  6
CONTINUOUS
 62
     0
100
AcDbLine
 10
-0.25
 20
0.25
 30
0.0
 11
0.25
 21
0.25
 31
0.0
  0
LINE
  5
CA
330
9A
100
AcDbEntity
  8
0
  6
CONTINUOUS
 62
     0
100
AcDbLine
 10
0.25
 20
0.25
 30
0.0
 11
0.25
 21
-0.25
 31
0.0
  0
LINE
  5
CB
330
9A
100
AcDbEntity
  8
0
  6
CONTINUOUS
 62
     0
100
AcDbLine
 10
0.25
 20
-0.25
 30
0.0
 11
-0.25
 21
-0.25
 31
0.0
  0
LINE
  5
CC
330
9A
100
AcDbEntity
  8
0
  6
CONTINUOUS
 62
     0
100
AcDbLine
 10
-0.25
 20
-0.25
 30
0.0
 11
-0.25
 21
0.25
 31
0.0
  0
ENDBLK
  5
9C
330
9A
100
AcDbEntity
  8
0
100
AcDbBlockEnd
  0
BLOCK
  5
9E
330
9D
100
AcDbEntity
  8
0
100
AcDbBlockBegin
  2
EX_WBOX
 70
     0
 10
0.0
 20
0.0
 30
0.0
  3
EX_WBOX
  1

  0
LINE
  5
CD
330
9D
100
AcDbEntity
  8
0
  6
CONTINUOUS
 62
     0
100
AcDbLine
 10
-0.5
 20
0.0
 30
0.0
 11
-1.0
 21
0.0
 31
0.0
  0
LINE
  5
CE
330
9D
100
AcDbEntity
  8
0
  6
CONTINUOUS
 62
     0
100
AcDbLine
 10
-0.5
 20
0.5
 30
0.0
 11
0.5
 21
0.5
 31
0.0
  0
LINE
  5
CF
330
9D
100
AcDbEntity
  8
0
  6
CONTINUOUS
 62
     0
100
AcDbLine
 10
0.5
 20
0.5
 30
0.0
 11
0.5
 21
-0.5
 31
0.0
  0
LINE
  5
D0
330
9D
100
AcDbEntity
  8
0
  6
CONTINUOUS
 62
     0
100
AcDbLine
 10
0.5
 20
-0.5
 30
0.0
 11
-0.5
 21
-0.5
 31
0.0
  0
LINE
  5
D1
330
9D
100
AcDbEntity
  8
0
  6
CONTINUOUS
 62
     0
100
AcDbLine
 10
-0.5
 20
-0.5
 30
0.0
 11
-0.5
 21
0.5
 31
0.0
  0
ENDBLK
  5
9F
330
9D
100
AcDbEntity
  8
0
100
AcDbBlockEnd
  0
BLOCK
  5
A1
330
A0
100
AcDbEntity
  8
0
100
AcDbBlockBegin
  2
EX_INTEGRAL
 70
     0
 10
0.0
 20
0.0
 30
0.0
  3
EX_INTEGRAL
  1

  0
LINE
  5
D2
330
A0
100
AcDbEntity
  8
0
  6
CONTINUOUS
 62
     0
100
AcDbLine
 10
0.0
 20
0.0
 30
0.0
 11
-1.0
 21
0.0
 31
0.0
  0
ARC
  5
D3
330
A0
100
AcDbEntity
  8
0
  6
CONTINUOUS
 62
     0
100
AcDbCircle
 10
0.542115
 20
0.164992
 30
0.0
 40
0.56667
100
AcDbArc
 50
73.07249033629006
 51
196.9275130221199
  0
ARC
  5
D4
330
A0
100
AcDbEntity
  8
0
  6
CONTINUOUS
 62
     0
100
AcDbCircle
 10
-0.542115
 20
-0.164992
 30
0.0
 40
0.56667
100
AcDbArc
 50
253.0724869220464
 51
16.9275130559125
  0
ENDBLK
  5
A2
330
A0
100
AcDbEntity
  8
0
100
AcDbBlockEnd
  0
BLOCK
  5
3C9
330
3C8
100
AcDbEntity
  8
0
100
AcDbBlockBegin
  2
*D15
 70
     1
 10
0.0
 20
0.0
 30
0.0
  3
*D15
  1

  0
LINE
  5
3CB
330
3C8
100
AcDbEntity
  8
LAY-20
  6
CONTINUOUS
 62
     4
100
AcDbLine
 10
966.6172177814701
 20
340.43678093043
 30
0.0
 11
1190.9183976445
 21
340.43678093043
 31
0.0
  0
LINE
  5
3CC
330
3C8
100
AcDbEntity
  8
LAY-20
  6
CONTINUOUS
 62
     4
100
AcDbLine
 10
1140.9183976445
 20
287.43678093043
 30
0.0
 11
1190.9183976445
 21
287.43678093043
 31
0.0
  0
LINE
  5
3CD
330
3C8
100
AcDbEntity
  8
LAY-20
  6
CONTINUOUS
 62
     4
100
AcDbLine
 10
1183.4183976445
 20
327.93678093043
 30
0.0
 11
1183.4183976445
 21
299.93678093043
 31
0.0
  0
INSERT
  5
3CE
330
3C8
100
AcDbEntity
  8
LAY-20
 62
     4
100
AcDbBlockReference
  2
EX_BNORM
 10
1183.4183976445
 20
340.43678093043
 30
0.0
 41
12.5
 42
12.5
 43
12.5
 50
90.0
  0
INSERT
  5
3CF
330
3C8
100
AcDbEntity
  8
LAY-20
 62
     4
100
AcDbBlockReference
  2
EX_BNORM
 10
1183.4183976445
 20
287.43678093043
 30
0.0
 41
12.5
 42
12.5
 43
12.5
 50
270.0
  0
MTEXT
  5
3D0
330
3C8
100
AcDbEntity
  8
LAY-20
 62
     7
100
AcDbMText
 10
1170.9183976445
 20
313.93678093043
 30
0.0
 40
15.590552
 41
0.0
 71
     5
 72
     1
  1
53
  7
EXCADDIM1
 11
0.0
 21
1.0
 31
0.0
  0
POINT
  5
3D1
330
3C8
100
AcDbEntity
  8
DEFPOINTS
 62
     0
100
AcDbPoint
 10
959.1172177814701
 20
340.43678093043
 30
0.0
  0
POINT
  5
3D2
330
3C8
100
AcDbEntity
  8
DEFPOINTS
 62
     0
100
AcDbPoint
 10
1133.4183976445
 20
287.43678093043
 30
0.0
  0
POINT
  5
3D3
330
3C8
100
AcDbEntity
  8
DEFPOINTS
 62
     0
100
AcDbPoint
 10
1183.4183976445
 20
287.43678093043
 30
0.0
  0
ENDBLK
  5
3CA
330
3C8
100
AcDbEntity
  8
0
100
AcDbBlockEnd
  0
BLOCK
  5
3D6
330
3D5
100
AcDbEntity
  8
0
100
AcDbBlockBegin
  2
*D16
 70
     1
 10
0.0
 20
0.0
 30
0.0
  3
*D16
  1

  0
LINE
  5
3D8
330
3D5
100
AcDbEntity
  8
LAY-20
  6
CONTINUOUS
 62
     4
100
AcDbLine
 10
290.00000000005
 20
355.43678093043
 30
0.0
 11
290.00000000005
 21
477.4999999999901
 31
0.0
  0
LINE
  5
3D9
330
3D5
100
AcDbEntity
  8
LAY-20
  6
CONTINUOUS
 62
     4
100
AcDbLine
 10
960.0
 20
355.43678093043
 30
0.0
 11
960.0
 21
477.4999999999901
 31
0.0
  0
LINE
  5
3DA
330
3D5
100
AcDbEntity
  8
LAY-20
  6
CONTINUOUS
 62
     4
100
AcDbLine
 10
305.00000000005
 20
469.9999999999901
 30
0.0
 11
945.0
 21
469.9999999999901
 31
0.0
  0
INSERT
  5
3DB
330
3D5
100
AcDbEntity
  8
LAY-20
 62
     4
100
AcDbBlockReference
  2
EX_BNORM
 10
290.00000000005
 20
469.9999999999901
 30
0.0
 41
15.0
 42
15.0
 43
15.0
 50
180.0
  0
INSERT
  5
3DC
330
3D5
100
AcDbEntity
  8
LAY-20
 62
     4
100
AcDbBlockReference
  2
EX_BNORM
 10
960.0
 20
469.9999999999901
 30
0.0
 41
15.0
 42
15.0
 43
15.0
  0
MTEXT
  5
3DD
330
3D5
100
AcDbEntity
  8
LAY-20
 62
     7
100
AcDbMText
 10
625.000000000025
 20
482.4999999999901
 30
0.0
 40
15.590552
 41
0.0
 71
     5
 72
     1
  1
%%c670
  7
EXCADDIM1
  0
POINT
  5
3DE
330
3D5
100
AcDbEntity
  8
DEFPOINTS
 62
     0
100
AcDbPoint
 10
290.00000000005
 20
347.93678093043
 30
0.0
  0
POINT
  5
3DF
330
3D5
100
AcDbEntity
  8
DEFPOINTS
 62
     0
100
AcDbPoint
 10
960.0
 20
347.93678093043
 30
0.0
  0
POINT
  5
3E0
330
3D5
100
AcDbEntity
  8
DEFPOINTS
 62
     0
100
AcDbPoint
 10
960.0
 20
469.9999999999901
 30
0.0
  0
ENDBLK
  5
3D7
330
3D5
100
AcDbEntity
  8
0
100
AcDbBlockEnd
  0
BLOCK
  5
3E3
330
3E2
100
AcDbEntity
  8
0
100
AcDbBlockBegin
  2
*D17
 70
     1
 10
0.0
 20
0.0
 30
0.0
  3
*D17
  1

  0
LINE
  5
3E5
330
3E2
100
AcDbEntity
  8
LAY-20
  6
CONTINUOUS
 62
     4
100
AcDbLine
 10
301.00000000005
 20
356.71438170489
 30
0.0
 11
301.00000000005
 21
442.4999999999901
 31
0.0
  0
LINE
  5
3E6
330
3E2
100
AcDbEntity
  8
LAY-20
  6
CONTINUOUS
 62
     4
100
AcDbLine
 10
949.0
 20
356.71438170489
 30
0.0
 11
949.0
 21
442.4999999999901
 31
0.0
  0
LINE
  5
3E7
330
3E2
100
AcDbEntity
  8
LAY-20
  6
CONTINUOUS
 62
     4
100
AcDbLine
 10
316.00000000005
 20
434.9999999999901
 30
0.0
 11
934.0
 21
434.9999999999901
 31
0.0
  0
INSERT
  5
3E8
330
3E2
100
AcDbEntity
  8
LAY-20
 62
     4
100
AcDbBlockReference
  2
EX_BNORM
 10
301.00000000005
 20
434.9999999999901
 30
0.0
 41
15.0
 42
15.0
 43
15.0
 50
180.0
  0
INSERT
  5
3E9
330
3E2
100
AcDbEntity
  8
LAY-20
 62
     4
100
AcDbBlockReference
  2
EX_BNORM
 10
949.0
 20
434.9999999999901
 30
0.0
 41
15.0
 42
15.0
 43
15.0
  0
MTEXT
  5
3EA
330
3E2
100
AcDbEntity
  8
LAY-20
 62
     7
100
AcDbMText
 10
625.000000000025
 20
447.4999999999901
 30
0.0
 40
15.590552
 41
0.0
 71
     5
 72
     1
  1
%%c648
  7
EXCADDIM1
  0
POINT
  5
3EB
330
3E2
100
AcDbEntity
  8
DEFPOINTS
 62
     0
100
AcDbPoint
 10
301.00000000005
 20
349.21438170489
 30
0.0
  0
POINT
  5
3EC
330
3E2
100
AcDbEntity
  8
DEFPOINTS
 62
     0
100
AcDbPoint
 10
949.0
 20
349.21438170489
 30
0.0
  0
POINT
  5
3ED
330
3E2
100
AcDbEntity
  8
DEFPOINTS
 62
     0
100
AcDbPoint
 10
949.0
 20
434.9999999999901
 30
0.0
  0
ENDBLK
  5
3E4
330
3E2
100
AcDbEntity
  8
0
100
AcDbBlockEnd
  0
BLOCK
  5
3F0
330
3EF
100
AcDbEntity
  8
0
100
AcDbBlockBegin
  2
*D18
 70
     1
 10
0.0
 20
0.0
 30
0.0
  3
*D18
  1

  0
LINE
  5
3F2
330
3EF
100
AcDbEntity
  8
LAY-20
  6
CONTINUOUS
 62
     4
100
AcDbLine
 10
325.0
 20
279.93678093043
 30
0.0
 11
325.0
 21
229.93678093043
 31
0.0
  0
LINE
  5
3F3
330
3EF
100
AcDbEntity
  8
LAY-20
  6
CONTINUOUS
 62
     4
100
AcDbLine
 10
925.0
 20
279.93678093043
 30
0.0
 11
925.0
 21
229.93678093043
 31
0.0
  0
LINE
  5
3F4
330
3EF
100
AcDbEntity
  8
LAY-20
  6
CONTINUOUS
 62
     4
100
AcDbLine
 10
340.0
 20
237.43678093043
 30
0.0
 11
910.0
 21
237.43678093043
 31
0.0
  0
INSERT
  5
3F5
330
3EF
100
AcDbEntity
  8
LAY-20
 62
     4
100
AcDbBlockReference
  2
EX_BNORM
 10
325.0
 20
237.43678093043
 30
0.0
 41
15.0
 42
15.0
 43
15.0
 50
180.0
  0
INSERT
  5
3F6
330
3EF
100
AcDbEntity
  8
LAY-20
 62
     4
100
AcDbBlockReference
  2
EX_BNORM
 10
925.0
 20
237.43678093043
 30
0.0
 41
15.0
 42
15.0
 43
15.0
  0
MTEXT
  5
3F7
330
3EF
100
AcDbEntity
  8
LAY-20
 62
     7
100
AcDbMText
 10
625.0
 20
249.93678093043
 30
0.0
 40
15.590552
 41
0.0
 71
     5
 72
     1
  1
%%c600
  7
EXCADDIM1
  0
POINT
  5
3F8
330
3EF
100
AcDbEntity
  8
DEFPOINTS
 62
     0
100
AcDbPoint
 10
325.0
 20
287.43678093043
 30
0.0
  0
POINT
  5
3F9
330
3EF
100
AcDbEntity
  8
DEFPOINTS
 62
     0
100
AcDbPoint
 10
925.0
 20
287.43678093043
 30
0.0
  0
POINT
  5
3FA
330
3EF
100
AcDbEntity
  8
DEFPOINTS
 62
     0
100
AcDbPoint
 10
925.0
 20
237.43678093043
 30
0.0
  0
ENDBLK
  5
3F1
330
3EF
100
AcDbEntity
  8
0
100
AcDbBlockEnd
  0
BLOCK
  5
3FD
330
3FC
100
AcDbEntity
  8
0
100
AcDbBlockBegin
  2
*D19
 70
     1
 10
0.0
 20
0.0
 30
0.0
  3
*D19
  1

  0
LINE
  5
3FF
330
3FC
100
AcDbEntity
  8
LAY-20
  6
CONTINUOUS
 62
     4
100
AcDbLine
 10
257.0
 20
279.93678093043
 30
0.0
 11
257.0
 21
194.93678093043
 31
0.0
  0
LINE
  5
400
330
3FC
100
AcDbEntity
  8
LAY-20
  6
CONTINUOUS
 62
     4
100
AcDbLine
 10
272.0
 20
202.43678093043
 30
0.0
 11
978.0000000000001
 21
202.43678093043
 31
0.0
  0
INSERT
  5
401
330
3FC
100
AcDbEntity
  8
LAY-20
 62
     4
100
AcDbBlockReference
  2
EX_BNORM
 10
257.0
 20
202.43678093043
 30
0.0
 41
15.0
 42
15.0
 43
15.0
 50
180.0
  0
INSERT
  5
402
330
3FC
100
AcDbEntity
  8
LAY-20
 62
     4
100
AcDbBlockReference
  2
EX_NONE
 10
993.0000000000001
 20
202.43678093043
 30
0.0
 41
15.0
 42
15.0
 43
15.0
  0
MTEXT
  5
403
330
3FC
100
AcDbEntity
  8
LAY-20
 62
     7
100
AcDbMText
 10
625.0
 20
214.93678093043
 30
0.0
 40
15.590552
 41
0.0
 71
     5
 72
     1
  1
□736
  7
EXCADDIM1
  0
POINT
  5
404
330
3FC
100
AcDbEntity
  8
DEFPOINTS
 62
     0
100
AcDbPoint
 10
257.0
 20
287.43678093043
 30
0.0
  0
POINT
  5
405
330
3FC
100
AcDbEntity
  8
DEFPOINTS
 62
     0
100
AcDbPoint
 10
993.0000000000001
 20
202.43678093043
 30
0.0
  0
POINT
  5
406
330
3FC
100
AcDbEntity
  8
DEFPOINTS
 62
     0
100
AcDbPoint
 10
993.0000000000001
 20
202.43678093043
 30
0.0
  0
ENDBLK
  5
3FE
330
3FC
100
AcDbEntity
  8
0
100
AcDbBlockEnd
  0
ENDSEC
  0
SECTION
  2
ENTITIES
  0
CIRCLE
  5
D5
330
1F
100
AcDbEntity
  8
LAY-10
  6
CONTINUOUS
 62
     7
100
AcDbCircle
 10
625.0000000000038
 20
949.9999999999877
 30
0.0
 40
323.9999999999999
  0
ARC
  5
D6
330
1F
100
AcDbEntity
  8
LAY-10
  6
CONTINUOUS
 62
     7
100
AcDbCircle
 10
625.0000000000038
 20
949.9999999999877
 30
0.0
 40
313.0
100
AcDbArc
 50
158.1407009829718
 51
179.3592990170282
  0
ARC
  5
D7
330
1F
100
AcDbEntity
  8
LAY-10
  6
CONTINUOUS
 62
     7
100
AcDbCircle
 10
625.0000000000038
 20
949.9999999999877
 30
0.0
 40
286.0
100
AcDbArc
 50
158.2011896296744
 51
179.2988103703257
  0
ARC
  5
D8
330
1F
100
AcDbEntity
  8
LAY-10
  6
CONTINUOUS
 62
     7
100
AcDbCircle
 10
625.0000000000038
 20
949.9999999999877
 30
0.0
 40
279.0
100
AcDbArc
 50
158.2187831126976
 51
179.2812168873025
  0
ARC
  5
D9
330
1F
100
AcDbEntity
  8
LAY-10
  6
CONTINUOUS
 62
     7
100
AcDbCircle
 10
625.0000000000038
 20
949.9999999999877
 30
0.0
 40
252.0000000000001
100
AcDbArc
 50
158.2958003020015
 51
179.2041996979986
  0
ARC
  5
DA
330
1F
100
AcDbEntity
  8
LAY-10
  6
CONTINUOUS
 62
     7
100
AcDbCircle
 10
625.0000000000038
 20
949.9999999999877
 30
0.0
 40
245.0000000000001
100
AcDbArc
 50
158.3185389789732
 51
168.9400066234979
  0
ARC
  5
DB
330
1F
100
AcDbEntity
  8
LAY-10
  6
CONTINUOUS
 62
     7
100
AcDbCircle
 10
625.0000000000038
 20
949.9999999999877
 30
0.0
 40
218.0000000000001
100
AcDbArc
 50
158.419925891922
 51
167.5494849669233
  0
ARC
  5
DC
330
1F
100
AcDbEntity
  8
LAY-10
  6
CONTINUOUS
 62
     7
100
AcDbCircle
 10
625.0000000000038
 20
949.9999999999877
 30
0.0
 40
211.0000000000001
100
AcDbArc
 50
158.4504475150766
 51
179.0495524849235
  0
ARC
  5
DD
330
1F
100
AcDbEntity
  8
LAY-10
  6
CONTINUOUS
 62
     7
100
AcDbCircle
 10
625.0000000000038
 20
949.9999999999877
 30
0.0
 40
184.0
100
AcDbArc
 50
158.5899311055827
 51
178.9100688944175
  0
ARC
  5
DE
330
1F
100
AcDbEntity
  8
LAY-10
  6
CONTINUOUS
 62
     7
100
AcDbCircle
 10
625.0000000000038
 20
949.9999999999877
 30
0.0
 40
177.0
100
AcDbArc
 50
158.6330412383804
 51
178.8669587616197
  0
ARC
  5
DF
330
1F
100
AcDbEntity
  8
LAY-10
  6
CONTINUOUS
 62
     7
100
AcDbCircle
 10
625.0000000000038
 20
949.9999999999877
 30
0.0
 40
150.0
100
AcDbArc
 50
158.8370228631373
 51
178.6629771368628
  0
LINE
  5
E0
330
1F
100
AcDbEntity
  8
LAY-10
  6
CONTINUOUS
 62
     7
100
AcDbLine
 10
543.0747291734758
 20
953.4999999999877
 30
0.0
 11
516.0562071524994
 21
953.4999999999877
 31
0.0
  0
LINE
  5
E1
330
1F
100
AcDbEntity
  8
LAY-10
  6
CONTINUOUS
 62
     7
100
AcDbLine
 10
547.9715270746524
 20
978.1178654735334
 30
0.0
 11
523.009667580767
 21
988.4574062179524
 31
0.0
  0
LINE
  5
E2
330
1F
100
AcDbEntity
  8
LAY-10
  6
CONTINUOUS
 62
     7
100
AcDbLine
 10
359.4508483109473
 20
1056.205687405242
 30
0.0
 11
334.4863143106929
 21
1066.546335966471
 31
0.0
  0
LINE
  5
E3
330
1F
100
AcDbEntity
  8
LAY-10
  6
CONTINUOUS
 62
     7
100
AcDbLine
 10
390.8654222822091
 20
1043.193344810172
 30
0.0
 11
365.918501515672
 21
1053.526697731119
 31
0.0
  0
LINE
  5
E4
330
1F
100
AcDbEntity
  8
LAY-10
  6
CONTINUOUS
 62
     7
100
AcDbLine
 10
422.2808291966996
 20
1030.180657198721
 30
0.0
 11
397.3332206883117
 21
1040.51429499167
 31
0.0
  0
LINE
  5
E5
330
1F
100
AcDbEntity
  8
LAY-10
  6
CONTINUOUS
 62
     7
100
AcDbLine
 10
453.6975309291159
 20
1017.167433256124
 30
0.0
 11
428.7488472498009
 21
1027.501516399453
 31
0.0
  0
LINE
  5
E6
330
1F
100
AcDbEntity
  8
LAY-10
  6
CONTINUOUS
 62
     7
100
AcDbLine
 10
441.0332910551517
 20
953.4999999999877
 30
0.0
 11
414.0290304330986
 21
953.4999999999877
 31
0.0
  0
LINE
  5
E7
330
1F
100
AcDbEntity
  8
LAY-10
  6
CONTINUOUS
 62
     7
100
AcDbLine
 10
402.0000000000039
 20
959.9999999999875
 30
0.0
 11
388.0000000000038
 21
959.9999999999877
 31
0.0
  0
LINE
  5
E8
330
1F
100
AcDbEntity
  8
LAY-10
  6
CONTINUOUS
 62
     7
100
AcDbLine
 10
373.0243067278155
 20
953.4999999999877
 30
0.0
 11
346.021954268803
 21
953.4999999999877
 31
0.0
  0
LINE
  5
E9
330
1F
100
AcDbEntity
  8
LAY-10
  6
CONTINUOUS
 62
     7
100
AcDbLine
 10
339.0214168858131
 20
953.4999999999877
 30
0.0
 11
312.019569301853
 21
953.4999999999877
 31
0.0
  0
CIRCLE
  5
EA
330
1F
100
AcDbEntity
  8
LAY-10
  6
CONTINUOUS
 62
     7
100
AcDbCircle
 10
625.0000000000038
 20
949.9999999999877
 30
0.0
 40
75.0
  0
ARC
  5
EB
330
1F
100
AcDbEntity
  8
LAY-10
  6
CONTINUOUS
 62
     7
100
AcDbCircle
 10
625.0000000000038
 20
949.9999999999877
 30
0.0
 40
82.0
100
AcDbArc
 50
159.9462947381313
 51
177.5537052618687
  0
ARC
  5
EC
330
1F
100
AcDbEntity
  8
LAY-10
  6
CONTINUOUS
 62
     7
100
AcDbCircle
 10
625.0000000000038
 20
949.9999999999877
 30
0.0
 40
109.0000000000001
100
AcDbArc
 50
159.3400890354995
 51
178.1599109645006
  0
ARC
  5
ED
330
1F
100
AcDbEntity
  8
LAY-10
  6
CONTINUOUS
 62
     7
100
AcDbCircle
 10
625.0000000000038
 20
949.9999999999877
 30
0.0
 40
116.0000000000001
100
AcDbArc
 50
159.2290143775492
 51
178.2709856224507
  0
ARC
  5
EE
330
1F
100
AcDbEntity
  8
LAY-10
  6
CONTINUOUS
 62
     7
100
AcDbCircle
 10
625.0000000000038
 20
949.9999999999877
 30
0.0
 40
143.0
100
AcDbArc
 50
158.9024843042648
 51
178.5975156957351
  0
LINE
  5
EF
330
1F
100
AcDbEntity
  8
LAY-10
  6
CONTINUOUS
 62
     7
100
AcDbLine
 10
475.040838892721
 20
953.4999999999877
 30
0.0
 11
448.0346079031308
 21
953.4999999999877
 31
0.0
  0
LINE
  5
F0
330
1F
100
AcDbEntity
  8
LAY-10
  6
CONTINUOUS
 62
     7
100
AcDbLine
 10
485.1164083271449
 20
1004.153308123323
 30
0.0
 11
460.1659042655905
 21
1014.488145293663
 31
0.0
  0
LINE
  5
F1
330
1F
100
AcDbEntity
  8
LAY-10
  6
CONTINUOUS
 62
     7
100
AcDbLine
 10
516.5393757552571
 20
991.1374888445906
 30
0.0
 11
491.58541252896
 21
1001.473758847882
 31
0.0
  0
LINE
  5
F2
330
1F
100
AcDbEntity
  8
LAY-10
  6
CONTINUOUS
 62
     7
100
AcDbLine
 10
509.0528137469516
 20
953.4999999999877
 30
0.0
 11
482.0428385844247
 21
953.4999999999877
 31
0.0
  0
LINE
  5
F3
330
1F
100
AcDbEntity
  8
LAY-10
  6
CONTINUOUS
 62
     7
100
AcDbLine
 10
362.1296323375034
 20
1062.672844132821
 30
0.0
 11
337.165098337249
 21
1073.01349269405
 31
0.0
  0
ARC
  5
F4
330
1F
100
AcDbEntity
  8
LAY-10
  6
CONTINUOUS
 62
     7
100
AcDbCircle
 10
625.0000000000038
 20
949.9999999999872
 30
0.0
 40
313.0
100
AcDbArc
 50
135.6407009829717
 51
156.859299017028
  0
LINE
  5
F5
330
1F
100
AcDbEntity
  8
LAY-10
  6
CONTINUOUS
 62
     7
100
AcDbLine
 10
540.5380846068184
 20
1029.512167924867
 30
0.0
 11
521.4391480097153
 21
1048.61110452197
 31
0.0
  0
LINE
  5
F6
330
1F
100
AcDbEntity
  8
LAY-10
  6
CONTINUOUS
 62
     7
100
AcDbLine
 10
519.2181597818127
 20
997.604645572169
 30
0.0
 11
494.2641965555155
 21
1007.940915575461
 31
0.0
  0
LINE
  5
F7
330
1F
100
AcDbEntity
  8
LAY-10
  6
CONTINUOUS
 62
     7
100
AcDbLine
 10
420.3077308716863
 20
1149.74252166
 30
0.0
 11
401.2145413405025
 21
1168.835711191183
 31
0.0
  0
ARC
  5
F8
330
1F
100
AcDbEntity
  8
LAY-10
  6
CONTINUOUS
 62
     7
100
AcDbCircle
 10
625.0000000000038
 20
949.9999999999872
 30
0.0
 40
286.0
100
AcDbArc
 50
135.7011896296742
 51
156.7988103703256
  0
LINE
  5
F9
330
1F
100
AcDbEntity
  8
LAY-10
  6
CONTINUOUS
 62
     7
100
AcDbLine
 10
492.4410188583745
 20
1077.609233673312
 30
0.0
 11
473.3461230515917
 21
1096.704129480094
 31
0.0
  0
LINE
  5
FA
330
1F
100
AcDbEntity
  8
LAY-10
  6
CONTINUOUS
 62
     7
100
AcDbLine
 10
424.9596132232557
 20
1036.647813926299
 30
0.0
 11
400.0120047148678
 21
1046.981451719249
 31
0.0
  0
ARC
  5
FB
330
1F
100
AcDbEntity
  8
LAY-10
  6
CONTINUOUS
 62
     7
100
AcDbCircle
 10
625.0000000000038
 20
949.9999999999872
 30
0.0
 40
218.0000000000001
100
AcDbArc
 50
135.9199258919219
 51
156.5800741080779
  0
ARC
  5
FC
330
1F
100
AcDbEntity
  8
LAY-10
  6
CONTINUOUS
 62
     7
100
AcDbCircle
 10
625.0000000000038
 20
949.9999999999872
 30
0.0
 40
211.0000000000001
100
AcDbArc
 50
135.9504475150766
 51
156.5495524849234
  0
ARC
  5
FD
330
1F
100
AcDbEntity
  8
LAY-10
  6
CONTINUOUS
 62
     7
100
AcDbCircle
 10
625.0000000000038
 20
949.9999999999872
 30
0.0
 40
279.0
100
AcDbArc
 50
135.7187831126974
 51
156.7812168873024
  0
ARC
  5
FE
330
1F
100
AcDbEntity
  8
LAY-10
  6
CONTINUOUS
 62
     7
100
AcDbCircle
 10
625.0000000000038
 20
949.9999999999872
 30
0.0
 40
252.0000000000001
100
AcDbArc
 50
135.7958003020015
 51
156.7041996979984
  0
ARC
  5
FF
330
1F
100
AcDbEntity
  8
LAY-10
  6
CONTINUOUS
 62
     7
100
AcDbCircle
 10
625.0000000000038
 20
949.9999999999872
 30
0.0
 40
245.0000000000001
100
AcDbArc
 50
135.8185389789731
 51
156.6814610210268
  0
LINE
  5
100
330
1F
100
AcDbEntity
  8
LAY-10
  6
CONTINUOUS
 62
     7
100
AcDbLine
 10
444.3514048589051
 20
1125.69884767278
 30
0.0
 11
425.2578583271486
 21
1144.792394204537
 31
0.0
  0
LINE
  5
101
330
1F
100
AcDbEntity
  8
LAY-10
  6
CONTINUOUS
 62
     7
100
AcDbLine
 10
468.3957163532716
 20
1101.654536178414
 30
0.0
 11
449.3016434466911
 21
1120.748609084995
 31
0.0
  0
LINE
  5
102
330
1F
100
AcDbEntity
  8
LAY-10
  6
CONTINUOUS
 62
     7
100
AcDbLine
 10
393.5442063087652
 20
1049.660501537751
 30
0.0
 11
368.5972855422281
 21
1059.993854458698
 31
0.0
  0
ARC
  5
103
330
1F
100
AcDbEntity
  8
LAY-10
  6
CONTINUOUS
 62
     7
100
AcDbCircle
 10
625.0000000000038
 20
949.9999999999872
 30
0.0
 40
150.0
100
AcDbArc
 50
136.3370228631373
 51
156.1629771368627
  0
ARC
  5
104
330
1F
100
AcDbEntity
  8
LAY-10
  6
CONTINUOUS
 62
     7
100
AcDbCircle
 10
625.0000000000038
 20
949.9999999999872
 30
0.0
 40
143.0
100
AcDbArc
 50
136.4024843042647
 51
156.0975156957352
  0
ARC
  5
105
330
1F
100
AcDbEntity
  8
LAY-10
  6
CONTINUOUS
 62
     7
100
AcDbCircle
 10
625.0000000000038
 20
949.9999999999872
 30
0.0
 40
184.0
100
AcDbArc
 50
136.0899311055826
 51
156.4100688944172
  0
ARC
  5
106
330
1F
100
AcDbEntity
  8
LAY-10
  6
CONTINUOUS
 62
     7
100
AcDbCircle
 10
625.0000000000038
 20
949.9999999999872
 30
0.0
 40
177.0
100
AcDbArc
 50
136.1330412383803
 51
156.3669587616197
  0
LINE
  5
107
330
1F
100
AcDbEntity
  8
LAY-10
  6
CONTINUOUS
 62
     7
100
AcDbLine
 10
516.4879865458454
 20
1053.56226598584
 30
0.0
 11
497.391697478816
 21
1072.658555052869
 31
0.0
  0
LINE
  5
108
330
1F
100
AcDbEntity
  8
LAY-10
  6
CONTINUOUS
 62
     7
100
AcDbLine
 10
487.7951923537004
 20
1010.620464850901
 30
0.0
 11
462.8446882921464
 21
1020.955302021242
 31
0.0
  0
LINE
  5
109
330
1F
100
AcDbEntity
  8
LAY-10
  6
CONTINUOUS
 62
     7
100
AcDbLine
 10
456.3763149556719
 20
1023.634589983703
 30
0.0
 11
431.427631276357
 21
1033.968673127031
 31
0.0
  0
ARC
  5
10A
330
1F
100
AcDbEntity
  8
LAY-10
  6
CONTINUOUS
 62
     7
100
AcDbCircle
 10
625.0000000000038
 20
949.9999999999872
 30
0.0
 40
116.0000000000001
100
AcDbArc
 50
136.7290143775493
 51
155.7709856224506
  0
ARC
  5
10B
330
1F
100
AcDbEntity
  8
LAY-10
  6
CONTINUOUS
 62
     7
100
AcDbCircle
 10
625.0000000000038
 20
949.9999999999872
 30
0.0
 40
109.0000000000001
100
AcDbArc
 50
136.8400890354994
 51
155.6599109645004
  0
ARC
  5
10C
330
1F
100
AcDbEntity
  8
LAY-10
  6
CONTINUOUS
 62
     7
100
AcDbCircle
 10
625.0000000000038
 20
949.9999999999872
 30
0.0
 40
82.0
100
AcDbArc
 50
137.4462947381312
 51
155.0537052618688
  0
LINE
  5
10D
330
1F
100
AcDbEntity
  8
LAY-10
  6
CONTINUOUS
 62
     7
100
AcDbLine
 10
564.5952117138688
 20
1005.455040817817
 30
0.0
 11
545.490231575198
 21
1024.560020956487
 31
0.0
  0
LINE
  5
10E
330
1F
100
AcDbEntity
  8
LAY-10
  6
CONTINUOUS
 62
     7
100
AcDbLine
 10
550.6503111012086
 20
984.5850222011122
 30
0.0
 11
525.6884516073225
 21
994.9245629455314
 31
0.0
  0
LINE
  5
10F
330
1F
100
AcDbEntity
  8
LAY-10
  6
CONTINUOUS
 62
     7
100
AcDbLine
 10
521.4377340141516
 20
1058.512013454146
 30
0.0
 11
502.3414449471222
 21
1077.608302521176
 31
0.0
  0
ARC
  5
110
330
1F
100
AcDbEntity
  8
LAY-10
  6
CONTINUOUS
 62
     7
100
AcDbCircle
 10
625.0000000000042
 20
949.9999999999877
 30
0.0
 40
177.0
100
AcDbArc
 50
113.6330412383804
 51
133.8669587616197
  0
ARC
  5
111
330
1F
100
AcDbEntity
  8
LAY-10
  6
CONTINUOUS
 62
     7
100
AcDbCircle
 10
625.0000000000042
 20
949.9999999999877
 30
0.0
 40
184.0
100
AcDbArc
 50
113.5899311055828
 51
133.9100688944175
  0
LINE
  5
112
330
1F
100
AcDbEntity
  8
LAY-10
  6
CONTINUOUS
 62
     7
100
AcDbLine
 10
525.3394984622402
 20
1181.455793691227
 30
0.0
 11
515.0061455412936
 21
1206.402714457763
 31
0.0
  0
ARC
  5
113
330
1F
100
AcDbEntity
  8
LAY-10
  6
CONTINUOUS
 62
     7
100
AcDbCircle
 10
625.0000000000042
 20
949.9999999999877
 30
0.0
 40
245.0000000000001
100
AcDbArc
 50
113.3185389789731
 51
134.1814610210269
  0
ARC
  5
114
330
1F
100
AcDbEntity
  8
LAY-10
  6
CONTINUOUS
 62
     7
100
AcDbCircle
 10
625.0000000000042
 20
949.9999999999877
 30
0.0
 40
252.0000000000001
100
AcDbArc
 50
113.2958003020015
 51
134.2041996979987
  0
ARC
  5
115
330
1F
100
AcDbEntity
  8
LAY-10
  6
CONTINUOUS
 62
     7
100
AcDbCircle
 10
625.0000000000042
 20
949.9999999999877
 30
0.0
 40
211.0000000000001
100
AcDbArc
 50
113.4504475150767
 51
134.0495524849236
  0
ARC
  5
116
330
1F
100
AcDbEntity
  8
LAY-10
  6
CONTINUOUS
 62
     7
100
AcDbCircle
 10
625.0000000000042
 20
949.9999999999877
 30
0.0
 40
218.0000000000001
100
AcDbArc
 50
113.4199258919221
 51
134.0800741080781
  0
LINE
  5
117
330
1F
100
AcDbEntity
  8
LAY-10
  6
CONTINUOUS
 62
     7
100
AcDbLine
 10
518.7943125947496
 20
1215.549151689044
 30
0.0
 11
508.4536640335202
 21
1240.513685689298
 31
0.0
  0
ARC
  5
118
330
1F
100
AcDbEntity
  8
LAY-10
  6
CONTINUOUS
 62
     7
100
AcDbCircle
 10
625.0000000000038
 20
949.9999999999877
 30
0.0
 40
313.0
100
AcDbArc
 50
90.64070098297182
 51
111.8592990170282
  0
ARC
  5
119
330
1F
100
AcDbEntity
  8
LAY-10
  6
CONTINUOUS
 62
     7
100
AcDbCircle
 10
625.0000000000042
 20
949.9999999999877
 30
0.0
 40
143.0
100
AcDbArc
 50
113.9024843042648
 51
133.5975156957353
  0
ARC
  5
11A
330
1F
100
AcDbEntity
  8
LAY-10
  6
CONTINUOUS
 62
     7
100
AcDbCircle
 10
625.0000000000042
 20
949.9999999999877
 30
0.0
 40
150.0
100
AcDbArc
 50
113.8370228631372
 51
133.6629771368628
  0
LINE
  5
11B
330
1F
100
AcDbEntity
  8
LAY-10
  6
CONTINUOUS
 62
     7
100
AcDbLine
 10
577.3953544278226
 20
1055.781840218179
 30
0.0
 11
567.0590844245309
 21
1080.735803444476
 31
0.0
  0
LINE
  5
11C
330
1F
100
AcDbEntity
  8
LAY-10
  6
CONTINUOUS
 62
     7
100
AcDbLine
 10
621.5000000000038
 20
1065.94718625304
 30
0.0
 11
621.5000000000038
 21
1092.957161415567
 31
0.0
  0
LINE
  5
11D
330
1F
100
AcDbEntity
  8
LAY-10
  6
CONTINUOUS
 62
     7
100
AcDbLine
 10
583.8625111554007
 20
1058.460624244735
 30
0.0
 11
573.5262411521092
 21
1083.414587471032
 31
0.0
  0
LINE
  5
11E
330
1F
100
AcDbEntity
  8
LAY-10
  6
CONTINUOUS
 62
     7
100
AcDbLine
 10
621.5000000000038
 20
1235.978583114178
 30
0.0
 11
621.5000000000038
 21
1262.980430698138
 31
0.0
  0
ARC
  5
11F
330
1F
100
AcDbEntity
  8
LAY-10
  6
CONTINUOUS
 62
     7
100
AcDbCircle
 10
625.0000000000038
 20
949.9999999999877
 30
0.0
 40
286.0
100
AcDbArc
 50
90.70118962967432
 51
111.7988103703256
  0
LINE
  5
120
330
1F
100
AcDbEntity
  8
LAY-10
  6
CONTINUOUS
 62
     7
100
AcDbLine
 10
538.3521860736921
 20
1150.040386776736
 30
0.0
 11
528.018548280743
 21
1174.987995285124
 31
0.0
  0
LINE
  5
121
330
1F
100
AcDbEntity
  8
LAY-10
  6
CONTINUOUS
 62
     7
100
AcDbLine
 10
621.5000000000038
 20
1133.96670894484
 30
0.0
 11
621.5000000000038
 21
1160.970969566893
 31
0.0
  0
LINE
  5
122
330
1F
100
AcDbEntity
  8
LAY-10
  6
CONTINUOUS
 62
     7
100
AcDbLine
 10
544.8193428012702
 20
1152.719170803292
 30
0.0
 11
534.485705008322
 21
1177.66677931168
 31
0.0
  0
ARC
  5
123
330
1F
100
AcDbEntity
  8
LAY-10
  6
CONTINUOUS
 62
     7
100
AcDbCircle
 10
625.0000000000038
 20
949.9999999999877
 30
0.0
 40
218.0000000000001
100
AcDbArc
 50
90.91992589192193
 51
111.580074108078
  0
ARC
  5
124
330
1F
100
AcDbEntity
  8
LAY-10
  6
CONTINUOUS
 62
     7
100
AcDbCircle
 10
625.0000000000038
 20
949.9999999999877
 30
0.0
 40
211.0000000000001
100
AcDbArc
 50
90.9504475150765
 51
111.5495524849234
  0
ARC
  5
125
330
1F
100
AcDbEntity
  8
LAY-10
  6
CONTINUOUS
 62
     7
100
AcDbCircle
 10
625.0000000000038
 20
949.9999999999877
 30
0.0
 40
279.0
100
AcDbArc
 50
90.71878311269754
 51
111.7812168873025
  0
ARC
  5
126
330
1F
100
AcDbEntity
  8
LAY-10
  6
CONTINUOUS
 62
     7
100
AcDbCircle
 10
625.0000000000038
 20
949.9999999999877
 30
0.0
 40
252.0000000000001
100
AcDbArc
 50
90.79580030200144
 51
111.7041996979986
  0
ARC
  5
127
330
1F
100
AcDbEntity
  8
LAY-10
  6
CONTINUOUS
 62
     7
100
AcDbCircle
 10
625.0000000000038
 20
949.9999999999877
 30
0.0
 40
245.0000000000001
100
AcDbArc
 50
90.81853897897318
 51
111.6814610210269
  0
LINE
  5
128
330
1F
100
AcDbEntity
  8
LAY-10
  6
CONTINUOUS
 62
     7
100
AcDbLine
 10
621.5000000000038
 20
1201.975693272176
 30
0.0
 11
621.5000000000038
 21
1228.978045731188
 31
0.0
  0
LINE
  5
129
330
1F
100
AcDbEntity
  8
LAY-10
  6
CONTINUOUS
 62
     7
100
AcDbLine
 10
621.5000000000038
 20
1167.97190185892
 30
0.0
 11
621.5000000000038
 21
1194.974998724347
 31
0.0
  0
LINE
  5
12A
330
1F
100
AcDbEntity
  8
LAY-10
  6
CONTINUOUS
 62
     7
100
AcDbLine
 10
531.8066551898194
 20
1184.134577717783
 30
0.0
 11
521.4733022688725
 21
1209.081498484319
 31
0.0
  0
ARC
  5
12B
330
1F
100
AcDbEntity
  8
LAY-10
  6
CONTINUOUS
 62
     7
100
AcDbCircle
 10
625.0000000000038
 20
949.9999999999877
 30
0.0
 40
150.0
100
AcDbArc
 50
91.33702286313725
 51
111.1629771368628
  0
ARC
  5
12C
330
1F
100
AcDbEntity
  8
LAY-10
  6
CONTINUOUS
 62
     7
100
AcDbCircle
 10
625.0000000000038
 20
949.9999999999877
 30
0.0
 40
143.0
100
AcDbArc
 50
91.40248430426485
 51
111.0975156957353
  0
ARC
  5
12D
330
1F
100
AcDbEntity
  8
LAY-10
  6
CONTINUOUS
 62
     7
100
AcDbCircle
 10
625.0000000000038
 20
949.9999999999877
 30
0.0
 40
184.0
100
AcDbArc
 50
91.08993110558262
 51
111.4100688944173
  0
ARC
  5
12E
330
1F
100
AcDbEntity
  8
LAY-10
  6
CONTINUOUS
 62
     7
100
AcDbCircle
 10
625.0000000000038
 20
949.9999999999877
 30
0.0
 40
177.0
100
AcDbArc
 50
91.13304123838032
 51
111.3669587616197
  0
LINE
  5
12F
330
1F
100
AcDbEntity
  8
LAY-10
  6
CONTINUOUS
 62
     7
100
AcDbLine
 10
621.5000000000038
 20
1099.959161107271
 30
0.0
 11
621.5000000000038
 21
1126.965392096861
 31
0.0
  0
LINE
  5
130
330
1F
100
AcDbEntity
  8
LAY-10
  6
CONTINUOUS
 62
     7
100
AcDbLine
 10
564.3795351490905
 20
1087.204807646291
 30
0.0
 11
554.0446979787495
 21
1112.155311707845
 31
0.0
  0
LINE
  5
131
330
1F
100
AcDbEntity
  8
LAY-10
  6
CONTINUOUS
 62
     7
100
AcDbLine
 10
570.8466918766687
 20
1089.883591672847
 30
0.0
 11
560.5118547063281
 21
1114.834095734401
 31
0.0
  0
LINE
  5
132
330
1F
100
AcDbEntity
  8
LAY-10
  6
CONTINUOUS
 62
     7
100
AcDbLine
 10
551.365410016289
 20
1118.62368504432
 30
0.0
 11
541.0313268729607
 21
1143.572368723635
 31
0.0
  0
LINE
  5
133
330
1F
100
AcDbEntity
  8
LAY-10
  6
CONTINUOUS
 62
     7
100
AcDbLine
 10
557.8325667438676
 20
1121.302469070876
 30
0.0
 11
547.4984836005389
 21
1146.251152750191
 31
0.0
  0
ARC
  5
134
330
1F
100
AcDbEntity
  8
LAY-10
  6
CONTINUOUS
 62
     7
100
AcDbCircle
 10
625.0000000000042
 20
949.9999999999877
 30
0.0
 40
82.0
100
AcDbArc
 50
114.9462947381311
 51
132.5537052618687
  0
ARC
  5
135
330
1F
100
AcDbEntity
  8
LAY-10
  6
CONTINUOUS
 62
     7
100
AcDbCircle
 10
625.0000000000042
 20
949.9999999999877
 30
0.0
 40
109.0000000000001
100
AcDbArc
 50
114.3400890354995
 51
133.1599109645005
  0
LINE
  5
136
330
1F
100
AcDbEntity
  8
LAY-10
  6
CONTINUOUS
 62
     7
100
AcDbLine
 10
590.4149777988792
 20
1024.349688898783
 30
0.0
 11
580.0754370544602
 21
1049.311548392669
 31
0.0
  0
ARC
  5
137
330
1F
100
AcDbEntity
  8
LAY-10
  6
CONTINUOUS
 62
     7
100
AcDbCircle
 10
625.0000000000038
 20
949.9999999999877
 30
0.0
 40
116.0000000000001
100
AcDbArc
 50
91.72901437754929
 51
110.7709856224508
  0
ARC
  5
138
330
1F
100
AcDbEntity
  8
LAY-10
  6
CONTINUOUS
 62
     7
100
AcDbCircle
 10
625.0000000000038
 20
949.9999999999877
 30
0.0
 40
109.0000000000001
100
AcDbArc
 50
91.84008903549957
 51
110.6599109645006
  0
ARC
  5
139
330
1F
100
AcDbEntity
  8
LAY-10
  6
CONTINUOUS
 62
     7
100
AcDbCircle
 10
625.0000000000038
 20
949.9999999999877
 30
0.0
 40
82.0
100
AcDbArc
 50
92.4462947381313
 51
110.0537052618689
  0
LINE
  5
13A
330
1F
100
AcDbEntity
  8
LAY-10
  6
CONTINUOUS
 62
     7
100
AcDbLine
 10
621.5000000000038
 20
1031.925270826516
 30
0.0
 11
621.5000000000038
 21
1058.943792847492
 31
0.0
  0
LINE
  5
13B
330
1F
100
AcDbEntity
  8
LAY-10
  6
CONTINUOUS
 62
     7
100
AcDbLine
 10
596.8821345264578
 20
1027.028472925339
 30
0.0
 11
586.5425937820387
 21
1051.990332419225
 31
0.0
  0
LINE
  5
13C
330
1F
100
AcDbEntity
  8
LAY-10
  6
CONTINUOUS
 62
     7
100
AcDbLine
 10
569.544959182175
 20
1010.404788286123
 30
0.0
 11
550.4399790435042
 21
1029.509768424793
 31
0.0
  0
ARC
  5
13D
330
1F
100
AcDbEntity
  8
LAY-10
  6
CONTINUOUS
 62
     7
100
AcDbCircle
 10
625.0000000000042
 20
949.9999999999877
 30
0.0
 40
116.0000000000001
100
AcDbArc
 50
114.2290143775493
 51
133.2709856224508
  0
LINE
  5
13E
330
1F
100
AcDbEntity
  8
LAY-10
  6
CONTINUOUS
 62
     7
100
AcDbLine
 10
545.4878320751241
 20
1034.461915393173
 30
0.0
 11
526.388895478021
 21
1053.560851990276
 31
0.0
  0
ARC
  5
13F
330
1F
100
AcDbEntity
  8
LAY-10
  6
CONTINUOUS
 62
     7
100
AcDbCircle
 10
625.0000000000042
 20
949.9999999999877
 30
0.0
 40
313.0
100
AcDbArc
 50
113.1407009829719
 51
134.3592990170283
  0
ARC
  5
140
330
1F
100
AcDbEntity
  8
LAY-10
  6
CONTINUOUS
 62
     7
100
AcDbCircle
 10
625.0000000000042
 20
949.9999999999877
 30
0.0
 40
279.0
100
AcDbArc
 50
113.2187831126975
 51
134.2812168873025
  0
ARC
  5
141
330
1F
100
AcDbEntity
  8
LAY-10
  6
CONTINUOUS
 62
     7
100
AcDbCircle
 10
625.0000000000042
 20
949.9999999999877
 30
0.0
 40
286.0
100
AcDbArc
 50
113.2011896296744
 51
134.2988103703258
  0
LINE
  5
142
330
1F
100
AcDbEntity
  8
LAY-10
  6
CONTINUOUS
 62
     7
100
AcDbLine
 10
512.3271558671706
 20
1212.870367662488
 30
0.0
 11
501.9865073059415
 21
1237.834901662742
 31
0.0
  0
LINE
  5
143
330
1F
100
AcDbEntity
  8
LAY-10
  6
CONTINUOUS
 62
     7
100
AcDbLine
 10
425.2574783399922
 20
1154.692269128305
 30
0.0
 11
406.1642888088085
 21
1173.785458659489
 31
0.0
  0
LINE
  5
144
330
1F
100
AcDbEntity
  8
LAY-10
  6
CONTINUOUS
 62
     7
100
AcDbLine
 10
473.3454638215778
 20
1106.60428364672
 30
0.0
 11
454.2513909149969
 21
1125.698356553301
 31
0.0
  0
LINE
  5
145
330
1F
100
AcDbEntity
  8
LAY-10
  6
CONTINUOUS
 62
     7
100
AcDbLine
 10
497.3907663266801
 20
1082.558981141617
 30
0.0
 11
478.2958705198979
 21
1101.6538769484
 31
0.0
  0
LINE
  5
146
330
1F
100
AcDbEntity
  8
LAY-10
  6
CONTINUOUS
 62
     7
100
AcDbLine
 10
449.3011523272114
 20
1130.648595141086
 30
0.0
 11
430.2076057954544
 21
1149.742141672843
 31
0.0
  0
ARC
  5
147
330
1F
100
AcDbEntity
  8
LAY-10
  6
CONTINUOUS
 62
     7
100
AcDbCircle
 10
625.0000000000038
 20
949.9999999999877
 30
0.0
 40
109.0000000000001
100
AcDbArc
 50
249.3400890354993
 51
268.1599109645007
  0
ARC
  5
148
330
1F
100
AcDbEntity
  8
LAY-10
  6
CONTINUOUS
 62
     7
100
AcDbCircle
 10
625.0000000000038
 20
949.9999999999877
 30
0.0
 40
116.0000000000001
100
AcDbArc
 50
249.2290143775491
 51
268.270985622451
  0
LINE
  5
149
330
1F
100
AcDbEntity
  8
LAY-10
  6
CONTINUOUS
 62
     7
100
AcDbLine
 10
583.8625111554007
 20
841.539375755241
 30
0.0
 11
573.5262411521092
 21
816.585412528944
 31
0.0
  0
LINE
  5
14A
330
1F
100
AcDbEntity
  8
LAY-10
  6
CONTINUOUS
 62
     7
100
AcDbLine
 10
577.3953544278226
 20
844.2181597817967
 30
0.0
 11
567.0590844245309
 21
819.2641965554994
 31
0.0
  0
ARC
  5
14B
330
1F
100
AcDbEntity
  8
LAY-10
  6
CONTINUOUS
 62
     7
100
AcDbCircle
 10
625.0000000000042
 20
949.9999999999877
 30
0.0
 40
150.0
100
AcDbArc
 50
226.3370228631373
 51
246.1629771368629
  0
ARC
  5
14C
330
1F
100
AcDbEntity
  8
LAY-10
  6
CONTINUOUS
 62
     7
100
AcDbCircle
 10
625.0000000000042
 20
949.9999999999877
 30
0.0
 40
143.0
100
AcDbArc
 50
226.4024843042648
 51
246.0975156957352
  0
LINE
  5
14D
330
1F
100
AcDbEntity
  8
LAY-10
  6
CONTINUOUS
 62
     7
100
AcDbLine
 10
521.4377340141516
 20
841.4879865458295
 30
0.0
 11
502.3414449471222
 21
822.3916974787996
 31
0.0
  0
LINE
  5
14E
330
1F
100
AcDbEntity
  8
LAY-10
  6
CONTINUOUS
 62
     7
100
AcDbLine
 10
516.4879865458454
 20
846.4377340141357
 30
0.0
 11
497.391697478816
 21
827.3414449471059
 31
0.0
  0
ARC
  5
14F
330
1F
100
AcDbEntity
  8
LAY-10
  6
CONTINUOUS
 62
     7
100
AcDbCircle
 10
625.0000000000038
 20
949.9999999999881
 30
0.0
 40
177.0
100
AcDbArc
 50
203.6330412383804
 51
223.8669587616199
  0
ARC
  5
150
330
1F
100
AcDbEntity
  8
LAY-10
  6
CONTINUOUS
 62
     7
100
AcDbCircle
 10
625.0000000000038
 20
949.9999999999881
 30
0.0
 40
184.0
100
AcDbArc
 50
203.5899311055827
 51
223.9100688944173
  0
LINE
  5
151
330
1F
100
AcDbEntity
  8
LAY-10
  6
CONTINUOUS
 62
     7
100
AcDbLine
 10
393.5442063087652
 20
850.3394984622241
 30
0.0
 11
368.5972855422281
 21
840.0061455412776
 31
0.0
  0
ARC
  5
152
330
1F
100
AcDbEntity
  8
LAY-10
  6
CONTINUOUS
 62
     7
100
AcDbCircle
 10
625.0000000000038
 20
949.9999999999881
 30
0.0
 40
245.0000000000001
100
AcDbArc
 50
203.3185389789733
 51
224.1814610210269
  0
ARC
  5
153
330
1F
100
AcDbEntity
  8
LAY-10
  6
CONTINUOUS
 62
     7
100
AcDbCircle
 10
625.0000000000038
 20
949.9999999999881
 30
0.0
 40
252.0000000000001
100
AcDbArc
 50
203.2958003020016
 51
224.2041996979985
  0
ARC
  5
154
330
1F
100
AcDbEntity
  8
LAY-10
  6
CONTINUOUS
 62
     7
100
AcDbCircle
 10
625.0000000000038
 20
949.9999999999881
 30
0.0
 40
211.0000000000001
100
AcDbArc
 50
203.4504475150767
 51
224.0495524849236
  0
ARC
  5
155
330
1F
100
AcDbEntity
  8
LAY-10
  6
CONTINUOUS
 62
     7
100
AcDbCircle
 10
625.0000000000038
 20
949.9999999999881
 30
0.0
 40
218.0000000000001
100
AcDbArc
 50
203.419925891922
 51
224.0800741080781
  0
LINE
  5
156
330
1F
100
AcDbEntity
  8
LAY-10
  6
CONTINUOUS
 62
     7
100
AcDbLine
 10
359.4508483109473
 20
843.7943125947339
 30
0.0
 11
334.4863143106929
 21
833.453664033504
 31
0.0
  0
ARC
  5
157
330
1F
100
AcDbEntity
  8
LAY-10
  6
CONTINUOUS
 62
     7
100
AcDbCircle
 10
625.0000000000038
 20
949.9999999999877
 30
0.0
 40
313.0
100
AcDbArc
 50
180.6407009829718
 51
201.8592990170281
  0
ARC
  5
158
330
1F
100
AcDbEntity
  8
LAY-10
  6
CONTINUOUS
 62
     7
100
AcDbCircle
 10
625.0000000000038
 20
949.9999999999881
 30
0.0
 40
143.0
100
AcDbArc
 50
203.9024843042649
 51
223.5975156957352
  0
ARC
  5
159
330
1F
100
AcDbEntity
  8
LAY-10
  6
CONTINUOUS
 62
     7
100
AcDbCircle
 10
625.0000000000038
 20
949.9999999999881
 30
0.0
 40
150.0
100
AcDbArc
 50
203.8370228631373
 51
223.6629771368628
  0
LINE
  5
15A
330
1F
100
AcDbEntity
  8
LAY-10
  6
CONTINUOUS
 62
     7
100
AcDbLine
 10
519.2181597818127
 20
902.3953544278066
 30
0.0
 11
494.2641965555155
 21
892.0590844245148
 31
0.0
  0
LINE
  5
15B
330
1F
100
AcDbEntity
  8
LAY-10
  6
CONTINUOUS
 62
     7
100
AcDbLine
 10
509.0528137469516
 20
946.4999999999878
 30
0.0
 11
482.0428385844247
 21
946.4999999999878
 31
0.0
  0
LINE
  5
15C
330
1F
100
AcDbEntity
  8
LAY-10
  6
CONTINUOUS
 62
     7
100
AcDbLine
 10
516.5393757552571
 20
908.8625111553849
 30
0.0
 11
491.58541252896
 21
898.5262411520932
 31
0.0
  0
LINE
  5
15D
330
1F
100
AcDbEntity
  8
LAY-10
  6
CONTINUOUS
 62
     7
100
AcDbLine
 10
339.0214168858131
 20
946.4999999999878
 30
0.0
 11
312.019569301853
 21
946.4999999999878
 31
0.0
  0
ARC
  5
15E
330
1F
100
AcDbEntity
  8
LAY-10
  6
CONTINUOUS
 62
     7
100
AcDbCircle
 10
625.0000000000038
 20
949.9999999999877
 30
0.0
 40
286.0
100
AcDbArc
 50
180.7011896296742
 51
201.7988103703257
  0
LINE
  5
15F
330
1F
100
AcDbEntity
  8
LAY-10
  6
CONTINUOUS
 62
     7
100
AcDbLine
 10
424.9596132232557
 20
863.3521860736761
 30
0.0
 11
400.0120047148678
 21
853.0185482807269
 31
0.0
  0
LINE
  5
160
330
1F
100
AcDbEntity
  8
LAY-10
  6
CONTINUOUS
 62
     7
100
AcDbLine
 10
441.0332910551517
 20
946.4999999999878
 30
0.0
 11
414.0290304330986
 21
946.4999999999878
 31
0.0
  0
LINE
  5
161
330
1F
100
AcDbEntity
  8
LAY-10
  6
CONTINUOUS
 62
     7
100
AcDbLine
 10
422.2808291966996
 20
869.8193428012544
 30
0.0
 11
397.3332206883117
 21
859.4857050083058
 31
0.0
  0
ARC
  5
162
330
1F
100
AcDbEntity
  8
LAY-10
  6
CONTINUOUS
 62
     7
100
AcDbCircle
 10
625.0000000000038
 20
949.9999999999877
 30
0.0
 40
218.0000000000001
100
AcDbArc
 50
192.4505150330768
 51
201.580074108078
  0
ARC
  5
163
330
1F
100
AcDbEntity
  8
LAY-10
  6
CONTINUOUS
 62
     7
100
AcDbCircle
 10
625.0000000000038
 20
949.9999999999877
 30
0.0
 40
211.0000000000001
100
AcDbArc
 50
180.9504475150765
 51
201.5495524849235
  0
ARC
  5
164
330
1F
100
AcDbEntity
  8
LAY-10
  6
CONTINUOUS
 62
     7
100
AcDbCircle
 10
625.0000000000038
 20
949.9999999999877
 30
0.0
 40
279.0
100
AcDbArc
 50
180.7187831126975
 51
201.7812168873025
  0
ARC
  5
165
330
1F
100
AcDbEntity
  8
LAY-10
  6
CONTINUOUS
 62
     7
100
AcDbCircle
 10
625.0000000000038
 20
949.9999999999877
 30
0.0
 40
252.0000000000001
100
AcDbArc
 50
180.7958003020015
 51
201.7041996979986
  0
ARC
  5
166
330
1F
100
AcDbEntity
  8
LAY-10
  6
CONTINUOUS
 62
     7
100
AcDbCircle
 10
625.0000000000038
 20
949.9999999999877
 30
0.0
 40
245.0000000000001
100
AcDbArc
 50
191.0599933765023
 51
201.6814610210269
  0
LINE
  5
167
330
1F
100
AcDbEntity
  8
LAY-10
  6
CONTINUOUS
 62
     7
100
AcDbLine
 10
373.0243067278155
 20
946.4999999999878
 30
0.0
 11
346.021954268803
 21
946.4999999999878
 31
0.0
  0
LINE
  5
168
330
1F
100
AcDbEntity
  8
LAY-10
  6
CONTINUOUS
 62
     7
100
AcDbLine
 10
402.0000000000039
 20
939.9999999999877
 30
0.0
 11
388.0000000000038
 21
939.9999999999877
 31
0.0
  0
LINE
  5
169
330
1F
100
AcDbEntity
  8
LAY-10
  6
CONTINUOUS
 62
     7
100
AcDbLine
 10
390.8654222822091
 20
856.8066551898033
 30
0.0
 11
365.918501515672
 21
846.4733022688565
 31
0.0
  0
ARC
  5
16A
330
1F
100
AcDbEntity
  8
LAY-10
  6
CONTINUOUS
 62
     7
100
AcDbCircle
 10
625.0000000000038
 20
949.9999999999877
 30
0.0
 40
150.0
100
AcDbArc
 50
181.3370228631372
 51
201.1629771368628
  0
ARC
  5
16B
330
1F
100
AcDbEntity
  8
LAY-10
  6
CONTINUOUS
 62
     7
100
AcDbCircle
 10
625.0000000000038
 20
949.9999999999877
 30
0.0
 40
143.0
100
AcDbArc
 50
181.4024843042648
 51
201.0975156957354
  0
ARC
  5
16C
330
1F
100
AcDbEntity
  8
LAY-10
  6
CONTINUOUS
 62
     7
100
AcDbCircle
 10
625.0000000000038
 20
949.9999999999877
 30
0.0
 40
184.0
100
AcDbArc
 50
181.0899311055827
 51
201.4100688944173
  0
ARC
  5
16D
330
1F
100
AcDbEntity
  8
LAY-10
  6
CONTINUOUS
 62
     7
100
AcDbCircle
 10
625.0000000000038
 20
949.9999999999877
 30
0.0
 40
177.0
100
AcDbArc
 50
181.1330412383803
 51
201.3669587616197
  0
LINE
  5
16E
330
1F
100
AcDbEntity
  8
LAY-10
  6
CONTINUOUS
 62
     7
100
AcDbLine
 10
475.040838892721
 20
946.4999999999878
 30
0.0
 11
448.0346079031308
 21
946.4999999999878
 31
0.0
  0
LINE
  5
16F
330
1F
100
AcDbEntity
  8
LAY-10
  6
CONTINUOUS
 62
     7
100
AcDbLine
 10
487.7951923537004
 20
889.3795351490746
 30
0.0
 11
462.8446882921464
 21
879.0446979787336
 31
0.0
  0
LINE
  5
170
330
1F
100
AcDbEntity
  8
LAY-10
  6
CONTINUOUS
 62
     7
100
AcDbLine
 10
485.1164083271449
 20
895.8466918766527
 30
0.0
 11
460.1659042655905
 21
885.511854706312
 31
0.0
  0
LINE
  5
171
330
1F
100
AcDbEntity
  8
LAY-10
  6
CONTINUOUS
 62
     7
100
AcDbLine
 10
456.3763149556719
 20
876.365410016273
 30
0.0
 11
431.427631276357
 21
866.0313268729448
 31
0.0
  0
LINE
  5
172
330
1F
100
AcDbEntity
  8
LAY-10
  6
CONTINUOUS
 62
     7
100
AcDbLine
 10
453.6975309291159
 20
882.832566743852
 30
0.0
 11
428.7488472498009
 21
872.4984836005228
 31
0.0
  0
LINE
  5
173
330
1F
100
AcDbEntity
  8
LAY-10
  6
CONTINUOUS
 62
     7
100
AcDbLine
 10
596.8821345264578
 20
872.9715270746365
 30
0.0
 11
586.5425937820387
 21
848.009667580751
 31
0.0
  0
ARC
  5
174
330
1F
100
AcDbEntity
  8
LAY-10
  6
CONTINUOUS
 62
     7
100
AcDbCircle
 10
625.0000000000038
 20
949.9999999999881
 30
0.0
 40
82.0
100
AcDbArc
 50
204.9462947381312
 51
222.5537052618688
  0
ARC
  5
175
330
1F
100
AcDbEntity
  8
LAY-10
  6
CONTINUOUS
 62
     7
100
AcDbCircle
 10
625.0000000000038
 20
949.9999999999881
 30
0.0
 40
109.0000000000001
100
AcDbArc
 50
204.3400890354996
 51
223.1599109645005
  0
LINE
  5
176
330
1F
100
AcDbEntity
  8
LAY-10
  6
CONTINUOUS
 62
     7
100
AcDbLine
 10
550.6503111012086
 20
915.4149777988632
 30
0.0
 11
525.6884516073225
 21
905.0754370544441
 31
0.0
  0
ARC
  5
177
330
1F
100
AcDbEntity
  8
LAY-10
  6
CONTINUOUS
 62
     7
100
AcDbCircle
 10
625.0000000000038
 20
949.9999999999877
 30
0.0
 40
116.0000000000001
100
AcDbArc
 50
181.7290143775494
 51
200.7709856224508
  0
ARC
  5
178
330
1F
100
AcDbEntity
  8
LAY-10
  6
CONTINUOUS
 62
     7
100
AcDbCircle
 10
625.0000000000038
 20
949.9999999999877
 30
0.0
 40
109.0000000000001
100
AcDbArc
 50
181.8400890354995
 51
200.6599109645007
  0
ARC
  5
179
330
1F
100
AcDbEntity
  8
LAY-10
  6
CONTINUOUS
 62
     7
100
AcDbCircle
 10
625.0000000000038
 20
949.9999999999877
 30
0.0
 40
82.0
100
AcDbArc
 50
182.4462947381312
 51
200.0537052618689
  0
LINE
  5
17A
330
1F
100
AcDbEntity
  8
LAY-10
  6
CONTINUOUS
 62
     7
100
AcDbLine
 10
543.0747291734758
 20
946.4999999999878
 30
0.0
 11
516.0562071524994
 21
946.4999999999878
 31
0.0
  0
LINE
  5
17B
330
1F
100
AcDbEntity
  8
LAY-10
  6
CONTINUOUS
 62
     7
100
AcDbLine
 10
547.9715270746524
 20
921.8821345264422
 30
0.0
 11
523.009667580767
 21
911.5425937820231
 31
0.0
  0
ARC
  5
17C
330
1F
100
AcDbEntity
  8
LAY-10
  6
CONTINUOUS
 62
     7
100
AcDbCircle
 10
625.0000000000042
 20
949.9999999999877
 30
0.0
 40
116.0000000000001
100
AcDbArc
 50
226.7290143775494
 51
245.7709856224507
  0
ARC
  5
17D
330
1F
100
AcDbEntity
  8
LAY-10
  6
CONTINUOUS
 62
     7
100
AcDbCircle
 10
625.0000000000042
 20
949.9999999999877
 30
0.0
 40
109.0000000000001
100
AcDbArc
 50
226.8400890354996
 51
245.6599109645006
  0
LINE
  5
17E
330
1F
100
AcDbEntity
  8
LAY-10
  6
CONTINUOUS
 62
     7
100
AcDbLine
 10
564.5952117138688
 20
894.5449591821588
 30
0.0
 11
545.490231575198
 21
875.4399790434883
 31
0.0
  0
ARC
  5
17F
330
1F
100
AcDbEntity
  8
LAY-10
  6
CONTINUOUS
 62
     7
100
AcDbCircle
 10
625.0000000000038
 20
949.9999999999881
 30
0.0
 40
116.0000000000001
100
AcDbArc
 50
204.2290143775492
 51
223.2709856224508
  0
LINE
  5
180
330
1F
100
AcDbEntity
  8
LAY-10
  6
CONTINUOUS
 62
     7
100
AcDbLine
 10
545.4878320751241
 20
865.5380846068024
 30
0.0
 11
526.388895478021
 21
846.4391480096992
 31
0.0
  0
LINE
  5
181
330
1F
100
AcDbEntity
  8
LAY-10
  6
CONTINUOUS
 62
     7
100
AcDbLine
 10
540.5380846068184
 20
870.4878320751084
 30
0.0
 11
521.4391480097153
 21
851.3888954780049
 31
0.0
  0
LINE
  5
182
330
1F
100
AcDbEntity
  8
LAY-10
  6
CONTINUOUS
 62
     7
100
AcDbLine
 10
569.544959182175
 20
889.5952117138529
 30
0.0
 11
550.4399790435042
 21
870.4902315751821
 31
0.0
  0
LINE
  5
183
330
1F
100
AcDbEntity
  8
LAY-10
  6
CONTINUOUS
 62
     7
100
AcDbLine
 10
590.4149777988792
 20
875.6503111011926
 30
0.0
 11
580.0754370544602
 21
850.6884516073065
 31
0.0
  0
ARC
  5
184
330
1F
100
AcDbEntity
  8
LAY-10
  6
CONTINUOUS
 62
     7
100
AcDbCircle
 10
625.0000000000042
 20
949.9999999999877
 30
0.0
 40
82.0
100
AcDbArc
 50
227.4462947381313
 51
245.0537052618689
  0
ARC
  5
185
330
1F
100
AcDbEntity
  8
LAY-10
  6
CONTINUOUS
 62
     7
100
AcDbCircle
 10
625.0000000000038
 20
949.9999999999877
 30
0.0
 40
82.0
100
AcDbArc
 50
249.9462947381313
 51
267.5537052618687
  0
LINE
  5
186
330
1F
100
AcDbEntity
  8
LAY-10
  6
CONTINUOUS
 62
     7
100
AcDbLine
 10
621.5000000000038
 20
868.0747291734599
 30
0.0
 11
621.5000000000038
 21
841.0562071524834
 31
0.0
  0
LINE
  5
187
330
1F
100
AcDbEntity
  8
LAY-10
  6
CONTINUOUS
 62
     7
100
AcDbLine
 10
512.3271558671706
 20
687.1296323374872
 30
0.0
 11
501.9865073059415
 21
662.1650983372327
 31
0.0
  0
ARC
  5
188
330
1F
100
AcDbEntity
  8
LAY-10
  6
CONTINUOUS
 62
     7
100
AcDbCircle
 10
625.0000000000042
 20
949.9999999999877
 30
0.0
 40
286.0
100
AcDbArc
 50
225.7011896296743
 51
246.7988103703255
  0
ARC
  5
189
330
1F
100
AcDbEntity
  8
LAY-10
  6
CONTINUOUS
 62
     7
100
AcDbCircle
 10
625.0000000000042
 20
949.9999999999877
 30
0.0
 40
279.0
100
AcDbArc
 50
225.7187831126976
 51
246.7812168873026
  0
ARC
  5
18A
330
1F
100
AcDbEntity
  8
LAY-10
  6
CONTINUOUS
 62
     7
100
AcDbCircle
 10
625.0000000000042
 20
949.9999999999877
 30
0.0
 40
218.0000000000001
100
AcDbArc
 50
225.9199258919219
 51
246.5800741080781
  0
ARC
  5
18B
330
1F
100
AcDbEntity
  8
LAY-10
  6
CONTINUOUS
 62
     7
100
AcDbCircle
 10
625.0000000000042
 20
949.9999999999877
 30
0.0
 40
211.0000000000001
100
AcDbArc
 50
225.9504475150765
 51
246.5495524849234
  0
ARC
  5
18C
330
1F
100
AcDbEntity
  8
LAY-10
  6
CONTINUOUS
 62
     7
100
AcDbCircle
 10
625.0000000000042
 20
949.9999999999877
 30
0.0
 40
252.0000000000001
100
AcDbArc
 50
225.7958003020014
 51
246.7041996979984
  0
ARC
  5
18D
330
1F
100
AcDbEntity
  8
LAY-10
  6
CONTINUOUS
 62
     7
100
AcDbCircle
 10
625.0000000000042
 20
949.9999999999877
 30
0.0
 40
245.0000000000001
100
AcDbArc
 50
225.818538978973
 51
246.6814610210269
  0
ARC
  5
18E
330
1F
100
AcDbEntity
  8
LAY-10
  6
CONTINUOUS
 62
     7
100
AcDbCircle
 10
625.0000000000042
 20
949.9999999999877
 30
0.0
 40
184.0
100
AcDbArc
 50
226.0899311055826
 51
246.4100688944173
  0
ARC
  5
18F
330
1F
100
AcDbEntity
  8
LAY-10
  6
CONTINUOUS
 62
     7
100
AcDbCircle
 10
625.0000000000042
 20
949.9999999999877
 30
0.0
 40
177.0
100
AcDbArc
 50
226.1330412383803
 51
246.3669587616196
  0
ARC
  5
190
330
1F
100
AcDbEntity
  8
LAY-10
  6
CONTINUOUS
 62
     7
100
AcDbCircle
 10
625.0000000000038
 20
949.9999999999881
 30
0.0
 40
313.0
100
AcDbArc
 50
203.1407009829719
 51
224.3592990170283
  0
ARC
  5
191
330
1F
100
AcDbEntity
  8
LAY-10
  6
CONTINUOUS
 62
     7
100
AcDbCircle
 10
625.0000000000042
 20
949.9999999999877
 30
0.0
 40
313.0
100
AcDbArc
 50
225.6407009829717
 51
246.859299017028
  0
LINE
  5
192
330
1F
100
AcDbEntity
  8
LAY-10
  6
CONTINUOUS
 62
     7
100
AcDbLine
 10
425.2574783399922
 20
745.3077308716701
 30
0.0
 11
406.1642888088085
 21
726.2145413404866
 31
0.0
  0
ARC
  5
193
330
1F
100
AcDbEntity
  8
LAY-10
  6
CONTINUOUS
 62
     7
100
AcDbCircle
 10
625.0000000000038
 20
949.9999999999881
 30
0.0
 40
279.0
100
AcDbArc
 50
203.2187831126976
 51
224.2812168873025
  0
ARC
  5
194
330
1F
100
AcDbEntity
  8
LAY-10
  6
CONTINUOUS
 62
     7
100
AcDbCircle
 10
625.0000000000038
 20
949.9999999999881
 30
0.0
 40
286.0
100
AcDbArc
 50
203.2011896296745
 51
224.2988103703258
  0
LINE
  5
195
330
1F
100
AcDbEntity
  8
LAY-10
  6
CONTINUOUS
 62
     7
100
AcDbLine
 10
362.1296323375034
 20
837.3271558671544
 30
0.0
 11
337.165098337249
 21
826.9865073059256
 31
0.0
  0
LINE
  5
196
330
1F
100
AcDbEntity
  8
LAY-10
  6
CONTINUOUS
 62
     7
100
AcDbLine
 10
420.3077308716863
 20
750.2574783399759
 30
0.0
 11
401.2145413405025
 21
731.1642888087922
 31
0.0
  0
LINE
  5
197
330
1F
100
AcDbEntity
  8
LAY-10
  6
CONTINUOUS
 62
     7
100
AcDbLine
 10
473.3454638215778
 20
793.3957163532554
 30
0.0
 11
454.2513909149969
 21
774.301643446675
 31
0.0
  0
LINE
  5
198
330
1F
100
AcDbEntity
  8
LAY-10
  6
CONTINUOUS
 62
     7
100
AcDbLine
 10
468.3957163532716
 20
798.3454638215616
 30
0.0
 11
449.3016434466911
 21
779.2513909149807
 31
0.0
  0
LINE
  5
199
330
1F
100
AcDbEntity
  8
LAY-10
  6
CONTINUOUS
 62
     7
100
AcDbLine
 10
497.3907663266801
 20
817.4410188583585
 30
0.0
 11
478.2958705198979
 21
798.3461230515754
 31
0.0
  0
LINE
  5
19A
330
1F
100
AcDbEntity
  8
LAY-10
  6
CONTINUOUS
 62
     7
100
AcDbLine
 10
492.4410188583745
 20
822.3907663266641
 30
0.0
 11
473.3461230515917
 21
803.2958705198816
 31
0.0
  0
LINE
  5
19B
330
1F
100
AcDbEntity
  8
LAY-10
  6
CONTINUOUS
 62
     7
100
AcDbLine
 10
449.3011523272114
 20
769.3514048588892
 30
0.0
 11
430.2076057954544
 21
750.2578583271323
 31
0.0
  0
LINE
  5
19C
330
1F
100
AcDbEntity
  8
LAY-10
  6
CONTINUOUS
 62
     7
100
AcDbLine
 10
444.3514048589051
 20
774.3011523271952
 30
0.0
 11
425.2578583271486
 21
755.207605795438
 31
0.0
  0
LINE
  5
19D
330
1F
100
AcDbEntity
  8
LAY-10
  6
CONTINUOUS
 62
     7
100
AcDbLine
 10
621.5000000000038
 20
732.0280981410556
 30
0.0
 11
621.5000000000038
 21
705.0250012756283
 31
0.0
  0
ARC
  5
19E
330
1F
100
AcDbEntity
  8
LAY-10
  6
CONTINUOUS
 62
     7
100
AcDbCircle
 10
625.0000000000038
 20
949.9999999999877
 30
0.0
 40
245.0000000000001
100
AcDbArc
 50
248.3185389789729
 51
269.1814610210268
  0
LINE
  5
19F
330
1F
100
AcDbEntity
  8
LAY-10
  6
CONTINUOUS
 62
     7
100
AcDbLine
 10
525.3394984622402
 20
718.5442063087489
 30
0.0
 11
515.0061455412936
 21
693.5972855422119
 31
0.0
  0
ARC
  5
1A0
330
1F
100
AcDbEntity
  8
LAY-10
  6
CONTINUOUS
 62
     7
100
AcDbCircle
 10
625.0000000000038
 20
949.9999999999877
 30
0.0
 40
177.0
100
AcDbArc
 50
248.6330412383803
 51
268.8669587616197
  0
ARC
  5
1A1
330
1F
100
AcDbEntity
  8
LAY-10
  6
CONTINUOUS
 62
     7
100
AcDbCircle
 10
625.0000000000038
 20
949.9999999999877
 30
0.0
 40
184.0
100
AcDbArc
 50
248.5899311055827
 51
268.9100688944173
  0
ARC
  5
1A2
330
1F
100
AcDbEntity
  8
LAY-10
  6
CONTINUOUS
 62
     7
100
AcDbCircle
 10
625.0000000000038
 20
949.9999999999877
 30
0.0
 40
143.0
100
AcDbArc
 50
248.9024843042646
 51
268.5975156957353
  0
ARC
  5
1A3
330
1F
100
AcDbEntity
  8
LAY-10
  6
CONTINUOUS
 62
     7
100
AcDbCircle
 10
625.0000000000038
 20
949.9999999999877
 30
0.0
 40
150.0
100
AcDbArc
 50
248.8370228631373
 51
268.6629771368628
  0
ARC
  5
1A4
330
1F
100
AcDbEntity
  8
LAY-10
  6
CONTINUOUS
 62
     7
100
AcDbCircle
 10
625.0000000000038
 20
949.9999999999877
 30
0.0
 40
211.0000000000001
100
AcDbArc
 50
248.4504475150765
 51
269.0495524849236
  0
ARC
  5
1A5
330
1F
100
AcDbEntity
  8
LAY-10
  6
CONTINUOUS
 62
     7
100
AcDbCircle
 10
625.0000000000038
 20
949.9999999999877
 30
0.0
 40
218.0000000000001
100
AcDbArc
 50
248.4199258919221
 51
269.0800741080781
  0
LINE
  5
1A6
330
1F
100
AcDbEntity
  8
LAY-10
  6
CONTINUOUS
 62
     7
100
AcDbLine
 10
551.365410016289
 20
781.3763149556559
 30
0.0
 11
541.0313268729607
 21
756.4276312763408
 31
0.0
  0
LINE
  5
1A7
330
1F
100
AcDbEntity
  8
LAY-10
  6
CONTINUOUS
 62
     7
100
AcDbLine
 10
570.8466918766687
 20
810.1164083271289
 30
0.0
 11
560.5118547063281
 21
785.1659042655742
 31
0.0
  0
LINE
  5
1A8
330
1F
100
AcDbEntity
  8
LAY-10
  6
CONTINUOUS
 62
     7
100
AcDbLine
 10
564.3795351490905
 20
812.7951923536843
 30
0.0
 11
554.0446979787495
 21
787.8446882921304
 31
0.0
  0
LINE
  5
1A9
330
1F
100
AcDbEntity
  8
LAY-10
  6
CONTINUOUS
 62
     7
100
AcDbLine
 10
557.8325667438676
 20
778.6975309290997
 30
0.0
 11
547.4984836005389
 21
753.748847249785
 31
0.0
  0
LINE
  5
1AA
330
1F
100
AcDbEntity
  8
LAY-10
  6
CONTINUOUS
 62
     7
100
AcDbLine
 10
538.3521860736921
 20
749.9596132232394
 30
0.0
 11
528.018548280743
 21
725.0120047148516
 31
0.0
  0
LINE
  5
1AB
330
1F
100
AcDbEntity
  8
LAY-10
  6
CONTINUOUS
 62
     7
100
AcDbLine
 10
544.8193428012702
 20
747.2808291966834
 30
0.0
 11
534.485705008322
 21
722.3332206882955
 31
0.0
  0
LINE
  5
1AC
330
1F
100
AcDbEntity
  8
LAY-10
  6
CONTINUOUS
 62
     7
100
AcDbLine
 10
621.5000000000038
 20
800.0408388927048
 30
0.0
 11
621.5000000000038
 21
773.0346079031148
 31
0.0
  0
LINE
  5
1AD
330
1F
100
AcDbEntity
  8
LAY-10
  6
CONTINUOUS
 62
     7
100
AcDbLine
 10
621.5000000000038
 20
834.0528137469354
 30
0.0
 11
621.5000000000038
 21
807.0428385844084
 31
0.0
  0
LINE
  5
1AE
330
1F
100
AcDbEntity
  8
LAY-10
  6
CONTINUOUS
 62
     7
100
AcDbLine
 10
621.5000000000038
 20
766.0332910551355
 30
0.0
 11
621.5000000000038
 21
739.0290304330824
 31
0.0
  0
ARC
  5
1AF
330
1F
100
AcDbEntity
  8
LAY-10
  6
CONTINUOUS
 62
     7
100
AcDbCircle
 10
625.0000000000038
 20
949.9999999999877
 30
0.0
 40
252.0000000000001
100
AcDbArc
 50
248.2958003020015
 51
269.2041996979985
  0
ARC
  5
1B0
330
1F
100
AcDbEntity
  8
LAY-10
  6
CONTINUOUS
 62
     7
100
AcDbCircle
 10
625.0000000000038
 20
949.9999999999877
 30
0.0
 40
279.0
100
AcDbArc
 50
248.2187831126976
 51
269.2812168873024
  0
ARC
  5
1B1
330
1F
100
AcDbEntity
  8
LAY-10
  6
CONTINUOUS
 62
     7
100
AcDbCircle
 10
625.0000000000038
 20
949.9999999999877
 30
0.0
 40
286.0
100
AcDbArc
 50
248.2011896296744
 51
269.2988103703257
  0
ARC
  5
1B2
330
1F
100
AcDbEntity
  8
LAY-10
  6
CONTINUOUS
 62
     7
100
AcDbCircle
 10
625.0000000000038
 20
949.9999999999877
 30
0.0
 40
313.0
100
AcDbArc
 50
248.1407009829719
 51
269.3592990170281
  0
LINE
  5
1B3
330
1F
100
AcDbEntity
  8
LAY-10
  6
CONTINUOUS
 62
     7
100
AcDbLine
 10
531.8066551898194
 20
715.8654222821929
 30
0.0
 11
521.4733022688725
 21
690.9185015156561
 31
0.0
  0
LINE
  5
1B4
330
1F
100
AcDbEntity
  8
LAY-10
  6
CONTINUOUS
 62
     7
100
AcDbLine
 10
518.7943125947496
 20
684.4508483109314
 30
0.0
 11
508.4536640335202
 21
659.4863143106769
 31
0.0
  0
LINE
  5
1B5
330
1F
100
AcDbEntity
  8
LAY-10
  6
CONTINUOUS
 62
     7
100
AcDbLine
 10
621.5000000000038
 20
664.0214168857972
 30
0.0
 11
621.5000000000038
 21
637.0195693018368
 31
0.0
  0
LINE
  5
1B6
330
1F
100
AcDbEntity
  8
LAY-10
  6
CONTINUOUS
 62
     7
100
AcDbLine
 10
621.5000000000038
 20
698.0243067277993
 30
0.0
 11
621.5000000000038
 21
671.0219542687869
 31
0.0
  0
LINE
  5
1B7
330
1F
100
AcDbEntity
  8
LAY-10
  6
CONTINUOUS
 62
     7
100
AcDbLine
 10
388.0000000000035
 20
989.9999999999878
 30
0.0
 11
402.0000000000039
 21
989.9999999999878
 31
0.0
  0
LINE
  5
1B8
330
1F
100
AcDbEntity
  8
LAY-10
  6
CONTINUOUS
 62
     7
100
AcDbLine
 10
407.0000000000039
 20
984.9999999999877
 30
0.0
 11
407.0000000000039
 21
964.9999999999877
 31
0.0
  0
LINE
  5
1B9
330
1F
100
AcDbEntity
  8
LAY-10
  6
CONTINUOUS
 62
     7
100
AcDbLine
 10
402.0000000000039
 20
909.9999999999877
 30
0.0
 11
388.0000000000038
 21
909.9999999999877
 31
0.0
  0
LINE
  5
1BA
330
1F
100
AcDbEntity
  8
LAY-10
  6
CONTINUOUS
 62
     7
100
AcDbLine
 10
383.0000000000038
 20
914.9999999999877
 30
0.0
 11
383.0000000000038
 21
934.9999999999877
 31
0.0
  0
LINE
  5
1BB
330
1F
100
AcDbEntity
  8
LAY-10
  6
CONTINUOUS
 62
     7
100
AcDbLine
 10
412.1267983047227
 20
902.9999999999878
 30
0.0
 11
384.5504210858374
 21
902.9999999999878
 31
0.0
  0
LINE
  5
1BC
330
1F
100
AcDbEntity
  8
LAY-10
  6
CONTINUOUS
 62
     7
100
AcDbLine
 10
384.5504210858374
 20
996.9999999999877
 30
0.0
 11
412.1267983047227
 21
996.9999999999877
 31
0.0
  0
LINE
  5
1BD
330
1F
100
AcDbEntity
  8
LAY-10
  6
CONTINUOUS
 62
     7
100
AcDbLine
 10
383.0000000000038
 20
964.9999999999877
 30
0.0
 11
383.0000000000035
 21
984.9999999999877
 31
0.0
  0
LINE
  5
1BE
330
1F
100
AcDbEntity
  8
LAY-10
  6
CONTINUOUS
 62
     7
100
AcDbLine
 10
407.0000000000039
 20
934.9999999999877
 30
0.0
 11
407.0000000000039
 21
914.9999999999877
 31
0.0
  0
ARC
  5
1BF
330
1F
100
AcDbEntity
  8
LAY-10
  6
CONTINUOUS
 62
     7
100
AcDbCircle
 10
388.0000000000038
 20
934.9999999999877
 30
0.0
 40
5.0
100
AcDbArc
 50
90.0
 51
180.0
  0
ARC
  5
1C0
330
1F
100
AcDbEntity
  8
LAY-10
  6
CONTINUOUS
 62
     7
100
AcDbCircle
 10
388.0000000000038
 20
914.9999999999877
 30
0.0
 40
5.0
100
AcDbArc
 50
180.0
 51
270.0
  0
ARC
  5
1C1
330
1F
100
AcDbEntity
  8
LAY-10
  6
CONTINUOUS
 62
     7
100
AcDbCircle
 10
402.0000000000039
 20
914.9999999999877
 30
0.0
 40
5.0
100
AcDbArc
 50
270.0
 51
0.0
  0
ARC
  5
1C2
330
1F
100
AcDbEntity
  8
LAY-10
  6
CONTINUOUS
 62
     7
100
AcDbCircle
 10
402.0000000000039
 20
934.9999999999877
 30
0.0
 40
5.0
100
AcDbArc
 50
0.0
 51
90.0
  0
ARC
  5
1C3
330
1F
100
AcDbEntity
  8
LAY-10
  6
CONTINUOUS
 62
     7
100
AcDbCircle
 10
402.0000000000039
 20
964.9999999999877
 30
0.0
 40
5.0
100
AcDbArc
 50
270.0
 51
0.0
  0
ARC
  5
1C4
330
1F
100
AcDbEntity
  8
LAY-10
  6
CONTINUOUS
 62
     7
100
AcDbCircle
 10
388.0000000000038
 20
964.9999999999877
 30
0.0
 40
5.0
100
AcDbArc
 50
180.0
 51
270.0
  0
ARC
  5
1C5
330
1F
100
AcDbEntity
  8
LAY-10
  6
CONTINUOUS
 62
     7
100
AcDbCircle
 10
388.0000000000035
 20
984.9999999999877
 30
0.0
 40
5.0
100
AcDbArc
 50
90.0
 51
180.0
  0
ARC
  5
1C6
330
1F
100
AcDbEntity
  8
LAY-10
  6
CONTINUOUS
 62
     7
100
AcDbCircle
 10
402.0000000000039
 20
984.9999999999877
 30
0.0
 40
5.0
100
AcDbArc
 50
0.0
 51
90.0
  0
CIRCLE
  5
1C7
330
1F
100
AcDbEntity
  8
LAY-10
  6
CONTINUOUS
 62
     7
100
AcDbCircle
 10
625.0000000000038
 20
949.9999999999877
 30
0.0
 40
325.0
  0
CIRCLE
  5
1C8
330
1F
100
AcDbEntity
  8
LAY-10
  6
CONTINUOUS
 62
     7
100
AcDbCircle
 10
625.0000000000038
 20
949.9999999999877
 30
0.0
 40
335.0
  0
CIRCLE
  5
1C9
330
1F
100
AcDbEntity
  8
LAY-10
  6
CONTINUOUS
 62
     7
100
AcDbCircle
 10
605.516567378175
 20
685.215910421912
 30
0.0
 40
11.0
  0
CIRCLE
  5
1CA
330
1F
100
AcDbEntity
  8
LAY-10
  6
CONTINUOUS
 62
     7
100
AcDbCircle
 10
573.8192791257853
 20
689.4798432918835
 30
0.0
 40
11.0
  0
CIRCLE
  5
1CB
330
1F
100
AcDbEntity
  8
LAY-10
  6
CONTINUOUS
 62
     7
100
AcDbCircle
 10
542.8646856763826
 20
697.5242419926499
 30
0.0
 40
11.0
  0
TEXT
  5
1CC
330
1F
100
AcDbEntity
  8
LAY-10
  6
CONTINUOUS
 62
     7
100
AcDbText
 10
596.6115448049089
 20
678.6611723721669
 30
0.0
 40
14.0314968
  1
Ａ
 50
355.7916268142312
 41
1.11999994913737
  7
EXCADSTD
100
AcDbText
  0
TEXT
  5
1CD
330
1F
100
AcDbEntity
  8
LAY-10
  6
CONTINUOUS
 62
     7
100
AcDbText
 10
564.1907011392227
 20
684.0434378721382
 30
0.0
 40
14.0314968
  1
Ｋ
 50
348.8854520386514
 41
1.11999994913737
 51
-0.0000000000000509
  7
EXCADSTD
100
AcDbText
  0
TEXT
  5
1CE
330
1F
100
AcDbEntity
  8
LAY-10
  6
CONTINUOUS
 62
     7
100
AcDbText
 10
532.6522747092798
 20
693.2850580888602
 30
0.0
 40
14.0314968
  1
Ｍ
 50
341.9792772630721
 41
1.11999994913737
 51
-0.0000000000000509
  7
EXCADSTD
100
AcDbText
  0
ARC
  5
1CF
330
1F
100
AcDbEntity
  8
LAY-10
  6
CONTINUOUS
 62
     7
100
AcDbCircle
 10
625.0000000000038
 20
949.9999999999877
 30
0.0
 40
109.0000000000001
100
AcDbArc
 50
69.34008903549953
 51
88.15991096450054
  0
ARC
  5
1D0
330
1F
100
AcDbEntity
  8
LAY-10
  6
CONTINUOUS
 62
     7
100
AcDbCircle
 10
625.0000000000038
 20
949.9999999999877
 30
0.0
 40
116.0000000000001
100
AcDbArc
 50
69.22901437754919
 51
88.27098562245071
  0
LINE
  5
1D1
330
1F
100
AcDbEntity
  8
LAY-10
  6
CONTINUOUS
 62
     7
100
AcDbLine
 10
666.1374888446068
 20
1058.460624244735
 30
0.0
 11
676.4737588478985
 21
1083.414587471032
 31
0.0
  0
LINE
  5
1D2
330
1F
100
AcDbEntity
  8
LAY-10
  6
CONTINUOUS
 62
     7
100
AcDbLine
 10
672.604645572185
 20
1055.781840218179
 30
0.0
 11
682.9409155754765
 21
1080.735803444476
 31
0.0
  0
ARC
  5
1D3
330
1F
100
AcDbEntity
  8
LAY-10
  6
CONTINUOUS
 62
     7
100
AcDbCircle
 10
625.0000000000032
 20
949.9999999999877
 30
0.0
 40
150.0
100
AcDbArc
 50
46.3370228631372
 51
66.16297713686265
  0
ARC
  5
1D4
330
1F
100
AcDbEntity
  8
LAY-10
  6
CONTINUOUS
 62
     7
100
AcDbCircle
 10
625.0000000000032
 20
949.9999999999877
 30
0.0
 40
143.0
100
AcDbArc
 50
46.40248430426485
 51
66.09751569573511
  0
LINE
  5
1D5
330
1F
100
AcDbEntity
  8
LAY-10
  6
CONTINUOUS
 62
     7
100
AcDbLine
 10
728.562265985856
 20
1058.512013454146
 30
0.0
 11
747.6585550528853
 21
1077.608302521176
 31
0.0
  0
LINE
  5
1D6
330
1F
100
AcDbEntity
  8
LAY-10
  6
CONTINUOUS
 62
     7
100
AcDbLine
 10
733.5120134541622
 20
1053.56226598584
 30
0.0
 11
752.6083025211917
 21
1072.658555052869
 31
0.0
  0
ARC
  5
1D7
330
1F
100
AcDbEntity
  8
LAY-10
  6
CONTINUOUS
 62
     7
100
AcDbCircle
 10
625.0000000000038
 20
949.9999999999872
 30
0.0
 40
177.0
100
AcDbArc
 50
23.63304123838046
 51
43.86695876161976
  0
ARC
  5
1D8
330
1F
100
AcDbEntity
  8
LAY-10
  6
CONTINUOUS
 62
     7
100
AcDbCircle
 10
625.0000000000038
 20
949.9999999999872
 30
0.0
 40
184.0
100
AcDbArc
 50
23.58993110558269
 51
43.91006889441758
  0
LINE
  5
1D9
330
1F
100
AcDbEntity
  8
LAY-10
  6
CONTINUOUS
 62
     7
100
AcDbLine
 10
856.4557936912424
 20
1049.660501537751
 30
0.0
 11
881.4027144577796
 21
1059.993854458698
 31
0.0
  0
ARC
  5
1DA
330
1F
100
AcDbEntity
  8
LAY-10
  6
CONTINUOUS
 62
     7
100
AcDbCircle
 10
625.0000000000038
 20
949.9999999999872
 30
0.0
 40
245.0000000000001
100
AcDbArc
 50
23.31853897897319
 51
44.18146102102696
  0
ARC
  5
1DB
330
1F
100
AcDbEntity
  8
LAY-10
  6
CONTINUOUS
 62
     7
100
AcDbCircle
 10
625.0000000000038
 20
949.9999999999872
 30
0.0
 40
252.0000000000001
100
AcDbArc
 50
23.29580030200153
 51
44.20419969799863
  0
ARC
  5
1DC
330
1F
100
AcDbEntity
  8
LAY-10
  6
CONTINUOUS
 62
     7
100
AcDbCircle
 10
625.0000000000038
 20
949.9999999999872
 30
0.0
 40
211.0000000000001
100
AcDbArc
 50
23.45044751507664
 51
44.04955248492351
  0
ARC
  5
1DD
330
1F
100
AcDbEntity
  8
LAY-10
  6
CONTINUOUS
 62
     7
100
AcDbCircle
 10
625.0000000000038
 20
949.9999999999872
 30
0.0
 40
218.0000000000001
100
AcDbArc
 50
23.41992589192197
 51
44.08007410807818
  0
LINE
  5
1DE
330
1F
100
AcDbEntity
  8
LAY-10
  6
CONTINUOUS
 62
     7
100
AcDbLine
 10
890.5491516890603
 20
1056.205687405242
 30
0.0
 11
915.5136856893148
 21
1066.546335966471
 31
0.0
  0
ARC
  5
1DF
330
1F
100
AcDbEntity
  8
LAY-10
  6
CONTINUOUS
 62
     7
100
AcDbCircle
 10
625.0000000000038
 20
949.9999999999877
 30
0.0
 40
313.0
100
AcDbArc
 50
0.6407009829717981
 51
21.85929901702808
  0
ARC
  5
1E0
330
1F
100
AcDbEntity
  8
LAY-10
  6
CONTINUOUS
 62
     7
100
AcDbCircle
 10
625.0000000000032
 20
949.9999999999877
 30
0.0
 40
177.0
100
AcDbArc
 50
293.6330412383804
 51
313.8669587616199
  0
ARC
  5
1E1
330
1F
100
AcDbEntity
  8
LAY-10
  6
CONTINUOUS
 62
     7
100
AcDbCircle
 10
625.0000000000032
 20
949.9999999999877
 30
0.0
 40
184.0
100
AcDbArc
 50
293.5899311055828
 51
313.9100688944175
  0
ARC
  5
1E2
330
1F
100
AcDbEntity
  8
LAY-10
  6
CONTINUOUS
 62
     7
100
AcDbCircle
 10
625.0000000000032
 20
949.9999999999877
 30
0.0
 40
245.0000000000001
100
AcDbArc
 50
293.3185389789734
 51
314.181461021027
  0
ARC
  5
1E3
330
1F
100
AcDbEntity
  8
LAY-10
  6
CONTINUOUS
 62
     7
100
AcDbCircle
 10
625.0000000000032
 20
949.9999999999877
 30
0.0
 40
252.0000000000001
100
AcDbArc
 50
293.2958003020016
 51
314.2041996979987
  0
ARC
  5
1E4
330
1F
100
AcDbEntity
  8
LAY-10
  6
CONTINUOUS
 62
     7
100
AcDbCircle
 10
625.0000000000032
 20
949.9999999999877
 30
0.0
 40
211.0000000000001
100
AcDbArc
 50
293.4504475150765
 51
314.0495524849235
  0
ARC
  5
1E5
330
1F
100
AcDbEntity
  8
LAY-10
  6
CONTINUOUS
 62
     7
100
AcDbCircle
 10
625.0000000000032
 20
949.9999999999877
 30
0.0
 40
218.0000000000001
100
AcDbArc
 50
293.419925891922
 51
314.0800741080781
  0
ARC
  5
1E6
330
1F
100
AcDbEntity
  8
LAY-10
  6
CONTINUOUS
 62
     7
100
AcDbCircle
 10
625.0000000000032
 20
949.9999999999877
 30
0.0
 40
279.0
100
AcDbArc
 50
293.2187831126977
 51
314.2812168873025
  0
ARC
  5
1E7
330
1F
100
AcDbEntity
  8
LAY-10
  6
CONTINUOUS
 62
     7
100
AcDbCircle
 10
625.0000000000032
 20
949.9999999999877
 30
0.0
 40
286.0
100
AcDbArc
 50
293.2011896296744
 51
314.2988103703258
  0
LINE
  5
1E8
330
1F
100
AcDbEntity
  8
LAY-10
  6
CONTINUOUS
 62
     7
100
AcDbLine
 10
737.672844132837
 20
687.1296323374872
 30
0.0
 11
748.0134926940661
 21
662.1650983372327
 31
0.0
  0
LINE
  5
1E9
330
1F
100
AcDbEntity
  8
LAY-10
  6
CONTINUOUS
 62
     7
100
AcDbLine
 10
733.4606242447504
 20
908.8625111553849
 30
0.0
 11
758.4145874710476
 21
898.5262411520932
 31
0.0
  0
LINE
  5
1EA
330
1F
100
AcDbEntity
  8
LAY-10
  6
CONTINUOUS
 62
     7
100
AcDbLine
 10
740.947186253056
 20
946.4999999999878
 30
0.0
 11
767.957161415583
 21
946.4999999999878
 31
0.0
  0
LINE
  5
1EB
330
1F
100
AcDbEntity
  8
LAY-10
  6
CONTINUOUS
 62
     7
100
AcDbLine
 10
730.7818402181948
 20
902.3953544278066
 30
0.0
 11
755.7358034444919
 21
892.0590844245148
 31
0.0
  0
ARC
  5
1EC
330
1F
100
AcDbEntity
  8
LAY-10
  6
CONTINUOUS
 62
     7
100
AcDbCircle
 10
625.0000000000038
 20
949.9999999999881
 30
0.0
 40
150.0
100
AcDbArc
 50
316.3370228631372
 51
336.1629771368629
  0
ARC
  5
1ED
330
1F
100
AcDbEntity
  8
LAY-10
  6
CONTINUOUS
 62
     7
100
AcDbCircle
 10
625.0000000000038
 20
949.9999999999881
 30
0.0
 40
143.0
100
AcDbArc
 50
316.4024843042649
 51
336.0975156957355
  0
LINE
  5
1EE
330
1F
100
AcDbEntity
  8
LAY-10
  6
CONTINUOUS
 62
     7
100
AcDbLine
 10
733.5120134541622
 20
846.4377340141357
 30
0.0
 11
752.6083025211917
 21
827.3414449471059
 31
0.0
  0
LINE
  5
1EF
330
1F
100
AcDbEntity
  8
LAY-10
  6
CONTINUOUS
 62
     7
100
AcDbLine
 10
728.562265985856
 20
841.4879865458295
 30
0.0
 11
747.6585550528853
 21
822.3916974787996
 31
0.0
  0
ARC
  5
1F0
330
1F
100
AcDbEntity
  8
LAY-10
  6
CONTINUOUS
 62
     7
100
AcDbCircle
 10
625.0000000000038
 20
949.9999999999872
 30
0.0
 40
143.0
100
AcDbArc
 50
23.90248430426481
 51
43.59751569573529
  0
ARC
  5
1F1
330
1F
100
AcDbEntity
  8
LAY-10
  6
CONTINUOUS
 62
     7
100
AcDbCircle
 10
625.0000000000038
 20
949.9999999999872
 30
0.0
 40
150.0
100
AcDbArc
 50
23.83702286313733
 51
43.66297713686283
  0
LINE
  5
1F2
330
1F
100
AcDbEntity
  8
LAY-10
  6
CONTINUOUS
 62
     7
100
AcDbLine
 10
730.7818402181948
 20
997.604645572169
 30
0.0
 11
755.7358034444919
 21
1007.940915575461
 31
0.0
  0
LINE
  5
1F3
330
1F
100
AcDbEntity
  8
LAY-10
  6
CONTINUOUS
 62
     7
100
AcDbLine
 10
740.947186253056
 20
953.4999999999877
 30
0.0
 11
767.957161415583
 21
953.4999999999877
 31
0.0
  0
LINE
  5
1F4
330
1F
100
AcDbEntity
  8
LAY-10
  6
CONTINUOUS
 62
     7
100
AcDbLine
 10
733.4606242447504
 20
991.1374888445906
 30
0.0
 11
758.4145874710476
 21
1001.473758847882
 31
0.0
  0
LINE
  5
1F5
330
1F
100
AcDbEntity
  8
LAY-10
  6
CONTINUOUS
 62
     7
100
AcDbLine
 10
757.5589811416332
 20
822.3907663266641
 30
0.0
 11
776.6538769484159
 21
803.2958705198816
 31
0.0
  0
LINE
  5
1F6
330
1F
100
AcDbEntity
  8
LAY-10
  6
CONTINUOUS
 62
     7
100
AcDbLine
 10
752.6092336733274
 20
817.4410188583585
 30
0.0
 11
771.7041294801098
 21
798.3461230515754
 31
0.0
  0
ARC
  5
1F7
330
1F
100
AcDbEntity
  8
LAY-10
  6
CONTINUOUS
 62
     7
100
AcDbCircle
 10
625.0000000000038
 20
949.9999999999881
 30
0.0
 40
286.0
100
AcDbArc
 50
315.7011896296743
 51
336.7988103703256
  0
ARC
  5
1F8
330
1F
100
AcDbEntity
  8
LAY-10
  6
CONTINUOUS
 62
     7
100
AcDbCircle
 10
625.0000000000038
 20
949.9999999999881
 30
0.0
 40
279.0
100
AcDbArc
 50
315.7187831126976
 51
336.7812168873028
  0
ARC
  5
1F9
330
1F
100
AcDbEntity
  8
LAY-10
  6
CONTINUOUS
 62
     7
100
AcDbCircle
 10
625.0000000000038
 20
949.9999999999881
 30
0.0
 40
313.0
100
AcDbArc
 50
315.6407009829719
 51
336.859299017028
  0
ARC
  5
1FA
330
1F
100
AcDbEntity
  8
LAY-10
  6
CONTINUOUS
 62
     7
100
AcDbCircle
 10
625.0000000000038
 20
949.9999999999881
 30
0.0
 40
218.0000000000001
100
AcDbArc
 50
315.9199258919221
 51
336.5800741080781
  0
ARC
  5
1FB
330
1F
100
AcDbEntity
  8
LAY-10
  6
CONTINUOUS
 62
     7
100
AcDbCircle
 10
625.0000000000038
 20
949.9999999999881
 30
0.0
 40
211.0000000000001
100
AcDbArc
 50
315.9504475150767
 51
336.5495524849236
  0
ARC
  5
1FC
330
1F
100
AcDbEntity
  8
LAY-10
  6
CONTINUOUS
 62
     7
100
AcDbCircle
 10
625.0000000000038
 20
949.9999999999881
 30
0.0
 40
252.0000000000001
100
AcDbArc
 50
315.7958003020013
 51
336.7041996979985
  0
ARC
  5
1FD
330
1F
100
AcDbEntity
  8
LAY-10
  6
CONTINUOUS
 62
     7
100
AcDbCircle
 10
625.0000000000038
 20
949.9999999999881
 30
0.0
 40
245.0000000000001
100
AcDbArc
 50
315.8185389789732
 51
336.6814610210268
  0
ARC
  5
1FE
330
1F
100
AcDbEntity
  8
LAY-10
  6
CONTINUOUS
 62
     7
100
AcDbCircle
 10
625.0000000000032
 20
949.9999999999877
 30
0.0
 40
313.0
100
AcDbArc
 50
293.1407009829721
 51
314.3592990170282
  0
LINE
  5
1FF
330
1F
100
AcDbEntity
  8
LAY-10
  6
CONTINUOUS
 62
     7
100
AcDbLine
 10
824.7425216600154
 20
745.3077308716701
 30
0.0
 11
843.8357111911992
 21
726.2145413404866
 31
0.0
  0
LINE
  5
200
330
1F
100
AcDbEntity
  8
LAY-10
  6
CONTINUOUS
 62
     7
100
AcDbLine
 10
829.6922691283214
 20
750.2574783399759
 30
0.0
 11
848.7854586595051
 21
731.1642888087922
 31
0.0
  0
LINE
  5
201
330
1F
100
AcDbEntity
  8
LAY-10
  6
CONTINUOUS
 62
     7
100
AcDbLine
 10
781.604283646736
 20
798.3454638215616
 30
0.0
 11
800.6983565533166
 21
779.2513909149807
 31
0.0
  0
LINE
  5
202
330
1F
100
AcDbEntity
  8
LAY-10
  6
CONTINUOUS
 62
     7
100
AcDbLine
 10
776.6545361784298
 20
793.3957163532554
 30
0.0
 11
795.7486090850108
 21
774.301643446675
 31
0.0
  0
LINE
  5
203
330
1F
100
AcDbEntity
  8
LAY-10
  6
CONTINUOUS
 62
     7
100
AcDbLine
 10
805.6485951411025
 20
774.3011523271952
 30
0.0
 11
824.742141672859
 21
755.207605795438
 31
0.0
  0
LINE
  5
204
330
1F
100
AcDbEntity
  8
LAY-10
  6
CONTINUOUS
 62
     7
100
AcDbLine
 10
800.6988476727963
 20
769.3514048588892
 30
0.0
 11
819.7923942045533
 21
750.2578583271323
 31
0.0
  0
ARC
  5
205
330
1F
100
AcDbEntity
  8
LAY-10
  6
CONTINUOUS
 62
     7
100
AcDbCircle
 10
625.0000000000038
 20
949.9999999999877
 30
0.0
 40
286.0
100
AcDbArc
 50
338.2011896296743
 51
359.2988103703258
  0
LINE
  5
206
330
1F
100
AcDbEntity
  8
LAY-10
  6
CONTINUOUS
 62
     7
100
AcDbLine
 10
910.9785831141945
 20
946.4999999999878
 30
0.0
 11
937.9804306981549
 21
946.4999999999878
 31
0.0
  0
LINE
  5
207
330
1F
100
AcDbEntity
  8
LAY-10
  6
CONTINUOUS
 62
     7
100
AcDbLine
 10
890.5491516890603
 20
843.7943125947339
 30
0.0
 11
915.5136856893148
 21
833.453664033504
 31
0.0
  0
LINE
  5
208
330
1F
100
AcDbEntity
  8
LAY-10
  6
CONTINUOUS
 62
     7
100
AcDbLine
 10
910.9785831141945
 20
953.4999999999877
 30
0.0
 11
937.9804306981549
 21
953.4999999999877
 31
0.0
  0
ARC
  5
209
330
1F
100
AcDbEntity
  8
LAY-10
  6
CONTINUOUS
 62
     7
100
AcDbCircle
 10
625.0000000000038
 20
949.9999999999877
 30
0.0
 40
286.0
100
AcDbArc
 50
0.7011896296742847
 51
21.79881037032565
  0
ARC
  5
20A
330
1F
100
AcDbEntity
  8
LAY-10
  6
CONTINUOUS
 62
     7
100
AcDbCircle
 10
625.0000000000038
 20
949.9999999999877
 30
0.0
 40
313.0
100
AcDbArc
 50
338.1407009829718
 51
359.3592990170283
  0
ARC
  5
20B
330
1F
100
AcDbEntity
  8
LAY-10
  6
CONTINUOUS
 62
     7
100
AcDbCircle
 10
848.0000000000038
 20
934.9999999999877
 30
0.0
 40
5.0
100
AcDbArc
 50
90.0
 51
180.0
  0
ARC
  5
20C
330
1F
100
AcDbEntity
  8
LAY-10
  6
CONTINUOUS
 62
     7
100
AcDbCircle
 10
862.0000000000039
 20
934.9999999999877
 30
0.0
 40
5.0
100
AcDbArc
 50
0.0
 51
90.0
  0
ARC
  5
20D
330
1F
100
AcDbEntity
  8
LAY-10
  6
CONTINUOUS
 62
     7
100
AcDbCircle
 10
625.0000000000038
 20
949.9999999999877
 30
0.0
 40
177.0
100
AcDbArc
 50
338.6330412383806
 51
358.8669587616199
  0
ARC
  5
20E
330
1F
100
AcDbEntity
  8
LAY-10
  6
CONTINUOUS
 62
     7
100
AcDbCircle
 10
625.0000000000038
 20
949.9999999999877
 30
0.0
 40
184.0
100
AcDbArc
 50
338.5899311055828
 51
358.9100688944175
  0
ARC
  5
20F
330
1F
100
AcDbEntity
  8
LAY-10
  6
CONTINUOUS
 62
     7
100
AcDbCircle
 10
625.0000000000038
 20
949.9999999999877
 30
0.0
 40
143.0
100
AcDbArc
 50
338.9024843042648
 51
358.5975156957354
  0
ARC
  5
210
330
1F
100
AcDbEntity
  8
LAY-10
  6
CONTINUOUS
 62
     7
100
AcDbCircle
 10
625.0000000000038
 20
949.9999999999877
 30
0.0
 40
150.0
100
AcDbArc
 50
338.8370228631374
 51
358.6629771368629
  0
ARC
  5
211
330
1F
100
AcDbEntity
  8
LAY-10
  6
CONTINUOUS
 62
     7
100
AcDbCircle
 10
625.0000000000038
 20
949.9999999999877
 30
0.0
 40
252.0000000000001
100
AcDbArc
 50
338.2958003020017
 51
359.2041996979987
  0
ARC
  5
212
330
1F
100
AcDbEntity
  8
LAY-10
  6
CONTINUOUS
 62
     7
100
AcDbCircle
 10
625.0000000000038
 20
949.9999999999877
 30
0.0
 40
279.0
100
AcDbArc
 50
338.2187831126976
 51
359.2812168873027
  0
ARC
  5
213
330
1F
100
AcDbEntity
  8
LAY-10
  6
CONTINUOUS
 62
     7
100
AcDbCircle
 10
625.0000000000038
 20
949.9999999999877
 30
0.0
 40
211.0000000000001
100
AcDbArc
 50
338.4504475150767
 51
359.0495524849235
  0
ARC
  5
214
330
1F
100
AcDbEntity
  8
LAY-10
  6
CONTINUOUS
 62
     7
100
AcDbCircle
 10
625.0000000000038
 20
949.9999999999877
 30
0.0
 40
218.0000000000001
100
AcDbArc
 50
338.4199258919221
 51
347.5494849669234
  0
LINE
  5
215
330
1F
100
AcDbEntity
  8
LAY-10
  6
CONTINUOUS
 62
     7
100
AcDbLine
 10
827.7191708033081
 20
869.8193428012544
 30
0.0
 11
852.6667793116959
 21
859.4857050083058
 31
0.0
  0
LINE
  5
216
330
1F
100
AcDbEntity
  8
LAY-10
  6
CONTINUOUS
 62
     7
100
AcDbLine
 10
825.0403867767519
 20
863.3521860736761
 30
0.0
 11
849.9879952851398
 21
853.0185482807269
 31
0.0
  0
ARC
  5
217
330
1F
100
AcDbEntity
  8
LAY-10
  6
CONTINUOUS
 62
     7
100
AcDbCircle
 10
625.0000000000038
 20
949.9999999999877
 30
0.0
 40
245.0000000000001
100
AcDbArc
 50
338.318538978973
 51
348.9400066234978
  0
LINE
  5
218
330
1F
100
AcDbEntity
  8
LAY-10
  6
CONTINUOUS
 62
     7
100
AcDbLine
 10
859.1345777177986
 20
856.8066551898033
 30
0.0
 11
884.0814984843356
 21
846.4733022688565
 31
0.0
  0
LINE
  5
219
330
1F
100
AcDbEntity
  8
LAY-10
  6
CONTINUOUS
 62
     7
100
AcDbLine
 10
856.4557936912424
 20
850.3394984622241
 30
0.0
 11
881.4027144577796
 21
840.0061455412776
 31
0.0
  0
LINE
  5
21A
330
1F
100
AcDbEntity
  8
LAY-10
  6
CONTINUOUS
 62
     7
100
AcDbLine
 10
887.8703676625042
 20
837.3271558671544
 30
0.0
 11
912.8349016627586
 21
826.9865073059256
 31
0.0
  0
LINE
  5
21B
330
1F
100
AcDbEntity
  8
LAY-10
  6
CONTINUOUS
 62
     7
100
AcDbLine
 10
837.8732016952849
 20
902.9999999999878
 30
0.0
 11
865.4495789141705
 21
902.9999999999878
 31
0.0
  0
LINE
  5
21C
330
1F
100
AcDbEntity
  8
LAY-10
  6
CONTINUOUS
 62
     7
100
AcDbLine
 10
848.0000000000038
 20
909.9999999999877
 30
0.0
 11
862.0000000000039
 21
909.9999999999877
 31
0.0
  0
LINE
  5
21D
330
1F
100
AcDbEntity
  8
LAY-10
  6
CONTINUOUS
 62
     7
100
AcDbLine
 10
867.0000000000039
 20
914.9999999999877
 30
0.0
 11
867.0000000000039
 21
934.9999999999877
 31
0.0
  0
ARC
  5
21E
330
1F
100
AcDbEntity
  8
LAY-10
  6
CONTINUOUS
 62
     7
100
AcDbCircle
 10
862.0000000000039
 20
914.9999999999877
 30
0.0
 40
5.0
100
AcDbArc
 50
270.0
 51
0.0
  0
LINE
  5
21F
330
1F
100
AcDbEntity
  8
LAY-10
  6
CONTINUOUS
 62
     7
100
AcDbLine
 10
843.0000000000038
 20
934.9999999999877
 30
0.0
 11
843.0000000000038
 21
914.9999999999877
 31
0.0
  0
ARC
  5
220
330
1F
100
AcDbEntity
  8
LAY-10
  6
CONTINUOUS
 62
     7
100
AcDbCircle
 10
848.0000000000038
 20
914.9999999999877
 30
0.0
 40
5.0
100
AcDbArc
 50
180.0
 51
270.0
  0
LINE
  5
221
330
1F
100
AcDbEntity
  8
LAY-10
  6
CONTINUOUS
 62
     7
100
AcDbLine
 10
796.3024690708917
 20
882.832566743852
 30
0.0
 11
821.2511527502068
 21
872.4984836005228
 31
0.0
  0
LINE
  5
222
330
1F
100
AcDbEntity
  8
LAY-10
  6
CONTINUOUS
 62
     7
100
AcDbLine
 10
793.6236850443358
 20
876.365410016273
 30
0.0
 11
818.5723687236506
 21
866.0313268729448
 31
0.0
  0
ARC
  5
223
330
1F
100
AcDbEntity
  8
LAY-10
  6
CONTINUOUS
 62
     7
100
AcDbCircle
 10
625.0000000000038
 20
949.9999999999881
 30
0.0
 40
184.0
100
AcDbArc
 50
316.0899311055825
 51
336.4100688944173
  0
ARC
  5
224
330
1F
100
AcDbEntity
  8
LAY-10
  6
CONTINUOUS
 62
     7
100
AcDbCircle
 10
625.0000000000038
 20
949.9999999999881
 30
0.0
 40
177.0
100
AcDbArc
 50
316.1330412383803
 51
336.3669587616197
  0
LINE
  5
225
330
1F
100
AcDbEntity
  8
LAY-10
  6
CONTINUOUS
 62
     7
100
AcDbLine
 10
764.8835916728627
 20
895.8466918766527
 30
0.0
 11
789.8340957344171
 21
885.511854706312
 31
0.0
  0
LINE
  5
226
330
1F
100
AcDbEntity
  8
LAY-10
  6
CONTINUOUS
 62
     7
100
AcDbLine
 10
762.2048076463071
 20
889.3795351490746
 30
0.0
 11
787.1553117078612
 21
879.0446979787336
 31
0.0
  0
ARC
  5
227
330
1F
100
AcDbEntity
  8
LAY-10
  6
CONTINUOUS
 62
     7
100
AcDbCircle
 10
625.0000000000038
 20
949.9999999999877
 30
0.0
 40
218.0000000000001
100
AcDbArc
 50
12.45051503307681
 51
21.58007410807802
  0
LINE
  5
228
330
1F
100
AcDbEntity
  8
LAY-10
  6
CONTINUOUS
 62
     7
100
AcDbLine
 10
808.9667089448559
 20
946.4999999999878
 30
0.0
 11
835.970969566909
 21
946.4999999999878
 31
0.0
  0
LINE
  5
229
330
1F
100
AcDbEntity
  8
LAY-10
  6
CONTINUOUS
 62
     7
100
AcDbLine
 10
825.0403867767519
 20
1036.647813926299
 30
0.0
 11
849.9879952851398
 21
1046.981451719249
 31
0.0
  0
LINE
  5
22A
330
1F
100
AcDbEntity
  8
LAY-10
  6
CONTINUOUS
 62
     7
100
AcDbLine
 10
808.9667089448559
 20
953.4999999999877
 30
0.0
 11
835.970969566909
 21
953.4999999999877
 31
0.0
  0
LINE
  5
22B
330
1F
100
AcDbEntity
  8
LAY-10
  6
CONTINUOUS
 62
     7
100
AcDbLine
 10
827.7191708033081
 20
1030.180657198721
 30
0.0
 11
852.6667793116959
 21
1040.51429499167
 31
0.0
  0
ARC
  5
22C
330
1F
100
AcDbEntity
  8
LAY-10
  6
CONTINUOUS
 62
     7
100
AcDbCircle
 10
625.0000000000038
 20
949.9999999999877
 30
0.0
 40
211.0000000000001
100
AcDbArc
 50
0.9504475150765934
 51
21.5495524849234
  0
ARC
  5
22D
330
1F
100
AcDbEntity
  8
LAY-10
  6
CONTINUOUS
 62
     7
100
AcDbCircle
 10
625.0000000000038
 20
949.9999999999877
 30
0.0
 40
245.0000000000001
100
AcDbArc
 50
11.05999337650224
 51
21.68146102102685
  0
ARC
  5
22E
330
1F
100
AcDbEntity
  8
LAY-10
  6
CONTINUOUS
 62
     7
100
AcDbCircle
 10
625.0000000000038
 20
949.9999999999877
 30
0.0
 40
279.0
100
AcDbArc
 50
0.7187831126975095
 51
21.78121688730248
  0
ARC
  5
22F
330
1F
100
AcDbEntity
  8
LAY-10
  6
CONTINUOUS
 62
     7
100
AcDbCircle
 10
625.0000000000038
 20
949.9999999999877
 30
0.0
 40
252.0000000000001
100
AcDbArc
 50
0.79580030200142
 51
21.70419969799846
  0
LINE
  5
230
330
1F
100
AcDbEntity
  8
LAY-10
  6
CONTINUOUS
 62
     7
100
AcDbLine
 10
876.9756932721924
 20
946.4999999999878
 30
0.0
 11
903.9780457312045
 21
946.4999999999878
 31
0.0
  0
LINE
  5
231
330
1F
100
AcDbEntity
  8
LAY-10
  6
CONTINUOUS
 62
     7
100
AcDbLine
 10
876.9756932721924
 20
953.4999999999877
 30
0.0
 11
903.9780457312045
 21
953.4999999999877
 31
0.0
  0
LINE
  5
232
330
1F
100
AcDbEntity
  8
LAY-10
  6
CONTINUOUS
 62
     7
100
AcDbLine
 10
843.0000000000038
 20
984.9999999999877
 30
0.0
 11
843.0000000000038
 21
964.9999999999877
 31
0.0
  0
LINE
  5
233
330
1F
100
AcDbEntity
  8
LAY-10
  6
CONTINUOUS
 62
     7
100
AcDbLine
 10
867.0000000000039
 20
964.9999999999877
 30
0.0
 11
867.0000000000041
 21
984.9999999999877
 31
0.0
  0
LINE
  5
234
330
1F
100
AcDbEntity
  8
LAY-10
  6
CONTINUOUS
 62
     7
100
AcDbLine
 10
848.0000000000038
 20
959.9999999999875
 30
0.0
 11
862.0000000000039
 21
959.9999999999877
 31
0.0
  0
LINE
  5
235
330
1F
100
AcDbEntity
  8
LAY-10
  6
CONTINUOUS
 62
     7
100
AcDbLine
 10
848.0000000000038
 20
939.9999999999877
 30
0.0
 11
862.0000000000039
 21
939.9999999999877
 31
0.0
  0
ARC
  5
236
330
1F
100
AcDbEntity
  8
LAY-10
  6
CONTINUOUS
 62
     7
100
AcDbCircle
 10
862.0000000000039
 20
964.9999999999877
 30
0.0
 40
5.0
100
AcDbArc
 50
270.0
 51
0.0
  0
ARC
  5
237
330
1F
100
AcDbEntity
  8
LAY-10
  6
CONTINUOUS
 62
     7
100
AcDbCircle
 10
848.0000000000038
 20
964.9999999999877
 30
0.0
 40
5.0
100
AcDbArc
 50
180.0
 51
270.0
  0
LINE
  5
238
330
1F
100
AcDbEntity
  8
LAY-10
  6
CONTINUOUS
 62
     7
100
AcDbLine
 10
862.0000000000042
 20
989.9999999999878
 30
0.0
 11
848.0000000000038
 21
989.9999999999878
 31
0.0
  0
LINE
  5
239
330
1F
100
AcDbEntity
  8
LAY-10
  6
CONTINUOUS
 62
     7
100
AcDbLine
 10
865.4495789141705
 20
996.9999999999877
 30
0.0
 11
837.8732016952849
 21
996.9999999999877
 31
0.0
  0
ARC
  5
23A
330
1F
100
AcDbEntity
  8
LAY-10
  6
CONTINUOUS
 62
     7
100
AcDbCircle
 10
862.0000000000042
 20
984.9999999999877
 30
0.0
 40
5.0
100
AcDbArc
 50
0.0
 51
90.0
  0
ARC
  5
23B
330
1F
100
AcDbEntity
  8
LAY-10
  6
CONTINUOUS
 62
     7
100
AcDbCircle
 10
848.0000000000038
 20
984.9999999999877
 30
0.0
 40
5.0
100
AcDbArc
 50
90.0
 51
180.0
  0
LINE
  5
23C
330
1F
100
AcDbEntity
  8
LAY-10
  6
CONTINUOUS
 62
     7
100
AcDbLine
 10
859.1345777177986
 20
1043.193344810172
 30
0.0
 11
884.0814984843356
 21
1053.526697731119
 31
0.0
  0
ARC
  5
23D
330
1F
100
AcDbEntity
  8
LAY-10
  6
CONTINUOUS
 62
     7
100
AcDbCircle
 10
625.0000000000038
 20
949.9999999999877
 30
0.0
 40
150.0
100
AcDbArc
 50
1.337022863137277
 51
21.16297713686289
  0
ARC
  5
23E
330
1F
100
AcDbEntity
  8
LAY-10
  6
CONTINUOUS
 62
     7
100
AcDbCircle
 10
625.0000000000038
 20
949.9999999999877
 30
0.0
 40
143.0
100
AcDbArc
 50
1.402484304264817
 51
21.09751569573518
  0
ARC
  5
23F
330
1F
100
AcDbEntity
  8
LAY-10
  6
CONTINUOUS
 62
     7
100
AcDbCircle
 10
625.0000000000038
 20
949.9999999999877
 30
0.0
 40
184.0
100
AcDbArc
 50
1.089931105582639
 51
21.41006889441741
  0
ARC
  5
240
330
1F
100
AcDbEntity
  8
LAY-10
  6
CONTINUOUS
 62
     7
100
AcDbCircle
 10
625.0000000000038
 20
949.9999999999877
 30
0.0
 40
177.0
100
AcDbArc
 50
1.133041238380175
 51
21.36695876161965
  0
LINE
  5
241
330
1F
100
AcDbEntity
  8
LAY-10
  6
CONTINUOUS
 62
     7
100
AcDbLine
 10
774.9591611072867
 20
946.4999999999878
 30
0.0
 11
801.9653920968769
 21
946.4999999999878
 31
0.0
  0
LINE
  5
242
330
1F
100
AcDbEntity
  8
LAY-10
  6
CONTINUOUS
 62
     7
100
AcDbLine
 10
774.9591611072867
 20
953.4999999999877
 30
0.0
 11
801.9653920968769
 21
953.4999999999877
 31
0.0
  0
LINE
  5
243
330
1F
100
AcDbEntity
  8
LAY-10
  6
CONTINUOUS
 62
     7
100
AcDbLine
 10
762.2048076463071
 20
1010.620464850901
 30
0.0
 11
787.1553117078612
 21
1020.955302021242
 31
0.0
  0
LINE
  5
244
330
1F
100
AcDbEntity
  8
LAY-10
  6
CONTINUOUS
 62
     7
100
AcDbLine
 10
764.8835916728627
 20
1004.153308123323
 30
0.0
 11
789.8340957344171
 21
1014.488145293663
 31
0.0
  0
LINE
  5
245
330
1F
100
AcDbEntity
  8
LAY-10
  6
CONTINUOUS
 62
     7
100
AcDbLine
 10
793.6236850443358
 20
1023.634589983703
 30
0.0
 11
818.5723687236506
 21
1033.968673127031
 31
0.0
  0
LINE
  5
246
330
1F
100
AcDbEntity
  8
LAY-10
  6
CONTINUOUS
 62
     7
100
AcDbLine
 10
796.3024690708917
 20
1017.167433256124
 30
0.0
 11
821.2511527502068
 21
1027.501516399453
 31
0.0
  0
LINE
  5
247
330
1F
100
AcDbEntity
  8
LAY-10
  6
CONTINUOUS
 62
     7
100
AcDbLine
 10
628.5000000000038
 20
834.0528137469354
 30
0.0
 11
628.5000000000038
 21
807.0428385844084
 31
0.0
  0
LINE
  5
248
330
1F
100
AcDbEntity
  8
LAY-10
  6
CONTINUOUS
 62
     7
100
AcDbLine
 10
685.6204648509171
 20
812.7951923536843
 30
0.0
 11
695.9553020212579
 21
787.8446882921304
 31
0.0
  0
ARC
  5
249
330
1F
100
AcDbEntity
  8
LAY-10
  6
CONTINUOUS
 62
     7
100
AcDbCircle
 10
625.0000000000038
 20
949.9999999999877
 30
0.0
 40
143.0
100
AcDbArc
 50
271.4024843042648
 51
291.0975156957353
  0
ARC
  5
24A
330
1F
100
AcDbEntity
  8
LAY-10
  6
CONTINUOUS
 62
     7
100
AcDbCircle
 10
625.0000000000032
 20
949.9999999999877
 30
0.0
 40
150.0
100
AcDbArc
 50
293.8370228631375
 51
313.662977136863
  0
TEXT
  5
24B
330
1F
100
AcDbEntity
  8
LAY-10
  6
CONTINUOUS
 62
     7
100
AcDbText
 10
669.324403875201
 20
680.8048830533521
 30
0.0
 40
14.0314968
  1
０
 50
11.11454796134777
 41
1.11999994913737
  7
EXCADSTD
100
AcDbText
  0
TEXT
  5
24C
330
1F
100
AcDbEntity
  8
LAY-10
  6
CONTINUOUS
 62
     7
100
AcDbText
 10
637.2321342252725
 20
677.4723524867503
 30
0.0
 40
14.0314968
  1
６
 50
4.208373185768312
 41
1.040000025431315
  7
EXCADSTD
100
AcDbText
  0
CIRCLE
  5
24D
330
1F
100
AcDbEntity
  8
LAY-10
  6
CONTINUOUS
 62
     7
100
AcDbCircle
 10
707.1353143236248
 20
697.5242419926499
 30
0.0
 40
11.0
  0
CIRCLE
  5
24E
330
1F
100
AcDbEntity
  8
LAY-10
  6
CONTINUOUS
 62
     7
100
AcDbCircle
 10
676.1807208742222
 20
689.4798432918835
 30
0.0
 40
11.0
  0
CIRCLE
  5
24F
330
1F
100
AcDbEntity
  8
LAY-10
  6
CONTINUOUS
 62
     7
100
AcDbCircle
 10
644.4834326218325
 20
685.215910421912
 30
0.0
 40
11.0
  0
LINE
  5
250
330
1F
100
AcDbEntity
  8
LAY-10
  6
CONTINUOUS
 62
     7
100
AcDbLine
 10
628.5000000000038
 20
698.0243067277993
 30
0.0
 11
628.5000000000038
 21
671.0219542687869
 31
0.0
  0
ARC
  5
251
330
1F
100
AcDbEntity
  8
LAY-10
  6
CONTINUOUS
 62
     7
100
AcDbCircle
 10
625.0000000000038
 20
949.9999999999877
 30
0.0
 40
279.0
100
AcDbArc
 50
270.7187831126976
 51
291.7812168873027
  0
ARC
  5
252
330
1F
100
AcDbEntity
  8
LAY-10
  6
CONTINUOUS
 62
     7
100
AcDbCircle
 10
625.0000000000038
 20
949.9999999999877
 30
0.0
 40
313.0
100
AcDbArc
 50
270.6407009829719
 51
291.8592990170283
  0
ARC
  5
253
330
1F
100
AcDbEntity
  8
LAY-10
  6
CONTINUOUS
 62
     7
100
AcDbCircle
 10
625.0000000000038
 20
949.9999999999877
 30
0.0
 40
286.0
100
AcDbArc
 50
270.7011896296743
 51
291.7988103703256
  0
LINE
  5
254
330
1F
100
AcDbEntity
  8
LAY-10
  6
CONTINUOUS
 62
     7
100
AcDbLine
 10
731.2056874052579
 20
684.4508483109314
 30
0.0
 11
741.5463359664875
 21
659.4863143106769
 31
0.0
  0
LINE
  5
255
330
1F
100
AcDbEntity
  8
LAY-10
  6
CONTINUOUS
 62
     7
100
AcDbLine
 10
628.5000000000038
 20
664.0214168857972
 30
0.0
 11
628.5000000000038
 21
637.0195693018368
 31
0.0
  0
ARC
  5
256
330
1F
100
AcDbEntity
  8
LAY-10
  6
CONTINUOUS
 62
     7
100
AcDbCircle
 10
625.0000000000038
 20
949.9999999999877
 30
0.0
 40
252.0000000000001
100
AcDbArc
 50
270.7958003020015
 51
291.7041996979985
  0
ARC
  5
257
330
1F
100
AcDbEntity
  8
LAY-10
  6
CONTINUOUS
 62
     7
100
AcDbCircle
 10
625.0000000000038
 20
949.9999999999877
 30
0.0
 40
218.0000000000001
100
AcDbArc
 50
270.9199258919219
 51
291.5800741080782
  0
ARC
  5
258
330
1F
100
AcDbEntity
  8
LAY-10
  6
CONTINUOUS
 62
     7
100
AcDbCircle
 10
625.0000000000038
 20
949.9999999999877
 30
0.0
 40
211.0000000000001
100
AcDbArc
 50
270.9504475150767
 51
291.5495524849236
  0
ARC
  5
259
330
1F
100
AcDbEntity
  8
LAY-10
  6
CONTINUOUS
 62
     7
100
AcDbCircle
 10
625.0000000000038
 20
949.9999999999877
 30
0.0
 40
150.0
100
AcDbArc
 50
271.3370228631372
 51
291.1629771368629
  0
ARC
  5
25A
330
1F
100
AcDbEntity
  8
LAY-10
  6
CONTINUOUS
 62
     7
100
AcDbCircle
 10
625.0000000000038
 20
949.9999999999877
 30
0.0
 40
184.0
100
AcDbArc
 50
271.0899311055825
 51
291.4100688944173
  0
ARC
  5
25B
330
1F
100
AcDbEntity
  8
LAY-10
  6
CONTINUOUS
 62
     7
100
AcDbCircle
 10
625.0000000000038
 20
949.9999999999877
 30
0.0
 40
177.0
100
AcDbArc
 50
271.1330412383805
 51
291.3669587616197
  0
ARC
  5
25C
330
1F
100
AcDbEntity
  8
LAY-10
  6
CONTINUOUS
 62
     7
100
AcDbCircle
 10
625.0000000000038
 20
949.9999999999877
 30
0.0
 40
245.0000000000001
100
AcDbArc
 50
270.8185389789732
 51
291.681461021027
  0
LINE
  5
25D
330
1F
100
AcDbEntity
  8
LAY-10
  6
CONTINUOUS
 62
     7
100
AcDbLine
 10
711.6478139263154
 20
749.9596132232394
 30
0.0
 11
721.9814517192646
 21
725.0120047148516
 31
0.0
  0
LINE
  5
25E
330
1F
100
AcDbEntity
  8
LAY-10
  6
CONTINUOUS
 62
     7
100
AcDbLine
 10
718.1933448101883
 20
715.8654222821929
 30
0.0
 11
728.5266977311348
 21
690.9185015156561
 31
0.0
  0
LINE
  5
25F
330
1F
100
AcDbEntity
  8
LAY-10
  6
CONTINUOUS
 62
     7
100
AcDbLine
 10
724.6605015377673
 20
718.5442063087489
 30
0.0
 11
734.993854458714
 21
693.5972855422119
 31
0.0
  0
LINE
  5
260
330
1F
100
AcDbEntity
  8
LAY-10
  6
CONTINUOUS
 62
     7
100
AcDbLine
 10
705.1806571987373
 20
747.2808291966834
 30
0.0
 11
715.5142949916855
 21
722.3332206882955
 31
0.0
  0
LINE
  5
261
330
1F
100
AcDbEntity
  8
LAY-10
  6
CONTINUOUS
 62
     7
100
AcDbLine
 10
692.1674332561398
 20
778.6975309290997
 30
0.0
 11
702.5015163994686
 21
753.748847249785
 31
0.0
  0
LINE
  5
262
330
1F
100
AcDbEntity
  8
LAY-10
  6
CONTINUOUS
 62
     7
100
AcDbLine
 10
698.6345899837183
 20
781.3763149556559
 30
0.0
 11
708.9686731270468
 21
756.4276312763408
 31
0.0
  0
LINE
  5
263
330
1F
100
AcDbEntity
  8
LAY-10
  6
CONTINUOUS
 62
     7
100
AcDbLine
 10
679.153308123339
 20
810.1164083271289
 30
0.0
 11
689.4881452936793
 21
785.1659042655742
 31
0.0
  0
LINE
  5
264
330
1F
100
AcDbEntity
  8
LAY-10
  6
CONTINUOUS
 62
     7
100
AcDbLine
 10
628.5000000000038
 20
766.0332910551355
 30
0.0
 11
628.5000000000038
 21
739.0290304330824
 31
0.0
  0
LINE
  5
265
330
1F
100
AcDbEntity
  8
LAY-10
  6
CONTINUOUS
 62
     7
100
AcDbLine
 10
628.5000000000038
 20
732.0280981410556
 30
0.0
 11
628.5000000000038
 21
705.0250012756283
 31
0.0
  0
LINE
  5
266
330
1F
100
AcDbEntity
  8
LAY-10
  6
CONTINUOUS
 62
     7
100
AcDbLine
 10
628.5000000000038
 20
800.0408388927048
 30
0.0
 11
628.5000000000038
 21
773.0346079031148
 31
0.0
  0
ARC
  5
267
330
1F
100
AcDbEntity
  8
LAY-10
  6
CONTINUOUS
 62
     7
100
AcDbCircle
 10
625.0000000000038
 20
949.9999999999877
 30
0.0
 40
82.0
100
AcDbArc
 50
339.9462947381311
 51
357.5537052618686
  0
ARC
  5
268
330
1F
100
AcDbEntity
  8
LAY-10
  6
CONTINUOUS
 62
     7
100
AcDbCircle
 10
625.0000000000038
 20
949.9999999999877
 30
0.0
 40
109.0000000000001
100
AcDbArc
 50
339.3400890354995
 51
358.1599109645007
  0
ARC
  5
269
330
1F
100
AcDbEntity
  8
LAY-10
  6
CONTINUOUS
 62
     7
100
AcDbCircle
 10
625.0000000000038
 20
949.9999999999877
 30
0.0
 40
116.0000000000001
100
AcDbArc
 50
339.2290143775493
 51
358.2709856224507
  0
LINE
  5
26A
330
1F
100
AcDbEntity
  8
LAY-10
  6
CONTINUOUS
 62
     7
100
AcDbLine
 10
653.1178654735496
 20
872.9715270746365
 30
0.0
 11
663.4574062179686
 21
848.009667580751
 31
0.0
  0
ARC
  5
26B
330
1F
100
AcDbEntity
  8
LAY-10
  6
CONTINUOUS
 62
     7
100
AcDbCircle
 10
625.0000000000038
 20
949.9999999999877
 30
0.0
 40
116.0000000000001
100
AcDbArc
 50
271.7290143775494
 51
290.7709856224508
  0
ARC
  5
26C
330
1F
100
AcDbEntity
  8
LAY-10
  6
CONTINUOUS
 62
     7
100
AcDbCircle
 10
625.0000000000038
 20
949.9999999999877
 30
0.0
 40
109.0000000000001
100
AcDbArc
 50
271.8400890354995
 51
290.6599109645006
  0
LINE
  5
26D
330
1F
100
AcDbEntity
  8
LAY-10
  6
CONTINUOUS
 62
     7
100
AcDbLine
 10
659.5850222011283
 20
875.6503111011926
 30
0.0
 11
669.9245629455473
 21
850.6884516073065
 31
0.0
  0
LINE
  5
26E
330
1F
100
AcDbEntity
  8
LAY-10
  6
CONTINUOUS
 62
     7
100
AcDbLine
 10
680.4550408178326
 20
889.5952117138529
 30
0.0
 11
699.5600209565033
 21
870.4902315751821
 31
0.0
  0
ARC
  5
26F
330
1F
100
AcDbEntity
  8
LAY-10
  6
CONTINUOUS
 62
     7
100
AcDbCircle
 10
625.0000000000038
 20
949.9999999999881
 30
0.0
 40
116.0000000000001
100
AcDbArc
 50
316.7290143775494
 51
335.770985622451
  0
ARC
  5
270
330
1F
100
AcDbEntity
  8
LAY-10
  6
CONTINUOUS
 62
     7
100
AcDbCircle
 10
625.0000000000032
 20
949.9999999999877
 30
0.0
 40
109.0000000000001
100
AcDbArc
 50
294.3400890354998
 51
313.1599109645005
  0
ARC
  5
271
330
1F
100
AcDbEntity
  8
LAY-10
  6
CONTINUOUS
 62
     7
100
AcDbCircle
 10
625.0000000000032
 20
949.9999999999877
 30
0.0
 40
116.0000000000001
100
AcDbArc
 50
294.2290143775492
 51
313.270985622451
  0
ARC
  5
272
330
1F
100
AcDbEntity
  8
LAY-10
  6
CONTINUOUS
 62
     7
100
AcDbCircle
 10
625.0000000000032
 20
949.9999999999877
 30
0.0
 40
143.0
100
AcDbArc
 50
293.9024843042648
 51
313.5975156957352
  0
LINE
  5
273
330
1F
100
AcDbEntity
  8
LAY-10
  6
CONTINUOUS
 62
     7
100
AcDbLine
 10
709.461915393189
 20
870.4878320751084
 30
0.0
 11
728.5608519902922
 21
851.3888954780049
 31
0.0
  0
LINE
  5
274
330
1F
100
AcDbEntity
  8
LAY-10
  6
CONTINUOUS
 62
     7
100
AcDbLine
 10
704.5121679248833
 20
865.5380846068024
 30
0.0
 11
723.6111045219864
 21
846.4391480096992
 31
0.0
  0
LINE
  5
275
330
1F
100
AcDbEntity
  8
LAY-10
  6
CONTINUOUS
 62
     7
100
AcDbLine
 10
672.604645572185
 20
844.2181597817967
 30
0.0
 11
682.9409155754765
 21
819.2641965554994
 31
0.0
  0
LINE
  5
276
330
1F
100
AcDbEntity
  8
LAY-10
  6
CONTINUOUS
 62
     7
100
AcDbLine
 10
666.1374888446068
 20
841.539375755241
 30
0.0
 11
676.4737588478985
 21
816.585412528944
 31
0.0
  0
LINE
  5
277
330
1F
100
AcDbEntity
  8
LAY-10
  6
CONTINUOUS
 62
     7
100
AcDbLine
 10
685.4047882861388
 20
894.5449591821588
 30
0.0
 11
704.5097684248095
 21
875.4399790434883
 31
0.0
  0
LINE
  5
278
330
1F
100
AcDbEntity
  8
LAY-10
  6
CONTINUOUS
 62
     7
100
AcDbLine
 10
699.349688898799
 20
915.4149777988632
 30
0.0
 11
724.3115483926849
 21
905.0754370544441
 31
0.0
  0
ARC
  5
279
330
1F
100
AcDbEntity
  8
LAY-10
  6
CONTINUOUS
 62
     7
100
AcDbCircle
 10
625.0000000000038
 20
949.9999999999881
 30
0.0
 40
109.0000000000001
100
AcDbArc
 50
316.8400890354996
 51
335.6599109645008
  0
LINE
  5
27A
330
1F
100
AcDbEntity
  8
LAY-10
  6
CONTINUOUS
 62
     7
100
AcDbLine
 10
702.028472925355
 20
921.8821345264422
 30
0.0
 11
726.9903324192406
 21
911.5425937820231
 31
0.0
  0
ARC
  5
27B
330
1F
100
AcDbEntity
  8
LAY-10
  6
CONTINUOUS
 62
     7
100
AcDbCircle
 10
625.0000000000038
 20
949.9999999999881
 30
0.0
 40
82.0
100
AcDbArc
 50
317.4462947381313
 51
335.0537052618688
  0
ARC
  5
27C
330
1F
100
AcDbEntity
  8
LAY-10
  6
CONTINUOUS
 62
     7
100
AcDbCircle
 10
625.0000000000032
 20
949.9999999999877
 30
0.0
 40
82.0
100
AcDbArc
 50
294.9462947381313
 51
312.5537052618689
  0
LINE
  5
27D
330
1F
100
AcDbEntity
  8
LAY-10
  6
CONTINUOUS
 62
     7
100
AcDbLine
 10
628.5000000000038
 20
868.0747291734599
 30
0.0
 11
628.5000000000038
 21
841.0562071524834
 31
0.0
  0
ARC
  5
27E
330
1F
100
AcDbEntity
  8
LAY-10
  6
CONTINUOUS
 62
     7
100
AcDbCircle
 10
625.0000000000038
 20
949.9999999999877
 30
0.0
 40
82.0
100
AcDbArc
 50
272.4462947381315
 51
290.0537052618687
  0
LINE
  5
27F
330
1F
100
AcDbEntity
  8
LAY-10
  6
CONTINUOUS
 62
     7
100
AcDbLine
 10
653.1178654735496
 20
1027.028472925339
 30
0.0
 11
663.4574062179686
 21
1051.990332419225
 31
0.0
  0
ARC
  5
280
330
1F
100
AcDbEntity
  8
LAY-10
  6
CONTINUOUS
 62
     7
100
AcDbCircle
 10
625.0000000000038
 20
949.9999999999872
 30
0.0
 40
82.0
100
AcDbArc
 50
24.94629473813126
 51
42.55370526186895
  0
ARC
  5
281
330
1F
100
AcDbEntity
  8
LAY-10
  6
CONTINUOUS
 62
     7
100
AcDbCircle
 10
625.0000000000038
 20
949.9999999999872
 30
0.0
 40
109.0000000000001
100
AcDbArc
 50
24.34008903549972
 51
43.15991096450049
  0
LINE
  5
282
330
1F
100
AcDbEntity
  8
LAY-10
  6
CONTINUOUS
 62
     7
100
AcDbLine
 10
699.349688898799
 20
984.5850222011122
 30
0.0
 11
724.3115483926849
 21
994.9245629455314
 31
0.0
  0
ARC
  5
283
330
1F
100
AcDbEntity
  8
LAY-10
  6
CONTINUOUS
 62
     7
100
AcDbCircle
 10
625.0000000000038
 20
949.9999999999877
 30
0.0
 40
116.0000000000001
100
AcDbArc
 50
1.729014377549265
 51
20.77098562245084
  0
ARC
  5
284
330
1F
100
AcDbEntity
  8
LAY-10
  6
CONTINUOUS
 62
     7
100
AcDbCircle
 10
625.0000000000038
 20
949.9999999999877
 30
0.0
 40
109.0000000000001
100
AcDbArc
 50
1.840089035499552
 51
20.6599109645005
  0
ARC
  5
285
330
1F
100
AcDbEntity
  8
LAY-10
  6
CONTINUOUS
 62
     7
100
AcDbCircle
 10
625.0000000000038
 20
949.9999999999877
 30
0.0
 40
82.0
100
AcDbArc
 50
2.446294738131262
 51
20.05370526186873
  0
LINE
  5
286
330
1F
100
AcDbEntity
  8
LAY-10
  6
CONTINUOUS
 62
     7
100
AcDbLine
 10
706.9252708265317
 20
946.4999999999878
 30
0.0
 11
733.9437928475082
 21
946.4999999999878
 31
0.0
  0
LINE
  5
287
330
1F
100
AcDbEntity
  8
LAY-10
  6
CONTINUOUS
 62
     7
100
AcDbLine
 10
706.9252708265317
 20
953.4999999999877
 30
0.0
 11
733.9437928475082
 21
953.4999999999877
 31
0.0
  0
LINE
  5
288
330
1F
100
AcDbEntity
  8
LAY-10
  6
CONTINUOUS
 62
     7
100
AcDbLine
 10
702.028472925355
 20
978.1178654735334
 30
0.0
 11
726.9903324192406
 21
988.4574062179524
 31
0.0
  0
ARC
  5
289
330
1F
100
AcDbEntity
  8
LAY-10
  6
CONTINUOUS
 62
     7
100
AcDbCircle
 10
625.0000000000032
 20
949.9999999999877
 30
0.0
 40
116.0000000000001
100
AcDbArc
 50
46.72901437754926
 51
65.77098562245078
  0
ARC
  5
28A
330
1F
100
AcDbEntity
  8
LAY-10
  6
CONTINUOUS
 62
     7
100
AcDbCircle
 10
625.0000000000032
 20
949.9999999999877
 30
0.0
 40
109.0000000000001
100
AcDbArc
 50
46.84008903549942
 51
65.65991096450048
  0
LINE
  5
28B
330
1F
100
AcDbEntity
  8
LAY-10
  6
CONTINUOUS
 62
     7
100
AcDbLine
 10
685.4047882861388
 20
1005.455040817817
 30
0.0
 11
704.5097684248095
 21
1024.560020956487
 31
0.0
  0
ARC
  5
28C
330
1F
100
AcDbEntity
  8
LAY-10
  6
CONTINUOUS
 62
     7
100
AcDbCircle
 10
625.0000000000038
 20
949.9999999999872
 30
0.0
 40
116.0000000000001
100
AcDbArc
 50
24.22901437754926
 51
43.27098562245078
  0
LINE
  5
28D
330
1F
100
AcDbEntity
  8
LAY-10
  6
CONTINUOUS
 62
     7
100
AcDbLine
 10
704.5121679248833
 20
1034.461915393173
 30
0.0
 11
723.6111045219864
 21
1053.560851990276
 31
0.0
  0
LINE
  5
28E
330
1F
100
AcDbEntity
  8
LAY-10
  6
CONTINUOUS
 62
     7
100
AcDbLine
 10
709.461915393189
 20
1029.512167924867
 30
0.0
 11
728.5608519902922
 21
1048.61110452197
 31
0.0
  0
LINE
  5
28F
330
1F
100
AcDbEntity
  8
LAY-10
  6
CONTINUOUS
 62
     7
100
AcDbLine
 10
680.4550408178326
 20
1010.404788286123
 30
0.0
 11
699.5600209565033
 21
1029.509768424793
 31
0.0
  0
LINE
  5
290
330
1F
100
AcDbEntity
  8
LAY-10
  6
CONTINUOUS
 62
     7
100
AcDbLine
 10
659.5850222011283
 20
1024.349688898783
 30
0.0
 11
669.9245629455473
 21
1049.311548392669
 31
0.0
  0
ARC
  5
291
330
1F
100
AcDbEntity
  8
LAY-10
  6
CONTINUOUS
 62
     7
100
AcDbCircle
 10
625.0000000000032
 20
949.9999999999877
 30
0.0
 40
82.0
100
AcDbArc
 50
47.44629473813108
 51
65.05370526186877
  0
ARC
  5
292
330
1F
100
AcDbEntity
  8
LAY-10
  6
CONTINUOUS
 62
     7
100
AcDbCircle
 10
625.0000000000038
 20
949.9999999999877
 30
0.0
 40
82.0
100
AcDbArc
 50
69.94629473813119
 51
87.55370526186871
  0
LINE
  5
293
330
1F
100
AcDbEntity
  8
LAY-10
  6
CONTINUOUS
 62
     7
100
AcDbLine
 10
628.5000000000038
 20
1031.925270826516
 30
0.0
 11
628.5000000000038
 21
1058.943792847492
 31
0.0
  0
LINE
  5
294
330
1F
100
AcDbEntity
  8
LAY-10
  6
CONTINUOUS
 62
     7
100
AcDbLine
 10
737.672844132837
 20
1212.870367662488
 30
0.0
 11
748.0134926940661
 21
1237.834901662742
 31
0.0
  0
ARC
  5
295
330
1F
100
AcDbEntity
  8
LAY-10
  6
CONTINUOUS
 62
     7
100
AcDbCircle
 10
625.0000000000032
 20
949.9999999999877
 30
0.0
 40
286.0
100
AcDbArc
 50
45.70118962967427
 51
66.79881037032564
  0
ARC
  5
296
330
1F
100
AcDbEntity
  8
LAY-10
  6
CONTINUOUS
 62
     7
100
AcDbCircle
 10
625.0000000000032
 20
949.9999999999877
 30
0.0
 40
279.0
100
AcDbArc
 50
45.71878311269749
 51
66.78121688730248
  0
ARC
  5
297
330
1F
100
AcDbEntity
  8
LAY-10
  6
CONTINUOUS
 62
     7
100
AcDbCircle
 10
625.0000000000032
 20
949.9999999999877
 30
0.0
 40
218.0000000000001
100
AcDbArc
 50
45.91992589192191
 51
66.58007410807801
  0
ARC
  5
298
330
1F
100
AcDbEntity
  8
LAY-10
  6
CONTINUOUS
 62
     7
100
AcDbCircle
 10
625.0000000000032
 20
949.9999999999877
 30
0.0
 40
211.0000000000001
100
AcDbArc
 50
45.95044751507641
 51
66.54955248492344
  0
ARC
  5
299
330
1F
100
AcDbEntity
  8
LAY-10
  6
CONTINUOUS
 62
     7
100
AcDbCircle
 10
625.0000000000032
 20
949.9999999999877
 30
0.0
 40
252.0000000000001
100
AcDbArc
 50
45.79580030200135
 51
66.7041996979985
  0
ARC
  5
29A
330
1F
100
AcDbEntity
  8
LAY-10
  6
CONTINUOUS
 62
     7
100
AcDbCircle
 10
625.0000000000032
 20
949.9999999999877
 30
0.0
 40
245.0000000000001
100
AcDbArc
 50
45.81853897897307
 51
66.68146102102683
  0
ARC
  5
29B
330
1F
100
AcDbEntity
  8
LAY-10
  6
CONTINUOUS
 62
     7
100
AcDbCircle
 10
625.0000000000032
 20
949.9999999999877
 30
0.0
 40
184.0
100
AcDbArc
 50
46.08993110558251
 51
66.41006889441722
  0
ARC
  5
29C
330
1F
100
AcDbEntity
  8
LAY-10
  6
CONTINUOUS
 62
     7
100
AcDbCircle
 10
625.0000000000032
 20
949.9999999999877
 30
0.0
 40
177.0
100
AcDbArc
 50
46.13304123838022
 51
66.36695876161959
  0
ARC
  5
29D
330
1F
100
AcDbEntity
  8
LAY-10
  6
CONTINUOUS
 62
     7
100
AcDbCircle
 10
625.0000000000038
 20
949.9999999999872
 30
0.0
 40
313.0
100
AcDbArc
 50
23.14070098297196
 51
44.35929901702825
  0
ARC
  5
29E
330
1F
100
AcDbEntity
  8
LAY-10
  6
CONTINUOUS
 62
     7
100
AcDbCircle
 10
625.0000000000032
 20
949.9999999999877
 30
0.0
 40
313.0
100
AcDbArc
 50
45.64070098297179
 51
66.85929901702806
  0
LINE
  5
29F
330
1F
100
AcDbEntity
  8
LAY-10
  6
CONTINUOUS
 62
     7
100
AcDbLine
 10
824.7425216600154
 20
1154.692269128305
 30
0.0
 11
843.8357111911992
 21
1173.785458659489
 31
0.0
  0
ARC
  5
2A0
330
1F
100
AcDbEntity
  8
LAY-10
  6
CONTINUOUS
 62
     7
100
AcDbCircle
 10
625.0000000000038
 20
949.9999999999872
 30
0.0
 40
279.0
100
AcDbArc
 50
23.21878311269756
 51
44.28121688730254
  0
ARC
  5
2A1
330
1F
100
AcDbEntity
  8
LAY-10
  6
CONTINUOUS
 62
     7
100
AcDbCircle
 10
625.0000000000038
 20
949.9999999999872
 30
0.0
 40
286.0
100
AcDbArc
 50
23.20118962967451
 51
44.29881037032576
  0
LINE
  5
2A2
330
1F
100
AcDbEntity
  8
LAY-10
  6
CONTINUOUS
 62
     7
100
AcDbLine
 10
887.8703676625042
 20
1062.672844132821
 30
0.0
 11
912.8349016627586
 21
1073.01349269405
 31
0.0
  0
LINE
  5
2A3
330
1F
100
AcDbEntity
  8
LAY-10
  6
CONTINUOUS
 62
     7
100
AcDbLine
 10
829.6922691283214
 20
1149.74252166
 30
0.0
 11
848.7854586595051
 21
1168.835711191183
 31
0.0
  0
LINE
  5
2A4
330
1F
100
AcDbEntity
  8
LAY-10
  6
CONTINUOUS
 62
     7
100
AcDbLine
 10
776.6545361784298
 20
1106.60428364672
 30
0.0
 11
795.7486090850108
 21
1125.698356553301
 31
0.0
  0
LINE
  5
2A5
330
1F
100
AcDbEntity
  8
LAY-10
  6
CONTINUOUS
 62
     7
100
AcDbLine
 10
781.604283646736
 20
1101.654536178414
 30
0.0
 11
800.6983565533166
 21
1120.748609084995
 31
0.0
  0
LINE
  5
2A6
330
1F
100
AcDbEntity
  8
LAY-10
  6
CONTINUOUS
 62
     7
100
AcDbLine
 10
752.6092336733274
 20
1082.558981141617
 30
0.0
 11
771.7041294801098
 21
1101.6538769484
 31
0.0
  0
LINE
  5
2A7
330
1F
100
AcDbEntity
  8
LAY-10
  6
CONTINUOUS
 62
     7
100
AcDbLine
 10
757.5589811416332
 20
1077.609233673312
 30
0.0
 11
776.6538769484159
 21
1096.704129480094
 31
0.0
  0
LINE
  5
2A8
330
1F
100
AcDbEntity
  8
LAY-10
  6
CONTINUOUS
 62
     7
100
AcDbLine
 10
800.6988476727963
 20
1130.648595141086
 30
0.0
 11
819.7923942045533
 21
1149.742141672843
 31
0.0
  0
LINE
  5
2A9
330
1F
100
AcDbEntity
  8
LAY-10
  6
CONTINUOUS
 62
     7
100
AcDbLine
 10
805.6485951411025
 20
1125.69884767278
 30
0.0
 11
824.742141672859
 21
1144.792394204537
 31
0.0
  0
LINE
  5
2AA
330
1F
100
AcDbEntity
  8
LAY-10
  6
CONTINUOUS
 62
     7
100
AcDbLine
 10
628.5000000000038
 20
1167.97190185892
 30
0.0
 11
628.5000000000038
 21
1194.974998724347
 31
0.0
  0
ARC
  5
2AB
330
1F
100
AcDbEntity
  8
LAY-10
  6
CONTINUOUS
 62
     7
100
AcDbCircle
 10
625.0000000000038
 20
949.9999999999877
 30
0.0
 40
245.0000000000001
100
AcDbArc
 50
68.31853897897312
 51
89.18146102102695
  0
LINE
  5
2AC
330
1F
100
AcDbEntity
  8
LAY-10
  6
CONTINUOUS
 62
     7
100
AcDbLine
 10
724.6605015377673
 20
1181.455793691227
 30
0.0
 11
734.993854458714
 21
1206.402714457763
 31
0.0
  0
ARC
  5
2AD
330
1F
100
AcDbEntity
  8
LAY-10
  6
CONTINUOUS
 62
     7
100
AcDbCircle
 10
625.0000000000038
 20
949.9999999999877
 30
0.0
 40
177.0
100
AcDbArc
 50
68.63304123838044
 51
88.86695876161968
  0
ARC
  5
2AE
330
1F
100
AcDbEntity
  8
LAY-10
  6
CONTINUOUS
 62
     7
100
AcDbCircle
 10
625.0000000000038
 20
949.9999999999877
 30
0.0
 40
184.0
100
AcDbArc
 50
68.58993110558268
 51
88.91006889441745
  0
ARC
  5
2AF
330
1F
100
AcDbEntity
  8
LAY-10
  6
CONTINUOUS
 62
     7
100
AcDbCircle
 10
625.0000000000038
 20
949.9999999999877
 30
0.0
 40
143.0
100
AcDbArc
 50
68.90248430426473
 51
88.59751569573521
  0
ARC
  5
2B0
330
1F
100
AcDbEntity
  8
LAY-10
  6
CONTINUOUS
 62
     7
100
AcDbCircle
 10
625.0000000000038
 20
949.9999999999877
 30
0.0
 40
150.0
100
AcDbArc
 50
68.8370228631372
 51
88.66297713686275
  0
ARC
  5
2B1
330
1F
100
AcDbEntity
  8
LAY-10
  6
CONTINUOUS
 62
     7
100
AcDbCircle
 10
625.0000000000038
 20
949.9999999999877
 30
0.0
 40
211.0000000000001
100
AcDbArc
 50
68.45044751507658
 51
89.0495524849235
  0
ARC
  5
2B2
330
1F
100
AcDbEntity
  8
LAY-10
  6
CONTINUOUS
 62
     7
100
AcDbCircle
 10
625.0000000000038
 20
949.9999999999877
 30
0.0
 40
218.0000000000001
100
AcDbArc
 50
68.41992589192196
 51
89.08007410807805
  0
LINE
  5
2B3
330
1F
100
AcDbEntity
  8
LAY-10
  6
CONTINUOUS
 62
     7
100
AcDbLine
 10
698.6345899837183
 20
1118.62368504432
 30
0.0
 11
708.9686731270468
 21
1143.572368723635
 31
0.0
  0
LINE
  5
2B4
330
1F
100
AcDbEntity
  8
LAY-10
  6
CONTINUOUS
 62
     7
100
AcDbLine
 10
679.153308123339
 20
1089.883591672847
 30
0.0
 11
689.4881452936793
 21
1114.834095734401
 31
0.0
  0
LINE
  5
2B5
330
1F
100
AcDbEntity
  8
LAY-10
  6
CONTINUOUS
 62
     7
100
AcDbLine
 10
685.6204648509171
 20
1087.204807646291
 30
0.0
 11
695.9553020212579
 21
1112.155311707845
 31
0.0
  0
LINE
  5
2B6
330
1F
100
AcDbEntity
  8
LAY-10
  6
CONTINUOUS
 62
     7
100
AcDbLine
 10
692.1674332561398
 20
1121.302469070876
 30
0.0
 11
702.5015163994686
 21
1146.251152750191
 31
0.0
  0
LINE
  5
2B7
330
1F
100
AcDbEntity
  8
LAY-10
  6
CONTINUOUS
 62
     7
100
AcDbLine
 10
711.6478139263154
 20
1150.040386776736
 30
0.0
 11
721.9814517192646
 21
1174.987995285124
 31
0.0
  0
LINE
  5
2B8
330
1F
100
AcDbEntity
  8
LAY-10
  6
CONTINUOUS
 62
     7
100
AcDbLine
 10
705.1806571987373
 20
1152.719170803292
 30
0.0
 11
715.5142949916855
 21
1177.66677931168
 31
0.0
  0
LINE
  5
2B9
330
1F
100
AcDbEntity
  8
LAY-10
  6
CONTINUOUS
 62
     7
100
AcDbLine
 10
628.5000000000038
 20
1099.959161107271
 30
0.0
 11
628.5000000000038
 21
1126.965392096861
 31
0.0
  0
LINE
  5
2BA
330
1F
100
AcDbEntity
  8
LAY-10
  6
CONTINUOUS
 62
     7
100
AcDbLine
 10
628.5000000000038
 20
1065.94718625304
 30
0.0
 11
628.5000000000038
 21
1092.957161415567
 31
0.0
  0
LINE
  5
2BB
330
1F
100
AcDbEntity
  8
LAY-10
  6
CONTINUOUS
 62
     7
100
AcDbLine
 10
628.5000000000038
 20
1133.96670894484
 30
0.0
 11
628.5000000000038
 21
1160.970969566893
 31
0.0
  0
ARC
  5
2BC
330
1F
100
AcDbEntity
  8
LAY-10
  6
CONTINUOUS
 62
     7
100
AcDbCircle
 10
625.0000000000038
 20
949.9999999999877
 30
0.0
 40
252.0000000000001
100
AcDbArc
 50
68.29580030200151
 51
89.20419969799862
  0
ARC
  5
2BD
330
1F
100
AcDbEntity
  8
LAY-10
  6
CONTINUOUS
 62
     7
100
AcDbCircle
 10
625.0000000000038
 20
949.9999999999877
 30
0.0
 40
279.0
100
AcDbArc
 50
68.21878311269748
 51
89.28121688730252
  0
ARC
  5
2BE
330
1F
100
AcDbEntity
  8
LAY-10
  6
CONTINUOUS
 62
     7
100
AcDbCircle
 10
625.0000000000038
 20
949.9999999999877
 30
0.0
 40
286.0
100
AcDbArc
 50
68.20118962967439
 51
89.2988103703257
  0
ARC
  5
2BF
330
1F
100
AcDbEntity
  8
LAY-10
  6
CONTINUOUS
 62
     7
100
AcDbCircle
 10
625.0000000000038
 20
949.9999999999877
 30
0.0
 40
313.0
100
AcDbArc
 50
68.1407009829719
 51
89.35929901702818
  0
LINE
  5
2C0
330
1F
100
AcDbEntity
  8
LAY-10
  6
CONTINUOUS
 62
     7
100
AcDbLine
 10
718.1933448101883
 20
1184.134577717783
 30
0.0
 11
728.5266977311348
 21
1209.081498484319
 31
0.0
  0
LINE
  5
2C1
330
1F
100
AcDbEntity
  8
LAY-10
  6
CONTINUOUS
 62
     7
100
AcDbLine
 10
731.2056874052579
 20
1215.549151689044
 30
0.0
 11
741.5463359664875
 21
1240.513685689298
 31
0.0
  0
LINE
  5
2C2
330
1F
100
AcDbEntity
  8
LAY-10
  6
CONTINUOUS
 62
     7
100
AcDbLine
 10
628.5000000000038
 20
1235.978583114178
 30
0.0
 11
628.5000000000038
 21
1262.980430698138
 31
0.0
  0
LINE
  5
2C3
330
1F
100
AcDbEntity
  8
LAY-10
  6
CONTINUOUS
 62
     7
100
AcDbLine
 10
628.5000000000038
 20
1201.975693272176
 30
0.0
 11
628.5000000000038
 21
1228.978045731188
 31
0.0
  0
LINE
  5
2C4
330
1F
100
AcDbEntity
  8
LAY-10
  6
CONTINUOUS
 62
     7
100
AcDbLine
 10
993.0000000000032
 20
610.9999999999874
 30
0.0
 11
993.0000000000032
 21
1288.999999999987
 31
0.0
  0
CIRCLE
  5
2C5
330
1F
100
AcDbEntity
  8
LAY-10
  6
CONTINUOUS
 62
     7
100
AcDbCircle
 10
625.0000000000038
 20
949.9999999999877
 30
0.0
 40
340.0
  0
LINE
  5
2C6
330
1F
100
AcDbEntity
  8
LAY-10
  6
CONTINUOUS
 62
     7
100
AcDbLine
 10
959.664010613634
 20
1009.999999999988
 30
0.0
 11
985.0000000000034
 21
1009.999999999988
 31
0.0
  0
LINE
  5
2C7
330
1F
100
AcDbEntity
  8
LAY-10
  6
CONTINUOUS
 62
     7
100
AcDbLine
 10
958.7289319193087
 20
1014.999999999988
 30
0.0
 11
980.0000000000034
 21
1014.999999999988
 31
0.0
  0
LINE
  5
2C8
330
1F
100
AcDbEntity
  8
LAY-10
  6
CONTINUOUS
 62
     7
100
AcDbLine
 10
985.0000000000034
 20
1009.999999999988
 30
0.0
 11
985.0000000000034
 21
1239.330952441675
 31
0.0
  0
LINE
  5
2C9
330
1F
100
AcDbEntity
  8
LAY-10
  6
CONTINUOUS
 62
     7
100
AcDbLine
 10
980.0000000000034
 20
1014.999999999988
 30
0.0
 11
980.0000000000031
 21
1239.330952441675
 31
0.0
  0
LINE
  5
2CA
330
1F
100
AcDbEntity
  8
LAY-10
  6
CONTINUOUS
 62
     7
100
AcDbLine
 10
871.6960229783137
 20
1183.96810091694
 30
0.0
 11
944.0294372515262
 21
1256.301515190152
 31
0.0
  0
LINE
  5
2CB
330
1F
100
AcDbEntity
  8
LAY-10
  6
CONTINUOUS
 62
     7
100
AcDbLine
 10
888.0437226013995
 20
1193.24473272816
 30
0.0
 11
947.5649711574587
 21
1252.765981284219
 31
0.0
  0
LINE
  5
2CC
330
1F
100
AcDbEntity
  8
LAY-10
  6
CONTINUOUS
 62
     7
100
AcDbLine
 10
286.0000000000025
 20
1317.999999999988
 30
0.0
 11
964.0000000000032
 21
1317.999999999988
 31
0.0
  0
LINE
  5
2CD
330
1F
100
AcDbEntity
  8
LAY-10
  6
CONTINUOUS
 62
     7
100
AcDbLine
 10
992.0000000000033
 20
610.9999999999877
 30
0.0
 11
992.0000000000033
 21
1288.999999999987
 31
0.0
  0
LINE
  5
2CE
330
1F
100
AcDbEntity
  8
LAY-10
  6
CONTINUOUS
 62
     7
100
AcDbLine
 10
286.0000000000025
 20
1316.999999999988
 30
0.0
 11
964.0000000000032
 21
1316.999999999987
 31
0.0
  0
LINE
  5
2CF
330
1F
100
AcDbEntity
  8
LAY-10
  6
CONTINUOUS
 62
     7
100
AcDbLine
 10
980.0000000000034
 20
884.9999999999877
 30
0.0
 11
980.0000000000034
 21
660.6690475583005
 31
0.0
  0
LINE
  5
2D0
330
1F
100
AcDbEntity
  8
LAY-10
  6
CONTINUOUS
 62
     7
100
AcDbLine
 10
985.0000000000034
 20
889.9999999999877
 30
0.0
 11
985.0000000000034
 21
660.6690475583002
 31
0.0
  0
LINE
  5
2D1
330
1F
100
AcDbEntity
  8
LAY-10
  6
CONTINUOUS
 62
     7
100
AcDbLine
 10
958.7289319193087
 20
884.9999999999877
 30
0.0
 11
980.0000000000034
 21
884.9999999999877
 31
0.0
  0
LINE
  5
2D2
330
1F
100
AcDbEntity
  8
LAY-10
  6
CONTINUOUS
 62
     7
100
AcDbLine
 10
959.664010613634
 20
889.9999999999877
 30
0.0
 11
985.0000000000034
 21
889.9999999999877
 31
0.0
  0
CIRCLE
  5
2D3
330
1F
100
AcDbEntity
  8
LAY-10
  6
CONTINUOUS
 62
     7
100
AcDbCircle
 10
962.5000000000042
 20
1287.499999999988
 30
0.0
 40
5.0
  0
ARC
  5
2D4
330
1F
100
AcDbEntity
  8
LAY-10
  6
CONTINUOUS
 62
     7
100
AcDbCircle
 10
964.0000000000032
 20
1288.999999999987
 30
0.0
 40
29.00000000000001
100
AcDbArc
 50
0.0
 51
90.0
  0
ARC
  5
2D5
330
1F
100
AcDbEntity
  8
LAY-10
  6
CONTINUOUS
 62
     7
100
AcDbCircle
 10
964.0000000000032
 20
1288.999999999987
 30
0.0
 40
28.00000000000002
100
AcDbArc
 50
0.0
 51
90.0
  0
ARC
  5
2D6
330
1F
100
AcDbEntity
  8
LAY-10
  6
CONTINUOUS
 62
     7
100
AcDbCircle
 10
961.0000000000033
 20
1239.330952441675
 30
0.0
 40
24.00000000000001
100
AcDbArc
 50
0.0
 51
134.9999999999996
  0
ARC
  5
2D7
330
1F
100
AcDbEntity
  8
LAY-10
  6
CONTINUOUS
 62
     7
100
AcDbCircle
 10
961.0000000000031
 20
1239.330952441675
 30
0.0
 40
19.0
100
AcDbArc
 50
0.0
 51
135.0
  0
LINE
  5
2D8
330
1F
100
AcDbEntity
  8
LAY-10
  6
CONTINUOUS
 62
     7
100
AcDbLine
 10
879.354541631418
 20
1176.07027038394
 30
0.0
 11
888.0437226013995
 21
1193.24473272816
 31
0.0
  0
LINE
  5
2D9
330
1F
100
AcDbEntity
  8
LAY-10
  6
CONTINUOUS
 62
     7
100
AcDbLine
 10
888.0437226013995
 20
706.7552672718153
 30
0.0
 11
947.5649711574587
 21
647.2340187157562
 31
0.0
  0
LINE
  5
2DA
330
1F
100
AcDbEntity
  8
LAY-10
  6
CONTINUOUS
 62
     7
100
AcDbLine
 10
871.6960229783137
 20
716.0318990830356
 30
0.0
 11
944.0294372515262
 21
643.6984848098231
 31
0.0
  0
LINE
  5
2DB
330
1F
100
AcDbEntity
  8
LAY-10
  6
CONTINUOUS
 62
     7
100
AcDbLine
 10
879.354541631418
 20
723.9297296160353
 30
0.0
 11
888.0437226013995
 21
706.7552672718153
 31
0.0
  0
ARC
  5
2DC
330
1F
100
AcDbEntity
  8
LAY-10
  6
CONTINUOUS
 62
     7
100
AcDbCircle
 10
961.0000000000033
 20
660.6690475583002
 30
0.0
 40
24.00000000000001
100
AcDbArc
 50
225.0000000000002
 51
0.0
  0
ARC
  5
2DD
330
1F
100
AcDbEntity
  8
LAY-10
  6
CONTINUOUS
 62
     7
100
AcDbCircle
 10
961.0000000000031
 20
660.6690475583005
 30
0.0
 40
19.0
100
AcDbArc
 50
224.9999999999998
 51
0.0
  0
ARC
  5
2DE
330
1F
100
AcDbEntity
  8
LAY-10
  6
CONTINUOUS
 62
     7
100
AcDbCircle
 10
964.0000000000032
 20
610.9999999999877
 30
0.0
 40
28.00000000000002
100
AcDbArc
 50
270.0
 51
0.0
  0
ARC
  5
2DF
330
1F
100
AcDbEntity
  8
LAY-10
  6
CONTINUOUS
 62
     7
100
AcDbCircle
 10
964.0000000000032
 20
610.9999999999874
 30
0.0
 40
29.00000000000001
100
AcDbArc
 50
270.0
 51
0.0
  0
CIRCLE
  5
2E0
330
1F
100
AcDbEntity
  8
LAY-10
  6
CONTINUOUS
 62
     7
100
AcDbCircle
 10
962.5000000000042
 20
612.4999999999872
 30
0.0
 40
5.0
  0
LINE
  5
2E1
330
1F
100
AcDbEntity
  8
LAY-10
  6
CONTINUOUS
 62
     7
100
AcDbLine
 10
265.0000000000043
 20
889.9999999999877
 30
0.0
 11
265.0000000000043
 21
660.6690475583002
 31
0.0
  0
LINE
  5
2E2
330
1F
100
AcDbEntity
  8
LAY-10
  6
CONTINUOUS
 62
     7
100
AcDbLine
 10
270.0000000000044
 20
884.9999999999877
 30
0.0
 11
270.0000000000044
 21
660.6690475583005
 31
0.0
  0
ARC
  5
2E3
330
1F
100
AcDbEntity
  8
LAY-10
  6
CONTINUOUS
 62
     7
100
AcDbCircle
 10
289.0000000000043
 20
660.6690475583002
 30
0.0
 40
24.00000000000001
100
AcDbArc
 50
180.0
 51
315.0000000000002
  0
ARC
  5
2E4
330
1F
100
AcDbEntity
  8
LAY-10
  6
CONTINUOUS
 62
     7
100
AcDbCircle
 10
289.0000000000046
 20
660.6690475583005
 30
0.0
 40
19.0
100
AcDbArc
 50
180.0
 51
315.0000000000002
  0
LINE
  5
2E5
330
1F
100
AcDbEntity
  8
LAY-10
  6
CONTINUOUS
 62
     7
100
AcDbLine
 10
378.3039770216939
 20
716.0318990830356
 30
0.0
 11
305.9705627484814
 21
643.6984848098231
 31
0.0
  0
LINE
  5
2E6
330
1F
100
AcDbEntity
  8
LAY-10
  6
CONTINUOUS
 62
     7
100
AcDbLine
 10
361.9562773986082
 20
706.7552672718153
 30
0.0
 11
302.4350288425489
 21
647.2340187157562
 31
0.0
  0
LINE
  5
2E7
330
1F
100
AcDbEntity
  8
LAY-10
  6
CONTINUOUS
 62
     7
100
AcDbLine
 10
370.6454583685898
 20
723.9297296160353
 30
0.0
 11
361.9562773986082
 21
706.7552672718153
 31
0.0
  0
LINE
  5
2E8
330
1F
100
AcDbEntity
  8
LAY-10
  6
CONTINUOUS
 62
     7
100
AcDbLine
 10
290.3359893863738
 20
889.9999999999877
 30
0.0
 11
265.0000000000043
 21
889.9999999999877
 31
0.0
  0
LINE
  5
2E9
330
1F
100
AcDbEntity
  8
LAY-10
  6
CONTINUOUS
 62
     7
100
AcDbLine
 10
291.271068080699
 20
884.9999999999877
 30
0.0
 11
270.0000000000044
 21
884.9999999999877
 31
0.0
  0
LINE
  5
2EA
330
1F
100
AcDbEntity
  8
LAY-10
  6
CONTINUOUS
 62
     7
100
AcDbLine
 10
290.3359893863738
 20
1009.999999999988
 30
0.0
 11
265.0000000000043
 21
1009.999999999988
 31
0.0
  0
LINE
  5
2EB
330
1F
100
AcDbEntity
  8
LAY-10
  6
CONTINUOUS
 62
     7
100
AcDbLine
 10
291.271068080699
 20
1014.999999999988
 30
0.0
 11
270.0000000000044
 21
1014.999999999988
 31
0.0
  0
LINE
  5
2EC
330
1F
100
AcDbEntity
  8
LAY-10
  6
CONTINUOUS
 62
     7
100
AcDbLine
 10
270.0000000000044
 20
1014.999999999988
 30
0.0
 11
270.0000000000044
 21
1239.330952441675
 31
0.0
  0
LINE
  5
2ED
330
1F
100
AcDbEntity
  8
LAY-10
  6
CONTINUOUS
 62
     7
100
AcDbLine
 10
265.0000000000043
 20
1009.999999999988
 30
0.0
 11
265.0000000000043
 21
1239.330952441675
 31
0.0
  0
ARC
  5
2EE
330
1F
100
AcDbEntity
  8
LAY-10
  6
CONTINUOUS
 62
     7
100
AcDbCircle
 10
289.0000000000043
 20
1239.330952441675
 30
0.0
 40
24.00000000000001
100
AcDbArc
 50
45.00000000000027
 51
180.0
  0
ARC
  5
2EF
330
1F
100
AcDbEntity
  8
LAY-10
  6
CONTINUOUS
 62
     7
100
AcDbCircle
 10
289.0000000000046
 20
1239.330952441675
 30
0.0
 40
19.0
100
AcDbArc
 50
45.0000000000001
 51
180.0
  0
LINE
  5
2F0
330
1F
100
AcDbEntity
  8
LAY-10
  6
CONTINUOUS
 62
     7
100
AcDbLine
 10
361.9562773986082
 20
1193.24473272816
 30
0.0
 11
302.4350288425489
 21
1252.765981284219
 31
0.0
  0
LINE
  5
2F1
330
1F
100
AcDbEntity
  8
LAY-10
  6
CONTINUOUS
 62
     7
100
AcDbLine
 10
378.3039770216939
 20
1183.96810091694
 30
0.0
 11
305.9705627484814
 21
1256.301515190152
 31
0.0
  0
LINE
  5
2F2
330
1F
100
AcDbEntity
  8
LAY-10
  6
CONTINUOUS
 62
     7
100
AcDbLine
 10
370.6454583685898
 20
1176.07027038394
 30
0.0
 11
361.9562773986082
 21
1193.24473272816
 31
0.0
  0
LINE
  5
2F3
330
1F
100
AcDbEntity
  8
LAY-10
  6
CONTINUOUS
 62
     7
100
AcDbLine
 10
851.0702703839564
 20
1204.354541631401
 30
0.0
 11
868.2447327281767
 21
1213.043722601383
 31
0.0
  0
LINE
  5
2F4
330
1F
100
AcDbEntity
  8
LAY-10
  6
CONTINUOUS
 62
     7
100
AcDbLine
 10
868.2447327281767
 20
1213.043722601383
 30
0.0
 11
927.7659812842359
 21
1272.564971157442
 31
0.0
  0
LINE
  5
2F5
330
1F
100
AcDbEntity
  8
LAY-10
  6
CONTINUOUS
 62
     7
100
AcDbLine
 10
858.9681009169562
 20
1196.696022978297
 30
0.0
 11
931.3015151901689
 21
1269.029437251509
 31
0.0
  0
LINE
  5
2F6
330
1F
100
AcDbEntity
  8
LAY-10
  6
CONTINUOUS
 62
     7
100
AcDbLine
 10
690.0000000000041
 20
1304.999999999987
 30
0.0
 11
914.3309524416915
 21
1304.999999999986
 31
0.0
  0
ARC
  5
2F7
330
1F
100
AcDbEntity
  8
LAY-10
  6
CONTINUOUS
 62
     7
100
AcDbCircle
 10
914.3309524416918
 20
1285.999999999986
 30
0.0
 40
24.00000000000001
100
AcDbArc
 50
314.9999999999994
 51
90.0
  0
ARC
  5
2F8
330
1F
100
AcDbEntity
  8
LAY-10
  6
CONTINUOUS
 62
     7
100
AcDbCircle
 10
914.3309524416915
 20
1285.999999999986
 30
0.0
 40
19.0
100
AcDbArc
 50
314.9999999999996
 51
90.0
  0
LINE
  5
2F9
330
1F
100
AcDbEntity
  8
LAY-10
  6
CONTINUOUS
 62
     7
100
AcDbLine
 10
685.0000000000042
 20
1309.999999999986
 30
0.0
 11
914.3309524416918
 21
1309.999999999986
 31
0.0
  0
LINE
  5
2FA
330
1F
100
AcDbEntity
  8
LAY-10
  6
CONTINUOUS
 62
     7
100
AcDbLine
 10
685.0000000000043
 20
1284.664010613617
 30
0.0
 11
685.0000000000042
 21
1309.999999999986
 31
0.0
  0
LINE
  5
2FB
330
1F
100
AcDbEntity
  8
LAY-10
  6
CONTINUOUS
 62
     7
100
AcDbLine
 10
690.0000000000041
 20
1283.728931919292
 30
0.0
 11
690.0000000000041
 21
1304.999999999987
 31
0.0
  0
LINE
  5
2FC
330
1F
100
AcDbEntity
  8
LAY-10
  6
CONTINUOUS
 62
     7
100
AcDbLine
 10
565.0000000000014
 20
1309.999999999986
 30
0.0
 11
335.6690475583142
 21
1309.999999999986
 31
0.0
  0
LINE
  5
2FD
330
1F
100
AcDbEntity
  8
LAY-10
  6
CONTINUOUS
 62
     7
100
AcDbLine
 10
560.0000000000015
 20
1304.999999999987
 30
0.0
 11
335.6690475583143
 21
1304.999999999986
 31
0.0
  0
LINE
  5
2FE
330
1F
100
AcDbEntity
  8
LAY-10
  6
CONTINUOUS
 62
     7
100
AcDbLine
 10
560.0000000000015
 20
1283.728931919292
 30
0.0
 11
560.0000000000015
 21
1304.999999999987
 31
0.0
  0
LINE
  5
2FF
330
1F
100
AcDbEntity
  8
LAY-10
  6
CONTINUOUS
 62
     7
100
AcDbLine
 10
565.0000000000014
 20
1284.664010613617
 30
0.0
 11
565.0000000000014
 21
1309.999999999986
 31
0.0
  0
ARC
  5
300
330
1F
100
AcDbEntity
  8
LAY-10
  6
CONTINUOUS
 62
     7
100
AcDbCircle
 10
335.6690475583142
 20
1285.999999999986
 30
0.0
 40
24.00000000000001
100
AcDbArc
 50
90.0
 51
224.9999999999996
  0
ARC
  5
301
330
1F
100
AcDbEntity
  8
LAY-10
  6
CONTINUOUS
 62
     7
100
AcDbCircle
 10
335.6690475583143
 20
1285.999999999986
 30
0.0
 40
19.0
100
AcDbArc
 50
90.0
 51
225.000000000001
  0
LINE
  5
302
330
1F
100
AcDbEntity
  8
LAY-10
  6
CONTINUOUS
 62
     7
100
AcDbLine
 10
391.0318990830496
 20
1196.696022978297
 30
0.0
 11
318.6984848098371
 21
1269.029437251509
 31
0.0
  0
LINE
  5
303
330
1F
100
AcDbEntity
  8
LAY-10
  6
CONTINUOUS
 62
     7
100
AcDbLine
 10
381.7552672718293
 20
1213.043722601383
 30
0.0
 11
322.2340187157701
 21
1272.564971157442
 31
0.0
  0
LINE
  5
304
330
1F
100
AcDbEntity
  8
LAY-10
  6
CONTINUOUS
 62
     7
100
AcDbLine
 10
398.9297296160494
 20
1204.354541631401
 30
0.0
 11
381.7552672718293
 21
1213.043722601383
 31
0.0
  0
CIRCLE
  5
305
330
1F
100
AcDbEntity
  8
LAY-10
  6
CONTINUOUS
 62
     7
100
AcDbCircle
 10
287.5000000000017
 20
1287.499999999988
 30
0.0
 40
5.0
  0
ARC
  5
306
330
1F
100
AcDbEntity
  8
LAY-10
  6
CONTINUOUS
 62
     7
100
AcDbCircle
 10
286.0000000000025
 20
1288.999999999987
 30
0.0
 40
28.00000000000002
100
AcDbArc
 50
90.0
 51
180.0
  0
ARC
  5
307
330
1F
100
AcDbEntity
  8
LAY-10
  6
CONTINUOUS
 62
     7
100
AcDbCircle
 10
286.0000000000025
 20
1288.999999999987
 30
0.0
 40
29.00000000000001
100
AcDbArc
 50
90.0
 51
180.0
  0
CIRCLE
  5
308
330
1F
100
AcDbEntity
  8
LAY-10
  6
CONTINUOUS
 62
     7
100
AcDbCircle
 10
287.5000000000017
 20
612.4999999999872
 30
0.0
 40
5.0
  0
ARC
  5
309
330
1F
100
AcDbEntity
  8
LAY-10
  6
CONTINUOUS
 62
     7
100
AcDbCircle
 10
286.0000000000025
 20
610.9999999999877
 30
0.0
 40
28.00000000000002
100
AcDbArc
 50
180.0
 51
270.0
  0
ARC
  5
30A
330
1F
100
AcDbEntity
  8
LAY-10
  6
CONTINUOUS
 62
     7
100
AcDbCircle
 10
286.0000000000025
 20
610.9999999999874
 30
0.0
 40
29.00000000000001
100
AcDbArc
 50
180.0
 51
270.0
  0
LINE
  5
30B
330
1F
100
AcDbEntity
  8
LAY-10
  6
CONTINUOUS
 62
     7
100
AcDbLine
 10
286.0000000000025
 20
582.9999999999876
 30
0.0
 11
964.0000000000032
 21
582.9999999999878
 31
0.0
  0
LINE
  5
30C
330
1F
100
AcDbEntity
  8
LAY-10
  6
CONTINUOUS
 62
     7
100
AcDbLine
 10
286.0000000000025
 20
581.9999999999876
 30
0.0
 11
964.0000000000032
 21
581.9999999999876
 31
0.0
  0
LINE
  5
30D
330
1F
100
AcDbEntity
  8
LAY-10
  6
CONTINUOUS
 62
     7
100
AcDbLine
 10
560.0000000000015
 20
594.9999999999886
 30
0.0
 11
335.6690475583143
 21
594.9999999999889
 31
0.0
  0
LINE
  5
30E
330
1F
100
AcDbEntity
  8
LAY-10
  6
CONTINUOUS
 62
     7
100
AcDbLine
 10
565.0000000000014
 20
589.9999999999886
 30
0.0
 11
335.6690475583142
 21
589.9999999999886
 31
0.0
  0
ARC
  5
30F
330
1F
100
AcDbEntity
  8
LAY-10
  6
CONTINUOUS
 62
     7
100
AcDbCircle
 10
335.6690475583143
 20
613.999999999989
 30
0.0
 40
19.0
100
AcDbArc
 50
135.0000000000004
 51
270.0
  0
ARC
  5
310
330
1F
100
AcDbEntity
  8
LAY-10
  6
CONTINUOUS
 62
     7
100
AcDbCircle
 10
335.6690475583142
 20
613.9999999999886
 30
0.0
 40
24.00000000000001
100
AcDbArc
 50
135.0000000000003
 51
270.0
  0
LINE
  5
311
330
1F
100
AcDbEntity
  8
LAY-10
  6
CONTINUOUS
 62
     7
100
AcDbLine
 10
381.7552672718293
 20
686.9562773985924
 30
0.0
 11
322.2340187157701
 21
627.4350288425333
 31
0.0
  0
LINE
  5
312
330
1F
100
AcDbEntity
  8
LAY-10
  6
CONTINUOUS
 62
     7
100
AcDbLine
 10
391.0318990830496
 20
703.3039770216783
 30
0.0
 11
318.6984848098371
 21
630.970562748466
 31
0.0
  0
LINE
  5
313
330
1F
100
AcDbEntity
  8
LAY-10
  6
CONTINUOUS
 62
     7
100
AcDbLine
 10
398.9297296160494
 20
695.645458368574
 30
0.0
 11
381.7552672718293
 21
686.9562773985924
 31
0.0
  0
LINE
  5
314
330
1F
100
AcDbEntity
  8
LAY-10
  6
CONTINUOUS
 62
     7
100
AcDbLine
 10
565.0000000000014
 20
615.335989386358
 30
0.0
 11
565.0000000000014
 21
589.9999999999886
 31
0.0
  0
LINE
  5
315
330
1F
100
AcDbEntity
  8
LAY-10
  6
CONTINUOUS
 62
     7
100
AcDbLine
 10
560.0000000000015
 20
616.2710680806833
 30
0.0
 11
560.0000000000015
 21
594.9999999999886
 31
0.0
  0
LINE
  5
316
330
1F
100
AcDbEntity
  8
LAY-10
  6
CONTINUOUS
 62
     7
100
AcDbLine
 10
685.0000000000042
 20
589.9999999999886
 30
0.0
 11
914.3309524416918
 21
589.9999999999886
 31
0.0
  0
LINE
  5
317
330
1F
100
AcDbEntity
  8
LAY-10
  6
CONTINUOUS
 62
     7
100
AcDbLine
 10
690.0000000000041
 20
594.9999999999886
 30
0.0
 11
914.3309524416915
 21
594.9999999999889
 31
0.0
  0
LINE
  5
318
330
1F
100
AcDbEntity
  8
LAY-10
  6
CONTINUOUS
 62
     7
100
AcDbLine
 10
690.0000000000041
 20
616.2710680806833
 30
0.0
 11
690.0000000000041
 21
594.9999999999886
 31
0.0
  0
LINE
  5
319
330
1F
100
AcDbEntity
  8
LAY-10
  6
CONTINUOUS
 62
     7
100
AcDbLine
 10
685.0000000000043
 20
615.335989386358
 30
0.0
 11
685.0000000000042
 21
589.9999999999886
 31
0.0
  0
ARC
  5
31A
330
1F
100
AcDbEntity
  8
LAY-10
  6
CONTINUOUS
 62
     7
100
AcDbCircle
 10
914.3309524416918
 20
613.9999999999886
 30
0.0
 40
24.00000000000001
100
AcDbArc
 50
270.0
 51
45.00000000000022
  0
ARC
  5
31B
330
1F
100
AcDbEntity
  8
LAY-10
  6
CONTINUOUS
 62
     7
100
AcDbCircle
 10
914.3309524416915
 20
613.999999999989
 30
0.0
 40
19.0
100
AcDbArc
 50
270.0
 51
44.99999999999976
  0
LINE
  5
31C
330
1F
100
AcDbEntity
  8
LAY-10
  6
CONTINUOUS
 62
     7
100
AcDbLine
 10
858.9681009169562
 20
703.3039770216783
 30
0.0
 11
931.3015151901689
 21
630.970562748466
 31
0.0
  0
LINE
  5
31D
330
1F
100
AcDbEntity
  8
LAY-10
  6
CONTINUOUS
 62
     7
100
AcDbLine
 10
868.2447327281767
 20
686.9562773985924
 30
0.0
 11
927.7659812842359
 21
627.4350288425333
 31
0.0
  0
LINE
  5
31E
330
1F
100
AcDbEntity
  8
LAY-10
  6
CONTINUOUS
 62
     7
100
AcDbLine
 10
851.0702703839564
 20
695.645458368574
 30
0.0
 11
868.2447327281767
 21
686.9562773985924
 31
0.0
  0
LINE
  5
31F
330
1F
100
AcDbEntity
  8
LAY-10
  6
CONTINUOUS
 62
     7
100
AcDbLine
 10
257.0000000000054
 20
610.999999999986
 30
0.0
 11
257.0000000000026
 21
1288.999999999986
 31
0.0
  0
LINE
  5
320
330
1F
100
AcDbEntity
  8
LAY-10
  6
CONTINUOUS
 62
     7
100
AcDbLine
 10
258.0000000000053
 20
610.9999999999862
 30
0.0
 11
258.0000000000027
 21
1288.999999999986
 31
0.0
  0
TEXT
  5
321
330
1F
100
AcDbEntity
  8
LAY-10
  6
CONTINUOUS
 62
     7
100
AcDbText
 10
701.8006486402852
 20
688.2132086310643
 30
0.0
 40
14.0314968
  1
０
 50
18.11454796134776
 41
1.11999994913737
  7
EXCADSTD
100
AcDbText
  0
LINE
  5
322
330
1F
100
AcDbEntity
  8
LAY-10
  6
CONTINUOUS
 62
     7
100
AcDbLine
 10
290.8827822185404
 20
340.4367809304302
 30
0.0
 11
299.0246875488158
 21
340.4367809304302
 31
0.0
  0
LINE
  5
323
330
1F
100
AcDbEntity
  8
LAY-10
  6
CONTINUOUS
 62
     7
100
AcDbLine
 10
300.975624804782
 20
301.41178873927
 30
0.0
 11
300.0243751952239
 21
339.4617731215904
 31
0.0
  0
LINE
  5
324
330
1F
100
AcDbEntity
  8
LAY-10
  6
CONTINUOUS
 62
     7
100
AcDbLine
 10
324.0249837794698
 20
325.4624135312228
 30
0.0
 11
325.000000000003
 21
287.4367809304303
 31
0.0
  0
LINE
  5
325
330
1F
100
AcDbEntity
  8
LAY-10
  6
CONTINUOUS
 62
     7
100
AcDbLine
 10
315.0369833414607
 20
301.398347808329
 30
0.0
 11
315.9630166585454
 21
325.4752140525315
 31
0.0
  0
ARC
  5
326
330
1F
100
AcDbEntity
  8
LAY-10
  6
CONTINUOUS
 62
     7
100
AcDbCircle
 10
299.0246875488158
 20
339.4367809304302
 30
0.0
 40
1.0
100
AcDbArc
 50
1.432096184161715
 51
90.0
  0
ARC
  5
327
330
1F
100
AcDbEntity
  8
LAY-10
  6
CONTINUOUS
 62
     7
100
AcDbCircle
 10
316.9622778331765
 20
325.4367809304302
 30
0.0
 40
1.0
100
AcDbArc
 50
90.0
 51
177.797401838238
  0
ARC
  5
328
330
1F
100
AcDbEntity
  8
LAY-10
  6
CONTINUOUS
 62
     7
100
AcDbCircle
 10
323.0253123485603
 20
325.4367809304302
 30
0.0
 40
1.0
100
AcDbArc
 50
1.468800714386599
 51
90.0
  0
ARC
  5
329
330
1F
100
AcDbEntity
  8
LAY-10
  6
CONTINUOUS
 62
     7
100
AcDbCircle
 10
624.9999999999977
 20
-5649.531231687217
 30
0.0
 40
5983.999999999176
100
AcDbArc
 50
90.71813101211251
 51
91.84342048045711
  0
ARC
  5
32A
330
1F
100
AcDbEntity
  8
LAY-10
  6
CONTINUOUS
 62
     7
100
AcDbCircle
 10
625.000000000002
 20
-5649.53123168804
 30
0.0
 40
5999.000000000004
100
AcDbArc
 50
90.78875651326693
 51
91.03564522614644
  0
LINE
  5
32B
330
1F
100
AcDbEntity
  8
LAY-10
  6
CONTINUOUS
 62
     7
100
AcDbLine
 10
550.0000000000031
 20
333.998746510446
 30
0.0
 11
700.0000000000031
 21
333.998746510446
 31
0.0
  0
LINE
  5
32C
330
1F
100
AcDbEntity
  8
LAY-10
  6
CONTINUOUS
 62
     7
100
AcDbLine
 10
550.0000000000035
 20
349.9999999999802
 30
0.0
 11
550.5773953874899
 21
348.9999218527975
 31
0.0
  0
LINE
  5
32D
330
1F
100
AcDbEntity
  8
LAY-10
  6
CONTINUOUS
 62
     7
100
AcDbLine
 10
543.000000000003
 20
349.9084088117262
 30
0.0
 11
542.4179859415688
 21
348.9003308918002
 31
0.0
  0
LINE
  5
32E
330
1F
100
AcDbEntity
  8
LAY-10
  6
CONTINUOUS
 62
     7
100
AcDbLine
 10
516.0000000000031
 20
349.4786032763907
 30
0.0
 11
516.5714654803851
 21
348.4887960295974
 31
0.0
  0
LINE
  5
32F
330
1F
100
AcDbEntity
  8
LAY-10
  6
CONTINUOUS
 62
     7
100
AcDbLine
 10
509.000000000003
 20
349.3473301766663
 30
0.0
 11
508.4160044356646
 21
348.3358201878366
 31
0.0
  0
LINE
  5
330
330
1F
100
AcDbEntity
  8
LAY-10
  6
CONTINUOUS
 62
     7
100
AcDbLine
 10
475.0000000000026
 20
348.5934752516188
 30
0.0
 11
474.4139902760944
 21
347.5784766360796
 31
0.0
  0
LINE
  5
331
330
1F
100
AcDbEntity
  8
LAY-10
  6
CONTINUOUS
 62
     7
100
AcDbLine
 10
441.0000000000025
 20
347.6467713397143
 30
0.0
 11
440.4119429187007
 21
346.6282265971479
 31
0.0
  0
LINE
  5
332
330
1F
100
AcDbEntity
  8
LAY-10
  6
CONTINUOUS
 62
     7
100
AcDbLine
 10
373.0000000000025
 20
345.1744324792972
 30
0.0
 11
372.4077463527021
 21
344.1486190712042
 31
0.0
  0
LINE
  5
333
330
1F
100
AcDbEntity
  8
LAY-10
  6
CONTINUOUS
 62
     7
100
AcDbLine
 10
339.0000000000023
 20
343.6485587070358
 30
0.0
 11
338.4055959731147
 21
342.6190207322417
 31
0.0
  0
LINE
  5
334
330
1F
100
AcDbEntity
  8
LAY-10
  6
CONTINUOUS
 62
     7
100
AcDbLine
 10
482.000000000003
 20
348.7644429182039
 30
0.0
 11
482.5696874348228
 21
347.7777153366627
 31
0.0
  0
LINE
  5
335
330
1F
100
AcDbEntity
  8
LAY-10
  6
CONTINUOUS
 62
     7
100
AcDbLine
 10
448.0000000000031
 20
347.8574500633742
 30
0.0
 11
448.5679383786069
 21
346.873751936064
 31
0.0
  0
LINE
  5
336
330
1F
100
AcDbEntity
  8
LAY-10
  6
CONTINUOUS
 62
     7
100
AcDbLine
 10
414.0000000000032
 20
346.7575372089324
 30
0.0
 11
414.5662178881645
 21
345.7768190584831
 31
0.0
  0
LINE
  5
337
330
1F
100
AcDbEntity
  8
LAY-10
  6
CONTINUOUS
 62
     7
100
AcDbLine
 10
346.0000000000031
 20
343.9785080220719
 30
0.0
 11
346.5628609707438
 21
343.0036042231514
 31
0.0
  0
LINE
  5
338
330
1F
100
AcDbEntity
  8
LAY-10
  6
CONTINUOUS
 62
     7
100
AcDbLine
 10
312.0000000000031
 20
342.29912305332
 30
0.0
 11
312.5612237560929
 21
341.3270549933578
 31
0.0
  0
ARC
  5
339
330
1F
100
AcDbEntity
  8
LAY-10
  6
CONTINUOUS
 62
     7
100
AcDbCircle
 10
625.000000000002
 20
-5649.53123168804
 30
0.0
 40
5999.000000000004
100
AcDbArc
 50
91.11355083208517
 51
91.36046385585549
  0
ARC
  5
33A
330
1F
100
AcDbEntity
  8
LAY-10
  6
CONTINUOUS
 62
     7
100
AcDbCircle
 10
625.000000000002
 20
-5649.53123168804
 30
0.0
 40
5999.000000000004
100
AcDbArc
 50
91.43838125520492
 51
91.6853259476392
  0
ARC
  5
33B
330
1F
100
AcDbEntity
  8
LAY-10
  6
CONTINUOUS
 62
     7
100
AcDbCircle
 10
625.000000000002
 20
-5649.53123168804
 30
0.0
 40
5999.000000000004
100
AcDbArc
 50
91.76325824440497
 51
92.01024197154214
  0
ARC
  5
33C
330
1F
100
AcDbEntity
  8
LAY-10
  6
CONTINUOUS
 62
     7
100
AcDbCircle
 10
625.000000000002
 20
-5649.53123168804
 30
0.0
 40
5999.000000000004
100
AcDbArc
 50
92.41319383928686
 51
92.66027777666247
  0
ARC
  5
33D
330
1F
100
AcDbEntity
  8
LAY-10
  6
CONTINUOUS
 62
     7
100
AcDbCircle
 10
625.000000000002
 20
-5649.53123168804
 30
0.0
 40
5999.000000000004
100
AcDbArc
 50
92.73827344882494
 51
92.98541858794381
  0
LINE
  5
33E
330
1F
100
AcDbEntity
  8
LAY-10
  6
CONTINUOUS
 62
     7
100
AcDbLine
 10
302.8977270549241
 20
306.6064311888562
 30
0.0
 11
301.0000000000137
 21
341.7143817048857
 31
0.0
  0
LINE
  5
33F
330
1F
100
AcDbEntity
  8
LAY-10
  6
CONTINUOUS
 62
     7
100
AcDbLine
 10
314.8748711108723
 20
323.7159225289739
 30
0.0
 11
314.0878489624211
 21
306.6223949253458
 31
0.0
  0
ARC
  5
340
330
1F
100
AcDbEntity
  8
LAY-10
  6
CONTINUOUS
 62
     7
100
AcDbCircle
 10
317.8716963431603
 20
323.5779423596643
 30
0.0
 40
3.000000000000003
100
AcDbArc
 50
92.9434707219686
 51
177.3638429054598
  0
LINE
  5
341
330
1F
100
AcDbEntity
  8
LAY-10
  6
CONTINUOUS
 62
     7
100
AcDbLine
 10
383.1665956839166
 20
343.6854162647474
 30
0.0
 11
385.2600483849546
 21
319.7969150993562
 31
0.0
  0
LINE
  5
342
330
1F
100
AcDbEntity
  8
LAY-10
  6
CONTINUOUS
 62
     7
100
AcDbLine
 10
388.2485946518014
 20
317.0588143374539
 30
0.0
 11
401.7438923139866
 21
317.0588143374539
 31
0.0
  0
LINE
  5
343
330
1F
100
AcDbEntity
  8
LAY-10
  6
CONTINUOUS
 62
     7
100
AcDbLine
 10
404.7331397839082
 20
319.805043646539
 30
0.0
 11
406.8501274377968
 21
344.7417294609362
 31
0.0
  0
CIRCLE
  5
344
330
1F
100
AcDbEntity
  8
LAY-10
  6
CONTINUOUS
 62
     7
100
AcDbCircle
 10
395.000000000003
 20
324.5588143374538
 30
0.0
 40
6.500000000000004
  0
LINE
  5
345
330
1F
100
AcDbEntity
  8
LAY-10
  6
CONTINUOUS
 62
     7
100
AcDbLine
 10
381.7556695677914
 20
302.0588143374539
 30
0.0
 11
408.1107261230042
 21
302.0588143374539
 31
0.0
  0
LINE
  5
346
330
1F
100
AcDbEntity
  8
LAY-10
  6
CONTINUOUS
 62
     7
100
AcDbLine
 10
368.4456006020504
 20
321.7253621686027
 30
0.0
 11
376.3588445407706
 21
305.4369295902308
 31
0.0
  0
LINE
  5
347
330
1F
100
AcDbEntity
  8
LAY-10
  6
CONTINUOUS
 62
     7
100
AcDbLine
 10
413.5878854422353
 20
305.6091764475281
 30
0.0
 11
421.9371528054674
 21
324.2773509297024
 31
0.0
  0
ARC
  5
348
330
1F
100
AcDbEntity
  8
LAY-10
  6
CONTINUOUS
 62
     7
100
AcDbCircle
 10
624.9999999999977
 20
-5649.531231687217
 30
0.0
 40
5983.999999999176
100
AcDbArc
 50
92.56581311033118
 51
92.94347072197094
  0
ARC
  5
349
330
1F
100
AcDbEntity
  8
LAY-10
  6
CONTINUOUS
 62
     7
100
AcDbCircle
 10
357.6519505480081
 20
316.481592674156
 30
0.0
 40
12.00000000000001
100
AcDbArc
 50
25.9114018275231
 51
92.56581311033364
  0
ARC
  5
34A
330
1F
100
AcDbEntity
  8
LAY-10
  6
CONTINUOUS
 62
     7
100
AcDbCircle
 10
432.8914714439296
 20
319.378075149851
 30
0.0
 40
12.00000000000001
100
AcDbArc
 50
91.84342048045838
 51
155.9036077112137
  0
ARC
  5
34B
330
1F
100
AcDbEntity
  8
LAY-10
  6
CONTINUOUS
 62
     7
100
AcDbCircle
 10
381.7556695677914
 20
308.0588143374538
 30
0.0
 40
6.000000000000006
100
AcDbArc
 50
205.9114018275241
 51
270.0
  0
ARC
  5
34C
330
1F
100
AcDbEntity
  8
LAY-10
  6
CONTINUOUS
 62
     7
100
AcDbCircle
 10
408.1107261230042
 20
308.0588143374538
 30
0.0
 40
6.000000000000006
100
AcDbArc
 50
270.0
 51
335.9036077112139
  0
ARC
  5
34D
330
1F
100
AcDbEntity
  8
LAY-10
  6
CONTINUOUS
 62
     7
100
AcDbCircle
 10
388.2485946518014
 20
320.0588143374538
 30
0.0
 40
3.000000000000003
100
AcDbArc
 50
185.0082823495012
 51
270.0
  0
ARC
  5
34E
330
1F
100
AcDbEntity
  8
LAY-10
  6
CONTINUOUS
 62
     7
100
AcDbCircle
 10
401.7438923139866
 20
320.0588143374538
 30
0.0
 40
3.000000000000003
100
AcDbArc
 50
270.0
 51
355.1475380687369
  0
ARC
  5
34F
330
1F
100
AcDbEntity
  8
LAY-10
  6
CONTINUOUS
 62
     7
100
AcDbCircle
 10
408.8429590844112
 20
344.5725490003264
 30
0.0
 40
2.0
100
AcDbArc
 50
92.0652831840696
 51
175.1475380687356
  0
ARC
  5
350
330
1F
100
AcDbEntity
  8
LAY-10
  6
CONTINUOUS
 62
     7
100
AcDbCircle
 10
381.1742315060187
 20
343.5108167726825
 30
0.0
 40
2.0
100
AcDbArc
 50
5.008282349496999
 51
92.32978292771189
  0
LINE
  5
351
330
1F
100
AcDbEntity
  8
LAY-10
  6
CONTINUOUS
 62
     7
100
AcDbLine
 10
700.0000000000025
 20
349.99999999998
 30
0.0
 11
699.4226046125158
 21
348.9999218527975
 31
0.0
  0
LINE
  5
352
330
1F
100
AcDbEntity
  8
LAY-10
  6
CONTINUOUS
 62
     7
100
AcDbLine
 10
323.0253123485603
 20
326.4367809304302
 30
0.0
 11
316.9622778331765
 21
326.4367809304302
 31
0.0
  0
LINE
  5
353
330
1F
100
AcDbEntity
  8
LAY-10
  6
CONTINUOUS
 62
     7
100
AcDbLine
 10
259.8919729308165
 20
305.4367809304302
 30
0.0
 11
283.8594355629286
 21
305.4367809304304
 31
0.0
  0
LINE
  5
354
330
1F
100
AcDbEntity
  8
LAY-10
  6
CONTINUOUS
 62
     7
100
AcDbLine
 10
257.0000000000031
 20
287.4367809304303
 30
0.0
 11
257.8950522244055
 21
303.5477209696754
 31
0.0
  0
ARC
  5
355
330
1F
100
AcDbEntity
  8
LAY-10
  6
CONTINUOUS
 62
     7
100
AcDbCircle
 10
290.8827822185404
 20
339.4367809304302
 30
0.0
 40
1.0
100
AcDbArc
 50
90.0
 51
172.8749836511019
  0
ARC
  5
356
330
1F
100
AcDbEntity
  8
LAY-10
  6
CONTINUOUS
 62
     7
100
AcDbCircle
 10
283.8594355629286
 20
307.4367809304306
 30
0.0
 40
2.0
100
AcDbArc
 50
270.0
 51
352.874983651092
  0
ARC
  5
357
330
1F
100
AcDbEntity
  8
LAY-10
  6
CONTINUOUS
 62
     7
100
AcDbCircle
 10
259.8919729308165
 20
303.4367809304302
 30
0.0
 40
2.0
100
AcDbArc
 50
90.0
 51
176.8201698801336
  0
ARC
  5
358
330
1F
100
AcDbEntity
  8
LAY-10
  6
CONTINUOUS
 62
     7
100
AcDbCircle
 10
926.9746876514461
 20
325.43678093043
 30
0.0
 40
1.0
100
AcDbArc
 50
90.0
 51
178.5311992856136
  0
LINE
  5
359
330
1F
100
AcDbEntity
  8
LAY-10
  6
CONTINUOUS
 62
     7
100
AcDbLine
 10
947.1022729450823
 20
306.6064311888559
 30
0.0
 11
948.999999999993
 21
341.7143817048855
 31
0.0
  0
ARC
  5
35A
330
1F
100
AcDbEntity
  8
LAY-10
  6
CONTINUOUS
 62
     7
100
AcDbCircle
 10
966.140564437078
 20
307.4367809304303
 30
0.0
 40
2.0
100
AcDbArc
 50
187.1250163488998
 51
270.0
  0
LINE
  5
35B
330
1F
100
AcDbEntity
  8
LAY-10
  6
CONTINUOUS
 62
     7
100
AcDbLine
 10
959.1172177814661
 20
340.43678093043
 30
0.0
 11
950.9753124511906
 21
340.43678093043
 31
0.0
  0
ARC
  5
35C
330
1F
100
AcDbEntity
  8
LAY-10
  6
CONTINUOUS
 62
     7
100
AcDbCircle
 10
959.1172177814661
 20
339.4367809304301
 30
0.0
 40
1.0
100
AcDbArc
 50
7.125016348901774
 51
90.0
  0
LINE
  5
35D
330
1F
100
AcDbEntity
  8
LAY-10
  6
CONTINUOUS
 62
     7
100
AcDbLine
 10
949.0243751952244
 20
301.4117887392699
 30
0.0
 11
949.9756248047825
 21
339.4617731215904
 31
0.0
  0
ARC
  5
35E
330
1F
100
AcDbEntity
  8
LAY-10
  6
CONTINUOUS
 62
     7
100
AcDbCircle
 10
950.9753124511906
 20
339.4367809304301
 30
0.0
 40
1.0
100
AcDbArc
 50
90.0
 51
178.5679038158351
  0
LINE
  5
35F
330
1F
100
AcDbEntity
  8
LAY-10
  6
CONTINUOUS
 62
     7
100
AcDbLine
 10
926.9746876514461
 20
326.4367809304301
 30
0.0
 11
933.0377221668297
 21
326.4367809304301
 31
0.0
  0
ARC
  5
360
330
1F
100
AcDbEntity
  8
LAY-10
  6
CONTINUOUS
 62
     7
100
AcDbCircle
 10
932.1283036568462
 20
323.5779423596641
 30
0.0
 40
3.000000000000003
100
AcDbArc
 50
2.636157094540205
 51
87.05652927803146
  0
LINE
  5
361
330
1F
100
AcDbEntity
  8
LAY-10
  6
CONTINUOUS
 62
     7
100
AcDbLine
 10
935.1251288891339
 20
323.7159225289739
 30
0.0
 11
935.9121510375854
 21
306.6223949253456
 31
0.0
  0
ARC
  5
362
330
1F
100
AcDbEntity
  8
LAY-10
  6
CONTINUOUS
 62
     7
100
AcDbCircle
 10
933.0377221668297
 20
325.43678093043
 30
0.0
 40
1.0
100
AcDbArc
 50
2.202598161768557
 51
90.0
  0
LINE
  5
363
330
1F
100
AcDbEntity
  8
LAY-10
  6
CONTINUOUS
 62
     7
100
AcDbLine
 10
934.9630166585458
 20
301.398347808329
 30
0.0
 11
934.036983341461
 21
325.4752140525313
 31
0.0
  0
LINE
  5
364
330
1F
100
AcDbEntity
  8
LAY-10
  6
CONTINUOUS
 62
     7
100
AcDbLine
 10
925.9750162205366
 20
325.4624135312226
 30
0.0
 11
925.0000000000034
 21
287.43678093043
 31
0.0
  0
ARC
  5
365
330
1F
100
AcDbEntity
  8
LAY-10
  6
CONTINUOUS
 62
     7
100
AcDbCircle
 10
625.000000000002
 20
-5649.53123168804
 30
0.0
 40
6000.000000000003
100
AcDbArc
 50
90.71621589619494
 51
93.09547774069193
  0
LINE
  5
366
330
1F
100
AcDbEntity
  8
LAY-10
  6
CONTINUOUS
 62
     7
100
AcDbLine
 10
550.5773953874899
 20
348.9999218527975
 30
0.0
 11
699.4226046125158
 21
348.9999218527975
 31
0.0
  0
LINE
  5
367
330
1F
100
AcDbEntity
  8
LAY-10
  6
CONTINUOUS
 62
     7
100
AcDbLine
 10
700.0000000000099
 20
349.9999999999902
 30
0.0
 11
550.0
 21
349.9999999999902
 31
0.0
  0
LINE
  5
368
330
1F
100
AcDbEntity
  8
LAY-10
  6
CONTINUOUS
 62
     7
100
AcDbLine
 10
960.1094956581798
 20
339.5608156650193
 30
0.0
 11
964.1560086836506
 21
307.1887114612517
 31
0.0
  0
LINE
  5
369
330
1F
100
AcDbEntity
  8
LAY-10
  6
CONTINUOUS
 62
     7
100
AcDbLine
 10
289.8905043418267
 20
339.5608156650195
 30
0.0
 11
285.8439913163558
 21
307.188711461252
 31
0.0
  0
ARC
  5
36A
330
1F
100
AcDbEntity
  8
LAY-10
  6
CONTINUOUS
 62
     7
100
AcDbCircle
 10
625.0000000000011
 20
-5649.53123168804
 30
0.0
 40
6000.000000000003
100
AcDbArc
 50
86.90452225930807
 51
89.28378410380502
  0
ARC
  5
36B
330
1F
100
AcDbEntity
  8
LAY-10
  6
CONTINUOUS
 62
     7
100
AcDbCircle
 10
625.0000000000063
 20
-5649.531231687217
 30
0.0
 40
5983.999999999176
100
AcDbArc
 50
87.05652927802906
 51
89.28186898788749
  0
LINE
  5
36C
330
1F
100
AcDbEntity
  8
LAY-10
  6
CONTINUOUS
 62
     7
100
AcDbLine
 10
1130.526424713687
 20
305.4367809304293
 30
0.0
 11
966.140564437078
 21
305.4367809304302
 31
0.0
  0
LINE
  5
36D
330
1F
100
AcDbEntity
  8
LAY-10
  6
CONTINUOUS
 62
     7
100
AcDbLine
 10
1132.523345420097
 20
303.5477209696743
 30
0.0
 11
1133.4183976445
 21
287.43678093043
 31
0.0
  0
ARC
  5
36E
330
1F
100
AcDbEntity
  8
LAY-10
  6
CONTINUOUS
 62
     7
100
AcDbCircle
 10
1130.526424713687
 20
303.4367809304293
 30
0.0
 40
2.0
100
AcDbArc
 50
3.179830119864473
 51
90.0
  0
LINE
  5
36F
330
1F
100
AcDbEntity
  8
LAY-10
  6
CONTINUOUS
 62
     7
100
AcDbLine
 10
257.0
 20
287.43678093043
 30
0.0
 11
1133.4183976445
 21
287.43678093043
 31
0.0
  0
LINE
  5
370
330
1F
100
AcDbEntity
  8
LAY-10
  6
CONTINUOUS
 62
     7
100
AcDbLine
 10
1107.297077300901
 20
305.4367809304294
 30
0.0
 11
1107.297077300901
 21
287.43678093043
 31
0.0
  0
LINE
  5
371
330
1F
100
AcDbEntity
  8
LAY-10
  6
CONTINUOUS
 62
     7
100
AcDbLine
 10
1097.2970773009
 20
305.4367809304294
 30
0.0
 11
1097.2970773009
 21
287.43678093043
 31
0.0
  0
LINE
  5
372
330
1F
100
AcDbEntity
  8
LAY-10
  6
CENTER
 62
     2
100
AcDbLine
 10
1008.000000000004
 20
949.9999999999877
 30
0.0
 11
242.0000000000032
 21
949.9999999999877
 31
0.0
  0
LINE
  5
373
330
1F
100
AcDbEntity
  8
LAY-10
  6
CENTER
 62
     2
100
AcDbLine
 10
625.0000000000031
 20
566.9999999999876
 30
0.0
 11
625.0000000000028
 21
1332.999999999987
 31
0.0
  0
LINE
  5
374
330
1F
100
AcDbEntity
  8
LAY-10
  6
CENTER
 62
     2
100
AcDbLine
 10
952.5000000000042
 20
612.4999999999872
 30
0.0
 11
972.5000000000042
 21
612.4999999999872
 31
0.0
  0
LINE
  5
375
330
1F
100
AcDbEntity
  8
LAY-10
  6
CENTER
 62
     2
100
AcDbLine
 10
962.5000000000042
 20
602.4999999999872
 30
0.0
 11
962.5000000000042
 21
622.4999999999872
 31
0.0
  0
LINE
  5
376
330
1F
100
AcDbEntity
  8
LAY-10
  6
CENTER
 62
     2
100
AcDbLine
 10
962.5000000000042
 20
1297.499999999988
 30
0.0
 11
962.5000000000042
 21
1277.499999999988
 31
0.0
  0
LINE
  5
377
330
1F
100
AcDbEntity
  8
LAY-10
  6
CENTER
 62
     2
100
AcDbLine
 10
952.5000000000042
 20
1287.499999999988
 30
0.0
 11
972.5000000000042
 21
1287.499999999988
 31
0.0
  0
LINE
  5
378
330
1F
100
AcDbEntity
  8
LAY-10
  6
CENTER
 62
     2
100
AcDbLine
 10
287.500000000002
 20
602.4999999999872
 30
0.0
 11
287.500000000002
 21
622.4999999999872
 31
0.0
  0
LINE
  5
379
330
1F
100
AcDbEntity
  8
LAY-10
  6
CENTER
 62
     2
100
AcDbLine
 10
297.500000000002
 20
612.4999999999872
 30
0.0
 11
277.500000000002
 21
612.4999999999872
 31
0.0
  0
LINE
  5
37A
330
1F
100
AcDbEntity
  8
LAY-10
  6
CENTER
 62
     2
100
AcDbLine
 10
297.5000000000018
 20
1287.499999999988
 30
0.0
 11
277.500000000002
 21
1287.499999999988
 31
0.0
  0
LINE
  5
37B
330
1F
100
AcDbEntity
  8
LAY-10
  6
CENTER
 62
     2
100
AcDbLine
 10
287.5000000000018
 20
1297.499999999988
 30
0.0
 11
287.5000000000018
 21
1277.499999999988
 31
0.0
  0
LINE
  5
37C
330
1F
100
AcDbEntity
  8
LAY-10
  6
CENTER
 62
     2
100
AcDbLine
 10
625.0
 20
276.30804688801
 30
0.0
 11
625.0
 21
360.0080468880101
 31
0.0
  0
LINE
  5
37D
330
1F
100
AcDbEntity
  8
LAY-10
  6
CENTER
 62
     2
100
AcDbLine
 10
394.9999999999998
 20
297.50804688801
 30
0.0
 11
394.9999999999998
 21
348.6080468880101
 31
0.0
  0
LINE
  5
37E
330
1F
100
AcDbEntity
  8
LAY-10
  6
CENTER
 62
     2
100
AcDbLine
 10
395.0000000000063
 20
1001.1
 30
0.0
 11
395.0000000000063
 21
899.9000000000001
 31
0.0
  0
LINE
  5
37F
330
1F
100
AcDbEntity
  8
LAY-10
  6
CENTER
 62
     2
100
AcDbLine
 10
855.0
 20
1001.1
 30
0.0
 11
855.0
 21
899.9000000000001
 31
0.0
  0
LINE
  5
380
330
1F
100
AcDbEntity
  8
LAY-10
  6
CENTER
 62
     2
100
AcDbLine
 10
1102.2970773009
 20
281.4
 30
0.0
 11
1102.2970773009
 21
312.9999999999999
 31
0.0
  0
LINE
  5
381
330
1F
100
AcDbEntity
  8
LAY-10
  6
CONTINUOUS
 62
     7
100
AcDbLine
 10
301.9753124511902
 20
300.4367809304302
 30
0.0
 11
314.0377221668294
 21
300.4367809304302
 31
0.0
  0
ARC
  5
382
330
1F
100
AcDbEntity
  8
LAY-10
  6
CONTINUOUS
 62
     7
100
AcDbCircle
 10
301.9753124511902
 20
301.4367809304304
 30
0.0
 40
1.0
100
AcDbArc
 50
181.4320961841715
 51
270.0
  0
ARC
  5
383
330
1F
100
AcDbEntity
  8
LAY-10
  6
CONTINUOUS
 62
     7
100
AcDbCircle
 10
314.0377221668294
 20
301.4367809304301
 30
0.0
 40
1.0
100
AcDbArc
 50
270.0
 51
357.7974018382413
  0
LINE
  5
384
330
1F
100
AcDbEntity
  8
LAY-10
  6
CONTINUOUS
 62
     7
100
AcDbLine
 10
313.0065173090102
 20
300.4367809304301
 30
0.0
 11
313.0065173090102
 21
304.7143817048854
 31
0.0
  0
LINE
  5
385
330
1F
100
AcDbEntity
  8
LAY-10
  6
CONTINUOUS
 62
     7
100
AcDbLine
 10
303.0065173090102
 20
300.4367809304301
 30
0.0
 11
303.0065173090102
 21
304.7143817048857
 31
0.0
  0
LINE
  5
386
330
1F
100
AcDbEntity
  8
LAY-10
  6
CONTINUOUS
 62
     7
100
AcDbLine
 10
303.0065173090102
 20
304.7143817048857
 30
0.0
 11
313.0065173090102
 21
304.7143817048854
 31
0.0
  0
ARC
  5
387
330
1F
100
AcDbEntity
  8
LAY-10
  6
CONTINUOUS
 62
     7
100
AcDbCircle
 10
312.0899654742297
 20
306.7143817048856
 30
0.0
 40
2.0
100
AcDbArc
 50
270.0
 51
357.3638429054609
  0
ARC
  5
388
330
1F
100
AcDbEntity
  8
LAY-10
  6
CONTINUOUS
 62
     7
100
AcDbCircle
 10
304.8948116014797
 20
306.7143817048856
 30
0.0
 40
2.0
100
AcDbArc
 50
183.0940580589
 51
270.0
  0
LINE
  5
389
330
1F
100
AcDbEntity
  8
LAY-10
  6
CONTINUOUS
 62
     7
100
AcDbLine
 10
303.0065173090102
 20
300.4367809304301
 30
0.0
 11
307.2841180834658
 21
304.7143817048857
 31
0.0
  0
LINE
  5
38A
330
1F
100
AcDbEntity
  8
LAY-10
  6
CONTINUOUS
 62
     7
100
AcDbLine
 10
307.2841180834658
 20
300.4367809304301
 30
0.0
 11
311.5617188579211
 21
304.7143817048854
 31
0.0
  0
LINE
  5
38B
330
1F
100
AcDbEntity
  8
LAY-10
  6
CONTINUOUS
 62
     7
100
AcDbLine
 10
311.5617188579211
 20
300.4367809304301
 30
0.0
 11
313.0065173090102
 21
301.8815793815193
 31
0.0
  0
ARC
  5
38C
330
1F
100
AcDbEntity
  8
LAY-10
  6
CONTINUOUS
 62
     7
100
AcDbCircle
 10
948.0246875488162
 20
301.4367809304301
 30
0.0
 40
1.0
100
AcDbArc
 50
270.0
 51
358.5679038158287
  0
ARC
  5
38D
330
1F
100
AcDbEntity
  8
LAY-10
  6
CONTINUOUS
 62
     7
100
AcDbCircle
 10
935.9622778331772
 20
301.4367809304301
 30
0.0
 40
1.0
100
AcDbArc
 50
182.2025981617588
 51
270.0
  0
LINE
  5
38E
330
1F
100
AcDbEntity
  8
LAY-10
  6
CONTINUOUS
 62
     7
100
AcDbLine
 10
948.0246875488162
 20
300.4367809304301
 30
0.0
 11
935.9622778331772
 21
300.4367809304301
 31
0.0
  0
LINE
  5
38F
330
1F
100
AcDbEntity
  8
LAY-10
  6
CONTINUOUS
 62
     7
100
AcDbLine
 10
936.9934826909969
 20
304.7143817048854
 30
0.0
 11
946.9934826909969
 21
304.7143817048854
 31
0.0
  0
LINE
  5
390
330
1F
100
AcDbEntity
  8
LAY-10
  6
CONTINUOUS
 62
     7
100
AcDbLine
 10
936.9934826909969
 20
300.4367809304301
 30
0.0
 11
936.9934826909969
 21
304.7143817048854
 31
0.0
  0
ARC
  5
391
330
1F
100
AcDbEntity
  8
LAY-10
  6
CONTINUOUS
 62
     7
100
AcDbCircle
 10
937.9100345257774
 20
306.7143817048853
 30
0.0
 40
2.0
100
AcDbArc
 50
182.6361570945391
 51
270.0
  0
LINE
  5
392
330
1F
100
AcDbEntity
  8
LAY-10
  6
CONTINUOUS
 62
     7
100
AcDbLine
 10
946.9934826909969
 20
300.4367809304301
 30
0.0
 11
946.9934826909969
 21
304.7143817048854
 31
0.0
  0
ARC
  5
393
330
1F
100
AcDbEntity
  8
LAY-10
  6
CONTINUOUS
 62
     7
100
AcDbCircle
 10
945.1051883985275
 20
306.7143817048853
 30
0.0
 40
2.0
100
AcDbArc
 50
270.0
 51
356.9059419411001
  0
LINE
  5
394
330
1F
100
AcDbEntity
  8
LAY-10
  6
CONTINUOUS
 62
     7
100
AcDbLine
 10
936.9934826909969
 20
300.4367809304301
 30
0.0
 11
941.2710834654524
 21
304.7143817048854
 31
0.0
  0
LINE
  5
395
330
1F
100
AcDbEntity
  8
LAY-10
  6
CONTINUOUS
 62
     7
100
AcDbLine
 10
941.2710834654524
 20
300.43678093043
 30
0.0
 11
945.5486842399074
 21
304.7143817048854
 31
0.0
  0
LINE
  5
396
330
1F
100
AcDbEntity
  8
LAY-10
  6
CONTINUOUS
 62
     7
100
AcDbLine
 10
945.5486842399074
 20
300.43678093043
 30
0.0
 11
946.9934826909969
 21
301.8815793815191
 31
0.0
  0
LINE
  5
397
330
1F
100
AcDbEntity
  8
LAY-20
  6
CONTINUOUS
 62
     4
100
AcDbLine
 10
324.9999999999998
 20
279.93678093043
 30
0.0
 11
324.9999999999998
 21
229.93678093043
 31
0.0
  0
LINE
  5
398
330
1F
100
AcDbEntity
  8
LAY-20
  6
CONTINUOUS
 62
     4
100
AcDbLine
 10
925.0
 20
279.93678093043
 30
0.0
 11
925.0
 21
229.93678093043
 31
0.0
  0
LINE
  5
399
330
1F
100
AcDbEntity
  8
LAY-20
  6
CONTINUOUS
 62
     4
100
AcDbLine
 10
324.9999999999998
 20
237.43678093043
 30
0.0
 11
925.0
 21
237.43678093043
 31
0.0
  0
LINE
  5
39A
330
1F
100
AcDbEntity
  8
LAY-20
  6
CONTINUOUS
 62
     4
100
AcDbLine
 10
337.4999999999998
 20
239.5201142637634
 30
0.0
 11
324.9999999999998
 21
237.43678093043
 31
0.0
  0
LINE
  5
39B
330
1F
100
AcDbEntity
  8
LAY-20
  6
CONTINUOUS
 62
     4
100
AcDbLine
 10
324.9999999999998
 20
237.43678093043
 30
0.0
 11
337.4999999999998
 21
235.3534475970967
 31
0.0
  0
LINE
  5
39C
330
1F
100
AcDbEntity
  8
LAY-20
  6
CONTINUOUS
 62
     4
100
AcDbLine
 10
337.4999999999998
 20
235.3534475970967
 30
0.0
 11
337.4999999999998
 21
239.5201142637634
 31
0.0
  0
LINE
  5
39D
330
1F
100
AcDbEntity
  8
LAY-20
  6
CONTINUOUS
 62
     4
100
AcDbLine
 10
337.4999999999998
 20
238.4784475970967
 30
0.0
 11
324.9999999999998
 21
237.43678093043
 31
0.0
  0
LINE
  5
39E
330
1F
100
AcDbEntity
  8
LAY-20
  6
CONTINUOUS
 62
     4
100
AcDbLine
 10
324.9999999999998
 20
237.43678093043
 30
0.0
 11
337.4999999999998
 21
236.3951142637633
 31
0.0
  0
LINE
  5
39F
330
1F
100
AcDbEntity
  8
LAY-20
  6
CONTINUOUS
 62
     4
100
AcDbLine
 10
912.5
 20
235.3534475970967
 30
0.0
 11
925.0
 21
237.43678093043
 31
0.0
  0
LINE
  5
3A0
330
1F
100
AcDbEntity
  8
LAY-20
  6
CONTINUOUS
 62
     4
100
AcDbLine
 10
925.0
 20
237.43678093043
 30
0.0
 11
912.5
 21
239.5201142637634
 31
0.0
  0
LINE
  5
3A1
330
1F
100
AcDbEntity
  8
LAY-20
  6
CONTINUOUS
 62
     4
100
AcDbLine
 10
912.5
 20
239.5201142637634
 30
0.0
 11
912.5
 21
235.3534475970967
 31
0.0
  0
LINE
  5
3A2
330
1F
100
AcDbEntity
  8
LAY-20
  6
CONTINUOUS
 62
     4
100
AcDbLine
 10
912.5
 20
236.3951142637633
 30
0.0
 11
925.0
 21
237.43678093043
 31
0.0
  0
LINE
  5
3A3
330
1F
100
AcDbEntity
  8
LAY-20
  6
CONTINUOUS
 62
     4
100
AcDbLine
 10
925.0
 20
237.43678093043
 30
0.0
 11
912.5
 21
238.4784475970967
 31
0.0
  0
LINE
  5
3A4
330
1F
100
AcDbEntity
  8
LAY-20
  6
CONTINUOUS
 62
     4
100
AcDbLine
 10
290.0000000000499
 20
347.93678093043
 30
0.0
 11
290.0000000000499
 21
477.4999999999901
 31
0.0
  0
LINE
  5
3A5
330
1F
100
AcDbEntity
  8
LAY-20
  6
CONTINUOUS
 62
     4
100
AcDbLine
 10
960.0
 20
347.93678093043
 30
0.0
 11
960.0
 21
477.4999999999901
 31
0.0
  0
LINE
  5
3A6
330
1F
100
AcDbEntity
  8
LAY-20
  6
CONTINUOUS
 62
     4
100
AcDbLine
 10
290.0000000000499
 20
469.9999999999901
 30
0.0
 11
960.0
 21
469.9999999999901
 31
0.0
  0
LINE
  5
3A7
330
1F
100
AcDbEntity
  8
LAY-20
  6
CONTINUOUS
 62
     4
100
AcDbLine
 10
302.5000000000499
 20
472.0833333333234
 30
0.0
 11
290.0000000000499
 21
469.9999999999901
 31
0.0
  0
LINE
  5
3A8
330
1F
100
AcDbEntity
  8
LAY-20
  6
CONTINUOUS
 62
     4
100
AcDbLine
 10
290.0000000000499
 20
469.9999999999901
 30
0.0
 11
302.5000000000499
 21
467.9166666666567
 31
0.0
  0
LINE
  5
3A9
330
1F
100
AcDbEntity
  8
LAY-20
  6
CONTINUOUS
 62
     4
100
AcDbLine
 10
302.5000000000499
 20
467.9166666666567
 30
0.0
 11
302.5000000000499
 21
472.0833333333234
 31
0.0
  0
LINE
  5
3AA
330
1F
100
AcDbEntity
  8
LAY-20
  6
CONTINUOUS
 62
     4
100
AcDbLine
 10
302.5000000000499
 20
471.0416666666567
 30
0.0
 11
290.0000000000499
 21
469.9999999999901
 31
0.0
  0
LINE
  5
3AB
330
1F
100
AcDbEntity
  8
LAY-20
  6
CONTINUOUS
 62
     4
100
AcDbLine
 10
290.0000000000499
 20
469.9999999999901
 30
0.0
 11
302.5000000000499
 21
468.9583333333234
 31
0.0
  0
LINE
  5
3AC
330
1F
100
AcDbEntity
  8
LAY-20
  6
CONTINUOUS
 62
     4
100
AcDbLine
 10
947.5
 20
467.9166666666567
 30
0.0
 11
960.0
 21
469.9999999999901
 31
0.0
  0
LINE
  5
3AD
330
1F
100
AcDbEntity
  8
LAY-20
  6
CONTINUOUS
 62
     4
100
AcDbLine
 10
960.0
 20
469.9999999999901
 30
0.0
 11
947.5
 21
472.0833333333234
 31
0.0
  0
LINE
  5
3AE
330
1F
100
AcDbEntity
  8
LAY-20
  6
CONTINUOUS
 62
     4
100
AcDbLine
 10
947.5
 20
472.0833333333234
 30
0.0
 11
947.5
 21
467.9166666666567
 31
0.0
  0
LINE
  5
3AF
330
1F
100
AcDbEntity
  8
LAY-20
  6
CONTINUOUS
 62
     4
100
AcDbLine
 10
947.5
 20
468.9583333333234
 30
0.0
 11
960.0
 21
469.9999999999901
 31
0.0
  0
LINE
  5
3B0
330
1F
100
AcDbEntity
  8
LAY-20
  6
CONTINUOUS
 62
     4
100
AcDbLine
 10
960.0
 20
469.9999999999901
 30
0.0
 11
947.5
 21
471.0416666666567
 31
0.0
  0
LINE
  5
3B1
330
1F
100
AcDbEntity
  8
LAY-20
  6
CONTINUOUS
 62
     4
100
AcDbLine
 10
949.0
 20
349.21438170489
 30
0.0
 11
949.0
 21
442.4999999999901
 31
0.0
  0
LINE
  5
3B2
330
1F
100
AcDbEntity
  8
LAY-20
  6
CONTINUOUS
 62
     4
100
AcDbLine
 10
301.00000000005
 20
349.21438170489
 30
0.0
 11
301.00000000005
 21
442.4999999999901
 31
0.0
  0
LINE
  5
3B3
330
1F
100
AcDbEntity
  8
LAY-20
  6
CONTINUOUS
 62
     4
100
AcDbLine
 10
949.0
 20
434.9999999999901
 30
0.0
 11
301.00000000005
 21
434.9999999999901
 31
0.0
  0
LINE
  5
3B4
330
1F
100
AcDbEntity
  8
LAY-20
  6
CONTINUOUS
 62
     4
100
AcDbLine
 10
936.5
 20
432.9166666666567
 30
0.0
 11
949.0
 21
434.9999999999901
 31
0.0
  0
LINE
  5
3B5
330
1F
100
AcDbEntity
  8
LAY-20
  6
CONTINUOUS
 62
     4
100
AcDbLine
 10
949.0
 20
434.9999999999901
 30
0.0
 11
936.5
 21
437.0833333333234
 31
0.0
  0
LINE
  5
3B6
330
1F
100
AcDbEntity
  8
LAY-20
  6
CONTINUOUS
 62
     4
100
AcDbLine
 10
936.5
 20
437.0833333333234
 30
0.0
 11
936.5
 21
432.9166666666567
 31
0.0
  0
LINE
  5
3B7
330
1F
100
AcDbEntity
  8
LAY-20
  6
CONTINUOUS
 62
     4
100
AcDbLine
 10
936.5
 20
433.9583333333234
 30
0.0
 11
949.0
 21
434.9999999999901
 31
0.0
  0
LINE
  5
3B8
330
1F
100
AcDbEntity
  8
LAY-20
  6
CONTINUOUS
 62
     4
100
AcDbLine
 10
949.0
 20
434.9999999999901
 30
0.0
 11
936.5
 21
436.0416666666567
 31
0.0
  0
LINE
  5
3B9
330
1F
100
AcDbEntity
  8
LAY-20
  6
CONTINUOUS
 62
     4
100
AcDbLine
 10
313.50000000005
 20
437.0833333333234
 30
0.0
 11
301.00000000005
 21
434.9999999999901
 31
0.0
  0
LINE
  5
3BA
330
1F
100
AcDbEntity
  8
LAY-20
  6
CONTINUOUS
 62
     4
100
AcDbLine
 10
301.00000000005
 20
434.9999999999901
 30
0.0
 11
313.50000000005
 21
432.9166666666567
 31
0.0
  0
LINE
  5
3BB
330
1F
100
AcDbEntity
  8
LAY-20
  6
CONTINUOUS
 62
     4
100
AcDbLine
 10
313.50000000005
 20
432.9166666666567
 30
0.0
 11
313.50000000005
 21
437.0833333333234
 31
0.0
  0
LINE
  5
3BC
330
1F
100
AcDbEntity
  8
LAY-20
  6
CONTINUOUS
 62
     4
100
AcDbLine
 10
313.50000000005
 20
436.0416666666567
 30
0.0
 11
301.00000000005
 21
434.9999999999901
 31
0.0
  0
LINE
  5
3BD
330
1F
100
AcDbEntity
  8
LAY-20
  6
CONTINUOUS
 62
     4
100
AcDbLine
 10
301.00000000005
 20
434.9999999999901
 30
0.0
 11
313.50000000005
 21
433.9583333333234
 31
0.0
  0
LINE
  5
3BE
330
1F
100
AcDbEntity
  8
LAY-20
  6
CONTINUOUS
 62
     4
100
AcDbLine
 10
257.0
 20
279.93678093043
 30
0.0
 11
257.0
 21
194.93678093043
 31
0.0
  0
LINE
  5
3BF
330
1F
100
AcDbEntity
  8
LAY-20
  6
CONTINUOUS
 62
     4
100
AcDbLine
 10
257.0
 20
202.43678093043
 30
0.0
 11
993.0000000000001
 21
202.43678093043
 31
0.0
  0
LINE
  5
3C0
330
1F
100
AcDbEntity
  8
LAY-20
  6
CONTINUOUS
 62
     4
100
AcDbLine
 10
269.5
 20
204.5201142637634
 30
0.0
 11
257.0
 21
202.43678093043
 31
0.0
  0
LINE
  5
3C1
330
1F
100
AcDbEntity
  8
LAY-20
  6
CONTINUOUS
 62
     4
100
AcDbLine
 10
257.0
 20
202.43678093043
 30
0.0
 11
269.5
 21
200.3534475970967
 31
0.0
  0
LINE
  5
3C2
330
1F
100
AcDbEntity
  8
LAY-20
  6
CONTINUOUS
 62
     4
100
AcDbLine
 10
269.5
 20
200.3534475970967
 30
0.0
 11
269.5
 21
204.5201142637634
 31
0.0
  0
LINE
  5
3C3
330
1F
100
AcDbEntity
  8
LAY-20
  6
CONTINUOUS
 62
     4
100
AcDbLine
 10
269.5
 20
203.4784475970967
 30
0.0
 11
257.0
 21
202.43678093043
 31
0.0
  0
LINE
  5
3C4
330
1F
100
AcDbEntity
  8
LAY-20
  6
CONTINUOUS
 62
     4
100
AcDbLine
 10
257.0
 20
202.43678093043
 30
0.0
 11
269.5
 21
201.3951142637633
 31
0.0
  0
DIMENSION
  5
3C6
330
1F
100
AcDbEntity
  8
LAY-20
  6
CONTINUOUS
 62
     4
100
AcDbDimension
  2
*D15
 10
1183.4183976445
 20
287.43678093043
 30
0.0
 11
1170.9183976445
 21
313.93678093043
 31
0.0
 70
   160
  3
ISO-25
100
AcDbAlignedDimension
 13
959.1172177814701
 23
340.43678093043
 33
0.0
 14
1133.4183976445
 24
287.43678093043
 34
0.0
 50
90.0
100
AcDbRotatedDimension
1001
ACAD
1000
DSTYLE
1002
{
1070
   270
1070
     2
1070
     6
1000
EX_BNORM
1070
     7
1000
EX_BNORM
1070
    41
1040
12.5
1070
    42
1040
7.5
1070
    44
1040
7.5
1070
    73
1070
     0
1070
    74
1070
     0
1070
    75
1070
     0
1070
    76
1070
     0
1070
    77
1070
     1
1070
    78
1070
     8
1070
   140
1040
15.590552
1070
   147
1040
0.0
1070
   173
1070
     1
1070
   176
1070
     4
1070
   177
1070
     4
1070
   178
1070
     7
1070
   271
1070
     1
1070
   277
1070
     2
1070
   279
1070
     2
1070
   280
1070
     0
1070
   287
1070
     5
1070
   340
1005
3C5
1002
}
  0
DIMENSION
  5
3D4
330
1F
100
AcDbEntity
  8
LAY-20
  6
CONTINUOUS
 62
     4
100
AcDbDimension
  2
*D16
 10
960.0
 20
469.9999999999901
 30
0.0
 11
625.000000000025
 21
482.4999999999901
 31
0.0
 70
   160
  1
%%c<>
  3
ISO-25
100
AcDbAlignedDimension
 13
290.00000000005
 23
347.93678093043
 33
0.0
 14
960.0
 24
347.93678093043
 34
0.0
100
AcDbRotatedDimension
1001
ACAD
1000
DSTYLE
1002
{
1070
   270
1070
     2
1070
     6
1000
EX_BNORM
1070
     7
1000
EX_BNORM
1070
    41
1040
15.0
1070
    42
1040
7.5
1070
    44
1040
7.5
1070
    73
1070
     0
1070
    74
1070
     0
1070
    75
1070
     0
1070
    76
1070
     0
1070
    77
1070
     1
1070
    78
1070
     8
1070
   140
1040
15.590552
1070
   147
1040
0.0
1070
   173
1070
     1
1070
   176
1070
     4
1070
   177
1070
     4
1070
   178
1070
     7
1070
   271
1070
     1
1070
   277
1070
     2
1070
   279
1070
     2
1070
   280
1070
     0
1070
   287
1070
     5
1070
   340
1005
3C5
1002
}
  0
DIMENSION
  5
3E1
330
1F
100
AcDbEntity
  8
LAY-20
  6
CONTINUOUS
 62
     4
100
AcDbDimension
  2
*D17
 10
949.0
 20
434.9999999999901
 30
0.0
 11
625.000000000025
 21
447.4999999999901
 31
0.0
 70
   160
  1
%%c<>
  3
ISO-25
100
AcDbAlignedDimension
 13
301.00000000005
 23
349.21438170489
 33
0.0
 14
949.0
 24
349.21438170489
 34
0.0
100
AcDbRotatedDimension
1001
ACAD
1000
DSTYLE
1002
{
1070
   270
1070
     2
1070
     6
1000
EX_BNORM
1070
     7
1000
EX_BNORM
1070
    41
1040
15.0
1070
    42
1040
7.5
1070
    44
1040
7.5
1070
    73
1070
     0
1070
    74
1070
     0
1070
    75
1070
     0
1070
    76
1070
     0
1070
    77
1070
     1
1070
    78
1070
     8
1070
   140
1040
15.590552
1070
   147
1040
0.0
1070
   173
1070
     1
1070
   176
1070
     4
1070
   177
1070
     4
1070
   178
1070
     7
1070
   271
1070
     1
1070
   277
1070
     2
1070
   279
1070
     2
1070
   280
1070
     0
1070
   287
1070
     5
1070
   340
1005
3C5
1002
}
  0
DIMENSION
  5
3EE
330
1F
100
AcDbEntity
  8
LAY-20
  6
CONTINUOUS
 62
     4
100
AcDbDimension
  2
*D18
 10
925.0
 20
237.43678093043
 30
0.0
 11
625.0
 21
249.93678093043
 31
0.0
 70
   160
  1
%%c<>
  3
ISO-25
100
AcDbAlignedDimension
 13
325.0
 23
287.43678093043
 33
0.0
 14
925.0
 24
287.43678093043
 34
0.0
100
AcDbRotatedDimension
1001
ACAD
1000
DSTYLE
1002
{
1070
   270
1070
     2
1070
     6
1000
EX_BNORM
1070
     7
1000
EX_BNORM
1070
    41
1040
15.0
1070
    42
1040
7.5
1070
    44
1040
7.5
1070
    73
1070
     0
1070
    74
1070
     0
1070
    75
1070
     0
1070
    76
1070
     0
1070
    77
1070
     1
1070
    78
1070
     8
1070
   140
1040
15.590552
1070
   147
1040
0.0
1070
   173
1070
     1
1070
   176
1070
     4
1070
   177
1070
     4
1070
   178
1070
     7
1070
   271
1070
     1
1070
   277
1070
     2
1070
   279
1070
     2
1070
   280
1070
     0
1070
   287
1070
     5
1070
   340
1005
3C5
1002
}
  0
DIMENSION
  5
3FB
330
1F
100
AcDbEntity
  8
LAY-20
  6
CONTINUOUS
 62
     4
100
AcDbDimension
  2
*D19
 10
993.0000000000001
 20
202.43678093043
 30
0.0
 11
625.0
 21
214.93678093043
 31
0.0
 70
   160
  1
□<>
  3
ISO-25
100
AcDbAlignedDimension
 13
257.0
 23
287.43678093043
 33
0.0
 14
993.0000000000001
 24
202.43678093043
 34
0.0
100
AcDbRotatedDimension
1001
ACAD
1000
DSTYLE
1002
{
1070
   270
1070
     2
1070
     6
1000
EX_BNORM
1070
     7
1000
EX_NONE
1070
    41
1040
15.0
1070
    42
1040
7.5
1070
    44
1040
7.5
1070
    73
1070
     0
1070
    74
1070
     0
1070
    75
1070
     0
1070
    76
1070
     1
1070
    77
1070
     1
1070
    78
1070
     8
1070
   140
1040
15.590552
1070
   147
1040
0.0
1070
   173
1070
     1
1070
   176
1070
     4
1070
   177
1070
     4
1070
   178
1070
     7
1070
   271
1070
     1
1070
   277
1070
     2
1070
   279
1070
     2
1070
   280
1070
     0
1070
   287
1070
     5
1070
   340
1005
3C5
1002
}
  0
LINE
  5
407
330
1F
100
AcDbEntity
  8
LAY-255
  6
CONTINUOUS
 62
     7
100
AcDbLine
 10
1925.0
 20
110.0
 30
0.0
 11
1425.0
 21
110.0
 31
0.0
  0
LINE
  5
408
330
1F
100
AcDbEntity
  8
LAY-255
  6
CONTINUOUS
 62
     7
100
AcDbLine
 10
1444.0
 20
79.99999999999999
 30
0.0
 11
1484.0
 21
105.0
 31
0.0
  0
LINE
  5
409
330
1F
100
AcDbEntity
  8
LAY-255
  6
CONTINUOUS
 62
     7
100
AcDbLine
 10
1484.0
 20
105.0
 30
0.0
 11
1524.0
 21
79.99999999999999
 31
0.0
  0
LINE
  5
40A
330
1F
100
AcDbEntity
  8
LAY-255
  6
CONTINUOUS
 62
     7
100
AcDbLine
 10
1524.0
 20
79.99999999999999
 30
0.0
 11
1484.0
 21
55.0
 31
0.0
  0
LINE
  5
40B
330
1F
100
AcDbEntity
  8
LAY-255
  6
CONTINUOUS
 62
     7
100
AcDbLine
 10
1484.0
 20
55.0
 30
0.0
 11
1444.0
 21
79.99999999999999
 31
0.0
  0
LINE
  5
40C
330
1F
100
AcDbEntity
  8
LAY-255
  6
CONTINUOUS
 62
     7
100
AcDbLine
 10
25.0
 20
50.0
 30
0.0
 11
1925.0
 21
50.0
 31
0.0
  0
LINE
  5
40D
330
1F
100
AcDbEntity
  8
LAY-255
  6
CONTINUOUS
 62
     7
100
AcDbLine
 10
25.0
 20
1400.0
 30
0.0
 11
1925.0
 21
1400.0
 31
0.0
  0
LINE
  5
40E
330
1F
100
AcDbEntity
  8
LAY-255
  6
CONTINUOUS
 62
     7
100
AcDbLine
 10
25.0
 20
50.0
 30
0.0
 11
25.0
 21
1400.0
 31
0.0
  0
LINE
  5
40F
330
1F
100
AcDbEntity
  8
LAY-255
  6
CONTINUOUS
 62
     4
100
AcDbLine
 10
1425.0
 20
140.0
 30
0.0
 11
1925.0
 21
140.0
 31
0.0
  0
LINE
  5
410
330
1F
100
AcDbEntity
  8
LAY-255
  6
CONTINUOUS
 62
     4
100
AcDbLine
 10
1675.0
 20
140.0
 30
0.0
 11
1675.0
 21
110.0
 31
0.0
  0
POINT
  5
411
330
1F
100
AcDbEntity
  8
LAY-255
  6
CONTINUOUS
 62
     7
100
AcDbPoint
 10
1445.0
 20
200.0
 30
0.0
  0
POINT
  5
412
330
1F
100
AcDbEntity
  8
LAY-255
  6
CONTINUOUS
 62
     7
100
AcDbPoint
 10
1445.0
 20
225.0
 30
0.0
  0
POINT
  5
413
330
1F
100
AcDbEntity
  8
LAY-255
  6
CONTINUOUS
 62
     7
100
AcDbPoint
 10
1445.0
 20
174.9999999999999
 30
0.0
  0
POINT
  5
414
330
1F
100
AcDbEntity
  8
LAY-255
  6
CONTINUOUS
 62
     7
100
AcDbPoint
 10
1445.0
 20
149.9999999999999
 30
0.0
  0
POINT
  5
415
330
1F
100
AcDbEntity
  8
LAY-255
  6
CONTINUOUS
 62
     7
100
AcDbPoint
 10
1445.0
 20
250.0
 30
0.0
  0
LINE
  5
416
330
1F
100
AcDbEntity
  8
LAY-255
  6
CONTINUOUS
 62
     7
100
AcDbLine
 10
1925.0
 20
50.0
 30
0.0
 11
1925.0
 21
1400.0
 31
0.0
  0
LINE
  5
417
330
1F
100
AcDbEntity
  8
LAY-255
  6
CONTINUOUS
 62
     7
100
AcDbLine
 10
1425.0
 20
50.0
 30
0.0
 11
1425.0
 21
335.0
 31
0.0
  0
LINE
  5
418
330
1F
100
AcDbEntity
  8
LAY-255
  6
CONTINUOUS
 62
     7
100
AcDbLine
 10
1925.0
 20
335.0
 30
0.0
 11
1425.0
 21
335.0
 31
0.0
  0
LINE
  5
419
330
1F
100
AcDbEntity
  8
LAY-255
  6
CONTINUOUS
 62
     4
100
AcDbLine
 10
1915.0
 20
275.0
 30
0.0
 11
1435.0
 21
275.0
 31
0.0
  0
LINE
  5
41A
330
1F
100
AcDbEntity
  8
LAY-255
  6
CONTINUOUS
 62
     4
100
AcDbLine
 10
1915.0
 20
305.0
 30
0.0
 11
1435.0
 21
305.0
 31
0.0
  0
POINT
  5
41B
330
1F
100
AcDbEntity
  8
LAY-255
  6
CONTINUOUS
 62
     7
100
AcDbPoint
 10
1500.0
 20
280.0
 30
0.0
  0
POINT
  5
41C
330
1F
100
AcDbEntity
  8
LAY-255
  6
CONTINUOUS
 62
     7
100
AcDbPoint
 10
1500.0
 20
310.0
 30
0.0
  0
TEXT
  5
41D
330
1F
100
AcDbEntity
  8
LAY-255
  6
CONTINUOUS
 62
     7
100
AcDbText
 10
1540.691894370117
 20
77.71874999999999
 30
0.0
 40
25.78125
  1
福西鋳物株式会社
 41
1.342691871783662
  7
EXCADSTD
100
AcDbText
  0
TEXT
  5
41E
330
1F
100
AcDbEntity
  8
LAY-255
  6
CONTINUOUS
 62
     7
100
AcDbText
 10
1542.546875
 20
59.90624999999999
 30
0.0
 40
8.59375
  1
ＦＵＫＵＮＩＳＨＩ
 41
1.204799226045263
  7
EXCADSTD
100
AcDbText
  0
TEXT
  5
41F
330
1F
100
AcDbEntity
  8
LAY-255
  6
CONTINUOUS
 62
     7
100
AcDbText
 10
1663.595982142857
 20
59.90624999999999
 30
0.0
 40
8.59375
  1
ＦＯＵＮＤＲＹ
 41
1.243252752978497
  7
EXCADSTD
100
AcDbText
  0
TEXT
  5
420
330
1F
100
AcDbEntity
  8
LAY-255
  6
CONTINUOUS
 62
     7
100
AcDbText
 10
1759.97295734375
 20
59.90624999999999
 30
0.0
 40
8.59375
  1
ＣＯ.,ＬＴＤ.
 41
1.243831100341625
  7
EXCADSTD
100
AcDbText
  0
TEXT
  5
421
330
1F
100
AcDbEntity
  8
LAY-255
  6
CONTINUOUS
 62
     7
100
AcDbText
 10
1470.171875
 20
68.59375
 30
0.0
 40
25.78125
  1
S
 41
0.7582677563636363
  7
EXCADSTD
100
AcDbText
  0
TEXT
  5
422
330
1F
100
AcDbEntity
  8
LAY-255
  6
CONTINUOUS
 62
     7
100
AcDbText
 10
1485.5234375
 20
68.7470518868
 30
0.0
 40
25.78125
  1
F
 41
0.7440945272727272
  7
EXCADSTD
100
AcDbText
  0
TEXT
  5
423
330
1F
100
AcDbEntity
  8
LAY-255
  6
CONTINUOUS
 62
     7
100
AcDbText
 10
1685.52734375
 20
122.1093749999999
 30
0.0
 40
12.890625
  1
縮尺
 41
1.080708718181818
  7
EXCADSTD
100
AcDbText
  0
TEXT
  5
424
330
1F
100
AcDbEntity
  8
LAY-255
  6
CONTINUOUS
 62
     7
100
AcDbText
 10
1435.76171875
 20
122.1093749999999
 30
0.0
 40
12.890625
  1
作成日
 41
1.000629973818182
  7
EXCADSTD
100
AcDbText
  0
TEXT
  5
425
330
1F
100
AcDbEntity
  8
LAY-255
  6
CONTINUOUS
 62
     7
100
AcDbText
 10
1741.40625
 20
117.8124999999999
 30
0.0
 40
17.1875
  1
１：５
 41
0.888661464
  7
EXCADSTD
100
AcDbText
  0
TEXT
  5
426
330
1F
100
AcDbEntity
  8
LAY-255
  6
CONTINUOUS
 62
     7
100
AcDbText
 10
1446.875
 20
202.8125
 30
0.0
 40
17.1875
  1
防水：簡易防水防臭型
 41
1.013466409710744
  7
EXCADSTD
100
AcDbText
  0
TEXT
  5
427
330
1F
100
AcDbEntity
  8
LAY-255
  6
CONTINUOUS
 62
     7
100
AcDbText
 10
1436.328125
 20
282.8125
 30
0.0
 40
17.1875
  1
型式
 41
1.056348480681818
  7
EXCADSTD
100
AcDbText
  0
TEXT
  5
428
330
1F
100
AcDbEntity
  8
LAY-255
  6
CONTINUOUS
 62
     7
100
AcDbText
 10
1437.109375
 20
312.8125
 30
0.0
 40
17.1875
  1
品名
 41
0.9788386340909091
  7
EXCADSTD
100
AcDbText
  0
TEXT
  5
429
330
1F
100
AcDbEntity
  8
LAY-255
  6
CONTINUOUS
 62
     7
100
AcDbText
 10
1501.953125
 20
312.8125
 30
0.0
 40
17.1875
  1
マンホールカバー
 41
1.015410627012987
  7
EXCADSTD
100
AcDbText
  0
TEXT
  5
42A
330
1F
100
AcDbEntity
  8
LAY-255
  6
CONTINUOUS
 62
     7
100
AcDbText
 10
1503.75
 20
282.8125
 30
0.0
 40
17.1875
  1
ＳＦ－ＭＫ－６０ＡＰ型
 41
1.0041805868791
  7
EXCADSTD
100
AcDbText
  0
TEXT
  5
42B
330
1F
100
AcDbEntity
  8
LAY-255
  6
CONTINUOUS
 62
     7
100
AcDbText
 10
1447.265625
 20
252.8125
 30
0.0
 40
17.1875
  1
区分：軽荷重用
 41
1.007228657526081
  7
EXCADSTD
100
AcDbText
  0
TEXT
  5
42C
330
1F
100
AcDbEntity
  8
LAY-255
  6
CONTINUOUS
 62
     7
100
AcDbText
 10
1445.703125
 20
227.8125
 30
0.0
 40
17.1875
  1
材質：ＦＲＰ製
 41
1.0269782390462
  7
EXCADSTD
100
AcDbText
  0
TEXT
  5
42D
330
1F
100
AcDbEntity
  8
LAY-255
  6
CONTINUOUS
 62
     7
100
AcDbText
 10
1504.453125
 20
117.8124999999999
 30
0.0
 40
17.1875
  1
０７／０１／０６
 41
0.9779528072727273
  7
EXCADSTD
100
AcDbText
  0
TEXT
  5
42E
330
1F
100
AcDbEntity
  8
LAY-255
  6
CONTINUOUS
 62
     7
100
AcDbText
 10
1445.859375
 20
177.8124999999999
 30
0.0
 40
17.1875
  1
破壊荷重：２０ｋＮ以上
 41
1.016600426804124
  7
EXCADSTD
100
AcDbText
  0
ENDSEC
  0
SECTION
  2
OBJECTS
  0
DICTIONARY
  5
C
330
0
100
AcDbDictionary
  3
ACAD_GROUP
350
D
  3
ACAD_LAYOUT
350
1A
  3
ACAD_MATERIAL
350
43
  3
ACAD_MLEADERSTYLE
350
6B
  3
ACAD_MLINESTYLE
350
17
  3
ACAD_PLOTSETTINGS
350
19
  3
ACAD_SCALELIST
350
47
  3
ACAD_VISUALSTYLE
350
2A
  3
ACDBHEADERROUNDTRIPXREC
350
42F
  3
ACDBVARIABLEDICTIONARY
350
450
  0
DICTIONARY
  5
45B
330
8
100
AcDbDictionary
280
     1
  3
ACAD_XREC_ROUNDTRIP
360
45C
  0
DICTIONARY
  5
D
102
{ACAD_REACTORS
330
C
102
}
330
C
100
AcDbDictionary
  0
DICTIONARY
  5
1A
102
{ACAD_REACTORS
330
C
102
}
330
C
100
AcDbDictionary
  0
DICTIONARY
  5
43
102
{ACAD_REACTORS
330
C
102
}
330
C
100
AcDbDictionary
  3
BYBLOCK
350
45
  3
BYLAYER
350
44
  3
GLOBAL
350
46
  0
DICTIONARY
  5
6B
102
{ACAD_REACTORS
330
C
102
}
330
C
100
AcDbDictionary
  3
STANDARD
350
6C
  0
DICTIONARY
  5
17
102
{ACAD_REACTORS
330
C
102
}
330
C
100
AcDbDictionary
  3
STANDARD
350
18
  0
DICTIONARY
  5
19
102
{ACAD_REACTORS
330
C
102
}
330
C
100
AcDbDictionary
  0
DICTIONARY
  5
47
102
{ACAD_REACTORS
330
C
102
}
330
C
100
AcDbDictionary
  3
A0
350
48
  3
A1
350
49
  3
A2
350
4A
  3
A3
350
4B
  3
A4
350
4C
  3
A5
350
4D
  3
A6
350
4E
  3
A7
350
4F
  3
A8
350
50
  3
A9
350
51
  3
B0
350
52
  3
B1
350
53
  3
B2
350
54
  3
B3
350
55
  3
B4
350
56
  3
B5
350
57
  3
B6
350
58
  3
B7
350
59
  3
B8
350
5A
  3
B9
350
5B
  3
C0
350
5C
  3
C1
350
5D
  3
C2
350
5E
  3
C3
350
5F
  3
C4
350
60
  3
C5
350
61
  3
C6
350
62
  3
C7
350
63
  3
C8
350
64
  3
C9
350
65
  3
D0
350
66
  3
D1
350
67
  3
D2
350
68
  0
DICTIONARY
  5
2A
102
{ACAD_REACTORS
330
C
102
}
330
C
100
AcDbDictionary
  3
2DWIREFRAME
350
2F
  3
BASIC
350
32
  3
BRIGHTEN
350
36
  3
COLORCHANGE
350
3A
  3
CONCEPTUAL
350
34
  3
DIM
350
35
  3
EDGECOLOROFF
350
3D
  3
FACEPATTERN
350
39
  3
FLAT
350
2B
  3
FLATWITHEDGES
350
2C
  3
GOURAUD
350
2D
  3
GOURAUDWITHEDGES
350
2E
  3
HIDDEN
350
31
  3
JITTEROFF
350
3B
  3
LINEPATTERN
350
38
  3
OVERHANGOFF
350
3C
  3
REALISTIC
350
33
  3
SHADED
350
42
  3
SHADED_WITH_EDGES
350
41
  3
SHADES_OF_GRAY
350
3E
  3
SKETCHY
350
3F
  3
THICKEN
350
37
  3
WIREFRAME
350
30
  3
X-RAY
350
40
  0
DICTIONARY
  5
42F
102
{ACAD_REACTORS
330
C
102
}
330
C
100
AcDbDictionary
  3
CEPSNID
350
439
  3
CEPSNTYPE
350
438
  3
DIMSTYLEDATA
350
44F
  3
FINGERPRINTGUID
350
43A
  3
HYPERLINKBASE
350
432
  3
INSUNITS
350
437
  3
LAYOUTDICT
350
434
  3
LWETCUNION
350
436
  3
PLOTSETDICT
350
435
  3
PSVPSCALE
350
43C
  3
PUCSBASE
350
43F
  3
PUCSORGBACK
350
445
  3
PUCSORGBOTTOM
350
441
  3
PUCSORGFRONT
350
444
  3
PUCSORGLEFT
350
442
  3
PUCSORGRIGHT
350
443
  3
PUCSORGTOP
350
440
  3
PUCSORTHOREF
350
43D
  3
PUCSORTHOVIEW
350
43E
  3
STYLESHEET
350
433
  3
TSTACKALIGN
350
430
  3
TSTACKSIZE
350
431
  3
UCSBASE
350
448
  3
UCSORGBACK
350
44E
  3
UCSORGBOTTOM
350
44A
  3
UCSORGFRONT
350
44D
  3
UCSORGLEFT
350
44B
  3
UCSORGRIGHT
350
44C
  3
UCSORGTOP
350
449
  3
UCSORTHOREF
350
446
  3
UCSORTHOVIEW
350
447
  3
VERSIONGUID
350
43B
  0
DICTIONARY
  5
450
102
{ACAD_REACTORS
330
C
102
}
330
C
100
AcDbDictionary
  3
CANNOSCALE
350
45D
  3
CENTEREXE
350
457
  3
CENTERLTYPEFILE
350
458
  3
CMLEADERSTYLE
350
452
  3
CTABLESTYLE
350
451
  3
DIMASSOC
350
459
  3
HIDETEXT
350
45A
  3
MSLTSCALE
350
45E
  3
PSOLHEIGHT
350
454
  3
PSOLWIDTH
350
453
  0
XRECORD
  5
45C
102
{ACAD_REACTORS
330
45B
102
}
330
45B
100
AcDbXrecord
102
VTR_0.000_0.000_1.000_1.000_VISUALSTYLE
340
2F
102
VTR_0.000_0.000_1.000_1.000_GRIDDISPLAY
 70
     3
102
VTR_0.000_0.000_1.000_1.000_GRIDMAJOR
 70
     5
102
VTR_0.000_0.000_1.000_1.000_DEFAULTLIGHTING
280
     1
102
VTR_0.000_0.000_1.000_1.000_DEFAULTLIGHTINGTYPE
 70
     1
102
VTR_0.000_0.000_1.000_1.000_BRIGHTNESS
141
0.0
102
VTR_0.000_0.000_1.000_1.000_CONTRAST
142
0.0
  0
MATERIAL
  5
45
102
{ACAD_REACTORS
330
43
102
}
102
{ACAD_XDICTIONARY
360
461
102
}
330
43
100
AcDbMaterial
  1
BYBLOCK
  0
MATERIAL
  5
44
102
{ACAD_REACTORS
330
43
102
}
102
{ACAD_XDICTIONARY
360
45F
102
}
330
43
100
AcDbMaterial
  1
BYLAYER
  0
MATERIAL
  5
46
102
{ACAD_REACTORS
330
43
102
}
102
{ACAD_XDICTIONARY
360
463
102
}
330
43
100
AcDbMaterial
  1
GLOBAL
  0
ACAD_PROXY_OBJECT
  5
6C
102
{ACAD_REACTORS
330
6B
102
}
330
6B
100
AcDbProxyObject
 90
      499
 91
      505
 93
      610
310
40901902A4063FBFFFFFE0000000000000020400000000000020404214DD185B99185C990000000000000104090141901A00000000000004100000000000000041025764000000000000039000
340
14
340
0
340
11
340
0
 94
        0
1001
ACAD_MLEADERVER
1070
     2
  0
MLINESTYLE
  5
18
102
{ACAD_REACTORS
330
17
102
}
330
17
100
AcDbMlineStyle
  2
Standard
 70
     0
  3

 62
   256
 51
90.0
 52
90.0
 71
     2
 49
0.5
 62
   256
  6
BYLAYER
 49
-0.5
 62
   256
  6
BYLAYER
  0
ACAD_PROXY_OBJECT
  5
48
102
{ACAD_REACTORS
330
47
102
}
330
47
100
AcDbProxyObject
 90
      499
 91
      503
 93
       41
310
903313A31580
  0
ACAD_PROXY_OBJECT
  5
49
102
{ACAD_REACTORS
330
47
102
}
330
47
100
AcDbProxyObject
 90
      499
 91
      503
 93
      105
310
903313A324000000000000004000
  0
ACAD_PROXY_OBJECT
  5
4A
102
{ACAD_REACTORS
330
47
102
}
330
47
100
AcDbProxyObject
 90
      499
 91
      503
 93
      105
310
903313A344000000000000104000
  0
ACAD_PROXY_OBJECT
  5
4B
102
{ACAD_REACTORS
330
47
102
}
330
47
100
AcDbProxyObject
 90
      499
 91
      503
 93
      105
310
903313A354000000000000144000
  0
ACAD_PROXY_OBJECT
  5
4C
102
{ACAD_REACTORS
330
47
102
}
330
47
100
AcDbProxyObject
 90
      499
 91
      503
 93
      105
310
903313A384000000000000204000
  0
ACAD_PROXY_OBJECT
  5
4D
102
{ACAD_REACTORS
330
47
102
}
330
47
100
AcDbProxyObject
 90
      499
 91
      503
 93
      113
310
904313A31304000000000000244000
  0
ACAD_PROXY_OBJECT
  5
4E
102
{ACAD_REACTORS
330
47
102
}
330
47
100
AcDbProxyObject
 90
      499
 91
      503
 93
      113
310
904313A31364000000000000304000
  0
ACAD_PROXY_OBJECT
  5
4F
102
{ACAD_REACTORS
330
47
102
}
330
47
100
AcDbProxyObject
 90
      499
 91
      503
 93
      113
310
904313A32304000000000000344000
  0
ACAD_PROXY_OBJECT
  5
50
102
{ACAD_REACTORS
330
47
102
}
330
47
100
AcDbProxyObject
 90
      499
 91
      503
 93
      113
310
904313A333040000000000003E4000
  0
ACAD_PROXY_OBJECT
  5
51
102
{ACAD_REACTORS
330
47
102
}
330
47
100
AcDbProxyObject
 90
      499
 91
      503
 93
      113
310
904313A34304000000000000444000
  0
ACAD_PROXY_OBJECT
  5
52
102
{ACAD_REACTORS
330
47
102
}
330
47
100
AcDbProxyObject
 90
      499
 91
      503
 93
      113
310
904313A35304000000000000494000
  0
ACAD_PROXY_OBJECT
  5
53
102
{ACAD_REACTORS
330
47
102
}
330
47
100
AcDbProxyObject
 90
      499
 91
      503
 93
      121
310
905313A3130304000000000000594000
  0
ACAD_PROXY_OBJECT
  5
54
102
{ACAD_REACTORS
330
47
102
}
330
47
100
AcDbProxyObject
 90
      499
 91
      503
 93
      105
310
903323A310000000000000010100
  0
ACAD_PROXY_OBJECT
  5
55
102
{ACAD_REACTORS
330
47
102
}
330
47
100
AcDbProxyObject
 90
      499
 91
      503
 93
      105
310
903343A310000000000000410100
  0
ACAD_PROXY_OBJECT
  5
56
102
{ACAD_REACTORS
330
47
102
}
330
47
100
AcDbProxyObject
 90
      499
 91
      503
 93
      105
310
903383A310000000000000810100
  0
ACAD_PROXY_OBJECT
  5
57
102
{ACAD_REACTORS
330
47
102
}
330
47
100
AcDbProxyObject
 90
      499
 91
      503
 93
      113
310
90431303A310000000000000910100
  0
ACAD_PROXY_OBJECT
  5
58
102
{ACAD_REACTORS
330
47
102
}
330
47
100
AcDbProxyObject
 90
      499
 91
      503
 93
      121
310
9053130303A310000000000001650100
  0
ACAD_PROXY_OBJECT
  5
59
102
{ACAD_REACTORS
330
47
102
}
330
47
100
AcDbProxyObject
 90
      499
 91
      503
 93
      257
310
90E312F31323822203D2031272D3022000000000000200FC000000000000284000
  0
ACAD_PROXY_OBJECT
  5
5A
102
{ACAD_REACTORS
330
47
102
}
330
47
100
AcDbProxyObject
 90
      499
 91
      503
 93
      249
310
90D312F363422203D2031272D3022000000000000240FC000000000000284000
  0
ACAD_PROXY_OBJECT
  5
5B
102
{ACAD_REACTORS
330
47
102
}
330
47
100
AcDbProxyObject
 90
      499
 91
      503
 93
      249
310
90D312F333222203D2031272D3022000000000000280FC000000000000284000
  0
ACAD_PROXY_OBJECT
  5
5C
102
{ACAD_REACTORS
330
47
102
}
330
47
100
AcDbProxyObject
 90
      499
 91
      503
 93
      249
310
90D312F313622203D2031272D30220000000000002C0FC000000000000284000
  0
ACAD_PROXY_OBJECT
  5
5D
102
{ACAD_REACTORS
330
47
102
}
330
47
100
AcDbProxyObject
 90
      499
 91
      503
 93
      249
310
90D332F333222203D2031272D30220000000000002E0FC000000000000284000
  0
ACAD_PROXY_OBJECT
  5
5E
102
{ACAD_REACTORS
330
47
102
}
330
47
100
AcDbProxyObject
 90
      499
 91
      503
 93
      241
310
90C312F3822203D2031272D3022000000000000300FC000000000000284000
  0
ACAD_PROXY_OBJECT
  5
5F
102
{ACAD_REACTORS
330
47
102
}
330
47
100
AcDbProxyObject
 90
      499
 91
      503
 93
      249
310
90D332F313622203D2031272D3022000000000000320FC000000000000284000
  0
ACAD_PROXY_OBJECT
  5
60
102
{ACAD_REACTORS
330
47
102
}
330
47
100
AcDbProxyObject
 90
      499
 91
      503
 93
      241
310
90C312F3422203D2031272D3022000000000000340FC000000000000284000
  0
ACAD_PROXY_OBJECT
  5
61
102
{ACAD_REACTORS
330
47
102
}
330
47
100
AcDbProxyObject
 90
      499
 91
      503
 93
      241
310
90C332F3822203D2031272D3022000000000000360FC000000000000284000
  0
ACAD_PROXY_OBJECT
  5
62
102
{ACAD_REACTORS
330
47
102
}
330
47
100
AcDbProxyObject
 90
      499
 91
      503
 93
      241
310
90C312F3222203D2031272D3022000000000000380FC000000000000284000
  0
ACAD_PROXY_OBJECT
  5
63
102
{ACAD_REACTORS
330
47
102
}
330
47
100
AcDbProxyObject
 90
      499
 91
      503
 93
      241
310
90C332F3422203D2031272D30220000000000003A0FC000000000000284000
  0
ACAD_PROXY_OBJECT
  5
64
102
{ACAD_REACTORS
330
47
102
}
330
47
100
AcDbProxyObject
 90
      499
 91
      503
 93
      161
310
90A3122203D2031272D30224000000000000284000
  0
ACAD_PROXY_OBJECT
  5
65
102
{ACAD_REACTORS
330
47
102
}
330
47
100
AcDbProxyObject
 90
      499
 91
      503
 93
      257
310
90E312D312F3222203D2031272D30220000000000003E0FC000000000000284000
  0
ACAD_PROXY_OBJECT
  5
66
102
{ACAD_REACTORS
330
47
102
}
330
47
100
AcDbProxyObject
 90
      499
 91
      503
 93
      225
310
90A3322203D2031272D302200000000000002100000000000000284000
  0
ACAD_PROXY_OBJECT
  5
67
102
{ACAD_REACTORS
330
47
102
}
330
47
100
AcDbProxyObject
 90
      499
 91
      503
 93
      225
310
90A3622203D2031272D302200000000000006100000000000000284000
  0
ACAD_PROXY_OBJECT
  5
68
102
{ACAD_REACTORS
330
47
102
}
330
47
100
AcDbProxyObject
 90
      499
 91
      503
 93
      249
310
90D31272D3022203D2031272D30220000000000000A100000000000000284000
  0
ACAD_PROXY_OBJECT
  5
2F
102
{ACAD_REACTORS
330
2A
102
}
330
2A
100
AcDbProxyObject
 90
      499
 91
      501
 93
      436
310
42CC9915DA5C99599C985B595049028333333333333E33F0000000000000F90107901411070040501600405405064090741402480A0340
1001
ACAD
1000
AcDbSavedByObjectVersion
1070
     0
  0
ACAD_PROXY_OBJECT
  5
32
102
{ACAD_REACTORS
330
2A
102
}
330
2A
100
AcDbProxyObject
 90
      499
 91
      501
 93
      388
310
4150985CDA58D07406404333333333333E33F0000000000000F90107A41107004050150841D405064090741402480A0350
1001
ACAD
1000
AcDbSavedByObjectVersion
1070
     0
  0
ACAD_PROXY_OBJECT
  5
36
102
{ACAD_REACTORS
330
2A
102
}
330
2A
100
AcDbProxyObject
 90
      499
 91
      501
 93
      428
310
42109C9A59DA1D195B90C409028333333333333E33F0000000000000F9010790141107004050150841D405064090741402480A029950
1001
ACAD
1000
AcDbSavedByObjectVersion
1070
     0
  0
ACAD_PROXY_OBJECT
  5
3A
102
{ACAD_REACTORS
330
2A
102
}
330
2A
100
AcDbProxyObject
 90
      499
 91
      501
 93
      452
310
42D0DBDB1BDC90DA185B99D95104090240C333333333333E33F0000000000000F90108901411070040501508421405064090741402480A0350
1001
ACAD
1000
AcDbSavedByObjectVersion
1070
     0
  0
ACAD_PROXY_OBJECT
  5
34
102
{ACAD_REACTORS
330
2A
102
}
330
2A
100
AcDbProxyObject
 90
      499
 91
      501
 93
      500
310
4290DBDB98D95C1D1D585B10940D028333333333333E33F0000000000000F90107902409070040501000000000018199010841D405064090740C02480A0340
1001
ACAD
1000
AcDbSavedByObjectVersion
1070
     0
  0
ACAD_PROXY_OBJECT
  5
35
102
{ACAD_REACTORS
330
2A
102
}
330
2A
100
AcDbProxyObject
 90
      499
 91
      501
 93
      412
310
40D11A5B50B409028333333333333E33F0000000000000F9010790141107004050150841D405064090741402480A02677FFFFFD0
1001
ACAD
1000
AcDbSavedByObjectVersion
1070
     0
  0
ACAD_PROXY_OBJECT
  5
3D
102
{ACAD_REACTORS
330
2A
102
}
330
2A
100
AcDbProxyObject
 90
      499
 91
      501
 93
      452
310
43115919D950DBDB1BDC93D999916409028333333333333E33F0000000000000F9010790141107004050150841D405064090741402480A0350
1001
ACAD
1000
AcDbSavedByObjectVersion
1070
     0
  0
ACAD_PROXY_OBJECT
  5
39
102
{ACAD_REACTORS
330
2A
102
}
330
2A
100
AcDbProxyObject
 90
      499
 91
      501
 93
      444
310
42D19858D95C185D1D195C9B90F409028333333333333E33F0000000000000F9010790141107004050150841D405064090741402480A0350
1001
ACAD
1000
AcDbSavedByObjectVersion
1070
     0
  0
ACAD_PROXY_OBJECT
  5
2B
102
{ACAD_REACTORS
330
2A
102
}
330
2A
100
AcDbProxyObject
 90
      499
 91
      501
 93
      380
310
41119B185D240901404333333333333E33F0000000000000F9010740A907004050150841D405064090741402480A1B50
1001
ACAD
1000
AcDbSavedByObjectVersion
1070
     0
  0
ACAD_PROXY_OBJECT
  5
2C
102
{ACAD_REACTORS
330
2A
102
}
330
2A
100
AcDbProxyObject
 90
      499
 91
      501
 93
      468
310
43519B185D15DA5D1A115919D95CD0140901404333333333333E33F0000000000000F90107409019070040501600405405064090741402480A1B50
1001
ACAD
1000
AcDbSavedByObjectVersion
1070
     0
  0
ACAD_PROXY_OBJECT
  5
2D
102
{ACAD_REACTORS
330
2A
102
}
330
2A
100
AcDbProxyObject
 90
      499
 91
      501
 93
      404
310
41D1DBDD5C985D5910240902404333333333333E33F0000000000000F9010740A9070040501641D405064090741402480A1B50
1001
ACAD
1000
AcDbSavedByObjectVersion
1070
     0
  0
ACAD_PROXY_OBJECT
  5
2E
102
{ACAD_REACTORS
330
2A
102
}
330
2A
100
AcDbProxyObject
 90
      499
 91
      501
 93
      492
310
4411DBDD5C985D5915DA5D1A115919D95CD0340902404333333333333E33F0000000000000F90107409019070040501600405405064090741402480A1B50
1001
ACAD
1000
AcDbSavedByObjectVersion
1070
     0
  0
ACAD_PROXY_OBJECT
  5
31
102
{ACAD_REACTORS
330
2A
102
}
330
2A
100
AcDbProxyObject
 90
      499
 91
      501
 93
      476
310
41921A5919195B90640502408333333333333E33F0000000000000F901079024090700405020000000000001110200405405064090740C02480A0340
1001
ACAD
1000
AcDbSavedByObjectVersion
1070
     0
  0
ACAD_PROXY_OBJECT
  5
3B
102
{ACAD_REACTORS
330
2A
102
}
330
2A
100
AcDbProxyObject
 90
      499
 91
      501
 93
      428
310
42529A5D1D195C93D999914409028333333333333E33F0000000000000F9010790141107004050150A41D405064090741402480A0350
1001
ACAD
1000
AcDbSavedByObjectVersion
1070
     0
  0
ACAD_PROXY_OBJECT
  5
38
102
{ACAD_REACTORS
330
2A
102
}
330
2A
100
AcDbProxyObject
 90
      499
 91
      501
 93
      444
310
42D31A5B995C185D1D195C9B90E409028333333333333E33F0000000000000F9010790141107004050750841D405064090741402483A0350
1001
ACAD
1000
AcDbSavedByObjectVersion
1070
     0
  0
ACAD_PROXY_OBJECT
  5
3C
102
{ACAD_REACTORS
330
2A
102
}
330
2A
100
AcDbProxyObject
 90
      499
 91
      501
 93
      444
310
42D3DD995C9A185B99D3D999915409028333333333333E33F0000000000000F9010790141107004050150941D405064090741402480A0350
1001
ACAD
1000
AcDbSavedByObjectVersion
1070
     0
  0
ACAD_PROXY_OBJECT
  5
33
102
{ACAD_REACTORS
330
2A
102
}
330
2A
100
AcDbProxyObject
 90
      499
 91
      501
 93
      428
310
425499585B1A5CDD1A58D08409038333333333333E33F0000000000000F9010740A907004050150800405405064090740C02480A1B40
1001
ACAD
1000
AcDbSavedByObjectVersion
1070
     0
  0
ACAD_PROXY_OBJECT
  5
42
102
{ACAD_REACTORS
330
2A
102
}
330
2A
100
AcDbProxyObject
 90
      499
 91
      501
 93
      420
310
4194DA1859195911B40902404333333333333E33F0000000000000F9010740A41107004050150800405405064090840C02480A0B40
1001
ACAD
1000
AcDbSavedByObjectVersion
1070
     0
  0
ACAD_PROXY_OBJECT
  5
41
102
{ACAD_REACTORS
330
2A
102
}
330
2A
100
AcDbProxyObject
 90
      499
 91
      501
 93
      516
310
4454DA18591959081DDA5D1A08195919D95CD1A40902404333333333333E33F0000000000000F901074090142907004050250800405405064090740C02480A0B40
1001
ACAD
1000
AcDbSavedByObjectVersion
1070
     0
  0
ACAD_PROXY_OBJECT
  5
3E
102
{ACAD_REACTORS
330
2A
102
}
330
2A
100
AcDbProxyObject
 90
      499
 91
      501
 93
      532
310
4394DA1859195CC81BD98811DC985E5174090240C333333333333E33F0000000000000F901079024090741D01000000000000111010841D405064090740C02480A0340
1001
ACAD
1000
AcDbSavedByObjectVersion
1070
     0
  0
ACAD_PROXY_OBJECT
  5
3F
102
{ACAD_REACTORS
330
2A
102
}
330
2A
100
AcDbProxyObject
 90
      499
 91
      501
 93
      476
310
41D4DAD95D18DA1E51840502408333333333333E33F0000000000000F901079024090741D01000000000000111010B41D405064090741802480A0340
1001
ACAD
1000
AcDbSavedByObjectVersion
1070
     0
  0
ACAD_PROXY_OBJECT
  5
37
102
{ACAD_REACTORS
330
2A
102
}
330
2A
100
AcDbProxyObject
 90
      499
 91
      501
 93
      412
310
41D51A1A58DAD95B90D409028333333333333E33F0000000000000F9010790141107004050150C41D405064090741402480A0350
1001
ACAD
1000
AcDbSavedByObjectVersion
1070
     0
  0
ACAD_PROXY_OBJECT
  5
30
102
{ACAD_REACTORS
330
2A
102
}
330
2A
100
AcDbProxyObject
 90
      499
 91
      501
 93
      420
310
4255DA5C99599C985B595059028333333333333E33F0000000000000F90107901411070040501600405405064090740C02480A0340
1001
ACAD
1000
AcDbSavedByObjectVersion
1070
     0
  0
ACAD_PROXY_OBJECT
  5
40
102
{ACAD_REACTORS
330
2A
102
}
330
2A
100
AcDbProxyObject
 90
      499
 91
      501
 93
      404
310
41560B54985E51940902404000000000000E03F0000000000000F9010740501907004050150841D405064090740C02480A1B40
1001
ACAD
1000
AcDbSavedByObjectVersion
1070
     0
  0
XRECORD
  5
439
102
{ACAD_REACTORS
330
42F
102
}
330
42F
100
AcDbXrecord
340
0
  0
XRECORD
  5
438
102
{ACAD_REACTORS
330
42F
102
}
330
42F
100
AcDbXrecord
 90
        0
  0
XRECORD
  5
44F
102
{ACAD_REACTORS
330
42F
102
}
330
42F
100
AcDbXrecord
1000
DSTYLE
1002
{
1070
   340
340
11
1002
}
  0
XRECORD
  5
43A
102
{ACAD_REACTORS
330
42F
102
}
330
42F
100
AcDbXrecord
  1
{4e461047-9671-4078-af0b-79ec2451e625}
  0
XRECORD
  5
432
102
{ACAD_REACTORS
330
42F
102
}
330
42F
100
AcDbXrecord
  1

  0
XRECORD
  5
437
102
{ACAD_REACTORS
330
42F
102
}
330
42F
100
AcDbXrecord
 90
        4
  0
XRECORD
  5
434
102
{ACAD_REACTORS
330
42F
102
}
330
42F
100
AcDbXrecord
340
1A
  0
XRECORD
  5
436
102
{ACAD_REACTORS
330
42F
102
}
330
42F
100
AcDbXrecord
 90
    10781
  0
XRECORD
  5
435
102
{ACAD_REACTORS
330
42F
102
}
330
42F
100
AcDbXrecord
340
19
  0
XRECORD
  5
43C
102
{ACAD_REACTORS
330
42F
102
}
330
42F
100
AcDbXrecord
 40
0.0
  0
XRECORD
  5
43F
102
{ACAD_REACTORS
330
42F
102
}
330
42F
100
AcDbXrecord
340
0
  0
XRECORD
  5
445
102
{ACAD_REACTORS
330
42F
102
}
330
42F
100
AcDbXrecord
 10
0.0
 20
0.0
 30
0.0
  0
XRECORD
  5
441
102
{ACAD_REACTORS
330
42F
102
}
330
42F
100
AcDbXrecord
 10
0.0
 20
0.0
 30
0.0
  0
XRECORD
  5
444
102
{ACAD_REACTORS
330
42F
102
}
330
42F
100
AcDbXrecord
 10
0.0
 20
0.0
 30
0.0
  0
XRECORD
  5
442
102
{ACAD_REACTORS
330
42F
102
}
330
42F
100
AcDbXrecord
 10
0.0
 20
0.0
 30
0.0
  0
XRECORD
  5
443
102
{ACAD_REACTORS
330
42F
102
}
330
42F
100
AcDbXrecord
 10
0.0
 20
0.0
 30
0.0
  0
XRECORD
  5
440
102
{ACAD_REACTORS
330
42F
102
}
330
42F
100
AcDbXrecord
 10
0.0
 20
0.0
 30
0.0
  0
XRECORD
  5
43D
102
{ACAD_REACTORS
330
42F
102
}
330
42F
100
AcDbXrecord
340
0
  0
XRECORD
  5
43E
102
{ACAD_REACTORS
330
42F
102
}
330
42F
100
AcDbXrecord
 70
     0
  0
XRECORD
  5
433
102
{ACAD_REACTORS
330
42F
102
}
330
42F
100
AcDbXrecord
  1

  0
XRECORD
  5
430
102
{ACAD_REACTORS
330
42F
102
}
330
42F
100
AcDbXrecord
 90
        1
  0
XRECORD
  5
431
102
{ACAD_REACTORS
330
42F
102
}
330
42F
100
AcDbXrecord
 90
       70
  0
XRECORD
  5
448
102
{ACAD_REACTORS
330
42F
102
}
330
42F
100
AcDbXrecord
340
0
  0
XRECORD
  5
44E
102
{ACAD_REACTORS
330
42F
102
}
330
42F
100
AcDbXrecord
 10
0.0
 20
0.0
 30
0.0
  0
XRECORD
  5
44A
102
{ACAD_REACTORS
330
42F
102
}
330
42F
100
AcDbXrecord
 10
0.0
 20
0.0
 30
0.0
  0
XRECORD
  5
44D
102
{ACAD_REACTORS
330
42F
102
}
330
42F
100
AcDbXrecord
 10
0.0
 20
0.0
 30
0.0
  0
XRECORD
  5
44B
102
{ACAD_REACTORS
330
42F
102
}
330
42F
100
AcDbXrecord
 10
0.0
 20
0.0
 30
0.0
  0
XRECORD
  5
44C
102
{ACAD_REACTORS
330
42F
102
}
330
42F
100
AcDbXrecord
 10
0.0
 20
0.0
 30
0.0
  0
XRECORD
  5
449
102
{ACAD_REACTORS
330
42F
102
}
330
42F
100
AcDbXrecord
 10
0.0
 20
0.0
 30
0.0
  0
XRECORD
  5
446
102
{ACAD_REACTORS
330
42F
102
}
330
42F
100
AcDbXrecord
340
0
  0
XRECORD
  5
447
102
{ACAD_REACTORS
330
42F
102
}
330
42F
100
AcDbXrecord
 70
     0
  0
XRECORD
  5
43B
102
{ACAD_REACTORS
330
42F
102
}
330
42F
100
AcDbXrecord
  1
{FAEB1C32-E019-11D5-929B-00C0DF256EC4}
  0
DICTIONARYVAR
  5
45D
102
{ACAD_REACTORS
330
450
102
}
330
450
100
DictionaryVariables
280
     0
  1
1:1
  0
DICTIONARYVAR
  5
457
102
{ACAD_REACTORS
330
450
102
}
330
450
100
DictionaryVariables
280
     0
  1
3.500000
  0
DICTIONARYVAR
  5
458
102
{ACAD_REACTORS
330
450
102
}
330
450
100
DictionaryVariables
280
     0
  1
acadiso.lin
  0
DICTIONARYVAR
  5
452
102
{ACAD_REACTORS
330
450
102
}
330
450
100
DictionaryVariables
280
     0
  1
Standard
  0
DICTIONARYVAR
  5
451
102
{ACAD_REACTORS
330
450
102
}
330
450
100
DictionaryVariables
280
     0
  1
Standard
  0
DICTIONARYVAR
  5
459
102
{ACAD_REACTORS
330
450
102
}
330
450
100
DictionaryVariables
280
     0
  1
2
  0
DICTIONARYVAR
  5
45A
102
{ACAD_REACTORS
330
450
102
}
330
450
100
DictionaryVariables
280
     0
  1
1
  0
DICTIONARYVAR
  5
45E
102
{ACAD_REACTORS
330
450
102
}
330
450
100
DictionaryVariables
280
     0
  1
1
  0
DICTIONARYVAR
  5
454
102
{ACAD_REACTORS
330
450
102
}
330
450
100
DictionaryVariables
280
     0
  1
80.000000
  0
DICTIONARYVAR
  5
453
102
{ACAD_REACTORS
330
450
102
}
330
450
100
DictionaryVariables
280
     0
  1
5.000000
  0
DICTIONARY
  5
461
330
45
100
AcDbDictionary
280
     1
  3
ACAD_XREC_ROUNDTRIP
360
462
  0
DICTIONARY
  5
45F
330
44
100
AcDbDictionary
280
     1
  3
ACAD_XREC_ROUNDTRIP
360
460
  0
DICTIONARY
  5
463
330
46
100
AcDbDictionary
280
     1
  3
ACAD_XREC_ROUNDTRIP
360
464
  0
XRECORD
  5
462
102
{ACAD_REACTORS
330
461
102
}
330
461
100
AcDbXrecord
102
MATERIAL
148
0.0
149
0.0
149
0.0
 93
        0
 94
      127
282
     0
 72
     1
 77
     1
171
     1
175
     1
179
     1
273
     0
  0
XRECORD
  5
460
102
{ACAD_REACTORS
330
45F
102
}
330
45F
100
AcDbXrecord
102
MATERIAL
148
0.0
149
0.0
149
0.0
 93
        0
 94
      127
282
     0
 72
     1
 77
     1
171
     1
175
     1
179
     1
273
     0
  0
XRECORD
  5
464
102
{ACAD_REACTORS
330
463
102
}
330
463
100
AcDbXrecord
102
MATERIAL
148
0.0
149
0.0
149
0.0
 93
        0
 94
      127
282
     0
 72
     1
 77
     1
171
     1
175
     1
179
     1
273
     0
  0
ENDSEC
  0
EOF
