  0
SECTION
  2
HEADER
  9
$ACADVER
  1
AC1014
  9
$ACADMAINTVER
 70
     9
  9
$DWGCODEPAGE
  3
ANSI_932
  9
$INSBASE
 10
0.0
 20
0.0
 30
0.0
  9
$EXTMIN
 10
10.0
 20
20.0
 30
0.0
  9
$EXTMAX
 10
770.0000000000001
 20
560.0
 30
0.0
  9
$LIMMIN
 10
0.0
 20
0.0
  9
$LIMMAX
 10
420.0
 20
297.0
  9
$ORTHOMODE
 70
     0
  9
$REGENMODE
 70
     1
  9
$FILLMODE
 70
     1
  9
$QTEXTMODE
 70
     0
  9
$MIRRTEXT
 70
     1
  9
$DRAGMODE
 70
     2
  9
$LTSCALE
 40
0.2
  9
$OSMODE
 70
    37
  9
$ATTMODE
 70
     1
  9
$TEXTSIZE
 40
2.5
  9
$TRACEWID
 40
1.0
  9
$TEXTSTYLE
  7
STANDARD
  9
$CLAYER
  8
LAY-10
  9
$CELTYPE
  6
BYLAYER
  9
$CECOLOR
 62
   256
  9
$CELTSCALE
 40
1.0
  9
$DELOBJ
 70
     1
  9
$DISPSILH
 70
     0
  9
$DIMSCALE
 40
1.0
  9
$DIMASZ
 40
2.5
  9
$DIMEXO
 40
0.625
  9
$DIMDLI
 40
3.75
  9
$DIMRND
 40
0.0
  9
$DIMDLE
 40
0.0
  9
$DIMEXE
 40
1.25
  9
$DIMTP
 40
0.0
  9
$DIMTM
 40
0.0
  9
$DIMTXT
 40
2.5
  9
$DIMCEN
 40
2.5
  9
$DIMTSZ
 40
0.0
  9
$DIMTOL
 70
     0
  9
$DIMLIM
 70
     0
  9
$DIMTIH
 70
     0
  9
$DIMTOH
 70
     0
  9
$DIMSE1
 70
     0
  9
$DIMSE2
 70
     0
  9
$DIMTAD
 70
     1
  9
$DIMZIN
 70
     8
  9
$DIMBLK
  1

  9
$DIMASO
 70
     1
  9
$DIMSHO
 70
     1
  9
$DIMPOST
  1

  9
$DIMAPOST
  1

  9
$DIMALT
 70
     0
  9
$DIMALTD
 70
     3
  9
$DIMALTF
 40
0.03937007874016
  9
$DIMLFAC
 40
1.0
  9
$DIMTOFL
 70
     1
  9
$DIMTVP
 40
0.0
  9
$DIMTIX
 70
     0
  9
$DIMSOXD
 70
     0
  9
$DIMSAH
 70
     0
  9
$DIMBLK1
  1

  9
$DIMBLK2
  1

  9
$DIMSTYLE
  2
ISO-25
  9
$DIMCLRD
 70
     0
  9
$DIMCLRE
 70
     0
  9
$DIMCLRT
 70
     0
  9
$DIMTFAC
 40
1.0
  9
$DIMGAP
 40
0.625
  9
$DIMJUST
 70
     0
  9
$DIMSD1
 70
     0
  9
$DIMSD2
 70
     0
  9
$DIMTOLJ
 70
     0
  9
$DIMTZIN
 70
     8
  9
$DIMALTZ
 70
     0
  9
$DIMALTTZ
 70
     0
  9
$DIMFIT
 70
     3
  9
$DIMUPT
 70
     0
  9
$DIMUNIT
 70
     2
  9
$DIMDEC
 70
     2
  9
$DIMTDEC
 70
     2
  9
$DIMALTU
 70
     2
  9
$DIMALTTD
 70
     3
  9
$DIMTXSTY
  7
STANDARD
  9
$DIMAUNIT
 70
     0
  9
$LUNITS
 70
     2
  9
$LUPREC
 70
     4
  9
$SKETCHINC
 40
1.0
  9
$FILLETRAD
 40
10.0
  9
$AUNITS
 70
     0
  9
$AUPREC
 70
     0
  9
$MENU
  1
.
  9
$ELEVATION
 40
0.0
  9
$PELEVATION
 40
0.0
  9
$THICKNESS
 40
0.0
  9
$LIMCHECK
 70
     0
  9
$CHAMFERA
 40
0.0
  9
$CHAMFERB
 40
0.0
  9
$CHAMFERC
 40
0.0
  9
$CHAMFERD
 40
0.0
  9
$SKPOLY
 70
     0
  9
$TDCREATE
 40
2459234.707125706
  9
$TDUPDATE
 40
2459234.707125903
  9
$TDINDWG
 40
0.0000000116
  9
$TDUSRTIMER
 40
0.0000000116
  9
$USRTIMER
 70
     1
  9
$ANGBASE
 50
0.0
  9
$ANGDIR
 70
     0
  9
$PDMODE
 70
     0
  9
$PDSIZE
 40
0.0
  9
$PLINEWID
 40
0.0
  9
$COORDS
 70
     1
  9
$SPLFRAME
 70
     0
  9
$SPLINETYPE
 70
     6
  9
$SPLINESEGS
 70
     8
  9
$ATTDIA
 70
     0
  9
$ATTREQ
 70
     1
  9
$HANDLING
 70
     1
  9
$HANDSEED
  5
20E
  9
$SURFTAB1
 70
     6
  9
$SURFTAB2
 70
     6
  9
$SURFTYPE
 70
     6
  9
$SURFU
 70
     6
  9
$SURFV
 70
     6
  9
$UCSNAME
  2

  9
$UCSORG
 10
0.0
 20
0.0
 30
0.0
  9
$UCSXDIR
 10
1.0
 20
0.0
 30
0.0
  9
$UCSYDIR
 10
0.0
 20
1.0
 30
0.0
  9
$PUCSNAME
  2

  9
$PUCSORG
 10
0.0
 20
0.0
 30
0.0
  9
$PUCSXDIR
 10
1.0
 20
0.0
 30
0.0
  9
$PUCSYDIR
 10
0.0
 20
1.0
 30
0.0
  9
$USERI1
 70
     0
  9
$USERI2
 70
     0
  9
$USERI3
 70
     0
  9
$USERI4
 70
     0
  9
$USERI5
 70
     0
  9
$USERR1
 40
0.0
  9
$USERR2
 40
0.0
  9
$USERR3
 40
0.0
  9
$USERR4
 40
0.0
  9
$USERR5
 40
0.0
  9
$WORLDVIEW
 70
     1
  9
$SHADEDGE
 70
     3
  9
$SHADEDIF
 70
    70
  9
$TILEMODE
 70
     1
  9
$MAXACTVP
 70
    64
  9
$PINSBASE
 10
0.0
 20
0.0
 30
0.0
  9
$PLIMCHECK
 70
     0
  9
$PEXTMIN
 10
1.000000000000000E+20
 20
1.000000000000000E+20
 30
1.000000000000000E+20
  9
$PEXTMAX
 10
-1.000000000000000E+20
 20
-1.000000000000000E+20
 30
-1.000000000000000E+20
  9
$PLIMMIN
 10
0.0
 20
0.0
  9
$PLIMMAX
 10
420.0
 20
297.0
  9
$UNITMODE
 70
     0
  9
$VISRETAIN
 70
     1
  9
$PLINEGEN
 70
     0
  9
$PSLTSCALE
 70
     1
  9
$TREEDEPTH
 70
  3020
  9
$PICKSTYLE
 70
     1
  9
$CMLSTYLE
  2
STANDARD
  9
$CMLJUST
 70
     0
  9
$CMLSCALE
 40
20.0
  9
$PROXYGRAPHICS
 70
     1
  9
$MEASUREMENT
 70
     1
  0
ENDSEC
  0
SECTION
  2
CLASSES
  0
CLASS
  1
ACDBDICTIONARYWDFLT
  2
AcDbDictionaryWithDefault
  3
ObjectDBX Classes
 90
        0
280
     0
281
     0
  0
CLASS
  1
VISUALSTYLE
  2
AcDbVisualStyle
  3
ObjectDBX Classes
 90
     4095
280
     0
281
     0
  0
CLASS
  1
MATERIAL
  2
AcDbMaterial
  3
ObjectDBX Classes
 90
     1153
280
     0
281
     0
  0
CLASS
  1
SCALE
  2
AcDbScale
  3
ObjectDBX Classes
 90
     1153
280
     0
281
     0
  0
CLASS
  1
TABLESTYLE
  2
AcDbTableStyle
  3
ObjectDBX Classes
 90
     4095
280
     0
281
     0
  0
CLASS
  1
MLEADERSTYLE
  2
AcDbMLeaderStyle
  3
ACDB_MLEADERSTYLE_CLASS
 90
     4095
280
     0
281
     0
  0
CLASS
  1
SUN
  2
AcDbSun
  3
SCENEOE
 90
     1153
280
     0
281
     0
  0
CLASS
  1
DICTIONARYVAR
  2
AcDbDictionaryVar
  3
ObjectDBX Classes
 90
        0
280
     0
281
     0
  0
CLASS
  1
XRECORD
  2
AcDbXrecord
  3
ObjectDBX Classes
 90
        0
280
     0
281
     0
  0
CLASS
  1
LWPOLYLINE
  2
AcDbPolyline
  3
ObjectDBX Classes
 90
        0
280
     0
281
     1
  0
CLASS
  1
HATCH
  2
AcDbHatch
  3
ObjectDBX Classes
 90
        0
280
     0
281
     1
  0
CLASS
  1
ACDBPLACEHOLDER
  2
AcDbPlaceHolder
  3
ObjectDBX Classes
 90
        0
280
     0
281
     0
  0
CLASS
  1
LAYOUT
  2
AcDbLayout
  3
ObjectDBX Classes
 90
        0
280
     0
281
     0
  0
ENDSEC
  0
SECTION
  2
TABLES
  0
TABLE
  2
VPORT
  5
8
102
{ACAD_XDICTIONARY
360
203
102
}
330
0
100
AcDbSymbolTable
 70
     1
  0
VPORT
  5
29
330
8
100
AcDbSymbolTableRecord
100
AcDbViewportTableRecord
  2
*ACTIVE
 70
     0
 10
0.0
 20
0.0
 11
1.0
 21
1.0
 12
390.0000000000001
 22
290.0
 13
0.0
 23
0.0
 14
10.0
 24
10.0
 15
10.0
 25
10.0
 16
0.0
 26
0.0
 36
1.0
 17
0.0
 27
0.0
 37
0.0
 40
540.0
 41
1.407407407407408
 42
50.0
 43
0.0
 44
0.0
 50
0.0
 51
0.0
 71
     0
 72
  1000
 73
     1
 74
     3
 75
     0
 76
     0
 77
     0
 78
     0
  0
ENDTAB
  0
TABLE
  2
LTYPE
  5
5
330
0
100
AcDbSymbolTable
 70
     6
  0
LTYPE
  5
14
330
5
100
AcDbSymbolTableRecord
100
AcDbLinetypeTableRecord
  2
BYBLOCK
 70
     0
  3

 72
    65
 73
     0
 40
0.0
  0
LTYPE
  5
15
330
5
100
AcDbSymbolTableRecord
100
AcDbLinetypeTableRecord
  2
BYLAYER
 70
     0
  3

 72
    65
 73
     0
 40
0.0
  0
LTYPE
  5
16
330
5
100
AcDbSymbolTableRecord
100
AcDbLinetypeTableRecord
  2
CONTINUOUS
 70
     0
  3
Solid line
 72
    65
 73
     0
 40
0.0
  0
LTYPE
  5
6E
330
5
100
AcDbSymbolTableRecord
100
AcDbLinetypeTableRecord
  2
HIDDEN
 70
     0
  3
Hidden __ __ __ __ __ __ __ __ __ __ __ __ __ __
 72
    65
 73
     2
 40
9.524999999999999
 49
6.35
 74
     0
 49
-3.175
 74
     0
  0
LTYPE
  5
6F
330
5
100
AcDbSymbolTableRecord
100
AcDbLinetypeTableRecord
  2
CENTER
 70
     0
  3
Center ____ _ ____ _ ____ _ ____ _ ____ _ ____
 72
    65
 73
     4
 40
50.8
 49
31.75
 74
     0
 49
-6.35
 74
     0
 49
6.35
 74
     0
 49
-6.35
 74
     0
  0
LTYPE
  5
70
330
5
100
AcDbSymbolTableRecord
100
AcDbLinetypeTableRecord
  2
PHANTOM
 70
     0
  3
Phantom ______  __  __  ______  __  __  ______ 
 72
    65
 73
     6
 40
63.50000000000001
 49
31.75
 74
     0
 49
-6.35
 74
     0
 49
6.35
 74
     0
 49
-6.35
 74
     0
 49
6.35
 74
     0
 49
-6.35
 74
     0
  0
LTYPE
  5
71
330
5
100
AcDbSymbolTableRecord
100
AcDbLinetypeTableRecord
  2
ACAD_ISO06W100
 70
     0
  3
ISO long-dash triple-dot ____ ... ____ ... ____
 72
    65
 73
     8
 40
36.0
 49
24.0
 74
     0
 49
-3.0
 74
     0
 49
0.0
 74
     0
 49
-3.0
 74
     0
 49
0.0
 74
     0
 49
-3.0
 74
     0
 49
0.0
 74
     0
 49
-3.0
 74
     0
  0
LTYPE
  5
72
330
5
100
AcDbSymbolTableRecord
100
AcDbLinetypeTableRecord
  2
ACAD_ISO15W100
 70
     0
  3
ISO double-dash triple-dot __ __ . . . __ __ . .
 72
    65
 73
    10
 40
39.0
 49
12.0
 74
     0
 49
-3.0
 74
     0
 49
12.0
 74
     0
 49
-3.0
 74
     0
 49
0.0
 74
     0
 49
-3.0
 74
     0
 49
0.0
 74
     0
 49
-3.0
 74
     0
 49
0.0
 74
     0
 49
-3.0
 74
     0
  0
ENDTAB
  0
TABLE
  2
LAYER
  5
2
330
0
100
AcDbSymbolTable
 70
     5
  0
LAYER
  5
10
330
2
100
AcDbSymbolTableRecord
100
AcDbLayerTableRecord
  2
0
 70
     0
 62
     7
  6
CONTINUOUS
  0
LAYER
  5
75
330
2
100
AcDbSymbolTableRecord
100
AcDbLayerTableRecord
  2
LAY-10
 70
     0
 62
     7
  6
CONTINUOUS
  0
LAYER
  5
76
330
2
100
AcDbSymbolTableRecord
100
AcDbLayerTableRecord
  2
LAY-20
 70
     0
 62
     7
  6
CONTINUOUS
  0
LAYER
  5
77
330
2
100
AcDbSymbolTableRecord
100
AcDbLayerTableRecord
  2
LAY-255
 70
     0
 62
     7
  6
CONTINUOUS
  0
LAYER
  5
11F
330
2
100
AcDbSymbolTableRecord
100
AcDbLayerTableRecord
  2
DEFPOINTS
 70
     0
 62
     7
  6
CONTINUOUS
  0
ENDTAB
  0
TABLE
  2
STYLE
  5
3
330
0
100
AcDbSymbolTable
 70
     4
  0
STYLE
  5
11
330
3
100
AcDbSymbolTableRecord
100
AcDbTextStyleTableRecord
  2
STANDARD
 70
     0
 40
0.0
 41
1.0
 50
0.0
 71
     0
 42
2.5
  3
simplex
  4
bigfont
  0
STYLE
  5
73
330
3
100
AcDbSymbolTableRecord
100
AcDbTextStyleTableRecord
  2
EXCADSTD
 70
     0
 40
0.0
 41
1.0
 50
0.0
 71
     0
 42
2.5
  3
simplex
  4
bigfont
  0
STYLE
  5
74
330
3
100
AcDbSymbolTableRecord
100
AcDbTextStyleTableRecord
  2
EXCADVERT
 70
     4
 40
0.0
 41
1.0
 50
0.0
 71
     0
 42
2.5
  3
simplex
  4
bigfont
  0
STYLE
  5
11D
330
3
100
AcDbSymbolTableRecord
100
AcDbTextStyleTableRecord
  2
EXCADDIM1
 70
     0
 40
0.0
 41
0.84
 50
0.0
 71
     0
 42
2.5
  3
simplex
  4
bigfont
  0
ENDTAB
  0
TABLE
  2
VIEW
  5
6
330
0
100
AcDbSymbolTable
 70
     0
  0
ENDTAB
  0
TABLE
  2
UCS
  5
7
330
0
100
AcDbSymbolTable
 70
     0
  0
ENDTAB
  0
TABLE
  2
APPID
  5
9
330
0
100
AcDbSymbolTable
 70
     2
  0
APPID
  5
12
330
9
100
AcDbSymbolTableRecord
100
AcDbRegAppTableRecord
  2
ACAD
 70
     0
  0
APPID
  5
20D
330
9
100
AcDbSymbolTableRecord
100
AcDbRegAppTableRecord
  2
ACAD_MLEADERVER
 70
     0
  0
ENDTAB
  0
TABLE
  2
DIMSTYLE
  5
A
330
0
100
AcDbSymbolTable
 70
     1
  0
DIMSTYLE
105
27
102
{ACAD_REACTORS
330
11E
330
12C
330
139
330
146
330
153
330
160
330
16D
330
17A
330
189
330
197
330
1A4
102
}
330
A
100
AcDbSymbolTableRecord
100
AcDbDimStyleTableRecord
  2
ISO-25
 70
     0
  3

  4

  5

  6

  7

 40
1.0
 41
2.5
 42
0.625
 43
3.75
 44
1.25
 45
0.0
 46
0.0
 47
0.0
 48
0.0
140
2.5
141
2.5
142
0.0
143
0.03937007874016
144
1.0
145
0.0
146
1.0
147
0.625
 71
     0
 72
     0
 73
     0
 74
     0
 75
     0
 76
     0
 77
     1
 78
     8
170
     0
171
     3
172
     1
173
     0
174
     0
175
     0
176
     0
177
     0
178
     0
270
     2
271
     2
272
     2
273
     2
274
     3
340
11
275
     0
280
     0
281
     0
282
     0
283
     0
284
     8
285
     0
286
     0
287
     5
288
     0
  0
ENDTAB
  0
TABLE
  2
BLOCK_RECORD
  5
1
330
0
100
AcDbSymbolTable
 70
    25
  0
BLOCK_RECORD
  5
1F
330
1
100
AcDbSymbolTableRecord
100
AcDbBlockTableRecord
  2
*MODEL_SPACE
  0
BLOCK_RECORD
  5
1B
330
1
100
AcDbSymbolTableRecord
100
AcDbBlockTableRecord
  2
*PAPER_SPACE
  0
BLOCK_RECORD
  5
78
330
1
100
AcDbSymbolTableRecord
100
AcDbBlockTableRecord
  2
EX_NORM
  0
BLOCK_RECORD
  5
7B
330
1
100
AcDbSymbolTableRecord
100
AcDbBlockTableRecord
  2
EX_BNORM
  0
BLOCK_RECORD
  5
7E
330
1
100
AcDbSymbolTableRecord
100
AcDbBlockTableRecord
  2
EX_BCIR
  0
BLOCK_RECORD
  5
81
330
1
100
AcDbSymbolTableRecord
100
AcDbBlockTableRecord
  2
EX_RCIVIL
  0
BLOCK_RECORD
  5
84
330
1
100
AcDbSymbolTableRecord
100
AcDbBlockTableRecord
  2
EX_SLANT
  0
BLOCK_RECORD
  5
87
330
1
100
AcDbSymbolTableRecord
100
AcDbBlockTableRecord
  2
EX_NONE
  0
BLOCK_RECORD
  5
8A
330
1
100
AcDbSymbolTableRecord
100
AcDbBlockTableRecord
  2
EX_CIVIL
  0
BLOCK_RECORD
  5
8D
330
1
100
AcDbSymbolTableRecord
100
AcDbBlockTableRecord
  2
EX_WCIR
  0
BLOCK_RECORD
  5
90
330
1
100
AcDbSymbolTableRecord
100
AcDbBlockTableRecord
  2
EX_WCIR2
  0
BLOCK_RECORD
  5
93
330
1
100
AcDbSymbolTableRecord
100
AcDbBlockTableRecord
  2
EX_WNORM
  0
BLOCK_RECORD
  5
96
330
1
100
AcDbSymbolTableRecord
100
AcDbBlockTableRecord
  2
EX_NNORM
  0
BLOCK_RECORD
  5
99
330
1
100
AcDbSymbolTableRecord
100
AcDbBlockTableRecord
  2
EX_BBOX
  0
BLOCK_RECORD
  5
9C
330
1
100
AcDbSymbolTableRecord
100
AcDbBlockTableRecord
  2
EX_WBOX
  0
BLOCK_RECORD
  5
9F
330
1
100
AcDbSymbolTableRecord
100
AcDbBlockTableRecord
  2
EX_INTEGRAL
  0
BLOCK_RECORD
  5
120
330
1
100
AcDbSymbolTableRecord
100
AcDbBlockTableRecord
  2
*D15
  0
BLOCK_RECORD
  5
12D
330
1
100
AcDbSymbolTableRecord
100
AcDbBlockTableRecord
  2
*D16
  0
BLOCK_RECORD
  5
13A
330
1
100
AcDbSymbolTableRecord
100
AcDbBlockTableRecord
  2
*D17
  0
BLOCK_RECORD
  5
147
330
1
100
AcDbSymbolTableRecord
100
AcDbBlockTableRecord
  2
*D18
  0
BLOCK_RECORD
  5
154
330
1
100
AcDbSymbolTableRecord
100
AcDbBlockTableRecord
  2
*D19
  0
BLOCK_RECORD
  5
161
330
1
100
AcDbSymbolTableRecord
100
AcDbBlockTableRecord
  2
*D20
  0
BLOCK_RECORD
  5
16E
330
1
100
AcDbSymbolTableRecord
100
AcDbBlockTableRecord
  2
*D21
  0
BLOCK_RECORD
  5
17B
330
1
100
AcDbSymbolTableRecord
100
AcDbBlockTableRecord
  2
*D22
  0
BLOCK_RECORD
  5
18A
330
1
100
AcDbSymbolTableRecord
100
AcDbBlockTableRecord
  2
*D23
  0
BLOCK_RECORD
  5
198
330
1
100
AcDbSymbolTableRecord
100
AcDbBlockTableRecord
  2
*D24
  0
BLOCK_RECORD
  5
1A5
330
1
100
AcDbSymbolTableRecord
100
AcDbBlockTableRecord
  2
*D25
  0
ENDTAB
  0
ENDSEC
  0
SECTION
  2
BLOCKS
  0
BLOCK
  5
20
330
1F
100
AcDbEntity
  8
0
100
AcDbBlockBegin
  2
*MODEL_SPACE
 70
     0
 10
0.0
 20
0.0
 30
0.0
  3
*MODEL_SPACE
  1

  0
ENDBLK
  5
21
330
1F
100
AcDbEntity
  8
0
100
AcDbBlockEnd
  0
BLOCK
  5
1C
330
1B
100
AcDbEntity
 67
     1
  8
0
100
AcDbBlockBegin
  2
*PAPER_SPACE
 70
     0
 10
0.0
 20
0.0
 30
0.0
  3
*PAPER_SPACE
  1

  0
ENDBLK
  5
1D
330
1B
100
AcDbEntity
 67
     1
  8
0
100
AcDbBlockEnd
  0
BLOCK
  5
79
330
78
100
AcDbEntity
  8
0
100
AcDbBlockBegin
  2
EX_NORM
 70
     0
 10
0.0
 20
0.0
 30
0.0
  3
EX_NORM
  1

  0
LINE
  5
A2
330
78
100
AcDbEntity
  8
0
  6
CONTINUOUS
 62
     0
100
AcDbLine
 10
0.0
 20
0.0
 30
0.0
 11
-1.0
 21
0.0
 31
0.0
  0
LINE
  5
A3
330
78
100
AcDbEntity
  8
0
  6
CONTINUOUS
 62
     0
100
AcDbLine
 10
0.0
 20
0.0
 30
0.0
 11
-1.0
 21
0.166666667
 31
0.0
  0
LINE
  5
A4
330
78
100
AcDbEntity
  8
0
  6
CONTINUOUS
 62
     0
100
AcDbLine
 10
0.0
 20
0.0
 30
0.0
 11
-1.0
 21
-0.166666667
 31
0.0
  0
ENDBLK
  5
7A
330
78
100
AcDbEntity
  8
0
100
AcDbBlockEnd
  0
BLOCK
  5
7C
330
7B
100
AcDbEntity
  8
0
100
AcDbBlockBegin
  2
EX_BNORM
 70
     0
 10
0.0
 20
0.0
 30
0.0
  3
EX_BNORM
  1

  0
LINE
  5
A5
330
7B
100
AcDbEntity
  8
0
  6
CONTINUOUS
 62
     0
100
AcDbLine
 10
0.0
 20
0.0
 30
0.0
 11
-1.0
 21
0.0
 31
0.0
  0
LINE
  5
A6
330
7B
100
AcDbEntity
  8
0
  6
CONTINUOUS
 62
     0
100
AcDbLine
 10
0.0
 20
0.0
 30
0.0
 11
-1.0
 21
0.166666667
 31
0.0
  0
LINE
  5
A7
330
7B
100
AcDbEntity
  8
0
  6
CONTINUOUS
 62
     0
100
AcDbLine
 10
0.0
 20
0.0
 30
0.0
 11
-1.0
 21
-0.166666667
 31
0.0
  0
LINE
  5
A8
330
7B
100
AcDbEntity
  8
0
  6
CONTINUOUS
 62
     0
100
AcDbLine
 10
0.0
 20
0.0
 30
0.0
 11
-1.0
 21
0.083333333
 31
0.0
  0
LINE
  5
A9
330
7B
100
AcDbEntity
  8
0
  6
CONTINUOUS
 62
     0
100
AcDbLine
 10
0.0
 20
0.0
 30
0.0
 11
-1.0
 21
-0.083333333
 31
0.0
  0
LINE
  5
AA
330
7B
100
AcDbEntity
  8
0
  6
CONTINUOUS
 62
     0
100
AcDbLine
 10
-1.0
 20
0.166666667
 30
0.0
 11
-1.0
 21
-0.166666667
 31
0.0
  0
ENDBLK
  5
7D
330
7B
100
AcDbEntity
  8
0
100
AcDbBlockEnd
  0
BLOCK
  5
7F
330
7E
100
AcDbEntity
  8
0
100
AcDbBlockBegin
  2
EX_BCIR
 70
     0
 10
0.0
 20
0.0
 30
0.0
  3
EX_BCIR
  1

  0
LINE
  5
AB
330
7E
100
AcDbEntity
  8
0
  6
CONTINUOUS
 62
     0
100
AcDbLine
 10
0.0
 20
0.0
 30
0.0
 11
-1.0
 21
0.0
 31
0.0
  0
CIRCLE
  5
AC
330
7E
100
AcDbEntity
  8
0
  6
CONTINUOUS
 62
     0
100
AcDbCircle
 10
0.0
 20
0.0
 30
0.0
 40
0.5
  0
CIRCLE
  5
AD
330
7E
100
AcDbEntity
  8
0
  6
CONTINUOUS
 62
     0
100
AcDbCircle
 10
0.0
 20
0.0
 30
0.0
 40
0.25
  0
ENDBLK
  5
80
330
7E
100
AcDbEntity
  8
0
100
AcDbBlockEnd
  0
BLOCK
  5
82
330
81
100
AcDbEntity
  8
0
100
AcDbBlockBegin
  2
EX_RCIVIL
 70
     0
 10
0.0
 20
0.0
 30
0.0
  3
EX_RCIVIL
  1

  0
LINE
  5
AE
330
81
100
AcDbEntity
  8
0
  6
CONTINUOUS
 62
     0
100
AcDbLine
 10
0.0
 20
0.0
 30
0.0
 11
-1.0
 21
0.0
 31
0.0
  0
LINE
  5
AF
330
81
100
AcDbEntity
  8
0
  6
CONTINUOUS
 62
     0
100
AcDbLine
 10
-1.0
 20
-0.25
 30
0.0
 11
0.0
 21
-0.25
 31
0.0
  0
LINE
  5
B0
330
81
100
AcDbEntity
  8
0
  6
CONTINUOUS
 62
     0
100
AcDbLine
 10
-1.0
 20
-0.125
 30
0.0
 11
0.0
 21
-0.125
 31
0.0
  0
ENDBLK
  5
83
330
81
100
AcDbEntity
  8
0
100
AcDbBlockEnd
  0
BLOCK
  5
85
330
84
100
AcDbEntity
  8
0
100
AcDbBlockBegin
  2
EX_SLANT
 70
     0
 10
0.0
 20
0.0
 30
0.0
  3
EX_SLANT
  1

  0
LINE
  5
B1
330
84
100
AcDbEntity
  8
0
  6
CONTINUOUS
 62
     0
100
AcDbLine
 10
0.0
 20
0.0
 30
0.0
 11
-1.0
 21
0.0
 31
0.0
  0
LINE
  5
B2
330
84
100
AcDbEntity
  8
0
  6
CONTINUOUS
 62
     0
100
AcDbLine
 10
0.707106781
 20
0.707106781
 30
0.0
 11
-0.707106781
 21
-0.707106781
 31
0.0
  0
ENDBLK
  5
86
330
84
100
AcDbEntity
  8
0
100
AcDbBlockEnd
  0
BLOCK
  5
88
330
87
100
AcDbEntity
  8
0
100
AcDbBlockBegin
  2
EX_NONE
 70
     0
 10
0.0
 20
0.0
 30
0.0
  3
EX_NONE
  1

  0
LINE
  5
B3
330
87
100
AcDbEntity
  8
0
  6
CONTINUOUS
 62
     0
100
AcDbLine
 10
0.0
 20
0.0
 30
0.0
 11
-1.0
 21
0.0
 31
0.0
  0
ENDBLK
  5
89
330
87
100
AcDbEntity
  8
0
100
AcDbBlockEnd
  0
BLOCK
  5
8B
330
8A
100
AcDbEntity
  8
0
100
AcDbBlockBegin
  2
EX_CIVIL
 70
     0
 10
0.0
 20
0.0
 30
0.0
  3
EX_CIVIL
  1

  0
LINE
  5
B4
330
8A
100
AcDbEntity
  8
0
  6
CONTINUOUS
 62
     0
100
AcDbLine
 10
0.0
 20
0.0
 30
0.0
 11
-1.0
 21
0.0
 31
0.0
  0
LINE
  5
B5
330
8A
100
AcDbEntity
  8
0
  6
CONTINUOUS
 62
     0
100
AcDbLine
 10
-1.0
 20
0.25
 30
0.0
 11
0.0
 21
0.25
 31
0.0
  0
LINE
  5
B6
330
8A
100
AcDbEntity
  8
0
  6
CONTINUOUS
 62
     0
100
AcDbLine
 10
-1.0
 20
0.125
 30
0.0
 11
0.0
 21
0.125
 31
0.0
  0
ENDBLK
  5
8C
330
8A
100
AcDbEntity
  8
0
100
AcDbBlockEnd
  0
BLOCK
  5
8E
330
8D
100
AcDbEntity
  8
0
100
AcDbBlockBegin
  2
EX_WCIR
 70
     0
 10
0.0
 20
0.0
 30
0.0
  3
EX_WCIR
  1

  0
LINE
  5
B7
330
8D
100
AcDbEntity
  8
0
  6
CONTINUOUS
 62
     0
100
AcDbLine
 10
0.0
 20
0.0
 30
0.0
 11
-1.0
 21
0.0
 31
0.0
  0
CIRCLE
  5
B8
330
8D
100
AcDbEntity
  8
0
  6
CONTINUOUS
 62
     0
100
AcDbCircle
 10
0.0
 20
0.0
 30
0.0
 40
0.5
  0
ENDBLK
  5
8F
330
8D
100
AcDbEntity
  8
0
100
AcDbBlockEnd
  0
BLOCK
  5
91
330
90
100
AcDbEntity
  8
0
100
AcDbBlockBegin
  2
EX_WCIR2
 70
     0
 10
0.0
 20
0.0
 30
0.0
  3
EX_WCIR2
  1

  0
LINE
  5
B9
330
90
100
AcDbEntity
  8
0
  6
CONTINUOUS
 62
     0
100
AcDbLine
 10
-0.5
 20
0.0
 30
0.0
 11
-1.0
 21
0.0
 31
0.0
  0
CIRCLE
  5
BA
330
90
100
AcDbEntity
  8
0
  6
CONTINUOUS
 62
     0
100
AcDbCircle
 10
0.0
 20
0.0
 30
0.0
 40
0.5
  0
ENDBLK
  5
92
330
90
100
AcDbEntity
  8
0
100
AcDbBlockEnd
  0
BLOCK
  5
94
330
93
100
AcDbEntity
  8
0
100
AcDbBlockBegin
  2
EX_WNORM
 70
     0
 10
0.0
 20
0.0
 30
0.0
  3
EX_WNORM
  1

  0
LINE
  5
BB
330
93
100
AcDbEntity
  8
0
  6
CONTINUOUS
 62
     0
100
AcDbLine
 10
-1.0
 20
0.0
 30
0.0
 11
-1.0
 21
0.0
 31
0.0
  0
LINE
  5
BC
330
93
100
AcDbEntity
  8
0
  6
CONTINUOUS
 62
     0
100
AcDbLine
 10
0.0
 20
0.0
 30
0.0
 11
-1.0
 21
0.166666667
 31
0.0
  0
LINE
  5
BD
330
93
100
AcDbEntity
  8
0
  6
CONTINUOUS
 62
     0
100
AcDbLine
 10
0.0
 20
0.0
 30
0.0
 11
-1.0
 21
-0.166666667
 31
0.0
  0
LINE
  5
BE
330
93
100
AcDbEntity
  8
0
  6
CONTINUOUS
 62
     0
100
AcDbLine
 10
-1.0
 20
0.166666667
 30
0.0
 11
-1.0
 21
-0.166666667
 31
0.0
  0
ENDBLK
  5
95
330
93
100
AcDbEntity
  8
0
100
AcDbBlockEnd
  0
BLOCK
  5
97
330
96
100
AcDbEntity
  8
0
100
AcDbBlockBegin
  2
EX_NNORM
 70
     0
 10
0.0
 20
0.0
 30
0.0
  3
EX_NNORM
  1

  0
LINE
  5
BF
330
96
100
AcDbEntity
  8
0
  6
CONTINUOUS
 62
     0
100
AcDbLine
 10
0.0
 20
0.0
 30
0.0
 11
-1.0
 21
0.0
 31
0.0
  0
LINE
  5
C0
330
96
100
AcDbEntity
  8
0
  6
CONTINUOUS
 62
     0
100
AcDbLine
 10
0.0
 20
0.0
 30
0.0
 11
-1.0
 21
0.166666667
 31
0.0
  0
LINE
  5
C1
330
96
100
AcDbEntity
  8
0
  6
CONTINUOUS
 62
     0
100
AcDbLine
 10
0.0
 20
0.0
 30
0.0
 11
-1.0
 21
-0.166666667
 31
0.0
  0
LINE
  5
C2
330
96
100
AcDbEntity
  8
0
  6
CONTINUOUS
 62
     0
100
AcDbLine
 10
-1.0
 20
0.166666667
 30
0.0
 11
-1.0
 21
-0.166666667
 31
0.0
  0
ENDBLK
  5
98
330
96
100
AcDbEntity
  8
0
100
AcDbBlockEnd
  0
BLOCK
  5
9A
330
99
100
AcDbEntity
  8
0
100
AcDbBlockBegin
  2
EX_BBOX
 70
     0
 10
0.0
 20
0.0
 30
0.0
  3
EX_BBOX
  1

  0
LINE
  5
C3
330
99
100
AcDbEntity
  8
0
  6
CONTINUOUS
 62
     0
100
AcDbLine
 10
0.0
 20
0.0
 30
0.0
 11
-1.0
 21
0.0
 31
0.0
  0
LINE
  5
C4
330
99
100
AcDbEntity
  8
0
  6
CONTINUOUS
 62
     0
100
AcDbLine
 10
-0.5
 20
0.5
 30
0.0
 11
0.5
 21
0.5
 31
0.0
  0
LINE
  5
C5
330
99
100
AcDbEntity
  8
0
  6
CONTINUOUS
 62
     0
100
AcDbLine
 10
0.5
 20
0.5
 30
0.0
 11
0.5
 21
-0.5
 31
0.0
  0
LINE
  5
C6
330
99
100
AcDbEntity
  8
0
  6
CONTINUOUS
 62
     0
100
AcDbLine
 10
0.5
 20
-0.5
 30
0.0
 11
-0.5
 21
-0.5
 31
0.0
  0
LINE
  5
C7
330
99
100
AcDbEntity
  8
0
  6
CONTINUOUS
 62
     0
100
AcDbLine
 10
-0.5
 20
-0.5
 30
0.0
 11
-0.5
 21
0.5
 31
0.0
  0
LINE
  5
C8
330
99
100
AcDbEntity
  8
0
  6
CONTINUOUS
 62
     0
100
AcDbLine
 10
-0.25
 20
0.25
 30
0.0
 11
0.25
 21
0.25
 31
0.0
  0
LINE
  5
C9
330
99
100
AcDbEntity
  8
0
  6
CONTINUOUS
 62
     0
100
AcDbLine
 10
0.25
 20
0.25
 30
0.0
 11
0.25
 21
-0.25
 31
0.0
  0
LINE
  5
CA
330
99
100
AcDbEntity
  8
0
  6
CONTINUOUS
 62
     0
100
AcDbLine
 10
0.25
 20
-0.25
 30
0.0
 11
-0.25
 21
-0.25
 31
0.0
  0
LINE
  5
CB
330
99
100
AcDbEntity
  8
0
  6
CONTINUOUS
 62
     0
100
AcDbLine
 10
-0.25
 20
-0.25
 30
0.0
 11
-0.25
 21
0.25
 31
0.0
  0
ENDBLK
  5
9B
330
99
100
AcDbEntity
  8
0
100
AcDbBlockEnd
  0
BLOCK
  5
9D
330
9C
100
AcDbEntity
  8
0
100
AcDbBlockBegin
  2
EX_WBOX
 70
     0
 10
0.0
 20
0.0
 30
0.0
  3
EX_WBOX
  1

  0
LINE
  5
CC
330
9C
100
AcDbEntity
  8
0
  6
CONTINUOUS
 62
     0
100
AcDbLine
 10
-0.5
 20
0.0
 30
0.0
 11
-1.0
 21
0.0
 31
0.0
  0
LINE
  5
CD
330
9C
100
AcDbEntity
  8
0
  6
CONTINUOUS
 62
     0
100
AcDbLine
 10
-0.5
 20
0.5
 30
0.0
 11
0.5
 21
0.5
 31
0.0
  0
LINE
  5
CE
330
9C
100
AcDbEntity
  8
0
  6
CONTINUOUS
 62
     0
100
AcDbLine
 10
0.5
 20
0.5
 30
0.0
 11
0.5
 21
-0.5
 31
0.0
  0
LINE
  5
CF
330
9C
100
AcDbEntity
  8
0
  6
CONTINUOUS
 62
     0
100
AcDbLine
 10
0.5
 20
-0.5
 30
0.0
 11
-0.5
 21
-0.5
 31
0.0
  0
LINE
  5
D0
330
9C
100
AcDbEntity
  8
0
  6
CONTINUOUS
 62
     0
100
AcDbLine
 10
-0.5
 20
-0.5
 30
0.0
 11
-0.5
 21
0.5
 31
0.0
  0
ENDBLK
  5
9E
330
9C
100
AcDbEntity
  8
0
100
AcDbBlockEnd
  0
BLOCK
  5
A0
330
9F
100
AcDbEntity
  8
0
100
AcDbBlockBegin
  2
EX_INTEGRAL
 70
     0
 10
0.0
 20
0.0
 30
0.0
  3
EX_INTEGRAL
  1

  0
LINE
  5
D1
330
9F
100
AcDbEntity
  8
0
  6
CONTINUOUS
 62
     0
100
AcDbLine
 10
0.0
 20
0.0
 30
0.0
 11
-1.0
 21
0.0
 31
0.0
  0
ARC
  5
D2
330
9F
100
AcDbEntity
  8
0
  6
CONTINUOUS
 62
     0
100
AcDbCircle
 10
0.542115
 20
0.164992
 30
0.0
 40
0.56667
100
AcDbArc
 50
73.07249033629006
 51
196.9275130221199
  0
ARC
  5
D3
330
9F
100
AcDbEntity
  8
0
  6
CONTINUOUS
 62
     0
100
AcDbCircle
 10
-0.542115
 20
-0.164992
 30
0.0
 40
0.56667
100
AcDbArc
 50
253.0724869220464
 51
16.9275130559125
  0
ENDBLK
  5
A1
330
9F
100
AcDbEntity
  8
0
100
AcDbBlockEnd
  0
BLOCK
  5
121
330
120
100
AcDbEntity
  8
0
100
AcDbBlockBegin
  2
*D15
 70
     1
 10
0.0
 20
0.0
 30
0.0
  3
*D15
  1

  0
LINE
  5
123
330
120
100
AcDbEntity
  8
LAY-20
  6
CONTINUOUS
 62
     4
100
AcDbLine
 10
445.0
 20
398.0
 30
0.0
 11
445.0
 21
437.0
 31
0.0
  0
LINE
  5
124
330
120
100
AcDbEntity
  8
LAY-20
  6
CONTINUOUS
 62
     4
100
AcDbLine
 10
695.0
 20
398.0
 30
0.0
 11
695.0
 21
437.0
 31
0.0
  0
LINE
  5
125
330
120
100
AcDbEntity
  8
LAY-20
  6
CONTINUOUS
 62
     4
100
AcDbLine
 10
450.0
 20
434.0
 30
0.0
 11
690.0
 21
434.0
 31
0.0
  0
INSERT
  5
126
330
120
100
AcDbEntity
  8
LAY-20
 62
     4
100
AcDbBlockReference
  2
EX_BNORM
 10
445.0
 20
434.0
 30
0.0
 41
5.0
 42
5.0
 43
5.0
 50
180.0
  0
INSERT
  5
127
330
120
100
AcDbEntity
  8
LAY-20
 62
     4
100
AcDbBlockReference
  2
EX_BNORM
 10
695.0
 20
434.0
 30
0.0
 41
5.0
 42
5.0
 43
5.0
  0
MTEXT
  5
128
330
120
100
AcDbEntity
  8
LAY-20
 62
     7
100
AcDbMText
 10
570.0
 20
439.0
 30
0.0
 40
6.2362208
 41
0.0
 71
     5
 72
     1
  1
250
  7
EXCADDIM1
  0
POINT
  5
129
330
120
100
AcDbEntity
  8
DEFPOINTS
 62
     0
100
AcDbPoint
 10
445.0
 20
395.0
 30
0.0
  0
POINT
  5
12A
330
120
100
AcDbEntity
  8
DEFPOINTS
 62
     0
100
AcDbPoint
 10
695.0
 20
395.0
 30
0.0
  0
POINT
  5
12B
330
120
100
AcDbEntity
  8
DEFPOINTS
 62
     0
100
AcDbPoint
 10
695.0
 20
434.0
 30
0.0
  0
ENDBLK
  5
122
330
120
100
AcDbEntity
  8
0
100
AcDbBlockEnd
  0
BLOCK
  5
12E
330
12D
100
AcDbEntity
  8
0
100
AcDbBlockBegin
  2
*D16
 70
     1
 10
0.0
 20
0.0
 30
0.0
  3
*D16
  1

  0
LINE
  5
130
330
12D
100
AcDbEntity
  8
LAY-20
  6
CONTINUOUS
 62
     4
100
AcDbLine
 10
520.0
 20
266.08360640632
 30
0.0
 11
520.0
 21
177.0
 31
0.0
  0
LINE
  5
131
330
12D
100
AcDbEntity
  8
LAY-20
  6
CONTINUOUS
 62
     4
100
AcDbLine
 10
620.0
 20
266.08360640632
 30
0.0
 11
620.0
 21
177.0
 31
0.0
  0
LINE
  5
132
330
12D
100
AcDbEntity
  8
LAY-20
  6
CONTINUOUS
 62
     4
100
AcDbLine
 10
525.0
 20
180.0
 30
0.0
 11
615.0
 21
180.0
 31
0.0
  0
INSERT
  5
133
330
12D
100
AcDbEntity
  8
LAY-20
 62
     4
100
AcDbBlockReference
  2
EX_BNORM
 10
520.0
 20
180.0
 30
0.0
 41
5.0
 42
5.0
 43
5.0
 50
180.0
  0
INSERT
  5
134
330
12D
100
AcDbEntity
  8
LAY-20
 62
     4
100
AcDbBlockReference
  2
EX_BNORM
 10
620.0
 20
180.0
 30
0.0
 41
5.0
 42
5.0
 43
5.0
  0
MTEXT
  5
135
330
12D
100
AcDbEntity
  8
LAY-20
 62
     7
100
AcDbMText
 10
570.0
 20
185.0
 30
0.0
 40
6.2362208
 41
0.0
 71
     5
 72
     1
  1
100
  7
EXCADDIM1
  0
POINT
  5
136
330
12D
100
AcDbEntity
  8
DEFPOINTS
 62
     0
100
AcDbPoint
 10
520.0
 20
269.08360640632
 30
0.0
  0
POINT
  5
137
330
12D
100
AcDbEntity
  8
DEFPOINTS
 62
     0
100
AcDbPoint
 10
620.0
 20
269.08360640632
 30
0.0
  0
POINT
  5
138
330
12D
100
AcDbEntity
  8
DEFPOINTS
 62
     0
100
AcDbPoint
 10
620.0
 20
180.0
 30
0.0
  0
ENDBLK
  5
12F
330
12D
100
AcDbEntity
  8
0
100
AcDbBlockEnd
  0
BLOCK
  5
13B
330
13A
100
AcDbEntity
  8
0
100
AcDbBlockBegin
  2
*D17
 70
     1
 10
0.0
 20
0.0
 30
0.0
  3
*D17
  1

  0
LINE
  5
13D
330
13A
100
AcDbEntity
  8
LAY-20
  6
CONTINUOUS
 62
     4
100
AcDbLine
 10
520.0
 20
266.08360640632
 30
0.0
 11
422.0
 21
266.0836064063201
 31
0.0
  0
LINE
  5
13E
330
13A
100
AcDbEntity
  8
LAY-20
  6
CONTINUOUS
 62
     4
100
AcDbLine
 10
520.0
 20
316.27459828348
 30
0.0
 11
422.0
 21
316.2745982834801
 31
0.0
  0
LINE
  5
13F
330
13A
100
AcDbEntity
  8
LAY-20
  6
CONTINUOUS
 62
     4
100
AcDbLine
 10
425.0
 20
271.0836064063201
 30
0.0
 11
425.0
 21
311.2745982834801
 31
0.0
  0
INSERT
  5
140
330
13A
100
AcDbEntity
  8
LAY-20
 62
     4
100
AcDbBlockReference
  2
EX_BNORM
 10
425.0
 20
266.0836064063201
 30
0.0
 41
5.0
 42
5.0
 43
5.0
 50
270.0
  0
INSERT
  5
141
330
13A
100
AcDbEntity
  8
LAY-20
 62
     4
100
AcDbBlockReference
  2
EX_BNORM
 10
425.0
 20
316.2745982834801
 30
0.0
 41
5.0
 42
5.0
 43
5.0
 50
90.0
  0
MTEXT
  5
142
330
13A
100
AcDbEntity
  8
LAY-20
 62
     7
100
AcDbMText
 10
420.0
 20
291.1791023449
 30
0.0
 40
6.2362208
 41
0.0
 71
     5
 72
     1
  1
50
  7
EXCADDIM1
 11
0.0
 21
1.0
 31
0.0
  0
POINT
  5
143
330
13A
100
AcDbEntity
  8
DEFPOINTS
 62
     0
100
AcDbPoint
 10
523.0
 20
266.08360640632
 30
0.0
  0
POINT
  5
144
330
13A
100
AcDbEntity
  8
DEFPOINTS
 62
     0
100
AcDbPoint
 10
523.0
 20
316.27459828348
 30
0.0
  0
POINT
  5
145
330
13A
100
AcDbEntity
  8
DEFPOINTS
 62
     0
100
AcDbPoint
 10
425.0
 20
316.2745982834801
 30
0.0
  0
ENDBLK
  5
13C
330
13A
100
AcDbEntity
  8
0
100
AcDbBlockEnd
  0
BLOCK
  5
148
330
147
100
AcDbEntity
  8
0
100
AcDbBlockBegin
  2
*D18
 70
     1
 10
0.0
 20
0.0
 30
0.0
  3
*D18
  1

  0
LINE
  5
14A
330
147
100
AcDbEntity
  8
LAY-20
  6
CONTINUOUS
 62
     4
100
AcDbLine
 10
693.0
 20
200.0
 30
0.0
 11
732.0000000000001
 21
200.0
 31
0.0
  0
LINE
  5
14B
330
147
100
AcDbEntity
  8
LAY-20
  6
CONTINUOUS
 62
     4
100
AcDbLine
 10
693.0
 20
400.0
 30
0.0
 11
732.0000000000001
 21
400.0
 31
0.0
  0
LINE
  5
14C
330
147
100
AcDbEntity
  8
LAY-20
  6
CONTINUOUS
 62
     4
100
AcDbLine
 10
729.0000000000001
 20
205.0
 30
0.0
 11
729.0000000000001
 21
395.0
 31
0.0
  0
INSERT
  5
14D
330
147
100
AcDbEntity
  8
LAY-20
 62
     4
100
AcDbBlockReference
  2
EX_BNORM
 10
729.0000000000001
 20
200.0
 30
0.0
 41
5.0
 42
5.0
 43
5.0
 50
270.0
  0
INSERT
  5
14E
330
147
100
AcDbEntity
  8
LAY-20
 62
     4
100
AcDbBlockReference
  2
EX_BNORM
 10
729.0000000000001
 20
400.0
 30
0.0
 41
5.0
 42
5.0
 43
5.0
 50
90.0
  0
MTEXT
  5
14F
330
147
100
AcDbEntity
  8
LAY-20
 62
     7
100
AcDbMText
 10
724.0000000000001
 20
300.0
 30
0.0
 40
6.2362208
 41
0.0
 71
     5
 72
     1
  1
200
  7
EXCADDIM1
 11
0.0
 21
1.0
 31
0.0
  0
POINT
  5
150
330
147
100
AcDbEntity
  8
DEFPOINTS
 62
     0
100
AcDbPoint
 10
690.0
 20
200.0
 30
0.0
  0
POINT
  5
151
330
147
100
AcDbEntity
  8
DEFPOINTS
 62
     0
100
AcDbPoint
 10
690.0
 20
400.0
 30
0.0
  0
POINT
  5
152
330
147
100
AcDbEntity
  8
DEFPOINTS
 62
     0
100
AcDbPoint
 10
729.0000000000001
 20
400.0
 30
0.0
  0
ENDBLK
  5
149
330
147
100
AcDbEntity
  8
0
100
AcDbBlockEnd
  0
BLOCK
  5
155
330
154
100
AcDbEntity
  8
0
100
AcDbBlockBegin
  2
*D19
 70
     1
 10
0.0
 20
0.0
 30
0.0
  3
*D19
  1

  0
LINE
  5
157
330
154
100
AcDbEntity
  8
LAY-20
  6
CONTINUOUS
 62
     4
100
AcDbLine
 10
550.0
 20
266.08360640632
 30
0.0
 11
550.0
 21
267.58933616263
 31
0.0
  0
LINE
  5
158
330
154
100
AcDbEntity
  8
LAY-20
  6
CONTINUOUS
 62
     4
100
AcDbLine
 10
550.0
 20
261.08360640632
 30
0.0
 11
550.0
 21
256.08360640632
 31
0.0
  0
LINE
  5
159
330
154
100
AcDbEntity
  8
LAY-20
  6
CONTINUOUS
 62
     4
100
AcDbLine
 10
550.0
 20
272.58933616263
 30
0.0
 11
550.0
 21
277.58933616263
 31
0.0
  0
INSERT
  5
15A
330
154
100
AcDbEntity
  8
LAY-20
 62
     4
100
AcDbBlockReference
  2
EX_BNORM
 10
550.0
 20
266.08360640632
 30
0.0
 41
5.0
 42
5.0
 43
5.0
 50
90.0
  0
INSERT
  5
15B
330
154
100
AcDbEntity
  8
LAY-20
 62
     4
100
AcDbBlockReference
  2
EX_BNORM
 10
550.0
 20
267.58933616263
 30
0.0
 41
5.0
 42
5.0
 43
5.0
 50
270.0
  0
MTEXT
  5
15C
330
154
100
AcDbEntity
  8
LAY-20
 62
     7
100
AcDbMText
 10
545.0
 20
253.0836064063199
 30
0.0
 40
6.2362208
 41
0.0
 71
     5
 72
     1
  1
1.5
  7
EXCADDIM1
 11
0.0
 21
1.0
 31
0.0
  0
POINT
  5
15D
330
154
100
AcDbEntity
  8
DEFPOINTS
 62
     0
100
AcDbPoint
 10
550.0
 20
266.08360640632
 30
0.0
  0
POINT
  5
15E
330
154
100
AcDbEntity
  8
DEFPOINTS
 62
     0
100
AcDbPoint
 10
550.0
 20
267.58933616263
 30
0.0
  0
POINT
  5
15F
330
154
100
AcDbEntity
  8
DEFPOINTS
 62
     0
100
AcDbPoint
 10
550.0
 20
267.58933616263
 30
0.0
  0
ENDBLK
  5
156
330
154
100
AcDbEntity
  8
0
100
AcDbBlockEnd
  0
BLOCK
  5
162
330
161
100
AcDbEntity
  8
0
100
AcDbBlockBegin
  2
*D20
 70
     1
 10
0.0
 20
0.0
 30
0.0
  3
*D20
  1

  0
LINE
  5
164
330
161
100
AcDbEntity
  8
LAY-20
  6
CONTINUOUS
 62
     4
100
AcDbLine
 10
57.0
 20
348.30537721304
 30
0.0
 11
57.0
 21
423.0
 31
0.0
  0
LINE
  5
165
330
161
100
AcDbEntity
  8
LAY-20
  6
CONTINUOUS
 62
     4
100
AcDbLine
 10
287.0
 20
402.99999999988
 30
0.0
 11
287.0
 21
423.0
 31
0.0
  0
LINE
  5
166
330
161
100
AcDbEntity
  8
LAY-20
  6
CONTINUOUS
 62
     4
100
AcDbLine
 10
62.0
 20
420.0
 30
0.0
 11
282.0
 21
420.0
 31
0.0
  0
INSERT
  5
167
330
161
100
AcDbEntity
  8
LAY-20
 62
     4
100
AcDbBlockReference
  2
EX_BNORM
 10
57.0
 20
420.0
 30
0.0
 41
5.0
 42
5.0
 43
5.0
 50
180.0
  0
INSERT
  5
168
330
161
100
AcDbEntity
  8
LAY-20
 62
     4
100
AcDbBlockReference
  2
EX_BNORM
 10
287.0
 20
420.0
 30
0.0
 41
5.0
 42
5.0
 43
5.0
  0
MTEXT
  5
169
330
161
100
AcDbEntity
  8
LAY-20
 62
     7
100
AcDbMText
 10
172.0
 20
425.0
 30
0.0
 40
6.2362208
 41
0.0
 71
     5
 72
     1
  1
Ｌ1＝230※
  7
EXCADDIM1
  0
POINT
  5
16A
330
161
100
AcDbEntity
  8
DEFPOINTS
 62
     0
100
AcDbPoint
 10
57.0
 20
345.30537721304
 30
0.0
  0
POINT
  5
16B
330
161
100
AcDbEntity
  8
DEFPOINTS
 62
     0
100
AcDbPoint
 10
287.0
 20
399.99999999988
 30
0.0
  0
POINT
  5
16C
330
161
100
AcDbEntity
  8
DEFPOINTS
 62
     0
100
AcDbPoint
 10
287.0
 20
420.0
 30
0.0
  0
ENDBLK
  5
163
330
161
100
AcDbEntity
  8
0
100
AcDbBlockEnd
  0
BLOCK
  5
16F
330
16E
100
AcDbEntity
  8
0
100
AcDbBlockBegin
  2
*D21
 70
     1
 10
0.0
 20
0.0
 30
0.0
  3
*D21
  1

  0
LINE
  5
171
330
16E
100
AcDbEntity
  8
LAY-20
  6
CONTINUOUS
 62
     4
100
AcDbLine
 10
290.0
 20
402.99999999988
 30
0.0
 11
290.0
 21
423.0
 31
0.0
  0
LINE
  5
172
330
16E
100
AcDbEntity
  8
LAY-20
  6
CONTINUOUS
 62
     4
100
AcDbLine
 10
390.0
 20
319.27459828348
 30
0.0
 11
390.0
 21
423.0
 31
0.0
  0
LINE
  5
173
330
16E
100
AcDbEntity
  8
LAY-20
  6
CONTINUOUS
 62
     4
100
AcDbLine
 10
295.0
 20
420.0
 30
0.0
 11
385.0
 21
420.0
 31
0.0
  0
INSERT
  5
174
330
16E
100
AcDbEntity
  8
LAY-20
 62
     4
100
AcDbBlockReference
  2
EX_BNORM
 10
290.0
 20
420.0
 30
0.0
 41
5.0
 42
5.0
 43
5.0
 50
180.0
  0
INSERT
  5
175
330
16E
100
AcDbEntity
  8
LAY-20
 62
     4
100
AcDbBlockReference
  2
EX_BNORM
 10
390.0
 20
420.0
 30
0.0
 41
5.0
 42
5.0
 43
5.0
  0
MTEXT
  5
176
330
16E
100
AcDbEntity
  8
LAY-20
 62
     7
100
AcDbMText
 10
340.0
 20
425.0
 30
0.0
 40
6.2362208
 41
0.0
 71
     5
 72
     1
  1
Ｌ2＝100※
  7
EXCADDIM1
  0
POINT
  5
177
330
16E
100
AcDbEntity
  8
DEFPOINTS
 62
     0
100
AcDbPoint
 10
290.0
 20
399.99999999988
 30
0.0
  0
POINT
  5
178
330
16E
100
AcDbEntity
  8
DEFPOINTS
 62
     0
100
AcDbPoint
 10
390.0
 20
316.27459828348
 30
0.0
  0
POINT
  5
179
330
16E
100
AcDbEntity
  8
DEFPOINTS
 62
     0
100
AcDbPoint
 10
390.0
 20
420.0
 30
0.0
  0
ENDBLK
  5
170
330
16E
100
AcDbEntity
  8
0
100
AcDbBlockEnd
  0
BLOCK
  5
17C
330
17B
100
AcDbEntity
  8
0
100
AcDbBlockBegin
  2
*D22
 70
     1
 10
0.0
 20
0.0
 30
0.0
  3
*D22
  1

  0
LINE
  5
17E
330
17B
100
AcDbEntity
  8
LAY-20
  6
CONTINUOUS
 62
     4
100
AcDbLine
 10
290.0
 20
420.0
 30
0.0
 11
287.0
 21
420.0
 31
0.0
  0
LINE
  5
17F
330
17B
100
AcDbEntity
  8
LAY-20
  6
CONTINUOUS
 62
     4
100
AcDbLine
 10
295.0
 20
420.0
 30
0.0
 11
300.0
 21
420.0
 31
0.0
  0
LINE
  5
180
330
17B
100
AcDbEntity
  8
LAY-20
  6
CONTINUOUS
 62
     4
100
AcDbLine
 10
282.0
 20
420.0
 30
0.0
 11
277.0
 21
420.0
 31
0.0
  0
INSERT
  5
181
330
17B
100
AcDbEntity
  8
LAY-20
 62
     4
100
AcDbBlockReference
  2
EX_BNORM
 10
290.0
 20
420.0
 30
0.0
 41
5.0
 42
5.0
 43
5.0
 50
180.0
  0
INSERT
  5
182
330
17B
100
AcDbEntity
  8
LAY-20
 62
     4
100
AcDbBlockReference
  2
EX_BNORM
 10
287.0
 20
420.0
 30
0.0
 41
5.0
 42
5.0
 43
5.0
  0
MTEXT
  5
183
330
17B
100
AcDbEntity
  8
LAY-20
 62
     7
100
AcDbMText
 10
288.5
 20
425.0
 30
0.0
 40
6.2362208
 41
0.0
 71
     5
 72
     1
  1
3
  7
EXCADDIM1
  0
POINT
  5
184
330
17B
100
AcDbEntity
  8
DEFPOINTS
 62
     0
100
AcDbPoint
 10
290.0
 20
420.0
 30
0.0
  0
POINT
  5
185
330
17B
100
AcDbEntity
  8
DEFPOINTS
 62
     0
100
AcDbPoint
 10
287.0
 20
420.0
 30
0.0
  0
POINT
  5
186
330
17B
100
AcDbEntity
  8
DEFPOINTS
 62
     0
100
AcDbPoint
 10
287.0
 20
420.0
 30
0.0
  0
ENDBLK
  5
17D
330
17B
100
AcDbEntity
  8
0
100
AcDbBlockEnd
  0
BLOCK
  5
18B
330
18A
100
AcDbEntity
  8
0
100
AcDbBlockBegin
  2
*D23
 70
     1
 10
0.0
 20
0.0
 30
0.0
  3
*D23
  1

  0
LINE
  5
18D
330
18A
100
AcDbEntity
  8
LAY-20
  6
CONTINUOUS
 62
     4
100
AcDbLine
 10
54.01135166300553
 20
320.4727893481073
 30
0.0
 11
34.70810192528874
 21
322.1570268521057
 31
0.0
  0
LINE
  5
18E
330
18A
100
AcDbEntity
  8
LAY-20
  6
CONTINUOUS
 62
     4
100
AcDbLine
 10
54.00000069496753
 20
300.0
 30
0.0
 11
33.74331770743643
 21
300.0
 31
0.0
  0
ARC
  5
18F
330
18A
100
AcDbEntity
  8
LAY-20
  6
CONTINUOUS
 62
     4
100
AcDbCircle
 10
288.65246651528
 20
300.0
 30
0.0
 40
251.9091488078436
100
AcDbArc
 50
176.1507351846031
 51
178.8627503142276
  0
INSERT
  5
190
330
18A
100
AcDbEntity
  8
LAY-20
 62
     4
100
AcDbBlockReference
  2
EX_BNORM
 10
37.69674747737233
 20
321.896263043246
 30
0.0
 41
5.0
 42
5.0
 43
5.0
 50
85.58211034171688
  0
INSERT
  5
191
330
18A
100
AcDbEntity
  8
LAY-20
 62
     4
100
AcDbBlockReference
  2
EX_BNORM
 10
36.74331770743643
 20
300.0
 30
0.0
 41
5.0
 42
5.0
 43
5.0
 50
269.4313751571138
  0
MTEXT
  5
192
330
18A
100
AcDbEntity
  8
LAY-20
 62
     7
100
AcDbMText
 10
31.98652128447022
 20
311.1760144929056
 30
0.0
 40
6.2362208
 41
0.0
 71
     5
 72
     1
  1
5%%d
  7
EXCADDIM1
 11
0.04350181589393207
 21
0.9990533479318963
 31
0.0
  0
POINT
  5
193
330
18A
100
AcDbEntity
  8
DEFPOINTS
 62
     0
100
AcDbPoint
 10
288.65246651528
 20
300.0
 30
0.0
  0
POINT
  5
194
330
18A
100
AcDbEntity
  8
DEFPOINTS
 62
     0
100
AcDbPoint
 10
54.07361511200727
 20
320.4673567687561
 30
0.0
  0
POINT
  5
195
330
18A
100
AcDbEntity
  8
DEFPOINTS
 62
     0
100
AcDbPoint
 10
54.06250069496753
 20
300.0
 30
0.0
  0
POINT
  5
196
330
18A
100
AcDbEntity
  8
DEFPOINTS
 62
     0
100
AcDbPoint
 10
37.16721290548843
 20
314.6077537599419
 30
0.0
  0
ENDBLK
  5
18C
330
18A
100
AcDbEntity
  8
0
100
AcDbBlockEnd
  0
BLOCK
  5
199
330
198
100
AcDbEntity
  8
0
100
AcDbBlockBegin
  2
*D24
 70
     1
 10
0.0
 20
0.0
 30
0.0
  3
*D24
  1

  0
LINE
  5
19B
330
198
100
AcDbEntity
  8
LAY-20
  6
CONTINUOUS
 62
     4
100
AcDbLine
 10
455.0
 20
397.0
 30
0.0
 11
455.0
 21
423.0
 31
0.0
  0
LINE
  5
19C
330
198
100
AcDbEntity
  8
LAY-20
  6
CONTINUOUS
 62
     4
100
AcDbLine
 10
685.0
 20
397.0
 30
0.0
 11
685.0
 21
423.0
 31
0.0
  0
LINE
  5
19D
330
198
100
AcDbEntity
  8
LAY-20
  6
CONTINUOUS
 62
     4
100
AcDbLine
 10
460.0
 20
420.0
 30
0.0
 11
680.0
 21
420.0
 31
0.0
  0
INSERT
  5
19E
330
198
100
AcDbEntity
  8
LAY-20
 62
     4
100
AcDbBlockReference
  2
EX_BNORM
 10
455.0
 20
420.0
 30
0.0
 41
5.0
 42
5.0
 43
5.0
 50
180.0
  0
INSERT
  5
19F
330
198
100
AcDbEntity
  8
LAY-20
 62
     4
100
AcDbBlockReference
  2
EX_BNORM
 10
685.0
 20
420.0
 30
0.0
 41
5.0
 42
5.0
 43
5.0
  0
MTEXT
  5
1A0
330
198
100
AcDbEntity
  8
LAY-20
 62
     7
100
AcDbMText
 10
570.0
 20
425.0
 30
0.0
 40
6.2362208
 41
0.0
 71
     5
 72
     1
  1
230
  7
EXCADDIM1
  0
POINT
  5
1A1
330
198
100
AcDbEntity
  8
DEFPOINTS
 62
     0
100
AcDbPoint
 10
455.0
 20
394.0
 30
0.0
  0
POINT
  5
1A2
330
198
100
AcDbEntity
  8
DEFPOINTS
 62
     0
100
AcDbPoint
 10
685.0
 20
394.0
 30
0.0
  0
POINT
  5
1A3
330
198
100
AcDbEntity
  8
DEFPOINTS
 62
     0
100
AcDbPoint
 10
685.0
 20
420.0
 30
0.0
  0
ENDBLK
  5
19A
330
198
100
AcDbEntity
  8
0
100
AcDbBlockEnd
  0
BLOCK
  5
1A6
330
1A5
100
AcDbEntity
  8
0
100
AcDbBlockBegin
  2
*D25
 70
     1
 10
0.0
 20
0.0
 30
0.0
  3
*D25
  1

  0
LINE
  5
1A8
330
1A5
100
AcDbEntity
  8
LAY-20
  6
CONTINUOUS
 62
     4
100
AcDbLine
 10
692.6
 20
390.0
 30
0.0
 11
718.0
 21
390.0
 31
0.0
  0
LINE
  5
1A9
330
1A5
100
AcDbEntity
  8
LAY-20
  6
CONTINUOUS
 62
     4
100
AcDbLine
 10
692.6
 20
210.0
 30
0.0
 11
718.0
 21
210.0
 31
0.0
  0
LINE
  5
1AA
330
1A5
100
AcDbEntity
  8
LAY-20
  6
CONTINUOUS
 62
     4
100
AcDbLine
 10
715.0
 20
385.0
 30
0.0
 11
715.0
 21
215.0
 31
0.0
  0
INSERT
  5
1AB
330
1A5
100
AcDbEntity
  8
LAY-20
 62
     4
100
AcDbBlockReference
  2
EX_BNORM
 10
715.0
 20
390.0
 30
0.0
 41
5.0
 42
5.0
 43
5.0
 50
90.0
  0
INSERT
  5
1AC
330
1A5
100
AcDbEntity
  8
LAY-20
 62
     4
100
AcDbBlockReference
  2
EX_BNORM
 10
715.0
 20
210.0
 30
0.0
 41
5.0
 42
5.0
 43
5.0
 50
270.0
  0
MTEXT
  5
1AD
330
1A5
100
AcDbEntity
  8
LAY-20
 62
     7
100
AcDbMText
 10
710.0
 20
300.0
 30
0.0
 40
6.2362208
 41
0.0
 71
     5
 72
     1
  1
180
  7
EXCADDIM1
 11
0.0
 21
1.0
 31
0.0
  0
POINT
  5
1AE
330
1A5
100
AcDbEntity
  8
DEFPOINTS
 62
     0
100
AcDbPoint
 10
689.6
 20
390.0
 30
0.0
  0
POINT
  5
1AF
330
1A5
100
AcDbEntity
  8
DEFPOINTS
 62
     0
100
AcDbPoint
 10
689.6
 20
210.0
 30
0.0
  0
POINT
  5
1B0
330
1A5
100
AcDbEntity
  8
DEFPOINTS
 62
     0
100
AcDbPoint
 10
715.0
 20
210.0
 30
0.0
  0
ENDBLK
  5
1A7
330
1A5
100
AcDbEntity
  8
0
100
AcDbBlockEnd
  0
ENDSEC
  0
SECTION
  2
ENTITIES
  0
LINE
  5
D4
330
1F
100
AcDbEntity
  8
LAY-10
  6
CONTINUOUS
 62
     7
100
AcDbLine
 10
695.0000000000007
 20
395.0000000000005
 30
0.0
 11
695.0000000000007
 21
205.0
 31
0.0
  0
ARC
  5
D5
330
1F
100
AcDbEntity
  8
LAY-10
  6
CONTINUOUS
 62
     7
100
AcDbCircle
 10
690.0000000000002
 20
395.0000000000005
 30
0.0
 40
5.0
100
AcDbArc
 50
0.0
 51
90.0
  0
CIRCLE
  5
D6
330
1F
100
AcDbEntity
  8
LAY-10
  6
CONTINUOUS
 62
     7
100
AcDbCircle
 10
685.0000000000002
 20
390.0000000000002
 30
0.0
 40
2.5
  0
CIRCLE
  5
D7
330
1F
100
AcDbEntity
  8
LAY-10
  6
CONTINUOUS
 62
     7
100
AcDbCircle
 10
685.0000000000002
 20
210.0000000000001
 30
0.0
 40
2.5
  0
ARC
  5
D8
330
1F
100
AcDbEntity
  8
LAY-10
  6
CONTINUOUS
 62
     7
100
AcDbCircle
 10
690.0000000000002
 20
205.0
 30
0.0
 40
5.0
100
AcDbArc
 50
270.0
 51
0.0
  0
ARC
  5
D9
330
1F
100
AcDbEntity
  8
LAY-10
  6
CONTINUOUS
 62
     7
100
AcDbCircle
 10
450.0000000000002
 20
395.0000000000005
 30
0.0
 40
5.0
100
AcDbArc
 50
90.0
 51
180.0
  0
CIRCLE
  5
DA
330
1F
100
AcDbEntity
  8
LAY-10
  6
CONTINUOUS
 62
     7
100
AcDbCircle
 10
455.0000000000007
 20
390.0000000000002
 30
0.0
 40
2.5
  0
LINE
  5
DB
330
1F
100
AcDbEntity
  8
LAY-10
  6
CONTINUOUS
 62
     7
100
AcDbLine
 10
445.0000000000003
 20
395.0000000000005
 30
0.0
 11
445.0000000000003
 21
205.0
 31
0.0
  0
LINE
  5
DC
330
1F
100
AcDbEntity
  8
LAY-10
  6
CONTINUOUS
 62
     7
100
AcDbLine
 10
690.0000000000002
 20
400.0000000000002
 30
0.0
 11
450.0000000000002
 21
400.0000000000002
 31
0.0
  0
LINE
  5
DD
330
1F
100
AcDbEntity
  8
LAY-10
  6
CONTINUOUS
 62
     7
100
AcDbLine
 10
690.0000000000002
 20
200.0000000000001
 30
0.0
 11
450.0000000000002
 21
200.0000000000001
 31
0.0
  0
LINE
  5
DE
330
1F
100
AcDbEntity
  8
LAY-10
  6
CONTINUOUS
 62
     7
100
AcDbLine
 10
523.0000000000002
 20
325.0954959385501
 30
0.0
 11
617.0000000000007
 21
325.0954959385501
 31
0.0
  0
ARC
  5
DF
330
1F
100
AcDbEntity
  8
LAY-10
  6
CONTINUOUS
 62
     7
100
AcDbCircle
 10
617.0000000000007
 20
322.0954959385501
 30
0.0
 40
3.000000000000002
100
AcDbArc
 50
0.0
 51
90.0
  0
LINE
  5
E0
330
1F
100
AcDbEntity
  8
LAY-10
  6
CONTINUOUS
 62
     7
100
AcDbLine
 10
618.5000000000007
 20
312.7688685271701
 30
0.0
 11
618.5000000000007
 21
269.5893361626302
 31
0.0
  0
ARC
  5
E1
330
1F
100
AcDbEntity
  8
LAY-10
  6
CONTINUOUS
 62
     7
100
AcDbCircle
 10
616.5000000000005
 20
312.7688685271701
 30
0.0
 40
2.0
100
AcDbArc
 50
0.0
 51
90.0
  0
LINE
  5
E2
330
1F
100
AcDbEntity
  8
LAY-10
  6
CONTINUOUS
 62
     7
100
AcDbLine
 10
523.5000000000002
 20
314.7688685271703
 30
0.0
 11
616.5000000000005
 21
314.7688685271703
 31
0.0
  0
LINE
  5
E3
330
1F
100
AcDbEntity
  8
LAY-10
  6
CONTINUOUS
 62
     7
100
AcDbLine
 10
523.0000000000002
 20
316.2745982834804
 30
0.0
 11
617.0000000000007
 21
316.2745982834804
 31
0.0
  0
ARC
  5
E4
330
1F
100
AcDbEntity
  8
LAY-10
  6
CONTINUOUS
 62
     7
100
AcDbCircle
 10
617.0000000000007
 20
313.2745982834804
 30
0.0
 40
3.000000000000002
100
AcDbArc
 50
0.0
 51
90.0
  0
ARC
  5
E5
330
1F
100
AcDbEntity
  8
LAY-10
  6
CONTINUOUS
 62
     7
100
AcDbCircle
 10
617.0000000000007
 20
269.0836064063202
 30
0.0
 40
3.000000000000002
100
AcDbArc
 50
270.0
 51
0.0
  0
LINE
  5
E6
330
1F
100
AcDbEntity
  8
LAY-10
  6
CONTINUOUS
 62
     7
100
AcDbLine
 10
523.0000000000002
 20
266.0836064063202
 30
0.0
 11
617.0000000000007
 21
266.0836064063202
 31
0.0
  0
ARC
  5
E7
330
1F
100
AcDbEntity
  8
LAY-10
  6
CONTINUOUS
 62
     7
100
AcDbCircle
 10
616.5000000000005
 20
269.5893361626302
 30
0.0
 40
2.0
100
AcDbArc
 50
270.0
 51
0.0
  0
LINE
  5
E8
330
1F
100
AcDbEntity
  8
LAY-10
  6
CONTINUOUS
 62
     7
100
AcDbLine
 10
523.5000000000002
 20
267.5893361626303
 30
0.0
 11
616.5000000000002
 21
267.5893361626303
 31
0.0
  0
LINE
  5
E9
330
1F
100
AcDbEntity
  8
LAY-10
  6
CONTINUOUS
 62
     7
100
AcDbLine
 10
620.0000000000007
 20
322.0954959385501
 30
0.0
 11
620.0000000000007
 21
269.0836064063202
 31
0.0
  0
ARC
  5
EA
330
1F
100
AcDbEntity
  8
LAY-10
  6
CONTINUOUS
 62
     7
100
AcDbCircle
 10
450.0000000000002
 20
205.0
 30
0.0
 40
5.0
100
AcDbArc
 50
180.0
 51
270.0
  0
CIRCLE
  5
EB
330
1F
100
AcDbEntity
  8
LAY-10
  6
CONTINUOUS
 62
     7
100
AcDbCircle
 10
455.0000000000007
 20
210.0000000000001
 30
0.0
 40
2.5
  0
ARC
  5
EC
330
1F
100
AcDbEntity
  8
LAY-10
  6
CONTINUOUS
 62
     7
100
AcDbCircle
 10
523.0000000000002
 20
322.0954959385501
 30
0.0
 40
3.000000000000002
100
AcDbArc
 50
90.0
 51
180.0
  0
LINE
  5
ED
330
1F
100
AcDbEntity
  8
LAY-10
  6
CONTINUOUS
 62
     7
100
AcDbLine
 10
521.5000000000002
 20
312.7688685271701
 30
0.0
 11
521.5000000000002
 21
269.5893361626302
 31
0.0
  0
ARC
  5
EE
330
1F
100
AcDbEntity
  8
LAY-10
  6
CONTINUOUS
 62
     7
100
AcDbCircle
 10
523.5000000000002
 20
312.7688685271701
 30
0.0
 40
2.0
100
AcDbArc
 50
90.0
 51
180.0
  0
ARC
  5
EF
330
1F
100
AcDbEntity
  8
LAY-10
  6
CONTINUOUS
 62
     7
100
AcDbCircle
 10
523.0000000000002
 20
313.2745982834804
 30
0.0
 40
3.000000000000002
100
AcDbArc
 50
90.0
 51
180.0
  0
ARC
  5
F0
330
1F
100
AcDbEntity
  8
LAY-10
  6
CONTINUOUS
 62
     7
100
AcDbCircle
 10
523.0000000000002
 20
269.0836064063202
 30
0.0
 40
3.000000000000002
100
AcDbArc
 50
180.0
 51
270.0
  0
ARC
  5
F1
330
1F
100
AcDbEntity
  8
LAY-10
  6
CONTINUOUS
 62
     7
100
AcDbCircle
 10
523.5000000000002
 20
269.5893361626302
 30
0.0
 40
2.0
100
AcDbArc
 50
180.0
 51
270.0
  0
LINE
  5
F2
330
1F
100
AcDbEntity
  8
LAY-10
  6
CONTINUOUS
 62
     7
100
AcDbLine
 10
520.0000000000002
 20
322.0954959385501
 30
0.0
 11
520.0000000000002
 21
269.0836064063202
 31
0.0
  0
LINE
  5
F3
330
1F
100
AcDbEntity
  8
LAY-10
  6
CONTINUOUS
 62
     7
100
AcDbLine
 10
287.0000000000001
 20
399.9999999998806
 30
0.0
 11
287.0000000000001
 21
325.1829846020808
 31
0.0
  0
LINE
  5
F4
330
1F
100
AcDbEntity
  8
LAY-10
  6
CONTINUOUS
 62
     7
100
AcDbLine
 10
290.0000000000001
 20
399.9999999998806
 30
0.0
 11
287.0000000000001
 21
399.9999999998806
 31
0.0
  0
LINE
  5
F5
330
1F
100
AcDbEntity
  8
LAY-10
  6
CONTINUOUS
 62
     7
100
AcDbLine
 10
287.0000000000001
 20
387.4999999998797
 30
0.0
 11
290.0000000000001
 21
387.4999999998797
 31
0.0
  0
LINE
  5
F6
330
1F
100
AcDbEntity
  8
LAY-10
  6
CONTINUOUS
 62
     7
100
AcDbLine
 10
287.0000000000001
 20
392.4999999998813
 30
0.0
 11
290.0000000000001
 21
392.4999999998813
 31
0.0
  0
LINE
  5
F7
330
1F
100
AcDbEntity
  8
LAY-10
  6
CONTINUOUS
 62
     7
100
AcDbLine
 10
290.0000000000001
 20
399.9999999998806
 30
0.0
 11
290.0000000000001
 21
325.0080072750287
 31
0.0
  0
LINE
  5
F8
330
1F
100
AcDbEntity
  8
LAY-10
  6
CONTINUOUS
 62
     7
100
AcDbLine
 10
57.00000000000023
 20
345.3053772130431
 30
0.0
 11
57.00000000000023
 21
295.1143853358761
 31
0.0
  0
LINE
  5
F9
330
1F
100
AcDbEntity
  8
LAY-10
  6
CONTINUOUS
 62
     7
100
AcDbLine
 10
287.0000000000001
 20
274.9919927249134
 30
0.0
 11
287.0000000000001
 21
199.9999999998802
 31
0.0
  0
ARC
  5
FA
330
1F
100
AcDbEntity
  8
LAY-10
  6
CONTINUOUS
 62
     7
100
AcDbCircle
 10
287.0000000000001
 20
325.0080072750004
 30
0.0
 40
0.5
100
AcDbArc
 50
90.0
 51
154.5968870157969
  0
ARC
  5
FB
330
1F
100
AcDbEntity
  8
LAY-10
  6
CONTINUOUS
 62
     7
100
AcDbCircle
 10
287.0000000000001
 20
325.0080072750004
 30
0.0
 40
1.0
100
AcDbArc
 50
90.0
 51
164.961406680126
  0
ARC
  5
FC
330
1F
100
AcDbEntity
  8
LAY-10
  6
CONTINUOUS
 62
     7
100
AcDbCircle
 10
287.0000000000001
 20
325.0080072750004
 30
0.0
 40
1.5
100
AcDbArc
 50
90.0
 51
168.3267142497124
  0
ARC
  5
FD
330
1F
100
AcDbEntity
  8
LAY-10
  6
CONTINUOUS
 62
     7
100
AcDbCircle
 10
287.0000000000001
 20
274.9919927250004
 30
0.0
 40
1.5
100
AcDbArc
 50
175.0000000000002
 51
270.0
  0
ARC
  5
FE
330
1F
100
AcDbEntity
  8
LAY-10
  6
CONTINUOUS
 62
     7
100
AcDbCircle
 10
287.0000000000001
 20
274.9919927250004
 30
0.0
 40
0.5
100
AcDbArc
 50
175.0000000000071
 51
270.0
  0
ARC
  5
FF
330
1F
100
AcDbEntity
  8
LAY-10
  6
CONTINUOUS
 62
     7
100
AcDbCircle
 10
287.0000000000001
 20
274.9919927250004
 30
0.0
 40
1.0
100
AcDbArc
 50
175.0000000000068
 51
270.0
  0
LINE
  5
100
330
1F
100
AcDbEntity
  8
LAY-10
  6
CONTINUOUS
 62
     7
100
AcDbLine
 10
290.0000000000001
 20
199.9999999998802
 30
0.0
 11
287.0000000000001
 21
199.9999999998802
 31
0.0
  0
LINE
  5
101
330
1F
100
AcDbEntity
  8
LAY-10
  6
CONTINUOUS
 62
     7
100
AcDbLine
 10
287.0000000000001
 20
212.4999999998811
 30
0.0
 11
290.0000000000001
 21
212.4999999998811
 31
0.0
  0
LINE
  5
102
330
1F
100
AcDbEntity
  8
LAY-10
  6
CONTINUOUS
 62
     7
100
AcDbLine
 10
287.0000000000001
 20
207.4999999998794
 30
0.0
 11
290.0000000000001
 21
207.4999999998794
 31
0.0
  0
LINE
  5
103
330
1F
100
AcDbEntity
  8
LAY-10
  6
CONTINUOUS
 62
     7
100
AcDbLine
 10
290.0000000000001
 20
274.8170153978616
 30
0.0
 11
290.0000000000001
 21
199.9999999998802
 31
0.0
  0
ARC
  5
104
330
1F
100
AcDbEntity
  8
LAY-10
  6
CONTINUOUS
 62
     7
100
AcDbCircle
 10
290.0000000000001
 20
325.0080072750004
 30
0.0
 40
1.5
100
AcDbArc
 50
355.0000000000003
 51
90.0
  0
ARC
  5
105
330
1F
100
AcDbEntity
  8
LAY-10
  6
CONTINUOUS
 62
     7
100
AcDbCircle
 10
290.0000000000001
 20
325.0080072750004
 30
0.0
 40
0.5
100
AcDbArc
 50
354.999999999987
 51
90.0
  0
ARC
  5
106
330
1F
100
AcDbEntity
  8
LAY-10
  6
CONTINUOUS
 62
     7
100
AcDbCircle
 10
290.0000000000001
 20
325.0080072750004
 30
0.0
 40
1.0
100
AcDbArc
 50
354.999999999987
 51
90.0
  0
ARC
  5
107
330
1F
100
AcDbEntity
  8
LAY-10
  6
CONTINUOUS
 62
     7
100
AcDbCircle
 10
290.0000000000001
 20
274.9919927250004
 30
0.0
 40
0.5
100
AcDbArc
 50
270.0
 51
334.596887015797
  0
ARC
  5
108
330
1F
100
AcDbEntity
  8
LAY-10
  6
CONTINUOUS
 62
     7
100
AcDbCircle
 10
290.0000000000001
 20
274.9919927250004
 30
0.0
 40
1.0
100
AcDbArc
 50
270.0
 51
344.9614066801055
  0
ARC
  5
109
330
1F
100
AcDbEntity
  8
LAY-10
  6
CONTINUOUS
 62
     7
100
AcDbCircle
 10
290.0000000000001
 20
274.9919927250004
 30
0.0
 40
1.5
100
AcDbArc
 50
270.0
 51
348.3267142496992
  0
LINE
  5
10A
330
1F
100
AcDbEntity
  8
LAY-10
  6
CONTINUOUS
 62
     7
100
AcDbLine
 10
390.0000000000003
 20
316.2745982834833
 30
0.0
 11
57.00000000000023
 21
345.3053772130431
 31
0.0
  0
LINE
  5
10B
330
1F
100
AcDbEntity
  8
LAY-10
  6
CONTINUOUS
 62
     7
100
AcDbLine
 10
390.0000000000003
 20
314.7688685271683
 30
0.0
 11
57.00000000000023
 21
343.7996474567283
 31
0.0
  0
LINE
  5
10C
330
1F
100
AcDbEntity
  8
LAY-10
  6
CONTINUOUS
 62
     7
100
AcDbLine
 10
57.00000000000023
 20
295.1143853358761
 30
0.0
 11
390.0000000000003
 21
266.0836064063161
 31
0.0
  0
LINE
  5
10D
330
1F
100
AcDbEntity
  8
LAY-10
  6
CONTINUOUS
 62
     7
100
AcDbLine
 10
57.00000000000068
 20
296.6201150921906
 30
0.0
 11
390.0000000000003
 21
267.5893361626308
 31
0.0
  0
LINE
  5
10E
330
1F
100
AcDbEntity
  8
LAY-10
  6
CONTINUOUS
 62
     7
100
AcDbLine
 10
390.0000000000003
 20
316.2745982834833
 30
0.0
 11
390.0000000000003
 21
266.0836064063161
 31
0.0
  0
LINE
  5
10F
330
1F
100
AcDbEntity
  8
LAY-10
  6
CENTER
 62
     2
100
AcDbLine
 10
441.1000000000001
 20
300.0000000000002
 30
0.0
 11
697.9000000000008
 21
300.0000000000002
 31
0.0
  0
LINE
  5
110
330
1F
100
AcDbEntity
  8
LAY-10
  6
CENTER
 62
     2
100
AcDbLine
 10
570.0000000000002
 20
404.3000000000002
 30
0.0
 11
570.0000000000002
 21
196.5000000000001
 31
0.0
  0
LINE
  5
111
330
1F
100
AcDbEntity
  8
LAY-10
  6
CENTER
 62
     2
100
AcDbLine
 10
455.0000000000007
 20
394.0000000000002
 30
0.0
 11
455.0000000000007
 21
385.3000000000004
 31
0.0
  0
LINE
  5
112
330
1F
100
AcDbEntity
  8
LAY-10
  6
CENTER
 62
     2
100
AcDbLine
 10
450.4000000000008
 20
390.0000000000002
 30
0.0
 11
459.3200000000002
 21
390.0000000000002
 31
0.0
  0
LINE
  5
113
330
1F
100
AcDbEntity
  8
LAY-10
  6
CENTER
 62
     2
100
AcDbLine
 10
689.6000000000001
 20
390.0000000000002
 30
0.0
 11
680.6800000000005
 21
390.0000000000002
 31
0.0
  0
LINE
  5
114
330
1F
100
AcDbEntity
  8
LAY-10
  6
CENTER
 62
     2
100
AcDbLine
 10
685.0000000000002
 20
394.0000000000002
 30
0.0
 11
685.0000000000002
 21
385.3000000000004
 31
0.0
  0
LINE
  5
115
330
1F
100
AcDbEntity
  8
LAY-10
  6
CENTER
 62
     2
100
AcDbLine
 10
689.6000000000001
 20
210.0000000000001
 30
0.0
 11
680.6800000000005
 21
210.0000000000001
 31
0.0
  0
LINE
  5
116
330
1F
100
AcDbEntity
  8
LAY-10
  6
CENTER
 62
     2
100
AcDbLine
 10
685.0000000000002
 20
206.0000000000001
 30
0.0
 11
685.0000000000002
 21
214.7
 31
0.0
  0
LINE
  5
117
330
1F
100
AcDbEntity
  8
LAY-10
  6
CENTER
 62
     2
100
AcDbLine
 10
450.4000000000008
 20
210.0000000000001
 30
0.0
 11
459.3200000000002
 21
210.0000000000001
 31
0.0
  0
LINE
  5
118
330
1F
100
AcDbEntity
  8
LAY-10
  6
CENTER
 62
     2
100
AcDbLine
 10
455.0000000000007
 20
206.0000000000001
 30
0.0
 11
455.0000000000007
 21
214.7
 31
0.0
  0
LINE
  5
119
330
1F
100
AcDbEntity
  8
LAY-10
  6
CENTER
 62
     2
100
AcDbLine
 10
400.0626481485299
 20
290.2792944823494
 30
0.0
 11
47.95971334743149
 21
321.0008038715835
 31
0.0
  0
LINE
  5
11A
330
1F
100
AcDbEntity
  8
LAY-10
  6
CENTER
 62
     2
100
AcDbLine
 10
47.40000000000009
 20
300.0000000000002
 30
0.0
 11
400.0000000000001
 21
300.0000000000002
 31
0.0
  0
LINE
  5
11B
330
1F
100
AcDbEntity
  8
LAY-10
  6
CENTER
 62
     2
100
AcDbLine
 10
292.7700000000003
 20
209.9999999998802
 30
0.0
 11
284.3400000000001
 21
209.9999999998802
 31
0.0
  0
LINE
  5
11C
330
1F
100
AcDbEntity
  8
LAY-10
  6
CENTER
 62
     2
100
AcDbLine
 10
292.7700000000003
 20
389.9999999998802
 30
0.0
 11
284.3400000000001
 21
389.9999999998802
 31
0.0
  0
DIMENSION
  5
11E
330
1F
100
AcDbEntity
  8
LAY-20
  6
CONTINUOUS
 62
     4
100
AcDbDimension
  2
*D15
 10
695.0
 20
434.0
 30
0.0
 11
570.0
 21
439.0
 31
0.0
 70
   160
  3
ISO-25
100
AcDbAlignedDimension
 13
445.0
 23
395.0
 33
0.0
 14
695.0
 24
395.0
 34
0.0
100
AcDbRotatedDimension
1001
ACAD
1000
DSTYLE
1002
{
1070
   270
1070
     2
1070
     6
1000
EX_BNORM
1070
     7
1000
EX_BNORM
1070
    41
1040
5.0
1070
    42
1040
3.0
1070
    44
1040
3.0
1070
    73
1070
     0
1070
    74
1070
     0
1070
    75
1070
     0
1070
    76
1070
     0
1070
    77
1070
     1
1070
    78
1070
     8
1070
   140
1040
6.2362208
1070
   147
1040
0.0
1070
   173
1070
     1
1070
   176
1070
     4
1070
   177
1070
     4
1070
   178
1070
     7
1070
   271
1070
     1
1070
   277
1070
     2
1070
   279
1070
     2
1070
   280
1070
     0
1070
   287
1070
     5
1070
   340
1005
11D
1002
}
  0
DIMENSION
  5
12C
330
1F
100
AcDbEntity
  8
LAY-20
  6
CONTINUOUS
 62
     4
100
AcDbDimension
  2
*D16
 10
620.0
 20
180.0
 30
0.0
 11
570.0
 21
185.0
 31
0.0
 70
   160
  3
ISO-25
100
AcDbAlignedDimension
 13
520.0
 23
269.08360640632
 33
0.0
 14
620.0
 24
269.08360640632
 34
0.0
100
AcDbRotatedDimension
1001
ACAD
1000
DSTYLE
1002
{
1070
   270
1070
     2
1070
     6
1000
EX_BNORM
1070
     7
1000
EX_BNORM
1070
    41
1040
5.0
1070
    42
1040
3.0
1070
    44
1040
3.0
1070
    73
1070
     0
1070
    74
1070
     0
1070
    75
1070
     0
1070
    76
1070
     0
1070
    77
1070
     1
1070
    78
1070
     8
1070
   140
1040
6.2362208
1070
   147
1040
0.0
1070
   173
1070
     1
1070
   176
1070
     4
1070
   177
1070
     4
1070
   178
1070
     7
1070
   271
1070
     1
1070
   277
1070
     2
1070
   279
1070
     2
1070
   280
1070
     0
1070
   287
1070
     5
1070
   340
1005
11D
1002
}
  0
DIMENSION
  5
139
330
1F
100
AcDbEntity
  8
LAY-20
  6
CONTINUOUS
 62
     4
100
AcDbDimension
  2
*D17
 10
425.0
 20
316.2745982834801
 30
0.0
 11
420.0
 21
291.1791023449
 31
0.0
 70
   160
  3
ISO-25
100
AcDbAlignedDimension
 13
523.0
 23
266.08360640632
 33
0.0
 14
523.0
 24
316.27459828348
 34
0.0
 50
90.0
100
AcDbRotatedDimension
1001
ACAD
1000
DSTYLE
1002
{
1070
   270
1070
     2
1070
     6
1000
EX_BNORM
1070
     7
1000
EX_BNORM
1070
    41
1040
5.0
1070
    42
1040
3.0
1070
    44
1040
3.0
1070
    73
1070
     0
1070
    74
1070
     0
1070
    75
1070
     0
1070
    76
1070
     0
1070
    77
1070
     1
1070
    78
1070
     0
1070
   140
1040
6.2362208
1070
   147
1040
0.0
1070
   173
1070
     1
1070
   176
1070
     4
1070
   177
1070
     4
1070
   178
1070
     7
1070
   271
1070
     0
1070
   277
1070
     2
1070
   279
1070
     2
1070
   280
1070
     0
1070
   287
1070
     5
1070
   340
1005
11D
1002
}
  0
DIMENSION
  5
146
330
1F
100
AcDbEntity
  8
LAY-20
  6
CONTINUOUS
 62
     4
100
AcDbDimension
  2
*D18
 10
729.0000000000001
 20
400.0
 30
0.0
 11
724.0000000000001
 21
300.0
 31
0.0
 70
   160
  3
ISO-25
100
AcDbAlignedDimension
 13
690.0
 23
200.0
 33
0.0
 14
690.0
 24
400.0
 34
0.0
 50
90.0
100
AcDbRotatedDimension
1001
ACAD
1000
DSTYLE
1002
{
1070
   270
1070
     2
1070
     6
1000
EX_BNORM
1070
     7
1000
EX_BNORM
1070
    41
1040
5.0
1070
    42
1040
3.0
1070
    44
1040
3.0
1070
    73
1070
     0
1070
    74
1070
     0
1070
    75
1070
     0
1070
    76
1070
     0
1070
    77
1070
     1
1070
    78
1070
     8
1070
   140
1040
6.2362208
1070
   147
1040
0.0
1070
   173
1070
     1
1070
   176
1070
     4
1070
   177
1070
     4
1070
   178
1070
     7
1070
   271
1070
     1
1070
   277
1070
     2
1070
   279
1070
     2
1070
   280
1070
     0
1070
   287
1070
     5
1070
   340
1005
11D
1002
}
  0
DIMENSION
  5
153
330
1F
100
AcDbEntity
  8
LAY-20
  6
CONTINUOUS
 62
     4
100
AcDbDimension
  2
*D19
 10
550.0
 20
267.58933616263
 30
0.0
 11
545.0
 21
253.0836064063199
 31
0.0
 70
   160
  3
ISO-25
100
AcDbAlignedDimension
 13
550.0
 23
266.08360640632
 33
0.0
 14
550.0
 24
267.58933616263
 34
0.0
 50
90.0
100
AcDbRotatedDimension
1001
ACAD
1000
DSTYLE
1002
{
1070
   270
1070
     2
1070
     6
1000
EX_BNORM
1070
     7
1000
EX_BNORM
1070
    41
1040
5.0
1070
    42
1040
0.0
1070
    44
1040
0.0
1070
    73
1070
     0
1070
    74
1070
     0
1070
    75
1070
     1
1070
    76
1070
     1
1070
    77
1070
     1
1070
    78
1070
     8
1070
   140
1040
6.2362208
1070
   147
1040
0.0
1070
   173
1070
     1
1070
   176
1070
     4
1070
   177
1070
     4
1070
   178
1070
     7
1070
   271
1070
     1
1070
   277
1070
     2
1070
   279
1070
     2
1070
   280
1070
     1
1070
   287
1070
     5
1070
   340
1005
11D
1002
}
  0
DIMENSION
  5
160
330
1F
100
AcDbEntity
  8
LAY-20
  6
CONTINUOUS
 62
     4
100
AcDbDimension
  2
*D20
 10
287.0
 20
420.0
 30
0.0
 11
172.0
 21
425.0
 31
0.0
 70
   160
  1
Ｌ1＝<>※
  3
ISO-25
100
AcDbAlignedDimension
 13
57.0
 23
345.30537721304
 33
0.0
 14
287.0
 24
399.99999999988
 34
0.0
100
AcDbRotatedDimension
1001
ACAD
1000
DSTYLE
1002
{
1070
   270
1070
     2
1070
     6
1000
EX_BNORM
1070
     7
1000
EX_BNORM
1070
    41
1040
5.0
1070
    42
1040
3.0
1070
    44
1040
3.0
1070
    73
1070
     0
1070
    74
1070
     0
1070
    75
1070
     0
1070
    76
1070
     0
1070
    77
1070
     1
1070
    78
1070
     8
1070
   140
1040
6.2362208
1070
   147
1040
0.0
1070
   173
1070
     1
1070
   176
1070
     4
1070
   177
1070
     4
1070
   178
1070
     7
1070
   271
1070
     1
1070
   277
1070
     2
1070
   279
1070
     2
1070
   280
1070
     0
1070
   287
1070
     5
1070
   340
1005
11D
1002
}
  0
DIMENSION
  5
16D
330
1F
100
AcDbEntity
  8
LAY-20
  6
CONTINUOUS
 62
     4
100
AcDbDimension
  2
*D21
 10
390.0
 20
420.0
 30
0.0
 11
340.0
 21
425.0
 31
0.0
 70
   160
  1
Ｌ2＝<>※
  3
ISO-25
100
AcDbAlignedDimension
 13
290.0
 23
399.99999999988
 33
0.0
 14
390.0
 24
316.27459828348
 34
0.0
100
AcDbRotatedDimension
1001
ACAD
1000
DSTYLE
1002
{
1070
   270
1070
     2
1070
     6
1000
EX_BNORM
1070
     7
1000
EX_BNORM
1070
    41
1040
5.0
1070
    42
1040
3.0
1070
    44
1040
3.0
1070
    73
1070
     0
1070
    74
1070
     0
1070
    75
1070
     0
1070
    76
1070
     0
1070
    77
1070
     1
1070
    78
1070
     8
1070
   140
1040
6.2362208
1070
   147
1040
0.0
1070
   173
1070
     1
1070
   176
1070
     4
1070
   177
1070
     4
1070
   178
1070
     7
1070
   271
1070
     1
1070
   277
1070
     2
1070
   279
1070
     2
1070
   280
1070
     0
1070
   287
1070
     5
1070
   340
1005
11D
1002
}
  0
DIMENSION
  5
17A
330
1F
100
AcDbEntity
  8
LAY-20
  6
CONTINUOUS
 62
     4
100
AcDbDimension
  2
*D22
 10
287.0
 20
420.0
 30
0.0
 11
288.5
 21
425.0
 31
0.0
 70
   160
  3
ISO-25
100
AcDbAlignedDimension
 13
290.0
 23
420.0
 33
0.0
 14
287.0
 24
420.0
 34
0.0
100
AcDbRotatedDimension
1001
ACAD
1000
DSTYLE
1002
{
1070
   270
1070
     2
1070
     6
1000
EX_BNORM
1070
     7
1000
EX_BNORM
1070
    41
1040
5.0
1070
    42
1040
0.0
1070
    44
1040
0.0
1070
    73
1070
     0
1070
    74
1070
     0
1070
    75
1070
     1
1070
    76
1070
     1
1070
    77
1070
     1
1070
    78
1070
     8
1070
   140
1040
6.2362208
1070
   147
1040
0.0
1070
   173
1070
     1
1070
   176
1070
     4
1070
   177
1070
     4
1070
   178
1070
     7
1070
   271
1070
     1
1070
   277
1070
     2
1070
   279
1070
     2
1070
   280
1070
     0
1070
   287
1070
     5
1070
   340
1005
11D
1002
}
  0
TEXT
  5
187
330
1F
100
AcDbEntity
  8
LAY-20
  6
CONTINUOUS
 62
     7
100
AcDbText
 10
712.225
 20
188.1208664
 30
0.0
 40
6.2362208
  1
４－φ５
 41
1.129411764705882
  7
EXCADSTD
100
AcDbText
  0
LEADER
  5
188
330
1F
100
AcDbEntity
  8
LAY-20
  6
CONTINUOUS
 62
     4
100
AcDbLeader
  3
ISO-25
 76
     3
 10
686.7677669529701
 20
208.23223304703
 30
0.0
 10
707.95
 20
187.05
 30
0.0
 10
748.5
 20
187.05
 30
0.0
1001
ACAD
1000
DSTYLE
1002
{
1070
     5
1000
EX_BNORM
1070
    41
1040
5.0
1070
   341
1005
7B
1002
}
  0
DIMENSION
  5
189
330
1F
100
AcDbEntity
  8
LAY-20
  6
CONTINUOUS
 62
     4
100
AcDbDimension
  2
*D23
 10
37.16721290548843
 20
314.6077537599419
 30
0.0
 11
31.98652128447022
 21
311.1760144929056
 31
0.0
 70
   165
  3
ISO-25
100
AcDb3PointAngularDimension
 13
54.07361511200727
 23
320.4673567687561
 33
0.0
 14
54.06250069496753
 24
300.0
 34
0.0
 15
288.65246651528
 25
300.0
 35
0.0
1001
ACAD
1000
DSTYLE
1002
{
1070
   270
1070
     2
1070
     6
1000
EX_BNORM
1070
     7
1000
EX_BNORM
1070
    41
1040
5.0
1070
    42
1040
0.0625
1070
    44
1040
2.999999999999998
1070
    73
1070
     0
1070
    74
1070
     0
1070
    75
1070
     0
1070
    76
1070
     0
1070
    77
1070
     1
1070
    78
1070
     8
1070
    79
1070
     2
1070
   140
1040
6.2362208
1070
   147
1040
0.0
1070
   173
1070
     1
1070
   176
1070
     4
1070
   177
1070
     4
1070
   178
1070
     7
1070
   179
1070
     1
1070
   271
1070
     1
1070
   277
1070
     2
1070
   279
1070
     2
1070
   280
1070
     0
1070
   287
1070
     5
1070
   340
1005
11D
1002
}
  0
DIMENSION
  5
197
330
1F
100
AcDbEntity
  8
LAY-20
  6
CONTINUOUS
 62
     4
100
AcDbDimension
  2
*D24
 10
685.0
 20
420.0
 30
0.0
 11
570.0
 21
425.0
 31
0.0
 70
   160
  3
ISO-25
100
AcDbAlignedDimension
 13
455.0
 23
394.0
 33
0.0
 14
685.0
 24
394.0
 34
0.0
100
AcDbRotatedDimension
1001
ACAD
1000
DSTYLE
1002
{
1070
   270
1070
     2
1070
     6
1000
EX_BNORM
1070
     7
1000
EX_BNORM
1070
    41
1040
5.0
1070
    42
1040
3.0
1070
    44
1040
3.0
1070
    73
1070
     0
1070
    74
1070
     0
1070
    75
1070
     0
1070
    76
1070
     0
1070
    77
1070
     1
1070
    78
1070
     8
1070
   140
1040
6.2362208
1070
   147
1040
0.0
1070
   173
1070
     1
1070
   176
1070
     4
1070
   177
1070
     4
1070
   178
1070
     7
1070
   271
1070
     1
1070
   277
1070
     2
1070
   279
1070
     2
1070
   280
1070
     0
1070
   287
1070
     5
1070
   340
1005
11D
1002
}
  0
DIMENSION
  5
1A4
330
1F
100
AcDbEntity
  8
LAY-20
  6
CONTINUOUS
 62
     4
100
AcDbDimension
  2
*D25
 10
715.0
 20
210.0
 30
0.0
 11
710.0
 21
300.0
 31
0.0
 70
   160
  3
ISO-25
100
AcDbAlignedDimension
 13
689.6
 23
390.0
 33
0.0
 14
689.6
 24
210.0
 34
0.0
 50
90.0
100
AcDbRotatedDimension
1001
ACAD
1000
DSTYLE
1002
{
1070
   270
1070
     2
1070
     6
1000
EX_BNORM
1070
     7
1000
EX_BNORM
1070
    41
1040
5.0
1070
    42
1040
3.0
1070
    44
1040
3.0
1070
    73
1070
     0
1070
    74
1070
     0
1070
    75
1070
     0
1070
    76
1070
     0
1070
    77
1070
     1
1070
    78
1070
     8
1070
   140
1040
6.2362208
1070
   147
1040
0.0
1070
   173
1070
     1
1070
   176
1070
     4
1070
   177
1070
     4
1070
   178
1070
     7
1070
   271
1070
     1
1070
   277
1070
     2
1070
   279
1070
     2
1070
   280
1070
     0
1070
   287
1070
     5
1070
   340
1005
11D
1002
}
  0
LINE
  5
1B1
330
1F
100
AcDbEntity
  8
LAY-255
  6
CONTINUOUS
 62
     7
100
AcDbLine
 10
770.0
 20
43.99999999999999
 30
0.0
 11
570.0
 21
43.99999999999999
 31
0.0
  0
LINE
  5
1B2
330
1F
100
AcDbEntity
  8
LAY-255
  6
CONTINUOUS
 62
     7
100
AcDbLine
 10
577.6
 20
32.0
 30
0.0
 11
593.6
 21
42.0
 31
0.0
  0
LINE
  5
1B3
330
1F
100
AcDbEntity
  8
LAY-255
  6
CONTINUOUS
 62
     7
100
AcDbLine
 10
593.6
 20
42.0
 30
0.0
 11
609.6
 21
32.0
 31
0.0
  0
LINE
  5
1B4
330
1F
100
AcDbEntity
  8
LAY-255
  6
CONTINUOUS
 62
     7
100
AcDbLine
 10
609.6
 20
32.0
 30
0.0
 11
593.6
 21
22.0
 31
0.0
  0
LINE
  5
1B5
330
1F
100
AcDbEntity
  8
LAY-255
  6
CONTINUOUS
 62
     7
100
AcDbLine
 10
593.6
 20
22.0
 30
0.0
 11
577.6
 21
32.0
 31
0.0
  0
LINE
  5
1B6
330
1F
100
AcDbEntity
  8
LAY-255
  6
CONTINUOUS
 62
     7
100
AcDbLine
 10
10.0
 20
20.0
 30
0.0
 11
770.0000000000001
 21
20.0
 31
0.0
  0
LINE
  5
1B7
330
1F
100
AcDbEntity
  8
LAY-255
  6
CONTINUOUS
 62
     7
100
AcDbLine
 10
10.0
 20
560.0
 30
0.0
 11
770.0000000000001
 21
560.0
 31
0.0
  0
LINE
  5
1B8
330
1F
100
AcDbEntity
  8
LAY-255
  6
CONTINUOUS
 62
     7
100
AcDbLine
 10
10.0
 20
20.0
 30
0.0
 11
10.0
 21
560.0
 31
0.0
  0
LINE
  5
1B9
330
1F
100
AcDbEntity
  8
LAY-255
  6
CONTINUOUS
 62
     7
100
AcDbLine
 10
770.0
 20
20.0
 30
0.0
 11
770.0
 21
560.0
 31
0.0
  0
LINE
  5
1BA
330
1F
100
AcDbEntity
  8
LAY-255
  6
CONTINUOUS
 62
     4
100
AcDbLine
 10
570.0
 20
55.99999999999999
 30
0.0
 11
770.0000000000001
 21
55.99999999999999
 31
0.0
  0
LINE
  5
1BB
330
1F
100
AcDbEntity
  8
LAY-255
  6
CONTINUOUS
 62
     7
100
AcDbLine
 10
570.0
 20
20.0
 30
0.0
 11
570.0
 21
134.0
 31
0.0
  0
LINE
  5
1BC
330
1F
100
AcDbEntity
  8
LAY-255
  6
CONTINUOUS
 62
     4
100
AcDbLine
 10
670.0
 20
55.99999999999999
 30
0.0
 11
670.0
 21
44.0
 31
0.0
  0
LINE
  5
1BD
330
1F
100
AcDbEntity
  8
LAY-255
  6
CONTINUOUS
 62
     7
100
AcDbLine
 10
770.0000000000001
 20
134.0
 30
0.0
 11
570.0
 21
134.0
 31
0.0
  0
LINE
  5
1BE
330
1F
100
AcDbEntity
  8
LAY-255
  6
CONTINUOUS
 62
     4
100
AcDbLine
 10
766.0
 20
110.0
 30
0.0
 11
574.0
 21
110.0
 31
0.0
  0
LINE
  5
1BF
330
1F
100
AcDbEntity
  8
LAY-255
  6
CONTINUOUS
 62
     4
100
AcDbLine
 10
766.0
 20
122.0
 30
0.0
 11
574.0
 21
122.0
 31
0.0
  0
POINT
  5
1C0
330
1F
100
AcDbEntity
  8
LAY-255
  6
CONTINUOUS
 62
     7
100
AcDbPoint
 10
578.0
 20
100.0
 30
0.0
  0
POINT
  5
1C1
330
1F
100
AcDbEntity
  8
LAY-255
  6
CONTINUOUS
 62
     7
100
AcDbPoint
 10
600.0
 20
112.0
 30
0.0
  0
POINT
  5
1C2
330
1F
100
AcDbEntity
  8
LAY-255
  6
CONTINUOUS
 62
     7
100
AcDbPoint
 10
600.0
 20
124.0
 30
0.0
  0
POINT
  5
1C3
330
1F
100
AcDbEntity
  8
LAY-255
  6
CONTINUOUS
 62
     7
100
AcDbPoint
 10
578.0
 20
80.0
 30
0.0
  0
POINT
  5
1C4
330
1F
100
AcDbEntity
  8
LAY-255
  6
CONTINUOUS
 62
     7
100
AcDbPoint
 10
578.0
 20
90.0
 30
0.0
  0
POINT
  5
1C5
330
1F
100
AcDbEntity
  8
LAY-255
  6
CONTINUOUS
 62
     7
100
AcDbPoint
 10
578.0
 20
69.99999999999999
 30
0.0
  0
POINT
  5
1C6
330
1F
100
AcDbEntity
  8
LAY-255
  6
CONTINUOUS
 62
     7
100
AcDbPoint
 10
578.0
 20
59.99999999999997
 30
0.0
  0
TEXT
  5
1C7
330
1F
100
AcDbEntity
  8
LAY-255
  6
CONTINUOUS
 62
     7
100
AcDbText
 10
616.2767579736328
 20
31.0875
 30
0.0
 40
10.3125
  1
福西鋳物株式会社
 41
1.342692319347662
  7
EXCADSTD
100
AcDbText
  0
TEXT
  5
1C8
330
1F
100
AcDbEntity
  8
LAY-255
  6
CONTINUOUS
 62
     7
100
AcDbText
 10
617.0187500000001
 20
23.9625
 30
0.0
 40
3.4375
  1
ＦＵＫＵＮＩＳＨＩ
 41
1.204799226045263
  7
EXCADSTD
100
AcDbText
  0
TEXT
  5
1C9
330
1F
100
AcDbEntity
  8
LAY-255
  6
CONTINUOUS
 62
     7
100
AcDbText
 10
665.4383928571428
 20
23.9625
 30
0.0
 40
3.4375
  1
ＦＯＵＮＤＲＹ
 41
1.243252752978497
  7
EXCADSTD
100
AcDbText
  0
TEXT
  5
1CA
330
1F
100
AcDbEntity
  8
LAY-255
  6
CONTINUOUS
 62
     7
100
AcDbText
 10
703.9891823858172
 20
23.9625
 30
0.0
 40
3.4375
  1
ＣＯ.,ＬＴＤ.
 41
1.243830523306697
  7
EXCADSTD
100
AcDbText
  0
TEXT
  5
1CB
330
1F
100
AcDbEntity
  8
LAY-255
  6
CONTINUOUS
 62
     7
100
AcDbText
 10
588.06875
 20
27.4375
 30
0.0
 40
10.3125
  1
S
 41
0.7582677563636363
  7
EXCADSTD
100
AcDbText
  0
TEXT
  5
1CC
330
1F
100
AcDbEntity
  8
LAY-255
  6
CONTINUOUS
 62
     7
100
AcDbText
 10
594.209375
 20
27.49882075472
 30
0.0
 40
10.3125
  1
F
 41
0.7440945272727272
  7
EXCADSTD
100
AcDbText
  0
TEXT
  5
1CD
330
1F
100
AcDbEntity
  8
LAY-255
  6
CONTINUOUS
 62
     7
100
AcDbText
 10
674.2109375
 20
48.84374999999998
 30
0.0
 40
5.15625
  1
縮尺
 41
1.080708718181818
  7
EXCADSTD
100
AcDbText
  0
TEXT
  5
1CE
330
1F
100
AcDbEntity
  8
LAY-255
  6
CONTINUOUS
 62
     7
100
AcDbText
 10
574.53125
 20
113.125
 30
0.0
 40
6.875
  1
型式
 41
1.056348480681818
  7
EXCADSTD
100
AcDbText
  0
TEXT
  5
1CF
330
1F
100
AcDbEntity
  8
LAY-255
  6
CONTINUOUS
 62
     7
100
AcDbText
 10
574.84375
 20
125.125
 30
0.0
 40
6.875
  1
品名
 41
0.978838634090909
  7
EXCADSTD
100
AcDbText
  0
TEXT
  5
1D0
330
1F
100
AcDbEntity
  8
LAY-255
  6
CONTINUOUS
 62
     7
100
AcDbText
 10
574.3046875
 20
48.84374999999998
 30
0.0
 40
5.15625
  1
作成日
 41
1.000629973818182
  7
EXCADSTD
100
AcDbText
  0
TEXT
  5
1D1
330
1F
100
AcDbEntity
  8
LAY-255
  6
CONTINUOUS
 62
     7
100
AcDbText
 10
600.46875
 20
125.125
 30
0.0
 40
6.875
  1
オーバーフロー管
 41
1.019460121038961
  7
EXCADSTD
100
AcDbText
  0
TEXT
  5
1D2
330
1F
100
AcDbEntity
  8
LAY-255
  6
CONTINUOUS
 62
     7
100
AcDbText
 10
578.28125
 20
101.125
 30
0.0
 40
6.875
  1
材質：オールステンレス鋼
 41
1.016862332418525
  7
EXCADSTD
100
AcDbText
  0
TEXT
  5
1D3
330
1F
100
AcDbEntity
  8
LAY-255
  6
CONTINUOUS
 62
     7
100
AcDbText
 10
696.5625
 20
47.12499999999998
 30
0.0
 40
6.875
  1
１：２
 41
0.888661464
  7
EXCADSTD
100
AcDbText
  0
TEXT
  5
1D4
330
1F
100
AcDbEntity
  8
LAY-255
  6
CONTINUOUS
 62
     7
100
AcDbText
 10
601.65625
 20
113.125
 30
0.0
 40
6.875
  1
ＮＯＦＳ－５１０型
 41
1.00109643452244
  7
EXCADSTD
100
AcDbText
  0
TEXT
  5
1D5
330
1F
100
AcDbEntity
  8
LAY-255
  6
CONTINUOUS
 62
     7
100
AcDbText
 10
601.78125
 20
47.12499999999998
 30
0.0
 40
6.875
  1
０７／０１／０５
 41
0.9779528072727272
  7
EXCADSTD
100
AcDbText
  0
TEXT
  5
1D6
330
1F
100
AcDbEntity
  8
LAY-255
  6
CONTINUOUS
 62
     7
100
AcDbText
 10
578.75
 20
81.12500000000003
 30
0.0
 40
6.875
  1
※Ｌ１寸法,及びＬ２寸法をご指定下さい。
 41
0.9650242526912179
  7
EXCADSTD
100
AcDbText
  0
ENDSEC
  0
SECTION
  2
OBJECTS
  0
DICTIONARY
  5
C
330
0
100
AcDbDictionary
  3
ACAD_GROUP
350
D
  3
ACAD_LAYOUT
350
1A
  3
ACAD_MATERIAL
350
43
  3
ACAD_MLEADERSTYLE
350
6B
  3
ACAD_MLINESTYLE
350
17
  3
ACAD_PLOTSETTINGS
350
19
  3
ACAD_SCALELIST
350
47
  3
ACAD_VISUALSTYLE
350
2A
  3
ACDBHEADERROUNDTRIPXREC
350
1D7
  3
ACDBVARIABLEDICTIONARY
350
1F8
  0
DICTIONARY
  5
203
330
8
100
AcDbDictionary
280
     1
  3
ACAD_XREC_ROUNDTRIP
360
204
  0
DICTIONARY
  5
D
102
{ACAD_REACTORS
330
C
102
}
330
C
100
AcDbDictionary
  0
DICTIONARY
  5
1A
102
{ACAD_REACTORS
330
C
102
}
330
C
100
AcDbDictionary
  0
DICTIONARY
  5
43
102
{ACAD_REACTORS
330
C
102
}
330
C
100
AcDbDictionary
  3
BYBLOCK
350
45
  3
BYLAYER
350
44
  3
GLOBAL
350
46
  0
DICTIONARY
  5
6B
102
{ACAD_REACTORS
330
C
102
}
330
C
100
AcDbDictionary
  3
STANDARD
350
6C
  0
DICTIONARY
  5
17
102
{ACAD_REACTORS
330
C
102
}
330
C
100
AcDbDictionary
  3
STANDARD
350
18
  0
DICTIONARY
  5
19
102
{ACAD_REACTORS
330
C
102
}
330
C
100
AcDbDictionary
  0
DICTIONARY
  5
47
102
{ACAD_REACTORS
330
C
102
}
330
C
100
AcDbDictionary
  3
A0
350
48
  3
A1
350
49
  3
A2
350
4A
  3
A3
350
4B
  3
A4
350
4C
  3
A5
350
4D
  3
A6
350
4E
  3
A7
350
4F
  3
A8
350
50
  3
A9
350
51
  3
B0
350
52
  3
B1
350
53
  3
B2
350
54
  3
B3
350
55
  3
B4
350
56
  3
B5
350
57
  3
B6
350
58
  3
B7
350
59
  3
B8
350
5A
  3
B9
350
5B
  3
C0
350
5C
  3
C1
350
5D
  3
C2
350
5E
  3
C3
350
5F
  3
C4
350
60
  3
C5
350
61
  3
C6
350
62
  3
C7
350
63
  3
C8
350
64
  3
C9
350
65
  3
D0
350
66
  3
D1
350
67
  3
D2
350
68
  0
DICTIONARY
  5
2A
102
{ACAD_REACTORS
330
C
102
}
330
C
100
AcDbDictionary
  3
2DWIREFRAME
350
2F
  3
BASIC
350
32
  3
BRIGHTEN
350
36
  3
COLORCHANGE
350
3A
  3
CONCEPTUAL
350
34
  3
DIM
350
35
  3
EDGECOLOROFF
350
3D
  3
FACEPATTERN
350
39
  3
FLAT
350
2B
  3
FLATWITHEDGES
350
2C
  3
GOURAUD
350
2D
  3
GOURAUDWITHEDGES
350
2E
  3
HIDDEN
350
31
  3
JITTEROFF
350
3B
  3
LINEPATTERN
350
38
  3
OVERHANGOFF
350
3C
  3
REALISTIC
350
33
  3
SHADED
350
42
  3
SHADED_WITH_EDGES
350
41
  3
SHADES_OF_GRAY
350
3E
  3
SKETCHY
350
3F
  3
THICKEN
350
37
  3
WIREFRAME
350
30
  3
X-RAY
350
40
  0
DICTIONARY
  5
1D7
102
{ACAD_REACTORS
330
C
102
}
330
C
100
AcDbDictionary
  3
CEPSNID
350
1E1
  3
CEPSNTYPE
350
1E0
  3
DIMSTYLEDATA
350
1F7
  3
FINGERPRINTGUID
350
1E2
  3
HYPERLINKBASE
350
1DA
  3
INSUNITS
350
1DF
  3
LAYOUTDICT
350
1DC
  3
LWETCUNION
350
1DE
  3
PLOTSETDICT
350
1DD
  3
PSVPSCALE
350
1E4
  3
PUCSBASE
350
1E7
  3
PUCSORGBACK
350
1ED
  3
PUCSORGBOTTOM
350
1E9
  3
PUCSORGFRONT
350
1EC
  3
PUCSORGLEFT
350
1EA
  3
PUCSORGRIGHT
350
1EB
  3
PUCSORGTOP
350
1E8
  3
PUCSORTHOREF
350
1E5
  3
PUCSORTHOVIEW
350
1E6
  3
STYLESHEET
350
1DB
  3
TSTACKALIGN
350
1D8
  3
TSTACKSIZE
350
1D9
  3
UCSBASE
350
1F0
  3
UCSORGBACK
350
1F6
  3
UCSORGBOTTOM
350
1F2
  3
UCSORGFRONT
350
1F5
  3
UCSORGLEFT
350
1F3
  3
UCSORGRIGHT
350
1F4
  3
UCSORGTOP
350
1F1
  3
UCSORTHOREF
350
1EE
  3
UCSORTHOVIEW
350
1EF
  3
VERSIONGUID
350
1E3
  0
DICTIONARY
  5
1F8
102
{ACAD_REACTORS
330
C
102
}
330
C
100
AcDbDictionary
  3
CANNOSCALE
350
205
  3
CENTEREXE
350
1FF
  3
CENTERLTYPEFILE
350
200
  3
CMLEADERSTYLE
350
1FA
  3
CTABLESTYLE
350
1F9
  3
DIMASSOC
350
201
  3
HIDETEXT
350
202
  3
MSLTSCALE
350
206
  3
PSOLHEIGHT
350
1FC
  3
PSOLWIDTH
350
1FB
  0
XRECORD
  5
204
102
{ACAD_REACTORS
330
203
102
}
330
203
100
AcDbXrecord
102
VTR_0.000_0.000_1.000_1.000_VISUALSTYLE
340
2F
102
VTR_0.000_0.000_1.000_1.000_GRIDDISPLAY
 70
     3
102
VTR_0.000_0.000_1.000_1.000_GRIDMAJOR
 70
     5
102
VTR_0.000_0.000_1.000_1.000_DEFAULTLIGHTING
280
     1
102
VTR_0.000_0.000_1.000_1.000_DEFAULTLIGHTINGTYPE
 70
     1
102
VTR_0.000_0.000_1.000_1.000_BRIGHTNESS
141
0.0
102
VTR_0.000_0.000_1.000_1.000_CONTRAST
142
0.0
  0
MATERIAL
  5
45
102
{ACAD_REACTORS
330
43
102
}
102
{ACAD_XDICTIONARY
360
209
102
}
330
43
100
AcDbMaterial
  1
BYBLOCK
  0
MATERIAL
  5
44
102
{ACAD_REACTORS
330
43
102
}
102
{ACAD_XDICTIONARY
360
207
102
}
330
43
100
AcDbMaterial
  1
BYLAYER
  0
MATERIAL
  5
46
102
{ACAD_REACTORS
330
43
102
}
102
{ACAD_XDICTIONARY
360
20B
102
}
330
43
100
AcDbMaterial
  1
GLOBAL
  0
ACAD_PROXY_OBJECT
  5
6C
102
{ACAD_REACTORS
330
6B
102
}
330
6B
100
AcDbProxyObject
 90
      499
 91
      505
 93
      610
310
40901902A4063FBFFFFFE0000000000000020400000000000020404214DD185B99185C990000000000000104090141901A00000000000004100000000000000041025764000000000000039000
340
14
340
0
340
11
340
0
 94
        0
1001
ACAD_MLEADERVER
1070
     2
  0
MLINESTYLE
  5
18
102
{ACAD_REACTORS
330
17
102
}
330
17
100
AcDbMlineStyle
  2
Standard
 70
     0
  3

 62
   256
 51
90.0
 52
90.0
 71
     2
 49
0.5
 62
   256
  6
BYLAYER
 49
-0.5
 62
   256
  6
BYLAYER
  0
ACAD_PROXY_OBJECT
  5
48
102
{ACAD_REACTORS
330
47
102
}
330
47
100
AcDbProxyObject
 90
      499
 91
      503
 93
       41
310
903313A31580
  0
ACAD_PROXY_OBJECT
  5
49
102
{ACAD_REACTORS
330
47
102
}
330
47
100
AcDbProxyObject
 90
      499
 91
      503
 93
      105
310
903313A324000000000000004000
  0
ACAD_PROXY_OBJECT
  5
4A
102
{ACAD_REACTORS
330
47
102
}
330
47
100
AcDbProxyObject
 90
      499
 91
      503
 93
      105
310
903313A344000000000000104000
  0
ACAD_PROXY_OBJECT
  5
4B
102
{ACAD_REACTORS
330
47
102
}
330
47
100
AcDbProxyObject
 90
      499
 91
      503
 93
      105
310
903313A354000000000000144000
  0
ACAD_PROXY_OBJECT
  5
4C
102
{ACAD_REACTORS
330
47
102
}
330
47
100
AcDbProxyObject
 90
      499
 91
      503
 93
      105
310
903313A384000000000000204000
  0
ACAD_PROXY_OBJECT
  5
4D
102
{ACAD_REACTORS
330
47
102
}
330
47
100
AcDbProxyObject
 90
      499
 91
      503
 93
      113
310
904313A31304000000000000244000
  0
ACAD_PROXY_OBJECT
  5
4E
102
{ACAD_REACTORS
330
47
102
}
330
47
100
AcDbProxyObject
 90
      499
 91
      503
 93
      113
310
904313A31364000000000000304000
  0
ACAD_PROXY_OBJECT
  5
4F
102
{ACAD_REACTORS
330
47
102
}
330
47
100
AcDbProxyObject
 90
      499
 91
      503
 93
      113
310
904313A32304000000000000344000
  0
ACAD_PROXY_OBJECT
  5
50
102
{ACAD_REACTORS
330
47
102
}
330
47
100
AcDbProxyObject
 90
      499
 91
      503
 93
      113
310
904313A333040000000000003E4000
  0
ACAD_PROXY_OBJECT
  5
51
102
{ACAD_REACTORS
330
47
102
}
330
47
100
AcDbProxyObject
 90
      499
 91
      503
 93
      113
310
904313A34304000000000000444000
  0
ACAD_PROXY_OBJECT
  5
52
102
{ACAD_REACTORS
330
47
102
}
330
47
100
AcDbProxyObject
 90
      499
 91
      503
 93
      113
310
904313A35304000000000000494000
  0
ACAD_PROXY_OBJECT
  5
53
102
{ACAD_REACTORS
330
47
102
}
330
47
100
AcDbProxyObject
 90
      499
 91
      503
 93
      121
310
905313A3130304000000000000594000
  0
ACAD_PROXY_OBJECT
  5
54
102
{ACAD_REACTORS
330
47
102
}
330
47
100
AcDbProxyObject
 90
      499
 91
      503
 93
      105
310
903323A310000000000000010100
  0
ACAD_PROXY_OBJECT
  5
55
102
{ACAD_REACTORS
330
47
102
}
330
47
100
AcDbProxyObject
 90
      499
 91
      503
 93
      105
310
903343A310000000000000410100
  0
ACAD_PROXY_OBJECT
  5
56
102
{ACAD_REACTORS
330
47
102
}
330
47
100
AcDbProxyObject
 90
      499
 91
      503
 93
      105
310
903383A310000000000000810100
  0
ACAD_PROXY_OBJECT
  5
57
102
{ACAD_REACTORS
330
47
102
}
330
47
100
AcDbProxyObject
 90
      499
 91
      503
 93
      113
310
90431303A310000000000000910100
  0
ACAD_PROXY_OBJECT
  5
58
102
{ACAD_REACTORS
330
47
102
}
330
47
100
AcDbProxyObject
 90
      499
 91
      503
 93
      121
310
9053130303A310000000000001650100
  0
ACAD_PROXY_OBJECT
  5
59
102
{ACAD_REACTORS
330
47
102
}
330
47
100
AcDbProxyObject
 90
      499
 91
      503
 93
      257
310
90E312F31323822203D2031272D3022000000000000200FC000000000000284000
  0
ACAD_PROXY_OBJECT
  5
5A
102
{ACAD_REACTORS
330
47
102
}
330
47
100
AcDbProxyObject
 90
      499
 91
      503
 93
      249
310
90D312F363422203D2031272D3022000000000000240FC000000000000284000
  0
ACAD_PROXY_OBJECT
  5
5B
102
{ACAD_REACTORS
330
47
102
}
330
47
100
AcDbProxyObject
 90
      499
 91
      503
 93
      249
310
90D312F333222203D2031272D3022000000000000280FC000000000000284000
  0
ACAD_PROXY_OBJECT
  5
5C
102
{ACAD_REACTORS
330
47
102
}
330
47
100
AcDbProxyObject
 90
      499
 91
      503
 93
      249
310
90D312F313622203D2031272D30220000000000002C0FC000000000000284000
  0
ACAD_PROXY_OBJECT
  5
5D
102
{ACAD_REACTORS
330
47
102
}
330
47
100
AcDbProxyObject
 90
      499
 91
      503
 93
      249
310
90D332F333222203D2031272D30220000000000002E0FC000000000000284000
  0
ACAD_PROXY_OBJECT
  5
5E
102
{ACAD_REACTORS
330
47
102
}
330
47
100
AcDbProxyObject
 90
      499
 91
      503
 93
      241
310
90C312F3822203D2031272D3022000000000000300FC000000000000284000
  0
ACAD_PROXY_OBJECT
  5
5F
102
{ACAD_REACTORS
330
47
102
}
330
47
100
AcDbProxyObject
 90
      499
 91
      503
 93
      249
310
90D332F313622203D2031272D3022000000000000320FC000000000000284000
  0
ACAD_PROXY_OBJECT
  5
60
102
{ACAD_REACTORS
330
47
102
}
330
47
100
AcDbProxyObject
 90
      499
 91
      503
 93
      241
310
90C312F3422203D2031272D3022000000000000340FC000000000000284000
  0
ACAD_PROXY_OBJECT
  5
61
102
{ACAD_REACTORS
330
47
102
}
330
47
100
AcDbProxyObject
 90
      499
 91
      503
 93
      241
310
90C332F3822203D2031272D3022000000000000360FC000000000000284000
  0
ACAD_PROXY_OBJECT
  5
62
102
{ACAD_REACTORS
330
47
102
}
330
47
100
AcDbProxyObject
 90
      499
 91
      503
 93
      241
310
90C312F3222203D2031272D3022000000000000380FC000000000000284000
  0
ACAD_PROXY_OBJECT
  5
63
102
{ACAD_REACTORS
330
47
102
}
330
47
100
AcDbProxyObject
 90
      499
 91
      503
 93
      241
310
90C332F3422203D2031272D30220000000000003A0FC000000000000284000
  0
ACAD_PROXY_OBJECT
  5
64
102
{ACAD_REACTORS
330
47
102
}
330
47
100
AcDbProxyObject
 90
      499
 91
      503
 93
      161
310
90A3122203D2031272D30224000000000000284000
  0
ACAD_PROXY_OBJECT
  5
65
102
{ACAD_REACTORS
330
47
102
}
330
47
100
AcDbProxyObject
 90
      499
 91
      503
 93
      257
310
90E312D312F3222203D2031272D30220000000000003E0FC000000000000284000
  0
ACAD_PROXY_OBJECT
  5
66
102
{ACAD_REACTORS
330
47
102
}
330
47
100
AcDbProxyObject
 90
      499
 91
      503
 93
      225
310
90A3322203D2031272D302200000000000002100000000000000284000
  0
ACAD_PROXY_OBJECT
  5
67
102
{ACAD_REACTORS
330
47
102
}
330
47
100
AcDbProxyObject
 90
      499
 91
      503
 93
      225
310
90A3622203D2031272D302200000000000006100000000000000284000
  0
ACAD_PROXY_OBJECT
  5
68
102
{ACAD_REACTORS
330
47
102
}
330
47
100
AcDbProxyObject
 90
      499
 91
      503
 93
      249
310
90D31272D3022203D2031272D30220000000000000A100000000000000284000
  0
ACAD_PROXY_OBJECT
  5
2F
102
{ACAD_REACTORS
330
2A
102
}
330
2A
100
AcDbProxyObject
 90
      499
 91
      501
 93
      436
310
42CC9915DA5C99599C985B595049028333333333333E33F0000000000000F90107901411070040501600405405064090741402480A0340
1001
ACAD
1000
AcDbSavedByObjectVersion
1070
     0
  0
ACAD_PROXY_OBJECT
  5
32
102
{ACAD_REACTORS
330
2A
102
}
330
2A
100
AcDbProxyObject
 90
      499
 91
      501
 93
      388
310
4150985CDA58D07406404333333333333E33F0000000000000F90107A41107004050150841D405064090741402480A0350
1001
ACAD
1000
AcDbSavedByObjectVersion
1070
     0
  0
ACAD_PROXY_OBJECT
  5
36
102
{ACAD_REACTORS
330
2A
102
}
330
2A
100
AcDbProxyObject
 90
      499
 91
      501
 93
      428
310
42109C9A59DA1D195B90C409028333333333333E33F0000000000000F9010790141107004050150841D405064090741402480A029950
1001
ACAD
1000
AcDbSavedByObjectVersion
1070
     0
  0
ACAD_PROXY_OBJECT
  5
3A
102
{ACAD_REACTORS
330
2A
102
}
330
2A
100
AcDbProxyObject
 90
      499
 91
      501
 93
      452
310
42D0DBDB1BDC90DA185B99D95104090240C333333333333E33F0000000000000F90108901411070040501508421405064090741402480A0350
1001
ACAD
1000
AcDbSavedByObjectVersion
1070
     0
  0
ACAD_PROXY_OBJECT
  5
34
102
{ACAD_REACTORS
330
2A
102
}
330
2A
100
AcDbProxyObject
 90
      499
 91
      501
 93
      500
310
4290DBDB98D95C1D1D585B10940D028333333333333E33F0000000000000F90107902409070040501000000000018199010841D405064090740C02480A0340
1001
ACAD
1000
AcDbSavedByObjectVersion
1070
     0
  0
ACAD_PROXY_OBJECT
  5
35
102
{ACAD_REACTORS
330
2A
102
}
330
2A
100
AcDbProxyObject
 90
      499
 91
      501
 93
      412
310
40D11A5B50B409028333333333333E33F0000000000000F9010790141107004050150841D405064090741402480A02677FFFFFD0
1001
ACAD
1000
AcDbSavedByObjectVersion
1070
     0
  0
ACAD_PROXY_OBJECT
  5
3D
102
{ACAD_REACTORS
330
2A
102
}
330
2A
100
AcDbProxyObject
 90
      499
 91
      501
 93
      452
310
43115919D950DBDB1BDC93D999916409028333333333333E33F0000000000000F9010790141107004050150841D405064090741402480A0350
1001
ACAD
1000
AcDbSavedByObjectVersion
1070
     0
  0
ACAD_PROXY_OBJECT
  5
39
102
{ACAD_REACTORS
330
2A
102
}
330
2A
100
AcDbProxyObject
 90
      499
 91
      501
 93
      444
310
42D19858D95C185D1D195C9B90F409028333333333333E33F0000000000000F9010790141107004050150841D405064090741402480A0350
1001
ACAD
1000
AcDbSavedByObjectVersion
1070
     0
  0
ACAD_PROXY_OBJECT
  5
2B
102
{ACAD_REACTORS
330
2A
102
}
330
2A
100
AcDbProxyObject
 90
      499
 91
      501
 93
      380
310
41119B185D240901404333333333333E33F0000000000000F9010740A907004050150841D405064090741402480A1B50
1001
ACAD
1000
AcDbSavedByObjectVersion
1070
     0
  0
ACAD_PROXY_OBJECT
  5
2C
102
{ACAD_REACTORS
330
2A
102
}
330
2A
100
AcDbProxyObject
 90
      499
 91
      501
 93
      468
310
43519B185D15DA5D1A115919D95CD0140901404333333333333E33F0000000000000F90107409019070040501600405405064090741402480A1B50
1001
ACAD
1000
AcDbSavedByObjectVersion
1070
     0
  0
ACAD_PROXY_OBJECT
  5
2D
102
{ACAD_REACTORS
330
2A
102
}
330
2A
100
AcDbProxyObject
 90
      499
 91
      501
 93
      404
310
41D1DBDD5C985D5910240902404333333333333E33F0000000000000F9010740A9070040501641D405064090741402480A1B50
1001
ACAD
1000
AcDbSavedByObjectVersion
1070
     0
  0
ACAD_PROXY_OBJECT
  5
2E
102
{ACAD_REACTORS
330
2A
102
}
330
2A
100
AcDbProxyObject
 90
      499
 91
      501
 93
      492
310
4411DBDD5C985D5915DA5D1A115919D95CD0340902404333333333333E33F0000000000000F90107409019070040501600405405064090741402480A1B50
1001
ACAD
1000
AcDbSavedByObjectVersion
1070
     0
  0
ACAD_PROXY_OBJECT
  5
31
102
{ACAD_REACTORS
330
2A
102
}
330
2A
100
AcDbProxyObject
 90
      499
 91
      501
 93
      476
310
41921A5919195B90640502408333333333333E33F0000000000000F901079024090700405020000000000001110200405405064090740C02480A0340
1001
ACAD
1000
AcDbSavedByObjectVersion
1070
     0
  0
ACAD_PROXY_OBJECT
  5
3B
102
{ACAD_REACTORS
330
2A
102
}
330
2A
100
AcDbProxyObject
 90
      499
 91
      501
 93
      428
310
42529A5D1D195C93D999914409028333333333333E33F0000000000000F9010790141107004050150A41D405064090741402480A0350
1001
ACAD
1000
AcDbSavedByObjectVersion
1070
     0
  0
ACAD_PROXY_OBJECT
  5
38
102
{ACAD_REACTORS
330
2A
102
}
330
2A
100
AcDbProxyObject
 90
      499
 91
      501
 93
      444
310
42D31A5B995C185D1D195C9B90E409028333333333333E33F0000000000000F9010790141107004050750841D405064090741402483A0350
1001
ACAD
1000
AcDbSavedByObjectVersion
1070
     0
  0
ACAD_PROXY_OBJECT
  5
3C
102
{ACAD_REACTORS
330
2A
102
}
330
2A
100
AcDbProxyObject
 90
      499
 91
      501
 93
      444
310
42D3DD995C9A185B99D3D999915409028333333333333E33F0000000000000F9010790141107004050150941D405064090741402480A0350
1001
ACAD
1000
AcDbSavedByObjectVersion
1070
     0
  0
ACAD_PROXY_OBJECT
  5
33
102
{ACAD_REACTORS
330
2A
102
}
330
2A
100
AcDbProxyObject
 90
      499
 91
      501
 93
      428
310
425499585B1A5CDD1A58D08409038333333333333E33F0000000000000F9010740A907004050150800405405064090740C02480A1B40
1001
ACAD
1000
AcDbSavedByObjectVersion
1070
     0
  0
ACAD_PROXY_OBJECT
  5
42
102
{ACAD_REACTORS
330
2A
102
}
330
2A
100
AcDbProxyObject
 90
      499
 91
      501
 93
      420
310
4194DA1859195911B40902404333333333333E33F0000000000000F9010740A41107004050150800405405064090840C02480A0B40
1001
ACAD
1000
AcDbSavedByObjectVersion
1070
     0
  0
ACAD_PROXY_OBJECT
  5
41
102
{ACAD_REACTORS
330
2A
102
}
330
2A
100
AcDbProxyObject
 90
      499
 91
      501
 93
      516
310
4454DA18591959081DDA5D1A08195919D95CD1A40902404333333333333E33F0000000000000F901074090142907004050250800405405064090740C02480A0B40
1001
ACAD
1000
AcDbSavedByObjectVersion
1070
     0
  0
ACAD_PROXY_OBJECT
  5
3E
102
{ACAD_REACTORS
330
2A
102
}
330
2A
100
AcDbProxyObject
 90
      499
 91
      501
 93
      532
310
4394DA1859195CC81BD98811DC985E5174090240C333333333333E33F0000000000000F901079024090741D01000000000000111010841D405064090740C02480A0340
1001
ACAD
1000
AcDbSavedByObjectVersion
1070
     0
  0
ACAD_PROXY_OBJECT
  5
3F
102
{ACAD_REACTORS
330
2A
102
}
330
2A
100
AcDbProxyObject
 90
      499
 91
      501
 93
      476
310
41D4DAD95D18DA1E51840502408333333333333E33F0000000000000F901079024090741D01000000000000111010B41D405064090741802480A0340
1001
ACAD
1000
AcDbSavedByObjectVersion
1070
     0
  0
ACAD_PROXY_OBJECT
  5
37
102
{ACAD_REACTORS
330
2A
102
}
330
2A
100
AcDbProxyObject
 90
      499
 91
      501
 93
      412
310
41D51A1A58DAD95B90D409028333333333333E33F0000000000000F9010790141107004050150C41D405064090741402480A0350
1001
ACAD
1000
AcDbSavedByObjectVersion
1070
     0
  0
ACAD_PROXY_OBJECT
  5
30
102
{ACAD_REACTORS
330
2A
102
}
330
2A
100
AcDbProxyObject
 90
      499
 91
      501
 93
      420
310
4255DA5C99599C985B595059028333333333333E33F0000000000000F90107901411070040501600405405064090740C02480A0340
1001
ACAD
1000
AcDbSavedByObjectVersion
1070
     0
  0
ACAD_PROXY_OBJECT
  5
40
102
{ACAD_REACTORS
330
2A
102
}
330
2A
100
AcDbProxyObject
 90
      499
 91
      501
 93
      404
310
41560B54985E51940902404000000000000E03F0000000000000F9010740501907004050150841D405064090740C02480A1B40
1001
ACAD
1000
AcDbSavedByObjectVersion
1070
     0
  0
XRECORD
  5
1E1
102
{ACAD_REACTORS
330
1D7
102
}
330
1D7
100
AcDbXrecord
340
0
  0
XRECORD
  5
1E0
102
{ACAD_REACTORS
330
1D7
102
}
330
1D7
100
AcDbXrecord
 90
        0
  0
XRECORD
  5
1F7
102
{ACAD_REACTORS
330
1D7
102
}
330
1D7
100
AcDbXrecord
1000
DSTYLE
1002
{
1070
   340
340
11
1002
}
  0
XRECORD
  5
1E2
102
{ACAD_REACTORS
330
1D7
102
}
330
1D7
100
AcDbXrecord
  1
{38425d83-d15a-4095-ad5f-cf3c79f4bfff}
  0
XRECORD
  5
1DA
102
{ACAD_REACTORS
330
1D7
102
}
330
1D7
100
AcDbXrecord
  1

  0
XRECORD
  5
1DF
102
{ACAD_REACTORS
330
1D7
102
}
330
1D7
100
AcDbXrecord
 90
        4
  0
XRECORD
  5
1DC
102
{ACAD_REACTORS
330
1D7
102
}
330
1D7
100
AcDbXrecord
340
1A
  0
XRECORD
  5
1DE
102
{ACAD_REACTORS
330
1D7
102
}
330
1D7
100
AcDbXrecord
 90
    10781
  0
XRECORD
  5
1DD
102
{ACAD_REACTORS
330
1D7
102
}
330
1D7
100
AcDbXrecord
340
19
  0
XRECORD
  5
1E4
102
{ACAD_REACTORS
330
1D7
102
}
330
1D7
100
AcDbXrecord
 40
0.0
  0
XRECORD
  5
1E7
102
{ACAD_REACTORS
330
1D7
102
}
330
1D7
100
AcDbXrecord
340
0
  0
XRECORD
  5
1ED
102
{ACAD_REACTORS
330
1D7
102
}
330
1D7
100
AcDbXrecord
 10
0.0
 20
0.0
 30
0.0
  0
XRECORD
  5
1E9
102
{ACAD_REACTORS
330
1D7
102
}
330
1D7
100
AcDbXrecord
 10
0.0
 20
0.0
 30
0.0
  0
XRECORD
  5
1EC
102
{ACAD_REACTORS
330
1D7
102
}
330
1D7
100
AcDbXrecord
 10
0.0
 20
0.0
 30
0.0
  0
XRECORD
  5
1EA
102
{ACAD_REACTORS
330
1D7
102
}
330
1D7
100
AcDbXrecord
 10
0.0
 20
0.0
 30
0.0
  0
XRECORD
  5
1EB
102
{ACAD_REACTORS
330
1D7
102
}
330
1D7
100
AcDbXrecord
 10
0.0
 20
0.0
 30
0.0
  0
XRECORD
  5
1E8
102
{ACAD_REACTORS
330
1D7
102
}
330
1D7
100
AcDbXrecord
 10
0.0
 20
0.0
 30
0.0
  0
XRECORD
  5
1E5
102
{ACAD_REACTORS
330
1D7
102
}
330
1D7
100
AcDbXrecord
340
0
  0
XRECORD
  5
1E6
102
{ACAD_REACTORS
330
1D7
102
}
330
1D7
100
AcDbXrecord
 70
     0
  0
XRECORD
  5
1DB
102
{ACAD_REACTORS
330
1D7
102
}
330
1D7
100
AcDbXrecord
  1

  0
XRECORD
  5
1D8
102
{ACAD_REACTORS
330
1D7
102
}
330
1D7
100
AcDbXrecord
 90
        1
  0
XRECORD
  5
1D9
102
{ACAD_REACTORS
330
1D7
102
}
330
1D7
100
AcDbXrecord
 90
       70
  0
XRECORD
  5
1F0
102
{ACAD_REACTORS
330
1D7
102
}
330
1D7
100
AcDbXrecord
340
0
  0
XRECORD
  5
1F6
102
{ACAD_REACTORS
330
1D7
102
}
330
1D7
100
AcDbXrecord
 10
0.0
 20
0.0
 30
0.0
  0
XRECORD
  5
1F2
102
{ACAD_REACTORS
330
1D7
102
}
330
1D7
100
AcDbXrecord
 10
0.0
 20
0.0
 30
0.0
  0
XRECORD
  5
1F5
102
{ACAD_REACTORS
330
1D7
102
}
330
1D7
100
AcDbXrecord
 10
0.0
 20
0.0
 30
0.0
  0
XRECORD
  5
1F3
102
{ACAD_REACTORS
330
1D7
102
}
330
1D7
100
AcDbXrecord
 10
0.0
 20
0.0
 30
0.0
  0
XRECORD
  5
1F4
102
{ACAD_REACTORS
330
1D7
102
}
330
1D7
100
AcDbXrecord
 10
0.0
 20
0.0
 30
0.0
  0
XRECORD
  5
1F1
102
{ACAD_REACTORS
330
1D7
102
}
330
1D7
100
AcDbXrecord
 10
0.0
 20
0.0
 30
0.0
  0
XRECORD
  5
1EE
102
{ACAD_REACTORS
330
1D7
102
}
330
1D7
100
AcDbXrecord
340
0
  0
XRECORD
  5
1EF
102
{ACAD_REACTORS
330
1D7
102
}
330
1D7
100
AcDbXrecord
 70
     0
  0
XRECORD
  5
1E3
102
{ACAD_REACTORS
330
1D7
102
}
330
1D7
100
AcDbXrecord
  1
{FAEB1C32-E019-11D5-929B-00C0DF256EC4}
  0
DICTIONARYVAR
  5
205
102
{ACAD_REACTORS
330
1F8
102
}
330
1F8
100
DictionaryVariables
280
     0
  1
1:1
  0
DICTIONARYVAR
  5
1FF
102
{ACAD_REACTORS
330
1F8
102
}
330
1F8
100
DictionaryVariables
280
     0
  1
3.500000
  0
DICTIONARYVAR
  5
200
102
{ACAD_REACTORS
330
1F8
102
}
330
1F8
100
DictionaryVariables
280
     0
  1
acadiso.lin
  0
DICTIONARYVAR
  5
1FA
102
{ACAD_REACTORS
330
1F8
102
}
330
1F8
100
DictionaryVariables
280
     0
  1
Standard
  0
DICTIONARYVAR
  5
1F9
102
{ACAD_REACTORS
330
1F8
102
}
330
1F8
100
DictionaryVariables
280
     0
  1
Standard
  0
DICTIONARYVAR
  5
201
102
{ACAD_REACTORS
330
1F8
102
}
330
1F8
100
DictionaryVariables
280
     0
  1
2
  0
DICTIONARYVAR
  5
202
102
{ACAD_REACTORS
330
1F8
102
}
330
1F8
100
DictionaryVariables
280
     0
  1
1
  0
DICTIONARYVAR
  5
206
102
{ACAD_REACTORS
330
1F8
102
}
330
1F8
100
DictionaryVariables
280
     0
  1
1
  0
DICTIONARYVAR
  5
1FC
102
{ACAD_REACTORS
330
1F8
102
}
330
1F8
100
DictionaryVariables
280
     0
  1
80.000000
  0
DICTIONARYVAR
  5
1FB
102
{ACAD_REACTORS
330
1F8
102
}
330
1F8
100
DictionaryVariables
280
     0
  1
5.000000
  0
DICTIONARY
  5
209
330
45
100
AcDbDictionary
280
     1
  3
ACAD_XREC_ROUNDTRIP
360
20A
  0
DICTIONARY
  5
207
330
44
100
AcDbDictionary
280
     1
  3
ACAD_XREC_ROUNDTRIP
360
208
  0
DICTIONARY
  5
20B
330
46
100
AcDbDictionary
280
     1
  3
ACAD_XREC_ROUNDTRIP
360
20C
  0
XRECORD
  5
20A
102
{ACAD_REACTORS
330
209
102
}
330
209
100
AcDbXrecord
102
MATERIAL
148
0.0
149
0.0
149
0.0
 93
        0
 94
      127
282
     0
 72
     1
 77
     1
171
     1
175
     1
179
     1
273
     0
  0
XRECORD
  5
208
102
{ACAD_REACTORS
330
207
102
}
330
207
100
AcDbXrecord
102
MATERIAL
148
0.0
149
0.0
149
0.0
 93
        0
 94
      127
282
     0
 72
     1
 77
     1
171
     1
175
     1
179
     1
273
     0
  0
XRECORD
  5
20C
102
{ACAD_REACTORS
330
20B
102
}
330
20B
100
AcDbXrecord
102
MATERIAL
148
0.0
149
0.0
149
0.0
 93
        0
 94
      127
282
     0
 72
     1
 77
     1
171
     1
175
     1
179
     1
273
     0
  0
ENDSEC
  0
EOF
