  0
SECTION
  2
HEADER
  9
$ACADVER
  1
AC1014
  9
$ACADMAINTVER
 70
     9
  9
$DWGCODEPAGE
  3
ANSI_932
  9
$INSBASE
 10
0.0
 20
0.0
 30
0.0
  9
$EXTMIN
 10
25.0
 20
50.0
 30
0.0
  9
$EXTMAX
 10
1925.0
 20
1400.0
 30
0.0
  9
$LIMMIN
 10
0.0
 20
0.0
  9
$LIMMAX
 10
420.0
 20
297.0
  9
$ORTHOMODE
 70
     0
  9
$REGENMODE
 70
     1
  9
$FILLMODE
 70
     1
  9
$QTEXTMODE
 70
     0
  9
$MIRRTEXT
 70
     1
  9
$DRAGMODE
 70
     2
  9
$LTSCALE
 40
0.2
  9
$OSMODE
 70
    37
  9
$ATTMODE
 70
     1
  9
$TEXTSIZE
 40
2.5
  9
$TRACEWID
 40
1.0
  9
$TEXTSTYLE
  7
STANDARD
  9
$CLAYER
  8
LAY-10
  9
$CELTYPE
  6
BYLAYER
  9
$CECOLOR
 62
   256
  9
$CELTSCALE
 40
1.0
  9
$DELOBJ
 70
     1
  9
$DISPSILH
 70
     0
  9
$DIMSCALE
 40
1.0
  9
$DIMASZ
 40
2.5
  9
$DIMEXO
 40
0.625
  9
$DIMDLI
 40
3.75
  9
$DIMRND
 40
0.0
  9
$DIMDLE
 40
0.0
  9
$DIMEXE
 40
1.25
  9
$DIMTP
 40
0.0
  9
$DIMTM
 40
0.0
  9
$DIMTXT
 40
2.5
  9
$DIMCEN
 40
2.5
  9
$DIMTSZ
 40
0.0
  9
$DIMTOL
 70
     0
  9
$DIMLIM
 70
     0
  9
$DIMTIH
 70
     0
  9
$DIMTOH
 70
     0
  9
$DIMSE1
 70
     0
  9
$DIMSE2
 70
     0
  9
$DIMTAD
 70
     1
  9
$DIMZIN
 70
     8
  9
$DIMBLK
  1

  9
$DIMASO
 70
     1
  9
$DIMSHO
 70
     1
  9
$DIMPOST
  1

  9
$DIMAPOST
  1

  9
$DIMALT
 70
     0
  9
$DIMALTD
 70
     3
  9
$DIMALTF
 40
0.03937007874016
  9
$DIMLFAC
 40
1.0
  9
$DIMTOFL
 70
     1
  9
$DIMTVP
 40
0.0
  9
$DIMTIX
 70
     0
  9
$DIMSOXD
 70
     0
  9
$DIMSAH
 70
     0
  9
$DIMBLK1
  1

  9
$DIMBLK2
  1

  9
$DIMSTYLE
  2
ISO-25
  9
$DIMCLRD
 70
     0
  9
$DIMCLRE
 70
     0
  9
$DIMCLRT
 70
     0
  9
$DIMTFAC
 40
1.0
  9
$DIMGAP
 40
0.625
  9
$DIMJUST
 70
     0
  9
$DIMSD1
 70
     0
  9
$DIMSD2
 70
     0
  9
$DIMTOLJ
 70
     0
  9
$DIMTZIN
 70
     8
  9
$DIMALTZ
 70
     0
  9
$DIMALTTZ
 70
     0
  9
$DIMFIT
 70
     3
  9
$DIMUPT
 70
     0
  9
$DIMUNIT
 70
     2
  9
$DIMDEC
 70
     2
  9
$DIMTDEC
 70
     2
  9
$DIMALTU
 70
     2
  9
$DIMALTTD
 70
     3
  9
$DIMTXSTY
  7
STANDARD
  9
$DIMAUNIT
 70
     0
  9
$LUNITS
 70
     2
  9
$LUPREC
 70
     4
  9
$SKETCHINC
 40
1.0
  9
$FILLETRAD
 40
10.0
  9
$AUNITS
 70
     0
  9
$AUPREC
 70
     0
  9
$MENU
  1
.
  9
$ELEVATION
 40
0.0
  9
$PELEVATION
 40
0.0
  9
$THICKNESS
 40
0.0
  9
$LIMCHECK
 70
     0
  9
$CHAMFERA
 40
0.0
  9
$CHAMFERB
 40
0.0
  9
$CHAMFERC
 40
0.0
  9
$CHAMFERD
 40
0.0
  9
$SKPOLY
 70
     0
  9
$TDCREATE
 40
2459229.337034259
  9
$TDUPDATE
 40
2459229.337035185
  9
$TDINDWG
 40
0.0000000116
  9
$TDUSRTIMER
 40
0.0000000116
  9
$USRTIMER
 70
     1
  9
$ANGBASE
 50
0.0
  9
$ANGDIR
 70
     0
  9
$PDMODE
 70
     0
  9
$PDSIZE
 40
0.0
  9
$PLINEWID
 40
0.0
  9
$COORDS
 70
     1
  9
$SPLFRAME
 70
     0
  9
$SPLINETYPE
 70
     6
  9
$SPLINESEGS
 70
     8
  9
$ATTDIA
 70
     0
  9
$ATTREQ
 70
     1
  9
$HANDLING
 70
     1
  9
$HANDSEED
  5
6B6
  9
$SURFTAB1
 70
     6
  9
$SURFTAB2
 70
     6
  9
$SURFTYPE
 70
     6
  9
$SURFU
 70
     6
  9
$SURFV
 70
     6
  9
$UCSNAME
  2

  9
$UCSORG
 10
0.0
 20
0.0
 30
0.0
  9
$UCSXDIR
 10
1.0
 20
0.0
 30
0.0
  9
$UCSYDIR
 10
0.0
 20
1.0
 30
0.0
  9
$PUCSNAME
  2

  9
$PUCSORG
 10
0.0
 20
0.0
 30
0.0
  9
$PUCSXDIR
 10
1.0
 20
0.0
 30
0.0
  9
$PUCSYDIR
 10
0.0
 20
1.0
 30
0.0
  9
$USERI1
 70
     0
  9
$USERI2
 70
     0
  9
$USERI3
 70
     0
  9
$USERI4
 70
     0
  9
$USERI5
 70
     0
  9
$USERR1
 40
0.0
  9
$USERR2
 40
0.0
  9
$USERR3
 40
0.0
  9
$USERR4
 40
0.0
  9
$USERR5
 40
0.0
  9
$WORLDVIEW
 70
     1
  9
$SHADEDGE
 70
     3
  9
$SHADEDIF
 70
    70
  9
$TILEMODE
 70
     1
  9
$MAXACTVP
 70
    64
  9
$PINSBASE
 10
0.0
 20
0.0
 30
0.0
  9
$PLIMCHECK
 70
     0
  9
$PEXTMIN
 10
1.000000000000000E+20
 20
1.000000000000000E+20
 30
1.000000000000000E+20
  9
$PEXTMAX
 10
-1.000000000000000E+20
 20
-1.000000000000000E+20
 30
-1.000000000000000E+20
  9
$PLIMMIN
 10
0.0
 20
0.0
  9
$PLIMMAX
 10
420.0
 20
297.0
  9
$UNITMODE
 70
     0
  9
$VISRETAIN
 70
     1
  9
$PLINEGEN
 70
     0
  9
$PSLTSCALE
 70
     1
  9
$TREEDEPTH
 70
  3020
  9
$PICKSTYLE
 70
     1
  9
$CMLSTYLE
  2
STANDARD
  9
$CMLJUST
 70
     0
  9
$CMLSCALE
 40
20.0
  9
$PROXYGRAPHICS
 70
     1
  9
$MEASUREMENT
 70
     1
  0
ENDSEC
  0
SECTION
  2
CLASSES
  0
CLASS
  1
ACDBDICTIONARYWDFLT
  2
AcDbDictionaryWithDefault
  3
ObjectDBX Classes
 90
        0
280
     0
281
     0
  0
CLASS
  1
VISUALSTYLE
  2
AcDbVisualStyle
  3
ObjectDBX Classes
 90
     4095
280
     0
281
     0
  0
CLASS
  1
MATERIAL
  2
AcDbMaterial
  3
ObjectDBX Classes
 90
     1153
280
     0
281
     0
  0
CLASS
  1
SCALE
  2
AcDbScale
  3
ObjectDBX Classes
 90
     1153
280
     0
281
     0
  0
CLASS
  1
TABLESTYLE
  2
AcDbTableStyle
  3
ObjectDBX Classes
 90
     4095
280
     0
281
     0
  0
CLASS
  1
MLEADERSTYLE
  2
AcDbMLeaderStyle
  3
ACDB_MLEADERSTYLE_CLASS
 90
     4095
280
     0
281
     0
  0
CLASS
  1
SUN
  2
AcDbSun
  3
SCENEOE
 90
     1153
280
     0
281
     0
  0
CLASS
  1
DICTIONARYVAR
  2
AcDbDictionaryVar
  3
ObjectDBX Classes
 90
        0
280
     0
281
     0
  0
CLASS
  1
XRECORD
  2
AcDbXrecord
  3
ObjectDBX Classes
 90
        0
280
     0
281
     0
  0
CLASS
  1
LWPOLYLINE
  2
AcDbPolyline
  3
ObjectDBX Classes
 90
        0
280
     0
281
     1
  0
CLASS
  1
HATCH
  2
AcDbHatch
  3
ObjectDBX Classes
 90
        0
280
     0
281
     1
  0
CLASS
  1
ACDBPLACEHOLDER
  2
AcDbPlaceHolder
  3
ObjectDBX Classes
 90
        0
280
     0
281
     0
  0
CLASS
  1
LAYOUT
  2
AcDbLayout
  3
ObjectDBX Classes
 90
        0
280
     0
281
     0
  0
ENDSEC
  0
SECTION
  2
TABLES
  0
TABLE
  2
VPORT
  5
8
102
{ACAD_XDICTIONARY
360
6AB
102
}
330
0
100
AcDbSymbolTable
 70
     1
  0
VPORT
  5
29
330
8
100
AcDbSymbolTableRecord
100
AcDbViewportTableRecord
  2
*ACTIVE
 70
     0
 10
0.0
 20
0.0
 11
1.0
 21
1.0
 12
975.0000000000001
 22
725.0
 13
0.0
 23
0.0
 14
10.0
 24
10.0
 15
10.0
 25
10.0
 16
0.0
 26
0.0
 36
1.0
 17
0.0
 27
0.0
 37
0.0
 40
1350.0
 41
1.407407407407408
 42
50.0
 43
0.0
 44
0.0
 50
0.0
 51
0.0
 71
     0
 72
  1000
 73
     1
 74
     3
 75
     0
 76
     0
 77
     0
 78
     0
  0
ENDTAB
  0
TABLE
  2
LTYPE
  5
5
330
0
100
AcDbSymbolTable
 70
     6
  0
LTYPE
  5
14
330
5
100
AcDbSymbolTableRecord
100
AcDbLinetypeTableRecord
  2
BYBLOCK
 70
     0
  3

 72
    65
 73
     0
 40
0.0
  0
LTYPE
  5
15
330
5
100
AcDbSymbolTableRecord
100
AcDbLinetypeTableRecord
  2
BYLAYER
 70
     0
  3

 72
    65
 73
     0
 40
0.0
  0
LTYPE
  5
16
330
5
100
AcDbSymbolTableRecord
100
AcDbLinetypeTableRecord
  2
CONTINUOUS
 70
     0
  3
Solid line
 72
    65
 73
     0
 40
0.0
  0
LTYPE
  5
6E
330
5
100
AcDbSymbolTableRecord
100
AcDbLinetypeTableRecord
  2
HIDDEN
 70
     0
  3
Hidden __ __ __ __ __ __ __ __ __ __ __ __ __ __
 72
    65
 73
     2
 40
9.524999999999999
 49
6.35
 74
     0
 49
-3.175
 74
     0
  0
LTYPE
  5
6F
330
5
100
AcDbSymbolTableRecord
100
AcDbLinetypeTableRecord
  2
CENTER
 70
     0
  3
Center ____ _ ____ _ ____ _ ____ _ ____ _ ____
 72
    65
 73
     4
 40
50.8
 49
31.75
 74
     0
 49
-6.35
 74
     0
 49
6.35
 74
     0
 49
-6.35
 74
     0
  0
LTYPE
  5
70
330
5
100
AcDbSymbolTableRecord
100
AcDbLinetypeTableRecord
  2
PHANTOM
 70
     0
  3
Phantom ______  __  __  ______  __  __  ______ 
 72
    65
 73
     6
 40
63.50000000000001
 49
31.75
 74
     0
 49
-6.35
 74
     0
 49
6.35
 74
     0
 49
-6.35
 74
     0
 49
6.35
 74
     0
 49
-6.35
 74
     0
  0
LTYPE
  5
71
330
5
100
AcDbSymbolTableRecord
100
AcDbLinetypeTableRecord
  2
ACAD_ISO06W100
 70
     0
  3
ISO long-dash triple-dot ____ ... ____ ... ____
 72
    65
 73
     8
 40
36.0
 49
24.0
 74
     0
 49
-3.0
 74
     0
 49
0.0
 74
     0
 49
-3.0
 74
     0
 49
0.0
 74
     0
 49
-3.0
 74
     0
 49
0.0
 74
     0
 49
-3.0
 74
     0
  0
LTYPE
  5
72
330
5
100
AcDbSymbolTableRecord
100
AcDbLinetypeTableRecord
  2
ACAD_ISO15W100
 70
     0
  3
ISO double-dash triple-dot __ __ . . . __ __ . .
 72
    65
 73
    10
 40
39.0
 49
12.0
 74
     0
 49
-3.0
 74
     0
 49
12.0
 74
     0
 49
-3.0
 74
     0
 49
0.0
 74
     0
 49
-3.0
 74
     0
 49
0.0
 74
     0
 49
-3.0
 74
     0
 49
0.0
 74
     0
 49
-3.0
 74
     0
  0
ENDTAB
  0
TABLE
  2
LAYER
  5
2
330
0
100
AcDbSymbolTable
 70
     5
  0
LAYER
  5
10
330
2
100
AcDbSymbolTableRecord
100
AcDbLayerTableRecord
  2
0
 70
     0
 62
     7
  6
CONTINUOUS
  0
LAYER
  5
75
330
2
100
AcDbSymbolTableRecord
100
AcDbLayerTableRecord
  2
LAY-10
 70
     0
 62
     7
  6
CONTINUOUS
  0
LAYER
  5
76
330
2
100
AcDbSymbolTableRecord
100
AcDbLayerTableRecord
  2
LAY-20
 70
     0
 62
     7
  6
CONTINUOUS
  0
LAYER
  5
77
330
2
100
AcDbSymbolTableRecord
100
AcDbLayerTableRecord
  2
LAY-255
 70
     0
 62
     7
  6
CONTINUOUS
  0
LAYER
  5
615
330
2
100
AcDbSymbolTableRecord
100
AcDbLayerTableRecord
  2
DEFPOINTS
 70
     0
 62
     7
  6
CONTINUOUS
  0
ENDTAB
  0
TABLE
  2
STYLE
  5
3
330
0
100
AcDbSymbolTable
 70
     4
  0
STYLE
  5
11
330
3
100
AcDbSymbolTableRecord
100
AcDbTextStyleTableRecord
  2
STANDARD
 70
     0
 40
0.0
 41
1.0
 50
0.0
 71
     0
 42
2.5
  3
simplex
  4
bigfont
  0
STYLE
  5
73
330
3
100
AcDbSymbolTableRecord
100
AcDbTextStyleTableRecord
  2
EXCADSTD
 70
     0
 40
0.0
 41
1.0
 50
0.0
 71
     0
 42
2.5
  3
simplex
  4
bigfont
  0
STYLE
  5
74
330
3
100
AcDbSymbolTableRecord
100
AcDbTextStyleTableRecord
  2
EXCADVERT
 70
     4
 40
0.0
 41
1.0
 50
0.0
 71
     0
 42
2.5
  3
simplex
  4
bigfont
  0
STYLE
  5
613
330
3
100
AcDbSymbolTableRecord
100
AcDbTextStyleTableRecord
  2
EXCADDIM1
 70
     0
 40
0.0
 41
0.84
 50
0.0
 71
     0
 42
2.5
  3
simplex
  4
bigfont
  0
ENDTAB
  0
TABLE
  2
VIEW
  5
6
330
0
100
AcDbSymbolTable
 70
     0
  0
ENDTAB
  0
TABLE
  2
UCS
  5
7
330
0
100
AcDbSymbolTable
 70
     0
  0
ENDTAB
  0
TABLE
  2
APPID
  5
9
330
0
100
AcDbSymbolTable
 70
     2
  0
APPID
  5
12
330
9
100
AcDbSymbolTableRecord
100
AcDbRegAppTableRecord
  2
ACAD
 70
     0
  0
APPID
  5
6B5
330
9
100
AcDbSymbolTableRecord
100
AcDbRegAppTableRecord
  2
ACAD_MLEADERVER
 70
     0
  0
ENDTAB
  0
TABLE
  2
DIMSTYLE
  5
A
330
0
100
AcDbSymbolTable
 70
     1
  0
DIMSTYLE
105
27
102
{ACAD_REACTORS
330
614
330
622
330
62F
330
63C
330
649
102
}
330
A
100
AcDbSymbolTableRecord
100
AcDbDimStyleTableRecord
  2
ISO-25
 70
     0
  3

  4

  5

  6

  7

 40
1.0
 41
2.5
 42
0.625
 43
3.75
 44
1.25
 45
0.0
 46
0.0
 47
0.0
 48
0.0
140
2.5
141
2.5
142
0.0
143
0.03937007874016
144
1.0
145
0.0
146
1.0
147
0.625
 71
     0
 72
     0
 73
     0
 74
     0
 75
     0
 76
     0
 77
     1
 78
     8
170
     0
171
     3
172
     1
173
     0
174
     0
175
     0
176
     0
177
     0
178
     0
270
     2
271
     2
272
     2
273
     2
274
     3
340
11
275
     0
280
     0
281
     0
282
     0
283
     0
284
     8
285
     0
286
     0
287
     5
288
     0
  0
ENDTAB
  0
TABLE
  2
BLOCK_RECORD
  5
1
330
0
100
AcDbSymbolTable
 70
    19
  0
BLOCK_RECORD
  5
1F
330
1
100
AcDbSymbolTableRecord
100
AcDbBlockTableRecord
  2
*MODEL_SPACE
  0
BLOCK_RECORD
  5
1B
330
1
100
AcDbSymbolTableRecord
100
AcDbBlockTableRecord
  2
*PAPER_SPACE
  0
BLOCK_RECORD
  5
78
330
1
100
AcDbSymbolTableRecord
100
AcDbBlockTableRecord
  2
EX_NORM
  0
BLOCK_RECORD
  5
7B
330
1
100
AcDbSymbolTableRecord
100
AcDbBlockTableRecord
  2
EX_BNORM
  0
BLOCK_RECORD
  5
7E
330
1
100
AcDbSymbolTableRecord
100
AcDbBlockTableRecord
  2
EX_BCIR
  0
BLOCK_RECORD
  5
81
330
1
100
AcDbSymbolTableRecord
100
AcDbBlockTableRecord
  2
EX_RCIVIL
  0
BLOCK_RECORD
  5
84
330
1
100
AcDbSymbolTableRecord
100
AcDbBlockTableRecord
  2
EX_SLANT
  0
BLOCK_RECORD
  5
87
330
1
100
AcDbSymbolTableRecord
100
AcDbBlockTableRecord
  2
EX_NONE
  0
BLOCK_RECORD
  5
8A
330
1
100
AcDbSymbolTableRecord
100
AcDbBlockTableRecord
  2
EX_CIVIL
  0
BLOCK_RECORD
  5
8D
330
1
100
AcDbSymbolTableRecord
100
AcDbBlockTableRecord
  2
EX_WCIR
  0
BLOCK_RECORD
  5
90
330
1
100
AcDbSymbolTableRecord
100
AcDbBlockTableRecord
  2
EX_WCIR2
  0
BLOCK_RECORD
  5
93
330
1
100
AcDbSymbolTableRecord
100
AcDbBlockTableRecord
  2
EX_WNORM
  0
BLOCK_RECORD
  5
96
330
1
100
AcDbSymbolTableRecord
100
AcDbBlockTableRecord
  2
EX_NNORM
  0
BLOCK_RECORD
  5
99
330
1
100
AcDbSymbolTableRecord
100
AcDbBlockTableRecord
  2
EX_BBOX
  0
BLOCK_RECORD
  5
9C
330
1
100
AcDbSymbolTableRecord
100
AcDbBlockTableRecord
  2
EX_WBOX
  0
BLOCK_RECORD
  5
9F
330
1
100
AcDbSymbolTableRecord
100
AcDbBlockTableRecord
  2
EX_INTEGRAL
  0
BLOCK_RECORD
  5
616
330
1
100
AcDbSymbolTableRecord
100
AcDbBlockTableRecord
  2
*D15
  0
BLOCK_RECORD
  5
623
330
1
100
AcDbSymbolTableRecord
100
AcDbBlockTableRecord
  2
*D16
  0
BLOCK_RECORD
  5
630
330
1
100
AcDbSymbolTableRecord
100
AcDbBlockTableRecord
  2
*D17
  0
BLOCK_RECORD
  5
63D
330
1
100
AcDbSymbolTableRecord
100
AcDbBlockTableRecord
  2
*D18
  0
BLOCK_RECORD
  5
64A
330
1
100
AcDbSymbolTableRecord
100
AcDbBlockTableRecord
  2
*D19
  0
ENDTAB
  0
ENDSEC
  0
SECTION
  2
BLOCKS
  0
BLOCK
  5
20
330
1F
100
AcDbEntity
  8
0
100
AcDbBlockBegin
  2
*MODEL_SPACE
 70
     0
 10
0.0
 20
0.0
 30
0.0
  3
*MODEL_SPACE
  1

  0
ENDBLK
  5
21
330
1F
100
AcDbEntity
  8
0
100
AcDbBlockEnd
  0
BLOCK
  5
1C
330
1B
100
AcDbEntity
 67
     1
  8
0
100
AcDbBlockBegin
  2
*PAPER_SPACE
 70
     0
 10
0.0
 20
0.0
 30
0.0
  3
*PAPER_SPACE
  1

  0
ENDBLK
  5
1D
330
1B
100
AcDbEntity
 67
     1
  8
0
100
AcDbBlockEnd
  0
BLOCK
  5
79
330
78
100
AcDbEntity
  8
0
100
AcDbBlockBegin
  2
EX_NORM
 70
     0
 10
0.0
 20
0.0
 30
0.0
  3
EX_NORM
  1

  0
LINE
  5
A2
330
78
100
AcDbEntity
  8
0
  6
CONTINUOUS
 62
     0
100
AcDbLine
 10
0.0
 20
0.0
 30
0.0
 11
-1.0
 21
0.0
 31
0.0
  0
LINE
  5
A3
330
78
100
AcDbEntity
  8
0
  6
CONTINUOUS
 62
     0
100
AcDbLine
 10
0.0
 20
0.0
 30
0.0
 11
-1.0
 21
0.166666667
 31
0.0
  0
LINE
  5
A4
330
78
100
AcDbEntity
  8
0
  6
CONTINUOUS
 62
     0
100
AcDbLine
 10
0.0
 20
0.0
 30
0.0
 11
-1.0
 21
-0.166666667
 31
0.0
  0
ENDBLK
  5
7A
330
78
100
AcDbEntity
  8
0
100
AcDbBlockEnd
  0
BLOCK
  5
7C
330
7B
100
AcDbEntity
  8
0
100
AcDbBlockBegin
  2
EX_BNORM
 70
     0
 10
0.0
 20
0.0
 30
0.0
  3
EX_BNORM
  1

  0
LINE
  5
A5
330
7B
100
AcDbEntity
  8
0
  6
CONTINUOUS
 62
     0
100
AcDbLine
 10
0.0
 20
0.0
 30
0.0
 11
-1.0
 21
0.0
 31
0.0
  0
LINE
  5
A6
330
7B
100
AcDbEntity
  8
0
  6
CONTINUOUS
 62
     0
100
AcDbLine
 10
0.0
 20
0.0
 30
0.0
 11
-1.0
 21
0.166666667
 31
0.0
  0
LINE
  5
A7
330
7B
100
AcDbEntity
  8
0
  6
CONTINUOUS
 62
     0
100
AcDbLine
 10
0.0
 20
0.0
 30
0.0
 11
-1.0
 21
-0.166666667
 31
0.0
  0
LINE
  5
A8
330
7B
100
AcDbEntity
  8
0
  6
CONTINUOUS
 62
     0
100
AcDbLine
 10
0.0
 20
0.0
 30
0.0
 11
-1.0
 21
0.083333333
 31
0.0
  0
LINE
  5
A9
330
7B
100
AcDbEntity
  8
0
  6
CONTINUOUS
 62
     0
100
AcDbLine
 10
0.0
 20
0.0
 30
0.0
 11
-1.0
 21
-0.083333333
 31
0.0
  0
LINE
  5
AA
330
7B
100
AcDbEntity
  8
0
  6
CONTINUOUS
 62
     0
100
AcDbLine
 10
-1.0
 20
0.166666667
 30
0.0
 11
-1.0
 21
-0.166666667
 31
0.0
  0
ENDBLK
  5
7D
330
7B
100
AcDbEntity
  8
0
100
AcDbBlockEnd
  0
BLOCK
  5
7F
330
7E
100
AcDbEntity
  8
0
100
AcDbBlockBegin
  2
EX_BCIR
 70
     0
 10
0.0
 20
0.0
 30
0.0
  3
EX_BCIR
  1

  0
LINE
  5
AB
330
7E
100
AcDbEntity
  8
0
  6
CONTINUOUS
 62
     0
100
AcDbLine
 10
0.0
 20
0.0
 30
0.0
 11
-1.0
 21
0.0
 31
0.0
  0
CIRCLE
  5
AC
330
7E
100
AcDbEntity
  8
0
  6
CONTINUOUS
 62
     0
100
AcDbCircle
 10
0.0
 20
0.0
 30
0.0
 40
0.5
  0
CIRCLE
  5
AD
330
7E
100
AcDbEntity
  8
0
  6
CONTINUOUS
 62
     0
100
AcDbCircle
 10
0.0
 20
0.0
 30
0.0
 40
0.25
  0
ENDBLK
  5
80
330
7E
100
AcDbEntity
  8
0
100
AcDbBlockEnd
  0
BLOCK
  5
82
330
81
100
AcDbEntity
  8
0
100
AcDbBlockBegin
  2
EX_RCIVIL
 70
     0
 10
0.0
 20
0.0
 30
0.0
  3
EX_RCIVIL
  1

  0
LINE
  5
AE
330
81
100
AcDbEntity
  8
0
  6
CONTINUOUS
 62
     0
100
AcDbLine
 10
0.0
 20
0.0
 30
0.0
 11
-1.0
 21
0.0
 31
0.0
  0
LINE
  5
AF
330
81
100
AcDbEntity
  8
0
  6
CONTINUOUS
 62
     0
100
AcDbLine
 10
-1.0
 20
-0.25
 30
0.0
 11
0.0
 21
-0.25
 31
0.0
  0
LINE
  5
B0
330
81
100
AcDbEntity
  8
0
  6
CONTINUOUS
 62
     0
100
AcDbLine
 10
-1.0
 20
-0.125
 30
0.0
 11
0.0
 21
-0.125
 31
0.0
  0
ENDBLK
  5
83
330
81
100
AcDbEntity
  8
0
100
AcDbBlockEnd
  0
BLOCK
  5
85
330
84
100
AcDbEntity
  8
0
100
AcDbBlockBegin
  2
EX_SLANT
 70
     0
 10
0.0
 20
0.0
 30
0.0
  3
EX_SLANT
  1

  0
LINE
  5
B1
330
84
100
AcDbEntity
  8
0
  6
CONTINUOUS
 62
     0
100
AcDbLine
 10
0.0
 20
0.0
 30
0.0
 11
-1.0
 21
0.0
 31
0.0
  0
LINE
  5
B2
330
84
100
AcDbEntity
  8
0
  6
CONTINUOUS
 62
     0
100
AcDbLine
 10
0.707106781
 20
0.707106781
 30
0.0
 11
-0.707106781
 21
-0.707106781
 31
0.0
  0
ENDBLK
  5
86
330
84
100
AcDbEntity
  8
0
100
AcDbBlockEnd
  0
BLOCK
  5
88
330
87
100
AcDbEntity
  8
0
100
AcDbBlockBegin
  2
EX_NONE
 70
     0
 10
0.0
 20
0.0
 30
0.0
  3
EX_NONE
  1

  0
LINE
  5
B3
330
87
100
AcDbEntity
  8
0
  6
CONTINUOUS
 62
     0
100
AcDbLine
 10
0.0
 20
0.0
 30
0.0
 11
-1.0
 21
0.0
 31
0.0
  0
ENDBLK
  5
89
330
87
100
AcDbEntity
  8
0
100
AcDbBlockEnd
  0
BLOCK
  5
8B
330
8A
100
AcDbEntity
  8
0
100
AcDbBlockBegin
  2
EX_CIVIL
 70
     0
 10
0.0
 20
0.0
 30
0.0
  3
EX_CIVIL
  1

  0
LINE
  5
B4
330
8A
100
AcDbEntity
  8
0
  6
CONTINUOUS
 62
     0
100
AcDbLine
 10
0.0
 20
0.0
 30
0.0
 11
-1.0
 21
0.0
 31
0.0
  0
LINE
  5
B5
330
8A
100
AcDbEntity
  8
0
  6
CONTINUOUS
 62
     0
100
AcDbLine
 10
-1.0
 20
0.25
 30
0.0
 11
0.0
 21
0.25
 31
0.0
  0
LINE
  5
B6
330
8A
100
AcDbEntity
  8
0
  6
CONTINUOUS
 62
     0
100
AcDbLine
 10
-1.0
 20
0.125
 30
0.0
 11
0.0
 21
0.125
 31
0.0
  0
ENDBLK
  5
8C
330
8A
100
AcDbEntity
  8
0
100
AcDbBlockEnd
  0
BLOCK
  5
8E
330
8D
100
AcDbEntity
  8
0
100
AcDbBlockBegin
  2
EX_WCIR
 70
     0
 10
0.0
 20
0.0
 30
0.0
  3
EX_WCIR
  1

  0
LINE
  5
B7
330
8D
100
AcDbEntity
  8
0
  6
CONTINUOUS
 62
     0
100
AcDbLine
 10
0.0
 20
0.0
 30
0.0
 11
-1.0
 21
0.0
 31
0.0
  0
CIRCLE
  5
B8
330
8D
100
AcDbEntity
  8
0
  6
CONTINUOUS
 62
     0
100
AcDbCircle
 10
0.0
 20
0.0
 30
0.0
 40
0.5
  0
ENDBLK
  5
8F
330
8D
100
AcDbEntity
  8
0
100
AcDbBlockEnd
  0
BLOCK
  5
91
330
90
100
AcDbEntity
  8
0
100
AcDbBlockBegin
  2
EX_WCIR2
 70
     0
 10
0.0
 20
0.0
 30
0.0
  3
EX_WCIR2
  1

  0
LINE
  5
B9
330
90
100
AcDbEntity
  8
0
  6
CONTINUOUS
 62
     0
100
AcDbLine
 10
-0.5
 20
0.0
 30
0.0
 11
-1.0
 21
0.0
 31
0.0
  0
CIRCLE
  5
BA
330
90
100
AcDbEntity
  8
0
  6
CONTINUOUS
 62
     0
100
AcDbCircle
 10
0.0
 20
0.0
 30
0.0
 40
0.5
  0
ENDBLK
  5
92
330
90
100
AcDbEntity
  8
0
100
AcDbBlockEnd
  0
BLOCK
  5
94
330
93
100
AcDbEntity
  8
0
100
AcDbBlockBegin
  2
EX_WNORM
 70
     0
 10
0.0
 20
0.0
 30
0.0
  3
EX_WNORM
  1

  0
LINE
  5
BB
330
93
100
AcDbEntity
  8
0
  6
CONTINUOUS
 62
     0
100
AcDbLine
 10
-1.0
 20
0.0
 30
0.0
 11
-1.0
 21
0.0
 31
0.0
  0
LINE
  5
BC
330
93
100
AcDbEntity
  8
0
  6
CONTINUOUS
 62
     0
100
AcDbLine
 10
0.0
 20
0.0
 30
0.0
 11
-1.0
 21
0.166666667
 31
0.0
  0
LINE
  5
BD
330
93
100
AcDbEntity
  8
0
  6
CONTINUOUS
 62
     0
100
AcDbLine
 10
0.0
 20
0.0
 30
0.0
 11
-1.0
 21
-0.166666667
 31
0.0
  0
LINE
  5
BE
330
93
100
AcDbEntity
  8
0
  6
CONTINUOUS
 62
     0
100
AcDbLine
 10
-1.0
 20
0.166666667
 30
0.0
 11
-1.0
 21
-0.166666667
 31
0.0
  0
ENDBLK
  5
95
330
93
100
AcDbEntity
  8
0
100
AcDbBlockEnd
  0
BLOCK
  5
97
330
96
100
AcDbEntity
  8
0
100
AcDbBlockBegin
  2
EX_NNORM
 70
     0
 10
0.0
 20
0.0
 30
0.0
  3
EX_NNORM
  1

  0
LINE
  5
BF
330
96
100
AcDbEntity
  8
0
  6
CONTINUOUS
 62
     0
100
AcDbLine
 10
0.0
 20
0.0
 30
0.0
 11
-1.0
 21
0.0
 31
0.0
  0
LINE
  5
C0
330
96
100
AcDbEntity
  8
0
  6
CONTINUOUS
 62
     0
100
AcDbLine
 10
0.0
 20
0.0
 30
0.0
 11
-1.0
 21
0.166666667
 31
0.0
  0
LINE
  5
C1
330
96
100
AcDbEntity
  8
0
  6
CONTINUOUS
 62
     0
100
AcDbLine
 10
0.0
 20
0.0
 30
0.0
 11
-1.0
 21
-0.166666667
 31
0.0
  0
LINE
  5
C2
330
96
100
AcDbEntity
  8
0
  6
CONTINUOUS
 62
     0
100
AcDbLine
 10
-1.0
 20
0.166666667
 30
0.0
 11
-1.0
 21
-0.166666667
 31
0.0
  0
ENDBLK
  5
98
330
96
100
AcDbEntity
  8
0
100
AcDbBlockEnd
  0
BLOCK
  5
9A
330
99
100
AcDbEntity
  8
0
100
AcDbBlockBegin
  2
EX_BBOX
 70
     0
 10
0.0
 20
0.0
 30
0.0
  3
EX_BBOX
  1

  0
LINE
  5
C3
330
99
100
AcDbEntity
  8
0
  6
CONTINUOUS
 62
     0
100
AcDbLine
 10
0.0
 20
0.0
 30
0.0
 11
-1.0
 21
0.0
 31
0.0
  0
LINE
  5
C4
330
99
100
AcDbEntity
  8
0
  6
CONTINUOUS
 62
     0
100
AcDbLine
 10
-0.5
 20
0.5
 30
0.0
 11
0.5
 21
0.5
 31
0.0
  0
LINE
  5
C5
330
99
100
AcDbEntity
  8
0
  6
CONTINUOUS
 62
     0
100
AcDbLine
 10
0.5
 20
0.5
 30
0.0
 11
0.5
 21
-0.5
 31
0.0
  0
LINE
  5
C6
330
99
100
AcDbEntity
  8
0
  6
CONTINUOUS
 62
     0
100
AcDbLine
 10
0.5
 20
-0.5
 30
0.0
 11
-0.5
 21
-0.5
 31
0.0
  0
LINE
  5
C7
330
99
100
AcDbEntity
  8
0
  6
CONTINUOUS
 62
     0
100
AcDbLine
 10
-0.5
 20
-0.5
 30
0.0
 11
-0.5
 21
0.5
 31
0.0
  0
LINE
  5
C8
330
99
100
AcDbEntity
  8
0
  6
CONTINUOUS
 62
     0
100
AcDbLine
 10
-0.25
 20
0.25
 30
0.0
 11
0.25
 21
0.25
 31
0.0
  0
LINE
  5
C9
330
99
100
AcDbEntity
  8
0
  6
CONTINUOUS
 62
     0
100
AcDbLine
 10
0.25
 20
0.25
 30
0.0
 11
0.25
 21
-0.25
 31
0.0
  0
LINE
  5
CA
330
99
100
AcDbEntity
  8
0
  6
CONTINUOUS
 62
     0
100
AcDbLine
 10
0.25
 20
-0.25
 30
0.0
 11
-0.25
 21
-0.25
 31
0.0
  0
LINE
  5
CB
330
99
100
AcDbEntity
  8
0
  6
CONTINUOUS
 62
     0
100
AcDbLine
 10
-0.25
 20
-0.25
 30
0.0
 11
-0.25
 21
0.25
 31
0.0
  0
ENDBLK
  5
9B
330
99
100
AcDbEntity
  8
0
100
AcDbBlockEnd
  0
BLOCK
  5
9D
330
9C
100
AcDbEntity
  8
0
100
AcDbBlockBegin
  2
EX_WBOX
 70
     0
 10
0.0
 20
0.0
 30
0.0
  3
EX_WBOX
  1

  0
LINE
  5
CC
330
9C
100
AcDbEntity
  8
0
  6
CONTINUOUS
 62
     0
100
AcDbLine
 10
-0.5
 20
0.0
 30
0.0
 11
-1.0
 21
0.0
 31
0.0
  0
LINE
  5
CD
330
9C
100
AcDbEntity
  8
0
  6
CONTINUOUS
 62
     0
100
AcDbLine
 10
-0.5
 20
0.5
 30
0.0
 11
0.5
 21
0.5
 31
0.0
  0
LINE
  5
CE
330
9C
100
AcDbEntity
  8
0
  6
CONTINUOUS
 62
     0
100
AcDbLine
 10
0.5
 20
0.5
 30
0.0
 11
0.5
 21
-0.5
 31
0.0
  0
LINE
  5
CF
330
9C
100
AcDbEntity
  8
0
  6
CONTINUOUS
 62
     0
100
AcDbLine
 10
0.5
 20
-0.5
 30
0.0
 11
-0.5
 21
-0.5
 31
0.0
  0
LINE
  5
D0
330
9C
100
AcDbEntity
  8
0
  6
CONTINUOUS
 62
     0
100
AcDbLine
 10
-0.5
 20
-0.5
 30
0.0
 11
-0.5
 21
0.5
 31
0.0
  0
ENDBLK
  5
9E
330
9C
100
AcDbEntity
  8
0
100
AcDbBlockEnd
  0
BLOCK
  5
A0
330
9F
100
AcDbEntity
  8
0
100
AcDbBlockBegin
  2
EX_INTEGRAL
 70
     0
 10
0.0
 20
0.0
 30
0.0
  3
EX_INTEGRAL
  1

  0
LINE
  5
D1
330
9F
100
AcDbEntity
  8
0
  6
CONTINUOUS
 62
     0
100
AcDbLine
 10
0.0
 20
0.0
 30
0.0
 11
-1.0
 21
0.0
 31
0.0
  0
ARC
  5
D2
330
9F
100
AcDbEntity
  8
0
  6
CONTINUOUS
 62
     0
100
AcDbCircle
 10
0.542115
 20
0.164992
 30
0.0
 40
0.56667
100
AcDbArc
 50
73.07249033629006
 51
196.9275130221199
  0
ARC
  5
D3
330
9F
100
AcDbEntity
  8
0
  6
CONTINUOUS
 62
     0
100
AcDbCircle
 10
-0.542115
 20
-0.164992
 30
0.0
 40
0.56667
100
AcDbArc
 50
253.0724869220464
 51
16.9275130559125
  0
ENDBLK
  5
A1
330
9F
100
AcDbEntity
  8
0
100
AcDbBlockEnd
  0
BLOCK
  5
617
330
616
100
AcDbEntity
  8
0
100
AcDbBlockBegin
  2
*D15
 70
     1
 10
0.0
 20
0.0
 30
0.0
  3
*D15
  1

  0
LINE
  5
619
330
616
100
AcDbEntity
  8
LAY-20
  6
CONTINUOUS
 62
     4
100
AcDbLine
 10
1041.568713289711
 20
326.5000000000005
 30
0.0
 11
1166.568713289711
 21
326.5000000000005
 31
0.0
  0
LINE
  5
61A
330
616
100
AcDbEntity
  8
LAY-20
  6
CONTINUOUS
 62
     4
100
AcDbLine
 10
1116.56871328971
 20
216.5000000000002
 30
0.0
 11
1166.568713289711
 21
216.5000000000002
 31
0.0
  0
LINE
  5
61B
330
616
100
AcDbEntity
  8
LAY-20
  6
CONTINUOUS
 62
     4
100
AcDbLine
 10
1159.068713289711
 20
314.0000000000005
 30
0.0
 11
1159.068713289711
 21
229.0000000000002
 31
0.0
  0
INSERT
  5
61C
330
616
100
AcDbEntity
  8
LAY-20
 62
     4
100
AcDbBlockReference
  2
EX_BNORM
 10
1159.068713289711
 20
326.5000000000005
 30
0.0
 41
12.5
 42
12.5
 43
12.5
 50
90.0
  0
INSERT
  5
61D
330
616
100
AcDbEntity
  8
LAY-20
 62
     4
100
AcDbBlockReference
  2
EX_BNORM
 10
1159.068713289711
 20
216.5000000000002
 30
0.0
 41
12.5
 42
12.5
 43
12.5
 50
270.0
  0
MTEXT
  5
61E
330
616
100
AcDbEntity
  8
LAY-20
 62
     7
100
AcDbMText
 10
1146.568713289711
 20
271.5000000000003
 30
0.0
 40
15.590552
 41
0.0
 71
     5
 72
     1
  1
110
  7
EXCADDIM1
 11
0.0
 21
1.0
 31
0.0
  0
POINT
  5
61F
330
616
100
AcDbEntity
  8
DEFPOINTS
 62
     0
100
AcDbPoint
 10
1034.068713289711
 20
326.5000000000005
 30
0.0
  0
POINT
  5
620
330
616
100
AcDbEntity
  8
DEFPOINTS
 62
     0
100
AcDbPoint
 10
1109.06871328971
 20
216.5000000000002
 30
0.0
  0
POINT
  5
621
330
616
100
AcDbEntity
  8
DEFPOINTS
 62
     0
100
AcDbPoint
 10
1159.068713289711
 20
216.5000000000002
 30
0.0
  0
ENDBLK
  5
618
330
616
100
AcDbEntity
  8
0
100
AcDbBlockEnd
  0
BLOCK
  5
624
330
623
100
AcDbEntity
  8
0
100
AcDbBlockBegin
  2
*D16
 70
     1
 10
0.0
 20
0.0
 30
0.0
  3
*D16
  1

  0
LINE
  5
626
330
623
100
AcDbEntity
  8
LAY-20
  6
CONTINUOUS
 62
     4
100
AcDbLine
 10
385.06871328971
 20
333.99999999998
 30
0.0
 11
385.06871328971
 21
454.0000000000001
 31
0.0
  0
LINE
  5
627
330
623
100
AcDbEntity
  8
LAY-20
  6
CONTINUOUS
 62
     4
100
AcDbLine
 10
1013.0687132897
 20
333.99999999998
 30
0.0
 11
1013.0687132897
 21
454.0000000000001
 31
0.0
  0
LINE
  5
628
330
623
100
AcDbEntity
  8
LAY-20
  6
CONTINUOUS
 62
     4
100
AcDbLine
 10
400.06871328971
 20
446.5000000000001
 30
0.0
 11
998.0687132897
 21
446.5000000000001
 31
0.0
  0
INSERT
  5
629
330
623
100
AcDbEntity
  8
LAY-20
 62
     4
100
AcDbBlockReference
  2
EX_BNORM
 10
385.06871328971
 20
446.5000000000001
 30
0.0
 41
15.0
 42
15.0
 43
15.0
 50
180.0
  0
INSERT
  5
62A
330
623
100
AcDbEntity
  8
LAY-20
 62
     4
100
AcDbBlockReference
  2
EX_BNORM
 10
1013.0687132897
 20
446.5000000000001
 30
0.0
 41
15.0
 42
15.0
 43
15.0
  0
MTEXT
  5
62B
330
623
100
AcDbEntity
  8
LAY-20
 62
     7
100
AcDbMText
 10
699.0687132897051
 20
459.0000000000001
 30
0.0
 40
15.590552
 41
0.0
 71
     5
 72
     1
  1
%%c628
  7
EXCADDIM1
  0
POINT
  5
62C
330
623
100
AcDbEntity
  8
DEFPOINTS
 62
     0
100
AcDbPoint
 10
385.06871328971
 20
326.49999999998
 30
0.0
  0
POINT
  5
62D
330
623
100
AcDbEntity
  8
DEFPOINTS
 62
     0
100
AcDbPoint
 10
1013.0687132897
 20
326.49999999998
 30
0.0
  0
POINT
  5
62E
330
623
100
AcDbEntity
  8
DEFPOINTS
 62
     0
100
AcDbPoint
 10
1013.0687132897
 20
446.5000000000001
 30
0.0
  0
ENDBLK
  5
625
330
623
100
AcDbEntity
  8
0
100
AcDbBlockEnd
  0
BLOCK
  5
631
330
630
100
AcDbEntity
  8
0
100
AcDbBlockBegin
  2
*D17
 70
     1
 10
0.0
 20
0.0
 30
0.0
  3
*D17
  1

  0
LINE
  5
633
330
630
100
AcDbEntity
  8
LAY-20
  6
CONTINUOUS
 62
     4
100
AcDbLine
 10
1005.0687132897
 20
333.9999999999999
 30
0.0
 11
1005.0687132897
 21
419.0000000000001
 31
0.0
  0
LINE
  5
634
330
630
100
AcDbEntity
  8
LAY-20
  6
CONTINUOUS
 62
     4
100
AcDbLine
 10
393.06871328966
 20
333.99999999996
 30
0.0
 11
393.06871328966
 21
419.0000000000001
 31
0.0
  0
LINE
  5
635
330
630
100
AcDbEntity
  8
LAY-20
  6
CONTINUOUS
 62
     4
100
AcDbLine
 10
990.0687132897001
 20
411.5000000000001
 30
0.0
 11
408.06871328966
 21
411.5000000000001
 31
0.0
  0
INSERT
  5
636
330
630
100
AcDbEntity
  8
LAY-20
 62
     4
100
AcDbBlockReference
  2
EX_BNORM
 10
1005.0687132897
 20
411.5000000000001
 30
0.0
 41
15.0
 42
15.0
 43
15.0
  0
INSERT
  5
637
330
630
100
AcDbEntity
  8
LAY-20
 62
     4
100
AcDbBlockReference
  2
EX_BNORM
 10
393.06871328966
 20
411.5000000000001
 30
0.0
 41
15.0
 42
15.0
 43
15.0
 50
180.0
  0
MTEXT
  5
638
330
630
100
AcDbEntity
  8
LAY-20
 62
     7
100
AcDbMText
 10
699.0687132896801
 20
424.0000000000001
 30
0.0
 40
15.590552
 41
0.0
 71
     5
 72
     1
  1
%%c612
  7
EXCADDIM1
  0
POINT
  5
639
330
630
100
AcDbEntity
  8
DEFPOINTS
 62
     0
100
AcDbPoint
 10
1005.0687132897
 20
326.4999999999999
 30
0.0
  0
POINT
  5
63A
330
630
100
AcDbEntity
  8
DEFPOINTS
 62
     0
100
AcDbPoint
 10
393.06871328966
 20
326.49999999996
 30
0.0
  0
POINT
  5
63B
330
630
100
AcDbEntity
  8
DEFPOINTS
 62
     0
100
AcDbPoint
 10
393.06871328966
 20
411.5000000000001
 30
0.0
  0
ENDBLK
  5
632
330
630
100
AcDbEntity
  8
0
100
AcDbBlockEnd
  0
BLOCK
  5
63E
330
63D
100
AcDbEntity
  8
0
100
AcDbBlockBegin
  2
*D18
 70
     1
 10
0.0
 20
0.0
 30
0.0
  3
*D18
  1

  0
LINE
  5
640
330
63D
100
AcDbEntity
  8
LAY-20
  6
CONTINUOUS
 62
     4
100
AcDbLine
 10
399.06871328971
 20
201.5
 30
0.0
 11
399.06871328971
 21
109.0
 31
0.0
  0
LINE
  5
641
330
63D
100
AcDbEntity
  8
LAY-20
  6
CONTINUOUS
 62
     4
100
AcDbLine
 10
999.06871328971
 20
201.5
 30
0.0
 11
999.06871328971
 21
109.0
 31
0.0
  0
LINE
  5
642
330
63D
100
AcDbEntity
  8
LAY-20
  6
CONTINUOUS
 62
     4
100
AcDbLine
 10
414.06871328971
 20
116.5
 30
0.0
 11
984.06871328971
 21
116.5
 31
0.0
  0
INSERT
  5
643
330
63D
100
AcDbEntity
  8
LAY-20
 62
     4
100
AcDbBlockReference
  2
EX_BNORM
 10
399.06871328971
 20
116.5
 30
0.0
 41
15.0
 42
15.0
 43
15.0
 50
180.0
  0
INSERT
  5
644
330
63D
100
AcDbEntity
  8
LAY-20
 62
     4
100
AcDbBlockReference
  2
EX_BNORM
 10
999.06871328971
 20
116.5
 30
0.0
 41
15.0
 42
15.0
 43
15.0
  0
MTEXT
  5
645
330
63D
100
AcDbEntity
  8
LAY-20
 62
     7
100
AcDbMText
 10
699.06871328971
 20
129.0
 30
0.0
 40
15.590552
 41
0.0
 71
     5
 72
     1
  1
%%c600
  7
EXCADDIM1
  0
POINT
  5
646
330
63D
100
AcDbEntity
  8
DEFPOINTS
 62
     0
100
AcDbPoint
 10
399.06871328971
 20
209.0
 30
0.0
  0
POINT
  5
647
330
63D
100
AcDbEntity
  8
DEFPOINTS
 62
     0
100
AcDbPoint
 10
999.06871328971
 20
209.0
 30
0.0
  0
POINT
  5
648
330
63D
100
AcDbEntity
  8
DEFPOINTS
 62
     0
100
AcDbPoint
 10
999.06871328971
 20
116.5
 30
0.0
  0
ENDBLK
  5
63F
330
63D
100
AcDbEntity
  8
0
100
AcDbBlockEnd
  0
BLOCK
  5
64B
330
64A
100
AcDbEntity
  8
0
100
AcDbBlockBegin
  2
*D19
 70
     1
 10
0.0
 20
0.0
 30
0.0
  3
*D19
  1

  0
LINE
  5
64D
330
64A
100
AcDbEntity
  8
LAY-20
  6
CONTINUOUS
 62
     4
100
AcDbLine
 10
1109.0687132897
 20
209.0
 30
0.0
 11
1109.0687132897
 21
74.0
 31
0.0
  0
LINE
  5
64E
330
64A
100
AcDbEntity
  8
LAY-20
  6
CONTINUOUS
 62
     4
100
AcDbLine
 10
289.06871328969
 20
209.0
 30
0.0
 11
289.06871328969
 21
74.0
 31
0.0
  0
LINE
  5
64F
330
64A
100
AcDbEntity
  8
LAY-20
  6
CONTINUOUS
 62
     4
100
AcDbLine
 10
1094.0687132897
 20
81.5
 30
0.0
 11
304.06871328969
 21
81.5
 31
0.0
  0
INSERT
  5
650
330
64A
100
AcDbEntity
  8
LAY-20
 62
     4
100
AcDbBlockReference
  2
EX_BNORM
 10
1109.0687132897
 20
81.5
 30
0.0
 41
15.0
 42
15.0
 43
15.0
  0
INSERT
  5
651
330
64A
100
AcDbEntity
  8
LAY-20
 62
     4
100
AcDbBlockReference
  2
EX_BNORM
 10
289.06871328969
 20
81.5
 30
0.0
 41
15.0
 42
15.0
 43
15.0
 50
180.0
  0
MTEXT
  5
652
330
64A
100
AcDbEntity
  8
LAY-20
 62
     7
100
AcDbMText
 10
699.068713289695
 20
94.0
 30
0.0
 40
15.590552
 41
0.0
 71
     5
 72
     1
  1
%%c820
  7
EXCADDIM1
  0
POINT
  5
653
330
64A
100
AcDbEntity
  8
DEFPOINTS
 62
     0
100
AcDbPoint
 10
1109.0687132897
 20
216.5
 30
0.0
  0
POINT
  5
654
330
64A
100
AcDbEntity
  8
DEFPOINTS
 62
     0
100
AcDbPoint
 10
289.06871328969
 20
216.5
 30
0.0
  0
POINT
  5
655
330
64A
100
AcDbEntity
  8
DEFPOINTS
 62
     0
100
AcDbPoint
 10
289.06871328969
 20
81.5
 30
0.0
  0
ENDBLK
  5
64C
330
64A
100
AcDbEntity
  8
0
100
AcDbBlockEnd
  0
ENDSEC
  0
SECTION
  2
ENTITIES
  0
ARC
  5
D4
330
1F
100
AcDbEntity
  8
LAY-10
  6
CONTINUOUS
 62
     7
100
AcDbCircle
 10
684.0911154200601
 20
591.201503139798
 30
0.0
 40
3.000000000000003
100
AcDbArc
 50
285.7453826944795
 51
87.60964659164338
  0
ARC
  5
D5
330
1F
100
AcDbEntity
  8
LAY-10
  6
CONTINUOUS
 62
     7
100
AcDbCircle
 10
690.0687132898827
 20
569.9999999997078
 30
0.0
 40
21.0334671869671
100
AcDbArc
 50
136.6692404778645
 51
176.7674191149045
  0
ARC
  5
D6
330
1F
100
AcDbEntity
  8
LAY-10
  6
CONTINUOUS
 62
     7
100
AcDbCircle
 10
699.0687132896826
 20
949.9999999999998
 30
0.0
 40
358.2115940247
100
AcDbArc
 50
258.1740451675554
 51
265.5886686543287
  0
ARC
  5
D7
330
1F
100
AcDbEntity
  8
LAY-10
  6
CONTINUOUS
 62
     7
100
AcDbCircle
 10
671.1318529448097
 20
587.8643985079145
 30
0.0
 40
5.0
100
AcDbArc
 50
316.6692404773072
 51
85.58866865432778
  0
ARC
  5
D8
330
1F
100
AcDbEntity
  8
LAY-10
  6
CONTINUOUS
 62
     7
100
AcDbCircle
 10
699.0687132896826
 20
949.9999999999998
 30
0.0
 40
314.4154939411515
100
AcDbArc
 50
254.2710623199885
 51
255.7289376799828
  0
LINE
  5
D9
330
1F
100
AcDbEntity
  8
LAY-10
  6
CONTINUOUS
 62
     7
100
AcDbLine
 10
621.5622843557585
 20
645.2872560850649
 30
0.0
 11
618.7869179473364
 21
634.929447639224
 31
0.0
  0
ARC
  5
DA
330
1F
100
AcDbEntity
  8
LAY-10
  6
CONTINUOUS
 62
     7
100
AcDbCircle
 10
699.0687132896826
 20
949.9999999999998
 30
0.0
 40
314.70446593794
100
AcDbArc
 50
225.7282683093764
 51
254.2717316906181
  0
LINE
  5
DB
330
1F
100
AcDbEntity
  8
LAY-10
  6
CONTINUOUS
 62
     7
100
AcDbLine
 10
613.8348777454466
 20
647.357808445887
 30
0.0
 11
611.095191497755
 21
637.1331601727136
 31
0.0
  0
ARC
  5
DC
330
1F
100
AcDbEntity
  8
LAY-10
  6
CONTINUOUS
 62
     7
100
AcDbCircle
 10
699.0687132896826
 20
949.9999999999998
 30
0.0
 40
314.4154939411515
100
AcDbArc
 50
224.271062320012
 51
225.7289376800066
  0
LINE
  5
DD
330
1F
100
AcDbEntity
  8
LAY-10
  6
CONTINUOUS
 62
     7
100
AcDbLine
 10
479.58980491892
 20
724.8642373796722
 30
0.0
 11
472.1048428934355
 21
717.3792753541859
 31
0.0
  0
ARC
  5
DE
330
1F
100
AcDbEntity
  8
LAY-10
  6
CONTINUOUS
 62
     7
100
AcDbCircle
 10
699.0687132896826
 20
949.9999999999998
 30
0.0
 40
314.70446593794
100
AcDbArc
 50
195.7282683093645
 51
224.2717316906424
  0
LINE
  5
DF
330
1F
100
AcDbEntity
  8
LAY-10
  6
CONTINUOUS
 62
     7
100
AcDbLine
 10
473.9329506694267
 20
730.5210916291637
 30
0.0
 11
466.3505086320047
 21
722.9386495917394
 31
0.0
  0
ARC
  5
E0
330
1F
100
AcDbEntity
  8
LAY-10
  6
CONTINUOUS
 62
     7
100
AcDbCircle
 10
699.0687132896826
 20
949.9999999999998
 30
0.0
 40
314.4154939411515
100
AcDbArc
 50
194.2710623199999
 51
195.7289376799949
  0
LINE
  5
E1
330
1F
100
AcDbEntity
  8
LAY-10
  6
CONTINUOUS
 62
     7
100
AcDbLine
 10
396.4265217355432
 20
864.7661644558577
 30
0.0
 11
386.068713289701
 21
861.9907980474384
 31
0.0
  0
ARC
  5
E2
330
1F
100
AcDbEntity
  8
LAY-10
  6
CONTINUOUS
 62
     7
100
AcDbCircle
 10
699.0687132896826
 20
949.9999999999998
 30
0.0
 40
314.70446593794
100
AcDbArc
 50
165.7282683093697
 51
194.2717316906303
  0
LINE
  5
E3
330
1F
100
AcDbEntity
  8
LAY-10
  6
CONTINUOUS
 62
     7
100
AcDbLine
 10
394.3559693747238
 20
872.49357106617
 30
0.0
 11
384.1313211015486
 21
869.7538848184811
 31
0.0
  0
ARC
  5
E4
330
1F
100
AcDbEntity
  8
LAY-10
  6
CONTINUOUS
 62
     7
100
AcDbCircle
 10
699.0687132896826
 20
949.9999999999998
 30
0.0
 40
314.4154939411515
100
AcDbArc
 50
164.2710623200053
 51
165.7289376800003
  0
LINE
  5
E5
330
1F
100
AcDbEntity
  8
LAY-10
  6
CONTINUOUS
 62
     7
100
AcDbLine
 10
394.3559693747238
 20
1027.506428933829
 30
0.0
 11
384.1313211015486
 21
1030.246115181518
 31
0.0
  0
ARC
  5
E6
330
1F
100
AcDbEntity
  8
LAY-10
  6
CONTINUOUS
 62
     7
100
AcDbCircle
 10
699.0687132896826
 20
949.9999999999998
 30
0.0
 40
314.70446593794
100
AcDbArc
 50
135.7282683093578
 51
164.2717316906361
  0
LINE
  5
E7
330
1F
100
AcDbEntity
  8
LAY-10
  6
CONTINUOUS
 62
     7
100
AcDbLine
 10
396.4265217355432
 20
1035.233835544141
 30
0.0
 11
386.0687132897002
 21
1038.009201952561
 31
0.0
  0
ARC
  5
E8
330
1F
100
AcDbEntity
  8
LAY-10
  6
CONTINUOUS
 62
     7
100
AcDbCircle
 10
699.0687132896826
 20
949.9999999999998
 30
0.0
 40
314.4154939411515
100
AcDbArc
 50
134.2710623199936
 51
135.7289376799882
  0
LINE
  5
E9
330
1F
100
AcDbEntity
  8
LAY-10
  6
CONTINUOUS
 62
     7
100
AcDbLine
 10
473.9329506694267
 20
1169.478908370835
 30
0.0
 11
466.3505086320047
 21
1177.06135040826
 31
0.0
  0
ARC
  5
EA
330
1F
100
AcDbEntity
  8
LAY-10
  6
CONTINUOUS
 62
     7
100
AcDbCircle
 10
699.0687132896826
 20
949.9999999999998
 30
0.0
 40
314.70446593794
100
AcDbArc
 50
105.7282683093823
 51
134.2717316906239
  0
LINE
  5
EB
330
1F
100
AcDbEntity
  8
LAY-10
  6
CONTINUOUS
 62
     7
100
AcDbLine
 10
479.58980491892
 20
1175.135762620327
 30
0.0
 11
472.1048428934355
 21
1182.620724645813
 31
0.0
  0
ARC
  5
EC
330
1F
100
AcDbEntity
  8
LAY-10
  6
CONTINUOUS
 62
     7
100
AcDbCircle
 10
699.0687132896826
 20
949.9999999999998
 30
0.0
 40
314.4154939411515
100
AcDbArc
 50
104.2710623200178
 51
105.7289376800126
  0
LINE
  5
ED
330
1F
100
AcDbEntity
  8
LAY-10
  6
CONTINUOUS
 62
     7
100
AcDbLine
 10
613.8348777454466
 20
1252.642191554113
 30
0.0
 11
611.0951914977559
 21
1262.866839827286
 31
0.0
  0
LINE
  5
EE
330
1F
100
AcDbEntity
  8
LAY-10
  6
CONTINUOUS
 62
     7
100
AcDbLine
 10
621.5622843557594
 20
1254.712743914934
 30
0.0
 11
618.7869179473373
 21
1265.070552360775
 31
0.0
  0
ARC
  5
EF
330
1F
100
AcDbEntity
  8
LAY-10
  6
CONTINUOUS
 62
     7
100
AcDbCircle
 10
699.0687132896826
 20
949.9999999999998
 30
0.0
 40
326.0747543314101
100
AcDbArc
 50
104.2921089558706
 51
105.7078910441676
  0
ARC
  5
F0
330
1F
100
AcDbEntity
  8
LAY-10
  6
CONTINUOUS
 62
     7
100
AcDbCircle
 10
699.0687132896826
 20
949.9999999999998
 30
0.0
 40
326.0747543314101
100
AcDbArc
 50
134.2921089558382
 51
135.7078910441351
  0
ARC
  5
F1
330
1F
100
AcDbEntity
  8
LAY-10
  6
CONTINUOUS
 62
     7
100
AcDbCircle
 10
699.0687132896826
 20
949.9999999999998
 30
0.0
 40
326.0747543314101
100
AcDbArc
 50
164.2921089558583
 51
165.7078910441552
  0
ARC
  5
F2
330
1F
100
AcDbEntity
  8
LAY-10
  6
CONTINUOUS
 62
     7
100
AcDbCircle
 10
699.0687132896826
 20
949.9999999999998
 30
0.0
 40
326.0747543314101
100
AcDbArc
 50
194.2921089558452
 51
195.7078910441419
  0
ARC
  5
F3
330
1F
100
AcDbEntity
  8
LAY-10
  6
CONTINUOUS
 62
     7
100
AcDbCircle
 10
699.0687132896826
 20
949.9999999999998
 30
0.0
 40
326.0747543314101
100
AcDbArc
 50
224.2921089558648
 51
225.707891044162
  0
ARC
  5
F4
330
1F
100
AcDbEntity
  8
LAY-10
  6
CONTINUOUS
 62
     7
100
AcDbCircle
 10
699.0687132896826
 20
949.9999999999998
 30
0.0
 40
326.0747543314101
100
AcDbArc
 50
254.2921089558329
 51
255.7078910441299
  0
LINE
  5
F5
330
1F
100
AcDbEntity
  8
LAY-10
  6
CONTINUOUS
 62
     7
100
AcDbLine
 10
475.7632782398915
 20
1157.749085863736
 30
0.0
 11
475.7292021753447
 21
1157.783161928283
 31
0.0
  0
LINE
  5
F6
330
1F
100
AcDbEntity
  8
LAY-10
  6
CONTINUOUS
 62
     7
100
AcDbLine
 10
537.1416464485465
 20
1208.465906889518
 30
0.0
 11
537.11755103223
 21
1208.507641374809
 31
0.0
  0
ARC
  5
F7
330
1F
100
AcDbEntity
  8
LAY-10
  6
CONTINUOUS
 62
     7
100
AcDbCircle
 10
699.0687132896826
 20
949.9999999999998
 30
0.0
 40
399.9999999999901
100
AcDbArc
 50
257.8876595789762
 51
265.2318768470302
  0
ARC
  5
F8
330
1F
100
AcDbEntity
  8
LAY-10
  6
CONTINUOUS
 62
     7
100
AcDbCircle
 10
699.0687132896826
 20
949.9999999999998
 30
0.0
 40
399.9999999999901
100
AcDbArc
 50
214.7681231530356
 51
222.1123404210181
  0
ARC
  5
F9
330
1F
100
AcDbEntity
  8
LAY-10
  6
CONTINUOUS
 62
     7
100
AcDbCircle
 10
699.0687132896808
 20
949.9999999999998
 30
0.0
 40
400.2624659906002
100
AcDbArc
 50
224.1410947010089
 51
225.8589052990105
  0
ARC
  5
FA
330
1F
100
AcDbEntity
  8
LAY-10
  6
CONTINUOUS
 62
     7
100
AcDbCircle
 10
699.0687132896808
 20
949.9999999999998
 30
0.0
 40
358.2115940247
100
AcDbArc
 50
198.1740451675679
 51
205.5886686543235
  0
ARC
  5
FB
330
1F
100
AcDbEntity
  8
LAY-10
  6
CONTINUOUS
 62
     7
100
AcDbCircle
 10
699.0687132896826
 20
949.9999999999998
 30
0.0
 40
326.9347708297501
100
AcDbArc
 50
195.7100343493867
 51
224.28996565062
  0
ARC
  5
FC
330
1F
100
AcDbEntity
  8
LAY-10
  6
CONTINUOUS
 62
     7
100
AcDbCircle
 10
699.0687132896826
 20
949.9999999999998
 30
0.0
 40
326.9347708297501
100
AcDbArc
 50
225.7100343494068
 51
254.289965650588
  0
ARC
  5
FD
330
1F
100
AcDbEntity
  8
LAY-10
  6
CONTINUOUS
 62
     7
100
AcDbCircle
 10
699.0687132896808
 20
949.9999999999998
 30
0.0
 40
356.1109714100704
100
AcDbArc
 50
225.7766128799067
 51
254.223387120088
  0
ARC
  5
FE
330
1F
100
AcDbEntity
  8
LAY-10
  6
CONTINUOUS
 62
     7
100
AcDbCircle
 10
449.9119149754943
 20
663.083827828041
 30
0.0
 40
11.69990930819
100
AcDbArc
 50
49.0290885636208
 51
229.0290885636208
  0
ARC
  5
FF
330
1F
100
AcDbEntity
  8
LAY-10
  6
CONTINUOUS
 62
     7
100
AcDbCircle
 10
449.9119149754897
 20
663.083827828
 30
0.0
 40
10.99999999994595
100
AcDbArc
 50
49.02908856362371
 51
229.0290885636263
  0
ARC
  5
100
330
1F
100
AcDbEntity
  8
LAY-10
  6
CONTINUOUS
 62
     7
100
AcDbCircle
 10
429.9032300506133
 20
709.1187880083945
 30
0.0
 40
3.000000000000003
100
AcDbArc
 50
315.0000000000002
 51
41.82595483243719
  0
LINE
  5
101
330
1F
100
AcDbEntity
  8
LAY-10
  6
CONTINUOUS
 62
     7
100
AcDbLine
 10
406.6829572626384
 20
681.6558745333011
 30
0.0
 11
432.0245503941733
 21
706.9974676648355
 31
0.0
  0
LINE
  5
102
330
1F
100
AcDbEntity
  8
LAY-10
  6
CONTINUOUS
 62
     7
100
AcDbLine
 10
407.8436277856808
 20
679.9881179315972
 30
0.0
 11
434.8514948904376
 21
706.9959850363541
 31
0.0
  0
ARC
  5
103
330
1F
100
AcDbEntity
  8
LAY-10
  6
CONTINUOUS
 62
     7
100
AcDbCircle
 10
404.5616369190793
 20
683.7771948768606
 30
0.0
 40
3.000000000000003
100
AcDbArc
 50
222.1123404210203
 51
315.0000000000026
  0
ARC
  5
104
330
1F
100
AcDbEntity
  8
LAY-10
  6
CONTINUOUS
 62
     7
100
AcDbCircle
 10
405.7223074421208
 20
682.1094382751564
 30
0.0
 40
3.000000000000003
100
AcDbArc
 50
222.4030336830602
 51
315.0000000000039
  0
ARC
  5
105
330
1F
100
AcDbEntity
  8
LAY-10
  6
CONTINUOUS
 62
     7
100
AcDbCircle
 10
699.0687132896808
 20
949.9999999999998
 30
0.0
 40
400.2624659906002
100
AcDbArc
 50
214.4755719028181
 51
222.4030336830631
  0
ARC
  5
106
330
1F
100
AcDbEntity
  8
LAY-10
  6
CONTINUOUS
 62
     7
100
AcDbCircle
 10
374.4790598514646
 20
752.2057713655793
 30
0.0
 40
21.0334671869671
100
AcDbArc
 50
303.2325808851001
 51
343.3307595227062
  0
ARC
  5
107
330
1F
100
AcDbEntity
  8
LAY-10
  6
CONTINUOUS
 62
     7
100
AcDbCircle
 10
372.9464723307173
 20
723.6081186263593
 30
0.0
 40
3.000000000000003
100
AcDbArc
 50
120.0000000000016
 51
214.7681231530363
  0
LINE
  5
108
330
1F
100
AcDbEntity
  8
LAY-10
  6
CONTINUOUS
 62
     7
100
AcDbLine
 10
386.006219243578
 20
734.6122686371851
 30
0.0
 11
371.4464723307174
 21
726.2061948377129
 31
0.0
  0
ARC
  5
109
330
1F
100
AcDbEntity
  8
LAY-10
  6
CONTINUOUS
 62
     7
100
AcDbCircle
 10
371.5784070659492
 20
725.1276668542348
 30
0.0
 40
3.000000000000003
100
AcDbArc
 50
120.0000000000056
 51
214.4755719028196
  0
LINE
  5
10A
330
1F
100
AcDbEntity
  8
LAY-10
  6
CONTINUOUS
 62
     7
100
AcDbLine
 10
384.8736493418601
 20
736.2677801763127
 30
0.0
 11
370.0784070659492
 21
727.725743065588
 31
0.0
  0
ARC
  5
10B
330
1F
100
AcDbEntity
  8
LAY-10
  6
CONTINUOUS
 62
     7
100
AcDbCircle
 10
699.0687132896808
 20
949.9999999999998
 30
0.0
 40
337.99999999998
100
AcDbArc
 50
224.2633622838029
 51
225.736637716223
  0
LINE
  5
10C
330
1F
100
AcDbEntity
  8
LAY-10
  6
CONTINUOUS
 62
     7
100
AcDbLine
 10
411.8295693725368
 20
671.2461374570246
 30
0.0
 11
466.4479886439703
 21
723.0361296036638
 31
0.0
  0
LINE
  5
10D
330
1F
100
AcDbEntity
  8
LAY-10
  6
CONTINUOUS
 62
     7
100
AcDbLine
 10
472.1048428934528
 20
717.3792753541786
 30
0.0
 11
420.314850746804
 21
662.7608560827719
 31
0.0
  0
ARC
  5
10E
330
1F
100
AcDbEntity
  8
LAY-10
  6
CONTINUOUS
 62
     7
100
AcDbCircle
 10
699.0687132896808
 20
949.9999999999998
 30
0.0
 40
356.1109714100704
100
AcDbArc
 50
255.7766128798788
 51
257.8730850655604
  0
ARC
  5
10F
330
1F
100
AcDbEntity
  8
LAY-10
  6
CONTINUOUS
 62
     7
100
AcDbCircle
 10
699.0687132896826
 20
949.9999999999998
 30
0.0
 40
400.2624659906002
100
AcDbArc
 50
257.5969663169327
 51
265.5244280972473
  0
ARC
  5
110
330
1F
100
AcDbEntity
  8
LAY-10
  6
CONTINUOUS
 62
     7
100
AcDbCircle
 10
699.0687132896826
 20
949.9999999999998
 30
0.0
 40
400.2624659906002
100
AcDbArc
 50
254.1410947009851
 51
255.8589052989866
  0
ARC
  5
111
330
1F
100
AcDbEntity
  8
LAY-10
  6
CONTINUOUS
 62
     7
100
AcDbCircle
 10
699.0687132896808
 20
949.9999999999998
 30
0.0
 40
368.9999999999901
100
AcDbArc
 50
229.0290885636244
 51
250.9709114363689
  0
ARC
  5
112
330
1F
100
AcDbEntity
  8
LAY-10
  6
CONTINUOUS
 62
     7
100
AcDbCircle
 10
699.0687132896808
 20
949.9999999999998
 30
0.0
 40
368.30009069179
100
AcDbArc
 50
229.0290885636208
 51
250.9709114363748
  0
ARC
  5
113
330
1F
100
AcDbEntity
  8
LAY-10
  6
CONTINUOUS
 62
     7
100
AcDbCircle
 10
699.0687132896808
 20
949.9999999999998
 30
0.0
 40
390.9999999999602
100
AcDbArc
 50
229.0290885636244
 51
250.970911436371
  0
ARC
  5
114
330
1F
100
AcDbEntity
  8
LAY-10
  6
CONTINUOUS
 62
     7
100
AcDbCircle
 10
699.0687132896808
 20
949.9999999999998
 30
0.0
 40
391.6999093081703
100
AcDbArc
 50
229.0290885636208
 51
250.9709114363738
  0
ARC
  5
115
330
1F
100
AcDbEntity
  8
LAY-10
  6
CONTINUOUS
 62
     7
100
AcDbCircle
 10
625.0422060300677
 20
596.4552476972578
 30
0.0
 40
3.000000000000003
100
AcDbArc
 50
78.17404516755558
 51
164.999999999997
  0
LINE
  5
116
330
1F
100
AcDbEntity
  8
LAY-10
  6
CONTINUOUS
 62
     7
100
AcDbLine
 10
612.8687616926863
 20
562.6144448425209
 30
0.0
 11
622.1444285512007
 21
597.2317048325656
 31
0.0
  0
ARC
  5
117
330
1F
100
AcDbEntity
  8
LAY-10
  6
CONTINUOUS
 62
     7
100
AcDbCircle
 10
623.6274497880056
 20
598.9027121318716
 30
0.0
 40
3.000000000000003
100
AcDbArc
 50
77.87308506555723
 51
164.999999999997
  0
LINE
  5
118
330
1F
100
AcDbEntity
  8
LAY-10
  6
CONTINUOUS
 62
     7
100
AcDbLine
 10
610.844106846761
 20
562.7857367000472
 30
0.0
 11
620.7296723091395
 21
599.6791692671788
 31
0.0
  0
ARC
  5
119
330
1F
100
AcDbEntity
  8
LAY-10
  6
CONTINUOUS
 62
     7
100
AcDbCircle
 10
615.7665391715536
 20
561.8379877072132
 30
0.0
 40
3.000000000000003
100
AcDbArc
 50
164.999999999997
 51
257.8876595789775
  0
ARC
  5
11A
330
1F
100
AcDbEntity
  8
LAY-10
  6
CONTINUOUS
 62
     7
100
AcDbCircle
 10
613.7418843256282
 20
562.0092795647395
 30
0.0
 40
3.000000000000003
100
AcDbArc
 50
164.9999999999879
 51
257.596966316933
  0
ARC
  5
11B
330
1F
100
AcDbEntity
  8
LAY-10
  6
CONTINUOUS
 62
     7
100
AcDbCircle
 10
575.1704185892349
 20
590.7657970483508
 30
0.0
 40
11.69990930819
100
AcDbArc
 50
250.9709114363747
 51
70.97091143637411
  0
ARC
  5
11C
330
1F
100
AcDbEntity
  8
LAY-10
  6
CONTINUOUS
 62
     7
100
AcDbCircle
 10
575.1704185892013
 20
590.7657970483262
 30
0.0
 40
10.99999999994595
100
AcDbArc
 50
250.970911436371
 51
70.97091143637037
  0
ARC
  5
11D
330
1F
100
AcDbEntity
  8
LAY-10
  6
CONTINUOUS
 62
     7
100
AcDbCircle
 10
699.0687132896808
 20
949.9999999999998
 30
0.0
 40
337.99999999998
100
AcDbArc
 50
254.2633622837725
 51
255.7366377161929
  0
LINE
  5
11E
330
1F
100
AcDbEntity
  8
LAY-10
  6
CONTINUOUS
 62
     7
100
AcDbLine
 10
601.2803588829656
 20
561.8666731349806
 30
0.0
 11
618.8225981080413
 21
635.0626078119092
 31
0.0
  0
LINE
  5
11F
330
1F
100
AcDbEntity
  8
LAY-10
  6
CONTINUOUS
 62
     7
100
AcDbLine
 10
611.0951914977404
 20
637.133160172725
 30
0.0
 11
589.6892489674701
 21
564.9725016762288
 31
0.0
  0
ARC
  5
120
330
1F
100
AcDbEntity
  8
LAY-10
  6
CONTINUOUS
 62
     7
100
AcDbCircle
 10
690.0687132895143
 20
569.9999999997065
 30
0.0
 40
19.0280596441949
100
AcDbArc
 50
105.7453826944777
 51
176.8880340341711
  0
ARC
  5
121
330
1F
100
AcDbEntity
  8
LAY-10
  6
CONTINUOUS
 62
     7
100
AcDbCircle
 10
666.0687132894861
 20
554.3739139035708
 30
0.0
 40
3.000000000000003
100
AcDbArc
 50
265.2318768470292
 51
0.0000000000001146
  0
LINE
  5
122
330
1F
100
AcDbEntity
  8
LAY-10
  6
CONTINUOUS
 62
     7
100
AcDbLine
 10
669.0687132894852
 20
571.1860615025519
 30
0.0
 11
669.0687132894852
 21
554.3739139035708
 31
0.0
  0
ARC
  5
123
330
1F
100
AcDbEntity
  8
LAY-10
  6
CONTINUOUS
 62
     7
100
AcDbCircle
 10
668.0687132894852
 20
553.9489087441864
 30
0.0
 40
3.000000000000003
100
AcDbArc
 50
265.5244280972444
 51
0.0000000000001146
  0
LINE
  5
124
330
1F
100
AcDbEntity
  8
LAY-10
  6
CONTINUOUS
 62
     7
100
AcDbLine
 10
671.0687132894861
 20
571.0329829656655
 30
0.0
 11
671.0687132894852
 21
553.9489087441864
 31
0.0
  0
ARC
  5
125
330
1F
100
AcDbEntity
  8
LAY-10
  6
CONTINUOUS
 62
     7
100
AcDbCircle
 10
690.0687132895343
 20
569.9999999997124
 30
0.0
 40
11.59334530246777
100
AcDbArc
 50
90.00000000000685
 51
268.6432483440387
  0
ARC
  5
126
330
1F
100
AcDbEntity
  8
LAY-10
  6
CONTINUOUS
 62
     7
100
AcDbCircle
 10
690.0687132897235
 20
570.1065938977329
 30
0.0
 40
10.99999999998496
100
AcDbArc
 50
88.64286779687708
 51
268.6428677968752
  0
ARC
  5
127
330
1F
100
AcDbEntity
  8
LAY-10
  6
CONTINUOUS
 62
     7
100
AcDbCircle
 10
699.0687132896826
 20
949.9999999999998
 30
0.0
 40
399.9999999999901
100
AcDbArc
 50
197.8876595789889
 51
205.2318768470244
  0
ARC
  5
128
330
1F
100
AcDbEntity
  8
LAY-10
  6
CONTINUOUS
 62
     7
100
AcDbCircle
 10
699.0687132896808
 20
949.9999999999998
 30
0.0
 40
400.2624659906002
100
AcDbArc
 50
197.5969663169441
 51
205.5244280972416
  0
ARC
  5
129
330
1F
100
AcDbEntity
  8
LAY-10
  6
CONTINUOUS
 62
     7
100
AcDbCircle
 10
699.0687132896808
 20
949.9999999999998
 30
0.0
 40
400.2624659906002
100
AcDbArc
 50
194.1410947009971
 51
195.8589052989986
  0
ARC
  5
12A
330
1F
100
AcDbEntity
  8
LAY-10
  6
CONTINUOUS
 62
     7
100
AcDbCircle
 10
699.0687132896808
 20
949.9999999999998
 30
0.0
 40
358.2115940247
100
AcDbArc
 50
154.4113313456771
 51
161.8259548324327
  0
ARC
  5
12B
330
1F
100
AcDbEntity
  8
LAY-10
  6
CONTINUOUS
 62
     7
100
AcDbCircle
 10
699.0687132896808
 20
949.9999999999998
 30
0.0
 40
399.9999999999901
100
AcDbArc
 50
154.7681231529758
 51
162.1123404210115
  0
ARC
  5
12C
330
1F
100
AcDbEntity
  8
LAY-10
  6
CONTINUOUS
 62
     7
100
AcDbCircle
 10
699.0687132896808
 20
949.9999999999998
 30
0.0
 40
400.2624659906002
100
AcDbArc
 50
154.4755719027584
 51
162.4030336830561
  0
ARC
  5
12D
330
1F
100
AcDbEntity
  8
LAY-10
  6
CONTINUOUS
 62
     7
100
AcDbCircle
 10
699.0687132896808
 20
949.9999999999998
 30
0.0
 40
400.2624659906002
100
AcDbArc
 50
164.1410947010018
 51
165.858905299003
  0
ARC
  5
12E
330
1F
100
AcDbEntity
  8
LAY-10
  6
CONTINUOUS
 62
     7
100
AcDbCircle
 10
699.0687132896826
 20
949.9999999999998
 30
0.0
 40
337.99999999998
100
AcDbArc
 50
194.2633622837839
 51
195.7366377162043
  0
ARC
  5
12F
330
1F
100
AcDbEntity
  8
LAY-10
  6
CONTINUOUS
 62
     7
100
AcDbCircle
 10
699.0687132896826
 20
949.9999999999998
 30
0.0
 40
326.9347708297501
100
AcDbArc
 50
165.7100343494001
 51
194.2899656506004
  0
ARC
  5
130
330
1F
100
AcDbEntity
  8
LAY-10
  6
CONTINUOUS
 62
     7
100
AcDbCircle
 10
699.0687132896808
 20
949.9999999999998
 30
0.0
 40
356.1109714100704
100
AcDbArc
 50
207.6096465916406
 51
212.3903534083671
  0
ARC
  5
131
330
1F
100
AcDbEntity
  8
LAY-10
  6
CONTINUOUS
 62
     7
100
AcDbCircle
 10
365.4790598512399
 20
767.7942286340874
 30
0.0
 40
19.0280596441949
100
AcDbArc
 50
45.74538269447334
 51
116.8880340341662
  0
ARC
  5
132
330
1F
100
AcDbEntity
  8
LAY-10
  6
CONTINUOUS
 62
     7
100
AcDbCircle
 10
371.4816526103259
 20
793.1262300146229
 30
0.0
 40
5.0
100
AcDbArc
 50
256.6692404773004
 51
25.58866865432557
  0
ARC
  5
133
330
1F
100
AcDbEntity
  8
LAY-10
  6
CONTINUOUS
 62
     7
100
AcDbCircle
 10
380.8513012342491
 20
783.5717318126865
 30
0.0
 40
3.000000000000003
100
AcDbArc
 50
225.7453826944694
 51
27.60964659164313
  0
ARC
  5
134
330
1F
100
AcDbEntity
  8
LAY-10
  6
CONTINUOUS
 62
     7
100
AcDbCircle
 10
399.4185129552552
 20
744.7381684932564
 30
0.0
 40
5.0
100
AcDbArc
 50
34.41133134568263
 51
163.3307595227094
  0
ARC
  5
135
330
1F
100
AcDbEntity
  8
LAY-10
  6
CONTINUOUS
 62
     7
100
AcDbCircle
 10
395.8288991039254
 20
757.6297713270749
 30
0.0
 40
3.000000000000003
100
AcDbArc
 50
32.39035340836696
 51
194.2546173055345
  0
ARC
  5
136
330
1F
100
AcDbEntity
  8
LAY-10
  6
CONTINUOUS
 62
     7
100
AcDbCircle
 10
374.4790598514646
 20
752.2057713655793
 30
0.0
 40
19.0280596441949
100
AcDbArc
 50
303.1119659658417
 51
14.25461730553447
  0
ARC
  5
137
330
1F
100
AcDbEntity
  8
LAY-10
  6
CONTINUOUS
 62
     7
100
AcDbCircle
 10
339.9464723302499
 20
780.7657952768734
 30
0.0
 40
3.000000000000003
100
AcDbArc
 50
205.2318768470229
 51
299.9999999999926
  0
LINE
  5
138
330
1F
100
AcDbEntity
  8
LAY-10
  6
CONTINUOUS
 62
     7
100
AcDbLine
 10
356.0062192431415
 20
786.5737928650094
 30
0.0
 11
341.4464723302499
 21
778.1677190655199
 31
0.0
  0
ARC
  5
139
330
1F
100
AcDbEntity
  8
LAY-10
  6
CONTINUOUS
 62
     7
100
AcDbCircle
 10
340.5784070654836
 20
778.8212418896126
 30
0.0
 40
3.000000000000003
100
AcDbArc
 50
205.5244280972447
 51
299.9999999999926
  0
LINE
  5
13A
330
1F
100
AcDbEntity
  8
LAY-10
  6
CONTINUOUS
 62
     7
100
AcDbLine
 10
356.8736493414235
 20
784.7652027889969
 30
0.0
 11
342.0784070654827
 21
776.2231656782594
 31
0.0
  0
ARC
  5
13B
330
1F
100
AcDbEntity
  8
LAY-10
  6
CONTINUOUS
 62
     7
100
AcDbCircle
 10
365.4790598512545
 20
767.7942286340729
 30
0.0
 40
11.59334530246777
100
AcDbArc
 50
30.0000000000035
 51
208.6432483440319
  0
ARC
  5
13C
330
1F
100
AcDbEntity
  8
LAY-10
  6
CONTINUOUS
 62
     7
100
AcDbCircle
 10
374.4790598514601
 20
752.2057713655997
 30
0.0
 40
11.59334530246777
100
AcDbArc
 50
211.3567516559742
 51
30.0000000000035
  0
LINE
  5
13D
330
1F
100
AcDbEntity
  8
LAY-10
  6
CONTINUOUS
 62
     7
100
AcDbLine
 10
375.519191398037
 20
773.5909012853074
 30
0.0
 11
384.5191913982417
 21
758.0024440168343
 31
0.0
  0
LINE
  5
13E
330
1F
100
AcDbEntity
  8
LAY-10
  6
CONTINUOUS
 62
     7
100
AcDbLine
 10
383.9647169395603
 20
757.9831479161996
 30
0.0
 11
375.2252432550076
 21
773.1203603692754
 31
0.0
  0
ARC
  5
13F
330
1F
100
AcDbEntity
  8
LAY-10
  6
CONTINUOUS
 62
     7
100
AcDbCircle
 10
699.0687132896808
 20
949.9999999999998
 30
0.0
 40
391.6999093081703
100
AcDbArc
 50
208.6432483440319
 51
211.3567516559755
  0
ARC
  5
140
330
1F
100
AcDbEntity
  8
LAY-10
  6
CONTINUOUS
 62
     7
100
AcDbCircle
 10
699.0687132896808
 20
949.9999999999998
 30
0.0
 40
390.9999999999602
100
AcDbArc
 50
208.6428677968694
 51
211.3571322031375
  0
ARC
  5
141
330
1F
100
AcDbEntity
  8
LAY-10
  6
CONTINUOUS
 62
     7
100
AcDbCircle
 10
365.5713728749233
 20
767.8475255829196
 30
0.0
 40
10.99999999998496
100
AcDbArc
 50
28.64286779687133
 51
208.6428677968713
  0
ARC
  5
142
330
1F
100
AcDbEntity
  8
LAY-10
  6
CONTINUOUS
 62
     7
100
AcDbCircle
 10
374.5713728749397
 20
752.2590683147738
 30
0.0
 40
10.99999999998496
100
AcDbArc
 50
211.357132203138
 51
31.3571322031354
  0
ARC
  5
143
330
1F
100
AcDbEntity
  8
LAY-10
  6
CONTINUOUS
 62
     7
100
AcDbCircle
 10
699.0687132896808
 20
949.9999999999998
 30
0.0
 40
356.1109714100704
100
AcDbArc
 50
195.7766128798907
 51
197.8730850655719
  0
LINE
  5
144
330
1F
100
AcDbEntity
  8
LAY-10
  6
CONTINUOUS
 62
     7
100
AcDbLine
 10
314.0412149658705
 20
840.6205356778999
 30
0.0
 11
386.2018734623698
 21
862.0264782081997
 31
0.0
  0
ARC
  5
145
330
1F
100
AcDbEntity
  8
LAY-10
  6
CONTINUOUS
 62
     7
100
AcDbCircle
 10
355.8767227910457
 20
837.3364596888139
 30
0.0
 40
3.000000000000003
100
AcDbArc
 50
18.17404516756026
 51
105.0000000000082
  0
LINE
  5
146
330
1F
100
AcDbEntity
  8
LAY-10
  6
CONTINUOUS
 62
     7
100
AcDbLine
 10
320.4830056656947
 20
830.9585703091655
 30
0.0
 11
355.1002656557384
 21
840.2342371676807
 31
0.0
  0
ARC
  5
147
330
1F
100
AcDbEntity
  8
LAY-10
  6
CONTINUOUS
 62
     7
100
AcDbCircle
 10
357.2889110452497
 20
839.7854067519086
 30
0.0
 40
3.000000000000003
100
AcDbArc
 50
17.8730850655673
 51
105.0000000000061
  0
LINE
  5
148
330
1F
100
AcDbEntity
  8
LAY-10
  6
CONTINUOUS
 62
     7
100
AcDbLine
 10
319.6190213428099
 20
832.7976187683955
 30
0.0
 11
356.5124539099415
 21
842.6831842307754
 31
0.0
  0
ARC
  5
149
330
1F
100
AcDbEntity
  8
LAY-10
  6
CONTINUOUS
 62
     7
100
AcDbCircle
 10
321.259462801002
 20
828.0607928302987
 30
0.0
 40
3.000000000000003
100
AcDbArc
 50
105.0000000000082
 51
197.8876595789957
  0
ARC
  5
14A
330
1F
100
AcDbEntity
  8
LAY-10
  6
CONTINUOUS
 62
     7
100
AcDbCircle
 10
320.3954784781181
 20
829.8998412895287
 30
0.0
 40
3.000000000000003
100
AcDbArc
 50
105.0000000000038
 51
197.5969663169452
  0
LINE
  5
14B
330
1F
100
AcDbEntity
  8
LAY-10
  6
CONTINUOUS
 62
     7
100
AcDbLine
 10
384.1313211015504
 20
869.7538848184997
 30
0.0
 11
310.9353864246395
 21
852.2116455933995
 31
0.0
  0
ARC
  5
14C
330
1F
100
AcDbEntity
  8
LAY-10
  6
CONTINUOUS
 62
     7
100
AcDbCircle
 10
326.0136202750664
 20
877.6819692203774
 30
0.0
 40
11.69990930819
100
AcDbArc
 50
190.9709114363662
 51
10.9709114363684
  0
ARC
  5
14D
330
1F
100
AcDbEntity
  8
LAY-10
  6
CONTINUOUS
 62
     7
100
AcDbCircle
 10
326.0136202750282
 20
877.6819692203937
 30
0.0
 40
10.99999999994595
100
AcDbArc
 50
190.9709114363632
 51
10.97091143636296
  0
ARC
  5
14E
330
1F
100
AcDbEntity
  8
LAY-10
  6
CONTINUOUS
 62
     7
100
AcDbCircle
 10
699.0687132896808
 20
949.9999999999998
 30
0.0
 40
356.1109714100704
100
AcDbArc
 50
162.1269149344284
 51
164.2233871201097
  0
ARC
  5
14F
330
1F
100
AcDbEntity
  8
LAY-10
  6
CONTINUOUS
 62
     7
100
AcDbCircle
 10
355.8767227910457
 20
1062.663540311186
 30
0.0
 40
3.000000000000003
100
AcDbArc
 50
254.9999999999875
 51
341.8259548324315
  0
LINE
  5
150
330
1F
100
AcDbEntity
  8
LAY-10
  6
CONTINUOUS
 62
     7
100
AcDbLine
 10
320.4830056656947
 20
1069.041429690834
 30
0.0
 11
355.1002656557384
 21
1059.765762832318
 31
0.0
  0
ARC
  5
151
330
1F
100
AcDbEntity
  8
LAY-10
  6
CONTINUOUS
 62
     7
100
AcDbCircle
 10
357.2889110452497
 20
1060.214593248091
 30
0.0
 40
3.000000000000003
100
AcDbArc
 50
254.9999999999938
 51
342.1269149344328
  0
LINE
  5
152
330
1F
100
AcDbEntity
  8
LAY-10
  6
CONTINUOUS
 62
     7
100
AcDbLine
 10
319.6190213428099
 20
1067.202381231604
 30
0.0
 11
356.5124539099415
 21
1057.316815769224
 31
0.0
  0
ARC
  5
153
330
1F
100
AcDbEntity
  8
LAY-10
  6
CONTINUOUS
 62
     7
100
AcDbCircle
 10
321.259462801002
 20
1071.939207169701
 30
0.0
 40
3.000000000000003
100
AcDbArc
 50
162.1123404210141
 51
254.9999999999947
  0
ARC
  5
154
330
1F
100
AcDbEntity
  8
LAY-10
  6
CONTINUOUS
 62
     7
100
AcDbCircle
 10
320.3954784781181
 20
1070.100158710471
 30
0.0
 40
3.000000000000003
100
AcDbArc
 50
162.4030336830645
 51
254.9999999999976
  0
ARC
  5
155
330
1F
100
AcDbEntity
  8
LAY-10
  6
CONTINUOUS
 62
     7
100
AcDbCircle
 10
699.0687132896808
 20
949.9999999999998
 30
0.0
 40
356.1109714100704
100
AcDbArc
 50
165.7766128798997
 51
194.2233871201002
  0
ARC
  5
156
330
1F
100
AcDbEntity
  8
LAY-10
  6
CONTINUOUS
 62
     7
100
AcDbCircle
 10
699.0687132896808
 20
949.9999999999998
 30
0.0
 40
368.30009069179
100
AcDbArc
 50
169.0290885636138
 51
190.970911436368
  0
ARC
  5
157
330
1F
100
AcDbEntity
  8
LAY-10
  6
CONTINUOUS
 62
     7
100
AcDbCircle
 10
699.0687132896808
 20
949.9999999999998
 30
0.0
 40
368.9999999999901
100
AcDbArc
 50
169.0290885636175
 51
190.9709114363618
  0
ARC
  5
158
330
1F
100
AcDbEntity
  8
LAY-10
  6
CONTINUOUS
 62
     7
100
AcDbCircle
 10
699.0687132896808
 20
949.9999999999998
 30
0.0
 40
390.9999999999602
100
AcDbArc
 50
169.0290885636175
 51
190.9709114363636
  0
ARC
  5
159
330
1F
100
AcDbEntity
  8
LAY-10
  6
CONTINUOUS
 62
     7
100
AcDbCircle
 10
699.0687132896808
 20
949.9999999999998
 30
0.0
 40
391.6999093081703
100
AcDbArc
 50
169.0290885636138
 51
190.9709114363662
  0
ARC
  5
15A
330
1F
100
AcDbEntity
  8
LAY-10
  6
CONTINUOUS
 62
     7
100
AcDbCircle
 10
326.01362027509
 20
1022.318030779746
 30
0.0
 40
11.69990930819
100
AcDbArc
 50
349.029088563614
 51
169.0290885636138
  0
ARC
  5
15B
330
1F
100
AcDbEntity
  8
LAY-10
  6
CONTINUOUS
 62
     7
100
AcDbCircle
 10
326.0136202750518
 20
1022.31803077973
 30
0.0
 40
10.99999999994595
100
AcDbArc
 50
349.0290885636178
 51
169.0290885636181
  0
ARC
  5
15C
330
1F
100
AcDbEntity
  8
LAY-10
  6
CONTINUOUS
 62
     7
100
AcDbCircle
 10
699.0687132896826
 20
949.9999999999998
 30
0.0
 40
326.9347708297501
100
AcDbArc
 50
135.7100343493803
 51
164.2899656506134
  0
ARC
  5
15D
330
1F
100
AcDbEntity
  8
LAY-10
  6
CONTINUOUS
 62
     7
100
AcDbCircle
 10
699.0687132896826
 20
949.9999999999998
 30
0.0
 40
326.9347708297501
100
AcDbArc
 50
105.7100343494123
 51
134.2899656505936
  0
ARC
  5
15E
330
1F
100
AcDbEntity
  8
LAY-10
  6
CONTINUOUS
 62
     7
100
AcDbCircle
 10
699.0687132896808
 20
949.9999999999998
 30
0.0
 40
337.99999999998
100
AcDbArc
 50
164.2633622837959
 51
165.7366377162163
  0
LINE
  5
15F
330
1F
100
AcDbEntity
  8
LAY-10
  6
CONTINUOUS
 62
     7
100
AcDbLine
 10
314.0412149658705
 20
1059.3794643221
 30
0.0
 11
386.2018734623698
 21
1037.973521791799
 31
0.0
  0
LINE
  5
160
330
1F
100
AcDbEntity
  8
LAY-10
  6
CONTINUOUS
 62
     7
100
AcDbLine
 10
384.1313211015504
 20
1030.246115181499
 30
0.0
 11
310.9353864246395
 21
1047.7883544066
 31
0.0
  0
ARC
  5
161
330
1F
100
AcDbEntity
  8
LAY-10
  6
CONTINUOUS
 62
     7
100
AcDbCircle
 10
699.0687132896808
 20
949.9999999999998
 30
0.0
 40
356.1109714100704
100
AcDbArc
 50
135.7766128798835
 51
137.8730850655649
  0
ARC
  5
162
330
1F
100
AcDbEntity
  8
LAY-10
  6
CONTINUOUS
 62
     7
100
AcDbCircle
 10
699.0687132896808
 20
949.9999999999998
 30
0.0
 40
356.1109714100704
100
AcDbArc
 50
105.7766128799118
 51
134.2233871200933
  0
ARC
  5
163
330
1F
100
AcDbEntity
  8
LAY-10
  6
CONTINUOUS
 62
     7
100
AcDbCircle
 10
449.9119149754952
 20
1236.916172171958
 30
0.0
 40
11.69990930819
100
AcDbArc
 50
130.9709114363795
 51
310.9709114363794
  0
ARC
  5
164
330
1F
100
AcDbEntity
  8
LAY-10
  6
CONTINUOUS
 62
     7
100
AcDbCircle
 10
449.9119149754907
 20
1236.916172172
 30
0.0
 40
10.99999999994595
100
AcDbArc
 50
130.9709114363742
 51
310.9709114363758
  0
ARC
  5
165
330
1F
100
AcDbEntity
  8
LAY-10
  6
CONTINUOUS
 62
     7
100
AcDbCircle
 10
699.0687132896808
 20
949.9999999999998
 30
0.0
 40
400.2624659906002
100
AcDbArc
 50
134.14109470099
 51
135.8589052989915
  0
ARC
  5
166
330
1F
100
AcDbEntity
  8
LAY-10
  6
CONTINUOUS
 62
     7
100
AcDbCircle
 10
429.9032300506142
 20
1190.881211991604
 30
0.0
 40
3.000000000000003
100
AcDbArc
 50
318.1740451675632
 51
44.99999999999942
  0
ARC
  5
167
330
1F
100
AcDbEntity
  8
LAY-10
  6
CONTINUOUS
 62
     7
100
AcDbCircle
 10
699.0687132896808
 20
949.9999999999998
 30
0.0
 40
358.2115940247
100
AcDbArc
 50
138.1740451675609
 51
145.5886686543163
  0
LINE
  5
168
330
1F
100
AcDbEntity
  8
LAY-10
  6
CONTINUOUS
 62
     7
100
AcDbLine
 10
406.6829572626393
 20
1218.344125466698
 30
0.0
 11
432.0245503941733
 21
1193.002532335164
 31
0.0
  0
ARC
  5
169
330
1F
100
AcDbEntity
  8
LAY-10
  6
CONTINUOUS
 62
     7
100
AcDbCircle
 10
432.7301745468794
 20
1190.882694620086
 30
0.0
 40
3.000000000000003
100
AcDbArc
 50
317.8730850655633
 51
45.00000000000004
  0
LINE
  5
16A
330
1F
100
AcDbEntity
  8
LAY-10
  6
CONTINUOUS
 62
     7
100
AcDbLine
 10
407.8436277856808
 20
1220.011882068403
 30
0.0
 11
434.8514948904385
 21
1193.004014963645
 31
0.0
  0
ARC
  5
16B
330
1F
100
AcDbEntity
  8
LAY-10
  6
CONTINUOUS
 62
     7
100
AcDbCircle
 10
404.5616369190793
 20
1216.222805123138
 30
0.0
 40
3.000000000000003
100
AcDbArc
 50
44.99999999999856
 51
137.887659578988
  0
ARC
  5
16C
330
1F
100
AcDbEntity
  8
LAY-10
  6
CONTINUOUS
 62
     7
100
AcDbCircle
 10
699.0687132896808
 20
949.9999999999998
 30
0.0
 40
399.9999999999901
100
AcDbArc
 50
137.887659578982
 51
145.2318768469646
  0
ARC
  5
16D
330
1F
100
AcDbEntity
  8
LAY-10
  6
CONTINUOUS
 62
     7
100
AcDbCircle
 10
405.7223074421217
 20
1217.890561724843
 30
0.0
 40
3.000000000000003
100
AcDbArc
 50
44.99999999999712
 51
137.5969663169332
  0
ARC
  5
16E
330
1F
100
AcDbEntity
  8
LAY-10
  6
CONTINUOUS
 62
     7
100
AcDbCircle
 10
699.0687132896808
 20
949.9999999999998
 30
0.0
 40
400.2624659906002
100
AcDbArc
 50
137.5969663169373
 51
145.5244280971821
  0
ARC
  5
16F
330
1F
100
AcDbEntity
  8
LAY-10
  6
CONTINUOUS
 62
     7
100
AcDbCircle
 10
699.0687132896808
 20
949.9999999999998
 30
0.0
 40
356.1109714100704
100
AcDbArc
 50
147.6096465916334
 51
152.3903534083599
  0
ARC
  5
170
330
1F
100
AcDbEntity
  8
LAY-10
  6
CONTINUOUS
 62
     7
100
AcDbCircle
 10
365.4790598512399
 20
1132.205771365911
 30
0.0
 40
19.0280596441949
100
AcDbArc
 50
243.1119659658346
 51
314.2546173055273
  0
ARC
  5
171
330
1F
100
AcDbEntity
  8
LAY-10
  6
CONTINUOUS
 62
     7
100
AcDbCircle
 10
371.4816526103268
 20
1106.873769985376
 30
0.0
 40
5.0
100
AcDbArc
 50
334.411331345675
 51
103.3307595226999
  0
ARC
  5
172
330
1F
100
AcDbEntity
  8
LAY-10
  6
CONTINUOUS
 62
     7
100
AcDbCircle
 10
380.8513012342491
 20
1116.428268187313
 30
0.0
 40
3.000000000000003
100
AcDbArc
 50
332.3903534083659
 51
134.2546173055296
  0
ARC
  5
173
330
1F
100
AcDbEntity
  8
LAY-10
  6
CONTINUOUS
 62
     7
100
AcDbCircle
 10
399.4185129552561
 20
1155.261831506744
 30
0.0
 40
5.0
100
AcDbArc
 50
196.6692404772913
 51
325.5886686543174
  0
ARC
  5
174
330
1F
100
AcDbEntity
  8
LAY-10
  6
CONTINUOUS
 62
     7
100
AcDbCircle
 10
374.4790598514655
 20
1147.794228634419
 30
0.0
 40
21.0334671869671
100
AcDbArc
 50
16.6692404772941
 51
56.76741911489942
  0
ARC
  5
175
330
1F
100
AcDbEntity
  8
LAY-10
  6
CONTINUOUS
 62
     7
100
AcDbCircle
 10
395.8288991039262
 20
1142.370228672925
 30
0.0
 40
3.000000000000003
100
AcDbArc
 50
165.7453826944661
 51
327.6096465916326
  0
ARC
  5
176
330
1F
100
AcDbEntity
  8
LAY-10
  6
CONTINUOUS
 62
     7
100
AcDbCircle
 10
374.4790598514655
 20
1147.794228634419
 30
0.0
 40
19.0280596441949
100
AcDbArc
 50
345.7453826944674
 51
56.88803403415866
  0
ARC
  5
177
330
1F
100
AcDbEntity
  8
LAY-10
  6
CONTINUOUS
 62
     7
100
AcDbCircle
 10
339.9464723302508
 20
1119.234204723126
 30
0.0
 40
3.000000000000003
100
AcDbArc
 50
60.00000000000043
 51
154.7681231529779
  0
LINE
  5
178
330
1F
100
AcDbEntity
  8
LAY-10
  6
CONTINUOUS
 62
     7
100
AcDbLine
 10
356.0062192431424
 20
1113.42620713499
 30
0.0
 11
341.4464723302499
 21
1121.83228093448
 31
0.0
  0
ARC
  5
179
330
1F
100
AcDbEntity
  8
LAY-10
  6
CONTINUOUS
 62
     7
100
AcDbCircle
 10
340.5784070654836
 20
1121.178758110387
 30
0.0
 40
3.000000000000003
100
AcDbArc
 50
60.00000000001039
 51
154.4755719027643
  0
LINE
  5
17A
330
1F
100
AcDbEntity
  8
LAY-10
  6
CONTINUOUS
 62
     7
100
AcDbLine
 10
356.8736493414244
 20
1115.234797211003
 30
0.0
 11
342.0784070654836
 21
1123.77683432174
 31
0.0
  0
ARC
  5
17B
330
1F
100
AcDbEntity
  8
LAY-10
  6
CONTINUOUS
 62
     7
100
AcDbCircle
 10
372.9464723307183
 20
1176.391881373641
 30
0.0
 40
3.000000000000003
100
AcDbArc
 50
145.2318768469641
 51
239.9999999999992
  0
LINE
  5
17C
330
1F
100
AcDbEntity
  8
LAY-10
  6
CONTINUOUS
 62
     7
100
AcDbLine
 10
386.0062192435789
 20
1165.387731362814
 30
0.0
 11
371.4464723307183
 21
1173.793805162287
 31
0.0
  0
ARC
  5
17D
330
1F
100
AcDbEntity
  8
LAY-10
  6
CONTINUOUS
 62
     7
100
AcDbCircle
 10
371.5784070659502
 20
1174.872333145765
 30
0.0
 40
3.000000000000003
100
AcDbArc
 50
145.5244280971809
 51
239.9999999999942
  0
LINE
  5
17E
330
1F
100
AcDbEntity
  8
LAY-10
  6
CONTINUOUS
 62
     7
100
AcDbLine
 10
384.873649341861
 20
1163.732219823686
 30
0.0
 11
370.0784070659492
 21
1172.274256934411
 31
0.0
  0
ARC
  5
17F
330
1F
100
AcDbEntity
  8
LAY-10
  6
CONTINUOUS
 62
     7
100
AcDbCircle
 10
365.4790598512554
 20
1132.205771365926
 30
0.0
 40
11.59334530246777
100
AcDbArc
 50
151.3567516559686
 51
329.9999999999966
  0
ARC
  5
180
330
1F
100
AcDbEntity
  8
LAY-10
  6
CONTINUOUS
 62
     7
100
AcDbCircle
 10
374.4790598514601
 20
1147.794228634399
 30
0.0
 40
11.59334530246777
100
AcDbArc
 50
329.9999999999989
 51
148.643248344024
  0
LINE
  5
181
330
1F
100
AcDbEntity
  8
LAY-10
  6
CONTINUOUS
 62
     7
100
AcDbLine
 10
375.519191398037
 20
1126.409098714693
 30
0.0
 11
384.5191913982426
 21
1141.997555983165
 31
0.0
  0
LINE
  5
182
330
1F
100
AcDbEntity
  8
LAY-10
  6
CONTINUOUS
 62
     7
100
AcDbLine
 10
383.9647169395603
 20
1142.016852083799
 30
0.0
 11
375.2252432550085
 21
1126.879639630724
 31
0.0
  0
ARC
  5
183
330
1F
100
AcDbEntity
  8
LAY-10
  6
CONTINUOUS
 62
     7
100
AcDbCircle
 10
699.0687132896808
 20
949.9999999999998
 30
0.0
 40
391.6999093081703
100
AcDbArc
 50
148.6432483440247
 51
151.3567516559685
  0
ARC
  5
184
330
1F
100
AcDbEntity
  8
LAY-10
  6
CONTINUOUS
 62
     7
100
AcDbCircle
 10
699.0687132896808
 20
949.9999999999998
 30
0.0
 40
390.9999999999602
100
AcDbArc
 50
148.6428677968628
 51
151.3571322031308
  0
ARC
  5
185
330
1F
100
AcDbEntity
  8
LAY-10
  6
CONTINUOUS
 62
     7
100
AcDbCircle
 10
365.5713728749242
 20
1132.15247441708
 30
0.0
 40
10.99999999998496
100
AcDbArc
 50
151.3571322031314
 51
331.3571322031289
  0
ARC
  5
186
330
1F
100
AcDbEntity
  8
LAY-10
  6
CONTINUOUS
 62
     7
100
AcDbCircle
 10
374.5713728749406
 20
1147.740931685225
 30
0.0
 40
10.99999999998496
100
AcDbArc
 50
328.6428677968627
 51
148.6428677968647
  0
ARC
  5
187
330
1F
100
AcDbEntity
  8
LAY-10
  6
CONTINUOUS
 62
     7
100
AcDbCircle
 10
699.0687132896808
 20
949.9999999999998
 30
0.0
 40
337.99999999998
100
AcDbArc
 50
134.2633622837771
 51
135.7366377161975
  0
LINE
  5
188
330
1F
100
AcDbEntity
  8
LAY-10
  6
CONTINUOUS
 62
     7
100
AcDbLine
 10
411.8295693725377
 20
1228.753862542975
 30
0.0
 11
466.4479886439703
 21
1176.963870396336
 31
0.0
  0
LINE
  5
189
330
1F
100
AcDbEntity
  8
LAY-10
  6
CONTINUOUS
 62
     7
100
AcDbLine
 10
472.1048428934528
 20
1182.62072464582
 30
0.0
 11
420.314850746804
 21
1237.239143917229
 31
0.0
  0
ARC
  5
18A
330
1F
100
AcDbEntity
  8
LAY-10
  6
CONTINUOUS
 62
     7
100
AcDbCircle
 10
699.0687132896808
 20
949.9999999999998
 30
0.0
 40
356.1109714100704
100
AcDbArc
 50
102.1269149344402
 51
104.2233871201219
  0
ARC
  5
18B
330
1F
100
AcDbEntity
  8
LAY-10
  6
CONTINUOUS
 62
     7
100
AcDbCircle
 10
699.0687132896826
 20
949.9999999999998
 30
0.0
 40
358.2115940247
100
AcDbArc
 50
94.41133134567194
 51
101.8259548324449
  0
ARC
  5
18C
330
1F
100
AcDbEntity
  8
LAY-10
  6
CONTINUOUS
 62
     7
100
AcDbCircle
 10
699.0687132896826
 20
949.9999999999998
 30
0.0
 40
400.2624659906002
100
AcDbArc
 50
94.47557190275342
 51
102.4030336830682
  0
ARC
  5
18D
330
1F
100
AcDbEntity
  8
LAY-10
  6
CONTINUOUS
 62
     7
100
AcDbCircle
 10
699.0687132896826
 20
949.9999999999998
 30
0.0
 40
400.2624659906002
100
AcDbArc
 50
104.1410947010141
 51
105.8589052990157
  0
ARC
  5
18E
330
1F
100
AcDbEntity
  8
LAY-10
  6
CONTINUOUS
 62
     7
100
AcDbCircle
 10
699.0687132896826
 20
949.9999999999998
 30
0.0
 40
399.9999999999901
100
AcDbArc
 50
94.76812315297062
 51
102.1123404210238
  0
ARC
  5
18F
330
1F
100
AcDbEntity
  8
LAY-10
  6
CONTINUOUS
 62
     7
100
AcDbCircle
 10
699.0687132896808
 20
949.9999999999998
 30
0.0
 40
368.9999999999901
100
AcDbArc
 50
109.0290885636315
 51
130.9709114363757
  0
ARC
  5
190
330
1F
100
AcDbEntity
  8
LAY-10
  6
CONTINUOUS
 62
     7
100
AcDbCircle
 10
699.0687132896808
 20
949.9999999999998
 30
0.0
 40
368.30009069179
100
AcDbArc
 50
109.0290885636252
 51
130.9709114363794
  0
ARC
  5
191
330
1F
100
AcDbEntity
  8
LAY-10
  6
CONTINUOUS
 62
     7
100
AcDbCircle
 10
699.0687132896808
 20
949.9999999999998
 30
0.0
 40
390.9999999999602
100
AcDbArc
 50
109.0290885636297
 51
130.9709114363756
  0
ARC
  5
192
330
1F
100
AcDbEntity
  8
LAY-10
  6
CONTINUOUS
 62
     7
100
AcDbCircle
 10
699.0687132896808
 20
949.9999999999998
 30
0.0
 40
391.6999093081703
100
AcDbArc
 50
109.0290885636268
 51
130.9709114363794
  0
ARC
  5
193
330
1F
100
AcDbEntity
  8
LAY-10
  6
CONTINUOUS
 62
     7
100
AcDbCircle
 10
625.0422060300677
 20
1303.544752302742
 30
0.0
 40
3.000000000000003
100
AcDbArc
 50
195.0000000000037
 51
281.8259548324442
  0
LINE
  5
194
330
1F
100
AcDbEntity
  8
LAY-10
  6
CONTINUOUS
 62
     7
100
AcDbLine
 10
612.8687616926873
 20
1337.385555157479
 30
0.0
 11
622.1444285512016
 21
1302.768295167434
 31
0.0
  0
ARC
  5
195
330
1F
100
AcDbEntity
  8
LAY-10
  6
CONTINUOUS
 62
     7
100
AcDbCircle
 10
623.6274497880065
 20
1301.097287868128
 30
0.0
 40
3.000000000000003
100
AcDbArc
 50
195.0000000000037
 51
282.1269149344424
  0
LINE
  5
196
330
1F
100
AcDbEntity
  8
LAY-10
  6
CONTINUOUS
 62
     7
100
AcDbLine
 10
610.8441068467619
 20
1337.214263299952
 30
0.0
 11
620.7296723091395
 21
1300.320830732821
 31
0.0
  0
ARC
  5
197
330
1F
100
AcDbEntity
  8
LAY-10
  6
CONTINUOUS
 62
     7
100
AcDbCircle
 10
615.7665391715545
 20
1338.162012292786
 30
0.0
 40
3.000000000000003
100
AcDbArc
 50
102.112340421022
 51
195.0000000000037
  0
ARC
  5
198
330
1F
100
AcDbEntity
  8
LAY-10
  6
CONTINUOUS
 62
     7
100
AcDbCircle
 10
613.7418843256282
 20
1337.990720435259
 30
0.0
 40
3.000000000000003
100
AcDbArc
 50
102.4030336830672
 51
195.0000000000125
  0
ARC
  5
199
330
1F
100
AcDbEntity
  8
LAY-10
  6
CONTINUOUS
 62
     7
100
AcDbCircle
 10
575.1704185892349
 20
1309.234202951648
 30
0.0
 40
11.69990930819
100
AcDbArc
 50
289.0290885636257
 51
109.0290885636261
  0
ARC
  5
19A
330
1F
100
AcDbEntity
  8
LAY-10
  6
CONTINUOUS
 62
     7
100
AcDbCircle
 10
575.1704185892022
 20
1309.234202951674
 30
0.0
 40
10.99999999994595
100
AcDbArc
 50
289.0290885636297
 51
109.0290885636298
  0
ARC
  5
19B
330
1F
100
AcDbEntity
  8
LAY-10
  6
CONTINUOUS
 62
     7
100
AcDbCircle
 10
699.0687132896808
 20
949.9999999999998
 30
0.0
 40
337.99999999998
100
AcDbArc
 50
104.2633622838078
 51
105.7366377162282
  0
LINE
  5
19C
330
1F
100
AcDbEntity
  8
LAY-10
  6
CONTINUOUS
 62
     7
100
AcDbLine
 10
601.2803588829656
 20
1338.133326865018
 30
0.0
 11
618.8225981080423
 21
1264.93739218809
 31
0.0
  0
LINE
  5
19D
330
1F
100
AcDbEntity
  8
LAY-10
  6
CONTINUOUS
 62
     7
100
AcDbLine
 10
611.0951914977404
 20
1262.866839827275
 30
0.0
 11
589.689248967471
 21
1335.027498323771
 31
0.0
  0
ARC
  5
19E
330
1F
100
AcDbEntity
  8
LAY-10
  6
CONTINUOUS
 62
     7
100
AcDbCircle
 10
690.0687132895152
 20
1330.000000000294
 30
0.0
 40
19.0280596441949
100
AcDbArc
 50
183.1119659658292
 51
254.2546173055226
  0
ARC
  5
19F
330
1F
100
AcDbEntity
  8
LAY-10
  6
CONTINUOUS
 62
     7
100
AcDbCircle
 10
684.091115420061
 20
1308.798496860202
 30
0.0
 40
3.000000000000003
100
AcDbArc
 50
272.3903534083565
 51
74.25461730552034
  0
ARC
  5
1A0
330
1F
100
AcDbEntity
  8
LAY-10
  6
CONTINUOUS
 62
     7
100
AcDbCircle
 10
666.0687132894861
 20
1345.626086096429
 30
0.0
 40
3.000000000000003
100
AcDbArc
 50
0.0000000000000573
 51
94.76812315297154
  0
LINE
  5
1A1
330
1F
100
AcDbEntity
  8
LAY-10
  6
CONTINUOUS
 62
     7
100
AcDbLine
 10
669.068713289486
 20
1328.813938497448
 30
0.0
 11
669.068713289486
 21
1345.626086096429
 31
0.0
  0
ARC
  5
1A2
330
1F
100
AcDbEntity
  8
LAY-10
  6
CONTINUOUS
 62
     7
100
AcDbCircle
 10
668.0687132894861
 20
1346.051091255814
 30
0.0
 40
3.000000000000003
100
AcDbArc
 50
0.0000000000001146
 51
94.47557190275606
  0
LINE
  5
1A3
330
1F
100
AcDbEntity
  8
LAY-10
  6
CONTINUOUS
 62
     7
100
AcDbLine
 10
671.068713289487
 20
1328.967017034334
 30
0.0
 11
671.0687132894861
 21
1346.051091255814
 31
0.0
  0
ARC
  5
1A4
330
1F
100
AcDbEntity
  8
LAY-10
  6
CONTINUOUS
 62
     7
100
AcDbCircle
 10
690.0687132895351
 20
1330.000000000287
 30
0.0
 40
11.59334530246777
100
AcDbArc
 50
91.35675165596253
 51
270.0000000000002
  0
ARC
  5
1A5
330
1F
100
AcDbEntity
  8
LAY-10
  6
CONTINUOUS
 62
     7
100
AcDbCircle
 10
690.0687132897244
 20
1329.893406102267
 30
0.0
 40
10.99999999998496
100
AcDbArc
 50
91.35713220312492
 51
271.3571322031232
  0
LINE
  5
1A6
330
1F
100
AcDbEntity
  8
LAY-10
  6
HIDDEN
 62
     4
100
AcDbLine
 10
918.950035229486
 20
1162.810254127937
 30
0.0
 11
918.8406679890165
 21
1162.700886887466
 31
0.0
  0
LINE
  5
1A7
330
1F
100
AcDbEntity
  8
LAY-10
  6
HIDDEN
 62
     4
100
AcDbLine
 10
911.7696001771517
 20
730.2280453006654
 30
0.0
 11
911.8789674176213
 21
730.1186780601953
 31
0.0
  0
ARC
  5
1A8
330
1F
100
AcDbEntity
  8
LAY-10
  6
CONTINUOUS
 62
     7
100
AcDbCircle
 10
714.0463111593014
 20
591.201503139798
 30
0.0
 40
3.000000000000003
100
AcDbArc
 50
92.39035340835692
 51
254.2546173055226
  0
ARC
  5
1A9
330
1F
100
AcDbEntity
  8
LAY-10
  6
CONTINUOUS
 62
     7
100
AcDbCircle
 10
708.0687132894789
 20
569.9999999997078
 30
0.0
 40
21.0334671869671
100
AcDbArc
 50
3.232580885095617
 51
43.33075952213561
  0
ARC
  5
1AA
330
1F
100
AcDbEntity
  8
LAY-10
  6
CONTINUOUS
 62
     7
100
AcDbCircle
 10
699.0687132896799
 20
949.9999999999998
 30
0.0
 40
358.2115940247
100
AcDbArc
 50
274.4113313456721
 51
281.8259548324451
  0
ARC
  5
1AB
330
1F
100
AcDbEntity
  8
LAY-10
  6
CONTINUOUS
 62
     7
100
AcDbCircle
 10
727.0055736345519
 20
587.8643985079145
 30
0.0
 40
5.0
100
AcDbArc
 50
94.41133134567247
 51
223.3307595226938
  0
ARC
  5
1AC
330
1F
100
AcDbEntity
  8
LAY-10
  6
CONTINUOUS
 62
     7
100
AcDbCircle
 10
699.0687132896799
 20
949.9999999999998
 30
0.0
 40
314.4154939411515
100
AcDbArc
 50
284.2710623200177
 51
285.7289376800125
  0
LINE
  5
1AD
330
1F
100
AcDbEntity
  8
LAY-10
  6
CONTINUOUS
 62
     7
100
AcDbLine
 10
776.5751422236033
 20
645.2872560850649
 30
0.0
 11
779.3505086320255
 21
634.929447639224
 31
0.0
  0
ARC
  5
1AE
330
1F
100
AcDbEntity
  8
LAY-10
  6
CONTINUOUS
 62
     7
100
AcDbCircle
 10
699.0687132896799
 20
949.9999999999998
 30
0.0
 40
314.70446593794
100
AcDbArc
 50
285.7282683093821
 51
314.2717316906239
  0
LINE
  5
1AF
330
1F
100
AcDbEntity
  8
LAY-10
  6
CONTINUOUS
 62
     7
100
AcDbLine
 10
784.3025488339151
 20
647.357808445887
 30
0.0
 11
787.0422350816068
 21
637.1331601727136
 31
0.0
  0
ARC
  5
1B0
330
1F
100
AcDbEntity
  8
LAY-10
  6
CONTINUOUS
 62
     7
100
AcDbCircle
 10
699.0687132896799
 20
949.9999999999998
 30
0.0
 40
314.4154939411515
100
AcDbArc
 50
314.2710623199935
 51
315.7289376799883
  0
LINE
  5
1B1
330
1F
100
AcDbEntity
  8
LAY-10
  6
CONTINUOUS
 62
     7
100
AcDbLine
 10
918.5476216604428
 20
724.8642373796716
 30
0.0
 11
926.0325836859272
 21
717.3792753541854
 31
0.0
  0
ARC
  5
1B2
330
1F
100
AcDbEntity
  8
LAY-10
  6
CONTINUOUS
 62
     7
100
AcDbCircle
 10
699.0687132896799
 20
949.9999999999998
 30
0.0
 40
314.70446593794
100
AcDbArc
 50
315.7282683093579
 51
344.2717316906359
  0
LINE
  5
1B3
330
1F
100
AcDbEntity
  8
LAY-10
  6
CONTINUOUS
 62
     7
100
AcDbLine
 10
924.204475909936
 20
730.5210916291632
 30
0.0
 11
931.7869179473571
 21
722.938649591739
 31
0.0
  0
ARC
  5
1B4
330
1F
100
AcDbEntity
  8
LAY-10
  6
CONTINUOUS
 62
     7
100
AcDbCircle
 10
699.0687132896799
 20
949.9999999999998
 30
0.0
 40
314.4154939411515
100
AcDbArc
 50
344.2710623200055
 51
345.7289376800007
  0
LINE
  5
1B5
330
1F
100
AcDbEntity
  8
LAY-10
  6
CONTINUOUS
 62
     7
100
AcDbLine
 10
1001.710904843819
 20
864.7661644558573
 30
0.0
 11
1012.068713289663
 21
861.990798047438
 31
0.0
  0
ARC
  5
1B6
330
1F
100
AcDbEntity
  8
LAY-10
  6
CONTINUOUS
 62
     7
100
AcDbCircle
 10
699.0687132896799
 20
949.9999999999998
 30
0.0
 40
314.70446593794
100
AcDbArc
 50
345.7282683093698
 51
14.27173169063033
  0
LINE
  5
1B7
330
1F
100
AcDbEntity
  8
LAY-10
  6
CONTINUOUS
 62
     7
100
AcDbLine
 10
1003.781457204639
 20
872.4935710661697
 30
0.0
 11
1014.006105477815
 21
869.7538848184806
 31
0.0
  0
ARC
  5
1B8
330
1F
100
AcDbEntity
  8
LAY-10
  6
CONTINUOUS
 62
     7
100
AcDbCircle
 10
699.0687132896799
 20
949.9999999999998
 30
0.0
 40
314.4154939411515
100
AcDbArc
 50
14.27106231999996
 51
15.72893767999471
  0
LINE
  5
1B9
330
1F
100
AcDbEntity
  8
LAY-10
  6
CONTINUOUS
 62
     7
100
AcDbLine
 10
1003.781457204639
 20
1027.506428933829
 30
0.0
 11
1014.006105477815
 21
1030.246115181518
 31
0.0
  0
ARC
  5
1BA
330
1F
100
AcDbEntity
  8
LAY-10
  6
CONTINUOUS
 62
     7
100
AcDbCircle
 10
699.0687132896799
 20
949.9999999999998
 30
0.0
 40
314.70446593794
100
AcDbArc
 50
15.72826830936429
 51
44.27173169064243
  0
LINE
  5
1BB
330
1F
100
AcDbEntity
  8
LAY-10
  6
CONTINUOUS
 62
     7
100
AcDbLine
 10
1001.710904843819
 20
1035.233835544141
 30
0.0
 11
1012.068713289663
 21
1038.009201952561
 31
0.0
  0
ARC
  5
1BC
330
1F
100
AcDbEntity
  8
LAY-10
  6
CONTINUOUS
 62
     7
100
AcDbCircle
 10
699.0687132896799
 20
949.9999999999998
 30
0.0
 40
314.4154939411515
100
AcDbArc
 50
44.27106232001195
 51
45.72893768000675
  0
LINE
  5
1BD
330
1F
100
AcDbEntity
  8
LAY-10
  6
CONTINUOUS
 62
     7
100
AcDbLine
 10
924.204475909936
 20
1169.478908370835
 30
0.0
 11
931.7869179473581
 21
1177.061350408259
 31
0.0
  0
ARC
  5
1BE
330
1F
100
AcDbEntity
  8
LAY-10
  6
CONTINUOUS
 62
     7
100
AcDbCircle
 10
699.0687132896799
 20
949.9999999999998
 30
0.0
 40
314.70446593794
100
AcDbArc
 50
45.72826830937628
 51
74.27173169061786
  0
LINE
  5
1BF
330
1F
100
AcDbEntity
  8
LAY-10
  6
CONTINUOUS
 62
     7
100
AcDbLine
 10
918.5476216604428
 20
1175.135762620327
 30
0.0
 11
926.0325836859272
 21
1182.620724645813
 31
0.0
  0
ARC
  5
1C0
330
1F
100
AcDbEntity
  8
LAY-10
  6
CONTINUOUS
 62
     7
100
AcDbCircle
 10
699.0687132896799
 20
949.9999999999998
 30
0.0
 40
314.4154939411515
100
AcDbArc
 50
74.27106231998751
 51
75.72893767998231
  0
LINE
  5
1C1
330
1F
100
AcDbEntity
  8
LAY-10
  6
CONTINUOUS
 62
     7
100
AcDbLine
 10
784.302548833916
 20
1252.642191554113
 30
0.0
 11
787.0422350816077
 21
1262.866839827286
 31
0.0
  0
LINE
  5
1C2
330
1F
100
AcDbEntity
  8
LAY-10
  6
CONTINUOUS
 62
     7
100
AcDbLine
 10
776.5751422236042
 20
1254.712743914934
 30
0.0
 11
779.3505086320263
 21
1265.070552360775
 31
0.0
  0
ARC
  5
1C3
330
1F
100
AcDbEntity
  8
LAY-10
  6
CONTINUOUS
 62
     7
100
AcDbCircle
 10
699.0687132896799
 20
949.9999999999998
 30
0.0
 40
326.0747543314101
100
AcDbArc
 50
74.29210895583265
 51
75.7078910441296
  0
ARC
  5
1C4
330
1F
100
AcDbEntity
  8
LAY-10
  6
CONTINUOUS
 62
     7
100
AcDbCircle
 10
699.0687132896799
 20
949.9999999999998
 30
0.0
 40
326.0747543314101
100
AcDbArc
 50
44.292108955865
 51
45.70789104416196
  0
ARC
  5
1C5
330
1F
100
AcDbEntity
  8
LAY-10
  6
CONTINUOUS
 62
     7
100
AcDbCircle
 10
699.0687132896799
 20
949.9999999999998
 30
0.0
 40
326.0747543314101
100
AcDbArc
 50
14.29210895584488
 51
15.70789104414172
  0
ARC
  5
1C6
330
1F
100
AcDbEntity
  8
LAY-10
  6
CONTINUOUS
 62
     7
100
AcDbCircle
 10
699.0687132896799
 20
949.9999999999998
 30
0.0
 40
326.0747543314101
100
AcDbArc
 50
344.2921089558585
 51
345.7078910441556
  0
ARC
  5
1C7
330
1F
100
AcDbEntity
  8
LAY-10
  6
CONTINUOUS
 62
     7
100
AcDbCircle
 10
699.0687132896799
 20
949.9999999999998
 30
0.0
 40
326.0747543314101
100
AcDbArc
 50
314.2921089558383
 51
315.7078910441354
  0
ARC
  5
1C8
330
1F
100
AcDbEntity
  8
LAY-10
  6
CONTINUOUS
 62
     7
100
AcDbCircle
 10
699.0687132896799
 20
949.9999999999998
 30
0.0
 40
326.0747543314101
100
AcDbArc
 50
284.2921089558706
 51
285.7078910441676
  0
LINE
  5
1C9
330
1F
100
AcDbEntity
  8
LAY-10
  6
CONTINUOUS
 62
     7
100
AcDbLine
 10
860.9957801308162
 20
691.5340931104813
 30
0.0
 11
861.0198755471328
 21
691.4923586251905
 31
0.0
  0
LINE
  5
1CA
330
1F
100
AcDbEntity
  8
LAY-10
  6
CONTINUOUS
 62
     7
100
AcDbLine
 10
860.9957801308162
 20
1208.465906889517
 30
0.0
 11
861.0198755471336
 21
1208.507641374808
 31
0.0
  0
ARC
  5
1CB
330
1F
100
AcDbEntity
  8
LAY-10
  6
CONTINUOUS
 62
     7
100
AcDbCircle
 10
699.0687132896799
 20
949.9999999999998
 30
0.0
 40
399.9999999999901
100
AcDbArc
 50
274.7681231529707
 51
282.1123404210239
  0
ARC
  5
1CC
330
1F
100
AcDbEntity
  8
LAY-10
  6
CONTINUOUS
 62
     7
100
AcDbCircle
 10
699.0687132896799
 20
949.9999999999998
 30
0.0
 40
399.9999999999901
100
AcDbArc
 50
317.8876595789825
 51
325.2318768469647
  0
ARC
  5
1CD
330
1F
100
AcDbEntity
  8
LAY-10
  6
CONTINUOUS
 62
     7
100
AcDbCircle
 10
699.0687132896826
 20
949.9999999999998
 30
0.0
 40
400.2624659906002
100
AcDbArc
 50
314.1410947009901
 51
315.8589052989918
  0
ARC
  5
1CE
330
1F
100
AcDbEntity
  8
LAY-10
  6
CONTINUOUS
 62
     7
100
AcDbCircle
 10
699.0687132896826
 20
949.9999999999998
 30
0.0
 40
358.2115940247
100
AcDbArc
 50
334.4113313456774
 51
341.8259548324325
  0
ARC
  5
1CF
330
1F
100
AcDbEntity
  8
LAY-10
  6
CONTINUOUS
 62
     7
100
AcDbCircle
 10
699.0687132896799
 20
949.9999999999998
 30
0.0
 40
326.9347708297501
100
AcDbArc
 50
315.7100343493803
 51
344.2899656506136
  0
ARC
  5
1D0
330
1F
100
AcDbEntity
  8
LAY-10
  6
CONTINUOUS
 62
     7
100
AcDbCircle
 10
699.0687132896799
 20
949.9999999999998
 30
0.0
 40
326.9347708297501
100
AcDbArc
 50
285.7100343494124
 51
314.2899656505934
  0
ARC
  5
1D1
330
1F
100
AcDbEntity
  8
LAY-10
  6
CONTINUOUS
 62
     7
100
AcDbCircle
 10
699.0687132896826
 20
949.9999999999998
 30
0.0
 40
356.1109714100704
100
AcDbArc
 50
315.7766128798834
 51
317.873085065565
  0
ARC
  5
1D2
330
1F
100
AcDbEntity
  8
LAY-10
  6
CONTINUOUS
 62
     7
100
AcDbCircle
 10
699.0687132896826
 20
949.9999999999998
 30
0.0
 40
356.1109714100704
100
AcDbArc
 50
285.776612879912
 51
314.2233871200934
  0
ARC
  5
1D3
330
1F
100
AcDbEntity
  8
LAY-10
  6
CONTINUOUS
 62
     7
100
AcDbCircle
 10
948.2255116038675
 20
663.0838278280405
 30
0.0
 40
11.69990930819
100
AcDbArc
 50
310.9709114363794
 51
130.9709114363795
  0
ARC
  5
1D4
330
1F
100
AcDbEntity
  8
LAY-10
  6
CONTINUOUS
 62
     7
100
AcDbCircle
 10
948.2255116038721
 20
663.0838278279996
 30
0.0
 40
10.99999999994595
100
AcDbArc
 50
310.9709114363743
 51
130.9709114363762
  0
ARC
  5
1D5
330
1F
100
AcDbEntity
  8
LAY-10
  6
CONTINUOUS
 62
     7
100
AcDbCircle
 10
968.2341965287486
 20
709.1187880083942
 30
0.0
 40
3.000000000000003
100
AcDbArc
 50
138.1740451675596
 51
225.0000000000035
  0
LINE
  5
1D6
330
1F
100
AcDbEntity
  8
LAY-10
  6
CONTINUOUS
 62
     7
100
AcDbLine
 10
991.4544693167234
 20
681.6558745333007
 30
0.0
 11
966.1128761851894
 21
706.9974676648351
 31
0.0
  0
ARC
  5
1D7
330
1F
100
AcDbEntity
  8
LAY-10
  6
CONTINUOUS
 62
     7
100
AcDbCircle
 10
965.4072520324833
 20
709.1173053799131
 30
0.0
 40
3.000000000000003
100
AcDbArc
 50
137.8730850655624
 51
225.0000000000035
  0
LINE
  5
1D8
330
1F
100
AcDbEntity
  8
LAY-10
  6
CONTINUOUS
 62
     7
100
AcDbLine
 10
990.2937987936809
 20
679.9881179315969
 30
0.0
 11
963.2859316889242
 21
706.9959850363537
 31
0.0
  0
ARC
  5
1D9
330
1F
100
AcDbEntity
  8
LAY-10
  6
CONTINUOUS
 62
     7
100
AcDbCircle
 10
993.5757896602834
 20
683.7771948768602
 30
0.0
 40
3.000000000000003
100
AcDbArc
 50
225.0000000000006
 51
317.8876595789825
  0
ARC
  5
1DA
330
1F
100
AcDbEntity
  8
LAY-10
  6
CONTINUOUS
 62
     7
100
AcDbCircle
 10
992.4151191372409
 20
682.109438275156
 30
0.0
 40
3.000000000000003
100
AcDbArc
 50
224.9999999999974
 51
317.5969663169381
  0
ARC
  5
1DB
330
1F
100
AcDbEntity
  8
LAY-10
  6
CONTINUOUS
 62
     7
100
AcDbCircle
 10
699.0687132896826
 20
949.9999999999998
 30
0.0
 40
400.2624659906002
100
AcDbArc
 50
317.5969663169372
 51
325.5244280971821
  0
ARC
  5
1DC
330
1F
100
AcDbEntity
  8
LAY-10
  6
CONTINUOUS
 62
     7
100
AcDbCircle
 10
1023.658366727897
 20
752.2057713655787
 30
0.0
 40
21.0334671869671
100
AcDbArc
 50
196.6692404772945
 51
236.7674191149001
  0
ARC
  5
1DD
330
1F
100
AcDbEntity
  8
LAY-10
  6
CONTINUOUS
 62
     7
100
AcDbCircle
 10
1025.190954248644
 20
723.6081186263588
 30
0.0
 40
3.000000000000003
100
AcDbArc
 50
325.2318768469652
 51
60.00000000000055
  0
LINE
  5
1DE
330
1F
100
AcDbEntity
  8
LAY-10
  6
CONTINUOUS
 62
     7
100
AcDbLine
 10
1012.131207335784
 20
734.6122686371848
 30
0.0
 11
1026.690954248644
 21
726.2061948377125
 31
0.0
  0
ARC
  5
1DF
330
1F
100
AcDbEntity
  8
LAY-10
  6
CONTINUOUS
 62
     7
100
AcDbCircle
 10
1026.559019513413
 20
725.1276668542343
 30
0.0
 40
3.000000000000003
100
AcDbArc
 50
325.5244280971838
 51
59.99999999999464
  0
LINE
  5
1E0
330
1F
100
AcDbEntity
  8
LAY-10
  6
CONTINUOUS
 62
     7
100
AcDbLine
 10
1013.263777237502
 20
736.2677801763122
 30
0.0
 11
1028.059019513413
 21
727.7257430655875
 31
0.0
  0
ARC
  5
1E1
330
1F
100
AcDbEntity
  8
LAY-10
  6
CONTINUOUS
 62
     7
100
AcDbCircle
 10
699.0687132896826
 20
949.9999999999998
 30
0.0
 40
337.99999999998
100
AcDbArc
 50
314.263362283777
 51
315.7366377161974
  0
LINE
  5
1E2
330
1F
100
AcDbEntity
  8
LAY-10
  6
CONTINUOUS
 62
     7
100
AcDbLine
 10
986.307857206825
 20
671.2461374570241
 30
0.0
 11
931.6894379353923
 21
723.0361296036633
 31
0.0
  0
LINE
  5
1E3
330
1F
100
AcDbEntity
  8
LAY-10
  6
CONTINUOUS
 62
     7
100
AcDbLine
 10
926.032583685909
 20
717.3792753541782
 30
0.0
 11
977.8225758325578
 21
662.7608560827714
 31
0.0
  0
ARC
  5
1E4
330
1F
100
AcDbEntity
  8
LAY-10
  6
CONTINUOUS
 62
     7
100
AcDbCircle
 10
699.0687132896826
 20
949.9999999999998
 30
0.0
 40
356.1109714100704
100
AcDbArc
 50
282.1269149344404
 51
284.2233871201217
  0
ARC
  5
1E5
330
1F
100
AcDbEntity
  8
LAY-10
  6
CONTINUOUS
 62
     7
100
AcDbCircle
 10
699.0687132896799
 20
949.9999999999998
 30
0.0
 40
400.2624659906002
100
AcDbArc
 50
274.4755719027534
 51
282.4030336830684
  0
ARC
  5
1E6
330
1F
100
AcDbEntity
  8
LAY-10
  6
CONTINUOUS
 62
     7
100
AcDbCircle
 10
699.0687132896799
 20
949.9999999999998
 30
0.0
 40
400.2624659906002
100
AcDbArc
 50
284.1410947010142
 51
285.8589052990155
  0
ARC
  5
1E7
330
1F
100
AcDbEntity
  8
LAY-10
  6
CONTINUOUS
 62
     7
100
AcDbCircle
 10
699.0687132896826
 20
949.9999999999998
 30
0.0
 40
368.9999999999901
100
AcDbArc
 50
289.0290885636315
 51
310.9709114363757
  0
ARC
  5
1E8
330
1F
100
AcDbEntity
  8
LAY-10
  6
CONTINUOUS
 62
     7
100
AcDbCircle
 10
699.0687132896826
 20
949.9999999999998
 30
0.0
 40
368.30009069179
100
AcDbArc
 50
289.0290885636252
 51
310.9709114363794
  0
ARC
  5
1E9
330
1F
100
AcDbEntity
  8
LAY-10
  6
CONTINUOUS
 62
     7
100
AcDbCircle
 10
699.0687132896826
 20
949.9999999999998
 30
0.0
 40
390.9999999999602
100
AcDbArc
 50
289.0290885636297
 51
310.9709114363757
  0
ARC
  5
1EA
330
1F
100
AcDbEntity
  8
LAY-10
  6
CONTINUOUS
 62
     7
100
AcDbCircle
 10
699.0687132896826
 20
949.9999999999998
 30
0.0
 40
391.6999093081703
100
AcDbArc
 50
289.0290885636269
 51
310.9709114363794
  0
ARC
  5
1EB
330
1F
100
AcDbEntity
  8
LAY-10
  6
CONTINUOUS
 62
     7
100
AcDbCircle
 10
773.0952205492947
 20
596.4552476972578
 30
0.0
 40
3.000000000000003
100
AcDbArc
 50
15.00000000000347
 51
101.8259548324437
  0
LINE
  5
1EC
330
1F
100
AcDbEntity
  8
LAY-10
  6
CONTINUOUS
 62
     7
100
AcDbLine
 10
785.2686648866754
 20
562.6144448425209
 30
0.0
 11
775.9929980281612
 21
597.2317048325656
 31
0.0
  0
ARC
  5
1ED
330
1F
100
AcDbEntity
  8
LAY-10
  6
CONTINUOUS
 62
     7
100
AcDbCircle
 10
774.5099767913559
 20
598.9027121318716
 30
0.0
 40
3.000000000000003
100
AcDbArc
 50
15.00000000000347
 51
102.1269149344421
  0
LINE
  5
1EE
330
1F
100
AcDbEntity
  8
LAY-10
  6
CONTINUOUS
 62
     7
100
AcDbLine
 10
787.2933197326008
 20
562.7857367000472
 30
0.0
 11
777.4077542702232
 21
599.6791692671788
 31
0.0
  0
ARC
  5
1EF
330
1F
100
AcDbEntity
  8
LAY-10
  6
CONTINUOUS
 62
     7
100
AcDbCircle
 10
782.3708874078081
 20
561.8379877072132
 30
0.0
 40
3.000000000000003
100
AcDbArc
 50
282.112340421022
 51
15.00000000000347
  0
ARC
  5
1F0
330
1F
100
AcDbEntity
  8
LAY-10
  6
CONTINUOUS
 62
     7
100
AcDbCircle
 10
784.3955422537346
 20
562.0092795647395
 30
0.0
 40
3.000000000000003
100
AcDbArc
 50
282.4030336830682
 51
15.00000000000828
  0
ARC
  5
1F1
330
1F
100
AcDbEntity
  8
LAY-10
  6
CONTINUOUS
 62
     7
100
AcDbCircle
 10
822.9670079901277
 20
590.7657970483508
 30
0.0
 40
11.69990930819
100
AcDbArc
 50
109.0290885636261
 51
289.0290885636258
  0
ARC
  5
1F2
330
1F
100
AcDbEntity
  8
LAY-10
  6
CONTINUOUS
 62
     7
100
AcDbCircle
 10
822.9670079901605
 20
590.7657970483262
 30
0.0
 40
10.99999999994595
100
AcDbArc
 50
109.0290885636302
 51
289.0290885636299
  0
ARC
  5
1F3
330
1F
100
AcDbEntity
  8
LAY-10
  6
CONTINUOUS
 62
     7
100
AcDbCircle
 10
699.0687132896826
 20
949.9999999999998
 30
0.0
 40
337.99999999998
100
AcDbArc
 50
284.2633622838077
 51
285.736637716228
  0
LINE
  5
1F4
330
1F
100
AcDbEntity
  8
LAY-10
  6
CONTINUOUS
 62
     7
100
AcDbLine
 10
796.857067696397
 20
561.8666731349806
 30
0.0
 11
779.3148284713204
 21
635.0626078119092
 31
0.0
  0
LINE
  5
1F5
330
1F
100
AcDbEntity
  8
LAY-10
  6
CONTINUOUS
 62
     7
100
AcDbLine
 10
787.0422350816223
 20
637.133160172725
 30
0.0
 11
808.4481776118918
 21
564.9725016762288
 31
0.0
  0
ARC
  5
1F6
330
1F
100
AcDbEntity
  8
LAY-10
  6
CONTINUOUS
 62
     7
100
AcDbCircle
 10
708.0687132898472
 20
569.9999999997065
 30
0.0
 40
19.0280596441949
100
AcDbArc
 50
3.111965965828863
 51
74.25461730552217
  0
ARC
  5
1F7
330
1F
100
AcDbEntity
  8
LAY-10
  6
CONTINUOUS
 62
     7
100
AcDbCircle
 10
732.0687132898763
 20
554.3739139035708
 30
0.0
 40
3.000000000000003
100
AcDbArc
 50
179.9999999999961
 51
274.7681231529712
  0
LINE
  5
1F8
330
1F
100
AcDbEntity
  8
LAY-10
  6
CONTINUOUS
 62
     7
100
AcDbLine
 10
729.0687132898763
 20
571.1860615025519
 30
0.0
 11
729.0687132898763
 21
554.3739139035708
 31
0.0
  0
ARC
  5
1F9
330
1F
100
AcDbEntity
  8
LAY-10
  6
CONTINUOUS
 62
     7
100
AcDbCircle
 10
730.0687132898762
 20
553.9489087441864
 30
0.0
 40
3.000000000000003
100
AcDbArc
 50
180.0000000000002
 51
274.4755719027562
  0
LINE
  5
1FA
330
1F
100
AcDbEntity
  8
LAY-10
  6
CONTINUOUS
 62
     7
100
AcDbLine
 10
727.0687132898754
 20
571.0329829656655
 30
0.0
 11
727.0687132898763
 21
553.9489087441864
 31
0.0
  0
ARC
  5
1FB
330
1F
100
AcDbEntity
  8
LAY-10
  6
CONTINUOUS
 62
     7
100
AcDbCircle
 10
708.0687132898272
 20
569.9999999997124
 30
0.0
 40
11.59334530246777
100
AcDbArc
 50
271.3567516559619
 51
89.99999999999339
  0
ARC
  5
1FC
330
1F
100
AcDbEntity
  8
LAY-10
  6
CONTINUOUS
 62
     7
100
AcDbCircle
 10
708.068713289638
 20
570.1065938977329
 30
0.0
 40
10.99999999998496
100
AcDbArc
 50
271.3571322031255
 51
91.3571322031232
  0
ARC
  5
1FD
330
1F
100
AcDbEntity
  8
LAY-10
  6
CONTINUOUS
 62
     7
100
AcDbCircle
 10
699.0687132896799
 20
949.9999999999998
 30
0.0
 40
399.9999999999901
100
AcDbArc
 50
334.7681231529763
 51
342.1123404210118
  0
ARC
  5
1FE
330
1F
100
AcDbEntity
  8
LAY-10
  6
CONTINUOUS
 62
     7
100
AcDbCircle
 10
699.0687132896826
 20
949.9999999999998
 30
0.0
 40
400.2624659906002
100
AcDbArc
 50
334.4755719027587
 51
342.403033683056
  0
ARC
  5
1FF
330
1F
100
AcDbEntity
  8
LAY-10
  6
CONTINUOUS
 62
     7
100
AcDbCircle
 10
699.0687132896826
 20
949.9999999999998
 30
0.0
 40
400.2624659906002
100
AcDbArc
 50
344.1410947010021
 51
345.8589052990031
  0
ARC
  5
200
330
1F
100
AcDbEntity
  8
LAY-10
  6
CONTINUOUS
 62
     7
100
AcDbCircle
 10
699.0687132896826
 20
949.9999999999998
 30
0.0
 40
358.2115940247
100
AcDbArc
 50
18.17404516756776
 51
25.58866865432323
  0
ARC
  5
201
330
1F
100
AcDbEntity
  8
LAY-10
  6
CONTINUOUS
 62
     7
100
AcDbCircle
 10
699.0687132896826
 20
949.9999999999998
 30
0.0
 40
399.9999999999901
100
AcDbArc
 50
17.8876595789889
 51
25.23187684702432
  0
ARC
  5
202
330
1F
100
AcDbEntity
  8
LAY-10
  6
CONTINUOUS
 62
     7
100
AcDbCircle
 10
699.0687132896826
 20
949.9999999999998
 30
0.0
 40
400.2624659906002
100
AcDbArc
 50
17.59696631694424
 51
25.52442809724158
  0
ARC
  5
203
330
1F
100
AcDbEntity
  8
LAY-10
  6
CONTINUOUS
 62
     7
100
AcDbCircle
 10
699.0687132896826
 20
949.9999999999998
 30
0.0
 40
400.2624659906002
100
AcDbArc
 50
14.14109470099696
 51
15.85890529899858
  0
ARC
  5
204
330
1F
100
AcDbEntity
  8
LAY-10
  6
CONTINUOUS
 62
     7
100
AcDbCircle
 10
699.0687132896799
 20
949.9999999999998
 30
0.0
 40
337.99999999998
100
AcDbArc
 50
344.2633622837958
 51
345.7366377162161
  0
ARC
  5
205
330
1F
100
AcDbEntity
  8
LAY-10
  6
CONTINUOUS
 62
     7
100
AcDbCircle
 10
699.0687132896799
 20
949.9999999999998
 30
0.0
 40
326.9347708297501
100
AcDbArc
 50
345.7100343493998
 51
14.28996565060026
  0
ARC
  5
206
330
1F
100
AcDbEntity
  8
LAY-10
  6
CONTINUOUS
 62
     7
100
AcDbCircle
 10
699.0687132896826
 20
949.9999999999998
 30
0.0
 40
356.1109714100704
100
AcDbArc
 50
327.6096465916335
 51
332.3903534083598
  0
ARC
  5
207
330
1F
100
AcDbEntity
  8
LAY-10
  6
CONTINUOUS
 62
     7
100
AcDbCircle
 10
1032.658366728122
 20
767.794228634087
 30
0.0
 40
19.0280596441949
100
AcDbArc
 50
63.11196596583392
 51
134.2546173055273
  0
ARC
  5
208
330
1F
100
AcDbEntity
  8
LAY-10
  6
CONTINUOUS
 62
     7
100
AcDbCircle
 10
1026.655773969036
 20
793.1262300146225
 30
0.0
 40
5.0
100
AcDbArc
 50
154.4113313456748
 51
283.3307595227009
  0
ARC
  5
209
330
1F
100
AcDbEntity
  8
LAY-10
  6
CONTINUOUS
 62
     7
100
AcDbCircle
 10
1017.286125345113
 20
783.571731812686
 30
0.0
 40
3.000000000000003
100
AcDbArc
 50
152.3903534083564
 51
314.2546173055306
  0
ARC
  5
20A
330
1F
100
AcDbEntity
  8
LAY-10
  6
CONTINUOUS
 62
     7
100
AcDbCircle
 10
998.7189136241066
 20
744.7381684932558
 30
0.0
 40
5.0
100
AcDbArc
 50
16.66924047729134
 51
145.5886686543178
  0
ARC
  5
20B
330
1F
100
AcDbEntity
  8
LAY-10
  6
CONTINUOUS
 62
     7
100
AcDbCircle
 10
1002.308527475436
 20
757.6297713270744
 30
0.0
 40
3.000000000000003
100
AcDbArc
 50
345.7453826944661
 51
147.6096465916343
  0
ARC
  5
20C
330
1F
100
AcDbEntity
  8
LAY-10
  6
CONTINUOUS
 62
     7
100
AcDbCircle
 10
1023.658366727897
 20
752.2057713655787
 30
0.0
 40
19.0280596441949
100
AcDbArc
 50
165.7453826944661
 51
236.8880340341589
  0
ARC
  5
20D
330
1F
100
AcDbEntity
  8
LAY-10
  6
CONTINUOUS
 62
     7
100
AcDbCircle
 10
1058.190954249112
 20
780.765795276873
 30
0.0
 40
3.000000000000003
100
AcDbArc
 50
240.000000000007
 51
334.7681231529772
  0
LINE
  5
20E
330
1F
100
AcDbEntity
  8
LAY-10
  6
CONTINUOUS
 62
     7
100
AcDbLine
 10
1042.13120733622
 20
786.573792865009
 30
0.0
 11
1056.690954249113
 21
778.1677190655193
 31
0.0
  0
ARC
  5
20F
330
1F
100
AcDbEntity
  8
LAY-10
  6
CONTINUOUS
 62
     7
100
AcDbCircle
 10
1057.559019513878
 20
778.8212418896121
 30
0.0
 40
3.000000000000003
100
AcDbArc
 50
240.000000000007
 51
334.4755719027554
  0
LINE
  5
210
330
1F
100
AcDbEntity
  8
LAY-10
  6
CONTINUOUS
 62
     7
100
AcDbLine
 10
1041.263777237938
 20
784.7652027889965
 30
0.0
 11
1056.059019513879
 21
776.223165678259
 31
0.0
  0
ARC
  5
211
330
1F
100
AcDbEntity
  8
LAY-10
  6
CONTINUOUS
 62
     7
100
AcDbCircle
 10
1032.658366728107
 20
767.7942286340724
 30
0.0
 40
11.59334530246777
100
AcDbArc
 50
166.7147607846225
 51
167.7665318503857
  0
ARC
  5
212
330
1F
100
AcDbEntity
  8
LAY-10
  6
CONTINUOUS
 62
     7
100
AcDbCircle
 10
1032.658366728107
 20
767.7942286340724
 30
0.0
 40
11.59334530246777
100
AcDbArc
 50
331.3567516559687
 51
149.9999999999969
  0
ARC
  5
213
330
1F
100
AcDbEntity
  8
LAY-10
  6
CONTINUOUS
 62
     7
100
AcDbCircle
 10
1023.658366727902
 20
752.2057713655992
 30
0.0
 40
11.59334530246777
100
AcDbArc
 50
149.9999999999969
 51
328.6432483440259
  0
ARC
  5
214
330
1F
100
AcDbEntity
  8
LAY-10
  6
CONTINUOUS
 62
     7
100
AcDbCircle
 10
1023.658366727902
 20
752.2057713655992
 30
0.0
 40
11.59334530246777
100
AcDbArc
 50
132.233468149605
 51
133.2852392152497
  0
LINE
  5
215
330
1F
100
AcDbEntity
  8
LAY-10
  6
CONTINUOUS
 62
     7
100
AcDbLine
 10
1022.618235181325
 20
773.5909012853069
 30
0.0
 11
1013.61823518112
 21
758.0024440168338
 31
0.0
  0
LINE
  5
216
330
1F
100
AcDbEntity
  8
LAY-10
  6
CONTINUOUS
 62
     7
100
AcDbLine
 10
1014.172709639801
 20
757.9831479161991
 30
0.0
 11
1022.912183324354
 21
773.1203603692751
 31
0.0
  0
ARC
  5
217
330
1F
100
AcDbEntity
  8
LAY-10
  6
CONTINUOUS
 62
     7
100
AcDbCircle
 10
699.0687132896826
 20
949.9999999999998
 30
0.0
 40
391.6999093081703
100
AcDbArc
 50
328.6432483440248
 51
331.3567516559684
  0
ARC
  5
218
330
1F
100
AcDbEntity
  8
LAY-10
  6
CONTINUOUS
 62
     7
100
AcDbCircle
 10
699.0687132896826
 20
949.9999999999998
 30
0.0
 40
390.9999999999602
100
AcDbArc
 50
328.6428677968627
 51
331.3571322031307
  0
ARC
  5
219
330
1F
100
AcDbEntity
  8
LAY-10
  6
CONTINUOUS
 62
     7
100
AcDbCircle
 10
1032.566053704438
 20
767.847525582919
 30
0.0
 40
10.99999999998496
100
AcDbArc
 50
331.3571322031289
 51
151.3571322031289
  0
ARC
  5
21A
330
1F
100
AcDbEntity
  8
LAY-10
  6
CONTINUOUS
 62
     7
100
AcDbCircle
 10
1023.566053704422
 20
752.2590683147735
 30
0.0
 40
10.99999999998496
100
AcDbArc
 50
148.6428677968649
 51
328.6428677968627
  0
ARC
  5
21B
330
1F
100
AcDbEntity
  8
LAY-10
  6
CONTINUOUS
 62
     7
100
AcDbCircle
 10
1032.658366727937
 20
767.7942286337686
 30
0.0
 40
21.0334671869671
100
AcDbArc
 50
63.23258088510034
 51
102.7592087427568
  0
ARC
  5
21C
330
1F
100
AcDbEntity
  8
LAY-10
  6
CONTINUOUS
 62
     7
100
AcDbCircle
 10
699.0687132896826
 20
949.9999999999998
 30
0.0
 40
356.1109714100704
100
AcDbArc
 50
342.1269149344282
 51
344.2233871201099
  0
LINE
  5
21D
330
1F
100
AcDbEntity
  8
LAY-10
  6
CONTINUOUS
 62
     7
100
AcDbLine
 10
1084.096211613493
 20
840.6205356778994
 30
0.0
 11
1011.935553116992
 21
862.0264782081993
 31
0.0
  0
ARC
  5
21E
330
1F
100
AcDbEntity
  8
LAY-10
  6
CONTINUOUS
 62
     7
100
AcDbCircle
 10
1042.260703788316
 20
837.3364596888134
 30
0.0
 40
3.000000000000003
100
AcDbArc
 50
74.99999999999088
 51
161.8259548324395
  0
LINE
  5
21F
330
1F
100
AcDbEntity
  8
LAY-10
  6
CONTINUOUS
 62
     7
100
AcDbLine
 10
1077.654420913669
 20
830.958570309165
 30
0.0
 11
1043.037160923623
 21
840.2342371676804
 31
0.0
  0
ARC
  5
220
330
1F
100
AcDbEntity
  8
LAY-10
  6
CONTINUOUS
 62
     7
100
AcDbCircle
 10
1040.848515534114
 20
839.7854067519081
 30
0.0
 40
3.000000000000003
100
AcDbArc
 50
74.9999999999932
 51
162.1269149344332
  0
LINE
  5
221
330
1F
100
AcDbEntity
  8
LAY-10
  6
CONTINUOUS
 62
     7
100
AcDbLine
 10
1078.518405236552
 20
832.7976187683951
 30
0.0
 11
1041.624972669421
 21
842.6831842307749
 31
0.0
  0
ARC
  5
222
330
1F
100
AcDbEntity
  8
LAY-10
  6
CONTINUOUS
 62
     7
100
AcDbCircle
 10
1076.87796377836
 20
828.0607928302982
 30
0.0
 40
3.000000000000003
100
AcDbArc
 50
342.1123404210053
 51
74.99999999999088
  0
ARC
  5
223
330
1F
100
AcDbEntity
  8
LAY-10
  6
CONTINUOUS
 62
     7
100
AcDbCircle
 10
1077.741948101245
 20
829.8998412895282
 30
0.0
 40
3.000000000000003
100
AcDbArc
 50
342.4030336830552
 51
74.99999999999513
  0
LINE
  5
224
330
1F
100
AcDbEntity
  8
LAY-10
  6
CONTINUOUS
 62
     7
100
AcDbLine
 10
1014.006105477812
 20
869.7538848184993
 30
0.0
 11
1087.202040154722
 21
852.2116455933991
 31
0.0
  0
ARC
  5
225
330
1F
100
AcDbEntity
  8
LAY-10
  6
CONTINUOUS
 62
     7
100
AcDbCircle
 10
1072.123806304297
 20
877.681969220377
 30
0.0
 40
11.69990930819
100
AcDbArc
 50
169.0290885636321
 51
349.029088563634
  0
ARC
  5
226
330
1F
100
AcDbEntity
  8
LAY-10
  6
CONTINUOUS
 62
     7
100
AcDbCircle
 10
1072.123806304334
 20
877.6819692203933
 30
0.0
 40
10.99999999994595
100
AcDbArc
 50
169.0290885636375
 51
349.0290885636376
  0
ARC
  5
227
330
1F
100
AcDbEntity
  8
LAY-10
  6
CONTINUOUS
 62
     7
100
AcDbCircle
 10
699.0687132896826
 20
949.9999999999998
 30
0.0
 40
356.1109714100704
100
AcDbArc
 50
15.77661287989033
 51
17.87308506557189
  0
ARC
  5
228
330
1F
100
AcDbEntity
  8
LAY-10
  6
CONTINUOUS
 62
     7
100
AcDbCircle
 10
1042.260703788316
 20
1062.663540311186
 30
0.0
 40
3.000000000000003
100
AcDbArc
 50
198.174045167565
 51
285.0000000000124
  0
LINE
  5
229
330
1F
100
AcDbEntity
  8
LAY-10
  6
CONTINUOUS
 62
     7
100
AcDbLine
 10
1077.654420913669
 20
1069.041429690834
 30
0.0
 11
1043.037160923623
 21
1059.765762832318
 31
0.0
  0
ARC
  5
22A
330
1F
100
AcDbEntity
  8
LAY-10
  6
CONTINUOUS
 62
     7
100
AcDbCircle
 10
1040.848515534114
 20
1060.21459324809
 30
0.0
 40
3.000000000000003
100
AcDbArc
 50
197.8730850655669
 51
285.0000000000084
  0
LINE
  5
22B
330
1F
100
AcDbEntity
  8
LAY-10
  6
CONTINUOUS
 62
     7
100
AcDbLine
 10
1078.518405236552
 20
1067.202381231603
 30
0.0
 11
1041.624972669421
 21
1057.316815769223
 31
0.0
  0
ARC
  5
22C
330
1F
100
AcDbEntity
  8
LAY-10
  6
CONTINUOUS
 62
     7
100
AcDbCircle
 10
1076.87796377836
 20
1071.939207169701
 30
0.0
 40
3.000000000000003
100
AcDbArc
 50
285.0000000000072
 51
17.88765957898655
  0
ARC
  5
22D
330
1F
100
AcDbEntity
  8
LAY-10
  6
CONTINUOUS
 62
     7
100
AcDbCircle
 10
1077.741948101245
 20
1070.10015871047
 30
0.0
 40
3.000000000000003
100
AcDbArc
 50
285.000000000003
 51
17.59696631693651
  0
ARC
  5
22E
330
1F
100
AcDbEntity
  8
LAY-10
  6
CONTINUOUS
 62
     7
100
AcDbCircle
 10
699.0687132896826
 20
949.9999999999998
 30
0.0
 40
356.1109714100704
100
AcDbArc
 50
345.7766128798999
 51
14.22338712010034
  0
ARC
  5
22F
330
1F
100
AcDbEntity
  8
LAY-10
  6
CONTINUOUS
 62
     7
100
AcDbCircle
 10
699.0687132896826
 20
949.9999999999998
 30
0.0
 40
368.30009069179
100
AcDbArc
 50
349.0290885636321
 51
10.97091143638617
  0
ARC
  5
230
330
1F
100
AcDbEntity
  8
LAY-10
  6
CONTINUOUS
 62
     7
100
AcDbCircle
 10
699.0687132896826
 20
949.9999999999998
 30
0.0
 40
368.9999999999901
100
AcDbArc
 50
349.0290885636385
 51
10.97091143638255
  0
ARC
  5
231
330
1F
100
AcDbEntity
  8
LAY-10
  6
CONTINUOUS
 62
     7
100
AcDbCircle
 10
699.0687132896826
 20
949.9999999999998
 30
0.0
 40
390.9999999999602
100
AcDbArc
 50
349.0290885636367
 51
10.97091143638255
  0
ARC
  5
232
330
1F
100
AcDbEntity
  8
LAY-10
  6
CONTINUOUS
 62
     7
100
AcDbCircle
 10
699.0687132896826
 20
949.9999999999998
 30
0.0
 40
391.6999093081703
100
AcDbArc
 50
349.029088563634
 51
10.97091143638617
  0
ARC
  5
233
330
1F
100
AcDbEntity
  8
LAY-10
  6
CONTINUOUS
 62
     7
100
AcDbCircle
 10
1072.123806304272
 20
1022.318030779745
 30
0.0
 40
11.69990930819
100
AcDbArc
 50
10.97091143638639
 51
190.9709114363866
  0
ARC
  5
234
330
1F
100
AcDbEntity
  8
LAY-10
  6
CONTINUOUS
 62
     7
100
AcDbCircle
 10
1072.12380630431
 20
1022.318030779729
 30
0.0
 40
10.99999999994595
100
AcDbArc
 50
10.9709114363821
 51
190.9709114363827
  0
ARC
  5
235
330
1F
100
AcDbEntity
  8
LAY-10
  6
CONTINUOUS
 62
     7
100
AcDbCircle
 10
699.0687132896799
 20
949.9999999999998
 30
0.0
 40
326.9347708297501
100
AcDbArc
 50
15.71003434938658
 51
44.28996565062015
  0
ARC
  5
236
330
1F
100
AcDbEntity
  8
LAY-10
  6
CONTINUOUS
 62
     7
100
AcDbCircle
 10
699.0687132896799
 20
949.9999999999998
 30
0.0
 40
326.9347708297501
100
AcDbArc
 50
45.7100343494067
 51
74.28996565058785
  0
ARC
  5
237
330
1F
100
AcDbEntity
  8
LAY-10
  6
CONTINUOUS
 62
     7
100
AcDbCircle
 10
699.0687132896826
 20
949.9999999999998
 30
0.0
 40
337.99999999998
100
AcDbArc
 50
14.26336228378425
 51
15.73663771620436
  0
LINE
  5
238
330
1F
100
AcDbEntity
  8
LAY-10
  6
CONTINUOUS
 62
     7
100
AcDbLine
 10
1084.096211613493
 20
1059.3794643221
 30
0.0
 11
1011.935553116992
 21
1037.973521791799
 31
0.0
  0
LINE
  5
239
330
1F
100
AcDbEntity
  8
LAY-10
  6
CONTINUOUS
 62
     7
100
AcDbLine
 10
1014.006105477813
 20
1030.246115181499
 30
0.0
 11
1087.202040154722
 21
1047.7883544066
 31
0.0
  0
ARC
  5
23A
330
1F
100
AcDbEntity
  8
LAY-10
  6
CONTINUOUS
 62
     7
100
AcDbCircle
 10
699.0687132896826
 20
949.9999999999998
 30
0.0
 40
356.1109714100704
100
AcDbArc
 50
42.1269149344353
 51
44.22338712011673
  0
ARC
  5
23B
330
1F
100
AcDbEntity
  8
LAY-10
  6
CONTINUOUS
 62
     7
100
AcDbCircle
 10
699.0687132896826
 20
949.9999999999998
 30
0.0
 40
356.1109714100704
100
AcDbArc
 50
45.77661287990674
 51
74.22338712008832
  0
ARC
  5
23C
330
1F
100
AcDbEntity
  8
LAY-10
  6
CONTINUOUS
 62
     7
100
AcDbCircle
 10
948.2255116038684
 20
1236.916172171958
 30
0.0
 40
11.69990930819
100
AcDbArc
 50
229.0290885636215
 51
49.02908856362096
  0
ARC
  5
23D
330
1F
100
AcDbEntity
  8
LAY-10
  6
CONTINUOUS
 62
     7
100
AcDbCircle
 10
948.225511603873
 20
1236.916172171999
 30
0.0
 40
10.99999999994595
100
AcDbArc
 50
229.0290885636248
 51
49.02908856362515
  0
ARC
  5
23E
330
1F
100
AcDbEntity
  8
LAY-10
  6
CONTINUOUS
 62
     7
100
AcDbCircle
 10
699.0687132896826
 20
949.9999999999998
 30
0.0
 40
400.2624659906002
100
AcDbArc
 50
44.1410947010086
 51
45.85890529901022
  0
ARC
  5
23F
330
1F
100
AcDbEntity
  8
LAY-10
  6
CONTINUOUS
 62
     7
100
AcDbCircle
 10
968.2341965287494
 20
1190.881211991604
 30
0.0
 40
3.000000000000003
100
AcDbArc
 50
134.9999999999987
 51
221.8259548324411
  0
ARC
  5
240
330
1F
100
AcDbEntity
  8
LAY-10
  6
CONTINUOUS
 62
     7
100
AcDbCircle
 10
699.0687132896826
 20
949.9999999999998
 30
0.0
 40
358.2115940247
100
AcDbArc
 50
34.41133134568391
 51
41.82595483243942
  0
LINE
  5
241
330
1F
100
AcDbEntity
  8
LAY-10
  6
CONTINUOUS
 62
     7
100
AcDbLine
 10
991.4544693167244
 20
1218.344125466698
 30
0.0
 11
966.1128761851894
 21
1193.002532335164
 31
0.0
  0
ARC
  5
242
330
1F
100
AcDbEntity
  8
LAY-10
  6
CONTINUOUS
 62
     7
100
AcDbCircle
 10
965.4072520324843
 20
1190.882694620085
 30
0.0
 40
3.000000000000003
100
AcDbArc
 50
134.9999999999971
 51
222.1269149344365
  0
LINE
  5
243
330
1F
100
AcDbEntity
  8
LAY-10
  6
CONTINUOUS
 62
     7
100
AcDbLine
 10
990.2937987936818
 20
1220.011882068402
 30
0.0
 11
963.2859316889251
 21
1193.004014963645
 31
0.0
  0
ARC
  5
244
330
1F
100
AcDbEntity
  8
LAY-10
  6
CONTINUOUS
 62
     7
100
AcDbCircle
 10
993.5757896602834
 20
1216.222805123138
 30
0.0
 40
3.000000000000003
100
AcDbArc
 50
42.11234042101461
 51
135.0000000000004
  0
ARC
  5
245
330
1F
100
AcDbEntity
  8
LAY-10
  6
CONTINUOUS
 62
     7
100
AcDbCircle
 10
699.0687132896826
 20
949.9999999999998
 30
0.0
 40
399.9999999999901
100
AcDbArc
 50
34.76812315303551
 51
42.11234042101828
  0
ARC
  5
246
330
1F
100
AcDbEntity
  8
LAY-10
  6
CONTINUOUS
 62
     7
100
AcDbCircle
 10
992.415119137242
 20
1217.890561724843
 30
0.0
 40
3.000000000000003
100
AcDbArc
 50
42.40303368306535
 51
135.0000000000032
  0
ARC
  5
247
330
1F
100
AcDbEntity
  8
LAY-10
  6
CONTINUOUS
 62
     7
100
AcDbCircle
 10
699.0687132896826
 20
949.9999999999998
 30
0.0
 40
400.2624659906002
100
AcDbArc
 50
34.47557190281807
 51
42.40303368306294
  0
ARC
  5
248
330
1F
100
AcDbEntity
  8
LAY-10
  6
CONTINUOUS
 62
     7
100
AcDbCircle
 10
699.0687132896826
 20
949.9999999999998
 30
0.0
 40
356.1109714100704
100
AcDbArc
 50
27.60964659164033
 51
32.39035340836686
  0
ARC
  5
249
330
1F
100
AcDbEntity
  8
LAY-10
  6
CONTINUOUS
 62
     7
100
AcDbCircle
 10
1032.658366728124
 20
1132.205771365911
 30
0.0
 40
19.0280596441949
100
AcDbArc
 50
225.7453826944728
 51
296.8880340341663
  0
ARC
  5
24A
330
1F
100
AcDbEntity
  8
LAY-10
  6
CONTINUOUS
 62
     7
100
AcDbCircle
 10
1026.655773969037
 20
1106.873769985376
 30
0.0
 40
5.0
100
AcDbArc
 50
76.6692404772998
 51
205.5886686543229
  0
ARC
  5
24B
330
1F
100
AcDbEntity
  8
LAY-10
  6
CONTINUOUS
 62
     7
100
AcDbCircle
 10
1017.286125345115
 20
1116.428268187313
 30
0.0
 40
3.000000000000003
100
AcDbArc
 50
45.74538269447289
 51
207.6096465916381
  0
ARC
  5
24C
330
1F
100
AcDbEntity
  8
LAY-10
  6
CONTINUOUS
 62
     7
100
AcDbCircle
 10
998.7189136241075
 20
1155.261831506743
 30
0.0
 40
5.0
100
AcDbArc
 50
214.4113313456827
 51
343.3307595227075
  0
ARC
  5
24D
330
1F
100
AcDbEntity
  8
LAY-10
  6
CONTINUOUS
 62
     7
100
AcDbCircle
 10
1023.658366727898
 20
1147.794228634419
 30
0.0
 40
21.0334671869671
100
AcDbArc
 50
123.2325808851005
 51
163.330759522706
  0
ARC
  5
24E
330
1F
100
AcDbEntity
  8
LAY-10
  6
CONTINUOUS
 62
     7
100
AcDbCircle
 10
1002.308527475437
 20
1142.370228672925
 30
0.0
 40
3.000000000000003
100
AcDbArc
 50
212.3903534083686
 51
14.25461730553413
  0
ARC
  5
24F
330
1F
100
AcDbEntity
  8
LAY-10
  6
CONTINUOUS
 62
     7
100
AcDbCircle
 10
1023.658366727898
 20
1147.794228634419
 30
0.0
 40
19.0280596441949
100
AcDbArc
 50
123.1119659658412
 51
194.2546173055337
  0
ARC
  5
250
330
1F
100
AcDbEntity
  8
LAY-10
  6
CONTINUOUS
 62
     7
100
AcDbCircle
 10
1058.190954249113
 20
1119.234204723126
 30
0.0
 40
3.000000000000003
100
AcDbArc
 50
25.2318768470218
 51
119.999999999998
  0
LINE
  5
251
330
1F
100
AcDbEntity
  8
LAY-10
  6
CONTINUOUS
 62
     7
100
AcDbLine
 10
1042.131207336221
 20
1113.42620713499
 30
0.0
 11
1056.690954249113
 21
1121.832280934479
 31
0.0
  0
ARC
  5
252
330
1F
100
AcDbEntity
  8
LAY-10
  6
CONTINUOUS
 62
     7
100
AcDbCircle
 10
1057.559019513879
 20
1121.178758110386
 30
0.0
 40
3.000000000000003
100
AcDbArc
 50
25.5244280972389
 51
119.9999999999898
  0
LINE
  5
253
330
1F
100
AcDbEntity
  8
LAY-10
  6
CONTINUOUS
 62
     7
100
AcDbLine
 10
1041.263777237939
 20
1115.234797211003
 30
0.0
 11
1056.05901951388
 21
1123.77683432174
 31
0.0
  0
ARC
  5
254
330
1F
100
AcDbEntity
  8
LAY-10
  6
CONTINUOUS
 62
     7
100
AcDbCircle
 10
1025.190954248645
 20
1176.39188137364
 30
0.0
 40
3.000000000000003
100
AcDbArc
 50
299.9999999999998
 51
34.76812315303482
  0
LINE
  5
255
330
1F
100
AcDbEntity
  8
LAY-10
  6
CONTINUOUS
 62
     7
100
AcDbLine
 10
1012.131207335785
 20
1165.387731362813
 30
0.0
 11
1026.690954248645
 21
1173.793805162287
 31
0.0
  0
ARC
  5
256
330
1F
100
AcDbEntity
  8
LAY-10
  6
CONTINUOUS
 62
     7
100
AcDbCircle
 10
1026.559019513413
 20
1174.872333145764
 30
0.0
 40
3.000000000000003
100
AcDbArc
 50
300.0000000000058
 51
34.47557190281642
  0
LINE
  5
257
330
1F
100
AcDbEntity
  8
LAY-10
  6
CONTINUOUS
 62
     7
100
AcDbLine
 10
1013.263777237503
 20
1163.732219823686
 30
0.0
 11
1028.059019513413
 21
1172.274256934411
 31
0.0
  0
ARC
  5
258
330
1F
100
AcDbEntity
  8
LAY-10
  6
CONTINUOUS
 62
     7
100
AcDbCircle
 10
1032.658366728108
 20
1132.205771365926
 30
0.0
 40
11.59334530246777
100
AcDbArc
 50
192.2334681496136
 51
193.2852392153776
  0
ARC
  5
259
330
1F
100
AcDbEntity
  8
LAY-10
  6
CONTINUOUS
 62
     7
100
AcDbCircle
 10
1032.658366728108
 20
1132.205771365926
 30
0.0
 40
11.59334530246777
100
AcDbArc
 50
210.0000000000025
 51
28.64324834403246
  0
ARC
  5
25A
330
1F
100
AcDbEntity
  8
LAY-10
  6
CONTINUOUS
 62
     7
100
AcDbCircle
 10
1023.658366727903
 20
1147.794228634399
 30
0.0
 40
11.59334530246777
100
AcDbArc
 50
31.356751655975
 51
210.0000000000023
  0
ARC
  5
25B
330
1F
100
AcDbEntity
  8
LAY-10
  6
CONTINUOUS
 62
     7
100
AcDbCircle
 10
1023.658366727903
 20
1147.794228634399
 30
0.0
 40
11.59334530246777
100
AcDbArc
 50
226.7147607847504
 51
227.7665318503949
  0
LINE
  5
25C
330
1F
100
AcDbEntity
  8
LAY-10
  6
CONTINUOUS
 62
     7
100
AcDbLine
 10
1022.618235181327
 20
1126.409098714692
 30
0.0
 11
1013.618235181121
 21
1141.997555983164
 31
0.0
  0
LINE
  5
25D
330
1F
100
AcDbEntity
  8
LAY-10
  6
CONTINUOUS
 62
     7
100
AcDbLine
 10
1014.172709639802
 20
1142.016852083799
 30
0.0
 11
1022.912183324355
 21
1126.879639630723
 31
0.0
  0
ARC
  5
25E
330
1F
100
AcDbEntity
  8
LAY-10
  6
CONTINUOUS
 62
     7
100
AcDbCircle
 10
699.0687132896826
 20
949.9999999999998
 30
0.0
 40
391.6999093081703
100
AcDbArc
 50
28.64324834403167
 51
31.35675165597546
  0
ARC
  5
25F
330
1F
100
AcDbEntity
  8
LAY-10
  6
CONTINUOUS
 62
     7
100
AcDbCircle
 10
699.0687132896826
 20
949.9999999999998
 30
0.0
 40
390.9999999999602
100
AcDbArc
 50
28.64286779686961
 51
31.3571322031374
  0
ARC
  5
260
330
1F
100
AcDbEntity
  8
LAY-10
  6
CONTINUOUS
 62
     7
100
AcDbCircle
 10
1032.566053704439
 20
1132.152474417079
 30
0.0
 40
10.99999999998496
100
AcDbArc
 50
208.6428677968719
 51
28.64286779686972
  0
ARC
  5
261
330
1F
100
AcDbEntity
  8
LAY-10
  6
CONTINUOUS
 62
     7
100
AcDbCircle
 10
1023.566053704423
 20
1147.740931685225
 30
0.0
 40
10.99999999998496
100
AcDbArc
 50
31.35713220313666
 51
211.357132203137
  0
ARC
  5
262
330
1F
100
AcDbEntity
  8
LAY-10
  6
CONTINUOUS
 62
     7
100
AcDbCircle
 10
699.0687132896826
 20
949.9999999999998
 30
0.0
 40
337.99999999998
100
AcDbArc
 50
44.26336228380271
 51
45.73663771622304
  0
LINE
  5
263
330
1F
100
AcDbEntity
  8
LAY-10
  6
CONTINUOUS
 62
     7
100
AcDbLine
 10
986.3078572068259
 20
1228.753862542974
 30
0.0
 11
931.6894379353923
 21
1176.963870396335
 31
0.0
  0
LINE
  5
264
330
1F
100
AcDbEntity
  8
LAY-10
  6
CONTINUOUS
 62
     7
100
AcDbLine
 10
926.0325836859099
 20
1182.62072464582
 30
0.0
 11
977.8225758325586
 21
1237.239143917228
 31
0.0
  0
ARC
  5
265
330
1F
100
AcDbEntity
  8
LAY-10
  6
CONTINUOUS
 62
     7
100
AcDbCircle
 10
699.0687132896826
 20
949.9999999999998
 30
0.0
 40
356.1109714100704
100
AcDbArc
 50
75.77661287987831
 51
77.87308506555988
  0
ARC
  5
266
330
1F
100
AcDbEntity
  8
LAY-10
  6
CONTINUOUS
 62
     7
100
AcDbCircle
 10
699.0687132896799
 20
949.9999999999998
 30
0.0
 40
358.2115940247
100
AcDbArc
 50
78.17404516755535
 51
85.58866865432817
  0
ARC
  5
267
330
1F
100
AcDbEntity
  8
LAY-10
  6
CONTINUOUS
 62
     7
100
AcDbCircle
 10
699.0687132896799
 20
949.9999999999998
 30
0.0
 40
400.2624659906002
100
AcDbArc
 50
77.59696631693201
 51
85.52442809724683
  0
ARC
  5
268
330
1F
100
AcDbEntity
  8
LAY-10
  6
CONTINUOUS
 62
     7
100
AcDbCircle
 10
699.0687132896799
 20
949.9999999999998
 30
0.0
 40
400.2624659906002
100
AcDbArc
 50
74.14109470098455
 51
75.85890529898617
  0
ARC
  5
269
330
1F
100
AcDbEntity
  8
LAY-10
  6
CONTINUOUS
 62
     7
100
AcDbCircle
 10
699.0687132896799
 20
949.9999999999998
 30
0.0
 40
399.9999999999901
100
AcDbArc
 50
77.88765957897648
 51
85.23187684702957
  0
ARC
  5
26A
330
1F
100
AcDbEntity
  8
LAY-10
  6
CONTINUOUS
 62
     7
100
AcDbCircle
 10
699.0687132896826
 20
949.9999999999998
 30
0.0
 40
368.9999999999901
100
AcDbArc
 50
49.02908856362463
 51
70.97091143636871
  0
ARC
  5
26B
330
1F
100
AcDbEntity
  8
LAY-10
  6
CONTINUOUS
 62
     7
100
AcDbCircle
 10
699.0687132896826
 20
949.9999999999998
 30
0.0
 40
368.30009069179
100
AcDbArc
 50
49.02908856362096
 51
70.97091143637513
  0
ARC
  5
26C
330
1F
100
AcDbEntity
  8
LAY-10
  6
CONTINUOUS
 62
     7
100
AcDbCircle
 10
699.0687132896826
 20
949.9999999999998
 30
0.0
 40
390.9999999999602
100
AcDbArc
 50
49.02908856362463
 51
70.97091143637054
  0
ARC
  5
26D
330
1F
100
AcDbEntity
  8
LAY-10
  6
CONTINUOUS
 62
     7
100
AcDbCircle
 10
699.0687132896826
 20
949.9999999999998
 30
0.0
 40
391.6999093081703
100
AcDbArc
 50
49.02908856362096
 51
70.9709114363733
  0
ARC
  5
26E
330
1F
100
AcDbEntity
  8
LAY-10
  6
CONTINUOUS
 62
     7
100
AcDbCircle
 10
773.0952205492947
 20
1303.544752302742
 30
0.0
 40
3.000000000000003
100
AcDbArc
 50
258.1740451675564
 51
344.9999999999966
  0
LINE
  5
26F
330
1F
100
AcDbEntity
  8
LAY-10
  6
CONTINUOUS
 62
     7
100
AcDbLine
 10
785.2686648866763
 20
1337.385555157479
 30
0.0
 11
775.992998028162
 21
1302.768295167434
 31
0.0
  0
ARC
  5
270
330
1F
100
AcDbEntity
  8
LAY-10
  6
CONTINUOUS
 62
     7
100
AcDbCircle
 10
774.509976791357
 20
1301.097287868128
 30
0.0
 40
3.000000000000003
100
AcDbArc
 50
257.8730850655591
 51
344.9999999999966
  0
LINE
  5
271
330
1F
100
AcDbEntity
  8
LAY-10
  6
CONTINUOUS
 62
     7
100
AcDbLine
 10
787.2933197326017
 20
1337.214263299952
 30
0.0
 11
777.4077542702232
 21
1300.320830732821
 31
0.0
  0
ARC
  5
272
330
1F
100
AcDbEntity
  8
LAY-10
  6
CONTINUOUS
 62
     7
100
AcDbCircle
 10
782.370887407809
 20
1338.162012292786
 30
0.0
 40
3.000000000000003
100
AcDbArc
 50
344.9999999999966
 51
77.88765957897833
  0
ARC
  5
273
330
1F
100
AcDbEntity
  8
LAY-10
  6
CONTINUOUS
 62
     7
100
AcDbCircle
 10
784.3955422537346
 20
1337.990720435259
 30
0.0
 40
3.000000000000003
100
AcDbArc
 50
344.9999999999922
 51
77.59696631693217
  0
ARC
  5
274
330
1F
100
AcDbEntity
  8
LAY-10
  6
CONTINUOUS
 62
     7
100
AcDbCircle
 10
822.9670079901277
 20
1309.234202951648
 30
0.0
 40
11.69990930819
100
AcDbArc
 50
70.97091143637445
 51
250.9709114363748
  0
ARC
  5
275
330
1F
100
AcDbEntity
  8
LAY-10
  6
CONTINUOUS
 62
     7
100
AcDbCircle
 10
822.9670079901615
 20
1309.234202951674
 30
0.0
 40
10.99999999994595
100
AcDbArc
 50
70.97091143637014
 51
250.970911436371
  0
ARC
  5
276
330
1F
100
AcDbEntity
  8
LAY-10
  6
CONTINUOUS
 62
     7
100
AcDbCircle
 10
699.0687132896826
 20
949.9999999999998
 30
0.0
 40
337.99999999998
100
AcDbArc
 50
74.26336228377201
 51
75.7366377161924
  0
LINE
  5
277
330
1F
100
AcDbEntity
  8
LAY-10
  6
CONTINUOUS
 62
     7
100
AcDbLine
 10
796.857067696397
 20
1338.133326865018
 30
0.0
 11
779.3148284713214
 21
1264.93739218809
 31
0.0
  0
LINE
  5
278
330
1F
100
AcDbEntity
  8
LAY-10
  6
CONTINUOUS
 62
     7
100
AcDbLine
 10
787.0422350816223
 20
1262.866839827275
 30
0.0
 11
808.4481776118926
 21
1335.027498323771
 31
0.0
  0
ARC
  5
279
330
1F
100
AcDbEntity
  8
LAY-10
  6
CONTINUOUS
 62
     7
100
AcDbCircle
 10
708.0687132898481
 20
1330.000000000294
 30
0.0
 40
19.0280596441949
100
AcDbArc
 50
285.7453826944782
 51
356.8880340341713
  0
ARC
  5
27A
330
1F
100
AcDbEntity
  8
LAY-10
  6
CONTINUOUS
 62
     7
100
AcDbCircle
 10
727.0055736345519
 20
1312.135601492085
 30
0.0
 40
5.0
100
AcDbArc
 50
136.6692404773059
 51
265.5886686543291
  0
ARC
  5
27B
330
1F
100
AcDbEntity
  8
LAY-10
  6
CONTINUOUS
 62
     7
100
AcDbCircle
 10
714.0463111593014
 20
1308.798496860202
 30
0.0
 40
3.000000000000003
100
AcDbArc
 50
105.7453826944786
 51
267.6096465916443
  0
ARC
  5
27C
330
1F
100
AcDbEntity
  8
LAY-10
  6
CONTINUOUS
 62
     7
100
AcDbCircle
 10
732.0687132898763
 20
1345.626086096429
 30
0.0
 40
3.000000000000003
100
AcDbArc
 50
85.23187684702897
 51
180.0000000000047
  0
LINE
  5
27D
330
1F
100
AcDbEntity
  8
LAY-10
  6
CONTINUOUS
 62
     7
100
AcDbLine
 10
729.0687132898763
 20
1328.813938497448
 30
0.0
 11
729.0687132898763
 21
1345.626086096429
 31
0.0
  0
ARC
  5
27E
330
1F
100
AcDbEntity
  8
LAY-10
  6
CONTINUOUS
 62
     7
100
AcDbCircle
 10
730.0687132898772
 20
1346.051091255814
 30
0.0
 40
3.000000000000003
100
AcDbArc
 50
85.52442809724373
 51
180.0000000000002
  0
LINE
  5
27F
330
1F
100
AcDbEntity
  8
LAY-10
  6
CONTINUOUS
 62
     7
100
AcDbLine
 10
727.0687132898763
 20
1328.967017034334
 30
0.0
 11
727.0687132898772
 21
1346.051091255814
 31
0.0
  0
ARC
  5
280
330
1F
100
AcDbEntity
  8
LAY-10
  6
CONTINUOUS
 62
     7
100
AcDbCircle
 10
708.0687132898272
 20
1330.000000000287
 30
0.0
 40
11.59334530246777
100
AcDbArc
 50
270.0000000000074
 51
88.6432483440377
  0
ARC
  5
281
330
1F
100
AcDbEntity
  8
LAY-10
  6
CONTINUOUS
 62
     7
100
AcDbCircle
 10
708.0687132896389
 20
1329.893406102267
 30
0.0
 40
10.99999999998496
100
AcDbArc
 50
268.6428677968772
 51
88.64286779687525
  0
ARC
  5
282
330
1F
100
AcDbEntity
  8
LAY-10
  6
CONTINUOUS
 62
     7
100
AcDbCircle
 10
708.0687132894789
 20
1330.000000000292
 30
0.0
 40
21.0334671869671
100
AcDbArc
 50
317.2407912572484
 51
356.7674191149047
  0
TEXT
  5
283
330
1F
100
AcDbEntity
  8
LAY-10
  6
CONTINUOUS
 62
     7
100
AcDbText
 10
763.0005526637409
 20
570.4385309090983
 30
0.0
 40
11.692914
  1
０
 50
10.65213438295636
 41
1.2
  7
EXCADSTD
100
AcDbText
  0
TEXT
  5
284
330
1F
100
AcDbEntity
  8
LAY-10
  6
CONTINUOUS
 62
     7
100
AcDbText
 10
749.4169717371525
 20
568.3767037340643
 30
0.0
 40
11.692914
  1
０
 50
8.636123293511885
 41
1.2
  7
EXCADSTD
100
AcDbText
  0
TEXT
  5
285
330
1F
100
AcDbEntity
  8
LAY-10
  6
CONTINUOUS
 62
     7
100
AcDbText
 10
735.7692660186939
 20
566.7940064442254
 30
0.0
 40
11.692914
  1
６
 50
6.620112204067063
 41
1.2
  7
EXCADSTD
100
AcDbText
  0
TEXT
  5
286
330
1F
100
AcDbEntity
  8
LAY-10
  6
CONTINUOUS
 62
     7
100
AcDbText
 10
635.8988076808308
 20
571.5183349822192
 30
0.0
 40
7.0157484
  1
ＳＦ
 50
351.5000000000001
 41
0.9583333333333334
  7
EXCADSTD
100
AcDbText
  0
LINE
  5
287
330
1F
100
AcDbEntity
  8
LAY-10
  6
CONTINUOUS
 62
     7
100
AcDbLine
 10
631.2607934376808
 20
575.934058305473
 30
0.0
 11
644.0126935430997
 21
581.6115700245939
 31
0.0
  0
LINE
  5
288
330
1F
100
AcDbEntity
  8
LAY-10
  6
CONTINUOUS
 62
     7
100
AcDbLine
 10
654.5474524815734
 20
572.4538437932863
 30
0.0
 11
644.0126935430997
 21
581.6115700245939
 31
0.0
  0
LINE
  5
289
330
1F
100
AcDbEntity
  8
LAY-10
  6
CONTINUOUS
 62
     7
100
AcDbLine
 10
654.5474524815734
 20
572.4538437932863
 30
0.0
 11
641.7955523761545
 21
566.7763320741653
 31
0.0
  0
LINE
  5
28A
330
1F
100
AcDbEntity
  8
LAY-10
  6
CONTINUOUS
 62
     7
100
AcDbLine
 10
631.2607934376808
 20
575.934058305473
 30
0.0
 11
641.7955523761545
 21
566.7763320741653
 31
0.0
  0
ARC
  5
28B
330
1F
100
AcDbEntity
  8
LAY-10
  6
CONTINUOUS
 62
     7
100
AcDbCircle
 10
664.0687132896983
 20
614.9988186574606
 30
0.0
 40
5.0
100
AcDbArc
 50
180.0
 51
270.0000000000002
  0
ARC
  5
28C
330
1F
100
AcDbEntity
  8
LAY-10
  6
CONTINUOUS
 62
     7
100
AcDbCircle
 10
662.0687132896987
 20
613.1403508756207
 30
0.0
 40
5.0
100
AcDbArc
 50
180.0
 51
270.0000000000002
  0
LINE
  5
28D
330
1F
100
AcDbEntity
  8
LAY-10
  6
CONTINUOUS
 62
     7
100
AcDbLine
 10
657.0687132896987
 20
621.4095374393771
 30
0.0
 11
657.0687132896987
 21
613.1403508756207
 31
0.0
  0
ARC
  5
28E
330
1F
100
AcDbEntity
  8
LAY-10
  6
CONTINUOUS
 62
     7
100
AcDbCircle
 10
652.0687132896987
 20
621.4095374393771
 30
0.0
 40
5.0
100
AcDbArc
 50
0.0
 51
81.8599004432118
  0
LINE
  5
28F
330
1F
100
AcDbEntity
  8
LAY-10
  6
CONTINUOUS
 62
     7
100
AcDbLine
 10
659.0687132896983
 20
627.3992795177448
 30
0.0
 11
659.0687132896983
 21
614.9988186574606
 31
0.0
  0
ARC
  5
290
330
1F
100
AcDbEntity
  8
LAY-10
  6
CONTINUOUS
 62
     7
100
AcDbCircle
 10
654.0687132896983
 20
627.3992795177448
 30
0.0
 40
5.0
100
AcDbArc
 50
0.0
 51
82.05897661008
  0
ARC
  5
291
330
1F
100
AcDbEntity
  8
LAY-10
  6
CONTINUOUS
 62
     7
100
AcDbCircle
 10
734.0687132896986
 20
614.9988186574603
 30
0.0
 40
5.0
100
AcDbArc
 50
270.0000000000002
 51
0.0
  0
ARC
  5
292
330
1F
100
AcDbEntity
  8
LAY-10
  6
CONTINUOUS
 62
     7
100
AcDbCircle
 10
736.0687132896987
 20
613.1403508756205
 30
0.0
 40
5.0
100
AcDbArc
 50
270.0000000000002
 51
0.0
  0
LINE
  5
293
330
1F
100
AcDbEntity
  8
LAY-10
  6
CONTINUOUS
 62
     7
100
AcDbLine
 10
741.0687132896987
 20
621.4095374393769
 30
0.0
 11
741.0687132896987
 21
613.1403508756205
 31
0.0
  0
ARC
  5
294
330
1F
100
AcDbEntity
  8
LAY-10
  6
CONTINUOUS
 62
     7
100
AcDbCircle
 10
746.0687132896987
 20
621.4095374393769
 30
0.0
 40
5.0
100
AcDbArc
 50
98.14009955678564
 51
179.9999999999997
  0
LINE
  5
295
330
1F
100
AcDbEntity
  8
LAY-10
  6
CONTINUOUS
 62
     7
100
AcDbLine
 10
739.0687132896992
 20
627.3992795177446
 30
0.0
 11
739.0687132896986
 21
614.9988186574603
 31
0.0
  0
ARC
  5
296
330
1F
100
AcDbEntity
  8
LAY-10
  6
CONTINUOUS
 62
     7
100
AcDbCircle
 10
744.0687132896992
 20
627.3992795177446
 30
0.0
 40
5.0
100
AcDbArc
 50
97.94102338992
 51
179.9999999999997
  0
ARC
  5
297
330
1F
100
AcDbEntity
  8
LAY-10
  6
CONTINUOUS
 62
     7
100
AcDbCircle
 10
699.0687132896826
 20
949.9999999999998
 30
0.0
 40
326.9347708297501
100
AcDbArc
 50
255.7100343493747
 51
261.8599004432122
  0
ARC
  5
298
330
1F
100
AcDbEntity
  8
LAY-10
  6
CONTINUOUS
 62
     7
100
AcDbCircle
 10
699.0687132896799
 20
949.9999999999998
 30
0.0
 40
326.9347708297501
100
AcDbArc
 50
278.1400995567945
 51
284.2899656506257
  0
ARC
  5
299
330
1F
100
AcDbEntity
  8
LAY-10
  6
CONTINUOUS
 62
     7
100
AcDbCircle
 10
699.0687132896799
 20
949.9999999999998
 30
0.0
 40
356.1109714100704
100
AcDbArc
 50
87.60964659164546
 51
92.39035340835433
  0
CIRCLE
  5
29A
330
1F
100
AcDbEntity
  8
LAY-10
  6
CONTINUOUS
 62
     7
100
AcDbCircle
 10
699.0687132896826
 20
949.9999999999998
 30
0.0
 40
409.3000906918201
  0
CIRCLE
  5
29B
330
1F
100
AcDbEntity
  8
LAY-10
  6
CONTINUOUS
 62
     7
100
AcDbCircle
 10
699.0687132896826
 20
949.9999999999998
 30
0.0
 40
409.9999999999901
  0
ARC
  5
29C
330
1F
100
AcDbEntity
  8
LAY-10
  6
CONTINUOUS
 62
     7
100
AcDbCircle
 10
699.0687132896826
 20
949.9999999999998
 30
0.0
 40
391.6999093081703
100
AcDbArc
 50
268.6432483440369
 51
271.3567516559635
  0
ARC
  5
29D
330
1F
100
AcDbEntity
  8
LAY-10
  6
CONTINUOUS
 62
     7
100
AcDbCircle
 10
699.0687132896826
 20
949.9999999999998
 30
0.0
 40
390.9999999999602
100
AcDbArc
 50
268.6428677968752
 51
271.3571322031255
  0
LINE
  5
29E
330
1F
100
AcDbEntity
  8
LAY-10
  6
CONTINUOUS
 62
     7
100
AcDbLine
 10
690.0687132895334
 20
581.5933453021801
 30
0.0
 11
708.0687132898299
 21
581.5933453021801
 31
0.0
  0
LINE
  5
29F
330
1F
100
AcDbEntity
  8
LAY-10
  6
CONTINUOUS
 62
     7
100
AcDbLine
 10
707.8081869738501
 20
581.1035082848949
 30
0.0
 11
690.3292396048224
 21
581.1035082849058
 31
0.0
  0
ARC
  5
2A0
330
1F
100
AcDbEntity
  8
LAY-10
  6
CONTINUOUS
 62
     7
100
AcDbCircle
 10
699.0687132896826
 20
950.0000000000007
 30
0.0
 40
356.1109714100704
100
AcDbArc
 50
267.6096465916457
 51
272.3903534083533
  0
LINE
  5
2A1
330
1F
100
AcDbEntity
  8
LAY-10
  6
CONTINUOUS
 62
     7
100
AcDbLine
 10
664.0687132897
 20
609.9988186574604
 30
0.0
 11
734.0687132896986
 21
609.9988186574604
 31
0.0
  0
LINE
  5
2A2
330
1F
100
AcDbEntity
  8
LAY-10
  6
CONTINUOUS
 62
     7
100
AcDbLine
 10
662.0687132896901
 20
608.1403508756207
 30
0.0
 11
736.0687132896987
 21
608.1403508756207
 31
0.0
  0
ARC
  5
2A3
330
1F
100
AcDbEntity
  8
LAY-10
  6
CONTINUOUS
 62
     7
100
AcDbCircle
 10
699.0687132896769
 20
949.9999999999945
 30
0.0
 40
320.7241545474711
100
AcDbArc
 50
262.0589766100813
 51
278.1186679527531
  0
ARC
  5
2A4
330
1F
100
AcDbEntity
  8
LAY-10
  6
CONTINUOUS
 62
     7
100
AcDbCircle
 10
699.0687132896826
 20
949.9999999999998
 30
0.0
 40
314.70446593794
100
AcDbArc
 50
255.728268309352
 51
284.2717316906476
  0
CIRCLE
  5
2A5
330
1F
100
AcDbEntity
  8
LAY-10
  6
CONTINUOUS
 62
     7
100
AcDbCircle
 10
699.0687132896799
 20
950.0
 30
0.0
 40
313.9999999999703
  0
ARC
  5
2A6
330
1F
100
AcDbEntity
  8
LAY-10
  6
CONTINUOUS
 62
     7
100
AcDbCircle
 10
699.0687132896808
 20
949.9999999999998
 30
0.0
 40
358.2115940247
100
AcDbArc
 50
214.4113313456841
 51
221.8259548324395
  0
ARC
  5
2A7
330
1F
100
AcDbEntity
  8
LAY-10
  6
CONTINUOUS
 62
     7
100
AcDbCircle
 10
699.0687132896808
 20
949.9999999999998
 30
0.0
 40
356.1109714100704
100
AcDbArc
 50
222.1269149344351
 51
224.2233871201169
  0
ARC
  5
2A8
330
1F
100
AcDbEntity
  8
LAY-10
  6
CONTINUOUS
 62
     7
100
AcDbCircle
 10
432.7301745468785
 20
709.1173053799137
 30
0.0
 40
3.000000000000003
100
AcDbArc
 50
315.0000000000016
 51
42.12691493443656
  0
ARC
  5
2A9
330
1F
100
AcDbEntity
  8
LAY-10
  6
CONTINUOUS
 62
     7
100
AcDbCircle
 10
365.4790598514255
 20
1132.20577136623
 30
0.0
 40
21.0334671869671
100
AcDbArc
 50
243.2325808851012
 51
283.3307595220238
  0
ARC
  5
2AA
330
1F
100
AcDbEntity
  8
LAY-10
  6
CONTINUOUS
 62
     7
100
AcDbCircle
 10
365.4790598514246
 20
767.7942286337691
 30
0.0
 40
21.0334671869671
100
AcDbArc
 50
76.66924047797421
 51
116.7674191148999
  0
ARC
  5
2AB
330
1F
100
AcDbEntity
  8
LAY-10
  6
CONTINUOUS
 62
     7
100
AcDbCircle
 10
690.0687132898836
 20
1330.000000000291
 30
0.0
 40
21.0334671869671
100
AcDbArc
 50
183.2325808850956
 51
223.3307595221347
  0
ARC
  5
2AC
330
1F
100
AcDbEntity
  8
LAY-10
  6
CONTINUOUS
 62
     7
100
AcDbCircle
 10
671.1318529448105
 20
1312.135601492085
 30
0.0
 40
5.0
100
AcDbArc
 50
274.4113313456717
 51
43.3307595221344
  0
LINE
  5
2AD
330
1F
100
AcDbEntity
  8
LAY-10
  6
CONTINUOUS
 62
     7
100
AcDbLine
 10
707.8081869738501
 20
1318.896491715105
 30
0.0
 11
690.3292396055099
 21
1318.896491715094
 31
0.0
  0
LINE
  5
2AE
330
1F
100
AcDbEntity
  8
LAY-10
  6
CONTINUOUS
 62
     7
100
AcDbLine
 10
690.06871328954
 20
1318.40665469782
 30
0.0
 11
708.0687132898299
 21
1318.40665469782
 31
0.0
  0
ARC
  5
2AF
330
1F
100
AcDbEntity
  8
LAY-10
  6
CONTINUOUS
 62
     7
100
AcDbCircle
 10
699.0687132896826
 20
949.9999999999998
 30
0.0
 40
390.9999999999602
100
AcDbArc
 50
88.64286779687444
 51
91.35713220312489
  0
ARC
  5
2B0
330
1F
100
AcDbEntity
  8
LAY-10
  6
CONTINUOUS
 62
     7
100
AcDbCircle
 10
699.0687132896826
 20
949.9999999999998
 30
0.0
 40
391.6999093081703
100
AcDbArc
 50
88.6432483440364
 51
91.35713220312489
  0
ARC
  5
2B1
330
1F
100
AcDbEntity
  8
LAY-10
  6
CONTINUOUS
 62
     7
100
AcDbCircle
 10
699.0687132896826
 20
949.9999999999998
 30
0.0
 40
326.9347708297501
100
AcDbArc
 50
75.70102312963925
 51
104.2899656506258
  0
ARC
  5
2B2
330
1F
100
AcDbEntity
  8
LAY-10
  6
CONTINUOUS
 62
     7
100
AcDbCircle
 10
699.0687132896826
 20
949.9999999999998
 30
0.0
 40
314.70446593794
100
AcDbArc
 50
75.72826830935223
 51
104.2717316906481
  0
ARC
  5
2B3
330
1F
100
AcDbEntity
  8
LAY-10
  6
CONTINUOUS
 62
     7
100
AcDbCircle
 10
1032.658366727938
 20
1132.20577136623
 30
0.0
 40
21.0334671869671
100
AcDbArc
 50
256.6692404779926
 51
296.767419114899
  0
ARC
  5
2B4
330
1F
100
AcDbEntity
  8
LAY-10
  6
CONTINUOUS
 62
     7
100
AcDbCircle
 10
699.0687132896826
 20
949.9999999999998
 30
0.0
 40
358.2115940247
100
AcDbArc
 50
318.1740451675604
 51
325.5886686543165
  0
CIRCLE
  5
2B5
330
1F
100
AcDbEntity
  8
LAY-10
  6
CONTINUOUS
 62
     7
100
AcDbCircle
 10
699.0687132847015
 20
949.9999999999782
 30
0.0
 40
65.0
  0
CIRCLE
  5
2B6
330
1F
100
AcDbEntity
  8
LAY-10
  6
CONTINUOUS
 62
     7
100
AcDbCircle
 10
699.0687132847015
 20
949.9999999999782
 30
0.0
 40
70.0
  0
CIRCLE
  5
2B7
330
1F
100
AcDbEntity
  8
LAY-10
  6
CONTINUOUS
 62
     7
100
AcDbCircle
 10
699.0687132847015
 20
949.9999999999782
 30
0.0
 40
77.5
  0
ARC
  5
2B8
330
1F
100
AcDbEntity
  8
LAY-10
  6
CONTINUOUS
 62
     7
100
AcDbCircle
 10
699.0687132847015
 20
950.0000000023065
 30
0.0
 40
192.5
100
AcDbArc
 50
62.23286824279022
 51
87.76713175721035
  0
ARC
  5
2B9
330
1F
100
AcDbEntity
  8
LAY-10
  6
CONTINUOUS
 62
     7
100
AcDbCircle
 10
699.0687132847015
 20
950.0000000023065
 30
0.0
 40
92.50000000000007
100
AcDbArc
 50
49.65070900488004
 51
85.3492909951202
  0
ARC
  5
2BA
330
1F
100
AcDbEntity
  8
LAY-10
  6
CONTINUOUS
 62
     7
100
AcDbCircle
 10
699.0687132847015
 20
950.0000000023065
 30
0.0
 40
92.50000000000007
100
AcDbArc
 50
4.650709004879826
 51
40.34929099512004
  0
ARC
  5
2BB
330
1F
100
AcDbEntity
  8
LAY-10
  6
CONTINUOUS
 62
     7
100
AcDbCircle
 10
699.0687132897002
 20
950.0000000023065
 30
0.0
 40
192.5
100
AcDbArc
 50
92.23286824278972
 51
117.7671317572098
  0
ARC
  5
2BC
330
1F
100
AcDbEntity
  8
LAY-10
  6
CONTINUOUS
 62
     7
100
AcDbCircle
 10
699.0687132897002
 20
950.0000000023065
 30
0.0
 40
92.50000000000007
100
AcDbArc
 50
94.65070900487997
 51
130.34929099512
  0
ARC
  5
2BD
330
1F
100
AcDbEntity
  8
LAY-10
  6
CONTINUOUS
 62
     7
100
AcDbCircle
 10
699.0687132897002
 20
950.0000000023065
 30
0.0
 40
92.50000000000007
100
AcDbArc
 50
139.6507090048801
 51
175.3492909951202
  0
LINE
  5
2BE
330
1F
100
AcDbEntity
  8
LAY-10
  6
CONTINUOUS
 62
     7
100
AcDbLine
 10
710.5687132872027
 20
644.2150893727629
 30
0.0
 11
710.5687132872027
 21
689.0064244815376
 31
0.0
  0
ARC
  5
2BF
330
1F
100
AcDbEntity
  8
LAY-10
  6
CONTINUOUS
 62
     7
100
AcDbCircle
 10
687.5687132897002
 20
689.0064244815376
 30
0.0
 40
10.0
100
AcDbArc
 50
90.00000000000016
 51
180.0
  0
ARC
  5
2C0
330
1F
100
AcDbEntity
  8
LAY-10
  6
CONTINUOUS
 62
     7
100
AcDbCircle
 10
472.0761441117003
 20
1010.822475601307
 30
0.0
 40
20.0
100
AcDbArc
 50
90.14582433107107
 51
147.5423968946468
  0
LINE
  5
2C1
330
1F
100
AcDbEntity
  8
LAY-10
  6
CONTINUOUS
 62
     7
100
AcDbLine
 10
455.2003681517104
 20
1021.555983217562
 30
0.0
 11
432.6751265373397
 21
1027.591603517615
 31
0.0
  0
ARC
  5
2C2
330
1F
100
AcDbEntity
  8
LAY-10
  6
CONTINUOUS
 62
     7
100
AcDbCircle
 10
699.0687132897002
 20
950.0000000023065
 30
0.0
 40
277.5
100
AcDbArc
 50
151.5487231672397
 51
163.7610757916017
  0
LINE
  5
2C3
330
1F
100
AcDbEntity
  8
LAY-10
  6
CONTINUOUS
 62
     7
100
AcDbLine
 10
528.7354007997002
 20
1039.681729782307
 30
0.0
 11
497.1052866433812
 21
1057.943384705653
 31
0.0
  0
LINE
  5
2C4
330
1F
100
AcDbEntity
  8
LAY-10
  6
CONTINUOUS
 62
     7
100
AcDbLine
 10
536.2354007997002
 20
1052.672110839307
 30
0.0
 11
504.6052866437423
 21
1070.933765762444
 31
0.0
  0
LINE
  5
2C5
330
1F
100
AcDbEntity
  8
LAY-10
  6
CONTINUOUS
 62
     7
100
AcDbLine
 10
494.2076816950186
 20
1076.936825777894
 30
0.0
 11
462.5844526187004
 21
1095.194505598306
 31
0.0
  0
LINE
  5
2C6
330
1F
100
AcDbEntity
  8
LAY-10
  6
CONTINUOUS
 62
     7
100
AcDbLine
 10
486.7076816947166
 20
1063.946444721109
 30
0.0
 11
455.0844526191814
 21
1082.204124541068
 31
0.0
  0
ARC
  5
2C7
330
1F
100
AcDbEntity
  8
LAY-10
  6
CONTINUOUS
 62
     7
100
AcDbCircle
 10
532.8986197106998
 20
1116.170093581306
 30
0.0
 40
20.0
100
AcDbArc
 50
60.14582432350196
 51
117.5423968912618
  0
ARC
  5
2C8
330
1F
100
AcDbEntity
  8
LAY-10
  6
CONTINUOUS
 62
     7
100
AcDbCircle
 10
699.0687132897002
 20
950.0000000023065
 30
0.0
 40
277.5
100
AcDbArc
 50
136.2389242105973
 51
148.4512768327596
  0
LINE
  5
2C9
330
1F
100
AcDbEntity
  8
LAY-10
  6
CONTINUOUS
 62
     7
100
AcDbLine
 10
596.3966024527
 20
1112.833312492307
 30
0.0
 11
578.1349475315016
 21
1144.463426646712
 31
0.0
  0
LINE
  5
2CA
330
1F
100
AcDbEntity
  8
LAY-10
  6
CONTINUOUS
 62
     7
100
AcDbLine
 10
609.3869835097004
 20
1120.333312492307
 30
0.0
 11
591.1253285878521
 21
1151.963426646031
 31
0.0
  0
LINE
  5
2CB
330
1F
100
AcDbEntity
  8
LAY-10
  6
CONTINUOUS
 62
     7
100
AcDbLine
 10
585.1222685723861
 20
1162.361031594709
 30
0.0
 11
566.8645887516997
 21
1193.984260673306
 31
0.0
  0
LINE
  5
2CC
330
1F
100
AcDbEntity
  8
LAY-10
  6
CONTINUOUS
 62
     7
100
AcDbLine
 10
572.1318875152612
 20
1154.861031594925
 30
0.0
 11
553.8742076947002
 21
1186.484260673306
 31
0.0
  0
ARC
  5
2CD
330
1F
100
AcDbEntity
  8
LAY-10
  6
CONTINUOUS
 62
     7
100
AcDbCircle
 10
638.2462376906998
 20
1176.992569180306
 30
0.0
 40
20.0
100
AcDbArc
 50
214.7991160243337
 51
355.20088397257
  0
ARC
  5
2CE
330
1F
100
AcDbEntity
  8
LAY-10
  6
CONTINUOUS
 62
     7
100
AcDbCircle
 10
638.2462376906998
 20
1176.992569180306
 30
0.0
 40
20.0
100
AcDbArc
 50
30.14582431450478
 51
87.54239688314243
  0
LINE
  5
2CF
330
1F
100
AcDbEntity
  8
LAY-10
  6
CONTINUOUS
 62
     7
100
AcDbLine
 10
639.1038399821083
 20
1196.974173678188
 30
0.0
 11
633.0682196832641
 21
1219.499415289382
 31
0.0
  0
ARC
  5
2D0
330
1F
100
AcDbEntity
  8
LAY-10
  6
CONTINUOUS
 62
     7
100
AcDbCircle
 10
638.2462376906998
 20
1176.992569180306
 30
0.0
 40
20.0
100
AcDbArc
 50
122.4576031292101
 51
179.8541756823988
  0
LINE
  5
2D1
330
1F
100
AcDbEntity
  8
LAY-10
  6
CONTINUOUS
 62
     7
100
AcDbLine
 10
627.5127300674168
 20
1193.868345135827
 30
0.0
 11
621.4771097681311
 21
1216.393586747683
 31
0.0
  0
LINE
  5
2D2
330
1F
100
AcDbEntity
  8
LAY-10
  6
CONTINUOUS
 62
     7
100
AcDbLine
 10
706.5687132847015
 20
1142.353840619306
 30
0.0
 11
706.5687132847015
 21
1178.87715045896
 31
0.0
  0
LINE
  5
2D3
330
1F
100
AcDbEntity
  8
LAY-10
  6
CONTINUOUS
 62
     7
100
AcDbLine
 10
691.5687132897002
 20
1142.353840619306
 30
0.0
 11
691.5687132897002
 21
1178.8771504592
 31
0.0
  0
ARC
  5
2D4
330
1F
100
AcDbEntity
  8
LAY-10
  6
CONTINUOUS
 62
     7
100
AcDbCircle
 10
759.891188883703
 20
1176.992569180306
 30
0.0
 40
20.0
100
AcDbArc
 50
184.7991160313092
 51
325.2008839683385
  0
ARC
  5
2D5
330
1F
100
AcDbEntity
  8
LAY-10
  6
CONTINUOUS
 62
     7
100
AcDbCircle
 10
759.891188883703
 20
1176.992569180306
 30
0.0
 40
20.0
100
AcDbArc
 50
0.1458243101285779
 51
57.54239687079169
  0
LINE
  5
2D6
330
1F
100
AcDbEntity
  8
LAY-10
  6
CONTINUOUS
 62
     7
100
AcDbLine
 10
770.6246965069852
 20
1193.868345135827
 30
0.0
 11
776.6603168062708
 21
1216.393586747683
 31
0.0
  0
LINE
  5
2D7
330
1F
100
AcDbEntity
  8
LAY-10
  6
CONTINUOUS
 62
     7
100
AcDbLine
 10
759.0335865922935
 20
1196.974173678188
 30
0.0
 11
765.069206891138
 21
1219.499415289382
 31
0.0
  0
ARC
  5
2D8
330
1F
100
AcDbEntity
  8
LAY-10
  6
CONTINUOUS
 62
     7
100
AcDbCircle
 10
759.891188883703
 20
1176.992569180306
 30
0.0
 40
20.0
100
AcDbArc
 50
92.4576031168598
 51
149.8541756895196
  0
LINE
  5
2D9
330
1F
100
AcDbEntity
  8
LAY-10
  6
CONTINUOUS
 62
     7
100
AcDbLine
 10
801.7408241217018
 20
1112.833312492307
 30
0.0
 11
820.0024790409672
 21
1144.463426643362
 31
0.0
  0
LINE
  5
2DA
330
1F
100
AcDbEntity
  8
LAY-10
  6
CONTINUOUS
 62
     7
100
AcDbLine
 10
826.0055390572121
 20
1154.861031591584
 30
0.0
 11
844.2632188797018
 21
1186.484260673306
 31
0.0
  0
LINE
  5
2DB
330
1F
100
AcDbEntity
  8
LAY-10
  6
CONTINUOUS
 62
     7
100
AcDbLine
 10
813.0151580002849
 20
1162.361031591709
 30
0.0
 11
831.2728378227022
 21
1193.984260673306
 31
0.0
  0
LINE
  5
2DC
330
1F
100
AcDbEntity
  8
LAY-10
  6
CONTINUOUS
 62
     7
100
AcDbLine
 10
788.7504430647024
 20
1120.333312492307
 30
0.0
 11
807.0120979848235
 21
1151.96342664304
 31
0.0
  0
ARC
  5
2DD
330
1F
100
AcDbEntity
  8
LAY-10
  6
CONTINUOUS
 62
     7
100
AcDbCircle
 10
865.238806863703
 20
1116.170093581306
 30
0.0
 40
20.0
100
AcDbArc
 50
330.1458243090481
 51
27.54239686043879
  0
LINE
  5
2DE
330
1F
100
AcDbEntity
  8
LAY-10
  6
CONTINUOUS
 62
     7
100
AcDbLine
 10
911.4297448740969
 20
1063.946444717882
 30
0.0
 11
943.0529739552213
 21
1082.204124541068
 31
0.0
  0
LINE
  5
2DF
330
1F
100
AcDbEntity
  8
LAY-10
  6
CONTINUOUS
 62
     7
100
AcDbLine
 10
903.9297448739918
 20
1076.936825774781
 30
0.0
 11
935.5529739557024
 21
1095.194505598306
 31
0.0
  0
LINE
  5
2E0
330
1F
100
AcDbEntity
  8
LAY-10
  6
CONTINUOUS
 62
     7
100
AcDbLine
 10
861.9020257747017
 20
1052.672110839307
 30
0.0
 11
893.5321399252736
 21
1070.933765759334
 31
0.0
  0
ARC
  5
2E1
330
1F
100
AcDbEntity
  8
LAY-10
  6
CONTINUOUS
 62
     7
100
AcDbCircle
 10
926.0612824627026
 20
1010.822475601307
 30
0.0
 40
20.0
100
AcDbArc
 50
32.45760310535405
 51
89.85417568992227
  0
LINE
  5
2E2
330
1F
100
AcDbEntity
  8
LAY-10
  6
CONTINUOUS
 62
     7
100
AcDbLine
 10
942.9370584226923
 20
1021.555983217563
 30
0.0
 11
965.4623000370623
 21
1027.591603517615
 31
0.0
  0
ARC
  5
2E3
330
1F
100
AcDbEntity
  8
LAY-10
  6
CONTINUOUS
 62
     7
100
AcDbCircle
 10
699.0687132835407
 20
950.0000000011715
 30
0.0
 40
241.0000000037001
100
AcDbArc
 50
151.7833516111079
 51
160.4054049218406
  0
ARC
  5
2E4
330
1F
100
AcDbEntity
  8
LAY-10
  6
CONTINUOUS
 62
     7
100
AcDbCircle
 10
699.0687132835407
 20
950.0000000011715
 30
0.0
 40
229.0000000037001
100
AcDbArc
 50
151.8768349560738
 51
160.2864933394571
  0
ARC
  5
2E5
330
1F
100
AcDbEntity
  8
LAY-10
  6
CONTINUOUS
 62
     7
100
AcDbCircle
 10
699.0687132835407
 20
950.0000000011715
 30
0.0
 40
229.0000000037001
100
AcDbArc
 50
139.7135066584551
 51
148.1231650416337
  0
ARC
  5
2E6
330
1F
100
AcDbEntity
  8
LAY-10
  6
CONTINUOUS
 62
     7
100
AcDbCircle
 10
699.0687132835407
 20
950.0000000011715
 30
0.0
 40
241.0000000037001
100
AcDbArc
 50
139.5945950764234
 51
148.2166483869623
  0
ARC
  5
2E7
330
1F
100
AcDbEntity
  8
LAY-10
  6
CONTINUOUS
 62
     7
100
AcDbCircle
 10
699.0687132835407
 20
950.0000000011715
 30
0.0
 40
229.0000000037001
100
AcDbArc
 50
121.8768349556459
 51
130.2864933390306
  0
ARC
  5
2E8
330
1F
100
AcDbEntity
  8
LAY-10
  6
CONTINUOUS
 62
     7
100
AcDbCircle
 10
699.0687132835407
 20
950.0000000011715
 30
0.0
 40
241.0000000037001
100
AcDbArc
 50
121.7833516106764
 51
130.4054049210623
  0
ARC
  5
2E9
330
1F
100
AcDbEntity
  8
LAY-10
  6
CONTINUOUS
 62
     7
100
AcDbCircle
 10
699.0687132835407
 20
950.0000000011715
 30
0.0
 40
229.0000000037001
100
AcDbArc
 50
109.7135066579123
 51
118.1231650414316
  0
ARC
  5
2EA
330
1F
100
AcDbEntity
  8
LAY-10
  6
CONTINUOUS
 62
     7
100
AcDbCircle
 10
699.0687132835407
 20
950.0000000011715
 30
0.0
 40
241.0000000037001
100
AcDbArc
 50
109.594595076322
 51
118.2166483865226
  0
ARC
  5
2EB
330
1F
100
AcDbEntity
  8
LAY-10
  6
CONTINUOUS
 62
     7
100
AcDbCircle
 10
699.0687132835407
 20
950.0000000011715
 30
0.0
 40
229.0000000037001
100
AcDbArc
 50
91.87683495565275
 51
100.2864933389914
  0
ARC
  5
2EC
330
1F
100
AcDbEntity
  8
LAY-10
  6
CONTINUOUS
 62
     7
100
AcDbCircle
 10
699.0687132835407
 20
950.0000000011715
 30
0.0
 40
241.0000000037001
100
AcDbArc
 50
91.7833516105879
 51
100.4054049205817
  0
ARC
  5
2ED
330
1F
100
AcDbEntity
  8
LAY-10
  6
CONTINUOUS
 62
     7
100
AcDbCircle
 10
699.0687132835407
 20
950.0000000011715
 30
0.0
 40
229.0000000037001
100
AcDbArc
 50
79.71350665911805
 51
88.12316504251464
  0
ARC
  5
2EE
330
1F
100
AcDbEntity
  8
LAY-10
  6
CONTINUOUS
 62
     7
100
AcDbCircle
 10
699.0687132835407
 20
950.0000000011715
 30
0.0
 40
241.0000000037001
100
AcDbArc
 50
79.59459507781908
 51
88.21664838767117
  0
ARC
  5
2EF
330
1F
100
AcDbEntity
  8
LAY-10
  6
CONTINUOUS
 62
     7
100
AcDbCircle
 10
699.0687132835407
 20
950.0000000011715
 30
0.0
 40
241.0000000037001
100
AcDbArc
 50
61.78335161196963
 51
70.40540492182902
  0
ARC
  5
2F0
330
1F
100
AcDbEntity
  8
LAY-10
  6
CONTINUOUS
 62
     7
100
AcDbCircle
 10
699.0687132835407
 20
950.0000000011715
 30
0.0
 40
229.0000000037001
100
AcDbArc
 50
61.87683495698144
 51
70.28649334053003
  0
ARC
  5
2F1
330
1F
100
AcDbEntity
  8
LAY-10
  6
CONTINUOUS
 62
     7
100
AcDbCircle
 10
699.0687132835407
 20
950.0000000011715
 30
0.0
 40
229.0000000037001
100
AcDbArc
 50
49.71350665925314
 51
58.12316504276718
  0
ARC
  5
2F2
330
1F
100
AcDbEntity
  8
LAY-10
  6
CONTINUOUS
 62
     7
100
AcDbCircle
 10
699.0687132835407
 20
950.0000000011715
 30
0.0
 40
229.0000000037001
100
AcDbArc
 50
31.87683495744988
 51
40.28649334073749
  0
ARC
  5
2F3
330
1F
100
AcDbEntity
  8
LAY-10
  6
CONTINUOUS
 62
     7
100
AcDbCircle
 10
699.0687132835407
 20
950.0000000011715
 30
0.0
 40
241.0000000037001
100
AcDbArc
 50
31.78335161216706
 51
40.40540492197275
  0
ARC
  5
2F4
330
1F
100
AcDbEntity
  8
LAY-10
  6
CONTINUOUS
 62
     7
100
AcDbCircle
 10
699.0687132835407
 20
950.0000000011715
 30
0.0
 40
241.0000000037001
100
AcDbArc
 50
19.59459507816432
 51
28.21664838802123
  0
ARC
  5
2F5
330
1F
100
AcDbEntity
  8
LAY-10
  6
CONTINUOUS
 62
     7
100
AcDbCircle
 10
699.0687132847015
 20
950.0000000023065
 30
0.0
 40
277.5
100
AcDbArc
 50
61.54872316724044
 51
73.76107578997976
  0
ARC
  5
2F6
330
1F
100
AcDbEntity
  8
LAY-10
  6
CONTINUOUS
 62
     7
100
AcDbCircle
 10
699.0687132847015
 20
950.0000000023065
 30
0.0
 40
277.5
100
AcDbArc
 50
16.23892420839847
 51
28.4512768327604
  0
ARC
  5
2F7
330
1F
100
AcDbEntity
  8
LAY-10
  6
CONTINUOUS
 62
     7
100
AcDbCircle
 10
699.0687132897002
 20
949.9999999999782
 30
0.0
 40
177.5
100
AcDbArc
 50
249.4371277670973
 51
267.5783306130601
  0
ARC
  5
2F8
330
1F
100
AcDbEntity
  8
LAY-10
  6
CONTINUOUS
 62
     7
100
AcDbCircle
 10
699.0687132897002
 20
949.9999999999782
 30
0.0
 40
177.5
100
AcDbArc
 50
227.4216693869402
 51
245.5628722328016
  0
LINE
  5
2F9
330
1F
100
AcDbEntity
  8
LAY-10
  6
CONTINUOUS
 62
     7
100
AcDbLine
 10
634.5620381686159
 20
809.9458656359311
 30
0.0
 11
625.6597903974449
 21
788.4539383333795
 31
0.0
  0
LINE
  5
2FA
330
1F
100
AcDbEntity
  8
LAY-10
  6
CONTINUOUS
 62
     7
100
AcDbLine
 10
645.6485925580265
 20
805.353664447839
 30
0.0
 11
636.746344787931
 21
783.861737145522
 31
0.0
  0
ARC
  5
2FB
330
1F
100
AcDbEntity
  8
LAY-10
  6
CONTINUOUS
 62
     7
100
AcDbCircle
 10
647.4064499206999
 20
825.2762631109781
 30
0.0
 40
20.0
100
AcDbArc
 50
264.9576031225031
 51
324.0502432709123
  0
ARC
  5
2FC
330
1F
100
AcDbEntity
  8
LAY-10
  6
CONTINUOUS
 62
     7
100
AcDbCircle
 10
647.4064499206999
 20
825.2762631109781
 30
0.0
 40
20.0
100
AcDbArc
 50
359.0558139599719
 51
135.9441860454639
  0
ARC
  5
2FD
330
1F
100
AcDbEntity
  8
LAY-10
  6
CONTINUOUS
 62
     7
100
AcDbCircle
 10
647.4064499206999
 20
825.2762631109781
 30
0.0
 40
20.0
100
AcDbArc
 50
170.9497567345235
 51
230.0423968774022
  0
LINE
  5
2FE
330
1F
100
AcDbEntity
  8
LAY-10
  6
CONTINUOUS
 62
     7
100
AcDbLine
 10
691.5687132897002
 20
809.1996093726802
 30
0.0
 11
691.5687132897002
 21
772.6585214899779
 31
0.0
  0
LINE
  5
2FF
330
1F
100
AcDbEntity
  8
LAY-10
  6
CONTINUOUS
 62
     7
100
AcDbLine
 10
791.2641578577023
 20
957.5000000023065
 30
0.0
 11
827.8505054784683
 21
957.5000000023065
 31
0.0
  0
ARC
  5
300
330
1F
100
AcDbEntity
  8
LAY-10
  6
CONTINUOUS
 62
     7
100
AcDbCircle
 10
823.7924501737018
 20
1001.662263372307
 30
0.0
 40
20.0
100
AcDbArc
 50
305.9497567227661
 51
5.042396852618954
  0
LINE
  5
301
330
1F
100
AcDbEntity
  8
LAY-10
  6
CONTINUOUS
 62
     7
100
AcDbLine
 10
843.715048837604
 20
1003.42012072633
 30
0.0
 11
865.2069761393966
 21
1012.322368496112
 31
0.0
  0
LINE
  5
302
330
1F
100
AcDbEntity
  8
LAY-10
  6
CONTINUOUS
 62
     7
100
AcDbLine
 10
839.1228476543257
 20
1014.506675117735
 30
0.0
 11
860.6147749515814
 21
1023.408922886615
 31
0.0
  0
ARC
  5
303
330
1F
100
AcDbEntity
  8
LAY-10
  6
CONTINUOUS
 62
     7
100
AcDbCircle
 10
823.7924501737018
 20
1001.662263372307
 30
0.0
 40
20.0
100
AcDbArc
 50
39.95760309779205
 51
99.05024327831421
  0
ARC
  5
304
330
1F
100
AcDbEntity
  8
LAY-10
  6
CONTINUOUS
 62
     7
100
AcDbCircle
 10
823.7924501737018
 20
1001.662263372307
 30
0.0
 40
20.0
100
AcDbArc
 50
134.0558139669511
 51
270.944186034129
  0
ARC
  5
305
330
1F
100
AcDbEntity
  8
LAY-10
  6
CONTINUOUS
 62
     7
100
AcDbCircle
 10
699.0687132847015
 20
950.0000000023065
 30
0.0
 40
177.5
100
AcDbArc
 50
24.43712776479259
 51
42.57833061306031
  0
ARC
  5
306
330
1F
100
AcDbEntity
  8
LAY-10
  6
CONTINUOUS
 62
     7
100
AcDbCircle
 10
699.0687132847015
 20
950.0000000023065
 30
0.0
 40
177.5
100
AcDbArc
 50
47.42166938694019
 51
65.56287223542695
  0
ARC
  5
307
330
1F
100
AcDbEntity
  8
LAY-10
  6
CONTINUOUS
 62
     7
100
AcDbCircle
 10
699.0687132847015
 20
950.0000000023065
 30
0.0
 40
177.5
100
AcDbArc
 50
69.43712776972271
 51
87.57833061306012
  0
ARC
  5
308
330
1F
100
AcDbEntity
  8
LAY-10
  6
CONTINUOUS
 62
     7
100
AcDbCircle
 10
750.730976653702
 20
1074.723736891307
 30
0.0
 40
20.0
100
AcDbArc
 50
350.9497567232736
 51
50.04239690120846
  0
ARC
  5
309
330
1F
100
AcDbEntity
  8
LAY-10
  6
CONTINUOUS
 62
     7
100
AcDbCircle
 10
750.730976653702
 20
1074.723736891307
 30
0.0
 40
20.0
100
AcDbArc
 50
179.0558139650922
 51
315.9441860345831
  0
ARC
  5
30A
330
1F
100
AcDbEntity
  8
LAY-10
  6
CONTINUOUS
 62
     7
100
AcDbCircle
 10
750.730976653702
 20
1074.723736891307
 30
0.0
 40
20.0
100
AcDbArc
 50
84.95760314637816
 51
144.0502432764021
  0
LINE
  5
30B
330
1F
100
AcDbEntity
  8
LAY-10
  6
CONTINUOUS
 62
     7
100
AcDbLine
 10
706.5687132847015
 20
1042.195444575306
 30
0.0
 11
706.5687132847015
 21
1078.781792196098
 31
0.0
  0
LINE
  5
30C
330
1F
100
AcDbEntity
  8
LAY-10
  6
CONTINUOUS
 62
     7
100
AcDbLine
 10
691.5687132897002
 20
1042.195444575306
 30
0.0
 11
691.5687132897002
 21
1078.781792196524
 31
0.0
  0
LINE
  5
30D
330
1F
100
AcDbEntity
  8
LAY-10
  6
CONTINUOUS
 62
     7
100
AcDbLine
 10
691.5687132897002
 20
1090.800390629664
 30
0.0
 11
691.5687132897002
 21
1127.341478512306
 31
0.0
  0
LINE
  5
30E
330
1F
100
AcDbEntity
  8
LAY-10
  6
CONTINUOUS
 62
     7
100
AcDbLine
 10
706.5687132847015
 20
1090.800390629273
 30
0.0
 11
706.5687132847015
 21
1127.341478512306
 31
0.0
  0
ARC
  5
30F
330
1F
100
AcDbEntity
  8
LAY-10
  6
CONTINUOUS
 62
     7
100
AcDbCircle
 10
647.4064499206999
 20
1074.723736891307
 30
0.0
 40
20.0
100
AcDbArc
 50
129.9576031464732
 51
189.0502432653198
  0
ARC
  5
310
330
1F
100
AcDbEntity
  8
LAY-10
  6
CONTINUOUS
 62
     7
100
AcDbCircle
 10
647.4064499206999
 20
1074.723736891307
 30
0.0
 40
20.0
100
AcDbArc
 50
35.94975672926415
 51
95.04239690137175
  0
ARC
  5
311
330
1F
100
AcDbEntity
  8
LAY-10
  6
CONTINUOUS
 62
     7
100
AcDbCircle
 10
647.4064499206999
 20
1074.723736891307
 30
0.0
 40
20.0
100
AcDbArc
 50
224.0558139543874
 51
0.9441860401971045
  0
LINE
  5
312
330
1F
100
AcDbEntity
  8
LAY-10
  6
CONTINUOUS
 62
     7
100
AcDbLine
 10
604.8111031394975
 20
1054.864211870507
 30
0.0
 11
578.9726521086997
 21
1080.702662901306
 31
0.0
  0
LINE
  5
313
330
1F
100
AcDbEntity
  8
LAY-10
  6
CONTINUOUS
 62
     7
100
AcDbLine
 10
639.1799900967
 20
1020.495324913307
 30
0.0
 11
613.3095355919692
 21
1046.365779418037
 31
0.0
  0
LINE
  5
314
330
1F
100
AcDbEntity
  8
LAY-10
  6
CONTINUOUS
 62
     7
100
AcDbLine
 10
628.5733883787008
 20
1009.888723195307
 30
0.0
 11
602.7029338735439
 21
1035.759177700462
 31
0.0
  0
LINE
  5
315
330
1F
100
AcDbEntity
  8
LAY-10
  6
CONTINUOUS
 62
     7
100
AcDbLine
 10
594.2045014216029
 20
1044.257610153446
 30
0.0
 11
568.3660503906996
 21
1070.096061183307
 31
0.0
  0
ARC
  5
316
330
1F
100
AcDbEntity
  8
LAY-10
  6
CONTINUOUS
 62
     7
100
AcDbCircle
 10
699.0687132897002
 20
950.0000000023065
 30
0.0
 40
177.5
100
AcDbArc
 50
159.4371277695031
 51
177.5783306130603
  0
LINE
  5
317
330
1F
100
AcDbEntity
  8
LAY-10
  6
CONTINUOUS
 62
     7
100
AcDbLine
 10
554.422377736798
 20
1003.42012072633
 30
0.0
 11
532.8777116425323
 21
1012.344213619217
 31
0.0
  0
LINE
  5
318
330
1F
100
AcDbEntity
  8
LAY-10
  6
CONTINUOUS
 62
     7
100
AcDbLine
 10
559.0145789200761
 20
1014.506675117735
 30
0.0
 11
537.4699128305057
 21
1023.430768009657
 31
0.0
  0
ARC
  5
319
330
1F
100
AcDbEntity
  8
LAY-10
  6
CONTINUOUS
 62
     7
100
AcDbCircle
 10
699.0687132897002
 20
950.0000000023065
 30
0.0
 40
177.5
100
AcDbArc
 50
137.4216693869399
 51
155.5628722352074
  0
ARC
  5
31A
330
1F
100
AcDbEntity
  8
LAY-10
  6
CONTINUOUS
 62
     7
100
AcDbCircle
 10
574.3449764007001
 20
1001.662263372307
 30
0.0
 40
20.0
100
AcDbArc
 50
80.9497567411051
 51
140.0423969022805
  0
ARC
  5
31B
330
1F
100
AcDbEntity
  8
LAY-10
  6
CONTINUOUS
 62
     7
100
AcDbCircle
 10
574.3449764007001
 20
1001.662263372307
 30
0.0
 40
20.0
100
AcDbArc
 50
269.0558139449838
 51
45.9441860515585
  0
ARC
  5
31C
330
1F
100
AcDbEntity
  8
LAY-10
  6
CONTINUOUS
 62
     7
100
AcDbCircle
 10
574.3449764007001
 20
1001.662263372307
 30
0.0
 40
20.0
100
AcDbArc
 50
174.9576031473812
 51
234.0502432554373
  0
LINE
  5
31D
330
1F
100
AcDbEntity
  8
LAY-10
  6
CONTINUOUS
 62
     7
100
AcDbLine
 10
558.2683226554374
 20
957.5000000023065
 30
0.0
 11
521.7272347797008
 21
957.5000000023065
 31
0.0
  0
LINE
  5
31E
330
1F
100
AcDbEntity
  8
LAY-10
  6
CONTINUOUS
 62
     7
100
AcDbLine
 10
606.8732687166995
 20
957.5000000023065
 30
0.0
 11
570.286921088613
 21
957.5000000023065
 31
0.0
  0
LINE
  5
31F
330
1F
100
AcDbEntity
  8
LAY-10
  6
CONTINUOUS
 62
     7
100
AcDbLine
 10
639.1799900967
 20
879.5046750889778
 30
0.0
 11
613.3095355919996
 21
853.6342205842784
 31
0.0
  0
LINE
  5
320
330
1F
100
AcDbEntity
  8
LAY-10
  6
CONTINUOUS
 62
     7
100
AcDbLine
 10
604.8111031395289
 20
845.1357881318072
 30
0.0
 11
578.9726521086997
 21
819.2973371009784
 31
0.0
  0
ARC
  5
321
330
1F
100
AcDbEntity
  8
LAY-10
  6
CONTINUOUS
 62
     7
100
AcDbCircle
 10
699.0687132835407
 20
950.0000000011715
 30
0.0
 40
141.0000000037001
100
AcDbArc
 50
255.4294584573275
 51
266.9509131874099
  0
ARC
  5
322
330
1F
100
AcDbEntity
  8
LAY-10
  6
CONTINUOUS
 62
     7
100
AcDbCircle
 10
699.0687132835407
 20
950.0000000011715
 30
0.0
 40
129.0000000037001
100
AcDbArc
 50
255.7906873431763
 51
266.666970508894
  0
ARC
  5
323
330
1F
100
AcDbEntity
  8
LAY-10
  6
CONTINUOUS
 62
     7
100
AcDbCircle
 10
699.0687132835407
 20
950.0000000011715
 30
0.0
 40
129.0000000037001
100
AcDbArc
 50
3.333029494351419
 51
14.20931266060879
  0
LINE
  5
324
330
1F
100
AcDbEntity
  8
LAY-10
  6
CONTINUOUS
 62
     7
100
AcDbLine
 10
769.564038195702
 20
1009.888723195307
 30
0.0
 11
795.434492696985
 21
1035.759177696588
 31
0.0
  0
LINE
  5
325
330
1F
100
AcDbEntity
  8
LAY-10
  6
CONTINUOUS
 62
     7
100
AcDbLine
 10
803.9329251489437
 20
1044.257610149591
 30
0.0
 11
829.7713761837023
 21
1070.096061183307
 31
0.0
  0
LINE
  5
326
330
1F
100
AcDbEntity
  8
LAY-10
  6
CONTINUOUS
 62
     7
100
AcDbLine
 10
758.9574364777019
 20
1020.495324913307
 30
0.0
 11
784.8278909789861
 21
1046.36577941459
 31
0.0
  0
LINE
  5
327
330
1F
100
AcDbEntity
  8
LAY-10
  6
CONTINUOUS
 62
     7
100
AcDbLine
 10
793.3263234314387
 20
1054.864211867042
 30
0.0
 11
819.1647744657022
 21
1080.702662901306
 31
0.0
  0
ARC
  5
328
330
1F
100
AcDbEntity
  8
LAY-10
  6
CONTINUOUS
 62
     7
100
AcDbCircle
 10
699.0687132835407
 20
950.0000000011715
 30
0.0
 40
129.0000000037001
100
AcDbArc
 50
30.79068734047139
 51
41.66697050608133
  0
ARC
  5
329
330
1F
100
AcDbEntity
  8
LAY-10
  6
CONTINUOUS
 62
     7
100
AcDbCircle
 10
699.0687132835407
 20
950.0000000011715
 30
0.0
 40
141.0000000037001
100
AcDbArc
 50
30.42945845546893
 51
41.95091318513762
  0
ARC
  5
32A
330
1F
100
AcDbEntity
  8
LAY-10
  6
CONTINUOUS
 62
     7
100
AcDbCircle
 10
699.0687132835407
 20
950.0000000011715
 30
0.0
 40
129.0000000037001
100
AcDbArc
 50
48.33302949390163
 51
59.20931265983982
  0
ARC
  5
32B
330
1F
100
AcDbEntity
  8
LAY-10
  6
CONTINUOUS
 62
     7
100
AcDbCircle
 10
699.0687132835407
 20
950.0000000011715
 30
0.0
 40
141.0000000037001
100
AcDbArc
 50
48.04908681514699
 51
59.57054154494925
  0
ARC
  5
32C
330
1F
100
AcDbEntity
  8
LAY-10
  6
CONTINUOUS
 62
     7
100
AcDbCircle
 10
699.0687132835407
 20
950.0000000011715
 30
0.0
 40
129.0000000037001
100
AcDbArc
 50
75.79068733983556
 51
86.66697050563691
  0
ARC
  5
32D
330
1F
100
AcDbEntity
  8
LAY-10
  6
CONTINUOUS
 62
     7
100
AcDbCircle
 10
699.0687132835407
 20
950.0000000011715
 30
0.0
 40
141.0000000037001
100
AcDbArc
 50
75.42945845472624
 51
86.9509131844308
  0
ARC
  5
32E
330
1F
100
AcDbEntity
  8
LAY-10
  6
CONTINUOUS
 62
     7
100
AcDbCircle
 10
699.0687132835407
 20
950.0000000011715
 30
0.0
 40
129.0000000037001
100
AcDbArc
 50
93.3330294911062
 51
104.2093126568246
  0
ARC
  5
32F
330
1F
100
AcDbEntity
  8
LAY-10
  6
CONTINUOUS
 62
     7
100
AcDbCircle
 10
699.0687132835407
 20
950.0000000011715
 30
0.0
 40
141.0000000037001
100
AcDbArc
 50
93.04908681259023
 51
104.5705415426875
  0
ARC
  5
330
330
1F
100
AcDbEntity
  8
LAY-10
  6
CONTINUOUS
 62
     7
100
AcDbCircle
 10
699.0687132835407
 20
950.0000000011715
 30
0.0
 40
129.0000000037001
100
AcDbArc
 50
120.7906873377595
 51
131.6669705037953
  0
ARC
  5
331
330
1F
100
AcDbEntity
  8
LAY-10
  6
CONTINUOUS
 62
     7
100
AcDbCircle
 10
699.0687132835407
 20
950.0000000011715
 30
0.0
 40
141.0000000037001
100
AcDbArc
 50
120.4294584518964
 51
131.9509131827466
  0
ARC
  5
332
330
1F
100
AcDbEntity
  8
LAY-10
  6
CONTINUOUS
 62
     7
100
AcDbCircle
 10
699.0687132835407
 20
950.0000000011715
 30
0.0
 40
141.0000000037001
100
AcDbArc
 50
138.0490868127561
 51
149.5705415440288
  0
ARC
  5
333
330
1F
100
AcDbEntity
  8
LAY-10
  6
CONTINUOUS
 62
     7
100
AcDbCircle
 10
699.0687132835407
 20
950.0000000011715
 30
0.0
 40
129.0000000037001
100
AcDbArc
 50
138.3330294916157
 51
149.209312657206
  0
ARC
  5
334
330
1F
100
AcDbEntity
  8
LAY-10
  6
CONTINUOUS
 62
     7
100
AcDbCircle
 10
699.0687132835407
 20
950.0000000011715
 30
0.0
 40
141.0000000037001
100
AcDbArc
 50
165.4294584525137
 51
176.9509131844419
  0
ARC
  5
335
330
1F
100
AcDbEntity
  8
LAY-10
  6
CONTINUOUS
 62
     7
100
AcDbCircle
 10
699.0687132835407
 20
950.0000000011715
 30
0.0
 40
129.0000000037001
100
AcDbArc
 50
165.7906873393365
 51
176.6669705056488
  0
ARC
  5
336
330
1F
100
AcDbEntity
  8
LAY-10
  6
CONTINUOUS
 62
     7
100
AcDbCircle
 10
699.0687132835407
 20
950.0000000011715
 30
0.0
 40
129.0000000037001
100
AcDbArc
 50
228.3330294962232
 51
239.2093126622592
  0
ARC
  5
337
330
1F
100
AcDbEntity
  8
LAY-10
  6
CONTINUOUS
 62
     7
100
AcDbCircle
 10
699.0687132835407
 20
950.0000000011715
 30
0.0
 40
141.0000000037001
100
AcDbArc
 50
228.0490868172704
 51
239.5705415481081
  0
TEXT
  5
338
330
1F
100
AcDbEntity
  8
LAY-10
  6
CONTINUOUS
 62
     7
100
AcDbText
 10
686.468713287191
 20
1230.057874511317
 30
0.0
 40
11.692914
  1
２５
 50
360.0
 41
1.035
  7
EXCADSTD
100
AcDbText
  0
LINE
  5
339
330
1F
100
AcDbEntity
  8
LAY-10
  6
CONTINUOUS
 62
     7
100
AcDbLine
 10
712.3937132871953
 20
1223.250000011318
 30
0.0
 11
712.3937132871953
 21
1246.000000011318
 31
0.0
  0
LINE
  5
33A
330
1F
100
AcDbEntity
  8
LAY-10
  6
CONTINUOUS
 62
     7
100
AcDbLine
 10
685.7437132871952
 20
1223.250000011318
 30
0.0
 11
685.7437132871952
 21
1246.000000011318
 31
0.0
  0
LINE
  5
33B
330
1F
100
AcDbEntity
  8
LAY-10
  6
CONTINUOUS
 62
     7
100
AcDbLine
 10
712.393713287188
 20
1246.000000011318
 30
0.0
 11
685.7437132871879
 21
1246.000000011318
 31
0.0
  0
LINE
  5
33C
330
1F
100
AcDbEntity
  8
LAY-10
  6
CONTINUOUS
 62
     7
100
AcDbLine
 10
712.393713287188
 20
1223.250000011318
 30
0.0
 11
685.7437132871879
 21
1223.250000011318
 31
0.0
  0
LINE
  5
33D
330
1F
100
AcDbEntity
  8
LAY-10
  6
CONTINUOUS
 62
     7
100
AcDbLine
 10
712.068713287195
 20
1245.675000011318
 30
0.0
 11
686.068713287195
 21
1245.675000011318
 31
0.0
  0
LINE
  5
33E
330
1F
100
AcDbEntity
  8
LAY-10
  6
CONTINUOUS
 62
     7
100
AcDbLine
 10
686.068713287195
 20
1245.675000011318
 30
0.0
 11
686.068713287195
 21
1223.575000011318
 31
0.0
  0
LINE
  5
33F
330
1F
100
AcDbEntity
  8
LAY-10
  6
CONTINUOUS
 62
     7
100
AcDbLine
 10
686.068713287195
 20
1223.575000011318
 30
0.0
 11
712.068713287195
 21
1223.575000011318
 31
0.0
  0
LINE
  5
340
330
1F
100
AcDbEntity
  8
LAY-10
  6
CONTINUOUS
 62
     7
100
AcDbLine
 10
712.068713287195
 20
1223.575000011318
 30
0.0
 11
712.068713287195
 21
1245.675000011318
 31
0.0
  0
ARC
  5
341
330
1F
100
AcDbEntity
  8
LAY-10
  6
CONTINUOUS
 62
     7
100
AcDbCircle
 10
699.0720808124041
 20
950.0143248973327
 30
0.0
 40
301.7832000000808
100
AcDbArc
 50
147.9161259965863
 51
152.0888943374604
  0
ARC
  5
342
330
1F
100
AcDbEntity
  8
LAY-10
  6
CONTINUOUS
 62
     7
100
AcDbCircle
 10
443.5950015220939
 20
1097.514085397374
 30
0.0
 40
10.99999999999954
100
AcDbArc
 50
240.0000000000006
 51
59.97556900267538
  0
LINE
  5
343
330
1F
100
AcDbEntity
  8
LAY-10
  6
CONTINUOUS
 62
     7
100
AcDbLine
 10
439.7395860824689
 20
1112.441715306752
 30
0.0
 11
449.0990630411974
 21
1107.038018765155
 31
0.0
  0
LINE
  5
344
330
1F
100
AcDbEntity
  8
LAY-10
  6
CONTINUOUS
 62
     7
100
AcDbLine
 10
428.7368933213507
 20
1093.39071224455
 30
0.0
 11
438.0950015220948
 21
1087.987805955746
 31
0.0
  0
ARC
  5
345
330
1F
100
AcDbEntity
  8
LAY-10
  6
CONTINUOUS
 62
     7
100
AcDbCircle
 10
699.065345761998
 20
950.0143248973327
 30
0.0
 40
301.7832000000808
100
AcDbArc
 50
27.91110566253981
 51
32.08387400341379
  0
ARC
  5
346
330
1F
100
AcDbEntity
  8
LAY-10
  6
CONTINUOUS
 62
     7
100
AcDbCircle
 10
954.5424250523082
 20
1097.514085397374
 30
0.0
 40
10.99999999999954
100
AcDbArc
 50
120.0244309973247
 51
299.9999999999993
  0
LINE
  5
347
330
1F
100
AcDbEntity
  8
LAY-10
  6
CONTINUOUS
 62
     7
100
AcDbLine
 10
958.3978404919329
 20
1112.441715306752
 30
0.0
 11
949.0383635332046
 21
1107.038018765155
 31
0.0
  0
LINE
  5
348
330
1F
100
AcDbEntity
  8
LAY-10
  6
CONTINUOUS
 62
     7
100
AcDbLine
 10
969.4005332530514
 20
1093.39071224455
 30
0.0
 11
960.0424250523073
 21
1087.987805955746
 31
0.0
  0
CIRCLE
  5
349
330
1F
100
AcDbEntity
  8
LAY-10
  6
CONTINUOUS
 62
     7
100
AcDbCircle
 10
532.8986197106225
 20
783.8299064213788
 30
0.0
 40
7.500000000000006
  0
CIRCLE
  5
34A
330
1F
100
AcDbEntity
  8
LAY-10
  6
CONTINUOUS
 62
     7
100
AcDbCircle
 10
532.8986197106225
 20
1116.170093573624
 30
0.0
 40
7.500000000000006
  0
CIRCLE
  5
34B
330
1F
100
AcDbEntity
  8
LAY-10
  6
CONTINUOUS
 62
     7
100
AcDbCircle
 10
865.2388068637794
 20
1116.170093573624
 30
0.0
 40
7.500000000000006
  0
CIRCLE
  5
34C
330
1F
100
AcDbEntity
  8
LAY-10
  6
CONTINUOUS
 62
     7
100
AcDbCircle
 10
638.2462376907025
 20
723.007430821979
 30
0.0
 40
7.500000000000006
  0
CIRCLE
  5
34D
330
1F
100
AcDbEntity
  8
LAY-10
  6
CONTINUOUS
 62
     7
100
AcDbCircle
 10
926.0612824627026
 20
1010.822475601279
 30
0.0
 40
7.500000000000006
  0
CIRCLE
  5
34E
330
1F
100
AcDbEntity
  8
LAY-10
  6
CONTINUOUS
 62
     7
100
AcDbCircle
 10
759.8911888837025
 20
1176.992569180279
 30
0.0
 40
7.500000000000006
  0
CIRCLE
  5
34F
330
1F
100
AcDbEntity
  8
LAY-10
  6
CONTINUOUS
 62
     7
100
AcDbCircle
 10
638.2462376907025
 20
1176.992569180279
 30
0.0
 40
7.500000000000006
  0
CIRCLE
  5
350
330
1F
100
AcDbEntity
  8
LAY-10
  6
CONTINUOUS
 62
     7
100
AcDbCircle
 10
472.0761441117025
 20
1010.822475601279
 30
0.0
 40
7.500000000000006
  0
CIRCLE
  5
351
330
1F
100
AcDbEntity
  8
LAY-10
  6
CONTINUOUS
 62
     7
100
AcDbCircle
 10
472.0761441117025
 20
889.1775244009787
 30
0.0
 40
7.500000000000006
  0
CIRCLE
  5
352
330
1F
100
AcDbEntity
  8
LAY-10
  6
CONTINUOUS
 62
     7
100
AcDbCircle
 10
574.3449764007026
 20
898.3377366299783
 30
0.0
 40
7.500000000000006
  0
CIRCLE
  5
353
330
1F
100
AcDbEntity
  8
LAY-10
  6
CONTINUOUS
 62
     7
100
AcDbCircle
 10
574.3449764007026
 20
1001.662263372279
 30
0.0
 40
7.500000000000006
  0
CIRCLE
  5
354
330
1F
100
AcDbEntity
  8
LAY-10
  6
CONTINUOUS
 62
     7
100
AcDbCircle
 10
647.2763419337124
 20
1074.669764854879
 30
0.0
 40
7.500000000000006
  0
CIRCLE
  5
355
330
1F
100
AcDbEntity
  8
LAY-10
  6
CONTINUOUS
 62
     7
100
AcDbCircle
 10
750.7309766537027
 20
1074.723736891278
 30
0.0
 40
7.500000000000006
  0
CIRCLE
  5
356
330
1F
100
AcDbEntity
  8
LAY-10
  6
CONTINUOUS
 62
     7
100
AcDbCircle
 10
823.7924501737024
 20
1001.662263372279
 30
0.0
 40
7.500000000000006
  0
CIRCLE
  5
357
330
1F
100
AcDbEntity
  8
LAY-10
  6
CONTINUOUS
 62
     7
100
AcDbCircle
 10
647.4064499207024
 20
825.2762631109786
 30
0.0
 40
7.500000000000006
  0
ARC
  5
358
330
1F
100
AcDbEntity
  8
LAY-10
  6
CONTINUOUS
 62
     7
100
AcDbCircle
 10
713.0687132872009
 20
1223.00000001126
 30
0.0
 40
10.0
100
AcDbArc
 50
270.0000000000002
 51
0.0
  0
LINE
  5
359
330
1F
100
AcDbEntity
  8
LAY-10
  6
CONTINUOUS
 62
     7
100
AcDbLine
 10
713.068713287201
 20
1213.00000001126
 30
0.0
 11
706.5687132847015
 21
1213.00000001126
 31
0.0
  0
ARC
  5
35A
330
1F
100
AcDbEntity
  8
LAY-10
  6
CONTINUOUS
 62
     7
100
AcDbCircle
 10
699.0687132847015
 20
950.0000000023065
 30
0.0
 40
277.5
100
AcDbArc
 50
76.23892420923873
 51
85.03849090422413
  0
LINE
  5
35B
330
1F
100
AcDbEntity
  8
LAY-10
  6
CONTINUOUS
 62
     7
100
AcDbLine
 10
723.0687132872009
 20
1223.00000001126
 30
0.0
 11
723.068713287201
 21
1226.460214137867
 31
0.0
  0
LINE
  5
35C
330
1F
100
AcDbEntity
  8
LAY-10
  6
CONTINUOUS
 62
     7
100
AcDbLine
 10
706.5687132847015
 20
1190.883270490771
 30
0.0
 11
706.5687132847015
 21
1213.00000001126
 31
0.0
  0
LINE
  5
35D
330
1F
100
AcDbEntity
  8
LAY-10
  6
CONTINUOUS
 62
     7
100
AcDbLine
 10
685.068713287201
 20
1213.00000001126
 30
0.0
 11
691.5687132897003
 21
1213.00000001126
 31
0.0
  0
ARC
  5
35E
330
1F
100
AcDbEntity
  8
LAY-10
  6
CONTINUOUS
 62
     7
100
AcDbCircle
 10
685.068713287201
 20
1223.00000001126
 30
0.0
 40
10.0
100
AcDbArc
 50
180.0
 51
270.0000000000002
  0
LINE
  5
35F
330
1F
100
AcDbEntity
  8
LAY-10
  6
CONTINUOUS
 62
     7
100
AcDbLine
 10
675.068713287201
 20
1223.00000001126
 30
0.0
 11
675.068713287201
 21
1226.460214137867
 31
0.0
  0
ARC
  5
360
330
1F
100
AcDbEntity
  8
LAY-10
  6
CONTINUOUS
 62
     7
100
AcDbCircle
 10
699.0687132897002
 20
950.0000000023065
 30
0.0
 40
277.5
100
AcDbArc
 50
106.2390871648574
 51
118.4512768327599
  0
ARC
  5
361
330
1F
100
AcDbEntity
  8
LAY-10
  6
CONTINUOUS
 62
     7
100
AcDbCircle
 10
699.0687132897002
 20
950.0000000023065
 30
0.0
 40
277.5
100
AcDbArc
 50
94.96150909577604
 51
103.7609128359302
  0
ARC
  5
362
330
1F
100
AcDbEntity
  8
LAY-10
  6
CONTINUOUS
 62
     7
100
AcDbCircle
 10
699.0687132847015
 20
950.0000000023065
 30
0.0
 40
192.5
100
AcDbArc
 50
32.23286824279003
 51
57.76713175720456
  0
ARC
  5
363
330
1F
100
AcDbEntity
  8
LAY-10
  6
CONTINUOUS
 62
     7
100
AcDbCircle
 10
865.238806863703
 20
1116.170093581306
 30
0.0
 40
20.0
100
AcDbArc
 50
154.7991160327009
 51
295.2008839673037
  0
LINE
  5
364
330
1F
100
AcDbEntity
  8
LAY-10
  6
CONTINUOUS
 62
     7
100
AcDbLine
 10
687.568713287201
 20
689.0064244815376
 30
0.0
 11
710.5687132872027
 21
689.0064244815376
 31
0.0
  0
LINE
  5
365
330
1F
100
AcDbEntity
  8
LAY-10
  6
CONTINUOUS
 62
     7
100
AcDbLine
 10
687.5687132872008
 20
644.2161711380962
 30
0.0
 11
687.568713287201
 21
689.0064244815376
 31
0.0
  0
LINE
  5
366
330
1F
100
AcDbEntity
  8
LAY-10
  6
CONTINUOUS
 62
     7
100
AcDbLine
 10
458.1854427939393
 20
957.5000000023065
 30
0.0
 11
421.6700831560962
 21
957.5000000023065
 31
0.0
  0
ARC
  5
367
330
1F
100
AcDbEntity
  8
LAY-10
  6
CONTINUOUS
 62
     7
100
AcDbCircle
 10
699.0687132897002
 20
950.0000000023065
 30
0.0
 40
192.5
100
AcDbArc
 50
152.2328682427903
 51
177.7671317572087
  0
LINE
  5
368
330
1F
100
AcDbEntity
  8
LAY-10
  6
CONTINUOUS
 62
     7
100
AcDbLine
 10
506.7148726729868
 20
957.5000000023065
 30
0.0
 11
470.191562825751
 21
957.5000000023065
 31
0.0
  0
ARC
  5
369
330
1F
100
AcDbEntity
  8
LAY-10
  6
CONTINUOUS
 62
     7
100
AcDbCircle
 10
472.0761441117003
 20
1010.822475601307
 30
0.0
 40
20.0
100
AcDbArc
 50
274.7991160100011
 51
55.20088398873958
  0
ARC
  5
36A
330
1F
100
AcDbEntity
  8
LAY-10
  6
CONTINUOUS
 62
     7
100
AcDbCircle
 10
699.0687132835407
 20
950.0000000011715
 30
0.0
 40
229.0000000037001
100
AcDbArc
 50
169.713506659283
 51
178.1231650425213
  0
ARC
  5
36B
330
1F
100
AcDbEntity
  8
LAY-10
  6
CONTINUOUS
 62
     7
100
AcDbCircle
 10
699.0687132835407
 20
950.0000000011715
 30
0.0
 40
241.0000000037001
100
AcDbArc
 50
169.5945950768998
 51
178.2166483876773
  0
ARC
  5
36C
330
1F
100
AcDbEntity
  8
LAY-10
  6
CONTINUOUS
 62
     7
100
AcDbCircle
 10
472.0761441117003
 20
1010.822475601307
 30
0.0
 40
20.0
100
AcDbArc
 50
182.4576031407329
 51
239.8541756676691
  0
LINE
  5
36D
330
1F
100
AcDbEntity
  8
LAY-10
  6
CONTINUOUS
 62
     7
100
AcDbLine
 10
452.0945396141757
 20
1009.964873301578
 30
0.0
 11
429.5340441950544
 21
1016.009939829879
 31
0.0
  0
ARC
  5
36E
330
1F
100
AcDbEntity
  8
LAY-10
  6
CONTINUOUS
 62
     7
100
AcDbCircle
 10
699.0687132897002
 20
950.0000000023065
 30
0.0
 40
277.5
100
AcDbArc
 50
166.2389242108609
 51
178.4512768327587
  0
LINE
  5
36F
330
1F
100
AcDbEntity
  8
LAY-10
  6
CONTINUOUS
 62
     7
100
AcDbLine
 10
594.2045014216312
 20
855.742389848866
 30
0.0
 11
568.3660503908599
 21
829.9039388191377
 31
0.0
  0
ARC
  5
370
330
1F
100
AcDbEntity
  8
LAY-10
  6
CONTINUOUS
 62
     7
100
AcDbCircle
 10
699.0687132835407
 20
950.0000000011715
 30
0.0
 40
141.0000000037001
100
AcDbArc
 50
210.4294584559968
 51
221.9509131872611
  0
ARC
  5
371
330
1F
100
AcDbEntity
  8
LAY-10
  6
CONTINUOUS
 62
     7
100
AcDbCircle
 10
574.3449764007001
 20
898.3377366299774
 30
0.0
 40
20.0
100
AcDbArc
 50
219.9576031215951
 51
279.0502432589865
  0
LINE
  5
372
330
1F
100
AcDbEntity
  8
LAY-10
  6
CONTINUOUS
 62
     7
100
AcDbLine
 10
559.0145789254283
 20
885.4933248781617
 30
0.0
 11
537.4699128338705
 21
876.5692319852219
 31
0.0
  0
ARC
  5
373
330
1F
100
AcDbEntity
  8
LAY-10
  6
CONTINUOUS
 62
     7
100
AcDbCircle
 10
699.0687132897002
 20
949.9999999999782
 30
0.0
 40
177.5
100
AcDbArc
 50
204.437127767418
 51
222.578330613014
  0
ARC
  5
374
330
1F
100
AcDbEntity
  8
LAY-10
  6
CONTINUOUS
 62
     7
100
AcDbCircle
 10
699.0687132835407
 20
950.0000000011715
 30
0.0
 40
129.0000000037001
100
AcDbArc
 50
183.3330294943775
 51
194.2093126606905
  0
ARC
  5
375
330
1F
100
AcDbEntity
  8
LAY-10
  6
CONTINUOUS
 62
     7
100
AcDbCircle
 10
574.3449764007001
 20
898.3377366299774
 30
0.0
 40
20.0
100
AcDbArc
 50
314.05581394853
 51
90.94418605497424
  0
ARC
  5
376
330
1F
100
AcDbEntity
  8
LAY-10
  6
CONTINUOUS
 62
     7
100
AcDbCircle
 10
699.0687132835407
 20
950.0000000011715
 30
0.0
 40
129.0000000037001
100
AcDbArc
 50
210.7906873428135
 51
221.6669705084029
  0
LINE
  5
377
330
1F
100
AcDbEntity
  8
LAY-10
  6
CONTINUOUS
 62
     7
100
AcDbLine
 10
628.5733883786818
 20
890.1112768069597
 30
0.0
 11
602.7029338735715
 21
864.2408223018498
 31
0.0
  0
ARC
  5
378
330
1F
100
AcDbEntity
  8
LAY-10
  6
CONTINUOUS
 62
     7
100
AcDbCircle
 10
699.0687132897002
 20
949.9999999999782
 30
0.0
 40
92.50000000000007
100
AcDbArc
 50
184.6507090048798
 51
220.3492909950315
  0
LINE
  5
379
330
1F
100
AcDbEntity
  8
LAY-10
  6
CONTINUOUS
 62
     7
100
AcDbLine
 10
606.8732687167712
 20
942.4999999999782
 30
0.0
 11
570.2869210886162
 21
942.4999999999782
 31
0.0
  0
ARC
  5
37A
330
1F
100
AcDbEntity
  8
LAY-10
  6
CONTINUOUS
 62
     7
100
AcDbCircle
 10
699.0687132835407
 20
950.0000000011715
 30
0.0
 40
141.0000000037001
100
AcDbArc
 50
183.0490868155823
 51
194.5705415475072
  0
ARC
  5
37B
330
1F
100
AcDbEntity
  8
LAY-10
  6
CONTINUOUS
 62
     7
100
AcDbCircle
 10
574.3449764007001
 20
898.3377366299774
 30
0.0
 40
20.0
100
AcDbArc
 50
125.9497567445175
 51
185.0423968764957
  0
LINE
  5
37C
330
1F
100
AcDbEntity
  8
LAY-10
  6
CONTINUOUS
 62
     7
100
AcDbLine
 10
554.4223777375306
 20
896.5798792676524
 30
0.0
 11
532.8777116453892
 21
887.655786375451
 31
0.0
  0
ARC
  5
37D
330
1F
100
AcDbEntity
  8
LAY-10
  6
CONTINUOUS
 62
     7
100
AcDbCircle
 10
699.0687132897002
 20
949.9999999999782
 30
0.0
 40
177.5
100
AcDbArc
 50
182.4216693869401
 51
200.5628722331227
  0
LINE
  5
37E
330
1F
100
AcDbEntity
  8
LAY-10
  6
CONTINUOUS
 62
     7
100
AcDbLine
 10
558.2683226554408
 20
942.4999999999782
 30
0.0
 11
521.7272347800182
 21
942.4999999999782
 31
0.0
  0
ARC
  5
37F
330
1F
100
AcDbEntity
  8
LAY-10
  6
CONTINUOUS
 62
     7
100
AcDbCircle
 10
699.0687132897002
 20
949.9999999999782
 30
0.0
 40
192.5
100
AcDbArc
 50
182.2328682427915
 51
207.7671317571525
  0
LINE
  5
380
330
1F
100
AcDbEntity
  8
LAY-10
  6
CONTINUOUS
 62
     7
100
AcDbLine
 10
528.7354008000358
 20
860.3182702201713
 30
0.0
 11
497.1052866434056
 21
842.0566152966444
 31
0.0
  0
ARC
  5
381
330
1F
100
AcDbEntity
  8
LAY-10
  6
CONTINUOUS
 62
     7
100
AcDbCircle
 10
699.0687132835407
 20
950.0000000011715
 30
0.0
 40
229.0000000037001
100
AcDbArc
 50
199.7135066605553
 51
208.1231650439391
  0
ARC
  5
382
330
1F
100
AcDbEntity
  8
LAY-10
  6
CONTINUOUS
 62
     7
100
AcDbCircle
 10
472.0761441116994
 20
889.1775244009779
 30
0.0
 40
20.0
100
AcDbArc
 50
304.7991160113218
 51
85.2008839899656
  0
LINE
  5
383
330
1F
100
AcDbEntity
  8
LAY-10
  6
CONTINUOUS
 62
     7
100
AcDbLine
 10
506.7148726729868
 20
942.4999999999782
 30
0.0
 11
470.191562825753
 21
942.4999999999782
 31
0.0
  0
ARC
  5
384
330
1F
100
AcDbEntity
  8
LAY-10
  6
CONTINUOUS
 62
     7
100
AcDbCircle
 10
699.0687132835407
 20
950.0000000011715
 30
0.0
 40
229.0000000037001
100
AcDbArc
 50
181.8768349574935
 51
190.2864933407321
  0
ARC
  5
385
330
1F
100
AcDbEntity
  8
LAY-10
  6
CONTINUOUS
 62
     7
100
AcDbCircle
 10
699.0687132835407
 20
950.0000000011715
 30
0.0
 40
241.0000000037001
100
AcDbArc
 50
181.7833516123368
 51
190.4054049231131
  0
ARC
  5
386
330
1F
100
AcDbEntity
  8
LAY-10
  6
CONTINUOUS
 62
     7
100
AcDbCircle
 10
472.0761441116994
 20
889.1775244009779
 30
0.0
 40
20.0
100
AcDbArc
 50
120.1458243322962
 51
177.5423968804096
  0
LINE
  5
387
330
1F
100
AcDbEntity
  8
LAY-10
  6
CONTINUOUS
 62
     7
100
AcDbLine
 10
452.0945396138584
 20
890.0351266933394
 30
0.0
 11
429.5340441967279
 21
883.9900601655718
 31
0.0
  0
LINE
  5
388
330
1F
100
AcDbEntity
  8
LAY-10
  6
CONTINUOUS
 62
     7
100
AcDbLine
 10
458.1854427939411
 20
942.4999999999782
 30
0.0
 11
421.6700831560962
 21
942.4999999999782
 31
0.0
  0
ARC
  5
389
330
1F
100
AcDbEntity
  8
LAY-10
  6
CONTINUOUS
 62
     7
100
AcDbCircle
 10
699.0687132897002
 20
949.9999999999782
 30
0.0
 40
277.5
100
AcDbArc
 50
181.5487231672414
 51
193.7610757905917
  0
LINE
  5
38A
330
1F
100
AcDbEntity
  8
LAY-10
  6
CONTINUOUS
 62
     7
100
AcDbLine
 10
455.2003681556668
 20
878.4440167784996
 30
0.0
 11
432.6398727379504
 21
872.3989502503114
 31
0.0
  0
ARC
  5
38B
330
1F
100
AcDbEntity
  8
LAY-10
  6
CONTINUOUS
 62
     7
100
AcDbCircle
 10
472.0761441116994
 20
889.1775244009779
 30
0.0
 40
20.0
100
AcDbArc
 50
212.4576031264775
 51
269.8541756689911
  0
ARC
  5
38C
330
1F
100
AcDbEntity
  8
LAY-10
  6
CONTINUOUS
 62
     7
100
AcDbCircle
 10
699.0687132835407
 20
950.0000000011715
 30
0.0
 40
241.0000000037001
100
AcDbArc
 50
199.5945950781744
 51
208.2166483888959
  0
LINE
  5
38D
330
1F
100
AcDbEntity
  8
LAY-10
  6
CONTINUOUS
 62
     7
100
AcDbLine
 10
486.7076816947236
 20
836.0535552812198
 30
0.0
 11
455.0844526191651
 21
817.7958754612469
 31
0.0
  0
ARC
  5
38E
330
1F
100
AcDbEntity
  8
LAY-10
  6
CONTINUOUS
 62
     7
100
AcDbCircle
 10
699.0687132897002
 20
949.9999999999782
 30
0.0
 40
277.5
100
AcDbArc
 50
196.2389242098509
 51
208.4512768328319
  0
ARC
  5
38F
330
1F
100
AcDbEntity
  8
LAY-10
  6
CONTINUOUS
 62
     7
100
AcDbCircle
 10
699.0687132897002
 20
949.9999999999782
 30
0.0
 40
277.5
100
AcDbArc
 50
211.5487231673566
 51
223.7610757904664
  0
LINE
  5
390
330
1F
100
AcDbEntity
  8
LAY-10
  6
CONTINUOUS
 62
     7
100
AcDbLine
 10
494.2076816950452
 20
823.063174224406
 30
0.0
 11
462.5844526192872
 21
804.8054944043179
 31
0.0
  0
LINE
  5
391
330
1F
100
AcDbEntity
  8
LAY-10
  6
CONTINUOUS
 62
     7
100
AcDbLine
 10
515.1652414602869
 20
774.5818095449823
 30
0.0
 11
498.6498125713363
 21
758.0663806550527
 31
0.0
  0
ARC
  5
392
330
1F
100
AcDbEntity
  8
LAY-10
  6
CONTINUOUS
 62
     7
100
AcDbCircle
 10
532.8986197106989
 20
783.8299064209787
 30
0.0
 40
20.0
100
AcDbArc
 50
150.1458243258989
 51
207.5423968759018
  0
ARC
  5
393
330
1F
100
AcDbEntity
  8
LAY-10
  6
CONTINUOUS
 62
     7
100
AcDbCircle
 10
699.0687132835407
 20
950.0000000011715
 30
0.0
 40
241.0000000037001
100
AcDbArc
 50
211.7833516130497
 51
220.405404923584
  0
ARC
  5
394
330
1F
100
AcDbEntity
  8
LAY-10
  6
CONTINUOUS
 62
     7
100
AcDbCircle
 10
699.0687132835407
 20
950.0000000011715
 30
0.0
 40
229.0000000037001
100
AcDbArc
 50
211.8768349583789
 51
220.2864933415587
  0
LINE
  5
395
330
1F
100
AcDbEntity
  8
LAY-10
  6
CONTINUOUS
 62
     7
100
AcDbLine
 10
536.2354008001307
 20
847.3278891632262
 30
0.0
 11
504.605286643769
 21
829.0662342398555
 31
0.0
  0
ARC
  5
396
330
1F
100
AcDbEntity
  8
LAY-10
  6
CONTINUOUS
 62
     7
100
AcDbCircle
 10
532.8986197106989
 20
783.8299064209787
 30
0.0
 40
20.0
100
AcDbArc
 50
334.7991160187891
 51
115.20088398376
  0
ARC
  5
397
330
1F
100
AcDbEntity
  8
LAY-10
  6
CONTINUOUS
 62
     7
100
AcDbCircle
 10
699.0687132835407
 20
950.0000000011715
 30
0.0
 40
229.0000000037001
100
AcDbArc
 50
229.7135066609762
 51
238.1231650443614
  0
LINE
  5
398
330
1F
100
AcDbEntity
  8
LAY-10
  6
CONTINUOUS
 62
     7
100
AcDbLine
 10
596.3966024529486
 20
787.1666875104083
 30
0.0
 11
578.1349475315257
 21
755.5365733556155
 31
0.0
  0
ARC
  5
399
330
1F
100
AcDbEntity
  8
LAY-10
  6
CONTINUOUS
 62
     7
100
AcDbCircle
 10
699.0687132897002
 20
949.9999999999782
 30
0.0
 40
192.5
100
AcDbArc
 50
212.2328682427957
 51
237.7671317572046
  0
LINE
  5
39A
330
1F
100
AcDbEntity
  8
LAY-10
  6
CONTINUOUS
 62
     7
100
AcDbLine
 10
572.1318875152858
 20
745.138968407402
 30
0.0
 11
553.8742076947774
 21
713.5157393291119
 31
0.0
  0
ARC
  5
39B
330
1F
100
AcDbEntity
  8
LAY-10
  6
CONTINUOUS
 62
     7
100
AcDbCircle
 10
699.0687132835407
 20
950.0000000011715
 30
0.0
 40
241.0000000037001
100
AcDbArc
 50
229.5945950789508
 51
238.2166483893307
  0
ARC
  5
39C
330
1F
100
AcDbEntity
  8
LAY-10
  6
CONTINUOUS
 62
     7
100
AcDbCircle
 10
532.8986197106989
 20
783.8299064209787
 30
0.0
 40
20.0
100
AcDbArc
 50
242.457603124203
 51
299.8541756766358
  0
LINE
  5
39D
330
1F
100
AcDbEntity
  8
LAY-10
  6
CONTINUOUS
 62
     7
100
AcDbLine
 10
523.6505228347348
 20
766.0965281705493
 30
0.0
 11
507.1350939457986
 21
749.5810992806336
 31
0.0
  0
ARC
  5
39E
330
1F
100
AcDbEntity
  8
LAY-10
  6
CONTINUOUS
 62
     7
100
AcDbCircle
 10
699.0687132897002
 20
949.9999999999782
 30
0.0
 40
277.5
100
AcDbArc
 50
226.2389242098264
 51
238.4512768328222
  0
ARC
  5
39F
330
1F
100
AcDbEntity
  8
LAY-10
  6
CONTINUOUS
 62
     7
100
AcDbCircle
 10
638.2462376906989
 20
723.0074308219782
 30
0.0
 40
20.0
100
AcDbArc
 50
180.1458243174323
 51
237.5423968764521
  0
ARC
  5
3A0
330
1F
100
AcDbEntity
  8
LAY-10
  6
CONTINUOUS
 62
     7
100
AcDbCircle
 10
699.0687132835407
 20
950.0000000011715
 30
0.0
 40
241.0000000037001
100
AcDbArc
 50
241.7833516134846
 51
250.405404923678
  0
LINE
  5
3A1
330
1F
100
AcDbEntity
  8
LAY-10
  6
CONTINUOUS
 62
     7
100
AcDbLine
 10
585.1222685724113
 20
737.6389684076203
 30
0.0
 11
566.8645887517296
 21
706.0157393290306
 31
0.0
  0
ARC
  5
3A2
330
1F
100
AcDbEntity
  8
LAY-10
  6
CONTINUOUS
 62
     7
100
AcDbCircle
 10
699.0687132835407
 20
950.0000000011715
 30
0.0
 40
229.0000000037001
100
AcDbArc
 50
241.8768349585757
 51
250.2864933420964
  0
ARC
  5
3A3
330
1F
100
AcDbEntity
  8
LAY-10
  6
CONTINUOUS
 62
     7
100
AcDbCircle
 10
638.2462376906989
 20
723.0074308219782
 30
0.0
 40
20.0
100
AcDbArc
 50
4.799116027601888
 51
145.2008839755022
  0
ARC
  5
3A4
330
1F
100
AcDbEntity
  8
LAY-10
  6
CONTINUOUS
 62
     7
100
AcDbCircle
 10
699.0687132835407
 20
950.0000000011715
 30
0.0
 40
229.0000000037001
100
AcDbArc
 50
259.7135066610071
 51
268.1231650443473
  0
LINE
  5
3A5
330
1F
100
AcDbEntity
  8
LAY-10
  6
CONTINUOUS
 62
     7
100
AcDbLine
 10
691.5687132896998
 20
757.6461593832645
 30
0.0
 11
691.5687132897001
 21
721.1228495431423
 31
0.0
  0
ARC
  5
3A6
330
1F
100
AcDbEntity
  8
LAY-10
  6
CONTINUOUS
 62
     7
100
AcDbCircle
 10
699.0687132897002
 20
949.9999999999782
 30
0.0
 40
192.5
100
AcDbArc
 50
242.2328682428474
 51
267.7671317572085
  0
LINE
  5
3A7
330
1F
100
AcDbEntity
  8
LAY-10
  6
CONTINUOUS
 62
     7
100
AcDbLine
 10
609.386983509893
 20
779.6666875103137
 30
0.0
 11
591.1253285878785
 21
748.0365733562985
 31
0.0
  0
ARC
  5
3A8
330
1F
100
AcDbEntity
  8
LAY-10
  6
CONTINUOUS
 62
     7
100
AcDbCircle
 10
699.0687132897002
 20
949.9999999999782
 30
0.0
 40
277.5
100
AcDbArc
 50
256.2389242096278
 51
265.556414319385
  0
LINE
  5
3A9
330
1F
100
AcDbEntity
  8
LAY-10
  6
CONTINUOUS
 62
     7
100
AcDbLine
 10
677.5687132897
 20
673.3341365473289
 30
0.0
 11
677.5687132897002
 21
689.0064244815421
 31
0.0
  0
LINE
  5
3AA
330
1F
100
AcDbEntity
  8
LAY-10
  6
CONTINUOUS
 62
     7
100
AcDbLine
 10
691.5687132897001
 20
699.0064244815384
 30
0.0
 11
687.5687132897003
 21
699.0064244815384
 31
0.0
  0
LINE
  5
3AB
330
1F
100
AcDbEntity
  8
LAY-10
  6
CONTINUOUS
 62
     7
100
AcDbLine
 10
691.5687132897001
 20
709.1167295113428
 30
0.0
 11
691.5687132897001
 21
699.0064244815384
 31
0.0
  0
ARC
  5
3AC
330
1F
100
AcDbEntity
  8
LAY-10
  6
CONTINUOUS
 62
     7
100
AcDbCircle
 10
699.0687132835407
 20
950.0000000011715
 30
0.0
 40
241.0000000037001
100
AcDbArc
 50
259.5945950794256
 51
268.2166483894123
  0
ARC
  5
3AD
330
1F
100
AcDbEntity
  8
LAY-10
  6
CONTINUOUS
 62
     7
100
AcDbCircle
 10
638.2462376906989
 20
723.0074308219782
 30
0.0
 40
20.0
100
AcDbArc
 50
272.4576031225192
 51
329.8541756856713
  0
LINE
  5
3AE
330
1F
100
AcDbEntity
  8
LAY-10
  6
CONTINUOUS
 62
     7
100
AcDbLine
 10
639.1038399840818
 20
703.0258263241808
 30
0.0
 11
633.0587734563269
 21
680.4653309067525
 31
0.0
  0
LINE
  5
3AF
330
1F
100
AcDbEntity
  8
LAY-10
  6
CONTINUOUS
 62
     7
100
AcDbLine
 10
627.5127300690839
 20
706.1316548653966
 30
0.0
 11
621.4676635410539
 21
683.5711594479308
 31
0.0
  0
ARC
  5
3B0
330
1F
100
AcDbEntity
  8
LAY-10
  6
CONTINUOUS
 62
     7
100
AcDbCircle
 10
699.0687132897002
 20
949.9999999999782
 30
0.0
 40
277.5
100
AcDbArc
 50
241.5487231673469
 51
253.7610757903685
  0
LINE
  5
3B1
330
1F
100
AcDbEntity
  8
LAY-10
  6
CONTINUOUS
 62
     7
100
AcDbLine
 10
515.1652414577916
 20
1125.418190452516
 30
0.0
 11
498.6498125677741
 21
1141.933619343512
 31
0.0
  0
ARC
  5
3B2
330
1F
100
AcDbEntity
  8
LAY-10
  6
CONTINUOUS
 62
     7
100
AcDbCircle
 10
532.8986197106998
 20
1116.170093581306
 30
0.0
 40
20.0
100
AcDbArc
 50
152.4576031395638
 51
209.8541756739836
  0
LINE
  5
3B3
330
1F
100
AcDbEntity
  8
LAY-10
  6
CONTINUOUS
 62
     7
100
AcDbLine
 10
523.6505228299494
 20
1133.903471829239
 30
0.0
 11
507.1350939420792
 21
1150.418900718088
 31
0.0
  0
ARC
  5
3B4
330
1F
100
AcDbEntity
  8
LAY-10
  6
CONTINUOUS
 62
     7
100
AcDbCircle
 10
699.0687132897002
 20
950.0000000023065
 30
0.0
 40
277.5
100
AcDbArc
 50
121.5487231672401
 51
133.7610757912373
  0
ARC
  5
3B5
330
1F
100
AcDbEntity
  8
LAY-10
  6
CONTINUOUS
 62
     7
100
AcDbCircle
 10
699.0687132897002
 20
950.0000000023065
 30
0.0
 40
192.5
100
AcDbArc
 50
122.2328682427897
 51
147.7671317572045
  0
ARC
  5
3B6
330
1F
100
AcDbEntity
  8
LAY-10
  6
CONTINUOUS
 62
     7
100
AcDbCircle
 10
532.8986197106998
 20
1116.170093581306
 30
0.0
 40
20.0
100
AcDbArc
 50
244.7991160161406
 51
25.20088398134543
  0
LINE
  5
3B7
330
1F
100
AcDbEntity
  8
LAY-10
  6
CONTINUOUS
 62
     7
100
AcDbLine
 10
691.5687132897002
 20
1190.883270491
 30
0.0
 11
691.5687132897002
 21
1213.00000001126
 31
0.0
  0
LINE
  5
3B8
330
1F
100
AcDbEntity
  8
LAY-10
  6
CONTINUOUS
 62
     7
100
AcDbLine
 10
691.5687132897002
 20
857.8045554270494
 30
0.0
 11
691.5687132897002
 21
821.2182078058186
 31
0.0
  0
ARC
  5
3B9
330
1F
100
AcDbEntity
  8
LAY-10
  6
CONTINUOUS
 62
     7
100
AcDbCircle
 10
699.0687132897002
 20
949.9999999999782
 30
0.0
 40
92.50000000000007
100
AcDbArc
 50
229.65070900488
 51
265.3492909951202
  0
ARC
  5
3BA
330
1F
100
AcDbEntity
  8
LAY-10
  6
CONTINUOUS
 62
     7
100
AcDbCircle
 10
699.0687132835407
 20
950.0000000011715
 30
0.0
 40
141.0000000037001
100
AcDbArc
 50
3.049086815558736
 51
14.57054154561132
  0
ARC
  5
3BB
330
1F
100
AcDbEntity
  8
LAY-10
  6
CONTINUOUS
 62
     7
100
AcDbCircle
 10
699.0687132847015
 20
950.0000000023065
 30
0.0
 40
177.5
100
AcDbArc
 50
2.421669386940082
 51
20.56287223049689
  0
LINE
  5
3BC
330
1F
100
AcDbEntity
  8
LAY-10
  6
CONTINUOUS
 62
     7
100
AcDbLine
 10
839.8691039116437
 20
957.5000000023065
 30
0.0
 11
876.4101917943836
 21
957.5000000023065
 31
0.0
  0
ARC
  5
3BD
330
1F
100
AcDbEntity
  8
LAY-10
  6
CONTINUOUS
 62
     7
100
AcDbCircle
 10
699.0687132847015
 20
950.0000000023065
 30
0.0
 40
277.5
100
AcDbArc
 50
1.548723167241502
 51
13.76107578913926
  0
LINE
  5
3BE
330
1F
100
AcDbEntity
  8
LAY-10
  6
CONTINUOUS
 62
     7
100
AcDbLine
 10
946.0428869602272
 20
1009.964873301578
 30
0.0
 11
968.6033823793474
 21
1016.009939829879
 31
0.0
  0
ARC
  5
3BF
330
1F
100
AcDbEntity
  8
LAY-10
  6
CONTINUOUS
 62
     7
100
AcDbCircle
 10
926.0612824627026
 20
1010.822475601307
 30
0.0
 40
20.0
100
AcDbArc
 50
300.1458243104134
 51
357.5423968592855
  0
ARC
  5
3C0
330
1F
100
AcDbEntity
  8
LAY-10
  6
CONTINUOUS
 62
     7
100
AcDbCircle
 10
699.0687132835407
 20
950.0000000011715
 30
0.0
 40
241.0000000037001
100
AcDbArc
 50
1.783351612323067
 51
10.40540492217179
  0
LINE
  5
3C1
330
1F
100
AcDbEntity
  8
LAY-10
  6
CONTINUOUS
 62
     7
100
AcDbLine
 10
939.9519837731419
 20
957.5000000023065
 30
0.0
 11
976.4673434183055
 21
957.5000000023065
 31
0.0
  0
ARC
  5
3C2
330
1F
100
AcDbEntity
  8
LAY-10
  6
CONTINUOUS
 62
     7
100
AcDbCircle
 10
699.0687132835407
 20
950.0000000011715
 30
0.0
 40
229.0000000037001
100
AcDbArc
 50
19.71350665946043
 51
28.12316504300994
  0
LINE
  5
3C3
330
1F
100
AcDbEntity
  8
LAY-10
  6
CONTINUOUS
 62
     7
100
AcDbLine
 10
869.402025774366
 20
1039.681729782114
 30
0.0
 11
901.0321399254263
 21
1057.943384702422
 31
0.0
  0
ARC
  5
3C4
330
1F
100
AcDbEntity
  8
LAY-10
  6
CONTINUOUS
 62
     7
100
AcDbCircle
 10
699.0687132847015
 20
950.0000000023065
 30
0.0
 40
192.5
100
AcDbArc
 50
2.232868242791511
 51
27.76713175715258
  0
LINE
  5
3C5
330
1F
100
AcDbEntity
  8
LAY-10
  6
CONTINUOUS
 62
     7
100
AcDbLine
 10
891.4225539014151
 20
957.5000000023065
 30
0.0
 11
927.9458637413302
 21
957.5000000023065
 31
0.0
  0
ARC
  5
3C6
330
1F
100
AcDbEntity
  8
LAY-10
  6
CONTINUOUS
 62
     7
100
AcDbCircle
 10
699.0687132835407
 20
950.0000000011715
 30
0.0
 40
229.0000000037001
100
AcDbArc
 50
1.876834957478924
 51
10.28649334087574
  0
ARC
  5
3C7
330
1F
100
AcDbEntity
  8
LAY-10
  6
CONTINUOUS
 62
     7
100
AcDbCircle
 10
926.0612824627026
 20
1010.822475601307
 30
0.0
 40
20.0
100
AcDbArc
 50
124.7991160317103
 51
265.2008839686252
  0
LINE
  5
3C8
330
1F
100
AcDbEntity
  8
LAY-10
  6
CONTINUOUS
 62
     7
100
AcDbLine
 10
882.9721851166111
 20
1125.418190452516
 30
0.0
 11
899.4876140066278
 21
1141.933619343512
 31
0.0
  0
ARC
  5
3C9
330
1F
100
AcDbEntity
  8
LAY-10
  6
CONTINUOUS
 62
     7
100
AcDbCircle
 10
699.0687132847015
 20
950.0000000023065
 30
0.0
 40
277.5
100
AcDbArc
 50
31.54872316724043
 51
43.76107578940283
  0
ARC
  5
3CA
330
1F
100
AcDbEntity
  8
LAY-10
  6
CONTINUOUS
 62
     7
100
AcDbCircle
 10
699.0687132847015
 20
950.0000000023065
 30
0.0
 40
277.5
100
AcDbArc
 50
46.23892420876304
 51
58.45127683276024
  0
LINE
  5
3CB
330
1F
100
AcDbEntity
  8
LAY-10
  6
CONTINUOUS
 62
     7
100
AcDbLine
 10
874.4869037444528
 20
1133.903471829239
 30
0.0
 11
891.0023326323229
 21
1150.418900718088
 31
0.0
  0
ARC
  5
3CC
330
1F
100
AcDbEntity
  8
LAY-10
  6
CONTINUOUS
 62
     7
100
AcDbCircle
 10
865.238806863703
 20
1116.170093581306
 30
0.0
 40
20.0
100
AcDbArc
 50
62.45760310874012
 51
119.8541756909436
  0
ARC
  5
3CD
330
1F
100
AcDbEntity
  8
LAY-10
  6
CONTINUOUS
 62
     7
100
AcDbCircle
 10
699.0687132835407
 20
950.0000000011715
 30
0.0
 40
241.0000000037001
100
AcDbArc
 50
49.59459507801771
 51
58.21664838781584
  0
CIRCLE
  5
3CE
330
1F
100
AcDbEntity
  8
LAY-10
  6
CONTINUOUS
 62
     7
100
AcDbCircle
 10
699.0687132897
 20
949.9999999999799
 30
0.0
 40
306.0047501100036
  0
LINE
  5
3CF
330
1F
100
AcDbEntity
  8
LAY-10
  6
CONTINUOUS
 62
     7
100
AcDbLine
 10
645.6485925497251
 20
1094.646335553713
 30
0.0
 11
636.7244996581956
 21
1116.191001644
 31
0.0
  0
ARC
  5
3D0
330
1F
100
AcDbEntity
  8
LAY-10
  6
CONTINUOUS
 62
     7
100
AcDbCircle
 10
699.0687132897002
 20
950.0000000023065
 30
0.0
 40
177.5
100
AcDbArc
 50
92.42166938693995
 51
110.5628722355282
  0
LINE
  5
3D1
330
1F
100
AcDbEntity
  8
LAY-10
  6
CONTINUOUS
 62
     7
100
AcDbLine
 10
634.5620381622276
 20
1090.054134361001
 30
0.0
 11
625.6379452681581
 21
1111.598800455053
 31
0.0
  0
ARC
  5
3D2
330
1F
100
AcDbEntity
  8
LAY-10
  6
CONTINUOUS
 62
     7
100
AcDbCircle
 10
699.0687132897002
 20
950.0000000023065
 30
0.0
 40
177.5
100
AcDbArc
 50
114.437127769824
 51
132.57833061306
  0
LINE
  5
3D3
330
1F
100
AcDbEntity
  8
LAY-10
  6
CONTINUOUS
 62
     7
100
AcDbLine
 10
752.4888340080734
 20
1094.646335555178
 30
0.0
 11
761.4129269009755
 21
1116.191001649713
 31
0.0
  0
LINE
  5
3D4
330
1F
100
AcDbEntity
  8
LAY-10
  6
CONTINUOUS
 62
     7
100
AcDbLine
 10
763.5753883993976
 20
1090.054134371706
 30
0.0
 11
772.4994812914338
 21
1111.598800461782
 31
0.0
  0
CIRCLE
  5
3D5
330
1F
100
AcDbEntity
  8
LAY-10
  6
CONTINUOUS
 62
     7
100
AcDbCircle
 10
865.2388068687793
 20
783.8299064213783
 30
0.0
 40
7.500000000000006
  0
ARC
  5
3D6
330
1F
100
AcDbEntity
  8
LAY-10
  6
CONTINUOUS
 62
     7
100
AcDbCircle
 10
699.0687132897023
 20
949.9999999999782
 30
0.0
 40
277.5
100
AcDbArc
 50
316.2389242095334
 51
328.4512768326433
  0
LINE
  5
3D7
330
1F
100
AcDbEntity
  8
LAY-10
  6
CONTINUOUS
 62
     7
100
AcDbLine
 10
903.9297448843568
 20
823.0631742244051
 30
0.0
 11
935.5529739601147
 21
804.805494404317
 31
0.0
  0
LINE
  5
3D8
330
1F
100
AcDbEntity
  8
LAY-10
  6
CONTINUOUS
 62
     7
100
AcDbLine
 10
882.9721851191149
 20
774.5818095449815
 30
0.0
 11
899.4876140080654
 21
758.0663806550521
 31
0.0
  0
ARC
  5
3D9
330
1F
100
AcDbEntity
  8
LAY-10
  6
CONTINUOUS
 62
     7
100
AcDbCircle
 10
865.2388068687029
 20
783.8299064209781
 30
0.0
 40
20.0
100
AcDbArc
 50
332.4576031240982
 51
29.85417567410105
  0
ARC
  5
3DA
330
1F
100
AcDbEntity
  8
LAY-10
  6
CONTINUOUS
 62
     7
100
AcDbCircle
 10
699.0687132958618
 20
950.0000000011715
 30
0.0
 40
241.0000000037001
100
AcDbArc
 50
319.5945950764159
 51
328.2166483869501
  0
ARC
  5
3DB
330
1F
100
AcDbEntity
  8
LAY-10
  6
CONTINUOUS
 62
     7
100
AcDbCircle
 10
699.0687132958618
 20
950.0000000011715
 30
0.0
 40
229.0000000037001
100
AcDbArc
 50
319.7135066584411
 51
328.123165041621
  0
LINE
  5
3DC
330
1F
100
AcDbEntity
  8
LAY-10
  6
CONTINUOUS
 62
     7
100
AcDbLine
 10
861.9020257792713
 20
847.3278891632257
 30
0.0
 11
893.5321399356332
 21
829.0662342398548
 31
0.0
  0
ARC
  5
3DD
330
1F
100
AcDbEntity
  8
LAY-10
  6
CONTINUOUS
 62
     7
100
AcDbCircle
 10
865.2388068687029
 20
783.8299064209781
 30
0.0
 40
20.0
100
AcDbArc
 50
64.79911601623964
 51
205.2008839812106
  0
ARC
  5
3DE
330
1F
100
AcDbEntity
  8
LAY-10
  6
CONTINUOUS
 62
     7
100
AcDbCircle
 10
699.0687132958618
 20
950.0000000011715
 30
0.0
 40
229.0000000037001
100
AcDbArc
 50
301.8768349556384
 51
310.2864933390238
  0
LINE
  5
3DF
330
1F
100
AcDbEntity
  8
LAY-10
  6
CONTINUOUS
 62
     7
100
AcDbLine
 10
801.7408241264532
 20
787.166687510408
 30
0.0
 11
820.0024790478761
 21
755.536573355615
 31
0.0
  0
ARC
  5
3E0
330
1F
100
AcDbEntity
  8
LAY-10
  6
CONTINUOUS
 62
     7
100
AcDbCircle
 10
699.0687132897023
 20
949.9999999999782
 30
0.0
 40
192.5
100
AcDbArc
 50
302.2328682427952
 51
327.767131757204
  0
ARC
  5
3E1
330
1F
100
AcDbEntity
  8
LAY-10
  6
CONTINUOUS
 62
     7
100
AcDbCircle
 10
865.2388068687029
 20
783.8299064209781
 30
0.0
 40
20.0
100
AcDbArc
 50
240.1458243233639
 51
297.5423968757968
  0
CIRCLE
  5
3E2
330
1F
100
AcDbEntity
  8
LAY-10
  6
CONTINUOUS
 62
     7
100
AcDbCircle
 10
926.0612824676997
 20
889.1775244009779
 30
0.0
 40
7.500000000000006
  0
LINE
  5
3E3
330
1F
100
AcDbEntity
  8
LAY-10
  6
CONTINUOUS
 62
     7
100
AcDbLine
 10
891.4225539064157
 20
942.4999999999775
 30
0.0
 11
927.9458637536495
 21
942.4999999999773
 31
0.0
  0
ARC
  5
3E4
330
1F
100
AcDbEntity
  8
LAY-10
  6
CONTINUOUS
 62
     7
100
AcDbCircle
 10
699.0687132958618
 20
950.0000000011715
 30
0.0
 40
229.0000000037001
100
AcDbArc
 50
349.7135066592676
 51
358.1231650425063
  0
ARC
  5
3E5
330
1F
100
AcDbEntity
  8
LAY-10
  6
CONTINUOUS
 62
     7
100
AcDbCircle
 10
926.0612824677029
 20
889.1775244009768
 30
0.0
 40
20.0
100
AcDbArc
 50
94.79911601003418
 51
235.2008839886781
  0
ARC
  5
3E6
330
1F
100
AcDbEntity
  8
LAY-10
  6
CONTINUOUS
 62
     7
100
AcDbCircle
 10
699.0687132897023
 20
949.9999999999782
 30
0.0
 40
192.5
100
AcDbArc
 50
332.2328682428472
 51
357.7671317572083
  0
LINE
  5
3E7
330
1F
100
AcDbEntity
  8
LAY-10
  6
CONTINUOUS
 62
     7
100
AcDbLine
 10
869.4020257793665
 20
860.3182702201705
 30
0.0
 11
901.0321399359965
 21
842.0566152966436
 31
0.0
  0
ARC
  5
3E8
330
1F
100
AcDbEntity
  8
LAY-10
  6
CONTINUOUS
 62
     7
100
AcDbCircle
 10
699.0687132958618
 20
950.0000000011715
 30
0.0
 40
229.0000000037001
100
AcDbArc
 50
331.8768349560606
 51
340.2864933394446
  0
ARC
  5
3E9
330
1F
100
AcDbEntity
  8
LAY-10
  6
CONTINUOUS
 62
     7
100
AcDbCircle
 10
699.0687132958618
 20
950.0000000011715
 30
0.0
 40
241.0000000037001
100
AcDbArc
 50
331.7833516111039
 51
340.4054049218254
  0
LINE
  5
3EA
330
1F
100
AcDbEntity
  8
LAY-10
  6
CONTINUOUS
 62
     7
100
AcDbLine
 10
911.4297448846784
 20
836.053555281219
 30
0.0
 11
943.0529739602368
 21
817.7958754612459
 31
0.0
  0
ARC
  5
3EB
330
1F
100
AcDbEntity
  8
LAY-10
  6
CONTINUOUS
 62
     7
100
AcDbCircle
 10
699.0687132897023
 20
949.9999999999782
 30
0.0
 40
277.5
100
AcDbArc
 50
331.5487231671679
 51
343.7610757901489
  0
LINE
  5
3EC
330
1F
100
AcDbEntity
  8
LAY-10
  6
CONTINUOUS
 62
     7
100
AcDbLine
 10
942.9370584237354
 20
878.4440167784987
 30
0.0
 11
965.4975538414518
 21
872.3989502503105
 31
0.0
  0
ARC
  5
3ED
330
1F
100
AcDbEntity
  8
LAY-10
  6
CONTINUOUS
 62
     7
100
AcDbCircle
 10
926.0612824677029
 20
889.1775244009768
 30
0.0
 40
20.0
100
AcDbArc
 50
270.1458243310087
 51
327.5423968735224
  0
ARC
  5
3EE
330
1F
100
AcDbEntity
  8
LAY-10
  6
CONTINUOUS
 62
     7
100
AcDbCircle
 10
926.0612824677029
 20
889.1775244009768
 30
0.0
 40
20.0
100
AcDbArc
 50
2.457603119589917
 51
59.85417566770393
  0
LINE
  5
3EF
330
1F
100
AcDbEntity
  8
LAY-10
  6
CONTINUOUS
 62
     7
100
AcDbLine
 10
946.0428869655439
 20
890.0351266933385
 30
0.0
 11
968.6033823826742
 21
883.9900601655708
 31
0.0
  0
ARC
  5
3F0
330
1F
100
AcDbEntity
  8
LAY-10
  6
CONTINUOUS
 62
     7
100
AcDbCircle
 10
699.0687132897023
 20
949.9999999999782
 30
0.0
 40
277.5
100
AcDbArc
 50
346.2389242094081
 51
358.4512768327583
  0
LINE
  5
3F1
330
1F
100
AcDbEntity
  8
LAY-10
  6
CONTINUOUS
 62
     7
100
AcDbLine
 10
939.9519837854615
 20
942.4999999999773
 30
0.0
 11
976.4673434233061
 21
942.499999999977
 31
0.0
  0
ARC
  5
3F2
330
1F
100
AcDbEntity
  8
LAY-10
  6
CONTINUOUS
 62
     7
100
AcDbCircle
 10
699.0687132958618
 20
950.0000000011715
 30
0.0
 40
241.0000000037001
100
AcDbArc
 50
349.5945950768867
 51
358.2166483876632
  0
ARC
  5
3F3
330
1F
100
AcDbEntity
  8
LAY-10
  6
CONTINUOUS
 62
     7
100
AcDbCircle
 10
699.0687132897023
 20
949.9999999999782
 30
0.0
 40
177.5
100
AcDbArc
 50
339.4371277668772
 51
357.5783306130598
  0
LINE
  5
3F4
330
1F
100
AcDbEntity
  8
LAY-10
  6
CONTINUOUS
 62
     7
100
AcDbLine
 10
839.8691039239617
 20
942.4999999999778
 30
0.0
 11
876.4101917993842
 21
942.4999999999775
 31
0.0
  0
ARC
  5
3F5
330
1F
100
AcDbEntity
  8
LAY-10
  6
CONTINUOUS
 62
     7
100
AcDbCircle
 10
699.0687132958618
 20
950.0000000011715
 30
0.0
 40
141.0000000037001
100
AcDbArc
 50
345.4294584524926
 51
356.9509131844175
  0
ARC
  5
3F6
330
1F
100
AcDbEntity
  8
LAY-10
  6
CONTINUOUS
 62
     7
100
AcDbCircle
 10
823.7924501787021
 20
898.3377366299769
 30
0.0
 40
20.0
100
AcDbArc
 50
354.9576031235039
 51
54.05024325548197
  0
LINE
  5
3F7
330
1F
100
AcDbEntity
  8
LAY-10
  6
CONTINUOUS
 62
     7
100
AcDbLine
 10
843.7150488418717
 20
896.5798792676518
 30
0.0
 11
865.259714934013
 21
887.6557863754505
 31
0.0
  0
LINE
  5
3F8
330
1F
100
AcDbEntity
  8
LAY-10
  6
CONTINUOUS
 62
     7
100
AcDbLine
 10
803.9329251577709
 20
855.7423898488656
 30
0.0
 11
829.7713761885421
 21
829.9039388191372
 31
0.0
  0
ARC
  5
3F9
330
1F
100
AcDbEntity
  8
LAY-10
  6
CONTINUOUS
 62
     7
100
AcDbCircle
 10
699.0687132897023
 20
949.9999999999782
 30
0.0
 40
177.5
100
AcDbArc
 50
317.4216693869859
 51
335.5628722325818
  0
LINE
  5
3FA
330
1F
100
AcDbEntity
  8
LAY-10
  6
CONTINUOUS
 62
     7
100
AcDbLine
 10
839.1228476539738
 20
885.4933248781613
 30
0.0
 11
860.6675137455318
 21
876.5692319852212
 31
0.0
  0
ARC
  5
3FB
330
1F
100
AcDbEntity
  8
LAY-10
  6
CONTINUOUS
 62
     7
100
AcDbCircle
 10
699.0687132958618
 20
950.0000000011715
 30
0.0
 40
141.0000000037001
100
AcDbArc
 50
318.0490868127387
 51
329.570541544003
  0
ARC
  5
3FC
330
1F
100
AcDbEntity
  8
LAY-10
  6
CONTINUOUS
 62
     7
100
AcDbCircle
 10
823.7924501787021
 20
898.3377366299769
 30
0.0
 40
20.0
100
AcDbArc
 50
260.9497567410131
 51
320.0423968784047
  0
CIRCLE
  5
3FD
330
1F
100
AcDbEntity
  8
LAY-10
  6
CONTINUOUS
 62
     7
100
AcDbCircle
 10
823.7924501786996
 20
898.3377366299778
 30
0.0
 40
7.500000000000006
  0
LINE
  5
3FE
330
1F
100
AcDbEntity
  8
LAY-10
  6
CONTINUOUS
 62
     7
100
AcDbLine
 10
769.5640382007205
 20
890.1112768069595
 30
0.0
 11
795.4344927058306
 21
864.2408223018493
 31
0.0
  0
ARC
  5
3FF
330
1F
100
AcDbEntity
  8
LAY-10
  6
CONTINUOUS
 62
     7
100
AcDbCircle
 10
699.0687132958618
 20
950.0000000011715
 30
0.0
 40
129.0000000037001
100
AcDbArc
 50
318.333029491597
 51
329.2093126571864
  0
ARC
  5
400
330
1F
100
AcDbEntity
  8
LAY-10
  6
CONTINUOUS
 62
     7
100
AcDbCircle
 10
823.7924501787021
 20
898.3377366299769
 30
0.0
 40
20.0
100
AcDbArc
 50
89.05581394502548
 51
225.9441860514697
  0
ARC
  5
401
330
1F
100
AcDbEntity
  8
LAY-10
  6
CONTINUOUS
 62
     7
100
AcDbCircle
 10
699.0687132958618
 20
950.0000000011715
 30
0.0
 40
129.0000000037001
100
AcDbArc
 50
345.7906873393093
 51
356.6669705056224
  0
LINE
  5
402
330
1F
100
AcDbEntity
  8
LAY-10
  6
CONTINUOUS
 62
     7
100
AcDbLine
 10
791.2641578626312
 20
942.4999999999778
 30
0.0
 11
827.8505054907862
 21
942.4999999999778
 31
0.0
  0
ARC
  5
403
330
1F
100
AcDbEntity
  8
LAY-10
  6
CONTINUOUS
 62
     7
100
AcDbCircle
 10
699.0687132897023
 20
949.9999999999782
 30
0.0
 40
92.50000000000007
100
AcDbArc
 50
319.6507090049683
 51
355.34929099512
  0
LINE
  5
404
330
1F
100
AcDbEntity
  8
LAY-10
  6
CONTINUOUS
 62
     7
100
AcDbLine
 10
752.4888340213753
 20
805.3536644478388
 30
0.0
 11
761.3910817914708
 21
783.8617371455218
 31
0.0
  0
ARC
  5
405
330
1F
100
AcDbEntity
  8
LAY-10
  6
CONTINUOUS
 62
     7
100
AcDbCircle
 10
699.0687132897023
 20
949.9999999999782
 30
0.0
 40
177.5
100
AcDbArc
 50
272.4216693869397
 51
290.5628722329025
  0
LINE
  5
406
330
1F
100
AcDbEntity
  8
LAY-10
  6
CONTINUOUS
 62
     7
100
AcDbLine
 10
706.5687132897017
 20
809.1996093726802
 30
0.0
 11
706.5687132897015
 21
772.6585214899779
 31
0.0
  0
LINE
  5
407
330
1F
100
AcDbEntity
  8
LAY-10
  6
CONTINUOUS
 62
     7
100
AcDbLine
 10
706.5687132897019
 20
857.8045554270494
 30
0.0
 11
706.5687132897017
 21
821.2182078058186
 31
0.0
  0
ARC
  5
408
330
1F
100
AcDbEntity
  8
LAY-10
  6
CONTINUOUS
 62
     7
100
AcDbCircle
 10
699.0687132958618
 20
950.0000000011715
 30
0.0
 40
129.0000000037001
100
AcDbArc
 50
273.3330294911058
 51
284.2093126568236
  0
ARC
  5
409
330
1F
100
AcDbEntity
  8
LAY-10
  6
CONTINUOUS
 62
     7
100
AcDbCircle
 10
699.0687132958618
 20
950.0000000011715
 30
0.0
 40
141.0000000037001
100
AcDbArc
 50
273.04908681259
 51
284.5705415426724
  0
ARC
  5
40A
330
1F
100
AcDbEntity
  8
LAY-10
  6
CONTINUOUS
 62
     7
100
AcDbCircle
 10
750.7309766587022
 20
825.2762631109779
 30
0.0
 40
20.0
100
AcDbArc
 50
215.9497567290875
 51
275.0423968774966
  0
CIRCLE
  5
40B
330
1F
100
AcDbEntity
  8
LAY-10
  6
CONTINUOUS
 62
     7
100
AcDbCircle
 10
750.7309766586997
 20
825.2762631109783
 30
0.0
 40
7.500000000000006
  0
ARC
  5
40C
330
1F
100
AcDbEntity
  8
LAY-10
  6
CONTINUOUS
 62
     7
100
AcDbCircle
 10
750.7309766587022
 20
825.2762631109779
 30
0.0
 40
20.0
100
AcDbArc
 50
44.05581395453614
 51
180.944186040028
  0
ARC
  5
40D
330
1F
100
AcDbEntity
  8
LAY-10
  6
CONTINUOUS
 62
     7
100
AcDbCircle
 10
699.0687132897023
 20
949.9999999999782
 30
0.0
 40
92.50000000000007
100
AcDbArc
 50
274.6507090048796
 51
310.3492909951199
  0
ARC
  5
40E
330
1F
100
AcDbEntity
  8
LAY-10
  6
CONTINUOUS
 62
     7
100
AcDbCircle
 10
699.0687132958618
 20
950.0000000011715
 30
0.0
 40
129.0000000037001
100
AcDbArc
 50
300.7906873377406
 51
311.6669705037767
  0
LINE
  5
40F
330
1F
100
AcDbEntity
  8
LAY-10
  6
CONTINUOUS
 62
     7
100
AcDbLine
 10
758.9574364827022
 20
879.5046750889776
 30
0.0
 11
784.8278909874025
 21
853.6342205842781
 31
0.0
  0
ARC
  5
410
330
1F
100
AcDbEntity
  8
LAY-10
  6
CONTINUOUS
 62
     7
100
AcDbCircle
 10
699.0687132958618
 20
950.0000000011715
 30
0.0
 40
141.0000000037001
100
AcDbArc
 50
300.4294584518918
 51
311.9509131827294
  0
LINE
  5
411
330
1F
100
AcDbEntity
  8
LAY-10
  6
CONTINUOUS
 62
     7
100
AcDbLine
 10
793.3263234398731
 20
845.1357881318069
 30
0.0
 11
819.1647744707024
 21
819.297337100978
 31
0.0
  0
ARC
  5
412
330
1F
100
AcDbEntity
  8
LAY-10
  6
CONTINUOUS
 62
     7
100
AcDbCircle
 10
699.0687132897023
 20
949.9999999999782
 30
0.0
 40
177.5
100
AcDbArc
 50
294.4371277671983
 51
312.5783306130597
  0
LINE
  5
413
330
1F
100
AcDbEntity
  8
LAY-10
  6
CONTINUOUS
 62
     7
100
AcDbLine
 10
763.575388410786
 20
809.9458656359309
 30
0.0
 11
772.4776361819569
 21
788.4539383333794
 31
0.0
  0
ARC
  5
414
330
1F
100
AcDbEntity
  8
LAY-10
  6
CONTINUOUS
 62
     7
100
AcDbCircle
 10
750.7309766587022
 20
825.2762631109779
 30
0.0
 40
20.0
100
AcDbArc
 50
309.9576031225973
 51
9.050243265476318
  0
ARC
  5
415
330
1F
100
AcDbEntity
  8
LAY-10
  6
CONTINUOUS
 62
     7
100
AcDbCircle
 10
699.0687132897023
 20
949.9999999999782
 30
0.0
 40
192.5
100
AcDbArc
 50
272.2328682427913
 51
297.7671317571525
  0
LINE
  5
416
330
1F
100
AcDbEntity
  8
LAY-10
  6
CONTINUOUS
 62
     7
100
AcDbLine
 10
706.5687132897018
 20
757.6461593832645
 30
0.0
 11
706.5687132897015
 21
721.1228495431423
 31
0.0
  0
LINE
  5
417
330
1F
100
AcDbEntity
  8
LAY-10
  6
CONTINUOUS
 62
     7
100
AcDbLine
 10
788.7504430695088
 20
779.6666875103134
 30
0.0
 11
807.0120979915232
 21
748.036573356298
 31
0.0
  0
ARC
  5
418
330
1F
100
AcDbEntity
  8
LAY-10
  6
CONTINUOUS
 62
     7
100
AcDbCircle
 10
699.0687132958618
 20
950.0000000011715
 30
0.0
 40
229.0000000037001
100
AcDbArc
 50
289.7135066579033
 51
298.1231650414242
  0
ARC
  5
419
330
1F
100
AcDbEntity
  8
LAY-10
  6
CONTINUOUS
 62
     7
100
AcDbCircle
 10
699.0687132958618
 20
950.0000000011715
 30
0.0
 40
229.0000000037001
100
AcDbArc
 50
271.8768349556526
 51
280.2864933389927
  0
ARC
  5
41A
330
1F
100
AcDbEntity
  8
LAY-10
  6
CONTINUOUS
 62
     7
100
AcDbCircle
 10
759.8911888887026
 20
723.0074308219779
 30
0.0
 40
20.0
100
AcDbArc
 50
34.79911602449756
 51
175.2008839723978
  0
CIRCLE
  5
41B
330
1F
100
AcDbEntity
  8
LAY-10
  6
CONTINUOUS
 62
     7
100
AcDbCircle
 10
759.891188888699
 20
723.0074308219789
 30
0.0
 40
7.500000000000006
  0
ARC
  5
41C
330
1F
100
AcDbEntity
  8
LAY-10
  6
CONTINUOUS
 62
     7
100
AcDbCircle
 10
699.0687132958618
 20
950.0000000011715
 30
0.0
 40
241.0000000037001
100
AcDbArc
 50
271.7833516105875
 51
280.4054049205743
  0
ARC
  5
41D
330
1F
100
AcDbEntity
  8
LAY-10
  6
CONTINUOUS
 62
     7
100
AcDbCircle
 10
699.0687132958618
 20
950.0000000011715
 30
0.0
 40
241.0000000037001
100
AcDbArc
 50
289.5945950763218
 51
298.2166483865153
  0
LINE
  5
41E
330
1F
100
AcDbEntity
  8
LAY-10
  6
CONTINUOUS
 62
     7
100
AcDbLine
 10
813.0151580069904
 20
737.6389684076198
 30
0.0
 11
831.272837827672
 21
706.01573932903
 31
0.0
  0
ARC
  5
41F
330
1F
100
AcDbEntity
  8
LAY-10
  6
CONTINUOUS
 62
     7
100
AcDbCircle
 10
699.0687132897023
 20
949.9999999999782
 30
0.0
 40
277.5
100
AcDbArc
 50
286.2389242096314
 51
298.451276832653
  0
LINE
  5
420
330
1F
100
AcDbEntity
  8
LAY-10
  6
CONTINUOUS
 62
     7
100
AcDbLine
 10
770.6246965103176
 20
706.1316548653965
 30
0.0
 11
776.6697630383476
 21
683.5711594479304
 31
0.0
  0
ARC
  5
421
330
1F
100
AcDbEntity
  8
LAY-10
  6
CONTINUOUS
 62
     7
100
AcDbCircle
 10
759.8911888887026
 20
723.0074308219779
 30
0.0
 40
20.0
100
AcDbArc
 50
302.4576031235476
 51
359.8541756825675
  0
ARC
  5
422
330
1F
100
AcDbEntity
  8
LAY-10
  6
CONTINUOUS
 62
     7
100
AcDbCircle
 10
759.8911888887026
 20
723.0074308219779
 30
0.0
 40
20.0
100
AcDbArc
 50
210.1458243143285
 51
267.5423968774805
  0
LINE
  5
423
330
1F
100
AcDbEntity
  8
LAY-10
  6
CONTINUOUS
 62
     7
100
AcDbLine
 10
759.0335865953197
 20
703.0258263241806
 30
0.0
 11
765.0786531230746
 21
680.4653309067523
 31
0.0
  0
ARC
  5
424
330
1F
100
AcDbEntity
  8
LAY-10
  6
CONTINUOUS
 62
     7
100
AcDbCircle
 10
699.0687132897023
 20
949.9999999999782
 30
0.0
 40
277.5
100
AcDbArc
 50
274.4435856806148
 51
283.761075790372
  0
LINE
  5
425
330
1F
100
AcDbEntity
  8
LAY-10
  6
CONTINUOUS
 62
     7
100
AcDbLine
 10
706.5687132897015
 20
709.1167295113428
 30
0.0
 11
706.5687132897013
 21
699.0064244815384
 31
0.0
  0
LINE
  5
426
330
1F
100
AcDbEntity
  8
LAY-10
  6
CONTINUOUS
 62
     7
100
AcDbLine
 10
706.5687132897013
 20
699.0064244815384
 30
0.0
 11
710.5687132897011
 21
699.0064244815384
 31
0.0
  0
ARC
  5
427
330
1F
100
AcDbEntity
  8
LAY-10
  6
CONTINUOUS
 62
     7
100
AcDbCircle
 10
710.5687132897012
 20
689.0064244815376
 30
0.0
 40
10.0
100
AcDbArc
 50
0.0
 51
90.00000000000004
  0
LINE
  5
428
330
1F
100
AcDbEntity
  8
LAY-10
  6
CONTINUOUS
 62
     7
100
AcDbLine
 10
720.5687132897012
 20
673.3341365473287
 30
0.0
 11
720.5687132897012
 21
689.006424481542
 31
0.0
  0
ARC
  5
429
330
1F
100
AcDbEntity
  8
LAY-10
  6
CONTINUOUS
 62
     7
100
AcDbCircle
 10
699.0687132897023
 20
949.9999999999782
 30
0.0
 40
277.5
100
AcDbArc
 50
301.5487231671777
 51
313.7610757901734
  0
LINE
  5
42A
330
1F
100
AcDbEntity
  8
LAY-10
  6
CONTINUOUS
 62
     7
100
AcDbLine
 10
874.4869037446671
 20
766.0965281705487
 30
0.0
 11
891.0023326336031
 21
749.581099280633
 31
0.0
  0
ARC
  5
42B
330
1F
100
AcDbEntity
  8
LAY-10
  6
CONTINUOUS
 62
     7
100
AcDbCircle
 10
699.0687132958618
 20
950.0000000011715
 30
0.0
 40
241.0000000037001
100
AcDbArc
 50
301.7833516106691
 51
310.405404921049
  0
LINE
  5
42C
330
1F
100
AcDbEntity
  8
LAY-10
  6
CONTINUOUS
 62
     7
100
AcDbLine
 10
826.0055390641159
 20
745.1389684074015
 30
0.0
 11
844.2632188846242
 21
713.5157393291113
 31
0.0
  0
LINE
  5
42D
330
1F
100
AcDbEntity
  8
LAY-10
  6
CONTINUOUS
 62
     7
100
AcDbLine
 10
460.2303981268664
 20
282.9999999999972
 30
0.0
 11
485.4067252539893
 21
282.9999999999972
 31
0.0
  0
ARC
  5
42E
330
1F
100
AcDbEntity
  8
LAY-10
  6
CONTINUOUS
 62
     7
100
AcDbCircle
 10
486.9456093180347
 20
276.9999999999699
 30
0.0
 40
2.0
100
AcDbArc
 50
10.00000000000344
 51
90.00000000000004
  0
LINE
  5
42F
330
1F
100
AcDbEntity
  8
LAY-10
  6
CONTINUOUS
 62
     7
100
AcDbLine
 10
491.268713290518
 20
264.0000000000263
 30
0.0
 11
488.6238085799072
 21
278.9999999999326
 31
0.0
  0
LINE
  5
430
330
1F
100
AcDbEntity
  8
LAY-10
  6
CONTINUOUS
 62
     7
100
AcDbLine
 10
491.0687132897032
 20
264.0000000000267
 30
0.0
 11
500.7560022002039
 21
264.0000000000267
 31
0.0
  0
LINE
  5
431
330
1F
100
AcDbEntity
  8
LAY-10
  6
CONTINUOUS
 62
     7
100
AcDbLine
 10
500.7560022002039
 20
264.0000000000272
 30
0.0
 11
500.1324073445033
 21
277.9999999999972
 31
0.0
  0
LINE
  5
432
330
1F
100
AcDbEntity
  8
LAY-10
  6
CONTINUOUS
 62
     7
100
AcDbLine
 10
500.7560022002039
 20
264.0000000000272
 30
0.0
 11
497.5070803278035
 21
257.9999999999872
 31
0.0
  0
ARC
  5
433
330
1F
100
AcDbEntity
  8
LAY-10
  6
CONTINUOUS
 62
     7
100
AcDbCircle
 10
486.4291054842719
 20
261.0000000000254
 30
0.0
 40
2.0
100
AcDbArc
 50
270.0000000000002
 51
348.6900675259777
  0
LINE
  5
434
330
1F
100
AcDbEntity
  8
LAY-10
  6
CONTINUOUS
 62
     7
100
AcDbLine
 10
489.0687132897105
 20
264.0000000000335
 30
0.0
 11
488.3902668356535
 21
260.6077677297488
 31
0.0
  0
LINE
  5
435
330
1F
100
AcDbEntity
  8
LAY-10
  6
CONTINUOUS
 62
     7
100
AcDbLine
 10
627.4870352063894
 20
257.9999999999867
 30
0.0
 11
770.6503913729896
 21
257.9999999999866
 31
0.0
  0
LINE
  5
436
330
1F
100
AcDbEntity
  8
LAY-10
  6
CONTINUOUS
 62
     7
100
AcDbLine
 10
401.4814414377264
 20
255.2294884452657
 30
0.0
 11
400.9158493215795
 21
252.9999999999367
 31
0.0
  0
LINE
  5
437
330
1F
100
AcDbEntity
  8
LAY-10
  6
CONTINUOUS
 62
     7
100
AcDbLine
 10
416.5687132896895
 20
287.9999999999968
 30
0.0
 11
418.7562132896895
 21
267.0000000000254
 31
0.0
  0
LINE
  5
438
330
1F
100
AcDbEntity
  8
LAY-10
  6
CONTINUOUS
 62
     7
100
AcDbLine
 10
400.9158493215776
 20
252.9999999999372
 30
0.0
 11
399.3277140319455
 21
216.4999999999967
 31
0.0
  0
LINE
  5
439
330
1F
100
AcDbEntity
  8
LAY-10
  6
CONTINUOUS
 62
     7
100
AcDbLine
 10
394.8005831765953
 20
216.4999999999967
 30
0.0
 11
399.3277140319455
 21
216.4999999999967
 31
0.0
  0
LINE
  5
43A
330
1F
100
AcDbEntity
  8
LAY-10
  6
CONTINUOUS
 62
     7
100
AcDbLine
 10
330.7686225978936
 20
224.4999999999968
 30
0.0
 11
330.0687132896859
 21
216.4999999999967
 31
0.0
  0
LINE
  5
43B
330
1F
100
AcDbEntity
  8
LAY-10
  6
CONTINUOUS
 62
     7
100
AcDbLine
 10
308.0687132897168
 20
216.4999999999967
 30
0.0
 11
307.36880398151
 21
224.4999999999968
 31
0.0
  0
ARC
  5
43C
330
1F
100
AcDbEntity
  8
LAY-10
  6
CONTINUOUS
 62
     7
100
AcDbCircle
 10
372.7169783794001
 20
219.4999999999831
 30
0.0
 40
2.0
100
AcDbArc
 50
90.00000000000004
 51
180.0
  0
LINE
  5
43D
330
1F
100
AcDbEntity
  8
LAY-10
  6
CONTINUOUS
 62
     7
100
AcDbLine
 10
372.7169783794001
 20
221.4999999999831
 30
0.0
 11
378.7169783794001
 21
221.4999999999831
 31
0.0
  0
ARC
  5
43E
330
1F
100
AcDbEntity
  8
LAY-10
  6
CONTINUOUS
 62
     7
100
AcDbCircle
 10
378.7169783794001
 20
219.4999999999831
 30
0.0
 40
2.0
100
AcDbArc
 50
0.0
 51
90.00000000000004
  0
ARC
  5
43F
330
1F
100
AcDbEntity
  8
LAY-10
  6
CONTINUOUS
 62
     7
100
AcDbCircle
 10
367.7169783794001
 20
219.4999999999835
 30
0.0
 40
3.000000000000003
100
AcDbArc
 50
270.0000000000002
 51
0.0
  0
ARC
  5
440
330
1F
100
AcDbEntity
  8
LAY-10
  6
CONTINUOUS
 62
     7
100
AcDbCircle
 10
383.7169783794001
 20
219.4999999999835
 30
0.0
 40
3.000000000000003
100
AcDbArc
 50
180.0
 51
270.0000000000002
  0
LINE
  5
441
330
1F
100
AcDbEntity
  8
LAY-10
  6
CONTINUOUS
 62
     7
100
AcDbLine
 10
401.48144143772
 20
255.2294884452566
 30
0.0
 11
407.9917318962492
 21
264.0000000000267
 31
0.0
  0
LINE
  5
442
330
1F
100
AcDbEntity
  8
LAY-10
  6
CONTINUOUS
 62
     7
100
AcDbLine
 10
343.842969202355
 20
225.7642356364853
 30
0.0
 11
367.2799859324253
 21
259.2357643635072
 31
0.0
  0
ARC
  5
443
330
1F
100
AcDbEntity
  8
LAY-10
  6
CONTINUOUS
 62
     7
100
AcDbCircle
 10
299.190866511822
 20
298.3780477804112
 30
0.0
 40
73.89102187824614
100
AcDbArc
 50
323.4688374840275
 51
357.2045482300394
  0
LINE
  5
444
330
1F
100
AcDbEntity
  8
LAY-10
  6
CONTINUOUS
 62
     7
100
AcDbLine
 10
384.7196119911499
 20
306.4999999999868
 30
0.0
 11
372.9939589582749
 21
294.7743469671117
 31
0.0
  0
LINE
  5
445
330
1F
100
AcDbEntity
  8
LAY-10
  6
CONTINUOUS
 62
     7
100
AcDbLine
 10
340.3549066268546
 20
224.4999999999968
 30
0.0
 11
298.8062472990799
 21
224.4999999999968
 31
0.0
  0
ARC
  5
446
330
1F
100
AcDbEntity
  8
LAY-10
  6
CONTINUOUS
 62
     7
100
AcDbCircle
 10
263.2632645007956
 20
370.2281591656192
 30
0.0
 40
150.0
100
AcDbArc
 50
283.7067863464521
 51
309.4454500887134
  0
ARC
  5
447
330
1F
100
AcDbEntity
  8
LAY-10
  6
CONTINUOUS
 62
     7
100
AcDbCircle
 10
375.471506375315
 20
253.4999999999958
 30
0.0
 40
10.0
100
AcDbArc
 50
117.5695585017333
 51
144.9999999999933
  0
ARC
  5
448
330
1F
100
AcDbEntity
  8
LAY-10
  6
CONTINUOUS
 62
     7
100
AcDbCircle
 10
350.0934696395183
 20
289.8970014137807
 30
0.0
 40
34.47596914870139
100
AcDbArc
 50
306.9984932436832
 51
353.7457586015395
  0
LINE
  5
449
330
1F
100
AcDbEntity
  8
LAY-10
  6
CONTINUOUS
 62
     7
100
AcDbLine
 10
384.3642473517388
 20
286.1411734435763
 30
0.0
 11
385.0687132897077
 21
326.4999999999836
 31
0.0
  0
LINE
  5
44A
330
1F
100
AcDbEntity
  8
LAY-10
  6
CONTINUOUS
 62
     7
100
AcDbLine
 10
406.7339451934453
 20
287.9999999999808
 30
0.0
 11
398.4795354257398
 21
287.9999999999808
 31
0.0
  0
ARC
  5
44B
330
1F
100
AcDbEntity
  8
LAY-10
  6
CONTINUOUS
 62
     7
100
AcDbCircle
 10
379.1154757291837
 20
246.4999999999826
 30
0.0
 40
10.0
100
AcDbArc
 50
90.00000000000004
 51
144.9999999999933
  0
LINE
  5
44C
330
1F
100
AcDbEntity
  8
LAY-10
  6
CONTINUOUS
 62
     7
100
AcDbLine
 10
409.4795354257398
 20
287.9999999999945
 30
0.0
 11
399.4795354257398
 21
287.9999999999945
 31
0.0
  0
LINE
  5
44D
330
1F
100
AcDbEntity
  8
LAY-10
  6
CONTINUOUS
 62
     7
100
AcDbLine
 10
394.8005831765953
 20
216.4999999999967
 30
0.0
 11
345.9015036952636
 21
216.4999999999967
 31
0.0
  0
ARC
  5
44E
330
1F
100
AcDbEntity
  8
LAY-10
  6
CONTINUOUS
 62
     7
100
AcDbCircle
 10
340.3549066268546
 20
229.4999999999968
 30
0.0
 40
5.0
100
AcDbArc
 50
270.0000000000002
 51
324.9999999999587
  0
LINE
  5
44F
330
1F
100
AcDbEntity
  8
LAY-10
  6
CONTINUOUS
 62
     7
100
AcDbLine
 10
298.8062472990763
 20
224.4999999999968
 30
0.0
 11
291.6012849458997
 21
224.4999999999968
 31
0.0
  0
LINE
  5
450
330
1F
100
AcDbEntity
  8
LAY-10
  6
CONTINUOUS
 62
     7
100
AcDbLine
 10
289.6088955497147
 20
222.6743114854921
 30
0.0
 11
289.0687132896568
 21
216.5
 31
0.0
  0
ARC
  5
451
330
1F
100
AcDbEntity
  8
LAY-10
  6
CONTINUOUS
 62
     7
100
AcDbCircle
 10
291.6012849458988
 20
222.4999999999968
 30
0.0
 40
2.0
100
AcDbArc
 50
90.00000000000004
 51
175.0
  0
LINE
  5
452
330
1F
100
AcDbEntity
  8
LAY-10
  6
CONTINUOUS
 62
     7
100
AcDbLine
 10
289.0687132896895
 20
216.4999999999968
 30
0.0
 11
345.90150369526
 21
216.4999999999967
 31
0.0
  0
LINE
  5
453
330
1F
100
AcDbEntity
  8
LAY-10
  6
CONTINUOUS
 62
     7
100
AcDbLine
 10
370.9239552862876
 20
252.2357643635077
 30
0.0
 11
345.9015036952636
 21
216.4999999999967
 31
0.0
  0
ARC
  5
454
330
1F
100
AcDbEntity
  8
LAY-10
  6
CONTINUOUS
 62
     7
100
AcDbCircle
 10
383.2146263381259
 20
246.4999999999958
 30
0.0
 40
10.0
100
AcDbArc
 50
2.999999999997772
 51
90.00000000000004
  0
LINE
  5
455
330
1F
100
AcDbEntity
  8
LAY-10
  6
CONTINUOUS
 62
     7
100
AcDbLine
 10
393.2009216856717
 20
247.0233595624254
 30
0.0
 11
394.8005831765953
 21
216.4999999999967
 31
0.0
  0
LINE
  5
456
330
1F
100
AcDbEntity
  8
LAY-10
  6
CONTINUOUS
 62
     7
100
AcDbLine
 10
379.1154757291764
 20
256.4999999999958
 30
0.0
 11
383.2146263381259
 21
256.4999999999958
 31
0.0
  0
ARC
  5
457
330
1F
100
AcDbEntity
  8
LAY-10
  6
CONTINUOUS
 62
     7
100
AcDbCircle
 10
464.3958210944419
 20
261.0000000000254
 30
0.0
 40
2.0
100
AcDbArc
 50
191.3099324740257
 51
270.0000000000002
  0
LINE
  5
458
330
1F
100
AcDbEntity
  8
LAY-10
  6
CONTINUOUS
 62
     7
100
AcDbLine
 10
461.7562132890033
 20
264.0000000000335
 30
0.0
 11
462.4346597430603
 21
260.6077677297488
 31
0.0
  0
ARC
  5
459
330
1F
100
AcDbEntity
  8
LAY-10
  6
CONTINUOUS
 62
     7
100
AcDbCircle
 10
480.756213289685
 20
263.9999999999326
 30
0.0
 40
15.00000000000001
100
AcDbArc
 50
90.00000000000004
 51
180.0
  0
LINE
  5
45A
330
1F
100
AcDbEntity
  8
LAY-10
  6
CONTINUOUS
 62
     7
100
AcDbLine
 10
488.623808580411
 20
278.9999999999326
 30
0.0
 11
480.7562132896859
 21
278.9999999999326
 31
0.0
  0
LINE
  5
45B
330
1F
100
AcDbEntity
  8
LAY-10
  6
CONTINUOUS
 62
     7
100
AcDbLine
 10
445.7562132895541
 20
259.0000000000254
 30
0.0
 11
486.4291054843037
 21
259.0000000000254
 31
0.0
  0
LINE
  5
45C
330
1F
100
AcDbEntity
  8
LAY-10
  6
CONTINUOUS
 62
     7
100
AcDbLine
 10
444.7562132895149
 20
257.9999999999867
 30
0.0
 11
617.8277769434893
 21
257.9999999999867
 31
0.0
  0
ARC
  5
45D
330
1F
100
AcDbEntity
  8
LAY-10
  6
CONTINUOUS
 62
     7
100
AcDbCircle
 10
405.4948769219935
 20
243.2160964340959
 30
0.0
 40
5.0
100
AcDbArc
 50
99.2118535500654
 51
177.5086002040298
  0
LINE
  5
45E
330
1F
100
AcDbEntity
  8
LAY-10
  6
CONTINUOUS
 62
     7
100
AcDbLine
 10
411.0011862813229
 20
267.0000000000263
 30
0.0
 11
407.9917318962429
 21
263.9999999997866
 31
0.0
  0
LINE
  5
45F
330
1F
100
AcDbEntity
  8
LAY-10
  6
CONTINUOUS
 62
     7
100
AcDbLine
 10
411.0011862813221
 20
267.0000000000254
 30
0.0
 11
418.7562132896895
 21
267.0000000000254
 31
0.0
  0
LINE
  5
460
330
1F
100
AcDbEntity
  8
LAY-10
  6
CONTINUOUS
 62
     7
100
AcDbLine
 10
450.7562132895632
 20
264.0000000000267
 30
0.0
 11
440.7562132895632
 21
254.0000000000367
 31
0.0
  0
LINE
  5
461
330
1F
100
AcDbEntity
  8
LAY-10
  6
CONTINUOUS
 62
     7
100
AcDbLine
 10
1003.336843402765
 20
216.4999999999966
 30
0.0
 11
999.0687132896821
 21
216.4999999999966
 31
0.0
  0
LINE
  5
462
330
1F
100
AcDbEntity
  8
LAY-10
  6
CONTINUOUS
 62
     7
100
AcDbLine
 10
1109.068713289671
 20
216.4999999999966
 30
0.0
 11
1052.235922884102
 21
216.4999999999966
 31
0.0
  0
LINE
  5
463
330
1F
100
AcDbEntity
  8
LAY-10
  6
CONTINUOUS
 62
     7
100
AcDbLine
 10
1003.336843402765
 20
216.4999999999966
 30
0.0
 11
1052.235922884098
 21
216.4999999999966
 31
0.0
  0
LINE
  5
464
330
1F
100
AcDbEntity
  8
LAY-10
  6
CONTINUOUS
 62
     7
100
AcDbLine
 10
1108.528531029646
 20
222.6743114854919
 30
0.0
 11
1109.068713289706
 21
216.4999999999993
 31
0.0
  0
ARC
  5
465
330
1F
100
AcDbEntity
  8
LAY-10
  6
CONTINUOUS
 62
     7
100
AcDbCircle
 10
1106.536141633464
 20
222.4999999999966
 30
0.0
 40
2.0
100
AcDbArc
 50
4.999999999999801
 51
90.00000000000004
  0
LINE
  5
466
330
1F
100
AcDbEntity
  8
LAY-10
  6
CONTINUOUS
 62
     7
100
AcDbLine
 10
1090.068713289644
 20
216.4999999999966
 30
0.0
 11
1090.768622597853
 21
224.4999999999966
 31
0.0
  0
LINE
  5
467
330
1F
100
AcDbEntity
  8
LAY-10
  6
CONTINUOUS
 62
     7
100
AcDbLine
 10
1067.368803981468
 20
224.4999999999966
 30
0.0
 11
1068.068713289675
 21
216.4999999999966
 31
0.0
  0
LINE
  5
468
330
1F
100
AcDbEntity
  8
LAY-10
  6
CONTINUOUS
 62
     7
100
AcDbLine
 10
998.894671066166
 20
220.4999999999966
 30
0.0
 11
999.0687132896867
 21
216.4999999999966
 31
0.0
  0
ARC
  5
469
330
1F
100
AcDbEntity
  8
LAY-10
  6
CONTINUOUS
 62
     7
100
AcDbCircle
 10
1052.344521244456
 20
229.4999999999966
 30
0.0
 40
5.0
100
AcDbArc
 50
215.0000000000045
 51
270.0000000000002
  0
LINE
  5
46A
330
1F
100
AcDbEntity
  8
LAY-10
  6
CONTINUOUS
 62
     7
100
AcDbLine
 10
1052.344521244456
 20
224.4999999999966
 30
0.0
 11
1106.536141633464
 21
224.4999999999966
 31
0.0
  0
ARC
  5
46B
330
1F
100
AcDbEntity
  8
LAY-10
  6
CONTINUOUS
 62
     7
100
AcDbCircle
 10
1134.874162078566
 20
370.2281591656185
 30
0.0
 40
150.0
100
AcDbArc
 50
231.2521584944924
 51
256.2932136535498
  0
LINE
  5
46C
330
1F
100
AcDbEntity
  8
LAY-10
  6
CONTINUOUS
 62
     7
100
AcDbLine
 10
1048.248761023012
 20
226.6321178182409
 30
0.0
 11
1041.600866296138
 21
236.1262954214529
 31
0.0
  0
LINE
  5
46D
330
1F
100
AcDbEntity
  8
LAY-10
  6
CONTINUOUS
 62
     7
100
AcDbLine
 10
1029.186296150316
 20
229.3300274876481
 30
0.0
 11
1032.219525709909
 21
264.0000000000666
 31
0.0
  0
ARC
  5
46E
330
1F
100
AcDbEntity
  8
LAY-10
  6
CONTINUOUS
 62
     7
100
AcDbCircle
 10
1024.205322659858
 20
229.7658062013864
 30
0.0
 40
5.0
100
AcDbArc
 50
279.4162249101375
 51
355.0000000000003
  0
LINE
  5
46F
330
1F
100
AcDbEntity
  8
LAY-10
  6
CONTINUOUS
 62
     7
100
AcDbLine
 10
1013.40035952329
 20
307.4999999999966
 30
0.0
 11
1037.45426185426
 21
282.2157528404298
 31
0.0
  0
LINE
  5
470
330
1F
100
AcDbEntity
  8
LAY-10
  6
CONTINUOUS
 62
     7
100
AcDbLine
 10
1040.20296520829
 20
275.6738203194425
 30
0.0
 11
1041.590843897999
 21
236.1192776627261
 31
0.0
  0
ARC
  5
471
330
1F
100
AcDbEntity
  8
LAY-10
  6
CONTINUOUS
 62
     7
100
AcDbCircle
 10
1030.209115270372
 20
275.3231589181121
 30
0.0
 40
10.0
100
AcDbArc
 50
2.009553813020889
 51
43.5715119034375
  0
LINE
  5
472
330
1F
100
AcDbEntity
  8
LAY-10
  6
CONTINUOUS
 62
     7
100
AcDbLine
 10
1031.068713289688
 20
277.0000000000143
 30
0.0
 11
1032.21952570991
 21
263.8461538462068
 31
0.0
  0
LINE
  5
473
330
1F
100
AcDbEntity
  8
LAY-10
  6
CONTINUOUS
 62
     7
100
AcDbLine
 10
1031.06871328969
 20
277.0000000000266
 30
0.0
 11
1021.06871328969
 21
291.0000000000266
 31
0.0
  0
LINE
  5
474
330
1F
100
AcDbEntity
  8
LAY-10
  6
CONTINUOUS
 62
     7
100
AcDbLine
 10
998.8946710661696
 20
220.4999999999966
 30
0.0
 11
1025.023349316469
 21
224.8331768428118
 31
0.0
  0
LINE
  5
475
330
1F
100
AcDbEntity
  8
LAY-10
  6
CONTINUOUS
 62
     7
100
AcDbLine
 10
901.0705639945429
 20
254.4999999999966
 30
0.0
 11
441.2562132895231
 21
254.4999999999963
 31
0.0
  0
LINE
  5
476
330
1F
100
AcDbEntity
  8
LAY-10
  6
CONTINUOUS
 62
     7
100
AcDbLine
 10
780.3096496358896
 20
257.9999999999866
 30
0.0
 11
899.590608904293
 21
257.9999999999866
 31
0.0
  0
LINE
  5
477
330
1F
100
AcDbEntity
  8
LAY-10
  6
CONTINUOUS
 62
     7
100
AcDbLine
 10
460.4299173099065
 20
304.5000000000031
 30
0.0
 11
440.4992859413577
 21
304.5000000000031
 31
0.0
  0
LINE
  5
478
330
1F
100
AcDbEntity
  8
LAY-10
  6
CONTINUOUS
 62
     7
100
AcDbLine
 10
432.5687132896568
 20
311.5000000000031
 30
0.0
 11
435.0954225072937
 21
308.9732907823667
 31
0.0
  0
LINE
  5
479
330
1F
100
AcDbEntity
  8
LAY-10
  6
CONTINUOUS
 62
     7
100
AcDbLine
 10
428.7147481525679
 20
312.5000000000031
 30
0.0
 11
472.032814904795
 21
312.5000000000031
 31
0.0
  0
LINE
  5
47A
330
1F
100
AcDbEntity
  8
LAY-10
  6
CONTINUOUS
 62
     7
100
AcDbLine
 10
432.5687132896545
 20
312.3000000000028
 30
0.0
 11
429.209861114682
 21
312.3000000000028
 31
0.0
  0
LINE
  5
47B
330
1F
100
AcDbEntity
  8
LAY-10
  6
CONTINUOUS
 62
     7
100
AcDbLine
 10
461.302352439823
 20
299.7000000000033
 30
0.0
 11
446.2017107152677
 21
299.7000000000033
 31
0.0
  0
LINE
  5
47C
330
1F
100
AcDbEntity
  8
LAY-10
  6
CONTINUOUS
 62
     7
100
AcDbLine
 10
446.4393117475137
 20
299.5000000000031
 30
0.0
 11
461.410501222388
 21
299.5000000000031
 31
0.0
  0
ARC
  5
47D
330
1F
100
AcDbEntity
  8
LAY-10
  6
CONTINUOUS
 62
     7
100
AcDbCircle
 10
411.7408069232582
 20
289.501453143393
 30
0.0
 40
3.000000000000003
100
AcDbArc
 50
122.3805466599837
 51
178.9042067930203
  0
ARC
  5
47E
330
1F
100
AcDbEntity
  8
LAY-10
  6
CONTINUOUS
 62
     7
100
AcDbCircle
 10
409.7380622314507
 20
289.501453143393
 30
0.0
 40
3.000000000000003
100
AcDbArc
 50
113.3228522713271
 51
179.9999999999827
  0
LINE
  5
47F
330
1F
100
AcDbEntity
  8
LAY-10
  6
CONTINUOUS
 62
     7
100
AcDbLine
 10
483.0687132896581
 20
288.4999999999653
 30
0.0
 11
449.0182249653957
 21
288.4999999999653
 31
0.0
  0
ARC
  5
480
330
1F
100
AcDbEntity
  8
LAY-10
  6
CONTINUOUS
 62
     7
100
AcDbCircle
 10
411.0687132896581
 20
306.4999999999653
 30
0.0
 40
9.0
100
AcDbArc
 50
93.10946383100183
 51
150.8532788029523
  0
ARC
  5
481
330
1F
100
AcDbEntity
  8
LAY-10
  6
CONTINUOUS
 62
     7
100
AcDbCircle
 10
411.0687132896581
 20
306.4999999999653
 30
0.0
 40
8.0
100
AcDbArc
 50
90.00000000000004
 51
142.4383712475956
  0
LINE
  5
482
330
1F
100
AcDbEntity
  8
LAY-10
  6
CONTINUOUS
 62
     7
100
AcDbLine
 10
436.1144853390195
 20
179.7972425412962
 30
0.0
 11
450.842549809244
 21
186.0489405305801
 31
0.0
  0
LINE
  5
483
330
1F
100
AcDbEntity
  8
LAY-10
  6
CONTINUOUS
 62
     7
100
AcDbLine
 10
449.4568427449298
 20
296.960001777867
 30
0.0
 11
436.506850352412
 21
307.8606214175132
 31
0.0
  0
ARC
  5
484
330
1F
100
AcDbEntity
  8
LAY-10
  6
CONTINUOUS
 62
     7
100
AcDbCircle
 10
451.2068584583856
 20
177.5126912676459
 30
0.0
 40
5.0
100
AcDbArc
 50
293.0000141876055
 51
22.99999310703716
  0
ARC
  5
485
330
1F
100
AcDbEntity
  8
LAY-10
  6
CONTINUOUS
 62
     7
100
AcDbCircle
 10
507.9149425206296
 20
235.8646905454279
 30
0.0
 40
81.50000000089615
100
AcDbArc
 50
168.0283830428224
 51
176.2145846461199
  0
ARC
  5
486
330
1F
100
AcDbEntity
  8
LAY-10
  6
CONTINUOUS
 62
     7
100
AcDbCircle
 10
397.8056009876299
 20
232.8013792160386
 30
0.0
 40
29.99999999999758
100
AcDbArc
 50
16.34762774284236
 51
63.59178121239849
  0
ARC
  5
487
330
1F
100
AcDbEntity
  8
LAY-10
  6
CONTINUOUS
 62
     7
100
AcDbCircle
 10
507.9149473964097
 20
235.8646653911077
 30
0.0
 40
70.0
100
AcDbArc
 50
168.0000000000001
 51
202.9999931070376
  0
ARC
  5
488
330
1F
100
AcDbEntity
  8
LAY-10
  6
CONTINUOUS
 62
     7
100
AcDbCircle
 10
507.9149425198069
 20
235.8646905455334
 30
0.0
 40
93.00000000007175
100
AcDbArc
 50
184.2344659910644
 51
204.6544181207379
  0
ARC
  5
489
330
1F
100
AcDbEntity
  8
LAY-10
  6
CONTINUOUS
 62
     7
100
AcDbCircle
 10
470.1514956298283
 20
214.779705119446
 30
0.0
 40
49.99999999999616
100
AcDbArc
 50
200.7437149231528
 51
242.6461334567252
  0
ARC
  5
48A
330
1F
100
AcDbEntity
  8
LAY-10
  6
CONTINUOUS
 62
     7
100
AcDbCircle
 10
470.1514956298241
 20
214.7797051194397
 30
0.0
 40
48.80871599998838
100
AcDbArc
 50
225.7848080500128
 51
240.7806973799728
  0
LINE
  5
48B
330
1F
100
AcDbEntity
  8
LAY-10
  6
CONTINUOUS
 62
     7
100
AcDbLine
 10
455.8093829606821
 20
179.466346356386
 30
0.0
 11
443.4796043642585
 21
208.5134941487449
 31
0.0
  0
LINE
  5
48C
330
1F
100
AcDbEntity
  8
LAY-10
  6
CONTINUOUS
 62
     7
100
AcDbLine
 10
453.1605152405112
 20
172.9101674841485
 30
0.0
 11
447.1772564369846
 21
170.3704230546613
 31
0.0
  0
ARC
  5
48D
330
1F
100
AcDbEntity
  8
LAY-10
  6
CONTINUOUS
 62
     7
100
AcDbCircle
 10
411.0687132896645
 20
304.5000000000226
 30
0.0
 40
12.50000000000122
100
AcDbArc
 50
155.1564966942619
 51
266.0000224835172
  0
ARC
  5
48E
330
1F
100
AcDbEntity
  8
LAY-10
  6
CONTINUOUS
 62
     7
100
AcDbCircle
 10
411.0687132896659
 20
304.5000000000222
 30
0.0
 40
11.50000000000233
100
AcDbArc
 50
157.2944520074169
 51
266.0000146782562
  0
ARC
  5
48F
330
1F
100
AcDbEntity
  8
LAY-10
  6
CONTINUOUS
 62
     7
100
AcDbCircle
 10
418.4755450259507
 20
286.439325810214
 30
0.0
 40
6.000000000000005
100
AcDbArc
 50
348.0
 51
86.00001467825612
  0
ARC
  5
490
330
1F
100
AcDbEntity
  8
LAY-10
  6
CONTINUOUS
 62
     7
100
AcDbCircle
 10
418.4755465388174
 20
286.4393329276908
 30
0.0
 40
5.0
100
AcDbArc
 50
348.0
 51
86.00011960530635
  0
ARC
  5
491
330
1F
100
AcDbEntity
  8
LAY-10
  6
CONTINUOUS
 62
     7
100
AcDbCircle
 10
418.4755377933587
 20
286.4393290335855
 30
0.0
 40
28.00000000000002
100
AcDbArc
 50
49.91109848199921
 51
86.00009707710673
  0
ARC
  5
492
330
1F
100
AcDbEntity
  8
LAY-10
  6
CONTINUOUS
 62
     7
100
AcDbCircle
 10
418.4755394632811
 20
286.4393260371816
 30
0.0
 40
27.00000000000002
100
AcDbArc
 50
49.91109370787721
 51
86.00008161237726
  0
ARC
  5
493
330
1F
100
AcDbEntity
  8
LAY-10
  6
CONTINUOUS
 62
     7
100
AcDbCircle
 10
444.0253778078107
 20
296.3034763603981
 30
0.0
 40
3.000000000000003
100
AcDbArc
 50
286.3932291639509
 51
49.91109370787704
  0
ARC
  5
494
330
1F
100
AcDbEntity
  8
LAY-10
  6
CONTINUOUS
 62
     7
100
AcDbCircle
 10
449.1054834187188
 20
279.0352243648357
 30
0.0
 40
15.00000000000652
100
AcDbArc
 50
106.3932291639508
 51
168.0000000000001
  0
ARC
  5
495
330
1F
100
AcDbEntity
  8
LAY-10
  6
CONTINUOUS
 62
     7
100
AcDbCircle
 10
446.2369655022416
 20
293.1347709950227
 30
0.0
 40
5.0
100
AcDbArc
 50
320.8094534965074
 51
49.91109848199984
  0
ARC
  5
496
330
1F
100
AcDbEntity
  8
LAY-10
  6
CONTINUOUS
 62
     7
100
AcDbCircle
 10
465.6131844922496
 20
277.3372351856791
 30
0.0
 40
19.99999999992476
100
AcDbArc
 50
140.8094534965082
 51
168.0000000000001
  0
LINE
  5
497
330
1F
100
AcDbEntity
  8
LAY-10
  6
CONTINUOUS
 62
     7
100
AcDbLine
 10
428.1875287692645
 20
252.7700002634937
 30
0.0
 11
434.4332694077069
 21
282.1538997271031
 31
0.0
  0
LINE
  5
498
330
1F
100
AcDbEntity
  8
LAY-10
  6
CONTINUOUS
 62
     7
100
AcDbLine
 10
446.0502324776334
 20
281.4954690020217
 30
0.0
 11
439.444615345043
 21
250.4184837483507
 31
0.0
  0
LINE
  5
499
330
1F
100
AcDbEntity
  8
LAY-10
  6
CONTINUOUS
 62
     7
100
AcDbLine
 10
455.5250546717377
 20
175.7680550360368
 30
0.0
 11
455.1405770387967
 21
175.9233682791181
 31
0.0
  0
LINE
  5
49A
330
1F
100
AcDbEntity
  8
LAY-10
  6
CONTINUOUS
 62
     7
100
AcDbLine
 10
455.1405770387967
 20
175.9233682791181
 30
0.0
 11
446.3253396438893
 21
172.1815238378239
 31
0.0
  0
LINE
  5
49B
330
1F
100
AcDbEntity
  8
LAY-10
  6
CONTINUOUS
 62
     7
100
AcDbLine
 10
450.8425294488582
 20
186.0489318881017
 30
0.0
 11
455.1405770387967
 21
175.9233682791186
 31
0.0
  0
LINE
  5
49C
330
1F
100
AcDbEntity
  8
LAY-10
  6
CONTINUOUS
 62
     7
100
AcDbLine
 10
436.1144853390195
 20
179.7972425412962
 30
0.0
 11
433.4399818073283
 21
180.8346957302464
 31
0.0
  0
LINE
  5
49D
330
1F
100
AcDbEntity
  8
LAY-10
  6
CONTINUOUS
 62
     7
100
AcDbLine
 10
451.902075381631
 20
188.6713892394609
 30
0.0
 11
450.842549809244
 21
186.0489405305801
 31
0.0
  0
LINE
  5
49E
330
1F
100
AcDbEntity
  8
LAY-10
  6
CONTINUOUS
 62
     7
100
AcDbLine
 10
451.902075381631
 20
188.6713892394609
 30
0.0
 11
433.439981743378
 21
180.8346957031012
 31
0.0
  0
LINE
  5
49F
330
1F
100
AcDbEntity
  8
LAY-10
  6
CONTINUOUS
 62
     7
100
AcDbLine
 10
411.148488778981
 20
259.6708202040908
 30
0.0
 11
409.9537260775095
 21
260.7763579282959
 31
0.0
  0
LINE
  5
4A0
330
1F
100
AcDbEntity
  8
LAY-10
  6
CONTINUOUS
 62
     7
100
AcDbLine
 10
409.9537053542989
 20
260.7763545274637
 30
0.0
 11
415.1688101335452
 21
228.9977459991486
 31
0.0
  0
LINE
  5
4A1
330
1F
100
AcDbEntity
  8
LAY-10
  6
CONTINUOUS
 62
     7
100
AcDbLine
 10
413.1924248263261
 20
241.0409891625822
 30
0.0
 11
411.1484892441757
 21
259.6708159639855
 31
0.0
  0
LINE
  5
4A2
330
1F
100
AcDbEntity
  8
LAY-10
  6
CONTINUOUS
 62
     7
100
AcDbLine
 10
418.7813932844891
 20
259.0198226678007
 30
0.0
 11
417.9867838870586
 21
260.0912137161184
 31
0.0
  0
LINE
  5
4A3
330
1F
100
AcDbEntity
  8
LAY-10
  6
CONTINUOUS
 62
     7
100
AcDbLine
 10
418.7813925466489
 20
259.019814016788
 30
0.0
 11
411.1485107845564
 21
259.670818327247
 31
0.0
  0
LINE
  5
4A4
330
1F
100
AcDbEntity
  8
LAY-10
  6
CONTINUOUS
 62
     7
100
AcDbLine
 10
417.9867839924654
 20
260.0912149519789
 30
0.0
 11
409.9537044940979
 21
260.7763597691545
 31
0.0
  0
LINE
  5
4A5
330
1F
100
AcDbEntity
  8
LAY-10
  6
CONTINUOUS
 62
     7
100
AcDbLine
 10
423.3662845424864
 20
285.399774473602
 30
0.0
 11
417.9867838870586
 21
260.0912137161184
 31
0.0
  0
LINE
  5
4A6
330
1F
100
AcDbEntity
  8
LAY-10
  6
CONTINUOUS
 62
     7
100
AcDbLine
 10
424.3444306303539
 20
285.1918556653076
 30
0.0
 11
418.7813914652642
 21
259.019814109019
 31
0.0
  0
LINE
  5
4A7
330
1F
100
AcDbEntity
  8
LAY-10
  6
CONTINUOUS
 62
     7
100
AcDbLine
 10
418.8243184954302
 20
291.4271539070645
 30
0.0
 11
410.1967823043786
 21
292.0304319097331
 31
0.0
  0
LINE
  5
4A8
330
1F
100
AcDbEntity
  8
LAY-10
  6
CONTINUOUS
 62
     7
100
AcDbLine
 10
418.8940823350566
 20
292.4247102189955
 30
0.0
 11
410.2665162889529
 21
293.0280061863809
 31
0.0
  0
LINE
  5
4A9
330
1F
100
AcDbEntity
  8
LAY-10
  6
CONTINUOUS
 62
     7
100
AcDbLine
 10
420.4286717329309
 20
314.3711257501249
 30
0.0
 11
415.0910570375698
 21
314.744359041333
 31
0.0
  0
LINE
  5
4AA
330
1F
100
AcDbEntity
  8
LAY-10
  6
CONTINUOUS
 62
     7
100
AcDbLine
 10
420.3589258891279
 20
313.3735580769284
 30
0.0
 11
415.2152083092537
 21
313.733234486266
 31
0.0
  0
LINE
  5
4AB
330
1F
100
AcDbEntity
  8
LAY-10
  6
CONTINUOUS
 62
     7
100
AcDbLine
 10
415.2152076516148
 20
313.7332357180534
 30
0.0
 11
415.0910570704553
 21
314.7443595116264
 31
0.0
  0
LINE
  5
4AC
330
1F
100
AcDbEntity
  8
LAY-10
  6
CONTINUOUS
 62
     7
100
AcDbLine
 10
400.4599486687979
 20
308.9389538096515
 30
0.0
 11
399.725479076781
 21
309.7517651881934
 31
0.0
  0
LINE
  5
4AD
330
1F
100
AcDbEntity
  8
LAY-10
  6
CONTINUOUS
 62
     7
100
AcDbLine
 10
415.0910570704553
 20
314.7443595116264
 30
0.0
 11
399.7254679269017
 21
309.7517775273681
 31
0.0
  0
LINE
  5
4AE
330
1F
100
AcDbEntity
  8
LAY-10
  6
CONTINUOUS
 62
     7
100
AcDbLine
 10
400.4599550376701
 20
308.9389467614468
 30
0.0
 11
415.215201498323
 21
313.7332349625229
 31
0.0
  0
CIRCLE
  5
4AF
330
1F
100
AcDbEntity
  8
LAY-10
  6
CONTINUOUS
 62
     7
100
AcDbCircle
 10
411.0687132896632
 20
304.5000000000222
 30
0.0
 40
6.750000000000004
  0
CIRCLE
  5
4B0
330
1F
100
AcDbEntity
  8
LAY-10
  6
CONTINUOUS
 62
     7
100
AcDbCircle
 10
411.0687132896632
 20
304.5000000000222
 30
0.0
 40
5.750000000000004
  0
LINE
  5
4B1
330
1F
100
AcDbEntity
  8
LAY-10
  6
CONTINUOUS
 62
     7
100
AcDbLine
 10
445.9573043446643
 20
298.5986146691288
 30
0.0
 11
435.8628782949612
 21
307.0955708157552
 31
0.0
  0
ARC
  5
4B2
330
1F
100
AcDbEntity
  8
LAY-10
  6
CONTINUOUS
 62
     7
100
AcDbCircle
 10
465.5065354631669
 20
305.4999999999653
 30
0.0
 40
9.0
100
AcDbArc
 50
51.05755873139794
 51
90.00000000000004
  0
LINE
  5
4B3
330
1F
100
AcDbEntity
  8
LAY-10
  6
CONTINUOUS
 62
     7
100
AcDbLine
 10
433.0687132896595
 20
311.707106781187
 30
0.0
 11
433.0687132896595
 21
312.5000000000031
 31
0.0
  0
LINE
  5
4B4
330
1F
100
AcDbEntity
  8
LAY-10
  6
CONTINUOUS
 62
     7
100
AcDbLine
 10
468.0687132896595
 20
311.9852813742467
 30
0.0
 11
468.0687132896595
 21
312.5000000000031
 31
0.0
  0
LINE
  5
4B5
330
1F
100
AcDbEntity
  8
LAY-10
  6
CONTINUOUS
 62
     7
100
AcDbLine
 10
468.5687132896595
 20
311.700000000007
 30
0.0
 11
468.5687132896595
 21
312.5000000000067
 31
0.0
  0
LINE
  5
4B6
330
1F
100
AcDbEntity
  8
LAY-10
  6
CONTINUOUS
 62
     7
100
AcDbLine
 10
432.5687132896596
 20
311.5000000000067
 30
0.0
 11
432.5687132896596
 21
312.3000000000069
 31
0.0
  0
ARC
  5
4B7
330
1F
100
AcDbEntity
  8
LAY-10
  6
CONTINUOUS
 62
     7
100
AcDbCircle
 10
468.5687132896568
 20
303.5000000000031
 30
0.0
 40
8.200000000000006
100
AcDbArc
 50
172.9952735909237
 51
90.00000000000004
  0
ARC
  5
4B8
330
1F
100
AcDbEntity
  8
LAY-10
  6
CONTINUOUS
 62
     7
100
AcDbCircle
 10
468.5687132896568
 20
303.5000000000031
 30
0.0
 40
8.5
100
AcDbArc
 50
93.37228668343238
 51
169.8357513782776
  0
LINE
  5
4B9
330
1F
100
AcDbEntity
  8
LAY-10
  6
CONTINUOUS
 62
     7
100
AcDbLine
 10
472.032814904795
 20
312.5000000000031
 30
0.0
 11
473.4063453726152
 21
310.1209754439941
 31
0.0
  0
LINE
  5
4BA
330
1F
100
AcDbEntity
  8
LAY-10
  6
CONTINUOUS
 62
     7
100
AcDbLine
 10
433.0687132896568
 20
311.7071067811897
 30
0.0
 11
432.5687132896568
 21
311.5000000000031
 31
0.0
  0
LINE
  5
4BB
330
1F
100
AcDbEntity
  8
LAY-10
  6
CONTINUOUS
 62
     7
100
AcDbLine
 10
474.4288185219315
 20
303.6500000000032
 30
0.0
 11
471.6286697163617
 21
308.5000000000031
 31
0.0
  0
LINE
  5
4BC
330
1F
100
AcDbEntity
  8
LAY-10
  6
CONTINUOUS
 62
     7
100
AcDbLine
 10
465.5087568629518
 20
298.5000000000031
 30
0.0
 11
462.7086080573821
 21
303.3500000000034
 31
0.0
  0
LINE
  5
4BD
330
1F
100
AcDbEntity
  8
LAY-10
  6
CONTINUOUS
 62
     7
100
AcDbLine
 10
439.7758200708435
 20
305.0000000000031
 30
0.0
 11
433.0687132896568
 21
311.7071067811897
 31
0.0
  0
LINE
  5
4BE
330
1F
100
AcDbEntity
  8
LAY-10
  6
CONTINUOUS
 62
     7
100
AcDbLine
 10
460.202113024316
 20
305.0000000000031
 30
0.0
 11
439.7758200708435
 21
305.0000000000031
 31
0.0
  0
ARC
  5
4BF
330
1F
100
AcDbEntity
  8
LAY-10
  6
CONTINUOUS
 62
     7
100
AcDbCircle
 10
476.3052068967986
 20
294.7000000000029
 30
0.0
 40
5.200000000000006
100
AcDbArc
 50
270.0000000000002
 51
29.99999999999881
  0
LINE
  5
4C0
330
1F
100
AcDbEntity
  8
LAY-10
  6
CONTINUOUS
 62
     7
100
AcDbLine
 10
476.7214622634655
 20
304.379024556012
 30
0.0
 11
480.8085389964775
 21
297.3000000000033
 31
0.0
  0
LINE
  5
4C1
330
1F
100
AcDbEntity
  8
LAY-10
  6
CONTINUOUS
 62
     7
100
AcDbLine
 10
465.4390481150484
 20
295.9207390931045
 30
0.0
 11
469.1460635588468
 21
289.5000000000031
 31
0.0
  0
LINE
  5
4C2
330
1F
100
AcDbEntity
  8
LAY-10
  6
CONTINUOUS
 62
     7
100
AcDbLine
 10
476.3052068967986
 20
289.5000000000031
 30
0.0
 11
469.1460635588468
 21
289.5000000000031
 31
0.0
  0
LINE
  5
4C3
330
1F
100
AcDbEntity
  8
LAY-10
  6
CONTINUOUS
 62
     7
100
AcDbLine
 10
462.7086080573821
 20
303.3500000000034
 30
0.0
 11
465.6819619437087
 21
308.5000000000031
 31
0.0
  0
LINE
  5
4C4
330
1F
100
AcDbEntity
  8
LAY-10
  6
CONTINUOUS
 62
     7
100
AcDbLine
 10
465.5087568629518
 20
298.5000000000031
 30
0.0
 11
471.4554646356045
 21
298.5000000000031
 31
0.0
  0
LINE
  5
4C5
330
1F
100
AcDbEntity
  8
LAY-10
  6
CONTINUOUS
 62
     7
100
AcDbLine
 10
471.4554646356045
 20
298.5000000000031
 30
0.0
 11
474.4288185219315
 21
303.6500000000032
 31
0.0
  0
LINE
  5
4C6
330
1F
100
AcDbEntity
  8
LAY-10
  6
CONTINUOUS
 62
     7
100
AcDbLine
 10
471.6286697163617
 20
308.5000000000031
 30
0.0
 11
465.6819619437082
 21
308.5000000000031
 31
0.0
  0
CIRCLE
  5
4C7
330
1F
100
AcDbEntity
  8
LAY-10
  6
CONTINUOUS
 62
     7
100
AcDbCircle
 10
468.5687132896568
 20
303.5000000000031
 30
0.0
 40
8.0
  0
LINE
  5
4C8
330
1F
100
AcDbEntity
  8
LAY-10
  6
CONTINUOUS
 62
     7
100
AcDbLine
 10
625.8012444102995
 20
315.499999999999
 30
0.0
 11
772.3361821690395
 21
315.499999999999
 31
0.0
  0
LINE
  5
4C9
330
1F
100
AcDbEntity
  8
LAY-10
  6
CONTINUOUS
 62
     7
100
AcDbLine
 10
493.4853799563351
 20
316.499999999999
 30
0.0
 11
592.3115920051058
 21
316.499999999999
 31
0.0
  0
ARC
  5
4CA
330
1F
100
AcDbEntity
  8
LAY-10
  6
CONTINUOUS
 62
     7
100
AcDbCircle
 10
805.8258345742331
 20
306.4999999999989
 30
0.0
 40
10.0
100
AcDbArc
 50
89.99999999999969
 51
178.5913712646614
  0
LINE
  5
4CB
330
1F
100
AcDbEntity
  8
LAY-10
  6
CONTINUOUS
 62
     7
100
AcDbLine
 10
493.0687132896591
 20
285.3958417118087
 30
0.0
 11
457.5880216999757
 21
288.4999999999653
 31
0.0
  0
ARC
  5
4CC
330
1F
100
AcDbEntity
  8
LAY-10
  6
CONTINUOUS
 62
     7
100
AcDbCircle
 10
409.7353194200258
 20
289.4491171871477
 30
0.0
 40
1.0
100
AcDbArc
 50
173.701513402257
 51
177.0000000000076
  0
ARC
  5
4CD
330
1F
100
AcDbEntity
  8
LAY-10
  6
CONTINUOUS
 62
     7
100
AcDbCircle
 10
493.4853799563351
 20
313.499999999999
 30
0.0
 40
3.000000000000003
100
AcDbArc
 50
90.00000000000004
 51
163.7397952916875
  0
LINE
  5
4CE
330
1F
100
AcDbEntity
  8
LAY-10
  6
CONTINUOUS
 62
     7
100
AcDbLine
 10
490.6053799563341
 20
314.3399999999991
 30
0.0
 11
483.0687132896581
 21
288.4999999999653
 31
0.0
  0
LINE
  5
4CF
330
1F
100
AcDbEntity
  8
LAY-10
  6
CONTINUOUS
 62
     7
100
AcDbLine
 10
403.4741216366818
 20
319.4999999999653
 30
0.0
 11
402.4741216366818
 21
316.4999999999653
 31
0.0
  0
LINE
  5
4D0
330
1F
100
AcDbEntity
  8
LAY-10
  6
CONTINUOUS
 62
     7
100
AcDbLine
 10
403.4741216366818
 20
319.4999999999653
 30
0.0
 11
416.0687132896581
 21
319.4999999999653
 31
0.0
  0
ARC
  5
4D1
330
1F
100
AcDbEntity
  8
LAY-10
  6
CONTINUOUS
 62
     7
100
AcDbCircle
 10
465.7952105977619
 20
304.9999999999653
 30
0.0
 40
10.0
100
AcDbArc
 50
29.99999999999978
 51
90.00000000000004
  0
LINE
  5
4D2
330
1F
100
AcDbEntity
  8
LAY-10
  6
CONTINUOUS
 62
     7
100
AcDbLine
 10
416.0687132896581
 20
319.4999999999653
 30
0.0
 11
421.0687132896581
 21
314.9999999999653
 31
0.0
  0
LINE
  5
4D3
330
1F
100
AcDbEntity
  8
LAY-10
  6
CONTINUOUS
 62
     7
100
AcDbLine
 10
402.4741216366818
 20
316.4999999999653
 30
0.0
 11
394.4741216366819
 21
316.4999999999653
 31
0.0
  0
LINE
  5
4D4
330
1F
100
AcDbEntity
  8
LAY-10
  6
CONTINUOUS
 62
     7
100
AcDbLine
 10
411.0687132896581
 20
314.4999999999653
 30
0.0
 11
465.5065354631669
 21
314.4999999999653
 31
0.0
  0
LINE
  5
4D5
330
1F
100
AcDbEntity
  8
LAY-10
  6
CONTINUOUS
 62
     7
100
AcDbLine
 10
410.5805195796928
 20
315.4867495180923
 30
0.0
 11
420.5278804917397
 21
315.4867495180923
 31
0.0
  0
LINE
  5
4D6
330
1F
100
AcDbEntity
  8
LAY-10
  6
CONTINUOUS
 62
     7
100
AcDbLine
 10
465.7952105977619
 20
314.9999999999653
 30
0.0
 11
421.0687132896581
 21
314.9999999999653
 31
0.0
  0
LINE
  5
4D7
330
1F
100
AcDbEntity
  8
LAY-10
  6
CONTINUOUS
 62
     7
100
AcDbLine
 10
474.4554646356063
 20
309.9999999999653
 30
0.0
 11
478.7855916545286
 21
302.4999999999653
 31
0.0
  0
LINE
  5
4D8
330
1F
100
AcDbEntity
  8
LAY-10
  6
CONTINUOUS
 62
     7
100
AcDbLine
 10
478.7855916545286
 20
302.4999999999653
 30
0.0
 11
487.1520466229912
 21
302.4999999999653
 31
0.0
  0
LINE
  5
4D9
330
1F
100
AcDbEntity
  8
LAY-10
  6
CONTINUOUS
 62
     7
100
AcDbLine
 10
397.850820815669
 20
292.4722573496137
 30
0.0
 11
401.2683401185694
 21
289.5014531433944
 31
0.0
  0
LINE
  5
4DA
330
1F
100
AcDbEntity
  8
LAY-10
  6
CONTINUOUS
 62
     7
100
AcDbLine
 10
401.2683401185694
 20
289.5014531433944
 30
0.0
 11
408.7391365101138
 21
289.5014531433944
 31
0.0
  0
LINE
  5
4DB
330
1F
100
AcDbEntity
  8
LAY-10
  6
CONTINUOUS
 62
     7
100
AcDbLine
 10
488.6238085799036
 20
278.9999999999371
 30
0.0
 11
447.078969366264
 21
284.8527437952597
 31
0.0
  0
LINE
  5
4DC
330
1F
100
AcDbEntity
  8
LAY-10
  6
CONTINUOUS
 62
     7
100
AcDbLine
 10
401.4795354257579
 20
287.9999999999968
 30
0.0
 11
424.7386350611067
 21
287.9999999999967
 31
0.0
  0
LINE
  5
4DD
330
1F
100
AcDbEntity
  8
LAY-10
  6
CONTINUOUS
 62
     7
100
AcDbLine
 10
442.3314557417647
 20
264.0000000000254
 30
0.0
 11
491.0687132897032
 21
264.0000000000254
 31
0.0
  0
LINE
  5
4DE
330
1F
100
AcDbEntity
  8
LAY-10
  6
CONTINUOUS
 62
     7
100
AcDbLine
 10
440.1862422071021
 20
253.9075638135913
 30
0.0
 11
440.7562132895632
 21
254.0000000000367
 31
0.0
  0
LINE
  5
4DF
330
1F
100
AcDbEntity
  8
LAY-10
  6
CONTINUOUS
 62
     7
100
AcDbLine
 10
404.6944498897368
 20
248.1516122699567
 30
0.0
 11
411.8354648396624
 21
249.3097204786549
 31
0.0
  0
LINE
  5
4E0
330
1F
100
AcDbEntity
  8
LAY-10
  6
CONTINUOUS
 62
     7
100
AcDbLine
 10
485.4067252539893
 20
282.9999999999972
 30
0.0
 11
485.4067252539893
 21
286.066178805001
 31
0.0
  0
LINE
  5
4E1
330
1F
100
AcDbEntity
  8
LAY-10
  6
CONTINUOUS
 62
     7
100
AcDbLine
 10
481.1939054365897
 20
282.9999999999972
 30
0.0
 11
481.1939054365897
 21
286.4347527805011
 31
0.0
  0
LINE
  5
4E2
330
1F
100
AcDbEntity
  8
LAY-10
  6
CONTINUOUS
 62
     7
100
AcDbLine
 10
448.6926216614351
 20
287.9999999999967
 30
0.0
 11
463.303047850998
 21
287.9999999999967
 31
0.0
  0
LINE
  5
4E3
330
1F
100
AcDbEntity
  8
LAY-10
  6
CONTINUOUS
 62
     7
100
AcDbLine
 10
399.3277140319464
 20
216.4999999999967
 30
0.0
 11
416.9533640369717
 21
216.4999999999967
 31
0.0
  0
LINE
  5
4E4
330
1F
100
AcDbEntity
  8
LAY-10
  6
CONTINUOUS
 62
     7
100
AcDbLine
 10
407.9917318962492
 20
264.0000000000254
 30
0.0
 11
418.8176220598688
 21
264.0000000000254
 31
0.0
  0
LINE
  5
4E5
330
1F
100
AcDbEntity
  8
LAY-10
  6
CONTINUOUS
 62
     7
100
AcDbLine
 10
605.5201375465898
 20
260.5000000000302
 30
0.0
 11
493.0687132896699
 21
285.3958417118404
 31
0.0
  0
LINE
  5
4E6
330
1F
100
AcDbEntity
  8
LAY-10
  6
CONTINUOUS
 62
     7
100
AcDbLine
 10
602.3085699947383
 20
306.7458273276459
 30
0.0
 11
603.5207419486678
 21
262.45083453451
 31
0.0
  0
LINE
  5
4E7
330
1F
100
AcDbEntity
  8
LAY-10
  6
CONTINUOUS
 62
     7
100
AcDbLine
 10
615.8042664206878
 20
305.7458273276462
 30
0.0
 11
614.6166846306928
 21
262.45083453451
 31
0.0
  0
ARC
  5
4E8
330
1F
100
AcDbEntity
  8
LAY-10
  6
CONTINUOUS
 62
     7
100
AcDbCircle
 10
612.617289032768
 20
262.5000000000329
 30
0.0
 40
2.0
100
AcDbArc
 50
270.0000000000002
 51
358.5913712646621
  0
ARC
  5
4E9
330
1F
100
AcDbEntity
  8
LAY-10
  6
CONTINUOUS
 62
     7
100
AcDbCircle
 10
605.5201375465927
 20
262.5000000000329
 30
0.0
 40
2.0
100
AcDbArc
 50
181.4086287353381
 51
270.0000000000002
  0
LINE
  5
4EA
330
1F
100
AcDbEntity
  8
LAY-10
  6
CONTINUOUS
 62
     7
100
AcDbLine
 10
792.6172890327698
 20
260.5000000000332
 30
0.0
 11
605.5201375465898
 21
260.5000000000333
 31
0.0
  0
LINE
  5
4EB
330
1F
100
AcDbEntity
  8
LAY-10
  6
CONTINUOUS
 62
     7
100
AcDbLine
 10
795.8288565846209
 20
306.7458273276458
 30
0.0
 11
794.6166846306912
 21
262.4508345345099
 31
0.0
  0
LINE
  5
4EC
330
1F
100
AcDbEntity
  8
LAY-10
  6
CONTINUOUS
 62
     7
100
AcDbLine
 10
782.3331601586713
 20
305.7458273276462
 30
0.0
 11
783.5207419486662
 21
262.4508345345099
 31
0.0
  0
ARC
  5
4ED
330
1F
100
AcDbEntity
  8
LAY-10
  6
CONTINUOUS
 62
     7
100
AcDbCircle
 10
792.6172890327664
 20
262.5000000000327
 30
0.0
 40
2.0
100
AcDbArc
 50
270.0000000000002
 51
358.5913712646621
  0
ARC
  5
4EE
330
1F
100
AcDbEntity
  8
LAY-10
  6
CONTINUOUS
 62
     7
100
AcDbCircle
 10
785.5201375465911
 20
262.5000000000327
 30
0.0
 40
2.0
100
AcDbArc
 50
181.4086287353381
 51
270.0000000000002
  0
ARC
  5
4EF
330
1F
100
AcDbEntity
  8
LAY-10
  6
CONTINUOUS
 62
     7
100
AcDbCircle
 10
772.3361821690489
 20
305.5000000000325
 30
0.0
 40
10.0
100
AcDbArc
 50
1.40862873533835
 51
89.99999999999969
  0
ARC
  5
4F0
330
1F
100
AcDbEntity
  8
LAY-10
  6
CONTINUOUS
 62
     7
100
AcDbCircle
 10
625.8012444103101
 20
305.5000000000325
 30
0.0
 40
10.0
100
AcDbArc
 50
90.00000000000004
 51
178.5913712646612
  0
ARC
  5
4F1
330
1F
100
AcDbEntity
  8
LAY-10
  6
CONTINUOUS
 62
     7
100
AcDbCircle
 10
592.3115920051159
 20
306.5000000000325
 30
0.0
 40
10.0
100
AcDbArc
 50
1.408628735338522
 51
90.00000000000004
  0
ARC
  5
4F2
330
1F
100
AcDbEntity
  8
LAY-10
  6
CONTINUOUS
 62
     7
100
AcDbCircle
 10
910.9795059068485
 20
284.0000000000219
 30
0.0
 40
10.0
100
AcDbArc
 50
30.00000000000156
 51
90.00000000000004
  0
ARC
  5
4F3
330
1F
100
AcDbEntity
  8
LAY-10
  6
CONTINUOUS
 62
     7
100
AcDbCircle
 10
904.8177068118869
 20
289.0000000000242
 30
0.0
 40
3.000000000000003
100
AcDbArc
 50
184.9999999999997
 51
270.0000000000002
  0
LINE
  5
4F4
330
1F
100
AcDbEntity
  8
LAY-10
  6
CONTINUOUS
 62
     7
100
AcDbLine
 10
893.0891397082645
 20
316.5000000000301
 30
0.0
 11
893.0891397082645
 21
319.4999999999987
 31
0.0
  0
LINE
  5
4F5
330
1F
100
AcDbEntity
  8
LAY-10
  6
CONTINUOUS
 62
     7
100
AcDbLine
 10
893.0891397082645
 20
319.4999999999987
 30
0.0
 11
959.3687132896697
 21
319.4999999999987
 31
0.0
  0
LINE
  5
4F6
330
1F
100
AcDbEntity
  8
LAY-10
  6
HIDDEN
 62
     4
100
AcDbLine
 10
950.3138977311863
 20
294.8708348754232
 30
0.0
 11
950.0705716386223
 21
294.7303504903804
 31
0.0
  0
ARC
  5
4F7
330
1F
100
AcDbEntity
  8
LAY-10
  6
CONTINUOUS
 62
     7
100
AcDbCircle
 10
963.9886414550108
 20
231.4999999999987
 30
0.0
 40
10.0
100
AcDbArc
 50
194.7435628365228
 51
270.0000000000002
  0
LINE
  5
4F8
330
1F
100
AcDbEntity
  8
LAY-10
  6
CONTINUOUS
 62
     7
100
AcDbLine
 10
944.2942471388056
 20
267.0449329926615
 30
0.0
 11
954.3178960823866
 21
228.9550670071934
 31
0.0
  0
LINE
  5
4F9
330
1F
100
AcDbEntity
  8
LAY-10
  6
CONTINUOUS
 62
     7
100
AcDbLine
 10
972.1164440809134
 20
221.4999999999987
 30
0.0
 11
963.9886414550108
 21
221.4999999999987
 31
0.0
  0
LINE
  5
4FA
330
1F
100
AcDbEntity
  8
LAY-10
  6
CONTINUOUS
 62
     7
100
AcDbLine
 10
816.6081510051854
 20
264.4402702921368
 30
0.0
 11
898.3975601432942
 21
264.4402702921368
 31
0.0
  0
LINE
  5
4FB
330
1F
100
AcDbEntity
  8
LAY-10
  6
CONTINUOUS
 62
     7
100
AcDbLine
 10
780.3096496358723
 20
257.9999999999866
 30
0.0
 11
779.8570844794087
 21
260.5000000000332
 31
0.0
  0
LINE
  5
4FC
330
1F
100
AcDbEntity
  8
LAY-10
  6
CONTINUOUS
 62
     7
100
AcDbLine
 10
783.6680938845175
 20
260.5000000000332
 30
0.0
 11
782.7687635107725
 21
257.9999999999866
 31
0.0
  0
LINE
  5
4FD
330
1F
100
AcDbEntity
  8
LAY-10
  6
CONTINUOUS
 62
     7
100
AcDbLine
 10
770.6503913729723
 20
257.9999999999866
 30
0.0
 11
770.1978262165503
 21
260.5000000000332
 31
0.0
  0
LINE
  5
4FE
330
1F
100
AcDbEntity
  8
LAY-10
  6
CONTINUOUS
 62
     7
100
AcDbLine
 10
627.4870352063894
 20
257.9999999999867
 30
0.0
 11
627.9396003628117
 21
260.5000000000333
 31
0.0
  0
LINE
  5
4FF
330
1F
100
AcDbEntity
  8
LAY-10
  6
CONTINUOUS
 62
     7
100
AcDbLine
 10
614.4693326948449
 20
260.5000000000333
 30
0.0
 11
615.3686630685901
 21
257.9999999999867
 31
0.0
  0
LINE
  5
500
330
1F
100
AcDbEntity
  8
LAY-10
  6
CONTINUOUS
 62
     7
100
AcDbLine
 10
617.8277769434893
 20
257.9999999999867
 30
0.0
 11
618.2803420999534
 21
260.5000000000333
 31
0.0
  0
LINE
  5
501
330
1F
100
AcDbEntity
  8
LAY-10
  6
CONTINUOUS
 62
     7
100
AcDbLine
 10
500.7363914652545
 20
264.4402702921369
 30
0.0
 11
587.7224261282033
 21
264.4402702921369
 31
0.0
  0
LINE
  5
502
330
1F
100
AcDbEntity
  8
LAY-10
  6
CONTINUOUS
 62
     7
100
AcDbLine
 10
500.1324073444889
 20
277.9999999999967
 30
0.0
 11
526.4748115330175
 21
277.9999999999967
 31
0.0
  0
LINE
  5
503
330
1F
100
AcDbEntity
  8
LAY-10
  6
CONTINUOUS
 62
     7
100
AcDbLine
 10
499.9537674784901
 20
282.9999999999972
 30
0.0
 11
503.8904326719515
 21
282.9999999999972
 31
0.0
  0
LINE
  5
504
330
1F
100
AcDbEntity
  8
LAY-10
  6
CONTINUOUS
 62
     7
100
AcDbLine
 10
499.8819000461512
 20
283.8874569122418
 30
0.0
 11
499.9537674784901
 21
282.9999999999967
 31
0.0
  0
LINE
  5
505
330
1F
100
AcDbEntity
  8
LAY-10
  6
CONTINUOUS
 62
     7
100
AcDbLine
 10
440.6467548066702
 20
216.4999999999967
 30
0.0
 11
999.0687132896799
 21
216.4999999999966
 31
0.0
  0
LINE
  5
506
330
1F
100
AcDbEntity
  8
LAY-10
  6
CONTINUOUS
 62
     7
100
AcDbLine
 10
899.6398996245165
 20
313.7614672282727
 30
0.0
 11
901.8291227176117
 21
288.7385327717813
 31
0.0
  0
ARC
  5
507
330
1F
100
AcDbEntity
  8
LAY-10
  6
CONTINUOUS
 62
     7
100
AcDbCircle
 10
896.6513155302412
 20
313.5000000000298
 30
0.0
 40
3.000000000000003
100
AcDbArc
 50
4.999999999999743
 51
89.99999999999349
  0
LINE
  5
508
330
1F
100
AcDbEntity
  8
LAY-10
  6
CONTINUOUS
 62
     7
100
AcDbLine
 10
865.8626378453346
 20
273.5000000000609
 30
0.0
 11
842.7225637574334
 21
273.5000000000609
 31
0.0
  0
LINE
  5
509
330
1F
100
AcDbEntity
  8
LAY-10
  6
CONTINUOUS
 62
     7
100
AcDbLine
 10
865.6531132283152
 20
267.5000000000607
 30
0.0
 11
840.9531132283203
 21
267.5000000000607
 31
0.0
  0
ARC
  5
50A
330
1F
100
AcDbEntity
  8
LAY-10
  6
CONTINUOUS
 62
     7
100
AcDbCircle
 10
840.9531132283203
 20
273.5000000000607
 30
0.0
 40
6.000000000000005
100
AcDbArc
 50
187.0000000000061
 51
270.0000000000002
  0
ARC
  5
50B
330
1F
100
AcDbEntity
  8
LAY-10
  6
CONTINUOUS
 62
     7
100
AcDbCircle
 10
842.6675906013268
 20
275.5000000000608
 30
0.0
 40
2.0
100
AcDbArc
 50
180.0
 51
270.0000000000002
  0
LINE
  5
50C
330
1F
100
AcDbEntity
  8
LAY-10
  6
CONTINUOUS
 62
     7
100
AcDbLine
 10
840.6675906013269
 20
314.5000000000553
 30
0.0
 11
840.6675906013268
 21
275.5000000000608
 31
0.0
  0
ARC
  5
50D
330
1F
100
AcDbEntity
  8
LAY-10
  6
CONTINUOUS
 62
     7
100
AcDbCircle
 10
842.667590601327
 20
314.5000000000553
 30
0.0
 40
2.0
100
AcDbArc
 50
90.00000000000004
 51
180.0
  0
ARC
  5
50E
330
1F
100
AcDbEntity
  8
LAY-10
  6
CONTINUOUS
 62
     7
100
AcDbCircle
 10
827.9465218096065
 20
311.5000000000554
 30
0.0
 40
5.0
100
AcDbArc
 50
2.999999999999033
 51
90.00000000000004
  0
LINE
  5
50F
330
1F
100
AcDbEntity
  8
LAY-10
  6
CONTINUOUS
 62
     7
100
AcDbLine
 10
832.9396694833794
 20
311.7616797812699
 30
0.0
 11
834.9832406503558
 21
272.7680190130765
 31
0.0
  0
LINE
  5
510
330
1F
100
AcDbEntity
  8
LAY-10
  6
CONTINUOUS
 62
     7
100
AcDbLine
 10
838.4421419771871
 20
268.05068597204
 30
0.0
 11
792.9806182897621
 21
260.5332789087208
 31
0.0
  0
LINE
  5
511
330
1F
100
AcDbEntity
  8
LAY-10
  6
CONTINUOUS
 62
     7
100
AcDbLine
 10
805.8258345742399
 20
316.5000000000393
 30
0.0
 11
827.946521809607
 21
316.500000000037
 31
0.0
  0
LINE
  5
512
330
1F
100
AcDbEntity
  8
LAY-10
  6
CONTINUOUS
 62
     7
100
AcDbLine
 10
842.6675906013271
 20
316.5000000000354
 30
0.0
 11
945.7966091275906
 21
316.5000000000246
 31
0.0
  0
LINE
  5
513
330
1F
100
AcDbEntity
  8
LAY-10
  6
CONTINUOUS
 62
     7
100
AcDbLine
 10
997.8684694012852
 20
244.085119613396
 30
0.0
 11
998.8946710661696
 21
220.4999999999966
 31
0.0
  0
ARC
  5
514
330
1F
100
AcDbEntity
  8
LAY-10
  6
CONTINUOUS
 62
     7
100
AcDbCircle
 10
972.1164440809134
 20
231.4999999999987
 30
0.0
 40
10.0
100
AcDbArc
 50
270.0000000000002
 51
344.3779229902971
  0
LINE
  5
515
330
1F
100
AcDbEntity
  8
LAY-10
  6
CONTINUOUS
 62
     7
100
AcDbLine
 10
988.6578911536238
 20
287.9999999999943
 30
0.0
 11
994.7583834943274
 21
287.9999999999943
 31
0.0
  0
LINE
  5
516
330
1F
100
AcDbEntity
  8
LAY-10
  6
CONTINUOUS
 62
     7
100
AcDbLine
 10
1013.400359523289
 20
307.499999999998
 30
0.0
 11
1013.068713289653
 21
326.4999999999834
 31
0.0
  0
LINE
  5
517
330
1F
100
AcDbEntity
  8
LAY-10
  6
CONTINUOUS
 62
     7
100
AcDbLine
 10
1012.068713289694
 20
291.000000000028
 30
0.0
 11
1003.06871328969
 21
280.5000000000375
 31
0.0
  0
LINE
  5
518
330
1F
100
AcDbEntity
  8
LAY-10
  6
CONTINUOUS
 62
     7
100
AcDbLine
 10
1021.068713289694
 20
291.000000000028
 30
0.0
 11
1012.068713289694
 21
291.000000000028
 31
0.0
  0
LINE
  5
519
330
1F
100
AcDbEntity
  8
LAY-10
  6
CONTINUOUS
 62
     7
100
AcDbLine
 10
991.403481385928
 20
287.9999999999811
 30
0.0
 11
999.6578911536338
 21
287.9999999999811
 31
0.0
  0
LINE
  5
51A
330
1F
100
AcDbEntity
  8
LAY-10
  6
CONTINUOUS
 62
     7
100
AcDbLine
 10
1003.06871328969
 20
280.5000000000366
 30
0.0
 11
998.6038348933653
 21
280.5000000000366
 31
0.0
  0
LINE
  5
51B
330
1F
100
AcDbEntity
  8
LAY-10
  6
CONTINUOUS
 62
     7
100
AcDbLine
 10
991.403481385911
 20
287.9999999999811
 30
0.0
 11
999.6578911536166
 21
287.9999999999811
 31
0.0
  0
LINE
  5
51C
330
1F
100
AcDbEntity
  8
LAY-10
  6
CONTINUOUS
 62
     7
100
AcDbLine
 10
991.2427938931527
 20
287.9999999999948
 30
0.0
 11
998.6578911536166
 21
287.9999999999948
 31
0.0
  0
LINE
  5
51D
330
1F
100
AcDbEntity
  8
LAY-10
  6
CONTINUOUS
 62
     7
100
AcDbLine
 10
997.1832873060733
 20
282.9999999999848
 30
0.0
 11
997.3578911535323
 21
287.9999999999993
 31
0.0
  0
LINE
  5
51E
330
1F
100
AcDbEntity
  8
LAY-10
  6
CONTINUOUS
 62
     7
100
AcDbLine
 10
990.8794035930822
 20
277.9999999999966
 30
0.0
 11
990.8935861982358
 21
277.9999999999966
 31
0.0
  0
LINE
  5
51F
330
1F
100
AcDbEntity
  8
LAY-10
  6
CONTINUOUS
 62
     7
100
AcDbLine
 10
986.8432803719899
 20
278.3934674739082
 30
0.0
 11
986.8145203226724
 21
278.3919602235917
 31
0.0
  0
LINE
  5
520
330
1F
100
AcDbEntity
  8
LAY-10
  6
CONTINUOUS
 62
     7
100
AcDbLine
 10
1000.113986021899
 20
291.2452836162448
 30
0.0
 11
998.3687024056834
 21
289.5000000000292
 31
0.0
  0
LINE
  5
521
330
1F
100
AcDbEntity
  8
LAY-10
  6
CONTINUOUS
 62
     7
100
AcDbLine
 10
998.3687024056829
 20
289.5000000000292
 30
0.0
 11
987.2289849408538
 21
289.5000000000292
 31
0.0
  0
LINE
  5
522
330
1F
100
AcDbEntity
  8
LAY-10
  6
CONTINUOUS
 62
     7
100
AcDbLine
 10
991.3687024056829
 20
289.5000000000283
 30
0.0
 11
991.0754898183276
 21
292.8719631048235
 31
0.0
  0
ARC
  5
523
330
1F
100
AcDbEntity
  8
LAY-10
  6
CONTINUOUS
 62
     7
100
AcDbCircle
 10
989.2997417773239
 20
292.7175510720068
 30
0.0
 40
1.782448928054237
100
AcDbArc
 50
4.969713818253062
 51
174.9999999999996
  0
LINE
  5
524
330
1F
100
AcDbEntity
  8
LAY-10
  6
CONTINUOUS
 62
     7
100
AcDbLine
 10
1000.8524882486
 20
296.5000000000429
 30
0.0
 11
996.8524882486031
 21
296.5000000000429
 31
0.0
  0
LINE
  5
525
330
1F
100
AcDbEntity
  8
LAY-10
  6
CONTINUOUS
 62
     7
100
AcDbLine
 10
960.0687132896727
 20
326.5000000000292
 30
0.0
 11
959.3687132896697
 21
319.4999999999987
 31
0.0
  0
LINE
  5
526
330
1F
100
AcDbEntity
  8
LAY-10
  6
CONTINUOUS
 62
     7
100
AcDbLine
 10
987.0977519455619
 20
287.9999999999948
 30
0.0
 11
998.6578911536338
 21
287.9999999999948
 31
0.0
  0
LINE
  5
527
330
1F
100
AcDbEntity
  8
LAY-10
  6
CONTINUOUS
 62
     7
100
AcDbLine
 10
986.6603086279312
 20
282.999999999982
 30
0.0
 11
997.1832873060733
 21
282.999999999982
 31
0.0
  0
ARC
  5
528
330
1F
100
AcDbEntity
  8
LAY-10
  6
CONTINUOUS
 62
     7
100
AcDbCircle
 10
995.3912531546242
 20
255.2915537788481
 30
0.0
 40
9.200000000000003
100
AcDbArc
 50
219.9999999999978
 51
309.7690436414571
  0
ARC
  5
529
330
1F
100
AcDbEntity
  8
LAY-10
  6
CONTINUOUS
 62
     7
100
AcDbCircle
 10
1046.566813944952
 20
193.8012132545385
 30
0.0
 40
70.80000000000001
100
AcDbArc
 50
124.7110759021017
 51
129.7690436414535
  0
ARC
  5
52A
330
1F
100
AcDbEntity
  8
LAY-10
  6
CONTINUOUS
 62
     7
100
AcDbCircle
 10
995.3912531546251
 20
255.2915537788579
 30
0.0
 40
9.7379611035999
100
AcDbArc
 50
225.060742159794
 51
305.0258475345959
  0
ARC
  5
52B
330
1F
100
AcDbEntity
  8
LAY-10
  6
CONTINUOUS
 62
     7
100
AcDbCircle
 10
977.0339359218528
 20
303.6162575980397
 30
0.0
 40
10.0
100
AcDbArc
 50
169.9999999999989
 51
220.0000000000001
  0
ARC
  5
52C
330
1F
100
AcDbEntity
  8
LAY-10
  6
CONTINUOUS
 62
     7
100
AcDbCircle
 10
977.0339359218533
 20
303.6162575980388
 30
0.0
 40
10.8
100
AcDbArc
 50
169.999999999999
 51
220.0000000000001
  0
LINE
  5
52D
330
1F
100
AcDbEntity
  8
LAY-10
  6
CONTINUOUS
 62
     7
100
AcDbLine
 10
988.343644277939
 20
249.3779077697382
 30
0.0
 11
962.5096830608193
 21
280.1656238611795
 31
0.0
  0
ARC
  5
52E
330
1F
100
AcDbEntity
  8
LAY-10
  6
CONTINUOUS
 62
     7
100
AcDbCircle
 10
995.3912531546251
 20
255.2915537788579
 30
0.0
 40
9.7379611035999
100
AcDbArc
 50
225.060742159794
 51
305.0258475345959
  0
ARC
  5
52F
330
1F
100
AcDbEntity
  8
LAY-10
  6
CONTINUOUS
 62
     7
100
AcDbCircle
 10
1046.566813944952
 20
193.8012132545385
 30
0.0
 40
70.30000000000001
100
AcDbArc
 50
130.425335655712
 51
146.3710312845227
  0
ARC
  5
530
330
1F
100
AcDbEntity
  8
LAY-10
  6
CONTINUOUS
 62
     7
100
AcDbCircle
 10
1046.566813944952
 20
193.8012132545385
 30
0.0
 40
70.0
100
AcDbArc
 50
124.7110759021016
 51
146.3710312845225
  0
ARC
  5
531
330
1F
100
AcDbEntity
  8
LAY-10
  6
CONTINUOUS
 62
     7
100
AcDbCircle
 10
981.234422287936
 20
237.2555796863928
 30
0.0
 40
8.464025907542922
100
AcDbArc
 50
179.7038681265223
 51
326.3710312845222
  0
ARC
  5
532
330
1F
100
AcDbEntity
  8
LAY-10
  6
CONTINUOUS
 62
     7
100
AcDbCircle
 10
981.2344222879399
 20
237.25557968639
 30
0.0
 40
8.164025907538116
100
AcDbArc
 50
180.0
 51
326.371031284523
  0
LINE
  5
533
330
1F
100
AcDbEntity
  8
LAY-10
  6
CONTINUOUS
 62
     7
100
AcDbLine
 10
973.0703963803899
 20
237.25557968639
 30
0.0
 11
973.07039638039
 21
264.0545164893226
 31
0.0
  0
ARC
  5
534
330
1F
100
AcDbEntity
  8
LAY-10
  6
CONTINUOUS
 62
     7
100
AcDbCircle
 10
974.0703963803901
 20
264.0545164893226
 30
0.0
 40
1.0
100
AcDbArc
 50
39.99999999999801
 51
180.0
  0
LINE
  5
535
330
1F
100
AcDbEntity
  8
LAY-10
  6
CONTINUOUS
 62
     7
100
AcDbLine
 10
972.7703963803899
 20
237.25557968639
 30
0.0
 11
972.7703963803899
 21
266.0676092837571
 31
0.0
  0
ARC
  5
536
330
1F
100
AcDbEntity
  8
LAY-10
  6
CONTINUOUS
 62
     7
100
AcDbCircle
 10
969.77039638039
 20
266.0676092837571
 30
0.0
 40
3.000000000000003
100
AcDbArc
 50
0.0
 51
39.99999999999858
  0
LINE
  5
537
330
1F
100
AcDbEntity
  8
LAY-10
  6
CONTINUOUS
 62
     7
100
AcDbLine
 10
1014.317354142789
 20
279.5000000000481
 30
0.0
 11
1015.317354142789
 21
273.5000000000481
 31
0.0
  0
LINE
  5
538
330
1F
100
AcDbEntity
  8
LAY-10
  6
CONTINUOUS
 62
     7
100
AcDbLine
 10
1014.317354142789
 20
279.5000000000481
 30
0.0
 11
1012.317354142789
 21
279.5000000000481
 31
0.0
  0
LINE
  5
539
330
1F
100
AcDbEntity
  8
LAY-10
  6
CONTINUOUS
 62
     7
100
AcDbLine
 10
1015.317354142789
 20
273.5000000000481
 30
0.0
 11
1015.317354142788
 21
267.7842712475075
 31
0.0
  0
ARC
  5
53A
330
1F
100
AcDbEntity
  8
LAY-10
  6
CONTINUOUS
 62
     7
100
AcDbCircle
 10
995.3173541427782
 20
267.78427124747
 30
0.0
 40
19.20000000000001
100
AcDbArc
 50
304.7110759021042
 51
0.0
  0
LINE
  5
53B
330
1F
100
AcDbEntity
  8
LAY-10
  6
CONTINUOUS
 62
     7
100
AcDbLine
 10
1014.517354142788
 20
273.4337899758031
 30
0.0
 11
1014.517354142788
 21
267.7842712474693
 31
0.0
  0
LINE
  5
53C
330
1F
100
AcDbEntity
  8
LAY-10
  6
CONTINUOUS
 62
     7
100
AcDbLine
 10
1013.639652472082
 20
278.700000000047
 30
0.0
 11
1014.517354142796
 21
273.4337899757589
 31
0.0
  0
LINE
  5
53D
330
1F
100
AcDbEntity
  8
LAY-10
  6
CONTINUOUS
 62
     7
100
AcDbLine
 10
1012.726757703813
 20
278.7000000000472
 30
0.0
 11
1013.639652472082
 21
278.7000000000472
 31
0.0
  0
ARC
  5
53E
330
1F
100
AcDbEntity
  8
LAY-10
  6
CONTINUOUS
 62
     7
100
AcDbCircle
 10
995.3173541427782
 20
267.78427124747
 30
0.0
 40
20.0
100
AcDbArc
 50
304.711075902055
 51
0.0
  0
LINE
  5
53F
330
1F
100
AcDbEntity
  8
LAY-10
  6
CONTINUOUS
 62
     7
100
AcDbLine
 10
995.6129236695153
 20
265.9174439343949
 30
0.0
 11
969.3734914906631
 21
297.1883815011743
 31
0.0
  0
ARC
  5
540
330
1F
100
AcDbEntity
  8
LAY-10
  6
CONTINUOUS
 62
     7
100
AcDbCircle
 10
999.0601236635507
 20
268.8099881779843
 30
0.0
 40
4.5
100
AcDbArc
 50
219.9999999999995
 51
324.2025969720194
  0
LINE
  5
541
330
1F
100
AcDbEntity
  8
LAY-10
  6
CONTINUOUS
 62
     7
100
AcDbLine
 10
1002.757783120541
 20
264.8763552445781
 30
0.0
 11
1012.726757703818
 21
278.7000000000556
 31
0.0
  0
LINE
  5
542
330
1F
100
AcDbEntity
  8
LAY-10
  6
CONTINUOUS
 62
     7
100
AcDbLine
 10
968.7606559361684
 20
296.6741514134242
 30
0.0
 11
995.6606766334977
 21
264.6159551065232
 31
0.0
  0
ARC
  5
543
330
1F
100
AcDbEntity
  8
LAY-10
  6
CONTINUOUS
 62
     7
100
AcDbCircle
 10
999.1078766275331
 20
267.5084993501126
 30
0.0
 40
4.5
100
AcDbArc
 50
219.9999999999995
 51
324.2025969720208
  0
LINE
  5
544
330
1F
100
AcDbEntity
  8
LAY-10
  6
CONTINUOUS
 62
     7
100
AcDbLine
 10
988.5127786540952
 20
248.3984793558748
 30
0.0
 11
962.528259121082
 21
279.3656238611795
 31
0.0
  0
LINE
  5
545
330
1F
100
AcDbEntity
  8
LAY-10
  6
CONTINUOUS
 62
     7
100
AcDbLine
 10
1012.317354142779
 20
279.5000000000076
 30
0.0
 11
1002.710030156558
 21
266.1778440724497
 31
0.0
  0
LINE
  5
546
330
1F
100
AcDbEntity
  8
LAY-10
  6
CONTINUOUS
 62
     7
100
AcDbLine
 10
996.0663715593495
 20
311.5000000000065
 30
0.0
 11
996.8524882485925
 21
296.5000000000379
 31
0.0
  0
LINE
  5
547
330
1F
100
AcDbEntity
  8
LAY-10
  6
CONTINUOUS
 62
     7
100
AcDbLine
 10
1005.068713289673
 20
326.4999999999967
 30
0.0
 11
998.6038562535549
 21
280.5000000000366
 31
0.0
  0
LINE
  5
548
330
1F
100
AcDbEntity
  8
LAY-10
  6
CONTINUOUS
 62
     7
100
AcDbLine
 10
991.056096183724
 20
282.6536771054373
 30
0.0
 11
990.6770692614361
 21
271.7997661577452
 31
0.0
  0
LINE
  5
549
330
1F
100
AcDbEntity
  8
LAY-10
  6
CONTINUOUS
 62
     7
100
AcDbLine
 10
987.524075605609
 20
292.8729017322381
 30
0.0
 11
986.1522002811669
 21
277.1922950209993
 31
0.0
  0
LINE
  5
54A
330
1F
100
AcDbEntity
  8
LAY-10
  6
CONTINUOUS
 62
     7
100
AcDbLine
 10
986.2751496818086
 20
278.5976131009264
 30
0.0
 11
997.3578911535333
 21
287.9999999999966
 31
0.0
  0
LINE
  5
54B
330
1F
100
AcDbEntity
  8
LAY-10
  6
CONTINUOUS
 62
     7
100
AcDbLine
 10
914.6388150966898
 20
264.0000000000266
 30
0.0
 11
917.2248957675896
 21
254.0000000000253
 31
0.0
  0
LINE
  5
54C
330
1F
100
AcDbEntity
  8
LAY-10
  6
CONTINUOUS
 62
     7
100
AcDbLine
 10
898.4791194416897
 20
264.0000000000266
 30
0.0
 11
899.5906089042894
 21
257.9999999999866
 31
0.0
  0
LINE
  5
54D
330
1F
100
AcDbEntity
  8
LAY-10
  6
CONTINUOUS
 62
     7
100
AcDbLine
 10
946.6906089042899
 20
254.0000000000253
 30
0.0
 11
901.0967678841828
 21
254.0000000000253
 31
0.0
  0
LINE
  5
54E
330
1F
100
AcDbEntity
  8
LAY-10
  6
CONTINUOUS
 62
     7
100
AcDbLine
 10
901.0967678841828
 20
254.0000000000335
 30
0.0
 11
900.5726900913527
 21
264.0000000000252
 31
0.0
  0
LINE
  5
54F
330
1F
100
AcDbEntity
  8
LAY-10
  6
CONTINUOUS
 62
     7
100
AcDbLine
 10
944.1045282333893
 20
264.0000000000266
 30
0.0
 11
946.6906089042899
 21
254.0000000000253
 31
0.0
  0
LINE
  5
550
330
1F
100
AcDbEntity
  8
LAY-10
  6
CONTINUOUS
 62
     7
100
AcDbLine
 10
920.5927910823979
 20
254.0000000000253
 30
0.0
 11
920.0687132895678
 21
264.0000000000252
 31
0.0
  0
LINE
  5
551
330
1F
100
AcDbEntity
  8
LAY-10
  6
CONTINUOUS
 62
     7
100
AcDbLine
 10
901.0967678841832
 20
254.0000000000266
 30
0.0
 11
916.6000000000033
 21
244.0000000000266
 31
0.0
  0
LINE
  5
552
330
1F
100
AcDbEntity
  8
LAY-10
  6
CONTINUOUS
 62
     7
100
AcDbLine
 10
946.6906089042931
 20
254.0000000000266
 30
0.0
 11
935.400000000003
 21
244.0000000000266
 31
0.0
  0
LINE
  5
553
330
1F
100
AcDbEntity
  8
LAY-10
  6
CONTINUOUS
 62
     7
100
AcDbLine
 10
920.5927910823933
 20
254.0000000000266
 30
0.0
 11
926.400000000003
 21
244.0000000000266
 31
0.0
  0
LINE
  5
554
330
1F
100
AcDbEntity
  8
LAY-10
  6
CONTINUOUS
 62
     7
100
AcDbLine
 10
916.6000000000033
 20
244.0000000000266
 30
0.0
 11
935.400000000003
 21
244.0000000000266
 31
0.0
  0
LINE
  5
555
330
1F
100
AcDbEntity
  8
LAY-10
  6
CONTINUOUS
 62
     7
100
AcDbLine
 10
922.9952909754264
 20
275.1065730106059
 30
0.0
 11
923.5160022002032
 21
264.0000000000266
 31
0.0
  0
LINE
  5
556
330
1F
100
AcDbEntity
  8
LAY-10
  6
CONTINUOUS
 62
     7
100
AcDbLine
 10
913.0002318490091
 20
284.5000000000242
 30
0.0
 11
914.5879450892792
 21
281.7500000000265
 31
0.0
  0
LINE
  5
557
330
1F
100
AcDbEntity
  8
LAY-10
  6
CONTINUOUS
 62
     7
100
AcDbLine
 10
930.3953134441534
 20
283.3708348754291
 30
0.0
 11
930.571669029097
 21
283.4726538198694
 31
0.0
  0
LINE
  5
558
330
1F
100
AcDbEntity
  8
LAY-10
  6
CONTINUOUS
 62
     7
100
AcDbLine
 10
947.5955452947824
 20
254.4999999999966
 30
0.0
 11
946.5613048707522
 21
254.4999999999966
 31
0.0
  0
LINE
  5
559
330
1F
100
AcDbEntity
  8
LAY-10
  6
CONTINUOUS
 62
     7
100
AcDbLine
 10
914.7342795080579
 20
280.6661684071114
 30
0.0
 11
915.4160022002037
 21
264.0000000000266
 31
0.0
  0
LINE
  5
55A
330
1F
100
AcDbEntity
  8
LAY-10
  6
CONTINUOUS
 62
     7
100
AcDbLine
 10
898.4791194416897
 20
264.0000000000266
 30
0.0
 11
899.1302685717731
 21
278.08592708403
 31
0.0
  0
ARC
  5
55B
330
1F
100
AcDbEntity
  8
LAY-10
  6
CONTINUOUS
 62
     7
100
AcDbCircle
 10
925.4606107556433
 20
256.9329208620422
 30
0.0
 40
2.5
100
AcDbArc
 50
225.0000000001456
 51
315.0000000001473
  0
ARC
  5
55C
330
1F
100
AcDbEntity
  8
LAY-10
  6
CONTINUOUS
 62
     7
100
AcDbCircle
 10
925.4606107556458
 20
256.9329208620439
 30
0.0
 40
2.0
100
AcDbArc
 50
225.0000000001463
 51
315.0000000001473
  0
LINE
  5
55D
330
1F
100
AcDbEntity
  8
LAY-10
  6
CONTINUOUS
 62
     7
100
AcDbLine
 10
921.9250768497051
 20
257.6400276432278
 30
0.0
 11
924.0463971932763
 21
255.5187072996674
 31
0.0
  0
ARC
  5
55E
330
1F
100
AcDbEntity
  8
LAY-10
  6
CONTINUOUS
 62
     7
100
AcDbCircle
 10
923.3392904120745
 20
259.0542412056046
 30
0.0
 40
2.0
100
AcDbArc
 50
135.0000000001486
 51
225.0000000001486
  0
ARC
  5
55F
330
1F
100
AcDbEntity
  8
LAY-10
  6
CONTINUOUS
 62
     7
100
AcDbCircle
 10
923.3392904120747
 20
259.0542412056001
 30
0.0
 40
2.5
100
AcDbArc
 50
135.0000000001455
 51
225.0000000001447
  0
LINE
  5
560
330
1F
100
AcDbEntity
  8
LAY-10
  6
CONTINUOUS
 62
     7
100
AcDbLine
 10
927.3748243180029
 20
265.9182022362971
 30
0.0
 11
921.925076849702
 21
260.468454767968
 31
0.0
  0
LINE
  5
561
330
1F
100
AcDbEntity
  8
LAY-10
  6
CONTINUOUS
 62
     7
100
AcDbLine
 10
921.5715234591128
 20
257.2864742526293
 30
0.0
 11
923.6928438026814
 21
255.1651539090714
 31
0.0
  0
LINE
  5
562
330
1F
100
AcDbEntity
  8
LAY-10
  6
CONTINUOUS
 62
     7
100
AcDbLine
 10
926.8748243180025
 20
266.1253090174774
 30
0.0
 11
921.571523459109
 21
260.8220081585566
 31
0.0
  0
LINE
  5
563
330
1F
100
AcDbEntity
  8
LAY-10
  6
CONTINUOUS
 62
     7
100
AcDbLine
 10
926.8748243180005
 20
266.1253090174754
 30
0.0
 11
926.8748243180005
 21
284.2372610321248
 31
0.0
  0
LINE
  5
564
330
1F
100
AcDbEntity
  8
LAY-10
  6
CONTINUOUS
 62
     7
100
AcDbLine
 10
960.2115497314624
 20
281.2372610321198
 30
0.0
 11
930.6905879320113
 21
281.2372610321198
 31
0.0
  0
LINE
  5
565
330
1F
100
AcDbEntity
  8
LAY-10
  6
CONTINUOUS
 62
     7
100
AcDbLine
 10
930.6748243180025
 20
280.937261032125
 30
0.0
 11
957.4355136740996
 21
280.937261032125
 31
0.0
  0
LINE
  5
566
330
1F
100
AcDbEntity
  8
LAY-10
  6
CONTINUOUS
 62
     7
100
AcDbLine
 10
927.3748243180025
 20
265.9182022362947
 30
0.0
 11
927.3748243180025
 21
284.237261032125
 31
0.0
  0
ARC
  5
567
330
1F
100
AcDbEntity
  8
LAY-10
  6
CONTINUOUS
 62
     7
100
AcDbCircle
 10
930.6905879320113
 20
284.2372610321198
 30
0.0
 40
3.000000000000003
100
AcDbArc
 50
169.8630283329643
 51
270.0000000000002
  0
ARC
  5
568
330
1F
100
AcDbEntity
  8
LAY-10
  6
CONTINUOUS
 62
     7
100
AcDbCircle
 10
930.6748243180025
 20
284.237261032125
 30
0.0
 40
3.300000000000001
100
AcDbArc
 50
180.0
 51
270.0000000000002
  0
LINE
  5
569
330
1F
100
AcDbEntity
  8
LAY-10
  6
CONTINUOUS
 62
     7
100
AcDbLine
 10
949.3644458622072
 20
278.0083288439724
 30
0.0
 11
926.87482431802
 21
255.518707299671
 31
0.0
  0
LINE
  5
56A
330
1F
100
AcDbEntity
  8
LAY-10
  6
CONTINUOUS
 62
     7
100
AcDbLine
 10
949.568622134067
 20
277.5083288439674
 30
0.0
 11
927.1549519747192
 21
255.0946586845053
 31
0.0
  0
ARC
  5
56B
330
1F
100
AcDbEntity
  8
LAY-10
  6
CONTINUOUS
 62
     7
100
AcDbCircle
 10
956.4355136740905
 20
270.937261032125
 30
0.0
 40
10.0
100
AcDbArc
 50
90.00000000000004
 51
135.0000000001461
  0
ARC
  5
56C
330
1F
100
AcDbEntity
  8
LAY-10
  6
CONTINUOUS
 62
     7
100
AcDbCircle
 10
956.6396899459505
 20
270.43726103212
 30
0.0
 40
10.0
100
AcDbArc
 50
90.00000000000004
 51
135.0000000001461
  0
LINE
  5
56D
330
1F
100
AcDbEntity
  8
LAY-10
  6
CONTINUOUS
 62
     7
100
AcDbLine
 10
960.2301257917251
 20
280.43726103212
 30
0.0
 11
956.5700288407199
 21
280.43726103212
 31
0.0
  0
LINE
  5
56E
330
1F
100
AcDbEntity
  8
LAY-10
  6
CONTINUOUS
 62
     7
100
AcDbLine
 10
943.3590295798564
 20
271.298736289725
 30
0.0
 11
943.2267053380032
 21
264.0000000000271
 31
0.0
  0
ARC
  5
56F
330
1F
100
AcDbEntity
  8
LAY-10
  6
CONTINUOUS
 62
     7
100
AcDbCircle
 10
934.6235017661814
 20
264.4999999998564
 30
0.0
 40
10.0
100
AcDbArc
 50
14.74356283652181
 51
37.12849936176629
  0
LINE
  5
570
330
1F
100
AcDbEntity
  8
LAY-10
  6
CONTINUOUS
 62
     7
100
AcDbLine
 10
936.0602932901952
 20
264.0000000000266
 30
0.0
 11
945.0955452947653
 21
264.0000000000266
 31
0.0
  0
LINE
  5
571
330
1F
100
AcDbEntity
  8
LAY-10
  6
CONTINUOUS
 62
     7
100
AcDbLine
 10
900.5726900913527
 20
264.0000000000266
 30
0.0
 11
924.7495153005627
 21
264.0000000000266
 31
0.0
  0
ARC
  5
572
330
1F
100
AcDbEntity
  8
LAY-10
  6
CONTINUOUS
 62
     7
100
AcDbCircle
 10
960.2115497314624
 20
278.2372610321198
 30
0.0
 40
3.000000000000003
100
AcDbArc
 50
40.00000000000092
 51
90.00000000000004
  0
ARC
  5
573
330
1F
100
AcDbEntity
  8
LAY-10
  6
CONTINUOUS
 62
     7
100
AcDbCircle
 10
960.2301257917251
 20
277.43726103212
 30
0.0
 40
3.000000000000003
100
AcDbArc
 50
39.99999999999858
 51
90.00000000000004
  0
LINE
  5
574
330
1F
100
AcDbEntity
  8
LAY-10
  6
CONTINUOUS
 62
     7
100
AcDbLine
 10
946.237426579361
 20
319.0000000000196
 30
0.0
 11
944.0972758824486
 21
306.8626022613796
 31
0.0
  0
LINE
  5
575
330
1F
100
AcDbEntity
  8
LAY-10
  6
CONTINUOUS
 62
     7
100
AcDbLine
 10
988.2749829093802
 20
316.2379611034687
 30
0.0
 11
946.5854956315309
 21
316.2379611034687
 31
0.0
  0
LINE
  5
576
330
1F
100
AcDbEntity
  8
LAY-10
  6
CONTINUOUS
 62
     7
100
AcDbLine
 10
946.3234567351077
 20
316.4999999999627
 30
0.0
 11
988.5370218058173
 21
316.500000000003
 31
0.0
  0
LINE
  5
577
330
1F
100
AcDbEntity
  8
LAY-10
  6
CONTINUOUS
 62
     7
100
AcDbLine
 10
946.237426579361
 20
319.0000000000196
 30
0.0
 11
1001.237426579359
 21
319.0000000000196
 31
0.0
  0
LINE
  5
578
330
1F
100
AcDbEntity
  8
LAY-10
  6
CONTINUOUS
 62
     7
100
AcDbLine
 10
944.7975490062648
 20
306.0980119131507
 30
0.0
 11
946.585495631531
 21
316.2379611034694
 31
0.0
  0
LINE
  5
579
330
1F
100
AcDbEntity
  8
LAY-10
  6
CONTINUOUS
 62
     7
100
AcDbLine
 10
936.237426579353
 20
305.4999999999849
 30
0.0
 11
946.2374265793571
 21
305.4999999999848
 31
0.0
  0
LINE
  5
57A
330
1F
100
AcDbEntity
  8
LAY-10
  6
CONTINUOUS
 62
     7
100
AcDbLine
 10
936.2374265793546
 20
306.8626022613815
 30
0.0
 11
944.0972758824457
 21
306.8626022613815
 31
0.0
  0
LINE
  5
57B
330
1F
100
AcDbEntity
  8
LAY-10
  6
CONTINUOUS
 62
     7
100
AcDbLine
 10
946.7113760926765
 20
318.7000000000201
 30
0.0
 11
1000.73742657937
 21
318.7000000000201
 31
0.0
  0
LINE
  5
57C
330
1F
100
AcDbEntity
  8
LAY-10
  6
CONTINUOUS
 62
     7
100
AcDbLine
 10
946.3234567351096
 20
316.4999999999741
 30
0.0
 11
946.7113760926765
 21
318.7000000000206
 31
0.0
  0
LINE
  5
57D
330
1F
100
AcDbEntity
  8
LAY-10
  6
CONTINUOUS
 62
     7
100
AcDbLine
 10
980.0687132896823
 20
316.500000000021
 30
0.0
 11
980.2179528797069
 21
316.5482240003577
 31
0.0
  0
LINE
  5
57E
330
1F
100
AcDbEntity
  8
LAY-10
  6
CONTINUOUS
 62
     7
100
AcDbLine
 10
987.9547431181885
 20
319.0482240003829
 30
0.0
 11
991.828247026502
 21
320.2998748106525
 31
0.0
  0
ARC
  5
57F
330
1F
100
AcDbEntity
  8
LAY-10
  6
CONTINUOUS
 62
     7
100
AcDbCircle
 10
992.7506793362949
 20
317.4452086946504
 30
0.0
 40
3.000000000000003
100
AcDbArc
 50
32.29905683938016
 51
107.9072746846355
  0
ARC
  5
580
330
1F
100
AcDbEntity
  8
LAY-10
  6
CONTINUOUS
 62
     7
100
AcDbCircle
 10
988.2749829093802
 20
315.2379611034687
 30
0.0
 40
1.0
100
AcDbArc
 50
0.0
 51
90.00000000000004
  0
ARC
  5
581
330
1F
100
AcDbEntity
  8
LAY-10
  6
CONTINUOUS
 62
     7
100
AcDbCircle
 10
988.5370218058182
 20
315.500000000003
 30
0.0
 40
1.0
100
AcDbArc
 50
0.0
 51
90.00000000005213
  0
LINE
  5
582
330
1F
100
AcDbEntity
  8
LAY-10
  6
CONTINUOUS
 62
     7
100
AcDbLine
 10
989.2749829093802
 20
315.2379611034687
 30
0.0
 11
989.2749829093802
 21
313.2861166892687
 31
0.0
  0
ARC
  5
583
330
1F
100
AcDbEntity
  8
LAY-10
  6
CONTINUOUS
 62
     7
100
AcDbCircle
 10
988.2749829093802
 20
313.2861166892687
 30
0.0
 40
1.0
100
AcDbArc
 50
270.0000000000002
 51
0.0
  0
LINE
  5
584
330
1F
100
AcDbEntity
  8
LAY-10
  6
CONTINUOUS
 62
     7
100
AcDbLine
 10
989.5370218058191
 20
313.0240777928298
 30
0.0
 11
989.5370218058191
 21
315.500000000003
 31
0.0
  0
ARC
  5
585
330
1F
100
AcDbEntity
  8
LAY-10
  6
CONTINUOUS
 62
     7
100
AcDbCircle
 10
988.5370218058191
 20
313.0240777928298
 30
0.0
 40
1.0
100
AcDbArc
 50
270.0000000000002
 51
0.0
  0
ARC
  5
586
330
1F
100
AcDbEntity
  8
LAY-10
  6
CONTINUOUS
 62
     7
100
AcDbCircle
 10
972.4652844533034
 20
306.5000000000173
 30
0.0
 40
5.0
100
AcDbArc
 50
90.00000000000004
 51
169.9999999999992
  0
LINE
  5
587
330
1F
100
AcDbEntity
  8
LAY-10
  6
CONTINUOUS
 62
     7
100
AcDbLine
 10
988.2749829093802
 20
312.2861166892687
 30
0.0
 11
972.46283645104
 21
312.2861166892687
 31
0.0
  0
ARC
  5
588
330
1F
100
AcDbEntity
  8
LAY-10
  6
CONTINUOUS
 62
     7
100
AcDbCircle
 10
972.46283645104
 20
306.4861166892688
 30
0.0
 40
5.800000000000002
100
AcDbArc
 50
90.00000000000004
 51
169.9999999999992
  0
LINE
  5
589
330
1F
100
AcDbEntity
  8
LAY-10
  6
CONTINUOUS
 62
     7
100
AcDbLine
 10
966.7509514835692
 20
307.4932761197372
 30
0.0
 11
966.3980121893215
 21
305.4916579168419
 31
0.0
  0
ARC
  5
58A
330
1F
100
AcDbEntity
  8
LAY-10
  6
CONTINUOUS
 62
     7
100
AcDbCircle
 10
1001.237426579359
 20
317.0000000000196
 30
0.0
 40
2.0
100
AcDbArc
 50
0.0
 51
90.00000000000004
  0
LINE
  5
58B
330
1F
100
AcDbEntity
  8
LAY-10
  6
CONTINUOUS
 62
     7
100
AcDbLine
 10
1003.237426579359
 20
317.0000000000196
 30
0.0
 11
1003.237426579359
 21
313.5000000000036
 31
0.0
  0
LINE
  5
58C
330
1F
100
AcDbEntity
  8
LAY-10
  6
CONTINUOUS
 62
     7
100
AcDbLine
 10
1001.237426579359
 20
311.5000000000041
 30
0.0
 11
972.4652844533034
 21
311.5000000000173
 31
0.0
  0
ARC
  5
58D
330
1F
100
AcDbEntity
  8
LAY-10
  6
CONTINUOUS
 62
     7
100
AcDbCircle
 10
1001.237426579359
 20
313.5000000000036
 30
0.0
 40
2.0
100
AcDbArc
 50
270.0000000000002
 51
0.0
  0
LINE
  5
58E
330
1F
100
AcDbEntity
  8
LAY-10
  6
CONTINUOUS
 62
     7
100
AcDbLine
 10
1000.73742657937
 20
312.0240777928298
 30
0.0
 11
988.5370218058199
 21
312.0240777928298
 31
0.0
  0
ARC
  5
58F
330
1F
100
AcDbEntity
  8
LAY-10
  6
CONTINUOUS
 62
     7
100
AcDbCircle
 10
1000.73742657937
 20
314.0240777928298
 30
0.0
 40
2.0
100
AcDbArc
 50
270.0000000000002
 51
0.0
  0
LINE
  5
590
330
1F
100
AcDbEntity
  8
LAY-10
  6
CONTINUOUS
 62
     7
100
AcDbLine
 10
967.5412456882448
 20
307.3682408883517
 30
0.0
 11
967.1858583917308
 21
305.3527393747092
 31
0.0
  0
LINE
  5
591
330
1F
100
AcDbEntity
  8
LAY-10
  6
CONTINUOUS
 62
     7
100
AcDbLine
 10
1002.73742657937
 20
316.7000000000201
 30
0.0
 11
1002.73742657937
 21
314.0240777928298
 31
0.0
  0
ARC
  5
592
330
1F
100
AcDbEntity
  8
LAY-10
  6
CONTINUOUS
 62
     7
100
AcDbCircle
 10
1000.73742657937
 20
316.7000000000201
 30
0.0
 40
2.0
100
AcDbArc
 50
0.0
 51
90.00000000000004
  0
ARC
  5
593
330
1F
100
AcDbEntity
  8
LAY-10
  6
CONTINUOUS
 62
     7
100
AcDbCircle
 10
946.2374265793574
 20
300.5000000000257
 30
0.0
 40
5.0
100
AcDbArc
 50
269.9999999999656
 51
90.00000000000004
  0
ARC
  5
594
330
1F
100
AcDbEntity
  8
LAY-10
  6
CONTINUOUS
 62
     7
100
AcDbCircle
 10
946.2374265793546
 20
300.5000000000217
 30
0.0
 40
5.598011913129994
100
AcDbArc
 50
269.9999999999979
 51
89.99999999998954
  0
LINE
  5
595
330
1F
100
AcDbEntity
  8
LAY-10
  6
CONTINUOUS
 62
     7
100
AcDbLine
 10
944.7975490062556
 20
306.0980119131526
 30
0.0
 11
946.2374265793558
 21
306.0980119131525
 31
0.0
  0
LINE
  5
596
330
1F
100
AcDbEntity
  8
LAY-10
  6
CONTINUOUS
 62
     7
100
AcDbLine
 10
944.7975490062547
 20
306.0980119131516
 30
0.0
 11
944.0972758824347
 21
306.8626022613818
 31
0.0
  0
ARC
  5
597
330
1F
100
AcDbEntity
  8
LAY-10
  6
CONTINUOUS
 62
     7
100
AcDbCircle
 10
936.237426579353
 20
300.5000000000257
 30
0.0
 40
5.0
100
AcDbArc
 50
90.00000000000004
 51
270.0000000000339
  0
LINE
  5
598
330
1F
100
AcDbEntity
  8
LAY-10
  6
CONTINUOUS
 62
     7
100
AcDbLine
 10
927.7374184874727
 20
284.7652669334536
 30
0.0
 11
930.7233759086733
 21
301.4659102344222
 31
0.0
  0
ARC
  5
599
330
1F
100
AcDbEntity
  8
LAY-10
  6
CONTINUOUS
 62
     7
100
AcDbCircle
 10
936.2374265793591
 20
300.5000000000198
 30
0.0
 40
6.362602261359942
100
AcDbArc
 50
89.99999999999591
 51
172.8120570881665
  0
LINE
  5
59A
330
1F
100
AcDbEntity
  8
LAY-10
  6
CONTINUOUS
 62
     7
100
AcDbLine
 10
926.8748243179999
 20
284.23726103212
 30
0.0
 11
929.9248276658616
 21
301.2961171356067
 31
0.0
  0
LINE
  5
59B
330
1F
100
AcDbEntity
  8
LAY-10
  6
CONTINUOUS
 62
     7
100
AcDbLine
 10
936.237426579353
 20
295.5000000000581
 30
0.0
 11
946.2374265793574
 21
295.500000000058
 31
0.0
  0
LINE
  5
59C
330
1F
100
AcDbEntity
  8
LAY-10
  6
CONTINUOUS
 62
     7
100
AcDbLine
 10
936.2374265793355
 20
294.9019880868919
 30
0.0
 11
946.2374265793557
 21
294.9019880868919
 31
0.0
  0
ARC
  5
59D
330
1F
100
AcDbEntity
  8
LAY-10
  6
CONTINUOUS
 62
     7
100
AcDbCircle
 10
936.2374265793352
 20
300.5000000000217
 30
0.0
 40
5.598011913129994
100
AcDbArc
 50
170.064162992305
 51
270.0000000000024
  0
LINE
  5
59E
330
1F
100
AcDbEntity
  8
LAY-10
  6
CONTINUOUS
 62
     7
100
AcDbLine
 10
867.3642309334122
 20
316.5000000000522
 30
0.0
 11
866.9282742945065
 21
304.0158352680075
 31
0.0
  0
LINE
  5
59F
330
1F
100
AcDbEntity
  8
LAY-10
  6
CONTINUOUS
 62
     7
100
AcDbLine
 10
866.5701736698003
 20
293.7611750781654
 30
0.0
 11
865.6531132283135
 21
267.5000000000573
 31
0.0
  0
LINE
  5
5A0
330
1F
100
AcDbEntity
  8
LAY-10
  6
CONTINUOUS
 62
     7
100
AcDbLine
 10
881.6506492146027
 20
275.1955397111125
 30
0.0
 11
865.8304952851695
 21
272.5795575080167
 31
0.0
  0
ARC
  5
5A1
330
1F
100
AcDbEntity
  8
LAY-10
  6
CONTINUOUS
 62
     7
100
AcDbCircle
 10
927.1453134441539
 20
289.0000000000274
 30
0.0
 40
6.499999999998114
100
AcDbArc
 50
265.7851992958664
 51
267.6150212657566
  0
ARC
  5
5A2
330
1F
100
AcDbEntity
  8
LAY-10
  6
CONTINUOUS
 62
     7
100
AcDbCircle
 10
927.1453134441539
 20
289.0000000000274
 30
0.0
 40
14.49999999999812
100
AcDbArc
 50
264.9860508834817
 51
268.9311183228575
  0
ARC
  5
5A3
330
1F
100
AcDbEntity
  8
LAY-10
  6
CONTINUOUS
 62
     7
100
AcDbCircle
 10
927.1453134441539
 20
289.0000000000274
 30
0.0
 40
14.49999999999812
100
AcDbArc
 50
210.0000000009164
 51
254.5849469530505
  0
LINE
  5
5A4
330
1F
100
AcDbEntity
  8
LAY-10
  6
CONTINUOUS
 62
     7
100
AcDbLine
 10
915.2231453800761
 20
280.7470060795263
 30
0.0
 11
913.6558933543529
 21
280.4878490937381
 31
0.0
  0
LINE
  5
5A5
330
1F
100
AcDbEntity
  8
LAY-10
  6
CONTINUOUS
 62
     7
100
AcDbLine
 10
910.6818375731757
 20
279.996066458166
 30
0.0
 11
884.6105341455343
 21
275.68497908933
 31
0.0
  0
LINE
  5
5A6
330
1F
100
AcDbEntity
  8
LAY-10
  6
CONTINUOUS
 62
     7
100
AcDbLine
 10
909.0730884292248
 20
286.0000000000242
 30
0.0
 11
904.8177068118869
 21
286.0000000000242
 31
0.0
  0
LINE
  5
5A7
330
1F
100
AcDbEntity
  8
LAY-10
  6
CONTINUOUS
 62
     7
100
AcDbLine
 10
901.6312699722068
 20
294.0000000000219
 30
0.0
 11
906.9294948897763
 21
294.0000000000219
 31
0.0
  0
LINE
  5
5A8
330
1F
100
AcDbEntity
  8
LAY-10
  6
CONTINUOUS
 62
     7
100
AcDbLine
 10
910.0353234310064
 20
294.0000000000219
 30
0.0
 11
910.9795059068485
 21
294.0000000000219
 31
0.0
  0
ARC
  5
5A9
330
1F
100
AcDbEntity
  8
LAY-10
  6
CONTINUOUS
 62
     7
100
AcDbCircle
 10
910.4021556376558
 20
283.0000000000242
 30
0.0
 40
3.000000000000003
100
AcDbArc
 50
30.00000000000242
 51
48.80949546344822
  0
LINE
  5
5AA
330
1F
100
AcDbEntity
  8
LAY-10
  6
CONTINUOUS
 62
     7
100
AcDbLine
 10
900.2314513557906
 20
307.0000000000197
 30
0.0
 11
903.4461553881722
 21
307.0000000000197
 31
0.0
  0
LINE
  5
5AB
330
1F
100
AcDbEntity
  8
LAY-10
  6
CONTINUOUS
 62
     7
100
AcDbLine
 10
906.5519839294025
 20
307.0000000000197
 30
0.0
 11
914.7194387098832
 21
307.0000000000197
 31
0.0
  0
LINE
  5
5AC
330
1F
100
AcDbEntity
  8
LAY-10
  6
CONTINUOUS
 62
     7
100
AcDbLine
 10
917.8252672511136
 20
307.0000000000197
 30
0.0
 11
923.6675906013298
 21
307.0000000000197
 31
0.0
  0
LINE
  5
5AD
330
1F
100
AcDbEntity
  8
LAY-10
  6
CONTINUOUS
 62
     7
100
AcDbLine
 10
926.6675906013298
 20
307.0000000000197
 30
0.0
 11
944.1215028108593
 21
307.0000000000197
 31
0.0
  0
LINE
  5
5AE
330
1F
100
AcDbEntity
  8
LAY-10
  6
CONTINUOUS
 62
     7
100
AcDbLine
 10
386.1
 20
326.4999999999964
 30
0.0
 11
1013.068713289653
 21
326.4999999999965
 31
0.0
  0
LINE
  5
5AF
330
1F
100
AcDbEntity
  8
LAY-10
  6
CONTINUOUS
 62
     7
100
AcDbLine
 10
393.0687132896909
 20
326.4999999999967
 30
0.0
 11
385.0687132897079
 21
326.4999999999968
 31
0.0
  0
LINE
  5
5B0
330
1F
100
AcDbEntity
  8
LAY-10
  6
CONTINUOUS
 62
     7
100
AcDbLine
 10
398.4795354257043
 20
287.9999999999808
 30
0.0
 11
393.0687132896637
 21
326.4999999999644
 31
0.0
  0
CIRCLE
  5
5B1
330
1F
100
AcDbEntity
  8
LAY-10
  6
CONTINUOUS
 62
     7
100
AcDbCircle
 10
735.0687132897
 20
950.0
 30
0.0
 40
6.000000000000005
  0
ARC
  5
5B2
330
1F
100
AcDbEntity
  8
LAY-10
  6
CONTINUOUS
 62
     7
100
AcDbCircle
 10
711.0687132897
 20
950.0
 30
0.0
 40
6.000000000000005
100
AcDbArc
 50
119.9999999999999
 51
0.0
  0
ARC
  5
5B3
330
1F
100
AcDbEntity
  8
LAY-10
  6
CONTINUOUS
 62
     7
100
AcDbCircle
 10
687.0687132896999
 20
950.0
 30
0.0
 40
6.000000000000005
100
AcDbArc
 50
180.0
 51
59.99999999999996
  0
CIRCLE
  5
5B4
330
1F
100
AcDbEntity
  8
LAY-10
  6
CONTINUOUS
 62
     7
100
AcDbCircle
 10
663.0687132897
 20
950.0
 30
0.0
 40
6.000000000000005
  0
ARC
  5
5B5
330
1F
100
AcDbEntity
  8
LAY-10
  6
CONTINUOUS
 62
     7
100
AcDbCircle
 10
735.0687132897
 20
950.0
 30
0.0
 40
18.0
100
AcDbArc
 50
240.0000000000001
 51
180.0
  0
ARC
  5
5B6
330
1F
100
AcDbEntity
  8
LAY-10
  6
CONTINUOUS
 62
     7
100
AcDbCircle
 10
663.0687132897
 20
950.0
 30
0.0
 40
18.0
100
AcDbArc
 50
0.0
 51
300.0000000000002
  0
CIRCLE
  5
5B7
330
1F
100
AcDbEntity
  8
LAY-10
  6
CONTINUOUS
 62
     7
100
AcDbCircle
 10
699.0687132897
 20
970.78461
 30
0.0
 40
6.000000000000005
  0
ARC
  5
5B8
330
1F
100
AcDbEntity
  8
LAY-10
  6
CONTINUOUS
 62
     7
100
AcDbCircle
 10
699.0687132897
 20
970.78461
 30
0.0
 40
18.0
100
AcDbArc
 50
300.0000000000002
 51
240.0000000000001
  0
CIRCLE
  5
5B9
330
1F
100
AcDbEntity
  8
LAY-10
  6
CONTINUOUS
 62
     7
100
AcDbCircle
 10
699.0687132897
 20
929.2153900000001
 30
0.0
 40
6.000000000000005
  0
ARC
  5
5BA
330
1F
100
AcDbEntity
  8
LAY-10
  6
CONTINUOUS
 62
     7
100
AcDbCircle
 10
723.0687132897
 20
929.2153900000001
 30
0.0
 40
6.000000000000005
100
AcDbArc
 50
59.99999999999996
 51
180.0
  0
ARC
  5
5BB
330
1F
100
AcDbEntity
  8
LAY-10
  6
CONTINUOUS
 62
     7
100
AcDbCircle
 10
675.0687132897
 20
929.2153900000001
 30
0.0
 40
6.000000000000005
100
AcDbArc
 50
0.0
 51
119.9999999999999
  0
ARC
  5
5BC
330
1F
100
AcDbEntity
  8
LAY-10
  6
CONTINUOUS
 62
     7
100
AcDbCircle
 10
699.0687132897
 20
929.2153900000001
 30
0.0
 40
18.0
100
AcDbArc
 50
180.0
 51
0.0
  0
LINE
  5
5BD
330
1F
100
AcDbEntity
  8
LAY-10
  6
CENTER
 62
     2
100
AcDbLine
 10
350.4744118748124
 20
1151.261013759933
 30
0.0
 11
387.3615256001885
 21
1129.964228720951
 31
0.0
  0
LINE
  5
5BE
330
1F
100
AcDbEntity
  8
LAY-10
  6
CENTER
 62
     2
100
AcDbLine
 10
497.8076995297477
 20
1298.594301414876
 30
0.0
 11
519.1044845687325
 21
1261.707187689502
 31
0.0
  0
LINE
  5
5BF
330
1F
100
AcDbEntity
  8
LAY-10
  6
CENTER
 62
     2
100
AcDbLine
 10
900.3297270496554
 20
1298.594301414875
 30
0.0
 11
879.0329420106704
 21
1261.7071876895
 31
0.0
  0
LINE
  5
5C0
330
1F
100
AcDbEntity
  8
LAY-10
  6
CENTER
 62
     2
100
AcDbLine
 10
1047.663014704588
 20
1151.261013759932
 30
0.0
 11
1010.775900979212
 21
1129.964228720949
 31
0.0
  0
LINE
  5
5C1
330
1F
100
AcDbEntity
  8
LAY-10
  6
CENTER
 62
     2
100
AcDbLine
 10
1010.775900979265
 20
770.0357712791415
 30
0.0
 11
1047.663014704647
 21
748.7389862401701
 31
0.0
  0
LINE
  5
5C2
330
1F
100
AcDbEntity
  8
LAY-10
  6
CENTER
 62
     2
100
AcDbLine
 10
879.0329420105784
 20
638.2928123104468
 30
0.0
 11
900.3297270495524
 21
601.4056985850658
 31
0.0
  0
LINE
  5
5C3
330
1F
100
AcDbEntity
  8
LAY-10
  6
CENTER
 62
     2
100
AcDbLine
 10
387.3615256001354
 20
770.0357712791413
 30
0.0
 11
350.4744118747528
 21
748.73898624017
 31
0.0
  0
LINE
  5
5C4
330
1F
100
AcDbEntity
  8
LAY-10
  6
CENTER
 62
     2
100
AcDbLine
 10
497.8076995297477
 20
601.4056985851228
 30
0.0
 11
519.1044845687325
 21
638.2928123104973
 31
0.0
  0
LINE
  5
5C5
330
1F
100
AcDbEntity
  8
LAY-10
  6
CENTER
 62
     2
100
AcDbLine
 10
1127.0687132897
 20
949.9999999999994
 30
0.0
 11
271.0687132896998
 21
949.9999999999998
 31
0.0
  0
LINE
  5
5C6
330
1F
100
AcDbEntity
  8
LAY-10
  6
CENTER
 62
     2
100
AcDbLine
 10
699.068713289702
 20
1378.0
 30
0.0
 11
699.0687132897003
 21
521.9999999999999
 31
0.0
  0
ARC
  5
5C7
330
1F
100
AcDbEntity
  8
LAY-10
  6
CENTER
 62
     2
100
AcDbCircle
 10
699.0687132896998
 20
949.9999999999998
 30
0.0
 40
379.9999999999876
100
AcDbArc
 50
225.823513202039
 51
254.176486797951
  0
ARC
  5
5C8
330
1F
100
AcDbEntity
  8
LAY-10
  6
CENTER
 62
     2
100
AcDbCircle
 10
699.0687132896998
 20
949.9999999999998
 30
0.0
 40
379.9999999999876
100
AcDbArc
 50
205.4719369861549
 51
214.5280630139048
  0
ARC
  5
5C9
330
1F
100
AcDbEntity
  8
LAY-10
  6
CENTER
 62
     2
100
AcDbCircle
 10
699.0687132896998
 20
949.9999999999998
 30
0.0
 40
379.9999999999876
100
AcDbArc
 50
165.8235132020349
 51
194.1764867979653
  0
ARC
  5
5CA
330
1F
100
AcDbEntity
  8
LAY-10
  6
CENTER
 62
     2
100
AcDbCircle
 10
699.0687132896998
 20
949.9999999999998
 30
0.0
 40
379.9999999999876
100
AcDbArc
 50
145.4719369860953
 51
154.5280630138453
  0
ARC
  5
5CB
330
1F
100
AcDbEntity
  8
LAY-10
  6
CENTER
 62
     2
100
AcDbCircle
 10
699.0687132896998
 20
949.9999999999998
 30
0.0
 40
379.9999999999876
100
AcDbArc
 50
105.8235132020489
 51
134.176486797961
  0
ARC
  5
5CC
330
1F
100
AcDbEntity
  8
LAY-10
  6
CENTER
 62
     2
100
AcDbCircle
 10
699.0687132896998
 20
949.9999999999998
 30
0.0
 40
379.9999999999876
100
AcDbArc
 50
85.47193698616424
 51
94.52806301384138
  0
ARC
  5
5CD
330
1F
100
AcDbEntity
  8
LAY-10
  6
CENTER
 62
     2
100
AcDbCircle
 10
699.0687132896998
 20
949.9999999999998
 30
0.0
 40
379.9999999999876
100
AcDbArc
 50
45.82351320204295
 51
74.17648679795633
  0
ARC
  5
5CE
330
1F
100
AcDbEntity
  8
LAY-10
  6
CENTER
 62
     2
100
AcDbCircle
 10
699.0687132896998
 20
949.9999999999998
 30
0.0
 40
379.9999999999876
100
AcDbArc
 50
25.47193698615723
 51
34.52806301390765
  0
ARC
  5
5CF
330
1F
100
AcDbEntity
  8
LAY-10
  6
CENTER
 62
     2
100
AcDbCircle
 10
699.0687132896998
 20
949.9999999999998
 30
0.0
 40
379.9999999999876
100
AcDbArc
 50
345.8235132020334
 51
14.17648679796652
  0
ARC
  5
5D0
330
1F
100
AcDbEntity
  8
LAY-10
  6
CENTER
 62
     2
100
AcDbCircle
 10
699.0687132896998
 20
949.9999999999998
 30
0.0
 40
379.9999999999876
100
AcDbArc
 50
325.4719369860921
 51
334.5280630138425
  0
ARC
  5
5D1
330
1F
100
AcDbEntity
  8
LAY-10
  6
CENTER
 62
     2
100
AcDbCircle
 10
699.0687132896998
 20
949.9999999999998
 30
0.0
 40
379.9999999999876
100
AcDbArc
 50
285.8235132020436
 51
314.1764867979568
  0
ARC
  5
5D2
330
1F
100
AcDbEntity
  8
LAY-10
  6
CENTER
 62
     2
100
AcDbCircle
 10
699.0687132896998
 20
949.9999999999998
 30
0.0
 40
379.9999999999876
100
AcDbArc
 50
265.4719369861585
 51
274.5280630138359
  0
LINE
  5
5D3
330
1F
100
AcDbEntity
  8
LAY-10
  6
CENTER
 62
     2
100
AcDbLine
 10
699.0687132896813
 20
338.6212146350671
 30
0.0
 11
699.0687132896812
 21
204.5718801330566
 31
0.0
  0
LINE
  5
5D4
330
1F
100
AcDbEntity
  8
LAY-10
  6
CENTER
 62
     2
100
AcDbLine
 10
319.0687132896895
 20
228.4999999999967
 30
0.0
 11
319.0687132896895
 21
213.6718801330566
 31
0.0
  0
LINE
  5
5D5
330
1F
100
AcDbEntity
  8
LAY-10
  6
CENTER
 62
     2
100
AcDbLine
 10
1079.068713289671
 20
228.4999999999966
 30
0.0
 11
1079.068713289671
 21
216.4999999999966
 31
0.0
  0
LINE
  5
5D6
330
1F
100
AcDbEntity
  8
LAY-10
  6
CENTER
 62
     2
100
AcDbLine
 10
419.6844526217595
 20
304.5000000000067
 30
0.0
 11
402.6844526217596
 21
304.5000000000067
 31
0.0
  0
LINE
  5
5D7
330
1F
100
AcDbEntity
  8
LAY-10
  6
CENTER
 62
     2
100
AcDbLine
 10
411.0687132896595
 20
296.718392915407
 30
0.0
 11
411.0687132896595
 21
313.4374209421461
 31
0.0
  0
LINE
  5
5D8
330
1F
100
AcDbEntity
  8
LAY-10
  6
CENTER
 62
     2
100
AcDbLine
 10
609.06871328967
 20
333.499999999969
 30
0.0
 11
609.0687132896704
 21
249.5080907057954
 31
0.0
  0
LINE
  5
5D9
330
1F
100
AcDbEntity
  8
LAY-10
  6
CENTER
 62
     2
100
AcDbLine
 10
789.0687132896682
 20
333.499999999969
 30
0.0
 11
789.0687132896682
 21
249.5080907057952
 31
0.0
  0
LINE
  5
5DA
330
1F
100
AcDbEntity
  8
LAY-10
  6
CENTER
 62
     2
100
AcDbLine
 10
468.5687132896591
 20
296.2643802880656
 30
0.0
 11
468.5687132896591
 21
311.0043802880654
 31
0.0
  0
LINE
  5
5DB
330
1F
100
AcDbEntity
  8
LAY-10
  6
CENTER
 62
     2
100
AcDbLine
 10
461.5487132896686
 20
303.4999999999653
 30
0.0
 11
476.4187132896694
 21
303.4999999999653
 31
0.0
  0
LINE
  5
5DC
330
1F
100
AcDbEntity
  8
LAY-10
  6
CENTER
 62
     2
100
AcDbLine
 10
931.1942769311567
 20
281.9869895225471
 30
0.0
 11
922.7704965643011
 21
296.5774051097416
 31
0.0
  0
LINE
  5
5DD
330
1F
100
AcDbEntity
  8
LAY-10
  6
CENTER
 62
     2
100
AcDbLine
 10
919.6241726661341
 20
284.6576673471046
 30
0.0
 11
953.8942343251132
 21
304.443496671062
 31
0.0
  0
LINE
  5
5DE
330
1F
100
AcDbEntity
  8
LAY-10
  6
CENTER
 62
     2
100
AcDbLine
 10
955.9687132896933
 20
300.500000000021
 30
0.0
 11
896.3687132896928
 21
300.5000000000206
 31
0.0
  0
LINE
  5
5DF
330
1F
100
AcDbEntity
  8
LAY-10
  6
CENTER
 62
     2
100
AcDbLine
 10
951.1128612181892
 20
293.4869895225421
 30
0.0
 11
942.8496271584385
 21
307.7993307488642
 31
0.0
  0
ARC
  5
5E0
330
1F
100
AcDbEntity
  8
LAY-10
  6
HIDDEN
 62
     7
100
AcDbCircle
 10
1054.445143859122
 20
226.4999999999966
 30
0.0
 40
5.0
100
AcDbArc
 50
214.9999999999829
 51
270.0000000000002
  0
LINE
  5
5E1
330
1F
100
AcDbEntity
  8
LAY-10
  6
HIDDEN
 62
     7
100
AcDbLine
 10
1099.068713289671
 20
221.4999999999966
 30
0.0
 11
1054.445143859122
 21
221.4999999999966
 31
0.0
  0
LINE
  5
5E2
330
1F
100
AcDbEntity
  8
LAY-10
  6
HIDDEN
 62
     7
100
AcDbLine
 10
1049.999279868508
 20
224.1321178183323
 30
0.0
 11
1047.198449715684
 21
228.1321178183141
 31
0.0
  0
LINE
  5
5E3
330
1F
100
AcDbEntity
  8
LAY-10
  6
HIDDEN
 62
     7
100
AcDbLine
 10
1099.331179280285
 20
224.4999999999934
 30
0.0
 11
1099.068713289708
 21
221.4999999999934
 31
0.0
  0
ARC
  5
5E4
330
1F
100
AcDbEntity
  8
LAY-10
  6
HIDDEN
 62
     7
100
AcDbCircle
 10
335.6514487594662
 20
231.4999999999967
 30
0.0
 40
10.0
100
AcDbArc
 50
270.0000000000002
 51
328.5589702470364
  0
LINE
  5
5E5
330
1F
100
AcDbEntity
  8
LAY-10
  6
HIDDEN
 62
     7
100
AcDbLine
 10
299.0687132896895
 20
221.4999999999968
 30
0.0
 11
335.6514487594662
 21
221.4999999999967
 31
0.0
  0
LINE
  5
5E6
330
1F
100
AcDbEntity
  8
LAY-10
  6
HIDDEN
 62
     7
100
AcDbLine
 10
298.8062472990763
 20
224.4999999999936
 30
0.0
 11
299.0687132896541
 21
221.4999999999936
 31
0.0
  0
LINE
  5
5E7
330
1F
100
AcDbEntity
  8
LAY-10
  6
CONTINUOUS
 62
     7
100
AcDbLine
 10
843.6675906013297
 20
303.8038475773536
 30
0.0
 11
843.6675906013297
 21
275.50000000006
 31
0.0
  0
ARC
  5
5E8
330
1F
100
AcDbEntity
  8
LAY-10
  6
CONTINUOUS
 62
     7
100
AcDbCircle
 10
842.1675906013297
 20
275.50000000006
 30
0.0
 40
1.499999999999972
100
AcDbArc
 50
180.0
 51
0.0
  0
LINE
  5
5E9
330
1F
100
AcDbEntity
  8
LAY-10
  6
CONTINUOUS
 62
     7
100
AcDbLine
 10
844.0713174000254
 20
313.8882285677135
 30
0.0
 11
854.2533867124081
 21
275.8882285677134
 31
0.0
  0
ARC
  5
5EA
330
1F
100
AcDbEntity
  8
LAY-10
  6
CONTINUOUS
 62
     7
100
AcDbCircle
 10
852.8044979729754
 20
275.50000000006
 30
0.0
 40
1.500000000000011
100
AcDbArc
 50
194.9999999999987
 51
14.99999999999866
  0
ARC
  5
5EB
330
1F
100
AcDbEntity
  8
LAY-10
  6
CONTINUOUS
 62
     7
100
AcDbCircle
 10
842.6224286605926
 20
313.5000000000601
 30
0.0
 40
1.500000000000009
100
AcDbArc
 50
14.99999999999969
 51
194.9999999999997
  0
LINE
  5
5EC
330
1F
100
AcDbEntity
  8
LAY-10
  6
CONTINUOUS
 62
     7
100
AcDbLine
 10
841.0695143899799
 20
313.5000000000601
 30
0.0
 11
840.66759060133
 21
313.5000000000601
 31
0.0
  0
LINE
  5
5ED
330
1F
100
AcDbEntity
  8
LAY-10
  6
CONTINUOUS
 62
     7
100
AcDbLine
 10
840.66759060133
 20
313.5000000000601
 30
0.0
 11
840.6675906013297
 21
275.50000000006
 31
0.0
  0
LINE
  5
5EE
330
1F
100
AcDbEntity
  8
LAY-10
  6
CONTINUOUS
 62
     7
100
AcDbLine
 10
841.0695143899765
 20
313.5000000000601
 30
0.0
 11
851.3556092335407
 21
275.1117714324059
 31
0.0
  0
LINE
  5
5EF
330
1F
100
AcDbEntity
  8
LAY-10
  6
CONTINUOUS
 62
     7
100
AcDbLine
 10
864.3592152536405
 20
275.8882285677138
 30
0.0
 11
854.1771459412579
 21
313.8882285677137
 31
0.0
  0
ARC
  5
5F0
330
1F
100
AcDbEntity
  8
LAY-10
  6
CONTINUOUS
 62
     7
100
AcDbCircle
 10
862.9103265142069
 20
275.50000000006
 30
0.0
 40
1.500000000000009
100
AcDbArc
 50
194.9999999999987
 51
14.99999999999866
  0
LINE
  5
5F1
330
1F
100
AcDbEntity
  8
LAY-10
  6
CONTINUOUS
 62
     7
100
AcDbLine
 10
861.4614377747735
 20
275.1117714324062
 30
0.0
 11
851.279368462391
 21
313.1117714324062
 31
0.0
  0
ARC
  5
5F2
330
1F
100
AcDbEntity
  8
LAY-10
  6
CONTINUOUS
 62
     7
100
AcDbCircle
 10
852.7282572018245
 20
313.50000000006
 30
0.0
 40
1.500000000000011
100
AcDbArc
 50
15.00000000000129
 51
194.9999999999987
  0
LINE
  5
5F3
330
1F
100
AcDbEntity
  8
LAY-10
  6
CONTINUOUS
 62
     7
100
AcDbLine
 10
874.4650437948707
 20
275.8882285677138
 30
0.0
 11
864.2829744824879
 21
313.8882285677137
 31
0.0
  0
ARC
  5
5F4
330
1F
100
AcDbEntity
  8
LAY-10
  6
CONTINUOUS
 62
     7
100
AcDbCircle
 10
873.0161550554369
 20
275.50000000006
 30
0.0
 40
1.500000000000009
100
AcDbArc
 50
194.9999999999987
 51
14.99999999999866
  0
LINE
  5
5F5
330
1F
100
AcDbEntity
  8
LAY-10
  6
CONTINUOUS
 62
     7
100
AcDbLine
 10
871.5672663160035
 20
275.1117714324062
 30
0.0
 11
861.3851970036209
 21
313.1117714324062
 31
0.0
  0
ARC
  5
5F6
330
1F
100
AcDbEntity
  8
LAY-10
  6
CONTINUOUS
 62
     7
100
AcDbCircle
 10
862.8340857430545
 20
313.50000000006
 30
0.0
 40
1.500000000000011
100
AcDbArc
 50
15.00000000000129
 51
194.9999999999993
  0
LINE
  5
5F7
330
1F
100
AcDbEntity
  8
LAY-10
  6
CONTINUOUS
 62
     7
100
AcDbLine
 10
884.5708723361006
 20
275.8882285677138
 30
0.0
 11
874.388803023718
 21
313.8882285677137
 31
0.0
  0
ARC
  5
5F8
330
1F
100
AcDbEntity
  8
LAY-10
  6
CONTINUOUS
 62
     7
100
AcDbCircle
 10
883.121983596667
 20
275.50000000006
 30
0.0
 40
1.500000000000009
100
AcDbArc
 50
194.9999999999987
 51
14.99999999999866
  0
LINE
  5
5F9
330
1F
100
AcDbEntity
  8
LAY-10
  6
CONTINUOUS
 62
     7
100
AcDbLine
 10
881.6730948572333
 20
275.1117714324062
 30
0.0
 11
871.4910255448508
 21
313.1117714324062
 31
0.0
  0
ARC
  5
5FA
330
1F
100
AcDbEntity
  8
LAY-10
  6
CONTINUOUS
 62
     7
100
AcDbCircle
 10
872.9399142842846
 20
313.50000000006
 30
0.0
 40
1.500000000000011
100
AcDbArc
 50
15.00000000000129
 51
194.9999999999993
  0
LINE
  5
5FB
330
1F
100
AcDbEntity
  8
LAY-10
  6
CONTINUOUS
 62
     7
100
AcDbLine
 10
894.6767008773306
 20
275.8882285677138
 30
0.0
 11
884.494631564948
 21
313.8882285677137
 31
0.0
  0
ARC
  5
5FC
330
1F
100
AcDbEntity
  8
LAY-10
  6
CONTINUOUS
 62
     7
100
AcDbCircle
 10
893.2278121378971
 20
275.50000000006
 30
0.0
 40
1.500000000000009
100
AcDbArc
 50
194.9999999999987
 51
14.99999999999866
  0
LINE
  5
5FD
330
1F
100
AcDbEntity
  8
LAY-10
  6
CONTINUOUS
 62
     7
100
AcDbLine
 10
891.7789233984635
 20
275.1117714324062
 30
0.0
 11
881.5968540860808
 21
313.1117714324062
 31
0.0
  0
ARC
  5
5FE
330
1F
100
AcDbEntity
  8
LAY-10
  6
CONTINUOUS
 62
     7
100
AcDbCircle
 10
883.0457428255145
 20
313.50000000006
 30
0.0
 40
1.500000000000011
100
AcDbArc
 50
15.00000000000129
 51
194.9999999999993
  0
LINE
  5
5FF
330
1F
100
AcDbEntity
  8
LAY-10
  6
CONTINUOUS
 62
     7
100
AcDbLine
 10
904.7825294185607
 20
275.8882285677138
 30
0.0
 11
894.6004601061779
 21
313.8882285677137
 31
0.0
  0
ARC
  5
600
330
1F
100
AcDbEntity
  8
LAY-10
  6
CONTINUOUS
 62
     7
100
AcDbCircle
 10
903.333640679127
 20
275.50000000006
 30
0.0
 40
1.500000000000009
100
AcDbArc
 50
194.9999999999987
 51
14.99999999999866
  0
LINE
  5
601
330
1F
100
AcDbEntity
  8
LAY-10
  6
CONTINUOUS
 62
     7
100
AcDbLine
 10
901.8847519396934
 20
275.1117714324062
 30
0.0
 11
891.7026826273108
 21
313.1117714324062
 31
0.0
  0
ARC
  5
602
330
1F
100
AcDbEntity
  8
LAY-10
  6
CONTINUOUS
 62
     7
100
AcDbCircle
 10
893.1515713667444
 20
313.50000000006
 30
0.0
 40
1.500000000000011
100
AcDbArc
 50
15.00000000000129
 51
194.9999999999993
  0
LINE
  5
603
330
1F
100
AcDbEntity
  8
LAY-10
  6
CONTINUOUS
 62
     7
100
AcDbLine
 10
914.8883579597907
 20
275.8882285677138
 30
0.0
 11
904.706288647408
 21
313.8882285677137
 31
0.0
  0
ARC
  5
604
330
1F
100
AcDbEntity
  8
LAY-10
  6
CONTINUOUS
 62
     7
100
AcDbCircle
 10
913.439469220357
 20
275.50000000006
 30
0.0
 40
1.500000000000009
100
AcDbArc
 50
194.9999999999987
 51
14.99999999999866
  0
LINE
  5
605
330
1F
100
AcDbEntity
  8
LAY-10
  6
CONTINUOUS
 62
     7
100
AcDbLine
 10
911.9905804809235
 20
275.1117714324062
 30
0.0
 11
901.8085111685407
 21
313.1117714324062
 31
0.0
  0
ARC
  5
606
330
1F
100
AcDbEntity
  8
LAY-10
  6
CONTINUOUS
 62
     7
100
AcDbCircle
 10
903.2573999079744
 20
313.50000000006
 30
0.0
 40
1.500000000000011
100
AcDbArc
 50
15.00000000000129
 51
194.9999999999993
  0
LINE
  5
607
330
1F
100
AcDbEntity
  8
LAY-10
  6
CONTINUOUS
 62
     7
100
AcDbLine
 10
923.6675906013298
 20
285.1961524227665
 30
0.0
 11
923.6675906013298
 21
313.50000000006
 31
0.0
  0
ARC
  5
608
330
1F
100
AcDbEntity
  8
LAY-10
  6
CONTINUOUS
 62
     7
100
AcDbCircle
 10
925.1675906013298
 20
313.50000000006
 30
0.0
 40
1.499999999999972
100
AcDbArc
 50
0.0
 51
180.0
  0
LINE
  5
609
330
1F
100
AcDbEntity
  8
LAY-10
  6
CONTINUOUS
 62
     7
100
AcDbLine
 10
923.2638638026344
 20
275.1117714324064
 30
0.0
 11
913.0817944902517
 21
313.1117714324064
 31
0.0
  0
ARC
  5
60A
330
1F
100
AcDbEntity
  8
LAY-10
  6
CONTINUOUS
 62
     7
100
AcDbCircle
 10
914.5306832296843
 20
313.50000000006
 30
0.0
 40
1.500000000000011
100
AcDbArc
 50
15.00000000000055
 51
194.9999999999997
  0
ARC
  5
60B
330
1F
100
AcDbEntity
  8
LAY-10
  6
CONTINUOUS
 62
     7
100
AcDbCircle
 10
924.7127525420669
 20
275.50000000006
 30
0.0
 40
1.500000000000009
100
AcDbArc
 50
195.0000000000013
 51
15.00000000000129
  0
LINE
  5
60C
330
1F
100
AcDbEntity
  8
LAY-10
  6
CONTINUOUS
 62
     7
100
AcDbLine
 10
926.2656668126798
 20
275.50000000006
 30
0.0
 11
926.6675906013298
 21
275.50000000006
 31
0.0
  0
LINE
  5
60D
330
1F
100
AcDbEntity
  8
LAY-10
  6
CONTINUOUS
 62
     7
100
AcDbLine
 10
926.6675906013298
 20
275.50000000006
 30
0.0
 11
926.6675906013298
 21
313.50000000006
 31
0.0
  0
LINE
  5
60E
330
1F
100
AcDbEntity
  8
LAY-10
  6
CONTINUOUS
 62
     7
100
AcDbLine
 10
926.2656668126831
 20
275.50000000006
 30
0.0
 11
915.9795719691189
 21
313.888228567714
 31
0.0
  0
LINE
  5
60F
330
1F
100
AcDbEntity
  8
LAY-10
  6
CONTINUOUS
 62
     7
100
AcDbLine
 10
926.6675906013298
 20
313.50000000006
 30
0.0
 11
926.6675906013298
 21
275.50000000006
 31
0.0
  0
LINE
  5
610
330
1F
100
AcDbEntity
  8
LAY-10
  6
PHANTOM
 62
     7
100
AcDbLine
 10
421.6700831581583
 20
326.4999999999726
 30
0.0
 11
422.0200378122626
 21
322.4999999999726
 31
0.0
  0
LINE
  5
611
330
1F
100
AcDbEntity
  8
LAY-10
  6
PHANTOM
 62
     7
100
AcDbLine
 10
422.020037812259
 20
322.4999999999999
 30
0.0
 11
949.718758635578
 21
322.4999999999998
 31
0.0
  0
LINE
  5
612
330
1F
100
AcDbEntity
  8
LAY-10
  6
PHANTOM
 62
     7
100
AcDbLine
 10
940.0687132896732
 20
326.4999999999987
 30
0.0
 11
938.0687132896732
 21
322.4999999999987
 31
0.0
  0
DIMENSION
  5
614
330
1F
100
AcDbEntity
  8
LAY-20
  6
CONTINUOUS
 62
     4
100
AcDbDimension
  2
*D15
 10
1159.068713289711
 20
216.5000000000002
 30
0.0
 11
1146.568713289711
 21
271.5000000000003
 31
0.0
 70
   160
  3
ISO-25
100
AcDbAlignedDimension
 13
1034.068713289711
 23
326.5000000000005
 33
0.0
 14
1109.06871328971
 24
216.5000000000002
 34
0.0
 50
90.0
100
AcDbRotatedDimension
1001
ACAD
1000
DSTYLE
1002
{
1070
   270
1070
     2
1070
     6
1000
EX_BNORM
1070
     7
1000
EX_BNORM
1070
    41
1040
12.5
1070
    42
1040
7.5
1070
    44
1040
7.5
1070
    73
1070
     0
1070
    74
1070
     0
1070
    75
1070
     0
1070
    76
1070
     0
1070
    77
1070
     1
1070
    78
1070
     8
1070
   140
1040
15.590552
1070
   147
1040
0.0
1070
   173
1070
     1
1070
   176
1070
     4
1070
   177
1070
     4
1070
   178
1070
     7
1070
   271
1070
     1
1070
   277
1070
     2
1070
   279
1070
     2
1070
   280
1070
     0
1070
   287
1070
     5
1070
   340
1005
613
1002
}
  0
DIMENSION
  5
622
330
1F
100
AcDbEntity
  8
LAY-20
  6
CONTINUOUS
 62
     4
100
AcDbDimension
  2
*D16
 10
1013.0687132897
 20
446.5000000000001
 30
0.0
 11
699.0687132897051
 21
459.0000000000001
 31
0.0
 70
   160
  1
%%c<>
  3
ISO-25
100
AcDbAlignedDimension
 13
385.06871328971
 23
326.49999999998
 33
0.0
 14
1013.0687132897
 24
326.49999999998
 34
0.0
100
AcDbRotatedDimension
1001
ACAD
1000
DSTYLE
1002
{
1070
   270
1070
     2
1070
     6
1000
EX_BNORM
1070
     7
1000
EX_BNORM
1070
    41
1040
15.0
1070
    42
1040
7.5
1070
    44
1040
7.5
1070
    73
1070
     0
1070
    74
1070
     0
1070
    75
1070
     0
1070
    76
1070
     0
1070
    77
1070
     1
1070
    78
1070
     8
1070
   140
1040
15.590552
1070
   147
1040
0.0
1070
   173
1070
     1
1070
   176
1070
     4
1070
   177
1070
     4
1070
   178
1070
     7
1070
   271
1070
     1
1070
   277
1070
     2
1070
   279
1070
     2
1070
   280
1070
     0
1070
   287
1070
     5
1070
   340
1005
613
1002
}
  0
DIMENSION
  5
62F
330
1F
100
AcDbEntity
  8
LAY-20
  6
CONTINUOUS
 62
     4
100
AcDbDimension
  2
*D17
 10
393.06871328966
 20
411.5000000000001
 30
0.0
 11
699.0687132896801
 21
424.0000000000001
 31
0.0
 70
   160
  1
%%c<>
  3
ISO-25
100
AcDbAlignedDimension
 13
1005.0687132897
 23
326.4999999999999
 33
0.0
 14
393.06871328966
 24
326.49999999996
 34
0.0
100
AcDbRotatedDimension
1001
ACAD
1000
DSTYLE
1002
{
1070
   270
1070
     2
1070
     6
1000
EX_BNORM
1070
     7
1000
EX_BNORM
1070
    41
1040
15.0
1070
    42
1040
7.5
1070
    44
1040
7.5
1070
    73
1070
     0
1070
    74
1070
     0
1070
    75
1070
     0
1070
    76
1070
     0
1070
    77
1070
     1
1070
    78
1070
     8
1070
   140
1040
15.590552
1070
   147
1040
0.0
1070
   173
1070
     1
1070
   176
1070
     4
1070
   177
1070
     4
1070
   178
1070
     7
1070
   271
1070
     1
1070
   277
1070
     2
1070
   279
1070
     2
1070
   280
1070
     0
1070
   287
1070
     5
1070
   340
1005
613
1002
}
  0
DIMENSION
  5
63C
330
1F
100
AcDbEntity
  8
LAY-20
  6
CONTINUOUS
 62
     4
100
AcDbDimension
  2
*D18
 10
999.06871328971
 20
116.5
 30
0.0
 11
699.06871328971
 21
129.0
 31
0.0
 70
   160
  1
%%c<>
  3
ISO-25
100
AcDbAlignedDimension
 13
399.06871328971
 23
209.0
 33
0.0
 14
999.06871328971
 24
209.0
 34
0.0
100
AcDbRotatedDimension
1001
ACAD
1000
DSTYLE
1002
{
1070
   270
1070
     2
1070
     6
1000
EX_BNORM
1070
     7
1000
EX_BNORM
1070
    41
1040
15.0
1070
    42
1040
7.5
1070
    44
1040
7.5
1070
    73
1070
     0
1070
    74
1070
     0
1070
    75
1070
     0
1070
    76
1070
     0
1070
    77
1070
     1
1070
    78
1070
     8
1070
   140
1040
15.590552
1070
   147
1040
0.0
1070
   173
1070
     1
1070
   176
1070
     4
1070
   177
1070
     4
1070
   178
1070
     7
1070
   271
1070
     1
1070
   277
1070
     2
1070
   279
1070
     2
1070
   280
1070
     0
1070
   287
1070
     5
1070
   340
1005
613
1002
}
  0
DIMENSION
  5
649
330
1F
100
AcDbEntity
  8
LAY-20
  6
CONTINUOUS
 62
     4
100
AcDbDimension
  2
*D19
 10
289.06871328969
 20
81.5
 30
0.0
 11
699.068713289695
 21
94.0
 31
0.0
 70
   160
  1
%%c<>
  3
ISO-25
100
AcDbAlignedDimension
 13
1109.0687132897
 23
216.5
 33
0.0
 14
289.06871328969
 24
216.5
 34
0.0
100
AcDbRotatedDimension
1001
ACAD
1000
DSTYLE
1002
{
1070
   270
1070
     2
1070
     6
1000
EX_BNORM
1070
     7
1000
EX_BNORM
1070
    41
1040
15.0
1070
    42
1040
7.5
1070
    44
1040
7.5
1070
    73
1070
     0
1070
    74
1070
     0
1070
    75
1070
     0
1070
    76
1070
     0
1070
    77
1070
     1
1070
    78
1070
     8
1070
   140
1040
15.590552
1070
   147
1040
0.0
1070
   173
1070
     1
1070
   176
1070
     4
1070
   177
1070
     4
1070
   178
1070
     7
1070
   271
1070
     1
1070
   277
1070
     2
1070
   279
1070
     2
1070
   280
1070
     0
1070
   287
1070
     5
1070
   340
1005
613
1002
}
  0
LINE
  5
656
330
1F
100
AcDbEntity
  8
LAY-255
  6
CONTINUOUS
 62
     7
100
AcDbLine
 10
1925.0
 20
110.0
 30
0.0
 11
1425.0
 21
110.0
 31
0.0
  0
LINE
  5
657
330
1F
100
AcDbEntity
  8
LAY-255
  6
CONTINUOUS
 62
     7
100
AcDbLine
 10
1444.0
 20
79.99999999999999
 30
0.0
 11
1484.0
 21
105.0
 31
0.0
  0
LINE
  5
658
330
1F
100
AcDbEntity
  8
LAY-255
  6
CONTINUOUS
 62
     7
100
AcDbLine
 10
1484.0
 20
105.0
 30
0.0
 11
1524.0
 21
79.99999999999999
 31
0.0
  0
LINE
  5
659
330
1F
100
AcDbEntity
  8
LAY-255
  6
CONTINUOUS
 62
     7
100
AcDbLine
 10
1524.0
 20
79.99999999999999
 30
0.0
 11
1484.0
 21
55.0
 31
0.0
  0
LINE
  5
65A
330
1F
100
AcDbEntity
  8
LAY-255
  6
CONTINUOUS
 62
     7
100
AcDbLine
 10
1484.0
 20
55.0
 30
0.0
 11
1444.0
 21
79.99999999999999
 31
0.0
  0
LINE
  5
65B
330
1F
100
AcDbEntity
  8
LAY-255
  6
CONTINUOUS
 62
     7
100
AcDbLine
 10
25.0
 20
50.0
 30
0.0
 11
1925.0
 21
50.0
 31
0.0
  0
LINE
  5
65C
330
1F
100
AcDbEntity
  8
LAY-255
  6
CONTINUOUS
 62
     7
100
AcDbLine
 10
25.0
 20
1400.0
 30
0.0
 11
1925.0
 21
1400.0
 31
0.0
  0
LINE
  5
65D
330
1F
100
AcDbEntity
  8
LAY-255
  6
CONTINUOUS
 62
     7
100
AcDbLine
 10
25.0
 20
50.0
 30
0.0
 11
25.0
 21
1400.0
 31
0.0
  0
LINE
  5
65E
330
1F
100
AcDbEntity
  8
LAY-255
  6
CONTINUOUS
 62
     7
100
AcDbLine
 10
1925.0
 20
50.0
 30
0.0
 11
1925.0
 21
1400.0
 31
0.0
  0
LINE
  5
65F
330
1F
100
AcDbEntity
  8
LAY-255
  6
CONTINUOUS
 62
     4
100
AcDbLine
 10
1425.0
 20
140.0
 30
0.0
 11
1925.0
 21
140.0
 31
0.0
  0
LINE
  5
660
330
1F
100
AcDbEntity
  8
LAY-255
  6
CONTINUOUS
 62
     4
100
AcDbLine
 10
1675.0
 20
140.0
 30
0.0
 11
1675.0
 21
110.0
 31
0.0
  0
POINT
  5
661
330
1F
100
AcDbEntity
  8
LAY-255
  6
CONTINUOUS
 62
     7
100
AcDbPoint
 10
1445.0
 20
300.0000000000001
 30
0.0
  0
POINT
  5
662
330
1F
100
AcDbEntity
  8
LAY-255
  6
CONTINUOUS
 62
     7
100
AcDbPoint
 10
1445.0
 20
250.0000000000001
 30
0.0
  0
POINT
  5
663
330
1F
100
AcDbEntity
  8
LAY-255
  6
CONTINUOUS
 62
     7
100
AcDbPoint
 10
1445.0
 20
225.0000000000001
 30
0.0
  0
POINT
  5
664
330
1F
100
AcDbEntity
  8
LAY-255
  6
CONTINUOUS
 62
     7
100
AcDbPoint
 10
1445.0
 20
175.0
 30
0.0
  0
POINT
  5
665
330
1F
100
AcDbEntity
  8
LAY-255
  6
CONTINUOUS
 62
     7
100
AcDbPoint
 10
1445.0
 20
200.0
 30
0.0
  0
POINT
  5
666
330
1F
100
AcDbEntity
  8
LAY-255
  6
CONTINUOUS
 62
     7
100
AcDbPoint
 10
1445.0
 20
150.0
 30
0.0
  0
POINT
  5
667
330
1F
100
AcDbEntity
  8
LAY-255
  6
CONTINUOUS
 62
     7
100
AcDbPoint
 10
1445.0
 20
275.0000000000001
 30
0.0
  0
LINE
  5
668
330
1F
100
AcDbEntity
  8
LAY-255
  6
CONTINUOUS
 62
     7
100
AcDbLine
 10
1925.0
 20
310.0000000000001
 30
0.0
 11
1425.0
 21
310.0000000000001
 31
0.0
  0
LINE
  5
669
330
1F
100
AcDbEntity
  8
LAY-255
  6
CONTINUOUS
 62
     4
100
AcDbLine
 10
1915.0
 20
250.0000000000001
 30
0.0
 11
1435.0
 21
250.0000000000001
 31
0.0
  0
LINE
  5
66A
330
1F
100
AcDbEntity
  8
LAY-255
  6
CONTINUOUS
 62
     4
100
AcDbLine
 10
1915.0
 20
280.0000000000001
 30
0.0
 11
1435.0
 21
280.0000000000001
 31
0.0
  0
POINT
  5
66B
330
1F
100
AcDbEntity
  8
LAY-255
  6
CONTINUOUS
 62
     7
100
AcDbPoint
 10
1445.0
 20
225.0000000000001
 30
0.0
  0
POINT
  5
66C
330
1F
100
AcDbEntity
  8
LAY-255
  6
CONTINUOUS
 62
     7
100
AcDbPoint
 10
1500.0
 20
255.0000000000001
 30
0.0
  0
POINT
  5
66D
330
1F
100
AcDbEntity
  8
LAY-255
  6
CONTINUOUS
 62
     7
100
AcDbPoint
 10
1500.0
 20
285.0000000000001
 30
0.0
  0
LINE
  5
66E
330
1F
100
AcDbEntity
  8
LAY-255
  6
CONTINUOUS
 62
     7
100
AcDbLine
 10
1425.0
 20
50.0
 30
0.0
 11
1425.0
 21
310.0
 31
0.0
  0
TEXT
  5
66F
330
1F
100
AcDbEntity
  8
LAY-255
  6
CONTINUOUS
 62
     7
100
AcDbText
 10
1540.691894370117
 20
77.71874999999999
 30
0.0
 40
25.78125
  1
福西鋳物株式会社
 41
1.342691871783662
  7
EXCADSTD
100
AcDbText
  0
TEXT
  5
670
330
1F
100
AcDbEntity
  8
LAY-255
  6
CONTINUOUS
 62
     7
100
AcDbText
 10
1542.546875
 20
59.90624999999999
 30
0.0
 40
8.59375
  1
ＦＵＫＵＮＩＳＨＩ
 41
1.204799226045263
  7
EXCADSTD
100
AcDbText
  0
TEXT
  5
671
330
1F
100
AcDbEntity
  8
LAY-255
  6
CONTINUOUS
 62
     7
100
AcDbText
 10
1663.595982142857
 20
59.90624999999999
 30
0.0
 40
8.59375
  1
ＦＯＵＮＤＲＹ
 41
1.243252752978497
  7
EXCADSTD
100
AcDbText
  0
TEXT
  5
672
330
1F
100
AcDbEntity
  8
LAY-255
  6
CONTINUOUS
 62
     7
100
AcDbText
 10
1759.97295734375
 20
59.90624999999999
 30
0.0
 40
8.59375
  1
ＣＯ.,ＬＴＤ.
 41
1.243831100341625
  7
EXCADSTD
100
AcDbText
  0
TEXT
  5
673
330
1F
100
AcDbEntity
  8
LAY-255
  6
CONTINUOUS
 62
     7
100
AcDbText
 10
1470.171875
 20
68.59375
 30
0.0
 40
25.78125
  1
S
 41
0.7582677563636363
  7
EXCADSTD
100
AcDbText
  0
TEXT
  5
674
330
1F
100
AcDbEntity
  8
LAY-255
  6
CONTINUOUS
 62
     7
100
AcDbText
 10
1485.5234375
 20
68.7470518868
 30
0.0
 40
25.78125
  1
F
 41
0.7440945272727272
  7
EXCADSTD
100
AcDbText
  0
TEXT
  5
675
330
1F
100
AcDbEntity
  8
LAY-255
  6
CONTINUOUS
 62
     7
100
AcDbText
 10
1685.52734375
 20
122.1093749999999
 30
0.0
 40
12.890625
  1
縮尺
 41
1.080708718181818
  7
EXCADSTD
100
AcDbText
  0
TEXT
  5
676
330
1F
100
AcDbEntity
  8
LAY-255
  6
CONTINUOUS
 62
     7
100
AcDbText
 10
1435.76171875
 20
122.1093749999999
 30
0.0
 40
12.890625
  1
作成日
 41
1.000629973818182
  7
EXCADSTD
100
AcDbText
  0
TEXT
  5
677
330
1F
100
AcDbEntity
  8
LAY-255
  6
CONTINUOUS
 62
     7
100
AcDbText
 10
1741.40625
 20
117.8124999999999
 30
0.0
 40
17.1875
  1
１：５
 41
0.888661464
  7
EXCADSTD
100
AcDbText
  0
TEXT
  5
678
330
1F
100
AcDbEntity
  8
LAY-255
  6
CONTINUOUS
 62
     7
100
AcDbText
 10
1506.40625
 20
117.8124999999999
 30
0.0
 40
17.1875
  1
１５／０８／１９
 41
0.964285764935065
  7
EXCADSTD
100
AcDbText
  0
TEXT
  5
679
330
1F
100
AcDbEntity
  8
LAY-255
  6
CONTINUOUS
 62
     7
100
AcDbText
 10
1436.328125
 20
257.8125000000001
 30
0.0
 40
17.1875
  1
型式
 41
1.056348480681818
  7
EXCADSTD
100
AcDbText
  0
TEXT
  5
67A
330
1F
100
AcDbEntity
  8
LAY-255
  6
CONTINUOUS
 62
     7
100
AcDbText
 10
1437.109375
 20
287.8125000000001
 30
0.0
 40
17.1875
  1
品名
 41
0.9788386340909091
  7
EXCADSTD
100
AcDbText
  0
TEXT
  5
67B
330
1F
100
AcDbEntity
  8
LAY-255
  6
CONTINUOUS
 62
     7
100
AcDbText
 10
1501.5625
 20
287.8125000000001
 30
0.0
 40
17.1875
  1
土木用鉄蓋
 41
1.026735084143763
  7
EXCADSTD
100
AcDbText
  0
TEXT
  5
67C
330
1F
100
AcDbEntity
  8
LAY-255
  6
CONTINUOUS
 62
     7
100
AcDbText
 10
1503.125
 20
257.8125000000001
 30
0.0
 40
17.1875
  1
ＯＭ－Ｅ
 41
0.9785780967914439
  7
EXCADSTD
100
AcDbText
  0
TEXT
  5
67D
330
1F
100
AcDbEntity
  8
LAY-255
  6
CONTINUOUS
 62
     7
100
AcDbText
 10
1445.78125
 20
227.8125000000002
 30
0.0
 40
17.1875
  1
規格：大阪府型
 41
1.024073888822653
  7
EXCADSTD
100
AcDbText
  0
TEXT
  5
67E
330
1F
100
AcDbEntity
  8
LAY-255
  6
CONTINUOUS
 62
     7
100
AcDbText
 10
1445.859375
 20
202.8125
 30
0.0
 40
17.1875
  1
破壊荷重：７００ｋＮ以上
 41
1.015859509605489
  7
EXCADSTD
100
AcDbText
  0
ENDSEC
  0
SECTION
  2
OBJECTS
  0
DICTIONARY
  5
C
330
0
100
AcDbDictionary
  3
ACAD_GROUP
350
D
  3
ACAD_LAYOUT
350
1A
  3
ACAD_MATERIAL
350
43
  3
ACAD_MLEADERSTYLE
350
6B
  3
ACAD_MLINESTYLE
350
17
  3
ACAD_PLOTSETTINGS
350
19
  3
ACAD_SCALELIST
350
47
  3
ACAD_VISUALSTYLE
350
2A
  3
ACDBHEADERROUNDTRIPXREC
350
67F
  3
ACDBVARIABLEDICTIONARY
350
6A0
  0
DICTIONARY
  5
6AB
330
8
100
AcDbDictionary
280
     1
  3
ACAD_XREC_ROUNDTRIP
360
6AC
  0
DICTIONARY
  5
D
102
{ACAD_REACTORS
330
C
102
}
330
C
100
AcDbDictionary
  0
DICTIONARY
  5
1A
102
{ACAD_REACTORS
330
C
102
}
330
C
100
AcDbDictionary
  0
DICTIONARY
  5
43
102
{ACAD_REACTORS
330
C
102
}
330
C
100
AcDbDictionary
  3
BYBLOCK
350
45
  3
BYLAYER
350
44
  3
GLOBAL
350
46
  0
DICTIONARY
  5
6B
102
{ACAD_REACTORS
330
C
102
}
330
C
100
AcDbDictionary
  3
STANDARD
350
6C
  0
DICTIONARY
  5
17
102
{ACAD_REACTORS
330
C
102
}
330
C
100
AcDbDictionary
  3
STANDARD
350
18
  0
DICTIONARY
  5
19
102
{ACAD_REACTORS
330
C
102
}
330
C
100
AcDbDictionary
  0
DICTIONARY
  5
47
102
{ACAD_REACTORS
330
C
102
}
330
C
100
AcDbDictionary
  3
A0
350
48
  3
A1
350
49
  3
A2
350
4A
  3
A3
350
4B
  3
A4
350
4C
  3
A5
350
4D
  3
A6
350
4E
  3
A7
350
4F
  3
A8
350
50
  3
A9
350
51
  3
B0
350
52
  3
B1
350
53
  3
B2
350
54
  3
B3
350
55
  3
B4
350
56
  3
B5
350
57
  3
B6
350
58
  3
B7
350
59
  3
B8
350
5A
  3
B9
350
5B
  3
C0
350
5C
  3
C1
350
5D
  3
C2
350
5E
  3
C3
350
5F
  3
C4
350
60
  3
C5
350
61
  3
C6
350
62
  3
C7
350
63
  3
C8
350
64
  3
C9
350
65
  3
D0
350
66
  3
D1
350
67
  3
D2
350
68
  0
DICTIONARY
  5
2A
102
{ACAD_REACTORS
330
C
102
}
330
C
100
AcDbDictionary
  3
2DWIREFRAME
350
2F
  3
BASIC
350
32
  3
BRIGHTEN
350
36
  3
COLORCHANGE
350
3A
  3
CONCEPTUAL
350
34
  3
DIM
350
35
  3
EDGECOLOROFF
350
3D
  3
FACEPATTERN
350
39
  3
FLAT
350
2B
  3
FLATWITHEDGES
350
2C
  3
GOURAUD
350
2D
  3
GOURAUDWITHEDGES
350
2E
  3
HIDDEN
350
31
  3
JITTEROFF
350
3B
  3
LINEPATTERN
350
38
  3
OVERHANGOFF
350
3C
  3
REALISTIC
350
33
  3
SHADED
350
42
  3
SHADED_WITH_EDGES
350
41
  3
SHADES_OF_GRAY
350
3E
  3
SKETCHY
350
3F
  3
THICKEN
350
37
  3
WIREFRAME
350
30
  3
X-RAY
350
40
  0
DICTIONARY
  5
67F
102
{ACAD_REACTORS
330
C
102
}
330
C
100
AcDbDictionary
  3
CEPSNID
350
689
  3
CEPSNTYPE
350
688
  3
DIMSTYLEDATA
350
69F
  3
FINGERPRINTGUID
350
68A
  3
HYPERLINKBASE
350
682
  3
INSUNITS
350
687
  3
LAYOUTDICT
350
684
  3
LWETCUNION
350
686
  3
PLOTSETDICT
350
685
  3
PSVPSCALE
350
68C
  3
PUCSBASE
350
68F
  3
PUCSORGBACK
350
695
  3
PUCSORGBOTTOM
350
691
  3
PUCSORGFRONT
350
694
  3
PUCSORGLEFT
350
692
  3
PUCSORGRIGHT
350
693
  3
PUCSORGTOP
350
690
  3
PUCSORTHOREF
350
68D
  3
PUCSORTHOVIEW
350
68E
  3
STYLESHEET
350
683
  3
TSTACKALIGN
350
680
  3
TSTACKSIZE
350
681
  3
UCSBASE
350
698
  3
UCSORGBACK
350
69E
  3
UCSORGBOTTOM
350
69A
  3
UCSORGFRONT
350
69D
  3
UCSORGLEFT
350
69B
  3
UCSORGRIGHT
350
69C
  3
UCSORGTOP
350
699
  3
UCSORTHOREF
350
696
  3
UCSORTHOVIEW
350
697
  3
VERSIONGUID
350
68B
  0
DICTIONARY
  5
6A0
102
{ACAD_REACTORS
330
C
102
}
330
C
100
AcDbDictionary
  3
CANNOSCALE
350
6AD
  3
CENTEREXE
350
6A7
  3
CENTERLTYPEFILE
350
6A8
  3
CMLEADERSTYLE
350
6A2
  3
CTABLESTYLE
350
6A1
  3
DIMASSOC
350
6A9
  3
HIDETEXT
350
6AA
  3
MSLTSCALE
350
6AE
  3
PSOLHEIGHT
350
6A4
  3
PSOLWIDTH
350
6A3
  0
XRECORD
  5
6AC
102
{ACAD_REACTORS
330
6AB
102
}
330
6AB
100
AcDbXrecord
102
VTR_0.000_0.000_1.000_1.000_VISUALSTYLE
340
2F
102
VTR_0.000_0.000_1.000_1.000_GRIDDISPLAY
 70
     3
102
VTR_0.000_0.000_1.000_1.000_GRIDMAJOR
 70
     5
102
VTR_0.000_0.000_1.000_1.000_DEFAULTLIGHTING
280
     1
102
VTR_0.000_0.000_1.000_1.000_DEFAULTLIGHTINGTYPE
 70
     1
102
VTR_0.000_0.000_1.000_1.000_BRIGHTNESS
141
0.0
102
VTR_0.000_0.000_1.000_1.000_CONTRAST
142
0.0
  0
MATERIAL
  5
45
102
{ACAD_REACTORS
330
43
102
}
102
{ACAD_XDICTIONARY
360
6B1
102
}
330
43
100
AcDbMaterial
  1
BYBLOCK
  0
MATERIAL
  5
44
102
{ACAD_REACTORS
330
43
102
}
102
{ACAD_XDICTIONARY
360
6AF
102
}
330
43
100
AcDbMaterial
  1
BYLAYER
  0
MATERIAL
  5
46
102
{ACAD_REACTORS
330
43
102
}
102
{ACAD_XDICTIONARY
360
6B3
102
}
330
43
100
AcDbMaterial
  1
GLOBAL
  0
ACAD_PROXY_OBJECT
  5
6C
102
{ACAD_REACTORS
330
6B
102
}
330
6B
100
AcDbProxyObject
 90
      499
 91
      505
 93
      610
310
40901902A4063FBFFFFFE0000000000000020400000000000020404214DD185B99185C990000000000000104090141901A00000000000004100000000000000041025764000000000000039000
340
14
340
0
340
11
340
0
 94
        0
1001
ACAD_MLEADERVER
1070
     2
  0
MLINESTYLE
  5
18
102
{ACAD_REACTORS
330
17
102
}
330
17
100
AcDbMlineStyle
  2
Standard
 70
     0
  3

 62
   256
 51
90.0
 52
90.0
 71
     2
 49
0.5
 62
   256
  6
BYLAYER
 49
-0.5
 62
   256
  6
BYLAYER
  0
ACAD_PROXY_OBJECT
  5
48
102
{ACAD_REACTORS
330
47
102
}
330
47
100
AcDbProxyObject
 90
      499
 91
      503
 93
       41
310
903313A31580
  0
ACAD_PROXY_OBJECT
  5
49
102
{ACAD_REACTORS
330
47
102
}
330
47
100
AcDbProxyObject
 90
      499
 91
      503
 93
      105
310
903313A324000000000000004000
  0
ACAD_PROXY_OBJECT
  5
4A
102
{ACAD_REACTORS
330
47
102
}
330
47
100
AcDbProxyObject
 90
      499
 91
      503
 93
      105
310
903313A344000000000000104000
  0
ACAD_PROXY_OBJECT
  5
4B
102
{ACAD_REACTORS
330
47
102
}
330
47
100
AcDbProxyObject
 90
      499
 91
      503
 93
      105
310
903313A354000000000000144000
  0
ACAD_PROXY_OBJECT
  5
4C
102
{ACAD_REACTORS
330
47
102
}
330
47
100
AcDbProxyObject
 90
      499
 91
      503
 93
      105
310
903313A384000000000000204000
  0
ACAD_PROXY_OBJECT
  5
4D
102
{ACAD_REACTORS
330
47
102
}
330
47
100
AcDbProxyObject
 90
      499
 91
      503
 93
      113
310
904313A31304000000000000244000
  0
ACAD_PROXY_OBJECT
  5
4E
102
{ACAD_REACTORS
330
47
102
}
330
47
100
AcDbProxyObject
 90
      499
 91
      503
 93
      113
310
904313A31364000000000000304000
  0
ACAD_PROXY_OBJECT
  5
4F
102
{ACAD_REACTORS
330
47
102
}
330
47
100
AcDbProxyObject
 90
      499
 91
      503
 93
      113
310
904313A32304000000000000344000
  0
ACAD_PROXY_OBJECT
  5
50
102
{ACAD_REACTORS
330
47
102
}
330
47
100
AcDbProxyObject
 90
      499
 91
      503
 93
      113
310
904313A333040000000000003E4000
  0
ACAD_PROXY_OBJECT
  5
51
102
{ACAD_REACTORS
330
47
102
}
330
47
100
AcDbProxyObject
 90
      499
 91
      503
 93
      113
310
904313A34304000000000000444000
  0
ACAD_PROXY_OBJECT
  5
52
102
{ACAD_REACTORS
330
47
102
}
330
47
100
AcDbProxyObject
 90
      499
 91
      503
 93
      113
310
904313A35304000000000000494000
  0
ACAD_PROXY_OBJECT
  5
53
102
{ACAD_REACTORS
330
47
102
}
330
47
100
AcDbProxyObject
 90
      499
 91
      503
 93
      121
310
905313A3130304000000000000594000
  0
ACAD_PROXY_OBJECT
  5
54
102
{ACAD_REACTORS
330
47
102
}
330
47
100
AcDbProxyObject
 90
      499
 91
      503
 93
      105
310
903323A310000000000000010100
  0
ACAD_PROXY_OBJECT
  5
55
102
{ACAD_REACTORS
330
47
102
}
330
47
100
AcDbProxyObject
 90
      499
 91
      503
 93
      105
310
903343A310000000000000410100
  0
ACAD_PROXY_OBJECT
  5
56
102
{ACAD_REACTORS
330
47
102
}
330
47
100
AcDbProxyObject
 90
      499
 91
      503
 93
      105
310
903383A310000000000000810100
  0
ACAD_PROXY_OBJECT
  5
57
102
{ACAD_REACTORS
330
47
102
}
330
47
100
AcDbProxyObject
 90
      499
 91
      503
 93
      113
310
90431303A310000000000000910100
  0
ACAD_PROXY_OBJECT
  5
58
102
{ACAD_REACTORS
330
47
102
}
330
47
100
AcDbProxyObject
 90
      499
 91
      503
 93
      121
310
9053130303A310000000000001650100
  0
ACAD_PROXY_OBJECT
  5
59
102
{ACAD_REACTORS
330
47
102
}
330
47
100
AcDbProxyObject
 90
      499
 91
      503
 93
      257
310
90E312F31323822203D2031272D3022000000000000200FC000000000000284000
  0
ACAD_PROXY_OBJECT
  5
5A
102
{ACAD_REACTORS
330
47
102
}
330
47
100
AcDbProxyObject
 90
      499
 91
      503
 93
      249
310
90D312F363422203D2031272D3022000000000000240FC000000000000284000
  0
ACAD_PROXY_OBJECT
  5
5B
102
{ACAD_REACTORS
330
47
102
}
330
47
100
AcDbProxyObject
 90
      499
 91
      503
 93
      249
310
90D312F333222203D2031272D3022000000000000280FC000000000000284000
  0
ACAD_PROXY_OBJECT
  5
5C
102
{ACAD_REACTORS
330
47
102
}
330
47
100
AcDbProxyObject
 90
      499
 91
      503
 93
      249
310
90D312F313622203D2031272D30220000000000002C0FC000000000000284000
  0
ACAD_PROXY_OBJECT
  5
5D
102
{ACAD_REACTORS
330
47
102
}
330
47
100
AcDbProxyObject
 90
      499
 91
      503
 93
      249
310
90D332F333222203D2031272D30220000000000002E0FC000000000000284000
  0
ACAD_PROXY_OBJECT
  5
5E
102
{ACAD_REACTORS
330
47
102
}
330
47
100
AcDbProxyObject
 90
      499
 91
      503
 93
      241
310
90C312F3822203D2031272D3022000000000000300FC000000000000284000
  0
ACAD_PROXY_OBJECT
  5
5F
102
{ACAD_REACTORS
330
47
102
}
330
47
100
AcDbProxyObject
 90
      499
 91
      503
 93
      249
310
90D332F313622203D2031272D3022000000000000320FC000000000000284000
  0
ACAD_PROXY_OBJECT
  5
60
102
{ACAD_REACTORS
330
47
102
}
330
47
100
AcDbProxyObject
 90
      499
 91
      503
 93
      241
310
90C312F3422203D2031272D3022000000000000340FC000000000000284000
  0
ACAD_PROXY_OBJECT
  5
61
102
{ACAD_REACTORS
330
47
102
}
330
47
100
AcDbProxyObject
 90
      499
 91
      503
 93
      241
310
90C332F3822203D2031272D3022000000000000360FC000000000000284000
  0
ACAD_PROXY_OBJECT
  5
62
102
{ACAD_REACTORS
330
47
102
}
330
47
100
AcDbProxyObject
 90
      499
 91
      503
 93
      241
310
90C312F3222203D2031272D3022000000000000380FC000000000000284000
  0
ACAD_PROXY_OBJECT
  5
63
102
{ACAD_REACTORS
330
47
102
}
330
47
100
AcDbProxyObject
 90
      499
 91
      503
 93
      241
310
90C332F3422203D2031272D30220000000000003A0FC000000000000284000
  0
ACAD_PROXY_OBJECT
  5
64
102
{ACAD_REACTORS
330
47
102
}
330
47
100
AcDbProxyObject
 90
      499
 91
      503
 93
      161
310
90A3122203D2031272D30224000000000000284000
  0
ACAD_PROXY_OBJECT
  5
65
102
{ACAD_REACTORS
330
47
102
}
330
47
100
AcDbProxyObject
 90
      499
 91
      503
 93
      257
310
90E312D312F3222203D2031272D30220000000000003E0FC000000000000284000
  0
ACAD_PROXY_OBJECT
  5
66
102
{ACAD_REACTORS
330
47
102
}
330
47
100
AcDbProxyObject
 90
      499
 91
      503
 93
      225
310
90A3322203D2031272D302200000000000002100000000000000284000
  0
ACAD_PROXY_OBJECT
  5
67
102
{ACAD_REACTORS
330
47
102
}
330
47
100
AcDbProxyObject
 90
      499
 91
      503
 93
      225
310
90A3622203D2031272D302200000000000006100000000000000284000
  0
ACAD_PROXY_OBJECT
  5
68
102
{ACAD_REACTORS
330
47
102
}
330
47
100
AcDbProxyObject
 90
      499
 91
      503
 93
      249
310
90D31272D3022203D2031272D30220000000000000A100000000000000284000
  0
ACAD_PROXY_OBJECT
  5
2F
102
{ACAD_REACTORS
330
2A
102
}
330
2A
100
AcDbProxyObject
 90
      499
 91
      501
 93
      436
310
42CC9915DA5C99599C985B595049028333333333333E33F0000000000000F90107901411070040501600405405064090741402480A0340
1001
ACAD
1000
AcDbSavedByObjectVersion
1070
     0
  0
ACAD_PROXY_OBJECT
  5
32
102
{ACAD_REACTORS
330
2A
102
}
330
2A
100
AcDbProxyObject
 90
      499
 91
      501
 93
      388
310
4150985CDA58D07406404333333333333E33F0000000000000F90107A41107004050150841D405064090741402480A0350
1001
ACAD
1000
AcDbSavedByObjectVersion
1070
     0
  0
ACAD_PROXY_OBJECT
  5
36
102
{ACAD_REACTORS
330
2A
102
}
330
2A
100
AcDbProxyObject
 90
      499
 91
      501
 93
      428
310
42109C9A59DA1D195B90C409028333333333333E33F0000000000000F9010790141107004050150841D405064090741402480A029950
1001
ACAD
1000
AcDbSavedByObjectVersion
1070
     0
  0
ACAD_PROXY_OBJECT
  5
3A
102
{ACAD_REACTORS
330
2A
102
}
330
2A
100
AcDbProxyObject
 90
      499
 91
      501
 93
      452
310
42D0DBDB1BDC90DA185B99D95104090240C333333333333E33F0000000000000F90108901411070040501508421405064090741402480A0350
1001
ACAD
1000
AcDbSavedByObjectVersion
1070
     0
  0
ACAD_PROXY_OBJECT
  5
34
102
{ACAD_REACTORS
330
2A
102
}
330
2A
100
AcDbProxyObject
 90
      499
 91
      501
 93
      500
310
4290DBDB98D95C1D1D585B10940D028333333333333E33F0000000000000F90107902409070040501000000000018199010841D405064090740C02480A0340
1001
ACAD
1000
AcDbSavedByObjectVersion
1070
     0
  0
ACAD_PROXY_OBJECT
  5
35
102
{ACAD_REACTORS
330
2A
102
}
330
2A
100
AcDbProxyObject
 90
      499
 91
      501
 93
      412
310
40D11A5B50B409028333333333333E33F0000000000000F9010790141107004050150841D405064090741402480A02677FFFFFD0
1001
ACAD
1000
AcDbSavedByObjectVersion
1070
     0
  0
ACAD_PROXY_OBJECT
  5
3D
102
{ACAD_REACTORS
330
2A
102
}
330
2A
100
AcDbProxyObject
 90
      499
 91
      501
 93
      452
310
43115919D950DBDB1BDC93D999916409028333333333333E33F0000000000000F9010790141107004050150841D405064090741402480A0350
1001
ACAD
1000
AcDbSavedByObjectVersion
1070
     0
  0
ACAD_PROXY_OBJECT
  5
39
102
{ACAD_REACTORS
330
2A
102
}
330
2A
100
AcDbProxyObject
 90
      499
 91
      501
 93
      444
310
42D19858D95C185D1D195C9B90F409028333333333333E33F0000000000000F9010790141107004050150841D405064090741402480A0350
1001
ACAD
1000
AcDbSavedByObjectVersion
1070
     0
  0
ACAD_PROXY_OBJECT
  5
2B
102
{ACAD_REACTORS
330
2A
102
}
330
2A
100
AcDbProxyObject
 90
      499
 91
      501
 93
      380
310
41119B185D240901404333333333333E33F0000000000000F9010740A907004050150841D405064090741402480A1B50
1001
ACAD
1000
AcDbSavedByObjectVersion
1070
     0
  0
ACAD_PROXY_OBJECT
  5
2C
102
{ACAD_REACTORS
330
2A
102
}
330
2A
100
AcDbProxyObject
 90
      499
 91
      501
 93
      468
310
43519B185D15DA5D1A115919D95CD0140901404333333333333E33F0000000000000F90107409019070040501600405405064090741402480A1B50
1001
ACAD
1000
AcDbSavedByObjectVersion
1070
     0
  0
ACAD_PROXY_OBJECT
  5
2D
102
{ACAD_REACTORS
330
2A
102
}
330
2A
100
AcDbProxyObject
 90
      499
 91
      501
 93
      404
310
41D1DBDD5C985D5910240902404333333333333E33F0000000000000F9010740A9070040501641D405064090741402480A1B50
1001
ACAD
1000
AcDbSavedByObjectVersion
1070
     0
  0
ACAD_PROXY_OBJECT
  5
2E
102
{ACAD_REACTORS
330
2A
102
}
330
2A
100
AcDbProxyObject
 90
      499
 91
      501
 93
      492
310
4411DBDD5C985D5915DA5D1A115919D95CD0340902404333333333333E33F0000000000000F90107409019070040501600405405064090741402480A1B50
1001
ACAD
1000
AcDbSavedByObjectVersion
1070
     0
  0
ACAD_PROXY_OBJECT
  5
31
102
{ACAD_REACTORS
330
2A
102
}
330
2A
100
AcDbProxyObject
 90
      499
 91
      501
 93
      476
310
41921A5919195B90640502408333333333333E33F0000000000000F901079024090700405020000000000001110200405405064090740C02480A0340
1001
ACAD
1000
AcDbSavedByObjectVersion
1070
     0
  0
ACAD_PROXY_OBJECT
  5
3B
102
{ACAD_REACTORS
330
2A
102
}
330
2A
100
AcDbProxyObject
 90
      499
 91
      501
 93
      428
310
42529A5D1D195C93D999914409028333333333333E33F0000000000000F9010790141107004050150A41D405064090741402480A0350
1001
ACAD
1000
AcDbSavedByObjectVersion
1070
     0
  0
ACAD_PROXY_OBJECT
  5
38
102
{ACAD_REACTORS
330
2A
102
}
330
2A
100
AcDbProxyObject
 90
      499
 91
      501
 93
      444
310
42D31A5B995C185D1D195C9B90E409028333333333333E33F0000000000000F9010790141107004050750841D405064090741402483A0350
1001
ACAD
1000
AcDbSavedByObjectVersion
1070
     0
  0
ACAD_PROXY_OBJECT
  5
3C
102
{ACAD_REACTORS
330
2A
102
}
330
2A
100
AcDbProxyObject
 90
      499
 91
      501
 93
      444
310
42D3DD995C9A185B99D3D999915409028333333333333E33F0000000000000F9010790141107004050150941D405064090741402480A0350
1001
ACAD
1000
AcDbSavedByObjectVersion
1070
     0
  0
ACAD_PROXY_OBJECT
  5
33
102
{ACAD_REACTORS
330
2A
102
}
330
2A
100
AcDbProxyObject
 90
      499
 91
      501
 93
      428
310
425499585B1A5CDD1A58D08409038333333333333E33F0000000000000F9010740A907004050150800405405064090740C02480A1B40
1001
ACAD
1000
AcDbSavedByObjectVersion
1070
     0
  0
ACAD_PROXY_OBJECT
  5
42
102
{ACAD_REACTORS
330
2A
102
}
330
2A
100
AcDbProxyObject
 90
      499
 91
      501
 93
      420
310
4194DA1859195911B40902404333333333333E33F0000000000000F9010740A41107004050150800405405064090840C02480A0B40
1001
ACAD
1000
AcDbSavedByObjectVersion
1070
     0
  0
ACAD_PROXY_OBJECT
  5
41
102
{ACAD_REACTORS
330
2A
102
}
330
2A
100
AcDbProxyObject
 90
      499
 91
      501
 93
      516
310
4454DA18591959081DDA5D1A08195919D95CD1A40902404333333333333E33F0000000000000F901074090142907004050250800405405064090740C02480A0B40
1001
ACAD
1000
AcDbSavedByObjectVersion
1070
     0
  0
ACAD_PROXY_OBJECT
  5
3E
102
{ACAD_REACTORS
330
2A
102
}
330
2A
100
AcDbProxyObject
 90
      499
 91
      501
 93
      532
310
4394DA1859195CC81BD98811DC985E5174090240C333333333333E33F0000000000000F901079024090741D01000000000000111010841D405064090740C02480A0340
1001
ACAD
1000
AcDbSavedByObjectVersion
1070
     0
  0
ACAD_PROXY_OBJECT
  5
3F
102
{ACAD_REACTORS
330
2A
102
}
330
2A
100
AcDbProxyObject
 90
      499
 91
      501
 93
      476
310
41D4DAD95D18DA1E51840502408333333333333E33F0000000000000F901079024090741D01000000000000111010B41D405064090741802480A0340
1001
ACAD
1000
AcDbSavedByObjectVersion
1070
     0
  0
ACAD_PROXY_OBJECT
  5
37
102
{ACAD_REACTORS
330
2A
102
}
330
2A
100
AcDbProxyObject
 90
      499
 91
      501
 93
      412
310
41D51A1A58DAD95B90D409028333333333333E33F0000000000000F9010790141107004050150C41D405064090741402480A0350
1001
ACAD
1000
AcDbSavedByObjectVersion
1070
     0
  0
ACAD_PROXY_OBJECT
  5
30
102
{ACAD_REACTORS
330
2A
102
}
330
2A
100
AcDbProxyObject
 90
      499
 91
      501
 93
      420
310
4255DA5C99599C985B595059028333333333333E33F0000000000000F90107901411070040501600405405064090740C02480A0340
1001
ACAD
1000
AcDbSavedByObjectVersion
1070
     0
  0
ACAD_PROXY_OBJECT
  5
40
102
{ACAD_REACTORS
330
2A
102
}
330
2A
100
AcDbProxyObject
 90
      499
 91
      501
 93
      404
310
41560B54985E51940902404000000000000E03F0000000000000F9010740501907004050150841D405064090740C02480A1B40
1001
ACAD
1000
AcDbSavedByObjectVersion
1070
     0
  0
XRECORD
  5
689
102
{ACAD_REACTORS
330
67F
102
}
330
67F
100
AcDbXrecord
340
0
  0
XRECORD
  5
688
102
{ACAD_REACTORS
330
67F
102
}
330
67F
100
AcDbXrecord
 90
        0
  0
XRECORD
  5
69F
102
{ACAD_REACTORS
330
67F
102
}
330
67F
100
AcDbXrecord
1000
DSTYLE
1002
{
1070
   340
340
11
1002
}
  0
XRECORD
  5
68A
102
{ACAD_REACTORS
330
67F
102
}
330
67F
100
AcDbXrecord
  1
{2159b30d-5674-4084-8a8e-86fa7f6b28d8}
  0
XRECORD
  5
682
102
{ACAD_REACTORS
330
67F
102
}
330
67F
100
AcDbXrecord
  1

  0
XRECORD
  5
687
102
{ACAD_REACTORS
330
67F
102
}
330
67F
100
AcDbXrecord
 90
        4
  0
XRECORD
  5
684
102
{ACAD_REACTORS
330
67F
102
}
330
67F
100
AcDbXrecord
340
1A
  0
XRECORD
  5
686
102
{ACAD_REACTORS
330
67F
102
}
330
67F
100
AcDbXrecord
 90
    10781
  0
XRECORD
  5
685
102
{ACAD_REACTORS
330
67F
102
}
330
67F
100
AcDbXrecord
340
19
  0
XRECORD
  5
68C
102
{ACAD_REACTORS
330
67F
102
}
330
67F
100
AcDbXrecord
 40
0.0
  0
XRECORD
  5
68F
102
{ACAD_REACTORS
330
67F
102
}
330
67F
100
AcDbXrecord
340
0
  0
XRECORD
  5
695
102
{ACAD_REACTORS
330
67F
102
}
330
67F
100
AcDbXrecord
 10
0.0
 20
0.0
 30
0.0
  0
XRECORD
  5
691
102
{ACAD_REACTORS
330
67F
102
}
330
67F
100
AcDbXrecord
 10
0.0
 20
0.0
 30
0.0
  0
XRECORD
  5
694
102
{ACAD_REACTORS
330
67F
102
}
330
67F
100
AcDbXrecord
 10
0.0
 20
0.0
 30
0.0
  0
XRECORD
  5
692
102
{ACAD_REACTORS
330
67F
102
}
330
67F
100
AcDbXrecord
 10
0.0
 20
0.0
 30
0.0
  0
XRECORD
  5
693
102
{ACAD_REACTORS
330
67F
102
}
330
67F
100
AcDbXrecord
 10
0.0
 20
0.0
 30
0.0
  0
XRECORD
  5
690
102
{ACAD_REACTORS
330
67F
102
}
330
67F
100
AcDbXrecord
 10
0.0
 20
0.0
 30
0.0
  0
XRECORD
  5
68D
102
{ACAD_REACTORS
330
67F
102
}
330
67F
100
AcDbXrecord
340
0
  0
XRECORD
  5
68E
102
{ACAD_REACTORS
330
67F
102
}
330
67F
100
AcDbXrecord
 70
     0
  0
XRECORD
  5
683
102
{ACAD_REACTORS
330
67F
102
}
330
67F
100
AcDbXrecord
  1

  0
XRECORD
  5
680
102
{ACAD_REACTORS
330
67F
102
}
330
67F
100
AcDbXrecord
 90
        1
  0
XRECORD
  5
681
102
{ACAD_REACTORS
330
67F
102
}
330
67F
100
AcDbXrecord
 90
       70
  0
XRECORD
  5
698
102
{ACAD_REACTORS
330
67F
102
}
330
67F
100
AcDbXrecord
340
0
  0
XRECORD
  5
69E
102
{ACAD_REACTORS
330
67F
102
}
330
67F
100
AcDbXrecord
 10
0.0
 20
0.0
 30
0.0
  0
XRECORD
  5
69A
102
{ACAD_REACTORS
330
67F
102
}
330
67F
100
AcDbXrecord
 10
0.0
 20
0.0
 30
0.0
  0
XRECORD
  5
69D
102
{ACAD_REACTORS
330
67F
102
}
330
67F
100
AcDbXrecord
 10
0.0
 20
0.0
 30
0.0
  0
XRECORD
  5
69B
102
{ACAD_REACTORS
330
67F
102
}
330
67F
100
AcDbXrecord
 10
0.0
 20
0.0
 30
0.0
  0
XRECORD
  5
69C
102
{ACAD_REACTORS
330
67F
102
}
330
67F
100
AcDbXrecord
 10
0.0
 20
0.0
 30
0.0
  0
XRECORD
  5
699
102
{ACAD_REACTORS
330
67F
102
}
330
67F
100
AcDbXrecord
 10
0.0
 20
0.0
 30
0.0
  0
XRECORD
  5
696
102
{ACAD_REACTORS
330
67F
102
}
330
67F
100
AcDbXrecord
340
0
  0
XRECORD
  5
697
102
{ACAD_REACTORS
330
67F
102
}
330
67F
100
AcDbXrecord
 70
     0
  0
XRECORD
  5
68B
102
{ACAD_REACTORS
330
67F
102
}
330
67F
100
AcDbXrecord
  1
{FAEB1C32-E019-11D5-929B-00C0DF256EC4}
  0
DICTIONARYVAR
  5
6AD
102
{ACAD_REACTORS
330
6A0
102
}
330
6A0
100
DictionaryVariables
280
     0
  1
1:1
  0
DICTIONARYVAR
  5
6A7
102
{ACAD_REACTORS
330
6A0
102
}
330
6A0
100
DictionaryVariables
280
     0
  1
3.500000
  0
DICTIONARYVAR
  5
6A8
102
{ACAD_REACTORS
330
6A0
102
}
330
6A0
100
DictionaryVariables
280
     0
  1
acadiso.lin
  0
DICTIONARYVAR
  5
6A2
102
{ACAD_REACTORS
330
6A0
102
}
330
6A0
100
DictionaryVariables
280
     0
  1
Standard
  0
DICTIONARYVAR
  5
6A1
102
{ACAD_REACTORS
330
6A0
102
}
330
6A0
100
DictionaryVariables
280
     0
  1
Standard
  0
DICTIONARYVAR
  5
6A9
102
{ACAD_REACTORS
330
6A0
102
}
330
6A0
100
DictionaryVariables
280
     0
  1
2
  0
DICTIONARYVAR
  5
6AA
102
{ACAD_REACTORS
330
6A0
102
}
330
6A0
100
DictionaryVariables
280
     0
  1
1
  0
DICTIONARYVAR
  5
6AE
102
{ACAD_REACTORS
330
6A0
102
}
330
6A0
100
DictionaryVariables
280
     0
  1
1
  0
DICTIONARYVAR
  5
6A4
102
{ACAD_REACTORS
330
6A0
102
}
330
6A0
100
DictionaryVariables
280
     0
  1
80.000000
  0
DICTIONARYVAR
  5
6A3
102
{ACAD_REACTORS
330
6A0
102
}
330
6A0
100
DictionaryVariables
280
     0
  1
5.000000
  0
DICTIONARY
  5
6B1
330
45
100
AcDbDictionary
280
     1
  3
ACAD_XREC_ROUNDTRIP
360
6B2
  0
DICTIONARY
  5
6AF
330
44
100
AcDbDictionary
280
     1
  3
ACAD_XREC_ROUNDTRIP
360
6B0
  0
DICTIONARY
  5
6B3
330
46
100
AcDbDictionary
280
     1
  3
ACAD_XREC_ROUNDTRIP
360
6B4
  0
XRECORD
  5
6B2
102
{ACAD_REACTORS
330
6B1
102
}
330
6B1
100
AcDbXrecord
102
MATERIAL
148
0.0
149
0.0
149
0.0
 93
        0
 94
      127
282
     0
 72
     1
 77
     1
171
     1
175
     1
179
     1
273
     0
  0
XRECORD
  5
6B0
102
{ACAD_REACTORS
330
6AF
102
}
330
6AF
100
AcDbXrecord
102
MATERIAL
148
0.0
149
0.0
149
0.0
 93
        0
 94
      127
282
     0
 72
     1
 77
     1
171
     1
175
     1
179
     1
273
     0
  0
XRECORD
  5
6B4
102
{ACAD_REACTORS
330
6B3
102
}
330
6B3
100
AcDbXrecord
102
MATERIAL
148
0.0
149
0.0
149
0.0
 93
        0
 94
      127
282
     0
 72
     1
 77
     1
171
     1
175
     1
179
     1
273
     0
  0
ENDSEC
  0
EOF
