  0
SECTION
  2
HEADER
  9
$ACADVER
  1
AC1014
  9
$ACADMAINTVER
 70
     9
  9
$DWGCODEPAGE
  3
ANSI_932
  9
$INSBASE
 10
0.0
 20
0.0
 30
0.0
  9
$EXTMIN
 10
50.0
 20
100.0
 30
0.0
  9
$EXTMAX
 10
3850.0
 20
2800.0
 30
0.0
  9
$LIMMIN
 10
0.0
 20
0.0
  9
$LIMMAX
 10
420.0
 20
297.0
  9
$ORTHOMODE
 70
     0
  9
$REGENMODE
 70
     1
  9
$FILLMODE
 70
     1
  9
$QTEXTMODE
 70
     0
  9
$MIRRTEXT
 70
     1
  9
$DRAGMODE
 70
     2
  9
$LTSCALE
 40
0.2
  9
$OSMODE
 70
    37
  9
$ATTMODE
 70
     1
  9
$TEXTSIZE
 40
2.5
  9
$TRACEWID
 40
1.0
  9
$TEXTSTYLE
  7
STANDARD
  9
$CLAYER
  8
LAY-10
  9
$CELTYPE
  6
BYLAYER
  9
$CECOLOR
 62
   256
  9
$CELTSCALE
 40
1.0
  9
$DELOBJ
 70
     1
  9
$DISPSILH
 70
     0
  9
$DIMSCALE
 40
1.0
  9
$DIMASZ
 40
2.5
  9
$DIMEXO
 40
0.625
  9
$DIMDLI
 40
3.75
  9
$DIMRND
 40
0.0
  9
$DIMDLE
 40
0.0
  9
$DIMEXE
 40
1.25
  9
$DIMTP
 40
0.0
  9
$DIMTM
 40
0.0
  9
$DIMTXT
 40
2.5
  9
$DIMCEN
 40
2.5
  9
$DIMTSZ
 40
0.0
  9
$DIMTOL
 70
     0
  9
$DIMLIM
 70
     0
  9
$DIMTIH
 70
     0
  9
$DIMTOH
 70
     0
  9
$DIMSE1
 70
     0
  9
$DIMSE2
 70
     0
  9
$DIMTAD
 70
     1
  9
$DIMZIN
 70
     8
  9
$DIMBLK
  1

  9
$DIMASO
 70
     1
  9
$DIMSHO
 70
     1
  9
$DIMPOST
  1

  9
$DIMAPOST
  1

  9
$DIMALT
 70
     0
  9
$DIMALTD
 70
     3
  9
$DIMALTF
 40
0.03937007874016
  9
$DIMLFAC
 40
1.0
  9
$DIMTOFL
 70
     1
  9
$DIMTVP
 40
0.0
  9
$DIMTIX
 70
     0
  9
$DIMSOXD
 70
     0
  9
$DIMSAH
 70
     0
  9
$DIMBLK1
  1

  9
$DIMBLK2
  1

  9
$DIMSTYLE
  2
ISO-25
  9
$DIMCLRD
 70
     0
  9
$DIMCLRE
 70
     0
  9
$DIMCLRT
 70
     0
  9
$DIMTFAC
 40
1.0
  9
$DIMGAP
 40
0.625
  9
$DIMJUST
 70
     0
  9
$DIMSD1
 70
     0
  9
$DIMSD2
 70
     0
  9
$DIMTOLJ
 70
     0
  9
$DIMTZIN
 70
     8
  9
$DIMALTZ
 70
     0
  9
$DIMALTTZ
 70
     0
  9
$DIMFIT
 70
     3
  9
$DIMUPT
 70
     0
  9
$DIMUNIT
 70
     2
  9
$DIMDEC
 70
     2
  9
$DIMTDEC
 70
     2
  9
$DIMALTU
 70
     2
  9
$DIMALTTD
 70
     3
  9
$DIMTXSTY
  7
STANDARD
  9
$DIMAUNIT
 70
     0
  9
$LUNITS
 70
     2
  9
$LUPREC
 70
     4
  9
$SKETCHINC
 40
1.0
  9
$FILLETRAD
 40
10.0
  9
$AUNITS
 70
     0
  9
$AUPREC
 70
     0
  9
$MENU
  1
.
  9
$ELEVATION
 40
0.0
  9
$PELEVATION
 40
0.0
  9
$THICKNESS
 40
0.0
  9
$LIMCHECK
 70
     0
  9
$CHAMFERA
 40
0.0
  9
$CHAMFERB
 40
0.0
  9
$CHAMFERC
 40
0.0
  9
$CHAMFERD
 40
0.0
  9
$SKPOLY
 70
     0
  9
$TDCREATE
 40
2459229.337070012
  9
$TDUPDATE
 40
2459229.337070683
  9
$TDINDWG
 40
0.0000000116
  9
$TDUSRTIMER
 40
0.0000000116
  9
$USRTIMER
 70
     1
  9
$ANGBASE
 50
0.0
  9
$ANGDIR
 70
     0
  9
$PDMODE
 70
     0
  9
$PDSIZE
 40
0.0
  9
$PLINEWID
 40
0.0
  9
$COORDS
 70
     1
  9
$SPLFRAME
 70
     0
  9
$SPLINETYPE
 70
     6
  9
$SPLINESEGS
 70
     8
  9
$ATTDIA
 70
     0
  9
$ATTREQ
 70
     1
  9
$HANDLING
 70
     1
  9
$HANDSEED
  5
4DB
  9
$SURFTAB1
 70
     6
  9
$SURFTAB2
 70
     6
  9
$SURFTYPE
 70
     6
  9
$SURFU
 70
     6
  9
$SURFV
 70
     6
  9
$UCSNAME
  2

  9
$UCSORG
 10
0.0
 20
0.0
 30
0.0
  9
$UCSXDIR
 10
1.0
 20
0.0
 30
0.0
  9
$UCSYDIR
 10
0.0
 20
1.0
 30
0.0
  9
$PUCSNAME
  2

  9
$PUCSORG
 10
0.0
 20
0.0
 30
0.0
  9
$PUCSXDIR
 10
1.0
 20
0.0
 30
0.0
  9
$PUCSYDIR
 10
0.0
 20
1.0
 30
0.0
  9
$USERI1
 70
     0
  9
$USERI2
 70
     0
  9
$USERI3
 70
     0
  9
$USERI4
 70
     0
  9
$USERI5
 70
     0
  9
$USERR1
 40
0.0
  9
$USERR2
 40
0.0
  9
$USERR3
 40
0.0
  9
$USERR4
 40
0.0
  9
$USERR5
 40
0.0
  9
$WORLDVIEW
 70
     1
  9
$SHADEDGE
 70
     3
  9
$SHADEDIF
 70
    70
  9
$TILEMODE
 70
     1
  9
$MAXACTVP
 70
    64
  9
$PINSBASE
 10
0.0
 20
0.0
 30
0.0
  9
$PLIMCHECK
 70
     0
  9
$PEXTMIN
 10
1.000000000000000E+20
 20
1.000000000000000E+20
 30
1.000000000000000E+20
  9
$PEXTMAX
 10
-1.000000000000000E+20
 20
-1.000000000000000E+20
 30
-1.000000000000000E+20
  9
$PLIMMIN
 10
0.0
 20
0.0
  9
$PLIMMAX
 10
420.0
 20
297.0
  9
$UNITMODE
 70
     0
  9
$VISRETAIN
 70
     1
  9
$PLINEGEN
 70
     0
  9
$PSLTSCALE
 70
     1
  9
$TREEDEPTH
 70
  3020
  9
$PICKSTYLE
 70
     1
  9
$CMLSTYLE
  2
STANDARD
  9
$CMLJUST
 70
     0
  9
$CMLSCALE
 40
20.0
  9
$PROXYGRAPHICS
 70
     1
  9
$MEASUREMENT
 70
     1
  0
ENDSEC
  0
SECTION
  2
CLASSES
  0
CLASS
  1
ACDBDICTIONARYWDFLT
  2
AcDbDictionaryWithDefault
  3
ObjectDBX Classes
 90
        0
280
     0
281
     0
  0
CLASS
  1
VISUALSTYLE
  2
AcDbVisualStyle
  3
ObjectDBX Classes
 90
     4095
280
     0
281
     0
  0
CLASS
  1
MATERIAL
  2
AcDbMaterial
  3
ObjectDBX Classes
 90
     1153
280
     0
281
     0
  0
CLASS
  1
SCALE
  2
AcDbScale
  3
ObjectDBX Classes
 90
     1153
280
     0
281
     0
  0
CLASS
  1
TABLESTYLE
  2
AcDbTableStyle
  3
ObjectDBX Classes
 90
     4095
280
     0
281
     0
  0
CLASS
  1
MLEADERSTYLE
  2
AcDbMLeaderStyle
  3
ACDB_MLEADERSTYLE_CLASS
 90
     4095
280
     0
281
     0
  0
CLASS
  1
SUN
  2
AcDbSun
  3
SCENEOE
 90
     1153
280
     0
281
     0
  0
CLASS
  1
DICTIONARYVAR
  2
AcDbDictionaryVar
  3
ObjectDBX Classes
 90
        0
280
     0
281
     0
  0
CLASS
  1
XRECORD
  2
AcDbXrecord
  3
ObjectDBX Classes
 90
        0
280
     0
281
     0
  0
CLASS
  1
LWPOLYLINE
  2
AcDbPolyline
  3
ObjectDBX Classes
 90
        0
280
     0
281
     1
  0
CLASS
  1
HATCH
  2
AcDbHatch
  3
ObjectDBX Classes
 90
        0
280
     0
281
     1
  0
CLASS
  1
ACDBPLACEHOLDER
  2
AcDbPlaceHolder
  3
ObjectDBX Classes
 90
        0
280
     0
281
     0
  0
CLASS
  1
LAYOUT
  2
AcDbLayout
  3
ObjectDBX Classes
 90
        0
280
     0
281
     0
  0
ENDSEC
  0
SECTION
  2
TABLES
  0
TABLE
  2
VPORT
  5
8
102
{ACAD_XDICTIONARY
360
4D0
102
}
330
0
100
AcDbSymbolTable
 70
     1
  0
VPORT
  5
29
330
8
100
AcDbSymbolTableRecord
100
AcDbViewportTableRecord
  2
*ACTIVE
 70
     0
 10
0.0
 20
0.0
 11
1.0
 21
1.0
 12
1950.0
 22
1450.0
 13
0.0
 23
0.0
 14
10.0
 24
10.0
 15
10.0
 25
10.0
 16
0.0
 26
0.0
 36
1.0
 17
0.0
 27
0.0
 37
0.0
 40
2700.0
 41
1.407407407407408
 42
50.0
 43
0.0
 44
0.0
 50
0.0
 51
0.0
 71
     0
 72
  1000
 73
     1
 74
     3
 75
     0
 76
     0
 77
     0
 78
     0
  0
ENDTAB
  0
TABLE
  2
LTYPE
  5
5
330
0
100
AcDbSymbolTable
 70
     6
  0
LTYPE
  5
14
330
5
100
AcDbSymbolTableRecord
100
AcDbLinetypeTableRecord
  2
BYBLOCK
 70
     0
  3

 72
    65
 73
     0
 40
0.0
  0
LTYPE
  5
15
330
5
100
AcDbSymbolTableRecord
100
AcDbLinetypeTableRecord
  2
BYLAYER
 70
     0
  3

 72
    65
 73
     0
 40
0.0
  0
LTYPE
  5
16
330
5
100
AcDbSymbolTableRecord
100
AcDbLinetypeTableRecord
  2
CONTINUOUS
 70
     0
  3
Solid line
 72
    65
 73
     0
 40
0.0
  0
LTYPE
  5
6E
330
5
100
AcDbSymbolTableRecord
100
AcDbLinetypeTableRecord
  2
HIDDEN
 70
     0
  3
Hidden __ __ __ __ __ __ __ __ __ __ __ __ __ __
 72
    65
 73
     2
 40
9.524999999999999
 49
6.35
 74
     0
 49
-3.175
 74
     0
  0
LTYPE
  5
6F
330
5
100
AcDbSymbolTableRecord
100
AcDbLinetypeTableRecord
  2
CENTER
 70
     0
  3
Center ____ _ ____ _ ____ _ ____ _ ____ _ ____
 72
    65
 73
     4
 40
50.8
 49
31.75
 74
     0
 49
-6.35
 74
     0
 49
6.35
 74
     0
 49
-6.35
 74
     0
  0
LTYPE
  5
70
330
5
100
AcDbSymbolTableRecord
100
AcDbLinetypeTableRecord
  2
PHANTOM
 70
     0
  3
Phantom ______  __  __  ______  __  __  ______ 
 72
    65
 73
     6
 40
63.50000000000001
 49
31.75
 74
     0
 49
-6.35
 74
     0
 49
6.35
 74
     0
 49
-6.35
 74
     0
 49
6.35
 74
     0
 49
-6.35
 74
     0
  0
LTYPE
  5
71
330
5
100
AcDbSymbolTableRecord
100
AcDbLinetypeTableRecord
  2
ACAD_ISO06W100
 70
     0
  3
ISO long-dash triple-dot ____ ... ____ ... ____
 72
    65
 73
     8
 40
36.0
 49
24.0
 74
     0
 49
-3.0
 74
     0
 49
0.0
 74
     0
 49
-3.0
 74
     0
 49
0.0
 74
     0
 49
-3.0
 74
     0
 49
0.0
 74
     0
 49
-3.0
 74
     0
  0
LTYPE
  5
72
330
5
100
AcDbSymbolTableRecord
100
AcDbLinetypeTableRecord
  2
ACAD_ISO15W100
 70
     0
  3
ISO double-dash triple-dot __ __ . . . __ __ . .
 72
    65
 73
    10
 40
39.0
 49
12.0
 74
     0
 49
-3.0
 74
     0
 49
12.0
 74
     0
 49
-3.0
 74
     0
 49
0.0
 74
     0
 49
-3.0
 74
     0
 49
0.0
 74
     0
 49
-3.0
 74
     0
 49
0.0
 74
     0
 49
-3.0
 74
     0
  0
ENDTAB
  0
TABLE
  2
LAYER
  5
2
330
0
100
AcDbSymbolTable
 70
     6
  0
LAYER
  5
10
330
2
100
AcDbSymbolTableRecord
100
AcDbLayerTableRecord
  2
0
 70
     0
 62
     7
  6
CONTINUOUS
  0
LAYER
  5
75
330
2
100
AcDbSymbolTableRecord
100
AcDbLayerTableRecord
  2
LAY-10
 70
     0
 62
     7
  6
CONTINUOUS
  0
LAYER
  5
76
330
2
100
AcDbSymbolTableRecord
100
AcDbLayerTableRecord
  2
LAY-11
 70
     0
 62
     7
  6
CONTINUOUS
  0
LAYER
  5
77
330
2
100
AcDbSymbolTableRecord
100
AcDbLayerTableRecord
  2
LAY-20
 70
     0
 62
     7
  6
CONTINUOUS
  0
LAYER
  5
78
330
2
100
AcDbSymbolTableRecord
100
AcDbLayerTableRecord
  2
LAY-255
 70
     0
 62
     7
  6
CONTINUOUS
  0
LAYER
  5
41F
330
2
100
AcDbSymbolTableRecord
100
AcDbLayerTableRecord
  2
DEFPOINTS
 70
     0
 62
     7
  6
CONTINUOUS
  0
ENDTAB
  0
TABLE
  2
STYLE
  5
3
330
0
100
AcDbSymbolTable
 70
     4
  0
STYLE
  5
11
330
3
100
AcDbSymbolTableRecord
100
AcDbTextStyleTableRecord
  2
STANDARD
 70
     0
 40
0.0
 41
1.0
 50
0.0
 71
     0
 42
2.5
  3
simplex
  4
bigfont
  0
STYLE
  5
73
330
3
100
AcDbSymbolTableRecord
100
AcDbTextStyleTableRecord
  2
EXCADSTD
 70
     0
 40
0.0
 41
1.0
 50
0.0
 71
     0
 42
2.5
  3
simplex
  4
bigfont
  0
STYLE
  5
74
330
3
100
AcDbSymbolTableRecord
100
AcDbTextStyleTableRecord
  2
EXCADVERT
 70
     4
 40
0.0
 41
1.0
 50
0.0
 71
     0
 42
2.5
  3
simplex
  4
bigfont
  0
STYLE
  5
41D
330
3
100
AcDbSymbolTableRecord
100
AcDbTextStyleTableRecord
  2
EXCADDIM1
 70
     0
 40
0.0
 41
0.84
 50
0.0
 71
     0
 42
2.5
  3
simplex
  4
bigfont
  0
ENDTAB
  0
TABLE
  2
VIEW
  5
6
330
0
100
AcDbSymbolTable
 70
     0
  0
ENDTAB
  0
TABLE
  2
UCS
  5
7
330
0
100
AcDbSymbolTable
 70
     0
  0
ENDTAB
  0
TABLE
  2
APPID
  5
9
330
0
100
AcDbSymbolTable
 70
     2
  0
APPID
  5
12
330
9
100
AcDbSymbolTableRecord
100
AcDbRegAppTableRecord
  2
ACAD
 70
     0
  0
APPID
  5
4DA
330
9
100
AcDbSymbolTableRecord
100
AcDbRegAppTableRecord
  2
ACAD_MLEADERVER
 70
     0
  0
ENDTAB
  0
TABLE
  2
DIMSTYLE
  5
A
330
0
100
AcDbSymbolTable
 70
     1
  0
DIMSTYLE
105
27
102
{ACAD_REACTORS
330
41E
330
42C
330
439
330
446
330
453
330
460
330
46C
102
}
330
A
100
AcDbSymbolTableRecord
100
AcDbDimStyleTableRecord
  2
ISO-25
 70
     0
  3

  4

  5

  6

  7

 40
1.0
 41
2.5
 42
0.625
 43
3.75
 44
1.25
 45
0.0
 46
0.0
 47
0.0
 48
0.0
140
2.5
141
2.5
142
0.0
143
0.03937007874016
144
1.0
145
0.0
146
1.0
147
0.625
 71
     0
 72
     0
 73
     0
 74
     0
 75
     0
 76
     0
 77
     1
 78
     8
170
     0
171
     3
172
     1
173
     0
174
     0
175
     0
176
     0
177
     0
178
     0
270
     2
271
     2
272
     2
273
     2
274
     3
340
11
275
     0
280
     0
281
     0
282
     0
283
     0
284
     8
285
     0
286
     0
287
     5
288
     0
  0
ENDTAB
  0
TABLE
  2
BLOCK_RECORD
  5
1
330
0
100
AcDbSymbolTable
 70
    21
  0
BLOCK_RECORD
  5
1F
330
1
100
AcDbSymbolTableRecord
100
AcDbBlockTableRecord
  2
*MODEL_SPACE
  0
BLOCK_RECORD
  5
1B
330
1
100
AcDbSymbolTableRecord
100
AcDbBlockTableRecord
  2
*PAPER_SPACE
  0
BLOCK_RECORD
  5
79
330
1
100
AcDbSymbolTableRecord
100
AcDbBlockTableRecord
  2
EX_NORM
  0
BLOCK_RECORD
  5
7C
330
1
100
AcDbSymbolTableRecord
100
AcDbBlockTableRecord
  2
EX_BNORM
  0
BLOCK_RECORD
  5
7F
330
1
100
AcDbSymbolTableRecord
100
AcDbBlockTableRecord
  2
EX_BCIR
  0
BLOCK_RECORD
  5
82
330
1
100
AcDbSymbolTableRecord
100
AcDbBlockTableRecord
  2
EX_RCIVIL
  0
BLOCK_RECORD
  5
85
330
1
100
AcDbSymbolTableRecord
100
AcDbBlockTableRecord
  2
EX_SLANT
  0
BLOCK_RECORD
  5
88
330
1
100
AcDbSymbolTableRecord
100
AcDbBlockTableRecord
  2
EX_NONE
  0
BLOCK_RECORD
  5
8B
330
1
100
AcDbSymbolTableRecord
100
AcDbBlockTableRecord
  2
EX_CIVIL
  0
BLOCK_RECORD
  5
8E
330
1
100
AcDbSymbolTableRecord
100
AcDbBlockTableRecord
  2
EX_WCIR
  0
BLOCK_RECORD
  5
91
330
1
100
AcDbSymbolTableRecord
100
AcDbBlockTableRecord
  2
EX_WCIR2
  0
BLOCK_RECORD
  5
94
330
1
100
AcDbSymbolTableRecord
100
AcDbBlockTableRecord
  2
EX_WNORM
  0
BLOCK_RECORD
  5
97
330
1
100
AcDbSymbolTableRecord
100
AcDbBlockTableRecord
  2
EX_NNORM
  0
BLOCK_RECORD
  5
9A
330
1
100
AcDbSymbolTableRecord
100
AcDbBlockTableRecord
  2
EX_BBOX
  0
BLOCK_RECORD
  5
9D
330
1
100
AcDbSymbolTableRecord
100
AcDbBlockTableRecord
  2
EX_WBOX
  0
BLOCK_RECORD
  5
A0
330
1
100
AcDbSymbolTableRecord
100
AcDbBlockTableRecord
  2
EX_INTEGRAL
  0
BLOCK_RECORD
  5
420
330
1
100
AcDbSymbolTableRecord
100
AcDbBlockTableRecord
  2
*D15
  0
BLOCK_RECORD
  5
42D
330
1
100
AcDbSymbolTableRecord
100
AcDbBlockTableRecord
  2
*D16
  0
BLOCK_RECORD
  5
43A
330
1
100
AcDbSymbolTableRecord
100
AcDbBlockTableRecord
  2
*D17
  0
BLOCK_RECORD
  5
447
330
1
100
AcDbSymbolTableRecord
100
AcDbBlockTableRecord
  2
*D18
  0
BLOCK_RECORD
  5
454
330
1
100
AcDbSymbolTableRecord
100
AcDbBlockTableRecord
  2
*D19
  0
BLOCK_RECORD
  5
461
330
1
100
AcDbSymbolTableRecord
100
AcDbBlockTableRecord
  2
*D20
  0
BLOCK_RECORD
  5
46D
330
1
100
AcDbSymbolTableRecord
100
AcDbBlockTableRecord
  2
*D21
  0
ENDTAB
  0
ENDSEC
  0
SECTION
  2
BLOCKS
  0
BLOCK
  5
20
330
1F
100
AcDbEntity
  8
0
100
AcDbBlockBegin
  2
*MODEL_SPACE
 70
     0
 10
0.0
 20
0.0
 30
0.0
  3
*MODEL_SPACE
  1

  0
ENDBLK
  5
21
330
1F
100
AcDbEntity
  8
0
100
AcDbBlockEnd
  0
BLOCK
  5
1C
330
1B
100
AcDbEntity
 67
     1
  8
0
100
AcDbBlockBegin
  2
*PAPER_SPACE
 70
     0
 10
0.0
 20
0.0
 30
0.0
  3
*PAPER_SPACE
  1

  0
ENDBLK
  5
1D
330
1B
100
AcDbEntity
 67
     1
  8
0
100
AcDbBlockEnd
  0
BLOCK
  5
7A
330
79
100
AcDbEntity
  8
0
100
AcDbBlockBegin
  2
EX_NORM
 70
     0
 10
0.0
 20
0.0
 30
0.0
  3
EX_NORM
  1

  0
LINE
  5
A3
330
79
100
AcDbEntity
  8
0
  6
CONTINUOUS
 62
     0
100
AcDbLine
 10
0.0
 20
0.0
 30
0.0
 11
-1.0
 21
0.0
 31
0.0
  0
LINE
  5
A4
330
79
100
AcDbEntity
  8
0
  6
CONTINUOUS
 62
     0
100
AcDbLine
 10
0.0
 20
0.0
 30
0.0
 11
-1.0
 21
0.166666667
 31
0.0
  0
LINE
  5
A5
330
79
100
AcDbEntity
  8
0
  6
CONTINUOUS
 62
     0
100
AcDbLine
 10
0.0
 20
0.0
 30
0.0
 11
-1.0
 21
-0.166666667
 31
0.0
  0
ENDBLK
  5
7B
330
79
100
AcDbEntity
  8
0
100
AcDbBlockEnd
  0
BLOCK
  5
7D
330
7C
100
AcDbEntity
  8
0
100
AcDbBlockBegin
  2
EX_BNORM
 70
     0
 10
0.0
 20
0.0
 30
0.0
  3
EX_BNORM
  1

  0
LINE
  5
A6
330
7C
100
AcDbEntity
  8
0
  6
CONTINUOUS
 62
     0
100
AcDbLine
 10
0.0
 20
0.0
 30
0.0
 11
-1.0
 21
0.0
 31
0.0
  0
LINE
  5
A7
330
7C
100
AcDbEntity
  8
0
  6
CONTINUOUS
 62
     0
100
AcDbLine
 10
0.0
 20
0.0
 30
0.0
 11
-1.0
 21
0.166666667
 31
0.0
  0
LINE
  5
A8
330
7C
100
AcDbEntity
  8
0
  6
CONTINUOUS
 62
     0
100
AcDbLine
 10
0.0
 20
0.0
 30
0.0
 11
-1.0
 21
-0.166666667
 31
0.0
  0
LINE
  5
A9
330
7C
100
AcDbEntity
  8
0
  6
CONTINUOUS
 62
     0
100
AcDbLine
 10
0.0
 20
0.0
 30
0.0
 11
-1.0
 21
0.083333333
 31
0.0
  0
LINE
  5
AA
330
7C
100
AcDbEntity
  8
0
  6
CONTINUOUS
 62
     0
100
AcDbLine
 10
0.0
 20
0.0
 30
0.0
 11
-1.0
 21
-0.083333333
 31
0.0
  0
LINE
  5
AB
330
7C
100
AcDbEntity
  8
0
  6
CONTINUOUS
 62
     0
100
AcDbLine
 10
-1.0
 20
0.166666667
 30
0.0
 11
-1.0
 21
-0.166666667
 31
0.0
  0
ENDBLK
  5
7E
330
7C
100
AcDbEntity
  8
0
100
AcDbBlockEnd
  0
BLOCK
  5
80
330
7F
100
AcDbEntity
  8
0
100
AcDbBlockBegin
  2
EX_BCIR
 70
     0
 10
0.0
 20
0.0
 30
0.0
  3
EX_BCIR
  1

  0
LINE
  5
AC
330
7F
100
AcDbEntity
  8
0
  6
CONTINUOUS
 62
     0
100
AcDbLine
 10
0.0
 20
0.0
 30
0.0
 11
-1.0
 21
0.0
 31
0.0
  0
CIRCLE
  5
AD
330
7F
100
AcDbEntity
  8
0
  6
CONTINUOUS
 62
     0
100
AcDbCircle
 10
0.0
 20
0.0
 30
0.0
 40
0.5
  0
CIRCLE
  5
AE
330
7F
100
AcDbEntity
  8
0
  6
CONTINUOUS
 62
     0
100
AcDbCircle
 10
0.0
 20
0.0
 30
0.0
 40
0.25
  0
ENDBLK
  5
81
330
7F
100
AcDbEntity
  8
0
100
AcDbBlockEnd
  0
BLOCK
  5
83
330
82
100
AcDbEntity
  8
0
100
AcDbBlockBegin
  2
EX_RCIVIL
 70
     0
 10
0.0
 20
0.0
 30
0.0
  3
EX_RCIVIL
  1

  0
LINE
  5
AF
330
82
100
AcDbEntity
  8
0
  6
CONTINUOUS
 62
     0
100
AcDbLine
 10
0.0
 20
0.0
 30
0.0
 11
-1.0
 21
0.0
 31
0.0
  0
LINE
  5
B0
330
82
100
AcDbEntity
  8
0
  6
CONTINUOUS
 62
     0
100
AcDbLine
 10
-1.0
 20
-0.25
 30
0.0
 11
0.0
 21
-0.25
 31
0.0
  0
LINE
  5
B1
330
82
100
AcDbEntity
  8
0
  6
CONTINUOUS
 62
     0
100
AcDbLine
 10
-1.0
 20
-0.125
 30
0.0
 11
0.0
 21
-0.125
 31
0.0
  0
ENDBLK
  5
84
330
82
100
AcDbEntity
  8
0
100
AcDbBlockEnd
  0
BLOCK
  5
86
330
85
100
AcDbEntity
  8
0
100
AcDbBlockBegin
  2
EX_SLANT
 70
     0
 10
0.0
 20
0.0
 30
0.0
  3
EX_SLANT
  1

  0
LINE
  5
B2
330
85
100
AcDbEntity
  8
0
  6
CONTINUOUS
 62
     0
100
AcDbLine
 10
0.0
 20
0.0
 30
0.0
 11
-1.0
 21
0.0
 31
0.0
  0
LINE
  5
B3
330
85
100
AcDbEntity
  8
0
  6
CONTINUOUS
 62
     0
100
AcDbLine
 10
0.707106781
 20
0.707106781
 30
0.0
 11
-0.707106781
 21
-0.707106781
 31
0.0
  0
ENDBLK
  5
87
330
85
100
AcDbEntity
  8
0
100
AcDbBlockEnd
  0
BLOCK
  5
89
330
88
100
AcDbEntity
  8
0
100
AcDbBlockBegin
  2
EX_NONE
 70
     0
 10
0.0
 20
0.0
 30
0.0
  3
EX_NONE
  1

  0
LINE
  5
B4
330
88
100
AcDbEntity
  8
0
  6
CONTINUOUS
 62
     0
100
AcDbLine
 10
0.0
 20
0.0
 30
0.0
 11
-1.0
 21
0.0
 31
0.0
  0
ENDBLK
  5
8A
330
88
100
AcDbEntity
  8
0
100
AcDbBlockEnd
  0
BLOCK
  5
8C
330
8B
100
AcDbEntity
  8
0
100
AcDbBlockBegin
  2
EX_CIVIL
 70
     0
 10
0.0
 20
0.0
 30
0.0
  3
EX_CIVIL
  1

  0
LINE
  5
B5
330
8B
100
AcDbEntity
  8
0
  6
CONTINUOUS
 62
     0
100
AcDbLine
 10
0.0
 20
0.0
 30
0.0
 11
-1.0
 21
0.0
 31
0.0
  0
LINE
  5
B6
330
8B
100
AcDbEntity
  8
0
  6
CONTINUOUS
 62
     0
100
AcDbLine
 10
-1.0
 20
0.25
 30
0.0
 11
0.0
 21
0.25
 31
0.0
  0
LINE
  5
B7
330
8B
100
AcDbEntity
  8
0
  6
CONTINUOUS
 62
     0
100
AcDbLine
 10
-1.0
 20
0.125
 30
0.0
 11
0.0
 21
0.125
 31
0.0
  0
ENDBLK
  5
8D
330
8B
100
AcDbEntity
  8
0
100
AcDbBlockEnd
  0
BLOCK
  5
8F
330
8E
100
AcDbEntity
  8
0
100
AcDbBlockBegin
  2
EX_WCIR
 70
     0
 10
0.0
 20
0.0
 30
0.0
  3
EX_WCIR
  1

  0
LINE
  5
B8
330
8E
100
AcDbEntity
  8
0
  6
CONTINUOUS
 62
     0
100
AcDbLine
 10
0.0
 20
0.0
 30
0.0
 11
-1.0
 21
0.0
 31
0.0
  0
CIRCLE
  5
B9
330
8E
100
AcDbEntity
  8
0
  6
CONTINUOUS
 62
     0
100
AcDbCircle
 10
0.0
 20
0.0
 30
0.0
 40
0.5
  0
ENDBLK
  5
90
330
8E
100
AcDbEntity
  8
0
100
AcDbBlockEnd
  0
BLOCK
  5
92
330
91
100
AcDbEntity
  8
0
100
AcDbBlockBegin
  2
EX_WCIR2
 70
     0
 10
0.0
 20
0.0
 30
0.0
  3
EX_WCIR2
  1

  0
LINE
  5
BA
330
91
100
AcDbEntity
  8
0
  6
CONTINUOUS
 62
     0
100
AcDbLine
 10
-0.5
 20
0.0
 30
0.0
 11
-1.0
 21
0.0
 31
0.0
  0
CIRCLE
  5
BB
330
91
100
AcDbEntity
  8
0
  6
CONTINUOUS
 62
     0
100
AcDbCircle
 10
0.0
 20
0.0
 30
0.0
 40
0.5
  0
ENDBLK
  5
93
330
91
100
AcDbEntity
  8
0
100
AcDbBlockEnd
  0
BLOCK
  5
95
330
94
100
AcDbEntity
  8
0
100
AcDbBlockBegin
  2
EX_WNORM
 70
     0
 10
0.0
 20
0.0
 30
0.0
  3
EX_WNORM
  1

  0
LINE
  5
BC
330
94
100
AcDbEntity
  8
0
  6
CONTINUOUS
 62
     0
100
AcDbLine
 10
-1.0
 20
0.0
 30
0.0
 11
-1.0
 21
0.0
 31
0.0
  0
LINE
  5
BD
330
94
100
AcDbEntity
  8
0
  6
CONTINUOUS
 62
     0
100
AcDbLine
 10
0.0
 20
0.0
 30
0.0
 11
-1.0
 21
0.166666667
 31
0.0
  0
LINE
  5
BE
330
94
100
AcDbEntity
  8
0
  6
CONTINUOUS
 62
     0
100
AcDbLine
 10
0.0
 20
0.0
 30
0.0
 11
-1.0
 21
-0.166666667
 31
0.0
  0
LINE
  5
BF
330
94
100
AcDbEntity
  8
0
  6
CONTINUOUS
 62
     0
100
AcDbLine
 10
-1.0
 20
0.166666667
 30
0.0
 11
-1.0
 21
-0.166666667
 31
0.0
  0
ENDBLK
  5
96
330
94
100
AcDbEntity
  8
0
100
AcDbBlockEnd
  0
BLOCK
  5
98
330
97
100
AcDbEntity
  8
0
100
AcDbBlockBegin
  2
EX_NNORM
 70
     0
 10
0.0
 20
0.0
 30
0.0
  3
EX_NNORM
  1

  0
LINE
  5
C0
330
97
100
AcDbEntity
  8
0
  6
CONTINUOUS
 62
     0
100
AcDbLine
 10
0.0
 20
0.0
 30
0.0
 11
-1.0
 21
0.0
 31
0.0
  0
LINE
  5
C1
330
97
100
AcDbEntity
  8
0
  6
CONTINUOUS
 62
     0
100
AcDbLine
 10
0.0
 20
0.0
 30
0.0
 11
-1.0
 21
0.166666667
 31
0.0
  0
LINE
  5
C2
330
97
100
AcDbEntity
  8
0
  6
CONTINUOUS
 62
     0
100
AcDbLine
 10
0.0
 20
0.0
 30
0.0
 11
-1.0
 21
-0.166666667
 31
0.0
  0
LINE
  5
C3
330
97
100
AcDbEntity
  8
0
  6
CONTINUOUS
 62
     0
100
AcDbLine
 10
-1.0
 20
0.166666667
 30
0.0
 11
-1.0
 21
-0.166666667
 31
0.0
  0
ENDBLK
  5
99
330
97
100
AcDbEntity
  8
0
100
AcDbBlockEnd
  0
BLOCK
  5
9B
330
9A
100
AcDbEntity
  8
0
100
AcDbBlockBegin
  2
EX_BBOX
 70
     0
 10
0.0
 20
0.0
 30
0.0
  3
EX_BBOX
  1

  0
LINE
  5
C4
330
9A
100
AcDbEntity
  8
0
  6
CONTINUOUS
 62
     0
100
AcDbLine
 10
0.0
 20
0.0
 30
0.0
 11
-1.0
 21
0.0
 31
0.0
  0
LINE
  5
C5
330
9A
100
AcDbEntity
  8
0
  6
CONTINUOUS
 62
     0
100
AcDbLine
 10
-0.5
 20
0.5
 30
0.0
 11
0.5
 21
0.5
 31
0.0
  0
LINE
  5
C6
330
9A
100
AcDbEntity
  8
0
  6
CONTINUOUS
 62
     0
100
AcDbLine
 10
0.5
 20
0.5
 30
0.0
 11
0.5
 21
-0.5
 31
0.0
  0
LINE
  5
C7
330
9A
100
AcDbEntity
  8
0
  6
CONTINUOUS
 62
     0
100
AcDbLine
 10
0.5
 20
-0.5
 30
0.0
 11
-0.5
 21
-0.5
 31
0.0
  0
LINE
  5
C8
330
9A
100
AcDbEntity
  8
0
  6
CONTINUOUS
 62
     0
100
AcDbLine
 10
-0.5
 20
-0.5
 30
0.0
 11
-0.5
 21
0.5
 31
0.0
  0
LINE
  5
C9
330
9A
100
AcDbEntity
  8
0
  6
CONTINUOUS
 62
     0
100
AcDbLine
 10
-0.25
 20
0.25
 30
0.0
 11
0.25
 21
0.25
 31
0.0
  0
LINE
  5
CA
330
9A
100
AcDbEntity
  8
0
  6
CONTINUOUS
 62
     0
100
AcDbLine
 10
0.25
 20
0.25
 30
0.0
 11
0.25
 21
-0.25
 31
0.0
  0
LINE
  5
CB
330
9A
100
AcDbEntity
  8
0
  6
CONTINUOUS
 62
     0
100
AcDbLine
 10
0.25
 20
-0.25
 30
0.0
 11
-0.25
 21
-0.25
 31
0.0
  0
LINE
  5
CC
330
9A
100
AcDbEntity
  8
0
  6
CONTINUOUS
 62
     0
100
AcDbLine
 10
-0.25
 20
-0.25
 30
0.0
 11
-0.25
 21
0.25
 31
0.0
  0
ENDBLK
  5
9C
330
9A
100
AcDbEntity
  8
0
100
AcDbBlockEnd
  0
BLOCK
  5
9E
330
9D
100
AcDbEntity
  8
0
100
AcDbBlockBegin
  2
EX_WBOX
 70
     0
 10
0.0
 20
0.0
 30
0.0
  3
EX_WBOX
  1

  0
LINE
  5
CD
330
9D
100
AcDbEntity
  8
0
  6
CONTINUOUS
 62
     0
100
AcDbLine
 10
-0.5
 20
0.0
 30
0.0
 11
-1.0
 21
0.0
 31
0.0
  0
LINE
  5
CE
330
9D
100
AcDbEntity
  8
0
  6
CONTINUOUS
 62
     0
100
AcDbLine
 10
-0.5
 20
0.5
 30
0.0
 11
0.5
 21
0.5
 31
0.0
  0
LINE
  5
CF
330
9D
100
AcDbEntity
  8
0
  6
CONTINUOUS
 62
     0
100
AcDbLine
 10
0.5
 20
0.5
 30
0.0
 11
0.5
 21
-0.5
 31
0.0
  0
LINE
  5
D0
330
9D
100
AcDbEntity
  8
0
  6
CONTINUOUS
 62
     0
100
AcDbLine
 10
0.5
 20
-0.5
 30
0.0
 11
-0.5
 21
-0.5
 31
0.0
  0
LINE
  5
D1
330
9D
100
AcDbEntity
  8
0
  6
CONTINUOUS
 62
     0
100
AcDbLine
 10
-0.5
 20
-0.5
 30
0.0
 11
-0.5
 21
0.5
 31
0.0
  0
ENDBLK
  5
9F
330
9D
100
AcDbEntity
  8
0
100
AcDbBlockEnd
  0
BLOCK
  5
A1
330
A0
100
AcDbEntity
  8
0
100
AcDbBlockBegin
  2
EX_INTEGRAL
 70
     0
 10
0.0
 20
0.0
 30
0.0
  3
EX_INTEGRAL
  1

  0
LINE
  5
D2
330
A0
100
AcDbEntity
  8
0
  6
CONTINUOUS
 62
     0
100
AcDbLine
 10
0.0
 20
0.0
 30
0.0
 11
-1.0
 21
0.0
 31
0.0
  0
ARC
  5
D3
330
A0
100
AcDbEntity
  8
0
  6
CONTINUOUS
 62
     0
100
AcDbCircle
 10
0.542115
 20
0.164992
 30
0.0
 40
0.56667
100
AcDbArc
 50
73.07249033629006
 51
196.9275130221199
  0
ARC
  5
D4
330
A0
100
AcDbEntity
  8
0
  6
CONTINUOUS
 62
     0
100
AcDbCircle
 10
-0.542115
 20
-0.164992
 30
0.0
 40
0.56667
100
AcDbArc
 50
253.0724869220464
 51
16.9275130559125
  0
ENDBLK
  5
A2
330
A0
100
AcDbEntity
  8
0
100
AcDbBlockEnd
  0
BLOCK
  5
421
330
420
100
AcDbEntity
  8
0
100
AcDbBlockBegin
  2
*D15
 70
     1
 10
0.0
 20
0.0
 30
0.0
  3
*D15
  1

  0
LINE
  5
423
330
420
100
AcDbEntity
  8
LAY-20
  6
CONTINUOUS
 62
     4
100
AcDbLine
 10
981.5
 20
825.3133150668
 30
0.0
 11
981.5
 21
985.0
 31
0.0
  0
LINE
  5
424
330
420
100
AcDbEntity
  8
LAY-20
  6
CONTINUOUS
 62
     4
100
AcDbLine
 10
1518.5
 20
825.3133150668
 30
0.0
 11
1518.5
 21
985.0
 31
0.0
  0
LINE
  5
425
330
420
100
AcDbEntity
  8
LAY-20
  6
CONTINUOUS
 62
     4
100
AcDbLine
 10
1011.5
 20
970.0
 30
0.0
 11
1488.5
 21
970.0
 31
0.0
  0
INSERT
  5
426
330
420
100
AcDbEntity
  8
LAY-20
 62
     4
100
AcDbBlockReference
  2
EX_BNORM
 10
981.5
 20
970.0
 30
0.0
 41
30.0
 42
30.0
 43
30.0
 50
180.0
  0
INSERT
  5
427
330
420
100
AcDbEntity
  8
LAY-20
 62
     4
100
AcDbBlockReference
  2
EX_BNORM
 10
1518.5
 20
970.0
 30
0.0
 41
30.0
 42
30.0
 43
30.0
  0
MTEXT
  5
428
330
420
100
AcDbEntity
  8
LAY-20
 62
     7
100
AcDbMText
 10
1250.0
 20
995.0
 30
0.0
 40
31.181104
 41
0.0
 71
     5
 72
     1
  1
%%c537
  7
EXCADDIM1
  0
POINT
  5
429
330
420
100
AcDbEntity
  8
DEFPOINTS
 62
     0
100
AcDbPoint
 10
981.5
 20
810.3133150668
 30
0.0
  0
POINT
  5
42A
330
420
100
AcDbEntity
  8
DEFPOINTS
 62
     0
100
AcDbPoint
 10
1518.5
 20
810.3133150668
 30
0.0
  0
POINT
  5
42B
330
420
100
AcDbEntity
  8
DEFPOINTS
 62
     0
100
AcDbPoint
 10
1518.5
 20
970.0
 30
0.0
  0
ENDBLK
  5
422
330
420
100
AcDbEntity
  8
0
100
AcDbBlockEnd
  0
BLOCK
  5
42E
330
42D
100
AcDbEntity
  8
0
100
AcDbBlockBegin
  2
*D16
 70
     1
 10
0.0
 20
0.0
 30
0.0
  3
*D16
  1

  0
LINE
  5
430
330
42D
100
AcDbEntity
  8
LAY-20
  6
CONTINUOUS
 62
     4
100
AcDbLine
 10
693.5
 20
816.0522259485901
 30
0.0
 11
693.5
 21
1055.0
 31
0.0
  0
LINE
  5
431
330
42D
100
AcDbEntity
  8
LAY-20
  6
CONTINUOUS
 62
     4
100
AcDbLine
 10
1806.5
 20
816.0522259485901
 30
0.0
 11
1806.5
 21
1055.0
 31
0.0
  0
LINE
  5
432
330
42D
100
AcDbEntity
  8
LAY-20
  6
CONTINUOUS
 62
     4
100
AcDbLine
 10
723.5
 20
1040.0
 30
0.0
 11
1776.5
 21
1040.0
 31
0.0
  0
INSERT
  5
433
330
42D
100
AcDbEntity
  8
LAY-20
 62
     4
100
AcDbBlockReference
  2
EX_BNORM
 10
693.5
 20
1040.0
 30
0.0
 41
30.0
 42
30.0
 43
30.0
 50
180.0
  0
INSERT
  5
434
330
42D
100
AcDbEntity
  8
LAY-20
 62
     4
100
AcDbBlockReference
  2
EX_BNORM
 10
1806.5
 20
1040.0
 30
0.0
 41
30.0
 42
30.0
 43
30.0
  0
MTEXT
  5
435
330
42D
100
AcDbEntity
  8
LAY-20
 62
     7
100
AcDbMText
 10
1250.0
 20
1065.0
 30
0.0
 40
31.181104
 41
0.0
 71
     5
 72
     1
  1
%%c1113
  7
EXCADDIM1
  0
POINT
  5
436
330
42D
100
AcDbEntity
  8
DEFPOINTS
 62
     0
100
AcDbPoint
 10
693.5
 20
801.0522259485901
 30
0.0
  0
POINT
  5
437
330
42D
100
AcDbEntity
  8
DEFPOINTS
 62
     0
100
AcDbPoint
 10
1806.5
 20
801.0522259485901
 30
0.0
  0
POINT
  5
438
330
42D
100
AcDbEntity
  8
DEFPOINTS
 62
     0
100
AcDbPoint
 10
1806.5
 20
1040.0
 30
0.0
  0
ENDBLK
  5
42F
330
42D
100
AcDbEntity
  8
0
100
AcDbBlockEnd
  0
BLOCK
  5
43B
330
43A
100
AcDbEntity
  8
0
100
AcDbBlockBegin
  2
*D17
 70
     1
 10
0.0
 20
0.0
 30
0.0
  3
*D17
  1

  0
LINE
  5
43D
330
43A
100
AcDbEntity
  8
LAY-20
  6
CONTINUOUS
 62
     4
100
AcDbLine
 10
667.7237082539799
 20
809.0
 30
0.0
 11
667.72370825398
 21
1125.0
 31
0.0
  0
LINE
  5
43E
330
43A
100
AcDbEntity
  8
LAY-20
  6
CONTINUOUS
 62
     4
100
AcDbLine
 10
1831.723708254
 20
840.0
 30
0.0
 11
1831.723708254
 21
1125.0
 31
0.0
  0
LINE
  5
43F
330
43A
100
AcDbEntity
  8
LAY-20
  6
CONTINUOUS
 62
     4
100
AcDbLine
 10
697.72370825398
 20
1110.0
 30
0.0
 11
1801.723708254
 21
1110.0
 31
0.0
  0
INSERT
  5
440
330
43A
100
AcDbEntity
  8
LAY-20
 62
     4
100
AcDbBlockReference
  2
EX_BNORM
 10
667.72370825398
 20
1110.0
 30
0.0
 41
30.0
 42
30.0
 43
30.0
 50
180.0
  0
INSERT
  5
441
330
43A
100
AcDbEntity
  8
LAY-20
 62
     4
100
AcDbBlockReference
  2
EX_BNORM
 10
1831.723708254
 20
1110.0
 30
0.0
 41
30.0
 42
30.0
 43
30.0
  0
MTEXT
  5
442
330
43A
100
AcDbEntity
  8
LAY-20
 62
     7
100
AcDbMText
 10
1249.72370825399
 20
1135.0
 30
0.0
 40
31.181104
 41
0.0
 71
     5
 72
     1
  1
%%c1164
  7
EXCADDIM1
  0
POINT
  5
443
330
43A
100
AcDbEntity
  8
DEFPOINTS
 62
     0
100
AcDbPoint
 10
667.7237082539799
 20
794.0
 30
0.0
  0
POINT
  5
444
330
43A
100
AcDbEntity
  8
DEFPOINTS
 62
     0
100
AcDbPoint
 10
1831.723708254
 20
825.0
 30
0.0
  0
POINT
  5
445
330
43A
100
AcDbEntity
  8
DEFPOINTS
 62
     0
100
AcDbPoint
 10
1831.723708254
 20
1110.0
 30
0.0
  0
ENDBLK
  5
43C
330
43A
100
AcDbEntity
  8
0
100
AcDbBlockEnd
  0
BLOCK
  5
448
330
447
100
AcDbEntity
  8
0
100
AcDbBlockBegin
  2
*D18
 70
     1
 10
0.0
 20
0.0
 30
0.0
  3
*D18
  1

  0
LINE
  5
44A
330
447
100
AcDbEntity
  8
LAY-20
  6
CONTINUOUS
 62
     4
100
AcDbLine
 10
1025.0
 20
711.3133150668
 30
0.0
 11
1025.0
 21
590.5522259485901
 31
0.0
  0
LINE
  5
44B
330
447
100
AcDbEntity
  8
LAY-20
  6
CONTINUOUS
 62
     4
100
AcDbLine
 10
1475.0
 20
711.3133150668
 30
0.0
 11
1475.0
 21
590.5522259485901
 31
0.0
  0
LINE
  5
44C
330
447
100
AcDbEntity
  8
LAY-20
  6
CONTINUOUS
 62
     4
100
AcDbLine
 10
1055.0
 20
605.5522259485901
 30
0.0
 11
1445.0
 21
605.5522259485901
 31
0.0
  0
INSERT
  5
44D
330
447
100
AcDbEntity
  8
LAY-20
 62
     4
100
AcDbBlockReference
  2
EX_BNORM
 10
1025.0
 20
605.5522259485901
 30
0.0
 41
30.0
 42
30.0
 43
30.0
 50
180.0
  0
INSERT
  5
44E
330
447
100
AcDbEntity
  8
LAY-20
 62
     4
100
AcDbBlockReference
  2
EX_BNORM
 10
1475.0
 20
605.5522259485901
 30
0.0
 41
30.0
 42
30.0
 43
30.0
  0
MTEXT
  5
44F
330
447
100
AcDbEntity
  8
LAY-20
 62
     7
100
AcDbMText
 10
1250.0
 20
630.5522259485901
 30
0.0
 40
31.181104
 41
0.0
 71
     5
 72
     1
  1
%%c450
  7
EXCADDIM1
  0
POINT
  5
450
330
447
100
AcDbEntity
  8
DEFPOINTS
 62
     0
100
AcDbPoint
 10
1025.0
 20
726.3133150668
 30
0.0
  0
POINT
  5
451
330
447
100
AcDbEntity
  8
DEFPOINTS
 62
     0
100
AcDbPoint
 10
1475.0
 20
726.3133150668
 30
0.0
  0
POINT
  5
452
330
447
100
AcDbEntity
  8
DEFPOINTS
 62
     0
100
AcDbPoint
 10
1475.0
 20
605.5522259485901
 30
0.0
  0
ENDBLK
  5
449
330
447
100
AcDbEntity
  8
0
100
AcDbBlockEnd
  0
BLOCK
  5
455
330
454
100
AcDbEntity
  8
0
100
AcDbBlockBegin
  2
*D19
 70
     1
 10
0.0
 20
0.0
 30
0.0
  3
*D19
  1

  0
LINE
  5
457
330
454
100
AcDbEntity
  8
LAY-20
  6
CONTINUOUS
 62
     4
100
AcDbLine
 10
750.0
 20
675.5522259485901
 30
0.0
 11
750.0
 21
520.5522259485901
 31
0.0
  0
LINE
  5
458
330
454
100
AcDbEntity
  8
LAY-20
  6
CONTINUOUS
 62
     4
100
AcDbLine
 10
1750.0
 20
675.5522259485901
 30
0.0
 11
1750.0
 21
520.5522259485901
 31
0.0
  0
LINE
  5
459
330
454
100
AcDbEntity
  8
LAY-20
  6
CONTINUOUS
 62
     4
100
AcDbLine
 10
780.0
 20
535.5522259485901
 30
0.0
 11
1720.0
 21
535.5522259485901
 31
0.0
  0
INSERT
  5
45A
330
454
100
AcDbEntity
  8
LAY-20
 62
     4
100
AcDbBlockReference
  2
EX_BNORM
 10
750.0
 20
535.5522259485901
 30
0.0
 41
30.0
 42
30.0
 43
30.0
 50
180.0
  0
INSERT
  5
45B
330
454
100
AcDbEntity
  8
LAY-20
 62
     4
100
AcDbBlockReference
  2
EX_BNORM
 10
1750.0
 20
535.5522259485901
 30
0.0
 41
30.0
 42
30.0
 43
30.0
  0
MTEXT
  5
45C
330
454
100
AcDbEntity
  8
LAY-20
 62
     7
100
AcDbMText
 10
1250.0
 20
560.5522259485901
 30
0.0
 40
31.181104
 41
0.0
 71
     5
 72
     1
  1
%%c1000
  7
EXCADDIM1
  0
POINT
  5
45D
330
454
100
AcDbEntity
  8
DEFPOINTS
 62
     0
100
AcDbPoint
 10
750.0
 20
690.5522259485901
 30
0.0
  0
POINT
  5
45E
330
454
100
AcDbEntity
  8
DEFPOINTS
 62
     0
100
AcDbPoint
 10
1750.0
 20
690.5522259485901
 30
0.0
  0
POINT
  5
45F
330
454
100
AcDbEntity
  8
DEFPOINTS
 62
     0
100
AcDbPoint
 10
1750.0
 20
535.5522259485901
 30
0.0
  0
ENDBLK
  5
456
330
454
100
AcDbEntity
  8
0
100
AcDbBlockEnd
  0
BLOCK
  5
462
330
461
100
AcDbEntity
  8
0
100
AcDbBlockBegin
  2
*D20
 70
     1
 10
0.0
 20
0.0
 30
0.0
  3
*D20
  1

  0
LINE
  5
464
330
461
100
AcDbEntity
  8
LAY-20
  6
CONTINUOUS
 62
     4
100
AcDbLine
 10
665.0
 20
675.5522259485901
 30
0.0
 11
665.0
 21
450.5522259485901
 31
0.0
  0
LINE
  5
465
330
461
100
AcDbEntity
  8
LAY-20
  6
CONTINUOUS
 62
     4
100
AcDbLine
 10
695.0
 20
465.5522259485901
 30
0.0
 11
1805.0
 21
465.5522259485901
 31
0.0
  0
INSERT
  5
466
330
461
100
AcDbEntity
  8
LAY-20
 62
     4
100
AcDbBlockReference
  2
EX_BNORM
 10
665.0
 20
465.5522259485901
 30
0.0
 41
30.0
 42
30.0
 43
30.0
 50
180.0
  0
INSERT
  5
467
330
461
100
AcDbEntity
  8
LAY-20
 62
     4
100
AcDbBlockReference
  2
EX_NONE
 10
1835.0
 20
465.5522259485901
 30
0.0
 41
30.0
 42
30.0
 43
30.0
  0
MTEXT
  5
468
330
461
100
AcDbEntity
  8
LAY-20
 62
     7
100
AcDbMText
 10
1250.0
 20
490.5522259485901
 30
0.0
 40
31.181104
 41
0.0
 71
     5
 72
     1
  1
□1170
  7
EXCADDIM1
  0
POINT
  5
469
330
461
100
AcDbEntity
  8
DEFPOINTS
 62
     0
100
AcDbPoint
 10
665.0
 20
690.5522259485901
 30
0.0
  0
POINT
  5
46A
330
461
100
AcDbEntity
  8
DEFPOINTS
 62
     0
100
AcDbPoint
 10
1835.0
 20
465.5522259485901
 30
0.0
  0
POINT
  5
46B
330
461
100
AcDbEntity
  8
DEFPOINTS
 62
     0
100
AcDbPoint
 10
1835.0
 20
465.5522259485901
 30
0.0
  0
ENDBLK
  5
463
330
461
100
AcDbEntity
  8
0
100
AcDbBlockEnd
  0
BLOCK
  5
46E
330
46D
100
AcDbEntity
  8
0
100
AcDbBlockBegin
  2
*D21
 70
     1
 10
0.0
 20
0.0
 30
0.0
  3
*D21
  1

  0
LINE
  5
470
330
46D
100
AcDbEntity
  8
LAY-20
  6
CONTINUOUS
 62
     4
100
AcDbLine
 10
1857.0
 20
790.5522259485901
 30
0.0
 11
2150.0
 21
790.5522259485901
 31
0.0
  0
LINE
  5
471
330
46D
100
AcDbEntity
  8
LAY-20
  6
CONTINUOUS
 62
     4
100
AcDbLine
 10
2050.0
 20
705.5522259485901
 30
0.0
 11
2150.0
 21
705.5522259485901
 31
0.0
  0
LINE
  5
472
330
46D
100
AcDbEntity
  8
LAY-20
  6
CONTINUOUS
 62
     4
100
AcDbLine
 10
2135.0
 20
760.5522259485901
 30
0.0
 11
2135.0
 21
735.5522259485901
 31
0.0
  0
INSERT
  5
473
330
46D
100
AcDbEntity
  8
LAY-20
 62
     4
100
AcDbBlockReference
  2
EX_BNORM
 10
2135.0
 20
790.5522259485901
 30
0.0
 41
30.0
 42
30.0
 43
30.0
 50
90.0
  0
INSERT
  5
474
330
46D
100
AcDbEntity
  8
LAY-20
 62
     4
100
AcDbBlockReference
  2
EX_BNORM
 10
2135.0
 20
705.5522259485901
 30
0.0
 41
30.0
 42
30.0
 43
30.0
 50
270.0
  0
MTEXT
  5
475
330
46D
100
AcDbEntity
  8
LAY-20
 62
     7
100
AcDbMText
 10
2110.0
 20
748.0522259485901
 30
0.0
 40
31.181104
 41
0.0
 71
     5
 72
     1
  1
85
  7
EXCADDIM1
 11
0.0
 21
1.0
 31
0.0
  0
POINT
  5
476
330
46D
100
AcDbEntity
  8
DEFPOINTS
 62
     0
100
AcDbPoint
 10
1842.0
 20
790.5522259485901
 30
0.0
  0
POINT
  5
477
330
46D
100
AcDbEntity
  8
DEFPOINTS
 62
     0
100
AcDbPoint
 10
2035.0
 20
705.5522259485901
 30
0.0
  0
POINT
  5
478
330
46D
100
AcDbEntity
  8
DEFPOINTS
 62
     0
100
AcDbPoint
 10
2135.0
 20
705.5522259485901
 30
0.0
  0
ENDBLK
  5
46F
330
46D
100
AcDbEntity
  8
0
100
AcDbBlockEnd
  0
ENDSEC
  0
SECTION
  2
ENTITIES
  0
LINE
  5
D5
330
1F
100
AcDbEntity
  8
LAY-10
  6
CONTINUOUS
 62
     7
100
AcDbLine
 10
767.1572875253806
 20
2485.0
 30
0.0
 11
1732.842712474621
 21
2485.0
 31
0.0
  0
LINE
  5
D6
330
1F
100
AcDbEntity
  8
LAY-10
  6
CONTINUOUS
 62
     7
100
AcDbLine
 10
767.1572875253798
 20
1315.0
 30
0.0
 11
1732.84271247462
 21
1315.0
 31
0.0
  0
LINE
  5
D7
330
1F
100
AcDbEntity
  8
LAY-10
  6
CONTINUOUS
 62
     7
100
AcDbLine
 10
1835.0
 20
2382.84271247462
 30
0.0
 11
1835.0
 21
1417.15728752538
 31
0.0
  0
LINE
  5
D8
330
1F
100
AcDbEntity
  8
LAY-10
  6
CONTINUOUS
 62
     7
100
AcDbLine
 10
665.0000000000006
 20
2382.84271247462
 30
0.0
 11
665.0000000000006
 21
1417.157287525381
 31
0.0
  0
LINE
  5
D9
330
1F
100
AcDbEntity
  8
LAY-10
  6
CONTINUOUS
 62
     7
100
AcDbLine
 10
670.0000000000006
 20
786.0522259485925
 30
0.0
 11
691.0000000000005
 21
786.0522259485925
 31
0.0
  0
LINE
  5
DA
330
1F
100
AcDbEntity
  8
LAY-10
  6
CONTINUOUS
 62
     7
100
AcDbLine
 10
665.0000000000006
 20
705.5522259485925
 30
0.0
 11
2035.0
 21
705.5522259485925
 31
0.0
  0
LINE
  5
DB
330
1F
100
AcDbEntity
  8
LAY-10
  6
CONTINUOUS
 62
     7
100
AcDbLine
 10
669.0613234749416
 20
720.5522259485925
 30
0.0
 11
689.0000000000006
 21
720.5522259485925
 31
0.0
  0
LINE
  5
DC
330
1F
100
AcDbEntity
  8
LAY-10
  6
CONTINUOUS
 62
     7
100
AcDbLine
 10
710.9921937030598
 20
719.5522259485926
 30
0.0
 11
725.6451589227783
 21
719.5522259485926
 31
0.0
  0
LINE
  5
DD
330
1F
100
AcDbEntity
  8
LAY-10
  6
CONTINUOUS
 62
     7
100
AcDbLine
 10
731.5000000000007
 20
755.0522259485925
 30
0.0
 11
736.7500000000005
 21
755.0522259485925
 31
0.0
  0
LINE
  5
DE
330
1F
100
AcDbEntity
  8
LAY-10
  6
CONTINUOUS
 62
     7
100
AcDbLine
 10
728.6337430170535
 20
722.2907587203497
 30
0.0
 11
731.5000000000006
 21
755.0522259485925
 31
0.0
  0
LINE
  5
DF
330
1F
100
AcDbEntity
  8
LAY-10
  6
CONTINUOUS
 62
     7
100
AcDbLine
 10
691.0000000000005
 20
786.0522259485925
 30
0.0
 11
691.0000000000005
 21
768.0522259485925
 31
0.0
  0
LINE
  5
E0
330
1F
100
AcDbEntity
  8
LAY-10
  6
CONTINUOUS
 62
     7
100
AcDbLine
 10
691.0000000000005
 20
768.0522259485925
 30
0.0
 11
704.0000000000005
 21
768.0522259485925
 31
0.0
  0
LINE
  5
E1
330
1F
100
AcDbEntity
  8
LAY-10
  6
CONTINUOUS
 62
     7
100
AcDbLine
 10
708.0036096087846
 20
722.2907587203497
 30
0.0
 11
704.0000000000005
 21
768.0522259485925
 31
0.0
  0
LINE
  5
E2
330
1F
100
AcDbEntity
  8
LAY-10
  6
CONTINUOUS
 62
     7
100
AcDbLine
 10
748.5000000000005
 20
755.0522259485925
 30
0.0
 11
750.0000000000006
 21
705.5522259485926
 31
0.0
  0
LINE
  5
E3
330
1F
100
AcDbEntity
  8
LAY-10
  6
CONTINUOUS
 62
     7
100
AcDbLine
 10
667.7468746238361
 20
768.0272229392762
 30
0.0
 11
670.0000000000006
 21
786.0522259485925
 31
0.0
  0
LINE
  5
E4
330
1F
100
AcDbEntity
  8
LAY-10
  6
CONTINUOUS
 62
     7
100
AcDbLine
 10
690.5000000000007
 20
752.7731697572312
 30
0.0
 11
669.2237082539771
 21
765.0570425241551
 31
0.0
  0
LINE
  5
E5
330
1F
100
AcDbEntity
  8
LAY-10
  6
CONTINUOUS
 62
     7
100
AcDbLine
 10
692.0000000000006
 20
750.1750935458779
 30
0.0
 11
692.0000000000006
 21
723.5522259485924
 31
0.0
  0
LINE
  5
E6
330
1F
100
AcDbEntity
  8
LAY-10
  6
CONTINUOUS
 62
     7
100
AcDbLine
 10
666.0727393806663
 20
717.8136931768355
 30
0.0
 11
665.0000000000006
 21
705.5522259485925
 31
0.0
  0
LINE
  5
E7
330
1F
100
AcDbEntity
  8
LAY-10
  6
CONTINUOUS
 62
     7
100
AcDbLine
 10
1771.366256982947
 20
722.2907587203497
 30
0.0
 11
1768.5
 21
755.0522259485925
 31
0.0
  0
LINE
  5
E8
330
1F
100
AcDbEntity
  8
LAY-10
  6
CONTINUOUS
 62
     7
100
AcDbLine
 10
1809.0
 20
786.0522259485925
 30
0.0
 11
1809.0
 21
768.0522259485925
 31
0.0
  0
LINE
  5
E9
330
1F
100
AcDbEntity
  8
LAY-10
  6
CONTINUOUS
 62
     7
100
AcDbLine
 10
1791.996390391216
 20
722.2907587203497
 30
0.0
 11
1792.325476131912
 21
726.0522259485926
 31
0.0
  0
LINE
  5
EA
330
1F
100
AcDbEntity
  8
LAY-10
  6
CONTINUOUS
 62
     7
100
AcDbLine
 10
1751.5
 20
755.0522259485925
 30
0.0
 11
1750.0
 21
705.5522259485926
 31
0.0
  0
LINE
  5
EB
330
1F
100
AcDbEntity
  8
LAY-10
  6
CONTINUOUS
 62
     7
100
AcDbLine
 10
1832.253125376165
 20
768.0272229392762
 30
0.0
 11
1830.0
 21
786.0522259485925
 31
0.0
  0
LINE
  5
EC
330
1F
100
AcDbEntity
  8
LAY-10
  6
CONTINUOUS
 62
     7
100
AcDbLine
 10
2033.927260619336
 20
717.8136931768355
 30
0.0
 11
2035.000000000001
 21
705.5522259485925
 31
0.0
  0
LINE
  5
ED
330
1F
100
AcDbEntity
  8
LAY-10
  6
CONTINUOUS
 62
     7
100
AcDbLine
 10
1829.0
 20
764.031500006429
 30
0.0
 11
1830.776291746024
 21
765.0570425241549
 31
0.0
  0
LINE
  5
EE
330
1F
100
AcDbEntity
  8
LAY-10
  6
CONTINUOUS
 62
     7
100
AcDbLine
 10
2030.93867652506
 20
720.5522259485925
 30
0.0
 11
1830.500000000001
 21
720.5522259485925
 31
0.0
  0
LINE
  5
EF
330
1F
100
AcDbEntity
  8
LAY-10
  6
CONTINUOUS
 62
     7
100
AcDbLine
 10
1815.0
 20
719.5522259485926
 30
0.0
 11
1774.354841077223
 21
719.5522259485926
 31
0.0
  0
LINE
  5
F0
330
1F
100
AcDbEntity
  8
LAY-10
  6
CONTINUOUS
 62
     7
100
AcDbLine
 10
1768.5
 20
755.0522259485925
 30
0.0
 11
1763.25
 21
755.0522259485925
 31
0.0
  0
ARC
  5
F1
330
1F
100
AcDbEntity
  8
LAY-10
  6
CONTINUOUS
 62
     7
100
AcDbCircle
 10
669.0613234749416
 20
717.5522259485925
 30
0.0
 40
3.000000000000001
100
AcDbArc
 50
90.0
 51
175.0000000000001
  0
ARC
  5
F2
330
1F
100
AcDbEntity
  8
LAY-10
  6
CONTINUOUS
 62
     7
100
AcDbCircle
 10
689.0000000000006
 20
723.5522259485924
 30
0.0
 40
3.000000000000001
100
AcDbArc
 50
270.0
 51
0.0
  0
ARC
  5
F3
330
1F
100
AcDbEntity
  8
LAY-10
  6
CONTINUOUS
 62
     7
100
AcDbCircle
 10
689.0000000000006
 20
750.1750935458779
 30
0.0
 40
3.000000000000001
100
AcDbArc
 50
0.0
 51
59.99999999999641
  0
ARC
  5
F4
330
1F
100
AcDbEntity
  8
LAY-10
  6
CONTINUOUS
 62
     7
100
AcDbCircle
 10
710.9921937030598
 20
722.5522259485925
 30
0.0
 40
3.000000000000001
100
AcDbArc
 50
184.9999999999977
 51
270.0
  0
ARC
  5
F5
330
1F
100
AcDbEntity
  8
LAY-10
  6
CONTINUOUS
 62
     7
100
AcDbCircle
 10
725.6451589227783
 20
722.5522259485925
 30
0.0
 40
3.000000000000001
100
AcDbArc
 50
270.0
 51
355.0000000000024
  0
ARC
  5
F6
330
1F
100
AcDbEntity
  8
LAY-10
  6
CONTINUOUS
 62
     7
100
AcDbCircle
 10
1774.354841077223
 20
722.5522259485925
 30
0.0
 40
3.000000000000001
100
AcDbArc
 50
184.9999999999977
 51
270.0
  0
ARC
  5
F7
330
1F
100
AcDbEntity
  8
LAY-10
  6
CONTINUOUS
 62
     7
100
AcDbCircle
 10
1789.007806296941
 20
722.5522259485925
 30
0.0
 40
3.000000000000001
100
AcDbArc
 50
270.0
 51
355.0000000000024
  0
ARC
  5
F8
330
1F
100
AcDbEntity
  8
LAY-10
  6
CONTINUOUS
 62
     7
100
AcDbCircle
 10
2030.93867652506
 20
717.5522259485925
 30
0.0
 40
3.000000000000001
100
AcDbArc
 50
4.999999999999457
 51
90.0
  0
LINE
  5
F9
330
1F
100
AcDbEntity
  8
LAY-10
  6
CONTINUOUS
 62
     7
100
AcDbLine
 10
1827.5
 20
761.4334237950757
 30
0.0
 11
1827.5
 21
723.5522259485924
 31
0.0
  0
ARC
  5
FA
330
1F
100
AcDbEntity
  8
LAY-10
  6
CONTINUOUS
 62
     7
100
AcDbCircle
 10
1830.500000000001
 20
723.5522259485924
 30
0.0
 40
3.000000000000001
100
AcDbArc
 50
180.0
 51
270.0
  0
ARC
  5
FB
330
1F
100
AcDbEntity
  8
LAY-10
  6
CONTINUOUS
 62
     7
100
AcDbCircle
 10
1830.500000000001
 20
761.4334237950757
 30
0.0
 40
3.000000000000001
100
AcDbArc
 50
119.9999999999957
 51
180.0
  0
LINE
  5
FC
330
1F
100
AcDbEntity
  8
LAY-10
  6
CONTINUOUS
 62
     7
100
AcDbLine
 10
1815.0
 20
719.5522259485926
 30
0.0
 11
1815.0
 21
747.0522259485926
 31
0.0
  0
LINE
  5
FD
330
1F
100
AcDbEntity
  8
LAY-10
  6
CONTINUOUS
 62
     7
100
AcDbLine
 10
1794.206482397719
 20
747.5522259485928
 30
0.0
 11
1815.0
 21
747.0522259485926
 31
0.0
  0
CIRCLE
  5
FE
330
1F
100
AcDbEntity
  8
LAY-10
  6
CONTINUOUS
 62
     7
100
AcDbCircle
 10
1250.0
 20
1900.0
 30
0.0
 40
582.4999999999997
  0
CIRCLE
  5
FF
330
1F
100
AcDbEntity
  8
LAY-10
  6
CONTINUOUS
 62
     7
100
AcDbCircle
 10
1250.0
 20
1900.0
 30
0.0
 40
580.0
  0
CIRCLE
  5
100
330
1F
100
AcDbEntity
  8
LAY-10
  6
CONTINUOUS
 62
     7
100
AcDbCircle
 10
1250.0
 20
1900.0
 30
0.0
 40
558.9999999999999
  0
ARC
  5
101
330
1F
100
AcDbEntity
  8
LAY-10
  6
CONTINUOUS
 62
     7
100
AcDbCircle
 10
1732.842712474621
 20
2382.84271247462
 30
0.0
 40
102.1572875253797
100
AcDbArc
 50
0.0
 51
90.0
  0
LINE
  5
102
330
1F
100
AcDbEntity
  8
LAY-10
  6
CONTINUOUS
 62
     7
100
AcDbLine
 10
1945.000000000001
 20
720.5522259485925
 30
0.0
 11
1945.000000000001
 21
728.5681958379345
 31
0.0
  0
LINE
  5
103
330
1F
100
AcDbEntity
  8
LAY-10
  6
CONTINUOUS
 62
     7
100
AcDbLine
 10
1945.000000000001
 20
728.5681958379346
 30
0.0
 11
1827.5
 21
760.0522259485924
 31
0.0
  0
LINE
  5
104
330
1F
100
AcDbEntity
  8
LAY-10
  6
CONTINUOUS
 62
     7
100
AcDbLine
 10
1736.135912065752
 20
2396.742513783549
 30
0.0
 11
1746.742513783549
 21
2386.135912065752
 31
0.0
  0
LINE
  5
105
330
1F
100
AcDbEntity
  8
LAY-10
  6
CONTINUOUS
 62
     7
100
AcDbLine
 10
1656.552256345323
 20
2317.158858063121
 30
0.0
 11
1736.135912065752
 21
2396.742513783549
 31
0.0
  0
LINE
  5
106
330
1F
100
AcDbEntity
  8
LAY-10
  6
CONTINUOUS
 62
     7
100
AcDbLine
 10
1667.158858063121
 20
2306.552256345323
 30
0.0
 11
1746.742513783549
 21
2386.135912065752
 31
0.0
  0
LINE
  5
107
330
1F
100
AcDbEntity
  8
LAY-10
  6
CONTINUOUS
 62
     7
100
AcDbLine
 10
1636.396766099771
 20
2335.894240782829
 30
0.0
 11
1747.895923599144
 21
2447.393398282202
 31
0.0
  0
LINE
  5
108
330
1F
100
AcDbEntity
  8
LAY-10
  6
CONTINUOUS
 62
     7
100
AcDbLine
 10
1685.894240782829
 20
2286.396766099771
 30
0.0
 11
1797.393398282202
 21
2397.895923599144
 31
0.0
  0
LINE
  5
109
330
1F
100
AcDbEntity
  8
LAY-10
  6
CONTINUOUS
 62
     7
100
AcDbLine
 10
1354.772372312553
 20
2473.0
 30
0.0
 11
1737.289321881346
 21
2473.0
 31
0.0
  0
LINE
  5
10A
330
1F
100
AcDbEntity
  8
LAY-10
  6
CONTINUOUS
 62
     7
100
AcDbLine
 10
1823.000000000001
 20
2387.289321881346
 30
0.0
 11
1823.000000000001
 21
2004.77237231255
 31
0.0
  0
ARC
  5
10B
330
1F
100
AcDbEntity
  8
LAY-10
  6
CONTINUOUS
 62
     7
100
AcDbCircle
 10
1737.289321881346
 20
2458.0
 30
0.0
 40
15.0
100
AcDbArc
 50
315.0
 51
90.0
  0
ARC
  5
10C
330
1F
100
AcDbEntity
  8
LAY-10
  6
CONTINUOUS
 62
     7
100
AcDbCircle
 10
1808.000000000001
 20
2387.289321881346
 30
0.0
 40
15.0
100
AcDbArc
 50
0.0
 51
135.0000000000018
  0
CIRCLE
  5
10D
330
1F
100
AcDbEntity
  8
LAY-10
  6
CONTINUOUS
 62
     7
100
AcDbCircle
 10
1655.0
 20
2425.0
 30
0.0
 40
11.3
  0
CIRCLE
  5
10E
330
1F
100
AcDbEntity
  8
LAY-10
  6
CONTINUOUS
 62
     7
100
AcDbCircle
 10
1655.0
 20
2425.0
 30
0.0
 40
10.0
  0
ARC
  5
10F
330
1F
100
AcDbEntity
  8
LAY-10
  6
CONTINUOUS
 62
     7
100
AcDbCircle
 10
767.1572875253806
 20
2382.84271247462
 30
0.0
 40
102.1572875253797
100
AcDbArc
 50
90.0
 51
180.0
  0
LINE
  5
110
330
1F
100
AcDbEntity
  8
LAY-10
  6
CONTINUOUS
 62
     7
100
AcDbLine
 10
832.8411419368797
 20
2306.552256345323
 30
0.0
 11
753.2574862164514
 21
2386.135912065752
 31
0.0
  0
LINE
  5
111
330
1F
100
AcDbEntity
  8
LAY-10
  6
CONTINUOUS
 62
     7
100
AcDbLine
 10
843.447743654678
 20
2317.158858063121
 30
0.0
 11
763.8640879342491
 21
2396.742513783549
 31
0.0
  0
LINE
  5
112
330
1F
100
AcDbEntity
  8
LAY-10
  6
CONTINUOUS
 62
     7
100
AcDbLine
 10
753.2574862164514
 20
2386.135912065752
 30
0.0
 11
763.8640879342491
 21
2396.742513783549
 31
0.0
  0
LINE
  5
113
330
1F
100
AcDbEntity
  8
LAY-10
  6
CONTINUOUS
 62
     7
100
AcDbLine
 10
814.1057592171713
 20
2286.396766099771
 30
0.0
 11
702.606601717799
 21
2397.895923599144
 31
0.0
  0
LINE
  5
114
330
1F
100
AcDbEntity
  8
LAY-10
  6
CONTINUOUS
 62
     7
100
AcDbLine
 10
677.0000000000007
 20
2004.772372312553
 30
0.0
 11
677.0000000000007
 21
2387.289321881346
 31
0.0
  0
ARC
  5
115
330
1F
100
AcDbEntity
  8
LAY-10
  6
CONTINUOUS
 62
     7
100
AcDbCircle
 10
692.0000000000007
 20
2387.289321881346
 30
0.0
 40
15.0
100
AcDbArc
 50
44.99999999999844
 51
180.0
  0
LINE
  5
116
330
1F
100
AcDbEntity
  8
LAY-10
  6
CONTINUOUS
 62
     7
100
AcDbLine
 10
863.6032339002298
 20
2335.894240782829
 30
0.0
 11
752.1040764008566
 21
2447.393398282203
 31
0.0
  0
LINE
  5
117
330
1F
100
AcDbEntity
  8
LAY-10
  6
CONTINUOUS
 62
     7
100
AcDbLine
 10
762.7106781186552
 20
2473.000000000001
 30
0.0
 11
1145.22762768745
 21
2473.000000000001
 31
0.0
  0
ARC
  5
118
330
1F
100
AcDbEntity
  8
LAY-10
  6
CONTINUOUS
 62
     7
100
AcDbCircle
 10
762.7106781186552
 20
2458.000000000001
 30
0.0
 40
15.0
100
AcDbArc
 50
90.0
 51
224.9999999999997
  0
CIRCLE
  5
119
330
1F
100
AcDbEntity
  8
LAY-10
  6
CONTINUOUS
 62
     7
100
AcDbCircle
 10
725.0000000000008
 20
2305.000000000001
 30
0.0
 40
11.3
  0
CIRCLE
  5
11A
330
1F
100
AcDbEntity
  8
LAY-10
  6
CONTINUOUS
 62
     7
100
AcDbCircle
 10
725.0000000000008
 20
2305.000000000001
 30
0.0
 40
10.0
  0
ARC
  5
11B
330
1F
100
AcDbEntity
  8
LAY-10
  6
CONTINUOUS
 62
     7
100
AcDbCircle
 10
767.1572875253798
 20
1417.157287525381
 30
0.0
 40
102.1572875253797
100
AcDbArc
 50
180.0
 51
270.0
  0
LINE
  5
11C
330
1F
100
AcDbEntity
  8
LAY-10
  6
CONTINUOUS
 62
     7
100
AcDbLine
 10
843.4477436546777
 20
1482.84114193688
 30
0.0
 11
763.8640879342489
 21
1403.257486216452
 31
0.0
  0
LINE
  5
11D
330
1F
100
AcDbEntity
  8
LAY-10
  6
CONTINUOUS
 62
     7
100
AcDbLine
 10
832.8411419368794
 20
1493.447743654678
 30
0.0
 11
753.2574862164512
 21
1413.864087934249
 31
0.0
  0
LINE
  5
11E
330
1F
100
AcDbEntity
  8
LAY-10
  6
CONTINUOUS
 62
     7
100
AcDbLine
 10
763.8640879342489
 20
1403.257486216452
 30
0.0
 11
753.2574862164512
 21
1413.864087934249
 31
0.0
  0
LINE
  5
11F
330
1F
100
AcDbEntity
  8
LAY-10
  6
CONTINUOUS
 62
     7
100
AcDbLine
 10
863.6032339002293
 20
1464.105759217172
 30
0.0
 11
752.1040764008566
 21
1352.606601717799
 31
0.0
  0
LINE
  5
120
330
1F
100
AcDbEntity
  8
LAY-10
  6
CONTINUOUS
 62
     7
100
AcDbLine
 10
1145.227627687447
 20
1327.000000000001
 30
0.0
 11
762.7106781186549
 21
1327.000000000001
 31
0.0
  0
ARC
  5
121
330
1F
100
AcDbEntity
  8
LAY-10
  6
CONTINUOUS
 62
     7
100
AcDbCircle
 10
762.7106781186549
 20
1342.000000000001
 30
0.0
 40
15.0
100
AcDbArc
 50
134.9999999999994
 51
270.0
  0
LINE
  5
122
330
1F
100
AcDbEntity
  8
LAY-10
  6
CONTINUOUS
 62
     7
100
AcDbLine
 10
814.1057592171711
 20
1513.60323390023
 30
0.0
 11
702.6066017177982
 21
1402.104076400857
 31
0.0
  0
LINE
  5
123
330
1F
100
AcDbEntity
  8
LAY-10
  6
CONTINUOUS
 62
     7
100
AcDbLine
 10
676.9999999999999
 20
1412.710678118655
 30
0.0
 11
676.9999999999999
 21
1795.227627687451
 31
0.0
  0
ARC
  5
124
330
1F
100
AcDbEntity
  8
LAY-10
  6
CONTINUOUS
 62
     7
100
AcDbCircle
 10
691.9999999999999
 20
1412.710678118655
 30
0.0
 40
15.0
100
AcDbArc
 50
180.0
 51
314.9999999999994
  0
CIRCLE
  5
125
330
1F
100
AcDbEntity
  8
LAY-10
  6
CONTINUOUS
 62
     7
100
AcDbCircle
 10
845.0
 20
1375.000000000001
 30
0.0
 40
11.3
  0
CIRCLE
  5
126
330
1F
100
AcDbEntity
  8
LAY-10
  6
CONTINUOUS
 62
     7
100
AcDbCircle
 10
845.0
 20
1375.000000000001
 30
0.0
 40
10.0
  0
ARC
  5
127
330
1F
100
AcDbEntity
  8
LAY-10
  6
CONTINUOUS
 62
     7
100
AcDbCircle
 10
1732.84271247462
 20
1417.15728752538
 30
0.0
 40
102.1572875253797
100
AcDbArc
 50
270.0
 51
0.0
  0
LINE
  5
128
330
1F
100
AcDbEntity
  8
LAY-10
  6
CONTINUOUS
 62
     7
100
AcDbLine
 10
1667.158858063121
 20
1493.447743654678
 30
0.0
 11
1746.742513783549
 21
1413.864087934249
 31
0.0
  0
LINE
  5
129
330
1F
100
AcDbEntity
  8
LAY-10
  6
CONTINUOUS
 62
     7
100
AcDbLine
 10
1656.552256345323
 20
1482.84114193688
 30
0.0
 11
1736.135912065752
 21
1403.257486216451
 31
0.0
  0
LINE
  5
12A
330
1F
100
AcDbEntity
  8
LAY-10
  6
CONTINUOUS
 62
     7
100
AcDbLine
 10
1746.742513783549
 20
1413.864087934249
 30
0.0
 11
1736.135912065752
 21
1403.257486216451
 31
0.0
  0
LINE
  5
12B
330
1F
100
AcDbEntity
  8
LAY-10
  6
CONTINUOUS
 62
     7
100
AcDbLine
 10
1685.894240782829
 20
1513.603233900229
 30
0.0
 11
1797.393398282202
 21
1402.104076400857
 31
0.0
  0
LINE
  5
12C
330
1F
100
AcDbEntity
  8
LAY-10
  6
CONTINUOUS
 62
     7
100
AcDbLine
 10
1823.0
 20
1795.227627687448
 30
0.0
 11
1823.0
 21
1412.710678118655
 31
0.0
  0
ARC
  5
12D
330
1F
100
AcDbEntity
  8
LAY-10
  6
CONTINUOUS
 62
     7
100
AcDbCircle
 10
1808.0
 20
1412.710678118655
 30
0.0
 40
15.0
100
AcDbArc
 50
225.0
 51
0.0
  0
LINE
  5
12E
330
1F
100
AcDbEntity
  8
LAY-10
  6
CONTINUOUS
 62
     7
100
AcDbLine
 10
1636.396766099771
 20
1464.105759217171
 30
0.0
 11
1747.895923599144
 21
1352.606601717798
 31
0.0
  0
LINE
  5
12F
330
1F
100
AcDbEntity
  8
LAY-10
  6
CONTINUOUS
 62
     7
100
AcDbLine
 10
1737.289321881346
 20
1327.0
 30
0.0
 11
1354.77237231255
 21
1327.0
 31
0.0
  0
ARC
  5
130
330
1F
100
AcDbEntity
  8
LAY-10
  6
CONTINUOUS
 62
     7
100
AcDbCircle
 10
1737.289321881346
 20
1342.0
 30
0.0
 40
15.0
100
AcDbArc
 50
270.0
 51
45.00000000000062
  0
CIRCLE
  5
131
330
1F
100
AcDbEntity
  8
LAY-10
  6
CONTINUOUS
 62
     7
100
AcDbCircle
 10
1775.0
 20
1495.0
 30
0.0
 40
11.3
  0
CIRCLE
  5
132
330
1F
100
AcDbEntity
  8
LAY-10
  6
CONTINUOUS
 62
     7
100
AcDbCircle
 10
1775.0
 20
1495.0
 30
0.0
 40
10.0
  0
TEXT
  5
133
330
1F
100
AcDbEntity
  8
LAY-10
  6
CONTINUOUS
 62
     7
100
AcDbText
 10
1591.2
 20
1338.8464575
 30
0.0
 40
19.48819
  1
１００
 41
0.9845333333333334
  7
EXCADSTD
100
AcDbText
  0
TEXT
  5
134
330
1F
100
AcDbEntity
  8
LAY-10
  6
CONTINUOUS
 62
     7
100
AcDbText
 10
1811.153542500001
 20
2241.2
 30
0.0
 40
19.48819
  1
１００
 50
90.00000000000001
 41
0.9845333333333334
  7
EXCADSTD
100
AcDbText
  0
TEXT
  5
135
330
1F
100
AcDbEntity
  8
LAY-10
  6
CONTINUOUS
 62
     7
100
AcDbText
 10
908.8000000000013
 20
2461.153542500001
 30
0.0
 40
19.48819
  1
１００
 50
180.0
 41
0.9845333333333334
  7
EXCADSTD
100
AcDbText
  0
TEXT
  5
136
330
1F
100
AcDbEntity
  8
LAY-10
  6
CONTINUOUS
 62
     7
100
AcDbText
 10
688.8464575000002
 20
1558.800000000001
 30
0.0
 40
19.48819
  1
１００
 50
270.0
 41
0.9845333333333334
  7
EXCADSTD
100
AcDbText
  0
LINE
  5
137
330
1F
100
AcDbEntity
  8
LAY-10
  6
CONTINUOUS
 62
     7
100
AcDbLine
 10
710.5000000000007
 20
726.0522259485926
 30
0.0
 11
728.962828757749
 21
726.0522259485926
 31
0.0
  0
LINE
  5
138
330
1F
100
AcDbEntity
  8
LAY-10
  6
CONTINUOUS
 62
     7
100
AcDbLine
 10
693.5000000000005
 20
786.0522259485926
 30
0.0
 11
693.5000000000005
 21
768.0522259485925
 31
0.0
  0
LINE
  5
139
330
1F
100
AcDbEntity
  8
LAY-10
  6
CONTINUOUS
 62
     7
100
AcDbLine
 10
693.5000000000005
 20
768.0522259485925
 30
0.0
 11
707.0701534676973
 21
768.0522259485925
 31
0.0
  0
LINE
  5
13A
330
1F
100
AcDbEntity
  8
LAY-10
  6
CONTINUOUS
 62
     7
100
AcDbLine
 10
707.2373870972735
 20
791.0522259485926
 30
0.0
 11
693.5000000000005
 21
786.0522259485926
 31
0.0
  0
LINE
  5
13B
330
1F
100
AcDbEntity
  8
LAY-10
  6
CONTINUOUS
 62
     7
100
AcDbLine
 10
980.0000000000006
 20
795.8133150668008
 30
0.0
 11
707.2373870972735
 21
791.0522259485928
 31
0.0
  0
LINE
  5
13C
330
1F
100
AcDbEntity
  8
LAY-10
  6
CONTINUOUS
 62
     7
100
AcDbLine
 10
709.0688791763924
 20
766.1236090096171
 30
0.0
 11
710.5000000000007
 21
726.0522259485926
 31
0.0
  0
LINE
  5
13D
330
1F
100
AcDbEntity
  8
LAY-10
  6
CONTINUOUS
 62
     7
100
AcDbLine
 10
726.8994700516387
 20
770.0522259485925
 30
0.0
 11
755.5000000000005
 21
770.0522259485925
 31
0.0
  0
LINE
  5
13E
330
1F
100
AcDbEntity
  8
LAY-10
  6
CONTINUOUS
 62
     7
100
AcDbLine
 10
723.9012118187113
 20
767.1544392974423
 30
0.0
 11
722.5000000000008
 21
726.0522259485928
 31
0.0
  0
LINE
  5
13F
330
1F
100
AcDbEntity
  8
LAY-10
  6
CONTINUOUS
 62
     7
100
AcDbLine
 10
757.5000000000006
 20
768.0522259485925
 30
0.0
 11
757.5000000000006
 21
767.0522259485926
 31
0.0
  0
LINE
  5
140
330
1F
100
AcDbEntity
  8
LAY-10
  6
CONTINUOUS
 62
     7
100
AcDbLine
 10
767.5000000000006
 20
768.0522259485925
 30
0.0
 11
767.5000000000006
 21
767.0522259485926
 31
0.0
  0
LINE
  5
141
330
1F
100
AcDbEntity
  8
LAY-10
  6
CONTINUOUS
 62
     7
100
AcDbLine
 10
757.5000000000006
 20
767.0522259485926
 30
0.0
 11
767.5000000000006
 21
767.0522259485926
 31
0.0
  0
ARC
  5
142
330
1F
100
AcDbEntity
  8
LAY-10
  6
CONTINUOUS
 62
     7
100
AcDbCircle
 10
755.5000000000005
 20
768.0522259485925
 30
0.0
 40
2.0
100
AcDbArc
 50
0.0
 51
90.0
  0
ARC
  5
143
330
1F
100
AcDbEntity
  8
LAY-10
  6
CONTINUOUS
 62
     7
100
AcDbCircle
 10
769.5000000000006
 20
768.0522259485925
 30
0.0
 40
2.0
100
AcDbArc
 50
90.0
 51
180.0
  0
ARC
  5
144
330
1F
100
AcDbEntity
  8
LAY-10
  6
CONTINUOUS
 62
     7
100
AcDbCircle
 10
726.8994700516387
 20
767.0522259485926
 30
0.0
 40
3.000000000000001
100
AcDbArc
 50
90.0
 51
178.047490950603
  0
ARC
  5
145
330
1F
100
AcDbEntity
  8
LAY-10
  6
CONTINUOUS
 62
     7
100
AcDbCircle
 10
707.0701534676973
 20
766.0522259485926
 30
0.0
 40
2.0
100
AcDbArc
 50
2.045408488886141
 51
90.0
  0
LINE
  5
146
330
1F
100
AcDbEntity
  8
LAY-10
  6
CONTINUOUS
 62
     7
100
AcDbLine
 10
1792.762612902728
 20
791.0522259485926
 30
0.0
 11
1806.5
 21
786.0522259485926
 31
0.0
  0
LINE
  5
147
330
1F
100
AcDbEntity
  8
LAY-10
  6
CONTINUOUS
 62
     7
100
AcDbLine
 10
1806.5
 20
786.0522259485926
 30
0.0
 11
1806.5
 21
768.0522259485925
 31
0.0
  0
LINE
  5
148
330
1F
100
AcDbEntity
  8
LAY-10
  6
CONTINUOUS
 62
     7
100
AcDbLine
 10
1805.0
 20
726.0522259485928
 30
0.0
 11
1805.0
 21
746.0522259485926
 31
0.0
  0
LINE
  5
149
330
1F
100
AcDbEntity
  8
LAY-10
  6
CONTINUOUS
 62
     7
100
AcDbLine
 10
1742.5
 20
767.0522259485926
 30
0.0
 11
1732.5
 21
767.0522259485926
 31
0.0
  0
LINE
  5
14A
330
1F
100
AcDbEntity
  8
LAY-10
  6
CONTINUOUS
 62
     7
100
AcDbLine
 10
1742.5
 20
768.0522259485925
 30
0.0
 11
1742.5
 21
767.0522259485926
 31
0.0
  0
ARC
  5
14B
330
1F
100
AcDbEntity
  8
LAY-10
  6
CONTINUOUS
 62
     7
100
AcDbCircle
 10
1744.5
 20
768.0522259485925
 30
0.0
 40
2.0
100
AcDbArc
 50
90.0
 51
180.0
  0
LINE
  5
14C
330
1F
100
AcDbEntity
  8
LAY-10
  6
CONTINUOUS
 62
     7
100
AcDbLine
 10
1732.5
 20
768.0522259485925
 30
0.0
 11
1732.5
 21
767.0522259485926
 31
0.0
  0
ARC
  5
14D
330
1F
100
AcDbEntity
  8
LAY-10
  6
CONTINUOUS
 62
     7
100
AcDbCircle
 10
1730.500000000001
 20
768.0522259485925
 30
0.0
 40
2.0
100
AcDbArc
 50
0.0
 51
90.0
  0
LINE
  5
14E
330
1F
100
AcDbEntity
  8
LAY-10
  6
CONTINUOUS
 62
     7
100
AcDbLine
 10
1776.09878818129
 20
767.1544392974423
 30
0.0
 11
1777.5
 21
726.0522259485928
 31
0.0
  0
LINE
  5
14F
330
1F
100
AcDbEntity
  8
LAY-10
  6
CONTINUOUS
 62
     7
100
AcDbLine
 10
1773.100529948362
 20
770.0522259485925
 30
0.0
 11
1744.5
 21
770.0522259485925
 31
0.0
  0
ARC
  5
150
330
1F
100
AcDbEntity
  8
LAY-10
  6
CONTINUOUS
 62
     7
100
AcDbCircle
 10
1773.100529948362
 20
767.0522259485926
 30
0.0
 40
3.000000000000001
100
AcDbArc
 50
1.952509049396986
 51
90.0
  0
LINE
  5
151
330
1F
100
AcDbEntity
  8
LAY-10
  6
CONTINUOUS
 62
     7
100
AcDbLine
 10
1806.5
 20
768.0522259485925
 30
0.0
 11
1792.929846532304
 21
768.0522259485925
 31
0.0
  0
ARC
  5
152
330
1F
100
AcDbEntity
  8
LAY-10
  6
CONTINUOUS
 62
     7
100
AcDbCircle
 10
1792.929846532304
 20
766.0522259485926
 30
0.0
 40
2.0
100
AcDbArc
 50
90.0
 51
177.9545915111137
  0
LINE
  5
153
330
1F
100
AcDbEntity
  8
LAY-10
  6
CONTINUOUS
 62
     7
100
AcDbLine
 10
1805.0
 20
746.0522259485926
 30
0.0
 11
1792.286989389446
 21
746.0522259485926
 31
0.0
  0
LINE
  5
154
330
1F
100
AcDbEntity
  8
LAY-10
  6
CONTINUOUS
 62
     7
100
AcDbLine
 10
1790.931120823608
 20
766.1236090096171
 30
0.0
 11
1790.288263680751
 21
748.1236090096174
 31
0.0
  0
ARC
  5
155
330
1F
100
AcDbEntity
  8
LAY-10
  6
CONTINUOUS
 62
     7
100
AcDbCircle
 10
1792.286989389446
 20
748.0522259485925
 30
0.0
 40
2.0
100
AcDbArc
 50
177.9545915111105
 51
270.0
  0
LINE
  5
156
330
1F
100
AcDbEntity
  8
LAY-10
  6
CONTINUOUS
 62
     7
100
AcDbLine
 10
1520.0
 20
795.8133150668008
 30
0.0
 11
1792.762612902728
 21
791.0522259485928
 31
0.0
  0
LINE
  5
157
330
1F
100
AcDbEntity
  8
LAY-10
  6
CONTINUOUS
 62
     7
100
AcDbLine
 10
1595.0
 20
770.0522259485925
 30
0.0
 11
1730.500000000001
 21
770.0522259485925
 31
0.0
  0
LINE
  5
158
330
1F
100
AcDbEntity
  8
LAY-10
  6
CONTINUOUS
 62
     7
100
AcDbLine
 10
1595.0
 20
769.5522259485929
 30
0.0
 11
1539.583351871225
 21
769.4233500227119
 31
0.0
  0
LINE
  5
159
330
1F
100
AcDbEntity
  8
LAY-10
  6
CONTINUOUS
 62
     7
100
AcDbLine
 10
1595.0
 20
770.0522259485925
 30
0.0
 11
1595.0
 21
769.5522259485929
 31
0.0
  0
CIRCLE
  5
15A
330
1F
100
AcDbEntity
  8
LAY-10
  6
CONTINUOUS
 62
     7
100
AcDbCircle
 10
1250.0
 20
1900.0
 30
0.0
 40
556.5
  0
LINE
  5
15B
330
1F
100
AcDbEntity
  8
LAY-10
  6
CONTINUOUS
 62
     7
100
AcDbLine
 10
1809.0
 20
786.0522259485925
 30
0.0
 11
1830.000000000001
 21
786.0522259485925
 31
0.0
  0
LINE
  5
15C
330
1F
100
AcDbEntity
  8
LAY-10
  6
CONTINUOUS
 62
     7
100
AcDbLine
 10
1796.000000000001
 20
768.0522259485925
 30
0.0
 11
1809.0
 21
768.0522259485925
 31
0.0
  0
LINE
  5
15D
330
1F
100
AcDbEntity
  8
LAY-10
  6
CONTINUOUS
 62
     7
100
AcDbLine
 10
1771.037171242252
 20
726.0522259485926
 30
0.0
 11
1805.000000000001
 21
726.0522259485926
 31
0.0
  0
TEXT
  5
15E
330
1F
100
AcDbEntity
  8
LAY-10
  6
CONTINUOUS
 62
     7
100
AcDbText
 10
1197.293197639321
 20
2413.278855571233
 30
0.0
 40
14.8110244
  1
Ｏ
 50
5.999999999999956
 41
1.2
  7
EXCADSTD
100
AcDbText
  0
TEXT
  5
15F
330
1F
100
AcDbEntity
  8
LAY-10
  6
CONTINUOUS
 62
     7
100
AcDbText
 10
1209.874086689258
 20
2414.699929046704
 30
0.0
 40
14.8110244
  1
Ｐ
 50
4.000000000000048
 41
1.2
  7
EXCADSTD
100
AcDbText
  0
TEXT
  5
160
330
1F
100
AcDbEntity
  8
LAY-10
  6
CONTINUOUS
 62
     7
100
AcDbText
 10
1221.79570915522
 20
2415.545169332424
 30
0.0
 40
14.8110244
  1
Ｅ
 50
3.000000000000006
 41
1.2
  7
EXCADSTD
100
AcDbText
  0
TEXT
  5
161
330
1F
100
AcDbEntity
  8
LAY-10
  6
CONTINUOUS
 62
     7
100
AcDbText
 10
1233.6
 20
2416.7433077
 30
0.0
 40
14.8110244
  1
Ｎ
 41
1.2
  7
EXCADSTD
100
AcDbText
  0
LINE
  5
162
330
1F
100
AcDbEntity
  8
LAY-10
  6
CONTINUOUS
 62
     7
100
AcDbLine
 10
1263.519298898658
 20
2419.599303346459
 30
0.0
 11
1263.623970811144
 21
2421.596562415968
 31
0.0
  0
LINE
  5
163
330
1F
100
AcDbEntity
  8
LAY-10
  6
CONTINUOUS
 62
     7
100
AcDbLine
 10
1251.745088306575
 20
2424.221852960393
 30
0.0
 11
1263.937986548601
 21
2427.588339624496
 31
0.0
  0
LINE
  5
164
330
1F
100
AcDbEntity
  8
LAY-10
  6
CONTINUOUS
 62
     7
100
AcDbLine
 10
1251.745088306575
 20
2424.221852960393
 30
0.0
 11
1263.519298898658
 21
2419.599303346459
 31
0.0
  0
LINE
  5
165
330
1F
100
AcDbEntity
  8
LAY-10
  6
CONTINUOUS
 62
     7
100
AcDbLine
 10
1263.833314636116
 20
2425.591080554987
 30
0.0
 11
1276.815498587925
 21
2424.910713123828
 31
0.0
  0
LINE
  5
166
330
1F
100
AcDbEntity
  8
LAY-10
  6
CONTINUOUS
 62
     7
100
AcDbLine
 10
1263.623970811144
 20
2421.596562415968
 30
0.0
 11
1276.606154762953
 21
2420.91619498481
 31
0.0
  0
LINE
  5
167
330
1F
100
AcDbEntity
  8
LAY-10
  6
CONTINUOUS
 62
     7
100
AcDbLine
 10
1276.815498587925
 20
2424.910713123828
 30
0.0
 11
1279.916059104675
 21
2426.750964324609
 31
0.0
  0
LINE
  5
168
330
1F
100
AcDbEntity
  8
LAY-10
  6
CONTINUOUS
 62
     7
100
AcDbLine
 10
1276.606154762953
 20
2420.91619498481
 30
0.0
 11
1279.497371454731
 21
2418.761928046572
 31
0.0
  0
LINE
  5
169
330
1F
100
AcDbEntity
  8
LAY-10
  6
CONTINUOUS
 62
     7
100
AcDbLine
 10
1298.68067644004
 20
2421.762063016974
 30
0.0
 11
1301.885908869275
 21
2425.599573287264
 31
0.0
  0
LINE
  5
16A
330
1F
100
AcDbEntity
  8
LAY-10
  6
CONTINUOUS
 62
     7
100
AcDbLine
 10
1298.68067644004
 20
2421.762063016974
 30
0.0
 11
1301.467221219332
 21
2417.610537009227
 31
0.0
  0
LINE
  5
16B
330
1F
100
AcDbEntity
  8
LAY-10
  6
CONTINUOUS
 62
     7
100
AcDbLine
 10
1279.497371454731
 20
2418.761928046572
 30
0.0
 11
1301.467221219332
 21
2417.610537009227
 31
0.0
  0
LINE
  5
16C
330
1F
100
AcDbEntity
  8
LAY-10
  6
CONTINUOUS
 62
     7
100
AcDbLine
 10
1279.916059104675
 20
2426.750964324609
 30
0.0
 11
1301.885908869275
 21
2425.599573287264
 31
0.0
  0
LINE
  5
16D
330
1F
100
AcDbEntity
  8
LAY-10
  6
CONTINUOUS
 62
     7
100
AcDbLine
 10
1263.833314636116
 20
2425.591080554987
 30
0.0
 11
1263.937986548601
 21
2427.588339624496
 31
0.0
  0
TEXT
  5
16E
330
1F
100
AcDbEntity
  8
LAY-10
  6
CONTINUOUS
 62
     7
100
AcDbText
 10
844.7715766384727
 20
1549.584001921188
 30
0.0
 40
23.385828
  1
Ｐ
 50
310.0
 41
1.2
  7
EXCADSTD
100
AcDbText
  0
TEXT
  5
16F
330
1F
100
AcDbEntity
  8
LAY-10
  6
CONTINUOUS
 62
     7
100
AcDbText
 10
1238.400000000001
 20
1362.915749
 30
0.0
 40
23.385828
  1
Ｆ
 41
1.2
  7
EXCADSTD
100
AcDbText
  0
TEXT
  5
170
330
1F
100
AcDbEntity
  8
LAY-10
  6
CONTINUOUS
 62
     7
100
AcDbText
 10
1260.629054159222
 20
1363.632750843724
 30
0.0
 40
23.385828
  1
Ｏ
 50
2.000000000000024
 41
1.2
  7
EXCADSTD
100
AcDbText
  0
TEXT
  5
171
330
1F
100
AcDbEntity
  8
LAY-10
  6
CONTINUOUS
 62
     7
100
AcDbText
 10
1285.736327111604
 20
1364.898601333057
 30
0.0
 40
23.385828
  1
Ｕ
 50
3.999999999999989
 41
1.2
  7
EXCADSTD
100
AcDbText
  0
TEXT
  5
172
330
1F
100
AcDbEntity
  8
LAY-10
  6
CONTINUOUS
 62
     7
100
AcDbText
 10
1311.493581647326
 20
1366.999411939282
 30
0.0
 40
23.385828
  1
Ｎ
 50
8.000000000000037
 41
1.2
  7
EXCADSTD
100
AcDbText
  0
TEXT
  5
173
330
1F
100
AcDbEntity
  8
LAY-10
  6
CONTINUOUS
 62
     7
100
AcDbText
 10
1335.705178958612
 20
1370.378940166123
 30
0.0
 40
23.385828
  1
Ｄ
 50
10.0
 41
1.2
  7
EXCADSTD
100
AcDbText
  0
TEXT
  5
174
330
1F
100
AcDbEntity
  8
LAY-10
  6
CONTINUOUS
 62
     7
100
AcDbText
 10
1359.594727745379
 20
1374.521364679362
 30
0.0
 40
23.385828
  1
Ｒ
 50
12.00000000000003
 41
1.2
  7
EXCADSTD
100
AcDbText
  0
TEXT
  5
175
330
1F
100
AcDbEntity
  8
LAY-10
  6
CONTINUOUS
 62
     7
100
AcDbText
 10
1381.087275047687
 20
1379.614918036872
 30
0.0
 40
23.385828
  1
Ｙ
 50
14.99999999999998
 41
1.2
  7
EXCADSTD
100
AcDbText
  0
TEXT
  5
176
330
1F
100
AcDbEntity
  8
LAY-10
  6
CONTINUOUS
 62
     7
100
AcDbText
 10
1407.115622747323
 20
1387.418857705535
 30
0.0
 40
23.385828
  1
Ｃ
 50
17.99999999999998
 41
1.2
  7
EXCADSTD
100
AcDbText
  0
TEXT
  5
177
330
1F
100
AcDbEntity
  8
LAY-10
  6
CONTINUOUS
 62
     7
100
AcDbText
 10
1427.258706568787
 20
1393.870335862931
 30
0.0
 40
23.385828
  1
Ｏ
 50
20.00000000000001
 41
1.2
  7
EXCADSTD
100
AcDbText
  0
TEXT
  5
178
330
1F
100
AcDbEntity
  8
LAY-10
  6
CONTINUOUS
 62
     7
100
AcDbText
 10
1446.612503299592
 20
1401.77102044692
 30
0.0
 40
23.385828
  1
.,
 50
24.99999999999998
 41
0.5223066666666667
  7
EXCADSTD
100
AcDbText
  0
TEXT
  5
179
330
1F
100
AcDbEntity
  8
LAY-10
  6
CONTINUOUS
 62
     7
100
AcDbText
 10
1463.159884500882
 20
1407.473437158718
 30
0.0
 40
23.385828
  1
Ｌ
 50
24.99999999999998
 41
1.2
  7
EXCADSTD
100
AcDbText
  0
TEXT
  5
17A
330
1F
100
AcDbEntity
  8
LAY-10
  6
CONTINUOUS
 62
     7
100
AcDbText
 10
1482.563111180636
 20
1416.042083165135
 30
0.0
 40
23.385828
  1
Ｔ
 50
27.0
 41
1.2
  7
EXCADSTD
100
AcDbText
  0
TEXT
  5
17B
330
1F
100
AcDbEntity
  8
LAY-10
  6
CONTINUOUS
 62
     7
100
AcDbText
 10
1501.091936822098
 20
1425.116782455862
 30
0.0
 40
23.385828
  1
Ｄ
 50
30.00000000000001
 41
1.2
  7
EXCADSTD
100
AcDbText
  0
TEXT
  5
17C
330
1F
100
AcDbEntity
  8
LAY-10
  6
CONTINUOUS
 62
     7
100
AcDbText
 10
1516.187381229948
 20
1435.659967411953
 30
0.0
 40
23.385828
  1
.
 50
30.00000000000001
 41
0.56692
  7
EXCADSTD
100
AcDbText
  0
TEXT
  5
17D
330
1F
100
AcDbEntity
  8
LAY-10
  6
CONTINUOUS
 62
     7
100
AcDbText
 10
1530.450858382856
 20
1442.527708080166
 30
0.0
 40
23.385828
  1
Ｄ
 50
31.99999999999998
 41
1.2
  7
EXCADSTD
100
AcDbText
  0
TEXT
  5
17E
330
1F
100
AcDbEntity
  8
LAY-10
  6
CONTINUOUS
 62
     7
100
AcDbText
 10
1547.146287949714
 20
1453.333323881317
 30
0.0
 40
23.385828
  1
１
 50
34.99999999999998
 41
1.2
  7
EXCADSTD
100
AcDbText
  0
TEXT
  5
17F
330
1F
100
AcDbEntity
  8
LAY-10
  6
CONTINUOUS
 62
     7
100
AcDbText
 10
1559.998786229833
 20
1461.858031807644
 30
0.0
 40
23.385828
  1
０
 50
37.00000000000001
 41
1.2
  7
EXCADSTD
100
AcDbText
  0
TEXT
  5
180
330
1F
100
AcDbEntity
  8
LAY-10
  6
CONTINUOUS
 62
     7
100
AcDbText
 10
1574.430478830062
 20
1472.221700779218
 30
0.0
 40
23.385828
  1
０
 50
40.00000000000001
 41
1.2
  7
EXCADSTD
100
AcDbText
  0
TEXT
  5
181
330
1F
100
AcDbEntity
  8
LAY-10
  6
CONTINUOUS
 62
     7
100
AcDbText
 10
1587.70149831013
 20
1482.30054751968
 30
0.0
 40
23.385828
  1
０
 50
42.00000000000004
 41
1.2
  7
EXCADSTD
100
AcDbText
  0
TEXT
  5
182
330
1F
100
AcDbEntity
  8
LAY-10
  6
CONTINUOUS
 62
     7
100
AcDbText
 10
1616.89597055649
 20
1507.941792807101
 30
0.0
 40
23.385828
  1
Ｆ
 50
44.99999999999998
 41
1.2
  7
EXCADSTD
100
AcDbText
  0
TEXT
  5
183
330
1F
100
AcDbEntity
  8
LAY-10
  6
CONTINUOUS
 62
     7
100
AcDbText
 10
1632.993074979317
 20
1524.38181496595
 30
0.0
 40
23.385828
  1
Ｃ
 50
47.00000000000001
 41
1.2
  7
EXCADSTD
100
AcDbText
  0
TEXT
  5
184
330
1F
100
AcDbEntity
  8
LAY-10
  6
CONTINUOUS
 62
     7
100
AcDbText
 10
1042.014384493415
 20
1405.851903435198
 30
0.0
 40
23.385828
  1
Ｆ
 50
337.0000000000003
 41
1.2
  7
EXCADSTD
100
AcDbText
  0
TEXT
  5
185
330
1F
100
AcDbEntity
  8
LAY-10
  6
CONTINUOUS
 62
     7
100
AcDbText
 10
1062.910232375944
 20
1397.962692592731
 30
0.0
 40
23.385828
  1
Ｕ
 50
340.0000000000001
 41
1.2
  7
EXCADSTD
100
AcDbText
  0
TEXT
  5
186
330
1F
100
AcDbEntity
  8
LAY-10
  6
CONTINUOUS
 62
     7
100
AcDbText
 10
1084.36174359154
 20
1389.600380798082
 30
0.0
 40
23.385828
  1
Ｋ
 50
343.0000000000001
 41
1.2
  7
EXCADSTD
100
AcDbText
  0
TEXT
  5
187
330
1F
100
AcDbEntity
  8
LAY-10
  6
CONTINUOUS
 62
     7
100
AcDbText
 10
1104.73613505988
 20
1383.628914159151
 30
0.0
 40
23.385828
  1
Ｕ
 50
345.0000000000001
 41
1.2
  7
EXCADSTD
100
AcDbText
  0
TEXT
  5
188
330
1F
100
AcDbEntity
  8
LAY-10
  6
CONTINUOUS
 62
     7
100
AcDbText
 10
1126.687918555979
 20
1378.235193755723
 30
0.0
 40
23.385828
  1
Ｎ
 50
347.0000000000002
 41
1.2
  7
EXCADSTD
100
AcDbText
  0
TEXT
  5
189
330
1F
100
AcDbEntity
  8
LAY-10
  6
CONTINUOUS
 62
     7
100
AcDbText
 10
1146.833580257885
 20
1373.179991419548
 30
0.0
 40
23.385828
  1
Ｉ
 50
350.0000000000003
 41
1.2
  7
EXCADSTD
100
AcDbText
  0
TEXT
  5
18A
330
1F
100
AcDbEntity
  8
LAY-10
  6
CONTINUOUS
 62
     7
100
AcDbText
 10
1166.974053650951
 20
1369.791601905556
 30
0.0
 40
23.385828
  1
Ｓ
 50
352.0
 41
1.2
  7
EXCADSTD
100
AcDbText
  0
TEXT
  5
18B
330
1F
100
AcDbEntity
  8
LAY-10
  6
CONTINUOUS
 62
     7
100
AcDbText
 10
1190.954770386753
 20
1366.583050774529
 30
0.0
 40
23.385828
  1
Ｈ
 50
355.0
 41
1.2
  7
EXCADSTD
100
AcDbText
  0
TEXT
  5
18C
330
1F
100
AcDbEntity
  8
LAY-10
  6
CONTINUOUS
 62
     7
100
AcDbText
 10
1211.529272907306
 20
1364.174306247113
 30
0.0
 40
23.385828
  1
Ｉ
 50
358.0000000000001
 41
1.2
  7
EXCADSTD
100
AcDbText
  0
TEXT
  5
18D
330
1F
100
AcDbEntity
  8
LAY-10
  6
CONTINUOUS
 62
     7
100
AcDbText
 10
859.745911352737
 20
1532.470532674585
 30
0.0
 40
23.385828
  1
Ａ
 50
313.0
 41
1.2
  7
EXCADSTD
100
AcDbText
  0
TEXT
  5
18E
330
1F
100
AcDbEntity
  8
LAY-10
  6
CONTINUOUS
 62
     7
100
AcDbText
 10
877.1355482230506
 20
1514.5203245339
 30
0.0
 40
23.385828
  1
Ｔ
 50
315.0
 41
1.2
  7
EXCADSTD
100
AcDbText
  0
TEXT
  5
18F
330
1F
100
AcDbEntity
  8
LAY-10
  6
CONTINUOUS
 62
     7
100
AcDbText
 10
897.6809925273394
 20
1495.63285186264
 30
0.0
 40
23.385828
  1
Ｅ
 50
318.0000000000001
 41
1.2
  7
EXCADSTD
100
AcDbText
  0
TEXT
  5
190
330
1F
100
AcDbEntity
  8
LAY-10
  6
CONTINUOUS
 62
     7
100
AcDbText
 10
920.1279467088002
 20
1477.896376531611
 30
0.0
 40
23.385828
  1
Ｎ
 50
320.0000000000002
 41
1.2
  7
EXCADSTD
100
AcDbText
  0
TEXT
  5
191
330
1F
100
AcDbEntity
  8
LAY-10
  6
CONTINUOUS
 62
     7
100
AcDbText
 10
941.6017033992568
 20
1461.265867630157
 30
0.0
 40
23.385828
  1
Ｔ
 50
327.0000000000001
 41
1.2
  7
EXCADSTD
100
AcDbText
  0
LINE
  5
192
330
1F
100
AcDbEntity
  8
LAY-10
  6
CONTINUOUS
 62
     7
100
AcDbLine
 10
1023.100961894324
 20
1426.730900235344
 30
0.0
 11
1000.100961894324
 21
1426.730900235344
 31
0.0
  0
LINE
  5
193
330
1F
100
AcDbEntity
  8
LAY-10
  6
CONTINUOUS
 62
     7
100
AcDbLine
 10
988.6009618943237
 20
1446.649484522386
 30
0.0
 11
1011.600961894324
 21
1446.649484522386
 31
0.0
  0
LINE
  5
194
330
1F
100
AcDbEntity
  8
LAY-10
  6
CONTINUOUS
 62
     7
100
AcDbLine
 10
1023.100961894324
 20
1426.730900235344
 30
0.0
 11
1011.600961894324
 21
1446.649484522386
 31
0.0
  0
LINE
  5
195
330
1F
100
AcDbEntity
  8
LAY-10
  6
CONTINUOUS
 62
     7
100
AcDbLine
 10
988.6009618943237
 20
1446.649484522386
 30
0.0
 11
1000.100961894324
 21
1426.730900235344
 31
0.0
  0
TEXT
  5
196
330
1F
100
AcDbEntity
  8
LAY-10
  6
CONTINUOUS
 62
     7
100
AcDbText
 10
993.2786197026949
 20
1436.914256932822
 30
0.0
 40
11.692914
  1
ＳＦ
 50
330.0
 41
0.9583333333333334
  7
EXCADSTD
100
AcDbText
  0
ARC
  5
197
330
1F
100
AcDbEntity
  8
LAY-10
  6
CONTINUOUS
 62
     7
100
AcDbCircle
 10
1829.276291746024
 20
767.6551187355085
 30
0.0
 40
3.000000000000001
100
AcDbArc
 50
300.0000000000043
 51
7.125016348902289
  0
ARC
  5
198
330
1F
100
AcDbEntity
  8
LAY-10
  6
CONTINUOUS
 62
     7
100
AcDbCircle
 10
670.7237082539771
 20
767.6551187355085
 30
0.0
 40
3.000000000000001
100
AcDbArc
 50
172.8749836510974
 51
239.9999999999994
  0
LINE
  5
199
330
1F
100
AcDbEntity
  8
LAY-10
  6
CONTINUOUS
 62
     7
100
AcDbLine
 10
736.7500000000005
 20
755.0522259485924
 30
0.0
 11
736.7500000000005
 21
740.0522259485922
 31
0.0
  0
LINE
  5
19A
330
1F
100
AcDbEntity
  8
LAY-10
  6
CONTINUOUS
 62
     7
100
AcDbLine
 10
743.2500000000006
 20
740.0522259485922
 30
0.0
 11
743.2500000000006
 21
755.0522259485924
 31
0.0
  0
LINE
  5
19B
330
1F
100
AcDbEntity
  8
LAY-10
  6
CONTINUOUS
 62
     7
100
AcDbLine
 10
743.2500000000006
 20
740.0522259485922
 30
0.0
 11
736.7500000000005
 21
740.0522259485922
 31
0.0
  0
LINE
  5
19C
330
1F
100
AcDbEntity
  8
LAY-10
  6
CONTINUOUS
 62
     7
100
AcDbLine
 10
732.5000000000007
 20
755.0522259485924
 30
0.0
 11
732.5000000000007
 21
760.0522259485924
 31
0.0
  0
LINE
  5
19D
330
1F
100
AcDbEntity
  8
LAY-10
  6
CONTINUOUS
 62
     7
100
AcDbLine
 10
747.5000000000007
 20
755.0522259485924
 30
0.0
 11
747.5000000000007
 21
760.0522259485924
 31
0.0
  0
LINE
  5
19E
330
1F
100
AcDbEntity
  8
LAY-10
  6
CONTINUOUS
 62
     7
100
AcDbLine
 10
732.5000000000007
 20
760.0522259485924
 30
0.0
 11
737.1000000000007
 21
760.0522259485924
 31
0.0
  0
LINE
  5
19F
330
1F
100
AcDbEntity
  8
LAY-10
  6
CONTINUOUS
 62
     7
100
AcDbLine
 10
737.1000000000007
 20
760.0522259485924
 30
0.0
 11
737.1000000000007
 21
761.5522259485925
 31
0.0
  0
ARC
  5
1A0
330
1F
100
AcDbEntity
  8
LAY-10
  6
CONTINUOUS
 62
     7
100
AcDbCircle
 10
748.6984741038956
 20
761.4377012084702
 30
0.0
 40
7.618591302114262
100
AcDbArc
 50
92.00525834805002
 51
150.0087324099651
  0
LINE
  5
1A1
330
1F
100
AcDbEntity
  8
LAY-10
  6
CONTINUOUS
 62
     7
100
AcDbLine
 10
744.1000000000008
 20
760.0522259485924
 30
0.0
 11
747.5000000000007
 21
760.0522259485924
 31
0.0
  0
LINE
  5
1A2
330
1F
100
AcDbEntity
  8
LAY-10
  6
CONTINUOUS
 62
     7
100
AcDbLine
 10
742.1000000000007
 20
762.0522259485922
 30
0.0
 11
742.1000000000007
 21
765.2459912348925
 31
0.0
  0
ARC
  5
1A3
330
1F
100
AcDbEntity
  8
LAY-10
  6
CONTINUOUS
 62
     7
100
AcDbCircle
 10
744.1000000000008
 20
762.0522259485922
 30
0.0
 40
2.0
100
AcDbArc
 50
180.0
 51
270.0
  0
ARC
  5
1A4
330
1F
100
AcDbEntity
  8
LAY-10
  6
CONTINUOUS
 62
     7
100
AcDbCircle
 10
746.7770645666612
 20
760.5066721036661
 30
0.0
 40
9.733383865334662
100
AcDbArc
 50
101.2742871386664
 51
173.8334258849709
  0
LINE
  5
1A5
330
1F
100
AcDbEntity
  8
LAY-10
  6
CONTINUOUS
 62
     7
100
AcDbLine
 10
748.6800000000147
 20
770.052225948672
 30
0.0
 11
748.4318903296352
 21
769.0516270367311
 31
0.0
  0
LINE
  5
1A6
330
1F
100
AcDbEntity
  8
LAY-10
  6
CONTINUOUS
 62
     7
100
AcDbLine
 10
748.0000000000007
 20
755.0522259485924
 30
0.0
 11
743.2500000000006
 21
755.0522259485924
 31
0.0
  0
LINE
  5
1A7
330
1F
100
AcDbEntity
  8
LAY-10
  6
CONTINUOUS
 62
     7
100
AcDbLine
 10
736.7500000000005
 20
755.0522259485924
 30
0.0
 11
732.0000000000007
 21
755.0522259485924
 31
0.0
  0
LINE
  5
1A8
330
1F
100
AcDbEntity
  8
LAY-10
  6
CONTINUOUS
 62
     7
100
AcDbLine
 10
732.4999999999994
 20
756.6900944152292
 30
0.0
 11
735.8621315333626
 21
760.0522259485924
 31
0.0
  0
LINE
  5
1A9
330
1F
100
AcDbEntity
  8
LAY-10
  6
CONTINUOUS
 62
     7
100
AcDbLine
 10
736.7499999999975
 20
752.4548130409888
 30
0.0
 11
744.3474129075946
 21
760.0522259485857
 31
0.0
  0
LINE
  5
1AA
330
1F
100
AcDbEntity
  8
LAY-10
  6
CONTINUOUS
 62
     7
100
AcDbLine
 10
736.7500000000025
 20
748.2121723538745
 30
0.0
 11
743.2500000000006
 21
754.7121723538726
 31
0.0
  0
LINE
  5
1AB
330
1F
100
AcDbEntity
  8
LAY-10
  6
CONTINUOUS
 62
     7
100
AcDbLine
 10
736.7499999999948
 20
743.9695316667476
 30
0.0
 11
743.2499999999984
 21
750.4695316667511
 31
0.0
  0
LINE
  5
1AC
330
1F
100
AcDbEntity
  8
LAY-10
  6
CONTINUOUS
 62
     7
100
AcDbLine
 10
737.0753349689684
 20
740.0522259486016
 30
0.0
 11
743.2499999999908
 21
746.2268909796242
 31
0.0
  0
LINE
  5
1AD
330
1F
100
AcDbEntity
  8
LAY-10
  6
CONTINUOUS
 62
     7
100
AcDbLine
 10
741.3179756560826
 20
740.0522259485967
 30
0.0
 11
743.2499999999957
 21
741.9842502925098
 31
0.0
  0
LINE
  5
1AE
330
1F
100
AcDbEntity
  8
LAY-10
  6
CONTINUOUS
 62
     7
100
AcDbLine
 10
737.1000000000007
 20
761.2900944152304
 30
0.0
 11
745.8621315333625
 21
770.0522259485924
 31
0.0
  0
LINE
  5
1AF
330
1F
100
AcDbEntity
  8
LAY-10
  6
CONTINUOUS
 62
     7
100
AcDbLine
 10
743.5900535947204
 20
755.0522259485924
 30
0.0
 11
747.5000000000007
 21
758.9621723538725
 31
0.0
  0
LINE
  5
1B0
330
1F
100
AcDbEntity
  8
LAY-10
  6
CONTINUOUS
 62
     7
100
AcDbLine
 10
735.1047722204818
 20
755.0522259485924
 30
0.0
 11
742.1000000000007
 21
762.0474537281111
 31
0.0
  0
LINE
  5
1B1
330
1F
100
AcDbEntity
  8
LAY-10
  6
CONTINUOUS
 62
     7
100
AcDbLine
 10
1763.25
 20
755.0522259485924
 30
0.0
 11
1763.25
 21
740.0522259485922
 31
0.0
  0
LINE
  5
1B2
330
1F
100
AcDbEntity
  8
LAY-10
  6
CONTINUOUS
 62
     7
100
AcDbLine
 10
1756.750000000001
 20
740.0522259485922
 30
0.0
 11
1756.750000000001
 21
755.0522259485924
 31
0.0
  0
LINE
  5
1B3
330
1F
100
AcDbEntity
  8
LAY-10
  6
CONTINUOUS
 62
     7
100
AcDbLine
 10
1756.750000000001
 20
740.0522259485922
 30
0.0
 11
1763.25
 21
740.0522259485922
 31
0.0
  0
LINE
  5
1B4
330
1F
100
AcDbEntity
  8
LAY-10
  6
CONTINUOUS
 62
     7
100
AcDbLine
 10
1767.5
 20
755.0522259485924
 30
0.0
 11
1767.5
 21
760.0522259485924
 31
0.0
  0
LINE
  5
1B5
330
1F
100
AcDbEntity
  8
LAY-10
  6
CONTINUOUS
 62
     7
100
AcDbLine
 10
1752.5
 20
755.0522259485924
 30
0.0
 11
1752.5
 21
760.0522259485924
 31
0.0
  0
LINE
  5
1B6
330
1F
100
AcDbEntity
  8
LAY-10
  6
CONTINUOUS
 62
     7
100
AcDbLine
 10
1767.5
 20
760.0522259485924
 30
0.0
 11
1762.9
 21
760.0522259485924
 31
0.0
  0
LINE
  5
1B7
330
1F
100
AcDbEntity
  8
LAY-10
  6
CONTINUOUS
 62
     7
100
AcDbLine
 10
1762.9
 20
760.0522259485924
 30
0.0
 11
1762.9
 21
761.5522259485925
 31
0.0
  0
ARC
  5
1B8
330
1F
100
AcDbEntity
  8
LAY-10
  6
CONTINUOUS
 62
     7
100
AcDbCircle
 10
1751.301525896105
 20
761.4377012084702
 30
0.0
 40
7.618591302114262
100
AcDbArc
 50
29.99126759003364
 51
87.99474165194738
  0
LINE
  5
1B9
330
1F
100
AcDbEntity
  8
LAY-10
  6
CONTINUOUS
 62
     7
100
AcDbLine
 10
1755.9
 20
760.0522259485924
 30
0.0
 11
1752.5
 21
760.0522259485924
 31
0.0
  0
LINE
  5
1BA
330
1F
100
AcDbEntity
  8
LAY-10
  6
CONTINUOUS
 62
     7
100
AcDbLine
 10
1757.9
 20
762.0522259485922
 30
0.0
 11
1757.9
 21
765.2459912348925
 31
0.0
  0
ARC
  5
1BB
330
1F
100
AcDbEntity
  8
LAY-10
  6
CONTINUOUS
 62
     7
100
AcDbCircle
 10
1755.9
 20
762.0522259485922
 30
0.0
 40
2.0
100
AcDbArc
 50
270.0
 51
0.0
  0
ARC
  5
1BC
330
1F
100
AcDbEntity
  8
LAY-10
  6
CONTINUOUS
 62
     7
100
AcDbCircle
 10
1753.22293543334
 20
760.5066721036661
 30
0.0
 40
9.733383865334662
100
AcDbArc
 50
6.166574115029138
 51
78.72571286133358
  0
LINE
  5
1BD
330
1F
100
AcDbEntity
  8
LAY-10
  6
CONTINUOUS
 62
     7
100
AcDbLine
 10
1751.319999999986
 20
770.052225948672
 30
0.0
 11
1751.568109670366
 21
769.0516270367311
 31
0.0
  0
LINE
  5
1BE
330
1F
100
AcDbEntity
  8
LAY-10
  6
CONTINUOUS
 62
     7
100
AcDbLine
 10
1752.0
 20
755.0522259485924
 30
0.0
 11
1756.750000000001
 21
755.0522259485924
 31
0.0
  0
LINE
  5
1BF
330
1F
100
AcDbEntity
  8
LAY-10
  6
CONTINUOUS
 62
     7
100
AcDbLine
 10
1767.500000000002
 20
756.6900944152292
 30
0.0
 11
1764.137868466639
 21
760.0522259485924
 31
0.0
  0
LINE
  5
1C0
330
1F
100
AcDbEntity
  8
LAY-10
  6
CONTINUOUS
 62
     7
100
AcDbLine
 10
1763.250000000003
 20
752.4548130409888
 30
0.0
 11
1755.652587092407
 21
760.0522259485857
 31
0.0
  0
LINE
  5
1C1
330
1F
100
AcDbEntity
  8
LAY-10
  6
CONTINUOUS
 62
     7
100
AcDbLine
 10
1763.249999999999
 20
748.2121723538745
 30
0.0
 11
1756.750000000001
 21
754.7121723538726
 31
0.0
  0
LINE
  5
1C2
330
1F
100
AcDbEntity
  8
LAY-10
  6
CONTINUOUS
 62
     7
100
AcDbLine
 10
1763.250000000006
 20
743.9695316667476
 30
0.0
 11
1756.750000000003
 21
750.4695316667511
 31
0.0
  0
LINE
  5
1C3
330
1F
100
AcDbEntity
  8
LAY-10
  6
CONTINUOUS
 62
     7
100
AcDbLine
 10
1762.924665031033
 20
740.0522259486016
 30
0.0
 11
1756.75000000001
 21
746.2268909796242
 31
0.0
  0
LINE
  5
1C4
330
1F
100
AcDbEntity
  8
LAY-10
  6
CONTINUOUS
 62
     7
100
AcDbLine
 10
1758.682024343918
 20
740.0522259485967
 30
0.0
 11
1756.750000000005
 21
741.9842502925098
 31
0.0
  0
LINE
  5
1C5
330
1F
100
AcDbEntity
  8
LAY-10
  6
CONTINUOUS
 62
     7
100
AcDbLine
 10
1762.9
 20
761.2900944152304
 30
0.0
 11
1754.137868466639
 21
770.0522259485924
 31
0.0
  0
LINE
  5
1C6
330
1F
100
AcDbEntity
  8
LAY-10
  6
CONTINUOUS
 62
     7
100
AcDbLine
 10
1756.40994640528
 20
755.0522259485924
 30
0.0
 11
1752.5
 21
758.9621723538725
 31
0.0
  0
LINE
  5
1C7
330
1F
100
AcDbEntity
  8
LAY-10
  6
CONTINUOUS
 62
     7
100
AcDbLine
 10
1764.895227779519
 20
755.0522259485924
 30
0.0
 11
1757.9
 21
762.0474537281111
 31
0.0
  0
LINE
  5
1C8
330
1F
100
AcDbEntity
  8
LAY-10
  6
CONTINUOUS
 62
     7
100
AcDbLine
 10
1756.750000000001
 20
755.0522259485925
 30
0.0
 11
1529.363801839603
 21
755.0522259485925
 31
0.0
  0
LINE
  5
1C9
330
1F
100
AcDbEntity
  8
LAY-10
  6
CONTINUOUS
 62
     7
100
AcDbLine
 10
905.0000000000006
 20
770.0522259485925
 30
0.0
 11
905.0000000000006
 21
769.5522259485929
 31
0.0
  0
LINE
  5
1CA
330
1F
100
AcDbEntity
  8
LAY-10
  6
CONTINUOUS
 62
     7
100
AcDbLine
 10
769.5000000000006
 20
770.0522259485925
 30
0.0
 11
905.0000000000006
 21
770.0522259485925
 31
0.0
  0
LINE
  5
1CB
330
1F
100
AcDbEntity
  8
LAY-10
  6
CONTINUOUS
 62
     7
100
AcDbLine
 10
1794.07524940243
 20
746.0522259485926
 30
0.0
 11
1796.000000000001
 21
768.0522259485925
 31
0.0
  0
LINE
  5
1CC
330
1F
100
AcDbEntity
  8
LAY-10
  6
CONTINUOUS
 62
     7
100
AcDbLine
 10
1354.5
 20
1886.0
 30
0.0
 11
1420.5
 21
1886.0
 31
0.0
  0
LINE
  5
1CD
330
1F
100
AcDbEntity
  8
LAY-10
  6
CONTINUOUS
 62
     7
100
AcDbLine
 10
1420.5
 20
1886.0
 30
0.0
 11
1420.5
 21
1914.0
 31
0.0
  0
LINE
  5
1CE
330
1F
100
AcDbEntity
  8
LAY-10
  6
CONTINUOUS
 62
     7
100
AcDbLine
 10
1420.5
 20
1914.0
 30
0.0
 11
1354.5
 21
1914.0
 31
0.0
  0
LINE
  5
1CF
330
1F
100
AcDbEntity
  8
LAY-10
  6
CONTINUOUS
 62
     7
100
AcDbLine
 10
1354.5
 20
1886.0
 30
0.0
 11
1354.5
 21
1914.0
 31
0.0
  0
LINE
  5
1D0
330
1F
100
AcDbEntity
  8
LAY-10
  6
CONTINUOUS
 62
     7
100
AcDbLine
 10
1415.5
 20
1914.0
 30
0.0
 11
1415.5
 21
1886.0
 31
0.0
  0
LINE
  5
1D1
330
1F
100
AcDbEntity
  8
LAY-10
  6
CONTINUOUS
 62
     7
100
AcDbLine
 10
1392.5
 20
1914.0
 30
0.0
 11
1392.5
 21
1886.0
 31
0.0
  0
LINE
  5
1D2
330
1F
100
AcDbEntity
  8
LAY-10
  6
CONTINUOUS
 62
     7
100
AcDbLine
 10
1382.5
 20
1914.0
 30
0.0
 11
1382.5
 21
1886.0
 31
0.0
  0
LINE
  5
1D3
330
1F
100
AcDbEntity
  8
LAY-10
  6
CONTINUOUS
 62
     7
100
AcDbLine
 10
1359.500000000001
 20
1914.0
 30
0.0
 11
1359.500000000001
 21
1886.0
 31
0.0
  0
ARC
  5
1D4
330
1F
100
AcDbEntity
  8
LAY-10
  6
CONTINUOUS
 62
     7
100
AcDbCircle
 10
1250.0
 20
1900.0
 30
0.0
 40
268.5000000000001
100
AcDbArc
 50
0.0
 51
90.0
  0
ARC
  5
1D5
330
1F
100
AcDbEntity
  8
LAY-10
  6
CONTINUOUS
 62
     7
100
AcDbCircle
 10
1250.0
 20
1900.0
 30
0.0
 40
270.0
100
AcDbArc
 50
0.0
 51
90.0
  0
ARC
  5
1D6
330
1F
100
AcDbEntity
  8
LAY-10
  6
CONTINUOUS
 62
     7
100
AcDbCircle
 10
1250.0
 20
1900.0
 30
0.0
 40
268.5000000000001
100
AcDbArc
 50
180.0
 51
270.0
  0
ARC
  5
1D7
330
1F
100
AcDbEntity
  8
LAY-10
  6
CONTINUOUS
 62
     7
100
AcDbCircle
 10
1250.0
 20
1900.0
 30
0.0
 40
270.0
100
AcDbArc
 50
180.0
 51
270.0
  0
ARC
  5
1D8
330
1F
100
AcDbEntity
  8
LAY-10
  6
CONTINUOUS
 62
     7
100
AcDbCircle
 10
1250.0
 20
1900.0
 30
0.0
 40
268.5000000000001
100
AcDbArc
 50
90.0
 51
180.0
  0
ARC
  5
1D9
330
1F
100
AcDbEntity
  8
LAY-10
  6
CONTINUOUS
 62
     7
100
AcDbCircle
 10
1250.0
 20
1900.0
 30
0.0
 40
270.0
100
AcDbArc
 50
90.0
 51
180.0
  0
ARC
  5
1DA
330
1F
100
AcDbEntity
  8
LAY-10
  6
CONTINUOUS
 62
     7
100
AcDbCircle
 10
1250.0
 20
1900.0
 30
0.0
 40
268.5000000000001
100
AcDbArc
 50
270.0
 51
0.0
  0
ARC
  5
1DB
330
1F
100
AcDbEntity
  8
LAY-10
  6
CONTINUOUS
 62
     7
100
AcDbCircle
 10
1250.0
 20
1900.0
 30
0.0
 40
270.0
100
AcDbArc
 50
270.0
 51
0.0
  0
LINE
  5
1DC
330
1F
100
AcDbEntity
  8
LAY-10
  6
CONTINUOUS
 62
     7
100
AcDbLine
 10
1145.5
 20
1886.0
 30
0.0
 11
1079.5
 21
1886.0
 31
0.0
  0
LINE
  5
1DD
330
1F
100
AcDbEntity
  8
LAY-10
  6
CONTINUOUS
 62
     7
100
AcDbLine
 10
1079.5
 20
1886.0
 30
0.0
 11
1079.5
 21
1914.0
 31
0.0
  0
LINE
  5
1DE
330
1F
100
AcDbEntity
  8
LAY-10
  6
CONTINUOUS
 62
     7
100
AcDbLine
 10
1079.5
 20
1914.0
 30
0.0
 11
1145.5
 21
1914.0
 31
0.0
  0
LINE
  5
1DF
330
1F
100
AcDbEntity
  8
LAY-10
  6
CONTINUOUS
 62
     7
100
AcDbLine
 10
1145.5
 20
1886.0
 30
0.0
 11
1145.5
 21
1914.0
 31
0.0
  0
LINE
  5
1E0
330
1F
100
AcDbEntity
  8
LAY-10
  6
CONTINUOUS
 62
     7
100
AcDbLine
 10
1084.5
 20
1914.0
 30
0.0
 11
1084.5
 21
1886.0
 31
0.0
  0
LINE
  5
1E1
330
1F
100
AcDbEntity
  8
LAY-10
  6
CONTINUOUS
 62
     7
100
AcDbLine
 10
1107.5
 20
1914.0
 30
0.0
 11
1107.5
 21
1886.0
 31
0.0
  0
LINE
  5
1E2
330
1F
100
AcDbEntity
  8
LAY-10
  6
CONTINUOUS
 62
     7
100
AcDbLine
 10
1117.5
 20
1914.0
 30
0.0
 11
1117.5
 21
1886.0
 31
0.0
  0
LINE
  5
1E3
330
1F
100
AcDbEntity
  8
LAY-10
  6
CONTINUOUS
 62
     7
100
AcDbLine
 10
1140.5
 20
1914.0
 30
0.0
 11
1140.5
 21
1886.0
 31
0.0
  0
LINE
  5
1E4
330
1F
100
AcDbEntity
  8
LAY-10
  6
CONTINUOUS
 62
     7
100
AcDbLine
 10
1142.9411762584
 20
1993.090454557
 30
0.0
 11
1171.932554287001
 21
2022.081832586
 31
0.0
  0
LINE
  5
1E5
330
1F
100
AcDbEntity
  8
LAY-10
  6
CONTINUOUS
 62
     7
100
AcDbLine
 10
1142.9411762584
 20
1993.090454557
 30
0.0
 11
1154.961991538601
 21
1981.069639277
 31
0.0
  0
LINE
  5
1E6
330
1F
100
AcDbEntity
  8
LAY-10
  6
CONTINUOUS
 62
     7
100
AcDbLine
 10
1154.961991538601
 20
1981.069639277
 30
0.0
 11
1183.9533695672
 21
2010.061017306
 31
0.0
  0
LINE
  5
1E7
330
1F
100
AcDbEntity
  8
LAY-10
  6
CONTINUOUS
 62
     7
100
AcDbLine
 10
1183.9533695672
 20
2010.061017306
 30
0.0
 11
1180.4178356613
 21
2013.596551211
 31
0.0
  0
LINE
  5
1E8
330
1F
100
AcDbEntity
  8
LAY-10
  6
CONTINUOUS
 62
     7
100
AcDbLine
 10
1171.932554287001
 20
2022.081832586
 30
0.0
 11
1175.468088193001
 21
2018.546298680001
 31
0.0
  0
LINE
  5
1E9
330
1F
100
AcDbEntity
  8
LAY-10
  6
CONTINUOUS
 62
     7
100
AcDbLine
 10
1154.961991538601
 20
1988.140707089
 30
0.0
 11
1150.0122440702
 21
1993.090454557
 31
0.0
  0
LINE
  5
1EA
330
1F
100
AcDbEntity
  8
LAY-10
  6
CONTINUOUS
 62
     7
100
AcDbLine
 10
1175.468088193001
 20
2018.546298680001
 30
0.0
 11
1150.0122440702
 21
1993.090454557
 31
0.0
  0
LINE
  5
1EB
330
1F
100
AcDbEntity
  8
LAY-10
  6
CONTINUOUS
 62
     7
100
AcDbLine
 10
1154.961991538601
 20
1988.140707089
 30
0.0
 11
1180.4178356613
 21
2013.596551211
 31
0.0
  0
LINE
  5
1EC
330
1F
100
AcDbEntity
  8
LAY-10
  6
CONTINUOUS
 62
     7
100
AcDbLine
 10
1109.0000507614
 20
1993.090454557
 30
0.0
 11
1137.9914287901
 21
2022.081832586
 31
0.0
  0
LINE
  5
1ED
330
1F
100
AcDbEntity
  8
LAY-10
  6
CONTINUOUS
 62
     7
100
AcDbLine
 10
1109.0000507614
 20
1993.090454557
 30
0.0
 11
1121.0208660416
 21
1981.069639277
 31
0.0
  0
LINE
  5
1EE
330
1F
100
AcDbEntity
  8
LAY-10
  6
CONTINUOUS
 62
     7
100
AcDbLine
 10
1121.0208660416
 20
1981.069639277
 30
0.0
 11
1150.0122440702
 21
2010.061017306
 31
0.0
  0
LINE
  5
1EF
330
1F
100
AcDbEntity
  8
LAY-10
  6
CONTINUOUS
 62
     7
100
AcDbLine
 10
1150.0122440702
 20
2010.061017306
 30
0.0
 11
1146.4767101643
 21
2013.596551211
 31
0.0
  0
LINE
  5
1F0
330
1F
100
AcDbEntity
  8
LAY-10
  6
CONTINUOUS
 62
     7
100
AcDbLine
 10
1137.9914287901
 20
2022.081832586
 30
0.0
 11
1141.526962696001
 21
2018.546298680001
 31
0.0
  0
LINE
  5
1F1
330
1F
100
AcDbEntity
  8
LAY-10
  6
CONTINUOUS
 62
     7
100
AcDbLine
 10
1121.0208660416
 20
1988.140707089
 30
0.0
 11
1116.071118573301
 21
1993.090454557
 31
0.0
  0
LINE
  5
1F2
330
1F
100
AcDbEntity
  8
LAY-10
  6
CONTINUOUS
 62
     7
100
AcDbLine
 10
1141.526962696001
 20
2018.546298680001
 30
0.0
 11
1116.071118573301
 21
1993.090454557
 31
0.0
  0
LINE
  5
1F3
330
1F
100
AcDbEntity
  8
LAY-10
  6
CONTINUOUS
 62
     7
100
AcDbLine
 10
1121.0208660416
 20
1988.140707089
 30
0.0
 11
1146.4767101643
 21
2013.596551211
 31
0.0
  0
LINE
  5
1F4
330
1F
100
AcDbEntity
  8
LAY-10
  6
CONTINUOUS
 62
     7
100
AcDbLine
 10
1075.0589252645
 20
1993.090454557
 30
0.0
 11
1104.0503032931
 21
2022.081832586
 31
0.0
  0
LINE
  5
1F5
330
1F
100
AcDbEntity
  8
LAY-10
  6
CONTINUOUS
 62
     7
100
AcDbLine
 10
1075.0589252645
 20
1993.090454557
 30
0.0
 11
1087.0797405446
 21
1981.069639277
 31
0.0
  0
LINE
  5
1F6
330
1F
100
AcDbEntity
  8
LAY-10
  6
CONTINUOUS
 62
     7
100
AcDbLine
 10
1087.0797405446
 20
1981.069639277
 30
0.0
 11
1116.071118573301
 21
2010.061017306
 31
0.0
  0
LINE
  5
1F7
330
1F
100
AcDbEntity
  8
LAY-10
  6
CONTINUOUS
 62
     7
100
AcDbLine
 10
1116.071118573301
 20
2010.061017306
 30
0.0
 11
1112.5355846674
 21
2013.596551211
 31
0.0
  0
LINE
  5
1F8
330
1F
100
AcDbEntity
  8
LAY-10
  6
CONTINUOUS
 62
     7
100
AcDbLine
 10
1104.0503032931
 20
2022.081832586
 30
0.0
 11
1107.5858371991
 21
2018.546298680001
 31
0.0
  0
LINE
  5
1F9
330
1F
100
AcDbEntity
  8
LAY-10
  6
CONTINUOUS
 62
     7
100
AcDbLine
 10
1087.0797405446
 20
1988.140707089
 30
0.0
 11
1082.1299930763
 21
1993.090454557
 31
0.0
  0
LINE
  5
1FA
330
1F
100
AcDbEntity
  8
LAY-10
  6
CONTINUOUS
 62
     7
100
AcDbLine
 10
1107.5858371991
 20
2018.546298680001
 30
0.0
 11
1082.1299930763
 21
1993.090454557
 31
0.0
  0
LINE
  5
1FB
330
1F
100
AcDbEntity
  8
LAY-10
  6
CONTINUOUS
 62
     7
100
AcDbLine
 10
1087.0797405446
 20
1988.140707089
 30
0.0
 11
1112.5355846674
 21
2013.596551211
 31
0.0
  0
LINE
  5
1FC
330
1F
100
AcDbEntity
  8
LAY-10
  6
CONTINUOUS
 62
     7
100
AcDbLine
 10
1188.9031170355
 20
2015.010764774001
 30
0.0
 11
1159.9117390069
 21
2044.002142802
 31
0.0
  0
LINE
  5
1FD
330
1F
100
AcDbEntity
  8
LAY-10
  6
CONTINUOUS
 62
     7
100
AcDbLine
 10
1188.9031170355
 20
2015.010764774001
 30
0.0
 11
1200.9239323157
 21
2027.031580054
 31
0.0
  0
LINE
  5
1FE
330
1F
100
AcDbEntity
  8
LAY-10
  6
CONTINUOUS
 62
     7
100
AcDbLine
 10
1200.9239323157
 20
2027.031580054
 30
0.0
 11
1171.932554287001
 21
2056.022958083001
 31
0.0
  0
LINE
  5
1FF
330
1F
100
AcDbEntity
  8
LAY-10
  6
CONTINUOUS
 62
     7
100
AcDbLine
 10
1171.932554287001
 20
2056.022958083001
 30
0.0
 11
1168.3970203811
 21
2052.487424177
 31
0.0
  0
LINE
  5
200
330
1F
100
AcDbEntity
  8
LAY-10
  6
CONTINUOUS
 62
     7
100
AcDbLine
 10
1159.9117390069
 20
2044.002142802
 30
0.0
 11
1163.4472729128
 21
2047.537676708
 31
0.0
  0
LINE
  5
201
330
1F
100
AcDbEntity
  8
LAY-10
  6
CONTINUOUS
 62
     7
100
AcDbLine
 10
1193.8528645038
 20
2027.031580054
 30
0.0
 11
1188.9031170355
 21
2022.081832586
 31
0.0
  0
LINE
  5
202
330
1F
100
AcDbEntity
  8
LAY-10
  6
CONTINUOUS
 62
     7
100
AcDbLine
 10
1163.4472729128
 20
2047.537676708
 30
0.0
 11
1188.9031170355
 21
2022.081832586
 31
0.0
  0
LINE
  5
203
330
1F
100
AcDbEntity
  8
LAY-10
  6
CONTINUOUS
 62
     7
100
AcDbLine
 10
1193.8528645038
 20
2027.031580054
 30
0.0
 11
1168.3970203811
 21
2052.487424177
 31
0.0
  0
LINE
  5
204
330
1F
100
AcDbEntity
  8
LAY-10
  6
CONTINUOUS
 62
     7
100
AcDbLine
 10
1154.961991538601
 20
2015.010764774001
 30
0.0
 11
1125.9706135099
 21
2044.002142802
 31
0.0
  0
LINE
  5
205
330
1F
100
AcDbEntity
  8
LAY-10
  6
CONTINUOUS
 62
     7
100
AcDbLine
 10
1154.961991538601
 20
2015.010764774001
 30
0.0
 11
1166.982806818701
 21
2027.031580054
 31
0.0
  0
LINE
  5
206
330
1F
100
AcDbEntity
  8
LAY-10
  6
CONTINUOUS
 62
     7
100
AcDbLine
 10
1166.982806818701
 20
2027.031580054
 30
0.0
 11
1137.9914287901
 21
2056.022958083001
 31
0.0
  0
LINE
  5
207
330
1F
100
AcDbEntity
  8
LAY-10
  6
CONTINUOUS
 62
     7
100
AcDbLine
 10
1137.9914287901
 20
2056.022958083001
 30
0.0
 11
1134.4558948841
 21
2052.487424177
 31
0.0
  0
LINE
  5
208
330
1F
100
AcDbEntity
  8
LAY-10
  6
CONTINUOUS
 62
     7
100
AcDbLine
 10
1125.9706135099
 20
2044.002142802
 30
0.0
 11
1129.506147415801
 21
2047.537676708
 31
0.0
  0
LINE
  5
209
330
1F
100
AcDbEntity
  8
LAY-10
  6
CONTINUOUS
 62
     7
100
AcDbLine
 10
1159.9117390069
 20
2027.031580054
 30
0.0
 11
1154.961991538601
 21
2022.081832586
 31
0.0
  0
LINE
  5
20A
330
1F
100
AcDbEntity
  8
LAY-10
  6
CONTINUOUS
 62
     7
100
AcDbLine
 10
1129.506147415801
 20
2047.537676708
 30
0.0
 11
1154.961991538601
 21
2022.081832586
 31
0.0
  0
LINE
  5
20B
330
1F
100
AcDbEntity
  8
LAY-10
  6
CONTINUOUS
 62
     7
100
AcDbLine
 10
1159.9117390069
 20
2027.031580054
 30
0.0
 11
1134.4558948841
 21
2052.487424177
 31
0.0
  0
LINE
  5
20C
330
1F
100
AcDbEntity
  8
LAY-10
  6
CONTINUOUS
 62
     7
100
AcDbLine
 10
1121.0208660416
 20
2015.010764774001
 30
0.0
 11
1092.029488013
 21
2044.002142802
 31
0.0
  0
LINE
  5
20D
330
1F
100
AcDbEntity
  8
LAY-10
  6
CONTINUOUS
 62
     7
100
AcDbLine
 10
1121.0208660416
 20
2015.010764774001
 30
0.0
 11
1133.041681321801
 21
2027.031580054
 31
0.0
  0
LINE
  5
20E
330
1F
100
AcDbEntity
  8
LAY-10
  6
CONTINUOUS
 62
     7
100
AcDbLine
 10
1133.041681321801
 20
2027.031580054
 30
0.0
 11
1104.0503032931
 21
2056.022958083001
 31
0.0
  0
LINE
  5
20F
330
1F
100
AcDbEntity
  8
LAY-10
  6
CONTINUOUS
 62
     7
100
AcDbLine
 10
1104.0503032931
 20
2056.022958083001
 30
0.0
 11
1100.5147693872
 21
2052.487424177
 31
0.0
  0
LINE
  5
210
330
1F
100
AcDbEntity
  8
LAY-10
  6
CONTINUOUS
 62
     7
100
AcDbLine
 10
1092.029488013
 20
2044.002142802
 30
0.0
 11
1095.5650219189
 21
2047.537676708
 31
0.0
  0
LINE
  5
211
330
1F
100
AcDbEntity
  8
LAY-10
  6
CONTINUOUS
 62
     7
100
AcDbLine
 10
1125.9706135099
 20
2027.031580054
 30
0.0
 11
1121.0208660416
 21
2022.081832586
 31
0.0
  0
LINE
  5
212
330
1F
100
AcDbEntity
  8
LAY-10
  6
CONTINUOUS
 62
     7
100
AcDbLine
 10
1095.5650219189
 20
2047.537676708
 30
0.0
 11
1121.0208660416
 21
2022.081832586
 31
0.0
  0
LINE
  5
213
330
1F
100
AcDbEntity
  8
LAY-10
  6
CONTINUOUS
 62
     7
100
AcDbLine
 10
1125.9706135099
 20
2027.031580054
 30
0.0
 11
1100.5147693872
 21
2052.487424177
 31
0.0
  0
LINE
  5
214
330
1F
100
AcDbEntity
  8
LAY-10
  6
CONTINUOUS
 62
     7
100
AcDbLine
 10
1087.0797405446
 20
2015.010764774001
 30
0.0
 11
1058.088362516
 21
2044.002142802
 31
0.0
  0
LINE
  5
215
330
1F
100
AcDbEntity
  8
LAY-10
  6
CONTINUOUS
 62
     7
100
AcDbLine
 10
1087.0797405446
 20
2015.010764774001
 30
0.0
 11
1099.1005558248
 21
2027.031580054
 31
0.0
  0
LINE
  5
216
330
1F
100
AcDbEntity
  8
LAY-10
  6
CONTINUOUS
 62
     7
100
AcDbLine
 10
1099.1005558248
 20
2027.031580054
 30
0.0
 11
1070.1091777962
 21
2056.022958083001
 31
0.0
  0
LINE
  5
217
330
1F
100
AcDbEntity
  8
LAY-10
  6
CONTINUOUS
 62
     7
100
AcDbLine
 10
1070.1091777962
 20
2056.022958083001
 30
0.0
 11
1066.5736438902
 21
2052.487424177
 31
0.0
  0
LINE
  5
218
330
1F
100
AcDbEntity
  8
LAY-10
  6
CONTINUOUS
 62
     7
100
AcDbLine
 10
1058.088362516
 20
2044.002142802
 30
0.0
 11
1061.6238964219
 21
2047.537676708
 31
0.0
  0
LINE
  5
219
330
1F
100
AcDbEntity
  8
LAY-10
  6
CONTINUOUS
 62
     7
100
AcDbLine
 10
1092.029488013
 20
2027.031580054
 30
0.0
 11
1087.0797405446
 21
2022.081832586
 31
0.0
  0
LINE
  5
21A
330
1F
100
AcDbEntity
  8
LAY-10
  6
CONTINUOUS
 62
     7
100
AcDbLine
 10
1061.6238964219
 20
2047.537676708
 30
0.0
 11
1087.0797405446
 21
2022.081832586
 31
0.0
  0
LINE
  5
21B
330
1F
100
AcDbEntity
  8
LAY-10
  6
CONTINUOUS
 62
     7
100
AcDbLine
 10
1092.029488013
 20
2027.031580054
 30
0.0
 11
1066.5736438902
 21
2052.487424177
 31
0.0
  0
LINE
  5
21C
330
1F
100
AcDbEntity
  8
LAY-10
  6
CONTINUOUS
 62
     7
100
AcDbLine
 10
1137.9914287901
 20
1988.140707089
 30
0.0
 11
1166.982806818701
 21
1959.14932906
 31
0.0
  0
LINE
  5
21D
330
1F
100
AcDbEntity
  8
LAY-10
  6
CONTINUOUS
 62
     7
100
AcDbLine
 10
1137.9914287901
 20
1988.140707089
 30
0.0
 11
1125.9706135099
 21
1976.119891809
 31
0.0
  0
LINE
  5
21E
330
1F
100
AcDbEntity
  8
LAY-10
  6
CONTINUOUS
 62
     7
100
AcDbLine
 10
1125.9706135099
 20
1976.119891809
 30
0.0
 11
1154.961991538601
 21
1947.128513780001
 31
0.0
  0
LINE
  5
21F
330
1F
100
AcDbEntity
  8
LAY-10
  6
CONTINUOUS
 62
     7
100
AcDbLine
 10
1154.961991538601
 20
1947.128513780001
 30
0.0
 11
1158.4975254445
 21
1950.664047686
 31
0.0
  0
LINE
  5
220
330
1F
100
AcDbEntity
  8
LAY-10
  6
CONTINUOUS
 62
     7
100
AcDbLine
 10
1166.982806818701
 20
1959.14932906
 30
0.0
 11
1163.4472729128
 21
1955.613795154
 31
0.0
  0
LINE
  5
221
330
1F
100
AcDbEntity
  8
LAY-10
  6
CONTINUOUS
 62
     7
100
AcDbLine
 10
1133.041681321801
 20
1976.119891809
 30
0.0
 11
1137.9914287901
 21
1981.069639277
 31
0.0
  0
LINE
  5
222
330
1F
100
AcDbEntity
  8
LAY-10
  6
CONTINUOUS
 62
     7
100
AcDbLine
 10
1163.4472729128
 20
1955.613795154
 30
0.0
 11
1137.9914287901
 21
1981.069639277
 31
0.0
  0
LINE
  5
223
330
1F
100
AcDbEntity
  8
LAY-10
  6
CONTINUOUS
 62
     7
100
AcDbLine
 10
1133.041681321801
 20
1976.119891809
 30
0.0
 11
1158.4975254445
 21
1950.664047686
 31
0.0
  0
LINE
  5
224
330
1F
100
AcDbEntity
  8
LAY-10
  6
CONTINUOUS
 62
     7
100
AcDbLine
 10
1104.0503032931
 20
1988.140707089
 30
0.0
 11
1133.041681321801
 21
1959.14932906
 31
0.0
  0
LINE
  5
225
330
1F
100
AcDbEntity
  8
LAY-10
  6
CONTINUOUS
 62
     7
100
AcDbLine
 10
1104.0503032931
 20
1988.140707089
 30
0.0
 11
1092.029488013
 21
1976.119891809
 31
0.0
  0
LINE
  5
226
330
1F
100
AcDbEntity
  8
LAY-10
  6
CONTINUOUS
 62
     7
100
AcDbLine
 10
1092.029488013
 20
1976.119891809
 30
0.0
 11
1121.0208660416
 21
1947.128513780001
 31
0.0
  0
LINE
  5
227
330
1F
100
AcDbEntity
  8
LAY-10
  6
CONTINUOUS
 62
     7
100
AcDbLine
 10
1121.0208660416
 20
1947.128513780001
 30
0.0
 11
1124.5563999475
 21
1950.664047686
 31
0.0
  0
LINE
  5
228
330
1F
100
AcDbEntity
  8
LAY-10
  6
CONTINUOUS
 62
     7
100
AcDbLine
 10
1133.041681321801
 20
1959.14932906
 30
0.0
 11
1129.506147415801
 21
1955.613795154
 31
0.0
  0
LINE
  5
229
330
1F
100
AcDbEntity
  8
LAY-10
  6
CONTINUOUS
 62
     7
100
AcDbLine
 10
1099.1005558248
 20
1976.119891809
 30
0.0
 11
1104.0503032931
 21
1981.069639277
 31
0.0
  0
LINE
  5
22A
330
1F
100
AcDbEntity
  8
LAY-10
  6
CONTINUOUS
 62
     7
100
AcDbLine
 10
1129.506147415801
 20
1955.613795154
 30
0.0
 11
1104.0503032931
 21
1981.069639277
 31
0.0
  0
LINE
  5
22B
330
1F
100
AcDbEntity
  8
LAY-10
  6
CONTINUOUS
 62
     7
100
AcDbLine
 10
1099.1005558248
 20
1976.119891809
 30
0.0
 11
1124.5563999475
 21
1950.664047686
 31
0.0
  0
LINE
  5
22C
330
1F
100
AcDbEntity
  8
LAY-10
  6
CONTINUOUS
 62
     7
100
AcDbLine
 10
1183.9533695672
 20
2077.943268299
 30
0.0
 11
1154.961991538601
 21
2048.951890271001
 31
0.0
  0
LINE
  5
22D
330
1F
100
AcDbEntity
  8
LAY-10
  6
CONTINUOUS
 62
     7
100
AcDbLine
 10
1183.9533695672
 20
2077.943268299
 30
0.0
 11
1171.932554287001
 21
2089.964083580001
 31
0.0
  0
LINE
  5
22E
330
1F
100
AcDbEntity
  8
LAY-10
  6
CONTINUOUS
 62
     7
100
AcDbLine
 10
1171.932554287001
 20
2089.964083580001
 30
0.0
 11
1142.9411762584
 21
2060.972705551001
 31
0.0
  0
LINE
  5
22F
330
1F
100
AcDbEntity
  8
LAY-10
  6
CONTINUOUS
 62
     7
100
AcDbLine
 10
1142.9411762584
 20
2060.972705551001
 30
0.0
 11
1146.4767101643
 21
2057.437171645
 31
0.0
  0
LINE
  5
230
330
1F
100
AcDbEntity
  8
LAY-10
  6
CONTINUOUS
 62
     7
100
AcDbLine
 10
1154.961991538601
 20
2048.951890271001
 30
0.0
 11
1151.4264576326
 21
2052.487424177
 31
0.0
  0
LINE
  5
231
330
1F
100
AcDbEntity
  8
LAY-10
  6
CONTINUOUS
 62
     7
100
AcDbLine
 10
1171.932554287001
 20
2082.893015768
 30
0.0
 11
1176.8823017553
 21
2077.943268299
 31
0.0
  0
LINE
  5
232
330
1F
100
AcDbEntity
  8
LAY-10
  6
CONTINUOUS
 62
     7
100
AcDbLine
 10
1151.4264576326
 20
2052.487424177
 30
0.0
 11
1176.8823017553
 21
2077.943268299
 31
0.0
  0
LINE
  5
233
330
1F
100
AcDbEntity
  8
LAY-10
  6
CONTINUOUS
 62
     7
100
AcDbLine
 10
1171.932554287001
 20
2082.893015768
 30
0.0
 11
1146.4767101643
 21
2057.437171645
 31
0.0
  0
LINE
  5
234
330
1F
100
AcDbEntity
  8
LAY-10
  6
CONTINUOUS
 62
     7
100
AcDbLine
 10
1150.0122440702
 20
2077.943268299
 30
0.0
 11
1121.0208660416
 21
2048.951890271001
 31
0.0
  0
LINE
  5
235
330
1F
100
AcDbEntity
  8
LAY-10
  6
CONTINUOUS
 62
     7
100
AcDbLine
 10
1150.0122440702
 20
2077.943268299
 30
0.0
 11
1137.9914287901
 21
2089.964083580001
 31
0.0
  0
LINE
  5
236
330
1F
100
AcDbEntity
  8
LAY-10
  6
CONTINUOUS
 62
     7
100
AcDbLine
 10
1137.9914287901
 20
2089.964083580001
 30
0.0
 11
1109.0000507614
 21
2060.972705551001
 31
0.0
  0
LINE
  5
237
330
1F
100
AcDbEntity
  8
LAY-10
  6
CONTINUOUS
 62
     7
100
AcDbLine
 10
1109.0000507614
 20
2060.972705551001
 30
0.0
 11
1112.5355846674
 21
2057.437171645
 31
0.0
  0
LINE
  5
238
330
1F
100
AcDbEntity
  8
LAY-10
  6
CONTINUOUS
 62
     7
100
AcDbLine
 10
1121.0208660416
 20
2048.951890271001
 30
0.0
 11
1117.4853321357
 21
2052.487424177
 31
0.0
  0
LINE
  5
239
330
1F
100
AcDbEntity
  8
LAY-10
  6
CONTINUOUS
 62
     7
100
AcDbLine
 10
1137.9914287901
 20
2082.893015768
 30
0.0
 11
1142.9411762584
 21
2077.943268299
 31
0.0
  0
LINE
  5
23A
330
1F
100
AcDbEntity
  8
LAY-10
  6
CONTINUOUS
 62
     7
100
AcDbLine
 10
1117.4853321357
 20
2052.487424177
 30
0.0
 11
1142.9411762584
 21
2077.943268299
 31
0.0
  0
LINE
  5
23B
330
1F
100
AcDbEntity
  8
LAY-10
  6
CONTINUOUS
 62
     7
100
AcDbLine
 10
1137.9914287901
 20
2082.893015768
 30
0.0
 11
1112.5355846674
 21
2057.437171645
 31
0.0
  0
LINE
  5
23C
330
1F
100
AcDbEntity
  8
LAY-10
  6
CONTINUOUS
 62
     7
100
AcDbLine
 10
1116.071118573301
 20
2077.943268299
 30
0.0
 11
1087.0797405446
 21
2048.951890271001
 31
0.0
  0
LINE
  5
23D
330
1F
100
AcDbEntity
  8
LAY-10
  6
CONTINUOUS
 62
     7
100
AcDbLine
 10
1116.071118573301
 20
2077.943268299
 30
0.0
 11
1104.0503032931
 21
2089.964083580001
 31
0.0
  0
LINE
  5
23E
330
1F
100
AcDbEntity
  8
LAY-10
  6
CONTINUOUS
 62
     7
100
AcDbLine
 10
1104.0503032931
 20
2089.964083580001
 30
0.0
 11
1075.0589252645
 21
2060.972705551001
 31
0.0
  0
LINE
  5
23F
330
1F
100
AcDbEntity
  8
LAY-10
  6
CONTINUOUS
 62
     7
100
AcDbLine
 10
1075.0589252645
 20
2060.972705551001
 30
0.0
 11
1078.5944591704
 21
2057.437171645
 31
0.0
  0
LINE
  5
240
330
1F
100
AcDbEntity
  8
LAY-10
  6
CONTINUOUS
 62
     7
100
AcDbLine
 10
1087.0797405446
 20
2048.951890271001
 30
0.0
 11
1083.5442066387
 21
2052.487424177
 31
0.0
  0
LINE
  5
241
330
1F
100
AcDbEntity
  8
LAY-10
  6
CONTINUOUS
 62
     7
100
AcDbLine
 10
1104.0503032931
 20
2082.893015768
 30
0.0
 11
1109.0000507614
 21
2077.943268299
 31
0.0
  0
LINE
  5
242
330
1F
100
AcDbEntity
  8
LAY-10
  6
CONTINUOUS
 62
     7
100
AcDbLine
 10
1083.5442066387
 20
2052.487424177
 30
0.0
 11
1109.0000507614
 21
2077.943268299
 31
0.0
  0
LINE
  5
243
330
1F
100
AcDbEntity
  8
LAY-10
  6
CONTINUOUS
 62
     7
100
AcDbLine
 10
1104.0503032931
 20
2082.893015768
 30
0.0
 11
1078.5944591704
 21
2057.437171645
 31
0.0
  0
LINE
  5
244
330
1F
100
AcDbEntity
  8
LAY-10
  6
CONTINUOUS
 62
     7
100
AcDbLine
 10
1130.0
 20
1682.8
 30
0.0
 11
1148.2747590743
 21
1684.910848355001
 31
0.0
  0
LINE
  5
245
330
1F
100
AcDbEntity
  8
LAY-10
  6
CONTINUOUS
 62
     7
100
AcDbLine
 10
1148.2747590743
 20
1684.910848355001
 30
0.0
 11
1158.1801913472
 21
1669.409077117901
 31
0.0
  0
LINE
  5
246
330
1F
100
AcDbEntity
  8
LAY-10
  6
CONTINUOUS
 62
     7
100
AcDbLine
 10
1158.1801913472
 20
1669.409077117901
 30
0.0
 11
1139.905432273001
 21
1667.298228763
 31
0.0
  0
LINE
  5
247
330
1F
100
AcDbEntity
  8
LAY-10
  6
CONTINUOUS
 62
     7
100
AcDbLine
 10
1139.905432273001
 20
1667.298228763
 30
0.0
 11
1130.0
 21
1682.8
 31
0.0
  0
TEXT
  5
248
330
1F
100
AcDbEntity
  8
LAY-10
  6
CONTINUOUS
 62
     7
100
AcDbText
 10
1137.61200138822
 20
1674.170069721871
 30
0.0
 40
9.12047351473236
  1
S
 50
334.5834372801
 41
0.56692
  7
EXCADSTD
100
AcDbText
  0
TEXT
  5
249
330
1F
100
AcDbEntity
  8
LAY-10
  6
CONTINUOUS
 62
     7
100
AcDbText
 10
1142.92144793762
 20
1671.713272637771
 30
0.0
 40
9.12047351473236
  1
F
 50
334.5834372801
 41
0.56692
  7
EXCADSTD
100
AcDbText
  0
TEXT
  5
24A
330
1F
100
AcDbEntity
  8
LAY-10
  6
CONTINUOUS
 62
     7
100
AcDbText
 10
1071.074835125426
 20
1721.139532854457
 30
0.0
 40
11.69291474341545
  1
Ｐ
 50
316.3055624853001
 41
1.2
  7
EXCADSTD
100
AcDbText
  0
TEXT
  5
24B
330
1F
100
AcDbEntity
  8
LAY-10
  6
CONTINUOUS
 62
     7
100
AcDbText
 10
1079.408943649551
 20
1713.173950354502
 30
0.0
 40
11.69291474341545
  1
Ａ
 50
318.9166874560001
 41
1.2
  7
EXCADSTD
100
AcDbText
  0
TEXT
  5
24C
330
1F
100
AcDbEntity
  8
LAY-10
  6
CONTINUOUS
 62
     7
100
AcDbText
 10
1088.09728690828
 20
1705.596314781682
 30
0.0
 40
11.69291474341545
  1
Ｔ
 50
321.5278124267001
 41
1.2
  7
EXCADSTD
100
AcDbText
  0
TEXT
  5
24D
330
1F
100
AcDbEntity
  8
LAY-10
  6
CONTINUOUS
 62
     7
100
AcDbText
 10
1097.121823434363
 20
1698.422361203257
 30
0.0
 40
11.69291474341545
  1
Ｅ
 50
324.1389373974
 41
1.2
  7
EXCADSTD
100
AcDbText
  0
TEXT
  5
24E
330
1F
100
AcDbEntity
  8
LAY-10
  6
CONTINUOUS
 62
     7
100
AcDbText
 10
1106.463813650361
 20
1691.666986434951
 30
0.0
 40
11.69291474341545
  1
Ｎ
 50
326.750062368
 41
1.2
  7
EXCADSTD
100
AcDbText
  0
TEXT
  5
24F
330
1F
100
AcDbEntity
  8
LAY-10
  6
CONTINUOUS
 62
     7
100
AcDbText
 10
1116.103858781833
 20
1685.344218107698
 30
0.0
 40
11.69291474341545
  1
Ｔ
 50
329.3611873387003
 41
1.2
  7
EXCADSTD
100
AcDbText
  0
TEXT
  5
250
330
1F
100
AcDbEntity
  8
LAY-10
  6
CONTINUOUS
 62
     7
100
AcDbText
 10
1157.235832150744
 20
1664.627761840658
 30
0.0
 40
11.69291474341545
  1
Ｆ
 50
339.8056872214003
 41
1.2
  7
EXCADSTD
100
AcDbText
  0
TEXT
  5
251
330
1F
100
AcDbEntity
  8
LAY-10
  6
CONTINUOUS
 62
     7
100
AcDbText
 10
1168.054987607534
 20
1660.646085728902
 30
0.0
 40
11.69291474341545
  1
Ｕ
 50
342.4168121921001
 41
1.2
  7
EXCADSTD
100
AcDbText
  0
TEXT
  5
252
330
1F
100
AcDbEntity
  8
LAY-10
  6
CONTINUOUS
 62
     7
100
AcDbText
 10
1179.044303038253
 20
1657.161431396103
 30
0.0
 40
11.69291474341545
  1
Ｋ
 50
345.0279371628003
 41
1.2
  7
EXCADSTD
100
AcDbText
  0
TEXT
  5
253
330
1F
100
AcDbEntity
  8
LAY-10
  6
CONTINUOUS
 62
     7
100
AcDbText
 10
1190.180958974558
 20
1654.181034776203
 30
0.0
 40
11.69291474341545
  1
Ｕ
 50
347.6390621334
 41
1.2
  7
EXCADSTD
100
AcDbText
  0
TEXT
  5
254
330
1F
100
AcDbEntity
  8
LAY-10
  6
CONTINUOUS
 62
     7
100
AcDbText
 10
1201.44182999331
 20
1651.711084704711
 30
0.0
 40
11.69291474341545
  1
Ｎ
 50
350.2501871041002
 41
1.2
  7
EXCADSTD
100
AcDbText
  0
TEXT
  5
255
330
1F
100
AcDbEntity
  8
LAY-10
  6
CONTINUOUS
 62
     7
100
AcDbText
 10
1212.803532736949
 20
1649.756710067906
 30
0.0
 40
11.69291474341545
  1
Ｉ
 50
352.8613120748
 41
1.2
  7
EXCADSTD
100
AcDbText
  0
TEXT
  5
256
330
1F
100
AcDbEntity
  8
LAY-10
  6
CONTINUOUS
 62
     7
100
AcDbText
 10
1224.242474469474
 20
1648.3219691522
 30
0.0
 40
11.69291474341545
  1
Ｓ
 50
355.4724370455002
 41
1.2
  7
EXCADSTD
100
AcDbText
  0
TEXT
  5
257
330
1F
100
AcDbEntity
  8
LAY-10
  6
CONTINUOUS
 62
     7
100
AcDbText
 10
1235.734902067099
 20
1647.409841217365
 30
0.0
 40
11.69291474341545
  1
Ｈ
 50
358.0835620161
 41
1.2
  7
EXCADSTD
100
AcDbText
  0
TEXT
  5
258
330
1F
100
AcDbEntity
  8
LAY-10
  6
CONTINUOUS
 62
     7
100
AcDbText
 10
1247.256951341764
 20
1647.022220309836
 30
0.0
 40
11.69291474341545
  1
Ｉ
 50
0.6946869868254172
 41
1.2
  7
EXCADSTD
100
AcDbText
  0
TEXT
  5
259
330
1F
100
AcDbEntity
  8
LAY-10
  6
CONTINUOUS
 62
     7
100
AcDbText
 10
1270.294200303174
 20
1647.822628360601
 30
0.0
 40
11.69291474341545
  1
Ｆ
 50
5.916936928179985
 41
1.2
  7
EXCADSTD
100
AcDbText
  0
TEXT
  5
25A
330
1F
100
AcDbEntity
  8
LAY-10
  6
CONTINUOUS
 62
     7
100
AcDbText
 10
1281.761562817484
 20
1649.008995260179
 30
0.0
 40
11.69291474341545
  1
Ｏ
 50
8.528061898849995
 41
1.2
  7
EXCADSTD
100
AcDbText
  0
TEXT
  5
25B
330
1F
100
AcDbEntity
  8
LAY-10
  6
CONTINUOUS
 62
     7
100
AcDbText
 10
1293.162971998737
 20
1650.716548521339
 30
0.0
 40
11.69291474341545
  1
Ｕ
 50
11.13918686953003
 41
1.2
  7
EXCADSTD
100
AcDbText
  0
TEXT
  5
25C
330
1F
100
AcDbEntity
  8
LAY-10
  6
CONTINUOUS
 62
     7
100
AcDbText
 10
1304.474752659696
 20
1652.941742385362
 30
0.0
 40
11.69291474341545
  1
Ｎ
 50
13.75031184019998
 41
1.2
  7
EXCADSTD
100
AcDbText
  0
TEXT
  5
25D
330
1F
100
AcDbEntity
  8
LAY-10
  6
CONTINUOUS
 62
     7
100
AcDbText
 10
1315.673415728499
 20
1655.679956206094
 30
0.0
 40
11.69291474341545
  1
Ｄ
 50
16.36143681088001
 41
1.2
  7
EXCADSTD
100
AcDbText
  0
TEXT
  5
25E
330
1F
100
AcDbEntity
  8
LAY-10
  6
CONTINUOUS
 62
     7
100
AcDbText
 10
1326.735707023208
 20
1658.925504043835
 30
0.0
 40
11.69291474341545
  1
Ｒ
 50
18.97256178155998
 41
1.2
  7
EXCADSTD
100
AcDbText
  0
TEXT
  5
25F
330
1F
100
AcDbEntity
  8
LAY-10
  6
CONTINUOUS
 62
     7
100
AcDbText
 10
1337.638655539926
 20
1662.671646472554
 30
0.0
 40
11.69291474341545
  1
Ｙ
 50
21.58368675223
 41
1.2
  7
EXCADSTD
100
AcDbText
  0
TEXT
  5
260
330
1F
100
AcDbEntity
  8
LAY-10
  6
CONTINUOUS
 62
     7
100
AcDbText
 10
1358.876341624153
 20
1671.633576094355
 30
0.0
 40
11.69291474341545
  1
Ｃ
 50
26.80593669357998
 41
1.2
  7
EXCADSTD
100
AcDbText
  0
TEXT
  5
261
330
1F
100
AcDbEntity
  8
LAY-10
  6
CONTINUOUS
 62
     7
100
AcDbText
 10
1369.166978836914
 20
1676.830753714211
 30
0.0
 40
11.69291474341545
  1
Ｏ
 50
29.41706166426002
 41
1.2
  7
EXCADSTD
100
AcDbText
  0
TEXT
  5
262
330
1F
100
AcDbEntity
  8
LAY-10
  6
CONTINUOUS
 62
     7
100
AcDbText
 10
1380.111404483888
 20
1683.055119564266
 30
0.0
 40
11.69291474341545
  1
.,
 50
32.02818663493003
 41
0.626768
  7
EXCADSTD
100
AcDbText
  0
TEXT
  5
263
330
1F
100
AcDbEntity
  8
LAY-10
  6
CONTINUOUS
 62
     7
100
AcDbText
 10
1388.985042709423
 20
1688.60359691807
 30
0.0
 40
11.69291474341545
  1
Ｌ
 50
34.63931160560999
 41
1.2
  7
EXCADSTD
100
AcDbText
  0
TEXT
  5
264
330
1F
100
AcDbEntity
  8
LAY-10
  6
CONTINUOUS
 62
     7
100
AcDbText
 10
1398.471316880026
 20
1695.154816027279
 30
0.0
 40
11.69291474341545
  1
Ｔ
 50
37.25043657628999
 41
1.2
  7
EXCADSTD
100
AcDbText
  0
TEXT
  5
265
330
1F
100
AcDbEntity
  8
LAY-10
  6
CONTINUOUS
 62
     7
100
AcDbText
 10
1407.649288266957
 20
1702.131399050201
 30
0.0
 40
11.69291474341545
  1
Ｄ
 50
39.86156154696
 41
1.2
  7
EXCADSTD
100
AcDbText
  0
TEXT
  5
266
330
1F
100
AcDbEntity
  8
LAY-10
  6
CONTINUOUS
 62
     7
100
AcDbText
 10
1416.499898683269
 20
1709.518859013887
 30
0.0
 40
11.69291474341545
  1
．
 50
42.47268651764002
 41
1.2
  7
EXCADSTD
100
AcDbText
  0
TEXT
  5
267
330
1F
100
AcDbEntity
  8
LAY-10
  6
CONTINUOUS
 62
     7
100
AcDbText
 10
1432.327595223226
 20
1724.608837622123
 30
0.0
 40
11.69291474341545
  1
Ｄ
 50
47.71763899327998
 41
1.2
  7
EXCADSTD
100
AcDbText
  0
TEXT
  5
268
330
1F
100
AcDbEntity
  8
LAY-10
  6
CONTINUOUS
 62
     7
100
AcDbText
 10
1441.800046014353
 20
1735.020746246543
 30
0.0
 40
11.69291474341545
  1
４
 50
50.90587966443002
 41
1.2
  7
EXCADSTD
100
AcDbText
  0
TEXT
  5
269
330
1F
100
AcDbEntity
  8
LAY-10
  6
CONTINUOUS
 62
     7
100
AcDbText
 10
1450.678760545989
 20
1745.943364680778
 30
0.0
 40
11.69291474341545
  1
５
 50
54.09412033558002
 41
1.2
  7
EXCADSTD
100
AcDbText
  0
TEXT
  5
26A
330
1F
100
AcDbEntity
  8
LAY-10
  6
CONTINUOUS
 62
     7
100
AcDbText
 10
1458.936253867945
 20
1757.342880864973
 30
0.0
 40
11.69291474341545
  1
０
 50
57.28236100672002
 41
1.2
  7
EXCADSTD
100
AcDbText
  0
TEXT
  5
26B
330
1F
100
AcDbEntity
  8
LAY-10
  6
CONTINUOUS
 62
     7
100
AcDbText
 10
1199.076814710701
 20
2143.061106545434
 30
0.0
 40
7.795275999999999
  1
Ｏ
 50
10.50495326549003
 41
1.2
  7
EXCADSTD
100
AcDbText
  0
TEXT
  5
26C
330
1F
100
AcDbEntity
  8
LAY-10
  6
CONTINUOUS
 62
     7
100
AcDbText
 10
1210.454765475168
 20
2145.169424564968
 30
0.0
 40
7.795275999999999
  1
Ｐ
 50
7.834941709610003
 41
1.2
  7
EXCADSTD
100
AcDbText
  0
TEXT
  5
26D
330
1F
100
AcDbEntity
  8
LAY-10
  6
CONTINUOUS
 62
     7
100
AcDbText
 10
1221.918577365278
 20
2146.745427551827
 30
0.0
 40
7.795275999999999
  1
Ｅ
 50
5.164930153729977
 41
1.2
  7
EXCADSTD
100
AcDbText
  0
TEXT
  5
26E
330
1F
100
AcDbEntity
  8
LAY-10
  6
CONTINUOUS
 62
     7
100
AcDbText
 10
1233.443360004218
 20
2147.785693669614
 30
0.0
 40
7.795275999999999
  1
Ｎ
 50
2.494918597850011
 41
1.2
  7
EXCADSTD
100
AcDbText
  0
LINE
  5
26F
330
1F
100
AcDbEntity
  8
LAY-10
  6
CONTINUOUS
 62
     7
100
AcDbLine
 10
1275.4723315034
 20
2148.413600243
 30
0.0
 11
1276.965718155
 21
2146.699329604
 31
0.0
  0
LINE
  5
270
330
1F
100
AcDbEntity
  8
LAY-10
  6
CONTINUOUS
 62
     7
100
AcDbLine
 10
1299.023665964601
 20
2145.075458401001
 30
0.0
 11
1296.885044093
 21
2148.447690090001
 31
0.0
  0
LINE
  5
271
330
1F
100
AcDbEntity
  8
LAY-10
  6
CONTINUOUS
 62
     7
100
AcDbLine
 10
1299.4844986797
 20
2151.458852140001
 30
0.0
 11
1296.885044093
 21
2148.447690090001
 31
0.0
  0
LINE
  5
272
330
1F
100
AcDbEntity
  8
LAY-10
  6
CONTINUOUS
 62
     7
100
AcDbLine
 10
1275.694964802
 20
2151.605870089001
 30
0.0
 11
1277.4232945914
 21
2153.082963064001
 31
0.0
  0
LINE
  5
273
330
1F
100
AcDbEntity
  8
LAY-10
  6
CONTINUOUS
 62
     7
100
AcDbLine
 10
1260.9065685991
 20
2147.881578774001
 30
0.0
 11
1260.9700088474
 21
2149.481238282
 31
0.0
  0
LINE
  5
274
330
1F
100
AcDbEntity
  8
LAY-10
  6
CONTINUOUS
 62
     7
100
AcDbLine
 10
1261.0968893442
 20
2152.680557297
 30
0.0
 11
1261.1603295925
 21
2154.280216805001
 31
0.0
  0
LINE
  5
275
330
1F
100
AcDbEntity
  8
LAY-10
  6
CONTINUOUS
 62
     7
100
AcDbLine
 10
1275.694964802
 20
2151.605870089001
 30
0.0
 11
1261.0968893442
 21
2152.680557297
 31
0.0
  0
LINE
  5
276
330
1F
100
AcDbEntity
  8
LAY-10
  6
CONTINUOUS
 62
     7
100
AcDbLine
 10
1260.9700088474
 20
2149.481238282
 30
0.0
 11
1275.4723315034
 21
2148.413600243
 31
0.0
  0
LINE
  5
277
330
1F
100
AcDbEntity
  8
LAY-10
  6
CONTINUOUS
 62
     7
100
AcDbLine
 10
1277.4232945914
 20
2153.082963064001
 30
0.0
 11
1299.4844986797
 21
2151.458852140001
 31
0.0
  0
LINE
  5
278
330
1F
100
AcDbEntity
  8
LAY-10
  6
CONTINUOUS
 62
     7
100
AcDbLine
 10
1276.965718155
 20
2146.699329604
 30
0.0
 11
1299.023665964601
 21
2145.075458401001
 31
0.0
  0
LINE
  5
279
330
1F
100
AcDbEntity
  8
LAY-10
  6
CONTINUOUS
 62
     7
100
AcDbLine
 10
1254.647063809401
 20
2151.551053365
 30
0.0
 11
1261.1603295925
 21
2154.280216805001
 31
0.0
  0
LINE
  5
27A
330
1F
100
AcDbEntity
  8
LAY-10
  6
CONTINUOUS
 62
     7
100
AcDbLine
 10
1260.9065685991
 20
2147.881578774001
 30
0.0
 11
1254.647063809401
 21
2151.551053365
 31
0.0
  0
TEXT
  5
27B
330
1F
100
AcDbEntity
  8
LAY-10
  6
CONTINUOUS
 62
     7
100
AcDbText
 10
1476.129961955148
 20
1786.550306062725
 30
0.0
 40
11.69291474341545
  1
Ｆ
 50
65.29620180353
 41
1.2
  7
EXCADSTD
100
AcDbText
  0
TEXT
  5
27C
330
1F
100
AcDbEntity
  8
LAY-10
  6
CONTINUOUS
 62
     7
100
AcDbText
 10
1483.233463498941
 20
1801.980897204188
 30
0.0
 40
11.69291474341545
  1
Ｃ
 50
69.14446509614999
 41
1.2
  7
EXCADSTD
100
AcDbText
  0
LINE
  5
27D
330
1F
100
AcDbEntity
  8
LAY-10
  6
CONTINUOUS
 62
     7
100
AcDbLine
 10
1489.250000000001
 20
773.8133150668009
 30
0.0
 11
1490.0418109
 21
751.1388175833009
 31
0.0
  0
LINE
  5
27E
330
1F
100
AcDbEntity
  8
LAY-10
  6
CONTINUOUS
 62
     7
100
AcDbLine
 10
1475.0
 20
741.3133150668007
 30
0.0
 11
1476.750000000001
 21
773.8133150668009
 31
0.0
  0
LINE
  5
27F
330
1F
100
AcDbEntity
  8
LAY-10
  6
CONTINUOUS
 62
     7
100
AcDbLine
 10
1520.0
 20
786.8133150668008
 30
0.0
 11
1506.0
 21
786.8133150668008
 31
0.0
  0
LINE
  5
280
330
1F
100
AcDbEntity
  8
LAY-10
  6
CONTINUOUS
 62
     7
100
AcDbLine
 10
1520.0
 20
795.8133150668008
 30
0.0
 11
1520.0
 21
786.8133150668008
 31
0.0
  0
LINE
  5
281
330
1F
100
AcDbEntity
  8
LAY-10
  6
CONTINUOUS
 62
     7
100
AcDbLine
 10
1509.0
 20
786.8133150668008
 30
0.0
 11
1507.754219097001
 21
751.1388175833009
 31
0.0
  0
LINE
  5
282
330
1F
100
AcDbEntity
  8
LAY-10
  6
CONTINUOUS
 62
     7
100
AcDbLine
 10
1502.757264962001
 20
746.3133150668007
 30
0.0
 11
1495.038765035001
 21
746.3133150668007
 31
0.0
  0
LINE
  5
283
330
1F
100
AcDbEntity
  8
LAY-10
  6
CONTINUOUS
 62
     7
100
AcDbLine
 10
1529.620312274727
 20
759.9467366263225
 30
0.0
 11
1529.140425711087
 21
750.7899555047246
 31
0.0
  0
LINE
  5
284
330
1F
100
AcDbEntity
  8
LAY-10
  6
CONTINUOUS
 62
     7
100
AcDbLine
 10
1518.500000000001
 20
786.8133150668008
 30
0.0
 11
1518.500000000001
 21
795.3133150668007
 31
0.0
  0
LINE
  5
285
330
1F
100
AcDbEntity
  8
LAY-10
  6
CONTINUOUS
 62
     7
100
AcDbLine
 10
1518.500000000001
 20
795.3133150668007
 30
0.0
 11
1250.000000000001
 21
800.0000000000007
 31
0.0
  0
LINE
  5
286
330
1F
100
AcDbEntity
  8
LAY-10
  6
CONTINUOUS
 62
     7
100
AcDbLine
 10
1505.0
 20
758.3133150668008
 30
0.0
 11
1499.000000000001
 21
758.3133150668008
 31
0.0
  0
LINE
  5
287
330
1F
100
AcDbEntity
  8
LAY-10
  6
CONTINUOUS
 62
     7
100
AcDbLine
 10
1505.0
 20
758.3133150668008
 30
0.0
 11
1506.0
 21
786.8133150668008
 31
0.0
  0
LINE
  5
288
330
1F
100
AcDbEntity
  8
LAY-10
  6
CONTINUOUS
 62
     7
100
AcDbLine
 10
1499.000000000001
 20
758.3133150668008
 30
0.0
 11
1497.031505071001
 21
780.8133150668008
 31
0.0
  0
LINE
  5
289
330
1F
100
AcDbEntity
  8
LAY-10
  6
CONTINUOUS
 62
     7
100
AcDbLine
 10
1490.0
 20
783.8133150668007
 30
0.0
 11
1468.000000000001
 21
783.8133150668007
 31
0.0
  0
LINE
  5
28A
330
1F
100
AcDbEntity
  8
LAY-10
  6
CONTINUOUS
 62
     7
100
AcDbLine
 10
1467.367579037001
 20
776.5847103811008
 30
0.0
 11
1468.000000000001
 21
783.8133150668007
 31
0.0
  0
LINE
  5
28B
330
1F
100
AcDbEntity
  8
LAY-10
  6
CONTINUOUS
 62
     7
100
AcDbLine
 10
1467.367579037001
 20
776.5847103811008
 30
0.0
 11
1465.367579037001
 21
776.5847103811008
 31
0.0
  0
LINE
  5
28C
330
1F
100
AcDbEntity
  8
LAY-10
  6
CONTINUOUS
 62
     7
100
AcDbLine
 10
1465.367579037001
 20
776.5847103811008
 30
0.0
 11
1464.922296638
 21
781.6743114855008
 31
0.0
  0
LINE
  5
28D
330
1F
100
AcDbEntity
  8
LAY-10
  6
CONTINUOUS
 62
     7
100
AcDbLine
 10
1499.000000000001
 20
758.3133150668008
 30
0.0
 11
1489.791271927001
 21
758.3133150668008
 31
0.0
  0
LINE
  5
28E
330
1F
100
AcDbEntity
  8
LAY-10
  6
CONTINUOUS
 62
     7
100
AcDbLine
 10
1490.803847577001
 20
780.8133150668008
 30
0.0
 11
1497.031505071001
 21
780.8133150668008
 31
0.0
  0
LINE
  5
28F
330
1F
100
AcDbEntity
  8
LAY-10
  6
CONTINUOUS
 62
     7
100
AcDbLine
 10
1490.803847577001
 20
780.8133150668008
 30
0.0
 11
1490.0
 21
783.8133150668007
 31
0.0
  0
LINE
  5
290
330
1F
100
AcDbEntity
  8
LAY-10
  6
CONTINUOUS
 62
     7
100
AcDbLine
 10
1465.367579037001
 20
776.5847103811008
 30
0.0
 11
1250.000000000001
 21
776.5847103811008
 31
0.0
  0
LINE
  5
291
330
1F
100
AcDbEntity
  8
LAY-10
  6
CONTINUOUS
 62
     7
100
AcDbLine
 10
1010.750000000001
 20
773.8133150668009
 30
0.0
 11
1009.958189100001
 21
751.1388175833009
 31
0.0
  0
LINE
  5
292
330
1F
100
AcDbEntity
  8
LAY-10
  6
CONTINUOUS
 62
     7
100
AcDbLine
 10
1025.0
 20
741.3133150668007
 30
0.0
 11
1023.250000000001
 21
773.8133150668009
 31
0.0
  0
LINE
  5
293
330
1F
100
AcDbEntity
  8
LAY-10
  6
CONTINUOUS
 62
     7
100
AcDbLine
 10
980.0000000000006
 20
795.8133150668008
 30
0.0
 11
980.0000000000006
 21
786.8133150668008
 31
0.0
  0
LINE
  5
294
330
1F
100
AcDbEntity
  8
LAY-10
  6
CONTINUOUS
 62
     7
100
AcDbLine
 10
997.2427350385005
 20
746.3133150668007
 30
0.0
 11
1004.961234964901
 21
746.3133150668007
 31
0.0
  0
LINE
  5
295
330
1F
100
AcDbEntity
  8
LAY-10
  6
CONTINUOUS
 62
     7
100
AcDbLine
 10
970.3796877265794
 20
759.9467366266871
 30
0.0
 11
970.8595742905948
 21
750.7899555043568
 31
0.0
  0
LINE
  5
296
330
1F
100
AcDbEntity
  8
LAY-10
  6
CONTINUOUS
 62
     7
100
AcDbLine
 10
1014.500000000001
 20
759.8133150668009
 30
0.0
 11
1014.500000000001
 21
773.8133150668009
 31
0.0
  0
LINE
  5
297
330
1F
100
AcDbEntity
  8
LAY-10
  6
CONTINUOUS
 62
     7
100
AcDbLine
 10
1019.500000000001
 20
773.8133150668009
 30
0.0
 11
1019.500000000001
 21
759.8133150668009
 31
0.0
  0
LINE
  5
298
330
1F
100
AcDbEntity
  8
LAY-10
  6
CONTINUOUS
 62
     7
100
AcDbLine
 10
1014.500000000001
 20
759.8133150668009
 30
0.0
 11
1019.500000000001
 21
759.8133150668009
 31
0.0
  0
LINE
  5
299
330
1F
100
AcDbEntity
  8
LAY-10
  6
CONTINUOUS
 62
     7
100
AcDbLine
 10
981.5000000000006
 20
795.3133150668007
 30
0.0
 11
1250.000000000001
 21
800.0000000000007
 31
0.0
  0
LINE
  5
29A
330
1F
100
AcDbEntity
  8
LAY-10
  6
CONTINUOUS
 62
     7
100
AcDbLine
 10
994.5964912281006
 20
769.8133150668009
 30
0.0
 11
994.0000000000006
 21
786.8133150668008
 31
0.0
  0
LINE
  5
29B
330
1F
100
AcDbEntity
  8
LAY-10
  6
CONTINUOUS
 62
     7
100
AcDbLine
 10
981.5000000000006
 20
786.8133150668008
 30
0.0
 11
981.5000000000006
 21
795.3133150668007
 31
0.0
  0
LINE
  5
29C
330
1F
100
AcDbEntity
  8
LAY-10
  6
CONTINUOUS
 62
     7
100
AcDbLine
 10
980.0000000000006
 20
786.8133150668008
 30
0.0
 11
994.0000000000006
 21
786.8133150668008
 31
0.0
  0
LINE
  5
29D
330
1F
100
AcDbEntity
  8
LAY-10
  6
CONTINUOUS
 62
     7
100
AcDbLine
 10
984.0000000000006
 20
758.3133150668008
 30
0.0
 11
1001.000000000001
 21
758.3133150668008
 31
0.0
  0
LINE
  5
29E
330
1F
100
AcDbEntity
  8
LAY-10
  6
CONTINUOUS
 62
     7
100
AcDbLine
 10
1001.000000000001
 20
758.3133150668008
 30
0.0
 11
1010.2087280729
 21
758.3133150668008
 31
0.0
  0
LINE
  5
29F
330
1F
100
AcDbEntity
  8
LAY-10
  6
CONTINUOUS
 62
     7
100
AcDbLine
 10
1032.632420963101
 20
776.5847103811008
 30
0.0
 11
1034.6324209631
 21
776.5847103811008
 31
0.0
  0
LINE
  5
2A0
330
1F
100
AcDbEntity
  8
LAY-10
  6
CONTINUOUS
 62
     7
100
AcDbLine
 10
1032.632420963101
 20
776.5847103811008
 30
0.0
 11
1032.0
 21
783.8133150668007
 31
0.0
  0
LINE
  5
2A1
330
1F
100
AcDbEntity
  8
LAY-10
  6
CONTINUOUS
 62
     7
100
AcDbLine
 10
1010.0
 20
783.8133150668007
 30
0.0
 11
1032.0
 21
783.8133150668007
 31
0.0
  0
LINE
  5
2A2
330
1F
100
AcDbEntity
  8
LAY-10
  6
CONTINUOUS
 62
     7
100
AcDbLine
 10
1034.6324209631
 20
776.5847103811008
 30
0.0
 11
1035.189968623301
 21
782.9575092983007
 31
0.0
  0
LINE
  5
2A3
330
1F
100
AcDbEntity
  8
LAY-10
  6
CONTINUOUS
 62
     7
100
AcDbLine
 10
1009.196152422701
 20
780.8133150668008
 30
0.0
 11
1010.0
 21
783.8133150668007
 31
0.0
  0
LINE
  5
2A4
330
1F
100
AcDbEntity
  8
LAY-10
  6
CONTINUOUS
 62
     7
100
AcDbLine
 10
1001.000000000001
 20
758.3133150668008
 30
0.0
 11
1002.968494929301
 21
780.8133150668008
 31
0.0
  0
LINE
  5
2A5
330
1F
100
AcDbEntity
  8
LAY-10
  6
CONTINUOUS
 62
     7
100
AcDbLine
 10
1009.196152422701
 20
780.8133150668008
 30
0.0
 11
1002.968494929301
 21
780.8133150668008
 31
0.0
  0
LINE
  5
2A6
330
1F
100
AcDbEntity
  8
LAY-10
  6
CONTINUOUS
 62
     7
100
AcDbLine
 10
1250.000000000001
 20
783.5000000000009
 30
0.0
 11
1462.929907242001
 21
783.5000000000009
 31
0.0
  0
LINE
  5
2A7
330
1F
100
AcDbEntity
  8
LAY-10
  6
CONTINUOUS
 62
     7
100
AcDbLine
 10
1110.5
 20
781.5999285724008
 30
0.0
 11
1114.5
 21
781.5999285724008
 31
0.0
  0
LINE
  5
2A8
330
1F
100
AcDbEntity
  8
LAY-10
  6
CONTINUOUS
 62
     7
100
AcDbLine
 10
1034.6324209631
 20
776.5847103811008
 30
0.0
 11
1080.009938512901
 21
776.5847103811008
 31
0.0
  0
LINE
  5
2A9
330
1F
100
AcDbEntity
  8
LAY-10
  6
CONTINUOUS
 62
     7
100
AcDbLine
 10
1145.200000000001
 20
776.5847103811008
 30
0.0
 11
1250.000000000001
 21
776.5847103811008
 31
0.0
  0
LINE
  5
2AA
330
1F
100
AcDbEntity
  8
LAY-10
  6
CONTINUOUS
 62
     7
100
AcDbLine
 10
1037.1474532066
 20
784.7828932031008
 30
0.0
 11
1073.480880028801
 21
785.4170955274006
 31
0.0
  0
LINE
  5
2AB
330
1F
100
AcDbEntity
  8
LAY-10
  6
CONTINUOUS
 62
     7
100
AcDbLine
 10
1117.5
 20
791.5999285724008
 30
0.0
 11
1117.5
 21
784.5999285724009
 31
0.0
  0
LINE
  5
2AC
330
1F
100
AcDbEntity
  8
LAY-10
  6
CONTINUOUS
 62
     7
100
AcDbLine
 10
1107.500000000001
 20
791.5999285724008
 30
0.0
 11
1107.500000000001
 21
784.5999285724009
 31
0.0
  0
ARC
  5
2AD
330
1F
100
AcDbEntity
  8
LAY-10
  6
CONTINUOUS
 62
     7
100
AcDbCircle
 10
1112.5
 20
789.5999285724009
 30
0.0
 40
28.0
100
AcDbArc
 50
180.0
 51
0.0
  0
ARC
  5
2AE
330
1F
100
AcDbEntity
  8
LAY-10
  6
CONTINUOUS
 62
     7
100
AcDbCircle
 10
1112.5
 20
789.5999285724009
 30
0.0
 40
35.0
100
AcDbArc
 50
193.2706850791002
 51
343.8890530919997
  0
LINE
  5
2AF
330
1F
100
AcDbEntity
  8
LAY-10
  6
CONTINUOUS
 62
     7
100
AcDbLine
 10
1140.500000000001
 20
789.5999285724009
 30
0.0
 11
1140.500000000001
 21
791.5999285724008
 31
0.0
  0
LINE
  5
2B0
330
1F
100
AcDbEntity
  8
LAY-10
  6
CONTINUOUS
 62
     7
100
AcDbLine
 10
1145.500000000001
 20
791.5999285724008
 30
0.0
 11
1145.500000000001
 21
798.1759457150009
 31
0.0
  0
LINE
  5
2B1
330
1F
100
AcDbEntity
  8
LAY-10
  6
CONTINUOUS
 62
     7
100
AcDbLine
 10
1079.500000000001
 20
791.5999285724008
 30
0.0
 11
1079.500000000001
 21
797.0239114298008
 31
0.0
  0
LINE
  5
2B2
330
1F
100
AcDbEntity
  8
LAY-10
  6
CONTINUOUS
 62
     7
100
AcDbLine
 10
1084.5
 20
789.5999285724009
 30
0.0
 11
1084.5
 21
791.5999285724008
 31
0.0
  0
LINE
  5
2B3
330
1F
100
AcDbEntity
  8
LAY-10
  6
CONTINUOUS
 62
     7
100
AcDbLine
 10
1140.500000000001
 20
791.5999285724008
 30
0.0
 11
1145.500000000001
 21
791.5999285724008
 31
0.0
  0
LINE
  5
2B4
330
1F
100
AcDbEntity
  8
LAY-10
  6
CONTINUOUS
 62
     7
100
AcDbLine
 10
1079.500000000001
 20
791.5999285724008
 30
0.0
 11
1084.5
 21
791.5999285724008
 31
0.0
  0
LINE
  5
2B5
330
1F
100
AcDbEntity
  8
LAY-10
  6
CONTINUOUS
 62
     7
100
AcDbLine
 10
1107.500000000001
 20
791.5999285724008
 30
0.0
 11
1117.5
 21
791.5999285724008
 31
0.0
  0
ARC
  5
2B6
330
1F
100
AcDbEntity
  8
LAY-10
  6
CONTINUOUS
 62
     7
100
AcDbCircle
 10
1073.568142060901
 20
780.4178570516008
 30
0.0
 40
5.0
100
AcDbArc
 50
13.2706850790494
 51
91.00000000000178
  0
LINE
  5
2B7
330
1F
100
AcDbEntity
  8
LAY-10
  6
CONTINUOUS
 62
     7
100
AcDbLine
 10
1250.000000000001
 20
783.5000000000009
 30
0.0
 11
1150.9290461199
 21
783.5000000000009
 31
0.0
  0
ARC
  5
2B8
330
1F
100
AcDbEntity
  8
LAY-10
  6
CONTINUOUS
 62
     7
100
AcDbCircle
 10
1150.9290461199
 20
778.5000000000009
 30
0.0
 40
5.0
100
AcDbArc
 50
90.0
 51
163.8890530920023
  0
LINE
  5
2B9
330
1F
100
AcDbEntity
  8
LAY-10
  6
CONTINUOUS
 62
     7
100
AcDbLine
 10
979.1095405479005
 20
754.8133150668009
 30
0.0
 11
978.5508082360005
 21
770.8133150668008
 31
0.0
  0
LINE
  5
2BA
330
1F
100
AcDbEntity
  8
LAY-10
  6
CONTINUOUS
 62
     7
100
AcDbLine
 10
978.5508082360005
 20
770.8133150668008
 30
0.0
 11
991.5587323119005
 21
770.8133150668008
 31
0.0
  0
LINE
  5
2BB
330
1F
100
AcDbEntity
  8
LAY-10
  6
CONTINUOUS
 62
     7
100
AcDbLine
 10
992.1174646237004
 20
754.8133150668009
 30
0.0
 11
979.1095405479005
 21
754.8133150668009
 31
0.0
  0
LINE
  5
2BC
330
1F
100
AcDbEntity
  8
LAY-10
  6
CONTINUOUS
 62
     7
100
AcDbLine
 10
984.0000000000006
 20
758.3133150668008
 30
0.0
 11
984.0000000000006
 21
769.8133150668009
 31
0.0
  0
LINE
  5
2BD
330
1F
100
AcDbEntity
  8
LAY-10
  6
CONTINUOUS
 62
     7
100
AcDbLine
 10
984.0000000000006
 20
769.8133150668009
 30
0.0
 11
994.5964912281006
 21
769.8133150668009
 31
0.0
  0
LINE
  5
2BE
330
1F
100
AcDbEntity
  8
LAY-10
  6
CONTINUOUS
 62
     7
100
AcDbLine
 10
991.0000000000006
 20
786.8133150668008
 30
0.0
 11
991.5936530814006
 21
769.8133150668009
 31
0.0
  0
LINE
  5
2BF
330
1F
100
AcDbEntity
  8
LAY-10
  6
CONTINUOUS
 62
     7
100
AcDbLine
 10
991.9952419305006
 20
758.3133150668008
 30
0.0
 11
992.2457809034004
 21
751.1388175833009
 31
0.0
  0
ARC
  5
2C0
330
1F
100
AcDbEntity
  8
LAY-10
  6
CONTINUOUS
 62
     7
100
AcDbCircle
 10
1502.757264962001
 20
751.3133150668009
 30
0.0
 40
5.0
100
AcDbArc
 50
270.0
 51
358.0000000000001
  0
ARC
  5
2C1
330
1F
100
AcDbEntity
  8
LAY-10
  6
CONTINUOUS
 62
     7
100
AcDbCircle
 10
1495.038765035001
 20
751.3133150668009
 30
0.0
 40
5.0
100
AcDbArc
 50
181.9999999999997
 51
270.0
  0
LINE
  5
2C2
330
1F
100
AcDbEntity
  8
LAY-10
  6
CONTINUOUS
 62
     7
100
AcDbLine
 10
1476.750000000001
 20
773.8133150668009
 30
0.0
 11
1250.000000000001
 21
773.8133150668009
 31
0.0
  0
LINE
  5
2C3
330
1F
100
AcDbEntity
  8
LAY-10
  6
CONTINUOUS
 62
     7
100
AcDbLine
 10
1250.000000000001
 20
773.8133150668009
 30
0.0
 11
1143.737522853501
 21
773.8133150668009
 31
0.0
  0
LINE
  5
2C4
330
1F
100
AcDbEntity
  8
LAY-10
  6
CONTINUOUS
 62
     7
100
AcDbLine
 10
1081.262477146501
 20
773.8133150668009
 30
0.0
 11
1023.250000000001
 21
773.8133150668009
 31
0.0
  0
ARC
  5
2C5
330
1F
100
AcDbEntity
  8
LAY-10
  6
CONTINUOUS
 62
     7
100
AcDbCircle
 10
1462.929907242001
 20
781.5000000000007
 30
0.0
 40
2.0
100
AcDbArc
 50
5.000000000006504
 51
90.0
  0
ARC
  5
2C6
330
1F
100
AcDbEntity
  8
LAY-10
  6
CONTINUOUS
 62
     7
100
AcDbCircle
 10
1037.1823580195
 20
782.7831978128007
 30
0.0
 40
2.0
100
AcDbArc
 50
90.9999999999953
 51
174.9999999999967
  0
ARC
  5
2C7
330
1F
100
AcDbEntity
  8
LAY-10
  6
CONTINUOUS
 62
     7
100
AcDbCircle
 10
1004.961234964901
 20
751.3133150668009
 30
0.0
 40
5.0
100
AcDbArc
 50
270.0
 51
358.0000000000002
  0
ARC
  5
2C8
330
1F
100
AcDbEntity
  8
LAY-10
  6
CONTINUOUS
 62
     7
100
AcDbCircle
 10
997.2427350385005
 20
751.3133150668009
 30
0.0
 40
5.0
100
AcDbArc
 50
181.9999999999998
 51
270.0
  0
LINE
  5
2C9
330
1F
100
AcDbEntity
  8
LAY-10
  6
CONTINUOUS
 62
     7
100
AcDbLine
 10
1019.500000000001
 20
761.8133150668008
 30
0.0
 11
1019.500000000001
 21
773.8133150668009
 31
0.0
  0
LINE
  5
2CA
330
1F
100
AcDbEntity
  8
LAY-10
  6
CONTINUOUS
 62
     7
100
AcDbLine
 10
1014.500000000001
 20
761.8133150668008
 30
0.0
 11
1014.500000000001
 21
773.8133150668009
 31
0.0
  0
LINE
  5
2CB
330
1F
100
AcDbEntity
  8
LAY-10
  6
CONTINUOUS
 62
     7
100
AcDbLine
 10
1019.500000000001
 20
773.8133150668009
 30
0.0
 11
1023.500000000001
 21
773.8133150668009
 31
0.0
  0
LINE
  5
2CC
330
1F
100
AcDbEntity
  8
LAY-10
  6
CONTINUOUS
 62
     7
100
AcDbLine
 10
1014.500000000001
 20
773.8133150668009
 30
0.0
 11
1010.5
 21
773.8133150668009
 31
0.0
  0
LINE
  5
2CD
330
1F
100
AcDbEntity
  8
LAY-10
  6
CONTINUOUS
 62
     7
100
AcDbLine
 10
1010.5
 20
773.8133150668009
 30
0.0
 11
1010.5
 21
777.8133150668007
 31
0.0
  0
LINE
  5
2CE
330
1F
100
AcDbEntity
  8
LAY-10
  6
CONTINUOUS
 62
     7
100
AcDbLine
 10
1023.500000000001
 20
773.8133150668009
 30
0.0
 11
1023.500000000001
 21
777.8133150668007
 31
0.0
  0
LINE
  5
2CF
330
1F
100
AcDbEntity
  8
LAY-10
  6
CONTINUOUS
 62
     7
100
AcDbLine
 10
1010.5
 20
777.8133150668007
 30
0.0
 11
1014.000000000001
 21
777.8133150668007
 31
0.0
  0
LINE
  5
2D0
330
1F
100
AcDbEntity
  8
LAY-10
  6
CONTINUOUS
 62
     7
100
AcDbLine
 10
1023.500000000001
 20
777.8133150668007
 30
0.0
 11
1018.0
 21
777.8133150668007
 31
0.0
  0
LINE
  5
2D1
330
1F
100
AcDbEntity
  8
LAY-10
  6
CONTINUOUS
 62
     7
100
AcDbLine
 10
1010.5
 20
776.9965761875009
 30
0.0
 11
1011.316738879301
 21
777.8133150668007
 31
0.0
  0
LINE
  5
2D2
330
1F
100
AcDbEntity
  8
LAY-10
  6
CONTINUOUS
 62
     7
100
AcDbLine
 10
1012.973593128801
 20
773.8133150668009
 30
0.0
 11
1018.0
 21
778.8397219380008
 31
0.0
  0
LINE
  5
2D3
330
1F
100
AcDbEntity
  8
LAY-10
  6
CONTINUOUS
 62
     7
100
AcDbLine
 10
1014.500000000001
 20
772.5112948132008
 30
0.0
 11
1019.802020253601
 21
777.8133150668007
 31
0.0
  0
LINE
  5
2D4
330
1F
100
AcDbEntity
  8
LAY-10
  6
CONTINUOUS
 62
     7
100
AcDbLine
 10
1014.500000000001
 20
769.6828676885009
 30
0.0
 11
1022.6304473783
 21
777.8133150668007
 31
0.0
  0
LINE
  5
2D5
330
1F
100
AcDbEntity
  8
LAY-10
  6
CONTINUOUS
 62
     7
100
AcDbLine
 10
1014.500000000001
 20
766.8544405638008
 30
0.0
 11
1019.500000000001
 21
771.8544405638008
 31
0.0
  0
LINE
  5
2D6
330
1F
100
AcDbEntity
  8
LAY-10
  6
CONTINUOUS
 62
     7
100
AcDbLine
 10
1021.458874503
 20
773.8133150668009
 30
0.0
 11
1023.500000000001
 21
775.8544405638006
 31
0.0
  0
LINE
  5
2D7
330
1F
100
AcDbEntity
  8
LAY-10
  6
CONTINUOUS
 62
     7
100
AcDbLine
 10
1014.500000000001
 20
764.0260134390008
 30
0.0
 11
1019.500000000001
 21
769.0260134390008
 31
0.0
  0
LINE
  5
2D8
330
1F
100
AcDbEntity
  8
LAY-10
  6
CONTINUOUS
 62
     7
100
AcDbLine
 10
1015.9441558773
 20
759.8133150668009
 30
0.0
 11
1019.500000000001
 21
763.3691591895008
 31
0.0
  0
LINE
  5
2D9
330
1F
100
AcDbEntity
  8
LAY-10
  6
CONTINUOUS
 62
     7
100
AcDbLine
 10
1014.500000000001
 20
761.1975863143008
 30
0.0
 11
1019.500000000001
 21
766.1975863143008
 31
0.0
  0
LINE
  5
2DA
330
1F
100
AcDbEntity
  8
LAY-10
  6
CONTINUOUS
 62
     7
100
AcDbLine
 10
1010.5
 20
774.1681490627009
 30
0.0
 11
1020.145166004101
 21
783.8133150668007
 31
0.0
  0
LINE
  5
2DB
330
1F
100
AcDbEntity
  8
LAY-10
  6
CONTINUOUS
 62
     7
100
AcDbLine
 10
1023.250000000001
 20
773.8133150668009
 30
0.0
 11
1019.500000000001
 21
773.8133150668009
 31
0.0
  0
LINE
  5
2DC
330
1F
100
AcDbEntity
  8
LAY-10
  6
CONTINUOUS
 62
     7
100
AcDbLine
 10
1014.500000000001
 20
773.8133150668009
 30
0.0
 11
1010.750000000001
 21
773.8133150668009
 31
0.0
  0
ARC
  5
2DD
330
1F
100
AcDbEntity
  8
LAY-10
  6
CONTINUOUS
 62
     7
100
AcDbCircle
 10
1114.5
 20
784.5999285724009
 30
0.0
 40
3.000000000000001
100
AcDbArc
 50
270.0
 51
0.0
  0
ARC
  5
2DE
330
1F
100
AcDbEntity
  8
LAY-10
  6
CONTINUOUS
 62
     7
100
AcDbCircle
 10
1110.5
 20
784.5999285724009
 30
0.0
 40
3.000000000000001
100
AcDbArc
 50
180.0
 51
270.0
  0
ARC
  5
2DF
330
1F
100
AcDbEntity
  8
LAY-10
  6
CONTINUOUS
 62
     7
100
AcDbCircle
 10
1020.134953703701
 20
777.9078752520008
 30
0.0
 40
6.13568240501
100
AcDbArc
 50
105.7458658882996
 51
180.8830499458994
  0
ARC
  5
2E0
330
1F
100
AcDbEntity
  8
LAY-10
  6
CONTINUOUS
 62
     7
100
AcDbCircle
 10
1022.6632699515
 20
778.6289611472007
 30
0.0
 40
4.7340643393
100
AcDbArc
 50
78.61476286586046
 51
189.9211649418994
  0
LINE
  5
2E1
330
1F
100
AcDbEntity
  8
LAY-10
  6
CONTINUOUS
 62
     7
100
AcDbLine
 10
1024.128604651201
 20
783.8133150668007
 30
0.0
 11
1023.5977967698
 21
783.2698689026007
 31
0.0
  0
LINE
  5
2E2
330
1F
100
AcDbEntity
  8
LAY-10
  6
CONTINUOUS
 62
     7
100
AcDbLine
 10
1485.500000000001
 20
759.8133150668009
 30
0.0
 11
1485.500000000001
 21
773.8133150668009
 31
0.0
  0
LINE
  5
2E3
330
1F
100
AcDbEntity
  8
LAY-10
  6
CONTINUOUS
 62
     7
100
AcDbLine
 10
1480.500000000001
 20
773.8133150668009
 30
0.0
 11
1480.500000000001
 21
759.8133150668009
 31
0.0
  0
LINE
  5
2E4
330
1F
100
AcDbEntity
  8
LAY-10
  6
CONTINUOUS
 62
     7
100
AcDbLine
 10
1485.500000000001
 20
759.8133150668009
 30
0.0
 11
1480.500000000001
 21
759.8133150668009
 31
0.0
  0
LINE
  5
2E5
330
1F
100
AcDbEntity
  8
LAY-10
  6
CONTINUOUS
 62
     7
100
AcDbLine
 10
1480.500000000001
 20
761.8133150668008
 30
0.0
 11
1480.500000000001
 21
773.8133150668009
 31
0.0
  0
LINE
  5
2E6
330
1F
100
AcDbEntity
  8
LAY-10
  6
CONTINUOUS
 62
     7
100
AcDbLine
 10
1485.500000000001
 20
761.8133150668008
 30
0.0
 11
1485.500000000001
 21
773.8133150668009
 31
0.0
  0
LINE
  5
2E7
330
1F
100
AcDbEntity
  8
LAY-10
  6
CONTINUOUS
 62
     7
100
AcDbLine
 10
1480.500000000001
 20
773.8133150668009
 30
0.0
 11
1476.500000000001
 21
773.8133150668009
 31
0.0
  0
LINE
  5
2E8
330
1F
100
AcDbEntity
  8
LAY-10
  6
CONTINUOUS
 62
     7
100
AcDbLine
 10
1485.500000000001
 20
773.8133150668009
 30
0.0
 11
1489.500000000001
 21
773.8133150668009
 31
0.0
  0
LINE
  5
2E9
330
1F
100
AcDbEntity
  8
LAY-10
  6
CONTINUOUS
 62
     7
100
AcDbLine
 10
1489.500000000001
 20
773.8133150668009
 30
0.0
 11
1489.500000000001
 21
777.8133150668007
 31
0.0
  0
LINE
  5
2EA
330
1F
100
AcDbEntity
  8
LAY-10
  6
CONTINUOUS
 62
     7
100
AcDbLine
 10
1476.500000000001
 20
773.8133150668009
 30
0.0
 11
1476.500000000001
 21
777.8133150668007
 31
0.0
  0
LINE
  5
2EB
330
1F
100
AcDbEntity
  8
LAY-10
  6
CONTINUOUS
 62
     7
100
AcDbLine
 10
1489.500000000001
 20
777.8133150668007
 30
0.0
 11
1486.000000000001
 21
777.8133150668007
 31
0.0
  0
LINE
  5
2EC
330
1F
100
AcDbEntity
  8
LAY-10
  6
CONTINUOUS
 62
     7
100
AcDbLine
 10
1476.500000000001
 20
777.8133150668007
 30
0.0
 11
1482.000000000001
 21
777.8133150668007
 31
0.0
  0
LINE
  5
2ED
330
1F
100
AcDbEntity
  8
LAY-10
  6
CONTINUOUS
 62
     7
100
AcDbLine
 10
1489.500000000001
 20
776.9965761875009
 30
0.0
 11
1488.683261121001
 21
777.8133150668007
 31
0.0
  0
LINE
  5
2EE
330
1F
100
AcDbEntity
  8
LAY-10
  6
CONTINUOUS
 62
     7
100
AcDbLine
 10
1487.026406871001
 20
773.8133150668009
 30
0.0
 11
1482.000000000001
 21
778.8397219380008
 31
0.0
  0
LINE
  5
2EF
330
1F
100
AcDbEntity
  8
LAY-10
  6
CONTINUOUS
 62
     7
100
AcDbLine
 10
1485.500000000001
 20
772.5112948132008
 30
0.0
 11
1480.197979746001
 21
777.8133150668007
 31
0.0
  0
LINE
  5
2F0
330
1F
100
AcDbEntity
  8
LAY-10
  6
CONTINUOUS
 62
     7
100
AcDbLine
 10
1485.500000000001
 20
769.6828676885009
 30
0.0
 11
1477.369552622001
 21
777.8133150668007
 31
0.0
  0
LINE
  5
2F1
330
1F
100
AcDbEntity
  8
LAY-10
  6
CONTINUOUS
 62
     7
100
AcDbLine
 10
1485.500000000001
 20
766.8544405638008
 30
0.0
 11
1480.500000000001
 21
771.8544405638008
 31
0.0
  0
LINE
  5
2F2
330
1F
100
AcDbEntity
  8
LAY-10
  6
CONTINUOUS
 62
     7
100
AcDbLine
 10
1478.541125497001
 20
773.8133150668009
 30
0.0
 11
1476.500000000001
 21
775.8544405638006
 31
0.0
  0
LINE
  5
2F3
330
1F
100
AcDbEntity
  8
LAY-10
  6
CONTINUOUS
 62
     7
100
AcDbLine
 10
1485.500000000001
 20
764.0260134390008
 30
0.0
 11
1480.500000000001
 21
769.0260134390008
 31
0.0
  0
LINE
  5
2F4
330
1F
100
AcDbEntity
  8
LAY-10
  6
CONTINUOUS
 62
     7
100
AcDbLine
 10
1484.055844123001
 20
759.8133150668009
 30
0.0
 11
1480.500000000001
 21
763.3691591895008
 31
0.0
  0
LINE
  5
2F5
330
1F
100
AcDbEntity
  8
LAY-10
  6
CONTINUOUS
 62
     7
100
AcDbLine
 10
1485.500000000001
 20
761.1975863143008
 30
0.0
 11
1480.500000000001
 21
766.1975863143008
 31
0.0
  0
LINE
  5
2F6
330
1F
100
AcDbEntity
  8
LAY-10
  6
CONTINUOUS
 62
     7
100
AcDbLine
 10
1489.500000000001
 20
774.1681490627009
 30
0.0
 11
1479.854833996001
 21
783.8133150668007
 31
0.0
  0
LINE
  5
2F7
330
1F
100
AcDbEntity
  8
LAY-10
  6
CONTINUOUS
 62
     7
100
AcDbLine
 10
1476.750000000001
 20
773.8133150668009
 30
0.0
 11
1480.500000000001
 21
773.8133150668009
 31
0.0
  0
LINE
  5
2F8
330
1F
100
AcDbEntity
  8
LAY-10
  6
CONTINUOUS
 62
     7
100
AcDbLine
 10
1485.500000000001
 20
773.8133150668009
 30
0.0
 11
1489.250000000001
 21
773.8133150668009
 31
0.0
  0
ARC
  5
2F9
330
1F
100
AcDbEntity
  8
LAY-10
  6
CONTINUOUS
 62
     7
100
AcDbCircle
 10
1477.336730049001
 20
778.6289611472007
 30
0.0
 40
4.7340643393
100
AcDbArc
 50
350.0788350581007
 51
101.3852371341017
  0
LINE
  5
2FA
330
1F
100
AcDbEntity
  8
LAY-10
  6
CONTINUOUS
 62
     7
100
AcDbLine
 10
1475.871395349001
 20
783.8133150668007
 30
0.0
 11
1476.40220323
 21
783.2698689026007
 31
0.0
  0
ARC
  5
2FB
330
1F
100
AcDbEntity
  8
LAY-10
  6
CONTINUOUS
 62
     7
100
AcDbCircle
 10
1479.865046296001
 20
777.9078752520008
 30
0.0
 40
6.13568240501
100
AcDbArc
 50
359.1169500541006
 51
74.25413411172254
  0
LINE
  5
2FC
330
1F
100
AcDbEntity
  8
LAY-10
  6
CONTINUOUS
 62
     7
100
AcDbLine
 10
970.6361981619025
 20
755.0522259485925
 30
0.0
 11
747.5000000000008
 21
755.0522259485925
 31
0.0
  0
LINE
  5
2FD
330
1F
100
AcDbEntity
  8
LAY-10
  6
CONTINUOUS
 62
     7
100
AcDbLine
 10
905.0000000000006
 20
770.0522259485925
 30
0.0
 11
905.0000000000006
 21
769.5522259485929
 31
0.0
  0
LINE
  5
2FE
330
1F
100
AcDbEntity
  8
LAY-10
  6
CONTINUOUS
 62
     7
100
AcDbLine
 10
905.0000000000006
 20
769.5522259485929
 30
0.0
 11
960.4166481301007
 21
769.4233500227089
 31
0.0
  0
ARC
  5
2FF
330
1F
100
AcDbEntity
  8
LAY-10
  6
CONTINUOUS
 62
     7
100
AcDbCircle
 10
960.3933923790345
 20
759.4233770642434
 30
0.0
 40
10.0
100
AcDbArc
 50
3.000000000081195
 51
89.86675424134403
  0
ARC
  5
300
330
1F
100
AcDbEntity
  8
LAY-10
  6
CONTINUOUS
 62
     7
100
AcDbCircle
 10
980.8458696381399
 20
751.3133150668007
 30
0.0
 40
10.0
100
AcDbArc
 50
183.0000000000826
 51
270.0
  0
ARC
  5
301
330
1F
100
AcDbEntity
  8
LAY-10
  6
CONTINUOUS
 62
     7
100
AcDbCircle
 10
1519.154130363523
 20
751.3133150668007
 30
0.0
 40
10.0
100
AcDbArc
 50
270.0
 51
357.0000000020274
  0
ARC
  5
302
330
1F
100
AcDbEntity
  8
LAY-10
  6
CONTINUOUS
 62
     7
100
AcDbCircle
 10
1539.606607622291
 20
759.4233770642463
 30
0.0
 40
10.0
100
AcDbArc
 50
90.13324575865592
 51
177.0000000020269
  0
LINE
  5
303
330
1F
100
AcDbEntity
  8
LAY-10
  6
CONTINUOUS
 62
     7
100
AcDbLine
 10
1011.705014740137
 20
1634.834957055042
 30
0.0
 11
957.9648993699599
 21
1581.094841684863
 31
0.0
  0
LINE
  5
304
330
1F
100
AcDbEntity
  8
LAY-10
  6
CONTINUOUS
 62
     7
100
AcDbLine
 10
931.0948416848709
 20
1607.964899369952
 30
0.0
 11
984.8349570550479
 21
1661.70501474013
 31
0.0
  0
LINE
  5
305
330
1F
100
AcDbEntity
  8
LAY-10
  6
CONTINUOUS
 62
     7
100
AcDbLine
 10
984.8349570550479
 20
1661.70501474013
 30
0.0
 11
1011.705014740137
 21
1634.834957055042
 31
0.0
  0
LINE
  5
306
330
1F
100
AcDbEntity
  8
LAY-10
  6
CONTINUOUS
 62
     7
100
AcDbLine
 10
931.0948416848705
 20
1607.964899369952
 30
0.0
 11
957.9648993699599
 21
1581.094841684863
 31
0.0
  0
LINE
  5
307
330
1F
100
AcDbEntity
  8
LAY-10
  6
CONTINUOUS
 62
     7
100
AcDbLine
 10
934.9839289813971
 20
1611.853986666479
 30
0.0
 11
961.8539866664863
 21
1584.98392898139
 31
0.0
  0
LINE
  5
308
330
1F
100
AcDbEntity
  8
LAY-10
  6
CONTINUOUS
 62
     7
100
AcDbLine
 10
1007.815927443611
 20
1630.945869758516
 30
0.0
 11
980.9458697585222
 21
1657.815927443605
 31
0.0
  0
LINE
  5
309
330
1F
100
AcDbEntity
  8
LAY-10
  6
CONTINUOUS
 62
     7
100
AcDbLine
 10
980.5923163679296
 20
1603.722258682834
 30
0.0
 11
953.7222586828406
 21
1630.592316367922
 31
0.0
  0
LINE
  5
30A
330
1F
100
AcDbEntity
  8
LAY-10
  6
CONTINUOUS
 62
     7
100
AcDbLine
 10
989.0775977421678
 20
1612.207540057072
 30
0.0
 11
962.2075400570787
 21
1639.077597742161
 31
0.0
  0
LINE
  5
30B
330
1F
100
AcDbEntity
  8
LAY-10
  6
CONTINUOUS
 62
     7
100
AcDbLine
 10
1269.000000000005
 20
1544.0
 30
0.0
 11
1269.000000000006
 21
1468.0
 31
0.0
  0
LINE
  5
30C
330
1F
100
AcDbEntity
  8
LAY-10
  6
CONTINUOUS
 62
     7
100
AcDbLine
 10
1231.000000000005
 20
1468.0
 30
0.0
 11
1231.000000000004
 21
1544.0
 31
0.0
  0
LINE
  5
30D
330
1F
100
AcDbEntity
  8
LAY-10
  6
CONTINUOUS
 62
     7
100
AcDbLine
 10
1231.000000000004
 20
1544.0
 30
0.0
 11
1269.000000000005
 21
1544.0
 31
0.0
  0
LINE
  5
30E
330
1F
100
AcDbEntity
  8
LAY-10
  6
CONTINUOUS
 62
     7
100
AcDbLine
 10
1231.000000000005
 20
1468.0
 30
0.0
 11
1269.000000000006
 21
1468.0
 31
0.0
  0
LINE
  5
30F
330
1F
100
AcDbEntity
  8
LAY-10
  6
CONTINUOUS
 62
     7
100
AcDbLine
 10
1231.000000000005
 20
1473.5
 30
0.0
 11
1269.000000000005
 21
1473.500000000001
 31
0.0
  0
LINE
  5
310
330
1F
100
AcDbEntity
  8
LAY-10
  6
CONTINUOUS
 62
     7
100
AcDbLine
 10
1269.000000000005
 20
1538.500000000001
 30
0.0
 11
1231.000000000005
 21
1538.500000000001
 31
0.0
  0
LINE
  5
311
330
1F
100
AcDbEntity
  8
LAY-10
  6
CONTINUOUS
 62
     7
100
AcDbLine
 10
1269.000000000005
 20
1500.000000000001
 30
0.0
 11
1231.000000000005
 21
1500.000000000001
 31
0.0
  0
LINE
  5
312
330
1F
100
AcDbEntity
  8
LAY-10
  6
CONTINUOUS
 62
     7
100
AcDbLine
 10
1269.000000000005
 20
1512.000000000001
 30
0.0
 11
1231.000000000005
 21
1512.0
 31
0.0
  0
LINE
  5
313
330
1F
100
AcDbEntity
  8
LAY-10
  6
CONTINUOUS
 62
     7
100
AcDbLine
 10
1488.294985259864
 20
1634.834957055042
 30
0.0
 11
1542.035100630041
 21
1581.094841684863
 31
0.0
  0
LINE
  5
314
330
1F
100
AcDbEntity
  8
LAY-10
  6
CONTINUOUS
 62
     7
100
AcDbLine
 10
1568.90515831513
 20
1607.964899369953
 30
0.0
 11
1515.165042944953
 21
1661.705014740131
 31
0.0
  0
LINE
  5
315
330
1F
100
AcDbEntity
  8
LAY-10
  6
CONTINUOUS
 62
     7
100
AcDbLine
 10
1515.165042944953
 20
1661.705014740131
 30
0.0
 11
1488.294985259864
 21
1634.834957055042
 31
0.0
  0
LINE
  5
316
330
1F
100
AcDbEntity
  8
LAY-10
  6
CONTINUOUS
 62
     7
100
AcDbLine
 10
1568.90515831513
 20
1607.964899369952
 30
0.0
 11
1542.035100630041
 21
1581.094841684863
 31
0.0
  0
LINE
  5
317
330
1F
100
AcDbEntity
  8
LAY-10
  6
CONTINUOUS
 62
     7
100
AcDbLine
 10
1565.016071018604
 20
1611.853986666479
 30
0.0
 11
1538.146013333514
 21
1584.98392898139
 31
0.0
  0
LINE
  5
318
330
1F
100
AcDbEntity
  8
LAY-10
  6
CONTINUOUS
 62
     7
100
AcDbLine
 10
1492.18407255639
 20
1630.945869758516
 30
0.0
 11
1519.054130241479
 21
1657.815927443605
 31
0.0
  0
LINE
  5
319
330
1F
100
AcDbEntity
  8
LAY-10
  6
CONTINUOUS
 62
     7
100
AcDbLine
 10
1519.407683632071
 20
1603.722258682834
 30
0.0
 11
1546.27774131716
 21
1630.592316367923
 31
0.0
  0
LINE
  5
31A
330
1F
100
AcDbEntity
  8
LAY-10
  6
CONTINUOUS
 62
     7
100
AcDbLine
 10
1510.922402257833
 20
1612.207540057073
 30
0.0
 11
1537.792459942922
 21
1639.077597742161
 31
0.0
  0
LINE
  5
31B
330
1F
100
AcDbEntity
  8
LAY-10
  6
CONTINUOUS
 62
     7
100
AcDbLine
 10
1606.0
 20
1880.999999999996
 30
0.0
 11
1682.000000000001
 21
1880.999999999995
 31
0.0
  0
LINE
  5
31C
330
1F
100
AcDbEntity
  8
LAY-10
  6
CONTINUOUS
 62
     7
100
AcDbLine
 10
1682.000000000001
 20
1918.999999999995
 30
0.0
 11
1606.000000000001
 21
1918.999999999996
 31
0.0
  0
LINE
  5
31D
330
1F
100
AcDbEntity
  8
LAY-10
  6
CONTINUOUS
 62
     7
100
AcDbLine
 10
1606.000000000001
 20
1918.999999999996
 30
0.0
 11
1606.0
 21
1880.999999999996
 31
0.0
  0
LINE
  5
31E
330
1F
100
AcDbEntity
  8
LAY-10
  6
CONTINUOUS
 62
     7
100
AcDbLine
 10
1682.000000000001
 20
1918.999999999995
 30
0.0
 11
1682.000000000001
 21
1880.999999999995
 31
0.0
  0
LINE
  5
31F
330
1F
100
AcDbEntity
  8
LAY-10
  6
CONTINUOUS
 62
     7
100
AcDbLine
 10
1676.5
 20
1918.999999999995
 30
0.0
 11
1676.5
 21
1880.999999999995
 31
0.0
  0
LINE
  5
320
330
1F
100
AcDbEntity
  8
LAY-10
  6
CONTINUOUS
 62
     7
100
AcDbLine
 10
1611.5
 20
1880.999999999996
 30
0.0
 11
1611.5
 21
1918.999999999996
 31
0.0
  0
LINE
  5
321
330
1F
100
AcDbEntity
  8
LAY-10
  6
CONTINUOUS
 62
     7
100
AcDbLine
 10
1650.0
 20
1880.999999999996
 30
0.0
 11
1650.0
 21
1918.999999999996
 31
0.0
  0
LINE
  5
322
330
1F
100
AcDbEntity
  8
LAY-10
  6
CONTINUOUS
 62
     7
100
AcDbLine
 10
1638.0
 20
1880.999999999996
 30
0.0
 11
1638.000000000001
 21
1918.999999999996
 31
0.0
  0
LINE
  5
323
330
1F
100
AcDbEntity
  8
LAY-10
  6
CONTINUOUS
 62
     7
100
AcDbLine
 10
1568.90515831513
 20
2192.035100630048
 30
0.0
 11
1542.035100630041
 21
2218.905158315137
 31
0.0
  0
LINE
  5
324
330
1F
100
AcDbEntity
  8
LAY-10
  6
CONTINUOUS
 62
     7
100
AcDbLine
 10
1515.165042944953
 20
2138.29498525987
 30
0.0
 11
1488.294985259864
 21
2165.165042944959
 31
0.0
  0
LINE
  5
325
330
1F
100
AcDbEntity
  8
LAY-10
  6
CONTINUOUS
 62
     7
100
AcDbLine
 10
1488.294985259864
 20
2165.165042944959
 30
0.0
 11
1542.035100630041
 21
2218.905158315137
 31
0.0
  0
LINE
  5
326
330
1F
100
AcDbEntity
  8
LAY-10
  6
CONTINUOUS
 62
     7
100
AcDbLine
 10
1568.90515831513
 20
2192.035100630048
 30
0.0
 11
1515.165042944953
 21
2138.29498525987
 31
0.0
  0
LINE
  5
327
330
1F
100
AcDbEntity
  8
LAY-10
  6
CONTINUOUS
 62
     7
100
AcDbLine
 10
1565.016071018604
 20
2188.146013333522
 30
0.0
 11
1538.146013333514
 21
2215.016071018611
 31
0.0
  0
LINE
  5
328
330
1F
100
AcDbEntity
  8
LAY-10
  6
CONTINUOUS
 62
     7
100
AcDbLine
 10
1492.18407255639
 20
2169.054130241484
 30
0.0
 11
1519.054130241479
 21
2142.184072556396
 31
0.0
  0
LINE
  5
329
330
1F
100
AcDbEntity
  8
LAY-10
  6
CONTINUOUS
 62
     7
100
AcDbLine
 10
1519.407683632071
 20
2196.277741317167
 30
0.0
 11
1546.27774131716
 21
2169.407683632078
 31
0.0
  0
LINE
  5
32A
330
1F
100
AcDbEntity
  8
LAY-10
  6
CONTINUOUS
 62
     7
100
AcDbLine
 10
1510.922402257833
 20
2187.792459942928
 30
0.0
 11
1537.792459942922
 21
2160.92240225784
 31
0.0
  0
LINE
  5
32B
330
1F
100
AcDbEntity
  8
LAY-10
  6
CONTINUOUS
 62
     7
100
AcDbLine
 10
1230.999999999996
 20
2256.0
 30
0.0
 11
1230.999999999995
 21
2332.000000000001
 31
0.0
  0
LINE
  5
32C
330
1F
100
AcDbEntity
  8
LAY-10
  6
CONTINUOUS
 62
     7
100
AcDbLine
 10
1268.999999999996
 20
2332.0
 30
0.0
 11
1268.999999999996
 21
2256.000000000001
 31
0.0
  0
LINE
  5
32D
330
1F
100
AcDbEntity
  8
LAY-10
  6
CONTINUOUS
 62
     7
100
AcDbLine
 10
1268.999999999996
 20
2256.000000000001
 30
0.0
 11
1230.999999999996
 21
2256.0
 31
0.0
  0
LINE
  5
32E
330
1F
100
AcDbEntity
  8
LAY-10
  6
CONTINUOUS
 62
     7
100
AcDbLine
 10
1268.999999999996
 20
2332.0
 30
0.0
 11
1230.999999999995
 21
2332.000000000001
 31
0.0
  0
LINE
  5
32F
330
1F
100
AcDbEntity
  8
LAY-10
  6
CONTINUOUS
 62
     7
100
AcDbLine
 10
1268.999999999995
 20
2326.5
 30
0.0
 11
1230.999999999995
 21
2326.5
 31
0.0
  0
LINE
  5
330
330
1F
100
AcDbEntity
  8
LAY-10
  6
CONTINUOUS
 62
     7
100
AcDbLine
 10
1230.999999999996
 20
2261.5
 30
0.0
 11
1268.999999999996
 21
2261.5
 31
0.0
  0
LINE
  5
331
330
1F
100
AcDbEntity
  8
LAY-10
  6
CONTINUOUS
 62
     7
100
AcDbLine
 10
1230.999999999996
 20
2300.0
 30
0.0
 11
1268.999999999996
 21
2300.0
 31
0.0
  0
LINE
  5
332
330
1F
100
AcDbEntity
  8
LAY-10
  6
CONTINUOUS
 62
     7
100
AcDbLine
 10
1230.999999999996
 20
2288.0
 30
0.0
 11
1268.999999999996
 21
2288.0
 31
0.0
  0
LINE
  5
333
330
1F
100
AcDbEntity
  8
LAY-10
  6
CONTINUOUS
 62
     7
100
AcDbLine
 10
1011.705014740137
 20
2165.165042944958
 30
0.0
 11
957.9648993699597
 21
2218.905158315137
 31
0.0
  0
LINE
  5
334
330
1F
100
AcDbEntity
  8
LAY-10
  6
CONTINUOUS
 62
     7
100
AcDbLine
 10
931.0948416848705
 20
2192.035100630048
 30
0.0
 11
984.8349570550477
 21
2138.29498525987
 31
0.0
  0
LINE
  5
335
330
1F
100
AcDbEntity
  8
LAY-10
  6
CONTINUOUS
 62
     7
100
AcDbLine
 10
984.8349570550477
 20
2138.29498525987
 30
0.0
 11
1011.705014740137
 21
2165.165042944958
 31
0.0
  0
LINE
  5
336
330
1F
100
AcDbEntity
  8
LAY-10
  6
CONTINUOUS
 62
     7
100
AcDbLine
 10
931.0948416848705
 20
2192.035100630048
 30
0.0
 11
957.9648993699597
 21
2218.905158315137
 31
0.0
  0
LINE
  5
337
330
1F
100
AcDbEntity
  8
LAY-10
  6
CONTINUOUS
 62
     7
100
AcDbLine
 10
934.9839289813971
 20
2188.146013333522
 30
0.0
 11
961.8539866664862
 21
2215.016071018611
 31
0.0
  0
LINE
  5
338
330
1F
100
AcDbEntity
  8
LAY-10
  6
CONTINUOUS
 62
     7
100
AcDbLine
 10
1007.815927443611
 20
2169.054130241484
 30
0.0
 11
980.9458697585222
 21
2142.184072556396
 31
0.0
  0
LINE
  5
339
330
1F
100
AcDbEntity
  8
LAY-10
  6
CONTINUOUS
 62
     7
100
AcDbLine
 10
980.5923163679291
 20
2196.277741317167
 30
0.0
 11
953.7222586828403
 21
2169.407683632078
 31
0.0
  0
LINE
  5
33A
330
1F
100
AcDbEntity
  8
LAY-10
  6
CONTINUOUS
 62
     7
100
AcDbLine
 10
989.0775977421677
 20
2187.792459942928
 30
0.0
 11
962.2075400570785
 21
2160.92240225784
 31
0.0
  0
LINE
  5
33B
330
1F
100
AcDbEntity
  8
LAY-10
  6
CONTINUOUS
 62
     7
100
AcDbLine
 10
894.0000000000006
 20
1919.000000000005
 30
0.0
 11
818.0000000000001
 21
1919.000000000006
 31
0.0
  0
LINE
  5
33C
330
1F
100
AcDbEntity
  8
LAY-10
  6
CONTINUOUS
 62
     7
100
AcDbLine
 10
817.9999999999999
 20
1881.000000000005
 30
0.0
 11
893.9999999999999
 21
1881.000000000005
 31
0.0
  0
LINE
  5
33D
330
1F
100
AcDbEntity
  8
LAY-10
  6
CONTINUOUS
 62
     7
100
AcDbLine
 10
893.9999999999999
 20
1881.000000000005
 30
0.0
 11
894.0000000000003
 21
1919.000000000005
 31
0.0
  0
LINE
  5
33E
330
1F
100
AcDbEntity
  8
LAY-10
  6
CONTINUOUS
 62
     7
100
AcDbLine
 10
817.9999999999997
 20
1881.000000000005
 30
0.0
 11
818.0000000000001
 21
1919.000000000006
 31
0.0
  0
LINE
  5
33F
330
1F
100
AcDbEntity
  8
LAY-10
  6
CONTINUOUS
 62
     7
100
AcDbLine
 10
823.5000000000003
 20
1881.000000000005
 30
0.0
 11
823.5000000000008
 21
1919.000000000006
 31
0.0
  0
LINE
  5
340
330
1F
100
AcDbEntity
  8
LAY-10
  6
CONTINUOUS
 62
     7
100
AcDbLine
 10
888.5000000000008
 20
1919.000000000005
 30
0.0
 11
888.5000000000003
 21
1881.000000000005
 31
0.0
  0
LINE
  5
341
330
1F
100
AcDbEntity
  8
LAY-10
  6
CONTINUOUS
 62
     7
100
AcDbLine
 10
850.0000000000008
 20
1919.000000000005
 30
0.0
 11
850.0000000000006
 21
1881.000000000005
 31
0.0
  0
LINE
  5
342
330
1F
100
AcDbEntity
  8
LAY-10
  6
CONTINUOUS
 62
     7
100
AcDbLine
 10
862.0000000000007
 20
1919.000000000005
 30
0.0
 11
862.0000000000002
 21
1881.000000000005
 31
0.0
  0
LINE
  5
343
330
1F
100
AcDbEntity
  8
LAY-10
  6
CONTINUOUS
 62
     7
100
AcDbLine
 10
772.3776336359094
 20
2011.958369439657
 30
0.0
 11
821.1680015377812
 21
2060.748737341529
 31
0.0
  0
LINE
  5
344
330
1F
100
AcDbEntity
  8
LAY-10
  6
CONTINUOUS
 62
     7
100
AcDbLine
 10
780.8629150101478
 20
2003.473088065419
 30
0.0
 11
829.6532829120198
 21
2052.263455967291
 31
0.0
  0
LINE
  5
345
330
1F
100
AcDbEntity
  8
LAY-10
  6
CONTINUOUS
 62
     7
100
AcDbLine
 10
845.2096320981241
 20
2052.263455967291
 30
0.0
 11
821.1680015377812
 21
2076.305086527634
 31
0.0
  0
LINE
  5
346
330
1F
100
AcDbEntity
  8
LAY-10
  6
CONTINUOUS
 62
     7
100
AcDbLine
 10
788.6410896031998
 20
1995.694913472367
 30
0.0
 11
780.8629150101478
 21
2003.473088065419
 31
0.0
  0
LINE
  5
347
330
1F
100
AcDbEntity
  8
LAY-10
  6
CONTINUOUS
 62
     7
100
AcDbLine
 10
821.1680015377814
 20
2076.305086527633
 30
0.0
 11
764.5994590428575
 21
2019.736544032709
 31
0.0
  0
LINE
  5
348
330
1F
100
AcDbEntity
  8
LAY-10
  6
CONTINUOUS
 62
     7
100
AcDbLine
 10
788.6410896031998
 20
1995.694913472367
 30
0.0
 11
845.2096320981241
 21
2052.263455967291
 31
0.0
  0
LINE
  5
349
330
1F
100
AcDbEntity
  8
LAY-10
  6
CONTINUOUS
 62
     7
100
AcDbLine
 10
829.6532829120196
 20
2052.263455967291
 30
0.0
 11
821.1680015377812
 21
2060.748737341529
 31
0.0
  0
LINE
  5
34A
330
1F
100
AcDbEntity
  8
LAY-10
  6
CONTINUOUS
 62
     7
100
AcDbLine
 10
772.3776336359091
 20
2011.958369439657
 30
0.0
 11
764.5994590428571
 21
2019.736544032709
 31
0.0
  0
LINE
  5
34B
330
1F
100
AcDbEntity
  8
LAY-10
  6
CONTINUOUS
 62
     7
100
AcDbLine
 10
821.1680015377814
 20
2011.251262658471
 30
0.0
 11
764.5994590428575
 21
1954.682720163546
 31
0.0
  0
LINE
  5
34C
330
1F
100
AcDbEntity
  8
LAY-10
  6
CONTINUOUS
 62
     7
100
AcDbLine
 10
788.6410896031998
 20
1930.641089603204
 30
0.0
 11
845.2096320981241
 21
1987.209632098128
 31
0.0
  0
LINE
  5
34D
330
1F
100
AcDbEntity
  8
LAY-10
  6
CONTINUOUS
 62
     7
100
AcDbLine
 10
829.6532829120196
 20
1987.209632098128
 30
0.0
 11
821.1680015377812
 21
1995.694913472366
 31
0.0
  0
LINE
  5
34E
330
1F
100
AcDbEntity
  8
LAY-10
  6
CONTINUOUS
 62
     7
100
AcDbLine
 10
845.2096320981241
 20
1987.209632098128
 30
0.0
 11
821.1680015377812
 21
2011.251262658471
 31
0.0
  0
LINE
  5
34F
330
1F
100
AcDbEntity
  8
LAY-10
  6
CONTINUOUS
 62
     7
100
AcDbLine
 10
772.3776336359094
 20
1946.904545570495
 30
0.0
 11
821.1680015377812
 21
1995.694913472366
 31
0.0
  0
LINE
  5
350
330
1F
100
AcDbEntity
  8
LAY-10
  6
CONTINUOUS
 62
     7
100
AcDbLine
 10
780.8629150101478
 20
1938.419264196256
 30
0.0
 11
829.6532829120198
 21
1987.209632098128
 31
0.0
  0
LINE
  5
351
330
1F
100
AcDbEntity
  8
LAY-10
  6
CONTINUOUS
 62
     7
100
AcDbLine
 10
772.3776336359091
 20
1946.904545570494
 30
0.0
 11
764.5994590428571
 21
1954.682720163546
 31
0.0
  0
LINE
  5
352
330
1F
100
AcDbEntity
  8
LAY-10
  6
CONTINUOUS
 62
     7
100
AcDbLine
 10
788.6410896031998
 20
1930.641089603204
 30
0.0
 11
780.8629150101478
 21
1938.419264196256
 31
0.0
  0
LINE
  5
353
330
1F
100
AcDbEntity
  8
LAY-10
  6
CONTINUOUS
 62
     7
100
AcDbLine
 10
829.6532829120204
 20
2019.736544032709
 30
0.0
 11
886.2218254069444
 21
1963.168001537784
 31
0.0
  0
LINE
  5
354
330
1F
100
AcDbEntity
  8
LAY-10
  6
CONTINUOUS
 62
     7
100
AcDbLine
 10
910.2634559672873
 20
1987.209632098127
 30
0.0
 11
853.694913472363
 21
2043.778174593051
 31
0.0
  0
LINE
  5
355
330
1F
100
AcDbEntity
  8
LAY-10
  6
CONTINUOUS
 62
     7
100
AcDbLine
 10
853.694913472363
 20
2028.221825406947
 30
0.0
 11
845.2096320981246
 21
2019.736544032708
 31
0.0
  0
LINE
  5
356
330
1F
100
AcDbEntity
  8
LAY-10
  6
CONTINUOUS
 62
     7
100
AcDbLine
 10
853.694913472363
 20
2043.778174593051
 30
0.0
 11
829.6532829120201
 21
2019.736544032708
 31
0.0
  0
LINE
  5
357
330
1F
100
AcDbEntity
  8
LAY-10
  6
CONTINUOUS
 62
     7
100
AcDbLine
 10
893.9999999999964
 20
1970.946176130837
 30
0.0
 11
845.2096320981246
 21
2019.736544032708
 31
0.0
  0
LINE
  5
358
330
1F
100
AcDbEntity
  8
LAY-10
  6
CONTINUOUS
 62
     7
100
AcDbLine
 10
902.4852813742348
 20
1979.431457505075
 30
0.0
 11
853.694913472363
 21
2028.221825406947
 31
0.0
  0
LINE
  5
359
330
1F
100
AcDbEntity
  8
LAY-10
  6
CONTINUOUS
 62
     7
100
AcDbLine
 10
893.9999999999964
 20
1970.946176130836
 30
0.0
 11
886.2218254069444
 21
1963.168001537784
 31
0.0
  0
LINE
  5
35A
330
1F
100
AcDbEntity
  8
LAY-10
  6
CONTINUOUS
 62
     7
100
AcDbLine
 10
910.2634559672873
 20
1987.209632098127
 30
0.0
 11
902.4852813742353
 21
1979.431457505075
 31
0.0
  0
LINE
  5
35B
330
1F
100
AcDbEntity
  8
LAY-10
  6
CONTINUOUS
 62
     7
100
AcDbLine
 10
951.2756492761076
 20
2011.251262658471
 30
0.0
 11
894.7071067811834
 21
1954.682720163546
 31
0.0
  0
LINE
  5
35C
330
1F
100
AcDbEntity
  8
LAY-10
  6
CONTINUOUS
 62
     7
100
AcDbLine
 10
910.2634559672879
 20
1954.682720163546
 30
0.0
 11
918.7487373415263
 21
1946.197438789308
 31
0.0
  0
LINE
  5
35D
330
1F
100
AcDbEntity
  8
LAY-10
  6
CONTINUOUS
 62
     7
100
AcDbLine
 10
894.7071067811834
 20
1954.682720163546
 30
0.0
 11
918.7487373415263
 21
1930.641089603203
 31
0.0
  0
LINE
  5
35E
330
1F
100
AcDbEntity
  8
LAY-10
  6
CONTINUOUS
 62
     7
100
AcDbLine
 10
967.539105243398
 20
1994.987806691179
 30
0.0
 11
918.7487373415263
 21
1946.197438789308
 31
0.0
  0
LINE
  5
35F
330
1F
100
AcDbEntity
  8
LAY-10
  6
CONTINUOUS
 62
     7
100
AcDbLine
 10
959.0538238691596
 20
2003.473088065418
 30
0.0
 11
910.2634559672873
 21
1954.682720163546
 31
0.0
  0
LINE
  5
360
330
1F
100
AcDbEntity
  8
LAY-10
  6
CONTINUOUS
 62
     7
100
AcDbLine
 10
967.539105243398
 20
1994.98780669118
 30
0.0
 11
975.31727983645
 21
1987.209632098127
 31
0.0
  0
LINE
  5
361
330
1F
100
AcDbEntity
  8
LAY-10
  6
CONTINUOUS
 62
     7
100
AcDbLine
 10
951.2756492761076
 20
2011.251262658471
 30
0.0
 11
959.0538238691596
 21
2003.473088065419
 31
0.0
  0
LINE
  5
362
330
1F
100
AcDbEntity
  8
LAY-10
  6
CONTINUOUS
 62
     7
100
AcDbLine
 10
918.7487373415263
 20
1930.641089603203
 30
0.0
 11
975.31727983645
 21
1987.209632098127
 31
0.0
  0
LINE
  5
363
330
1F
100
AcDbEntity
  8
LAY-10
  6
CONTINUOUS
 62
     7
100
AcDbLine
 10
894.7071067811834
 20
2019.736544032709
 30
0.0
 11
918.7487373415263
 21
1995.694913472366
 31
0.0
  0
LINE
  5
364
330
1F
100
AcDbEntity
  8
LAY-10
  6
CONTINUOUS
 62
     7
100
AcDbLine
 10
951.2756492761076
 20
2076.305086527633
 30
0.0
 11
894.7071067811834
 21
2019.736544032709
 31
0.0
  0
LINE
  5
365
330
1F
100
AcDbEntity
  8
LAY-10
  6
CONTINUOUS
 62
     7
100
AcDbLine
 10
910.2634559672879
 20
2019.736544032709
 30
0.0
 11
918.7487373415263
 21
2011.251262658471
 31
0.0
  0
LINE
  5
366
330
1F
100
AcDbEntity
  8
LAY-10
  6
CONTINUOUS
 62
     7
100
AcDbLine
 10
959.0538238691596
 20
2068.526911934581
 30
0.0
 11
910.2634559672873
 21
2019.736544032709
 31
0.0
  0
LINE
  5
367
330
1F
100
AcDbEntity
  8
LAY-10
  6
CONTINUOUS
 62
     7
100
AcDbLine
 10
967.539105243398
 20
2060.041630560343
 30
0.0
 11
918.7487373415263
 21
2011.251262658471
 31
0.0
  0
LINE
  5
368
330
1F
100
AcDbEntity
  8
LAY-10
  6
CONTINUOUS
 62
     7
100
AcDbLine
 10
918.7487373415263
 20
1995.694913472366
 30
0.0
 11
975.31727983645
 21
2052.263455967291
 31
0.0
  0
LINE
  5
369
330
1F
100
AcDbEntity
  8
LAY-10
  6
CONTINUOUS
 62
     7
100
AcDbLine
 10
967.539105243398
 20
2060.041630560343
 30
0.0
 11
975.31727983645
 21
2052.263455967291
 31
0.0
  0
LINE
  5
36A
330
1F
100
AcDbEntity
  8
LAY-10
  6
CONTINUOUS
 62
     7
100
AcDbLine
 10
951.2756492761076
 20
2076.305086527633
 30
0.0
 11
959.0538238691596
 21
2068.526911934581
 31
0.0
  0
LINE
  5
36B
330
1F
100
AcDbEntity
  8
LAY-10
  6
CONTINUOUS
 62
     7
100
AcDbLine
 10
772.3776336359091
 20
2077.012193308821
 30
0.0
 11
764.5994590428571
 21
2084.790367901873
 31
0.0
  0
LINE
  5
36C
330
1F
100
AcDbEntity
  8
LAY-10
  6
CONTINUOUS
 62
     7
100
AcDbLine
 10
772.3776336359094
 20
2077.012193308821
 30
0.0
 11
821.1680015377812
 21
2125.802561210693
 31
0.0
  0
LINE
  5
36D
330
1F
100
AcDbEntity
  8
LAY-10
  6
CONTINUOUS
 62
     7
100
AcDbLine
 10
821.1680015377814
 20
2141.358910396797
 30
0.0
 11
764.5994590428575
 21
2084.790367901873
 31
0.0
  0
LINE
  5
36E
330
1F
100
AcDbEntity
  8
LAY-10
  6
CONTINUOUS
 62
     7
100
AcDbLine
 10
788.6410896031998
 20
2060.74873734153
 30
0.0
 11
780.8629150101478
 21
2068.526911934582
 31
0.0
  0
LINE
  5
36F
330
1F
100
AcDbEntity
  8
LAY-10
  6
CONTINUOUS
 62
     7
100
AcDbLine
 10
780.8629150101478
 20
2068.526911934582
 30
0.0
 11
829.6532829120198
 21
2117.317279836454
 31
0.0
  0
LINE
  5
370
330
1F
100
AcDbEntity
  8
LAY-10
  6
CONTINUOUS
 62
     7
100
AcDbLine
 10
788.6410896031998
 20
2060.74873734153
 30
0.0
 11
845.2096320981241
 21
2117.317279836454
 31
0.0
  0
LINE
  5
371
330
1F
100
AcDbEntity
  8
LAY-10
  6
CONTINUOUS
 62
     7
100
AcDbLine
 10
829.6532829120196
 20
2117.317279836454
 30
0.0
 11
821.1680015377812
 21
2125.802561210693
 31
0.0
  0
LINE
  5
372
330
1F
100
AcDbEntity
  8
LAY-10
  6
CONTINUOUS
 62
     7
100
AcDbLine
 10
845.2096320981241
 20
2117.317279836454
 30
0.0
 11
821.1680015377812
 21
2141.358910396797
 31
0.0
  0
LINE
  5
373
330
1F
100
AcDbEntity
  8
LAY-10
  6
CONTINUOUS
 62
     7
100
AcDbLine
 10
853.694913472363
 20
2108.831998462214
 30
0.0
 11
829.6532829120201
 21
2084.790367901871
 31
0.0
  0
LINE
  5
374
330
1F
100
AcDbEntity
  8
LAY-10
  6
CONTINUOUS
 62
     7
100
AcDbLine
 10
829.6532829120204
 20
2084.790367901872
 30
0.0
 11
886.2218254069444
 21
2028.221825406948
 31
0.0
  0
LINE
  5
375
330
1F
100
AcDbEntity
  8
LAY-10
  6
CONTINUOUS
 62
     7
100
AcDbLine
 10
893.9999999999964
 20
2036.0
 30
0.0
 11
845.2096320981246
 21
2084.790367901871
 31
0.0
  0
LINE
  5
376
330
1F
100
AcDbEntity
  8
LAY-10
  6
CONTINUOUS
 62
     7
100
AcDbLine
 10
853.694913472363
 20
2093.27564927611
 30
0.0
 11
845.2096320981246
 21
2084.790367901871
 31
0.0
  0
LINE
  5
377
330
1F
100
AcDbEntity
  8
LAY-10
  6
CONTINUOUS
 62
     7
100
AcDbLine
 10
910.2634559672873
 20
2052.26345596729
 30
0.0
 11
853.694913472363
 21
2108.831998462214
 31
0.0
  0
LINE
  5
378
330
1F
100
AcDbEntity
  8
LAY-10
  6
CONTINUOUS
 62
     7
100
AcDbLine
 10
902.4852813742348
 20
2044.485281374238
 30
0.0
 11
853.694913472363
 21
2093.27564927611
 31
0.0
  0
LINE
  5
379
330
1F
100
AcDbEntity
  8
LAY-10
  6
CONTINUOUS
 62
     7
100
AcDbLine
 10
910.2634559672873
 20
2052.26345596729
 30
0.0
 11
902.4852813742353
 21
2044.485281374238
 31
0.0
  0
LINE
  5
37A
330
1F
100
AcDbEntity
  8
LAY-10
  6
CONTINUOUS
 62
     7
100
AcDbLine
 10
893.9999999999964
 20
2036.0
 30
0.0
 11
886.2218254069444
 21
2028.221825406948
 31
0.0
  0
LINE
  5
37B
330
1F
100
AcDbEntity
  8
LAY-10
  6
CONTINUOUS
 62
     7
100
AcDbLine
 10
910.2634559672879
 20
2084.790367901873
 30
0.0
 11
918.7487373415263
 21
2076.305086527634
 31
0.0
  0
LINE
  5
37C
330
1F
100
AcDbEntity
  8
LAY-10
  6
CONTINUOUS
 62
     7
100
AcDbLine
 10
894.7071067811834
 20
2084.790367901873
 30
0.0
 11
918.7487373415263
 21
2060.74873734153
 31
0.0
  0
LINE
  5
37D
330
1F
100
AcDbEntity
  8
LAY-10
  6
CONTINUOUS
 62
     7
100
AcDbLine
 10
951.2756492761076
 20
2141.358910396797
 30
0.0
 11
894.7071067811834
 21
2084.790367901873
 31
0.0
  0
LINE
  5
37E
330
1F
100
AcDbEntity
  8
LAY-10
  6
CONTINUOUS
 62
     7
100
AcDbLine
 10
959.0538238691596
 20
2133.580735803745
 30
0.0
 11
910.2634559672873
 21
2084.790367901873
 31
0.0
  0
LINE
  5
37F
330
1F
100
AcDbEntity
  8
LAY-10
  6
CONTINUOUS
 62
     7
100
AcDbLine
 10
967.539105243398
 20
2125.095454429506
 30
0.0
 11
918.7487373415263
 21
2076.305086527634
 31
0.0
  0
LINE
  5
380
330
1F
100
AcDbEntity
  8
LAY-10
  6
CONTINUOUS
 62
     7
100
AcDbLine
 10
918.7487373415263
 20
2060.74873734153
 30
0.0
 11
975.31727983645
 21
2117.317279836454
 31
0.0
  0
LINE
  5
381
330
1F
100
AcDbEntity
  8
LAY-10
  6
CONTINUOUS
 62
     7
100
AcDbLine
 10
967.539105243398
 20
2125.095454429506
 30
0.0
 11
975.31727983645
 21
2117.317279836454
 31
0.0
  0
LINE
  5
382
330
1F
100
AcDbEntity
  8
LAY-10
  6
CONTINUOUS
 62
     7
100
AcDbLine
 10
951.2756492761076
 20
2141.358910396797
 30
0.0
 11
959.0538238691596
 21
2133.580735803745
 31
0.0
  0
LINE
  5
383
330
1F
100
AcDbEntity
  8
LAY-10
  6
CONTINUOUS
 62
     7
100
AcDbLine
 10
1519.1541303635
 20
741.3133150668007
 30
0.0
 11
980.8458696381399
 21
741.3133150668007
 31
0.0
  0
LINE
  5
384
330
1F
100
AcDbEntity
  8
LAY-10
  6
CENTER
 62
     2
100
AcDbLine
 10
613.0000000000005
 20
1900.0
 30
0.0
 11
1884.000000000001
 21
1900.0
 31
0.0
  0
LINE
  5
385
330
1F
100
AcDbEntity
  8
LAY-10
  6
CENTER
 62
     2
100
AcDbLine
 10
1250.0
 20
2528.0
 30
0.0
 11
1250.0
 21
1278.0
 31
0.0
  0
LINE
  5
386
330
1F
100
AcDbEntity
  8
LAY-10
  6
CENTER
 62
     2
100
AcDbLine
 10
1250.0
 20
818.0522259485924
 30
0.0
 11
1250.0
 21
691.0522259485924
 31
0.0
  0
LINE
  5
387
330
1F
100
AcDbEntity
  8
LAY-10
  6
CENTER
 62
     2
100
AcDbLine
 10
1669.900000000001
 20
2425.0
 30
0.0
 11
1640.200000000001
 21
2425.0
 31
0.0
  0
LINE
  5
388
330
1F
100
AcDbEntity
  8
LAY-10
  6
CENTER
 62
     2
100
AcDbLine
 10
1655.0
 20
2440.8
 30
0.0
 11
1655.0
 21
2410.6
 31
0.0
  0
LINE
  5
389
330
1F
100
AcDbEntity
  8
LAY-10
  6
CENTER
 62
     2
100
AcDbLine
 10
725.0000000000008
 20
2319.900000000001
 30
0.0
 11
725.0000000000008
 21
2290.200000000001
 31
0.0
  0
LINE
  5
38A
330
1F
100
AcDbEntity
  8
LAY-10
  6
CENTER
 62
     2
100
AcDbLine
 10
709.2000000000004
 20
2305.000000000001
 30
0.0
 11
739.4000000000008
 21
2305.000000000001
 31
0.0
  0
LINE
  5
38B
330
1F
100
AcDbEntity
  8
LAY-10
  6
CENTER
 62
     2
100
AcDbLine
 10
830.0999999999999
 20
1375.000000000001
 30
0.0
 11
859.7999999999998
 21
1375.000000000001
 31
0.0
  0
LINE
  5
38C
330
1F
100
AcDbEntity
  8
LAY-10
  6
CENTER
 62
     2
100
AcDbLine
 10
845.0
 20
1359.200000000001
 30
0.0
 11
845.0
 21
1389.400000000001
 31
0.0
  0
LINE
  5
38D
330
1F
100
AcDbEntity
  8
LAY-10
  6
CENTER
 62
     2
100
AcDbLine
 10
1775.0
 20
1480.1
 30
0.0
 11
1775.0
 21
1509.8
 31
0.0
  0
LINE
  5
38E
330
1F
100
AcDbEntity
  8
LAY-10
  6
CENTER
 62
     2
100
AcDbLine
 10
1790.8
 20
1495.0
 30
0.0
 11
1760.6
 21
1495.0
 31
0.0
  0
LINE
  5
38F
330
1F
100
AcDbEntity
  8
LAY-10
  6
CENTER
 62
     2
100
AcDbLine
 10
1387.5
 20
1932.0
 30
0.0
 11
1387.5
 21
1865.0
 31
0.0
  0
LINE
  5
390
330
1F
100
AcDbEntity
  8
LAY-10
  6
CENTER
 62
     2
100
AcDbLine
 10
1112.5
 20
1932.0
 30
0.0
 11
1112.5
 21
1865.0
 31
0.0
  0
LINE
  5
391
330
1F
100
AcDbEntity
  8
LAY-10
  6
CENTER
 62
     2
100
AcDbLine
 10
1112.5
 20
804.0133150668007
 30
0.0
 11
1112.5
 21
747.2133150668006
 31
0.0
  0
LINE
  5
392
330
1F
100
AcDbEntity
  8
LAY-10
  6
CENTER
 62
     2
100
AcDbLine
 10
949.5196841536495
 20
1643.280172271351
 30
0.0
 11
993.0056205281837
 21
1599.794235896818
 31
0.0
  0
LINE
  5
393
330
1F
100
AcDbEntity
  8
LAY-10
  6
CENTER
 62
     2
100
AcDbLine
 10
935.6461497687477
 20
1585.64614976874
 30
0.0
 11
1006.84641236832
 21
1656.846412368314
 31
0.0
  0
LINE
  5
394
330
1F
100
AcDbEntity
  8
LAY-10
  6
CENTER
 62
     2
100
AcDbLine
 10
1219.05666210394
 20
1506.0
 30
0.0
 11
1280.555063097299
 21
1506.000000000001
 31
0.0
  0
LINE
  5
395
330
1F
100
AcDbEntity
  8
LAY-10
  6
CENTER
 62
     2
100
AcDbLine
 10
1550.480315846352
 20
1643.280172271351
 30
0.0
 11
1506.994379471817
 21
1599.794235896818
 31
0.0
  0
LINE
  5
396
330
1F
100
AcDbEntity
  8
LAY-10
  6
CENTER
 62
     2
100
AcDbLine
 10
1564.353850231253
 20
1585.64614976874
 30
0.0
 11
1493.153587631681
 21
1656.846412368314
 31
0.0
  0
LINE
  5
397
330
1F
100
AcDbEntity
  8
LAY-10
  6
CENTER
 62
     2
100
AcDbLine
 10
1644.0
 20
1930.943337896061
 30
0.0
 11
1644.0
 21
1869.444936902701
 31
0.0
  0
LINE
  5
398
330
1F
100
AcDbEntity
  8
LAY-10
  6
CENTER
 62
     2
100
AcDbLine
 10
1564.353850231253
 20
2214.35385023126
 30
0.0
 11
1493.153587631681
 21
2143.153587631687
 31
0.0
  0
LINE
  5
399
330
1F
100
AcDbEntity
  8
LAY-10
  6
CENTER
 62
     2
100
AcDbLine
 10
1550.480315846351
 20
2156.719827728649
 30
0.0
 11
1506.994379471817
 21
2200.205764103183
 31
0.0
  0
LINE
  5
39A
330
1F
100
AcDbEntity
  8
LAY-10
  6
CENTER
 62
     2
100
AcDbLine
 10
1280.943337896061
 20
2294.000000000001
 30
0.0
 11
1219.444936902702
 21
2294.0
 31
0.0
  0
LINE
  5
39B
330
1F
100
AcDbEntity
  8
LAY-10
  6
CENTER
 62
     2
100
AcDbLine
 10
949.5196841536492
 20
2156.719827728649
 30
0.0
 11
993.0056205281837
 21
2200.205764103182
 31
0.0
  0
LINE
  5
39C
330
1F
100
AcDbEntity
  8
LAY-10
  6
CENTER
 62
     2
100
AcDbLine
 10
935.6461497687476
 20
2214.35385023126
 30
0.0
 11
1006.84641236832
 21
2143.153587631687
 31
0.0
  0
LINE
  5
39D
330
1F
100
AcDbEntity
  8
LAY-10
  6
CENTER
 62
     2
100
AcDbLine
 10
856.0000000000002
 20
1869.05666210394
 30
0.0
 11
856.0000000000006
 21
1930.5550630973
 31
0.0
  0
LINE
  5
39E
330
1F
100
AcDbEntity
  8
LAY-10
  6
CONTINUOUS
 62
     7
100
AcDbLine
 10
840.5492451529074
 20
1556.430022622545
 30
0.0
 11
843.6134229253832
 21
1559.001173061291
 31
0.0
  0
LINE
  5
39F
330
1F
100
AcDbEntity
  8
LAY-10
  6
CONTINUOUS
 62
     7
100
AcDbLine
 10
1659.450754847094
 20
1556.430022622545
 30
0.0
 11
1656.386577074618
 21
1559.001173061291
 31
0.0
  0
LINE
  5
3A0
330
1F
100
AcDbEntity
  8
LAY-10
  6
CONTINUOUS
 62
     7
100
AcDbLine
 10
839.0691245720337
 20
1547.355610253042
 30
0.0
 11
864.1120034069792
 21
1568.846404088037
 31
0.0
  0
ARC
  5
3A1
330
1F
100
AcDbEntity
  8
LAY-10
  6
CONTINUOUS
 62
     7
100
AcDbCircle
 10
1250.0
 20
1900.0
 30
0.0
 40
508.5
100
AcDbArc
 50
220.6348692740272
 51
301.0463109397998
  0
ARC
  5
3A2
330
1F
100
AcDbEntity
  8
LAY-10
  6
CONTINUOUS
 62
     7
100
AcDbCircle
 10
1250.0
 20
1900.0
 30
0.0
 40
502.5
100
AcDbArc
 50
219.9999999999999
 51
320.0000000000002
  0
LINE
  5
3A3
330
1F
100
AcDbEntity
  8
LAY-10
  6
CONTINUOUS
 62
     7
100
AcDbLine
 10
848.2096895840971
 20
1562.85789871941
 30
0.0
 11
865.0626673327145
 21
1576.999226132514
 31
0.0
  0
LINE
  5
3A4
330
1F
100
AcDbEntity
  8
LAY-10
  6
CONTINUOUS
 62
     7
100
AcDbLine
 10
1660.930875427968
 20
1547.355610253042
 30
0.0
 11
1635.887996593022
 21
1568.846404088037
 31
0.0
  0
ARC
  5
3A5
330
1F
100
AcDbEntity
  8
LAY-10
  6
CONTINUOUS
 62
     7
100
AcDbCircle
 10
1250.0
 20
1900.0
 30
0.0
 40
524.5
100
AcDbArc
 50
320.0000000000002
 51
83.43836794906251
  0
ARC
  5
3A6
330
1F
100
AcDbEntity
  8
LAY-10
  6
CONTINUOUS
 62
     7
100
AcDbCircle
 10
1250.0
 20
1900.0
 30
0.0
 40
530.5
100
AcDbArc
 50
320.0000000000002
 51
84.09381537580254
  0
ARC
  5
3A7
330
1F
100
AcDbEntity
  8
LAY-10
  6
CONTINUOUS
 62
     7
100
AcDbCircle
 10
1250.0
 20
1900.0
 30
0.0
 40
534.5
100
AcDbArc
 50
320.0000000000002
 51
220.0000000000001
  0
LINE
  5
3A8
330
1F
100
AcDbEntity
  8
LAY-10
  6
CONTINUOUS
 62
     7
100
AcDbLine
 10
1651.790310415904
 20
1562.85789871941
 30
0.0
 11
1634.937332667286
 21
1576.999226132514
 31
0.0
  0
LINE
  5
3A9
330
1F
100
AcDbEntity
  8
LAY-10
  6
CONTINUOUS
 62
     7
100
AcDbLine
 10
1590.392008151666
 20
1522.236144150242
 30
0.0
 11
1612.482344963868
 21
1497.720495688016
 31
0.0
  0
LINE
  5
3AA
330
1F
100
AcDbEntity
  8
LAY-10
  6
CONTINUOUS
 62
     7
100
AcDbLine
 10
1585.910920975371
 20
1518.246017480527
 30
0.0
 11
1607.710449770233
 21
1493.47142274475
 31
0.0
  0
LINE
  5
3AB
330
1F
100
AcDbEntity
  8
LAY-10
  6
CONTINUOUS
 62
     7
100
AcDbLine
 10
1534.722858783622
 20
1439.396978205655
 30
0.0
 11
1517.371327223402
 21
1467.46696845351
 31
0.0
  0
LINE
  5
3AC
330
1F
100
AcDbEntity
  8
LAY-10
  6
CONTINUOUS
 62
     7
100
AcDbLine
 10
1529.26819375538
 20
1436.069481542109
 30
0.0
 11
1512.249079454498
 21
1464.342255520152
 31
0.0
  0
ARC
  5
3AD
330
1F
100
AcDbEntity
  8
LAY-10
  6
CONTINUOUS
 62
     7
100
AcDbCircle
 10
1250.0
 20
1900.0
 30
0.0
 40
508.5
100
AcDbArc
 50
301.7223830236637
 51
311.3450210526636
  0
ARC
  5
3AE
330
1F
100
AcDbEntity
  8
LAY-10
  6
CONTINUOUS
 62
     7
100
AcDbCircle
 10
1250.0
 20
1900.0
 30
0.0
 40
541.5
100
AcDbArc
 50
301.7223830236638
 51
311.3450210526638
  0
ARC
  5
3AF
330
1F
100
AcDbEntity
  8
LAY-10
  6
CONTINUOUS
 62
     7
100
AcDbCircle
 10
1250.0
 20
1900.0
 30
0.0
 40
508.5
100
AcDbArc
 50
312.0210931365281
 51
319.3651307259728
  0
ARC
  5
3B0
330
1F
100
AcDbEntity
  8
LAY-10
  6
CONTINUOUS
 62
     7
100
AcDbCircle
 10
1250.0
 20
1900.0
 30
0.0
 40
541.5
100
AcDbArc
 50
312.0210931365281
 51
319.3651307259728
  0
ARC
  5
3B1
330
1F
100
AcDbEntity
  8
LAY-10
  6
CONTINUOUS
 62
     7
100
AcDbCircle
 10
1250.0
 20
1900.0
 30
0.0
 40
541.5
100
AcDbArc
 50
220.6348692740274
 51
301.0463109397998
  0
LINE
  5
3B2
330
1F
100
AcDbEntity
  8
LAY-10
  6
CONTINUOUS
 62
     7
100
AcDbLine
 10
1195.411599625819
 20
2427.683955170695
 30
0.0
 11
1197.057998129093
 21
2411.768887719742
 31
0.0
  0
LINE
  5
3B3
330
1F
100
AcDbEntity
  8
LAY-10
  6
CONTINUOUS
 62
     7
100
AcDbLine
 10
1190.064380245969
 20
2421.06426809435
 30
0.0
 11
1191.710889875068
 21
2405.148126435053
 31
0.0
  0
LINE
  5
3B4
330
1F
100
AcDbEntity
  8
LAY-10
  6
CONTINUOUS
 62
     7
100
AcDbLine
 10
1304.588400374182
 20
2427.683955170695
 30
0.0
 11
1302.942001870908
 21
2411.768887719742
 31
0.0
  0
LINE
  5
3B5
330
1F
100
AcDbEntity
  8
LAY-10
  6
CONTINUOUS
 62
     7
100
AcDbLine
 10
1309.935619754032
 20
2421.06426809435
 30
0.0
 11
1308.289110124933
 21
2405.148126435053
 31
0.0
  0
ARC
  5
3B6
330
1F
100
AcDbEntity
  8
LAY-10
  6
CONTINUOUS
 62
     7
100
AcDbCircle
 10
1250.0
 20
1900.0
 30
0.0
 40
524.5
100
AcDbArc
 50
96.56163205093742
 51
220.0
  0
ARC
  5
3B7
330
1F
100
AcDbEntity
  8
LAY-10
  6
CONTINUOUS
 62
     7
100
AcDbCircle
 10
1250.0
 20
1900.0
 30
0.0
 40
530.5
100
AcDbArc
 50
95.90618462419727
 51
220.0
  0
ARC
  5
3B8
330
1F
100
AcDbEntity
  8
LAY-10
  6
CONTINUOUS
 62
     7
100
AcDbCircle
 10
1250.0
 20
1900.0
 30
0.0
 40
514.5
100
AcDbArc
 50
84.09381537580254
 51
95.90618462419727
  0
ARC
  5
3B9
330
1F
100
AcDbEntity
  8
LAY-10
  6
CONTINUOUS
 62
     7
100
AcDbCircle
 10
1250.0
 20
1900.0
 30
0.0
 40
508.5
100
AcDbArc
 50
83.41774329193832
 51
96.58225670806151
  0
LINE
  5
3BA
330
1F
100
AcDbEntity
  8
LAY-10
  6
CONTINUOUS
 62
     7
100
AcDbLine
 10
1425.5
 20
1919.0
 30
0.0
 11
1425.5
 21
1881.0
 31
0.0
  0
LINE
  5
3BB
330
1F
100
AcDbEntity
  8
LAY-10
  6
CONTINUOUS
 62
     7
100
AcDbLine
 10
1349.5
 20
1919.0
 30
0.0
 11
1349.5
 21
1881.0
 31
0.0
  0
LINE
  5
3BC
330
1F
100
AcDbEntity
  8
LAY-10
  6
CONTINUOUS
 62
     7
100
AcDbLine
 10
1349.5
 20
1919.0
 30
0.0
 11
1425.5
 21
1919.0
 31
0.0
  0
LINE
  5
3BD
330
1F
100
AcDbEntity
  8
LAY-10
  6
CONTINUOUS
 62
     7
100
AcDbLine
 10
1349.5
 20
1881.0
 30
0.0
 11
1425.5
 21
1881.0
 31
0.0
  0
LINE
  5
3BE
330
1F
100
AcDbEntity
  8
LAY-10
  6
CONTINUOUS
 62
     7
100
AcDbLine
 10
1065.7986835009
 20
1715.7986835009
 30
0.0
 11
1084.183459811801
 21
1734.183459811801
 31
0.0
  0
LINE
  5
3BF
330
1F
100
AcDbEntity
  8
LAY-10
  6
CONTINUOUS
 62
     7
100
AcDbLine
 10
1415.8165401882
 20
1734.183459811801
 30
0.0
 11
1434.2013164991
 21
1715.7986835009
 31
0.0
  0
LINE
  5
3C0
330
1F
100
AcDbEntity
  8
LAY-10
  6
CONTINUOUS
 62
     7
100
AcDbLine
 10
1430.6318491998
 20
1712.2970829884
 30
0.0
 11
1412.2433097382
 21
1730.6856224499
 31
0.0
  0
LINE
  5
3C1
330
1F
100
AcDbEntity
  8
LAY-10
  6
CONTINUOUS
 62
     7
100
AcDbLine
 10
1453.0829571875
 20
1782.75
 30
0.0
 11
1475.599617686001
 21
1769.75
 31
0.0
  0
ARC
  5
3C2
330
1F
100
AcDbEntity
  8
LAY-10
  6
CONTINUOUS
 62
     7
100
AcDbCircle
 10
1250.0
 20
1900.0
 30
0.0
 40
230.5
100
AcDbArc
 50
223.7570439520997
 51
344.5592389347003
  0
LINE
  5
3C3
330
1F
100
AcDbEntity
  8
LAY-10
  6
CONTINUOUS
 62
     7
100
AcDbLine
 10
1066.5405238296
 20
1723.6115916414
 30
0.0
 11
1069.369505691501
 21
1726.4405735033
 31
0.0
  0
LINE
  5
3C4
330
1F
100
AcDbEntity
  8
LAY-10
  6
CONTINUOUS
 62
     7
100
AcDbLine
 10
1072.1985055625
 20
1729.2695733743
 30
0.0
 11
1083.5147038972
 21
1740.5857717091
 31
0.0
  0
ARC
  5
3C5
330
1F
100
AcDbEntity
  8
LAY-10
  6
CONTINUOUS
 62
     7
100
AcDbCircle
 10
1250.0
 20
1900.0
 30
0.0
 40
260.5
100
AcDbArc
 50
224.9999999999998
 51
313.9002054108
  0
ARC
  5
3C6
330
1F
100
AcDbEntity
  8
LAY-10
  6
CONTINUOUS
 62
     7
100
AcDbCircle
 10
1250.0
 20
1900.0
 30
0.0
 40
234.5
100
AcDbArc
 50
224.9999999999996
 51
313.7782490030003
  0
LINE
  5
3C7
330
1F
100
AcDbEntity
  8
LAY-10
  6
CONTINUOUS
 62
     7
100
AcDbLine
 10
1455.536788538
 20
1787.1067825009
 30
0.0
 11
1478.058057936001
 21
1774.1041215515
 31
0.0
  0
LINE
  5
3C8
330
1F
100
AcDbEntity
  8
LAY-10
  6
CONTINUOUS
 62
     7
100
AcDbLine
 10
1469.396144502
 20
1779.1050796043
 30
0.0
 11
1472.860925529
 21
1777.1046873459
 31
0.0
  0
LINE
  5
3C9
330
1F
100
AcDbEntity
  8
LAY-10
  6
CONTINUOUS
 62
     7
100
AcDbLine
 10
1074.5
 20
1919.0
 30
0.0
 11
1074.5
 21
1881.0
 31
0.0
  0
LINE
  5
3CA
330
1F
100
AcDbEntity
  8
LAY-10
  6
CONTINUOUS
 62
     7
100
AcDbLine
 10
1150.5
 20
1919.0
 30
0.0
 11
1150.5
 21
1881.0
 31
0.0
  0
LINE
  5
3CB
330
1F
100
AcDbEntity
  8
LAY-10
  6
CONTINUOUS
 62
     7
100
AcDbLine
 10
1150.5
 20
1919.0
 30
0.0
 11
1074.5
 21
1919.0
 31
0.0
  0
LINE
  5
3CC
330
1F
100
AcDbEntity
  8
LAY-10
  6
CONTINUOUS
 62
     7
100
AcDbLine
 10
1150.5
 20
1881.0
 30
0.0
 11
1074.5
 21
1881.0
 31
0.0
  0
ARC
  5
3CD
330
1F
100
AcDbEntity
  8
LAY-10
  6
CONTINUOUS
 62
     7
100
AcDbCircle
 10
1250.0
 20
1900.0
 30
0.0
 40
246.5
100
AcDbArc
 50
344.4785487935001
 51
76.07033837040987
  0
ARC
  5
3CE
330
1F
100
AcDbEntity
  8
LAY-10
  6
CONTINUOUS
 62
     7
100
AcDbCircle
 10
1250.0
 20
1900.0
 30
0.0
 40
246.5
100
AcDbArc
 50
103.9296616295999
 51
223.8377340932996
  0
ARC
  5
3CF
330
1F
100
AcDbEntity
  8
LAY-10
  6
CONTINUOUS
 62
     7
100
AcDbCircle
 10
1250.0
 20
1900.0
 30
0.0
 40
250.5
100
AcDbArc
 50
344.4599871719004
 51
76.08518658514986
  0
ARC
  5
3D0
330
1F
100
AcDbEntity
  8
LAY-10
  6
CONTINUOUS
 62
     7
100
AcDbCircle
 10
1250.0
 20
1900.0
 30
0.0
 40
250.5
100
AcDbArc
 50
103.9148134147998
 51
223.8562957149995
  0
ARC
  5
3D1
330
1F
100
AcDbEntity
  8
LAY-10
  6
CONTINUOUS
 62
     7
100
AcDbCircle
 10
1250.0
 20
1900.0
 30
0.0
 40
254.5
100
AcDbArc
 50
344.4420091341
 51
76.09956799977986
  0
ARC
  5
3D2
330
1F
100
AcDbEntity
  8
LAY-10
  6
CONTINUOUS
 62
     7
100
AcDbCircle
 10
1250.0
 20
1900.0
 30
0.0
 40
254.5
100
AcDbArc
 50
103.9004320001998
 51
223.8742737526997
  0
ARC
  5
3D3
330
1F
100
AcDbEntity
  8
LAY-10
  6
CONTINUOUS
 62
     7
100
AcDbCircle
 10
1250.0
 20
1900.0
 30
0.0
 40
259.5
100
AcDbArc
 50
77.00012813665981
 51
102.9998718632998
  0
ARC
  5
3D4
330
1F
100
AcDbEntity
  8
LAY-10
  6
CONTINUOUS
 62
     7
100
AcDbCircle
 10
1250.0
 20
1900.0
 30
0.0
 40
244.5
100
AcDbArc
 50
77.0001281366597
 51
102.9998718632999
  0
ARC
  5
3D5
330
1F
100
AcDbEntity
  8
LAY-10
  6
CONTINUOUS
 62
     7
100
AcDbCircle
 10
1250.0
 20
1900.0
 30
0.0
 40
240.5
100
AcDbArc
 50
76.04713983883988
 51
103.9528601611997
  0
LINE
  5
3D6
330
1F
100
AcDbEntity
  8
LAY-10
  6
CONTINUOUS
 62
     7
100
AcDbLine
 10
1308.3742331288
 20
2152.849162361
 30
0.0
 11
1305.0
 21
2138.233603843001
 31
0.0
  0
LINE
  5
3D7
330
1F
100
AcDbEntity
  8
LAY-10
  6
CONTINUOUS
 62
     7
100
AcDbLine
 10
1195.0
 20
2138.233603843001
 30
0.0
 11
1191.625766871201
 21
2152.849162361
 31
0.0
  0
LINE
  5
3D8
330
1F
100
AcDbEntity
  8
LAY-10
  6
CONTINUOUS
 62
     7
100
AcDbLine
 10
1307.990203546
 20
2133.403912334001
 30
0.0
 11
1309.3400789693
 21
2139.250924821
 31
0.0
  0
LINE
  5
3D9
330
1F
100
AcDbEntity
  8
LAY-10
  6
CONTINUOUS
 62
     7
100
AcDbLine
 10
1310.239991069
 20
2143.148912142
 30
0.0
 11
1311.1398995028
 21
2147.046883584001
 31
0.0
  0
LINE
  5
3DA
330
1F
100
AcDbEntity
  8
LAY-10
  6
CONTINUOUS
 62
     7
100
AcDbLine
 10
1192.009796454
 20
2133.403912334001
 30
0.0
 11
1190.659921030701
 21
2139.250924821
 31
0.0
  0
LINE
  5
3DB
330
1F
100
AcDbEntity
  8
LAY-10
  6
CONTINUOUS
 62
     7
100
AcDbLine
 10
1189.760008931
 20
2143.148912142
 30
0.0
 11
1188.8601004972
 21
2147.046883584001
 31
0.0
  0
LINE
  5
3DC
330
1F
100
AcDbEntity
  8
LAY-10
  6
CONTINUOUS
 62
     7
100
AcDbLine
 10
1499.534023559
 20
1825.213496629
 30
0.0
 11
1474.628516409
 21
1832.6777925509
 31
0.0
  0
ARC
  5
3DD
330
1F
100
AcDbEntity
  8
LAY-10
  6
CONTINUOUS
 62
     7
100
AcDbCircle
 10
1250.0
 20
1900.0
 30
0.0
 40
260.5
100
AcDbArc
 50
315.0
 51
330.0
  0
ARC
  5
3DE
330
1F
100
AcDbEntity
  8
LAY-10
  6
CONTINUOUS
 62
     7
100
AcDbCircle
 10
1250.0
 20
1900.0
 30
0.0
 40
260.5
100
AcDbArc
 50
331.0997945892001
 51
343.3162828868001
  0
ARC
  5
3DF
330
1F
100
AcDbEntity
  8
LAY-10
  6
CONTINUOUS
 62
     7
100
AcDbCircle
 10
1250.0
 20
1900.0
 30
0.0
 40
234.5
100
AcDbArc
 50
315.0
 51
330.0
  0
ARC
  5
3E0
330
1F
100
AcDbEntity
  8
LAY-10
  6
CONTINUOUS
 62
     7
100
AcDbCircle
 10
1250.0
 20
1900.0
 30
0.0
 40
234.5
100
AcDbArc
 50
331.2217509970003
 51
343.3162828868
  0
LINE
  5
3E1
330
1F
100
AcDbEntity
  8
LAY-10
  6
CONTINUOUS
 62
     7
100
AcDbLine
 10
1472.180388258
 20
1838.6312369873
 30
0.0
 11
1487.510227129
 21
1834.0368132286
 31
0.0
  0
LINE
  5
3E2
330
1F
100
AcDbEntity
  8
LAY-10
  6
CONTINUOUS
 62
     7
100
AcDbLine
 10
1491.342619502
 20
1832.888227472501
 30
0.0
 11
1495.174987479
 21
1831.7396490281
 31
0.0
  0
CIRCLE
  5
3E3
330
1F
100
AcDbEntity
  8
LAY-10
  6
CONTINUOUS
 62
     7
100
AcDbCircle
 10
1250.0
 20
1900.0
 30
0.0
 40
280.9294749180661
  0
LINE
  5
3E4
330
1F
100
AcDbEntity
  8
LAY-10
  6
CONTINUOUS
 62
     7
100
AcDbLine
 10
957.9648993699601
 20
1574.023773872998
 30
0.0
 11
924.023773873005
 21
1607.964899369952
 31
0.0
  0
LINE
  5
3E5
330
1F
100
AcDbEntity
  8
LAY-10
  6
CONTINUOUS
 62
     7
100
AcDbLine
 10
1018.776082552003
 20
1634.834957055042
 30
0.0
 11
984.8349570550478
 21
1668.776082551996
 31
0.0
  0
LINE
  5
3E6
330
1F
100
AcDbEntity
  8
LAY-10
  6
CONTINUOUS
 62
     7
100
AcDbLine
 10
984.8349570550478
 20
1668.776082551996
 30
0.0
 11
924.023773873005
 21
1607.964899369952
 31
0.0
  0
LINE
  5
3E7
330
1F
100
AcDbEntity
  8
LAY-10
  6
CONTINUOUS
 62
     7
100
AcDbLine
 10
1018.776082552003
 20
1634.834957055042
 30
0.0
 11
957.9648993699601
 21
1574.023773872998
 31
0.0
  0
LINE
  5
3E8
330
1F
100
AcDbEntity
  8
LAY-10
  6
CONTINUOUS
 62
     7
100
AcDbLine
 10
1274.000000000006
 20
1463.0
 30
0.0
 11
1226.000000000005
 21
1463.0
 31
0.0
  0
LINE
  5
3E9
330
1F
100
AcDbEntity
  8
LAY-10
  6
CONTINUOUS
 62
     7
100
AcDbLine
 10
1274.000000000005
 20
1549.0
 30
0.0
 11
1226.000000000005
 21
1549.0
 31
0.0
  0
LINE
  5
3EA
330
1F
100
AcDbEntity
  8
LAY-10
  6
CONTINUOUS
 62
     7
100
AcDbLine
 10
1226.000000000005
 20
1549.0
 30
0.0
 11
1226.000000000005
 21
1463.0
 31
0.0
  0
LINE
  5
3EB
330
1F
100
AcDbEntity
  8
LAY-10
  6
CONTINUOUS
 62
     7
100
AcDbLine
 10
1274.000000000004
 20
1549.0
 30
0.0
 11
1274.000000000006
 21
1463.0
 31
0.0
  0
LINE
  5
3EC
330
1F
100
AcDbEntity
  8
LAY-10
  6
CONTINUOUS
 62
     7
100
AcDbLine
 10
1542.035100630041
 20
1574.023773872998
 30
0.0
 11
1575.976226126996
 21
1607.964899369952
 31
0.0
  0
LINE
  5
3ED
330
1F
100
AcDbEntity
  8
LAY-10
  6
CONTINUOUS
 62
     7
100
AcDbLine
 10
1481.223917447998
 20
1634.834957055042
 30
0.0
 11
1515.165042944953
 21
1668.776082551996
 31
0.0
  0
LINE
  5
3EE
330
1F
100
AcDbEntity
  8
LAY-10
  6
CONTINUOUS
 62
     7
100
AcDbLine
 10
1515.165042944953
 20
1668.776082551996
 30
0.0
 11
1575.976226126996
 21
1607.964899369952
 31
0.0
  0
LINE
  5
3EF
330
1F
100
AcDbEntity
  8
LAY-10
  6
CONTINUOUS
 62
     7
100
AcDbLine
 10
1481.223917447998
 20
1634.834957055042
 30
0.0
 11
1542.035100630041
 21
1574.023773872998
 31
0.0
  0
LINE
  5
3F0
330
1F
100
AcDbEntity
  8
LAY-10
  6
CONTINUOUS
 62
     7
100
AcDbLine
 10
1687.000000000001
 20
1875.999999999995
 30
0.0
 11
1687.000000000001
 21
1923.999999999995
 31
0.0
  0
LINE
  5
3F1
330
1F
100
AcDbEntity
  8
LAY-10
  6
CONTINUOUS
 62
     7
100
AcDbLine
 10
1601.0
 20
1875.999999999996
 30
0.0
 11
1601.000000000001
 21
1923.999999999996
 31
0.0
  0
LINE
  5
3F2
330
1F
100
AcDbEntity
  8
LAY-10
  6
CONTINUOUS
 62
     7
100
AcDbLine
 10
1601.000000000001
 20
1923.999999999996
 30
0.0
 11
1687.000000000001
 21
1923.999999999995
 31
0.0
  0
LINE
  5
3F3
330
1F
100
AcDbEntity
  8
LAY-10
  6
CONTINUOUS
 62
     7
100
AcDbLine
 10
1601.0
 20
1875.999999999996
 30
0.0
 11
1687.000000000001
 21
1875.999999999995
 31
0.0
  0
LINE
  5
3F4
330
1F
100
AcDbEntity
  8
LAY-10
  6
CONTINUOUS
 62
     7
100
AcDbLine
 10
1481.223917447998
 20
2165.165042944959
 30
0.0
 11
1542.035100630041
 21
2225.976226127003
 31
0.0
  0
LINE
  5
3F5
330
1F
100
AcDbEntity
  8
LAY-10
  6
CONTINUOUS
 62
     7
100
AcDbLine
 10
1515.165042944953
 20
2131.223917448005
 30
0.0
 11
1575.976226126996
 21
2192.035100630048
 31
0.0
  0
LINE
  5
3F6
330
1F
100
AcDbEntity
  8
LAY-10
  6
CONTINUOUS
 62
     7
100
AcDbLine
 10
1542.035100630041
 20
2225.976226127003
 30
0.0
 11
1575.976226126996
 21
2192.035100630048
 31
0.0
  0
LINE
  5
3F7
330
1F
100
AcDbEntity
  8
LAY-10
  6
CONTINUOUS
 62
     7
100
AcDbLine
 10
1481.223917447998
 20
2165.165042944959
 30
0.0
 11
1515.165042944953
 21
2131.223917448005
 31
0.0
  0
LINE
  5
3F8
330
1F
100
AcDbEntity
  8
LAY-10
  6
CONTINUOUS
 62
     7
100
AcDbLine
 10
1225.999999999995
 20
2337.0
 30
0.0
 11
1273.999999999995
 21
2337.000000000001
 31
0.0
  0
LINE
  5
3F9
330
1F
100
AcDbEntity
  8
LAY-10
  6
CONTINUOUS
 62
     7
100
AcDbLine
 10
1225.999999999996
 20
2251.0
 30
0.0
 11
1273.999999999996
 21
2251.000000000001
 31
0.0
  0
LINE
  5
3FA
330
1F
100
AcDbEntity
  8
LAY-10
  6
CONTINUOUS
 62
     7
100
AcDbLine
 10
1273.999999999996
 20
2251.000000000001
 30
0.0
 11
1273.999999999995
 21
2337.000000000001
 31
0.0
  0
LINE
  5
3FB
330
1F
100
AcDbEntity
  8
LAY-10
  6
CONTINUOUS
 62
     7
100
AcDbLine
 10
1225.999999999996
 20
2251.0
 30
0.0
 11
1225.999999999995
 21
2337.0
 31
0.0
  0
LINE
  5
3FC
330
1F
100
AcDbEntity
  8
LAY-10
  6
CONTINUOUS
 62
     7
100
AcDbLine
 10
957.9648993699599
 20
2225.976226127003
 30
0.0
 11
924.0237738730048
 21
2192.035100630049
 31
0.0
  0
LINE
  5
3FD
330
1F
100
AcDbEntity
  8
LAY-10
  6
CONTINUOUS
 62
     7
100
AcDbLine
 10
1018.776082552003
 20
2165.165042944959
 30
0.0
 11
984.8349570550474
 21
2131.223917448005
 31
0.0
  0
LINE
  5
3FE
330
1F
100
AcDbEntity
  8
LAY-10
  6
CONTINUOUS
 62
     7
100
AcDbLine
 10
984.8349570550474
 20
2131.223917448005
 30
0.0
 11
924.0237738730048
 21
2192.035100630049
 31
0.0
  0
LINE
  5
3FF
330
1F
100
AcDbEntity
  8
LAY-10
  6
CONTINUOUS
 62
     7
100
AcDbLine
 10
1018.776082552002
 20
2165.165042944959
 30
0.0
 11
957.9648993699599
 21
2225.976226127003
 31
0.0
  0
LINE
  5
400
330
1F
100
AcDbEntity
  8
LAY-10
  6
CONTINUOUS
 62
     7
100
AcDbLine
 10
813.0000000000002
 20
1924.000000000006
 30
0.0
 11
812.9999999999995
 21
1876.000000000005
 31
0.0
  0
LINE
  5
401
330
1F
100
AcDbEntity
  8
LAY-10
  6
CONTINUOUS
 62
     7
100
AcDbLine
 10
899.0000000000005
 20
1924.000000000005
 30
0.0
 11
898.9999999999998
 21
1876.000000000005
 31
0.0
  0
LINE
  5
402
330
1F
100
AcDbEntity
  8
LAY-10
  6
CONTINUOUS
 62
     7
100
AcDbLine
 10
898.9999999999998
 20
1876.000000000005
 30
0.0
 11
812.9999999999995
 21
1876.000000000005
 31
0.0
  0
LINE
  5
403
330
1F
100
AcDbEntity
  8
LAY-10
  6
CONTINUOUS
 62
     7
100
AcDbLine
 10
899.0000000000006
 20
1924.000000000005
 30
0.0
 11
813.0000000000002
 21
1924.000000000006
 31
0.0
  0
LINE
  5
404
330
1F
100
AcDbEntity
  8
LAY-10
  6
PHANTOM
 62
     7
100
AcDbLine
 10
715.849474272755
 20
787.201941177233
 30
0.0
 11
719.1494567162232
 21
787.2595425850458
 31
0.0
  0
LINE
  5
405
330
1F
100
AcDbEntity
  8
LAY-10
  6
PHANTOM
 62
     7
100
AcDbLine
 10
725.849474272755
 20
787.3764918265149
 30
0.0
 11
725.5000000000003
 21
791.3710010425685
 31
0.0
  0
LINE
  5
406
330
1F
100
AcDbEntity
  8
LAY-10
  6
PHANTOM
 62
     7
100
AcDbLine
 10
715.849474272755
 20
787.2019411772325
 30
0.0
 11
715.5000000000003
 21
791.1964503932866
 31
0.0
  0
LINE
  5
407
330
1F
100
AcDbEntity
  8
LAY-10
  6
PHANTOM
 62
     7
100
AcDbLine
 10
719.1494567162232
 20
787.2595425850451
 30
0.0
 11
719.5000000000002
 21
791.2662706529995
 31
0.0
  0
LINE
  5
408
330
1F
100
AcDbEntity
  8
LAY-10
  6
PHANTOM
 62
     7
100
AcDbLine
 10
725.849474272755
 20
787.3764918265153
 30
0.0
 11
968.7199817983119
 21
791.6158123045235
 31
0.0
  0
LINE
  5
409
330
1F
100
AcDbEntity
  8
LAY-10
  6
PHANTOM
 62
     7
100
AcDbLine
 10
969.0705250820889
 20
795.6225403724773
 30
0.0
 11
968.7199817983118
 21
791.6158123045236
 31
0.0
  0
LINE
  5
40A
330
1F
100
AcDbEntity
  8
LAY-10
  6
PHANTOM
 62
     7
100
AcDbLine
 10
996.2448563056578
 20
792.5702305068402
 30
0.0
 11
998.6353048677271
 21
792.6119559416984
 31
0.0
  0
LINE
  5
40B
330
1F
100
AcDbEntity
  8
LAY-10
  6
PHANTOM
 62
     7
100
AcDbLine
 10
1004.300227306254
 20
792.7108375306757
 30
0.0
 11
1073.635304867727
 21
793.9210858113072
 31
0.0
  0
LINE
  5
40C
330
1F
100
AcDbEntity
  8
LAY-10
  6
PHANTOM
 62
     7
100
AcDbLine
 10
995.5000000000005
 20
795.5576859757944
 30
0.0
 11
996.2448563056578
 21
792.5702305068402
 31
0.0
  0
LINE
  5
40D
330
1F
100
AcDbEntity
  8
LAY-10
  6
PHANTOM
 62
     7
100
AcDbLine
 10
1003.500000000001
 20
795.6973264952195
 30
0.0
 11
1004.247870086943
 21
792.6977834097503
 31
0.0
  0
LINE
  5
40E
330
1F
100
AcDbEntity
  8
LAY-10
  6
PHANTOM
 62
     7
100
AcDbLine
 10
999.5000000000006
 20
795.6275062355068
 30
0.0
 11
998.6353048677271
 21
792.6119559416984
 31
0.0
  0
LINE
  5
40F
330
1F
100
AcDbEntity
  8
LAY-10
  6
PHANTOM
 62
     7
100
AcDbLine
 10
1074.5
 20
796.9366361051159
 30
0.0
 11
1073.635304867727
 21
793.9210858113072
 31
0.0
  0
LINE
  5
410
330
1F
100
AcDbEntity
  8
LAY-10
  6
PHANTOM
 62
     7
100
AcDbLine
 10
1150.500000000001
 20
798.2632210396529
 30
0.0
 11
1151.244856305658
 21
795.2757655706985
 31
0.0
  0
LINE
  5
411
330
1F
100
AcDbEntity
  8
LAY-10
  6
PHANTOM
 62
     7
100
AcDbLine
 10
1151.244856305658
 20
795.2757655706985
 30
0.0
 11
1250.0
 21
796.9995430158691
 31
0.0
  0
LINE
  5
412
330
1F
100
AcDbEntity
  8
LAY-10
  6
PHANTOM
 62
     7
100
AcDbLine
 10
1250.000000000001
 20
796.9995430158691
 30
0.0
 11
1479.643917633275
 21
792.9910935232326
 31
0.0
  0
LINE
  5
413
330
1F
100
AcDbEntity
  8
LAY-10
  6
PHANTOM
 62
     7
100
AcDbLine
 10
1484.500000000001
 20
795.9067872743569
 30
0.0
 11
1485.251367928103
 21
792.8932151142553
 31
0.0
  0
LINE
  5
414
330
1F
100
AcDbEntity
  8
LAY-10
  6
PHANTOM
 62
     7
100
AcDbLine
 10
1480.500000000001
 20
795.9766075340693
 30
0.0
 11
1479.643917633275
 21
792.9910935232326
 31
0.0
  0
LINE
  5
415
330
1F
100
AcDbEntity
  8
LAY-10
  6
PHANTOM
 62
     7
100
AcDbLine
 10
1510.500000000001
 20
795.4529555862255
 30
0.0
 11
1509.643917633275
 21
792.4674415753891
 31
0.0
  0
LINE
  5
416
330
1F
100
AcDbEntity
  8
LAY-10
  6
PHANTOM
 62
     7
100
AcDbLine
 10
1485.251367928103
 20
792.8932151142551
 30
0.0
 11
1509.643917633275
 21
792.4674415753891
 31
0.0
  0
LINE
  5
417
330
1F
100
AcDbEntity
  8
LAY-10
  6
PHANTOM
 62
     7
100
AcDbLine
 10
1530.929474918066
 20
795.6225403724745
 30
0.0
 11
1531.280018201843
 21
791.6158123045207
 31
0.0
  0
LINE
  5
418
330
1F
100
AcDbEntity
  8
LAY-10
  6
PHANTOM
 62
     7
100
AcDbLine
 10
1531.280018201843
 20
791.6158123045207
 30
0.0
 11
1774.150525727246
 21
787.3764918265149
 31
0.0
  0
LINE
  5
419
330
1F
100
AcDbEntity
  8
LAY-10
  6
PHANTOM
 62
     7
100
AcDbLine
 10
1774.150525727246
 20
787.3764918265149
 30
0.0
 11
1774.500000000001
 21
791.3710010425685
 31
0.0
  0
LINE
  5
41A
330
1F
100
AcDbEntity
  8
LAY-10
  6
PHANTOM
 62
     7
100
AcDbLine
 10
1784.150525727246
 20
787.2019411772325
 30
0.0
 11
1784.500000000001
 21
791.1964503932866
 31
0.0
  0
LINE
  5
41B
330
1F
100
AcDbEntity
  8
LAY-10
  6
PHANTOM
 62
     7
100
AcDbLine
 10
1780.850543283778
 20
787.2595425850451
 30
0.0
 11
1780.500000000001
 21
791.2662706529995
 31
0.0
  0
LINE
  5
41C
330
1F
100
AcDbEntity
  8
LAY-10
  6
PHANTOM
 62
     7
100
AcDbLine
 10
1784.150525727246
 20
787.201941177233
 30
0.0
 11
1780.850543283778
 21
787.2595425850458
 31
0.0
  0
DIMENSION
  5
41E
330
1F
100
AcDbEntity
  8
LAY-20
  6
CONTINUOUS
 62
     4
100
AcDbDimension
  2
*D15
 10
1518.5
 20
970.0
 30
0.0
 11
1250.0
 21
995.0
 31
0.0
 70
   160
  1
%%c<>
  3
ISO-25
100
AcDbAlignedDimension
 13
981.5
 23
810.3133150668
 33
0.0
 14
1518.5
 24
810.3133150668
 34
0.0
100
AcDbRotatedDimension
1001
ACAD
1000
DSTYLE
1002
{
1070
   270
1070
     2
1070
     6
1000
EX_BNORM
1070
     7
1000
EX_BNORM
1070
    41
1040
30.0
1070
    42
1040
15.0
1070
    44
1040
15.0
1070
    73
1070
     0
1070
    74
1070
     0
1070
    75
1070
     0
1070
    76
1070
     0
1070
    77
1070
     1
1070
    78
1070
     8
1070
   140
1040
31.181104
1070
   147
1040
0.0
1070
   173
1070
     1
1070
   176
1070
     4
1070
   177
1070
     4
1070
   178
1070
     7
1070
   271
1070
     1
1070
   277
1070
     2
1070
   279
1070
     2
1070
   280
1070
     0
1070
   287
1070
     5
1070
   340
1005
41D
1002
}
  0
DIMENSION
  5
42C
330
1F
100
AcDbEntity
  8
LAY-20
  6
CONTINUOUS
 62
     4
100
AcDbDimension
  2
*D16
 10
1806.5
 20
1040.0
 30
0.0
 11
1250.0
 21
1065.0
 31
0.0
 70
   160
  1
%%c<>
  3
ISO-25
100
AcDbAlignedDimension
 13
693.5
 23
801.0522259485901
 33
0.0
 14
1806.5
 24
801.0522259485901
 34
0.0
100
AcDbRotatedDimension
1001
ACAD
1000
DSTYLE
1002
{
1070
   270
1070
     2
1070
     6
1000
EX_BNORM
1070
     7
1000
EX_BNORM
1070
    41
1040
30.0
1070
    42
1040
15.0
1070
    44
1040
15.0
1070
    73
1070
     0
1070
    74
1070
     0
1070
    75
1070
     0
1070
    76
1070
     0
1070
    77
1070
     1
1070
    78
1070
     8
1070
   140
1040
31.181104
1070
   147
1040
0.0
1070
   173
1070
     1
1070
   176
1070
     4
1070
   177
1070
     4
1070
   178
1070
     7
1070
   271
1070
     1
1070
   277
1070
     2
1070
   279
1070
     2
1070
   280
1070
     0
1070
   287
1070
     5
1070
   340
1005
41D
1002
}
  0
DIMENSION
  5
439
330
1F
100
AcDbEntity
  8
LAY-20
  6
CONTINUOUS
 62
     4
100
AcDbDimension
  2
*D17
 10
1831.723708254
 20
1110.0
 30
0.0
 11
1249.72370825399
 21
1135.0
 31
0.0
 70
   160
  1
%%c<>
  3
ISO-25
100
AcDbAlignedDimension
 13
667.7237082539799
 23
794.0
 33
0.0
 14
1831.723708254
 24
825.0
 34
0.0
100
AcDbRotatedDimension
1001
ACAD
1000
DSTYLE
1002
{
1070
   270
1070
     2
1070
     6
1000
EX_BNORM
1070
     7
1000
EX_BNORM
1070
    41
1040
30.0
1070
    42
1040
15.0
1070
    44
1040
15.0
1070
    73
1070
     0
1070
    74
1070
     0
1070
    75
1070
     0
1070
    76
1070
     0
1070
    77
1070
     1
1070
    78
1070
     8
1070
   140
1040
31.181104
1070
   147
1040
0.0
1070
   173
1070
     1
1070
   176
1070
     4
1070
   177
1070
     4
1070
   178
1070
     7
1070
   271
1070
     1
1070
   277
1070
     2
1070
   279
1070
     2
1070
   280
1070
     0
1070
   287
1070
     5
1070
   340
1005
41D
1002
}
  0
DIMENSION
  5
446
330
1F
100
AcDbEntity
  8
LAY-20
  6
CONTINUOUS
 62
     4
100
AcDbDimension
  2
*D18
 10
1475.0
 20
605.5522259485901
 30
0.0
 11
1250.0
 21
630.5522259485901
 31
0.0
 70
   160
  1
%%c<>
  3
ISO-25
100
AcDbAlignedDimension
 13
1025.0
 23
726.3133150668
 33
0.0
 14
1475.0
 24
726.3133150668
 34
0.0
100
AcDbRotatedDimension
1001
ACAD
1000
DSTYLE
1002
{
1070
   270
1070
     2
1070
     6
1000
EX_BNORM
1070
     7
1000
EX_BNORM
1070
    41
1040
30.0
1070
    42
1040
15.0
1070
    44
1040
15.0
1070
    73
1070
     0
1070
    74
1070
     0
1070
    75
1070
     0
1070
    76
1070
     0
1070
    77
1070
     1
1070
    78
1070
     8
1070
   140
1040
31.181104
1070
   147
1040
0.0
1070
   173
1070
     1
1070
   176
1070
     4
1070
   177
1070
     4
1070
   178
1070
     7
1070
   271
1070
     1
1070
   277
1070
     2
1070
   279
1070
     2
1070
   280
1070
     0
1070
   287
1070
     5
1070
   340
1005
41D
1002
}
  0
DIMENSION
  5
453
330
1F
100
AcDbEntity
  8
LAY-20
  6
CONTINUOUS
 62
     4
100
AcDbDimension
  2
*D19
 10
1750.0
 20
535.5522259485901
 30
0.0
 11
1250.0
 21
560.5522259485901
 31
0.0
 70
   160
  1
%%c<>
  3
ISO-25
100
AcDbAlignedDimension
 13
750.0
 23
690.5522259485901
 33
0.0
 14
1750.0
 24
690.5522259485901
 34
0.0
100
AcDbRotatedDimension
1001
ACAD
1000
DSTYLE
1002
{
1070
   270
1070
     2
1070
     6
1000
EX_BNORM
1070
     7
1000
EX_BNORM
1070
    41
1040
30.0
1070
    42
1040
15.0
1070
    44
1040
15.0
1070
    73
1070
     0
1070
    74
1070
     0
1070
    75
1070
     0
1070
    76
1070
     0
1070
    77
1070
     1
1070
    78
1070
     8
1070
   140
1040
31.181104
1070
   147
1040
0.0
1070
   173
1070
     1
1070
   176
1070
     4
1070
   177
1070
     4
1070
   178
1070
     7
1070
   271
1070
     1
1070
   277
1070
     2
1070
   279
1070
     2
1070
   280
1070
     0
1070
   287
1070
     5
1070
   340
1005
41D
1002
}
  0
DIMENSION
  5
460
330
1F
100
AcDbEntity
  8
LAY-20
  6
CONTINUOUS
 62
     4
100
AcDbDimension
  2
*D20
 10
1835.0
 20
465.5522259485901
 30
0.0
 11
1250.0
 21
490.5522259485901
 31
0.0
 70
   160
  1
□<>
  3
ISO-25
100
AcDbAlignedDimension
 13
665.0
 23
690.5522259485901
 33
0.0
 14
1835.0
 24
465.5522259485901
 34
0.0
100
AcDbRotatedDimension
1001
ACAD
1000
DSTYLE
1002
{
1070
   270
1070
     2
1070
     6
1000
EX_BNORM
1070
     7
1000
EX_NONE
1070
    41
1040
30.0
1070
    42
1040
15.0
1070
    44
1040
15.0
1070
    73
1070
     0
1070
    74
1070
     0
1070
    75
1070
     0
1070
    76
1070
     1
1070
    77
1070
     1
1070
    78
1070
     8
1070
   140
1040
31.181104
1070
   147
1040
0.0
1070
   173
1070
     1
1070
   176
1070
     4
1070
   177
1070
     4
1070
   178
1070
     7
1070
   271
1070
     1
1070
   277
1070
     2
1070
   279
1070
     2
1070
   280
1070
     0
1070
   287
1070
     5
1070
   340
1005
41D
1002
}
  0
DIMENSION
  5
46C
330
1F
100
AcDbEntity
  8
LAY-20
  6
CONTINUOUS
 62
     4
100
AcDbDimension
  2
*D21
 10
2135.0
 20
705.5522259485901
 30
0.0
 11
2110.0
 21
748.0522259485901
 31
0.0
 70
   160
  3
ISO-25
100
AcDbAlignedDimension
 13
1842.0
 23
790.5522259485901
 33
0.0
 14
2035.0
 24
705.5522259485901
 34
0.0
 50
90.0
100
AcDbRotatedDimension
1001
ACAD
1000
DSTYLE
1002
{
1070
   270
1070
     2
1070
     6
1000
EX_BNORM
1070
     7
1000
EX_BNORM
1070
    41
1040
30.0
1070
    42
1040
15.0
1070
    44
1040
15.0
1070
    73
1070
     0
1070
    74
1070
     0
1070
    75
1070
     0
1070
    76
1070
     0
1070
    77
1070
     1
1070
    78
1070
     8
1070
   140
1040
31.181104
1070
   147
1040
0.0
1070
   173
1070
     1
1070
   176
1070
     4
1070
   177
1070
     4
1070
   178
1070
     7
1070
   271
1070
     1
1070
   277
1070
     2
1070
   279
1070
     2
1070
   280
1070
     0
1070
   287
1070
     5
1070
   340
1005
41D
1002
}
  0
LINE
  5
479
330
1F
100
AcDbEntity
  8
LAY-255
  6
CONTINUOUS
 62
     7
100
AcDbLine
 10
3850.0
 20
219.9999999999999
 30
0.0
 11
2850.0
 21
219.9999999999999
 31
0.0
  0
LINE
  5
47A
330
1F
100
AcDbEntity
  8
LAY-255
  6
CONTINUOUS
 62
     7
100
AcDbLine
 10
2888.0
 20
160.0
 30
0.0
 11
2968.0
 21
210.0
 31
0.0
  0
LINE
  5
47B
330
1F
100
AcDbEntity
  8
LAY-255
  6
CONTINUOUS
 62
     7
100
AcDbLine
 10
2968.0
 20
210.0
 30
0.0
 11
3048.0
 21
160.0
 31
0.0
  0
LINE
  5
47C
330
1F
100
AcDbEntity
  8
LAY-255
  6
CONTINUOUS
 62
     7
100
AcDbLine
 10
3048.0
 20
160.0
 30
0.0
 11
2968.0
 21
110.0
 31
0.0
  0
LINE
  5
47D
330
1F
100
AcDbEntity
  8
LAY-255
  6
CONTINUOUS
 62
     7
100
AcDbLine
 10
2968.0
 20
110.0
 30
0.0
 11
2888.0
 21
160.0
 31
0.0
  0
LINE
  5
47E
330
1F
100
AcDbEntity
  8
LAY-255
  6
CONTINUOUS
 62
     7
100
AcDbLine
 10
50.0
 20
100.0
 30
0.0
 11
3850.0
 21
100.0
 31
0.0
  0
LINE
  5
47F
330
1F
100
AcDbEntity
  8
LAY-255
  6
CONTINUOUS
 62
     7
100
AcDbLine
 10
50.0
 20
2800.0
 30
0.0
 11
3850.0
 21
2800.0
 31
0.0
  0
LINE
  5
480
330
1F
100
AcDbEntity
  8
LAY-255
  6
CONTINUOUS
 62
     7
100
AcDbLine
 10
50.0
 20
100.0
 30
0.0
 11
50.0
 21
2800.0
 31
0.0
  0
LINE
  5
481
330
1F
100
AcDbEntity
  8
LAY-255
  6
CONTINUOUS
 62
     4
100
AcDbLine
 10
2850.0
 20
279.9999999999999
 30
0.0
 11
3850.0
 21
279.9999999999999
 31
0.0
  0
LINE
  5
482
330
1F
100
AcDbEntity
  8
LAY-255
  6
CONTINUOUS
 62
     4
100
AcDbLine
 10
3350.0
 20
279.9999999999999
 30
0.0
 11
3350.0
 21
220.0
 31
0.0
  0
POINT
  5
483
330
1F
100
AcDbEntity
  8
LAY-255
  6
CONTINUOUS
 62
     7
100
AcDbPoint
 10
2890.0
 20
299.9999999999998
 30
0.0
  0
LINE
  5
484
330
1F
100
AcDbEntity
  8
LAY-255
  6
CONTINUOUS
 62
     7
100
AcDbLine
 10
3850.0
 20
100.0
 30
0.0
 11
3850.0
 21
2800.0
 31
0.0
  0
LINE
  5
485
330
1F
100
AcDbEntity
  8
LAY-255
  6
CONTINUOUS
 62
     7
100
AcDbLine
 10
2850.0
 20
100.0
 30
0.0
 11
2850.0
 21
720.0
 31
0.0
  0
LINE
  5
486
330
1F
100
AcDbEntity
  8
LAY-255
  6
CONTINUOUS
 62
     7
100
AcDbLine
 10
3850.0
 20
720.0
 30
0.0
 11
2850.0
 21
720.0
 31
0.0
  0
LINE
  5
487
330
1F
100
AcDbEntity
  8
LAY-255
  6
CONTINUOUS
 62
     4
100
AcDbLine
 10
3830.0
 20
600.0
 30
0.0
 11
2870.0
 21
600.0
 31
0.0
  0
LINE
  5
488
330
1F
100
AcDbEntity
  8
LAY-255
  6
CONTINUOUS
 62
     4
100
AcDbLine
 10
3830.0
 20
660.0
 30
0.0
 11
2870.0
 21
660.0
 31
0.0
  0
POINT
  5
489
330
1F
100
AcDbEntity
  8
LAY-255
  6
CONTINUOUS
 62
     7
100
AcDbPoint
 10
2890.0
 20
550.0
 30
0.0
  0
POINT
  5
48A
330
1F
100
AcDbEntity
  8
LAY-255
  6
CONTINUOUS
 62
     7
100
AcDbPoint
 10
3000.0
 20
610.0
 30
0.0
  0
POINT
  5
48B
330
1F
100
AcDbEntity
  8
LAY-255
  6
CONTINUOUS
 62
     7
100
AcDbPoint
 10
3000.0
 20
670.0
 30
0.0
  0
POINT
  5
48C
330
1F
100
AcDbEntity
  8
LAY-255
  6
CONTINUOUS
 62
     7
100
AcDbPoint
 10
2890.0
 20
450.0
 30
0.0
  0
POINT
  5
48D
330
1F
100
AcDbEntity
  8
LAY-255
  6
CONTINUOUS
 62
     7
100
AcDbPoint
 10
2890.0
 20
500.0
 30
0.0
  0
POINT
  5
48E
330
1F
100
AcDbEntity
  8
LAY-255
  6
CONTINUOUS
 62
     7
100
AcDbPoint
 10
2890.0
 20
399.9999999999999
 30
0.0
  0
POINT
  5
48F
330
1F
100
AcDbEntity
  8
LAY-255
  6
CONTINUOUS
 62
     7
100
AcDbPoint
 10
2890.0
 20
349.9999999999998
 30
0.0
  0
TEXT
  5
490
330
1F
100
AcDbEntity
  8
LAY-255
  6
CONTINUOUS
 62
     7
100
AcDbText
 10
3081.3837890625
 20
155.4375
 30
0.0
 40
51.5625
  1
福西鋳物株式会社
 41
1.342691999659091
  7
EXCADSTD
100
AcDbText
  0
TEXT
  5
491
330
1F
100
AcDbEntity
  8
LAY-255
  6
CONTINUOUS
 62
     7
100
AcDbText
 10
3085.09375
 20
119.8125
 30
0.0
 40
17.1875
  1
ＦＵＫＵＮＩＳＨＩ
 41
1.204799226045263
  7
EXCADSTD
100
AcDbText
  0
TEXT
  5
492
330
1F
100
AcDbEntity
  8
LAY-255
  6
CONTINUOUS
 62
     7
100
AcDbText
 10
3327.191964285714
 20
119.8125
 30
0.0
 40
17.1875
  1
ＦＯＵＮＤＲＹ
 41
1.243252752978497
  7
EXCADSTD
100
AcDbText
  0
TEXT
  5
493
330
1F
100
AcDbEntity
  8
LAY-255
  6
CONTINUOUS
 62
     7
100
AcDbText
 10
3519.945914381009
 20
119.8125
 30
0.0
 40
17.1875
  1
ＣＯ.,ＬＴＤ.
 41
1.243831036226633
  7
EXCADSTD
100
AcDbText
  0
TEXT
  5
494
330
1F
100
AcDbEntity
  8
LAY-255
  6
CONTINUOUS
 62
     7
100
AcDbText
 10
2940.34375
 20
137.1875
 30
0.0
 40
51.5625
  1
S
 41
0.7582677563636363
  7
EXCADSTD
100
AcDbText
  0
TEXT
  5
495
330
1F
100
AcDbEntity
  8
LAY-255
  6
CONTINUOUS
 62
     7
100
AcDbText
 10
2971.046875
 20
137.4941037736
 30
0.0
 40
51.5625
  1
F
 41
0.7440945272727272
  7
EXCADSTD
100
AcDbText
  0
TEXT
  5
496
330
1F
100
AcDbEntity
  8
LAY-255
  6
CONTINUOUS
 62
     7
100
AcDbText
 10
3371.0546875
 20
244.2187499999999
 30
0.0
 40
25.78125
  1
縮尺
 41
1.080708718181818
  7
EXCADSTD
100
AcDbText
  0
TEXT
  5
497
330
1F
100
AcDbEntity
  8
LAY-255
  6
CONTINUOUS
 62
     7
100
AcDbText
 10
2871.5234375
 20
244.2187499999999
 30
0.0
 40
25.78125
  1
作成日
 41
1.000629973818182
  7
EXCADSTD
100
AcDbText
  0
TEXT
  5
498
330
1F
100
AcDbEntity
  8
LAY-255
  6
CONTINUOUS
 62
     7
100
AcDbText
 10
3482.8125
 20
235.6249999999999
 30
0.0
 40
34.375
  1
１：１０
 41
0.9243863385026738
  7
EXCADSTD
100
AcDbText
  0
TEXT
  5
499
330
1F
100
AcDbEntity
  8
LAY-255
  6
CONTINUOUS
 62
     7
100
AcDbText
 10
2872.65625
 20
615.625
 30
0.0
 40
34.375
  1
型式
 41
1.056348480681818
  7
EXCADSTD
100
AcDbText
  0
TEXT
  5
49A
330
1F
100
AcDbEntity
  8
LAY-255
  6
CONTINUOUS
 62
     7
100
AcDbText
 10
2874.21875
 20
675.625
 30
0.0
 40
34.375
  1
品名
 41
0.9788386340909091
  7
EXCADSTD
100
AcDbText
  0
TEXT
  5
49B
330
1F
100
AcDbEntity
  8
LAY-255
  6
CONTINUOUS
 62
     7
100
AcDbText
 10
2894.53125
 20
555.6250000000001
 30
0.0
 40
34.375
  1
区分：中荷重用
 41
1.007228657526081
  7
EXCADSTD
100
AcDbText
  0
TEXT
  5
49C
330
1F
100
AcDbEntity
  8
LAY-255
  6
CONTINUOUS
 62
     7
100
AcDbText
 10
2893.75
 20
405.625
 30
0.0
 40
34.375
  1
防水：防水防臭型
 41
1.01490444025974
  7
EXCADSTD
100
AcDbText
  0
TEXT
  5
49D
330
1F
100
AcDbEntity
  8
LAY-255
  6
CONTINUOUS
 62
     7
100
AcDbText
 10
3003.90625
 20
675.625
 30
0.0
 40
34.375
  1
マンホールカバー
 41
1.015410627012987
  7
EXCADSTD
100
AcDbText
  0
TEXT
  5
49E
330
1F
100
AcDbEntity
  8
LAY-255
  6
CONTINUOUS
 62
     7
100
AcDbText
 10
3007.5
 20
615.625
 30
0.0
 40
34.375
  1
ＳＦ－１００×４５ＰＪ－１型
 41
1.004984812756598
  7
EXCADSTD
100
AcDbText
  0
TEXT
  5
49F
330
1F
100
AcDbEntity
  8
LAY-255
  6
CONTINUOUS
 62
     7
100
AcDbText
 10
2893.75
 20
355.6249999999999
 30
0.0
 40
34.375
  1
受枠：水抜穴付
 41
1.018265188375559
  7
EXCADSTD
100
AcDbText
  0
TEXT
  5
4A0
330
1F
100
AcDbEntity
  8
LAY-255
  6
CONTINUOUS
 62
     7
100
AcDbText
 10
3008.90625
 20
235.6249999999999
 30
0.0
 40
34.375
  1
０６／１１／２７
 41
0.9733971264935065
  7
EXCADSTD
100
AcDbText
  0
TEXT
  5
4A1
330
1F
100
AcDbEntity
  8
LAY-255
  6
CONTINUOUS
 62
     7
100
AcDbText
 10
2891.40625
 20
505.625
 30
0.0
 40
34.375
  1
構造：回転ロック方式
 41
1.019908786570248
  7
EXCADSTD
100
AcDbText
  0
TEXT
  5
4A2
330
1F
100
AcDbEntity
  8
LAY-255
  6
CONTINUOUS
 62
     7
100
AcDbText
 10
2891.40625
 20
455.625
 30
0.0
 40
34.375
  1
機能：親子蓋付
 41
1.0269782390462
  7
EXCADSTD
100
AcDbText
  0
TEXT
  5
4A3
330
1F
100
AcDbEntity
  8
LAY-255
  6
CONTINUOUS
 62
     7
100
AcDbText
 10
2891.71875
 20
305.6249999999999
 30
0.0
 40
34.375
  1
破壊荷重：６０ｋＮ以上
 41
1.016600426804124
  7
EXCADSTD
100
AcDbText
  0
ENDSEC
  0
SECTION
  2
OBJECTS
  0
DICTIONARY
  5
C
330
0
100
AcDbDictionary
  3
ACAD_GROUP
350
D
  3
ACAD_LAYOUT
350
1A
  3
ACAD_MATERIAL
350
43
  3
ACAD_MLEADERSTYLE
350
6B
  3
ACAD_MLINESTYLE
350
17
  3
ACAD_PLOTSETTINGS
350
19
  3
ACAD_SCALELIST
350
47
  3
ACAD_VISUALSTYLE
350
2A
  3
ACDBHEADERROUNDTRIPXREC
350
4A4
  3
ACDBVARIABLEDICTIONARY
350
4C5
  0
DICTIONARY
  5
4D0
330
8
100
AcDbDictionary
280
     1
  3
ACAD_XREC_ROUNDTRIP
360
4D1
  0
DICTIONARY
  5
D
102
{ACAD_REACTORS
330
C
102
}
330
C
100
AcDbDictionary
  0
DICTIONARY
  5
1A
102
{ACAD_REACTORS
330
C
102
}
330
C
100
AcDbDictionary
  0
DICTIONARY
  5
43
102
{ACAD_REACTORS
330
C
102
}
330
C
100
AcDbDictionary
  3
BYBLOCK
350
45
  3
BYLAYER
350
44
  3
GLOBAL
350
46
  0
DICTIONARY
  5
6B
102
{ACAD_REACTORS
330
C
102
}
330
C
100
AcDbDictionary
  3
STANDARD
350
6C
  0
DICTIONARY
  5
17
102
{ACAD_REACTORS
330
C
102
}
330
C
100
AcDbDictionary
  3
STANDARD
350
18
  0
DICTIONARY
  5
19
102
{ACAD_REACTORS
330
C
102
}
330
C
100
AcDbDictionary
  0
DICTIONARY
  5
47
102
{ACAD_REACTORS
330
C
102
}
330
C
100
AcDbDictionary
  3
A0
350
48
  3
A1
350
49
  3
A2
350
4A
  3
A3
350
4B
  3
A4
350
4C
  3
A5
350
4D
  3
A6
350
4E
  3
A7
350
4F
  3
A8
350
50
  3
A9
350
51
  3
B0
350
52
  3
B1
350
53
  3
B2
350
54
  3
B3
350
55
  3
B4
350
56
  3
B5
350
57
  3
B6
350
58
  3
B7
350
59
  3
B8
350
5A
  3
B9
350
5B
  3
C0
350
5C
  3
C1
350
5D
  3
C2
350
5E
  3
C3
350
5F
  3
C4
350
60
  3
C5
350
61
  3
C6
350
62
  3
C7
350
63
  3
C8
350
64
  3
C9
350
65
  3
D0
350
66
  3
D1
350
67
  3
D2
350
68
  0
DICTIONARY
  5
2A
102
{ACAD_REACTORS
330
C
102
}
330
C
100
AcDbDictionary
  3
2DWIREFRAME
350
2F
  3
BASIC
350
32
  3
BRIGHTEN
350
36
  3
COLORCHANGE
350
3A
  3
CONCEPTUAL
350
34
  3
DIM
350
35
  3
EDGECOLOROFF
350
3D
  3
FACEPATTERN
350
39
  3
FLAT
350
2B
  3
FLATWITHEDGES
350
2C
  3
GOURAUD
350
2D
  3
GOURAUDWITHEDGES
350
2E
  3
HIDDEN
350
31
  3
JITTEROFF
350
3B
  3
LINEPATTERN
350
38
  3
OVERHANGOFF
350
3C
  3
REALISTIC
350
33
  3
SHADED
350
42
  3
SHADED_WITH_EDGES
350
41
  3
SHADES_OF_GRAY
350
3E
  3
SKETCHY
350
3F
  3
THICKEN
350
37
  3
WIREFRAME
350
30
  3
X-RAY
350
40
  0
DICTIONARY
  5
4A4
102
{ACAD_REACTORS
330
C
102
}
330
C
100
AcDbDictionary
  3
CEPSNID
350
4AE
  3
CEPSNTYPE
350
4AD
  3
DIMSTYLEDATA
350
4C4
  3
FINGERPRINTGUID
350
4AF
  3
HYPERLINKBASE
350
4A7
  3
INSUNITS
350
4AC
  3
LAYOUTDICT
350
4A9
  3
LWETCUNION
350
4AB
  3
PLOTSETDICT
350
4AA
  3
PSVPSCALE
350
4B1
  3
PUCSBASE
350
4B4
  3
PUCSORGBACK
350
4BA
  3
PUCSORGBOTTOM
350
4B6
  3
PUCSORGFRONT
350
4B9
  3
PUCSORGLEFT
350
4B7
  3
PUCSORGRIGHT
350
4B8
  3
PUCSORGTOP
350
4B5
  3
PUCSORTHOREF
350
4B2
  3
PUCSORTHOVIEW
350
4B3
  3
STYLESHEET
350
4A8
  3
TSTACKALIGN
350
4A5
  3
TSTACKSIZE
350
4A6
  3
UCSBASE
350
4BD
  3
UCSORGBACK
350
4C3
  3
UCSORGBOTTOM
350
4BF
  3
UCSORGFRONT
350
4C2
  3
UCSORGLEFT
350
4C0
  3
UCSORGRIGHT
350
4C1
  3
UCSORGTOP
350
4BE
  3
UCSORTHOREF
350
4BB
  3
UCSORTHOVIEW
350
4BC
  3
VERSIONGUID
350
4B0
  0
DICTIONARY
  5
4C5
102
{ACAD_REACTORS
330
C
102
}
330
C
100
AcDbDictionary
  3
CANNOSCALE
350
4D2
  3
CENTEREXE
350
4CC
  3
CENTERLTYPEFILE
350
4CD
  3
CMLEADERSTYLE
350
4C7
  3
CTABLESTYLE
350
4C6
  3
DIMASSOC
350
4CE
  3
HIDETEXT
350
4CF
  3
MSLTSCALE
350
4D3
  3
PSOLHEIGHT
350
4C9
  3
PSOLWIDTH
350
4C8
  0
XRECORD
  5
4D1
102
{ACAD_REACTORS
330
4D0
102
}
330
4D0
100
AcDbXrecord
102
VTR_0.000_0.000_1.000_1.000_VISUALSTYLE
340
2F
102
VTR_0.000_0.000_1.000_1.000_GRIDDISPLAY
 70
     3
102
VTR_0.000_0.000_1.000_1.000_GRIDMAJOR
 70
     5
102
VTR_0.000_0.000_1.000_1.000_DEFAULTLIGHTING
280
     1
102
VTR_0.000_0.000_1.000_1.000_DEFAULTLIGHTINGTYPE
 70
     1
102
VTR_0.000_0.000_1.000_1.000_BRIGHTNESS
141
0.0
102
VTR_0.000_0.000_1.000_1.000_CONTRAST
142
0.0
  0
MATERIAL
  5
45
102
{ACAD_REACTORS
330
43
102
}
102
{ACAD_XDICTIONARY
360
4D6
102
}
330
43
100
AcDbMaterial
  1
BYBLOCK
  0
MATERIAL
  5
44
102
{ACAD_REACTORS
330
43
102
}
102
{ACAD_XDICTIONARY
360
4D4
102
}
330
43
100
AcDbMaterial
  1
BYLAYER
  0
MATERIAL
  5
46
102
{ACAD_REACTORS
330
43
102
}
102
{ACAD_XDICTIONARY
360
4D8
102
}
330
43
100
AcDbMaterial
  1
GLOBAL
  0
ACAD_PROXY_OBJECT
  5
6C
102
{ACAD_REACTORS
330
6B
102
}
330
6B
100
AcDbProxyObject
 90
      499
 91
      505
 93
      610
310
40901902A4063FBFFFFFE0000000000000020400000000000020404214DD185B99185C990000000000000104090141901A00000000000004100000000000000041025764000000000000039000
340
14
340
0
340
11
340
0
 94
        0
1001
ACAD_MLEADERVER
1070
     2
  0
MLINESTYLE
  5
18
102
{ACAD_REACTORS
330
17
102
}
330
17
100
AcDbMlineStyle
  2
Standard
 70
     0
  3

 62
   256
 51
90.0
 52
90.0
 71
     2
 49
0.5
 62
   256
  6
BYLAYER
 49
-0.5
 62
   256
  6
BYLAYER
  0
ACAD_PROXY_OBJECT
  5
48
102
{ACAD_REACTORS
330
47
102
}
330
47
100
AcDbProxyObject
 90
      499
 91
      503
 93
       41
310
903313A31580
  0
ACAD_PROXY_OBJECT
  5
49
102
{ACAD_REACTORS
330
47
102
}
330
47
100
AcDbProxyObject
 90
      499
 91
      503
 93
      105
310
903313A324000000000000004000
  0
ACAD_PROXY_OBJECT
  5
4A
102
{ACAD_REACTORS
330
47
102
}
330
47
100
AcDbProxyObject
 90
      499
 91
      503
 93
      105
310
903313A344000000000000104000
  0
ACAD_PROXY_OBJECT
  5
4B
102
{ACAD_REACTORS
330
47
102
}
330
47
100
AcDbProxyObject
 90
      499
 91
      503
 93
      105
310
903313A354000000000000144000
  0
ACAD_PROXY_OBJECT
  5
4C
102
{ACAD_REACTORS
330
47
102
}
330
47
100
AcDbProxyObject
 90
      499
 91
      503
 93
      105
310
903313A384000000000000204000
  0
ACAD_PROXY_OBJECT
  5
4D
102
{ACAD_REACTORS
330
47
102
}
330
47
100
AcDbProxyObject
 90
      499
 91
      503
 93
      113
310
904313A31304000000000000244000
  0
ACAD_PROXY_OBJECT
  5
4E
102
{ACAD_REACTORS
330
47
102
}
330
47
100
AcDbProxyObject
 90
      499
 91
      503
 93
      113
310
904313A31364000000000000304000
  0
ACAD_PROXY_OBJECT
  5
4F
102
{ACAD_REACTORS
330
47
102
}
330
47
100
AcDbProxyObject
 90
      499
 91
      503
 93
      113
310
904313A32304000000000000344000
  0
ACAD_PROXY_OBJECT
  5
50
102
{ACAD_REACTORS
330
47
102
}
330
47
100
AcDbProxyObject
 90
      499
 91
      503
 93
      113
310
904313A333040000000000003E4000
  0
ACAD_PROXY_OBJECT
  5
51
102
{ACAD_REACTORS
330
47
102
}
330
47
100
AcDbProxyObject
 90
      499
 91
      503
 93
      113
310
904313A34304000000000000444000
  0
ACAD_PROXY_OBJECT
  5
52
102
{ACAD_REACTORS
330
47
102
}
330
47
100
AcDbProxyObject
 90
      499
 91
      503
 93
      113
310
904313A35304000000000000494000
  0
ACAD_PROXY_OBJECT
  5
53
102
{ACAD_REACTORS
330
47
102
}
330
47
100
AcDbProxyObject
 90
      499
 91
      503
 93
      121
310
905313A3130304000000000000594000
  0
ACAD_PROXY_OBJECT
  5
54
102
{ACAD_REACTORS
330
47
102
}
330
47
100
AcDbProxyObject
 90
      499
 91
      503
 93
      105
310
903323A310000000000000010100
  0
ACAD_PROXY_OBJECT
  5
55
102
{ACAD_REACTORS
330
47
102
}
330
47
100
AcDbProxyObject
 90
      499
 91
      503
 93
      105
310
903343A310000000000000410100
  0
ACAD_PROXY_OBJECT
  5
56
102
{ACAD_REACTORS
330
47
102
}
330
47
100
AcDbProxyObject
 90
      499
 91
      503
 93
      105
310
903383A310000000000000810100
  0
ACAD_PROXY_OBJECT
  5
57
102
{ACAD_REACTORS
330
47
102
}
330
47
100
AcDbProxyObject
 90
      499
 91
      503
 93
      113
310
90431303A310000000000000910100
  0
ACAD_PROXY_OBJECT
  5
58
102
{ACAD_REACTORS
330
47
102
}
330
47
100
AcDbProxyObject
 90
      499
 91
      503
 93
      121
310
9053130303A310000000000001650100
  0
ACAD_PROXY_OBJECT
  5
59
102
{ACAD_REACTORS
330
47
102
}
330
47
100
AcDbProxyObject
 90
      499
 91
      503
 93
      257
310
90E312F31323822203D2031272D3022000000000000200FC000000000000284000
  0
ACAD_PROXY_OBJECT
  5
5A
102
{ACAD_REACTORS
330
47
102
}
330
47
100
AcDbProxyObject
 90
      499
 91
      503
 93
      249
310
90D312F363422203D2031272D3022000000000000240FC000000000000284000
  0
ACAD_PROXY_OBJECT
  5
5B
102
{ACAD_REACTORS
330
47
102
}
330
47
100
AcDbProxyObject
 90
      499
 91
      503
 93
      249
310
90D312F333222203D2031272D3022000000000000280FC000000000000284000
  0
ACAD_PROXY_OBJECT
  5
5C
102
{ACAD_REACTORS
330
47
102
}
330
47
100
AcDbProxyObject
 90
      499
 91
      503
 93
      249
310
90D312F313622203D2031272D30220000000000002C0FC000000000000284000
  0
ACAD_PROXY_OBJECT
  5
5D
102
{ACAD_REACTORS
330
47
102
}
330
47
100
AcDbProxyObject
 90
      499
 91
      503
 93
      249
310
90D332F333222203D2031272D30220000000000002E0FC000000000000284000
  0
ACAD_PROXY_OBJECT
  5
5E
102
{ACAD_REACTORS
330
47
102
}
330
47
100
AcDbProxyObject
 90
      499
 91
      503
 93
      241
310
90C312F3822203D2031272D3022000000000000300FC000000000000284000
  0
ACAD_PROXY_OBJECT
  5
5F
102
{ACAD_REACTORS
330
47
102
}
330
47
100
AcDbProxyObject
 90
      499
 91
      503
 93
      249
310
90D332F313622203D2031272D3022000000000000320FC000000000000284000
  0
ACAD_PROXY_OBJECT
  5
60
102
{ACAD_REACTORS
330
47
102
}
330
47
100
AcDbProxyObject
 90
      499
 91
      503
 93
      241
310
90C312F3422203D2031272D3022000000000000340FC000000000000284000
  0
ACAD_PROXY_OBJECT
  5
61
102
{ACAD_REACTORS
330
47
102
}
330
47
100
AcDbProxyObject
 90
      499
 91
      503
 93
      241
310
90C332F3822203D2031272D3022000000000000360FC000000000000284000
  0
ACAD_PROXY_OBJECT
  5
62
102
{ACAD_REACTORS
330
47
102
}
330
47
100
AcDbProxyObject
 90
      499
 91
      503
 93
      241
310
90C312F3222203D2031272D3022000000000000380FC000000000000284000
  0
ACAD_PROXY_OBJECT
  5
63
102
{ACAD_REACTORS
330
47
102
}
330
47
100
AcDbProxyObject
 90
      499
 91
      503
 93
      241
310
90C332F3422203D2031272D30220000000000003A0FC000000000000284000
  0
ACAD_PROXY_OBJECT
  5
64
102
{ACAD_REACTORS
330
47
102
}
330
47
100
AcDbProxyObject
 90
      499
 91
      503
 93
      161
310
90A3122203D2031272D30224000000000000284000
  0
ACAD_PROXY_OBJECT
  5
65
102
{ACAD_REACTORS
330
47
102
}
330
47
100
AcDbProxyObject
 90
      499
 91
      503
 93
      257
310
90E312D312F3222203D2031272D30220000000000003E0FC000000000000284000
  0
ACAD_PROXY_OBJECT
  5
66
102
{ACAD_REACTORS
330
47
102
}
330
47
100
AcDbProxyObject
 90
      499
 91
      503
 93
      225
310
90A3322203D2031272D302200000000000002100000000000000284000
  0
ACAD_PROXY_OBJECT
  5
67
102
{ACAD_REACTORS
330
47
102
}
330
47
100
AcDbProxyObject
 90
      499
 91
      503
 93
      225
310
90A3622203D2031272D302200000000000006100000000000000284000
  0
ACAD_PROXY_OBJECT
  5
68
102
{ACAD_REACTORS
330
47
102
}
330
47
100
AcDbProxyObject
 90
      499
 91
      503
 93
      249
310
90D31272D3022203D2031272D30220000000000000A100000000000000284000
  0
ACAD_PROXY_OBJECT
  5
2F
102
{ACAD_REACTORS
330
2A
102
}
330
2A
100
AcDbProxyObject
 90
      499
 91
      501
 93
      436
310
42CC9915DA5C99599C985B595049028333333333333E33F0000000000000F90107901411070040501600405405064090741402480A0340
1001
ACAD
1000
AcDbSavedByObjectVersion
1070
     0
  0
ACAD_PROXY_OBJECT
  5
32
102
{ACAD_REACTORS
330
2A
102
}
330
2A
100
AcDbProxyObject
 90
      499
 91
      501
 93
      388
310
4150985CDA58D07406404333333333333E33F0000000000000F90107A41107004050150841D405064090741402480A0350
1001
ACAD
1000
AcDbSavedByObjectVersion
1070
     0
  0
ACAD_PROXY_OBJECT
  5
36
102
{ACAD_REACTORS
330
2A
102
}
330
2A
100
AcDbProxyObject
 90
      499
 91
      501
 93
      428
310
42109C9A59DA1D195B90C409028333333333333E33F0000000000000F9010790141107004050150841D405064090741402480A029950
1001
ACAD
1000
AcDbSavedByObjectVersion
1070
     0
  0
ACAD_PROXY_OBJECT
  5
3A
102
{ACAD_REACTORS
330
2A
102
}
330
2A
100
AcDbProxyObject
 90
      499
 91
      501
 93
      452
310
42D0DBDB1BDC90DA185B99D95104090240C333333333333E33F0000000000000F90108901411070040501508421405064090741402480A0350
1001
ACAD
1000
AcDbSavedByObjectVersion
1070
     0
  0
ACAD_PROXY_OBJECT
  5
34
102
{ACAD_REACTORS
330
2A
102
}
330
2A
100
AcDbProxyObject
 90
      499
 91
      501
 93
      500
310
4290DBDB98D95C1D1D585B10940D028333333333333E33F0000000000000F90107902409070040501000000000018199010841D405064090740C02480A0340
1001
ACAD
1000
AcDbSavedByObjectVersion
1070
     0
  0
ACAD_PROXY_OBJECT
  5
35
102
{ACAD_REACTORS
330
2A
102
}
330
2A
100
AcDbProxyObject
 90
      499
 91
      501
 93
      412
310
40D11A5B50B409028333333333333E33F0000000000000F9010790141107004050150841D405064090741402480A02677FFFFFD0
1001
ACAD
1000
AcDbSavedByObjectVersion
1070
     0
  0
ACAD_PROXY_OBJECT
  5
3D
102
{ACAD_REACTORS
330
2A
102
}
330
2A
100
AcDbProxyObject
 90
      499
 91
      501
 93
      452
310
43115919D950DBDB1BDC93D999916409028333333333333E33F0000000000000F9010790141107004050150841D405064090741402480A0350
1001
ACAD
1000
AcDbSavedByObjectVersion
1070
     0
  0
ACAD_PROXY_OBJECT
  5
39
102
{ACAD_REACTORS
330
2A
102
}
330
2A
100
AcDbProxyObject
 90
      499
 91
      501
 93
      444
310
42D19858D95C185D1D195C9B90F409028333333333333E33F0000000000000F9010790141107004050150841D405064090741402480A0350
1001
ACAD
1000
AcDbSavedByObjectVersion
1070
     0
  0
ACAD_PROXY_OBJECT
  5
2B
102
{ACAD_REACTORS
330
2A
102
}
330
2A
100
AcDbProxyObject
 90
      499
 91
      501
 93
      380
310
41119B185D240901404333333333333E33F0000000000000F9010740A907004050150841D405064090741402480A1B50
1001
ACAD
1000
AcDbSavedByObjectVersion
1070
     0
  0
ACAD_PROXY_OBJECT
  5
2C
102
{ACAD_REACTORS
330
2A
102
}
330
2A
100
AcDbProxyObject
 90
      499
 91
      501
 93
      468
310
43519B185D15DA5D1A115919D95CD0140901404333333333333E33F0000000000000F90107409019070040501600405405064090741402480A1B50
1001
ACAD
1000
AcDbSavedByObjectVersion
1070
     0
  0
ACAD_PROXY_OBJECT
  5
2D
102
{ACAD_REACTORS
330
2A
102
}
330
2A
100
AcDbProxyObject
 90
      499
 91
      501
 93
      404
310
41D1DBDD5C985D5910240902404333333333333E33F0000000000000F9010740A9070040501641D405064090741402480A1B50
1001
ACAD
1000
AcDbSavedByObjectVersion
1070
     0
  0
ACAD_PROXY_OBJECT
  5
2E
102
{ACAD_REACTORS
330
2A
102
}
330
2A
100
AcDbProxyObject
 90
      499
 91
      501
 93
      492
310
4411DBDD5C985D5915DA5D1A115919D95CD0340902404333333333333E33F0000000000000F90107409019070040501600405405064090741402480A1B50
1001
ACAD
1000
AcDbSavedByObjectVersion
1070
     0
  0
ACAD_PROXY_OBJECT
  5
31
102
{ACAD_REACTORS
330
2A
102
}
330
2A
100
AcDbProxyObject
 90
      499
 91
      501
 93
      476
310
41921A5919195B90640502408333333333333E33F0000000000000F901079024090700405020000000000001110200405405064090740C02480A0340
1001
ACAD
1000
AcDbSavedByObjectVersion
1070
     0
  0
ACAD_PROXY_OBJECT
  5
3B
102
{ACAD_REACTORS
330
2A
102
}
330
2A
100
AcDbProxyObject
 90
      499
 91
      501
 93
      428
310
42529A5D1D195C93D999914409028333333333333E33F0000000000000F9010790141107004050150A41D405064090741402480A0350
1001
ACAD
1000
AcDbSavedByObjectVersion
1070
     0
  0
ACAD_PROXY_OBJECT
  5
38
102
{ACAD_REACTORS
330
2A
102
}
330
2A
100
AcDbProxyObject
 90
      499
 91
      501
 93
      444
310
42D31A5B995C185D1D195C9B90E409028333333333333E33F0000000000000F9010790141107004050750841D405064090741402483A0350
1001
ACAD
1000
AcDbSavedByObjectVersion
1070
     0
  0
ACAD_PROXY_OBJECT
  5
3C
102
{ACAD_REACTORS
330
2A
102
}
330
2A
100
AcDbProxyObject
 90
      499
 91
      501
 93
      444
310
42D3DD995C9A185B99D3D999915409028333333333333E33F0000000000000F9010790141107004050150941D405064090741402480A0350
1001
ACAD
1000
AcDbSavedByObjectVersion
1070
     0
  0
ACAD_PROXY_OBJECT
  5
33
102
{ACAD_REACTORS
330
2A
102
}
330
2A
100
AcDbProxyObject
 90
      499
 91
      501
 93
      428
310
425499585B1A5CDD1A58D08409038333333333333E33F0000000000000F9010740A907004050150800405405064090740C02480A1B40
1001
ACAD
1000
AcDbSavedByObjectVersion
1070
     0
  0
ACAD_PROXY_OBJECT
  5
42
102
{ACAD_REACTORS
330
2A
102
}
330
2A
100
AcDbProxyObject
 90
      499
 91
      501
 93
      420
310
4194DA1859195911B40902404333333333333E33F0000000000000F9010740A41107004050150800405405064090840C02480A0B40
1001
ACAD
1000
AcDbSavedByObjectVersion
1070
     0
  0
ACAD_PROXY_OBJECT
  5
41
102
{ACAD_REACTORS
330
2A
102
}
330
2A
100
AcDbProxyObject
 90
      499
 91
      501
 93
      516
310
4454DA18591959081DDA5D1A08195919D95CD1A40902404333333333333E33F0000000000000F901074090142907004050250800405405064090740C02480A0B40
1001
ACAD
1000
AcDbSavedByObjectVersion
1070
     0
  0
ACAD_PROXY_OBJECT
  5
3E
102
{ACAD_REACTORS
330
2A
102
}
330
2A
100
AcDbProxyObject
 90
      499
 91
      501
 93
      532
310
4394DA1859195CC81BD98811DC985E5174090240C333333333333E33F0000000000000F901079024090741D01000000000000111010841D405064090740C02480A0340
1001
ACAD
1000
AcDbSavedByObjectVersion
1070
     0
  0
ACAD_PROXY_OBJECT
  5
3F
102
{ACAD_REACTORS
330
2A
102
}
330
2A
100
AcDbProxyObject
 90
      499
 91
      501
 93
      476
310
41D4DAD95D18DA1E51840502408333333333333E33F0000000000000F901079024090741D01000000000000111010B41D405064090741802480A0340
1001
ACAD
1000
AcDbSavedByObjectVersion
1070
     0
  0
ACAD_PROXY_OBJECT
  5
37
102
{ACAD_REACTORS
330
2A
102
}
330
2A
100
AcDbProxyObject
 90
      499
 91
      501
 93
      412
310
41D51A1A58DAD95B90D409028333333333333E33F0000000000000F9010790141107004050150C41D405064090741402480A0350
1001
ACAD
1000
AcDbSavedByObjectVersion
1070
     0
  0
ACAD_PROXY_OBJECT
  5
30
102
{ACAD_REACTORS
330
2A
102
}
330
2A
100
AcDbProxyObject
 90
      499
 91
      501
 93
      420
310
4255DA5C99599C985B595059028333333333333E33F0000000000000F90107901411070040501600405405064090740C02480A0340
1001
ACAD
1000
AcDbSavedByObjectVersion
1070
     0
  0
ACAD_PROXY_OBJECT
  5
40
102
{ACAD_REACTORS
330
2A
102
}
330
2A
100
AcDbProxyObject
 90
      499
 91
      501
 93
      404
310
41560B54985E51940902404000000000000E03F0000000000000F9010740501907004050150841D405064090740C02480A1B40
1001
ACAD
1000
AcDbSavedByObjectVersion
1070
     0
  0
XRECORD
  5
4AE
102
{ACAD_REACTORS
330
4A4
102
}
330
4A4
100
AcDbXrecord
340
0
  0
XRECORD
  5
4AD
102
{ACAD_REACTORS
330
4A4
102
}
330
4A4
100
AcDbXrecord
 90
        0
  0
XRECORD
  5
4C4
102
{ACAD_REACTORS
330
4A4
102
}
330
4A4
100
AcDbXrecord
1000
DSTYLE
1002
{
1070
   340
340
11
1002
}
  0
XRECORD
  5
4AF
102
{ACAD_REACTORS
330
4A4
102
}
330
4A4
100
AcDbXrecord
  1
{061f1f78-ac7e-47a9-8627-fd4f45c7e53f}
  0
XRECORD
  5
4A7
102
{ACAD_REACTORS
330
4A4
102
}
330
4A4
100
AcDbXrecord
  1

  0
XRECORD
  5
4AC
102
{ACAD_REACTORS
330
4A4
102
}
330
4A4
100
AcDbXrecord
 90
        4
  0
XRECORD
  5
4A9
102
{ACAD_REACTORS
330
4A4
102
}
330
4A4
100
AcDbXrecord
340
1A
  0
XRECORD
  5
4AB
102
{ACAD_REACTORS
330
4A4
102
}
330
4A4
100
AcDbXrecord
 90
    10781
  0
XRECORD
  5
4AA
102
{ACAD_REACTORS
330
4A4
102
}
330
4A4
100
AcDbXrecord
340
19
  0
XRECORD
  5
4B1
102
{ACAD_REACTORS
330
4A4
102
}
330
4A4
100
AcDbXrecord
 40
0.0
  0
XRECORD
  5
4B4
102
{ACAD_REACTORS
330
4A4
102
}
330
4A4
100
AcDbXrecord
340
0
  0
XRECORD
  5
4BA
102
{ACAD_REACTORS
330
4A4
102
}
330
4A4
100
AcDbXrecord
 10
0.0
 20
0.0
 30
0.0
  0
XRECORD
  5
4B6
102
{ACAD_REACTORS
330
4A4
102
}
330
4A4
100
AcDbXrecord
 10
0.0
 20
0.0
 30
0.0
  0
XRECORD
  5
4B9
102
{ACAD_REACTORS
330
4A4
102
}
330
4A4
100
AcDbXrecord
 10
0.0
 20
0.0
 30
0.0
  0
XRECORD
  5
4B7
102
{ACAD_REACTORS
330
4A4
102
}
330
4A4
100
AcDbXrecord
 10
0.0
 20
0.0
 30
0.0
  0
XRECORD
  5
4B8
102
{ACAD_REACTORS
330
4A4
102
}
330
4A4
100
AcDbXrecord
 10
0.0
 20
0.0
 30
0.0
  0
XRECORD
  5
4B5
102
{ACAD_REACTORS
330
4A4
102
}
330
4A4
100
AcDbXrecord
 10
0.0
 20
0.0
 30
0.0
  0
XRECORD
  5
4B2
102
{ACAD_REACTORS
330
4A4
102
}
330
4A4
100
AcDbXrecord
340
0
  0
XRECORD
  5
4B3
102
{ACAD_REACTORS
330
4A4
102
}
330
4A4
100
AcDbXrecord
 70
     0
  0
XRECORD
  5
4A8
102
{ACAD_REACTORS
330
4A4
102
}
330
4A4
100
AcDbXrecord
  1

  0
XRECORD
  5
4A5
102
{ACAD_REACTORS
330
4A4
102
}
330
4A4
100
AcDbXrecord
 90
        1
  0
XRECORD
  5
4A6
102
{ACAD_REACTORS
330
4A4
102
}
330
4A4
100
AcDbXrecord
 90
       70
  0
XRECORD
  5
4BD
102
{ACAD_REACTORS
330
4A4
102
}
330
4A4
100
AcDbXrecord
340
0
  0
XRECORD
  5
4C3
102
{ACAD_REACTORS
330
4A4
102
}
330
4A4
100
AcDbXrecord
 10
0.0
 20
0.0
 30
0.0
  0
XRECORD
  5
4BF
102
{ACAD_REACTORS
330
4A4
102
}
330
4A4
100
AcDbXrecord
 10
0.0
 20
0.0
 30
0.0
  0
XRECORD
  5
4C2
102
{ACAD_REACTORS
330
4A4
102
}
330
4A4
100
AcDbXrecord
 10
0.0
 20
0.0
 30
0.0
  0
XRECORD
  5
4C0
102
{ACAD_REACTORS
330
4A4
102
}
330
4A4
100
AcDbXrecord
 10
0.0
 20
0.0
 30
0.0
  0
XRECORD
  5
4C1
102
{ACAD_REACTORS
330
4A4
102
}
330
4A4
100
AcDbXrecord
 10
0.0
 20
0.0
 30
0.0
  0
XRECORD
  5
4BE
102
{ACAD_REACTORS
330
4A4
102
}
330
4A4
100
AcDbXrecord
 10
0.0
 20
0.0
 30
0.0
  0
XRECORD
  5
4BB
102
{ACAD_REACTORS
330
4A4
102
}
330
4A4
100
AcDbXrecord
340
0
  0
XRECORD
  5
4BC
102
{ACAD_REACTORS
330
4A4
102
}
330
4A4
100
AcDbXrecord
 70
     0
  0
XRECORD
  5
4B0
102
{ACAD_REACTORS
330
4A4
102
}
330
4A4
100
AcDbXrecord
  1
{FAEB1C32-E019-11D5-929B-00C0DF256EC4}
  0
DICTIONARYVAR
  5
4D2
102
{ACAD_REACTORS
330
4C5
102
}
330
4C5
100
DictionaryVariables
280
     0
  1
1:1
  0
DICTIONARYVAR
  5
4CC
102
{ACAD_REACTORS
330
4C5
102
}
330
4C5
100
DictionaryVariables
280
     0
  1
3.500000
  0
DICTIONARYVAR
  5
4CD
102
{ACAD_REACTORS
330
4C5
102
}
330
4C5
100
DictionaryVariables
280
     0
  1
acadiso.lin
  0
DICTIONARYVAR
  5
4C7
102
{ACAD_REACTORS
330
4C5
102
}
330
4C5
100
DictionaryVariables
280
     0
  1
Standard
  0
DICTIONARYVAR
  5
4C6
102
{ACAD_REACTORS
330
4C5
102
}
330
4C5
100
DictionaryVariables
280
     0
  1
Standard
  0
DICTIONARYVAR
  5
4CE
102
{ACAD_REACTORS
330
4C5
102
}
330
4C5
100
DictionaryVariables
280
     0
  1
2
  0
DICTIONARYVAR
  5
4CF
102
{ACAD_REACTORS
330
4C5
102
}
330
4C5
100
DictionaryVariables
280
     0
  1
1
  0
DICTIONARYVAR
  5
4D3
102
{ACAD_REACTORS
330
4C5
102
}
330
4C5
100
DictionaryVariables
280
     0
  1
1
  0
DICTIONARYVAR
  5
4C9
102
{ACAD_REACTORS
330
4C5
102
}
330
4C5
100
DictionaryVariables
280
     0
  1
80.000000
  0
DICTIONARYVAR
  5
4C8
102
{ACAD_REACTORS
330
4C5
102
}
330
4C5
100
DictionaryVariables
280
     0
  1
5.000000
  0
DICTIONARY
  5
4D6
330
45
100
AcDbDictionary
280
     1
  3
ACAD_XREC_ROUNDTRIP
360
4D7
  0
DICTIONARY
  5
4D4
330
44
100
AcDbDictionary
280
     1
  3
ACAD_XREC_ROUNDTRIP
360
4D5
  0
DICTIONARY
  5
4D8
330
46
100
AcDbDictionary
280
     1
  3
ACAD_XREC_ROUNDTRIP
360
4D9
  0
XRECORD
  5
4D7
102
{ACAD_REACTORS
330
4D6
102
}
330
4D6
100
AcDbXrecord
102
MATERIAL
148
0.0
149
0.0
149
0.0
 93
        0
 94
      127
282
     0
 72
     1
 77
     1
171
     1
175
     1
179
     1
273
     0
  0
XRECORD
  5
4D5
102
{ACAD_REACTORS
330
4D4
102
}
330
4D4
100
AcDbXrecord
102
MATERIAL
148
0.0
149
0.0
149
0.0
 93
        0
 94
      127
282
     0
 72
     1
 77
     1
171
     1
175
     1
179
     1
273
     0
  0
XRECORD
  5
4D9
102
{ACAD_REACTORS
330
4D8
102
}
330
4D8
100
AcDbXrecord
102
MATERIAL
148
0.0
149
0.0
149
0.0
 93
        0
 94
      127
282
     0
 72
     1
 77
     1
171
     1
175
     1
179
     1
273
     0
  0
ENDSEC
  0
EOF
