  0
SECTION
  2
HEADER
  9
$ACADVER
  1
AC1014
  9
$ACADMAINTVER
 70
     9
  9
$DWGCODEPAGE
  3
ANSI_932
  9
$INSBASE
 10
0.0
 20
0.0
 30
0.0
  9
$EXTMIN
 10
25.0
 20
50.0
 30
0.0
  9
$EXTMAX
 10
1925.0
 20
1400.0
 30
0.0
  9
$LIMMIN
 10
0.0
 20
0.0
  9
$LIMMAX
 10
420.0
 20
297.0
  9
$ORTHOMODE
 70
     0
  9
$REGENMODE
 70
     1
  9
$FILLMODE
 70
     1
  9
$QTEXTMODE
 70
     0
  9
$MIRRTEXT
 70
     1
  9
$DRAGMODE
 70
     2
  9
$LTSCALE
 40
0.2
  9
$OSMODE
 70
    37
  9
$ATTMODE
 70
     1
  9
$TEXTSIZE
 40
2.5
  9
$TRACEWID
 40
1.0
  9
$TEXTSTYLE
  7
STANDARD
  9
$CLAYER
  8
LAY-10
  9
$CELTYPE
  6
BYLAYER
  9
$CECOLOR
 62
   256
  9
$CELTSCALE
 40
1.0
  9
$DELOBJ
 70
     1
  9
$DISPSILH
 70
     0
  9
$DIMSCALE
 40
1.0
  9
$DIMASZ
 40
2.5
  9
$DIMEXO
 40
0.625
  9
$DIMDLI
 40
3.75
  9
$DIMRND
 40
0.0
  9
$DIMDLE
 40
0.0
  9
$DIMEXE
 40
1.25
  9
$DIMTP
 40
0.0
  9
$DIMTM
 40
0.0
  9
$DIMTXT
 40
2.5
  9
$DIMCEN
 40
2.5
  9
$DIMTSZ
 40
0.0
  9
$DIMTOL
 70
     0
  9
$DIMLIM
 70
     0
  9
$DIMTIH
 70
     0
  9
$DIMTOH
 70
     0
  9
$DIMSE1
 70
     0
  9
$DIMSE2
 70
     0
  9
$DIMTAD
 70
     1
  9
$DIMZIN
 70
     8
  9
$DIMBLK
  1

  9
$DIMASO
 70
     1
  9
$DIMSHO
 70
     1
  9
$DIMPOST
  1

  9
$DIMAPOST
  1

  9
$DIMALT
 70
     0
  9
$DIMALTD
 70
     3
  9
$DIMALTF
 40
0.03937007874016
  9
$DIMLFAC
 40
1.0
  9
$DIMTOFL
 70
     1
  9
$DIMTVP
 40
0.0
  9
$DIMTIX
 70
     0
  9
$DIMSOXD
 70
     0
  9
$DIMSAH
 70
     0
  9
$DIMBLK1
  1

  9
$DIMBLK2
  1

  9
$DIMSTYLE
  2
ISO-25
  9
$DIMCLRD
 70
     0
  9
$DIMCLRE
 70
     0
  9
$DIMCLRT
 70
     0
  9
$DIMTFAC
 40
1.0
  9
$DIMGAP
 40
0.625
  9
$DIMJUST
 70
     0
  9
$DIMSD1
 70
     0
  9
$DIMSD2
 70
     0
  9
$DIMTOLJ
 70
     0
  9
$DIMTZIN
 70
     8
  9
$DIMALTZ
 70
     0
  9
$DIMALTTZ
 70
     0
  9
$DIMFIT
 70
     3
  9
$DIMUPT
 70
     0
  9
$DIMUNIT
 70
     2
  9
$DIMDEC
 70
     2
  9
$DIMTDEC
 70
     2
  9
$DIMALTU
 70
     2
  9
$DIMALTTD
 70
     3
  9
$DIMTXSTY
  7
STANDARD
  9
$DIMAUNIT
 70
     0
  9
$LUNITS
 70
     2
  9
$LUPREC
 70
     4
  9
$SKETCHINC
 40
1.0
  9
$FILLETRAD
 40
10.0
  9
$AUNITS
 70
     0
  9
$AUPREC
 70
     0
  9
$MENU
  1
.
  9
$ELEVATION
 40
0.0
  9
$PELEVATION
 40
0.0
  9
$THICKNESS
 40
0.0
  9
$LIMCHECK
 70
     0
  9
$CHAMFERA
 40
0.0
  9
$CHAMFERB
 40
0.0
  9
$CHAMFERC
 40
0.0
  9
$CHAMFERD
 40
0.0
  9
$SKPOLY
 70
     0
  9
$TDCREATE
 40
2459229.337072107
  9
$TDUPDATE
 40
2459229.337072639
  9
$TDINDWG
 40
0.0000000116
  9
$TDUSRTIMER
 40
0.0000000116
  9
$USRTIMER
 70
     1
  9
$ANGBASE
 50
0.0
  9
$ANGDIR
 70
     0
  9
$PDMODE
 70
     0
  9
$PDSIZE
 40
0.0
  9
$PLINEWID
 40
0.0
  9
$COORDS
 70
     1
  9
$SPLFRAME
 70
     0
  9
$SPLINETYPE
 70
     6
  9
$SPLINESEGS
 70
     8
  9
$ATTDIA
 70
     0
  9
$ATTREQ
 70
     1
  9
$HANDLING
 70
     1
  9
$HANDSEED
  5
47C
  9
$SURFTAB1
 70
     6
  9
$SURFTAB2
 70
     6
  9
$SURFTYPE
 70
     6
  9
$SURFU
 70
     6
  9
$SURFV
 70
     6
  9
$UCSNAME
  2

  9
$UCSORG
 10
0.0
 20
0.0
 30
0.0
  9
$UCSXDIR
 10
1.0
 20
0.0
 30
0.0
  9
$UCSYDIR
 10
0.0
 20
1.0
 30
0.0
  9
$PUCSNAME
  2

  9
$PUCSORG
 10
0.0
 20
0.0
 30
0.0
  9
$PUCSXDIR
 10
1.0
 20
0.0
 30
0.0
  9
$PUCSYDIR
 10
0.0
 20
1.0
 30
0.0
  9
$USERI1
 70
     0
  9
$USERI2
 70
     0
  9
$USERI3
 70
     0
  9
$USERI4
 70
     0
  9
$USERI5
 70
     0
  9
$USERR1
 40
0.0
  9
$USERR2
 40
0.0
  9
$USERR3
 40
0.0
  9
$USERR4
 40
0.0
  9
$USERR5
 40
0.0
  9
$WORLDVIEW
 70
     1
  9
$SHADEDGE
 70
     3
  9
$SHADEDIF
 70
    70
  9
$TILEMODE
 70
     1
  9
$MAXACTVP
 70
    64
  9
$PINSBASE
 10
0.0
 20
0.0
 30
0.0
  9
$PLIMCHECK
 70
     0
  9
$PEXTMIN
 10
1.000000000000000E+20
 20
1.000000000000000E+20
 30
1.000000000000000E+20
  9
$PEXTMAX
 10
-1.000000000000000E+20
 20
-1.000000000000000E+20
 30
-1.000000000000000E+20
  9
$PLIMMIN
 10
0.0
 20
0.0
  9
$PLIMMAX
 10
420.0
 20
297.0
  9
$UNITMODE
 70
     0
  9
$VISRETAIN
 70
     1
  9
$PLINEGEN
 70
     0
  9
$PSLTSCALE
 70
     1
  9
$TREEDEPTH
 70
  3020
  9
$PICKSTYLE
 70
     1
  9
$CMLSTYLE
  2
STANDARD
  9
$CMLJUST
 70
     0
  9
$CMLSCALE
 40
20.0
  9
$PROXYGRAPHICS
 70
     1
  9
$MEASUREMENT
 70
     1
  0
ENDSEC
  0
SECTION
  2
CLASSES
  0
CLASS
  1
ACDBDICTIONARYWDFLT
  2
AcDbDictionaryWithDefault
  3
ObjectDBX Classes
 90
        0
280
     0
281
     0
  0
CLASS
  1
VISUALSTYLE
  2
AcDbVisualStyle
  3
ObjectDBX Classes
 90
     4095
280
     0
281
     0
  0
CLASS
  1
MATERIAL
  2
AcDbMaterial
  3
ObjectDBX Classes
 90
     1153
280
     0
281
     0
  0
CLASS
  1
SCALE
  2
AcDbScale
  3
ObjectDBX Classes
 90
     1153
280
     0
281
     0
  0
CLASS
  1
TABLESTYLE
  2
AcDbTableStyle
  3
ObjectDBX Classes
 90
     4095
280
     0
281
     0
  0
CLASS
  1
MLEADERSTYLE
  2
AcDbMLeaderStyle
  3
ACDB_MLEADERSTYLE_CLASS
 90
     4095
280
     0
281
     0
  0
CLASS
  1
SUN
  2
AcDbSun
  3
SCENEOE
 90
     1153
280
     0
281
     0
  0
CLASS
  1
DICTIONARYVAR
  2
AcDbDictionaryVar
  3
ObjectDBX Classes
 90
        0
280
     0
281
     0
  0
CLASS
  1
XRECORD
  2
AcDbXrecord
  3
ObjectDBX Classes
 90
        0
280
     0
281
     0
  0
CLASS
  1
LWPOLYLINE
  2
AcDbPolyline
  3
ObjectDBX Classes
 90
        0
280
     0
281
     1
  0
CLASS
  1
HATCH
  2
AcDbHatch
  3
ObjectDBX Classes
 90
        0
280
     0
281
     1
  0
CLASS
  1
ACDBPLACEHOLDER
  2
AcDbPlaceHolder
  3
ObjectDBX Classes
 90
        0
280
     0
281
     0
  0
CLASS
  1
LAYOUT
  2
AcDbLayout
  3
ObjectDBX Classes
 90
        0
280
     0
281
     0
  0
ENDSEC
  0
SECTION
  2
TABLES
  0
TABLE
  2
VPORT
  5
8
102
{ACAD_XDICTIONARY
360
471
102
}
330
0
100
AcDbSymbolTable
 70
     1
  0
VPORT
  5
29
330
8
100
AcDbSymbolTableRecord
100
AcDbViewportTableRecord
  2
*ACTIVE
 70
     0
 10
0.0
 20
0.0
 11
1.0
 21
1.0
 12
975.0000000000001
 22
725.0
 13
0.0
 23
0.0
 14
10.0
 24
10.0
 15
10.0
 25
10.0
 16
0.0
 26
0.0
 36
1.0
 17
0.0
 27
0.0
 37
0.0
 40
1350.0
 41
1.407407407407408
 42
50.0
 43
0.0
 44
0.0
 50
0.0
 51
0.0
 71
     0
 72
  1000
 73
     1
 74
     3
 75
     0
 76
     0
 77
     0
 78
     0
  0
ENDTAB
  0
TABLE
  2
LTYPE
  5
5
330
0
100
AcDbSymbolTable
 70
     6
  0
LTYPE
  5
14
330
5
100
AcDbSymbolTableRecord
100
AcDbLinetypeTableRecord
  2
BYBLOCK
 70
     0
  3

 72
    65
 73
     0
 40
0.0
  0
LTYPE
  5
15
330
5
100
AcDbSymbolTableRecord
100
AcDbLinetypeTableRecord
  2
BYLAYER
 70
     0
  3

 72
    65
 73
     0
 40
0.0
  0
LTYPE
  5
16
330
5
100
AcDbSymbolTableRecord
100
AcDbLinetypeTableRecord
  2
CONTINUOUS
 70
     0
  3
Solid line
 72
    65
 73
     0
 40
0.0
  0
LTYPE
  5
6E
330
5
100
AcDbSymbolTableRecord
100
AcDbLinetypeTableRecord
  2
HIDDEN
 70
     0
  3
Hidden __ __ __ __ __ __ __ __ __ __ __ __ __ __
 72
    65
 73
     2
 40
9.524999999999999
 49
6.35
 74
     0
 49
-3.175
 74
     0
  0
LTYPE
  5
6F
330
5
100
AcDbSymbolTableRecord
100
AcDbLinetypeTableRecord
  2
CENTER
 70
     0
  3
Center ____ _ ____ _ ____ _ ____ _ ____ _ ____
 72
    65
 73
     4
 40
50.8
 49
31.75
 74
     0
 49
-6.35
 74
     0
 49
6.35
 74
     0
 49
-6.35
 74
     0
  0
LTYPE
  5
70
330
5
100
AcDbSymbolTableRecord
100
AcDbLinetypeTableRecord
  2
PHANTOM
 70
     0
  3
Phantom ______  __  __  ______  __  __  ______ 
 72
    65
 73
     6
 40
63.50000000000001
 49
31.75
 74
     0
 49
-6.35
 74
     0
 49
6.35
 74
     0
 49
-6.35
 74
     0
 49
6.35
 74
     0
 49
-6.35
 74
     0
  0
LTYPE
  5
71
330
5
100
AcDbSymbolTableRecord
100
AcDbLinetypeTableRecord
  2
ACAD_ISO06W100
 70
     0
  3
ISO long-dash triple-dot ____ ... ____ ... ____
 72
    65
 73
     8
 40
36.0
 49
24.0
 74
     0
 49
-3.0
 74
     0
 49
0.0
 74
     0
 49
-3.0
 74
     0
 49
0.0
 74
     0
 49
-3.0
 74
     0
 49
0.0
 74
     0
 49
-3.0
 74
     0
  0
LTYPE
  5
72
330
5
100
AcDbSymbolTableRecord
100
AcDbLinetypeTableRecord
  2
ACAD_ISO15W100
 70
     0
  3
ISO double-dash triple-dot __ __ . . . __ __ . .
 72
    65
 73
    10
 40
39.0
 49
12.0
 74
     0
 49
-3.0
 74
     0
 49
12.0
 74
     0
 49
-3.0
 74
     0
 49
0.0
 74
     0
 49
-3.0
 74
     0
 49
0.0
 74
     0
 49
-3.0
 74
     0
 49
0.0
 74
     0
 49
-3.0
 74
     0
  0
ENDTAB
  0
TABLE
  2
LAYER
  5
2
330
0
100
AcDbSymbolTable
 70
     6
  0
LAYER
  5
10
330
2
100
AcDbSymbolTableRecord
100
AcDbLayerTableRecord
  2
0
 70
     0
 62
     7
  6
CONTINUOUS
  0
LAYER
  5
75
330
2
100
AcDbSymbolTableRecord
100
AcDbLayerTableRecord
  2
LAY-10
 70
     0
 62
     7
  6
CONTINUOUS
  0
LAYER
  5
76
330
2
100
AcDbSymbolTableRecord
100
AcDbLayerTableRecord
  2
LAY-11
 70
     0
 62
     7
  6
CONTINUOUS
  0
LAYER
  5
77
330
2
100
AcDbSymbolTableRecord
100
AcDbLayerTableRecord
  2
LAY-20
 70
     0
 62
     7
  6
CONTINUOUS
  0
LAYER
  5
78
330
2
100
AcDbSymbolTableRecord
100
AcDbLayerTableRecord
  2
LAY-255
 70
     0
 62
     7
  6
CONTINUOUS
  0
LAYER
  5
3C0
330
2
100
AcDbSymbolTableRecord
100
AcDbLayerTableRecord
  2
DEFPOINTS
 70
     0
 62
     7
  6
CONTINUOUS
  0
ENDTAB
  0
TABLE
  2
STYLE
  5
3
330
0
100
AcDbSymbolTable
 70
     4
  0
STYLE
  5
11
330
3
100
AcDbSymbolTableRecord
100
AcDbTextStyleTableRecord
  2
STANDARD
 70
     0
 40
0.0
 41
1.0
 50
0.0
 71
     0
 42
2.5
  3
simplex
  4
bigfont
  0
STYLE
  5
73
330
3
100
AcDbSymbolTableRecord
100
AcDbTextStyleTableRecord
  2
EXCADSTD
 70
     0
 40
0.0
 41
1.0
 50
0.0
 71
     0
 42
2.5
  3
simplex
  4
bigfont
  0
STYLE
  5
74
330
3
100
AcDbSymbolTableRecord
100
AcDbTextStyleTableRecord
  2
EXCADVERT
 70
     4
 40
0.0
 41
1.0
 50
0.0
 71
     0
 42
2.5
  3
simplex
  4
bigfont
  0
STYLE
  5
3BE
330
3
100
AcDbSymbolTableRecord
100
AcDbTextStyleTableRecord
  2
EXCADDIM1
 70
     0
 40
0.0
 41
0.84
 50
0.0
 71
     0
 42
2.5
  3
simplex
  4
bigfont
  0
ENDTAB
  0
TABLE
  2
VIEW
  5
6
330
0
100
AcDbSymbolTable
 70
     0
  0
ENDTAB
  0
TABLE
  2
UCS
  5
7
330
0
100
AcDbSymbolTable
 70
     0
  0
ENDTAB
  0
TABLE
  2
APPID
  5
9
330
0
100
AcDbSymbolTable
 70
     2
  0
APPID
  5
12
330
9
100
AcDbSymbolTableRecord
100
AcDbRegAppTableRecord
  2
ACAD
 70
     0
  0
APPID
  5
47B
330
9
100
AcDbSymbolTableRecord
100
AcDbRegAppTableRecord
  2
ACAD_MLEADERVER
 70
     0
  0
ENDTAB
  0
TABLE
  2
DIMSTYLE
  5
A
330
0
100
AcDbSymbolTable
 70
     1
  0
DIMSTYLE
105
27
102
{ACAD_REACTORS
330
3BF
330
3CD
330
3DA
330
3E7
330
3F4
330
401
330
40D
102
}
330
A
100
AcDbSymbolTableRecord
100
AcDbDimStyleTableRecord
  2
ISO-25
 70
     0
  3

  4

  5

  6

  7

 40
1.0
 41
2.5
 42
0.625
 43
3.75
 44
1.25
 45
0.0
 46
0.0
 47
0.0
 48
0.0
140
2.5
141
2.5
142
0.0
143
0.03937007874016
144
1.0
145
0.0
146
1.0
147
0.625
 71
     0
 72
     0
 73
     0
 74
     0
 75
     0
 76
     0
 77
     1
 78
     8
170
     0
171
     3
172
     1
173
     0
174
     0
175
     0
176
     0
177
     0
178
     0
270
     2
271
     2
272
     2
273
     2
274
     3
340
11
275
     0
280
     0
281
     0
282
     0
283
     0
284
     8
285
     0
286
     0
287
     5
288
     0
  0
ENDTAB
  0
TABLE
  2
BLOCK_RECORD
  5
1
330
0
100
AcDbSymbolTable
 70
    21
  0
BLOCK_RECORD
  5
1F
330
1
100
AcDbSymbolTableRecord
100
AcDbBlockTableRecord
  2
*MODEL_SPACE
  0
BLOCK_RECORD
  5
1B
330
1
100
AcDbSymbolTableRecord
100
AcDbBlockTableRecord
  2
*PAPER_SPACE
  0
BLOCK_RECORD
  5
79
330
1
100
AcDbSymbolTableRecord
100
AcDbBlockTableRecord
  2
EX_NORM
  0
BLOCK_RECORD
  5
7C
330
1
100
AcDbSymbolTableRecord
100
AcDbBlockTableRecord
  2
EX_BNORM
  0
BLOCK_RECORD
  5
7F
330
1
100
AcDbSymbolTableRecord
100
AcDbBlockTableRecord
  2
EX_BCIR
  0
BLOCK_RECORD
  5
82
330
1
100
AcDbSymbolTableRecord
100
AcDbBlockTableRecord
  2
EX_RCIVIL
  0
BLOCK_RECORD
  5
85
330
1
100
AcDbSymbolTableRecord
100
AcDbBlockTableRecord
  2
EX_SLANT
  0
BLOCK_RECORD
  5
88
330
1
100
AcDbSymbolTableRecord
100
AcDbBlockTableRecord
  2
EX_NONE
  0
BLOCK_RECORD
  5
8B
330
1
100
AcDbSymbolTableRecord
100
AcDbBlockTableRecord
  2
EX_CIVIL
  0
BLOCK_RECORD
  5
8E
330
1
100
AcDbSymbolTableRecord
100
AcDbBlockTableRecord
  2
EX_WCIR
  0
BLOCK_RECORD
  5
91
330
1
100
AcDbSymbolTableRecord
100
AcDbBlockTableRecord
  2
EX_WCIR2
  0
BLOCK_RECORD
  5
94
330
1
100
AcDbSymbolTableRecord
100
AcDbBlockTableRecord
  2
EX_WNORM
  0
BLOCK_RECORD
  5
97
330
1
100
AcDbSymbolTableRecord
100
AcDbBlockTableRecord
  2
EX_NNORM
  0
BLOCK_RECORD
  5
9A
330
1
100
AcDbSymbolTableRecord
100
AcDbBlockTableRecord
  2
EX_BBOX
  0
BLOCK_RECORD
  5
9D
330
1
100
AcDbSymbolTableRecord
100
AcDbBlockTableRecord
  2
EX_WBOX
  0
BLOCK_RECORD
  5
A0
330
1
100
AcDbSymbolTableRecord
100
AcDbBlockTableRecord
  2
EX_INTEGRAL
  0
BLOCK_RECORD
  5
3C1
330
1
100
AcDbSymbolTableRecord
100
AcDbBlockTableRecord
  2
*D15
  0
BLOCK_RECORD
  5
3CE
330
1
100
AcDbSymbolTableRecord
100
AcDbBlockTableRecord
  2
*D16
  0
BLOCK_RECORD
  5
3DB
330
1
100
AcDbSymbolTableRecord
100
AcDbBlockTableRecord
  2
*D17
  0
BLOCK_RECORD
  5
3E8
330
1
100
AcDbSymbolTableRecord
100
AcDbBlockTableRecord
  2
*D18
  0
BLOCK_RECORD
  5
3F5
330
1
100
AcDbSymbolTableRecord
100
AcDbBlockTableRecord
  2
*D19
  0
BLOCK_RECORD
  5
402
330
1
100
AcDbSymbolTableRecord
100
AcDbBlockTableRecord
  2
*D20
  0
BLOCK_RECORD
  5
40E
330
1
100
AcDbSymbolTableRecord
100
AcDbBlockTableRecord
  2
*D21
  0
ENDTAB
  0
ENDSEC
  0
SECTION
  2
BLOCKS
  0
BLOCK
  5
20
330
1F
100
AcDbEntity
  8
0
100
AcDbBlockBegin
  2
*MODEL_SPACE
 70
     0
 10
0.0
 20
0.0
 30
0.0
  3
*MODEL_SPACE
  1

  0
ENDBLK
  5
21
330
1F
100
AcDbEntity
  8
0
100
AcDbBlockEnd
  0
BLOCK
  5
1C
330
1B
100
AcDbEntity
 67
     1
  8
0
100
AcDbBlockBegin
  2
*PAPER_SPACE
 70
     0
 10
0.0
 20
0.0
 30
0.0
  3
*PAPER_SPACE
  1

  0
ENDBLK
  5
1D
330
1B
100
AcDbEntity
 67
     1
  8
0
100
AcDbBlockEnd
  0
BLOCK
  5
7A
330
79
100
AcDbEntity
  8
0
100
AcDbBlockBegin
  2
EX_NORM
 70
     0
 10
0.0
 20
0.0
 30
0.0
  3
EX_NORM
  1

  0
LINE
  5
A3
330
79
100
AcDbEntity
  8
0
  6
CONTINUOUS
 62
     0
100
AcDbLine
 10
0.0
 20
0.0
 30
0.0
 11
-1.0
 21
0.0
 31
0.0
  0
LINE
  5
A4
330
79
100
AcDbEntity
  8
0
  6
CONTINUOUS
 62
     0
100
AcDbLine
 10
0.0
 20
0.0
 30
0.0
 11
-1.0
 21
0.166666667
 31
0.0
  0
LINE
  5
A5
330
79
100
AcDbEntity
  8
0
  6
CONTINUOUS
 62
     0
100
AcDbLine
 10
0.0
 20
0.0
 30
0.0
 11
-1.0
 21
-0.166666667
 31
0.0
  0
ENDBLK
  5
7B
330
79
100
AcDbEntity
  8
0
100
AcDbBlockEnd
  0
BLOCK
  5
7D
330
7C
100
AcDbEntity
  8
0
100
AcDbBlockBegin
  2
EX_BNORM
 70
     0
 10
0.0
 20
0.0
 30
0.0
  3
EX_BNORM
  1

  0
LINE
  5
A6
330
7C
100
AcDbEntity
  8
0
  6
CONTINUOUS
 62
     0
100
AcDbLine
 10
0.0
 20
0.0
 30
0.0
 11
-1.0
 21
0.0
 31
0.0
  0
LINE
  5
A7
330
7C
100
AcDbEntity
  8
0
  6
CONTINUOUS
 62
     0
100
AcDbLine
 10
0.0
 20
0.0
 30
0.0
 11
-1.0
 21
0.166666667
 31
0.0
  0
LINE
  5
A8
330
7C
100
AcDbEntity
  8
0
  6
CONTINUOUS
 62
     0
100
AcDbLine
 10
0.0
 20
0.0
 30
0.0
 11
-1.0
 21
-0.166666667
 31
0.0
  0
LINE
  5
A9
330
7C
100
AcDbEntity
  8
0
  6
CONTINUOUS
 62
     0
100
AcDbLine
 10
0.0
 20
0.0
 30
0.0
 11
-1.0
 21
0.083333333
 31
0.0
  0
LINE
  5
AA
330
7C
100
AcDbEntity
  8
0
  6
CONTINUOUS
 62
     0
100
AcDbLine
 10
0.0
 20
0.0
 30
0.0
 11
-1.0
 21
-0.083333333
 31
0.0
  0
LINE
  5
AB
330
7C
100
AcDbEntity
  8
0
  6
CONTINUOUS
 62
     0
100
AcDbLine
 10
-1.0
 20
0.166666667
 30
0.0
 11
-1.0
 21
-0.166666667
 31
0.0
  0
ENDBLK
  5
7E
330
7C
100
AcDbEntity
  8
0
100
AcDbBlockEnd
  0
BLOCK
  5
80
330
7F
100
AcDbEntity
  8
0
100
AcDbBlockBegin
  2
EX_BCIR
 70
     0
 10
0.0
 20
0.0
 30
0.0
  3
EX_BCIR
  1

  0
LINE
  5
AC
330
7F
100
AcDbEntity
  8
0
  6
CONTINUOUS
 62
     0
100
AcDbLine
 10
0.0
 20
0.0
 30
0.0
 11
-1.0
 21
0.0
 31
0.0
  0
CIRCLE
  5
AD
330
7F
100
AcDbEntity
  8
0
  6
CONTINUOUS
 62
     0
100
AcDbCircle
 10
0.0
 20
0.0
 30
0.0
 40
0.5
  0
CIRCLE
  5
AE
330
7F
100
AcDbEntity
  8
0
  6
CONTINUOUS
 62
     0
100
AcDbCircle
 10
0.0
 20
0.0
 30
0.0
 40
0.25
  0
ENDBLK
  5
81
330
7F
100
AcDbEntity
  8
0
100
AcDbBlockEnd
  0
BLOCK
  5
83
330
82
100
AcDbEntity
  8
0
100
AcDbBlockBegin
  2
EX_RCIVIL
 70
     0
 10
0.0
 20
0.0
 30
0.0
  3
EX_RCIVIL
  1

  0
LINE
  5
AF
330
82
100
AcDbEntity
  8
0
  6
CONTINUOUS
 62
     0
100
AcDbLine
 10
0.0
 20
0.0
 30
0.0
 11
-1.0
 21
0.0
 31
0.0
  0
LINE
  5
B0
330
82
100
AcDbEntity
  8
0
  6
CONTINUOUS
 62
     0
100
AcDbLine
 10
-1.0
 20
-0.25
 30
0.0
 11
0.0
 21
-0.25
 31
0.0
  0
LINE
  5
B1
330
82
100
AcDbEntity
  8
0
  6
CONTINUOUS
 62
     0
100
AcDbLine
 10
-1.0
 20
-0.125
 30
0.0
 11
0.0
 21
-0.125
 31
0.0
  0
ENDBLK
  5
84
330
82
100
AcDbEntity
  8
0
100
AcDbBlockEnd
  0
BLOCK
  5
86
330
85
100
AcDbEntity
  8
0
100
AcDbBlockBegin
  2
EX_SLANT
 70
     0
 10
0.0
 20
0.0
 30
0.0
  3
EX_SLANT
  1

  0
LINE
  5
B2
330
85
100
AcDbEntity
  8
0
  6
CONTINUOUS
 62
     0
100
AcDbLine
 10
0.0
 20
0.0
 30
0.0
 11
-1.0
 21
0.0
 31
0.0
  0
LINE
  5
B3
330
85
100
AcDbEntity
  8
0
  6
CONTINUOUS
 62
     0
100
AcDbLine
 10
0.707106781
 20
0.707106781
 30
0.0
 11
-0.707106781
 21
-0.707106781
 31
0.0
  0
ENDBLK
  5
87
330
85
100
AcDbEntity
  8
0
100
AcDbBlockEnd
  0
BLOCK
  5
89
330
88
100
AcDbEntity
  8
0
100
AcDbBlockBegin
  2
EX_NONE
 70
     0
 10
0.0
 20
0.0
 30
0.0
  3
EX_NONE
  1

  0
LINE
  5
B4
330
88
100
AcDbEntity
  8
0
  6
CONTINUOUS
 62
     0
100
AcDbLine
 10
0.0
 20
0.0
 30
0.0
 11
-1.0
 21
0.0
 31
0.0
  0
ENDBLK
  5
8A
330
88
100
AcDbEntity
  8
0
100
AcDbBlockEnd
  0
BLOCK
  5
8C
330
8B
100
AcDbEntity
  8
0
100
AcDbBlockBegin
  2
EX_CIVIL
 70
     0
 10
0.0
 20
0.0
 30
0.0
  3
EX_CIVIL
  1

  0
LINE
  5
B5
330
8B
100
AcDbEntity
  8
0
  6
CONTINUOUS
 62
     0
100
AcDbLine
 10
0.0
 20
0.0
 30
0.0
 11
-1.0
 21
0.0
 31
0.0
  0
LINE
  5
B6
330
8B
100
AcDbEntity
  8
0
  6
CONTINUOUS
 62
     0
100
AcDbLine
 10
-1.0
 20
0.25
 30
0.0
 11
0.0
 21
0.25
 31
0.0
  0
LINE
  5
B7
330
8B
100
AcDbEntity
  8
0
  6
CONTINUOUS
 62
     0
100
AcDbLine
 10
-1.0
 20
0.125
 30
0.0
 11
0.0
 21
0.125
 31
0.0
  0
ENDBLK
  5
8D
330
8B
100
AcDbEntity
  8
0
100
AcDbBlockEnd
  0
BLOCK
  5
8F
330
8E
100
AcDbEntity
  8
0
100
AcDbBlockBegin
  2
EX_WCIR
 70
     0
 10
0.0
 20
0.0
 30
0.0
  3
EX_WCIR
  1

  0
LINE
  5
B8
330
8E
100
AcDbEntity
  8
0
  6
CONTINUOUS
 62
     0
100
AcDbLine
 10
0.0
 20
0.0
 30
0.0
 11
-1.0
 21
0.0
 31
0.0
  0
CIRCLE
  5
B9
330
8E
100
AcDbEntity
  8
0
  6
CONTINUOUS
 62
     0
100
AcDbCircle
 10
0.0
 20
0.0
 30
0.0
 40
0.5
  0
ENDBLK
  5
90
330
8E
100
AcDbEntity
  8
0
100
AcDbBlockEnd
  0
BLOCK
  5
92
330
91
100
AcDbEntity
  8
0
100
AcDbBlockBegin
  2
EX_WCIR2
 70
     0
 10
0.0
 20
0.0
 30
0.0
  3
EX_WCIR2
  1

  0
LINE
  5
BA
330
91
100
AcDbEntity
  8
0
  6
CONTINUOUS
 62
     0
100
AcDbLine
 10
-0.5
 20
0.0
 30
0.0
 11
-1.0
 21
0.0
 31
0.0
  0
CIRCLE
  5
BB
330
91
100
AcDbEntity
  8
0
  6
CONTINUOUS
 62
     0
100
AcDbCircle
 10
0.0
 20
0.0
 30
0.0
 40
0.5
  0
ENDBLK
  5
93
330
91
100
AcDbEntity
  8
0
100
AcDbBlockEnd
  0
BLOCK
  5
95
330
94
100
AcDbEntity
  8
0
100
AcDbBlockBegin
  2
EX_WNORM
 70
     0
 10
0.0
 20
0.0
 30
0.0
  3
EX_WNORM
  1

  0
LINE
  5
BC
330
94
100
AcDbEntity
  8
0
  6
CONTINUOUS
 62
     0
100
AcDbLine
 10
-1.0
 20
0.0
 30
0.0
 11
-1.0
 21
0.0
 31
0.0
  0
LINE
  5
BD
330
94
100
AcDbEntity
  8
0
  6
CONTINUOUS
 62
     0
100
AcDbLine
 10
0.0
 20
0.0
 30
0.0
 11
-1.0
 21
0.166666667
 31
0.0
  0
LINE
  5
BE
330
94
100
AcDbEntity
  8
0
  6
CONTINUOUS
 62
     0
100
AcDbLine
 10
0.0
 20
0.0
 30
0.0
 11
-1.0
 21
-0.166666667
 31
0.0
  0
LINE
  5
BF
330
94
100
AcDbEntity
  8
0
  6
CONTINUOUS
 62
     0
100
AcDbLine
 10
-1.0
 20
0.166666667
 30
0.0
 11
-1.0
 21
-0.166666667
 31
0.0
  0
ENDBLK
  5
96
330
94
100
AcDbEntity
  8
0
100
AcDbBlockEnd
  0
BLOCK
  5
98
330
97
100
AcDbEntity
  8
0
100
AcDbBlockBegin
  2
EX_NNORM
 70
     0
 10
0.0
 20
0.0
 30
0.0
  3
EX_NNORM
  1

  0
LINE
  5
C0
330
97
100
AcDbEntity
  8
0
  6
CONTINUOUS
 62
     0
100
AcDbLine
 10
0.0
 20
0.0
 30
0.0
 11
-1.0
 21
0.0
 31
0.0
  0
LINE
  5
C1
330
97
100
AcDbEntity
  8
0
  6
CONTINUOUS
 62
     0
100
AcDbLine
 10
0.0
 20
0.0
 30
0.0
 11
-1.0
 21
0.166666667
 31
0.0
  0
LINE
  5
C2
330
97
100
AcDbEntity
  8
0
  6
CONTINUOUS
 62
     0
100
AcDbLine
 10
0.0
 20
0.0
 30
0.0
 11
-1.0
 21
-0.166666667
 31
0.0
  0
LINE
  5
C3
330
97
100
AcDbEntity
  8
0
  6
CONTINUOUS
 62
     0
100
AcDbLine
 10
-1.0
 20
0.166666667
 30
0.0
 11
-1.0
 21
-0.166666667
 31
0.0
  0
ENDBLK
  5
99
330
97
100
AcDbEntity
  8
0
100
AcDbBlockEnd
  0
BLOCK
  5
9B
330
9A
100
AcDbEntity
  8
0
100
AcDbBlockBegin
  2
EX_BBOX
 70
     0
 10
0.0
 20
0.0
 30
0.0
  3
EX_BBOX
  1

  0
LINE
  5
C4
330
9A
100
AcDbEntity
  8
0
  6
CONTINUOUS
 62
     0
100
AcDbLine
 10
0.0
 20
0.0
 30
0.0
 11
-1.0
 21
0.0
 31
0.0
  0
LINE
  5
C5
330
9A
100
AcDbEntity
  8
0
  6
CONTINUOUS
 62
     0
100
AcDbLine
 10
-0.5
 20
0.5
 30
0.0
 11
0.5
 21
0.5
 31
0.0
  0
LINE
  5
C6
330
9A
100
AcDbEntity
  8
0
  6
CONTINUOUS
 62
     0
100
AcDbLine
 10
0.5
 20
0.5
 30
0.0
 11
0.5
 21
-0.5
 31
0.0
  0
LINE
  5
C7
330
9A
100
AcDbEntity
  8
0
  6
CONTINUOUS
 62
     0
100
AcDbLine
 10
0.5
 20
-0.5
 30
0.0
 11
-0.5
 21
-0.5
 31
0.0
  0
LINE
  5
C8
330
9A
100
AcDbEntity
  8
0
  6
CONTINUOUS
 62
     0
100
AcDbLine
 10
-0.5
 20
-0.5
 30
0.0
 11
-0.5
 21
0.5
 31
0.0
  0
LINE
  5
C9
330
9A
100
AcDbEntity
  8
0
  6
CONTINUOUS
 62
     0
100
AcDbLine
 10
-0.25
 20
0.25
 30
0.0
 11
0.25
 21
0.25
 31
0.0
  0
LINE
  5
CA
330
9A
100
AcDbEntity
  8
0
  6
CONTINUOUS
 62
     0
100
AcDbLine
 10
0.25
 20
0.25
 30
0.0
 11
0.25
 21
-0.25
 31
0.0
  0
LINE
  5
CB
330
9A
100
AcDbEntity
  8
0
  6
CONTINUOUS
 62
     0
100
AcDbLine
 10
0.25
 20
-0.25
 30
0.0
 11
-0.25
 21
-0.25
 31
0.0
  0
LINE
  5
CC
330
9A
100
AcDbEntity
  8
0
  6
CONTINUOUS
 62
     0
100
AcDbLine
 10
-0.25
 20
-0.25
 30
0.0
 11
-0.25
 21
0.25
 31
0.0
  0
ENDBLK
  5
9C
330
9A
100
AcDbEntity
  8
0
100
AcDbBlockEnd
  0
BLOCK
  5
9E
330
9D
100
AcDbEntity
  8
0
100
AcDbBlockBegin
  2
EX_WBOX
 70
     0
 10
0.0
 20
0.0
 30
0.0
  3
EX_WBOX
  1

  0
LINE
  5
CD
330
9D
100
AcDbEntity
  8
0
  6
CONTINUOUS
 62
     0
100
AcDbLine
 10
-0.5
 20
0.0
 30
0.0
 11
-1.0
 21
0.0
 31
0.0
  0
LINE
  5
CE
330
9D
100
AcDbEntity
  8
0
  6
CONTINUOUS
 62
     0
100
AcDbLine
 10
-0.5
 20
0.5
 30
0.0
 11
0.5
 21
0.5
 31
0.0
  0
LINE
  5
CF
330
9D
100
AcDbEntity
  8
0
  6
CONTINUOUS
 62
     0
100
AcDbLine
 10
0.5
 20
0.5
 30
0.0
 11
0.5
 21
-0.5
 31
0.0
  0
LINE
  5
D0
330
9D
100
AcDbEntity
  8
0
  6
CONTINUOUS
 62
     0
100
AcDbLine
 10
0.5
 20
-0.5
 30
0.0
 11
-0.5
 21
-0.5
 31
0.0
  0
LINE
  5
D1
330
9D
100
AcDbEntity
  8
0
  6
CONTINUOUS
 62
     0
100
AcDbLine
 10
-0.5
 20
-0.5
 30
0.0
 11
-0.5
 21
0.5
 31
0.0
  0
ENDBLK
  5
9F
330
9D
100
AcDbEntity
  8
0
100
AcDbBlockEnd
  0
BLOCK
  5
A1
330
A0
100
AcDbEntity
  8
0
100
AcDbBlockBegin
  2
EX_INTEGRAL
 70
     0
 10
0.0
 20
0.0
 30
0.0
  3
EX_INTEGRAL
  1

  0
LINE
  5
D2
330
A0
100
AcDbEntity
  8
0
  6
CONTINUOUS
 62
     0
100
AcDbLine
 10
0.0
 20
0.0
 30
0.0
 11
-1.0
 21
0.0
 31
0.0
  0
ARC
  5
D3
330
A0
100
AcDbEntity
  8
0
  6
CONTINUOUS
 62
     0
100
AcDbCircle
 10
0.542115
 20
0.164992
 30
0.0
 40
0.56667
100
AcDbArc
 50
73.07249033629006
 51
196.9275130221199
  0
ARC
  5
D4
330
A0
100
AcDbEntity
  8
0
  6
CONTINUOUS
 62
     0
100
AcDbCircle
 10
-0.542115
 20
-0.164992
 30
0.0
 40
0.56667
100
AcDbArc
 50
253.0724869220464
 51
16.9275130559125
  0
ENDBLK
  5
A2
330
A0
100
AcDbEntity
  8
0
100
AcDbBlockEnd
  0
BLOCK
  5
3C2
330
3C1
100
AcDbEntity
  8
0
100
AcDbBlockBegin
  2
*D15
 70
     1
 10
0.0
 20
0.0
 30
0.0
  3
*D15
  1

  0
LINE
  5
3C4
330
3C1
100
AcDbEntity
  8
LAY-20
  6
CONTINUOUS
 62
     4
100
AcDbLine
 10
438.0000000001
 20
361.73590285844
 30
0.0
 11
438.0000000001
 21
442.5
 31
0.0
  0
LINE
  5
3C5
330
3C1
100
AcDbEntity
  8
LAY-20
  6
CONTINUOUS
 62
     4
100
AcDbLine
 10
812.0
 20
361.73590285844
 30
0.0
 11
812.0
 21
442.5
 31
0.0
  0
LINE
  5
3C6
330
3C1
100
AcDbEntity
  8
LAY-20
  6
CONTINUOUS
 62
     4
100
AcDbLine
 10
453.0000000001
 20
435.0
 30
0.0
 11
797.0
 21
435.0
 31
0.0
  0
INSERT
  5
3C7
330
3C1
100
AcDbEntity
  8
LAY-20
 62
     4
100
AcDbBlockReference
  2
EX_BNORM
 10
438.0000000001
 20
435.0
 30
0.0
 41
15.0
 42
15.0
 43
15.0
 50
180.0
  0
INSERT
  5
3C8
330
3C1
100
AcDbEntity
  8
LAY-20
 62
     4
100
AcDbBlockReference
  2
EX_BNORM
 10
812.0
 20
435.0
 30
0.0
 41
15.0
 42
15.0
 43
15.0
  0
MTEXT
  5
3C9
330
3C1
100
AcDbEntity
  8
LAY-20
 62
     7
100
AcDbMText
 10
625.00000000005
 20
447.5
 30
0.0
 40
15.590552
 41
0.0
 71
     5
 72
     1
  1
%%c374
  7
EXCADDIM1
  0
POINT
  5
3CA
330
3C1
100
AcDbEntity
  8
DEFPOINTS
 62
     0
100
AcDbPoint
 10
438.0000000001
 20
354.23590285844
 30
0.0
  0
POINT
  5
3CB
330
3C1
100
AcDbEntity
  8
DEFPOINTS
 62
     0
100
AcDbPoint
 10
812.0
 20
354.23590285844
 30
0.0
  0
POINT
  5
3CC
330
3C1
100
AcDbEntity
  8
DEFPOINTS
 62
     0
100
AcDbPoint
 10
812.0
 20
435.0
 30
0.0
  0
ENDBLK
  5
3C3
330
3C1
100
AcDbEntity
  8
0
100
AcDbBlockEnd
  0
BLOCK
  5
3CF
330
3CE
100
AcDbEntity
  8
0
100
AcDbBlockBegin
  2
*D16
 70
     1
 10
0.0
 20
0.0
 30
0.0
  3
*D16
  1

  0
LINE
  5
3D1
330
3CE
100
AcDbEntity
  8
LAY-20
  6
CONTINUOUS
 62
     4
100
AcDbLine
 10
273.0000000001
 20
358.8558171453001
 30
0.0
 11
273.0000000001
 21
477.5
 31
0.0
  0
LINE
  5
3D2
330
3CE
100
AcDbEntity
  8
LAY-20
  6
CONTINUOUS
 62
     4
100
AcDbLine
 10
977.0
 20
358.8558171453001
 30
0.0
 11
977.0
 21
477.5
 31
0.0
  0
LINE
  5
3D3
330
3CE
100
AcDbEntity
  8
LAY-20
  6
CONTINUOUS
 62
     4
100
AcDbLine
 10
288.0000000001
 20
470.0
 30
0.0
 11
962.0
 21
470.0
 31
0.0
  0
INSERT
  5
3D4
330
3CE
100
AcDbEntity
  8
LAY-20
 62
     4
100
AcDbBlockReference
  2
EX_BNORM
 10
273.0000000001
 20
470.0
 30
0.0
 41
15.0
 42
15.0
 43
15.0
 50
180.0
  0
INSERT
  5
3D5
330
3CE
100
AcDbEntity
  8
LAY-20
 62
     4
100
AcDbBlockReference
  2
EX_BNORM
 10
977.0
 20
470.0
 30
0.0
 41
15.0
 42
15.0
 43
15.0
  0
MTEXT
  5
3D6
330
3CE
100
AcDbEntity
  8
LAY-20
 62
     7
100
AcDbMText
 10
625.00000000005
 20
482.5
 30
0.0
 40
15.590552
 41
0.0
 71
     5
 72
     1
  1
%%c704
  7
EXCADDIM1
  0
POINT
  5
3D7
330
3CE
100
AcDbEntity
  8
DEFPOINTS
 62
     0
100
AcDbPoint
 10
273.0000000001
 20
351.3558171453001
 30
0.0
  0
POINT
  5
3D8
330
3CE
100
AcDbEntity
  8
DEFPOINTS
 62
     0
100
AcDbPoint
 10
977.0
 20
351.3558171453001
 30
0.0
  0
POINT
  5
3D9
330
3CE
100
AcDbEntity
  8
DEFPOINTS
 62
     0
100
AcDbPoint
 10
977.0
 20
470.0
 30
0.0
  0
ENDBLK
  5
3D0
330
3CE
100
AcDbEntity
  8
0
100
AcDbBlockEnd
  0
BLOCK
  5
3DC
330
3DB
100
AcDbEntity
  8
0
100
AcDbBlockBegin
  2
*D17
 70
     1
 10
0.0
 20
0.0
 30
0.0
  3
*D17
  1

  0
LINE
  5
3DE
330
3DB
100
AcDbEntity
  8
LAY-20
  6
CONTINUOUS
 62
     4
100
AcDbLine
 10
257.5000000001
 20
359.3558171453001
 30
0.0
 11
257.5000000001
 21
512.5
 31
0.0
  0
LINE
  5
3DF
330
3DB
100
AcDbEntity
  8
LAY-20
  6
CONTINUOUS
 62
     4
100
AcDbLine
 10
992.5
 20
359.3558171453001
 30
0.0
 11
992.5
 21
512.5
 31
0.0
  0
LINE
  5
3E0
330
3DB
100
AcDbEntity
  8
LAY-20
  6
CONTINUOUS
 62
     4
100
AcDbLine
 10
272.5000000001
 20
505.0
 30
0.0
 11
977.5
 21
505.0
 31
0.0
  0
INSERT
  5
3E1
330
3DB
100
AcDbEntity
  8
LAY-20
 62
     4
100
AcDbBlockReference
  2
EX_BNORM
 10
257.5000000001
 20
505.0
 30
0.0
 41
15.0
 42
15.0
 43
15.0
 50
180.0
  0
INSERT
  5
3E2
330
3DB
100
AcDbEntity
  8
LAY-20
 62
     4
100
AcDbBlockReference
  2
EX_BNORM
 10
992.5
 20
505.0
 30
0.0
 41
15.0
 42
15.0
 43
15.0
  0
MTEXT
  5
3E3
330
3DB
100
AcDbEntity
  8
LAY-20
 62
     7
100
AcDbMText
 10
625.00000000005
 20
517.5
 30
0.0
 40
15.590552
 41
0.0
 71
     5
 72
     1
  1
%%c735
  7
EXCADDIM1
  0
POINT
  5
3E4
330
3DB
100
AcDbEntity
  8
DEFPOINTS
 62
     0
100
AcDbPoint
 10
257.5000000001
 20
351.8558171453001
 30
0.0
  0
POINT
  5
3E5
330
3DB
100
AcDbEntity
  8
DEFPOINTS
 62
     0
100
AcDbPoint
 10
992.5
 20
351.8558171453001
 30
0.0
  0
POINT
  5
3E6
330
3DB
100
AcDbEntity
  8
DEFPOINTS
 62
     0
100
AcDbPoint
 10
992.5
 20
505.0
 30
0.0
  0
ENDBLK
  5
3DD
330
3DB
100
AcDbEntity
  8
0
100
AcDbBlockEnd
  0
BLOCK
  5
3E9
330
3E8
100
AcDbEntity
  8
0
100
AcDbBlockBegin
  2
*D18
 70
     1
 10
0.0
 20
0.0
 30
0.0
  3
*D18
  1

  0
LINE
  5
3EB
330
3E8
100
AcDbEntity
  8
LAY-20
  6
CONTINUOUS
 62
     4
100
AcDbLine
 10
475.0000000001
 20
289.2359028584
 30
0.0
 11
475.0000000001
 21
221.8558171453001
 31
0.0
  0
LINE
  5
3EC
330
3E8
100
AcDbEntity
  8
LAY-20
  6
CONTINUOUS
 62
     4
100
AcDbLine
 10
775.0
 20
289.2359028584
 30
0.0
 11
775.0
 21
221.8558171453001
 31
0.0
  0
LINE
  5
3ED
330
3E8
100
AcDbEntity
  8
LAY-20
  6
CONTINUOUS
 62
     4
100
AcDbLine
 10
490.0000000001
 20
229.3558171453001
 30
0.0
 11
760.0
 21
229.3558171453001
 31
0.0
  0
INSERT
  5
3EE
330
3E8
100
AcDbEntity
  8
LAY-20
 62
     4
100
AcDbBlockReference
  2
EX_BNORM
 10
475.0000000001
 20
229.3558171453001
 30
0.0
 41
15.0
 42
15.0
 43
15.0
 50
180.0
  0
INSERT
  5
3EF
330
3E8
100
AcDbEntity
  8
LAY-20
 62
     4
100
AcDbBlockReference
  2
EX_BNORM
 10
775.0
 20
229.3558171453001
 30
0.0
 41
15.0
 42
15.0
 43
15.0
  0
MTEXT
  5
3F0
330
3E8
100
AcDbEntity
  8
LAY-20
 62
     7
100
AcDbMText
 10
625.00000000005
 20
241.8558171453001
 30
0.0
 40
15.590552
 41
0.0
 71
     5
 72
     1
  1
%%c300
  7
EXCADDIM1
  0
POINT
  5
3F1
330
3E8
100
AcDbEntity
  8
DEFPOINTS
 62
     0
100
AcDbPoint
 10
475.0000000001
 20
296.7359028584
 30
0.0
  0
POINT
  5
3F2
330
3E8
100
AcDbEntity
  8
DEFPOINTS
 62
     0
100
AcDbPoint
 10
775.0
 20
296.7359028584
 30
0.0
  0
POINT
  5
3F3
330
3E8
100
AcDbEntity
  8
DEFPOINTS
 62
     0
100
AcDbPoint
 10
775.0
 20
229.3558171453001
 30
0.0
  0
ENDBLK
  5
3EA
330
3E8
100
AcDbEntity
  8
0
100
AcDbBlockEnd
  0
BLOCK
  5
3F6
330
3F5
100
AcDbEntity
  8
0
100
AcDbBlockBegin
  2
*D19
 70
     1
 10
0.0
 20
0.0
 30
0.0
  3
*D19
  1

  0
LINE
  5
3F8
330
3F5
100
AcDbEntity
  8
LAY-20
  6
CONTINUOUS
 62
     4
100
AcDbLine
 10
325.0000000000999
 20
264.3558171453001
 30
0.0
 11
325.0000000000999
 21
186.8558171453001
 31
0.0
  0
LINE
  5
3F9
330
3F5
100
AcDbEntity
  8
LAY-20
  6
CONTINUOUS
 62
     4
100
AcDbLine
 10
925.0
 20
264.3558171453001
 30
0.0
 11
925.0
 21
186.8558171453001
 31
0.0
  0
LINE
  5
3FA
330
3F5
100
AcDbEntity
  8
LAY-20
  6
CONTINUOUS
 62
     4
100
AcDbLine
 10
340.0000000000999
 20
194.3558171453001
 30
0.0
 11
910.0
 21
194.3558171453001
 31
0.0
  0
INSERT
  5
3FB
330
3F5
100
AcDbEntity
  8
LAY-20
 62
     4
100
AcDbBlockReference
  2
EX_BNORM
 10
325.0000000000999
 20
194.3558171453001
 30
0.0
 41
15.0
 42
15.0
 43
15.0
 50
180.0
  0
INSERT
  5
3FC
330
3F5
100
AcDbEntity
  8
LAY-20
 62
     4
100
AcDbBlockReference
  2
EX_BNORM
 10
925.0
 20
194.3558171453001
 30
0.0
 41
15.0
 42
15.0
 43
15.0
  0
MTEXT
  5
3FD
330
3F5
100
AcDbEntity
  8
LAY-20
 62
     7
100
AcDbMText
 10
625.00000000005
 20
206.8558171453001
 30
0.0
 40
15.590552
 41
0.0
 71
     5
 72
     1
  1
%%c600
  7
EXCADDIM1
  0
POINT
  5
3FE
330
3F5
100
AcDbEntity
  8
DEFPOINTS
 62
     0
100
AcDbPoint
 10
325.0000000000999
 20
271.8558171453001
 30
0.0
  0
POINT
  5
3FF
330
3F5
100
AcDbEntity
  8
DEFPOINTS
 62
     0
100
AcDbPoint
 10
925.0
 20
271.8558171453001
 30
0.0
  0
POINT
  5
400
330
3F5
100
AcDbEntity
  8
DEFPOINTS
 62
     0
100
AcDbPoint
 10
925.0
 20
194.3558171453001
 30
0.0
  0
ENDBLK
  5
3F7
330
3F5
100
AcDbEntity
  8
0
100
AcDbBlockEnd
  0
BLOCK
  5
403
330
402
100
AcDbEntity
  8
0
100
AcDbBlockBegin
  2
*D20
 70
     1
 10
0.0
 20
0.0
 30
0.0
  3
*D20
  1

  0
LINE
  5
405
330
402
100
AcDbEntity
  8
LAY-20
  6
CONTINUOUS
 62
     4
100
AcDbLine
 10
265.0000000001
 20
264.3558171453001
 30
0.0
 11
265.0000000001
 21
151.8558171453
 31
0.0
  0
LINE
  5
406
330
402
100
AcDbEntity
  8
LAY-20
  6
CONTINUOUS
 62
     4
100
AcDbLine
 10
280.0000000001
 20
159.3558171453
 30
0.0
 11
972.0000000001
 21
159.3558171453
 31
0.0
  0
INSERT
  5
407
330
402
100
AcDbEntity
  8
LAY-20
 62
     4
100
AcDbBlockReference
  2
EX_BNORM
 10
265.0000000001
 20
159.3558171453
 30
0.0
 41
15.0
 42
15.0
 43
15.0
 50
180.0
  0
INSERT
  5
408
330
402
100
AcDbEntity
  8
LAY-20
 62
     4
100
AcDbBlockReference
  2
EX_NONE
 10
987.0000000001
 20
159.3558171453
 30
0.0
 41
15.0
 42
15.0
 43
15.0
  0
MTEXT
  5
409
330
402
100
AcDbEntity
  8
LAY-20
 62
     7
100
AcDbMText
 10
626.0000000001
 20
171.8558171452999
 30
0.0
 40
15.590552
 41
0.0
 71
     5
 72
     1
  1
□722
  7
EXCADDIM1
  0
POINT
  5
40A
330
402
100
AcDbEntity
  8
DEFPOINTS
 62
     0
100
AcDbPoint
 10
265.0000000001
 20
271.8558171453001
 30
0.0
  0
POINT
  5
40B
330
402
100
AcDbEntity
  8
DEFPOINTS
 62
     0
100
AcDbPoint
 10
987.0000000001
 20
159.5
 30
0.0
  0
POINT
  5
40C
330
402
100
AcDbEntity
  8
DEFPOINTS
 62
     0
100
AcDbPoint
 10
987.0000000001
 20
159.3558171453
 30
0.0
  0
ENDBLK
  5
404
330
402
100
AcDbEntity
  8
0
100
AcDbBlockEnd
  0
BLOCK
  5
40F
330
40E
100
AcDbEntity
  8
0
100
AcDbBlockBegin
  2
*D21
 70
     1
 10
0.0
 20
0.0
 30
0.0
  3
*D21
  1

  0
LINE
  5
411
330
40E
100
AcDbEntity
  8
LAY-20
  6
CONTINUOUS
 62
     4
100
AcDbLine
 10
1119.061083293
 20
279.3558171453001
 30
0.0
 11
1162.0
 21
279.3558171453001
 31
0.0
  0
LINE
  5
412
330
40E
100
AcDbEntity
  8
LAY-20
  6
CONTINUOUS
 62
     4
100
AcDbLine
 10
1000.0
 20
344.3558171453001
 30
0.0
 11
1162.0
 21
344.3558171453001
 31
0.0
  0
LINE
  5
413
330
40E
100
AcDbEntity
  8
LAY-20
  6
CONTINUOUS
 62
     4
100
AcDbLine
 10
1154.5
 20
294.3558171453001
 30
0.0
 11
1154.5
 21
329.3558171453001
 31
0.0
  0
INSERT
  5
414
330
40E
100
AcDbEntity
  8
LAY-20
 62
     4
100
AcDbBlockReference
  2
EX_BNORM
 10
1154.5
 20
279.3558171453001
 30
0.0
 41
15.0
 42
15.0
 43
15.0
 50
270.0
  0
INSERT
  5
415
330
40E
100
AcDbEntity
  8
LAY-20
 62
     4
100
AcDbBlockReference
  2
EX_BNORM
 10
1154.5
 20
344.3558171453001
 30
0.0
 41
15.0
 42
15.0
 43
15.0
 50
90.0
  0
MTEXT
  5
416
330
40E
100
AcDbEntity
  8
LAY-20
 62
     7
100
AcDbMText
 10
1142.0
 20
311.8558171453001
 30
0.0
 40
15.590552
 41
0.0
 71
     5
 72
     1
  1
65
  7
EXCADDIM1
 11
0.0
 21
1.0
 31
0.0
  0
POINT
  5
417
330
40E
100
AcDbEntity
  8
DEFPOINTS
 62
     0
100
AcDbPoint
 10
1111.561083293
 20
279.3558171453001
 30
0.0
  0
POINT
  5
418
330
40E
100
AcDbEntity
  8
DEFPOINTS
 62
     0
100
AcDbPoint
 10
992.5
 20
344.3558171453001
 30
0.0
  0
POINT
  5
419
330
40E
100
AcDbEntity
  8
DEFPOINTS
 62
     0
100
AcDbPoint
 10
1154.5
 20
344.3558171453001
 30
0.0
  0
ENDBLK
  5
410
330
40E
100
AcDbEntity
  8
0
100
AcDbBlockEnd
  0
ENDSEC
  0
SECTION
  2
ENTITIES
  0
CIRCLE
  5
D5
330
1F
100
AcDbEntity
  8
LAY-10
  6
CONTINUOUS
 62
     7
100
AcDbCircle
 10
624.5645756050006
 20
950.0000000000001
 30
0.0
 40
353.5
  0
CIRCLE
  5
D6
330
1F
100
AcDbEntity
  8
LAY-10
  6
CONTINUOUS
 62
     7
100
AcDbCircle
 10
625.0000000000003
 20
950.0000000000001
 30
0.0
 40
352.0
  0
CIRCLE
  5
D7
330
1F
100
AcDbEntity
  8
LAY-10
  6
CONTINUOUS
 62
     7
100
AcDbCircle
 10
625.0000000000003
 20
950.0000000000001
 30
0.0
 40
367.5
  0
LINE
  5
D8
330
1F
100
AcDbEntity
  8
LAY-10
  6
CONTINUOUS
 62
     7
100
AcDbLine
 10
500.9027599019005
 20
806.1037700289999
 30
0.0
 11
481.1037700286004
 21
825.902759902
 31
0.0
  0
LINE
  5
D9
330
1F
100
AcDbEntity
  8
LAY-10
  6
CONTINUOUS
 62
     7
100
AcDbLine
 10
767.4664591470005
 20
1072.667469274
 30
0.0
 11
812.0297436240005
 21
1117.230753751
 31
0.0
  0
LINE
  5
DA
330
1F
100
AcDbEntity
  8
LAY-10
  6
CONTINUOUS
 62
     7
100
AcDbLine
 10
812.0297436240005
 20
1117.230753751
 30
0.0
 11
792.2307537510005
 21
1137.029743624
 31
0.0
  0
LINE
  5
DB
330
1F
100
AcDbEntity
  8
LAY-10
  6
CONTINUOUS
 62
     7
100
AcDbLine
 10
792.2307537510005
 20
1137.029743624
 30
0.0
 11
747.6674692740005
 21
1092.466459147
 31
0.0
  0
LINE
  5
DC
330
1F
100
AcDbEntity
  8
LAY-10
  6
CONTINUOUS
 62
     7
100
AcDbLine
 10
788.6952198450003
 20
1133.494209718
 30
0.0
 11
808.4942097180004
 21
1113.695219845
 31
0.0
  0
LINE
  5
DD
330
1F
100
AcDbEntity
  8
LAY-10
  6
CONTINUOUS
 62
     7
100
AcDbLine
 10
772.4317638770005
 20
1117.230753751
 30
0.0
 11
792.2307537510005
 21
1097.431763877
 31
0.0
  0
LINE
  5
DE
330
1F
100
AcDbEntity
  8
LAY-10
  6
CONTINUOUS
 62
     7
100
AcDbLine
 10
765.3606960660002
 20
1110.159685939
 30
0.0
 11
785.1596859390003
 21
1090.360696066
 31
0.0
  0
LINE
  5
DF
330
1F
100
AcDbEntity
  8
LAY-10
  6
CONTINUOUS
 62
     7
100
AcDbLine
 10
749.0972400980004
 20
1093.896229971
 30
0.0
 11
768.8962299720006
 21
1074.097240098
 31
0.0
  0
LINE
  5
E0
330
1F
100
AcDbEntity
  8
LAY-10
  6
CONTINUOUS
 62
     7
100
AcDbLine
 10
332.6619048835003
 20
853.201010127
 30
0.0
 11
366.6030303804005
 21
887.1421356239998
 31
0.0
  0
LINE
  5
E1
330
1F
100
AcDbEntity
  8
LAY-10
  6
CONTINUOUS
 62
     7
100
AcDbLine
 10
366.6030303804005
 20
887.1421356239998
 30
0.0
 11
380.7451660042003
 21
873.0000000000001
 31
0.0
  0
LINE
  5
E2
330
1F
100
AcDbEntity
  8
LAY-10
  6
CONTINUOUS
 62
     7
100
AcDbLine
 10
380.7451660042003
 20
873.0000000000001
 30
0.0
 11
346.8040405072006
 21
839.0588745030001
 31
0.0
  0
LINE
  5
E3
330
1F
100
AcDbEntity
  8
LAY-10
  6
CONTINUOUS
 62
     7
100
AcDbLine
 10
332.6619048835003
 20
853.201010127
 30
0.0
 11
336.9045455706001
 21
848.95836944
 31
0.0
  0
LINE
  5
E4
330
1F
100
AcDbEntity
  8
LAY-10
  6
CONTINUOUS
 62
     7
100
AcDbLine
 10
346.8040405072006
 20
839.0588745030001
 30
0.0
 11
342.5613998201002
 21
843.3015151899999
 31
0.0
  0
LINE
  5
E5
330
1F
100
AcDbEntity
  8
LAY-10
  6
CONTINUOUS
 62
     7
100
AcDbLine
 10
366.6030303804005
 20
878.656854249
 30
0.0
 11
372.2598846299005
 21
873.0000000000001
 31
0.0
  0
LINE
  5
E6
330
1F
100
AcDbEntity
  8
LAY-10
  6
CONTINUOUS
 62
     7
100
AcDbLine
 10
366.6030303804005
 20
878.656854249
 30
0.0
 11
336.9045455706001
 21
848.95836944
 31
0.0
  0
LINE
  5
E7
330
1F
100
AcDbEntity
  8
LAY-10
  6
CONTINUOUS
 62
     7
100
AcDbLine
 10
342.5613998201002
 20
843.3015151899999
 30
0.0
 11
372.2598846299005
 21
873.0000000000001
 31
0.0
  0
LINE
  5
E8
330
1F
100
AcDbEntity
  8
LAY-10
  6
CONTINUOUS
 62
     7
100
AcDbLine
 10
372.2598846299005
 20
853.201010127
 30
0.0
 11
406.2010101269002
 21
887.1421356239998
 31
0.0
  0
LINE
  5
E9
330
1F
100
AcDbEntity
  8
LAY-10
  6
CONTINUOUS
 62
     7
100
AcDbLine
 10
406.2010101269002
 20
887.1421356239998
 30
0.0
 11
420.3431457506001
 21
873.0000000000001
 31
0.0
  0
LINE
  5
EA
330
1F
100
AcDbEntity
  8
LAY-10
  6
CONTINUOUS
 62
     7
100
AcDbLine
 10
420.3431457506001
 20
873.0000000000001
 30
0.0
 11
386.4020202537002
 21
839.0588745030001
 31
0.0
  0
LINE
  5
EB
330
1F
100
AcDbEntity
  8
LAY-10
  6
CONTINUOUS
 62
     7
100
AcDbLine
 10
372.2598846299005
 20
853.201010127
 30
0.0
 11
376.5025253170004
 21
848.95836944
 31
0.0
  0
LINE
  5
EC
330
1F
100
AcDbEntity
  8
LAY-10
  6
CONTINUOUS
 62
     7
100
AcDbLine
 10
386.4020202537002
 20
839.0588745030001
 30
0.0
 11
382.1593795665004
 21
843.3015151899999
 31
0.0
  0
LINE
  5
ED
330
1F
100
AcDbEntity
  8
LAY-10
  6
CONTINUOUS
 62
     7
100
AcDbLine
 10
406.2010101269002
 20
878.656854249
 30
0.0
 11
411.8578643764004
 21
873.0000000000001
 31
0.0
  0
LINE
  5
EE
330
1F
100
AcDbEntity
  8
LAY-10
  6
CONTINUOUS
 62
     7
100
AcDbLine
 10
406.2010101269002
 20
878.656854249
 30
0.0
 11
376.5025253170004
 21
848.95836944
 31
0.0
  0
LINE
  5
EF
330
1F
100
AcDbEntity
  8
LAY-10
  6
CONTINUOUS
 62
     7
100
AcDbLine
 10
382.1593795665004
 20
843.3015151899999
 30
0.0
 11
411.8578643764004
 21
873.0000000000001
 31
0.0
  0
LINE
  5
F0
330
1F
100
AcDbEntity
  8
LAY-10
  6
CONTINUOUS
 62
     7
100
AcDbLine
 10
386.4020202537002
 20
799.460894757
 30
0.0
 11
352.4608947567001
 21
833.4020202539998
 31
0.0
  0
LINE
  5
F1
330
1F
100
AcDbEntity
  8
LAY-10
  6
CONTINUOUS
 62
     7
100
AcDbLine
 10
352.4608947567001
 20
833.4020202539998
 30
0.0
 11
366.6030303804005
 21
847.5441558769999
 31
0.0
  0
LINE
  5
F2
330
1F
100
AcDbEntity
  8
LAY-10
  6
CONTINUOUS
 62
     7
100
AcDbLine
 10
366.6030303804005
 20
847.5441558769999
 30
0.0
 11
400.5441558774003
 21
813.60303038
 31
0.0
  0
LINE
  5
F3
330
1F
100
AcDbEntity
  8
LAY-10
  6
CONTINUOUS
 62
     7
100
AcDbLine
 10
386.4020202537002
 20
799.460894757
 30
0.0
 11
390.6446609408003
 21
803.703535444
 31
0.0
  0
LINE
  5
F4
330
1F
100
AcDbEntity
  8
LAY-10
  6
CONTINUOUS
 62
     7
100
AcDbLine
 10
400.5441558774003
 20
813.60303038
 30
0.0
 11
396.3015151903003
 21
809.360389693
 31
0.0
  0
LINE
  5
F5
330
1F
100
AcDbEntity
  8
LAY-10
  6
CONTINUOUS
 62
     7
100
AcDbLine
 10
360.9461761309004
 20
833.4020202539998
 30
0.0
 11
366.6030303804005
 21
839.0588745030001
 31
0.0
  0
LINE
  5
F6
330
1F
100
AcDbEntity
  8
LAY-10
  6
CONTINUOUS
 62
     7
100
AcDbLine
 10
360.9461761309004
 20
833.4020202539998
 30
0.0
 11
390.6446609408003
 21
803.703535444
 31
0.0
  0
LINE
  5
F7
330
1F
100
AcDbEntity
  8
LAY-10
  6
CONTINUOUS
 62
     7
100
AcDbLine
 10
396.3015151903003
 20
809.360389693
 30
0.0
 11
366.6030303804005
 21
839.0588745030001
 31
0.0
  0
LINE
  5
F8
330
1F
100
AcDbEntity
  8
LAY-10
  6
CONTINUOUS
 62
     7
100
AcDbLine
 10
426.0000000001
 20
799.460894757
 30
0.0
 11
392.0588745031004
 21
833.4020202539998
 31
0.0
  0
LINE
  5
F9
330
1F
100
AcDbEntity
  8
LAY-10
  6
CONTINUOUS
 62
     7
100
AcDbLine
 10
392.0588745031004
 20
833.4020202539998
 30
0.0
 11
406.2010101269002
 21
847.5441558769999
 31
0.0
  0
LINE
  5
FA
330
1F
100
AcDbEntity
  8
LAY-10
  6
CONTINUOUS
 62
     7
100
AcDbLine
 10
406.2010101269002
 20
847.5441558769999
 30
0.0
 11
440.1421356238002
 21
813.60303038
 31
0.0
  0
LINE
  5
FB
330
1F
100
AcDbEntity
  8
LAY-10
  6
CONTINUOUS
 62
     7
100
AcDbLine
 10
426.0000000001
 20
799.460894757
 30
0.0
 11
430.2426406872003
 21
803.703535444
 31
0.0
  0
LINE
  5
FC
330
1F
100
AcDbEntity
  8
LAY-10
  6
CONTINUOUS
 62
     7
100
AcDbLine
 10
440.1421356238002
 20
813.60303038
 30
0.0
 11
435.8994949367005
 21
809.360389693
 31
0.0
  0
LINE
  5
FD
330
1F
100
AcDbEntity
  8
LAY-10
  6
CONTINUOUS
 62
     7
100
AcDbLine
 10
400.5441558774003
 20
833.4020202539998
 30
0.0
 11
406.2010101269002
 21
839.0588745030001
 31
0.0
  0
LINE
  5
FE
330
1F
100
AcDbEntity
  8
LAY-10
  6
CONTINUOUS
 62
     7
100
AcDbLine
 10
400.5441558774003
 20
833.4020202539998
 30
0.0
 11
430.2426406872003
 21
803.703535444
 31
0.0
  0
LINE
  5
FF
330
1F
100
AcDbEntity
  8
LAY-10
  6
CONTINUOUS
 62
     7
100
AcDbLine
 10
435.8994949367005
 20
809.360389693
 30
0.0
 11
406.2010101269002
 21
839.0588745030001
 31
0.0
  0
LINE
  5
100
330
1F
100
AcDbEntity
  8
LAY-10
  6
CONTINUOUS
 62
     7
100
AcDbLine
 10
406.2010101269002
 20
926.7401153700001
 30
0.0
 11
440.1421356238002
 21
892.7989898730001
 31
0.0
  0
LINE
  5
101
330
1F
100
AcDbEntity
  8
LAY-10
  6
CONTINUOUS
 62
     7
100
AcDbLine
 10
440.1421356238002
 20
892.7989898730001
 30
0.0
 11
426.0000000001
 21
878.656854249
 31
0.0
  0
LINE
  5
102
330
1F
100
AcDbEntity
  8
LAY-10
  6
CONTINUOUS
 62
     7
100
AcDbLine
 10
426.0000000001
 20
878.656854249
 30
0.0
 11
392.0588745031004
 21
912.597979746
 31
0.0
  0
LINE
  5
103
330
1F
100
AcDbEntity
  8
LAY-10
  6
CONTINUOUS
 62
     7
100
AcDbLine
 10
406.2010101269002
 20
926.7401153700001
 30
0.0
 11
401.9583694398003
 21
922.497474683
 31
0.0
  0
LINE
  5
104
330
1F
100
AcDbEntity
  8
LAY-10
  6
CONTINUOUS
 62
     7
100
AcDbLine
 10
392.0588745031004
 20
912.597979746
 30
0.0
 11
396.3015151903003
 21
916.840620434
 31
0.0
  0
LINE
  5
105
330
1F
100
AcDbEntity
  8
LAY-10
  6
CONTINUOUS
 62
     7
100
AcDbLine
 10
431.6568542496002
 20
892.7989898730001
 30
0.0
 11
426.0000000001
 21
887.1421356239998
 31
0.0
  0
LINE
  5
106
330
1F
100
AcDbEntity
  8
LAY-10
  6
CONTINUOUS
 62
     7
100
AcDbLine
 10
431.6568542496002
 20
892.7989898730001
 30
0.0
 11
401.9583694398003
 21
922.497474683
 31
0.0
  0
LINE
  5
107
330
1F
100
AcDbEntity
  8
LAY-10
  6
CONTINUOUS
 62
     7
100
AcDbLine
 10
396.3015151903003
 20
916.840620434
 30
0.0
 11
426.0000000001
 21
887.1421356239998
 31
0.0
  0
LINE
  5
108
330
1F
100
AcDbEntity
  8
LAY-10
  6
CONTINUOUS
 62
     7
100
AcDbLine
 10
366.6030303804005
 20
926.7401153700001
 30
0.0
 11
400.5441558774003
 21
892.7989898730001
 31
0.0
  0
LINE
  5
109
330
1F
100
AcDbEntity
  8
LAY-10
  6
CONTINUOUS
 62
     7
100
AcDbLine
 10
400.5441558774003
 20
892.7989898730001
 30
0.0
 11
386.4020202537002
 21
878.656854249
 31
0.0
  0
LINE
  5
10A
330
1F
100
AcDbEntity
  8
LAY-10
  6
CONTINUOUS
 62
     7
100
AcDbLine
 10
386.4020202537002
 20
878.656854249
 30
0.0
 11
352.4608947567001
 21
912.597979746
 31
0.0
  0
LINE
  5
10B
330
1F
100
AcDbEntity
  8
LAY-10
  6
CONTINUOUS
 62
     7
100
AcDbLine
 10
366.6030303804005
 20
926.7401153700001
 30
0.0
 11
362.3603896933006
 21
922.497474683
 31
0.0
  0
LINE
  5
10C
330
1F
100
AcDbEntity
  8
LAY-10
  6
CONTINUOUS
 62
     7
100
AcDbLine
 10
352.4608947567001
 20
912.597979746
 30
0.0
 11
356.7035354438005
 21
916.840620434
 31
0.0
  0
LINE
  5
10D
330
1F
100
AcDbEntity
  8
LAY-10
  6
CONTINUOUS
 62
     7
100
AcDbLine
 10
392.0588745031004
 20
892.7989898730001
 30
0.0
 11
386.4020202537002
 21
887.1421356239998
 31
0.0
  0
LINE
  5
10E
330
1F
100
AcDbEntity
  8
LAY-10
  6
CONTINUOUS
 62
     7
100
AcDbLine
 10
392.0588745031004
 20
892.7989898730001
 30
0.0
 11
362.3603896933006
 21
922.497474683
 31
0.0
  0
LINE
  5
10F
330
1F
100
AcDbEntity
  8
LAY-10
  6
CONTINUOUS
 62
     7
100
AcDbLine
 10
356.7035354438005
 20
916.840620434
 30
0.0
 11
386.4020202537002
 21
887.1421356239998
 31
0.0
  0
LINE
  5
110
330
1F
100
AcDbEntity
  8
LAY-10
  6
CONTINUOUS
 62
     7
100
AcDbLine
 10
327.0050506340002
 20
926.7401153700001
 30
0.0
 11
360.9461761309004
 21
892.7989898730001
 31
0.0
  0
LINE
  5
111
330
1F
100
AcDbEntity
  8
LAY-10
  6
CONTINUOUS
 62
     7
100
AcDbLine
 10
360.9461761309004
 20
892.7989898730001
 30
0.0
 11
346.8040405072006
 21
878.656854249
 31
0.0
  0
LINE
  5
112
330
1F
100
AcDbEntity
  8
LAY-10
  6
CONTINUOUS
 62
     7
100
AcDbLine
 10
346.8040405072006
 20
878.656854249
 30
0.0
 11
312.8629150103004
 21
912.597979746
 31
0.0
  0
LINE
  5
113
330
1F
100
AcDbEntity
  8
LAY-10
  6
CONTINUOUS
 62
     7
100
AcDbLine
 10
327.0050506340002
 20
926.7401153700001
 30
0.0
 11
322.7624099469003
 21
922.497474683
 31
0.0
  0
LINE
  5
114
330
1F
100
AcDbEntity
  8
LAY-10
  6
CONTINUOUS
 62
     7
100
AcDbLine
 10
312.8629150103004
 20
912.597979746
 30
0.0
 11
317.1055556974003
 21
916.840620434
 31
0.0
  0
LINE
  5
115
330
1F
100
AcDbEntity
  8
LAY-10
  6
CONTINUOUS
 62
     7
100
AcDbLine
 10
352.4608947567001
 20
892.7989898730001
 30
0.0
 11
346.8040405072006
 21
887.1421356239998
 31
0.0
  0
LINE
  5
116
330
1F
100
AcDbEntity
  8
LAY-10
  6
CONTINUOUS
 62
     7
100
AcDbLine
 10
352.4608947567001
 20
892.7989898730001
 30
0.0
 11
322.7624099469003
 21
922.497474683
 31
0.0
  0
LINE
  5
117
330
1F
100
AcDbEntity
  8
LAY-10
  6
CONTINUOUS
 62
     7
100
AcDbLine
 10
317.1055556974003
 20
916.840620434
 30
0.0
 11
346.8040405072006
 21
887.1421356239998
 31
0.0
  0
LINE
  5
118
330
1F
100
AcDbEntity
  8
LAY-10
  6
CONTINUOUS
 62
     7
100
AcDbLine
 10
420.3431457506001
 20
952.1959594929999
 30
0.0
 11
386.4020202537002
 21
918.254833996
 31
0.0
  0
LINE
  5
119
330
1F
100
AcDbEntity
  8
LAY-10
  6
CONTINUOUS
 62
     7
100
AcDbLine
 10
386.4020202537002
 20
918.254833996
 30
0.0
 11
372.2598846299005
 21
932.39696962
 31
0.0
  0
LINE
  5
11A
330
1F
100
AcDbEntity
  8
LAY-10
  6
CONTINUOUS
 62
     7
100
AcDbLine
 10
372.2598846299005
 20
932.39696962
 30
0.0
 11
406.2010101269002
 21
966.3380951170001
 31
0.0
  0
LINE
  5
11B
330
1F
100
AcDbEntity
  8
LAY-10
  6
CONTINUOUS
 62
     7
100
AcDbLine
 10
420.3431457506001
 20
952.1959594929999
 30
0.0
 11
416.1005050635001
 21
956.43860018
 31
0.0
  0
LINE
  5
11C
330
1F
100
AcDbEntity
  8
LAY-10
  6
CONTINUOUS
 62
     7
100
AcDbLine
 10
406.2010101269002
 20
966.3380951170001
 30
0.0
 11
410.4436508140002
 21
962.09545443
 31
0.0
  0
LINE
  5
11D
330
1F
100
AcDbEntity
  8
LAY-10
  6
CONTINUOUS
 62
     7
100
AcDbLine
 10
386.4020202537002
 20
926.7401153700001
 30
0.0
 11
380.7451660042003
 21
932.39696962
 31
0.0
  0
LINE
  5
11E
330
1F
100
AcDbEntity
  8
LAY-10
  6
CONTINUOUS
 62
     7
100
AcDbLine
 10
386.4020202537002
 20
926.7401153700001
 30
0.0
 11
416.1005050635001
 21
956.43860018
 31
0.0
  0
LINE
  5
11F
330
1F
100
AcDbEntity
  8
LAY-10
  6
CONTINUOUS
 62
     7
100
AcDbLine
 10
410.4436508140002
 20
962.09545443
 30
0.0
 11
380.7451660042003
 21
932.39696962
 31
0.0
  0
LINE
  5
120
330
1F
100
AcDbEntity
  8
LAY-10
  6
CONTINUOUS
 62
     7
100
AcDbLine
 10
380.7451660042003
 20
952.1959594929999
 30
0.0
 11
346.8040405072006
 21
918.254833996
 31
0.0
  0
LINE
  5
121
330
1F
100
AcDbEntity
  8
LAY-10
  6
CONTINUOUS
 62
     7
100
AcDbLine
 10
346.8040405072006
 20
918.254833996
 30
0.0
 11
332.6619048835003
 21
932.39696962
 31
0.0
  0
LINE
  5
122
330
1F
100
AcDbEntity
  8
LAY-10
  6
CONTINUOUS
 62
     7
100
AcDbLine
 10
332.6619048835003
 20
932.39696962
 30
0.0
 11
366.6030303804005
 21
966.3380951170001
 31
0.0
  0
LINE
  5
123
330
1F
100
AcDbEntity
  8
LAY-10
  6
CONTINUOUS
 62
     7
100
AcDbLine
 10
380.7451660042003
 20
952.1959594929999
 30
0.0
 11
376.5025253170004
 21
956.43860018
 31
0.0
  0
LINE
  5
124
330
1F
100
AcDbEntity
  8
LAY-10
  6
CONTINUOUS
 62
     7
100
AcDbLine
 10
366.6030303804005
 20
966.3380951170001
 30
0.0
 11
370.8456710675003
 21
962.09545443
 31
0.0
  0
LINE
  5
125
330
1F
100
AcDbEntity
  8
LAY-10
  6
CONTINUOUS
 62
     7
100
AcDbLine
 10
346.8040405072006
 20
926.7401153700001
 30
0.0
 11
341.1471862577006
 21
932.39696962
 31
0.0
  0
LINE
  5
126
330
1F
100
AcDbEntity
  8
LAY-10
  6
CONTINUOUS
 62
     7
100
AcDbLine
 10
346.8040405072006
 20
926.7401153700001
 30
0.0
 11
376.5025253170004
 21
956.43860018
 31
0.0
  0
LINE
  5
127
330
1F
100
AcDbEntity
  8
LAY-10
  6
CONTINUOUS
 62
     7
100
AcDbLine
 10
370.8456710675003
 20
962.09545443
 30
0.0
 11
341.1471862577006
 21
932.39696962
 31
0.0
  0
CIRCLE
  5
128
330
1F
100
AcDbEntity
  8
LAY-10
  6
CONTINUOUS
 62
     7
100
AcDbCircle
 10
625.0000000000003
 20
950.0000000000001
 30
0.0
 40
188.0
  0
CIRCLE
  5
129
330
1F
100
AcDbEntity
  8
LAY-10
  6
CONTINUOUS
 62
     7
100
AcDbCircle
 10
625.0000000000003
 20
950.0000000000001
 30
0.0
 40
187.0
  0
LINE
  5
12A
330
1F
100
AcDbEntity
  8
LAY-10
  6
CONTINUOUS
 62
     7
100
AcDbLine
 10
690.7500000000005
 20
936.0
 30
0.0
 11
756.7500000000003
 21
936.0
 31
0.0
  0
LINE
  5
12B
330
1F
100
AcDbEntity
  8
LAY-10
  6
CONTINUOUS
 62
     7
100
AcDbLine
 10
756.7500000000003
 20
936.0
 30
0.0
 11
756.7500000000003
 21
964.0
 31
0.0
  0
LINE
  5
12C
330
1F
100
AcDbEntity
  8
LAY-10
  6
CONTINUOUS
 62
     7
100
AcDbLine
 10
756.7500000000003
 20
964.0
 30
0.0
 11
690.7500000000005
 21
964.0
 31
0.0
  0
LINE
  5
12D
330
1F
100
AcDbEntity
  8
LAY-10
  6
CONTINUOUS
 62
     7
100
AcDbLine
 10
690.7500000000005
 20
936.0
 30
0.0
 11
690.7500000000005
 21
964.0
 31
0.0
  0
LINE
  5
12E
330
1F
100
AcDbEntity
  8
LAY-10
  6
CONTINUOUS
 62
     7
100
AcDbLine
 10
751.7500000000003
 20
964.0
 30
0.0
 11
751.7500000000003
 21
936.0
 31
0.0
  0
LINE
  5
12F
330
1F
100
AcDbEntity
  8
LAY-10
  6
CONTINUOUS
 62
     7
100
AcDbLine
 10
728.7500000000002
 20
964.0
 30
0.0
 11
728.7500000000002
 21
936.0
 31
0.0
  0
LINE
  5
130
330
1F
100
AcDbEntity
  8
LAY-10
  6
CONTINUOUS
 62
     7
100
AcDbLine
 10
718.7500000000002
 20
964.0
 30
0.0
 11
718.7500000000002
 21
936.0
 31
0.0
  0
LINE
  5
131
330
1F
100
AcDbEntity
  8
LAY-10
  6
CONTINUOUS
 62
     7
100
AcDbLine
 10
695.7500000000005
 20
964.0
 30
0.0
 11
695.7500000000005
 21
936.0
 31
0.0
  0
LINE
  5
132
330
1F
100
AcDbEntity
  8
LAY-10
  6
CONTINUOUS
 62
     7
100
AcDbLine
 10
559.2500000001004
 20
936.0
 30
0.0
 11
493.2500000001003
 21
936.0
 31
0.0
  0
LINE
  5
133
330
1F
100
AcDbEntity
  8
LAY-10
  6
CONTINUOUS
 62
     7
100
AcDbLine
 10
493.2500000001003
 20
936.0
 30
0.0
 11
493.2500000001003
 21
964.0
 31
0.0
  0
LINE
  5
134
330
1F
100
AcDbEntity
  8
LAY-10
  6
CONTINUOUS
 62
     7
100
AcDbLine
 10
493.2500000001003
 20
964.0
 30
0.0
 11
559.2500000001004
 21
964.0
 31
0.0
  0
LINE
  5
135
330
1F
100
AcDbEntity
  8
LAY-10
  6
CONTINUOUS
 62
     7
100
AcDbLine
 10
559.2500000001004
 20
936.0
 30
0.0
 11
559.2500000001004
 21
964.0
 31
0.0
  0
LINE
  5
136
330
1F
100
AcDbEntity
  8
LAY-10
  6
CONTINUOUS
 62
     7
100
AcDbLine
 10
498.2500000001003
 20
964.0
 30
0.0
 11
498.2500000001003
 21
936.0
 31
0.0
  0
LINE
  5
137
330
1F
100
AcDbEntity
  8
LAY-10
  6
CONTINUOUS
 62
     7
100
AcDbLine
 10
521.2500000001004
 20
964.0
 30
0.0
 11
521.2500000001004
 21
936.0
 31
0.0
  0
LINE
  5
138
330
1F
100
AcDbEntity
  8
LAY-10
  6
CONTINUOUS
 62
     7
100
AcDbLine
 10
531.2500000001004
 20
964.0
 30
0.0
 11
531.2500000001004
 21
936.0
 31
0.0
  0
LINE
  5
139
330
1F
100
AcDbEntity
  8
LAY-10
  6
CONTINUOUS
 62
     7
100
AcDbLine
 10
554.2500000001004
 20
964.0
 30
0.0
 11
554.2500000001004
 21
936.0
 31
0.0
  0
LINE
  5
13A
330
1F
100
AcDbEntity
  8
LAY-10
  6
CONTINUOUS
 62
     7
100
AcDbLine
 10
583.0141282440005
 20
863.189441203
 30
0.0
 11
607.0557588040003
 21
887.2310717629998
 31
0.0
  0
LINE
  5
13B
330
1F
100
AcDbEntity
  8
LAY-10
  6
CONTINUOUS
 62
     7
100
AcDbLine
 10
583.0141282440005
 20
863.189441203
 30
0.0
 11
592.9136231806004
 21
853.289946267
 31
0.0
  0
LINE
  5
13C
330
1F
100
AcDbEntity
  8
LAY-10
  6
CONTINUOUS
 62
     7
100
AcDbLine
 10
592.9136231806004
 20
853.289946267
 30
0.0
 11
616.9552537410002
 21
877.331576827
 31
0.0
  0
LINE
  5
13D
330
1F
100
AcDbEntity
  8
LAY-10
  6
CONTINUOUS
 62
     7
100
AcDbLine
 10
616.9552537410002
 20
877.331576827
 30
0.0
 11
614.1268266160004
 21
880.160003952
 31
0.0
  0
LINE
  5
13E
330
1F
100
AcDbEntity
  8
LAY-10
  6
CONTINUOUS
 62
     7
100
AcDbLine
 10
607.0557588040003
 20
887.2310717629998
 30
0.0
 11
609.8841859290004
 21
884.4026446389998
 31
0.0
  0
LINE
  5
13F
330
1F
100
AcDbEntity
  8
LAY-10
  6
CONTINUOUS
 62
     7
100
AcDbLine
 10
609.8841859290004
 20
884.4026446389998
 30
0.0
 11
588.6709824935004
 21
863.189441203
 31
0.0
  0
LINE
  5
140
330
1F
100
AcDbEntity
  8
LAY-10
  6
CONTINUOUS
 62
     7
100
AcDbLine
 10
614.1268266160004
 20
880.160003952
 30
0.0
 11
592.9136231806004
 21
858.946800516
 31
0.0
  0
LINE
  5
141
330
1F
100
AcDbEntity
  8
LAY-10
  6
CONTINUOUS
 62
     7
100
AcDbLine
 10
592.9136231806004
 20
858.946800516
 30
0.0
 11
588.6709824935004
 21
863.189441203
 31
0.0
  0
LINE
  5
142
330
1F
100
AcDbEntity
  8
LAY-10
  6
CONTINUOUS
 62
     7
100
AcDbLine
 10
554.7298569966003
 20
863.189441203
 30
0.0
 11
578.7714875569005
 21
887.2310717629998
 31
0.0
  0
LINE
  5
143
330
1F
100
AcDbEntity
  8
LAY-10
  6
CONTINUOUS
 62
     7
100
AcDbLine
 10
554.7298569966003
 20
863.189441203
 30
0.0
 11
564.6293519332003
 21
853.289946267
 31
0.0
  0
LINE
  5
144
330
1F
100
AcDbEntity
  8
LAY-10
  6
CONTINUOUS
 62
     7
100
AcDbLine
 10
564.6293519332003
 20
853.289946267
 30
0.0
 11
588.6709824935004
 21
877.331576827
 31
0.0
  0
LINE
  5
145
330
1F
100
AcDbEntity
  8
LAY-10
  6
CONTINUOUS
 62
     7
100
AcDbLine
 10
588.6709824935004
 20
877.331576827
 30
0.0
 11
585.8425553688003
 21
880.160003952
 31
0.0
  0
LINE
  5
146
330
1F
100
AcDbEntity
  8
LAY-10
  6
CONTINUOUS
 62
     7
100
AcDbLine
 10
578.7714875569005
 20
887.2310717629998
 30
0.0
 11
581.5999146817004
 21
884.4026446389998
 31
0.0
  0
LINE
  5
147
330
1F
100
AcDbEntity
  8
LAY-10
  6
CONTINUOUS
 62
     7
100
AcDbLine
 10
581.5999146817004
 20
884.4026446389998
 30
0.0
 11
560.3867112461004
 21
863.189441203
 31
0.0
  0
LINE
  5
148
330
1F
100
AcDbEntity
  8
LAY-10
  6
CONTINUOUS
 62
     7
100
AcDbLine
 10
585.8425553688003
 20
880.160003952
 30
0.0
 11
564.6293519332003
 21
858.946800516
 31
0.0
  0
LINE
  5
149
330
1F
100
AcDbEntity
  8
LAY-10
  6
CONTINUOUS
 62
     7
100
AcDbLine
 10
564.6293519332003
 20
858.946800516
 30
0.0
 11
560.3867112461004
 21
863.189441203
 31
0.0
  0
LINE
  5
14A
330
1F
100
AcDbEntity
  8
LAY-10
  6
CONTINUOUS
 62
     7
100
AcDbLine
 10
526.4455857491006
 20
863.189441203
 30
0.0
 11
550.4872163094004
 21
887.2310717629998
 31
0.0
  0
LINE
  5
14B
330
1F
100
AcDbEntity
  8
LAY-10
  6
CONTINUOUS
 62
     7
100
AcDbLine
 10
526.4455857491006
 20
863.189441203
 30
0.0
 11
536.3450806857005
 21
853.289946266
 31
0.0
  0
LINE
  5
14C
330
1F
100
AcDbEntity
  8
LAY-10
  6
CONTINUOUS
 62
     7
100
AcDbLine
 10
536.3450806857005
 20
853.289946266
 30
0.0
 11
560.3867112461004
 21
877.331576827
 31
0.0
  0
LINE
  5
14D
330
1F
100
AcDbEntity
  8
LAY-10
  6
CONTINUOUS
 62
     7
100
AcDbLine
 10
560.3867112461004
 20
877.331576827
 30
0.0
 11
557.5582841213005
 21
880.160003952
 31
0.0
  0
LINE
  5
14E
330
1F
100
AcDbEntity
  8
LAY-10
  6
CONTINUOUS
 62
     7
100
AcDbLine
 10
550.4872163094004
 20
887.2310717629998
 30
0.0
 11
553.3156434342004
 21
884.4026446389998
 31
0.0
  0
LINE
  5
14F
330
1F
100
AcDbEntity
  8
LAY-10
  6
CONTINUOUS
 62
     7
100
AcDbLine
 10
553.3156434342004
 20
884.4026446389998
 30
0.0
 11
532.1024399986004
 21
863.189441203
 31
0.0
  0
LINE
  5
150
330
1F
100
AcDbEntity
  8
LAY-10
  6
CONTINUOUS
 62
     7
100
AcDbLine
 10
557.5582841213005
 20
880.160003952
 30
0.0
 11
536.3450806857005
 21
858.946800516
 31
0.0
  0
LINE
  5
151
330
1F
100
AcDbEntity
  8
LAY-10
  6
CONTINUOUS
 62
     7
100
AcDbLine
 10
536.3450806857005
 20
858.946800516
 30
0.0
 11
532.1024399986004
 21
863.189441203
 31
0.0
  0
LINE
  5
152
330
1F
100
AcDbEntity
  8
LAY-10
  6
CONTINUOUS
 62
     7
100
AcDbLine
 10
498.1613145016005
 20
863.189441203
 30
0.0
 11
522.2029450620003
 21
887.2310717629998
 31
0.0
  0
LINE
  5
153
330
1F
100
AcDbEntity
  8
LAY-10
  6
CONTINUOUS
 62
     7
100
AcDbLine
 10
498.1613145016005
 20
863.189441203
 30
0.0
 11
508.0608094383005
 21
853.289946267
 31
0.0
  0
LINE
  5
154
330
1F
100
AcDbEntity
  8
LAY-10
  6
CONTINUOUS
 62
     7
100
AcDbLine
 10
508.0608094383005
 20
853.289946267
 30
0.0
 11
532.1024399986004
 21
877.331576827
 31
0.0
  0
LINE
  5
155
330
1F
100
AcDbEntity
  8
LAY-10
  6
CONTINUOUS
 62
     7
100
AcDbLine
 10
532.1024399986004
 20
877.331576827
 30
0.0
 11
529.2740128739005
 21
880.160003952
 31
0.0
  0
LINE
  5
156
330
1F
100
AcDbEntity
  8
LAY-10
  6
CONTINUOUS
 62
     7
100
AcDbLine
 10
522.2029450620003
 20
887.2310717629998
 30
0.0
 11
525.0313721867004
 21
884.4026446389998
 31
0.0
  0
LINE
  5
157
330
1F
100
AcDbEntity
  8
LAY-10
  6
CONTINUOUS
 62
     7
100
AcDbLine
 10
525.0313721867004
 20
884.4026446389998
 30
0.0
 11
503.8181687511004
 21
863.189441203
 31
0.0
  0
LINE
  5
158
330
1F
100
AcDbEntity
  8
LAY-10
  6
CONTINUOUS
 62
     7
100
AcDbLine
 10
529.2740128739005
 20
880.160003952
 30
0.0
 11
508.0608094383005
 21
858.946800516
 31
0.0
  0
LINE
  5
159
330
1F
100
AcDbEntity
  8
LAY-10
  6
CONTINUOUS
 62
     7
100
AcDbLine
 10
508.0608094383005
 20
858.946800516
 30
0.0
 11
503.8181687511004
 21
863.189441203
 31
0.0
  0
LINE
  5
15A
330
1F
100
AcDbEntity
  8
LAY-10
  6
CONTINUOUS
 62
     7
100
AcDbLine
 10
578.7714875569005
 20
858.946800516
 30
0.0
 11
602.8131181173004
 21
834.9051699560001
 31
0.0
  0
LINE
  5
15B
330
1F
100
AcDbEntity
  8
LAY-10
  6
CONTINUOUS
 62
     7
100
AcDbLine
 10
578.7714875569005
 20
858.946800516
 30
0.0
 11
568.8719926203006
 21
849.047305579
 31
0.0
  0
LINE
  5
15C
330
1F
100
AcDbEntity
  8
LAY-10
  6
CONTINUOUS
 62
     7
100
AcDbLine
 10
568.8719926203006
 20
849.047305579
 30
0.0
 11
592.9136231806004
 21
825.005675019
 31
0.0
  0
LINE
  5
15D
330
1F
100
AcDbEntity
  8
LAY-10
  6
CONTINUOUS
 62
     7
100
AcDbLine
 10
592.9136231806004
 20
825.005675019
 30
0.0
 11
595.7420503054004
 21
827.8341021439999
 31
0.0
  0
LINE
  5
15E
330
1F
100
AcDbEntity
  8
LAY-10
  6
CONTINUOUS
 62
     7
100
AcDbLine
 10
602.8131181173004
 20
834.9051699560001
 30
0.0
 11
599.9846909925005
 21
832.0767428309998
 31
0.0
  0
LINE
  5
15F
330
1F
100
AcDbEntity
  8
LAY-10
  6
CONTINUOUS
 62
     7
100
AcDbLine
 10
599.9846909925005
 20
832.0767428309998
 30
0.0
 11
578.7714875569005
 21
853.289946267
 31
0.0
  0
LINE
  5
160
330
1F
100
AcDbEntity
  8
LAY-10
  6
CONTINUOUS
 62
     7
100
AcDbLine
 10
595.7420503054004
 20
827.8341021439999
 30
0.0
 11
574.5288468698004
 21
849.047305579
 31
0.0
  0
LINE
  5
161
330
1F
100
AcDbEntity
  8
LAY-10
  6
CONTINUOUS
 62
     7
100
AcDbLine
 10
574.5288468698004
 20
849.047305579
 30
0.0
 11
578.7714875569005
 21
853.289946267
 31
0.0
  0
LINE
  5
162
330
1F
100
AcDbEntity
  8
LAY-10
  6
CONTINUOUS
 62
     7
100
AcDbLine
 10
550.4872163094004
 20
858.946800516
 30
0.0
 11
574.5288468698004
 21
834.9051699560001
 31
0.0
  0
LINE
  5
163
330
1F
100
AcDbEntity
  8
LAY-10
  6
CONTINUOUS
 62
     7
100
AcDbLine
 10
550.4872163094004
 20
858.946800516
 30
0.0
 11
540.5877213728005
 21
849.047305579
 31
0.0
  0
LINE
  5
164
330
1F
100
AcDbEntity
  8
LAY-10
  6
CONTINUOUS
 62
     7
100
AcDbLine
 10
540.5877213728005
 20
849.047305579
 30
0.0
 11
564.6293519332003
 21
825.005675019
 31
0.0
  0
LINE
  5
165
330
1F
100
AcDbEntity
  8
LAY-10
  6
CONTINUOUS
 62
     7
100
AcDbLine
 10
564.6293519332003
 20
825.005675019
 30
0.0
 11
567.4577790579004
 21
827.8341021439999
 31
0.0
  0
LINE
  5
166
330
1F
100
AcDbEntity
  8
LAY-10
  6
CONTINUOUS
 62
     7
100
AcDbLine
 10
574.5288468698004
 20
834.9051699560001
 30
0.0
 11
571.7004197450004
 21
832.0767428309998
 31
0.0
  0
LINE
  5
167
330
1F
100
AcDbEntity
  8
LAY-10
  6
CONTINUOUS
 62
     7
100
AcDbLine
 10
571.7004197450004
 20
832.0767428309998
 30
0.0
 11
550.4872163094004
 21
853.289946267
 31
0.0
  0
LINE
  5
168
330
1F
100
AcDbEntity
  8
LAY-10
  6
CONTINUOUS
 62
     7
100
AcDbLine
 10
567.4577790579004
 20
827.8341021439999
 30
0.0
 11
546.2445756223004
 21
849.047305579
 31
0.0
  0
LINE
  5
169
330
1F
100
AcDbEntity
  8
LAY-10
  6
CONTINUOUS
 62
     7
100
AcDbLine
 10
546.2445756223004
 20
849.047305579
 30
0.0
 11
550.4872163094004
 21
853.289946267
 31
0.0
  0
LINE
  5
16A
330
1F
100
AcDbEntity
  8
LAY-10
  6
CONTINUOUS
 62
     7
100
AcDbLine
 10
522.2029450620003
 20
858.946800516
 30
0.0
 11
546.2445756223004
 21
834.9051699560001
 31
0.0
  0
LINE
  5
16B
330
1F
100
AcDbEntity
  8
LAY-10
  6
CONTINUOUS
 62
     7
100
AcDbLine
 10
522.2029450620003
 20
858.946800516
 30
0.0
 11
512.3034501254003
 21
849.047305579
 31
0.0
  0
LINE
  5
16C
330
1F
100
AcDbEntity
  8
LAY-10
  6
CONTINUOUS
 62
     7
100
AcDbLine
 10
512.3034501254003
 20
849.047305579
 30
0.0
 11
536.3450806857005
 21
825.005675019
 31
0.0
  0
LINE
  5
16D
330
1F
100
AcDbEntity
  8
LAY-10
  6
CONTINUOUS
 62
     7
100
AcDbLine
 10
536.3450806857005
 20
825.005675019
 30
0.0
 11
539.1735078105004
 21
827.8341021439999
 31
0.0
  0
LINE
  5
16E
330
1F
100
AcDbEntity
  8
LAY-10
  6
CONTINUOUS
 62
     7
100
AcDbLine
 10
546.2445756223004
 20
834.9051699560001
 30
0.0
 11
543.4161484976003
 21
832.0767428309998
 31
0.0
  0
LINE
  5
16F
330
1F
100
AcDbEntity
  8
LAY-10
  6
CONTINUOUS
 62
     7
100
AcDbLine
 10
543.4161484976003
 20
832.0767428309998
 30
0.0
 11
522.2029450620003
 21
853.289946267
 31
0.0
  0
LINE
  5
170
330
1F
100
AcDbEntity
  8
LAY-10
  6
CONTINUOUS
 62
     7
100
AcDbLine
 10
539.1735078105004
 20
827.8341021439999
 30
0.0
 11
517.9603043749004
 21
849.047305579
 31
0.0
  0
LINE
  5
171
330
1F
100
AcDbEntity
  8
LAY-10
  6
CONTINUOUS
 62
     7
100
AcDbLine
 10
517.9603043749004
 20
849.047305579
 30
0.0
 11
522.2029450620003
 21
853.289946267
 31
0.0
  0
LINE
  5
172
330
1F
100
AcDbEntity
  8
LAY-10
  6
CONTINUOUS
 62
     7
100
AcDbLine
 10
592.9136231806004
 20
881.574217514
 30
0.0
 11
568.8719926203006
 21
905.6158480739999
 31
0.0
  0
LINE
  5
173
330
1F
100
AcDbEntity
  8
LAY-10
  6
CONTINUOUS
 62
     7
100
AcDbLine
 10
592.9136231806004
 20
881.574217514
 30
0.0
 11
602.8131181173004
 21
891.4737124510001
 31
0.0
  0
LINE
  5
174
330
1F
100
AcDbEntity
  8
LAY-10
  6
CONTINUOUS
 62
     7
100
AcDbLine
 10
602.8131181173004
 20
891.4737124510001
 30
0.0
 11
578.7714875569005
 21
915.515343011
 31
0.0
  0
LINE
  5
175
330
1F
100
AcDbEntity
  8
LAY-10
  6
CONTINUOUS
 62
     7
100
AcDbLine
 10
578.7714875569005
 20
915.515343011
 30
0.0
 11
575.9430604322004
 21
912.6869158860001
 31
0.0
  0
LINE
  5
176
330
1F
100
AcDbEntity
  8
LAY-10
  6
CONTINUOUS
 62
     7
100
AcDbLine
 10
568.8719926203006
 20
905.6158480739999
 30
0.0
 11
571.7004197450004
 21
908.444275199
 31
0.0
  0
LINE
  5
177
330
1F
100
AcDbEntity
  8
LAY-10
  6
CONTINUOUS
 62
     7
100
AcDbLine
 10
571.7004197450004
 20
908.444275199
 30
0.0
 11
592.9136231806004
 21
887.2310717629998
 31
0.0
  0
LINE
  5
178
330
1F
100
AcDbEntity
  8
LAY-10
  6
CONTINUOUS
 62
     7
100
AcDbLine
 10
575.9430604322004
 20
912.6869158860001
 30
0.0
 11
597.1562638678004
 21
891.4737124510001
 31
0.0
  0
LINE
  5
179
330
1F
100
AcDbEntity
  8
LAY-10
  6
CONTINUOUS
 62
     7
100
AcDbLine
 10
597.1562638678004
 20
891.4737124510001
 30
0.0
 11
592.9136231806004
 21
887.2310717629998
 31
0.0
  0
LINE
  5
17A
330
1F
100
AcDbEntity
  8
LAY-10
  6
CONTINUOUS
 62
     7
100
AcDbLine
 10
564.6293519332003
 20
881.574217514
 30
0.0
 11
540.5877213728005
 21
905.6158480739999
 31
0.0
  0
LINE
  5
17B
330
1F
100
AcDbEntity
  8
LAY-10
  6
CONTINUOUS
 62
     7
100
AcDbLine
 10
564.6293519332003
 20
881.574217514
 30
0.0
 11
574.5288468698004
 21
891.4737124510001
 31
0.0
  0
LINE
  5
17C
330
1F
100
AcDbEntity
  8
LAY-10
  6
CONTINUOUS
 62
     7
100
AcDbLine
 10
574.5288468698004
 20
891.4737124510001
 30
0.0
 11
550.4872163094004
 21
915.515343011
 31
0.0
  0
LINE
  5
17D
330
1F
100
AcDbEntity
  8
LAY-10
  6
CONTINUOUS
 62
     7
100
AcDbLine
 10
550.4872163094004
 20
915.515343011
 30
0.0
 11
547.6587891847006
 21
912.6869158860001
 31
0.0
  0
LINE
  5
17E
330
1F
100
AcDbEntity
  8
LAY-10
  6
CONTINUOUS
 62
     7
100
AcDbLine
 10
540.5877213728005
 20
905.6158480739999
 30
0.0
 11
543.4161484976003
 21
908.444275199
 31
0.0
  0
LINE
  5
17F
330
1F
100
AcDbEntity
  8
LAY-10
  6
CONTINUOUS
 62
     7
100
AcDbLine
 10
543.4161484976003
 20
908.444275199
 30
0.0
 11
564.6293519332003
 21
887.2310717629998
 31
0.0
  0
LINE
  5
180
330
1F
100
AcDbEntity
  8
LAY-10
  6
CONTINUOUS
 62
     7
100
AcDbLine
 10
547.6587891847006
 20
912.6869158860001
 30
0.0
 11
568.8719926203006
 21
891.4737124510001
 31
0.0
  0
LINE
  5
181
330
1F
100
AcDbEntity
  8
LAY-10
  6
CONTINUOUS
 62
     7
100
AcDbLine
 10
568.8719926203006
 20
891.4737124510001
 30
0.0
 11
564.6293519332003
 21
887.2310717629998
 31
0.0
  0
LINE
  5
182
330
1F
100
AcDbEntity
  8
LAY-10
  6
CONTINUOUS
 62
     7
100
AcDbLine
 10
536.3450806857005
 20
881.574217514
 30
0.0
 11
512.3034501254003
 21
905.6158480739999
 31
0.0
  0
LINE
  5
183
330
1F
100
AcDbEntity
  8
LAY-10
  6
CONTINUOUS
 62
     7
100
AcDbLine
 10
536.3450806857005
 20
881.574217514
 30
0.0
 11
546.2445756223004
 21
891.4737124510001
 31
0.0
  0
LINE
  5
184
330
1F
100
AcDbEntity
  8
LAY-10
  6
CONTINUOUS
 62
     7
100
AcDbLine
 10
546.2445756223004
 20
891.4737124510001
 30
0.0
 11
522.2029450620003
 21
915.515343011
 31
0.0
  0
LINE
  5
185
330
1F
100
AcDbEntity
  8
LAY-10
  6
CONTINUOUS
 62
     7
100
AcDbLine
 10
522.2029450620003
 20
915.515343011
 30
0.0
 11
519.3745179372005
 21
912.6869158860001
 31
0.0
  0
LINE
  5
186
330
1F
100
AcDbEntity
  8
LAY-10
  6
CONTINUOUS
 62
     7
100
AcDbLine
 10
512.3034501254003
 20
905.6158480739999
 30
0.0
 11
515.1318772501005
 21
908.444275199
 31
0.0
  0
LINE
  5
187
330
1F
100
AcDbEntity
  8
LAY-10
  6
CONTINUOUS
 62
     7
100
AcDbLine
 10
515.1318772501005
 20
908.444275199
 30
0.0
 11
536.3450806857005
 21
887.2310717629998
 31
0.0
  0
LINE
  5
188
330
1F
100
AcDbEntity
  8
LAY-10
  6
CONTINUOUS
 62
     7
100
AcDbLine
 10
519.3745179372005
 20
912.6869158860001
 30
0.0
 11
540.5877213728005
 21
891.4737124510001
 31
0.0
  0
LINE
  5
189
330
1F
100
AcDbEntity
  8
LAY-10
  6
CONTINUOUS
 62
     7
100
AcDbLine
 10
540.5877213728005
 20
891.4737124510001
 30
0.0
 11
536.3450806857005
 21
887.2310717629998
 31
0.0
  0
LINE
  5
18A
330
1F
100
AcDbEntity
  8
LAY-10
  6
CONTINUOUS
 62
     7
100
AcDbLine
 10
502.3325307262003
 20
1092.466459147
 30
0.0
 11
457.7692462495002
 21
1137.029743624
 31
0.0
  0
LINE
  5
18B
330
1F
100
AcDbEntity
  8
LAY-10
  6
CONTINUOUS
 62
     7
100
AcDbLine
 10
457.7692462495002
 20
1137.029743624
 30
0.0
 11
437.9702563763003
 21
1117.230753751
 31
0.0
  0
LINE
  5
18C
330
1F
100
AcDbEntity
  8
LAY-10
  6
CONTINUOUS
 62
     7
100
AcDbLine
 10
437.9702563763003
 20
1117.230753751
 30
0.0
 11
482.5335408529002
 21
1072.667469274
 31
0.0
  0
LINE
  5
18D
330
1F
100
AcDbEntity
  8
LAY-10
  6
CONTINUOUS
 62
     7
100
AcDbLine
 10
441.5057902822
 20
1113.695219845
 30
0.0
 11
461.3047801554004
 21
1133.494209718
 31
0.0
  0
LINE
  5
18E
330
1F
100
AcDbEntity
  8
LAY-10
  6
CONTINUOUS
 62
     7
100
AcDbLine
 10
457.7692462495002
 20
1097.431763877
 30
0.0
 11
477.5682361227003
 21
1117.230753751
 31
0.0
  0
LINE
  5
18F
330
1F
100
AcDbEntity
  8
LAY-10
  6
CONTINUOUS
 62
     7
100
AcDbLine
 10
464.8403140613002
 20
1090.360696066
 30
0.0
 11
484.6393039346001
 21
1110.159685939
 31
0.0
  0
LINE
  5
190
330
1F
100
AcDbEntity
  8
LAY-10
  6
CONTINUOUS
 62
     7
100
AcDbLine
 10
481.1037700286004
 20
1074.097240098
 30
0.0
 11
500.9027599019005
 21
1093.896229971
 31
0.0
  0
LINE
  5
191
330
1F
100
AcDbEntity
  8
LAY-10
  6
CONTINUOUS
 62
     7
100
AcDbLine
 10
482.5335408529002
 20
827.3325307260001
 30
0.0
 11
437.9702563763003
 21
782.769246249
 31
0.0
  0
LINE
  5
192
330
1F
100
AcDbEntity
  8
LAY-10
  6
CONTINUOUS
 62
     7
100
AcDbLine
 10
437.9702563763003
 20
782.769246249
 30
0.0
 11
457.7692462495002
 21
762.970256376
 31
0.0
  0
LINE
  5
193
330
1F
100
AcDbEntity
  8
LAY-10
  6
CONTINUOUS
 62
     7
100
AcDbLine
 10
457.7692462495002
 20
762.970256376
 30
0.0
 11
502.3325307262003
 21
807.533540853
 31
0.0
  0
LINE
  5
194
330
1F
100
AcDbEntity
  8
LAY-10
  6
CONTINUOUS
 62
     7
100
AcDbLine
 10
461.3047801554004
 20
766.5057902819999
 30
0.0
 11
441.5057902822
 21
786.304780155
 31
0.0
  0
LINE
  5
195
330
1F
100
AcDbEntity
  8
LAY-10
  6
CONTINUOUS
 62
     7
100
AcDbLine
 10
477.5682361227003
 20
782.769246249
 30
0.0
 11
457.7692462495002
 21
802.5682361229999
 31
0.0
  0
LINE
  5
196
330
1F
100
AcDbEntity
  8
LAY-10
  6
CONTINUOUS
 62
     7
100
AcDbLine
 10
484.6393039346001
 20
789.840314061
 30
0.0
 11
464.8403140613002
 21
809.6393039339998
 31
0.0
  0
LINE
  5
197
330
1F
100
AcDbEntity
  8
LAY-10
  6
CONTINUOUS
 62
     7
100
AcDbLine
 10
500.9027599019005
 20
806.1037700289999
 30
0.0
 11
481.1037700286004
 21
825.902759902
 31
0.0
  0
LINE
  5
198
330
1F
100
AcDbEntity
  8
LAY-10
  6
CONTINUOUS
 62
     7
100
AcDbLine
 10
747.6674692740005
 20
807.533540853
 30
0.0
 11
792.2307537510005
 21
762.970256376
 31
0.0
  0
LINE
  5
199
330
1F
100
AcDbEntity
  8
LAY-10
  6
CONTINUOUS
 62
     7
100
AcDbLine
 10
792.2307537510005
 20
762.970256376
 30
0.0
 11
812.0297436240005
 21
782.769246249
 31
0.0
  0
LINE
  5
19A
330
1F
100
AcDbEntity
  8
LAY-10
  6
CONTINUOUS
 62
     7
100
AcDbLine
 10
812.0297436240005
 20
782.769246249
 30
0.0
 11
767.4664591470005
 21
827.3325307260001
 31
0.0
  0
LINE
  5
19B
330
1F
100
AcDbEntity
  8
LAY-10
  6
CONTINUOUS
 62
     7
100
AcDbLine
 10
808.4942097180004
 20
786.304780155
 30
0.0
 11
788.6952198450003
 21
766.5057902819999
 31
0.0
  0
LINE
  5
19C
330
1F
100
AcDbEntity
  8
LAY-10
  6
CONTINUOUS
 62
     7
100
AcDbLine
 10
792.2307537510005
 20
802.5682361229999
 30
0.0
 11
772.4317638770005
 21
782.769246249
 31
0.0
  0
LINE
  5
19D
330
1F
100
AcDbEntity
  8
LAY-10
  6
CONTINUOUS
 62
     7
100
AcDbLine
 10
785.1596859390003
 20
809.6393039339998
 30
0.0
 11
765.3606960660002
 21
789.840314061
 31
0.0
  0
LINE
  5
19E
330
1F
100
AcDbEntity
  8
LAY-10
  6
CONTINUOUS
 62
     7
100
AcDbLine
 10
768.8962299720006
 20
825.902759902
 30
0.0
 11
749.0972400980004
 21
806.1037700289999
 31
0.0
  0
LINE
  5
19F
330
1F
100
AcDbEntity
  8
LAY-10
  6
CONTINUOUS
 62
     7
100
AcDbLine
 10
645.5980686550006
 20
1122.650248763
 30
0.0
 11
646.8595284760002
 21
1121.039177564
 31
0.0
  0
LINE
  5
1A0
330
1F
100
AcDbEntity
  8
LAY-10
  6
CONTINUOUS
 62
     7
100
AcDbLine
 10
666.6079866520005
 20
1118.540714983
 30
0.0
 11
664.8447048570006
 21
1121.672298268
 31
0.0
  0
LINE
  5
1A1
330
1F
100
AcDbEntity
  8
LAY-10
  6
CONTINUOUS
 62
     7
100
AcDbLine
 10
667.3228406100003
 20
1124.256189641
 30
0.0
 11
664.8447048570006
 21
1121.672298268
 31
0.0
  0
LINE
  5
1A2
330
1F
100
AcDbEntity
  8
LAY-10
  6
CONTINUOUS
 62
     7
100
AcDbLine
 10
645.9485274690004
 20
1125.508867665
 30
0.0
 11
647.5714670910003
 21
1126.755021055
 31
0.0
  0
LINE
  5
1A3
330
1F
100
AcDbEntity
  8
LAY-10
  6
CONTINUOUS
 62
     7
100
AcDbLine
 10
632.4817882590006
 20
1122.858167462
 30
0.0
 11
632.6141539730005
 21
1124.292899784
 31
0.0
  0
LINE
  5
1A4
330
1F
100
AcDbEntity
  8
LAY-10
  6
CONTINUOUS
 62
     7
100
AcDbLine
 10
632.8788854010005
 20
1127.162364427
 30
0.0
 11
633.0112511150006
 21
1128.597096748
 31
0.0
  0
LINE
  5
1A5
330
1F
100
AcDbEntity
  8
LAY-10
  6
CONTINUOUS
 62
     7
100
AcDbLine
 10
645.9485274690004
 20
1125.508867665
 30
0.0
 11
632.8788854010005
 21
1127.162364427
 31
0.0
  0
LINE
  5
1A6
330
1F
100
AcDbEntity
  8
LAY-10
  6
CONTINUOUS
 62
     7
100
AcDbLine
 10
632.6141539730005
 20
1124.292899784
 30
0.0
 11
645.5980686550006
 21
1122.650248763
 31
0.0
  0
LINE
  5
1A7
330
1F
100
AcDbEntity
  8
LAY-10
  6
CONTINUOUS
 62
     7
100
AcDbLine
 10
647.5714670910003
 20
1126.755021055
 30
0.0
 11
667.3228406100003
 21
1124.256189641
 31
0.0
  0
LINE
  5
1A8
330
1F
100
AcDbEntity
  8
LAY-10
  6
CONTINUOUS
 62
     7
100
AcDbLine
 10
646.8595284760002
 20
1121.039177564
 30
0.0
 11
666.6079866520005
 21
1118.540714983
 31
0.0
  0
LINE
  5
1A9
330
1F
100
AcDbEntity
  8
LAY-10
  6
CONTINUOUS
 62
     7
100
AcDbLine
 10
627.0287954540004
 20
1126.451006048
 30
0.0
 11
633.0112511150006
 21
1128.597096748
 31
0.0
  0
LINE
  5
1AA
330
1F
100
AcDbEntity
  8
LAY-10
  6
CONTINUOUS
 62
     7
100
AcDbLine
 10
632.4817882590006
 20
1122.858167462
 30
0.0
 11
627.0287954540004
 21
1126.451006048
 31
0.0
  0
TEXT
  5
1AB
330
1F
100
AcDbEntity
  8
LAY-10
  6
CONTINUOUS
 62
     7
100
AcDbText
 10
582.3843087712861
 20
1116.985887979227
 30
0.0
 40
7.795275999999999
  1
Ｏ
 50
12.62239398348999
 41
1.2
  7
EXCADSTD
100
AcDbText
  0
TEXT
  5
1AC
330
1F
100
AcDbEntity
  8
LAY-10
  6
CONTINUOUS
 62
     7
100
AcDbText
 10
592.4067410622227
 20
1119.227844620497
 30
0.0
 40
7.795275999999999
  1
Ｐ
 50
9.207464661159996
 41
1.2
  7
EXCADSTD
100
AcDbText
  0
TEXT
  5
1AD
330
1F
100
AcDbEntity
  8
LAY-10
  6
CONTINUOUS
 62
     7
100
AcDbText
 10
602.5449223919146
 20
1120.868819311226
 30
0.0
 40
7.795275999999999
  1
Ｅ
 50
5.79253533883998
 41
1.2
  7
EXCADSTD
100
AcDbText
  0
TEXT
  5
1AE
330
1F
100
AcDbEntity
  8
LAY-10
  6
CONTINUOUS
 62
     7
100
AcDbText
 10
612.7628488506368
 20
1121.902984426779
 30
0.0
 40
7.795275999999999
  1
Ｎ
 50
2.377606016509991
 41
1.2
  7
EXCADSTD
100
AcDbText
  0
TEXT
  5
1AF
330
1F
100
AcDbEntity
  8
LAY-10
  6
CONTINUOUS
 62
     7
100
AcDbText
 10
584.9742036492632
 20
1276.816945898763
 30
0.0
 40
9.458494855923844
  1
P
 50
3.697526193100021
 41
0.7558933333333333
 51
-0.0000000000000509
  7
EXCADSTD
100
AcDbText
  0
TEXT
  5
1B0
330
1F
100
AcDbEntity
  8
LAY-10
  6
CONTINUOUS
 62
     7
100
AcDbText
 10
572.940496695524
 20
1275.240513956892
 30
0.0
 40
9.458494855923844
  1
O
 50
3.855480348600014
 41
0.7558933333333333
 51
-0.0000000000000509
  7
EXCADSTD
100
AcDbText
  0
TEXT
  5
1B1
330
1F
100
AcDbEntity
  8
LAY-10
  6
CONTINUOUS
 62
     7
100
AcDbText
 10
608.6028637124349
 20
1278.343172781765
 30
0.0
 40
9.458494855923844
  1
N
 41
0.7558933333333333
  7
EXCADSTD
100
AcDbText
  0
TEXT
  5
1B2
330
1F
100
AcDbEntity
  8
LAY-10
  6
CONTINUOUS
 62
     7
100
AcDbText
 10
596.521027290858
 20
1277.884305314764
 30
0.0
 40
9.458494855923844
  1
E
 50
2.360524758800001
 41
0.7558933333333333
  7
EXCADSTD
100
AcDbText
  0
LINE
  5
1B3
330
1F
100
AcDbEntity
  8
LAY-10
  6
CONTINUOUS
 62
     7
100
AcDbLine
 10
648.6219989970004
 20
1280.017000304
 30
0.0
 11
650.4887323120005
 21
1277.874162004
 31
0.0
  0
LINE
  5
1B4
330
1F
100
AcDbEntity
  8
LAY-10
  6
CONTINUOUS
 62
     7
100
AcDbLine
 10
678.0611670740003
 20
1275.844323002
 30
0.0
 11
675.3878897340004
 21
1280.059612613
 31
0.0
  0
LINE
  5
1B5
330
1F
100
AcDbEntity
  8
LAY-10
  6
CONTINUOUS
 62
     7
100
AcDbLine
 10
678.6372079680003
 20
1283.823565175
 30
0.0
 11
675.3878897340004
 21
1280.059612613
 31
0.0
  0
LINE
  5
1B6
330
1F
100
AcDbEntity
  8
LAY-10
  6
CONTINUOUS
 62
     7
100
AcDbLine
 10
648.9002906210004
 20
1284.007337611
 30
0.0
 11
651.0607028570004
 21
1285.85370383
 31
0.0
  0
LINE
  5
1B7
330
1F
100
AcDbEntity
  8
LAY-10
  6
CONTINUOUS
 62
     7
100
AcDbLine
 10
630.4147953670005
 20
1279.351973467
 30
0.0
 11
630.4940956770005
 21
1281.351547852
 31
0.0
  0
LINE
  5
1B8
330
1F
100
AcDbEntity
  8
LAY-10
  6
CONTINUOUS
 62
     7
100
AcDbLine
 10
630.6526962980005
 20
1285.350696621
 30
0.0
 11
630.7319966090004
 21
1287.350271006
 31
0.0
  0
LINE
  5
1B9
330
1F
100
AcDbEntity
  8
LAY-10
  6
CONTINUOUS
 62
     7
100
AcDbLine
 10
648.9002906210004
 20
1284.007337611
 30
0.0
 11
630.6526962980005
 21
1285.350696621
 31
0.0
  0
LINE
  5
1BA
330
1F
100
AcDbEntity
  8
LAY-10
  6
CONTINUOUS
 62
     7
100
AcDbLine
 10
630.4940956770005
 20
1281.351547852
 30
0.0
 11
648.6219989970004
 21
1280.017000304
 31
0.0
  0
LINE
  5
1BB
330
1F
100
AcDbEntity
  8
LAY-10
  6
CONTINUOUS
 62
     7
100
AcDbLine
 10
651.0607028570004
 20
1285.85370383
 30
0.0
 11
678.6372079680003
 21
1283.823565175
 31
0.0
  0
LINE
  5
1BC
330
1F
100
AcDbEntity
  8
LAY-10
  6
CONTINUOUS
 62
     7
100
AcDbLine
 10
650.4887323120005
 20
1277.874162004
 30
0.0
 11
678.0611670740003
 21
1275.844323002
 31
0.0
  0
LINE
  5
1BD
330
1F
100
AcDbEntity
  8
LAY-10
  6
CONTINUOUS
 62
     7
100
AcDbLine
 10
622.5904143800003
 20
1283.938816706
 30
0.0
 11
630.7319966090004
 21
1287.350271006
 31
0.0
  0
LINE
  5
1BE
330
1F
100
AcDbEntity
  8
LAY-10
  6
CONTINUOUS
 62
     7
100
AcDbLine
 10
630.4147953670005
 20
1279.351973467
 30
0.0
 11
622.5904143800003
 21
1283.938816706
 31
0.0
  0
LINE
  5
1BF
330
1F
100
AcDbEntity
  8
LAY-10
  6
CONTINUOUS
 62
     7
100
AcDbLine
 10
492.3315846180001
 20
656.9
 30
0.0
 11
510.4217935416003
 21
660.2416823760001
 31
0.0
  0
LINE
  5
1C0
330
1F
100
AcDbEntity
  8
LAY-10
  6
CONTINUOUS
 62
     7
100
AcDbLine
 10
510.4217935416003
 20
660.2416823760001
 30
0.0
 11
521.3527231828002
 21
645.445153148
 31
0.0
  0
LINE
  5
1C1
330
1F
100
AcDbEntity
  8
LAY-10
  6
CONTINUOUS
 62
     7
100
AcDbLine
 10
521.3527231828002
 20
645.445153148
 30
0.0
 11
503.2625142592004
 21
642.1034707729998
 31
0.0
  0
LINE
  5
1C2
330
1F
100
AcDbEntity
  8
LAY-10
  6
CONTINUOUS
 62
     7
100
AcDbLine
 10
503.2625142592004
 20
642.1034707729998
 30
0.0
 11
492.3315846180001
 21
656.9
 31
0.0
  0
TEXT
  5
1C3
330
1F
100
AcDbEntity
  8
LAY-10
  6
CONTINUOUS
 62
     7
100
AcDbText
 10
500.5096860279207
 20
648.8045124426989
 30
0.0
 40
9.12047277131691
  1
S
 50
338.4605028857001
 41
0.56692
  7
EXCADSTD
100
AcDbText
  0
TEXT
  5
1C4
330
1F
100
AcDbEntity
  8
LAY-10
  6
CONTINUOUS
 62
     7
100
AcDbText
 10
505.9731001293209
 20
646.7123410986989
 30
0.0
 40
9.12047277131691
  1
F
 50
338.4605028857001
 41
0.56692
  7
EXCADSTD
100
AcDbText
  0
TEXT
  5
1C5
330
1F
100
AcDbEntity
  8
LAY-10
  6
CONTINUOUS
 62
     7
100
AcDbText
 10
418.9034109465176
 20
695.5584519482138
 30
0.0
 40
12.00472548604927
  1
Ｐ
 50
322.1640335257001
 41
1.2
  7
EXCADSTD
100
AcDbText
  0
TEXT
  5
1C6
330
1F
100
AcDbEntity
  8
LAY-10
  6
CONTINUOUS
 62
     7
100
AcDbText
 10
429.4092548769922
 20
687.3965616811184
 30
0.0
 40
12.00472548604927
  1
Ａ
 50
324.4921005771002
 41
1.2
  7
EXCADSTD
100
AcDbText
  0
TEXT
  5
1C7
330
1F
100
AcDbEntity
  8
LAY-10
  6
CONTINUOUS
 62
     7
100
AcDbText
 10
440.2379736837688
 20
679.6681686778933
 30
0.0
 40
12.00472548604927
  1
Ｔ
 50
326.8201676286001
 41
1.2
  7
EXCADSTD
100
AcDbText
  0
TEXT
  5
1C8
330
1F
100
AcDbEntity
  8
LAY-10
  6
CONTINUOUS
 62
     7
100
AcDbText
 10
451.3716916682037
 20
672.3860307182848
 30
0.0
 40
12.00472548604927
  1
Ｅ
 50
329.14823468
 41
1.2
  7
EXCADSTD
100
AcDbText
  0
TEXT
  5
1C9
330
1F
100
AcDbEntity
  8
LAY-10
  6
CONTINUOUS
 62
     7
100
AcDbText
 10
462.7920296485885
 20
665.5621689205968
 30
0.0
 40
12.00472548604927
  1
Ｎ
 50
331.4763017314002
 41
1.2
  7
EXCADSTD
100
AcDbText
  0
TEXT
  5
1CA
330
1F
100
AcDbEntity
  8
LAY-10
  6
CONTINUOUS
 62
     7
100
AcDbText
 10
474.4801353004437
 20
659.2078478956801
 30
0.0
 40
12.00472548604927
  1
Ｔ
 50
333.8043687828001
 41
1.2
  7
EXCADSTD
100
AcDbText
  0
TEXT
  5
1CB
330
1F
100
AcDbEntity
  8
LAY-10
  6
CONTINUOUS
 62
     7
100
AcDbText
 10
523.5183908989042
 20
638.6837806846145
 30
0.0
 40
12.00472548604927
  1
Ｆ
 50
343.1166369886
 41
1.2
  7
EXCADSTD
100
AcDbText
  0
TEXT
  5
1CC
330
1F
100
AcDbEntity
  8
LAY-10
  6
CONTINUOUS
 62
     7
100
AcDbText
 10
536.2482078706428
 20
634.8184256842246
 30
0.0
 40
12.00472548604927
  1
Ｕ
 50
345.4447040400001
 41
1.2
  7
EXCADSTD
100
AcDbText
  0
TEXT
  5
1CD
330
1F
100
AcDbEntity
  8
LAY-10
  6
CONTINUOUS
 62
     7
100
AcDbText
 10
549.1245334305148
 20
631.4733622327545
 30
0.0
 40
12.00472548604927
  1
Ｋ
 50
347.7727710914
 41
1.2
  7
EXCADSTD
100
AcDbText
  0
TEXT
  5
1CE
330
1F
100
AcDbEntity
  8
LAY-10
  6
CONTINUOUS
 62
     7
100
AcDbText
 10
562.1261117566087
 20
628.6541122533674
 30
0.0
 40
12.00472548604927
  1
Ｕ
 50
350.1008381428002
 41
1.2
  7
EXCADSTD
100
AcDbText
  0
TEXT
  5
1CF
330
1F
100
AcDbEntity
  8
LAY-10
  6
CONTINUOUS
 62
     7
100
AcDbText
 10
575.23148026402
 20
626.3653296732291
 30
0.0
 40
12.00472548604927
  1
Ｎ
 50
352.4289051943002
 41
1.2
  7
EXCADSTD
100
AcDbText
  0
TEXT
  5
1D0
330
1F
100
AcDbEntity
  8
LAY-10
  6
CONTINUOUS
 62
     7
100
AcDbText
 10
588.4190050342753
 20
624.6107927393064
 30
0.0
 40
12.00472548604927
  1
Ｉ
 50
354.7569722457001
 41
1.2
  7
EXCADSTD
100
AcDbText
  0
TEXT
  5
1D1
330
1F
100
AcDbEntity
  8
LAY-10
  6
CONTINUOUS
 62
     7
100
AcDbText
 10
601.6669165279219
 20
623.3933977850281
 30
0.0
 40
12.00472548604927
  1
Ｓ
 50
357.0850392971003
 41
1.2
  7
EXCADSTD
100
AcDbText
  0
TEXT
  5
1D2
330
1F
100
AcDbEntity
  8
LAY-10
  6
CONTINUOUS
 62
     7
100
AcDbText
 10
614.953345521331
 20
622.7151544477529
 30
0.0
 40
12.00472548604927
  1
Ｈ
 50
359.4131063486002
 41
1.2
  7
EXCADSTD
100
AcDbText
  0
TEXT
  5
1D3
330
1F
100
AcDbEntity
  8
LAY-10
  6
CONTINUOUS
 62
     7
100
AcDbText
 10
628.256359207053
 20
622.5771823480054
 30
0.0
 40
12.00472548604927
  1
Ｉ
 50
1.74117339997999
 41
1.2
  7
EXCADSTD
100
AcDbText
  0
TEXT
  5
1D4
330
1F
100
AcDbEntity
  8
LAY-10
  6
CONTINUOUS
 62
     7
100
AcDbText
 10
654.8243087888636
 20
623.9220706645851
 30
0.0
 40
12.00472548604927
  1
Ｆ
 50
6.397307502840025
 41
1.2
  7
EXCADSTD
100
AcDbText
  0
TEXT
  5
1D5
330
1F
100
AcDbEntity
  8
LAY-10
  6
CONTINUOUS
 62
     7
100
AcDbText
 10
668.0453871739276
 20
625.4027109821909
 30
0.0
 40
12.00472548604927
  1
Ｏ
 50
8.72537455426999
 41
1.2
  7
EXCADSTD
100
AcDbText
  0
TEXT
  5
1D6
330
1F
100
AcDbEntity
  8
LAY-10
  6
CONTINUOUS
 62
     7
100
AcDbText
 10
681.1954076264232
 20
627.4191860074951
 30
0.0
 40
12.00472548604927
  1
Ｕ
 50
11.05344160570001
 41
1.2
  7
EXCADSTD
100
AcDbText
  0
TEXT
  5
1D7
330
1F
100
AcDbEntity
  8
LAY-10
  6
CONTINUOUS
 62
     7
100
AcDbText
 10
694.2526625174619
 20
629.9681670071498
 30
0.0
 40
12.00472548604927
  1
Ｎ
 50
13.38150865712
 41
1.2
  7
EXCADSTD
100
AcDbText
  0
TEXT
  5
1D8
330
1F
100
AcDbEntity
  8
LAY-10
  6
CONTINUOUS
 62
     7
100
AcDbText
 10
707.1955973521547
 20
633.04544620603
 30
0.0
 40
12.00472548604927
  1
Ｄ
 50
15.70957570855002
 41
1.2
  7
EXCADSTD
100
AcDbText
  0
TEXT
  5
1D9
330
1F
100
AcDbEntity
  8
LAY-10
  6
CONTINUOUS
 62
     7
100
AcDbText
 10
720.002846353548
 20
636.6459437329349
 30
0.0
 40
12.00472548604927
  1
Ｒ
 50
18.03764275997999
 41
1.2
  7
EXCADSTD
100
AcDbText
  0
TEXT
  5
1DA
330
1F
100
AcDbEntity
  8
LAY-10
  6
CONTINUOUS
 62
     7
100
AcDbText
 10
732.6532677287047
 20
640.7637160002656
 30
0.0
 40
12.00472548604927
  1
Ｙ
 50
20.36570981141
 41
1.2
  7
EXCADSTD
100
AcDbText
  0
TEXT
  5
1DB
330
1F
100
AcDbEntity
  8
LAY-10
  6
CONTINUOUS
 62
     7
100
AcDbText
 10
757.4003893330632
 20
650.5230521405234
 30
0.0
 40
12.00472548604927
  1
Ｃ
 50
25.02184391426998
 41
1.2
  7
EXCADSTD
100
AcDbText
  0
TEXT
  5
1DC
330
1F
100
AcDbEntity
  8
LAY-10
  6
CONTINUOUS
 62
     7
100
AcDbText
 10
769.4562378145097
 20
656.1485056170761
 30
0.0
 40
12.00472548604927
  1
Ｏ
 50
27.34991096570001
 41
1.2
  7
EXCADSTD
100
AcDbText
  0
TEXT
  5
1DD
330
1F
100
AcDbEntity
  8
LAY-10
  6
CONTINUOUS
 62
     7
100
AcDbText
 10
782.2218531106864
 20
662.7994178378754
 30
0.0
 40
12.00472548604927
  1
.,
 50
29.67797801712
 41
0.6267680000000001
  7
EXCADSTD
100
AcDbText
  0
TEXT
  5
1DE
330
1F
100
AcDbEntity
  8
LAY-10
  6
CONTINUOUS
 62
     7
100
AcDbText
 10
792.8330359637891
 20
668.8445671273001
 30
0.0
 40
12.00472548604927
  1
Ｌ
 50
32.00604506855001
 41
1.2
  7
EXCADSTD
100
AcDbText
  0
TEXT
  5
1DF
330
1F
100
AcDbEntity
  8
LAY-10
  6
CONTINUOUS
 62
     7
100
AcDbText
 10
804.1153959697946
 20
675.8942169141189
 30
0.0
 40
12.00472548604927
  1
Ｔ
 50
34.33411211997998
 41
1.2
  7
EXCADSTD
100
AcDbText
  0
TEXT
  5
1E0
330
1F
100
AcDbEntity
  8
LAY-10
  6
CONTINUOUS
 62
     7
100
AcDbText
 10
815.1020780723162
 20
683.3963516620801
 30
0.0
 40
12.00472548604927
  1
Ｄ
 50
36.66217917141
 41
1.2
  7
EXCADSTD
100
AcDbText
  0
TEXT
  5
1E1
330
1F
100
AcDbEntity
  8
LAY-10
  6
CONTINUOUS
 62
     7
100
AcDbText
 10
825.7749458131539
 20
691.3385870912388
 30
0.0
 40
12.00472548604927
  1
．
 50
38.99024622284001
 41
1.2
  7
EXCADSTD
100
AcDbText
  0
TEXT
  5
1E2
330
1F
100
AcDbEntity
  8
LAY-10
  6
CONTINUOUS
 62
     7
100
AcDbText
 10
844.2651244749595
 20
706.81455852396
 30
0.0
 40
12.00472548604927
  1
Ｄ
 50
43.30739034653002
 41
1.2
  7
EXCADSTD
100
AcDbText
  0
TEXT
  5
1E3
330
1F
100
AcDbEntity
  8
LAY-10
  6
CONTINUOUS
 62
     7
100
AcDbText
 10
854.7491414600996
 20
716.6940083165466
 30
0.0
 40
12.00472548604927
  1
６
 50
45.82828779959003
 41
1.2
  7
EXCADSTD
100
AcDbText
  0
TEXT
  5
1E4
330
1F
100
AcDbEntity
  8
LAY-10
  6
CONTINUOUS
 62
     7
100
AcDbText
 10
864.7884770796885
 20
727.0250237876411
 30
0.0
 40
12.00472548604927
  1
０
 50
48.34918525263998
 41
1.2
  7
EXCADSTD
100
AcDbText
  0
TEXT
  5
1E5
330
1F
100
AcDbEntity
  8
LAY-10
  6
CONTINUOUS
 62
     7
100
AcDbText
 10
874.3637001169262
 20
737.7876091711494
 30
0.0
 40
12.00472548604927
  1
０
 50
50.87008270570003
 41
1.2
  7
EXCADSTD
100
AcDbText
  0
LINE
  5
1E6
330
1F
100
AcDbEntity
  8
LAY-10
  6
CONTINUOUS
 62
     7
100
AcDbLine
 10
519.9004052335004
 20
814.5225312139999
 30
0.0
 11
532.7697436213006
 21
814.067388972
 31
0.0
  0
LINE
  5
1E7
330
1F
100
AcDbEntity
  8
LAY-10
  6
CONTINUOUS
 62
     7
100
AcDbLine
 10
532.7697436213006
 20
814.067388972
 30
0.0
 11
538.0000000001004
 21
802.3
 31
0.0
  0
LINE
  5
1E8
330
1F
100
AcDbEntity
  8
LAY-10
  6
CONTINUOUS
 62
     7
100
AcDbLine
 10
538.0000000001004
 20
802.3
 30
0.0
 11
525.1306616123005
 21
802.7551422429999
 31
0.0
  0
LINE
  5
1E9
330
1F
100
AcDbEntity
  8
LAY-10
  6
CONTINUOUS
 62
     7
100
AcDbLine
 10
525.1306616123005
 20
802.7551422429999
 30
0.0
 11
519.9004052335004
 21
814.5225312139999
 31
0.0
  0
TEXT
  5
1EA
330
1F
100
AcDbEntity
  8
LAY-10
  6
CONTINUOUS
 62
     7
100
AcDbText
 10
524.2638674884028
 20
807.7516269017153
 30
0.0
 40
6.384330716897201
  1
S
 50
325.9691152144002
 41
0.56692
  7
EXCADSTD
100
AcDbText
  0
TEXT
  5
1EB
330
1F
100
AcDbEntity
  8
LAY-10
  6
CONTINUOUS
 62
     7
100
AcDbText
 10
527.6809632208027
 20
805.4945860747151
 30
0.0
 40
6.384330716897201
  1
F
 50
325.9691152144002
 41
0.56692
  7
EXCADSTD
100
AcDbText
  0
TEXT
  5
1EC
330
1F
100
AcDbEntity
  8
LAY-10
  6
CONTINUOUS
 62
     7
100
AcDbText
 10
473.0797001468035
 20
862.3448107539656
 30
0.0
 40
9.3543312
  1
Ｐ
 50
301.7312743476
 41
1.2
  7
EXCADSTD
100
AcDbText
  0
TEXT
  5
1ED
330
1F
100
AcDbEntity
  8
LAY-10
  6
CONTINUOUS
 62
     7
100
AcDbText
 10
478.6510635776381
 20
853.3294330356229
 30
0.0
 40
9.3543312
  1
Ａ
 50
305.1938230429002
 41
1.2
  7
EXCADSTD
100
AcDbText
  0
TEXT
  5
1EE
330
1F
100
AcDbEntity
  8
LAY-10
  6
CONTINUOUS
 62
     7
100
AcDbText
 10
484.7567500544938
 20
844.6670015905925
 30
0.0
 40
9.3543312
  1
Ｔ
 50
308.6563717381
 41
1.2
  7
EXCADSTD
100
AcDbText
  0
TEXT
  5
1EF
330
1F
100
AcDbEntity
  8
LAY-10
  6
CONTINUOUS
 62
     7
100
AcDbText
 10
491.3744675875338
 20
836.3891431386552
 30
0.0
 40
9.3543312
  1
Ｅ
 50
312.1189204334001
 41
1.2
  7
EXCADSTD
100
AcDbText
  0
TEXT
  5
1F0
330
1F
100
AcDbEntity
  8
LAY-10
  6
CONTINUOUS
 62
     7
100
AcDbText
 10
498.4800547508158
 20
828.5260803154893
 30
0.0
 40
9.3543312
  1
Ｎ
 50
315.5814691286002
 41
1.2
  7
EXCADSTD
100
AcDbText
  0
TEXT
  5
1F1
330
1F
100
AcDbEntity
  8
LAY-10
  6
CONTINUOUS
 62
     7
100
AcDbText
 10
506.0475688960616
 20
821.1065213301347
 30
0.0
 40
9.3543312
  1
Ｔ
 50
319.0440178239
 41
1.2
  7
EXCADSTD
100
AcDbText
  0
TEXT
  5
1F2
330
1F
100
AcDbEntity
  8
LAY-10
  6
CONTINUOUS
 62
     7
100
AcDbText
 10
540.361173155146
 20
796.3787817401068
 30
0.0
 40
9.3543312
  1
Ｆ
 50
332.8942126049001
 41
1.2
  7
EXCADSTD
100
AcDbText
  0
TEXT
  5
1F3
330
1F
100
AcDbEntity
  8
LAY-10
  6
CONTINUOUS
 62
     7
100
AcDbText
 10
549.7938042461265
 20
791.5473640812236
 30
0.0
 40
9.3543312
  1
Ｕ
 50
336.3567613002003
 41
1.2
  7
EXCADSTD
100
AcDbText
  0
TEXT
  5
1F4
330
1F
100
AcDbEntity
  8
LAY-10
  6
CONTINUOUS
 62
     7
100
AcDbText
 10
559.5010147400461
 20
787.2944603300446
 30
0.0
 40
9.3543312
  1
Ｋ
 50
339.8193099954001
 41
1.2
  7
EXCADSTD
100
AcDbText
  0
TEXT
  5
1F5
330
1F
100
AcDbEntity
  8
LAY-10
  6
CONTINUOUS
 62
     7
100
AcDbText
 10
569.4473634071934
 20
783.6355979279438
 30
0.0
 40
9.3543312
  1
Ｕ
 50
343.2818586907001
 41
1.2
  7
EXCADSTD
100
AcDbText
  0
TEXT
  5
1F6
330
1F
100
AcDbEntity
  8
LAY-10
  6
CONTINUOUS
 62
     7
100
AcDbText
 10
579.5965359193834
 20
780.5841354577016
 30
0.0
 40
9.3543312
  1
Ｎ
 50
346.7444073859003
 41
1.2
  7
EXCADSTD
100
AcDbText
  0
TEXT
  5
1F7
330
1F
100
AcDbEntity
  8
LAY-10
  6
CONTINUOUS
 62
     7
100
AcDbText
 10
589.9114774342502
 20
778.1512138729526
 30
0.0
 40
9.3543312
  1
Ｉ
 50
350.2069560812001
 41
1.2
  7
EXCADSTD
100
AcDbText
  0
TEXT
  5
1F8
330
1F
100
AcDbEntity
  8
LAY-10
  6
CONTINUOUS
 62
     7
100
AcDbText
 10
600.3545278831887
 20
776.3457158217498
 30
0.0
 40
9.3543312
  1
Ｓ
 50
353.6695047764
 41
1.2
  7
EXCADSTD
100
AcDbText
  0
TEXT
  5
1F9
330
1F
100
AcDbEntity
  8
LAY-10
  6
CONTINUOUS
 62
     7
100
AcDbText
 10
610.8875594695288
 20
775.1742332160466
 30
0.0
 40
9.3543312
  1
Ｈ
 50
357.1320534717003
 41
1.2
  7
EXCADSTD
100
AcDbText
  0
TEXT
  5
1FA
330
1F
100
AcDbEntity
  8
LAY-10
  6
CONTINUOUS
 62
     7
100
AcDbText
 10
621.4721158725606
 20
774.6410431631347
 30
0.0
 40
9.3543312
  1
Ｉ
 50
0.594602166923328
 41
1.2
  7
EXCADSTD
100
AcDbText
  0
TEXT
  5
1FB
330
1F
100
AcDbEntity
  8
LAY-10
  6
CONTINUOUS
 62
     7
100
AcDbText
 10
642.6411783525315
 20
775.4949899409339
 30
0.0
 40
9.3543312
  1
Ｆ
 50
7.519699557430011
 41
1.2
  7
EXCADSTD
100
AcDbText
  0
TEXT
  5
1FC
330
1F
100
AcDbEntity
  8
LAY-10
  6
CONTINUOUS
 62
     7
100
AcDbText
 10
653.1483957361633
 20
776.8790089941319
 30
0.0
 40
9.3543312
  1
Ｏ
 50
10.98224825267999
 41
1.2
  7
EXCADSTD
100
AcDbText
  0
TEXT
  5
1FD
330
1F
100
AcDbEntity
  8
LAY-10
  6
CONTINUOUS
 62
     7
100
AcDbText
 10
663.5528427349592
 20
778.8950964281054
 30
0.0
 40
9.3543312
  1
Ｕ
 50
14.44479694792997
 41
1.2
  7
EXCADSTD
100
AcDbText
  0
TEXT
  5
1FE
330
1F
100
AcDbEntity
  8
LAY-10
  6
CONTINUOUS
 62
     7
100
AcDbText
 10
673.8165324936186
 20
781.5358914647444
 30
0.0
 40
9.3543312
  1
Ｎ
 50
17.90734564318999
 41
1.2
  7
EXCADSTD
100
AcDbText
  0
TEXT
  5
1FF
330
1F
100
AcDbEntity
  8
LAY-10
  6
CONTINUOUS
 62
     7
100
AcDbText
 10
683.9019920657064
 20
784.7917525059764
 30
0.0
 40
9.3543312
  1
Ｄ
 50
21.36989433844003
 41
1.2
  7
EXCADSTD
100
AcDbText
  0
TEXT
  5
200
330
1F
100
AcDbEntity
  8
LAY-10
  6
CONTINUOUS
 62
     7
100
AcDbText
 10
693.7723992250845
 20
788.6507923353292
 30
0.0
 40
9.3543312
  1
Ｒ
 50
24.83244303369002
 41
1.2
  7
EXCADSTD
100
AcDbText
  0
TEXT
  5
201
330
1F
100
AcDbEntity
  8
LAY-10
  6
CONTINUOUS
 62
     7
100
AcDbText
 10
703.3917169073859
 20
793.0989215161082
 30
0.0
 40
9.3543312
  1
Ｙ
 50
28.29499172893999
 41
1.2
  7
EXCADSTD
100
AcDbText
  0
TEXT
  5
202
330
1F
100
AcDbEntity
  8
LAY-10
  6
CONTINUOUS
 62
     7
100
AcDbText
 10
721.7376474767232
 20
803.6953955953578
 30
0.0
 40
9.3543312
  1
Ｃ
 50
35.22008911945001
 41
1.2
  7
EXCADSTD
100
AcDbText
  0
TEXT
  5
203
330
1F
100
AcDbEntity
  8
LAY-10
  6
CONTINUOUS
 62
     7
100
AcDbText
 10
730.3972789848835
 20
809.805052545081
 30
0.0
 40
9.3543312
  1
Ｏ
 50
38.68263781469999
 41
1.2
  7
EXCADSTD
100
AcDbText
  0
TEXT
  5
204
330
1F
100
AcDbEntity
  8
LAY-10
  6
CONTINUOUS
 62
     7
100
AcDbText
 10
739.3026588903351
 20
816.9972192788754
 30
0.0
 40
9.3543312
  1
.,
 50
42.14518650994997
 41
0.626768
  7
EXCADSTD
100
AcDbText
  0
TEXT
  5
205
330
1F
100
AcDbEntity
  8
LAY-10
  6
CONTINUOUS
 62
     7
100
AcDbText
 10
746.5319073952534
 20
823.5357552735325
 30
0.0
 40
9.3543312
  1
Ｌ
 50
45.60773520520999
 41
1.2
  7
EXCADSTD
100
AcDbText
  0
TEXT
  5
206
330
1F
100
AcDbEntity
  8
LAY-10
  6
CONTINUOUS
 62
     7
100
AcDbText
 10
753.9479964298876
 20
831.106669968178
 30
0.0
 40
9.3543312
  1
Ｔ
 50
49.07028390045998
 41
1.2
  7
EXCADSTD
100
AcDbText
  0
TEXT
  5
207
330
1F
100
AcDbEntity
  8
LAY-10
  6
CONTINUOUS
 62
     7
100
AcDbText
 10
760.8932936171084
 20
839.1116667132957
 30
0.0
 40
9.3543312
  1
Ｄ
 50
52.53283259571002
 41
1.2
  7
EXCADSTD
100
AcDbText
  0
TEXT
  5
208
330
1F
100
AcDbEntity
  8
LAY-10
  6
CONTINUOUS
 62
     7
100
AcDbText
 10
767.3424415300839
 20
847.5215190954304
 30
0.0
 40
9.3543312
  1
．
 50
55.99538129096997
 41
1.2
  7
EXCADSTD
100
AcDbText
  0
TEXT
  5
209
330
1F
100
AcDbEntity
  8
LAY-10
  6
CONTINUOUS
 62
     7
100
AcDbText
 10
777.8121703056725
 20
863.9092853410709
 30
0.0
 40
9.3543312
  1
Ｄ
 50
62.21405513610998
 41
1.2
  7
EXCADSTD
100
AcDbText
  0
TEXT
  5
20A
330
1F
100
AcDbEntity
  8
LAY-10
  6
CONTINUOUS
 62
     7
100
AcDbText
 10
782.3669490396891
 20
872.5479897360955
 30
0.0
 40
9.3543312
  1
３
 50
65.40468504537004
 41
1.2
  7
EXCADSTD
100
AcDbText
  0
TEXT
  5
20B
330
1F
100
AcDbEntity
  8
LAY-10
  6
CONTINUOUS
 62
     7
100
AcDbText
 10
786.4338524066044
 20
881.4268139784729
 30
0.0
 40
9.3543312
  1
０
 50
68.59531495463
 41
1.2
  7
EXCADSTD
100
AcDbText
  0
TEXT
  5
20C
330
1F
100
AcDbEntity
  8
LAY-10
  6
CONTINUOUS
 62
     7
100
AcDbText
 10
790.0002720296094
 20
890.5182315804088
 30
0.0
 40
9.3543312
  1
０
 50
71.78594486389
 41
1.2
  7
EXCADSTD
100
AcDbText
  0
TEXT
  5
20D
330
1F
100
AcDbEntity
  8
LAY-10
  6
CONTINUOUS
 62
     7
100
AcDbText
 10
894.0443821849145
 20
763.3676633127449
 30
0.0
 40
12.00472548604927
  1
Ｆ
 50
56.79003062846999
 41
1.2
  7
EXCADSTD
100
AcDbText
  0
TEXT
  5
20E
330
1F
100
AcDbEntity
  8
LAY-10
  6
CONTINUOUS
 62
     7
100
AcDbText
 10
903.616991973091
 20
777.9852318366
 30
0.0
 40
12.00472548604927
  1
Ｃ
 50
59.84785512493998
 41
1.2
  7
EXCADSTD
100
AcDbText
  0
TEXT
  5
20F
330
1F
100
AcDbEntity
  8
LAY-10
  6
CONTINUOUS
 62
     7
100
AcDbText
 10
797.3295990779842
 20
915.6472096336735
 30
0.0
 40
9.3543312
  1
Ｆ
 50
80.67084022588
 41
1.2
  7
EXCADSTD
100
AcDbText
  0
TEXT
  5
210
330
1F
100
AcDbEntity
  8
LAY-10
  6
CONTINUOUS
 62
     7
100
AcDbText
 10
799.4112048829214
 20
926.9530851655788
 30
0.0
 40
9.3543312
  1
Ｃ
 50
83.60250413553
 41
1.2
  7
EXCADSTD
100
AcDbText
  0
LINE
  5
211
330
1F
100
AcDbEntity
  8
LAY-10
  6
CONTINUOUS
 62
     7
100
AcDbLine
 10
257.5000000001004
 20
344.3558171453006
 30
0.0
 11
271.5000000001002
 21
344.3558171453006
 31
0.0
  0
LINE
  5
212
330
1F
100
AcDbEntity
  8
LAY-10
  6
CONTINUOUS
 62
     7
100
AcDbLine
 10
325.0000000001004
 20
279.3558171453006
 30
0.0
 11
324.0000000001002
 21
321.3558171453005
 31
0.0
  0
LINE
  5
213
330
1F
100
AcDbEntity
  8
LAY-10
  6
CONTINUOUS
 62
     7
100
AcDbLine
 10
303.4236495836004
 20
288.3558171453005
 30
0.0
 11
289.1528359887005
 21
288.3558171453005
 31
0.0
  0
LINE
  5
214
330
1F
100
AcDbEntity
  8
LAY-10
  6
CONTINUOUS
 62
     7
100
AcDbLine
 10
308.0000000001005
 20
321.3558171453005
 30
0.0
 11
306.4195381879003
 21
291.1988092765004
 31
0.0
  0
LINE
  5
215
330
1F
100
AcDbEntity
  8
LAY-10
  6
CONTINUOUS
 62
     7
100
AcDbLine
 10
271.5000000001002
 20
344.3558171453006
 30
0.0
 11
271.5000000001002
 21
332.3558171453005
 31
0.0
  0
LINE
  5
216
330
1F
100
AcDbEntity
  8
LAY-10
  6
CONTINUOUS
 62
     7
100
AcDbLine
 10
271.5000000001002
 20
332.3558171453005
 30
0.0
 11
284.0000000001002
 21
332.3558171453005
 31
0.0
  0
LINE
  5
217
330
1F
100
AcDbEntity
  8
LAY-10
  6
CONTINUOUS
 62
     7
100
AcDbLine
 10
257.5000000001004
 20
344.3558171453006
 30
0.0
 11
258.4820869067003
 21
325.6164826412005
 31
0.0
  0
LINE
  5
218
330
1F
100
AcDbEntity
  8
LAY-10
  6
CONTINUOUS
 62
     7
100
AcDbLine
 10
265.0000000001004
 20
279.3558171453006
 30
0.0
 11
266.4061380297003
 21
314.9779805605004
 31
0.0
  0
LINE
  5
219
330
1F
100
AcDbEntity
  8
LAY-10
  6
CONTINUOUS
 62
     7
100
AcDbLine
 10
264.7138005689002
 20
318.9282065643005
 30
0.0
 11
259.4957125172002
 21
323.5216838078006
 31
0.0
  0
LINE
  5
21A
330
1F
100
AcDbEntity
  8
LAY-10
  6
CONTINUOUS
 62
     7
100
AcDbLine
 10
272.7861166893005
 20
315.3013680964004
 30
0.0
 11
272.7861166893005
 21
299.2937147697004
 31
0.0
  0
ARC
  5
21B
330
1F
100
AcDbEntity
  8
LAY-10
  6
CONTINUOUS
 62
     7
100
AcDbCircle
 10
303.4236495836004
 20
291.3558171453005
 30
0.0
 40
3.000000000000001
100
AcDbArc
 50
270.0
 51
357.000000000002
  0
ARC
  5
21C
330
1F
100
AcDbEntity
  8
LAY-10
  6
CONTINUOUS
 62
     7
100
AcDbCircle
 10
289.1528359887005
 20
291.3558171453005
 30
0.0
 40
3.000000000000001
100
AcDbArc
 50
182.999999999998
 51
270.0
  0
LINE
  5
21D
330
1F
100
AcDbEntity
  8
LAY-10
  6
CONTINUOUS
 62
     7
100
AcDbLine
 10
284.8385244686003
 20
316.3558171453005
 30
0.0
 11
272.7861166893005
 21
315.3013680964004
 31
0.0
  0
LINE
  5
21E
330
1F
100
AcDbEntity
  8
LAY-10
  6
CONTINUOUS
 62
     7
100
AcDbLine
 10
285.7923460516006
 20
298.1558171453005
 30
0.0
 11
272.7861166893005
 21
299.2937147697004
 31
0.0
  0
LINE
  5
21F
330
1F
100
AcDbEntity
  8
LAY-10
  6
CONTINUOUS
 62
     7
100
AcDbLine
 10
273.0000000001005
 20
332.3558171453005
 30
0.0
 11
273.0000000001005
 21
343.8558171453005
 31
0.0
  0
LINE
  5
220
330
1F
100
AcDbEntity
  8
LAY-10
  6
CONTINUOUS
 62
     7
100
AcDbLine
 10
273.0000000001005
 20
343.8558171453005
 30
0.0
 11
625.0000000000003
 21
350.0000000000004
 31
0.0
  0
LINE
  5
221
330
1F
100
AcDbEntity
  8
LAY-10
  6
CONTINUOUS
 62
     7
100
AcDbLine
 10
273.0000000001005
 20
332.3558171453005
 30
0.0
 11
287.0000000001003
 21
332.3558171453005
 31
0.0
  0
LINE
  5
222
330
1F
100
AcDbEntity
  8
LAY-10
  6
CONTINUOUS
 62
     7
100
AcDbLine
 10
277.5000000001004
 20
299.8558171453005
 30
0.0
 11
296.5000000001002
 21
299.8558171453005
 31
0.0
  0
LINE
  5
223
330
1F
100
AcDbEntity
  8
LAY-10
  6
CONTINUOUS
 62
     7
100
AcDbLine
 10
287.7846153847006
 20
315.3558171453005
 30
0.0
 11
287.0000000001003
 21
332.3558171453005
 31
0.0
  0
LINE
  5
224
330
1F
100
AcDbEntity
  8
LAY-10
  6
CONTINUOUS
 62
     7
100
AcDbLine
 10
296.5000000001002
 20
299.8558171453005
 30
0.0
 11
297.6845588494004
 21
326.9866753074004
 31
0.0
  0
LINE
  5
225
330
1F
100
AcDbEntity
  8
LAY-10
  6
CONTINUOUS
 62
     7
100
AcDbLine
 10
277.5000000001004
 20
299.8558171453005
 30
0.0
 11
277.5000000001004
 21
315.3558171453005
 31
0.0
  0
LINE
  5
226
330
1F
100
AcDbEntity
  8
LAY-10
  6
CONTINUOUS
 62
     7
100
AcDbLine
 10
277.5000000001004
 20
315.3558171453005
 30
0.0
 11
287.7846153847006
 21
315.3558171453005
 31
0.0
  0
LINE
  5
227
330
1F
100
AcDbEntity
  8
LAY-10
  6
CONTINUOUS
 62
     7
100
AcDbLine
 10
284.0000000001002
 20
332.3558171453005
 30
0.0
 11
284.8909322479003
 21
315.3558171453005
 31
0.0
  0
LINE
  5
228
330
1F
100
AcDbEntity
  8
LAY-10
  6
CONTINUOUS
 62
     7
100
AcDbLine
 10
285.7032528268005
 20
299.8558171453005
 30
0.0
 11
286.1569473844006
 21
291.1988092765004
 31
0.0
  0
LINE
  5
229
330
1F
100
AcDbEntity
  8
LAY-10
  6
CONTINUOUS
 62
     7
100
AcDbLine
 10
310.0000000001004
 20
333.9558171453004
 30
0.0
 11
335.0000000001004
 21
333.9558171453004
 31
0.0
  0
ARC
  5
22A
330
1F
100
AcDbEntity
  8
LAY-10
  6
CONTINUOUS
 62
     7
100
AcDbCircle
 10
300.6817035141004
 20
326.8558171453006
 30
0.0
 40
3.000000000000001
100
AcDbArc
 50
90.0
 51
177.5000000000014
  0
LINE
  5
22B
330
1F
100
AcDbEntity
  8
LAY-10
  6
CONTINUOUS
 62
     7
100
AcDbLine
 10
310.0000000001004
 20
333.9558171453004
 30
0.0
 11
307.6328638964006
 21
329.8558171453005
 31
0.0
  0
LINE
  5
22C
330
1F
100
AcDbEntity
  8
LAY-10
  6
CONTINUOUS
 62
     7
100
AcDbLine
 10
335.0000000001004
 20
333.9558171453004
 30
0.0
 11
337.3671361038001
 21
329.8558171453005
 31
0.0
  0
LINE
  5
22D
330
1F
100
AcDbEntity
  8
LAY-10
  6
CONTINUOUS
 62
     7
100
AcDbLine
 10
341.3671361038005
 20
330.8558171453005
 30
0.0
 11
427.360086574
 21
330.8558171453005
 31
0.0
  0
LINE
  5
22E
330
1F
100
AcDbEntity
  8
LAY-10
  6
CONTINUOUS
 62
     7
100
AcDbLine
 10
340.3671361038002
 20
329.8558171453005
 30
0.0
 11
341.3671361038005
 21
330.8558171453005
 31
0.0
  0
LINE
  5
22F
330
1F
100
AcDbEntity
  8
LAY-10
  6
CONTINUOUS
 62
     7
100
AcDbLine
 10
323.2500000001003
 20
321.3558171453005
 30
0.0
 11
432.6027833108001
 21
321.3558171453005
 31
0.0
  0
LINE
  5
230
330
1F
100
AcDbEntity
  8
LAY-10
  6
CONTINUOUS
 62
     7
100
AcDbLine
 10
300.6817035141004
 20
329.8558171453005
 30
0.0
 11
307.6328638964006
 21
329.8558171453005
 31
0.0
  0
LINE
  5
231
330
1F
100
AcDbEntity
  8
LAY-10
  6
CONTINUOUS
 62
     7
100
AcDbLine
 10
337.3671361038001
 20
329.8558171453005
 30
0.0
 11
340.3671361038002
 21
329.8558171453005
 31
0.0
  0
LINE
  5
232
330
1F
100
AcDbEntity
  8
LAY-10
  6
CONTINUOUS
 62
     7
100
AcDbLine
 10
925.0000000000006
 20
279.3558171453006
 30
0.0
 11
926.0000000000002
 21
321.3558171453005
 31
0.0
  0
LINE
  5
233
330
1F
100
AcDbEntity
  8
LAY-10
  6
CONTINUOUS
 62
     7
100
AcDbLine
 10
978.5000000000002
 20
332.3558171453005
 30
0.0
 11
966.0000000000002
 21
332.3558171453005
 31
0.0
  0
LINE
  5
234
330
1F
100
AcDbEntity
  8
LAY-10
  6
CONTINUOUS
 62
     7
100
AcDbLine
 10
978.5000000000002
 20
344.3558171453006
 30
0.0
 11
978.5000000000002
 21
332.3558171453005
 31
0.0
  0
LINE
  5
235
330
1F
100
AcDbEntity
  8
LAY-10
  6
CONTINUOUS
 62
     7
100
AcDbLine
 10
992.5000000000006
 20
344.3558171453006
 30
0.0
 11
991.5439958690007
 21
326.1141716415005
 31
0.0
  0
LINE
  5
236
330
1F
100
AcDbEntity
  8
LAY-10
  6
CONTINUOUS
 62
     7
100
AcDbLine
 10
942.0000000000005
 20
321.3558171453005
 30
0.0
 11
943.5804618120005
 21
291.1988092765004
 31
0.0
  0
ARC
  5
237
330
1F
100
AcDbEntity
  8
LAY-10
  6
CONTINUOUS
 62
     7
100
AcDbCircle
 10
946.5763504170002
 20
291.3558171453005
 30
0.0
 40
3.000000000000001
100
AcDbArc
 50
182.9999999999979
 51
270.0
  0
LINE
  5
238
330
1F
100
AcDbEntity
  8
LAY-10
  6
CONTINUOUS
 62
     7
100
AcDbLine
 10
946.5763504170002
 20
288.3558171453005
 30
0.0
 11
960.8471640120007
 21
288.3558171453005
 31
0.0
  0
ARC
  5
239
330
1F
100
AcDbEntity
  8
LAY-10
  6
CONTINUOUS
 62
     7
100
AcDbCircle
 10
960.8471640120007
 20
291.3558171453005
 30
0.0
 40
3.000000000000001
100
AcDbArc
 50
270.0
 51
357.000000000002
  0
LINE
  5
23A
330
1F
100
AcDbEntity
  8
LAY-10
  6
CONTINUOUS
 62
     7
100
AcDbLine
 10
992.5000000000006
 20
344.3558171453006
 30
0.0
 11
978.5000000000002
 21
344.3558171453006
 31
0.0
  0
LINE
  5
23B
330
1F
100
AcDbEntity
  8
LAY-10
  6
CONTINUOUS
 62
     7
100
AcDbLine
 10
977.0000000000005
 20
343.8558171453005
 30
0.0
 11
625.0000000000003
 21
350.0000000000004
 31
0.0
  0
LINE
  5
23C
330
1F
100
AcDbEntity
  8
LAY-10
  6
CONTINUOUS
 62
     7
100
AcDbLine
 10
977.0000000000005
 20
332.3558171453005
 30
0.0
 11
977.0000000000005
 21
343.8558171453005
 31
0.0
  0
LINE
  5
23D
330
1F
100
AcDbEntity
  8
LAY-10
  6
CONTINUOUS
 62
     7
100
AcDbLine
 10
977.0000000000005
 20
332.3558171453005
 30
0.0
 11
963.0000000000001
 21
332.3558171453005
 31
0.0
  0
LINE
  5
23E
330
1F
100
AcDbEntity
  8
LAY-10
  6
CONTINUOUS
 62
     7
100
AcDbLine
 10
961.5000000000003
 20
299.8558171453005
 30
0.0
 11
953.5000000000002
 21
299.8558171453005
 31
0.0
  0
LINE
  5
23F
330
1F
100
AcDbEntity
  8
LAY-10
  6
CONTINUOUS
 62
     7
100
AcDbLine
 10
966.0000000000002
 20
332.3558171453005
 30
0.0
 11
963.8430526160005
 21
291.1988092765004
 31
0.0
  0
LINE
  5
240
330
1F
100
AcDbEntity
  8
LAY-10
  6
CONTINUOUS
 62
     7
100
AcDbLine
 10
961.5000000000003
 20
299.8558171453005
 30
0.0
 11
963.0000000000001
 21
332.3558171453005
 31
0.0
  0
LINE
  5
241
330
1F
100
AcDbEntity
  8
LAY-10
  6
CONTINUOUS
 62
     7
100
AcDbLine
 10
953.5000000000002
 20
299.8558171453005
 30
0.0
 11
952.3154411510001
 21
326.9866753074004
 31
0.0
  0
ARC
  5
242
330
1F
100
AcDbEntity
  8
LAY-10
  6
CONTINUOUS
 62
     7
100
AcDbCircle
 10
949.3182964860006
 20
326.8558171453006
 30
0.0
 40
3.000000000000001
100
AcDbArc
 50
2.499999999998497
 51
90.0
  0
LINE
  5
243
330
1F
100
AcDbEntity
  8
LAY-10
  6
CONTINUOUS
 62
     7
100
AcDbLine
 10
915.0000000000006
 20
333.9558171453004
 30
0.0
 11
912.6328638960007
 21
329.8558171453005
 31
0.0
  0
LINE
  5
244
330
1F
100
AcDbEntity
  8
LAY-10
  6
CONTINUOUS
 62
     7
100
AcDbLine
 10
940.0000000000006
 20
333.9558171453004
 30
0.0
 11
915.0000000000006
 21
333.9558171453004
 31
0.0
  0
LINE
  5
245
330
1F
100
AcDbEntity
  8
LAY-10
  6
CONTINUOUS
 62
     7
100
AcDbLine
 10
949.3182964860006
 20
329.8558171453005
 30
0.0
 11
942.3671361040005
 21
329.8558171453005
 31
0.0
  0
LINE
  5
246
330
1F
100
AcDbEntity
  8
LAY-10
  6
CONTINUOUS
 62
     7
100
AcDbLine
 10
912.6328638960007
 20
329.8558171453005
 30
0.0
 11
909.6328638960006
 21
329.8558171453005
 31
0.0
  0
LINE
  5
247
330
1F
100
AcDbEntity
  8
LAY-10
  6
CONTINUOUS
 62
     7
100
AcDbLine
 10
1101.586668588
 20
290.3558171453005
 30
0.0
 11
982.2138833110006
 21
290.3558171453005
 31
0.0
  0
LINE
  5
248
330
1F
100
AcDbEntity
  8
LAY-10
  6
CONTINUOUS
 62
     7
100
AcDbLine
 10
1104.061083293
 20
279.3558171453006
 30
0.0
 11
1103.583927657
 21
288.4604890578005
 31
0.0
  0
LINE
  5
249
330
1F
100
AcDbEntity
  8
LAY-10
  6
CONTINUOUS
 62
     7
100
AcDbLine
 10
1064.061083293
 20
290.3558171453005
 30
0.0
 11
991.8547728610002
 21
332.0441499106005
 31
0.0
  0
LINE
  5
24A
330
1F
100
AcDbEntity
  8
LAY-10
  6
CONTINUOUS
 62
     7
100
AcDbLine
 10
977.2138833110006
 20
314.2424248663005
 30
0.0
 11
977.2138833110006
 21
295.3558171453005
 31
0.0
  0
LINE
  5
24B
330
1F
100
AcDbEntity
  8
LAY-10
  6
CONTINUOUS
 62
     7
100
AcDbLine
 10
989.8717196830006
 20
323.5789592061005
 30
0.0
 11
980.0078626140004
 21
318.7294587065006
 31
0.0
  0
ARC
  5
24C
330
1F
100
AcDbEntity
  8
LAY-10
  6
CONTINUOUS
 62
     7
100
AcDbCircle
 10
982.2138833110006
 20
295.3558171453005
 30
0.0
 40
5.0
100
AcDbArc
 50
180.0
 51
270.0
  0
ARC
  5
24D
330
1F
100
AcDbEntity
  8
LAY-10
  6
CONTINUOUS
 62
     7
100
AcDbCircle
 10
982.2138833110006
 20
314.2424248663005
 30
0.0
 40
5.0
100
AcDbArc
 50
116.1807352354036
 51
180.0
  0
ARC
  5
24E
330
1F
100
AcDbEntity
  8
LAY-10
  6
CONTINUOUS
 62
     7
100
AcDbCircle
 10
988.5481072650003
 20
326.2711795102004
 30
0.0
 40
3.000000000000001
100
AcDbArc
 50
296.1807352354023
 51
357.000000000002
  0
ARC
  5
24F
330
1F
100
AcDbEntity
  8
LAY-10
  6
CONTINUOUS
 62
     7
100
AcDbCircle
 10
1101.586668588
 20
288.3558171453005
 30
0.0
 40
2.0
100
AcDbArc
 50
3.000000000002126
 51
90.0
  0
ARC
  5
250
330
1F
100
AcDbEntity
  8
LAY-10
  6
CONTINUOUS
 62
     7
100
AcDbCircle
 10
261.4779755110002
 20
325.7734905099005
 30
0.0
 40
3.000000000000001
100
AcDbArc
 50
183.0000000000002
 51
228.6425722191043
  0
ARC
  5
251
330
1F
100
AcDbEntity
  8
LAY-10
  6
CONTINUOUS
 62
     7
100
AcDbCircle
 10
261.4100289126006
 20
315.1751953941005
 30
0.0
 40
5.0
100
AcDbArc
 50
357.7394980889006
 51
48.64257221909293
  0
LINE
  5
252
330
1F
100
AcDbEntity
  8
LAY-10
  6
CONTINUOUS
 62
     7
100
AcDbLine
 10
953.5000000000002
 20
299.8558171453005
 30
0.0
 11
943.1267672550001
 21
299.8558171453005
 31
0.0
  0
LINE
  5
253
330
1F
100
AcDbEntity
  8
LAY-10
  6
CONTINUOUS
 62
     7
100
AcDbLine
 10
296.5000000001002
 20
299.8558171453005
 30
0.0
 11
306.8732327455004
 21
299.8558171453005
 31
0.0
  0
LINE
  5
254
330
1F
100
AcDbEntity
  8
LAY-10
  6
CONTINUOUS
 62
     7
100
AcDbLine
 10
837.5000000000002
 20
340.2035233781005
 30
0.0
 11
847.5000000000002
 21
340.2035233781005
 31
0.0
  0
LINE
  5
255
330
1F
100
AcDbEntity
  8
LAY-10
  6
CONTINUOUS
 62
     7
100
AcDbLine
 10
926.0000000000002
 20
321.3558171453005
 30
0.0
 11
878.7788477590004
 21
321.3558171453005
 31
0.0
  0
LINE
  5
256
330
1F
100
AcDbEntity
  8
LAY-10
  6
CONTINUOUS
 62
     7
100
AcDbLine
 10
840.5000000000003
 20
330.2035233781005
 30
0.0
 11
844.5000000000005
 21
330.2035233781005
 31
0.0
  0
LINE
  5
257
330
1F
100
AcDbEntity
  8
LAY-10
  6
CONTINUOUS
 62
     7
100
AcDbLine
 10
847.5000000000002
 20
340.2035233781005
 30
0.0
 11
847.5000000000002
 21
333.2035233781005
 31
0.0
  0
LINE
  5
258
330
1F
100
AcDbEntity
  8
LAY-10
  6
CONTINUOUS
 62
     7
100
AcDbLine
 10
837.5000000000002
 20
333.2035233781005
 30
0.0
 11
837.5000000000002
 21
340.2035233781005
 31
0.0
  0
ARC
  5
259
330
1F
100
AcDbEntity
  8
LAY-10
  6
CONTINUOUS
 62
     7
100
AcDbCircle
 10
844.5000000000005
 20
333.2035233781005
 30
0.0
 40
3.000000000000001
100
AcDbArc
 50
270.0
 51
0.0
  0
ARC
  5
25A
330
1F
100
AcDbEntity
  8
LAY-10
  6
CONTINUOUS
 62
     7
100
AcDbCircle
 10
840.5000000000003
 20
333.2035233781005
 30
0.0
 40
3.000000000000001
100
AcDbArc
 50
180.0
 51
270.0
  0
ARC
  5
25B
330
1F
100
AcDbEntity
  8
LAY-10
  6
CONTINUOUS
 62
     7
100
AcDbCircle
 10
842.5000000000002
 20
338.2035233781005
 30
0.0
 40
28.0
100
AcDbArc
 50
180.0
 51
0.0
  0
ARC
  5
25C
330
1F
100
AcDbEntity
  8
LAY-10
  6
CONTINUOUS
 62
     7
100
AcDbCircle
 10
842.5000000000002
 20
338.2035233781005
 30
0.0
 40
40.0
100
AcDbArc
 50
238.1237339773
 51
341.5409332258004
  0
LINE
  5
25D
330
1F
100
AcDbEntity
  8
LAY-10
  6
CONTINUOUS
 62
     7
100
AcDbLine
 10
870.5000000000003
 20
340.2035233781005
 30
0.0
 11
870.5000000000003
 21
338.2035233781005
 31
0.0
  0
LINE
  5
25E
330
1F
100
AcDbEntity
  8
LAY-10
  6
CONTINUOUS
 62
     7
100
AcDbLine
 10
814.5000000000005
 20
340.2035233781005
 30
0.0
 11
814.5000000000005
 21
338.2035233781005
 31
0.0
  0
LINE
  5
25F
330
1F
100
AcDbEntity
  8
LAY-10
  6
CONTINUOUS
 62
     7
100
AcDbLine
 10
875.5000000000003
 20
345.6275062355004
 30
0.0
 11
875.5000000000003
 21
340.2035233781005
 31
0.0
  0
LINE
  5
260
330
1F
100
AcDbEntity
  8
LAY-10
  6
CONTINUOUS
 62
     7
100
AcDbLine
 10
809.5000000000005
 20
340.2035233781005
 30
0.0
 11
814.5000000000005
 21
340.2035233781005
 31
0.0
  0
LINE
  5
261
330
1F
100
AcDbEntity
  8
LAY-10
  6
CONTINUOUS
 62
     7
100
AcDbLine
 10
870.5000000000003
 20
340.2035233781005
 30
0.0
 11
875.5000000000003
 21
340.2035233781005
 31
0.0
  0
LINE
  5
262
330
1F
100
AcDbEntity
  8
LAY-10
  6
CONTINUOUS
 62
     7
100
AcDbLine
 10
908.3649746700002
 20
332.0518657042005
 30
0.0
 11
909.6328638960006
 21
329.8558171453005
 31
0.0
  0
LINE
  5
263
330
1F
100
AcDbEntity
  8
LAY-10
  6
CONTINUOUS
 62
     7
100
AcDbLine
 10
890.1020291560002
 20
332.3706466039005
 30
0.0
 11
908.3649746700002
 21
332.0518657042005
 31
0.0
  0
ARC
  5
264
330
1F
100
AcDbEntity
  8
LAY-10
  6
CONTINUOUS
 62
     7
100
AcDbCircle
 10
889.9275050920005
 20
322.3721696523004
 30
0.0
 40
10.0
100
AcDbArc
 50
89.00000000000148
 51
161.5409332258007
  0
LINE
  5
265
330
1F
100
AcDbEntity
  8
LAY-10
  6
CONTINUOUS
 62
     7
100
AcDbLine
 10
909.6328638960006
 20
329.8558171453005
 30
0.0
 11
883.2946308880003
 21
329.8558171453005
 31
0.0
  0
LINE
  5
266
330
1F
100
AcDbEntity
  8
LAY-10
  6
CONTINUOUS
 62
     7
100
AcDbLine
 10
437.0000000001003
 20
346.7184477935004
 30
0.0
 11
437.0000000001003
 21
340.2359028584006
 31
0.0
  0
LINE
  5
267
330
1F
100
AcDbEntity
  8
LAY-10
  6
CONTINUOUS
 62
     7
100
AcDbLine
 10
475.0000000001004
 20
304.2359028584005
 30
0.0
 11
474.5000000001003
 21
330.7359028584006
 31
0.0
  0
LINE
  5
268
330
1F
100
AcDbEntity
  8
LAY-10
  6
CONTINUOUS
 62
     7
100
AcDbLine
 10
447.5327613426002
 20
309.2359028584005
 30
0.0
 11
460.1315433710004
 21
309.2359028584005
 31
0.0
  0
LINE
  5
269
330
1F
100
AcDbEntity
  8
LAY-10
  6
CONTINUOUS
 62
     7
100
AcDbLine
 10
463.5000000001
 20
330.7359028584006
 30
0.0
 11
462.1266714716004
 21
311.0963899109005
 31
0.0
  0
LINE
  5
26A
330
1F
100
AcDbEntity
  8
LAY-10
  6
CONTINUOUS
 62
     7
100
AcDbLine
 10
436.8391217434003
 20
327.8428445138005
 30
0.0
 11
436.8391217434003
 21
315.6766024191004
 31
0.0
  0
LINE
  5
26B
330
1F
100
AcDbEntity
  8
LAY-10
  6
CONTINUOUS
 62
     7
100
AcDbLine
 10
444.3391217434003
 20
328.2359028584006
 30
0.0
 11
436.8391217434003
 21
327.8428445138005
 31
0.0
  0
LINE
  5
26C
330
1F
100
AcDbEntity
  8
LAY-10
  6
CONTINUOUS
 62
     7
100
AcDbLine
 10
445.2481702987002
 20
315.2359028584006
 30
0.0
 11
436.8391217434003
 21
315.6766024191004
 31
0.0
  0
ARC
  5
26D
330
1F
100
AcDbEntity
  8
LAY-10
  6
CONTINUOUS
 62
     7
100
AcDbCircle
 10
460.1315433710004
 20
311.2359028584005
 30
0.0
 40
2.0
100
AcDbArc
 50
270.0
 51
356.0000000000019
  0
ARC
  5
26E
330
1F
100
AcDbEntity
  8
LAY-10
  6
CONTINUOUS
 62
     7
100
AcDbCircle
 10
447.5327613426002
 20
311.2359028584005
 30
0.0
 40
2.0
100
AcDbArc
 50
183.9999999999983
 51
270.0
  0
LINE
  5
26F
330
1F
100
AcDbEntity
  8
LAY-10
  6
CONTINUOUS
 62
     7
100
AcDbLine
 10
467.0000000001003
 20
318.7359028584005
 30
0.0
 11
471.0000000001
 21
318.7359028584005
 31
0.0
  0
LINE
  5
270
330
1F
100
AcDbEntity
  8
LAY-10
  6
CONTINUOUS
 62
     7
100
AcDbLine
 10
471.0000000001
 20
318.7359028584005
 30
0.0
 11
471.0000000001
 21
330.7359028584006
 31
0.0
  0
LINE
  5
271
330
1F
100
AcDbEntity
  8
LAY-10
  6
CONTINUOUS
 62
     7
100
AcDbLine
 10
467.0000000001003
 20
330.7359028584006
 30
0.0
 11
467.0000000001003
 21
318.7359028584005
 31
0.0
  0
LINE
  5
272
330
1F
100
AcDbEntity
  8
LAY-10
  6
CONTINUOUS
 62
     7
100
AcDbLine
 10
438.0000000001003
 20
340.2359028584006
 30
0.0
 11
438.0000000001003
 21
346.7359028584005
 31
0.0
  0
LINE
  5
273
330
1F
100
AcDbEntity
  8
LAY-10
  6
CONTINUOUS
 62
     7
100
AcDbLine
 10
440.0000000001004
 20
318.7359028584005
 30
0.0
 11
462.6608782568003
 21
318.7359028584005
 31
0.0
  0
LINE
  5
274
330
1F
100
AcDbEntity
  8
LAY-10
  6
CONTINUOUS
 62
     7
100
AcDbLine
 10
440.0000000001004
 20
318.7359028584005
 30
0.0
 11
440.0000000001004
 21
325.2359028584006
 31
0.0
  0
LINE
  5
275
330
1F
100
AcDbEntity
  8
LAY-10
  6
CONTINUOUS
 62
     7
100
AcDbLine
 10
440.0000000001004
 20
325.2359028584006
 30
0.0
 11
449.6976744187002
 21
325.2359028584006
 31
0.0
  0
LINE
  5
276
330
1F
100
AcDbEntity
  8
LAY-10
  6
CONTINUOUS
 62
     7
100
AcDbLine
 10
449.6976744187002
 20
325.2359028584006
 30
0.0
 11
449.0000000001003
 21
340.2359028584006
 31
0.0
  0
LINE
  5
277
330
1F
100
AcDbEntity
  8
LAY-10
  6
CONTINUOUS
 62
     7
100
AcDbLine
 10
455.0000000001004
 20
318.7359028584005
 30
0.0
 11
455.5274676943002
 21
333.8406013485005
 31
0.0
  0
LINE
  5
278
330
1F
100
AcDbEntity
  8
LAY-10
  6
HIDDEN
 62
     7
100
AcDbLine
 10
450.0000000001004
 20
318.7359028584005
 30
0.0
 11
449.6976744187002
 21
325.2359028584006
 31
0.0
  0
LINE
  5
279
330
1F
100
AcDbEntity
  8
LAY-10
  6
CONTINUOUS
 62
     7
100
AcDbLine
 10
443.5000000001
 20
340.2359028584006
 30
0.0
 11
444.5489021793001
 21
325.2359028584006
 31
0.0
  0
LINE
  5
27A
330
1F
100
AcDbEntity
  8
LAY-10
  6
CONTINUOUS
 62
     7
100
AcDbLine
 10
445.0034264569005
 20
318.7359028584005
 30
0.0
 11
445.5376332421001
 21
311.0963899109005
 31
0.0
  0
LINE
  5
27B
330
1F
100
AcDbEntity
  8
LAY-10
  6
CONTINUOUS
 62
     7
100
AcDbLine
 10
437.0000000001003
 20
340.2359028584006
 30
0.0
 11
449.0000000001003
 21
340.2359028584006
 31
0.0
  0
LINE
  5
27C
330
1F
100
AcDbEntity
  8
LAY-10
  6
CONTINUOUS
 62
     7
100
AcDbLine
 10
461.5000000001003
 20
338.7359028584005
 30
0.0
 11
483.5000000001
 21
338.7359028584005
 31
0.0
  0
LINE
  5
27D
330
1F
100
AcDbEntity
  8
LAY-10
  6
CONTINUOUS
 62
     7
100
AcDbLine
 10
458.5256401754002
 20
336.7359028584005
 30
0.0
 11
460.3452994617003
 21
336.7359028584005
 31
0.0
  0
LINE
  5
27E
330
1F
100
AcDbEntity
  8
LAY-10
  6
CONTINUOUS
 62
     7
100
AcDbLine
 10
461.5000000001003
 20
338.7359028584005
 30
0.0
 11
460.3452994617003
 21
336.7359028584005
 31
0.0
  0
LINE
  5
27F
330
1F
100
AcDbEntity
  8
LAY-10
  6
CONTINUOUS
 62
     7
100
AcDbLine
 10
483.5000000001
 20
338.7359028584005
 30
0.0
 11
484.6547005385
 21
336.7359028584005
 31
0.0
  0
LINE
  5
280
330
1F
100
AcDbEntity
  8
LAY-10
  6
CONTINUOUS
 62
     7
100
AcDbLine
 10
521.2500000001004
 20
342.2763123383005
 30
0.0
 11
531.2500000001004
 21
342.2763123383005
 31
0.0
  0
LINE
  5
281
330
1F
100
AcDbEntity
  8
LAY-10
  6
CONTINUOUS
 62
     7
100
AcDbLine
 10
524.2500000001004
 20
332.2763123383005
 30
0.0
 11
528.2500000001003
 21
332.2763123383005
 31
0.0
  0
LINE
  5
282
330
1F
100
AcDbEntity
  8
LAY-10
  6
CONTINUOUS
 62
     7
100
AcDbLine
 10
531.2500000001004
 20
342.2763123383005
 30
0.0
 11
531.2500000001004
 21
335.2763123383005
 31
0.0
  0
LINE
  5
283
330
1F
100
AcDbEntity
  8
LAY-10
  6
CONTINUOUS
 62
     7
100
AcDbLine
 10
521.2500000001004
 20
335.2763123383005
 30
0.0
 11
521.2500000001004
 21
342.2763123383005
 31
0.0
  0
ARC
  5
284
330
1F
100
AcDbEntity
  8
LAY-10
  6
CONTINUOUS
 62
     7
100
AcDbCircle
 10
528.2500000001003
 20
335.2763123383005
 30
0.0
 40
3.000000000000001
100
AcDbArc
 50
270.0
 51
0.0
  0
ARC
  5
285
330
1F
100
AcDbEntity
  8
LAY-10
  6
CONTINUOUS
 62
     7
100
AcDbCircle
 10
524.2500000001004
 20
335.2763123383005
 30
0.0
 40
3.000000000000001
100
AcDbArc
 50
180.0
 51
270.0
  0
ARC
  5
286
330
1F
100
AcDbEntity
  8
LAY-10
  6
CONTINUOUS
 62
     7
100
AcDbCircle
 10
526.2500000001004
 20
340.2763123383005
 30
0.0
 40
28.0
100
AcDbArc
 50
180.0
 51
0.0
  0
LINE
  5
287
330
1F
100
AcDbEntity
  8
LAY-10
  6
CONTINUOUS
 62
     7
100
AcDbLine
 10
554.2500000001004
 20
342.2763123383005
 30
0.0
 11
554.2500000001004
 21
340.2763123383005
 31
0.0
  0
LINE
  5
288
330
1F
100
AcDbEntity
  8
LAY-10
  6
CONTINUOUS
 62
     7
100
AcDbLine
 10
498.2500000001003
 20
342.2763123383005
 30
0.0
 11
498.2500000001003
 21
340.2763123383005
 31
0.0
  0
LINE
  5
289
330
1F
100
AcDbEntity
  8
LAY-10
  6
CONTINUOUS
 62
     7
100
AcDbLine
 10
559.2500000001004
 20
348.8523294810005
 30
0.0
 11
559.2500000001004
 21
342.2763123383005
 31
0.0
  0
LINE
  5
28A
330
1F
100
AcDbEntity
  8
LAY-10
  6
CONTINUOUS
 62
     7
100
AcDbLine
 10
493.2500000001003
 20
347.7002951957004
 30
0.0
 11
493.2500000001003
 21
342.2763123383005
 31
0.0
  0
LINE
  5
28B
330
1F
100
AcDbEntity
  8
LAY-10
  6
CONTINUOUS
 62
     7
100
AcDbLine
 10
493.2500000001003
 20
342.2763123383005
 30
0.0
 11
498.2500000001003
 21
342.2763123383005
 31
0.0
  0
LINE
  5
28C
330
1F
100
AcDbEntity
  8
LAY-10
  6
CONTINUOUS
 62
     7
100
AcDbLine
 10
554.2500000001004
 20
342.2763123383005
 30
0.0
 11
559.2500000001004
 21
342.2763123383005
 31
0.0
  0
ARC
  5
28D
330
1F
100
AcDbEntity
  8
LAY-10
  6
CONTINUOUS
 62
     7
100
AcDbCircle
 10
526.2500000001004
 20
340.2763123383005
 30
0.0
 40
34.0
100
AcDbArc
 50
189.0266442510001
 51
344.7944868623001
  0
LINE
  5
28E
330
1F
100
AcDbEntity
  8
LAY-10
  6
CONTINUOUS
 62
     7
100
AcDbLine
 10
484.6547005385
 20
336.7359028584005
 30
0.0
 11
491.9684611336002
 21
336.7359028584005
 31
0.0
  0
LINE
  5
28F
330
1F
100
AcDbEntity
  8
LAY-10
  6
CONTINUOUS
 62
     7
100
AcDbLine
 10
488.2268037468002
 20
338.7359028584005
 30
0.0
 11
487.8094010769003
 21
338.7359028584005
 31
0.0
  0
ARC
  5
290
330
1F
100
AcDbEntity
  8
LAY-10
  6
CONTINUOUS
 62
     7
100
AcDbCircle
 10
568.7096155075003
 20
328.7359028584005
 30
0.0
 40
10.0
100
AcDbArc
 50
90.0
 51
164.7944868623001
  0
LINE
  5
291
330
1F
100
AcDbEntity
  8
LAY-10
  6
CONTINUOUS
 62
     7
100
AcDbLine
 10
486.6547005385003
 20
336.7359028584005
 30
0.0
 11
487.8094010769003
 21
338.7359028584005
 31
0.0
  0
ARC
  5
292
330
1F
100
AcDbEntity
  8
LAY-10
  6
CONTINUOUS
 62
     7
100
AcDbCircle
 10
488.2268037468002
 20
334.2359028584005
 30
0.0
 40
4.5
100
AcDbArc
 50
9.026644250959064
 51
90.0
  0
LINE
  5
293
330
1F
100
AcDbEntity
  8
LAY-10
  6
CONTINUOUS
 62
     7
100
AcDbLine
 10
474.5000000001003
 20
330.7359028584006
 30
0.0
 11
493.6159596901003
 21
330.7359028584006
 31
0.0
  0
LINE
  5
294
330
1F
100
AcDbEntity
  8
LAY-10
  6
CONTINUOUS
 62
     7
100
AcDbLine
 10
467.0000000001003
 20
330.7359028584006
 30
0.0
 11
463.5000000001
 21
330.7359028584006
 31
0.0
  0
LINE
  5
295
330
1F
100
AcDbEntity
  8
LAY-10
  6
CONTINUOUS
 62
     7
100
AcDbLine
 10
471.0000000001
 20
330.7359028584006
 30
0.0
 11
475.3000000001002
 21
330.7359028584006
 31
0.0
  0
LINE
  5
296
330
1F
100
AcDbEntity
  8
LAY-10
  6
CONTINUOUS
 62
     7
100
AcDbLine
 10
474.5000000001003
 20
333.7359028584005
 30
0.0
 11
471.0000000001
 21
333.7359028584005
 31
0.0
  0
LINE
  5
297
330
1F
100
AcDbEntity
  8
LAY-10
  6
CONTINUOUS
 62
     7
100
AcDbLine
 10
463.5000000001
 20
333.7359028584005
 30
0.0
 11
467.0000000001003
 21
333.7359028584005
 31
0.0
  0
LINE
  5
298
330
1F
100
AcDbEntity
  8
LAY-10
  6
CONTINUOUS
 62
     7
100
AcDbLine
 10
474.5000000001003
 20
330.7359028584006
 30
0.0
 11
474.5000000001003
 21
333.7359028584005
 31
0.0
  0
LINE
  5
299
330
1F
100
AcDbEntity
  8
LAY-10
  6
CONTINUOUS
 62
     7
100
AcDbLine
 10
463.5000000001
 20
330.7359028584006
 30
0.0
 11
463.5000000001
 21
333.7359028584005
 31
0.0
  0
LINE
  5
29A
330
1F
100
AcDbEntity
  8
LAY-10
  6
CONTINUOUS
 62
     7
100
AcDbLine
 10
463.5000000001
 20
330.7359028584006
 30
0.0
 11
467.0000000001003
 21
330.7359028584006
 31
0.0
  0
LINE
  5
29B
330
1F
100
AcDbEntity
  8
LAY-10
  6
CONTINUOUS
 62
     7
100
AcDbLine
 10
471.0000000001
 20
330.7359028584006
 30
0.0
 11
474.5000000001003
 21
330.7359028584006
 31
0.0
  0
ARC
  5
29C
330
1F
100
AcDbEntity
  8
LAY-10
  6
CONTINUOUS
 62
     7
100
AcDbCircle
 10
458.5256401754002
 20
333.7359028584005
 30
0.0
 40
3.000000000000001
100
AcDbArc
 50
90.0
 51
178.0000000000007
  0
LINE
  5
29D
330
1F
100
AcDbEntity
  8
LAY-10
  6
CONTINUOUS
 62
     7
100
AcDbLine
 10
775.0000000000002
 20
304.2359028584005
 30
0.0
 11
775.5000000000003
 21
330.7359028584006
 31
0.0
  0
LINE
  5
29E
330
1F
100
AcDbEntity
  8
LAY-10
  6
CONTINUOUS
 62
     7
100
AcDbLine
 10
813.0000000000003
 20
346.7184477935004
 30
0.0
 11
813.0000000000003
 21
340.2359028584006
 31
0.0
  0
LINE
  5
29F
330
1F
100
AcDbEntity
  8
LAY-10
  6
CONTINUOUS
 62
     7
100
AcDbLine
 10
786.5000000000003
 20
330.7359028584006
 30
0.0
 11
787.8733285290004
 21
311.0963899109005
 31
0.0
  0
ARC
  5
2A0
330
1F
100
AcDbEntity
  8
LAY-10
  6
CONTINUOUS
 62
     7
100
AcDbCircle
 10
789.8684566290003
 20
311.2359028584005
 30
0.0
 40
2.0
100
AcDbArc
 50
183.9999999999981
 51
270.0
  0
LINE
  5
2A1
330
1F
100
AcDbEntity
  8
LAY-10
  6
CONTINUOUS
 62
     7
100
AcDbLine
 10
802.4672386580005
 20
309.2359028584005
 30
0.0
 11
789.8684566290003
 21
309.2359028584005
 31
0.0
  0
ARC
  5
2A2
330
1F
100
AcDbEntity
  8
LAY-10
  6
CONTINUOUS
 62
     7
100
AcDbCircle
 10
802.4672386580005
 20
311.2359028584005
 30
0.0
 40
2.0
100
AcDbArc
 50
270.0
 51
356.0000000000019
  0
LINE
  5
2A3
330
1F
100
AcDbEntity
  8
LAY-10
  6
CONTINUOUS
 62
     7
100
AcDbLine
 10
800.0000000000002
 20
318.7359028584005
 30
0.0
 11
801.0000000000005
 21
340.2359028584006
 31
0.0
  0
LINE
  5
2A4
330
1F
100
AcDbEntity
  8
LAY-10
  6
CONTINUOUS
 62
     7
100
AcDbLine
 10
806.5000000000003
 20
340.2359028584006
 30
0.0
 11
804.4623667580006
 21
311.0963899109005
 31
0.0
  0
LINE
  5
2A5
330
1F
100
AcDbEntity
  8
LAY-10
  6
CONTINUOUS
 62
     7
100
AcDbLine
 10
800.0000000000002
 20
318.7359028584005
 30
0.0
 11
787.3391217430005
 21
318.7359028584005
 31
0.0
  0
LINE
  5
2A6
330
1F
100
AcDbEntity
  8
LAY-10
  6
CONTINUOUS
 62
     7
100
AcDbLine
 10
812.0000000000005
 20
340.2359028584006
 30
0.0
 11
812.0000000000005
 21
346.7359028584005
 31
0.0
  0
LINE
  5
2A7
330
1F
100
AcDbEntity
  8
LAY-10
  6
CONTINUOUS
 62
     7
100
AcDbLine
 10
813.0000000000003
 20
340.2359028584006
 30
0.0
 11
801.0000000000005
 21
340.2359028584006
 31
0.0
  0
LINE
  5
2A8
330
1F
100
AcDbEntity
  8
LAY-10
  6
CONTINUOUS
 62
     7
100
AcDbLine
 10
795.0000000000002
 20
318.7359028584005
 30
0.0
 11
794.4725323060004
 21
333.8406013485005
 31
0.0
  0
LINE
  5
2A9
330
1F
100
AcDbEntity
  8
LAY-10
  6
CONTINUOUS
 62
     7
100
AcDbLine
 10
788.5000000000005
 20
338.7359028584005
 30
0.0
 11
789.6547005380003
 21
336.7359028584005
 31
0.0
  0
LINE
  5
2AA
330
1F
100
AcDbEntity
  8
LAY-10
  6
CONTINUOUS
 62
     7
100
AcDbLine
 10
766.5000000000003
 20
338.7359028584005
 30
0.0
 11
765.3452994620002
 21
336.7359028584005
 31
0.0
  0
LINE
  5
2AB
330
1F
100
AcDbEntity
  8
LAY-10
  6
CONTINUOUS
 62
     7
100
AcDbLine
 10
791.4743598250004
 20
336.7359028584005
 30
0.0
 11
789.6547005380003
 21
336.7359028584005
 31
0.0
  0
LINE
  5
2AC
330
1F
100
AcDbEntity
  8
LAY-10
  6
CONTINUOUS
 62
     7
100
AcDbLine
 10
788.5000000000005
 20
338.7359028584005
 30
0.0
 11
766.5000000000003
 21
338.7359028584005
 31
0.0
  0
LINE
  5
2AD
330
1F
100
AcDbEntity
  8
LAY-10
  6
CONTINUOUS
 62
     7
100
AcDbLine
 10
763.3452994620003
 20
336.7359028584005
 30
0.0
 11
762.1905989230004
 21
338.7359028584005
 31
0.0
  0
LINE
  5
2AE
330
1F
100
AcDbEntity
  8
LAY-10
  6
CONTINUOUS
 62
     7
100
AcDbLine
 10
761.7731962530004
 20
338.7359028584005
 30
0.0
 11
762.1905989230004
 21
338.7359028584005
 31
0.0
  0
ARC
  5
2AF
330
1F
100
AcDbEntity
  8
LAY-10
  6
CONTINUOUS
 62
     7
100
AcDbCircle
 10
791.4743598250004
 20
333.7359028584005
 30
0.0
 40
3.000000000000001
100
AcDbArc
 50
1.999999999999164
 51
90.0
  0
LINE
  5
2B0
330
1F
100
AcDbEntity
  8
LAY-10
  6
CONTINUOUS
 62
     7
100
AcDbLine
 10
433.2516751599003
 20
308.9742230772005
 30
0.0
 11
432.3532342478002
 21
326.1174969265005
 31
0.0
  0
ARC
  5
2B1
330
1F
100
AcDbEntity
  8
LAY-10
  6
CONTINUOUS
 62
     7
100
AcDbCircle
 10
438.2448228337004
 20
309.2359028584005
 30
0.0
 40
5.0
100
AcDbArc
 50
182.9999999999991
 51
270.0
  0
ARC
  5
2B2
330
1F
100
AcDbEntity
  8
LAY-10
  6
CONTINUOUS
 62
     7
100
AcDbCircle
 10
427.360086574
 20
325.8558171453005
 30
0.0
 40
5.0
100
AcDbArc
 50
3.000000000001038
 51
90.0
  0
LINE
  5
2B3
330
1F
100
AcDbEntity
  8
LAY-10
  6
CONTINUOUS
 62
     7
100
AcDbLine
 10
463.5000000001
 20
332.6668732145005
 30
0.0
 11
464.5690296440004
 21
333.7359028584005
 31
0.0
  0
LINE
  5
2B4
330
1F
100
AcDbEntity
  8
LAY-10
  6
CONTINUOUS
 62
     7
100
AcDbLine
 10
467.0000000001003
 20
327.6815918402005
 30
0.0
 11
473.0543110183003
 21
333.7359028584005
 31
0.0
  0
LINE
  5
2B5
330
1F
100
AcDbEntity
  8
LAY-10
  6
CONTINUOUS
 62
     7
100
AcDbLine
 10
467.0000000001003
 20
323.4389511531004
 30
0.0
 11
471.0000000001
 21
327.4389511531004
 31
0.0
  0
LINE
  5
2B6
330
1F
100
AcDbEntity
  8
LAY-10
  6
CONTINUOUS
 62
     7
100
AcDbLine
 10
474.2969517054003
 20
330.7359028584006
 30
0.0
 11
474.5000000001003
 21
330.9389511531004
 31
0.0
  0
LINE
  5
2B7
330
1F
100
AcDbEntity
  8
LAY-10
  6
CONTINUOUS
 62
     7
100
AcDbLine
 10
467.0000000001003
 20
319.1963104660005
 30
0.0
 11
471.0000000001
 21
323.1963104660005
 31
0.0
  0
LINE
  5
2B8
330
1F
100
AcDbEntity
  8
LAY-10
  6
CONTINUOUS
 62
     7
100
AcDbLine
 10
470.7822330796004
 20
318.7359028584005
 30
0.0
 11
471.0000000001
 21
318.9536697789005
 31
0.0
  0
LINE
  5
2B9
330
1F
100
AcDbEntity
  8
LAY-10
  6
CONTINUOUS
 62
     7
100
AcDbLine
 10
472.7042331344004
 20
337.6284656616005
 30
0.0
 11
473.8116703312003
 21
338.7359028584005
 31
0.0
  0
LINE
  5
2BA
330
1F
100
AcDbEntity
  8
LAY-10
  6
CONTINUOUS
 62
     7
100
AcDbLine
 10
465.8116703312003
 20
330.7359028584006
 30
0.0
 11
471.3849110056001
 21
336.3091435329005
 31
0.0
  0
LINE
  5
2BB
330
1F
100
AcDbEntity
  8
LAY-10
  6
CONTINUOUS
 62
     7
100
AcDbLine
 10
319.2500000001005
 20
321.3558171453005
 30
0.0
 11
319.2500000001005
 21
306.3558171453005
 31
0.0
  0
LINE
  5
2BC
330
1F
100
AcDbEntity
  8
LAY-10
  6
CONTINUOUS
 62
     7
100
AcDbLine
 10
312.7500000001002
 20
321.3558171453005
 30
0.0
 11
312.7500000001002
 21
306.3558171453005
 31
0.0
  0
LINE
  5
2BD
330
1F
100
AcDbEntity
  8
LAY-10
  6
CONTINUOUS
 62
     7
100
AcDbLine
 10
319.2500000001005
 20
306.3558171453005
 30
0.0
 11
312.7500000001002
 21
306.3558171453005
 31
0.0
  0
LINE
  5
2BE
330
1F
100
AcDbEntity
  8
LAY-10
  6
CONTINUOUS
 62
     7
100
AcDbLine
 10
319.2500000001005
 20
321.3558171453005
 30
0.0
 11
324.0000000001002
 21
321.3558171453005
 31
0.0
  0
LINE
  5
2BF
330
1F
100
AcDbEntity
  8
LAY-10
  6
CONTINUOUS
 62
     7
100
AcDbLine
 10
312.7500000001002
 20
321.3558171453005
 30
0.0
 11
308.2500000001003
 21
321.3558171453005
 31
0.0
  0
LINE
  5
2C0
330
1F
100
AcDbEntity
  8
LAY-10
  6
CONTINUOUS
 62
     7
100
AcDbLine
 10
323.2500000001003
 20
321.3558171453005
 30
0.0
 11
323.2500000001003
 21
325.3558171453005
 31
0.0
  0
LINE
  5
2C1
330
1F
100
AcDbEntity
  8
LAY-10
  6
CONTINUOUS
 62
     7
100
AcDbLine
 10
308.2500000001003
 20
321.3558171453005
 30
0.0
 11
308.2500000001003
 21
325.3558171453005
 31
0.0
  0
LINE
  5
2C2
330
1F
100
AcDbEntity
  8
LAY-10
  6
CONTINUOUS
 62
     7
100
AcDbLine
 10
308.2500000001003
 20
325.3558171453005
 30
0.0
 11
312.7500000001002
 21
325.3558171453005
 31
0.0
  0
LINE
  5
2C3
330
1F
100
AcDbEntity
  8
LAY-10
  6
CONTINUOUS
 62
     7
100
AcDbLine
 10
323.2500000001003
 20
325.3558171453005
 30
0.0
 11
316.7500000001005
 21
325.3558171453005
 31
0.0
  0
LINE
  5
2C4
330
1F
100
AcDbEntity
  8
LAY-10
  6
CONTINUOUS
 62
     7
100
AcDbLine
 10
312.7500000001002
 20
321.3558171453005
 30
0.0
 11
308.0000000001005
 21
321.3558171453005
 31
0.0
  0
LINE
  5
2C5
330
1F
100
AcDbEntity
  8
LAY-10
  6
CONTINUOUS
 62
     7
100
AcDbLine
 10
308.2500000001003
 20
323.6595139016005
 30
0.0
 11
309.9463032438005
 21
325.3558171453005
 31
0.0
  0
LINE
  5
2C6
330
1F
100
AcDbEntity
  8
LAY-10
  6
CONTINUOUS
 62
     7
100
AcDbLine
 10
312.7500000001002
 20
319.6742325274005
 30
0.0
 11
318.4315846180002
 21
325.3558171453005
 31
0.0
  0
LINE
  5
2C7
330
1F
100
AcDbEntity
  8
LAY-10
  6
CONTINUOUS
 62
     7
100
AcDbLine
 10
312.7500000001002
 20
315.4315918402004
 30
0.0
 11
322.6742253051001
 21
325.3558171453005
 31
0.0
  0
LINE
  5
2C8
330
1F
100
AcDbEntity
  8
LAY-10
  6
CONTINUOUS
 62
     7
100
AcDbLine
 10
312.7500000001002
 20
311.1889511531004
 30
0.0
 11
319.2500000001005
 21
317.6889511531004
 31
0.0
  0
LINE
  5
2C9
330
1F
100
AcDbEntity
  8
LAY-10
  6
CONTINUOUS
 62
     7
100
AcDbLine
 10
322.9168659922002
 20
321.3558171453005
 30
0.0
 11
323.2500000001003
 21
321.6889511531005
 31
0.0
  0
LINE
  5
2CA
330
1F
100
AcDbEntity
  8
LAY-10
  6
CONTINUOUS
 62
     7
100
AcDbLine
 10
312.7500000001002
 20
306.9463104660005
 30
0.0
 11
319.2500000001005
 21
313.4463104660004
 31
0.0
  0
LINE
  5
2CB
330
1F
100
AcDbEntity
  8
LAY-10
  6
CONTINUOUS
 62
     7
100
AcDbLine
 10
316.4021473665006
 20
306.3558171453005
 30
0.0
 11
319.2500000001005
 21
309.2036697789004
 31
0.0
  0
LINE
  5
2CC
330
1F
100
AcDbEntity
  8
LAY-10
  6
CONTINUOUS
 62
     7
100
AcDbLine
 10
321.9669124257005
 20
333.1337856401005
 30
0.0
 11
322.7889439309005
 21
333.9558171453004
 31
0.0
  0
LINE
  5
2CD
330
1F
100
AcDbEntity
  8
LAY-10
  6
CONTINUOUS
 62
     7
100
AcDbLine
 10
310.1889439309006
 20
321.3558171453005
 30
0.0
 11
317.0111167031005
 21
328.1779899175004
 31
0.0
  0
LINE
  5
2CE
330
1F
100
AcDbEntity
  8
LAY-10
  6
CONTINUOUS
 62
     7
100
AcDbLine
 10
312.7559966218005
 20
328.1655105233004
 30
0.0
 11
318.4431472569006
 21
333.8526611584004
 31
0.0
  0
ARC
  5
2CF
330
1F
100
AcDbEntity
  8
LAY-10
  6
CONTINUOUS
 62
     7
100
AcDbCircle
 10
320.1250685689005
 20
326.5700080294005
 30
0.0
 40
7.474349195590004
100
AcDbArc
 50
98.82776050990063
 51
189.3489985114005
  0
ARC
  5
2D0
330
1F
100
AcDbEntity
  8
LAY-10
  6
CONTINUOUS
 62
     7
100
AcDbCircle
 10
324.0404560893004
 20
326.1044462539004
 30
0.0
 40
7.328792228620006
100
AcDbArc
 50
87.29379165890225
 51
185.8629353833998
  0
LINE
  5
2D1
330
1F
100
AcDbEntity
  8
LAY-10
  6
CONTINUOUS
 62
     7
100
AcDbLine
 10
324.6759837993003
 20
333.9558171453004
 30
0.0
 11
324.3864827141002
 21
333.4250651557005
 31
0.0
  0
LINE
  5
2D2
330
1F
100
AcDbEntity
  8
LAY-10
  6
CONTINUOUS
 62
     7
100
AcDbLine
 10
930.7500000000005
 20
321.3558171453005
 30
0.0
 11
930.7500000000005
 21
306.3558171453005
 31
0.0
  0
LINE
  5
2D3
330
1F
100
AcDbEntity
  8
LAY-10
  6
CONTINUOUS
 62
     7
100
AcDbLine
 10
937.2500000000002
 20
321.3558171453005
 30
0.0
 11
937.2500000000002
 21
306.3558171453005
 31
0.0
  0
LINE
  5
2D4
330
1F
100
AcDbEntity
  8
LAY-10
  6
CONTINUOUS
 62
     7
100
AcDbLine
 10
930.7500000000005
 20
306.3558171453005
 30
0.0
 11
937.2500000000002
 21
306.3558171453005
 31
0.0
  0
LINE
  5
2D5
330
1F
100
AcDbEntity
  8
LAY-10
  6
CONTINUOUS
 62
     7
100
AcDbLine
 10
940.0000000000006
 20
333.9558171453004
 30
0.0
 11
942.3671361040005
 21
329.8558171453005
 31
0.0
  0
LINE
  5
2D6
330
1F
100
AcDbEntity
  8
LAY-10
  6
CONTINUOUS
 62
     7
100
AcDbLine
 10
930.7500000000005
 20
321.3558171453005
 30
0.0
 11
926.0000000000002
 21
321.3558171453005
 31
0.0
  0
LINE
  5
2D7
330
1F
100
AcDbEntity
  8
LAY-10
  6
CONTINUOUS
 62
     7
100
AcDbLine
 10
937.2500000000002
 20
321.3558171453005
 30
0.0
 11
941.7500000000001
 21
321.3558171453005
 31
0.0
  0
LINE
  5
2D8
330
1F
100
AcDbEntity
  8
LAY-10
  6
CONTINUOUS
 62
     7
100
AcDbLine
 10
926.7500000000001
 20
321.3558171453005
 30
0.0
 11
926.7500000000001
 21
325.3558171453005
 31
0.0
  0
LINE
  5
2D9
330
1F
100
AcDbEntity
  8
LAY-10
  6
CONTINUOUS
 62
     7
100
AcDbLine
 10
941.7500000000001
 20
321.3558171453005
 30
0.0
 11
941.7500000000001
 21
325.3558171453005
 31
0.0
  0
LINE
  5
2DA
330
1F
100
AcDbEntity
  8
LAY-10
  6
CONTINUOUS
 62
     7
100
AcDbLine
 10
941.7500000000001
 20
325.3558171453005
 30
0.0
 11
937.2500000000002
 21
325.3558171453005
 31
0.0
  0
LINE
  5
2DB
330
1F
100
AcDbEntity
  8
LAY-10
  6
CONTINUOUS
 62
     7
100
AcDbLine
 10
926.7500000000001
 20
325.3558171453005
 30
0.0
 11
933.2500000000005
 21
325.3558171453005
 31
0.0
  0
LINE
  5
2DC
330
1F
100
AcDbEntity
  8
LAY-10
  6
CONTINUOUS
 62
     7
100
AcDbLine
 10
937.2500000000002
 20
321.3558171453005
 30
0.0
 11
942.0000000000005
 21
321.3558171453005
 31
0.0
  0
LINE
  5
2DD
330
1F
100
AcDbEntity
  8
LAY-10
  6
CONTINUOUS
 62
     7
100
AcDbLine
 10
941.7500000000001
 20
323.6595139016005
 30
0.0
 11
940.0536967560004
 21
325.3558171453005
 31
0.0
  0
LINE
  5
2DE
330
1F
100
AcDbEntity
  8
LAY-10
  6
CONTINUOUS
 62
     7
100
AcDbLine
 10
937.2500000000002
 20
319.6742325274005
 30
0.0
 11
931.5684153820001
 21
325.3558171453005
 31
0.0
  0
LINE
  5
2DF
330
1F
100
AcDbEntity
  8
LAY-10
  6
CONTINUOUS
 62
     7
100
AcDbLine
 10
937.2500000000002
 20
315.4315918402004
 30
0.0
 11
927.3257746950003
 21
325.3558171453005
 31
0.0
  0
LINE
  5
2E0
330
1F
100
AcDbEntity
  8
LAY-10
  6
CONTINUOUS
 62
     7
100
AcDbLine
 10
937.2500000000002
 20
311.1889511531004
 30
0.0
 11
930.7500000000005
 21
317.6889511531004
 31
0.0
  0
LINE
  5
2E1
330
1F
100
AcDbEntity
  8
LAY-10
  6
CONTINUOUS
 62
     7
100
AcDbLine
 10
927.0831340080002
 20
321.3558171453005
 30
0.0
 11
926.7500000000001
 21
321.6889511531005
 31
0.0
  0
LINE
  5
2E2
330
1F
100
AcDbEntity
  8
LAY-10
  6
CONTINUOUS
 62
     7
100
AcDbLine
 10
937.2500000000002
 20
306.9463104660005
 30
0.0
 11
930.7500000000005
 21
313.4463104660004
 31
0.0
  0
LINE
  5
2E3
330
1F
100
AcDbEntity
  8
LAY-10
  6
CONTINUOUS
 62
     7
100
AcDbLine
 10
933.5978526340006
 20
306.3558171453005
 30
0.0
 11
930.7500000000005
 21
309.2036697789004
 31
0.0
  0
LINE
  5
2E4
330
1F
100
AcDbEntity
  8
LAY-10
  6
CONTINUOUS
 62
     7
100
AcDbLine
 10
928.0330875750002
 20
333.1337856401005
 30
0.0
 11
927.2110560690004
 21
333.9558171453004
 31
0.0
  0
LINE
  5
2E5
330
1F
100
AcDbEntity
  8
LAY-10
  6
CONTINUOUS
 62
     7
100
AcDbLine
 10
939.8110560690003
 20
321.3558171453005
 30
0.0
 11
932.9888832970005
 21
328.1779899175004
 31
0.0
  0
LINE
  5
2E6
330
1F
100
AcDbEntity
  8
LAY-10
  6
CONTINUOUS
 62
     7
100
AcDbLine
 10
937.2440033780003
 20
328.1655105233004
 30
0.0
 11
931.5568527430003
 21
333.8526611584004
 31
0.0
  0
ARC
  5
2E7
330
1F
100
AcDbEntity
  8
LAY-10
  6
CONTINUOUS
 62
     7
100
AcDbCircle
 10
925.9595439110007
 20
326.1044462539004
 30
0.0
 40
7.328792228620006
100
AcDbArc
 50
354.1370646166002
 51
92.70620834110221
  0
LINE
  5
2E8
330
1F
100
AcDbEntity
  8
LAY-10
  6
CONTINUOUS
 62
     7
100
AcDbLine
 10
925.3240162010002
 20
333.9558171453004
 30
0.0
 11
925.6135172860002
 21
333.4250651557005
 31
0.0
  0
ARC
  5
2E9
330
1F
100
AcDbEntity
  8
LAY-10
  6
CONTINUOUS
 62
     7
100
AcDbCircle
 10
929.8749314310004
 20
326.5700080294005
 30
0.0
 40
7.474349195590004
100
AcDbArc
 50
350.6510014885994
 51
81.1722394900993
  0
ARC
  5
2EA
330
1F
100
AcDbEntity
  8
LAY-10
  6
CONTINUOUS
 62
     7
100
AcDbCircle
 10
473.7918684495
 20
332.3653349743004
 30
0.0
 40
6.92877574747
100
AcDbArc
 50
113.1561896277994
 51
168.5911888182998
  0
ARC
  5
2EB
330
1F
100
AcDbEntity
  8
LAY-10
  6
CONTINUOUS
 62
     7
100
AcDbCircle
 10
474.4830709794003
 20
334.5303056878005
 30
0.0
 40
3.57251442299
100
AcDbArc
 50
71.22637646324941
 51
192.8479897554006
  0
LINE
  5
2EC
330
1F
100
AcDbEntity
  8
LAY-10
  6
CONTINUOUS
 62
     7
100
AcDbLine
 10
476.1619802776004
 20
338.7359028584005
 30
0.0
 11
475.6328128150003
 21
337.9127534722005
 31
0.0
  0
LINE
  5
2ED
330
1F
100
AcDbEntity
  8
LAY-10
  6
CONTINUOUS
 62
     7
100
AcDbLine
 10
783.0000000000003
 20
318.7359028584005
 30
0.0
 11
779.0000000000003
 21
318.7359028584005
 31
0.0
  0
LINE
  5
2EE
330
1F
100
AcDbEntity
  8
LAY-10
  6
CONTINUOUS
 62
     7
100
AcDbLine
 10
779.0000000000003
 20
318.7359028584005
 30
0.0
 11
779.0000000000003
 21
330.7359028584006
 31
0.0
  0
LINE
  5
2EF
330
1F
100
AcDbEntity
  8
LAY-10
  6
CONTINUOUS
 62
     7
100
AcDbLine
 10
783.0000000000003
 20
330.7359028584006
 30
0.0
 11
783.0000000000003
 21
318.7359028584005
 31
0.0
  0
LINE
  5
2F0
330
1F
100
AcDbEntity
  8
LAY-10
  6
CONTINUOUS
 62
     7
100
AcDbLine
 10
783.0000000000003
 20
330.7359028584006
 30
0.0
 11
786.5000000000003
 21
330.7359028584006
 31
0.0
  0
LINE
  5
2F1
330
1F
100
AcDbEntity
  8
LAY-10
  6
CONTINUOUS
 62
     7
100
AcDbLine
 10
779.0000000000003
 20
330.7359028584006
 30
0.0
 11
774.7000000000005
 21
330.7359028584006
 31
0.0
  0
LINE
  5
2F2
330
1F
100
AcDbEntity
  8
LAY-10
  6
CONTINUOUS
 62
     7
100
AcDbLine
 10
775.5000000000003
 20
333.7359028584005
 30
0.0
 11
779.0000000000003
 21
333.7359028584005
 31
0.0
  0
LINE
  5
2F3
330
1F
100
AcDbEntity
  8
LAY-10
  6
CONTINUOUS
 62
     7
100
AcDbLine
 10
786.5000000000003
 20
333.7359028584005
 30
0.0
 11
783.0000000000003
 21
333.7359028584005
 31
0.0
  0
LINE
  5
2F4
330
1F
100
AcDbEntity
  8
LAY-10
  6
CONTINUOUS
 62
     7
100
AcDbLine
 10
775.5000000000003
 20
330.7359028584006
 30
0.0
 11
775.5000000000003
 21
333.7359028584005
 31
0.0
  0
LINE
  5
2F5
330
1F
100
AcDbEntity
  8
LAY-10
  6
CONTINUOUS
 62
     7
100
AcDbLine
 10
786.5000000000003
 20
330.7359028584006
 30
0.0
 11
786.5000000000003
 21
333.7359028584005
 31
0.0
  0
LINE
  5
2F6
330
1F
100
AcDbEntity
  8
LAY-10
  6
CONTINUOUS
 62
     7
100
AcDbLine
 10
786.5000000000003
 20
330.7359028584006
 30
0.0
 11
783.0000000000003
 21
330.7359028584006
 31
0.0
  0
LINE
  5
2F7
330
1F
100
AcDbEntity
  8
LAY-10
  6
CONTINUOUS
 62
     7
100
AcDbLine
 10
779.0000000000003
 20
330.7359028584006
 30
0.0
 11
775.5000000000003
 21
330.7359028584006
 31
0.0
  0
LINE
  5
2F8
330
1F
100
AcDbEntity
  8
LAY-10
  6
CONTINUOUS
 62
     7
100
AcDbLine
 10
786.5000000000003
 20
332.6668732145005
 30
0.0
 11
785.4309703560002
 21
333.7359028584005
 31
0.0
  0
LINE
  5
2F9
330
1F
100
AcDbEntity
  8
LAY-10
  6
CONTINUOUS
 62
     7
100
AcDbLine
 10
783.0000000000003
 20
327.6815918402005
 30
0.0
 11
776.9456889820005
 21
333.7359028584005
 31
0.0
  0
LINE
  5
2FA
330
1F
100
AcDbEntity
  8
LAY-10
  6
CONTINUOUS
 62
     7
100
AcDbLine
 10
783.0000000000003
 20
323.4389511531004
 30
0.0
 11
779.0000000000003
 21
327.4389511531004
 31
0.0
  0
LINE
  5
2FB
330
1F
100
AcDbEntity
  8
LAY-10
  6
CONTINUOUS
 62
     7
100
AcDbLine
 10
775.7030482950006
 20
330.7359028584006
 30
0.0
 11
775.5000000000003
 21
330.9389511531004
 31
0.0
  0
LINE
  5
2FC
330
1F
100
AcDbEntity
  8
LAY-10
  6
CONTINUOUS
 62
     7
100
AcDbLine
 10
783.0000000000003
 20
319.1963104660005
 30
0.0
 11
779.0000000000003
 21
323.1963104660005
 31
0.0
  0
LINE
  5
2FD
330
1F
100
AcDbEntity
  8
LAY-10
  6
CONTINUOUS
 62
     7
100
AcDbLine
 10
779.2177669210005
 20
318.7359028584005
 30
0.0
 11
779.0000000000003
 21
318.9536697789005
 31
0.0
  0
LINE
  5
2FE
330
1F
100
AcDbEntity
  8
LAY-10
  6
CONTINUOUS
 62
     7
100
AcDbLine
 10
777.2957668660003
 20
337.6284656616005
 30
0.0
 11
776.1883296690004
 21
338.7359028584005
 31
0.0
  0
LINE
  5
2FF
330
1F
100
AcDbEntity
  8
LAY-10
  6
CONTINUOUS
 62
     7
100
AcDbLine
 10
784.1883296690005
 20
330.7359028584006
 30
0.0
 11
778.6150889950002
 21
336.3091435329005
 31
0.0
  0
ARC
  5
300
330
1F
100
AcDbEntity
  8
LAY-10
  6
CONTINUOUS
 62
     7
100
AcDbCircle
 10
776.2081315510002
 20
332.3653349743004
 30
0.0
 40
6.92877574747
100
AcDbArc
 50
11.40881118165943
 51
66.84381037220979
  0
ARC
  5
301
330
1F
100
AcDbEntity
  8
LAY-10
  6
CONTINUOUS
 62
     7
100
AcDbCircle
 10
775.5169290210006
 20
334.5303056878005
 30
0.0
 40
3.57251442299
100
AcDbArc
 50
347.1520102445994
 51
108.7736235368022
  0
LINE
  5
302
330
1F
100
AcDbEntity
  8
LAY-10
  6
CONTINUOUS
 62
     7
100
AcDbLine
 10
773.8380197230006
 20
338.7359028584005
 30
0.0
 11
774.3671871850003
 21
337.9127534722005
 31
0.0
  0
LINE
  5
303
330
1F
100
AcDbEntity
  8
LAY-10
  6
CONTINUOUS
 62
     7
100
AcDbLine
 10
985.0000000000006
 20
660.0
 30
0.0
 11
985.0000000000006
 21
874.6332983179999
 31
0.0
  0
LINE
  5
304
330
1F
100
AcDbEntity
  8
LAY-10
  6
CONTINUOUS
 62
     7
100
AcDbLine
 10
977.0000000000005
 20
653.7545658279998
 30
0.0
 11
977.0000000000005
 21
842.8955179009998
 31
0.0
  0
ARC
  5
305
330
1F
100
AcDbEntity
  8
LAY-10
  6
CONTINUOUS
 62
     7
100
AcDbCircle
 10
965.0000000000006
 20
653.7545658279998
 30
0.0
 40
12.0
100
AcDbArc
 50
225.0000000000011
 51
0.0
  0
ARC
  5
306
330
1F
100
AcDbEntity
  8
LAY-10
  6
CONTINUOUS
 62
     7
100
AcDbCircle
 10
915.0000000000006
 20
660.0
 30
0.0
 40
70.0
100
AcDbArc
 50
270.0
 51
0.0
  0
LINE
  5
307
330
1F
100
AcDbEntity
  8
LAY-10
  6
CONTINUOUS
 62
     7
100
AcDbLine
 10
940.0592634300006
 20
642.6328565579998
 30
0.0
 11
887.6747759540007
 21
691.4818101269999
 31
0.0
  0
LINE
  5
308
330
1F
100
AcDbEntity
  8
LAY-10
  6
CONTINUOUS
 62
     7
100
AcDbLine
 10
882.0179217050003
 20
685.8249558779997
 30
0.0
 11
930.8668752740004
 21
633.4404684019997
 31
0.0
  0
LINE
  5
309
330
1F
100
AcDbEntity
  8
LAY-10
  6
CONTINUOUS
 62
     7
100
AcDbLine
 10
926.730179211001
 20
618.4852813739997
 30
0.0
 11
870.3345010900006
 21
674.8809594949997
 31
0.0
  0
LINE
  5
30A
330
1F
100
AcDbEntity
  8
LAY-10
  6
CONTINUOUS
 62
     7
100
AcDbLine
 10
730.6042139310747
 20
597.9999999999999
 30
0.0
 11
918.2448978370002
 21
597.9999999999999
 31
0.0
  0
LINE
  5
30B
330
1F
100
AcDbEntity
  8
LAY-10
  6
CONTINUOUS
 62
     7
100
AcDbLine
 10
698.8664335134714
 20
589.9999999999998
 30
0.0
 11
915.0000000000006
 21
589.9999999999998
 31
0.0
  0
ARC
  5
30C
330
1F
100
AcDbEntity
  8
LAY-10
  6
CONTINUOUS
 62
     7
100
AcDbCircle
 10
918.2448978370002
 20
609.9999999999998
 30
0.0
 40
12.0
100
AcDbArc
 50
270.0
 51
44.99999999999769
  0
LINE
  5
30D
330
1F
100
AcDbEntity
  8
LAY-10
  6
CONTINUOUS
 62
     7
100
AcDbLine
 10
930.8668752740004
 20
633.4404684019997
 30
0.0
 11
940.0592634300006
 21
642.6328565579998
 31
0.0
  0
LINE
  5
30E
330
1F
100
AcDbEntity
  8
LAY-10
  6
CONTINUOUS
 62
     7
100
AcDbLine
 10
956.5147186260009
 20
645.2692844539998
 30
0.0
 11
898.6187723370006
 21
703.1652307419998
 31
0.0
  0
CIRCLE
  5
30F
330
1F
100
AcDbEntity
  8
LAY-10
  6
CONTINUOUS
 62
     7
100
AcDbCircle
 10
944.9997318330003
 20
719.9999999999998
 30
0.0
 40
10.0
  0
CIRCLE
  5
310
330
1F
100
AcDbEntity
  8
LAY-10
  6
CONTINUOUS
 62
     7
100
AcDbCircle
 10
944.9997318330003
 20
719.9999999999998
 30
0.0
 40
8.0
  0
TEXT
  5
311
330
1F
100
AcDbEntity
  8
LAY-10
  6
CONTINUOUS
 62
     7
100
AcDbText
 10
853.0000000000003
 20
612.8110240446854
 30
0.0
 40
16.3700781131691
  1
６００
 41
0.9015872974929171
  7
EXCADSTD
100
AcDbText
  0
LINE
  5
312
330
1F
100
AcDbEntity
  8
LAY-10
  6
CONTINUOUS
 62
     7
100
AcDbLine
 10
915.0000000000006
 20
1310.0
 30
0.0
 11
700.3667016820006
 21
1310.0
 31
0.0
  0
LINE
  5
313
330
1F
100
AcDbEntity
  8
LAY-10
  6
CONTINUOUS
 62
     7
100
AcDbLine
 10
921.2454341720007
 20
1302.0
 30
0.0
 11
732.1044820990005
 21
1302.0
 31
0.0
  0
ARC
  5
314
330
1F
100
AcDbEntity
  8
LAY-10
  6
CONTINUOUS
 62
     7
100
AcDbCircle
 10
921.2454341720007
 20
1290.0
 30
0.0
 40
12.0
100
AcDbArc
 50
315.0000000000008
 51
90.0
  0
ARC
  5
315
330
1F
100
AcDbEntity
  8
LAY-10
  6
CONTINUOUS
 62
     7
100
AcDbCircle
 10
915.0000000000006
 20
1240.0
 30
0.0
 40
70.0
100
AcDbArc
 50
0.0
 51
90.0
  0
LINE
  5
316
330
1F
100
AcDbEntity
  8
LAY-10
  6
CONTINUOUS
 62
     7
100
AcDbLine
 10
932.3671434420004
 20
1265.05926343
 30
0.0
 11
883.5181898730008
 21
1212.674775954
 31
0.0
  0
LINE
  5
317
330
1F
100
AcDbEntity
  8
LAY-10
  6
CONTINUOUS
 62
     7
100
AcDbLine
 10
889.1750441220006
 20
1207.017921705
 30
0.0
 11
941.5595315980005
 21
1255.866875274
 31
0.0
  0
LINE
  5
318
330
1F
100
AcDbEntity
  8
LAY-10
  6
CONTINUOUS
 62
     7
100
AcDbLine
 10
956.5147186260009
 20
1251.730179211
 30
0.0
 11
900.1190405050005
 21
1195.33450109
 31
0.0
  0
LINE
  5
319
330
1F
100
AcDbEntity
  8
LAY-10
  6
CONTINUOUS
 62
     7
100
AcDbLine
 10
977.0000000000005
 20
1055.604213931074
 30
0.0
 11
977.0000000000005
 21
1243.244897837
 31
0.0
  0
LINE
  5
31A
330
1F
100
AcDbEntity
  8
LAY-10
  6
CONTINUOUS
 62
     7
100
AcDbLine
 10
985.0000000000006
 20
1023.866433513471
 30
0.0
 11
985.0000000000006
 21
1240.0
 31
0.0
  0
ARC
  5
31B
330
1F
100
AcDbEntity
  8
LAY-10
  6
CONTINUOUS
 62
     7
100
AcDbCircle
 10
965.0000000000006
 20
1243.244897837
 30
0.0
 40
12.0
100
AcDbArc
 50
0.0
 51
134.9999999999992
  0
LINE
  5
31C
330
1F
100
AcDbEntity
  8
LAY-10
  6
CONTINUOUS
 62
     7
100
AcDbLine
 10
941.5595315980005
 20
1255.866875274
 30
0.0
 11
932.3671434420004
 21
1265.05926343
 31
0.0
  0
LINE
  5
31D
330
1F
100
AcDbEntity
  8
LAY-10
  6
CONTINUOUS
 62
     7
100
AcDbLine
 10
929.7307155460004
 20
1281.514718626
 30
0.0
 11
871.8347692580005
 21
1223.618772337
 31
0.0
  0
CIRCLE
  5
31E
330
1F
100
AcDbEntity
  8
LAY-10
  6
CONTINUOUS
 62
     7
100
AcDbCircle
 10
855.0000000000006
 20
1269.999731833
 30
0.0
 40
10.0
  0
CIRCLE
  5
31F
330
1F
100
AcDbEntity
  8
LAY-10
  6
CONTINUOUS
 62
     7
100
AcDbCircle
 10
855.0000000000006
 20
1269.999731833
 30
0.0
 40
8.0
  0
LINE
  5
320
330
1F
100
AcDbEntity
  8
LAY-10
  6
CONTINUOUS
 62
     7
100
AcDbLine
 10
265.0000000000003
 20
1240.0
 30
0.0
 11
265.0000000000003
 21
1025.366701682
 31
0.0
  0
LINE
  5
321
330
1F
100
AcDbEntity
  8
LAY-10
  6
CONTINUOUS
 62
     7
100
AcDbLine
 10
273.0000000000005
 20
1246.245434172
 30
0.0
 11
273.0000000000005
 21
1057.104482099
 31
0.0
  0
ARC
  5
322
330
1F
100
AcDbEntity
  8
LAY-10
  6
CONTINUOUS
 62
     7
100
AcDbCircle
 10
285.0000000000003
 20
1246.245434172
 30
0.0
 40
12.0
100
AcDbArc
 50
45.00000000000153
 51
180.0
  0
ARC
  5
323
330
1F
100
AcDbEntity
  8
LAY-10
  6
CONTINUOUS
 62
     7
100
AcDbCircle
 10
335.0000000000003
 20
1240.0
 30
0.0
 40
70.0
100
AcDbArc
 50
90.0
 51
180.0
  0
LINE
  5
324
330
1F
100
AcDbEntity
  8
LAY-10
  6
CONTINUOUS
 62
     7
100
AcDbLine
 10
309.9407365700004
 20
1257.367143442
 30
0.0
 11
362.3252240460002
 21
1208.518189873
 31
0.0
  0
LINE
  5
325
330
1F
100
AcDbEntity
  8
LAY-10
  6
CONTINUOUS
 62
     7
100
AcDbLine
 10
367.9820782950006
 20
1214.175044122
 30
0.0
 11
319.1331247260005
 21
1266.559531598
 31
0.0
  0
LINE
  5
326
330
1F
100
AcDbEntity
  8
LAY-10
  6
CONTINUOUS
 62
     7
100
AcDbLine
 10
323.2698207890002
 20
1281.514718626
 30
0.0
 11
379.6654989100003
 21
1225.119040505
 31
0.0
  0
LINE
  5
327
330
1F
100
AcDbEntity
  8
LAY-10
  6
CONTINUOUS
 62
     7
100
AcDbLine
 10
519.3957860689264
 20
1302.0
 30
0.0
 11
331.7551021630007
 21
1302.0
 31
0.0
  0
LINE
  5
328
330
1F
100
AcDbEntity
  8
LAY-10
  6
CONTINUOUS
 62
     7
100
AcDbLine
 10
551.1335664865297
 20
1310.0
 30
0.0
 11
335.0000000000003
 21
1310.0
 31
0.0
  0
ARC
  5
329
330
1F
100
AcDbEntity
  8
LAY-10
  6
CONTINUOUS
 62
     7
100
AcDbCircle
 10
331.7551021630007
 20
1290.0
 30
0.0
 40
12.0
100
AcDbArc
 50
90.0
 51
224.999999999998
  0
LINE
  5
32A
330
1F
100
AcDbEntity
  8
LAY-10
  6
CONTINUOUS
 62
     7
100
AcDbLine
 10
319.1331247260005
 20
1266.559531598
 30
0.0
 11
309.9407365700004
 21
1257.367143442
 31
0.0
  0
LINE
  5
32B
330
1F
100
AcDbEntity
  8
LAY-10
  6
CONTINUOUS
 62
     7
100
AcDbLine
 10
293.4852813740003
 20
1254.730715546
 30
0.0
 11
351.3812276630003
 21
1196.834769258
 31
0.0
  0
CIRCLE
  5
32C
330
1F
100
AcDbEntity
  8
LAY-10
  6
CONTINUOUS
 62
     7
100
AcDbCircle
 10
305.0002681670006
 20
1180.0
 30
0.0
 40
10.0
  0
CIRCLE
  5
32D
330
1F
100
AcDbEntity
  8
LAY-10
  6
CONTINUOUS
 62
     7
100
AcDbCircle
 10
305.0002681670006
 20
1180.0
 30
0.0
 40
8.0
  0
LINE
  5
32E
330
1F
100
AcDbEntity
  8
LAY-10
  6
CONTINUOUS
 62
     7
100
AcDbLine
 10
335.0000000000003
 20
590.0
 30
0.0
 11
549.6332983180006
 21
589.9999999999998
 31
0.0
  0
LINE
  5
32F
330
1F
100
AcDbEntity
  8
LAY-10
  6
CONTINUOUS
 62
     7
100
AcDbLine
 10
328.7545658280002
 20
598.0000000000001
 30
0.0
 11
517.8955179010003
 21
597.9999999999999
 31
0.0
  0
ARC
  5
330
330
1F
100
AcDbEntity
  8
LAY-10
  6
CONTINUOUS
 62
     7
100
AcDbCircle
 10
328.7545658280002
 20
610.0
 30
0.0
 40
12.0
100
AcDbArc
 50
135.0000000000009
 51
270.0
  0
ARC
  5
331
330
1F
100
AcDbEntity
  8
LAY-10
  6
CONTINUOUS
 62
     7
100
AcDbCircle
 10
335.0000000000003
 20
659.9999999999998
 30
0.0
 40
70.0
100
AcDbArc
 50
180.0
 51
270.0
  0
LINE
  5
332
330
1F
100
AcDbEntity
  8
LAY-10
  6
CONTINUOUS
 62
     7
100
AcDbLine
 10
317.6328565580002
 20
634.94073657
 30
0.0
 11
366.4818101270004
 21
687.3252240459997
 31
0.0
  0
LINE
  5
333
330
1F
100
AcDbEntity
  8
LAY-10
  6
CONTINUOUS
 62
     7
100
AcDbLine
 10
360.8249558780003
 20
692.982078295
 30
0.0
 11
308.4404684020001
 21
644.1331247260001
 31
0.0
  0
LINE
  5
334
330
1F
100
AcDbEntity
  8
LAY-10
  6
CONTINUOUS
 62
     7
100
AcDbLine
 10
293.4852813740003
 20
648.2698207889998
 30
0.0
 11
349.8809594950004
 21
704.66549891
 31
0.0
  0
LINE
  5
335
330
1F
100
AcDbEntity
  8
LAY-10
  6
CONTINUOUS
 62
     7
100
AcDbLine
 10
273.0000000000005
 20
844.3957860689258
 30
0.0
 11
273.0000000000005
 21
656.7551021630001
 31
0.0
  0
LINE
  5
336
330
1F
100
AcDbEntity
  8
LAY-10
  6
CONTINUOUS
 62
     7
100
AcDbLine
 10
265.0000000000003
 20
876.133566486529
 30
0.0
 11
265.0000000000003
 21
660.0
 31
0.0
  0
ARC
  5
337
330
1F
100
AcDbEntity
  8
LAY-10
  6
CONTINUOUS
 62
     7
100
AcDbCircle
 10
285.0000000000003
 20
656.7551021630001
 30
0.0
 40
12.0
100
AcDbArc
 50
180.0
 51
314.9999999999993
  0
LINE
  5
338
330
1F
100
AcDbEntity
  8
LAY-10
  6
CONTINUOUS
 62
     7
100
AcDbLine
 10
308.4404684020001
 20
644.1331247260001
 30
0.0
 11
317.6328565580002
 21
634.94073657
 31
0.0
  0
LINE
  5
339
330
1F
100
AcDbEntity
  8
LAY-10
  6
CONTINUOUS
 62
     7
100
AcDbLine
 10
320.2692844540002
 20
618.4852813739999
 30
0.0
 11
378.1652307420004
 21
676.3812276629998
 31
0.0
  0
CIRCLE
  5
33A
330
1F
100
AcDbEntity
  8
LAY-10
  6
CONTINUOUS
 62
     7
100
AcDbCircle
 10
395.0000000000003
 20
630.000268167
 30
0.0
 40
10.0
  0
CIRCLE
  5
33B
330
1F
100
AcDbEntity
  8
LAY-10
  6
CONTINUOUS
 62
     7
100
AcDbCircle
 10
395.0000000000003
 20
630.000268167
 30
0.0
 40
8.0
  0
LINE
  5
33C
330
1F
100
AcDbEntity
  8
LAY-10
  6
CONTINUOUS
 62
     7
100
AcDbLine
 10
265.0000000001004
 20
279.3558171453006
 30
0.0
 11
1104.061083293
 21
279.3558171453006
 31
0.0
  0
LINE
  5
33D
330
1F
100
AcDbEntity
  8
LAY-10
  6
CONTINUOUS
 62
     7
100
AcDbLine
 10
438.2448228337004
 20
304.2359028584005
 30
0.0
 11
821.3765354110003
 21
304.2359028584005
 31
0.0
  0
LINE
  5
33E
330
1F
100
AcDbEntity
  8
LAY-10
  6
CONTINUOUS
 62
     7
100
AcDbLine
 10
558.8840403101003
 20
330.7359028584006
 30
0.0
 11
775.5000000000003
 21
330.7359028584006
 31
0.0
  0
LINE
  5
33F
330
1F
100
AcDbEntity
  8
LAY-10
  6
CONTINUOUS
 62
     7
100
AcDbLine
 10
562.7096155075006
 20
336.7359028584005
 30
0.0
 11
765.3452994620002
 21
336.7359028584005
 31
0.0
  0
LINE
  5
340
330
1F
100
AcDbEntity
  8
LAY-10
  6
CONTINUOUS
 62
     7
100
AcDbLine
 10
568.7096155075003
 20
338.7359028584005
 30
0.0
 11
761.7731962530004
 21
338.7359028584005
 31
0.0
  0
LINE
  5
341
330
1F
100
AcDbEntity
  8
LAY-10
  6
CENTER
 62
     2
100
AcDbLine
 10
1016.0
 20
950.0
 30
0.0
 11
239.0000000000007
 21
950.0
 31
0.0
  0
LINE
  5
342
330
1F
100
AcDbEntity
  8
LAY-10
  6
CENTER
 62
     2
100
AcDbLine
 10
625.0000000000005
 20
1335.5
 30
0.0
 11
625.0000000000005
 21
566.4999999999998
 31
0.0
  0
LINE
  5
343
330
1F
100
AcDbEntity
  8
LAY-10
  6
CENTER
 62
     2
100
AcDbLine
 10
799.5846642750004
 20
1083.006785541
 30
0.0
 11
760.2695272410006
 21
1122.321922575
 31
0.0
  0
LINE
  5
344
330
1F
100
AcDbEntity
  8
LAY-10
  6
CENTER
 62
     2
100
AcDbLine
 10
736.1571860030006
 20
1061.157186003
 30
0.0
 11
817.2500000000005
 21
1142.25
 31
0.0
  0
LINE
  5
345
330
1F
100
AcDbEntity
  8
LAY-10
  6
CENTER
 62
     2
100
AcDbLine
 10
723.7500000000002
 20
920.6
 30
0.0
 11
723.7500000000002
 21
976.1999999999998
 31
0.0
  0
LINE
  5
346
330
1F
100
AcDbEntity
  8
LAY-10
  6
CENTER
 62
     2
100
AcDbLine
 10
526.2500000001004
 20
920.6
 30
0.0
 11
526.2500000001004
 21
976.1999999999998
 31
0.0
  0
LINE
  5
347
330
1F
100
AcDbEntity
  8
LAY-10
  6
CENTER
 62
     2
100
AcDbLine
 10
491.9932144589002
 20
1124.584664275
 30
0.0
 11
452.6780774249003
 21
1085.269527241
 31
0.0
  0
LINE
  5
348
330
1F
100
AcDbEntity
  8
LAY-10
  6
CENTER
 62
     2
100
AcDbLine
 10
513.8428139976005
 20
1061.157186003
 30
0.0
 11
432.7500000001003
 21
1142.25
 31
0.0
  0
LINE
  5
349
330
1F
100
AcDbEntity
  8
LAY-10
  6
CENTER
 62
     2
100
AcDbLine
 10
450.4153357251002
 20
816.9932144590001
 30
0.0
 11
489.7304727591002
 21
777.678077425
 31
0.0
  0
LINE
  5
34A
330
1F
100
AcDbEntity
  8
LAY-10
  6
CENTER
 62
     2
100
AcDbLine
 10
513.8428139976005
 20
838.842813997
 30
0.0
 11
432.7500000001003
 21
757.75
 31
0.0
  0
LINE
  5
34B
330
1F
100
AcDbEntity
  8
LAY-10
  6
CENTER
 62
     2
100
AcDbLine
 10
758.0067855410005
 20
775.4153357250001
 30
0.0
 11
797.3219225750006
 21
814.730472759
 31
0.0
  0
LINE
  5
34C
330
1F
100
AcDbEntity
  8
LAY-10
  6
CENTER
 62
     2
100
AcDbLine
 10
736.1571860030006
 20
838.842813997
 30
0.0
 11
817.2500000000005
 21
757.75
 31
0.0
  0
LINE
  5
34D
330
1F
100
AcDbEntity
  8
LAY-10
  6
CENTER
 62
     2
100
AcDbLine
 10
625.0000000000003
 20
368.3558171453005
 30
0.0
 11
625.0000000000003
 21
263.3558171453005
 31
0.0
  0
LINE
  5
34E
330
1F
100
AcDbEntity
  8
LAY-10
  6
CENTER
 62
     2
100
AcDbLine
 10
842.5000000000002
 20
351.8560853128005
 30
0.0
 11
842.5000000000002
 21
291.7558171453005
 31
0.0
  0
LINE
  5
34F
330
1F
100
AcDbEntity
  8
LAY-10
  6
CENTER
 62
     2
100
AcDbLine
 10
526.2500000001004
 20
351.8560853128005
 30
0.0
 11
526.2500000001004
 21
301.1558171453005
 31
0.0
  0
LINE
  5
350
330
1F
100
AcDbEntity
  8
LAY-10
  6
CENTER
 62
     2
100
AcDbLine
 10
924.2000000000002
 20
719.9999999999998
 30
0.0
 11
960.6
 21
719.9999999999998
 31
0.0
  0
LINE
  5
351
330
1F
100
AcDbEntity
  8
LAY-10
  6
CENTER
 62
     2
100
AcDbLine
 10
944.9997318330003
 20
702.831584618
 30
0.0
 11
944.9997318330003
 21
738.8315846179999
 31
0.0
  0
LINE
  5
352
330
1F
100
AcDbEntity
  8
LAY-10
  6
CENTER
 62
     2
100
AcDbLine
 10
855.0000000000006
 20
1249.2
 30
0.0
 11
855.0000000000006
 21
1285.6
 31
0.0
  0
LINE
  5
353
330
1F
100
AcDbEntity
  8
LAY-10
  6
CENTER
 62
     2
100
AcDbLine
 10
872.1684153820004
 20
1269.999731833
 30
0.0
 11
836.1684153820005
 21
1269.999731833
 31
0.0
  0
LINE
  5
354
330
1F
100
AcDbEntity
  8
LAY-10
  6
CENTER
 62
     2
100
AcDbLine
 10
325.8000000000008
 20
1180.0
 30
0.0
 11
289.4000000000009
 21
1180.0
 31
0.0
  0
LINE
  5
355
330
1F
100
AcDbEntity
  8
LAY-10
  6
CENTER
 62
     2
100
AcDbLine
 10
305.0002681670006
 20
1197.168415382
 30
0.0
 11
305.0002681670006
 21
1161.168415382
 31
0.0
  0
LINE
  5
356
330
1F
100
AcDbEntity
  8
LAY-10
  6
CENTER
 62
     2
100
AcDbLine
 10
395.0000000000003
 20
650.8000000000001
 30
0.0
 11
395.0000000000003
 21
614.4000000000002
 31
0.0
  0
LINE
  5
357
330
1F
100
AcDbEntity
  8
LAY-10
  6
CENTER
 62
     2
100
AcDbLine
 10
377.8315846180002
 20
630.000268167
 30
0.0
 11
413.8315846180004
 21
630.000268167
 31
0.0
  0
ARC
  5
358
330
1F
100
AcDbEntity
  8
LAY-10
  6
CONTINUOUS
 62
     7
100
AcDbCircle
 10
625.0000000000003
 20
950.0000000000001
 30
0.0
 40
336.0
100
AcDbArc
 50
231.0
 51
310.1542797486001
  0
ARC
  5
359
330
1F
100
AcDbEntity
  8
LAY-10
  6
CONTINUOUS
 62
     7
100
AcDbCircle
 10
625.0000000000003
 20
950.0000000000001
 30
0.0
 40
308.0
100
AcDbArc
 50
231.0
 51
310.0612508964
  0
ARC
  5
35A
330
1F
100
AcDbEntity
  8
LAY-10
  6
CONTINUOUS
 62
     7
100
AcDbCircle
 10
625.0000000000003
 20
950.0000000000001
 30
0.0
 40
302.0
100
AcDbArc
 50
229.8615983548
 51
333.7324698721
  0
LINE
  5
35B
330
1F
100
AcDbEntity
  8
LAY-10
  6
CONTINUOUS
 62
     7
100
AcDbLine
 10
431.1693195567004
 20
710.639043871
 30
0.0
 11
413.5483486073001
 21
688.8789569510001
 31
0.0
  0
LINE
  5
35C
330
1F
100
AcDbEntity
  8
LAY-10
  6
CONTINUOUS
 62
     7
100
AcDbLine
 10
430.3198789988003
 20
719.124166516
 30
0.0
 11
418.9900014792004
 21
705.1329329829999
 31
0.0
  0
LINE
  5
35D
330
1F
100
AcDbEntity
  8
LAY-10
  6
CONTINUOUS
 62
     7
100
AcDbLine
 10
415.2134274438001
 20
700.4692524449999
 30
0.0
 11
413.3251493421003
 21
698.1374231870001
 31
0.0
  0
ARC
  5
35E
330
1F
100
AcDbEntity
  8
LAY-10
  6
CONTINUOUS
 62
     7
100
AcDbCircle
 10
625.0000000000003
 20
950.0000000000001
 30
0.0
 40
320.0
100
AcDbArc
 50
333.6684270497
 51
229.9256411771
  0
ARC
  5
35F
330
1F
100
AcDbEntity
  8
LAY-10
  6
CONTINUOUS
 62
     7
100
AcDbCircle
 10
625.0000000000003
 20
950.0000000000001
 30
0.0
 40
328.9999999999999
100
AcDbArc
 50
333.6390339898001
 51
79.87370138249973
  0
LINE
  5
360
330
1F
100
AcDbEntity
  8
LAY-10
  6
CONTINUOUS
 62
     7
100
AcDbLine
 10
891.3182749670005
 20
756.827599231
 30
0.0
 11
888.9219662400006
 21
758.6333473779998
 31
0.0
  0
LINE
  5
361
330
1F
100
AcDbEntity
  8
LAY-10
  6
CONTINUOUS
 62
     7
100
AcDbLine
 10
846.2202437840006
 20
697.101594034
 30
0.0
 11
827.7852234690005
 21
718.176461198
 31
0.0
  0
LINE
  5
362
330
1F
100
AcDbEntity
  8
LAY-10
  6
CONTINUOUS
 62
     7
100
AcDbLine
 10
841.7042008200004
 20
693.151232538
 30
0.0
 11
823.2306993070006
 21
714.2700913069998
 31
0.0
  0
ARC
  5
363
330
1F
100
AcDbEntity
  8
LAY-10
  6
CONTINUOUS
 62
     7
100
AcDbCircle
 10
625.0000000000003
 20
950.0000000000001
 30
0.0
 40
308.0
100
AcDbArc
 50
311.1774730522
 51
323.0000000000003
  0
ARC
  5
364
330
1F
100
AcDbEntity
  8
LAY-10
  6
CONTINUOUS
 62
     7
100
AcDbCircle
 10
625.0000000000003
 20
950.0000000000001
 30
0.0
 40
336.0
100
AcDbArc
 50
311.1774730522001
 51
323.0000000000003
  0
ARC
  5
365
330
1F
100
AcDbEntity
  8
LAY-10
  6
CONTINUOUS
 62
     7
100
AcDbCircle
 10
625.0000000000003
 20
950.0000000000001
 30
0.0
 40
340.0
100
AcDbArc
 50
79.8737013824999
 51
100.1262986174999
  0
LINE
  5
366
330
1F
100
AcDbEntity
  8
LAY-10
  6
CONTINUOUS
 62
     7
100
AcDbLine
 10
684.7783213030004
 20
1284.703678352
 30
0.0
 11
682.8443167900004
 21
1273.875029935
 31
0.0
  0
LINE
  5
367
330
1F
100
AcDbEntity
  8
LAY-10
  6
CONTINUOUS
 62
     7
100
AcDbLine
 10
565.2216786973005
 20
1284.703678352
 30
0.0
 11
567.1556832100006
 21
1273.875029935
 31
0.0
  0
ARC
  5
368
330
1F
100
AcDbEntity
  8
LAY-10
  6
CONTINUOUS
 62
     7
100
AcDbCircle
 10
625.0000000000003
 20
950.0000000000001
 30
0.0
 40
328.9999999999999
100
AcDbArc
 50
100.1262986174999
 51
229.9550342371001
  0
LINE
  5
369
330
1F
100
AcDbEntity
  8
LAY-10
  6
CONTINUOUS
 62
     7
100
AcDbLine
 10
792.2307537510005
 20
1144.100811436
 30
0.0
 11
819.1008114360002
 21
1117.230753751
 31
0.0
  0
LINE
  5
36A
330
1F
100
AcDbEntity
  8
LAY-10
  6
CONTINUOUS
 62
     7
100
AcDbLine
 10
743.8204058280004
 20
1095.690463513
 30
0.0
 11
792.2307537510005
 21
1144.100811436
 31
0.0
  0
LINE
  5
36B
330
1F
100
AcDbEntity
  8
LAY-10
  6
CONTINUOUS
 62
     7
100
AcDbLine
 10
770.6904635140003
 20
1068.820405828
 30
0.0
 11
819.1008114360002
 21
1117.230753751
 31
0.0
  0
ARC
  5
36C
330
1F
100
AcDbEntity
  8
LAY-10
  6
CONTINUOUS
 62
     7
100
AcDbCircle
 10
625.0000000000003
 20
950.0000000000001
 30
0.0
 40
158.0
100
AcDbArc
 50
208.5493189458
 51
359.4506810542001
  0
ARC
  5
36D
330
1F
100
AcDbEntity
  8
LAY-10
  6
CONTINUOUS
 62
     7
100
AcDbCircle
 10
625.0000000000003
 20
950.0000000000001
 30
0.0
 40
162.0
100
AcDbArc
 50
209.9999999999998
 51
327.5851456058001
  0
ARC
  5
36E
330
1F
100
AcDbEntity
  8
LAY-10
  6
CONTINUOUS
 62
     7
100
AcDbCircle
 10
625.0000000000003
 20
950.0000000000001
 30
0.0
 40
180.0
100
AcDbArc
 50
209.9999999999998
 51
327.7266556386
  0
LINE
  5
36F
330
1F
100
AcDbEntity
  8
LAY-10
  6
CONTINUOUS
 62
     7
100
AcDbLine
 10
779.2901141260003
 20
857.293146516
 30
0.0
 11
763.8611027140004
 21
866.563831865
 31
0.0
  0
LINE
  5
370
330
1F
100
AcDbEntity
  8
LAY-10
  6
CONTINUOUS
 62
     7
100
AcDbLine
 10
761.7586147110003
 20
863.160600518
 30
0.0
 11
777.1918607980003
 21
853.8873707209998
 31
0.0
  0
LINE
  5
371
330
1F
100
AcDbEntity
  8
LAY-10
  6
CONTINUOUS
 62
     7
100
AcDbLine
 10
469.1154273189004
 20
860.0000000000001
 30
0.0
 11
484.7038845870002
 21
869.0000000000001
 31
0.0
  0
ARC
  5
372
330
1F
100
AcDbEntity
  8
LAY-10
  6
CONTINUOUS
 62
     7
100
AcDbCircle
 10
625.0000000000003
 20
950.0000000000001
 30
0.0
 40
177.0
100
AcDbArc
 50
359.294930114
 51
73.38125981852994
  0
ARC
  5
373
330
1F
100
AcDbEntity
  8
LAY-10
  6
CONTINUOUS
 62
     7
100
AcDbCircle
 10
625.0000000000003
 20
950.0000000000001
 30
0.0
 40
175.0
100
AcDbArc
 50
359.309731879
 51
73.36275492221998
  0
ARC
  5
374
330
1F
100
AcDbEntity
  8
LAY-10
  6
CONTINUOUS
 62
     7
100
AcDbCircle
 10
625.0000000000003
 20
950.0000000000001
 30
0.0
 40
171.0
100
AcDbArc
 50
359.3403744083
 51
73.32444599532987
  0
ARC
  5
375
330
1F
100
AcDbEntity
  8
LAY-10
  6
CONTINUOUS
 62
     7
100
AcDbCircle
 10
625.0000000000003
 20
950.0000000000001
 30
0.0
 40
169.0
100
AcDbArc
 50
359.3562397733003
 51
73.3046111984398
  0
ARC
  5
376
330
1F
100
AcDbEntity
  8
LAY-10
  6
CONTINUOUS
 62
     7
100
AcDbCircle
 10
625.0000000000003
 20
950.0000000000001
 30
0.0
 40
177.0
100
AcDbArc
 50
106.6187401814998
 51
208.7050698859998
  0
ARC
  5
377
330
1F
100
AcDbEntity
  8
LAY-10
  6
CONTINUOUS
 62
     7
100
AcDbCircle
 10
625.0000000000003
 20
950.0000000000001
 30
0.0
 40
175.0
100
AcDbArc
 50
106.6372450778
 51
208.6902681209997
  0
ARC
  5
378
330
1F
100
AcDbEntity
  8
LAY-10
  6
CONTINUOUS
 62
     7
100
AcDbCircle
 10
625.0000000000003
 20
950.0000000000001
 30
0.0
 40
171.0
100
AcDbArc
 50
106.6755540046998
 51
208.6596255917
  0
ARC
  5
379
330
1F
100
AcDbEntity
  8
LAY-10
  6
CONTINUOUS
 62
     7
100
AcDbCircle
 10
625.0000000000003
 20
950.0000000000001
 30
0.0
 40
169.0
100
AcDbArc
 50
106.6953888016
 51
208.6437602266999
  0
LINE
  5
37A
330
1F
100
AcDbEntity
  8
LAY-10
  6
CONTINUOUS
 62
     7
100
AcDbLine
 10
799.8589895750004
 20
907.287779676
 30
0.0
 11
782.4675527260003
 21
911.9478011350001
 31
0.0
  0
LINE
  5
37B
330
1F
100
AcDbEntity
  8
LAY-10
  6
CONTINUOUS
 62
     7
100
AcDbLine
 10
486.2118426180003
 20
874.489422129
 30
0.0
 11
480.1478036572003
 21
870.988347602
 31
0.0
  0
LINE
  5
37C
330
1F
100
AcDbEntity
  8
LAY-10
  6
CONTINUOUS
 62
     7
100
AcDbLine
 10
476.682707789
 20
868.9877735700001
 30
0.0
 11
474.9501773052002
 21
867.987496629
 31
0.0
  0
LINE
  5
37D
330
1F
100
AcDbEntity
  8
LAY-10
  6
CONTINUOUS
 62
     7
100
AcDbLine
 10
471.4851492428004
 20
865.986961744
 30
0.0
 11
469.7526509203003
 21
864.9867033710001
 31
0.0
  0
LINE
  5
37E
330
1F
100
AcDbEntity
  8
LAY-10
  6
CONTINUOUS
 62
     7
100
AcDbLine
 10
675.1044711750003
 20
1117.673915587
 30
0.0
 11
675.6223182860006
 21
1119.606547313
 31
0.0
  0
LINE
  5
37F
330
1F
100
AcDbEntity
  8
LAY-10
  6
CONTINUOUS
 62
     7
100
AcDbLine
 10
673.5509001420004
 20
1111.875909558
 30
0.0
 11
674.0687622780003
 21
1113.808597358
 31
0.0
  0
LINE
  5
380
330
1F
100
AcDbEntity
  8
LAY-10
  6
CONTINUOUS
 62
     7
100
AcDbLine
 10
576.4490998578003
 20
1111.875909558
 30
0.0
 11
575.9312377226005
 21
1113.808597358
 31
0.0
  0
LINE
  5
381
330
1F
100
AcDbEntity
  8
LAY-10
  6
CONTINUOUS
 62
     7
100
AcDbLine
 10
574.8955288248006
 20
1117.673915587
 30
0.0
 11
574.3776817145003
 21
1119.606547313
 31
0.0
  0
ARC
  5
382
330
1F
100
AcDbEntity
  8
LAY-10
  6
CONTINUOUS
 62
     7
100
AcDbCircle
 10
625.0000000000003
 20
950.0000000000001
 30
0.0
 40
182.0
100
AcDbArc
 50
74.99999999999983
 51
105.0
  0
ARC
  5
383
330
1F
100
AcDbEntity
  8
LAY-10
  6
CONTINUOUS
 62
     7
100
AcDbCircle
 10
625.0000000000003
 20
950.0000000000001
 30
0.0
 40
170.0
100
AcDbArc
 50
74.99999999999983
 51
104.9999999999999
  0
LINE
  5
384
330
1F
100
AcDbEntity
  8
LAY-10
  6
CONTINUOUS
 62
     7
100
AcDbLine
 10
668.9992376680004
 20
1114.207390469
 30
0.0
 11
672.1050662090005
 21
1125.798500385
 31
0.0
  0
LINE
  5
385
330
1F
100
AcDbEntity
  8
LAY-10
  6
CONTINUOUS
 62
     7
100
AcDbLine
 10
581.0007623327003
 20
1114.207390469
 30
0.0
 11
577.8949337914006
 21
1125.798500385
 31
0.0
  0
LINE
  5
386
330
1F
100
AcDbEntity
  8
LAY-10
  6
CONTINUOUS
 62
     7
100
AcDbLine
 10
761.7500000000003
 20
969.0
 30
0.0
 11
761.7500000000003
 21
931.0
 31
0.0
  0
LINE
  5
387
330
1F
100
AcDbEntity
  8
LAY-10
  6
CONTINUOUS
 62
     7
100
AcDbLine
 10
685.7500000000005
 20
969.0
 30
0.0
 11
685.7500000000005
 21
931.0
 31
0.0
  0
LINE
  5
388
330
1F
100
AcDbEntity
  8
LAY-10
  6
CONTINUOUS
 62
     7
100
AcDbLine
 10
685.7500000000005
 20
969.0
 30
0.0
 11
761.7500000000003
 21
969.0
 31
0.0
  0
LINE
  5
389
330
1F
100
AcDbEntity
  8
LAY-10
  6
CONTINUOUS
 62
     7
100
AcDbLine
 10
685.7500000000005
 20
931.0
 30
0.0
 11
761.7500000000003
 21
931.0
 31
0.0
  0
LINE
  5
38A
330
1F
100
AcDbEntity
  8
LAY-10
  6
CONTINUOUS
 62
     7
100
AcDbLine
 10
488.2500000001003
 20
969.0
 30
0.0
 11
488.2500000001003
 21
931.0
 31
0.0
  0
LINE
  5
38B
330
1F
100
AcDbEntity
  8
LAY-10
  6
CONTINUOUS
 62
     7
100
AcDbLine
 10
564.2500000001004
 20
969.0
 30
0.0
 11
564.2500000001004
 21
931.0
 31
0.0
  0
LINE
  5
38C
330
1F
100
AcDbEntity
  8
LAY-10
  6
CONTINUOUS
 62
     7
100
AcDbLine
 10
564.2500000001004
 20
969.0
 30
0.0
 11
488.2500000001003
 21
969.0
 31
0.0
  0
LINE
  5
38D
330
1F
100
AcDbEntity
  8
LAY-10
  6
CONTINUOUS
 62
     7
100
AcDbLine
 10
564.2500000001004
 20
931.0
 30
0.0
 11
488.2500000001003
 21
931.0
 31
0.0
  0
LINE
  5
38E
330
1F
100
AcDbEntity
  8
LAY-10
  6
CONTINUOUS
 62
     7
100
AcDbLine
 10
430.8991885644
 20
1117.230753751
 30
0.0
 11
457.7692462495002
 21
1144.100811436
 31
0.0
  0
LINE
  5
38F
330
1F
100
AcDbEntity
  8
LAY-10
  6
CONTINUOUS
 62
     7
100
AcDbLine
 10
479.3095364866001
 20
1068.820405828
 30
0.0
 11
430.8991885644
 21
1117.230753751
 31
0.0
  0
LINE
  5
390
330
1F
100
AcDbEntity
  8
LAY-10
  6
CONTINUOUS
 62
     7
100
AcDbLine
 10
506.1795941717003
 20
1095.690463513
 30
0.0
 11
457.7692462495002
 21
1144.100811436
 31
0.0
  0
LINE
  5
391
330
1F
100
AcDbEntity
  8
LAY-10
  6
CONTINUOUS
 62
     7
100
AcDbLine
 10
457.7692462495002
 20
755.8991885639998
 30
0.0
 11
430.8991885644
 21
782.769246249
 31
0.0
  0
LINE
  5
392
330
1F
100
AcDbEntity
  8
LAY-10
  6
CONTINUOUS
 62
     7
100
AcDbLine
 10
506.1795941717003
 20
804.309536487
 30
0.0
 11
457.7692462495002
 21
755.8991885639998
 31
0.0
  0
LINE
  5
393
330
1F
100
AcDbEntity
  8
LAY-10
  6
CONTINUOUS
 62
     7
100
AcDbLine
 10
479.3095364866001
 20
831.1795941720001
 30
0.0
 11
430.8991885644
 21
782.769246249
 31
0.0
  0
LINE
  5
394
330
1F
100
AcDbEntity
  8
LAY-10
  6
CONTINUOUS
 62
     7
100
AcDbLine
 10
819.1008114360002
 20
782.769246249
 30
0.0
 11
792.2307537510005
 21
755.8991885639998
 31
0.0
  0
LINE
  5
395
330
1F
100
AcDbEntity
  8
LAY-10
  6
CONTINUOUS
 62
     7
100
AcDbLine
 10
770.6904635140003
 20
831.1795941720001
 30
0.0
 11
819.1008114360002
 21
782.769246249
 31
0.0
  0
LINE
  5
396
330
1F
100
AcDbEntity
  8
LAY-10
  6
CONTINUOUS
 62
     7
100
AcDbLine
 10
743.8204058280004
 20
804.309536487
 30
0.0
 11
792.2307537510005
 21
755.8991885639998
 31
0.0
  0
LINE
  5
397
330
1F
100
AcDbEntity
  8
LAY-10
  6
CONTINUOUS
 62
     7
100
AcDbLine
 10
893.3415313760003
 20
747.7901522210001
 30
0.0
 11
870.9797370950005
 21
764.6409728689999
 31
0.0
  0
LINE
  5
398
330
1F
100
AcDbEntity
  8
LAY-10
  6
CONTINUOUS
 62
     7
100
AcDbLine
 10
896.909634058
 20
752.614207942
 30
0.0
 11
874.5439493010005
 21
769.4679602750001
 31
0.0
  0
LINE
  5
399
330
1F
100
AcDbEntity
  8
LAY-10
  6
CONTINUOUS
 62
     7
100
AcDbLine
 10
919.7887605280005
 20
803.9158233539999
 30
0.0
 11
917.1250102350001
 21
805.29693025
 31
0.0
  0
LINE
  5
39A
330
1F
100
AcDbEntity
  8
LAY-10
  6
CONTINUOUS
 62
     7
100
AcDbLine
 10
911.7974844950004
 20
808.059157084
 30
0.0
 11
895.8146880340001
 21
816.3459512569998
 31
0.0
  0
LINE
  5
39B
330
1F
100
AcDbEntity
  8
LAY-10
  6
CONTINUOUS
 62
     7
100
AcDbLine
 10
923.2899594200006
 20
795.341989831
 30
0.0
 11
898.432462801
 21
808.230157345
 31
0.0
  0
ARC
  5
39C
330
1F
100
AcDbEntity
  8
LAY-10
  6
CONTINUOUS
 62
     7
100
AcDbCircle
 10
625.0000000000003
 20
950.0000000000001
 30
0.0
 40
336.0
100
AcDbArc
 50
324.0231933037
 51
332.5940682269
  0
ARC
  5
39D
330
1F
100
AcDbEntity
  8
LAY-10
  6
CONTINUOUS
 62
     7
100
AcDbCircle
 10
625.0000000000003
 20
950.0000000000001
 30
0.0
 40
308.0
100
AcDbArc
 50
324.1162221559001
 51
332.5940682269
  0
LINE
  5
39E
330
1F
100
AcDbEntity
  8
LAY-10
  6
CONTINUOUS
 62
     7
100
AcDbLine
 10
801.9865983940005
 20
947.8219299719999
 30
0.0
 11
799.9873003090001
 21
947.891746999
 31
0.0
  0
LINE
  5
39F
330
1F
100
AcDbEntity
  8
LAY-10
  6
CONTINUOUS
 62
     7
100
AcDbLine
 10
795.9886678830005
 20
948.03138232
 30
0.0
 11
793.9893326840004
 21
948.101200644
 31
0.0
  0
LINE
  5
3A0
330
1F
100
AcDbEntity
  8
LAY-10
  6
CONTINUOUS
 62
     7
100
AcDbLine
 10
789.9906220110006
 20
948.2408386979998
 30
0.0
 11
782.9927384780003
 21
948.4852101750001
 31
0.0
  0
ARC
  5
3A1
330
1F
100
AcDbEntity
  8
LAY-10
  6
CONTINUOUS
 62
     7
100
AcDbCircle
 10
625.0000000000003
 20
950.0000000000001
 30
0.0
 40
180.0
100
AcDbArc
 50
329.0
 51
345.0000000000001
  0
ARC
  5
3A2
330
1F
100
AcDbEntity
  8
LAY-10
  6
CONTINUOUS
 62
     7
100
AcDbCircle
 10
625.0000000000003
 20
950.0000000000001
 30
0.0
 40
180.0
100
AcDbArc
 50
346.2733443614002
 51
358.0
  0
ARC
  5
3A3
330
1F
100
AcDbEntity
  8
LAY-10
  6
CONTINUOUS
 62
     7
100
AcDbCircle
 10
625.0000000000003
 20
950.0000000000001
 30
0.0
 40
162.0
100
AcDbArc
 50
329.0000000000001
 51
345.0000000000001
  0
ARC
  5
3A4
330
1F
100
AcDbEntity
  8
LAY-10
  6
CONTINUOUS
 62
     7
100
AcDbCircle
 10
625.0000000000003
 20
950.0000000000001
 30
0.0
 40
162.0
100
AcDbArc
 50
346.4148543942001
 51
358.0000000000001
  0
LINE
  5
3A5
330
1F
100
AcDbEntity
  8
LAY-10
  6
CONTINUOUS
 62
     7
100
AcDbLine
 10
804.8903488640004
 20
943.718090594
 30
0.0
 11
786.9013139770004
 21
944.3462815339999
 31
0.0
  0
LINE
  5
3A6
330
1F
100
AcDbEntity
  8
LAY-10
  6
CONTINUOUS
 62
     7
100
AcDbLine
 10
798.8666487320003
 20
903.412571882
 30
0.0
 11
781.4799838590002
 21
908.0713146930001
 31
0.0
  0
ARC
  5
3A7
330
1F
100
AcDbEntity
  8
LAY-10
  6
CONTINUOUS
 62
     7
100
AcDbCircle
 10
625.0000000000003
 20
950.0000000000001
 30
0.0
 40
165.0
100
AcDbArc
 50
359.3891246806003
 51
208.6108753195327
  0
ARC
  5
3A8
330
1F
100
AcDbEntity
  8
LAY-10
  6
CONTINUOUS
 62
     7
100
AcDbCircle
 10
625.0000000000003
 20
950.0000000000001
 30
0.0
 40
326.0
100
AcDbArc
 50
333.6486513202016
 51
229.9454169066001
  0
ARC
  5
3A9
330
1F
100
AcDbEntity
  8
LAY-10
  6
PHANTOM
 62
     7
100
AcDbCircle
 10
297.5068000469461
 20
343.8938918131738
 30
0.0
 40
1.55
100
AcDbArc
 50
166.4410113888422
 51
15.55898861116724
  0
LINE
  5
3AA
330
1F
100
AcDbEntity
  8
LAY-10
  6
PHANTOM
 62
     7
100
AcDbLine
 10
305.0000000001004
 20
344.4143792230097
 30
0.0
 11
305.8560823668259
 21
341.4288652121732
 31
0.0
  0
LINE
  5
3AB
330
1F
100
AcDbEntity
  8
LAY-10
  6
PHANTOM
 62
     7
100
AcDbLine
 10
305.8560823668259
 20
341.4288652121732
 30
0.0
 11
437.0000000001003
 21
343.7179908094286
 31
0.0
  0
ARC
  5
3AC
330
1F
100
AcDbEntity
  8
LAY-10
  6
PHANTOM
 62
     7
100
AcDbCircle
 10
448.992008106595
 20
347.3857638449226
 30
0.0
 40
1.1
100
AcDbArc
 50
205.6009248950631
 51
336.3990751049299
  0
ARC
  5
3AD
330
1F
100
AcDbEntity
  8
LAY-10
  6
PHANTOM
 62
     7
100
AcDbCircle
 10
455.0079918936054
 20
346.5747836899488
 30
0.0
 40
1.1
100
AcDbArc
 50
156.3990751049299
 51
25.60092489507365
  0
LINE
  5
3AE
330
1F
100
AcDbEntity
  8
LAY-10
  6
PHANTOM
 62
     7
100
AcDbLine
 10
460.7134019723715
 20
344.6319859444966
 30
0.0
 11
488.6238600600152
 21
345.1191648025903
 31
0.0
  0
LINE
  5
3AF
330
1F
100
AcDbEntity
  8
LAY-10
  6
PHANTOM
 62
     7
100
AcDbLine
 10
489.2500000001003
 20
347.6304749360085
 30
0.0
 11
488.6238600600152
 21
345.1191648025903
 31
0.0
  0
LINE
  5
3B0
330
1F
100
AcDbEntity
  8
LAY-10
  6
PHANTOM
 62
     7
100
AcDbLine
 10
460.0000000001004
 20
347.1199142868608
 30
0.0
 11
460.7134019723715
 21
344.6319859444966
 31
0.0
  0
LINE
  5
3B1
330
1F
100
AcDbEntity
  8
LAY-10
  6
PHANTOM
 62
     7
100
AcDbLine
 10
563.2500000001003
 20
348.92214974069
 30
0.0
 11
563.9634019723717
 21
346.4342213983262
 31
0.0
  0
LINE
  5
3B2
330
1F
100
AcDbEntity
  8
LAY-10
  6
PHANTOM
 62
     7
100
AcDbLine
 10
563.963401972372
 20
346.4342213983262
 30
0.0
 11
625.0000000000003
 21
347.4996191798907
 31
0.0
  0
LINE
  5
3B3
330
1F
100
AcDbEntity
  8
LAY-10
  6
PHANTOM
 62
     7
100
AcDbLine
 10
782.2865980277288
 20
344.7541713989928
 30
0.0
 11
625.0000000000003
 21
347.4996191798905
 31
0.0
  0
LINE
  5
3B4
330
1F
100
AcDbEntity
  8
LAY-10
  6
PHANTOM
 62
     7
100
AcDbLine
 10
804.2865980277289
 20
344.3701599705739
 30
0.0
 11
787.6261399400854
 21
344.6609693482262
 31
0.0
  0
LINE
  5
3B5
330
1F
100
AcDbEntity
  8
LAY-10
  6
PHANTOM
 62
     7
100
AcDbLine
 10
805.0000000000002
 20
346.858088312938
 30
0.0
 11
804.2865980277289
 21
344.3701599705739
 31
0.0
  0
LINE
  5
3B6
330
1F
100
AcDbEntity
  8
LAY-10
  6
PHANTOM
 62
     7
100
AcDbLine
 10
783.0000000000001
 20
347.2420997413568
 30
0.0
 11
782.2865980277288
 21
344.7541713989928
 31
0.0
  0
LINE
  5
3B7
330
1F
100
AcDbEntity
  8
LAY-10
  6
PHANTOM
 62
     7
100
AcDbLine
 10
787.0000000000005
 20
347.1722794816444
 30
0.0
 11
787.6261399400854
 21
344.6609693482262
 31
0.0
  0
LINE
  5
3B8
330
1F
100
AcDbEntity
  8
LAY-10
  6
PHANTOM
 62
     7
100
AcDbLine
 10
880.5000000000007
 20
345.5402309108919
 30
0.0
 11
881.2513679281028
 21
342.5266587507886
 31
0.0
  0
LINE
  5
3B9
330
1F
100
AcDbEntity
  8
LAY-10
  6
PHANTOM
 62
     7
100
AcDbLine
 10
926.1439176332743
 20
341.743056380883
 30
0.0
 11
881.2513679281028
 21
342.5266587507887
 31
0.0
  0
LINE
  5
3BA
330
1F
100
AcDbEntity
  8
LAY-10
  6
PHANTOM
 62
     7
100
AcDbLine
 10
926.9999999999999
 20
344.7285703917194
 30
0.0
 11
926.1439176332743
 21
341.7430563808828
 31
0.0
  0
LINE
  5
3BB
330
1F
100
AcDbEntity
  8
LAY-10
  6
PHANTOM
 62
     7
100
AcDbLine
 10
933.0000000000001
 20
344.6238400021505
 30
0.0
 11
933.7513679281028
 21
341.6102678420471
 31
0.0
  0
LINE
  5
3BC
330
1F
100
AcDbEntity
  8
LAY-10
  6
PHANTOM
 62
     7
100
AcDbLine
 10
960.1439176332741
 20
341.1495841733168
 30
0.0
 11
933.7513679281028
 21
341.6102678420471
 31
0.0
  0
LINE
  5
3BD
330
1F
100
AcDbEntity
  8
LAY-10
  6
PHANTOM
 62
     7
100
AcDbLine
 10
960.9999999999997
 20
344.135098184153
 30
0.0
 11
960.1439176332741
 21
341.1495841733165
 31
0.0
  0
DIMENSION
  5
3BF
330
1F
100
AcDbEntity
  8
LAY-20
  6
CONTINUOUS
 62
     4
100
AcDbDimension
  2
*D15
 10
812.0
 20
435.0
 30
0.0
 11
625.00000000005
 21
447.5
 31
0.0
 70
   160
  1
%%c<>
  3
ISO-25
100
AcDbAlignedDimension
 13
438.0000000001
 23
354.23590285844
 33
0.0
 14
812.0
 24
354.23590285844
 34
0.0
100
AcDbRotatedDimension
1001
ACAD
1000
DSTYLE
1002
{
1070
   270
1070
     2
1070
     6
1000
EX_BNORM
1070
     7
1000
EX_BNORM
1070
    41
1040
15.0
1070
    42
1040
7.5
1070
    44
1040
7.5
1070
    73
1070
     0
1070
    74
1070
     0
1070
    75
1070
     0
1070
    76
1070
     0
1070
    77
1070
     1
1070
    78
1070
     8
1070
   140
1040
15.590552
1070
   147
1040
0.0
1070
   173
1070
     1
1070
   176
1070
     4
1070
   177
1070
     4
1070
   178
1070
     7
1070
   271
1070
     1
1070
   277
1070
     2
1070
   279
1070
     2
1070
   280
1070
     0
1070
   287
1070
     5
1070
   340
1005
3BE
1002
}
  0
DIMENSION
  5
3CD
330
1F
100
AcDbEntity
  8
LAY-20
  6
CONTINUOUS
 62
     4
100
AcDbDimension
  2
*D16
 10
977.0
 20
470.0
 30
0.0
 11
625.00000000005
 21
482.5
 31
0.0
 70
   160
  1
%%c<>
  3
ISO-25
100
AcDbAlignedDimension
 13
273.0000000001
 23
351.3558171453001
 33
0.0
 14
977.0
 24
351.3558171453001
 34
0.0
100
AcDbRotatedDimension
1001
ACAD
1000
DSTYLE
1002
{
1070
   270
1070
     2
1070
     6
1000
EX_BNORM
1070
     7
1000
EX_BNORM
1070
    41
1040
15.0
1070
    42
1040
7.5
1070
    44
1040
7.5
1070
    73
1070
     0
1070
    74
1070
     0
1070
    75
1070
     0
1070
    76
1070
     0
1070
    77
1070
     1
1070
    78
1070
     8
1070
   140
1040
15.590552
1070
   147
1040
0.0
1070
   173
1070
     1
1070
   176
1070
     4
1070
   177
1070
     4
1070
   178
1070
     7
1070
   271
1070
     1
1070
   277
1070
     2
1070
   279
1070
     2
1070
   280
1070
     0
1070
   287
1070
     5
1070
   340
1005
3BE
1002
}
  0
DIMENSION
  5
3DA
330
1F
100
AcDbEntity
  8
LAY-20
  6
CONTINUOUS
 62
     4
100
AcDbDimension
  2
*D17
 10
992.5
 20
505.0
 30
0.0
 11
625.00000000005
 21
517.5
 31
0.0
 70
   160
  1
%%c<>
  3
ISO-25
100
AcDbAlignedDimension
 13
257.5000000001
 23
351.8558171453001
 33
0.0
 14
992.5
 24
351.8558171453001
 34
0.0
100
AcDbRotatedDimension
1001
ACAD
1000
DSTYLE
1002
{
1070
   270
1070
     2
1070
     6
1000
EX_BNORM
1070
     7
1000
EX_BNORM
1070
    41
1040
15.0
1070
    42
1040
7.5
1070
    44
1040
7.5
1070
    73
1070
     0
1070
    74
1070
     0
1070
    75
1070
     0
1070
    76
1070
     0
1070
    77
1070
     1
1070
    78
1070
     8
1070
   140
1040
15.590552
1070
   147
1040
0.0
1070
   173
1070
     1
1070
   176
1070
     4
1070
   177
1070
     4
1070
   178
1070
     7
1070
   271
1070
     1
1070
   277
1070
     2
1070
   279
1070
     2
1070
   280
1070
     0
1070
   287
1070
     5
1070
   340
1005
3BE
1002
}
  0
DIMENSION
  5
3E7
330
1F
100
AcDbEntity
  8
LAY-20
  6
CONTINUOUS
 62
     4
100
AcDbDimension
  2
*D18
 10
775.0
 20
229.3558171453001
 30
0.0
 11
625.00000000005
 21
241.8558171453001
 31
0.0
 70
   160
  1
%%c<>
  3
ISO-25
100
AcDbAlignedDimension
 13
475.0000000001
 23
296.7359028584
 33
0.0
 14
775.0
 24
296.7359028584
 34
0.0
100
AcDbRotatedDimension
1001
ACAD
1000
DSTYLE
1002
{
1070
   270
1070
     2
1070
     6
1000
EX_BNORM
1070
     7
1000
EX_BNORM
1070
    41
1040
15.0
1070
    42
1040
7.5
1070
    44
1040
7.5
1070
    73
1070
     0
1070
    74
1070
     0
1070
    75
1070
     0
1070
    76
1070
     0
1070
    77
1070
     1
1070
    78
1070
     8
1070
   140
1040
15.590552
1070
   147
1040
0.0
1070
   173
1070
     1
1070
   176
1070
     4
1070
   177
1070
     4
1070
   178
1070
     7
1070
   271
1070
     1
1070
   277
1070
     2
1070
   279
1070
     2
1070
   280
1070
     0
1070
   287
1070
     5
1070
   340
1005
3BE
1002
}
  0
DIMENSION
  5
3F4
330
1F
100
AcDbEntity
  8
LAY-20
  6
CONTINUOUS
 62
     4
100
AcDbDimension
  2
*D19
 10
925.0
 20
194.3558171453001
 30
0.0
 11
625.00000000005
 21
206.8558171453001
 31
0.0
 70
   160
  1
%%c<>
  3
ISO-25
100
AcDbAlignedDimension
 13
325.0000000000999
 23
271.8558171453001
 33
0.0
 14
925.0
 24
271.8558171453001
 34
0.0
100
AcDbRotatedDimension
1001
ACAD
1000
DSTYLE
1002
{
1070
   270
1070
     2
1070
     6
1000
EX_BNORM
1070
     7
1000
EX_BNORM
1070
    41
1040
15.0
1070
    42
1040
7.5
1070
    44
1040
7.5
1070
    73
1070
     0
1070
    74
1070
     0
1070
    75
1070
     0
1070
    76
1070
     0
1070
    77
1070
     1
1070
    78
1070
     8
1070
   140
1040
15.590552
1070
   147
1040
0.0
1070
   173
1070
     1
1070
   176
1070
     4
1070
   177
1070
     4
1070
   178
1070
     7
1070
   271
1070
     1
1070
   277
1070
     2
1070
   279
1070
     2
1070
   280
1070
     0
1070
   287
1070
     5
1070
   340
1005
3BE
1002
}
  0
DIMENSION
  5
401
330
1F
100
AcDbEntity
  8
LAY-20
  6
CONTINUOUS
 62
     4
100
AcDbDimension
  2
*D20
 10
987.0000000001
 20
159.3558171453
 30
0.0
 11
626.0000000001
 21
171.8558171452999
 31
0.0
 70
   160
  1
□<>
  3
ISO-25
100
AcDbAlignedDimension
 13
265.0000000001
 23
271.8558171453001
 33
0.0
 14
987.0000000001
 24
159.5
 34
0.0
100
AcDbRotatedDimension
1001
ACAD
1000
DSTYLE
1002
{
1070
   270
1070
     2
1070
     6
1000
EX_BNORM
1070
     7
1000
EX_NONE
1070
    41
1040
15.0
1070
    42
1040
7.5
1070
    44
1040
7.5
1070
    73
1070
     0
1070
    74
1070
     0
1070
    75
1070
     0
1070
    76
1070
     1
1070
    77
1070
     1
1070
    78
1070
     8
1070
   140
1040
15.590552
1070
   147
1040
0.0
1070
   173
1070
     1
1070
   176
1070
     4
1070
   177
1070
     4
1070
   178
1070
     7
1070
   271
1070
     1
1070
   277
1070
     2
1070
   279
1070
     2
1070
   280
1070
     0
1070
   287
1070
     5
1070
   340
1005
3BE
1002
}
  0
DIMENSION
  5
40D
330
1F
100
AcDbEntity
  8
LAY-20
  6
CONTINUOUS
 62
     4
100
AcDbDimension
  2
*D21
 10
1154.5
 20
344.3558171453001
 30
0.0
 11
1142.0
 21
311.8558171453001
 31
0.0
 70
   160
  3
ISO-25
100
AcDbAlignedDimension
 13
1111.561083293
 23
279.3558171453001
 33
0.0
 14
992.5
 24
344.3558171453001
 34
0.0
 50
90.0
100
AcDbRotatedDimension
1001
ACAD
1000
DSTYLE
1002
{
1070
   270
1070
     2
1070
     6
1000
EX_BNORM
1070
     7
1000
EX_BNORM
1070
    41
1040
15.0
1070
    42
1040
7.5
1070
    44
1040
7.5
1070
    73
1070
     0
1070
    74
1070
     0
1070
    75
1070
     0
1070
    76
1070
     0
1070
    77
1070
     1
1070
    78
1070
     8
1070
   140
1040
15.590552
1070
   147
1040
0.0
1070
   173
1070
     1
1070
   176
1070
     4
1070
   177
1070
     4
1070
   178
1070
     7
1070
   271
1070
     1
1070
   277
1070
     2
1070
   279
1070
     2
1070
   280
1070
     0
1070
   287
1070
     5
1070
   340
1005
3BE
1002
}
  0
LINE
  5
41A
330
1F
100
AcDbEntity
  8
LAY-255
  6
CONTINUOUS
 62
     7
100
AcDbLine
 10
1925.0
 20
110.0
 30
0.0
 11
1425.0
 21
110.0
 31
0.0
  0
LINE
  5
41B
330
1F
100
AcDbEntity
  8
LAY-255
  6
CONTINUOUS
 62
     7
100
AcDbLine
 10
1444.0
 20
79.99999999999999
 30
0.0
 11
1484.0
 21
105.0
 31
0.0
  0
LINE
  5
41C
330
1F
100
AcDbEntity
  8
LAY-255
  6
CONTINUOUS
 62
     7
100
AcDbLine
 10
1484.0
 20
105.0
 30
0.0
 11
1524.0
 21
79.99999999999999
 31
0.0
  0
LINE
  5
41D
330
1F
100
AcDbEntity
  8
LAY-255
  6
CONTINUOUS
 62
     7
100
AcDbLine
 10
1524.0
 20
79.99999999999999
 30
0.0
 11
1484.0
 21
55.0
 31
0.0
  0
LINE
  5
41E
330
1F
100
AcDbEntity
  8
LAY-255
  6
CONTINUOUS
 62
     7
100
AcDbLine
 10
1484.0
 20
55.0
 30
0.0
 11
1444.0
 21
79.99999999999999
 31
0.0
  0
LINE
  5
41F
330
1F
100
AcDbEntity
  8
LAY-255
  6
CONTINUOUS
 62
     7
100
AcDbLine
 10
25.0
 20
50.0
 30
0.0
 11
1925.0
 21
50.0
 31
0.0
  0
LINE
  5
420
330
1F
100
AcDbEntity
  8
LAY-255
  6
CONTINUOUS
 62
     7
100
AcDbLine
 10
25.0
 20
1400.0
 30
0.0
 11
1925.0
 21
1400.0
 31
0.0
  0
LINE
  5
421
330
1F
100
AcDbEntity
  8
LAY-255
  6
CONTINUOUS
 62
     7
100
AcDbLine
 10
25.0
 20
50.0
 30
0.0
 11
25.0
 21
1400.0
 31
0.0
  0
LINE
  5
422
330
1F
100
AcDbEntity
  8
LAY-255
  6
CONTINUOUS
 62
     4
100
AcDbLine
 10
1425.0
 20
140.0
 30
0.0
 11
1925.0
 21
140.0
 31
0.0
  0
LINE
  5
423
330
1F
100
AcDbEntity
  8
LAY-255
  6
CONTINUOUS
 62
     4
100
AcDbLine
 10
1675.0
 20
140.0
 30
0.0
 11
1675.0
 21
110.0
 31
0.0
  0
POINT
  5
424
330
1F
100
AcDbEntity
  8
LAY-255
  6
CONTINUOUS
 62
     7
100
AcDbPoint
 10
1445.0
 20
149.9999999999999
 30
0.0
  0
LINE
  5
425
330
1F
100
AcDbEntity
  8
LAY-255
  6
CONTINUOUS
 62
     7
100
AcDbLine
 10
1925.0
 20
50.0
 30
0.0
 11
1925.0
 21
1400.0
 31
0.0
  0
LINE
  5
426
330
1F
100
AcDbEntity
  8
LAY-255
  6
CONTINUOUS
 62
     7
100
AcDbLine
 10
1425.0
 20
50.0
 30
0.0
 11
1425.0
 21
360.0
 31
0.0
  0
LINE
  5
427
330
1F
100
AcDbEntity
  8
LAY-255
  6
CONTINUOUS
 62
     7
100
AcDbLine
 10
1925.0
 20
360.0
 30
0.0
 11
1425.0
 21
360.0
 31
0.0
  0
LINE
  5
428
330
1F
100
AcDbEntity
  8
LAY-255
  6
CONTINUOUS
 62
     4
100
AcDbLine
 10
1915.0
 20
300.0
 30
0.0
 11
1435.0
 21
300.0
 31
0.0
  0
LINE
  5
429
330
1F
100
AcDbEntity
  8
LAY-255
  6
CONTINUOUS
 62
     4
100
AcDbLine
 10
1915.0
 20
330.0
 30
0.0
 11
1435.0
 21
330.0
 31
0.0
  0
POINT
  5
42A
330
1F
100
AcDbEntity
  8
LAY-255
  6
CONTINUOUS
 62
     7
100
AcDbPoint
 10
1445.0
 20
275.0
 30
0.0
  0
POINT
  5
42B
330
1F
100
AcDbEntity
  8
LAY-255
  6
CONTINUOUS
 62
     7
100
AcDbPoint
 10
1500.0
 20
305.0
 30
0.0
  0
POINT
  5
42C
330
1F
100
AcDbEntity
  8
LAY-255
  6
CONTINUOUS
 62
     7
100
AcDbPoint
 10
1500.0
 20
335.0
 30
0.0
  0
POINT
  5
42D
330
1F
100
AcDbEntity
  8
LAY-255
  6
CONTINUOUS
 62
     7
100
AcDbPoint
 10
1445.0
 20
225.0
 30
0.0
  0
POINT
  5
42E
330
1F
100
AcDbEntity
  8
LAY-255
  6
CONTINUOUS
 62
     7
100
AcDbPoint
 10
1445.0
 20
250.0
 30
0.0
  0
POINT
  5
42F
330
1F
100
AcDbEntity
  8
LAY-255
  6
CONTINUOUS
 62
     7
100
AcDbPoint
 10
1445.0
 20
199.9999999999999
 30
0.0
  0
POINT
  5
430
330
1F
100
AcDbEntity
  8
LAY-255
  6
CONTINUOUS
 62
     7
100
AcDbPoint
 10
1445.0
 20
174.9999999999999
 30
0.0
  0
TEXT
  5
431
330
1F
100
AcDbEntity
  8
LAY-255
  6
CONTINUOUS
 62
     7
100
AcDbText
 10
1540.691894370117
 20
77.71874999999999
 30
0.0
 40
25.78125
  1
福西鋳物株式会社
 41
1.342691871783662
  7
EXCADSTD
100
AcDbText
  0
TEXT
  5
432
330
1F
100
AcDbEntity
  8
LAY-255
  6
CONTINUOUS
 62
     7
100
AcDbText
 10
1542.546875
 20
59.90624999999999
 30
0.0
 40
8.59375
  1
ＦＵＫＵＮＩＳＨＩ
 41
1.204799226045263
  7
EXCADSTD
100
AcDbText
  0
TEXT
  5
433
330
1F
100
AcDbEntity
  8
LAY-255
  6
CONTINUOUS
 62
     7
100
AcDbText
 10
1663.595982142857
 20
59.90624999999999
 30
0.0
 40
8.59375
  1
ＦＯＵＮＤＲＹ
 41
1.243252752978497
  7
EXCADSTD
100
AcDbText
  0
TEXT
  5
434
330
1F
100
AcDbEntity
  8
LAY-255
  6
CONTINUOUS
 62
     7
100
AcDbText
 10
1759.97295734375
 20
59.90624999999999
 30
0.0
 40
8.59375
  1
ＣＯ.,ＬＴＤ.
 41
1.243831100341625
  7
EXCADSTD
100
AcDbText
  0
TEXT
  5
435
330
1F
100
AcDbEntity
  8
LAY-255
  6
CONTINUOUS
 62
     7
100
AcDbText
 10
1470.171875
 20
68.59375
 30
0.0
 40
25.78125
  1
S
 41
0.7582677563636363
  7
EXCADSTD
100
AcDbText
  0
TEXT
  5
436
330
1F
100
AcDbEntity
  8
LAY-255
  6
CONTINUOUS
 62
     7
100
AcDbText
 10
1485.5234375
 20
68.7470518868
 30
0.0
 40
25.78125
  1
F
 41
0.7440945272727272
  7
EXCADSTD
100
AcDbText
  0
TEXT
  5
437
330
1F
100
AcDbEntity
  8
LAY-255
  6
CONTINUOUS
 62
     7
100
AcDbText
 10
1685.52734375
 20
122.1093749999999
 30
0.0
 40
12.890625
  1
縮尺
 41
1.080708718181818
  7
EXCADSTD
100
AcDbText
  0
TEXT
  5
438
330
1F
100
AcDbEntity
  8
LAY-255
  6
CONTINUOUS
 62
     7
100
AcDbText
 10
1435.76171875
 20
122.1093749999999
 30
0.0
 40
12.890625
  1
作成日
 41
1.000629973818182
  7
EXCADSTD
100
AcDbText
  0
TEXT
  5
439
330
1F
100
AcDbEntity
  8
LAY-255
  6
CONTINUOUS
 62
     7
100
AcDbText
 10
1741.40625
 20
117.8124999999999
 30
0.0
 40
17.1875
  1
１：５
 41
0.888661464
  7
EXCADSTD
100
AcDbText
  0
TEXT
  5
43A
330
1F
100
AcDbEntity
  8
LAY-255
  6
CONTINUOUS
 62
     7
100
AcDbText
 10
1436.328125
 20
307.8125
 30
0.0
 40
17.1875
  1
型式
 41
1.056348480681818
  7
EXCADSTD
100
AcDbText
  0
TEXT
  5
43B
330
1F
100
AcDbEntity
  8
LAY-255
  6
CONTINUOUS
 62
     7
100
AcDbText
 10
1437.109375
 20
337.8125
 30
0.0
 40
17.1875
  1
品名
 41
0.9788386340909091
  7
EXCADSTD
100
AcDbText
  0
TEXT
  5
43C
330
1F
100
AcDbEntity
  8
LAY-255
  6
CONTINUOUS
 62
     7
100
AcDbText
 10
1447.265625
 20
277.8125000000001
 30
0.0
 40
17.1875
  1
区分：中荷重用
 41
1.007228657526081
  7
EXCADSTD
100
AcDbText
  0
TEXT
  5
43D
330
1F
100
AcDbEntity
  8
LAY-255
  6
CONTINUOUS
 62
     7
100
AcDbText
 10
1446.875
 20
202.8124999999999
 30
0.0
 40
17.1875
  1
防水：防水防臭型
 41
1.01490444025974
  7
EXCADSTD
100
AcDbText
  0
TEXT
  5
43E
330
1F
100
AcDbEntity
  8
LAY-255
  6
CONTINUOUS
 62
     7
100
AcDbText
 10
1501.953125
 20
337.8125
 30
0.0
 40
17.1875
  1
マンホールカバー
 41
1.015410627012987
  7
EXCADSTD
100
AcDbText
  0
TEXT
  5
43F
330
1F
100
AcDbEntity
  8
LAY-255
  6
CONTINUOUS
 62
     7
100
AcDbText
 10
1503.75
 20
307.8125
 30
0.0
 40
17.1875
  1
ＳＦ－６０×３０ＰＪ－１型
 41
1.004758697075099
  7
EXCADSTD
100
AcDbText
  0
TEXT
  5
440
330
1F
100
AcDbEntity
  8
LAY-255
  6
CONTINUOUS
 62
     7
100
AcDbText
 10
1445.703125
 20
252.8125
 30
0.0
 40
17.1875
  1
構造：回転ロック方式
 41
1.019908786570248
  7
EXCADSTD
100
AcDbText
  0
TEXT
  5
441
330
1F
100
AcDbEntity
  8
LAY-255
  6
CONTINUOUS
 62
     7
100
AcDbText
 10
1446.875
 20
177.8124999999999
 30
0.0
 40
17.1875
  1
受枠：水抜穴付
 41
1.018265188375559
  7
EXCADSTD
100
AcDbText
  0
TEXT
  5
442
330
1F
100
AcDbEntity
  8
LAY-255
  6
CONTINUOUS
 62
     7
100
AcDbText
 10
1504.453125
 20
117.8124999999999
 30
0.0
 40
17.1875
  1
０６／１１／２７
 41
0.9733971264935065
  7
EXCADSTD
100
AcDbText
  0
TEXT
  5
443
330
1F
100
AcDbEntity
  8
LAY-255
  6
CONTINUOUS
 62
     7
100
AcDbText
 10
1445.703125
 20
227.8125
 30
0.0
 40
17.1875
  1
機能：親子蓋付
 41
1.0269782390462
  7
EXCADSTD
100
AcDbText
  0
TEXT
  5
444
330
1F
100
AcDbEntity
  8
LAY-255
  6
CONTINUOUS
 62
     7
100
AcDbText
 10
1445.859375
 20
152.8124999999999
 30
0.0
 40
17.1875
  1
破壊荷重：６０ｋＮ以上
 41
1.016600426804124
  7
EXCADSTD
100
AcDbText
  0
ENDSEC
  0
SECTION
  2
OBJECTS
  0
DICTIONARY
  5
C
330
0
100
AcDbDictionary
  3
ACAD_GROUP
350
D
  3
ACAD_LAYOUT
350
1A
  3
ACAD_MATERIAL
350
43
  3
ACAD_MLEADERSTYLE
350
6B
  3
ACAD_MLINESTYLE
350
17
  3
ACAD_PLOTSETTINGS
350
19
  3
ACAD_SCALELIST
350
47
  3
ACAD_VISUALSTYLE
350
2A
  3
ACDBHEADERROUNDTRIPXREC
350
445
  3
ACDBVARIABLEDICTIONARY
350
466
  0
DICTIONARY
  5
471
330
8
100
AcDbDictionary
280
     1
  3
ACAD_XREC_ROUNDTRIP
360
472
  0
DICTIONARY
  5
D
102
{ACAD_REACTORS
330
C
102
}
330
C
100
AcDbDictionary
  0
DICTIONARY
  5
1A
102
{ACAD_REACTORS
330
C
102
}
330
C
100
AcDbDictionary
  0
DICTIONARY
  5
43
102
{ACAD_REACTORS
330
C
102
}
330
C
100
AcDbDictionary
  3
BYBLOCK
350
45
  3
BYLAYER
350
44
  3
GLOBAL
350
46
  0
DICTIONARY
  5
6B
102
{ACAD_REACTORS
330
C
102
}
330
C
100
AcDbDictionary
  3
STANDARD
350
6C
  0
DICTIONARY
  5
17
102
{ACAD_REACTORS
330
C
102
}
330
C
100
AcDbDictionary
  3
STANDARD
350
18
  0
DICTIONARY
  5
19
102
{ACAD_REACTORS
330
C
102
}
330
C
100
AcDbDictionary
  0
DICTIONARY
  5
47
102
{ACAD_REACTORS
330
C
102
}
330
C
100
AcDbDictionary
  3
A0
350
48
  3
A1
350
49
  3
A2
350
4A
  3
A3
350
4B
  3
A4
350
4C
  3
A5
350
4D
  3
A6
350
4E
  3
A7
350
4F
  3
A8
350
50
  3
A9
350
51
  3
B0
350
52
  3
B1
350
53
  3
B2
350
54
  3
B3
350
55
  3
B4
350
56
  3
B5
350
57
  3
B6
350
58
  3
B7
350
59
  3
B8
350
5A
  3
B9
350
5B
  3
C0
350
5C
  3
C1
350
5D
  3
C2
350
5E
  3
C3
350
5F
  3
C4
350
60
  3
C5
350
61
  3
C6
350
62
  3
C7
350
63
  3
C8
350
64
  3
C9
350
65
  3
D0
350
66
  3
D1
350
67
  3
D2
350
68
  0
DICTIONARY
  5
2A
102
{ACAD_REACTORS
330
C
102
}
330
C
100
AcDbDictionary
  3
2DWIREFRAME
350
2F
  3
BASIC
350
32
  3
BRIGHTEN
350
36
  3
COLORCHANGE
350
3A
  3
CONCEPTUAL
350
34
  3
DIM
350
35
  3
EDGECOLOROFF
350
3D
  3
FACEPATTERN
350
39
  3
FLAT
350
2B
  3
FLATWITHEDGES
350
2C
  3
GOURAUD
350
2D
  3
GOURAUDWITHEDGES
350
2E
  3
HIDDEN
350
31
  3
JITTEROFF
350
3B
  3
LINEPATTERN
350
38
  3
OVERHANGOFF
350
3C
  3
REALISTIC
350
33
  3
SHADED
350
42
  3
SHADED_WITH_EDGES
350
41
  3
SHADES_OF_GRAY
350
3E
  3
SKETCHY
350
3F
  3
THICKEN
350
37
  3
WIREFRAME
350
30
  3
X-RAY
350
40
  0
DICTIONARY
  5
445
102
{ACAD_REACTORS
330
C
102
}
330
C
100
AcDbDictionary
  3
CEPSNID
350
44F
  3
CEPSNTYPE
350
44E
  3
DIMSTYLEDATA
350
465
  3
FINGERPRINTGUID
350
450
  3
HYPERLINKBASE
350
448
  3
INSUNITS
350
44D
  3
LAYOUTDICT
350
44A
  3
LWETCUNION
350
44C
  3
PLOTSETDICT
350
44B
  3
PSVPSCALE
350
452
  3
PUCSBASE
350
455
  3
PUCSORGBACK
350
45B
  3
PUCSORGBOTTOM
350
457
  3
PUCSORGFRONT
350
45A
  3
PUCSORGLEFT
350
458
  3
PUCSORGRIGHT
350
459
  3
PUCSORGTOP
350
456
  3
PUCSORTHOREF
350
453
  3
PUCSORTHOVIEW
350
454
  3
STYLESHEET
350
449
  3
TSTACKALIGN
350
446
  3
TSTACKSIZE
350
447
  3
UCSBASE
350
45E
  3
UCSORGBACK
350
464
  3
UCSORGBOTTOM
350
460
  3
UCSORGFRONT
350
463
  3
UCSORGLEFT
350
461
  3
UCSORGRIGHT
350
462
  3
UCSORGTOP
350
45F
  3
UCSORTHOREF
350
45C
  3
UCSORTHOVIEW
350
45D
  3
VERSIONGUID
350
451
  0
DICTIONARY
  5
466
102
{ACAD_REACTORS
330
C
102
}
330
C
100
AcDbDictionary
  3
CANNOSCALE
350
473
  3
CENTEREXE
350
46D
  3
CENTERLTYPEFILE
350
46E
  3
CMLEADERSTYLE
350
468
  3
CTABLESTYLE
350
467
  3
DIMASSOC
350
46F
  3
HIDETEXT
350
470
  3
MSLTSCALE
350
474
  3
PSOLHEIGHT
350
46A
  3
PSOLWIDTH
350
469
  0
XRECORD
  5
472
102
{ACAD_REACTORS
330
471
102
}
330
471
100
AcDbXrecord
102
VTR_0.000_0.000_1.000_1.000_VISUALSTYLE
340
2F
102
VTR_0.000_0.000_1.000_1.000_GRIDDISPLAY
 70
     3
102
VTR_0.000_0.000_1.000_1.000_GRIDMAJOR
 70
     5
102
VTR_0.000_0.000_1.000_1.000_DEFAULTLIGHTING
280
     1
102
VTR_0.000_0.000_1.000_1.000_DEFAULTLIGHTINGTYPE
 70
     1
102
VTR_0.000_0.000_1.000_1.000_BRIGHTNESS
141
0.0
102
VTR_0.000_0.000_1.000_1.000_CONTRAST
142
0.0
  0
MATERIAL
  5
45
102
{ACAD_REACTORS
330
43
102
}
102
{ACAD_XDICTIONARY
360
477
102
}
330
43
100
AcDbMaterial
  1
BYBLOCK
  0
MATERIAL
  5
44
102
{ACAD_REACTORS
330
43
102
}
102
{ACAD_XDICTIONARY
360
475
102
}
330
43
100
AcDbMaterial
  1
BYLAYER
  0
MATERIAL
  5
46
102
{ACAD_REACTORS
330
43
102
}
102
{ACAD_XDICTIONARY
360
479
102
}
330
43
100
AcDbMaterial
  1
GLOBAL
  0
ACAD_PROXY_OBJECT
  5
6C
102
{ACAD_REACTORS
330
6B
102
}
330
6B
100
AcDbProxyObject
 90
      499
 91
      505
 93
      610
310
40901902A4063FBFFFFFE0000000000000020400000000000020404214DD185B99185C990000000000000104090141901A00000000000004100000000000000041025764000000000000039000
340
14
340
0
340
11
340
0
 94
        0
1001
ACAD_MLEADERVER
1070
     2
  0
MLINESTYLE
  5
18
102
{ACAD_REACTORS
330
17
102
}
330
17
100
AcDbMlineStyle
  2
Standard
 70
     0
  3

 62
   256
 51
90.0
 52
90.0
 71
     2
 49
0.5
 62
   256
  6
BYLAYER
 49
-0.5
 62
   256
  6
BYLAYER
  0
ACAD_PROXY_OBJECT
  5
48
102
{ACAD_REACTORS
330
47
102
}
330
47
100
AcDbProxyObject
 90
      499
 91
      503
 93
       41
310
903313A31580
  0
ACAD_PROXY_OBJECT
  5
49
102
{ACAD_REACTORS
330
47
102
}
330
47
100
AcDbProxyObject
 90
      499
 91
      503
 93
      105
310
903313A324000000000000004000
  0
ACAD_PROXY_OBJECT
  5
4A
102
{ACAD_REACTORS
330
47
102
}
330
47
100
AcDbProxyObject
 90
      499
 91
      503
 93
      105
310
903313A344000000000000104000
  0
ACAD_PROXY_OBJECT
  5
4B
102
{ACAD_REACTORS
330
47
102
}
330
47
100
AcDbProxyObject
 90
      499
 91
      503
 93
      105
310
903313A354000000000000144000
  0
ACAD_PROXY_OBJECT
  5
4C
102
{ACAD_REACTORS
330
47
102
}
330
47
100
AcDbProxyObject
 90
      499
 91
      503
 93
      105
310
903313A384000000000000204000
  0
ACAD_PROXY_OBJECT
  5
4D
102
{ACAD_REACTORS
330
47
102
}
330
47
100
AcDbProxyObject
 90
      499
 91
      503
 93
      113
310
904313A31304000000000000244000
  0
ACAD_PROXY_OBJECT
  5
4E
102
{ACAD_REACTORS
330
47
102
}
330
47
100
AcDbProxyObject
 90
      499
 91
      503
 93
      113
310
904313A31364000000000000304000
  0
ACAD_PROXY_OBJECT
  5
4F
102
{ACAD_REACTORS
330
47
102
}
330
47
100
AcDbProxyObject
 90
      499
 91
      503
 93
      113
310
904313A32304000000000000344000
  0
ACAD_PROXY_OBJECT
  5
50
102
{ACAD_REACTORS
330
47
102
}
330
47
100
AcDbProxyObject
 90
      499
 91
      503
 93
      113
310
904313A333040000000000003E4000
  0
ACAD_PROXY_OBJECT
  5
51
102
{ACAD_REACTORS
330
47
102
}
330
47
100
AcDbProxyObject
 90
      499
 91
      503
 93
      113
310
904313A34304000000000000444000
  0
ACAD_PROXY_OBJECT
  5
52
102
{ACAD_REACTORS
330
47
102
}
330
47
100
AcDbProxyObject
 90
      499
 91
      503
 93
      113
310
904313A35304000000000000494000
  0
ACAD_PROXY_OBJECT
  5
53
102
{ACAD_REACTORS
330
47
102
}
330
47
100
AcDbProxyObject
 90
      499
 91
      503
 93
      121
310
905313A3130304000000000000594000
  0
ACAD_PROXY_OBJECT
  5
54
102
{ACAD_REACTORS
330
47
102
}
330
47
100
AcDbProxyObject
 90
      499
 91
      503
 93
      105
310
903323A310000000000000010100
  0
ACAD_PROXY_OBJECT
  5
55
102
{ACAD_REACTORS
330
47
102
}
330
47
100
AcDbProxyObject
 90
      499
 91
      503
 93
      105
310
903343A310000000000000410100
  0
ACAD_PROXY_OBJECT
  5
56
102
{ACAD_REACTORS
330
47
102
}
330
47
100
AcDbProxyObject
 90
      499
 91
      503
 93
      105
310
903383A310000000000000810100
  0
ACAD_PROXY_OBJECT
  5
57
102
{ACAD_REACTORS
330
47
102
}
330
47
100
AcDbProxyObject
 90
      499
 91
      503
 93
      113
310
90431303A310000000000000910100
  0
ACAD_PROXY_OBJECT
  5
58
102
{ACAD_REACTORS
330
47
102
}
330
47
100
AcDbProxyObject
 90
      499
 91
      503
 93
      121
310
9053130303A310000000000001650100
  0
ACAD_PROXY_OBJECT
  5
59
102
{ACAD_REACTORS
330
47
102
}
330
47
100
AcDbProxyObject
 90
      499
 91
      503
 93
      257
310
90E312F31323822203D2031272D3022000000000000200FC000000000000284000
  0
ACAD_PROXY_OBJECT
  5
5A
102
{ACAD_REACTORS
330
47
102
}
330
47
100
AcDbProxyObject
 90
      499
 91
      503
 93
      249
310
90D312F363422203D2031272D3022000000000000240FC000000000000284000
  0
ACAD_PROXY_OBJECT
  5
5B
102
{ACAD_REACTORS
330
47
102
}
330
47
100
AcDbProxyObject
 90
      499
 91
      503
 93
      249
310
90D312F333222203D2031272D3022000000000000280FC000000000000284000
  0
ACAD_PROXY_OBJECT
  5
5C
102
{ACAD_REACTORS
330
47
102
}
330
47
100
AcDbProxyObject
 90
      499
 91
      503
 93
      249
310
90D312F313622203D2031272D30220000000000002C0FC000000000000284000
  0
ACAD_PROXY_OBJECT
  5
5D
102
{ACAD_REACTORS
330
47
102
}
330
47
100
AcDbProxyObject
 90
      499
 91
      503
 93
      249
310
90D332F333222203D2031272D30220000000000002E0FC000000000000284000
  0
ACAD_PROXY_OBJECT
  5
5E
102
{ACAD_REACTORS
330
47
102
}
330
47
100
AcDbProxyObject
 90
      499
 91
      503
 93
      241
310
90C312F3822203D2031272D3022000000000000300FC000000000000284000
  0
ACAD_PROXY_OBJECT
  5
5F
102
{ACAD_REACTORS
330
47
102
}
330
47
100
AcDbProxyObject
 90
      499
 91
      503
 93
      249
310
90D332F313622203D2031272D3022000000000000320FC000000000000284000
  0
ACAD_PROXY_OBJECT
  5
60
102
{ACAD_REACTORS
330
47
102
}
330
47
100
AcDbProxyObject
 90
      499
 91
      503
 93
      241
310
90C312F3422203D2031272D3022000000000000340FC000000000000284000
  0
ACAD_PROXY_OBJECT
  5
61
102
{ACAD_REACTORS
330
47
102
}
330
47
100
AcDbProxyObject
 90
      499
 91
      503
 93
      241
310
90C332F3822203D2031272D3022000000000000360FC000000000000284000
  0
ACAD_PROXY_OBJECT
  5
62
102
{ACAD_REACTORS
330
47
102
}
330
47
100
AcDbProxyObject
 90
      499
 91
      503
 93
      241
310
90C312F3222203D2031272D3022000000000000380FC000000000000284000
  0
ACAD_PROXY_OBJECT
  5
63
102
{ACAD_REACTORS
330
47
102
}
330
47
100
AcDbProxyObject
 90
      499
 91
      503
 93
      241
310
90C332F3422203D2031272D30220000000000003A0FC000000000000284000
  0
ACAD_PROXY_OBJECT
  5
64
102
{ACAD_REACTORS
330
47
102
}
330
47
100
AcDbProxyObject
 90
      499
 91
      503
 93
      161
310
90A3122203D2031272D30224000000000000284000
  0
ACAD_PROXY_OBJECT
  5
65
102
{ACAD_REACTORS
330
47
102
}
330
47
100
AcDbProxyObject
 90
      499
 91
      503
 93
      257
310
90E312D312F3222203D2031272D30220000000000003E0FC000000000000284000
  0
ACAD_PROXY_OBJECT
  5
66
102
{ACAD_REACTORS
330
47
102
}
330
47
100
AcDbProxyObject
 90
      499
 91
      503
 93
      225
310
90A3322203D2031272D302200000000000002100000000000000284000
  0
ACAD_PROXY_OBJECT
  5
67
102
{ACAD_REACTORS
330
47
102
}
330
47
100
AcDbProxyObject
 90
      499
 91
      503
 93
      225
310
90A3622203D2031272D302200000000000006100000000000000284000
  0
ACAD_PROXY_OBJECT
  5
68
102
{ACAD_REACTORS
330
47
102
}
330
47
100
AcDbProxyObject
 90
      499
 91
      503
 93
      249
310
90D31272D3022203D2031272D30220000000000000A100000000000000284000
  0
ACAD_PROXY_OBJECT
  5
2F
102
{ACAD_REACTORS
330
2A
102
}
330
2A
100
AcDbProxyObject
 90
      499
 91
      501
 93
      436
310
42CC9915DA5C99599C985B595049028333333333333E33F0000000000000F90107901411070040501600405405064090741402480A0340
1001
ACAD
1000
AcDbSavedByObjectVersion
1070
     0
  0
ACAD_PROXY_OBJECT
  5
32
102
{ACAD_REACTORS
330
2A
102
}
330
2A
100
AcDbProxyObject
 90
      499
 91
      501
 93
      388
310
4150985CDA58D07406404333333333333E33F0000000000000F90107A41107004050150841D405064090741402480A0350
1001
ACAD
1000
AcDbSavedByObjectVersion
1070
     0
  0
ACAD_PROXY_OBJECT
  5
36
102
{ACAD_REACTORS
330
2A
102
}
330
2A
100
AcDbProxyObject
 90
      499
 91
      501
 93
      428
310
42109C9A59DA1D195B90C409028333333333333E33F0000000000000F9010790141107004050150841D405064090741402480A029950
1001
ACAD
1000
AcDbSavedByObjectVersion
1070
     0
  0
ACAD_PROXY_OBJECT
  5
3A
102
{ACAD_REACTORS
330
2A
102
}
330
2A
100
AcDbProxyObject
 90
      499
 91
      501
 93
      452
310
42D0DBDB1BDC90DA185B99D95104090240C333333333333E33F0000000000000F90108901411070040501508421405064090741402480A0350
1001
ACAD
1000
AcDbSavedByObjectVersion
1070
     0
  0
ACAD_PROXY_OBJECT
  5
34
102
{ACAD_REACTORS
330
2A
102
}
330
2A
100
AcDbProxyObject
 90
      499
 91
      501
 93
      500
310
4290DBDB98D95C1D1D585B10940D028333333333333E33F0000000000000F90107902409070040501000000000018199010841D405064090740C02480A0340
1001
ACAD
1000
AcDbSavedByObjectVersion
1070
     0
  0
ACAD_PROXY_OBJECT
  5
35
102
{ACAD_REACTORS
330
2A
102
}
330
2A
100
AcDbProxyObject
 90
      499
 91
      501
 93
      412
310
40D11A5B50B409028333333333333E33F0000000000000F9010790141107004050150841D405064090741402480A02677FFFFFD0
1001
ACAD
1000
AcDbSavedByObjectVersion
1070
     0
  0
ACAD_PROXY_OBJECT
  5
3D
102
{ACAD_REACTORS
330
2A
102
}
330
2A
100
AcDbProxyObject
 90
      499
 91
      501
 93
      452
310
43115919D950DBDB1BDC93D999916409028333333333333E33F0000000000000F9010790141107004050150841D405064090741402480A0350
1001
ACAD
1000
AcDbSavedByObjectVersion
1070
     0
  0
ACAD_PROXY_OBJECT
  5
39
102
{ACAD_REACTORS
330
2A
102
}
330
2A
100
AcDbProxyObject
 90
      499
 91
      501
 93
      444
310
42D19858D95C185D1D195C9B90F409028333333333333E33F0000000000000F9010790141107004050150841D405064090741402480A0350
1001
ACAD
1000
AcDbSavedByObjectVersion
1070
     0
  0
ACAD_PROXY_OBJECT
  5
2B
102
{ACAD_REACTORS
330
2A
102
}
330
2A
100
AcDbProxyObject
 90
      499
 91
      501
 93
      380
310
41119B185D240901404333333333333E33F0000000000000F9010740A907004050150841D405064090741402480A1B50
1001
ACAD
1000
AcDbSavedByObjectVersion
1070
     0
  0
ACAD_PROXY_OBJECT
  5
2C
102
{ACAD_REACTORS
330
2A
102
}
330
2A
100
AcDbProxyObject
 90
      499
 91
      501
 93
      468
310
43519B185D15DA5D1A115919D95CD0140901404333333333333E33F0000000000000F90107409019070040501600405405064090741402480A1B50
1001
ACAD
1000
AcDbSavedByObjectVersion
1070
     0
  0
ACAD_PROXY_OBJECT
  5
2D
102
{ACAD_REACTORS
330
2A
102
}
330
2A
100
AcDbProxyObject
 90
      499
 91
      501
 93
      404
310
41D1DBDD5C985D5910240902404333333333333E33F0000000000000F9010740A9070040501641D405064090741402480A1B50
1001
ACAD
1000
AcDbSavedByObjectVersion
1070
     0
  0
ACAD_PROXY_OBJECT
  5
2E
102
{ACAD_REACTORS
330
2A
102
}
330
2A
100
AcDbProxyObject
 90
      499
 91
      501
 93
      492
310
4411DBDD5C985D5915DA5D1A115919D95CD0340902404333333333333E33F0000000000000F90107409019070040501600405405064090741402480A1B50
1001
ACAD
1000
AcDbSavedByObjectVersion
1070
     0
  0
ACAD_PROXY_OBJECT
  5
31
102
{ACAD_REACTORS
330
2A
102
}
330
2A
100
AcDbProxyObject
 90
      499
 91
      501
 93
      476
310
41921A5919195B90640502408333333333333E33F0000000000000F901079024090700405020000000000001110200405405064090740C02480A0340
1001
ACAD
1000
AcDbSavedByObjectVersion
1070
     0
  0
ACAD_PROXY_OBJECT
  5
3B
102
{ACAD_REACTORS
330
2A
102
}
330
2A
100
AcDbProxyObject
 90
      499
 91
      501
 93
      428
310
42529A5D1D195C93D999914409028333333333333E33F0000000000000F9010790141107004050150A41D405064090741402480A0350
1001
ACAD
1000
AcDbSavedByObjectVersion
1070
     0
  0
ACAD_PROXY_OBJECT
  5
38
102
{ACAD_REACTORS
330
2A
102
}
330
2A
100
AcDbProxyObject
 90
      499
 91
      501
 93
      444
310
42D31A5B995C185D1D195C9B90E409028333333333333E33F0000000000000F9010790141107004050750841D405064090741402483A0350
1001
ACAD
1000
AcDbSavedByObjectVersion
1070
     0
  0
ACAD_PROXY_OBJECT
  5
3C
102
{ACAD_REACTORS
330
2A
102
}
330
2A
100
AcDbProxyObject
 90
      499
 91
      501
 93
      444
310
42D3DD995C9A185B99D3D999915409028333333333333E33F0000000000000F9010790141107004050150941D405064090741402480A0350
1001
ACAD
1000
AcDbSavedByObjectVersion
1070
     0
  0
ACAD_PROXY_OBJECT
  5
33
102
{ACAD_REACTORS
330
2A
102
}
330
2A
100
AcDbProxyObject
 90
      499
 91
      501
 93
      428
310
425499585B1A5CDD1A58D08409038333333333333E33F0000000000000F9010740A907004050150800405405064090740C02480A1B40
1001
ACAD
1000
AcDbSavedByObjectVersion
1070
     0
  0
ACAD_PROXY_OBJECT
  5
42
102
{ACAD_REACTORS
330
2A
102
}
330
2A
100
AcDbProxyObject
 90
      499
 91
      501
 93
      420
310
4194DA1859195911B40902404333333333333E33F0000000000000F9010740A41107004050150800405405064090840C02480A0B40
1001
ACAD
1000
AcDbSavedByObjectVersion
1070
     0
  0
ACAD_PROXY_OBJECT
  5
41
102
{ACAD_REACTORS
330
2A
102
}
330
2A
100
AcDbProxyObject
 90
      499
 91
      501
 93
      516
310
4454DA18591959081DDA5D1A08195919D95CD1A40902404333333333333E33F0000000000000F901074090142907004050250800405405064090740C02480A0B40
1001
ACAD
1000
AcDbSavedByObjectVersion
1070
     0
  0
ACAD_PROXY_OBJECT
  5
3E
102
{ACAD_REACTORS
330
2A
102
}
330
2A
100
AcDbProxyObject
 90
      499
 91
      501
 93
      532
310
4394DA1859195CC81BD98811DC985E5174090240C333333333333E33F0000000000000F901079024090741D01000000000000111010841D405064090740C02480A0340
1001
ACAD
1000
AcDbSavedByObjectVersion
1070
     0
  0
ACAD_PROXY_OBJECT
  5
3F
102
{ACAD_REACTORS
330
2A
102
}
330
2A
100
AcDbProxyObject
 90
      499
 91
      501
 93
      476
310
41D4DAD95D18DA1E51840502408333333333333E33F0000000000000F901079024090741D01000000000000111010B41D405064090741802480A0340
1001
ACAD
1000
AcDbSavedByObjectVersion
1070
     0
  0
ACAD_PROXY_OBJECT
  5
37
102
{ACAD_REACTORS
330
2A
102
}
330
2A
100
AcDbProxyObject
 90
      499
 91
      501
 93
      412
310
41D51A1A58DAD95B90D409028333333333333E33F0000000000000F9010790141107004050150C41D405064090741402480A0350
1001
ACAD
1000
AcDbSavedByObjectVersion
1070
     0
  0
ACAD_PROXY_OBJECT
  5
30
102
{ACAD_REACTORS
330
2A
102
}
330
2A
100
AcDbProxyObject
 90
      499
 91
      501
 93
      420
310
4255DA5C99599C985B595059028333333333333E33F0000000000000F90107901411070040501600405405064090740C02480A0340
1001
ACAD
1000
AcDbSavedByObjectVersion
1070
     0
  0
ACAD_PROXY_OBJECT
  5
40
102
{ACAD_REACTORS
330
2A
102
}
330
2A
100
AcDbProxyObject
 90
      499
 91
      501
 93
      404
310
41560B54985E51940902404000000000000E03F0000000000000F9010740501907004050150841D405064090740C02480A1B40
1001
ACAD
1000
AcDbSavedByObjectVersion
1070
     0
  0
XRECORD
  5
44F
102
{ACAD_REACTORS
330
445
102
}
330
445
100
AcDbXrecord
340
0
  0
XRECORD
  5
44E
102
{ACAD_REACTORS
330
445
102
}
330
445
100
AcDbXrecord
 90
        0
  0
XRECORD
  5
465
102
{ACAD_REACTORS
330
445
102
}
330
445
100
AcDbXrecord
1000
DSTYLE
1002
{
1070
   340
340
11
1002
}
  0
XRECORD
  5
450
102
{ACAD_REACTORS
330
445
102
}
330
445
100
AcDbXrecord
  1
{65410fa9-3dc3-44b2-90b5-36314aed3da3}
  0
XRECORD
  5
448
102
{ACAD_REACTORS
330
445
102
}
330
445
100
AcDbXrecord
  1

  0
XRECORD
  5
44D
102
{ACAD_REACTORS
330
445
102
}
330
445
100
AcDbXrecord
 90
        4
  0
XRECORD
  5
44A
102
{ACAD_REACTORS
330
445
102
}
330
445
100
AcDbXrecord
340
1A
  0
XRECORD
  5
44C
102
{ACAD_REACTORS
330
445
102
}
330
445
100
AcDbXrecord
 90
    10781
  0
XRECORD
  5
44B
102
{ACAD_REACTORS
330
445
102
}
330
445
100
AcDbXrecord
340
19
  0
XRECORD
  5
452
102
{ACAD_REACTORS
330
445
102
}
330
445
100
AcDbXrecord
 40
0.0
  0
XRECORD
  5
455
102
{ACAD_REACTORS
330
445
102
}
330
445
100
AcDbXrecord
340
0
  0
XRECORD
  5
45B
102
{ACAD_REACTORS
330
445
102
}
330
445
100
AcDbXrecord
 10
0.0
 20
0.0
 30
0.0
  0
XRECORD
  5
457
102
{ACAD_REACTORS
330
445
102
}
330
445
100
AcDbXrecord
 10
0.0
 20
0.0
 30
0.0
  0
XRECORD
  5
45A
102
{ACAD_REACTORS
330
445
102
}
330
445
100
AcDbXrecord
 10
0.0
 20
0.0
 30
0.0
  0
XRECORD
  5
458
102
{ACAD_REACTORS
330
445
102
}
330
445
100
AcDbXrecord
 10
0.0
 20
0.0
 30
0.0
  0
XRECORD
  5
459
102
{ACAD_REACTORS
330
445
102
}
330
445
100
AcDbXrecord
 10
0.0
 20
0.0
 30
0.0
  0
XRECORD
  5
456
102
{ACAD_REACTORS
330
445
102
}
330
445
100
AcDbXrecord
 10
0.0
 20
0.0
 30
0.0
  0
XRECORD
  5
453
102
{ACAD_REACTORS
330
445
102
}
330
445
100
AcDbXrecord
340
0
  0
XRECORD
  5
454
102
{ACAD_REACTORS
330
445
102
}
330
445
100
AcDbXrecord
 70
     0
  0
XRECORD
  5
449
102
{ACAD_REACTORS
330
445
102
}
330
445
100
AcDbXrecord
  1

  0
XRECORD
  5
446
102
{ACAD_REACTORS
330
445
102
}
330
445
100
AcDbXrecord
 90
        1
  0
XRECORD
  5
447
102
{ACAD_REACTORS
330
445
102
}
330
445
100
AcDbXrecord
 90
       70
  0
XRECORD
  5
45E
102
{ACAD_REACTORS
330
445
102
}
330
445
100
AcDbXrecord
340
0
  0
XRECORD
  5
464
102
{ACAD_REACTORS
330
445
102
}
330
445
100
AcDbXrecord
 10
0.0
 20
0.0
 30
0.0
  0
XRECORD
  5
460
102
{ACAD_REACTORS
330
445
102
}
330
445
100
AcDbXrecord
 10
0.0
 20
0.0
 30
0.0
  0
XRECORD
  5
463
102
{ACAD_REACTORS
330
445
102
}
330
445
100
AcDbXrecord
 10
0.0
 20
0.0
 30
0.0
  0
XRECORD
  5
461
102
{ACAD_REACTORS
330
445
102
}
330
445
100
AcDbXrecord
 10
0.0
 20
0.0
 30
0.0
  0
XRECORD
  5
462
102
{ACAD_REACTORS
330
445
102
}
330
445
100
AcDbXrecord
 10
0.0
 20
0.0
 30
0.0
  0
XRECORD
  5
45F
102
{ACAD_REACTORS
330
445
102
}
330
445
100
AcDbXrecord
 10
0.0
 20
0.0
 30
0.0
  0
XRECORD
  5
45C
102
{ACAD_REACTORS
330
445
102
}
330
445
100
AcDbXrecord
340
0
  0
XRECORD
  5
45D
102
{ACAD_REACTORS
330
445
102
}
330
445
100
AcDbXrecord
 70
     0
  0
XRECORD
  5
451
102
{ACAD_REACTORS
330
445
102
}
330
445
100
AcDbXrecord
  1
{FAEB1C32-E019-11D5-929B-00C0DF256EC4}
  0
DICTIONARYVAR
  5
473
102
{ACAD_REACTORS
330
466
102
}
330
466
100
DictionaryVariables
280
     0
  1
1:1
  0
DICTIONARYVAR
  5
46D
102
{ACAD_REACTORS
330
466
102
}
330
466
100
DictionaryVariables
280
     0
  1
3.500000
  0
DICTIONARYVAR
  5
46E
102
{ACAD_REACTORS
330
466
102
}
330
466
100
DictionaryVariables
280
     0
  1
acadiso.lin
  0
DICTIONARYVAR
  5
468
102
{ACAD_REACTORS
330
466
102
}
330
466
100
DictionaryVariables
280
     0
  1
Standard
  0
DICTIONARYVAR
  5
467
102
{ACAD_REACTORS
330
466
102
}
330
466
100
DictionaryVariables
280
     0
  1
Standard
  0
DICTIONARYVAR
  5
46F
102
{ACAD_REACTORS
330
466
102
}
330
466
100
DictionaryVariables
280
     0
  1
2
  0
DICTIONARYVAR
  5
470
102
{ACAD_REACTORS
330
466
102
}
330
466
100
DictionaryVariables
280
     0
  1
1
  0
DICTIONARYVAR
  5
474
102
{ACAD_REACTORS
330
466
102
}
330
466
100
DictionaryVariables
280
     0
  1
1
  0
DICTIONARYVAR
  5
46A
102
{ACAD_REACTORS
330
466
102
}
330
466
100
DictionaryVariables
280
     0
  1
80.000000
  0
DICTIONARYVAR
  5
469
102
{ACAD_REACTORS
330
466
102
}
330
466
100
DictionaryVariables
280
     0
  1
5.000000
  0
DICTIONARY
  5
477
330
45
100
AcDbDictionary
280
     1
  3
ACAD_XREC_ROUNDTRIP
360
478
  0
DICTIONARY
  5
475
330
44
100
AcDbDictionary
280
     1
  3
ACAD_XREC_ROUNDTRIP
360
476
  0
DICTIONARY
  5
479
330
46
100
AcDbDictionary
280
     1
  3
ACAD_XREC_ROUNDTRIP
360
47A
  0
XRECORD
  5
478
102
{ACAD_REACTORS
330
477
102
}
330
477
100
AcDbXrecord
102
MATERIAL
148
0.0
149
0.0
149
0.0
 93
        0
 94
      127
282
     0
 72
     1
 77
     1
171
     1
175
     1
179
     1
273
     0
  0
XRECORD
  5
476
102
{ACAD_REACTORS
330
475
102
}
330
475
100
AcDbXrecord
102
MATERIAL
148
0.0
149
0.0
149
0.0
 93
        0
 94
      127
282
     0
 72
     1
 77
     1
171
     1
175
     1
179
     1
273
     0
  0
XRECORD
  5
47A
102
{ACAD_REACTORS
330
479
102
}
330
479
100
AcDbXrecord
102
MATERIAL
148
0.0
149
0.0
149
0.0
 93
        0
 94
      127
282
     0
 72
     1
 77
     1
171
     1
175
     1
179
     1
273
     0
  0
ENDSEC
  0
EOF
