  0
SECTION
  2
HEADER
  9
$ACADVER
  1
AC1014
  9
$ACADMAINTVER
 70
     9
  9
$DWGCODEPAGE
  3
ANSI_932
  9
$INSBASE
 10
0.0
 20
0.0
 30
0.0
  9
$EXTMIN
 10
15.0
 20
30.0
 30
0.0
  9
$EXTMAX
 10
1155.0
 20
840.0
 30
0.0
  9
$LIMMIN
 10
0.0
 20
0.0
  9
$LIMMAX
 10
420.0
 20
297.0
  9
$ORTHOMODE
 70
     0
  9
$REGENMODE
 70
     1
  9
$FILLMODE
 70
     1
  9
$QTEXTMODE
 70
     0
  9
$MIRRTEXT
 70
     1
  9
$DRAGMODE
 70
     2
  9
$LTSCALE
 40
0.2
  9
$OSMODE
 70
    37
  9
$ATTMODE
 70
     1
  9
$TEXTSIZE
 40
2.5
  9
$TRACEWID
 40
1.0
  9
$TEXTSTYLE
  7
STANDARD
  9
$CLAYER
  8
LAY-10
  9
$CELTYPE
  6
BYLAYER
  9
$CECOLOR
 62
   256
  9
$CELTSCALE
 40
1.0
  9
$DELOBJ
 70
     1
  9
$DISPSILH
 70
     0
  9
$DIMSCALE
 40
1.0
  9
$DIMASZ
 40
2.5
  9
$DIMEXO
 40
0.625
  9
$DIMDLI
 40
3.75
  9
$DIMRND
 40
0.0
  9
$DIMDLE
 40
0.0
  9
$DIMEXE
 40
1.25
  9
$DIMTP
 40
0.0
  9
$DIMTM
 40
0.0
  9
$DIMTXT
 40
2.5
  9
$DIMCEN
 40
2.5
  9
$DIMTSZ
 40
0.0
  9
$DIMTOL
 70
     0
  9
$DIMLIM
 70
     0
  9
$DIMTIH
 70
     0
  9
$DIMTOH
 70
     0
  9
$DIMSE1
 70
     0
  9
$DIMSE2
 70
     0
  9
$DIMTAD
 70
     1
  9
$DIMZIN
 70
     8
  9
$DIMBLK
  1

  9
$DIMASO
 70
     1
  9
$DIMSHO
 70
     1
  9
$DIMPOST
  1

  9
$DIMAPOST
  1

  9
$DIMALT
 70
     0
  9
$DIMALTD
 70
     3
  9
$DIMALTF
 40
0.03937007874016
  9
$DIMLFAC
 40
1.0
  9
$DIMTOFL
 70
     1
  9
$DIMTVP
 40
0.0
  9
$DIMTIX
 70
     0
  9
$DIMSOXD
 70
     0
  9
$DIMSAH
 70
     0
  9
$DIMBLK1
  1

  9
$DIMBLK2
  1

  9
$DIMSTYLE
  2
ISO-25
  9
$DIMCLRD
 70
     0
  9
$DIMCLRE
 70
     0
  9
$DIMCLRT
 70
     0
  9
$DIMTFAC
 40
1.0
  9
$DIMGAP
 40
0.625
  9
$DIMJUST
 70
     0
  9
$DIMSD1
 70
     0
  9
$DIMSD2
 70
     0
  9
$DIMTOLJ
 70
     0
  9
$DIMTZIN
 70
     8
  9
$DIMALTZ
 70
     0
  9
$DIMALTTZ
 70
     0
  9
$DIMFIT
 70
     3
  9
$DIMUPT
 70
     0
  9
$DIMUNIT
 70
     2
  9
$DIMDEC
 70
     2
  9
$DIMTDEC
 70
     2
  9
$DIMALTU
 70
     2
  9
$DIMALTTD
 70
     3
  9
$DIMTXSTY
  7
STANDARD
  9
$DIMAUNIT
 70
     0
  9
$LUNITS
 70
     2
  9
$LUPREC
 70
     4
  9
$SKETCHINC
 40
1.0
  9
$FILLETRAD
 40
10.0
  9
$AUNITS
 70
     0
  9
$AUPREC
 70
     0
  9
$MENU
  1
.
  9
$ELEVATION
 40
0.0
  9
$PELEVATION
 40
0.0
  9
$THICKNESS
 40
0.0
  9
$LIMCHECK
 70
     0
  9
$CHAMFERA
 40
0.0
  9
$CHAMFERB
 40
0.0
  9
$CHAMFERC
 40
0.0
  9
$CHAMFERD
 40
0.0
  9
$SKPOLY
 70
     0
  9
$TDCREATE
 40
2459229.337138947
  9
$TDUPDATE
 40
2459229.337139444
  9
$TDINDWG
 40
0.0000000116
  9
$TDUSRTIMER
 40
0.0000000116
  9
$USRTIMER
 70
     1
  9
$ANGBASE
 50
0.0
  9
$ANGDIR
 70
     0
  9
$PDMODE
 70
     0
  9
$PDSIZE
 40
0.0
  9
$PLINEWID
 40
0.0
  9
$COORDS
 70
     1
  9
$SPLFRAME
 70
     0
  9
$SPLINETYPE
 70
     6
  9
$SPLINESEGS
 70
     8
  9
$ATTDIA
 70
     0
  9
$ATTREQ
 70
     1
  9
$HANDLING
 70
     1
  9
$HANDSEED
  5
49F
  9
$SURFTAB1
 70
     6
  9
$SURFTAB2
 70
     6
  9
$SURFTYPE
 70
     6
  9
$SURFU
 70
     6
  9
$SURFV
 70
     6
  9
$UCSNAME
  2

  9
$UCSORG
 10
0.0
 20
0.0
 30
0.0
  9
$UCSXDIR
 10
1.0
 20
0.0
 30
0.0
  9
$UCSYDIR
 10
0.0
 20
1.0
 30
0.0
  9
$PUCSNAME
  2

  9
$PUCSORG
 10
0.0
 20
0.0
 30
0.0
  9
$PUCSXDIR
 10
1.0
 20
0.0
 30
0.0
  9
$PUCSYDIR
 10
0.0
 20
1.0
 30
0.0
  9
$USERI1
 70
     0
  9
$USERI2
 70
     0
  9
$USERI3
 70
     0
  9
$USERI4
 70
     0
  9
$USERI5
 70
     0
  9
$USERR1
 40
0.0
  9
$USERR2
 40
0.0
  9
$USERR3
 40
0.0
  9
$USERR4
 40
0.0
  9
$USERR5
 40
0.0
  9
$WORLDVIEW
 70
     1
  9
$SHADEDGE
 70
     3
  9
$SHADEDIF
 70
    70
  9
$TILEMODE
 70
     1
  9
$MAXACTVP
 70
    64
  9
$PINSBASE
 10
0.0
 20
0.0
 30
0.0
  9
$PLIMCHECK
 70
     0
  9
$PEXTMIN
 10
1.000000000000000E+20
 20
1.000000000000000E+20
 30
1.000000000000000E+20
  9
$PEXTMAX
 10
-1.000000000000000E+20
 20
-1.000000000000000E+20
 30
-1.000000000000000E+20
  9
$PLIMMIN
 10
0.0
 20
0.0
  9
$PLIMMAX
 10
420.0
 20
297.0
  9
$UNITMODE
 70
     0
  9
$VISRETAIN
 70
     1
  9
$PLINEGEN
 70
     0
  9
$PSLTSCALE
 70
     1
  9
$TREEDEPTH
 70
  3020
  9
$PICKSTYLE
 70
     1
  9
$CMLSTYLE
  2
STANDARD
  9
$CMLJUST
 70
     0
  9
$CMLSCALE
 40
20.0
  9
$PROXYGRAPHICS
 70
     1
  9
$MEASUREMENT
 70
     1
  0
ENDSEC
  0
SECTION
  2
CLASSES
  0
CLASS
  1
ACDBDICTIONARYWDFLT
  2
AcDbDictionaryWithDefault
  3
ObjectDBX Classes
 90
        0
280
     0
281
     0
  0
CLASS
  1
VISUALSTYLE
  2
AcDbVisualStyle
  3
ObjectDBX Classes
 90
     4095
280
     0
281
     0
  0
CLASS
  1
MATERIAL
  2
AcDbMaterial
  3
ObjectDBX Classes
 90
     1153
280
     0
281
     0
  0
CLASS
  1
SCALE
  2
AcDbScale
  3
ObjectDBX Classes
 90
     1153
280
     0
281
     0
  0
CLASS
  1
TABLESTYLE
  2
AcDbTableStyle
  3
ObjectDBX Classes
 90
     4095
280
     0
281
     0
  0
CLASS
  1
MLEADERSTYLE
  2
AcDbMLeaderStyle
  3
ACDB_MLEADERSTYLE_CLASS
 90
     4095
280
     0
281
     0
  0
CLASS
  1
SUN
  2
AcDbSun
  3
SCENEOE
 90
     1153
280
     0
281
     0
  0
CLASS
  1
DICTIONARYVAR
  2
AcDbDictionaryVar
  3
ObjectDBX Classes
 90
        0
280
     0
281
     0
  0
CLASS
  1
XRECORD
  2
AcDbXrecord
  3
ObjectDBX Classes
 90
        0
280
     0
281
     0
  0
CLASS
  1
LWPOLYLINE
  2
AcDbPolyline
  3
ObjectDBX Classes
 90
        0
280
     0
281
     1
  0
CLASS
  1
HATCH
  2
AcDbHatch
  3
ObjectDBX Classes
 90
        0
280
     0
281
     1
  0
CLASS
  1
ACDBPLACEHOLDER
  2
AcDbPlaceHolder
  3
ObjectDBX Classes
 90
        0
280
     0
281
     0
  0
CLASS
  1
LAYOUT
  2
AcDbLayout
  3
ObjectDBX Classes
 90
        0
280
     0
281
     0
  0
ENDSEC
  0
SECTION
  2
TABLES
  0
TABLE
  2
VPORT
  5
8
102
{ACAD_XDICTIONARY
360
494
102
}
330
0
100
AcDbSymbolTable
 70
     1
  0
VPORT
  5
29
330
8
100
AcDbSymbolTableRecord
100
AcDbViewportTableRecord
  2
*ACTIVE
 70
     0
 10
0.0
 20
0.0
 11
1.0
 21
1.0
 12
585.0000000000001
 22
435.0
 13
0.0
 23
0.0
 14
10.0
 24
10.0
 15
10.0
 25
10.0
 16
0.0
 26
0.0
 36
1.0
 17
0.0
 27
0.0
 37
0.0
 40
810.0
 41
1.407407407407408
 42
50.0
 43
0.0
 44
0.0
 50
0.0
 51
0.0
 71
     0
 72
  1000
 73
     1
 74
     3
 75
     0
 76
     0
 77
     0
 78
     0
  0
ENDTAB
  0
TABLE
  2
LTYPE
  5
5
330
0
100
AcDbSymbolTable
 70
     6
  0
LTYPE
  5
14
330
5
100
AcDbSymbolTableRecord
100
AcDbLinetypeTableRecord
  2
BYBLOCK
 70
     0
  3

 72
    65
 73
     0
 40
0.0
  0
LTYPE
  5
15
330
5
100
AcDbSymbolTableRecord
100
AcDbLinetypeTableRecord
  2
BYLAYER
 70
     0
  3

 72
    65
 73
     0
 40
0.0
  0
LTYPE
  5
16
330
5
100
AcDbSymbolTableRecord
100
AcDbLinetypeTableRecord
  2
CONTINUOUS
 70
     0
  3
Solid line
 72
    65
 73
     0
 40
0.0
  0
LTYPE
  5
6E
330
5
100
AcDbSymbolTableRecord
100
AcDbLinetypeTableRecord
  2
HIDDEN
 70
     0
  3
Hidden __ __ __ __ __ __ __ __ __ __ __ __ __ __
 72
    65
 73
     2
 40
9.524999999999999
 49
6.35
 74
     0
 49
-3.175
 74
     0
  0
LTYPE
  5
6F
330
5
100
AcDbSymbolTableRecord
100
AcDbLinetypeTableRecord
  2
CENTER
 70
     0
  3
Center ____ _ ____ _ ____ _ ____ _ ____ _ ____
 72
    65
 73
     4
 40
50.8
 49
31.75
 74
     0
 49
-6.35
 74
     0
 49
6.35
 74
     0
 49
-6.35
 74
     0
  0
LTYPE
  5
70
330
5
100
AcDbSymbolTableRecord
100
AcDbLinetypeTableRecord
  2
PHANTOM
 70
     0
  3
Phantom ______  __  __  ______  __  __  ______ 
 72
    65
 73
     6
 40
63.50000000000001
 49
31.75
 74
     0
 49
-6.35
 74
     0
 49
6.35
 74
     0
 49
-6.35
 74
     0
 49
6.35
 74
     0
 49
-6.35
 74
     0
  0
LTYPE
  5
71
330
5
100
AcDbSymbolTableRecord
100
AcDbLinetypeTableRecord
  2
ACAD_ISO06W100
 70
     0
  3
ISO long-dash triple-dot ____ ... ____ ... ____
 72
    65
 73
     8
 40
36.0
 49
24.0
 74
     0
 49
-3.0
 74
     0
 49
0.0
 74
     0
 49
-3.0
 74
     0
 49
0.0
 74
     0
 49
-3.0
 74
     0
 49
0.0
 74
     0
 49
-3.0
 74
     0
  0
LTYPE
  5
72
330
5
100
AcDbSymbolTableRecord
100
AcDbLinetypeTableRecord
  2
ACAD_ISO15W100
 70
     0
  3
ISO double-dash triple-dot __ __ . . . __ __ . .
 72
    65
 73
    10
 40
39.0
 49
12.0
 74
     0
 49
-3.0
 74
     0
 49
12.0
 74
     0
 49
-3.0
 74
     0
 49
0.0
 74
     0
 49
-3.0
 74
     0
 49
0.0
 74
     0
 49
-3.0
 74
     0
 49
0.0
 74
     0
 49
-3.0
 74
     0
  0
ENDTAB
  0
TABLE
  2
LAYER
  5
2
330
0
100
AcDbSymbolTable
 70
     5
  0
LAYER
  5
10
330
2
100
AcDbSymbolTableRecord
100
AcDbLayerTableRecord
  2
0
 70
     0
 62
     7
  6
CONTINUOUS
  0
LAYER
  5
75
330
2
100
AcDbSymbolTableRecord
100
AcDbLayerTableRecord
  2
LAY-10
 70
     0
 62
     7
  6
CONTINUOUS
  0
LAYER
  5
76
330
2
100
AcDbSymbolTableRecord
100
AcDbLayerTableRecord
  2
LAY-20
 70
     0
 62
     7
  6
CONTINUOUS
  0
LAYER
  5
77
330
2
100
AcDbSymbolTableRecord
100
AcDbLayerTableRecord
  2
LAY-255
 70
     0
 62
     7
  6
CONTINUOUS
  0
LAYER
  5
3CA
330
2
100
AcDbSymbolTableRecord
100
AcDbLayerTableRecord
  2
DEFPOINTS
 70
     0
 62
     7
  6
CONTINUOUS
  0
ENDTAB
  0
TABLE
  2
STYLE
  5
3
330
0
100
AcDbSymbolTable
 70
     4
  0
STYLE
  5
11
330
3
100
AcDbSymbolTableRecord
100
AcDbTextStyleTableRecord
  2
STANDARD
 70
     0
 40
0.0
 41
1.0
 50
0.0
 71
     0
 42
2.5
  3
simplex
  4
bigfont
  0
STYLE
  5
73
330
3
100
AcDbSymbolTableRecord
100
AcDbTextStyleTableRecord
  2
EXCADSTD
 70
     0
 40
0.0
 41
1.0
 50
0.0
 71
     0
 42
2.5
  3
simplex
  4
bigfont
  0
STYLE
  5
74
330
3
100
AcDbSymbolTableRecord
100
AcDbTextStyleTableRecord
  2
EXCADVERT
 70
     4
 40
0.0
 41
1.0
 50
0.0
 71
     0
 42
2.5
  3
simplex
  4
bigfont
  0
STYLE
  5
3C8
330
3
100
AcDbSymbolTableRecord
100
AcDbTextStyleTableRecord
  2
EXCADDIM1
 70
     0
 40
0.0
 41
0.84
 50
0.0
 71
     0
 42
2.5
  3
simplex
  4
bigfont
  0
ENDTAB
  0
TABLE
  2
VIEW
  5
6
330
0
100
AcDbSymbolTable
 70
     0
  0
ENDTAB
  0
TABLE
  2
UCS
  5
7
330
0
100
AcDbSymbolTable
 70
     0
  0
ENDTAB
  0
TABLE
  2
APPID
  5
9
330
0
100
AcDbSymbolTable
 70
     2
  0
APPID
  5
12
330
9
100
AcDbSymbolTableRecord
100
AcDbRegAppTableRecord
  2
ACAD
 70
     0
  0
APPID
  5
49E
330
9
100
AcDbSymbolTableRecord
100
AcDbRegAppTableRecord
  2
ACAD_MLEADERVER
 70
     0
  0
ENDTAB
  0
TABLE
  2
DIMSTYLE
  5
A
330
0
100
AcDbSymbolTable
 70
     1
  0
DIMSTYLE
105
27
102
{ACAD_REACTORS
330
3C9
330
3D7
330
3E4
330
3F1
330
3FE
330
40B
330
418
330
425
330
431
102
}
330
A
100
AcDbSymbolTableRecord
100
AcDbDimStyleTableRecord
  2
ISO-25
 70
     0
  3

  4

  5

  6

  7

 40
1.0
 41
2.5
 42
0.625
 43
3.75
 44
1.25
 45
0.0
 46
0.0
 47
0.0
 48
0.0
140
2.5
141
2.5
142
0.0
143
0.03937007874016
144
1.0
145
0.0
146
1.0
147
0.625
 71
     0
 72
     0
 73
     0
 74
     0
 75
     0
 76
     0
 77
     1
 78
     8
170
     0
171
     3
172
     1
173
     0
174
     0
175
     0
176
     0
177
     0
178
     0
270
     2
271
     2
272
     2
273
     2
274
     3
340
11
275
     0
280
     0
281
     0
282
     0
283
     0
284
     8
285
     0
286
     0
287
     5
288
     0
  0
ENDTAB
  0
TABLE
  2
BLOCK_RECORD
  5
1
330
0
100
AcDbSymbolTable
 70
    23
  0
BLOCK_RECORD
  5
1F
330
1
100
AcDbSymbolTableRecord
100
AcDbBlockTableRecord
  2
*MODEL_SPACE
  0
BLOCK_RECORD
  5
1B
330
1
100
AcDbSymbolTableRecord
100
AcDbBlockTableRecord
  2
*PAPER_SPACE
  0
BLOCK_RECORD
  5
78
330
1
100
AcDbSymbolTableRecord
100
AcDbBlockTableRecord
  2
EX_NORM
  0
BLOCK_RECORD
  5
7B
330
1
100
AcDbSymbolTableRecord
100
AcDbBlockTableRecord
  2
EX_BNORM
  0
BLOCK_RECORD
  5
7E
330
1
100
AcDbSymbolTableRecord
100
AcDbBlockTableRecord
  2
EX_BCIR
  0
BLOCK_RECORD
  5
81
330
1
100
AcDbSymbolTableRecord
100
AcDbBlockTableRecord
  2
EX_RCIVIL
  0
BLOCK_RECORD
  5
84
330
1
100
AcDbSymbolTableRecord
100
AcDbBlockTableRecord
  2
EX_SLANT
  0
BLOCK_RECORD
  5
87
330
1
100
AcDbSymbolTableRecord
100
AcDbBlockTableRecord
  2
EX_NONE
  0
BLOCK_RECORD
  5
8A
330
1
100
AcDbSymbolTableRecord
100
AcDbBlockTableRecord
  2
EX_CIVIL
  0
BLOCK_RECORD
  5
8D
330
1
100
AcDbSymbolTableRecord
100
AcDbBlockTableRecord
  2
EX_WCIR
  0
BLOCK_RECORD
  5
90
330
1
100
AcDbSymbolTableRecord
100
AcDbBlockTableRecord
  2
EX_WCIR2
  0
BLOCK_RECORD
  5
93
330
1
100
AcDbSymbolTableRecord
100
AcDbBlockTableRecord
  2
EX_WNORM
  0
BLOCK_RECORD
  5
96
330
1
100
AcDbSymbolTableRecord
100
AcDbBlockTableRecord
  2
EX_NNORM
  0
BLOCK_RECORD
  5
99
330
1
100
AcDbSymbolTableRecord
100
AcDbBlockTableRecord
  2
EX_BBOX
  0
BLOCK_RECORD
  5
9C
330
1
100
AcDbSymbolTableRecord
100
AcDbBlockTableRecord
  2
EX_WBOX
  0
BLOCK_RECORD
  5
9F
330
1
100
AcDbSymbolTableRecord
100
AcDbBlockTableRecord
  2
EX_INTEGRAL
  0
BLOCK_RECORD
  5
3CB
330
1
100
AcDbSymbolTableRecord
100
AcDbBlockTableRecord
  2
*D15
  0
BLOCK_RECORD
  5
3D8
330
1
100
AcDbSymbolTableRecord
100
AcDbBlockTableRecord
  2
*D16
  0
BLOCK_RECORD
  5
3E5
330
1
100
AcDbSymbolTableRecord
100
AcDbBlockTableRecord
  2
*D17
  0
BLOCK_RECORD
  5
3F2
330
1
100
AcDbSymbolTableRecord
100
AcDbBlockTableRecord
  2
*D18
  0
BLOCK_RECORD
  5
3FF
330
1
100
AcDbSymbolTableRecord
100
AcDbBlockTableRecord
  2
*D19
  0
BLOCK_RECORD
  5
40C
330
1
100
AcDbSymbolTableRecord
100
AcDbBlockTableRecord
  2
*D20
  0
BLOCK_RECORD
  5
419
330
1
100
AcDbSymbolTableRecord
100
AcDbBlockTableRecord
  2
*D21
  0
BLOCK_RECORD
  5
426
330
1
100
AcDbSymbolTableRecord
100
AcDbBlockTableRecord
  2
*D22
  0
BLOCK_RECORD
  5
432
330
1
100
AcDbSymbolTableRecord
100
AcDbBlockTableRecord
  2
*D23
  0
ENDTAB
  0
ENDSEC
  0
SECTION
  2
BLOCKS
  0
BLOCK
  5
20
330
1F
100
AcDbEntity
  8
0
100
AcDbBlockBegin
  2
*MODEL_SPACE
 70
     0
 10
0.0
 20
0.0
 30
0.0
  3
*MODEL_SPACE
  1

  0
ENDBLK
  5
21
330
1F
100
AcDbEntity
  8
0
100
AcDbBlockEnd
  0
BLOCK
  5
1C
330
1B
100
AcDbEntity
 67
     1
  8
0
100
AcDbBlockBegin
  2
*PAPER_SPACE
 70
     0
 10
0.0
 20
0.0
 30
0.0
  3
*PAPER_SPACE
  1

  0
ENDBLK
  5
1D
330
1B
100
AcDbEntity
 67
     1
  8
0
100
AcDbBlockEnd
  0
BLOCK
  5
79
330
78
100
AcDbEntity
  8
0
100
AcDbBlockBegin
  2
EX_NORM
 70
     0
 10
0.0
 20
0.0
 30
0.0
  3
EX_NORM
  1

  0
LINE
  5
A2
330
78
100
AcDbEntity
  8
0
  6
CONTINUOUS
 62
     0
100
AcDbLine
 10
0.0
 20
0.0
 30
0.0
 11
-1.0
 21
0.0
 31
0.0
  0
LINE
  5
A3
330
78
100
AcDbEntity
  8
0
  6
CONTINUOUS
 62
     0
100
AcDbLine
 10
0.0
 20
0.0
 30
0.0
 11
-1.0
 21
0.166666667
 31
0.0
  0
LINE
  5
A4
330
78
100
AcDbEntity
  8
0
  6
CONTINUOUS
 62
     0
100
AcDbLine
 10
0.0
 20
0.0
 30
0.0
 11
-1.0
 21
-0.166666667
 31
0.0
  0
ENDBLK
  5
7A
330
78
100
AcDbEntity
  8
0
100
AcDbBlockEnd
  0
BLOCK
  5
7C
330
7B
100
AcDbEntity
  8
0
100
AcDbBlockBegin
  2
EX_BNORM
 70
     0
 10
0.0
 20
0.0
 30
0.0
  3
EX_BNORM
  1

  0
LINE
  5
A5
330
7B
100
AcDbEntity
  8
0
  6
CONTINUOUS
 62
     0
100
AcDbLine
 10
0.0
 20
0.0
 30
0.0
 11
-1.0
 21
0.0
 31
0.0
  0
LINE
  5
A6
330
7B
100
AcDbEntity
  8
0
  6
CONTINUOUS
 62
     0
100
AcDbLine
 10
0.0
 20
0.0
 30
0.0
 11
-1.0
 21
0.166666667
 31
0.0
  0
LINE
  5
A7
330
7B
100
AcDbEntity
  8
0
  6
CONTINUOUS
 62
     0
100
AcDbLine
 10
0.0
 20
0.0
 30
0.0
 11
-1.0
 21
-0.166666667
 31
0.0
  0
LINE
  5
A8
330
7B
100
AcDbEntity
  8
0
  6
CONTINUOUS
 62
     0
100
AcDbLine
 10
0.0
 20
0.0
 30
0.0
 11
-1.0
 21
0.083333333
 31
0.0
  0
LINE
  5
A9
330
7B
100
AcDbEntity
  8
0
  6
CONTINUOUS
 62
     0
100
AcDbLine
 10
0.0
 20
0.0
 30
0.0
 11
-1.0
 21
-0.083333333
 31
0.0
  0
LINE
  5
AA
330
7B
100
AcDbEntity
  8
0
  6
CONTINUOUS
 62
     0
100
AcDbLine
 10
-1.0
 20
0.166666667
 30
0.0
 11
-1.0
 21
-0.166666667
 31
0.0
  0
ENDBLK
  5
7D
330
7B
100
AcDbEntity
  8
0
100
AcDbBlockEnd
  0
BLOCK
  5
7F
330
7E
100
AcDbEntity
  8
0
100
AcDbBlockBegin
  2
EX_BCIR
 70
     0
 10
0.0
 20
0.0
 30
0.0
  3
EX_BCIR
  1

  0
LINE
  5
AB
330
7E
100
AcDbEntity
  8
0
  6
CONTINUOUS
 62
     0
100
AcDbLine
 10
0.0
 20
0.0
 30
0.0
 11
-1.0
 21
0.0
 31
0.0
  0
CIRCLE
  5
AC
330
7E
100
AcDbEntity
  8
0
  6
CONTINUOUS
 62
     0
100
AcDbCircle
 10
0.0
 20
0.0
 30
0.0
 40
0.5
  0
CIRCLE
  5
AD
330
7E
100
AcDbEntity
  8
0
  6
CONTINUOUS
 62
     0
100
AcDbCircle
 10
0.0
 20
0.0
 30
0.0
 40
0.25
  0
ENDBLK
  5
80
330
7E
100
AcDbEntity
  8
0
100
AcDbBlockEnd
  0
BLOCK
  5
82
330
81
100
AcDbEntity
  8
0
100
AcDbBlockBegin
  2
EX_RCIVIL
 70
     0
 10
0.0
 20
0.0
 30
0.0
  3
EX_RCIVIL
  1

  0
LINE
  5
AE
330
81
100
AcDbEntity
  8
0
  6
CONTINUOUS
 62
     0
100
AcDbLine
 10
0.0
 20
0.0
 30
0.0
 11
-1.0
 21
0.0
 31
0.0
  0
LINE
  5
AF
330
81
100
AcDbEntity
  8
0
  6
CONTINUOUS
 62
     0
100
AcDbLine
 10
-1.0
 20
-0.25
 30
0.0
 11
0.0
 21
-0.25
 31
0.0
  0
LINE
  5
B0
330
81
100
AcDbEntity
  8
0
  6
CONTINUOUS
 62
     0
100
AcDbLine
 10
-1.0
 20
-0.125
 30
0.0
 11
0.0
 21
-0.125
 31
0.0
  0
ENDBLK
  5
83
330
81
100
AcDbEntity
  8
0
100
AcDbBlockEnd
  0
BLOCK
  5
85
330
84
100
AcDbEntity
  8
0
100
AcDbBlockBegin
  2
EX_SLANT
 70
     0
 10
0.0
 20
0.0
 30
0.0
  3
EX_SLANT
  1

  0
LINE
  5
B1
330
84
100
AcDbEntity
  8
0
  6
CONTINUOUS
 62
     0
100
AcDbLine
 10
0.0
 20
0.0
 30
0.0
 11
-1.0
 21
0.0
 31
0.0
  0
LINE
  5
B2
330
84
100
AcDbEntity
  8
0
  6
CONTINUOUS
 62
     0
100
AcDbLine
 10
0.707106781
 20
0.707106781
 30
0.0
 11
-0.707106781
 21
-0.707106781
 31
0.0
  0
ENDBLK
  5
86
330
84
100
AcDbEntity
  8
0
100
AcDbBlockEnd
  0
BLOCK
  5
88
330
87
100
AcDbEntity
  8
0
100
AcDbBlockBegin
  2
EX_NONE
 70
     0
 10
0.0
 20
0.0
 30
0.0
  3
EX_NONE
  1

  0
LINE
  5
B3
330
87
100
AcDbEntity
  8
0
  6
CONTINUOUS
 62
     0
100
AcDbLine
 10
0.0
 20
0.0
 30
0.0
 11
-1.0
 21
0.0
 31
0.0
  0
ENDBLK
  5
89
330
87
100
AcDbEntity
  8
0
100
AcDbBlockEnd
  0
BLOCK
  5
8B
330
8A
100
AcDbEntity
  8
0
100
AcDbBlockBegin
  2
EX_CIVIL
 70
     0
 10
0.0
 20
0.0
 30
0.0
  3
EX_CIVIL
  1

  0
LINE
  5
B4
330
8A
100
AcDbEntity
  8
0
  6
CONTINUOUS
 62
     0
100
AcDbLine
 10
0.0
 20
0.0
 30
0.0
 11
-1.0
 21
0.0
 31
0.0
  0
LINE
  5
B5
330
8A
100
AcDbEntity
  8
0
  6
CONTINUOUS
 62
     0
100
AcDbLine
 10
-1.0
 20
0.25
 30
0.0
 11
0.0
 21
0.25
 31
0.0
  0
LINE
  5
B6
330
8A
100
AcDbEntity
  8
0
  6
CONTINUOUS
 62
     0
100
AcDbLine
 10
-1.0
 20
0.125
 30
0.0
 11
0.0
 21
0.125
 31
0.0
  0
ENDBLK
  5
8C
330
8A
100
AcDbEntity
  8
0
100
AcDbBlockEnd
  0
BLOCK
  5
8E
330
8D
100
AcDbEntity
  8
0
100
AcDbBlockBegin
  2
EX_WCIR
 70
     0
 10
0.0
 20
0.0
 30
0.0
  3
EX_WCIR
  1

  0
LINE
  5
B7
330
8D
100
AcDbEntity
  8
0
  6
CONTINUOUS
 62
     0
100
AcDbLine
 10
0.0
 20
0.0
 30
0.0
 11
-1.0
 21
0.0
 31
0.0
  0
CIRCLE
  5
B8
330
8D
100
AcDbEntity
  8
0
  6
CONTINUOUS
 62
     0
100
AcDbCircle
 10
0.0
 20
0.0
 30
0.0
 40
0.5
  0
ENDBLK
  5
8F
330
8D
100
AcDbEntity
  8
0
100
AcDbBlockEnd
  0
BLOCK
  5
91
330
90
100
AcDbEntity
  8
0
100
AcDbBlockBegin
  2
EX_WCIR2
 70
     0
 10
0.0
 20
0.0
 30
0.0
  3
EX_WCIR2
  1

  0
LINE
  5
B9
330
90
100
AcDbEntity
  8
0
  6
CONTINUOUS
 62
     0
100
AcDbLine
 10
-0.5
 20
0.0
 30
0.0
 11
-1.0
 21
0.0
 31
0.0
  0
CIRCLE
  5
BA
330
90
100
AcDbEntity
  8
0
  6
CONTINUOUS
 62
     0
100
AcDbCircle
 10
0.0
 20
0.0
 30
0.0
 40
0.5
  0
ENDBLK
  5
92
330
90
100
AcDbEntity
  8
0
100
AcDbBlockEnd
  0
BLOCK
  5
94
330
93
100
AcDbEntity
  8
0
100
AcDbBlockBegin
  2
EX_WNORM
 70
     0
 10
0.0
 20
0.0
 30
0.0
  3
EX_WNORM
  1

  0
LINE
  5
BB
330
93
100
AcDbEntity
  8
0
  6
CONTINUOUS
 62
     0
100
AcDbLine
 10
-1.0
 20
0.0
 30
0.0
 11
-1.0
 21
0.0
 31
0.0
  0
LINE
  5
BC
330
93
100
AcDbEntity
  8
0
  6
CONTINUOUS
 62
     0
100
AcDbLine
 10
0.0
 20
0.0
 30
0.0
 11
-1.0
 21
0.166666667
 31
0.0
  0
LINE
  5
BD
330
93
100
AcDbEntity
  8
0
  6
CONTINUOUS
 62
     0
100
AcDbLine
 10
0.0
 20
0.0
 30
0.0
 11
-1.0
 21
-0.166666667
 31
0.0
  0
LINE
  5
BE
330
93
100
AcDbEntity
  8
0
  6
CONTINUOUS
 62
     0
100
AcDbLine
 10
-1.0
 20
0.166666667
 30
0.0
 11
-1.0
 21
-0.166666667
 31
0.0
  0
ENDBLK
  5
95
330
93
100
AcDbEntity
  8
0
100
AcDbBlockEnd
  0
BLOCK
  5
97
330
96
100
AcDbEntity
  8
0
100
AcDbBlockBegin
  2
EX_NNORM
 70
     0
 10
0.0
 20
0.0
 30
0.0
  3
EX_NNORM
  1

  0
LINE
  5
BF
330
96
100
AcDbEntity
  8
0
  6
CONTINUOUS
 62
     0
100
AcDbLine
 10
0.0
 20
0.0
 30
0.0
 11
-1.0
 21
0.0
 31
0.0
  0
LINE
  5
C0
330
96
100
AcDbEntity
  8
0
  6
CONTINUOUS
 62
     0
100
AcDbLine
 10
0.0
 20
0.0
 30
0.0
 11
-1.0
 21
0.166666667
 31
0.0
  0
LINE
  5
C1
330
96
100
AcDbEntity
  8
0
  6
CONTINUOUS
 62
     0
100
AcDbLine
 10
0.0
 20
0.0
 30
0.0
 11
-1.0
 21
-0.166666667
 31
0.0
  0
LINE
  5
C2
330
96
100
AcDbEntity
  8
0
  6
CONTINUOUS
 62
     0
100
AcDbLine
 10
-1.0
 20
0.166666667
 30
0.0
 11
-1.0
 21
-0.166666667
 31
0.0
  0
ENDBLK
  5
98
330
96
100
AcDbEntity
  8
0
100
AcDbBlockEnd
  0
BLOCK
  5
9A
330
99
100
AcDbEntity
  8
0
100
AcDbBlockBegin
  2
EX_BBOX
 70
     0
 10
0.0
 20
0.0
 30
0.0
  3
EX_BBOX
  1

  0
LINE
  5
C3
330
99
100
AcDbEntity
  8
0
  6
CONTINUOUS
 62
     0
100
AcDbLine
 10
0.0
 20
0.0
 30
0.0
 11
-1.0
 21
0.0
 31
0.0
  0
LINE
  5
C4
330
99
100
AcDbEntity
  8
0
  6
CONTINUOUS
 62
     0
100
AcDbLine
 10
-0.5
 20
0.5
 30
0.0
 11
0.5
 21
0.5
 31
0.0
  0
LINE
  5
C5
330
99
100
AcDbEntity
  8
0
  6
CONTINUOUS
 62
     0
100
AcDbLine
 10
0.5
 20
0.5
 30
0.0
 11
0.5
 21
-0.5
 31
0.0
  0
LINE
  5
C6
330
99
100
AcDbEntity
  8
0
  6
CONTINUOUS
 62
     0
100
AcDbLine
 10
0.5
 20
-0.5
 30
0.0
 11
-0.5
 21
-0.5
 31
0.0
  0
LINE
  5
C7
330
99
100
AcDbEntity
  8
0
  6
CONTINUOUS
 62
     0
100
AcDbLine
 10
-0.5
 20
-0.5
 30
0.0
 11
-0.5
 21
0.5
 31
0.0
  0
LINE
  5
C8
330
99
100
AcDbEntity
  8
0
  6
CONTINUOUS
 62
     0
100
AcDbLine
 10
-0.25
 20
0.25
 30
0.0
 11
0.25
 21
0.25
 31
0.0
  0
LINE
  5
C9
330
99
100
AcDbEntity
  8
0
  6
CONTINUOUS
 62
     0
100
AcDbLine
 10
0.25
 20
0.25
 30
0.0
 11
0.25
 21
-0.25
 31
0.0
  0
LINE
  5
CA
330
99
100
AcDbEntity
  8
0
  6
CONTINUOUS
 62
     0
100
AcDbLine
 10
0.25
 20
-0.25
 30
0.0
 11
-0.25
 21
-0.25
 31
0.0
  0
LINE
  5
CB
330
99
100
AcDbEntity
  8
0
  6
CONTINUOUS
 62
     0
100
AcDbLine
 10
-0.25
 20
-0.25
 30
0.0
 11
-0.25
 21
0.25
 31
0.0
  0
ENDBLK
  5
9B
330
99
100
AcDbEntity
  8
0
100
AcDbBlockEnd
  0
BLOCK
  5
9D
330
9C
100
AcDbEntity
  8
0
100
AcDbBlockBegin
  2
EX_WBOX
 70
     0
 10
0.0
 20
0.0
 30
0.0
  3
EX_WBOX
  1

  0
LINE
  5
CC
330
9C
100
AcDbEntity
  8
0
  6
CONTINUOUS
 62
     0
100
AcDbLine
 10
-0.5
 20
0.0
 30
0.0
 11
-1.0
 21
0.0
 31
0.0
  0
LINE
  5
CD
330
9C
100
AcDbEntity
  8
0
  6
CONTINUOUS
 62
     0
100
AcDbLine
 10
-0.5
 20
0.5
 30
0.0
 11
0.5
 21
0.5
 31
0.0
  0
LINE
  5
CE
330
9C
100
AcDbEntity
  8
0
  6
CONTINUOUS
 62
     0
100
AcDbLine
 10
0.5
 20
0.5
 30
0.0
 11
0.5
 21
-0.5
 31
0.0
  0
LINE
  5
CF
330
9C
100
AcDbEntity
  8
0
  6
CONTINUOUS
 62
     0
100
AcDbLine
 10
0.5
 20
-0.5
 30
0.0
 11
-0.5
 21
-0.5
 31
0.0
  0
LINE
  5
D0
330
9C
100
AcDbEntity
  8
0
  6
CONTINUOUS
 62
     0
100
AcDbLine
 10
-0.5
 20
-0.5
 30
0.0
 11
-0.5
 21
0.5
 31
0.0
  0
ENDBLK
  5
9E
330
9C
100
AcDbEntity
  8
0
100
AcDbBlockEnd
  0
BLOCK
  5
A0
330
9F
100
AcDbEntity
  8
0
100
AcDbBlockBegin
  2
EX_INTEGRAL
 70
     0
 10
0.0
 20
0.0
 30
0.0
  3
EX_INTEGRAL
  1

  0
LINE
  5
D1
330
9F
100
AcDbEntity
  8
0
  6
CONTINUOUS
 62
     0
100
AcDbLine
 10
0.0
 20
0.0
 30
0.0
 11
-1.0
 21
0.0
 31
0.0
  0
ARC
  5
D2
330
9F
100
AcDbEntity
  8
0
  6
CONTINUOUS
 62
     0
100
AcDbCircle
 10
0.542115
 20
0.164992
 30
0.0
 40
0.56667
100
AcDbArc
 50
73.07249033629006
 51
196.9275130221199
  0
ARC
  5
D3
330
9F
100
AcDbEntity
  8
0
  6
CONTINUOUS
 62
     0
100
AcDbCircle
 10
-0.542115
 20
-0.164992
 30
0.0
 40
0.56667
100
AcDbArc
 50
253.0724869220464
 51
16.9275130559125
  0
ENDBLK
  5
A1
330
9F
100
AcDbEntity
  8
0
100
AcDbBlockEnd
  0
BLOCK
  5
3CC
330
3CB
100
AcDbEntity
  8
0
100
AcDbBlockBegin
  2
*D15
 70
     1
 10
0.0
 20
0.0
 30
0.0
  3
*D15
  1

  0
LINE
  5
3CE
330
3CB
100
AcDbEntity
  8
LAY-20
  6
CONTINUOUS
 62
     4
100
AcDbLine
 10
513.5
 20
265.6986412405309
 30
0.0
 11
513.5
 21
159.6986412405312
 31
0.0
  0
LINE
  5
3CF
330
3CB
100
AcDbEntity
  8
LAY-20
  6
CONTINUOUS
 62
     4
100
AcDbLine
 10
416.4961990465196
 20
265.8000000000147
 30
0.0
 11
416.4961990465196
 21
159.6986412405312
 31
0.0
  0
LINE
  5
3D0
330
3CB
100
AcDbEntity
  8
LAY-20
  6
CONTINUOUS
 62
     4
100
AcDbLine
 10
506.0
 20
164.1986412405312
 30
0.0
 11
423.9961990465196
 21
164.1986412405312
 31
0.0
  0
INSERT
  5
3D1
330
3CB
100
AcDbEntity
  8
LAY-20
 62
     4
100
AcDbBlockReference
  2
EX_BNORM
 10
513.5
 20
164.1986412405312
 30
0.0
 41
7.5
 42
7.5
 43
7.5
  0
INSERT
  5
3D2
330
3CB
100
AcDbEntity
  8
LAY-20
 62
     4
100
AcDbBlockReference
  2
EX_BNORM
 10
416.4961990465196
 20
164.1986412405312
 30
0.0
 41
7.5
 42
7.5
 43
7.5
 50
180.0
  0
MTEXT
  5
3D3
330
3CB
100
AcDbEntity
  8
LAY-20
 62
     7
100
AcDbMText
 10
464.9980995232598
 20
171.6986412405312
 30
0.0
 40
9.3543312
 41
0.0
 71
     5
 72
     1
  1
%%c97
  7
EXCADDIM1
  0
POINT
  5
3D4
330
3CB
100
AcDbEntity
  8
DEFPOINTS
 62
     0
100
AcDbPoint
 10
513.5
 20
270.1986412405309
 30
0.0
  0
POINT
  5
3D5
330
3CB
100
AcDbEntity
  8
DEFPOINTS
 62
     0
100
AcDbPoint
 10
416.4961990465196
 20
270.3000000000147
 30
0.0
  0
POINT
  5
3D6
330
3CB
100
AcDbEntity
  8
DEFPOINTS
 62
     0
100
AcDbPoint
 10
416.4961990465196
 20
164.1986412405312
 30
0.0
  0
ENDBLK
  5
3CD
330
3CB
100
AcDbEntity
  8
0
100
AcDbBlockEnd
  0
BLOCK
  5
3D9
330
3D8
100
AcDbEntity
  8
0
100
AcDbBlockBegin
  2
*D16
 70
     1
 10
0.0
 20
0.0
 30
0.0
  3
*D16
  1

  0
LINE
  5
3DB
330
3D8
100
AcDbEntity
  8
LAY-20
  6
CONTINUOUS
 62
     4
100
AcDbLine
 10
417.9999999999991
 20
225.6986412405306
 30
0.0
 11
417.9999999999991
 21
180.6986412405311
 31
0.0
  0
LINE
  5
3DC
330
3D8
100
AcDbEntity
  8
LAY-20
  6
CONTINUOUS
 62
     4
100
AcDbLine
 10
512.0000000000009
 20
225.6986412405306
 30
0.0
 11
512.0000000000009
 21
180.6986412405311
 31
0.0
  0
LINE
  5
3DD
330
3D8
100
AcDbEntity
  8
LAY-20
  6
CONTINUOUS
 62
     4
100
AcDbLine
 10
425.4999999999991
 20
185.1986412405311
 30
0.0
 11
504.5000000000009
 21
185.1986412405311
 31
0.0
  0
INSERT
  5
3DE
330
3D8
100
AcDbEntity
  8
LAY-20
 62
     4
100
AcDbBlockReference
  2
EX_BNORM
 10
417.9999999999991
 20
185.1986412405311
 30
0.0
 41
7.5
 42
7.5
 43
7.5
 50
180.0
  0
INSERT
  5
3DF
330
3D8
100
AcDbEntity
  8
LAY-20
 62
     4
100
AcDbBlockReference
  2
EX_BNORM
 10
512.0000000000009
 20
185.1986412405311
 30
0.0
 41
7.5
 42
7.5
 43
7.5
  0
MTEXT
  5
3E0
330
3D8
100
AcDbEntity
  8
LAY-20
 62
     7
100
AcDbMText
 10
465.0
 20
192.6986412405311
 30
0.0
 40
9.3543312
 41
0.0
 71
     5
 72
     1
  1
%%c94
  7
EXCADDIM1
  0
POINT
  5
3E1
330
3D8
100
AcDbEntity
  8
DEFPOINTS
 62
     0
100
AcDbPoint
 10
417.9999999999991
 20
230.1986412405306
 30
0.0
  0
POINT
  5
3E2
330
3D8
100
AcDbEntity
  8
DEFPOINTS
 62
     0
100
AcDbPoint
 10
512.0000000000009
 20
230.1986412405306
 30
0.0
  0
POINT
  5
3E3
330
3D8
100
AcDbEntity
  8
DEFPOINTS
 62
     0
100
AcDbPoint
 10
512.0000000000009
 20
185.1986412405311
 30
0.0
  0
ENDBLK
  5
3DA
330
3D8
100
AcDbEntity
  8
0
100
AcDbBlockEnd
  0
BLOCK
  5
3E6
330
3E5
100
AcDbEntity
  8
0
100
AcDbBlockBegin
  2
*D17
 70
     1
 10
0.0
 20
0.0
 30
0.0
  3
*D17
  1

  0
LINE
  5
3E8
330
3E5
100
AcDbEntity
  8
LAY-20
  6
CONTINUOUS
 62
     4
100
AcDbLine
 10
352.5
 20
292.6986412405304
 30
0.0
 11
352.5
 21
457.5
 31
0.0
  0
LINE
  5
3E9
330
3E5
100
AcDbEntity
  8
LAY-20
  6
CONTINUOUS
 62
     4
100
AcDbLine
 10
577.4999999999997
 20
292.6986412405304
 30
0.0
 11
577.4999999999997
 21
457.5
 31
0.0
  0
LINE
  5
3EA
330
3E5
100
AcDbEntity
  8
LAY-20
  6
CONTINUOUS
 62
     4
100
AcDbLine
 10
360.0
 20
453.0
 30
0.0
 11
569.9999999999997
 21
453.0
 31
0.0
  0
INSERT
  5
3EB
330
3E5
100
AcDbEntity
  8
LAY-20
 62
     4
100
AcDbBlockReference
  2
EX_BNORM
 10
352.5
 20
453.0
 30
0.0
 41
7.5
 42
7.5
 43
7.5
 50
180.0
  0
INSERT
  5
3EC
330
3E5
100
AcDbEntity
  8
LAY-20
 62
     4
100
AcDbBlockReference
  2
EX_BNORM
 10
577.4999999999997
 20
453.0
 30
0.0
 41
7.5
 42
7.5
 43
7.5
  0
MTEXT
  5
3ED
330
3E5
100
AcDbEntity
  8
LAY-20
 62
     7
100
AcDbMText
 10
464.9999999999998
 20
460.5
 30
0.0
 40
9.3543312
 41
0.0
 71
     5
 72
     1
  1
%%c225
  7
EXCADDIM1
  0
POINT
  5
3EE
330
3E5
100
AcDbEntity
  8
DEFPOINTS
 62
     0
100
AcDbPoint
 10
352.5
 20
288.1986412405304
 30
0.0
  0
POINT
  5
3EF
330
3E5
100
AcDbEntity
  8
DEFPOINTS
 62
     0
100
AcDbPoint
 10
577.4999999999997
 20
288.1986412405304
 30
0.0
  0
POINT
  5
3F0
330
3E5
100
AcDbEntity
  8
DEFPOINTS
 62
     0
100
AcDbPoint
 10
577.4999999999997
 20
453.0
 30
0.0
  0
ENDBLK
  5
3E7
330
3E5
100
AcDbEntity
  8
0
100
AcDbBlockEnd
  0
BLOCK
  5
3F3
330
3F2
100
AcDbEntity
  8
0
100
AcDbBlockBegin
  2
*D18
 70
     1
 10
0.0
 20
0.0
 30
0.0
  3
*D18
  1

  0
LINE
  5
3F5
330
3F2
100
AcDbEntity
  8
LAY-20
  6
CONTINUOUS
 62
     4
100
AcDbLine
 10
567.5000000000009
 20
302.4999999999998
 30
0.0
 11
567.5000000000009
 21
436.5
 31
0.0
  0
LINE
  5
3F6
330
3F2
100
AcDbEntity
  8
LAY-20
  6
CONTINUOUS
 62
     4
100
AcDbLine
 10
362.5
 20
302.4999999999998
 30
0.0
 11
362.5
 21
436.5
 31
0.0
  0
LINE
  5
3F7
330
3F2
100
AcDbEntity
  8
LAY-20
  6
CONTINUOUS
 62
     4
100
AcDbLine
 10
560.0000000000009
 20
432.0
 30
0.0
 11
370.0
 21
432.0
 31
0.0
  0
INSERT
  5
3F8
330
3F2
100
AcDbEntity
  8
LAY-20
 62
     4
100
AcDbBlockReference
  2
EX_BNORM
 10
567.5000000000009
 20
432.0
 30
0.0
 41
7.5
 42
7.5
 43
7.5
  0
INSERT
  5
3F9
330
3F2
100
AcDbEntity
  8
LAY-20
 62
     4
100
AcDbBlockReference
  2
EX_BNORM
 10
362.5
 20
432.0
 30
0.0
 41
7.5
 42
7.5
 43
7.5
 50
180.0
  0
MTEXT
  5
3FA
330
3F2
100
AcDbEntity
  8
LAY-20
 62
     7
100
AcDbMText
 10
465.0000000000005
 20
439.4999999999999
 30
0.0
 40
9.3543312
 41
0.0
 71
     5
 72
     1
  1
%%c205
  7
EXCADDIM1
  0
POINT
  5
3FB
330
3F2
100
AcDbEntity
  8
DEFPOINTS
 62
     0
100
AcDbPoint
 10
567.5000000000009
 20
297.9999999999998
 30
0.0
  0
POINT
  5
3FC
330
3F2
100
AcDbEntity
  8
DEFPOINTS
 62
     0
100
AcDbPoint
 10
362.5
 20
297.9999999999998
 30
0.0
  0
POINT
  5
3FD
330
3F2
100
AcDbEntity
  8
DEFPOINTS
 62
     0
100
AcDbPoint
 10
362.5
 20
432.0
 30
0.0
  0
ENDBLK
  5
3F4
330
3F2
100
AcDbEntity
  8
0
100
AcDbBlockEnd
  0
BLOCK
  5
400
330
3FF
100
AcDbEntity
  8
0
100
AcDbBlockBegin
  2
*D19
 70
     1
 10
0.0
 20
0.0
 30
0.0
  3
*D19
  1

  0
LINE
  5
402
330
3FF
100
AcDbEntity
  8
LAY-20
  6
CONTINUOUS
 62
     4
100
AcDbLine
 10
406.0220331182518
 20
364.5
 30
0.0
 11
406.0220331182518
 21
394.5
 31
0.0
  0
LINE
  5
403
330
3FF
100
AcDbEntity
  8
LAY-20
  6
CONTINUOUS
 62
     4
100
AcDbLine
 10
523.9779668817489
 20
364.5
 30
0.0
 11
523.9779668817489
 21
394.5
 31
0.0
  0
LINE
  5
404
330
3FF
100
AcDbEntity
  8
LAY-20
  6
CONTINUOUS
 62
     4
100
AcDbLine
 10
413.5220331182518
 20
390.0
 30
0.0
 11
516.4779668817489
 21
390.0
 31
0.0
  0
INSERT
  5
405
330
3FF
100
AcDbEntity
  8
LAY-20
 62
     4
100
AcDbBlockReference
  2
EX_BNORM
 10
406.0220331182518
 20
390.0
 30
0.0
 41
7.5
 42
7.5
 43
7.5
 50
180.0
  0
INSERT
  5
406
330
3FF
100
AcDbEntity
  8
LAY-20
 62
     4
100
AcDbBlockReference
  2
EX_BNORM
 10
523.9779668817489
 20
390.0
 30
0.0
 41
7.5
 42
7.5
 43
7.5
  0
MTEXT
  5
407
330
3FF
100
AcDbEntity
  8
LAY-20
 62
     7
100
AcDbMText
 10
465.0000000000003
 20
397.5
 30
0.0
 40
9.3543312
 41
0.0
 71
     5
 72
     1
  1
%%c118
  7
EXCADDIM1
  0
POINT
  5
408
330
3FF
100
AcDbEntity
  8
DEFPOINTS
 62
     0
100
AcDbPoint
 10
406.0220331182518
 20
360.0
 30
0.0
  0
POINT
  5
409
330
3FF
100
AcDbEntity
  8
DEFPOINTS
 62
     0
100
AcDbPoint
 10
523.9779668817489
 20
360.0
 30
0.0
  0
POINT
  5
40A
330
3FF
100
AcDbEntity
  8
DEFPOINTS
 62
     0
100
AcDbPoint
 10
523.9779668817489
 20
390.0
 30
0.0
  0
ENDBLK
  5
401
330
3FF
100
AcDbEntity
  8
0
100
AcDbBlockEnd
  0
BLOCK
  5
40D
330
40C
100
AcDbEntity
  8
0
100
AcDbBlockBegin
  2
*D20
 70
     1
 10
0.0
 20
0.0
 30
0.0
  3
*D20
  1

  0
LINE
  5
40F
330
40C
100
AcDbEntity
  8
LAY-20
  6
CONTINUOUS
 62
     4
100
AcDbLine
 10
349.0000000000001
 20
295.1986412405308
 30
0.0
 11
317.9999999999999
 21
295.1986412405308
 31
0.0
  0
LINE
  5
410
330
40C
100
AcDbEntity
  8
LAY-20
  6
CONTINUOUS
 62
     4
100
AcDbLine
 10
390.5000000000001
 20
270.092190801459
 30
0.0
 11
317.9999999999999
 21
270.092190801459
 31
0.0
  0
LINE
  5
411
330
40C
100
AcDbEntity
  8
LAY-20
  6
CONTINUOUS
 62
     4
100
AcDbLine
 10
322.4999999999999
 20
287.6986412405308
 30
0.0
 11
322.4999999999999
 21
277.592190801459
 31
0.0
  0
INSERT
  5
412
330
40C
100
AcDbEntity
  8
LAY-20
 62
     4
100
AcDbBlockReference
  2
EX_BNORM
 10
322.4999999999999
 20
295.1986412405308
 30
0.0
 41
7.5
 42
7.5
 43
7.5
 50
90.0
  0
INSERT
  5
413
330
40C
100
AcDbEntity
  8
LAY-20
 62
     4
100
AcDbBlockReference
  2
EX_BNORM
 10
322.4999999999999
 20
270.092190801459
 30
0.0
 41
7.5
 42
7.5
 43
7.5
 50
270.0
  0
MTEXT
  5
414
330
40C
100
AcDbEntity
  8
LAY-20
 62
     7
100
AcDbMText
 10
314.9999999999999
 20
282.6454160209949
 30
0.0
 40
9.3543312
 41
0.0
 71
     5
 72
     1
  1
25
  7
EXCADDIM1
 11
0.0
 21
1.0
 31
0.0
  0
POINT
  5
415
330
40C
100
AcDbEntity
  8
DEFPOINTS
 62
     0
100
AcDbPoint
 10
353.5000000000001
 20
295.1986412405308
 30
0.0
  0
POINT
  5
416
330
40C
100
AcDbEntity
  8
DEFPOINTS
 62
     0
100
AcDbPoint
 10
395.0000000000001
 20
270.092190801459
 30
0.0
  0
POINT
  5
417
330
40C
100
AcDbEntity
  8
DEFPOINTS
 62
     0
100
AcDbPoint
 10
322.4999999999999
 20
270.092190801459
 30
0.0
  0
ENDBLK
  5
40E
330
40C
100
AcDbEntity
  8
0
100
AcDbBlockEnd
  0
BLOCK
  5
41A
330
419
100
AcDbEntity
  8
0
100
AcDbBlockBegin
  2
*D21
 70
     1
 10
0.0
 20
0.0
 30
0.0
  3
*D21
  1

  0
LINE
  5
41C
330
419
100
AcDbEntity
  8
LAY-20
  6
CONTINUOUS
 62
     4
100
AcDbLine
 10
539.5
 20
215.19864124053
 30
0.0
 11
612.0
 21
215.19864124053
 31
0.0
  0
LINE
  5
41D
330
419
100
AcDbEntity
  8
LAY-20
  6
CONTINUOUS
 62
     4
100
AcDbLine
 10
581.0
 20
295.19864124053
 30
0.0
 11
612.0
 21
295.19864124053
 31
0.0
  0
LINE
  5
41E
330
419
100
AcDbEntity
  8
LAY-20
  6
CONTINUOUS
 62
     4
100
AcDbLine
 10
607.5
 20
222.69864124053
 30
0.0
 11
607.5
 21
287.69864124053
 31
0.0
  0
INSERT
  5
41F
330
419
100
AcDbEntity
  8
LAY-20
 62
     4
100
AcDbBlockReference
  2
EX_BNORM
 10
607.5
 20
215.19864124053
 30
0.0
 41
7.5
 42
7.5
 43
7.5
 50
270.0
  0
INSERT
  5
420
330
419
100
AcDbEntity
  8
LAY-20
 62
     4
100
AcDbBlockReference
  2
EX_BNORM
 10
607.5
 20
295.19864124053
 30
0.0
 41
7.5
 42
7.5
 43
7.5
 50
90.0
  0
MTEXT
  5
421
330
419
100
AcDbEntity
  8
LAY-20
 62
     7
100
AcDbMText
 10
600.0
 20
255.19864124053
 30
0.0
 40
9.3543312
 41
0.0
 71
     5
 72
     1
  1
80
  7
EXCADDIM1
 11
0.0
 21
1.0
 31
0.0
  0
POINT
  5
422
330
419
100
AcDbEntity
  8
DEFPOINTS
 62
     0
100
AcDbPoint
 10
535.0
 20
215.19864124053
 30
0.0
  0
POINT
  5
423
330
419
100
AcDbEntity
  8
DEFPOINTS
 62
     0
100
AcDbPoint
 10
576.5
 20
295.19864124053
 30
0.0
  0
POINT
  5
424
330
419
100
AcDbEntity
  8
DEFPOINTS
 62
     0
100
AcDbPoint
 10
607.5
 20
295.19864124053
 30
0.0
  0
ENDBLK
  5
41B
330
419
100
AcDbEntity
  8
0
100
AcDbBlockEnd
  0
BLOCK
  5
427
330
426
100
AcDbEntity
  8
0
100
AcDbBlockBegin
  2
*D22
 70
     1
 10
0.0
 20
0.0
 30
0.0
  3
*D22
  1

  0
LINE
  5
429
330
426
100
AcDbEntity
  8
LAY-20
  6
CONTINUOUS
 62
     4
100
AcDbLine
 10
532.5
 20
360.0
 30
0.0
 11
612.0
 21
360.0
 31
0.0
  0
LINE
  5
42A
330
426
100
AcDbEntity
  8
LAY-20
  6
CONTINUOUS
 62
     4
100
AcDbLine
 10
607.5
 20
352.5
 30
0.0
 11
607.5
 21
302.69864124053
 31
0.0
  0
INSERT
  5
42B
330
426
100
AcDbEntity
  8
LAY-20
 62
     4
100
AcDbBlockReference
  2
EX_BNORM
 10
607.5
 20
360.0
 30
0.0
 41
7.5
 42
7.5
 43
7.5
 50
90.0
  0
INSERT
  5
42C
330
426
100
AcDbEntity
  8
LAY-20
 62
     4
100
AcDbBlockReference
  2
EX_BNORM
 10
607.5
 20
295.19864124053
 30
0.0
 41
7.5
 42
7.5
 43
7.5
 50
270.0
  0
MTEXT
  5
42D
330
426
100
AcDbEntity
  8
LAY-20
 62
     7
100
AcDbMText
 10
600.0
 20
327.599320620265
 30
0.0
 40
9.3543312
 41
0.0
 71
     5
 72
     1
  1
65
  7
EXCADDIM1
 11
0.0
 21
1.0
 31
0.0
  0
POINT
  5
42E
330
426
100
AcDbEntity
  8
DEFPOINTS
 62
     0
100
AcDbPoint
 10
528.0
 20
360.0
 30
0.0
  0
POINT
  5
42F
330
426
100
AcDbEntity
  8
DEFPOINTS
 62
     0
100
AcDbPoint
 10
607.5
 20
295.19864124053
 30
0.0
  0
POINT
  5
430
330
426
100
AcDbEntity
  8
DEFPOINTS
 62
     0
100
AcDbPoint
 10
607.5
 20
295.19864124053
 30
0.0
  0
ENDBLK
  5
428
330
426
100
AcDbEntity
  8
0
100
AcDbBlockEnd
  0
BLOCK
  5
433
330
432
100
AcDbEntity
  8
0
100
AcDbBlockBegin
  2
*D23
 70
     1
 10
0.0
 20
0.0
 30
0.0
  3
*D23
  1

  0
LINE
  5
435
330
432
100
AcDbEntity
  8
LAY-20
  6
CONTINUOUS
 62
     4
100
AcDbLine
 10
384.0
 20
304.5
 30
0.0
 11
384.0
 21
415.5
 31
0.0
  0
LINE
  5
436
330
432
100
AcDbEntity
  8
LAY-20
  6
CONTINUOUS
 62
     4
100
AcDbLine
 10
546.0
 20
304.5
 30
0.0
 11
546.0
 21
415.5
 31
0.0
  0
LINE
  5
437
330
432
100
AcDbEntity
  8
LAY-20
  6
CONTINUOUS
 62
     4
100
AcDbLine
 10
391.5
 20
411.0
 30
0.0
 11
538.5
 21
411.0
 31
0.0
  0
INSERT
  5
438
330
432
100
AcDbEntity
  8
LAY-20
 62
     4
100
AcDbBlockReference
  2
EX_BNORM
 10
384.0
 20
411.0
 30
0.0
 41
7.5
 42
7.5
 43
7.5
 50
180.0
  0
INSERT
  5
439
330
432
100
AcDbEntity
  8
LAY-20
 62
     4
100
AcDbBlockReference
  2
EX_BNORM
 10
546.0
 20
411.0
 30
0.0
 41
7.5
 42
7.5
 43
7.5
  0
MTEXT
  5
43A
330
432
100
AcDbEntity
  8
LAY-20
 62
     7
100
AcDbMText
 10
465.0
 20
418.5
 30
0.0
 40
9.3543312
 41
0.0
 71
     5
 72
     1
  1
%%c162
  7
EXCADDIM1
  0
POINT
  5
43B
330
432
100
AcDbEntity
  8
DEFPOINTS
 62
     0
100
AcDbPoint
 10
384.0
 20
300.0
 30
0.0
  0
POINT
  5
43C
330
432
100
AcDbEntity
  8
DEFPOINTS
 62
     0
100
AcDbPoint
 10
546.0
 20
300.0
 30
0.0
  0
POINT
  5
43D
330
432
100
AcDbEntity
  8
DEFPOINTS
 62
     0
100
AcDbPoint
 10
546.0
 20
411.0
 30
0.0
  0
ENDBLK
  5
434
330
432
100
AcDbEntity
  8
0
100
AcDbBlockEnd
  0
ENDSEC
  0
SECTION
  2
ENTITIES
  0
LINE
  5
D4
330
1F
100
AcDbEntity
  8
LAY-10
  6
CONTINUOUS
 62
     7
100
AcDbLine
 10
359.1847759934245
 20
290.8740513444557
 30
0.0
 11
366.6577556314201
 21
288.8716724854003
 31
0.0
  0
LINE
  5
D5
330
1F
100
AcDbEntity
  8
LAY-10
  6
CONTINUOUS
 62
     7
100
AcDbLine
 10
352.5
 20
288.1986412405304
 30
0.0
 11
367.6942639889917
 21
288.1986412405304
 31
0.0
  0
LINE
  5
D6
330
1F
100
AcDbEntity
  8
LAY-10
  6
CONTINUOUS
 62
     7
100
AcDbLine
 10
352.5
 20
288.1986412405304
 30
0.0
 11
353.5000000000001
 21
295.1986412405308
 31
0.0
  0
LINE
  5
D7
330
1F
100
AcDbEntity
  8
LAY-10
  6
CONTINUOUS
 62
     7
100
AcDbLine
 10
356.6872389158971
 20
289.2250424043523
 30
0.0
 11
356.5406101782083
 21
288.1986412405304
 31
0.0
  0
ARC
  5
D8
330
1F
100
AcDbEntity
  8
LAY-10
  6
CONTINUOUS
 62
     7
100
AcDbCircle
 10
358.6671379032192
 20
288.9421996918778
 30
0.0
 40
2.0
100
AcDbArc
 50
74.9999999999937
 51
171.869897645847
  0
LINE
  5
D9
330
1F
100
AcDbEntity
  8
LAY-10
  6
CONTINUOUS
 62
     7
100
AcDbLine
 10
577.4999999999997
 20
288.1986412405304
 30
0.0
 11
576.4999999999999
 21
295.1986412405308
 31
0.0
  0
LINE
  5
DA
330
1F
100
AcDbEntity
  8
LAY-10
  6
CONTINUOUS
 62
     7
100
AcDbLine
 10
573.3127610841027
 20
289.2250424043523
 30
0.0
 11
573.4593898217915
 21
288.1986412405304
 31
0.0
  0
ARC
  5
DB
330
1F
100
AcDbEntity
  8
LAY-10
  6
CONTINUOUS
 62
     7
100
AcDbCircle
 10
571.3328620967804
 20
288.9421996918778
 30
0.0
 40
2.0
100
AcDbArc
 50
8.130102354152948
 51
105.0000000000012
  0
LINE
  5
DC
330
1F
100
AcDbEntity
  8
LAY-10
  6
CONTINUOUS
 62
     7
100
AcDbLine
 10
577.4999999999997
 20
288.1986412405304
 30
0.0
 11
560.8304575676434
 21
288.1986412405304
 31
0.0
  0
LINE
  5
DD
330
1F
100
AcDbEntity
  8
LAY-10
  6
CONTINUOUS
 62
     7
100
AcDbLine
 10
368.1325069373984
 20
287.1141323183177
 30
0.0
 11
368.9999999999973
 21
277.1986412405295
 31
0.0
  0
LINE
  5
DE
330
1F
100
AcDbEntity
  8
LAY-10
  6
CONTINUOUS
 62
     7
100
AcDbLine
 10
381.461612049363
 20
282.4748911083055
 30
0.0
 11
381.0000000000024
 21
277.1986412405295
 31
0.0
  0
ARC
  5
DF
330
1F
100
AcDbEntity
  8
LAY-10
  6
CONTINUOUS
 62
     7
100
AcDbCircle
 10
383.4540014455466
 20
282.3005796228102
 30
0.0
 40
2.0
100
AcDbArc
 50
75.00000000000354
 51
175.0000000000003
  0
ARC
  5
E0
330
1F
100
AcDbEntity
  8
LAY-10
  6
CONTINUOUS
 62
     7
100
AcDbCircle
 10
366.1401175412149
 20
286.9398208328224
 30
0.0
 40
2.0
100
AcDbArc
 50
4.999999999998082
 51
74.9999999999937
  0
LINE
  5
E1
330
1F
100
AcDbEntity
  8
LAY-10
  6
CONTINUOUS
 62
     7
100
AcDbLine
 10
576.4999999999999
 20
295.1986412405308
 30
0.0
 11
566.8235238063806
 21
295.1986412405308
 31
0.0
  0
LINE
  5
E2
330
1F
100
AcDbEntity
  8
LAY-10
  6
CONTINUOUS
 62
     7
100
AcDbLine
 10
524.9999999999962
 20
275.6986412405267
 30
0.0
 11
524.9999999999962
 21
275.1986412405229
 31
0.0
  0
LINE
  5
E3
330
1F
100
AcDbEntity
  8
LAY-10
  6
CONTINUOUS
 62
     7
100
AcDbLine
 10
518.0000000000013
 20
275.6986412405267
 30
0.0
 11
518.0000000000013
 21
275.1986412405229
 31
0.0
  0
LINE
  5
E4
330
1F
100
AcDbEntity
  8
LAY-10
  6
CONTINUOUS
 62
     7
100
AcDbLine
 10
518.0000000000013
 20
275.1986412405229
 30
0.0
 11
524.9999999999966
 21
275.1986412405229
 31
0.0
  0
LINE
  5
E5
330
1F
100
AcDbEntity
  8
LAY-10
  6
CONTINUOUS
 62
     7
100
AcDbLine
 10
518.0000000000013
 20
275.1986412405234
 30
0.0
 11
521.4999999999994
 21
273.1779152983607
 31
0.0
  0
LINE
  5
E6
330
1F
100
AcDbEntity
  8
LAY-10
  6
CONTINUOUS
 62
     7
100
AcDbLine
 10
521.4999999999994
 20
273.1779152983611
 30
0.0
 11
524.9999999999962
 21
275.1986412405229
 31
0.0
  0
LINE
  5
E7
330
1F
100
AcDbEntity
  8
LAY-10
  6
CONTINUOUS
 62
     7
100
AcDbLine
 10
570.8152240065754
 20
290.8740513444557
 30
0.0
 11
539.6026882318512
 21
282.5106775898901
 31
0.0
  0
ARC
  5
E8
330
1F
100
AcDbEntity
  8
LAY-10
  6
CONTINUOUS
 62
     7
100
AcDbCircle
 10
540.1203263220563
 20
280.5788259373119
 30
0.0
 40
2.0
100
AcDbArc
 50
105.0000000000015
 51
176.5663696375438
  0
LINE
  5
E9
330
1F
100
AcDbEntity
  8
LAY-10
  6
CONTINUOUS
 62
     7
100
AcDbLine
 10
571.5000000000003
 20
295.1986412405308
 30
0.0
 11
538.5674120514408
 21
286.3743808950467
 31
0.0
  0
ARC
  5
EA
330
1F
100
AcDbEntity
  8
LAY-10
  6
CONTINUOUS
 62
     7
100
AcDbCircle
 10
540.120326322056
 20
280.5788259373122
 30
0.0
 40
6.0
100
AcDbArc
 50
105.0000000000012
 51
164.3375648955618
  0
LINE
  5
EB
330
1F
100
AcDbEntity
  8
LAY-10
  6
CONTINUOUS
 62
     7
100
AcDbLine
 10
391.8760833688754
 20
280.698610518768
 30
0.0
 11
392.1615612246629
 21
275.9406462556468
 31
0.0
  0
ARC
  5
EC
330
1F
100
AcDbEntity
  8
LAY-10
  6
CONTINUOUS
 62
     7
100
AcDbCircle
 10
389.8796736779436
 20
280.5788259373119
 30
0.0
 40
2.0
100
AcDbArc
 50
3.433630362456029
 51
74.99999999999838
  0
LINE
  5
ED
330
1F
100
AcDbEntity
  8
LAY-10
  6
CONTINUOUS
 62
     7
100
AcDbLine
 10
358.4999999999991
 20
295.1986412405308
 30
0.0
 11
391.4325879485594
 21
286.3743808950466
 31
0.0
  0
LINE
  5
EE
330
1F
100
AcDbEntity
  8
LAY-10
  6
CONTINUOUS
 62
     7
100
AcDbLine
 10
383.9716395357515
 20
284.2324312753883
 30
0.0
 11
390.3973117681485
 21
282.5106775898902
 31
0.0
  0
ARC
  5
EF
330
1F
100
AcDbEntity
  8
LAY-10
  6
CONTINUOUS
 62
     7
100
AcDbCircle
 10
389.8796736779441
 20
280.5788259373122
 30
0.0
 40
6.0
100
AcDbArc
 50
3.433630362455571
 51
75.0000000000004
  0
LINE
  5
F0
330
1F
100
AcDbEntity
  8
LAY-10
  6
CONTINUOUS
 62
     7
100
AcDbLine
 10
534.3431126005929
 20
282.1986412405304
 30
0.0
 11
524.999999999999
 21
282.1986412405304
 31
0.0
  0
LINE
  5
F1
330
1F
100
AcDbEntity
  8
LAY-10
  6
CONTINUOUS
 62
     7
100
AcDbLine
 10
513.1288933513963
 20
282.1986412405304
 30
0.0
 11
512.6926519687978
 21
273.8746597903218
 31
0.0
  0
LINE
  5
F2
330
1F
100
AcDbEntity
  8
LAY-10
  6
CONTINUOUS
 62
     7
100
AcDbLine
 10
395.8689027507378
 20
280.9381796816803
 30
0.0
 11
396.1604621320945
 21
276.0788566590748
 31
0.0
  0
LINE
  5
F3
330
1F
100
AcDbEntity
  8
LAY-10
  6
CONTINUOUS
 62
     7
100
AcDbLine
 10
512.709631117132
 20
274.1986412405308
 30
0.0
 11
420.5332852005648
 21
274.1986412405308
 31
0.0
  0
ARC
  5
F4
330
1F
100
AcDbEntity
  8
LAY-10
  6
CONTINUOUS
 62
     7
100
AcDbCircle
 10
398.1568718230261
 20
276.1986412405309
 30
0.0
 40
2.0
100
AcDbArc
 50
183.4336303624561
 51
270.0
  0
LINE
  5
F5
330
1F
100
AcDbEntity
  8
LAY-10
  6
CONTINUOUS
 62
     7
100
AcDbLine
 10
538.1239166311246
 20
280.698610518768
 30
0.0
 11
537.8323572497683
 21
275.8392874961628
 31
0.0
  0
ARC
  5
F6
330
1F
100
AcDbEntity
  8
LAY-10
  6
CONTINUOUS
 62
     7
100
AcDbCircle
 10
531.8431281769734
 20
276.1986412405309
 30
0.0
 40
6.0
100
AcDbArc
 50
270.0
 51
356.5663696375456
  0
LINE
  5
F7
330
1F
100
AcDbEntity
  8
LAY-10
  6
CONTINUOUS
 62
     7
100
AcDbLine
 10
514.4632028779812
 20
270.1986412405309
 30
0.0
 11
524.0510354332832
 21
270.1986412405309
 31
0.0
  0
LINE
  5
F8
330
1F
100
AcDbEntity
  8
LAY-10
  6
CONTINUOUS
 62
     7
100
AcDbLine
 10
417.9999999999991
 20
230.1986412405306
 30
0.0
 11
512.0000000000009
 21
230.1986412405306
 31
0.0
  0
LINE
  5
F9
330
1F
100
AcDbEntity
  8
LAY-10
  6
CONTINUOUS
 62
     7
100
AcDbLine
 10
512.0000000000009
 20
230.1986412405306
 30
0.0
 11
513.4639052622721
 21
269.2361149011193
 31
0.0
  0
LINE
  5
FA
330
1F
100
AcDbEntity
  8
LAY-10
  6
CONTINUOUS
 62
     7
100
AcDbLine
 10
507.9971884880757
 20
230.1986412405306
 30
0.0
 11
509.4667147994352
 21
269.3860095434762
 31
0.0
  0
ARC
  5
FB
330
1F
100
AcDbEntity
  8
LAY-10
  6
CONTINUOUS
 62
     7
100
AcDbCircle
 10
514.4632028779812
 20
269.1986412405302
 30
0.0
 40
1.0
100
AcDbArc
 50
89.99999999999996
 51
177.8524145717037
  0
LINE
  5
FC
330
1F
100
AcDbEntity
  8
LAY-10
  6
CONTINUOUS
 62
     7
100
AcDbLine
 10
422.0028115119243
 20
230.1986412405306
 30
0.0
 11
420.5332852005648
 21
269.3860095434762
 31
0.0
  0
LINE
  5
FD
330
1F
100
AcDbEntity
  8
LAY-10
  6
CONTINUOUS
 62
     7
100
AcDbLine
 10
417.9999999999991
 20
230.1986412405306
 30
0.0
 11
416.5322937842474
 21
269.3374736606038
 31
0.0
  0
ARC
  5
FE
330
1F
100
AcDbEntity
  8
LAY-10
  6
CONTINUOUS
 62
     7
100
AcDbCircle
 10
415.536797122019
 20
269.1986412405306
 30
0.0
 40
5.0
100
AcDbArc
 50
2.147585428299621
 51
89.99999999999996
  0
ARC
  5
FF
330
1F
100
AcDbEntity
  8
LAY-10
  6
CONTINUOUS
 62
     7
100
AcDbCircle
 10
514.463202877981
 20
269.1986412405306
 30
0.0
 40
5.0
100
AcDbArc
 50
110.7389193401391
 51
177.8524145717004
  0
LINE
  5
100
330
1F
100
AcDbEntity
  8
LAY-10
  6
CONTINUOUS
 62
     7
100
AcDbLine
 10
529.7352182923415
 20
265.1463052842873
 30
0.0
 11
529.9503350319602
 21
269.2509771967738
 31
0.0
  0
LINE
  5
101
330
1F
100
AcDbEntity
  8
LAY-10
  6
CONTINUOUS
 62
     7
100
AcDbLine
 10
530.9489645667148
 20
270.1986412405309
 30
0.0
 11
531.8431281769734
 21
270.1986412405309
 31
0.0
  0
CIRCLE
  5
102
330
1F
100
AcDbEntity
  8
LAY-10
  6
CONTINUOUS
 62
     7
100
AcDbCircle
 10
465.0
 20
600.0
 30
0.0
 40
111.5
  0
CIRCLE
  5
103
330
1F
100
AcDbEntity
  8
LAY-10
  6
CONTINUOUS
 62
     7
100
AcDbCircle
 10
465.0
 20
600.0
 30
0.0
 40
106.5000000000007
  0
LINE
  5
104
330
1F
100
AcDbEntity
  8
LAY-10
  6
CONTINUOUS
 62
     7
100
AcDbLine
 10
415.536797122019
 20
274.1986412405308
 30
0.0
 11
398.1568718230261
 21
274.1986412405308
 31
0.0
  0
LINE
  5
105
330
1F
100
AcDbEntity
  8
LAY-10
  6
CONTINUOUS
 62
     7
100
AcDbLine
 10
525.2647817076569
 20
265.1463052842873
 30
0.0
 11
525.049664968038
 21
269.2509771967738
 31
0.0
  0
ARC
  5
106
330
1F
100
AcDbEntity
  8
LAY-10
  6
CONTINUOUS
 62
     7
100
AcDbCircle
 10
524.0510354332832
 20
269.1986412405309
 30
0.0
 40
1.0
100
AcDbArc
 50
2.999999999995652
 51
89.99999999999996
  0
ARC
  5
107
330
1F
100
AcDbEntity
  8
LAY-10
  6
CONTINUOUS
 62
     7
100
AcDbCircle
 10
530.9489645667148
 20
269.1986412405309
 30
0.0
 40
1.0
100
AcDbArc
 50
89.99999999999996
 51
177.0000000000043
  0
ARC
  5
108
330
1F
100
AcDbEntity
  8
LAY-10
  6
CONTINUOUS
 62
     7
100
AcDbCircle
 10
526.2634112424113
 20
265.1986412405303
 30
0.0
 40
1.0
100
AcDbArc
 50
182.9999999999989
 51
270.0
  0
ARC
  5
109
330
1F
100
AcDbEntity
  8
LAY-10
  6
CONTINUOUS
 62
     7
100
AcDbCircle
 10
528.7365887575869
 20
265.1986412405303
 30
0.0
 40
1.0
100
AcDbArc
 50
270.0
 51
357.0000000000011
  0
CIRCLE
  5
10A
330
1F
100
AcDbEntity
  8
LAY-10
  6
CONTINUOUS
 62
     7
100
AcDbCircle
 10
465.0
 20
600.0
 30
0.0
 40
112.5
  0
LINE
  5
10B
330
1F
100
AcDbEntity
  8
LAY-10
  6
CONTINUOUS
 62
     7
100
AcDbLine
 10
381.0000000000024
 20
277.1986412405295
 30
0.0
 11
368.9999999999973
 21
277.1986412405295
 31
0.0
  0
LINE
  5
10C
330
1F
100
AcDbEntity
  8
LAY-10
  6
CONTINUOUS
 62
     7
100
AcDbLine
 10
362.5000000000003
 20
297.9999999999998
 30
0.0
 11
377.0372755045024
 21
297.9999999999998
 31
0.0
  0
LINE
  5
10D
330
1F
100
AcDbEntity
  8
LAY-10
  6
CONTINUOUS
 62
     7
100
AcDbLine
 10
378.3575838025568
 20
300.9999999999998
 30
0.0
 11
381.9924870000046
 21
300.9999999999998
 31
0.0
  0
LINE
  5
10E
330
1F
100
AcDbEntity
  8
LAY-10
  6
CONTINUOUS
 62
     7
100
AcDbLine
 10
382.2415615251908
 20
294.9999999999999
 30
0.0
 11
385.5000000000007
 21
294.9999999999999
 31
0.0
  0
LINE
  5
10F
330
1F
100
AcDbEntity
  8
LAY-10
  6
CONTINUOUS
 62
     7
100
AcDbLine
 10
404.025948892958
 20
282.9999999999994
 30
0.0
 11
517.499999999999
 21
282.9999999999994
 31
0.0
  0
LINE
  5
110
330
1F
100
AcDbEntity
  8
LAY-10
  6
CONTINUOUS
 62
     7
100
AcDbLine
 10
404.5525588833059
 20
286.9999999999995
 30
0.0
 11
396.3034227323467
 21
289.2103493699034
 31
0.0
  0
LINE
  5
111
330
1F
100
AcDbEntity
  8
LAY-10
  6
CONTINUOUS
 62
     7
100
AcDbLine
 10
364.6475976959445
 20
293.5513974025078
 30
0.0
 11
404.025948892958
 21
282.9999999999994
 31
0.0
  0
LINE
  5
112
330
1F
100
AcDbEntity
  8
LAY-10
  6
CONTINUOUS
 62
     7
100
AcDbLine
 10
376.6699905030611
 20
295.618766641816
 30
0.0
 11
377.3692709001662
 21
300.1524388630501
 31
0.0
  0
LINE
  5
113
330
1F
100
AcDbEntity
  8
LAY-10
  6
CONTINUOUS
 62
     7
100
AcDbLine
 10
404.5525588833059
 20
286.9999999999995
 30
0.0
 11
457.4593181805568
 21
286.9999999999995
 31
0.0
  0
LINE
  5
114
330
1F
100
AcDbEntity
  8
LAY-10
  6
CONTINUOUS
 62
     7
100
AcDbLine
 10
412.2903688828663
 20
286.9999999999995
 30
0.0
 11
412.4999999999985
 21
282.9999999999994
 31
0.0
  0
LINE
  5
115
330
1F
100
AcDbEntity
  8
LAY-10
  6
CONTINUOUS
 62
     7
100
AcDbLine
 10
396.3034227323467
 20
289.210349369903
 30
0.0
 11
395.9999999999986
 21
294.9999999999999
 31
0.0
  0
LINE
  5
116
330
1F
100
AcDbEntity
  8
LAY-10
  6
CONTINUOUS
 62
     7
100
AcDbLine
 10
385.5000000000003
 20
291.000000000002
 30
0.0
 11
385.5000000000003
 21
287.9640130448874
 31
0.0
  0
LINE
  5
117
330
1F
100
AcDbEntity
  8
LAY-10
  6
CONTINUOUS
 62
     7
100
AcDbLine
 10
390.5000000000004
 20
291.000000000002
 30
0.0
 11
390.5000000000004
 21
286.6242670827319
 31
0.0
  0
LINE
  5
118
330
1F
100
AcDbEntity
  8
LAY-10
  6
CONTINUOUS
 62
     7
100
AcDbLine
 10
375.4228585555679
 20
294.8052796785772
 30
0.0
 11
363.5000000000449
 21
297.9999999999998
 31
0.0
  0
LINE
  5
119
330
1F
100
AcDbEntity
  8
LAY-10
  6
CONTINUOUS
 62
     7
100
AcDbLine
 10
382.2415615251908
 20
294.9999999999999
 30
0.0
 11
381.6084335613655
 21
300.1226602971036
 31
0.0
  0
LINE
  5
11A
330
1F
100
AcDbEntity
  8
LAY-10
  6
CONTINUOUS
 62
     7
100
AcDbLine
 10
565.352402304056
 20
293.5513974025079
 30
0.0
 11
525.9740511070427
 21
282.9999999999994
 31
0.0
  0
LINE
  5
11B
330
1F
100
AcDbEntity
  8
LAY-10
  6
CONTINUOUS
 62
     7
100
AcDbLine
 10
553.3300094969393
 20
295.618766641816
 30
0.0
 11
552.6307290998342
 21
300.1524388630501
 31
0.0
  0
LINE
  5
11C
330
1F
100
AcDbEntity
  8
LAY-10
  6
CONTINUOUS
 62
     7
100
AcDbLine
 10
567.5000000000008
 20
297.9999999999998
 30
0.0
 11
552.9627244954982
 21
297.9999999999998
 31
0.0
  0
LINE
  5
11D
330
1F
100
AcDbEntity
  8
LAY-10
  6
CONTINUOUS
 62
     7
100
AcDbLine
 10
512.7620388964153
 20
287.9999999999997
 30
0.0
 11
512.5000000000001
 21
282.9999999999994
 31
0.0
  0
LINE
  5
11E
330
1F
100
AcDbEntity
  8
LAY-10
  6
CONTINUOUS
 62
     7
100
AcDbLine
 10
554.5771414444326
 20
294.8052796785772
 30
0.0
 11
566.4999999999553
 21
297.9999999999998
 31
0.0
  0
LINE
  5
11F
330
1F
100
AcDbEntity
  8
LAY-10
  6
CONTINUOUS
 62
     7
100
AcDbLine
 10
547.6653286429352
 20
294.2466451234721
 30
0.0
 11
548.3915664386345
 21
300.1226602971036
 31
0.0
  0
LINE
  5
120
330
1F
100
AcDbEntity
  8
LAY-10
  6
CONTINUOUS
 62
     7
100
AcDbLine
 10
512.7620388964153
 20
287.9999999999997
 30
0.0
 11
529.1794919242643
 21
287.9999999999997
 31
0.0
  0
LINE
  5
121
330
1F
100
AcDbEntity
  8
LAY-10
  6
CONTINUOUS
 62
     7
100
AcDbLine
 10
516.2379611035778
 20
287.9999999999993
 30
0.0
 11
516.4999999999931
 21
282.9999999999994
 31
0.0
  0
LINE
  5
122
330
1F
100
AcDbEntity
  8
LAY-10
  6
CONTINUOUS
 62
     7
100
AcDbLine
 10
526.7546531948569
 20
287.9999999999993
 30
0.0
 11
526.5000000000084
 21
283.1409275811298
 31
0.0
  0
LINE
  5
123
330
1F
100
AcDbEntity
  8
LAY-10
  6
CONTINUOUS
 62
     7
100
AcDbLine
 10
529.1794919242643
 20
287.9999999999997
 30
0.0
 11
546.1980693035338
 21
292.5601140651013
 31
0.0
  0
CIRCLE
  5
124
330
1F
100
AcDbEntity
  8
LAY-10
  6
CONTINUOUS
 62
     7
100
AcDbCircle
 10
465.0
 20
600.0
 30
0.0
 40
101.4999999999552
  0
CIRCLE
  5
125
330
1F
100
AcDbEntity
  8
LAY-10
  6
CONTINUOUS
 62
     7
100
AcDbCircle
 10
465.0
 20
600.0
 30
0.0
 40
102.5000000000003
  0
LINE
  5
126
330
1F
100
AcDbEntity
  8
LAY-10
  6
CONTINUOUS
 62
     7
100
AcDbLine
 10
381.8804428642512
 20
615.1785777185114
 30
0.0
 11
379.9128436893824
 21
615.5378837353353
 31
0.0
  0
LINE
  5
127
330
1F
100
AcDbEntity
  8
LAY-10
  6
CONTINUOUS
 62
     7
100
AcDbLine
 10
381.8804428642512
 20
584.8214222814887
 30
0.0
 11
379.9128436893824
 21
584.4621162646648
 31
0.0
  0
LINE
  5
128
330
1F
100
AcDbEntity
  8
LAY-10
  6
CONTINUOUS
 62
     7
100
AcDbLine
 10
378.1248913173391
 20
616.88092092797
 30
0.0
 11
384.0276892844973
 21
615.803002796683
 31
0.0
  0
LINE
  5
129
330
1F
100
AcDbEntity
  8
LAY-10
  6
CONTINUOUS
 62
     7
100
AcDbLine
 10
378.1248913173416
 20
583.1190790720165
 30
0.0
 11
384.0276892845
 21
584.1969972033036
 31
0.0
  0
ARC
  5
12A
330
1F
100
AcDbEntity
  8
LAY-10
  6
CONTINUOUS
 62
     7
100
AcDbCircle
 10
465.0
 20
600.0
 30
0.0
 40
82.4999999999992
100
AcDbArc
 50
168.9566553119798
 51
175.6180383258787
  0
ARC
  5
12B
330
1F
100
AcDbEntity
  8
LAY-10
  6
CONTINUOUS
 62
     7
100
AcDbCircle
 10
465.0
 20
600.0
 30
0.0
 40
83.49999999999932
100
AcDbArc
 50
170.3292390068963
 51
189.6707609931033
  0
ARC
  5
12C
330
1F
100
AcDbEntity
  8
LAY-10
  6
CONTINUOUS
 62
     7
100
AcDbCircle
 10
465.0
 20
600.0
 30
0.0
 40
87.50000000000156
100
AcDbArc
 50
170.3135603257641
 51
189.6864396742355
  0
ARC
  5
12D
330
1F
100
AcDbEntity
  8
LAY-10
  6
CONTINUOUS
 62
     7
100
AcDbCircle
 10
465.0
 20
600.0
 30
0.0
 40
88.50000000000284
100
AcDbArc
 50
169.0037429011432
 51
190.9962570988649
  0
LINE
  5
12E
330
1F
100
AcDbEntity
  8
LAY-10
  6
CONTINUOUS
 62
     7
100
AcDbLine
 10
382.8583540461971
 20
615.0
 30
0.0
 11
384.0276892844973
 21
615.803002796683
 31
0.0
  0
LINE
  5
12F
330
1F
100
AcDbEntity
  8
LAY-10
  6
CONTINUOUS
 62
     7
100
AcDbLine
 10
378.9234248987073
 20
615.7185628742519
 30
0.0
 11
378.1248913173391
 21
616.8809209279701
 31
0.0
  0
LINE
  5
130
330
1F
100
AcDbEntity
  8
LAY-10
  6
CONTINUOUS
 62
     7
100
AcDbLine
 10
382.8583540461971
 20
585.0
 30
0.0
 11
384.0276892845
 21
584.1969972033036
 31
0.0
  0
LINE
  5
131
330
1F
100
AcDbEntity
  8
LAY-10
  6
CONTINUOUS
 62
     7
100
AcDbLine
 10
378.9234248987073
 20
584.2814371257481
 30
0.0
 11
378.1248913173418
 21
583.1190790720165
 31
0.0
  0
LINE
  5
132
330
1F
100
AcDbEntity
  8
LAY-10
  6
CONTINUOUS
 62
     7
100
AcDbLine
 10
385.4270631098739
 20
571.5852553296728
 30
0.0
 11
383.5434192315601
 21
570.9126238805408
 31
0.0
  0
LINE
  5
133
330
1F
100
AcDbEntity
  8
LAY-10
  6
CONTINUOUS
 62
     7
100
AcDbLine
 10
400.6056408283851
 20
545.2951875345784
 30
0.0
 11
399.0813029668954
 21
544.0002198088418
 31
0.0
  0
LINE
  5
134
330
1F
100
AcDbEntity
  8
LAY-10
  6
CONTINUOUS
 62
     7
100
AcDbLine
 10
381.3234884602967
 20
571.1817520215682
 30
0.0
 11
386.9744205189063
 21
573.1996465202526
 31
0.0
  0
LINE
  5
135
330
1F
100
AcDbEntity
  8
LAY-10
  6
CONTINUOUS
 62
     7
100
AcDbLine
 10
398.2044093882756
 20
541.9431392957606
 30
0.0
 11
402.7774233155983
 21
545.8280427642344
 31
0.0
  0
ARC
  5
136
330
1F
100
AcDbEntity
  8
LAY-10
  6
CONTINUOUS
 62
     7
100
AcDbCircle
 10
465.0
 20
600.0
 30
0.0
 40
82.4999999999992
100
AcDbArc
 50
198.9566553119796
 51
221.0433446880293
  0
ARC
  5
137
330
1F
100
AcDbEntity
  8
LAY-10
  6
CONTINUOUS
 62
     7
100
AcDbCircle
 10
465.0
 20
600.0
 30
0.0
 40
88.50000000000284
100
AcDbArc
 50
199.0037429011429
 51
220.9962570988652
  0
LINE
  5
138
330
1F
100
AcDbEntity
  8
LAY-10
  6
CONTINUOUS
 62
     7
100
AcDbLine
 10
386.3632478953396
 20
571.9195580798652
 30
0.0
 11
386.9744205189063
 21
573.1996465202526
 31
0.0
  0
LINE
  5
139
330
1F
100
AcDbEntity
  8
LAY-10
  6
CONTINUOUS
 62
     7
100
AcDbLine
 10
382.5962178543955
 20
570.5743872094388
 30
0.0
 11
381.3234884602967
 21
571.1817520215682
 31
0.0
  0
LINE
  5
13A
330
1F
100
AcDbEntity
  8
LAY-10
  6
CONTINUOUS
 62
     7
100
AcDbLine
 10
401.3632478953396
 20
545.9387959663321
 30
0.0
 11
402.7774233155983
 21
545.8280427642344
 31
0.0
  0
LINE
  5
13B
330
1F
100
AcDbEntity
  8
LAY-10
  6
CONTINUOUS
 62
     7
100
AcDbLine
 10
398.3147807286473
 20
543.3490376892686
 30
0.0
 11
398.2044093882757
 21
541.9431392957607
 31
0.0
  0
ARC
  5
13C
330
1F
100
AcDbEntity
  8
LAY-10
  6
CONTINUOUS
 62
     7
100
AcDbCircle
 10
465.0
 20
600.0
 30
0.0
 40
83.49999999999932
100
AcDbArc
 50
200.3292390068962
 51
219.6707609931033
  0
ARC
  5
13D
330
1F
100
AcDbEntity
  8
LAY-10
  6
CONTINUOUS
 62
     7
100
AcDbCircle
 10
465.0
 20
600.0
 30
0.0
 40
87.50000000000156
100
AcDbArc
 50
200.313560325764
 51
219.6864396742355
  0
LINE
  5
13E
330
1F
100
AcDbEntity
  8
LAY-10
  6
CONTINUOUS
 62
     7
100
AcDbLine
 10
410.2951875345784
 20
535.6056408283854
 30
0.0
 11
409.0002198088418
 21
534.0813029668956
 31
0.0
  0
LINE
  5
13F
330
1F
100
AcDbEntity
  8
LAY-10
  6
CONTINUOUS
 62
     7
100
AcDbLine
 10
436.5852553296728
 20
520.4270631098739
 30
0.0
 11
435.9126238805405
 21
518.5434192315602
 31
0.0
  0
LINE
  5
140
330
1F
100
AcDbEntity
  8
LAY-10
  6
CONTINUOUS
 62
     7
100
AcDbLine
 10
406.9431392957711
 20
533.2044093882668
 30
0.0
 11
410.8280427642446
 21
537.7774233155893
 31
0.0
  0
LINE
  5
141
330
1F
100
AcDbEntity
  8
LAY-10
  6
CONTINUOUS
 62
     7
100
AcDbLine
 10
436.1817520215809
 20
516.323488460292
 30
0.0
 11
438.1996465202657
 21
521.9744205189021
 31
0.0
  0
ARC
  5
142
330
1F
100
AcDbEntity
  8
LAY-10
  6
CONTINUOUS
 62
     7
100
AcDbCircle
 10
465.0
 20
600.0
 30
0.0
 40
82.4999999999992
100
AcDbArc
 50
228.9566553119794
 51
251.0433446880297
  0
ARC
  5
143
330
1F
100
AcDbEntity
  8
LAY-10
  6
CONTINUOUS
 62
     7
100
AcDbCircle
 10
465.0
 20
600.0
 30
0.0
 40
88.50000000000284
100
AcDbArc
 50
229.003742901143
 51
250.9962570988654
  0
LINE
  5
144
330
1F
100
AcDbEntity
  8
LAY-10
  6
CONTINUOUS
 62
     7
100
AcDbLine
 10
410.9387959663318
 20
536.3632478953396
 30
0.0
 11
410.8280427642446
 21
537.7774233155893
 31
0.0
  0
LINE
  5
145
330
1F
100
AcDbEntity
  8
LAY-10
  6
CONTINUOUS
 62
     7
100
AcDbLine
 10
408.3490376892685
 20
533.3147807286475
 30
0.0
 11
406.9431392957709
 21
533.2044093882668
 31
0.0
  0
LINE
  5
146
330
1F
100
AcDbEntity
  8
LAY-10
  6
CONTINUOUS
 62
     7
100
AcDbLine
 10
436.9195580798652
 20
521.3632478953396
 30
0.0
 11
438.1996465202657
 21
521.9744205189021
 31
0.0
  0
LINE
  5
147
330
1F
100
AcDbEntity
  8
LAY-10
  6
CONTINUOUS
 62
     7
100
AcDbLine
 10
435.5743872094386
 20
517.5962178543956
 30
0.0
 11
436.1817520215809
 21
516.3234884602922
 31
0.0
  0
ARC
  5
148
330
1F
100
AcDbEntity
  8
LAY-10
  6
CONTINUOUS
 62
     7
100
AcDbCircle
 10
465.0
 20
600.0
 30
0.0
 40
83.49999999999932
100
AcDbArc
 50
230.3292390068962
 51
249.6707609931034
  0
ARC
  5
149
330
1F
100
AcDbEntity
  8
LAY-10
  6
CONTINUOUS
 62
     7
100
AcDbCircle
 10
465.0
 20
600.0
 30
0.0
 40
87.50000000000156
100
AcDbArc
 50
230.3135603257637
 51
249.6864396742355
  0
LINE
  5
14A
330
1F
100
AcDbEntity
  8
LAY-10
  6
CONTINUOUS
 62
     7
100
AcDbLine
 10
449.8214222814888
 20
516.8804428642514
 30
0.0
 11
449.4621162646646
 21
514.9128436893824
 31
0.0
  0
LINE
  5
14B
330
1F
100
AcDbEntity
  8
LAY-10
  6
CONTINUOUS
 62
     7
100
AcDbLine
 10
480.1785777185112
 20
516.8804428642512
 30
0.0
 11
480.5378837353352
 21
514.9128436893824
 31
0.0
  0
LINE
  5
14C
330
1F
100
AcDbEntity
  8
LAY-10
  6
CONTINUOUS
 62
     7
100
AcDbLine
 10
448.1190790720299
 20
513.1248913173392
 30
0.0
 11
449.1969972033172
 21
519.0276892844973
 31
0.0
  0
LINE
  5
14D
330
1F
100
AcDbEntity
  8
LAY-10
  6
CONTINUOUS
 62
     7
100
AcDbLine
 10
481.8809209279834
 20
513.1248913173416
 30
0.0
 11
480.8030027966964
 21
519.0276892845001
 31
0.0
  0
ARC
  5
14E
330
1F
100
AcDbEntity
  8
LAY-10
  6
CONTINUOUS
 62
     7
100
AcDbCircle
 10
465.0
 20
600.0
 30
0.0
 40
82.4999999999992
100
AcDbArc
 50
258.9566553119802
 51
267.0123207477721
  0
ARC
  5
14F
330
1F
100
AcDbEntity
  8
LAY-10
  6
CONTINUOUS
 62
     7
100
AcDbCircle
 10
465.0
 20
600.0
 30
0.0
 40
88.50000000000284
100
AcDbArc
 50
259.0037429011436
 51
280.9962570988655
  0
LINE
  5
150
330
1F
100
AcDbEntity
  8
LAY-10
  6
CONTINUOUS
 62
     7
100
AcDbLine
 10
450.0
 20
517.8583540461973
 30
0.0
 11
449.1969972033172
 21
519.0276892844973
 31
0.0
  0
LINE
  5
151
330
1F
100
AcDbEntity
  8
LAY-10
  6
CONTINUOUS
 62
     7
100
AcDbLine
 10
449.2814371257481
 20
513.9234248987074
 30
0.0
 11
448.1190790720299
 21
513.1248913173392
 31
0.0
  0
LINE
  5
152
330
1F
100
AcDbEntity
  8
LAY-10
  6
CONTINUOUS
 62
     7
100
AcDbLine
 10
480.0
 20
517.8583540461973
 30
0.0
 11
480.8030027966964
 21
519.0276892845001
 31
0.0
  0
LINE
  5
153
330
1F
100
AcDbEntity
  8
LAY-10
  6
CONTINUOUS
 62
     7
100
AcDbLine
 10
480.7185628742519
 20
513.9234248987074
 30
0.0
 11
481.8809209279834
 21
513.1248913173418
 31
0.0
  0
ARC
  5
154
330
1F
100
AcDbEntity
  8
LAY-10
  6
CONTINUOUS
 62
     7
100
AcDbCircle
 10
465.0
 20
600.0
 30
0.0
 40
83.49999999999932
100
AcDbArc
 50
260.3292390068964
 51
279.6707609931037
  0
ARC
  5
155
330
1F
100
AcDbEntity
  8
LAY-10
  6
CONTINUOUS
 62
     7
100
AcDbCircle
 10
465.0
 20
600.0
 30
0.0
 40
87.50000000000156
100
AcDbArc
 50
260.3135603257643
 51
279.6864396742356
  0
LINE
  5
156
330
1F
100
AcDbEntity
  8
LAY-10
  6
CONTINUOUS
 62
     7
100
AcDbLine
 10
493.4147446703272
 20
520.4270631098739
 30
0.0
 11
494.0873761194593
 21
518.5434192315602
 31
0.0
  0
LINE
  5
157
330
1F
100
AcDbEntity
  8
LAY-10
  6
CONTINUOUS
 62
     7
100
AcDbLine
 10
519.7048124654216
 20
535.605640828385
 30
0.0
 11
520.9997801911583
 21
534.0813029668952
 31
0.0
  0
LINE
  5
158
330
1F
100
AcDbEntity
  8
LAY-10
  6
CONTINUOUS
 62
     7
100
AcDbLine
 10
493.8182479784319
 20
516.3234884602967
 30
0.0
 11
491.8003534797473
 21
521.9744205189063
 31
0.0
  0
LINE
  5
159
330
1F
100
AcDbEntity
  8
LAY-10
  6
CONTINUOUS
 62
     7
100
AcDbLine
 10
523.0568607042393
 20
533.2044093882756
 30
0.0
 11
519.1719572357656
 21
537.7774233155983
 31
0.0
  0
ARC
  5
15A
330
1F
100
AcDbEntity
  8
LAY-10
  6
CONTINUOUS
 62
     7
100
AcDbCircle
 10
465.0
 20
600.0
 30
0.0
 40
82.4999999999992
100
AcDbArc
 50
288.9566553119799
 51
311.0433446880296
  0
ARC
  5
15B
330
1F
100
AcDbEntity
  8
LAY-10
  6
CONTINUOUS
 62
     7
100
AcDbCircle
 10
465.0
 20
600.0
 30
0.0
 40
88.50000000000284
100
AcDbArc
 50
289.0037429011435
 51
310.9962570988656
  0
LINE
  5
15C
330
1F
100
AcDbEntity
  8
LAY-10
  6
CONTINUOUS
 62
     7
100
AcDbLine
 10
493.0804419201348
 20
521.3632478953396
 30
0.0
 11
491.8003534797473
 21
521.9744205189063
 31
0.0
  0
LINE
  5
15D
330
1F
100
AcDbEntity
  8
LAY-10
  6
CONTINUOUS
 62
     7
100
AcDbLine
 10
494.425612790561
 20
517.5962178543956
 30
0.0
 11
493.8182479784319
 21
516.3234884602966
 31
0.0
  0
LINE
  5
15E
330
1F
100
AcDbEntity
  8
LAY-10
  6
CONTINUOUS
 62
     7
100
AcDbLine
 10
519.0612040336678
 20
536.3632478953396
 30
0.0
 11
519.1719572357656
 21
537.7774233155983
 31
0.0
  0
LINE
  5
15F
330
1F
100
AcDbEntity
  8
LAY-10
  6
CONTINUOUS
 62
     7
100
AcDbLine
 10
521.6509623107313
 20
533.3147807286475
 30
0.0
 11
523.0568607042393
 21
533.204409388276
 31
0.0
  0
ARC
  5
160
330
1F
100
AcDbEntity
  8
LAY-10
  6
CONTINUOUS
 62
     7
100
AcDbCircle
 10
465.0
 20
600.0
 30
0.0
 40
83.49999999999932
100
AcDbArc
 50
290.3292390068965
 51
309.6707609931037
  0
ARC
  5
161
330
1F
100
AcDbEntity
  8
LAY-10
  6
CONTINUOUS
 62
     7
100
AcDbCircle
 10
465.0
 20
600.0
 30
0.0
 40
87.50000000000156
100
AcDbArc
 50
290.3135603257643
 51
309.6864396742357
  0
LINE
  5
162
330
1F
100
AcDbEntity
  8
LAY-10
  6
CONTINUOUS
 62
     7
100
AcDbLine
 10
529.3943591716148
 20
545.2951875345784
 30
0.0
 11
530.9186970331045
 21
544.0002198088418
 31
0.0
  0
LINE
  5
163
330
1F
100
AcDbEntity
  8
LAY-10
  6
CONTINUOUS
 62
     7
100
AcDbLine
 10
544.5729368901262
 20
571.5852553296728
 30
0.0
 11
546.4565807684401
 21
570.9126238805408
 31
0.0
  0
LINE
  5
164
330
1F
100
AcDbEntity
  8
LAY-10
  6
CONTINUOUS
 62
     7
100
AcDbLine
 10
531.7955906117331
 20
541.9431392957712
 30
0.0
 11
527.2225766844106
 21
545.8280427642449
 31
0.0
  0
LINE
  5
165
330
1F
100
AcDbEntity
  8
LAY-10
  6
CONTINUOUS
 62
     7
100
AcDbLine
 10
548.676511539708
 20
571.1817520215811
 30
0.0
 11
543.0255794810978
 21
573.1996465202657
 31
0.0
  0
ARC
  5
166
330
1F
100
AcDbEntity
  8
LAY-10
  6
CONTINUOUS
 62
     7
100
AcDbCircle
 10
465.0
 20
600.0
 30
0.0
 40
82.4999999999992
100
AcDbArc
 50
318.9566553119801
 51
341.0433446880299
  0
ARC
  5
167
330
1F
100
AcDbEntity
  8
LAY-10
  6
CONTINUOUS
 62
     7
100
AcDbCircle
 10
465.0
 20
600.0
 30
0.0
 40
88.50000000000284
100
AcDbArc
 50
319.0037429011435
 51
340.9962570988655
  0
LINE
  5
168
330
1F
100
AcDbEntity
  8
LAY-10
  6
CONTINUOUS
 62
     7
100
AcDbLine
 10
528.6367521046606
 20
545.9387959663321
 30
0.0
 11
527.2225766844106
 21
545.8280427642449
 31
0.0
  0
LINE
  5
169
330
1F
100
AcDbEntity
  8
LAY-10
  6
CONTINUOUS
 62
     7
100
AcDbLine
 10
531.6852192713524
 20
543.3490376892686
 30
0.0
 11
531.7955906117331
 21
541.9431392957712
 31
0.0
  0
LINE
  5
16A
330
1F
100
AcDbEntity
  8
LAY-10
  6
CONTINUOUS
 62
     7
100
AcDbLine
 10
543.6367521046606
 20
571.9195580798652
 30
0.0
 11
543.0255794810978
 21
573.1996465202657
 31
0.0
  0
LINE
  5
16B
330
1F
100
AcDbEntity
  8
LAY-10
  6
CONTINUOUS
 62
     7
100
AcDbLine
 10
547.4037821456046
 20
570.5743872094388
 30
0.0
 11
548.6765115397077
 21
571.1817520215811
 31
0.0
  0
ARC
  5
16C
330
1F
100
AcDbEntity
  8
LAY-10
  6
CONTINUOUS
 62
     7
100
AcDbCircle
 10
465.0
 20
600.0
 30
0.0
 40
83.49999999999932
100
AcDbArc
 50
320.3292390068966
 51
339.6707609931036
  0
ARC
  5
16D
330
1F
100
AcDbEntity
  8
LAY-10
  6
CONTINUOUS
 62
     7
100
AcDbCircle
 10
465.0
 20
600.0
 30
0.0
 40
87.50000000000156
100
AcDbArc
 50
320.3135603257643
 51
339.6864396742358
  0
LINE
  5
16E
330
1F
100
AcDbEntity
  8
LAY-10
  6
CONTINUOUS
 62
     7
100
AcDbLine
 10
548.1195571357488
 20
584.8214222814887
 30
0.0
 11
550.0871563106177
 21
584.4621162646648
 31
0.0
  0
LINE
  5
16F
330
1F
100
AcDbEntity
  8
LAY-10
  6
CONTINUOUS
 62
     7
100
AcDbLine
 10
548.1195571357488
 20
615.1785777185114
 30
0.0
 11
550.0871563106177
 21
615.5378837353353
 31
0.0
  0
LINE
  5
170
330
1F
100
AcDbEntity
  8
LAY-10
  6
CONTINUOUS
 62
     7
100
AcDbLine
 10
551.8751086826607
 20
583.1190790720301
 30
0.0
 11
545.9723107155027
 21
584.1969972033171
 31
0.0
  0
LINE
  5
171
330
1F
100
AcDbEntity
  8
LAY-10
  6
CONTINUOUS
 62
     7
100
AcDbLine
 10
551.8751086826584
 20
616.8809209279837
 30
0.0
 11
545.9723107154999
 21
615.8030027966964
 31
0.0
  0
ARC
  5
172
330
1F
100
AcDbEntity
  8
LAY-10
  6
CONTINUOUS
 62
     7
100
AcDbCircle
 10
465.0
 20
600.0
 30
0.0
 40
82.4999999999992
100
AcDbArc
 50
348.9566553119799
 51
355.618038325879
  0
ARC
  5
173
330
1F
100
AcDbEntity
  8
LAY-10
  6
CONTINUOUS
 62
     7
100
AcDbCircle
 10
465.0
 20
600.0
 30
0.0
 40
88.50000000000284
100
AcDbArc
 50
349.0037429011436
 51
10.99625709886501
  0
LINE
  5
174
330
1F
100
AcDbEntity
  8
LAY-10
  6
CONTINUOUS
 62
     7
100
AcDbLine
 10
547.1416459538028
 20
585.0
 30
0.0
 11
545.9723107155027
 21
584.1969972033171
 31
0.0
  0
LINE
  5
175
330
1F
100
AcDbEntity
  8
LAY-10
  6
CONTINUOUS
 62
     7
100
AcDbLine
 10
551.0765751012925
 20
584.2814371257481
 30
0.0
 11
551.8751086826607
 21
583.1190790720299
 31
0.0
  0
LINE
  5
176
330
1F
100
AcDbEntity
  8
LAY-10
  6
CONTINUOUS
 62
     7
100
AcDbLine
 10
547.1416459538028
 20
615.0
 30
0.0
 11
545.9723107154999
 21
615.8030027966964
 31
0.0
  0
LINE
  5
177
330
1F
100
AcDbEntity
  8
LAY-10
  6
CONTINUOUS
 62
     7
100
AcDbLine
 10
551.0765751012925
 20
615.7185628742519
 30
0.0
 11
551.875108682658
 21
616.8809209279837
 31
0.0
  0
ARC
  5
178
330
1F
100
AcDbEntity
  8
LAY-10
  6
CONTINUOUS
 62
     7
100
AcDbCircle
 10
465.0
 20
600.0
 30
0.0
 40
83.49999999999932
100
AcDbArc
 50
350.3292390068966
 51
9.670760993103404
  0
ARC
  5
179
330
1F
100
AcDbEntity
  8
LAY-10
  6
CONTINUOUS
 62
     7
100
AcDbCircle
 10
465.0
 20
600.0
 30
0.0
 40
87.50000000000156
100
AcDbArc
 50
350.3135603257642
 51
9.686439674235647
  0
LINE
  5
17A
330
1F
100
AcDbEntity
  8
LAY-10
  6
CONTINUOUS
 62
     7
100
AcDbLine
 10
544.5729368901262
 20
628.4147446703271
 30
0.0
 11
546.4565807684401
 21
629.0873761194593
 31
0.0
  0
LINE
  5
17B
330
1F
100
AcDbEntity
  8
LAY-10
  6
CONTINUOUS
 62
     7
100
AcDbLine
 10
529.3943591716148
 20
654.7048124654216
 30
0.0
 11
530.9186970331046
 21
655.9997801911583
 31
0.0
  0
LINE
  5
17C
330
1F
100
AcDbEntity
  8
LAY-10
  6
CONTINUOUS
 62
     7
100
AcDbLine
 10
548.6765115397035
 20
628.8182479784319
 30
0.0
 11
543.0255794810937
 21
626.8003534797475
 31
0.0
  0
LINE
  5
17D
330
1F
100
AcDbEntity
  8
LAY-10
  6
CONTINUOUS
 62
     7
100
AcDbLine
 10
531.7955906117246
 20
658.0568607042395
 30
0.0
 11
527.2225766844017
 21
654.1719572357656
 31
0.0
  0
ARC
  5
17E
330
1F
100
AcDbEntity
  8
LAY-10
  6
CONTINUOUS
 62
     7
100
AcDbCircle
 10
465.0
 20
600.0
 30
0.0
 40
82.4999999999992
100
AcDbArc
 50
18.95665531197955
 51
41.04334468802929
  0
ARC
  5
17F
330
1F
100
AcDbEntity
  8
LAY-10
  6
CONTINUOUS
 62
     7
100
AcDbCircle
 10
465.0
 20
600.0
 30
0.0
 40
88.50000000000284
100
AcDbArc
 50
19.00374290114302
 51
40.99625709886519
  0
LINE
  5
180
330
1F
100
AcDbEntity
  8
LAY-10
  6
CONTINUOUS
 62
     7
100
AcDbLine
 10
543.6367521046606
 20
628.0804419201347
 30
0.0
 11
543.0255794810937
 21
626.8003534797475
 31
0.0
  0
LINE
  5
181
330
1F
100
AcDbEntity
  8
LAY-10
  6
CONTINUOUS
 62
     7
100
AcDbLine
 10
547.4037821456046
 20
629.4256127905612
 30
0.0
 11
548.6765115397035
 21
628.8182479784319
 31
0.0
  0
LINE
  5
182
330
1F
100
AcDbEntity
  8
LAY-10
  6
CONTINUOUS
 62
     7
100
AcDbLine
 10
528.6367521046606
 20
654.061204033668
 30
0.0
 11
527.2225766844017
 21
654.1719572357656
 31
0.0
  0
LINE
  5
183
330
1F
100
AcDbEntity
  8
LAY-10
  6
CONTINUOUS
 62
     7
100
AcDbLine
 10
531.6852192713526
 20
656.6509623107315
 30
0.0
 11
531.7955906117242
 21
658.0568607042393
 31
0.0
  0
ARC
  5
184
330
1F
100
AcDbEntity
  8
LAY-10
  6
CONTINUOUS
 62
     7
100
AcDbCircle
 10
465.0
 20
600.0
 30
0.0
 40
83.49999999999932
100
AcDbArc
 50
20.32923900689615
 51
39.67076099310341
  0
ARC
  5
185
330
1F
100
AcDbEntity
  8
LAY-10
  6
CONTINUOUS
 62
     7
100
AcDbCircle
 10
465.0
 20
600.0
 30
0.0
 40
87.50000000000156
100
AcDbArc
 50
20.31356032576385
 51
39.6864396742356
  0
LINE
  5
186
330
1F
100
AcDbEntity
  8
LAY-10
  6
CONTINUOUS
 62
     7
100
AcDbLine
 10
519.7048124654216
 20
664.3943591716151
 30
0.0
 11
520.9997801911583
 21
665.9186970331045
 31
0.0
  0
LINE
  5
187
330
1F
100
AcDbEntity
  8
LAY-10
  6
CONTINUOUS
 62
     7
100
AcDbLine
 10
493.4147446703272
 20
679.5729368901262
 30
0.0
 11
494.0873761194595
 21
681.45658076844
 31
0.0
  0
LINE
  5
188
330
1F
100
AcDbEntity
  8
LAY-10
  6
CONTINUOUS
 62
     7
100
AcDbLine
 10
523.0568607042287
 20
666.7955906117334
 30
0.0
 11
519.1719572357553
 21
662.2225766844108
 31
0.0
  0
LINE
  5
189
330
1F
100
AcDbEntity
  8
LAY-10
  6
CONTINUOUS
 62
     7
100
AcDbLine
 10
493.8182479784189
 20
683.6765115397083
 30
0.0
 11
491.8003534797345
 21
678.025579481098
 31
0.0
  0
ARC
  5
18A
330
1F
100
AcDbEntity
  8
LAY-10
  6
CONTINUOUS
 62
     7
100
AcDbCircle
 10
465.0
 20
600.0
 30
0.0
 40
82.4999999999992
100
AcDbArc
 50
48.95665531197979
 51
71.04334468802942
  0
ARC
  5
18B
330
1F
100
AcDbEntity
  8
LAY-10
  6
CONTINUOUS
 62
     7
100
AcDbCircle
 10
465.0
 20
600.0
 30
0.0
 40
88.50000000000284
100
AcDbArc
 50
49.00374290114321
 51
70.99625709886539
  0
LINE
  5
18C
330
1F
100
AcDbEntity
  8
LAY-10
  6
CONTINUOUS
 62
     7
100
AcDbLine
 10
519.0612040336678
 20
663.6367521046606
 30
0.0
 11
519.1719572357553
 21
662.2225766844108
 31
0.0
  0
LINE
  5
18D
330
1F
100
AcDbEntity
  8
LAY-10
  6
CONTINUOUS
 62
     7
100
AcDbLine
 10
521.6509623107313
 20
666.6852192713526
 30
0.0
 11
523.0568607042287
 21
666.7955906117331
 31
0.0
  0
LINE
  5
18E
330
1F
100
AcDbEntity
  8
LAY-10
  6
CONTINUOUS
 62
     7
100
AcDbLine
 10
493.080441920135
 20
678.6367521046606
 30
0.0
 11
491.8003534797345
 21
678.025579481098
 31
0.0
  0
LINE
  5
18F
330
1F
100
AcDbEntity
  8
LAY-10
  6
CONTINUOUS
 62
     7
100
AcDbLine
 10
494.4256127905612
 20
682.4037821456045
 30
0.0
 11
493.8182479784188
 21
683.6765115397079
 31
0.0
  0
ARC
  5
190
330
1F
100
AcDbEntity
  8
LAY-10
  6
CONTINUOUS
 62
     7
100
AcDbCircle
 10
465.0
 20
600.0
 30
0.0
 40
83.49999999999932
100
AcDbArc
 50
50.32923900689622
 51
69.67076099310341
  0
ARC
  5
191
330
1F
100
AcDbEntity
  8
LAY-10
  6
CONTINUOUS
 62
     7
100
AcDbCircle
 10
465.0
 20
600.0
 30
0.0
 40
87.50000000000156
100
AcDbArc
 50
50.31356032576402
 51
69.68643967423544
  0
LINE
  5
192
330
1F
100
AcDbEntity
  8
LAY-10
  6
CONTINUOUS
 62
     7
100
AcDbLine
 10
480.1785777185112
 20
683.119557135749
 30
0.0
 11
480.5378837353352
 21
685.0871563106175
 31
0.0
  0
LINE
  5
193
330
1F
100
AcDbEntity
  8
LAY-10
  6
CONTINUOUS
 62
     7
100
AcDbLine
 10
449.8214222814888
 20
683.1195571357487
 30
0.0
 11
449.4621162646646
 21
685.0871563106175
 31
0.0
  0
LINE
  5
194
330
1F
100
AcDbEntity
  8
LAY-10
  6
CONTINUOUS
 62
     7
100
AcDbLine
 10
481.8809209279698
 20
686.8751086826608
 30
0.0
 11
480.803002796683
 21
680.9723107155029
 31
0.0
  0
LINE
  5
195
330
1F
100
AcDbEntity
  8
LAY-10
  6
CONTINUOUS
 62
     7
100
AcDbLine
 10
448.1190790720162
 20
686.8751086826586
 30
0.0
 11
449.1969972033036
 21
680.9723107155002
 31
0.0
  0
ARC
  5
196
330
1F
100
AcDbEntity
  8
LAY-10
  6
CONTINUOUS
 62
     7
100
AcDbCircle
 10
465.0
 20
600.0
 30
0.0
 40
82.4999999999992
100
AcDbArc
 50
78.95665531197969
 51
87.01232074777167
  0
ARC
  5
197
330
1F
100
AcDbEntity
  8
LAY-10
  6
CONTINUOUS
 62
     7
100
AcDbCircle
 10
465.0
 20
600.0
 30
0.0
 40
88.50000000000284
100
AcDbArc
 50
79.00374290114304
 51
100.9962570988653
  0
LINE
  5
198
330
1F
100
AcDbEntity
  8
LAY-10
  6
CONTINUOUS
 62
     7
100
AcDbLine
 10
480.0
 20
682.1416459538029
 30
0.0
 11
480.803002796683
 21
680.9723107155029
 31
0.0
  0
LINE
  5
199
330
1F
100
AcDbEntity
  8
LAY-10
  6
CONTINUOUS
 62
     7
100
AcDbLine
 10
480.7185628742519
 20
686.0765751012927
 30
0.0
 11
481.8809209279701
 21
686.8751086826608
 31
0.0
  0
LINE
  5
19A
330
1F
100
AcDbEntity
  8
LAY-10
  6
CONTINUOUS
 62
     7
100
AcDbLine
 10
450.0
 20
682.1416459538029
 30
0.0
 11
449.1969972033036
 21
680.9723107155002
 31
0.0
  0
LINE
  5
19B
330
1F
100
AcDbEntity
  8
LAY-10
  6
CONTINUOUS
 62
     7
100
AcDbLine
 10
449.2814371257481
 20
686.0765751012927
 30
0.0
 11
448.1190790720162
 21
686.8751086826583
 31
0.0
  0
ARC
  5
19C
330
1F
100
AcDbEntity
  8
LAY-10
  6
CONTINUOUS
 62
     7
100
AcDbCircle
 10
465.0
 20
600.0
 30
0.0
 40
87.50000000000156
100
AcDbArc
 50
80.31356032576416
 51
99.68643967423573
  0
LINE
  5
19D
330
1F
100
AcDbEntity
  8
LAY-10
  6
CONTINUOUS
 62
     7
100
AcDbLine
 10
436.5852553296728
 20
679.5729368901262
 30
0.0
 11
435.9126238805405
 21
681.45658076844
 31
0.0
  0
LINE
  5
19E
330
1F
100
AcDbEntity
  8
LAY-10
  6
CONTINUOUS
 62
     7
100
AcDbLine
 10
410.2951875345784
 20
664.3943591716147
 30
0.0
 11
409.0002198088418
 21
665.9186970331045
 31
0.0
  0
LINE
  5
19F
330
1F
100
AcDbEntity
  8
LAY-10
  6
CONTINUOUS
 62
     7
100
AcDbLine
 10
436.1817520215679
 20
683.6765115397035
 30
0.0
 11
438.1996465202524
 21
678.0255794810937
 31
0.0
  0
LINE
  5
1A0
330
1F
100
AcDbEntity
  8
LAY-10
  6
CONTINUOUS
 62
     7
100
AcDbLine
 10
406.9431392957604
 20
666.7955906117245
 30
0.0
 11
410.8280427642344
 21
662.2225766844016
 31
0.0
  0
ARC
  5
1A1
330
1F
100
AcDbEntity
  8
LAY-10
  6
CONTINUOUS
 62
     7
100
AcDbCircle
 10
465.0
 20
600.0
 30
0.0
 40
82.4999999999992
100
AcDbArc
 50
108.9566553119797
 51
131.0433446880296
  0
ARC
  5
1A2
330
1F
100
AcDbEntity
  8
LAY-10
  6
CONTINUOUS
 62
     7
100
AcDbCircle
 10
465.0
 20
600.0
 30
0.0
 40
88.50000000000284
100
AcDbArc
 50
109.0037429011432
 51
130.9962570988652
  0
LINE
  5
1A3
330
1F
100
AcDbEntity
  8
LAY-10
  6
CONTINUOUS
 62
     7
100
AcDbLine
 10
436.9195580798652
 20
678.6367521046606
 30
0.0
 11
438.1996465202524
 21
678.0255794810937
 31
0.0
  0
LINE
  5
1A4
330
1F
100
AcDbEntity
  8
LAY-10
  6
CONTINUOUS
 62
     7
100
AcDbLine
 10
435.5743872094386
 20
682.4037821456045
 30
0.0
 11
436.1817520215683
 21
683.6765115397035
 31
0.0
  0
LINE
  5
1A5
330
1F
100
AcDbEntity
  8
LAY-10
  6
CONTINUOUS
 62
     7
100
AcDbLine
 10
410.9387959663318
 20
663.6367521046606
 30
0.0
 11
410.8280427642344
 21
662.2225766844016
 31
0.0
  0
LINE
  5
1A6
330
1F
100
AcDbEntity
  8
LAY-10
  6
CONTINUOUS
 62
     7
100
AcDbLine
 10
408.3490376892685
 20
666.6852192713526
 30
0.0
 11
406.9431392957607
 21
666.7955906117242
 31
0.0
  0
ARC
  5
1A7
330
1F
100
AcDbEntity
  8
LAY-10
  6
CONTINUOUS
 62
     7
100
AcDbCircle
 10
465.0
 20
600.0
 30
0.0
 40
83.49999999999932
100
AcDbArc
 50
110.3292390068964
 51
129.6707609931035
  0
ARC
  5
1A8
330
1F
100
AcDbEntity
  8
LAY-10
  6
CONTINUOUS
 62
     7
100
AcDbCircle
 10
465.0
 20
600.0
 30
0.0
 40
87.50000000000156
100
AcDbArc
 50
110.3135603257642
 51
129.6864396742356
  0
LINE
  5
1A9
330
1F
100
AcDbEntity
  8
LAY-10
  6
CONTINUOUS
 62
     7
100
AcDbLine
 10
400.6056408283851
 20
654.7048124654215
 30
0.0
 11
399.0813029668954
 21
655.9997801911583
 31
0.0
  0
LINE
  5
1AA
330
1F
100
AcDbEntity
  8
LAY-10
  6
CONTINUOUS
 62
     7
100
AcDbLine
 10
385.4270631098739
 20
628.4147446703272
 30
0.0
 11
383.5434192315601
 21
629.0873761194593
 31
0.0
  0
LINE
  5
1AB
330
1F
100
AcDbEntity
  8
LAY-10
  6
CONTINUOUS
 62
     7
100
AcDbLine
 10
398.2044093882667
 20
658.0568607042287
 30
0.0
 11
402.7774233155893
 21
654.1719572357553
 31
0.0
  0
LINE
  5
1AC
330
1F
100
AcDbEntity
  8
LAY-10
  6
CONTINUOUS
 62
     7
100
AcDbLine
 10
381.3234884602919
 20
628.818247978419
 30
0.0
 11
386.9744205189018
 21
626.8003534797343
 31
0.0
  0
ARC
  5
1AD
330
1F
100
AcDbEntity
  8
LAY-10
  6
CONTINUOUS
 62
     7
100
AcDbCircle
 10
465.0
 20
600.0
 30
0.0
 40
82.4999999999992
100
AcDbArc
 50
138.9566553119795
 51
161.0433446880297
  0
ARC
  5
1AE
330
1F
100
AcDbEntity
  8
LAY-10
  6
CONTINUOUS
 62
     7
100
AcDbCircle
 10
465.0
 20
600.0
 30
0.0
 40
88.50000000000284
100
AcDbArc
 50
139.0037429011433
 51
160.9962570988654
  0
LINE
  5
1AF
330
1F
100
AcDbEntity
  8
LAY-10
  6
CONTINUOUS
 62
     7
100
AcDbLine
 10
401.3632478953393
 20
654.061204033668
 30
0.0
 11
402.7774233155893
 21
654.1719572357553
 31
0.0
  0
LINE
  5
1B0
330
1F
100
AcDbEntity
  8
LAY-10
  6
CONTINUOUS
 62
     7
100
AcDbLine
 10
398.3147807286473
 20
656.6509623107315
 30
0.0
 11
398.2044093882667
 21
658.0568607042289
 31
0.0
  0
LINE
  5
1B1
330
1F
100
AcDbEntity
  8
LAY-10
  6
CONTINUOUS
 62
     7
100
AcDbLine
 10
386.3632478953396
 20
628.0804419201348
 30
0.0
 11
386.9744205189018
 21
626.8003534797343
 31
0.0
  0
LINE
  5
1B2
330
1F
100
AcDbEntity
  8
LAY-10
  6
CONTINUOUS
 62
     7
100
AcDbLine
 10
382.5962178543955
 20
629.4256127905612
 30
0.0
 11
381.3234884602921
 21
628.818247978419
 31
0.0
  0
ARC
  5
1B3
330
1F
100
AcDbEntity
  8
LAY-10
  6
CONTINUOUS
 62
     7
100
AcDbCircle
 10
465.0
 20
600.0
 30
0.0
 40
83.49999999999932
100
AcDbArc
 50
140.3292390068964
 51
159.6707609931035
  0
ARC
  5
1B4
330
1F
100
AcDbEntity
  8
LAY-10
  6
CONTINUOUS
 62
     7
100
AcDbCircle
 10
465.0
 20
600.0
 30
0.0
 40
87.50000000000156
100
AcDbArc
 50
140.3135603257642
 51
159.6864396742357
  0
ARC
  5
1B5
330
1F
100
AcDbEntity
  8
LAY-10
  6
CONTINUOUS
 62
     7
100
AcDbCircle
 10
465.0
 20
600.0
 30
0.0
 40
82.75843847480951
100
AcDbArc
 50
175.8423991526477
 51
184.157600847352
  0
ARC
  5
1B6
330
1F
100
AcDbEntity
  8
LAY-10
  6
CONTINUOUS
 62
     7
100
AcDbCircle
 10
465.0
 20
600.0
 30
0.0
 40
82.4999999999992
100
AcDbArc
 50
184.3819616741208
 51
191.0433446880292
  0
LINE
  5
1B7
330
1F
100
AcDbEntity
  8
LAY-10
  6
CONTINUOUS
 62
     7
100
AcDbLine
 10
382.4593485681822
 20
605.9999999999989
 30
0.0
 11
382.741159369602
 21
606.3034227323468
 31
0.0
  0
LINE
  5
1B8
330
1F
100
AcDbEntity
  8
LAY-10
  6
CONTINUOUS
 62
     7
100
AcDbLine
 10
382.741159369602
 20
593.6965772676533
 30
0.0
 11
382.4593485681822
 21
594.0000000000013
 31
0.0
  0
LINE
  5
1B9
330
1F
100
AcDbEntity
  8
LAY-10
  6
CONTINUOUS
 62
     7
100
AcDbLine
 10
545.7774721070177
 20
605.9999999999989
 30
0.0
 11
547.5406514318178
 21
605.9999999999989
 31
0.0
  0
ARC
  5
1BA
330
1F
100
AcDbEntity
  8
LAY-10
  6
CONTINUOUS
 62
     7
100
AcDbCircle
 10
465.0
 20
600.0
 30
0.0
 40
82.75843847480951
100
AcDbArc
 50
355.8423991526478
 51
4.157600847352311
  0
LINE
  5
1BB
330
1F
100
AcDbEntity
  8
LAY-10
  6
CONTINUOUS
 62
     7
100
AcDbLine
 10
545.7543612559554
 20
606.3034227323468
 30
0.0
 11
547.2588406303979
 21
606.3034227323468
 31
0.0
  0
LINE
  5
1BC
330
1F
100
AcDbEntity
  8
LAY-10
  6
CONTINUOUS
 62
     7
100
AcDbLine
 10
547.540651431818
 20
605.9999999999989
 30
0.0
 11
547.2588406303979
 21
606.3034227323468
 31
0.0
  0
LINE
  5
1BD
330
1F
100
AcDbEntity
  8
LAY-10
  6
CONTINUOUS
 62
     7
100
AcDbLine
 10
547.2588406303979
 20
593.6965772676533
 30
0.0
 11
547.540651431818
 21
594.0000000000013
 31
0.0
  0
ARC
  5
1BE
330
1F
100
AcDbEntity
  8
LAY-10
  6
CONTINUOUS
 62
     7
100
AcDbCircle
 10
465.0
 20
600.0
 30
0.0
 40
82.4999999999992
100
AcDbArc
 50
4.381961674121043
 51
11.04334468802923
  0
LINE
  5
1BF
330
1F
100
AcDbEntity
  8
LAY-10
  6
CONTINUOUS
 62
     7
100
AcDbLine
 10
383.7254880689695
 20
294.9999999999999
 30
0.0
 11
382.9822044460773
 21
300.1430362784033
 31
0.0
  0
ARC
  5
1C0
330
1F
100
AcDbEntity
  8
LAY-10
  6
CONTINUOUS
 62
     7
100
AcDbCircle
 10
375.6816776006704
 20
295.7712055048662
 30
0.0
 40
1.0
100
AcDbArc
 50
254.9999999999984
 51
351.2317112091305
  0
ARC
  5
1C1
330
1F
100
AcDbEntity
  8
LAY-10
  6
CONTINUOUS
 62
     7
100
AcDbCircle
 10
378.3575838025568
 20
299.9999999999998
 30
0.0
 40
1.0
100
AcDbArc
 50
89.99999999999996
 51
171.2317112091305
  0
ARC
  5
1C2
330
1F
100
AcDbEntity
  8
LAY-10
  6
CONTINUOUS
 62
     7
100
AcDbCircle
 10
380.6159848465624
 20
299.9999999999998
 30
0.0
 40
1.0
100
AcDbArc
 50
7.045660880122091
 51
89.99999999999996
  0
ARC
  5
1C3
330
1F
100
AcDbEntity
  8
LAY-10
  6
CONTINUOUS
 62
     7
100
AcDbCircle
 10
381.9924870000046
 20
299.9999999999998
 30
0.0
 40
1.0
100
AcDbArc
 50
8.223580910552474
 51
89.99999999999996
  0
ARC
  5
1C4
330
1F
100
AcDbEntity
  8
LAY-10
  6
CONTINUOUS
 62
     7
100
AcDbCircle
 10
383.4512128964058
 20
299.9999999999998
 30
0.0
 40
1.0
100
AcDbArc
 50
89.99999999999996
 51
136.833014311376
  0
LINE
  5
1C5
330
1F
100
AcDbEntity
  8
LAY-10
  6
CONTINUOUS
 62
     7
100
AcDbLine
 10
383.4512128964058
 20
300.9999999999998
 30
0.0
 11
383.9475922207168
 21
300.9999999999998
 31
0.0
  0
ARC
  5
1C6
330
1F
100
AcDbEntity
  8
LAY-10
  6
CONTINUOUS
 62
     7
100
AcDbCircle
 10
436.0653308376667
 20
299.9999999999998
 30
0.0
 40
1.0
100
AcDbArc
 50
8.990290027311122
 51
89.99999999999996
  0
ARC
  5
1C7
330
1F
100
AcDbEntity
  8
LAY-10
  6
CONTINUOUS
 62
     7
100
AcDbCircle
 10
449.5930320398409
 20
300.6275730066963
 30
0.0
 40
0.372426993299797
100
AcDbArc
 50
354.9248901826066
 51
169.835775992096
  0
LINE
  5
1C8
330
1F
100
AcDbEntity
  8
LAY-10
  6
CONTINUOUS
 62
     7
100
AcDbLine
 10
449.5930320398409
 20
300.9999999999998
 30
0.0
 11
460.0000000000003
 21
300.9999999999998
 31
0.0
  0
ARC
  5
1C9
330
1F
100
AcDbEntity
  8
LAY-10
  6
CONTINUOUS
 62
     7
100
AcDbCircle
 10
480.4069679601598
 20
300.6275730066963
 30
0.0
 40
0.372426993299797
100
AcDbArc
 50
10.16422400790549
 51
185.0751098173926
  0
LINE
  5
1CA
330
1F
100
AcDbEntity
  8
LAY-10
  6
CONTINUOUS
 62
     7
100
AcDbLine
 10
480.4069679601598
 20
300.9999999999998
 30
0.0
 11
477.1387156118651
 21
300.9999999999998
 31
0.0
  0
LINE
  5
1CB
330
1F
100
AcDbEntity
  8
LAY-10
  6
CONTINUOUS
 62
     7
100
AcDbLine
 10
546.5487871035949
 20
300.9999999999998
 30
0.0
 11
534.2011498806762
 21
300.9999999999998
 31
0.0
  0
ARC
  5
1CC
330
1F
100
AcDbEntity
  8
LAY-10
  6
CONTINUOUS
 62
     7
100
AcDbCircle
 10
551.6424161974439
 20
299.9999999999998
 30
0.0
 40
1.0
100
AcDbArc
 50
8.768288790869484
 51
89.99999999999996
  0
ARC
  5
1CD
330
1F
100
AcDbEntity
  8
LAY-10
  6
CONTINUOUS
 62
     7
100
AcDbCircle
 10
549.3840151534383
 20
299.9999999999998
 30
0.0
 40
1.0
100
AcDbArc
 50
89.99999999999996
 51
172.9543391198774
  0
ARC
  5
1CE
330
1F
100
AcDbEntity
  8
LAY-10
  6
CONTINUOUS
 62
     7
100
AcDbCircle
 10
548.0075129999962
 20
299.9999999999998
 30
0.0
 40
1.0
100
AcDbArc
 50
89.99999999999996
 51
171.7764190894475
  0
ARC
  5
1CF
330
1F
100
AcDbEntity
  8
LAY-10
  6
CONTINUOUS
 62
     7
100
AcDbCircle
 10
544.5640639499848
 20
299.9999999999998
 30
0.0
 40
1.0
100
AcDbArc
 50
89.99999999999996
 51
175.6802511899005
  0
ARC
  5
1D0
330
1F
100
AcDbEntity
  8
LAY-10
  6
CONTINUOUS
 62
     7
100
AcDbCircle
 10
546.5487871035949
 20
299.9999999999998
 30
0.0
 40
1.0
100
AcDbArc
 50
43.16698568862397
 51
89.99999999999996
  0
LINE
  5
1D1
330
1F
100
AcDbEntity
  8
LAY-10
  6
CONTINUOUS
 62
     7
100
AcDbLine
 10
551.6424161974439
 20
300.9999999999998
 30
0.0
 11
548.0075129999962
 21
300.9999999999998
 31
0.0
  0
LINE
  5
1D2
330
1F
100
AcDbEntity
  8
LAY-10
  6
CONTINUOUS
 62
     7
100
AcDbLine
 10
543.1486874887412
 20
294.5387359158175
 30
0.0
 11
543.1835300017775
 21
294.9999999999999
 31
0.0
  0
LINE
  5
1D3
330
1F
100
AcDbEntity
  8
LAY-10
  6
CONTINUOUS
 62
     7
100
AcDbLine
 10
546.16001975113
 20
294.2077890367961
 30
0.0
 11
547.0177955539234
 21
300.1430362784033
 31
0.0
  0
ARC
  5
1D4
330
1F
100
AcDbEntity
  8
LAY-10
  6
CONTINUOUS
 62
     7
100
AcDbCircle
 10
544.6599930453142
 20
294.4245764020759
 30
0.0
 40
1.515611058257918
100
AcDbArc
 50
175.6802511898974
 51
351.776419089453
  0
ARC
  5
1D5
330
1F
100
AcDbEntity
  8
LAY-10
  6
CONTINUOUS
 62
     7
100
AcDbCircle
 10
545.6804312133288
 20
294.4919657176795
 30
0.0
 40
2.0
100
AcDbArc
 50
284.999999999998
 51
352.9543391198779
  0
ARC
  5
1D6
330
1F
100
AcDbEntity
  8
LAY-10
  6
CONTINUOUS
 62
     7
100
AcDbCircle
 10
554.3183223993301
 20
295.7712055048662
 30
0.0
 40
1.0
100
AcDbArc
 50
188.7682887908695
 51
285.0000000000016
  0
LINE
  5
1D7
330
1F
100
AcDbEntity
  8
LAY-10
  6
CONTINUOUS
 62
     7
100
AcDbLine
 10
465.0000000000003
 20
286.9999999999995
 30
0.0
 11
512.7096311171323
 21
286.9999999999995
 31
0.0
  0
LINE
  5
1D8
330
1F
100
AcDbEntity
  8
LAY-10
  6
CONTINUOUS
 62
     7
100
AcDbLine
 10
471.3034227323343
 20
289.2103493699026
 30
0.0
 11
470.9999999999864
 21
294.9999999999999
 31
0.0
  0
LINE
  5
1D9
330
1F
100
AcDbEntity
  8
LAY-10
  6
CONTINUOUS
 62
     7
100
AcDbLine
 10
465.0000000000003
 20
289.2103493699034
 30
0.0
 11
471.3034227323343
 21
289.2103493699034
 31
0.0
  0
LINE
  5
1DA
330
1F
100
AcDbEntity
  8
LAY-10
  6
CONTINUOUS
 62
     7
100
AcDbLine
 10
457.5117259598399
 20
287.9999999999995
 30
0.0
 11
457.249687063425
 21
282.9999999999994
 31
0.0
  0
ARC
  5
1DB
330
1F
100
AcDbEntity
  8
LAY-10
  6
CONTINUOUS
 62
     7
100
AcDbCircle
 10
379.7332029708196
 20
614.5541514484636
 30
0.0
 40
1.0
100
AcDbArc
 50
79.6511666165186
 51
170.3135603257634
  0
ARC
  5
1DC
330
1F
100
AcDbEntity
  8
LAY-10
  6
CONTINUOUS
 62
     7
100
AcDbCircle
 10
381.7008021456884
 20
614.1948454316394
 30
0.0
 40
1.0
100
AcDbArc
 50
350.3292390069043
 51
79.65116661652179
  0
ARC
  5
1DD
330
1F
100
AcDbEntity
  8
LAY-10
  6
CONTINUOUS
 62
     7
100
AcDbCircle
 10
379.7332029708196
 20
585.4458485515365
 30
0.0
 40
1.0
100
AcDbArc
 50
189.6864396742366
 51
280.3488333834802
  0
ARC
  5
1DE
330
1F
100
AcDbEntity
  8
LAY-10
  6
CONTINUOUS
 62
     7
100
AcDbCircle
 10
381.7008021456884
 20
585.8051545683608
 30
0.0
 40
1.0
100
AcDbArc
 50
280.348833383477
 51
9.670760993095668
  0
ARC
  5
1DF
330
1F
100
AcDbEntity
  8
LAY-10
  6
CONTINUOUS
 62
     7
100
AcDbCircle
 10
383.8797119491664
 20
630.0291336296949
 30
0.0
 40
1.0
100
AcDbArc
 50
159.6864396742478
 51
250.3488333834884
  0
ARC
  5
1E0
330
1F
100
AcDbEntity
  8
LAY-10
  6
CONTINUOUS
 62
     7
100
AcDbCircle
 10
385.7633558274803
 20
629.3565021805626
 30
0.0
 40
1.0
100
AcDbArc
 50
250.348833383483
 51
339.6707609931097
  0
ARC
  5
1E1
330
1F
100
AcDbEntity
  8
LAY-10
  6
CONTINUOUS
 62
     7
100
AcDbCircle
 10
398.4338633976298
 20
655.2376633994855
 30
0.0
 40
1.0
100
AcDbArc
 50
49.65116661652241
 51
140.3135603257575
  0
ARC
  5
1E2
330
1F
100
AcDbEntity
  8
LAY-10
  6
CONTINUOUS
 62
     7
100
AcDbCircle
 10
399.9582012591196
 20
653.942695673749
 30
0.0
 40
1.0
100
AcDbArc
 50
320.3292390068898
 51
49.65116661650477
  0
ARC
  5
1E3
330
1F
100
AcDbEntity
  8
LAY-10
  6
CONTINUOUS
 62
     7
100
AcDbCircle
 10
411.0573043262509
 20
665.0417987408803
 30
0.0
 40
1.0
100
AcDbArc
 50
220.3488333834885
 51
309.6707609931173
  0
ARC
  5
1E4
330
1F
100
AcDbEntity
  8
LAY-10
  6
CONTINUOUS
 62
     7
100
AcDbCircle
 10
409.7623366005144
 20
666.5661366023701
 30
0.0
 40
1.0
100
AcDbArc
 50
129.6864396742471
 51
220.3488333834842
  0
ARC
  5
1E5
330
1F
100
AcDbEntity
  8
LAY-10
  6
CONTINUOUS
 62
     7
100
AcDbCircle
 10
434.970866370305
 20
681.1202880508334
 30
0.0
 40
1.0
100
AcDbArc
 50
19.65116661652189
 51
110.313560325775
  0
ARC
  5
1E6
330
1F
100
AcDbEntity
  8
LAY-10
  6
CONTINUOUS
 62
     7
100
AcDbCircle
 10
435.6434978194372
 20
679.2366441725197
 30
0.0
 40
1.0
100
AcDbArc
 50
290.3292390068995
 51
19.65116661652189
  0
ARC
  5
1E7
330
1F
100
AcDbEntity
  8
LAY-10
  6
CONTINUOUS
 62
     7
100
AcDbCircle
 10
450.4458485515366
 20
685.2667970291805
 30
0.0
 40
1.0
100
AcDbArc
 50
99.68643967423769
 51
190.3488333834872
  0
ARC
  5
1E8
330
1F
100
AcDbEntity
  8
LAY-10
  6
CONTINUOUS
 62
     7
100
AcDbCircle
 10
450.8051545683607
 20
683.2991978543117
 30
0.0
 40
1.0
100
AcDbArc
 50
190.3488333834936
 51
279.6707609931053
  0
ARC
  5
1E9
330
1F
100
AcDbEntity
  8
LAY-10
  6
CONTINUOUS
 62
     7
100
AcDbCircle
 10
479.1948454316393
 20
683.2991978543117
 30
0.0
 40
1.0
100
AcDbArc
 50
260.3292390068947
 51
349.6511666165268
  0
ARC
  5
1EA
330
1F
100
AcDbEntity
  8
LAY-10
  6
CONTINUOUS
 62
     7
100
AcDbCircle
 10
479.5541514484634
 20
685.2667970291805
 30
0.0
 40
1.0
100
AcDbArc
 50
349.6511666165128
 51
80.31356032576231
  0
ARC
  5
1EB
330
1F
100
AcDbEntity
  8
LAY-10
  6
CONTINUOUS
 62
     7
100
AcDbCircle
 10
495.0291336296949
 20
681.1202880508334
 30
0.0
 40
1.0
100
AcDbArc
 50
69.68643967423864
 51
160.3488333834759
  0
ARC
  5
1EC
330
1F
100
AcDbEntity
  8
LAY-10
  6
CONTINUOUS
 62
     7
100
AcDbCircle
 10
494.3565021805628
 20
679.2366441725197
 30
0.0
 40
1.0
100
AcDbArc
 50
160.3488333834759
 51
249.6707609931006
  0
ARC
  5
1ED
330
1F
100
AcDbEntity
  8
LAY-10
  6
CONTINUOUS
 62
     7
100
AcDbCircle
 10
518.942695673749
 20
665.0417987408806
 30
0.0
 40
1.0
100
AcDbArc
 50
230.3292390069019
 51
319.6511666165115
  0
ARC
  5
1EE
330
1F
100
AcDbEntity
  8
LAY-10
  6
CONTINUOUS
 62
     7
100
AcDbCircle
 10
520.2376633994855
 20
666.5661366023701
 30
0.0
 40
1.0
100
AcDbArc
 50
319.6511666165249
 51
50.31356032576375
  0
ARC
  5
1EF
330
1F
100
AcDbEntity
  8
LAY-10
  6
CONTINUOUS
 62
     7
100
AcDbCircle
 10
530.0417987408804
 20
653.942695673749
 30
0.0
 40
1.0
100
AcDbArc
 50
130.3488333834885
 51
219.6707609930981
  0
ARC
  5
1F0
330
1F
100
AcDbEntity
  8
LAY-10
  6
CONTINUOUS
 62
     7
100
AcDbCircle
 10
531.5661366023702
 20
655.2376633994858
 30
0.0
 40
1.0
100
AcDbArc
 50
39.68643967423125
 51
130.3488333834885
  0
ARC
  5
1F1
330
1F
100
AcDbEntity
  8
LAY-10
  6
CONTINUOUS
 62
     7
100
AcDbCircle
 10
544.2366441725198
 20
629.3565021805626
 30
0.0
 40
1.0
100
AcDbArc
 50
200.3292390069132
 51
289.6511666165147
  0
ARC
  5
1F2
330
1F
100
AcDbEntity
  8
LAY-10
  6
CONTINUOUS
 62
     7
100
AcDbCircle
 10
546.1202880508336
 20
630.0291336296949
 30
0.0
 40
1.0
100
AcDbArc
 50
289.651166616523
 51
20.31356032575216
  0
ARC
  5
1F3
330
1F
100
AcDbEntity
  8
LAY-10
  6
CONTINUOUS
 62
     7
100
AcDbCircle
 10
548.2991978543117
 20
614.1948454316394
 30
0.0
 40
1.0
100
AcDbArc
 50
100.3488333834878
 51
189.6707609930957
  0
ARC
  5
1F4
330
1F
100
AcDbEntity
  8
LAY-10
  6
CONTINUOUS
 62
     7
100
AcDbCircle
 10
550.2667970291806
 20
614.5541514484636
 30
0.0
 40
1.0
100
AcDbArc
 50
9.686439674235475
 51
100.3488333834813
  0
ARC
  5
1F5
330
1F
100
AcDbEntity
  8
LAY-10
  6
CONTINUOUS
 62
     7
100
AcDbCircle
 10
548.2991978543117
 20
585.8051545683608
 30
0.0
 40
1.0
100
AcDbArc
 50
170.3292390069043
 51
259.6511666165135
  0
ARC
  5
1F6
330
1F
100
AcDbEntity
  8
LAY-10
  6
CONTINUOUS
 62
     7
100
AcDbCircle
 10
550.2667970291806
 20
585.4458485515365
 30
0.0
 40
1.0
100
AcDbArc
 50
259.6511666165198
 51
350.3135603257645
  0
ARC
  5
1F7
330
1F
100
AcDbEntity
  8
LAY-10
  6
CONTINUOUS
 62
     7
100
AcDbCircle
 10
544.2366441725198
 20
570.6434978194375
 30
0.0
 40
1.0
100
AcDbArc
 50
70.34883338347476
 51
159.6707609931096
  0
ARC
  5
1F8
330
1F
100
AcDbEntity
  8
LAY-10
  6
CONTINUOUS
 62
     7
100
AcDbCircle
 10
546.1202880508336
 20
569.9708663703052
 30
0.0
 40
1.0
100
AcDbArc
 50
339.6864396742479
 51
70.34883338347476
  0
ARC
  5
1F9
330
1F
100
AcDbEntity
  8
LAY-10
  6
CONTINUOUS
 62
     7
100
AcDbCircle
 10
530.0417987408804
 20
546.0573043262511
 30
0.0
 40
1.0
100
AcDbArc
 50
140.3292390069019
 51
229.6511666165157
  0
ARC
  5
1FA
330
1F
100
AcDbEntity
  8
LAY-10
  6
CONTINUOUS
 62
     7
100
AcDbCircle
 10
531.5661366023701
 20
544.7623366005143
 30
0.0
 40
1.0
100
AcDbArc
 50
229.6511666165115
 51
320.3135603257688
  0
ARC
  5
1FB
330
1F
100
AcDbEntity
  8
LAY-10
  6
CONTINUOUS
 62
     7
100
AcDbCircle
 10
518.942695673749
 20
534.9582012591195
 30
0.0
 40
1.0
100
AcDbArc
 50
40.34883338347434
 51
129.6707609931073
  0
ARC
  5
1FC
330
1F
100
AcDbEntity
  8
LAY-10
  6
CONTINUOUS
 62
     7
100
AcDbCircle
 10
520.2376633994855
 20
533.4338633976298
 30
0.0
 40
1.0
100
AcDbArc
 50
309.6864396742495
 51
40.34883338347508
  0
ARC
  5
1FD
330
1F
100
AcDbEntity
  8
LAY-10
  6
CONTINUOUS
 62
     7
100
AcDbCircle
 10
494.3565021805626
 20
520.7633558274804
 30
0.0
 40
1.0
100
AcDbArc
 50
110.3292390069017
 51
199.6511666165241
  0
ARC
  5
1FE
330
1F
100
AcDbEntity
  8
LAY-10
  6
CONTINUOUS
 62
     7
100
AcDbCircle
 10
495.0291336296947
 20
518.8797119491663
 30
0.0
 40
1.0
100
AcDbArc
 50
199.6511666165107
 51
290.3135603257728
  0
ARC
  5
1FF
330
1F
100
AcDbEntity
  8
LAY-10
  6
CONTINUOUS
 62
     7
100
AcDbCircle
 10
479.1948454316393
 20
516.7008021456884
 30
0.0
 40
1.0
100
AcDbArc
 50
10.34883338348075
 51
99.67076099310641
  0
ARC
  5
200
330
1F
100
AcDbEntity
  8
LAY-10
  6
CONTINUOUS
 62
     7
100
AcDbCircle
 10
479.5541514484634
 20
514.7332029708197
 30
0.0
 40
1.0
100
AcDbArc
 50
279.6864396742355
 51
10.34883338347318
  0
ARC
  5
201
330
1F
100
AcDbEntity
  8
LAY-10
  6
CONTINUOUS
 62
     7
100
AcDbCircle
 10
450.4458485515366
 20
514.7332029708197
 30
0.0
 40
1.0
100
AcDbArc
 50
169.6511666165256
 51
260.3135603257646
  0
ARC
  5
202
330
1F
100
AcDbEntity
  8
LAY-10
  6
CONTINUOUS
 62
     7
100
AcDbCircle
 10
450.8051545683607
 20
516.7008021456884
 30
0.0
 40
1.0
100
AcDbArc
 50
80.32923900689357
 51
169.6511666165064
  0
ARC
  5
203
330
1F
100
AcDbEntity
  8
LAY-10
  6
CONTINUOUS
 62
     7
100
AcDbCircle
 10
411.0573043262509
 20
534.9582012591198
 30
0.0
 40
1.0
100
AcDbArc
 50
50.3292390068902
 51
139.6511666165115
  0
ARC
  5
204
330
1F
100
AcDbEntity
  8
LAY-10
  6
CONTINUOUS
 62
     7
100
AcDbCircle
 10
409.7623366005144
 20
533.43386339763
 30
0.0
 40
1.0
100
AcDbArc
 50
139.6511666165278
 51
230.3135603257637
  0
ARC
  5
205
330
1F
100
AcDbEntity
  8
LAY-10
  6
CONTINUOUS
 62
     7
100
AcDbCircle
 10
434.970866370305
 20
518.8797119491667
 30
0.0
 40
1.0
100
AcDbArc
 50
249.6864396742386
 51
340.3488333834781
  0
ARC
  5
206
330
1F
100
AcDbEntity
  8
LAY-10
  6
CONTINUOUS
 62
     7
100
AcDbCircle
 10
435.6434978194372
 20
520.7633558274804
 30
0.0
 40
1.0
100
AcDbArc
 50
340.3488333834781
 51
69.67076099309826
  0
ARC
  5
207
330
1F
100
AcDbEntity
  8
LAY-10
  6
CONTINUOUS
 62
     7
100
AcDbCircle
 10
398.43386339763
 20
544.7623366005143
 30
0.0
 40
1.0
100
AcDbArc
 50
219.6864396742313
 51
310.3488333834727
  0
ARC
  5
208
330
1F
100
AcDbEntity
  8
LAY-10
  6
CONTINUOUS
 62
     7
100
AcDbCircle
 10
399.9582012591196
 20
546.0573043262511
 30
0.0
 40
1.0
100
AcDbArc
 50
310.3488333834727
 51
39.67076099309596
  0
ARC
  5
209
330
1F
100
AcDbEntity
  8
LAY-10
  6
CONTINUOUS
 62
     7
100
AcDbCircle
 10
385.7633558274803
 20
570.6434978194375
 30
0.0
 40
1.0
100
AcDbArc
 50
20.3292390068903
 51
109.6511666165191
  0
ARC
  5
20A
330
1F
100
AcDbEntity
  8
LAY-10
  6
CONTINUOUS
 62
     7
100
AcDbCircle
 10
383.8797119491664
 20
569.9708663703052
 30
0.0
 40
1.0
100
AcDbArc
 50
109.6511666165138
 51
200.3135603257521
  0
LINE
  5
20B
330
1F
100
AcDbEntity
  8
LAY-10
  6
CONTINUOUS
 62
     7
100
AcDbLine
 10
362.4999999999999
 20
297.9999999999998
 30
0.0
 11
363.2211166731604
 21
295.01378033993
 31
0.0
  0
ARC
  5
20C
330
1F
100
AcDbEntity
  8
LAY-10
  6
CONTINUOUS
 62
     7
100
AcDbCircle
 10
365.1652357861496
 20
295.4832490550859
 30
0.0
 40
2.0
100
AcDbArc
 50
193.575964585141
 51
255.000000000002
  0
LINE
  5
20D
330
1F
100
AcDbEntity
  8
LAY-10
  6
CONTINUOUS
 62
     7
100
AcDbLine
 10
566.7788833268402
 20
295.01378033993
 30
0.0
 11
567.5000000000008
 21
297.9999999999998
 31
0.0
  0
ARC
  5
20E
330
1F
100
AcDbEntity
  8
LAY-10
  6
CONTINUOUS
 62
     7
100
AcDbCircle
 10
564.8347642138511
 20
295.483249055086
 30
0.0
 40
2.0
100
AcDbArc
 50
284.9999999999944
 51
346.4240354148554
  0
ARC
  5
20F
330
1F
100
AcDbEntity
  8
LAY-10
  6
CONTINUOUS
 62
     7
100
AcDbCircle
 10
465.0
 20
600.0
 30
0.0
 40
83.49999999999932
100
AcDbArc
 50
89.99999999999996
 51
99.67076099310337
  0
ARC
  5
210
330
1F
100
AcDbEntity
  8
LAY-10
  6
CONTINUOUS
 62
     7
100
AcDbCircle
 10
465.0
 20
600.0
 30
0.0
 40
83.49999999999932
100
AcDbArc
 50
80.32923900689646
 51
89.99999999999996
  0
ARC
  5
211
330
1F
100
AcDbEntity
  8
LAY-10
  6
CONTINUOUS
 62
     7
100
AcDbCircle
 10
465.0
 20
600.0
 30
0.0
 40
82.75843847480951
100
AcDbArc
 50
87.22961852012185
 51
92.77038147987744
  0
LINE
  5
212
330
1F
100
AcDbEntity
  8
LAY-10
  6
CONTINUOUS
 62
     7
100
AcDbLine
 10
469.0000000000001
 20
682.6617150728729
 30
0.0
 11
469.0000000000001
 21
680.9011742807236
 31
0.0
  0
LINE
  5
213
330
1F
100
AcDbEntity
  8
LAY-10
  6
CONTINUOUS
 62
     7
100
AcDbLine
 10
461.0000000000002
 20
682.6617150728729
 30
0.0
 11
461.0000000000002
 21
680.9011742807236
 31
0.0
  0
LINE
  5
214
330
1F
100
AcDbEntity
  8
LAY-10
  6
CONTINUOUS
 62
     7
100
AcDbLine
 10
469.3
 20
680.8857836705562
 30
0.0
 11
469.3
 21
682.3878631838443
 31
0.0
  0
LINE
  5
215
330
1F
100
AcDbEntity
  8
LAY-10
  6
CONTINUOUS
 62
     7
100
AcDbLine
 10
460.7000000000002
 20
682.3878631838443
 30
0.0
 11
460.7000000000002
 21
680.8857836705562
 31
0.0
  0
LINE
  5
216
330
1F
100
AcDbEntity
  8
LAY-10
  6
CONTINUOUS
 62
     7
100
AcDbLine
 10
469.3
 20
682.3878631838443
 30
0.0
 11
469.0000000000001
 21
682.661715072873
 31
0.0
  0
LINE
  5
217
330
1F
100
AcDbEntity
  8
LAY-10
  6
CONTINUOUS
 62
     7
100
AcDbLine
 10
460.7000000000002
 20
682.3878631838443
 30
0.0
 11
461.0000000000002
 21
682.661715072873
 31
0.0
  0
ARC
  5
218
330
1F
100
AcDbEntity
  8
LAY-10
  6
CONTINUOUS
 62
     7
100
AcDbCircle
 10
465.0
 20
600.0
 30
0.0
 40
82.4999999999992
100
AcDbArc
 50
92.98767925222786
 51
101.0433446880293
  0
LINE
  5
219
330
1F
100
AcDbEntity
  8
LAY-10
  6
CONTINUOUS
 62
     7
100
AcDbLine
 10
461.0000000000002
 20
517.3382849271272
 30
0.0
 11
461.0000000000002
 21
519.0988257192765
 31
0.0
  0
LINE
  5
21A
330
1F
100
AcDbEntity
  8
LAY-10
  6
CONTINUOUS
 62
     7
100
AcDbLine
 10
469.0000000000001
 20
517.3382849271272
 30
0.0
 11
469.0000000000001
 21
519.0988257192765
 31
0.0
  0
LINE
  5
21B
330
1F
100
AcDbEntity
  8
LAY-10
  6
CONTINUOUS
 62
     7
100
AcDbLine
 10
469.3
 20
517.6121368161556
 30
0.0
 11
469.0000000000001
 21
517.338284927127
 31
0.0
  0
LINE
  5
21C
330
1F
100
AcDbEntity
  8
LAY-10
  6
CONTINUOUS
 62
     7
100
AcDbLine
 10
460.7000000000002
 20
517.6121368161556
 30
0.0
 11
461.0000000000002
 21
517.338284927127
 31
0.0
  0
ARC
  5
21D
330
1F
100
AcDbEntity
  8
LAY-10
  6
CONTINUOUS
 62
     7
100
AcDbCircle
 10
465.0
 20
600.0
 30
0.0
 40
82.75843847480951
100
AcDbArc
 50
267.2296185201222
 51
272.770381479878
  0
LINE
  5
21E
330
1F
100
AcDbEntity
  8
LAY-10
  6
CONTINUOUS
 62
     7
100
AcDbLine
 10
460.7000000000002
 20
517.6121368161556
 30
0.0
 11
460.7000000000002
 21
519.1142163294439
 31
0.0
  0
LINE
  5
21F
330
1F
100
AcDbEntity
  8
LAY-10
  6
CONTINUOUS
 62
     7
100
AcDbLine
 10
469.3
 20
519.1142163294439
 30
0.0
 11
469.3
 21
517.6121368161556
 31
0.0
  0
ARC
  5
220
330
1F
100
AcDbEntity
  8
LAY-10
  6
CONTINUOUS
 62
     7
100
AcDbCircle
 10
465.0
 20
600.0
 30
0.0
 40
82.4999999999992
100
AcDbArc
 50
272.9876792522283
 51
281.0433446880295
  0
LINE
  5
221
330
1F
100
AcDbEntity
  8
LAY-10
  6
CONTINUOUS
 62
     7
100
AcDbLine
 10
363.1764761936199
 20
295.1986412405308
 30
0.0
 11
353.5000000000001
 21
295.1986412405308
 31
0.0
  0
LINE
  5
222
330
1F
100
AcDbEntity
  8
LAY-10
  6
CONTINUOUS
 62
     7
100
AcDbLine
 10
465.0000000000003
 20
299.9999999999998
 30
0.0
 11
467.2034121363369
 21
299.9999999999998
 31
0.0
  0
LINE
  5
223
330
1F
100
AcDbEntity
  8
LAY-10
  6
CONTINUOUS
 62
     7
100
AcDbLine
 10
477.1486310900198
 20
299.9999999999998
 30
0.0
 11
487.501484170864
 21
299.9999999999998
 31
0.0
  0
LINE
  5
224
330
1F
100
AcDbEntity
  8
LAY-10
  6
CONTINUOUS
 62
     7
100
AcDbLine
 10
497.4907527526913
 20
299.9999999999998
 30
0.0
 11
505.3383571770302
 21
299.9999999999998
 31
0.0
  0
LINE
  5
225
330
1F
100
AcDbEntity
  8
LAY-10
  6
CONTINUOUS
 62
     7
100
AcDbLine
 10
514.6524531595433
 20
299.9999999999998
 30
0.0
 11
517.499999999999
 21
299.9999999999998
 31
0.0
  0
LINE
  5
226
330
1F
100
AcDbEntity
  8
LAY-10
  6
HIDDEN
 62
     7
100
AcDbLine
 10
404.445469589267
 20
345.0
 30
0.0
 11
400.423436471013
 21
345.0
 31
0.0
  0
LINE
  5
227
330
1F
100
AcDbEntity
  8
LAY-10
  6
CONTINUOUS
 62
     7
100
AcDbLine
 10
534.3062541159419
 20
299.9999999999998
 30
0.0
 11
546.000000000001
 21
299.9999999999998
 31
0.0
  0
ARC
  5
228
330
1F
100
AcDbEntity
  8
LAY-10
  6
CONTINUOUS
 62
     7
100
AcDbCircle
 10
465.0000000000003
 20
352.5
 30
0.0
 40
3.0
100
AcDbArc
 50
89.99999999999996
 51
270.0
  0
LINE
  5
229
330
1F
100
AcDbEntity
  8
LAY-10
  6
CONTINUOUS
 62
     7
100
AcDbLine
 10
401.9999999999978
 20
360.0
 30
0.0
 11
528.0000000000031
 21
360.0
 31
0.0
  0
ARC
  5
22A
330
1F
100
AcDbEntity
  8
LAY-10
  6
CONTINUOUS
 62
     7
100
AcDbCircle
 10
543.840031970156
 20
297.0
 30
0.0
 40
2.0
100
AcDbArc
 50
270.0
 51
357.0000000000009
  0
LINE
  5
22B
330
1F
100
AcDbEntity
  8
LAY-10
  6
CONTINUOUS
 62
     7
100
AcDbLine
 10
523.9779668817489
 20
360.0
 30
0.0
 11
524.5034880580772
 21
354.9999999999998
 31
0.0
  0
LINE
  5
22C
330
1F
100
AcDbEntity
  8
LAY-10
  6
CONTINUOUS
 62
     7
100
AcDbLine
 10
384.1627089603355
 20
296.8953280875141
 30
0.0
 11
383.8427766621507
 21
302.9999999999998
 31
0.0
  0
ARC
  5
22D
330
1F
100
AcDbEntity
  8
LAY-10
  6
CONTINUOUS
 62
     7
100
AcDbCircle
 10
386.1599680298447
 20
297.0
 30
0.0
 40
2.0
100
AcDbArc
 50
182.9999999999991
 51
234.5505816581211
  0
LINE
  5
22E
330
1F
100
AcDbEntity
  8
LAY-10
  6
CONTINUOUS
 62
     7
100
AcDbLine
 10
396.0090585898558
 20
302.9999999999998
 30
0.0
 11
401.9999999999978
 21
360.0
 31
0.0
  0
LINE
  5
22F
330
1F
100
AcDbEntity
  8
LAY-10
  6
CONTINUOUS
 62
     7
100
AcDbLine
 10
406.0220331182518
 20
360.0
 30
0.0
 11
399.1902578259846
 21
294.9999999999999
 31
0.0
  0
LINE
  5
230
330
1F
100
AcDbEntity
  8
LAY-10
  6
CONTINUOUS
 62
     7
100
AcDbLine
 10
460.9999999999994
 20
345.0
 30
0.0
 11
460.9999999999994
 21
294.9999999999999
 31
0.0
  0
LINE
  5
231
330
1F
100
AcDbEntity
  8
LAY-10
  6
CONTINUOUS
 62
     7
100
AcDbLine
 10
460.0000000000003
 20
345.0
 30
0.0
 11
460.0000000000003
 21
294.9999999999999
 31
0.0
  0
LINE
  5
232
330
1F
100
AcDbEntity
  8
LAY-10
  6
CONTINUOUS
 62
     7
100
AcDbLine
 10
460.9999999999994
 20
345.0
 30
0.0
 11
450.1327166679624
 21
345.0
 31
0.0
  0
LINE
  5
233
330
1F
100
AcDbEntity
  8
LAY-10
  6
CONTINUOUS
 62
     7
100
AcDbLine
 10
460.0000000000003
 20
299.9999999999998
 30
0.0
 11
448.6682189580541
 21
299.9999999999998
 31
0.0
  0
LINE
  5
234
330
1F
100
AcDbEntity
  8
LAY-10
  6
CONTINUOUS
 62
     7
100
AcDbLine
 10
448.5054969902864
 20
294.9999999999999
 30
0.0
 11
450.1327166679624
 21
345.0
 31
0.0
  0
LINE
  5
235
330
1F
100
AcDbEntity
  8
LAY-10
  6
CONTINUOUS
 62
     7
100
AcDbLine
 10
440.8970448599251
 20
294.9999999999999
 30
0.0
 11
442.5242645375992
 21
345.0
 31
0.0
  0
LINE
  5
236
330
1F
100
AcDbEntity
  8
LAY-10
  6
CONTINUOUS
 62
     7
100
AcDbLine
 10
440.349367779842
 20
345.0
 30
0.0
 11
438.7208977213476
 21
294.9999999999999
 31
0.0
  0
LINE
  5
237
330
1F
100
AcDbEntity
  8
LAY-10
  6
CONTINUOUS
 62
     7
100
AcDbLine
 10
442.5242645375992
 20
345.0
 30
0.0
 11
432.7207466149217
 21
345.0
 31
0.0
  0
LINE
  5
238
330
1F
100
AcDbEntity
  8
LAY-10
  6
CONTINUOUS
 62
     7
100
AcDbLine
 10
438.8837447271971
 20
299.9999999999998
 30
0.0
 11
429.9351064347032
 21
299.9999999999998
 31
0.0
  0
LINE
  5
239
330
1F
100
AcDbEntity
  8
LAY-10
  6
CONTINUOUS
 62
     7
100
AcDbLine
 10
432.7207466149217
 20
345.0
 30
0.0
 11
429.6255908591234
 21
294.9999999999999
 31
0.0
  0
LINE
  5
23A
330
1F
100
AcDbEntity
  8
LAY-10
  6
CONTINUOUS
 62
     7
100
AcDbLine
 10
426.248610659915
 20
345.0
 30
0.0
 11
423.153454904124
 21
294.9999999999999
 31
0.0
  0
LINE
  5
23B
330
1F
100
AcDbEntity
  8
LAY-10
  6
CONTINUOUS
 62
     7
100
AcDbLine
 10
423.1117111924473
 20
345.0
 30
0.0
 11
420.0141770710008
 21
294.9999999999999
 31
0.0
  0
LINE
  5
23C
330
1F
100
AcDbEntity
  8
LAY-10
  6
CONTINUOUS
 62
     7
100
AcDbLine
 10
426.248610659915
 20
345.0
 30
0.0
 11
418.4684947859884
 21
345.0
 31
0.0
  0
LINE
  5
23D
330
1F
100
AcDbEntity
  8
LAY-10
  6
CONTINUOUS
 62
     7
100
AcDbLine
 10
420.3239304831455
 20
299.9999999999998
 30
0.0
 11
414.6343900050018
 21
299.9999999999998
 31
0.0
  0
LINE
  5
23E
330
1F
100
AcDbEntity
  8
LAY-10
  6
CONTINUOUS
 62
     7
100
AcDbLine
 10
414.2083783626699
 20
294.9999999999999
 30
0.0
 11
418.4684947859884
 21
345.0
 31
0.0
  0
LINE
  5
23F
330
1F
100
AcDbEntity
  8
LAY-10
  6
CONTINUOUS
 62
     7
100
AcDbLine
 10
409.5060963443302
 20
294.9999999999999
 30
0.0
 11
413.7662127676432
 21
345.0
 31
0.0
  0
LINE
  5
240
330
1F
100
AcDbEntity
  8
LAY-10
  6
CONTINUOUS
 62
     7
100
AcDbLine
 10
405.7109822036023
 20
294.9999999999999
 30
0.0
 11
409.9743721664008
 21
345.0
 31
0.0
  0
LINE
  5
241
330
1F
100
AcDbEntity
  8
LAY-10
  6
CONTINUOUS
 62
     7
100
AcDbLine
 10
413.7662127676432
 20
345.0
 30
0.0
 11
408.7710708914657
 21
345.0
 31
0.0
  0
LINE
  5
242
330
1F
100
AcDbEntity
  8
LAY-10
  6
CONTINUOUS
 62
     7
100
AcDbLine
 10
406.1373211998821
 20
299.9999999999998
 30
0.0
 11
404.2638103994496
 21
299.9999999999998
 31
0.0
  0
LINE
  5
243
330
1F
100
AcDbEntity
  8
LAY-10
  6
CONTINUOUS
 62
     7
100
AcDbLine
 10
403.7630036781144
 20
294.9999999999999
 30
0.0
 11
408.7710708914657
 21
345.0
 31
0.0
  0
LINE
  5
244
330
1F
100
AcDbEntity
  8
LAY-10
  6
CONTINUOUS
 62
     7
100
AcDbLine
 10
401.290867723115
 20
294.9999999999999
 30
0.0
 11
406.2989349364598
 21
345.0
 31
0.0
  0
LINE
  5
245
330
1F
100
AcDbEntity
  8
LAY-10
  6
CONTINUOUS
 62
     7
100
AcDbLine
 10
406.2989349364599
 20
345.0
 30
0.0
 11
404.445469589267
 21
345.0
 31
0.0
  0
LINE
  5
246
330
1F
100
AcDbEntity
  8
LAY-10
  6
CONTINUOUS
 62
     7
100
AcDbLine
 10
393.3199322981887
 20
296.8953280875141
 30
0.0
 11
393.000000000004
 21
302.9999999999998
 31
0.0
  0
LINE
  5
247
330
1F
100
AcDbEntity
  8
LAY-10
  6
CONTINUOUS
 62
     7
100
AcDbLine
 10
396.0090585898558
 20
302.9999999999998
 30
0.0
 11
383.8427766621507
 21
302.9999999999998
 31
0.0
  0
ARC
  5
248
330
1F
100
AcDbEntity
  8
LAY-10
  6
CONTINUOUS
 62
     7
100
AcDbCircle
 10
395.3171913676978
 20
297.0
 30
0.0
 40
2.0
100
AcDbArc
 50
182.9999999999991
 51
270.0
  0
LINE
  5
249
330
1F
100
AcDbEntity
  8
LAY-10
  6
CONTINUOUS
 62
     7
100
AcDbLine
 10
545.8372910396652
 20
296.8953280875141
 30
0.0
 11
546.000000000001
 21
299.9999999999998
 31
0.0
  0
LINE
  5
24A
330
1F
100
AcDbEntity
  8
LAY-10
  6
CONTINUOUS
 62
     7
100
AcDbLine
 10
534.3062541159419
 20
299.9999999999998
 30
0.0
 11
529.0510423526596
 21
349.9999999999999
 31
0.0
  0
LINE
  5
24B
330
1F
100
AcDbEntity
  8
LAY-10
  6
CONTINUOUS
 62
     7
100
AcDbLine
 10
466.967712568675
 20
345.0
 30
0.0
 11
467.5169309557899
 21
295.0000000000001
 31
0.0
  0
LINE
  5
24C
330
1F
100
AcDbEntity
  8
LAY-10
  6
CONTINUOUS
 62
     7
100
AcDbLine
 10
465.0000000000003
 20
345.0
 30
0.0
 11
466.967712568675
 21
345.0
 31
0.0
  0
LINE
  5
24D
330
1F
100
AcDbEntity
  8
LAY-10
  6
CONTINUOUS
 62
     7
100
AcDbLine
 10
466.7572156193768
 20
345.0
 30
0.0
 11
467.2529895271102
 21
295.0000000000001
 31
0.0
  0
LINE
  5
24E
330
1F
100
AcDbEntity
  8
LAY-10
  6
CONTINUOUS
 62
     7
100
AcDbLine
 10
475.661455802036
 20
345.0
 30
0.0
 11
476.2106741891599
 21
295.0000000000001
 31
0.0
  0
LINE
  5
24F
330
1F
100
AcDbEntity
  8
LAY-10
  6
CONTINUOUS
 62
     7
100
AcDbLine
 10
487.7151936583237
 20
295.0000000000001
 30
0.0
 11
485.5780987837271
 21
345.0
 31
0.0
  0
LINE
  5
250
330
1F
100
AcDbEntity
  8
LAY-10
  6
CONTINUOUS
 62
     7
100
AcDbLine
 10
475.661455802036
 20
345.0
 30
0.0
 11
485.5780987837271
 21
345.0
 31
0.0
  0
LINE
  5
251
330
1F
100
AcDbEntity
  8
LAY-10
  6
CONTINUOUS
 62
     7
100
AcDbLine
 10
476.7024345730597
 20
345.0
 30
0.0
 11
477.1982084807931
 21
295.0000000000001
 31
0.0
  0
LINE
  5
252
330
1F
100
AcDbEntity
  8
LAY-10
  6
CONTINUOUS
 62
     7
100
AcDbLine
 10
493.5639758948663
 20
345.0
 30
0.0
 11
502.1741573137846
 21
345.0
 31
0.0
  0
LINE
  5
253
330
1F
100
AcDbEntity
  8
LAY-10
  6
CONTINUOUS
 62
     7
100
AcDbLine
 10
493.5639758948663
 20
345.0
 30
0.0
 11
495.7010707694931
 21
295.0000000000001
 31
0.0
  0
LINE
  5
254
330
1F
100
AcDbEntity
  8
LAY-10
  6
CONTINUOUS
 62
     7
100
AcDbLine
 10
505.6899349396132
 20
295.0000000000001
 30
0.0
 11
502.1741573137846
 21
345.0
 31
0.0
  0
LINE
  5
255
330
1F
100
AcDbEntity
  8
LAY-10
  6
CONTINUOUS
 62
     7
100
AcDbLine
 10
495.7545321311771
 20
345.0
 30
0.0
 11
497.6836661550818
 21
295.0000000000001
 31
0.0
  0
LINE
  5
256
330
1F
100
AcDbEntity
  8
LAY-10
  6
CONTINUOUS
 62
     7
100
AcDbLine
 10
508.6704550101856
 20
345.0
 30
0.0
 11
515.1313503183856
 21
345.0
 31
0.0
  0
LINE
  5
257
330
1F
100
AcDbEntity
  8
LAY-10
  6
CONTINUOUS
 62
     7
100
AcDbLine
 10
508.6704550101856
 20
345.0
 30
0.0
 11
512.1862326360537
 21
295.0000000000001
 31
0.0
  0
LINE
  5
258
330
1F
100
AcDbEntity
  8
LAY-10
  6
CONTINUOUS
 62
     7
100
AcDbLine
 10
517.499999999999
 20
318.972664875573
 30
0.0
 11
515.1313503183856
 21
345.0
 31
0.0
  0
LINE
  5
259
330
1F
100
AcDbEntity
  8
LAY-10
  6
CONTINUOUS
 62
     7
100
AcDbLine
 10
511.7961618048696
 20
345.0
 30
0.0
 11
514.9698188656181
 21
295.0000000000001
 31
0.0
  0
LINE
  5
25A
330
1F
100
AcDbEntity
  8
LAY-10
  6
CONTINUOUS
 62
     7
100
AcDbLine
 10
519.502165719157
 20
345.0
 30
0.0
 11
523.1813374681664
 21
345.0
 31
0.0
  0
LINE
  5
25B
330
1F
100
AcDbEntity
  8
LAY-10
  6
CONTINUOUS
 62
     7
100
AcDbLine
 10
519.502165719157
 20
345.0
 30
0.0
 11
521.4862157256897
 21
323.1987455451439
 31
0.0
  0
LINE
  5
25C
330
1F
100
AcDbEntity
  8
LAY-10
  6
CONTINUOUS
 62
     7
100
AcDbLine
 10
528.3207667766884
 20
295.0000000000001
 30
0.0
 11
525.4999999999989
 21
322.4424124485203
 31
0.0
  0
LINE
  5
25D
330
1F
100
AcDbEntity
  8
LAY-10
  6
CONTINUOUS
 62
     7
100
AcDbLine
 10
523.5584596843019
 20
341.3310885946988
 30
0.0
 11
524.8425599999441
 21
325.6999999999969
 31
0.0
  0
LINE
  5
25E
330
1F
100
AcDbEntity
  8
LAY-10
  6
CONTINUOUS
 62
     7
100
AcDbLine
 10
395.8743400784958
 20
605.0000000000001
 30
0.0
 11
400.617296133097
 21
605.0000000000001
 31
0.0
  0
LINE
  5
25F
330
1F
100
AcDbEntity
  8
LAY-10
  6
CONTINUOUS
 62
     7
100
AcDbLine
 10
395.8743400784958
 20
595.0000000000001
 30
0.0
 11
400.617296133097
 21
595.0000000000001
 31
0.0
  0
LINE
  5
260
330
1F
100
AcDbEntity
  8
LAY-10
  6
CONTINUOUS
 62
     7
100
AcDbLine
 10
397.7125057165763
 20
583.3942789183458
 30
0.0
 11
402.2233249788063
 21
584.859932942791
 31
0.0
  0
LINE
  5
261
330
1F
100
AcDbEntity
  8
LAY-10
  6
CONTINUOUS
 62
     7
100
AcDbLine
 10
400.8026756603259
 20
573.8837137553941
 30
0.0
 11
405.3134949225558
 21
575.3493677798394
 31
0.0
  0
LINE
  5
262
330
1F
100
AcDbEntity
  8
LAY-10
  6
CONTINUOUS
 62
     7
100
AcDbLine
 10
412.0150926375837
 20
555.3238715712761
 30
0.0
 11
415.8522246893295
 21
558.1117111924419
 31
0.0
  0
LINE
  5
263
330
1F
100
AcDbEntity
  8
LAY-10
  6
CONTINUOUS
 62
     7
100
AcDbLine
 10
420.3238715712832
 20
547.0150926375763
 30
0.0
 11
423.111711192449
 21
550.8522246893223
 31
0.0
  0
LINE
  5
264
330
1F
100
AcDbEntity
  8
LAY-10
  6
CONTINUOUS
 62
     7
100
AcDbLine
 10
428.4140415150328
 20
541.1372401146517
 30
0.0
 11
431.2018811361987
 21
544.9743721663976
 31
0.0
  0
LINE
  5
265
330
1F
100
AcDbEntity
  8
LAY-10
  6
CONTINUOUS
 62
     7
100
AcDbLine
 10
438.8837137554012
 20
535.8026756603188
 30
0.0
 11
440.3493677798466
 21
540.3134949225486
 31
0.0
  0
LINE
  5
266
330
1F
100
AcDbEntity
  8
LAY-10
  6
CONTINUOUS
 62
     7
100
AcDbLine
 10
460.0000000000074
 20
668.999999999998
 30
0.0
 11
460.0000000000074
 21
664.3827038669107
 31
0.0
  0
LINE
  5
267
330
1F
100
AcDbEntity
  8
LAY-10
  6
CONTINUOUS
 62
     7
100
AcDbLine
 10
448.3942789183529
 20
667.2874942834314
 30
0.0
 11
449.8599329427981
 21
662.7766750212013
 31
0.0
  0
LINE
  5
268
330
1F
100
AcDbEntity
  8
LAY-10
  6
CONTINUOUS
 62
     7
100
AcDbLine
 10
438.8837137554013
 20
664.1973243396817
 30
0.0
 11
440.3493677798466
 21
659.6865050774519
 31
0.0
  0
LINE
  5
269
330
1F
100
AcDbEntity
  8
LAY-10
  6
CONTINUOUS
 62
     7
100
AcDbLine
 10
428.4140415150328
 20
658.8627598853486
 30
0.0
 11
431.2018811361987
 21
655.0256278336028
 31
0.0
  0
LINE
  5
26A
330
1F
100
AcDbEntity
  8
LAY-10
  6
CONTINUOUS
 62
     7
100
AcDbLine
 10
420.3238715712833
 20
652.9849073624239
 30
0.0
 11
423.1117111924492
 21
649.147775310678
 31
0.0
  0
LINE
  5
26B
330
1F
100
AcDbEntity
  8
LAY-10
  6
CONTINUOUS
 62
     7
100
AcDbLine
 10
412.0150926375837
 20
644.6761284287244
 30
0.0
 11
415.8522246893295
 21
641.8882888075585
 31
0.0
  0
LINE
  5
26C
330
1F
100
AcDbEntity
  8
LAY-10
  6
CONTINUOUS
 62
     7
100
AcDbLine
 10
406.1372401146589
 20
636.5859584849749
 30
0.0
 11
409.9743721664047
 21
633.798118863809
 31
0.0
  0
LINE
  5
26D
330
1F
100
AcDbEntity
  8
LAY-10
  6
CONTINUOUS
 62
     7
100
AcDbLine
 10
400.8026756603259
 20
626.1162862446062
 30
0.0
 11
405.3134949225558
 21
624.6506322201609
 31
0.0
  0
LINE
  5
26E
330
1F
100
AcDbEntity
  8
LAY-10
  6
CONTINUOUS
 62
     7
100
AcDbLine
 10
397.7125057165765
 20
616.6057210816547
 30
0.0
 11
402.2233249788063
 21
615.1400670572094
 31
0.0
  0
ARC
  5
26F
330
1F
100
AcDbEntity
  8
LAY-10
  6
CONTINUOUS
 62
     7
100
AcDbCircle
 10
465.0
 20
600.0
 30
0.0
 40
64.57656352898738
100
AcDbArc
 50
76.44071188782738
 51
85.559288112159
  0
ARC
  5
270
330
1F
100
AcDbEntity
  8
LAY-10
  6
CONTINUOUS
 62
     7
100
AcDbCircle
 10
465.0
 20
600.0
 30
0.0
 40
64.57656352898738
100
AcDbArc
 50
94.44071188782753
 51
103.5592881121592
  0
ARC
  5
271
330
1F
100
AcDbEntity
  8
LAY-10
  6
CONTINUOUS
 62
     7
100
AcDbCircle
 10
465.0
 20
600.0
 30
0.0
 40
64.57656352898738
100
AcDbArc
 50
112.4407118878277
 51
121.5592881121598
  0
ARC
  5
272
330
1F
100
AcDbEntity
  8
LAY-10
  6
CONTINUOUS
 62
     7
100
AcDbCircle
 10
465.0
 20
600.0
 30
0.0
 40
64.57656352898738
100
AcDbArc
 50
130.4407118878286
 51
139.5592881121615
  0
ARC
  5
273
330
1F
100
AcDbEntity
  8
LAY-10
  6
CONTINUOUS
 62
     7
100
AcDbCircle
 10
465.0
 20
600.0
 30
0.0
 40
64.57656352898738
100
AcDbArc
 50
148.44071188783
 51
157.5592881121634
  0
ARC
  5
274
330
1F
100
AcDbEntity
  8
LAY-10
  6
CONTINUOUS
 62
     7
100
AcDbCircle
 10
465.0
 20
600.0
 30
0.0
 40
64.57656352898738
100
AcDbArc
 50
166.4407118878322
 51
175.5592881121655
  0
ARC
  5
275
330
1F
100
AcDbEntity
  8
LAY-10
  6
CONTINUOUS
 62
     7
100
AcDbCircle
 10
465.0
 20
600.0
 30
0.0
 40
64.57656352898738
100
AcDbArc
 50
184.4407118878341
 51
193.5592881121675
  0
ARC
  5
276
330
1F
100
AcDbEntity
  8
LAY-10
  6
CONTINUOUS
 62
     7
100
AcDbCircle
 10
465.0
 20
600.0
 30
0.0
 40
64.57656352898738
100
AcDbArc
 50
202.4407118878357
 51
207.3372812475741
  0
ARC
  5
277
330
1F
100
AcDbEntity
  8
LAY-10
  6
CONTINUOUS
 62
     7
100
AcDbCircle
 10
465.0
 20
600.0
 30
0.0
 40
64.57656352898738
100
AcDbArc
 50
220.4407118878377
 51
229.5592881121705
  0
ARC
  5
278
330
1F
100
AcDbEntity
  8
LAY-10
  6
CONTINUOUS
 62
     7
100
AcDbCircle
 10
465.0
 20
600.0
 30
0.0
 40
64.57656352898738
100
AcDbArc
 50
238.4407118878396
 51
247.5592881121719
  0
LINE
  5
279
330
1F
100
AcDbEntity
  8
LAY-10
  6
CONTINUOUS
 62
     7
100
AcDbLine
 10
469.9999999999929
 20
668.999999999998
 30
0.0
 11
469.9999999999929
 21
664.3827038669039
 31
0.0
  0
LINE
  5
27A
330
1F
100
AcDbEntity
  8
LAY-10
  6
CONTINUOUS
 62
     7
100
AcDbLine
 10
481.6057210816662
 20
667.2874942834209
 30
0.0
 11
480.1400670572213
 21
662.7766750211921
 31
0.0
  0
LINE
  5
27B
330
1F
100
AcDbEntity
  8
LAY-10
  6
CONTINUOUS
 62
     7
100
AcDbLine
 10
384.6196541435656
 20
610.0000000000001
 30
0.0
 11
396.4189759511899
 21
610.0000000000001
 31
0.0
  0
LINE
  5
27C
330
1F
100
AcDbEntity
  8
LAY-10
  6
CONTINUOUS
 62
     7
100
AcDbLine
 10
384.6196541435656
 20
590.0000000000001
 30
0.0
 11
396.4189759511899
 21
590.0000000000001
 31
0.0
  0
TEXT
  5
27D
330
1F
100
AcDbEntity
  8
LAY-10
  6
CONTINUOUS
 62
     7
100
AcDbText
 10
484.7907493021979
 20
675.7439012638259
 30
0.0
 40
5.456692828292274
  1
Ｘ
 50
167.0960137371576
 41
1.2
  7
EXCADSTD
100
AcDbText
  0
TEXT
  5
27E
330
1F
100
AcDbEntity
  8
LAY-10
  6
CONTINUOUS
 62
     7
100
AcDbText
 10
479.2265779055686
 20
677.0213816246062
 30
0.0
 40
5.456692828292274
  1
－
 50
171.3973424914395
 41
1.2
  7
EXCADSTD
100
AcDbText
  0
TEXT
  5
27F
330
1F
100
AcDbEntity
  8
LAY-10
  6
CONTINUOUS
 62
     7
100
AcDbText
 10
473.5822651913711
 20
677.877940663784
 30
0.0
 40
5.456692828292274
  1
１
 50
175.698671245719
 41
1.2
  7
EXCADSTD
100
AcDbText
  0
TEXT
  5
280
330
1F
100
AcDbEntity
  8
LAY-10
  6
CONTINUOUS
 62
     7
100
AcDbText
 10
462.1806705735914
 20
678.3113923854797
 30
0.0
 40
5.456692828292274
  1
１
 50
184.3013287542809
 41
1.2
  7
EXCADSTD
100
AcDbText
  0
TEXT
  5
281
330
1F
100
AcDbEntity
  8
LAY-10
  6
CONTINUOUS
 62
     7
100
AcDbText
 10
467.8896067650341
 20
678.3087532034119
 30
0.0
 40
5.456692828292274
  1
０
 50
180.0
 41
1.2
  7
EXCADSTD
100
AcDbText
  0
TEXT
  5
282
330
1F
100
AcDbEntity
  8
LAY-10
  6
CONTINUOUS
 62
     7
100
AcDbText
 10
456.4876162601653
 20
677.8858433429175
 30
0.0
 40
5.456692828292274
  1
０
 50
188.6026575085616
 41
1.2
  7
EXCADSTD
100
AcDbText
  0
TEXT
  5
283
330
1F
100
AcDbEntity
  8
LAY-10
  6
CONTINUOUS
 62
     7
100
AcDbText
 10
450.8425140019051
 20
677.0345032833452
 30
0.0
 40
5.456692828292274
  1
０
 50
192.9039862628427
 41
1.2
  7
EXCADSTD
100
AcDbText
  0
CIRCLE
  5
284
330
1F
100
AcDbEntity
  8
LAY-10
  6
CONTINUOUS
 62
     7
100
AcDbCircle
 10
465.0
 20
599.999999999973
 30
0.0
 40
58.97796688174855
  0
ARC
  5
285
330
1F
100
AcDbEntity
  8
LAY-10
  6
CONTINUOUS
 62
     7
100
AcDbCircle
 10
465.0
 20
600.0
 30
0.0
 40
81.0
100
AcDbArc
 50
182.8305724702752
 51
357.1694275297248
  0
LINE
  5
286
330
1F
100
AcDbEntity
  8
LAY-10
  6
CONTINUOUS
 62
     7
100
AcDbLine
 10
460.0000000000073
 20
530.8743400784883
 30
0.0
 11
460.0000000000073
 21
535.6172961330894
 31
0.0
  0
LINE
  5
287
330
1F
100
AcDbEntity
  8
LAY-10
  6
CONTINUOUS
 62
     7
100
AcDbLine
 10
448.3942789183527
 20
532.7125057165688
 30
0.0
 11
449.8599329427981
 21
537.2233249787989
 31
0.0
  0
ARC
  5
288
330
1F
100
AcDbEntity
  8
LAY-10
  6
CONTINUOUS
 62
     7
100
AcDbCircle
 10
465.0
 20
600.0
 30
0.0
 40
64.57656352898738
100
AcDbArc
 50
256.4407118878406
 51
265.5592881121727
  0
LINE
  5
289
330
1F
100
AcDbEntity
  8
LAY-10
  6
CONTINUOUS
 62
     7
100
AcDbLine
 10
501.5859584849674
 20
541.1372401146516
 30
0.0
 11
498.7981188638015
 21
544.9743721663976
 31
0.0
  0
LINE
  5
28A
330
1F
100
AcDbEntity
  8
LAY-10
  6
CONTINUOUS
 62
     7
100
AcDbLine
 10
491.1162862445988
 20
535.8026756603185
 30
0.0
 11
489.6506322201534
 21
540.3134949225486
 31
0.0
  0
ARC
  5
28B
330
1F
100
AcDbEntity
  8
LAY-10
  6
CONTINUOUS
 62
     7
100
AcDbCircle
 10
465.0
 20
600.0
 30
0.0
 40
64.57656352898738
100
AcDbArc
 50
292.4407118878281
 51
301.5592881121605
  0
LINE
  5
28C
330
1F
100
AcDbEntity
  8
LAY-10
  6
CONTINUOUS
 62
     7
100
AcDbLine
 10
469.9999999999927
 20
530.8743400784883
 30
0.0
 11
469.9999999999927
 21
535.6172961330894
 31
0.0
  0
LINE
  5
28D
330
1F
100
AcDbEntity
  8
LAY-10
  6
CONTINUOUS
 62
     7
100
AcDbLine
 10
481.6057210816471
 20
532.7125057165688
 30
0.0
 11
480.1400670572019
 21
537.2233249787989
 31
0.0
  0
ARC
  5
28E
330
1F
100
AcDbEntity
  8
LAY-10
  6
CONTINUOUS
 62
     7
100
AcDbCircle
 10
465.0
 20
600.0
 30
0.0
 40
64.57656352898738
100
AcDbArc
 50
274.4407118878278
 51
283.5592881121595
  0
LINE
  5
28F
330
1F
100
AcDbEntity
  8
LAY-10
  6
CONTINUOUS
 62
     7
100
AcDbLine
 10
517.9849073624165
 20
555.3238715712761
 30
0.0
 11
514.1477753106706
 21
558.1117111924419
 31
0.0
  0
LINE
  5
290
330
1F
100
AcDbEntity
  8
LAY-10
  6
CONTINUOUS
 62
     7
100
AcDbLine
 10
509.6761284287168
 20
547.0150926375763
 30
0.0
 11
506.8882888075509
 21
550.8522246893223
 31
0.0
  0
ARC
  5
291
330
1F
100
AcDbEntity
  8
LAY-10
  6
CONTINUOUS
 62
     7
100
AcDbCircle
 10
465.0
 20
600.0
 30
0.0
 40
64.57656352898738
100
AcDbArc
 50
310.4407118878293
 51
319.5592881121623
  0
LINE
  5
292
330
1F
100
AcDbEntity
  8
LAY-10
  6
CONTINUOUS
 62
     7
100
AcDbLine
 10
529.1973243396743
 20
573.8837137553941
 30
0.0
 11
524.6865050774443
 21
575.3493677798393
 31
0.0
  0
ARC
  5
293
330
1F
100
AcDbEntity
  8
LAY-10
  6
CONTINUOUS
 62
     7
100
AcDbCircle
 10
465.0
 20
600.0
 30
0.0
 40
64.57656352898738
100
AcDbArc
 50
332.6627187524261
 51
337.5592881121638
  0
LINE
  5
294
330
1F
100
AcDbEntity
  8
LAY-10
  6
CONTINUOUS
 62
     7
100
AcDbLine
 10
534.1256599215043
 20
605.0000000000001
 30
0.0
 11
529.3827038669031
 21
605.0000000000001
 31
0.0
  0
LINE
  5
295
330
1F
100
AcDbEntity
  8
LAY-10
  6
CONTINUOUS
 62
     7
100
AcDbLine
 10
534.1256599215043
 20
595.0
 30
0.0
 11
529.3827038669031
 21
595.0
 31
0.0
  0
LINE
  5
296
330
1F
100
AcDbEntity
  8
LAY-10
  6
CONTINUOUS
 62
     7
100
AcDbLine
 10
532.2874942834237
 20
583.3942789183455
 30
0.0
 11
527.7766750211939
 21
584.859932942791
 31
0.0
  0
LINE
  5
297
330
1F
100
AcDbEntity
  8
LAY-10
  6
CONTINUOUS
 62
     7
100
AcDbLine
 10
491.1162862445988
 20
664.1973243396818
 30
0.0
 11
489.6506322201534
 21
659.6865050774517
 31
0.0
  0
LINE
  5
298
330
1F
100
AcDbEntity
  8
LAY-10
  6
CONTINUOUS
 62
     7
100
AcDbLine
 10
501.5859584849674
 20
658.8627598853486
 30
0.0
 11
498.7981188638015
 21
655.0256278336026
 31
0.0
  0
LINE
  5
299
330
1F
100
AcDbEntity
  8
LAY-10
  6
CONTINUOUS
 62
     7
100
AcDbLine
 10
509.6761284287168
 20
652.9849073624239
 30
0.0
 11
506.8882888075509
 21
649.1477753106778
 31
0.0
  0
LINE
  5
29A
330
1F
100
AcDbEntity
  8
LAY-10
  6
CONTINUOUS
 62
     7
100
AcDbLine
 10
517.9849073624165
 20
644.6761284287244
 30
0.0
 11
514.1477753106706
 21
641.8882888075585
 31
0.0
  0
LINE
  5
29B
330
1F
100
AcDbEntity
  8
LAY-10
  6
CONTINUOUS
 62
     7
100
AcDbLine
 10
523.8627598853412
 20
636.5859584849748
 30
0.0
 11
520.0256278335954
 21
633.7981188638089
 31
0.0
  0
LINE
  5
29C
330
1F
100
AcDbEntity
  8
LAY-10
  6
CONTINUOUS
 62
     7
100
AcDbLine
 10
529.1973243396743
 20
626.116286244606
 30
0.0
 11
524.6865050774445
 21
624.6506322201608
 31
0.0
  0
LINE
  5
29D
330
1F
100
AcDbEntity
  8
LAY-10
  6
CONTINUOUS
 62
     7
100
AcDbLine
 10
532.2874942834237
 20
616.6057210816547
 30
0.0
 11
527.7766750211939
 21
615.1400670572094
 31
0.0
  0
ARC
  5
29E
330
1F
100
AcDbEntity
  8
LAY-10
  6
CONTINUOUS
 62
     7
100
AcDbCircle
 10
465.0
 20
600.0
 30
0.0
 40
64.57656352898738
100
AcDbArc
 50
58.44071188783936
 51
67.55928811217208
  0
ARC
  5
29F
330
1F
100
AcDbEntity
  8
LAY-10
  6
CONTINUOUS
 62
     7
100
AcDbCircle
 10
465.0
 20
600.0
 30
0.0
 40
64.57656352898738
100
AcDbArc
 50
40.44071188783823
 51
49.55928811217095
  0
ARC
  5
2A0
330
1F
100
AcDbEntity
  8
LAY-10
  6
CONTINUOUS
 62
     7
100
AcDbCircle
 10
465.0
 20
600.0
 30
0.0
 40
64.57656352898738
100
AcDbArc
 50
22.44071188783608
 51
31.55928811216949
  0
ARC
  5
2A1
330
1F
100
AcDbEntity
  8
LAY-10
  6
CONTINUOUS
 62
     7
100
AcDbCircle
 10
465.0
 20
600.0
 30
0.0
 40
64.57656352898738
100
AcDbArc
 50
4.440711887834148
 51
13.55928811216767
  0
ARC
  5
2A2
330
1F
100
AcDbEntity
  8
LAY-10
  6
CONTINUOUS
 62
     7
100
AcDbCircle
 10
465.0
 20
600.0
 30
0.0
 40
64.57656352898738
100
AcDbArc
 50
346.4407118878328
 51
355.5592881121663
  0
LINE
  5
2A3
330
1F
100
AcDbEntity
  8
LAY-10
  6
CONTINUOUS
 62
     7
100
AcDbLine
 10
464.9999999999998
 20
529.6188021488983
 30
0.0
 11
457.000000008
 21
524.9999999999999
 31
0.0
  0
LINE
  5
2A4
330
1F
100
AcDbEntity
  8
LAY-10
  6
CONTINUOUS
 62
     7
100
AcDbLine
 10
464.9999999999988
 20
520.3811978510996
 30
0.0
 11
457.0000000079988
 21
524.999999999998
 31
0.0
  0
TEXT
  5
2A5
330
1F
100
AcDbEntity
  8
LAY-10
  6
CONTINUOUS
 62
     7
100
AcDbText
 10
459.9600000050398
 20
522.7896064701943
 30
0.0
 40
4.365354485658455
  1
ＳＦ
 41
1.15
  7
EXCADSTD
100
AcDbText
  0
LINE
  5
2A6
330
1F
100
AcDbEntity
  8
LAY-10
  6
CONTINUOUS
 62
     7
100
AcDbLine
 10
464.9999999999998
 20
529.6188021488983
 30
0.0
 11
472.999999992
 21
524.9999999999999
 31
0.0
  0
LINE
  5
2A7
330
1F
100
AcDbEntity
  8
LAY-10
  6
CONTINUOUS
 62
     7
100
AcDbLine
 10
465.0000000000012
 20
520.3811978510996
 30
0.0
 11
472.9999999920013
 21
524.999999999998
 31
0.0
  0
LINE
  5
2A8
330
1F
100
AcDbEntity
  8
LAY-10
  6
CONTINUOUS
 62
     7
100
AcDbLine
 10
545.4003676271847
 20
604.0
 30
0.0
 11
545.9011742807237
 21
604.0
 31
0.0
  0
LINE
  5
2A9
330
1F
100
AcDbEntity
  8
LAY-10
  6
CONTINUOUS
 62
     7
100
AcDbLine
 10
545.4003676271847
 20
596.0000000000001
 30
0.0
 11
545.9011742807237
 21
596.0000000000001
 31
0.0
  0
LINE
  5
2AA
330
1F
100
AcDbEntity
  8
LAY-10
  6
CONTINUOUS
 62
     7
100
AcDbLine
 10
545.3803458564344
 20
610.0
 30
0.0
 11
533.5810240488101
 21
610.0
 31
0.0
  0
LINE
  5
2AB
330
1F
100
AcDbEntity
  8
LAY-10
  6
CONTINUOUS
 62
     7
100
AcDbLine
 10
545.3803458564344
 20
590.0000000000001
 30
0.0
 11
533.5810240488101
 21
590.0000000000001
 31
0.0
  0
LINE
  5
2AC
330
1F
100
AcDbEntity
  8
LAY-10
  6
CONTINUOUS
 62
     7
100
AcDbLine
 10
526.9538255021554
 20
299.9999999999998
 30
0.0
 11
527.8068238458362
 21
299.9999999999998
 31
0.0
  0
ARC
  5
2AD
330
1F
100
AcDbEntity
  8
LAY-10
  6
CONTINUOUS
 62
     7
100
AcDbCircle
 10
465.0
 20
600.0
 30
0.0
 40
81.0
100
AcDbArc
 50
2.830572470275282
 51
177.1694275297244
  0
LINE
  5
2AE
330
1F
100
AcDbEntity
  8
LAY-10
  6
CONTINUOUS
 62
     7
100
AcDbLine
 10
545.7774721070177
 20
594.0000000000013
 30
0.0
 11
547.5406514318178
 21
594.0000000000013
 31
0.0
  0
LINE
  5
2AF
330
1F
100
AcDbEntity
  8
LAY-10
  6
CONTINUOUS
 62
     7
100
AcDbLine
 10
545.7543612559554
 20
593.6965772676533
 30
0.0
 11
547.2588406303979
 21
593.6965772676533
 31
0.0
  0
LINE
  5
2B0
330
1F
100
AcDbEntity
  8
LAY-10
  6
CONTINUOUS
 62
     7
100
AcDbLine
 10
384.2225278929824
 20
594.0000000000013
 30
0.0
 11
382.4593485681822
 21
594.0000000000013
 31
0.0
  0
LINE
  5
2B1
330
1F
100
AcDbEntity
  8
LAY-10
  6
CONTINUOUS
 62
     7
100
AcDbLine
 10
384.2456387440447
 20
593.6965772676533
 30
0.0
 11
382.741159369602
 21
593.6965772676533
 31
0.0
  0
LINE
  5
2B2
330
1F
100
AcDbEntity
  8
LAY-10
  6
CONTINUOUS
 62
     7
100
AcDbLine
 10
384.2225278929824
 20
605.9999999999989
 30
0.0
 11
382.4593485681822
 21
605.9999999999989
 31
0.0
  0
LINE
  5
2B3
330
1F
100
AcDbEntity
  8
LAY-10
  6
CONTINUOUS
 62
     7
100
AcDbLine
 10
384.2456387440447
 20
606.3034227323468
 30
0.0
 11
382.741159369602
 21
606.3034227323468
 31
0.0
  0
ARC
  5
2B4
330
1F
100
AcDbEntity
  8
LAY-10
  6
CONTINUOUS
 62
     7
100
AcDbCircle
 10
533.8857492993977
 20
354.2499999999998
 30
0.0
 40
3.5
100
AcDbArc
 50
38.6821874534929
 51
88.12935826940758
  0
ARC
  5
2B5
330
1F
100
AcDbEntity
  8
LAY-10
  6
CONTINUOUS
 62
     7
100
AcDbCircle
 10
533.8857492993977
 20
350.7499999999999
 30
0.0
 40
3.5
100
AcDbArc
 50
271.8706417306036
 51
321.317812546502
  0
LINE
  5
2B6
330
1F
100
AcDbEntity
  8
LAY-10
  6
CONTINUOUS
 62
     7
100
AcDbLine
 10
533.999999999998
 20
347.2518652430998
 30
0.0
 11
533.999999999998
 21
357.7481347568998
 31
0.0
  0
LINE
  5
2B7
330
1F
100
AcDbEntity
  8
LAY-10
  6
CONTINUOUS
 62
     7
100
AcDbLine
 10
537.971363488098
 20
351.8999999999999
 30
0.0
 11
535.499999999998
 21
351.8999999999999
 31
0.0
  0
LINE
  5
2B8
330
1F
100
AcDbEntity
  8
LAY-10
  6
CONTINUOUS
 62
     7
100
AcDbLine
 10
535.499999999998
 20
351.8999999999999
 30
0.0
 11
535.499999999998
 21
353.0999999999998
 31
0.0
  0
LINE
  5
2B9
330
1F
100
AcDbEntity
  8
LAY-10
  6
CONTINUOUS
 62
     7
100
AcDbLine
 10
537.971363488098
 20
353.0999999999998
 30
0.0
 11
535.499999999998
 21
353.0999999999998
 31
0.0
  0
ARC
  5
2BA
330
1F
100
AcDbEntity
  8
LAY-10
  6
CONTINUOUS
 62
     7
100
AcDbCircle
 10
531.699999999998
 20
352.5
 30
0.0
 40
6.299999999999999
100
AcDbArc
 50
321.3178125464981
 51
354.5349762000991
  0
ARC
  5
2BB
330
1F
100
AcDbEntity
  8
LAY-10
  6
CONTINUOUS
 62
     7
100
AcDbCircle
 10
531.699999999998
 20
352.5
 30
0.0
 40
6.299999999999999
100
AcDbArc
 50
5.465023799910155
 51
38.68218745349296
  0
LINE
  5
2BC
330
1F
100
AcDbEntity
  8
LAY-10
  6
CONTINUOUS
 62
     7
100
AcDbLine
 10
522.0
 20
354.9999999999998
 30
0.0
 11
522.5000000000001
 21
355.5
 31
0.0
  0
LINE
  5
2BD
330
1F
100
AcDbEntity
  8
LAY-10
  6
CONTINUOUS
 62
     7
100
AcDbLine
 10
522.0
 20
349.9999999999999
 30
0.0
 11
522.5000000000001
 21
349.5
 31
0.0
  0
LINE
  5
2BE
330
1F
100
AcDbEntity
  8
LAY-10
  6
CONTINUOUS
 62
     7
100
AcDbLine
 10
533.999999999998
 20
355.5
 30
0.0
 11
522.5000000000001
 21
355.5
 31
0.0
  0
LINE
  5
2BF
330
1F
100
AcDbEntity
  8
LAY-10
  6
CONTINUOUS
 62
     7
100
AcDbLine
 10
522.0
 20
354.9999999999998
 30
0.0
 11
522.0
 21
349.9999999999999
 31
0.0
  0
LINE
  5
2C0
330
1F
100
AcDbEntity
  8
LAY-10
  6
CONTINUOUS
 62
     7
100
AcDbLine
 10
533.999999999998
 20
349.5
 30
0.0
 11
522.5000000000001
 21
349.5
 31
0.0
  0
LINE
  5
2C1
330
1F
100
AcDbEntity
  8
LAY-10
  6
CONTINUOUS
 62
     7
100
AcDbLine
 10
522.5000000000001
 20
349.5
 30
0.0
 11
522.5000000000001
 21
355.5
 31
0.0
  0
LINE
  5
2C2
330
1F
100
AcDbEntity
  8
LAY-10
  6
CONTINUOUS
 62
     7
100
AcDbLine
 10
529.499999999999
 20
287.9999999999998
 30
0.0
 11
529.499999999999
 21
294.0519999999997
 31
0.0
  0
LINE
  5
2C3
330
1F
100
AcDbEntity
  8
LAY-10
  6
CONTINUOUS
 62
     7
100
AcDbLine
 10
525.4999999999989
 20
287.9999999999998
 30
0.0
 11
525.4999999999989
 21
294.0519999999997
 31
0.0
  0
LINE
  5
2C4
330
1F
100
AcDbEntity
  8
LAY-10
  6
CONTINUOUS
 62
     7
100
AcDbLine
 10
517.499999999999
 20
287.9999999999998
 30
0.0
 11
517.499999999999
 21
294.0519999999998
 31
0.0
  0
LINE
  5
2C5
330
1F
100
AcDbEntity
  8
LAY-10
  6
CONTINUOUS
 62
     7
100
AcDbLine
 10
513.4999999999989
 20
287.9999999999998
 30
0.0
 11
513.4999999999989
 21
294.0519999999998
 31
0.0
  0
ARC
  5
2C6
330
1F
100
AcDbEntity
  8
LAY-10
  6
CONTINUOUS
 62
     7
100
AcDbCircle
 10
527.499999999999
 20
291.7522032085558
 30
0.0
 40
3.047796791443853
100
AcDbArc
 50
48.98840640770415
 51
131.0115935922958
  0
ARC
  5
2C7
330
1F
100
AcDbEntity
  8
LAY-10
  6
CONTINUOUS
 62
     7
100
AcDbCircle
 10
521.499999999999
 20
283.7308128342244
 30
0.0
 40
11.06918716577541
100
AcDbArc
 50
68.81604434177295
 51
111.1839556582276
  0
ARC
  5
2C8
330
1F
100
AcDbEntity
  8
LAY-10
  6
CONTINUOUS
 62
     7
100
AcDbCircle
 10
515.499999999999
 20
291.7522032085558
 30
0.0
 40
3.047796791443853
100
AcDbArc
 50
48.98840640770415
 51
131.0115935922958
  0
LINE
  5
2C9
330
1F
100
AcDbEntity
  8
LAY-10
  6
CONTINUOUS
 62
     7
100
AcDbLine
 10
527.499999999999
 20
294.7999999999998
 30
0.0
 11
515.499999999999
 21
294.7999999999998
 31
0.0
  0
LINE
  5
2CA
330
1F
100
AcDbEntity
  8
LAY-10
  6
CONTINUOUS
 62
     7
100
AcDbLine
 10
513.4999999999989
 20
287.9999999999998
 30
0.0
 11
529.499999999999
 21
287.9999999999998
 31
0.0
  0
LINE
  5
2CB
330
1F
100
AcDbEntity
  8
LAY-10
  6
CONTINUOUS
 62
     7
100
AcDbLine
 10
517.499999999999
 20
294.7999999999998
 30
0.0
 11
517.499999999999
 21
325.2000000000007
 31
0.0
  0
LINE
  5
2CC
330
1F
100
AcDbEntity
  8
LAY-10
  6
CONTINUOUS
 62
     7
100
AcDbLine
 10
525.4999999999989
 20
294.7999999999998
 30
0.0
 11
525.4999999999989
 21
325.2000000000007
 31
0.0
  0
LINE
  5
2CD
330
1F
100
AcDbEntity
  8
LAY-10
  6
CONTINUOUS
 62
     7
100
AcDbLine
 10
525.4999999999989
 20
287.9999999999998
 30
0.0
 11
525.4999999999989
 21
276.200000000001
 31
0.0
  0
LINE
  5
2CE
330
1F
100
AcDbEntity
  8
LAY-10
  6
CONTINUOUS
 62
     7
100
AcDbLine
 10
517.499999999999
 20
287.9999999999998
 30
0.0
 11
517.499999999999
 21
276.200000000001
 31
0.0
  0
LINE
  5
2CF
330
1F
100
AcDbEntity
  8
LAY-10
  6
CONTINUOUS
 62
     7
100
AcDbLine
 10
517.9999999999984
 20
275.6999999999998
 30
0.0
 11
524.9999999999992
 21
275.6999999999998
 31
0.0
  0
LINE
  5
2D0
330
1F
100
AcDbEntity
  8
LAY-10
  6
CONTINUOUS
 62
     7
100
AcDbLine
 10
517.499999999999
 20
276.200000000001
 30
0.0
 11
525.4999999999989
 21
276.200000000001
 31
0.0
  0
LINE
  5
2D1
330
1F
100
AcDbEntity
  8
LAY-10
  6
CONTINUOUS
 62
     7
100
AcDbLine
 10
524.9999999999992
 20
275.6999999999998
 30
0.0
 11
525.4999999999989
 21
276.200000000001
 31
0.0
  0
LINE
  5
2D2
330
1F
100
AcDbEntity
  8
LAY-10
  6
CONTINUOUS
 62
     7
100
AcDbLine
 10
517.9999999999984
 20
275.6999999999998
 30
0.0
 11
517.499999999999
 21
276.200000000001
 31
0.0
  0
LINE
  5
2D3
330
1F
100
AcDbEntity
  8
LAY-10
  6
CONTINUOUS
 62
     7
100
AcDbLine
 10
517.9999999999989
 20
325.6999999999969
 30
0.0
 11
520.7499999999986
 21
325.6999999999969
 31
0.0
  0
LINE
  5
2D4
330
1F
100
AcDbEntity
  8
LAY-10
  6
CONTINUOUS
 62
     7
100
AcDbLine
 10
517.499999999999
 20
325.2000000000007
 30
0.0
 11
520.7499999999986
 21
325.2000000000007
 31
0.0
  0
LINE
  5
2D5
330
1F
100
AcDbEntity
  8
LAY-10
  6
CONTINUOUS
 62
     7
100
AcDbLine
 10
517.499999999999
 20
325.2000000000007
 30
0.0
 11
517.9999999999991
 21
325.6999999999969
 31
0.0
  0
LINE
  5
2D6
330
1F
100
AcDbEntity
  8
LAY-10
  6
CONTINUOUS
 62
     7
100
AcDbLine
 10
524.9999999999986
 20
325.6999999999969
 30
0.0
 11
525.4999999999989
 21
325.2000000000007
 31
0.0
  0
LINE
  5
2D7
330
1F
100
AcDbEntity
  8
LAY-10
  6
CONTINUOUS
 62
     7
100
AcDbLine
 10
520.7499999999986
 20
323.2000000000006
 30
0.0
 11
522.249999999999
 21
323.2000000000006
 31
0.0
  0
LINE
  5
2D8
330
1F
100
AcDbEntity
  8
LAY-10
  6
CONTINUOUS
 62
     7
100
AcDbLine
 10
522.249999999999
 20
323.2000000000006
 30
0.0
 11
522.249999999999
 21
325.6999999999969
 31
0.0
  0
LINE
  5
2D9
330
1F
100
AcDbEntity
  8
LAY-10
  6
CONTINUOUS
 62
     7
100
AcDbLine
 10
520.7499999999986
 20
323.2000000000006
 30
0.0
 11
520.7499999999986
 21
325.6999999999969
 31
0.0
  0
LINE
  5
2DA
330
1F
100
AcDbEntity
  8
LAY-10
  6
CONTINUOUS
 62
     7
100
AcDbLine
 10
522.249999999999
 20
325.2000000000007
 30
0.0
 11
525.4999999999989
 21
325.2000000000007
 31
0.0
  0
LINE
  5
2DB
330
1F
100
AcDbEntity
  8
LAY-10
  6
CONTINUOUS
 62
     7
100
AcDbLine
 10
522.249999999999
 20
325.6999999999969
 30
0.0
 11
524.9999999999986
 21
325.6999999999969
 31
0.0
  0
CIRCLE
  5
2DC
330
1F
100
AcDbEntity
  8
LAY-10
  6
CONTINUOUS
 62
     7
100
AcDbCircle
 10
387.9999999999987
 20
600.0
 30
0.0
 40
5.25
  0
LINE
  5
2DD
330
1F
100
AcDbEntity
  8
LAY-10
  6
CONTINUOUS
 62
     7
100
AcDbLine
 10
384.0366072321364
 20
596.5570335802306
 30
0.0
 11
392.9633927678295
 21
601.7109156122513
 31
0.0
  0
LINE
  5
2DE
330
1F
100
AcDbEntity
  8
LAY-10
  6
CONTINUOUS
 62
     7
100
AcDbLine
 10
383.036607232139
 20
598.2890843878322
 30
0.0
 11
391.9633927678028
 21
603.4429664198358
 31
0.0
  0
CIRCLE
  5
2DF
330
1F
100
AcDbEntity
  8
LAY-10
  6
CONTINUOUS
 62
     7
100
AcDbCircle
 10
542.0000000000008
 20
600.0
 30
0.0
 40
5.25
  0
LINE
  5
2E0
330
1F
100
AcDbEntity
  8
LAY-10
  6
CONTINUOUS
 62
     7
100
AcDbLine
 10
538.0366072321384
 20
596.5570335802306
 30
0.0
 11
546.9633927678316
 21
601.7109156122513
 31
0.0
  0
LINE
  5
2E1
330
1F
100
AcDbEntity
  8
LAY-10
  6
CONTINUOUS
 62
     7
100
AcDbLine
 10
537.036607232141
 20
598.2890843878322
 30
0.0
 11
545.9633927678049
 21
603.4429664198358
 31
0.0
  0
LINE
  5
2E2
330
1F
100
AcDbEntity
  8
LAY-10
  6
CONTINUOUS
 62
     7
100
AcDbLine
 10
384.599632372815
 20
604.0000000000001
 30
0.0
 11
384.0988257192766
 21
604.0000000000001
 31
0.0
  0
LINE
  5
2E3
330
1F
100
AcDbEntity
  8
LAY-10
  6
CONTINUOUS
 62
     7
100
AcDbLine
 10
384.5996323728148
 20
596.0000000000001
 30
0.0
 11
384.0988257192765
 21
596.0000000000001
 31
0.0
  0
ARC
  5
2E4
330
1F
100
AcDbEntity
  8
LAY-10
  6
CONTINUOUS
 62
     7
100
AcDbCircle
 10
463.2500000000002
 20
668.8857492993977
 30
0.0
 40
3.5
100
AcDbArc
 50
128.6821874534936
 51
178.1293582694075
  0
ARC
  5
2E5
330
1F
100
AcDbEntity
  8
LAY-10
  6
CONTINUOUS
 62
     7
100
AcDbCircle
 10
466.7500000000001
 20
668.8857492993977
 30
0.0
 40
3.5
100
AcDbArc
 50
1.870641730603509
 51
51.31781254650186
  0
LINE
  5
2E6
330
1F
100
AcDbEntity
  8
LAY-10
  6
CONTINUOUS
 62
     7
100
AcDbLine
 10
470.2481347569002
 20
668.999999999998
 30
0.0
 11
459.7518652431002
 21
668.999999999998
 31
0.0
  0
LINE
  5
2E7
330
1F
100
AcDbEntity
  8
LAY-10
  6
CONTINUOUS
 62
     7
100
AcDbLine
 10
465.6000000000001
 20
672.971363488098
 30
0.0
 11
465.6000000000001
 21
670.499999999998
 31
0.0
  0
LINE
  5
2E8
330
1F
100
AcDbEntity
  8
LAY-10
  6
CONTINUOUS
 62
     7
100
AcDbLine
 10
465.6000000000001
 20
670.499999999998
 30
0.0
 11
464.4000000000002
 21
670.499999999998
 31
0.0
  0
LINE
  5
2E9
330
1F
100
AcDbEntity
  8
LAY-10
  6
CONTINUOUS
 62
     7
100
AcDbLine
 10
464.4000000000002
 20
672.971363488098
 30
0.0
 11
464.4000000000002
 21
670.499999999998
 31
0.0
  0
ARC
  5
2EA
330
1F
100
AcDbEntity
  8
LAY-10
  6
CONTINUOUS
 62
     7
100
AcDbCircle
 10
465.0
 20
666.699999999998
 30
0.0
 40
6.299999999999999
100
AcDbArc
 50
51.31781254649772
 51
84.53497620009915
  0
ARC
  5
2EB
330
1F
100
AcDbEntity
  8
LAY-10
  6
CONTINUOUS
 62
     7
100
AcDbCircle
 10
465.0
 20
666.699999999998
 30
0.0
 40
6.299999999999999
100
AcDbArc
 50
95.46502379991017
 51
128.6821874534919
  0
LINE
  5
2EC
330
1F
100
AcDbEntity
  8
LAY-10
  6
CONTINUOUS
 62
     7
100
AcDbLine
 10
462.5000000000002
 20
657.0
 30
0.0
 11
462.0
 21
657.5000000000001
 31
0.0
  0
LINE
  5
2ED
330
1F
100
AcDbEntity
  8
LAY-10
  6
CONTINUOUS
 62
     7
100
AcDbLine
 10
467.5000000000001
 20
657.0
 30
0.0
 11
468.0
 21
657.5000000000001
 31
0.0
  0
LINE
  5
2EE
330
1F
100
AcDbEntity
  8
LAY-10
  6
CONTINUOUS
 62
     7
100
AcDbLine
 10
462.0
 20
668.999999999998
 30
0.0
 11
462.0
 21
662.9285308902118
 31
0.0
  0
LINE
  5
2EF
330
1F
100
AcDbEntity
  8
LAY-10
  6
CONTINUOUS
 62
     7
100
AcDbLine
 10
462.5000000000002
 20
657.0
 30
0.0
 11
467.5000000000001
 21
657.0
 31
0.0
  0
LINE
  5
2F0
330
1F
100
AcDbEntity
  8
LAY-10
  6
CONTINUOUS
 62
     7
100
AcDbLine
 10
468.0
 20
668.999999999998
 30
0.0
 11
468.0
 21
662.9285308902118
 31
0.0
  0
LINE
  5
2F1
330
1F
100
AcDbEntity
  8
LAY-10
  6
CONTINUOUS
 62
     7
100
AcDbLine
 10
468.0
 20
657.5000000000001
 30
0.0
 11
462.0
 21
657.5000000000001
 31
0.0
  0
ARC
  5
2F2
330
1F
100
AcDbEntity
  8
LAY-10
  6
CONTINUOUS
 62
     7
100
AcDbCircle
 10
465.0
 20
600.0
 30
0.0
 40
69.30625411594156
100
AcDbArc
 50
94.3385209866646
 51
205.6614790133354
  0
CIRCLE
  5
2F3
330
1F
100
AcDbEntity
  8
LAY-10
  6
CONTINUOUS
 62
     7
100
AcDbCircle
 10
465.0
 20
600.0
 30
0.0
 40
63.00000000000261
  0
LINE
  5
2F4
330
1F
100
AcDbEntity
  8
LAY-10
  6
CONTINUOUS
 62
     7
100
AcDbLine
 10
462.0
 20
658.9016177833976
 30
0.0
 11
462.0
 21
657.5000000000001
 31
0.0
  0
LINE
  5
2F5
330
1F
100
AcDbEntity
  8
LAY-10
  6
CONTINUOUS
 62
     7
100
AcDbLine
 10
468.0
 20
658.9016177833976
 30
0.0
 11
468.0
 21
657.5000000000001
 31
0.0
  0
ARC
  5
2F6
330
1F
100
AcDbEntity
  8
LAY-10
  6
CONTINUOUS
 62
     7
100
AcDbCircle
 10
525.5318088520044
 20
567.0726698069237
 30
0.0
 40
3.5
100
AcDbArc
 50
8.682187453494267
 51
58.12935826940539
  0
ARC
  5
2F7
330
1F
100
AcDbEntity
  8
LAY-10
  6
CONTINUOUS
 62
     7
100
AcDbCircle
 10
523.7818088520045
 20
564.0415808936783
 30
0.0
 40
3.5
100
AcDbArc
 50
241.8706417306059
 51
291.3178125465008
  0
LINE
  5
2F8
330
1F
100
AcDbEntity
  8
LAY-10
  6
CONTINUOUS
 62
     7
100
AcDbLine
 10
522.1316854826745
 20
560.9549819780415
 30
0.0
 11
527.3798202395745
 21
570.0450180219605
 31
0.0
  0
LINE
  5
2F9
330
1F
100
AcDbEntity
  8
LAY-10
  6
CONTINUOUS
 62
     7
100
AcDbLine
 10
527.8950545294811
 20
562.9947030136802
 30
0.0
 11
525.7547909668011
 21
564.2303847577302
 31
0.0
  0
LINE
  5
2FA
330
1F
100
AcDbEntity
  8
LAY-10
  6
CONTINUOUS
 62
     7
100
AcDbLine
 10
525.7547909668011
 20
564.2303847577302
 30
0.0
 11
526.3547909668011
 21
565.2696152422716
 31
0.0
  0
LINE
  5
2FB
330
1F
100
AcDbEntity
  8
LAY-10
  6
CONTINUOUS
 62
     7
100
AcDbLine
 10
528.4950545294811
 20
564.0339334982216
 30
0.0
 11
526.3547909668011
 21
565.2696152422716
 31
0.0
  0
ARC
  5
2FC
330
1F
100
AcDbEntity
  8
LAY-10
  6
CONTINUOUS
 62
     7
100
AcDbCircle
 10
522.7638944324204
 20
566.650000000001
 30
0.0
 40
6.299999999999999
100
AcDbArc
 50
291.3178125464983
 51
324.5349762000995
  0
ARC
  5
2FD
330
1F
100
AcDbEntity
  8
LAY-10
  6
CONTINUOUS
 62
     7
100
AcDbCircle
 10
522.7638944324204
 20
566.650000000001
 30
0.0
 40
6.299999999999999
100
AcDbArc
 50
335.4650237999101
 51
8.682187453494267
  0
LINE
  5
2FE
330
1F
100
AcDbEntity
  8
LAY-10
  6
CONTINUOUS
 62
     7
100
AcDbLine
 10
515.613448015713
 20
573.665063509461
 30
0.0
 11
516.2964607176053
 21
573.8480762113534
 31
0.0
  0
LINE
  5
2FF
330
1F
100
AcDbEntity
  8
LAY-10
  6
CONTINUOUS
 62
     7
100
AcDbLine
 10
513.1134480157131
 20
569.3349364905389
 30
0.0
 11
513.2964607176053
 21
568.6519237886466
 31
0.0
  0
LINE
  5
300
330
1F
100
AcDbEntity
  8
LAY-10
  6
CONTINUOUS
 62
     7
100
AcDbLine
 10
526.2557528611246
 20
568.0980762113544
 30
0.0
 11
520.9977063737572
 21
571.1338107662475
 31
0.0
  0
LINE
  5
301
330
1F
100
AcDbEntity
  8
LAY-10
  6
CONTINUOUS
 62
     7
100
AcDbLine
 10
515.613448015713
 20
573.665063509461
 30
0.0
 11
513.1134480157131
 21
569.3349364905389
 31
0.0
  0
LINE
  5
302
330
1F
100
AcDbEntity
  8
LAY-10
  6
CONTINUOUS
 62
     7
100
AcDbLine
 10
523.2557528611246
 20
562.9019237886478
 30
0.0
 11
517.9977063737572
 21
565.9376583435409
 31
0.0
  0
LINE
  5
303
330
1F
100
AcDbEntity
  8
LAY-10
  6
CONTINUOUS
 62
     7
100
AcDbLine
 10
513.2964607176053
 20
568.6519237886466
 30
0.0
 11
516.2964607176053
 21
573.8480762113534
 31
0.0
  0
ARC
  5
304
330
1F
100
AcDbEntity
  8
LAY-10
  6
CONTINUOUS
 62
     7
100
AcDbCircle
 10
406.2181911479957
 20
564.0415808936783
 30
0.0
 40
3.5
100
AcDbArc
 50
248.6821874534932
 51
298.1293582694065
  0
ARC
  5
305
330
1F
100
AcDbEntity
  8
LAY-10
  6
CONTINUOUS
 62
     7
100
AcDbCircle
 10
404.4681911479958
 20
567.0726698069237
 30
0.0
 40
3.5
100
AcDbArc
 50
121.8706417306054
 51
171.317812546502
  0
LINE
  5
306
330
1F
100
AcDbEntity
  8
LAY-10
  6
CONTINUOUS
 62
     7
100
AcDbLine
 10
402.6201797604256
 20
570.0450180219603
 30
0.0
 11
407.8683145173256
 21
560.9549819780414
 31
0.0
  0
LINE
  5
307
330
1F
100
AcDbEntity
  8
LAY-10
  6
CONTINUOUS
 62
     7
100
AcDbLine
 10
401.5049454705191
 20
564.0339334982215
 30
0.0
 11
403.645209033199
 21
565.2696152422715
 31
0.0
  0
LINE
  5
308
330
1F
100
AcDbEntity
  8
LAY-10
  6
CONTINUOUS
 62
     7
100
AcDbLine
 10
403.645209033199
 20
565.2696152422715
 30
0.0
 11
404.245209033199
 21
564.2303847577302
 31
0.0
  0
LINE
  5
309
330
1F
100
AcDbEntity
  8
LAY-10
  6
CONTINUOUS
 62
     7
100
AcDbLine
 10
402.1049454705191
 20
562.9947030136802
 30
0.0
 11
404.245209033199
 21
564.2303847577302
 31
0.0
  0
ARC
  5
30A
330
1F
100
AcDbEntity
  8
LAY-10
  6
CONTINUOUS
 62
     7
100
AcDbCircle
 10
407.2361055675799
 20
566.6500000000007
 30
0.0
 40
6.299999999999999
100
AcDbArc
 50
171.3178125464971
 51
204.5349762000981
  0
ARC
  5
30B
330
1F
100
AcDbEntity
  8
LAY-10
  6
CONTINUOUS
 62
     7
100
AcDbCircle
 10
407.2361055675799
 20
566.6500000000007
 30
0.0
 40
6.299999999999999
100
AcDbArc
 50
215.4650237999097
 51
248.6821874534928
  0
LINE
  5
30C
330
1F
100
AcDbEntity
  8
LAY-10
  6
CONTINUOUS
 62
     7
100
AcDbLine
 10
416.8865519842871
 20
569.3349364905388
 30
0.0
 11
416.703539282395
 21
568.6519237886463
 31
0.0
  0
LINE
  5
30D
330
1F
100
AcDbEntity
  8
LAY-10
  6
CONTINUOUS
 62
     7
100
AcDbLine
 10
414.3865519842872
 20
573.6650635094609
 30
0.0
 11
413.703539282395
 21
573.848076211353
 31
0.0
  0
LINE
  5
30E
330
1F
100
AcDbEntity
  8
LAY-10
  6
CONTINUOUS
 62
     7
100
AcDbLine
 10
406.7442471388757
 20
562.9019237886474
 30
0.0
 11
412.0022936262431
 21
565.9376583435405
 31
0.0
  0
LINE
  5
30F
330
1F
100
AcDbEntity
  8
LAY-10
  6
CONTINUOUS
 62
     7
100
AcDbLine
 10
416.8865519842871
 20
569.3349364905388
 30
0.0
 11
414.3865519842872
 21
573.6650635094609
 31
0.0
  0
LINE
  5
310
330
1F
100
AcDbEntity
  8
LAY-10
  6
CONTINUOUS
 62
     7
100
AcDbLine
 10
403.7442471388757
 20
568.098076211354
 30
0.0
 11
409.0022936262431
 21
571.1338107662472
 31
0.0
  0
LINE
  5
311
330
1F
100
AcDbEntity
  8
LAY-10
  6
CONTINUOUS
 62
     7
100
AcDbLine
 10
413.703539282395
 20
573.848076211353
 30
0.0
 11
416.703539282395
 21
568.6519237886463
 31
0.0
  0
ARC
  5
312
330
1F
100
AcDbEntity
  8
LAY-10
  6
CONTINUOUS
 62
     7
100
AcDbCircle
 10
465.0
 20
600.0
 30
0.0
 40
69.30625411594156
100
AcDbArc
 50
214.338520986665
 51
325.6614790133353
  0
LINE
  5
313
330
1F
100
AcDbEntity
  8
LAY-10
  6
CONTINUOUS
 62
     7
100
AcDbLine
 10
412.4897026755427
 20
573.1472673196347
 30
0.0
 11
413.703539282395
 21
573.848076211353
 31
0.0
  0
LINE
  5
314
330
1F
100
AcDbEntity
  8
LAY-10
  6
CONTINUOUS
 62
     7
100
AcDbLine
 10
415.4897026755406
 20
567.9511148969268
 30
0.0
 11
416.703539282395
 21
568.6519237886463
 31
0.0
  0
ARC
  5
315
330
1F
100
AcDbEntity
  8
LAY-10
  6
CONTINUOUS
 62
     7
100
AcDbCircle
 10
465.0
 20
600.0
 30
0.0
 40
69.30625411594156
100
AcDbArc
 50
334.3385209866647
 51
85.66147901333515
  0
LINE
  5
316
330
1F
100
AcDbEntity
  8
LAY-10
  6
CONTINUOUS
 62
     7
100
AcDbLine
 10
517.5102973244576
 20
573.147267319635
 30
0.0
 11
516.2964607176053
 21
573.8480762113534
 31
0.0
  0
LINE
  5
317
330
1F
100
AcDbEntity
  8
LAY-10
  6
CONTINUOUS
 62
     7
100
AcDbLine
 10
514.5102973244597
 20
567.9511148969272
 30
0.0
 11
513.2964607176053
 21
568.6519237886466
 31
0.0
  0
LINE
  5
318
330
1F
100
AcDbEntity
  8
LAY-10
  6
CONTINUOUS
 62
     7
100
AcDbLine
 10
467.1934966581822
 20
300.9999999999998
 30
0.0
 11
465.0000000000003
 21
300.9999999999998
 31
0.0
  0
LINE
  5
319
330
1F
100
AcDbEntity
  8
LAY-10
  6
CONTINUOUS
 62
     7
100
AcDbLine
 10
480.0888097634962
 20
299.9999999999998
 30
0.0
 11
480.0360010339248
 21
300.5946275217127
 31
0.0
  0
LINE
  5
31A
330
1F
100
AcDbEntity
  8
LAY-10
  6
CONTINUOUS
 62
     7
100
AcDbLine
 10
480.8978467222514
 20
299.9999999999998
 30
0.0
 11
480.773550080275
 21
300.6932952597983
 31
0.0
  0
LINE
  5
31B
330
1F
100
AcDbEntity
  8
LAY-10
  6
CONTINUOUS
 62
     7
100
AcDbLine
 10
505.2680416245137
 20
300.9999999999998
 30
0.0
 11
497.4521700722133
 21
300.9999999999998
 31
0.0
  0
LINE
  5
31C
330
1F
100
AcDbEntity
  8
LAY-10
  6
CONTINUOUS
 62
     7
100
AcDbLine
 10
449.9111902365045
 20
299.9999999999998
 30
0.0
 11
449.9639989660759
 21
300.5946275217127
 31
0.0
  0
LINE
  5
31D
330
1F
100
AcDbEntity
  8
LAY-10
  6
CONTINUOUS
 62
     7
100
AcDbLine
 10
449.1021532777491
 20
299.9999999999998
 30
0.0
 11
449.2264499197256
 21
300.6932952597983
 31
0.0
  0
LINE
  5
31E
330
1F
100
AcDbEntity
  8
LAY-10
  6
CONTINUOUS
 62
     7
100
AcDbLine
 10
437.0777688025706
 20
299.9999999999998
 30
0.0
 11
437.0530456751825
 21
300.1562670782699
 31
0.0
  0
LINE
  5
31F
330
1F
100
AcDbEntity
  8
LAY-10
  6
CONTINUOUS
 62
     7
100
AcDbLine
 10
429.9970095498192
 20
300.9999999999998
 30
0.0
 11
436.0653308376667
 21
300.9999999999998
 31
0.0
  0
LINE
  5
320
330
1F
100
AcDbEntity
  8
LAY-10
  6
CONTINUOUS
 62
     7
100
AcDbLine
 10
414.719592333468
 20
300.9999999999998
 30
0.0
 11
420.3858811655744
 21
300.9999999999998
 31
0.0
  0
ARC
  5
321
330
1F
100
AcDbEntity
  8
LAY-10
  6
CONTINUOUS
 62
     7
100
AcDbCircle
 10
386.2500000000007
 20
302.8857492993997
 30
0.0
 40
3.5
100
AcDbArc
 50
128.6821874534948
 51
178.1293582694075
  0
ARC
  5
322
330
1F
100
AcDbEntity
  8
LAY-10
  6
CONTINUOUS
 62
     7
100
AcDbCircle
 10
389.7500000000006
 20
302.8857492993997
 30
0.0
 40
3.5
100
AcDbArc
 50
1.870641730603566
 51
51.31781254650128
  0
LINE
  5
323
330
1F
100
AcDbEntity
  8
LAY-10
  6
CONTINUOUS
 62
     7
100
AcDbLine
 10
393.2481347569006
 20
302.9999999999999
 30
0.0
 11
382.7518652431006
 21
302.9999999999999
 31
0.0
  0
LINE
  5
324
330
1F
100
AcDbEntity
  8
LAY-10
  6
CONTINUOUS
 62
     7
100
AcDbLine
 10
388.6000000000006
 20
306.9713634880999
 30
0.0
 11
388.6000000000006
 21
304.4999999999999
 31
0.0
  0
LINE
  5
325
330
1F
100
AcDbEntity
  8
LAY-10
  6
CONTINUOUS
 62
     7
100
AcDbLine
 10
388.6000000000006
 20
304.4999999999999
 30
0.0
 11
387.4000000000007
 21
304.4999999999999
 31
0.0
  0
LINE
  5
326
330
1F
100
AcDbEntity
  8
LAY-10
  6
CONTINUOUS
 62
     7
100
AcDbLine
 10
387.4000000000007
 20
306.9713634880999
 30
0.0
 11
387.4000000000007
 21
304.4999999999999
 31
0.0
  0
ARC
  5
327
330
1F
100
AcDbEntity
  8
LAY-10
  6
CONTINUOUS
 62
     7
100
AcDbCircle
 10
388.0000000000005
 20
300.7
 30
0.0
 40
6.299999999999999
100
AcDbArc
 50
51.31781254649704
 51
84.53497620009904
  0
ARC
  5
328
330
1F
100
AcDbEntity
  8
LAY-10
  6
CONTINUOUS
 62
     7
100
AcDbCircle
 10
388.0000000000005
 20
300.7
 30
0.0
 40
6.299999999999999
100
AcDbArc
 50
95.46502379991023
 51
128.6821874534934
  0
LINE
  5
329
330
1F
100
AcDbEntity
  8
LAY-10
  6
CONTINUOUS
 62
     7
100
AcDbLine
 10
385.5000000000007
 20
291.000000000002
 30
0.0
 11
385.0000000000005
 21
291.500000000002
 31
0.0
  0
LINE
  5
32A
330
1F
100
AcDbEntity
  8
LAY-10
  6
CONTINUOUS
 62
     7
100
AcDbLine
 10
390.5000000000006
 20
291.000000000002
 30
0.0
 11
391.0000000000005
 21
291.500000000002
 31
0.0
  0
LINE
  5
32B
330
1F
100
AcDbEntity
  8
LAY-10
  6
CONTINUOUS
 62
     7
100
AcDbLine
 10
385.0000000000005
 20
302.9999999999999
 30
0.0
 11
385.0000000000005
 21
291.500000000002
 31
0.0
  0
LINE
  5
32C
330
1F
100
AcDbEntity
  8
LAY-10
  6
CONTINUOUS
 62
     7
100
AcDbLine
 10
385.5000000000007
 20
291.000000000002
 30
0.0
 11
390.5000000000006
 21
291.000000000002
 31
0.0
  0
LINE
  5
32D
330
1F
100
AcDbEntity
  8
LAY-10
  6
CONTINUOUS
 62
     7
100
AcDbLine
 10
391.0000000000005
 20
302.9999999999999
 30
0.0
 11
391.0000000000005
 21
291.500000000002
 31
0.0
  0
LINE
  5
32E
330
1F
100
AcDbEntity
  8
LAY-10
  6
CONTINUOUS
 62
     7
100
AcDbLine
 10
391.0000000000005
 20
291.500000000002
 30
0.0
 11
385.0000000000005
 21
291.500000000002
 31
0.0
  0
LINE
  5
32F
330
1F
100
AcDbEntity
  8
LAY-10
  6
CONTINUOUS
 62
     7
100
AcDbLine
 10
390.5000000000006
 20
294.9999999999999
 30
0.0
 11
461.0000000000001
 21
294.9999999999999
 31
0.0
  0
LINE
  5
330
330
1F
100
AcDbEntity
  8
LAY-10
  6
CONTINUOUS
 62
     7
100
AcDbLine
 10
525.0290092344054
 20
349.9999999999999
 30
0.0
 11
530.8097421740162
 21
294.9999999999999
 31
0.0
  0
LINE
  5
331
330
1F
100
AcDbEntity
  8
LAY-10
  6
CONTINUOUS
 62
     7
100
AcDbLine
 10
528.5255211763315
 20
354.9999999999998
 30
0.0
 11
528.0000000000031
 21
360.0
 31
0.0
  0
LINE
  5
332
330
1F
100
AcDbEntity
  8
LAY-10
  6
CONTINUOUS
 62
     7
100
AcDbLine
 10
517.9999999999984
 20
282.1986412405304
 30
0.0
 11
513.1288933513963
 21
282.1986412405304
 31
0.0
  0
LINE
  5
333
330
1F
100
AcDbEntity
  8
LAY-10
  6
CONTINUOUS
 62
     7
100
AcDbLine
 10
525.4999999999989
 20
282.9999999999994
 30
0.0
 11
525.9740511070427
 21
282.9999999999994
 31
0.0
  0
LINE
  5
334
330
1F
100
AcDbEntity
  8
LAY-10
  6
CONTINUOUS
 62
     7
100
AcDbLine
 10
517.499999999999
 20
300.9999999999998
 30
0.0
 11
514.5889800183284
 21
300.9999999999998
 31
0.0
  0
LINE
  5
335
330
1F
100
AcDbEntity
  8
LAY-10
  6
CONTINUOUS
 62
     7
100
AcDbLine
 10
525.4999999999989
 20
317.6971183237176
 30
0.0
 11
527.3645775453871
 21
295.0000000000001
 31
0.0
  0
LINE
  5
336
330
1F
100
AcDbEntity
  8
LAY-10
  6
CONTINUOUS
 62
     7
100
AcDbLine
 10
525.1840783328327
 20
325.5159216671644
 30
0.0
 11
523.1813374681664
 21
345.0
 31
0.0
  0
LINE
  5
337
330
1F
100
AcDbEntity
  8
LAY-10
  6
CONTINUOUS
 62
     7
100
AcDbLine
 10
525.4999999999989
 20
294.9999999999999
 30
0.0
 11
543.840031970156
 21
294.9999999999999
 31
0.0
  0
LINE
  5
338
330
1F
100
AcDbEntity
  8
LAY-10
  6
CONTINUOUS
 62
     7
100
AcDbLine
 10
464.2499999999997
 20
323.2
 30
0.0
 11
465.0
 21
323.2
 31
0.0
  0
LINE
  5
339
330
1F
100
AcDbEntity
  8
LAY-10
  6
CONTINUOUS
 62
     7
100
AcDbLine
 10
464.2499999999997
 20
323.2
 30
0.0
 11
464.2499999999997
 21
325.6999999999964
 31
0.0
  0
LINE
  5
33A
330
1F
100
AcDbEntity
  8
LAY-10
  6
CONTINUOUS
 62
     7
100
AcDbLine
 10
461.0000000000001
 20
325.2000000000002
 30
0.0
 11
464.2499999999997
 21
325.2000000000002
 31
0.0
  0
LINE
  5
33B
330
1F
100
AcDbEntity
  8
LAY-10
  6
CONTINUOUS
 62
     7
100
AcDbLine
 10
461.4999999999999
 20
325.6999999999964
 30
0.0
 11
464.2499999999997
 21
325.6999999999964
 31
0.0
  0
LINE
  5
33C
330
1F
100
AcDbEntity
  8
LAY-10
  6
CONTINUOUS
 62
     7
100
AcDbLine
 10
461.0000000000001
 20
325.2000000000002
 30
0.0
 11
461.5000000000001
 21
325.6999999999964
 31
0.0
  0
LINE
  5
33D
330
1F
100
AcDbEntity
  8
LAY-10
  6
CONTINUOUS
 62
     7
100
AcDbLine
 10
461.0000000000001
 20
294.7999999999993
 30
0.0
 11
461.0000000000001
 21
325.2000000000002
 31
0.0
  0
ARC
  5
33E
330
1F
100
AcDbEntity
  8
LAY-10
  6
CONTINUOUS
 62
     7
100
AcDbCircle
 10
465.0
 20
283.7308128342239
 30
0.0
 40
11.06918716577541
100
AcDbArc
 50
89.99999999999996
 51
111.1839556582273
  0
LINE
  5
33F
330
1F
100
AcDbEntity
  8
LAY-10
  6
CONTINUOUS
 62
     7
100
AcDbLine
 10
465.0
 20
294.7999999999993
 30
0.0
 11
459.0
 21
294.7999999999993
 31
0.0
  0
ARC
  5
340
330
1F
100
AcDbEntity
  8
LAY-10
  6
CONTINUOUS
 62
     7
100
AcDbCircle
 10
459.0
 20
291.7522032085553
 30
0.0
 40
3.047796791443853
100
AcDbArc
 50
48.98840640770564
 51
131.0115935922943
  0
LINE
  5
341
330
1F
100
AcDbEntity
  8
LAY-10
  6
CONTINUOUS
 62
     7
100
AcDbLine
 10
456.9999999999999
 20
287.9999999999993
 30
0.0
 11
456.9999999999999
 21
294.0519999999993
 31
0.0
  0
LINE
  5
342
330
1F
100
AcDbEntity
  8
LAY-10
  6
CONTINUOUS
 62
     7
100
AcDbLine
 10
461.0000000000001
 20
287.9999999999993
 30
0.0
 11
461.0000000000001
 21
294.0519999999993
 31
0.0
  0
LINE
  5
343
330
1F
100
AcDbEntity
  8
LAY-10
  6
CONTINUOUS
 62
     7
100
AcDbLine
 10
456.9999999999999
 20
287.9999999999993
 30
0.0
 11
465.0
 21
287.9999999999993
 31
0.0
  0
LINE
  5
344
330
1F
100
AcDbEntity
  8
LAY-10
  6
CONTINUOUS
 62
     7
100
AcDbLine
 10
465.0
 20
294.9999999999999
 30
0.0
 11
517.499999999999
 21
294.9999999999999
 31
0.0
  0
LINE
  5
345
330
1F
100
AcDbEntity
  8
LAY-10
  6
CONTINUOUS
 62
     7
100
AcDbLine
 10
543.5612150875136
 20
299.9999999999998
 30
0.0
 11
543.5669047194941
 21
300.0753224338919
 31
0.0
  0
LINE
  5
346
330
1F
100
AcDbEntity
  8
LAY-10
  6
CONTINUOUS
 62
     7
100
AcDbLine
 10
535.0000000000001
 20
270.092190801459
 30
0.0
 11
535.0000000000001
 21
215.1986412405311
 31
0.0
  0
LINE
  5
347
330
1F
100
AcDbEntity
  8
LAY-10
  6
CONTINUOUS
 62
     7
100
AcDbLine
 10
530.5000000000001
 20
270.092190801459
 30
0.0
 11
530.5000000000001
 21
215.1986412405311
 31
0.0
  0
LINE
  5
348
330
1F
100
AcDbEntity
  8
LAY-10
  6
CONTINUOUS
 62
     7
100
AcDbLine
 10
399.5
 20
270.092190801459
 30
0.0
 11
399.5
 21
215.1986412405311
 31
0.0
  0
LINE
  5
349
330
1F
100
AcDbEntity
  8
LAY-10
  6
CONTINUOUS
 62
     7
100
AcDbLine
 10
395.0
 20
270.092190801459
 30
0.0
 11
395.0
 21
215.1986412405311
 31
0.0
  0
LINE
  5
34A
330
1F
100
AcDbEntity
  8
LAY-10
  6
CONTINUOUS
 62
     7
100
AcDbLine
 10
395.0
 20
215.1986412405311
 30
0.0
 11
535.0000000000001
 21
215.1986412405311
 31
0.0
  0
LINE
  5
34B
330
1F
100
AcDbEntity
  8
LAY-10
  6
CONTINUOUS
 62
     7
100
AcDbLine
 10
530.5000000000002
 20
270.092190801459
 30
0.0
 11
535.0000000000001
 21
270.092190801459
 31
0.0
  0
LINE
  5
34C
330
1F
100
AcDbEntity
  8
LAY-10
  6
CONTINUOUS
 62
     7
100
AcDbLine
 10
395.0000000000003
 20
268.9387566107089
 30
0.0
 11
396.1534341907504
 21
270.092190801459
 31
0.0
  0
LINE
  5
34D
330
1F
100
AcDbEntity
  8
LAY-10
  6
CONTINUOUS
 62
     7
100
AcDbLine
 10
395.0000000000003
 20
266.1103294859627
 30
0.0
 11
398.9818613154966
 21
270.092190801459
 31
0.0
  0
LINE
  5
34E
330
1F
100
AcDbEntity
  8
LAY-10
  6
CONTINUOUS
 62
     7
100
AcDbLine
 10
395.0000000000003
 20
263.2819023612165
 30
0.0
 11
399.5000000000002
 21
267.7819023612165
 31
0.0
  0
LINE
  5
34F
330
1F
100
AcDbEntity
  8
LAY-10
  6
CONTINUOUS
 62
     7
100
AcDbLine
 10
395.0000000000003
 20
260.4534752364703
 30
0.0
 11
399.5000000000002
 21
264.9534752364702
 31
0.0
  0
LINE
  5
350
330
1F
100
AcDbEntity
  8
LAY-10
  6
CONTINUOUS
 62
     7
100
AcDbLine
 10
395.0000000000003
 20
257.6250481117241
 30
0.0
 11
399.5000000000002
 21
262.1250481117241
 31
0.0
  0
LINE
  5
351
330
1F
100
AcDbEntity
  8
LAY-10
  6
CONTINUOUS
 62
     7
100
AcDbLine
 10
395.0000000000003
 20
254.7966209869779
 30
0.0
 11
399.5000000000002
 21
259.2966209869779
 31
0.0
  0
LINE
  5
352
330
1F
100
AcDbEntity
  8
LAY-10
  6
CONTINUOUS
 62
     7
100
AcDbLine
 10
395.0000000000003
 20
251.9681938622317
 30
0.0
 11
399.5000000000002
 21
256.4681938622318
 31
0.0
  0
LINE
  5
353
330
1F
100
AcDbEntity
  8
LAY-10
  6
CONTINUOUS
 62
     7
100
AcDbLine
 10
395.0000000000003
 20
249.1397667374856
 30
0.0
 11
399.5000000000002
 21
253.6397667374855
 31
0.0
  0
LINE
  5
354
330
1F
100
AcDbEntity
  8
LAY-10
  6
CONTINUOUS
 62
     7
100
AcDbLine
 10
395.0000000000003
 20
246.3113396127394
 30
0.0
 11
399.5000000000002
 21
250.8113396127393
 31
0.0
  0
LINE
  5
355
330
1F
100
AcDbEntity
  8
LAY-10
  6
CONTINUOUS
 62
     7
100
AcDbLine
 10
395.0000000000003
 20
243.4829124879932
 30
0.0
 11
399.5000000000002
 21
247.9829124879932
 31
0.0
  0
LINE
  5
356
330
1F
100
AcDbEntity
  8
LAY-10
  6
CONTINUOUS
 62
     7
100
AcDbLine
 10
395.0000000000003
 20
240.654485363247
 30
0.0
 11
399.5000000000002
 21
245.154485363247
 31
0.0
  0
LINE
  5
357
330
1F
100
AcDbEntity
  8
LAY-10
  6
CONTINUOUS
 62
     7
100
AcDbLine
 10
395.0000000000003
 20
237.8260582385009
 30
0.0
 11
399.5000000000002
 21
242.3260582385008
 31
0.0
  0
LINE
  5
358
330
1F
100
AcDbEntity
  8
LAY-10
  6
CONTINUOUS
 62
     7
100
AcDbLine
 10
395.0000000000004
 20
234.9976311137547
 30
0.0
 11
399.5000000000002
 21
239.4976311137546
 31
0.0
  0
LINE
  5
359
330
1F
100
AcDbEntity
  8
LAY-10
  6
CONTINUOUS
 62
     7
100
AcDbLine
 10
395.0000000000002
 20
232.1692039890085
 30
0.0
 11
399.5000000000002
 21
236.6692039890085
 31
0.0
  0
LINE
  5
35A
330
1F
100
AcDbEntity
  8
LAY-10
  6
CONTINUOUS
 62
     7
100
AcDbLine
 10
395.0000000000003
 20
229.3407768642623
 30
0.0
 11
399.5000000000003
 21
233.8407768642623
 31
0.0
  0
LINE
  5
35B
330
1F
100
AcDbEntity
  8
LAY-10
  6
CONTINUOUS
 62
     7
100
AcDbLine
 10
395.0000000000003
 20
226.5123497395162
 30
0.0
 11
399.5000000000002
 21
231.0123497395161
 31
0.0
  0
LINE
  5
35C
330
1F
100
AcDbEntity
  8
LAY-10
  6
CONTINUOUS
 62
     7
100
AcDbLine
 10
395.0000000000004
 20
223.6839226147699
 30
0.0
 11
399.5000000000002
 21
228.1839226147698
 31
0.0
  0
LINE
  5
35D
330
1F
100
AcDbEntity
  8
LAY-10
  6
CONTINUOUS
 62
     7
100
AcDbLine
 10
395.0000000000002
 20
220.8554954900238
 30
0.0
 11
399.5000000000002
 21
225.3554954900238
 31
0.0
  0
LINE
  5
35E
330
1F
100
AcDbEntity
  8
LAY-10
  6
CONTINUOUS
 62
     7
100
AcDbLine
 10
395.0000000000003
 20
218.0270683652776
 30
0.0
 11
399.5000000000003
 21
222.5270683652776
 31
0.0
  0
LINE
  5
35F
330
1F
100
AcDbEntity
  8
LAY-10
  6
CONTINUOUS
 62
     7
100
AcDbLine
 10
395.0000000000001
 20
215.1986412405312
 30
0.0
 11
399.5000000000002
 21
219.6986412405314
 31
0.0
  0
LINE
  5
360
330
1F
100
AcDbEntity
  8
LAY-10
  6
CONTINUOUS
 62
     7
100
AcDbLine
 10
397.8284271247462
 20
215.1986412405311
 30
0.0
 11
399.5000000000002
 21
216.8702141157851
 31
0.0
  0
LINE
  5
361
330
1F
100
AcDbEntity
  8
LAY-10
  6
CONTINUOUS
 62
     7
100
AcDbLine
 10
530.5000000000005
 20
268.9387566107089
 30
0.0
 11
531.6534341907505
 21
270.092190801459
 31
0.0
  0
LINE
  5
362
330
1F
100
AcDbEntity
  8
LAY-10
  6
CONTINUOUS
 62
     7
100
AcDbLine
 10
530.5000000000005
 20
266.1103294859627
 30
0.0
 11
534.4818613154966
 21
270.092190801459
 31
0.0
  0
LINE
  5
363
330
1F
100
AcDbEntity
  8
LAY-10
  6
CONTINUOUS
 62
     7
100
AcDbLine
 10
530.5000000000005
 20
263.2819023612165
 30
0.0
 11
535.0000000000003
 21
267.7819023612165
 31
0.0
  0
LINE
  5
364
330
1F
100
AcDbEntity
  8
LAY-10
  6
CONTINUOUS
 62
     7
100
AcDbLine
 10
530.5000000000005
 20
260.4534752364703
 30
0.0
 11
535.0000000000003
 21
264.9534752364702
 31
0.0
  0
LINE
  5
365
330
1F
100
AcDbEntity
  8
LAY-10
  6
CONTINUOUS
 62
     7
100
AcDbLine
 10
530.5000000000005
 20
257.6250481117241
 30
0.0
 11
535.0000000000003
 21
262.1250481117241
 31
0.0
  0
LINE
  5
366
330
1F
100
AcDbEntity
  8
LAY-10
  6
CONTINUOUS
 62
     7
100
AcDbLine
 10
530.5000000000005
 20
254.7966209869779
 30
0.0
 11
535.0000000000003
 21
259.2966209869779
 31
0.0
  0
LINE
  5
367
330
1F
100
AcDbEntity
  8
LAY-10
  6
CONTINUOUS
 62
     7
100
AcDbLine
 10
530.5000000000005
 20
251.9681938622317
 30
0.0
 11
535.0000000000003
 21
256.4681938622318
 31
0.0
  0
LINE
  5
368
330
1F
100
AcDbEntity
  8
LAY-10
  6
CONTINUOUS
 62
     7
100
AcDbLine
 10
530.5000000000005
 20
249.1397667374856
 30
0.0
 11
535.0000000000003
 21
253.6397667374855
 31
0.0
  0
LINE
  5
369
330
1F
100
AcDbEntity
  8
LAY-10
  6
CONTINUOUS
 62
     7
100
AcDbLine
 10
530.5000000000005
 20
246.3113396127394
 30
0.0
 11
535.0000000000003
 21
250.8113396127393
 31
0.0
  0
LINE
  5
36A
330
1F
100
AcDbEntity
  8
LAY-10
  6
CONTINUOUS
 62
     7
100
AcDbLine
 10
530.5000000000005
 20
243.4829124879932
 30
0.0
 11
535.0000000000003
 21
247.9829124879932
 31
0.0
  0
LINE
  5
36B
330
1F
100
AcDbEntity
  8
LAY-10
  6
CONTINUOUS
 62
     7
100
AcDbLine
 10
530.5000000000005
 20
240.654485363247
 30
0.0
 11
535.0000000000003
 21
245.154485363247
 31
0.0
  0
LINE
  5
36C
330
1F
100
AcDbEntity
  8
LAY-10
  6
CONTINUOUS
 62
     7
100
AcDbLine
 10
530.5000000000005
 20
237.8260582385009
 30
0.0
 11
535.0000000000003
 21
242.3260582385008
 31
0.0
  0
LINE
  5
36D
330
1F
100
AcDbEntity
  8
LAY-10
  6
CONTINUOUS
 62
     7
100
AcDbLine
 10
530.5000000000005
 20
234.9976311137547
 30
0.0
 11
535.0000000000003
 21
239.4976311137546
 31
0.0
  0
LINE
  5
36E
330
1F
100
AcDbEntity
  8
LAY-10
  6
CONTINUOUS
 62
     7
100
AcDbLine
 10
530.5000000000003
 20
232.1692039890085
 30
0.0
 11
535.0000000000003
 21
236.6692039890085
 31
0.0
  0
LINE
  5
36F
330
1F
100
AcDbEntity
  8
LAY-10
  6
CONTINUOUS
 62
     7
100
AcDbLine
 10
530.5000000000005
 20
229.3407768642623
 30
0.0
 11
535.0000000000005
 21
233.8407768642623
 31
0.0
  0
LINE
  5
370
330
1F
100
AcDbEntity
  8
LAY-10
  6
CONTINUOUS
 62
     7
100
AcDbLine
 10
530.5000000000005
 20
226.5123497395162
 30
0.0
 11
535.0000000000003
 21
231.0123497395161
 31
0.0
  0
LINE
  5
371
330
1F
100
AcDbEntity
  8
LAY-10
  6
CONTINUOUS
 62
     7
100
AcDbLine
 10
530.5000000000005
 20
223.6839226147699
 30
0.0
 11
535.0000000000003
 21
228.1839226147698
 31
0.0
  0
LINE
  5
372
330
1F
100
AcDbEntity
  8
LAY-10
  6
CONTINUOUS
 62
     7
100
AcDbLine
 10
530.5000000000003
 20
220.8554954900238
 30
0.0
 11
535.0000000000003
 21
225.3554954900238
 31
0.0
  0
LINE
  5
373
330
1F
100
AcDbEntity
  8
LAY-10
  6
CONTINUOUS
 62
     7
100
AcDbLine
 10
530.5000000000005
 20
218.0270683652776
 30
0.0
 11
535.0000000000005
 21
222.5270683652776
 31
0.0
  0
LINE
  5
374
330
1F
100
AcDbEntity
  8
LAY-10
  6
CONTINUOUS
 62
     7
100
AcDbLine
 10
530.5000000000001
 20
215.1986412405312
 30
0.0
 11
535.0000000000003
 21
219.6986412405314
 31
0.0
  0
LINE
  5
375
330
1F
100
AcDbEntity
  8
LAY-10
  6
CONTINUOUS
 62
     7
100
AcDbLine
 10
533.3284271247463
 20
215.1986412405311
 30
0.0
 11
535.0000000000003
 21
216.8702141157851
 31
0.0
  0
LINE
  5
376
330
1F
100
AcDbEntity
  8
LAY-10
  6
CONTINUOUS
 62
     7
100
AcDbLine
 10
372.4999999999974
 20
285.1986412405416
 30
0.0
 11
372.4999999999974
 21
286.1986412405398
 31
0.0
  0
LINE
  5
377
330
1F
100
AcDbEntity
  8
LAY-10
  6
CONTINUOUS
 62
     7
100
AcDbLine
 10
377.4999999999968
 20
285.1986412405416
 30
0.0
 11
377.4999999999968
 21
286.198641240541
 31
0.0
  0
LINE
  5
378
330
1F
100
AcDbEntity
  8
LAY-10
  6
CONTINUOUS
 62
     7
100
AcDbLine
 10
377.4999999999968
 20
286.198641240541
 30
0.0
 11
372.4999999999974
 21
286.198641240541
 31
0.0
  0
LINE
  5
379
330
1F
100
AcDbEntity
  8
LAY-10
  6
CONTINUOUS
 62
     7
100
AcDbLine
 10
377.9999999999999
 20
284.698641240541
 30
0.0
 11
371.9999999999999
 21
284.698641240541
 31
0.0
  0
LINE
  5
37A
330
1F
100
AcDbEntity
  8
LAY-10
  6
CONTINUOUS
 62
     7
100
AcDbLine
 10
377.4999999999999
 20
285.1986412405416
 30
0.0
 11
372.4999999999999
 21
285.1986412405416
 31
0.0
  0
LINE
  5
37B
330
1F
100
AcDbEntity
  8
LAY-10
  6
CONTINUOUS
 62
     7
100
AcDbLine
 10
374.9999999999997
 20
287.6420169135166
 30
0.0
 11
372.4999999999988
 21
286.198641240542
 31
0.0
  0
LINE
  5
37C
330
1F
100
AcDbEntity
  8
LAY-10
  6
CONTINUOUS
 62
     7
100
AcDbLine
 10
375.0000000000002
 20
287.6420169135164
 30
0.0
 11
377.5000000000006
 21
286.198641240542
 31
0.0
  0
LINE
  5
37D
330
1F
100
AcDbEntity
  8
LAY-10
  6
CONTINUOUS
 62
     7
100
AcDbLine
 10
360.5000000000004
 20
255.1986412405503
 30
0.0
 11
360.5000000000004
 21
260.1986412405502
 31
0.0
  0
LINE
  5
37E
330
1F
100
AcDbEntity
  8
LAY-10
  6
CONTINUOUS
 62
     7
100
AcDbLine
 10
370.5000000000009
 20
260.1986412405502
 30
0.0
 11
360.5000000000004
 21
260.1986412405502
 31
0.0
  0
ARC
  5
37F
330
1F
100
AcDbEntity
  8
LAY-10
  6
CONTINUOUS
 62
     7
100
AcDbCircle
 10
370.5000000000009
 20
262.1986412405503
 30
0.0
 40
2.0
100
AcDbArc
 50
270.0000000000002
 51
0.0
  0
LINE
  5
380
330
1F
100
AcDbEntity
  8
LAY-10
  6
CONTINUOUS
 62
     7
100
AcDbLine
 10
370.5000000000009
 20
255.1986412405503
 30
0.0
 11
360.5000000000004
 21
255.1986412405503
 31
0.0
  0
ARC
  5
381
330
1F
100
AcDbEntity
  8
LAY-10
  6
CONTINUOUS
 62
     7
100
AcDbCircle
 10
370.5000000000009
 20
262.1986412405503
 30
0.0
 40
7.000000000000004
100
AcDbArc
 50
270.0000000000002
 51
0.0
  0
LINE
  5
382
330
1F
100
AcDbEntity
  8
LAY-10
  6
CONTINUOUS
 62
     7
100
AcDbLine
 10
372.4999999999999
 20
262.1986412405458
 30
0.0
 11
372.4999999999999
 21
277.1986412405455
 31
0.0
  0
LINE
  5
383
330
1F
100
AcDbEntity
  8
LAY-10
  6
CONTINUOUS
 62
     7
100
AcDbLine
 10
377.4999999999999
 20
262.1986412405458
 30
0.0
 11
377.4999999999999
 21
277.1986412405455
 31
0.0
  0
LINE
  5
384
330
1F
100
AcDbEntity
  8
LAY-10
  6
CONTINUOUS
 62
     7
100
AcDbLine
 10
377.4999999999968
 20
283.1986412405504
 30
0.0
 11
372.4999999999974
 21
283.1986412405504
 31
0.0
  0
LINE
  5
385
330
1F
100
AcDbEntity
  8
LAY-10
  6
CONTINUOUS
 62
     7
100
AcDbLine
 10
377.9999999999981
 20
282.6986412405519
 30
0.0
 11
371.999999999999
 21
282.6986412405519
 31
0.0
  0
LINE
  5
386
330
1F
100
AcDbEntity
  8
LAY-10
  6
CONTINUOUS
 62
     7
100
AcDbLine
 10
372.4999999999974
 20
285.1986412405416
 30
0.0
 11
372.4999999999974
 21
283.1986412405504
 31
0.0
  0
LINE
  5
387
330
1F
100
AcDbEntity
  8
LAY-10
  6
CONTINUOUS
 62
     7
100
AcDbLine
 10
377.4999999999968
 20
285.1986412405416
 30
0.0
 11
377.4999999999968
 21
283.1986412405504
 31
0.0
  0
LINE
  5
388
330
1F
100
AcDbEntity
  8
LAY-10
  6
CONTINUOUS
 62
     7
100
AcDbLine
 10
371.9999999999999
 20
282.6986412405558
 30
0.0
 11
372.4999999999999
 21
283.1986412405458
 31
0.0
  0
LINE
  5
389
330
1F
100
AcDbEntity
  8
LAY-10
  6
CONTINUOUS
 62
     7
100
AcDbLine
 10
377.4999999999999
 20
283.1986412405458
 30
0.0
 11
377.9999999999999
 21
282.6986412405558
 31
0.0
  0
LINE
  5
38A
330
1F
100
AcDbEntity
  8
LAY-10
  6
CONTINUOUS
 62
     7
100
AcDbLine
 10
377.9999999999999
 20
282.6986412405558
 30
0.0
 11
377.9999999999999
 21
277.1986412405458
 31
0.0
  0
LINE
  5
38B
330
1F
100
AcDbEntity
  8
LAY-10
  6
CONTINUOUS
 62
     7
100
AcDbLine
 10
371.9999999999999
 20
282.6986412405558
 30
0.0
 11
371.9999999999999
 21
277.1986412405458
 31
0.0
  0
ARC
  5
38C
330
1F
100
AcDbEntity
  8
LAY-10
  6
CONTINUOUS
 62
     7
100
AcDbCircle
 10
415.5367971220188
 20
269.1986412405302
 30
0.0
 40
1.0
100
AcDbArc
 50
2.147585428296299
 51
90.00000000000004
  0
LINE
  5
38D
330
1F
100
AcDbEntity
  8
LAY-10
  6
CONTINUOUS
 62
     7
100
AcDbLine
 10
415.5367971220188
 20
270.1986412405309
 30
0.0
 11
405.9489645667168
 21
270.1986412405309
 31
0.0
  0
ARC
  5
38E
330
1F
100
AcDbEntity
  8
LAY-10
  6
CONTINUOUS
 62
     7
100
AcDbCircle
 10
405.9489645667168
 20
269.1986412405309
 30
0.0
 40
1.0
100
AcDbArc
 50
90.00000000000004
 51
177.0000000000044
  0
LINE
  5
38F
330
1F
100
AcDbEntity
  8
LAY-10
  6
CONTINUOUS
 62
     7
100
AcDbLine
 10
404.7352182923431
 20
265.1463052842873
 30
0.0
 11
404.950335031962
 21
269.2509771967738
 31
0.0
  0
ARC
  5
390
330
1F
100
AcDbEntity
  8
LAY-10
  6
CONTINUOUS
 62
     7
100
AcDbCircle
 10
403.7365887575887
 20
265.1986412405303
 30
0.0
 40
1.0
100
AcDbArc
 50
270.0000000000001
 51
357.0000000000012
  0
ARC
  5
391
330
1F
100
AcDbEntity
  8
LAY-10
  6
CONTINUOUS
 62
     7
100
AcDbCircle
 10
401.2634112424131
 20
265.1986412405303
 30
0.0
 40
1.0
100
AcDbArc
 50
182.9999999999989
 51
270.0000000000001
  0
LINE
  5
392
330
1F
100
AcDbEntity
  8
LAY-10
  6
CONTINUOUS
 62
     7
100
AcDbLine
 10
400.2647817076585
 20
265.1463052842873
 30
0.0
 11
400.0496649680398
 21
269.2509771967738
 31
0.0
  0
ARC
  5
393
330
1F
100
AcDbEntity
  8
LAY-10
  6
CONTINUOUS
 62
     7
100
AcDbCircle
 10
399.0510354332852
 20
269.1986412405309
 30
0.0
 40
1.0
100
AcDbArc
 50
2.999999999995652
 51
90.00000000000004
  0
LINE
  5
394
330
1F
100
AcDbEntity
  8
LAY-10
  6
CONTINUOUS
 62
     7
100
AcDbLine
 10
399.0510354332852
 20
270.1986412405309
 30
0.0
 11
398.1568718230266
 21
270.1986412405309
 31
0.0
  0
ARC
  5
395
330
1F
100
AcDbEntity
  8
LAY-10
  6
CONTINUOUS
 62
     7
100
AcDbCircle
 10
398.1568718230266
 20
276.1986412405309
 30
0.0
 40
6.0
100
AcDbArc
 50
183.4336303624545
 51
270.0000000000001
  0
LINE
  5
396
330
1F
100
AcDbEntity
  8
LAY-10
  6
CONTINUOUS
 62
     7
100
AcDbLine
 10
416.7250000000001
 20
264.1986412405302
 30
0.0
 11
401.2634112424131
 21
264.1986412405302
 31
0.0
  0
LINE
  5
397
330
1F
100
AcDbEntity
  8
LAY-10
  6
CONTINUOUS
 62
     7
100
AcDbLine
 10
513.2750000000001
 20
264.1986412405302
 30
0.0
 11
528.7365887575869
 21
264.1986412405302
 31
0.0
  0
LINE
  5
398
330
1F
100
AcDbEntity
  8
LAY-10
  6
CENTER
 62
     2
100
AcDbLine
 10
465.0
 20
364.9000000000148
 30
0.0
 11
465.0
 21
209.2000000000158
 31
0.0
  0
LINE
  5
399
330
1F
100
AcDbEntity
  8
LAY-10
  6
CENTER
 62
     2
100
AcDbLine
 10
521.499999999999
 20
271.0000000000148
 30
0.0
 11
521.499999999999
 21
327.9000000000148
 31
0.0
  0
LINE
  5
39A
330
1F
100
AcDbEntity
  8
LAY-10
  6
CENTER
 62
     2
100
AcDbLine
 10
344.6
 20
600.0
 30
0.0
 11
582.0
 21
600.0
 31
0.0
  0
LINE
  5
39B
330
1F
100
AcDbEntity
  8
LAY-10
  6
CENTER
 62
     2
100
AcDbLine
 10
387.9999999999987
 20
593.0000000000001
 30
0.0
 11
387.9999999999987
 21
606.5000000000001
 31
0.0
  0
LINE
  5
39C
330
1F
100
AcDbEntity
  8
LAY-10
  6
CENTER
 62
     2
100
AcDbLine
 10
542.0000000000008
 20
593.4000000000002
 30
0.0
 11
542.0000000000008
 21
606.1000000000001
 31
0.0
  0
LINE
  5
39D
330
1F
100
AcDbEntity
  8
LAY-10
  6
CENTER
 62
     2
100
AcDbLine
 10
531.0410852122831
 20
561.8711616751143
 30
0.0
 11
513.4475607337394
 21
572.0287877687958
 31
0.0
  0
LINE
  5
39E
330
1F
100
AcDbEntity
  8
LAY-10
  6
CENTER
 62
     2
100
AcDbLine
 10
388.0000000000005
 20
284.2
 30
0.0
 11
388.0000000000005
 21
308.8000000000148
 31
0.0
  0
LINE
  5
39F
330
1F
100
AcDbEntity
  8
LAY-10
  6
CENTER
 62
     2
100
AcDbLine
 10
465.0
 20
718.2000000000002
 30
0.0
 11
465.0
 21
489.4000000000001
 31
0.0
  0
LINE
  5
3A0
330
1F
100
AcDbEntity
  8
LAY-10
  6
CENTER
 62
     2
100
AcDbLine
 10
520.6999999999999
 20
352.5
 30
0.0
 11
541.7999999999998
 21
352.5
 31
0.0
  0
LINE
  5
3A1
330
1F
100
AcDbEntity
  8
LAY-10
  6
CENTER
 62
     2
100
AcDbLine
 10
459.5000000000004
 20
352.5
 30
0.0
 11
467.3000000000003
 21
352.5
 31
0.0
  0
LINE
  5
3A2
330
1F
100
AcDbEntity
  8
LAY-10
  6
CENTER
 62
     2
100
AcDbLine
 10
401.2901325703356
 20
563.2170908895177
 30
0.0
 11
416.7823301898579
 21
572.1615153554881
 31
0.0
  0
LINE
  5
3A3
330
1F
100
AcDbEntity
  8
LAY-10
  6
CENTER
 62
     2
100
AcDbLine
 10
359.300000000001
 20
257.6986412405514
 30
0.0
 11
370.4999999999999
 21
257.6986412405514
 31
0.0
  0
ARC
  5
3A4
330
1F
100
AcDbEntity
  8
LAY-10
  6
CENTER
 62
     2
100
AcDbCircle
 10
370.4999999999999
 20
262.1986412405514
 30
0.0
 40
4.5
100
AcDbArc
 50
270.0000000000002
 51
0.0
  0
LINE
  5
3A5
330
1F
100
AcDbEntity
  8
LAY-10
  6
CENTER
 62
     2
100
AcDbLine
 10
374.9999999999997
 20
288.4000000000357
 30
0.0
 11
374.9999999999997
 21
262.1986412405514
 31
0.0
  0
LINE
  5
3A6
330
1F
100
AcDbEntity
  8
LAY-10
  6
CONTINUOUS
 62
     7
100
AcDbLine
 10
462.5000000000002
 20
668.999999999998
 30
0.0
 11
462.5000000000002
 21
662.9503772824305
 31
0.0
  0
LINE
  5
3A7
330
1F
100
AcDbEntity
  8
LAY-10
  6
CONTINUOUS
 62
     7
100
AcDbLine
 10
467.5000000000001
 20
668.999999999998
 30
0.0
 11
467.5000000000001
 21
662.9503772824305
 31
0.0
  0
LINE
  5
3A8
330
1F
100
AcDbEntity
  8
LAY-10
  6
CONTINUOUS
 62
     7
100
AcDbLine
 10
462.5000000000002
 20
658.9249571701282
 30
0.0
 11
462.5000000000002
 21
657.0
 31
0.0
  0
LINE
  5
3A9
330
1F
100
AcDbEntity
  8
LAY-10
  6
CONTINUOUS
 62
     7
100
AcDbLine
 10
467.5000000000001
 20
658.9249571701282
 30
0.0
 11
467.5000000000001
 21
657.0
 31
0.0
  0
LINE
  5
3AA
330
1F
100
AcDbEntity
  8
LAY-10
  6
CONTINUOUS
 62
     7
100
AcDbLine
 10
526.0057528611245
 20
567.665063509462
 30
0.0
 11
520.7666259043995
 21
570.6898748682457
 31
0.0
  0
LINE
  5
3AB
330
1F
100
AcDbEntity
  8
LAY-10
  6
CONTINUOUS
 62
     7
100
AcDbLine
 10
523.5057528611245
 20
563.3349364905399
 30
0.0
 11
518.2666259043996
 21
566.3597478493238
 31
0.0
  0
LINE
  5
3AC
330
1F
100
AcDbEntity
  8
LAY-10
  6
CONTINUOUS
 62
     7
100
AcDbLine
 10
406.4942471388756
 20
563.3349364905398
 30
0.0
 11
411.7333740956006
 21
566.3597478493235
 31
0.0
  0
LINE
  5
3AD
330
1F
100
AcDbEntity
  8
LAY-10
  6
CONTINUOUS
 62
     7
100
AcDbLine
 10
403.9942471388757
 20
567.6650635094619
 30
0.0
 11
409.2333740956007
 21
570.6898748682456
 31
0.0
  0
LINE
  5
3AE
330
1F
100
AcDbEntity
  8
LAY-10
  6
CONTINUOUS
 62
     7
100
AcDbLine
 10
412.7194901737249
 20
572.702584924377
 30
0.0
 11
414.3865519842872
 21
573.6650635094609
 31
0.0
  0
LINE
  5
3AF
330
1F
100
AcDbEntity
  8
LAY-10
  6
CONTINUOUS
 62
     7
100
AcDbLine
 10
415.2194901737231
 20
568.3724579054539
 30
0.0
 11
416.8865519842871
 21
569.3349364905388
 31
0.0
  0
LINE
  5
3B0
330
1F
100
AcDbEntity
  8
LAY-10
  6
CONTINUOUS
 62
     7
100
AcDbLine
 10
517.2805098262753
 20
572.7025849243771
 30
0.0
 11
515.613448015713
 21
573.665063509461
 31
0.0
  0
LINE
  5
3B1
330
1F
100
AcDbEntity
  8
LAY-10
  6
CONTINUOUS
 62
     7
100
AcDbLine
 10
514.780509826277
 20
568.372457905454
 30
0.0
 11
513.1134480157131
 21
569.3349364905389
 31
0.0
  0
LINE
  5
3B2
330
1F
100
AcDbEntity
  8
LAY-10
  6
HIDDEN
 62
     7
100
AcDbLine
 10
534.2072141771175
 20
282.206795145939
 30
0.0
 11
534.2067249427931
 21
282.1986412405304
 31
0.0
  0
LINE
  5
3B3
330
1F
100
AcDbEntity
  8
LAY-10
  6
HIDDEN
 62
     7
100
AcDbLine
 10
395.7927858228823
 20
282.206795145939
 30
0.0
 11
395.7932750572069
 21
282.1986412405304
 31
0.0
  0
LINE
  5
3B4
330
1F
100
AcDbEntity
  8
LAY-10
  6
CONTINUOUS
 62
     7
100
AcDbLine
 10
384.9999999999999
 20
288.0979876411031
 30
0.0
 11
384.9999999999999
 21
291.500000000002
 31
0.0
  0
LINE
  5
3B5
330
1F
100
AcDbEntity
  8
LAY-10
  6
CONTINUOUS
 62
     7
100
AcDbLine
 10
391.0000000000001
 20
291.500000000002
 30
0.0
 11
391.0000000000001
 21
286.4902924865185
 31
0.0
  0
ARC
  5
3B6
330
1F
100
AcDbEntity
  8
LAY-10
  6
CONTINUOUS
 62
     7
100
AcDbCircle
 10
465.0000000000003
 20
352.5
 30
0.0
 40
2.5
100
AcDbArc
 50
89.99999999999996
 51
270.0
  0
LINE
  5
3B7
330
1F
100
AcDbEntity
  8
LAY-10
  6
CONTINUOUS
 62
     7
100
AcDbLine
 10
533.999999999998
 20
354.9999999999998
 30
0.0
 11
522.0
 21
354.9999999999998
 31
0.0
  0
LINE
  5
3B8
330
1F
100
AcDbEntity
  8
LAY-10
  6
CONTINUOUS
 62
     7
100
AcDbLine
 10
533.999999999998
 20
349.9999999999999
 30
0.0
 11
522.0
 21
349.9999999999999
 31
0.0
  0
LINE
  5
3B9
330
1F
100
AcDbEntity
  8
LAY-10
  6
CONTINUOUS
 62
     7
100
AcDbLine
 10
517.9999999999984
 20
275.6999999999998
 30
0.0
 11
517.9999999999984
 21
287.9999999999998
 31
0.0
  0
LINE
  5
3BA
330
1F
100
AcDbEntity
  8
LAY-10
  6
CONTINUOUS
 62
     7
100
AcDbLine
 10
524.999999999999
 20
275.6999999999998
 30
0.0
 11
524.999999999999
 21
287.9999999999998
 31
0.0
  0
LINE
  5
3BB
330
1F
100
AcDbEntity
  8
LAY-10
  6
CONTINUOUS
 62
     7
100
AcDbLine
 10
517.9999999999989
 20
294.7999999999998
 30
0.0
 11
517.9999999999989
 21
325.6999999999969
 31
0.0
  0
LINE
  5
3BC
330
1F
100
AcDbEntity
  8
LAY-10
  6
CONTINUOUS
 62
     7
100
AcDbLine
 10
524.9999999999986
 20
294.7999999999998
 30
0.0
 11
524.9999999999986
 21
325.6999999999969
 31
0.0
  0
LINE
  5
3BD
330
1F
100
AcDbEntity
  8
LAY-10
  6
CONTINUOUS
 62
     7
100
AcDbLine
 10
385.5000000000007
 20
302.9999999999999
 30
0.0
 11
385.5000000000007
 21
291.000000000002
 31
0.0
  0
LINE
  5
3BE
330
1F
100
AcDbEntity
  8
LAY-10
  6
CONTINUOUS
 62
     7
100
AcDbLine
 10
390.5000000000006
 20
302.9999999999999
 30
0.0
 11
390.5000000000006
 21
291.000000000002
 31
0.0
  0
LINE
  5
3BF
330
1F
100
AcDbEntity
  8
LAY-10
  6
CONTINUOUS
 62
     7
100
AcDbLine
 10
461.4999999999999
 20
294.7999999999993
 30
0.0
 11
461.4999999999999
 21
325.6999999999964
 31
0.0
  0
LINE
  5
3C0
330
1F
100
AcDbEntity
  8
LAY-10
  6
CONTINUOUS
 62
     7
100
AcDbLine
 10
371.999999999999
 20
284.698641240541
 30
0.0
 11
372.4999999999974
 21
285.1986412405416
 31
0.0
  0
LINE
  5
3C1
330
1F
100
AcDbEntity
  8
LAY-10
  6
CONTINUOUS
 62
     7
100
AcDbLine
 10
377.9999999999981
 20
284.698641240541
 30
0.0
 11
377.4999999999968
 21
285.1986412405416
 31
0.0
  0
LINE
  5
3C2
330
1F
100
AcDbEntity
  8
LAY-10
  6
CONTINUOUS
 62
     7
100
AcDbLine
 10
371.999999999999
 20
284.698641240541
 30
0.0
 11
371.999999999999
 21
282.6986412405519
 31
0.0
  0
LINE
  5
3C3
330
1F
100
AcDbEntity
  8
LAY-10
  6
CONTINUOUS
 62
     7
100
AcDbLine
 10
377.9999999999981
 20
284.698641240541
 30
0.0
 11
377.9999999999981
 21
282.6986412405519
 31
0.0
  0
LINE
  5
3C4
330
1F
100
AcDbEntity
  8
LAY-10
  6
CONTINUOUS
 62
     7
100
AcDbLine
 10
372.4999999999999
 20
283.1986412405458
 30
0.0
 11
372.4999999999999
 21
277.1986412405458
 31
0.0
  0
LINE
  5
3C5
330
1F
100
AcDbEntity
  8
LAY-10
  6
CONTINUOUS
 62
     7
100
AcDbLine
 10
377.4999999999999
 20
283.1986412405458
 30
0.0
 11
377.4999999999999
 21
277.1986412405458
 31
0.0
  0
LINE
  5
3C6
330
1F
100
AcDbEntity
  8
LAY-10
  6
CONTINUOUS
 62
     7
100
AcDbLine
 10
377.5000000000181
 20
276.3326158367508
 30
0.0
 11
378.0000000000181
 21
277.1986412405354
 31
0.0
  0
LINE
  5
3C7
330
1F
100
AcDbEntity
  8
LAY-10
  6
CONTINUOUS
 62
     7
100
AcDbLine
 10
372.4999999999879
 20
276.3326158367544
 30
0.0
 11
371.9999999999879
 21
277.1986412405389
 31
0.0
  0
DIMENSION
  5
3C9
330
1F
100
AcDbEntity
  8
LAY-20
  6
CONTINUOUS
 62
     4
100
AcDbDimension
  2
*D15
 10
416.4961990465196
 20
164.1986412405312
 30
0.0
 11
464.9980995232598
 21
171.6986412405312
 31
0.0
 70
   160
  1
%%c<>
  3
ISO-25
100
AcDbAlignedDimension
 13
513.5
 23
270.1986412405309
 33
0.0
 14
416.4961990465196
 24
270.3000000000147
 34
0.0
100
AcDbRotatedDimension
1001
ACAD
1000
DSTYLE
1002
{
1070
   270
1070
     2
1070
     6
1000
EX_BNORM
1070
     7
1000
EX_BNORM
1070
    41
1040
7.5
1070
    42
1040
4.5
1070
    44
1040
4.5
1070
    73
1070
     0
1070
    74
1070
     0
1070
    75
1070
     0
1070
    76
1070
     0
1070
    77
1070
     1
1070
    78
1070
     8
1070
   140
1040
9.3543312
1070
   147
1040
0.0
1070
   173
1070
     1
1070
   176
1070
     4
1070
   177
1070
     4
1070
   178
1070
     7
1070
   271
1070
     1
1070
   277
1070
     2
1070
   279
1070
     2
1070
   280
1070
     0
1070
   287
1070
     5
1070
   340
1005
3C8
1002
}
  0
DIMENSION
  5
3D7
330
1F
100
AcDbEntity
  8
LAY-20
  6
CONTINUOUS
 62
     4
100
AcDbDimension
  2
*D16
 10
512.0000000000009
 20
185.1986412405311
 30
0.0
 11
465.0
 21
192.6986412405311
 31
0.0
 70
   160
  1
%%c<>
  3
ISO-25
100
AcDbAlignedDimension
 13
417.9999999999991
 23
230.1986412405306
 33
0.0
 14
512.0000000000009
 24
230.1986412405306
 34
0.0
100
AcDbRotatedDimension
1001
ACAD
1000
DSTYLE
1002
{
1070
   270
1070
     2
1070
     6
1000
EX_BNORM
1070
     7
1000
EX_BNORM
1070
    41
1040
7.5
1070
    42
1040
4.5
1070
    44
1040
4.5
1070
    73
1070
     0
1070
    74
1070
     0
1070
    75
1070
     0
1070
    76
1070
     0
1070
    77
1070
     1
1070
    78
1070
     8
1070
   140
1040
9.3543312
1070
   147
1040
0.0
1070
   173
1070
     1
1070
   176
1070
     4
1070
   177
1070
     4
1070
   178
1070
     7
1070
   271
1070
     1
1070
   277
1070
     2
1070
   279
1070
     2
1070
   280
1070
     0
1070
   287
1070
     5
1070
   340
1005
3C8
1002
}
  0
DIMENSION
  5
3E4
330
1F
100
AcDbEntity
  8
LAY-20
  6
CONTINUOUS
 62
     4
100
AcDbDimension
  2
*D17
 10
577.4999999999997
 20
453.0
 30
0.0
 11
464.9999999999998
 21
460.5
 31
0.0
 70
   160
  1
%%c<>
  3
ISO-25
100
AcDbAlignedDimension
 13
352.5
 23
288.1986412405304
 33
0.0
 14
577.4999999999997
 24
288.1986412405304
 34
0.0
100
AcDbRotatedDimension
1001
ACAD
1000
DSTYLE
1002
{
1070
   270
1070
     2
1070
     6
1000
EX_BNORM
1070
     7
1000
EX_BNORM
1070
    41
1040
7.5
1070
    42
1040
4.5
1070
    44
1040
4.5
1070
    73
1070
     0
1070
    74
1070
     0
1070
    75
1070
     0
1070
    76
1070
     0
1070
    77
1070
     1
1070
    78
1070
     8
1070
   140
1040
9.3543312
1070
   147
1040
0.0
1070
   173
1070
     1
1070
   176
1070
     4
1070
   177
1070
     4
1070
   178
1070
     7
1070
   271
1070
     1
1070
   277
1070
     2
1070
   279
1070
     2
1070
   280
1070
     0
1070
   287
1070
     5
1070
   340
1005
3C8
1002
}
  0
DIMENSION
  5
3F1
330
1F
100
AcDbEntity
  8
LAY-20
  6
CONTINUOUS
 62
     4
100
AcDbDimension
  2
*D18
 10
362.5
 20
432.0
 30
0.0
 11
465.0000000000005
 21
439.4999999999999
 31
0.0
 70
   160
  1
%%c<>
  3
ISO-25
100
AcDbAlignedDimension
 13
567.5000000000009
 23
297.9999999999998
 33
0.0
 14
362.5
 24
297.9999999999998
 34
0.0
100
AcDbRotatedDimension
1001
ACAD
1000
DSTYLE
1002
{
1070
   270
1070
     2
1070
     6
1000
EX_BNORM
1070
     7
1000
EX_BNORM
1070
    41
1040
7.5
1070
    42
1040
4.5
1070
    44
1040
4.5
1070
    73
1070
     0
1070
    74
1070
     0
1070
    75
1070
     0
1070
    76
1070
     0
1070
    77
1070
     1
1070
    78
1070
     8
1070
   140
1040
9.3543312
1070
   147
1040
0.0
1070
   173
1070
     1
1070
   176
1070
     4
1070
   177
1070
     4
1070
   178
1070
     7
1070
   271
1070
     1
1070
   277
1070
     2
1070
   279
1070
     2
1070
   280
1070
     0
1070
   287
1070
     5
1070
   340
1005
3C8
1002
}
  0
DIMENSION
  5
3FE
330
1F
100
AcDbEntity
  8
LAY-20
  6
CONTINUOUS
 62
     4
100
AcDbDimension
  2
*D19
 10
523.9779668817489
 20
390.0
 30
0.0
 11
465.0000000000003
 21
397.5
 31
0.0
 70
   160
  1
%%c<>
  3
ISO-25
100
AcDbAlignedDimension
 13
406.0220331182518
 23
360.0
 33
0.0
 14
523.9779668817489
 24
360.0
 34
0.0
100
AcDbRotatedDimension
1001
ACAD
1000
DSTYLE
1002
{
1070
   270
1070
     2
1070
     6
1000
EX_BNORM
1070
     7
1000
EX_BNORM
1070
    41
1040
7.5
1070
    42
1040
4.5
1070
    44
1040
4.5
1070
    73
1070
     0
1070
    74
1070
     0
1070
    75
1070
     0
1070
    76
1070
     0
1070
    77
1070
     1
1070
    78
1070
     8
1070
   140
1040
9.3543312
1070
   147
1040
0.0
1070
   173
1070
     1
1070
   176
1070
     4
1070
   177
1070
     4
1070
   178
1070
     7
1070
   271
1070
     1
1070
   277
1070
     2
1070
   279
1070
     2
1070
   280
1070
     0
1070
   287
1070
     5
1070
   340
1005
3C8
1002
}
  0
DIMENSION
  5
40B
330
1F
100
AcDbEntity
  8
LAY-20
  6
CONTINUOUS
 62
     4
100
AcDbDimension
  2
*D20
 10
322.4999999999999
 20
270.092190801459
 30
0.0
 11
314.9999999999999
 21
282.6454160209949
 31
0.0
 70
   160
  3
ISO-25
100
AcDbAlignedDimension
 13
353.5000000000001
 23
295.1986412405308
 33
0.0
 14
395.0000000000001
 24
270.092190801459
 34
0.0
 50
90.0
100
AcDbRotatedDimension
1001
ACAD
1000
DSTYLE
1002
{
1070
   270
1070
     2
1070
     6
1000
EX_BNORM
1070
     7
1000
EX_BNORM
1070
    41
1040
7.5
1070
    42
1040
4.5
1070
    44
1040
4.5
1070
    73
1070
     0
1070
    74
1070
     0
1070
    75
1070
     0
1070
    76
1070
     0
1070
    77
1070
     1
1070
    78
1070
     0
1070
   140
1040
9.3543312
1070
   147
1040
0.0
1070
   173
1070
     1
1070
   176
1070
     4
1070
   177
1070
     4
1070
   178
1070
     7
1070
   271
1070
     0
1070
   277
1070
     2
1070
   279
1070
     2
1070
   280
1070
     0
1070
   287
1070
     5
1070
   340
1005
3C8
1002
}
  0
DIMENSION
  5
418
330
1F
100
AcDbEntity
  8
LAY-20
  6
CONTINUOUS
 62
     4
100
AcDbDimension
  2
*D21
 10
607.5
 20
295.19864124053
 30
0.0
 11
600.0
 21
255.19864124053
 31
0.0
 70
   160
  3
ISO-25
100
AcDbAlignedDimension
 13
535.0
 23
215.19864124053
 33
0.0
 14
576.5
 24
295.19864124053
 34
0.0
 50
90.0
100
AcDbRotatedDimension
1001
ACAD
1000
DSTYLE
1002
{
1070
   270
1070
     2
1070
     6
1000
EX_BNORM
1070
     7
1000
EX_BNORM
1070
    41
1040
7.5
1070
    42
1040
4.5
1070
    44
1040
4.5
1070
    73
1070
     0
1070
    74
1070
     0
1070
    75
1070
     0
1070
    76
1070
     0
1070
    77
1070
     1
1070
    78
1070
     8
1070
   140
1040
9.3543312
1070
   147
1040
0.0
1070
   173
1070
     1
1070
   176
1070
     4
1070
   177
1070
     4
1070
   178
1070
     7
1070
   271
1070
     1
1070
   277
1070
     2
1070
   279
1070
     2
1070
   280
1070
     0
1070
   287
1070
     5
1070
   340
1005
3C8
1002
}
  0
DIMENSION
  5
425
330
1F
100
AcDbEntity
  8
LAY-20
  6
CONTINUOUS
 62
     4
100
AcDbDimension
  2
*D22
 10
607.5
 20
295.19864124053
 30
0.0
 11
600.0
 21
327.599320620265
 31
0.0
 70
   160
  3
ISO-25
100
AcDbAlignedDimension
 13
528.0
 23
360.0
 33
0.0
 14
607.5
 24
295.19864124053
 34
0.0
 50
90.0
100
AcDbRotatedDimension
1001
ACAD
1000
DSTYLE
1002
{
1070
   270
1070
     2
1070
     6
1000
EX_BNORM
1070
     7
1000
EX_BNORM
1070
    41
1040
7.5
1070
    42
1040
4.5
1070
    44
1040
4.5
1070
    73
1070
     0
1070
    74
1070
     0
1070
    75
1070
     0
1070
    76
1070
     1
1070
    77
1070
     1
1070
    78
1070
     0
1070
   140
1040
9.3543312
1070
   147
1040
0.0
1070
   173
1070
     1
1070
   176
1070
     4
1070
   177
1070
     4
1070
   178
1070
     7
1070
   271
1070
     0
1070
   277
1070
     2
1070
   279
1070
     2
1070
   280
1070
     0
1070
   287
1070
     5
1070
   340
1005
3C8
1002
}
  0
DIMENSION
  5
431
330
1F
100
AcDbEntity
  8
LAY-20
  6
CONTINUOUS
 62
     4
100
AcDbDimension
  2
*D23
 10
546.0
 20
411.0
 30
0.0
 11
465.0
 21
418.5
 31
0.0
 70
   160
  1
%%c<>
  3
ISO-25
100
AcDbAlignedDimension
 13
384.0
 23
300.0
 33
0.0
 14
546.0
 24
300.0
 34
0.0
100
AcDbRotatedDimension
1001
ACAD
1000
DSTYLE
1002
{
1070
   270
1070
     2
1070
     6
1000
EX_BNORM
1070
     7
1000
EX_BNORM
1070
    41
1040
7.5
1070
    42
1040
4.5
1070
    44
1040
4.5
1070
    73
1070
     0
1070
    74
1070
     0
1070
    75
1070
     0
1070
    76
1070
     0
1070
    77
1070
     1
1070
    78
1070
     8
1070
   140
1040
9.3543312
1070
   147
1040
0.0
1070
   173
1070
     1
1070
   176
1070
     4
1070
   177
1070
     4
1070
   178
1070
     7
1070
   271
1070
     1
1070
   277
1070
     2
1070
   279
1070
     2
1070
   280
1070
     0
1070
   287
1070
     5
1070
   340
1005
3C8
1002
}
  0
LINE
  5
43E
330
1F
100
AcDbEntity
  8
LAY-255
  6
CONTINUOUS
 62
     7
100
AcDbLine
 10
1155.0
 20
66.0
 30
0.0
 11
855.0
 21
66.0
 31
0.0
  0
LINE
  5
43F
330
1F
100
AcDbEntity
  8
LAY-255
  6
CONTINUOUS
 62
     7
100
AcDbLine
 10
866.4000000000001
 20
48.0
 30
0.0
 11
890.4000000000001
 21
63.0
 31
0.0
  0
LINE
  5
440
330
1F
100
AcDbEntity
  8
LAY-255
  6
CONTINUOUS
 62
     7
100
AcDbLine
 10
890.4000000000001
 20
63.0
 30
0.0
 11
914.4000000000001
 21
48.0
 31
0.0
  0
LINE
  5
441
330
1F
100
AcDbEntity
  8
LAY-255
  6
CONTINUOUS
 62
     7
100
AcDbLine
 10
914.4000000000001
 20
48.0
 30
0.0
 11
890.4000000000001
 21
33.0
 31
0.0
  0
LINE
  5
442
330
1F
100
AcDbEntity
  8
LAY-255
  6
CONTINUOUS
 62
     7
100
AcDbLine
 10
890.4000000000001
 20
33.0
 30
0.0
 11
866.4000000000001
 21
48.0
 31
0.0
  0
LINE
  5
443
330
1F
100
AcDbEntity
  8
LAY-255
  6
CONTINUOUS
 62
     7
100
AcDbLine
 10
15.0
 20
30.0
 30
0.0
 11
1155.0
 21
30.0
 31
0.0
  0
LINE
  5
444
330
1F
100
AcDbEntity
  8
LAY-255
  6
CONTINUOUS
 62
     7
100
AcDbLine
 10
15.0
 20
840.0
 30
0.0
 11
1155.0
 21
840.0
 31
0.0
  0
LINE
  5
445
330
1F
100
AcDbEntity
  8
LAY-255
  6
CONTINUOUS
 62
     7
100
AcDbLine
 10
15.0
 20
30.0
 30
0.0
 11
15.0
 21
840.0
 31
0.0
  0
LINE
  5
446
330
1F
100
AcDbEntity
  8
LAY-255
  6
CONTINUOUS
 62
     7
100
AcDbLine
 10
1155.0
 20
30.0
 30
0.0
 11
1155.0
 21
840.0
 31
0.0
  0
LINE
  5
447
330
1F
100
AcDbEntity
  8
LAY-255
  6
CONTINUOUS
 62
     4
100
AcDbLine
 10
855.0
 20
84.0
 30
0.0
 11
1155.0
 21
84.0
 31
0.0
  0
LINE
  5
448
330
1F
100
AcDbEntity
  8
LAY-255
  6
CONTINUOUS
 62
     7
100
AcDbLine
 10
855.0
 20
30.0
 30
0.0
 11
855.0
 21
201.0
 31
0.0
  0
LINE
  5
449
330
1F
100
AcDbEntity
  8
LAY-255
  6
CONTINUOUS
 62
     4
100
AcDbLine
 10
1005.0
 20
84.0
 30
0.0
 11
1005.0
 21
66.0
 31
0.0
  0
LINE
  5
44A
330
1F
100
AcDbEntity
  8
LAY-255
  6
CONTINUOUS
 62
     7
100
AcDbLine
 10
1155.0
 20
201.0
 30
0.0
 11
855.0
 21
201.0
 31
0.0
  0
LINE
  5
44B
330
1F
100
AcDbEntity
  8
LAY-255
  6
CONTINUOUS
 62
     4
100
AcDbLine
 10
1149.0
 20
165.0
 30
0.0
 11
861.0
 21
165.0
 31
0.0
  0
LINE
  5
44C
330
1F
100
AcDbEntity
  8
LAY-255
  6
CONTINUOUS
 62
     4
100
AcDbLine
 10
1149.0
 20
183.0
 30
0.0
 11
861.0
 21
183.0
 31
0.0
  0
POINT
  5
44D
330
1F
100
AcDbEntity
  8
LAY-255
  6
CONTINUOUS
 62
     7
100
AcDbPoint
 10
867.0
 20
150.0
 30
0.0
  0
POINT
  5
44E
330
1F
100
AcDbEntity
  8
LAY-255
  6
CONTINUOUS
 62
     7
100
AcDbPoint
 10
900.0
 20
168.0
 30
0.0
  0
POINT
  5
44F
330
1F
100
AcDbEntity
  8
LAY-255
  6
CONTINUOUS
 62
     7
100
AcDbPoint
 10
900.0
 20
186.0
 30
0.0
  0
POINT
  5
450
330
1F
100
AcDbEntity
  8
LAY-255
  6
CONTINUOUS
 62
     7
100
AcDbPoint
 10
867.0
 20
120.0
 30
0.0
  0
POINT
  5
451
330
1F
100
AcDbEntity
  8
LAY-255
  6
CONTINUOUS
 62
     7
100
AcDbPoint
 10
867.0
 20
135.0
 30
0.0
  0
POINT
  5
452
330
1F
100
AcDbEntity
  8
LAY-255
  6
CONTINUOUS
 62
     7
100
AcDbPoint
 10
867.0
 20
105.0
 30
0.0
  0
POINT
  5
453
330
1F
100
AcDbEntity
  8
LAY-255
  6
CONTINUOUS
 62
     7
100
AcDbPoint
 10
867.0
 20
89.99999999999996
 30
0.0
  0
LINE
  5
454
330
1F
100
AcDbEntity
  8
LAY-255
  6
CONTINUOUS
 62
     7
100
AcDbLine
 10
399.5000000000101
 20
270.092190801459
 30
0.0
 11
395.0000000000101
 21
270.092190801459
 31
0.0
  0
TEXT
  5
455
330
1F
100
AcDbEntity
  8
LAY-255
  6
CONTINUOUS
 62
     7
100
AcDbText
 10
924.415136826172
 20
46.63125
 30
0.0
 40
15.46875
  1
福西鋳物株式会社
 41
1.342692141742901
  7
EXCADSTD
100
AcDbText
  0
TEXT
  5
456
330
1F
100
AcDbEntity
  8
LAY-255
  6
CONTINUOUS
 62
     7
100
AcDbText
 10
925.528125
 20
35.94375
 30
0.0
 40
5.15625
  1
ＦＵＫＵＮＩＳＨＩ
 41
1.204799226045263
  7
EXCADSTD
100
AcDbText
  0
TEXT
  5
457
330
1F
100
AcDbEntity
  8
LAY-255
  6
CONTINUOUS
 62
     7
100
AcDbText
 10
998.1575892857143
 20
35.94375
 30
0.0
 40
5.15625
  1
ＦＯＵＮＤＲＹ
 41
1.243252752978497
  7
EXCADSTD
100
AcDbText
  0
TEXT
  5
458
330
1F
100
AcDbEntity
  8
LAY-255
  6
CONTINUOUS
 62
     7
100
AcDbText
 10
1055.983774651442
 20
35.94375
 30
0.0
 40
5.15625
  1
ＣＯ.,ＬＴＤ.
 41
1.243831271314936
  7
EXCADSTD
100
AcDbText
  0
TEXT
  5
459
330
1F
100
AcDbEntity
  8
LAY-255
  6
CONTINUOUS
 62
     7
100
AcDbText
 10
882.1031250000001
 20
41.15625
 30
0.0
 40
15.46875
  1
S
 41
0.7582677563636363
  7
EXCADSTD
100
AcDbText
  0
TEXT
  5
45A
330
1F
100
AcDbEntity
  8
LAY-255
  6
CONTINUOUS
 62
     7
100
AcDbText
 10
891.3140625000001
 20
41.24823113208
 30
0.0
 40
15.46875
  1
F
 41
0.7440945272727273
  7
EXCADSTD
100
AcDbText
  0
TEXT
  5
45B
330
1F
100
AcDbEntity
  8
LAY-255
  6
CONTINUOUS
 62
     7
100
AcDbText
 10
1011.31640625
 20
73.26562499999997
 30
0.0
 40
7.734375
  1
縮尺
 41
1.080708718181818
  7
EXCADSTD
100
AcDbText
  0
TEXT
  5
45C
330
1F
100
AcDbEntity
  8
LAY-255
  6
CONTINUOUS
 62
     7
100
AcDbText
 10
861.796875
 20
169.6875
 30
0.0
 40
10.3125
  1
型式
 41
1.056348480681818
  7
EXCADSTD
100
AcDbText
  0
TEXT
  5
45D
330
1F
100
AcDbEntity
  8
LAY-255
  6
CONTINUOUS
 62
     7
100
AcDbText
 10
862.265625
 20
187.6875
 30
0.0
 40
10.3125
  1
品名
 41
0.978838634090909
  7
EXCADSTD
100
AcDbText
  0
TEXT
  5
45E
330
1F
100
AcDbEntity
  8
LAY-255
  6
CONTINUOUS
 62
     7
100
AcDbText
 10
861.45703125
 20
73.26562499999997
 30
0.0
 40
7.734375
  1
作成日
 41
1.000629973818182
  7
EXCADSTD
100
AcDbText
  0
TEXT
  5
45F
330
1F
100
AcDbEntity
  8
LAY-255
  6
CONTINUOUS
 62
     7
100
AcDbText
 10
1044.84375
 20
70.68749999999997
 30
0.0
 40
10.3125
  1
１：３
 41
0.8844094952727272
  7
EXCADSTD
100
AcDbText
  0
TEXT
  5
460
330
1F
100
AcDbEntity
  8
LAY-255
  6
CONTINUOUS
 62
     7
100
AcDbText
 10
867.5625
 20
106.6875
 30
0.0
 40
10.3125
  1
施工：打込用
 41
1.018700840909091
  7
EXCADSTD
100
AcDbText
  0
TEXT
  5
461
330
1F
100
AcDbEntity
  8
LAY-255
  6
CONTINUOUS
 62
     7
100
AcDbText
 10
900.75
 20
187.6875
 30
0.0
 40
10.3125
  1
ルーフドレイン
 41
1.021169538599106
  7
EXCADSTD
100
AcDbText
  0
TEXT
  5
462
330
1F
100
AcDbEntity
  8
LAY-255
  6
CONTINUOUS
 62
     7
100
AcDbText
 10
867.65625
 20
91.68750000000003
 30
0.0
 40
10.3125
  1
接続：差込用
 41
1.01733803041958
  7
EXCADSTD
100
AcDbText
  0
TEXT
  5
463
330
1F
100
AcDbEntity
  8
LAY-255
  6
CONTINUOUS
 62
     7
100
AcDbText
 10
868.125
 20
151.6875000000001
 30
0.0
 40
10.3125
  1
防水：アスファルト・シート・
 41
0.9866967752199413
  7
EXCADSTD
100
AcDbText
  0
TEXT
  5
464
330
1F
100
AcDbEntity
  8
LAY-255
  6
CONTINUOUS
 62
     7
100
AcDbText
 10
867.0
 20
136.6875
 30
0.0
 40
10.3125
  1
      露出アスファルト防水兼用
 41
0.894274438169777
  7
EXCADSTD
100
AcDbText
  0
TEXT
  5
465
330
1F
100
AcDbEntity
  8
LAY-255
  6
CONTINUOUS
 62
     7
100
AcDbText
 10
867.703125
 20
121.6875
 30
0.0
 40
10.3125
  1
用途：中継用
 41
1.016656625174825
  7
EXCADSTD
100
AcDbText
  0
TEXT
  5
466
330
1F
100
AcDbEntity
  8
LAY-255
  6
CONTINUOUS
 62
     7
100
AcDbText
 10
902.625
 20
169.6875
 30
0.0
 40
10.3125
  1
ＲＡＣＸ－１０１００型
 41
1.001258271602624
  7
EXCADSTD
100
AcDbText
  0
TEXT
  5
467
330
1F
100
AcDbEntity
  8
LAY-255
  6
CONTINUOUS
 62
     7
100
AcDbText
 10
902.671875
 20
70.68749999999997
 30
0.0
 40
10.3125
  1
０８／０９／０３
 41
0.9764342470129869
  7
EXCADSTD
100
AcDbText
  0
ENDSEC
  0
SECTION
  2
OBJECTS
  0
DICTIONARY
  5
C
330
0
100
AcDbDictionary
  3
ACAD_GROUP
350
D
  3
ACAD_LAYOUT
350
1A
  3
ACAD_MATERIAL
350
43
  3
ACAD_MLEADERSTYLE
350
6B
  3
ACAD_MLINESTYLE
350
17
  3
ACAD_PLOTSETTINGS
350
19
  3
ACAD_SCALELIST
350
47
  3
ACAD_VISUALSTYLE
350
2A
  3
ACDBHEADERROUNDTRIPXREC
350
468
  3
ACDBVARIABLEDICTIONARY
350
489
  0
DICTIONARY
  5
494
330
8
100
AcDbDictionary
280
     1
  3
ACAD_XREC_ROUNDTRIP
360
495
  0
DICTIONARY
  5
D
102
{ACAD_REACTORS
330
C
102
}
330
C
100
AcDbDictionary
  0
DICTIONARY
  5
1A
102
{ACAD_REACTORS
330
C
102
}
330
C
100
AcDbDictionary
  0
DICTIONARY
  5
43
102
{ACAD_REACTORS
330
C
102
}
330
C
100
AcDbDictionary
  3
BYBLOCK
350
45
  3
BYLAYER
350
44
  3
GLOBAL
350
46
  0
DICTIONARY
  5
6B
102
{ACAD_REACTORS
330
C
102
}
330
C
100
AcDbDictionary
  3
STANDARD
350
6C
  0
DICTIONARY
  5
17
102
{ACAD_REACTORS
330
C
102
}
330
C
100
AcDbDictionary
  3
STANDARD
350
18
  0
DICTIONARY
  5
19
102
{ACAD_REACTORS
330
C
102
}
330
C
100
AcDbDictionary
  0
DICTIONARY
  5
47
102
{ACAD_REACTORS
330
C
102
}
330
C
100
AcDbDictionary
  3
A0
350
48
  3
A1
350
49
  3
A2
350
4A
  3
A3
350
4B
  3
A4
350
4C
  3
A5
350
4D
  3
A6
350
4E
  3
A7
350
4F
  3
A8
350
50
  3
A9
350
51
  3
B0
350
52
  3
B1
350
53
  3
B2
350
54
  3
B3
350
55
  3
B4
350
56
  3
B5
350
57
  3
B6
350
58
  3
B7
350
59
  3
B8
350
5A
  3
B9
350
5B
  3
C0
350
5C
  3
C1
350
5D
  3
C2
350
5E
  3
C3
350
5F
  3
C4
350
60
  3
C5
350
61
  3
C6
350
62
  3
C7
350
63
  3
C8
350
64
  3
C9
350
65
  3
D0
350
66
  3
D1
350
67
  3
D2
350
68
  0
DICTIONARY
  5
2A
102
{ACAD_REACTORS
330
C
102
}
330
C
100
AcDbDictionary
  3
2DWIREFRAME
350
2F
  3
BASIC
350
32
  3
BRIGHTEN
350
36
  3
COLORCHANGE
350
3A
  3
CONCEPTUAL
350
34
  3
DIM
350
35
  3
EDGECOLOROFF
350
3D
  3
FACEPATTERN
350
39
  3
FLAT
350
2B
  3
FLATWITHEDGES
350
2C
  3
GOURAUD
350
2D
  3
GOURAUDWITHEDGES
350
2E
  3
HIDDEN
350
31
  3
JITTEROFF
350
3B
  3
LINEPATTERN
350
38
  3
OVERHANGOFF
350
3C
  3
REALISTIC
350
33
  3
SHADED
350
42
  3
SHADED_WITH_EDGES
350
41
  3
SHADES_OF_GRAY
350
3E
  3
SKETCHY
350
3F
  3
THICKEN
350
37
  3
WIREFRAME
350
30
  3
X-RAY
350
40
  0
DICTIONARY
  5
468
102
{ACAD_REACTORS
330
C
102
}
330
C
100
AcDbDictionary
  3
CEPSNID
350
472
  3
CEPSNTYPE
350
471
  3
DIMSTYLEDATA
350
488
  3
FINGERPRINTGUID
350
473
  3
HYPERLINKBASE
350
46B
  3
INSUNITS
350
470
  3
LAYOUTDICT
350
46D
  3
LWETCUNION
350
46F
  3
PLOTSETDICT
350
46E
  3
PSVPSCALE
350
475
  3
PUCSBASE
350
478
  3
PUCSORGBACK
350
47E
  3
PUCSORGBOTTOM
350
47A
  3
PUCSORGFRONT
350
47D
  3
PUCSORGLEFT
350
47B
  3
PUCSORGRIGHT
350
47C
  3
PUCSORGTOP
350
479
  3
PUCSORTHOREF
350
476
  3
PUCSORTHOVIEW
350
477
  3
STYLESHEET
350
46C
  3
TSTACKALIGN
350
469
  3
TSTACKSIZE
350
46A
  3
UCSBASE
350
481
  3
UCSORGBACK
350
487
  3
UCSORGBOTTOM
350
483
  3
UCSORGFRONT
350
486
  3
UCSORGLEFT
350
484
  3
UCSORGRIGHT
350
485
  3
UCSORGTOP
350
482
  3
UCSORTHOREF
350
47F
  3
UCSORTHOVIEW
350
480
  3
VERSIONGUID
350
474
  0
DICTIONARY
  5
489
102
{ACAD_REACTORS
330
C
102
}
330
C
100
AcDbDictionary
  3
CANNOSCALE
350
496
  3
CENTEREXE
350
490
  3
CENTERLTYPEFILE
350
491
  3
CMLEADERSTYLE
350
48B
  3
CTABLESTYLE
350
48A
  3
DIMASSOC
350
492
  3
HIDETEXT
350
493
  3
MSLTSCALE
350
497
  3
PSOLHEIGHT
350
48D
  3
PSOLWIDTH
350
48C
  0
XRECORD
  5
495
102
{ACAD_REACTORS
330
494
102
}
330
494
100
AcDbXrecord
102
VTR_0.000_0.000_1.000_1.000_VISUALSTYLE
340
2F
102
VTR_0.000_0.000_1.000_1.000_GRIDDISPLAY
 70
     3
102
VTR_0.000_0.000_1.000_1.000_GRIDMAJOR
 70
     5
102
VTR_0.000_0.000_1.000_1.000_DEFAULTLIGHTING
280
     1
102
VTR_0.000_0.000_1.000_1.000_DEFAULTLIGHTINGTYPE
 70
     1
102
VTR_0.000_0.000_1.000_1.000_BRIGHTNESS
141
0.0
102
VTR_0.000_0.000_1.000_1.000_CONTRAST
142
0.0
  0
MATERIAL
  5
45
102
{ACAD_REACTORS
330
43
102
}
102
{ACAD_XDICTIONARY
360
49A
102
}
330
43
100
AcDbMaterial
  1
BYBLOCK
  0
MATERIAL
  5
44
102
{ACAD_REACTORS
330
43
102
}
102
{ACAD_XDICTIONARY
360
498
102
}
330
43
100
AcDbMaterial
  1
BYLAYER
  0
MATERIAL
  5
46
102
{ACAD_REACTORS
330
43
102
}
102
{ACAD_XDICTIONARY
360
49C
102
}
330
43
100
AcDbMaterial
  1
GLOBAL
  0
ACAD_PROXY_OBJECT
  5
6C
102
{ACAD_REACTORS
330
6B
102
}
330
6B
100
AcDbProxyObject
 90
      499
 91
      505
 93
      610
310
40901902A4063FBFFFFFE0000000000000020400000000000020404214DD185B99185C990000000000000104090141901A00000000000004100000000000000041025764000000000000039000
340
14
340
0
340
11
340
0
 94
        0
1001
ACAD_MLEADERVER
1070
     2
  0
MLINESTYLE
  5
18
102
{ACAD_REACTORS
330
17
102
}
330
17
100
AcDbMlineStyle
  2
Standard
 70
     0
  3

 62
   256
 51
90.0
 52
90.0
 71
     2
 49
0.5
 62
   256
  6
BYLAYER
 49
-0.5
 62
   256
  6
BYLAYER
  0
ACAD_PROXY_OBJECT
  5
48
102
{ACAD_REACTORS
330
47
102
}
330
47
100
AcDbProxyObject
 90
      499
 91
      503
 93
       41
310
903313A31580
  0
ACAD_PROXY_OBJECT
  5
49
102
{ACAD_REACTORS
330
47
102
}
330
47
100
AcDbProxyObject
 90
      499
 91
      503
 93
      105
310
903313A324000000000000004000
  0
ACAD_PROXY_OBJECT
  5
4A
102
{ACAD_REACTORS
330
47
102
}
330
47
100
AcDbProxyObject
 90
      499
 91
      503
 93
      105
310
903313A344000000000000104000
  0
ACAD_PROXY_OBJECT
  5
4B
102
{ACAD_REACTORS
330
47
102
}
330
47
100
AcDbProxyObject
 90
      499
 91
      503
 93
      105
310
903313A354000000000000144000
  0
ACAD_PROXY_OBJECT
  5
4C
102
{ACAD_REACTORS
330
47
102
}
330
47
100
AcDbProxyObject
 90
      499
 91
      503
 93
      105
310
903313A384000000000000204000
  0
ACAD_PROXY_OBJECT
  5
4D
102
{ACAD_REACTORS
330
47
102
}
330
47
100
AcDbProxyObject
 90
      499
 91
      503
 93
      113
310
904313A31304000000000000244000
  0
ACAD_PROXY_OBJECT
  5
4E
102
{ACAD_REACTORS
330
47
102
}
330
47
100
AcDbProxyObject
 90
      499
 91
      503
 93
      113
310
904313A31364000000000000304000
  0
ACAD_PROXY_OBJECT
  5
4F
102
{ACAD_REACTORS
330
47
102
}
330
47
100
AcDbProxyObject
 90
      499
 91
      503
 93
      113
310
904313A32304000000000000344000
  0
ACAD_PROXY_OBJECT
  5
50
102
{ACAD_REACTORS
330
47
102
}
330
47
100
AcDbProxyObject
 90
      499
 91
      503
 93
      113
310
904313A333040000000000003E4000
  0
ACAD_PROXY_OBJECT
  5
51
102
{ACAD_REACTORS
330
47
102
}
330
47
100
AcDbProxyObject
 90
      499
 91
      503
 93
      113
310
904313A34304000000000000444000
  0
ACAD_PROXY_OBJECT
  5
52
102
{ACAD_REACTORS
330
47
102
}
330
47
100
AcDbProxyObject
 90
      499
 91
      503
 93
      113
310
904313A35304000000000000494000
  0
ACAD_PROXY_OBJECT
  5
53
102
{ACAD_REACTORS
330
47
102
}
330
47
100
AcDbProxyObject
 90
      499
 91
      503
 93
      121
310
905313A3130304000000000000594000
  0
ACAD_PROXY_OBJECT
  5
54
102
{ACAD_REACTORS
330
47
102
}
330
47
100
AcDbProxyObject
 90
      499
 91
      503
 93
      105
310
903323A310000000000000010100
  0
ACAD_PROXY_OBJECT
  5
55
102
{ACAD_REACTORS
330
47
102
}
330
47
100
AcDbProxyObject
 90
      499
 91
      503
 93
      105
310
903343A310000000000000410100
  0
ACAD_PROXY_OBJECT
  5
56
102
{ACAD_REACTORS
330
47
102
}
330
47
100
AcDbProxyObject
 90
      499
 91
      503
 93
      105
310
903383A310000000000000810100
  0
ACAD_PROXY_OBJECT
  5
57
102
{ACAD_REACTORS
330
47
102
}
330
47
100
AcDbProxyObject
 90
      499
 91
      503
 93
      113
310
90431303A310000000000000910100
  0
ACAD_PROXY_OBJECT
  5
58
102
{ACAD_REACTORS
330
47
102
}
330
47
100
AcDbProxyObject
 90
      499
 91
      503
 93
      121
310
9053130303A310000000000001650100
  0
ACAD_PROXY_OBJECT
  5
59
102
{ACAD_REACTORS
330
47
102
}
330
47
100
AcDbProxyObject
 90
      499
 91
      503
 93
      257
310
90E312F31323822203D2031272D3022000000000000200FC000000000000284000
  0
ACAD_PROXY_OBJECT
  5
5A
102
{ACAD_REACTORS
330
47
102
}
330
47
100
AcDbProxyObject
 90
      499
 91
      503
 93
      249
310
90D312F363422203D2031272D3022000000000000240FC000000000000284000
  0
ACAD_PROXY_OBJECT
  5
5B
102
{ACAD_REACTORS
330
47
102
}
330
47
100
AcDbProxyObject
 90
      499
 91
      503
 93
      249
310
90D312F333222203D2031272D3022000000000000280FC000000000000284000
  0
ACAD_PROXY_OBJECT
  5
5C
102
{ACAD_REACTORS
330
47
102
}
330
47
100
AcDbProxyObject
 90
      499
 91
      503
 93
      249
310
90D312F313622203D2031272D30220000000000002C0FC000000000000284000
  0
ACAD_PROXY_OBJECT
  5
5D
102
{ACAD_REACTORS
330
47
102
}
330
47
100
AcDbProxyObject
 90
      499
 91
      503
 93
      249
310
90D332F333222203D2031272D30220000000000002E0FC000000000000284000
  0
ACAD_PROXY_OBJECT
  5
5E
102
{ACAD_REACTORS
330
47
102
}
330
47
100
AcDbProxyObject
 90
      499
 91
      503
 93
      241
310
90C312F3822203D2031272D3022000000000000300FC000000000000284000
  0
ACAD_PROXY_OBJECT
  5
5F
102
{ACAD_REACTORS
330
47
102
}
330
47
100
AcDbProxyObject
 90
      499
 91
      503
 93
      249
310
90D332F313622203D2031272D3022000000000000320FC000000000000284000
  0
ACAD_PROXY_OBJECT
  5
60
102
{ACAD_REACTORS
330
47
102
}
330
47
100
AcDbProxyObject
 90
      499
 91
      503
 93
      241
310
90C312F3422203D2031272D3022000000000000340FC000000000000284000
  0
ACAD_PROXY_OBJECT
  5
61
102
{ACAD_REACTORS
330
47
102
}
330
47
100
AcDbProxyObject
 90
      499
 91
      503
 93
      241
310
90C332F3822203D2031272D3022000000000000360FC000000000000284000
  0
ACAD_PROXY_OBJECT
  5
62
102
{ACAD_REACTORS
330
47
102
}
330
47
100
AcDbProxyObject
 90
      499
 91
      503
 93
      241
310
90C312F3222203D2031272D3022000000000000380FC000000000000284000
  0
ACAD_PROXY_OBJECT
  5
63
102
{ACAD_REACTORS
330
47
102
}
330
47
100
AcDbProxyObject
 90
      499
 91
      503
 93
      241
310
90C332F3422203D2031272D30220000000000003A0FC000000000000284000
  0
ACAD_PROXY_OBJECT
  5
64
102
{ACAD_REACTORS
330
47
102
}
330
47
100
AcDbProxyObject
 90
      499
 91
      503
 93
      161
310
90A3122203D2031272D30224000000000000284000
  0
ACAD_PROXY_OBJECT
  5
65
102
{ACAD_REACTORS
330
47
102
}
330
47
100
AcDbProxyObject
 90
      499
 91
      503
 93
      257
310
90E312D312F3222203D2031272D30220000000000003E0FC000000000000284000
  0
ACAD_PROXY_OBJECT
  5
66
102
{ACAD_REACTORS
330
47
102
}
330
47
100
AcDbProxyObject
 90
      499
 91
      503
 93
      225
310
90A3322203D2031272D302200000000000002100000000000000284000
  0
ACAD_PROXY_OBJECT
  5
67
102
{ACAD_REACTORS
330
47
102
}
330
47
100
AcDbProxyObject
 90
      499
 91
      503
 93
      225
310
90A3622203D2031272D302200000000000006100000000000000284000
  0
ACAD_PROXY_OBJECT
  5
68
102
{ACAD_REACTORS
330
47
102
}
330
47
100
AcDbProxyObject
 90
      499
 91
      503
 93
      249
310
90D31272D3022203D2031272D30220000000000000A100000000000000284000
  0
ACAD_PROXY_OBJECT
  5
2F
102
{ACAD_REACTORS
330
2A
102
}
330
2A
100
AcDbProxyObject
 90
      499
 91
      501
 93
      436
310
42CC9915DA5C99599C985B595049028333333333333E33F0000000000000F90107901411070040501600405405064090741402480A0340
1001
ACAD
1000
AcDbSavedByObjectVersion
1070
     0
  0
ACAD_PROXY_OBJECT
  5
32
102
{ACAD_REACTORS
330
2A
102
}
330
2A
100
AcDbProxyObject
 90
      499
 91
      501
 93
      388
310
4150985CDA58D07406404333333333333E33F0000000000000F90107A41107004050150841D405064090741402480A0350
1001
ACAD
1000
AcDbSavedByObjectVersion
1070
     0
  0
ACAD_PROXY_OBJECT
  5
36
102
{ACAD_REACTORS
330
2A
102
}
330
2A
100
AcDbProxyObject
 90
      499
 91
      501
 93
      428
310
42109C9A59DA1D195B90C409028333333333333E33F0000000000000F9010790141107004050150841D405064090741402480A029950
1001
ACAD
1000
AcDbSavedByObjectVersion
1070
     0
  0
ACAD_PROXY_OBJECT
  5
3A
102
{ACAD_REACTORS
330
2A
102
}
330
2A
100
AcDbProxyObject
 90
      499
 91
      501
 93
      452
310
42D0DBDB1BDC90DA185B99D95104090240C333333333333E33F0000000000000F90108901411070040501508421405064090741402480A0350
1001
ACAD
1000
AcDbSavedByObjectVersion
1070
     0
  0
ACAD_PROXY_OBJECT
  5
34
102
{ACAD_REACTORS
330
2A
102
}
330
2A
100
AcDbProxyObject
 90
      499
 91
      501
 93
      500
310
4290DBDB98D95C1D1D585B10940D028333333333333E33F0000000000000F90107902409070040501000000000018199010841D405064090740C02480A0340
1001
ACAD
1000
AcDbSavedByObjectVersion
1070
     0
  0
ACAD_PROXY_OBJECT
  5
35
102
{ACAD_REACTORS
330
2A
102
}
330
2A
100
AcDbProxyObject
 90
      499
 91
      501
 93
      412
310
40D11A5B50B409028333333333333E33F0000000000000F9010790141107004050150841D405064090741402480A02677FFFFFD0
1001
ACAD
1000
AcDbSavedByObjectVersion
1070
     0
  0
ACAD_PROXY_OBJECT
  5
3D
102
{ACAD_REACTORS
330
2A
102
}
330
2A
100
AcDbProxyObject
 90
      499
 91
      501
 93
      452
310
43115919D950DBDB1BDC93D999916409028333333333333E33F0000000000000F9010790141107004050150841D405064090741402480A0350
1001
ACAD
1000
AcDbSavedByObjectVersion
1070
     0
  0
ACAD_PROXY_OBJECT
  5
39
102
{ACAD_REACTORS
330
2A
102
}
330
2A
100
AcDbProxyObject
 90
      499
 91
      501
 93
      444
310
42D19858D95C185D1D195C9B90F409028333333333333E33F0000000000000F9010790141107004050150841D405064090741402480A0350
1001
ACAD
1000
AcDbSavedByObjectVersion
1070
     0
  0
ACAD_PROXY_OBJECT
  5
2B
102
{ACAD_REACTORS
330
2A
102
}
330
2A
100
AcDbProxyObject
 90
      499
 91
      501
 93
      380
310
41119B185D240901404333333333333E33F0000000000000F9010740A907004050150841D405064090741402480A1B50
1001
ACAD
1000
AcDbSavedByObjectVersion
1070
     0
  0
ACAD_PROXY_OBJECT
  5
2C
102
{ACAD_REACTORS
330
2A
102
}
330
2A
100
AcDbProxyObject
 90
      499
 91
      501
 93
      468
310
43519B185D15DA5D1A115919D95CD0140901404333333333333E33F0000000000000F90107409019070040501600405405064090741402480A1B50
1001
ACAD
1000
AcDbSavedByObjectVersion
1070
     0
  0
ACAD_PROXY_OBJECT
  5
2D
102
{ACAD_REACTORS
330
2A
102
}
330
2A
100
AcDbProxyObject
 90
      499
 91
      501
 93
      404
310
41D1DBDD5C985D5910240902404333333333333E33F0000000000000F9010740A9070040501641D405064090741402480A1B50
1001
ACAD
1000
AcDbSavedByObjectVersion
1070
     0
  0
ACAD_PROXY_OBJECT
  5
2E
102
{ACAD_REACTORS
330
2A
102
}
330
2A
100
AcDbProxyObject
 90
      499
 91
      501
 93
      492
310
4411DBDD5C985D5915DA5D1A115919D95CD0340902404333333333333E33F0000000000000F90107409019070040501600405405064090741402480A1B50
1001
ACAD
1000
AcDbSavedByObjectVersion
1070
     0
  0
ACAD_PROXY_OBJECT
  5
31
102
{ACAD_REACTORS
330
2A
102
}
330
2A
100
AcDbProxyObject
 90
      499
 91
      501
 93
      476
310
41921A5919195B90640502408333333333333E33F0000000000000F901079024090700405020000000000001110200405405064090740C02480A0340
1001
ACAD
1000
AcDbSavedByObjectVersion
1070
     0
  0
ACAD_PROXY_OBJECT
  5
3B
102
{ACAD_REACTORS
330
2A
102
}
330
2A
100
AcDbProxyObject
 90
      499
 91
      501
 93
      428
310
42529A5D1D195C93D999914409028333333333333E33F0000000000000F9010790141107004050150A41D405064090741402480A0350
1001
ACAD
1000
AcDbSavedByObjectVersion
1070
     0
  0
ACAD_PROXY_OBJECT
  5
38
102
{ACAD_REACTORS
330
2A
102
}
330
2A
100
AcDbProxyObject
 90
      499
 91
      501
 93
      444
310
42D31A5B995C185D1D195C9B90E409028333333333333E33F0000000000000F9010790141107004050750841D405064090741402483A0350
1001
ACAD
1000
AcDbSavedByObjectVersion
1070
     0
  0
ACAD_PROXY_OBJECT
  5
3C
102
{ACAD_REACTORS
330
2A
102
}
330
2A
100
AcDbProxyObject
 90
      499
 91
      501
 93
      444
310
42D3DD995C9A185B99D3D999915409028333333333333E33F0000000000000F9010790141107004050150941D405064090741402480A0350
1001
ACAD
1000
AcDbSavedByObjectVersion
1070
     0
  0
ACAD_PROXY_OBJECT
  5
33
102
{ACAD_REACTORS
330
2A
102
}
330
2A
100
AcDbProxyObject
 90
      499
 91
      501
 93
      428
310
425499585B1A5CDD1A58D08409038333333333333E33F0000000000000F9010740A907004050150800405405064090740C02480A1B40
1001
ACAD
1000
AcDbSavedByObjectVersion
1070
     0
  0
ACAD_PROXY_OBJECT
  5
42
102
{ACAD_REACTORS
330
2A
102
}
330
2A
100
AcDbProxyObject
 90
      499
 91
      501
 93
      420
310
4194DA1859195911B40902404333333333333E33F0000000000000F9010740A41107004050150800405405064090840C02480A0B40
1001
ACAD
1000
AcDbSavedByObjectVersion
1070
     0
  0
ACAD_PROXY_OBJECT
  5
41
102
{ACAD_REACTORS
330
2A
102
}
330
2A
100
AcDbProxyObject
 90
      499
 91
      501
 93
      516
310
4454DA18591959081DDA5D1A08195919D95CD1A40902404333333333333E33F0000000000000F901074090142907004050250800405405064090740C02480A0B40
1001
ACAD
1000
AcDbSavedByObjectVersion
1070
     0
  0
ACAD_PROXY_OBJECT
  5
3E
102
{ACAD_REACTORS
330
2A
102
}
330
2A
100
AcDbProxyObject
 90
      499
 91
      501
 93
      532
310
4394DA1859195CC81BD98811DC985E5174090240C333333333333E33F0000000000000F901079024090741D01000000000000111010841D405064090740C02480A0340
1001
ACAD
1000
AcDbSavedByObjectVersion
1070
     0
  0
ACAD_PROXY_OBJECT
  5
3F
102
{ACAD_REACTORS
330
2A
102
}
330
2A
100
AcDbProxyObject
 90
      499
 91
      501
 93
      476
310
41D4DAD95D18DA1E51840502408333333333333E33F0000000000000F901079024090741D01000000000000111010B41D405064090741802480A0340
1001
ACAD
1000
AcDbSavedByObjectVersion
1070
     0
  0
ACAD_PROXY_OBJECT
  5
37
102
{ACAD_REACTORS
330
2A
102
}
330
2A
100
AcDbProxyObject
 90
      499
 91
      501
 93
      412
310
41D51A1A58DAD95B90D409028333333333333E33F0000000000000F9010790141107004050150C41D405064090741402480A0350
1001
ACAD
1000
AcDbSavedByObjectVersion
1070
     0
  0
ACAD_PROXY_OBJECT
  5
30
102
{ACAD_REACTORS
330
2A
102
}
330
2A
100
AcDbProxyObject
 90
      499
 91
      501
 93
      420
310
4255DA5C99599C985B595059028333333333333E33F0000000000000F90107901411070040501600405405064090740C02480A0340
1001
ACAD
1000
AcDbSavedByObjectVersion
1070
     0
  0
ACAD_PROXY_OBJECT
  5
40
102
{ACAD_REACTORS
330
2A
102
}
330
2A
100
AcDbProxyObject
 90
      499
 91
      501
 93
      404
310
41560B54985E51940902404000000000000E03F0000000000000F9010740501907004050150841D405064090740C02480A1B40
1001
ACAD
1000
AcDbSavedByObjectVersion
1070
     0
  0
XRECORD
  5
472
102
{ACAD_REACTORS
330
468
102
}
330
468
100
AcDbXrecord
340
0
  0
XRECORD
  5
471
102
{ACAD_REACTORS
330
468
102
}
330
468
100
AcDbXrecord
 90
        0
  0
XRECORD
  5
488
102
{ACAD_REACTORS
330
468
102
}
330
468
100
AcDbXrecord
1000
DSTYLE
1002
{
1070
   340
340
11
1002
}
  0
XRECORD
  5
473
102
{ACAD_REACTORS
330
468
102
}
330
468
100
AcDbXrecord
  1
{53efb546-6edf-430e-b3c4-0887bf0bee87}
  0
XRECORD
  5
46B
102
{ACAD_REACTORS
330
468
102
}
330
468
100
AcDbXrecord
  1

  0
XRECORD
  5
470
102
{ACAD_REACTORS
330
468
102
}
330
468
100
AcDbXrecord
 90
        4
  0
XRECORD
  5
46D
102
{ACAD_REACTORS
330
468
102
}
330
468
100
AcDbXrecord
340
1A
  0
XRECORD
  5
46F
102
{ACAD_REACTORS
330
468
102
}
330
468
100
AcDbXrecord
 90
    10781
  0
XRECORD
  5
46E
102
{ACAD_REACTORS
330
468
102
}
330
468
100
AcDbXrecord
340
19
  0
XRECORD
  5
475
102
{ACAD_REACTORS
330
468
102
}
330
468
100
AcDbXrecord
 40
0.0
  0
XRECORD
  5
478
102
{ACAD_REACTORS
330
468
102
}
330
468
100
AcDbXrecord
340
0
  0
XRECORD
  5
47E
102
{ACAD_REACTORS
330
468
102
}
330
468
100
AcDbXrecord
 10
0.0
 20
0.0
 30
0.0
  0
XRECORD
  5
47A
102
{ACAD_REACTORS
330
468
102
}
330
468
100
AcDbXrecord
 10
0.0
 20
0.0
 30
0.0
  0
XRECORD
  5
47D
102
{ACAD_REACTORS
330
468
102
}
330
468
100
AcDbXrecord
 10
0.0
 20
0.0
 30
0.0
  0
XRECORD
  5
47B
102
{ACAD_REACTORS
330
468
102
}
330
468
100
AcDbXrecord
 10
0.0
 20
0.0
 30
0.0
  0
XRECORD
  5
47C
102
{ACAD_REACTORS
330
468
102
}
330
468
100
AcDbXrecord
 10
0.0
 20
0.0
 30
0.0
  0
XRECORD
  5
479
102
{ACAD_REACTORS
330
468
102
}
330
468
100
AcDbXrecord
 10
0.0
 20
0.0
 30
0.0
  0
XRECORD
  5
476
102
{ACAD_REACTORS
330
468
102
}
330
468
100
AcDbXrecord
340
0
  0
XRECORD
  5
477
102
{ACAD_REACTORS
330
468
102
}
330
468
100
AcDbXrecord
 70
     0
  0
XRECORD
  5
46C
102
{ACAD_REACTORS
330
468
102
}
330
468
100
AcDbXrecord
  1

  0
XRECORD
  5
469
102
{ACAD_REACTORS
330
468
102
}
330
468
100
AcDbXrecord
 90
        1
  0
XRECORD
  5
46A
102
{ACAD_REACTORS
330
468
102
}
330
468
100
AcDbXrecord
 90
       70
  0
XRECORD
  5
481
102
{ACAD_REACTORS
330
468
102
}
330
468
100
AcDbXrecord
340
0
  0
XRECORD
  5
487
102
{ACAD_REACTORS
330
468
102
}
330
468
100
AcDbXrecord
 10
0.0
 20
0.0
 30
0.0
  0
XRECORD
  5
483
102
{ACAD_REACTORS
330
468
102
}
330
468
100
AcDbXrecord
 10
0.0
 20
0.0
 30
0.0
  0
XRECORD
  5
486
102
{ACAD_REACTORS
330
468
102
}
330
468
100
AcDbXrecord
 10
0.0
 20
0.0
 30
0.0
  0
XRECORD
  5
484
102
{ACAD_REACTORS
330
468
102
}
330
468
100
AcDbXrecord
 10
0.0
 20
0.0
 30
0.0
  0
XRECORD
  5
485
102
{ACAD_REACTORS
330
468
102
}
330
468
100
AcDbXrecord
 10
0.0
 20
0.0
 30
0.0
  0
XRECORD
  5
482
102
{ACAD_REACTORS
330
468
102
}
330
468
100
AcDbXrecord
 10
0.0
 20
0.0
 30
0.0
  0
XRECORD
  5
47F
102
{ACAD_REACTORS
330
468
102
}
330
468
100
AcDbXrecord
340
0
  0
XRECORD
  5
480
102
{ACAD_REACTORS
330
468
102
}
330
468
100
AcDbXrecord
 70
     0
  0
XRECORD
  5
474
102
{ACAD_REACTORS
330
468
102
}
330
468
100
AcDbXrecord
  1
{FAEB1C32-E019-11D5-929B-00C0DF256EC4}
  0
DICTIONARYVAR
  5
496
102
{ACAD_REACTORS
330
489
102
}
330
489
100
DictionaryVariables
280
     0
  1
1:1
  0
DICTIONARYVAR
  5
490
102
{ACAD_REACTORS
330
489
102
}
330
489
100
DictionaryVariables
280
     0
  1
3.500000
  0
DICTIONARYVAR
  5
491
102
{ACAD_REACTORS
330
489
102
}
330
489
100
DictionaryVariables
280
     0
  1
acadiso.lin
  0
DICTIONARYVAR
  5
48B
102
{ACAD_REACTORS
330
489
102
}
330
489
100
DictionaryVariables
280
     0
  1
Standard
  0
DICTIONARYVAR
  5
48A
102
{ACAD_REACTORS
330
489
102
}
330
489
100
DictionaryVariables
280
     0
  1
Standard
  0
DICTIONARYVAR
  5
492
102
{ACAD_REACTORS
330
489
102
}
330
489
100
DictionaryVariables
280
     0
  1
2
  0
DICTIONARYVAR
  5
493
102
{ACAD_REACTORS
330
489
102
}
330
489
100
DictionaryVariables
280
     0
  1
1
  0
DICTIONARYVAR
  5
497
102
{ACAD_REACTORS
330
489
102
}
330
489
100
DictionaryVariables
280
     0
  1
1
  0
DICTIONARYVAR
  5
48D
102
{ACAD_REACTORS
330
489
102
}
330
489
100
DictionaryVariables
280
     0
  1
80.000000
  0
DICTIONARYVAR
  5
48C
102
{ACAD_REACTORS
330
489
102
}
330
489
100
DictionaryVariables
280
     0
  1
5.000000
  0
DICTIONARY
  5
49A
330
45
100
AcDbDictionary
280
     1
  3
ACAD_XREC_ROUNDTRIP
360
49B
  0
DICTIONARY
  5
498
330
44
100
AcDbDictionary
280
     1
  3
ACAD_XREC_ROUNDTRIP
360
499
  0
DICTIONARY
  5
49C
330
46
100
AcDbDictionary
280
     1
  3
ACAD_XREC_ROUNDTRIP
360
49D
  0
XRECORD
  5
49B
102
{ACAD_REACTORS
330
49A
102
}
330
49A
100
AcDbXrecord
102
MATERIAL
148
0.0
149
0.0
149
0.0
 93
        0
 94
      127
282
     0
 72
     1
 77
     1
171
     1
175
     1
179
     1
273
     0
  0
XRECORD
  5
499
102
{ACAD_REACTORS
330
498
102
}
330
498
100
AcDbXrecord
102
MATERIAL
148
0.0
149
0.0
149
0.0
 93
        0
 94
      127
282
     0
 72
     1
 77
     1
171
     1
175
     1
179
     1
273
     0
  0
XRECORD
  5
49D
102
{ACAD_REACTORS
330
49C
102
}
330
49C
100
AcDbXrecord
102
MATERIAL
148
0.0
149
0.0
149
0.0
 93
        0
 94
      127
282
     0
 72
     1
 77
     1
171
     1
175
     1
179
     1
273
     0
  0
ENDSEC
  0
EOF
