  0
SECTION
  2
HEADER
  9
$ACADVER
  1
AC1014
  9
$ACADMAINTVER
 70
     9
  9
$DWGCODEPAGE
  3
ANSI_932
  9
$INSBASE
 10
0.0
 20
0.0
 30
0.0
  9
$EXTMIN
 10
10.0
 20
20.0
 30
0.0
  9
$EXTMAX
 10
770.0000000000001
 20
560.0
 30
0.0
  9
$LIMMIN
 10
0.0
 20
0.0
  9
$LIMMAX
 10
420.0
 20
297.0
  9
$ORTHOMODE
 70
     0
  9
$REGENMODE
 70
     1
  9
$FILLMODE
 70
     1
  9
$QTEXTMODE
 70
     0
  9
$MIRRTEXT
 70
     1
  9
$DRAGMODE
 70
     2
  9
$LTSCALE
 40
0.2
  9
$OSMODE
 70
    37
  9
$ATTMODE
 70
     1
  9
$TEXTSIZE
 40
2.5
  9
$TRACEWID
 40
1.0
  9
$TEXTSTYLE
  7
STANDARD
  9
$CLAYER
  8
LAY-10
  9
$CELTYPE
  6
BYLAYER
  9
$CECOLOR
 62
   256
  9
$CELTSCALE
 40
1.0
  9
$DELOBJ
 70
     1
  9
$DISPSILH
 70
     0
  9
$DIMSCALE
 40
1.0
  9
$DIMASZ
 40
2.5
  9
$DIMEXO
 40
0.625
  9
$DIMDLI
 40
3.75
  9
$DIMRND
 40
0.0
  9
$DIMDLE
 40
0.0
  9
$DIMEXE
 40
1.25
  9
$DIMTP
 40
0.0
  9
$DIMTM
 40
0.0
  9
$DIMTXT
 40
2.5
  9
$DIMCEN
 40
2.5
  9
$DIMTSZ
 40
0.0
  9
$DIMTOL
 70
     0
  9
$DIMLIM
 70
     0
  9
$DIMTIH
 70
     0
  9
$DIMTOH
 70
     0
  9
$DIMSE1
 70
     0
  9
$DIMSE2
 70
     0
  9
$DIMTAD
 70
     1
  9
$DIMZIN
 70
     8
  9
$DIMBLK
  1

  9
$DIMASO
 70
     1
  9
$DIMSHO
 70
     1
  9
$DIMPOST
  1

  9
$DIMAPOST
  1

  9
$DIMALT
 70
     0
  9
$DIMALTD
 70
     3
  9
$DIMALTF
 40
0.03937007874016
  9
$DIMLFAC
 40
1.0
  9
$DIMTOFL
 70
     1
  9
$DIMTVP
 40
0.0
  9
$DIMTIX
 70
     0
  9
$DIMSOXD
 70
     0
  9
$DIMSAH
 70
     0
  9
$DIMBLK1
  1

  9
$DIMBLK2
  1

  9
$DIMSTYLE
  2
ISO-25
  9
$DIMCLRD
 70
     0
  9
$DIMCLRE
 70
     0
  9
$DIMCLRT
 70
     0
  9
$DIMTFAC
 40
1.0
  9
$DIMGAP
 40
0.625
  9
$DIMJUST
 70
     0
  9
$DIMSD1
 70
     0
  9
$DIMSD2
 70
     0
  9
$DIMTOLJ
 70
     0
  9
$DIMTZIN
 70
     8
  9
$DIMALTZ
 70
     0
  9
$DIMALTTZ
 70
     0
  9
$DIMFIT
 70
     3
  9
$DIMUPT
 70
     0
  9
$DIMUNIT
 70
     2
  9
$DIMDEC
 70
     2
  9
$DIMTDEC
 70
     2
  9
$DIMALTU
 70
     2
  9
$DIMALTTD
 70
     3
  9
$DIMTXSTY
  7
STANDARD
  9
$DIMAUNIT
 70
     0
  9
$LUNITS
 70
     2
  9
$LUPREC
 70
     4
  9
$SKETCHINC
 40
1.0
  9
$FILLETRAD
 40
10.0
  9
$AUNITS
 70
     0
  9
$AUPREC
 70
     0
  9
$MENU
  1
.
  9
$ELEVATION
 40
0.0
  9
$PELEVATION
 40
0.0
  9
$THICKNESS
 40
0.0
  9
$LIMCHECK
 70
     0
  9
$CHAMFERA
 40
0.0
  9
$CHAMFERB
 40
0.0
  9
$CHAMFERC
 40
0.0
  9
$CHAMFERD
 40
0.0
  9
$SKPOLY
 70
     0
  9
$TDCREATE
 40
2459229.337159467
  9
$TDUPDATE
 40
2459229.337159907
  9
$TDINDWG
 40
0.0000000116
  9
$TDUSRTIMER
 40
0.0000000116
  9
$USRTIMER
 70
     1
  9
$ANGBASE
 50
0.0
  9
$ANGDIR
 70
     0
  9
$PDMODE
 70
     0
  9
$PDSIZE
 40
0.0
  9
$PLINEWID
 40
0.0
  9
$COORDS
 70
     1
  9
$SPLFRAME
 70
     0
  9
$SPLINETYPE
 70
     6
  9
$SPLINESEGS
 70
     8
  9
$ATTDIA
 70
     0
  9
$ATTREQ
 70
     1
  9
$HANDLING
 70
     1
  9
$HANDSEED
  5
40C
  9
$SURFTAB1
 70
     6
  9
$SURFTAB2
 70
     6
  9
$SURFTYPE
 70
     6
  9
$SURFU
 70
     6
  9
$SURFV
 70
     6
  9
$UCSNAME
  2

  9
$UCSORG
 10
0.0
 20
0.0
 30
0.0
  9
$UCSXDIR
 10
1.0
 20
0.0
 30
0.0
  9
$UCSYDIR
 10
0.0
 20
1.0
 30
0.0
  9
$PUCSNAME
  2

  9
$PUCSORG
 10
0.0
 20
0.0
 30
0.0
  9
$PUCSXDIR
 10
1.0
 20
0.0
 30
0.0
  9
$PUCSYDIR
 10
0.0
 20
1.0
 30
0.0
  9
$USERI1
 70
     0
  9
$USERI2
 70
     0
  9
$USERI3
 70
     0
  9
$USERI4
 70
     0
  9
$USERI5
 70
     0
  9
$USERR1
 40
0.0
  9
$USERR2
 40
0.0
  9
$USERR3
 40
0.0
  9
$USERR4
 40
0.0
  9
$USERR5
 40
0.0
  9
$WORLDVIEW
 70
     1
  9
$SHADEDGE
 70
     3
  9
$SHADEDIF
 70
    70
  9
$TILEMODE
 70
     1
  9
$MAXACTVP
 70
    64
  9
$PINSBASE
 10
0.0
 20
0.0
 30
0.0
  9
$PLIMCHECK
 70
     0
  9
$PEXTMIN
 10
1.000000000000000E+20
 20
1.000000000000000E+20
 30
1.000000000000000E+20
  9
$PEXTMAX
 10
-1.000000000000000E+20
 20
-1.000000000000000E+20
 30
-1.000000000000000E+20
  9
$PLIMMIN
 10
0.0
 20
0.0
  9
$PLIMMAX
 10
420.0
 20
297.0
  9
$UNITMODE
 70
     0
  9
$VISRETAIN
 70
     1
  9
$PLINEGEN
 70
     0
  9
$PSLTSCALE
 70
     1
  9
$TREEDEPTH
 70
  3020
  9
$PICKSTYLE
 70
     1
  9
$CMLSTYLE
  2
STANDARD
  9
$CMLJUST
 70
     0
  9
$CMLSCALE
 40
20.0
  9
$PROXYGRAPHICS
 70
     1
  9
$MEASUREMENT
 70
     1
  0
ENDSEC
  0
SECTION
  2
CLASSES
  0
CLASS
  1
ACDBDICTIONARYWDFLT
  2
AcDbDictionaryWithDefault
  3
ObjectDBX Classes
 90
        0
280
     0
281
     0
  0
CLASS
  1
VISUALSTYLE
  2
AcDbVisualStyle
  3
ObjectDBX Classes
 90
     4095
280
     0
281
     0
  0
CLASS
  1
MATERIAL
  2
AcDbMaterial
  3
ObjectDBX Classes
 90
     1153
280
     0
281
     0
  0
CLASS
  1
SCALE
  2
AcDbScale
  3
ObjectDBX Classes
 90
     1153
280
     0
281
     0
  0
CLASS
  1
TABLESTYLE
  2
AcDbTableStyle
  3
ObjectDBX Classes
 90
     4095
280
     0
281
     0
  0
CLASS
  1
MLEADERSTYLE
  2
AcDbMLeaderStyle
  3
ACDB_MLEADERSTYLE_CLASS
 90
     4095
280
     0
281
     0
  0
CLASS
  1
SUN
  2
AcDbSun
  3
SCENEOE
 90
     1153
280
     0
281
     0
  0
CLASS
  1
DICTIONARYVAR
  2
AcDbDictionaryVar
  3
ObjectDBX Classes
 90
        0
280
     0
281
     0
  0
CLASS
  1
XRECORD
  2
AcDbXrecord
  3
ObjectDBX Classes
 90
        0
280
     0
281
     0
  0
CLASS
  1
LWPOLYLINE
  2
AcDbPolyline
  3
ObjectDBX Classes
 90
        0
280
     0
281
     1
  0
CLASS
  1
HATCH
  2
AcDbHatch
  3
ObjectDBX Classes
 90
        0
280
     0
281
     1
  0
CLASS
  1
ACDBPLACEHOLDER
  2
AcDbPlaceHolder
  3
ObjectDBX Classes
 90
        0
280
     0
281
     0
  0
CLASS
  1
LAYOUT
  2
AcDbLayout
  3
ObjectDBX Classes
 90
        0
280
     0
281
     0
  0
ENDSEC
  0
SECTION
  2
TABLES
  0
TABLE
  2
VPORT
  5
8
102
{ACAD_XDICTIONARY
360
401
102
}
330
0
100
AcDbSymbolTable
 70
     1
  0
VPORT
  5
29
330
8
100
AcDbSymbolTableRecord
100
AcDbViewportTableRecord
  2
*ACTIVE
 70
     0
 10
0.0
 20
0.0
 11
1.0
 21
1.0
 12
390.0000000000001
 22
290.0
 13
0.0
 23
0.0
 14
10.0
 24
10.0
 15
10.0
 25
10.0
 16
0.0
 26
0.0
 36
1.0
 17
0.0
 27
0.0
 37
0.0
 40
540.0
 41
1.407407407407408
 42
50.0
 43
0.0
 44
0.0
 50
0.0
 51
0.0
 71
     0
 72
  1000
 73
     1
 74
     3
 75
     0
 76
     0
 77
     0
 78
     0
  0
ENDTAB
  0
TABLE
  2
LTYPE
  5
5
330
0
100
AcDbSymbolTable
 70
     6
  0
LTYPE
  5
14
330
5
100
AcDbSymbolTableRecord
100
AcDbLinetypeTableRecord
  2
BYBLOCK
 70
     0
  3

 72
    65
 73
     0
 40
0.0
  0
LTYPE
  5
15
330
5
100
AcDbSymbolTableRecord
100
AcDbLinetypeTableRecord
  2
BYLAYER
 70
     0
  3

 72
    65
 73
     0
 40
0.0
  0
LTYPE
  5
16
330
5
100
AcDbSymbolTableRecord
100
AcDbLinetypeTableRecord
  2
CONTINUOUS
 70
     0
  3
Solid line
 72
    65
 73
     0
 40
0.0
  0
LTYPE
  5
6E
330
5
100
AcDbSymbolTableRecord
100
AcDbLinetypeTableRecord
  2
HIDDEN
 70
     0
  3
Hidden __ __ __ __ __ __ __ __ __ __ __ __ __ __
 72
    65
 73
     2
 40
9.524999999999999
 49
6.35
 74
     0
 49
-3.175
 74
     0
  0
LTYPE
  5
6F
330
5
100
AcDbSymbolTableRecord
100
AcDbLinetypeTableRecord
  2
CENTER
 70
     0
  3
Center ____ _ ____ _ ____ _ ____ _ ____ _ ____
 72
    65
 73
     4
 40
50.8
 49
31.75
 74
     0
 49
-6.35
 74
     0
 49
6.35
 74
     0
 49
-6.35
 74
     0
  0
LTYPE
  5
70
330
5
100
AcDbSymbolTableRecord
100
AcDbLinetypeTableRecord
  2
PHANTOM
 70
     0
  3
Phantom ______  __  __  ______  __  __  ______ 
 72
    65
 73
     6
 40
63.50000000000001
 49
31.75
 74
     0
 49
-6.35
 74
     0
 49
6.35
 74
     0
 49
-6.35
 74
     0
 49
6.35
 74
     0
 49
-6.35
 74
     0
  0
LTYPE
  5
71
330
5
100
AcDbSymbolTableRecord
100
AcDbLinetypeTableRecord
  2
ACAD_ISO06W100
 70
     0
  3
ISO long-dash triple-dot ____ ... ____ ... ____
 72
    65
 73
     8
 40
36.0
 49
24.0
 74
     0
 49
-3.0
 74
     0
 49
0.0
 74
     0
 49
-3.0
 74
     0
 49
0.0
 74
     0
 49
-3.0
 74
     0
 49
0.0
 74
     0
 49
-3.0
 74
     0
  0
LTYPE
  5
72
330
5
100
AcDbSymbolTableRecord
100
AcDbLinetypeTableRecord
  2
ACAD_ISO15W100
 70
     0
  3
ISO double-dash triple-dot __ __ . . . __ __ . .
 72
    65
 73
    10
 40
39.0
 49
12.0
 74
     0
 49
-3.0
 74
     0
 49
12.0
 74
     0
 49
-3.0
 74
     0
 49
0.0
 74
     0
 49
-3.0
 74
     0
 49
0.0
 74
     0
 49
-3.0
 74
     0
 49
0.0
 74
     0
 49
-3.0
 74
     0
  0
ENDTAB
  0
TABLE
  2
LAYER
  5
2
330
0
100
AcDbSymbolTable
 70
     5
  0
LAYER
  5
10
330
2
100
AcDbSymbolTableRecord
100
AcDbLayerTableRecord
  2
0
 70
     0
 62
     7
  6
CONTINUOUS
  0
LAYER
  5
75
330
2
100
AcDbSymbolTableRecord
100
AcDbLayerTableRecord
  2
LAY-10
 70
     0
 62
     7
  6
CONTINUOUS
  0
LAYER
  5
76
330
2
100
AcDbSymbolTableRecord
100
AcDbLayerTableRecord
  2
LAY-20
 70
     0
 62
     7
  6
CONTINUOUS
  0
LAYER
  5
77
330
2
100
AcDbSymbolTableRecord
100
AcDbLayerTableRecord
  2
LAY-255
 70
     0
 62
     7
  6
CONTINUOUS
  0
LAYER
  5
345
330
2
100
AcDbSymbolTableRecord
100
AcDbLayerTableRecord
  2
DEFPOINTS
 70
     0
 62
     7
  6
CONTINUOUS
  0
ENDTAB
  0
TABLE
  2
STYLE
  5
3
330
0
100
AcDbSymbolTable
 70
     4
  0
STYLE
  5
11
330
3
100
AcDbSymbolTableRecord
100
AcDbTextStyleTableRecord
  2
STANDARD
 70
     0
 40
0.0
 41
1.0
 50
0.0
 71
     0
 42
2.5
  3
simplex
  4
bigfont
  0
STYLE
  5
73
330
3
100
AcDbSymbolTableRecord
100
AcDbTextStyleTableRecord
  2
EXCADSTD
 70
     0
 40
0.0
 41
1.0
 50
0.0
 71
     0
 42
2.5
  3
simplex
  4
bigfont
  0
STYLE
  5
74
330
3
100
AcDbSymbolTableRecord
100
AcDbTextStyleTableRecord
  2
EXCADVERT
 70
     4
 40
0.0
 41
1.0
 50
0.0
 71
     0
 42
2.5
  3
simplex
  4
bigfont
  0
STYLE
  5
343
330
3
100
AcDbSymbolTableRecord
100
AcDbTextStyleTableRecord
  2
EXCADDIM1
 70
     0
 40
0.0
 41
0.84
 50
0.0
 71
     0
 42
2.5
  3
simplex
  4
bigfont
  0
ENDTAB
  0
TABLE
  2
VIEW
  5
6
330
0
100
AcDbSymbolTable
 70
     0
  0
ENDTAB
  0
TABLE
  2
UCS
  5
7
330
0
100
AcDbSymbolTable
 70
     0
  0
ENDTAB
  0
TABLE
  2
APPID
  5
9
330
0
100
AcDbSymbolTable
 70
     2
  0
APPID
  5
12
330
9
100
AcDbSymbolTableRecord
100
AcDbRegAppTableRecord
  2
ACAD
 70
     0
  0
APPID
  5
40B
330
9
100
AcDbSymbolTableRecord
100
AcDbRegAppTableRecord
  2
ACAD_MLEADERVER
 70
     0
  0
ENDTAB
  0
TABLE
  2
DIMSTYLE
  5
A
330
0
100
AcDbSymbolTable
 70
     1
  0
DIMSTYLE
105
27
102
{ACAD_REACTORS
330
344
330
352
330
35F
330
36C
330
379
330
386
330
393
330
3A0
102
}
330
A
100
AcDbSymbolTableRecord
100
AcDbDimStyleTableRecord
  2
ISO-25
 70
     0
  3

  4

  5

  6

  7

 40
1.0
 41
2.5
 42
0.625
 43
3.75
 44
1.25
 45
0.0
 46
0.0
 47
0.0
 48
0.0
140
2.5
141
2.5
142
0.0
143
0.03937007874016
144
1.0
145
0.0
146
1.0
147
0.625
 71
     0
 72
     0
 73
     0
 74
     0
 75
     0
 76
     0
 77
     1
 78
     8
170
     0
171
     3
172
     1
173
     0
174
     0
175
     0
176
     0
177
     0
178
     0
270
     2
271
     2
272
     2
273
     2
274
     3
340
11
275
     0
280
     0
281
     0
282
     0
283
     0
284
     8
285
     0
286
     0
287
     5
288
     0
  0
ENDTAB
  0
TABLE
  2
BLOCK_RECORD
  5
1
330
0
100
AcDbSymbolTable
 70
    22
  0
BLOCK_RECORD
  5
1F
330
1
100
AcDbSymbolTableRecord
100
AcDbBlockTableRecord
  2
*MODEL_SPACE
  0
BLOCK_RECORD
  5
1B
330
1
100
AcDbSymbolTableRecord
100
AcDbBlockTableRecord
  2
*PAPER_SPACE
  0
BLOCK_RECORD
  5
78
330
1
100
AcDbSymbolTableRecord
100
AcDbBlockTableRecord
  2
EX_NORM
  0
BLOCK_RECORD
  5
7B
330
1
100
AcDbSymbolTableRecord
100
AcDbBlockTableRecord
  2
EX_BNORM
  0
BLOCK_RECORD
  5
7E
330
1
100
AcDbSymbolTableRecord
100
AcDbBlockTableRecord
  2
EX_BCIR
  0
BLOCK_RECORD
  5
81
330
1
100
AcDbSymbolTableRecord
100
AcDbBlockTableRecord
  2
EX_RCIVIL
  0
BLOCK_RECORD
  5
84
330
1
100
AcDbSymbolTableRecord
100
AcDbBlockTableRecord
  2
EX_SLANT
  0
BLOCK_RECORD
  5
87
330
1
100
AcDbSymbolTableRecord
100
AcDbBlockTableRecord
  2
EX_NONE
  0
BLOCK_RECORD
  5
8A
330
1
100
AcDbSymbolTableRecord
100
AcDbBlockTableRecord
  2
EX_CIVIL
  0
BLOCK_RECORD
  5
8D
330
1
100
AcDbSymbolTableRecord
100
AcDbBlockTableRecord
  2
EX_WCIR
  0
BLOCK_RECORD
  5
90
330
1
100
AcDbSymbolTableRecord
100
AcDbBlockTableRecord
  2
EX_WCIR2
  0
BLOCK_RECORD
  5
93
330
1
100
AcDbSymbolTableRecord
100
AcDbBlockTableRecord
  2
EX_WNORM
  0
BLOCK_RECORD
  5
96
330
1
100
AcDbSymbolTableRecord
100
AcDbBlockTableRecord
  2
EX_NNORM
  0
BLOCK_RECORD
  5
99
330
1
100
AcDbSymbolTableRecord
100
AcDbBlockTableRecord
  2
EX_BBOX
  0
BLOCK_RECORD
  5
9C
330
1
100
AcDbSymbolTableRecord
100
AcDbBlockTableRecord
  2
EX_WBOX
  0
BLOCK_RECORD
  5
9F
330
1
100
AcDbSymbolTableRecord
100
AcDbBlockTableRecord
  2
EX_INTEGRAL
  0
BLOCK_RECORD
  5
346
330
1
100
AcDbSymbolTableRecord
100
AcDbBlockTableRecord
  2
*D15
  0
BLOCK_RECORD
  5
353
330
1
100
AcDbSymbolTableRecord
100
AcDbBlockTableRecord
  2
*D16
  0
BLOCK_RECORD
  5
360
330
1
100
AcDbSymbolTableRecord
100
AcDbBlockTableRecord
  2
*D17
  0
BLOCK_RECORD
  5
36D
330
1
100
AcDbSymbolTableRecord
100
AcDbBlockTableRecord
  2
*D18
  0
BLOCK_RECORD
  5
37A
330
1
100
AcDbSymbolTableRecord
100
AcDbBlockTableRecord
  2
*D19
  0
BLOCK_RECORD
  5
387
330
1
100
AcDbSymbolTableRecord
100
AcDbBlockTableRecord
  2
*D20
  0
BLOCK_RECORD
  5
394
330
1
100
AcDbSymbolTableRecord
100
AcDbBlockTableRecord
  2
*D21
  0
BLOCK_RECORD
  5
3A1
330
1
100
AcDbSymbolTableRecord
100
AcDbBlockTableRecord
  2
*D22
  0
ENDTAB
  0
ENDSEC
  0
SECTION
  2
BLOCKS
  0
BLOCK
  5
20
330
1F
100
AcDbEntity
  8
0
100
AcDbBlockBegin
  2
*MODEL_SPACE
 70
     0
 10
0.0
 20
0.0
 30
0.0
  3
*MODEL_SPACE
  1

  0
ENDBLK
  5
21
330
1F
100
AcDbEntity
  8
0
100
AcDbBlockEnd
  0
BLOCK
  5
1C
330
1B
100
AcDbEntity
 67
     1
  8
0
100
AcDbBlockBegin
  2
*PAPER_SPACE
 70
     0
 10
0.0
 20
0.0
 30
0.0
  3
*PAPER_SPACE
  1

  0
ENDBLK
  5
1D
330
1B
100
AcDbEntity
 67
     1
  8
0
100
AcDbBlockEnd
  0
BLOCK
  5
79
330
78
100
AcDbEntity
  8
0
100
AcDbBlockBegin
  2
EX_NORM
 70
     0
 10
0.0
 20
0.0
 30
0.0
  3
EX_NORM
  1

  0
LINE
  5
A2
330
78
100
AcDbEntity
  8
0
  6
CONTINUOUS
 62
     0
100
AcDbLine
 10
0.0
 20
0.0
 30
0.0
 11
-1.0
 21
0.0
 31
0.0
  0
LINE
  5
A3
330
78
100
AcDbEntity
  8
0
  6
CONTINUOUS
 62
     0
100
AcDbLine
 10
0.0
 20
0.0
 30
0.0
 11
-1.0
 21
0.166666667
 31
0.0
  0
LINE
  5
A4
330
78
100
AcDbEntity
  8
0
  6
CONTINUOUS
 62
     0
100
AcDbLine
 10
0.0
 20
0.0
 30
0.0
 11
-1.0
 21
-0.166666667
 31
0.0
  0
ENDBLK
  5
7A
330
78
100
AcDbEntity
  8
0
100
AcDbBlockEnd
  0
BLOCK
  5
7C
330
7B
100
AcDbEntity
  8
0
100
AcDbBlockBegin
  2
EX_BNORM
 70
     0
 10
0.0
 20
0.0
 30
0.0
  3
EX_BNORM
  1

  0
LINE
  5
A5
330
7B
100
AcDbEntity
  8
0
  6
CONTINUOUS
 62
     0
100
AcDbLine
 10
0.0
 20
0.0
 30
0.0
 11
-1.0
 21
0.0
 31
0.0
  0
LINE
  5
A6
330
7B
100
AcDbEntity
  8
0
  6
CONTINUOUS
 62
     0
100
AcDbLine
 10
0.0
 20
0.0
 30
0.0
 11
-1.0
 21
0.166666667
 31
0.0
  0
LINE
  5
A7
330
7B
100
AcDbEntity
  8
0
  6
CONTINUOUS
 62
     0
100
AcDbLine
 10
0.0
 20
0.0
 30
0.0
 11
-1.0
 21
-0.166666667
 31
0.0
  0
LINE
  5
A8
330
7B
100
AcDbEntity
  8
0
  6
CONTINUOUS
 62
     0
100
AcDbLine
 10
0.0
 20
0.0
 30
0.0
 11
-1.0
 21
0.083333333
 31
0.0
  0
LINE
  5
A9
330
7B
100
AcDbEntity
  8
0
  6
CONTINUOUS
 62
     0
100
AcDbLine
 10
0.0
 20
0.0
 30
0.0
 11
-1.0
 21
-0.083333333
 31
0.0
  0
LINE
  5
AA
330
7B
100
AcDbEntity
  8
0
  6
CONTINUOUS
 62
     0
100
AcDbLine
 10
-1.0
 20
0.166666667
 30
0.0
 11
-1.0
 21
-0.166666667
 31
0.0
  0
ENDBLK
  5
7D
330
7B
100
AcDbEntity
  8
0
100
AcDbBlockEnd
  0
BLOCK
  5
7F
330
7E
100
AcDbEntity
  8
0
100
AcDbBlockBegin
  2
EX_BCIR
 70
     0
 10
0.0
 20
0.0
 30
0.0
  3
EX_BCIR
  1

  0
LINE
  5
AB
330
7E
100
AcDbEntity
  8
0
  6
CONTINUOUS
 62
     0
100
AcDbLine
 10
0.0
 20
0.0
 30
0.0
 11
-1.0
 21
0.0
 31
0.0
  0
CIRCLE
  5
AC
330
7E
100
AcDbEntity
  8
0
  6
CONTINUOUS
 62
     0
100
AcDbCircle
 10
0.0
 20
0.0
 30
0.0
 40
0.5
  0
CIRCLE
  5
AD
330
7E
100
AcDbEntity
  8
0
  6
CONTINUOUS
 62
     0
100
AcDbCircle
 10
0.0
 20
0.0
 30
0.0
 40
0.25
  0
ENDBLK
  5
80
330
7E
100
AcDbEntity
  8
0
100
AcDbBlockEnd
  0
BLOCK
  5
82
330
81
100
AcDbEntity
  8
0
100
AcDbBlockBegin
  2
EX_RCIVIL
 70
     0
 10
0.0
 20
0.0
 30
0.0
  3
EX_RCIVIL
  1

  0
LINE
  5
AE
330
81
100
AcDbEntity
  8
0
  6
CONTINUOUS
 62
     0
100
AcDbLine
 10
0.0
 20
0.0
 30
0.0
 11
-1.0
 21
0.0
 31
0.0
  0
LINE
  5
AF
330
81
100
AcDbEntity
  8
0
  6
CONTINUOUS
 62
     0
100
AcDbLine
 10
-1.0
 20
-0.25
 30
0.0
 11
0.0
 21
-0.25
 31
0.0
  0
LINE
  5
B0
330
81
100
AcDbEntity
  8
0
  6
CONTINUOUS
 62
     0
100
AcDbLine
 10
-1.0
 20
-0.125
 30
0.0
 11
0.0
 21
-0.125
 31
0.0
  0
ENDBLK
  5
83
330
81
100
AcDbEntity
  8
0
100
AcDbBlockEnd
  0
BLOCK
  5
85
330
84
100
AcDbEntity
  8
0
100
AcDbBlockBegin
  2
EX_SLANT
 70
     0
 10
0.0
 20
0.0
 30
0.0
  3
EX_SLANT
  1

  0
LINE
  5
B1
330
84
100
AcDbEntity
  8
0
  6
CONTINUOUS
 62
     0
100
AcDbLine
 10
0.0
 20
0.0
 30
0.0
 11
-1.0
 21
0.0
 31
0.0
  0
LINE
  5
B2
330
84
100
AcDbEntity
  8
0
  6
CONTINUOUS
 62
     0
100
AcDbLine
 10
0.707106781
 20
0.707106781
 30
0.0
 11
-0.707106781
 21
-0.707106781
 31
0.0
  0
ENDBLK
  5
86
330
84
100
AcDbEntity
  8
0
100
AcDbBlockEnd
  0
BLOCK
  5
88
330
87
100
AcDbEntity
  8
0
100
AcDbBlockBegin
  2
EX_NONE
 70
     0
 10
0.0
 20
0.0
 30
0.0
  3
EX_NONE
  1

  0
LINE
  5
B3
330
87
100
AcDbEntity
  8
0
  6
CONTINUOUS
 62
     0
100
AcDbLine
 10
0.0
 20
0.0
 30
0.0
 11
-1.0
 21
0.0
 31
0.0
  0
ENDBLK
  5
89
330
87
100
AcDbEntity
  8
0
100
AcDbBlockEnd
  0
BLOCK
  5
8B
330
8A
100
AcDbEntity
  8
0
100
AcDbBlockBegin
  2
EX_CIVIL
 70
     0
 10
0.0
 20
0.0
 30
0.0
  3
EX_CIVIL
  1

  0
LINE
  5
B4
330
8A
100
AcDbEntity
  8
0
  6
CONTINUOUS
 62
     0
100
AcDbLine
 10
0.0
 20
0.0
 30
0.0
 11
-1.0
 21
0.0
 31
0.0
  0
LINE
  5
B5
330
8A
100
AcDbEntity
  8
0
  6
CONTINUOUS
 62
     0
100
AcDbLine
 10
-1.0
 20
0.25
 30
0.0
 11
0.0
 21
0.25
 31
0.0
  0
LINE
  5
B6
330
8A
100
AcDbEntity
  8
0
  6
CONTINUOUS
 62
     0
100
AcDbLine
 10
-1.0
 20
0.125
 30
0.0
 11
0.0
 21
0.125
 31
0.0
  0
ENDBLK
  5
8C
330
8A
100
AcDbEntity
  8
0
100
AcDbBlockEnd
  0
BLOCK
  5
8E
330
8D
100
AcDbEntity
  8
0
100
AcDbBlockBegin
  2
EX_WCIR
 70
     0
 10
0.0
 20
0.0
 30
0.0
  3
EX_WCIR
  1

  0
LINE
  5
B7
330
8D
100
AcDbEntity
  8
0
  6
CONTINUOUS
 62
     0
100
AcDbLine
 10
0.0
 20
0.0
 30
0.0
 11
-1.0
 21
0.0
 31
0.0
  0
CIRCLE
  5
B8
330
8D
100
AcDbEntity
  8
0
  6
CONTINUOUS
 62
     0
100
AcDbCircle
 10
0.0
 20
0.0
 30
0.0
 40
0.5
  0
ENDBLK
  5
8F
330
8D
100
AcDbEntity
  8
0
100
AcDbBlockEnd
  0
BLOCK
  5
91
330
90
100
AcDbEntity
  8
0
100
AcDbBlockBegin
  2
EX_WCIR2
 70
     0
 10
0.0
 20
0.0
 30
0.0
  3
EX_WCIR2
  1

  0
LINE
  5
B9
330
90
100
AcDbEntity
  8
0
  6
CONTINUOUS
 62
     0
100
AcDbLine
 10
-0.5
 20
0.0
 30
0.0
 11
-1.0
 21
0.0
 31
0.0
  0
CIRCLE
  5
BA
330
90
100
AcDbEntity
  8
0
  6
CONTINUOUS
 62
     0
100
AcDbCircle
 10
0.0
 20
0.0
 30
0.0
 40
0.5
  0
ENDBLK
  5
92
330
90
100
AcDbEntity
  8
0
100
AcDbBlockEnd
  0
BLOCK
  5
94
330
93
100
AcDbEntity
  8
0
100
AcDbBlockBegin
  2
EX_WNORM
 70
     0
 10
0.0
 20
0.0
 30
0.0
  3
EX_WNORM
  1

  0
LINE
  5
BB
330
93
100
AcDbEntity
  8
0
  6
CONTINUOUS
 62
     0
100
AcDbLine
 10
-1.0
 20
0.0
 30
0.0
 11
-1.0
 21
0.0
 31
0.0
  0
LINE
  5
BC
330
93
100
AcDbEntity
  8
0
  6
CONTINUOUS
 62
     0
100
AcDbLine
 10
0.0
 20
0.0
 30
0.0
 11
-1.0
 21
0.166666667
 31
0.0
  0
LINE
  5
BD
330
93
100
AcDbEntity
  8
0
  6
CONTINUOUS
 62
     0
100
AcDbLine
 10
0.0
 20
0.0
 30
0.0
 11
-1.0
 21
-0.166666667
 31
0.0
  0
LINE
  5
BE
330
93
100
AcDbEntity
  8
0
  6
CONTINUOUS
 62
     0
100
AcDbLine
 10
-1.0
 20
0.166666667
 30
0.0
 11
-1.0
 21
-0.166666667
 31
0.0
  0
ENDBLK
  5
95
330
93
100
AcDbEntity
  8
0
100
AcDbBlockEnd
  0
BLOCK
  5
97
330
96
100
AcDbEntity
  8
0
100
AcDbBlockBegin
  2
EX_NNORM
 70
     0
 10
0.0
 20
0.0
 30
0.0
  3
EX_NNORM
  1

  0
LINE
  5
BF
330
96
100
AcDbEntity
  8
0
  6
CONTINUOUS
 62
     0
100
AcDbLine
 10
0.0
 20
0.0
 30
0.0
 11
-1.0
 21
0.0
 31
0.0
  0
LINE
  5
C0
330
96
100
AcDbEntity
  8
0
  6
CONTINUOUS
 62
     0
100
AcDbLine
 10
0.0
 20
0.0
 30
0.0
 11
-1.0
 21
0.166666667
 31
0.0
  0
LINE
  5
C1
330
96
100
AcDbEntity
  8
0
  6
CONTINUOUS
 62
     0
100
AcDbLine
 10
0.0
 20
0.0
 30
0.0
 11
-1.0
 21
-0.166666667
 31
0.0
  0
LINE
  5
C2
330
96
100
AcDbEntity
  8
0
  6
CONTINUOUS
 62
     0
100
AcDbLine
 10
-1.0
 20
0.166666667
 30
0.0
 11
-1.0
 21
-0.166666667
 31
0.0
  0
ENDBLK
  5
98
330
96
100
AcDbEntity
  8
0
100
AcDbBlockEnd
  0
BLOCK
  5
9A
330
99
100
AcDbEntity
  8
0
100
AcDbBlockBegin
  2
EX_BBOX
 70
     0
 10
0.0
 20
0.0
 30
0.0
  3
EX_BBOX
  1

  0
LINE
  5
C3
330
99
100
AcDbEntity
  8
0
  6
CONTINUOUS
 62
     0
100
AcDbLine
 10
0.0
 20
0.0
 30
0.0
 11
-1.0
 21
0.0
 31
0.0
  0
LINE
  5
C4
330
99
100
AcDbEntity
  8
0
  6
CONTINUOUS
 62
     0
100
AcDbLine
 10
-0.5
 20
0.5
 30
0.0
 11
0.5
 21
0.5
 31
0.0
  0
LINE
  5
C5
330
99
100
AcDbEntity
  8
0
  6
CONTINUOUS
 62
     0
100
AcDbLine
 10
0.5
 20
0.5
 30
0.0
 11
0.5
 21
-0.5
 31
0.0
  0
LINE
  5
C6
330
99
100
AcDbEntity
  8
0
  6
CONTINUOUS
 62
     0
100
AcDbLine
 10
0.5
 20
-0.5
 30
0.0
 11
-0.5
 21
-0.5
 31
0.0
  0
LINE
  5
C7
330
99
100
AcDbEntity
  8
0
  6
CONTINUOUS
 62
     0
100
AcDbLine
 10
-0.5
 20
-0.5
 30
0.0
 11
-0.5
 21
0.5
 31
0.0
  0
LINE
  5
C8
330
99
100
AcDbEntity
  8
0
  6
CONTINUOUS
 62
     0
100
AcDbLine
 10
-0.25
 20
0.25
 30
0.0
 11
0.25
 21
0.25
 31
0.0
  0
LINE
  5
C9
330
99
100
AcDbEntity
  8
0
  6
CONTINUOUS
 62
     0
100
AcDbLine
 10
0.25
 20
0.25
 30
0.0
 11
0.25
 21
-0.25
 31
0.0
  0
LINE
  5
CA
330
99
100
AcDbEntity
  8
0
  6
CONTINUOUS
 62
     0
100
AcDbLine
 10
0.25
 20
-0.25
 30
0.0
 11
-0.25
 21
-0.25
 31
0.0
  0
LINE
  5
CB
330
99
100
AcDbEntity
  8
0
  6
CONTINUOUS
 62
     0
100
AcDbLine
 10
-0.25
 20
-0.25
 30
0.0
 11
-0.25
 21
0.25
 31
0.0
  0
ENDBLK
  5
9B
330
99
100
AcDbEntity
  8
0
100
AcDbBlockEnd
  0
BLOCK
  5
9D
330
9C
100
AcDbEntity
  8
0
100
AcDbBlockBegin
  2
EX_WBOX
 70
     0
 10
0.0
 20
0.0
 30
0.0
  3
EX_WBOX
  1

  0
LINE
  5
CC
330
9C
100
AcDbEntity
  8
0
  6
CONTINUOUS
 62
     0
100
AcDbLine
 10
-0.5
 20
0.0
 30
0.0
 11
-1.0
 21
0.0
 31
0.0
  0
LINE
  5
CD
330
9C
100
AcDbEntity
  8
0
  6
CONTINUOUS
 62
     0
100
AcDbLine
 10
-0.5
 20
0.5
 30
0.0
 11
0.5
 21
0.5
 31
0.0
  0
LINE
  5
CE
330
9C
100
AcDbEntity
  8
0
  6
CONTINUOUS
 62
     0
100
AcDbLine
 10
0.5
 20
0.5
 30
0.0
 11
0.5
 21
-0.5
 31
0.0
  0
LINE
  5
CF
330
9C
100
AcDbEntity
  8
0
  6
CONTINUOUS
 62
     0
100
AcDbLine
 10
0.5
 20
-0.5
 30
0.0
 11
-0.5
 21
-0.5
 31
0.0
  0
LINE
  5
D0
330
9C
100
AcDbEntity
  8
0
  6
CONTINUOUS
 62
     0
100
AcDbLine
 10
-0.5
 20
-0.5
 30
0.0
 11
-0.5
 21
0.5
 31
0.0
  0
ENDBLK
  5
9E
330
9C
100
AcDbEntity
  8
0
100
AcDbBlockEnd
  0
BLOCK
  5
A0
330
9F
100
AcDbEntity
  8
0
100
AcDbBlockBegin
  2
EX_INTEGRAL
 70
     0
 10
0.0
 20
0.0
 30
0.0
  3
EX_INTEGRAL
  1

  0
LINE
  5
D1
330
9F
100
AcDbEntity
  8
0
  6
CONTINUOUS
 62
     0
100
AcDbLine
 10
0.0
 20
0.0
 30
0.0
 11
-1.0
 21
0.0
 31
0.0
  0
ARC
  5
D2
330
9F
100
AcDbEntity
  8
0
  6
CONTINUOUS
 62
     0
100
AcDbCircle
 10
0.542115
 20
0.164992
 30
0.0
 40
0.56667
100
AcDbArc
 50
73.07249033629006
 51
196.9275130221199
  0
ARC
  5
D3
330
9F
100
AcDbEntity
  8
0
  6
CONTINUOUS
 62
     0
100
AcDbCircle
 10
-0.542115
 20
-0.164992
 30
0.0
 40
0.56667
100
AcDbArc
 50
253.0724869220464
 51
16.9275130559125
  0
ENDBLK
  5
A1
330
9F
100
AcDbEntity
  8
0
100
AcDbBlockEnd
  0
BLOCK
  5
347
330
346
100
AcDbEntity
  8
0
100
AcDbBlockBegin
  2
*D15
 70
     1
 10
0.0
 20
0.0
 30
0.0
  3
*D15
  1

  0
LINE
  5
349
330
346
100
AcDbEntity
  8
LAY-20
  6
CONTINUOUS
 62
     4
100
AcDbLine
 10
341.5
 20
142.1986412405
 30
0.0
 11
341.5
 21
53.19864124049798
 31
0.0
  0
LINE
  5
34A
330
346
100
AcDbEntity
  8
LAY-20
  6
CONTINUOUS
 62
     4
100
AcDbLine
 10
278.5
 20
142.1986412405
 30
0.0
 11
278.5
 21
53.19864124049798
 31
0.0
  0
LINE
  5
34B
330
346
100
AcDbEntity
  8
LAY-20
  6
CONTINUOUS
 62
     4
100
AcDbLine
 10
336.5
 20
56.19864124049798
 30
0.0
 11
283.5
 21
56.19864124049798
 31
0.0
  0
INSERT
  5
34C
330
346
100
AcDbEntity
  8
LAY-20
 62
     4
100
AcDbBlockReference
  2
EX_BNORM
 10
341.5
 20
56.19864124049798
 30
0.0
 41
5.0
 42
5.0
 43
5.0
  0
INSERT
  5
34D
330
346
100
AcDbEntity
  8
LAY-20
 62
     4
100
AcDbBlockReference
  2
EX_BNORM
 10
278.5
 20
56.19864124049798
 30
0.0
 41
5.0
 42
5.0
 43
5.0
 50
180.0
  0
MTEXT
  5
34E
330
346
100
AcDbEntity
  8
LAY-20
 62
     7
100
AcDbMText
 10
310.0
 20
61.19864124049798
 30
0.0
 40
6.2362208
 41
0.0
 71
     5
 72
     1
  1
%%c63
  7
EXCADDIM1
  0
POINT
  5
34F
330
346
100
AcDbEntity
  8
DEFPOINTS
 62
     0
100
AcDbPoint
 10
341.5
 20
145.1986412405
 30
0.0
  0
POINT
  5
350
330
346
100
AcDbEntity
  8
DEFPOINTS
 62
     0
100
AcDbPoint
 10
278.5
 20
145.1986412405
 30
0.0
  0
POINT
  5
351
330
346
100
AcDbEntity
  8
DEFPOINTS
 62
     0
100
AcDbPoint
 10
278.5
 20
56.19864124049798
 30
0.0
  0
ENDBLK
  5
348
330
346
100
AcDbEntity
  8
0
100
AcDbBlockEnd
  0
BLOCK
  5
354
330
353
100
AcDbEntity
  8
0
100
AcDbBlockBegin
  2
*D16
 70
     1
 10
0.0
 20
0.0
 30
0.0
  3
*D16
  1

  0
LINE
  5
356
330
353
100
AcDbEntity
  8
LAY-20
  6
CONTINUOUS
 62
     4
100
AcDbLine
 10
280.0
 20
102.198641240496
 30
0.0
 11
280.0
 21
67.19864124049798
 31
0.0
  0
LINE
  5
357
330
353
100
AcDbEntity
  8
LAY-20
  6
CONTINUOUS
 62
     4
100
AcDbLine
 10
340.0
 20
102.198641240496
 30
0.0
 11
340.0
 21
67.19864124049798
 31
0.0
  0
LINE
  5
358
330
353
100
AcDbEntity
  8
LAY-20
  6
CONTINUOUS
 62
     4
100
AcDbLine
 10
285.0
 20
70.19864124049798
 30
0.0
 11
335.0
 21
70.19864124049798
 31
0.0
  0
INSERT
  5
359
330
353
100
AcDbEntity
  8
LAY-20
 62
     4
100
AcDbBlockReference
  2
EX_BNORM
 10
280.0
 20
70.19864124049798
 30
0.0
 41
5.0
 42
5.0
 43
5.0
 50
180.0
  0
INSERT
  5
35A
330
353
100
AcDbEntity
  8
LAY-20
 62
     4
100
AcDbBlockReference
  2
EX_BNORM
 10
340.0
 20
70.19864124049798
 30
0.0
 41
5.0
 42
5.0
 43
5.0
  0
MTEXT
  5
35B
330
353
100
AcDbEntity
  8
LAY-20
 62
     7
100
AcDbMText
 10
310.0
 20
75.19864124049798
 30
0.0
 40
6.2362208
 41
0.0
 71
     5
 72
     1
  1
%%c60
  7
EXCADDIM1
  0
POINT
  5
35C
330
353
100
AcDbEntity
  8
DEFPOINTS
 62
     0
100
AcDbPoint
 10
280.0
 20
105.198641240496
 30
0.0
  0
POINT
  5
35D
330
353
100
AcDbEntity
  8
DEFPOINTS
 62
     0
100
AcDbPoint
 10
340.0
 20
105.198641240496
 30
0.0
  0
POINT
  5
35E
330
353
100
AcDbEntity
  8
DEFPOINTS
 62
     0
100
AcDbPoint
 10
340.0
 20
70.19864124049798
 30
0.0
  0
ENDBLK
  5
355
330
353
100
AcDbEntity
  8
0
100
AcDbBlockEnd
  0
BLOCK
  5
361
330
360
100
AcDbEntity
  8
0
100
AcDbBlockBegin
  2
*D17
 70
     1
 10
0.0
 20
0.0
 30
0.0
  3
*D17
  1

  0
LINE
  5
363
330
360
100
AcDbEntity
  8
LAY-20
  6
CONTINUOUS
 62
     4
100
AcDbLine
 10
399.999999999998
 20
166.1986412405
 30
0.0
 11
399.999999999998
 21
320.99999999999
 31
0.0
  0
LINE
  5
364
330
360
100
AcDbEntity
  8
LAY-20
  6
CONTINUOUS
 62
     4
100
AcDbLine
 10
220.0
 20
166.19864124052
 30
0.0
 11
220.0
 21
320.99999999999
 31
0.0
  0
LINE
  5
365
330
360
100
AcDbEntity
  8
LAY-20
  6
CONTINUOUS
 62
     4
100
AcDbLine
 10
394.999999999998
 20
317.99999999999
 30
0.0
 11
225.0
 21
317.99999999999
 31
0.0
  0
INSERT
  5
366
330
360
100
AcDbEntity
  8
LAY-20
 62
     4
100
AcDbBlockReference
  2
EX_BNORM
 10
399.999999999998
 20
317.99999999999
 30
0.0
 41
5.0
 42
5.0
 43
5.0
  0
INSERT
  5
367
330
360
100
AcDbEntity
  8
LAY-20
 62
     4
100
AcDbBlockReference
  2
EX_BNORM
 10
220.0
 20
317.99999999999
 30
0.0
 41
5.0
 42
5.0
 43
5.0
 50
180.0
  0
MTEXT
  5
368
330
360
100
AcDbEntity
  8
LAY-20
 62
     7
100
AcDbMText
 10
309.9999999999991
 20
322.9999999999899
 30
0.0
 40
6.2362208
 41
0.0
 71
     5
 72
     1
  1
%%c180
  7
EXCADDIM1
  0
POINT
  5
369
330
360
100
AcDbEntity
  8
DEFPOINTS
 62
     0
100
AcDbPoint
 10
399.999999999998
 20
163.1986412405
 30
0.0
  0
POINT
  5
36A
330
360
100
AcDbEntity
  8
DEFPOINTS
 62
     0
100
AcDbPoint
 10
220.0
 20
163.19864124052
 30
0.0
  0
POINT
  5
36B
330
360
100
AcDbEntity
  8
DEFPOINTS
 62
     0
100
AcDbPoint
 10
220.0
 20
317.99999999999
 30
0.0
  0
ENDBLK
  5
362
330
360
100
AcDbEntity
  8
0
100
AcDbBlockEnd
  0
BLOCK
  5
36E
330
36D
100
AcDbEntity
  8
0
100
AcDbBlockBegin
  2
*D18
 70
     1
 10
0.0
 20
0.0
 30
0.0
  3
*D18
  1

  0
LINE
  5
370
330
36D
100
AcDbEntity
  8
LAY-20
  6
CONTINUOUS
 62
     4
100
AcDbLine
 10
229.99999999999
 20
175.99999999999
 30
0.0
 11
229.99999999999
 21
306.99999999999
 31
0.0
  0
LINE
  5
371
330
36D
100
AcDbEntity
  8
LAY-20
  6
CONTINUOUS
 62
     4
100
AcDbLine
 10
390.000000000005
 20
175.99999999999
 30
0.0
 11
390.000000000005
 21
306.99999999999
 31
0.0
  0
LINE
  5
372
330
36D
100
AcDbEntity
  8
LAY-20
  6
CONTINUOUS
 62
     4
100
AcDbLine
 10
234.99999999999
 20
303.99999999999
 30
0.0
 11
385.000000000005
 21
303.99999999999
 31
0.0
  0
INSERT
  5
373
330
36D
100
AcDbEntity
  8
LAY-20
 62
     4
100
AcDbBlockReference
  2
EX_BNORM
 10
229.99999999999
 20
303.99999999999
 30
0.0
 41
5.0
 42
5.0
 43
5.0
 50
180.0
  0
INSERT
  5
374
330
36D
100
AcDbEntity
  8
LAY-20
 62
     4
100
AcDbBlockReference
  2
EX_BNORM
 10
390.000000000005
 20
303.99999999999
 30
0.0
 41
5.0
 42
5.0
 43
5.0
  0
MTEXT
  5
375
330
36D
100
AcDbEntity
  8
LAY-20
 62
     7
100
AcDbMText
 10
309.9999999999975
 20
308.99999999999
 30
0.0
 40
6.2362208
 41
0.0
 71
     5
 72
     1
  1
%%c160
  7
EXCADDIM1
  0
POINT
  5
376
330
36D
100
AcDbEntity
  8
DEFPOINTS
 62
     0
100
AcDbPoint
 10
229.99999999999
 20
172.99999999999
 30
0.0
  0
POINT
  5
377
330
36D
100
AcDbEntity
  8
DEFPOINTS
 62
     0
100
AcDbPoint
 10
390.000000000005
 20
172.99999999999
 30
0.0
  0
POINT
  5
378
330
36D
100
AcDbEntity
  8
DEFPOINTS
 62
     0
100
AcDbPoint
 10
390.000000000005
 20
303.99999999999
 30
0.0
  0
ENDBLK
  5
36F
330
36D
100
AcDbEntity
  8
0
100
AcDbBlockEnd
  0
BLOCK
  5
37B
330
37A
100
AcDbEntity
  8
0
100
AcDbBlockBegin
  2
*D19
 70
     1
 10
0.0
 20
0.0
 30
0.0
  3
*D19
  1

  0
LINE
  5
37D
330
37A
100
AcDbEntity
  8
LAY-20
  6
CONTINUOUS
 62
     4
100
AcDbLine
 10
262.5
 20
145.09219080143
 30
0.0
 11
197.0
 21
145.09219080143
 31
0.0
  0
LINE
  5
37E
330
37A
100
AcDbEntity
  8
LAY-20
  6
CONTINUOUS
 62
     4
100
AcDbLine
 10
218.0
 20
170.1986412405
 30
0.0
 11
197.0
 21
170.1986412405
 31
0.0
  0
LINE
  5
37F
330
37A
100
AcDbEntity
  8
LAY-20
  6
CONTINUOUS
 62
     4
100
AcDbLine
 10
200.0
 20
150.09219080143
 30
0.0
 11
200.0
 21
165.1986412405
 31
0.0
  0
INSERT
  5
380
330
37A
100
AcDbEntity
  8
LAY-20
 62
     4
100
AcDbBlockReference
  2
EX_BNORM
 10
200.0
 20
145.09219080143
 30
0.0
 41
5.0
 42
5.0
 43
5.0
 50
270.0
  0
INSERT
  5
381
330
37A
100
AcDbEntity
  8
LAY-20
 62
     4
100
AcDbBlockReference
  2
EX_BNORM
 10
200.0
 20
170.1986412405
 30
0.0
 41
5.0
 42
5.0
 43
5.0
 50
90.0
  0
MTEXT
  5
382
330
37A
100
AcDbEntity
  8
LAY-20
 62
     7
100
AcDbMText
 10
195.0
 20
157.645416020965
 30
0.0
 40
6.2362208
 41
0.0
 71
     5
 72
     1
  1
25
  7
EXCADDIM1
 11
0.0
 21
1.0
 31
0.0
  0
POINT
  5
383
330
37A
100
AcDbEntity
  8
DEFPOINTS
 62
     0
100
AcDbPoint
 10
265.5
 20
145.09219080143
 30
0.0
  0
POINT
  5
384
330
37A
100
AcDbEntity
  8
DEFPOINTS
 62
     0
100
AcDbPoint
 10
221.0
 20
170.1986412405
 30
0.0
  0
POINT
  5
385
330
37A
100
AcDbEntity
  8
DEFPOINTS
 62
     0
100
AcDbPoint
 10
200.0
 20
170.1986412405
 30
0.0
  0
ENDBLK
  5
37C
330
37A
100
AcDbEntity
  8
0
100
AcDbBlockEnd
  0
BLOCK
  5
388
330
387
100
AcDbEntity
  8
0
100
AcDbBlockBegin
  2
*D20
 70
     1
 10
0.0
 20
0.0
 30
0.0
  3
*D20
  1

  0
LINE
  5
38A
330
387
100
AcDbEntity
  8
LAY-20
  6
CONTINUOUS
 62
     4
100
AcDbLine
 10
371.0
 20
177.99999999999
 30
0.0
 11
371.0
 21
292.99999999999
 31
0.0
  0
LINE
  5
38B
330
387
100
AcDbEntity
  8
LAY-20
  6
CONTINUOUS
 62
     4
100
AcDbLine
 10
249.0
 20
177.99999999999
 30
0.0
 11
249.0
 21
292.99999999999
 31
0.0
  0
LINE
  5
38C
330
387
100
AcDbEntity
  8
LAY-20
  6
CONTINUOUS
 62
     4
100
AcDbLine
 10
366.0
 20
289.99999999999
 30
0.0
 11
254.0
 21
289.99999999999
 31
0.0
  0
INSERT
  5
38D
330
387
100
AcDbEntity
  8
LAY-20
 62
     4
100
AcDbBlockReference
  2
EX_BNORM
 10
371.0
 20
289.99999999999
 30
0.0
 41
5.0
 42
5.0
 43
5.0
  0
INSERT
  5
38E
330
387
100
AcDbEntity
  8
LAY-20
 62
     4
100
AcDbBlockReference
  2
EX_BNORM
 10
249.0
 20
289.99999999999
 30
0.0
 41
5.0
 42
5.0
 43
5.0
 50
180.0
  0
MTEXT
  5
38F
330
387
100
AcDbEntity
  8
LAY-20
 62
     7
100
AcDbMText
 10
310.0
 20
294.99999999999
 30
0.0
 40
6.2362208
 41
0.0
 71
     5
 72
     1
  1
%%c122
  7
EXCADDIM1
  0
POINT
  5
390
330
387
100
AcDbEntity
  8
DEFPOINTS
 62
     0
100
AcDbPoint
 10
371.0
 20
174.99999999999
 30
0.0
  0
POINT
  5
391
330
387
100
AcDbEntity
  8
DEFPOINTS
 62
     0
100
AcDbPoint
 10
249.0
 20
174.99999999999
 30
0.0
  0
POINT
  5
392
330
387
100
AcDbEntity
  8
DEFPOINTS
 62
     0
100
AcDbPoint
 10
249.0
 20
289.99999999999
 30
0.0
  0
ENDBLK
  5
389
330
387
100
AcDbEntity
  8
0
100
AcDbBlockEnd
  0
BLOCK
  5
395
330
394
100
AcDbEntity
  8
0
100
AcDbBlockBegin
  2
*D21
 70
     1
 10
0.0
 20
0.0
 30
0.0
  3
*D21
  1

  0
LINE
  5
397
330
394
100
AcDbEntity
  8
LAY-20
  6
CONTINUOUS
 62
     4
100
AcDbLine
 10
357.5
 20
90.198641240498
 30
0.0
 11
423.0
 21
90.198641240498
 31
0.0
  0
LINE
  5
398
330
394
100
AcDbEntity
  8
LAY-20
  6
CONTINUOUS
 62
     4
100
AcDbLine
 10
402.0
 20
170.1986412405
 30
0.0
 11
423.0
 21
170.1986412405
 31
0.0
  0
LINE
  5
399
330
394
100
AcDbEntity
  8
LAY-20
  6
CONTINUOUS
 62
     4
100
AcDbLine
 10
420.0
 20
95.198641240498
 30
0.0
 11
420.0
 21
165.1986412405
 31
0.0
  0
INSERT
  5
39A
330
394
100
AcDbEntity
  8
LAY-20
 62
     4
100
AcDbBlockReference
  2
EX_BNORM
 10
420.0
 20
90.198641240498
 30
0.0
 41
5.0
 42
5.0
 43
5.0
 50
270.0
  0
INSERT
  5
39B
330
394
100
AcDbEntity
  8
LAY-20
 62
     4
100
AcDbBlockReference
  2
EX_BNORM
 10
420.0
 20
170.1986412405
 30
0.0
 41
5.0
 42
5.0
 43
5.0
 50
90.0
  0
MTEXT
  5
39C
330
394
100
AcDbEntity
  8
LAY-20
 62
     7
100
AcDbMText
 10
415.0
 20
130.198641240499
 30
0.0
 40
6.2362208
 41
0.0
 71
     5
 72
     1
  1
80
  7
EXCADDIM1
 11
0.0
 21
1.0
 31
0.0
  0
POINT
  5
39D
330
394
100
AcDbEntity
  8
DEFPOINTS
 62
     0
100
AcDbPoint
 10
354.5
 20
90.198641240498
 30
0.0
  0
POINT
  5
39E
330
394
100
AcDbEntity
  8
DEFPOINTS
 62
     0
100
AcDbPoint
 10
399.0
 20
170.1986412405
 30
0.0
  0
POINT
  5
39F
330
394
100
AcDbEntity
  8
DEFPOINTS
 62
     0
100
AcDbPoint
 10
420.0
 20
170.1986412405
 30
0.0
  0
ENDBLK
  5
396
330
394
100
AcDbEntity
  8
0
100
AcDbBlockEnd
  0
BLOCK
  5
3A2
330
3A1
100
AcDbEntity
  8
0
100
AcDbBlockBegin
  2
*D22
 70
     1
 10
0.0
 20
0.0
 30
0.0
  3
*D22
  1

  0
LINE
  5
3A4
330
3A1
100
AcDbEntity
  8
LAY-20
  6
CONTINUOUS
 62
     4
100
AcDbLine
 10
313.0
 20
269.99999999999
 30
0.0
 11
423.0
 21
269.99999999999
 31
0.0
  0
LINE
  5
3A5
330
3A1
100
AcDbEntity
  8
LAY-20
  6
CONTINUOUS
 62
     4
100
AcDbLine
 10
420.0
 20
175.1986412405
 30
0.0
 11
420.0
 21
264.99999999999
 31
0.0
  0
INSERT
  5
3A6
330
3A1
100
AcDbEntity
  8
LAY-20
 62
     4
100
AcDbBlockReference
  2
EX_BNORM
 10
420.0
 20
170.1986412405
 30
0.0
 41
5.0
 42
5.0
 43
5.0
 50
270.0
  0
INSERT
  5
3A7
330
3A1
100
AcDbEntity
  8
LAY-20
 62
     4
100
AcDbBlockReference
  2
EX_BNORM
 10
420.0
 20
269.99999999999
 30
0.0
 41
5.0
 42
5.0
 43
5.0
 50
90.0
  0
MTEXT
  5
3A8
330
3A1
100
AcDbEntity
  8
LAY-20
 62
     7
100
AcDbMText
 10
415.0
 20
220.099320620245
 30
0.0
 40
6.2362208
 41
0.0
 71
     5
 72
     1
  1
100
  7
EXCADDIM1
 11
0.0
 21
1.0
 31
0.0
  0
POINT
  5
3A9
330
3A1
100
AcDbEntity
  8
DEFPOINTS
 62
     0
100
AcDbPoint
 10
420.0
 20
170.1986412405
 30
0.0
  0
POINT
  5
3AA
330
3A1
100
AcDbEntity
  8
DEFPOINTS
 62
     0
100
AcDbPoint
 10
310.0
 20
269.99999999999
 30
0.0
  0
POINT
  5
3AB
330
3A1
100
AcDbEntity
  8
DEFPOINTS
 62
     0
100
AcDbPoint
 10
420.0
 20
269.99999999999
 30
0.0
  0
ENDBLK
  5
3A3
330
3A1
100
AcDbEntity
  8
0
100
AcDbBlockEnd
  0
ENDSEC
  0
SECTION
  2
ENTITIES
  0
LINE
  5
D4
330
1F
100
AcDbEntity
  8
LAY-10
  6
CONTINUOUS
 62
     7
100
AcDbLine
 10
265.4999999999952
 20
143.9387566106708
 30
0.0
 11
266.6534341907538
 21
145.0921908014294
 31
0.0
  0
LINE
  5
D5
330
1F
100
AcDbEntity
  8
LAY-10
  6
CONTINUOUS
 62
     7
100
AcDbLine
 10
265.4999999999952
 20
141.1103294859246
 30
0.0
 11
268.4999999999983
 21
144.1103294859277
 31
0.0
  0
LINE
  5
D6
330
1F
100
AcDbEntity
  8
LAY-10
  6
CONTINUOUS
 62
     7
100
AcDbLine
 10
265.4999999999952
 20
138.2819023611784
 30
0.0
 11
268.4999999999983
 21
141.2819023611816
 31
0.0
  0
LINE
  5
D7
330
1F
100
AcDbEntity
  8
LAY-10
  6
CONTINUOUS
 62
     7
100
AcDbLine
 10
265.4999999999952
 20
135.4534752364323
 30
0.0
 11
268.4999999999983
 21
138.4534752364353
 31
0.0
  0
LINE
  5
D8
330
1F
100
AcDbEntity
  8
LAY-10
  6
CONTINUOUS
 62
     7
100
AcDbLine
 10
265.4999999999952
 20
132.6250481116861
 30
0.0
 11
268.4999999999983
 21
135.6250481116891
 31
0.0
  0
LINE
  5
D9
330
1F
100
AcDbEntity
  8
LAY-10
  6
CONTINUOUS
 62
     7
100
AcDbLine
 10
265.4999999999952
 20
129.7966209869398
 30
0.0
 11
268.4999999999983
 21
132.7966209869429
 31
0.0
  0
LINE
  5
DA
330
1F
100
AcDbEntity
  8
LAY-10
  6
CONTINUOUS
 62
     7
100
AcDbLine
 10
265.4999999999952
 20
126.9681938621937
 30
0.0
 11
268.5000000000009
 21
129.9681938621993
 31
0.0
  0
LINE
  5
DB
330
1F
100
AcDbEntity
  8
LAY-10
  6
CONTINUOUS
 62
     7
100
AcDbLine
 10
265.4999999999952
 20
124.1397667374475
 30
0.0
 11
268.5000000000009
 21
127.1397667374532
 31
0.0
  0
LINE
  5
DC
330
1F
100
AcDbEntity
  8
LAY-10
  6
CONTINUOUS
 62
     7
100
AcDbLine
 10
265.4999999999952
 20
121.3113396127013
 30
0.0
 11
268.5000000000009
 21
124.3113396127069
 31
0.0
  0
LINE
  5
DD
330
1F
100
AcDbEntity
  8
LAY-10
  6
CONTINUOUS
 62
     7
100
AcDbLine
 10
265.4999999999978
 20
118.4829124879577
 30
0.0
 11
268.5000000000009
 21
121.4829124879608
 31
0.0
  0
LINE
  5
DE
330
1F
100
AcDbEntity
  8
LAY-10
  6
CONTINUOUS
 62
     7
100
AcDbLine
 10
265.4999999999978
 20
115.6544853632115
 30
0.0
 11
268.4999999999983
 21
118.654485363212
 31
0.0
  0
LINE
  5
DF
330
1F
100
AcDbEntity
  8
LAY-10
  6
CONTINUOUS
 62
     7
100
AcDbLine
 10
265.4999999999952
 20
112.8260582384627
 30
0.0
 11
268.4999999999983
 21
115.8260582384658
 31
0.0
  0
LINE
  5
E0
330
1F
100
AcDbEntity
  8
LAY-10
  6
CONTINUOUS
 62
     7
100
AcDbLine
 10
265.4999999999952
 20
109.9976311137165
 30
0.0
 11
268.4999999999983
 21
112.9976311137196
 31
0.0
  0
LINE
  5
E1
330
1F
100
AcDbEntity
  8
LAY-10
  6
CONTINUOUS
 62
     7
100
AcDbLine
 10
265.4999999999952
 20
107.1692039889704
 30
0.0
 11
268.4999999999983
 21
110.1692039889734
 31
0.0
  0
LINE
  5
E2
330
1F
100
AcDbEntity
  8
LAY-10
  6
CONTINUOUS
 62
     7
100
AcDbLine
 10
265.4999999999952
 20
104.3407768642242
 30
0.0
 11
268.4999999999983
 21
107.3407768642272
 31
0.0
  0
LINE
  5
E3
330
1F
100
AcDbEntity
  8
LAY-10
  6
CONTINUOUS
 62
     7
100
AcDbLine
 10
265.4999999999952
 20
101.5123497394779
 30
0.0
 11
268.4999999999983
 21
104.512349739481
 31
0.0
  0
LINE
  5
E4
330
1F
100
AcDbEntity
  8
LAY-10
  6
CONTINUOUS
 62
     7
100
AcDbLine
 10
265.4999999999952
 20
98.68392261473178
 30
0.0
 11
268.4999999999983
 21
101.6839226147349
 31
0.0
  0
LINE
  5
E5
330
1F
100
AcDbEntity
  8
LAY-10
  6
CONTINUOUS
 62
     7
100
AcDbLine
 10
265.4999999999952
 20
95.85549548998557
 30
0.0
 11
268.4999999999983
 21
98.8554954899887
 31
0.0
  0
LINE
  5
E6
330
1F
100
AcDbEntity
  8
LAY-10
  6
CONTINUOUS
 62
     7
100
AcDbLine
 10
265.4999999999952
 20
93.02706836523942
 30
0.0
 11
268.4999999999983
 21
96.02706836524249
 31
0.0
  0
LINE
  5
E7
330
1F
100
AcDbEntity
  8
LAY-10
  6
CONTINUOUS
 62
     7
100
AcDbLine
 10
265.5000000000003
 20
90.19864124049838
 30
0.0
 11
268.4999999999983
 21
93.19864124049627
 31
0.0
  0
LINE
  5
E8
330
1F
100
AcDbEntity
  8
LAY-10
  6
CONTINUOUS
 62
     7
100
AcDbLine
 10
268.3284271247466
 20
90.19864124049832
 30
0.0
 11
268.4999999999983
 21
90.37021411575006
 31
0.0
  0
LINE
  5
E9
330
1F
100
AcDbEntity
  8
LAY-10
  6
CONTINUOUS
 62
     7
100
AcDbLine
 10
351.4999999999973
 20
143.938756610673
 30
0.0
 11
352.6534341907534
 21
145.092190801429
 31
0.0
  0
LINE
  5
EA
330
1F
100
AcDbEntity
  8
LAY-10
  6
CONTINUOUS
 62
     7
100
AcDbLine
 10
351.4999999999999
 20
141.1103294859293
 30
0.0
 11
354.5000000000004
 21
144.1103294859298
 31
0.0
  0
LINE
  5
EB
330
1F
100
AcDbEntity
  8
LAY-10
  6
CONTINUOUS
 62
     7
100
AcDbLine
 10
351.4999999999999
 20
138.2819023611831
 30
0.0
 11
354.5000000000004
 21
141.2819023611836
 31
0.0
  0
LINE
  5
EC
330
1F
100
AcDbEntity
  8
LAY-10
  6
CONTINUOUS
 62
     7
100
AcDbLine
 10
351.4999999999999
 20
135.4534752364369
 30
0.0
 11
354.5000000000004
 21
138.4534752364374
 31
0.0
  0
LINE
  5
ED
330
1F
100
AcDbEntity
  8
LAY-10
  6
CONTINUOUS
 62
     7
100
AcDbLine
 10
351.4999999999999
 20
132.6250481116907
 30
0.0
 11
354.5000000000004
 21
135.6250481116912
 31
0.0
  0
LINE
  5
EE
330
1F
100
AcDbEntity
  8
LAY-10
  6
CONTINUOUS
 62
     7
100
AcDbLine
 10
351.4999999999999
 20
129.7966209869446
 30
0.0
 11
354.5000000000004
 21
132.7966209869451
 31
0.0
  0
LINE
  5
EF
330
1F
100
AcDbEntity
  8
LAY-10
  6
CONTINUOUS
 62
     7
100
AcDbLine
 10
351.4999999999999
 20
126.9681938621983
 30
0.0
 11
354.5000000000004
 21
129.9681938621989
 31
0.0
  0
LINE
  5
F0
330
1F
100
AcDbEntity
  8
LAY-10
  6
CONTINUOUS
 62
     7
100
AcDbLine
 10
351.4999999999999
 20
124.1397667374522
 30
0.0
 11
354.5000000000004
 21
127.1397667374526
 31
0.0
  0
LINE
  5
F1
330
1F
100
AcDbEntity
  8
LAY-10
  6
CONTINUOUS
 62
     7
100
AcDbLine
 10
351.4999999999999
 20
121.311339612706
 30
0.0
 11
354.5000000000004
 21
124.3113396127065
 31
0.0
  0
LINE
  5
F2
330
1F
100
AcDbEntity
  8
LAY-10
  6
CONTINUOUS
 62
     7
100
AcDbLine
 10
351.4999999999999
 20
118.4829124879598
 30
0.0
 11
354.5000000000004
 21
121.4829124879603
 31
0.0
  0
LINE
  5
F3
330
1F
100
AcDbEntity
  8
LAY-10
  6
CONTINUOUS
 62
     7
100
AcDbLine
 10
351.4999999999999
 20
115.6544853632136
 30
0.0
 11
354.4999999999978
 21
118.6544853632115
 31
0.0
  0
LINE
  5
F4
330
1F
100
AcDbEntity
  8
LAY-10
  6
CONTINUOUS
 62
     7
100
AcDbLine
 10
351.4999999999999
 20
112.8260582384674
 30
0.0
 11
354.5000000000004
 21
115.8260582384679
 31
0.0
  0
LINE
  5
F5
330
1F
100
AcDbEntity
  8
LAY-10
  6
CONTINUOUS
 62
     7
100
AcDbLine
 10
351.4999999999999
 20
109.9976311137212
 30
0.0
 11
354.5000000000004
 21
112.9976311137217
 31
0.0
  0
LINE
  5
F6
330
1F
100
AcDbEntity
  8
LAY-10
  6
CONTINUOUS
 62
     7
100
AcDbLine
 10
351.4999999999999
 20
107.169203988975
 30
0.0
 11
354.5000000000004
 21
110.1692039889755
 31
0.0
  0
LINE
  5
F7
330
1F
100
AcDbEntity
  8
LAY-10
  6
CONTINUOUS
 62
     7
100
AcDbLine
 10
351.4999999999999
 20
104.3407768642288
 30
0.0
 11
354.5000000000004
 21
107.3407768642293
 31
0.0
  0
LINE
  5
F8
330
1F
100
AcDbEntity
  8
LAY-10
  6
CONTINUOUS
 62
     7
100
AcDbLine
 10
351.4999999999999
 20
101.5123497394827
 30
0.0
 11
354.5000000000004
 21
104.5123497394832
 31
0.0
  0
LINE
  5
F9
330
1F
100
AcDbEntity
  8
LAY-10
  6
CONTINUOUS
 62
     7
100
AcDbLine
 10
351.4999999999999
 20
98.68392261473645
 30
0.0
 11
354.5000000000004
 21
101.683922614737
 31
0.0
  0
LINE
  5
FA
330
1F
100
AcDbEntity
  8
LAY-10
  6
CONTINUOUS
 62
     7
100
AcDbLine
 10
351.4999999999999
 20
95.85549548999029
 30
0.0
 11
354.5000000000004
 21
98.85549548999074
 31
0.0
  0
LINE
  5
FB
330
1F
100
AcDbEntity
  8
LAY-10
  6
CONTINUOUS
 62
     7
100
AcDbLine
 10
351.4999999999973
 20
93.02706836524152
 30
0.0
 11
354.5000000000004
 21
96.02706836524459
 31
0.0
  0
LINE
  5
FC
330
1F
100
AcDbEntity
  8
LAY-10
  6
CONTINUOUS
 62
     7
100
AcDbLine
 10
351.4999999999973
 20
90.1986412404953
 30
0.0
 11
354.4999999999978
 21
93.19864124049582
 31
0.0
  0
LINE
  5
FD
330
1F
100
AcDbEntity
  8
LAY-10
  6
CONTINUOUS
 62
     7
100
AcDbLine
 10
354.3284271247435
 20
90.1986412404953
 30
0.0
 11
354.4999999999978
 21
90.3702141157496
 31
0.0
  0
CIRCLE
  5
FE
330
1F
100
AcDbEntity
  8
LAY-10
  6
CONTINUOUS
 62
     7
100
AcDbCircle
 10
309.9999999999997
 20
439.9999999999969
 30
0.0
 40
90.00000000000007
  0
CIRCLE
  5
FF
330
1F
100
AcDbEntity
  8
LAY-10
  6
CONTINUOUS
 62
     7
100
AcDbCircle
 10
309.9999999999997
 20
439.9999999999982
 30
0.0
 40
84.00000000000007
  0
CIRCLE
  5
100
330
1F
100
AcDbEntity
  8
LAY-10
  6
CONTINUOUS
 62
     7
100
AcDbCircle
 10
309.9999999999997
 20
439.9999999999982
 30
0.0
 40
89.00000000000007
  0
CIRCLE
  5
101
330
1F
100
AcDbEntity
  8
LAY-10
  6
CONTINUOUS
 62
     7
100
AcDbCircle
 10
310.000000000002
 20
440.0000000000001
 30
0.0
 40
79.00000000000568
  0
CIRCLE
  5
102
330
1F
100
AcDbEntity
  8
LAY-10
  6
CONTINUOUS
 62
     7
100
AcDbCircle
 10
310.000000000002
 20
440.0000000000001
 30
0.0
 40
80.00000000000529
  0
LINE
  5
103
330
1F
100
AcDbEntity
  8
LAY-10
  6
CONTINUOUS
 62
     7
100
AcDbLine
 10
247.5962795345601
 20
446.0000000000001
 30
0.0
 11
247.8157965427237
 21
446.2749374804565
 31
0.0
  0
LINE
  5
104
330
1F
100
AcDbEntity
  8
LAY-10
  6
CONTINUOUS
 62
     7
100
AcDbLine
 10
247.5962795345601
 20
434.0000000000001
 30
0.0
 11
247.8157965427236
 21
433.7250625195439
 31
0.0
  0
ARC
  5
105
330
1F
100
AcDbEntity
  8
LAY-10
  6
CONTINUOUS
 62
     7
100
AcDbCircle
 10
310.000000000002
 20
440.0000000000001
 30
0.0
 40
62.49999999999857
100
AcDbArc
 50
80.02255357816077
 51
86.05493389634519
  0
ARC
  5
106
330
1F
100
AcDbEntity
  8
LAY-10
  6
CONTINUOUS
 62
     7
100
AcDbCircle
 10
310.000000000002
 20
440.0000000000001
 30
0.0
 40
68.49999999996956
100
AcDbArc
 50
80.10286071873259
 51
99.89713928126724
  0
ARC
  5
107
330
1F
100
AcDbEntity
  8
LAY-10
  6
CONTINUOUS
 62
     7
100
AcDbCircle
 10
310.000000000002
 20
440.0000000000001
 30
0.0
 40
67.49999999995212
100
AcDbArc
 50
80.93932516879565
 51
99.06067483120442
  0
ARC
  5
108
330
1F
100
AcDbEntity
  8
LAY-10
  6
CONTINUOUS
 62
     7
100
AcDbCircle
 10
310.000000000002
 20
440.0000000000001
 30
0.0
 40
63.49999999999851
100
AcDbArc
 50
80.9393251687957
 51
99.06067483120454
  0
ARC
  5
109
330
1F
100
AcDbEntity
  8
LAY-10
  6
CONTINUOUS
 62
     7
100
AcDbCircle
 10
310.000000000002
 20
440.0000000000001
 30
0.0
 40
62.49999999999857
100
AcDbArc
 50
170.0225535781553
 51
174.2378528914998
  0
ARC
  5
10A
330
1F
100
AcDbEntity
  8
LAY-10
  6
CONTINUOUS
 62
     7
100
AcDbCircle
 10
310.000000000002
 20
440.0000000000001
 30
0.0
 40
63.49999999999851
100
AcDbArc
 50
170.9393251687958
 51
189.0606748312044
  0
ARC
  5
10B
330
1F
100
AcDbEntity
  8
LAY-10
  6
CONTINUOUS
 62
     7
100
AcDbCircle
 10
310.000000000002
 20
440.0000000000001
 30
0.0
 40
67.49999999995212
100
AcDbArc
 50
170.9393251687955
 51
189.0606748312044
  0
ARC
  5
10C
330
1F
100
AcDbEntity
  8
LAY-10
  6
CONTINUOUS
 62
     7
100
AcDbCircle
 10
310.000000000002
 20
440.0000000000001
 30
0.0
 40
68.49999999996956
100
AcDbArc
 50
170.1028607187275
 51
189.8971392812725
  0
ARC
  5
10D
330
1F
100
AcDbEntity
  8
LAY-10
  6
CONTINUOUS
 62
     7
100
AcDbCircle
 10
310.000000000002
 20
440.0000000000001
 30
0.0
 40
62.49999999999857
100
AcDbArc
 50
185.7621471084998
 51
189.9774464218449
  0
LINE
  5
10E
330
1F
100
AcDbEntity
  8
LAY-10
  6
CONTINUOUS
 62
     7
100
AcDbLine
 10
372.4037204654439
 20
446.0000000000001
 30
0.0
 11
372.1842034572803
 21
446.2749374804565
 31
0.0
  0
LINE
  5
10F
330
1F
100
AcDbEntity
  8
LAY-10
  6
CONTINUOUS
 62
     7
100
AcDbLine
 10
372.4037204654439
 20
434.0000000000001
 30
0.0
 11
372.1842034572804
 21
433.7250625195439
 31
0.0
  0
ARC
  5
110
330
1F
100
AcDbEntity
  8
LAY-10
  6
CONTINUOUS
 62
     7
100
AcDbCircle
 10
310.000000000002
 20
440.0000000000001
 30
0.0
 40
62.49999999999857
100
AcDbArc
 50
5.762147108500233
 51
9.97744642184481
  0
ARC
  5
111
330
1F
100
AcDbEntity
  8
LAY-10
  6
CONTINUOUS
 62
     7
100
AcDbCircle
 10
310.000000000002
 20
440.0000000000001
 30
0.0
 40
63.49999999999851
100
AcDbArc
 50
350.939325168796
 51
9.060674831204446
  0
ARC
  5
112
330
1F
100
AcDbEntity
  8
LAY-10
  6
CONTINUOUS
 62
     7
100
AcDbCircle
 10
310.000000000002
 20
440.0000000000001
 30
0.0
 40
67.49999999995212
100
AcDbArc
 50
350.939325168796
 51
9.06067483120433
  0
ARC
  5
113
330
1F
100
AcDbEntity
  8
LAY-10
  6
CONTINUOUS
 62
     7
100
AcDbCircle
 10
310.000000000002
 20
440.0000000000001
 30
0.0
 40
68.49999999996956
100
AcDbArc
 50
350.1028607187275
 51
9.897139281272713
  0
ARC
  5
114
330
1F
100
AcDbEntity
  8
LAY-10
  6
CONTINUOUS
 62
     7
100
AcDbCircle
 10
310.000000000002
 20
440.0000000000001
 30
0.0
 40
62.49999999999857
100
AcDbArc
 50
350.0225535781555
 51
354.2378528915003
  0
ARC
  5
115
330
1F
100
AcDbEntity
  8
LAY-10
  6
CONTINUOUS
 62
     7
100
AcDbCircle
 10
310.000000000002
 20
440.0000000000001
 30
0.0
 40
62.49999999999857
100
AcDbArc
 50
110.0225535781607
 51
129.9774464218388
  0
ARC
  5
116
330
1F
100
AcDbEntity
  8
LAY-10
  6
CONTINUOUS
 62
     7
100
AcDbCircle
 10
310.000000000002
 20
440.0000000000001
 30
0.0
 40
68.49999999996956
100
AcDbArc
 50
110.1028607187325
 51
129.8971392812674
  0
ARC
  5
117
330
1F
100
AcDbEntity
  8
LAY-10
  6
CONTINUOUS
 62
     7
100
AcDbCircle
 10
310.000000000002
 20
440.0000000000001
 30
0.0
 40
67.49999999995212
100
AcDbArc
 50
110.9393251687956
 51
129.0606748312047
  0
ARC
  5
118
330
1F
100
AcDbEntity
  8
LAY-10
  6
CONTINUOUS
 62
     7
100
AcDbCircle
 10
310.000000000002
 20
440.0000000000001
 30
0.0
 40
63.49999999999851
100
AcDbArc
 50
110.9393251687956
 51
129.0606748312045
  0
ARC
  5
119
330
1F
100
AcDbEntity
  8
LAY-10
  6
CONTINUOUS
 62
     7
100
AcDbCircle
 10
310.000000000002
 20
440.0000000000001
 30
0.0
 40
62.49999999999857
100
AcDbArc
 50
140.0225535781609
 51
159.9774464218389
  0
ARC
  5
11A
330
1F
100
AcDbEntity
  8
LAY-10
  6
CONTINUOUS
 62
     7
100
AcDbCircle
 10
310.000000000002
 20
440.0000000000001
 30
0.0
 40
68.49999999996956
100
AcDbArc
 50
140.1028607187324
 51
159.8971392812674
  0
ARC
  5
11B
330
1F
100
AcDbEntity
  8
LAY-10
  6
CONTINUOUS
 62
     7
100
AcDbCircle
 10
310.000000000002
 20
440.0000000000001
 30
0.0
 40
67.49999999995212
100
AcDbArc
 50
140.9393251687959
 51
159.0606748312046
  0
ARC
  5
11C
330
1F
100
AcDbEntity
  8
LAY-10
  6
CONTINUOUS
 62
     7
100
AcDbCircle
 10
310.000000000002
 20
440.0000000000001
 30
0.0
 40
63.49999999999851
100
AcDbArc
 50
140.9393251687955
 51
159.0606748312046
  0
ARC
  5
11D
330
1F
100
AcDbEntity
  8
LAY-10
  6
CONTINUOUS
 62
     7
100
AcDbCircle
 10
310.000000000002
 20
440.0000000000001
 30
0.0
 40
62.49999999999857
100
AcDbArc
 50
20.0225535781607
 51
39.97744642183892
  0
ARC
  5
11E
330
1F
100
AcDbEntity
  8
LAY-10
  6
CONTINUOUS
 62
     7
100
AcDbCircle
 10
310.000000000002
 20
440.0000000000001
 30
0.0
 40
68.49999999996956
100
AcDbArc
 50
20.1028607187324
 51
39.89713928126722
  0
ARC
  5
11F
330
1F
100
AcDbEntity
  8
LAY-10
  6
CONTINUOUS
 62
     7
100
AcDbCircle
 10
310.000000000002
 20
440.0000000000001
 30
0.0
 40
67.49999999995212
100
AcDbArc
 50
20.93932516879562
 51
39.06067483120469
  0
ARC
  5
120
330
1F
100
AcDbEntity
  8
LAY-10
  6
CONTINUOUS
 62
     7
100
AcDbCircle
 10
310.000000000002
 20
440.0000000000001
 30
0.0
 40
63.49999999999851
100
AcDbArc
 50
20.93932516879568
 51
39.06067483120457
  0
ARC
  5
121
330
1F
100
AcDbEntity
  8
LAY-10
  6
CONTINUOUS
 62
     7
100
AcDbCircle
 10
310.000000000002
 20
440.0000000000001
 30
0.0
 40
62.49999999999857
100
AcDbArc
 50
50.02255357816066
 51
69.97744642183892
  0
ARC
  5
122
330
1F
100
AcDbEntity
  8
LAY-10
  6
CONTINUOUS
 62
     7
100
AcDbCircle
 10
310.000000000002
 20
440.0000000000001
 30
0.0
 40
68.49999999996956
100
AcDbArc
 50
50.10286071873235
 51
69.89713928126706
  0
ARC
  5
123
330
1F
100
AcDbEntity
  8
LAY-10
  6
CONTINUOUS
 62
     7
100
AcDbCircle
 10
310.000000000002
 20
440.0000000000001
 30
0.0
 40
67.49999999995212
100
AcDbArc
 50
50.93932516879569
 51
69.06067483120441
  0
ARC
  5
124
330
1F
100
AcDbEntity
  8
LAY-10
  6
CONTINUOUS
 62
     7
100
AcDbCircle
 10
310.000000000002
 20
440.0000000000001
 30
0.0
 40
63.49999999999851
100
AcDbArc
 50
50.93932516879558
 51
69.06067483120451
  0
ARC
  5
125
330
1F
100
AcDbEntity
  8
LAY-10
  6
CONTINUOUS
 62
     7
100
AcDbCircle
 10
310.000000000002
 20
440.0000000000001
 30
0.0
 40
62.49999999999857
100
AcDbArc
 50
230.0225535781611
 51
249.9774464218392
  0
ARC
  5
126
330
1F
100
AcDbEntity
  8
LAY-10
  6
CONTINUOUS
 62
     7
100
AcDbCircle
 10
310.000000000002
 20
440.0000000000001
 30
0.0
 40
68.49999999996956
100
AcDbArc
 50
230.1028607187326
 51
249.8971392812676
  0
ARC
  5
127
330
1F
100
AcDbEntity
  8
LAY-10
  6
CONTINUOUS
 62
     7
100
AcDbCircle
 10
310.000000000002
 20
440.0000000000001
 30
0.0
 40
67.49999999995212
100
AcDbArc
 50
230.9393251687958
 51
249.0606748312046
  0
ARC
  5
128
330
1F
100
AcDbEntity
  8
LAY-10
  6
CONTINUOUS
 62
     7
100
AcDbCircle
 10
310.000000000002
 20
440.0000000000001
 30
0.0
 40
63.49999999999851
100
AcDbArc
 50
230.9393251687957
 51
249.0606748312046
  0
ARC
  5
129
330
1F
100
AcDbEntity
  8
LAY-10
  6
CONTINUOUS
 62
     7
100
AcDbCircle
 10
310.000000000002
 20
440.0000000000001
 30
0.0
 40
62.49999999999857
100
AcDbArc
 50
200.0225535781611
 51
219.9774464218393
  0
ARC
  5
12A
330
1F
100
AcDbEntity
  8
LAY-10
  6
CONTINUOUS
 62
     7
100
AcDbCircle
 10
310.000000000002
 20
440.0000000000001
 30
0.0
 40
68.49999999996956
100
AcDbArc
 50
200.102860718733
 51
219.8971392812676
  0
ARC
  5
12B
330
1F
100
AcDbEntity
  8
LAY-10
  6
CONTINUOUS
 62
     7
100
AcDbCircle
 10
310.000000000002
 20
440.0000000000001
 30
0.0
 40
67.49999999995212
100
AcDbArc
 50
200.9393251687956
 51
219.0606748312045
  0
ARC
  5
12C
330
1F
100
AcDbEntity
  8
LAY-10
  6
CONTINUOUS
 62
     7
100
AcDbCircle
 10
310.000000000002
 20
440.0000000000001
 30
0.0
 40
63.49999999999851
100
AcDbArc
 50
200.9393251687956
 51
219.0606748312047
  0
ARC
  5
12D
330
1F
100
AcDbEntity
  8
LAY-10
  6
CONTINUOUS
 62
     7
100
AcDbCircle
 10
310.000000000002
 20
440.0000000000001
 30
0.0
 40
62.49999999999857
100
AcDbArc
 50
320.0225535781614
 51
339.9774464218398
  0
ARC
  5
12E
330
1F
100
AcDbEntity
  8
LAY-10
  6
CONTINUOUS
 62
     7
100
AcDbCircle
 10
310.000000000002
 20
440.0000000000001
 30
0.0
 40
68.49999999996956
100
AcDbArc
 50
320.1028607187329
 51
339.8971392812678
  0
ARC
  5
12F
330
1F
100
AcDbEntity
  8
LAY-10
  6
CONTINUOUS
 62
     7
100
AcDbCircle
 10
310.000000000002
 20
440.0000000000001
 30
0.0
 40
67.49999999995212
100
AcDbArc
 50
320.9393251687959
 51
339.0606748312048
  0
ARC
  5
130
330
1F
100
AcDbEntity
  8
LAY-10
  6
CONTINUOUS
 62
     7
100
AcDbCircle
 10
310.000000000002
 20
440.0000000000001
 30
0.0
 40
63.49999999999851
100
AcDbArc
 50
320.9393251687959
 51
339.0606748312049
  0
ARC
  5
131
330
1F
100
AcDbEntity
  8
LAY-10
  6
CONTINUOUS
 62
     7
100
AcDbCircle
 10
310.000000000002
 20
440.0000000000001
 30
0.0
 40
62.49999999999857
100
AcDbArc
 50
290.0225535781612
 51
309.9774464218397
  0
ARC
  5
132
330
1F
100
AcDbEntity
  8
LAY-10
  6
CONTINUOUS
 62
     7
100
AcDbCircle
 10
310.000000000002
 20
440.0000000000001
 30
0.0
 40
68.49999999996956
100
AcDbArc
 50
290.1028607187333
 51
309.8971392812682
  0
ARC
  5
133
330
1F
100
AcDbEntity
  8
LAY-10
  6
CONTINUOUS
 62
     7
100
AcDbCircle
 10
310.000000000002
 20
440.0000000000001
 30
0.0
 40
67.49999999995212
100
AcDbArc
 50
290.9393251687957
 51
309.0606748312047
  0
ARC
  5
134
330
1F
100
AcDbEntity
  8
LAY-10
  6
CONTINUOUS
 62
     7
100
AcDbCircle
 10
310.000000000002
 20
440.0000000000001
 30
0.0
 40
63.49999999999851
100
AcDbArc
 50
290.9393251687957
 51
309.0606748312047
  0
ARC
  5
135
330
1F
100
AcDbEntity
  8
LAY-10
  6
CONTINUOUS
 62
     7
100
AcDbCircle
 10
310.000000000002
 20
440.0000000000001
 30
0.0
 40
62.49999999999857
100
AcDbArc
 50
260.0225535781611
 51
266.054933896345
  0
ARC
  5
136
330
1F
100
AcDbEntity
  8
LAY-10
  6
CONTINUOUS
 62
     7
100
AcDbCircle
 10
310.000000000002
 20
440.0000000000001
 30
0.0
 40
68.49999999996956
100
AcDbArc
 50
260.1028607187328
 51
279.8971392812676
  0
ARC
  5
137
330
1F
100
AcDbEntity
  8
LAY-10
  6
CONTINUOUS
 62
     7
100
AcDbCircle
 10
310.000000000002
 20
440.0000000000001
 30
0.0
 40
67.49999999995212
100
AcDbArc
 50
260.9393251687956
 51
279.0606748312046
  0
ARC
  5
138
330
1F
100
AcDbEntity
  8
LAY-10
  6
CONTINUOUS
 62
     7
100
AcDbCircle
 10
310.000000000002
 20
440.0000000000001
 30
0.0
 40
63.49999999999851
100
AcDbArc
 50
260.9393251687956
 51
279.0606748312046
  0
LINE
  5
139
330
1F
100
AcDbEntity
  8
LAY-10
  6
CONTINUOUS
 62
     7
100
AcDbLine
 10
321.7737741487368
 20
507.4805767779918
 30
0.0
 11
320.8287818884184
 21
501.5547519109039
 31
0.0
  0
LINE
  5
13A
330
1F
100
AcDbEntity
  8
LAY-10
  6
CONTINUOUS
 62
     7
100
AcDbLine
 10
298.2262258512677
 20
507.4805767779918
 30
0.0
 11
299.171218111586
 21
501.5547519109041
 31
0.0
  0
LINE
  5
13B
330
1F
100
AcDbEntity
  8
LAY-10
  6
CONTINUOUS
 62
     7
100
AcDbLine
 10
300.000000000002
 20
502.7076550350897
 30
0.0
 11
299.3700787401668
 21
506.6577435411915
 31
0.0
  0
LINE
  5
13C
330
1F
100
AcDbEntity
  8
LAY-10
  6
CONTINUOUS
 62
     7
100
AcDbLine
 10
320.000000000002
 20
502.7076550350897
 30
0.0
 11
320.6299212598372
 21
506.6577435411915
 31
0.0
  0
LINE
  5
13D
330
1F
100
AcDbEntity
  8
LAY-10
  6
CONTINUOUS
 62
     7
100
AcDbLine
 10
300.000000000002
 20
502.7076550350897
 30
0.0
 11
299.171218111586
 21
501.5547519109041
 31
0.0
  0
LINE
  5
13E
330
1F
100
AcDbEntity
  8
LAY-10
  6
CONTINUOUS
 62
     7
100
AcDbLine
 10
320.000000000002
 20
502.7076550350897
 30
0.0
 11
320.8287818884185
 21
501.5547519109039
 31
0.0
  0
LINE
  5
13F
330
1F
100
AcDbEntity
  8
LAY-10
  6
CONTINUOUS
 62
     7
100
AcDbLine
 10
320.6299212598372
 20
506.6577435411915
 30
0.0
 11
321.7737741487368
 21
507.4805767779918
 31
0.0
  0
LINE
  5
140
330
1F
100
AcDbEntity
  8
LAY-10
  6
CONTINUOUS
 62
     7
100
AcDbLine
 10
299.3700787401669
 20
506.6577435411915
 30
0.0
 11
298.2262258512677
 21
507.4805767779918
 31
0.0
  0
LINE
  5
141
330
1F
100
AcDbEntity
  8
LAY-10
  6
CONTINUOUS
 62
     7
100
AcDbLine
 10
247.2923449649123
 20
450.0000000000001
 30
0.0
 11
243.3422564588106
 21
450.6299212598354
 31
0.0
  0
LINE
  5
142
330
1F
100
AcDbEntity
  8
LAY-10
  6
CONTINUOUS
 62
     7
100
AcDbLine
 10
242.5194232220114
 20
451.7737741487409
 30
0.0
 11
248.4452480890992
 21
450.8287818884226
 31
0.0
  0
LINE
  5
143
330
1F
100
AcDbEntity
  8
LAY-10
  6
CONTINUOUS
 62
     7
100
AcDbLine
 10
247.2923449649124
 20
450.0000000000003
 30
0.0
 11
248.4452480890992
 21
450.8287818884226
 31
0.0
  0
LINE
  5
144
330
1F
100
AcDbEntity
  8
LAY-10
  6
CONTINUOUS
 62
     7
100
AcDbLine
 10
243.3422564588106
 20
450.6299212598354
 30
0.0
 11
242.5194232220115
 21
451.7737741487409
 31
0.0
  0
LINE
  5
145
330
1F
100
AcDbEntity
  8
LAY-10
  6
CONTINUOUS
 62
     7
100
AcDbLine
 10
247.2923449649123
 20
430.0000000000001
 30
0.0
 11
243.3422564588106
 21
429.370078740165
 31
0.0
  0
LINE
  5
146
330
1F
100
AcDbEntity
  8
LAY-10
  6
CONTINUOUS
 62
     7
100
AcDbLine
 10
242.5194232220114
 20
428.2262258512592
 30
0.0
 11
248.4452480890992
 21
429.1712181115777
 31
0.0
  0
LINE
  5
147
330
1F
100
AcDbEntity
  8
LAY-10
  6
CONTINUOUS
 62
     7
100
AcDbLine
 10
247.2923449649124
 20
430.0000000000001
 30
0.0
 11
248.4452480890992
 21
429.1712181115775
 31
0.0
  0
LINE
  5
148
330
1F
100
AcDbEntity
  8
LAY-10
  6
CONTINUOUS
 62
     7
100
AcDbLine
 10
243.3422564588106
 20
429.3700787401647
 30
0.0
 11
242.5194232220115
 21
428.2262258512592
 31
0.0
  0
LINE
  5
149
330
1F
100
AcDbEntity
  8
LAY-10
  6
CONTINUOUS
 62
     7
100
AcDbLine
 10
372.7076550350917
 20
450.0000000000001
 30
0.0
 11
376.6577435411934
 21
450.6299212598354
 31
0.0
  0
LINE
  5
14A
330
1F
100
AcDbEntity
  8
LAY-10
  6
CONTINUOUS
 62
     7
100
AcDbLine
 10
377.4805767779926
 20
451.7737741487409
 30
0.0
 11
371.5547519109048
 21
450.8287818884226
 31
0.0
  0
LINE
  5
14B
330
1F
100
AcDbEntity
  8
LAY-10
  6
CONTINUOUS
 62
     7
100
AcDbLine
 10
372.7076550350916
 20
450.0000000000003
 30
0.0
 11
371.5547519109048
 21
450.8287818884226
 31
0.0
  0
LINE
  5
14C
330
1F
100
AcDbEntity
  8
LAY-10
  6
CONTINUOUS
 62
     7
100
AcDbLine
 10
376.6577435411934
 20
450.6299212598354
 30
0.0
 11
377.4805767779924
 21
451.7737741487409
 31
0.0
  0
LINE
  5
14D
330
1F
100
AcDbEntity
  8
LAY-10
  6
CONTINUOUS
 62
     7
100
AcDbLine
 10
372.7076550350917
 20
430.0000000000001
 30
0.0
 11
376.6577435411934
 21
429.370078740165
 31
0.0
  0
LINE
  5
14E
330
1F
100
AcDbEntity
  8
LAY-10
  6
CONTINUOUS
 62
     7
100
AcDbLine
 10
377.4805767779926
 20
428.2262258512592
 30
0.0
 11
371.5547519109048
 21
429.1712181115777
 31
0.0
  0
LINE
  5
14F
330
1F
100
AcDbEntity
  8
LAY-10
  6
CONTINUOUS
 62
     7
100
AcDbLine
 10
372.7076550350916
 20
430.0000000000001
 30
0.0
 11
371.5547519109048
 21
429.1712181115775
 31
0.0
  0
LINE
  5
150
330
1F
100
AcDbEntity
  8
LAY-10
  6
CONTINUOUS
 62
     7
100
AcDbLine
 10
376.6577435411934
 20
429.3700787401647
 30
0.0
 11
377.4805767779924
 21
428.2262258512592
 31
0.0
  0
LINE
  5
151
330
1F
100
AcDbEntity
  8
LAY-10
  6
CONTINUOUS
 62
     7
100
AcDbLine
 10
286.456099122231
 20
504.3267808261347
 30
0.0
 11
288.6006242519595
 21
498.7223698226997
 31
0.0
  0
LINE
  5
152
330
1F
100
AcDbEntity
  8
LAY-10
  6
CONTINUOUS
 62
     7
100
AcDbLine
 10
266.0633240997817
 20
492.5530066774
 30
0.0
 11
269.844623837141
 21
487.8935879342837
 31
0.0
  0
LINE
  5
153
330
1F
100
AcDbEntity
  8
LAY-10
  6
CONTINUOUS
 62
     7
100
AcDbLine
 10
269.9859184446128
 20
489.3064222721389
 30
0.0
 11
267.4653463781607
 21
492.4123386357024
 31
0.0
  0
LINE
  5
154
330
1F
100
AcDbEntity
  8
LAY-10
  6
CONTINUOUS
 62
     7
100
AcDbLine
 10
287.3064265203015
 20
499.3064222721389
 30
0.0
 11
285.8769100806518
 21
503.0422598955375
 31
0.0
  0
LINE
  5
155
330
1F
100
AcDbEntity
  8
LAY-10
  6
CONTINUOUS
 62
     7
100
AcDbLine
 10
269.9859184446128
 20
489.3064222721389
 30
0.0
 11
269.8446238371409
 21
487.8935879342837
 31
0.0
  0
LINE
  5
156
330
1F
100
AcDbEntity
  8
LAY-10
  6
CONTINUOUS
 62
     7
100
AcDbLine
 10
287.3064265203015
 20
499.3064222721389
 30
0.0
 11
288.6006242519596
 21
498.7223698226999
 31
0.0
  0
LINE
  5
157
330
1F
100
AcDbEntity
  8
LAY-10
  6
CONTINUOUS
 62
     7
100
AcDbLine
 10
285.8769100806518
 20
503.0422598955375
 30
0.0
 11
286.456099122231
 21
504.3267808261344
 31
0.0
  0
LINE
  5
158
330
1F
100
AcDbEntity
  8
LAY-10
  6
CONTINUOUS
 62
     7
100
AcDbLine
 10
267.4653463781609
 20
492.4123386357024
 30
0.0
 11
266.0633240997817
 21
492.5530066774
 31
0.0
  0
LINE
  5
159
330
1F
100
AcDbEntity
  8
LAY-10
  6
CONTINUOUS
 62
     7
100
AcDbLine
 10
257.4469933226024
 20
483.9366759002208
 30
0.0
 11
262.1064120657188
 21
480.1553761628614
 31
0.0
  0
LINE
  5
15A
330
1F
100
AcDbEntity
  8
LAY-10
  6
CONTINUOUS
 62
     7
100
AcDbLine
 10
245.6732191738677
 20
463.5439008777715
 30
0.0
 11
251.2776301773025
 21
461.399375748043
 31
0.0
  0
LINE
  5
15B
330
1F
100
AcDbEntity
  8
LAY-10
  6
CONTINUOUS
 62
     7
100
AcDbLine
 10
250.6935777278632
 20
462.6935734797005
 30
0.0
 11
246.9577401044646
 21
464.1230899193502
 31
0.0
  0
LINE
  5
15C
330
1F
100
AcDbEntity
  8
LAY-10
  6
CONTINUOUS
 62
     7
100
AcDbLine
 10
260.6935777278632
 20
480.0140815553894
 30
0.0
 11
257.5876613642998
 21
482.5346536218415
 31
0.0
  0
LINE
  5
15D
330
1F
100
AcDbEntity
  8
LAY-10
  6
CONTINUOUS
 62
     7
100
AcDbLine
 10
250.6935777278632
 20
462.6935734797005
 30
0.0
 11
251.2776301773025
 21
461.399375748043
 31
0.0
  0
LINE
  5
15E
330
1F
100
AcDbEntity
  8
LAY-10
  6
CONTINUOUS
 62
     7
100
AcDbLine
 10
260.6935777278632
 20
480.0140815553894
 30
0.0
 11
262.1064120657188
 21
480.1553761628616
 31
0.0
  0
LINE
  5
15F
330
1F
100
AcDbEntity
  8
LAY-10
  6
CONTINUOUS
 62
     7
100
AcDbLine
 10
257.5876613642998
 20
482.5346536218415
 30
0.0
 11
257.4469933226024
 21
483.9366759002208
 31
0.0
  0
LINE
  5
160
330
1F
100
AcDbEntity
  8
LAY-10
  6
CONTINUOUS
 62
     7
100
AcDbLine
 10
246.9577401044646
 20
464.1230899193504
 30
0.0
 11
245.6732191738677
 21
463.5439008777715
 31
0.0
  0
LINE
  5
161
330
1F
100
AcDbEntity
  8
LAY-10
  6
CONTINUOUS
 62
     7
100
AcDbLine
 10
374.3267808261364
 20
463.543900877771
 30
0.0
 11
368.7223698227016
 21
461.3993757480426
 31
0.0
  0
LINE
  5
162
330
1F
100
AcDbEntity
  8
LAY-10
  6
CONTINUOUS
 62
     7
100
AcDbLine
 10
362.5530066774019
 20
483.9366759002203
 30
0.0
 11
357.8935879342856
 21
480.1553761628612
 31
0.0
  0
LINE
  5
163
330
1F
100
AcDbEntity
  8
LAY-10
  6
CONTINUOUS
 62
     7
100
AcDbLine
 10
359.3064222721408
 20
480.0140815553894
 30
0.0
 11
362.4123386357042
 21
482.5346536218415
 31
0.0
  0
LINE
  5
164
330
1F
100
AcDbEntity
  8
LAY-10
  6
CONTINUOUS
 62
     7
100
AcDbLine
 10
369.3064222721408
 20
462.6935734797005
 30
0.0
 11
373.0422598955394
 21
464.1230899193502
 31
0.0
  0
LINE
  5
165
330
1F
100
AcDbEntity
  8
LAY-10
  6
CONTINUOUS
 62
     7
100
AcDbLine
 10
359.3064222721408
 20
480.0140815553894
 30
0.0
 11
357.8935879342856
 21
480.1553761628612
 31
0.0
  0
LINE
  5
166
330
1F
100
AcDbEntity
  8
LAY-10
  6
CONTINUOUS
 62
     7
100
AcDbLine
 10
369.3064222721408
 20
462.6935734797005
 30
0.0
 11
368.7223698227018
 21
461.3993757480426
 31
0.0
  0
LINE
  5
167
330
1F
100
AcDbEntity
  8
LAY-10
  6
CONTINUOUS
 62
     7
100
AcDbLine
 10
373.0422598955394
 20
464.1230899193502
 30
0.0
 11
374.3267808261364
 21
463.543900877771
 31
0.0
  0
LINE
  5
168
330
1F
100
AcDbEntity
  8
LAY-10
  6
CONTINUOUS
 62
     7
100
AcDbLine
 10
362.4123386357043
 20
482.5346536218413
 30
0.0
 11
362.5530066774019
 21
483.9366759002203
 31
0.0
  0
LINE
  5
169
330
1F
100
AcDbEntity
  8
LAY-10
  6
CONTINUOUS
 62
     7
100
AcDbLine
 10
353.9366759002227
 20
492.5530066773998
 30
0.0
 11
350.1553761628634
 21
487.8935879342833
 31
0.0
  0
LINE
  5
16A
330
1F
100
AcDbEntity
  8
LAY-10
  6
CONTINUOUS
 62
     7
100
AcDbLine
 10
333.5439008777734
 20
504.3267808261342
 30
0.0
 11
331.399375748045
 21
498.7223698226997
 31
0.0
  0
LINE
  5
16B
330
1F
100
AcDbEntity
  8
LAY-10
  6
CONTINUOUS
 62
     7
100
AcDbLine
 10
332.6935734797025
 20
499.3064222721389
 30
0.0
 11
334.1230899193521
 21
503.0422598955375
 31
0.0
  0
LINE
  5
16C
330
1F
100
AcDbEntity
  8
LAY-10
  6
CONTINUOUS
 62
     7
100
AcDbLine
 10
350.0140815553912
 20
489.3064222721389
 30
0.0
 11
352.5346536218432
 21
492.4123386357024
 31
0.0
  0
LINE
  5
16D
330
1F
100
AcDbEntity
  8
LAY-10
  6
CONTINUOUS
 62
     7
100
AcDbLine
 10
332.6935734797025
 20
499.3064222721389
 30
0.0
 11
331.399375748045
 21
498.7223698226997
 31
0.0
  0
LINE
  5
16E
330
1F
100
AcDbEntity
  8
LAY-10
  6
CONTINUOUS
 62
     7
100
AcDbLine
 10
350.0140815553912
 20
489.3064222721389
 30
0.0
 11
350.1553761628634
 21
487.8935879342833
 31
0.0
  0
LINE
  5
16F
330
1F
100
AcDbEntity
  8
LAY-10
  6
CONTINUOUS
 62
     7
100
AcDbLine
 10
352.5346536218432
 20
492.4123386357024
 30
0.0
 11
353.9366759002226
 21
492.5530066773998
 31
0.0
  0
LINE
  5
170
330
1F
100
AcDbEntity
  8
LAY-10
  6
CONTINUOUS
 62
     7
100
AcDbLine
 10
334.1230899193523
 20
503.0422598955375
 30
0.0
 11
333.5439008777734
 21
504.3267808261342
 31
0.0
  0
LINE
  5
171
330
1F
100
AcDbEntity
  8
LAY-10
  6
CONTINUOUS
 62
     7
100
AcDbLine
 10
286.456099122231
 20
375.6732191738657
 30
0.0
 11
288.6006242519595
 21
381.2776301773004
 31
0.0
  0
LINE
  5
172
330
1F
100
AcDbEntity
  8
LAY-10
  6
CONTINUOUS
 62
     7
100
AcDbLine
 10
266.0633240997817
 20
387.4469933226001
 30
0.0
 11
269.844623837141
 21
392.1064120657166
 31
0.0
  0
LINE
  5
173
330
1F
100
AcDbEntity
  8
LAY-10
  6
CONTINUOUS
 62
     7
100
AcDbLine
 10
269.9859184446128
 20
390.6935777278612
 30
0.0
 11
267.4653463781607
 21
387.587661364298
 31
0.0
  0
LINE
  5
174
330
1F
100
AcDbEntity
  8
LAY-10
  6
CONTINUOUS
 62
     7
100
AcDbLine
 10
287.3064265203015
 20
380.6935777278614
 30
0.0
 11
285.8769100806518
 21
376.9577401044626
 31
0.0
  0
LINE
  5
175
330
1F
100
AcDbEntity
  8
LAY-10
  6
CONTINUOUS
 62
     7
100
AcDbLine
 10
269.9859184446128
 20
390.6935777278612
 30
0.0
 11
269.8446238371409
 21
392.1064120657164
 31
0.0
  0
LINE
  5
176
330
1F
100
AcDbEntity
  8
LAY-10
  6
CONTINUOUS
 62
     7
100
AcDbLine
 10
287.3064265203015
 20
380.6935777278614
 30
0.0
 11
288.6006242519596
 21
381.2776301773004
 31
0.0
  0
LINE
  5
177
330
1F
100
AcDbEntity
  8
LAY-10
  6
CONTINUOUS
 62
     7
100
AcDbLine
 10
285.8769100806518
 20
376.9577401044626
 30
0.0
 11
286.456099122231
 21
375.6732191738657
 31
0.0
  0
LINE
  5
178
330
1F
100
AcDbEntity
  8
LAY-10
  6
CONTINUOUS
 62
     7
100
AcDbLine
 10
267.4653463781609
 20
387.587661364298
 30
0.0
 11
266.0633240997817
 21
387.4469933226001
 31
0.0
  0
LINE
  5
179
330
1F
100
AcDbEntity
  8
LAY-10
  6
CONTINUOUS
 62
     7
100
AcDbLine
 10
257.4469933226024
 20
396.0633240997793
 30
0.0
 11
262.1064120657188
 21
399.8446238371387
 31
0.0
  0
LINE
  5
17A
330
1F
100
AcDbEntity
  8
LAY-10
  6
CONTINUOUS
 62
     7
100
AcDbLine
 10
245.6732191738677
 20
416.4560991222286
 30
0.0
 11
251.2776301773025
 21
418.6006242519573
 31
0.0
  0
LINE
  5
17B
330
1F
100
AcDbEntity
  8
LAY-10
  6
CONTINUOUS
 62
     7
100
AcDbLine
 10
250.6935777278632
 20
417.3064265202996
 30
0.0
 11
246.9577401044646
 21
415.8769100806499
 31
0.0
  0
LINE
  5
17C
330
1F
100
AcDbEntity
  8
LAY-10
  6
CONTINUOUS
 62
     7
100
AcDbLine
 10
260.6935777278632
 20
399.9859184446109
 30
0.0
 11
257.5876613642998
 21
397.4653463781588
 31
0.0
  0
LINE
  5
17D
330
1F
100
AcDbEntity
  8
LAY-10
  6
CONTINUOUS
 62
     7
100
AcDbLine
 10
250.6935777278632
 20
417.3064265202996
 30
0.0
 11
251.2776301773025
 21
418.6006242519571
 31
0.0
  0
LINE
  5
17E
330
1F
100
AcDbEntity
  8
LAY-10
  6
CONTINUOUS
 62
     7
100
AcDbLine
 10
260.6935777278632
 20
399.9859184446109
 30
0.0
 11
262.1064120657188
 21
399.8446238371387
 31
0.0
  0
LINE
  5
17F
330
1F
100
AcDbEntity
  8
LAY-10
  6
CONTINUOUS
 62
     7
100
AcDbLine
 10
257.5876613642998
 20
397.4653463781588
 30
0.0
 11
257.4469933226024
 21
396.0633240997795
 31
0.0
  0
LINE
  5
180
330
1F
100
AcDbEntity
  8
LAY-10
  6
CONTINUOUS
 62
     7
100
AcDbLine
 10
246.9577401044646
 20
415.8769100806499
 30
0.0
 11
245.6732191738677
 21
416.4560991222286
 31
0.0
  0
LINE
  5
181
330
1F
100
AcDbEntity
  8
LAY-10
  6
CONTINUOUS
 62
     7
100
AcDbLine
 10
374.3267808261364
 20
416.4560991222291
 30
0.0
 11
368.7223698227016
 21
418.6006242519578
 31
0.0
  0
LINE
  5
182
330
1F
100
AcDbEntity
  8
LAY-10
  6
CONTINUOUS
 62
     7
100
AcDbLine
 10
362.5530066774019
 20
396.0633240997798
 30
0.0
 11
357.8935879342856
 21
399.8446238371392
 31
0.0
  0
LINE
  5
183
330
1F
100
AcDbEntity
  8
LAY-10
  6
CONTINUOUS
 62
     7
100
AcDbLine
 10
359.3064222721408
 20
399.9859184446109
 30
0.0
 11
362.4123386357042
 21
397.4653463781588
 31
0.0
  0
LINE
  5
184
330
1F
100
AcDbEntity
  8
LAY-10
  6
CONTINUOUS
 62
     7
100
AcDbLine
 10
369.3064222721408
 20
417.3064265202996
 30
0.0
 11
373.0422598955394
 21
415.8769100806499
 31
0.0
  0
LINE
  5
185
330
1F
100
AcDbEntity
  8
LAY-10
  6
CONTINUOUS
 62
     7
100
AcDbLine
 10
359.3064222721408
 20
399.9859184446109
 30
0.0
 11
357.8935879342856
 21
399.844623837139
 31
0.0
  0
LINE
  5
186
330
1F
100
AcDbEntity
  8
LAY-10
  6
CONTINUOUS
 62
     7
100
AcDbLine
 10
369.3064222721408
 20
417.3064265202996
 30
0.0
 11
368.7223698227018
 21
418.6006242519578
 31
0.0
  0
LINE
  5
187
330
1F
100
AcDbEntity
  8
LAY-10
  6
CONTINUOUS
 62
     7
100
AcDbLine
 10
373.0422598955394
 20
415.8769100806499
 30
0.0
 11
374.3267808261364
 21
416.4560991222291
 31
0.0
  0
LINE
  5
188
330
1F
100
AcDbEntity
  8
LAY-10
  6
CONTINUOUS
 62
     7
100
AcDbLine
 10
362.4123386357043
 20
397.465346378159
 30
0.0
 11
362.5530066774019
 21
396.0633240997798
 31
0.0
  0
LINE
  5
189
330
1F
100
AcDbEntity
  8
LAY-10
  6
CONTINUOUS
 62
     7
100
AcDbLine
 10
353.9366759002227
 20
387.4469933226006
 30
0.0
 11
350.1553761628634
 21
392.1064120657168
 31
0.0
  0
LINE
  5
18A
330
1F
100
AcDbEntity
  8
LAY-10
  6
CONTINUOUS
 62
     7
100
AcDbLine
 10
333.5439008777734
 20
375.6732191738659
 30
0.0
 11
331.399375748045
 21
381.2776301773006
 31
0.0
  0
LINE
  5
18B
330
1F
100
AcDbEntity
  8
LAY-10
  6
CONTINUOUS
 62
     7
100
AcDbLine
 10
332.6935734797025
 20
380.6935777278614
 30
0.0
 11
334.1230899193521
 21
376.9577401044626
 31
0.0
  0
LINE
  5
18C
330
1F
100
AcDbEntity
  8
LAY-10
  6
CONTINUOUS
 62
     7
100
AcDbLine
 10
350.0140815553912
 20
390.6935777278614
 30
0.0
 11
352.5346536218432
 21
387.587661364298
 31
0.0
  0
LINE
  5
18D
330
1F
100
AcDbEntity
  8
LAY-10
  6
CONTINUOUS
 62
     7
100
AcDbLine
 10
332.6935734797025
 20
380.6935777278614
 30
0.0
 11
331.399375748045
 21
381.2776301773006
 31
0.0
  0
LINE
  5
18E
330
1F
100
AcDbEntity
  8
LAY-10
  6
CONTINUOUS
 62
     7
100
AcDbLine
 10
350.0140815553912
 20
390.6935777278614
 30
0.0
 11
350.1553761628634
 21
392.1064120657168
 31
0.0
  0
LINE
  5
18F
330
1F
100
AcDbEntity
  8
LAY-10
  6
CONTINUOUS
 62
     7
100
AcDbLine
 10
352.5346536218432
 20
387.587661364298
 30
0.0
 11
353.9366759002226
 21
387.4469933226006
 31
0.0
  0
LINE
  5
190
330
1F
100
AcDbEntity
  8
LAY-10
  6
CONTINUOUS
 62
     7
100
AcDbLine
 10
334.1230899193523
 20
376.9577401044626
 30
0.0
 11
333.5439008777734
 21
375.6732191738659
 31
0.0
  0
LINE
  5
191
330
1F
100
AcDbEntity
  8
LAY-10
  6
CONTINUOUS
 62
     7
100
AcDbLine
 10
321.7737741487368
 20
372.5194232220084
 30
0.0
 11
320.8287818884184
 21
378.4452480890962
 31
0.0
  0
LINE
  5
192
330
1F
100
AcDbEntity
  8
LAY-10
  6
CONTINUOUS
 62
     7
100
AcDbLine
 10
298.2262258512677
 20
372.5194232220084
 30
0.0
 11
299.171218111586
 21
378.4452480890962
 31
0.0
  0
LINE
  5
193
330
1F
100
AcDbEntity
  8
LAY-10
  6
CONTINUOUS
 62
     7
100
AcDbLine
 10
300.000000000002
 20
377.2923449649105
 30
0.0
 11
299.3700787401668
 21
373.3422564588087
 31
0.0
  0
LINE
  5
194
330
1F
100
AcDbEntity
  8
LAY-10
  6
CONTINUOUS
 62
     7
100
AcDbLine
 10
320.000000000002
 20
377.2923449649105
 30
0.0
 11
320.6299212598372
 21
373.3422564588087
 31
0.0
  0
LINE
  5
195
330
1F
100
AcDbEntity
  8
LAY-10
  6
CONTINUOUS
 62
     7
100
AcDbLine
 10
300.000000000002
 20
377.2923449649105
 30
0.0
 11
299.171218111586
 21
378.445248089096
 31
0.0
  0
LINE
  5
196
330
1F
100
AcDbEntity
  8
LAY-10
  6
CONTINUOUS
 62
     7
100
AcDbLine
 10
320.000000000002
 20
377.2923449649105
 30
0.0
 11
320.8287818884185
 21
378.4452480890962
 31
0.0
  0
LINE
  5
197
330
1F
100
AcDbEntity
  8
LAY-10
  6
CONTINUOUS
 62
     7
100
AcDbLine
 10
320.6299212598372
 20
373.3422564588087
 30
0.0
 11
321.7737741487368
 21
372.5194232220086
 31
0.0
  0
LINE
  5
198
330
1F
100
AcDbEntity
  8
LAY-10
  6
CONTINUOUS
 62
     7
100
AcDbLine
 10
299.3700787401669
 20
373.3422564588087
 30
0.0
 11
298.2262258512677
 21
372.5194232220084
 31
0.0
  0
ARC
  5
199
330
1F
100
AcDbEntity
  8
LAY-10
  6
CONTINUOUS
 62
     7
100
AcDbCircle
 10
310.000000000002
 20
440.0000000000001
 30
0.0
 40
62.69150124162775
100
AcDbArc
 50
86.34178636065083
 51
93.65821363934946
  0
ARC
  5
19A
330
1F
100
AcDbEntity
  8
LAY-10
  6
CONTINUOUS
 62
     7
100
AcDbCircle
 10
310.000000000002
 20
440.0000000000001
 30
0.0
 40
62.49999999999857
100
AcDbArc
 50
93.94506610365522
 51
99.97744642183889
  0
LINE
  5
19B
330
1F
100
AcDbEntity
  8
LAY-10
  6
CONTINUOUS
 62
     7
100
AcDbLine
 10
314.3000000000018
 20
502.351904541881
 30
0.0
 11
314.0000000000019
 21
502.5637620985906
 31
0.0
  0
LINE
  5
19C
330
1F
100
AcDbEntity
  8
LAY-10
  6
CONTINUOUS
 62
     7
100
AcDbLine
 10
305.700000000002
 20
502.351904541881
 30
0.0
 11
306.0000000000019
 21
502.5637620985906
 31
0.0
  0
ARC
  5
19D
330
1F
100
AcDbEntity
  8
LAY-10
  6
CONTINUOUS
 62
     7
100
AcDbCircle
 10
310.000000000002
 20
440.0000000000001
 30
0.0
 40
62.69150124162775
100
AcDbArc
 50
266.3417863606506
 51
273.6582136393494
  0
LINE
  5
19E
330
1F
100
AcDbEntity
  8
LAY-10
  6
CONTINUOUS
 62
     7
100
AcDbLine
 10
314.3000000000018
 20
377.6480954581194
 30
0.0
 11
314.0000000000019
 21
377.4362379014097
 31
0.0
  0
LINE
  5
19F
330
1F
100
AcDbEntity
  8
LAY-10
  6
CONTINUOUS
 62
     7
100
AcDbLine
 10
305.700000000002
 20
377.6480954581194
 30
0.0
 11
306.0000000000019
 21
377.4362379014097
 31
0.0
  0
ARC
  5
1A0
330
1F
100
AcDbEntity
  8
LAY-10
  6
CONTINUOUS
 62
     7
100
AcDbCircle
 10
310.000000000002
 20
440.0000000000001
 30
0.0
 40
62.49999999999857
100
AcDbArc
 50
273.9450661036548
 51
279.9774464218393
  0
LINE
  5
1A1
330
1F
100
AcDbEntity
  8
LAY-10
  6
CONTINUOUS
 62
     7
100
AcDbLine
 10
364.0366072321399
 20
436.5570335802315
 30
0.0
 11
372.9633927678329
 21
441.7109156122522
 31
0.0
  0
LINE
  5
1A2
330
1F
100
AcDbEntity
  8
LAY-10
  6
CONTINUOUS
 62
     7
100
AcDbLine
 10
363.0366072321424
 20
438.2890843878331
 30
0.0
 11
371.9633927678063
 21
443.4429664198367
 31
0.0
  0
CIRCLE
  5
1A3
330
1F
100
AcDbEntity
  8
LAY-10
  6
CONTINUOUS
 62
     7
100
AcDbCircle
 10
368.0000000000023
 20
440.0000000000009
 30
0.0
 40
5.25
  0
LINE
  5
1A4
330
1F
100
AcDbEntity
  8
LAY-10
  6
CONTINUOUS
 62
     7
100
AcDbLine
 10
248.0366072321399
 20
436.5570335802315
 30
0.0
 11
256.9633927678329
 21
441.7109156122522
 31
0.0
  0
LINE
  5
1A5
330
1F
100
AcDbEntity
  8
LAY-10
  6
CONTINUOUS
 62
     7
100
AcDbLine
 10
247.0366072321424
 20
438.2890843878331
 30
0.0
 11
255.9633927678063
 21
443.4429664198367
 31
0.0
  0
CIRCLE
  5
1A6
330
1F
100
AcDbEntity
  8
LAY-10
  6
CONTINUOUS
 62
     7
100
AcDbCircle
 10
252.0000000000023
 20
440.0000000000009
 30
0.0
 40
5.25
  0
ARC
  5
1A7
330
1F
100
AcDbEntity
  8
LAY-10
  6
CONTINUOUS
 62
     7
100
AcDbCircle
 10
310.000000000002
 20
440.0000000000001
 30
0.0
 40
62.69150124162775
100
AcDbArc
 50
182.2390769955993
 51
185.4919991107257
  0
ARC
  5
1A8
330
1F
100
AcDbEntity
  8
LAY-10
  6
CONTINUOUS
 62
     7
100
AcDbCircle
 10
310.000000000002
 20
440.0000000000001
 30
0.0
 40
62.69150124162775
100
AcDbArc
 50
174.5080008892743
 51
177.7609230043992
  0
ARC
  5
1A9
330
1F
100
AcDbEntity
  8
LAY-10
  6
CONTINUOUS
 62
     7
100
AcDbCircle
 10
310.000000000002
 20
440.0000000000001
 30
0.0
 40
62.69150124162775
100
AcDbArc
 50
354.5080008892746
 51
357.7609230043997
  0
ARC
  5
1AA
330
1F
100
AcDbEntity
  8
LAY-10
  6
CONTINUOUS
 62
     7
100
AcDbCircle
 10
310.000000000002
 20
440.0000000000001
 30
0.0
 40
62.69150124162775
100
AcDbArc
 50
2.239076995602201
 51
5.49199911072581
  0
LINE
  5
1AB
330
1F
100
AcDbEntity
  8
LAY-10
  6
CONTINUOUS
 62
     7
100
AcDbLine
 10
303.4213868788744
 20
485.7090894375842
 30
0.0
 11
307.0403276155948
 21
460.5642020945647
 31
0.0
  0
LINE
  5
1AC
330
1F
100
AcDbEntity
  8
LAY-10
  6
CONTINUOUS
 62
     7
100
AcDbLine
 10
316.5786131211295
 20
485.7090894375842
 30
0.0
 11
312.9596723844092
 21
460.5642020945647
 31
0.0
  0
ARC
  5
1AD
330
1F
100
AcDbEntity
  8
LAY-10
  6
CONTINUOUS
 62
     7
100
AcDbCircle
 10
310.000000000002
 20
460.9901685669201
 30
0.0
 40
2.990168566919546
100
AcDbArc
 50
188.1899704159579
 51
351.8100295840422
  0
ARC
  5
1AE
330
1F
100
AcDbEntity
  8
LAY-10
  6
CONTINUOUS
 62
     7
100
AcDbCircle
 10
310.000000000002
 20
460.9901685669201
 30
0.0
 40
3.990168566919546
100
AcDbArc
 50
188.1899704159547
 51
351.810029584042
  0
LINE
  5
1AF
330
1F
100
AcDbEntity
  8
LAY-10
  6
CONTINUOUS
 62
     7
100
AcDbLine
 10
313.9494735672424
 20
460.4217464226444
 30
0.0
 11
317.5684143039625
 21
485.5666337656639
 31
0.0
  0
LINE
  5
1B0
330
1F
100
AcDbEntity
  8
LAY-10
  6
CONTINUOUS
 62
     7
100
AcDbLine
 10
302.4315856960415
 20
485.5666337656639
 30
0.0
 11
306.0505264327616
 21
460.4217464226444
 31
0.0
  0
ARC
  5
1B1
330
1F
100
AcDbEntity
  8
LAY-10
  6
CONTINUOUS
 62
     7
100
AcDbCircle
 10
299.5049157165421
 20
458.1780192086705
 30
0.0
 40
2.990168566919546
100
AcDbArc
 50
218.1899704159557
 51
21.81002958404382
  0
LINE
  5
1B2
330
1F
100
AcDbEntity
  8
LAY-10
  6
CONTINUOUS
 62
     7
100
AcDbLine
 10
292.8427013657762
 20
482.8745391973668
 30
0.0
 11
302.2810504244957
 21
459.288957614654
 31
0.0
  0
LINE
  5
1B3
330
1F
100
AcDbEntity
  8
LAY-10
  6
CONTINUOUS
 62
     7
100
AcDbLine
 10
281.448209196644
 20
476.2959260762393
 30
0.0
 11
297.154747480944
 21
456.3292852302467
 31
0.0
  0
ARC
  5
1B4
330
1F
100
AcDbEntity
  8
LAY-10
  6
CONTINUOUS
 62
     7
100
AcDbCircle
 10
299.5049157165421
 20
458.1780192086705
 30
0.0
 40
3.990168566919546
100
AcDbArc
 50
218.1899704159549
 51
21.81002958404061
  0
LINE
  5
1B5
330
1F
100
AcDbEntity
  8
LAY-10
  6
CONTINUOUS
 62
     7
100
AcDbLine
 10
303.2094712294854
 20
459.6604879752744
 30
0.0
 11
293.7711221707656
 21
483.246069557987
 31
0.0
  0
LINE
  5
1B6
330
1F
100
AcDbEntity
  8
LAY-10
  6
CONTINUOUS
 62
     7
100
AcDbLine
 10
280.6622440635749
 20
475.6776552540265
 30
0.0
 11
296.3687823478746
 21
455.711014408034
 31
0.0
  0
ARC
  5
1B7
330
1F
100
AcDbEntity
  8
LAY-10
  6
CONTINUOUS
 62
     7
100
AcDbCircle
 10
291.8219807913319
 20
450.4950842834602
 30
0.0
 40
2.990168566919546
100
AcDbArc
 50
248.1899704159563
 51
51.81002958404137
  0
LINE
  5
1B8
330
1F
100
AcDbEntity
  8
LAY-10
  6
CONTINUOUS
 62
     7
100
AcDbLine
 10
273.7040739237631
 20
468.5517908033584
 30
0.0
 11
293.6707147697559
 21
452.8452525190586
 31
0.0
  0
LINE
  5
1B9
330
1F
100
AcDbEntity
  8
LAY-10
  6
CONTINUOUS
 62
     7
100
AcDbLine
 10
267.1254608026358
 20
457.1572986342264
 30
0.0
 11
290.7110423853484
 21
447.7189495755067
 31
0.0
  0
ARC
  5
1BA
330
1F
100
AcDbEntity
  8
LAY-10
  6
CONTINUOUS
 62
     7
100
AcDbCircle
 10
291.8219807913319
 20
450.4950842834602
 30
0.0
 40
3.990168566919546
100
AcDbArc
 50
248.1899704159558
 51
51.81002958404338
  0
LINE
  5
1BB
330
1F
100
AcDbEntity
  8
LAY-10
  6
CONTINUOUS
 62
     7
100
AcDbLine
 10
294.2889855919684
 20
453.6312176521278
 30
0.0
 11
274.3223447459758
 21
469.3377559364275
 31
0.0
  0
LINE
  5
1BC
330
1F
100
AcDbEntity
  8
LAY-10
  6
CONTINUOUS
 62
     7
100
AcDbLine
 10
266.7539304420154
 20
456.228877829237
 30
0.0
 11
290.3395120247282
 21
446.7905287705173
 31
0.0
  0
ARC
  5
1BD
330
1F
100
AcDbEntity
  8
LAY-10
  6
CONTINUOUS
 62
     7
100
AcDbCircle
 10
289.0098314330823
 20
440.0000000000004
 30
0.0
 40
2.990168566919546
100
AcDbArc
 50
278.189970415958
 51
81.81002958404213
  0
LINE
  5
1BE
330
1F
100
AcDbEntity
  8
LAY-10
  6
CONTINUOUS
 62
     7
100
AcDbLine
 10
264.2909105624182
 20
446.5786131211279
 30
0.0
 11
289.4357979054377
 21
442.9596723844078
 31
0.0
  0
LINE
  5
1BF
330
1F
100
AcDbEntity
  8
LAY-10
  6
CONTINUOUS
 62
     7
100
AcDbLine
 10
264.2909105624182
 20
433.4213868788731
 30
0.0
 11
289.4357979054377
 21
437.0403276155932
 31
0.0
  0
ARC
  5
1C0
330
1F
100
AcDbEntity
  8
LAY-10
  6
CONTINUOUS
 62
     7
100
AcDbCircle
 10
289.0098314330823
 20
440.0000000000004
 30
0.0
 40
3.990168566919546
100
AcDbArc
 50
278.1899704159549
 51
81.81002958404206
  0
LINE
  5
1C1
330
1F
100
AcDbEntity
  8
LAY-10
  6
CONTINUOUS
 62
     7
100
AcDbLine
 10
289.578253577358
 20
443.9494735672408
 30
0.0
 11
264.4333662343385
 21
447.5684143039611
 31
0.0
  0
LINE
  5
1C2
330
1F
100
AcDbEntity
  8
LAY-10
  6
CONTINUOUS
 62
     7
100
AcDbLine
 10
264.4333662343385
 20
432.4315856960399
 30
0.0
 11
289.578253577358
 21
436.0505264327603
 31
0.0
  0
ARC
  5
1C3
330
1F
100
AcDbEntity
  8
LAY-10
  6
CONTINUOUS
 62
     7
100
AcDbCircle
 10
291.8219807913319
 20
429.5049157165408
 30
0.0
 40
2.990168566919546
100
AcDbArc
 50
308.1899704159558
 51
111.8100295840438
  0
LINE
  5
1C4
330
1F
100
AcDbEntity
  8
LAY-10
  6
CONTINUOUS
 62
     7
100
AcDbLine
 10
267.1254608026356
 20
422.8427013657746
 30
0.0
 11
290.7110423853484
 21
432.2810504244944
 31
0.0
  0
LINE
  5
1C5
330
1F
100
AcDbEntity
  8
LAY-10
  6
CONTINUOUS
 62
     7
100
AcDbLine
 10
273.7040739237631
 20
411.4482091966426
 30
0.0
 11
293.6707147697556
 21
427.1547474809424
 31
0.0
  0
ARC
  5
1C6
330
1F
100
AcDbEntity
  8
LAY-10
  6
CONTINUOUS
 62
     7
100
AcDbCircle
 10
291.8219807913319
 20
429.5049157165408
 30
0.0
 40
3.990168566919546
100
AcDbArc
 50
308.1899704159578
 51
111.8100295840409
  0
LINE
  5
1C7
330
1F
100
AcDbEntity
  8
LAY-10
  6
CONTINUOUS
 62
     7
100
AcDbLine
 10
290.339512024728
 20
433.2094712294838
 30
0.0
 11
266.7539304420154
 21
423.771122170764
 31
0.0
  0
LINE
  5
1C8
330
1F
100
AcDbEntity
  8
LAY-10
  6
CONTINUOUS
 62
     7
100
AcDbLine
 10
274.3223447459758
 20
410.6622440635735
 30
0.0
 11
294.2889855919684
 21
426.3687823478733
 31
0.0
  0
ARC
  5
1C9
330
1F
100
AcDbEntity
  8
LAY-10
  6
CONTINUOUS
 62
     7
100
AcDbCircle
 10
299.5049157165421
 20
421.8219807913305
 30
0.0
 40
2.990168566919546
100
AcDbArc
 50
338.1899704159563
 51
141.8100295840445
  0
LINE
  5
1CA
330
1F
100
AcDbEntity
  8
LAY-10
  6
CONTINUOUS
 62
     7
100
AcDbLine
 10
281.448209196644
 20
403.7040739237618
 30
0.0
 11
297.1547474809437
 21
423.6707147697543
 31
0.0
  0
LINE
  5
1CB
330
1F
100
AcDbEntity
  8
LAY-10
  6
CONTINUOUS
 62
     7
100
AcDbLine
 10
292.842701365776
 20
397.1254608026343
 30
0.0
 11
302.2810504244957
 21
420.7110423853471
 31
0.0
  0
ARC
  5
1CC
330
1F
100
AcDbEntity
  8
LAY-10
  6
CONTINUOUS
 62
     7
100
AcDbCircle
 10
299.5049157165421
 20
421.8219807913305
 30
0.0
 40
3.990168566919546
100
AcDbArc
 50
338.1899704159559
 51
141.8100295840445
  0
LINE
  5
1CD
330
1F
100
AcDbEntity
  8
LAY-10
  6
CONTINUOUS
 62
     7
100
AcDbLine
 10
296.3687823478746
 20
424.288985591967
 30
0.0
 11
280.6622440635749
 21
404.3223447459745
 31
0.0
  0
LINE
  5
1CE
330
1F
100
AcDbEntity
  8
LAY-10
  6
CONTINUOUS
 62
     7
100
AcDbLine
 10
293.7711221707654
 20
396.7539304420139
 30
0.0
 11
303.2094712294851
 21
420.3395120247266
 31
0.0
  0
ARC
  5
1CF
330
1F
100
AcDbEntity
  8
LAY-10
  6
CONTINUOUS
 62
     7
100
AcDbCircle
 10
310.000000000002
 20
440.0000000000004
 30
0.0
 40
42.11836509647344
100
AcDbArc
 50
81.81002958404441
 51
98.1899704159556
  0
ARC
  5
1D0
330
1F
100
AcDbEntity
  8
LAY-10
  6
CONTINUOUS
 62
     7
100
AcDbCircle
 10
310.000000000002
 20
440.0000000000004
 30
0.0
 40
42.11836509647344
100
AcDbArc
 50
231.8100295840441
 51
248.1899704159553
  0
ARC
  5
1D1
330
1F
100
AcDbEntity
  8
LAY-10
  6
CONTINUOUS
 62
     7
100
AcDbCircle
 10
310.000000000002
 20
440.0000000000004
 30
0.0
 40
42.11836509647344
100
AcDbArc
 50
171.8100295840447
 51
188.1899704159554
  0
ARC
  5
1D2
330
1F
100
AcDbEntity
  8
LAY-10
  6
CONTINUOUS
 62
     7
100
AcDbCircle
 10
310.000000000002
 20
440.0000000000004
 30
0.0
 40
42.11836509647344
100
AcDbArc
 50
141.8100295840445
 51
158.1899704159558
  0
ARC
  5
1D3
330
1F
100
AcDbEntity
  8
LAY-10
  6
CONTINUOUS
 62
     7
100
AcDbCircle
 10
310.000000000002
 20
440.0000000000004
 30
0.0
 40
42.11836509647344
100
AcDbArc
 50
111.8100295840445
 51
128.1899704159555
  0
ARC
  5
1D4
330
1F
100
AcDbEntity
  8
LAY-10
  6
CONTINUOUS
 62
     7
100
AcDbCircle
 10
310.000000000002
 20
440.0000000000004
 30
0.0
 40
46.18007154401676
100
AcDbArc
 50
98.18997041595553
 51
111.8100295840444
  0
ARC
  5
1D5
330
1F
100
AcDbEntity
  8
LAY-10
  6
CONTINUOUS
 62
     7
100
AcDbCircle
 10
310.000000000002
 20
440.0000000000004
 30
0.0
 40
46.18007154401676
100
AcDbArc
 50
218.1899704159555
 51
231.8100295840445
  0
ARC
  5
1D6
330
1F
100
AcDbEntity
  8
LAY-10
  6
CONTINUOUS
 62
     7
100
AcDbCircle
 10
310.000000000002
 20
440.0000000000004
 30
0.0
 40
46.18007154401676
100
AcDbArc
 50
188.1899704159554
 51
201.8100295840444
  0
ARC
  5
1D7
330
1F
100
AcDbEntity
  8
LAY-10
  6
CONTINUOUS
 62
     7
100
AcDbCircle
 10
310.000000000002
 20
440.0000000000004
 30
0.0
 40
46.18007154401676
100
AcDbArc
 50
158.1899704159554
 51
171.8100295840446
  0
ARC
  5
1D8
330
1F
100
AcDbEntity
  8
LAY-10
  6
CONTINUOUS
 62
     7
100
AcDbCircle
 10
310.000000000002
 20
440.0000000000004
 30
0.0
 40
46.18007154401676
100
AcDbArc
 50
128.1899704159554
 51
141.8100295840445
  0
ARC
  5
1D9
330
1F
100
AcDbEntity
  8
LAY-10
  6
CONTINUOUS
 62
     7
100
AcDbCircle
 10
310.000000000002
 20
440.0000000000004
 30
0.0
 40
42.11836509647344
100
AcDbArc
 50
201.8100295840444
 51
218.1899704159557
  0
TEXT
  5
1DA
330
1F
100
AcDbEntity
  8
LAY-10
  6
CONTINUOUS
 62
     7
100
AcDbText
 10
329.7191388277603
 20
491.3971732620494
 30
0.0
 40
5.4566932
  1
Ｘ
 50
162.5578608624841
 41
1.2
  7
EXCADSTD
100
AcDbText
  0
TEXT
  5
1DB
330
1F
100
AcDbEntity
  8
LAY-10
  6
CONTINUOUS
 62
     7
100
AcDbText
 10
323.3299921346952
 20
493.411844801753
 30
0.0
 40
5.4566932
  1
－
 50
169.5347165174907
 41
1.2
  7
EXCADSTD
100
AcDbText
  0
TEXT
  5
1DC
330
1F
100
AcDbEntity
  8
LAY-10
  6
CONTINUOUS
 62
     7
100
AcDbText
 10
316.7434362341718
 20
494.6355188791433
 30
0.0
 40
5.4566932
  1
９
 50
176.5115721724968
 41
1.2
  7
EXCADSTD
100
AcDbText
  0
TEXT
  5
1DD
330
1F
100
AcDbEntity
  8
LAY-10
  6
CONTINUOUS
 62
     7
100
AcDbText
 10
310.0570140779836
 20
495.0500736133247
 30
0.0
 40
5.4566932
  1
０
 50
183.4884278275032
 41
1.2
  7
EXCADSTD
100
AcDbText
  0
TEXT
  5
1DE
330
1F
100
AcDbEntity
  8
LAY-10
  6
CONTINUOUS
 62
     7
100
AcDbText
 10
303.3697475774152
 20
494.6493696967341
 30
0.0
 40
5.4566932
  1
６
 50
190.4652834825094
 41
1.2
  7
EXCADSTD
100
AcDbText
  0
TEXT
  5
1DF
330
1F
100
AcDbEntity
  8
LAY-10
  6
CONTINUOUS
 62
     7
100
AcDbText
 10
296.7806711479859
 20
493.4393413146138
 30
0.0
 40
5.4566932
  1
５
 50
197.442139137516
 41
1.2
  7
EXCADSTD
100
AcDbText
  0
ARC
  5
1E0
330
1F
100
AcDbEntity
  8
LAY-10
  6
CONTINUOUS
 62
     7
100
AcDbCircle
 10
256.5000000000015
 20
440.0000000000004
 30
0.0
 40
3.999999999999776
100
AcDbArc
 50
270.0000000000001
 51
90.00000000000004
  0
LINE
  5
1E1
330
1F
100
AcDbEntity
  8
LAY-10
  6
CONTINUOUS
 62
     7
100
AcDbLine
 10
249.8252544666804
 20
450.0000000000004
 30
0.0
 11
264.9156456427473
 21
450.0000000000004
 31
0.0
  0
LINE
  5
1E2
330
1F
100
AcDbEntity
  8
LAY-10
  6
CONTINUOUS
 62
     7
100
AcDbLine
 10
249.8252544666804
 20
430.0000000000004
 30
0.0
 11
264.9156456427473
 21
430.0000000000004
 31
0.0
  0
LINE
  5
1E3
330
1F
100
AcDbEntity
  8
LAY-10
  6
CONTINUOUS
 62
     7
100
AcDbLine
 10
302.1732230694788
 20
386.755244718198
 30
0.0
 11
310.000000000002
 21
391.7414515386085
 31
0.0
  0
LINE
  5
1E4
330
1F
100
AcDbEntity
  8
LAY-10
  6
CONTINUOUS
 62
     7
100
AcDbLine
 10
317.8267769305252
 20
386.755244718198
 30
0.0
 11
310.000000000002
 21
391.7414515386085
 31
0.0
  0
LINE
  5
1E5
330
1F
100
AcDbEntity
  8
LAY-10
  6
CONTINUOUS
 62
     7
100
AcDbLine
 10
317.8267769305252
 20
386.7552447182005
 30
0.0
 11
310.000000000002
 21
381.76903789779
 31
0.0
  0
LINE
  5
1E6
330
1F
100
AcDbEntity
  8
LAY-10
  6
CONTINUOUS
 62
     7
100
AcDbLine
 10
302.1732230694788
 20
386.7552447182005
 30
0.0
 11
310.000000000002
 21
381.76903789779
 31
0.0
  0
TEXT
  5
1E7
330
1F
100
AcDbEntity
  8
LAY-10
  6
CONTINUOUS
 62
     7
100
AcDbText
 10
305.2190909635019
 20
384.3320454887362
 30
0.0
 40
4.49725051156826
  1
ＳＦ
 41
1.050332805092682
  7
EXCADSTD
100
AcDbText
  0
ARC
  5
1E8
330
1F
100
AcDbEntity
  8
LAY-10
  6
CONTINUOUS
 62
     7
100
AcDbCircle
 10
320.4950842834618
 20
458.1780192086705
 30
0.0
 40
2.990168566919546
100
AcDbArc
 50
158.1899704159563
 51
321.8100295840446
  0
LINE
  5
1E9
330
1F
100
AcDbEntity
  8
LAY-10
  6
CONTINUOUS
 62
     7
100
AcDbLine
 10
327.1572986342277
 20
482.8745391973668
 30
0.0
 11
317.7189495755082
 21
459.288957614654
 31
0.0
  0
LINE
  5
1EA
330
1F
100
AcDbEntity
  8
LAY-10
  6
CONTINUOUS
 62
     7
100
AcDbLine
 10
338.55179080336
 20
476.2959260762393
 30
0.0
 11
322.84525251906
 21
456.3292852302467
 31
0.0
  0
ARC
  5
1EB
330
1F
100
AcDbEntity
  8
LAY-10
  6
CONTINUOUS
 62
     7
100
AcDbCircle
 10
320.4950842834618
 20
458.1780192086705
 30
0.0
 40
3.990168566919546
100
AcDbArc
 50
158.1899704159594
 51
321.8100295840457
  0
LINE
  5
1EC
330
1F
100
AcDbEntity
  8
LAY-10
  6
CONTINUOUS
 62
     7
100
AcDbLine
 10
316.7905287705186
 20
459.6604879752744
 30
0.0
 11
326.2288778292383
 21
483.246069557987
 31
0.0
  0
LINE
  5
1ED
330
1F
100
AcDbEntity
  8
LAY-10
  6
CONTINUOUS
 62
     7
100
AcDbLine
 10
339.3377559364291
 20
475.6776552540265
 30
0.0
 11
323.6312176521294
 21
455.711014408034
 31
0.0
  0
ARC
  5
1EE
330
1F
100
AcDbEntity
  8
LAY-10
  6
CONTINUOUS
 62
     7
100
AcDbCircle
 10
328.1780192086721
 20
450.4950842834602
 30
0.0
 40
2.990168566919546
100
AcDbArc
 50
128.1899704159586
 51
291.8100295840439
  0
LINE
  5
1EF
330
1F
100
AcDbEntity
  8
LAY-10
  6
CONTINUOUS
 62
     7
100
AcDbLine
 10
346.2959260762408
 20
468.5517908033584
 30
0.0
 11
326.3292852302481
 21
452.8452525190586
 31
0.0
  0
LINE
  5
1F0
330
1F
100
AcDbEntity
  8
LAY-10
  6
CONTINUOUS
 62
     7
100
AcDbLine
 10
352.8745391973682
 20
457.1572986342264
 30
0.0
 11
329.2889576146555
 21
447.7189495755067
 31
0.0
  0
ARC
  5
1F1
330
1F
100
AcDbEntity
  8
LAY-10
  6
CONTINUOUS
 62
     7
100
AcDbCircle
 10
328.1780192086721
 20
450.4950842834602
 30
0.0
 40
3.990168566919546
100
AcDbArc
 50
128.1899704159578
 51
291.8100295840445
  0
LINE
  5
1F2
330
1F
100
AcDbEntity
  8
LAY-10
  6
CONTINUOUS
 62
     7
100
AcDbLine
 10
325.7110144080356
 20
453.6312176521278
 30
0.0
 11
345.6776552540281
 21
469.3377559364275
 31
0.0
  0
LINE
  5
1F3
330
1F
100
AcDbEntity
  8
LAY-10
  6
CONTINUOUS
 62
     7
100
AcDbLine
 10
353.2460695579886
 20
456.228877829237
 30
0.0
 11
329.6604879752758
 21
446.7905287705173
 31
0.0
  0
ARC
  5
1F4
330
1F
100
AcDbEntity
  8
LAY-10
  6
CONTINUOUS
 62
     7
100
AcDbCircle
 10
330.9901685669217
 20
440.0000000000004
 30
0.0
 40
2.990168566919546
100
AcDbArc
 50
98.18997041595789
 51
261.8100295840422
  0
LINE
  5
1F5
330
1F
100
AcDbEntity
  8
LAY-10
  6
CONTINUOUS
 62
     7
100
AcDbLine
 10
355.7090894375858
 20
446.5786131211279
 30
0.0
 11
330.5642020945663
 21
442.9596723844078
 31
0.0
  0
LINE
  5
1F6
330
1F
100
AcDbEntity
  8
LAY-10
  6
CONTINUOUS
 62
     7
100
AcDbLine
 10
355.7090894375858
 20
433.4213868788731
 30
0.0
 11
330.5642020945663
 21
437.0403276155932
 31
0.0
  0
ARC
  5
1F7
330
1F
100
AcDbEntity
  8
LAY-10
  6
CONTINUOUS
 62
     7
100
AcDbCircle
 10
330.9901685669217
 20
440.0000000000004
 30
0.0
 40
3.990168566919546
100
AcDbArc
 50
98.189970415958
 51
261.8100295840454
  0
LINE
  5
1F8
330
1F
100
AcDbEntity
  8
LAY-10
  6
CONTINUOUS
 62
     7
100
AcDbLine
 10
330.421746422646
 20
443.9494735672408
 30
0.0
 11
355.5666337656655
 21
447.5684143039611
 31
0.0
  0
LINE
  5
1F9
330
1F
100
AcDbEntity
  8
LAY-10
  6
CONTINUOUS
 62
     7
100
AcDbLine
 10
355.5666337656655
 20
432.4315856960399
 30
0.0
 11
330.421746422646
 21
436.0505264327603
 31
0.0
  0
ARC
  5
1FA
330
1F
100
AcDbEntity
  8
LAY-10
  6
CONTINUOUS
 62
     7
100
AcDbCircle
 10
328.1780192086721
 20
429.5049157165408
 30
0.0
 40
2.990168566919546
100
AcDbArc
 50
68.18997041595622
 51
231.8100295840445
  0
LINE
  5
1FB
330
1F
100
AcDbEntity
  8
LAY-10
  6
CONTINUOUS
 62
     7
100
AcDbLine
 10
352.8745391973684
 20
422.8427013657746
 30
0.0
 11
329.2889576146555
 21
432.2810504244944
 31
0.0
  0
LINE
  5
1FC
330
1F
100
AcDbEntity
  8
LAY-10
  6
CONTINUOUS
 62
     7
100
AcDbLine
 10
346.2959260762408
 20
411.4482091966426
 30
0.0
 11
326.3292852302483
 21
427.1547474809424
 31
0.0
  0
ARC
  5
1FD
330
1F
100
AcDbEntity
  8
LAY-10
  6
CONTINUOUS
 62
     7
100
AcDbCircle
 10
328.1780192086721
 20
429.5049157165408
 30
0.0
 40
3.990168566919546
100
AcDbArc
 50
68.18997041595912
 51
231.8100295840435
  0
LINE
  5
1FE
330
1F
100
AcDbEntity
  8
LAY-10
  6
CONTINUOUS
 62
     7
100
AcDbLine
 10
329.660487975276
 20
433.2094712294838
 30
0.0
 11
353.2460695579886
 21
423.771122170764
 31
0.0
  0
LINE
  5
1FF
330
1F
100
AcDbEntity
  8
LAY-10
  6
CONTINUOUS
 62
     7
100
AcDbLine
 10
345.6776552540281
 20
410.6622440635735
 30
0.0
 11
325.7110144080356
 21
426.3687823478733
 31
0.0
  0
ARC
  5
200
330
1F
100
AcDbEntity
  8
LAY-10
  6
CONTINUOUS
 62
     7
100
AcDbCircle
 10
320.4950842834618
 20
421.8219807913305
 30
0.0
 40
2.990168566919546
100
AcDbArc
 50
38.18997041595556
 51
201.8100295840439
  0
LINE
  5
201
330
1F
100
AcDbEntity
  8
LAY-10
  6
CONTINUOUS
 62
     7
100
AcDbLine
 10
338.55179080336
 20
403.7040739237618
 30
0.0
 11
322.8452525190602
 21
423.6707147697543
 31
0.0
  0
LINE
  5
202
330
1F
100
AcDbEntity
  8
LAY-10
  6
CONTINUOUS
 62
     7
100
AcDbLine
 10
327.157298634228
 20
397.1254608026343
 30
0.0
 11
317.7189495755082
 21
420.7110423853471
 31
0.0
  0
ARC
  5
203
330
1F
100
AcDbEntity
  8
LAY-10
  6
CONTINUOUS
 62
     7
100
AcDbCircle
 10
320.4950842834618
 20
421.8219807913305
 30
0.0
 40
3.990168566919546
100
AcDbArc
 50
38.18997041595551
 51
201.8100295840443
  0
LINE
  5
204
330
1F
100
AcDbEntity
  8
LAY-10
  6
CONTINUOUS
 62
     7
100
AcDbLine
 10
323.6312176521294
 20
424.288985591967
 30
0.0
 11
339.3377559364291
 21
404.3223447459745
 31
0.0
  0
LINE
  5
205
330
1F
100
AcDbEntity
  8
LAY-10
  6
CONTINUOUS
 62
     7
100
AcDbLine
 10
326.2288778292386
 20
396.7539304420139
 30
0.0
 11
316.7905287705188
 21
420.3395120247266
 31
0.0
  0
ARC
  5
206
330
1F
100
AcDbEntity
  8
LAY-10
  6
CONTINUOUS
 62
     7
100
AcDbCircle
 10
310.000000000002
 20
440.0000000000004
 30
0.0
 40
42.11836509647344
100
AcDbArc
 50
291.810029584045
 51
308.1899704159563
  0
ARC
  5
207
330
1F
100
AcDbEntity
  8
LAY-10
  6
CONTINUOUS
 62
     7
100
AcDbCircle
 10
310.000000000002
 20
440.0000000000004
 30
0.0
 40
42.11836509647344
100
AcDbArc
 50
351.8100295840448
 51
8.189970415955614
  0
ARC
  5
208
330
1F
100
AcDbEntity
  8
LAY-10
  6
CONTINUOUS
 62
     7
100
AcDbCircle
 10
310.000000000002
 20
440.0000000000004
 30
0.0
 40
42.11836509647344
100
AcDbArc
 50
21.8100295840444
 51
38.1899704159558
  0
ARC
  5
209
330
1F
100
AcDbEntity
  8
LAY-10
  6
CONTINUOUS
 62
     7
100
AcDbCircle
 10
310.000000000002
 20
440.0000000000004
 30
0.0
 40
42.11836509647344
100
AcDbArc
 50
51.81002958404446
 51
68.18997041595564
  0
ARC
  5
20A
330
1F
100
AcDbEntity
  8
LAY-10
  6
CONTINUOUS
 62
     7
100
AcDbCircle
 10
310.000000000002
 20
440.0000000000004
 30
0.0
 40
46.18007154401676
100
AcDbArc
 50
308.189970415956
 51
321.8100295840447
  0
ARC
  5
20B
330
1F
100
AcDbEntity
  8
LAY-10
  6
CONTINUOUS
 62
     7
100
AcDbCircle
 10
310.000000000002
 20
440.0000000000004
 30
0.0
 40
46.18007154401676
100
AcDbArc
 50
338.1899704159559
 51
351.8100295840447
  0
ARC
  5
20C
330
1F
100
AcDbEntity
  8
LAY-10
  6
CONTINUOUS
 62
     7
100
AcDbCircle
 10
310.000000000002
 20
440.0000000000004
 30
0.0
 40
46.18007154401676
100
AcDbArc
 50
8.189970415955614
 51
21.8100295840448
  0
ARC
  5
20D
330
1F
100
AcDbEntity
  8
LAY-10
  6
CONTINUOUS
 62
     7
100
AcDbCircle
 10
310.000000000002
 20
440.0000000000004
 30
0.0
 40
46.18007154401676
100
AcDbArc
 50
38.18997041595563
 51
51.81002958404463
  0
ARC
  5
20E
330
1F
100
AcDbEntity
  8
LAY-10
  6
CONTINUOUS
 62
     7
100
AcDbCircle
 10
310.000000000002
 20
440.0000000000004
 30
0.0
 40
42.11836509647344
100
AcDbArc
 50
321.8100295840451
 51
338.1899704159559
  0
ARC
  5
20F
330
1F
100
AcDbEntity
  8
LAY-10
  6
CONTINUOUS
 62
     7
100
AcDbCircle
 10
363.5000000000024
 20
440.0000000000004
 30
0.0
 40
3.999999999999776
100
AcDbArc
 50
90.00000000000004
 51
270.0000000000001
  0
LINE
  5
210
330
1F
100
AcDbEntity
  8
LAY-10
  6
CONTINUOUS
 62
     7
100
AcDbLine
 10
370.1747455333236
 20
450.0000000000004
 30
0.0
 11
355.0843543572566
 21
450.0000000000004
 31
0.0
  0
LINE
  5
211
330
1F
100
AcDbEntity
  8
LAY-10
  6
CONTINUOUS
 62
     7
100
AcDbLine
 10
370.1747455333236
 20
430.0000000000004
 30
0.0
 11
355.0843543572566
 21
430.0000000000004
 31
0.0
  0
LINE
  5
212
330
1F
100
AcDbEntity
  8
LAY-10
  6
CONTINUOUS
 62
     7
100
AcDbLine
 10
303.4213868788744
 20
394.2909105624166
 30
0.0
 11
307.0403276155948
 21
419.4357979054361
 31
0.0
  0
LINE
  5
213
330
1F
100
AcDbEntity
  8
LAY-10
  6
CONTINUOUS
 62
     7
100
AcDbLine
 10
316.5786131211295
 20
394.2909105624166
 30
0.0
 11
312.9596723844092
 21
419.4357979054361
 31
0.0
  0
ARC
  5
214
330
1F
100
AcDbEntity
  8
LAY-10
  6
CONTINUOUS
 62
     7
100
AcDbCircle
 10
310.000000000002
 20
419.0098314330807
 30
0.0
 40
2.990168566919546
100
AcDbArc
 50
8.189970415957848
 51
171.8100295840422
  0
ARC
  5
215
330
1F
100
AcDbEntity
  8
LAY-10
  6
CONTINUOUS
 62
     7
100
AcDbCircle
 10
310.000000000002
 20
419.0098314330807
 30
0.0
 40
3.990168566919546
100
AcDbArc
 50
8.189970415957964
 51
171.8100295840454
  0
LINE
  5
216
330
1F
100
AcDbEntity
  8
LAY-10
  6
CONTINUOUS
 62
     7
100
AcDbLine
 10
313.9494735672424
 20
419.5782535773564
 30
0.0
 11
317.5684143039625
 21
394.4333662343369
 31
0.0
  0
LINE
  5
217
330
1F
100
AcDbEntity
  8
LAY-10
  6
CONTINUOUS
 62
     7
100
AcDbLine
 10
302.4315856960415
 20
394.4333662343369
 30
0.0
 11
306.0505264327616
 21
419.5782535773564
 31
0.0
  0
ARC
  5
218
330
1F
100
AcDbEntity
  8
LAY-10
  6
CONTINUOUS
 62
     7
100
AcDbCircle
 10
310.000000000002
 20
440.0000000000004
 30
0.0
 40
42.11836509647344
100
AcDbArc
 50
261.8100295840445
 51
278.1899704159559
  0
ARC
  5
219
330
1F
100
AcDbEntity
  8
LAY-10
  6
CONTINUOUS
 62
     7
100
AcDbCircle
 10
310.000000000002
 20
440.0000000000004
 30
0.0
 40
46.18007154401676
100
AcDbArc
 50
68.18997041595576
 51
81.81002958404464
  0
ARC
  5
21A
330
1F
100
AcDbEntity
  8
LAY-10
  6
CONTINUOUS
 62
     7
100
AcDbCircle
 10
310.000000000002
 20
440.0000000000004
 30
0.0
 40
46.18007154401676
100
AcDbArc
 50
248.1899704159558
 51
261.8100295840449
  0
ARC
  5
21B
330
1F
100
AcDbEntity
  8
LAY-10
  6
CONTINUOUS
 62
     7
100
AcDbCircle
 10
310.000000000002
 20
440.0000000000004
 30
0.0
 40
46.18007154401676
100
AcDbArc
 50
278.1899704159555
 51
291.8100295840446
  0
LINE
  5
21C
330
1F
100
AcDbEntity
  8
LAY-10
  6
CONTINUOUS
 62
     7
100
AcDbLine
 10
249.3236029446695
 20
433.7250625195439
 30
0.0
 11
247.8157965427236
 21
433.7250625195439
 31
0.0
  0
LINE
  5
21D
330
1F
100
AcDbEntity
  8
LAY-10
  6
CONTINUOUS
 62
     7
100
AcDbLine
 10
249.2957991568972
 20
434.0000000000001
 30
0.0
 11
247.5962795345601
 21
434.0000000000001
 31
0.0
  0
LINE
  5
21E
330
1F
100
AcDbEntity
  8
LAY-10
  6
CONTINUOUS
 62
     7
100
AcDbLine
 10
256.5000000000015
 20
436.0000000000006
 30
0.0
 11
255.4003676271859
 21
436.0000000000006
 31
0.0
  0
LINE
  5
21F
330
1F
100
AcDbEntity
  8
LAY-10
  6
CONTINUOUS
 62
     7
100
AcDbLine
 10
256.5000000000015
 20
444.0000000000002
 30
0.0
 11
255.4003676271871
 21
444.0000000000002
 31
0.0
  0
LINE
  5
220
330
1F
100
AcDbEntity
  8
LAY-10
  6
CONTINUOUS
 62
     7
100
AcDbLine
 10
249.2957991568971
 20
446.0000000000001
 30
0.0
 11
247.5962795345601
 21
446.0000000000001
 31
0.0
  0
LINE
  5
221
330
1F
100
AcDbEntity
  8
LAY-10
  6
CONTINUOUS
 62
     7
100
AcDbLine
 10
249.3236029446694
 20
446.2749374804565
 30
0.0
 11
247.8157965427236
 21
446.2749374804565
 31
0.0
  0
LINE
  5
222
330
1F
100
AcDbEntity
  8
LAY-10
  6
CONTINUOUS
 62
     7
100
AcDbLine
 10
305.7000000000019
 20
377.6480954581194
 30
0.0
 11
305.7000000000019
 21
379.1517461220132
 31
0.0
  0
LINE
  5
223
330
1F
100
AcDbEntity
  8
LAY-10
  6
CONTINUOUS
 62
     7
100
AcDbLine
 10
306.0000000000019
 20
377.4362379014097
 30
0.0
 11
306.0000000000018
 21
379.1312888258677
 31
0.0
  0
LINE
  5
224
330
1F
100
AcDbEntity
  8
LAY-10
  6
CONTINUOUS
 62
     7
100
AcDbLine
 10
314.0000000000018
 20
377.4362379014097
 30
0.0
 11
314.0000000000017
 21
379.1312888258677
 31
0.0
  0
LINE
  5
225
330
1F
100
AcDbEntity
  8
LAY-10
  6
CONTINUOUS
 62
     7
100
AcDbLine
 10
314.3000000000017
 20
379.1517461220132
 30
0.0
 11
314.3000000000017
 21
377.6480954581194
 31
0.0
  0
LINE
  5
226
330
1F
100
AcDbEntity
  8
LAY-10
  6
CONTINUOUS
 62
     7
100
AcDbLine
 10
370.6763970553345
 20
433.7250625195439
 30
0.0
 11
372.1842034572804
 21
433.7250625195439
 31
0.0
  0
LINE
  5
227
330
1F
100
AcDbEntity
  8
LAY-10
  6
CONTINUOUS
 62
     7
100
AcDbLine
 10
370.7042008431067
 20
434.0000000000001
 30
0.0
 11
372.4037204654439
 21
434.0000000000001
 31
0.0
  0
ARC
  5
228
330
1F
100
AcDbEntity
  8
LAY-10
  6
CONTINUOUS
 62
     7
100
AcDbCircle
 10
310.000000000002
 20
440.0000000000005
 30
0.0
 40
61.00000000000004
100
AcDbArc
 50
184.1510401851211
 51
355.8489598148788
  0
LINE
  5
229
330
1F
100
AcDbEntity
  8
LAY-10
  6
CONTINUOUS
 62
     7
100
AcDbLine
 10
363.5000000000024
 20
436.0000000000006
 30
0.0
 11
364.5996323728188
 21
436.0000000000006
 31
0.0
  0
LINE
  5
22A
330
1F
100
AcDbEntity
  8
LAY-10
  6
CONTINUOUS
 62
     7
100
AcDbLine
 10
363.5000000000024
 20
444.0000000000002
 30
0.0
 11
364.5996323728176
 21
444.0000000000002
 31
0.0
  0
ARC
  5
22B
330
1F
100
AcDbEntity
  8
LAY-10
  6
CONTINUOUS
 62
     7
100
AcDbCircle
 10
310.000000000002
 20
440.0000000000005
 30
0.0
 40
61.00000000000004
100
AcDbArc
 50
4.151040185122238
 51
175.8489598148784
  0
LINE
  5
22C
330
1F
100
AcDbEntity
  8
LAY-10
  6
CONTINUOUS
 62
     7
100
AcDbLine
 10
370.7042008431068
 20
446.0000000000001
 30
0.0
 11
372.4037204654439
 21
446.0000000000001
 31
0.0
  0
LINE
  5
22D
330
1F
100
AcDbEntity
  8
LAY-10
  6
CONTINUOUS
 62
     7
100
AcDbLine
 10
370.6763970553346
 20
446.2749374804565
 30
0.0
 11
372.1842034572804
 21
446.2749374804565
 31
0.0
  0
LINE
  5
22E
330
1F
100
AcDbEntity
  8
LAY-10
  6
CONTINUOUS
 62
     7
100
AcDbLine
 10
306.0000000000019
 20
502.5637620985904
 30
0.0
 11
306.0000000000019
 21
500.8687111741334
 31
0.0
  0
LINE
  5
22F
330
1F
100
AcDbEntity
  8
LAY-10
  6
CONTINUOUS
 62
     7
100
AcDbLine
 10
305.7000000000019
 20
502.351904541881
 30
0.0
 11
305.700000000002
 21
500.8482538779879
 31
0.0
  0
LINE
  5
230
330
1F
100
AcDbEntity
  8
LAY-10
  6
CONTINUOUS
 62
     7
100
AcDbLine
 10
314.0000000000018
 20
502.5637620985904
 30
0.0
 11
314.0000000000018
 21
500.8687111741334
 31
0.0
  0
LINE
  5
231
330
1F
100
AcDbEntity
  8
LAY-10
  6
CONTINUOUS
 62
     7
100
AcDbLine
 10
314.3000000000017
 20
500.8482538779879
 30
0.0
 11
314.3000000000017
 21
502.351904541881
 31
0.0
  0
LINE
  5
232
330
1F
100
AcDbEntity
  8
LAY-10
  6
CONTINUOUS
 62
     7
100
AcDbLine
 10
230.5376247012132
 20
163.1986412404981
 30
0.0
 11
219.9999999999973
 21
163.1986412404981
 31
0.0
  0
LINE
  5
233
330
1F
100
AcDbEntity
  8
LAY-10
  6
CONTINUOUS
 62
     7
100
AcDbLine
 10
219.9999999999973
 20
163.1986412404981
 30
0.0
 11
220.999999999997
 21
170.1986412404981
 31
0.0
  0
LINE
  5
234
330
1F
100
AcDbEntity
  8
LAY-10
  6
CONTINUOUS
 62
     7
100
AcDbLine
 10
226.6847759934224
 20
165.8740513444232
 30
0.0
 11
229.0377293291274
 21
165.2435793982929
 31
0.0
  0
LINE
  5
235
330
1F
100
AcDbEntity
  8
LAY-10
  6
CONTINUOUS
 62
     7
100
AcDbLine
 10
224.1872389158948
 20
164.2250424043197
 30
0.0
 11
224.0406101782062
 21
163.1986412404981
 31
0.0
  0
ARC
  5
236
330
1F
100
AcDbEntity
  8
LAY-10
  6
CONTINUOUS
 62
     7
100
AcDbCircle
 10
226.1671379032173
 20
163.942199691845
 30
0.0
 40
2.0
100
AcDbArc
 50
74.99999999999885
 51
171.8698976458419
  0
LINE
  5
237
330
1F
100
AcDbEntity
  8
LAY-10
  6
CONTINUOUS
 62
     7
100
AcDbLine
 10
231.4999999999984
 20
152.1986412404981
 30
0.0
 11
243.4999999999923
 21
152.1986412404981
 31
0.0
  0
LINE
  5
238
330
1F
100
AcDbEntity
  8
LAY-10
  6
CONTINUOUS
 62
     7
100
AcDbLine
 10
230.5124806351057
 20
163.4860392312101
 30
0.0
 11
231.4999999999984
 21
152.1986412404981
 31
0.0
  0
LINE
  5
239
330
1F
100
AcDbEntity
  8
LAY-10
  6
CONTINUOUS
 62
     7
100
AcDbLine
 10
244.0761398140062
 20
158.783949448381
 30
0.0
 11
243.4999999999923
 21
152.1986412404981
 31
0.0
  0
ARC
  5
23A
330
1F
100
AcDbEntity
  8
LAY-10
  6
CONTINUOUS
 62
     7
100
AcDbCircle
 10
246.0685292101896
 20
158.6096379628856
 30
0.0
 40
2.0
100
AcDbArc
 50
74.99999999999885
 51
175.0000000000003
  0
ARC
  5
23B
330
1F
100
AcDbEntity
  8
LAY-10
  6
CONTINUOUS
 62
     7
100
AcDbCircle
 10
228.5200912389223
 20
163.3117277457148
 30
0.0
 40
2.0
100
AcDbArc
 50
4.999999999999801
 51
74.99999999999885
  0
LINE
  5
23C
330
1F
100
AcDbEntity
  8
LAY-10
  6
CONTINUOUS
 62
     7
100
AcDbLine
 10
225.999999999997
 20
170.1986412404981
 30
0.0
 11
261.5428216760322
 21
160.6749708756802
 31
0.0
  0
LINE
  5
23D
330
1F
100
AcDbEntity
  8
LAY-10
  6
CONTINUOUS
 62
     7
100
AcDbLine
 10
246.5861673003947
 20
160.5414896154637
 30
0.0
 11
260.5075454956223
 21
156.811267570524
 31
0.0
  0
LINE
  5
23E
330
1F
100
AcDbEntity
  8
LAY-10
  6
CONTINUOUS
 62
     7
100
AcDbLine
 10
277.5367971220157
 20
149.1986412404964
 30
0.0
 11
268.1937874002867
 21
149.1986412404964
 31
0.0
  0
LINE
  5
23F
330
1F
100
AcDbEntity
  8
LAY-10
  6
CONTINUOUS
 62
     7
100
AcDbLine
 10
261.9871664749264
 20
154.9840878304317
 30
0.0
 11
262.2020101917597
 21
150.8846255030386
 31
0.0
  0
ARC
  5
240
330
1F
100
AcDbEntity
  8
LAY-10
  6
CONTINUOUS
 62
     7
100
AcDbCircle
 10
268.1937874002872
 20
151.1986412404963
 30
0.0
 40
6.000000000000004
100
AcDbArc
 50
183.0000000000003
 51
270.0000000000002
  0
LINE
  5
241
330
1F
100
AcDbEntity
  8
LAY-10
  6
CONTINUOUS
 62
     7
100
AcDbLine
 10
265.9816846139445
 20
155.1934316554037
 30
0.0
 11
266.1965283307777
 21
151.0939693280105
 31
0.0
  0
ARC
  5
242
330
1F
100
AcDbEntity
  8
LAY-10
  6
CONTINUOUS
 62
     7
100
AcDbCircle
 10
259.9899074054169
 20
154.8794159179459
 30
0.0
 40
6.000000000000004
100
AcDbArc
 50
3.000000000001267
 51
74.99999999999885
  0
ARC
  5
243
330
1F
100
AcDbEntity
  8
LAY-10
  6
CONTINUOUS
 62
     7
100
AcDbCircle
 10
268.1937874002867
 20
151.1986412404964
 30
0.0
 40
2.0
100
AcDbArc
 50
183.0000000000024
 51
270.0000000000002
  0
ARC
  5
244
330
1F
100
AcDbEntity
  8
LAY-10
  6
CONTINUOUS
 62
     7
100
AcDbCircle
 10
259.9899074054172
 20
154.8794159179459
 30
0.0
 40
2.0
100
AcDbArc
 50
2.99999999999909
 51
74.99999999999885
  0
LINE
  5
245
330
1F
100
AcDbEntity
  8
LAY-10
  6
CONTINUOUS
 62
     7
100
AcDbLine
 10
282.5332852005615
 20
144.3860095434418
 30
0.0
 11
284.0028115119217
 21
105.1986412404964
 31
0.0
  0
ARC
  5
246
330
1F
100
AcDbEntity
  8
LAY-10
  6
CONTINUOUS
 62
     7
100
AcDbCircle
 10
277.5367971220157
 20
144.1986412404963
 30
0.0
 40
5.0
100
AcDbArc
 50
2.147585428298991
 51
90.00000000000004
  0
ARC
  5
247
330
1F
100
AcDbEntity
  8
LAY-10
  6
CONTINUOUS
 62
     7
100
AcDbCircle
 10
277.536797122016
 20
144.1986412404963
 30
0.0
 40
1.0
100
AcDbArc
 50
2.147585428296413
 51
90.00000000000004
  0
LINE
  5
248
330
1F
100
AcDbEntity
  8
LAY-10
  6
CONTINUOUS
 62
     7
100
AcDbLine
 10
277.536797122016
 20
145.1986412404963
 30
0.0
 11
268.1937874002872
 21
145.1986412404963
 31
0.0
  0
LINE
  5
249
330
1F
100
AcDbEntity
  8
LAY-10
  6
CONTINUOUS
 62
     7
100
AcDbLine
 10
393.9999999999984
 20
170.1986412404981
 30
0.0
 11
358.4571783239635
 21
160.6749708756803
 31
0.0
  0
LINE
  5
24A
330
1F
100
AcDbEntity
  8
LAY-10
  6
CONTINUOUS
 62
     7
100
AcDbLine
 10
383.3304575676427
 20
163.1986412404981
 30
0.0
 11
399.9999999999984
 21
163.1986412404981
 31
0.0
  0
LINE
  5
24B
330
1F
100
AcDbEntity
  8
LAY-10
  6
CONTINUOUS
 62
     7
100
AcDbLine
 10
399.9999999999984
 20
163.1986412404981
 30
0.0
 11
398.9999999999984
 21
170.1986412404981
 31
0.0
  0
LINE
  5
24C
330
1F
100
AcDbEntity
  8
LAY-10
  6
CONTINUOUS
 62
     7
100
AcDbLine
 10
395.8127610841007
 20
164.2250424043197
 30
0.0
 11
395.9593898217895
 21
163.1986412404981
 31
0.0
  0
ARC
  5
24D
330
1F
100
AcDbEntity
  8
LAY-10
  6
CONTINUOUS
 62
     7
100
AcDbCircle
 10
393.8328620967784
 20
163.942199691845
 30
0.0
 40
2.0
100
AcDbArc
 50
8.130102354158046
 51
105.0000000000012
  0
ARC
  5
24E
330
1F
100
AcDbEntity
  8
LAY-10
  6
CONTINUOUS
 62
     7
100
AcDbCircle
 10
360.0100925945787
 20
154.8794159179459
 30
0.0
 40
6.000000000000004
100
AcDbArc
 50
105.0000000000012
 51
157.2607733002352
  0
LINE
  5
24F
330
1F
100
AcDbEntity
  8
LAY-10
  6
CONTINUOUS
 62
     7
100
AcDbLine
 10
337.9471884880736
 20
157.1986412404964
 30
0.0
 11
335.997188488074
 21
105.1986412404964
 31
0.0
  0
ARC
  5
250
330
1F
100
AcDbEntity
  8
LAY-10
  6
CONTINUOUS
 62
     7
100
AcDbCircle
 10
342.4632028779797
 20
144.1986412404963
 30
0.0
 40
1.0
100
AcDbArc
 50
90.00000000000004
 51
177.8524145717036
  0
LINE
  5
251
330
1F
100
AcDbEntity
  8
LAY-10
  6
CONTINUOUS
 62
     7
100
AcDbLine
 10
279.9999999999968
 20
105.1986412404964
 30
0.0
 11
339.9999999999989
 21
105.1986412404964
 31
0.0
  0
LINE
  5
252
330
1F
100
AcDbEntity
  8
LAY-10
  6
CONTINUOUS
 62
     7
100
AcDbLine
 10
282.352811511922
 20
149.1986412404964
 30
0.0
 11
337.7096311171269
 21
149.1986412404964
 31
0.0
  0
LINE
  5
253
330
1F
100
AcDbEntity
  8
LAY-10
  6
CONTINUOUS
 62
     7
100
AcDbLine
 10
354.0510354332864
 20
145.1986412404963
 30
0.0
 11
342.4632028779797
 21
145.1986412404963
 31
0.0
  0
LINE
  5
254
330
1F
100
AcDbEntity
  8
LAY-10
  6
CONTINUOUS
 62
     7
100
AcDbLine
 10
338.4999999999998
 20
162.9999999999937
 30
0.0
 11
338.4999999999998
 21
169.0519999999938
 31
0.0
  0
ARC
  5
255
330
1F
100
AcDbEntity
  8
LAY-10
  6
CONTINUOUS
 62
     7
100
AcDbCircle
 10
340.5
 20
166.7522032085499
 30
0.0
 40
3.047796791443853
100
AcDbArc
 50
48.98840640770685
 51
131.0115935922989
  0
LINE
  5
256
330
1F
100
AcDbEntity
  8
LAY-10
  6
CONTINUOUS
 62
     7
100
AcDbLine
 10
342.4999999999999
 20
162.9999999999937
 30
0.0
 11
342.4999999999999
 21
169.0519999999938
 31
0.0
  0
ARC
  5
257
330
1F
100
AcDbEntity
  8
LAY-10
  6
CONTINUOUS
 62
     7
100
AcDbCircle
 10
346.5
 20
158.7308128342184
 30
0.0
 40
11.06918716577541
100
AcDbArc
 50
68.81604434177365
 51
111.1839556582283
  0
LINE
  5
258
330
1F
100
AcDbEntity
  8
LAY-10
  6
CONTINUOUS
 62
     7
100
AcDbLine
 10
352.5
 20
169.7999999999936
 30
0.0
 11
340.5
 21
169.7999999999936
 31
0.0
  0
LINE
  5
259
330
1F
100
AcDbEntity
  8
LAY-10
  6
CONTINUOUS
 62
     7
100
AcDbLine
 10
350.4999999999998
 20
162.9999999999937
 30
0.0
 11
350.4999999999998
 21
169.0519999999936
 31
0.0
  0
ARC
  5
25A
330
1F
100
AcDbEntity
  8
LAY-10
  6
CONTINUOUS
 62
     7
100
AcDbCircle
 10
352.5
 20
166.7522032085499
 30
0.0
 40
3.047796791443853
100
AcDbArc
 50
48.98840640770685
 51
131.0115935922989
  0
LINE
  5
25B
330
1F
100
AcDbEntity
  8
LAY-10
  6
CONTINUOUS
 62
     7
100
AcDbLine
 10
354.4999999999999
 20
162.9999999999937
 30
0.0
 11
354.4999999999999
 21
169.0519999999936
 31
0.0
  0
LINE
  5
25C
330
1F
100
AcDbEntity
  8
LAY-10
  6
CONTINUOUS
 62
     7
100
AcDbLine
 10
338.4999999999998
 20
162.9999999999937
 30
0.0
 11
354.4999999999999
 21
162.9999999999937
 31
0.0
  0
LINE
  5
25D
330
1F
100
AcDbEntity
  8
LAY-10
  6
CONTINUOUS
 62
     7
100
AcDbLine
 10
349.9999999999995
 20
200.8999999999897
 30
0.0
 11
350.4999999999998
 21
200.3999999999936
 31
0.0
  0
LINE
  5
25E
330
1F
100
AcDbEntity
  8
LAY-10
  6
CONTINUOUS
 62
     7
100
AcDbLine
 10
347.25
 20
200.3999999999936
 30
0.0
 11
350.4999999999998
 21
200.3999999999936
 31
0.0
  0
LINE
  5
25F
330
1F
100
AcDbEntity
  8
LAY-10
  6
CONTINUOUS
 62
     7
100
AcDbLine
 10
347.25
 20
200.8999999999897
 30
0.0
 11
349.9999999999995
 21
200.8999999999897
 31
0.0
  0
LINE
  5
260
330
1F
100
AcDbEntity
  8
LAY-10
  6
CONTINUOUS
 62
     7
100
AcDbLine
 10
345.7499999999997
 20
198.3999999999933
 30
0.0
 11
347.25
 21
198.3999999999933
 31
0.0
  0
LINE
  5
261
330
1F
100
AcDbEntity
  8
LAY-10
  6
CONTINUOUS
 62
     7
100
AcDbLine
 10
347.25
 20
198.3999999999933
 30
0.0
 11
347.25
 21
200.8999999999897
 31
0.0
  0
LINE
  5
262
330
1F
100
AcDbEntity
  8
LAY-10
  6
CONTINUOUS
 62
     7
100
AcDbLine
 10
345.7499999999997
 20
198.3999999999933
 30
0.0
 11
345.7499999999997
 21
200.8999999999897
 31
0.0
  0
LINE
  5
263
330
1F
100
AcDbEntity
  8
LAY-10
  6
CONTINUOUS
 62
     7
100
AcDbLine
 10
342.4999999999999
 20
200.3999999999936
 30
0.0
 11
345.7499999999997
 21
200.3999999999936
 31
0.0
  0
LINE
  5
264
330
1F
100
AcDbEntity
  8
LAY-10
  6
CONTINUOUS
 62
     7
100
AcDbLine
 10
342.9999999999998
 20
200.8999999999897
 30
0.0
 11
345.7499999999997
 21
200.8999999999897
 31
0.0
  0
LINE
  5
265
330
1F
100
AcDbEntity
  8
LAY-10
  6
CONTINUOUS
 62
     7
100
AcDbLine
 10
342.4999999999999
 20
200.3999999999936
 30
0.0
 11
343.0000000000001
 21
200.8999999999897
 31
0.0
  0
LINE
  5
266
330
1F
100
AcDbEntity
  8
LAY-10
  6
CONTINUOUS
 62
     7
100
AcDbLine
 10
342.4999999999999
 20
169.7999999999936
 30
0.0
 11
342.4999999999999
 21
200.3999999999936
 31
0.0
  0
LINE
  5
267
330
1F
100
AcDbEntity
  8
LAY-10
  6
CONTINUOUS
 62
     7
100
AcDbLine
 10
350.4999999999998
 20
169.7999999999936
 30
0.0
 11
350.4999999999998
 21
200.3999999999936
 31
0.0
  0
LINE
  5
268
330
1F
100
AcDbEntity
  8
LAY-10
  6
CONTINUOUS
 62
     7
100
AcDbLine
 10
349.9999999999964
 20
150.6986412404968
 30
0.0
 11
349.9999999999964
 21
150.1986412404929
 31
0.0
  0
LINE
  5
269
330
1F
100
AcDbEntity
  8
LAY-10
  6
CONTINUOUS
 62
     7
100
AcDbLine
 10
343.0000000000014
 20
150.6986412404968
 30
0.0
 11
343.0000000000014
 21
150.1986412404929
 31
0.0
  0
LINE
  5
26A
330
1F
100
AcDbEntity
  8
LAY-10
  6
CONTINUOUS
 62
     7
100
AcDbLine
 10
343.0000000000014
 20
150.1986412404929
 30
0.0
 11
349.9999999999967
 21
150.1986412404929
 31
0.0
  0
LINE
  5
26B
330
1F
100
AcDbEntity
  8
LAY-10
  6
CONTINUOUS
 62
     7
100
AcDbLine
 10
343.0000000000014
 20
150.1986412404934
 30
0.0
 11
346.4999999999995
 21
148.1779152983307
 31
0.0
  0
LINE
  5
26C
330
1F
100
AcDbEntity
  8
LAY-10
  6
CONTINUOUS
 62
     7
100
AcDbLine
 10
346.4999999999995
 20
148.1779152983311
 30
0.0
 11
349.9999999999964
 21
150.1986412404929
 31
0.0
  0
LINE
  5
26D
330
1F
100
AcDbEntity
  8
LAY-10
  6
CONTINUOUS
 62
     7
100
AcDbLine
 10
350.499999999999
 20
162.9999999999696
 30
0.0
 11
350.499999999999
 21
151.1999999999708
 31
0.0
  0
LINE
  5
26E
330
1F
100
AcDbEntity
  8
LAY-10
  6
CONTINUOUS
 62
     7
100
AcDbLine
 10
342.4999999999991
 20
162.9999999999696
 30
0.0
 11
342.4999999999991
 21
151.1999999999708
 31
0.0
  0
LINE
  5
26F
330
1F
100
AcDbEntity
  8
LAY-10
  6
CONTINUOUS
 62
     7
100
AcDbLine
 10
342.9999999999984
 20
150.6999999999696
 30
0.0
 11
349.9999999999992
 21
150.6999999999696
 31
0.0
  0
LINE
  5
270
330
1F
100
AcDbEntity
  8
LAY-10
  6
CONTINUOUS
 62
     7
100
AcDbLine
 10
342.4999999999991
 20
151.1999999999708
 30
0.0
 11
350.499999999999
 21
151.1999999999708
 31
0.0
  0
LINE
  5
271
330
1F
100
AcDbEntity
  8
LAY-10
  6
CONTINUOUS
 62
     7
100
AcDbLine
 10
349.9999999999992
 20
150.6999999999696
 30
0.0
 11
350.499999999999
 21
151.199999999971
 31
0.0
  0
LINE
  5
272
330
1F
100
AcDbEntity
  8
LAY-10
  6
CONTINUOUS
 62
     7
100
AcDbLine
 10
342.9999999999984
 20
150.6999999999696
 30
0.0
 11
342.4999999999991
 21
151.199999999971
 31
0.0
  0
LINE
  5
273
330
1F
100
AcDbEntity
  8
LAY-10
  6
CONTINUOUS
 62
     7
100
AcDbLine
 10
354.4764505838195
 20
157.1986412404964
 30
0.0
 11
349.9999999999991
 21
157.1986412404964
 31
0.0
  0
LINE
  5
274
330
1F
100
AcDbEntity
  8
LAY-10
  6
CONTINUOUS
 62
     7
100
AcDbLine
 10
342.9999999999984
 20
157.1986412404964
 30
0.0
 11
337.9471884880736
 21
157.1986412404964
 31
0.0
  0
LINE
  5
275
330
1F
100
AcDbEntity
  8
LAY-10
  6
CONTINUOUS
 62
     7
100
AcDbLine
 10
272.0525588832526
 20
161.9999999999893
 30
0.0
 11
261.7749374804547
 21
164.753880354982
 31
0.0
  0
LINE
  5
276
330
1F
100
AcDbEntity
  8
LAY-10
  6
CONTINUOUS
 62
     7
100
AcDbLine
 10
231.6094468812752
 20
168.6955944786794
 30
0.0
 11
271.5259488928949
 21
157.9999999999901
 31
0.0
  0
LINE
  5
277
330
1F
100
AcDbEntity
  8
LAY-10
  6
CONTINUOUS
 62
     7
100
AcDbLine
 10
230.1298259019711
 20
170.5227742187716
 30
0.0
 11
229.9999999999948
 21
172.9999999999901
 31
0.0
  0
ARC
  5
278
330
1F
100
AcDbEntity
  8
LAY-10
  6
CONTINUOUS
 62
     7
100
AcDbCircle
 10
232.1270849714803
 20
170.6274461312575
 30
0.0
 40
2.0
100
AcDbArc
 50
182.9999999999991
 51
254.9999999999989
  0
LINE
  5
279
330
1F
100
AcDbEntity
  8
LAY-10
  6
CONTINUOUS
 62
     7
100
AcDbLine
 10
241.6857827935784
 20
171.2665755298172
 30
0.0
 11
242.3571462766554
 21
175.1695246617278
 31
0.0
  0
LINE
  5
27A
330
1F
100
AcDbEntity
  8
LAY-10
  6
CONTINUOUS
 62
     7
100
AcDbLine
 10
389.8701740980289
 20
170.5227742187716
 30
0.0
 11
390.0000000000052
 21
172.9999999999901
 31
0.0
  0
ARC
  5
27B
330
1F
100
AcDbEntity
  8
LAY-10
  6
CONTINUOUS
 62
     7
100
AcDbCircle
 10
387.8729150285197
 20
170.6274461312575
 30
0.0
 40
2.0
100
AcDbArc
 50
285.0000000000012
 51
357.0000000000012
  0
LINE
  5
27C
330
1F
100
AcDbEntity
  8
LAY-10
  6
CONTINUOUS
 62
     7
100
AcDbLine
 10
378.3142172064216
 20
171.2665755298172
 30
0.0
 11
377.6428537233446
 21
175.1695246617278
 31
0.0
  0
LINE
  5
27D
330
1F
100
AcDbEntity
  8
LAY-10
  6
CONTINUOUS
 62
     7
100
AcDbLine
 10
390.0000000000052
 20
172.9999999999901
 30
0.0
 11
378.0160432229508
 21
172.9999999999901
 31
0.0
  0
LINE
  5
27E
330
1F
100
AcDbEntity
  8
LAY-10
  6
CONTINUOUS
 62
     7
100
AcDbLine
 10
275.7903688828878
 20
161.9999999999901
 30
0.0
 11
276.0000000000199
 21
157.9999999999901
 31
0.0
  0
LINE
  5
27F
330
1F
100
AcDbEntity
  8
LAY-10
  6
CONTINUOUS
 62
     7
100
AcDbLine
 10
261.7749374804546
 20
164.7538803549847
 30
0.0
 11
261.5000000000068
 21
169.9999999999899
 31
0.0
  0
LINE
  5
280
330
1F
100
AcDbEntity
  8
LAY-10
  6
CONTINUOUS
 62
     7
100
AcDbLine
 10
240.4414378030727
 20
170.4701743652664
 30
0.0
 11
230.9999999999943
 21
172.9999999999901
 31
0.0
  0
LINE
  5
281
330
1F
100
AcDbEntity
  8
LAY-10
  6
CONTINUOUS
 62
     7
100
AcDbLine
 10
247.3084987583723
 20
169.9999999999899
 30
0.0
 11
246.6167549223808
 21
175.1335428446476
 31
0.0
  0
LINE
  5
282
330
1F
100
AcDbEntity
  8
LAY-10
  6
CONTINUOUS
 62
     7
100
AcDbLine
 10
379.5585621969273
 20
170.4701743652664
 30
0.0
 11
389.0000000000057
 21
172.9999999999901
 31
0.0
  0
LINE
  5
283
330
1F
100
AcDbEntity
  8
LAY-10
  6
CONTINUOUS
 62
     7
100
AcDbLine
 10
337.7620388964342
 20
162.9999999999894
 30
0.0
 11
337.5000000000191
 21
157.9999999999901
 31
0.0
  0
LINE
  5
284
330
1F
100
AcDbEntity
  8
LAY-10
  6
CONTINUOUS
 62
     7
100
AcDbLine
 10
341.237961103606
 20
162.9999999999914
 30
0.0
 11
341.5000000000213
 21
157.9999999999901
 31
0.0
  0
LINE
  5
285
330
1F
100
AcDbEntity
  8
LAY-10
  6
CONTINUOUS
 62
     7
100
AcDbLine
 10
272.0525588832498
 20
161.9999999999893
 30
0.0
 11
301.2096311171322
 21
161.9999999999893
 31
0.0
  0
LINE
  5
286
330
1F
100
AcDbEntity
  8
LAY-10
  6
CONTINUOUS
 62
     7
100
AcDbLine
 10
351.7201171238722
 20
163.0108854893904
 30
0.0
 11
351.5000000000375
 21
158.8108005621892
 31
0.0
  0
LINE
  5
287
330
1F
100
AcDbEntity
  8
LAY-10
  6
CONTINUOUS
 62
     7
100
AcDbLine
 10
337.7620388964342
 20
162.9999999999903
 30
0.0
 11
351.7195466395464
 21
162.9999999999903
 31
0.0
  0
ARC
  5
288
330
1F
100
AcDbEntity
  8
LAY-10
  6
CONTINUOUS
 62
     7
100
AcDbCircle
 10
243.3426722220584
 20
174.9999999999896
 30
0.0
 40
1.0
100
AcDbArc
 50
90.00000000000004
 51
170.2398169556093
  0
ARC
  5
289
330
1F
100
AcDbEntity
  8
LAY-10
  6
CONTINUOUS
 62
     7
100
AcDbCircle
 10
245.6257118816198
 20
174.9999999999896
 30
0.0
 40
1.0
100
AcDbArc
 50
7.674368095125249
 51
90.00000000000004
  0
ARC
  5
28A
330
1F
100
AcDbEntity
  8
LAY-10
  6
CONTINUOUS
 62
     7
100
AcDbCircle
 10
376.6573277779416
 20
174.9999999999896
 30
0.0
 40
1.0
100
AcDbArc
 50
9.76018304439084
 51
90.00000000000004
  0
LINE
  5
28B
330
1F
100
AcDbEntity
  8
LAY-10
  6
CONTINUOUS
 62
     7
100
AcDbLine
 10
310.0
 20
164.7538803549822
 30
0.0
 11
316.2749374804492
 21
164.7538803549822
 31
0.0
  0
LINE
  5
28C
330
1F
100
AcDbEntity
  8
LAY-10
  6
CONTINUOUS
 62
     7
100
AcDbLine
 10
316.2749374804492
 20
164.7538803549822
 30
0.0
 11
316.0000000000014
 21
169.9999999999898
 31
0.0
  0
LINE
  5
28D
330
1F
100
AcDbEntity
  8
LAY-10
  6
CONTINUOUS
 62
     7
100
AcDbLine
 10
310.0
 20
162.9999999999891
 30
0.0
 11
301.2620388964152
 21
162.9999999999891
 31
0.0
  0
LINE
  5
28E
330
1F
100
AcDbEntity
  8
LAY-10
  6
CONTINUOUS
 62
     7
100
AcDbLine
 10
301.2620388964152
 20
162.9999999999893
 30
0.0
 11
301.0
 21
157.9999999999901
 31
0.0
  0
LINE
  5
28F
330
1F
100
AcDbEntity
  8
LAY-10
  6
CONTINUOUS
 62
     7
100
AcDbLine
 10
310.0
 20
161.9999999999893
 30
0.0
 11
337.7096311171512
 21
161.9999999999893
 31
0.0
  0
ARC
  5
290
330
1F
100
AcDbEntity
  8
LAY-10
  6
CONTINUOUS
 62
     7
100
AcDbCircle
 10
240.7002568481753
 20
171.4361001915555
 30
0.0
 40
1.0
100
AcDbArc
 50
254.9999999999989
 51
350.2398169556093
  0
ARC
  5
291
330
1F
100
AcDbEntity
  8
LAY-10
  6
CONTINUOUS
 62
     7
100
AcDbCircle
 10
379.2997431518247
 20
171.4361001915555
 30
0.0
 40
1.0
100
AcDbArc
 50
189.7601830443908
 51
284.999999999998
  0
ARC
  5
292
330
1F
100
AcDbEntity
  8
LAY-10
  6
CONTINUOUS
 62
     7
100
AcDbCircle
 10
374.3742881183802
 20
174.9999999999896
 30
0.0
 40
1.0
100
AcDbArc
 50
90.00000000000004
 51
172.3256319048747
  0
LINE
  5
293
330
1F
100
AcDbEntity
  8
LAY-10
  6
CONTINUOUS
 62
     7
100
AcDbLine
 10
243.3426722220584
 20
175.9999999999896
 30
0.0
 11
246.4357030188038
 21
175.9999999999896
 31
0.0
  0
LINE
  5
294
330
1F
100
AcDbEntity
  8
LAY-10
  6
CONTINUOUS
 62
     7
100
AcDbLine
 10
229.9999999999948
 20
172.9999999999901
 30
0.0
 11
241.9839567770493
 21
172.9999999999901
 31
0.0
  0
LINE
  5
295
330
1F
100
AcDbEntity
  8
LAY-10
  6
CONTINUOUS
 62
     7
100
AcDbLine
 10
360.1340039495534
 20
175.9999999999896
 30
0.0
 11
372.2390960870937
 21
175.9999999999896
 31
0.0
  0
LINE
  5
296
330
1F
100
AcDbEntity
  8
LAY-10
  6
CONTINUOUS
 62
     7
100
AcDbLine
 10
373.5642969811962
 20
175.9999999999896
 30
0.0
 11
376.6573277779416
 21
175.9999999999896
 31
0.0
  0
LINE
  5
297
330
1F
100
AcDbEntity
  8
LAY-10
  6
CONTINUOUS
 62
     7
100
AcDbLine
 10
372.5889368454866
 20
169.2388530341161
 30
0.0
 11
373.3832450776192
 21
175.1335428446476
 31
0.0
  0
ARC
  5
298
330
1F
100
AcDbEntity
  8
LAY-10
  6
CONTINUOUS
 62
     7
100
AcDbCircle
 10
246.4357030188038
 20
174.9999999999896
 30
0.0
 40
1.0
100
AcDbArc
 50
8.830508414609024
 51
90.00000000000004
  0
ARC
  5
299
330
1F
100
AcDbEntity
  8
LAY-10
  6
CONTINUOUS
 62
     7
100
AcDbCircle
 10
247.7609039129063
 20
174.9999999999896
 30
0.0
 40
1.0
100
AcDbArc
 50
90.00000000000004
 51
131.4985005108286
  0
LINE
  5
29A
330
1F
100
AcDbEntity
  8
LAY-10
  6
CONTINUOUS
 62
     7
100
AcDbLine
 10
248.2244657093372
 20
169.9999999999899
 30
0.0
 11
247.4238497994419
 21
175.1535120187849
 31
0.0
  0
ARC
  5
29B
330
1F
100
AcDbEntity
  8
LAY-10
  6
CONTINUOUS
 62
     7
100
AcDbCircle
 10
262.9339937431313
 20
169.5788383248745
 30
0.0
 40
1.0
100
AcDbArc
 50
190.7789315749593
 51
270.0000000000002
  0
ARC
  5
29C
330
1F
100
AcDbEntity
  8
LAY-10
  6
CONTINUOUS
 62
     7
100
AcDbCircle
 10
268.8634820229391
 20
169.5788383248745
 30
0.0
 40
1.0
100
AcDbArc
 50
270.0000000000002
 51
358.9092534258041
  0
LINE
  5
29D
330
1F
100
AcDbEntity
  8
LAY-10
  6
CONTINUOUS
 62
     7
100
AcDbLine
 10
262.9339937431313
 20
168.5788383248745
 30
0.0
 11
268.8634820229391
 21
168.5788383248745
 31
0.0
  0
ARC
  5
29E
330
1F
100
AcDbEntity
  8
LAY-10
  6
CONTINUOUS
 62
     7
100
AcDbCircle
 10
286.4657268515914
 20
174.9999999999896
 30
0.0
 40
1.0
100
AcDbArc
 50
9.892490071541182
 51
90.00000000000004
  0
ARC
  5
29F
330
1F
100
AcDbEntity
  8
LAY-10
  6
CONTINUOUS
 62
     7
100
AcDbCircle
 10
360.1340039495534
 20
174.9999999999896
 30
0.0
 40
1.0
100
AcDbArc
 50
90.00000000000004
 51
169.2210684250409
  0
ARC
  5
2A0
330
1F
100
AcDbEntity
  8
LAY-10
  6
CONTINUOUS
 62
     7
100
AcDbCircle
 10
357.0660062568687
 20
169.5788383248745
 30
0.0
 40
1.0
100
AcDbArc
 50
270.0000000000002
 51
349.221068425041
  0
ARC
  5
2A1
330
1F
100
AcDbEntity
  8
LAY-10
  6
CONTINUOUS
 62
     7
100
AcDbCircle
 10
333.5342731484086
 20
174.9999999999896
 30
0.0
 40
1.0
100
AcDbArc
 50
90.00000000000004
 51
170.1075099284589
  0
ARC
  5
2A2
330
1F
100
AcDbEntity
  8
LAY-10
  6
CONTINUOUS
 62
     7
100
AcDbCircle
 10
370.2308134642839
 20
174.9999999999896
 30
0.0
 40
1.0
100
AcDbArc
 50
90.00000000000004
 51
175.5000432838818
  0
ARC
  5
2A3
330
1F
100
AcDbEntity
  8
LAY-10
  6
CONTINUOUS
 62
     7
100
AcDbCircle
 10
373.5642969811962
 20
174.9999999999896
 30
0.0
 40
1.0
100
AcDbArc
 50
90.00000000000004
 51
171.1694915853911
  0
ARC
  5
2A4
330
1F
100
AcDbEntity
  8
LAY-10
  6
CONTINUOUS
 62
     7
100
AcDbCircle
 10
372.2390960870937
 20
174.9999999999896
 30
0.0
 40
1.0
100
AcDbArc
 50
48.50149948917497
 51
90.00000000000004
  0
LINE
  5
2A5
330
1F
100
AcDbEntity
  8
LAY-10
  6
CONTINUOUS
 62
     7
100
AcDbLine
 10
371.7469027603033
 20
169.8157007198975
 30
0.0
 11
372.5761502005581
 21
175.1535120187849
 31
0.0
  0
ARC
  5
2A6
330
1F
100
AcDbEntity
  8
LAY-10
  6
CONTINUOUS
 62
     7
100
AcDbCircle
 10
371.5978938047257
 20
169.3723958787739
 30
0.0
 40
1.0
100
AcDbArc
 50
284.999999999998
 51
352.3256319048814
  0
LINE
  5
2A7
330
1F
100
AcDbEntity
  8
LAY-10
  6
CONTINUOUS
 62
     7
100
AcDbLine
 10
398.9999999999984
 20
170.1986412404981
 30
0.0
 11
389.82640584387
 21
170.1986412404981
 31
0.0
  0
LINE
  5
2A8
330
1F
100
AcDbEntity
  8
LAY-10
  6
CONTINUOUS
 62
     7
100
AcDbLine
 10
230.17359415613
 20
170.1986412404981
 30
0.0
 11
220.999999999997
 21
170.1986412404981
 31
0.0
  0
LINE
  5
2A9
330
1F
100
AcDbEntity
  8
LAY-10
  6
CONTINUOUS
 62
     7
100
AcDbLine
 10
271.5259488928962
 20
157.9999999999901
 30
0.0
 11
342.4999999999991
 21
157.9999999999901
 31
0.0
  0
LINE
  5
2AA
330
1F
100
AcDbEntity
  8
LAY-10
  6
CONTINUOUS
 62
     7
100
AcDbLine
 10
388.3905531187248
 20
168.6955944786794
 30
0.0
 11
350.499999999999
 21
158.5428513697477
 31
0.0
  0
LINE
  5
2AB
330
1F
100
AcDbEntity
  8
LAY-10
  6
CONTINUOUS
 62
     7
100
AcDbLine
 10
351.6794919243201
 20
162.9999999999903
 30
0.0
 11
351.7201171238729
 21
163.0108854894028
 31
0.0
  0
LINE
  5
2AC
330
1F
100
AcDbEntity
  8
LAY-10
  6
CONTINUOUS
 62
     7
100
AcDbLine
 10
354.4999999999999
 20
163.7557528611142
 30
0.0
 11
371.8567128498282
 21
168.4064700524848
 31
0.0
  0
LINE
  5
2AD
330
1F
100
AcDbEntity
  8
LAY-10
  6
CONTINUOUS
 62
     7
100
AcDbLine
 10
357.0660062568687
 20
168.5788383248745
 30
0.0
 11
354.4999999999999
 21
168.5788383248745
 31
0.0
  0
LINE
  5
2AE
330
1F
100
AcDbEntity
  8
LAY-10
  6
CONTINUOUS
 62
     7
100
AcDbLine
 10
301.9999999999918
 20
162.9999999999977
 30
0.0
 11
301.9999999999918
 21
169.0519999999977
 31
0.0
  0
ARC
  5
2AF
330
1F
100
AcDbEntity
  8
LAY-10
  6
CONTINUOUS
 62
     7
100
AcDbCircle
 10
303.999999999992
 20
166.752203208554
 30
0.0
 40
3.047796791443853
100
AcDbArc
 50
48.98840640770953
 51
131.0115935922989
  0
LINE
  5
2B0
330
1F
100
AcDbEntity
  8
LAY-10
  6
CONTINUOUS
 62
     7
100
AcDbLine
 10
305.9999999999919
 20
162.9999999999977
 30
0.0
 11
305.9999999999919
 21
169.0519999999977
 31
0.0
  0
ARC
  5
2B1
330
1F
100
AcDbEntity
  8
LAY-10
  6
CONTINUOUS
 62
     7
100
AcDbCircle
 10
309.999999999992
 20
158.7308128342223
 30
0.0
 40
11.06918716577541
100
AcDbArc
 50
90.00000000000004
 51
111.1839556582283
  0
LINE
  5
2B2
330
1F
100
AcDbEntity
  8
LAY-10
  6
CONTINUOUS
 62
     7
100
AcDbLine
 10
309.9999999999957
 20
169.7999999999978
 30
0.0
 11
303.999999999992
 21
169.7999999999978
 31
0.0
  0
LINE
  5
2B3
330
1F
100
AcDbEntity
  8
LAY-10
  6
CONTINUOUS
 62
     7
100
AcDbLine
 10
305.9999999999919
 20
169.7999999999977
 30
0.0
 11
305.9999999999919
 21
200.4000000000077
 31
0.0
  0
LINE
  5
2B4
330
1F
100
AcDbEntity
  8
LAY-10
  6
CONTINUOUS
 62
     7
100
AcDbLine
 10
305.9999999999919
 20
200.4000000000077
 30
0.0
 11
309.2499999999916
 21
200.4000000000077
 31
0.0
  0
LINE
  5
2B5
330
1F
100
AcDbEntity
  8
LAY-10
  6
CONTINUOUS
 62
     7
100
AcDbLine
 10
305.9999999999919
 20
200.4000000000077
 30
0.0
 11
306.4999999999921
 21
200.9000000000038
 31
0.0
  0
LINE
  5
2B6
330
1F
100
AcDbEntity
  8
LAY-10
  6
CONTINUOUS
 62
     7
100
AcDbLine
 10
306.4999999999918
 20
200.9000000000038
 30
0.0
 11
309.2499999999916
 21
200.9000000000038
 31
0.0
  0
LINE
  5
2B7
330
1F
100
AcDbEntity
  8
LAY-10
  6
CONTINUOUS
 62
     7
100
AcDbLine
 10
309.2499999999916
 20
198.4000000000075
 30
0.0
 11
309.2499999999916
 21
200.9000000000038
 31
0.0
  0
LINE
  5
2B8
330
1F
100
AcDbEntity
  8
LAY-10
  6
CONTINUOUS
 62
     7
100
AcDbLine
 10
309.2499999999916
 20
198.4000000000075
 30
0.0
 11
309.999999999992
 21
198.4000000000075
 31
0.0
  0
LINE
  5
2B9
330
1F
100
AcDbEntity
  8
LAY-10
  6
CONTINUOUS
 62
     7
100
AcDbLine
 10
354.5
 20
145.09219080143
 30
0.0
 11
351.4999999999977
 21
145.09219080143
 31
0.0
  0
LINE
  5
2BA
330
1F
100
AcDbEntity
  8
LAY-10
  6
CONTINUOUS
 62
     7
100
AcDbLine
 10
351.4999999999977
 20
145.09219080143
 30
0.0
 11
351.4999999999977
 21
90.19864124049809
 31
0.0
  0
LINE
  5
2BB
330
1F
100
AcDbEntity
  8
LAY-10
  6
CONTINUOUS
 62
     7
100
AcDbLine
 10
354.4999999999977
 20
145.09219080143
 30
0.0
 11
354.4999999999977
 21
90.19864124049809
 31
0.0
  0
LINE
  5
2BC
330
1F
100
AcDbEntity
  8
LAY-10
  6
CONTINUOUS
 62
     7
100
AcDbLine
 10
268.4999999999977
 20
145.09219080143
 30
0.0
 11
268.4999999999977
 21
90.19864124049809
 31
0.0
  0
LINE
  5
2BD
330
1F
100
AcDbEntity
  8
LAY-10
  6
CONTINUOUS
 62
     7
100
AcDbLine
 10
265.4999999999977
 20
145.09219080143
 30
0.0
 11
265.4999999999977
 21
90.19864124049809
 31
0.0
  0
LINE
  5
2BE
330
1F
100
AcDbEntity
  8
LAY-10
  6
CONTINUOUS
 62
     7
100
AcDbLine
 10
265.4999999999955
 20
145.09219080143
 30
0.0
 11
268.4999999999977
 21
145.09219080143
 31
0.0
  0
LINE
  5
2BF
330
1F
100
AcDbEntity
  8
LAY-10
  6
CONTINUOUS
 62
     7
100
AcDbLine
 10
265.4999999999977
 20
90.19864124049809
 30
0.0
 11
354.4999999999977
 21
90.19864124049809
 31
0.0
  0
LINE
  5
2C0
330
1F
100
AcDbEntity
  8
LAY-10
  6
CONTINUOUS
 62
     7
100
AcDbLine
 10
279.9999999999968
 20
105.1986412404964
 30
0.0
 11
278.5360947377251
 21
144.2361149010854
 31
0.0
  0
LINE
  5
2C1
330
1F
100
AcDbEntity
  8
LAY-10
  6
CONTINUOUS
 62
     7
100
AcDbLine
 10
339.9999999999989
 20
105.1986412404964
 30
0.0
 11
341.4639052622706
 21
144.2361149010854
 31
0.0
  0
LINE
  5
2C2
330
1F
100
AcDbEntity
  8
LAY-10
  6
CONTINUOUS
 62
     7
100
AcDbLine
 10
279.3999289601736
 20
240.3234916764728
 30
0.0
 11
266.9999999999848
 21
169.9999999999932
 31
0.0
  0
LINE
  5
2C3
330
1F
100
AcDbEntity
  8
LAY-10
  6
CONTINUOUS
 62
     7
100
AcDbLine
 10
264.2607459077543
 20
177.4999999999906
 30
0.0
 11
275.4606979481243
 21
241.0180843871402
 31
0.0
  0
ARC
  5
2C4
330
1F
100
AcDbEntity
  8
LAY-10
  6
CONTINUOUS
 62
     7
100
AcDbCircle
 10
310.0
 20
234.9278735405563
 30
0.0
 40
35.07212645943446
100
AcDbArc
 50
9.999999999998286
 51
170.0000000000012
  0
ARC
  5
2C5
330
1F
100
AcDbEntity
  8
LAY-10
  6
CONTINUOUS
 62
     7
100
AcDbCircle
 10
310.0
 20
234.9278735405566
 30
0.0
 40
31.07212645943299
100
AcDbArc
 50
9.999999999998515
 51
170.0000000000017
  0
LINE
  5
2C6
330
1F
100
AcDbEntity
  8
LAY-10
  6
CONTINUOUS
 62
     7
100
AcDbLine
 10
328.0
 20
260.255270617852
 30
0.0
 11
326.9999999999998
 21
265.6044778895805
 31
0.0
  0
ARC
  5
2C7
330
1F
100
AcDbEntity
  8
LAY-10
  6
CONTINUOUS
 62
     7
100
AcDbCircle
 10
310.0
 20
256.1146523784174
 30
0.0
 40
4.140618239434162
100
AcDbArc
 50
1.312387516327001
 51
178.6876124836731
  0
LINE
  5
2C8
330
1F
100
AcDbEntity
  8
LAY-10
  6
CONTINUOUS
 62
     7
100
AcDbLine
 10
314.1395320761371
 20
256.2094869468526
 30
0.0
 11
315.9999999999998
 21
174.9999999999907
 31
0.0
  0
LINE
  5
2C9
330
1F
100
AcDbEntity
  8
LAY-10
  6
CONTINUOUS
 62
     7
100
AcDbLine
 10
305.8604679238629
 20
256.2094869468526
 30
0.0
 11
304.0000000000002
 21
174.9999999999907
 31
0.0
  0
LINE
  5
2CA
330
1F
100
AcDbEntity
  8
LAY-10
  6
CONTINUOUS
 62
     7
100
AcDbLine
 10
336.040556218449
 20
174.9999999999907
 30
0.0
 11
327.8829348860701
 21
257.0444326146271
 31
0.0
  0
LINE
  5
2CB
330
1F
100
AcDbEntity
  8
LAY-10
  6
CONTINUOUS
 62
     7
100
AcDbLine
 10
325.6482513730357
 20
174.9999999999907
 30
0.0
 11
320.7799500500311
 21
256.479333416779
 31
0.0
  0
ARC
  5
2CC
330
1F
100
AcDbEntity
  8
LAY-10
  6
CONTINUOUS
 62
     7
100
AcDbCircle
 10
324.3370130361235
 20
256.6918640514201
 30
0.0
 40
3.56340656642931
100
AcDbArc
 50
5.678216932643377
 51
183.419295330188
  0
LINE
  5
2CD
330
1F
100
AcDbEntity
  8
LAY-10
  6
CONTINUOUS
 62
     7
100
AcDbLine
 10
326.6500347489178
 20
174.9999999999905
 30
0.0
 11
321.7817334259132
 21
256.4793334167791
 31
0.0
  0
ARC
  5
2CE
330
1F
100
AcDbEntity
  8
LAY-10
  6
CONTINUOUS
 62
     7
100
AcDbCircle
 10
325.3387964120029
 20
256.6918640514201
 30
0.0
 40
3.56340656642931
100
AcDbArc
 50
98.08056512094801
 51
183.419295330188
  0
LINE
  5
2CF
330
1F
100
AcDbEntity
  8
LAY-10
  6
CONTINUOUS
 62
     7
100
AcDbLine
 10
292.0
 20
260.255270617852
 30
0.0
 11
293.0000000000002
 21
265.6044778895805
 31
0.0
  0
ARC
  5
2D0
330
1F
100
AcDbEntity
  8
LAY-10
  6
CONTINUOUS
 62
     7
100
AcDbCircle
 10
295.6629869638765
 20
256.6918640514201
 30
0.0
 40
3.56340656642931
100
AcDbArc
 50
356.5807046698122
 51
174.3217830673567
  0
LINE
  5
2D1
330
1F
100
AcDbEntity
  8
LAY-10
  6
CONTINUOUS
 62
     7
100
AcDbLine
 10
294.3517486269643
 20
174.9999999999907
 30
0.0
 11
299.2200499499689
 21
256.479333416779
 31
0.0
  0
LINE
  5
2D2
330
1F
100
AcDbEntity
  8
LAY-10
  6
CONTINUOUS
 62
     7
100
AcDbLine
 10
283.959443781551
 20
174.9999999999907
 30
0.0
 11
292.1170651139299
 21
257.0444326146271
 31
0.0
  0
ARC
  5
2D3
330
1F
100
AcDbEntity
  8
LAY-10
  6
CONTINUOUS
 62
     7
100
AcDbCircle
 10
294.6612035879971
 20
256.6918640514201
 30
0.0
 40
3.56340656642931
100
AcDbArc
 50
356.5807046698122
 51
81.91943487905206
  0
LINE
  5
2D4
330
1F
100
AcDbEntity
  8
LAY-10
  6
CONTINUOUS
 62
     7
100
AcDbLine
 10
293.3499652510822
 20
174.9999999999905
 30
0.0
 11
298.2182665740868
 21
256.4793334167791
 31
0.0
  0
LINE
  5
2D5
330
1F
100
AcDbEntity
  8
LAY-10
  6
CONTINUOUS
 62
     7
100
AcDbLine
 10
284.742864293829
 20
253.0263303430314
 30
0.0
 11
274.880520515998
 21
174.9999999999906
 31
0.0
  0
LINE
  5
2D6
330
1F
100
AcDbEntity
  8
LAY-10
  6
CONTINUOUS
 62
     7
100
AcDbLine
 10
281.7884413622166
 20
247.9503541774361
 30
0.0
 11
270.8964335722926
 21
174.9999999999907
 31
0.0
  0
LINE
  5
2D7
330
1F
100
AcDbEntity
  8
LAY-10
  6
CONTINUOUS
 62
     7
100
AcDbLine
 10
248.9999999999754
 20
177.4999999999906
 30
0.0
 11
268.3224523552976
 21
177.4999999999906
 31
0.0
  0
LINE
  5
2D8
330
1F
100
AcDbEntity
  8
LAY-10
  6
CONTINUOUS
 62
     7
100
AcDbLine
 10
260.7937284085431
 20
171.8953280875047
 30
0.0
 11
260.4999999999997
 21
177.4999999999906
 31
0.0
  0
ARC
  5
2D9
330
1F
100
AcDbEntity
  8
LAY-10
  6
CONTINUOUS
 62
     7
100
AcDbCircle
 10
262.7909874780522
 20
171.9999999999906
 30
0.0
 40
2.0
100
AcDbArc
 50
182.9999999999991
 51
270.0000000000002
  0
LINE
  5
2DA
330
1F
100
AcDbEntity
  8
LAY-10
  6
CONTINUOUS
 62
     7
100
AcDbLine
 10
356.1800715440168
 20
174.9999999999906
 30
0.0
 11
344.5393020518757
 21
241.0180843871402
 31
0.0
  0
LINE
  5
2DB
330
1F
100
AcDbEntity
  8
LAY-10
  6
CONTINUOUS
 62
     7
100
AcDbLine
 10
325.6482513730357
 20
174.9999999999906
 30
0.0
 11
336.040556218449
 21
174.9999999999906
 31
0.0
  0
LINE
  5
2DC
330
1F
100
AcDbEntity
  8
LAY-10
  6
CONTINUOUS
 62
     7
100
AcDbLine
 10
267.8816349035264
 20
174.9999999999906
 30
0.0
 11
274.880520515998
 21
174.9999999999906
 31
0.0
  0
LINE
  5
2DD
330
1F
100
AcDbEntity
  8
LAY-10
  6
CONTINUOUS
 62
     7
100
AcDbLine
 10
283.959443781551
 20
174.9999999999906
 30
0.0
 11
294.3517486269643
 21
174.9999999999906
 31
0.0
  0
LINE
  5
2DE
330
1F
100
AcDbEntity
  8
LAY-10
  6
CONTINUOUS
 62
     7
100
AcDbLine
 10
261.8358525358009
 20
169.9999999999906
 30
0.0
 11
261.9516376561957
 21
169.3918182231191
 31
0.0
  0
LINE
  5
2DF
330
1F
100
AcDbEntity
  8
LAY-10
  6
CONTINUOUS
 62
     7
100
AcDbLine
 10
269.8633008224613
 20
169.5598023557089
 30
0.0
 11
269.8716819299053
 21
169.9999999999906
 31
0.0
  0
LINE
  5
2E0
330
1F
100
AcDbEntity
  8
LAY-10
  6
CONTINUOUS
 62
     7
100
AcDbLine
 10
268.2528483710252
 20
175.9999999999896
 30
0.0
 11
271.045740699211
 21
175.9999999999896
 31
0.0
  0
LINE
  5
2E1
330
1F
100
AcDbEntity
  8
LAY-10
  6
CONTINUOUS
 62
     7
100
AcDbLine
 10
284.0588730916504
 20
175.9999999999896
 30
0.0
 11
286.4657268515914
 21
175.9999999999896
 31
0.0
  0
LINE
  5
2E2
330
1F
100
AcDbEntity
  8
LAY-10
  6
CONTINUOUS
 62
     7
100
AcDbLine
 10
287.4808193968213
 20
174.9999999999906
 30
0.0
 11
287.4508587045432
 21
175.1717999775793
 31
0.0
  0
LINE
  5
2E3
330
1F
100
AcDbEntity
  8
LAY-10
  6
CONTINUOUS
 62
     7
100
AcDbLine
 10
247.7609039129063
 20
175.9999999999896
 30
0.0
 11
249.0786116688994
 21
175.9999999999896
 31
0.0
  0
LINE
  5
2E4
330
1F
100
AcDbEntity
  8
LAY-10
  6
CONTINUOUS
 62
     7
100
AcDbLine
 10
304.0229094899355
 20
175.9999999999896
 30
0.0
 11
305.9999999999919
 21
175.9999999999896
 31
0.0
  0
LINE
  5
2E5
330
1F
100
AcDbEntity
  8
LAY-10
  6
CONTINUOUS
 62
     7
100
AcDbLine
 10
304.0000000000002
 20
174.9999999999906
 30
0.0
 11
305.9999999999919
 21
174.9999999999906
 31
0.0
  0
LINE
  5
2E6
330
1F
100
AcDbEntity
  8
LAY-10
  6
CONTINUOUS
 62
     7
100
AcDbLine
 10
309.9999999999977
 20
174.9999999999906
 30
0.0
 11
315.9999999999998
 21
174.9999999999906
 31
0.0
  0
LINE
  5
2E7
330
1F
100
AcDbEntity
  8
LAY-10
  6
CONTINUOUS
 62
     7
100
AcDbLine
 10
310.0
 20
175.9999999999896
 30
0.0
 11
315.9770905100645
 21
175.9999999999896
 31
0.0
  0
LINE
  5
2E8
330
1F
100
AcDbEntity
  8
LAY-10
  6
CONTINUOUS
 62
     7
100
AcDbLine
 10
332.5191806031787
 20
174.9999999999906
 30
0.0
 11
332.5491412954568
 21
175.1717999775793
 31
0.0
  0
LINE
  5
2E9
330
1F
100
AcDbEntity
  8
LAY-10
  6
CONTINUOUS
 62
     7
100
AcDbLine
 10
333.5342731484086
 20
175.9999999999896
 30
0.0
 11
335.9411269083496
 21
175.9999999999896
 31
0.0
  0
LINE
  5
2EA
330
1F
100
AcDbEntity
  8
LAY-10
  6
CONTINUOUS
 62
     7
100
AcDbLine
 10
358.1641474641991
 20
169.9999999999906
 30
0.0
 11
358.0483623438043
 21
169.3918182231191
 31
0.0
  0
LINE
  5
2EB
330
1F
100
AcDbEntity
  8
LAY-10
  6
CONTINUOUS
 62
     7
100
AcDbLine
 10
359.1516478626178
 20
175.1870201017451
 30
0.0
 11
359.1160431374823
 21
174.9999999999906
 31
0.0
  0
LINE
  5
2EC
330
1F
100
AcDbEntity
  8
LAY-10
  6
CONTINUOUS
 62
     7
100
AcDbLine
 10
369.2338960712794
 20
175.0784583426
 30
0.0
 11
369.2277213254396
 21
174.9999999999906
 31
0.0
  0
LINE
  5
2ED
330
1F
100
AcDbEntity
  8
LAY-10
  6
CONTINUOUS
 62
     7
100
AcDbLine
 10
342.4999999999999
 20
179.7751401221728
 30
0.0
 11
332.8701668455145
 21
255.9619532962608
 31
0.0
  0
LINE
  5
2EE
330
1F
100
AcDbEntity
  8
LAY-10
  6
CONTINUOUS
 62
     7
100
AcDbLine
 10
335.257135706171
 20
253.0263303430314
 30
0.0
 11
342.4999999999999
 21
195.7241175272055
 31
0.0
  0
LINE
  5
2EF
330
1F
100
AcDbEntity
  8
LAY-10
  6
CONTINUOUS
 62
     7
100
AcDbLine
 10
338.2115586377834
 20
247.9503541774361
 30
0.0
 11
345.2365118405174
 21
200.8999999999897
 31
0.0
  0
LINE
  5
2F0
330
1F
100
AcDbEntity
  8
LAY-10
  6
CONTINUOUS
 62
     7
100
AcDbLine
 10
309.9999999999977
 20
169.9999999999906
 30
0.0
 11
342.4999999999999
 21
169.9999999999906
 31
0.0
  0
LINE
  5
2F1
330
1F
100
AcDbEntity
  8
LAY-10
  6
CONTINUOUS
 62
     7
100
AcDbLine
 10
340.6000710398264
 20
240.3234916764728
 30
0.0
 11
347.5514962961249
 21
200.8999999999897
 31
0.0
  0
LINE
  5
2F2
330
1F
100
AcDbEntity
  8
LAY-10
  6
CONTINUOUS
 62
     7
100
AcDbLine
 10
350.4999999999998
 20
184.178204549126
 30
0.0
 11
353.000000000015
 21
169.9999999999932
 31
0.0
  0
ARC
  5
2F3
330
1F
100
AcDbEntity
  8
LAY-10
  6
CONTINUOUS
 62
     7
100
AcDbCircle
 10
250.2500000000002
 20
177.3857492993902
 30
0.0
 40
3.500000000000002
100
AcDbArc
 50
128.6821874534895
 51
178.1293582694076
  0
ARC
  5
2F4
330
1F
100
AcDbEntity
  8
LAY-10
  6
CONTINUOUS
 62
     7
100
AcDbCircle
 10
253.7500000000002
 20
177.3857492993902
 30
0.0
 40
3.500000000000002
100
AcDbArc
 50
1.870641730603566
 51
51.31781254650117
  0
LINE
  5
2F5
330
1F
100
AcDbEntity
  8
LAY-10
  6
CONTINUOUS
 62
     7
100
AcDbLine
 10
257.2481347569003
 20
177.4999999999905
 30
0.0
 11
246.7518652431002
 21
177.4999999999906
 31
0.0
  0
LINE
  5
2F6
330
1F
100
AcDbEntity
  8
LAY-10
  6
CONTINUOUS
 62
     7
100
AcDbLine
 10
252.6000000000001
 20
181.4713634880904
 30
0.0
 11
252.6000000000001
 21
178.9999999999905
 31
0.0
  0
LINE
  5
2F7
330
1F
100
AcDbEntity
  8
LAY-10
  6
CONTINUOUS
 62
     7
100
AcDbLine
 10
252.6000000000001
 20
178.9999999999905
 30
0.0
 11
251.4000000000003
 21
178.9999999999905
 31
0.0
  0
LINE
  5
2F8
330
1F
100
AcDbEntity
  8
LAY-10
  6
CONTINUOUS
 62
     7
100
AcDbLine
 10
251.4000000000003
 20
181.4713634880904
 30
0.0
 11
251.4000000000003
 21
178.9999999999905
 31
0.0
  0
ARC
  5
2F9
330
1F
100
AcDbEntity
  8
LAY-10
  6
CONTINUOUS
 62
     7
100
AcDbCircle
 10
252.0000000000002
 20
175.1999999999905
 30
0.0
 40
6.300000000000002
100
AcDbArc
 50
51.31781254649739
 51
84.53497620009915
  0
ARC
  5
2FA
330
1F
100
AcDbEntity
  8
LAY-10
  6
CONTINUOUS
 62
     7
100
AcDbCircle
 10
252.0000000000002
 20
175.1999999999905
 30
0.0
 40
6.300000000000002
100
AcDbArc
 50
95.46502379991128
 51
128.6821874534947
  0
LINE
  5
2FB
330
1F
100
AcDbEntity
  8
LAY-10
  6
CONTINUOUS
 62
     7
100
AcDbLine
 10
249.5000000000002
 20
165.4999999999925
 30
0.0
 11
249.0000000000002
 21
165.9999999999926
 31
0.0
  0
LINE
  5
2FC
330
1F
100
AcDbEntity
  8
LAY-10
  6
CONTINUOUS
 62
     7
100
AcDbLine
 10
254.5000000000002
 20
165.4999999999925
 30
0.0
 11
255.0000000000002
 21
165.9999999999925
 31
0.0
  0
LINE
  5
2FD
330
1F
100
AcDbEntity
  8
LAY-10
  6
CONTINUOUS
 62
     7
100
AcDbLine
 10
249.0000000000002
 20
177.4999999999905
 30
0.0
 11
249.0000000000002
 21
165.9999999999926
 31
0.0
  0
LINE
  5
2FE
330
1F
100
AcDbEntity
  8
LAY-10
  6
CONTINUOUS
 62
     7
100
AcDbLine
 10
249.5000000000002
 20
165.4999999999925
 30
0.0
 11
254.5000000000002
 21
165.4999999999925
 31
0.0
  0
LINE
  5
2FF
330
1F
100
AcDbEntity
  8
LAY-10
  6
CONTINUOUS
 62
     7
100
AcDbLine
 10
255.0000000000002
 20
177.4999999999905
 30
0.0
 11
255.0000000000002
 21
165.9999999999925
 31
0.0
  0
LINE
  5
300
330
1F
100
AcDbEntity
  8
LAY-10
  6
CONTINUOUS
 62
     7
100
AcDbLine
 10
255.0000000000002
 20
165.9999999999925
 30
0.0
 11
249.0000000000002
 21
165.9999999999926
 31
0.0
  0
LINE
  5
301
330
1F
100
AcDbEntity
  8
LAY-10
  6
CONTINUOUS
 62
     7
100
AcDbLine
 10
249.5000000000002
 20
165.49999999999
 30
0.0
 11
249.5000000000002
 21
163.9018352183706
 31
0.0
  0
LINE
  5
302
330
1F
100
AcDbEntity
  8
LAY-10
  6
CONTINUOUS
 62
     7
100
AcDbLine
 10
254.5000000000002
 20
165.49999999999
 30
0.0
 11
254.5000000000002
 21
162.562089256215
 31
0.0
  0
LINE
  5
303
330
1F
100
AcDbEntity
  8
LAY-10
  6
CONTINUOUS
 62
     7
100
AcDbLine
 10
249.5000000000002
 20
169.9999999999899
 30
0.0
 11
247.3084987583723
 21
169.9999999999899
 31
0.0
  0
LINE
  5
304
330
1F
100
AcDbEntity
  8
LAY-10
  6
CONTINUOUS
 62
     7
100
AcDbLine
 10
254.5000000000002
 20
169.9999999999906
 30
0.0
 11
305.9999999999919
 21
169.9999999999906
 31
0.0
  0
LINE
  5
305
330
1F
100
AcDbEntity
  8
LAY-10
  6
CONTINUOUS
 62
     7
100
AcDbLine
 10
235.0000000000074
 20
160.1986412405057
 30
0.0
 11
235.0000000000074
 21
161.1986412405039
 31
0.0
  0
LINE
  5
306
330
1F
100
AcDbEntity
  8
LAY-10
  6
CONTINUOUS
 62
     7
100
AcDbLine
 10
240.0000000000068
 20
160.1986412405057
 30
0.0
 11
240.0000000000068
 21
161.198641240505
 31
0.0
  0
LINE
  5
307
330
1F
100
AcDbEntity
  8
LAY-10
  6
CONTINUOUS
 62
     7
100
AcDbLine
 10
240.0000000000068
 20
161.198641240505
 30
0.0
 11
235.0000000000074
 21
161.198641240505
 31
0.0
  0
LINE
  5
308
330
1F
100
AcDbEntity
  8
LAY-10
  6
CONTINUOUS
 62
     7
100
AcDbLine
 10
240.5000000000099
 20
159.698641240505
 30
0.0
 11
234.5000000000099
 21
159.698641240505
 31
0.0
  0
LINE
  5
309
330
1F
100
AcDbEntity
  8
LAY-10
  6
CONTINUOUS
 62
     7
100
AcDbLine
 10
240.0000000000099
 20
160.1986412405057
 30
0.0
 11
235.0000000000099
 21
160.1986412405057
 31
0.0
  0
LINE
  5
30A
330
1F
100
AcDbEntity
  8
LAY-10
  6
CONTINUOUS
 62
     7
100
AcDbLine
 10
237.5000000000097
 20
162.6420169134807
 30
0.0
 11
235.0000000000088
 21
161.198641240506
 31
0.0
  0
LINE
  5
30B
330
1F
100
AcDbEntity
  8
LAY-10
  6
CONTINUOUS
 62
     7
100
AcDbLine
 10
237.5000000000102
 20
162.6420169134805
 30
0.0
 11
240.0000000000106
 21
161.198641240506
 31
0.0
  0
LINE
  5
30C
330
1F
100
AcDbEntity
  8
LAY-10
  6
CONTINUOUS
 62
     7
100
AcDbLine
 10
223.0000000000104
 20
130.1986412405143
 30
0.0
 11
223.0000000000104
 21
135.1986412405142
 31
0.0
  0
LINE
  5
30D
330
1F
100
AcDbEntity
  8
LAY-10
  6
CONTINUOUS
 62
     7
100
AcDbLine
 10
233.0000000000109
 20
135.1986412405142
 30
0.0
 11
223.0000000000104
 21
135.1986412405142
 31
0.0
  0
ARC
  5
30E
330
1F
100
AcDbEntity
  8
LAY-10
  6
CONTINUOUS
 62
     7
100
AcDbCircle
 10
233.0000000000109
 20
137.1986412405143
 30
0.0
 40
2.0
100
AcDbArc
 50
270.0000000000002
 51
0.0
  0
LINE
  5
30F
330
1F
100
AcDbEntity
  8
LAY-10
  6
CONTINUOUS
 62
     7
100
AcDbLine
 10
233.0000000000109
 20
130.1986412405143
 30
0.0
 11
223.0000000000104
 21
130.1986412405143
 31
0.0
  0
ARC
  5
310
330
1F
100
AcDbEntity
  8
LAY-10
  6
CONTINUOUS
 62
     7
100
AcDbCircle
 10
233.0000000000109
 20
137.1986412405143
 30
0.0
 40
7.000000000000004
100
AcDbArc
 50
270.0000000000002
 51
0.0
  0
LINE
  5
311
330
1F
100
AcDbEntity
  8
LAY-10
  6
CONTINUOUS
 62
     7
100
AcDbLine
 10
235.0000000000099
 20
137.1986412405099
 30
0.0
 11
235.0000000000099
 21
152.1986412405096
 31
0.0
  0
LINE
  5
312
330
1F
100
AcDbEntity
  8
LAY-10
  6
CONTINUOUS
 62
     7
100
AcDbLine
 10
240.0000000000099
 20
137.1986412405099
 30
0.0
 11
240.0000000000099
 21
152.1986412405096
 31
0.0
  0
LINE
  5
313
330
1F
100
AcDbEntity
  8
LAY-10
  6
CONTINUOUS
 62
     7
100
AcDbLine
 10
240.0000000000068
 20
158.1986412405145
 30
0.0
 11
235.0000000000074
 21
158.1986412405145
 31
0.0
  0
LINE
  5
314
330
1F
100
AcDbEntity
  8
LAY-10
  6
CONTINUOUS
 62
     7
100
AcDbLine
 10
240.5000000000081
 20
157.6986412405159
 30
0.0
 11
234.500000000009
 21
157.6986412405159
 31
0.0
  0
LINE
  5
315
330
1F
100
AcDbEntity
  8
LAY-10
  6
CONTINUOUS
 62
     7
100
AcDbLine
 10
235.0000000000074
 20
160.1986412405057
 30
0.0
 11
235.0000000000074
 21
158.1986412405145
 31
0.0
  0
LINE
  5
316
330
1F
100
AcDbEntity
  8
LAY-10
  6
CONTINUOUS
 62
     7
100
AcDbLine
 10
240.0000000000068
 20
160.1986412405057
 30
0.0
 11
240.0000000000068
 21
158.1986412405145
 31
0.0
  0
LINE
  5
317
330
1F
100
AcDbEntity
  8
LAY-10
  6
CONTINUOUS
 62
     7
100
AcDbLine
 10
234.5000000000099
 20
157.6986412405199
 30
0.0
 11
235.0000000000099
 21
158.1986412405099
 31
0.0
  0
LINE
  5
318
330
1F
100
AcDbEntity
  8
LAY-10
  6
CONTINUOUS
 62
     7
100
AcDbLine
 10
240.0000000000099
 20
158.1986412405099
 30
0.0
 11
240.5000000000099
 21
157.6986412405199
 31
0.0
  0
LINE
  5
319
330
1F
100
AcDbEntity
  8
LAY-10
  6
CONTINUOUS
 62
     7
100
AcDbLine
 10
240.5000000000099
 20
157.6986412405199
 30
0.0
 11
240.5000000000099
 21
152.1986412405099
 31
0.0
  0
LINE
  5
31A
330
1F
100
AcDbEntity
  8
LAY-10
  6
CONTINUOUS
 62
     7
100
AcDbLine
 10
234.5000000000099
 20
157.6986412405199
 30
0.0
 11
234.5000000000099
 21
152.1986412405099
 31
0.0
  0
ARC
  5
31B
330
1F
100
AcDbEntity
  8
LAY-10
  6
CONTINUOUS
 62
     7
100
AcDbCircle
 10
368.8400319701527
 20
171.9999999999906
 30
0.0
 40
2.0
100
AcDbArc
 50
270.0000000000002
 51
357.0000000000012
  0
LINE
  5
31C
330
1F
100
AcDbEntity
  8
LAY-10
  6
CONTINUOUS
 62
     7
100
AcDbLine
 10
370.8372910396617
 20
171.8953280875047
 30
0.0
 11
370.9999999999976
 21
174.9999999999906
 31
0.0
  0
LINE
  5
31D
330
1F
100
AcDbEntity
  8
LAY-10
  6
CONTINUOUS
 62
     7
100
AcDbLine
 10
350.4999999999998
 20
169.9999999999906
 30
0.0
 11
368.8400319701527
 21
169.9999999999906
 31
0.0
  0
ARC
  5
31E
330
1F
100
AcDbEntity
  8
LAY-10
  6
CONTINUOUS
 62
     7
100
AcDbCircle
 10
370.3030528523636
 20
170.0400077950691
 30
0.0
 40
1.461169470196836
100
AcDbArc
 50
181.5689363129781
 51
351.1694915853887
  0
LINE
  5
31F
330
1F
100
AcDbEntity
  8
LAY-10
  6
CONTINUOUS
 62
     7
100
AcDbLine
 10
352.1183650964733
 20
174.9999999999906
 30
0.0
 11
370.9999999999976
 21
174.9999999999906
 31
0.0
  0
ARC
  5
320
330
1F
100
AcDbEntity
  8
LAY-10
  6
CONTINUOUS
 62
     7
100
AcDbCircle
 10
354.0510354332864
 20
144.1986412404943
 30
0.0
 40
1.0
100
AcDbArc
 50
2.99999999999909
 51
90.0000000000002
  0
LINE
  5
321
330
1F
100
AcDbEntity
  8
LAY-10
  6
CONTINUOUS
 62
     7
100
AcDbLine
 10
355.2647817076597
 20
140.146305284251
 30
0.0
 11
355.0496649680409
 21
144.2509771967372
 31
0.0
  0
ARC
  5
322
330
1F
100
AcDbEntity
  8
LAY-10
  6
CONTINUOUS
 62
     7
100
AcDbCircle
 10
356.2634112424143
 20
140.198641240494
 30
0.0
 40
1.0
100
AcDbArc
 50
182.9999999999994
 51
270.0000000000002
  0
LINE
  5
323
330
1F
100
AcDbEntity
  8
LAY-10
  6
CONTINUOUS
 62
     7
100
AcDbLine
 10
356.2634112424143
 20
139.1986412404939
 30
0.0
 11
363.7365887575918
 21
139.1986412404939
 31
0.0
  0
ARC
  5
324
330
1F
100
AcDbEntity
  8
LAY-10
  6
CONTINUOUS
 62
     7
100
AcDbCircle
 10
363.7365887575918
 20
140.198641240494
 30
0.0
 40
1.0
100
AcDbArc
 50
270.0000000000002
 51
357.0000000000012
  0
LINE
  5
325
330
1F
100
AcDbEntity
  8
LAY-10
  6
CONTINUOUS
 62
     7
100
AcDbLine
 10
365.6196532197044
 20
157.0223290245765
 30
0.0
 11
364.7352182923464
 21
140.146305284251
 31
0.0
  0
ARC
  5
326
330
1F
100
AcDbEntity
  8
LAY-10
  6
CONTINUOUS
 62
     7
100
AcDbCircle
 10
367.6169122892136
 20
156.9176571120907
 30
0.0
 40
2.0
100
AcDbArc
 50
105.0000000000012
 51
177.000000000001
  0
LINE
  5
327
330
1F
100
AcDbEntity
  8
LAY-10
  6
CONTINUOUS
 62
     7
100
AcDbLine
 10
393.3152240065733
 20
165.8740513444232
 30
0.0
 11
367.099274199008
 21
158.8495087646706
 31
0.0
  0
LINE
  5
328
330
1F
100
AcDbEntity
  8
LAY-10
  6
CENTER
 62
     2
100
AcDbLine
 10
309.9999999999997
 20
343.9999999999982
 30
0.0
 11
309.9999999999997
 21
534.9999999999982
 31
0.0
  0
LINE
  5
329
330
1F
100
AcDbEntity
  8
LAY-10
  6
CENTER
 62
     2
100
AcDbLine
 10
216.2757547679859
 20
439.9999999999982
 30
0.0
 11
406.8999999999996
 21
439.9999999999982
 31
0.0
  0
LINE
  5
32A
330
1F
100
AcDbEntity
  8
LAY-10
  6
CENTER
 62
     2
100
AcDbLine
 10
252.0000000000021
 20
446.2749374804565
 30
0.0
 11
252.0000000000021
 21
433.7250625195439
 31
0.0
  0
LINE
  5
32B
330
1F
100
AcDbEntity
  8
LAY-10
  6
CENTER
 62
     2
100
AcDbLine
 10
368.0000000000019
 20
446.2749374804565
 30
0.0
 11
368.0000000000019
 21
433.7250625195439
 31
0.0
  0
LINE
  5
32C
330
1F
100
AcDbEntity
  8
LAY-10
  6
CENTER
 62
     2
100
AcDbLine
 10
346.4999999999986
 20
202.8193107156997
 30
0.0
 11
346.4999999999986
 21
146.7999999999768
 31
0.0
  0
LINE
  5
32D
330
1F
100
AcDbEntity
  8
LAY-10
  6
CENTER
 62
     2
100
AcDbLine
 10
252.0000000000006
 20
182.7986412405
 30
0.0
 11
252.0000000000006
 21
161.0986412405
 31
0.0
  0
LINE
  5
32E
330
1F
100
AcDbEntity
  8
LAY-10
  6
CENTER
 62
     2
100
AcDbLine
 10
309.9999999999977
 20
275.0986412405
 30
0.0
 11
309.9999999999977
 21
86.19864124050002
 31
0.0
  0
LINE
  5
32F
330
1F
100
AcDbEntity
  8
LAY-10
  6
CENTER
 62
     2
100
AcDbLine
 10
221.800000000011
 20
132.6986412405155
 30
0.0
 11
233.0000000000099
 21
132.6986412405155
 31
0.0
  0
ARC
  5
330
330
1F
100
AcDbEntity
  8
LAY-10
  6
CENTER
 62
     2
100
AcDbCircle
 10
233.0000000000099
 20
137.1986412405155
 30
0.0
 40
4.5
100
AcDbArc
 50
270.0000000000002
 51
0.0
  0
LINE
  5
331
330
1F
100
AcDbEntity
  8
LAY-10
  6
CENTER
 62
     2
100
AcDbLine
 10
237.5000000000097
 20
163.3999999999997
 30
0.0
 11
237.5000000000097
 21
137.1986412405155
 31
0.0
  0
LINE
  5
332
330
1F
100
AcDbEntity
  8
LAY-10
  6
CONTINUOUS
 62
     7
100
AcDbLine
 10
342.9999999999998
 20
169.7999999999936
 30
0.0
 11
342.9999999999998
 21
200.8999999999897
 31
0.0
  0
LINE
  5
333
330
1F
100
AcDbEntity
  8
LAY-10
  6
CONTINUOUS
 62
     7
100
AcDbLine
 10
349.9999999999995
 20
169.7999999999936
 30
0.0
 11
349.9999999999995
 21
200.8999999999897
 31
0.0
  0
LINE
  5
334
330
1F
100
AcDbEntity
  8
LAY-10
  6
CONTINUOUS
 62
     7
100
AcDbLine
 10
342.9999999999984
 20
150.6999999999696
 30
0.0
 11
342.9999999999984
 21
162.9999999999696
 31
0.0
  0
LINE
  5
335
330
1F
100
AcDbEntity
  8
LAY-10
  6
CONTINUOUS
 62
     7
100
AcDbLine
 10
349.9999999999991
 20
150.6999999999696
 30
0.0
 11
349.9999999999991
 21
162.9999999999696
 31
0.0
  0
LINE
  5
336
330
1F
100
AcDbEntity
  8
LAY-10
  6
CONTINUOUS
 62
     7
100
AcDbLine
 10
306.4999999999918
 20
169.7999999999977
 30
0.0
 11
306.4999999999918
 21
200.9000000000038
 31
0.0
  0
LINE
  5
337
330
1F
100
AcDbEntity
  8
LAY-10
  6
CONTINUOUS
 62
     7
100
AcDbLine
 10
249.5000000000002
 20
177.4999999999905
 30
0.0
 11
249.5000000000002
 21
165.4999999999925
 31
0.0
  0
LINE
  5
338
330
1F
100
AcDbEntity
  8
LAY-10
  6
CONTINUOUS
 62
     7
100
AcDbLine
 10
254.5000000000002
 20
177.4999999999905
 30
0.0
 11
254.5000000000002
 21
165.4999999999925
 31
0.0
  0
LINE
  5
339
330
1F
100
AcDbEntity
  8
LAY-10
  6
CONTINUOUS
 62
     7
100
AcDbLine
 10
255.0000000000007
 20
165.9999999999925
 30
0.0
 11
255.0000000000007
 21
162.4281146599993
 31
0.0
  0
LINE
  5
33A
330
1F
100
AcDbEntity
  8
LAY-10
  6
CONTINUOUS
 62
     7
100
AcDbLine
 10
248.9999999999999
 20
165.9999999999926
 30
0.0
 11
248.9999999999999
 21
164.0358098145863
 31
0.0
  0
LINE
  5
33B
330
1F
100
AcDbEntity
  8
LAY-10
  6
CONTINUOUS
 62
     7
100
AcDbLine
 10
234.500000000009
 20
159.698641240505
 30
0.0
 11
235.0000000000074
 21
160.1986412405057
 31
0.0
  0
LINE
  5
33C
330
1F
100
AcDbEntity
  8
LAY-10
  6
CONTINUOUS
 62
     7
100
AcDbLine
 10
240.5000000000081
 20
159.698641240505
 30
0.0
 11
240.0000000000068
 21
160.1986412405057
 31
0.0
  0
LINE
  5
33D
330
1F
100
AcDbEntity
  8
LAY-10
  6
CONTINUOUS
 62
     7
100
AcDbLine
 10
234.500000000009
 20
159.698641240505
 30
0.0
 11
234.500000000009
 21
157.6986412405159
 31
0.0
  0
LINE
  5
33E
330
1F
100
AcDbEntity
  8
LAY-10
  6
CONTINUOUS
 62
     7
100
AcDbLine
 10
240.5000000000081
 20
159.698641240505
 30
0.0
 11
240.5000000000081
 21
157.6986412405159
 31
0.0
  0
LINE
  5
33F
330
1F
100
AcDbEntity
  8
LAY-10
  6
CONTINUOUS
 62
     7
100
AcDbLine
 10
235.0000000000099
 20
158.1986412405099
 30
0.0
 11
235.0000000000099
 21
152.1986412405099
 31
0.0
  0
LINE
  5
340
330
1F
100
AcDbEntity
  8
LAY-10
  6
CONTINUOUS
 62
     7
100
AcDbLine
 10
240.0000000000099
 20
158.1986412405099
 30
0.0
 11
240.0000000000099
 21
152.1986412405099
 31
0.0
  0
LINE
  5
341
330
1F
100
AcDbEntity
  8
LAY-10
  6
CONTINUOUS
 62
     7
100
AcDbLine
 10
240.0000000000281
 20
151.3326158367149
 30
0.0
 11
240.5000000000281
 21
152.1986412404995
 31
0.0
  0
LINE
  5
342
330
1F
100
AcDbEntity
  8
LAY-10
  6
CONTINUOUS
 62
     7
100
AcDbLine
 10
234.9999999999979
 20
151.3326158367184
 30
0.0
 11
234.4999999999979
 21
152.198641240503
 31
0.0
  0
DIMENSION
  5
344
330
1F
100
AcDbEntity
  8
LAY-20
  6
CONTINUOUS
 62
     4
100
AcDbDimension
  2
*D15
 10
278.5
 20
56.19864124049798
 30
0.0
 11
310.0
 21
61.19864124049798
 31
0.0
 70
   160
  1
%%c<>
  3
ISO-25
100
AcDbAlignedDimension
 13
341.5
 23
145.1986412405
 33
0.0
 14
278.5
 24
145.1986412405
 34
0.0
100
AcDbRotatedDimension
1001
ACAD
1000
DSTYLE
1002
{
1070
   270
1070
     2
1070
     6
1000
EX_BNORM
1070
     7
1000
EX_BNORM
1070
    41
1040
5.0
1070
    42
1040
3.0
1070
    44
1040
3.0
1070
    73
1070
     0
1070
    74
1070
     0
1070
    75
1070
     0
1070
    76
1070
     0
1070
    77
1070
     1
1070
    78
1070
     8
1070
   140
1040
6.2362208
1070
   147
1040
0.0
1070
   173
1070
     1
1070
   176
1070
     4
1070
   177
1070
     4
1070
   178
1070
     7
1070
   271
1070
     1
1070
   277
1070
     2
1070
   279
1070
     2
1070
   280
1070
     0
1070
   287
1070
     5
1070
   340
1005
343
1002
}
  0
DIMENSION
  5
352
330
1F
100
AcDbEntity
  8
LAY-20
  6
CONTINUOUS
 62
     4
100
AcDbDimension
  2
*D16
 10
340.0
 20
70.19864124049798
 30
0.0
 11
310.0
 21
75.19864124049798
 31
0.0
 70
   160
  1
%%c<>
  3
ISO-25
100
AcDbAlignedDimension
 13
280.0
 23
105.198641240496
 33
0.0
 14
340.0
 24
105.198641240496
 34
0.0
100
AcDbRotatedDimension
1001
ACAD
1000
DSTYLE
1002
{
1070
   270
1070
     2
1070
     6
1000
EX_BNORM
1070
     7
1000
EX_BNORM
1070
    41
1040
5.0
1070
    42
1040
3.0
1070
    44
1040
3.0
1070
    73
1070
     0
1070
    74
1070
     0
1070
    75
1070
     0
1070
    76
1070
     0
1070
    77
1070
     1
1070
    78
1070
     8
1070
   140
1040
6.2362208
1070
   147
1040
0.0
1070
   173
1070
     1
1070
   176
1070
     4
1070
   177
1070
     4
1070
   178
1070
     7
1070
   271
1070
     1
1070
   277
1070
     2
1070
   279
1070
     2
1070
   280
1070
     0
1070
   287
1070
     5
1070
   340
1005
343
1002
}
  0
DIMENSION
  5
35F
330
1F
100
AcDbEntity
  8
LAY-20
  6
CONTINUOUS
 62
     4
100
AcDbDimension
  2
*D17
 10
220.0
 20
317.99999999999
 30
0.0
 11
309.9999999999991
 21
322.9999999999899
 31
0.0
 70
   160
  1
%%c<>
  3
ISO-25
100
AcDbAlignedDimension
 13
399.999999999998
 23
163.1986412405
 33
0.0
 14
220.0
 24
163.19864124052
 34
0.0
100
AcDbRotatedDimension
1001
ACAD
1000
DSTYLE
1002
{
1070
   270
1070
     2
1070
     6
1000
EX_BNORM
1070
     7
1000
EX_BNORM
1070
    41
1040
5.0
1070
    42
1040
3.0
1070
    44
1040
3.0
1070
    73
1070
     0
1070
    74
1070
     0
1070
    75
1070
     0
1070
    76
1070
     0
1070
    77
1070
     1
1070
    78
1070
     8
1070
   140
1040
6.2362208
1070
   147
1040
0.0
1070
   173
1070
     1
1070
   176
1070
     4
1070
   177
1070
     4
1070
   178
1070
     7
1070
   271
1070
     1
1070
   277
1070
     2
1070
   279
1070
     2
1070
   280
1070
     0
1070
   287
1070
     5
1070
   340
1005
343
1002
}
  0
DIMENSION
  5
36C
330
1F
100
AcDbEntity
  8
LAY-20
  6
CONTINUOUS
 62
     4
100
AcDbDimension
  2
*D18
 10
390.000000000005
 20
303.99999999999
 30
0.0
 11
309.9999999999975
 21
308.99999999999
 31
0.0
 70
   160
  1
%%c<>
  3
ISO-25
100
AcDbAlignedDimension
 13
229.99999999999
 23
172.99999999999
 33
0.0
 14
390.000000000005
 24
172.99999999999
 34
0.0
100
AcDbRotatedDimension
1001
ACAD
1000
DSTYLE
1002
{
1070
   270
1070
     2
1070
     6
1000
EX_BNORM
1070
     7
1000
EX_BNORM
1070
    41
1040
5.0
1070
    42
1040
3.0
1070
    44
1040
3.0
1070
    73
1070
     0
1070
    74
1070
     0
1070
    75
1070
     0
1070
    76
1070
     0
1070
    77
1070
     1
1070
    78
1070
     8
1070
   140
1040
6.2362208
1070
   147
1040
0.0
1070
   173
1070
     1
1070
   176
1070
     4
1070
   177
1070
     4
1070
   178
1070
     7
1070
   271
1070
     1
1070
   277
1070
     2
1070
   279
1070
     2
1070
   280
1070
     0
1070
   287
1070
     5
1070
   340
1005
343
1002
}
  0
DIMENSION
  5
379
330
1F
100
AcDbEntity
  8
LAY-20
  6
CONTINUOUS
 62
     4
100
AcDbDimension
  2
*D19
 10
200.0
 20
170.1986412405
 30
0.0
 11
195.0
 21
157.645416020965
 31
0.0
 70
   160
  3
ISO-25
100
AcDbAlignedDimension
 13
265.5
 23
145.09219080143
 33
0.0
 14
221.0
 24
170.1986412405
 34
0.0
 50
90.0
100
AcDbRotatedDimension
1001
ACAD
1000
DSTYLE
1002
{
1070
   270
1070
     2
1070
     6
1000
EX_BNORM
1070
     7
1000
EX_BNORM
1070
    41
1040
5.0
1070
    42
1040
3.0
1070
    44
1040
3.0
1070
    73
1070
     0
1070
    74
1070
     0
1070
    75
1070
     0
1070
    76
1070
     0
1070
    77
1070
     1
1070
    78
1070
     0
1070
   140
1040
6.2362208
1070
   147
1040
0.0
1070
   173
1070
     1
1070
   176
1070
     4
1070
   177
1070
     4
1070
   178
1070
     7
1070
   271
1070
     0
1070
   277
1070
     2
1070
   279
1070
     2
1070
   280
1070
     0
1070
   287
1070
     5
1070
   340
1005
343
1002
}
  0
DIMENSION
  5
386
330
1F
100
AcDbEntity
  8
LAY-20
  6
CONTINUOUS
 62
     4
100
AcDbDimension
  2
*D20
 10
249.0
 20
289.99999999999
 30
0.0
 11
310.0
 21
294.99999999999
 31
0.0
 70
   160
  1
%%c<>
  3
ISO-25
100
AcDbAlignedDimension
 13
371.0
 23
174.99999999999
 33
0.0
 14
249.0
 24
174.99999999999
 34
0.0
100
AcDbRotatedDimension
1001
ACAD
1000
DSTYLE
1002
{
1070
   270
1070
     2
1070
     6
1000
EX_BNORM
1070
     7
1000
EX_BNORM
1070
    41
1040
5.0
1070
    42
1040
3.0
1070
    44
1040
3.0
1070
    73
1070
     0
1070
    74
1070
     0
1070
    75
1070
     0
1070
    76
1070
     0
1070
    77
1070
     1
1070
    78
1070
     8
1070
   140
1040
6.2362208
1070
   147
1040
0.0
1070
   173
1070
     1
1070
   176
1070
     4
1070
   177
1070
     4
1070
   178
1070
     7
1070
   271
1070
     1
1070
   277
1070
     2
1070
   279
1070
     2
1070
   280
1070
     0
1070
   287
1070
     5
1070
   340
1005
343
1002
}
  0
DIMENSION
  5
393
330
1F
100
AcDbEntity
  8
LAY-20
  6
CONTINUOUS
 62
     4
100
AcDbDimension
  2
*D21
 10
420.0
 20
170.1986412405
 30
0.0
 11
415.0
 21
130.198641240499
 31
0.0
 70
   160
  3
ISO-25
100
AcDbAlignedDimension
 13
354.5
 23
90.198641240498
 33
0.0
 14
399.0
 24
170.1986412405
 34
0.0
 50
90.0
100
AcDbRotatedDimension
1001
ACAD
1000
DSTYLE
1002
{
1070
   270
1070
     2
1070
     6
1000
EX_BNORM
1070
     7
1000
EX_BNORM
1070
    41
1040
5.0
1070
    42
1040
3.0
1070
    44
1040
3.0
1070
    73
1070
     0
1070
    74
1070
     0
1070
    75
1070
     0
1070
    76
1070
     0
1070
    77
1070
     1
1070
    78
1070
     8
1070
   140
1040
6.2362208
1070
   147
1040
0.0
1070
   173
1070
     1
1070
   176
1070
     4
1070
   177
1070
     4
1070
   178
1070
     7
1070
   271
1070
     1
1070
   277
1070
     2
1070
   279
1070
     2
1070
   280
1070
     0
1070
   287
1070
     5
1070
   340
1005
343
1002
}
  0
DIMENSION
  5
3A0
330
1F
100
AcDbEntity
  8
LAY-20
  6
CONTINUOUS
 62
     4
100
AcDbDimension
  2
*D22
 10
420.0
 20
269.99999999999
 30
0.0
 11
415.0
 21
220.099320620245
 31
0.0
 70
   160
  3
ISO-25
100
AcDbAlignedDimension
 13
420.0
 23
170.1986412405
 33
0.0
 14
310.0
 24
269.99999999999
 34
0.0
 50
90.0
100
AcDbRotatedDimension
1001
ACAD
1000
DSTYLE
1002
{
1070
   270
1070
     2
1070
     6
1000
EX_BNORM
1070
     7
1000
EX_BNORM
1070
    41
1040
5.0
1070
    42
1040
3.0
1070
    44
1040
3.0
1070
    73
1070
     0
1070
    74
1070
     0
1070
    75
1070
     1
1070
    76
1070
     0
1070
    77
1070
     1
1070
    78
1070
     0
1070
   140
1040
6.2362208
1070
   147
1040
0.0
1070
   173
1070
     1
1070
   176
1070
     4
1070
   177
1070
     4
1070
   178
1070
     7
1070
   271
1070
     0
1070
   277
1070
     2
1070
   279
1070
     2
1070
   280
1070
     0
1070
   287
1070
     5
1070
   340
1005
343
1002
}
  0
LINE
  5
3AC
330
1F
100
AcDbEntity
  8
LAY-255
  6
CONTINUOUS
 62
     7
100
AcDbLine
 10
770.0
 20
43.99999999999999
 30
0.0
 11
570.0
 21
43.99999999999999
 31
0.0
  0
LINE
  5
3AD
330
1F
100
AcDbEntity
  8
LAY-255
  6
CONTINUOUS
 62
     7
100
AcDbLine
 10
577.6
 20
32.0
 30
0.0
 11
593.6
 21
42.0
 31
0.0
  0
LINE
  5
3AE
330
1F
100
AcDbEntity
  8
LAY-255
  6
CONTINUOUS
 62
     7
100
AcDbLine
 10
593.6
 20
42.0
 30
0.0
 11
609.6
 21
32.0
 31
0.0
  0
LINE
  5
3AF
330
1F
100
AcDbEntity
  8
LAY-255
  6
CONTINUOUS
 62
     7
100
AcDbLine
 10
609.6
 20
32.0
 30
0.0
 11
593.6
 21
22.0
 31
0.0
  0
LINE
  5
3B0
330
1F
100
AcDbEntity
  8
LAY-255
  6
CONTINUOUS
 62
     7
100
AcDbLine
 10
593.6
 20
22.0
 30
0.0
 11
577.6
 21
32.0
 31
0.0
  0
LINE
  5
3B1
330
1F
100
AcDbEntity
  8
LAY-255
  6
CONTINUOUS
 62
     7
100
AcDbLine
 10
10.0
 20
20.0
 30
0.0
 11
770.0000000000001
 21
20.0
 31
0.0
  0
LINE
  5
3B2
330
1F
100
AcDbEntity
  8
LAY-255
  6
CONTINUOUS
 62
     7
100
AcDbLine
 10
10.0
 20
560.0
 30
0.0
 11
770.0000000000001
 21
560.0
 31
0.0
  0
LINE
  5
3B3
330
1F
100
AcDbEntity
  8
LAY-255
  6
CONTINUOUS
 62
     7
100
AcDbLine
 10
10.0
 20
20.0
 30
0.0
 11
10.0
 21
560.0
 31
0.0
  0
LINE
  5
3B4
330
1F
100
AcDbEntity
  8
LAY-255
  6
CONTINUOUS
 62
     7
100
AcDbLine
 10
770.0
 20
20.0
 30
0.0
 11
770.0
 21
560.0
 31
0.0
  0
LINE
  5
3B5
330
1F
100
AcDbEntity
  8
LAY-255
  6
CONTINUOUS
 62
     4
100
AcDbLine
 10
570.0
 20
55.99999999999999
 30
0.0
 11
770.0000000000001
 21
55.99999999999999
 31
0.0
  0
LINE
  5
3B6
330
1F
100
AcDbEntity
  8
LAY-255
  6
CONTINUOUS
 62
     7
100
AcDbLine
 10
570.0
 20
20.0
 30
0.0
 11
570.0
 21
134.0
 31
0.0
  0
LINE
  5
3B7
330
1F
100
AcDbEntity
  8
LAY-255
  6
CONTINUOUS
 62
     4
100
AcDbLine
 10
670.0
 20
55.99999999999999
 30
0.0
 11
670.0
 21
44.0
 31
0.0
  0
LINE
  5
3B8
330
1F
100
AcDbEntity
  8
LAY-255
  6
CONTINUOUS
 62
     7
100
AcDbLine
 10
770.0000000000001
 20
134.0
 30
0.0
 11
570.0
 21
134.0
 31
0.0
  0
LINE
  5
3B9
330
1F
100
AcDbEntity
  8
LAY-255
  6
CONTINUOUS
 62
     4
100
AcDbLine
 10
766.0
 20
110.0
 30
0.0
 11
574.0
 21
110.0
 31
0.0
  0
LINE
  5
3BA
330
1F
100
AcDbEntity
  8
LAY-255
  6
CONTINUOUS
 62
     4
100
AcDbLine
 10
766.0
 20
122.0
 30
0.0
 11
574.0
 21
122.0
 31
0.0
  0
POINT
  5
3BB
330
1F
100
AcDbEntity
  8
LAY-255
  6
CONTINUOUS
 62
     7
100
AcDbPoint
 10
578.0
 20
100.0
 30
0.0
  0
POINT
  5
3BC
330
1F
100
AcDbEntity
  8
LAY-255
  6
CONTINUOUS
 62
     7
100
AcDbPoint
 10
600.0
 20
112.0
 30
0.0
  0
POINT
  5
3BD
330
1F
100
AcDbEntity
  8
LAY-255
  6
CONTINUOUS
 62
     7
100
AcDbPoint
 10
600.0
 20
124.0
 30
0.0
  0
POINT
  5
3BE
330
1F
100
AcDbEntity
  8
LAY-255
  6
CONTINUOUS
 62
     7
100
AcDbPoint
 10
578.0
 20
80.0
 30
0.0
  0
POINT
  5
3BF
330
1F
100
AcDbEntity
  8
LAY-255
  6
CONTINUOUS
 62
     7
100
AcDbPoint
 10
578.0
 20
90.0
 30
0.0
  0
POINT
  5
3C0
330
1F
100
AcDbEntity
  8
LAY-255
  6
CONTINUOUS
 62
     7
100
AcDbPoint
 10
578.0
 20
69.99999999999999
 30
0.0
  0
POINT
  5
3C1
330
1F
100
AcDbEntity
  8
LAY-255
  6
CONTINUOUS
 62
     7
100
AcDbPoint
 10
578.0
 20
59.99999999999997
 30
0.0
  0
TEXT
  5
3C2
330
1F
100
AcDbEntity
  8
LAY-255
  6
CONTINUOUS
 62
     7
100
AcDbText
 10
616.2767579736328
 20
31.0875
 30
0.0
 40
10.3125
  1
福西鋳物株式会社
 41
1.342692319347662
  7
EXCADSTD
100
AcDbText
  0
TEXT
  5
3C3
330
1F
100
AcDbEntity
  8
LAY-255
  6
CONTINUOUS
 62
     7
100
AcDbText
 10
617.0187500000001
 20
23.9625
 30
0.0
 40
3.4375
  1
ＦＵＫＵＮＩＳＨＩ
 41
1.204799226045263
  7
EXCADSTD
100
AcDbText
  0
TEXT
  5
3C4
330
1F
100
AcDbEntity
  8
LAY-255
  6
CONTINUOUS
 62
     7
100
AcDbText
 10
665.4383928571428
 20
23.9625
 30
0.0
 40
3.4375
  1
ＦＯＵＮＤＲＹ
 41
1.243252752978497
  7
EXCADSTD
100
AcDbText
  0
TEXT
  5
3C5
330
1F
100
AcDbEntity
  8
LAY-255
  6
CONTINUOUS
 62
     7
100
AcDbText
 10
703.9891823858172
 20
23.9625
 30
0.0
 40
3.4375
  1
ＣＯ.,ＬＴＤ.
 41
1.243830523306697
  7
EXCADSTD
100
AcDbText
  0
TEXT
  5
3C6
330
1F
100
AcDbEntity
  8
LAY-255
  6
CONTINUOUS
 62
     7
100
AcDbText
 10
588.06875
 20
27.4375
 30
0.0
 40
10.3125
  1
S
 41
0.7582677563636363
  7
EXCADSTD
100
AcDbText
  0
TEXT
  5
3C7
330
1F
100
AcDbEntity
  8
LAY-255
  6
CONTINUOUS
 62
     7
100
AcDbText
 10
594.209375
 20
27.49882075472
 30
0.0
 40
10.3125
  1
F
 41
0.7440945272727272
  7
EXCADSTD
100
AcDbText
  0
TEXT
  5
3C8
330
1F
100
AcDbEntity
  8
LAY-255
  6
CONTINUOUS
 62
     7
100
AcDbText
 10
674.2109375
 20
48.84374999999998
 30
0.0
 40
5.15625
  1
縮尺
 41
1.080708718181818
  7
EXCADSTD
100
AcDbText
  0
TEXT
  5
3C9
330
1F
100
AcDbEntity
  8
LAY-255
  6
CONTINUOUS
 62
     7
100
AcDbText
 10
574.53125
 20
113.125
 30
0.0
 40
6.875
  1
型式
 41
1.056348480681818
  7
EXCADSTD
100
AcDbText
  0
TEXT
  5
3CA
330
1F
100
AcDbEntity
  8
LAY-255
  6
CONTINUOUS
 62
     7
100
AcDbText
 10
574.84375
 20
125.125
 30
0.0
 40
6.875
  1
品名
 41
0.978838634090909
  7
EXCADSTD
100
AcDbText
  0
TEXT
  5
3CB
330
1F
100
AcDbEntity
  8
LAY-255
  6
CONTINUOUS
 62
     7
100
AcDbText
 10
574.3046875
 20
48.84374999999998
 30
0.0
 40
5.15625
  1
作成日
 41
1.000629973818182
  7
EXCADSTD
100
AcDbText
  0
TEXT
  5
3CC
330
1F
100
AcDbEntity
  8
LAY-255
  6
CONTINUOUS
 62
     7
100
AcDbText
 10
578.375
 20
71.12500000000001
 30
0.0
 40
6.875
  1
施工：打込用
 41
1.018700840909091
  7
EXCADSTD
100
AcDbText
  0
TEXT
  5
3CD
330
1F
100
AcDbEntity
  8
LAY-255
  6
CONTINUOUS
 62
     7
100
AcDbText
 10
600.5
 20
125.125
 30
0.0
 40
6.875
  1
ルーフドレイン
 41
1.021169538599106
  7
EXCADSTD
100
AcDbText
  0
TEXT
  5
3CE
330
1F
100
AcDbEntity
  8
LAY-255
  6
CONTINUOUS
 62
     7
100
AcDbText
 10
578.4375
 20
61.12500000000001
 30
0.0
 40
6.875
  1
接続：差込用
 41
1.01733803041958
  7
EXCADSTD
100
AcDbText
  0
TEXT
  5
3CF
330
1F
100
AcDbEntity
  8
LAY-255
  6
CONTINUOUS
 62
     7
100
AcDbText
 10
578.75
 20
101.125
 30
0.0
 40
6.875
  1
防水：アスファルト・シート・
 41
0.9866967752199411
  7
EXCADSTD
100
AcDbText
  0
TEXT
  5
3D0
330
1F
100
AcDbEntity
  8
LAY-255
  6
CONTINUOUS
 62
     7
100
AcDbText
 10
578.0
 20
91.12500000000001
 30
0.0
 40
6.875
  1
      露出アスファルト防水兼用
 41
0.8942744381697771
  7
EXCADSTD
100
AcDbText
  0
TEXT
  5
3D1
330
1F
100
AcDbEntity
  8
LAY-255
  6
CONTINUOUS
 62
     7
100
AcDbText
 10
578.46875
 20
81.12500000000001
 30
0.0
 40
6.875
  1
用途：屋上用
 41
1.016656625174825
  7
EXCADSTD
100
AcDbText
  0
TEXT
  5
3D2
330
1F
100
AcDbEntity
  8
LAY-255
  6
CONTINUOUS
 62
     7
100
AcDbText
 10
696.5625
 20
47.12499999999998
 30
0.0
 40
6.875
  1
１：２
 41
0.888661464
  7
EXCADSTD
100
AcDbText
  0
TEXT
  5
3D3
330
1F
100
AcDbEntity
  8
LAY-255
  6
CONTINUOUS
 62
     7
100
AcDbText
 10
601.75
 20
113.125
 30
0.0
 40
6.875
  1
ＲＡＣＸ－９０６５型
 41
1.000581655991735
  7
EXCADSTD
100
AcDbText
  0
TEXT
  5
3D4
330
1F
100
AcDbEntity
  8
LAY-255
  6
CONTINUOUS
 62
     7
100
AcDbText
 10
601.78125
 20
47.12499999999998
 30
0.0
 40
6.875
  1
０８／０９／０２
 41
0.9779528072727272
  7
EXCADSTD
100
AcDbText
  0
ENDSEC
  0
SECTION
  2
OBJECTS
  0
DICTIONARY
  5
C
330
0
100
AcDbDictionary
  3
ACAD_GROUP
350
D
  3
ACAD_LAYOUT
350
1A
  3
ACAD_MATERIAL
350
43
  3
ACAD_MLEADERSTYLE
350
6B
  3
ACAD_MLINESTYLE
350
17
  3
ACAD_PLOTSETTINGS
350
19
  3
ACAD_SCALELIST
350
47
  3
ACAD_VISUALSTYLE
350
2A
  3
ACDBHEADERROUNDTRIPXREC
350
3D5
  3
ACDBVARIABLEDICTIONARY
350
3F6
  0
DICTIONARY
  5
401
330
8
100
AcDbDictionary
280
     1
  3
ACAD_XREC_ROUNDTRIP
360
402
  0
DICTIONARY
  5
D
102
{ACAD_REACTORS
330
C
102
}
330
C
100
AcDbDictionary
  0
DICTIONARY
  5
1A
102
{ACAD_REACTORS
330
C
102
}
330
C
100
AcDbDictionary
  0
DICTIONARY
  5
43
102
{ACAD_REACTORS
330
C
102
}
330
C
100
AcDbDictionary
  3
BYBLOCK
350
45
  3
BYLAYER
350
44
  3
GLOBAL
350
46
  0
DICTIONARY
  5
6B
102
{ACAD_REACTORS
330
C
102
}
330
C
100
AcDbDictionary
  3
STANDARD
350
6C
  0
DICTIONARY
  5
17
102
{ACAD_REACTORS
330
C
102
}
330
C
100
AcDbDictionary
  3
STANDARD
350
18
  0
DICTIONARY
  5
19
102
{ACAD_REACTORS
330
C
102
}
330
C
100
AcDbDictionary
  0
DICTIONARY
  5
47
102
{ACAD_REACTORS
330
C
102
}
330
C
100
AcDbDictionary
  3
A0
350
48
  3
A1
350
49
  3
A2
350
4A
  3
A3
350
4B
  3
A4
350
4C
  3
A5
350
4D
  3
A6
350
4E
  3
A7
350
4F
  3
A8
350
50
  3
A9
350
51
  3
B0
350
52
  3
B1
350
53
  3
B2
350
54
  3
B3
350
55
  3
B4
350
56
  3
B5
350
57
  3
B6
350
58
  3
B7
350
59
  3
B8
350
5A
  3
B9
350
5B
  3
C0
350
5C
  3
C1
350
5D
  3
C2
350
5E
  3
C3
350
5F
  3
C4
350
60
  3
C5
350
61
  3
C6
350
62
  3
C7
350
63
  3
C8
350
64
  3
C9
350
65
  3
D0
350
66
  3
D1
350
67
  3
D2
350
68
  0
DICTIONARY
  5
2A
102
{ACAD_REACTORS
330
C
102
}
330
C
100
AcDbDictionary
  3
2DWIREFRAME
350
2F
  3
BASIC
350
32
  3
BRIGHTEN
350
36
  3
COLORCHANGE
350
3A
  3
CONCEPTUAL
350
34
  3
DIM
350
35
  3
EDGECOLOROFF
350
3D
  3
FACEPATTERN
350
39
  3
FLAT
350
2B
  3
FLATWITHEDGES
350
2C
  3
GOURAUD
350
2D
  3
GOURAUDWITHEDGES
350
2E
  3
HIDDEN
350
31
  3
JITTEROFF
350
3B
  3
LINEPATTERN
350
38
  3
OVERHANGOFF
350
3C
  3
REALISTIC
350
33
  3
SHADED
350
42
  3
SHADED_WITH_EDGES
350
41
  3
SHADES_OF_GRAY
350
3E
  3
SKETCHY
350
3F
  3
THICKEN
350
37
  3
WIREFRAME
350
30
  3
X-RAY
350
40
  0
DICTIONARY
  5
3D5
102
{ACAD_REACTORS
330
C
102
}
330
C
100
AcDbDictionary
  3
CEPSNID
350
3DF
  3
CEPSNTYPE
350
3DE
  3
DIMSTYLEDATA
350
3F5
  3
FINGERPRINTGUID
350
3E0
  3
HYPERLINKBASE
350
3D8
  3
INSUNITS
350
3DD
  3
LAYOUTDICT
350
3DA
  3
LWETCUNION
350
3DC
  3
PLOTSETDICT
350
3DB
  3
PSVPSCALE
350
3E2
  3
PUCSBASE
350
3E5
  3
PUCSORGBACK
350
3EB
  3
PUCSORGBOTTOM
350
3E7
  3
PUCSORGFRONT
350
3EA
  3
PUCSORGLEFT
350
3E8
  3
PUCSORGRIGHT
350
3E9
  3
PUCSORGTOP
350
3E6
  3
PUCSORTHOREF
350
3E3
  3
PUCSORTHOVIEW
350
3E4
  3
STYLESHEET
350
3D9
  3
TSTACKALIGN
350
3D6
  3
TSTACKSIZE
350
3D7
  3
UCSBASE
350
3EE
  3
UCSORGBACK
350
3F4
  3
UCSORGBOTTOM
350
3F0
  3
UCSORGFRONT
350
3F3
  3
UCSORGLEFT
350
3F1
  3
UCSORGRIGHT
350
3F2
  3
UCSORGTOP
350
3EF
  3
UCSORTHOREF
350
3EC
  3
UCSORTHOVIEW
350
3ED
  3
VERSIONGUID
350
3E1
  0
DICTIONARY
  5
3F6
102
{ACAD_REACTORS
330
C
102
}
330
C
100
AcDbDictionary
  3
CANNOSCALE
350
403
  3
CENTEREXE
350
3FD
  3
CENTERLTYPEFILE
350
3FE
  3
CMLEADERSTYLE
350
3F8
  3
CTABLESTYLE
350
3F7
  3
DIMASSOC
350
3FF
  3
HIDETEXT
350
400
  3
MSLTSCALE
350
404
  3
PSOLHEIGHT
350
3FA
  3
PSOLWIDTH
350
3F9
  0
XRECORD
  5
402
102
{ACAD_REACTORS
330
401
102
}
330
401
100
AcDbXrecord
102
VTR_0.000_0.000_1.000_1.000_VISUALSTYLE
340
2F
102
VTR_0.000_0.000_1.000_1.000_GRIDDISPLAY
 70
     3
102
VTR_0.000_0.000_1.000_1.000_GRIDMAJOR
 70
     5
102
VTR_0.000_0.000_1.000_1.000_DEFAULTLIGHTING
280
     1
102
VTR_0.000_0.000_1.000_1.000_DEFAULTLIGHTINGTYPE
 70
     1
102
VTR_0.000_0.000_1.000_1.000_BRIGHTNESS
141
0.0
102
VTR_0.000_0.000_1.000_1.000_CONTRAST
142
0.0
  0
MATERIAL
  5
45
102
{ACAD_REACTORS
330
43
102
}
102
{ACAD_XDICTIONARY
360
407
102
}
330
43
100
AcDbMaterial
  1
BYBLOCK
  0
MATERIAL
  5
44
102
{ACAD_REACTORS
330
43
102
}
102
{ACAD_XDICTIONARY
360
405
102
}
330
43
100
AcDbMaterial
  1
BYLAYER
  0
MATERIAL
  5
46
102
{ACAD_REACTORS
330
43
102
}
102
{ACAD_XDICTIONARY
360
409
102
}
330
43
100
AcDbMaterial
  1
GLOBAL
  0
ACAD_PROXY_OBJECT
  5
6C
102
{ACAD_REACTORS
330
6B
102
}
330
6B
100
AcDbProxyObject
 90
      499
 91
      505
 93
      610
310
40901902A4063FBFFFFFE0000000000000020400000000000020404214DD185B99185C990000000000000104090141901A00000000000004100000000000000041025764000000000000039000
340
14
340
0
340
11
340
0
 94
        0
1001
ACAD_MLEADERVER
1070
     2
  0
MLINESTYLE
  5
18
102
{ACAD_REACTORS
330
17
102
}
330
17
100
AcDbMlineStyle
  2
Standard
 70
     0
  3

 62
   256
 51
90.0
 52
90.0
 71
     2
 49
0.5
 62
   256
  6
BYLAYER
 49
-0.5
 62
   256
  6
BYLAYER
  0
ACAD_PROXY_OBJECT
  5
48
102
{ACAD_REACTORS
330
47
102
}
330
47
100
AcDbProxyObject
 90
      499
 91
      503
 93
       41
310
903313A31580
  0
ACAD_PROXY_OBJECT
  5
49
102
{ACAD_REACTORS
330
47
102
}
330
47
100
AcDbProxyObject
 90
      499
 91
      503
 93
      105
310
903313A324000000000000004000
  0
ACAD_PROXY_OBJECT
  5
4A
102
{ACAD_REACTORS
330
47
102
}
330
47
100
AcDbProxyObject
 90
      499
 91
      503
 93
      105
310
903313A344000000000000104000
  0
ACAD_PROXY_OBJECT
  5
4B
102
{ACAD_REACTORS
330
47
102
}
330
47
100
AcDbProxyObject
 90
      499
 91
      503
 93
      105
310
903313A354000000000000144000
  0
ACAD_PROXY_OBJECT
  5
4C
102
{ACAD_REACTORS
330
47
102
}
330
47
100
AcDbProxyObject
 90
      499
 91
      503
 93
      105
310
903313A384000000000000204000
  0
ACAD_PROXY_OBJECT
  5
4D
102
{ACAD_REACTORS
330
47
102
}
330
47
100
AcDbProxyObject
 90
      499
 91
      503
 93
      113
310
904313A31304000000000000244000
  0
ACAD_PROXY_OBJECT
  5
4E
102
{ACAD_REACTORS
330
47
102
}
330
47
100
AcDbProxyObject
 90
      499
 91
      503
 93
      113
310
904313A31364000000000000304000
  0
ACAD_PROXY_OBJECT
  5
4F
102
{ACAD_REACTORS
330
47
102
}
330
47
100
AcDbProxyObject
 90
      499
 91
      503
 93
      113
310
904313A32304000000000000344000
  0
ACAD_PROXY_OBJECT
  5
50
102
{ACAD_REACTORS
330
47
102
}
330
47
100
AcDbProxyObject
 90
      499
 91
      503
 93
      113
310
904313A333040000000000003E4000
  0
ACAD_PROXY_OBJECT
  5
51
102
{ACAD_REACTORS
330
47
102
}
330
47
100
AcDbProxyObject
 90
      499
 91
      503
 93
      113
310
904313A34304000000000000444000
  0
ACAD_PROXY_OBJECT
  5
52
102
{ACAD_REACTORS
330
47
102
}
330
47
100
AcDbProxyObject
 90
      499
 91
      503
 93
      113
310
904313A35304000000000000494000
  0
ACAD_PROXY_OBJECT
  5
53
102
{ACAD_REACTORS
330
47
102
}
330
47
100
AcDbProxyObject
 90
      499
 91
      503
 93
      121
310
905313A3130304000000000000594000
  0
ACAD_PROXY_OBJECT
  5
54
102
{ACAD_REACTORS
330
47
102
}
330
47
100
AcDbProxyObject
 90
      499
 91
      503
 93
      105
310
903323A310000000000000010100
  0
ACAD_PROXY_OBJECT
  5
55
102
{ACAD_REACTORS
330
47
102
}
330
47
100
AcDbProxyObject
 90
      499
 91
      503
 93
      105
310
903343A310000000000000410100
  0
ACAD_PROXY_OBJECT
  5
56
102
{ACAD_REACTORS
330
47
102
}
330
47
100
AcDbProxyObject
 90
      499
 91
      503
 93
      105
310
903383A310000000000000810100
  0
ACAD_PROXY_OBJECT
  5
57
102
{ACAD_REACTORS
330
47
102
}
330
47
100
AcDbProxyObject
 90
      499
 91
      503
 93
      113
310
90431303A310000000000000910100
  0
ACAD_PROXY_OBJECT
  5
58
102
{ACAD_REACTORS
330
47
102
}
330
47
100
AcDbProxyObject
 90
      499
 91
      503
 93
      121
310
9053130303A310000000000001650100
  0
ACAD_PROXY_OBJECT
  5
59
102
{ACAD_REACTORS
330
47
102
}
330
47
100
AcDbProxyObject
 90
      499
 91
      503
 93
      257
310
90E312F31323822203D2031272D3022000000000000200FC000000000000284000
  0
ACAD_PROXY_OBJECT
  5
5A
102
{ACAD_REACTORS
330
47
102
}
330
47
100
AcDbProxyObject
 90
      499
 91
      503
 93
      249
310
90D312F363422203D2031272D3022000000000000240FC000000000000284000
  0
ACAD_PROXY_OBJECT
  5
5B
102
{ACAD_REACTORS
330
47
102
}
330
47
100
AcDbProxyObject
 90
      499
 91
      503
 93
      249
310
90D312F333222203D2031272D3022000000000000280FC000000000000284000
  0
ACAD_PROXY_OBJECT
  5
5C
102
{ACAD_REACTORS
330
47
102
}
330
47
100
AcDbProxyObject
 90
      499
 91
      503
 93
      249
310
90D312F313622203D2031272D30220000000000002C0FC000000000000284000
  0
ACAD_PROXY_OBJECT
  5
5D
102
{ACAD_REACTORS
330
47
102
}
330
47
100
AcDbProxyObject
 90
      499
 91
      503
 93
      249
310
90D332F333222203D2031272D30220000000000002E0FC000000000000284000
  0
ACAD_PROXY_OBJECT
  5
5E
102
{ACAD_REACTORS
330
47
102
}
330
47
100
AcDbProxyObject
 90
      499
 91
      503
 93
      241
310
90C312F3822203D2031272D3022000000000000300FC000000000000284000
  0
ACAD_PROXY_OBJECT
  5
5F
102
{ACAD_REACTORS
330
47
102
}
330
47
100
AcDbProxyObject
 90
      499
 91
      503
 93
      249
310
90D332F313622203D2031272D3022000000000000320FC000000000000284000
  0
ACAD_PROXY_OBJECT
  5
60
102
{ACAD_REACTORS
330
47
102
}
330
47
100
AcDbProxyObject
 90
      499
 91
      503
 93
      241
310
90C312F3422203D2031272D3022000000000000340FC000000000000284000
  0
ACAD_PROXY_OBJECT
  5
61
102
{ACAD_REACTORS
330
47
102
}
330
47
100
AcDbProxyObject
 90
      499
 91
      503
 93
      241
310
90C332F3822203D2031272D3022000000000000360FC000000000000284000
  0
ACAD_PROXY_OBJECT
  5
62
102
{ACAD_REACTORS
330
47
102
}
330
47
100
AcDbProxyObject
 90
      499
 91
      503
 93
      241
310
90C312F3222203D2031272D3022000000000000380FC000000000000284000
  0
ACAD_PROXY_OBJECT
  5
63
102
{ACAD_REACTORS
330
47
102
}
330
47
100
AcDbProxyObject
 90
      499
 91
      503
 93
      241
310
90C332F3422203D2031272D30220000000000003A0FC000000000000284000
  0
ACAD_PROXY_OBJECT
  5
64
102
{ACAD_REACTORS
330
47
102
}
330
47
100
AcDbProxyObject
 90
      499
 91
      503
 93
      161
310
90A3122203D2031272D30224000000000000284000
  0
ACAD_PROXY_OBJECT
  5
65
102
{ACAD_REACTORS
330
47
102
}
330
47
100
AcDbProxyObject
 90
      499
 91
      503
 93
      257
310
90E312D312F3222203D2031272D30220000000000003E0FC000000000000284000
  0
ACAD_PROXY_OBJECT
  5
66
102
{ACAD_REACTORS
330
47
102
}
330
47
100
AcDbProxyObject
 90
      499
 91
      503
 93
      225
310
90A3322203D2031272D302200000000000002100000000000000284000
  0
ACAD_PROXY_OBJECT
  5
67
102
{ACAD_REACTORS
330
47
102
}
330
47
100
AcDbProxyObject
 90
      499
 91
      503
 93
      225
310
90A3622203D2031272D302200000000000006100000000000000284000
  0
ACAD_PROXY_OBJECT
  5
68
102
{ACAD_REACTORS
330
47
102
}
330
47
100
AcDbProxyObject
 90
      499
 91
      503
 93
      249
310
90D31272D3022203D2031272D30220000000000000A100000000000000284000
  0
ACAD_PROXY_OBJECT
  5
2F
102
{ACAD_REACTORS
330
2A
102
}
330
2A
100
AcDbProxyObject
 90
      499
 91
      501
 93
      436
310
42CC9915DA5C99599C985B595049028333333333333E33F0000000000000F90107901411070040501600405405064090741402480A0340
1001
ACAD
1000
AcDbSavedByObjectVersion
1070
     0
  0
ACAD_PROXY_OBJECT
  5
32
102
{ACAD_REACTORS
330
2A
102
}
330
2A
100
AcDbProxyObject
 90
      499
 91
      501
 93
      388
310
4150985CDA58D07406404333333333333E33F0000000000000F90107A41107004050150841D405064090741402480A0350
1001
ACAD
1000
AcDbSavedByObjectVersion
1070
     0
  0
ACAD_PROXY_OBJECT
  5
36
102
{ACAD_REACTORS
330
2A
102
}
330
2A
100
AcDbProxyObject
 90
      499
 91
      501
 93
      428
310
42109C9A59DA1D195B90C409028333333333333E33F0000000000000F9010790141107004050150841D405064090741402480A029950
1001
ACAD
1000
AcDbSavedByObjectVersion
1070
     0
  0
ACAD_PROXY_OBJECT
  5
3A
102
{ACAD_REACTORS
330
2A
102
}
330
2A
100
AcDbProxyObject
 90
      499
 91
      501
 93
      452
310
42D0DBDB1BDC90DA185B99D95104090240C333333333333E33F0000000000000F90108901411070040501508421405064090741402480A0350
1001
ACAD
1000
AcDbSavedByObjectVersion
1070
     0
  0
ACAD_PROXY_OBJECT
  5
34
102
{ACAD_REACTORS
330
2A
102
}
330
2A
100
AcDbProxyObject
 90
      499
 91
      501
 93
      500
310
4290DBDB98D95C1D1D585B10940D028333333333333E33F0000000000000F90107902409070040501000000000018199010841D405064090740C02480A0340
1001
ACAD
1000
AcDbSavedByObjectVersion
1070
     0
  0
ACAD_PROXY_OBJECT
  5
35
102
{ACAD_REACTORS
330
2A
102
}
330
2A
100
AcDbProxyObject
 90
      499
 91
      501
 93
      412
310
40D11A5B50B409028333333333333E33F0000000000000F9010790141107004050150841D405064090741402480A02677FFFFFD0
1001
ACAD
1000
AcDbSavedByObjectVersion
1070
     0
  0
ACAD_PROXY_OBJECT
  5
3D
102
{ACAD_REACTORS
330
2A
102
}
330
2A
100
AcDbProxyObject
 90
      499
 91
      501
 93
      452
310
43115919D950DBDB1BDC93D999916409028333333333333E33F0000000000000F9010790141107004050150841D405064090741402480A0350
1001
ACAD
1000
AcDbSavedByObjectVersion
1070
     0
  0
ACAD_PROXY_OBJECT
  5
39
102
{ACAD_REACTORS
330
2A
102
}
330
2A
100
AcDbProxyObject
 90
      499
 91
      501
 93
      444
310
42D19858D95C185D1D195C9B90F409028333333333333E33F0000000000000F9010790141107004050150841D405064090741402480A0350
1001
ACAD
1000
AcDbSavedByObjectVersion
1070
     0
  0
ACAD_PROXY_OBJECT
  5
2B
102
{ACAD_REACTORS
330
2A
102
}
330
2A
100
AcDbProxyObject
 90
      499
 91
      501
 93
      380
310
41119B185D240901404333333333333E33F0000000000000F9010740A907004050150841D405064090741402480A1B50
1001
ACAD
1000
AcDbSavedByObjectVersion
1070
     0
  0
ACAD_PROXY_OBJECT
  5
2C
102
{ACAD_REACTORS
330
2A
102
}
330
2A
100
AcDbProxyObject
 90
      499
 91
      501
 93
      468
310
43519B185D15DA5D1A115919D95CD0140901404333333333333E33F0000000000000F90107409019070040501600405405064090741402480A1B50
1001
ACAD
1000
AcDbSavedByObjectVersion
1070
     0
  0
ACAD_PROXY_OBJECT
  5
2D
102
{ACAD_REACTORS
330
2A
102
}
330
2A
100
AcDbProxyObject
 90
      499
 91
      501
 93
      404
310
41D1DBDD5C985D5910240902404333333333333E33F0000000000000F9010740A9070040501641D405064090741402480A1B50
1001
ACAD
1000
AcDbSavedByObjectVersion
1070
     0
  0
ACAD_PROXY_OBJECT
  5
2E
102
{ACAD_REACTORS
330
2A
102
}
330
2A
100
AcDbProxyObject
 90
      499
 91
      501
 93
      492
310
4411DBDD5C985D5915DA5D1A115919D95CD0340902404333333333333E33F0000000000000F90107409019070040501600405405064090741402480A1B50
1001
ACAD
1000
AcDbSavedByObjectVersion
1070
     0
  0
ACAD_PROXY_OBJECT
  5
31
102
{ACAD_REACTORS
330
2A
102
}
330
2A
100
AcDbProxyObject
 90
      499
 91
      501
 93
      476
310
41921A5919195B90640502408333333333333E33F0000000000000F901079024090700405020000000000001110200405405064090740C02480A0340
1001
ACAD
1000
AcDbSavedByObjectVersion
1070
     0
  0
ACAD_PROXY_OBJECT
  5
3B
102
{ACAD_REACTORS
330
2A
102
}
330
2A
100
AcDbProxyObject
 90
      499
 91
      501
 93
      428
310
42529A5D1D195C93D999914409028333333333333E33F0000000000000F9010790141107004050150A41D405064090741402480A0350
1001
ACAD
1000
AcDbSavedByObjectVersion
1070
     0
  0
ACAD_PROXY_OBJECT
  5
38
102
{ACAD_REACTORS
330
2A
102
}
330
2A
100
AcDbProxyObject
 90
      499
 91
      501
 93
      444
310
42D31A5B995C185D1D195C9B90E409028333333333333E33F0000000000000F9010790141107004050750841D405064090741402483A0350
1001
ACAD
1000
AcDbSavedByObjectVersion
1070
     0
  0
ACAD_PROXY_OBJECT
  5
3C
102
{ACAD_REACTORS
330
2A
102
}
330
2A
100
AcDbProxyObject
 90
      499
 91
      501
 93
      444
310
42D3DD995C9A185B99D3D999915409028333333333333E33F0000000000000F9010790141107004050150941D405064090741402480A0350
1001
ACAD
1000
AcDbSavedByObjectVersion
1070
     0
  0
ACAD_PROXY_OBJECT
  5
33
102
{ACAD_REACTORS
330
2A
102
}
330
2A
100
AcDbProxyObject
 90
      499
 91
      501
 93
      428
310
425499585B1A5CDD1A58D08409038333333333333E33F0000000000000F9010740A907004050150800405405064090740C02480A1B40
1001
ACAD
1000
AcDbSavedByObjectVersion
1070
     0
  0
ACAD_PROXY_OBJECT
  5
42
102
{ACAD_REACTORS
330
2A
102
}
330
2A
100
AcDbProxyObject
 90
      499
 91
      501
 93
      420
310
4194DA1859195911B40902404333333333333E33F0000000000000F9010740A41107004050150800405405064090840C02480A0B40
1001
ACAD
1000
AcDbSavedByObjectVersion
1070
     0
  0
ACAD_PROXY_OBJECT
  5
41
102
{ACAD_REACTORS
330
2A
102
}
330
2A
100
AcDbProxyObject
 90
      499
 91
      501
 93
      516
310
4454DA18591959081DDA5D1A08195919D95CD1A40902404333333333333E33F0000000000000F901074090142907004050250800405405064090740C02480A0B40
1001
ACAD
1000
AcDbSavedByObjectVersion
1070
     0
  0
ACAD_PROXY_OBJECT
  5
3E
102
{ACAD_REACTORS
330
2A
102
}
330
2A
100
AcDbProxyObject
 90
      499
 91
      501
 93
      532
310
4394DA1859195CC81BD98811DC985E5174090240C333333333333E33F0000000000000F901079024090741D01000000000000111010841D405064090740C02480A0340
1001
ACAD
1000
AcDbSavedByObjectVersion
1070
     0
  0
ACAD_PROXY_OBJECT
  5
3F
102
{ACAD_REACTORS
330
2A
102
}
330
2A
100
AcDbProxyObject
 90
      499
 91
      501
 93
      476
310
41D4DAD95D18DA1E51840502408333333333333E33F0000000000000F901079024090741D01000000000000111010B41D405064090741802480A0340
1001
ACAD
1000
AcDbSavedByObjectVersion
1070
     0
  0
ACAD_PROXY_OBJECT
  5
37
102
{ACAD_REACTORS
330
2A
102
}
330
2A
100
AcDbProxyObject
 90
      499
 91
      501
 93
      412
310
41D51A1A58DAD95B90D409028333333333333E33F0000000000000F9010790141107004050150C41D405064090741402480A0350
1001
ACAD
1000
AcDbSavedByObjectVersion
1070
     0
  0
ACAD_PROXY_OBJECT
  5
30
102
{ACAD_REACTORS
330
2A
102
}
330
2A
100
AcDbProxyObject
 90
      499
 91
      501
 93
      420
310
4255DA5C99599C985B595059028333333333333E33F0000000000000F90107901411070040501600405405064090740C02480A0340
1001
ACAD
1000
AcDbSavedByObjectVersion
1070
     0
  0
ACAD_PROXY_OBJECT
  5
40
102
{ACAD_REACTORS
330
2A
102
}
330
2A
100
AcDbProxyObject
 90
      499
 91
      501
 93
      404
310
41560B54985E51940902404000000000000E03F0000000000000F9010740501907004050150841D405064090740C02480A1B40
1001
ACAD
1000
AcDbSavedByObjectVersion
1070
     0
  0
XRECORD
  5
3DF
102
{ACAD_REACTORS
330
3D5
102
}
330
3D5
100
AcDbXrecord
340
0
  0
XRECORD
  5
3DE
102
{ACAD_REACTORS
330
3D5
102
}
330
3D5
100
AcDbXrecord
 90
        0
  0
XRECORD
  5
3F5
102
{ACAD_REACTORS
330
3D5
102
}
330
3D5
100
AcDbXrecord
1000
DSTYLE
1002
{
1070
   340
340
11
1002
}
  0
XRECORD
  5
3E0
102
{ACAD_REACTORS
330
3D5
102
}
330
3D5
100
AcDbXrecord
  1
{81db995c-fb21-43c7-ab65-e081a9b1dff6}
  0
XRECORD
  5
3D8
102
{ACAD_REACTORS
330
3D5
102
}
330
3D5
100
AcDbXrecord
  1

  0
XRECORD
  5
3DD
102
{ACAD_REACTORS
330
3D5
102
}
330
3D5
100
AcDbXrecord
 90
        4
  0
XRECORD
  5
3DA
102
{ACAD_REACTORS
330
3D5
102
}
330
3D5
100
AcDbXrecord
340
1A
  0
XRECORD
  5
3DC
102
{ACAD_REACTORS
330
3D5
102
}
330
3D5
100
AcDbXrecord
 90
    10781
  0
XRECORD
  5
3DB
102
{ACAD_REACTORS
330
3D5
102
}
330
3D5
100
AcDbXrecord
340
19
  0
XRECORD
  5
3E2
102
{ACAD_REACTORS
330
3D5
102
}
330
3D5
100
AcDbXrecord
 40
0.0
  0
XRECORD
  5
3E5
102
{ACAD_REACTORS
330
3D5
102
}
330
3D5
100
AcDbXrecord
340
0
  0
XRECORD
  5
3EB
102
{ACAD_REACTORS
330
3D5
102
}
330
3D5
100
AcDbXrecord
 10
0.0
 20
0.0
 30
0.0
  0
XRECORD
  5
3E7
102
{ACAD_REACTORS
330
3D5
102
}
330
3D5
100
AcDbXrecord
 10
0.0
 20
0.0
 30
0.0
  0
XRECORD
  5
3EA
102
{ACAD_REACTORS
330
3D5
102
}
330
3D5
100
AcDbXrecord
 10
0.0
 20
0.0
 30
0.0
  0
XRECORD
  5
3E8
102
{ACAD_REACTORS
330
3D5
102
}
330
3D5
100
AcDbXrecord
 10
0.0
 20
0.0
 30
0.0
  0
XRECORD
  5
3E9
102
{ACAD_REACTORS
330
3D5
102
}
330
3D5
100
AcDbXrecord
 10
0.0
 20
0.0
 30
0.0
  0
XRECORD
  5
3E6
102
{ACAD_REACTORS
330
3D5
102
}
330
3D5
100
AcDbXrecord
 10
0.0
 20
0.0
 30
0.0
  0
XRECORD
  5
3E3
102
{ACAD_REACTORS
330
3D5
102
}
330
3D5
100
AcDbXrecord
340
0
  0
XRECORD
  5
3E4
102
{ACAD_REACTORS
330
3D5
102
}
330
3D5
100
AcDbXrecord
 70
     0
  0
XRECORD
  5
3D9
102
{ACAD_REACTORS
330
3D5
102
}
330
3D5
100
AcDbXrecord
  1

  0
XRECORD
  5
3D6
102
{ACAD_REACTORS
330
3D5
102
}
330
3D5
100
AcDbXrecord
 90
        1
  0
XRECORD
  5
3D7
102
{ACAD_REACTORS
330
3D5
102
}
330
3D5
100
AcDbXrecord
 90
       70
  0
XRECORD
  5
3EE
102
{ACAD_REACTORS
330
3D5
102
}
330
3D5
100
AcDbXrecord
340
0
  0
XRECORD
  5
3F4
102
{ACAD_REACTORS
330
3D5
102
}
330
3D5
100
AcDbXrecord
 10
0.0
 20
0.0
 30
0.0
  0
XRECORD
  5
3F0
102
{ACAD_REACTORS
330
3D5
102
}
330
3D5
100
AcDbXrecord
 10
0.0
 20
0.0
 30
0.0
  0
XRECORD
  5
3F3
102
{ACAD_REACTORS
330
3D5
102
}
330
3D5
100
AcDbXrecord
 10
0.0
 20
0.0
 30
0.0
  0
XRECORD
  5
3F1
102
{ACAD_REACTORS
330
3D5
102
}
330
3D5
100
AcDbXrecord
 10
0.0
 20
0.0
 30
0.0
  0
XRECORD
  5
3F2
102
{ACAD_REACTORS
330
3D5
102
}
330
3D5
100
AcDbXrecord
 10
0.0
 20
0.0
 30
0.0
  0
XRECORD
  5
3EF
102
{ACAD_REACTORS
330
3D5
102
}
330
3D5
100
AcDbXrecord
 10
0.0
 20
0.0
 30
0.0
  0
XRECORD
  5
3EC
102
{ACAD_REACTORS
330
3D5
102
}
330
3D5
100
AcDbXrecord
340
0
  0
XRECORD
  5
3ED
102
{ACAD_REACTORS
330
3D5
102
}
330
3D5
100
AcDbXrecord
 70
     0
  0
XRECORD
  5
3E1
102
{ACAD_REACTORS
330
3D5
102
}
330
3D5
100
AcDbXrecord
  1
{FAEB1C32-E019-11D5-929B-00C0DF256EC4}
  0
DICTIONARYVAR
  5
403
102
{ACAD_REACTORS
330
3F6
102
}
330
3F6
100
DictionaryVariables
280
     0
  1
1:1
  0
DICTIONARYVAR
  5
3FD
102
{ACAD_REACTORS
330
3F6
102
}
330
3F6
100
DictionaryVariables
280
     0
  1
3.500000
  0
DICTIONARYVAR
  5
3FE
102
{ACAD_REACTORS
330
3F6
102
}
330
3F6
100
DictionaryVariables
280
     0
  1
acadiso.lin
  0
DICTIONARYVAR
  5
3F8
102
{ACAD_REACTORS
330
3F6
102
}
330
3F6
100
DictionaryVariables
280
     0
  1
Standard
  0
DICTIONARYVAR
  5
3F7
102
{ACAD_REACTORS
330
3F6
102
}
330
3F6
100
DictionaryVariables
280
     0
  1
Standard
  0
DICTIONARYVAR
  5
3FF
102
{ACAD_REACTORS
330
3F6
102
}
330
3F6
100
DictionaryVariables
280
     0
  1
2
  0
DICTIONARYVAR
  5
400
102
{ACAD_REACTORS
330
3F6
102
}
330
3F6
100
DictionaryVariables
280
     0
  1
1
  0
DICTIONARYVAR
  5
404
102
{ACAD_REACTORS
330
3F6
102
}
330
3F6
100
DictionaryVariables
280
     0
  1
1
  0
DICTIONARYVAR
  5
3FA
102
{ACAD_REACTORS
330
3F6
102
}
330
3F6
100
DictionaryVariables
280
     0
  1
80.000000
  0
DICTIONARYVAR
  5
3F9
102
{ACAD_REACTORS
330
3F6
102
}
330
3F6
100
DictionaryVariables
280
     0
  1
5.000000
  0
DICTIONARY
  5
407
330
45
100
AcDbDictionary
280
     1
  3
ACAD_XREC_ROUNDTRIP
360
408
  0
DICTIONARY
  5
405
330
44
100
AcDbDictionary
280
     1
  3
ACAD_XREC_ROUNDTRIP
360
406
  0
DICTIONARY
  5
409
330
46
100
AcDbDictionary
280
     1
  3
ACAD_XREC_ROUNDTRIP
360
40A
  0
XRECORD
  5
408
102
{ACAD_REACTORS
330
407
102
}
330
407
100
AcDbXrecord
102
MATERIAL
148
0.0
149
0.0
149
0.0
 93
        0
 94
      127
282
     0
 72
     1
 77
     1
171
     1
175
     1
179
     1
273
     0
  0
XRECORD
  5
406
102
{ACAD_REACTORS
330
405
102
}
330
405
100
AcDbXrecord
102
MATERIAL
148
0.0
149
0.0
149
0.0
 93
        0
 94
      127
282
     0
 72
     1
 77
     1
171
     1
175
     1
179
     1
273
     0
  0
XRECORD
  5
40A
102
{ACAD_REACTORS
330
409
102
}
330
409
100
AcDbXrecord
102
MATERIAL
148
0.0
149
0.0
149
0.0
 93
        0
 94
      127
282
     0
 72
     1
 77
     1
171
     1
175
     1
179
     1
273
     0
  0
ENDSEC
  0
EOF
