  0
SECTION
  2
HEADER
  9
$ACADVER
  1
AC1014
  9
$ACADMAINTVER
 70
     9
  9
$DWGCODEPAGE
  3
ANSI_932
  9
$INSBASE
 10
0.0
 20
0.0
 30
0.0
  9
$EXTMIN
 10
15.0
 20
30.0
 30
0.0
  9
$EXTMAX
 10
1155.0
 20
840.0
 30
0.0
  9
$LIMMIN
 10
0.0
 20
0.0
  9
$LIMMAX
 10
420.0
 20
297.0
  9
$ORTHOMODE
 70
     0
  9
$REGENMODE
 70
     1
  9
$FILLMODE
 70
     1
  9
$QTEXTMODE
 70
     0
  9
$MIRRTEXT
 70
     1
  9
$DRAGMODE
 70
     2
  9
$LTSCALE
 40
0.2
  9
$OSMODE
 70
    37
  9
$ATTMODE
 70
     1
  9
$TEXTSIZE
 40
2.5
  9
$TRACEWID
 40
1.0
  9
$TEXTSTYLE
  7
STANDARD
  9
$CLAYER
  8
LAY-10
  9
$CELTYPE
  6
BYLAYER
  9
$CECOLOR
 62
   256
  9
$CELTSCALE
 40
1.0
  9
$DELOBJ
 70
     1
  9
$DISPSILH
 70
     0
  9
$DIMSCALE
 40
1.0
  9
$DIMASZ
 40
2.5
  9
$DIMEXO
 40
0.625
  9
$DIMDLI
 40
3.75
  9
$DIMRND
 40
0.0
  9
$DIMDLE
 40
0.0
  9
$DIMEXE
 40
1.25
  9
$DIMTP
 40
0.0
  9
$DIMTM
 40
0.0
  9
$DIMTXT
 40
2.5
  9
$DIMCEN
 40
2.5
  9
$DIMTSZ
 40
0.0
  9
$DIMTOL
 70
     0
  9
$DIMLIM
 70
     0
  9
$DIMTIH
 70
     0
  9
$DIMTOH
 70
     0
  9
$DIMSE1
 70
     0
  9
$DIMSE2
 70
     0
  9
$DIMTAD
 70
     1
  9
$DIMZIN
 70
     8
  9
$DIMBLK
  1

  9
$DIMASO
 70
     1
  9
$DIMSHO
 70
     1
  9
$DIMPOST
  1

  9
$DIMAPOST
  1

  9
$DIMALT
 70
     0
  9
$DIMALTD
 70
     3
  9
$DIMALTF
 40
0.03937007874016
  9
$DIMLFAC
 40
1.0
  9
$DIMTOFL
 70
     1
  9
$DIMTVP
 40
0.0
  9
$DIMTIX
 70
     0
  9
$DIMSOXD
 70
     0
  9
$DIMSAH
 70
     0
  9
$DIMBLK1
  1

  9
$DIMBLK2
  1

  9
$DIMSTYLE
  2
ISO-25
  9
$DIMCLRD
 70
     0
  9
$DIMCLRE
 70
     0
  9
$DIMCLRT
 70
     0
  9
$DIMTFAC
 40
1.0
  9
$DIMGAP
 40
0.625
  9
$DIMJUST
 70
     0
  9
$DIMSD1
 70
     0
  9
$DIMSD2
 70
     0
  9
$DIMTOLJ
 70
     0
  9
$DIMTZIN
 70
     8
  9
$DIMALTZ
 70
     0
  9
$DIMALTTZ
 70
     0
  9
$DIMFIT
 70
     3
  9
$DIMUPT
 70
     0
  9
$DIMUNIT
 70
     2
  9
$DIMDEC
 70
     2
  9
$DIMTDEC
 70
     2
  9
$DIMALTU
 70
     2
  9
$DIMALTTD
 70
     3
  9
$DIMTXSTY
  7
STANDARD
  9
$DIMAUNIT
 70
     0
  9
$LUNITS
 70
     2
  9
$LUPREC
 70
     4
  9
$SKETCHINC
 40
1.0
  9
$FILLETRAD
 40
10.0
  9
$AUNITS
 70
     0
  9
$AUPREC
 70
     0
  9
$MENU
  1
.
  9
$ELEVATION
 40
0.0
  9
$PELEVATION
 40
0.0
  9
$THICKNESS
 40
0.0
  9
$LIMCHECK
 70
     0
  9
$CHAMFERA
 40
0.0
  9
$CHAMFERB
 40
0.0
  9
$CHAMFERC
 40
0.0
  9
$CHAMFERD
 40
0.0
  9
$SKPOLY
 70
     0
  9
$TDCREATE
 40
2459229.337165069
  9
$TDUPDATE
 40
2459229.337165602
  9
$TDINDWG
 40
0.0000000116
  9
$TDUSRTIMER
 40
0.0000000116
  9
$USRTIMER
 70
     1
  9
$ANGBASE
 50
0.0
  9
$ANGDIR
 70
     0
  9
$PDMODE
 70
     0
  9
$PDSIZE
 40
0.0
  9
$PLINEWID
 40
0.0
  9
$COORDS
 70
     1
  9
$SPLFRAME
 70
     0
  9
$SPLINETYPE
 70
     6
  9
$SPLINESEGS
 70
     8
  9
$ATTDIA
 70
     0
  9
$ATTREQ
 70
     1
  9
$HANDLING
 70
     1
  9
$HANDSEED
  5
482
  9
$SURFTAB1
 70
     6
  9
$SURFTAB2
 70
     6
  9
$SURFTYPE
 70
     6
  9
$SURFU
 70
     6
  9
$SURFV
 70
     6
  9
$UCSNAME
  2

  9
$UCSORG
 10
0.0
 20
0.0
 30
0.0
  9
$UCSXDIR
 10
1.0
 20
0.0
 30
0.0
  9
$UCSYDIR
 10
0.0
 20
1.0
 30
0.0
  9
$PUCSNAME
  2

  9
$PUCSORG
 10
0.0
 20
0.0
 30
0.0
  9
$PUCSXDIR
 10
1.0
 20
0.0
 30
0.0
  9
$PUCSYDIR
 10
0.0
 20
1.0
 30
0.0
  9
$USERI1
 70
     0
  9
$USERI2
 70
     0
  9
$USERI3
 70
     0
  9
$USERI4
 70
     0
  9
$USERI5
 70
     0
  9
$USERR1
 40
0.0
  9
$USERR2
 40
0.0
  9
$USERR3
 40
0.0
  9
$USERR4
 40
0.0
  9
$USERR5
 40
0.0
  9
$WORLDVIEW
 70
     1
  9
$SHADEDGE
 70
     3
  9
$SHADEDIF
 70
    70
  9
$TILEMODE
 70
     1
  9
$MAXACTVP
 70
    64
  9
$PINSBASE
 10
0.0
 20
0.0
 30
0.0
  9
$PLIMCHECK
 70
     0
  9
$PEXTMIN
 10
1.000000000000000E+20
 20
1.000000000000000E+20
 30
1.000000000000000E+20
  9
$PEXTMAX
 10
-1.000000000000000E+20
 20
-1.000000000000000E+20
 30
-1.000000000000000E+20
  9
$PLIMMIN
 10
0.0
 20
0.0
  9
$PLIMMAX
 10
420.0
 20
297.0
  9
$UNITMODE
 70
     0
  9
$VISRETAIN
 70
     1
  9
$PLINEGEN
 70
     0
  9
$PSLTSCALE
 70
     1
  9
$TREEDEPTH
 70
  3020
  9
$PICKSTYLE
 70
     1
  9
$CMLSTYLE
  2
STANDARD
  9
$CMLJUST
 70
     0
  9
$CMLSCALE
 40
20.0
  9
$PROXYGRAPHICS
 70
     1
  9
$MEASUREMENT
 70
     1
  0
ENDSEC
  0
SECTION
  2
CLASSES
  0
CLASS
  1
ACDBDICTIONARYWDFLT
  2
AcDbDictionaryWithDefault
  3
ObjectDBX Classes
 90
        0
280
     0
281
     0
  0
CLASS
  1
VISUALSTYLE
  2
AcDbVisualStyle
  3
ObjectDBX Classes
 90
     4095
280
     0
281
     0
  0
CLASS
  1
MATERIAL
  2
AcDbMaterial
  3
ObjectDBX Classes
 90
     1153
280
     0
281
     0
  0
CLASS
  1
SCALE
  2
AcDbScale
  3
ObjectDBX Classes
 90
     1153
280
     0
281
     0
  0
CLASS
  1
TABLESTYLE
  2
AcDbTableStyle
  3
ObjectDBX Classes
 90
     4095
280
     0
281
     0
  0
CLASS
  1
MLEADERSTYLE
  2
AcDbMLeaderStyle
  3
ACDB_MLEADERSTYLE_CLASS
 90
     4095
280
     0
281
     0
  0
CLASS
  1
SUN
  2
AcDbSun
  3
SCENEOE
 90
     1153
280
     0
281
     0
  0
CLASS
  1
DICTIONARYVAR
  2
AcDbDictionaryVar
  3
ObjectDBX Classes
 90
        0
280
     0
281
     0
  0
CLASS
  1
XRECORD
  2
AcDbXrecord
  3
ObjectDBX Classes
 90
        0
280
     0
281
     0
  0
CLASS
  1
LWPOLYLINE
  2
AcDbPolyline
  3
ObjectDBX Classes
 90
        0
280
     0
281
     1
  0
CLASS
  1
HATCH
  2
AcDbHatch
  3
ObjectDBX Classes
 90
        0
280
     0
281
     1
  0
CLASS
  1
ACDBPLACEHOLDER
  2
AcDbPlaceHolder
  3
ObjectDBX Classes
 90
        0
280
     0
281
     0
  0
CLASS
  1
LAYOUT
  2
AcDbLayout
  3
ObjectDBX Classes
 90
        0
280
     0
281
     0
  0
ENDSEC
  0
SECTION
  2
TABLES
  0
TABLE
  2
VPORT
  5
8
102
{ACAD_XDICTIONARY
360
477
102
}
330
0
100
AcDbSymbolTable
 70
     1
  0
VPORT
  5
29
330
8
100
AcDbSymbolTableRecord
100
AcDbViewportTableRecord
  2
*ACTIVE
 70
     0
 10
0.0
 20
0.0
 11
1.0
 21
1.0
 12
585.0000000000001
 22
435.0
 13
0.0
 23
0.0
 14
10.0
 24
10.0
 15
10.0
 25
10.0
 16
0.0
 26
0.0
 36
1.0
 17
0.0
 27
0.0
 37
0.0
 40
810.0
 41
1.407407407407408
 42
50.0
 43
0.0
 44
0.0
 50
0.0
 51
0.0
 71
     0
 72
  1000
 73
     1
 74
     3
 75
     0
 76
     0
 77
     0
 78
     0
  0
ENDTAB
  0
TABLE
  2
LTYPE
  5
5
330
0
100
AcDbSymbolTable
 70
     6
  0
LTYPE
  5
14
330
5
100
AcDbSymbolTableRecord
100
AcDbLinetypeTableRecord
  2
BYBLOCK
 70
     0
  3

 72
    65
 73
     0
 40
0.0
  0
LTYPE
  5
15
330
5
100
AcDbSymbolTableRecord
100
AcDbLinetypeTableRecord
  2
BYLAYER
 70
     0
  3

 72
    65
 73
     0
 40
0.0
  0
LTYPE
  5
16
330
5
100
AcDbSymbolTableRecord
100
AcDbLinetypeTableRecord
  2
CONTINUOUS
 70
     0
  3
Solid line
 72
    65
 73
     0
 40
0.0
  0
LTYPE
  5
6E
330
5
100
AcDbSymbolTableRecord
100
AcDbLinetypeTableRecord
  2
HIDDEN
 70
     0
  3
Hidden __ __ __ __ __ __ __ __ __ __ __ __ __ __
 72
    65
 73
     2
 40
9.524999999999999
 49
6.35
 74
     0
 49
-3.175
 74
     0
  0
LTYPE
  5
6F
330
5
100
AcDbSymbolTableRecord
100
AcDbLinetypeTableRecord
  2
CENTER
 70
     0
  3
Center ____ _ ____ _ ____ _ ____ _ ____ _ ____
 72
    65
 73
     4
 40
50.8
 49
31.75
 74
     0
 49
-6.35
 74
     0
 49
6.35
 74
     0
 49
-6.35
 74
     0
  0
LTYPE
  5
70
330
5
100
AcDbSymbolTableRecord
100
AcDbLinetypeTableRecord
  2
PHANTOM
 70
     0
  3
Phantom ______  __  __  ______  __  __  ______ 
 72
    65
 73
     6
 40
63.50000000000001
 49
31.75
 74
     0
 49
-6.35
 74
     0
 49
6.35
 74
     0
 49
-6.35
 74
     0
 49
6.35
 74
     0
 49
-6.35
 74
     0
  0
LTYPE
  5
71
330
5
100
AcDbSymbolTableRecord
100
AcDbLinetypeTableRecord
  2
ACAD_ISO06W100
 70
     0
  3
ISO long-dash triple-dot ____ ... ____ ... ____
 72
    65
 73
     8
 40
36.0
 49
24.0
 74
     0
 49
-3.0
 74
     0
 49
0.0
 74
     0
 49
-3.0
 74
     0
 49
0.0
 74
     0
 49
-3.0
 74
     0
 49
0.0
 74
     0
 49
-3.0
 74
     0
  0
LTYPE
  5
72
330
5
100
AcDbSymbolTableRecord
100
AcDbLinetypeTableRecord
  2
ACAD_ISO15W100
 70
     0
  3
ISO double-dash triple-dot __ __ . . . __ __ . .
 72
    65
 73
    10
 40
39.0
 49
12.0
 74
     0
 49
-3.0
 74
     0
 49
12.0
 74
     0
 49
-3.0
 74
     0
 49
0.0
 74
     0
 49
-3.0
 74
     0
 49
0.0
 74
     0
 49
-3.0
 74
     0
 49
0.0
 74
     0
 49
-3.0
 74
     0
  0
ENDTAB
  0
TABLE
  2
LAYER
  5
2
330
0
100
AcDbSymbolTable
 70
     5
  0
LAYER
  5
10
330
2
100
AcDbSymbolTableRecord
100
AcDbLayerTableRecord
  2
0
 70
     0
 62
     7
  6
CONTINUOUS
  0
LAYER
  5
75
330
2
100
AcDbSymbolTableRecord
100
AcDbLayerTableRecord
  2
LAY-10
 70
     0
 62
     7
  6
CONTINUOUS
  0
LAYER
  5
76
330
2
100
AcDbSymbolTableRecord
100
AcDbLayerTableRecord
  2
LAY-20
 70
     0
 62
     7
  6
CONTINUOUS
  0
LAYER
  5
77
330
2
100
AcDbSymbolTableRecord
100
AcDbLayerTableRecord
  2
LAY-255
 70
     0
 62
     7
  6
CONTINUOUS
  0
LAYER
  5
3BB
330
2
100
AcDbSymbolTableRecord
100
AcDbLayerTableRecord
  2
DEFPOINTS
 70
     0
 62
     7
  6
CONTINUOUS
  0
ENDTAB
  0
TABLE
  2
STYLE
  5
3
330
0
100
AcDbSymbolTable
 70
     4
  0
STYLE
  5
11
330
3
100
AcDbSymbolTableRecord
100
AcDbTextStyleTableRecord
  2
STANDARD
 70
     0
 40
0.0
 41
1.0
 50
0.0
 71
     0
 42
2.5
  3
simplex
  4
bigfont
  0
STYLE
  5
73
330
3
100
AcDbSymbolTableRecord
100
AcDbTextStyleTableRecord
  2
EXCADSTD
 70
     0
 40
0.0
 41
1.0
 50
0.0
 71
     0
 42
2.5
  3
simplex
  4
bigfont
  0
STYLE
  5
74
330
3
100
AcDbSymbolTableRecord
100
AcDbTextStyleTableRecord
  2
EXCADVERT
 70
     4
 40
0.0
 41
1.0
 50
0.0
 71
     0
 42
2.5
  3
simplex
  4
bigfont
  0
STYLE
  5
3B9
330
3
100
AcDbSymbolTableRecord
100
AcDbTextStyleTableRecord
  2
EXCADDIM1
 70
     0
 40
0.0
 41
0.84
 50
0.0
 71
     0
 42
2.5
  3
simplex
  4
bigfont
  0
ENDTAB
  0
TABLE
  2
VIEW
  5
6
330
0
100
AcDbSymbolTable
 70
     0
  0
ENDTAB
  0
TABLE
  2
UCS
  5
7
330
0
100
AcDbSymbolTable
 70
     0
  0
ENDTAB
  0
TABLE
  2
APPID
  5
9
330
0
100
AcDbSymbolTable
 70
     2
  0
APPID
  5
12
330
9
100
AcDbSymbolTableRecord
100
AcDbRegAppTableRecord
  2
ACAD
 70
     0
  0
APPID
  5
481
330
9
100
AcDbSymbolTableRecord
100
AcDbRegAppTableRecord
  2
ACAD_MLEADERVER
 70
     0
  0
ENDTAB
  0
TABLE
  2
DIMSTYLE
  5
A
330
0
100
AcDbSymbolTable
 70
     1
  0
DIMSTYLE
105
27
102
{ACAD_REACTORS
330
3BA
330
3C8
330
3D5
330
3E2
330
3EF
330
3FC
330
409
330
415
102
}
330
A
100
AcDbSymbolTableRecord
100
AcDbDimStyleTableRecord
  2
ISO-25
 70
     0
  3

  4

  5

  6

  7

 40
1.0
 41
2.5
 42
0.625
 43
3.75
 44
1.25
 45
0.0
 46
0.0
 47
0.0
 48
0.0
140
2.5
141
2.5
142
0.0
143
0.03937007874016
144
1.0
145
0.0
146
1.0
147
0.625
 71
     0
 72
     0
 73
     0
 74
     0
 75
     0
 76
     0
 77
     1
 78
     8
170
     0
171
     3
172
     1
173
     0
174
     0
175
     0
176
     0
177
     0
178
     0
270
     2
271
     2
272
     2
273
     2
274
     3
340
11
275
     0
280
     0
281
     0
282
     0
283
     0
284
     8
285
     0
286
     0
287
     5
288
     0
  0
ENDTAB
  0
TABLE
  2
BLOCK_RECORD
  5
1
330
0
100
AcDbSymbolTable
 70
    22
  0
BLOCK_RECORD
  5
1F
330
1
100
AcDbSymbolTableRecord
100
AcDbBlockTableRecord
  2
*MODEL_SPACE
  0
BLOCK_RECORD
  5
1B
330
1
100
AcDbSymbolTableRecord
100
AcDbBlockTableRecord
  2
*PAPER_SPACE
  0
BLOCK_RECORD
  5
78
330
1
100
AcDbSymbolTableRecord
100
AcDbBlockTableRecord
  2
EX_NORM
  0
BLOCK_RECORD
  5
7B
330
1
100
AcDbSymbolTableRecord
100
AcDbBlockTableRecord
  2
EX_BNORM
  0
BLOCK_RECORD
  5
7E
330
1
100
AcDbSymbolTableRecord
100
AcDbBlockTableRecord
  2
EX_BCIR
  0
BLOCK_RECORD
  5
81
330
1
100
AcDbSymbolTableRecord
100
AcDbBlockTableRecord
  2
EX_RCIVIL
  0
BLOCK_RECORD
  5
84
330
1
100
AcDbSymbolTableRecord
100
AcDbBlockTableRecord
  2
EX_SLANT
  0
BLOCK_RECORD
  5
87
330
1
100
AcDbSymbolTableRecord
100
AcDbBlockTableRecord
  2
EX_NONE
  0
BLOCK_RECORD
  5
8A
330
1
100
AcDbSymbolTableRecord
100
AcDbBlockTableRecord
  2
EX_CIVIL
  0
BLOCK_RECORD
  5
8D
330
1
100
AcDbSymbolTableRecord
100
AcDbBlockTableRecord
  2
EX_WCIR
  0
BLOCK_RECORD
  5
90
330
1
100
AcDbSymbolTableRecord
100
AcDbBlockTableRecord
  2
EX_WCIR2
  0
BLOCK_RECORD
  5
93
330
1
100
AcDbSymbolTableRecord
100
AcDbBlockTableRecord
  2
EX_WNORM
  0
BLOCK_RECORD
  5
96
330
1
100
AcDbSymbolTableRecord
100
AcDbBlockTableRecord
  2
EX_NNORM
  0
BLOCK_RECORD
  5
99
330
1
100
AcDbSymbolTableRecord
100
AcDbBlockTableRecord
  2
EX_BBOX
  0
BLOCK_RECORD
  5
9C
330
1
100
AcDbSymbolTableRecord
100
AcDbBlockTableRecord
  2
EX_WBOX
  0
BLOCK_RECORD
  5
9F
330
1
100
AcDbSymbolTableRecord
100
AcDbBlockTableRecord
  2
EX_INTEGRAL
  0
BLOCK_RECORD
  5
3BC
330
1
100
AcDbSymbolTableRecord
100
AcDbBlockTableRecord
  2
*D15
  0
BLOCK_RECORD
  5
3C9
330
1
100
AcDbSymbolTableRecord
100
AcDbBlockTableRecord
  2
*D16
  0
BLOCK_RECORD
  5
3D6
330
1
100
AcDbSymbolTableRecord
100
AcDbBlockTableRecord
  2
*D17
  0
BLOCK_RECORD
  5
3E3
330
1
100
AcDbSymbolTableRecord
100
AcDbBlockTableRecord
  2
*D18
  0
BLOCK_RECORD
  5
3F0
330
1
100
AcDbSymbolTableRecord
100
AcDbBlockTableRecord
  2
*D19
  0
BLOCK_RECORD
  5
3FD
330
1
100
AcDbSymbolTableRecord
100
AcDbBlockTableRecord
  2
*D20
  0
BLOCK_RECORD
  5
40A
330
1
100
AcDbSymbolTableRecord
100
AcDbBlockTableRecord
  2
*D21
  0
BLOCK_RECORD
  5
416
330
1
100
AcDbSymbolTableRecord
100
AcDbBlockTableRecord
  2
*D22
  0
ENDTAB
  0
ENDSEC
  0
SECTION
  2
BLOCKS
  0
BLOCK
  5
20
330
1F
100
AcDbEntity
  8
0
100
AcDbBlockBegin
  2
*MODEL_SPACE
 70
     0
 10
0.0
 20
0.0
 30
0.0
  3
*MODEL_SPACE
  1

  0
ENDBLK
  5
21
330
1F
100
AcDbEntity
  8
0
100
AcDbBlockEnd
  0
BLOCK
  5
1C
330
1B
100
AcDbEntity
 67
     1
  8
0
100
AcDbBlockBegin
  2
*PAPER_SPACE
 70
     0
 10
0.0
 20
0.0
 30
0.0
  3
*PAPER_SPACE
  1

  0
ENDBLK
  5
1D
330
1B
100
AcDbEntity
 67
     1
  8
0
100
AcDbBlockEnd
  0
BLOCK
  5
79
330
78
100
AcDbEntity
  8
0
100
AcDbBlockBegin
  2
EX_NORM
 70
     0
 10
0.0
 20
0.0
 30
0.0
  3
EX_NORM
  1

  0
LINE
  5
A2
330
78
100
AcDbEntity
  8
0
  6
CONTINUOUS
 62
     0
100
AcDbLine
 10
0.0
 20
0.0
 30
0.0
 11
-1.0
 21
0.0
 31
0.0
  0
LINE
  5
A3
330
78
100
AcDbEntity
  8
0
  6
CONTINUOUS
 62
     0
100
AcDbLine
 10
0.0
 20
0.0
 30
0.0
 11
-1.0
 21
0.166666667
 31
0.0
  0
LINE
  5
A4
330
78
100
AcDbEntity
  8
0
  6
CONTINUOUS
 62
     0
100
AcDbLine
 10
0.0
 20
0.0
 30
0.0
 11
-1.0
 21
-0.166666667
 31
0.0
  0
ENDBLK
  5
7A
330
78
100
AcDbEntity
  8
0
100
AcDbBlockEnd
  0
BLOCK
  5
7C
330
7B
100
AcDbEntity
  8
0
100
AcDbBlockBegin
  2
EX_BNORM
 70
     0
 10
0.0
 20
0.0
 30
0.0
  3
EX_BNORM
  1

  0
LINE
  5
A5
330
7B
100
AcDbEntity
  8
0
  6
CONTINUOUS
 62
     0
100
AcDbLine
 10
0.0
 20
0.0
 30
0.0
 11
-1.0
 21
0.0
 31
0.0
  0
LINE
  5
A6
330
7B
100
AcDbEntity
  8
0
  6
CONTINUOUS
 62
     0
100
AcDbLine
 10
0.0
 20
0.0
 30
0.0
 11
-1.0
 21
0.166666667
 31
0.0
  0
LINE
  5
A7
330
7B
100
AcDbEntity
  8
0
  6
CONTINUOUS
 62
     0
100
AcDbLine
 10
0.0
 20
0.0
 30
0.0
 11
-1.0
 21
-0.166666667
 31
0.0
  0
LINE
  5
A8
330
7B
100
AcDbEntity
  8
0
  6
CONTINUOUS
 62
     0
100
AcDbLine
 10
0.0
 20
0.0
 30
0.0
 11
-1.0
 21
0.083333333
 31
0.0
  0
LINE
  5
A9
330
7B
100
AcDbEntity
  8
0
  6
CONTINUOUS
 62
     0
100
AcDbLine
 10
0.0
 20
0.0
 30
0.0
 11
-1.0
 21
-0.083333333
 31
0.0
  0
LINE
  5
AA
330
7B
100
AcDbEntity
  8
0
  6
CONTINUOUS
 62
     0
100
AcDbLine
 10
-1.0
 20
0.166666667
 30
0.0
 11
-1.0
 21
-0.166666667
 31
0.0
  0
ENDBLK
  5
7D
330
7B
100
AcDbEntity
  8
0
100
AcDbBlockEnd
  0
BLOCK
  5
7F
330
7E
100
AcDbEntity
  8
0
100
AcDbBlockBegin
  2
EX_BCIR
 70
     0
 10
0.0
 20
0.0
 30
0.0
  3
EX_BCIR
  1

  0
LINE
  5
AB
330
7E
100
AcDbEntity
  8
0
  6
CONTINUOUS
 62
     0
100
AcDbLine
 10
0.0
 20
0.0
 30
0.0
 11
-1.0
 21
0.0
 31
0.0
  0
CIRCLE
  5
AC
330
7E
100
AcDbEntity
  8
0
  6
CONTINUOUS
 62
     0
100
AcDbCircle
 10
0.0
 20
0.0
 30
0.0
 40
0.5
  0
CIRCLE
  5
AD
330
7E
100
AcDbEntity
  8
0
  6
CONTINUOUS
 62
     0
100
AcDbCircle
 10
0.0
 20
0.0
 30
0.0
 40
0.25
  0
ENDBLK
  5
80
330
7E
100
AcDbEntity
  8
0
100
AcDbBlockEnd
  0
BLOCK
  5
82
330
81
100
AcDbEntity
  8
0
100
AcDbBlockBegin
  2
EX_RCIVIL
 70
     0
 10
0.0
 20
0.0
 30
0.0
  3
EX_RCIVIL
  1

  0
LINE
  5
AE
330
81
100
AcDbEntity
  8
0
  6
CONTINUOUS
 62
     0
100
AcDbLine
 10
0.0
 20
0.0
 30
0.0
 11
-1.0
 21
0.0
 31
0.0
  0
LINE
  5
AF
330
81
100
AcDbEntity
  8
0
  6
CONTINUOUS
 62
     0
100
AcDbLine
 10
-1.0
 20
-0.25
 30
0.0
 11
0.0
 21
-0.25
 31
0.0
  0
LINE
  5
B0
330
81
100
AcDbEntity
  8
0
  6
CONTINUOUS
 62
     0
100
AcDbLine
 10
-1.0
 20
-0.125
 30
0.0
 11
0.0
 21
-0.125
 31
0.0
  0
ENDBLK
  5
83
330
81
100
AcDbEntity
  8
0
100
AcDbBlockEnd
  0
BLOCK
  5
85
330
84
100
AcDbEntity
  8
0
100
AcDbBlockBegin
  2
EX_SLANT
 70
     0
 10
0.0
 20
0.0
 30
0.0
  3
EX_SLANT
  1

  0
LINE
  5
B1
330
84
100
AcDbEntity
  8
0
  6
CONTINUOUS
 62
     0
100
AcDbLine
 10
0.0
 20
0.0
 30
0.0
 11
-1.0
 21
0.0
 31
0.0
  0
LINE
  5
B2
330
84
100
AcDbEntity
  8
0
  6
CONTINUOUS
 62
     0
100
AcDbLine
 10
0.707106781
 20
0.707106781
 30
0.0
 11
-0.707106781
 21
-0.707106781
 31
0.0
  0
ENDBLK
  5
86
330
84
100
AcDbEntity
  8
0
100
AcDbBlockEnd
  0
BLOCK
  5
88
330
87
100
AcDbEntity
  8
0
100
AcDbBlockBegin
  2
EX_NONE
 70
     0
 10
0.0
 20
0.0
 30
0.0
  3
EX_NONE
  1

  0
LINE
  5
B3
330
87
100
AcDbEntity
  8
0
  6
CONTINUOUS
 62
     0
100
AcDbLine
 10
0.0
 20
0.0
 30
0.0
 11
-1.0
 21
0.0
 31
0.0
  0
ENDBLK
  5
89
330
87
100
AcDbEntity
  8
0
100
AcDbBlockEnd
  0
BLOCK
  5
8B
330
8A
100
AcDbEntity
  8
0
100
AcDbBlockBegin
  2
EX_CIVIL
 70
     0
 10
0.0
 20
0.0
 30
0.0
  3
EX_CIVIL
  1

  0
LINE
  5
B4
330
8A
100
AcDbEntity
  8
0
  6
CONTINUOUS
 62
     0
100
AcDbLine
 10
0.0
 20
0.0
 30
0.0
 11
-1.0
 21
0.0
 31
0.0
  0
LINE
  5
B5
330
8A
100
AcDbEntity
  8
0
  6
CONTINUOUS
 62
     0
100
AcDbLine
 10
-1.0
 20
0.25
 30
0.0
 11
0.0
 21
0.25
 31
0.0
  0
LINE
  5
B6
330
8A
100
AcDbEntity
  8
0
  6
CONTINUOUS
 62
     0
100
AcDbLine
 10
-1.0
 20
0.125
 30
0.0
 11
0.0
 21
0.125
 31
0.0
  0
ENDBLK
  5
8C
330
8A
100
AcDbEntity
  8
0
100
AcDbBlockEnd
  0
BLOCK
  5
8E
330
8D
100
AcDbEntity
  8
0
100
AcDbBlockBegin
  2
EX_WCIR
 70
     0
 10
0.0
 20
0.0
 30
0.0
  3
EX_WCIR
  1

  0
LINE
  5
B7
330
8D
100
AcDbEntity
  8
0
  6
CONTINUOUS
 62
     0
100
AcDbLine
 10
0.0
 20
0.0
 30
0.0
 11
-1.0
 21
0.0
 31
0.0
  0
CIRCLE
  5
B8
330
8D
100
AcDbEntity
  8
0
  6
CONTINUOUS
 62
     0
100
AcDbCircle
 10
0.0
 20
0.0
 30
0.0
 40
0.5
  0
ENDBLK
  5
8F
330
8D
100
AcDbEntity
  8
0
100
AcDbBlockEnd
  0
BLOCK
  5
91
330
90
100
AcDbEntity
  8
0
100
AcDbBlockBegin
  2
EX_WCIR2
 70
     0
 10
0.0
 20
0.0
 30
0.0
  3
EX_WCIR2
  1

  0
LINE
  5
B9
330
90
100
AcDbEntity
  8
0
  6
CONTINUOUS
 62
     0
100
AcDbLine
 10
-0.5
 20
0.0
 30
0.0
 11
-1.0
 21
0.0
 31
0.0
  0
CIRCLE
  5
BA
330
90
100
AcDbEntity
  8
0
  6
CONTINUOUS
 62
     0
100
AcDbCircle
 10
0.0
 20
0.0
 30
0.0
 40
0.5
  0
ENDBLK
  5
92
330
90
100
AcDbEntity
  8
0
100
AcDbBlockEnd
  0
BLOCK
  5
94
330
93
100
AcDbEntity
  8
0
100
AcDbBlockBegin
  2
EX_WNORM
 70
     0
 10
0.0
 20
0.0
 30
0.0
  3
EX_WNORM
  1

  0
LINE
  5
BB
330
93
100
AcDbEntity
  8
0
  6
CONTINUOUS
 62
     0
100
AcDbLine
 10
-1.0
 20
0.0
 30
0.0
 11
-1.0
 21
0.0
 31
0.0
  0
LINE
  5
BC
330
93
100
AcDbEntity
  8
0
  6
CONTINUOUS
 62
     0
100
AcDbLine
 10
0.0
 20
0.0
 30
0.0
 11
-1.0
 21
0.166666667
 31
0.0
  0
LINE
  5
BD
330
93
100
AcDbEntity
  8
0
  6
CONTINUOUS
 62
     0
100
AcDbLine
 10
0.0
 20
0.0
 30
0.0
 11
-1.0
 21
-0.166666667
 31
0.0
  0
LINE
  5
BE
330
93
100
AcDbEntity
  8
0
  6
CONTINUOUS
 62
     0
100
AcDbLine
 10
-1.0
 20
0.166666667
 30
0.0
 11
-1.0
 21
-0.166666667
 31
0.0
  0
ENDBLK
  5
95
330
93
100
AcDbEntity
  8
0
100
AcDbBlockEnd
  0
BLOCK
  5
97
330
96
100
AcDbEntity
  8
0
100
AcDbBlockBegin
  2
EX_NNORM
 70
     0
 10
0.0
 20
0.0
 30
0.0
  3
EX_NNORM
  1

  0
LINE
  5
BF
330
96
100
AcDbEntity
  8
0
  6
CONTINUOUS
 62
     0
100
AcDbLine
 10
0.0
 20
0.0
 30
0.0
 11
-1.0
 21
0.0
 31
0.0
  0
LINE
  5
C0
330
96
100
AcDbEntity
  8
0
  6
CONTINUOUS
 62
     0
100
AcDbLine
 10
0.0
 20
0.0
 30
0.0
 11
-1.0
 21
0.166666667
 31
0.0
  0
LINE
  5
C1
330
96
100
AcDbEntity
  8
0
  6
CONTINUOUS
 62
     0
100
AcDbLine
 10
0.0
 20
0.0
 30
0.0
 11
-1.0
 21
-0.166666667
 31
0.0
  0
LINE
  5
C2
330
96
100
AcDbEntity
  8
0
  6
CONTINUOUS
 62
     0
100
AcDbLine
 10
-1.0
 20
0.166666667
 30
0.0
 11
-1.0
 21
-0.166666667
 31
0.0
  0
ENDBLK
  5
98
330
96
100
AcDbEntity
  8
0
100
AcDbBlockEnd
  0
BLOCK
  5
9A
330
99
100
AcDbEntity
  8
0
100
AcDbBlockBegin
  2
EX_BBOX
 70
     0
 10
0.0
 20
0.0
 30
0.0
  3
EX_BBOX
  1

  0
LINE
  5
C3
330
99
100
AcDbEntity
  8
0
  6
CONTINUOUS
 62
     0
100
AcDbLine
 10
0.0
 20
0.0
 30
0.0
 11
-1.0
 21
0.0
 31
0.0
  0
LINE
  5
C4
330
99
100
AcDbEntity
  8
0
  6
CONTINUOUS
 62
     0
100
AcDbLine
 10
-0.5
 20
0.5
 30
0.0
 11
0.5
 21
0.5
 31
0.0
  0
LINE
  5
C5
330
99
100
AcDbEntity
  8
0
  6
CONTINUOUS
 62
     0
100
AcDbLine
 10
0.5
 20
0.5
 30
0.0
 11
0.5
 21
-0.5
 31
0.0
  0
LINE
  5
C6
330
99
100
AcDbEntity
  8
0
  6
CONTINUOUS
 62
     0
100
AcDbLine
 10
0.5
 20
-0.5
 30
0.0
 11
-0.5
 21
-0.5
 31
0.0
  0
LINE
  5
C7
330
99
100
AcDbEntity
  8
0
  6
CONTINUOUS
 62
     0
100
AcDbLine
 10
-0.5
 20
-0.5
 30
0.0
 11
-0.5
 21
0.5
 31
0.0
  0
LINE
  5
C8
330
99
100
AcDbEntity
  8
0
  6
CONTINUOUS
 62
     0
100
AcDbLine
 10
-0.25
 20
0.25
 30
0.0
 11
0.25
 21
0.25
 31
0.0
  0
LINE
  5
C9
330
99
100
AcDbEntity
  8
0
  6
CONTINUOUS
 62
     0
100
AcDbLine
 10
0.25
 20
0.25
 30
0.0
 11
0.25
 21
-0.25
 31
0.0
  0
LINE
  5
CA
330
99
100
AcDbEntity
  8
0
  6
CONTINUOUS
 62
     0
100
AcDbLine
 10
0.25
 20
-0.25
 30
0.0
 11
-0.25
 21
-0.25
 31
0.0
  0
LINE
  5
CB
330
99
100
AcDbEntity
  8
0
  6
CONTINUOUS
 62
     0
100
AcDbLine
 10
-0.25
 20
-0.25
 30
0.0
 11
-0.25
 21
0.25
 31
0.0
  0
ENDBLK
  5
9B
330
99
100
AcDbEntity
  8
0
100
AcDbBlockEnd
  0
BLOCK
  5
9D
330
9C
100
AcDbEntity
  8
0
100
AcDbBlockBegin
  2
EX_WBOX
 70
     0
 10
0.0
 20
0.0
 30
0.0
  3
EX_WBOX
  1

  0
LINE
  5
CC
330
9C
100
AcDbEntity
  8
0
  6
CONTINUOUS
 62
     0
100
AcDbLine
 10
-0.5
 20
0.0
 30
0.0
 11
-1.0
 21
0.0
 31
0.0
  0
LINE
  5
CD
330
9C
100
AcDbEntity
  8
0
  6
CONTINUOUS
 62
     0
100
AcDbLine
 10
-0.5
 20
0.5
 30
0.0
 11
0.5
 21
0.5
 31
0.0
  0
LINE
  5
CE
330
9C
100
AcDbEntity
  8
0
  6
CONTINUOUS
 62
     0
100
AcDbLine
 10
0.5
 20
0.5
 30
0.0
 11
0.5
 21
-0.5
 31
0.0
  0
LINE
  5
CF
330
9C
100
AcDbEntity
  8
0
  6
CONTINUOUS
 62
     0
100
AcDbLine
 10
0.5
 20
-0.5
 30
0.0
 11
-0.5
 21
-0.5
 31
0.0
  0
LINE
  5
D0
330
9C
100
AcDbEntity
  8
0
  6
CONTINUOUS
 62
     0
100
AcDbLine
 10
-0.5
 20
-0.5
 30
0.0
 11
-0.5
 21
0.5
 31
0.0
  0
ENDBLK
  5
9E
330
9C
100
AcDbEntity
  8
0
100
AcDbBlockEnd
  0
BLOCK
  5
A0
330
9F
100
AcDbEntity
  8
0
100
AcDbBlockBegin
  2
EX_INTEGRAL
 70
     0
 10
0.0
 20
0.0
 30
0.0
  3
EX_INTEGRAL
  1

  0
LINE
  5
D1
330
9F
100
AcDbEntity
  8
0
  6
CONTINUOUS
 62
     0
100
AcDbLine
 10
0.0
 20
0.0
 30
0.0
 11
-1.0
 21
0.0
 31
0.0
  0
ARC
  5
D2
330
9F
100
AcDbEntity
  8
0
  6
CONTINUOUS
 62
     0
100
AcDbCircle
 10
0.542115
 20
0.164992
 30
0.0
 40
0.56667
100
AcDbArc
 50
73.07249033629006
 51
196.9275130221199
  0
ARC
  5
D3
330
9F
100
AcDbEntity
  8
0
  6
CONTINUOUS
 62
     0
100
AcDbCircle
 10
-0.542115
 20
-0.164992
 30
0.0
 40
0.56667
100
AcDbArc
 50
253.0724869220464
 51
16.9275130559125
  0
ENDBLK
  5
A1
330
9F
100
AcDbEntity
  8
0
100
AcDbBlockEnd
  0
BLOCK
  5
3BD
330
3BC
100
AcDbEntity
  8
0
100
AcDbBlockBegin
  2
*D15
 70
     1
 10
0.0
 20
0.0
 30
0.0
  3
*D15
  1

  0
LINE
  5
3BF
330
3BC
100
AcDbEntity
  8
LAY-20
  6
CONTINUOUS
 62
     4
100
AcDbLine
 10
526.0
 20
195.6986412405201
 30
0.0
 11
526.0
 21
89.69864124052009
 31
0.0
  0
LINE
  5
3C0
330
3BC
100
AcDbEntity
  8
LAY-20
  6
CONTINUOUS
 62
     4
100
AcDbLine
 10
404.0000000000001
 20
195.6986412405201
 30
0.0
 11
404.0000000000001
 21
89.69864124052009
 31
0.0
  0
LINE
  5
3C1
330
3BC
100
AcDbEntity
  8
LAY-20
  6
CONTINUOUS
 62
     4
100
AcDbLine
 10
518.5
 20
94.19864124052009
 30
0.0
 11
411.5000000000001
 21
94.19864124052009
 31
0.0
  0
INSERT
  5
3C2
330
3BC
100
AcDbEntity
  8
LAY-20
 62
     4
100
AcDbBlockReference
  2
EX_BNORM
 10
526.0
 20
94.19864124052009
 30
0.0
 41
7.5
 42
7.5
 43
7.5
  0
INSERT
  5
3C3
330
3BC
100
AcDbEntity
  8
LAY-20
 62
     4
100
AcDbBlockReference
  2
EX_BNORM
 10
404.0000000000001
 20
94.19864124052009
 30
0.0
 41
7.5
 42
7.5
 43
7.5
 50
180.0
  0
MTEXT
  5
3C4
330
3BC
100
AcDbEntity
  8
LAY-20
 62
     7
100
AcDbMText
 10
465.0
 20
101.6986412405201
 30
0.0
 40
9.3543312
 41
0.0
 71
     5
 72
     1
  1
%%c122
  7
EXCADDIM1
  0
POINT
  5
3C5
330
3BC
100
AcDbEntity
  8
DEFPOINTS
 62
     0
100
AcDbPoint
 10
526.0
 20
200.1986412405201
 30
0.0
  0
POINT
  5
3C6
330
3BC
100
AcDbEntity
  8
DEFPOINTS
 62
     0
100
AcDbPoint
 10
404.0000000000001
 20
200.1986412405201
 30
0.0
  0
POINT
  5
3C7
330
3BC
100
AcDbEntity
  8
DEFPOINTS
 62
     0
100
AcDbPoint
 10
404.0000000000001
 20
94.19864124052009
 30
0.0
  0
ENDBLK
  5
3BE
330
3BC
100
AcDbEntity
  8
0
100
AcDbBlockEnd
  0
BLOCK
  5
3CA
330
3C9
100
AcDbEntity
  8
0
100
AcDbBlockBegin
  2
*D16
 70
     1
 10
0.0
 20
0.0
 30
0.0
  3
*D16
  1

  0
LINE
  5
3CC
330
3C9
100
AcDbEntity
  8
LAY-20
  6
CONTINUOUS
 62
     4
100
AcDbLine
 10
405.5000000000001
 20
155.6986412405201
 30
0.0
 11
405.5000000000001
 21
110.6986412405201
 31
0.0
  0
LINE
  5
3CD
330
3C9
100
AcDbEntity
  8
LAY-20
  6
CONTINUOUS
 62
     4
100
AcDbLine
 10
524.5
 20
155.6986412405201
 30
0.0
 11
524.5
 21
110.6986412405201
 31
0.0
  0
LINE
  5
3CE
330
3C9
100
AcDbEntity
  8
LAY-20
  6
CONTINUOUS
 62
     4
100
AcDbLine
 10
413.0000000000001
 20
115.1986412405201
 30
0.0
 11
517.0
 21
115.1986412405201
 31
0.0
  0
INSERT
  5
3CF
330
3C9
100
AcDbEntity
  8
LAY-20
 62
     4
100
AcDbBlockReference
  2
EX_BNORM
 10
405.5000000000001
 20
115.1986412405201
 30
0.0
 41
7.5
 42
7.5
 43
7.5
 50
180.0
  0
INSERT
  5
3D0
330
3C9
100
AcDbEntity
  8
LAY-20
 62
     4
100
AcDbBlockReference
  2
EX_BNORM
 10
524.5
 20
115.1986412405201
 30
0.0
 41
7.5
 42
7.5
 43
7.5
  0
MTEXT
  5
3D1
330
3C9
100
AcDbEntity
  8
LAY-20
 62
     7
100
AcDbMText
 10
465.0
 20
122.6986412405201
 30
0.0
 40
9.3543312
 41
0.0
 71
     5
 72
     1
  1
%%c119
  7
EXCADDIM1
  0
POINT
  5
3D2
330
3C9
100
AcDbEntity
  8
DEFPOINTS
 62
     0
100
AcDbPoint
 10
405.5000000000001
 20
160.1986412405201
 30
0.0
  0
POINT
  5
3D3
330
3C9
100
AcDbEntity
  8
DEFPOINTS
 62
     0
100
AcDbPoint
 10
524.5
 20
160.1986412405201
 30
0.0
  0
POINT
  5
3D4
330
3C9
100
AcDbEntity
  8
DEFPOINTS
 62
     0
100
AcDbPoint
 10
524.5
 20
115.1986412405201
 30
0.0
  0
ENDBLK
  5
3CB
330
3C9
100
AcDbEntity
  8
0
100
AcDbBlockEnd
  0
BLOCK
  5
3D7
330
3D6
100
AcDbEntity
  8
0
100
AcDbBlockBegin
  2
*D17
 70
     1
 10
0.0
 20
0.0
 30
0.0
  3
*D17
  1

  0
LINE
  5
3D9
330
3D6
100
AcDbEntity
  8
LAY-20
  6
CONTINUOUS
 62
     4
100
AcDbLine
 10
344.00000000001
 20
222.6986412405601
 30
0.0
 11
344.00000000001
 21
481.5
 31
0.0
  0
LINE
  5
3DA
330
3D6
100
AcDbEntity
  8
LAY-20
  6
CONTINUOUS
 62
     4
100
AcDbLine
 10
586.0000000000031
 20
222.6986412405201
 30
0.0
 11
586.0000000000031
 21
481.5
 31
0.0
  0
LINE
  5
3DB
330
3D6
100
AcDbEntity
  8
LAY-20
  6
CONTINUOUS
 62
     4
100
AcDbLine
 10
351.50000000001
 20
477.0
 30
0.0
 11
578.5000000000031
 21
477.0
 31
0.0
  0
INSERT
  5
3DC
330
3D6
100
AcDbEntity
  8
LAY-20
 62
     4
100
AcDbBlockReference
  2
EX_BNORM
 10
344.00000000001
 20
477.0
 30
0.0
 41
7.5
 42
7.5
 43
7.5
 50
180.0
  0
INSERT
  5
3DD
330
3D6
100
AcDbEntity
  8
LAY-20
 62
     4
100
AcDbBlockReference
  2
EX_BNORM
 10
586.0000000000031
 20
477.0
 30
0.0
 41
7.5
 42
7.5
 43
7.5
  0
MTEXT
  5
3DE
330
3D6
100
AcDbEntity
  8
LAY-20
 62
     7
100
AcDbMText
 10
465.0000000000065
 20
484.5
 30
0.0
 40
9.3543312
 41
0.0
 71
     5
 72
     1
  1
%%c242
  7
EXCADDIM1
  0
POINT
  5
3DF
330
3D6
100
AcDbEntity
  8
DEFPOINTS
 62
     0
100
AcDbPoint
 10
344.00000000001
 20
218.1986412405601
 30
0.0
  0
POINT
  5
3E0
330
3D6
100
AcDbEntity
  8
DEFPOINTS
 62
     0
100
AcDbPoint
 10
586.0000000000031
 20
218.1986412405201
 30
0.0
  0
POINT
  5
3E1
330
3D6
100
AcDbEntity
  8
DEFPOINTS
 62
     0
100
AcDbPoint
 10
586.0000000000031
 20
477.0
 30
0.0
  0
ENDBLK
  5
3D8
330
3D6
100
AcDbEntity
  8
0
100
AcDbBlockEnd
  0
BLOCK
  5
3E4
330
3E3
100
AcDbEntity
  8
0
100
AcDbBlockBegin
  2
*D18
 70
     1
 10
0.0
 20
0.0
 30
0.0
  3
*D18
  1

  0
LINE
  5
3E6
330
3E3
100
AcDbEntity
  8
LAY-20
  6
CONTINUOUS
 62
     4
100
AcDbLine
 10
353.99999999999
 20
232.5000000000101
 30
0.0
 11
353.99999999999
 21
460.5
 31
0.0
  0
LINE
  5
3E7
330
3E3
100
AcDbEntity
  8
LAY-20
  6
CONTINUOUS
 62
     4
100
AcDbLine
 10
576.000000000005
 20
232.5000000000101
 30
0.0
 11
576.000000000005
 21
460.5
 31
0.0
  0
LINE
  5
3E8
330
3E3
100
AcDbEntity
  8
LAY-20
  6
CONTINUOUS
 62
     4
100
AcDbLine
 10
361.49999999999
 20
456.0
 30
0.0
 11
568.500000000005
 21
456.0
 31
0.0
  0
INSERT
  5
3E9
330
3E3
100
AcDbEntity
  8
LAY-20
 62
     4
100
AcDbBlockReference
  2
EX_BNORM
 10
353.99999999999
 20
456.0
 30
0.0
 41
7.5
 42
7.5
 43
7.5
 50
180.0
  0
INSERT
  5
3EA
330
3E3
100
AcDbEntity
  8
LAY-20
 62
     4
100
AcDbBlockReference
  2
EX_BNORM
 10
576.000000000005
 20
456.0
 30
0.0
 41
7.5
 42
7.5
 43
7.5
  0
MTEXT
  5
3EB
330
3E3
100
AcDbEntity
  8
LAY-20
 62
     7
100
AcDbMText
 10
464.9999999999974
 20
463.5
 30
0.0
 40
9.3543312
 41
0.0
 71
     5
 72
     1
  1
%%c222
  7
EXCADDIM1
  0
POINT
  5
3EC
330
3E3
100
AcDbEntity
  8
DEFPOINTS
 62
     0
100
AcDbPoint
 10
353.99999999999
 20
228.0000000000101
 30
0.0
  0
POINT
  5
3ED
330
3E3
100
AcDbEntity
  8
DEFPOINTS
 62
     0
100
AcDbPoint
 10
576.000000000005
 20
228.0000000000101
 30
0.0
  0
POINT
  5
3EE
330
3E3
100
AcDbEntity
  8
DEFPOINTS
 62
     0
100
AcDbPoint
 10
576.000000000005
 20
456.0
 30
0.0
  0
ENDBLK
  5
3E5
330
3E3
100
AcDbEntity
  8
0
100
AcDbBlockEnd
  0
BLOCK
  5
3F1
330
3F0
100
AcDbEntity
  8
0
100
AcDbBlockBegin
  2
*D19
 70
     1
 10
0.0
 20
0.0
 30
0.0
  3
*D19
  1

  0
LINE
  5
3F3
330
3F0
100
AcDbEntity
  8
LAY-20
  6
CONTINUOUS
 62
     4
100
AcDbLine
 10
378.0
 20
200.0921908014401
 30
0.0
 11
309.50000000001
 21
200.0921908014401
 31
0.0
  0
LINE
  5
3F4
330
3F0
100
AcDbEntity
  8
LAY-20
  6
CONTINUOUS
 62
     4
100
AcDbLine
 10
340.5
 20
225.1986412405201
 30
0.0
 11
309.50000000001
 21
225.1986412405201
 31
0.0
  0
LINE
  5
3F5
330
3F0
100
AcDbEntity
  8
LAY-20
  6
CONTINUOUS
 62
     4
100
AcDbLine
 10
314.00000000001
 20
207.5921908014401
 30
0.0
 11
314.00000000001
 21
217.6986412405201
 31
0.0
  0
INSERT
  5
3F6
330
3F0
100
AcDbEntity
  8
LAY-20
 62
     4
100
AcDbBlockReference
  2
EX_BNORM
 10
314.00000000001
 20
200.0921908014401
 30
0.0
 41
7.5
 42
7.5
 43
7.5
 50
270.0
  0
INSERT
  5
3F7
330
3F0
100
AcDbEntity
  8
LAY-20
 62
     4
100
AcDbBlockReference
  2
EX_BNORM
 10
314.00000000001
 20
225.1986412405201
 30
0.0
 41
7.5
 42
7.5
 43
7.5
 50
90.0
  0
MTEXT
  5
3F8
330
3F0
100
AcDbEntity
  8
LAY-20
 62
     7
100
AcDbMText
 10
306.50000000001
 20
212.6454160209801
 30
0.0
 40
9.3543312
 41
0.0
 71
     5
 72
     1
  1
25
  7
EXCADDIM1
 11
0.0
 21
1.0
 31
0.0
  0
POINT
  5
3F9
330
3F0
100
AcDbEntity
  8
DEFPOINTS
 62
     0
100
AcDbPoint
 10
382.5
 20
200.0921908014401
 30
0.0
  0
POINT
  5
3FA
330
3F0
100
AcDbEntity
  8
DEFPOINTS
 62
     0
100
AcDbPoint
 10
345.0
 20
225.1986412405201
 30
0.0
  0
POINT
  5
3FB
330
3F0
100
AcDbEntity
  8
DEFPOINTS
 62
     0
100
AcDbPoint
 10
314.00000000001
 20
225.1986412405201
 30
0.0
  0
ENDBLK
  5
3F2
330
3F0
100
AcDbEntity
  8
0
100
AcDbBlockEnd
  0
BLOCK
  5
3FE
330
3FD
100
AcDbEntity
  8
0
100
AcDbBlockBegin
  2
*D20
 70
     1
 10
0.0
 20
0.0
 30
0.0
  3
*D20
  1

  0
LINE
  5
400
330
3FD
100
AcDbEntity
  8
LAY-20
  6
CONTINUOUS
 62
     4
100
AcDbLine
 10
552.0
 20
145.19864124052
 30
0.0
 11
620.5
 21
145.19864124052
 31
0.0
  0
LINE
  5
401
330
3FD
100
AcDbEntity
  8
LAY-20
  6
CONTINUOUS
 62
     4
100
AcDbLine
 10
589.5
 20
225.19864124052
 30
0.0
 11
620.5
 21
225.19864124052
 31
0.0
  0
LINE
  5
402
330
3FD
100
AcDbEntity
  8
LAY-20
  6
CONTINUOUS
 62
     4
100
AcDbLine
 10
616.0
 20
152.69864124052
 30
0.0
 11
616.0
 21
217.69864124052
 31
0.0
  0
INSERT
  5
403
330
3FD
100
AcDbEntity
  8
LAY-20
 62
     4
100
AcDbBlockReference
  2
EX_BNORM
 10
616.0
 20
145.19864124052
 30
0.0
 41
7.5
 42
7.5
 43
7.5
 50
270.0
  0
INSERT
  5
404
330
3FD
100
AcDbEntity
  8
LAY-20
 62
     4
100
AcDbBlockReference
  2
EX_BNORM
 10
616.0
 20
225.19864124052
 30
0.0
 41
7.5
 42
7.5
 43
7.5
 50
90.0
  0
MTEXT
  5
405
330
3FD
100
AcDbEntity
  8
LAY-20
 62
     7
100
AcDbMText
 10
608.5
 20
185.19864124052
 30
0.0
 40
9.3543312
 41
0.0
 71
     5
 72
     1
  1
80
  7
EXCADDIM1
 11
0.0
 21
1.0
 31
0.0
  0
POINT
  5
406
330
3FD
100
AcDbEntity
  8
DEFPOINTS
 62
     0
100
AcDbPoint
 10
547.5
 20
145.19864124052
 30
0.0
  0
POINT
  5
407
330
3FD
100
AcDbEntity
  8
DEFPOINTS
 62
     0
100
AcDbPoint
 10
585.0
 20
225.19864124052
 30
0.0
  0
POINT
  5
408
330
3FD
100
AcDbEntity
  8
DEFPOINTS
 62
     0
100
AcDbPoint
 10
616.0
 20
225.19864124052
 30
0.0
  0
ENDBLK
  5
3FF
330
3FD
100
AcDbEntity
  8
0
100
AcDbBlockEnd
  0
BLOCK
  5
40B
330
40A
100
AcDbEntity
  8
0
100
AcDbBlockBegin
  2
*D21
 70
     1
 10
0.0
 20
0.0
 30
0.0
  3
*D21
  1

  0
LINE
  5
40D
330
40A
100
AcDbEntity
  8
LAY-20
  6
CONTINUOUS
 62
     4
100
AcDbLine
 10
469.5
 20
405.00000000001
 30
0.0
 11
620.5
 21
405.00000000001
 31
0.0
  0
LINE
  5
40E
330
40A
100
AcDbEntity
  8
LAY-20
  6
CONTINUOUS
 62
     4
100
AcDbLine
 10
616.0
 20
397.50000000001
 30
0.0
 11
616.0
 21
232.69864124052
 31
0.0
  0
INSERT
  5
40F
330
40A
100
AcDbEntity
  8
LAY-20
 62
     4
100
AcDbBlockReference
  2
EX_BNORM
 10
616.0
 20
405.00000000001
 30
0.0
 41
7.5
 42
7.5
 43
7.5
 50
90.0
  0
INSERT
  5
410
330
40A
100
AcDbEntity
  8
LAY-20
 62
     4
100
AcDbBlockReference
  2
EX_BNORM
 10
616.0
 20
225.19864124052
 30
0.0
 41
7.5
 42
7.5
 43
7.5
 50
270.0
  0
MTEXT
  5
411
330
40A
100
AcDbEntity
  8
LAY-20
 62
     7
100
AcDbMText
 10
608.5
 20
315.099320620265
 30
0.0
 40
9.3543312
 41
0.0
 71
     5
 72
     1
  1
180
  7
EXCADDIM1
 11
0.0
 21
1.0
 31
0.0
  0
POINT
  5
412
330
40A
100
AcDbEntity
  8
DEFPOINTS
 62
     0
100
AcDbPoint
 10
465.0
 20
405.00000000001
 30
0.0
  0
POINT
  5
413
330
40A
100
AcDbEntity
  8
DEFPOINTS
 62
     0
100
AcDbPoint
 10
616.0
 20
225.19864124052
 30
0.0
  0
POINT
  5
414
330
40A
100
AcDbEntity
  8
DEFPOINTS
 62
     0
100
AcDbPoint
 10
616.0
 20
225.19864124052
 30
0.0
  0
ENDBLK
  5
40C
330
40A
100
AcDbEntity
  8
0
100
AcDbBlockEnd
  0
BLOCK
  5
417
330
416
100
AcDbEntity
  8
0
100
AcDbBlockBegin
  2
*D22
 70
     1
 10
0.0
 20
0.0
 30
0.0
  3
*D22
  1

  0
LINE
  5
419
330
416
100
AcDbEntity
  8
LAY-20
  6
CONTINUOUS
 62
     4
100
AcDbLine
 10
557.0
 20
234.50000000001
 30
0.0
 11
557.0
 21
439.50000000001
 31
0.0
  0
LINE
  5
41A
330
416
100
AcDbEntity
  8
LAY-20
  6
CONTINUOUS
 62
     4
100
AcDbLine
 10
373.0
 20
234.50000000001
 30
0.0
 11
373.0
 21
439.50000000001
 31
0.0
  0
LINE
  5
41B
330
416
100
AcDbEntity
  8
LAY-20
  6
CONTINUOUS
 62
     4
100
AcDbLine
 10
549.5
 20
435.00000000001
 30
0.0
 11
380.5
 21
435.00000000001
 31
0.0
  0
INSERT
  5
41C
330
416
100
AcDbEntity
  8
LAY-20
 62
     4
100
AcDbBlockReference
  2
EX_BNORM
 10
557.0
 20
435.00000000001
 30
0.0
 41
7.5
 42
7.5
 43
7.5
  0
INSERT
  5
41D
330
416
100
AcDbEntity
  8
LAY-20
 62
     4
100
AcDbBlockReference
  2
EX_BNORM
 10
373.0
 20
435.00000000001
 30
0.0
 41
7.5
 42
7.5
 43
7.5
 50
180.0
  0
MTEXT
  5
41E
330
416
100
AcDbEntity
  8
LAY-20
 62
     7
100
AcDbMText
 10
465.0
 20
442.50000000001
 30
0.0
 40
9.3543312
 41
0.0
 71
     5
 72
     1
  1
%%c184
  7
EXCADDIM1
  0
POINT
  5
41F
330
416
100
AcDbEntity
  8
DEFPOINTS
 62
     0
100
AcDbPoint
 10
557.0
 20
230.00000000001
 30
0.0
  0
POINT
  5
420
330
416
100
AcDbEntity
  8
DEFPOINTS
 62
     0
100
AcDbPoint
 10
373.0
 20
230.00000000001
 30
0.0
  0
POINT
  5
421
330
416
100
AcDbEntity
  8
DEFPOINTS
 62
     0
100
AcDbPoint
 10
373.0
 20
435.00000000001
 30
0.0
  0
ENDBLK
  5
418
330
416
100
AcDbEntity
  8
0
100
AcDbBlockEnd
  0
ENDSEC
  0
SECTION
  2
ENTITIES
  0
LINE
  5
D4
330
1F
100
AcDbEntity
  8
LAY-10
  6
CONTINUOUS
 62
     7
100
AcDbLine
 10
382.5000000000055
 20
198.9387566107032
 30
0.0
 11
383.6534341907474
 21
200.0921908014451
 31
0.0
  0
LINE
  5
D5
330
1F
100
AcDbEntity
  8
LAY-10
  6
CONTINUOUS
 62
     7
100
AcDbLine
 10
382.5000000000029
 20
196.1103294859544
 30
0.0
 11
386.4818613154883
 21
200.0921908014399
 31
0.0
  0
LINE
  5
D6
330
1F
100
AcDbEntity
  8
LAY-10
  6
CONTINUOUS
 62
     7
100
AcDbLine
 10
382.5000000000003
 20
193.2819023612057
 30
0.0
 11
388.0000000000013
 21
198.7819023612066
 31
0.0
  0
LINE
  5
D7
330
1F
100
AcDbEntity
  8
LAY-10
  6
CONTINUOUS
 62
     7
100
AcDbLine
 10
382.5000000000016
 20
190.4534752364607
 30
0.0
 11
388.0000000000025
 21
195.9534752364617
 31
0.0
  0
LINE
  5
D8
330
1F
100
AcDbEntity
  8
LAY-10
  6
CONTINUOUS
 62
     7
100
AcDbLine
 10
382.5000000000029
 20
187.6250481117158
 30
0.0
 11
388.0000000000039
 21
193.1250481117168
 31
0.0
  0
LINE
  5
D9
330
1F
100
AcDbEntity
  8
LAY-10
  6
CONTINUOUS
 62
     7
100
AcDbLine
 10
382.5000000000003
 20
184.796620986967
 30
0.0
 11
388.0000000000051
 21
190.2966209869718
 31
0.0
  0
LINE
  5
DA
330
1F
100
AcDbEntity
  8
LAY-10
  6
CONTINUOUS
 62
     7
100
AcDbLine
 10
382.5000000000017
 20
181.9681938622222
 30
0.0
 11
388.0000000000064
 21
187.468193862227
 31
0.0
  0
LINE
  5
DB
330
1F
100
AcDbEntity
  8
LAY-10
  6
CONTINUOUS
 62
     7
100
AcDbLine
 10
382.500000000003
 20
179.1397667374772
 30
0.0
 11
388.0000000000039
 21
184.6397667374782
 31
0.0
  0
LINE
  5
DC
330
1F
100
AcDbEntity
  8
LAY-10
  6
CONTINUOUS
 62
     7
100
AcDbLine
 10
382.5000000000043
 20
176.3113396127323
 30
0.0
 11
388.0000000000013
 21
181.8113396127294
 31
0.0
  0
LINE
  5
DD
330
1F
100
AcDbEntity
  8
LAY-10
  6
CONTINUOUS
 62
     7
100
AcDbLine
 10
382.5000000000017
 20
173.4829124879835
 30
0.0
 11
388.0000000000027
 21
178.9829124879845
 31
0.0
  0
LINE
  5
DE
330
1F
100
AcDbEntity
  8
LAY-10
  6
CONTINUOUS
 62
     7
100
AcDbLine
 10
382.500000000003
 20
170.6544853632386
 30
0.0
 11
388.0000000000039
 21
176.1544853632395
 31
0.0
  0
LINE
  5
DF
330
1F
100
AcDbEntity
  8
LAY-10
  6
CONTINUOUS
 62
     7
100
AcDbLine
 10
382.5000000000043
 20
167.8260582384938
 30
0.0
 11
388.0000000000052
 21
173.3260582384947
 31
0.0
  0
LINE
  5
E0
330
1F
100
AcDbEntity
  8
LAY-10
  6
CONTINUOUS
 62
     7
100
AcDbLine
 10
382.5000000000018
 20
164.9976311137449
 30
0.0
 11
388.0000000000027
 21
170.4976311137459
 31
0.0
  0
LINE
  5
E1
330
1F
100
AcDbEntity
  8
LAY-10
  6
CONTINUOUS
 62
     7
100
AcDbLine
 10
382.5000000000031
 20
162.1692039890001
 30
0.0
 11
388.0000000000039
 21
167.669203989001
 31
0.0
  0
LINE
  5
E2
330
1F
100
AcDbEntity
  8
LAY-10
  6
CONTINUOUS
 62
     7
100
AcDbLine
 10
382.5000000000043
 20
159.3407768642551
 30
0.0
 11
388.0000000000013
 21
164.8407768642522
 31
0.0
  0
LINE
  5
E3
330
1F
100
AcDbEntity
  8
LAY-10
  6
CONTINUOUS
 62
     7
100
AcDbLine
 10
382.5000000000018
 20
156.5123497395064
 30
0.0
 11
388.0000000000027
 21
162.0123497395073
 31
0.0
  0
LINE
  5
E4
330
1F
100
AcDbEntity
  8
LAY-10
  6
CONTINUOUS
 62
     7
100
AcDbLine
 10
382.5000000000031
 20
153.6839226147615
 30
0.0
 11
388.000000000004
 21
159.1839226147624
 31
0.0
  0
LINE
  5
E5
330
1F
100
AcDbEntity
  8
LAY-10
  6
CONTINUOUS
 62
     7
100
AcDbLine
 10
382.5000000000005
 20
150.8554954900127
 30
0.0
 11
388.0000000000015
 21
156.3554954900135
 31
0.0
  0
LINE
  5
E6
330
1F
100
AcDbEntity
  8
LAY-10
  6
CONTINUOUS
 62
     7
100
AcDbLine
 10
382.5000000000056
 20
148.0270683652716
 30
0.0
 11
388.0000000000027
 21
153.5270683652687
 31
0.0
  0
LINE
  5
E7
330
1F
100
AcDbEntity
  8
LAY-10
  6
CONTINUOUS
 62
     7
100
AcDbLine
 10
382.4999999999992
 20
145.198641240519
 30
0.0
 11
388.000000000004
 21
150.6986412405238
 31
0.0
  0
LINE
  5
E8
330
1F
100
AcDbEntity
  8
LAY-10
  6
CONTINUOUS
 62
     7
100
AcDbLine
 10
385.3284271247441
 20
145.1986412405177
 30
0.0
 11
388.0000000000052
 21
147.8702141157788
 31
0.0
  0
LINE
  5
E9
330
1F
100
AcDbEntity
  8
LAY-10
  6
CONTINUOUS
 62
     7
100
AcDbLine
 10
542.0000000000053
 20
198.9387566107032
 30
0.0
 11
543.1534341907395
 21
200.0921908014374
 31
0.0
  0
LINE
  5
EA
330
1F
100
AcDbEntity
  8
LAY-10
  6
CONTINUOUS
 62
     7
100
AcDbLine
 10
541.999999999999
 20
196.1103294859506
 30
0.0
 11
545.9818613154885
 21
200.0921908014399
 31
0.0
  0
LINE
  5
EB
330
1F
100
AcDbEntity
  8
LAY-10
  6
CONTINUOUS
 62
     7
100
AcDbLine
 10
542.0000000000002
 20
193.2819023612057
 30
0.0
 11
547.5000000000051
 21
198.7819023612105
 31
0.0
  0
LINE
  5
EC
330
1F
100
AcDbEntity
  8
LAY-10
  6
CONTINUOUS
 62
     7
100
AcDbLine
 10
542.0000000000016
 20
190.4534752364607
 30
0.0
 11
547.5000000000025
 21
195.9534752364617
 31
0.0
  0
LINE
  5
ED
330
1F
100
AcDbEntity
  8
LAY-10
  6
CONTINUOUS
 62
     7
100
AcDbLine
 10
542.0000000000028
 20
187.6250481117158
 30
0.0
 11
547.5000000000038
 21
193.1250481117167
 31
0.0
  0
LINE
  5
EE
330
1F
100
AcDbEntity
  8
LAY-10
  6
CONTINUOUS
 62
     7
100
AcDbLine
 10
542.0000000000003
 20
184.796620986967
 30
0.0
 11
547.5000000000051
 21
190.2966209869718
 31
0.0
  0
LINE
  5
EF
330
1F
100
AcDbEntity
  8
LAY-10
  6
CONTINUOUS
 62
     7
100
AcDbLine
 10
542.0000000000016
 20
181.9681938622222
 30
0.0
 11
547.5000000000026
 21
187.468193862223
 31
0.0
  0
LINE
  5
F0
330
1F
100
AcDbEntity
  8
LAY-10
  6
CONTINUOUS
 62
     7
100
AcDbLine
 10
542.000000000003
 20
179.1397667374772
 30
0.0
 11
547.5000000000038
 21
184.6397667374782
 31
0.0
  0
LINE
  5
F1
330
1F
100
AcDbEntity
  8
LAY-10
  6
CONTINUOUS
 62
     7
100
AcDbLine
 10
542.0000000000003
 20
176.3113396127285
 30
0.0
 11
547.5000000000051
 21
181.8113396127332
 31
0.0
  0
LINE
  5
F2
330
1F
100
AcDbEntity
  8
LAY-10
  6
CONTINUOUS
 62
     7
100
AcDbLine
 10
542.0000000000016
 20
173.4829124879835
 30
0.0
 11
547.5000000000065
 21
178.9829124879883
 31
0.0
  0
LINE
  5
F3
330
1F
100
AcDbEntity
  8
LAY-10
  6
CONTINUOUS
 62
     7
100
AcDbLine
 10
542.000000000003
 20
170.6544853632386
 30
0.0
 11
547.5000000000039
 21
176.1544853632395
 31
0.0
  0
LINE
  5
F4
330
1F
100
AcDbEntity
  8
LAY-10
  6
CONTINUOUS
 62
     7
100
AcDbLine
 10
542.0000000000042
 20
167.8260582384937
 30
0.0
 11
547.5000000000051
 21
173.3260582384947
 31
0.0
  0
LINE
  5
F5
330
1F
100
AcDbEntity
  8
LAY-10
  6
CONTINUOUS
 62
     7
100
AcDbLine
 10
542.0000000000016
 20
164.9976311137449
 30
0.0
 11
547.5000000000065
 21
170.4976311137498
 31
0.0
  0
LINE
  5
F6
330
1F
100
AcDbEntity
  8
LAY-10
  6
CONTINUOUS
 62
     7
100
AcDbLine
 10
542.000000000003
 20
162.169203989
 30
0.0
 11
547.500000000004
 21
167.669203989001
 31
0.0
  0
LINE
  5
F7
330
1F
100
AcDbEntity
  8
LAY-10
  6
CONTINUOUS
 62
     7
100
AcDbLine
 10
542.0000000000043
 20
159.3407768642551
 30
0.0
 11
547.5000000000051
 21
164.840776864256
 31
0.0
  0
LINE
  5
F8
330
1F
100
AcDbEntity
  8
LAY-10
  6
CONTINUOUS
 62
     7
100
AcDbLine
 10
542.0000000000017
 20
156.5123497395063
 30
0.0
 11
547.5000000000065
 21
162.0123497395111
 31
0.0
  0
LINE
  5
F9
330
1F
100
AcDbEntity
  8
LAY-10
  6
CONTINUOUS
 62
     7
100
AcDbLine
 10
542.000000000003
 20
153.6839226147615
 30
0.0
 11
547.5000000000078
 21
159.1839226147662
 31
0.0
  0
LINE
  5
FA
330
1F
100
AcDbEntity
  8
LAY-10
  6
CONTINUOUS
 62
     7
100
AcDbLine
 10
542.0000000000043
 20
150.8554954900165
 30
0.0
 11
547.5000000000052
 21
156.3554954900175
 31
0.0
  0
LINE
  5
FB
330
1F
100
AcDbEntity
  8
LAY-10
  6
CONTINUOUS
 62
     7
100
AcDbLine
 10
542.0000000000017
 20
148.0270683652678
 30
0.0
 11
547.5000000000065
 21
153.5270683652725
 31
0.0
  0
LINE
  5
FC
330
1F
100
AcDbEntity
  8
LAY-10
  6
CONTINUOUS
 62
     7
100
AcDbLine
 10
541.9999999999992
 20
145.198641240519
 30
0.0
 11
547.5000000000078
 21
150.6986412405276
 31
0.0
  0
LINE
  5
FD
330
1F
100
AcDbEntity
  8
LAY-10
  6
CONTINUOUS
 62
     7
100
AcDbLine
 10
544.8284271247442
 20
145.1986412405177
 30
0.0
 11
547.5000000000052
 21
147.8702141157788
 31
0.0
  0
CIRCLE
  5
FE
330
1F
100
AcDbEntity
  8
LAY-10
  6
CONTINUOUS
 62
     7
100
AcDbCircle
 10
465.0000000000031
 20
629.9999999999986
 30
0.0
 40
121.0000000000001
  0
CIRCLE
  5
FF
330
1F
100
AcDbEntity
  8
LAY-10
  6
CONTINUOUS
 62
     7
100
AcDbCircle
 10
465.0000000000031
 20
630.0000000000085
 30
0.0
 40
120.0000000000001
  0
CIRCLE
  5
100
330
1F
100
AcDbEntity
  8
LAY-10
  6
CONTINUOUS
 62
     7
100
AcDbCircle
 10
465.0000000000031
 20
630.0000000000085
 30
0.0
 40
115.0000000000001
  0
CIRCLE
  5
101
330
1F
100
AcDbEntity
  8
LAY-10
  6
CONTINUOUS
 62
     7
100
AcDbCircle
 10
465.0
 20
629.999999999999
 30
0.0
 40
110.0000000000058
  0
CIRCLE
  5
102
330
1F
100
AcDbEntity
  8
LAY-10
  6
CONTINUOUS
 62
     7
100
AcDbCircle
 10
465.0
 20
629.999999999999
 30
0.0
 40
111.0000000000053
  0
LINE
  5
103
330
1F
100
AcDbEntity
  8
LAY-10
  6
CONTINUOUS
 62
     7
100
AcDbLine
 10
368.2036913037491
 20
611.7592592592667
 30
0.0
 11
372.1345058700506
 21
612.4999999999985
 31
0.0
  0
LINE
  5
104
330
1F
100
AcDbEntity
  8
LAY-10
  6
CONTINUOUS
 62
     7
100
AcDbLine
 10
372.1345058700506
 20
647.4999999999987
 30
0.0
 11
368.2036913037491
 21
648.2407407407312
 31
0.0
  0
LINE
  5
105
330
1F
100
AcDbEntity
  8
LAY-10
  6
CONTINUOUS
 62
     7
100
AcDbLine
 10
367.4111111812898
 20
649.4076989651863
 30
0.0
 11
373.3076499467973
 21
648.296528132972
 31
0.0
  0
LINE
  5
106
330
1F
100
AcDbEntity
  8
LAY-10
  6
CONTINUOUS
 62
     7
100
AcDbLine
 10
367.4111111812898
 20
610.5923010348116
 30
0.0
 11
373.3076499467973
 21
611.703471867026
 31
0.0
  0
ARC
  5
107
330
1F
100
AcDbEntity
  8
LAY-10
  6
CONTINUOUS
 62
     7
100
AcDbCircle
 10
465.0
 20
629.999999999999
 30
0.0
 40
94.49999999999855
100
AcDbArc
 50
169.3280707142379
 51
190.6719292857627
  0
ARC
  5
108
330
1F
100
AcDbEntity
  8
LAY-10
  6
CONTINUOUS
 62
     7
100
AcDbCircle
 10
465.0
 20
629.999999999999
 30
0.0
 40
93.49999999999858
100
AcDbArc
 50
168.7152699454147
 51
176.1518944777721
  0
ARC
  5
109
330
1F
100
AcDbEntity
  8
LAY-10
  6
CONTINUOUS
 62
     7
100
AcDbCircle
 10
465.0
 20
629.999999999999
 30
0.0
 40
99.4999999999696
100
AcDbArc
 50
168.7522240397859
 51
191.2477759602146
  0
ARC
  5
10A
330
1F
100
AcDbEntity
  8
LAY-10
  6
CONTINUOUS
 62
     7
100
AcDbCircle
 10
465.0
 20
629.999999999999
 30
0.0
 40
98.49999999995215
100
AcDbArc
 50
169.3280707142379
 51
190.6719292857624
  0
LINE
  5
10B
330
1F
100
AcDbEntity
  8
LAY-10
  6
CONTINUOUS
 62
     7
100
AcDbLine
 10
372.1345058700506
 20
647.4999999999987
 30
0.0
 11
373.3076499467973
 21
648.296528132972
 31
0.0
  0
LINE
  5
10C
330
1F
100
AcDbEntity
  8
LAY-10
  6
CONTINUOUS
 62
     7
100
AcDbLine
 10
368.2036913037491
 20
648.2407407407312
 30
0.0
 11
367.4111111812898
 21
649.4076989651863
 31
0.0
  0
LINE
  5
10D
330
1F
100
AcDbEntity
  8
LAY-10
  6
CONTINUOUS
 62
     7
100
AcDbLine
 10
372.1345058700506
 20
612.4999999999985
 30
0.0
 11
373.3076499467973
 21
611.703471867026
 31
0.0
  0
LINE
  5
10E
330
1F
100
AcDbEntity
  8
LAY-10
  6
CONTINUOUS
 62
     7
100
AcDbLine
 10
368.2036913037491
 20
611.7592592592667
 30
0.0
 11
367.4111111812898
 21
610.5923010348116
 31
0.0
  0
LINE
  5
10F
330
1F
100
AcDbEntity
  8
LAY-10
  6
CONTINUOUS
 62
     7
100
AcDbLine
 10
375.826122948469
 20
598.7226975012517
 30
0.0
 11
372.05156730612
 21
597.3987905171933
 31
0.0
  0
LINE
  5
110
330
1F
100
AcDbEntity
  8
LAY-10
  6
CONTINUOUS
 62
     7
100
AcDbLine
 10
390.2923080468522
 20
565.8049007865534
 30
0.0
 11
393.3261229484691
 21
568.4118083687965
 31
0.0
  0
LINE
  5
111
330
1F
100
AcDbEntity
  8
LAY-10
  6
CONTINUOUS
 62
     7
100
AcDbLine
 10
370.7816936733083
 20
598.0131159234965
 30
0.0
 11
376.4438314547448
 21
599.9990831376086
 31
0.0
  0
LINE
  5
112
330
1F
100
AcDbEntity
  8
LAY-10
  6
CONTINUOUS
 62
     7
100
AcDbLine
 10
390.1893926384953
 20
564.3979952577909
 30
0.0
 11
394.7403595877174
 21
568.3085668091866
 31
0.0
  0
ARC
  5
113
330
1F
100
AcDbEntity
  8
LAY-10
  6
CONTINUOUS
 62
     7
100
AcDbCircle
 10
465.0
 20
629.999999999999
 30
0.0
 40
93.49999999999858
100
AcDbArc
 50
198.7152699454145
 51
221.2847300545859
  0
ARC
  5
114
330
1F
100
AcDbEntity
  8
LAY-10
  6
CONTINUOUS
 62
     7
100
AcDbCircle
 10
465.0
 20
629.999999999999
 30
0.0
 40
99.4999999999696
100
AcDbArc
 50
198.7522240397858
 51
221.2477759602146
  0
LINE
  5
115
330
1F
100
AcDbEntity
  8
LAY-10
  6
CONTINUOUS
 62
     7
100
AcDbLine
 10
375.826122948469
 20
598.7226975012517
 30
0.0
 11
376.4438314547448
 21
599.9990831376086
 31
0.0
  0
LINE
  5
116
330
1F
100
AcDbEntity
  8
LAY-10
  6
CONTINUOUS
 62
     7
100
AcDbLine
 10
372.05156730612
 20
597.3987905171933
 30
0.0
 11
370.7816936733083
 21
598.0131159234965
 31
0.0
  0
LINE
  5
117
330
1F
100
AcDbEntity
  8
LAY-10
  6
CONTINUOUS
 62
     7
100
AcDbLine
 10
393.3261229484691
 20
568.4118083687965
 30
0.0
 11
394.7403595877174
 21
568.3085668091866
 31
0.0
  0
LINE
  5
118
330
1F
100
AcDbEntity
  8
LAY-10
  6
CONTINUOUS
 62
     7
100
AcDbLine
 10
390.2923080468522
 20
565.8049007865534
 30
0.0
 11
390.1893926384953
 21
564.3979952577909
 31
0.0
  0
ARC
  5
119
330
1F
100
AcDbEntity
  8
LAY-10
  6
CONTINUOUS
 62
     7
100
AcDbCircle
 10
465.0
 20
629.999999999999
 30
0.0
 40
94.49999999999855
100
AcDbArc
 50
199.3280707142378
 51
220.6719292857623
  0
ARC
  5
11A
330
1F
100
AcDbEntity
  8
LAY-10
  6
CONTINUOUS
 62
     7
100
AcDbCircle
 10
465.0
 20
629.999999999999
 30
0.0
 40
98.49999999995215
100
AcDbArc
 50
199.3280707142376
 51
220.6719292857619
  0
LINE
  5
11B
330
1F
100
AcDbEntity
  8
LAY-10
  6
CONTINUOUS
 62
     7
100
AcDbLine
 10
403.4118083687976
 20
558.3261229484681
 30
0.0
 11
400.8049007865548
 21
555.2923080468508
 31
0.0
  0
LINE
  5
11C
330
1F
100
AcDbEntity
  8
LAY-10
  6
CONTINUOUS
 62
     7
100
AcDbLine
 10
432.3987905171944
 20
537.0515673061186
 30
0.0
 11
433.722697501253
 21
540.826122948468
 31
0.0
  0
LINE
  5
11D
330
1F
100
AcDbEntity
  8
LAY-10
  6
CONTINUOUS
 62
     7
100
AcDbLine
 10
399.3979952577919
 20
555.1893926384943
 30
0.0
 11
403.3085668091876
 21
559.7403595877164
 31
0.0
  0
LINE
  5
11E
330
1F
100
AcDbEntity
  8
LAY-10
  6
CONTINUOUS
 62
     7
100
AcDbLine
 10
433.0131159234982
 20
535.7816936733072
 30
0.0
 11
434.9990831376097
 21
541.4438314547438
 31
0.0
  0
ARC
  5
11F
330
1F
100
AcDbEntity
  8
LAY-10
  6
CONTINUOUS
 62
     7
100
AcDbCircle
 10
465.0
 20
629.999999999999
 30
0.0
 40
93.49999999999858
100
AcDbArc
 50
228.7152699454147
 51
251.2847300545856
  0
ARC
  5
120
330
1F
100
AcDbEntity
  8
LAY-10
  6
CONTINUOUS
 62
     7
100
AcDbCircle
 10
465.0
 20
629.999999999999
 30
0.0
 40
99.4999999999696
100
AcDbArc
 50
228.7522240397858
 51
251.2477759602145
  0
LINE
  5
121
330
1F
100
AcDbEntity
  8
LAY-10
  6
CONTINUOUS
 62
     7
100
AcDbLine
 10
403.4118083687976
 20
558.3261229484681
 30
0.0
 11
403.3085668091876
 21
559.7403595877164
 31
0.0
  0
LINE
  5
122
330
1F
100
AcDbEntity
  8
LAY-10
  6
CONTINUOUS
 62
     7
100
AcDbLine
 10
400.8049007865548
 20
555.2923080468508
 30
0.0
 11
399.3979952577919
 21
555.1893926384943
 31
0.0
  0
LINE
  5
123
330
1F
100
AcDbEntity
  8
LAY-10
  6
CONTINUOUS
 62
     7
100
AcDbLine
 10
433.722697501253
 20
540.826122948468
 30
0.0
 11
434.9990831376097
 21
541.4438314547438
 31
0.0
  0
LINE
  5
124
330
1F
100
AcDbEntity
  8
LAY-10
  6
CONTINUOUS
 62
     7
100
AcDbLine
 10
432.3987905171944
 20
537.0515673061186
 30
0.0
 11
433.0131159234982
 21
535.7816936733072
 31
0.0
  0
ARC
  5
125
330
1F
100
AcDbEntity
  8
LAY-10
  6
CONTINUOUS
 62
     7
100
AcDbCircle
 10
465.0
 20
629.999999999999
 30
0.0
 40
94.49999999999855
100
AcDbArc
 50
229.3280707142376
 51
250.6719292857622
  0
ARC
  5
126
330
1F
100
AcDbEntity
  8
LAY-10
  6
CONTINUOUS
 62
     7
100
AcDbCircle
 10
465.0
 20
629.999999999999
 30
0.0
 40
98.49999999995215
100
AcDbArc
 50
229.3280707142376
 51
250.6719292857626
  0
LINE
  5
127
330
1F
100
AcDbEntity
  8
LAY-10
  6
CONTINUOUS
 62
     7
100
AcDbLine
 10
447.5000000000002
 20
537.1345058700492
 30
0.0
 11
446.7592592592678
 21
533.2036913037477
 31
0.0
  0
LINE
  5
128
330
1F
100
AcDbEntity
  8
LAY-10
  6
CONTINUOUS
 62
     7
100
AcDbLine
 10
483.2407407407322
 20
533.2036913037477
 30
0.0
 11
482.5000000000001
 21
537.1345058700492
 31
0.0
  0
LINE
  5
129
330
1F
100
AcDbEntity
  8
LAY-10
  6
CONTINUOUS
 62
     7
100
AcDbLine
 10
445.592301034813
 20
532.4111111812887
 30
0.0
 11
446.7034718670274
 21
538.3076499467962
 31
0.0
  0
LINE
  5
12A
330
1F
100
AcDbEntity
  8
LAY-10
  6
CONTINUOUS
 62
     7
100
AcDbLine
 10
484.4076989651874
 20
532.4111111812887
 30
0.0
 11
483.296528132973
 21
538.3076499467962
 31
0.0
  0
ARC
  5
12B
330
1F
100
AcDbEntity
  8
LAY-10
  6
CONTINUOUS
 62
     7
100
AcDbCircle
 10
465.0
 20
629.999999999999
 30
0.0
 40
93.49999999999858
100
AcDbArc
 50
258.7152699454148
 51
267.364077204185
  0
ARC
  5
12C
330
1F
100
AcDbEntity
  8
LAY-10
  6
CONTINUOUS
 62
     7
100
AcDbCircle
 10
465.0
 20
629.999999999999
 30
0.0
 40
99.4999999999696
100
AcDbArc
 50
258.752224039786
 51
281.2477759602149
  0
LINE
  5
12D
330
1F
100
AcDbEntity
  8
LAY-10
  6
CONTINUOUS
 62
     7
100
AcDbLine
 10
447.4999999999999
 20
537.1345058700492
 30
0.0
 11
446.7034718670274
 21
538.3076499467962
 31
0.0
  0
LINE
  5
12E
330
1F
100
AcDbEntity
  8
LAY-10
  6
CONTINUOUS
 62
     7
100
AcDbLine
 10
446.7592592592678
 20
533.2036913037477
 30
0.0
 11
445.592301034813
 21
532.4111111812887
 31
0.0
  0
LINE
  5
12F
330
1F
100
AcDbEntity
  8
LAY-10
  6
CONTINUOUS
 62
     7
100
AcDbLine
 10
482.5000000000001
 20
537.1345058700492
 30
0.0
 11
483.296528132973
 21
538.3076499467962
 31
0.0
  0
LINE
  5
130
330
1F
100
AcDbEntity
  8
LAY-10
  6
CONTINUOUS
 62
     7
100
AcDbLine
 10
483.2407407407322
 20
533.2036913037477
 30
0.0
 11
484.4076989651874
 21
532.4111111812887
 31
0.0
  0
ARC
  5
131
330
1F
100
AcDbEntity
  8
LAY-10
  6
CONTINUOUS
 62
     7
100
AcDbCircle
 10
465.0
 20
629.999999999999
 30
0.0
 40
94.49999999999855
100
AcDbArc
 50
259.3280707142382
 51
280.671929285763
  0
ARC
  5
132
330
1F
100
AcDbEntity
  8
LAY-10
  6
CONTINUOUS
 62
     7
100
AcDbCircle
 10
465.0
 20
629.999999999999
 30
0.0
 40
98.49999999995215
100
AcDbArc
 50
259.3280707142382
 51
280.6719292857626
  0
LINE
  5
133
330
1F
100
AcDbEntity
  8
LAY-10
  6
CONTINUOUS
 62
     7
100
AcDbLine
 10
554.1738770515316
 20
598.7226975012517
 30
0.0
 11
557.9484326938807
 21
597.3987905171933
 31
0.0
  0
LINE
  5
134
330
1F
100
AcDbEntity
  8
LAY-10
  6
CONTINUOUS
 62
     7
100
AcDbLine
 10
539.7076919531485
 20
565.8049007865534
 30
0.0
 11
536.6738770515312
 21
568.4118083687965
 31
0.0
  0
LINE
  5
135
330
1F
100
AcDbEntity
  8
LAY-10
  6
CONTINUOUS
 62
     7
100
AcDbLine
 10
559.2183063266923
 20
598.0131159234965
 30
0.0
 11
553.5561685452558
 21
599.9990831376086
 31
0.0
  0
LINE
  5
136
330
1F
100
AcDbEntity
  8
LAY-10
  6
CONTINUOUS
 62
     7
100
AcDbLine
 10
539.8106073615053
 20
564.3979952577909
 30
0.0
 11
535.2596404122829
 21
568.3085668091866
 31
0.0
  0
ARC
  5
137
330
1F
100
AcDbEntity
  8
LAY-10
  6
CONTINUOUS
 62
     7
100
AcDbCircle
 10
465.0
 20
629.999999999999
 30
0.0
 40
93.49999999999858
100
AcDbArc
 50
318.7152699454148
 51
341.2847300545857
  0
ARC
  5
138
330
1F
100
AcDbEntity
  8
LAY-10
  6
CONTINUOUS
 62
     7
100
AcDbCircle
 10
465.0
 20
629.999999999999
 30
0.0
 40
99.4999999999696
100
AcDbArc
 50
318.752224039786
 51
341.2477759602147
  0
LINE
  5
139
330
1F
100
AcDbEntity
  8
LAY-10
  6
CONTINUOUS
 62
     7
100
AcDbLine
 10
554.1738770515316
 20
598.7226975012517
 30
0.0
 11
553.5561685452558
 21
599.9990831376086
 31
0.0
  0
LINE
  5
13A
330
1F
100
AcDbEntity
  8
LAY-10
  6
CONTINUOUS
 62
     7
100
AcDbLine
 10
557.9484326938807
 20
597.3987905171933
 30
0.0
 11
559.2183063266923
 21
598.0131159234965
 31
0.0
  0
LINE
  5
13B
330
1F
100
AcDbEntity
  8
LAY-10
  6
CONTINUOUS
 62
     7
100
AcDbLine
 10
536.6738770515312
 20
568.4118083687965
 30
0.0
 11
535.2596404122829
 21
568.3085668091866
 31
0.0
  0
LINE
  5
13C
330
1F
100
AcDbEntity
  8
LAY-10
  6
CONTINUOUS
 62
     7
100
AcDbLine
 10
539.7076919531485
 20
565.8049007865534
 30
0.0
 11
539.8106073615053
 21
564.3979952577909
 31
0.0
  0
ARC
  5
13D
330
1F
100
AcDbEntity
  8
LAY-10
  6
CONTINUOUS
 62
     7
100
AcDbCircle
 10
465.0
 20
629.999999999999
 30
0.0
 40
94.49999999999855
100
AcDbArc
 50
319.3280707142378
 51
340.6719292857624
  0
ARC
  5
13E
330
1F
100
AcDbEntity
  8
LAY-10
  6
CONTINUOUS
 62
     7
100
AcDbCircle
 10
465.0
 20
629.999999999999
 30
0.0
 40
98.49999999995215
100
AcDbArc
 50
319.3280707142383
 51
340.6719292857624
  0
LINE
  5
13F
330
1F
100
AcDbEntity
  8
LAY-10
  6
CONTINUOUS
 62
     7
100
AcDbLine
 10
526.5881916312028
 20
558.3261229484681
 30
0.0
 11
529.1950992134459
 21
555.2923080468508
 31
0.0
  0
LINE
  5
140
330
1F
100
AcDbEntity
  8
LAY-10
  6
CONTINUOUS
 62
     7
100
AcDbLine
 10
497.601209482806
 20
537.0515673061186
 30
0.0
 11
496.2773024987473
 21
540.826122948468
 31
0.0
  0
LINE
  5
141
330
1F
100
AcDbEntity
  8
LAY-10
  6
CONTINUOUS
 62
     7
100
AcDbLine
 10
530.6020047422085
 20
555.1893926384943
 30
0.0
 11
526.6914331908127
 21
559.7403595877164
 31
0.0
  0
LINE
  5
142
330
1F
100
AcDbEntity
  8
LAY-10
  6
CONTINUOUS
 62
     7
100
AcDbLine
 10
496.9868840765025
 20
535.7816936733072
 30
0.0
 11
495.0009168623903
 21
541.4438314547438
 31
0.0
  0
ARC
  5
143
330
1F
100
AcDbEntity
  8
LAY-10
  6
CONTINUOUS
 62
     7
100
AcDbCircle
 10
465.0
 20
629.999999999999
 30
0.0
 40
93.49999999999858
100
AcDbArc
 50
288.7152699454153
 51
311.284730054586
  0
ARC
  5
144
330
1F
100
AcDbEntity
  8
LAY-10
  6
CONTINUOUS
 62
     7
100
AcDbCircle
 10
465.0
 20
629.999999999999
 30
0.0
 40
99.4999999999696
100
AcDbArc
 50
288.752224039786
 51
311.2477759602146
  0
LINE
  5
145
330
1F
100
AcDbEntity
  8
LAY-10
  6
CONTINUOUS
 62
     7
100
AcDbLine
 10
526.5881916312028
 20
558.3261229484681
 30
0.0
 11
526.6914331908127
 21
559.7403595877164
 31
0.0
  0
LINE
  5
146
330
1F
100
AcDbEntity
  8
LAY-10
  6
CONTINUOUS
 62
     7
100
AcDbLine
 10
529.1950992134459
 20
555.2923080468508
 30
0.0
 11
530.6020047422085
 21
555.1893926384943
 31
0.0
  0
LINE
  5
147
330
1F
100
AcDbEntity
  8
LAY-10
  6
CONTINUOUS
 62
     7
100
AcDbLine
 10
496.2773024987473
 20
540.826122948468
 30
0.0
 11
495.0009168623903
 21
541.4438314547438
 31
0.0
  0
LINE
  5
148
330
1F
100
AcDbEntity
  8
LAY-10
  6
CONTINUOUS
 62
     7
100
AcDbLine
 10
497.601209482806
 20
537.0515673061186
 30
0.0
 11
496.9868840765025
 21
535.7816936733072
 31
0.0
  0
ARC
  5
149
330
1F
100
AcDbEntity
  8
LAY-10
  6
CONTINUOUS
 62
     7
100
AcDbCircle
 10
465.0
 20
629.999999999999
 30
0.0
 40
94.49999999999855
100
AcDbArc
 50
289.328070714238
 51
310.6719292857628
  0
ARC
  5
14A
330
1F
100
AcDbEntity
  8
LAY-10
  6
CONTINUOUS
 62
     7
100
AcDbCircle
 10
465.0
 20
629.999999999999
 30
0.0
 40
98.49999999995215
100
AcDbArc
 50
289.3280707142382
 51
310.671929285763
  0
LINE
  5
14B
330
1F
100
AcDbEntity
  8
LAY-10
  6
CONTINUOUS
 62
     7
100
AcDbLine
 10
375.826122948469
 20
661.2773024987456
 30
0.0
 11
372.05156730612
 21
662.6012094828046
 31
0.0
  0
LINE
  5
14C
330
1F
100
AcDbEntity
  8
LAY-10
  6
CONTINUOUS
 62
     7
100
AcDbLine
 10
390.2923080468522
 20
694.1950992134442
 30
0.0
 11
393.3261229484691
 21
691.5881916312011
 31
0.0
  0
LINE
  5
14D
330
1F
100
AcDbEntity
  8
LAY-10
  6
CONTINUOUS
 62
     7
100
AcDbLine
 10
370.7816936733083
 20
661.9868840765008
 30
0.0
 11
376.4438314547448
 21
660.0009168623893
 31
0.0
  0
LINE
  5
14E
330
1F
100
AcDbEntity
  8
LAY-10
  6
CONTINUOUS
 62
     7
100
AcDbLine
 10
390.1893926384953
 20
695.6020047422068
 30
0.0
 11
394.7403595877174
 21
691.6914331908114
 31
0.0
  0
ARC
  5
14F
330
1F
100
AcDbEntity
  8
LAY-10
  6
CONTINUOUS
 62
     7
100
AcDbCircle
 10
465.0
 20
629.999999999999
 30
0.0
 40
93.49999999999858
100
AcDbArc
 50
138.7152699454146
 51
161.2847300545858
  0
ARC
  5
150
330
1F
100
AcDbEntity
  8
LAY-10
  6
CONTINUOUS
 62
     7
100
AcDbCircle
 10
465.0
 20
629.999999999999
 30
0.0
 40
99.4999999999696
100
AcDbArc
 50
138.7522240397859
 51
161.2477759602151
  0
LINE
  5
151
330
1F
100
AcDbEntity
  8
LAY-10
  6
CONTINUOUS
 62
     7
100
AcDbLine
 10
375.826122948469
 20
661.2773024987456
 30
0.0
 11
376.4438314547448
 21
660.0009168623893
 31
0.0
  0
LINE
  5
152
330
1F
100
AcDbEntity
  8
LAY-10
  6
CONTINUOUS
 62
     7
100
AcDbLine
 10
372.05156730612
 20
662.6012094828046
 30
0.0
 11
370.7816936733083
 21
661.9868840765008
 31
0.0
  0
LINE
  5
153
330
1F
100
AcDbEntity
  8
LAY-10
  6
CONTINUOUS
 62
     7
100
AcDbLine
 10
393.3261229484691
 20
691.5881916312011
 30
0.0
 11
394.7403595877174
 21
691.6914331908114
 31
0.0
  0
LINE
  5
154
330
1F
100
AcDbEntity
  8
LAY-10
  6
CONTINUOUS
 62
     7
100
AcDbLine
 10
390.2923080468522
 20
694.1950992134442
 30
0.0
 11
390.1893926384953
 21
695.6020047422068
 31
0.0
  0
ARC
  5
155
330
1F
100
AcDbEntity
  8
LAY-10
  6
CONTINUOUS
 62
     7
100
AcDbCircle
 10
465.0
 20
629.999999999999
 30
0.0
 40
94.49999999999855
100
AcDbArc
 50
139.3280707142379
 51
160.6719292857627
  0
ARC
  5
156
330
1F
100
AcDbEntity
  8
LAY-10
  6
CONTINUOUS
 62
     7
100
AcDbCircle
 10
465.0
 20
629.999999999999
 30
0.0
 40
98.49999999995215
100
AcDbArc
 50
139.3280707142379
 51
160.6719292857626
  0
LINE
  5
157
330
1F
100
AcDbEntity
  8
LAY-10
  6
CONTINUOUS
 62
     7
100
AcDbLine
 10
403.4118083687976
 20
701.6738770515295
 30
0.0
 11
400.8049007865548
 21
704.7076919531468
 31
0.0
  0
LINE
  5
158
330
1F
100
AcDbEntity
  8
LAY-10
  6
CONTINUOUS
 62
     7
100
AcDbLine
 10
432.3987905171944
 20
722.948432693879
 30
0.0
 11
433.722697501253
 21
719.17387705153
 31
0.0
  0
LINE
  5
159
330
1F
100
AcDbEntity
  8
LAY-10
  6
CONTINUOUS
 62
     7
100
AcDbLine
 10
399.3979952577919
 20
704.8106073615037
 30
0.0
 11
403.3085668091876
 21
700.2596404122816
 31
0.0
  0
LINE
  5
15A
330
1F
100
AcDbEntity
  8
LAY-10
  6
CONTINUOUS
 62
     7
100
AcDbLine
 10
433.0131159234982
 20
724.218306326691
 30
0.0
 11
434.9990831376097
 21
718.5561685452539
 31
0.0
  0
LINE
  5
15B
330
1F
100
AcDbEntity
  8
LAY-10
  6
CONTINUOUS
 62
     7
100
AcDbLine
 10
403.4118083687976
 20
701.6738770515295
 30
0.0
 11
403.3085668091876
 21
700.2596404122816
 31
0.0
  0
LINE
  5
15C
330
1F
100
AcDbEntity
  8
LAY-10
  6
CONTINUOUS
 62
     7
100
AcDbLine
 10
400.8049007865548
 20
704.7076919531468
 30
0.0
 11
399.3979952577919
 21
704.8106073615037
 31
0.0
  0
LINE
  5
15D
330
1F
100
AcDbEntity
  8
LAY-10
  6
CONTINUOUS
 62
     7
100
AcDbLine
 10
433.722697501253
 20
719.17387705153
 30
0.0
 11
434.9990831376097
 21
718.5561685452539
 31
0.0
  0
LINE
  5
15E
330
1F
100
AcDbEntity
  8
LAY-10
  6
CONTINUOUS
 62
     7
100
AcDbLine
 10
432.3987905171944
 20
722.948432693879
 30
0.0
 11
433.0131159234982
 21
724.218306326691
 31
0.0
  0
LINE
  5
15F
330
1F
100
AcDbEntity
  8
LAY-10
  6
CONTINUOUS
 62
     7
100
AcDbLine
 10
447.5000000000002
 20
722.8654941299484
 30
0.0
 11
446.7592592592678
 21
726.7963086962499
 31
0.0
  0
LINE
  5
160
330
1F
100
AcDbEntity
  8
LAY-10
  6
CONTINUOUS
 62
     7
100
AcDbLine
 10
483.2407407407322
 20
726.7963086962499
 30
0.0
 11
482.5000000000001
 21
722.8654941299484
 31
0.0
  0
LINE
  5
161
330
1F
100
AcDbEntity
  8
LAY-10
  6
CONTINUOUS
 62
     7
100
AcDbLine
 10
445.592301034813
 20
727.5888888187093
 30
0.0
 11
446.7034718670274
 21
721.6923500532017
 31
0.0
  0
LINE
  5
162
330
1F
100
AcDbEntity
  8
LAY-10
  6
CONTINUOUS
 62
     7
100
AcDbLine
 10
484.4076989651874
 20
727.5888888187093
 30
0.0
 11
483.296528132973
 21
721.6923500532017
 31
0.0
  0
LINE
  5
163
330
1F
100
AcDbEntity
  8
LAY-10
  6
CONTINUOUS
 62
     7
100
AcDbLine
 10
447.4999999999999
 20
722.8654941299484
 30
0.0
 11
446.7034718670274
 21
721.6923500532017
 31
0.0
  0
LINE
  5
164
330
1F
100
AcDbEntity
  8
LAY-10
  6
CONTINUOUS
 62
     7
100
AcDbLine
 10
446.7592592592678
 20
726.7963086962499
 30
0.0
 11
445.592301034813
 21
727.5888888187093
 31
0.0
  0
LINE
  5
165
330
1F
100
AcDbEntity
  8
LAY-10
  6
CONTINUOUS
 62
     7
100
AcDbLine
 10
482.5000000000001
 20
722.8654941299484
 30
0.0
 11
483.296528132973
 21
721.6923500532017
 31
0.0
  0
LINE
  5
166
330
1F
100
AcDbEntity
  8
LAY-10
  6
CONTINUOUS
 62
     7
100
AcDbLine
 10
483.2407407407322
 20
726.7963086962499
 30
0.0
 11
484.4076989651874
 21
727.5888888187093
 31
0.0
  0
LINE
  5
167
330
1F
100
AcDbEntity
  8
LAY-10
  6
CONTINUOUS
 62
     7
100
AcDbLine
 10
554.1738770515316
 20
661.2773024987456
 30
0.0
 11
557.9484326938807
 21
662.6012094828046
 31
0.0
  0
LINE
  5
168
330
1F
100
AcDbEntity
  8
LAY-10
  6
CONTINUOUS
 62
     7
100
AcDbLine
 10
539.7076919531485
 20
694.1950992134442
 30
0.0
 11
536.6738770515312
 21
691.5881916312011
 31
0.0
  0
LINE
  5
169
330
1F
100
AcDbEntity
  8
LAY-10
  6
CONTINUOUS
 62
     7
100
AcDbLine
 10
559.2183063266923
 20
661.9868840765008
 30
0.0
 11
553.5561685452558
 21
660.0009168623893
 31
0.0
  0
LINE
  5
16A
330
1F
100
AcDbEntity
  8
LAY-10
  6
CONTINUOUS
 62
     7
100
AcDbLine
 10
539.8106073615053
 20
695.6020047422068
 30
0.0
 11
535.2596404122829
 21
691.6914331908114
 31
0.0
  0
ARC
  5
16B
330
1F
100
AcDbEntity
  8
LAY-10
  6
CONTINUOUS
 62
     7
100
AcDbCircle
 10
465.0
 20
629.999999999999
 30
0.0
 40
93.49999999999858
100
AcDbArc
 50
18.71526994541425
 51
41.28473005458532
  0
ARC
  5
16C
330
1F
100
AcDbEntity
  8
LAY-10
  6
CONTINUOUS
 62
     7
100
AcDbCircle
 10
465.0
 20
629.999999999999
 30
0.0
 40
99.4999999999696
100
AcDbArc
 50
18.75222403978532
 51
41.24777596021406
  0
LINE
  5
16D
330
1F
100
AcDbEntity
  8
LAY-10
  6
CONTINUOUS
 62
     7
100
AcDbLine
 10
554.1738770515316
 20
661.2773024987456
 30
0.0
 11
553.5561685452558
 21
660.0009168623893
 31
0.0
  0
LINE
  5
16E
330
1F
100
AcDbEntity
  8
LAY-10
  6
CONTINUOUS
 62
     7
100
AcDbLine
 10
557.9484326938807
 20
662.6012094828046
 30
0.0
 11
559.2183063266923
 21
661.9868840765008
 31
0.0
  0
LINE
  5
16F
330
1F
100
AcDbEntity
  8
LAY-10
  6
CONTINUOUS
 62
     7
100
AcDbLine
 10
536.6738770515312
 20
691.5881916312011
 30
0.0
 11
535.2596404122829
 21
691.6914331908114
 31
0.0
  0
LINE
  5
170
330
1F
100
AcDbEntity
  8
LAY-10
  6
CONTINUOUS
 62
     7
100
AcDbLine
 10
539.7076919531485
 20
694.1950992134442
 30
0.0
 11
539.8106073615053
 21
695.6020047422068
 31
0.0
  0
ARC
  5
171
330
1F
100
AcDbEntity
  8
LAY-10
  6
CONTINUOUS
 62
     7
100
AcDbCircle
 10
465.0
 20
629.999999999999
 30
0.0
 40
94.49999999999855
100
AcDbArc
 50
19.3280707142373
 51
40.67192928576208
  0
ARC
  5
172
330
1F
100
AcDbEntity
  8
LAY-10
  6
CONTINUOUS
 62
     7
100
AcDbCircle
 10
465.0
 20
629.999999999999
 30
0.0
 40
98.49999999995215
100
AcDbArc
 50
19.32807071423708
 51
40.67192928576191
  0
LINE
  5
173
330
1F
100
AcDbEntity
  8
LAY-10
  6
CONTINUOUS
 62
     7
100
AcDbLine
 10
526.5881916312028
 20
701.6738770515295
 30
0.0
 11
529.1950992134459
 21
704.7076919531468
 31
0.0
  0
LINE
  5
174
330
1F
100
AcDbEntity
  8
LAY-10
  6
CONTINUOUS
 62
     7
100
AcDbLine
 10
497.601209482806
 20
722.948432693879
 30
0.0
 11
496.2773024987473
 21
719.17387705153
 31
0.0
  0
LINE
  5
175
330
1F
100
AcDbEntity
  8
LAY-10
  6
CONTINUOUS
 62
     7
100
AcDbLine
 10
530.6020047422085
 20
704.8106073615037
 30
0.0
 11
526.6914331908127
 21
700.2596404122816
 31
0.0
  0
LINE
  5
176
330
1F
100
AcDbEntity
  8
LAY-10
  6
CONTINUOUS
 62
     7
100
AcDbLine
 10
496.9868840765025
 20
724.218306326691
 30
0.0
 11
495.0009168623903
 21
718.5561685452539
 31
0.0
  0
ARC
  5
177
330
1F
100
AcDbEntity
  8
LAY-10
  6
CONTINUOUS
 62
     7
100
AcDbCircle
 10
465.0
 20
629.999999999999
 30
0.0
 40
93.49999999999858
100
AcDbArc
 50
48.71526994541426
 51
71.28473005458497
  0
ARC
  5
178
330
1F
100
AcDbEntity
  8
LAY-10
  6
CONTINUOUS
 62
     7
100
AcDbCircle
 10
465.0
 20
629.999999999999
 30
0.0
 40
99.4999999999696
100
AcDbArc
 50
48.75222403978528
 51
71.24777596021431
  0
LINE
  5
179
330
1F
100
AcDbEntity
  8
LAY-10
  6
CONTINUOUS
 62
     7
100
AcDbLine
 10
526.5881916312028
 20
701.6738770515295
 30
0.0
 11
526.6914331908127
 21
700.2596404122816
 31
0.0
  0
LINE
  5
17A
330
1F
100
AcDbEntity
  8
LAY-10
  6
CONTINUOUS
 62
     7
100
AcDbLine
 10
529.1950992134459
 20
704.7076919531468
 30
0.0
 11
530.6020047422085
 21
704.8106073615037
 31
0.0
  0
LINE
  5
17B
330
1F
100
AcDbEntity
  8
LAY-10
  6
CONTINUOUS
 62
     7
100
AcDbLine
 10
496.2773024987473
 20
719.17387705153
 30
0.0
 11
495.0009168623903
 21
718.5561685452539
 31
0.0
  0
LINE
  5
17C
330
1F
100
AcDbEntity
  8
LAY-10
  6
CONTINUOUS
 62
     7
100
AcDbLine
 10
497.601209482806
 20
722.948432693879
 30
0.0
 11
496.9868840765025
 21
724.218306326691
 31
0.0
  0
ARC
  5
17D
330
1F
100
AcDbEntity
  8
LAY-10
  6
CONTINUOUS
 62
     7
100
AcDbCircle
 10
465.0
 20
629.999999999999
 30
0.0
 40
94.49999999999855
100
AcDbArc
 50
49.32807071423714
 51
70.67192928576205
  0
ARC
  5
17E
330
1F
100
AcDbEntity
  8
LAY-10
  6
CONTINUOUS
 62
     7
100
AcDbCircle
 10
465.0
 20
629.999999999999
 30
0.0
 40
98.49999999995215
100
AcDbArc
 50
49.32807071423737
 51
70.67192928576205
  0
ARC
  5
17F
330
1F
100
AcDbEntity
  8
LAY-10
  6
CONTINUOUS
 62
     7
100
AcDbCircle
 10
465.0
 20
629.999999999999
 30
0.0
 40
93.49999999999858
100
AcDbArc
 50
183.8481055222286
 51
191.2847300545853
  0
LINE
  5
180
330
1F
100
AcDbEntity
  8
LAY-10
  6
CONTINUOUS
 62
     7
100
AcDbLine
 10
371.5008160200855
 20
635.999999999999
 30
0.0
 11
371.7107982689525
 21
636.2749374804549
 31
0.0
  0
LINE
  5
181
330
1F
100
AcDbEntity
  8
LAY-10
  6
CONTINUOUS
 62
     7
100
AcDbLine
 10
371.5008160200855
 20
623.999999999999
 30
0.0
 11
371.7107982689525
 21
623.7250625195423
 31
0.0
  0
LINE
  5
182
330
1F
100
AcDbEntity
  8
LAY-10
  6
CONTINUOUS
 62
     7
100
AcDbLine
 10
557.86549412995
 20
647.4999999999987
 30
0.0
 11
561.7963086962516
 21
648.2407407407312
 31
0.0
  0
LINE
  5
183
330
1F
100
AcDbEntity
  8
LAY-10
  6
CONTINUOUS
 62
     7
100
AcDbLine
 10
561.7963086962516
 20
611.7592592592667
 30
0.0
 11
557.86549412995
 21
612.4999999999985
 31
0.0
  0
LINE
  5
184
330
1F
100
AcDbEntity
  8
LAY-10
  6
CONTINUOUS
 62
     7
100
AcDbLine
 10
562.5888888187109
 20
649.4076989651863
 30
0.0
 11
556.692350053203
 21
648.296528132972
 31
0.0
  0
LINE
  5
185
330
1F
100
AcDbEntity
  8
LAY-10
  6
CONTINUOUS
 62
     7
100
AcDbLine
 10
562.5888888187109
 20
610.5923010348116
 30
0.0
 11
556.692350053203
 21
611.703471867026
 31
0.0
  0
ARC
  5
186
330
1F
100
AcDbEntity
  8
LAY-10
  6
CONTINUOUS
 62
     7
100
AcDbCircle
 10
465.0
 20
629.999999999999
 30
0.0
 40
99.4999999999696
100
AcDbArc
 50
348.7522240397862
 51
11.24777596021423
  0
LINE
  5
187
330
1F
100
AcDbEntity
  8
LAY-10
  6
CONTINUOUS
 62
     7
100
AcDbLine
 10
557.86549412995
 20
647.4999999999987
 30
0.0
 11
556.692350053203
 21
648.296528132972
 31
0.0
  0
LINE
  5
188
330
1F
100
AcDbEntity
  8
LAY-10
  6
CONTINUOUS
 62
     7
100
AcDbLine
 10
561.7963086962516
 20
648.2407407407312
 30
0.0
 11
562.5888888187109
 21
649.4076989651863
 31
0.0
  0
LINE
  5
189
330
1F
100
AcDbEntity
  8
LAY-10
  6
CONTINUOUS
 62
     7
100
AcDbLine
 10
557.86549412995
 20
612.4999999999985
 30
0.0
 11
556.692350053203
 21
611.703471867026
 31
0.0
  0
LINE
  5
18A
330
1F
100
AcDbEntity
  8
LAY-10
  6
CONTINUOUS
 62
     7
100
AcDbLine
 10
561.7963086962516
 20
611.7592592592667
 30
0.0
 11
562.5888888187109
 21
610.5923010348116
 31
0.0
  0
ARC
  5
18B
330
1F
100
AcDbEntity
  8
LAY-10
  6
CONTINUOUS
 62
     7
100
AcDbCircle
 10
465.0
 20
629.999999999999
 30
0.0
 40
94.49999999999855
100
AcDbArc
 50
349.3280707142382
 51
10.67192928576219
  0
ARC
  5
18C
330
1F
100
AcDbEntity
  8
LAY-10
  6
CONTINUOUS
 62
     7
100
AcDbCircle
 10
465.0
 20
629.999999999999
 30
0.0
 40
98.49999999995215
100
AcDbArc
 50
349.3280707142379
 51
10.67192928576196
  0
LINE
  5
18D
330
1F
100
AcDbEntity
  8
LAY-10
  6
CONTINUOUS
 62
     7
100
AcDbLine
 10
558.4991839799151
 20
635.999999999999
 30
0.0
 11
558.2892017310481
 21
636.2749374804549
 31
0.0
  0
LINE
  5
18E
330
1F
100
AcDbEntity
  8
LAY-10
  6
CONTINUOUS
 62
     7
100
AcDbLine
 10
558.4991839799151
 20
623.999999999999
 30
0.0
 11
558.2892017310481
 21
623.7250625195423
 31
0.0
  0
ARC
  5
18F
330
1F
100
AcDbEntity
  8
LAY-10
  6
CONTINUOUS
 62
     7
100
AcDbCircle
 10
465.0
 20
629.999999999999
 30
0.0
 40
93.49999999999858
100
AcDbArc
 50
348.715269945415
 51
356.1518944777719
  0
ARC
  5
190
330
1F
100
AcDbEntity
  8
LAY-10
  6
CONTINUOUS
 62
     7
100
AcDbCircle
 10
465.0
 20
629.999999999999
 30
0.0
 40
93.49999999999858
100
AcDbArc
 50
3.84810552222809
 51
11.28473005458565
  0
ARC
  5
191
330
1F
100
AcDbEntity
  8
LAY-10
  6
CONTINUOUS
 62
     7
100
AcDbCircle
 10
465.0
 20
629.999999999999
 30
0.0
 40
93.49999999999858
100
AcDbArc
 50
78.71526994541456
 51
87.36407720418462
  0
ARC
  5
192
330
1F
100
AcDbEntity
  8
LAY-10
  6
CONTINUOUS
 62
     7
100
AcDbCircle
 10
465.0
 20
629.999999999999
 30
0.0
 40
99.4999999999696
100
AcDbArc
 50
78.75222403978546
 51
90.0
  0
ARC
  5
193
330
1F
100
AcDbEntity
  8
LAY-10
  6
CONTINUOUS
 62
     7
100
AcDbCircle
 10
465.0
 20
629.999999999999
 30
0.0
 40
99.4999999999696
100
AcDbArc
 50
90.0
 51
101.2477759602144
  0
ARC
  5
194
330
1F
100
AcDbEntity
  8
LAY-10
  6
CONTINUOUS
 62
     7
100
AcDbCircle
 10
465.0
 20
629.999999999999
 30
0.0
 40
94.49999999999855
100
AcDbArc
 50
79.32807071423761
 51
100.6719292857626
  0
ARC
  5
195
330
1F
100
AcDbEntity
  8
LAY-10
  6
CONTINUOUS
 62
     7
100
AcDbCircle
 10
465.0
 20
629.999999999999
 30
0.0
 40
98.49999999995215
100
AcDbArc
 50
79.32807071423767
 51
100.6719292857624
  0
ARC
  5
196
330
1F
100
AcDbEntity
  8
LAY-10
  6
CONTINUOUS
 62
     7
100
AcDbCircle
 10
465.0
 20
629.999999999999
 30
0.0
 40
93.69150124162785
100
AcDbArc
 50
87.55310999505524
 51
92.446890004945
  0
ARC
  5
197
330
1F
100
AcDbEntity
  8
LAY-10
  6
CONTINUOUS
 62
     7
100
AcDbCircle
 10
465.0
 20
629.999999999999
 30
0.0
 40
93.49999999999858
100
AcDbArc
 50
92.63592279581538
 51
101.2847300545857
  0
LINE
  5
198
330
1F
100
AcDbEntity
  8
LAY-10
  6
CONTINUOUS
 62
     7
100
AcDbLine
 10
460.7000000000002
 20
723.4010706576724
 30
0.0
 11
461.0000000000002
 21
723.6060756837381
 31
0.0
  0
LINE
  5
199
330
1F
100
AcDbEntity
  8
LAY-10
  6
CONTINUOUS
 62
     7
100
AcDbLine
 10
469.3000000000002
 20
723.4010706576724
 30
0.0
 11
469.0000000000005
 21
723.6060756837381
 31
0.0
  0
ARC
  5
19A
330
1F
100
AcDbEntity
  8
LAY-10
  6
CONTINUOUS
 62
     7
100
AcDbCircle
 10
465.0
 20
629.999999999999
 30
0.0
 40
93.69150124162785
100
AcDbArc
 50
267.5531099950554
 51
272.4468900049449
  0
LINE
  5
19B
330
1F
100
AcDbEntity
  8
LAY-10
  6
CONTINUOUS
 62
     7
100
AcDbLine
 10
460.7000000000002
 20
536.5989293423252
 30
0.0
 11
461.0000000000002
 21
536.3939243162595
 31
0.0
  0
LINE
  5
19C
330
1F
100
AcDbEntity
  8
LAY-10
  6
CONTINUOUS
 62
     7
100
AcDbLine
 10
469.3000000000002
 20
536.5989293423252
 30
0.0
 11
469.0000000000005
 21
536.3939243162595
 31
0.0
  0
ARC
  5
19D
330
1F
100
AcDbEntity
  8
LAY-10
  6
CONTINUOUS
 62
     7
100
AcDbCircle
 10
465.0
 20
629.999999999999
 30
0.0
 40
93.49999999999858
100
AcDbArc
 50
272.6359227958154
 51
281.2847300545861
  0
ARC
  5
19E
330
1F
100
AcDbEntity
  8
LAY-10
  6
CONTINUOUS
 62
     7
100
AcDbCircle
 10
465.0
 20
629.999999999999
 30
0.0
 40
93.49999999999858
100
AcDbArc
 50
108.7152699454145
 51
131.2847300545855
  0
ARC
  5
19F
330
1F
100
AcDbEntity
  8
LAY-10
  6
CONTINUOUS
 62
     7
100
AcDbCircle
 10
465.0
 20
629.999999999999
 30
0.0
 40
99.4999999999696
100
AcDbArc
 50
108.7522240397854
 51
131.2477759602147
  0
ARC
  5
1A0
330
1F
100
AcDbEntity
  8
LAY-10
  6
CONTINUOUS
 62
     7
100
AcDbCircle
 10
465.0
 20
629.999999999999
 30
0.0
 40
98.49999999995215
100
AcDbArc
 50
109.328070714236
 51
130.6719292857627
  0
ARC
  5
1A1
330
1F
100
AcDbEntity
  8
LAY-10
  6
CONTINUOUS
 62
     7
100
AcDbCircle
 10
465.0
 20
629.999999999999
 30
0.0
 40
94.49999999999855
100
AcDbArc
 50
109.3280707142455
 51
130.6719292857625
  0
ARC
  5
1A2
330
1F
100
AcDbEntity
  8
LAY-10
  6
CONTINUOUS
 62
     7
100
AcDbCircle
 10
380.4999999999953
 20
630.0000000000003
 30
0.0
 40
4.000000000000071
100
AcDbArc
 50
270.0
 51
90.0
  0
LINE
  5
1A3
330
1F
100
AcDbEntity
  8
LAY-10
  6
CONTINUOUS
 62
     7
100
AcDbLine
 10
467.6516183622939
 20
660.4306130471343
 30
0.0
 11
471.3525870244665
 21
702.90382369452
 31
0.0
  0
LINE
  5
1A4
330
1F
100
AcDbEntity
  8
LAY-10
  6
CONTINUOUS
 62
     7
100
AcDbLine
 10
462.3483816377087
 20
660.4306130471343
 30
0.0
 11
458.6474129755361
 21
702.90382369452
 31
0.0
  0
ARC
  5
1A5
330
1F
100
AcDbEntity
  8
LAY-10
  6
CONTINUOUS
 62
     7
100
AcDbCircle
 10
465.0000000000012
 20
660.6616658993513
 30
0.0
 40
2.66166589935055
100
AcDbArc
 50
184.9799775084821
 51
355.0200224915179
  0
ARC
  5
1A6
330
1F
100
AcDbEntity
  8
LAY-10
  6
CONTINUOUS
 62
     7
100
AcDbCircle
 10
454.5130926345015
 20
658.8125411866233
 30
0.0
 40
2.66166589935055
100
AcDbArc
 50
204.9799775084777
 51
15.02002249151959
  0
LINE
  5
1A7
330
1F
100
AcDbEntity
  8
LAY-10
  6
CONTINUOUS
 62
     7
100
AcDbLine
 10
457.0838235723193
 20
659.5023294186999
 30
0.0
 11
446.0349029208024
 21
700.6798978774137
 31
0.0
  0
LINE
  5
1A8
330
1F
100
AcDbEntity
  8
LAY-10
  6
CONTINUOUS
 62
     7
100
AcDbLine
 10
452.1004111559456
 20
657.6885156340672
 30
0.0
 11
434.0959446212221
 21
696.3344724282209
 31
0.0
  0
ARC
  5
1A9
330
1F
100
AcDbEntity
  8
LAY-10
  6
CONTINUOUS
 62
     7
100
AcDbCircle
 10
445.29106106755
 20
653.4881987789687
 30
0.0
 40
2.66166589935055
100
AcDbArc
 50
224.9799775084765
 51
35.02002249151949
  0
LINE
  5
1AA
330
1F
100
AcDbEntity
  8
LAY-10
  6
CONTINUOUS
 62
     7
100
AcDbLine
 10
447.4708364898443
 20
655.0156294543602
 30
0.0
 11
423.0046894199129
 21
689.9309332520943
 31
0.0
  0
LINE
  5
1AB
330
1F
100
AcDbEntity
  8
LAY-10
  6
CONTINUOUS
 62
     7
100
AcDbLine
 10
443.4083214664311
 20
651.606774596562
 30
0.0
 11
413.2719614408705
 21
681.7642047945311
 31
0.0
  0
ARC
  5
1AC
330
1F
100
AcDbEntity
  8
LAY-10
  6
CONTINUOUS
 62
     7
100
AcDbCircle
 10
438.4462184088121
 20
645.3308329496757
 30
0.0
 40
2.66166589935055
100
AcDbArc
 50
244.9799775084763
 51
55.0200224915227
  0
LINE
  5
1AD
330
1F
100
AcDbEntity
  8
LAY-10
  6
CONTINUOUS
 62
     7
100
AcDbLine
 10
439.9721252295951
 20
647.5116753864539
 30
0.0
 11
405.0397301597575
 21
671.9534135901982
 31
0.0
  0
LINE
  5
1AE
330
1F
100
AcDbEntity
  8
LAY-10
  6
CONTINUOUS
 62
     7
100
AcDbLine
 10
437.3205068673024
 20
642.9189376606804
 30
0.0
 11
398.6871431352926
 21
660.9504101043219
 31
0.0
  0
ARC
  5
1AF
330
1F
100
AcDbEntity
  8
LAY-10
  6
CONTINUOUS
 62
     7
100
AcDbCircle
 10
434.8041537020501
 20
635.3243424076545
 30
0.0
 40
2.66166589935055
100
AcDbArc
 50
264.9799775084778
 51
75.02002249152041
  0
LINE
  5
1B0
330
1F
100
AcDbEntity
  8
LAY-10
  6
CONTINUOUS
 62
     7
100
AcDbLine
 10
435.4921450387492
 20
637.8955548221379
 30
0.0
 11
394.3068643616719
 21
648.9156930828826
 31
0.0
  0
LINE
  5
1B1
330
1F
100
AcDbEntity
  8
LAY-10
  6
CONTINUOUS
 62
     7
100
AcDbLine
 10
434.5712476457887
 20
632.672886179707
 30
0.0
 11
392.1006340411338
 21
636.4035391761266
 31
0.0
  0
ARC
  5
1B2
330
1F
100
AcDbEntity
  8
LAY-10
  6
CONTINUOUS
 62
     7
100
AcDbCircle
 10
434.8041537020501
 20
624.6756575923455
 30
0.0
 40
2.66166589935055
100
AcDbArc
 50
284.9799775084755
 51
95.02002249151865
  0
LINE
  5
1B3
330
1F
100
AcDbEntity
  8
LAY-10
  6
CONTINUOUS
 62
     7
100
AcDbLine
 10
434.5712476457887
 20
627.327113820293
 30
0.0
 11
392.1006340411338
 21
623.5964608238734
 31
0.0
  0
LINE
  5
1B4
330
1F
100
AcDbEntity
  8
LAY-10
  6
CONTINUOUS
 62
     7
100
AcDbLine
 10
435.492145038749
 20
622.1044451778623
 30
0.0
 11
394.3068643616719
 21
611.0843069171176
 31
0.0
  0
ARC
  5
1B5
330
1F
100
AcDbEntity
  8
LAY-10
  6
CONTINUOUS
 62
     7
100
AcDbCircle
 10
438.4462184088121
 20
614.6691670503245
 30
0.0
 40
2.66166589935055
100
AcDbArc
 50
304.9799775084774
 51
115.0200224915282
  0
LINE
  5
1B6
330
1F
100
AcDbEntity
  8
LAY-10
  6
CONTINUOUS
 62
     7
100
AcDbLine
 10
437.3205068673022
 20
617.0810623393196
 30
0.0
 11
398.6871431352922
 21
599.0495898956782
 31
0.0
  0
LINE
  5
1B7
330
1F
100
AcDbEntity
  8
LAY-10
  6
CONTINUOUS
 62
     7
100
AcDbLine
 10
439.972125229595
 20
612.4883246135461
 30
0.0
 11
405.0397301597575
 21
588.0465864098019
 31
0.0
  0
ARC
  5
1B8
330
1F
100
AcDbEntity
  8
LAY-10
  6
CONTINUOUS
 62
     7
100
AcDbCircle
 10
445.29106106755
 20
606.5118012210314
 30
0.0
 40
2.66166589935055
100
AcDbArc
 50
324.9799775084744
 51
135.0200224915209
  0
LINE
  5
1B9
330
1F
100
AcDbEntity
  8
LAY-10
  6
CONTINUOUS
 62
     7
100
AcDbLine
 10
443.4083214664311
 20
608.393225403438
 30
0.0
 11
413.2719614408705
 21
578.2357952054689
 31
0.0
  0
LINE
  5
1BA
330
1F
100
AcDbEntity
  8
LAY-10
  6
CONTINUOUS
 62
     7
100
AcDbLine
 10
447.4708364898441
 20
604.9843705456399
 30
0.0
 11
423.0046894199129
 21
570.0690667479056
 31
0.0
  0
ARC
  5
1BB
330
1F
100
AcDbEntity
  8
LAY-10
  6
CONTINUOUS
 62
     7
100
AcDbCircle
 10
454.5130926345012
 20
601.1874588133767
 30
0.0
 40
2.66166589935055
100
AcDbArc
 50
344.9799775084805
 51
155.020022491518
  0
LINE
  5
1BC
330
1F
100
AcDbEntity
  8
LAY-10
  6
CONTINUOUS
 62
     7
100
AcDbLine
 10
452.1004111559453
 20
602.3114843659329
 30
0.0
 11
434.0959446212219
 21
563.665527571779
 31
0.0
  0
ARC
  5
1BD
330
1F
100
AcDbEntity
  8
LAY-10
  6
CONTINUOUS
 62
     7
100
AcDbCircle
 10
465.0000000000012
 20
630.0000000000002
 30
0.0
 40
73.1800715440005
100
AcDbArc
 50
94.97997750847952
 51
105.0200224915202
  0
ARC
  5
1BE
330
1F
100
AcDbEntity
  8
LAY-10
  6
CONTINUOUS
 62
     7
100
AcDbCircle
 10
465.0000000000012
 20
630.0000000000002
 30
0.0
 40
73.1800715440005
100
AcDbArc
 50
114.9799775084797
 51
125.0200224915206
  0
ARC
  5
1BF
330
1F
100
AcDbEntity
  8
LAY-10
  6
CONTINUOUS
 62
     7
100
AcDbCircle
 10
465.0000000000012
 20
630.0000000000002
 30
0.0
 40
73.1800715440005
100
AcDbArc
 50
134.9799775084797
 51
145.0200224915205
  0
ARC
  5
1C0
330
1F
100
AcDbEntity
  8
LAY-10
  6
CONTINUOUS
 62
     7
100
AcDbCircle
 10
465.0000000000012
 20
630.0000000000002
 30
0.0
 40
73.1800715440005
100
AcDbArc
 50
154.9799775084797
 51
165.0200224915205
  0
ARC
  5
1C1
330
1F
100
AcDbEntity
  8
LAY-10
  6
CONTINUOUS
 62
     7
100
AcDbCircle
 10
465.0000000000012
 20
630.0000000000002
 30
0.0
 40
73.1800715440005
100
AcDbArc
 50
174.9799775084799
 51
185.0200224915204
  0
ARC
  5
1C2
330
1F
100
AcDbEntity
  8
LAY-10
  6
CONTINUOUS
 62
     7
100
AcDbCircle
 10
465.0000000000012
 20
630.0000000000002
 30
0.0
 40
73.1800715440005
100
AcDbArc
 50
194.9799775084799
 51
205.0200224915203
  0
ARC
  5
1C3
330
1F
100
AcDbEntity
  8
LAY-10
  6
CONTINUOUS
 62
     7
100
AcDbCircle
 10
465.0000000000012
 20
630.0000000000002
 30
0.0
 40
73.1800715440005
100
AcDbArc
 50
214.9799775084796
 51
225.0200224915204
  0
ARC
  5
1C4
330
1F
100
AcDbEntity
  8
LAY-10
  6
CONTINUOUS
 62
     7
100
AcDbCircle
 10
465.0000000000012
 20
630.0000000000002
 30
0.0
 40
73.1800715440005
100
AcDbArc
 50
234.9799775084796
 51
245.0200224915206
  0
ARC
  5
1C5
330
1F
100
AcDbEntity
  8
LAY-10
  6
CONTINUOUS
 62
     7
100
AcDbCircle
 10
465.0000000000012
 20
630.0000000000002
 30
0.0
 40
69.11836509645775
100
AcDbArc
 50
105.0200224915203
 51
114.9799775084796
  0
ARC
  5
1C6
330
1F
100
AcDbEntity
  8
LAY-10
  6
CONTINUOUS
 62
     7
100
AcDbCircle
 10
465.0000000000012
 20
630.0000000000002
 30
0.0
 40
69.11836509645775
100
AcDbArc
 50
125.0200224915205
 51
134.9799775084797
  0
ARC
  5
1C7
330
1F
100
AcDbEntity
  8
LAY-10
  6
CONTINUOUS
 62
     7
100
AcDbCircle
 10
465.0000000000012
 20
630.0000000000002
 30
0.0
 40
69.11836509645775
100
AcDbArc
 50
165.0200224915206
 51
174.9799775084798
  0
ARC
  5
1C8
330
1F
100
AcDbEntity
  8
LAY-10
  6
CONTINUOUS
 62
     7
100
AcDbCircle
 10
465.0000000000012
 20
630.0000000000002
 30
0.0
 40
69.11836509645775
100
AcDbArc
 50
185.0200224915205
 51
194.9799775084799
  0
ARC
  5
1C9
330
1F
100
AcDbEntity
  8
LAY-10
  6
CONTINUOUS
 62
     7
100
AcDbCircle
 10
465.0000000000012
 20
630.0000000000002
 30
0.0
 40
69.11836509645775
100
AcDbArc
 50
225.0200224915202
 51
234.9799775084797
  0
ARC
  5
1CA
330
1F
100
AcDbEntity
  8
LAY-10
  6
CONTINUOUS
 62
     7
100
AcDbCircle
 10
465.0000000000012
 20
660.6616658993513
 30
0.0
 40
3.66166589935055
100
AcDbArc
 50
184.9799775084783
 51
355.0200224915182
  0
LINE
  5
1CB
330
1F
100
AcDbEntity
  8
LAY-10
  6
CONTINUOUS
 62
     7
100
AcDbLine
 10
468.6478434568633
 20
660.3438054383081
 30
0.0
 11
472.3488121190358
 21
702.8170160856938
 31
0.0
  0
LINE
  5
1CC
330
1F
100
AcDbEntity
  8
LAY-10
  6
CONTINUOUS
 62
     7
100
AcDbLine
 10
457.6511878809667
 20
702.8170160856938
 30
0.0
 11
461.3521565431391
 21
660.3438054383081
 31
0.0
  0
LINE
  5
1CD
330
1F
100
AcDbEntity
  8
LAY-10
  6
CONTINUOUS
 62
     7
100
AcDbLine
 10
433.189489202026
 20
695.9121709091497
 30
0.0
 11
451.1939557367494
 21
657.2662141149958
 31
0.0
  0
ARC
  5
1CE
330
1F
100
AcDbEntity
  8
LAY-10
  6
CONTINUOUS
 62
     7
100
AcDbCircle
 10
454.5130926345015
 20
658.8125411866233
 30
0.0
 40
3.66166589935055
100
AcDbArc
 50
204.9799775084776
 51
15.02002249151794
  0
LINE
  5
1CF
330
1F
100
AcDbEntity
  8
LAY-10
  6
CONTINUOUS
 62
     7
100
AcDbLine
 10
458.0496588931403
 20
659.7614859988872
 30
0.0
 11
447.0007382416237
 21
700.9390544576008
 31
0.0
  0
LINE
  5
1D0
330
1F
100
AcDbEntity
  8
LAY-10
  6
CONTINUOUS
 62
     7
100
AcDbLine
 10
412.5646075984602
 20
681.0573451609214
 30
0.0
 11
442.7009676240204
 21
650.8999149629523
 31
0.0
  0
ARC
  5
1D1
330
1F
100
AcDbEntity
  8
LAY-10
  6
CONTINUOUS
 62
     7
100
AcDbCircle
 10
445.29106106755
 20
653.4881987789687
 30
0.0
 40
3.66166589935055
100
AcDbArc
 50
224.9799775084758
 51
35.0200224915227
  0
LINE
  5
1D2
330
1F
100
AcDbEntity
  8
LAY-10
  6
CONTINUOUS
 62
     7
100
AcDbLine
 10
448.2897880430149
 20
655.5894921152466
 30
0.0
 11
423.8236409730838
 21
690.5047959129807
 31
0.0
  0
LINE
  5
1D3
330
1F
100
AcDbEntity
  8
LAY-10
  6
CONTINUOUS
 62
     7
100
AcDbLine
 10
398.2642081824932
 20
660.0442500601242
 30
0.0
 11
436.8975719145029
 21
642.0127776164827
 31
0.0
  0
ARC
  5
1D4
330
1F
100
AcDbEntity
  8
LAY-10
  6
CONTINUOUS
 62
     7
100
AcDbCircle
 10
438.4462184088121
 20
645.3308329496757
 30
0.0
 40
3.66166589935055
100
AcDbArc
 50
244.9799775084758
 51
55.02002249151646
  0
LINE
  5
1D5
330
1F
100
AcDbEntity
  8
LAY-10
  6
CONTINUOUS
 62
     7
100
AcDbLine
 10
440.545415371365
 20
648.3310278218256
 30
0.0
 11
405.6130203015275
 21
672.7727660255698
 31
0.0
  0
LINE
  5
1D6
330
1F
100
AcDbEntity
  8
LAY-10
  6
CONTINUOUS
 62
     7
100
AcDbLine
 10
392.0131301751083
 20
635.4073749961691
 30
0.0
 11
434.4837437797631
 21
631.6767219997495
 31
0.0
  0
ARC
  5
1D7
330
1F
100
AcDbEntity
  8
LAY-10
  6
CONTINUOUS
 62
     7
100
AcDbCircle
 10
434.8041537020501
 20
635.3243424076545
 30
0.0
 40
3.66166589935055
100
AcDbArc
 50
264.9799775084757
 51
75.02002249152054
  0
LINE
  5
1D8
330
1F
100
AcDbEntity
  8
LAY-10
  6
CONTINUOUS
 62
     7
100
AcDbLine
 10
435.7506265171597
 20
638.8615710359347
 30
0.0
 11
394.5653458400823
 21
649.8817092966797
 31
0.0
  0
LINE
  5
1D9
330
1F
100
AcDbEntity
  8
LAY-10
  6
CONTINUOUS
 62
     7
100
AcDbLine
 10
394.5653458400823
 20
610.1182907033206
 30
0.0
 11
435.7506265171597
 21
621.1384289640653
 31
0.0
  0
ARC
  5
1DA
330
1F
100
AcDbEntity
  8
LAY-10
  6
CONTINUOUS
 62
     7
100
AcDbCircle
 10
434.8041537020501
 20
624.6756575923455
 30
0.0
 40
3.66166589935055
100
AcDbArc
 50
284.979977508474
 51
95.02002249151889
  0
LINE
  5
1DB
330
1F
100
AcDbEntity
  8
LAY-10
  6
CONTINUOUS
 62
     7
100
AcDbLine
 10
434.4837437797631
 20
628.3232780002508
 30
0.0
 11
392.0131301751083
 21
624.5926250038311
 31
0.0
  0
LINE
  5
1DC
330
1F
100
AcDbEntity
  8
LAY-10
  6
CONTINUOUS
 62
     7
100
AcDbLine
 10
405.6130203015275
 20
587.2272339744304
 30
0.0
 11
440.545415371365
 21
611.6689721781746
 31
0.0
  0
ARC
  5
1DD
330
1F
100
AcDbEntity
  8
LAY-10
  6
CONTINUOUS
 62
     7
100
AcDbCircle
 10
438.4462184088121
 20
614.6691670503245
 30
0.0
 40
3.66166589935055
100
AcDbArc
 50
304.9799775084722
 51
115.020022491521
  0
LINE
  5
1DE
330
1F
100
AcDbEntity
  8
LAY-10
  6
CONTINUOUS
 62
     7
100
AcDbLine
 10
436.8975719145029
 20
617.9872223835173
 30
0.0
 11
398.2642081824929
 21
599.9557499398759
 31
0.0
  0
LINE
  5
1DF
330
1F
100
AcDbEntity
  8
LAY-10
  6
CONTINUOUS
 62
     7
100
AcDbLine
 10
423.8236409730835
 20
569.4952040870194
 30
0.0
 11
448.2897880430149
 21
604.4105078847537
 31
0.0
  0
ARC
  5
1E0
330
1F
100
AcDbEntity
  8
LAY-10
  6
CONTINUOUS
 62
     7
100
AcDbCircle
 10
445.29106106755
 20
606.5118012210314
 30
0.0
 40
3.66166589935055
100
AcDbArc
 50
324.9799775084763
 51
135.0200224915199
  0
LINE
  5
1E1
330
1F
100
AcDbEntity
  8
LAY-10
  6
CONTINUOUS
 62
     7
100
AcDbLine
 10
442.7009676240204
 20
609.1000850370477
 30
0.0
 11
412.5646075984598
 21
578.9426548390786
 31
0.0
  0
LINE
  5
1E2
330
1F
100
AcDbEntity
  8
LAY-10
  6
CONTINUOUS
 62
     7
100
AcDbLine
 10
451.1939557367494
 20
602.7337858850041
 30
0.0
 11
433.1894892020257
 21
564.0878290908503
 31
0.0
  0
TEXT
  5
1E3
330
1F
100
AcDbEntity
  8
LAY-10
  6
CONTINUOUS
 62
     7
100
AcDbText
 10
489.7821154532589
 20
708.5025643481882
 30
0.0
 40
5.456692828292274
  1
Ｘ
 50
166.5538006542029
 41
1.2
  7
EXCADSTD
100
AcDbText
  0
TEXT
  5
1E4
330
1F
100
AcDbEntity
  8
LAY-10
  6
CONTINUOUS
 62
     7
100
AcDbText
 10
481.6584764206128
 20
710.449053281317
 30
0.0
 40
5.456692828292274
  1
－
 50
171.9322803925228
 41
1.2
  7
EXCADSTD
100
AcDbText
  0
TEXT
  5
1E5
330
1F
100
AcDbEntity
  8
LAY-10
  6
CONTINUOUS
 62
     7
100
AcDbText
 10
473.3881508875171
 20
711.6255080726928
 30
0.0
 40
5.456692828292274
  1
９
 50
177.3107601308411
 41
1.2
  7
EXCADSTD
100
AcDbText
  0
TEXT
  5
1E6
330
1F
100
AcDbEntity
  8
LAY-10
  6
CONTINUOUS
 62
     7
100
AcDbText
 10
465.0439633476048
 20
712.0215694294293
 30
0.0
 40
5.456692828292274
  1
１
 50
182.6892398691588
 41
1.2
  7
EXCADSTD
100
AcDbText
  0
TEXT
  5
1E7
330
1F
100
AcDbEntity
  8
LAY-10
  6
CONTINUOUS
 62
     7
100
AcDbText
 10
456.6993886876794
 20
711.6337498264426
 30
0.0
 40
5.456692828292274
  1
２
 50
188.0677196074772
 41
1.2
  7
EXCADSTD
100
AcDbText
  0
TEXT
  5
1E8
330
1F
100
AcDbEntity
  8
LAY-10
  6
CONTINUOUS
 62
     7
100
AcDbText
 10
448.4279052033368
 20
710.4654642159123
 30
0.0
 40
5.456692828292274
  1
５
 50
193.4461993457969
 41
1.2
  7
EXCADSTD
100
AcDbText
  0
LINE
  5
1E9
330
1F
100
AcDbEntity
  8
LAY-10
  6
CONTINUOUS
 62
     7
100
AcDbLine
 10
373.5450930786118
 20
640.0000000000001
 30
0.0
 11
396.6088573453619
 21
640.0000000000001
 31
0.0
  0
LINE
  5
1EA
330
1F
100
AcDbEntity
  8
LAY-10
  6
CONTINUOUS
 62
     7
100
AcDbLine
 10
373.5450930786118
 20
620.0000000000001
 30
0.0
 11
396.6088573453619
 21
620.0000000000001
 31
0.0
  0
ARC
  5
1EB
330
1F
100
AcDbEntity
  8
LAY-10
  6
CONTINUOUS
 62
     7
100
AcDbCircle
 10
465.0000000000012
 20
630.0000000000002
 30
0.0
 40
69.11836509645775
100
AcDbArc
 50
94.62410707526655
 51
94.9799775084797
  0
ARC
  5
1EC
330
1F
100
AcDbEntity
  8
LAY-10
  6
CONTINUOUS
 62
     7
100
AcDbCircle
 10
459.2665576120178
 20
700.8868781395878
 30
0.0
 40
2.0
100
AcDbArc
 50
274.6241070752675
 51
342.8573227692627
  0
ARC
  5
1ED
330
1F
100
AcDbEntity
  8
LAY-10
  6
CONTINUOUS
 62
     7
100
AcDbCircle
 10
465.0000000000012
 20
630.0000000000002
 30
0.0
 40
69.11836509645775
100
AcDbArc
 50
85.02002249152031
 51
85.37589292473878
  0
ARC
  5
1EE
330
1F
100
AcDbEntity
  8
LAY-10
  6
CONTINUOUS
 62
     7
100
AcDbCircle
 10
464.999999999998
 20
699.11836509646
 30
0.0
 40
4.0
100
AcDbArc
 50
17.14267723074512
 51
162.8573227692603
  0
ARC
  5
1EF
330
1F
100
AcDbEntity
  8
LAY-10
  6
CONTINUOUS
 62
     7
100
AcDbCircle
 10
470.7334423879779
 20
700.8868781395882
 30
0.0
 40
2.0
100
AcDbArc
 50
197.14267723074
 51
265.3758929247408
  0
ARC
  5
1F0
330
1F
100
AcDbEntity
  8
LAY-10
  6
CONTINUOUS
 62
     7
100
AcDbCircle
 10
406.4768839301333
 20
589.5912541710809
 30
0.0
 40
2.0
100
AcDbArc
 50
34.62410707526366
 51
102.8573227692654
  0
ARC
  5
1F1
330
1F
100
AcDbEntity
  8
LAY-10
  6
CONTINUOUS
 62
     7
100
AcDbCircle
 10
405.1417399584159
 20
595.44081745177
 30
0.0
 40
4.0
100
AcDbArc
 50
137.1426772307445
 51
282.8573227692618
  0
ARC
  5
1F2
330
1F
100
AcDbEntity
  8
LAY-10
  6
CONTINUOUS
 62
     7
100
AcDbCircle
 10
400.7434415421528
 20
599.5218676893311
 30
0.0
 40
2.0
100
AcDbArc
 50
317.1426772307424
 51
25.37589292473859
  0
ARC
  5
1F3
330
1F
100
AcDbEntity
  8
LAY-10
  6
CONTINUOUS
 62
     7
100
AcDbCircle
 10
465.0000000000012
 20
630.0000000000002
 30
0.0
 40
69.11836509645775
100
AcDbArc
 50
205.0200224915203
 51
205.3758929247353
  0
ARC
  5
1F4
330
1F
100
AcDbEntity
  8
LAY-10
  6
CONTINUOUS
 62
     7
100
AcDbCircle
 10
465.0000000000012
 20
630.0000000000002
 30
0.0
 40
69.11836509645775
100
AcDbArc
 50
214.6241070752627
 51
214.9799775084797
  0
ARC
  5
1F5
330
1F
100
AcDbEntity
  8
LAY-10
  6
CONTINUOUS
 62
     7
100
AcDbCircle
 10
405.1417399584159
 20
664.5591825482301
 30
0.0
 40
4.0
100
AcDbArc
 50
77.14267723074497
 51
222.8573227692613
  0
ARC
  5
1F6
330
1F
100
AcDbEntity
  8
LAY-10
  6
CONTINUOUS
 62
     7
100
AcDbCircle
 10
400.7434415421532
 20
660.4781323106685
 30
0.0
 40
2.0
100
AcDbArc
 50
334.6241070752731
 51
42.85732276926694
  0
ARC
  5
1F7
330
1F
100
AcDbEntity
  8
LAY-10
  6
CONTINUOUS
 62
     7
100
AcDbCircle
 10
406.4768839301327
 20
670.4087458289193
 30
0.0
 40
2.0
100
AcDbArc
 50
257.1426772307418
 51
325.3758929247355
  0
ARC
  5
1F8
330
1F
100
AcDbEntity
  8
LAY-10
  6
CONTINUOUS
 62
     7
100
AcDbCircle
 10
465.0000000000012
 20
630.0000000000002
 30
0.0
 40
69.11836509645775
100
AcDbArc
 50
145.0200224915206
 51
145.3758929247379
  0
ARC
  5
1F9
330
1F
100
AcDbEntity
  8
LAY-10
  6
CONTINUOUS
 62
     7
100
AcDbCircle
 10
465.0000000000012
 20
630.0000000000002
 30
0.0
 40
69.11836509645775
100
AcDbArc
 50
154.6241070752653
 51
154.9799775084797
  0
LINE
  5
1FA
330
1F
100
AcDbEntity
  8
LAY-10
  6
CONTINUOUS
 62
     7
100
AcDbLine
 10
464.9999999999962
 20
552.7188021073252
 30
0.0
 11
457.0000000799965
 21
548.099999999996
 31
0.0
  0
LINE
  5
1FB
330
1F
100
AcDbEntity
  8
LAY-10
  6
CONTINUOUS
 62
     7
100
AcDbLine
 10
464.9999999999952
 20
543.481197892665
 30
0.0
 11
457.0000000799953
 21
548.099999999994
 31
0.0
  0
LINE
  5
1FC
330
1F
100
AcDbEntity
  8
LAY-10
  6
CONTINUOUS
 62
     7
100
AcDbLine
 10
464.9999999999965
 20
552.7188021073252
 30
0.0
 11
472.9999999199965
 21
548.099999999996
 31
0.0
  0
LINE
  5
1FD
330
1F
100
AcDbEntity
  8
LAY-10
  6
CONTINUOUS
 62
     7
100
AcDbLine
 10
464.9999999999976
 20
543.481197892665
 30
0.0
 11
472.9999999199977
 21
548.099999999994
 31
0.0
  0
TEXT
  5
1FE
330
1F
100
AcDbEntity
  8
LAY-10
  6
CONTINUOUS
 62
     7
100
AcDbText
 10
460.5600000503964
 20
545.8896199008389
 30
0.0
 40
4.365432544280815
  1
ＳＦ
 41
0.9959848942389818
  7
EXCADSTD
100
AcDbText
  0
ARC
  5
1FF
330
1F
100
AcDbEntity
  8
LAY-10
  6
CONTINUOUS
 62
     7
100
AcDbCircle
 10
549.5000000000072
 20
630.0000000000003
 30
0.0
 40
4.000000000000071
100
AcDbArc
 50
90.0
 51
270.0
  0
ARC
  5
200
330
1F
100
AcDbEntity
  8
LAY-10
  6
CONTINUOUS
 62
     7
100
AcDbCircle
 10
475.4869073655009
 20
658.8125411866233
 30
0.0
 40
2.66166589935055
100
AcDbArc
 50
164.9799775084804
 51
335.0200224915224
  0
LINE
  5
201
330
1F
100
AcDbEntity
  8
LAY-10
  6
CONTINUOUS
 62
     7
100
AcDbLine
 10
472.9161764276831
 20
659.5023294186999
 30
0.0
 11
483.9650970791999
 21
700.6798978774137
 31
0.0
  0
LINE
  5
202
330
1F
100
AcDbEntity
  8
LAY-10
  6
CONTINUOUS
 62
     7
100
AcDbLine
 10
477.8995888440568
 20
657.6885156340672
 30
0.0
 11
495.9040553787803
 21
696.3344724282209
 31
0.0
  0
ARC
  5
203
330
1F
100
AcDbEntity
  8
LAY-10
  6
CONTINUOUS
 62
     7
100
AcDbCircle
 10
484.7089389324524
 20
653.4881987789687
 30
0.0
 40
2.66166589935055
100
AcDbArc
 50
144.9799775084798
 51
315.0200224915201
  0
LINE
  5
204
330
1F
100
AcDbEntity
  8
LAY-10
  6
CONTINUOUS
 62
     7
100
AcDbLine
 10
482.5291635101581
 20
655.0156294543602
 30
0.0
 11
506.9953105800894
 21
689.9309332520943
 31
0.0
  0
LINE
  5
205
330
1F
100
AcDbEntity
  8
LAY-10
  6
CONTINUOUS
 62
     7
100
AcDbLine
 10
486.5916785335713
 20
651.606774596562
 30
0.0
 11
516.728038559132
 21
681.7642047945311
 31
0.0
  0
ARC
  5
206
330
1F
100
AcDbEntity
  8
LAY-10
  6
CONTINUOUS
 62
     7
100
AcDbCircle
 10
491.5537815911903
 20
645.3308329496757
 30
0.0
 40
2.66166589935055
100
AcDbArc
 50
124.9799775084784
 51
295.0200224915228
  0
LINE
  5
207
330
1F
100
AcDbEntity
  8
LAY-10
  6
CONTINUOUS
 62
     7
100
AcDbLine
 10
490.0278747704073
 20
647.5116753864539
 30
0.0
 11
524.9602698402449
 21
671.9534135901982
 31
0.0
  0
LINE
  5
208
330
1F
100
AcDbEntity
  8
LAY-10
  6
CONTINUOUS
 62
     7
100
AcDbLine
 10
492.6794931327
 20
642.9189376606804
 30
0.0
 11
531.3128568647099
 21
660.9504101043219
 31
0.0
  0
ARC
  5
209
330
1F
100
AcDbEntity
  8
LAY-10
  6
CONTINUOUS
 62
     7
100
AcDbCircle
 10
495.1958462979522
 20
635.3243424076545
 30
0.0
 40
2.66166589935055
100
AcDbArc
 50
104.9799775084796
 51
275.0200224915223
  0
LINE
  5
20A
330
1F
100
AcDbEntity
  8
LAY-10
  6
CONTINUOUS
 62
     7
100
AcDbLine
 10
494.5078549612532
 20
637.8955548221379
 30
0.0
 11
535.6931356383305
 21
648.9156930828826
 31
0.0
  0
LINE
  5
20B
330
1F
100
AcDbEntity
  8
LAY-10
  6
CONTINUOUS
 62
     7
100
AcDbLine
 10
495.4287523542137
 20
632.672886179707
 30
0.0
 11
537.8993659588685
 21
636.4035391761266
 31
0.0
  0
ARC
  5
20C
330
1F
100
AcDbEntity
  8
LAY-10
  6
CONTINUOUS
 62
     7
100
AcDbCircle
 10
495.1958462979522
 20
624.6756575923455
 30
0.0
 40
2.66166589935055
100
AcDbArc
 50
84.97997750848141
 51
255.0200224915246
  0
LINE
  5
20D
330
1F
100
AcDbEntity
  8
LAY-10
  6
CONTINUOUS
 62
     7
100
AcDbLine
 10
495.4287523542137
 20
627.327113820293
 30
0.0
 11
537.8993659588685
 21
623.5964608238734
 31
0.0
  0
LINE
  5
20E
330
1F
100
AcDbEntity
  8
LAY-10
  6
CONTINUOUS
 62
     7
100
AcDbLine
 10
494.5078549612534
 20
622.1044451778623
 30
0.0
 11
535.6931356383305
 21
611.0843069171176
 31
0.0
  0
ARC
  5
20F
330
1F
100
AcDbEntity
  8
LAY-10
  6
CONTINUOUS
 62
     7
100
AcDbCircle
 10
491.5537815911903
 20
614.6691670503245
 30
0.0
 40
2.66166589935055
100
AcDbArc
 50
64.9799775084719
 51
235.0200224915247
  0
LINE
  5
210
330
1F
100
AcDbEntity
  8
LAY-10
  6
CONTINUOUS
 62
     7
100
AcDbLine
 10
492.6794931327001
 20
617.0810623393196
 30
0.0
 11
531.3128568647102
 21
599.0495898956782
 31
0.0
  0
LINE
  5
211
330
1F
100
AcDbEntity
  8
LAY-10
  6
CONTINUOUS
 62
     7
100
AcDbLine
 10
490.0278747704074
 20
612.4883246135461
 30
0.0
 11
524.9602698402449
 21
588.0465864098019
 31
0.0
  0
ARC
  5
212
330
1F
100
AcDbEntity
  8
LAY-10
  6
CONTINUOUS
 62
     7
100
AcDbCircle
 10
484.7089389324524
 20
606.5118012210314
 30
0.0
 40
2.66166589935055
100
AcDbArc
 50
44.97997750847911
 51
215.020022491525
  0
LINE
  5
213
330
1F
100
AcDbEntity
  8
LAY-10
  6
CONTINUOUS
 62
     7
100
AcDbLine
 10
486.5916785335713
 20
608.393225403438
 30
0.0
 11
516.728038559132
 21
578.2357952054689
 31
0.0
  0
LINE
  5
214
330
1F
100
AcDbEntity
  8
LAY-10
  6
CONTINUOUS
 62
     7
100
AcDbLine
 10
482.5291635101583
 20
604.9843705456399
 30
0.0
 11
506.9953105800894
 21
570.0690667479056
 31
0.0
  0
ARC
  5
215
330
1F
100
AcDbEntity
  8
LAY-10
  6
CONTINUOUS
 62
     7
100
AcDbCircle
 10
475.4869073655012
 20
601.1874588133767
 30
0.0
 40
2.66166589935055
100
AcDbArc
 50
24.9799775084826
 51
195.0200224915197
  0
LINE
  5
216
330
1F
100
AcDbEntity
  8
LAY-10
  6
CONTINUOUS
 62
     7
100
AcDbLine
 10
477.8995888440571
 20
602.3114843659329
 30
0.0
 11
495.9040553787805
 21
563.665527571779
 31
0.0
  0
ARC
  5
217
330
1F
100
AcDbEntity
  8
LAY-10
  6
CONTINUOUS
 62
     7
100
AcDbCircle
 10
465.0000000000012
 20
630.0000000000002
 30
0.0
 40
73.1800715440005
100
AcDbArc
 50
54.97997750847946
 51
65.02002249152036
  0
ARC
  5
218
330
1F
100
AcDbEntity
  8
LAY-10
  6
CONTINUOUS
 62
     7
100
AcDbCircle
 10
465.0000000000012
 20
630.0000000000002
 30
0.0
 40
73.1800715440005
100
AcDbArc
 50
34.97997750847956
 51
45.02002249152036
  0
ARC
  5
219
330
1F
100
AcDbEntity
  8
LAY-10
  6
CONTINUOUS
 62
     7
100
AcDbCircle
 10
465.0000000000012
 20
630.0000000000002
 30
0.0
 40
73.1800715440005
100
AcDbArc
 50
14.97997750847956
 51
25.02002249152029
  0
ARC
  5
21A
330
1F
100
AcDbEntity
  8
LAY-10
  6
CONTINUOUS
 62
     7
100
AcDbCircle
 10
465.0000000000012
 20
630.0000000000002
 30
0.0
 40
73.1800715440005
100
AcDbArc
 50
354.9799775084799
 51
5.020022491520108
  0
ARC
  5
21B
330
1F
100
AcDbEntity
  8
LAY-10
  6
CONTINUOUS
 62
     7
100
AcDbCircle
 10
465.0000000000012
 20
630.0000000000002
 30
0.0
 40
73.1800715440005
100
AcDbArc
 50
334.9799775084802
 51
345.0200224915203
  0
ARC
  5
21C
330
1F
100
AcDbEntity
  8
LAY-10
  6
CONTINUOUS
 62
     7
100
AcDbCircle
 10
465.0000000000012
 20
630.0000000000002
 30
0.0
 40
73.1800715440005
100
AcDbArc
 50
314.9799775084802
 51
325.0200224915208
  0
ARC
  5
21D
330
1F
100
AcDbEntity
  8
LAY-10
  6
CONTINUOUS
 62
     7
100
AcDbCircle
 10
465.0000000000012
 20
630.0000000000002
 30
0.0
 40
73.1800715440005
100
AcDbArc
 50
294.9799775084794
 51
305.0200224915208
  0
ARC
  5
21E
330
1F
100
AcDbEntity
  8
LAY-10
  6
CONTINUOUS
 62
     7
100
AcDbCircle
 10
465.0000000000012
 20
630.0000000000002
 30
0.0
 40
69.11836509645775
100
AcDbArc
 50
65.02002249152059
 51
74.97997750847998
  0
ARC
  5
21F
330
1F
100
AcDbEntity
  8
LAY-10
  6
CONTINUOUS
 62
     7
100
AcDbCircle
 10
465.0000000000012
 20
630.0000000000002
 30
0.0
 40
69.11836509645775
100
AcDbArc
 50
45.02002249152013
 51
54.97997750847951
  0
ARC
  5
220
330
1F
100
AcDbEntity
  8
LAY-10
  6
CONTINUOUS
 62
     7
100
AcDbCircle
 10
465.0000000000012
 20
630.0000000000002
 30
0.0
 40
69.11836509645775
100
AcDbArc
 50
5.020022491520222
 51
14.97997750847961
  0
ARC
  5
221
330
1F
100
AcDbEntity
  8
LAY-10
  6
CONTINUOUS
 62
     7
100
AcDbCircle
 10
465.0000000000012
 20
630.0000000000002
 30
0.0
 40
69.11836509645775
100
AcDbArc
 50
345.0200224915204
 51
354.9799775084799
  0
ARC
  5
222
330
1F
100
AcDbEntity
  8
LAY-10
  6
CONTINUOUS
 62
     7
100
AcDbCircle
 10
465.0000000000012
 20
630.0000000000002
 30
0.0
 40
69.11836509645775
100
AcDbArc
 50
305.0200224915204
 51
314.9799775084803
  0
LINE
  5
223
330
1F
100
AcDbEntity
  8
LAY-10
  6
CONTINUOUS
 62
     7
100
AcDbLine
 10
496.8105107979763
 20
695.9121709091497
 30
0.0
 11
478.806044263253
 21
657.2662141149958
 31
0.0
  0
ARC
  5
224
330
1F
100
AcDbEntity
  8
LAY-10
  6
CONTINUOUS
 62
     7
100
AcDbCircle
 10
475.4869073655009
 20
658.8125411866233
 30
0.0
 40
3.66166589935055
100
AcDbArc
 50
164.9799775084823
 51
335.0200224915221
  0
LINE
  5
225
330
1F
100
AcDbEntity
  8
LAY-10
  6
CONTINUOUS
 62
     7
100
AcDbLine
 10
471.9503411068621
 20
659.7614859988872
 30
0.0
 11
482.9992617583787
 21
700.9390544576008
 31
0.0
  0
LINE
  5
226
330
1F
100
AcDbEntity
  8
LAY-10
  6
CONTINUOUS
 62
     7
100
AcDbLine
 10
517.4353924015423
 20
681.0573451609214
 30
0.0
 11
487.2990323759819
 21
650.8999149629523
 31
0.0
  0
ARC
  5
227
330
1F
100
AcDbEntity
  8
LAY-10
  6
CONTINUOUS
 62
     7
100
AcDbCircle
 10
484.7089389324524
 20
653.4881987789687
 30
0.0
 40
3.66166589935055
100
AcDbArc
 50
144.9799775084778
 51
315.0200224915237
  0
LINE
  5
228
330
1F
100
AcDbEntity
  8
LAY-10
  6
CONTINUOUS
 62
     7
100
AcDbLine
 10
481.7102119569875
 20
655.5894921152466
 30
0.0
 11
506.1763590269187
 21
690.5047959129807
 31
0.0
  0
LINE
  5
229
330
1F
100
AcDbEntity
  8
LAY-10
  6
CONTINUOUS
 62
     7
100
AcDbLine
 10
531.7357918175093
 20
660.0442500601242
 30
0.0
 11
493.1024280854995
 21
642.0127776164827
 31
0.0
  0
ARC
  5
22A
330
1F
100
AcDbEntity
  8
LAY-10
  6
CONTINUOUS
 62
     7
100
AcDbCircle
 10
491.5537815911903
 20
645.3308329496757
 30
0.0
 40
3.66166589935055
100
AcDbArc
 50
124.9799775084843
 51
295.0200224915242
  0
LINE
  5
22B
330
1F
100
AcDbEntity
  8
LAY-10
  6
CONTINUOUS
 62
     7
100
AcDbLine
 10
489.4545846286374
 20
648.3310278218256
 30
0.0
 11
524.3869796984749
 21
672.7727660255698
 31
0.0
  0
LINE
  5
22C
330
1F
100
AcDbEntity
  8
LAY-10
  6
CONTINUOUS
 62
     7
100
AcDbLine
 10
537.9868698248941
 20
635.4073749961691
 30
0.0
 11
495.5162562202393
 21
631.6767219997495
 31
0.0
  0
ARC
  5
22D
330
1F
100
AcDbEntity
  8
LAY-10
  6
CONTINUOUS
 62
     7
100
AcDbCircle
 10
495.1958462979522
 20
635.3243424076545
 30
0.0
 40
3.66166589935055
100
AcDbArc
 50
104.9799775084795
 51
275.0200224915243
  0
LINE
  5
22E
330
1F
100
AcDbEntity
  8
LAY-10
  6
CONTINUOUS
 62
     7
100
AcDbLine
 10
494.2493734828427
 20
638.8615710359347
 30
0.0
 11
535.4346541599201
 21
649.8817092966797
 31
0.0
  0
LINE
  5
22F
330
1F
100
AcDbEntity
  8
LAY-10
  6
CONTINUOUS
 62
     7
100
AcDbLine
 10
535.4346541599201
 20
610.1182907033206
 30
0.0
 11
494.2493734828427
 21
621.1384289640653
 31
0.0
  0
ARC
  5
230
330
1F
100
AcDbEntity
  8
LAY-10
  6
CONTINUOUS
 62
     7
100
AcDbCircle
 10
495.1958462979522
 20
624.6756575923455
 30
0.0
 40
3.66166589935055
100
AcDbArc
 50
84.97997750848118
 51
255.0200224915262
  0
LINE
  5
231
330
1F
100
AcDbEntity
  8
LAY-10
  6
CONTINUOUS
 62
     7
100
AcDbLine
 10
495.5162562202393
 20
628.3232780002508
 30
0.0
 11
537.9868698248941
 21
624.5926250038311
 31
0.0
  0
LINE
  5
232
330
1F
100
AcDbEntity
  8
LAY-10
  6
CONTINUOUS
 62
     7
100
AcDbLine
 10
524.3869796984749
 20
587.2272339744304
 30
0.0
 11
489.4545846286374
 21
611.6689721781746
 31
0.0
  0
ARC
  5
233
330
1F
100
AcDbEntity
  8
LAY-10
  6
CONTINUOUS
 62
     7
100
AcDbCircle
 10
491.5537815911903
 20
614.6691670503245
 30
0.0
 40
3.66166589935055
100
AcDbArc
 50
64.9799775084798
 51
235.0200224915293
  0
LINE
  5
234
330
1F
100
AcDbEntity
  8
LAY-10
  6
CONTINUOUS
 62
     7
100
AcDbLine
 10
493.1024280854995
 20
617.9872223835173
 30
0.0
 11
531.7357918175095
 21
599.9557499398759
 31
0.0
  0
LINE
  5
235
330
1F
100
AcDbEntity
  8
LAY-10
  6
CONTINUOUS
 62
     7
100
AcDbLine
 10
506.1763590269189
 20
569.4952040870194
 30
0.0
 11
481.7102119569875
 21
604.4105078847537
 31
0.0
  0
ARC
  5
236
330
1F
100
AcDbEntity
  8
LAY-10
  6
CONTINUOUS
 62
     7
100
AcDbCircle
 10
484.7089389324524
 20
606.5118012210314
 30
0.0
 40
3.66166589935055
100
AcDbArc
 50
44.97997750848083
 51
215.0200224915233
  0
LINE
  5
237
330
1F
100
AcDbEntity
  8
LAY-10
  6
CONTINUOUS
 62
     7
100
AcDbLine
 10
487.2990323759819
 20
609.1000850370477
 30
0.0
 11
517.4353924015426
 21
578.9426548390786
 31
0.0
  0
LINE
  5
238
330
1F
100
AcDbEntity
  8
LAY-10
  6
CONTINUOUS
 62
     7
100
AcDbLine
 10
478.806044263253
 20
602.7337858850041
 30
0.0
 11
496.8105107979767
 21
564.0878290908503
 31
0.0
  0
LINE
  5
239
330
1F
100
AcDbEntity
  8
LAY-10
  6
CONTINUOUS
 62
     7
100
AcDbLine
 10
556.4549069213907
 20
640.0000000000001
 30
0.0
 11
533.3911426546406
 21
640.0000000000001
 31
0.0
  0
LINE
  5
23A
330
1F
100
AcDbEntity
  8
LAY-10
  6
CONTINUOUS
 62
     7
100
AcDbLine
 10
556.4549069213906
 20
620.0000000000001
 30
0.0
 11
533.3911426546406
 21
620.0000000000001
 31
0.0
  0
ARC
  5
23B
330
1F
100
AcDbEntity
  8
LAY-10
  6
CONTINUOUS
 62
     7
100
AcDbCircle
 10
523.5231160698693
 20
589.5912541710809
 30
0.0
 40
2.0
100
AcDbArc
 50
77.1426772307386
 51
145.3758929247364
  0
ARC
  5
23C
330
1F
100
AcDbEntity
  8
LAY-10
  6
CONTINUOUS
 62
     7
100
AcDbCircle
 10
524.8582600415866
 20
595.44081745177
 30
0.0
 40
4.0
100
AcDbArc
 50
257.1426772307383
 51
42.85732276925662
  0
ARC
  5
23D
330
1F
100
AcDbEntity
  8
LAY-10
  6
CONTINUOUS
 62
     7
100
AcDbCircle
 10
529.2565584578498
 20
599.5218676893311
 30
0.0
 40
2.0
100
AcDbArc
 50
154.6241070752614
 51
222.8573227692555
  0
ARC
  5
23E
330
1F
100
AcDbEntity
  8
LAY-10
  6
CONTINUOUS
 62
     7
100
AcDbCircle
 10
465.0000000000012
 20
630.0000000000002
 30
0.0
 40
69.11836509645775
100
AcDbArc
 50
334.6241070752652
 51
334.9799775084797
  0
ARC
  5
23F
330
1F
100
AcDbEntity
  8
LAY-10
  6
CONTINUOUS
 62
     7
100
AcDbCircle
 10
465.0000000000012
 20
630.0000000000002
 30
0.0
 40
69.11836509645775
100
AcDbArc
 50
325.0200224915206
 51
325.3758929247376
  0
ARC
  5
240
330
1F
100
AcDbEntity
  8
LAY-10
  6
CONTINUOUS
 62
     7
100
AcDbCircle
 10
524.8582600415866
 20
664.5591825482301
 30
0.0
 40
4.0
100
AcDbArc
 50
317.1426772307388
 51
102.8573227692567
  0
ARC
  5
241
330
1F
100
AcDbEntity
  8
LAY-10
  6
CONTINUOUS
 62
     7
100
AcDbCircle
 10
529.2565584578495
 20
660.4781323106685
 30
0.0
 40
2.0
100
AcDbArc
 50
137.1426772307377
 51
205.375892924727
  0
ARC
  5
242
330
1F
100
AcDbEntity
  8
LAY-10
  6
CONTINUOUS
 62
     7
100
AcDbCircle
 10
523.5231160698698
 20
670.4087458289193
 30
0.0
 40
2.0
100
AcDbArc
 50
214.6241070752637
 51
282.8573227692551
  0
ARC
  5
243
330
1F
100
AcDbEntity
  8
LAY-10
  6
CONTINUOUS
 62
     7
100
AcDbCircle
 10
465.0000000000012
 20
630.0000000000002
 30
0.0
 40
69.11836509645775
100
AcDbArc
 50
34.62410707526212
 51
34.97997750847962
  0
ARC
  5
244
330
1F
100
AcDbEntity
  8
LAY-10
  6
CONTINUOUS
 62
     7
100
AcDbCircle
 10
465.0000000000012
 20
630.0000000000002
 30
0.0
 40
69.11836509645775
100
AcDbArc
 50
25.02002249152034
 51
25.3758929247347
  0
LINE
  5
245
330
1F
100
AcDbEntity
  8
LAY-10
  6
CONTINUOUS
 62
     7
100
AcDbLine
 10
467.6516183622939
 20
599.5693869528657
 30
0.0
 11
471.3525870244665
 21
557.09617630548
 31
0.0
  0
LINE
  5
246
330
1F
100
AcDbEntity
  8
LAY-10
  6
CONTINUOUS
 62
     7
100
AcDbLine
 10
462.3483816377087
 20
599.5693869528657
 30
0.0
 11
458.6474129755361
 21
557.09617630548
 31
0.0
  0
ARC
  5
247
330
1F
100
AcDbEntity
  8
LAY-10
  6
CONTINUOUS
 62
     7
100
AcDbCircle
 10
465.0000000000012
 20
599.3383341006487
 30
0.0
 40
2.66166589935055
100
AcDbArc
 50
4.979977508482073
 51
175.0200224915179
  0
ARC
  5
248
330
1F
100
AcDbEntity
  8
LAY-10
  6
CONTINUOUS
 62
     7
100
AcDbCircle
 10
465.0000000000012
 20
599.3383341006487
 30
0.0
 40
3.66166589935055
100
AcDbArc
 50
4.979977508481901
 51
175.02002249152
  0
LINE
  5
249
330
1F
100
AcDbEntity
  8
LAY-10
  6
CONTINUOUS
 62
     7
100
AcDbLine
 10
468.6478434568633
 20
599.6561945616919
 30
0.0
 11
472.3488121190358
 21
557.1829839143062
 31
0.0
  0
LINE
  5
24A
330
1F
100
AcDbEntity
  8
LAY-10
  6
CONTINUOUS
 62
     7
100
AcDbLine
 10
457.6511878809667
 20
557.1829839143062
 30
0.0
 11
461.3521565431391
 21
599.6561945616919
 31
0.0
  0
ARC
  5
24B
330
1F
100
AcDbEntity
  8
LAY-10
  6
CONTINUOUS
 62
     7
100
AcDbCircle
 10
465.0000000000012
 20
629.9999999999999
 30
0.0
 40
69.11836509645775
100
AcDbArc
 50
265.0200224915204
 51
265.3758929247336
  0
ARC
  5
24C
330
1F
100
AcDbEntity
  8
LAY-10
  6
CONTINUOUS
 62
     7
100
AcDbCircle
 10
459.2665576120178
 20
559.1131218604123
 30
0.0
 40
2.0
100
AcDbArc
 50
17.14267723074042
 51
85.3758929247326
  0
ARC
  5
24D
330
1F
100
AcDbEntity
  8
LAY-10
  6
CONTINUOUS
 62
     7
100
AcDbCircle
 10
465.0000000000012
 20
629.9999999999999
 30
0.0
 40
69.11836509645775
100
AcDbArc
 50
274.6241070752613
 51
274.9799775084797
  0
ARC
  5
24E
330
1F
100
AcDbEntity
  8
LAY-10
  6
CONTINUOUS
 62
     7
100
AcDbCircle
 10
464.999999999998
 20
560.88163490354
 30
0.0
 40
4.0
100
AcDbArc
 50
197.1426772307366
 51
342.8573227692565
  0
ARC
  5
24F
330
1F
100
AcDbEntity
  8
LAY-10
  6
CONTINUOUS
 62
     7
100
AcDbCircle
 10
470.7334423879779
 20
559.1131218604118
 30
0.0
 40
2.0
100
AcDbArc
 50
94.62410707525933
 51
162.8573227692565
  0
LINE
  5
250
330
1F
100
AcDbEntity
  8
LAY-10
  6
CONTINUOUS
 62
     7
100
AcDbLine
 10
458.0496588931403
 20
600.2385140011129
 30
0.0
 11
447.0007382416237
 21
559.0609455423992
 31
0.0
  0
ARC
  5
251
330
1F
100
AcDbEntity
  8
LAY-10
  6
CONTINUOUS
 62
     7
100
AcDbCircle
 10
454.5130926345012
 20
601.1874588133767
 30
0.0
 40
3.66166589935055
100
AcDbArc
 50
344.9799775084804
 51
155.0200224915181
  0
ARC
  5
252
330
1F
100
AcDbEntity
  8
LAY-10
  6
CONTINUOUS
 62
     7
100
AcDbCircle
 10
465.0000000000012
 20
630.0000000000002
 30
0.0
 40
73.1800715440005
100
AcDbArc
 50
74.97997750847975
 51
85.02002249152036
  0
ARC
  5
253
330
1F
100
AcDbEntity
  8
LAY-10
  6
CONTINUOUS
 62
     7
100
AcDbCircle
 10
465.0000000000012
 20
629.9999999999999
 30
0.0
 40
73.1800715440005
100
AcDbArc
 50
254.9799775084799
 51
265.0200224915205
  0
ARC
  5
254
330
1F
100
AcDbEntity
  8
LAY-10
  6
CONTINUOUS
 62
     7
100
AcDbCircle
 10
465.0000000000012
 20
629.9999999999999
 30
0.0
 40
73.1800715440005
100
AcDbArc
 50
274.9799775084797
 51
285.0200224915205
  0
ARC
  5
255
330
1F
100
AcDbEntity
  8
LAY-10
  6
CONTINUOUS
 62
     7
100
AcDbCircle
 10
465.0000000000012
 20
629.9999999999999
 30
0.0
 40
69.11836509645775
100
AcDbArc
 50
245.0200224915207
 51
254.9799775084799
  0
ARC
  5
256
330
1F
100
AcDbEntity
  8
LAY-10
  6
CONTINUOUS
 62
     7
100
AcDbCircle
 10
465.0000000000012
 20
629.9999999999999
 30
0.0
 40
69.11836509645775
100
AcDbArc
 50
285.0200224915203
 51
294.9799775084798
  0
LINE
  5
257
330
1F
100
AcDbEntity
  8
LAY-10
  6
CONTINUOUS
 62
     7
100
AcDbLine
 10
457.0838235723191
 20
600.4976705813001
 30
0.0
 11
446.0349029208024
 21
559.3201021225865
 31
0.0
  0
LINE
  5
258
330
1F
100
AcDbEntity
  8
LAY-10
  6
CONTINUOUS
 62
     7
100
AcDbLine
 10
472.9161764276833
 20
600.4976705813001
 30
0.0
 11
483.9650970791999
 21
559.3201021225865
 31
0.0
  0
ARC
  5
259
330
1F
100
AcDbEntity
  8
LAY-10
  6
CONTINUOUS
 62
     7
100
AcDbCircle
 10
475.4869073655012
 20
601.1874588133767
 30
0.0
 40
3.66166589935055
100
AcDbArc
 50
24.97997750848197
 51
195.0200224915195
  0
LINE
  5
25A
330
1F
100
AcDbEntity
  8
LAY-10
  6
CONTINUOUS
 62
     7
100
AcDbLine
 10
471.9503411068621
 20
600.2385140011129
 30
0.0
 11
482.9992617583787
 21
559.0609455423992
 31
0.0
  0
LINE
  5
25B
330
1F
100
AcDbEntity
  8
LAY-10
  6
CONTINUOUS
 62
     7
100
AcDbLine
 10
373.2142431549634
 20
636.2749374804549
 30
0.0
 11
371.7107982689525
 21
636.2749374804549
 31
0.0
  0
LINE
  5
25C
330
1F
100
AcDbEntity
  8
LAY-10
  6
CONTINUOUS
 62
     7
100
AcDbLine
 10
373.195860659773
 20
635.999999999999
 30
0.0
 11
371.5008160200855
 21
635.999999999999
 31
0.0
  0
LINE
  5
25D
330
1F
100
AcDbEntity
  8
LAY-10
  6
CONTINUOUS
 62
     7
100
AcDbLine
 10
373.1958606597732
 20
623.999999999999
 30
0.0
 11
371.5008160200855
 21
623.999999999999
 31
0.0
  0
LINE
  5
25E
330
1F
100
AcDbEntity
  8
LAY-10
  6
CONTINUOUS
 62
     7
100
AcDbLine
 10
373.2142431549637
 20
623.7250625195423
 30
0.0
 11
371.7107982689525
 21
623.7250625195423
 31
0.0
  0
LINE
  5
25F
330
1F
100
AcDbEntity
  8
LAY-10
  6
CONTINUOUS
 62
     7
100
AcDbLine
 10
460.9999999999999
 20
536.3939243162595
 30
0.0
 11
460.9999999999999
 21
538.0869976553919
 31
0.0
  0
LINE
  5
260
330
1F
100
AcDbEntity
  8
LAY-10
  6
CONTINUOUS
 62
     7
100
AcDbLine
 10
460.6999999999998
 20
536.5989293423252
 30
0.0
 11
460.6999999999998
 21
538.1005440712519
 31
0.0
  0
LINE
  5
261
330
1F
100
AcDbEntity
  8
LAY-10
  6
CONTINUOUS
 62
     7
100
AcDbLine
 10
469.0000000000005
 20
536.3939243162595
 30
0.0
 11
469.0000000000004
 21
538.0869976553919
 31
0.0
  0
LINE
  5
262
330
1F
100
AcDbEntity
  8
LAY-10
  6
CONTINUOUS
 62
     7
100
AcDbLine
 10
469.3000000000002
 20
538.1005440712516
 30
0.0
 11
469.3000000000002
 21
536.5989293423252
 31
0.0
  0
LINE
  5
263
330
1F
100
AcDbEntity
  8
LAY-10
  6
CONTINUOUS
 62
     7
100
AcDbLine
 10
556.8041393402292
 20
623.999999999999
 30
0.0
 11
558.4991839799151
 21
623.999999999999
 31
0.0
  0
LINE
  5
264
330
1F
100
AcDbEntity
  8
LAY-10
  6
CONTINUOUS
 62
     7
100
AcDbLine
 10
556.7857568450387
 20
623.7250625195423
 30
0.0
 11
558.2892017310481
 21
623.7250625195423
 31
0.0
  0
LINE
  5
265
330
1F
100
AcDbEntity
  8
LAY-10
  6
CONTINUOUS
 62
     7
100
AcDbLine
 10
556.785756845039
 20
636.2749374804549
 30
0.0
 11
558.2892017310481
 21
636.2749374804549
 31
0.0
  0
LINE
  5
266
330
1F
100
AcDbEntity
  8
LAY-10
  6
CONTINUOUS
 62
     7
100
AcDbLine
 10
556.8041393402294
 20
635.999999999999
 30
0.0
 11
558.4991839799151
 21
635.999999999999
 31
0.0
  0
LINE
  5
267
330
1F
100
AcDbEntity
  8
LAY-10
  6
CONTINUOUS
 62
     7
100
AcDbLine
 10
460.9999999999999
 20
723.6060756837381
 30
0.0
 11
460.9999999999999
 21
721.9130023446088
 31
0.0
  0
LINE
  5
268
330
1F
100
AcDbEntity
  8
LAY-10
  6
CONTINUOUS
 62
     7
100
AcDbLine
 10
460.6999999999998
 20
723.4010706576724
 30
0.0
 11
460.6999999999998
 21
721.899455928749
 31
0.0
  0
LINE
  5
269
330
1F
100
AcDbEntity
  8
LAY-10
  6
CONTINUOUS
 62
     7
100
AcDbLine
 10
469.3000000000002
 20
721.899455928749
 30
0.0
 11
469.3000000000002
 21
723.4010706576724
 31
0.0
  0
LINE
  5
26A
330
1F
100
AcDbEntity
  8
LAY-10
  6
CONTINUOUS
 62
     7
100
AcDbLine
 10
469.0000000000005
 20
723.6060756837381
 30
0.0
 11
469.0000000000005
 21
721.913002344609
 31
0.0
  0
CIRCLE
  5
26B
330
1F
100
AcDbEntity
  8
LAY-10
  6
CONTINUOUS
 62
     7
100
AcDbCircle
 10
375.9999999999986
 20
630.0
 30
0.0
 40
5.25
  0
LINE
  5
26C
330
1F
100
AcDbEntity
  8
LAY-10
  6
CONTINUOUS
 62
     7
100
AcDbLine
 10
372.0366072321362
 20
626.5570335802306
 30
0.0
 11
380.9633927678294
 21
631.7109156122513
 31
0.0
  0
LINE
  5
26D
330
1F
100
AcDbEntity
  8
LAY-10
  6
CONTINUOUS
 62
     7
100
AcDbLine
 10
371.0366072321388
 20
628.2890843878323
 30
0.0
 11
379.9633927678026
 21
633.4429664198359
 31
0.0
  0
CIRCLE
  5
26E
330
1F
100
AcDbEntity
  8
LAY-10
  6
CONTINUOUS
 62
     7
100
AcDbCircle
 10
553.9999999999985
 20
630.0
 30
0.0
 40
5.25
  0
LINE
  5
26F
330
1F
100
AcDbEntity
  8
LAY-10
  6
CONTINUOUS
 62
     7
100
AcDbLine
 10
550.0366072321361
 20
626.5570335802306
 30
0.0
 11
558.9633927678293
 21
631.7109156122513
 31
0.0
  0
LINE
  5
270
330
1F
100
AcDbEntity
  8
LAY-10
  6
CONTINUOUS
 62
     7
100
AcDbLine
 10
549.0366072321387
 20
628.2890843878323
 30
0.0
 11
557.9633927678026
 21
633.4429664198359
 31
0.0
  0
ARC
  5
271
330
1F
100
AcDbEntity
  8
LAY-10
  6
CONTINUOUS
 62
     7
100
AcDbCircle
 10
465.0
 20
629.999999999999
 30
0.0
 40
93.69150124162785
100
AcDbArc
 50
1.478518188792429
 51
3.671732055705911
  0
ARC
  5
272
330
1F
100
AcDbEntity
  8
LAY-10
  6
CONTINUOUS
 62
     7
100
AcDbCircle
 10
465.0
 20
629.999999999999
 30
0.0
 40
93.69150124162785
100
AcDbArc
 50
356.3282679442941
 51
358.5214818112091
  0
ARC
  5
273
330
1F
100
AcDbEntity
  8
LAY-10
  6
CONTINUOUS
 62
     7
100
AcDbCircle
 10
465.0
 20
629.999999999999
 30
0.0
 40
93.69150124162785
100
AcDbArc
 50
176.328267944294
 51
178.5214818112039
  0
ARC
  5
274
330
1F
100
AcDbEntity
  8
LAY-10
  6
CONTINUOUS
 62
     7
100
AcDbCircle
 10
465.0
 20
629.999999999999
 30
0.0
 40
93.69150124162785
100
AcDbArc
 50
181.4785181887949
 51
183.6717320557062
  0
LINE
  5
275
330
1F
100
AcDbEntity
  8
LAY-10
  6
CONTINUOUS
 62
     7
100
AcDbLine
 10
380.4999999999953
 20
634.0000000000003
 30
0.0
 11
379.400367627182
 21
634.0000000000003
 31
0.0
  0
LINE
  5
276
330
1F
100
AcDbEntity
  8
LAY-10
  6
CONTINUOUS
 62
     7
100
AcDbLine
 10
380.4999999999953
 20
626.0000000000001
 30
0.0
 11
379.4003676271825
 21
626.0000000000001
 31
0.0
  0
LINE
  5
277
330
1F
100
AcDbEntity
  8
LAY-10
  6
CONTINUOUS
 62
     7
100
AcDbLine
 10
549.5000000000072
 20
626.0000000000001
 30
0.0
 11
550.5996323728147
 21
626.0000000000001
 31
0.0
  0
ARC
  5
278
330
1F
100
AcDbEntity
  8
LAY-10
  6
CONTINUOUS
 62
     7
100
AcDbCircle
 10
465.0000000000012
 20
630.0000000000003
 30
0.0
 40
92.00000000000007
100
AcDbArc
 50
182.7283053879588
 51
357.2716946120436
  0
LINE
  5
279
330
1F
100
AcDbEntity
  8
LAY-10
  6
CONTINUOUS
 62
     7
100
AcDbLine
 10
549.5000000000072
 20
634.0000000000003
 30
0.0
 11
550.5996323728151
 21
634.0000000000003
 31
0.0
  0
ARC
  5
27A
330
1F
100
AcDbEntity
  8
LAY-10
  6
CONTINUOUS
 62
     7
100
AcDbCircle
 10
465.0000000000012
 20
630.0000000000003
 30
0.0
 40
92.00000000000007
100
AcDbArc
 50
2.728305387956204
 51
177.2716946120416
  0
LINE
  5
27B
330
1F
100
AcDbEntity
  8
LAY-10
  6
CONTINUOUS
 62
     7
100
AcDbLine
 10
354.537624701219
 20
218.1986412405171
 30
0.0
 11
344.0000000000032
 21
218.1986412405171
 31
0.0
  0
LINE
  5
27C
330
1F
100
AcDbEntity
  8
LAY-10
  6
CONTINUOUS
 62
     7
100
AcDbLine
 10
344.0000000000032
 20
218.1986412405171
 30
0.0
 11
345.0000000000031
 21
225.1986412405169
 31
0.0
  0
LINE
  5
27D
330
1F
100
AcDbEntity
  8
LAY-10
  6
CONTINUOUS
 62
     7
100
AcDbLine
 10
350.6847759934282
 20
220.874051344442
 30
0.0
 11
353.0377293291333
 21
220.2435793983119
 31
0.0
  0
LINE
  5
27E
330
1F
100
AcDbEntity
  8
LAY-10
  6
CONTINUOUS
 62
     7
100
AcDbLine
 10
348.1872389159007
 20
219.2250424043387
 30
0.0
 11
348.040610178212
 21
218.1986412405171
 31
0.0
  0
ARC
  5
27F
330
1F
100
AcDbEntity
  8
LAY-10
  6
CONTINUOUS
 62
     7
100
AcDbCircle
 10
350.1671379032231
 20
218.9421996918642
 30
0.0
 40
2.0
100
AcDbArc
 50
74.99999999999845
 51
171.8698976458487
  0
LINE
  5
280
330
1F
100
AcDbEntity
  8
LAY-10
  6
CONTINUOUS
 62
     7
100
AcDbLine
 10
355.5000000000043
 20
207.1986412405172
 30
0.0
 11
367.4999999999982
 21
207.1986412405172
 31
0.0
  0
LINE
  5
281
330
1F
100
AcDbEntity
  8
LAY-10
  6
CONTINUOUS
 62
     7
100
AcDbLine
 10
354.5124806351118
 20
218.4860392312289
 30
0.0
 11
355.5000000000043
 21
207.1986412405172
 31
0.0
  0
LINE
  5
282
330
1F
100
AcDbEntity
  8
LAY-10
  6
CONTINUOUS
 62
     7
100
AcDbLine
 10
368.0761398140121
 20
213.7839494483998
 30
0.0
 11
367.4999999999982
 21
207.1986412405172
 31
0.0
  0
ARC
  5
283
330
1F
100
AcDbEntity
  8
LAY-10
  6
CONTINUOUS
 62
     7
100
AcDbCircle
 10
370.0685292101955
 20
213.6096379629047
 30
0.0
 40
2.0
100
AcDbArc
 50
74.99999999999845
 51
175.0000000000068
  0
ARC
  5
284
330
1F
100
AcDbEntity
  8
LAY-10
  6
CONTINUOUS
 62
     7
100
AcDbCircle
 10
352.5200912389282
 20
218.3117277457338
 30
0.0
 40
2.0
100
AcDbArc
 50
4.99999999999327
 51
74.99999999999845
  0
LINE
  5
285
330
1F
100
AcDbEntity
  8
LAY-10
  6
CONTINUOUS
 62
     7
100
AcDbLine
 10
569.3304575676472
 20
218.1986412405171
 30
0.0
 11
586.0000000000027
 21
218.1986412405171
 31
0.0
  0
LINE
  5
286
330
1F
100
AcDbEntity
  8
LAY-10
  6
CONTINUOUS
 62
     7
100
AcDbLine
 10
586.0000000000027
 20
218.1986412405171
 30
0.0
 11
585.000000000003
 21
225.1986412405169
 31
0.0
  0
LINE
  5
287
330
1F
100
AcDbEntity
  8
LAY-10
  6
CONTINUOUS
 62
     7
100
AcDbLine
 10
581.8127610841051
 20
219.2250424043387
 30
0.0
 11
581.9593898217939
 21
218.1986412405171
 31
0.0
  0
ARC
  5
288
330
1F
100
AcDbEntity
  8
LAY-10
  6
CONTINUOUS
 62
     7
100
AcDbCircle
 10
579.8328620967828
 20
218.9421996918642
 30
0.0
 40
2.0
100
AcDbArc
 50
8.130102354151399
 51
105.0000000000079
  0
ARC
  5
289
330
1F
100
AcDbEntity
  8
LAY-10
  6
CONTINUOUS
 62
     7
100
AcDbCircle
 10
544.2963543603789
 20
206.1986412405154
 30
0.0
 40
6.000000000000004
100
AcDbArc
 50
270.0
 51
357.0989848876946
  0
LINE
  5
28A
330
1F
100
AcDbEntity
  8
LAY-10
  6
CONTINUOUS
 62
     7
100
AcDbLine
 10
579.3152240065778
 20
220.874051344442
 30
0.0
 11
552.0647488893904
 21
213.5723085434267
 31
0.0
  0
LINE
  5
28B
330
1F
100
AcDbEntity
  8
LAY-10
  6
CONTINUOUS
 62
     7
100
AcDbLine
 10
550.5849500582561
 20
211.7416781597116
 30
0.0
 11
550.2886651243972
 21
205.894977433926
 31
0.0
  0
ARC
  5
28C
330
1F
100
AcDbEntity
  8
LAY-10
  6
CONTINUOUS
 62
     7
100
AcDbCircle
 10
552.5823869795955
 20
211.6404568908486
 30
0.0
 40
2.0
100
AcDbArc
 50
105.0000000000016
 51
177.0989848876978
  0
LINE
  5
28D
330
1F
100
AcDbEntity
  8
LAY-10
  6
CONTINUOUS
 62
     7
100
AcDbLine
 10
580.0000000000027
 20
225.1986412405169
 30
0.0
 11
551.0294727089799
 21
217.4360118485828
 31
0.0
  0
ARC
  5
28E
330
1F
100
AcDbEntity
  8
LAY-10
  6
CONTINUOUS
 62
     7
100
AcDbCircle
 10
385.7036456396269
 20
206.1986412405154
 30
0.0
 40
6.000000000000004
100
AcDbArc
 50
182.9010151123055
 51
270.0
  0
ARC
  5
28F
330
1F
100
AcDbEntity
  8
LAY-10
  6
CONTINUOUS
 62
     7
100
AcDbCircle
 10
377.4176130204104
 20
211.6404568908486
 30
0.0
 40
2.0
100
AcDbArc
 50
2.901015112302175
 51
74.99999999999845
  0
ARC
  5
290
330
1F
100
AcDbEntity
  8
LAY-10
  6
CONTINUOUS
 62
     7
100
AcDbCircle
 10
377.4176130204109
 20
211.6404568908486
 30
0.0
 40
6.000000000000004
100
AcDbArc
 50
2.901015112305441
 51
74.9999999999953
  0
LINE
  5
291
330
1F
100
AcDbEntity
  8
LAY-10
  6
CONTINUOUS
 62
     7
100
AcDbLine
 10
379.7113348756095
 20
205.894977433926
 30
0.0
 11
379.4150499417505
 21
211.7416781597116
 31
0.0
  0
LINE
  5
292
330
1F
100
AcDbEntity
  8
LAY-10
  6
CONTINUOUS
 62
     7
100
AcDbLine
 10
370.5861673004006
 20
215.5414896154828
 30
0.0
 11
377.9352511106155
 21
213.5723085434267
 31
0.0
  0
LINE
  5
293
330
1F
100
AcDbEntity
  8
LAY-10
  6
CONTINUOUS
 62
     7
100
AcDbLine
 10
350.0000000000032
 20
225.1986412405169
 30
0.0
 11
378.9705272910261
 21
217.4360118485828
 31
0.0
  0
LINE
  5
294
330
1F
100
AcDbEntity
  8
LAY-10
  6
CONTINUOUS
 62
     7
100
AcDbLine
 10
383.7062087182881
 20
206.0974199716524
 30
0.0
 11
383.4099237844291
 21
211.944120697438
 31
0.0
  0
ARC
  5
295
330
1F
100
AcDbEntity
  8
LAY-10
  6
CONTINUOUS
 62
     7
100
AcDbCircle
 10
385.7036456396274
 20
206.1986412405154
 30
0.0
 40
2.0
100
AcDbArc
 50
182.9010151123022
 51
270.0
  0
LINE
  5
296
330
1F
100
AcDbEntity
  8
LAY-10
  6
CONTINUOUS
 62
     7
100
AcDbLine
 10
403.0367971220214
 20
204.1986412405155
 30
0.0
 11
385.7036456396274
 21
204.1986412405155
 31
0.0
  0
LINE
  5
297
330
1F
100
AcDbEntity
  8
LAY-10
  6
CONTINUOUS
 62
     7
100
AcDbLine
 10
407.8528115119278
 20
204.1986412405155
 30
0.0
 11
522.1471884880781
 21
204.1986412405155
 31
0.0
  0
LINE
  5
298
330
1F
100
AcDbEntity
  8
LAY-10
  6
CONTINUOUS
 62
     7
100
AcDbLine
 10
405.5000000000024
 20
160.1986412405153
 30
0.0
 11
524.5000000000035
 21
160.1986412405153
 31
0.0
  0
LINE
  5
299
330
1F
100
AcDbEntity
  8
LAY-10
  6
CONTINUOUS
 62
     7
100
AcDbLine
 10
544.296354360379
 20
200.1986412405154
 30
0.0
 11
542.4489645667156
 21
200.1986412405154
 31
0.0
  0
LINE
  5
29A
330
1F
100
AcDbEntity
  8
LAY-10
  6
CONTINUOUS
 62
     7
100
AcDbLine
 10
522.4471884880782
 20
212.1986412405154
 30
0.0
 11
520.4971884880786
 21
160.1986412405153
 31
0.0
  0
LINE
  5
29B
330
1F
100
AcDbEntity
  8
LAY-10
  6
CONTINUOUS
 62
     7
100
AcDbLine
 10
408.0332852005673
 20
199.3860095434609
 30
0.0
 11
409.5028115119275
 21
160.1986412405153
 31
0.0
  0
ARC
  5
29C
330
1F
100
AcDbEntity
  8
LAY-10
  6
CONTINUOUS
 62
     7
100
AcDbCircle
 10
403.0367971220214
 20
199.1986412405157
 30
0.0
 40
5.0
100
AcDbArc
 50
2.147585428296413
 51
90.0
  0
ARC
  5
29D
330
1F
100
AcDbEntity
  8
LAY-10
  6
CONTINUOUS
 62
     7
100
AcDbCircle
 10
403.0367971220214
 20
199.1986412405153
 30
0.0
 40
1.0
100
AcDbArc
 50
2.147585428296413
 51
90.0
  0
ARC
  5
29E
330
1F
100
AcDbEntity
  8
LAY-10
  6
CONTINUOUS
 62
     7
100
AcDbCircle
 10
526.9632028779846
 20
199.1986412405153
 30
0.0
 40
1.0
100
AcDbArc
 50
90.0
 51
177.8524145717037
  0
LINE
  5
29F
330
1F
100
AcDbEntity
  8
LAY-10
  6
CONTINUOUS
 62
     7
100
AcDbLine
 10
535.551035433289
 20
200.1986412405154
 30
0.0
 11
526.9632028779846
 21
200.1986412405154
 31
0.0
  0
LINE
  5
2A0
330
1F
100
AcDbEntity
  8
LAY-10
  6
CONTINUOUS
 62
     7
100
AcDbLine
 10
536.764781707662
 20
195.1463052842809
 30
0.0
 11
536.5496649680435
 21
199.2509771967585
 31
0.0
  0
LINE
  5
2A1
330
1F
100
AcDbEntity
  8
LAY-10
  6
CONTINUOUS
 62
     7
100
AcDbLine
 10
541.2352182923427
 20
195.1463052842809
 30
0.0
 11
541.450335031961
 21
199.2509771967585
 31
0.0
  0
ARC
  5
2A2
330
1F
100
AcDbEntity
  8
LAY-10
  6
CONTINUOUS
 62
     7
100
AcDbCircle
 10
535.551035433289
 20
199.1986412405153
 30
0.0
 40
1.0
100
AcDbArc
 50
3.000000000012268
 51
90.0
  0
ARC
  5
2A3
330
1F
100
AcDbEntity
  8
LAY-10
  6
CONTINUOUS
 62
     7
100
AcDbCircle
 10
542.4489645667156
 20
199.1986412405153
 30
0.0
 40
1.0
100
AcDbArc
 50
90.0
 51
176.9999999999878
  0
ARC
  5
2A4
330
1F
100
AcDbEntity
  8
LAY-10
  6
CONTINUOUS
 62
     7
100
AcDbCircle
 10
537.7634112424165
 20
195.1986412405241
 30
0.0
 40
1.0
100
AcDbArc
 50
183.0000000000123
 51
270.0
  0
ARC
  5
2A5
330
1F
100
AcDbEntity
  8
LAY-10
  6
CONTINUOUS
 62
     7
100
AcDbCircle
 10
540.236588757588
 20
195.1986412405241
 30
0.0
 40
1.0
100
AcDbArc
 50
270.0
 51
356.9999999999878
  0
ARC
  5
2A6
330
1F
100
AcDbEntity
  8
LAY-10
  6
CONTINUOUS
 62
     7
100
AcDbCircle
 10
552.5823869795952
 20
211.6404568908486
 30
0.0
 40
6.000000000000004
100
AcDbArc
 50
105.0000000000048
 51
174.6620133370812
  0
LINE
  5
2A7
330
1F
100
AcDbEntity
  8
LAY-10
  6
CONTINUOUS
 62
     7
100
AcDbLine
 10
523.0000000000798
 20
218.0000000000038
 30
0.0
 11
523.0000000000798
 21
224.0520000000038
 31
0.0
  0
ARC
  5
2A8
330
1F
100
AcDbEntity
  8
LAY-10
  6
CONTINUOUS
 62
     7
100
AcDbCircle
 10
525.00000000008
 20
221.7522032085602
 30
0.0
 40
3.047796791443853
100
AcDbArc
 50
48.98840640770651
 51
131.0115935922989
  0
LINE
  5
2A9
330
1F
100
AcDbEntity
  8
LAY-10
  6
CONTINUOUS
 62
     7
100
AcDbLine
 10
527.0000000000799
 20
218.0000000000038
 30
0.0
 11
527.0000000000799
 21
224.0520000000038
 31
0.0
  0
ARC
  5
2AA
330
1F
100
AcDbEntity
  8
LAY-10
  6
CONTINUOUS
 62
     7
100
AcDbCircle
 10
531.00000000008
 20
213.7308128342284
 30
0.0
 40
11.06918716577541
100
AcDbArc
 50
68.81604434177302
 51
111.1839556582283
  0
LINE
  5
2AB
330
1F
100
AcDbEntity
  8
LAY-10
  6
CONTINUOUS
 62
     7
100
AcDbLine
 10
537.00000000008
 20
224.8000000000038
 30
0.0
 11
525.00000000008
 21
224.8000000000038
 31
0.0
  0
LINE
  5
2AC
330
1F
100
AcDbEntity
  8
LAY-10
  6
CONTINUOUS
 62
     7
100
AcDbLine
 10
535.0000000000798
 20
218.0000000000038
 30
0.0
 11
535.0000000000798
 21
224.0520000000038
 31
0.0
  0
ARC
  5
2AD
330
1F
100
AcDbEntity
  8
LAY-10
  6
CONTINUOUS
 62
     7
100
AcDbCircle
 10
537.00000000008
 20
221.7522032085602
 30
0.0
 40
3.047796791443853
100
AcDbArc
 50
48.98840640770651
 51
131.0115935923106
  0
LINE
  5
2AE
330
1F
100
AcDbEntity
  8
LAY-10
  6
CONTINUOUS
 62
     7
100
AcDbLine
 10
539.0000000000799
 20
218.0000000000038
 30
0.0
 11
539.0000000000799
 21
224.0520000000038
 31
0.0
  0
LINE
  5
2AF
330
1F
100
AcDbEntity
  8
LAY-10
  6
CONTINUOUS
 62
     7
100
AcDbLine
 10
523.0000000000798
 20
218.0000000000038
 30
0.0
 11
539.0000000000799
 21
218.0000000000038
 31
0.0
  0
LINE
  5
2B0
330
1F
100
AcDbEntity
  8
LAY-10
  6
CONTINUOUS
 62
     7
100
AcDbLine
 10
534.5000000000796
 20
255.8999999999997
 30
0.0
 11
535.0000000000798
 21
255.4000000000036
 31
0.0
  0
LINE
  5
2B1
330
1F
100
AcDbEntity
  8
LAY-10
  6
CONTINUOUS
 62
     7
100
AcDbLine
 10
531.75000000008
 20
255.4000000000036
 30
0.0
 11
535.0000000000798
 21
255.4000000000036
 31
0.0
  0
LINE
  5
2B2
330
1F
100
AcDbEntity
  8
LAY-10
  6
CONTINUOUS
 62
     7
100
AcDbLine
 10
531.75000000008
 20
255.8999999999997
 30
0.0
 11
534.5000000000796
 21
255.8999999999997
 31
0.0
  0
LINE
  5
2B3
330
1F
100
AcDbEntity
  8
LAY-10
  6
CONTINUOUS
 62
     7
100
AcDbLine
 10
530.2500000000797
 20
253.4000000000033
 30
0.0
 11
531.75000000008
 21
253.4000000000033
 31
0.0
  0
LINE
  5
2B4
330
1F
100
AcDbEntity
  8
LAY-10
  6
CONTINUOUS
 62
     7
100
AcDbLine
 10
531.75000000008
 20
253.4000000000033
 30
0.0
 11
531.75000000008
 21
255.8999999999997
 31
0.0
  0
LINE
  5
2B5
330
1F
100
AcDbEntity
  8
LAY-10
  6
CONTINUOUS
 62
     7
100
AcDbLine
 10
530.2500000000797
 20
253.4000000000033
 30
0.0
 11
530.2500000000797
 21
255.8999999999997
 31
0.0
  0
LINE
  5
2B6
330
1F
100
AcDbEntity
  8
LAY-10
  6
CONTINUOUS
 62
     7
100
AcDbLine
 10
527.0000000000799
 20
255.4000000000036
 30
0.0
 11
530.2500000000797
 21
255.4000000000036
 31
0.0
  0
LINE
  5
2B7
330
1F
100
AcDbEntity
  8
LAY-10
  6
CONTINUOUS
 62
     7
100
AcDbLine
 10
527.5000000000798
 20
255.8999999999997
 30
0.0
 11
530.2500000000797
 21
255.8999999999997
 31
0.0
  0
LINE
  5
2B8
330
1F
100
AcDbEntity
  8
LAY-10
  6
CONTINUOUS
 62
     7
100
AcDbLine
 10
527.0000000000799
 20
255.4000000000036
 30
0.0
 11
527.5000000000801
 21
255.8999999999997
 31
0.0
  0
LINE
  5
2B9
330
1F
100
AcDbEntity
  8
LAY-10
  6
CONTINUOUS
 62
     7
100
AcDbLine
 10
527.0000000000799
 20
224.8000000000038
 30
0.0
 11
527.0000000000799
 21
255.4000000000036
 31
0.0
  0
LINE
  5
2BA
330
1F
100
AcDbEntity
  8
LAY-10
  6
CONTINUOUS
 62
     7
100
AcDbLine
 10
535.0000000000798
 20
224.8000000000038
 30
0.0
 11
535.0000000000798
 21
255.4000000000036
 31
0.0
  0
LINE
  5
2BB
330
1F
100
AcDbEntity
  8
LAY-10
  6
CONTINUOUS
 62
     7
100
AcDbLine
 10
534.5000000000763
 20
205.698641240507
 30
0.0
 11
534.5000000000763
 21
205.198641240503
 31
0.0
  0
LINE
  5
2BC
330
1F
100
AcDbEntity
  8
LAY-10
  6
CONTINUOUS
 62
     7
100
AcDbLine
 10
527.5000000000813
 20
205.698641240507
 30
0.0
 11
527.5000000000813
 21
205.198641240503
 31
0.0
  0
LINE
  5
2BD
330
1F
100
AcDbEntity
  8
LAY-10
  6
CONTINUOUS
 62
     7
100
AcDbLine
 10
527.5000000000813
 20
205.198641240503
 30
0.0
 11
534.5000000000766
 21
205.198641240503
 31
0.0
  0
LINE
  5
2BE
330
1F
100
AcDbEntity
  8
LAY-10
  6
CONTINUOUS
 62
     7
100
AcDbLine
 10
527.5000000000813
 20
205.1986412405034
 30
0.0
 11
531.0000000000795
 21
203.1779152983407
 31
0.0
  0
LINE
  5
2BF
330
1F
100
AcDbEntity
  8
LAY-10
  6
CONTINUOUS
 62
     7
100
AcDbLine
 10
531.0000000000795
 20
203.1779152983414
 30
0.0
 11
534.5000000000763
 21
205.198641240503
 31
0.0
  0
LINE
  5
2C0
330
1F
100
AcDbEntity
  8
LAY-10
  6
CONTINUOUS
 62
     7
100
AcDbLine
 10
535.0000000000789
 20
217.9999999999796
 30
0.0
 11
535.0000000000789
 21
206.1999999999808
 31
0.0
  0
LINE
  5
2C1
330
1F
100
AcDbEntity
  8
LAY-10
  6
CONTINUOUS
 62
     7
100
AcDbLine
 10
527.000000000079
 20
217.9999999999796
 30
0.0
 11
527.000000000079
 21
206.1999999999808
 31
0.0
  0
LINE
  5
2C2
330
1F
100
AcDbEntity
  8
LAY-10
  6
CONTINUOUS
 62
     7
100
AcDbLine
 10
527.5000000000784
 20
205.6999999999799
 30
0.0
 11
534.5000000000792
 21
205.6999999999799
 31
0.0
  0
LINE
  5
2C3
330
1F
100
AcDbEntity
  8
LAY-10
  6
CONTINUOUS
 62
     7
100
AcDbLine
 10
527.000000000079
 20
206.1999999999808
 30
0.0
 11
535.0000000000789
 21
206.1999999999808
 31
0.0
  0
LINE
  5
2C4
330
1F
100
AcDbEntity
  8
LAY-10
  6
CONTINUOUS
 62
     7
100
AcDbLine
 10
534.5000000000792
 20
205.6999999999799
 30
0.0
 11
535.0000000000789
 21
206.1999999999811
 31
0.0
  0
LINE
  5
2C5
330
1F
100
AcDbEntity
  8
LAY-10
  6
CONTINUOUS
 62
     7
100
AcDbLine
 10
527.5000000000784
 20
205.6999999999799
 30
0.0
 11
527.000000000079
 21
206.1999999999811
 31
0.0
  0
LINE
  5
2C6
330
1F
100
AcDbEntity
  8
LAY-10
  6
CONTINUOUS
 62
     7
100
AcDbLine
 10
527.5000000000784
 20
212.1986412405154
 30
0.0
 11
522.4471884880782
 21
212.1986412405154
 31
0.0
  0
LINE
  5
2C7
330
1F
100
AcDbEntity
  8
LAY-10
  6
CONTINUOUS
 62
     7
100
AcDbLine
 10
546.6084075494506
 20
212.1986412405154
 30
0.0
 11
534.500000000079
 21
212.1986412405154
 31
0.0
  0
LINE
  5
2C8
330
1F
100
AcDbEntity
  8
LAY-10
  6
CONTINUOUS
 62
     7
100
AcDbLine
 10
465.0
 20
219.7538803550015
 30
0.0
 11
471.2749374804495
 21
219.7538803550015
 31
0.0
  0
LINE
  5
2C9
330
1F
100
AcDbEntity
  8
LAY-10
  6
CONTINUOUS
 62
     7
100
AcDbLine
 10
471.2749374804495
 20
219.7538803550015
 30
0.0
 11
471.0000000000014
 21
225.0000000000091
 31
0.0
  0
LINE
  5
2CA
330
1F
100
AcDbEntity
  8
LAY-10
  6
CONTINUOUS
 62
     7
100
AcDbLine
 10
456.2620388964156
 20
218.0000000000087
 30
0.0
 11
456.0
 21
213.0000000000091
 31
0.0
  0
LINE
  5
2CB
330
1F
100
AcDbEntity
  8
LAY-10
  6
CONTINUOUS
 62
     7
100
AcDbLine
 10
575.8701740980292
 20
225.5227742187911
 30
0.0
 11
576.0000000000055
 21
228.0000000000091
 31
0.0
  0
ARC
  5
2CC
330
1F
100
AcDbEntity
  8
LAY-10
  6
CONTINUOUS
 62
     7
100
AcDbCircle
 10
573.8729150285199
 20
225.6274461312769
 30
0.0
 40
2.0
100
AcDbArc
 50
285.000000000001
 51
357.0000000000025
  0
LINE
  5
2CD
330
1F
100
AcDbEntity
  8
LAY-10
  6
CONTINUOUS
 62
     7
100
AcDbLine
 10
564.3142172064217
 20
226.2665755298366
 30
0.0
 11
563.6428537233448
 21
230.1695246617469
 31
0.0
  0
LINE
  5
2CE
330
1F
100
AcDbEntity
  8
LAY-10
  6
CONTINUOUS
 62
     7
100
AcDbLine
 10
576.0000000000055
 20
228.0000000000091
 30
0.0
 11
564.0160432229509
 21
228.0000000000091
 31
0.0
  0
LINE
  5
2CF
330
1F
100
AcDbEntity
  8
LAY-10
  6
CONTINUOUS
 62
     7
100
AcDbLine
 10
565.5585621969274
 20
225.4701743652854
 30
0.0
 11
575.0000000000059
 21
228.0000000000091
 31
0.0
  0
ARC
  5
2D0
330
1F
100
AcDbEntity
  8
LAY-10
  6
CONTINUOUS
 62
     7
100
AcDbCircle
 10
562.657327777942
 20
230.0000000000087
 30
0.0
 40
1.0
100
AcDbArc
 50
9.760183044390265
 51
90.0
  0
ARC
  5
2D1
330
1F
100
AcDbEntity
  8
LAY-10
  6
CONTINUOUS
 62
     7
100
AcDbCircle
 10
565.2997431518249
 20
226.4361001915748
 30
0.0
 40
1.0
100
AcDbArc
 50
189.7601830443914
 51
284.9999999999941
  0
ARC
  5
2D2
330
1F
100
AcDbEntity
  8
LAY-10
  6
CONTINUOUS
 62
     7
100
AcDbCircle
 10
560.3742881183803
 20
230.0000000000087
 30
0.0
 40
1.0
100
AcDbArc
 50
90.0
 51
172.3256319048747
  0
LINE
  5
2D3
330
1F
100
AcDbEntity
  8
LAY-10
  6
CONTINUOUS
 62
     7
100
AcDbLine
 10
560.3742881183803
 20
231.000000000009
 30
0.0
 11
562.657327777942
 21
231.000000000009
 31
0.0
  0
LINE
  5
2D4
330
1F
100
AcDbEntity
  8
LAY-10
  6
CONTINUOUS
 62
     7
100
AcDbLine
 10
558.588936845487
 20
224.2388530341353
 30
0.0
 11
559.3832450776196
 21
230.1335428446667
 31
0.0
  0
ARC
  5
2D5
330
1F
100
AcDbEntity
  8
LAY-10
  6
CONTINUOUS
 62
     7
100
AcDbCircle
 10
557.5978938047259
 20
224.3723958787933
 30
0.0
 40
1.0
100
AcDbArc
 50
285.0000000000005
 51
352.3256319048748
  0
LINE
  5
2D6
330
1F
100
AcDbEntity
  8
LAY-10
  6
CONTINUOUS
 62
     7
100
AcDbLine
 10
396.0525588832529
 20
217.0000000000087
 30
0.0
 11
385.7749374804549
 21
219.753880355001
 31
0.0
  0
LINE
  5
2D7
330
1F
100
AcDbEntity
  8
LAY-10
  6
CONTINUOUS
 62
     7
100
AcDbLine
 10
355.6094468812755
 20
223.6955944786985
 30
0.0
 11
395.5259488928951
 21
213.0000000000091
 31
0.0
  0
LINE
  5
2D8
330
1F
100
AcDbEntity
  8
LAY-10
  6
CONTINUOUS
 62
     7
100
AcDbLine
 10
354.1298259019713
 20
225.5227742187911
 30
0.0
 11
353.9999999999949
 21
228.0000000000091
 31
0.0
  0
ARC
  5
2D9
330
1F
100
AcDbEntity
  8
LAY-10
  6
CONTINUOUS
 62
     7
100
AcDbCircle
 10
356.1270849714805
 20
225.6274461312769
 30
0.0
 40
2.0
100
AcDbArc
 50
182.9999999999975
 51
255.0000000000038
  0
LINE
  5
2DA
330
1F
100
AcDbEntity
  8
LAY-10
  6
CONTINUOUS
 62
     7
100
AcDbLine
 10
365.6857827935787
 20
226.2665755298366
 30
0.0
 11
366.3571462766554
 21
230.1695246617469
 31
0.0
  0
LINE
  5
2DB
330
1F
100
AcDbEntity
  8
LAY-10
  6
CONTINUOUS
 62
     7
100
AcDbLine
 10
399.7903688828881
 20
217.0000000000094
 30
0.0
 11
400.0000000000202
 21
213.0000000000091
 31
0.0
  0
LINE
  5
2DC
330
1F
100
AcDbEntity
  8
LAY-10
  6
CONTINUOUS
 62
     7
100
AcDbLine
 10
385.7749374804546
 20
219.7538803550038
 30
0.0
 11
385.5000000000068
 21
225.0000000000091
 31
0.0
  0
LINE
  5
2DD
330
1F
100
AcDbEntity
  8
LAY-10
  6
CONTINUOUS
 62
     7
100
AcDbLine
 10
364.4414378030729
 20
225.4701743652854
 30
0.0
 11
354.9999999999947
 21
228.0000000000091
 31
0.0
  0
LINE
  5
2DE
330
1F
100
AcDbEntity
  8
LAY-10
  6
CONTINUOUS
 62
     7
100
AcDbLine
 10
371.3084987583723
 20
225.0000000000091
 30
0.0
 11
370.616754922381
 21
230.1335428446667
 31
0.0
  0
LINE
  5
2DF
330
1F
100
AcDbEntity
  8
LAY-10
  6
CONTINUOUS
 62
     7
100
AcDbLine
 10
396.0525588832502
 20
217.0000000000087
 30
0.0
 11
456.2096311171322
 21
217.0000000000087
 31
0.0
  0
ARC
  5
2E0
330
1F
100
AcDbEntity
  8
LAY-10
  6
CONTINUOUS
 62
     7
100
AcDbCircle
 10
367.3426722220586
 20
230.0000000000087
 30
0.0
 40
1.0
100
AcDbArc
 50
90.0
 51
170.2398169556093
  0
ARC
  5
2E1
330
1F
100
AcDbEntity
  8
LAY-10
  6
CONTINUOUS
 62
     7
100
AcDbCircle
 10
369.62571188162
 20
230.0000000000087
 30
0.0
 40
1.0
100
AcDbArc
 50
7.674368095125249
 51
90.0
  0
ARC
  5
2E2
330
1F
100
AcDbEntity
  8
LAY-10
  6
CONTINUOUS
 62
     7
100
AcDbCircle
 10
364.7002568481755
 20
226.4361001915748
 30
0.0
 40
1.0
100
AcDbArc
 50
255.0000000000154
 51
350.2398169556093
  0
LINE
  5
2E3
330
1F
100
AcDbEntity
  8
LAY-10
  6
CONTINUOUS
 62
     7
100
AcDbLine
 10
367.3426722220586
 20
231.000000000009
 30
0.0
 11
369.62571188162
 21
231.000000000009
 31
0.0
  0
LINE
  5
2E4
330
1F
100
AcDbEntity
  8
LAY-10
  6
CONTINUOUS
 62
     7
100
AcDbLine
 10
353.9999999999949
 20
228.0000000000091
 30
0.0
 11
365.9839567770494
 21
228.0000000000091
 31
0.0
  0
LINE
  5
2E5
330
1F
100
AcDbEntity
  8
LAY-10
  6
CONTINUOUS
 62
     7
100
AcDbLine
 10
369.62571188162
 20
231.000000000009
 30
0.0
 11
371.2801691022458
 21
231.000000000009
 31
0.0
  0
LINE
  5
2E6
330
1F
100
AcDbEntity
  8
LAY-10
  6
CONTINUOUS
 62
     7
100
AcDbLine
 10
465.0
 20
217.0000000000087
 30
0.0
 11
522.2096311171335
 21
217.0000000000087
 31
0.0
  0
LINE
  5
2E7
330
1F
100
AcDbEntity
  8
LAY-10
  6
CONTINUOUS
 62
     7
100
AcDbLine
 10
522.2620388964166
 20
218.0000000000094
 30
0.0
 11
537.7195466395463
 21
218.0000000000094
 31
0.0
  0
LINE
  5
2E8
330
1F
100
AcDbEntity
  8
LAY-10
  6
CONTINUOUS
 62
     7
100
AcDbLine
 10
522.2620388964166
 20
218.0000000000094
 30
0.0
 11
522.0000000000014
 21
213.0000000000091
 31
0.0
  0
LINE
  5
2E9
330
1F
100
AcDbEntity
  8
LAY-10
  6
CONTINUOUS
 62
     7
100
AcDbLine
 10
536.2406105727182
 20
218.0000000000094
 30
0.0
 11
536.0000000000047
 21
213.408876773553
 31
0.0
  0
LINE
  5
2EA
330
1F
100
AcDbEntity
  8
LAY-10
  6
CONTINUOUS
 62
     7
100
AcDbLine
 10
525.7379611035839
 20
218.0000000000094
 30
0.0
 11
525.9999999999991
 21
213.0000000000091
 31
0.0
  0
LINE
  5
2EB
330
1F
100
AcDbEntity
  8
LAY-10
  6
CONTINUOUS
 62
     7
100
AcDbLine
 10
395.5677876615188
 20
223.578838324894
 30
0.0
 11
402.3223818238673
 21
223.578838324894
 31
0.0
  0
ARC
  5
2EC
330
1F
100
AcDbEntity
  8
LAY-10
  6
CONTINUOUS
 62
     7
100
AcDbCircle
 10
371.2801691022458
 20
230.0000000000087
 30
0.0
 40
1.0
100
AcDbArc
 50
8.98303443344353
 51
90.0
  0
ARC
  5
2ED
330
1F
100
AcDbEntity
  8
LAY-10
  6
CONTINUOUS
 62
     7
100
AcDbCircle
 10
372.8567100198102
 20
230.0000000000087
 30
0.0
 40
1.0
100
AcDbArc
 50
90.0
 51
142.0241756723224
  0
ARC
  5
2EE
330
1F
100
AcDbEntity
  8
LAY-10
  6
CONTINUOUS
 62
     7
100
AcDbCircle
 10
402.3223818238673
 20
224.5788383248937
 30
0.0
 40
1.0
100
AcDbArc
 50
270.0
 51
359.2029652057482
  0
ARC
  5
2EF
330
1F
100
AcDbEntity
  8
LAY-10
  6
CONTINUOUS
 62
     7
100
AcDbCircle
 10
395.5677876615188
 20
224.5788383248937
 30
0.0
 40
1.0
100
AcDbArc
 50
190.7893791356772
 51
270.0
  0
LINE
  5
2F0
330
1F
100
AcDbEntity
  8
LAY-10
  6
CONTINUOUS
 62
     7
100
AcDbLine
 10
435.8417733872233
 20
223.578838324894
 30
0.0
 11
445.8541047836284
 21
223.578838324894
 31
0.0
  0
ARC
  5
2F1
330
1F
100
AcDbEntity
  8
LAY-10
  6
CONTINUOUS
 62
     7
100
AcDbCircle
 10
435.8417733872233
 20
224.5788383248937
 30
0.0
 40
1.0
100
AcDbArc
 50
189.7589750465814
 51
270.0
  0
ARC
  5
2F2
330
1F
100
AcDbEntity
  8
LAY-10
  6
CONTINUOUS
 62
     7
100
AcDbCircle
 10
445.8541047836284
 20
224.5788383248937
 30
0.0
 40
1.0
100
AcDbArc
 50
270.0
 51
354.2999210279382
  0
ARC
  5
2F3
330
1F
100
AcDbEntity
  8
LAY-10
  6
CONTINUOUS
 62
     7
100
AcDbCircle
 10
497.1199927483606
 20
230.0000000000087
 30
0.0
 40
1.0
100
AcDbArc
 50
90.0
 51
170.2410249533833
  0
LINE
  5
2F4
330
1F
100
AcDbEntity
  8
LAY-10
  6
CONTINUOUS
 62
     7
100
AcDbLine
 10
557.7320962794329
 20
230.1561419987432
 30
0.0
 11
556.8257479037202
 21
224.4226963261595
 31
0.0
  0
ARC
  5
2F5
330
1F
100
AcDbEntity
  8
LAY-10
  6
CONTINUOUS
 62
     7
100
AcDbCircle
 10
558.7198308977548
 20
230.0000000000087
 30
0.0
 40
1.0
100
AcDbArc
 50
90.0
 51
171.0169655665613
  0
ARC
  5
2F6
330
1F
100
AcDbEntity
  8
LAY-10
  6
CONTINUOUS
 62
     7
100
AcDbCircle
 10
557.1432899801904
 20
230.0000000000087
 30
0.0
 40
1.0
100
AcDbArc
 50
37.97582432769725
 51
90.0
  0
ARC
  5
2F7
330
1F
100
AcDbEntity
  8
LAY-10
  6
CONTINUOUS
 62
     7
100
AcDbCircle
 10
555.0940991023792
 20
230.0000000000087
 30
0.0
 40
1.0
100
AcDbArc
 50
90.0
 51
175.2418913682314
  0
LINE
  5
2F8
330
1F
100
AcDbEntity
  8
LAY-10
  6
CONTINUOUS
 62
     7
100
AcDbLine
 10
555.8380132853985
 20
223.5788383248938
 30
0.0
 11
554.6428627828899
 21
223.5788383248938
 31
0.0
  0
ARC
  5
2F9
330
1F
100
AcDbEntity
  8
LAY-10
  6
CONTINUOUS
 62
     7
100
AcDbCircle
 10
554.6428627828899
 20
224.5788383248937
 30
0.0
 40
1.0
100
AcDbArc
 50
175.2418913682412
 51
270.0
  0
ARC
  5
2FA
330
1F
100
AcDbEntity
  8
LAY-10
  6
CONTINUOUS
 62
     7
100
AcDbCircle
 10
555.8380132853985
 20
224.5788383248937
 30
0.0
 40
1.0
100
AcDbArc
 50
270.0
 51
351.0169655665769
  0
LINE
  5
2FB
330
1F
100
AcDbEntity
  8
LAY-10
  6
CONTINUOUS
 62
     7
100
AcDbLine
 10
558.7198308977548
 20
231.000000000009
 30
0.0
 11
560.3742881183803
 21
231.000000000009
 31
0.0
  0
LINE
  5
2FC
330
1F
100
AcDbEntity
  8
LAY-10
  6
CONTINUOUS
 62
     7
100
AcDbLine
 10
585.000000000003
 20
225.1986412405169
 30
0.0
 11
575.82640584387
 21
225.1986412405169
 31
0.0
  0
LINE
  5
2FD
330
1F
100
AcDbEntity
  8
LAY-10
  6
CONTINUOUS
 62
     7
100
AcDbLine
 10
354.17359415613
 20
225.1986412405169
 30
0.0
 11
345.0000000000031
 21
225.1986412405169
 31
0.0
  0
LINE
  5
2FE
330
1F
100
AcDbEntity
  8
LAY-10
  6
CONTINUOUS
 62
     7
100
AcDbLine
 10
395.5259488928962
 20
213.0000000000091
 30
0.0
 11
527.000000000079
 21
213.0000000000091
 31
0.0
  0
LINE
  5
2FF
330
1F
100
AcDbEntity
  8
LAY-10
  6
CONTINUOUS
 62
     7
100
AcDbLine
 10
574.3905531187249
 20
223.6955944786985
 30
0.0
 11
535.0000000000789
 21
213.1409275811415
 31
0.0
  0
LINE
  5
300
330
1F
100
AcDbEntity
  8
LAY-10
  6
CONTINUOUS
 62
     7
100
AcDbLine
 10
534.500000000079
 20
213.006952984926
 30
0.0
 11
534.4740511071052
 21
213.0000000000091
 31
0.0
  0
LINE
  5
301
330
1F
100
AcDbEntity
  8
LAY-10
  6
CONTINUOUS
 62
     7
100
AcDbLine
 10
460.9999999999995
 20
218.000000000009
 30
0.0
 11
460.9999999999995
 21
224.052000000009
 31
0.0
  0
LINE
  5
302
330
1F
100
AcDbEntity
  8
LAY-10
  6
CONTINUOUS
 62
     7
100
AcDbLine
 10
456.9999999999994
 20
218.000000000009
 30
0.0
 11
456.9999999999994
 21
224.052000000009
 31
0.0
  0
ARC
  5
303
330
1F
100
AcDbEntity
  8
LAY-10
  6
CONTINUOUS
 62
     7
100
AcDbCircle
 10
464.9999999999995
 20
213.7308128342336
 30
0.0
 40
11.06918716577541
100
AcDbArc
 50
90.0
 51
111.1839556582273
  0
ARC
  5
304
330
1F
100
AcDbEntity
  8
LAY-10
  6
CONTINUOUS
 62
     7
100
AcDbCircle
 10
458.9999999999995
 20
221.7522032085652
 30
0.0
 40
3.047796791443853
100
AcDbArc
 50
48.98840640770301
 51
131.0115935922954
  0
LINE
  5
305
330
1F
100
AcDbEntity
  8
LAY-10
  6
CONTINUOUS
 62
     7
100
AcDbLine
 10
464.9999999999995
 20
224.800000000009
 30
0.0
 11
458.9999999999995
 21
224.800000000009
 31
0.0
  0
LINE
  5
306
330
1F
100
AcDbEntity
  8
LAY-10
  6
CONTINUOUS
 62
     7
100
AcDbLine
 10
465.0
 20
218.0000000000085
 30
0.0
 11
456.2620388964156
 21
218.0000000000085
 31
0.0
  0
LINE
  5
307
330
1F
100
AcDbEntity
  8
LAY-10
  6
CONTINUOUS
 62
     7
100
AcDbLine
 10
542.0
 20
200.0921908014401
 30
0.0
 11
547.500000000003
 21
200.0921908014401
 31
0.0
  0
LINE
  5
308
330
1F
100
AcDbEntity
  8
LAY-10
  6
CONTINUOUS
 62
     7
100
AcDbLine
 10
542.000000000003
 20
200.0921908014401
 30
0.0
 11
542.000000000003
 21
145.1986412405167
 31
0.0
  0
LINE
  5
309
330
1F
100
AcDbEntity
  8
LAY-10
  6
CONTINUOUS
 62
     7
100
AcDbLine
 10
547.500000000003
 20
200.0921908014401
 30
0.0
 11
547.500000000003
 21
145.1986412405167
 31
0.0
  0
LINE
  5
30A
330
1F
100
AcDbEntity
  8
LAY-10
  6
CONTINUOUS
 62
     7
100
AcDbLine
 10
388.000000000003
 20
200.0921908014401
 30
0.0
 11
388.000000000003
 21
145.1986412405167
 31
0.0
  0
LINE
  5
30B
330
1F
100
AcDbEntity
  8
LAY-10
  6
CONTINUOUS
 62
     7
100
AcDbLine
 10
382.500000000003
 20
200.0921908014401
 30
0.0
 11
382.500000000003
 21
145.1986412405167
 31
0.0
  0
LINE
  5
30C
330
1F
100
AcDbEntity
  8
LAY-10
  6
CONTINUOUS
 62
     7
100
AcDbLine
 10
388.0000000000059
 20
200.0921908014401
 30
0.0
 11
382.500000000003
 21
200.0921908014401
 31
0.0
  0
LINE
  5
30D
330
1F
100
AcDbEntity
  8
LAY-10
  6
CONTINUOUS
 62
     7
100
AcDbLine
 10
382.500000000003
 20
145.1986412405167
 30
0.0
 11
547.5000000000031
 21
145.1986412405167
 31
0.0
  0
LINE
  5
30E
330
1F
100
AcDbEntity
  8
LAY-10
  6
CONTINUOUS
 62
     7
100
AcDbLine
 10
524.5000000000035
 20
160.1986412405153
 30
0.0
 11
525.9639052622755
 21
199.2361149011045
 31
0.0
  0
LINE
  5
30F
330
1F
100
AcDbEntity
  8
LAY-10
  6
CONTINUOUS
 62
     7
100
AcDbLine
 10
405.5000000000024
 20
160.1986412405153
 30
0.0
 11
404.0360947377306
 21
199.2361149011045
 31
0.0
  0
LINE
  5
310
330
1F
100
AcDbEntity
  8
LAY-10
  6
CONTINUOUS
 62
     7
100
AcDbLine
 10
419.2670953297444
 20
362.6255365585309
 30
0.0
 11
395.0000000000014
 21
225.0000000000101
 31
0.0
  0
LINE
  5
311
330
1F
100
AcDbEntity
  8
LAY-10
  6
CONTINUOUS
 62
     7
100
AcDbLine
 10
415.3278643176956
 20
363.3201292691986
 30
0.0
 11
392.2607459077719
 21
232.50000000001
 31
0.0
  0
ARC
  5
312
330
1F
100
AcDbEntity
  8
LAY-10
  6
CONTINUOUS
 62
     7
100
AcDbCircle
 10
465.0000000000012
 20
354.5615915589976
 30
0.0
 40
50.43840844101248
100
AcDbArc
 50
9.999999999998687
 51
170.0000000000015
  0
ARC
  5
313
330
1F
100
AcDbEntity
  8
LAY-10
  6
CONTINUOUS
 62
     7
100
AcDbCircle
 10
465.0000000000012
 20
354.5615915589976
 30
0.0
 40
46.43840844101243
100
AcDbArc
 50
9.999999999998515
 51
170.0000000000013
  0
LINE
  5
314
330
1F
100
AcDbEntity
  8
LAY-10
  6
CONTINUOUS
 62
     7
100
AcDbLine
 10
459.0000000000017
 20
230.00000000001
 30
0.0
 11
461.2834196627539
 21
387.9459683498583
 31
0.0
  0
ARC
  5
315
330
1F
100
AcDbEntity
  8
LAY-10
  6
CONTINUOUS
 62
     7
100
AcDbCircle
 10
450.4248763138564
 20
388.1251221078006
 30
0.0
 40
3.484084469364689
100
AcDbArc
 50
357.5286467761516
 51
175.9769989288773
  0
LINE
  5
316
330
1F
100
AcDbEntity
  8
LAY-10
  6
CONTINUOUS
 62
     7
100
AcDbLine
 10
435.8112094240415
 20
230.00000000001
 30
0.0
 11
446.9493767452349
 21
388.3695547941862
 31
0.0
  0
LINE
  5
317
330
1F
100
AcDbEntity
  8
LAY-10
  6
CONTINUOUS
 62
     7
100
AcDbLine
 10
447.0875208734722
 20
230.00000000001
 30
0.0
 11
453.9057202556113
 21
387.9748888131845
 31
0.0
  0
ARC
  5
318
330
1F
100
AcDbEntity
  8
LAY-10
  6
CONTINUOUS
 62
     7
100
AcDbCircle
 10
449.4239453535308
 20
388.1251221078006
 30
0.0
 40
3.484084469364689
100
AcDbArc
 50
357.5286467761516
 51
81.74127492635478
  0
LINE
  5
319
330
1F
100
AcDbEntity
  8
LAY-10
  6
CONTINUOUS
 62
     7
100
AcDbLine
 10
452.9047892952857
 20
387.9748888131845
 30
0.0
 11
446.0865899131466
 21
230.00000000001
 31
0.0
  0
LINE
  5
31A
330
1F
100
AcDbEntity
  8
LAY-10
  6
CONTINUOUS
 62
     7
100
AcDbLine
 10
425.3355510896393
 20
230.00000000001
 30
0.0
 11
440.4854320727749
 21
388.5191938565006
 31
0.0
  0
ARC
  5
31B
330
1F
100
AcDbEntity
  8
LAY-10
  6
CONTINUOUS
 62
     7
100
AcDbCircle
 10
437.6766559916308
 20
388.787632159159
 30
0.0
 40
2.821574418005272
100
AcDbArc
 50
354.5407505380119
 51
107.5053883308266
  0
ARC
  5
31C
330
1F
100
AcDbEntity
  8
LAY-10
  6
CONTINUOUS
 62
     7
100
AcDbCircle
 10
435.6675428857858
 20
388.787632159159
 30
0.0
 40
2.821574418005272
100
AcDbArc
 50
354.5407505380119
 51
67.9184670194028
  0
LINE
  5
31D
330
1F
100
AcDbEntity
  8
LAY-10
  6
CONTINUOUS
 62
     7
100
AcDbLine
 10
438.4763189669301
 20
388.5191938565006
 30
0.0
 11
423.3264379837945
 21
230.00000000001
 31
0.0
  0
LINE
  5
31E
330
1F
100
AcDbEntity
  8
LAY-10
  6
CONTINUOUS
 62
     7
100
AcDbLine
 10
416.1430177722116
 20
230.00000000001
 30
0.0
 11
434.9771075234704
 21
389.9897118291581
 31
0.0
  0
LINE
  5
31F
330
1F
100
AcDbEntity
  8
LAY-10
  6
CONTINUOUS
 62
     7
100
AcDbLine
 10
408.3676992293167
 20
230.00000000001
 30
0.0
 11
429.4402722971262
 21
384.4284886899629
 31
0.0
  0
LINE
  5
320
330
1F
100
AcDbEntity
  8
LAY-10
  6
CONTINUOUS
 62
     7
100
AcDbLine
 10
425.716328313063
 20
379.3268680025814
 30
0.0
 11
405.3398980075836
 21
230.00000000001
 31
0.0
  0
LINE
  5
321
330
1F
100
AcDbEntity
  8
LAY-10
  6
CONTINUOUS
 62
     7
100
AcDbLine
 10
402.3676992293167
 20
230.00000000001
 30
0.0
 11
424.6290195343344
 21
377.5117487431004
 31
0.0
  0
LINE
  5
322
330
1F
100
AcDbEntity
  8
LAY-10
  6
CONTINUOUS
 62
     7
100
AcDbLine
 10
420.2885750008084
 20
367.1080752526804
 30
0.0
 11
398.2305386456821
 21
230.00000000001
 31
0.0
  0
LINE
  5
323
330
1F
100
AcDbEntity
  8
LAY-10
  6
CONTINUOUS
 62
     7
100
AcDbLine
 10
384.6627089603313
 20
226.8953280875241
 30
0.0
 11
384.3689805517878
 21
232.5000000000101
 31
0.0
  0
LINE
  5
324
330
1F
100
AcDbEntity
  8
LAY-10
  6
CONTINUOUS
 62
     7
100
AcDbLine
 10
373.0000000000109
 20
232.5000000000101
 30
0.0
 11
392.2607459077719
 21
232.5000000000101
 31
0.0
  0
ARC
  5
325
330
1F
100
AcDbEntity
  8
LAY-10
  6
CONTINUOUS
 62
     7
100
AcDbCircle
 10
386.6599680298405
 20
227.00000000001
 30
0.0
 40
2.0
100
AcDbArc
 50
182.9999999999999
 51
270.0
  0
LINE
  5
326
330
1F
100
AcDbEntity
  8
LAY-10
  6
CONTINUOUS
 62
     7
100
AcDbLine
 10
459.9999999999979
 20
225.0000000000101
 30
0.0
 11
460.999999999998
 21
230.0000000000101
 31
0.0
  0
LINE
  5
327
330
1F
100
AcDbEntity
  8
LAY-10
  6
CONTINUOUS
 62
     7
100
AcDbLine
 10
447.0875208734722
 20
230.00000000001
 30
0.0
 11
435.8112094240415
 21
230.00000000001
 31
0.0
  0
LINE
  5
328
330
1F
100
AcDbEntity
  8
LAY-10
  6
CONTINUOUS
 62
     7
100
AcDbLine
 10
425.3355510896393
 20
230.00000000001
 30
0.0
 11
416.1430177722116
 21
230.00000000001
 31
0.0
  0
LINE
  5
329
330
1F
100
AcDbEntity
  8
LAY-10
  6
CONTINUOUS
 62
     7
100
AcDbLine
 10
408.3676992293167
 20
230.00000000001
 30
0.0
 11
402.3676992293167
 21
230.00000000001
 31
0.0
  0
LINE
  5
32A
330
1F
100
AcDbEntity
  8
LAY-10
  6
CONTINUOUS
 62
     7
100
AcDbLine
 10
398.2305386456821
 20
230.00000000001
 30
0.0
 11
395.8816349035436
 21
230.00000000001
 31
0.0
  0
LINE
  5
32B
330
1F
100
AcDbEntity
  8
LAY-10
  6
CONTINUOUS
 62
     7
100
AcDbLine
 10
493.0000000000011
 20
391.6092065771645
 30
0.0
 11
492.0000000000012
 21
397.1647962044512
 31
0.0
  0
ARC
  5
32C
330
1F
100
AcDbEntity
  8
LAY-10
  6
CONTINUOUS
 62
     7
100
AcDbCircle
 10
465.0000000000012
 20
387.892237870322
 30
0.0
 40
3.716968706841741
100
AcDbArc
 50
90.0
 51
179.1717345028729
  0
ARC
  5
32D
330
1F
100
AcDbEntity
  8
LAY-10
  6
CONTINUOUS
 62
     7
100
AcDbCircle
 10
469.9490254467144
 20
389.1653052315646
 30
0.0
 40
2.443901345596361
100
AcDbArc
 50
3.762676201877201
 51
181.2754042898241
  0
LINE
  5
32E
330
1F
100
AcDbEntity
  8
LAY-10
  6
CONTINUOUS
 62
     7
100
AcDbLine
 10
467.5057295621881
 20
389.1109084700601
 30
0.0
 11
471.0481241593079
 21
230.0000000000101
 31
0.0
  0
LINE
  5
32F
330
1F
100
AcDbEntity
  8
LAY-10
  6
CONTINUOUS
 62
     7
100
AcDbLine
 10
482.8658171954481
 20
230.0000000000101
 30
0.0
 11
472.387658789278
 21
389.3256835578201
 31
0.0
  0
LINE
  5
330
330
1F
100
AcDbEntity
  8
LAY-10
  6
CONTINUOUS
 62
     7
100
AcDbLine
 10
467.5057295621881
 20
389.1109084700601
 30
0.0
 11
467.5057295621881
 21
389.2197019930859
 31
0.0
  0
LINE
  5
331
330
1F
100
AcDbEntity
  8
LAY-10
  6
CONTINUOUS
 62
     7
100
AcDbLine
 10
467.8611445790082
 20
389.1109084700601
 30
0.0
 11
471.403539176128
 21
230.0000000000101
 31
0.0
  0
ARC
  5
332
330
1F
100
AcDbEntity
  8
LAY-10
  6
CONTINUOUS
 62
     7
100
AcDbCircle
 10
470.3044404635345
 20
389.1653052315646
 30
0.0
 40
2.443901345596361
100
AcDbArc
 50
94.16992458303329
 51
181.2754042898241
  0
LINE
  5
333
330
1F
100
AcDbEntity
  8
LAY-10
  6
CONTINUOUS
 62
     7
100
AcDbLine
 10
504.624877325058
 20
230.0000000000101
 30
0.0
 11
494.2325724796481
 21
230.0000000000101
 31
0.0
  0
ARC
  5
334
330
1F
100
AcDbEntity
  8
LAY-10
  6
CONTINUOUS
 62
     7
100
AcDbCircle
 10
479.2117615805868
 20
389.4809293174706
 30
0.0
 40
2.128277259690108
100
AcDbArc
 50
8.298791864073026
 51
186.1418331030346
  0
LINE
  5
335
330
1F
100
AcDbEntity
  8
LAY-10
  6
CONTINUOUS
 62
     7
100
AcDbLine
 10
477.0957004344131
 20
389.2532248604108
 30
0.0
 11
494.2325724796481
 21
230.0000000000101
 31
0.0
  0
LINE
  5
336
330
1F
100
AcDbEntity
  8
LAY-10
  6
CONTINUOUS
 62
     7
100
AcDbLine
 10
504.624877325058
 20
230.0000000000101
 30
0.0
 11
481.3177532931071
 21
389.7881149305889
 31
0.0
  0
LINE
  5
337
330
1F
100
AcDbEntity
  8
LAY-10
  6
CONTINUOUS
 62
     7
100
AcDbLine
 10
478.8135380590829
 20
389.2532248604108
 30
0.0
 11
495.9504101043179
 21
230.0000000000101
 31
0.0
  0
ARC
  5
338
330
1F
100
AcDbEntity
  8
LAY-10
  6
CONTINUOUS
 62
     7
100
AcDbCircle
 10
480.9295992052569
 20
389.4809293174706
 30
0.0
 40
2.128277259690108
100
AcDbArc
 50
113.8018399994328
 51
186.1418331030346
  0
LINE
  5
339
330
1F
100
AcDbEntity
  8
LAY-10
  6
CONTINUOUS
 62
     7
100
AcDbLine
 10
502.9639619010779
 20
230.0000000000101
 30
0.0
 11
504.199080208548
 21
225.0000000000101
 31
0.0
  0
LINE
  5
33A
330
1F
100
AcDbEntity
  8
LAY-10
  6
CONTINUOUS
 62
     7
100
AcDbLine
 10
513.891141132118
 20
230.0000000000101
 30
0.0
 11
521.6045924483581
 21
230.0000000000101
 31
0.0
  0
ARC
  5
33B
330
1F
100
AcDbEntity
  8
LAY-10
  6
CONTINUOUS
 62
     7
100
AcDbCircle
 10
486.6660500865855
 20
390.0539537341207
 30
0.0
 40
1.555252843040876
100
AcDbArc
 50
11.77011161510542
 51
190.2024546079126
  0
LINE
  5
33C
330
1F
100
AcDbEntity
  8
LAY-10
  6
CONTINUOUS
 62
     7
100
AcDbLine
 10
488.1886020761685
 20
390.3712026029904
 30
0.0
 11
521.6045924483581
 21
230.0000000000101
 31
0.0
  0
LINE
  5
33D
330
1F
100
AcDbEntity
  8
LAY-10
  6
CONTINUOUS
 62
     7
100
AcDbLine
 10
513.891141132118
 20
230.0000000000101
 30
0.0
 11
485.1353888694925
 21
389.7784766129853
 31
0.0
  0
LINE
  5
33E
330
1F
100
AcDbEntity
  8
LAY-10
  6
CONTINUOUS
 62
     7
100
AcDbLine
 10
516.764204794528
 20
230.0000000000101
 30
0.0
 11
488.0084525319025
 21
389.7784766129853
 31
0.0
  0
ARC
  5
33F
330
1F
100
AcDbEntity
  8
LAY-10
  6
CONTINUOUS
 62
     7
100
AcDbCircle
 10
489.5391137489955
 20
390.0539537341207
 30
0.0
 40
1.555252843040876
100
AcDbArc
 50
157.4678260935886
 51
190.2024546079126
  0
ARC
  5
340
330
1F
100
AcDbEntity
  8
LAY-10
  6
CONTINUOUS
 62
     7
100
AcDbCircle
 10
491.4046840151359
 20
390.7945451773321
 30
0.0
 40
0.8146613998263771
100
AcDbArc
 50
13.80619919662539
 51
192.9870538701794
  0
LINE
  5
341
330
1F
100
AcDbEntity
  8
LAY-10
  6
CONTINUOUS
 62
     7
100
AcDbLine
 10
471.0481241593079
 20
230.0000000000101
 30
0.0
 11
482.8658171954481
 21
230.0000000000101
 31
0.0
  0
LINE
  5
342
330
1F
100
AcDbEntity
  8
LAY-10
  6
CONTINUOUS
 62
     7
100
AcDbLine
 10
394.469531515344
 20
225.0000000000101
 30
0.0
 11
394.5854656929703
 21
224.3916390991827
 31
0.0
  0
LINE
  5
343
330
1F
100
AcDbEntity
  8
LAY-10
  6
CONTINUOUS
 62
     7
100
AcDbLine
 10
403.3283376960406
 20
225.0000000000101
 30
0.0
 11
403.3222850691168
 21
224.5649278921319
 31
0.0
  0
ARC
  5
344
330
1F
100
AcDbEntity
  8
LAY-10
  6
CONTINUOUS
 62
     7
100
AcDbCircle
 10
402.3977998258918
 20
230.0000000000087
 30
0.0
 40
1.0
100
AcDbArc
 50
359.2029652057482
 51
83.12370633885729
  0
LINE
  5
345
330
1F
100
AcDbEntity
  8
LAY-10
  6
CONTINUOUS
 62
     7
100
AcDbLine
 10
402.5186114142421
 20
231.000000000009
 30
0.0
 11
405.4763532254424
 21
231.000000000009
 31
0.0
  0
LINE
  5
346
330
1F
100
AcDbEntity
  8
LAY-10
  6
CONTINUOUS
 62
     7
100
AcDbLine
 10
416.2607384027191
 20
231.000000000009
 30
0.0
 11
423.4220092557304
 21
231.000000000009
 31
0.0
  0
LINE
  5
347
330
1F
100
AcDbEntity
  8
LAY-10
  6
CONTINUOUS
 62
     7
100
AcDbLine
 10
434.7546537034498
 20
225.0000000000101
 30
0.0
 11
434.8562438678596
 21
224.4093344415681
 31
0.0
  0
LINE
  5
348
330
1F
100
AcDbEntity
  8
LAY-10
  6
CONTINUOUS
 62
     7
100
AcDbLine
 10
446.9011120308436
 20
225.0000000000101
 30
0.0
 11
446.849160216694
 21
224.4795172036427
 31
0.0
  0
LINE
  5
349
330
1F
100
AcDbEntity
  8
LAY-10
  6
CONTINUOUS
 62
     7
100
AcDbLine
 10
447.0746574150319
 20
231.000000000009
 30
0.0
 11
447.1306808936081
 21
231.000000000009
 31
0.0
  0
LINE
  5
34A
330
1F
100
AcDbEntity
  8
LAY-10
  6
CONTINUOUS
 62
     7
100
AcDbLine
 10
459.0144569670684
 20
231.000000000009
 30
0.0
 11
460.9999999999999
 21
231.000000000009
 31
0.0
  0
LINE
  5
34B
330
1F
100
AcDbEntity
  8
LAY-10
  6
CONTINUOUS
 62
     7
100
AcDbLine
 10
460.9999999999999
 20
230.00000000001
 30
0.0
 11
459.0000000000017
 21
230.00000000001
 31
0.0
  0
LINE
  5
34C
330
1F
100
AcDbEntity
  8
LAY-10
  6
CONTINUOUS
 62
     7
100
AcDbLine
 10
482.5422455024553
 20
230.5767605499218
 30
0.0
 11
482.5998146615264
 21
230.0000000000101
 31
0.0
  0
ARC
  5
34D
330
1F
100
AcDbEntity
  8
LAY-10
  6
CONTINUOUS
 62
     7
100
AcDbCircle
 10
482.9253425849688
 20
230.6149992555448
 30
0.0
 40
0.385000744466424
100
AcDbArc
 50
108.7796553711094
 51
185.7000789720743
  0
LINE
  5
34E
330
1F
100
AcDbEntity
  8
LAY-10
  6
CONTINUOUS
 62
     7
100
AcDbLine
 10
471.3812754945792
 20
231.000000000009
 30
0.0
 11
482.8000515375066
 21
231.000000000009
 31
0.0
  0
LINE
  5
34F
330
1F
100
AcDbEntity
  8
LAY-10
  6
CONTINUOUS
 62
     7
100
AcDbLine
 10
496.1344632289969
 20
230.169503883335
 30
0.0
 11
496.1053097983813
 21
230.0000000000101
 31
0.0
  0
LINE
  5
350
330
1F
100
AcDbEntity
  8
LAY-10
  6
CONTINUOUS
 62
     7
100
AcDbLine
 10
496.0386597169381
 20
230.0000000000202
 30
0.0
 11
495.6256934253281
 21
225.0000000000201
 31
0.0
  0
LINE
  5
351
330
1F
100
AcDbEntity
  8
LAY-10
  6
CONTINUOUS
 62
     7
100
AcDbLine
 10
497.1199927483606
 20
231.000000000009
 30
0.0
 11
504.4790146365717
 21
231.000000000009
 31
0.0
  0
LINE
  5
352
330
1F
100
AcDbEntity
  8
LAY-10
  6
CONTINUOUS
 62
     7
100
AcDbLine
 10
516.5842321669742
 20
231.000000000009
 30
0.0
 11
521.3962259222625
 21
231.000000000009
 31
0.0
  0
LINE
  5
353
330
1F
100
AcDbEntity
  8
LAY-10
  6
CONTINUOUS
 62
     7
100
AcDbLine
 10
539.0000000000799
 20
218.353829072508
 30
0.0
 11
557.8567128498285
 21
223.4064700525039
 31
0.0
  0
LINE
  5
354
330
1F
100
AcDbEntity
  8
LAY-10
  6
CONTINUOUS
 62
     7
100
AcDbLine
 10
526.6716623039596
 20
225.0000000000101
 30
0.0
 11
526.6744446597182
 21
224.8000000000038
 31
0.0
  0
LINE
  5
355
330
1F
100
AcDbEntity
  8
LAY-10
  6
CONTINUOUS
 62
     7
100
AcDbLine
 10
553.6463090095817
 20
224.6617875678402
 30
0.0
 11
553.6744604911726
 21
225.0000000000101
 31
0.0
  0
LINE
  5
356
330
1F
100
AcDbEntity
  8
LAY-10
  6
CONTINUOUS
 62
     7
100
AcDbLine
 10
554.0906409581385
 20
230.00000000001
 30
0.0
 11
554.0975453290713
 21
230.0829492429553
 31
0.0
  0
LINE
  5
357
330
1F
100
AcDbEntity
  8
LAY-10
  6
CONTINUOUS
 62
     7
100
AcDbLine
 10
538.0037445632936
 20
231.000000000009
 30
0.0
 11
557.1432899801904
 21
231.000000000009
 31
0.0
  0
LINE
  5
358
330
1F
100
AcDbEntity
  8
LAY-10
  6
CONTINUOUS
 62
     7
100
AcDbLine
 10
535.5304684846566
 20
225.0000000000101
 30
0.0
 11
535.4923548657595
 21
224.8000000000038
 31
0.0
  0
LINE
  5
359
330
1F
100
AcDbEntity
  8
LAY-10
  6
CONTINUOUS
 62
     7
100
AcDbLine
 10
510.7329046702583
 20
362.6255365585309
 30
0.0
 11
529.5514962961121
 21
255.9000000000005
 31
0.0
  0
LINE
  5
35A
330
1F
100
AcDbEntity
  8
LAY-10
  6
CONTINUOUS
 62
     7
100
AcDbLine
 10
527.0000000000799
 20
232.8301436062796
 30
0.0
 11
490.6108609466385
 21
390.6114655982115
 31
0.0
  0
LINE
  5
35B
330
1F
100
AcDbEntity
  8
LAY-10
  6
CONTINUOUS
 62
     7
100
AcDbLine
 10
527.0000000000799
 20
248.7940360129216
 30
0.0
 11
524.8850741887595
 21
257.9642389664711
 31
0.0
  0
LINE
  5
35C
330
1F
100
AcDbEntity
  8
LAY-10
  6
CONTINUOUS
 62
     7
100
AcDbLine
 10
492.1958085972416
 20
390.9889547757522
 30
0.0
 11
527.0000000000799
 21
249.3578233765895
 31
0.0
  0
LINE
  5
35D
330
1F
100
AcDbEntity
  8
LAY-10
  6
CONTINUOUS
 62
     7
100
AcDbLine
 10
514.6721356823068
 20
363.3201292691986
 30
0.0
 11
533.613202743655
 21
255.8999999999997
 31
0.0
  0
LINE
  5
35E
330
1F
100
AcDbEntity
  8
LAY-10
  6
CONTINUOUS
 62
     7
100
AcDbLine
 10
535.0000000000798
 20
248.0350819321411
 30
0.0
 11
538.1800715440019
 21
230.00000000001
 31
0.0
  0
ARC
  5
35F
330
1F
100
AcDbEntity
  8
LAY-10
  6
CONTINUOUS
 62
     7
100
AcDbCircle
 10
374.2500000000005
 20
232.3857492994084
 30
0.0
 40
3.500000000000001
100
AcDbArc
 50
128.6821874534968
 51
178.1293582694076
  0
ARC
  5
360
330
1F
100
AcDbEntity
  8
LAY-10
  6
CONTINUOUS
 62
     7
100
AcDbCircle
 10
377.7500000000004
 20
232.3857492994084
 30
0.0
 40
3.500000000000001
100
AcDbArc
 50
1.870641730603566
 51
51.31781254649928
  0
LINE
  5
361
330
1F
100
AcDbEntity
  8
LAY-10
  6
CONTINUOUS
 62
     7
100
AcDbLine
 10
381.2481347569005
 20
232.5000000000087
 30
0.0
 11
370.7518652431004
 21
232.5000000000087
 31
0.0
  0
LINE
  5
362
330
1F
100
AcDbEntity
  8
LAY-10
  6
CONTINUOUS
 62
     7
100
AcDbLine
 10
376.6000000000004
 20
236.4713634881087
 30
0.0
 11
376.6000000000004
 21
234.0000000000087
 31
0.0
  0
LINE
  5
363
330
1F
100
AcDbEntity
  8
LAY-10
  6
CONTINUOUS
 62
     7
100
AcDbLine
 10
376.6000000000004
 20
234.0000000000087
 30
0.0
 11
375.4000000000005
 21
234.0000000000087
 31
0.0
  0
LINE
  5
364
330
1F
100
AcDbEntity
  8
LAY-10
  6
CONTINUOUS
 62
     7
100
AcDbLine
 10
375.4000000000005
 20
236.4713634881087
 30
0.0
 11
375.4000000000005
 21
234.0000000000087
 31
0.0
  0
ARC
  5
365
330
1F
100
AcDbEntity
  8
LAY-10
  6
CONTINUOUS
 62
     7
100
AcDbCircle
 10
376.0000000000003
 20
230.2000000000087
 30
0.0
 40
6.300000000000002
100
AcDbArc
 50
51.31781254649636
 51
84.53497620009911
  0
ARC
  5
366
330
1F
100
AcDbEntity
  8
LAY-10
  6
CONTINUOUS
 62
     7
100
AcDbCircle
 10
376.0000000000003
 20
230.2000000000087
 30
0.0
 40
6.300000000000002
100
AcDbArc
 50
95.46502379991026
 51
128.6821874534955
  0
LINE
  5
367
330
1F
100
AcDbEntity
  8
LAY-10
  6
CONTINUOUS
 62
     7
100
AcDbLine
 10
373.5000000000005
 20
220.5000000000107
 30
0.0
 11
373.0000000000003
 21
221.0000000000107
 31
0.0
  0
LINE
  5
368
330
1F
100
AcDbEntity
  8
LAY-10
  6
CONTINUOUS
 62
     7
100
AcDbLine
 10
378.5000000000004
 20
220.5000000000107
 30
0.0
 11
379.0000000000003
 21
221.0000000000107
 31
0.0
  0
LINE
  5
369
330
1F
100
AcDbEntity
  8
LAY-10
  6
CONTINUOUS
 62
     7
100
AcDbLine
 10
373.0000000000003
 20
232.5000000000087
 30
0.0
 11
373.0000000000003
 21
221.0000000000107
 31
0.0
  0
LINE
  5
36A
330
1F
100
AcDbEntity
  8
LAY-10
  6
CONTINUOUS
 62
     7
100
AcDbLine
 10
373.5000000000005
 20
220.5000000000107
 30
0.0
 11
378.5000000000004
 21
220.5000000000107
 31
0.0
  0
LINE
  5
36B
330
1F
100
AcDbEntity
  8
LAY-10
  6
CONTINUOUS
 62
     7
100
AcDbLine
 10
379.0000000000003
 20
232.5000000000087
 30
0.0
 11
379.0000000000003
 21
221.0000000000107
 31
0.0
  0
LINE
  5
36C
330
1F
100
AcDbEntity
  8
LAY-10
  6
CONTINUOUS
 62
     7
100
AcDbLine
 10
379.0000000000003
 20
221.0000000000107
 30
0.0
 11
373.0000000000003
 21
221.0000000000107
 31
0.0
  0
LINE
  5
36D
330
1F
100
AcDbEntity
  8
LAY-10
  6
CONTINUOUS
 62
     7
100
AcDbLine
 10
372.2679037205674
 20
230.1561419987432
 30
0.0
 11
373.0000000000003
 21
225.5249931406368
 31
0.0
  0
LINE
  5
36E
330
1F
100
AcDbEntity
  8
LAY-10
  6
CONTINUOUS
 62
     7
100
AcDbLine
 10
372.8567100198102
 20
231.000000000009
 30
0.0
 11
373.0000000000003
 21
231.000000000009
 31
0.0
  0
LINE
  5
36F
330
1F
100
AcDbEntity
  8
LAY-10
  6
CONTINUOUS
 62
     7
100
AcDbLine
 10
373.5000000000014
 20
220.5000000000101
 30
0.0
 11
373.5000000000014
 21
218.9018352183896
 31
0.0
  0
LINE
  5
370
330
1F
100
AcDbEntity
  8
LAY-10
  6
CONTINUOUS
 62
     7
100
AcDbLine
 10
378.5000000000013
 20
220.5000000000101
 30
0.0
 11
378.5000000000013
 21
217.562089256234
 31
0.0
  0
LINE
  5
371
330
1F
100
AcDbEntity
  8
LAY-10
  6
CONTINUOUS
 62
     7
100
AcDbLine
 10
373.5000000000005
 20
225.0000000000091
 30
0.0
 11
371.3084987583723
 21
225.0000000000091
 31
0.0
  0
LINE
  5
372
330
1F
100
AcDbEntity
  8
LAY-10
  6
CONTINUOUS
 62
     7
100
AcDbLine
 10
461.4999999999998
 20
255.8999999999986
 30
0.0
 11
464.2499999999995
 21
255.8999999999986
 31
0.0
  0
LINE
  5
373
330
1F
100
AcDbEntity
  8
LAY-10
  6
CONTINUOUS
 62
     7
100
AcDbLine
 10
460.9999999999999
 20
255.4000000000024
 30
0.0
 11
464.2499999999995
 21
255.4000000000024
 31
0.0
  0
LINE
  5
374
330
1F
100
AcDbEntity
  8
LAY-10
  6
CONTINUOUS
 62
     7
100
AcDbLine
 10
460.9999999999999
 20
255.4000000000024
 30
0.0
 11
461.4999999999999
 21
255.8999999999986
 31
0.0
  0
LINE
  5
375
330
1F
100
AcDbEntity
  8
LAY-10
  6
CONTINUOUS
 62
     7
100
AcDbLine
 10
464.2499999999995
 20
253.4000000000022
 30
0.0
 11
464.9999999999995
 21
253.4000000000022
 31
0.0
  0
LINE
  5
376
330
1F
100
AcDbEntity
  8
LAY-10
  6
CONTINUOUS
 62
     7
100
AcDbLine
 10
464.2499999999995
 20
253.4000000000022
 30
0.0
 11
464.2499999999995
 21
255.8999999999986
 31
0.0
  0
LINE
  5
377
330
1F
100
AcDbEntity
  8
LAY-10
  6
CONTINUOUS
 62
     7
100
AcDbLine
 10
460.9999999999999
 20
224.800000000009
 30
0.0
 11
460.9999999999999
 21
255.4000000000024
 31
0.0
  0
LINE
  5
378
330
1F
100
AcDbEntity
  8
LAY-10
  6
CONTINUOUS
 62
     7
100
AcDbLine
 10
378.5000000000004
 20
225.0000000000101
 30
0.0
 11
460.9999999999999
 21
225.0000000000101
 31
0.0
  0
LINE
  5
379
330
1F
100
AcDbEntity
  8
LAY-10
  6
CONTINUOUS
 62
     7
100
AcDbLine
 10
465.0000000000029
 20
225.0000000000101
 30
0.0
 11
527.0000000000799
 21
225.0000000000101
 31
0.0
  0
LINE
  5
37A
330
1F
100
AcDbEntity
  8
LAY-10
  6
CONTINUOUS
 62
     7
100
AcDbLine
 10
359.0000000000074
 20
215.1986412405277
 30
0.0
 11
359.0000000000074
 21
216.1986412405259
 31
0.0
  0
LINE
  5
37B
330
1F
100
AcDbEntity
  8
LAY-10
  6
CONTINUOUS
 62
     7
100
AcDbLine
 10
364.0000000000068
 20
215.1986412405277
 30
0.0
 11
364.0000000000068
 21
216.198641240527
 31
0.0
  0
LINE
  5
37C
330
1F
100
AcDbEntity
  8
LAY-10
  6
CONTINUOUS
 62
     7
100
AcDbLine
 10
364.0000000000068
 20
216.198641240527
 30
0.0
 11
359.0000000000074
 21
216.198641240527
 31
0.0
  0
LINE
  5
37D
330
1F
100
AcDbEntity
  8
LAY-10
  6
CONTINUOUS
 62
     7
100
AcDbLine
 10
364.5000000000099
 20
214.698641240527
 30
0.0
 11
358.5000000000099
 21
214.698641240527
 31
0.0
  0
LINE
  5
37E
330
1F
100
AcDbEntity
  8
LAY-10
  6
CONTINUOUS
 62
     7
100
AcDbLine
 10
364.0000000000099
 20
215.1986412405277
 30
0.0
 11
359.0000000000099
 21
215.1986412405277
 31
0.0
  0
LINE
  5
37F
330
1F
100
AcDbEntity
  8
LAY-10
  6
CONTINUOUS
 62
     7
100
AcDbLine
 10
361.5000000000097
 20
217.6420169135027
 30
0.0
 11
359.0000000000088
 21
216.198641240528
 31
0.0
  0
LINE
  5
380
330
1F
100
AcDbEntity
  8
LAY-10
  6
CONTINUOUS
 62
     7
100
AcDbLine
 10
361.5000000000102
 20
217.6420169135024
 30
0.0
 11
364.0000000000106
 21
216.198641240528
 31
0.0
  0
LINE
  5
381
330
1F
100
AcDbEntity
  8
LAY-10
  6
CONTINUOUS
 62
     7
100
AcDbLine
 10
347.0000000000104
 20
185.1986412405363
 30
0.0
 11
347.0000000000104
 21
190.1986412405362
 31
0.0
  0
LINE
  5
382
330
1F
100
AcDbEntity
  8
LAY-10
  6
CONTINUOUS
 62
     7
100
AcDbLine
 10
357.0000000000109
 20
190.1986412405362
 30
0.0
 11
347.0000000000104
 21
190.1986412405362
 31
0.0
  0
ARC
  5
383
330
1F
100
AcDbEntity
  8
LAY-10
  6
CONTINUOUS
 62
     7
100
AcDbCircle
 10
357.0000000000109
 20
192.1986412405363
 30
0.0
 40
2.0
100
AcDbArc
 50
270.0000000000002
 51
0.0
  0
LINE
  5
384
330
1F
100
AcDbEntity
  8
LAY-10
  6
CONTINUOUS
 62
     7
100
AcDbLine
 10
357.0000000000109
 20
185.1986412405363
 30
0.0
 11
347.0000000000104
 21
185.1986412405363
 31
0.0
  0
ARC
  5
385
330
1F
100
AcDbEntity
  8
LAY-10
  6
CONTINUOUS
 62
     7
100
AcDbCircle
 10
357.0000000000109
 20
192.1986412405363
 30
0.0
 40
7.000000000000004
100
AcDbArc
 50
270.0000000000002
 51
0.0
  0
LINE
  5
386
330
1F
100
AcDbEntity
  8
LAY-10
  6
CONTINUOUS
 62
     7
100
AcDbLine
 10
359.0000000000099
 20
192.1986412405319
 30
0.0
 11
359.0000000000099
 21
207.1986412405315
 31
0.0
  0
LINE
  5
387
330
1F
100
AcDbEntity
  8
LAY-10
  6
CONTINUOUS
 62
     7
100
AcDbLine
 10
364.0000000000099
 20
192.1986412405319
 30
0.0
 11
364.0000000000099
 21
207.1986412405315
 31
0.0
  0
LINE
  5
388
330
1F
100
AcDbEntity
  8
LAY-10
  6
CONTINUOUS
 62
     7
100
AcDbLine
 10
364.0000000000068
 20
213.1986412405364
 30
0.0
 11
359.0000000000074
 21
213.1986412405364
 31
0.0
  0
LINE
  5
389
330
1F
100
AcDbEntity
  8
LAY-10
  6
CONTINUOUS
 62
     7
100
AcDbLine
 10
364.5000000000081
 20
212.6986412405379
 30
0.0
 11
358.500000000009
 21
212.6986412405379
 31
0.0
  0
LINE
  5
38A
330
1F
100
AcDbEntity
  8
LAY-10
  6
CONTINUOUS
 62
     7
100
AcDbLine
 10
359.0000000000074
 20
215.1986412405277
 30
0.0
 11
359.0000000000074
 21
213.1986412405364
 31
0.0
  0
LINE
  5
38B
330
1F
100
AcDbEntity
  8
LAY-10
  6
CONTINUOUS
 62
     7
100
AcDbLine
 10
364.0000000000068
 20
215.1986412405277
 30
0.0
 11
364.0000000000068
 21
213.1986412405364
 31
0.0
  0
LINE
  5
38C
330
1F
100
AcDbEntity
  8
LAY-10
  6
CONTINUOUS
 62
     7
100
AcDbLine
 10
358.5000000000099
 20
212.6986412405419
 30
0.0
 11
359.0000000000099
 21
213.1986412405319
 31
0.0
  0
LINE
  5
38D
330
1F
100
AcDbEntity
  8
LAY-10
  6
CONTINUOUS
 62
     7
100
AcDbLine
 10
364.0000000000099
 20
213.1986412405319
 30
0.0
 11
364.5000000000099
 21
212.6986412405419
 31
0.0
  0
LINE
  5
38E
330
1F
100
AcDbEntity
  8
LAY-10
  6
CONTINUOUS
 62
     7
100
AcDbLine
 10
364.5000000000099
 20
212.6986412405419
 30
0.0
 11
364.5000000000099
 21
207.1986412405319
 31
0.0
  0
LINE
  5
38F
330
1F
100
AcDbEntity
  8
LAY-10
  6
CONTINUOUS
 62
     7
100
AcDbLine
 10
358.5000000000099
 20
212.6986412405419
 30
0.0
 11
358.5000000000099
 21
207.1986412405319
 31
0.0
  0
LINE
  5
390
330
1F
100
AcDbEntity
  8
LAY-10
  6
CONTINUOUS
 62
     7
100
AcDbLine
 10
556.8372910396785
 20
226.8953280875242
 30
0.0
 11
557.0000000000141
 21
230.00000000001
 31
0.0
  0
ARC
  5
391
330
1F
100
AcDbEntity
  8
LAY-10
  6
CONTINUOUS
 62
     7
100
AcDbCircle
 10
554.8400319701693
 20
227.00000000001
 30
0.0
 40
2.0
100
AcDbArc
 50
270.0000000000001
 51
357.0000000000025
  0
LINE
  5
392
330
1F
100
AcDbEntity
  8
LAY-10
  6
CONTINUOUS
 62
     7
100
AcDbLine
 10
535.0000000000798
 20
230.00000000001
 30
0.0
 11
557.0000000000141
 21
230.00000000001
 31
0.0
  0
LINE
  5
393
330
1F
100
AcDbEntity
  8
LAY-10
  6
CONTINUOUS
 62
     7
100
AcDbLine
 10
535.0000000000011
 20
225.0000000000101
 30
0.0
 11
554.8400319701693
 21
225.0000000000101
 31
0.0
  0
ARC
  5
394
330
1F
100
AcDbEntity
  8
LAY-10
  6
CONTINUOUS
 62
     7
100
AcDbCircle
 10
387.5510354332901
 20
199.1986412405153
 30
0.0
 40
1.0
100
AcDbArc
 50
3.000000000012268
 51
90.00000000000004
  0
LINE
  5
395
330
1F
100
AcDbEntity
  8
LAY-10
  6
CONTINUOUS
 62
     7
100
AcDbLine
 10
388.764781707663
 20
195.1463052842809
 30
0.0
 11
388.5496649680447
 21
199.2509771967585
 31
0.0
  0
LINE
  5
396
330
1F
100
AcDbEntity
  8
LAY-10
  6
CONTINUOUS
 62
     7
100
AcDbLine
 10
393.2352182923437
 20
195.1463052842809
 30
0.0
 11
393.4503350319622
 21
199.2509771967585
 31
0.0
  0
ARC
  5
397
330
1F
100
AcDbEntity
  8
LAY-10
  6
CONTINUOUS
 62
     7
100
AcDbCircle
 10
394.4489645667167
 20
199.1986412405153
 30
0.0
 40
1.0
100
AcDbArc
 50
90.00000000000004
 51
176.9999999999878
  0
ARC
  5
398
330
1F
100
AcDbEntity
  8
LAY-10
  6
CONTINUOUS
 62
     7
100
AcDbCircle
 10
392.2365887575892
 20
195.1986412405241
 30
0.0
 40
1.0
100
AcDbArc
 50
270.0000000000001
 51
356.9999999999878
  0
ARC
  5
399
330
1F
100
AcDbEntity
  8
LAY-10
  6
CONTINUOUS
 62
     7
100
AcDbCircle
 10
389.7634112424177
 20
195.1986412405241
 30
0.0
 40
1.0
100
AcDbArc
 50
183.0000000000123
 51
270.0000000000001
  0
LINE
  5
39A
330
1F
100
AcDbEntity
  8
LAY-10
  6
CONTINUOUS
 62
     7
100
AcDbLine
 10
404.2250000000024
 20
194.198641240524
 30
0.0
 11
389.7634112424177
 21
194.198641240524
 31
0.0
  0
LINE
  5
39B
330
1F
100
AcDbEntity
  8
LAY-10
  6
CONTINUOUS
 62
     7
100
AcDbLine
 10
403.0367971220214
 20
200.1986412405154
 30
0.0
 11
394.4489645667167
 21
200.1986412405154
 31
0.0
  0
LINE
  5
39C
330
1F
100
AcDbEntity
  8
LAY-10
  6
CONTINUOUS
 62
     7
100
AcDbLine
 10
387.5510354332901
 20
200.1986412405154
 30
0.0
 11
385.7036456396269
 21
200.1986412405154
 31
0.0
  0
LINE
  5
39D
330
1F
100
AcDbEntity
  8
LAY-10
  6
CONTINUOUS
 62
     7
100
AcDbLine
 10
525.7750000000037
 20
194.198641240524
 30
0.0
 11
540.236588757588
 21
194.198641240524
 31
0.0
  0
LINE
  5
39E
330
1F
100
AcDbEntity
  8
LAY-10
  6
CENTER
 62
     2
100
AcDbLine
 10
375.9999999999998
 20
636.2749374804549
 30
0.0
 11
375.9999999999998
 21
623.7250625195423
 31
0.0
  0
LINE
  5
39F
330
1F
100
AcDbEntity
  8
LAY-10
  6
CENTER
 62
     2
100
AcDbLine
 10
554.0000000000005
 20
636.2749374804549
 30
0.0
 11
554.0000000000005
 21
623.7250625195423
 31
0.0
  0
LINE
  5
3A0
330
1F
100
AcDbEntity
  8
LAY-10
  6
CENTER
 62
     2
100
AcDbLine
 10
465.0000000000031
 20
501.7999999999801
 30
0.0
 11
465.0000000000031
 21
757.19999999998
 31
0.0
  0
LINE
  5
3A1
330
1F
100
AcDbEntity
  8
LAY-10
  6
CENTER
 62
     2
100
AcDbLine
 10
338.5
 20
629.9999999999986
 30
0.0
 11
592.8000000000001
 21
629.9999999999986
 31
0.0
  0
LINE
  5
3A2
330
1F
100
AcDbEntity
  8
LAY-10
  6
CENTER
 62
     2
100
AcDbLine
 10
531.0000000000787
 20
257.8193107157097
 30
0.0
 11
531.0000000000787
 21
201.7999999999868
 31
0.0
  0
LINE
  5
3A3
330
1F
100
AcDbEntity
  8
LAY-10
  6
CENTER
 62
     2
100
AcDbLine
 10
376.0000000000018
 20
237.6802724733001
 30
0.0
 11
376.0000000000018
 21
216.6802724733001
 31
0.0
  0
LINE
  5
3A4
330
1F
100
AcDbEntity
  8
LAY-10
  6
CENTER
 62
     2
100
AcDbLine
 10
465.0000000000029
 20
410.0802724733002
 30
0.0
 11
465.0000000000029
 21
140.3802724733001
 31
0.0
  0
LINE
  5
3A5
330
1F
100
AcDbEntity
  8
LAY-10
  6
CENTER
 62
     2
100
AcDbLine
 10
345.800000000011
 20
187.6986412405375
 30
0.0
 11
357.0000000000099
 21
187.6986412405375
 31
0.0
  0
ARC
  5
3A6
330
1F
100
AcDbEntity
  8
LAY-10
  6
CENTER
 62
     2
100
AcDbCircle
 10
357.0000000000099
 20
192.1986412405375
 30
0.0
 40
4.5
100
AcDbArc
 50
270.0000000000002
 51
0.0
  0
LINE
  5
3A7
330
1F
100
AcDbEntity
  8
LAY-10
  6
CENTER
 62
     2
100
AcDbLine
 10
361.5000000000097
 20
218.4000000000217
 30
0.0
 11
361.5000000000097
 21
192.1986412405375
 31
0.0
  0
LINE
  5
3A8
330
1F
100
AcDbEntity
  8
LAY-10
  6
CONTINUOUS
 62
     7
100
AcDbLine
 10
527.5000000000798
 20
224.8000000000038
 30
0.0
 11
527.5000000000798
 21
255.8999999999997
 31
0.0
  0
LINE
  5
3A9
330
1F
100
AcDbEntity
  8
LAY-10
  6
CONTINUOUS
 62
     7
100
AcDbLine
 10
534.5000000000796
 20
224.8000000000038
 30
0.0
 11
534.5000000000796
 21
255.8999999999997
 31
0.0
  0
LINE
  5
3AA
330
1F
100
AcDbEntity
  8
LAY-10
  6
CONTINUOUS
 62
     7
100
AcDbLine
 10
527.5000000000784
 20
205.6999999999799
 30
0.0
 11
527.5000000000784
 21
217.9999999999796
 31
0.0
  0
LINE
  5
3AB
330
1F
100
AcDbEntity
  8
LAY-10
  6
CONTINUOUS
 62
     7
100
AcDbLine
 10
534.500000000079
 20
205.6999999999799
 30
0.0
 11
534.500000000079
 21
217.9999999999796
 31
0.0
  0
LINE
  5
3AC
330
1F
100
AcDbEntity
  8
LAY-10
  6
CONTINUOUS
 62
     7
100
AcDbLine
 10
373.5000000000005
 20
232.5000000000087
 30
0.0
 11
373.5000000000005
 21
220.5000000000107
 31
0.0
  0
LINE
  5
3AD
330
1F
100
AcDbEntity
  8
LAY-10
  6
CONTINUOUS
 62
     7
100
AcDbLine
 10
378.5000000000004
 20
232.5000000000087
 30
0.0
 11
378.5000000000004
 21
220.5000000000107
 31
0.0
  0
LINE
  5
3AE
330
1F
100
AcDbEntity
  8
LAY-10
  6
CONTINUOUS
 62
     7
100
AcDbLine
 10
379.0000000000018
 20
221.0000000000107
 30
0.0
 11
379.0000000000018
 21
217.4281146600184
 31
0.0
  0
LINE
  5
3AF
330
1F
100
AcDbEntity
  8
LAY-10
  6
CONTINUOUS
 62
     7
100
AcDbLine
 10
373.0000000000011
 20
221.0000000000107
 30
0.0
 11
373.0000000000011
 21
219.0358098146054
 31
0.0
  0
LINE
  5
3B0
330
1F
100
AcDbEntity
  8
LAY-10
  6
CONTINUOUS
 62
     7
100
AcDbLine
 10
461.4999999999998
 20
224.800000000009
 30
0.0
 11
461.4999999999998
 21
255.8999999999986
 31
0.0
  0
LINE
  5
3B1
330
1F
100
AcDbEntity
  8
LAY-10
  6
CONTINUOUS
 62
     7
100
AcDbLine
 10
358.500000000009
 20
214.698641240527
 30
0.0
 11
359.0000000000074
 21
215.1986412405277
 31
0.0
  0
LINE
  5
3B2
330
1F
100
AcDbEntity
  8
LAY-10
  6
CONTINUOUS
 62
     7
100
AcDbLine
 10
364.5000000000081
 20
214.698641240527
 30
0.0
 11
364.0000000000068
 21
215.1986412405277
 31
0.0
  0
LINE
  5
3B3
330
1F
100
AcDbEntity
  8
LAY-10
  6
CONTINUOUS
 62
     7
100
AcDbLine
 10
358.500000000009
 20
214.698641240527
 30
0.0
 11
358.500000000009
 21
212.6986412405379
 31
0.0
  0
LINE
  5
3B4
330
1F
100
AcDbEntity
  8
LAY-10
  6
CONTINUOUS
 62
     7
100
AcDbLine
 10
364.5000000000081
 20
214.698641240527
 30
0.0
 11
364.5000000000081
 21
212.6986412405379
 31
0.0
  0
LINE
  5
3B5
330
1F
100
AcDbEntity
  8
LAY-10
  6
CONTINUOUS
 62
     7
100
AcDbLine
 10
359.0000000000099
 20
213.1986412405319
 30
0.0
 11
359.0000000000099
 21
207.1986412405319
 31
0.0
  0
LINE
  5
3B6
330
1F
100
AcDbEntity
  8
LAY-10
  6
CONTINUOUS
 62
     7
100
AcDbLine
 10
364.0000000000099
 20
213.1986412405319
 30
0.0
 11
364.0000000000099
 21
207.1986412405319
 31
0.0
  0
LINE
  5
3B7
330
1F
100
AcDbEntity
  8
LAY-10
  6
CONTINUOUS
 62
     7
100
AcDbLine
 10
364.0000000000281
 20
206.3326158367369
 30
0.0
 11
364.5000000000281
 21
207.1986412405214
 31
0.0
  0
LINE
  5
3B8
330
1F
100
AcDbEntity
  8
LAY-10
  6
CONTINUOUS
 62
     7
100
AcDbLine
 10
358.9999999999979
 20
206.3326158367404
 30
0.0
 11
358.4999999999979
 21
207.1986412405249
 31
0.0
  0
DIMENSION
  5
3BA
330
1F
100
AcDbEntity
  8
LAY-20
  6
CONTINUOUS
 62
     4
100
AcDbDimension
  2
*D15
 10
404.0000000000001
 20
94.19864124052009
 30
0.0
 11
465.0
 21
101.6986412405201
 31
0.0
 70
   160
  1
%%c<>
  3
ISO-25
100
AcDbAlignedDimension
 13
526.0
 23
200.1986412405201
 33
0.0
 14
404.0000000000001
 24
200.1986412405201
 34
0.0
100
AcDbRotatedDimension
1001
ACAD
1000
DSTYLE
1002
{
1070
   270
1070
     2
1070
     6
1000
EX_BNORM
1070
     7
1000
EX_BNORM
1070
    41
1040
7.5
1070
    42
1040
4.5
1070
    44
1040
4.5
1070
    73
1070
     0
1070
    74
1070
     0
1070
    75
1070
     0
1070
    76
1070
     0
1070
    77
1070
     1
1070
    78
1070
     8
1070
   140
1040
9.3543312
1070
   147
1040
0.0
1070
   173
1070
     1
1070
   176
1070
     4
1070
   177
1070
     4
1070
   178
1070
     7
1070
   271
1070
     1
1070
   277
1070
     2
1070
   279
1070
     2
1070
   280
1070
     0
1070
   287
1070
     5
1070
   340
1005
3B9
1002
}
  0
DIMENSION
  5
3C8
330
1F
100
AcDbEntity
  8
LAY-20
  6
CONTINUOUS
 62
     4
100
AcDbDimension
  2
*D16
 10
524.5
 20
115.1986412405201
 30
0.0
 11
465.0
 21
122.6986412405201
 31
0.0
 70
   160
  1
%%c<>
  3
ISO-25
100
AcDbAlignedDimension
 13
405.5000000000001
 23
160.1986412405201
 33
0.0
 14
524.5
 24
160.1986412405201
 34
0.0
100
AcDbRotatedDimension
1001
ACAD
1000
DSTYLE
1002
{
1070
   270
1070
     2
1070
     6
1000
EX_BNORM
1070
     7
1000
EX_BNORM
1070
    41
1040
7.5
1070
    42
1040
4.5
1070
    44
1040
4.5
1070
    73
1070
     0
1070
    74
1070
     0
1070
    75
1070
     0
1070
    76
1070
     0
1070
    77
1070
     1
1070
    78
1070
     8
1070
   140
1040
9.3543312
1070
   147
1040
0.0
1070
   173
1070
     1
1070
   176
1070
     4
1070
   177
1070
     4
1070
   178
1070
     7
1070
   271
1070
     1
1070
   277
1070
     2
1070
   279
1070
     2
1070
   280
1070
     0
1070
   287
1070
     5
1070
   340
1005
3B9
1002
}
  0
DIMENSION
  5
3D5
330
1F
100
AcDbEntity
  8
LAY-20
  6
CONTINUOUS
 62
     4
100
AcDbDimension
  2
*D17
 10
586.0000000000031
 20
477.0
 30
0.0
 11
465.0000000000065
 21
484.5
 31
0.0
 70
   160
  1
%%c<>
  3
ISO-25
100
AcDbAlignedDimension
 13
344.00000000001
 23
218.1986412405601
 33
0.0
 14
586.0000000000031
 24
218.1986412405201
 34
0.0
100
AcDbRotatedDimension
1001
ACAD
1000
DSTYLE
1002
{
1070
   270
1070
     2
1070
     6
1000
EX_BNORM
1070
     7
1000
EX_BNORM
1070
    41
1040
7.5
1070
    42
1040
4.5
1070
    44
1040
4.5
1070
    73
1070
     0
1070
    74
1070
     0
1070
    75
1070
     0
1070
    76
1070
     0
1070
    77
1070
     1
1070
    78
1070
     8
1070
   140
1040
9.3543312
1070
   147
1040
0.0
1070
   173
1070
     1
1070
   176
1070
     4
1070
   177
1070
     4
1070
   178
1070
     7
1070
   271
1070
     1
1070
   277
1070
     2
1070
   279
1070
     2
1070
   280
1070
     0
1070
   287
1070
     5
1070
   340
1005
3B9
1002
}
  0
DIMENSION
  5
3E2
330
1F
100
AcDbEntity
  8
LAY-20
  6
CONTINUOUS
 62
     4
100
AcDbDimension
  2
*D18
 10
576.000000000005
 20
456.0
 30
0.0
 11
464.9999999999974
 21
463.5
 31
0.0
 70
   160
  1
%%c<>
  3
ISO-25
100
AcDbAlignedDimension
 13
353.99999999999
 23
228.0000000000101
 33
0.0
 14
576.000000000005
 24
228.0000000000101
 34
0.0
100
AcDbRotatedDimension
1001
ACAD
1000
DSTYLE
1002
{
1070
   270
1070
     2
1070
     6
1000
EX_BNORM
1070
     7
1000
EX_BNORM
1070
    41
1040
7.5
1070
    42
1040
4.5
1070
    44
1040
4.5
1070
    73
1070
     0
1070
    74
1070
     0
1070
    75
1070
     0
1070
    76
1070
     0
1070
    77
1070
     1
1070
    78
1070
     8
1070
   140
1040
9.3543312
1070
   147
1040
0.0
1070
   173
1070
     1
1070
   176
1070
     4
1070
   177
1070
     4
1070
   178
1070
     7
1070
   271
1070
     1
1070
   277
1070
     2
1070
   279
1070
     2
1070
   280
1070
     0
1070
   287
1070
     5
1070
   340
1005
3B9
1002
}
  0
DIMENSION
  5
3EF
330
1F
100
AcDbEntity
  8
LAY-20
  6
CONTINUOUS
 62
     4
100
AcDbDimension
  2
*D19
 10
314.00000000001
 20
225.1986412405201
 30
0.0
 11
306.50000000001
 21
212.6454160209801
 31
0.0
 70
   160
  3
ISO-25
100
AcDbAlignedDimension
 13
382.5
 23
200.0921908014401
 33
0.0
 14
345.0
 24
225.1986412405201
 34
0.0
 50
90.0
100
AcDbRotatedDimension
1001
ACAD
1000
DSTYLE
1002
{
1070
   270
1070
     2
1070
     6
1000
EX_BNORM
1070
     7
1000
EX_BNORM
1070
    41
1040
7.5
1070
    42
1040
4.5
1070
    44
1040
4.5
1070
    73
1070
     0
1070
    74
1070
     0
1070
    75
1070
     0
1070
    76
1070
     0
1070
    77
1070
     1
1070
    78
1070
     0
1070
   140
1040
9.3543312
1070
   147
1040
0.0
1070
   173
1070
     1
1070
   176
1070
     4
1070
   177
1070
     4
1070
   178
1070
     7
1070
   271
1070
     0
1070
   277
1070
     2
1070
   279
1070
     2
1070
   280
1070
     0
1070
   287
1070
     5
1070
   340
1005
3B9
1002
}
  0
DIMENSION
  5
3FC
330
1F
100
AcDbEntity
  8
LAY-20
  6
CONTINUOUS
 62
     4
100
AcDbDimension
  2
*D20
 10
616.0
 20
225.19864124052
 30
0.0
 11
608.5
 21
185.19864124052
 31
0.0
 70
   160
  3
ISO-25
100
AcDbAlignedDimension
 13
547.5
 23
145.19864124052
 33
0.0
 14
585.0
 24
225.19864124052
 34
0.0
 50
90.0
100
AcDbRotatedDimension
1001
ACAD
1000
DSTYLE
1002
{
1070
   270
1070
     2
1070
     6
1000
EX_BNORM
1070
     7
1000
EX_BNORM
1070
    41
1040
7.5
1070
    42
1040
4.5
1070
    44
1040
4.5
1070
    73
1070
     0
1070
    74
1070
     0
1070
    75
1070
     0
1070
    76
1070
     0
1070
    77
1070
     1
1070
    78
1070
     8
1070
   140
1040
9.3543312
1070
   147
1040
0.0
1070
   173
1070
     1
1070
   176
1070
     4
1070
   177
1070
     4
1070
   178
1070
     7
1070
   271
1070
     1
1070
   277
1070
     2
1070
   279
1070
     2
1070
   280
1070
     0
1070
   287
1070
     5
1070
   340
1005
3B9
1002
}
  0
DIMENSION
  5
409
330
1F
100
AcDbEntity
  8
LAY-20
  6
CONTINUOUS
 62
     4
100
AcDbDimension
  2
*D21
 10
616.0
 20
225.19864124052
 30
0.0
 11
608.5
 21
315.099320620265
 31
0.0
 70
   160
  3
ISO-25
100
AcDbAlignedDimension
 13
465.0
 23
405.00000000001
 33
0.0
 14
616.0
 24
225.19864124052
 34
0.0
 50
90.0
100
AcDbRotatedDimension
1001
ACAD
1000
DSTYLE
1002
{
1070
   270
1070
     2
1070
     6
1000
EX_BNORM
1070
     7
1000
EX_BNORM
1070
    41
1040
7.5
1070
    42
1040
4.5
1070
    44
1040
4.5
1070
    73
1070
     0
1070
    74
1070
     0
1070
    75
1070
     0
1070
    76
1070
     1
1070
    77
1070
     1
1070
    78
1070
     0
1070
   140
1040
9.3543312
1070
   147
1040
0.0
1070
   173
1070
     1
1070
   176
1070
     4
1070
   177
1070
     4
1070
   178
1070
     7
1070
   271
1070
     0
1070
   277
1070
     2
1070
   279
1070
     2
1070
   280
1070
     0
1070
   287
1070
     5
1070
   340
1005
3B9
1002
}
  0
DIMENSION
  5
415
330
1F
100
AcDbEntity
  8
LAY-20
  6
CONTINUOUS
 62
     4
100
AcDbDimension
  2
*D22
 10
373.0
 20
435.00000000001
 30
0.0
 11
465.0
 21
442.50000000001
 31
0.0
 70
   160
  1
%%c<>
  3
ISO-25
100
AcDbAlignedDimension
 13
557.0
 23
230.00000000001
 33
0.0
 14
373.0
 24
230.00000000001
 34
0.0
100
AcDbRotatedDimension
1001
ACAD
1000
DSTYLE
1002
{
1070
   270
1070
     2
1070
     6
1000
EX_BNORM
1070
     7
1000
EX_BNORM
1070
    41
1040
7.5
1070
    42
1040
4.5
1070
    44
1040
4.5
1070
    73
1070
     0
1070
    74
1070
     0
1070
    75
1070
     0
1070
    76
1070
     0
1070
    77
1070
     1
1070
    78
1070
     8
1070
   140
1040
9.3543312
1070
   147
1040
0.0
1070
   173
1070
     1
1070
   176
1070
     4
1070
   177
1070
     4
1070
   178
1070
     7
1070
   271
1070
     1
1070
   277
1070
     2
1070
   279
1070
     2
1070
   280
1070
     0
1070
   287
1070
     5
1070
   340
1005
3B9
1002
}
  0
LINE
  5
422
330
1F
100
AcDbEntity
  8
LAY-255
  6
CONTINUOUS
 62
     7
100
AcDbLine
 10
1155.0
 20
66.0
 30
0.0
 11
855.0
 21
66.0
 31
0.0
  0
LINE
  5
423
330
1F
100
AcDbEntity
  8
LAY-255
  6
CONTINUOUS
 62
     7
100
AcDbLine
 10
866.4000000000001
 20
48.0
 30
0.0
 11
890.4000000000001
 21
63.0
 31
0.0
  0
LINE
  5
424
330
1F
100
AcDbEntity
  8
LAY-255
  6
CONTINUOUS
 62
     7
100
AcDbLine
 10
890.4000000000001
 20
63.0
 30
0.0
 11
914.4000000000001
 21
48.0
 31
0.0
  0
LINE
  5
425
330
1F
100
AcDbEntity
  8
LAY-255
  6
CONTINUOUS
 62
     7
100
AcDbLine
 10
914.4000000000001
 20
48.0
 30
0.0
 11
890.4000000000001
 21
33.0
 31
0.0
  0
LINE
  5
426
330
1F
100
AcDbEntity
  8
LAY-255
  6
CONTINUOUS
 62
     7
100
AcDbLine
 10
890.4000000000001
 20
33.0
 30
0.0
 11
866.4000000000001
 21
48.0
 31
0.0
  0
LINE
  5
427
330
1F
100
AcDbEntity
  8
LAY-255
  6
CONTINUOUS
 62
     7
100
AcDbLine
 10
15.0
 20
30.0
 30
0.0
 11
1155.0
 21
30.0
 31
0.0
  0
LINE
  5
428
330
1F
100
AcDbEntity
  8
LAY-255
  6
CONTINUOUS
 62
     7
100
AcDbLine
 10
15.0
 20
840.0
 30
0.0
 11
1155.0
 21
840.0
 31
0.0
  0
LINE
  5
429
330
1F
100
AcDbEntity
  8
LAY-255
  6
CONTINUOUS
 62
     7
100
AcDbLine
 10
15.0
 20
30.0
 30
0.0
 11
15.0
 21
840.0
 31
0.0
  0
LINE
  5
42A
330
1F
100
AcDbEntity
  8
LAY-255
  6
CONTINUOUS
 62
     7
100
AcDbLine
 10
1155.0
 20
30.0
 30
0.0
 11
1155.0
 21
840.0
 31
0.0
  0
LINE
  5
42B
330
1F
100
AcDbEntity
  8
LAY-255
  6
CONTINUOUS
 62
     4
100
AcDbLine
 10
855.0
 20
84.0
 30
0.0
 11
1155.0
 21
84.0
 31
0.0
  0
LINE
  5
42C
330
1F
100
AcDbEntity
  8
LAY-255
  6
CONTINUOUS
 62
     7
100
AcDbLine
 10
855.0
 20
30.0
 30
0.0
 11
855.0
 21
201.0
 31
0.0
  0
LINE
  5
42D
330
1F
100
AcDbEntity
  8
LAY-255
  6
CONTINUOUS
 62
     4
100
AcDbLine
 10
1005.0
 20
84.0
 30
0.0
 11
1005.0
 21
66.0
 31
0.0
  0
LINE
  5
42E
330
1F
100
AcDbEntity
  8
LAY-255
  6
CONTINUOUS
 62
     7
100
AcDbLine
 10
1155.0
 20
201.0
 30
0.0
 11
855.0
 21
201.0
 31
0.0
  0
LINE
  5
42F
330
1F
100
AcDbEntity
  8
LAY-255
  6
CONTINUOUS
 62
     4
100
AcDbLine
 10
1149.0
 20
165.0
 30
0.0
 11
861.0
 21
165.0
 31
0.0
  0
LINE
  5
430
330
1F
100
AcDbEntity
  8
LAY-255
  6
CONTINUOUS
 62
     4
100
AcDbLine
 10
1149.0
 20
183.0
 30
0.0
 11
861.0
 21
183.0
 31
0.0
  0
POINT
  5
431
330
1F
100
AcDbEntity
  8
LAY-255
  6
CONTINUOUS
 62
     7
100
AcDbPoint
 10
867.0
 20
150.0
 30
0.0
  0
POINT
  5
432
330
1F
100
AcDbEntity
  8
LAY-255
  6
CONTINUOUS
 62
     7
100
AcDbPoint
 10
900.0
 20
168.0
 30
0.0
  0
POINT
  5
433
330
1F
100
AcDbEntity
  8
LAY-255
  6
CONTINUOUS
 62
     7
100
AcDbPoint
 10
900.0
 20
186.0
 30
0.0
  0
POINT
  5
434
330
1F
100
AcDbEntity
  8
LAY-255
  6
CONTINUOUS
 62
     7
100
AcDbPoint
 10
867.0
 20
120.0
 30
0.0
  0
POINT
  5
435
330
1F
100
AcDbEntity
  8
LAY-255
  6
CONTINUOUS
 62
     7
100
AcDbPoint
 10
867.0
 20
135.0
 30
0.0
  0
POINT
  5
436
330
1F
100
AcDbEntity
  8
LAY-255
  6
CONTINUOUS
 62
     7
100
AcDbPoint
 10
867.0
 20
105.0
 30
0.0
  0
POINT
  5
437
330
1F
100
AcDbEntity
  8
LAY-255
  6
CONTINUOUS
 62
     7
100
AcDbPoint
 10
867.0
 20
89.99999999999996
 30
0.0
  0
TEXT
  5
438
330
1F
100
AcDbEntity
  8
LAY-255
  6
CONTINUOUS
 62
     7
100
AcDbText
 10
924.415136826172
 20
46.63125
 30
0.0
 40
15.46875
  1
福西鋳物株式会社
 41
1.342692141742901
  7
EXCADSTD
100
AcDbText
  0
TEXT
  5
439
330
1F
100
AcDbEntity
  8
LAY-255
  6
CONTINUOUS
 62
     7
100
AcDbText
 10
925.528125
 20
35.94375
 30
0.0
 40
5.15625
  1
ＦＵＫＵＮＩＳＨＩ
 41
1.204799226045263
  7
EXCADSTD
100
AcDbText
  0
TEXT
  5
43A
330
1F
100
AcDbEntity
  8
LAY-255
  6
CONTINUOUS
 62
     7
100
AcDbText
 10
998.1575892857143
 20
35.94375
 30
0.0
 40
5.15625
  1
ＦＯＵＮＤＲＹ
 41
1.243252752978497
  7
EXCADSTD
100
AcDbText
  0
TEXT
  5
43B
330
1F
100
AcDbEntity
  8
LAY-255
  6
CONTINUOUS
 62
     7
100
AcDbText
 10
1055.983774651442
 20
35.94375
 30
0.0
 40
5.15625
  1
ＣＯ.,ＬＴＤ.
 41
1.243831271314936
  7
EXCADSTD
100
AcDbText
  0
TEXT
  5
43C
330
1F
100
AcDbEntity
  8
LAY-255
  6
CONTINUOUS
 62
     7
100
AcDbText
 10
882.1031250000001
 20
41.15625
 30
0.0
 40
15.46875
  1
S
 41
0.7582677563636363
  7
EXCADSTD
100
AcDbText
  0
TEXT
  5
43D
330
1F
100
AcDbEntity
  8
LAY-255
  6
CONTINUOUS
 62
     7
100
AcDbText
 10
891.3140625000001
 20
41.24823113208
 30
0.0
 40
15.46875
  1
F
 41
0.7440945272727273
  7
EXCADSTD
100
AcDbText
  0
TEXT
  5
43E
330
1F
100
AcDbEntity
  8
LAY-255
  6
CONTINUOUS
 62
     7
100
AcDbText
 10
1011.31640625
 20
73.26562499999997
 30
0.0
 40
7.734375
  1
縮尺
 41
1.080708718181818
  7
EXCADSTD
100
AcDbText
  0
TEXT
  5
43F
330
1F
100
AcDbEntity
  8
LAY-255
  6
CONTINUOUS
 62
     7
100
AcDbText
 10
861.796875
 20
169.6875
 30
0.0
 40
10.3125
  1
型式
 41
1.056348480681818
  7
EXCADSTD
100
AcDbText
  0
TEXT
  5
440
330
1F
100
AcDbEntity
  8
LAY-255
  6
CONTINUOUS
 62
     7
100
AcDbText
 10
862.265625
 20
187.6875
 30
0.0
 40
10.3125
  1
品名
 41
0.978838634090909
  7
EXCADSTD
100
AcDbText
  0
TEXT
  5
441
330
1F
100
AcDbEntity
  8
LAY-255
  6
CONTINUOUS
 62
     7
100
AcDbText
 10
861.45703125
 20
73.26562499999997
 30
0.0
 40
7.734375
  1
作成日
 41
1.000629973818182
  7
EXCADSTD
100
AcDbText
  0
TEXT
  5
442
330
1F
100
AcDbEntity
  8
LAY-255
  6
CONTINUOUS
 62
     7
100
AcDbText
 10
1044.84375
 20
70.68749999999997
 30
0.0
 40
10.3125
  1
１：３
 41
0.8844094952727272
  7
EXCADSTD
100
AcDbText
  0
TEXT
  5
443
330
1F
100
AcDbEntity
  8
LAY-255
  6
CONTINUOUS
 62
     7
100
AcDbText
 10
867.5625
 20
106.6875
 30
0.0
 40
10.3125
  1
施工：打込用
 41
1.018700840909091
  7
EXCADSTD
100
AcDbText
  0
TEXT
  5
444
330
1F
100
AcDbEntity
  8
LAY-255
  6
CONTINUOUS
 62
     7
100
AcDbText
 10
900.75
 20
187.6875
 30
0.0
 40
10.3125
  1
ルーフドレイン
 41
1.021169538599106
  7
EXCADSTD
100
AcDbText
  0
TEXT
  5
445
330
1F
100
AcDbEntity
  8
LAY-255
  6
CONTINUOUS
 62
     7
100
AcDbText
 10
867.65625
 20
91.68750000000003
 30
0.0
 40
10.3125
  1
接続：差込用
 41
1.01733803041958
  7
EXCADSTD
100
AcDbText
  0
TEXT
  5
446
330
1F
100
AcDbEntity
  8
LAY-255
  6
CONTINUOUS
 62
     7
100
AcDbText
 10
867.703125
 20
121.6875
 30
0.0
 40
10.3125
  1
用途：屋上用
 41
1.016656625174825
  7
EXCADSTD
100
AcDbText
  0
TEXT
  5
447
330
1F
100
AcDbEntity
  8
LAY-255
  6
CONTINUOUS
 62
     7
100
AcDbText
 10
868.125
 20
151.6875000000001
 30
0.0
 40
10.3125
  1
防水：アスファルト・シート・
 41
0.9866967752199413
  7
EXCADSTD
100
AcDbText
  0
TEXT
  5
448
330
1F
100
AcDbEntity
  8
LAY-255
  6
CONTINUOUS
 62
     7
100
AcDbText
 10
867.0
 20
136.6875
 30
0.0
 40
10.3125
  1
      露出アスファルト防水兼用
 41
0.894274438169777
  7
EXCADSTD
100
AcDbText
  0
TEXT
  5
449
330
1F
100
AcDbEntity
  8
LAY-255
  6
CONTINUOUS
 62
     7
100
AcDbText
 10
902.625
 20
169.6875
 30
0.0
 40
10.3125
  1
ＲＡＣＸ－９１２５型
 41
1.000581655991735
  7
EXCADSTD
100
AcDbText
  0
TEXT
  5
44A
330
1F
100
AcDbEntity
  8
LAY-255
  6
CONTINUOUS
 62
     7
100
AcDbText
 10
902.671875
 20
70.68749999999997
 30
0.0
 40
10.3125
  1
０８／０９／０５
 41
0.9779528072727272
  7
EXCADSTD
100
AcDbText
  0
ENDSEC
  0
SECTION
  2
OBJECTS
  0
DICTIONARY
  5
C
330
0
100
AcDbDictionary
  3
ACAD_GROUP
350
D
  3
ACAD_LAYOUT
350
1A
  3
ACAD_MATERIAL
350
43
  3
ACAD_MLEADERSTYLE
350
6B
  3
ACAD_MLINESTYLE
350
17
  3
ACAD_PLOTSETTINGS
350
19
  3
ACAD_SCALELIST
350
47
  3
ACAD_VISUALSTYLE
350
2A
  3
ACDBHEADERROUNDTRIPXREC
350
44B
  3
ACDBVARIABLEDICTIONARY
350
46C
  0
DICTIONARY
  5
477
330
8
100
AcDbDictionary
280
     1
  3
ACAD_XREC_ROUNDTRIP
360
478
  0
DICTIONARY
  5
D
102
{ACAD_REACTORS
330
C
102
}
330
C
100
AcDbDictionary
  0
DICTIONARY
  5
1A
102
{ACAD_REACTORS
330
C
102
}
330
C
100
AcDbDictionary
  0
DICTIONARY
  5
43
102
{ACAD_REACTORS
330
C
102
}
330
C
100
AcDbDictionary
  3
BYBLOCK
350
45
  3
BYLAYER
350
44
  3
GLOBAL
350
46
  0
DICTIONARY
  5
6B
102
{ACAD_REACTORS
330
C
102
}
330
C
100
AcDbDictionary
  3
STANDARD
350
6C
  0
DICTIONARY
  5
17
102
{ACAD_REACTORS
330
C
102
}
330
C
100
AcDbDictionary
  3
STANDARD
350
18
  0
DICTIONARY
  5
19
102
{ACAD_REACTORS
330
C
102
}
330
C
100
AcDbDictionary
  0
DICTIONARY
  5
47
102
{ACAD_REACTORS
330
C
102
}
330
C
100
AcDbDictionary
  3
A0
350
48
  3
A1
350
49
  3
A2
350
4A
  3
A3
350
4B
  3
A4
350
4C
  3
A5
350
4D
  3
A6
350
4E
  3
A7
350
4F
  3
A8
350
50
  3
A9
350
51
  3
B0
350
52
  3
B1
350
53
  3
B2
350
54
  3
B3
350
55
  3
B4
350
56
  3
B5
350
57
  3
B6
350
58
  3
B7
350
59
  3
B8
350
5A
  3
B9
350
5B
  3
C0
350
5C
  3
C1
350
5D
  3
C2
350
5E
  3
C3
350
5F
  3
C4
350
60
  3
C5
350
61
  3
C6
350
62
  3
C7
350
63
  3
C8
350
64
  3
C9
350
65
  3
D0
350
66
  3
D1
350
67
  3
D2
350
68
  0
DICTIONARY
  5
2A
102
{ACAD_REACTORS
330
C
102
}
330
C
100
AcDbDictionary
  3
2DWIREFRAME
350
2F
  3
BASIC
350
32
  3
BRIGHTEN
350
36
  3
COLORCHANGE
350
3A
  3
CONCEPTUAL
350
34
  3
DIM
350
35
  3
EDGECOLOROFF
350
3D
  3
FACEPATTERN
350
39
  3
FLAT
350
2B
  3
FLATWITHEDGES
350
2C
  3
GOURAUD
350
2D
  3
GOURAUDWITHEDGES
350
2E
  3
HIDDEN
350
31
  3
JITTEROFF
350
3B
  3
LINEPATTERN
350
38
  3
OVERHANGOFF
350
3C
  3
REALISTIC
350
33
  3
SHADED
350
42
  3
SHADED_WITH_EDGES
350
41
  3
SHADES_OF_GRAY
350
3E
  3
SKETCHY
350
3F
  3
THICKEN
350
37
  3
WIREFRAME
350
30
  3
X-RAY
350
40
  0
DICTIONARY
  5
44B
102
{ACAD_REACTORS
330
C
102
}
330
C
100
AcDbDictionary
  3
CEPSNID
350
455
  3
CEPSNTYPE
350
454
  3
DIMSTYLEDATA
350
46B
  3
FINGERPRINTGUID
350
456
  3
HYPERLINKBASE
350
44E
  3
INSUNITS
350
453
  3
LAYOUTDICT
350
450
  3
LWETCUNION
350
452
  3
PLOTSETDICT
350
451
  3
PSVPSCALE
350
458
  3
PUCSBASE
350
45B
  3
PUCSORGBACK
350
461
  3
PUCSORGBOTTOM
350
45D
  3
PUCSORGFRONT
350
460
  3
PUCSORGLEFT
350
45E
  3
PUCSORGRIGHT
350
45F
  3
PUCSORGTOP
350
45C
  3
PUCSORTHOREF
350
459
  3
PUCSORTHOVIEW
350
45A
  3
STYLESHEET
350
44F
  3
TSTACKALIGN
350
44C
  3
TSTACKSIZE
350
44D
  3
UCSBASE
350
464
  3
UCSORGBACK
350
46A
  3
UCSORGBOTTOM
350
466
  3
UCSORGFRONT
350
469
  3
UCSORGLEFT
350
467
  3
UCSORGRIGHT
350
468
  3
UCSORGTOP
350
465
  3
UCSORTHOREF
350
462
  3
UCSORTHOVIEW
350
463
  3
VERSIONGUID
350
457
  0
DICTIONARY
  5
46C
102
{ACAD_REACTORS
330
C
102
}
330
C
100
AcDbDictionary
  3
CANNOSCALE
350
479
  3
CENTEREXE
350
473
  3
CENTERLTYPEFILE
350
474
  3
CMLEADERSTYLE
350
46E
  3
CTABLESTYLE
350
46D
  3
DIMASSOC
350
475
  3
HIDETEXT
350
476
  3
MSLTSCALE
350
47A
  3
PSOLHEIGHT
350
470
  3
PSOLWIDTH
350
46F
  0
XRECORD
  5
478
102
{ACAD_REACTORS
330
477
102
}
330
477
100
AcDbXrecord
102
VTR_0.000_0.000_1.000_1.000_VISUALSTYLE
340
2F
102
VTR_0.000_0.000_1.000_1.000_GRIDDISPLAY
 70
     3
102
VTR_0.000_0.000_1.000_1.000_GRIDMAJOR
 70
     5
102
VTR_0.000_0.000_1.000_1.000_DEFAULTLIGHTING
280
     1
102
VTR_0.000_0.000_1.000_1.000_DEFAULTLIGHTINGTYPE
 70
     1
102
VTR_0.000_0.000_1.000_1.000_BRIGHTNESS
141
0.0
102
VTR_0.000_0.000_1.000_1.000_CONTRAST
142
0.0
  0
MATERIAL
  5
45
102
{ACAD_REACTORS
330
43
102
}
102
{ACAD_XDICTIONARY
360
47D
102
}
330
43
100
AcDbMaterial
  1
BYBLOCK
  0
MATERIAL
  5
44
102
{ACAD_REACTORS
330
43
102
}
102
{ACAD_XDICTIONARY
360
47B
102
}
330
43
100
AcDbMaterial
  1
BYLAYER
  0
MATERIAL
  5
46
102
{ACAD_REACTORS
330
43
102
}
102
{ACAD_XDICTIONARY
360
47F
102
}
330
43
100
AcDbMaterial
  1
GLOBAL
  0
ACAD_PROXY_OBJECT
  5
6C
102
{ACAD_REACTORS
330
6B
102
}
330
6B
100
AcDbProxyObject
 90
      499
 91
      505
 93
      610
310
40901902A4063FBFFFFFE0000000000000020400000000000020404214DD185B99185C990000000000000104090141901A00000000000004100000000000000041025764000000000000039000
340
14
340
0
340
11
340
0
 94
        0
1001
ACAD_MLEADERVER
1070
     2
  0
MLINESTYLE
  5
18
102
{ACAD_REACTORS
330
17
102
}
330
17
100
AcDbMlineStyle
  2
Standard
 70
     0
  3

 62
   256
 51
90.0
 52
90.0
 71
     2
 49
0.5
 62
   256
  6
BYLAYER
 49
-0.5
 62
   256
  6
BYLAYER
  0
ACAD_PROXY_OBJECT
  5
48
102
{ACAD_REACTORS
330
47
102
}
330
47
100
AcDbProxyObject
 90
      499
 91
      503
 93
       41
310
903313A31580
  0
ACAD_PROXY_OBJECT
  5
49
102
{ACAD_REACTORS
330
47
102
}
330
47
100
AcDbProxyObject
 90
      499
 91
      503
 93
      105
310
903313A324000000000000004000
  0
ACAD_PROXY_OBJECT
  5
4A
102
{ACAD_REACTORS
330
47
102
}
330
47
100
AcDbProxyObject
 90
      499
 91
      503
 93
      105
310
903313A344000000000000104000
  0
ACAD_PROXY_OBJECT
  5
4B
102
{ACAD_REACTORS
330
47
102
}
330
47
100
AcDbProxyObject
 90
      499
 91
      503
 93
      105
310
903313A354000000000000144000
  0
ACAD_PROXY_OBJECT
  5
4C
102
{ACAD_REACTORS
330
47
102
}
330
47
100
AcDbProxyObject
 90
      499
 91
      503
 93
      105
310
903313A384000000000000204000
  0
ACAD_PROXY_OBJECT
  5
4D
102
{ACAD_REACTORS
330
47
102
}
330
47
100
AcDbProxyObject
 90
      499
 91
      503
 93
      113
310
904313A31304000000000000244000
  0
ACAD_PROXY_OBJECT
  5
4E
102
{ACAD_REACTORS
330
47
102
}
330
47
100
AcDbProxyObject
 90
      499
 91
      503
 93
      113
310
904313A31364000000000000304000
  0
ACAD_PROXY_OBJECT
  5
4F
102
{ACAD_REACTORS
330
47
102
}
330
47
100
AcDbProxyObject
 90
      499
 91
      503
 93
      113
310
904313A32304000000000000344000
  0
ACAD_PROXY_OBJECT
  5
50
102
{ACAD_REACTORS
330
47
102
}
330
47
100
AcDbProxyObject
 90
      499
 91
      503
 93
      113
310
904313A333040000000000003E4000
  0
ACAD_PROXY_OBJECT
  5
51
102
{ACAD_REACTORS
330
47
102
}
330
47
100
AcDbProxyObject
 90
      499
 91
      503
 93
      113
310
904313A34304000000000000444000
  0
ACAD_PROXY_OBJECT
  5
52
102
{ACAD_REACTORS
330
47
102
}
330
47
100
AcDbProxyObject
 90
      499
 91
      503
 93
      113
310
904313A35304000000000000494000
  0
ACAD_PROXY_OBJECT
  5
53
102
{ACAD_REACTORS
330
47
102
}
330
47
100
AcDbProxyObject
 90
      499
 91
      503
 93
      121
310
905313A3130304000000000000594000
  0
ACAD_PROXY_OBJECT
  5
54
102
{ACAD_REACTORS
330
47
102
}
330
47
100
AcDbProxyObject
 90
      499
 91
      503
 93
      105
310
903323A310000000000000010100
  0
ACAD_PROXY_OBJECT
  5
55
102
{ACAD_REACTORS
330
47
102
}
330
47
100
AcDbProxyObject
 90
      499
 91
      503
 93
      105
310
903343A310000000000000410100
  0
ACAD_PROXY_OBJECT
  5
56
102
{ACAD_REACTORS
330
47
102
}
330
47
100
AcDbProxyObject
 90
      499
 91
      503
 93
      105
310
903383A310000000000000810100
  0
ACAD_PROXY_OBJECT
  5
57
102
{ACAD_REACTORS
330
47
102
}
330
47
100
AcDbProxyObject
 90
      499
 91
      503
 93
      113
310
90431303A310000000000000910100
  0
ACAD_PROXY_OBJECT
  5
58
102
{ACAD_REACTORS
330
47
102
}
330
47
100
AcDbProxyObject
 90
      499
 91
      503
 93
      121
310
9053130303A310000000000001650100
  0
ACAD_PROXY_OBJECT
  5
59
102
{ACAD_REACTORS
330
47
102
}
330
47
100
AcDbProxyObject
 90
      499
 91
      503
 93
      257
310
90E312F31323822203D2031272D3022000000000000200FC000000000000284000
  0
ACAD_PROXY_OBJECT
  5
5A
102
{ACAD_REACTORS
330
47
102
}
330
47
100
AcDbProxyObject
 90
      499
 91
      503
 93
      249
310
90D312F363422203D2031272D3022000000000000240FC000000000000284000
  0
ACAD_PROXY_OBJECT
  5
5B
102
{ACAD_REACTORS
330
47
102
}
330
47
100
AcDbProxyObject
 90
      499
 91
      503
 93
      249
310
90D312F333222203D2031272D3022000000000000280FC000000000000284000
  0
ACAD_PROXY_OBJECT
  5
5C
102
{ACAD_REACTORS
330
47
102
}
330
47
100
AcDbProxyObject
 90
      499
 91
      503
 93
      249
310
90D312F313622203D2031272D30220000000000002C0FC000000000000284000
  0
ACAD_PROXY_OBJECT
  5
5D
102
{ACAD_REACTORS
330
47
102
}
330
47
100
AcDbProxyObject
 90
      499
 91
      503
 93
      249
310
90D332F333222203D2031272D30220000000000002E0FC000000000000284000
  0
ACAD_PROXY_OBJECT
  5
5E
102
{ACAD_REACTORS
330
47
102
}
330
47
100
AcDbProxyObject
 90
      499
 91
      503
 93
      241
310
90C312F3822203D2031272D3022000000000000300FC000000000000284000
  0
ACAD_PROXY_OBJECT
  5
5F
102
{ACAD_REACTORS
330
47
102
}
330
47
100
AcDbProxyObject
 90
      499
 91
      503
 93
      249
310
90D332F313622203D2031272D3022000000000000320FC000000000000284000
  0
ACAD_PROXY_OBJECT
  5
60
102
{ACAD_REACTORS
330
47
102
}
330
47
100
AcDbProxyObject
 90
      499
 91
      503
 93
      241
310
90C312F3422203D2031272D3022000000000000340FC000000000000284000
  0
ACAD_PROXY_OBJECT
  5
61
102
{ACAD_REACTORS
330
47
102
}
330
47
100
AcDbProxyObject
 90
      499
 91
      503
 93
      241
310
90C332F3822203D2031272D3022000000000000360FC000000000000284000
  0
ACAD_PROXY_OBJECT
  5
62
102
{ACAD_REACTORS
330
47
102
}
330
47
100
AcDbProxyObject
 90
      499
 91
      503
 93
      241
310
90C312F3222203D2031272D3022000000000000380FC000000000000284000
  0
ACAD_PROXY_OBJECT
  5
63
102
{ACAD_REACTORS
330
47
102
}
330
47
100
AcDbProxyObject
 90
      499
 91
      503
 93
      241
310
90C332F3422203D2031272D30220000000000003A0FC000000000000284000
  0
ACAD_PROXY_OBJECT
  5
64
102
{ACAD_REACTORS
330
47
102
}
330
47
100
AcDbProxyObject
 90
      499
 91
      503
 93
      161
310
90A3122203D2031272D30224000000000000284000
  0
ACAD_PROXY_OBJECT
  5
65
102
{ACAD_REACTORS
330
47
102
}
330
47
100
AcDbProxyObject
 90
      499
 91
      503
 93
      257
310
90E312D312F3222203D2031272D30220000000000003E0FC000000000000284000
  0
ACAD_PROXY_OBJECT
  5
66
102
{ACAD_REACTORS
330
47
102
}
330
47
100
AcDbProxyObject
 90
      499
 91
      503
 93
      225
310
90A3322203D2031272D302200000000000002100000000000000284000
  0
ACAD_PROXY_OBJECT
  5
67
102
{ACAD_REACTORS
330
47
102
}
330
47
100
AcDbProxyObject
 90
      499
 91
      503
 93
      225
310
90A3622203D2031272D302200000000000006100000000000000284000
  0
ACAD_PROXY_OBJECT
  5
68
102
{ACAD_REACTORS
330
47
102
}
330
47
100
AcDbProxyObject
 90
      499
 91
      503
 93
      249
310
90D31272D3022203D2031272D30220000000000000A100000000000000284000
  0
ACAD_PROXY_OBJECT
  5
2F
102
{ACAD_REACTORS
330
2A
102
}
330
2A
100
AcDbProxyObject
 90
      499
 91
      501
 93
      436
310
42CC9915DA5C99599C985B595049028333333333333E33F0000000000000F90107901411070040501600405405064090741402480A0340
1001
ACAD
1000
AcDbSavedByObjectVersion
1070
     0
  0
ACAD_PROXY_OBJECT
  5
32
102
{ACAD_REACTORS
330
2A
102
}
330
2A
100
AcDbProxyObject
 90
      499
 91
      501
 93
      388
310
4150985CDA58D07406404333333333333E33F0000000000000F90107A41107004050150841D405064090741402480A0350
1001
ACAD
1000
AcDbSavedByObjectVersion
1070
     0
  0
ACAD_PROXY_OBJECT
  5
36
102
{ACAD_REACTORS
330
2A
102
}
330
2A
100
AcDbProxyObject
 90
      499
 91
      501
 93
      428
310
42109C9A59DA1D195B90C409028333333333333E33F0000000000000F9010790141107004050150841D405064090741402480A029950
1001
ACAD
1000
AcDbSavedByObjectVersion
1070
     0
  0
ACAD_PROXY_OBJECT
  5
3A
102
{ACAD_REACTORS
330
2A
102
}
330
2A
100
AcDbProxyObject
 90
      499
 91
      501
 93
      452
310
42D0DBDB1BDC90DA185B99D95104090240C333333333333E33F0000000000000F90108901411070040501508421405064090741402480A0350
1001
ACAD
1000
AcDbSavedByObjectVersion
1070
     0
  0
ACAD_PROXY_OBJECT
  5
34
102
{ACAD_REACTORS
330
2A
102
}
330
2A
100
AcDbProxyObject
 90
      499
 91
      501
 93
      500
310
4290DBDB98D95C1D1D585B10940D028333333333333E33F0000000000000F90107902409070040501000000000018199010841D405064090740C02480A0340
1001
ACAD
1000
AcDbSavedByObjectVersion
1070
     0
  0
ACAD_PROXY_OBJECT
  5
35
102
{ACAD_REACTORS
330
2A
102
}
330
2A
100
AcDbProxyObject
 90
      499
 91
      501
 93
      412
310
40D11A5B50B409028333333333333E33F0000000000000F9010790141107004050150841D405064090741402480A02677FFFFFD0
1001
ACAD
1000
AcDbSavedByObjectVersion
1070
     0
  0
ACAD_PROXY_OBJECT
  5
3D
102
{ACAD_REACTORS
330
2A
102
}
330
2A
100
AcDbProxyObject
 90
      499
 91
      501
 93
      452
310
43115919D950DBDB1BDC93D999916409028333333333333E33F0000000000000F9010790141107004050150841D405064090741402480A0350
1001
ACAD
1000
AcDbSavedByObjectVersion
1070
     0
  0
ACAD_PROXY_OBJECT
  5
39
102
{ACAD_REACTORS
330
2A
102
}
330
2A
100
AcDbProxyObject
 90
      499
 91
      501
 93
      444
310
42D19858D95C185D1D195C9B90F409028333333333333E33F0000000000000F9010790141107004050150841D405064090741402480A0350
1001
ACAD
1000
AcDbSavedByObjectVersion
1070
     0
  0
ACAD_PROXY_OBJECT
  5
2B
102
{ACAD_REACTORS
330
2A
102
}
330
2A
100
AcDbProxyObject
 90
      499
 91
      501
 93
      380
310
41119B185D240901404333333333333E33F0000000000000F9010740A907004050150841D405064090741402480A1B50
1001
ACAD
1000
AcDbSavedByObjectVersion
1070
     0
  0
ACAD_PROXY_OBJECT
  5
2C
102
{ACAD_REACTORS
330
2A
102
}
330
2A
100
AcDbProxyObject
 90
      499
 91
      501
 93
      468
310
43519B185D15DA5D1A115919D95CD0140901404333333333333E33F0000000000000F90107409019070040501600405405064090741402480A1B50
1001
ACAD
1000
AcDbSavedByObjectVersion
1070
     0
  0
ACAD_PROXY_OBJECT
  5
2D
102
{ACAD_REACTORS
330
2A
102
}
330
2A
100
AcDbProxyObject
 90
      499
 91
      501
 93
      404
310
41D1DBDD5C985D5910240902404333333333333E33F0000000000000F9010740A9070040501641D405064090741402480A1B50
1001
ACAD
1000
AcDbSavedByObjectVersion
1070
     0
  0
ACAD_PROXY_OBJECT
  5
2E
102
{ACAD_REACTORS
330
2A
102
}
330
2A
100
AcDbProxyObject
 90
      499
 91
      501
 93
      492
310
4411DBDD5C985D5915DA5D1A115919D95CD0340902404333333333333E33F0000000000000F90107409019070040501600405405064090741402480A1B50
1001
ACAD
1000
AcDbSavedByObjectVersion
1070
     0
  0
ACAD_PROXY_OBJECT
  5
31
102
{ACAD_REACTORS
330
2A
102
}
330
2A
100
AcDbProxyObject
 90
      499
 91
      501
 93
      476
310
41921A5919195B90640502408333333333333E33F0000000000000F901079024090700405020000000000001110200405405064090740C02480A0340
1001
ACAD
1000
AcDbSavedByObjectVersion
1070
     0
  0
ACAD_PROXY_OBJECT
  5
3B
102
{ACAD_REACTORS
330
2A
102
}
330
2A
100
AcDbProxyObject
 90
      499
 91
      501
 93
      428
310
42529A5D1D195C93D999914409028333333333333E33F0000000000000F9010790141107004050150A41D405064090741402480A0350
1001
ACAD
1000
AcDbSavedByObjectVersion
1070
     0
  0
ACAD_PROXY_OBJECT
  5
38
102
{ACAD_REACTORS
330
2A
102
}
330
2A
100
AcDbProxyObject
 90
      499
 91
      501
 93
      444
310
42D31A5B995C185D1D195C9B90E409028333333333333E33F0000000000000F9010790141107004050750841D405064090741402483A0350
1001
ACAD
1000
AcDbSavedByObjectVersion
1070
     0
  0
ACAD_PROXY_OBJECT
  5
3C
102
{ACAD_REACTORS
330
2A
102
}
330
2A
100
AcDbProxyObject
 90
      499
 91
      501
 93
      444
310
42D3DD995C9A185B99D3D999915409028333333333333E33F0000000000000F9010790141107004050150941D405064090741402480A0350
1001
ACAD
1000
AcDbSavedByObjectVersion
1070
     0
  0
ACAD_PROXY_OBJECT
  5
33
102
{ACAD_REACTORS
330
2A
102
}
330
2A
100
AcDbProxyObject
 90
      499
 91
      501
 93
      428
310
425499585B1A5CDD1A58D08409038333333333333E33F0000000000000F9010740A907004050150800405405064090740C02480A1B40
1001
ACAD
1000
AcDbSavedByObjectVersion
1070
     0
  0
ACAD_PROXY_OBJECT
  5
42
102
{ACAD_REACTORS
330
2A
102
}
330
2A
100
AcDbProxyObject
 90
      499
 91
      501
 93
      420
310
4194DA1859195911B40902404333333333333E33F0000000000000F9010740A41107004050150800405405064090840C02480A0B40
1001
ACAD
1000
AcDbSavedByObjectVersion
1070
     0
  0
ACAD_PROXY_OBJECT
  5
41
102
{ACAD_REACTORS
330
2A
102
}
330
2A
100
AcDbProxyObject
 90
      499
 91
      501
 93
      516
310
4454DA18591959081DDA5D1A08195919D95CD1A40902404333333333333E33F0000000000000F901074090142907004050250800405405064090740C02480A0B40
1001
ACAD
1000
AcDbSavedByObjectVersion
1070
     0
  0
ACAD_PROXY_OBJECT
  5
3E
102
{ACAD_REACTORS
330
2A
102
}
330
2A
100
AcDbProxyObject
 90
      499
 91
      501
 93
      532
310
4394DA1859195CC81BD98811DC985E5174090240C333333333333E33F0000000000000F901079024090741D01000000000000111010841D405064090740C02480A0340
1001
ACAD
1000
AcDbSavedByObjectVersion
1070
     0
  0
ACAD_PROXY_OBJECT
  5
3F
102
{ACAD_REACTORS
330
2A
102
}
330
2A
100
AcDbProxyObject
 90
      499
 91
      501
 93
      476
310
41D4DAD95D18DA1E51840502408333333333333E33F0000000000000F901079024090741D01000000000000111010B41D405064090741802480A0340
1001
ACAD
1000
AcDbSavedByObjectVersion
1070
     0
  0
ACAD_PROXY_OBJECT
  5
37
102
{ACAD_REACTORS
330
2A
102
}
330
2A
100
AcDbProxyObject
 90
      499
 91
      501
 93
      412
310
41D51A1A58DAD95B90D409028333333333333E33F0000000000000F9010790141107004050150C41D405064090741402480A0350
1001
ACAD
1000
AcDbSavedByObjectVersion
1070
     0
  0
ACAD_PROXY_OBJECT
  5
30
102
{ACAD_REACTORS
330
2A
102
}
330
2A
100
AcDbProxyObject
 90
      499
 91
      501
 93
      420
310
4255DA5C99599C985B595059028333333333333E33F0000000000000F90107901411070040501600405405064090740C02480A0340
1001
ACAD
1000
AcDbSavedByObjectVersion
1070
     0
  0
ACAD_PROXY_OBJECT
  5
40
102
{ACAD_REACTORS
330
2A
102
}
330
2A
100
AcDbProxyObject
 90
      499
 91
      501
 93
      404
310
41560B54985E51940902404000000000000E03F0000000000000F9010740501907004050150841D405064090740C02480A1B40
1001
ACAD
1000
AcDbSavedByObjectVersion
1070
     0
  0
XRECORD
  5
455
102
{ACAD_REACTORS
330
44B
102
}
330
44B
100
AcDbXrecord
340
0
  0
XRECORD
  5
454
102
{ACAD_REACTORS
330
44B
102
}
330
44B
100
AcDbXrecord
 90
        0
  0
XRECORD
  5
46B
102
{ACAD_REACTORS
330
44B
102
}
330
44B
100
AcDbXrecord
1000
DSTYLE
1002
{
1070
   340
340
11
1002
}
  0
XRECORD
  5
456
102
{ACAD_REACTORS
330
44B
102
}
330
44B
100
AcDbXrecord
  1
{aff0060d-15a9-4652-a031-1bf87222a025}
  0
XRECORD
  5
44E
102
{ACAD_REACTORS
330
44B
102
}
330
44B
100
AcDbXrecord
  1

  0
XRECORD
  5
453
102
{ACAD_REACTORS
330
44B
102
}
330
44B
100
AcDbXrecord
 90
        4
  0
XRECORD
  5
450
102
{ACAD_REACTORS
330
44B
102
}
330
44B
100
AcDbXrecord
340
1A
  0
XRECORD
  5
452
102
{ACAD_REACTORS
330
44B
102
}
330
44B
100
AcDbXrecord
 90
    10781
  0
XRECORD
  5
451
102
{ACAD_REACTORS
330
44B
102
}
330
44B
100
AcDbXrecord
340
19
  0
XRECORD
  5
458
102
{ACAD_REACTORS
330
44B
102
}
330
44B
100
AcDbXrecord
 40
0.0
  0
XRECORD
  5
45B
102
{ACAD_REACTORS
330
44B
102
}
330
44B
100
AcDbXrecord
340
0
  0
XRECORD
  5
461
102
{ACAD_REACTORS
330
44B
102
}
330
44B
100
AcDbXrecord
 10
0.0
 20
0.0
 30
0.0
  0
XRECORD
  5
45D
102
{ACAD_REACTORS
330
44B
102
}
330
44B
100
AcDbXrecord
 10
0.0
 20
0.0
 30
0.0
  0
XRECORD
  5
460
102
{ACAD_REACTORS
330
44B
102
}
330
44B
100
AcDbXrecord
 10
0.0
 20
0.0
 30
0.0
  0
XRECORD
  5
45E
102
{ACAD_REACTORS
330
44B
102
}
330
44B
100
AcDbXrecord
 10
0.0
 20
0.0
 30
0.0
  0
XRECORD
  5
45F
102
{ACAD_REACTORS
330
44B
102
}
330
44B
100
AcDbXrecord
 10
0.0
 20
0.0
 30
0.0
  0
XRECORD
  5
45C
102
{ACAD_REACTORS
330
44B
102
}
330
44B
100
AcDbXrecord
 10
0.0
 20
0.0
 30
0.0
  0
XRECORD
  5
459
102
{ACAD_REACTORS
330
44B
102
}
330
44B
100
AcDbXrecord
340
0
  0
XRECORD
  5
45A
102
{ACAD_REACTORS
330
44B
102
}
330
44B
100
AcDbXrecord
 70
     0
  0
XRECORD
  5
44F
102
{ACAD_REACTORS
330
44B
102
}
330
44B
100
AcDbXrecord
  1

  0
XRECORD
  5
44C
102
{ACAD_REACTORS
330
44B
102
}
330
44B
100
AcDbXrecord
 90
        1
  0
XRECORD
  5
44D
102
{ACAD_REACTORS
330
44B
102
}
330
44B
100
AcDbXrecord
 90
       70
  0
XRECORD
  5
464
102
{ACAD_REACTORS
330
44B
102
}
330
44B
100
AcDbXrecord
340
0
  0
XRECORD
  5
46A
102
{ACAD_REACTORS
330
44B
102
}
330
44B
100
AcDbXrecord
 10
0.0
 20
0.0
 30
0.0
  0
XRECORD
  5
466
102
{ACAD_REACTORS
330
44B
102
}
330
44B
100
AcDbXrecord
 10
0.0
 20
0.0
 30
0.0
  0
XRECORD
  5
469
102
{ACAD_REACTORS
330
44B
102
}
330
44B
100
AcDbXrecord
 10
0.0
 20
0.0
 30
0.0
  0
XRECORD
  5
467
102
{ACAD_REACTORS
330
44B
102
}
330
44B
100
AcDbXrecord
 10
0.0
 20
0.0
 30
0.0
  0
XRECORD
  5
468
102
{ACAD_REACTORS
330
44B
102
}
330
44B
100
AcDbXrecord
 10
0.0
 20
0.0
 30
0.0
  0
XRECORD
  5
465
102
{ACAD_REACTORS
330
44B
102
}
330
44B
100
AcDbXrecord
 10
0.0
 20
0.0
 30
0.0
  0
XRECORD
  5
462
102
{ACAD_REACTORS
330
44B
102
}
330
44B
100
AcDbXrecord
340
0
  0
XRECORD
  5
463
102
{ACAD_REACTORS
330
44B
102
}
330
44B
100
AcDbXrecord
 70
     0
  0
XRECORD
  5
457
102
{ACAD_REACTORS
330
44B
102
}
330
44B
100
AcDbXrecord
  1
{FAEB1C32-E019-11D5-929B-00C0DF256EC4}
  0
DICTIONARYVAR
  5
479
102
{ACAD_REACTORS
330
46C
102
}
330
46C
100
DictionaryVariables
280
     0
  1
1:1
  0
DICTIONARYVAR
  5
473
102
{ACAD_REACTORS
330
46C
102
}
330
46C
100
DictionaryVariables
280
     0
  1
3.500000
  0
DICTIONARYVAR
  5
474
102
{ACAD_REACTORS
330
46C
102
}
330
46C
100
DictionaryVariables
280
     0
  1
acadiso.lin
  0
DICTIONARYVAR
  5
46E
102
{ACAD_REACTORS
330
46C
102
}
330
46C
100
DictionaryVariables
280
     0
  1
Standard
  0
DICTIONARYVAR
  5
46D
102
{ACAD_REACTORS
330
46C
102
}
330
46C
100
DictionaryVariables
280
     0
  1
Standard
  0
DICTIONARYVAR
  5
475
102
{ACAD_REACTORS
330
46C
102
}
330
46C
100
DictionaryVariables
280
     0
  1
2
  0
DICTIONARYVAR
  5
476
102
{ACAD_REACTORS
330
46C
102
}
330
46C
100
DictionaryVariables
280
     0
  1
1
  0
DICTIONARYVAR
  5
47A
102
{ACAD_REACTORS
330
46C
102
}
330
46C
100
DictionaryVariables
280
     0
  1
1
  0
DICTIONARYVAR
  5
470
102
{ACAD_REACTORS
330
46C
102
}
330
46C
100
DictionaryVariables
280
     0
  1
80.000000
  0
DICTIONARYVAR
  5
46F
102
{ACAD_REACTORS
330
46C
102
}
330
46C
100
DictionaryVariables
280
     0
  1
5.000000
  0
DICTIONARY
  5
47D
330
45
100
AcDbDictionary
280
     1
  3
ACAD_XREC_ROUNDTRIP
360
47E
  0
DICTIONARY
  5
47B
330
44
100
AcDbDictionary
280
     1
  3
ACAD_XREC_ROUNDTRIP
360
47C
  0
DICTIONARY
  5
47F
330
46
100
AcDbDictionary
280
     1
  3
ACAD_XREC_ROUNDTRIP
360
480
  0
XRECORD
  5
47E
102
{ACAD_REACTORS
330
47D
102
}
330
47D
100
AcDbXrecord
102
MATERIAL
148
0.0
149
0.0
149
0.0
 93
        0
 94
      127
282
     0
 72
     1
 77
     1
171
     1
175
     1
179
     1
273
     0
  0
XRECORD
  5
47C
102
{ACAD_REACTORS
330
47B
102
}
330
47B
100
AcDbXrecord
102
MATERIAL
148
0.0
149
0.0
149
0.0
 93
        0
 94
      127
282
     0
 72
     1
 77
     1
171
     1
175
     1
179
     1
273
     0
  0
XRECORD
  5
480
102
{ACAD_REACTORS
330
47F
102
}
330
47F
100
AcDbXrecord
102
MATERIAL
148
0.0
149
0.0
149
0.0
 93
        0
 94
      127
282
     0
 72
     1
 77
     1
171
     1
175
     1
179
     1
273
     0
  0
ENDSEC
  0
EOF
