  0
SECTION
  2
HEADER
  9
$ACADVER
  1
AC1014
  9
$ACADMAINTVER
 70
     9
  9
$DWGCODEPAGE
  3
ANSI_932
  9
$INSBASE
 10
0.0
 20
0.0
 30
0.0
  9
$EXTMIN
 10
15.0
 20
30.0
 30
0.0
  9
$EXTMAX
 10
1155.0
 20
848.199999999996
 30
0.0
  9
$LIMMIN
 10
0.0
 20
0.0
  9
$LIMMAX
 10
420.0
 20
297.0
  9
$ORTHOMODE
 70
     0
  9
$REGENMODE
 70
     1
  9
$FILLMODE
 70
     1
  9
$QTEXTMODE
 70
     0
  9
$MIRRTEXT
 70
     1
  9
$DRAGMODE
 70
     2
  9
$LTSCALE
 40
0.2
  9
$OSMODE
 70
    37
  9
$ATTMODE
 70
     1
  9
$TEXTSIZE
 40
2.5
  9
$TRACEWID
 40
1.0
  9
$TEXTSTYLE
  7
STANDARD
  9
$CLAYER
  8
LAY-10
  9
$CELTYPE
  6
BYLAYER
  9
$CECOLOR
 62
   256
  9
$CELTSCALE
 40
1.0
  9
$DELOBJ
 70
     1
  9
$DISPSILH
 70
     0
  9
$DIMSCALE
 40
1.0
  9
$DIMASZ
 40
2.5
  9
$DIMEXO
 40
0.625
  9
$DIMDLI
 40
3.75
  9
$DIMRND
 40
0.0
  9
$DIMDLE
 40
0.0
  9
$DIMEXE
 40
1.25
  9
$DIMTP
 40
0.0
  9
$DIMTM
 40
0.0
  9
$DIMTXT
 40
2.5
  9
$DIMCEN
 40
2.5
  9
$DIMTSZ
 40
0.0
  9
$DIMTOL
 70
     0
  9
$DIMLIM
 70
     0
  9
$DIMTIH
 70
     0
  9
$DIMTOH
 70
     0
  9
$DIMSE1
 70
     0
  9
$DIMSE2
 70
     0
  9
$DIMTAD
 70
     1
  9
$DIMZIN
 70
     8
  9
$DIMBLK
  1

  9
$DIMASO
 70
     1
  9
$DIMSHO
 70
     1
  9
$DIMPOST
  1

  9
$DIMAPOST
  1

  9
$DIMALT
 70
     0
  9
$DIMALTD
 70
     3
  9
$DIMALTF
 40
0.03937007874016
  9
$DIMLFAC
 40
1.0
  9
$DIMTOFL
 70
     1
  9
$DIMTVP
 40
0.0
  9
$DIMTIX
 70
     0
  9
$DIMSOXD
 70
     0
  9
$DIMSAH
 70
     0
  9
$DIMBLK1
  1

  9
$DIMBLK2
  1

  9
$DIMSTYLE
  2
ISO-25
  9
$DIMCLRD
 70
     0
  9
$DIMCLRE
 70
     0
  9
$DIMCLRT
 70
     0
  9
$DIMTFAC
 40
1.0
  9
$DIMGAP
 40
0.625
  9
$DIMJUST
 70
     0
  9
$DIMSD1
 70
     0
  9
$DIMSD2
 70
     0
  9
$DIMTOLJ
 70
     0
  9
$DIMTZIN
 70
     8
  9
$DIMALTZ
 70
     0
  9
$DIMALTTZ
 70
     0
  9
$DIMFIT
 70
     3
  9
$DIMUPT
 70
     0
  9
$DIMUNIT
 70
     2
  9
$DIMDEC
 70
     2
  9
$DIMTDEC
 70
     2
  9
$DIMALTU
 70
     2
  9
$DIMALTTD
 70
     3
  9
$DIMTXSTY
  7
STANDARD
  9
$DIMAUNIT
 70
     0
  9
$LUNITS
 70
     2
  9
$LUPREC
 70
     4
  9
$SKETCHINC
 40
1.0
  9
$FILLETRAD
 40
10.0
  9
$AUNITS
 70
     0
  9
$AUPREC
 70
     0
  9
$MENU
  1
.
  9
$ELEVATION
 40
0.0
  9
$PELEVATION
 40
0.0
  9
$THICKNESS
 40
0.0
  9
$LIMCHECK
 70
     0
  9
$CHAMFERA
 40
0.0
  9
$CHAMFERB
 40
0.0
  9
$CHAMFERC
 40
0.0
  9
$CHAMFERD
 40
0.0
  9
$SKPOLY
 70
     0
  9
$TDCREATE
 40
2460010.661637303
  9
$TDUPDATE
 40
2460010.661637662
  9
$TDINDWG
 40
0.0000000116
  9
$TDUSRTIMER
 40
0.0000000116
  9
$USRTIMER
 70
     1
  9
$ANGBASE
 50
0.0
  9
$ANGDIR
 70
     0
  9
$PDMODE
 70
     0
  9
$PDSIZE
 40
0.0
  9
$PLINEWID
 40
0.0
  9
$COORDS
 70
     1
  9
$SPLFRAME
 70
     0
  9
$SPLINETYPE
 70
     6
  9
$SPLINESEGS
 70
     8
  9
$ATTDIA
 70
     0
  9
$ATTREQ
 70
     1
  9
$HANDLING
 70
     1
  9
$HANDSEED
  5
6DC
  9
$SURFTAB1
 70
     6
  9
$SURFTAB2
 70
     6
  9
$SURFTYPE
 70
     6
  9
$SURFU
 70
     6
  9
$SURFV
 70
     6
  9
$UCSNAME
  2

  9
$UCSORG
 10
0.0
 20
0.0
 30
0.0
  9
$UCSXDIR
 10
1.0
 20
0.0
 30
0.0
  9
$UCSYDIR
 10
0.0
 20
1.0
 30
0.0
  9
$PUCSNAME
  2

  9
$PUCSORG
 10
0.0
 20
0.0
 30
0.0
  9
$PUCSXDIR
 10
1.0
 20
0.0
 30
0.0
  9
$PUCSYDIR
 10
0.0
 20
1.0
 30
0.0
  9
$USERI1
 70
     0
  9
$USERI2
 70
     0
  9
$USERI3
 70
     0
  9
$USERI4
 70
     0
  9
$USERI5
 70
     0
  9
$USERR1
 40
0.0
  9
$USERR2
 40
0.0
  9
$USERR3
 40
0.0
  9
$USERR4
 40
0.0
  9
$USERR5
 40
0.0
  9
$WORLDVIEW
 70
     1
  9
$SHADEDGE
 70
     3
  9
$SHADEDIF
 70
    70
  9
$TILEMODE
 70
     1
  9
$MAXACTVP
 70
    64
  9
$PINSBASE
 10
0.0
 20
0.0
 30
0.0
  9
$PLIMCHECK
 70
     0
  9
$PEXTMIN
 10
1.000000000000000E+20
 20
1.000000000000000E+20
 30
1.000000000000000E+20
  9
$PEXTMAX
 10
-1.000000000000000E+20
 20
-1.000000000000000E+20
 30
-1.000000000000000E+20
  9
$PLIMMIN
 10
0.0
 20
0.0
  9
$PLIMMAX
 10
420.0
 20
297.0
  9
$UNITMODE
 70
     0
  9
$VISRETAIN
 70
     1
  9
$PLINEGEN
 70
     0
  9
$PSLTSCALE
 70
     1
  9
$TREEDEPTH
 70
  3020
  9
$PICKSTYLE
 70
     1
  9
$CMLSTYLE
  2
STANDARD
  9
$CMLJUST
 70
     0
  9
$CMLSCALE
 40
20.0
  9
$PROXYGRAPHICS
 70
     1
  9
$MEASUREMENT
 70
     1
  0
ENDSEC
  0
SECTION
  2
CLASSES
  0
CLASS
  1
ACDBDICTIONARYWDFLT
  2
AcDbDictionaryWithDefault
  3
ObjectDBX Classes
 90
        0
280
     0
281
     0
  0
CLASS
  1
VISUALSTYLE
  2
AcDbVisualStyle
  3
ObjectDBX Classes
 90
     4095
280
     0
281
     0
  0
CLASS
  1
MATERIAL
  2
AcDbMaterial
  3
ObjectDBX Classes
 90
     1153
280
     0
281
     0
  0
CLASS
  1
SCALE
  2
AcDbScale
  3
ObjectDBX Classes
 90
     1153
280
     0
281
     0
  0
CLASS
  1
TABLESTYLE
  2
AcDbTableStyle
  3
ObjectDBX Classes
 90
     4095
280
     0
281
     0
  0
CLASS
  1
MLEADERSTYLE
  2
AcDbMLeaderStyle
  3
ACDB_MLEADERSTYLE_CLASS
 90
     4095
280
     0
281
     0
  0
CLASS
  1
SUN
  2
AcDbSun
  3
SCENEOE
 90
     1153
280
     0
281
     0
  0
CLASS
  1
DICTIONARYVAR
  2
AcDbDictionaryVar
  3
ObjectDBX Classes
 90
        0
280
     0
281
     0
  0
CLASS
  1
XRECORD
  2
AcDbXrecord
  3
ObjectDBX Classes
 90
        0
280
     0
281
     0
  0
CLASS
  1
LWPOLYLINE
  2
AcDbPolyline
  3
ObjectDBX Classes
 90
        0
280
     0
281
     1
  0
CLASS
  1
HATCH
  2
AcDbHatch
  3
ObjectDBX Classes
 90
        0
280
     0
281
     1
  0
CLASS
  1
ACDBPLACEHOLDER
  2
AcDbPlaceHolder
  3
ObjectDBX Classes
 90
        0
280
     0
281
     0
  0
CLASS
  1
LAYOUT
  2
AcDbLayout
  3
ObjectDBX Classes
 90
        0
280
     0
281
     0
  0
ENDSEC
  0
SECTION
  2
TABLES
  0
TABLE
  2
VPORT
  5
8
102
{ACAD_XDICTIONARY
360
6D1
102
}
330
0
100
AcDbSymbolTable
 70
     1
  0
VPORT
  5
29
330
8
100
AcDbSymbolTableRecord
100
AcDbViewportTableRecord
  2
*ACTIVE
 70
     0
 10
0.0
 20
0.0
 11
1.0
 21
1.0
 12
585.0000000000001
 22
435.0
 13
0.0
 23
0.0
 14
10.0
 24
10.0
 15
10.0
 25
10.0
 16
0.0
 26
0.0
 36
1.0
 17
0.0
 27
0.0
 37
0.0
 40
810.0
 41
1.407407407407408
 42
50.0
 43
0.0
 44
0.0
 50
0.0
 51
0.0
 71
     0
 72
  1000
 73
     1
 74
     3
 75
     0
 76
     0
 77
     0
 78
     0
  0
ENDTAB
  0
TABLE
  2
LTYPE
  5
5
330
0
100
AcDbSymbolTable
 70
     6
  0
LTYPE
  5
14
330
5
100
AcDbSymbolTableRecord
100
AcDbLinetypeTableRecord
  2
BYBLOCK
 70
     0
  3

 72
    65
 73
     0
 40
0.0
  0
LTYPE
  5
15
330
5
100
AcDbSymbolTableRecord
100
AcDbLinetypeTableRecord
  2
BYLAYER
 70
     0
  3

 72
    65
 73
     0
 40
0.0
  0
LTYPE
  5
16
330
5
100
AcDbSymbolTableRecord
100
AcDbLinetypeTableRecord
  2
CONTINUOUS
 70
     0
  3
Solid line
 72
    65
 73
     0
 40
0.0
  0
LTYPE
  5
6E
330
5
100
AcDbSymbolTableRecord
100
AcDbLinetypeTableRecord
  2
HIDDEN
 70
     0
  3
Hidden __ __ __ __ __ __ __ __ __ __ __ __ __ __
 72
    65
 73
     2
 40
9.524999999999999
 49
6.35
 74
     0
 49
-3.175
 74
     0
  0
LTYPE
  5
6F
330
5
100
AcDbSymbolTableRecord
100
AcDbLinetypeTableRecord
  2
CENTER
 70
     0
  3
Center ____ _ ____ _ ____ _ ____ _ ____ _ ____
 72
    65
 73
     4
 40
50.8
 49
31.75
 74
     0
 49
-6.35
 74
     0
 49
6.35
 74
     0
 49
-6.35
 74
     0
  0
LTYPE
  5
70
330
5
100
AcDbSymbolTableRecord
100
AcDbLinetypeTableRecord
  2
PHANTOM
 70
     0
  3
Phantom ______  __  __  ______  __  __  ______ 
 72
    65
 73
     6
 40
63.50000000000001
 49
31.75
 74
     0
 49
-6.35
 74
     0
 49
6.35
 74
     0
 49
-6.35
 74
     0
 49
6.35
 74
     0
 49
-6.35
 74
     0
  0
LTYPE
  5
71
330
5
100
AcDbSymbolTableRecord
100
AcDbLinetypeTableRecord
  2
ACAD_ISO06W100
 70
     0
  3
ISO long-dash triple-dot ____ ... ____ ... ____
 72
    65
 73
     8
 40
36.0
 49
24.0
 74
     0
 49
-3.0
 74
     0
 49
0.0
 74
     0
 49
-3.0
 74
     0
 49
0.0
 74
     0
 49
-3.0
 74
     0
 49
0.0
 74
     0
 49
-3.0
 74
     0
  0
LTYPE
  5
72
330
5
100
AcDbSymbolTableRecord
100
AcDbLinetypeTableRecord
  2
ACAD_ISO15W100
 70
     0
  3
ISO double-dash triple-dot __ __ . . . __ __ . .
 72
    65
 73
    10
 40
39.0
 49
12.0
 74
     0
 49
-3.0
 74
     0
 49
12.0
 74
     0
 49
-3.0
 74
     0
 49
0.0
 74
     0
 49
-3.0
 74
     0
 49
0.0
 74
     0
 49
-3.0
 74
     0
 49
0.0
 74
     0
 49
-3.0
 74
     0
  0
ENDTAB
  0
TABLE
  2
LAYER
  5
2
330
0
100
AcDbSymbolTable
 70
     5
  0
LAYER
  5
10
330
2
100
AcDbSymbolTableRecord
100
AcDbLayerTableRecord
  2
0
 70
     0
 62
     7
  6
CONTINUOUS
  0
LAYER
  5
75
330
2
100
AcDbSymbolTableRecord
100
AcDbLayerTableRecord
  2
LAY-10
 70
     0
 62
     7
  6
CONTINUOUS
  0
LAYER
  5
76
330
2
100
AcDbSymbolTableRecord
100
AcDbLayerTableRecord
  2
LAY-20
 70
     0
 62
     7
  6
CONTINUOUS
  0
LAYER
  5
77
330
2
100
AcDbSymbolTableRecord
100
AcDbLayerTableRecord
  2
LAY-255
 70
     0
 62
     7
  6
CONTINUOUS
  0
LAYER
  5
5B7
330
2
100
AcDbSymbolTableRecord
100
AcDbLayerTableRecord
  2
DEFPOINTS
 70
     0
 62
     7
  6
CONTINUOUS
  0
ENDTAB
  0
TABLE
  2
STYLE
  5
3
330
0
100
AcDbSymbolTable
 70
     4
  0
STYLE
  5
11
330
3
100
AcDbSymbolTableRecord
100
AcDbTextStyleTableRecord
  2
STANDARD
 70
     0
 40
0.0
 41
1.0
 50
0.0
 71
     0
 42
2.5
  3
simplex
  4
bigfont
  0
STYLE
  5
73
330
3
100
AcDbSymbolTableRecord
100
AcDbTextStyleTableRecord
  2
EXCADSTD
 70
     0
 40
0.0
 41
1.0
 50
0.0
 71
     0
 42
2.5
  3
simplex
  4
bigfont
  0
STYLE
  5
74
330
3
100
AcDbSymbolTableRecord
100
AcDbTextStyleTableRecord
  2
EXCADVERT
 70
     4
 40
0.0
 41
1.0
 50
0.0
 71
     0
 42
2.5
  3
simplex
  4
bigfont
  0
STYLE
  5
5B5
330
3
100
AcDbSymbolTableRecord
100
AcDbTextStyleTableRecord
  2
EXCADDIM1
 70
     0
 40
0.0
 41
0.84
 50
0.0
 71
     0
 42
2.5
  3
simplex
  4
bigfont
  0
ENDTAB
  0
TABLE
  2
VIEW
  5
6
330
0
100
AcDbSymbolTable
 70
     0
  0
ENDTAB
  0
TABLE
  2
UCS
  5
7
330
0
100
AcDbSymbolTable
 70
     0
  0
ENDTAB
  0
TABLE
  2
APPID
  5
9
330
0
100
AcDbSymbolTable
 70
     2
  0
APPID
  5
12
330
9
100
AcDbSymbolTableRecord
100
AcDbRegAppTableRecord
  2
ACAD
 70
     0
  0
APPID
  5
6DB
330
9
100
AcDbSymbolTableRecord
100
AcDbRegAppTableRecord
  2
ACAD_MLEADERVER
 70
     0
  0
ENDTAB
  0
TABLE
  2
DIMSTYLE
  5
A
330
0
100
AcDbSymbolTable
 70
     1
  0
DIMSTYLE
105
27
102
{ACAD_REACTORS
330
5B6
330
5C3
330
5D0
330
5DB
330
5E8
330
5F4
330
601
330
60C
330
618
330
625
330
632
330
63F
330
64E
330
65D
330
66D
102
}
330
A
100
AcDbSymbolTableRecord
100
AcDbDimStyleTableRecord
  2
ISO-25
 70
     0
  3

  4

  5

  6

  7

 40
1.0
 41
2.5
 42
0.625
 43
3.75
 44
1.25
 45
0.0
 46
0.0
 47
0.0
 48
0.0
140
2.5
141
2.5
142
0.0
143
0.03937007874016
144
1.0
145
0.0
146
1.0
147
0.625
 71
     0
 72
     0
 73
     0
 74
     0
 75
     0
 76
     0
 77
     1
 78
     8
170
     0
171
     3
172
     1
173
     0
174
     0
175
     0
176
     0
177
     0
178
     0
270
     2
271
     2
272
     2
273
     2
274
     3
340
11
275
     0
280
     0
281
     0
282
     0
283
     0
284
     8
285
     0
286
     0
287
     5
288
     0
  0
ENDTAB
  0
TABLE
  2
BLOCK_RECORD
  5
1
330
0
100
AcDbSymbolTable
 70
    29
  0
BLOCK_RECORD
  5
1F
330
1
100
AcDbSymbolTableRecord
100
AcDbBlockTableRecord
  2
*MODEL_SPACE
  0
BLOCK_RECORD
  5
1B
330
1
100
AcDbSymbolTableRecord
100
AcDbBlockTableRecord
  2
*PAPER_SPACE
  0
BLOCK_RECORD
  5
78
330
1
100
AcDbSymbolTableRecord
100
AcDbBlockTableRecord
  2
EX_NORM
  0
BLOCK_RECORD
  5
7B
330
1
100
AcDbSymbolTableRecord
100
AcDbBlockTableRecord
  2
EX_BNORM
  0
BLOCK_RECORD
  5
7E
330
1
100
AcDbSymbolTableRecord
100
AcDbBlockTableRecord
  2
EX_BCIR
  0
BLOCK_RECORD
  5
81
330
1
100
AcDbSymbolTableRecord
100
AcDbBlockTableRecord
  2
EX_RCIVIL
  0
BLOCK_RECORD
  5
84
330
1
100
AcDbSymbolTableRecord
100
AcDbBlockTableRecord
  2
EX_SLANT
  0
BLOCK_RECORD
  5
87
330
1
100
AcDbSymbolTableRecord
100
AcDbBlockTableRecord
  2
EX_NONE
  0
BLOCK_RECORD
  5
8A
330
1
100
AcDbSymbolTableRecord
100
AcDbBlockTableRecord
  2
EX_CIVIL
  0
BLOCK_RECORD
  5
8D
330
1
100
AcDbSymbolTableRecord
100
AcDbBlockTableRecord
  2
EX_WCIR
  0
BLOCK_RECORD
  5
90
330
1
100
AcDbSymbolTableRecord
100
AcDbBlockTableRecord
  2
EX_WCIR2
  0
BLOCK_RECORD
  5
93
330
1
100
AcDbSymbolTableRecord
100
AcDbBlockTableRecord
  2
EX_WNORM
  0
BLOCK_RECORD
  5
96
330
1
100
AcDbSymbolTableRecord
100
AcDbBlockTableRecord
  2
EX_NNORM
  0
BLOCK_RECORD
  5
99
330
1
100
AcDbSymbolTableRecord
100
AcDbBlockTableRecord
  2
EX_BBOX
  0
BLOCK_RECORD
  5
9C
330
1
100
AcDbSymbolTableRecord
100
AcDbBlockTableRecord
  2
EX_WBOX
  0
BLOCK_RECORD
  5
9F
330
1
100
AcDbSymbolTableRecord
100
AcDbBlockTableRecord
  2
EX_INTEGRAL
  0
BLOCK_RECORD
  5
5B8
330
1
100
AcDbSymbolTableRecord
100
AcDbBlockTableRecord
  2
*D15
  0
BLOCK_RECORD
  5
5C4
330
1
100
AcDbSymbolTableRecord
100
AcDbBlockTableRecord
  2
*D16
  0
BLOCK_RECORD
  5
5D1
330
1
100
AcDbSymbolTableRecord
100
AcDbBlockTableRecord
  2
*D17
  0
BLOCK_RECORD
  5
5DC
330
1
100
AcDbSymbolTableRecord
100
AcDbBlockTableRecord
  2
*D18
  0
BLOCK_RECORD
  5
5E9
330
1
100
AcDbSymbolTableRecord
100
AcDbBlockTableRecord
  2
*D19
  0
BLOCK_RECORD
  5
5F5
330
1
100
AcDbSymbolTableRecord
100
AcDbBlockTableRecord
  2
*D20
  0
BLOCK_RECORD
  5
602
330
1
100
AcDbSymbolTableRecord
100
AcDbBlockTableRecord
  2
*D21
  0
BLOCK_RECORD
  5
60D
330
1
100
AcDbSymbolTableRecord
100
AcDbBlockTableRecord
  2
*D22
  0
BLOCK_RECORD
  5
619
330
1
100
AcDbSymbolTableRecord
100
AcDbBlockTableRecord
  2
*D23
  0
BLOCK_RECORD
  5
626
330
1
100
AcDbSymbolTableRecord
100
AcDbBlockTableRecord
  2
*D24
  0
BLOCK_RECORD
  5
633
330
1
100
AcDbSymbolTableRecord
100
AcDbBlockTableRecord
  2
*D25
  0
BLOCK_RECORD
  5
640
330
1
100
AcDbSymbolTableRecord
100
AcDbBlockTableRecord
  2
*D26
  0
BLOCK_RECORD
  5
64F
330
1
100
AcDbSymbolTableRecord
100
AcDbBlockTableRecord
  2
*D27
  0
BLOCK_RECORD
  5
65E
330
1
100
AcDbSymbolTableRecord
100
AcDbBlockTableRecord
  2
*D28
  0
BLOCK_RECORD
  5
66E
330
1
100
AcDbSymbolTableRecord
100
AcDbBlockTableRecord
  2
*D29
  0
ENDTAB
  0
ENDSEC
  0
SECTION
  2
BLOCKS
  0
BLOCK
  5
20
330
1F
100
AcDbEntity
  8
0
100
AcDbBlockBegin
  2
*MODEL_SPACE
 70
     0
 10
0.0
 20
0.0
 30
0.0
  3
*MODEL_SPACE
  1

  0
ENDBLK
  5
21
330
1F
100
AcDbEntity
  8
0
100
AcDbBlockEnd
  0
BLOCK
  5
1C
330
1B
100
AcDbEntity
 67
     1
  8
0
100
AcDbBlockBegin
  2
*PAPER_SPACE
 70
     0
 10
0.0
 20
0.0
 30
0.0
  3
*PAPER_SPACE
  1

  0
ENDBLK
  5
1D
330
1B
100
AcDbEntity
 67
     1
  8
0
100
AcDbBlockEnd
  0
BLOCK
  5
79
330
78
100
AcDbEntity
  8
0
100
AcDbBlockBegin
  2
EX_NORM
 70
     0
 10
0.0
 20
0.0
 30
0.0
  3
EX_NORM
  1

  0
LINE
  5
A2
330
78
100
AcDbEntity
  8
0
  6
CONTINUOUS
 62
     0
100
AcDbLine
 10
0.0
 20
0.0
 30
0.0
 11
-1.0
 21
0.0
 31
0.0
  0
LINE
  5
A3
330
78
100
AcDbEntity
  8
0
  6
CONTINUOUS
 62
     0
100
AcDbLine
 10
0.0
 20
0.0
 30
0.0
 11
-1.0
 21
0.166666667
 31
0.0
  0
LINE
  5
A4
330
78
100
AcDbEntity
  8
0
  6
CONTINUOUS
 62
     0
100
AcDbLine
 10
0.0
 20
0.0
 30
0.0
 11
-1.0
 21
-0.166666667
 31
0.0
  0
ENDBLK
  5
7A
330
78
100
AcDbEntity
  8
0
100
AcDbBlockEnd
  0
BLOCK
  5
7C
330
7B
100
AcDbEntity
  8
0
100
AcDbBlockBegin
  2
EX_BNORM
 70
     0
 10
0.0
 20
0.0
 30
0.0
  3
EX_BNORM
  1

  0
LINE
  5
A5
330
7B
100
AcDbEntity
  8
0
  6
CONTINUOUS
 62
     0
100
AcDbLine
 10
0.0
 20
0.0
 30
0.0
 11
-1.0
 21
0.0
 31
0.0
  0
LINE
  5
A6
330
7B
100
AcDbEntity
  8
0
  6
CONTINUOUS
 62
     0
100
AcDbLine
 10
0.0
 20
0.0
 30
0.0
 11
-1.0
 21
0.166666667
 31
0.0
  0
LINE
  5
A7
330
7B
100
AcDbEntity
  8
0
  6
CONTINUOUS
 62
     0
100
AcDbLine
 10
0.0
 20
0.0
 30
0.0
 11
-1.0
 21
-0.166666667
 31
0.0
  0
LINE
  5
A8
330
7B
100
AcDbEntity
  8
0
  6
CONTINUOUS
 62
     0
100
AcDbLine
 10
0.0
 20
0.0
 30
0.0
 11
-1.0
 21
0.083333333
 31
0.0
  0
LINE
  5
A9
330
7B
100
AcDbEntity
  8
0
  6
CONTINUOUS
 62
     0
100
AcDbLine
 10
0.0
 20
0.0
 30
0.0
 11
-1.0
 21
-0.083333333
 31
0.0
  0
LINE
  5
AA
330
7B
100
AcDbEntity
  8
0
  6
CONTINUOUS
 62
     0
100
AcDbLine
 10
-1.0
 20
0.166666667
 30
0.0
 11
-1.0
 21
-0.166666667
 31
0.0
  0
ENDBLK
  5
7D
330
7B
100
AcDbEntity
  8
0
100
AcDbBlockEnd
  0
BLOCK
  5
7F
330
7E
100
AcDbEntity
  8
0
100
AcDbBlockBegin
  2
EX_BCIR
 70
     0
 10
0.0
 20
0.0
 30
0.0
  3
EX_BCIR
  1

  0
LINE
  5
AB
330
7E
100
AcDbEntity
  8
0
  6
CONTINUOUS
 62
     0
100
AcDbLine
 10
0.0
 20
0.0
 30
0.0
 11
-1.0
 21
0.0
 31
0.0
  0
CIRCLE
  5
AC
330
7E
100
AcDbEntity
  8
0
  6
CONTINUOUS
 62
     0
100
AcDbCircle
 10
0.0
 20
0.0
 30
0.0
 40
0.5
  0
CIRCLE
  5
AD
330
7E
100
AcDbEntity
  8
0
  6
CONTINUOUS
 62
     0
100
AcDbCircle
 10
0.0
 20
0.0
 30
0.0
 40
0.25
  0
ENDBLK
  5
80
330
7E
100
AcDbEntity
  8
0
100
AcDbBlockEnd
  0
BLOCK
  5
82
330
81
100
AcDbEntity
  8
0
100
AcDbBlockBegin
  2
EX_RCIVIL
 70
     0
 10
0.0
 20
0.0
 30
0.0
  3
EX_RCIVIL
  1

  0
LINE
  5
AE
330
81
100
AcDbEntity
  8
0
  6
CONTINUOUS
 62
     0
100
AcDbLine
 10
0.0
 20
0.0
 30
0.0
 11
-1.0
 21
0.0
 31
0.0
  0
LINE
  5
AF
330
81
100
AcDbEntity
  8
0
  6
CONTINUOUS
 62
     0
100
AcDbLine
 10
-1.0
 20
-0.25
 30
0.0
 11
0.0
 21
-0.25
 31
0.0
  0
LINE
  5
B0
330
81
100
AcDbEntity
  8
0
  6
CONTINUOUS
 62
     0
100
AcDbLine
 10
-1.0
 20
-0.125
 30
0.0
 11
0.0
 21
-0.125
 31
0.0
  0
ENDBLK
  5
83
330
81
100
AcDbEntity
  8
0
100
AcDbBlockEnd
  0
BLOCK
  5
85
330
84
100
AcDbEntity
  8
0
100
AcDbBlockBegin
  2
EX_SLANT
 70
     0
 10
0.0
 20
0.0
 30
0.0
  3
EX_SLANT
  1

  0
LINE
  5
B1
330
84
100
AcDbEntity
  8
0
  6
CONTINUOUS
 62
     0
100
AcDbLine
 10
0.0
 20
0.0
 30
0.0
 11
-1.0
 21
0.0
 31
0.0
  0
LINE
  5
B2
330
84
100
AcDbEntity
  8
0
  6
CONTINUOUS
 62
     0
100
AcDbLine
 10
0.707106781
 20
0.707106781
 30
0.0
 11
-0.707106781
 21
-0.707106781
 31
0.0
  0
ENDBLK
  5
86
330
84
100
AcDbEntity
  8
0
100
AcDbBlockEnd
  0
BLOCK
  5
88
330
87
100
AcDbEntity
  8
0
100
AcDbBlockBegin
  2
EX_NONE
 70
     0
 10
0.0
 20
0.0
 30
0.0
  3
EX_NONE
  1

  0
LINE
  5
B3
330
87
100
AcDbEntity
  8
0
  6
CONTINUOUS
 62
     0
100
AcDbLine
 10
0.0
 20
0.0
 30
0.0
 11
-1.0
 21
0.0
 31
0.0
  0
ENDBLK
  5
89
330
87
100
AcDbEntity
  8
0
100
AcDbBlockEnd
  0
BLOCK
  5
8B
330
8A
100
AcDbEntity
  8
0
100
AcDbBlockBegin
  2
EX_CIVIL
 70
     0
 10
0.0
 20
0.0
 30
0.0
  3
EX_CIVIL
  1

  0
LINE
  5
B4
330
8A
100
AcDbEntity
  8
0
  6
CONTINUOUS
 62
     0
100
AcDbLine
 10
0.0
 20
0.0
 30
0.0
 11
-1.0
 21
0.0
 31
0.0
  0
LINE
  5
B5
330
8A
100
AcDbEntity
  8
0
  6
CONTINUOUS
 62
     0
100
AcDbLine
 10
-1.0
 20
0.25
 30
0.0
 11
0.0
 21
0.25
 31
0.0
  0
LINE
  5
B6
330
8A
100
AcDbEntity
  8
0
  6
CONTINUOUS
 62
     0
100
AcDbLine
 10
-1.0
 20
0.125
 30
0.0
 11
0.0
 21
0.125
 31
0.0
  0
ENDBLK
  5
8C
330
8A
100
AcDbEntity
  8
0
100
AcDbBlockEnd
  0
BLOCK
  5
8E
330
8D
100
AcDbEntity
  8
0
100
AcDbBlockBegin
  2
EX_WCIR
 70
     0
 10
0.0
 20
0.0
 30
0.0
  3
EX_WCIR
  1

  0
LINE
  5
B7
330
8D
100
AcDbEntity
  8
0
  6
CONTINUOUS
 62
     0
100
AcDbLine
 10
0.0
 20
0.0
 30
0.0
 11
-1.0
 21
0.0
 31
0.0
  0
CIRCLE
  5
B8
330
8D
100
AcDbEntity
  8
0
  6
CONTINUOUS
 62
     0
100
AcDbCircle
 10
0.0
 20
0.0
 30
0.0
 40
0.5
  0
ENDBLK
  5
8F
330
8D
100
AcDbEntity
  8
0
100
AcDbBlockEnd
  0
BLOCK
  5
91
330
90
100
AcDbEntity
  8
0
100
AcDbBlockBegin
  2
EX_WCIR2
 70
     0
 10
0.0
 20
0.0
 30
0.0
  3
EX_WCIR2
  1

  0
LINE
  5
B9
330
90
100
AcDbEntity
  8
0
  6
CONTINUOUS
 62
     0
100
AcDbLine
 10
-0.5
 20
0.0
 30
0.0
 11
-1.0
 21
0.0
 31
0.0
  0
CIRCLE
  5
BA
330
90
100
AcDbEntity
  8
0
  6
CONTINUOUS
 62
     0
100
AcDbCircle
 10
0.0
 20
0.0
 30
0.0
 40
0.5
  0
ENDBLK
  5
92
330
90
100
AcDbEntity
  8
0
100
AcDbBlockEnd
  0
BLOCK
  5
94
330
93
100
AcDbEntity
  8
0
100
AcDbBlockBegin
  2
EX_WNORM
 70
     0
 10
0.0
 20
0.0
 30
0.0
  3
EX_WNORM
  1

  0
LINE
  5
BB
330
93
100
AcDbEntity
  8
0
  6
CONTINUOUS
 62
     0
100
AcDbLine
 10
-1.0
 20
0.0
 30
0.0
 11
-1.0
 21
0.0
 31
0.0
  0
LINE
  5
BC
330
93
100
AcDbEntity
  8
0
  6
CONTINUOUS
 62
     0
100
AcDbLine
 10
0.0
 20
0.0
 30
0.0
 11
-1.0
 21
0.166666667
 31
0.0
  0
LINE
  5
BD
330
93
100
AcDbEntity
  8
0
  6
CONTINUOUS
 62
     0
100
AcDbLine
 10
0.0
 20
0.0
 30
0.0
 11
-1.0
 21
-0.166666667
 31
0.0
  0
LINE
  5
BE
330
93
100
AcDbEntity
  8
0
  6
CONTINUOUS
 62
     0
100
AcDbLine
 10
-1.0
 20
0.166666667
 30
0.0
 11
-1.0
 21
-0.166666667
 31
0.0
  0
ENDBLK
  5
95
330
93
100
AcDbEntity
  8
0
100
AcDbBlockEnd
  0
BLOCK
  5
97
330
96
100
AcDbEntity
  8
0
100
AcDbBlockBegin
  2
EX_NNORM
 70
     0
 10
0.0
 20
0.0
 30
0.0
  3
EX_NNORM
  1

  0
LINE
  5
BF
330
96
100
AcDbEntity
  8
0
  6
CONTINUOUS
 62
     0
100
AcDbLine
 10
0.0
 20
0.0
 30
0.0
 11
-1.0
 21
0.0
 31
0.0
  0
LINE
  5
C0
330
96
100
AcDbEntity
  8
0
  6
CONTINUOUS
 62
     0
100
AcDbLine
 10
0.0
 20
0.0
 30
0.0
 11
-1.0
 21
0.166666667
 31
0.0
  0
LINE
  5
C1
330
96
100
AcDbEntity
  8
0
  6
CONTINUOUS
 62
     0
100
AcDbLine
 10
0.0
 20
0.0
 30
0.0
 11
-1.0
 21
-0.166666667
 31
0.0
  0
LINE
  5
C2
330
96
100
AcDbEntity
  8
0
  6
CONTINUOUS
 62
     0
100
AcDbLine
 10
-1.0
 20
0.166666667
 30
0.0
 11
-1.0
 21
-0.166666667
 31
0.0
  0
ENDBLK
  5
98
330
96
100
AcDbEntity
  8
0
100
AcDbBlockEnd
  0
BLOCK
  5
9A
330
99
100
AcDbEntity
  8
0
100
AcDbBlockBegin
  2
EX_BBOX
 70
     0
 10
0.0
 20
0.0
 30
0.0
  3
EX_BBOX
  1

  0
LINE
  5
C3
330
99
100
AcDbEntity
  8
0
  6
CONTINUOUS
 62
     0
100
AcDbLine
 10
0.0
 20
0.0
 30
0.0
 11
-1.0
 21
0.0
 31
0.0
  0
LINE
  5
C4
330
99
100
AcDbEntity
  8
0
  6
CONTINUOUS
 62
     0
100
AcDbLine
 10
-0.5
 20
0.5
 30
0.0
 11
0.5
 21
0.5
 31
0.0
  0
LINE
  5
C5
330
99
100
AcDbEntity
  8
0
  6
CONTINUOUS
 62
     0
100
AcDbLine
 10
0.5
 20
0.5
 30
0.0
 11
0.5
 21
-0.5
 31
0.0
  0
LINE
  5
C6
330
99
100
AcDbEntity
  8
0
  6
CONTINUOUS
 62
     0
100
AcDbLine
 10
0.5
 20
-0.5
 30
0.0
 11
-0.5
 21
-0.5
 31
0.0
  0
LINE
  5
C7
330
99
100
AcDbEntity
  8
0
  6
CONTINUOUS
 62
     0
100
AcDbLine
 10
-0.5
 20
-0.5
 30
0.0
 11
-0.5
 21
0.5
 31
0.0
  0
LINE
  5
C8
330
99
100
AcDbEntity
  8
0
  6
CONTINUOUS
 62
     0
100
AcDbLine
 10
-0.25
 20
0.25
 30
0.0
 11
0.25
 21
0.25
 31
0.0
  0
LINE
  5
C9
330
99
100
AcDbEntity
  8
0
  6
CONTINUOUS
 62
     0
100
AcDbLine
 10
0.25
 20
0.25
 30
0.0
 11
0.25
 21
-0.25
 31
0.0
  0
LINE
  5
CA
330
99
100
AcDbEntity
  8
0
  6
CONTINUOUS
 62
     0
100
AcDbLine
 10
0.25
 20
-0.25
 30
0.0
 11
-0.25
 21
-0.25
 31
0.0
  0
LINE
  5
CB
330
99
100
AcDbEntity
  8
0
  6
CONTINUOUS
 62
     0
100
AcDbLine
 10
-0.25
 20
-0.25
 30
0.0
 11
-0.25
 21
0.25
 31
0.0
  0
ENDBLK
  5
9B
330
99
100
AcDbEntity
  8
0
100
AcDbBlockEnd
  0
BLOCK
  5
9D
330
9C
100
AcDbEntity
  8
0
100
AcDbBlockBegin
  2
EX_WBOX
 70
     0
 10
0.0
 20
0.0
 30
0.0
  3
EX_WBOX
  1

  0
LINE
  5
CC
330
9C
100
AcDbEntity
  8
0
  6
CONTINUOUS
 62
     0
100
AcDbLine
 10
-0.5
 20
0.0
 30
0.0
 11
-1.0
 21
0.0
 31
0.0
  0
LINE
  5
CD
330
9C
100
AcDbEntity
  8
0
  6
CONTINUOUS
 62
     0
100
AcDbLine
 10
-0.5
 20
0.5
 30
0.0
 11
0.5
 21
0.5
 31
0.0
  0
LINE
  5
CE
330
9C
100
AcDbEntity
  8
0
  6
CONTINUOUS
 62
     0
100
AcDbLine
 10
0.5
 20
0.5
 30
0.0
 11
0.5
 21
-0.5
 31
0.0
  0
LINE
  5
CF
330
9C
100
AcDbEntity
  8
0
  6
CONTINUOUS
 62
     0
100
AcDbLine
 10
0.5
 20
-0.5
 30
0.0
 11
-0.5
 21
-0.5
 31
0.0
  0
LINE
  5
D0
330
9C
100
AcDbEntity
  8
0
  6
CONTINUOUS
 62
     0
100
AcDbLine
 10
-0.5
 20
-0.5
 30
0.0
 11
-0.5
 21
0.5
 31
0.0
  0
ENDBLK
  5
9E
330
9C
100
AcDbEntity
  8
0
100
AcDbBlockEnd
  0
BLOCK
  5
A0
330
9F
100
AcDbEntity
  8
0
100
AcDbBlockBegin
  2
EX_INTEGRAL
 70
     0
 10
0.0
 20
0.0
 30
0.0
  3
EX_INTEGRAL
  1

  0
LINE
  5
D1
330
9F
100
AcDbEntity
  8
0
  6
CONTINUOUS
 62
     0
100
AcDbLine
 10
0.0
 20
0.0
 30
0.0
 11
-1.0
 21
0.0
 31
0.0
  0
ARC
  5
D2
330
9F
100
AcDbEntity
  8
0
  6
CONTINUOUS
 62
     0
100
AcDbCircle
 10
0.542115
 20
0.164992
 30
0.0
 40
0.56667
100
AcDbArc
 50
73.07249033629006
 51
196.9275130221199
  0
ARC
  5
D3
330
9F
100
AcDbEntity
  8
0
  6
CONTINUOUS
 62
     0
100
AcDbCircle
 10
-0.542115
 20
-0.164992
 30
0.0
 40
0.56667
100
AcDbArc
 50
253.0724869220464
 51
16.9275130559125
  0
ENDBLK
  5
A1
330
9F
100
AcDbEntity
  8
0
100
AcDbBlockEnd
  0
BLOCK
  5
5B9
330
5B8
100
AcDbEntity
  8
0
100
AcDbBlockBegin
  2
*D15
 70
     1
 10
0.0
 20
0.0
 30
0.0
  3
*D15
  1

  0
LINE
  5
5BB
330
5B8
100
AcDbEntity
  8
LAY-20
  6
CONTINUOUS
 62
     4
100
AcDbLine
 10
159.1999999999603
 20
702.699999999996
 30
0.0
 11
159.1999999999603
 21
799.8
 31
0.0
  0
LINE
  5
5BC
330
5B8
100
AcDbEntity
  8
LAY-20
  6
CONTINUOUS
 62
     4
100
AcDbLine
 10
168.1999999999603
 20
795.3
 30
0.0
 11
220.19999999996
 21
795.3
 31
0.0
  0
INSERT
  5
5BD
330
5B8
100
AcDbEntity
  8
LAY-20
 62
     4
100
AcDbBlockReference
  2
EX_BNORM
 10
159.1999999999603
 20
795.3
 30
0.0
 41
9.0
 42
9.0
 43
9.0
 50
180.0
  0
INSERT
  5
5BE
330
5B8
100
AcDbEntity
  8
LAY-20
 62
     4
100
AcDbBlockReference
  2
EX_BNORM
 10
229.19999999996
 20
795.3
 30
0.0
 41
9.0
 42
9.0
 43
9.0
  0
MTEXT
  5
5BF
330
5B8
100
AcDbEntity
  8
LAY-20
 62
     7
100
AcDbMText
 10
194.1999999999602
 20
802.8
 30
0.0
 40
9.3543312
 41
0.0
 71
     5
 72
     1
  1
70以上
  7
EXCADDIM1
  0
POINT
  5
5C0
330
5B8
100
AcDbEntity
  8
DEFPOINTS
 62
     0
100
AcDbPoint
 10
159.1999999999603
 20
698.199999999996
 30
0.0
  0
POINT
  5
5C1
330
5B8
100
AcDbEntity
  8
DEFPOINTS
 62
     0
100
AcDbPoint
 10
229.19999999996
 20
848.199999999996
 30
0.0
  0
POINT
  5
5C2
330
5B8
100
AcDbEntity
  8
DEFPOINTS
 62
     0
100
AcDbPoint
 10
229.19999999996
 20
795.3
 30
0.0
  0
ENDBLK
  5
5BA
330
5B8
100
AcDbEntity
  8
0
100
AcDbBlockEnd
  0
BLOCK
  5
5C5
330
5C4
100
AcDbEntity
  8
0
100
AcDbBlockBegin
  2
*D16
 70
     1
 10
0.0
 20
0.0
 30
0.0
  3
*D16
  1

  0
LINE
  5
5C7
330
5C4
100
AcDbEntity
  8
LAY-20
  6
CONTINUOUS
 62
     4
100
AcDbLine
 10
229.19999999996
 20
740.6999999999958
 30
0.0
 11
229.19999999996
 21
799.8
 31
0.0
  0
LINE
  5
5C8
330
5C4
100
AcDbEntity
  8
LAY-20
  6
CONTINUOUS
 62
     4
100
AcDbLine
 10
434.1999999999698
 20
535.699999999996
 30
0.0
 11
434.1999999999698
 21
799.8
 31
0.0
  0
LINE
  5
5C9
330
5C4
100
AcDbEntity
  8
LAY-20
  6
CONTINUOUS
 62
     4
100
AcDbLine
 10
238.19999999996
 20
795.3
 30
0.0
 11
425.1999999999698
 21
795.3
 31
0.0
  0
INSERT
  5
5CA
330
5C4
100
AcDbEntity
  8
LAY-20
 62
     4
100
AcDbBlockReference
  2
EX_BNORM
 10
229.19999999996
 20
795.3
 30
0.0
 41
9.0
 42
9.0
 43
9.0
 50
180.0
  0
INSERT
  5
5CB
330
5C4
100
AcDbEntity
  8
LAY-20
 62
     4
100
AcDbBlockReference
  2
EX_BNORM
 10
434.1999999999698
 20
795.3
 30
0.0
 41
9.0
 42
9.0
 43
9.0
  0
MTEXT
  5
5CC
330
5C4
100
AcDbEntity
  8
LAY-20
 62
     7
100
AcDbMText
 10
331.699999999965
 20
802.8
 30
0.0
 40
9.3543312
 41
0.0
 71
     5
 72
     1
  1
205
  7
EXCADDIM1
  0
POINT
  5
5CD
330
5C4
100
AcDbEntity
  8
DEFPOINTS
 62
     0
100
AcDbPoint
 10
229.19999999996
 20
736.1999999999958
 30
0.0
  0
POINT
  5
5CE
330
5C4
100
AcDbEntity
  8
DEFPOINTS
 62
     0
100
AcDbPoint
 10
434.1999999999698
 20
531.199999999996
 30
0.0
  0
POINT
  5
5CF
330
5C4
100
AcDbEntity
  8
DEFPOINTS
 62
     0
100
AcDbPoint
 10
434.1999999999698
 20
795.3
 30
0.0
  0
ENDBLK
  5
5C6
330
5C4
100
AcDbEntity
  8
0
100
AcDbBlockEnd
  0
BLOCK
  5
5D2
330
5D1
100
AcDbEntity
  8
0
100
AcDbBlockBegin
  2
*D17
 70
     1
 10
0.0
 20
0.0
 30
0.0
  3
*D17
  1

  0
LINE
  5
5D4
330
5D1
100
AcDbEntity
  8
LAY-20
  6
CONTINUOUS
 62
     4
100
AcDbLine
 10
238.19999999996
 20
763.8
 30
0.0
 11
238.19999999996
 21
763.8
 31
0.0
  0
INSERT
  5
5D5
330
5D1
100
AcDbEntity
  8
LAY-20
 62
     4
100
AcDbBlockReference
  2
EX_BNORM
 10
229.19999999996
 20
763.8
 30
0.0
 41
9.0
 42
9.0
 43
9.0
 50
180.0
  0
INSERT
  5
5D6
330
5D1
100
AcDbEntity
  8
LAY-20
 62
     4
100
AcDbBlockReference
  2
EX_BNORM
 10
247.19999999996
 20
763.8
 30
0.0
 41
9.0
 42
9.0
 43
9.0
  0
MTEXT
  5
5D7
330
5D1
100
AcDbEntity
  8
LAY-20
 62
     7
100
AcDbMText
 10
238.1999999999601
 20
771.3
 30
0.0
 40
9.3543312
 41
0.0
 71
     5
 72
     1
  1
18
  7
EXCADDIM1
  0
POINT
  5
5D8
330
5D1
100
AcDbEntity
  8
DEFPOINTS
 62
     0
100
AcDbPoint
 10
229.19999999996
 20
792.199999999996
 30
0.0
  0
POINT
  5
5D9
330
5D1
100
AcDbEntity
  8
DEFPOINTS
 62
     0
100
AcDbPoint
 10
247.19999999996
 20
792.199999999996
 30
0.0
  0
POINT
  5
5DA
330
5D1
100
AcDbEntity
  8
DEFPOINTS
 62
     0
100
AcDbPoint
 10
247.19999999996
 20
763.8
 30
0.0
  0
ENDBLK
  5
5D3
330
5D1
100
AcDbEntity
  8
0
100
AcDbBlockEnd
  0
BLOCK
  5
5DD
330
5DC
100
AcDbEntity
  8
0
100
AcDbBlockBegin
  2
*D18
 70
     1
 10
0.0
 20
0.0
 30
0.0
  3
*D18
  1

  0
LINE
  5
5DF
330
5DC
100
AcDbEntity
  8
LAY-20
  6
CONTINUOUS
 62
     4
100
AcDbLine
 10
247.19999999996
 20
716.700000000096
 30
0.0
 11
247.19999999996
 21
768.3
 31
0.0
  0
LINE
  5
5E0
330
5DC
100
AcDbEntity
  8
LAY-20
  6
CONTINUOUS
 62
     4
100
AcDbLine
 10
400.1999999999598
 20
552.699999999996
 30
0.0
 11
400.1999999999598
 21
768.3
 31
0.0
  0
LINE
  5
5E1
330
5DC
100
AcDbEntity
  8
LAY-20
  6
CONTINUOUS
 62
     4
100
AcDbLine
 10
256.19999999996
 20
763.8
 30
0.0
 11
391.1999999999598
 21
763.8
 31
0.0
  0
INSERT
  5
5E2
330
5DC
100
AcDbEntity
  8
LAY-20
 62
     4
100
AcDbBlockReference
  2
EX_BNORM
 10
247.19999999996
 20
763.8
 30
0.0
 41
9.0
 42
9.0
 43
9.0
 50
180.0
  0
INSERT
  5
5E3
330
5DC
100
AcDbEntity
  8
LAY-20
 62
     4
100
AcDbBlockReference
  2
EX_BNORM
 10
400.1999999999598
 20
763.8
 30
0.0
 41
9.0
 42
9.0
 43
9.0
  0
MTEXT
  5
5E4
330
5DC
100
AcDbEntity
  8
LAY-20
 62
     7
100
AcDbMText
 10
323.69999999996
 20
771.3
 30
0.0
 40
9.3543312
 41
0.0
 71
     5
 72
     1
  1
153
  7
EXCADDIM1
  0
POINT
  5
5E5
330
5DC
100
AcDbEntity
  8
DEFPOINTS
 62
     0
100
AcDbPoint
 10
247.19999999996
 20
712.200000000096
 30
0.0
  0
POINT
  5
5E6
330
5DC
100
AcDbEntity
  8
DEFPOINTS
 62
     0
100
AcDbPoint
 10
400.1999999999598
 20
548.199999999996
 30
0.0
  0
POINT
  5
5E7
330
5DC
100
AcDbEntity
  8
DEFPOINTS
 62
     0
100
AcDbPoint
 10
400.1999999999598
 20
763.8
 30
0.0
  0
ENDBLK
  5
5DE
330
5DC
100
AcDbEntity
  8
0
100
AcDbBlockEnd
  0
BLOCK
  5
5EA
330
5E9
100
AcDbEntity
  8
0
100
AcDbBlockBegin
  2
*D19
 70
     1
 10
0.0
 20
0.0
 30
0.0
  3
*D19
  1

  0
LINE
  5
5EC
330
5E9
100
AcDbEntity
  8
LAY-20
  6
CONTINUOUS
 62
     4
100
AcDbLine
 10
223.6999999999603
 20
590.199999999996
 30
0.0
 11
494.6999999999598
 21
590.199999999996
 31
0.0
  0
LINE
  5
5ED
330
5E9
100
AcDbEntity
  8
LAY-20
  6
CONTINUOUS
 62
     4
100
AcDbLine
 10
490.1999999999598
 20
581.199999999996
 30
0.0
 11
490.1999999999598
 21
540.199999999996
 31
0.0
  0
INSERT
  5
5EE
330
5E9
100
AcDbEntity
  8
LAY-20
 62
     4
100
AcDbBlockReference
  2
EX_BNORM
 10
490.1999999999598
 20
590.199999999996
 30
0.0
 41
9.0
 42
9.0
 43
9.0
 50
90.0
  0
INSERT
  5
5EF
330
5E9
100
AcDbEntity
  8
LAY-20
 62
     4
100
AcDbBlockReference
  2
EX_BNORM
 10
490.1999999999598
 20
531.199999999996
 30
0.0
 41
9.0
 42
9.0
 43
9.0
 50
270.0
  0
MTEXT
  5
5F0
330
5E9
100
AcDbEntity
  8
LAY-20
 62
     7
100
AcDbMText
 10
482.6999999999598
 20
560.699999999996
 30
0.0
 40
9.3543312
 41
0.0
 71
     5
 72
     1
  1
59
  7
EXCADDIM1
 11
0.0
 21
1.0
 31
0.0
  0
POINT
  5
5F1
330
5E9
100
AcDbEntity
  8
DEFPOINTS
 62
     0
100
AcDbPoint
 10
219.1999999999603
 20
590.199999999996
 30
0.0
  0
POINT
  5
5F2
330
5E9
100
AcDbEntity
  8
DEFPOINTS
 62
     0
100
AcDbPoint
 10
490.1999999999598
 20
531.199999999996
 30
0.0
  0
POINT
  5
5F3
330
5E9
100
AcDbEntity
  8
DEFPOINTS
 62
     0
100
AcDbPoint
 10
490.1999999999598
 20
531.199999999996
 30
0.0
  0
ENDBLK
  5
5EB
330
5E9
100
AcDbEntity
  8
0
100
AcDbBlockEnd
  0
BLOCK
  5
5F6
330
5F5
100
AcDbEntity
  8
0
100
AcDbBlockBegin
  2
*D20
 70
     1
 10
0.0
 20
0.0
 30
0.0
  3
*D20
  1

  0
LINE
  5
5F8
330
5F5
100
AcDbEntity
  8
LAY-20
  6
CONTINUOUS
 62
     4
100
AcDbLine
 10
414.7000000000598
 20
549.200000000096
 30
0.0
 11
523.7999999999997
 21
549.200000000096
 31
0.0
  0
LINE
  5
5F9
330
5F5
100
AcDbEntity
  8
LAY-20
  6
CONTINUOUS
 62
     4
100
AcDbLine
 10
250.6999999999603
 20
702.199999999996
 30
0.0
 11
523.7999999999997
 21
702.199999999996
 31
0.0
  0
LINE
  5
5FA
330
5F5
100
AcDbEntity
  8
LAY-20
  6
CONTINUOUS
 62
     4
100
AcDbLine
 10
519.2999999999997
 20
558.200000000096
 30
0.0
 11
519.2999999999997
 21
693.199999999996
 31
0.0
  0
INSERT
  5
5FB
330
5F5
100
AcDbEntity
  8
LAY-20
 62
     4
100
AcDbBlockReference
  2
EX_BNORM
 10
519.2999999999997
 20
549.200000000096
 30
0.0
 41
9.0
 42
9.0
 43
9.0
 50
270.0
  0
INSERT
  5
5FC
330
5F5
100
AcDbEntity
  8
LAY-20
 62
     4
100
AcDbBlockReference
  2
EX_BNORM
 10
519.2999999999997
 20
702.199999999996
 30
0.0
 41
9.0
 42
9.0
 43
9.0
 50
90.0
  0
MTEXT
  5
5FD
330
5F5
100
AcDbEntity
  8
LAY-20
 62
     7
100
AcDbMText
 10
511.7999999999997
 20
625.7000000000457
 30
0.0
 40
9.3543312
 41
0.0
 71
     5
 72
     1
  1
153
  7
EXCADDIM1
 11
0.0
 21
1.0
 31
0.0
  0
POINT
  5
5FE
330
5F5
100
AcDbEntity
  8
DEFPOINTS
 62
     0
100
AcDbPoint
 10
410.2000000000598
 20
549.200000000096
 30
0.0
  0
POINT
  5
5FF
330
5F5
100
AcDbEntity
  8
DEFPOINTS
 62
     0
100
AcDbPoint
 10
246.1999999999603
 20
702.199999999996
 30
0.0
  0
POINT
  5
600
330
5F5
100
AcDbEntity
  8
DEFPOINTS
 62
     0
100
AcDbPoint
 10
519.2999999999997
 20
702.199999999996
 30
0.0
  0
ENDBLK
  5
5F7
330
5F5
100
AcDbEntity
  8
0
100
AcDbBlockEnd
  0
BLOCK
  5
603
330
602
100
AcDbEntity
  8
0
100
AcDbBlockBegin
  2
*D21
 70
     1
 10
0.0
 20
0.0
 30
0.0
  3
*D21
  1

  0
LINE
  5
605
330
602
100
AcDbEntity
  8
LAY-20
  6
CONTINUOUS
 62
     4
100
AcDbLine
 10
519.2999999999997
 20
540.199999999996
 30
0.0
 11
519.2999999999997
 21
540.200000000096
 31
0.0
  0
INSERT
  5
606
330
602
100
AcDbEntity
  8
LAY-20
 62
     4
100
AcDbBlockReference
  2
EX_BNORM
 10
519.2999999999997
 20
531.199999999996
 30
0.0
 41
9.0
 42
9.0
 43
9.0
 50
270.0
  0
INSERT
  5
607
330
602
100
AcDbEntity
  8
LAY-20
 62
     4
100
AcDbBlockReference
  2
EX_BNORM
 10
519.2999999999997
 20
549.200000000096
 30
0.0
 41
9.0
 42
9.0
 43
9.0
 50
90.0
  0
MTEXT
  5
608
330
602
100
AcDbEntity
  8
LAY-20
 62
     7
100
AcDbMText
 10
511.7999999999997
 20
540.2000000000457
 30
0.0
 40
9.3543312
 41
0.0
 71
     5
 72
     1
  1
18
  7
EXCADDIM1
 11
0.0
 21
1.0
 31
0.0
  0
POINT
  5
609
330
602
100
AcDbEntity
  8
DEFPOINTS
 62
     0
100
AcDbPoint
 10
546.1999999999596
 20
531.199999999996
 30
0.0
  0
POINT
  5
60A
330
602
100
AcDbEntity
  8
DEFPOINTS
 62
     0
100
AcDbPoint
 10
546.1999999999596
 20
549.200000000096
 30
0.0
  0
POINT
  5
60B
330
602
100
AcDbEntity
  8
DEFPOINTS
 62
     0
100
AcDbPoint
 10
519.2999999999997
 20
549.200000000096
 30
0.0
  0
ENDBLK
  5
604
330
602
100
AcDbEntity
  8
0
100
AcDbBlockEnd
  0
BLOCK
  5
60E
330
60D
100
AcDbEntity
  8
0
100
AcDbBlockBegin
  2
*D22
 70
     1
 10
0.0
 20
0.0
 30
0.0
  3
*D22
  1

  0
LINE
  5
610
330
60D
100
AcDbEntity
  8
LAY-20
  6
CONTINUOUS
 62
     4
100
AcDbLine
 10
223.6999999999603
 20
481.1999999999958
 30
0.0
 11
558.5999999999999
 21
481.1999999999958
 31
0.0
  0
LINE
  5
611
330
60D
100
AcDbEntity
  8
LAY-20
  6
CONTINUOUS
 62
     4
100
AcDbLine
 10
554.0999999999999
 20
490.1999999999958
 30
0.0
 11
554.0999999999999
 21
522.199999999996
 31
0.0
  0
INSERT
  5
612
330
60D
100
AcDbEntity
  8
LAY-20
 62
     4
100
AcDbBlockReference
  2
EX_BNORM
 10
554.0999999999999
 20
481.1999999999958
 30
0.0
 41
9.0
 42
9.0
 43
9.0
 50
270.0
  0
INSERT
  5
613
330
60D
100
AcDbEntity
  8
LAY-20
 62
     4
100
AcDbBlockReference
  2
EX_BNORM
 10
554.0999999999999
 20
531.199999999996
 30
0.0
 41
9.0
 42
9.0
 43
9.0
 50
90.0
  0
MTEXT
  5
614
330
60D
100
AcDbEntity
  8
LAY-20
 62
     7
100
AcDbMText
 10
546.5999999999999
 20
506.1999999999956
 30
0.0
 40
9.3543312
 41
0.0
 71
     5
 72
     1
  1
50
  7
EXCADDIM1
 11
0.0
 21
1.0
 31
0.0
  0
POINT
  5
615
330
60D
100
AcDbEntity
  8
DEFPOINTS
 62
     0
100
AcDbPoint
 10
219.1999999999603
 20
481.1999999999958
 30
0.0
  0
POINT
  5
616
330
60D
100
AcDbEntity
  8
DEFPOINTS
 62
     0
100
AcDbPoint
 10
602.1999999999598
 20
531.199999999996
 30
0.0
  0
POINT
  5
617
330
60D
100
AcDbEntity
  8
DEFPOINTS
 62
     0
100
AcDbPoint
 10
554.0999999999999
 20
531.199999999996
 30
0.0
  0
ENDBLK
  5
60F
330
60D
100
AcDbEntity
  8
0
100
AcDbBlockEnd
  0
BLOCK
  5
61A
330
619
100
AcDbEntity
  8
0
100
AcDbBlockBegin
  2
*D23
 70
     1
 10
0.0
 20
0.0
 30
0.0
  3
*D23
  1

  0
LINE
  5
61C
330
619
100
AcDbEntity
  8
LAY-20
  6
CONTINUOUS
 62
     4
100
AcDbLine
 10
233.69999999996
 20
736.1999999999958
 30
0.0
 11
558.5999999999999
 21
736.1999999999958
 31
0.0
  0
LINE
  5
61D
330
619
100
AcDbEntity
  8
LAY-20
  6
CONTINUOUS
 62
     4
100
AcDbLine
 10
438.6999999999698
 20
531.199999999996
 30
0.0
 11
558.5999999999999
 21
531.199999999996
 31
0.0
  0
LINE
  5
61E
330
619
100
AcDbEntity
  8
LAY-20
  6
CONTINUOUS
 62
     4
100
AcDbLine
 10
554.0999999999999
 20
727.1999999999958
 30
0.0
 11
554.0999999999999
 21
540.199999999996
 31
0.0
  0
INSERT
  5
61F
330
619
100
AcDbEntity
  8
LAY-20
 62
     4
100
AcDbBlockReference
  2
EX_BNORM
 10
554.0999999999999
 20
736.1999999999958
 30
0.0
 41
9.0
 42
9.0
 43
9.0
 50
90.0
  0
INSERT
  5
620
330
619
100
AcDbEntity
  8
LAY-20
 62
     4
100
AcDbBlockReference
  2
EX_BNORM
 10
554.0999999999999
 20
531.199999999996
 30
0.0
 41
9.0
 42
9.0
 43
9.0
 50
270.0
  0
MTEXT
  5
621
330
619
100
AcDbEntity
  8
LAY-20
 62
     7
100
AcDbMText
 10
546.5999999999999
 20
633.6999999999957
 30
0.0
 40
9.3543312
 41
0.0
 71
     5
 72
     1
  1
205
  7
EXCADDIM1
 11
0.0
 21
1.0
 31
0.0
  0
POINT
  5
622
330
619
100
AcDbEntity
  8
DEFPOINTS
 62
     0
100
AcDbPoint
 10
229.19999999996
 20
736.1999999999958
 30
0.0
  0
POINT
  5
623
330
619
100
AcDbEntity
  8
DEFPOINTS
 62
     0
100
AcDbPoint
 10
434.1999999999698
 20
531.199999999996
 30
0.0
  0
POINT
  5
624
330
619
100
AcDbEntity
  8
DEFPOINTS
 62
     0
100
AcDbPoint
 10
554.0999999999999
 20
531.199999999996
 30
0.0
  0
ENDBLK
  5
61B
330
619
100
AcDbEntity
  8
0
100
AcDbBlockEnd
  0
BLOCK
  5
627
330
626
100
AcDbEntity
  8
0
100
AcDbBlockBegin
  2
*D24
 70
     1
 10
0.0
 20
0.0
 30
0.0
  3
*D24
  1

  0
LINE
  5
629
330
626
100
AcDbEntity
  8
LAY-20
  6
CONTINUOUS
 62
     4
100
AcDbLine
 10
981.6999999998725
 20
706.6999999999732
 30
0.0
 11
981.6999999998725
 21
768.3
 31
0.0
  0
LINE
  5
62A
330
626
100
AcDbEntity
  8
LAY-20
  6
CONTINUOUS
 62
     4
100
AcDbLine
 10
766.6999999998725
 20
706.6999999999732
 30
0.0
 11
766.6999999998725
 21
768.3
 31
0.0
  0
LINE
  5
62B
330
626
100
AcDbEntity
  8
LAY-20
  6
CONTINUOUS
 62
     4
100
AcDbLine
 10
972.6999999998725
 20
763.8000000000001
 30
0.0
 11
775.6999999998725
 21
763.8000000000001
 31
0.0
  0
INSERT
  5
62C
330
626
100
AcDbEntity
  8
LAY-20
 62
     4
100
AcDbBlockReference
  2
EX_BNORM
 10
981.6999999998725
 20
763.8000000000001
 30
0.0
 41
9.0
 42
9.0
 43
9.0
  0
INSERT
  5
62D
330
626
100
AcDbEntity
  8
LAY-20
 62
     4
100
AcDbBlockReference
  2
EX_BNORM
 10
766.6999999998725
 20
763.8000000000001
 30
0.0
 41
9.0
 42
9.0
 43
9.0
 50
180.0
  0
MTEXT
  5
62E
330
626
100
AcDbEntity
  8
LAY-20
 62
     7
100
AcDbMText
 10
874.1999999998724
 20
771.2999999999997
 30
0.0
 40
9.3543312
 41
0.0
 71
     5
 72
     1
  1
215
  7
EXCADDIM1
  0
POINT
  5
62F
330
626
100
AcDbEntity
  8
DEFPOINTS
 62
     0
100
AcDbPoint
 10
981.6999999998725
 20
702.1999999999732
 30
0.0
  0
POINT
  5
630
330
626
100
AcDbEntity
  8
DEFPOINTS
 62
     0
100
AcDbPoint
 10
766.6999999998725
 20
702.1999999999732
 30
0.0
  0
POINT
  5
631
330
626
100
AcDbEntity
  8
DEFPOINTS
 62
     0
100
AcDbPoint
 10
766.6999999998725
 20
763.8000000000001
 30
0.0
  0
ENDBLK
  5
628
330
626
100
AcDbEntity
  8
0
100
AcDbBlockEnd
  0
BLOCK
  5
634
330
633
100
AcDbEntity
  8
0
100
AcDbBlockBegin
  2
*D25
 70
     1
 10
0.0
 20
0.0
 30
0.0
  3
*D25
  1

  0
LINE
  5
636
330
633
100
AcDbEntity
  8
LAY-20
  6
CONTINUOUS
 62
     4
100
AcDbLine
 10
709.199999999958
 20
725.6999999999958
 30
0.0
 11
709.199999999958
 21
799.8
 31
0.0
  0
LINE
  5
637
330
633
100
AcDbEntity
  8
LAY-20
  6
CONTINUOUS
 62
     4
100
AcDbLine
 10
1039.199999999968
 20
725.6999999999958
 30
0.0
 11
1039.199999999968
 21
799.8
 31
0.0
  0
LINE
  5
638
330
633
100
AcDbEntity
  8
LAY-20
  6
CONTINUOUS
 62
     4
100
AcDbLine
 10
718.199999999958
 20
795.3
 30
0.0
 11
1030.199999999968
 21
795.3
 31
0.0
  0
INSERT
  5
639
330
633
100
AcDbEntity
  8
LAY-20
 62
     4
100
AcDbBlockReference
  2
EX_BNORM
 10
709.199999999958
 20
795.3
 30
0.0
 41
9.0
 42
9.0
 43
9.0
 50
180.0
  0
INSERT
  5
63A
330
633
100
AcDbEntity
  8
LAY-20
 62
     4
100
AcDbBlockReference
  2
EX_BNORM
 10
1039.199999999968
 20
795.3
 30
0.0
 41
9.0
 42
9.0
 43
9.0
  0
MTEXT
  5
63B
330
633
100
AcDbEntity
  8
LAY-20
 62
     7
100
AcDbMText
 10
874.199999999963
 20
802.8
 30
0.0
 40
9.3543312
 41
0.0
 71
     5
 72
     1
  1
330
  7
EXCADDIM1
  0
POINT
  5
63C
330
633
100
AcDbEntity
  8
DEFPOINTS
 62
     0
100
AcDbPoint
 10
709.199999999958
 20
721.1999999999958
 30
0.0
  0
POINT
  5
63D
330
633
100
AcDbEntity
  8
DEFPOINTS
 62
     0
100
AcDbPoint
 10
1039.199999999968
 20
721.1999999999958
 30
0.0
  0
POINT
  5
63E
330
633
100
AcDbEntity
  8
DEFPOINTS
 62
     0
100
AcDbPoint
 10
1039.199999999968
 20
795.3
 30
0.0
  0
ENDBLK
  5
635
330
633
100
AcDbEntity
  8
0
100
AcDbBlockEnd
  0
BLOCK
  5
641
330
640
100
AcDbEntity
  8
0
100
AcDbBlockBegin
  2
*D26
 70
     1
 10
0.0
 20
0.0
 30
0.0
  3
*D26
  1

  0
LINE
  5
643
330
640
100
AcDbEntity
  8
LAY-20
  6
CONTINUOUS
 62
     4
100
AcDbLine
 10
541.6999999999998
 20
531.2
 30
0.0
 11
514.7999999999997
 21
531.2
 31
0.0
  0
LINE
  5
644
330
640
100
AcDbEntity
  8
LAY-20
  6
CONTINUOUS
 62
     4
100
AcDbLine
 10
436.6999999999998
 20
523.20000000001
 30
0.0
 11
523.7999999999997
 21
523.20000000001
 31
0.0
  0
LINE
  5
645
330
640
100
AcDbEntity
  8
LAY-20
  6
CONTINUOUS
 62
     4
100
AcDbLine
 10
519.2999999999997
 20
531.2
 30
0.0
 11
519.2999999999997
 21
523.20000000001
 31
0.0
  0
LINE
  5
646
330
640
100
AcDbEntity
  8
LAY-20
  6
CONTINUOUS
 62
     4
100
AcDbLine
 10
519.2999999999997
 20
540.2
 30
0.0
 11
519.2999999999997
 21
549.2
 31
0.0
  0
LINE
  5
647
330
640
100
AcDbEntity
  8
LAY-20
  6
CONTINUOUS
 62
     4
100
AcDbLine
 10
519.2999999999997
 20
514.20000000001
 30
0.0
 11
519.2999999999997
 21
505.20000000001
 31
0.0
  0
INSERT
  5
648
330
640
100
AcDbEntity
  8
LAY-20
 62
     4
100
AcDbBlockReference
  2
EX_BNORM
 10
519.2999999999997
 20
531.2
 30
0.0
 41
9.0
 42
9.0
 43
9.0
 50
270.0
  0
INSERT
  5
649
330
640
100
AcDbEntity
  8
LAY-20
 62
     4
100
AcDbBlockReference
  2
EX_BNORM
 10
519.2999999999997
 20
523.20000000001
 30
0.0
 41
9.0
 42
9.0
 43
9.0
 50
90.0
  0
MTEXT
  5
64A
330
640
100
AcDbEntity
  8
LAY-20
 62
     7
100
AcDbMText
 10
511.7999999999998
 20
508.2000000000099
 30
0.0
 40
9.3543312
 41
0.0
 71
     5
 72
     1
  1
8
  7
EXCADDIM1
 11
0.0
 21
1.0
 31
0.0
  0
POINT
  5
64B
330
640
100
AcDbEntity
  8
DEFPOINTS
 62
     0
100
AcDbPoint
 10
546.1999999999998
 20
531.2
 30
0.0
  0
POINT
  5
64C
330
640
100
AcDbEntity
  8
DEFPOINTS
 62
     0
100
AcDbPoint
 10
432.1999999999998
 20
523.20000000001
 30
0.0
  0
POINT
  5
64D
330
640
100
AcDbEntity
  8
DEFPOINTS
 62
     0
100
AcDbPoint
 10
519.2999999999997
 20
523.20000000001
 30
0.0
  0
ENDBLK
  5
642
330
640
100
AcDbEntity
  8
0
100
AcDbBlockEnd
  0
BLOCK
  5
650
330
64F
100
AcDbEntity
  8
0
100
AcDbBlockBegin
  2
*D27
 70
     1
 10
0.0
 20
0.0
 30
0.0
  3
*D27
  1

  0
LINE
  5
652
330
64F
100
AcDbEntity
  8
LAY-20
  6
CONTINUOUS
 62
     4
100
AcDbLine
 10
221.2
 20
738.69999999997
 30
0.0
 11
221.2
 21
768.3
 31
0.0
  0
LINE
  5
653
330
64F
100
AcDbEntity
  8
LAY-20
  6
CONTINUOUS
 62
     4
100
AcDbLine
 10
229.2
 20
787.7
 30
0.0
 11
229.2
 21
759.3
 31
0.0
  0
LINE
  5
654
330
64F
100
AcDbEntity
  8
LAY-20
  6
CONTINUOUS
 62
     4
100
AcDbLine
 10
221.2
 20
763.8
 30
0.0
 11
229.2
 21
763.8
 31
0.0
  0
LINE
  5
655
330
64F
100
AcDbEntity
  8
LAY-20
  6
CONTINUOUS
 62
     4
100
AcDbLine
 10
212.2
 20
763.8
 30
0.0
 11
203.2
 21
763.8
 31
0.0
  0
LINE
  5
656
330
64F
100
AcDbEntity
  8
LAY-20
  6
CONTINUOUS
 62
     4
100
AcDbLine
 10
238.2
 20
763.8
 30
0.0
 11
247.2
 21
763.8
 31
0.0
  0
INSERT
  5
657
330
64F
100
AcDbEntity
  8
LAY-20
 62
     4
100
AcDbBlockReference
  2
EX_BNORM
 10
221.2
 20
763.8
 30
0.0
 41
9.0
 42
9.0
 43
9.0
  0
INSERT
  5
658
330
64F
100
AcDbEntity
  8
LAY-20
 62
     4
100
AcDbBlockReference
  2
EX_BNORM
 10
229.2
 20
763.8
 30
0.0
 41
9.0
 42
9.0
 43
9.0
 50
180.0
  0
MTEXT
  5
659
330
64F
100
AcDbEntity
  8
LAY-20
 62
     7
100
AcDbMText
 10
206.2000000000001
 20
771.3
 30
0.0
 40
9.3543312
 41
0.0
 71
     5
 72
     1
  1
8
  7
EXCADDIM1
  0
POINT
  5
65A
330
64F
100
AcDbEntity
  8
DEFPOINTS
 62
     0
100
AcDbPoint
 10
221.2
 20
734.19999999997
 30
0.0
  0
POINT
  5
65B
330
64F
100
AcDbEntity
  8
DEFPOINTS
 62
     0
100
AcDbPoint
 10
229.2
 20
792.2
 30
0.0
  0
POINT
  5
65C
330
64F
100
AcDbEntity
  8
DEFPOINTS
 62
     0
100
AcDbPoint
 10
229.2
 20
763.8
 30
0.0
  0
ENDBLK
  5
651
330
64F
100
AcDbEntity
  8
0
100
AcDbBlockEnd
  0
BLOCK
  5
65F
330
65E
100
AcDbEntity
  8
0
100
AcDbBlockBegin
  2
*D28
 70
     1
 10
0.0
 20
0.0
 30
0.0
  3
*D28
  1

  0
LINE
  5
661
330
65E
100
AcDbEntity
  8
LAY-20
  6
CONTINUOUS
 62
     4
100
AcDbLine
 10
149.6999999999598
 20
590.2000000000136
 30
0.0
 11
109.3432251822429
 21
590.2000000000135
 31
0.0
  0
LINE
  5
662
330
65E
100
AcDbEntity
  8
LAY-20
  6
CONTINUOUS
 62
     4
100
AcDbLine
 10
149.7019693681492
 20
588.7846733533628
 30
0.0
 11
109.3659987019955
 21
587.963231744397
 31
0.0
  0
ARC
  5
663
330
65E
100
AcDbEntity
  8
LAY-20
  6
CONTINUOUS
 62
     4
100
AcDbCircle
 10
219.2000000001963
 20
590.2000000000137
 30
0.0
 40
105.3567748179534
100
AcDbArc
 50
170.208148763412
 51
175.1040743817059
  0
ARC
  5
664
330
65E
100
AcDbEntity
  8
LAY-20
  6
CONTINUOUS
 62
     4
100
AcDbCircle
 10
219.2000000001963
 20
590.2000000000137
 30
0.0
 40
105.3567748179534
100
AcDbArc
 50
186.0625922849538
 51
190.9585179032477
  0
ARC
  5
665
330
65E
100
AcDbEntity
  8
LAY-20
  6
CONTINUOUS
 62
     4
100
AcDbCircle
 10
219.2000000001963
 20
590.2000000000137
 30
0.0
 40
105.3567748179534
100
AcDbArc
 50
179.9999999999999
 51
181.1666666666599
  0
INSERT
  5
666
330
65E
100
AcDbEntity
  8
LAY-20
 62
     4
100
AcDbBlockReference
  2
EX_BNORM
 10
113.8432251822429
 20
590.2000000000135
 30
0.0
 41
9.0
 42
9.0
 43
9.0
 50
267.5520371908531
  0
INSERT
  5
667
330
65E
100
AcDbEntity
  8
LAY-20
 62
     4
100
AcDbBlockReference
  2
EX_BNORM
 10
113.8650658433797
 20
588.054855198362
 30
0.0
 41
9.0
 42
9.0
 43
9.0
 50
93.61462947580684
  0
MTEXT
  5
668
330
65E
100
AcDbEntity
  8
LAY-20
 62
     7
100
AcDbMText
 10
110.0289428046689
 20
618.8065008891664
 30
0.0
 40
9.3543312
 41
0.0
 71
     5
 72
     1
  1
1.10%%d
  7
EXCADDIM1
 11
0.2534761509470496
 21
0.9673416360836892
 31
0.0
  0
POINT
  5
669
330
65E
100
AcDbEntity
  8
DEFPOINTS
 62
     0
100
AcDbPoint
 10
219.2000000001963
 20
590.2000000000137
 30
0.0
  0
POINT
  5
66A
330
65E
100
AcDbEntity
  8
DEFPOINTS
 62
     0
100
AcDbPoint
 10
154.1999999999598
 20
590.2000000000136
 30
0.0
  0
POINT
  5
66B
330
65E
100
AcDbEntity
  8
DEFPOINTS
 62
     0
100
AcDbPoint
 10
154.2010365095334
 20
588.8762968073278
 30
0.0
  0
POINT
  5
66C
330
65E
100
AcDbEntity
  8
DEFPOINTS
 62
     0
100
AcDbPoint
 10
113.8529323290788
 20
588.7698485612083
 30
0.0
  0
ENDBLK
  5
660
330
65E
100
AcDbEntity
  8
0
100
AcDbBlockEnd
  0
BLOCK
  5
66F
330
66E
100
AcDbEntity
  8
0
100
AcDbBlockBegin
  2
*D29
 70
     1
 10
0.0
 20
0.0
 30
0.0
  3
*D29
  1

  0
LINE
  5
671
330
66E
100
AcDbEntity
  8
LAY-20
  6
CONTINUOUS
 62
     4
100
AcDbLine
 10
165.0317361277106
 20
670.9930690627482
 30
0.0
 11
50.63618275867672
 21
668.6619561474736
 31
0.0
  0
LINE
  5
672
330
66E
100
AcDbEntity
  8
LAY-20
  6
CONTINUOUS
 62
     4
100
AcDbLine
 10
168.3684808809107
 20
507.2477781365382
 30
0.0
 11
53.97292751187653
 21
504.9166652212634
 31
0.0
  0
LINE
  5
673
330
66E
100
AcDbEntity
  8
LAY-20
  6
CONTINUOUS
 62
     4
100
AcDbLine
 10
55.31860955252962
 20
659.7555045914268
 30
0.0
 11
58.28863268040223
 21
514.0064775899738
 31
0.0
  0
INSERT
  5
674
330
66E
100
AcDbEntity
  8
LAY-20
 62
     4
100
AcDbBlockReference
  2
EX_BNORM
 10
55.13524873986602
 20
668.7536365538053
 30
0.0
 41
9.0
 42
9.0
 43
9.0
 50
91.16739195716333
  0
INSERT
  5
675
330
66E
100
AcDbEntity
  8
LAY-20
 62
     4
100
AcDbBlockReference
  2
EX_BNORM
 10
58.47199349306582
 20
505.0083456275952
 30
0.0
 41
9.0
 42
9.0
 43
9.0
 50
271.1673919571633
  0
MTEXT
  5
676
330
66E
100
AcDbEntity
  8
LAY-20
 62
     7
100
AcDbMText
 10
49.30517781444135
 20
586.7281904135209
 30
0.0
 40
9.3543312
 41
0.0
 71
     5
 72
     1
  1
Rｃ6（163.8）
  7
EXCADDIM1
 11
0.02037342362928803
 21
-0.9997924402642889
 31
0.0
  0
POINT
  5
677
330
66E
100
AcDbEntity
  8
DEFPOINTS
 62
     0
100
AcDbPoint
 10
169.5308021088999
 20
671.08474946908
 30
0.0
  0
POINT
  5
678
330
66E
100
AcDbEntity
  8
DEFPOINTS
 62
     0
100
AcDbPoint
 10
172.8675468621
 20
507.33945854287
 30
0.0
  0
POINT
  5
679
330
66E
100
AcDbEntity
  8
DEFPOINTS
 62
     0
100
AcDbPoint
 10
58.47199349306582
 20
505.0083456275952
 30
0.0
  0
ENDBLK
  5
670
330
66E
100
AcDbEntity
  8
0
100
AcDbBlockEnd
  0
ENDSEC
  0
SECTION
  2
ENTITIES
  0
LINE
  5
D4
330
1F
100
AcDbEntity
  8
LAY-10
  6
CONTINUOUS
 62
     7
100
AcDbLine
 10
159.1999999999739
 20
697.6802307403495
 30
0.0
 11
159.7197692596474
 21
698.2000000000228
 31
0.0
  0
LINE
  5
D5
330
1F
100
AcDbEntity
  8
LAY-10
  6
CONTINUOUS
 62
     7
100
AcDbLine
 10
159.1999999999739
 20
694.8518036156033
 30
0.0
 11
162.5481963843936
 21
698.2000000000228
 31
0.0
  0
LINE
  5
D6
330
1F
100
AcDbEntity
  8
LAY-10
  6
CONTINUOUS
 62
     7
100
AcDbLine
 10
159.1999999999739
 20
692.0233764908571
 30
0.0
 11
165.3766235091393
 21
698.2000000000228
 31
0.0
  0
LINE
  5
D7
330
1F
100
AcDbEntity
  8
LAY-10
  6
CONTINUOUS
 62
     7
100
AcDbLine
 10
161.2050506338719
 20
691.2000000000087
 30
0.0
 11
168.2050506338755
 21
698.2000000000126
 31
0.0
  0
LINE
  5
D8
330
1F
100
AcDbEntity
  8
LAY-10
  6
CONTINUOUS
 62
     7
100
AcDbLine
 10
164.0334777586181
 20
691.2000000000087
 30
0.0
 11
171.0334777586218
 21
698.2000000000126
 31
0.0
  0
LINE
  5
D9
330
1F
100
AcDbEntity
  8
LAY-10
  6
CONTINUOUS
 62
     7
100
AcDbLine
 10
166.8619048833643
 20
691.2000000000087
 30
0.0
 11
173.861904883368
 21
698.2000000000126
 31
0.0
  0
LINE
  5
DA
330
1F
100
AcDbEntity
  8
LAY-10
  6
CONTINUOUS
 62
     7
100
AcDbLine
 10
169.6903320081105
 20
691.2000000000087
 30
0.0
 11
176.6903320081142
 21
698.2000000000126
 31
0.0
  0
LINE
  5
DB
330
1F
100
AcDbEntity
  8
LAY-10
  6
CONTINUOUS
 62
     7
100
AcDbLine
 10
172.5187591328563
 20
691.2000000000087
 30
0.0
 11
179.5187591328604
 21
698.2000000000126
 31
0.0
  0
LINE
  5
DC
330
1F
100
AcDbEntity
  8
LAY-10
  6
CONTINUOUS
 62
     7
100
AcDbLine
 10
175.3471862576025
 20
691.2000000000087
 30
0.0
 11
182.3471862576066
 21
698.2000000000126
 31
0.0
  0
LINE
  5
DD
330
1F
100
AcDbEntity
  8
LAY-10
  6
CONTINUOUS
 62
     7
100
AcDbLine
 10
178.1756133823487
 20
691.2000000000089
 30
0.0
 11
185.1756133823528
 21
698.2000000000128
 31
0.0
  0
LINE
  5
DE
330
1F
100
AcDbEntity
  8
LAY-10
  6
CONTINUOUS
 62
     7
100
AcDbLine
 10
181.0040405070949
 20
691.2000000000089
 30
0.0
 11
188.0040405070986
 21
698.2000000000128
 31
0.0
  0
LINE
  5
DF
330
1F
100
AcDbEntity
  8
LAY-10
  6
CONTINUOUS
 62
     7
100
AcDbLine
 10
183.8324676318412
 20
691.2000000000089
 30
0.0
 11
190.8324676318448
 21
698.2000000000128
 31
0.0
  0
LINE
  5
E0
330
1F
100
AcDbEntity
  8
LAY-10
  6
CONTINUOUS
 62
     7
100
AcDbLine
 10
186.6608947565874
 20
691.2000000000089
 30
0.0
 11
193.660894756591
 21
698.2000000000128
 31
0.0
  0
LINE
  5
E1
330
1F
100
AcDbEntity
  8
LAY-10
  6
CONTINUOUS
 62
     7
100
AcDbLine
 10
189.4893218813336
 20
691.2000000000089
 30
0.0
 11
196.4893218813372
 21
698.2000000000128
 31
0.0
  0
LINE
  5
E2
330
1F
100
AcDbEntity
  8
LAY-10
  6
CONTINUOUS
 62
     7
100
AcDbLine
 10
192.3177490060798
 20
691.2000000000089
 30
0.0
 11
199.3177490060834
 21
698.2000000000126
 31
0.0
  0
LINE
  5
E3
330
1F
100
AcDbEntity
  8
LAY-10
  6
CONTINUOUS
 62
     7
100
AcDbLine
 10
195.146176130826
 20
691.2000000000089
 30
0.0
 11
202.1461761308296
 21
698.2000000000126
 31
0.0
  0
LINE
  5
E4
330
1F
100
AcDbEntity
  8
LAY-10
  6
CONTINUOUS
 62
     7
100
AcDbLine
 10
197.9746032555722
 20
691.2000000000089
 30
0.0
 11
204.9746032555759
 21
698.2000000000126
 31
0.0
  0
LINE
  5
E5
330
1F
100
AcDbEntity
  8
LAY-10
  6
CONTINUOUS
 62
     7
100
AcDbLine
 10
200.8030303803184
 20
691.2000000000089
 30
0.0
 11
207.8030303803221
 21
698.2000000000126
 31
0.0
  0
LINE
  5
E6
330
1F
100
AcDbEntity
  8
LAY-10
  6
CONTINUOUS
 62
     7
100
AcDbLine
 10
203.6314575050646
 20
691.2000000000089
 30
0.0
 11
210.6314575050683
 21
698.2000000000126
 31
0.0
  0
LINE
  5
E7
330
1F
100
AcDbEntity
  8
LAY-10
  6
CONTINUOUS
 62
     7
100
AcDbLine
 10
206.4598846298109
 20
691.2000000000087
 30
0.0
 11
213.4598846298145
 21
698.2000000000126
 31
0.0
  0
LINE
  5
E8
330
1F
100
AcDbEntity
  8
LAY-10
  6
CONTINUOUS
 62
     7
100
AcDbLine
 10
209.288311754557
 20
691.2000000000087
 30
0.0
 11
214.1999999999652
 21
696.1116882454171
 31
0.0
  0
LINE
  5
E9
330
1F
100
AcDbEntity
  8
LAY-10
  6
CONTINUOUS
 62
     7
100
AcDbLine
 10
212.1167388793033
 20
691.2000000000087
 30
0.0
 11
214.1999999999753
 21
693.2832611206811
 31
0.0
  0
LINE
  5
EA
330
1F
100
AcDbEntity
  8
LAY-10
  6
CONTINUOUS
 62
     7
100
AcDbLine
 10
159.1999999999739
 20
488.3766235091315
 30
0.0
 11
160.0233764908635
 21
489.2000000000209
 31
0.0
  0
LINE
  5
EB
330
1F
100
AcDbEntity
  8
LAY-10
  6
CONTINUOUS
 62
     7
100
AcDbLine
 10
159.1999999999739
 20
485.5481963843853
 30
0.0
 11
162.8518036156097
 21
489.2000000000209
 31
0.0
  0
LINE
  5
EC
330
1F
100
AcDbEntity
  8
LAY-10
  6
CONTINUOUS
 62
     7
100
AcDbLine
 10
159.1999999999739
 20
482.7197692596391
 30
0.0
 11
165.6802307403559
 21
489.2000000000209
 31
0.0
  0
LINE
  5
ED
330
1F
100
AcDbEntity
  8
LAY-10
  6
CONTINUOUS
 62
     7
100
AcDbLine
 10
161.5086578651085
 20
482.2000000000275
 30
0.0
 11
168.5086578651017
 21
489.2000000000209
 31
0.0
  0
LINE
  5
EE
330
1F
100
AcDbEntity
  8
LAY-10
  6
CONTINUOUS
 62
     7
100
AcDbLine
 10
164.3370849898547
 20
482.2000000000275
 30
0.0
 11
171.3370849898479
 21
489.2000000000209
 31
0.0
  0
LINE
  5
EF
330
1F
100
AcDbEntity
  8
LAY-10
  6
CONTINUOUS
 62
     7
100
AcDbLine
 10
167.1655121146009
 20
482.2000000000275
 30
0.0
 11
174.1655121145941
 21
489.2000000000209
 31
0.0
  0
LINE
  5
F0
330
1F
100
AcDbEntity
  8
LAY-10
  6
CONTINUOUS
 62
     7
100
AcDbLine
 10
169.9939392393471
 20
482.2000000000275
 30
0.0
 11
176.9939392393403
 21
489.2000000000209
 31
0.0
  0
LINE
  5
F1
330
1F
100
AcDbEntity
  8
LAY-10
  6
CONTINUOUS
 62
     7
100
AcDbLine
 10
172.8223663640933
 20
482.2000000000275
 30
0.0
 11
179.8223663640865
 21
489.2000000000209
 31
0.0
  0
LINE
  5
F2
330
1F
100
AcDbEntity
  8
LAY-10
  6
CONTINUOUS
 62
     7
100
AcDbLine
 10
175.6507934888396
 20
482.2000000000275
 30
0.0
 11
182.6507934888327
 21
489.2000000000209
 31
0.0
  0
LINE
  5
F3
330
1F
100
AcDbEntity
  8
LAY-10
  6
CONTINUOUS
 62
     7
100
AcDbLine
 10
178.4792206135858
 20
482.2000000000275
 30
0.0
 11
185.4792206135789
 21
489.2000000000209
 31
0.0
  0
LINE
  5
F4
330
1F
100
AcDbEntity
  8
LAY-10
  6
CONTINUOUS
 62
     7
100
AcDbLine
 10
181.307647738332
 20
482.2000000000275
 30
0.0
 11
188.3076477383252
 21
489.2000000000209
 31
0.0
  0
LINE
  5
F5
330
1F
100
AcDbEntity
  8
LAY-10
  6
CONTINUOUS
 62
     7
100
AcDbLine
 10
184.1360748630782
 20
482.2000000000275
 30
0.0
 11
191.1360748630714
 21
489.2000000000209
 31
0.0
  0
LINE
  5
F6
330
1F
100
AcDbEntity
  8
LAY-10
  6
CONTINUOUS
 62
     7
100
AcDbLine
 10
186.9645019878244
 20
482.2000000000275
 30
0.0
 11
193.9645019878176
 21
489.2000000000209
 31
0.0
  0
LINE
  5
F7
330
1F
100
AcDbEntity
  8
LAY-10
  6
CONTINUOUS
 62
     7
100
AcDbLine
 10
189.7929291125706
 20
482.2000000000275
 30
0.0
 11
196.7929291125638
 21
489.2000000000209
 31
0.0
  0
LINE
  5
F8
330
1F
100
AcDbEntity
  8
LAY-10
  6
CONTINUOUS
 62
     7
100
AcDbLine
 10
192.6213562373168
 20
482.2000000000273
 30
0.0
 11
199.62135623731
 21
489.2000000000209
 31
0.0
  0
LINE
  5
F9
330
1F
100
AcDbEntity
  8
LAY-10
  6
CONTINUOUS
 62
     7
100
AcDbLine
 10
195.4497833620626
 20
482.2000000000273
 30
0.0
 11
202.4497833620562
 21
489.2000000000209
 31
0.0
  0
LINE
  5
FA
330
1F
100
AcDbEntity
  8
LAY-10
  6
CONTINUOUS
 62
     7
100
AcDbLine
 10
198.2782104868088
 20
482.2000000000273
 30
0.0
 11
205.2782104868024
 21
489.2000000000209
 31
0.0
  0
LINE
  5
FB
330
1F
100
AcDbEntity
  8
LAY-10
  6
CONTINUOUS
 62
     7
100
AcDbLine
 10
201.106637611555
 20
482.2000000000275
 30
0.0
 11
208.1066376115486
 21
489.2000000000211
 31
0.0
  0
LINE
  5
FC
330
1F
100
AcDbEntity
  8
LAY-10
  6
CONTINUOUS
 62
     7
100
AcDbLine
 10
203.9350647363012
 20
482.2000000000275
 30
0.0
 11
210.9350647362948
 21
489.2000000000211
 31
0.0
  0
LINE
  5
FD
330
1F
100
AcDbEntity
  8
LAY-10
  6
CONTINUOUS
 62
     7
100
AcDbLine
 10
206.7634918610474
 20
482.2000000000275
 30
0.0
 11
213.7634918610411
 21
489.2000000000209
 31
0.0
  0
LINE
  5
FE
330
1F
100
AcDbEntity
  8
LAY-10
  6
CONTINUOUS
 62
     7
100
AcDbLine
 10
209.5919189857937
 20
482.2000000000275
 30
0.0
 11
214.1999999999753
 21
486.8080810142093
 31
0.0
  0
LINE
  5
FF
330
1F
100
AcDbEntity
  8
LAY-10
  6
CONTINUOUS
 62
     7
100
AcDbLine
 10
212.4203461105398
 20
482.2000000000275
 30
0.0
 11
214.1999999999753
 21
483.9796538894631
 31
0.0
  0
LINE
  5
100
330
1F
100
AcDbEntity
  8
LAY-10
  6
CONTINUOUS
 62
     7
100
AcDbLine
 10
222.361165235131
 20
542.038834764877
 30
0.0
 11
240.0388347648227
 21
524.3611652351888
 31
0.0
  0
ARC
  5
101
330
1F
100
AcDbEntity
  8
LAY-10
  6
CONTINUOUS
 62
     7
100
AcDbCircle
 10
242.2233036591406
 20
524.5368238511967
 30
0.0
 40
2.0
100
AcDbArc
 50
208.7290429517727
 51
270.0
  0
LINE
  5
102
330
1F
100
AcDbEntity
  8
LAY-10
  6
CONTINUOUS
 62
     7
100
AcDbLine
 10
240.469498402992
 20
523.5754877374959
 30
0.0
 11
240.0388347648222
 21
524.3611652351885
 31
0.0
  0
ARC
  5
103
330
1F
100
AcDbEntity
  8
LAY-10
  6
CONTINUOUS
 62
     7
100
AcDbCircle
 10
221.1999999999725
 20
544.5038414819685
 30
0.0
 40
2.0
100
AcDbArc
 50
180.0
 51
252.4458032364576
  0
LINE
  5
104
330
1F
100
AcDbEntity
  8
LAY-10
  6
CONTINUOUS
 62
     7
100
AcDbLine
 10
220.596784405734
 20
542.5969773161539
 30
0.0
 11
222.3611652351228
 21
542.0388347648686
 31
0.0
  0
LINE
  5
105
330
1F
100
AcDbEntity
  8
LAY-10
  6
CONTINUOUS
 62
     7
100
AcDbLine
 10
432.1999999999725
 20
523.2000000000139
 30
0.0
 11
412.949999999973
 21
523.2000000000139
 31
0.0
  0
LINE
  5
106
330
1F
100
AcDbEntity
  8
LAY-10
  6
CONTINUOUS
 62
     7
100
AcDbLine
 10
390.4499999999725
 20
523.2000000000139
 30
0.0
 11
370.3435935394209
 21
523.2000000000139
 31
0.0
  0
ARC
  5
107
330
1F
100
AcDbEntity
  8
LAY-10
  6
CONTINUOUS
 62
     7
100
AcDbCircle
 10
417.4015621186895
 20
524.2000000000139
 30
0.0
 40
2.0
100
AcDbArc
 50
90.00000000000001
 51
128.6598082540921
  0
LINE
  5
108
330
1F
100
AcDbEntity
  8
LAY-10
  6
CONTINUOUS
 62
     7
100
AcDbLine
 10
406.6999999999725
 20
518.2000000000137
 30
0.0
 11
416.1521720235805
 21
525.7617376189
 31
0.0
  0
ARC
  5
109
330
1F
100
AcDbEntity
  8
LAY-10
  6
CONTINUOUS
 62
     7
100
AcDbCircle
 10
388.1384471871634
 20
524.2000000000139
 30
0.0
 40
2.0
100
AcDbArc
 50
14.03624346792807
 51
90.00000000000001
  0
LINE
  5
10A
330
1F
100
AcDbEntity
  8
LAY-10
  6
CONTINUOUS
 62
     7
100
AcDbLine
 10
391.6999999999725
 20
518.2000000000137
 30
0.0
 11
390.0787321874541
 21
524.6850712500866
 31
0.0
  0
LINE
  5
10B
330
1F
100
AcDbEntity
  8
LAY-10
  6
CONTINUOUS
 62
     7
100
AcDbLine
 10
391.6999999999734
 20
518.2000000000121
 30
0.0
 11
406.6999999999698
 21
518.2000000000121
 31
0.0
  0
LINE
  5
10C
330
1F
100
AcDbEntity
  8
LAY-10
  6
CONTINUOUS
 62
     7
100
AcDbLine
 10
423.5944487245087
 20
526.2000000000139
 30
0.0
 11
384.1999999999734
 21
526.2000000000139
 31
0.0
  0
LINE
  5
10D
330
1F
100
AcDbEntity
  8
LAY-10
  6
CONTINUOUS
 62
     7
100
AcDbLine
 10
204.1999999999607
 20
490.2000000000168
 30
0.0
 11
204.1999999999607
 21
496.7416137305137
 31
0.0
  0
LINE
  5
10E
330
1F
100
AcDbEntity
  8
LAY-10
  6
CONTINUOUS
 62
     7
100
AcDbLine
 10
224.1999999999725
 20
725.5944487245106
 30
0.0
 11
224.1999999999725
 21
704.1999999999739
 31
0.0
  0
LINE
  5
10F
330
1F
100
AcDbEntity
  8
LAY-10
  6
CONTINUOUS
 62
     7
100
AcDbLine
 10
224.1999999999734
 20
704.1999999999739
 30
0.0
 11
214.1999999999734
 21
699.1999999999739
 31
0.0
  0
LINE
  5
110
330
1F
100
AcDbEntity
  8
LAY-10
  6
CONTINUOUS
 62
     7
100
AcDbLine
 10
219.1999999999734
 20
665.1999999998739
 30
0.0
 11
229.1999999999734
 21
676.1999999999739
 31
0.0
  0
LINE
  5
111
330
1F
100
AcDbEntity
  8
LAY-10
  6
CONTINUOUS
 62
     7
100
AcDbLine
 10
219.1999999999725
 20
665.1999999998657
 30
0.0
 11
219.1999999999725
 21
532.5368238511937
 31
0.0
  0
LINE
  5
112
330
1F
100
AcDbEntity
  8
LAY-10
  6
CONTINUOUS
 62
     7
100
AcDbLine
 10
208.6495447529051
 20
665.7529259297894
 30
0.0
 11
219.1999999999725
 21
665.1999999998657
 31
0.0
  0
LINE
  5
113
330
1F
100
AcDbEntity
  8
LAY-10
  6
CONTINUOUS
 62
     7
100
AcDbLine
 10
250.1999999999734
 20
511.8177794279451
 30
0.0
 11
360.6553672339296
 21
517.6064999345676
 31
0.0
  0
LINE
  5
114
330
1F
100
AcDbEntity
  8
LAY-10
  6
CONTINUOUS
 62
     7
100
AcDbLine
 10
211.7235329834566
 20
514.8081749669434
 30
0.0
 11
359.194938755285
 21
522.5368238511905
 31
0.0
  0
LINE
  5
115
330
1F
100
AcDbEntity
  8
LAY-10
  6
CONTINUOUS
 62
     7
100
AcDbLine
 10
219.1999999999734
 20
481.2000000000136
 30
0.0
 11
250.1999999999734
 21
511.8177794279438
 31
0.0
  0
LINE
  5
116
330
1F
100
AcDbEntity
  8
LAY-10
  6
CONTINUOUS
 62
     7
100
AcDbLine
 10
370.3435935394209
 20
523.2000000000139
 30
0.0
 11
360.6553672339296
 21
517.6064999345676
 31
0.0
  0
ARC
  5
117
330
1F
100
AcDbEntity
  8
LAY-10
  6
CONTINUOUS
 62
     7
100
AcDbCircle
 10
229.1999999999725
 20
532.536823851194
 30
0.0
 40
10.0
100
AcDbArc
 50
180.0
 51
270.0
  0
LINE
  5
118
330
1F
100
AcDbEntity
  8
LAY-10
  6
CONTINUOUS
 62
     7
100
AcDbLine
 10
359.1949387552731
 20
522.536823851194
 30
0.0
 11
229.1999999999725
 21
522.536823851194
 31
0.0
  0
LINE
  5
119
330
1F
100
AcDbEntity
  8
LAY-10
  6
CONTINUOUS
 62
     7
100
AcDbLine
 10
359.194938755285
 20
522.5368238511905
 30
0.0
 11
374.1999999999707
 21
531.2000000000171
 31
0.0
  0
LINE
  5
11A
330
1F
100
AcDbEntity
  8
LAY-10
  6
CONTINUOUS
 62
     7
100
AcDbLine
 10
221.1999999999744
 20
734.1999999999739
 30
0.0
 11
221.1999999999744
 21
714.4142857143024
 31
0.0
  0
LINE
  5
11B
330
1F
100
AcDbEntity
  8
LAY-10
  6
CONTINUOUS
 62
     7
100
AcDbLine
 10
217.1999999999771
 20
700.6999999999762
 30
0.0
 11
217.1999999999771
 21
708.7000000000212
 31
0.0
  0
LINE
  5
11C
330
1F
100
AcDbEntity
  8
LAY-10
  6
CONTINUOUS
 62
     7
100
AcDbLine
 10
217.1999999999725
 20
708.7000000000139
 30
0.0
 11
223.8384638410207
 21
718.1835197729406
 31
0.0
  0
ARC
  5
11D
330
1F
100
AcDbEntity
  8
LAY-10
  6
CONTINUOUS
 62
     7
100
AcDbCircle
 10
222.1999999999725
 20
719.3304444616842
 30
0.0
 40
2.0
100
AcDbArc
 50
325.0079798014419
 51
0.0
  0
ARC
  5
11E
330
1F
100
AcDbEntity
  8
LAY-10
  6
CONTINUOUS
 62
     7
100
AcDbCircle
 10
221.1999999999725
 20
725.5944487245106
 30
0.0
 40
3.0
100
AcDbArc
 50
0.0
 51
56.30993247402142
  0
LINE
  5
11F
330
1F
100
AcDbEntity
  8
LAY-10
  6
CONTINUOUS
 62
     7
100
AcDbLine
 10
221.1999999999734
 20
729.1999999999739
 30
0.0
 11
222.8641005886484
 21
728.0905996075239
 31
0.0
  0
LINE
  5
120
330
1F
100
AcDbEntity
  8
LAY-10
  6
CONTINUOUS
 62
     7
100
AcDbLine
 10
221.1999999999734
 20
734.1999999999739
 30
0.0
 11
229.1999999999734
 21
736.1999999999739
 31
0.0
  0
LINE
  5
121
330
1F
100
AcDbEntity
  8
LAY-10
  6
CONTINUOUS
 62
     7
100
AcDbLine
 10
384.1999999999734
 20
526.2000000000137
 30
0.0
 11
381.1999999999734
 21
523.2000000000137
 31
0.0
  0
ARC
  5
122
330
1F
100
AcDbEntity
  8
LAY-10
  6
CONTINUOUS
 62
     7
100
AcDbCircle
 10
378.7857864375501
 20
529.200000000111
 30
0.0
 40
1.0
100
AcDbArc
 50
270.0
 51
315.0000000000093
  0
LINE
  5
123
330
1F
100
AcDbEntity
  8
LAY-10
  6
CONTINUOUS
 62
     7
100
AcDbLine
 10
377.9207592199782
 20
528.200000000111
 30
0.0
 11
378.7857864375501
 21
528.200000000111
 31
0.0
  0
LINE
  5
124
330
1F
100
AcDbEntity
  8
LAY-10
  6
CONTINUOUS
 62
     7
100
AcDbLine
 10
381.9071067811119
 20
530.9071067813004
 30
0.0
 11
379.4928932187368
 21
528.4928932189248
 31
0.0
  0
ARC
  5
125
330
1F
100
AcDbEntity
  8
LAY-10
  6
CONTINUOUS
 62
     7
100
AcDbCircle
 10
377.9207592199782
 20
529.200000000111
 30
0.0
 40
1.0
100
AcDbArc
 50
198.4349488229138
 51
270.0
  0
LINE
  5
126
330
1F
100
AcDbEntity
  8
LAY-10
  6
CONTINUOUS
 62
     7
100
AcDbLine
 10
376.9720759219281
 20
528.8837722340943
 30
0.0
 11
376.427924077916
 21
530.5162277661304
 31
0.0
  0
ARC
  5
127
330
1F
100
AcDbEntity
  8
LAY-10
  6
CONTINUOUS
 62
     7
100
AcDbCircle
 10
382.6142135622986
 20
530.2000000001137
 30
0.0
 40
1.0
100
AcDbArc
 50
90.00000000000001
 51
135.0000000000092
  0
ARC
  5
128
330
1F
100
AcDbEntity
  8
LAY-10
  6
CONTINUOUS
 62
     7
100
AcDbCircle
 10
375.4792407798659
 20
530.2000000001137
 30
0.0
 40
1.0
100
AcDbArc
 50
18.43494882291375
 51
90.00000000000001
  0
LINE
  5
129
330
1F
100
AcDbEntity
  8
LAY-10
  6
CONTINUOUS
 62
     7
100
AcDbLine
 10
173.0812981938734
 20
496.7416137305137
 30
0.0
 11
204.1999999999762
 21
496.7416137305137
 31
0.0
  0
LINE
  5
12A
330
1F
100
AcDbEntity
  8
LAY-10
  6
CONTINUOUS
 62
     7
100
AcDbLine
 10
204.199999999968
 20
682.4137045642963
 30
0.0
 11
204.199999999968
 21
690.2000000000135
 31
0.0
  0
LINE
  5
12B
330
1F
100
AcDbEntity
  8
LAY-10
  6
CONTINUOUS
 62
     7
100
AcDbLine
 10
204.1979271957725
 20
682.4136623516611
 30
0.0
 11
169.3145561976035
 21
681.7032628763131
 31
0.0
  0
LINE
  5
12C
330
1F
100
AcDbEntity
  8
LAY-10
  6
CONTINUOUS
 62
     7
100
AcDbLine
 10
169.3145561975289
 20
681.7032628763129
 30
0.0
 11
173.0812981938661
 21
496.7416137305137
 31
0.0
  0
LINE
  5
12D
330
1F
100
AcDbEntity
  8
LAY-10
  6
CONTINUOUS
 62
     7
100
AcDbLine
 10
170.5539188797829
 20
670.0616326982138
 30
0.0
 11
169.5212511132731
 21
671.0943004647138
 31
0.0
  0
LINE
  5
12E
330
1F
100
AcDbEntity
  8
LAY-10
  6
CONTINUOUS
 62
     7
100
AcDbLine
 10
170.5539188797802
 20
670.0616326982104
 30
0.0
 11
173.8456665163367
 21
508.4240498690057
 31
0.0
  0
ARC
  5
12F
330
1F
100
AcDbEntity
  8
LAY-10
  6
CONTINUOUS
 62
     7
100
AcDbCircle
 10
208.8315789186426
 20
509.4721559519058
 30
0.0
 40
3.0
100
AcDbArc
 50
271.1666666666592
 51
1.166666666659132
  0
LINE
  5
130
330
1F
100
AcDbEntity
  8
LAY-10
  6
CONTINUOUS
 62
     7
100
AcDbLine
 10
203.8936977308585
 20
506.3709740199112
 30
0.0
 11
208.8926612212863
 21
506.47277785765
 31
0.0
  0
ARC
  5
131
330
1F
100
AcDbEntity
  8
LAY-10
  6
CONTINUOUS
 62
     7
100
AcDbCircle
 10
203.7715331255722
 20
512.3697302084236
 30
0.0
 40
6.0
100
AcDbArc
 50
181.1666666666592
 51
271.1666666666596
  0
LINE
  5
132
330
1F
100
AcDbEntity
  8
LAY-10
  6
CONTINUOUS
 62
     7
100
AcDbLine
 10
173.845666516333
 20
508.4240498690057
 30
0.0
 11
198.0917645521868
 21
510.4357630544134
 31
0.0
  0
LINE
  5
133
330
1F
100
AcDbEntity
  8
LAY-10
  6
CONTINUOUS
 62
     7
100
AcDbLine
 10
172.8675468621332
 20
507.3394585428638
 30
0.0
 11
173.845666516333
 21
508.4240498690035
 31
0.0
  0
LINE
  5
134
330
1F
100
AcDbEntity
  8
LAY-10
  6
CONTINUOUS
 62
     7
100
AcDbLine
 10
170.5539188797802
 20
670.0616326982104
 30
0.0
 11
194.861817016259
 21
669.0387211228499
 31
0.0
  0
LINE
  5
135
330
1F
100
AcDbEntity
  8
LAY-10
  6
CONTINUOUS
 62
     7
100
AcDbLine
 10
194.6168579671557
 20
667.2154338063724
 30
0.0
 11
197.7727769370604
 21
512.2475656031368
 31
0.0
  0
ARC
  5
136
330
1F
100
AcDbEntity
  8
LAY-10
  6
CONTINUOUS
 62
     7
100
AcDbCircle
 10
200.6156141556676
 20
667.3375984116592
 30
0.0
 40
6.0
100
AcDbArc
 50
91.16666666665967
 51
181.1666666666602
  0
LINE
  5
137
330
1F
100
AcDbEntity
  8
LAY-10
  6
CONTINUOUS
 62
     7
100
AcDbLine
 10
200.4934495503812
 20
673.3363546001715
 30
0.0
 11
205.492413040808
 21
673.4381584379103
 31
0.0
  0
LINE
  5
138
330
1F
100
AcDbEntity
  8
LAY-10
  6
CONTINUOUS
 62
     7
100
AcDbLine
 10
208.5528734377076
 20
670.4998626462975
 30
0.0
 11
211.8309570128986
 21
509.5332382545495
 31
0.0
  0
ARC
  5
139
330
1F
100
AcDbEntity
  8
LAY-10
  6
CONTINUOUS
 62
     7
100
AcDbCircle
 10
205.5534953434517
 20
670.4387803436543
 30
0.0
 40
3.0
100
AcDbArc
 50
1.166666666659132
 51
91.16666666665917
  0
LINE
  5
13A
330
1F
100
AcDbEntity
  8
LAY-10
  6
CONTINUOUS
 62
     7
100
AcDbLine
 10
214.1999999999734
 20
690.4036498925093
 30
0.0
 11
214.1999999999734
 21
699.2000000000135
 31
0.0
  0
LINE
  5
13B
330
1F
100
AcDbEntity
  8
LAY-10
  6
CONTINUOUS
 62
     7
100
AcDbLine
 10
214.1999999999725
 20
690.4036498925093
 30
0.0
 11
204.1999999999725
 21
690.2000000000189
 31
0.0
  0
LINE
  5
13C
330
1F
100
AcDbEntity
  8
LAY-10
  6
CONTINUOUS
 62
     7
100
AcDbLine
 10
214.1999999999716
 20
490.2000000000168
 30
0.0
 11
214.1999999999716
 21
481.2000000000122
 31
0.0
  0
LINE
  5
13D
330
1F
100
AcDbEntity
  8
LAY-10
  6
CONTINUOUS
 62
     7
100
AcDbLine
 10
214.1999999999716
 20
490.2000000000168
 30
0.0
 11
204.1999999999607
 21
490.2000000000168
 31
0.0
  0
LINE
  5
13E
330
1F
100
AcDbEntity
  8
LAY-10
  6
CONTINUOUS
 62
     7
100
AcDbLine
 10
214.1999999999716
 20
481.2000000000122
 30
0.0
 11
219.1999999999716
 21
481.2000000000122
 31
0.0
  0
ARC
  5
13F
330
1F
100
AcDbEntity
  8
LAY-10
  6
CONTINUOUS
 62
     7
100
AcDbCircle
 10
423.5944487245087
 20
523.2000000000139
 30
0.0
 40
3.0
100
AcDbArc
 50
33.69006752598222
 51
90.00000000000001
  0
LINE
  5
140
330
1F
100
AcDbEntity
  8
LAY-10
  6
CONTINUOUS
 62
     7
100
AcDbLine
 10
426.0905996075225
 20
524.8641005886898
 30
0.0
 11
427.199999999973
 21
523.2000000000137
 31
0.0
  0
LINE
  5
141
330
1F
100
AcDbEntity
  8
LAY-10
  6
CONTINUOUS
 62
     7
100
AcDbLine
 10
432.1999999999725
 20
523.2000000000137
 30
0.0
 11
434.1999999999725
 21
531.2000000000137
 31
0.0
  0
ARC
  5
142
330
1F
100
AcDbEntity
  8
LAY-10
  6
CONTINUOUS
 62
     7
100
AcDbCircle
 10
227.1999999999516
 20
679.9207592200692
 30
0.0
 40
1.0
100
AcDbArc
 50
180.0
 51
251.5650511768926
  0
LINE
  5
143
330
1F
100
AcDbEntity
  8
LAY-10
  6
CONTINUOUS
 62
     7
100
AcDbLine
 10
226.1999999999516
 20
680.7857864377138
 30
0.0
 11
226.1999999999516
 21
679.9207592200692
 31
0.0
  0
LINE
  5
144
330
1F
100
AcDbEntity
  8
LAY-10
  6
CONTINUOUS
 62
     7
100
AcDbLine
 10
228.5162277660029
 20
678.4279240779906
 30
0.0
 11
226.8837722339321
 21
678.9720759220199
 31
0.0
  0
ARC
  5
145
330
1F
100
AcDbEntity
  8
LAY-10
  6
CONTINUOUS
 62
     7
100
AcDbCircle
 10
227.1999999999516
 20
680.7857864377138
 30
0.0
 40
1.0
100
AcDbArc
 50
135.0
 51
180.0
  0
LINE
  5
146
330
1F
100
AcDbEntity
  8
LAY-10
  6
CONTINUOUS
 62
     7
100
AcDbLine
 10
226.4928932187659
 20
681.4928932189
 30
0.0
 11
228.9071067811692
 21
683.9071067813038
 31
0.0
  0
ARC
  5
147
330
1F
100
AcDbEntity
  8
LAY-10
  6
CONTINUOUS
 62
     7
100
AcDbCircle
 10
228.1999999999825
 20
677.4792407799409
 30
0.0
 40
1.0
100
AcDbArc
 50
0.0
 51
71.56505117689261
  0
ARC
  5
148
330
1F
100
AcDbEntity
  8
LAY-10
  6
CONTINUOUS
 62
     7
100
AcDbCircle
 10
228.1999999999825
 20
684.6142135624905
 30
0.0
 40
1.0
100
AcDbArc
 50
315.0
 51
0.0
  0
LINE
  5
149
330
1F
100
AcDbEntity
  8
LAY-10
  6
CONTINUOUS
 62
     7
100
AcDbLine
 10
195.2000000000567
 20
715.7000000000464
 30
0.0
 11
200.2000000000567
 21
715.7000000000464
 31
0.0
  0
LINE
  5
14A
330
1F
100
AcDbEntity
  8
LAY-10
  6
CONTINUOUS
 62
     7
100
AcDbLine
 10
195.2000000000567
 20
705.700000000046
 30
0.0
 11
195.2000000000567
 21
715.7000000000464
 31
0.0
  0
LINE
  5
14B
330
1F
100
AcDbEntity
  8
LAY-10
  6
CONTINUOUS
 62
     7
100
AcDbLine
 10
200.2000000000567
 20
705.700000000046
 30
0.0
 11
200.2000000000567
 21
715.7000000000464
 31
0.0
  0
ARC
  5
14C
330
1F
100
AcDbEntity
  8
LAY-10
  6
CONTINUOUS
 62
     7
100
AcDbCircle
 10
202.2000000000566
 20
705.700000000046
 30
0.0
 40
2.0
100
AcDbArc
 50
180.0
 51
270.0
  0
ARC
  5
14D
330
1F
100
AcDbEntity
  8
LAY-10
  6
CONTINUOUS
 62
     7
100
AcDbCircle
 10
202.2000000000566
 20
705.700000000046
 30
0.0
 40
7.000000000000004
100
AcDbArc
 50
180.0
 51
270.0
  0
LINE
  5
14E
330
1F
100
AcDbEntity
  8
LAY-10
  6
CONTINUOUS
 62
     7
100
AcDbLine
 10
202.200000000053
 20
703.7000000000469
 30
0.0
 11
217.2000000000521
 21
703.7000000000469
 31
0.0
  0
LINE
  5
14F
330
1F
100
AcDbEntity
  8
LAY-10
  6
CONTINUOUS
 62
     7
100
AcDbLine
 10
202.200000000053
 20
698.7000000000469
 30
0.0
 11
214.1999999999734
 21
698.7000000000469
 31
0.0
  0
LINE
  5
150
330
1F
100
AcDbEntity
  8
LAY-10
  6
CONTINUOUS
 62
     7
100
AcDbLine
 10
403.6999999999406
 20
496.2000000000527
 30
0.0
 11
413.6999999999407
 21
496.2000000000527
 31
0.0
  0
ARC
  5
151
330
1F
100
AcDbEntity
  8
LAY-10
  6
CONTINUOUS
 62
     7
100
AcDbCircle
 10
403.6999999999406
 20
503.2000000000527
 30
0.0
 40
7.000000000000004
100
AcDbArc
 50
180.0
 51
270.0
  0
LINE
  5
152
330
1F
100
AcDbEntity
  8
LAY-10
  6
CONTINUOUS
 62
     7
100
AcDbLine
 10
413.6999999999407
 20
496.2000000000527
 30
0.0
 11
413.6999999999407
 21
501.2000000000523
 31
0.0
  0
ARC
  5
153
330
1F
100
AcDbEntity
  8
LAY-10
  6
CONTINUOUS
 62
     7
100
AcDbCircle
 10
403.6999999999406
 20
503.2000000000527
 30
0.0
 40
2.0
100
AcDbArc
 50
180.0
 51
270.0
  0
LINE
  5
154
330
1F
100
AcDbEntity
  8
LAY-10
  6
CONTINUOUS
 62
     7
100
AcDbLine
 10
403.6999999999406
 20
501.2000000000527
 30
0.0
 11
413.6999999999407
 21
501.2000000000523
 31
0.0
  0
LINE
  5
155
330
1F
100
AcDbEntity
  8
LAY-10
  6
CONTINUOUS
 62
     7
100
AcDbLine
 10
401.6999999999407
 20
503.2000000000486
 30
0.0
 11
401.6999999999407
 21
518.2000000000478
 31
0.0
  0
LINE
  5
156
330
1F
100
AcDbEntity
  8
LAY-10
  6
CONTINUOUS
 62
     7
100
AcDbLine
 10
396.6999999999407
 20
503.2000000000486
 30
0.0
 11
396.6999999999407
 21
518.2000000000478
 31
0.0
  0
LINE
  5
157
330
1F
100
AcDbEntity
  8
LAY-10
  6
CONTINUOUS
 62
     7
100
AcDbLine
 10
229.1999999999748
 20
551.8066017186522
 30
0.0
 11
222.1791847202749
 21
548.927922061752
 31
0.0
  0
LINE
  5
158
330
1F
100
AcDbEntity
  8
LAY-10
  6
CONTINUOUS
 62
     7
100
AcDbLine
 10
246.927922061775
 20
524.1791847203519
 30
0.0
 11
249.8066017185752
 21
531.2000000000523
 31
0.0
  0
LINE
  5
159
330
1F
100
AcDbEntity
  8
LAY-10
  6
CONTINUOUS
 62
     7
100
AcDbLine
 10
222.1999999999748
 20
580.768542494952
 30
0.0
 11
229.1999999999748
 21
590.5969696197524
 31
0.0
  0
LINE
  5
15A
330
1F
100
AcDbEntity
  8
LAY-10
  6
CONTINUOUS
 62
     7
100
AcDbLine
 10
222.1791847202749
 20
548.9279220618521
 30
0.0
 11
222.1791847202749
 21
580.768542494952
 31
0.0
  0
LINE
  5
15B
330
1F
100
AcDbEntity
  8
LAY-10
  6
CONTINUOUS
 62
     7
100
AcDbLine
 10
278.7685424948813
 20
524.200000000056
 30
0.0
 11
288.5969696196807
 21
531.2000000000578
 31
0.0
  0
LINE
  5
15C
330
1F
100
AcDbEntity
  8
LAY-10
  6
CONTINUOUS
 62
     7
100
AcDbLine
 10
246.927922061775
 20
524.1791847203519
 30
0.0
 11
278.768542494875
 21
524.1791847203519
 31
0.0
  0
LINE
  5
15D
330
1F
100
AcDbEntity
  8
LAY-10
  6
CONTINUOUS
 62
     7
100
AcDbLine
 10
222.1791847202749
 20
548.9279220617761
 30
0.0
 11
246.9279220616909
 21
524.1791847203519
 31
0.0
  0
LINE
  5
15E
330
1F
100
AcDbEntity
  8
LAY-10
  6
CONTINUOUS
 62
     7
100
AcDbLine
 10
227.664466094031
 20
536.7355339059725
 30
0.0
 11
231.0180194850541
 21
540.0890872969942
 31
0.0
  0
LINE
  5
15F
330
1F
100
AcDbEntity
  8
LAY-10
  6
CONTINUOUS
 62
     7
100
AcDbLine
 10
234.7355339058977
 20
529.6644660941076
 30
0.0
 11
238.089087296918
 21
533.0180194851271
 31
0.0
  0
LINE
  5
160
330
1F
100
AcDbEntity
  8
LAY-10
  6
CONTINUOUS
 62
     7
100
AcDbLine
 10
249.8066017185597
 20
531.2000000000137
 30
0.0
 11
434.1999999999725
 21
531.2000000000137
 31
0.0
  0
LINE
  5
161
330
1F
100
AcDbEntity
  8
LAY-10
  6
CONTINUOUS
 62
     7
100
AcDbLine
 10
229.1999999999734
 20
736.2000000000139
 30
0.0
 11
229.1999999999734
 21
551.8066017186516
 31
0.0
  0
LINE
  5
162
330
1F
100
AcDbEntity
  8
LAY-10
  6
CONTINUOUS
 62
     7
100
AcDbLine
 10
159.199999999973
 20
698.2000000000137
 30
0.0
 11
159.199999999973
 21
482.2000000000236
 31
0.0
  0
LINE
  5
163
330
1F
100
AcDbEntity
  8
LAY-10
  6
CONTINUOUS
 62
     7
100
AcDbLine
 10
214.1999999999734
 20
691.200000000011
 30
0.0
 11
159.199999999973
 21
691.200000000011
 31
0.0
  0
LINE
  5
164
330
1F
100
AcDbEntity
  8
LAY-10
  6
CONTINUOUS
 62
     7
100
AcDbLine
 10
214.1999999999734
 20
698.2000000000137
 30
0.0
 11
159.199999999973
 21
698.2000000000137
 31
0.0
  0
LINE
  5
165
330
1F
100
AcDbEntity
  8
LAY-10
  6
CONTINUOUS
 62
     7
100
AcDbLine
 10
214.1999999999716
 20
489.2000000000264
 30
0.0
 11
159.199999999973
 21
489.2000000000264
 31
0.0
  0
LINE
  5
166
330
1F
100
AcDbEntity
  8
LAY-10
  6
CONTINUOUS
 62
     7
100
AcDbLine
 10
214.1999999999716
 20
482.2000000000236
 30
0.0
 11
159.199999999973
 21
482.2000000000236
 31
0.0
  0
LINE
  5
167
330
1F
100
AcDbEntity
  8
LAY-10
  6
CONTINUOUS
 62
     7
100
AcDbLine
 10
229.199999999993
 20
726.1999999999837
 30
0.0
 11
230.199999999993
 21
726.1999999999837
 31
0.0
  0
ARC
  5
168
330
1F
100
AcDbEntity
  8
LAY-10
  6
CONTINUOUS
 62
     7
100
AcDbCircle
 10
230.199999999993
 20
722.1999999999837
 30
0.0
 40
4.0
100
AcDbArc
 50
0.0
 51
90.00000000000001
  0
LINE
  5
169
330
1F
100
AcDbEntity
  8
LAY-10
  6
CONTINUOUS
 62
     7
100
AcDbLine
 10
234.199999999993
 20
706.5807186357335
 30
0.0
 11
234.199999999993
 21
722.1999999999837
 31
0.0
  0
LINE
  5
16A
330
1F
100
AcDbEntity
  8
LAY-10
  6
CONTINUOUS
 62
     7
100
AcDbLine
 10
424.2000000000157
 20
531.1999999999946
 30
0.0
 11
424.2000000000157
 21
532.1999999999837
 31
0.0
  0
ARC
  5
16B
330
1F
100
AcDbEntity
  8
LAY-10
  6
CONTINUOUS
 62
     7
100
AcDbCircle
 10
420.2000000000157
 20
532.1999999999828
 30
0.0
 40
4.0
100
AcDbArc
 50
0.0000000000130061
 51
90.00000000000001
  0
ARC
  5
16C
330
1F
100
AcDbEntity
  8
LAY-10
  6
CONTINUOUS
 62
     7
100
AcDbCircle
 10
236.199999999993
 20
705.5807186357335
 30
0.0
 40
2.0
100
AcDbArc
 50
180.0
 51
309.9999999999976
  0
LINE
  5
16D
330
1F
100
AcDbEntity
  8
LAY-10
  6
CONTINUOUS
 62
     7
100
AcDbLine
 10
247.1999999999948
 20
712.2000000000205
 30
0.0
 11
237.4855752193657
 21
704.0486297494956
 31
0.0
  0
LINE
  5
16E
330
1F
100
AcDbEntity
  8
LAY-10
  6
CONTINUOUS
 62
     7
100
AcDbLine
 10
247.1999999999948
 20
707.199999999981
 30
0.0
 11
234.1999999999948
 21
691.7072032962562
 31
0.0
  0
LINE
  5
16F
330
1F
100
AcDbEntity
  8
LAY-10
  6
CONTINUOUS
 62
     7
100
AcDbLine
 10
237.1999999999921
 20
695.2824640740371
 30
0.0
 11
237.1999999999921
 21
679.1999999999832
 31
0.0
  0
LINE
  5
170
330
1F
100
AcDbEntity
  8
LAY-10
  6
CONTINUOUS
 62
     7
100
AcDbLine
 10
234.199999999993
 20
721.1999999999837
 30
0.0
 11
234.199999999993
 21
705.5807186357335
 31
0.0
  0
ARC
  5
171
330
1F
100
AcDbEntity
  8
LAY-10
  6
CONTINUOUS
 62
     7
100
AcDbCircle
 10
403.5807186357644
 20
538.1999999999923
 30
0.0
 40
2.0
100
AcDbArc
 50
140.0000000000116
 51
270.0000000000065
  0
LINE
  5
172
330
1F
100
AcDbEntity
  8
LAY-10
  6
CONTINUOUS
 62
     7
100
AcDbLine
 10
405.20000000001
 20
549.1999999999946
 30
0.0
 11
389.7072032962874
 21
536.1999999999919
 31
0.0
  0
LINE
  5
173
330
1F
100
AcDbEntity
  8
LAY-10
  6
CONTINUOUS
 62
     7
100
AcDbLine
 10
410.2000000000493
 20
549.1999999999955
 30
0.0
 11
402.0486297495265
 21
539.485575219365
 31
0.0
  0
LINE
  5
174
330
1F
100
AcDbEntity
  8
LAY-10
  6
CONTINUOUS
 62
     7
100
AcDbLine
 10
420.2000000000157
 20
536.1999999999837
 30
0.0
 11
403.5807186357644
 21
536.1999999999837
 31
0.0
  0
LINE
  5
175
330
1F
100
AcDbEntity
  8
LAY-10
  6
CONTINUOUS
 62
     7
100
AcDbLine
 10
393.2824640740587
 20
539.1999999999837
 30
0.0
 11
383.2000000000075
 21
539.1999999999837
 31
0.0
  0
ARC
  5
176
330
1F
100
AcDbEntity
  8
LAY-10
  6
CONTINUOUS
 62
     7
100
AcDbCircle
 10
262.2000000000921
 20
538.1999999999837
 30
0.0
 40
2.0
100
AcDbArc
 50
180.0
 51
270.0
  0
ARC
  5
177
330
1F
100
AcDbEntity
  8
LAY-10
  6
CONTINUOUS
 62
     7
100
AcDbCircle
 10
263.9792628277905
 20
538.1999999999837
 30
0.0
 40
2.0
100
AcDbArc
 50
270.0
 51
310.0000000000027
  0
ARC
  5
178
330
1F
100
AcDbEntity
  8
LAY-10
  6
CONTINUOUS
 62
     7
100
AcDbCircle
 10
362.2000000000921
 20
538.1999999999837
 30
0.0
 40
2.0
100
AcDbArc
 50
180.0
 51
270.0
  0
ARC
  5
179
330
1F
100
AcDbEntity
  8
LAY-10
  6
CONTINUOUS
 62
     7
100
AcDbCircle
 10
363.9792628277905
 20
538.1999999999837
 30
0.0
 40
2.0
100
AcDbArc
 50
270.0
 51
310.0000000000027
  0
ARC
  5
17A
330
1F
100
AcDbEntity
  8
LAY-10
  6
CONTINUOUS
 62
     7
100
AcDbCircle
 10
312.2000000000921
 20
538.1999999999837
 30
0.0
 40
2.0
100
AcDbArc
 50
180.0
 51
270.0
  0
ARC
  5
17B
330
1F
100
AcDbEntity
  8
LAY-10
  6
CONTINUOUS
 62
     7
100
AcDbCircle
 10
313.9792628277905
 20
538.1999999999837
 30
0.0
 40
2.0
100
AcDbArc
 50
270.0
 51
310.0000000000027
  0
LINE
  5
17C
330
1F
100
AcDbEntity
  8
LAY-10
  6
CONTINUOUS
 62
     7
100
AcDbLine
 10
229.199999999993
 20
666.2000000001833
 30
0.0
 11
234.199999999993
 21
673.2000000001833
 31
0.0
  0
LINE
  5
17D
330
1F
100
AcDbEntity
  8
LAY-10
  6
CONTINUOUS
 62
     7
100
AcDbLine
 10
371.2000000001931
 20
536.1999999999837
 30
0.0
 11
364.2000000001931
 21
531.1999999999837
 31
0.0
  0
LINE
  5
17E
330
1F
100
AcDbEntity
  8
LAY-10
  6
CONTINUOUS
 62
     7
100
AcDbLine
 10
378.199999999993
 20
536.1999999999837
 30
0.0
 11
383.199999999993
 21
539.1999999999837
 31
0.0
  0
LINE
  5
17F
330
1F
100
AcDbEntity
  8
LAY-10
  6
CONTINUOUS
 62
     7
100
AcDbLine
 10
234.199999999993
 20
674.1999999999837
 30
0.0
 11
237.199999999993
 21
679.1999999999837
 31
0.0
  0
LINE
  5
180
330
1F
100
AcDbEntity
  8
LAY-10
  6
CONTINUOUS
 62
     7
100
AcDbLine
 10
249.8066017186306
 20
531.1999999999837
 30
0.0
 11
229.199999999993
 21
551.8066017186281
 31
0.0
  0
LINE
  5
181
330
1F
100
AcDbEntity
  8
LAY-10
  6
CONTINUOUS
 62
     7
100
AcDbLine
 10
310.2000000000921
 20
542.1999999999186
 30
0.0
 11
310.2000000000921
 21
538.1999999999837
 31
0.0
  0
LINE
  5
182
330
1F
100
AcDbEntity
  8
LAY-10
  6
CONTINUOUS
 62
     7
100
AcDbLine
 10
321.8577248518109
 20
542.1999999999186
 30
0.0
 11
315.2648380471633
 21
536.6679111137457
 31
0.0
  0
LINE
  5
183
330
1F
100
AcDbEntity
  8
LAY-10
  6
CONTINUOUS
 62
     7
100
AcDbLine
 10
360.2000000000921
 20
549.2000000000214
 30
0.0
 11
360.2000000000921
 21
548.1999999999186
 31
0.0
  0
LINE
  5
184
330
1F
100
AcDbEntity
  8
LAY-10
  6
CONTINUOUS
 62
     7
100
AcDbLine
 10
360.2000000000921
 20
542.1999999999186
 30
0.0
 11
360.2000000000921
 21
538.1999999999837
 31
0.0
  0
LINE
  5
185
330
1F
100
AcDbEntity
  8
LAY-10
  6
CONTINUOUS
 62
     7
100
AcDbLine
 10
371.85772485181
 20
542.1999999999186
 30
0.0
 11
365.2648380471633
 21
536.6679111137457
 31
0.0
  0
LINE
  5
186
330
1F
100
AcDbEntity
  8
LAY-10
  6
CONTINUOUS
 62
     7
100
AcDbLine
 10
260.2000000000912
 20
543.09820278863
 30
0.0
 11
260.2000000000912
 21
538.1999999999837
 31
0.0
  0
LINE
  5
187
330
1F
100
AcDbEntity
  8
LAY-10
  6
CONTINUOUS
 62
     7
100
AcDbLine
 10
271.85772485181
 20
542.1999999999186
 30
0.0
 11
265.2648380471633
 21
536.6679111137457
 31
0.0
  0
LINE
  5
188
330
1F
100
AcDbEntity
  8
LAY-10
  6
CONTINUOUS
 62
     7
100
AcDbLine
 10
238.8999999999455
 20
688.1999999999091
 30
0.0
 11
238.8999999999455
 21
682.1999999999091
 31
0.0
  0
LINE
  5
189
330
1F
100
AcDbEntity
  8
LAY-10
  6
CONTINUOUS
 62
     7
100
AcDbLine
 10
238.8999999999455
 20
682.1999999999091
 30
0.0
 11
240.1999999999448
 21
680.8999999999098
 31
0.0
  0
LINE
  5
18A
330
1F
100
AcDbEntity
  8
LAY-10
  6
CONTINUOUS
 62
     7
100
AcDbLine
 10
237.199999999993
 20
682.19999999991
 30
0.0
 11
238.8999999999455
 21
682.19999999991
 31
0.0
  0
LINE
  5
18B
330
1F
100
AcDbEntity
  8
LAY-10
  6
CONTINUOUS
 62
     7
100
AcDbLine
 10
237.199999999993
 20
688.1999999999082
 30
0.0
 11
238.8999999999455
 21
688.1999999999082
 31
0.0
  0
LINE
  5
18C
330
1F
100
AcDbEntity
  8
LAY-10
  6
CONTINUOUS
 62
     7
100
AcDbLine
 10
246.5743686712253
 20
534.4322330475045
 30
0.0
 11
251.8606989673758
 21
539.7185633436554
 31
0.0
  0
LINE
  5
18D
330
1F
100
AcDbEntity
  8
LAY-10
  6
CONTINUOUS
 62
     7
100
AcDbLine
 10
243.038834765292
 20
537.9677669534374
 30
0.0
 11
248.3251650614434
 21
543.2540972495883
 31
0.0
  0
LINE
  5
18E
330
1F
100
AcDbEntity
  8
LAY-10
  6
CONTINUOUS
 62
     7
100
AcDbLine
 10
235.9677669534271
 20
545.0388347653027
 30
0.0
 11
241.2540972495776
 21
550.3251650614536
 31
0.0
  0
LINE
  5
18F
330
1F
100
AcDbEntity
  8
LAY-10
  6
CONTINUOUS
 62
     7
100
AcDbLine
 10
232.4322330474938
 20
548.5743686712356
 30
0.0
 11
237.7185633436443
 21
553.8606989673865
 31
0.0
  0
ARC
  5
190
330
1F
100
AcDbEntity
  8
LAY-10
  6
CONTINUOUS
 62
     7
100
AcDbCircle
 10
248.0281557247977
 20
539.4215540070106
 30
0.0
 40
3.844034632034632
100
AcDbArc
 50
4.431375026592191
 51
85.56862497340782
  0
ARC
  5
191
330
1F
100
AcDbEntity
  8
LAY-10
  6
CONTINUOUS
 62
     7
100
AcDbCircle
 10
235.5504759983409
 20
537.5504759983512
 30
0.0
 40
13.99013852813853
100
AcDbArc
 50
24.05972439385742
 51
65.9402756061426
  0
ARC
  5
192
330
1F
100
AcDbEntity
  8
LAY-10
  6
CONTINUOUS
 62
     7
100
AcDbCircle
 10
237.4215540069995
 20
550.0281557248088
 30
0.0
 40
3.84403463203463
100
AcDbArc
 50
4.431375026592191
 51
85.56862497340782
  0
LINE
  5
193
330
1F
100
AcDbEntity
  8
LAY-10
  6
CONTINUOUS
 62
     7
100
AcDbLine
 10
250.7462986802252
 20
542.1396969624382
 30
0.0
 11
240.139696962427
 21
552.7462986802364
 31
0.0
  0
LINE
  5
194
330
1F
100
AcDbEntity
  8
LAY-10
  6
CONTINUOUS
 62
     7
100
AcDbLine
 10
389.7072032962774
 20
536.1999999999837
 30
0.0
 11
248.3421356237045
 21
536.1999999999837
 31
0.0
  0
LINE
  5
195
330
1F
100
AcDbEntity
  8
LAY-10
  6
CONTINUOUS
 62
     7
100
AcDbLine
 10
234.199999999993
 20
550.3421356237352
 30
0.0
 11
234.199999999993
 21
691.707203296254
 31
0.0
  0
ARC
  5
196
330
1F
100
AcDbEntity
  8
LAY-10
  6
CONTINUOUS
 62
     7
100
AcDbCircle
 10
240.1999999999921
 20
542.1999999999837
 30
0.0
 40
11.0
100
AcDbArc
 50
252.0356917894327
 51
268.4533429851027
  0
ARC
  5
197
330
1F
100
AcDbEntity
  8
LAY-10
  6
CONTINUOUS
 62
     7
100
AcDbCircle
 10
239.1999999999602
 20
541.19999999998
 30
0.0
 40
10.0
100
AcDbArc
 50
255.0000000001527
 51
270.0
  0
ARC
  5
198
330
1F
100
AcDbEntity
  8
LAY-10
  6
CONTINUOUS
 62
     7
100
AcDbCircle
 10
240.1999999999921
 20
542.1999999999837
 30
0.0
 40
11.0
100
AcDbArc
 50
181.5466570149022
 51
197.9643082106005
  0
ARC
  5
199
330
1F
100
AcDbEntity
  8
LAY-10
  6
CONTINUOUS
 62
     7
100
AcDbCircle
 10
239.1999999999602
 20
541.19999999998
 30
0.0
 40
10.0
100
AcDbArc
 50
180.0
 51
195.0000000001471
  0
ARC
  5
19A
330
1F
100
AcDbEntity
  8
LAY-10
  6
CONTINUOUS
 62
     7
100
AcDbCircle
 10
237.1999999999912
 20
687.1999999999155
 30
0.0
 40
3.000000000000066
100
AcDbArc
 50
0.0
 51
90.00000000000001
  0
LINE
  5
19B
330
1F
100
AcDbEntity
  8
LAY-10
  6
CONTINUOUS
 62
     7
100
AcDbLine
 10
245.1999999999912
 20
702.1999999999152
 30
0.0
 11
237.1999999999912
 21
692.1999999999155
 31
0.0
  0
LINE
  5
19C
330
1F
100
AcDbEntity
  8
LAY-10
  6
CONTINUOUS
 62
     7
100
AcDbLine
 10
240.1999999999912
 20
695.9499999999155
 30
0.0
 11
240.1999999999912
 21
568.1999999999155
 31
0.0
  0
LINE
  5
19D
330
1F
100
AcDbEntity
  8
LAY-10
  6
CONTINUOUS
 62
     7
100
AcDbLine
 10
246.9071067811797
 20
693.0076118444852
 30
0.0
 11
240.199999999993
 21
693.0076118444852
 31
0.0
  0
LINE
  5
19E
330
1F
100
AcDbEntity
  8
LAY-10
  6
CONTINUOUS
 62
     7
100
AcDbLine
 10
246.1999999999916
 20
673.1999999999152
 30
0.0
 11
246.1999999999916
 21
693.0076118444902
 31
0.0
  0
LINE
  5
19F
330
1F
100
AcDbEntity
  8
LAY-10
  6
CONTINUOUS
 62
     7
100
AcDbLine
 10
251.8568542494854
 20
696.5431457504178
 30
0.0
 11
246.9071067811797
 21
693.0076118444852
 31
0.0
  0
LINE
  5
1A0
330
1F
100
AcDbEntity
  8
LAY-10
  6
CONTINUOUS
 62
     7
100
AcDbLine
 10
246.1999999999912
 20
702.1999999999152
 30
0.0
 11
245.1999999999912
 21
702.1999999999152
 31
0.0
  0
LINE
  5
1A1
330
1F
100
AcDbEntity
  8
LAY-10
  6
CONTINUOUS
 62
     7
100
AcDbLine
 10
246.1999999999912
 20
702.1999999999152
 30
0.0
 11
400.1999999999914
 21
548.1999999999152
 31
0.0
  0
LINE
  5
1A2
330
1F
100
AcDbEntity
  8
LAY-10
  6
CONTINUOUS
 62
     7
100
AcDbLine
 10
246.9071067811838
 20
693.0076118444833
 30
0.0
 11
391.0076118445795
 21
548.9071067810892
 31
0.0
  0
ARC
  5
1A3
330
1F
100
AcDbEntity
  8
LAY-10
  6
CONTINUOUS
 62
     7
100
AcDbCircle
 10
247.1999999999911
 20
673.1999999999155
 30
0.0
 40
1.0
100
AcDbArc
 50
180.0
 51
270.0
  0
LINE
  5
1A4
330
1F
100
AcDbEntity
  8
LAY-10
  6
CONTINUOUS
 62
     7
100
AcDbLine
 10
247.1999999999911
 20
672.1999999999155
 30
0.0
 11
267.7147186257521
 21
672.1999999999155
 31
0.0
  0
LINE
  5
1A5
330
1F
100
AcDbEntity
  8
LAY-10
  6
CONTINUOUS
 62
     7
100
AcDbLine
 10
276.67910871915
 20
663.2356099065173
 30
0.0
 11
246.7372925967529
 21
631.1269431755454
 31
0.0
  0
LINE
  5
1A6
330
1F
100
AcDbEntity
  8
LAY-10
  6
CONTINUOUS
 62
     7
100
AcDbLine
 10
287.6965046631922
 20
652.2182139624754
 30
0.0
 11
249.5639967201164
 21
616.6590750332928
 31
0.0
  0
ARC
  5
1A7
330
1F
100
AcDbEntity
  8
LAY-10
  6
CONTINUOUS
 62
     7
100
AcDbCircle
 10
248.1999999999912
 20
629.7629464554204
 30
0.0
 40
2.0
100
AcDbArc
 50
136.9999999999974
 51
180.0
  0
LINE
  5
1A8
330
1F
100
AcDbEntity
  8
LAY-10
  6
CONTINUOUS
 62
     7
100
AcDbLine
 10
246.1999999999916
 20
629.7629464554204
 30
0.0
 11
246.1999999999916
 21
618.1217824365315
 31
0.0
  0
ARC
  5
1A9
330
1F
100
AcDbEntity
  8
LAY-10
  6
CONTINUOUS
 62
     7
100
AcDbCircle
 10
248.1999999999912
 20
618.1217824365315
 30
0.0
 40
2.0
100
AcDbArc
 50
180.0
 51
313.0000000000063
  0
LINE
  5
1AA
330
1F
100
AcDbEntity
  8
LAY-10
  6
CONTINUOUS
 62
     7
100
AcDbLine
 10
295.0638850300002
 20
644.8508335956672
 30
0.0
 11
246.7372925967529
 21
593.0269080081359
 31
0.0
  0
ARC
  5
1AB
330
1F
100
AcDbEntity
  8
LAY-10
  6
CONTINUOUS
 62
     7
100
AcDbCircle
 10
248.1999999999912
 20
591.6629112880107
 30
0.0
 40
2.0
100
AcDbArc
 50
136.9999999999974
 51
180.0
  0
LINE
  5
1AC
330
1F
100
AcDbEntity
  8
LAY-10
  6
CONTINUOUS
 62
     7
100
AcDbLine
 10
246.1999999999916
 20
591.6629112880107
 30
0.0
 11
246.1999999999916
 21
582.5929248605471
 31
0.0
  0
ARC
  5
1AD
330
1F
100
AcDbEntity
  8
LAY-10
  6
CONTINUOUS
 62
     7
100
AcDbCircle
 10
248.1999999999912
 20
582.5929248605471
 30
0.0
 40
2.0
100
AcDbArc
 50
180.0
 51
312.9999999999998
  0
LINE
  5
1AE
330
1F
100
AcDbEntity
  8
LAY-10
  6
CONTINUOUS
 62
     7
100
AcDbLine
 10
306.0812809740428
 20
633.833437651625
 30
0.0
 11
249.5639967201164
 21
581.1302174573086
 31
0.0
  0
LINE
  5
1AF
330
1F
100
AcDbEntity
  8
LAY-10
  6
CONTINUOUS
 62
     7
100
AcDbLine
 10
383.1999999999912
 20
542.1999999999152
 30
0.0
 11
266.1999999999912
 21
542.199999999915
 31
0.0
  0
ARC
  5
1B0
330
1F
100
AcDbEntity
  8
LAY-10
  6
CONTINUOUS
 62
     7
100
AcDbCircle
 10
383.1999999999912
 20
540.1999999999152
 30
0.0
 40
2.0
100
AcDbArc
 50
0.0
 51
90.00000000000001
  0
LINE
  5
1B1
330
1F
100
AcDbEntity
  8
LAY-10
  6
CONTINUOUS
 62
     7
100
AcDbLine
 10
391.0076118445663
 20
548.9071067811019
 30
0.0
 11
390.1999999999911
 21
539.1999999999152
 31
0.0
  0
LINE
  5
1B2
330
1F
100
AcDbEntity
  8
LAY-10
  6
CONTINUOUS
 62
     7
100
AcDbLine
 10
400.1999999999909
 20
547.1999999999152
 30
0.0
 11
390.1999999999911
 21
539.199999999915
 31
0.0
  0
LINE
  5
1B3
330
1F
100
AcDbEntity
  8
LAY-10
  6
CONTINUOUS
 62
     7
100
AcDbLine
 10
385.1999999999912
 20
540.1999999999152
 30
0.0
 11
385.1999999999912
 21
539.1999999999152
 31
0.0
  0
LINE
  5
1B4
330
1F
100
AcDbEntity
  8
LAY-10
  6
CONTINUOUS
 62
     7
100
AcDbLine
 10
400.1999999999909
 20
548.1999999999152
 30
0.0
 11
400.1999999999909
 21
547.1999999999152
 31
0.0
  0
LINE
  5
1B5
330
1F
100
AcDbEntity
  8
LAY-10
  6
CONTINUOUS
 62
     7
100
AcDbLine
 10
391.0076118445663
 20
548.9071067811019
 30
0.0
 11
394.5431457504992
 21
553.8568542494079
 31
0.0
  0
LINE
  5
1B6
330
1F
100
AcDbEntity
  8
LAY-10
  6
CONTINUOUS
 62
     7
100
AcDbLine
 10
379.6203862174439
 20
560.2943324082241
 30
0.0
 11
367.2269783430306
 21
548.7372925966768
 31
0.0
  0
ARC
  5
1B7
330
1F
100
AcDbEntity
  8
LAY-10
  6
CONTINUOUS
 62
     7
100
AcDbCircle
 10
365.8629816229059
 20
550.199999999915
 30
0.0
 40
2.0
100
AcDbArc
 50
270.0
 51
312.9999999999998
  0
LINE
  5
1B8
330
1F
100
AcDbEntity
  8
LAY-10
  6
CONTINUOUS
 62
     7
100
AcDbLine
 10
351.6506400125918
 20
548.199999999915
 30
0.0
 11
365.8629816229059
 21
548.199999999915
 31
0.0
  0
ARC
  5
1B9
330
1F
100
AcDbEntity
  8
LAY-10
  6
CONTINUOUS
 62
     7
100
AcDbCircle
 10
351.6506400125918
 20
550.199999999915
 30
0.0
 40
2.0
100
AcDbArc
 50
137.0000000000106
 51
270.0
  0
LINE
  5
1BA
330
1F
100
AcDbEntity
  8
LAY-10
  6
CONTINUOUS
 62
     7
100
AcDbLine
 10
368.6029902734017
 20
571.3117283522668
 30
0.0
 11
350.1879326093531
 21
551.56399672004
 31
0.0
  0
LINE
  5
1BB
330
1F
100
AcDbEntity
  8
LAY-10
  6
CONTINUOUS
 62
     7
100
AcDbLine
 10
361.2356099065937
 20
578.6791087190747
 30
0.0
 11
329.1269431756218
 21
548.7372925966768
 31
0.0
  0
ARC
  5
1BC
330
1F
100
AcDbEntity
  8
LAY-10
  6
CONTINUOUS
 62
     7
100
AcDbCircle
 10
327.7629464554966
 20
550.199999999915
 30
0.0
 40
2.0
100
AcDbArc
 50
270.0
 51
313.0000000000052
  0
LINE
  5
1BD
330
1F
100
AcDbEntity
  8
LAY-10
  6
CONTINUOUS
 62
     7
100
AcDbLine
 10
316.1217824366076
 20
548.199999999915
 30
0.0
 11
327.7629464554966
 21
548.199999999915
 31
0.0
  0
ARC
  5
1BE
330
1F
100
AcDbEntity
  8
LAY-10
  6
CONTINUOUS
 62
     7
100
AcDbCircle
 10
316.1217824366076
 20
550.199999999915
 30
0.0
 40
2.0
100
AcDbArc
 50
137.0000000000066
 51
270.0
  0
LINE
  5
1BF
330
1F
100
AcDbEntity
  8
LAY-10
  6
CONTINUOUS
 62
     7
100
AcDbLine
 10
350.2182139625515
 20
589.6965046631169
 30
0.0
 11
314.6590750333694
 21
551.56399672004
 31
0.0
  0
LINE
  5
1C0
330
1F
100
AcDbEntity
  8
LAY-10
  6
CONTINUOUS
 62
     7
100
AcDbLine
 10
342.8508335957436
 20
597.0638850299247
 30
0.0
 11
291.0269080082121
 21
548.7372925966768
 31
0.0
  0
ARC
  5
1C1
330
1F
100
AcDbEntity
  8
LAY-10
  6
CONTINUOUS
 62
     7
100
AcDbCircle
 10
289.6629112880873
 20
550.199999999915
 30
0.0
 40
2.0
100
AcDbArc
 50
270.0
 51
312.9999999999998
  0
LINE
  5
1C2
330
1F
100
AcDbEntity
  8
LAY-10
  6
CONTINUOUS
 62
     7
100
AcDbLine
 10
280.5929248606235
 20
548.199999999915
 30
0.0
 11
289.6629112880873
 21
548.199999999915
 31
0.0
  0
ARC
  5
1C3
330
1F
100
AcDbEntity
  8
LAY-10
  6
CONTINUOUS
 62
     7
100
AcDbCircle
 10
280.5929248606235
 20
550.199999999915
 30
0.0
 40
2.0
100
AcDbArc
 50
136.9999999999968
 51
270.0
  0
LINE
  5
1C4
330
1F
100
AcDbEntity
  8
LAY-10
  6
CONTINUOUS
 62
     7
100
AcDbLine
 10
331.8334376517009
 20
608.0812809739671
 30
0.0
 11
279.1302174573852
 21
551.56399672004
 31
0.0
  0
LINE
  5
1C5
330
1F
100
AcDbEntity
  8
LAY-10
  6
CONTINUOUS
 62
     7
100
AcDbLine
 10
323.8715645511711
 20
618.4065906442681
 30
0.0
 11
327.4426406871103
 21
620.9573593127961
 31
0.0
  0
ARC
  5
1C6
330
1F
100
AcDbEntity
  8
LAY-10
  6
CONTINUOUS
 62
     7
100
AcDbCircle
 10
322.7090881637328
 20
620.0340575866812
 30
0.0
 40
2.0
100
AcDbArc
 50
224.9999999999977
 51
305.5376777919842
  0
LINE
  5
1C7
330
1F
100
AcDbEntity
  8
LAY-10
  6
CONTINUOUS
 62
     7
100
AcDbLine
 10
316.4065906443439
 20
625.8715645510949
 30
0.0
 11
318.9573593128721
 21
629.4426406870346
 31
0.0
  0
ARC
  5
1C8
330
1F
100
AcDbEntity
  8
LAY-10
  6
CONTINUOUS
 62
     7
100
AcDbCircle
 10
318.0340575867572
 20
624.7090881636568
 30
0.0
 40
2.0
100
AcDbArc
 50
144.4623222080228
 51
224.9999999999977
  0
LINE
  5
1C9
330
1F
100
AcDbEntity
  8
LAY-10
  6
CONTINUOUS
 62
     7
100
AcDbLine
 10
238.8999999999455
 20
688.1999999999091
 30
0.0
 11
239.6422475952654
 21
688.9422475952292
 31
0.0
  0
LINE
  5
1CA
330
1F
100
AcDbEntity
  8
LAY-10
  6
CONTINUOUS
 62
     7
100
AcDbLine
 10
247.199999999993
 20
712.2000000000187
 30
0.0
 11
247.199999999993
 21
701.1999999999136
 31
0.0
  0
LINE
  5
1CB
330
1F
100
AcDbEntity
  8
LAY-10
  6
CONTINUOUS
 62
     7
100
AcDbLine
 10
247.1999999999884
 20
631.6231361166726
 30
0.0
 11
247.1999999999884
 21
616.3897316289638
 31
0.0
  0
LINE
  5
1CC
330
1F
100
AcDbEntity
  8
LAY-10
  6
CONTINUOUS
 62
     7
100
AcDbLine
 10
247.1999999999884
 20
593.5231009492629
 30
0.0
 11
247.1999999999884
 21
580.8608740529796
 31
0.0
  0
ARC
  5
1CD
330
1F
100
AcDbEntity
  8
LAY-10
  6
CONTINUOUS
 62
     7
100
AcDbCircle
 10
266.1999999999912
 20
568.1999999999155
 30
0.0
 40
26.00000000000001
100
AcDbArc
 50
236.0874892108746
 51
270.0
  0
ARC
  5
1CE
330
1F
100
AcDbEntity
  8
LAY-10
  6
CONTINUOUS
 62
     7
100
AcDbCircle
 10
266.1999999999912
 20
568.1999999999155
 30
0.0
 40
26.00000000000001
100
AcDbArc
 50
180.0
 51
213.9125107889331
  0
LINE
  5
1CF
330
1F
100
AcDbEntity
  8
LAY-10
  6
CONTINUOUS
 62
     7
100
AcDbLine
 10
280.2000000000921
 20
549.2000000000214
 30
0.0
 11
279.4422470371737
 21
548.5641697683136
 31
0.0
  0
LINE
  5
1D0
330
1F
100
AcDbEntity
  8
LAY-10
  6
CONTINUOUS
 62
     7
100
AcDbLine
 10
280.2000000000485
 20
549.1999999999846
 30
0.0
 11
291.5231009494159
 21
549.1999999999846
 31
0.0
  0
LINE
  5
1D1
330
1F
100
AcDbEntity
  8
LAY-10
  6
CONTINUOUS
 62
     7
100
AcDbLine
 10
349.9185892049827
 20
549.1999999999846
 30
0.0
 11
360.2000000000921
 21
549.1999999999846
 31
0.0
  0
LINE
  5
1D2
330
1F
100
AcDbEntity
  8
LAY-10
  6
CONTINUOUS
 62
     7
100
AcDbLine
 10
399.1999999999222
 20
549.1999999999846
 30
0.0
 11
410.2000000000403
 21
549.1999999999846
 31
0.0
  0
LINE
  5
1D3
330
1F
100
AcDbEntity
  8
LAY-10
  6
CONTINUOUS
 62
     7
100
AcDbLine
 10
256.6558441227103
 20
564.31269837218
 30
0.0
 11
255.2416305603401
 21
564.31269837218
 31
0.0
  0
LINE
  5
1D4
330
1F
100
AcDbEntity
  8
LAY-10
  6
CONTINUOUS
 62
     7
100
AcDbLine
 10
262.3126983721904
 20
558.6558441227
 30
0.0
 11
262.3126983722004
 21
557.2416305603101
 31
0.0
  0
LINE
  5
1D5
330
1F
100
AcDbEntity
  8
LAY-10
  6
CONTINUOUS
 62
     7
100
AcDbLine
 10
257.1861742085916
 20
560.2468343803664
 30
0.0
 11
258.9539411615551
 21
562.0146013333301
 31
0.0
  0
LINE
  5
1D6
330
1F
100
AcDbEntity
  8
LAY-10
  6
CONTINUOUS
 62
     7
100
AcDbLine
 10
258.2468343803716
 20
559.1861742085862
 30
0.0
 11
257.1861742085916
 21
560.2468343803664
 31
0.0
  0
LINE
  5
1D7
330
1F
100
AcDbEntity
  8
LAY-10
  6
CONTINUOUS
 62
     7
100
AcDbLine
 10
258.2468343803716
 20
559.1861742085862
 30
0.0
 11
260.0146013333356
 21
560.9539411615499
 31
0.0
  0
LINE
  5
1D8
330
1F
100
AcDbEntity
  8
LAY-10
  6
CONTINUOUS
 62
     7
100
AcDbLine
 10
260.0146013333501
 20
560.9539411615431
 30
0.0
 11
262.3126983721954
 21
558.6558441226969
 31
0.0
  0
LINE
  5
1D9
330
1F
100
AcDbEntity
  8
LAY-10
  6
CONTINUOUS
 62
     7
100
AcDbLine
 10
248.9785317272713
 20
543.9074639153916
 30
0.0
 11
262.3126983722004
 21
557.2416305603133
 31
0.0
  0
LINE
  5
1DA
330
1F
100
AcDbEntity
  8
LAY-10
  6
CONTINUOUS
 62
     7
100
AcDbLine
 10
256.6558441227121
 20
564.3126983721822
 30
0.0
 11
258.953941161571
 21
562.0146013333226
 31
0.0
  0
LINE
  5
1DB
330
1F
100
AcDbEntity
  8
LAY-10
  6
CONTINUOUS
 62
     7
100
AcDbLine
 10
241.9074639154055
 20
550.9785317272574
 30
0.0
 11
255.2416305603356
 21
564.31269837218
 31
0.0
  0
LINE
  5
1DC
330
1F
100
AcDbEntity
  8
LAY-10
  6
CONTINUOUS
 62
     7
100
AcDbLine
 10
313.4486613408508
 20
626.4660572848172
 30
0.0
 11
255.4897165006901
 21
564.31269837218
 31
0.0
  0
LINE
  5
1DD
330
1F
100
AcDbEntity
  8
LAY-10
  6
CONTINUOUS
 62
     7
100
AcDbLine
 10
324.4660572848929
 20
615.4486613407751
 30
0.0
 11
262.3126983721986
 21
557.4897165005589
 31
0.0
  0
LINE
  5
1DE
330
1F
100
AcDbEntity
  8
LAY-10
  6
CONTINUOUS
 62
     7
100
AcDbLine
 10
258.2468343803685
 20
561.3074945521435
 30
0.0
 11
255.2416305603369
 21
564.3126983721766
 31
0.0
  0
LINE
  5
1DF
330
1F
100
AcDbEntity
  8
LAY-10
  6
CONTINUOUS
 62
     7
100
AcDbLine
 10
259.3074945521489
 20
560.246834380363
 30
0.0
 11
262.3126983722004
 21
557.2416305603103
 31
0.0
  0
LINE
  5
1E0
330
1F
100
AcDbEntity
  8
LAY-10
  6
CONTINUOUS
 62
     7
100
AcDbLine
 10
711.1999999999605
 20
523.2000000000137
 30
0.0
 11
1037.199999999961
 21
523.2000000000139
 31
0.0
  0
LINE
  5
1E1
330
1F
100
AcDbEntity
  8
LAY-10
  6
CONTINUOUS
 62
     7
100
AcDbLine
 10
1001.699999999971
 20
519.2000000000187
 30
0.0
 11
1016.699999999952
 21
519.2000000000187
 31
0.0
  0
LINE
  5
1E2
330
1F
100
AcDbEntity
  8
LAY-10
  6
CONTINUOUS
 62
     7
100
AcDbLine
 10
1016.699999999951
 20
519.2000000000137
 30
0.0
 11
1017.842857142804
 21
523.2000000000014
 31
0.0
  0
LINE
  5
1E3
330
1F
100
AcDbEntity
  8
LAY-10
  6
CONTINUOUS
 62
     7
100
AcDbLine
 10
1001.699999999973
 20
519.2000000000137
 30
0.0
 11
1000.557142857117
 21
523.2000000000014
 31
0.0
  0
LINE
  5
1E4
330
1F
100
AcDbEntity
  8
LAY-10
  6
CONTINUOUS
 62
     7
100
AcDbLine
 10
746.6999999999507
 20
519.2000000000187
 30
0.0
 11
731.6999999999698
 21
519.2000000000187
 31
0.0
  0
LINE
  5
1E5
330
1F
100
AcDbEntity
  8
LAY-10
  6
CONTINUOUS
 62
     7
100
AcDbLine
 10
746.6999999999489
 20
519.2000000000137
 30
0.0
 11
747.842857142804
 21
523.2000000000014
 31
0.0
  0
LINE
  5
1E6
330
1F
100
AcDbEntity
  8
LAY-10
  6
CONTINUOUS
 62
     7
100
AcDbLine
 10
731.6999999999707
 20
519.2000000000137
 30
0.0
 11
730.5571428571177
 21
523.2000000000014
 31
0.0
  0
LINE
  5
1E7
330
1F
100
AcDbEntity
  8
LAY-10
  6
CONTINUOUS
 62
     7
100
AcDbLine
 10
773.1999999999615
 20
517.6064999345647
 30
0.0
 11
975.1999999999606
 21
517.6064999345647
 31
0.0
  0
LINE
  5
1E8
330
1F
100
AcDbEntity
  8
LAY-10
  6
CONTINUOUS
 62
     7
100
AcDbLine
 10
724.1999999999541
 20
736.2000000000139
 30
0.0
 11
1024.199999999968
 21
736.2000000000139
 31
0.0
  0
LINE
  5
1E9
330
1F
100
AcDbEntity
  8
LAY-10
  6
CONTINUOUS
 62
     7
100
AcDbLine
 10
1039.199999999972
 20
531.2000000000137
 30
0.0
 11
709.1999999999505
 21
531.2000000000137
 31
0.0
  0
LINE
  5
1EA
330
1F
100
AcDbEntity
  8
LAY-10
  6
CONTINUOUS
 62
     7
100
AcDbLine
 10
1037.199999999961
 20
523.2000000000137
 30
0.0
 11
1039.199999999961
 21
531.2000000000137
 31
0.0
  0
ARC
  5
1EB
330
1F
100
AcDbEntity
  8
LAY-10
  6
CONTINUOUS
 62
     7
100
AcDbCircle
 10
1024.199999999968
 20
721.2000000000139
 30
0.0
 40
15.0
100
AcDbArc
 50
0.0
 51
90.00000000000001
  0
LINE
  5
1EC
330
1F
100
AcDbEntity
  8
LAY-10
  6
CONTINUOUS
 62
     7
100
AcDbLine
 10
1039.199999999968
 20
531.2000000000137
 30
0.0
 11
1039.199999999968
 21
721.2000000000139
 31
0.0
  0
LINE
  5
1ED
330
1F
100
AcDbEntity
  8
LAY-10
  6
CONTINUOUS
 62
     7
100
AcDbLine
 10
711.1999999999605
 20
523.2000000000137
 30
0.0
 11
709.1999999999605
 21
531.2000000000137
 31
0.0
  0
ARC
  5
1EE
330
1F
100
AcDbEntity
  8
LAY-10
  6
CONTINUOUS
 62
     7
100
AcDbCircle
 10
724.1999999999541
 20
721.2000000000139
 30
0.0
 40
15.0
100
AcDbArc
 50
90.00000000000001
 51
180.0
  0
LINE
  5
1EF
330
1F
100
AcDbEntity
  8
LAY-10
  6
CONTINUOUS
 62
     7
100
AcDbLine
 10
709.1999999999541
 20
531.2000000000137
 30
0.0
 11
709.1999999999541
 21
721.2000000000139
 31
0.0
  0
ARC
  5
1F0
330
1F
100
AcDbEntity
  8
LAY-10
  6
CONTINUOUS
 62
     7
100
AcDbCircle
 10
874.1999999999607
 20
590.2000000000137
 30
0.0
 40
78.38222057206997
100
AcDbArc
 50
247.8420339243676
 51
292.1579660756325
  0
ARC
  5
1F1
330
1F
100
AcDbEntity
  8
LAY-10
  6
CONTINUOUS
 62
     7
100
AcDbCircle
 10
874.1999999999607
 20
590.2000000000137
 30
0.0
 40
109.0
100
AcDbArc
 50
221.7587361806059
 51
318.2412638193941
  0
LINE
  5
1F2
330
1F
100
AcDbEntity
  8
LAY-10
  6
CONTINUOUS
 62
     7
100
AcDbLine
 10
979.1999999999607
 20
523.2000000000137
 30
0.0
 11
975.1999999999606
 21
517.6064999345638
 31
0.0
  0
LINE
  5
1F3
330
1F
100
AcDbEntity
  8
LAY-10
  6
CONTINUOUS
 62
     7
100
AcDbLine
 10
769.1999999999607
 20
523.2000000000137
 30
0.0
 11
773.1999999999607
 21
517.6064999345638
 31
0.0
  0
CIRCLE
  5
1F4
330
1F
100
AcDbEntity
  8
LAY-10
  6
CONTINUOUS
 62
     7
100
AcDbCircle
 10
739.1999999999207
 20
499.7000000001086
 30
0.0
 40
2.5
  0
LINE
  5
1F5
330
1F
100
AcDbEntity
  8
LAY-10
  6
CONTINUOUS
 62
     7
100
AcDbLine
 10
736.6999999999198
 20
499.7000000001086
 30
0.0
 11
736.6999999999198
 21
519.2000000000578
 31
0.0
  0
LINE
  5
1F6
330
1F
100
AcDbEntity
  8
LAY-10
  6
CONTINUOUS
 62
     7
100
AcDbLine
 10
741.6999999999198
 20
499.7000000001086
 30
0.0
 11
741.6999999999198
 21
519.2000000000578
 31
0.0
  0
CIRCLE
  5
1F7
330
1F
100
AcDbEntity
  8
LAY-10
  6
CONTINUOUS
 62
     7
100
AcDbCircle
 10
1009.200000000021
 20
499.7000000001086
 30
0.0
 40
2.5
  0
LINE
  5
1F8
330
1F
100
AcDbEntity
  8
LAY-10
  6
CONTINUOUS
 62
     7
100
AcDbLine
 10
1006.70000000002
 20
499.7000000001086
 30
0.0
 11
1006.70000000002
 21
519.2000000000578
 31
0.0
  0
LINE
  5
1F9
330
1F
100
AcDbEntity
  8
LAY-10
  6
CONTINUOUS
 62
     7
100
AcDbLine
 10
1011.70000000002
 20
499.7000000001086
 30
0.0
 11
1011.70000000002
 21
519.2000000000578
 31
0.0
  0
LINE
  5
1FA
330
1F
100
AcDbEntity
  8
LAY-10
  6
CONTINUOUS
 62
     7
100
AcDbLine
 10
758.5186988685364
 20
536.2000000000232
 30
0.0
 11
759.1999999992177
 21
549.2000000000232
 31
0.0
  0
LINE
  5
1FB
330
1F
100
AcDbEntity
  8
LAY-10
  6
CONTINUOUS
 62
     7
100
AcDbLine
 10
759.1999999999698
 20
549.1999999999837
 30
0.0
 11
759.1999999999698
 21
708.1999999999846
 31
0.0
  0
ARC
  5
1FC
330
1F
100
AcDbEntity
  8
LAY-10
  6
CONTINUOUS
 62
     7
100
AcDbCircle
 10
764.1999999999698
 20
708.1999999999846
 30
0.0
 40
5.0
100
AcDbArc
 50
90.00000000000001
 51
180.0
  0
LINE
  5
1FD
330
1F
100
AcDbEntity
  8
LAY-10
  6
CONTINUOUS
 62
     7
100
AcDbLine
 10
764.1999999999707
 20
549.1999999999837
 30
0.0
 11
764.1999999999707
 21
705.1999999999846
 31
0.0
  0
ARC
  5
1FE
330
1F
100
AcDbEntity
  8
LAY-10
  6
CONTINUOUS
 62
     7
100
AcDbCircle
 10
767.1999999999707
 20
705.1999999999846
 30
0.0
 40
3.0
100
AcDbArc
 50
90.00000000000001
 51
180.0
  0
LINE
  5
1FF
330
1F
100
AcDbEntity
  8
LAY-10
  6
CONTINUOUS
 62
     7
100
AcDbLine
 10
764.7240777928928
 20
696.2824640740798
 30
0.0
 11
764.3316714144985
 21
705.2057902962954
 31
0.0
  0
LINE
  5
200
330
1F
100
AcDbEntity
  8
LAY-10
  6
CONTINUOUS
 62
     7
100
AcDbLine
 10
764.724077792971
 20
677.1999999999819
 30
0.0
 11
764.724077792971
 21
694.2824640740807
 31
0.0
  0
LINE
  5
201
330
1F
100
AcDbEntity
  8
LAY-10
  6
CONTINUOUS
 62
     7
100
AcDbLine
 10
989.881301131405
 20
536.2000000000232
 30
0.0
 11
989.2000000007247
 21
549.2000000000232
 31
0.0
  0
LINE
  5
202
330
1F
100
AcDbEntity
  8
LAY-10
  6
CONTINUOUS
 62
     7
100
AcDbLine
 10
989.1999999999716
 20
549.1999999999837
 30
0.0
 11
989.1999999999716
 21
708.1999999999846
 31
0.0
  0
ARC
  5
203
330
1F
100
AcDbEntity
  8
LAY-10
  6
CONTINUOUS
 62
     7
100
AcDbCircle
 10
984.1999999999715
 20
708.1999999999846
 30
0.0
 40
5.0
100
AcDbArc
 50
0.0
 51
90.00000000000001
  0
LINE
  5
204
330
1F
100
AcDbEntity
  8
LAY-10
  6
CONTINUOUS
 62
     7
100
AcDbLine
 10
984.1999999999715
 20
549.1999999999837
 30
0.0
 11
984.1999999999715
 21
705.1999999999846
 31
0.0
  0
ARC
  5
205
330
1F
100
AcDbEntity
  8
LAY-10
  6
CONTINUOUS
 62
     7
100
AcDbCircle
 10
981.1999999999715
 20
705.1999999999846
 30
0.0
 40
3.0
100
AcDbArc
 50
0.0
 51
90.00000000000001
  0
LINE
  5
206
330
1F
100
AcDbEntity
  8
LAY-10
  6
CONTINUOUS
 62
     7
100
AcDbLine
 10
983.6759222070496
 20
696.2824640740798
 30
0.0
 11
984.0683285854437
 21
705.2057902962954
 31
0.0
  0
LINE
  5
207
330
1F
100
AcDbEntity
  8
LAY-10
  6
CONTINUOUS
 62
     7
100
AcDbLine
 10
983.6759222069722
 20
677.1999999999819
 30
0.0
 11
983.6759222069722
 21
694.2824640740807
 31
0.0
  0
LINE
  5
208
330
1F
100
AcDbEntity
  8
LAY-10
  6
CONTINUOUS
 62
     7
100
AcDbLine
 10
767.1999999999707
 20
708.1999999999846
 30
0.0
 11
981.1999999999715
 21
708.1999999999846
 31
0.0
  0
LINE
  5
209
330
1F
100
AcDbEntity
  8
LAY-10
  6
CONTINUOUS
 62
     7
100
AcDbLine
 10
758.5186988685709
 20
536.1999999999837
 30
0.0
 11
758.5186988685709
 21
701.2917047946837
 31
0.0
  0
LINE
  5
20A
330
1F
100
AcDbEntity
  8
LAY-10
  6
CONTINUOUS
 62
     7
100
AcDbLine
 10
758.5186988685709
 20
701.2917047946837
 30
0.0
 11
758.9302779519485
 21
708.4855945437305
 31
0.0
  0
LINE
  5
20B
330
1F
100
AcDbEntity
  8
LAY-10
  6
CONTINUOUS
 62
     7
100
AcDbLine
 10
763.9221148640063
 20
713.1999999999846
 30
0.0
 11
984.5025430467504
 21
713.1999999999846
 31
0.0
  0
ARC
  5
20C
330
1F
100
AcDbEntity
  8
LAY-10
  6
CONTINUOUS
 62
     7
100
AcDbCircle
 10
763.9221148640063
 20
708.1999999999846
 30
0.0
 40
5.0
100
AcDbArc
 50
90.00000000000001
 51
176.725545426875
  0
ARC
  5
20D
330
1F
100
AcDbEntity
  8
LAY-10
  6
CONTINUOUS
 62
     7
100
AcDbCircle
 10
984.4778851359359
 20
708.1999999999846
 30
0.0
 40
5.0
100
AcDbArc
 50
3.274454573125019
 51
90.00000000000001
  0
LINE
  5
20E
330
1F
100
AcDbEntity
  8
LAY-10
  6
CONTINUOUS
 62
     7
100
AcDbLine
 10
989.8813011313723
 20
701.2917047946837
 30
0.0
 11
989.4697220479939
 21
708.4855945437305
 31
0.0
  0
LINE
  5
20F
330
1F
100
AcDbEntity
  8
LAY-10
  6
CONTINUOUS
 62
     7
100
AcDbLine
 10
989.8813011313723
 20
536.1999999999837
 30
0.0
 11
989.8813011313723
 21
701.2917047946842
 31
0.0
  0
LINE
  5
210
330
1F
100
AcDbEntity
  8
LAY-10
  6
CONTINUOUS
 62
     7
100
AcDbLine
 10
787.6999999999698
 20
549.1999999998777
 30
0.0
 11
789.8465426273451
 21
537.0263518222098
 31
0.0
  0
ARC
  5
211
330
1F
100
AcDbEntity
  8
LAY-10
  6
CONTINUOUS
 62
     7
100
AcDbCircle
 10
790.8313503803565
 20
537.1999999998768
 30
0.0
 40
1.0
100
AcDbArc
 50
189.999999999991
 51
270.0
  0
ARC
  5
212
330
1F
100
AcDbEntity
  8
LAY-10
  6
CONTINUOUS
 62
     7
100
AcDbCircle
 10
797.5686496195831
 20
537.1999999998768
 30
0.0
 40
1.0
100
AcDbArc
 50
270.0
 51
350.0000000000078
  0
LINE
  5
213
330
1F
100
AcDbEntity
  8
LAY-10
  6
CONTINUOUS
 62
     7
100
AcDbLine
 10
800.6999999999698
 20
549.1999999998777
 30
0.0
 11
798.5534573725945
 21
537.0263518222098
 31
0.0
  0
LINE
  5
214
330
1F
100
AcDbEntity
  8
LAY-10
  6
CONTINUOUS
 62
     7
100
AcDbLine
 10
827.6999999999698
 20
549.1999999998777
 30
0.0
 11
829.8465426273451
 21
537.0263518222098
 31
0.0
  0
ARC
  5
215
330
1F
100
AcDbEntity
  8
LAY-10
  6
CONTINUOUS
 62
     7
100
AcDbCircle
 10
830.8313503803565
 20
537.1999999998768
 30
0.0
 40
1.0
100
AcDbArc
 50
189.999999999991
 51
270.0
  0
ARC
  5
216
330
1F
100
AcDbEntity
  8
LAY-10
  6
CONTINUOUS
 62
     7
100
AcDbCircle
 10
837.568649619583
 20
537.1999999998768
 30
0.0
 40
1.0
100
AcDbArc
 50
270.0
 51
350.0000000000078
  0
LINE
  5
217
330
1F
100
AcDbEntity
  8
LAY-10
  6
CONTINUOUS
 62
     7
100
AcDbLine
 10
840.6999999999697
 20
549.1999999998777
 30
0.0
 11
838.5534573725944
 21
537.0263518222098
 31
0.0
  0
LINE
  5
218
330
1F
100
AcDbEntity
  8
LAY-10
  6
CONTINUOUS
 62
     7
100
AcDbLine
 10
867.6999999999697
 20
549.1999999998777
 30
0.0
 11
869.846542627345
 21
537.0263518222098
 31
0.0
  0
ARC
  5
219
330
1F
100
AcDbEntity
  8
LAY-10
  6
CONTINUOUS
 62
     7
100
AcDbCircle
 10
870.8313503803564
 20
537.1999999998768
 30
0.0
 40
1.0
100
AcDbArc
 50
189.999999999991
 51
270.0
  0
ARC
  5
21A
330
1F
100
AcDbEntity
  8
LAY-10
  6
CONTINUOUS
 62
     7
100
AcDbCircle
 10
877.5686496195831
 20
537.1999999998768
 30
0.0
 40
1.0
100
AcDbArc
 50
270.0
 51
350.0000000000078
  0
LINE
  5
21B
330
1F
100
AcDbEntity
  8
LAY-10
  6
CONTINUOUS
 62
     7
100
AcDbLine
 10
880.6999999999698
 20
549.1999999998777
 30
0.0
 11
878.5534573725945
 21
537.0263518222098
 31
0.0
  0
LINE
  5
21C
330
1F
100
AcDbEntity
  8
LAY-10
  6
CONTINUOUS
 62
     7
100
AcDbLine
 10
907.6999999999698
 20
549.1999999998777
 30
0.0
 11
909.8465426273451
 21
537.0263518222098
 31
0.0
  0
ARC
  5
21D
330
1F
100
AcDbEntity
  8
LAY-10
  6
CONTINUOUS
 62
     7
100
AcDbCircle
 10
910.8313503803565
 20
537.1999999998768
 30
0.0
 40
1.0
100
AcDbArc
 50
189.999999999991
 51
270.0
  0
ARC
  5
21E
330
1F
100
AcDbEntity
  8
LAY-10
  6
CONTINUOUS
 62
     7
100
AcDbCircle
 10
917.5686496195831
 20
537.1999999998768
 30
0.0
 40
1.0
100
AcDbArc
 50
270.0
 51
350.0000000000078
  0
LINE
  5
21F
330
1F
100
AcDbEntity
  8
LAY-10
  6
CONTINUOUS
 62
     7
100
AcDbLine
 10
920.6999999999698
 20
549.1999999998777
 30
0.0
 11
918.5534573725945
 21
537.0263518222098
 31
0.0
  0
LINE
  5
220
330
1F
100
AcDbEntity
  8
LAY-10
  6
CONTINUOUS
 62
     7
100
AcDbLine
 10
947.6999999999698
 20
549.1999999998777
 30
0.0
 11
949.8465426273451
 21
537.0263518222098
 31
0.0
  0
ARC
  5
221
330
1F
100
AcDbEntity
  8
LAY-10
  6
CONTINUOUS
 62
     7
100
AcDbCircle
 10
950.8313503803565
 20
537.1999999998768
 30
0.0
 40
1.0
100
AcDbArc
 50
189.999999999991
 51
270.0
  0
ARC
  5
222
330
1F
100
AcDbEntity
  8
LAY-10
  6
CONTINUOUS
 62
     7
100
AcDbCircle
 10
957.568649619583
 20
537.1999999998768
 30
0.0
 40
1.0
100
AcDbArc
 50
270.0
 51
350.0000000000078
  0
LINE
  5
223
330
1F
100
AcDbEntity
  8
LAY-10
  6
CONTINUOUS
 62
     7
100
AcDbLine
 10
960.6999999999697
 20
549.1999999998777
 30
0.0
 11
958.5534573725944
 21
537.0263518222098
 31
0.0
  0
LINE
  5
224
330
1F
100
AcDbEntity
  8
LAY-10
  6
CONTINUOUS
 62
     7
100
AcDbLine
 10
960.6999999999888
 20
549.1999999999828
 30
0.0
 11
989.1999999999716
 21
549.1999999999828
 31
0.0
  0
LINE
  5
225
330
1F
100
AcDbEntity
  8
LAY-10
  6
CONTINUOUS
 62
     7
100
AcDbLine
 10
920.6999999999889
 20
549.1999999999828
 30
0.0
 11
947.6999999999507
 21
549.1999999999828
 31
0.0
  0
LINE
  5
226
330
1F
100
AcDbEntity
  8
LAY-10
  6
CONTINUOUS
 62
     7
100
AcDbLine
 10
840.6999999999888
 20
549.1999999999828
 30
0.0
 11
867.6999999999506
 21
549.1999999999828
 31
0.0
  0
LINE
  5
227
330
1F
100
AcDbEntity
  8
LAY-10
  6
CONTINUOUS
 62
     7
100
AcDbLine
 10
800.6999999999889
 20
549.1999999999828
 30
0.0
 11
827.6999999999507
 21
549.1999999999828
 31
0.0
  0
LINE
  5
228
330
1F
100
AcDbEntity
  8
LAY-10
  6
CONTINUOUS
 62
     7
100
AcDbLine
 10
759.1999999999698
 20
549.1999999999828
 30
0.0
 11
787.6999999999507
 21
549.1999999999828
 31
0.0
  0
LINE
  5
229
330
1F
100
AcDbEntity
  8
LAY-10
  6
CONTINUOUS
 62
     7
100
AcDbLine
 10
764.8813011307702
 20
549.1999999999828
 30
0.0
 11
764.8813011307702
 21
672.1999999999837
 31
0.0
  0
LINE
  5
22A
330
1F
100
AcDbEntity
  8
LAY-10
  6
CONTINUOUS
 62
     7
100
AcDbLine
 10
983.5186988691721
 20
549.1999999999828
 30
0.0
 11
983.5186988691721
 21
672.1999999999837
 31
0.0
  0
ARC
  5
22B
330
1F
100
AcDbEntity
  8
LAY-10
  6
CONTINUOUS
 62
     7
100
AcDbCircle
 10
766.8813011307702
 20
672.1999999999837
 30
0.0
 40
2.0
100
AcDbArc
 50
95.20103473532474
 51
180.0
  0
ARC
  5
22C
330
1F
100
AcDbEntity
  8
LAY-10
  6
CONTINUOUS
 62
     7
100
AcDbCircle
 10
766.724077792971
 20
677.1999999999819
 30
0.0
 40
2.0
100
AcDbArc
 50
90.68979462244408
 51
180.0
  0
ARC
  5
22D
330
1F
100
AcDbEntity
  8
LAY-10
  6
CONTINUOUS
 62
     7
100
AcDbCircle
 10
766.724077792971
 20
694.2824640740807
 30
0.0
 40
2.0
100
AcDbArc
 50
90.68979462244408
 51
180.0
  0
ARC
  5
22E
330
1F
100
AcDbEntity
  8
LAY-10
  6
CONTINUOUS
 62
     7
100
AcDbCircle
 10
981.518698869172
 20
672.1999999999837
 30
0.0
 40
2.0
100
AcDbArc
 50
0.0
 51
84.79896526418521
  0
ARC
  5
22F
330
1F
100
AcDbEntity
  8
LAY-10
  6
CONTINUOUS
 62
     7
100
AcDbCircle
 10
981.6759222069722
 20
677.1999999999819
 30
0.0
 40
2.0
100
AcDbArc
 50
0.0
 51
89.31020537708689
  0
ARC
  5
230
330
1F
100
AcDbEntity
  8
LAY-10
  6
CONTINUOUS
 62
     7
100
AcDbCircle
 10
981.6759222069722
 20
694.2824640740807
 30
0.0
 40
2.0
100
AcDbArc
 50
0.0
 51
89.31020537708689
  0
ARC
  5
231
330
1F
100
AcDbEntity
  8
LAY-10
  6
CONTINUOUS
 62
     7
100
AcDbCircle
 10
723.1999999999707
 20
532.1999999999837
 30
0.0
 40
4.0
100
AcDbArc
 50
90.00000000000001
 51
180.0
  0
LINE
  5
232
330
1F
100
AcDbEntity
  8
LAY-10
  6
CONTINUOUS
 62
     7
100
AcDbLine
 10
719.1999999999707
 20
531.1999999999837
 30
0.0
 11
719.1999999999707
 21
721.1999999999837
 31
0.0
  0
ARC
  5
233
330
1F
100
AcDbEntity
  8
LAY-10
  6
CONTINUOUS
 62
     7
100
AcDbCircle
 10
724.1999999999707
 20
721.1999999999837
 30
0.0
 40
5.0
100
AcDbArc
 50
90.00000000000001
 51
180.0
  0
ARC
  5
234
330
1F
100
AcDbEntity
  8
LAY-10
  6
CONTINUOUS
 62
     7
100
AcDbCircle
 10
1025.199999999973
 20
532.1999999999837
 30
0.0
 40
4.0
100
AcDbArc
 50
0.0
 51
90.00000000000001
  0
LINE
  5
235
330
1F
100
AcDbEntity
  8
LAY-10
  6
CONTINUOUS
 62
     7
100
AcDbLine
 10
1029.199999999972
 20
531.1999999999837
 30
0.0
 11
1029.199999999972
 21
721.1999999999837
 31
0.0
  0
ARC
  5
236
330
1F
100
AcDbEntity
  8
LAY-10
  6
CONTINUOUS
 62
     7
100
AcDbCircle
 10
1024.199999999972
 20
721.1999999999837
 30
0.0
 40
5.0
100
AcDbArc
 50
0.0
 51
90.00000000000001
  0
LINE
  5
237
330
1F
100
AcDbEntity
  8
LAY-10
  6
CONTINUOUS
 62
     7
100
AcDbLine
 10
723.1999999999707
 20
536.1999999999837
 30
0.0
 11
1025.199999999973
 21
536.1999999999837
 31
0.0
  0
LINE
  5
238
330
1F
100
AcDbEntity
  8
LAY-10
  6
CONTINUOUS
 62
     7
100
AcDbLine
 10
724.1999999999707
 20
726.1999999999837
 30
0.0
 11
1024.199999999972
 21
726.1999999999837
 31
0.0
  0
ARC
  5
239
330
1F
100
AcDbEntity
  8
LAY-10
  6
CONTINUOUS
 62
     7
100
AcDbCircle
 10
779.1999999999389
 20
684.1999999999205
 30
0.0
 40
7.000000000000004
100
AcDbArc
 50
180.0
 51
0.0
  0
LINE
  5
23A
330
1F
100
AcDbEntity
  8
LAY-10
  6
CONTINUOUS
 62
     7
100
AcDbLine
 10
786.1999999999393
 20
684.1999999999205
 30
0.0
 11
786.1999999999393
 21
689.1999999999205
 31
0.0
  0
ARC
  5
23B
330
1F
100
AcDbEntity
  8
LAY-10
  6
CONTINUOUS
 62
     7
100
AcDbCircle
 10
779.1999999999389
 20
689.1999999999205
 30
0.0
 40
7.000000000000004
100
AcDbArc
 50
0.0
 51
180.0
  0
LINE
  5
23C
330
1F
100
AcDbEntity
  8
LAY-10
  6
CONTINUOUS
 62
     7
100
AcDbLine
 10
772.1999999999389
 20
689.1999999999205
 30
0.0
 11
772.1999999999389
 21
684.1999999999205
 31
0.0
  0
LINE
  5
23D
330
1F
100
AcDbEntity
  8
LAY-10
  6
CONTINUOUS
 62
     7
100
AcDbLine
 10
766.6999999999393
 20
702.1999999999202
 30
0.0
 11
981.6999999999397
 21
702.1999999999202
 31
0.0
  0
LINE
  5
23E
330
1F
100
AcDbEntity
  8
LAY-10
  6
CONTINUOUS
 62
     7
100
AcDbLine
 10
766.6999999999393
 20
672.1999999999205
 30
0.0
 11
792.6999999999389
 21
672.1999999999205
 31
0.0
  0
LINE
  5
23F
330
1F
100
AcDbEntity
  8
LAY-10
  6
CONTINUOUS
 62
     7
100
AcDbLine
 10
769.6999999999393
 20
564.3888168178773
 30
0.0
 11
774.6999999999397
 21
564.3888168178773
 31
0.0
  0
LINE
  5
240
330
1F
100
AcDbEntity
  8
LAY-10
  6
CONTINUOUS
 62
     7
100
AcDbLine
 10
821.1999999999389
 20
694.543145750428
 30
0.0
 11
821.1999999999389
 21
631.4426406870359
 31
0.0
  0
LINE
  5
241
330
1F
100
AcDbEntity
  8
LAY-10
  6
CONTINUOUS
 62
     7
100
AcDbLine
 10
813.1999999999388
 20
694.543145750428
 30
0.0
 11
813.1999999999388
 21
631.4426406870359
 31
0.0
  0
LINE
  5
242
330
1F
100
AcDbEntity
  8
LAY-10
  6
CONTINUOUS
 62
     7
100
AcDbLine
 10
801.1999999999388
 20
694.543145750428
 30
0.0
 11
801.1999999999388
 21
631.4426406870359
 31
0.0
  0
LINE
  5
243
330
1F
100
AcDbEntity
  8
LAY-10
  6
CONTINUOUS
 62
     7
100
AcDbLine
 10
823.1999999999389
 20
554.5639610305991
 30
0.0
 11
830.1999999999389
 21
554.5639610305991
 31
0.0
  0
LINE
  5
244
330
1F
100
AcDbEntity
  8
LAY-10
  6
CONTINUOUS
 62
     7
100
AcDbLine
 10
780.6999999999393
 20
672.1999999999205
 30
0.0
 11
780.6999999999393
 21
631.4426406870359
 31
0.0
  0
LINE
  5
245
330
1F
100
AcDbEntity
  8
LAY-10
  6
CONTINUOUS
 62
     7
100
AcDbLine
 10
782.6999999999398
 20
629.4426406870359
 30
0.0
 11
790.6999999999388
 21
629.4426406870359
 31
0.0
  0
LINE
  5
246
330
1F
100
AcDbEntity
  8
LAY-10
  6
CONTINUOUS
 62
     7
100
AcDbLine
 10
782.6999999999398
 20
620.9573593127975
 30
0.0
 11
790.6999999999388
 21
620.9573593127975
 31
0.0
  0
LINE
  5
247
330
1F
100
AcDbEntity
  8
LAY-10
  6
CONTINUOUS
 62
     7
100
AcDbLine
 10
780.6999999999393
 20
618.9573593127975
 30
0.0
 11
780.6999999999393
 21
556.5639610305991
 31
0.0
  0
LINE
  5
248
330
1F
100
AcDbEntity
  8
LAY-10
  6
CONTINUOUS
 62
     7
100
AcDbLine
 10
792.6999999999389
 20
702.1999999999202
 30
0.0
 11
792.6999999999389
 21
631.4426406870359
 31
0.0
  0
LINE
  5
249
330
1F
100
AcDbEntity
  8
LAY-10
  6
CONTINUOUS
 62
     7
100
AcDbLine
 10
803.1999999999389
 20
629.4426406870359
 30
0.0
 11
811.1999999999389
 21
629.4426406870359
 31
0.0
  0
LINE
  5
24A
330
1F
100
AcDbEntity
  8
LAY-10
  6
CONTINUOUS
 62
     7
100
AcDbLine
 10
801.1999999999388
 20
618.9573593127975
 30
0.0
 11
801.1999999999388
 21
556.5639610305991
 31
0.0
  0
LINE
  5
24B
330
1F
100
AcDbEntity
  8
LAY-10
  6
CONTINUOUS
 62
     7
100
AcDbLine
 10
803.1999999999389
 20
620.9573593127975
 30
0.0
 11
811.1999999999389
 21
620.9573593127975
 31
0.0
  0
LINE
  5
24C
330
1F
100
AcDbEntity
  8
LAY-10
  6
CONTINUOUS
 62
     7
100
AcDbLine
 10
813.1999999999388
 20
618.9573593127975
 30
0.0
 11
813.1999999999388
 21
556.5639610305991
 31
0.0
  0
LINE
  5
24D
330
1F
100
AcDbEntity
  8
LAY-10
  6
CONTINUOUS
 62
     7
100
AcDbLine
 10
823.1999999999389
 20
629.4426406870359
 30
0.0
 11
830.1999999999389
 21
629.4426406870359
 31
0.0
  0
LINE
  5
24E
330
1F
100
AcDbEntity
  8
LAY-10
  6
CONTINUOUS
 62
     7
100
AcDbLine
 10
823.1999999999389
 20
620.9573593127975
 30
0.0
 11
830.1999999999389
 21
620.9573593127975
 31
0.0
  0
LINE
  5
24F
330
1F
100
AcDbEntity
  8
LAY-10
  6
CONTINUOUS
 62
     7
100
AcDbLine
 10
821.1999999999389
 20
618.9573593127975
 30
0.0
 11
821.1999999999389
 21
556.5639610305991
 31
0.0
  0
LINE
  5
250
330
1F
100
AcDbEntity
  8
LAY-10
  6
CONTINUOUS
 62
     7
100
AcDbLine
 10
782.6999999999398
 20
554.5639610305991
 30
0.0
 11
790.6999999999388
 21
554.5639610305991
 31
0.0
  0
LINE
  5
251
330
1F
100
AcDbEntity
  8
LAY-10
  6
CONTINUOUS
 62
     7
100
AcDbLine
 10
792.6999999999389
 20
618.9573593127975
 30
0.0
 11
792.6999999999389
 21
556.5639610305991
 31
0.0
  0
LINE
  5
252
330
1F
100
AcDbEntity
  8
LAY-10
  6
CONTINUOUS
 62
     7
100
AcDbLine
 10
803.1999999999389
 20
696.543145750428
 30
0.0
 11
811.1999999999389
 21
696.543145750428
 31
0.0
  0
LINE
  5
253
330
1F
100
AcDbEntity
  8
LAY-10
  6
CONTINUOUS
 62
     7
100
AcDbLine
 10
823.1999999999389
 20
696.543145750428
 30
0.0
 11
830.1999999999389
 21
696.543145750428
 31
0.0
  0
LINE
  5
254
330
1F
100
AcDbEntity
  8
LAY-10
  6
CONTINUOUS
 62
     7
100
AcDbLine
 10
782.6999999999398
 20
617.4218254068646
 30
0.0
 11
790.6999999999388
 21
617.4218254068646
 31
0.0
  0
LINE
  5
255
330
1F
100
AcDbEntity
  8
LAY-10
  6
CONTINUOUS
 62
     7
100
AcDbLine
 10
803.1999999999389
 20
617.4218254068646
 30
0.0
 11
811.1999999999389
 21
617.4218254068646
 31
0.0
  0
LINE
  5
256
330
1F
100
AcDbEntity
  8
LAY-10
  6
CONTINUOUS
 62
     7
100
AcDbLine
 10
823.1999999999389
 20
617.4218254068646
 30
0.0
 11
830.1999999999389
 21
617.4218254068646
 31
0.0
  0
LINE
  5
257
330
1F
100
AcDbEntity
  8
LAY-10
  6
CONTINUOUS
 62
     7
100
AcDbLine
 10
803.1999999999389
 20
693.0076118444952
 30
0.0
 11
811.1999999999389
 21
693.0076118444952
 31
0.0
  0
LINE
  5
258
330
1F
100
AcDbEntity
  8
LAY-10
  6
CONTINUOUS
 62
     7
100
AcDbLine
 10
823.1999999999389
 20
693.0076118444952
 30
0.0
 11
830.1999999999389
 21
693.0076118444952
 31
0.0
  0
LINE
  5
259
330
1F
100
AcDbEntity
  8
LAY-10
  6
CONTINUOUS
 62
     7
100
AcDbLine
 10
803.1999999999389
 20
554.5639610305991
 30
0.0
 11
811.1999999999389
 21
554.5639610305991
 31
0.0
  0
LINE
  5
25A
330
1F
100
AcDbEntity
  8
LAY-10
  6
CONTINUOUS
 62
     7
100
AcDbLine
 10
832.1999999999389
 20
618.9573593127975
 30
0.0
 11
832.1999999999389
 21
556.5639610305991
 31
0.0
  0
LINE
  5
25B
330
1F
100
AcDbEntity
  8
LAY-10
  6
CONTINUOUS
 62
     7
100
AcDbLine
 10
832.1999999999389
 20
694.543145750428
 30
0.0
 11
832.1999999999389
 21
631.4426406870359
 31
0.0
  0
LINE
  5
25C
330
1F
100
AcDbEntity
  8
LAY-10
  6
CONTINUOUS
 62
     7
100
AcDbLine
 10
774.6999999999397
 20
575.7025253168624
 30
0.0
 11
774.6999999999397
 21
564.3888168178773
 31
0.0
  0
ARC
  5
25D
330
1F
100
AcDbEntity
  8
LAY-10
  6
CONTINUOUS
 62
     7
100
AcDbCircle
 10
969.1999999999398
 20
684.1999999999205
 30
0.0
 40
7.000000000000004
100
AcDbArc
 50
180.0
 51
0.0
  0
LINE
  5
25E
330
1F
100
AcDbEntity
  8
LAY-10
  6
CONTINUOUS
 62
     7
100
AcDbLine
 10
962.1999999999397
 20
684.1999999999205
 30
0.0
 11
962.1999999999397
 21
689.1999999999205
 31
0.0
  0
ARC
  5
25F
330
1F
100
AcDbEntity
  8
LAY-10
  6
CONTINUOUS
 62
     7
100
AcDbCircle
 10
969.1999999999398
 20
689.1999999999205
 30
0.0
 40
7.000000000000004
100
AcDbArc
 50
0.0
 51
180.0
  0
LINE
  5
260
330
1F
100
AcDbEntity
  8
LAY-10
  6
CONTINUOUS
 62
     7
100
AcDbLine
 10
976.1999999999398
 20
689.1999999999205
 30
0.0
 11
976.1999999999398
 21
684.1999999999205
 31
0.0
  0
LINE
  5
261
330
1F
100
AcDbEntity
  8
LAY-10
  6
CONTINUOUS
 62
     7
100
AcDbLine
 10
981.6999999999397
 20
672.1999999999205
 30
0.0
 11
955.6999999999398
 21
672.1999999999205
 31
0.0
  0
LINE
  5
262
330
1F
100
AcDbEntity
  8
LAY-10
  6
CONTINUOUS
 62
     7
100
AcDbLine
 10
967.6999999999388
 20
672.1999999999205
 30
0.0
 11
967.6999999999388
 21
631.4426406870359
 31
0.0
  0
LINE
  5
263
330
1F
100
AcDbEntity
  8
LAY-10
  6
CONTINUOUS
 62
     7
100
AcDbLine
 10
955.6999999999398
 20
702.1999999999202
 30
0.0
 11
955.6999999999398
 21
631.4426406870359
 31
0.0
  0
LINE
  5
264
330
1F
100
AcDbEntity
  8
LAY-10
  6
CONTINUOUS
 62
     7
100
AcDbLine
 10
780.6999999999393
 20
666.1999999999202
 30
0.0
 11
792.6999999999389
 21
666.1999999999202
 31
0.0
  0
LINE
  5
265
330
1F
100
AcDbEntity
  8
LAY-10
  6
CONTINUOUS
 62
     7
100
AcDbLine
 10
967.6999999999388
 20
666.1999999999202
 30
0.0
 11
955.6999999999398
 21
666.1999999999202
 31
0.0
  0
ARC
  5
266
330
1F
100
AcDbEntity
  8
LAY-10
  6
CONTINUOUS
 62
     7
100
AcDbCircle
 10
782.6999999999398
 20
556.5639610305991
 30
0.0
 40
2.0
100
AcDbArc
 50
180.0
 51
270.0
  0
ARC
  5
267
330
1F
100
AcDbEntity
  8
LAY-10
  6
CONTINUOUS
 62
     7
100
AcDbCircle
 10
790.6999999999388
 20
556.5639610305991
 30
0.0
 40
2.0
100
AcDbArc
 50
270.0
 51
0.0
  0
ARC
  5
268
330
1F
100
AcDbEntity
  8
LAY-10
  6
CONTINUOUS
 62
     7
100
AcDbCircle
 10
790.6999999999388
 20
618.9573593127975
 30
0.0
 40
2.0
100
AcDbArc
 50
0.0
 51
90.00000000000001
  0
ARC
  5
269
330
1F
100
AcDbEntity
  8
LAY-10
  6
CONTINUOUS
 62
     7
100
AcDbCircle
 10
782.6999999999398
 20
618.9573593127975
 30
0.0
 40
2.0
100
AcDbArc
 50
90.00000000000001
 51
180.0
  0
ARC
  5
26A
330
1F
100
AcDbEntity
  8
LAY-10
  6
CONTINUOUS
 62
     7
100
AcDbCircle
 10
790.6999999999388
 20
631.4426406870359
 30
0.0
 40
2.0
100
AcDbArc
 50
270.0
 51
0.0
  0
ARC
  5
26B
330
1F
100
AcDbEntity
  8
LAY-10
  6
CONTINUOUS
 62
     7
100
AcDbCircle
 10
782.6999999999398
 20
631.4426406870359
 30
0.0
 40
2.0
100
AcDbArc
 50
180.0
 51
270.0
  0
ARC
  5
26C
330
1F
100
AcDbEntity
  8
LAY-10
  6
CONTINUOUS
 62
     7
100
AcDbCircle
 10
790.6999999999388
 20
615.4218254068649
 30
0.0
 40
2.0
100
AcDbArc
 50
0.0
 51
90.00000000000001
  0
ARC
  5
26D
330
1F
100
AcDbEntity
  8
LAY-10
  6
CONTINUOUS
 62
     7
100
AcDbCircle
 10
782.6999999999398
 20
615.4218254068649
 30
0.0
 40
2.0
100
AcDbArc
 50
90.00000000000001
 51
180.0
  0
ARC
  5
26E
330
1F
100
AcDbEntity
  8
LAY-10
  6
CONTINUOUS
 62
     7
100
AcDbCircle
 10
803.1999999999389
 20
694.543145750428
 30
0.0
 40
2.0
100
AcDbArc
 50
90.00000000000001
 51
180.0
  0
ARC
  5
26F
330
1F
100
AcDbEntity
  8
LAY-10
  6
CONTINUOUS
 62
     7
100
AcDbCircle
 10
811.1999999999389
 20
694.543145750428
 30
0.0
 40
2.0
100
AcDbArc
 50
0.0
 51
90.00000000000001
  0
ARC
  5
270
330
1F
100
AcDbEntity
  8
LAY-10
  6
CONTINUOUS
 62
     7
100
AcDbCircle
 10
803.1999999999389
 20
631.4426406870359
 30
0.0
 40
2.0
100
AcDbArc
 50
180.0
 51
270.0
  0
ARC
  5
271
330
1F
100
AcDbEntity
  8
LAY-10
  6
CONTINUOUS
 62
     7
100
AcDbCircle
 10
811.1999999999389
 20
631.4426406870359
 30
0.0
 40
2.0
100
AcDbArc
 50
270.0
 51
0.0
  0
ARC
  5
272
330
1F
100
AcDbEntity
  8
LAY-10
  6
CONTINUOUS
 62
     7
100
AcDbCircle
 10
803.1999999999389
 20
618.9573593127975
 30
0.0
 40
2.0
100
AcDbArc
 50
90.00000000000001
 51
180.0
  0
ARC
  5
273
330
1F
100
AcDbEntity
  8
LAY-10
  6
CONTINUOUS
 62
     7
100
AcDbCircle
 10
811.1999999999389
 20
618.9573593127975
 30
0.0
 40
2.0
100
AcDbArc
 50
0.0
 51
90.00000000000001
  0
ARC
  5
274
330
1F
100
AcDbEntity
  8
LAY-10
  6
CONTINUOUS
 62
     7
100
AcDbCircle
 10
803.1999999999389
 20
556.5639610305991
 30
0.0
 40
2.0
100
AcDbArc
 50
180.0
 51
270.0
  0
ARC
  5
275
330
1F
100
AcDbEntity
  8
LAY-10
  6
CONTINUOUS
 62
     7
100
AcDbCircle
 10
811.1999999999389
 20
556.5639610305991
 30
0.0
 40
2.0
100
AcDbArc
 50
270.0
 51
0.0
  0
ARC
  5
276
330
1F
100
AcDbEntity
  8
LAY-10
  6
CONTINUOUS
 62
     7
100
AcDbCircle
 10
803.1999999999389
 20
615.4218254068649
 30
0.0
 40
2.0
100
AcDbArc
 50
90.00000000000001
 51
180.0
  0
ARC
  5
277
330
1F
100
AcDbEntity
  8
LAY-10
  6
CONTINUOUS
 62
     7
100
AcDbCircle
 10
811.1999999999389
 20
615.4218254068649
 30
0.0
 40
2.0
100
AcDbArc
 50
0.0
 51
90.00000000000001
  0
ARC
  5
278
330
1F
100
AcDbEntity
  8
LAY-10
  6
CONTINUOUS
 62
     7
100
AcDbCircle
 10
803.1999999999389
 20
691.0076118444952
 30
0.0
 40
2.0
100
AcDbArc
 50
90.00000000000001
 51
180.0
  0
ARC
  5
279
330
1F
100
AcDbEntity
  8
LAY-10
  6
CONTINUOUS
 62
     7
100
AcDbCircle
 10
811.1999999999389
 20
691.0076118444952
 30
0.0
 40
2.0
100
AcDbArc
 50
0.0
 51
90.00000000000001
  0
ARC
  5
27A
330
1F
100
AcDbEntity
  8
LAY-10
  6
CONTINUOUS
 62
     7
100
AcDbCircle
 10
823.1999999999389
 20
691.0076118444952
 30
0.0
 40
2.0
100
AcDbArc
 50
90.00000000000001
 51
180.0
  0
ARC
  5
27B
330
1F
100
AcDbEntity
  8
LAY-10
  6
CONTINUOUS
 62
     7
100
AcDbCircle
 10
830.1999999999389
 20
691.0076118444952
 30
0.0
 40
2.0
100
AcDbArc
 50
0.0
 51
90.00000000000001
  0
ARC
  5
27C
330
1F
100
AcDbEntity
  8
LAY-10
  6
CONTINUOUS
 62
     7
100
AcDbCircle
 10
823.1999999999389
 20
615.4218254068649
 30
0.0
 40
2.0
100
AcDbArc
 50
90.00000000000001
 51
180.0
  0
ARC
  5
27D
330
1F
100
AcDbEntity
  8
LAY-10
  6
CONTINUOUS
 62
     7
100
AcDbCircle
 10
830.1999999999389
 20
615.4218254068649
 30
0.0
 40
2.0
100
AcDbArc
 50
0.0
 51
90.00000000000001
  0
ARC
  5
27E
330
1F
100
AcDbEntity
  8
LAY-10
  6
CONTINUOUS
 62
     7
100
AcDbCircle
 10
823.1999999999389
 20
556.5639610305991
 30
0.0
 40
2.0
100
AcDbArc
 50
180.0
 51
270.0
  0
ARC
  5
27F
330
1F
100
AcDbEntity
  8
LAY-10
  6
CONTINUOUS
 62
     7
100
AcDbCircle
 10
830.1999999999389
 20
556.5639610305991
 30
0.0
 40
2.0
100
AcDbArc
 50
270.0
 51
0.0
  0
ARC
  5
280
330
1F
100
AcDbEntity
  8
LAY-10
  6
CONTINUOUS
 62
     7
100
AcDbCircle
 10
823.1999999999389
 20
618.9573593127975
 30
0.0
 40
2.0
100
AcDbArc
 50
90.00000000000001
 51
180.0
  0
ARC
  5
281
330
1F
100
AcDbEntity
  8
LAY-10
  6
CONTINUOUS
 62
     7
100
AcDbCircle
 10
830.1999999999389
 20
618.9573593127975
 30
0.0
 40
2.0
100
AcDbArc
 50
0.0
 51
90.00000000000001
  0
ARC
  5
282
330
1F
100
AcDbEntity
  8
LAY-10
  6
CONTINUOUS
 62
     7
100
AcDbCircle
 10
823.1999999999389
 20
631.4426406870359
 30
0.0
 40
2.0
100
AcDbArc
 50
180.0
 51
270.0
  0
ARC
  5
283
330
1F
100
AcDbEntity
  8
LAY-10
  6
CONTINUOUS
 62
     7
100
AcDbCircle
 10
830.1999999999389
 20
631.4426406870359
 30
0.0
 40
2.0
100
AcDbArc
 50
270.0
 51
0.0
  0
ARC
  5
284
330
1F
100
AcDbEntity
  8
LAY-10
  6
CONTINUOUS
 62
     7
100
AcDbCircle
 10
823.1999999999389
 20
694.543145750428
 30
0.0
 40
2.0
100
AcDbArc
 50
90.00000000000001
 51
180.0
  0
ARC
  5
285
330
1F
100
AcDbEntity
  8
LAY-10
  6
CONTINUOUS
 62
     7
100
AcDbCircle
 10
830.1999999999389
 20
694.543145750428
 30
0.0
 40
2.0
100
AcDbArc
 50
0.0
 51
90.00000000000001
  0
ARC
  5
286
330
1F
100
AcDbEntity
  8
LAY-10
  6
CONTINUOUS
 62
     7
100
AcDbCircle
 10
842.199999999938
 20
691.0076118444952
 30
0.0
 40
2.0
100
AcDbArc
 50
90.00000000000001
 51
180.0
  0
LINE
  5
287
330
1F
100
AcDbEntity
  8
LAY-10
  6
CONTINUOUS
 62
     7
100
AcDbLine
 10
842.199999999938
 20
693.0076118444952
 30
0.0
 11
849.199999999938
 21
693.0076118444952
 31
0.0
  0
ARC
  5
288
330
1F
100
AcDbEntity
  8
LAY-10
  6
CONTINUOUS
 62
     7
100
AcDbCircle
 10
849.199999999938
 20
691.0076118444952
 30
0.0
 40
2.0
100
AcDbArc
 50
0.0
 51
90.00000000000001
  0
ARC
  5
289
330
1F
100
AcDbEntity
  8
LAY-10
  6
CONTINUOUS
 62
     7
100
AcDbCircle
 10
842.199999999938
 20
615.4218254068649
 30
0.0
 40
2.0
100
AcDbArc
 50
90.00000000000001
 51
180.0
  0
LINE
  5
28A
330
1F
100
AcDbEntity
  8
LAY-10
  6
CONTINUOUS
 62
     7
100
AcDbLine
 10
842.199999999938
 20
617.4218254068646
 30
0.0
 11
849.199999999938
 21
617.4218254068646
 31
0.0
  0
ARC
  5
28B
330
1F
100
AcDbEntity
  8
LAY-10
  6
CONTINUOUS
 62
     7
100
AcDbCircle
 10
849.199999999938
 20
615.4218254068649
 30
0.0
 40
2.0
100
AcDbArc
 50
0.0
 51
90.00000000000001
  0
ARC
  5
28C
330
1F
100
AcDbEntity
  8
LAY-10
  6
CONTINUOUS
 62
     7
100
AcDbCircle
 10
842.199999999938
 20
556.5639610305991
 30
0.0
 40
2.0
100
AcDbArc
 50
180.0
 51
270.0
  0
LINE
  5
28D
330
1F
100
AcDbEntity
  8
LAY-10
  6
CONTINUOUS
 62
     7
100
AcDbLine
 10
842.199999999938
 20
554.5639610305991
 30
0.0
 11
849.199999999938
 21
554.5639610305991
 31
0.0
  0
ARC
  5
28E
330
1F
100
AcDbEntity
  8
LAY-10
  6
CONTINUOUS
 62
     7
100
AcDbCircle
 10
849.199999999938
 20
556.5639610305991
 30
0.0
 40
2.0
100
AcDbArc
 50
270.0
 51
0.0
  0
LINE
  5
28F
330
1F
100
AcDbEntity
  8
LAY-10
  6
CONTINUOUS
 62
     7
100
AcDbLine
 10
840.1999999999388
 20
618.9573593127975
 30
0.0
 11
840.1999999999388
 21
556.5639610305991
 31
0.0
  0
ARC
  5
290
330
1F
100
AcDbEntity
  8
LAY-10
  6
CONTINUOUS
 62
     7
100
AcDbCircle
 10
842.199999999938
 20
618.9573593127975
 30
0.0
 40
2.0
100
AcDbArc
 50
90.00000000000001
 51
180.0
  0
LINE
  5
291
330
1F
100
AcDbEntity
  8
LAY-10
  6
CONTINUOUS
 62
     7
100
AcDbLine
 10
851.199999999938
 20
618.9573593127975
 30
0.0
 11
851.199999999938
 21
556.5639610305991
 31
0.0
  0
LINE
  5
292
330
1F
100
AcDbEntity
  8
LAY-10
  6
CONTINUOUS
 62
     7
100
AcDbLine
 10
842.199999999938
 20
620.9573593127975
 30
0.0
 11
849.199999999938
 21
620.9573593127975
 31
0.0
  0
ARC
  5
293
330
1F
100
AcDbEntity
  8
LAY-10
  6
CONTINUOUS
 62
     7
100
AcDbCircle
 10
849.199999999938
 20
618.9573593127975
 30
0.0
 40
2.0
100
AcDbArc
 50
0.0
 51
90.00000000000001
  0
ARC
  5
294
330
1F
100
AcDbEntity
  8
LAY-10
  6
CONTINUOUS
 62
     7
100
AcDbCircle
 10
842.199999999938
 20
631.4426406870359
 30
0.0
 40
2.0
100
AcDbArc
 50
180.0
 51
270.0
  0
LINE
  5
295
330
1F
100
AcDbEntity
  8
LAY-10
  6
CONTINUOUS
 62
     7
100
AcDbLine
 10
842.199999999938
 20
629.4426406870359
 30
0.0
 11
849.199999999938
 21
629.4426406870359
 31
0.0
  0
ARC
  5
296
330
1F
100
AcDbEntity
  8
LAY-10
  6
CONTINUOUS
 62
     7
100
AcDbCircle
 10
849.199999999938
 20
631.4426406870359
 30
0.0
 40
2.0
100
AcDbArc
 50
270.0
 51
0.0
  0
LINE
  5
297
330
1F
100
AcDbEntity
  8
LAY-10
  6
CONTINUOUS
 62
     7
100
AcDbLine
 10
840.1999999999388
 20
694.543145750428
 30
0.0
 11
840.1999999999388
 21
631.4426406870359
 31
0.0
  0
ARC
  5
298
330
1F
100
AcDbEntity
  8
LAY-10
  6
CONTINUOUS
 62
     7
100
AcDbCircle
 10
842.199999999938
 20
694.543145750428
 30
0.0
 40
2.0
100
AcDbArc
 50
90.00000000000001
 51
180.0
  0
LINE
  5
299
330
1F
100
AcDbEntity
  8
LAY-10
  6
CONTINUOUS
 62
     7
100
AcDbLine
 10
851.199999999938
 20
694.543145750428
 30
0.0
 11
851.199999999938
 21
631.4426406870359
 31
0.0
  0
LINE
  5
29A
330
1F
100
AcDbEntity
  8
LAY-10
  6
CONTINUOUS
 62
     7
100
AcDbLine
 10
842.199999999938
 20
696.543145750428
 30
0.0
 11
849.199999999938
 21
696.543145750428
 31
0.0
  0
ARC
  5
29B
330
1F
100
AcDbEntity
  8
LAY-10
  6
CONTINUOUS
 62
     7
100
AcDbCircle
 10
849.199999999938
 20
694.543145750428
 30
0.0
 40
2.0
100
AcDbArc
 50
0.0
 51
90.00000000000001
  0
ARC
  5
29C
330
1F
100
AcDbEntity
  8
LAY-10
  6
CONTINUOUS
 62
     7
100
AcDbCircle
 10
861.199999999938
 20
691.0076118444952
 30
0.0
 40
2.0
100
AcDbArc
 50
90.00000000000001
 51
180.0
  0
LINE
  5
29D
330
1F
100
AcDbEntity
  8
LAY-10
  6
CONTINUOUS
 62
     7
100
AcDbLine
 10
861.199999999938
 20
693.0076118444952
 30
0.0
 11
868.1999999999379
 21
693.0076118444952
 31
0.0
  0
ARC
  5
29E
330
1F
100
AcDbEntity
  8
LAY-10
  6
CONTINUOUS
 62
     7
100
AcDbCircle
 10
868.1999999999379
 20
691.0076118444952
 30
0.0
 40
2.0
100
AcDbArc
 50
0.0
 51
90.00000000000001
  0
ARC
  5
29F
330
1F
100
AcDbEntity
  8
LAY-10
  6
CONTINUOUS
 62
     7
100
AcDbCircle
 10
861.199999999938
 20
615.4218254068649
 30
0.0
 40
2.0
100
AcDbArc
 50
90.00000000000001
 51
180.0
  0
LINE
  5
2A0
330
1F
100
AcDbEntity
  8
LAY-10
  6
CONTINUOUS
 62
     7
100
AcDbLine
 10
861.199999999938
 20
617.4218254068646
 30
0.0
 11
868.1999999999379
 21
617.4218254068646
 31
0.0
  0
ARC
  5
2A1
330
1F
100
AcDbEntity
  8
LAY-10
  6
CONTINUOUS
 62
     7
100
AcDbCircle
 10
868.1999999999379
 20
615.4218254068649
 30
0.0
 40
2.0
100
AcDbArc
 50
0.0
 51
90.00000000000001
  0
ARC
  5
2A2
330
1F
100
AcDbEntity
  8
LAY-10
  6
CONTINUOUS
 62
     7
100
AcDbCircle
 10
861.199999999938
 20
556.5639610305991
 30
0.0
 40
2.0
100
AcDbArc
 50
180.0
 51
270.0
  0
LINE
  5
2A3
330
1F
100
AcDbEntity
  8
LAY-10
  6
CONTINUOUS
 62
     7
100
AcDbLine
 10
861.199999999938
 20
554.5639610305991
 30
0.0
 11
868.1999999999379
 21
554.5639610305991
 31
0.0
  0
ARC
  5
2A4
330
1F
100
AcDbEntity
  8
LAY-10
  6
CONTINUOUS
 62
     7
100
AcDbCircle
 10
868.1999999999379
 20
556.5639610305991
 30
0.0
 40
2.0
100
AcDbArc
 50
270.0
 51
0.0
  0
LINE
  5
2A5
330
1F
100
AcDbEntity
  8
LAY-10
  6
CONTINUOUS
 62
     7
100
AcDbLine
 10
859.1999999999379
 20
618.9573593127975
 30
0.0
 11
859.1999999999379
 21
556.5639610305991
 31
0.0
  0
ARC
  5
2A6
330
1F
100
AcDbEntity
  8
LAY-10
  6
CONTINUOUS
 62
     7
100
AcDbCircle
 10
861.199999999938
 20
618.9573593127975
 30
0.0
 40
2.0
100
AcDbArc
 50
90.00000000000001
 51
180.0
  0
LINE
  5
2A7
330
1F
100
AcDbEntity
  8
LAY-10
  6
CONTINUOUS
 62
     7
100
AcDbLine
 10
870.199999999938
 20
618.9573593127975
 30
0.0
 11
870.199999999938
 21
556.5639610305991
 31
0.0
  0
LINE
  5
2A8
330
1F
100
AcDbEntity
  8
LAY-10
  6
CONTINUOUS
 62
     7
100
AcDbLine
 10
861.199999999938
 20
620.9573593127975
 30
0.0
 11
868.1999999999379
 21
620.9573593127975
 31
0.0
  0
ARC
  5
2A9
330
1F
100
AcDbEntity
  8
LAY-10
  6
CONTINUOUS
 62
     7
100
AcDbCircle
 10
868.1999999999379
 20
618.9573593127975
 30
0.0
 40
2.0
100
AcDbArc
 50
0.0
 51
90.00000000000001
  0
ARC
  5
2AA
330
1F
100
AcDbEntity
  8
LAY-10
  6
CONTINUOUS
 62
     7
100
AcDbCircle
 10
861.199999999938
 20
631.4426406870359
 30
0.0
 40
2.0
100
AcDbArc
 50
180.0
 51
270.0
  0
LINE
  5
2AB
330
1F
100
AcDbEntity
  8
LAY-10
  6
CONTINUOUS
 62
     7
100
AcDbLine
 10
861.199999999938
 20
629.4426406870359
 30
0.0
 11
868.1999999999379
 21
629.4426406870359
 31
0.0
  0
ARC
  5
2AC
330
1F
100
AcDbEntity
  8
LAY-10
  6
CONTINUOUS
 62
     7
100
AcDbCircle
 10
868.1999999999379
 20
631.4426406870359
 30
0.0
 40
2.0
100
AcDbArc
 50
270.0
 51
0.0
  0
LINE
  5
2AD
330
1F
100
AcDbEntity
  8
LAY-10
  6
CONTINUOUS
 62
     7
100
AcDbLine
 10
859.1999999999379
 20
694.543145750428
 30
0.0
 11
859.1999999999379
 21
631.4426406870359
 31
0.0
  0
ARC
  5
2AE
330
1F
100
AcDbEntity
  8
LAY-10
  6
CONTINUOUS
 62
     7
100
AcDbCircle
 10
861.199999999938
 20
694.543145750428
 30
0.0
 40
2.0
100
AcDbArc
 50
90.00000000000001
 51
180.0
  0
LINE
  5
2AF
330
1F
100
AcDbEntity
  8
LAY-10
  6
CONTINUOUS
 62
     7
100
AcDbLine
 10
870.199999999938
 20
694.543145750428
 30
0.0
 11
870.199999999938
 21
631.4426406870359
 31
0.0
  0
LINE
  5
2B0
330
1F
100
AcDbEntity
  8
LAY-10
  6
CONTINUOUS
 62
     7
100
AcDbLine
 10
861.199999999938
 20
696.543145750428
 30
0.0
 11
868.1999999999379
 21
696.543145750428
 31
0.0
  0
ARC
  5
2B1
330
1F
100
AcDbEntity
  8
LAY-10
  6
CONTINUOUS
 62
     7
100
AcDbCircle
 10
868.1999999999379
 20
694.543145750428
 30
0.0
 40
2.0
100
AcDbArc
 50
0.0
 51
90.00000000000001
  0
ARC
  5
2B2
330
1F
100
AcDbEntity
  8
LAY-10
  6
CONTINUOUS
 62
     7
100
AcDbCircle
 10
965.6999999999398
 20
556.5639610305991
 30
0.0
 40
2.0
100
AcDbArc
 50
270.0
 51
0.0
  0
LINE
  5
2B3
330
1F
100
AcDbEntity
  8
LAY-10
  6
CONTINUOUS
 62
     7
100
AcDbLine
 10
965.6999999999398
 20
554.5639610305991
 30
0.0
 11
957.6999999999397
 21
554.5639610305991
 31
0.0
  0
ARC
  5
2B4
330
1F
100
AcDbEntity
  8
LAY-10
  6
CONTINUOUS
 62
     7
100
AcDbCircle
 10
957.6999999999397
 20
556.5639610305991
 30
0.0
 40
2.0
100
AcDbArc
 50
180.0
 51
270.0
  0
LINE
  5
2B5
330
1F
100
AcDbEntity
  8
LAY-10
  6
CONTINUOUS
 62
     7
100
AcDbLine
 10
955.6999999999398
 20
618.9573593127975
 30
0.0
 11
955.6999999999398
 21
556.5639610305991
 31
0.0
  0
ARC
  5
2B6
330
1F
100
AcDbEntity
  8
LAY-10
  6
CONTINUOUS
 62
     7
100
AcDbCircle
 10
957.6999999999397
 20
618.9573593127975
 30
0.0
 40
2.0
100
AcDbArc
 50
90.00000000000001
 51
180.0
  0
LINE
  5
2B7
330
1F
100
AcDbEntity
  8
LAY-10
  6
CONTINUOUS
 62
     7
100
AcDbLine
 10
967.6999999999388
 20
618.9573593127975
 30
0.0
 11
967.6999999999388
 21
556.5639610305991
 31
0.0
  0
LINE
  5
2B8
330
1F
100
AcDbEntity
  8
LAY-10
  6
CONTINUOUS
 62
     7
100
AcDbLine
 10
965.6999999999398
 20
620.9573593127975
 30
0.0
 11
957.6999999999397
 21
620.9573593127975
 31
0.0
  0
ARC
  5
2B9
330
1F
100
AcDbEntity
  8
LAY-10
  6
CONTINUOUS
 62
     7
100
AcDbCircle
 10
965.6999999999398
 20
618.9573593127975
 30
0.0
 40
2.0
100
AcDbArc
 50
0.0
 51
90.00000000000001
  0
ARC
  5
2BA
330
1F
100
AcDbEntity
  8
LAY-10
  6
CONTINUOUS
 62
     7
100
AcDbCircle
 10
957.6999999999397
 20
631.4426406870359
 30
0.0
 40
2.0
100
AcDbArc
 50
180.0
 51
270.0
  0
LINE
  5
2BB
330
1F
100
AcDbEntity
  8
LAY-10
  6
CONTINUOUS
 62
     7
100
AcDbLine
 10
965.6999999999398
 20
629.4426406870359
 30
0.0
 11
957.6999999999397
 21
629.4426406870359
 31
0.0
  0
ARC
  5
2BC
330
1F
100
AcDbEntity
  8
LAY-10
  6
CONTINUOUS
 62
     7
100
AcDbCircle
 10
965.6999999999398
 20
631.4426406870359
 30
0.0
 40
2.0
100
AcDbArc
 50
270.0
 51
0.0
  0
ARC
  5
2BD
330
1F
100
AcDbEntity
  8
LAY-10
  6
CONTINUOUS
 62
     7
100
AcDbCircle
 10
957.6999999999397
 20
615.4218254068649
 30
0.0
 40
2.0
100
AcDbArc
 50
90.00000000000001
 51
180.0
  0
LINE
  5
2BE
330
1F
100
AcDbEntity
  8
LAY-10
  6
CONTINUOUS
 62
     7
100
AcDbLine
 10
965.6999999999398
 20
617.4218254068646
 30
0.0
 11
957.6999999999397
 21
617.4218254068646
 31
0.0
  0
ARC
  5
2BF
330
1F
100
AcDbEntity
  8
LAY-10
  6
CONTINUOUS
 62
     7
100
AcDbCircle
 10
965.6999999999398
 20
615.4218254068649
 30
0.0
 40
2.0
100
AcDbArc
 50
0.0
 51
90.00000000000001
  0
LINE
  5
2C0
330
1F
100
AcDbEntity
  8
LAY-10
  6
CONTINUOUS
 62
     7
100
AcDbLine
 10
935.1999999999397
 20
694.543145750428
 30
0.0
 11
935.1999999999397
 21
631.4426406870359
 31
0.0
  0
LINE
  5
2C1
330
1F
100
AcDbEntity
  8
LAY-10
  6
CONTINUOUS
 62
     7
100
AcDbLine
 10
947.1999999999397
 20
694.543145750428
 30
0.0
 11
947.1999999999397
 21
631.4426406870359
 31
0.0
  0
LINE
  5
2C2
330
1F
100
AcDbEntity
  8
LAY-10
  6
CONTINUOUS
 62
     7
100
AcDbLine
 10
945.1999999999398
 20
629.4426406870359
 30
0.0
 11
937.1999999999398
 21
629.4426406870359
 31
0.0
  0
LINE
  5
2C3
330
1F
100
AcDbEntity
  8
LAY-10
  6
CONTINUOUS
 62
     7
100
AcDbLine
 10
947.1999999999397
 20
618.9573593127975
 30
0.0
 11
947.1999999999397
 21
556.5639610305991
 31
0.0
  0
LINE
  5
2C4
330
1F
100
AcDbEntity
  8
LAY-10
  6
CONTINUOUS
 62
     7
100
AcDbLine
 10
945.1999999999398
 20
620.9573593127975
 30
0.0
 11
937.1999999999398
 21
620.9573593127975
 31
0.0
  0
LINE
  5
2C5
330
1F
100
AcDbEntity
  8
LAY-10
  6
CONTINUOUS
 62
     7
100
AcDbLine
 10
935.1999999999397
 20
618.9573593127975
 30
0.0
 11
935.1999999999397
 21
556.5639610305991
 31
0.0
  0
LINE
  5
2C6
330
1F
100
AcDbEntity
  8
LAY-10
  6
CONTINUOUS
 62
     7
100
AcDbLine
 10
945.1999999999398
 20
696.543145750428
 30
0.0
 11
937.1999999999398
 21
696.543145750428
 31
0.0
  0
LINE
  5
2C7
330
1F
100
AcDbEntity
  8
LAY-10
  6
CONTINUOUS
 62
     7
100
AcDbLine
 10
945.1999999999398
 20
617.4218254068646
 30
0.0
 11
937.1999999999398
 21
617.4218254068646
 31
0.0
  0
LINE
  5
2C8
330
1F
100
AcDbEntity
  8
LAY-10
  6
CONTINUOUS
 62
     7
100
AcDbLine
 10
945.1999999999398
 20
693.0076118444952
 30
0.0
 11
937.1999999999398
 21
693.0076118444952
 31
0.0
  0
LINE
  5
2C9
330
1F
100
AcDbEntity
  8
LAY-10
  6
CONTINUOUS
 62
     7
100
AcDbLine
 10
945.1999999999398
 20
554.5639610305991
 30
0.0
 11
937.1999999999398
 21
554.5639610305991
 31
0.0
  0
ARC
  5
2CA
330
1F
100
AcDbEntity
  8
LAY-10
  6
CONTINUOUS
 62
     7
100
AcDbCircle
 10
945.1999999999398
 20
694.543145750428
 30
0.0
 40
2.0
100
AcDbArc
 50
0.0
 51
90.00000000000001
  0
ARC
  5
2CB
330
1F
100
AcDbEntity
  8
LAY-10
  6
CONTINUOUS
 62
     7
100
AcDbCircle
 10
937.1999999999398
 20
694.543145750428
 30
0.0
 40
2.0
100
AcDbArc
 50
90.00000000000001
 51
180.0
  0
ARC
  5
2CC
330
1F
100
AcDbEntity
  8
LAY-10
  6
CONTINUOUS
 62
     7
100
AcDbCircle
 10
945.1999999999398
 20
631.4426406870359
 30
0.0
 40
2.0
100
AcDbArc
 50
270.0
 51
0.0
  0
ARC
  5
2CD
330
1F
100
AcDbEntity
  8
LAY-10
  6
CONTINUOUS
 62
     7
100
AcDbCircle
 10
937.1999999999398
 20
631.4426406870359
 30
0.0
 40
2.0
100
AcDbArc
 50
180.0
 51
270.0
  0
ARC
  5
2CE
330
1F
100
AcDbEntity
  8
LAY-10
  6
CONTINUOUS
 62
     7
100
AcDbCircle
 10
945.1999999999398
 20
618.9573593127975
 30
0.0
 40
2.0
100
AcDbArc
 50
0.0
 51
90.00000000000001
  0
ARC
  5
2CF
330
1F
100
AcDbEntity
  8
LAY-10
  6
CONTINUOUS
 62
     7
100
AcDbCircle
 10
937.1999999999398
 20
618.9573593127975
 30
0.0
 40
2.0
100
AcDbArc
 50
90.00000000000001
 51
180.0
  0
ARC
  5
2D0
330
1F
100
AcDbEntity
  8
LAY-10
  6
CONTINUOUS
 62
     7
100
AcDbCircle
 10
945.1999999999398
 20
556.5639610305991
 30
0.0
 40
2.0
100
AcDbArc
 50
270.0
 51
0.0
  0
ARC
  5
2D1
330
1F
100
AcDbEntity
  8
LAY-10
  6
CONTINUOUS
 62
     7
100
AcDbCircle
 10
937.1999999999398
 20
556.5639610305991
 30
0.0
 40
2.0
100
AcDbArc
 50
180.0
 51
270.0
  0
ARC
  5
2D2
330
1F
100
AcDbEntity
  8
LAY-10
  6
CONTINUOUS
 62
     7
100
AcDbCircle
 10
945.1999999999398
 20
615.4218254068649
 30
0.0
 40
2.0
100
AcDbArc
 50
0.0
 51
90.00000000000001
  0
ARC
  5
2D3
330
1F
100
AcDbEntity
  8
LAY-10
  6
CONTINUOUS
 62
     7
100
AcDbCircle
 10
937.1999999999398
 20
615.4218254068649
 30
0.0
 40
2.0
100
AcDbArc
 50
90.00000000000001
 51
180.0
  0
ARC
  5
2D4
330
1F
100
AcDbEntity
  8
LAY-10
  6
CONTINUOUS
 62
     7
100
AcDbCircle
 10
945.1999999999398
 20
691.0076118444952
 30
0.0
 40
2.0
100
AcDbArc
 50
0.0
 51
90.00000000000001
  0
ARC
  5
2D5
330
1F
100
AcDbEntity
  8
LAY-10
  6
CONTINUOUS
 62
     7
100
AcDbCircle
 10
937.1999999999398
 20
691.0076118444952
 30
0.0
 40
2.0
100
AcDbArc
 50
90.00000000000001
 51
180.0
  0
LINE
  5
2D6
330
1F
100
AcDbEntity
  8
LAY-10
  6
CONTINUOUS
 62
     7
100
AcDbLine
 10
927.1999999999398
 20
694.543145750428
 30
0.0
 11
927.1999999999398
 21
631.4426406870359
 31
0.0
  0
LINE
  5
2D7
330
1F
100
AcDbEntity
  8
LAY-10
  6
CONTINUOUS
 62
     7
100
AcDbLine
 10
925.1999999999398
 20
554.5639610305991
 30
0.0
 11
918.1999999999398
 21
554.5639610305991
 31
0.0
  0
LINE
  5
2D8
330
1F
100
AcDbEntity
  8
LAY-10
  6
CONTINUOUS
 62
     7
100
AcDbLine
 10
925.1999999999398
 20
629.4426406870359
 30
0.0
 11
918.1999999999398
 21
629.4426406870359
 31
0.0
  0
LINE
  5
2D9
330
1F
100
AcDbEntity
  8
LAY-10
  6
CONTINUOUS
 62
     7
100
AcDbLine
 10
925.1999999999398
 20
620.9573593127975
 30
0.0
 11
918.1999999999398
 21
620.9573593127975
 31
0.0
  0
LINE
  5
2DA
330
1F
100
AcDbEntity
  8
LAY-10
  6
CONTINUOUS
 62
     7
100
AcDbLine
 10
927.1999999999398
 20
618.9573593127975
 30
0.0
 11
927.1999999999398
 21
556.5639610305991
 31
0.0
  0
LINE
  5
2DB
330
1F
100
AcDbEntity
  8
LAY-10
  6
CONTINUOUS
 62
     7
100
AcDbLine
 10
925.1999999999398
 20
696.543145750428
 30
0.0
 11
918.1999999999398
 21
696.543145750428
 31
0.0
  0
LINE
  5
2DC
330
1F
100
AcDbEntity
  8
LAY-10
  6
CONTINUOUS
 62
     7
100
AcDbLine
 10
925.1999999999398
 20
617.4218254068646
 30
0.0
 11
918.1999999999398
 21
617.4218254068646
 31
0.0
  0
LINE
  5
2DD
330
1F
100
AcDbEntity
  8
LAY-10
  6
CONTINUOUS
 62
     7
100
AcDbLine
 10
925.1999999999398
 20
693.0076118444952
 30
0.0
 11
918.1999999999398
 21
693.0076118444952
 31
0.0
  0
LINE
  5
2DE
330
1F
100
AcDbEntity
  8
LAY-10
  6
CONTINUOUS
 62
     7
100
AcDbLine
 10
916.1999999999398
 20
618.9573593127975
 30
0.0
 11
916.1999999999398
 21
556.5639610305991
 31
0.0
  0
LINE
  5
2DF
330
1F
100
AcDbEntity
  8
LAY-10
  6
CONTINUOUS
 62
     7
100
AcDbLine
 10
916.1999999999398
 20
694.543145750428
 30
0.0
 11
916.1999999999398
 21
631.4426406870359
 31
0.0
  0
ARC
  5
2E0
330
1F
100
AcDbEntity
  8
LAY-10
  6
CONTINUOUS
 62
     7
100
AcDbCircle
 10
925.1999999999398
 20
691.0076118444952
 30
0.0
 40
2.0
100
AcDbArc
 50
0.0
 51
90.00000000000001
  0
ARC
  5
2E1
330
1F
100
AcDbEntity
  8
LAY-10
  6
CONTINUOUS
 62
     7
100
AcDbCircle
 10
918.1999999999398
 20
691.0076118444952
 30
0.0
 40
2.0
100
AcDbArc
 50
90.00000000000001
 51
180.0
  0
ARC
  5
2E2
330
1F
100
AcDbEntity
  8
LAY-10
  6
CONTINUOUS
 62
     7
100
AcDbCircle
 10
925.1999999999398
 20
615.4218254068649
 30
0.0
 40
2.0
100
AcDbArc
 50
0.0
 51
90.00000000000001
  0
ARC
  5
2E3
330
1F
100
AcDbEntity
  8
LAY-10
  6
CONTINUOUS
 62
     7
100
AcDbCircle
 10
918.1999999999398
 20
615.4218254068649
 30
0.0
 40
2.0
100
AcDbArc
 50
90.00000000000001
 51
180.0
  0
ARC
  5
2E4
330
1F
100
AcDbEntity
  8
LAY-10
  6
CONTINUOUS
 62
     7
100
AcDbCircle
 10
925.1999999999398
 20
556.5639610305991
 30
0.0
 40
2.0
100
AcDbArc
 50
270.0
 51
0.0
  0
ARC
  5
2E5
330
1F
100
AcDbEntity
  8
LAY-10
  6
CONTINUOUS
 62
     7
100
AcDbCircle
 10
918.1999999999398
 20
556.5639610305991
 30
0.0
 40
2.0
100
AcDbArc
 50
180.0
 51
270.0
  0
ARC
  5
2E6
330
1F
100
AcDbEntity
  8
LAY-10
  6
CONTINUOUS
 62
     7
100
AcDbCircle
 10
925.1999999999398
 20
618.9573593127975
 30
0.0
 40
2.0
100
AcDbArc
 50
0.0
 51
90.00000000000001
  0
ARC
  5
2E7
330
1F
100
AcDbEntity
  8
LAY-10
  6
CONTINUOUS
 62
     7
100
AcDbCircle
 10
918.1999999999398
 20
618.9573593127975
 30
0.0
 40
2.0
100
AcDbArc
 50
90.00000000000001
 51
180.0
  0
ARC
  5
2E8
330
1F
100
AcDbEntity
  8
LAY-10
  6
CONTINUOUS
 62
     7
100
AcDbCircle
 10
925.1999999999398
 20
631.4426406870359
 30
0.0
 40
2.0
100
AcDbArc
 50
270.0
 51
0.0
  0
ARC
  5
2E9
330
1F
100
AcDbEntity
  8
LAY-10
  6
CONTINUOUS
 62
     7
100
AcDbCircle
 10
918.1999999999398
 20
631.4426406870359
 30
0.0
 40
2.0
100
AcDbArc
 50
180.0
 51
270.0
  0
ARC
  5
2EA
330
1F
100
AcDbEntity
  8
LAY-10
  6
CONTINUOUS
 62
     7
100
AcDbCircle
 10
925.1999999999398
 20
694.543145750428
 30
0.0
 40
2.0
100
AcDbArc
 50
0.0
 51
90.00000000000001
  0
ARC
  5
2EB
330
1F
100
AcDbEntity
  8
LAY-10
  6
CONTINUOUS
 62
     7
100
AcDbCircle
 10
918.1999999999398
 20
694.543145750428
 30
0.0
 40
2.0
100
AcDbArc
 50
90.00000000000001
 51
180.0
  0
ARC
  5
2EC
330
1F
100
AcDbEntity
  8
LAY-10
  6
CONTINUOUS
 62
     7
100
AcDbCircle
 10
906.1999999999407
 20
691.0076118444952
 30
0.0
 40
2.0
100
AcDbArc
 50
0.0
 51
90.00000000000001
  0
LINE
  5
2ED
330
1F
100
AcDbEntity
  8
LAY-10
  6
CONTINUOUS
 62
     7
100
AcDbLine
 10
906.1999999999407
 20
693.0076118444952
 30
0.0
 11
899.1999999999407
 21
693.0076118444952
 31
0.0
  0
ARC
  5
2EE
330
1F
100
AcDbEntity
  8
LAY-10
  6
CONTINUOUS
 62
     7
100
AcDbCircle
 10
899.1999999999407
 20
691.0076118444952
 30
0.0
 40
2.0
100
AcDbArc
 50
90.00000000000001
 51
180.0
  0
ARC
  5
2EF
330
1F
100
AcDbEntity
  8
LAY-10
  6
CONTINUOUS
 62
     7
100
AcDbCircle
 10
906.1999999999407
 20
615.4218254068649
 30
0.0
 40
2.0
100
AcDbArc
 50
0.0
 51
90.00000000000001
  0
LINE
  5
2F0
330
1F
100
AcDbEntity
  8
LAY-10
  6
CONTINUOUS
 62
     7
100
AcDbLine
 10
906.1999999999407
 20
617.4218254068646
 30
0.0
 11
899.1999999999407
 21
617.4218254068646
 31
0.0
  0
ARC
  5
2F1
330
1F
100
AcDbEntity
  8
LAY-10
  6
CONTINUOUS
 62
     7
100
AcDbCircle
 10
899.1999999999407
 20
615.4218254068649
 30
0.0
 40
2.0
100
AcDbArc
 50
90.00000000000001
 51
180.0
  0
ARC
  5
2F2
330
1F
100
AcDbEntity
  8
LAY-10
  6
CONTINUOUS
 62
     7
100
AcDbCircle
 10
906.1999999999407
 20
556.5639610305991
 30
0.0
 40
2.0
100
AcDbArc
 50
270.0
 51
0.0
  0
LINE
  5
2F3
330
1F
100
AcDbEntity
  8
LAY-10
  6
CONTINUOUS
 62
     7
100
AcDbLine
 10
906.1999999999407
 20
554.5639610305991
 30
0.0
 11
899.1999999999407
 21
554.5639610305991
 31
0.0
  0
ARC
  5
2F4
330
1F
100
AcDbEntity
  8
LAY-10
  6
CONTINUOUS
 62
     7
100
AcDbCircle
 10
899.1999999999407
 20
556.5639610305991
 30
0.0
 40
2.0
100
AcDbArc
 50
180.0
 51
270.0
  0
LINE
  5
2F5
330
1F
100
AcDbEntity
  8
LAY-10
  6
CONTINUOUS
 62
     7
100
AcDbLine
 10
908.1999999999407
 20
618.9573593127975
 30
0.0
 11
908.1999999999407
 21
556.5639610305991
 31
0.0
  0
ARC
  5
2F6
330
1F
100
AcDbEntity
  8
LAY-10
  6
CONTINUOUS
 62
     7
100
AcDbCircle
 10
906.1999999999407
 20
618.9573593127975
 30
0.0
 40
2.0
100
AcDbArc
 50
0.0
 51
90.00000000000001
  0
LINE
  5
2F7
330
1F
100
AcDbEntity
  8
LAY-10
  6
CONTINUOUS
 62
     7
100
AcDbLine
 10
897.1999999999407
 20
618.9573593127975
 30
0.0
 11
897.1999999999407
 21
556.5639610305991
 31
0.0
  0
LINE
  5
2F8
330
1F
100
AcDbEntity
  8
LAY-10
  6
CONTINUOUS
 62
     7
100
AcDbLine
 10
906.1999999999407
 20
620.9573593127975
 30
0.0
 11
899.1999999999407
 21
620.9573593127975
 31
0.0
  0
ARC
  5
2F9
330
1F
100
AcDbEntity
  8
LAY-10
  6
CONTINUOUS
 62
     7
100
AcDbCircle
 10
899.1999999999407
 20
618.9573593127975
 30
0.0
 40
2.0
100
AcDbArc
 50
90.00000000000001
 51
180.0
  0
ARC
  5
2FA
330
1F
100
AcDbEntity
  8
LAY-10
  6
CONTINUOUS
 62
     7
100
AcDbCircle
 10
906.1999999999407
 20
631.4426406870359
 30
0.0
 40
2.0
100
AcDbArc
 50
270.0
 51
0.0
  0
LINE
  5
2FB
330
1F
100
AcDbEntity
  8
LAY-10
  6
CONTINUOUS
 62
     7
100
AcDbLine
 10
906.1999999999407
 20
629.4426406870359
 30
0.0
 11
899.1999999999407
 21
629.4426406870359
 31
0.0
  0
ARC
  5
2FC
330
1F
100
AcDbEntity
  8
LAY-10
  6
CONTINUOUS
 62
     7
100
AcDbCircle
 10
899.1999999999407
 20
631.4426406870359
 30
0.0
 40
2.0
100
AcDbArc
 50
180.0
 51
270.0
  0
LINE
  5
2FD
330
1F
100
AcDbEntity
  8
LAY-10
  6
CONTINUOUS
 62
     7
100
AcDbLine
 10
908.1999999999407
 20
694.543145750428
 30
0.0
 11
908.1999999999407
 21
631.4426406870359
 31
0.0
  0
ARC
  5
2FE
330
1F
100
AcDbEntity
  8
LAY-10
  6
CONTINUOUS
 62
     7
100
AcDbCircle
 10
906.1999999999407
 20
694.543145750428
 30
0.0
 40
2.0
100
AcDbArc
 50
0.0
 51
90.00000000000001
  0
LINE
  5
2FF
330
1F
100
AcDbEntity
  8
LAY-10
  6
CONTINUOUS
 62
     7
100
AcDbLine
 10
897.1999999999407
 20
694.543145750428
 30
0.0
 11
897.1999999999407
 21
631.4426406870359
 31
0.0
  0
LINE
  5
300
330
1F
100
AcDbEntity
  8
LAY-10
  6
CONTINUOUS
 62
     7
100
AcDbLine
 10
906.1999999999407
 20
696.543145750428
 30
0.0
 11
899.1999999999407
 21
696.543145750428
 31
0.0
  0
ARC
  5
301
330
1F
100
AcDbEntity
  8
LAY-10
  6
CONTINUOUS
 62
     7
100
AcDbCircle
 10
899.1999999999407
 20
694.543145750428
 30
0.0
 40
2.0
100
AcDbArc
 50
90.00000000000001
 51
180.0
  0
ARC
  5
302
330
1F
100
AcDbEntity
  8
LAY-10
  6
CONTINUOUS
 62
     7
100
AcDbCircle
 10
887.1999999999416
 20
691.0076118444952
 30
0.0
 40
2.0
100
AcDbArc
 50
0.0
 51
90.00000000000001
  0
LINE
  5
303
330
1F
100
AcDbEntity
  8
LAY-10
  6
CONTINUOUS
 62
     7
100
AcDbLine
 10
887.1999999999416
 20
693.0076118444952
 30
0.0
 11
880.1999999999416
 21
693.0076118444952
 31
0.0
  0
ARC
  5
304
330
1F
100
AcDbEntity
  8
LAY-10
  6
CONTINUOUS
 62
     7
100
AcDbCircle
 10
880.1999999999416
 20
691.0076118444952
 30
0.0
 40
2.0
100
AcDbArc
 50
90.00000000000001
 51
180.0
  0
ARC
  5
305
330
1F
100
AcDbEntity
  8
LAY-10
  6
CONTINUOUS
 62
     7
100
AcDbCircle
 10
887.1999999999416
 20
615.4218254068649
 30
0.0
 40
2.0
100
AcDbArc
 50
0.0
 51
90.00000000000001
  0
LINE
  5
306
330
1F
100
AcDbEntity
  8
LAY-10
  6
CONTINUOUS
 62
     7
100
AcDbLine
 10
887.1999999999416
 20
617.4218254068646
 30
0.0
 11
880.1999999999416
 21
617.4218254068646
 31
0.0
  0
ARC
  5
307
330
1F
100
AcDbEntity
  8
LAY-10
  6
CONTINUOUS
 62
     7
100
AcDbCircle
 10
880.1999999999416
 20
615.4218254068649
 30
0.0
 40
2.0
100
AcDbArc
 50
90.00000000000001
 51
180.0
  0
ARC
  5
308
330
1F
100
AcDbEntity
  8
LAY-10
  6
CONTINUOUS
 62
     7
100
AcDbCircle
 10
887.1999999999416
 20
556.5639610305991
 30
0.0
 40
2.0
100
AcDbArc
 50
270.0
 51
0.0
  0
LINE
  5
309
330
1F
100
AcDbEntity
  8
LAY-10
  6
CONTINUOUS
 62
     7
100
AcDbLine
 10
887.1999999999416
 20
554.5639610305991
 30
0.0
 11
880.1999999999416
 21
554.5639610305991
 31
0.0
  0
ARC
  5
30A
330
1F
100
AcDbEntity
  8
LAY-10
  6
CONTINUOUS
 62
     7
100
AcDbCircle
 10
880.1999999999416
 20
556.5639610305991
 30
0.0
 40
2.0
100
AcDbArc
 50
180.0
 51
270.0
  0
LINE
  5
30B
330
1F
100
AcDbEntity
  8
LAY-10
  6
CONTINUOUS
 62
     7
100
AcDbLine
 10
889.1999999999406
 20
618.9573593127975
 30
0.0
 11
889.1999999999406
 21
556.5639610305991
 31
0.0
  0
ARC
  5
30C
330
1F
100
AcDbEntity
  8
LAY-10
  6
CONTINUOUS
 62
     7
100
AcDbCircle
 10
887.1999999999416
 20
618.9573593127975
 30
0.0
 40
2.0
100
AcDbArc
 50
0.0
 51
90.00000000000001
  0
LINE
  5
30D
330
1F
100
AcDbEntity
  8
LAY-10
  6
CONTINUOUS
 62
     7
100
AcDbLine
 10
878.1999999999407
 20
618.9573593127975
 30
0.0
 11
878.1999999999407
 21
556.5639610305991
 31
0.0
  0
LINE
  5
30E
330
1F
100
AcDbEntity
  8
LAY-10
  6
CONTINUOUS
 62
     7
100
AcDbLine
 10
887.1999999999416
 20
620.9573593127975
 30
0.0
 11
880.1999999999416
 21
620.9573593127975
 31
0.0
  0
ARC
  5
30F
330
1F
100
AcDbEntity
  8
LAY-10
  6
CONTINUOUS
 62
     7
100
AcDbCircle
 10
880.1999999999416
 20
618.9573593127975
 30
0.0
 40
2.0
100
AcDbArc
 50
90.00000000000001
 51
180.0
  0
ARC
  5
310
330
1F
100
AcDbEntity
  8
LAY-10
  6
CONTINUOUS
 62
     7
100
AcDbCircle
 10
887.1999999999416
 20
631.4426406870359
 30
0.0
 40
2.0
100
AcDbArc
 50
270.0
 51
0.0
  0
LINE
  5
311
330
1F
100
AcDbEntity
  8
LAY-10
  6
CONTINUOUS
 62
     7
100
AcDbLine
 10
887.1999999999416
 20
629.4426406870359
 30
0.0
 11
880.1999999999416
 21
629.4426406870359
 31
0.0
  0
ARC
  5
312
330
1F
100
AcDbEntity
  8
LAY-10
  6
CONTINUOUS
 62
     7
100
AcDbCircle
 10
880.1999999999416
 20
631.4426406870359
 30
0.0
 40
2.0
100
AcDbArc
 50
180.0
 51
270.0
  0
LINE
  5
313
330
1F
100
AcDbEntity
  8
LAY-10
  6
CONTINUOUS
 62
     7
100
AcDbLine
 10
889.1999999999406
 20
694.543145750428
 30
0.0
 11
889.1999999999406
 21
631.4426406870359
 31
0.0
  0
ARC
  5
314
330
1F
100
AcDbEntity
  8
LAY-10
  6
CONTINUOUS
 62
     7
100
AcDbCircle
 10
887.1999999999416
 20
694.543145750428
 30
0.0
 40
2.0
100
AcDbArc
 50
0.0
 51
90.00000000000001
  0
LINE
  5
315
330
1F
100
AcDbEntity
  8
LAY-10
  6
CONTINUOUS
 62
     7
100
AcDbLine
 10
878.1999999999407
 20
694.543145750428
 30
0.0
 11
878.1999999999407
 21
631.4426406870359
 31
0.0
  0
LINE
  5
316
330
1F
100
AcDbEntity
  8
LAY-10
  6
CONTINUOUS
 62
     7
100
AcDbLine
 10
887.1999999999416
 20
696.543145750428
 30
0.0
 11
880.1999999999416
 21
696.543145750428
 31
0.0
  0
ARC
  5
317
330
1F
100
AcDbEntity
  8
LAY-10
  6
CONTINUOUS
 62
     7
100
AcDbCircle
 10
880.1999999999416
 20
694.543145750428
 30
0.0
 40
2.0
100
AcDbArc
 50
90.00000000000001
 51
180.0
  0
LINE
  5
318
330
1F
100
AcDbEntity
  8
LAY-10
  6
CONTINUOUS
 62
     7
100
AcDbLine
 10
769.6999999999393
 20
672.1999999999205
 30
0.0
 11
769.6999999999393
 21
667.6264068711127
 31
0.0
  0
LINE
  5
319
330
1F
100
AcDbEntity
  8
LAY-10
  6
CONTINUOUS
 62
     7
100
AcDbLine
 10
769.6999999999393
 20
649.241630560263
 30
0.0
 11
774.6999999999397
 21
649.241630560263
 31
0.0
  0
LINE
  5
31A
330
1F
100
AcDbEntity
  8
LAY-10
  6
CONTINUOUS
 62
     7
100
AcDbLine
 10
769.6999999999393
 20
656.3126983721286
 30
0.0
 11
769.6999999999393
 21
649.241630560263
 31
0.0
  0
LINE
  5
31B
330
1F
100
AcDbEntity
  8
LAY-10
  6
CONTINUOUS
 62
     7
100
AcDbLine
 10
769.6999999999393
 20
637.9279220612782
 30
0.0
 11
774.6999999999397
 21
637.9279220612782
 31
0.0
  0
LINE
  5
31C
330
1F
100
AcDbEntity
  8
LAY-10
  6
CONTINUOUS
 62
     7
100
AcDbLine
 10
769.6999999999393
 20
630.8568542494127
 30
0.0
 11
774.6999999999397
 21
630.8568542494127
 31
0.0
  0
LINE
  5
31D
330
1F
100
AcDbEntity
  8
LAY-10
  6
CONTINUOUS
 62
     7
100
AcDbLine
 10
769.6999999999393
 20
637.9279220612782
 30
0.0
 11
769.6999999999393
 21
630.8568542494127
 31
0.0
  0
LINE
  5
31E
330
1F
100
AcDbEntity
  8
LAY-10
  6
CONTINUOUS
 62
     7
100
AcDbLine
 10
774.6999999999397
 20
649.241630560263
 30
0.0
 11
774.6999999999397
 21
637.9279220612784
 31
0.0
  0
LINE
  5
31F
330
1F
100
AcDbEntity
  8
LAY-10
  6
CONTINUOUS
 62
     7
100
AcDbLine
 10
774.6999999999397
 20
630.8568542494127
 30
0.0
 11
774.6999999999389
 21
619.543145750428
 31
0.0
  0
LINE
  5
320
330
1F
100
AcDbEntity
  8
LAY-10
  6
CONTINUOUS
 62
     7
100
AcDbLine
 10
769.6999999999393
 20
667.6264068711127
 30
0.0
 11
774.6999999999397
 21
667.6264068711127
 31
0.0
  0
LINE
  5
321
330
1F
100
AcDbEntity
  8
LAY-10
  6
CONTINUOUS
 62
     7
100
AcDbLine
 10
769.6999999999393
 20
656.3126983721286
 30
0.0
 11
774.6999999999397
 21
656.3126983721286
 31
0.0
  0
LINE
  5
322
330
1F
100
AcDbEntity
  8
LAY-10
  6
CONTINUOUS
 62
     7
100
AcDbLine
 10
774.6999999999397
 20
667.6264068711127
 30
0.0
 11
774.6999999999397
 21
656.3126983721286
 31
0.0
  0
LINE
  5
323
330
1F
100
AcDbEntity
  8
LAY-10
  6
CONTINUOUS
 62
     7
100
AcDbLine
 10
769.6999999999393
 20
619.543145750428
 30
0.0
 11
774.6999999999389
 21
619.543145750428
 31
0.0
  0
LINE
  5
324
330
1F
100
AcDbEntity
  8
LAY-10
  6
CONTINUOUS
 62
     7
100
AcDbLine
 10
769.6999999999393
 20
612.4720779385627
 30
0.0
 11
774.6999999999389
 21
612.4720779385627
 31
0.0
  0
LINE
  5
325
330
1F
100
AcDbEntity
  8
LAY-10
  6
CONTINUOUS
 62
     7
100
AcDbLine
 10
769.6999999999393
 20
619.543145750428
 30
0.0
 11
769.6999999999393
 21
612.4720779385627
 31
0.0
  0
LINE
  5
326
330
1F
100
AcDbEntity
  8
LAY-10
  6
CONTINUOUS
 62
     7
100
AcDbLine
 10
774.6999999999389
 20
612.4720779385627
 30
0.0
 11
774.6999999999389
 21
601.1583694395781
 31
0.0
  0
LINE
  5
327
330
1F
100
AcDbEntity
  8
LAY-10
  6
CONTINUOUS
 62
     7
100
AcDbLine
 10
769.6999999999393
 20
601.1583694395779
 30
0.0
 11
774.6999999999389
 21
601.1583694395779
 31
0.0
  0
LINE
  5
328
330
1F
100
AcDbEntity
  8
LAY-10
  6
CONTINUOUS
 62
     7
100
AcDbLine
 10
769.6999999999393
 20
594.0873016277121
 30
0.0
 11
774.6999999999389
 21
594.0873016277121
 31
0.0
  0
LINE
  5
329
330
1F
100
AcDbEntity
  8
LAY-10
  6
CONTINUOUS
 62
     7
100
AcDbLine
 10
769.6999999999393
 20
601.1583694395779
 30
0.0
 11
769.6999999999393
 21
594.0873016277121
 31
0.0
  0
LINE
  5
32A
330
1F
100
AcDbEntity
  8
LAY-10
  6
CONTINUOUS
 62
     7
100
AcDbLine
 10
774.6999999999389
 20
594.0873016277126
 30
0.0
 11
774.6999999999389
 21
582.7735931287277
 31
0.0
  0
LINE
  5
32B
330
1F
100
AcDbEntity
  8
LAY-10
  6
CONTINUOUS
 62
     7
100
AcDbLine
 10
769.6999999999388
 20
582.7735931287277
 30
0.0
 11
774.6999999999389
 21
582.7735931287277
 31
0.0
  0
LINE
  5
32C
330
1F
100
AcDbEntity
  8
LAY-10
  6
CONTINUOUS
 62
     7
100
AcDbLine
 10
769.6999999999388
 20
575.702525316862
 30
0.0
 11
774.6999999999389
 21
575.702525316862
 31
0.0
  0
LINE
  5
32D
330
1F
100
AcDbEntity
  8
LAY-10
  6
CONTINUOUS
 62
     7
100
AcDbLine
 10
769.6999999999388
 20
582.7735931287277
 30
0.0
 11
769.6999999999388
 21
575.702525316862
 31
0.0
  0
LINE
  5
32E
330
1F
100
AcDbEntity
  8
LAY-10
  6
CONTINUOUS
 62
     7
100
AcDbLine
 10
769.6999999999393
 20
667.6264068711127
 30
0.0
 11
767.1999999999389
 21
630.5507674066555
 31
0.0
  0
LINE
  5
32F
330
1F
100
AcDbEntity
  8
LAY-10
  6
CONTINUOUS
 62
     7
100
AcDbLine
 10
769.6999999999393
 20
656.3126983721286
 30
0.0
 11
767.1999999999389
 21
619.2370589076716
 31
0.0
  0
LINE
  5
330
330
1F
100
AcDbEntity
  8
LAY-10
  6
CONTINUOUS
 62
     7
100
AcDbLine
 10
769.6999999999393
 20
637.9279220612782
 30
0.0
 11
767.1999999999389
 21
600.8522825968219
 31
0.0
  0
LINE
  5
331
330
1F
100
AcDbEntity
  8
LAY-10
  6
CONTINUOUS
 62
     7
100
AcDbLine
 10
769.6999999999393
 20
630.8568542494127
 30
0.0
 11
767.1999999999389
 21
593.7812147849556
 31
0.0
  0
LINE
  5
332
330
1F
100
AcDbEntity
  8
LAY-10
  6
CONTINUOUS
 62
     7
100
AcDbLine
 10
769.6999999999393
 20
619.543145750428
 30
0.0
 11
767.1999999999389
 21
582.4675062859728
 31
0.0
  0
LINE
  5
333
330
1F
100
AcDbEntity
  8
LAY-10
  6
CONTINUOUS
 62
     7
100
AcDbLine
 10
769.6999999999393
 20
612.4720779385627
 30
0.0
 11
767.1999999999389
 21
575.3964384741078
 31
0.0
  0
LINE
  5
334
330
1F
100
AcDbEntity
  8
LAY-10
  6
CONTINUOUS
 62
     7
100
AcDbLine
 10
769.6999999999393
 20
601.1583694395779
 30
0.0
 11
767.1999999999389
 21
564.0827299751238
 31
0.0
  0
LINE
  5
335
330
1F
100
AcDbEntity
  8
LAY-10
  6
CONTINUOUS
 62
     7
100
AcDbLine
 10
769.6999999999393
 20
594.0873016277126
 30
0.0
 11
767.1999999999389
 21
557.011662163258
 31
0.0
  0
LINE
  5
336
330
1F
100
AcDbEntity
  8
LAY-10
  6
CONTINUOUS
 62
     7
100
AcDbLine
 10
767.1999999999389
 20
630.5507674066555
 30
0.0
 11
767.1999999999389
 21
619.2370589076716
 31
0.0
  0
LINE
  5
337
330
1F
100
AcDbEntity
  8
LAY-10
  6
CONTINUOUS
 62
     7
100
AcDbLine
 10
769.6999999999393
 20
649.241630560263
 30
0.0
 11
767.1999999999389
 21
612.1659910958058
 31
0.0
  0
LINE
  5
338
330
1F
100
AcDbEntity
  8
LAY-10
  6
CONTINUOUS
 62
     7
100
AcDbLine
 10
767.1999999999389
 20
612.1659910958058
 30
0.0
 11
767.1999999999389
 21
600.8522825968219
 31
0.0
  0
LINE
  5
339
330
1F
100
AcDbEntity
  8
LAY-10
  6
CONTINUOUS
 62
     7
100
AcDbLine
 10
767.1999999999389
 20
593.7812147849556
 30
0.0
 11
767.1999999999389
 21
582.4675062859731
 31
0.0
  0
LINE
  5
33A
330
1F
100
AcDbEntity
  8
LAY-10
  6
CONTINUOUS
 62
     7
100
AcDbLine
 10
767.1999999999389
 20
575.3964384741078
 30
0.0
 11
767.1999999999389
 21
564.0827299751238
 31
0.0
  0
LINE
  5
33B
330
1F
100
AcDbEntity
  8
LAY-10
  6
CONTINUOUS
 62
     7
100
AcDbLine
 10
978.6999999999389
 20
672.1999999999205
 30
0.0
 11
978.6999999999389
 21
667.6264068711127
 31
0.0
  0
LINE
  5
33C
330
1F
100
AcDbEntity
  8
LAY-10
  6
CONTINUOUS
 62
     7
100
AcDbLine
 10
978.6999999999389
 20
667.6264068711127
 30
0.0
 11
973.6999999999388
 21
667.6264068711127
 31
0.0
  0
LINE
  5
33D
330
1F
100
AcDbEntity
  8
LAY-10
  6
CONTINUOUS
 62
     7
100
AcDbLine
 10
978.6999999999389
 20
656.3126983721286
 30
0.0
 11
973.6999999999388
 21
656.3126983721286
 31
0.0
  0
LINE
  5
33E
330
1F
100
AcDbEntity
  8
LAY-10
  6
CONTINUOUS
 62
     7
100
AcDbLine
 10
973.6999999999388
 20
667.6264068711127
 30
0.0
 11
973.6999999999388
 21
656.3126983721286
 31
0.0
  0
LINE
  5
33F
330
1F
100
AcDbEntity
  8
LAY-10
  6
CONTINUOUS
 62
     7
100
AcDbLine
 10
978.6999999999389
 20
649.241630560263
 30
0.0
 11
973.6999999999388
 21
649.241630560263
 31
0.0
  0
LINE
  5
340
330
1F
100
AcDbEntity
  8
LAY-10
  6
CONTINUOUS
 62
     7
100
AcDbLine
 10
978.6999999999389
 20
656.3126983721286
 30
0.0
 11
978.6999999999389
 21
649.241630560263
 31
0.0
  0
LINE
  5
341
330
1F
100
AcDbEntity
  8
LAY-10
  6
CONTINUOUS
 62
     7
100
AcDbLine
 10
978.6999999999389
 20
637.9279220612782
 30
0.0
 11
973.6999999999398
 21
637.9279220612782
 31
0.0
  0
LINE
  5
342
330
1F
100
AcDbEntity
  8
LAY-10
  6
CONTINUOUS
 62
     7
100
AcDbLine
 10
973.6999999999388
 20
649.241630560263
 30
0.0
 11
973.6999999999388
 21
637.9279220612784
 31
0.0
  0
LINE
  5
343
330
1F
100
AcDbEntity
  8
LAY-10
  6
CONTINUOUS
 62
     7
100
AcDbLine
 10
978.6999999999389
 20
630.8568542494127
 30
0.0
 11
973.6999999999398
 21
630.8568542494127
 31
0.0
  0
LINE
  5
344
330
1F
100
AcDbEntity
  8
LAY-10
  6
CONTINUOUS
 62
     7
100
AcDbLine
 10
978.6999999999389
 20
637.9279220612782
 30
0.0
 11
978.6999999999389
 21
630.8568542494127
 31
0.0
  0
LINE
  5
345
330
1F
100
AcDbEntity
  8
LAY-10
  6
CONTINUOUS
 62
     7
100
AcDbLine
 10
973.6999999999398
 20
630.8568542494127
 30
0.0
 11
973.6999999999398
 21
619.543145750428
 31
0.0
  0
LINE
  5
346
330
1F
100
AcDbEntity
  8
LAY-10
  6
CONTINUOUS
 62
     7
100
AcDbLine
 10
978.6999999999389
 20
619.543145750428
 30
0.0
 11
973.6999999999398
 21
619.543145750428
 31
0.0
  0
LINE
  5
347
330
1F
100
AcDbEntity
  8
LAY-10
  6
CONTINUOUS
 62
     7
100
AcDbLine
 10
978.6999999999389
 20
612.4720779385627
 30
0.0
 11
973.6999999999398
 21
612.4720779385627
 31
0.0
  0
LINE
  5
348
330
1F
100
AcDbEntity
  8
LAY-10
  6
CONTINUOUS
 62
     7
100
AcDbLine
 10
978.6999999999389
 20
619.543145750428
 30
0.0
 11
978.6999999999389
 21
612.4720779385627
 31
0.0
  0
LINE
  5
349
330
1F
100
AcDbEntity
  8
LAY-10
  6
CONTINUOUS
 62
     7
100
AcDbLine
 10
973.6999999999398
 20
612.4720779385627
 30
0.0
 11
973.6999999999398
 21
601.1583694395781
 31
0.0
  0
LINE
  5
34A
330
1F
100
AcDbEntity
  8
LAY-10
  6
CONTINUOUS
 62
     7
100
AcDbLine
 10
978.6999999999397
 20
601.1583694395779
 30
0.0
 11
973.6999999999398
 21
601.1583694395779
 31
0.0
  0
LINE
  5
34B
330
1F
100
AcDbEntity
  8
LAY-10
  6
CONTINUOUS
 62
     7
100
AcDbLine
 10
978.6999999999397
 20
594.0873016277121
 30
0.0
 11
973.6999999999398
 21
594.0873016277121
 31
0.0
  0
LINE
  5
34C
330
1F
100
AcDbEntity
  8
LAY-10
  6
CONTINUOUS
 62
     7
100
AcDbLine
 10
978.6999999999397
 20
601.1583694395779
 30
0.0
 11
978.6999999999397
 21
594.0873016277121
 31
0.0
  0
LINE
  5
34D
330
1F
100
AcDbEntity
  8
LAY-10
  6
CONTINUOUS
 62
     7
100
AcDbLine
 10
973.6999999999398
 20
594.0873016277126
 30
0.0
 11
973.6999999999398
 21
582.7735931287277
 31
0.0
  0
LINE
  5
34E
330
1F
100
AcDbEntity
  8
LAY-10
  6
CONTINUOUS
 62
     7
100
AcDbLine
 10
978.6999999999397
 20
582.7735931287277
 30
0.0
 11
973.6999999999398
 21
582.7735931287277
 31
0.0
  0
LINE
  5
34F
330
1F
100
AcDbEntity
  8
LAY-10
  6
CONTINUOUS
 62
     7
100
AcDbLine
 10
978.6999999999397
 20
575.702525316862
 30
0.0
 11
973.6999999999398
 21
575.702525316862
 31
0.0
  0
LINE
  5
350
330
1F
100
AcDbEntity
  8
LAY-10
  6
CONTINUOUS
 62
     7
100
AcDbLine
 10
978.6999999999397
 20
582.7735931287277
 30
0.0
 11
978.6999999999397
 21
575.702525316862
 31
0.0
  0
LINE
  5
351
330
1F
100
AcDbEntity
  8
LAY-10
  6
CONTINUOUS
 62
     7
100
AcDbLine
 10
978.6999999999397
 20
564.3888168178773
 30
0.0
 11
973.6999999999398
 21
564.3888168178773
 31
0.0
  0
LINE
  5
352
330
1F
100
AcDbEntity
  8
LAY-10
  6
CONTINUOUS
 62
     7
100
AcDbLine
 10
973.6999999999388
 20
575.7025253168624
 30
0.0
 11
973.6999999999388
 21
564.3888168178773
 31
0.0
  0
LINE
  5
353
330
1F
100
AcDbEntity
  8
LAY-10
  6
CONTINUOUS
 62
     7
100
AcDbLine
 10
978.6999999999389
 20
667.6264068711127
 30
0.0
 11
981.1999999999398
 21
630.5507674066555
 31
0.0
  0
LINE
  5
354
330
1F
100
AcDbEntity
  8
LAY-10
  6
CONTINUOUS
 62
     7
100
AcDbLine
 10
978.6999999999389
 20
656.3126983721286
 30
0.0
 11
981.1999999999398
 21
619.2370589076716
 31
0.0
  0
LINE
  5
355
330
1F
100
AcDbEntity
  8
LAY-10
  6
CONTINUOUS
 62
     7
100
AcDbLine
 10
978.6999999999389
 20
637.9279220612782
 30
0.0
 11
981.1999999999398
 21
600.8522825968219
 31
0.0
  0
LINE
  5
356
330
1F
100
AcDbEntity
  8
LAY-10
  6
CONTINUOUS
 62
     7
100
AcDbLine
 10
978.6999999999389
 20
630.8568542494127
 30
0.0
 11
981.1999999999398
 21
593.7812147849556
 31
0.0
  0
LINE
  5
357
330
1F
100
AcDbEntity
  8
LAY-10
  6
CONTINUOUS
 62
     7
100
AcDbLine
 10
978.6999999999389
 20
619.543145750428
 30
0.0
 11
981.1999999999398
 21
582.4675062859728
 31
0.0
  0
LINE
  5
358
330
1F
100
AcDbEntity
  8
LAY-10
  6
CONTINUOUS
 62
     7
100
AcDbLine
 10
978.6999999999397
 20
612.4720779385627
 30
0.0
 11
981.1999999999398
 21
575.3964384741078
 31
0.0
  0
LINE
  5
359
330
1F
100
AcDbEntity
  8
LAY-10
  6
CONTINUOUS
 62
     7
100
AcDbLine
 10
978.6999999999397
 20
601.1583694395779
 30
0.0
 11
981.1999999999398
 21
564.0827299751238
 31
0.0
  0
LINE
  5
35A
330
1F
100
AcDbEntity
  8
LAY-10
  6
CONTINUOUS
 62
     7
100
AcDbLine
 10
978.6999999999397
 20
594.0873016277126
 30
0.0
 11
981.1999999999398
 21
557.011662163258
 31
0.0
  0
LINE
  5
35B
330
1F
100
AcDbEntity
  8
LAY-10
  6
CONTINUOUS
 62
     7
100
AcDbLine
 10
981.1999999999398
 20
630.5507674066555
 30
0.0
 11
981.1999999999398
 21
619.2370589076716
 31
0.0
  0
LINE
  5
35C
330
1F
100
AcDbEntity
  8
LAY-10
  6
CONTINUOUS
 62
     7
100
AcDbLine
 10
978.6999999999389
 20
649.241630560263
 30
0.0
 11
981.1999999999398
 21
612.1659910958058
 31
0.0
  0
LINE
  5
35D
330
1F
100
AcDbEntity
  8
LAY-10
  6
CONTINUOUS
 62
     7
100
AcDbLine
 10
981.1999999999398
 20
612.1659910958058
 30
0.0
 11
981.1999999999398
 21
600.8522825968219
 31
0.0
  0
LINE
  5
35E
330
1F
100
AcDbEntity
  8
LAY-10
  6
CONTINUOUS
 62
     7
100
AcDbLine
 10
981.1999999999398
 20
593.7812147849556
 30
0.0
 11
981.1999999999398
 21
582.4675062859731
 31
0.0
  0
LINE
  5
35F
330
1F
100
AcDbEntity
  8
LAY-10
  6
CONTINUOUS
 62
     7
100
AcDbLine
 10
981.1999999999398
 20
575.3964384741078
 30
0.0
 11
981.1999999999398
 21
564.0827299751238
 31
0.0
  0
LINE
  5
360
330
1F
100
AcDbEntity
  8
LAY-10
  6
CONTINUOUS
 62
     7
100
AcDbLine
 10
963.2300753772961
 20
685.7999999999254
 30
0.0
 11
975.1699246225753
 21
685.7999999999254
 31
0.0
  0
LINE
  5
361
330
1F
100
AcDbEntity
  8
LAY-10
  6
CONTINUOUS
 62
     7
100
AcDbLine
 10
963.2300753772961
 20
684.5999999999251
 30
0.0
 11
975.1699246225753
 21
684.5999999999251
 31
0.0
  0
ARC
  5
362
330
1F
100
AcDbEntity
  8
LAY-10
  6
CONTINUOUS
 62
     7
100
AcDbCircle
 10
969.1999999999352
 20
685.1999999999252
 30
0.0
 40
5.0
100
AcDbArc
 50
353.1078974206539
 51
6.892102579349928
  0
ARC
  5
363
330
1F
100
AcDbEntity
  8
LAY-10
  6
CONTINUOUS
 62
     7
100
AcDbCircle
 10
969.1999999999352
 20
685.1999999999252
 30
0.0
 40
5.0
100
AcDbArc
 50
173.1078974206501
 51
186.8921025793461
  0
ARC
  5
364
330
1F
100
AcDbEntity
  8
LAY-10
  6
CONTINUOUS
 62
     7
100
AcDbCircle
 10
969.1999999999352
 20
685.1999999999252
 30
0.0
 40
6.000000000000004
100
AcDbArc
 50
185.7391704772666
 51
354.2608295227336
  0
ARC
  5
365
330
1F
100
AcDbEntity
  8
LAY-10
  6
CONTINUOUS
 62
     7
100
AcDbCircle
 10
969.1999999999352
 20
685.1999999999252
 30
0.0
 40
6.000000000000004
100
AcDbArc
 50
5.739170477269835
 51
174.2608295227303
  0
LINE
  5
366
330
1F
100
AcDbEntity
  8
LAY-10
  6
CONTINUOUS
 62
     7
100
AcDbLine
 10
773.2300753772952
 20
685.7999999999254
 30
0.0
 11
785.1699246225744
 21
685.7999999999254
 31
0.0
  0
LINE
  5
367
330
1F
100
AcDbEntity
  8
LAY-10
  6
CONTINUOUS
 62
     7
100
AcDbLine
 10
773.2300753772952
 20
684.5999999999251
 30
0.0
 11
785.1699246225744
 21
684.5999999999251
 31
0.0
  0
ARC
  5
368
330
1F
100
AcDbEntity
  8
LAY-10
  6
CONTINUOUS
 62
     7
100
AcDbCircle
 10
779.1999999999342
 20
685.1999999999252
 30
0.0
 40
5.0
100
AcDbArc
 50
353.1078974206541
 51
6.892102579349928
  0
ARC
  5
369
330
1F
100
AcDbEntity
  8
LAY-10
  6
CONTINUOUS
 62
     7
100
AcDbCircle
 10
779.1999999999342
 20
685.1999999999252
 30
0.0
 40
5.0
100
AcDbArc
 50
173.1078974206507
 51
186.8921025793461
  0
ARC
  5
36A
330
1F
100
AcDbEntity
  8
LAY-10
  6
CONTINUOUS
 62
     7
100
AcDbCircle
 10
779.1999999999342
 20
685.1999999999252
 30
0.0
 40
6.000000000000004
100
AcDbArc
 50
185.7391704772664
 51
354.2608295227336
  0
ARC
  5
36B
330
1F
100
AcDbEntity
  8
LAY-10
  6
CONTINUOUS
 62
     7
100
AcDbCircle
 10
779.1999999999342
 20
685.1999999999252
 30
0.0
 40
6.000000000000004
100
AcDbArc
 50
5.739170477269719
 51
174.2608295227303
  0
LINE
  5
36C
330
1F
100
AcDbEntity
  8
LAY-10
  6
CONTINUOUS
 62
     7
100
AcDbLine
 10
769.6999999999393
 20
564.3888168178773
 30
0.0
 11
769.6999999999393
 21
549.1999999999248
 31
0.0
  0
LINE
  5
36D
330
1F
100
AcDbEntity
  8
LAY-10
  6
CONTINUOUS
 62
     7
100
AcDbLine
 10
766.6999999999393
 20
702.1999999999202
 30
0.0
 11
766.6999999999393
 21
549.1999999999248
 31
0.0
  0
LINE
  5
36E
330
1F
100
AcDbEntity
  8
LAY-10
  6
CONTINUOUS
 62
     7
100
AcDbLine
 10
769.6999999999388
 20
582.7735931287277
 30
0.0
 11
767.4361420049208
 21
549.1999999999248
 31
0.0
  0
LINE
  5
36F
330
1F
100
AcDbEntity
  8
LAY-10
  6
CONTINUOUS
 62
     7
100
AcDbLine
 10
769.6999999999388
 20
575.7025253168624
 30
0.0
 11
767.9129421298821
 21
549.1999999999248
 31
0.0
  0
LINE
  5
370
330
1F
100
AcDbEntity
  8
LAY-10
  6
CONTINUOUS
 62
     7
100
AcDbLine
 10
769.6999999999393
 20
564.3888168178773
 30
0.0
 11
768.6758223298202
 21
549.1999999999248
 31
0.0
  0
LINE
  5
371
330
1F
100
AcDbEntity
  8
LAY-10
  6
CONTINUOUS
 62
     7
100
AcDbLine
 10
767.1999999999389
 20
557.011662163258
 30
0.0
 11
767.1999999999389
 21
549.1999999999248
 31
0.0
  0
LINE
  5
372
330
1F
100
AcDbEntity
  8
LAY-10
  6
CONTINUOUS
 62
     7
100
AcDbLine
 10
978.6999999999397
 20
564.3888168178773
 30
0.0
 11
978.6999999999397
 21
549.1999999999248
 31
0.0
  0
LINE
  5
373
330
1F
100
AcDbEntity
  8
LAY-10
  6
CONTINUOUS
 62
     7
100
AcDbLine
 10
981.6999999999397
 20
702.1999999999202
 30
0.0
 11
981.6999999999397
 21
549.1999999999248
 31
0.0
  0
LINE
  5
374
330
1F
100
AcDbEntity
  8
LAY-10
  6
CONTINUOUS
 62
     7
100
AcDbLine
 10
978.6999999999397
 20
575.7025253168624
 30
0.0
 11
980.4870578699965
 21
549.1999999999248
 31
0.0
  0
LINE
  5
375
330
1F
100
AcDbEntity
  8
LAY-10
  6
CONTINUOUS
 62
     7
100
AcDbLine
 10
978.6999999999397
 20
564.3888168178773
 30
0.0
 11
979.7241776700585
 21
549.1999999999248
 31
0.0
  0
LINE
  5
376
330
1F
100
AcDbEntity
  8
LAY-10
  6
CONTINUOUS
 62
     7
100
AcDbLine
 10
978.6999999999397
 20
582.7735931287277
 30
0.0
 11
980.9638579949578
 21
549.1999999999248
 31
0.0
  0
LINE
  5
377
330
1F
100
AcDbEntity
  8
LAY-10
  6
CONTINUOUS
 62
     7
100
AcDbLine
 10
981.1999999999398
 20
557.011662163258
 30
0.0
 11
981.1999999999398
 21
549.1999999999248
 31
0.0
  0
LINE
  5
378
330
1F
100
AcDbEntity
  8
LAY-10
  6
CONTINUOUS
 62
     7
100
AcDbLine
 10
907.699999999968
 20
549.1999999998798
 30
0.0
 11
880.699999999968
 21
549.1999999998798
 31
0.0
  0
LINE
  5
379
330
1F
100
AcDbEntity
  8
LAY-10
  6
CONTINUOUS
 62
     7
100
AcDbLine
 10
787.8763269806708
 20
548.1999999999207
 30
0.0
 11
800.5236730192692
 21
548.1999999999207
 31
0.0
  0
LINE
  5
37A
330
1F
100
AcDbEntity
  8
LAY-10
  6
CONTINUOUS
 62
     7
100
AcDbLine
 10
788.0526539613793
 20
547.1999999999207
 30
0.0
 11
800.3473460385608
 21
547.1999999999207
 31
0.0
  0
LINE
  5
37B
330
1F
100
AcDbEntity
  8
LAY-10
  6
CONTINUOUS
 62
     7
100
AcDbLine
 10
789.4632698070363
 20
539.1999999999798
 30
0.0
 11
798.9367301929033
 21
539.1999999999798
 31
0.0
  0
LINE
  5
37C
330
1F
100
AcDbEntity
  8
LAY-10
  6
CONTINUOUS
 62
     7
100
AcDbLine
 10
827.8763269806514
 20
548.1999999998206
 30
0.0
 11
840.5236730192491
 21
548.1999999998206
 31
0.0
  0
LINE
  5
37D
330
1F
100
AcDbEntity
  8
LAY-10
  6
CONTINUOUS
 62
     7
100
AcDbLine
 10
828.0526539613593
 20
547.1999999998206
 30
0.0
 11
840.3473460385411
 21
547.1999999998206
 31
0.0
  0
LINE
  5
37E
330
1F
100
AcDbEntity
  8
LAY-10
  6
CONTINUOUS
 62
     7
100
AcDbLine
 10
829.4632698070163
 20
539.1999999998798
 30
0.0
 11
838.9367301928833
 21
539.1999999998798
 31
0.0
  0
LINE
  5
37F
330
1F
100
AcDbEntity
  8
LAY-10
  6
CONTINUOUS
 62
     7
100
AcDbLine
 10
867.8763269806512
 20
548.1999999998206
 30
0.0
 11
880.523673019249
 21
548.1999999998206
 31
0.0
  0
LINE
  5
380
330
1F
100
AcDbEntity
  8
LAY-10
  6
CONTINUOUS
 62
     7
100
AcDbLine
 10
868.0526539613593
 20
547.1999999998206
 30
0.0
 11
880.3473460385412
 21
547.1999999998206
 31
0.0
  0
LINE
  5
381
330
1F
100
AcDbEntity
  8
LAY-10
  6
CONTINUOUS
 62
     7
100
AcDbLine
 10
869.4632698070163
 20
539.1999999998798
 30
0.0
 11
878.9367301928831
 21
539.1999999998798
 31
0.0
  0
LINE
  5
382
330
1F
100
AcDbEntity
  8
LAY-10
  6
CONTINUOUS
 62
     7
100
AcDbLine
 10
907.8763269806714
 20
548.1999999999207
 30
0.0
 11
920.5236730192692
 21
548.1999999999207
 31
0.0
  0
LINE
  5
383
330
1F
100
AcDbEntity
  8
LAY-10
  6
CONTINUOUS
 62
     7
100
AcDbLine
 10
908.0526539613793
 20
547.1999999999207
 30
0.0
 11
920.3473460385611
 21
547.1999999999207
 31
0.0
  0
LINE
  5
384
330
1F
100
AcDbEntity
  8
LAY-10
  6
CONTINUOUS
 62
     7
100
AcDbLine
 10
909.4632698070363
 20
539.1999999999798
 30
0.0
 11
918.9367301929033
 21
539.1999999999798
 31
0.0
  0
LINE
  5
385
330
1F
100
AcDbEntity
  8
LAY-10
  6
CONTINUOUS
 62
     7
100
AcDbLine
 10
947.8763269806514
 20
548.1999999998206
 30
0.0
 11
960.5236730192491
 21
548.1999999998206
 31
0.0
  0
LINE
  5
386
330
1F
100
AcDbEntity
  8
LAY-10
  6
CONTINUOUS
 62
     7
100
AcDbLine
 10
948.0526539613593
 20
547.1999999998206
 30
0.0
 11
960.3473460385411
 21
547.1999999998206
 31
0.0
  0
LINE
  5
387
330
1F
100
AcDbEntity
  8
LAY-10
  6
CONTINUOUS
 62
     7
100
AcDbLine
 10
949.4632698070163
 20
539.1999999998798
 30
0.0
 11
958.9367301928833
 21
539.1999999998798
 31
0.0
  0
LINE
  5
388
330
1F
100
AcDbEntity
  8
LAY-10
  6
CONTINUOUS
 62
     7
100
AcDbLine
 10
743.1999999998679
 20
540.20000000001
 30
0.0
 11
725.1999999998679
 21
540.20000000001
 31
0.0
  0
LINE
  5
389
330
1F
100
AcDbEntity
  8
LAY-10
  6
CONTINUOUS
 62
     7
100
AcDbLine
 10
743.1999999998679
 20
540.20000000001
 30
0.0
 11
743.8212678123864
 21
537.7149287499374
 31
0.0
  0
ARC
  5
38A
330
1F
100
AcDbEntity
  8
LAY-10
  6
CONTINUOUS
 62
     7
100
AcDbCircle
 10
745.7615528126767
 20
538.20000000001
 30
0.0
 40
2.0
100
AcDbArc
 50
194.0362434679257
 51
270.0
  0
LINE
  5
38B
330
1F
100
AcDbEntity
  8
LAY-10
  6
CONTINUOUS
 62
     7
100
AcDbLine
 10
1005.200000000006
 20
540.20000000001
 30
0.0
 11
1023.200000000006
 21
540.20000000001
 31
0.0
  0
LINE
  5
38C
330
1F
100
AcDbEntity
  8
LAY-10
  6
CONTINUOUS
 62
     7
100
AcDbLine
 10
1005.200000000006
 20
540.20000000001
 30
0.0
 11
1004.578732187489
 21
537.7149287499374
 31
0.0
  0
ARC
  5
38D
330
1F
100
AcDbEntity
  8
LAY-10
  6
CONTINUOUS
 62
     7
100
AcDbCircle
 10
1002.638447187198
 20
538.20000000001
 30
0.0
 40
2.0
100
AcDbArc
 50
270.0
 51
345.9637565320767
  0
LINE
  5
38E
330
1F
100
AcDbEntity
  8
LAY-10
  6
CONTINUOUS
 62
     7
100
AcDbLine
 10
724.5719886809984
 20
537.6879547245333
 30
0.0
 11
725.1999999998679
 21
540.20000000001
 31
0.0
  0
ARC
  5
38F
330
1F
100
AcDbEntity
  8
LAY-10
  6
CONTINUOUS
 62
     7
100
AcDbCircle
 10
722.6317036807081
 20
538.1730259746059
 30
0.0
 40
2.0
100
AcDbArc
 50
275.4349771676428
 51
345.9637565320711
  0
LINE
  5
390
330
1F
100
AcDbEntity
  8
LAY-10
  6
CONTINUOUS
 62
     7
100
AcDbLine
 10
1023.828011318874
 20
537.6879547245398
 30
0.0
 11
1023.200000000006
 21
540.20000000001
 31
0.0
  0
ARC
  5
391
330
1F
100
AcDbEntity
  8
LAY-10
  6
CONTINUOUS
 62
     7
100
AcDbCircle
 10
1025.768296319165
 20
538.1730259746125
 30
0.0
 40
2.0
100
AcDbArc
 50
194.0362434679304
 51
264.5650228330344
  0
LINE
  5
392
330
1F
100
AcDbEntity
  8
LAY-10
  6
CONTINUOUS
 62
     7
100
AcDbLine
 10
434.1999999999702
 20
107.1999999999946
 30
0.0
 11
434.1999999999702
 21
407.2000000000942
 31
0.0
  0
ARC
  5
393
330
1F
100
AcDbEntity
  8
LAY-10
  6
CONTINUOUS
 62
     7
100
AcDbCircle
 10
419.1999999999702
 20
407.2000000000942
 30
0.0
 40
15.0
100
AcDbArc
 50
0.0
 51
90.00000000000001
  0
LINE
  5
394
330
1F
100
AcDbEntity
  8
LAY-10
  6
CONTINUOUS
 62
     7
100
AcDbLine
 10
229.1999999999698
 20
422.2000000000942
 30
0.0
 11
419.1999999999702
 21
422.2000000000942
 31
0.0
  0
ARC
  5
395
330
1F
100
AcDbEntity
  8
LAY-10
  6
CONTINUOUS
 62
     7
100
AcDbCircle
 10
419.1999999999702
 20
107.1999999999946
 30
0.0
 40
15.0
100
AcDbArc
 50
270.0
 51
0.0
  0
LINE
  5
396
330
1F
100
AcDbEntity
  8
LAY-10
  6
CONTINUOUS
 62
     7
100
AcDbLine
 10
229.1999999999698
 20
92.19999999999459
 30
0.0
 11
419.1999999999702
 21
92.19999999999459
 31
0.0
  0
LINE
  5
397
330
1F
100
AcDbEntity
  8
LAY-10
  6
CONTINUOUS
 62
     7
100
AcDbLine
 10
214.2000000000708
 20
156.2000000000344
 30
0.0
 11
221.1999999999707
 21
152.2000000000344
 31
0.0
  0
LINE
  5
398
330
1F
100
AcDbEntity
  8
LAY-10
  6
CONTINUOUS
 62
     7
100
AcDbLine
 10
214.2000000000708
 20
180.0507939120341
 30
0.0
 11
221.1999999999707
 21
183.5029851349343
 31
0.0
  0
LINE
  5
399
330
1F
100
AcDbEntity
  8
LAY-10
  6
CONTINUOUS
 62
     7
100
AcDbLine
 10
214.2000000000708
 20
334.3492060879551
 30
0.0
 11
221.1999999999707
 21
330.8970148650549
 31
0.0
  0
LINE
  5
39A
330
1F
100
AcDbEntity
  8
LAY-10
  6
CONTINUOUS
 62
     7
100
AcDbLine
 10
214.2000000000708
 20
358.199999999955
 30
0.0
 11
221.1999999999707
 21
362.199999999955
 31
0.0
  0
LINE
  5
39B
330
1F
100
AcDbEntity
  8
LAY-10
  6
CONTINUOUS
 62
     7
100
AcDbLine
 10
217.1999999999698
 20
114.7000000000121
 30
0.0
 11
221.1999999999707
 21
113.5571428571548
 31
0.0
  0
LINE
  5
39C
330
1F
100
AcDbEntity
  8
LAY-10
  6
CONTINUOUS
 62
     7
100
AcDbLine
 10
217.1999999999698
 20
129.6999999999946
 30
0.0
 11
221.1999999999707
 21
130.8428571428522
 31
0.0
  0
LINE
  5
39D
330
1F
100
AcDbEntity
  8
LAY-10
  6
CONTINUOUS
 62
     7
100
AcDbLine
 10
217.1999999999698
 20
399.6999999999769
 30
0.0
 11
221.1999999999762
 21
400.8428571428356
 31
0.0
  0
LINE
  5
39E
330
1F
100
AcDbEntity
  8
LAY-10
  6
CONTINUOUS
 62
     7
100
AcDbLine
 10
217.1999999999698
 20
384.6999999999941
 30
0.0
 11
221.1999999999662
 21
383.5571428571382
 31
0.0
  0
LINE
  5
39F
330
1F
100
AcDbEntity
  8
LAY-10
  6
CONTINUOUS
 62
     7
100
AcDbLine
 10
221.1999999999698
 20
94.19999999995503
 30
0.0
 11
221.1999999999698
 21
420.2000000000551
 31
0.0
  0
LINE
  5
3A0
330
1F
100
AcDbEntity
  8
LAY-10
  6
CONTINUOUS
 62
     7
100
AcDbLine
 10
214.2000000000662
 20
148.2000000000548
 30
0.0
 11
214.2000000000662
 21
366.1999999999541
 31
0.0
  0
LINE
  5
3A1
330
1F
100
AcDbEntity
  8
LAY-10
  6
CONTINUOUS
 62
     7
100
AcDbLine
 10
221.1999999999707
 20
145.2000000000344
 30
0.0
 11
214.2000000000708
 21
148.2000000000344
 31
0.0
  0
LINE
  5
3A2
330
1F
100
AcDbEntity
  8
LAY-10
  6
CONTINUOUS
 62
     7
100
AcDbLine
 10
221.1999999999707
 20
369.199999999955
 30
0.0
 11
214.2000000000708
 21
366.199999999955
 31
0.0
  0
LINE
  5
3A3
330
1F
100
AcDbEntity
  8
LAY-10
  6
CONTINUOUS
 62
     7
100
AcDbLine
 10
229.1999999999698
 20
92.19999999999459
 30
0.0
 11
229.1999999999698
 21
422.2000000000942
 31
0.0
  0
LINE
  5
3A4
330
1F
100
AcDbEntity
  8
LAY-10
  6
CONTINUOUS
 62
     7
100
AcDbLine
 10
217.1999999999707
 20
384.6999999999923
 30
0.0
 11
217.1999999999707
 21
399.6999999999777
 31
0.0
  0
LINE
  5
3A5
330
1F
100
AcDbEntity
  8
LAY-10
  6
CONTINUOUS
 62
     7
100
AcDbLine
 10
217.1999999999707
 20
129.6999999999971
 30
0.0
 11
217.1999999999707
 21
114.7000000000116
 31
0.0
  0
LINE
  5
3A6
330
1F
100
AcDbEntity
  8
LAY-10
  6
CONTINUOUS
 62
     7
100
AcDbLine
 10
221.1999999999707
 20
94.19999999995503
 30
0.0
 11
229.1999999999707
 21
92.1999999999548
 31
0.0
  0
LINE
  5
3A7
330
1F
100
AcDbEntity
  8
LAY-10
  6
CONTINUOUS
 62
     7
100
AcDbLine
 10
234.2000000000039
 20
372.8813011313612
 30
0.0
 11
247.2000000000039
 21
372.2000000006799
 31
0.0
  0
LINE
  5
3A8
330
1F
100
AcDbEntity
  8
LAY-10
  6
CONTINUOUS
 62
     7
100
AcDbLine
 10
234.1999999999648
 20
408.1999999999268
 30
0.0
 11
234.1999999999648
 21
106.1999999999255
 31
0.0
  0
ARC
  5
3A9
330
1F
100
AcDbEntity
  8
LAY-10
  6
CONTINUOUS
 62
     7
100
AcDbCircle
 10
230.1999999999648
 20
408.1999999999268
 30
0.0
 40
4.0
100
AcDbArc
 50
0.0
 51
90.00000000000001
  0
LINE
  5
3AA
330
1F
100
AcDbEntity
  8
LAY-10
  6
CONTINUOUS
 62
     7
100
AcDbLine
 10
229.1999999999648
 20
412.1999999999268
 30
0.0
 11
419.1999999999642
 21
412.1999999999268
 31
0.0
  0
ARC
  5
3AB
330
1F
100
AcDbEntity
  8
LAY-10
  6
CONTINUOUS
 62
     7
100
AcDbCircle
 10
419.1999999999642
 20
407.1999999999268
 30
0.0
 40
5.0
100
AcDbArc
 50
0.0
 51
90.00000000000001
  0
LINE
  5
3AC
330
1F
100
AcDbEntity
  8
LAY-10
  6
CONTINUOUS
 62
     7
100
AcDbLine
 10
424.1999999999643
 20
407.1999999999268
 30
0.0
 11
424.1999999999643
 21
107.1999999999259
 31
0.0
  0
ARC
  5
3AD
330
1F
100
AcDbEntity
  8
LAY-10
  6
CONTINUOUS
 62
     7
100
AcDbCircle
 10
406.1999999999653
 20
367.1999999999277
 30
0.0
 40
5.0
100
AcDbArc
 50
0.0
 51
90.00000000000001
  0
ARC
  5
3AE
330
1F
100
AcDbEntity
  8
LAY-10
  6
CONTINUOUS
 62
     7
100
AcDbCircle
 10
406.1999999999653
 20
367.4778851358913
 30
0.0
 40
5.0
100
AcDbArc
 50
0.0
 51
86.72554542687502
  0
LINE
  5
3AF
330
1F
100
AcDbEntity
  8
LAY-10
  6
CONTINUOUS
 62
     7
100
AcDbLine
 10
399.2917047946637
 20
372.8813011313266
 30
0.0
 11
406.4855945437112
 21
372.4697220479491
 31
0.0
  0
ARC
  5
3B0
330
1F
100
AcDbEntity
  8
LAY-10
  6
CONTINUOUS
 62
     7
100
AcDbCircle
 10
403.199999999965
 20
364.2000000000337
 30
0.0
 40
3.0
100
AcDbArc
 50
0.0
 51
90.00000000000001
  0
LINE
  5
3B1
330
1F
100
AcDbEntity
  8
LAY-10
  6
CONTINUOUS
 62
     7
100
AcDbLine
 10
234.2000000000039
 20
141.5186988685984
 30
0.0
 11
247.2000000000039
 21
142.1999999992797
 31
0.0
  0
ARC
  5
3B2
330
1F
100
AcDbEntity
  8
LAY-10
  6
CONTINUOUS
 62
     7
100
AcDbCircle
 10
406.1999999999653
 20
147.2000000000319
 30
0.0
 40
5.0
100
AcDbArc
 50
270.0
 51
0.0
  0
ARC
  5
3B3
330
1F
100
AcDbEntity
  8
LAY-10
  6
CONTINUOUS
 62
     7
100
AcDbCircle
 10
406.1999999999653
 20
146.9221148640684
 30
0.0
 40
5.0
100
AcDbArc
 50
273.2744545731251
 51
0.0
  0
LINE
  5
3B4
330
1F
100
AcDbEntity
  8
LAY-10
  6
CONTINUOUS
 62
     7
100
AcDbLine
 10
399.2917047946637
 20
141.518698868633
 30
0.0
 11
406.4855945437112
 21
141.9302779520106
 31
0.0
  0
ARC
  5
3B5
330
1F
100
AcDbEntity
  8
LAY-10
  6
CONTINUOUS
 62
     7
100
AcDbCircle
 10
403.199999999965
 20
150.1999999999259
 30
0.0
 40
3.0
100
AcDbArc
 50
270.0
 51
0.0
  0
ARC
  5
3B6
330
1F
100
AcDbEntity
  8
LAY-10
  6
CONTINUOUS
 62
     7
100
AcDbCircle
 10
230.1999999999648
 20
106.2000000000328
 30
0.0
 40
4.0
100
AcDbArc
 50
270.0
 51
0.0
  0
LINE
  5
3B7
330
1F
100
AcDbEntity
  8
LAY-10
  6
CONTINUOUS
 62
     7
100
AcDbLine
 10
229.1999999999648
 20
102.2000000000328
 30
0.0
 11
419.1999999999642
 21
102.2000000000323
 31
0.0
  0
ARC
  5
3B8
330
1F
100
AcDbEntity
  8
LAY-10
  6
CONTINUOUS
 62
     7
100
AcDbCircle
 10
419.1999999999642
 20
107.2000000000323
 30
0.0
 40
5.0
100
AcDbArc
 50
270.0
 51
0.0
  0
LINE
  5
3B9
330
1F
100
AcDbEntity
  8
LAY-10
  6
CONTINUOUS
 62
     7
100
AcDbLine
 10
247.1999999999639
 20
142.2000000000314
 30
0.0
 11
247.1999999999639
 21
372.1999999998795
 31
0.0
  0
LINE
  5
3BA
330
1F
100
AcDbEntity
  8
LAY-10
  6
CONTINUOUS
 62
     7
100
AcDbLine
 10
390.2824640739495
 20
147.7240777930799
 30
0.0
 11
381.1999999998793
 21
147.7240777930799
 31
0.0
  0
LINE
  5
3BB
330
1F
100
AcDbEntity
  8
LAY-10
  6
CONTINUOUS
 62
     7
100
AcDbLine
 10
390.2824640739495
 20
366.6759222069588
 30
0.0
 11
381.1999999998793
 21
366.6759222069588
 31
0.0
  0
LINE
  5
3BC
330
1F
100
AcDbEntity
  8
LAY-10
  6
CONTINUOUS
 62
     7
100
AcDbLine
 10
264.7072032962101
 20
147.88130113088
 30
0.0
 11
264.7072032962101
 21
141.5186988685798
 31
0.0
  0
LINE
  5
3BD
330
1F
100
AcDbEntity
  8
LAY-10
  6
CONTINUOUS
 62
     7
100
AcDbLine
 10
280.1999999999402
 20
147.19999999998
 30
0.0
 11
280.1999999999402
 21
142.2000000000801
 31
0.0
  0
LINE
  5
3BE
330
1F
100
AcDbEntity
  8
LAY-10
  6
CONTINUOUS
 62
     7
100
AcDbLine
 10
264.7072032962101
 20
141.5186988685798
 30
0.0
 11
280.1999999999402
 21
142.2000000000801
 31
0.0
  0
LINE
  5
3BF
330
1F
100
AcDbEntity
  8
LAY-10
  6
CONTINUOUS
 62
     7
100
AcDbLine
 10
280.1999999999402
 20
147.19999999998
 30
0.0
 11
264.7072032962101
 21
147.88130113088
 31
0.0
  0
LINE
  5
3C0
330
1F
100
AcDbEntity
  8
LAY-10
  6
CONTINUOUS
 62
     7
100
AcDbLine
 10
260.1999999999803
 20
141.5186988685803
 30
0.0
 11
260.1999999999803
 21
147.8813011308323
 31
0.0
  0
LINE
  5
3C1
330
1F
100
AcDbEntity
  8
LAY-10
  6
CONTINUOUS
 62
     7
100
AcDbLine
 10
247.1999999999648
 20
147.2000000000328
 30
0.0
 11
260.1999999999803
 21
147.2000000000328
 31
0.0
  0
LINE
  5
3C2
330
1F
100
AcDbEntity
  8
LAY-10
  6
CONTINUOUS
 62
     7
100
AcDbLine
 10
247.1999999999648
 20
142.2000000000319
 30
0.0
 11
260.1999999999803
 21
142.2000000000319
 31
0.0
  0
LINE
  5
3C3
330
1F
100
AcDbEntity
  8
LAY-10
  6
CONTINUOUS
 62
     7
100
AcDbLine
 10
234.2000000000303
 20
141.5186988685803
 30
0.0
 11
260.1999999999803
 21
141.5186988685803
 31
0.0
  0
LINE
  5
3C4
330
1F
100
AcDbEntity
  8
LAY-10
  6
CONTINUOUS
 62
     7
100
AcDbLine
 10
314.7072032962101
 20
147.88130113088
 30
0.0
 11
314.7072032962101
 21
141.5186988685798
 31
0.0
  0
LINE
  5
3C5
330
1F
100
AcDbEntity
  8
LAY-10
  6
CONTINUOUS
 62
     7
100
AcDbLine
 10
330.1999999999402
 20
147.19999999998
 30
0.0
 11
330.1999999999402
 21
142.2000000000801
 31
0.0
  0
LINE
  5
3C6
330
1F
100
AcDbEntity
  8
LAY-10
  6
CONTINUOUS
 62
     7
100
AcDbLine
 10
314.7072032962101
 20
141.5186988685798
 30
0.0
 11
330.1999999999402
 21
142.2000000000801
 31
0.0
  0
LINE
  5
3C7
330
1F
100
AcDbEntity
  8
LAY-10
  6
CONTINUOUS
 62
     7
100
AcDbLine
 10
330.1999999999402
 20
147.19999999998
 30
0.0
 11
314.7072032962101
 21
147.88130113088
 31
0.0
  0
LINE
  5
3C8
330
1F
100
AcDbEntity
  8
LAY-10
  6
CONTINUOUS
 62
     7
100
AcDbLine
 10
310.1999999999803
 20
141.5186988685803
 30
0.0
 11
310.1999999999803
 21
147.8813011308323
 31
0.0
  0
LINE
  5
3C9
330
1F
100
AcDbEntity
  8
LAY-10
  6
CONTINUOUS
 62
     7
100
AcDbLine
 10
364.7072032962101
 20
147.88130113088
 30
0.0
 11
364.7072032962101
 21
141.5186988685798
 31
0.0
  0
LINE
  5
3CA
330
1F
100
AcDbEntity
  8
LAY-10
  6
CONTINUOUS
 62
     7
100
AcDbLine
 10
380.1999999999398
 20
147.19999999998
 30
0.0
 11
380.1999999999398
 21
142.2000000000801
 31
0.0
  0
LINE
  5
3CB
330
1F
100
AcDbEntity
  8
LAY-10
  6
CONTINUOUS
 62
     7
100
AcDbLine
 10
364.7072032962101
 20
141.5186988685798
 30
0.0
 11
380.1999999999398
 21
142.2000000000801
 31
0.0
  0
LINE
  5
3CC
330
1F
100
AcDbEntity
  8
LAY-10
  6
CONTINUOUS
 62
     7
100
AcDbLine
 10
380.1999999999398
 20
147.19999999998
 30
0.0
 11
364.7072032962101
 21
147.88130113088
 31
0.0
  0
LINE
  5
3CD
330
1F
100
AcDbEntity
  8
LAY-10
  6
CONTINUOUS
 62
     7
100
AcDbLine
 10
360.1999999999803
 20
141.5186988685803
 30
0.0
 11
360.1999999999803
 21
147.8813011308323
 31
0.0
  0
LINE
  5
3CE
330
1F
100
AcDbEntity
  8
LAY-10
  6
CONTINUOUS
 62
     7
100
AcDbLine
 10
264.7072032962101
 20
147.8813011308323
 30
0.0
 11
310.1999999999803
 21
147.8813011308323
 31
0.0
  0
LINE
  5
3CF
330
1F
100
AcDbEntity
  8
LAY-10
  6
CONTINUOUS
 62
     7
100
AcDbLine
 10
280.1999999987406
 20
147.2000000000328
 30
0.0
 11
310.1999999999803
 21
147.2000000000328
 31
0.0
  0
LINE
  5
3D0
330
1F
100
AcDbEntity
  8
LAY-10
  6
CONTINUOUS
 62
     7
100
AcDbLine
 10
280.1999999988439
 20
142.2000000000319
 30
0.0
 11
310.1999999999803
 21
142.2000000000319
 31
0.0
  0
LINE
  5
3D1
330
1F
100
AcDbEntity
  8
LAY-10
  6
CONTINUOUS
 62
     7
100
AcDbLine
 10
264.7072032962101
 20
141.5186988685803
 30
0.0
 11
310.1999999999803
 21
141.5186988685803
 31
0.0
  0
LINE
  5
3D2
330
1F
100
AcDbEntity
  8
LAY-10
  6
CONTINUOUS
 62
     7
100
AcDbLine
 10
330.1999999987406
 20
147.2000000000328
 30
0.0
 11
360.1999999999803
 21
147.2000000000328
 31
0.0
  0
LINE
  5
3D3
330
1F
100
AcDbEntity
  8
LAY-10
  6
CONTINUOUS
 62
     7
100
AcDbLine
 10
330.1999999988439
 20
142.2000000000319
 30
0.0
 11
360.1999999999803
 21
142.2000000000319
 31
0.0
  0
LINE
  5
3D4
330
1F
100
AcDbEntity
  8
LAY-10
  6
CONTINUOUS
 62
     7
100
AcDbLine
 10
314.7072032962101
 20
141.5186988685803
 30
0.0
 11
360.1999999999803
 21
141.5186988685803
 31
0.0
  0
LINE
  5
3D5
330
1F
100
AcDbEntity
  8
LAY-10
  6
CONTINUOUS
 62
     7
100
AcDbLine
 10
364.7072032962101
 20
141.5186988685803
 30
0.0
 11
399.29170479463
 21
141.5186988685803
 31
0.0
  0
LINE
  5
3D6
330
1F
100
AcDbEntity
  8
LAY-10
  6
CONTINUOUS
 62
     7
100
AcDbLine
 10
314.7072032962101
 20
147.8813011308323
 30
0.0
 11
360.1999999999803
 21
147.8813011308323
 31
0.0
  0
LINE
  5
3D7
330
1F
100
AcDbEntity
  8
LAY-10
  6
CONTINUOUS
 62
     7
100
AcDbLine
 10
364.7072032962101
 20
147.8813011308323
 30
0.0
 11
376.1999999998789
 21
147.8813011308323
 31
0.0
  0
LINE
  5
3D8
330
1F
100
AcDbEntity
  8
LAY-10
  6
CONTINUOUS
 62
     7
100
AcDbLine
 10
380.1999999987406
 20
147.2000000000328
 30
0.0
 11
403.199999999965
 21
147.2000000000328
 31
0.0
  0
LINE
  5
3D9
330
1F
100
AcDbEntity
  8
LAY-10
  6
CONTINUOUS
 62
     7
100
AcDbLine
 10
380.1999999988439
 20
142.2000000000319
 30
0.0
 11
406.1999999999653
 21
142.2000000000319
 31
0.0
  0
LINE
  5
3DA
330
1F
100
AcDbEntity
  8
LAY-10
  6
CONTINUOUS
 62
     7
100
AcDbLine
 10
264.7072032962101
 20
366.5186988691592
 30
0.0
 11
264.7072032962101
 21
372.8813011314594
 31
0.0
  0
LINE
  5
3DB
330
1F
100
AcDbEntity
  8
LAY-10
  6
CONTINUOUS
 62
     7
100
AcDbLine
 10
280.1999999999402
 20
367.2000000000592
 30
0.0
 11
280.1999999999402
 21
372.1999999999591
 31
0.0
  0
LINE
  5
3DC
330
1F
100
AcDbEntity
  8
LAY-10
  6
CONTINUOUS
 62
     7
100
AcDbLine
 10
264.7072032962101
 20
372.8813011314594
 30
0.0
 11
280.1999999999402
 21
372.1999999999591
 31
0.0
  0
LINE
  5
3DD
330
1F
100
AcDbEntity
  8
LAY-10
  6
CONTINUOUS
 62
     7
100
AcDbLine
 10
280.1999999999402
 20
367.2000000000592
 30
0.0
 11
264.7072032962101
 21
366.5186988691592
 31
0.0
  0
LINE
  5
3DE
330
1F
100
AcDbEntity
  8
LAY-10
  6
CONTINUOUS
 62
     7
100
AcDbLine
 10
260.1999999999803
 20
372.8813011314589
 30
0.0
 11
260.1999999999803
 21
366.5186988692069
 31
0.0
  0
LINE
  5
3DF
330
1F
100
AcDbEntity
  8
LAY-10
  6
CONTINUOUS
 62
     7
100
AcDbLine
 10
314.7072032962101
 20
366.5186988691592
 30
0.0
 11
314.7072032962101
 21
372.8813011314594
 31
0.0
  0
LINE
  5
3E0
330
1F
100
AcDbEntity
  8
LAY-10
  6
CONTINUOUS
 62
     7
100
AcDbLine
 10
330.1999999999402
 20
367.2000000000592
 30
0.0
 11
330.1999999999402
 21
372.1999999999591
 31
0.0
  0
LINE
  5
3E1
330
1F
100
AcDbEntity
  8
LAY-10
  6
CONTINUOUS
 62
     7
100
AcDbLine
 10
314.7072032962101
 20
372.8813011314594
 30
0.0
 11
330.1999999999402
 21
372.1999999999591
 31
0.0
  0
LINE
  5
3E2
330
1F
100
AcDbEntity
  8
LAY-10
  6
CONTINUOUS
 62
     7
100
AcDbLine
 10
330.1999999999402
 20
367.2000000000592
 30
0.0
 11
314.7072032962101
 21
366.5186988691592
 31
0.0
  0
LINE
  5
3E3
330
1F
100
AcDbEntity
  8
LAY-10
  6
CONTINUOUS
 62
     7
100
AcDbLine
 10
310.1999999999803
 20
372.8813011314589
 30
0.0
 11
310.1999999999803
 21
366.5186988692069
 31
0.0
  0
LINE
  5
3E4
330
1F
100
AcDbEntity
  8
LAY-10
  6
CONTINUOUS
 62
     7
100
AcDbLine
 10
360.1999999999803
 20
372.8813011314589
 30
0.0
 11
360.1999999999803
 21
366.5186988692069
 31
0.0
  0
LINE
  5
3E5
330
1F
100
AcDbEntity
  8
LAY-10
  6
CONTINUOUS
 62
     7
100
AcDbLine
 10
380.1999999999398
 20
367.2000000000592
 30
0.0
 11
364.7072032962101
 21
366.5186988691592
 31
0.0
  0
LINE
  5
3E6
330
1F
100
AcDbEntity
  8
LAY-10
  6
CONTINUOUS
 62
     7
100
AcDbLine
 10
364.7072032962101
 20
372.8813011314594
 30
0.0
 11
380.1999999999398
 21
372.1999999999591
 31
0.0
  0
LINE
  5
3E7
330
1F
100
AcDbEntity
  8
LAY-10
  6
CONTINUOUS
 62
     7
100
AcDbLine
 10
364.7072032962101
 20
366.5186988691592
 30
0.0
 11
364.7072032962101
 21
372.8813011314594
 31
0.0
  0
LINE
  5
3E8
330
1F
100
AcDbEntity
  8
LAY-10
  6
CONTINUOUS
 62
     7
100
AcDbLine
 10
380.1999999999398
 20
367.2000000000592
 30
0.0
 11
380.1999999999398
 21
372.1999999999591
 31
0.0
  0
LINE
  5
3E9
330
1F
100
AcDbEntity
  8
LAY-10
  6
CONTINUOUS
 62
     7
100
AcDbLine
 10
247.1999999999648
 20
367.1999999999268
 30
0.0
 11
260.1999999999803
 21
367.1999999999268
 31
0.0
  0
LINE
  5
3EA
330
1F
100
AcDbEntity
  8
LAY-10
  6
CONTINUOUS
 62
     7
100
AcDbLine
 10
247.1999999999648
 20
372.1999999999277
 30
0.0
 11
260.1999999999803
 21
372.1999999999277
 31
0.0
  0
LINE
  5
3EB
330
1F
100
AcDbEntity
  8
LAY-10
  6
CONTINUOUS
 62
     7
100
AcDbLine
 10
260.1999999999803
 20
372.8813011312802
 30
0.0
 11
234.2000000000303
 21
372.8813011312802
 31
0.0
  0
LINE
  5
3EC
330
1F
100
AcDbEntity
  8
LAY-10
  6
CONTINUOUS
 62
     7
100
AcDbLine
 10
280.1999999999402
 20
372.1999999999277
 30
0.0
 11
310.1999999999803
 21
372.1999999999277
 31
0.0
  0
LINE
  5
3ED
330
1F
100
AcDbEntity
  8
LAY-10
  6
CONTINUOUS
 62
     7
100
AcDbLine
 10
310.1999999999803
 20
372.8813011312802
 30
0.0
 11
264.7072032962101
 21
372.8813011312802
 31
0.0
  0
LINE
  5
3EE
330
1F
100
AcDbEntity
  8
LAY-10
  6
CONTINUOUS
 62
     7
100
AcDbLine
 10
280.1999999969307
 20
367.1999999999268
 30
0.0
 11
310.1999999999803
 21
367.1999999999268
 31
0.0
  0
LINE
  5
3EF
330
1F
100
AcDbEntity
  8
LAY-10
  6
CONTINUOUS
 62
     7
100
AcDbLine
 10
264.7072032954861
 20
366.5186988691273
 30
0.0
 11
310.1999999999803
 21
366.5186988691273
 31
0.0
  0
LINE
  5
3F0
330
1F
100
AcDbEntity
  8
LAY-10
  6
CONTINUOUS
 62
     7
100
AcDbLine
 10
399.29170479463
 20
372.8813011312802
 30
0.0
 11
364.7072032962101
 21
372.8813011312802
 31
0.0
  0
LINE
  5
3F1
330
1F
100
AcDbEntity
  8
LAY-10
  6
CONTINUOUS
 62
     7
100
AcDbLine
 10
360.1999999999803
 20
372.8813011312802
 30
0.0
 11
314.7072032962101
 21
372.8813011312802
 31
0.0
  0
LINE
  5
3F2
330
1F
100
AcDbEntity
  8
LAY-10
  6
CONTINUOUS
 62
     7
100
AcDbLine
 10
330.1999999999402
 20
372.1999999999277
 30
0.0
 11
360.1999999999803
 21
372.1999999999277
 31
0.0
  0
LINE
  5
3F3
330
1F
100
AcDbEntity
  8
LAY-10
  6
CONTINUOUS
 62
     7
100
AcDbLine
 10
330.1999999969307
 20
367.1999999999268
 30
0.0
 11
360.1999999999803
 21
367.1999999999268
 31
0.0
  0
LINE
  5
3F4
330
1F
100
AcDbEntity
  8
LAY-10
  6
CONTINUOUS
 62
     7
100
AcDbLine
 10
314.7072032954861
 20
366.5186988691273
 30
0.0
 11
360.1999999999803
 21
366.5186988691273
 31
0.0
  0
LINE
  5
3F5
330
1F
100
AcDbEntity
  8
LAY-10
  6
CONTINUOUS
 62
     7
100
AcDbLine
 10
364.7072032954861
 20
366.5186988691273
 30
0.0
 11
376.1999999998798
 21
366.5186988691273
 31
0.0
  0
LINE
  5
3F6
330
1F
100
AcDbEntity
  8
LAY-10
  6
CONTINUOUS
 62
     7
100
AcDbLine
 10
380.1999999969307
 20
367.1999999999268
 30
0.0
 11
403.199999999965
 21
367.1999999999268
 31
0.0
  0
LINE
  5
3F7
330
1F
100
AcDbEntity
  8
LAY-10
  6
CONTINUOUS
 62
     7
100
AcDbLine
 10
380.1999999999398
 20
372.1999999999277
 30
0.0
 11
406.1999999999653
 21
372.1999999999277
 31
0.0
  0
LINE
  5
3F8
330
1F
100
AcDbEntity
  8
LAY-10
  6
CONTINUOUS
 62
     7
100
AcDbLine
 10
406.1999999999697
 20
170.7000000000801
 30
0.0
 11
411.1999999999698
 21
170.7000000000801
 31
0.0
  0
LINE
  5
3F9
330
1F
100
AcDbEntity
  8
LAY-10
  6
CONTINUOUS
 62
     7
100
AcDbLine
 10
411.1999999999698
 20
183.7000000000801
 30
0.0
 11
406.1999999999697
 21
183.7000000000801
 31
0.0
  0
LINE
  5
3FA
330
1F
100
AcDbEntity
  8
LAY-10
  6
CONTINUOUS
 62
     7
100
AcDbLine
 10
411.1999999999698
 20
170.7000000000883
 30
0.0
 11
406.1999999999697
 21
170.7000000000883
 31
0.0
  0
LINE
  5
3FB
330
1F
100
AcDbEntity
  8
LAY-10
  6
CONTINUOUS
 62
     7
100
AcDbLine
 10
406.1999999999653
 20
170.7000000000887
 30
0.0
 11
406.1999999999653
 21
150.1999999999259
 31
0.0
  0
LINE
  5
3FC
330
1F
100
AcDbEntity
  8
LAY-10
  6
CONTINUOUS
 62
     7
100
AcDbLine
 10
411.1999999999652
 20
170.7000000000887
 30
0.0
 11
411.1999999999652
 21
146.8974569531472
 31
0.0
  0
LINE
  5
3FD
330
1F
100
AcDbEntity
  8
LAY-10
  6
CONTINUOUS
 62
     7
100
AcDbLine
 10
406.1999999999697
 20
210.7000000000801
 30
0.0
 11
411.1999999999698
 21
210.7000000000801
 31
0.0
  0
LINE
  5
3FE
330
1F
100
AcDbEntity
  8
LAY-10
  6
CONTINUOUS
 62
     7
100
AcDbLine
 10
411.1999999999698
 20
223.7000000000801
 30
0.0
 11
406.1999999999697
 21
223.7000000000801
 31
0.0
  0
LINE
  5
3FF
330
1F
100
AcDbEntity
  8
LAY-10
  6
CONTINUOUS
 62
     7
100
AcDbLine
 10
411.1999999999698
 20
210.7000000000883
 30
0.0
 11
406.1999999999697
 21
210.7000000000883
 31
0.0
  0
LINE
  5
400
330
1F
100
AcDbEntity
  8
LAY-10
  6
CONTINUOUS
 62
     7
100
AcDbLine
 10
406.1999999999697
 20
290.7000000000801
 30
0.0
 11
411.1999999999698
 21
290.7000000000801
 31
0.0
  0
LINE
  5
401
330
1F
100
AcDbEntity
  8
LAY-10
  6
CONTINUOUS
 62
     7
100
AcDbLine
 10
411.1999999999698
 20
303.7000000000801
 30
0.0
 11
406.1999999999697
 21
303.7000000000801
 31
0.0
  0
LINE
  5
402
330
1F
100
AcDbEntity
  8
LAY-10
  6
CONTINUOUS
 62
     7
100
AcDbLine
 10
411.1999999999698
 20
290.7000000000883
 30
0.0
 11
406.1999999999697
 21
290.7000000000883
 31
0.0
  0
LINE
  5
403
330
1F
100
AcDbEntity
  8
LAY-10
  6
CONTINUOUS
 62
     7
100
AcDbLine
 10
406.1999999999697
 20
330.69999999988
 30
0.0
 11
411.1999999999698
 21
330.69999999988
 31
0.0
  0
LINE
  5
404
330
1F
100
AcDbEntity
  8
LAY-10
  6
CONTINUOUS
 62
     7
100
AcDbLine
 10
411.1999999999698
 20
343.69999999988
 30
0.0
 11
406.1999999999697
 21
343.69999999988
 31
0.0
  0
LINE
  5
405
330
1F
100
AcDbEntity
  8
LAY-10
  6
CONTINUOUS
 62
     7
100
AcDbLine
 10
411.1999999999698
 20
330.6999999998882
 30
0.0
 11
406.1999999999697
 21
330.6999999998882
 31
0.0
  0
LINE
  5
406
330
1F
100
AcDbEntity
  8
LAY-10
  6
CONTINUOUS
 62
     7
100
AcDbLine
 10
406.1999999999697
 20
250.69999999998
 30
0.0
 11
411.1999999999698
 21
250.69999999998
 31
0.0
  0
LINE
  5
407
330
1F
100
AcDbEntity
  8
LAY-10
  6
CONTINUOUS
 62
     7
100
AcDbLine
 10
411.1999999999698
 20
263.69999999998
 30
0.0
 11
406.1999999999697
 21
263.69999999998
 31
0.0
  0
LINE
  5
408
330
1F
100
AcDbEntity
  8
LAY-10
  6
CONTINUOUS
 62
     7
100
AcDbLine
 10
411.1999999999698
 20
250.6999999999882
 30
0.0
 11
406.1999999999697
 21
250.6999999999882
 31
0.0
  0
LINE
  5
409
330
1F
100
AcDbEntity
  8
LAY-10
  6
CONTINUOUS
 62
     7
100
AcDbLine
 10
406.1999999999653
 20
210.7000000000887
 30
0.0
 11
406.1999999999653
 21
183.7000000000796
 31
0.0
  0
LINE
  5
40A
330
1F
100
AcDbEntity
  8
LAY-10
  6
CONTINUOUS
 62
     7
100
AcDbLine
 10
411.1999999999652
 20
210.7000000000887
 30
0.0
 11
411.1999999999652
 21
183.7000000000796
 31
0.0
  0
LINE
  5
40B
330
1F
100
AcDbEntity
  8
LAY-10
  6
CONTINUOUS
 62
     7
100
AcDbLine
 10
406.1999999999653
 20
250.6999999999886
 30
0.0
 11
406.1999999999653
 21
223.7000000000796
 31
0.0
  0
LINE
  5
40C
330
1F
100
AcDbEntity
  8
LAY-10
  6
CONTINUOUS
 62
     7
100
AcDbLine
 10
411.1999999999652
 20
250.6999999999886
 30
0.0
 11
411.1999999999652
 21
223.7000000000796
 31
0.0
  0
LINE
  5
40D
330
1F
100
AcDbEntity
  8
LAY-10
  6
CONTINUOUS
 62
     7
100
AcDbLine
 10
406.1999999999653
 20
290.7000000000887
 30
0.0
 11
406.1999999999653
 21
263.6999999999796
 31
0.0
  0
LINE
  5
40E
330
1F
100
AcDbEntity
  8
LAY-10
  6
CONTINUOUS
 62
     7
100
AcDbLine
 10
411.1999999999652
 20
290.7000000000887
 30
0.0
 11
411.1999999999652
 21
263.6999999999796
 31
0.0
  0
LINE
  5
40F
330
1F
100
AcDbEntity
  8
LAY-10
  6
CONTINUOUS
 62
     7
100
AcDbLine
 10
406.1999999999653
 20
330.6999999998886
 30
0.0
 11
406.1999999999653
 21
303.7000000000796
 31
0.0
  0
LINE
  5
410
330
1F
100
AcDbEntity
  8
LAY-10
  6
CONTINUOUS
 62
     7
100
AcDbLine
 10
406.1999999999653
 20
364.1999999999268
 30
0.0
 11
406.1999999999653
 21
343.6999999998795
 31
0.0
  0
LINE
  5
411
330
1F
100
AcDbEntity
  8
LAY-10
  6
CONTINUOUS
 62
     7
100
AcDbLine
 10
411.1999999999652
 20
367.4778851358913
 30
0.0
 11
411.1999999999652
 21
343.6999999998795
 31
0.0
  0
LINE
  5
412
330
1F
100
AcDbEntity
  8
LAY-10
  6
CONTINUOUS
 62
     7
100
AcDbLine
 10
411.1999999999652
 20
330.6999999998886
 30
0.0
 11
411.1999999999652
 21
303.7000000000796
 31
0.0
  0
LINE
  5
413
330
1F
100
AcDbEntity
  8
LAY-10
  6
CONTINUOUS
 62
     7
100
AcDbLine
 10
247.1999999999302
 20
366.5186988691273
 30
0.0
 11
260.1999999999803
 21
366.5186988691273
 31
0.0
  0
LINE
  5
414
330
1F
100
AcDbEntity
  8
LAY-10
  6
CONTINUOUS
 62
     7
100
AcDbLine
 10
247.1999999999302
 20
147.8813011308323
 30
0.0
 11
260.1999999999803
 21
147.8813011308323
 31
0.0
  0
ARC
  5
415
330
1F
100
AcDbEntity
  8
LAY-10
  6
CONTINUOUS
 62
     7
100
AcDbCircle
 10
381.1999999998793
 20
364.6759222069593
 30
0.0
 40
2.0
100
AcDbArc
 50
0.6897946230042968
 51
90.00000000000001
  0
ARC
  5
416
330
1F
100
AcDbEntity
  8
LAY-10
  6
CONTINUOUS
 62
     7
100
AcDbCircle
 10
376.1999999998789
 20
364.5186988692069
 30
0.0
 40
2.0
100
AcDbArc
 50
5.201034734526234
 51
90.00000000000001
  0
ARC
  5
417
330
1F
100
AcDbEntity
  8
LAY-10
  6
CONTINUOUS
 62
     7
100
AcDbCircle
 10
390.2824640739495
 20
363.6759222069588
 30
0.0
 40
3.0
100
AcDbArc
 50
19.95970944757057
 51
90.00000000000001
  0
ARC
  5
418
330
1F
100
AcDbEntity
  8
LAY-10
  6
CONTINUOUS
 62
     7
100
AcDbCircle
 10
376.1999999998789
 20
149.8813011308323
 30
0.0
 40
2.0
100
AcDbArc
 50
270.0
 51
354.7989652626219
  0
ARC
  5
419
330
1F
100
AcDbEntity
  8
LAY-10
  6
CONTINUOUS
 62
     7
100
AcDbCircle
 10
381.1999999998793
 20
149.7240777930799
 30
0.0
 40
2.0
100
AcDbArc
 50
270.0
 51
359.3102053741555
  0
ARC
  5
41A
330
1F
100
AcDbEntity
  8
LAY-10
  6
CONTINUOUS
 62
     7
100
AcDbCircle
 10
390.2824640739495
 20
150.7240777930799
 30
0.0
 40
3.0
100
AcDbArc
 50
270.0
 51
340.0402905504246
  0
LINE
  5
41B
330
1F
100
AcDbEntity
  8
LAY-10
  6
CONTINUOUS
 62
     7
100
AcDbLine
 10
400.19999999979
 20
183.2008790029224
 30
0.0
 11
406.1999999999703
 21
183.7000000000801
 31
0.0
  0
LINE
  5
41C
330
1F
100
AcDbEntity
  8
LAY-10
  6
CONTINUOUS
 62
     7
100
AcDbLine
 10
400.19999999979
 20
182.4038617188783
 30
0.0
 11
411.1999999999703
 21
183.7000000000801
 31
0.0
  0
LINE
  5
41D
330
1F
100
AcDbEntity
  8
LAY-10
  6
CONTINUOUS
 62
     7
100
AcDbLine
 10
400.19999999979
 20
171.1991209972455
 30
0.0
 11
406.1999999999703
 21
170.7000000000883
 31
0.0
  0
LINE
  5
41E
330
1F
100
AcDbEntity
  8
LAY-10
  6
CONTINUOUS
 62
     7
100
AcDbLine
 10
400.19999999979
 20
171.9961382812901
 30
0.0
 11
411.1999999999703
 21
170.7000000000883
 31
0.0
  0
LINE
  5
41F
330
1F
100
AcDbEntity
  8
LAY-10
  6
CONTINUOUS
 62
     7
100
AcDbLine
 10
400.19999999979
 20
223.2008790029224
 30
0.0
 11
406.1999999999703
 21
223.7000000000801
 31
0.0
  0
LINE
  5
420
330
1F
100
AcDbEntity
  8
LAY-10
  6
CONTINUOUS
 62
     7
100
AcDbLine
 10
400.19999999979
 20
222.4038617188783
 30
0.0
 11
411.1999999999703
 21
223.7000000000801
 31
0.0
  0
LINE
  5
421
330
1F
100
AcDbEntity
  8
LAY-10
  6
CONTINUOUS
 62
     7
100
AcDbLine
 10
400.19999999979
 20
211.1991209972454
 30
0.0
 11
406.1999999999703
 21
210.7000000000883
 31
0.0
  0
LINE
  5
422
330
1F
100
AcDbEntity
  8
LAY-10
  6
CONTINUOUS
 62
     7
100
AcDbLine
 10
400.19999999979
 20
211.9961382812901
 30
0.0
 11
411.1999999999703
 21
210.7000000000883
 31
0.0
  0
LINE
  5
423
330
1F
100
AcDbEntity
  8
LAY-10
  6
CONTINUOUS
 62
     7
100
AcDbLine
 10
400.19999999979
 20
303.2008790029224
 30
0.0
 11
406.1999999999703
 21
303.7000000000801
 31
0.0
  0
LINE
  5
424
330
1F
100
AcDbEntity
  8
LAY-10
  6
CONTINUOUS
 62
     7
100
AcDbLine
 10
400.19999999979
 20
302.4038617188783
 30
0.0
 11
411.1999999999703
 21
303.7000000000801
 31
0.0
  0
LINE
  5
425
330
1F
100
AcDbEntity
  8
LAY-10
  6
CONTINUOUS
 62
     7
100
AcDbLine
 10
400.19999999979
 20
291.1991209972455
 30
0.0
 11
406.1999999999703
 21
290.7000000000883
 31
0.0
  0
LINE
  5
426
330
1F
100
AcDbEntity
  8
LAY-10
  6
CONTINUOUS
 62
     7
100
AcDbLine
 10
400.19999999979
 20
291.9961382812901
 30
0.0
 11
411.1999999999703
 21
290.7000000000883
 31
0.0
  0
LINE
  5
427
330
1F
100
AcDbEntity
  8
LAY-10
  6
CONTINUOUS
 62
     7
100
AcDbLine
 10
400.19999999979
 20
343.2008790027223
 30
0.0
 11
406.1999999999703
 21
343.69999999988
 31
0.0
  0
LINE
  5
428
330
1F
100
AcDbEntity
  8
LAY-10
  6
CONTINUOUS
 62
     7
100
AcDbLine
 10
400.19999999979
 20
342.4038617186782
 30
0.0
 11
411.1999999999703
 21
343.69999999988
 31
0.0
  0
LINE
  5
429
330
1F
100
AcDbEntity
  8
LAY-10
  6
CONTINUOUS
 62
     7
100
AcDbLine
 10
400.19999999979
 20
331.1991209970454
 30
0.0
 11
406.1999999999703
 21
330.6999999998882
 31
0.0
  0
LINE
  5
42A
330
1F
100
AcDbEntity
  8
LAY-10
  6
CONTINUOUS
 62
     7
100
AcDbLine
 10
400.19999999979
 20
331.99613828109
 30
0.0
 11
411.1999999999703
 21
330.6999999998882
 31
0.0
  0
LINE
  5
42B
330
1F
100
AcDbEntity
  8
LAY-10
  6
CONTINUOUS
 62
     7
100
AcDbLine
 10
400.19999999979
 20
263.2008790028224
 30
0.0
 11
406.1999999999703
 21
263.69999999998
 31
0.0
  0
LINE
  5
42C
330
1F
100
AcDbEntity
  8
LAY-10
  6
CONTINUOUS
 62
     7
100
AcDbLine
 10
400.19999999979
 20
262.4038617187782
 30
0.0
 11
411.1999999999703
 21
263.69999999998
 31
0.0
  0
LINE
  5
42D
330
1F
100
AcDbEntity
  8
LAY-10
  6
CONTINUOUS
 62
     7
100
AcDbLine
 10
400.19999999979
 20
251.1991209971454
 30
0.0
 11
406.1999999999703
 21
250.6999999999882
 31
0.0
  0
LINE
  5
42E
330
1F
100
AcDbEntity
  8
LAY-10
  6
CONTINUOUS
 62
     7
100
AcDbLine
 10
400.19999999979
 20
251.99613828119
 30
0.0
 11
411.1999999999703
 21
250.6999999999882
 31
0.0
  0
LINE
  5
42F
330
1F
100
AcDbEntity
  8
LAY-10
  6
CONTINUOUS
 62
     7
100
AcDbLine
 10
393.1999999999507
 20
108.1999999999823
 30
0.0
 11
375.1999999999507
 21
108.1999999999823
 31
0.0
  0
LINE
  5
430
330
1F
100
AcDbEntity
  8
LAY-10
  6
CONTINUOUS
 62
     7
100
AcDbLine
 10
393.199999999948
 20
126.1999999999823
 30
0.0
 11
375.199999999948
 21
126.1999999999773
 31
0.0
  0
LINE
  5
431
330
1F
100
AcDbEntity
  8
LAY-10
  6
CONTINUOUS
 62
     7
100
AcDbLine
 10
375.1999999999507
 20
108.1999999999823
 30
0.0
 11
375.1999999999507
 21
126.1999999999823
 31
0.0
  0
LINE
  5
432
330
1F
100
AcDbEntity
  8
LAY-10
  6
CONTINUOUS
 62
     7
100
AcDbLine
 10
393.1999999999507
 20
108.1999999999823
 30
0.0
 11
393.1999999999507
 21
126.1999999999823
 31
0.0
  0
LINE
  5
433
330
1F
100
AcDbEntity
  8
LAY-10
  6
CONTINUOUS
 62
     7
100
AcDbLine
 10
370.1999999999516
 20
127.1999999999757
 30
0.0
 11
396.1999999999502
 21
127.1999999999757
 31
0.0
  0
LINE
  5
434
330
1F
100
AcDbEntity
  8
LAY-10
  6
CONTINUOUS
 62
     7
100
AcDbLine
 10
370.1999999999543
 20
107.1999999999823
 30
0.0
 11
396.1999999999529
 21
107.1999999999896
 31
0.0
  0
LINE
  5
435
330
1F
100
AcDbEntity
  8
LAY-10
  6
CONTINUOUS
 62
     7
100
AcDbLine
 10
375.1999999999503
 20
126.19999999998
 30
0.0
 11
370.1999999999503
 21
127.19999999998
 31
0.0
  0
LINE
  5
436
330
1F
100
AcDbEntity
  8
LAY-10
  6
CONTINUOUS
 62
     7
100
AcDbLine
 10
375.1999999999503
 20
108.19999999998
 30
0.0
 11
370.1999999999503
 21
107.19999999998
 31
0.0
  0
LINE
  5
437
330
1F
100
AcDbEntity
  8
LAY-10
  6
CONTINUOUS
 62
     7
100
AcDbLine
 10
393.1999999999502
 20
108.19999999998
 30
0.0
 11
396.1999999999502
 21
107.19999999998
 31
0.0
  0
LINE
  5
438
330
1F
100
AcDbEntity
  8
LAY-10
  6
CONTINUOUS
 62
     7
100
AcDbLine
 10
393.1999999999502
 20
126.19999999998
 30
0.0
 11
396.1999999999502
 21
127.19999999998
 31
0.0
  0
LINE
  5
439
330
1F
100
AcDbEntity
  8
LAY-10
  6
CONTINUOUS
 62
     7
100
AcDbLine
 10
370.1999999999516
 20
127.1999999999796
 30
0.0
 11
370.1999999999543
 21
107.1999999999807
 31
0.0
  0
LINE
  5
43A
330
1F
100
AcDbEntity
  8
LAY-10
  6
CONTINUOUS
 62
     7
100
AcDbLine
 10
396.1999999999502
 20
127.1999999999798
 30
0.0
 11
396.1999999999502
 21
107.19999999998
 31
0.0
  0
LINE
  5
43B
330
1F
100
AcDbEntity
  8
LAY-10
  6
CONTINUOUS
 62
     7
100
AcDbLine
 10
393.1999999999507
 20
406.1999999999773
 30
0.0
 11
375.1999999999507
 21
406.1999999999773
 31
0.0
  0
LINE
  5
43C
330
1F
100
AcDbEntity
  8
LAY-10
  6
CONTINUOUS
 62
     7
100
AcDbLine
 10
393.199999999948
 20
388.1999999999773
 30
0.0
 11
375.199999999948
 21
388.1999999999823
 31
0.0
  0
LINE
  5
43D
330
1F
100
AcDbEntity
  8
LAY-10
  6
CONTINUOUS
 62
     7
100
AcDbLine
 10
375.1999999999507
 20
406.1999999999773
 30
0.0
 11
375.1999999999507
 21
388.1999999999773
 31
0.0
  0
LINE
  5
43E
330
1F
100
AcDbEntity
  8
LAY-10
  6
CONTINUOUS
 62
     7
100
AcDbLine
 10
393.1999999999507
 20
406.1999999999773
 30
0.0
 11
393.1999999999507
 21
388.1999999999773
 31
0.0
  0
LINE
  5
43F
330
1F
100
AcDbEntity
  8
LAY-10
  6
CONTINUOUS
 62
     7
100
AcDbLine
 10
370.1999999999516
 20
387.1999999999841
 30
0.0
 11
396.1999999999502
 21
387.1999999999841
 31
0.0
  0
LINE
  5
440
330
1F
100
AcDbEntity
  8
LAY-10
  6
CONTINUOUS
 62
     7
100
AcDbLine
 10
370.1999999999543
 20
407.1999999999773
 30
0.0
 11
396.1999999999529
 21
407.19999999997
 31
0.0
  0
LINE
  5
441
330
1F
100
AcDbEntity
  8
LAY-10
  6
CONTINUOUS
 62
     7
100
AcDbLine
 10
375.1999999999503
 20
388.1999999999796
 30
0.0
 11
370.1999999999503
 21
387.1999999999795
 31
0.0
  0
LINE
  5
442
330
1F
100
AcDbEntity
  8
LAY-10
  6
CONTINUOUS
 62
     7
100
AcDbLine
 10
375.1999999999503
 20
406.1999999999796
 30
0.0
 11
370.1999999999503
 21
407.1999999999796
 31
0.0
  0
LINE
  5
443
330
1F
100
AcDbEntity
  8
LAY-10
  6
CONTINUOUS
 62
     7
100
AcDbLine
 10
393.1999999999502
 20
406.1999999999796
 30
0.0
 11
396.1999999999502
 21
407.1999999999796
 31
0.0
  0
LINE
  5
444
330
1F
100
AcDbEntity
  8
LAY-10
  6
CONTINUOUS
 62
     7
100
AcDbLine
 10
393.1999999999502
 20
388.1999999999796
 30
0.0
 11
396.1999999999502
 21
387.1999999999795
 31
0.0
  0
LINE
  5
445
330
1F
100
AcDbEntity
  8
LAY-10
  6
CONTINUOUS
 62
     7
100
AcDbLine
 10
370.1999999999516
 20
387.19999999998
 30
0.0
 11
370.1999999999543
 21
407.1999999999787
 31
0.0
  0
LINE
  5
446
330
1F
100
AcDbEntity
  8
LAY-10
  6
CONTINUOUS
 62
     7
100
AcDbLine
 10
396.1999999999502
 20
387.1999999999795
 30
0.0
 11
396.1999999999502
 21
407.1999999999796
 31
0.0
  0
LINE
  5
447
330
1F
100
AcDbEntity
  8
LAY-10
  6
CONTINUOUS
 62
     7
100
AcDbLine
 10
400.1999999999
 20
364.6999999999798
 30
0.0
 11
400.1999999999
 21
149.6999999999798
 31
0.0
  0
ARC
  5
448
330
1F
100
AcDbEntity
  8
LAY-10
  6
CONTINUOUS
 62
     7
100
AcDbCircle
 10
253.8568542494004
 20
251.1999999999798
 30
0.0
 40
2.0
100
AcDbArc
 50
90.00000000000001
 51
180.0
  0
LINE
  5
449
330
1F
100
AcDbEntity
  8
LAY-10
  6
CONTINUOUS
 62
     7
100
AcDbLine
 10
251.8568542494004
 20
244.1999999999798
 30
0.0
 11
251.8568542494004
 21
251.1999999999798
 31
0.0
  0
ARC
  5
44A
330
1F
100
AcDbEntity
  8
LAY-10
  6
CONTINUOUS
 62
     7
100
AcDbCircle
 10
253.8568542494004
 20
244.1999999999798
 30
0.0
 40
2.0
100
AcDbArc
 50
180.0
 51
270.0
  0
LINE
  5
44B
330
1F
100
AcDbEntity
  8
LAY-10
  6
CONTINUOUS
 62
     7
100
AcDbLine
 10
253.8568542494004
 20
253.1999999999798
 30
0.0
 11
316.9573593128002
 21
253.1999999999798
 31
0.0
  0
ARC
  5
44C
330
1F
100
AcDbEntity
  8
LAY-10
  6
CONTINUOUS
 62
     7
100
AcDbCircle
 10
316.9573593128002
 20
251.1999999999798
 30
0.0
 40
2.0
100
AcDbArc
 50
0.0
 51
90.00000000000001
  0
LINE
  5
44D
330
1F
100
AcDbEntity
  8
LAY-10
  6
CONTINUOUS
 62
     7
100
AcDbLine
 10
316.9573593128002
 20
242.1999999999798
 30
0.0
 11
253.8568542494004
 21
242.1999999999798
 31
0.0
  0
LINE
  5
44E
330
1F
100
AcDbEntity
  8
LAY-10
  6
CONTINUOUS
 62
     7
100
AcDbLine
 10
318.9573593128002
 20
251.1999999999798
 30
0.0
 11
318.9573593128002
 21
244.1999999999798
 31
0.0
  0
ARC
  5
44F
330
1F
100
AcDbEntity
  8
LAY-10
  6
CONTINUOUS
 62
     7
100
AcDbCircle
 10
316.9573593128002
 20
244.1999999999798
 30
0.0
 40
2.0
100
AcDbArc
 50
270.0
 51
0.0
  0
ARC
  5
450
330
1F
100
AcDbEntity
  8
LAY-10
  6
CONTINUOUS
 62
     7
100
AcDbCircle
 10
329.4426406870002
 20
251.1999999999798
 30
0.0
 40
2.0
100
AcDbArc
 50
90.00000000000001
 51
180.0
  0
LINE
  5
451
330
1F
100
AcDbEntity
  8
LAY-10
  6
CONTINUOUS
 62
     7
100
AcDbLine
 10
327.4426406870002
 20
244.1999999999798
 30
0.0
 11
327.4426406870002
 21
251.1999999999798
 31
0.0
  0
ARC
  5
452
330
1F
100
AcDbEntity
  8
LAY-10
  6
CONTINUOUS
 62
     7
100
AcDbCircle
 10
329.4426406870002
 20
244.1999999999798
 30
0.0
 40
2.0
100
AcDbArc
 50
180.0
 51
270.0
  0
LINE
  5
453
330
1F
100
AcDbEntity
  8
LAY-10
  6
CONTINUOUS
 62
     7
100
AcDbLine
 10
329.4426406870002
 20
253.1999999999798
 30
0.0
 11
392.5431457504005
 21
253.1999999999798
 31
0.0
  0
ARC
  5
454
330
1F
100
AcDbEntity
  8
LAY-10
  6
CONTINUOUS
 62
     7
100
AcDbCircle
 10
392.5431457504005
 20
251.1999999999798
 30
0.0
 40
2.0
100
AcDbArc
 50
0.0
 51
90.00000000000001
  0
LINE
  5
455
330
1F
100
AcDbEntity
  8
LAY-10
  6
CONTINUOUS
 62
     7
100
AcDbLine
 10
392.5431457504005
 20
242.1999999999798
 30
0.0
 11
329.4426406870002
 21
242.1999999999798
 31
0.0
  0
LINE
  5
456
330
1F
100
AcDbEntity
  8
LAY-10
  6
CONTINUOUS
 62
     7
100
AcDbLine
 10
394.5431457504005
 20
251.1999999999798
 30
0.0
 11
394.5431457504005
 21
244.1999999999798
 31
0.0
  0
ARC
  5
457
330
1F
100
AcDbEntity
  8
LAY-10
  6
CONTINUOUS
 62
     7
100
AcDbCircle
 10
392.5431457504005
 20
244.1999999999798
 30
0.0
 40
2.0
100
AcDbArc
 50
270.0
 51
0.0
  0
ARC
  5
458
330
1F
100
AcDbEntity
  8
LAY-10
  6
CONTINUOUS
 62
     7
100
AcDbCircle
 10
313.4218254068005
 20
251.1999999999798
 30
0.0
 40
2.0
100
AcDbArc
 50
0.0
 51
90.00000000000001
  0
LINE
  5
459
330
1F
100
AcDbEntity
  8
LAY-10
  6
CONTINUOUS
 62
     7
100
AcDbLine
 10
315.4218254068005
 20
251.1999999999798
 30
0.0
 11
315.4218254068005
 21
244.1999999999798
 31
0.0
  0
ARC
  5
45A
330
1F
100
AcDbEntity
  8
LAY-10
  6
CONTINUOUS
 62
     7
100
AcDbCircle
 10
313.4218254068005
 20
244.1999999999798
 30
0.0
 40
2.0
100
AcDbArc
 50
270.0
 51
0.0
  0
ARC
  5
45B
330
1F
100
AcDbEntity
  8
LAY-10
  6
CONTINUOUS
 62
     7
100
AcDbCircle
 10
389.0076118444999
 20
251.1999999999798
 30
0.0
 40
2.0
100
AcDbArc
 50
0.0
 51
90.00000000000001
  0
LINE
  5
45C
330
1F
100
AcDbEntity
  8
LAY-10
  6
CONTINUOUS
 62
     7
100
AcDbLine
 10
391.0076118445004
 20
251.1999999999798
 30
0.0
 11
391.0076118445004
 21
244.1999999999798
 31
0.0
  0
ARC
  5
45D
330
1F
100
AcDbEntity
  8
LAY-10
  6
CONTINUOUS
 62
     7
100
AcDbCircle
 10
389.0076118444999
 20
244.1999999999798
 30
0.0
 40
2.0
100
AcDbArc
 50
270.0
 51
0.0
  0
ARC
  5
45E
330
1F
100
AcDbEntity
  8
LAY-10
  6
CONTINUOUS
 62
     7
100
AcDbCircle
 10
253.8568542494004
 20
232.1999999999798
 30
0.0
 40
2.0
100
AcDbArc
 50
90.00000000000001
 51
180.0
  0
LINE
  5
45F
330
1F
100
AcDbEntity
  8
LAY-10
  6
CONTINUOUS
 62
     7
100
AcDbLine
 10
251.8568542494004
 20
225.1999999999798
 30
0.0
 11
251.8568542494004
 21
232.1999999999798
 31
0.0
  0
ARC
  5
460
330
1F
100
AcDbEntity
  8
LAY-10
  6
CONTINUOUS
 62
     7
100
AcDbCircle
 10
253.8568542494004
 20
225.1999999999798
 30
0.0
 40
2.0
100
AcDbArc
 50
180.0
 51
270.0
  0
LINE
  5
461
330
1F
100
AcDbEntity
  8
LAY-10
  6
CONTINUOUS
 62
     7
100
AcDbLine
 10
253.8568542494004
 20
234.1999999999798
 30
0.0
 11
316.9573593128002
 21
234.1999999999798
 31
0.0
  0
ARC
  5
462
330
1F
100
AcDbEntity
  8
LAY-10
  6
CONTINUOUS
 62
     7
100
AcDbCircle
 10
316.9573593128002
 20
232.1999999999798
 30
0.0
 40
2.0
100
AcDbArc
 50
0.0
 51
90.00000000000001
  0
LINE
  5
463
330
1F
100
AcDbEntity
  8
LAY-10
  6
CONTINUOUS
 62
     7
100
AcDbLine
 10
316.9573593128002
 20
223.1999999999798
 30
0.0
 11
253.8568542494004
 21
223.1999999999798
 31
0.0
  0
LINE
  5
464
330
1F
100
AcDbEntity
  8
LAY-10
  6
CONTINUOUS
 62
     7
100
AcDbLine
 10
318.9573593128002
 20
232.1999999999798
 30
0.0
 11
318.9573593128002
 21
225.1999999999798
 31
0.0
  0
ARC
  5
465
330
1F
100
AcDbEntity
  8
LAY-10
  6
CONTINUOUS
 62
     7
100
AcDbCircle
 10
316.9573593128002
 20
225.1999999999798
 30
0.0
 40
2.0
100
AcDbArc
 50
270.0
 51
0.0
  0
ARC
  5
466
330
1F
100
AcDbEntity
  8
LAY-10
  6
CONTINUOUS
 62
     7
100
AcDbCircle
 10
329.4426406870002
 20
232.1999999999798
 30
0.0
 40
2.0
100
AcDbArc
 50
90.00000000000001
 51
180.0
  0
LINE
  5
467
330
1F
100
AcDbEntity
  8
LAY-10
  6
CONTINUOUS
 62
     7
100
AcDbLine
 10
327.4426406870002
 20
225.1999999999798
 30
0.0
 11
327.4426406870002
 21
232.1999999999798
 31
0.0
  0
ARC
  5
468
330
1F
100
AcDbEntity
  8
LAY-10
  6
CONTINUOUS
 62
     7
100
AcDbCircle
 10
329.4426406870002
 20
225.1999999999798
 30
0.0
 40
2.0
100
AcDbArc
 50
180.0
 51
270.0
  0
LINE
  5
469
330
1F
100
AcDbEntity
  8
LAY-10
  6
CONTINUOUS
 62
     7
100
AcDbLine
 10
329.4426406870002
 20
234.1999999999798
 30
0.0
 11
392.5431457504005
 21
234.1999999999798
 31
0.0
  0
ARC
  5
46A
330
1F
100
AcDbEntity
  8
LAY-10
  6
CONTINUOUS
 62
     7
100
AcDbCircle
 10
392.5431457504005
 20
232.1999999999798
 30
0.0
 40
2.0
100
AcDbArc
 50
0.0
 51
90.00000000000001
  0
LINE
  5
46B
330
1F
100
AcDbEntity
  8
LAY-10
  6
CONTINUOUS
 62
     7
100
AcDbLine
 10
392.5431457504005
 20
223.1999999999798
 30
0.0
 11
329.4426406870002
 21
223.1999999999798
 31
0.0
  0
LINE
  5
46C
330
1F
100
AcDbEntity
  8
LAY-10
  6
CONTINUOUS
 62
     7
100
AcDbLine
 10
394.5431457504005
 20
232.1999999999798
 30
0.0
 11
394.5431457504005
 21
225.1999999999798
 31
0.0
  0
ARC
  5
46D
330
1F
100
AcDbEntity
  8
LAY-10
  6
CONTINUOUS
 62
     7
100
AcDbCircle
 10
392.5431457504005
 20
225.1999999999798
 30
0.0
 40
2.0
100
AcDbArc
 50
270.0
 51
0.0
  0
ARC
  5
46E
330
1F
100
AcDbEntity
  8
LAY-10
  6
CONTINUOUS
 62
     7
100
AcDbCircle
 10
313.4218254068005
 20
232.1999999999798
 30
0.0
 40
2.0
100
AcDbArc
 50
0.0
 51
90.00000000000001
  0
LINE
  5
46F
330
1F
100
AcDbEntity
  8
LAY-10
  6
CONTINUOUS
 62
     7
100
AcDbLine
 10
315.4218254068005
 20
232.1999999999798
 30
0.0
 11
315.4218254068005
 21
225.1999999999798
 31
0.0
  0
ARC
  5
470
330
1F
100
AcDbEntity
  8
LAY-10
  6
CONTINUOUS
 62
     7
100
AcDbCircle
 10
313.4218254068005
 20
225.1999999999798
 30
0.0
 40
2.0
100
AcDbArc
 50
270.0
 51
0.0
  0
ARC
  5
471
330
1F
100
AcDbEntity
  8
LAY-10
  6
CONTINUOUS
 62
     7
100
AcDbCircle
 10
389.0076118444999
 20
232.1999999999798
 30
0.0
 40
2.0
100
AcDbArc
 50
0.0
 51
90.00000000000001
  0
LINE
  5
472
330
1F
100
AcDbEntity
  8
LAY-10
  6
CONTINUOUS
 62
     7
100
AcDbLine
 10
391.0076118445004
 20
232.1999999999798
 30
0.0
 11
391.0076118445004
 21
225.1999999999798
 31
0.0
  0
ARC
  5
473
330
1F
100
AcDbEntity
  8
LAY-10
  6
CONTINUOUS
 62
     7
100
AcDbCircle
 10
389.0076118444999
 20
225.1999999999798
 30
0.0
 40
2.0
100
AcDbArc
 50
270.0
 51
0.0
  0
ARC
  5
474
330
1F
100
AcDbEntity
  8
LAY-10
  6
CONTINUOUS
 62
     7
100
AcDbCircle
 10
253.8568542494004
 20
213.1999999999798
 30
0.0
 40
2.0
100
AcDbArc
 50
90.00000000000001
 51
180.0
  0
LINE
  5
475
330
1F
100
AcDbEntity
  8
LAY-10
  6
CONTINUOUS
 62
     7
100
AcDbLine
 10
251.8568542494004
 20
206.1999999999798
 30
0.0
 11
251.8568542494004
 21
213.1999999999798
 31
0.0
  0
ARC
  5
476
330
1F
100
AcDbEntity
  8
LAY-10
  6
CONTINUOUS
 62
     7
100
AcDbCircle
 10
253.8568542494004
 20
206.1999999999798
 30
0.0
 40
2.0
100
AcDbArc
 50
180.0
 51
270.0
  0
LINE
  5
477
330
1F
100
AcDbEntity
  8
LAY-10
  6
CONTINUOUS
 62
     7
100
AcDbLine
 10
253.8568542494004
 20
215.1999999999798
 30
0.0
 11
316.9573593128002
 21
215.1999999999798
 31
0.0
  0
ARC
  5
478
330
1F
100
AcDbEntity
  8
LAY-10
  6
CONTINUOUS
 62
     7
100
AcDbCircle
 10
316.9573593128002
 20
213.1999999999798
 30
0.0
 40
2.0
100
AcDbArc
 50
0.0
 51
90.00000000000001
  0
LINE
  5
479
330
1F
100
AcDbEntity
  8
LAY-10
  6
CONTINUOUS
 62
     7
100
AcDbLine
 10
316.9573593128002
 20
204.1999999999798
 30
0.0
 11
253.8568542494004
 21
204.1999999999798
 31
0.0
  0
LINE
  5
47A
330
1F
100
AcDbEntity
  8
LAY-10
  6
CONTINUOUS
 62
     7
100
AcDbLine
 10
318.9573593128002
 20
213.1999999999798
 30
0.0
 11
318.9573593128002
 21
206.1999999999798
 31
0.0
  0
ARC
  5
47B
330
1F
100
AcDbEntity
  8
LAY-10
  6
CONTINUOUS
 62
     7
100
AcDbCircle
 10
316.9573593128002
 20
206.1999999999798
 30
0.0
 40
2.0
100
AcDbArc
 50
270.0
 51
0.0
  0
ARC
  5
47C
330
1F
100
AcDbEntity
  8
LAY-10
  6
CONTINUOUS
 62
     7
100
AcDbCircle
 10
329.4426406870002
 20
213.1999999999798
 30
0.0
 40
2.0
100
AcDbArc
 50
90.00000000000001
 51
180.0
  0
LINE
  5
47D
330
1F
100
AcDbEntity
  8
LAY-10
  6
CONTINUOUS
 62
     7
100
AcDbLine
 10
327.4426406870002
 20
206.1999999999798
 30
0.0
 11
327.4426406870002
 21
213.1999999999798
 31
0.0
  0
ARC
  5
47E
330
1F
100
AcDbEntity
  8
LAY-10
  6
CONTINUOUS
 62
     7
100
AcDbCircle
 10
329.4426406870002
 20
206.1999999999798
 30
0.0
 40
2.0
100
AcDbArc
 50
180.0
 51
270.0
  0
LINE
  5
47F
330
1F
100
AcDbEntity
  8
LAY-10
  6
CONTINUOUS
 62
     7
100
AcDbLine
 10
329.4426406870002
 20
215.1999999999798
 30
0.0
 11
392.5431457504005
 21
215.1999999999798
 31
0.0
  0
ARC
  5
480
330
1F
100
AcDbEntity
  8
LAY-10
  6
CONTINUOUS
 62
     7
100
AcDbCircle
 10
392.5431457504005
 20
213.1999999999798
 30
0.0
 40
2.0
100
AcDbArc
 50
0.0
 51
90.00000000000001
  0
LINE
  5
481
330
1F
100
AcDbEntity
  8
LAY-10
  6
CONTINUOUS
 62
     7
100
AcDbLine
 10
392.5431457504005
 20
204.1999999999798
 30
0.0
 11
329.4426406870002
 21
204.1999999999798
 31
0.0
  0
LINE
  5
482
330
1F
100
AcDbEntity
  8
LAY-10
  6
CONTINUOUS
 62
     7
100
AcDbLine
 10
394.5431457504005
 20
213.1999999999798
 30
0.0
 11
394.5431457504005
 21
206.1999999999798
 31
0.0
  0
ARC
  5
483
330
1F
100
AcDbEntity
  8
LAY-10
  6
CONTINUOUS
 62
     7
100
AcDbCircle
 10
392.5431457504005
 20
206.1999999999798
 30
0.0
 40
2.0
100
AcDbArc
 50
270.0
 51
0.0
  0
ARC
  5
484
330
1F
100
AcDbEntity
  8
LAY-10
  6
CONTINUOUS
 62
     7
100
AcDbCircle
 10
313.4218254068005
 20
213.1999999999798
 30
0.0
 40
2.0
100
AcDbArc
 50
0.0
 51
90.00000000000001
  0
LINE
  5
485
330
1F
100
AcDbEntity
  8
LAY-10
  6
CONTINUOUS
 62
     7
100
AcDbLine
 10
315.4218254068005
 20
213.1999999999798
 30
0.0
 11
315.4218254068005
 21
206.1999999999798
 31
0.0
  0
ARC
  5
486
330
1F
100
AcDbEntity
  8
LAY-10
  6
CONTINUOUS
 62
     7
100
AcDbCircle
 10
313.4218254068005
 20
206.1999999999798
 30
0.0
 40
2.0
100
AcDbArc
 50
270.0
 51
0.0
  0
ARC
  5
487
330
1F
100
AcDbEntity
  8
LAY-10
  6
CONTINUOUS
 62
     7
100
AcDbCircle
 10
389.0076118444999
 20
213.1999999999798
 30
0.0
 40
2.0
100
AcDbArc
 50
0.0
 51
90.00000000000001
  0
LINE
  5
488
330
1F
100
AcDbEntity
  8
LAY-10
  6
CONTINUOUS
 62
     7
100
AcDbLine
 10
391.0076118445004
 20
213.1999999999798
 30
0.0
 11
391.0076118445004
 21
206.1999999999798
 31
0.0
  0
ARC
  5
489
330
1F
100
AcDbEntity
  8
LAY-10
  6
CONTINUOUS
 62
     7
100
AcDbCircle
 10
389.0076118444999
 20
206.1999999999798
 30
0.0
 40
2.0
100
AcDbArc
 50
270.0
 51
0.0
  0
ARC
  5
48A
330
1F
100
AcDbEntity
  8
LAY-10
  6
CONTINUOUS
 62
     7
100
AcDbCircle
 10
253.8568542494004
 20
193.1999999999798
 30
0.0
 40
2.0
100
AcDbArc
 50
90.00000000000001
 51
180.0
  0
LINE
  5
48B
330
1F
100
AcDbEntity
  8
LAY-10
  6
CONTINUOUS
 62
     7
100
AcDbLine
 10
251.8568542494004
 20
186.1999999999798
 30
0.0
 11
251.8568542494004
 21
193.1999999999798
 31
0.0
  0
ARC
  5
48C
330
1F
100
AcDbEntity
  8
LAY-10
  6
CONTINUOUS
 62
     7
100
AcDbCircle
 10
253.8568542494004
 20
186.1999999999798
 30
0.0
 40
2.0
100
AcDbArc
 50
180.0
 51
270.0
  0
LINE
  5
48D
330
1F
100
AcDbEntity
  8
LAY-10
  6
CONTINUOUS
 62
     7
100
AcDbLine
 10
253.8568542494004
 20
195.1999999999798
 30
0.0
 11
316.9573593128002
 21
195.1999999999798
 31
0.0
  0
ARC
  5
48E
330
1F
100
AcDbEntity
  8
LAY-10
  6
CONTINUOUS
 62
     7
100
AcDbCircle
 10
316.9573593128002
 20
193.1999999999798
 30
0.0
 40
2.0
100
AcDbArc
 50
0.0
 51
90.00000000000001
  0
LINE
  5
48F
330
1F
100
AcDbEntity
  8
LAY-10
  6
CONTINUOUS
 62
     7
100
AcDbLine
 10
316.9573593128002
 20
184.1999999999798
 30
0.0
 11
253.8568542494004
 21
184.1999999999798
 31
0.0
  0
LINE
  5
490
330
1F
100
AcDbEntity
  8
LAY-10
  6
CONTINUOUS
 62
     7
100
AcDbLine
 10
318.9573593128002
 20
193.1999999999798
 30
0.0
 11
318.9573593128002
 21
186.1999999999798
 31
0.0
  0
ARC
  5
491
330
1F
100
AcDbEntity
  8
LAY-10
  6
CONTINUOUS
 62
     7
100
AcDbCircle
 10
316.9573593128002
 20
186.1999999999798
 30
0.0
 40
2.0
100
AcDbArc
 50
270.0
 51
0.0
  0
ARC
  5
492
330
1F
100
AcDbEntity
  8
LAY-10
  6
CONTINUOUS
 62
     7
100
AcDbCircle
 10
329.4426406870002
 20
193.1999999999798
 30
0.0
 40
2.0
100
AcDbArc
 50
90.00000000000001
 51
180.0
  0
LINE
  5
493
330
1F
100
AcDbEntity
  8
LAY-10
  6
CONTINUOUS
 62
     7
100
AcDbLine
 10
327.4426406870002
 20
186.1999999999798
 30
0.0
 11
327.4426406870002
 21
193.1999999999798
 31
0.0
  0
ARC
  5
494
330
1F
100
AcDbEntity
  8
LAY-10
  6
CONTINUOUS
 62
     7
100
AcDbCircle
 10
329.4426406870002
 20
186.1999999999798
 30
0.0
 40
2.0
100
AcDbArc
 50
180.0
 51
270.0
  0
LINE
  5
495
330
1F
100
AcDbEntity
  8
LAY-10
  6
CONTINUOUS
 62
     7
100
AcDbLine
 10
329.4426406870002
 20
195.1999999999798
 30
0.0
 11
392.5431457504005
 21
195.1999999999798
 31
0.0
  0
ARC
  5
496
330
1F
100
AcDbEntity
  8
LAY-10
  6
CONTINUOUS
 62
     7
100
AcDbCircle
 10
392.5431457504005
 20
193.1999999999798
 30
0.0
 40
2.0
100
AcDbArc
 50
0.0
 51
90.00000000000001
  0
LINE
  5
497
330
1F
100
AcDbEntity
  8
LAY-10
  6
CONTINUOUS
 62
     7
100
AcDbLine
 10
392.5431457504005
 20
184.1999999999798
 30
0.0
 11
329.4426406870002
 21
184.1999999999798
 31
0.0
  0
LINE
  5
498
330
1F
100
AcDbEntity
  8
LAY-10
  6
CONTINUOUS
 62
     7
100
AcDbLine
 10
394.5431457504005
 20
193.1999999999798
 30
0.0
 11
394.5431457504005
 21
186.1999999999798
 31
0.0
  0
ARC
  5
499
330
1F
100
AcDbEntity
  8
LAY-10
  6
CONTINUOUS
 62
     7
100
AcDbCircle
 10
392.5431457504005
 20
186.1999999999798
 30
0.0
 40
2.0
100
AcDbArc
 50
270.0
 51
0.0
  0
ARC
  5
49A
330
1F
100
AcDbEntity
  8
LAY-10
  6
CONTINUOUS
 62
     7
100
AcDbCircle
 10
313.4218254068005
 20
193.1999999999798
 30
0.0
 40
2.0
100
AcDbArc
 50
0.0
 51
90.00000000000001
  0
LINE
  5
49B
330
1F
100
AcDbEntity
  8
LAY-10
  6
CONTINUOUS
 62
     7
100
AcDbLine
 10
315.4218254068005
 20
193.1999999999798
 30
0.0
 11
315.4218254068005
 21
186.1999999999798
 31
0.0
  0
ARC
  5
49C
330
1F
100
AcDbEntity
  8
LAY-10
  6
CONTINUOUS
 62
     7
100
AcDbCircle
 10
313.4218254068005
 20
186.1999999999798
 30
0.0
 40
2.0
100
AcDbArc
 50
270.0
 51
0.0
  0
ARC
  5
49D
330
1F
100
AcDbEntity
  8
LAY-10
  6
CONTINUOUS
 62
     7
100
AcDbCircle
 10
389.0076118444999
 20
193.1999999999798
 30
0.0
 40
2.0
100
AcDbArc
 50
0.0
 51
90.00000000000001
  0
LINE
  5
49E
330
1F
100
AcDbEntity
  8
LAY-10
  6
CONTINUOUS
 62
     7
100
AcDbLine
 10
391.0076118445004
 20
193.1999999999798
 30
0.0
 11
391.0076118445004
 21
186.1999999999798
 31
0.0
  0
ARC
  5
49F
330
1F
100
AcDbEntity
  8
LAY-10
  6
CONTINUOUS
 62
     7
100
AcDbCircle
 10
389.0076118444999
 20
186.1999999999798
 30
0.0
 40
2.0
100
AcDbArc
 50
270.0
 51
0.0
  0
ARC
  5
4A0
330
1F
100
AcDbEntity
  8
LAY-10
  6
CONTINUOUS
 62
     7
100
AcDbCircle
 10
316.9573593128002
 20
172.6999999999798
 30
0.0
 40
2.0
100
AcDbArc
 50
0.0
 51
90.00000000000001
  0
LINE
  5
4A1
330
1F
100
AcDbEntity
  8
LAY-10
  6
CONTINUOUS
 62
     7
100
AcDbLine
 10
318.9573593128002
 20
172.6999999999798
 30
0.0
 11
318.9573593128002
 21
165.6999999999798
 31
0.0
  0
ARC
  5
4A2
330
1F
100
AcDbEntity
  8
LAY-10
  6
CONTINUOUS
 62
     7
100
AcDbCircle
 10
316.9573593128002
 20
165.6999999999798
 30
0.0
 40
2.0
100
AcDbArc
 50
270.0
 51
0.0
  0
ARC
  5
4A3
330
1F
100
AcDbEntity
  8
LAY-10
  6
CONTINUOUS
 62
     7
100
AcDbCircle
 10
329.4426406870002
 20
172.6999999999798
 30
0.0
 40
2.0
100
AcDbArc
 50
90.00000000000001
 51
180.0
  0
LINE
  5
4A4
330
1F
100
AcDbEntity
  8
LAY-10
  6
CONTINUOUS
 62
     7
100
AcDbLine
 10
327.4426406870002
 20
165.6999999999798
 30
0.0
 11
327.4426406870002
 21
172.6999999999798
 31
0.0
  0
ARC
  5
4A5
330
1F
100
AcDbEntity
  8
LAY-10
  6
CONTINUOUS
 62
     7
100
AcDbCircle
 10
329.4426406870002
 20
165.6999999999798
 30
0.0
 40
2.0
100
AcDbArc
 50
180.0
 51
270.0
  0
LINE
  5
4A6
330
1F
100
AcDbEntity
  8
LAY-10
  6
CONTINUOUS
 62
     7
100
AcDbLine
 10
329.4426406870002
 20
174.6999999999798
 30
0.0
 11
392.5431457504005
 21
174.6999999999798
 31
0.0
  0
ARC
  5
4A7
330
1F
100
AcDbEntity
  8
LAY-10
  6
CONTINUOUS
 62
     7
100
AcDbCircle
 10
392.5431457504005
 20
172.6999999999798
 30
0.0
 40
2.0
100
AcDbArc
 50
0.0
 51
90.00000000000001
  0
LINE
  5
4A8
330
1F
100
AcDbEntity
  8
LAY-10
  6
CONTINUOUS
 62
     7
100
AcDbLine
 10
392.5431457504005
 20
163.6999999999798
 30
0.0
 11
329.4426406870002
 21
163.6999999999798
 31
0.0
  0
LINE
  5
4A9
330
1F
100
AcDbEntity
  8
LAY-10
  6
CONTINUOUS
 62
     7
100
AcDbLine
 10
394.5431457504005
 20
172.6999999999798
 30
0.0
 11
394.5431457504005
 21
165.6999999999798
 31
0.0
  0
ARC
  5
4AA
330
1F
100
AcDbEntity
  8
LAY-10
  6
CONTINUOUS
 62
     7
100
AcDbCircle
 10
392.5431457504005
 20
165.6999999999798
 30
0.0
 40
2.0
100
AcDbArc
 50
270.0
 51
0.0
  0
ARC
  5
4AB
330
1F
100
AcDbEntity
  8
LAY-10
  6
CONTINUOUS
 62
     7
100
AcDbCircle
 10
313.4218254068005
 20
172.6999999999798
 30
0.0
 40
2.0
100
AcDbArc
 50
0.0
 51
90.00000000000001
  0
LINE
  5
4AC
330
1F
100
AcDbEntity
  8
LAY-10
  6
CONTINUOUS
 62
     7
100
AcDbLine
 10
315.4218254068005
 20
172.6999999999798
 30
0.0
 11
315.4218254068005
 21
165.6999999999798
 31
0.0
  0
ARC
  5
4AD
330
1F
100
AcDbEntity
  8
LAY-10
  6
CONTINUOUS
 62
     7
100
AcDbCircle
 10
313.4218254068005
 20
165.6999999999798
 30
0.0
 40
2.0
100
AcDbArc
 50
270.0
 51
0.0
  0
ARC
  5
4AE
330
1F
100
AcDbEntity
  8
LAY-10
  6
CONTINUOUS
 62
     7
100
AcDbCircle
 10
389.0076118444999
 20
172.6999999999798
 30
0.0
 40
2.0
100
AcDbArc
 50
0.0
 51
90.00000000000001
  0
LINE
  5
4AF
330
1F
100
AcDbEntity
  8
LAY-10
  6
CONTINUOUS
 62
     7
100
AcDbLine
 10
391.0076118445004
 20
172.6999999999798
 30
0.0
 11
391.0076118445004
 21
165.6999999999798
 31
0.0
  0
ARC
  5
4B0
330
1F
100
AcDbEntity
  8
LAY-10
  6
CONTINUOUS
 62
     7
100
AcDbCircle
 10
389.0076118444999
 20
165.6999999999798
 30
0.0
 40
2.0
100
AcDbArc
 50
270.0
 51
0.0
  0
LINE
  5
4B1
330
1F
100
AcDbEntity
  8
LAY-10
  6
CONTINUOUS
 62
     7
100
AcDbLine
 10
316.9573593128002
 20
163.6999999999798
 30
0.0
 11
256.1999999999002
 21
163.6999999999798
 31
0.0
  0
ARC
  5
4B2
330
1F
100
AcDbEntity
  8
LAY-10
  6
CONTINUOUS
 62
     7
100
AcDbCircle
 10
256.1999999999002
 20
165.6999999999798
 30
0.0
 40
2.0
100
AcDbArc
 50
180.0
 51
270.0
  0
LINE
  5
4B3
330
1F
100
AcDbEntity
  8
LAY-10
  6
CONTINUOUS
 62
     7
100
AcDbLine
 10
254.1999999999002
 20
165.6999999999798
 30
0.0
 11
254.1999999999002
 21
174.6999999999798
 31
0.0
  0
LINE
  5
4B4
330
1F
100
AcDbEntity
  8
LAY-10
  6
CONTINUOUS
 62
     7
100
AcDbLine
 10
280.7735931287002
 20
152.6999999999798
 30
0.0
 11
280.7735931287002
 21
157.6999999999798
 31
0.0
  0
LINE
  5
4B5
330
1F
100
AcDbEntity
  8
LAY-10
  6
CONTINUOUS
 62
     7
100
AcDbLine
 10
280.7735931287002
 20
157.6999999999798
 30
0.0
 11
292.0873016277001
 21
157.6999999999798
 31
0.0
  0
LINE
  5
4B6
330
1F
100
AcDbEntity
  8
LAY-10
  6
CONTINUOUS
 62
     7
100
AcDbLine
 10
292.0873016277001
 20
157.6999999999798
 30
0.0
 11
292.0873016277001
 21
152.6999999999798
 31
0.0
  0
LINE
  5
4B7
330
1F
100
AcDbEntity
  8
LAY-10
  6
CONTINUOUS
 62
     7
100
AcDbLine
 10
292.0873016277001
 20
152.6999999999798
 30
0.0
 11
299.1583694395999
 21
152.6999999999798
 31
0.0
  0
LINE
  5
4B8
330
1F
100
AcDbEntity
  8
LAY-10
  6
CONTINUOUS
 62
     7
100
AcDbLine
 10
299.1583694395999
 20
152.6999999999798
 30
0.0
 11
299.1583694395999
 21
157.6999999999798
 31
0.0
  0
LINE
  5
4B9
330
1F
100
AcDbEntity
  8
LAY-10
  6
CONTINUOUS
 62
     7
100
AcDbLine
 10
299.1583694395999
 20
157.6999999999798
 30
0.0
 11
310.4720779385002
 21
157.6999999999798
 31
0.0
  0
LINE
  5
4BA
330
1F
100
AcDbEntity
  8
LAY-10
  6
CONTINUOUS
 62
     7
100
AcDbLine
 10
310.4720779385002
 20
157.6999999999798
 30
0.0
 11
310.4720779385002
 21
152.6999999999798
 31
0.0
  0
LINE
  5
4BB
330
1F
100
AcDbEntity
  8
LAY-10
  6
CONTINUOUS
 62
     7
100
AcDbLine
 10
310.4720779385002
 20
152.6999999999798
 30
0.0
 11
317.5431457504005
 21
152.6999999999798
 31
0.0
  0
LINE
  5
4BC
330
1F
100
AcDbEntity
  8
LAY-10
  6
CONTINUOUS
 62
     7
100
AcDbLine
 10
317.5431457504005
 20
152.6999999999798
 30
0.0
 11
317.5431457504005
 21
157.6999999999798
 31
0.0
  0
LINE
  5
4BD
330
1F
100
AcDbEntity
  8
LAY-10
  6
CONTINUOUS
 62
     7
100
AcDbLine
 10
317.5431457504005
 20
157.6999999999798
 30
0.0
 11
328.8568542494004
 21
157.6999999999798
 31
0.0
  0
LINE
  5
4BE
330
1F
100
AcDbEntity
  8
LAY-10
  6
CONTINUOUS
 62
     7
100
AcDbLine
 10
328.8568542494004
 20
157.6999999999798
 30
0.0
 11
328.8568542494004
 21
152.6999999999798
 31
0.0
  0
LINE
  5
4BF
330
1F
100
AcDbEntity
  8
LAY-10
  6
CONTINUOUS
 62
     7
100
AcDbLine
 10
328.8568542494004
 20
152.6999999999798
 30
0.0
 11
335.9279220613003
 21
152.6999999999798
 31
0.0
  0
LINE
  5
4C0
330
1F
100
AcDbEntity
  8
LAY-10
  6
CONTINUOUS
 62
     7
100
AcDbLine
 10
335.9279220613003
 20
152.6999999999798
 30
0.0
 11
335.9279220613003
 21
157.6999999999798
 31
0.0
  0
LINE
  5
4C1
330
1F
100
AcDbEntity
  8
LAY-10
  6
CONTINUOUS
 62
     7
100
AcDbLine
 10
335.9279220613003
 20
157.6999999999798
 30
0.0
 11
347.2416305602005
 21
157.6999999999798
 31
0.0
  0
LINE
  5
4C2
330
1F
100
AcDbEntity
  8
LAY-10
  6
CONTINUOUS
 62
     7
100
AcDbLine
 10
347.2416305602005
 20
157.6999999999798
 30
0.0
 11
347.2416305602005
 21
152.6999999999798
 31
0.0
  0
LINE
  5
4C3
330
1F
100
AcDbEntity
  8
LAY-10
  6
CONTINUOUS
 62
     7
100
AcDbLine
 10
347.2416305602005
 20
152.6999999999798
 30
0.0
 11
354.3126983720999
 21
152.6999999999798
 31
0.0
  0
LINE
  5
4C4
330
1F
100
AcDbEntity
  8
LAY-10
  6
CONTINUOUS
 62
     7
100
AcDbLine
 10
354.3126983720999
 20
152.6999999999798
 30
0.0
 11
354.3126983720999
 21
157.6999999999798
 31
0.0
  0
LINE
  5
4C5
330
1F
100
AcDbEntity
  8
LAY-10
  6
CONTINUOUS
 62
     7
100
AcDbLine
 10
354.3126983720999
 20
157.6999999999798
 30
0.0
 11
365.6264068711002
 21
157.6999999999798
 31
0.0
  0
LINE
  5
4C6
330
1F
100
AcDbEntity
  8
LAY-10
  6
CONTINUOUS
 62
     7
100
AcDbLine
 10
365.6264068711002
 20
157.6999999999798
 30
0.0
 11
365.6264068711002
 21
152.6999999999798
 31
0.0
  0
LINE
  5
4C7
330
1F
100
AcDbEntity
  8
LAY-10
  6
CONTINUOUS
 62
     7
100
AcDbLine
 10
365.6264068711002
 20
152.6999999999798
 30
0.0
 11
372.6974746830006
 21
152.6999999999798
 31
0.0
  0
LINE
  5
4C8
330
1F
100
AcDbEntity
  8
LAY-10
  6
CONTINUOUS
 62
     7
100
AcDbLine
 10
372.6974746830006
 20
152.6999999999798
 30
0.0
 11
372.6974746830006
 21
157.6999999999798
 31
0.0
  0
LINE
  5
4C9
330
1F
100
AcDbEntity
  8
LAY-10
  6
CONTINUOUS
 62
     7
100
AcDbLine
 10
372.6974746830006
 20
157.6999999999798
 30
0.0
 11
384.0111831819004
 21
157.6999999999798
 31
0.0
  0
LINE
  5
4CA
330
1F
100
AcDbEntity
  8
LAY-10
  6
CONTINUOUS
 62
     7
100
AcDbLine
 10
384.0111831819004
 20
157.6999999999798
 30
0.0
 11
384.0111831819004
 21
152.6999999999798
 31
0.0
  0
LINE
  5
4CB
330
1F
100
AcDbEntity
  8
LAY-10
  6
CONTINUOUS
 62
     7
100
AcDbLine
 10
384.0111831819004
 20
152.6999999999798
 30
0.0
 11
400.1999999999
 21
152.6999999999798
 31
0.0
  0
LINE
  5
4CC
330
1F
100
AcDbEntity
  8
LAY-10
  6
CONTINUOUS
 62
     7
100
AcDbLine
 10
276.1999999999002
 20
152.6999999999798
 30
0.0
 11
276.1999999999002
 21
163.6999999999798
 31
0.0
  0
LINE
  5
4CD
330
1F
100
AcDbEntity
  8
LAY-10
  6
CONTINUOUS
 62
     7
100
AcDbLine
 10
276.1999999999002
 20
152.6999999999798
 30
0.0
 11
280.7735931287002
 21
152.6999999999798
 31
0.0
  0
LINE
  5
4CE
330
1F
100
AcDbEntity
  8
LAY-10
  6
CONTINUOUS
 62
     7
100
AcDbLine
 10
366.650802574
 20
149.6999999999798
 30
0.0
 11
384.0111831819004
 21
152.6999999999798
 31
0.0
  0
LINE
  5
4CF
330
1F
100
AcDbEntity
  8
LAY-10
  6
CONTINUOUS
 62
     7
100
AcDbLine
 10
372.6974746830006
 20
152.6999999999798
 30
0.0
 11
347.0509549180001
 21
149.6999999999798
 31
0.0
  0
LINE
  5
4D0
330
1F
100
AcDbEntity
  8
LAY-10
  6
CONTINUOUS
 62
     7
100
AcDbLine
 10
365.6264068711002
 20
152.6999999999798
 30
0.0
 11
328.5507674066002
 21
149.6999999999798
 31
0.0
  0
LINE
  5
4D1
330
1F
100
AcDbEntity
  8
LAY-10
  6
CONTINUOUS
 62
     7
100
AcDbLine
 10
354.3126983720999
 20
152.6999999999798
 30
0.0
 11
311.5220973420005
 21
149.6999999999798
 31
0.0
  0
LINE
  5
4D2
330
1F
100
AcDbEntity
  8
LAY-10
  6
CONTINUOUS
 62
     7
100
AcDbLine
 10
347.2416305602005
 20
152.6999999999798
 30
0.0
 11
290.4507322392001
 21
149.6999999999798
 31
0.0
  0
LINE
  5
4D3
330
1F
100
AcDbEntity
  8
LAY-10
  6
CONTINUOUS
 62
     7
100
AcDbLine
 10
335.9279220613003
 20
152.6999999999798
 30
0.0
 11
275.9932397661
 21
149.6999999999798
 31
0.0
  0
LINE
  5
4D4
330
1F
100
AcDbEntity
  8
LAY-10
  6
CONTINUOUS
 62
     7
100
AcDbLine
 10
328.8568542494004
 20
152.6999999999798
 30
0.0
 11
255.6064364428002
 21
149.6999999999798
 31
0.0
  0
LINE
  5
4D5
330
1F
100
AcDbEntity
  8
LAY-10
  6
CONTINUOUS
 62
     7
100
AcDbLine
 10
317.5431457504005
 20
152.6999999999798
 30
0.0
 11
249.2360260798005
 21
149.6999999999798
 31
0.0
  0
LINE
  5
4D6
330
1F
100
AcDbEntity
  8
LAY-10
  6
CONTINUOUS
 62
     7
100
AcDbLine
 10
372.6974746830006
 20
155.7449089070315
 30
0.0
 11
384.0111831819004
 21
157.6999999999798
 31
0.0
  0
LINE
  5
4D7
330
1F
100
AcDbEntity
  8
LAY-10
  6
CONTINUOUS
 62
     7
100
AcDbLine
 10
365.6264068711002
 20
157.6999999999798
 30
0.0
 11
354.3126983720999
 21
156.7845437600545
 31
0.0
  0
LINE
  5
4D8
330
1F
100
AcDbEntity
  8
LAY-10
  6
CONTINUOUS
 62
     7
100
AcDbLine
 10
347.2416305602005
 20
157.6999999999798
 30
0.0
 11
335.9279220613003
 21
157.1023492055715
 31
0.0
  0
LINE
  5
4D9
330
1F
100
AcDbEntity
  8
LAY-10
  6
CONTINUOUS
 62
     7
100
AcDbLine
 10
328.8568542494004
 20
157.6999999999798
 30
0.0
 11
317.5431457504005
 21
157.2366425678542
 31
0.0
  0
LINE
  5
4DA
330
1F
100
AcDbEntity
  8
LAY-10
  6
CONTINUOUS
 62
     7
100
AcDbLine
 10
310.4720779385002
 20
157.6999999999798
 30
0.0
 11
299.1583694395999
 21
157.1719149187861
 31
0.0
  0
LINE
  5
4DB
330
1F
100
AcDbEntity
  8
LAY-10
  6
CONTINUOUS
 62
     7
100
AcDbLine
 10
292.0873016277001
 20
157.6999999999798
 30
0.0
 11
280.7735931287002
 21
156.9603372982524
 31
0.0
  0
ARC
  5
4DC
330
1F
100
AcDbEntity
  8
LAY-10
  6
CONTINUOUS
 62
     7
100
AcDbCircle
 10
253.8568542494004
 20
263.1999999999798
 30
0.0
 40
2.0
100
AcDbArc
 50
180.0
 51
270.0
  0
LINE
  5
4DD
330
1F
100
AcDbEntity
  8
LAY-10
  6
CONTINUOUS
 62
     7
100
AcDbLine
 10
251.8568542494004
 20
270.1999999999798
 30
0.0
 11
251.8568542494004
 21
263.1999999999798
 31
0.0
  0
ARC
  5
4DE
330
1F
100
AcDbEntity
  8
LAY-10
  6
CONTINUOUS
 62
     7
100
AcDbCircle
 10
253.8568542494004
 20
270.1999999999798
 30
0.0
 40
2.0
100
AcDbArc
 50
90.00000000000001
 51
180.0
  0
LINE
  5
4DF
330
1F
100
AcDbEntity
  8
LAY-10
  6
CONTINUOUS
 62
     7
100
AcDbLine
 10
253.8568542494004
 20
261.1999999999798
 30
0.0
 11
316.9573593128002
 21
261.1999999999798
 31
0.0
  0
ARC
  5
4E0
330
1F
100
AcDbEntity
  8
LAY-10
  6
CONTINUOUS
 62
     7
100
AcDbCircle
 10
316.9573593128002
 20
263.1999999999798
 30
0.0
 40
2.0
100
AcDbArc
 50
270.0
 51
0.0
  0
LINE
  5
4E1
330
1F
100
AcDbEntity
  8
LAY-10
  6
CONTINUOUS
 62
     7
100
AcDbLine
 10
316.9573593128002
 20
272.1999999999798
 30
0.0
 11
253.8568542494004
 21
272.1999999999798
 31
0.0
  0
LINE
  5
4E2
330
1F
100
AcDbEntity
  8
LAY-10
  6
CONTINUOUS
 62
     7
100
AcDbLine
 10
318.9573593128002
 20
263.1999999999798
 30
0.0
 11
318.9573593128002
 21
270.1999999999798
 31
0.0
  0
ARC
  5
4E3
330
1F
100
AcDbEntity
  8
LAY-10
  6
CONTINUOUS
 62
     7
100
AcDbCircle
 10
316.9573593128002
 20
270.1999999999798
 30
0.0
 40
2.0
100
AcDbArc
 50
0.0
 51
90.00000000000001
  0
ARC
  5
4E4
330
1F
100
AcDbEntity
  8
LAY-10
  6
CONTINUOUS
 62
     7
100
AcDbCircle
 10
329.4426406870002
 20
263.1999999999798
 30
0.0
 40
2.0
100
AcDbArc
 50
180.0
 51
270.0
  0
LINE
  5
4E5
330
1F
100
AcDbEntity
  8
LAY-10
  6
CONTINUOUS
 62
     7
100
AcDbLine
 10
327.4426406870002
 20
270.1999999999798
 30
0.0
 11
327.4426406870002
 21
263.1999999999798
 31
0.0
  0
ARC
  5
4E6
330
1F
100
AcDbEntity
  8
LAY-10
  6
CONTINUOUS
 62
     7
100
AcDbCircle
 10
329.4426406870002
 20
270.1999999999798
 30
0.0
 40
2.0
100
AcDbArc
 50
90.00000000000001
 51
180.0
  0
LINE
  5
4E7
330
1F
100
AcDbEntity
  8
LAY-10
  6
CONTINUOUS
 62
     7
100
AcDbLine
 10
329.4426406870002
 20
261.1999999999798
 30
0.0
 11
392.5431457504005
 21
261.1999999999798
 31
0.0
  0
ARC
  5
4E8
330
1F
100
AcDbEntity
  8
LAY-10
  6
CONTINUOUS
 62
     7
100
AcDbCircle
 10
392.5431457504005
 20
263.1999999999798
 30
0.0
 40
2.0
100
AcDbArc
 50
270.0
 51
0.0
  0
LINE
  5
4E9
330
1F
100
AcDbEntity
  8
LAY-10
  6
CONTINUOUS
 62
     7
100
AcDbLine
 10
392.5431457504005
 20
272.1999999999798
 30
0.0
 11
329.4426406870002
 21
272.1999999999798
 31
0.0
  0
LINE
  5
4EA
330
1F
100
AcDbEntity
  8
LAY-10
  6
CONTINUOUS
 62
     7
100
AcDbLine
 10
394.5431457504005
 20
263.1999999999798
 30
0.0
 11
394.5431457504005
 21
270.1999999999798
 31
0.0
  0
ARC
  5
4EB
330
1F
100
AcDbEntity
  8
LAY-10
  6
CONTINUOUS
 62
     7
100
AcDbCircle
 10
392.5431457504005
 20
270.1999999999798
 30
0.0
 40
2.0
100
AcDbArc
 50
0.0
 51
90.00000000000001
  0
ARC
  5
4EC
330
1F
100
AcDbEntity
  8
LAY-10
  6
CONTINUOUS
 62
     7
100
AcDbCircle
 10
313.4218254068005
 20
263.1999999999798
 30
0.0
 40
2.0
100
AcDbArc
 50
270.0
 51
0.0
  0
LINE
  5
4ED
330
1F
100
AcDbEntity
  8
LAY-10
  6
CONTINUOUS
 62
     7
100
AcDbLine
 10
315.4218254068005
 20
263.1999999999798
 30
0.0
 11
315.4218254068005
 21
270.1999999999798
 31
0.0
  0
ARC
  5
4EE
330
1F
100
AcDbEntity
  8
LAY-10
  6
CONTINUOUS
 62
     7
100
AcDbCircle
 10
313.4218254068005
 20
270.1999999999798
 30
0.0
 40
2.0
100
AcDbArc
 50
0.0
 51
90.00000000000001
  0
ARC
  5
4EF
330
1F
100
AcDbEntity
  8
LAY-10
  6
CONTINUOUS
 62
     7
100
AcDbCircle
 10
389.0076118444999
 20
263.1999999999798
 30
0.0
 40
2.0
100
AcDbArc
 50
270.0
 51
0.0
  0
LINE
  5
4F0
330
1F
100
AcDbEntity
  8
LAY-10
  6
CONTINUOUS
 62
     7
100
AcDbLine
 10
391.0076118445004
 20
263.1999999999798
 30
0.0
 11
391.0076118445004
 21
270.1999999999798
 31
0.0
  0
ARC
  5
4F1
330
1F
100
AcDbEntity
  8
LAY-10
  6
CONTINUOUS
 62
     7
100
AcDbCircle
 10
389.0076118444999
 20
270.1999999999798
 30
0.0
 40
2.0
100
AcDbArc
 50
0.0
 51
90.00000000000001
  0
ARC
  5
4F2
330
1F
100
AcDbEntity
  8
LAY-10
  6
CONTINUOUS
 62
     7
100
AcDbCircle
 10
253.8568542494004
 20
282.1999999999798
 30
0.0
 40
2.0
100
AcDbArc
 50
180.0
 51
270.0
  0
LINE
  5
4F3
330
1F
100
AcDbEntity
  8
LAY-10
  6
CONTINUOUS
 62
     7
100
AcDbLine
 10
251.8568542494004
 20
289.1999999999798
 30
0.0
 11
251.8568542494004
 21
282.1999999999798
 31
0.0
  0
ARC
  5
4F4
330
1F
100
AcDbEntity
  8
LAY-10
  6
CONTINUOUS
 62
     7
100
AcDbCircle
 10
253.8568542494004
 20
289.1999999999798
 30
0.0
 40
2.0
100
AcDbArc
 50
90.00000000000001
 51
180.0
  0
LINE
  5
4F5
330
1F
100
AcDbEntity
  8
LAY-10
  6
CONTINUOUS
 62
     7
100
AcDbLine
 10
253.8568542494004
 20
280.1999999999798
 30
0.0
 11
316.9573593128002
 21
280.1999999999798
 31
0.0
  0
ARC
  5
4F6
330
1F
100
AcDbEntity
  8
LAY-10
  6
CONTINUOUS
 62
     7
100
AcDbCircle
 10
316.9573593128002
 20
282.1999999999798
 30
0.0
 40
2.0
100
AcDbArc
 50
270.0
 51
0.0
  0
LINE
  5
4F7
330
1F
100
AcDbEntity
  8
LAY-10
  6
CONTINUOUS
 62
     7
100
AcDbLine
 10
316.9573593128002
 20
291.1999999999798
 30
0.0
 11
253.8568542494004
 21
291.1999999999798
 31
0.0
  0
LINE
  5
4F8
330
1F
100
AcDbEntity
  8
LAY-10
  6
CONTINUOUS
 62
     7
100
AcDbLine
 10
318.9573593128002
 20
282.1999999999798
 30
0.0
 11
318.9573593128002
 21
289.1999999999798
 31
0.0
  0
ARC
  5
4F9
330
1F
100
AcDbEntity
  8
LAY-10
  6
CONTINUOUS
 62
     7
100
AcDbCircle
 10
316.9573593128002
 20
289.1999999999798
 30
0.0
 40
2.0
100
AcDbArc
 50
0.0
 51
90.00000000000001
  0
ARC
  5
4FA
330
1F
100
AcDbEntity
  8
LAY-10
  6
CONTINUOUS
 62
     7
100
AcDbCircle
 10
329.4426406870002
 20
282.1999999999798
 30
0.0
 40
2.0
100
AcDbArc
 50
180.0
 51
270.0
  0
LINE
  5
4FB
330
1F
100
AcDbEntity
  8
LAY-10
  6
CONTINUOUS
 62
     7
100
AcDbLine
 10
327.4426406870002
 20
289.1999999999798
 30
0.0
 11
327.4426406870002
 21
282.1999999999798
 31
0.0
  0
ARC
  5
4FC
330
1F
100
AcDbEntity
  8
LAY-10
  6
CONTINUOUS
 62
     7
100
AcDbCircle
 10
329.4426406870002
 20
289.1999999999798
 30
0.0
 40
2.0
100
AcDbArc
 50
90.00000000000001
 51
180.0
  0
LINE
  5
4FD
330
1F
100
AcDbEntity
  8
LAY-10
  6
CONTINUOUS
 62
     7
100
AcDbLine
 10
329.4426406870002
 20
280.1999999999798
 30
0.0
 11
392.5431457504005
 21
280.1999999999798
 31
0.0
  0
ARC
  5
4FE
330
1F
100
AcDbEntity
  8
LAY-10
  6
CONTINUOUS
 62
     7
100
AcDbCircle
 10
392.5431457504005
 20
282.1999999999798
 30
0.0
 40
2.0
100
AcDbArc
 50
270.0
 51
0.0
  0
LINE
  5
4FF
330
1F
100
AcDbEntity
  8
LAY-10
  6
CONTINUOUS
 62
     7
100
AcDbLine
 10
392.5431457504005
 20
291.1999999999798
 30
0.0
 11
329.4426406870002
 21
291.1999999999798
 31
0.0
  0
LINE
  5
500
330
1F
100
AcDbEntity
  8
LAY-10
  6
CONTINUOUS
 62
     7
100
AcDbLine
 10
394.5431457504005
 20
282.1999999999798
 30
0.0
 11
394.5431457504005
 21
289.1999999999798
 31
0.0
  0
ARC
  5
501
330
1F
100
AcDbEntity
  8
LAY-10
  6
CONTINUOUS
 62
     7
100
AcDbCircle
 10
392.5431457504005
 20
289.1999999999798
 30
0.0
 40
2.0
100
AcDbArc
 50
0.0
 51
90.00000000000001
  0
ARC
  5
502
330
1F
100
AcDbEntity
  8
LAY-10
  6
CONTINUOUS
 62
     7
100
AcDbCircle
 10
313.4218254068005
 20
282.1999999999798
 30
0.0
 40
2.0
100
AcDbArc
 50
270.0
 51
0.0
  0
LINE
  5
503
330
1F
100
AcDbEntity
  8
LAY-10
  6
CONTINUOUS
 62
     7
100
AcDbLine
 10
315.4218254068005
 20
282.1999999999798
 30
0.0
 11
315.4218254068005
 21
289.1999999999798
 31
0.0
  0
ARC
  5
504
330
1F
100
AcDbEntity
  8
LAY-10
  6
CONTINUOUS
 62
     7
100
AcDbCircle
 10
313.4218254068005
 20
289.1999999999798
 30
0.0
 40
2.0
100
AcDbArc
 50
0.0
 51
90.00000000000001
  0
ARC
  5
505
330
1F
100
AcDbEntity
  8
LAY-10
  6
CONTINUOUS
 62
     7
100
AcDbCircle
 10
389.0076118444999
 20
282.1999999999798
 30
0.0
 40
2.0
100
AcDbArc
 50
270.0
 51
0.0
  0
LINE
  5
506
330
1F
100
AcDbEntity
  8
LAY-10
  6
CONTINUOUS
 62
     7
100
AcDbLine
 10
391.0076118445004
 20
282.1999999999798
 30
0.0
 11
391.0076118445004
 21
289.1999999999798
 31
0.0
  0
ARC
  5
507
330
1F
100
AcDbEntity
  8
LAY-10
  6
CONTINUOUS
 62
     7
100
AcDbCircle
 10
389.0076118444999
 20
289.1999999999798
 30
0.0
 40
2.0
100
AcDbArc
 50
0.0
 51
90.00000000000001
  0
ARC
  5
508
330
1F
100
AcDbEntity
  8
LAY-10
  6
CONTINUOUS
 62
     7
100
AcDbCircle
 10
253.8568542494004
 20
301.1999999999798
 30
0.0
 40
2.0
100
AcDbArc
 50
180.0
 51
270.0
  0
LINE
  5
509
330
1F
100
AcDbEntity
  8
LAY-10
  6
CONTINUOUS
 62
     7
100
AcDbLine
 10
251.8568542494004
 20
308.1999999999798
 30
0.0
 11
251.8568542494004
 21
301.1999999999798
 31
0.0
  0
ARC
  5
50A
330
1F
100
AcDbEntity
  8
LAY-10
  6
CONTINUOUS
 62
     7
100
AcDbCircle
 10
253.8568542494004
 20
308.1999999999798
 30
0.0
 40
2.0
100
AcDbArc
 50
90.00000000000001
 51
180.0
  0
LINE
  5
50B
330
1F
100
AcDbEntity
  8
LAY-10
  6
CONTINUOUS
 62
     7
100
AcDbLine
 10
253.8568542494004
 20
299.1999999999798
 30
0.0
 11
316.9573593128002
 21
299.1999999999798
 31
0.0
  0
ARC
  5
50C
330
1F
100
AcDbEntity
  8
LAY-10
  6
CONTINUOUS
 62
     7
100
AcDbCircle
 10
316.9573593128002
 20
301.1999999999798
 30
0.0
 40
2.0
100
AcDbArc
 50
270.0
 51
0.0
  0
LINE
  5
50D
330
1F
100
AcDbEntity
  8
LAY-10
  6
CONTINUOUS
 62
     7
100
AcDbLine
 10
316.9573593128002
 20
310.1999999999798
 30
0.0
 11
253.8568542494004
 21
310.1999999999798
 31
0.0
  0
LINE
  5
50E
330
1F
100
AcDbEntity
  8
LAY-10
  6
CONTINUOUS
 62
     7
100
AcDbLine
 10
318.9573593128002
 20
301.1999999999798
 30
0.0
 11
318.9573593128002
 21
308.1999999999798
 31
0.0
  0
ARC
  5
50F
330
1F
100
AcDbEntity
  8
LAY-10
  6
CONTINUOUS
 62
     7
100
AcDbCircle
 10
316.9573593128002
 20
308.1999999999798
 30
0.0
 40
2.0
100
AcDbArc
 50
0.0
 51
90.00000000000001
  0
ARC
  5
510
330
1F
100
AcDbEntity
  8
LAY-10
  6
CONTINUOUS
 62
     7
100
AcDbCircle
 10
329.4426406870002
 20
301.1999999999798
 30
0.0
 40
2.0
100
AcDbArc
 50
180.0
 51
270.0
  0
LINE
  5
511
330
1F
100
AcDbEntity
  8
LAY-10
  6
CONTINUOUS
 62
     7
100
AcDbLine
 10
327.4426406870002
 20
308.1999999999798
 30
0.0
 11
327.4426406870002
 21
301.1999999999798
 31
0.0
  0
ARC
  5
512
330
1F
100
AcDbEntity
  8
LAY-10
  6
CONTINUOUS
 62
     7
100
AcDbCircle
 10
329.4426406870002
 20
308.1999999999798
 30
0.0
 40
2.0
100
AcDbArc
 50
90.00000000000001
 51
180.0
  0
LINE
  5
513
330
1F
100
AcDbEntity
  8
LAY-10
  6
CONTINUOUS
 62
     7
100
AcDbLine
 10
329.4426406870002
 20
299.1999999999798
 30
0.0
 11
392.5431457504005
 21
299.1999999999798
 31
0.0
  0
ARC
  5
514
330
1F
100
AcDbEntity
  8
LAY-10
  6
CONTINUOUS
 62
     7
100
AcDbCircle
 10
392.5431457504005
 20
301.1999999999798
 30
0.0
 40
2.0
100
AcDbArc
 50
270.0
 51
0.0
  0
LINE
  5
515
330
1F
100
AcDbEntity
  8
LAY-10
  6
CONTINUOUS
 62
     7
100
AcDbLine
 10
392.5431457504005
 20
310.1999999999798
 30
0.0
 11
329.4426406870002
 21
310.1999999999798
 31
0.0
  0
LINE
  5
516
330
1F
100
AcDbEntity
  8
LAY-10
  6
CONTINUOUS
 62
     7
100
AcDbLine
 10
394.5431457504005
 20
301.1999999999798
 30
0.0
 11
394.5431457504005
 21
308.1999999999798
 31
0.0
  0
ARC
  5
517
330
1F
100
AcDbEntity
  8
LAY-10
  6
CONTINUOUS
 62
     7
100
AcDbCircle
 10
392.5431457504005
 20
308.1999999999798
 30
0.0
 40
2.0
100
AcDbArc
 50
0.0
 51
90.00000000000001
  0
ARC
  5
518
330
1F
100
AcDbEntity
  8
LAY-10
  6
CONTINUOUS
 62
     7
100
AcDbCircle
 10
313.4218254068005
 20
301.1999999999798
 30
0.0
 40
2.0
100
AcDbArc
 50
270.0
 51
0.0
  0
LINE
  5
519
330
1F
100
AcDbEntity
  8
LAY-10
  6
CONTINUOUS
 62
     7
100
AcDbLine
 10
315.4218254068005
 20
301.1999999999798
 30
0.0
 11
315.4218254068005
 21
308.1999999999798
 31
0.0
  0
ARC
  5
51A
330
1F
100
AcDbEntity
  8
LAY-10
  6
CONTINUOUS
 62
     7
100
AcDbCircle
 10
313.4218254068005
 20
308.1999999999798
 30
0.0
 40
2.0
100
AcDbArc
 50
0.0
 51
90.00000000000001
  0
ARC
  5
51B
330
1F
100
AcDbEntity
  8
LAY-10
  6
CONTINUOUS
 62
     7
100
AcDbCircle
 10
389.0076118444999
 20
301.1999999999798
 30
0.0
 40
2.0
100
AcDbArc
 50
270.0
 51
0.0
  0
LINE
  5
51C
330
1F
100
AcDbEntity
  8
LAY-10
  6
CONTINUOUS
 62
     7
100
AcDbLine
 10
391.0076118445004
 20
301.1999999999798
 30
0.0
 11
391.0076118445004
 21
308.1999999999798
 31
0.0
  0
ARC
  5
51D
330
1F
100
AcDbEntity
  8
LAY-10
  6
CONTINUOUS
 62
     7
100
AcDbCircle
 10
389.0076118444999
 20
308.1999999999798
 30
0.0
 40
2.0
100
AcDbArc
 50
0.0
 51
90.00000000000001
  0
ARC
  5
51E
330
1F
100
AcDbEntity
  8
LAY-10
  6
CONTINUOUS
 62
     7
100
AcDbCircle
 10
253.8568542494004
 20
321.1999999999798
 30
0.0
 40
2.0
100
AcDbArc
 50
180.0
 51
270.0
  0
LINE
  5
51F
330
1F
100
AcDbEntity
  8
LAY-10
  6
CONTINUOUS
 62
     7
100
AcDbLine
 10
251.8568542494004
 20
328.1999999999798
 30
0.0
 11
251.8568542494004
 21
321.1999999999798
 31
0.0
  0
ARC
  5
520
330
1F
100
AcDbEntity
  8
LAY-10
  6
CONTINUOUS
 62
     7
100
AcDbCircle
 10
253.8568542494004
 20
328.1999999999798
 30
0.0
 40
2.0
100
AcDbArc
 50
90.00000000000001
 51
180.0
  0
LINE
  5
521
330
1F
100
AcDbEntity
  8
LAY-10
  6
CONTINUOUS
 62
     7
100
AcDbLine
 10
253.8568542494004
 20
319.1999999999798
 30
0.0
 11
316.9573593128002
 21
319.1999999999798
 31
0.0
  0
ARC
  5
522
330
1F
100
AcDbEntity
  8
LAY-10
  6
CONTINUOUS
 62
     7
100
AcDbCircle
 10
316.9573593128002
 20
321.1999999999798
 30
0.0
 40
2.0
100
AcDbArc
 50
270.0
 51
0.0
  0
LINE
  5
523
330
1F
100
AcDbEntity
  8
LAY-10
  6
CONTINUOUS
 62
     7
100
AcDbLine
 10
316.9573593128002
 20
330.1999999999798
 30
0.0
 11
253.8568542494004
 21
330.1999999999798
 31
0.0
  0
LINE
  5
524
330
1F
100
AcDbEntity
  8
LAY-10
  6
CONTINUOUS
 62
     7
100
AcDbLine
 10
318.9573593128002
 20
321.1999999999798
 30
0.0
 11
318.9573593128002
 21
328.1999999999798
 31
0.0
  0
ARC
  5
525
330
1F
100
AcDbEntity
  8
LAY-10
  6
CONTINUOUS
 62
     7
100
AcDbCircle
 10
316.9573593128002
 20
328.1999999999798
 30
0.0
 40
2.0
100
AcDbArc
 50
0.0
 51
90.00000000000001
  0
ARC
  5
526
330
1F
100
AcDbEntity
  8
LAY-10
  6
CONTINUOUS
 62
     7
100
AcDbCircle
 10
329.4426406870002
 20
321.1999999999798
 30
0.0
 40
2.0
100
AcDbArc
 50
180.0
 51
270.0
  0
LINE
  5
527
330
1F
100
AcDbEntity
  8
LAY-10
  6
CONTINUOUS
 62
     7
100
AcDbLine
 10
327.4426406870002
 20
328.1999999999798
 30
0.0
 11
327.4426406870002
 21
321.1999999999798
 31
0.0
  0
ARC
  5
528
330
1F
100
AcDbEntity
  8
LAY-10
  6
CONTINUOUS
 62
     7
100
AcDbCircle
 10
329.4426406870002
 20
328.1999999999798
 30
0.0
 40
2.0
100
AcDbArc
 50
90.00000000000001
 51
180.0
  0
LINE
  5
529
330
1F
100
AcDbEntity
  8
LAY-10
  6
CONTINUOUS
 62
     7
100
AcDbLine
 10
329.4426406870002
 20
319.1999999999798
 30
0.0
 11
392.5431457504005
 21
319.1999999999798
 31
0.0
  0
ARC
  5
52A
330
1F
100
AcDbEntity
  8
LAY-10
  6
CONTINUOUS
 62
     7
100
AcDbCircle
 10
392.5431457504005
 20
321.1999999999798
 30
0.0
 40
2.0
100
AcDbArc
 50
270.0
 51
0.0
  0
LINE
  5
52B
330
1F
100
AcDbEntity
  8
LAY-10
  6
CONTINUOUS
 62
     7
100
AcDbLine
 10
392.5431457504005
 20
330.1999999999798
 30
0.0
 11
329.4426406870002
 21
330.1999999999798
 31
0.0
  0
LINE
  5
52C
330
1F
100
AcDbEntity
  8
LAY-10
  6
CONTINUOUS
 62
     7
100
AcDbLine
 10
394.5431457504005
 20
321.1999999999798
 30
0.0
 11
394.5431457504005
 21
328.1999999999798
 31
0.0
  0
ARC
  5
52D
330
1F
100
AcDbEntity
  8
LAY-10
  6
CONTINUOUS
 62
     7
100
AcDbCircle
 10
392.5431457504005
 20
328.1999999999798
 30
0.0
 40
2.0
100
AcDbArc
 50
0.0
 51
90.00000000000001
  0
ARC
  5
52E
330
1F
100
AcDbEntity
  8
LAY-10
  6
CONTINUOUS
 62
     7
100
AcDbCircle
 10
313.4218254068005
 20
321.1999999999798
 30
0.0
 40
2.0
100
AcDbArc
 50
270.0
 51
0.0
  0
LINE
  5
52F
330
1F
100
AcDbEntity
  8
LAY-10
  6
CONTINUOUS
 62
     7
100
AcDbLine
 10
315.4218254068005
 20
321.1999999999798
 30
0.0
 11
315.4218254068005
 21
328.1999999999798
 31
0.0
  0
ARC
  5
530
330
1F
100
AcDbEntity
  8
LAY-10
  6
CONTINUOUS
 62
     7
100
AcDbCircle
 10
313.4218254068005
 20
328.1999999999798
 30
0.0
 40
2.0
100
AcDbArc
 50
0.0
 51
90.00000000000001
  0
ARC
  5
531
330
1F
100
AcDbEntity
  8
LAY-10
  6
CONTINUOUS
 62
     7
100
AcDbCircle
 10
389.0076118444999
 20
321.1999999999798
 30
0.0
 40
2.0
100
AcDbArc
 50
270.0
 51
0.0
  0
LINE
  5
532
330
1F
100
AcDbEntity
  8
LAY-10
  6
CONTINUOUS
 62
     7
100
AcDbLine
 10
391.0076118445004
 20
321.1999999999798
 30
0.0
 11
391.0076118445004
 21
328.1999999999798
 31
0.0
  0
ARC
  5
533
330
1F
100
AcDbEntity
  8
LAY-10
  6
CONTINUOUS
 62
     7
100
AcDbCircle
 10
389.0076118444999
 20
328.1999999999798
 30
0.0
 40
2.0
100
AcDbArc
 50
0.0
 51
90.00000000000001
  0
ARC
  5
534
330
1F
100
AcDbEntity
  8
LAY-10
  6
CONTINUOUS
 62
     7
100
AcDbCircle
 10
316.9573593128002
 20
341.6999999999798
 30
0.0
 40
2.0
100
AcDbArc
 50
270.0
 51
0.0
  0
LINE
  5
535
330
1F
100
AcDbEntity
  8
LAY-10
  6
CONTINUOUS
 62
     7
100
AcDbLine
 10
318.9573593128002
 20
341.6999999999798
 30
0.0
 11
318.9573593128002
 21
348.6999999999798
 31
0.0
  0
ARC
  5
536
330
1F
100
AcDbEntity
  8
LAY-10
  6
CONTINUOUS
 62
     7
100
AcDbCircle
 10
316.9573593128002
 20
348.6999999999798
 30
0.0
 40
2.0
100
AcDbArc
 50
0.0
 51
90.00000000000001
  0
ARC
  5
537
330
1F
100
AcDbEntity
  8
LAY-10
  6
CONTINUOUS
 62
     7
100
AcDbCircle
 10
329.4426406870002
 20
341.6999999999798
 30
0.0
 40
2.0
100
AcDbArc
 50
180.0
 51
270.0
  0
LINE
  5
538
330
1F
100
AcDbEntity
  8
LAY-10
  6
CONTINUOUS
 62
     7
100
AcDbLine
 10
327.4426406870002
 20
348.6999999999798
 30
0.0
 11
327.4426406870002
 21
341.6999999999798
 31
0.0
  0
ARC
  5
539
330
1F
100
AcDbEntity
  8
LAY-10
  6
CONTINUOUS
 62
     7
100
AcDbCircle
 10
329.4426406870002
 20
348.6999999999798
 30
0.0
 40
2.0
100
AcDbArc
 50
90.00000000000001
 51
180.0
  0
LINE
  5
53A
330
1F
100
AcDbEntity
  8
LAY-10
  6
CONTINUOUS
 62
     7
100
AcDbLine
 10
329.4426406870002
 20
339.6999999999798
 30
0.0
 11
392.5431457504005
 21
339.6999999999798
 31
0.0
  0
ARC
  5
53B
330
1F
100
AcDbEntity
  8
LAY-10
  6
CONTINUOUS
 62
     7
100
AcDbCircle
 10
392.5431457504005
 20
341.6999999999798
 30
0.0
 40
2.0
100
AcDbArc
 50
270.0
 51
0.0
  0
LINE
  5
53C
330
1F
100
AcDbEntity
  8
LAY-10
  6
CONTINUOUS
 62
     7
100
AcDbLine
 10
392.5431457504005
 20
350.6999999999798
 30
0.0
 11
329.4426406870002
 21
350.6999999999798
 31
0.0
  0
LINE
  5
53D
330
1F
100
AcDbEntity
  8
LAY-10
  6
CONTINUOUS
 62
     7
100
AcDbLine
 10
394.5431457504005
 20
341.6999999999798
 30
0.0
 11
394.5431457504005
 21
348.6999999999798
 31
0.0
  0
ARC
  5
53E
330
1F
100
AcDbEntity
  8
LAY-10
  6
CONTINUOUS
 62
     7
100
AcDbCircle
 10
392.5431457504005
 20
348.6999999999798
 30
0.0
 40
2.0
100
AcDbArc
 50
0.0
 51
90.00000000000001
  0
ARC
  5
53F
330
1F
100
AcDbEntity
  8
LAY-10
  6
CONTINUOUS
 62
     7
100
AcDbCircle
 10
313.4218254068005
 20
341.6999999999798
 30
0.0
 40
2.0
100
AcDbArc
 50
270.0
 51
0.0
  0
LINE
  5
540
330
1F
100
AcDbEntity
  8
LAY-10
  6
CONTINUOUS
 62
     7
100
AcDbLine
 10
315.4218254068005
 20
341.6999999999798
 30
0.0
 11
315.4218254068005
 21
348.6999999999798
 31
0.0
  0
ARC
  5
541
330
1F
100
AcDbEntity
  8
LAY-10
  6
CONTINUOUS
 62
     7
100
AcDbCircle
 10
313.4218254068005
 20
348.6999999999798
 30
0.0
 40
2.0
100
AcDbArc
 50
0.0
 51
90.00000000000001
  0
ARC
  5
542
330
1F
100
AcDbEntity
  8
LAY-10
  6
CONTINUOUS
 62
     7
100
AcDbCircle
 10
389.0076118444999
 20
341.6999999999798
 30
0.0
 40
2.0
100
AcDbArc
 50
270.0
 51
0.0
  0
LINE
  5
543
330
1F
100
AcDbEntity
  8
LAY-10
  6
CONTINUOUS
 62
     7
100
AcDbLine
 10
391.0076118445004
 20
341.6999999999798
 30
0.0
 11
391.0076118445004
 21
348.6999999999798
 31
0.0
  0
ARC
  5
544
330
1F
100
AcDbEntity
  8
LAY-10
  6
CONTINUOUS
 62
     7
100
AcDbCircle
 10
389.0076118444999
 20
348.6999999999798
 30
0.0
 40
2.0
100
AcDbArc
 50
0.0
 51
90.00000000000001
  0
LINE
  5
545
330
1F
100
AcDbEntity
  8
LAY-10
  6
CONTINUOUS
 62
     7
100
AcDbLine
 10
316.9573593128002
 20
350.6999999999798
 30
0.0
 11
256.1999999999002
 21
350.6999999999798
 31
0.0
  0
ARC
  5
546
330
1F
100
AcDbEntity
  8
LAY-10
  6
CONTINUOUS
 62
     7
100
AcDbCircle
 10
256.1999999999002
 20
348.6999999999798
 30
0.0
 40
2.0
100
AcDbArc
 50
90.00000000000001
 51
180.0
  0
LINE
  5
547
330
1F
100
AcDbEntity
  8
LAY-10
  6
CONTINUOUS
 62
     7
100
AcDbLine
 10
254.1999999999002
 20
348.6999999999798
 30
0.0
 11
254.1999999999002
 21
339.6999999999798
 31
0.0
  0
LINE
  5
548
330
1F
100
AcDbEntity
  8
LAY-10
  6
CONTINUOUS
 62
     7
100
AcDbLine
 10
280.7735931287002
 20
361.6999999999798
 30
0.0
 11
280.7735931287002
 21
356.6999999999798
 31
0.0
  0
LINE
  5
549
330
1F
100
AcDbEntity
  8
LAY-10
  6
CONTINUOUS
 62
     7
100
AcDbLine
 10
280.7735931287002
 20
356.6999999999798
 30
0.0
 11
292.0873016277001
 21
356.6999999999798
 31
0.0
  0
LINE
  5
54A
330
1F
100
AcDbEntity
  8
LAY-10
  6
CONTINUOUS
 62
     7
100
AcDbLine
 10
292.0873016277001
 20
356.6999999999798
 30
0.0
 11
292.0873016277001
 21
361.6999999999798
 31
0.0
  0
LINE
  5
54B
330
1F
100
AcDbEntity
  8
LAY-10
  6
CONTINUOUS
 62
     7
100
AcDbLine
 10
292.0873016277001
 20
361.6999999999798
 30
0.0
 11
299.1583694395999
 21
361.6999999999798
 31
0.0
  0
LINE
  5
54C
330
1F
100
AcDbEntity
  8
LAY-10
  6
CONTINUOUS
 62
     7
100
AcDbLine
 10
299.1583694395999
 20
361.6999999999798
 30
0.0
 11
299.1583694395999
 21
356.6999999999798
 31
0.0
  0
LINE
  5
54D
330
1F
100
AcDbEntity
  8
LAY-10
  6
CONTINUOUS
 62
     7
100
AcDbLine
 10
299.1583694395999
 20
356.6999999999798
 30
0.0
 11
310.4720779385002
 21
356.6999999999798
 31
0.0
  0
LINE
  5
54E
330
1F
100
AcDbEntity
  8
LAY-10
  6
CONTINUOUS
 62
     7
100
AcDbLine
 10
310.4720779385002
 20
356.6999999999798
 30
0.0
 11
310.4720779385002
 21
361.6999999999798
 31
0.0
  0
LINE
  5
54F
330
1F
100
AcDbEntity
  8
LAY-10
  6
CONTINUOUS
 62
     7
100
AcDbLine
 10
310.4720779385002
 20
361.6999999999798
 30
0.0
 11
317.5431457504005
 21
361.6999999999798
 31
0.0
  0
LINE
  5
550
330
1F
100
AcDbEntity
  8
LAY-10
  6
CONTINUOUS
 62
     7
100
AcDbLine
 10
317.5431457504005
 20
361.6999999999798
 30
0.0
 11
317.5431457504005
 21
356.6999999999798
 31
0.0
  0
LINE
  5
551
330
1F
100
AcDbEntity
  8
LAY-10
  6
CONTINUOUS
 62
     7
100
AcDbLine
 10
317.5431457504005
 20
356.6999999999798
 30
0.0
 11
328.8568542494004
 21
356.6999999999798
 31
0.0
  0
LINE
  5
552
330
1F
100
AcDbEntity
  8
LAY-10
  6
CONTINUOUS
 62
     7
100
AcDbLine
 10
328.8568542494004
 20
356.6999999999798
 30
0.0
 11
328.8568542494004
 21
361.6999999999798
 31
0.0
  0
LINE
  5
553
330
1F
100
AcDbEntity
  8
LAY-10
  6
CONTINUOUS
 62
     7
100
AcDbLine
 10
328.8568542494004
 20
361.6999999999798
 30
0.0
 11
335.9279220613003
 21
361.6999999999798
 31
0.0
  0
LINE
  5
554
330
1F
100
AcDbEntity
  8
LAY-10
  6
CONTINUOUS
 62
     7
100
AcDbLine
 10
335.9279220613003
 20
361.6999999999798
 30
0.0
 11
335.9279220613003
 21
356.6999999999798
 31
0.0
  0
LINE
  5
555
330
1F
100
AcDbEntity
  8
LAY-10
  6
CONTINUOUS
 62
     7
100
AcDbLine
 10
335.9279220613003
 20
356.6999999999798
 30
0.0
 11
347.2416305602005
 21
356.6999999999798
 31
0.0
  0
LINE
  5
556
330
1F
100
AcDbEntity
  8
LAY-10
  6
CONTINUOUS
 62
     7
100
AcDbLine
 10
347.2416305602005
 20
356.6999999999798
 30
0.0
 11
347.2416305602005
 21
361.6999999999798
 31
0.0
  0
LINE
  5
557
330
1F
100
AcDbEntity
  8
LAY-10
  6
CONTINUOUS
 62
     7
100
AcDbLine
 10
347.2416305602005
 20
361.6999999999798
 30
0.0
 11
354.3126983720999
 21
361.6999999999798
 31
0.0
  0
LINE
  5
558
330
1F
100
AcDbEntity
  8
LAY-10
  6
CONTINUOUS
 62
     7
100
AcDbLine
 10
354.3126983720999
 20
361.6999999999798
 30
0.0
 11
354.3126983720999
 21
356.6999999999798
 31
0.0
  0
LINE
  5
559
330
1F
100
AcDbEntity
  8
LAY-10
  6
CONTINUOUS
 62
     7
100
AcDbLine
 10
354.3126983720999
 20
356.6999999999798
 30
0.0
 11
365.6264068711002
 21
356.6999999999798
 31
0.0
  0
LINE
  5
55A
330
1F
100
AcDbEntity
  8
LAY-10
  6
CONTINUOUS
 62
     7
100
AcDbLine
 10
365.6264068711002
 20
356.6999999999798
 30
0.0
 11
365.6264068711002
 21
361.6999999999798
 31
0.0
  0
LINE
  5
55B
330
1F
100
AcDbEntity
  8
LAY-10
  6
CONTINUOUS
 62
     7
100
AcDbLine
 10
365.6264068711002
 20
361.6999999999798
 30
0.0
 11
372.6974746830006
 21
361.6999999999798
 31
0.0
  0
LINE
  5
55C
330
1F
100
AcDbEntity
  8
LAY-10
  6
CONTINUOUS
 62
     7
100
AcDbLine
 10
372.6974746830006
 20
361.6999999999798
 30
0.0
 11
372.6974746830006
 21
356.6999999999798
 31
0.0
  0
LINE
  5
55D
330
1F
100
AcDbEntity
  8
LAY-10
  6
CONTINUOUS
 62
     7
100
AcDbLine
 10
372.6974746830006
 20
356.6999999999798
 30
0.0
 11
384.0111831819004
 21
356.6999999999798
 31
0.0
  0
LINE
  5
55E
330
1F
100
AcDbEntity
  8
LAY-10
  6
CONTINUOUS
 62
     7
100
AcDbLine
 10
384.0111831819004
 20
356.6999999999798
 30
0.0
 11
384.0111831819004
 21
361.6999999999798
 31
0.0
  0
LINE
  5
55F
330
1F
100
AcDbEntity
  8
LAY-10
  6
CONTINUOUS
 62
     7
100
AcDbLine
 10
384.0111831819004
 20
361.6999999999798
 30
0.0
 11
400.1999999999
 21
361.6999999999798
 31
0.0
  0
LINE
  5
560
330
1F
100
AcDbEntity
  8
LAY-10
  6
CONTINUOUS
 62
     7
100
AcDbLine
 10
276.1999999999002
 20
361.6999999999798
 30
0.0
 11
276.1999999999002
 21
350.6999999999798
 31
0.0
  0
LINE
  5
561
330
1F
100
AcDbEntity
  8
LAY-10
  6
CONTINUOUS
 62
     7
100
AcDbLine
 10
276.1999999999002
 20
361.6999999999798
 30
0.0
 11
280.7735931287002
 21
361.6999999999798
 31
0.0
  0
LINE
  5
562
330
1F
100
AcDbEntity
  8
LAY-10
  6
CONTINUOUS
 62
     7
100
AcDbLine
 10
366.650802574
 20
364.6999999999798
 30
0.0
 11
384.0111831819004
 21
361.6999999999798
 31
0.0
  0
LINE
  5
563
330
1F
100
AcDbEntity
  8
LAY-10
  6
CONTINUOUS
 62
     7
100
AcDbLine
 10
372.6974746830006
 20
361.6999999999798
 30
0.0
 11
347.0509549180001
 21
364.6999999999798
 31
0.0
  0
LINE
  5
564
330
1F
100
AcDbEntity
  8
LAY-10
  6
CONTINUOUS
 62
     7
100
AcDbLine
 10
365.6264068711002
 20
361.6999999999798
 30
0.0
 11
328.5507674066002
 21
364.6999999999798
 31
0.0
  0
LINE
  5
565
330
1F
100
AcDbEntity
  8
LAY-10
  6
CONTINUOUS
 62
     7
100
AcDbLine
 10
354.3126983720999
 20
361.6999999999798
 30
0.0
 11
311.5220973420005
 21
364.6999999999798
 31
0.0
  0
LINE
  5
566
330
1F
100
AcDbEntity
  8
LAY-10
  6
CONTINUOUS
 62
     7
100
AcDbLine
 10
347.2416305602005
 20
361.6999999999798
 30
0.0
 11
290.4507322392001
 21
364.6999999999798
 31
0.0
  0
LINE
  5
567
330
1F
100
AcDbEntity
  8
LAY-10
  6
CONTINUOUS
 62
     7
100
AcDbLine
 10
335.9279220613003
 20
361.6999999999798
 30
0.0
 11
275.9932397661
 21
364.6999999999798
 31
0.0
  0
LINE
  5
568
330
1F
100
AcDbEntity
  8
LAY-10
  6
CONTINUOUS
 62
     7
100
AcDbLine
 10
328.8568542494004
 20
361.6999999999798
 30
0.0
 11
255.6064364428002
 21
364.6999999999798
 31
0.0
  0
LINE
  5
569
330
1F
100
AcDbEntity
  8
LAY-10
  6
CONTINUOUS
 62
     7
100
AcDbLine
 10
317.5431457504005
 20
361.6999999999798
 30
0.0
 11
249.2360260798005
 21
364.6999999999798
 31
0.0
  0
LINE
  5
56A
330
1F
100
AcDbEntity
  8
LAY-10
  6
CONTINUOUS
 62
     7
100
AcDbLine
 10
372.6974746830006
 20
358.6550910929282
 30
0.0
 11
384.0111831819004
 21
356.6999999999798
 31
0.0
  0
LINE
  5
56B
330
1F
100
AcDbEntity
  8
LAY-10
  6
CONTINUOUS
 62
     7
100
AcDbLine
 10
365.6264068711002
 20
356.6999999999798
 30
0.0
 11
354.3126983720999
 21
357.6154562399051
 31
0.0
  0
LINE
  5
56C
330
1F
100
AcDbEntity
  8
LAY-10
  6
CONTINUOUS
 62
     7
100
AcDbLine
 10
347.2416305602005
 20
356.6999999999798
 30
0.0
 11
335.9279220613003
 21
357.2976507943881
 31
0.0
  0
LINE
  5
56D
330
1F
100
AcDbEntity
  8
LAY-10
  6
CONTINUOUS
 62
     7
100
AcDbLine
 10
328.8568542494004
 20
356.6999999999798
 30
0.0
 11
317.5431457504005
 21
357.1633574321054
 31
0.0
  0
LINE
  5
56E
330
1F
100
AcDbEntity
  8
LAY-10
  6
CONTINUOUS
 62
     7
100
AcDbLine
 10
310.4720779385002
 20
356.6999999999798
 30
0.0
 11
299.1583694395999
 21
357.2280850811735
 31
0.0
  0
LINE
  5
56F
330
1F
100
AcDbEntity
  8
LAY-10
  6
CONTINUOUS
 62
     7
100
AcDbLine
 10
292.0873016277001
 20
356.6999999999798
 30
0.0
 11
280.7735931287002
 21
357.4396627017072
 31
0.0
  0
LINE
  5
570
330
1F
100
AcDbEntity
  8
LAY-10
  6
CONTINUOUS
 62
     7
100
AcDbLine
 10
400.1999999999
 20
149.6999999999798
 30
0.0
 11
247.1999999999639
 21
149.6999999999798
 31
0.0
  0
LINE
  5
571
330
1F
100
AcDbEntity
  8
LAY-10
  6
CONTINUOUS
 62
     7
100
AcDbLine
 10
247.1999999999639
 20
174.6999999999798
 30
0.0
 11
316.9573593128002
 21
174.6999999999798
 31
0.0
  0
LINE
  5
572
330
1F
100
AcDbEntity
  8
LAY-10
  6
CONTINUOUS
 62
     7
100
AcDbLine
 10
310.4720779385002
 20
152.6999999999798
 30
0.0
 11
247.1999999999639
 21
149.7466765677275
 31
0.0
  0
LINE
  5
573
330
1F
100
AcDbEntity
  8
LAY-10
  6
CONTINUOUS
 62
     7
100
AcDbLine
 10
299.1583694395999
 20
152.6999999999798
 30
0.0
 11
247.1999999999639
 21
149.7566482697798
 31
0.0
  0
LINE
  5
574
330
1F
100
AcDbEntity
  8
LAY-10
  6
CONTINUOUS
 62
     7
100
AcDbLine
 10
292.0873016277001
 20
152.6999999999798
 30
0.0
 11
247.1999999999639
 21
149.7653775640065
 31
0.0
  0
LINE
  5
575
330
1F
100
AcDbEntity
  8
LAY-10
  6
CONTINUOUS
 62
     7
100
AcDbLine
 10
280.7735931287002
 20
152.6999999999798
 30
0.0
 11
247.1999999999639
 21
149.7867714266295
 31
0.0
  0
LINE
  5
576
330
1F
100
AcDbEntity
  8
LAY-10
  6
CONTINUOUS
 62
     7
100
AcDbLine
 10
276.1999999999002
 20
152.6999999999798
 30
0.0
 11
247.1999999999639
 21
149.7999999999861
 31
0.0
  0
LINE
  5
577
330
1F
100
AcDbEntity
  8
LAY-10
  6
CONTINUOUS
 62
     7
100
AcDbLine
 10
400.1999999999
 20
364.6999999999798
 30
0.0
 11
247.1999999999639
 21
364.6999999999798
 31
0.0
  0
LINE
  5
578
330
1F
100
AcDbEntity
  8
LAY-10
  6
CONTINUOUS
 62
     7
100
AcDbLine
 10
247.1999999999639
 20
339.6999999999798
 30
0.0
 11
316.9573593128002
 21
339.6999999999798
 31
0.0
  0
LINE
  5
579
330
1F
100
AcDbEntity
  8
LAY-10
  6
CONTINUOUS
 62
     7
100
AcDbLine
 10
310.4720779385002
 20
361.6999999999798
 30
0.0
 11
247.1999999999639
 21
364.6533234322319
 31
0.0
  0
LINE
  5
57A
330
1F
100
AcDbEntity
  8
LAY-10
  6
CONTINUOUS
 62
     7
100
AcDbLine
 10
299.1583694395999
 20
361.6999999999798
 30
0.0
 11
247.1999999999639
 21
364.6433517301798
 31
0.0
  0
LINE
  5
57B
330
1F
100
AcDbEntity
  8
LAY-10
  6
CONTINUOUS
 62
     7
100
AcDbLine
 10
292.0873016277001
 20
361.6999999999798
 30
0.0
 11
247.1999999999639
 21
364.6346224359527
 31
0.0
  0
LINE
  5
57C
330
1F
100
AcDbEntity
  8
LAY-10
  6
CONTINUOUS
 62
     7
100
AcDbLine
 10
280.7735931287002
 20
361.6999999999798
 30
0.0
 11
247.1999999999639
 21
364.6132285733302
 31
0.0
  0
LINE
  5
57D
330
1F
100
AcDbEntity
  8
LAY-10
  6
CONTINUOUS
 62
     7
100
AcDbLine
 10
276.1999999999002
 20
361.6999999999798
 30
0.0
 11
247.1999999999639
 21
364.5999999999735
 31
0.0
  0
CIRCLE
  5
57E
330
1F
100
AcDbEntity
  8
LAY-10
  6
CONTINUOUS
 62
     7
100
AcDbCircle
 10
197.7000000000262
 20
392.1999999999627
 30
0.0
 40
2.5
  0
LINE
  5
57F
330
1F
100
AcDbEntity
  8
LAY-10
  6
CONTINUOUS
 62
     7
100
AcDbLine
 10
197.7000000000262
 20
394.6999999999645
 30
0.0
 11
217.1999999999757
 21
394.6999999999637
 31
0.0
  0
LINE
  5
580
330
1F
100
AcDbEntity
  8
LAY-10
  6
CONTINUOUS
 62
     7
100
AcDbLine
 10
197.7000000000262
 20
389.6999999999646
 30
0.0
 11
217.1999999999757
 21
389.6999999999636
 31
0.0
  0
CIRCLE
  5
581
330
1F
100
AcDbEntity
  8
LAY-10
  6
CONTINUOUS
 62
     7
100
AcDbCircle
 10
197.7000000000262
 20
122.1999999999828
 30
0.0
 40
2.5
  0
LINE
  5
582
330
1F
100
AcDbEntity
  8
LAY-10
  6
CONTINUOUS
 62
     7
100
AcDbLine
 10
197.7000000000262
 20
124.6999999999846
 30
0.0
 11
217.1999999999757
 21
124.6999999999837
 31
0.0
  0
LINE
  5
583
330
1F
100
AcDbEntity
  8
LAY-10
  6
CONTINUOUS
 62
     7
100
AcDbLine
 10
197.7000000000262
 20
119.6999999999846
 30
0.0
 11
217.1999999999757
 21
119.6999999999837
 31
0.0
  0
LINE
  5
584
330
1F
100
AcDbEntity
  8
LAY-10
  6
CONTINUOUS
 62
     7
100
AcDbLine
 10
214.1999999999716
 20
149.2000000000136
 30
0.0
 11
159.199999999973
 21
149.2000000000136
 31
0.0
  0
LINE
  5
585
330
1F
100
AcDbEntity
  8
LAY-10
  6
CONTINUOUS
 62
     7
100
AcDbLine
 10
159.199999999973
 20
365.2000000000036
 30
0.0
 11
159.199999999973
 21
149.2000000000136
 31
0.0
  0
LINE
  5
586
330
1F
100
AcDbEntity
  8
LAY-10
  6
CONTINUOUS
 62
     7
100
AcDbLine
 10
214.1999999999734
 20
365.2000000000036
 30
0.0
 11
159.199999999973
 21
365.2000000000036
 31
0.0
  0
LINE
  5
587
330
1F
100
AcDbEntity
  8
LAY-10
  6
CENTER
 62
     2
100
AcDbLine
 10
197.7000000000585
 20
717.7000000000469
 30
0.0
 11
197.7000000000585
 21
705.7000000000469
 31
0.0
  0
ARC
  5
588
330
1F
100
AcDbEntity
  8
LAY-10
  6
CENTER
 62
     2
100
AcDbCircle
 10
202.2000000000585
 20
705.7000000000469
 30
0.0
 40
4.5
100
AcDbArc
 50
180.0
 51
270.0
  0
LINE
  5
589
330
1F
100
AcDbEntity
  8
LAY-10
  6
CENTER
 62
     2
100
AcDbLine
 10
202.2000000000585
 20
701.2000000000187
 30
0.0
 11
229.1433756731426
 21
701.2000000000187
 31
0.0
  0
LINE
  5
58A
330
1F
100
AcDbEntity
  8
LAY-10
  6
CENTER
 62
     2
100
AcDbLine
 10
415.6999999999406
 20
498.7000000000541
 30
0.0
 11
403.6999999999406
 21
498.7000000000541
 31
0.0
  0
ARC
  5
58B
330
1F
100
AcDbEntity
  8
LAY-10
  6
CENTER
 62
     2
100
AcDbCircle
 10
403.6999999999406
 20
503.2000000000541
 30
0.0
 40
4.5
100
AcDbArc
 50
180.0
 51
270.0
  0
LINE
  5
58C
330
1F
100
AcDbEntity
  8
LAY-10
  6
CENTER
 62
     2
100
AcDbLine
 10
399.1999999999425
 20
503.2000000000086
 30
0.0
 11
399.1999999999425
 21
530.1433756731087
 31
0.0
  0
LINE
  5
58D
330
1F
100
AcDbEntity
  8
LAY-10
  6
CENTER
 62
     2
100
AcDbLine
 10
227.1999999999416
 20
685.2000000000519
 30
0.0
 11
248.1999999999416
 21
685.2000000000519
 31
0.0
  0
LINE
  5
58E
330
1F
100
AcDbEntity
  8
LAY-10
  6
CENTER
 62
     2
100
AcDbLine
 10
260.8984848098139
 20
562.8984848098928
 30
0.0
 11
224.1289321881008
 21
526.1289321881743
 31
0.0
  0
LINE
  5
58F
330
1F
100
AcDbEntity
  8
LAY-10
  6
CENTER
 62
     2
100
AcDbLine
 10
154.1999999999598
 20
590.2000000000137
 30
0.0
 11
219.1999999999734
 21
590.2000000000137
 31
0.0
  0
LINE
  5
590
330
1F
100
AcDbEntity
  8
LAY-10
  6
CENTER
 62
     2
100
AcDbLine
 10
219.1999999999743
 20
590.2000000000091
 30
0.0
 11
154.2010365095334
 21
588.8762968073277
 31
0.0
  0
LINE
  5
591
330
1F
100
AcDbEntity
  8
LAY-10
  6
CENTER
 62
     2
100
AcDbLine
 10
874.1999999999607
 20
741.2000000000139
 30
0.0
 11
874.1999999999607
 21
476.2000000000136
 31
0.0
  0
LINE
  5
592
330
1F
100
AcDbEntity
  8
LAY-10
  6
CENTER
 62
     2
100
AcDbLine
 10
743.6999999999207
 20
499.7000000001059
 30
0.0
 11
734.6999999999207
 21
499.7000000001059
 31
0.0
  0
LINE
  5
593
330
1F
100
AcDbEntity
  8
LAY-10
  6
CENTER
 62
     2
100
AcDbLine
 10
739.1999999999307
 20
495.2000000001182
 30
0.0
 11
739.1999999999307
 21
531.1433756731187
 31
0.0
  0
LINE
  5
594
330
1F
100
AcDbEntity
  8
LAY-10
  6
CENTER
 62
     2
100
AcDbLine
 10
1013.700000000021
 20
499.7000000001059
 30
0.0
 11
1004.700000000021
 21
499.7000000001059
 31
0.0
  0
LINE
  5
595
330
1F
100
AcDbEntity
  8
LAY-10
  6
CENTER
 62
     2
100
AcDbLine
 10
1009.200000000031
 20
495.2000000001182
 30
0.0
 11
1009.200000000031
 21
531.1433756731187
 31
0.0
  0
LINE
  5
596
330
1F
100
AcDbEntity
  8
LAY-10
  6
CENTER
 62
     2
100
AcDbLine
 10
951.1999999999371
 20
586.19999999998
 30
0.0
 11
797.199999999937
 21
586.19999999998
 31
0.0
  0
LINE
  5
597
330
1F
100
AcDbEntity
  8
LAY-10
  6
CENTER
 62
     2
100
AcDbLine
 10
770.1144020156693
 20
685.1999999999207
 30
0.0
 11
789.0999999999394
 21
685.1999999999207
 31
0.0
  0
LINE
  5
598
330
1F
100
AcDbEntity
  8
LAY-10
  6
CENTER
 62
     2
100
AcDbLine
 10
779.1999999999397
 20
675.2999999999206
 30
0.0
 11
779.1999999999397
 21
699.7390942764205
 31
0.0
  0
LINE
  5
599
330
1F
100
AcDbEntity
  8
LAY-10
  6
CENTER
 62
     2
100
AcDbLine
 10
978.2855979842097
 20
685.1999999999207
 30
0.0
 11
959.2999999999392
 21
685.1999999999207
 31
0.0
  0
LINE
  5
59A
330
1F
100
AcDbEntity
  8
LAY-10
  6
CENTER
 62
     2
100
AcDbLine
 10
969.1999999999398
 20
675.2999999999206
 30
0.0
 11
969.1999999999398
 21
699.7390942764205
 31
0.0
  0
LINE
  5
59B
330
1F
100
AcDbEntity
  8
LAY-10
  6
CENTER
 62
     2
100
AcDbLine
 10
230.1433756731062
 20
392.1999999999673
 30
0.0
 11
193.2000000000262
 21
392.1999999999673
 31
0.0
  0
LINE
  5
59C
330
1F
100
AcDbEntity
  8
LAY-10
  6
CENTER
 62
     2
100
AcDbLine
 10
197.7000000000239
 20
387.6999999999627
 30
0.0
 11
197.7000000000239
 21
396.6999999999627
 31
0.0
  0
LINE
  5
59D
330
1F
100
AcDbEntity
  8
LAY-10
  6
CENTER
 62
     2
100
AcDbLine
 10
230.1433756731062
 20
122.1999999999873
 30
0.0
 11
193.2000000000262
 21
122.1999999999873
 31
0.0
  0
LINE
  5
59E
330
1F
100
AcDbEntity
  8
LAY-10
  6
CENTER
 62
     2
100
AcDbLine
 10
197.7000000000239
 20
117.6999999999828
 30
0.0
 11
197.7000000000239
 21
126.6999999999828
 31
0.0
  0
LINE
  5
59F
330
1F
100
AcDbEntity
  8
LAY-10
  6
CENTER
 62
     2
100
AcDbLine
 10
439.1999999999697
 20
257.1999999999941
 30
0.0
 11
143.7000000000099
 21
257.1999999999941
 31
0.0
  0
CIRCLE
  5
5A0
330
1F
100
AcDbEntity
  8
LAY-10
  6
HIDDEN
 62
     7
100
AcDbCircle
 10
874.1999999999607
 20
590.2000000000137
 30
0.0
 40
74.99999999986005
  0
ARC
  5
5A1
330
1F
100
AcDbEntity
  8
LAY-10
  6
HIDDEN
 62
     7
100
AcDbCircle
 10
874.1999999999607
 20
590.2000000000137
 30
0.0
 40
109.0
100
AcDbArc
 50
318.2412638193941
 51
221.7587361806059
  0
LINE
  5
5A2
330
1F
100
AcDbEntity
  8
LAY-10
  6
CONTINUOUS
 62
     7
100
AcDbLine
 10
195.2502420119235
 20
670.0232606687432
 30
0.0
 11
169.5324531378128
 21
671.1055024892539
 31
0.0
  0
LINE
  5
5A3
330
1F
100
AcDbEntity
  8
LAY-10
  6
CONTINUOUS
 62
     7
100
AcDbLine
 10
198.5199511467854
 20
509.4678537947763
 30
0.0
 11
172.8675468621377
 21
507.339458542867
 31
0.0
  0
LINE
  5
5A4
330
1F
100
AcDbEntity
  8
LAY-10
  6
CONTINUOUS
 62
     7
100
AcDbLine
 10
216.3339745962617
 20
703.7000000000592
 30
0.0
 11
217.2000000000457
 21
704.2000000000592
 31
0.0
  0
LINE
  5
5A5
330
1F
100
AcDbEntity
  8
LAY-10
  6
CONTINUOUS
 62
     7
100
AcDbLine
 10
396.6999999999225
 20
517.3339745962537
 30
0.0
 11
396.1999999999225
 21
518.2000000000378
 31
0.0
  0
LINE
  5
5A6
330
1F
100
AcDbEntity
  8
LAY-10
  6
CONTINUOUS
 62
     7
100
AcDbLine
 10
401.6999999999534
 20
517.3339745962569
 30
0.0
 11
402.1999999999534
 21
518.2000000000414
 31
0.0
  0
LINE
  5
5A7
330
1F
100
AcDbEntity
  8
LAY-10
  6
CONTINUOUS
 62
     7
100
AcDbLine
 10
228.0180194846257
 20
536.3819805153787
 30
0.0
 11
231.3715728756474
 21
539.7355339064
 31
0.0
  0
LINE
  5
5A8
330
1F
100
AcDbEntity
  8
LAY-10
  6
CONTINUOUS
 62
     7
100
AcDbLine
 10
234.3819805153057
 20
530.0180194847001
 30
0.0
 11
237.7355339063261
 21
533.3715728757195
 31
0.0
  0
LINE
  5
5A9
330
1F
100
AcDbEntity
  8
LAY-10
  6
CONTINUOUS
 62
     7
100
AcDbLine
 10
237.199999999993
 20
682.6999999999096
 30
0.0
 11
238.8999999999455
 21
682.6999999999096
 31
0.0
  0
LINE
  5
5AA
330
1F
100
AcDbEntity
  8
LAY-10
  6
CONTINUOUS
 62
     7
100
AcDbLine
 10
237.199999999993
 20
687.6999999999082
 30
0.0
 11
238.8999999999455
 21
687.6999999999082
 31
0.0
  0
LINE
  5
5AB
330
1F
100
AcDbEntity
  8
LAY-10
  6
CONTINUOUS
 62
     7
100
AcDbLine
 10
242.614570696594
 20
550.2714249460689
 30
0.0
 11
256.6558441227121
 21
564.3126983721822
 31
0.0
  0
LINE
  5
5AC
330
1F
100
AcDbEntity
  8
LAY-10
  6
CONTINUOUS
 62
     7
100
AcDbLine
 10
248.2714249460801
 20
544.614570696584
 30
0.0
 11
262.3126983721909
 21
558.6558441227046
 31
0.0
  0
LINE
  5
5AD
330
1F
100
AcDbEntity
  8
LAY-10
  6
CONTINUOUS
 62
     7
100
AcDbLine
 10
741.6999999999316
 20
518.3339745962669
 30
0.0
 11
742.1999999999316
 21
519.2000000000514
 31
0.0
  0
LINE
  5
5AE
330
1F
100
AcDbEntity
  8
LAY-10
  6
CONTINUOUS
 62
     7
100
AcDbLine
 10
736.6999999999016
 20
518.3339745962637
 30
0.0
 11
736.1999999999016
 21
519.2000000000478
 31
0.0
  0
LINE
  5
5AF
330
1F
100
AcDbEntity
  8
LAY-10
  6
CONTINUOUS
 62
     7
100
AcDbLine
 10
1011.700000000032
 20
518.3339745962669
 30
0.0
 11
1012.200000000032
 21
519.2000000000514
 31
0.0
  0
LINE
  5
5B0
330
1F
100
AcDbEntity
  8
LAY-10
  6
CONTINUOUS
 62
     7
100
AcDbLine
 10
1006.700000000002
 20
518.3339745962637
 30
0.0
 11
1006.200000000002
 21
519.2000000000478
 31
0.0
  0
LINE
  5
5B1
330
1F
100
AcDbEntity
  8
LAY-10
  6
CONTINUOUS
 62
     7
100
AcDbLine
 10
216.3339745961812
 20
394.6999999999819
 30
0.0
 11
217.1999999999657
 21
395.1999999999818
 31
0.0
  0
LINE
  5
5B2
330
1F
100
AcDbEntity
  8
LAY-10
  6
CONTINUOUS
 62
     7
100
AcDbLine
 10
216.3339745961848
 20
389.6999999999518
 30
0.0
 11
217.1999999999693
 21
389.1999999999518
 31
0.0
  0
LINE
  5
5B3
330
1F
100
AcDbEntity
  8
LAY-10
  6
CONTINUOUS
 62
     7
100
AcDbLine
 10
216.3339745961812
 20
124.7000000000019
 30
0.0
 11
217.1999999999657
 21
125.2000000000019
 31
0.0
  0
LINE
  5
5B4
330
1F
100
AcDbEntity
  8
LAY-10
  6
CONTINUOUS
 62
     7
100
AcDbLine
 10
216.3339745961848
 20
119.6999999999718
 30
0.0
 11
217.1999999999693
 21
119.1999999999719
 31
0.0
  0
DIMENSION
  5
5B6
330
1F
100
AcDbEntity
  8
LAY-20
  6
CONTINUOUS
 62
     4
100
AcDbDimension
  2
*D15
 10
229.19999999996
 20
795.3
 30
0.0
 11
194.1999999999602
 21
802.8
 31
0.0
 70
   160
  1
70以上
  3
ISO-25
100
AcDbAlignedDimension
 13
159.1999999999603
 23
698.199999999996
 33
0.0
 14
229.19999999996
 24
848.199999999996
 34
0.0
100
AcDbRotatedDimension
1001
ACAD
1000
DSTYLE
1002
{
1070
   270
1070
     2
1070
     6
1000
EX_BNORM
1070
     7
1000
EX_BNORM
1070
    41
1040
9.0
1070
    42
1040
4.5
1070
    44
1040
4.5
1070
    73
1070
     0
1070
    74
1070
     0
1070
    75
1070
     0
1070
    76
1070
     1
1070
    77
1070
     1
1070
    78
1070
     8
1070
   140
1040
9.3543312
1070
   147
1040
0.0
1070
   173
1070
     1
1070
   176
1070
     4
1070
   177
1070
     4
1070
   178
1070
     7
1070
   271
1070
     1
1070
   277
1070
     2
1070
   279
1070
     2
1070
   280
1070
     0
1070
   287
1070
     5
1070
   340
1005
5B5
1002
}
  0
DIMENSION
  5
5C3
330
1F
100
AcDbEntity
  8
LAY-20
  6
CONTINUOUS
 62
     4
100
AcDbDimension
  2
*D16
 10
434.1999999999698
 20
795.3
 30
0.0
 11
331.699999999965
 21
802.8
 31
0.0
 70
   160
  3
ISO-25
100
AcDbAlignedDimension
 13
229.19999999996
 23
736.1999999999958
 33
0.0
 14
434.1999999999698
 24
531.199999999996
 34
0.0
100
AcDbRotatedDimension
1001
ACAD
1000
DSTYLE
1002
{
1070
   270
1070
     2
1070
     6
1000
EX_BNORM
1070
     7
1000
EX_BNORM
1070
    41
1040
9.0
1070
    42
1040
4.5
1070
    44
1040
4.5
1070
    73
1070
     0
1070
    74
1070
     0
1070
    75
1070
     0
1070
    76
1070
     0
1070
    77
1070
     1
1070
    78
1070
     8
1070
   140
1040
9.3543312
1070
   147
1040
0.0
1070
   173
1070
     1
1070
   176
1070
     4
1070
   177
1070
     4
1070
   178
1070
     7
1070
   271
1070
     1
1070
   277
1070
     2
1070
   279
1070
     2
1070
   280
1070
     0
1070
   287
1070
     5
1070
   340
1005
5B5
1002
}
  0
DIMENSION
  5
5D0
330
1F
100
AcDbEntity
  8
LAY-20
  6
CONTINUOUS
 62
     4
100
AcDbDimension
  2
*D17
 10
247.19999999996
 20
763.8
 30
0.0
 11
238.1999999999601
 21
771.3
 31
0.0
 70
   160
  3
ISO-25
100
AcDbAlignedDimension
 13
229.19999999996
 23
792.199999999996
 33
0.0
 14
247.19999999996
 24
792.199999999996
 34
0.0
100
AcDbRotatedDimension
1001
ACAD
1000
DSTYLE
1002
{
1070
   270
1070
     2
1070
     6
1000
EX_BNORM
1070
     7
1000
EX_BNORM
1070
    41
1040
9.0
1070
    42
1040
0.0
1070
    44
1040
0.0
1070
    73
1070
     0
1070
    74
1070
     0
1070
    75
1070
     1
1070
    76
1070
     1
1070
    77
1070
     1
1070
    78
1070
     8
1070
   140
1040
9.3543312
1070
   147
1040
0.0
1070
   173
1070
     1
1070
   176
1070
     4
1070
   177
1070
     4
1070
   178
1070
     7
1070
   271
1070
     1
1070
   277
1070
     2
1070
   279
1070
     2
1070
   280
1070
     0
1070
   287
1070
     5
1070
   340
1005
5B5
1002
}
  0
DIMENSION
  5
5DB
330
1F
100
AcDbEntity
  8
LAY-20
  6
CONTINUOUS
 62
     4
100
AcDbDimension
  2
*D18
 10
400.1999999999598
 20
763.8
 30
0.0
 11
323.69999999996
 21
771.3
 31
0.0
 70
   160
  3
ISO-25
100
AcDbAlignedDimension
 13
247.19999999996
 23
712.200000000096
 33
0.0
 14
400.1999999999598
 24
548.199999999996
 34
0.0
100
AcDbRotatedDimension
1001
ACAD
1000
DSTYLE
1002
{
1070
   270
1070
     2
1070
     6
1000
EX_BNORM
1070
     7
1000
EX_BNORM
1070
    41
1040
9.0
1070
    42
1040
4.5
1070
    44
1040
4.5
1070
    73
1070
     0
1070
    74
1070
     0
1070
    75
1070
     0
1070
    76
1070
     0
1070
    77
1070
     1
1070
    78
1070
     8
1070
   140
1040
9.3543312
1070
   147
1040
0.0
1070
   173
1070
     1
1070
   176
1070
     4
1070
   177
1070
     4
1070
   178
1070
     7
1070
   271
1070
     1
1070
   277
1070
     2
1070
   279
1070
     2
1070
   280
1070
     0
1070
   287
1070
     5
1070
   340
1005
5B5
1002
}
  0
DIMENSION
  5
5E8
330
1F
100
AcDbEntity
  8
LAY-20
  6
CONTINUOUS
 62
     4
100
AcDbDimension
  2
*D19
 10
490.1999999999598
 20
531.199999999996
 30
0.0
 11
482.6999999999598
 21
560.699999999996
 31
0.0
 70
   160
  3
ISO-25
100
AcDbAlignedDimension
 13
219.1999999999603
 23
590.199999999996
 33
0.0
 14
490.1999999999598
 24
531.199999999996
 34
0.0
 50
90.0
100
AcDbRotatedDimension
1001
ACAD
1000
DSTYLE
1002
{
1070
   270
1070
     2
1070
     6
1000
EX_BNORM
1070
     7
1000
EX_BNORM
1070
    41
1040
9.0
1070
    42
1040
4.5
1070
    44
1040
4.5
1070
    73
1070
     0
1070
    74
1070
     0
1070
    75
1070
     0
1070
    76
1070
     1
1070
    77
1070
     1
1070
    78
1070
     8
1070
   140
1040
9.3543312
1070
   147
1040
0.0
1070
   173
1070
     1
1070
   176
1070
     4
1070
   177
1070
     4
1070
   178
1070
     7
1070
   271
1070
     1
1070
   277
1070
     2
1070
   279
1070
     2
1070
   280
1070
     0
1070
   287
1070
     5
1070
   340
1005
5B5
1002
}
  0
DIMENSION
  5
5F4
330
1F
100
AcDbEntity
  8
LAY-20
  6
CONTINUOUS
 62
     4
100
AcDbDimension
  2
*D20
 10
519.2999999999997
 20
702.199999999996
 30
0.0
 11
511.7999999999997
 21
625.7000000000457
 31
0.0
 70
   160
  3
ISO-25
100
AcDbAlignedDimension
 13
410.2000000000598
 23
549.200000000096
 33
0.0
 14
246.1999999999603
 24
702.199999999996
 34
0.0
 50
90.0
100
AcDbRotatedDimension
1001
ACAD
1000
DSTYLE
1002
{
1070
   270
1070
     2
1070
     6
1000
EX_BNORM
1070
     7
1000
EX_BNORM
1070
    41
1040
9.0
1070
    42
1040
4.5
1070
    44
1040
4.5
1070
    73
1070
     0
1070
    74
1070
     0
1070
    75
1070
     0
1070
    76
1070
     0
1070
    77
1070
     1
1070
    78
1070
     8
1070
   140
1040
9.3543312
1070
   147
1040
0.0
1070
   173
1070
     1
1070
   176
1070
     4
1070
   177
1070
     4
1070
   178
1070
     7
1070
   271
1070
     1
1070
   277
1070
     2
1070
   279
1070
     2
1070
   280
1070
     0
1070
   287
1070
     5
1070
   340
1005
5B5
1002
}
  0
DIMENSION
  5
601
330
1F
100
AcDbEntity
  8
LAY-20
  6
CONTINUOUS
 62
     4
100
AcDbDimension
  2
*D21
 10
519.2999999999997
 20
549.200000000096
 30
0.0
 11
511.7999999999997
 21
540.2000000000457
 31
0.0
 70
   160
  3
ISO-25
100
AcDbAlignedDimension
 13
546.1999999999596
 23
531.199999999996
 33
0.0
 14
546.1999999999596
 24
549.200000000096
 34
0.0
 50
90.0
100
AcDbRotatedDimension
1001
ACAD
1000
DSTYLE
1002
{
1070
   270
1070
     2
1070
     6
1000
EX_BNORM
1070
     7
1000
EX_BNORM
1070
    41
1040
9.0
1070
    42
1040
0.0
1070
    44
1040
0.0
1070
    73
1070
     0
1070
    74
1070
     0
1070
    75
1070
     1
1070
    76
1070
     1
1070
    77
1070
     1
1070
    78
1070
     8
1070
   140
1040
9.3543312
1070
   147
1040
0.0
1070
   173
1070
     1
1070
   176
1070
     4
1070
   177
1070
     4
1070
   178
1070
     7
1070
   271
1070
     1
1070
   277
1070
     2
1070
   279
1070
     2
1070
   280
1070
     0
1070
   287
1070
     5
1070
   340
1005
5B5
1002
}
  0
DIMENSION
  5
60C
330
1F
100
AcDbEntity
  8
LAY-20
  6
CONTINUOUS
 62
     4
100
AcDbDimension
  2
*D22
 10
554.0999999999999
 20
531.199999999996
 30
0.0
 11
546.5999999999999
 21
506.1999999999956
 31
0.0
 70
   160
  3
ISO-25
100
AcDbAlignedDimension
 13
219.1999999999603
 23
481.1999999999958
 33
0.0
 14
602.1999999999598
 24
531.199999999996
 34
0.0
 50
90.0
100
AcDbRotatedDimension
1001
ACAD
1000
DSTYLE
1002
{
1070
   270
1070
     2
1070
     6
1000
EX_BNORM
1070
     7
1000
EX_BNORM
1070
    41
1040
9.0
1070
    42
1040
4.5
1070
    44
1040
4.5
1070
    73
1070
     0
1070
    74
1070
     0
1070
    75
1070
     0
1070
    76
1070
     1
1070
    77
1070
     1
1070
    78
1070
     8
1070
   140
1040
9.3543312
1070
   147
1040
0.0
1070
   173
1070
     1
1070
   176
1070
     4
1070
   177
1070
     4
1070
   178
1070
     7
1070
   271
1070
     1
1070
   277
1070
     2
1070
   279
1070
     2
1070
   280
1070
     0
1070
   287
1070
     5
1070
   340
1005
5B5
1002
}
  0
DIMENSION
  5
618
330
1F
100
AcDbEntity
  8
LAY-20
  6
CONTINUOUS
 62
     4
100
AcDbDimension
  2
*D23
 10
554.0999999999999
 20
531.199999999996
 30
0.0
 11
546.5999999999999
 21
633.6999999999957
 31
0.0
 70
   160
  3
ISO-25
100
AcDbAlignedDimension
 13
229.19999999996
 23
736.1999999999958
 33
0.0
 14
434.1999999999698
 24
531.199999999996
 34
0.0
 50
90.0
100
AcDbRotatedDimension
1001
ACAD
1000
DSTYLE
1002
{
1070
   270
1070
     2
1070
     6
1000
EX_BNORM
1070
     7
1000
EX_BNORM
1070
    41
1040
9.0
1070
    42
1040
4.5
1070
    44
1040
4.5
1070
    73
1070
     0
1070
    74
1070
     0
1070
    75
1070
     0
1070
    76
1070
     0
1070
    77
1070
     1
1070
    78
1070
     8
1070
   140
1040
9.3543312
1070
   147
1040
0.0
1070
   173
1070
     1
1070
   176
1070
     4
1070
   177
1070
     4
1070
   178
1070
     7
1070
   271
1070
     1
1070
   277
1070
     2
1070
   279
1070
     2
1070
   280
1070
     0
1070
   287
1070
     5
1070
   340
1005
5B5
1002
}
  0
DIMENSION
  5
625
330
1F
100
AcDbEntity
  8
LAY-20
  6
CONTINUOUS
 62
     4
100
AcDbDimension
  2
*D24
 10
766.6999999998725
 20
763.8000000000001
 30
0.0
 11
874.1999999998724
 21
771.2999999999997
 31
0.0
 70
   160
  3
ISO-25
100
AcDbAlignedDimension
 13
981.6999999998725
 23
702.1999999999732
 33
0.0
 14
766.6999999998725
 24
702.1999999999732
 34
0.0
100
AcDbRotatedDimension
1001
ACAD
1000
DSTYLE
1002
{
1070
   270
1070
     2
1070
     6
1000
EX_BNORM
1070
     7
1000
EX_BNORM
1070
    41
1040
9.0
1070
    42
1040
4.5
1070
    44
1040
4.499999999999886
1070
    73
1070
     0
1070
    74
1070
     0
1070
    75
1070
     0
1070
    76
1070
     0
1070
    77
1070
     1
1070
    78
1070
     8
1070
   140
1040
9.3543312
1070
   147
1040
0.0
1070
   173
1070
     1
1070
   176
1070
     4
1070
   177
1070
     4
1070
   178
1070
     7
1070
   271
1070
     1
1070
   277
1070
     2
1070
   279
1070
     2
1070
   280
1070
     0
1070
   287
1070
     5
1070
   340
1005
5B5
1002
}
  0
DIMENSION
  5
632
330
1F
100
AcDbEntity
  8
LAY-20
  6
CONTINUOUS
 62
     4
100
AcDbDimension
  2
*D25
 10
1039.199999999968
 20
795.3
 30
0.0
 11
874.199999999963
 21
802.8
 31
0.0
 70
   160
  3
ISO-25
100
AcDbAlignedDimension
 13
709.199999999958
 23
721.1999999999958
 33
0.0
 14
1039.199999999968
 24
721.1999999999958
 34
0.0
100
AcDbRotatedDimension
1001
ACAD
1000
DSTYLE
1002
{
1070
   270
1070
     2
1070
     6
1000
EX_BNORM
1070
     7
1000
EX_BNORM
1070
    41
1040
9.0
1070
    42
1040
4.5
1070
    44
1040
4.5
1070
    73
1070
     0
1070
    74
1070
     0
1070
    75
1070
     0
1070
    76
1070
     0
1070
    77
1070
     1
1070
    78
1070
     8
1070
   140
1040
9.3543312
1070
   147
1040
0.0
1070
   173
1070
     1
1070
   176
1070
     4
1070
   177
1070
     4
1070
   178
1070
     7
1070
   271
1070
     1
1070
   277
1070
     2
1070
   279
1070
     2
1070
   280
1070
     0
1070
   287
1070
     5
1070
   340
1005
5B5
1002
}
  0
DIMENSION
  5
63F
330
1F
100
AcDbEntity
  8
LAY-20
  6
CONTINUOUS
 62
     4
100
AcDbDimension
  2
*D26
 10
519.2999999999997
 20
523.20000000001
 30
0.0
 11
511.7999999999998
 21
508.2000000000099
 31
0.0
 70
   160
  3
ISO-25
100
AcDbAlignedDimension
 13
546.1999999999998
 23
531.2
 33
0.0
 14
432.1999999999998
 24
523.20000000001
 34
0.0
 50
90.0
100
AcDbRotatedDimension
1001
ACAD
1000
DSTYLE
1002
{
1070
   270
1070
     2
1070
     6
1000
EX_BNORM
1070
     7
1000
EX_BNORM
1070
    41
1040
9.0
1070
    42
1040
4.5
1070
    44
1040
4.5
1070
    73
1070
     0
1070
    74
1070
     0
1070
    75
1070
     0
1070
    76
1070
     0
1070
    77
1070
     1
1070
    78
1070
     8
1070
   140
1040
9.3543312
1070
   147
1040
0.0
1070
   173
1070
     1
1070
   176
1070
     4
1070
   177
1070
     4
1070
   178
1070
     7
1070
   271
1070
     1
1070
   277
1070
     2
1070
   279
1070
     2
1070
   280
1070
     2
1070
   287
1070
     5
1070
   340
1005
5B5
1002
}
  0
DIMENSION
  5
64E
330
1F
100
AcDbEntity
  8
LAY-20
  6
CONTINUOUS
 62
     4
100
AcDbDimension
  2
*D27
 10
229.2
 20
763.8
 30
0.0
 11
206.2000000000001
 21
771.3
 31
0.0
 70
   160
  3
ISO-25
100
AcDbAlignedDimension
 13
221.2
 23
734.19999999997
 33
0.0
 14
229.2
 24
792.2
 34
0.0
100
AcDbRotatedDimension
1001
ACAD
1000
DSTYLE
1002
{
1070
   270
1070
     2
1070
     6
1000
EX_BNORM
1070
     7
1000
EX_BNORM
1070
    41
1040
9.0
1070
    42
1040
4.5
1070
    44
1040
4.5
1070
    73
1070
     0
1070
    74
1070
     0
1070
    75
1070
     0
1070
    76
1070
     0
1070
    77
1070
     1
1070
    78
1070
     8
1070
   140
1040
9.3543312
1070
   147
1040
0.0
1070
   173
1070
     1
1070
   176
1070
     4
1070
   177
1070
     4
1070
   178
1070
     7
1070
   271
1070
     1
1070
   277
1070
     2
1070
   279
1070
     2
1070
   280
1070
     1
1070
   287
1070
     5
1070
   340
1005
5B5
1002
}
  0
DIMENSION
  5
65D
330
1F
100
AcDbEntity
  8
LAY-20
  6
CONTINUOUS
 62
     4
100
AcDbDimension
  2
*D28
 10
113.8529323290788
 20
588.7698485612083
 30
0.0
 11
110.0289428046689
 21
618.8065008891664
 31
0.0
 70
   165
  1
1.10%%d
  3
ISO-25
100
AcDb3PointAngularDimension
 13
154.1999999999598
 23
590.2000000000136
 33
0.0
 14
154.2010365095334
 24
588.8762968073278
 34
0.0
 15
219.2000000001963
 25
590.2000000000137
 35
0.0
1001
ACAD
1000
DSTYLE
1002
{
1070
   270
1070
     2
1070
     6
1000
EX_BNORM
1070
     7
1000
EX_BNORM
1070
    41
1040
9.0
1070
    42
1040
4.5
1070
    44
1040
4.5
1070
    73
1070
     0
1070
    74
1070
     0
1070
    75
1070
     0
1070
    76
1070
     0
1070
    77
1070
     1
1070
    78
1070
     8
1070
    79
1070
     2
1070
   140
1040
9.3543312
1070
   147
1040
0.0
1070
   173
1070
     1
1070
   176
1070
     4
1070
   177
1070
     4
1070
   178
1070
     7
1070
   179
1070
     1
1070
   271
1070
     1
1070
   277
1070
     2
1070
   279
1070
     2
1070
   280
1070
     1
1070
   287
1070
     5
1070
   340
1005
5B5
1002
}
  0
DIMENSION
  5
66D
330
1F
100
AcDbEntity
  8
LAY-20
  6
CONTINUOUS
 62
     4
100
AcDbDimension
  2
*D29
 10
58.47199349306582
 20
505.0083456275952
 30
0.0
 11
49.30517781444135
 21
586.7281904135209
 31
0.0
 70
   160
  1
Rｃ6（163.8）
  3
ISO-25
100
AcDbAlignedDimension
 13
169.5308021088999
 23
671.08474946908
 33
0.0
 14
172.8675468621
 24
507.33945854287
 34
0.0
 50
91.16739195716333
100
AcDbRotatedDimension
1001
ACAD
1000
DSTYLE
1002
{
1070
   270
1070
     2
1070
     6
1000
EX_BNORM
1070
     7
1000
EX_BNORM
1070
    41
1040
9.0
1070
    42
1040
4.499999999999991
1070
    44
1040
4.499999999999996
1070
    73
1070
     0
1070
    74
1070
     0
1070
    75
1070
     0
1070
    76
1070
     0
1070
    77
1070
     1
1070
    78
1070
     8
1070
   140
1040
9.3543312
1070
   147
1040
0.0
1070
   173
1070
     1
1070
   176
1070
     4
1070
   177
1070
     4
1070
   178
1070
     7
1070
   271
1070
     1
1070
   277
1070
     2
1070
   279
1070
     2
1070
   280
1070
     0
1070
   287
1070
     5
1070
   340
1005
5B5
1002
}
  0
TEXT
  5
67A
330
1F
100
AcDbEntity
  8
LAY-20
  6
CONTINUOUS
 62
     7
100
AcDbText
 10
832.3500034332301
 20
622.5485435243246
 30
0.0
 40
5.2618113
  1
ＦＵＫＵＮＩＳＨＩ
 50
360.0
 41
1.541715766631322
  7
EXCADSTD
100
AcDbText
  0
TEXT
  5
67B
330
1F
100
AcDbEntity
  8
LAY-20
  6
CONTINUOUS
 62
     7
100
AcDbText
 10
326.3514564754754
 20
215.35000343326
 30
0.0
 40
5.2618113
  1
ＦＵＫＵＮＩＳＨＩ
 50
89.99999999999996
 41
1.541715766631322
  7
EXCADSTD
100
AcDbText
  0
LINE
  5
67C
330
1F
100
AcDbEntity
  8
LAY-255
  6
CONTINUOUS
 62
     7
100
AcDbLine
 10
1155.0
 20
66.0
 30
0.0
 11
855.0
 21
66.0
 31
0.0
  0
LINE
  5
67D
330
1F
100
AcDbEntity
  8
LAY-255
  6
CONTINUOUS
 62
     7
100
AcDbLine
 10
866.4000000000001
 20
48.0
 30
0.0
 11
890.4000000000001
 21
63.0
 31
0.0
  0
LINE
  5
67E
330
1F
100
AcDbEntity
  8
LAY-255
  6
CONTINUOUS
 62
     7
100
AcDbLine
 10
890.4000000000001
 20
63.0
 30
0.0
 11
914.4000000000001
 21
48.0
 31
0.0
  0
LINE
  5
67F
330
1F
100
AcDbEntity
  8
LAY-255
  6
CONTINUOUS
 62
     7
100
AcDbLine
 10
914.4000000000001
 20
48.0
 30
0.0
 11
890.4000000000001
 21
33.0
 31
0.0
  0
LINE
  5
680
330
1F
100
AcDbEntity
  8
LAY-255
  6
CONTINUOUS
 62
     7
100
AcDbLine
 10
890.4000000000001
 20
33.0
 30
0.0
 11
866.4000000000001
 21
48.0
 31
0.0
  0
LINE
  5
681
330
1F
100
AcDbEntity
  8
LAY-255
  6
CONTINUOUS
 62
     7
100
AcDbLine
 10
15.0
 20
30.0
 30
0.0
 11
1155.0
 21
30.0
 31
0.0
  0
LINE
  5
682
330
1F
100
AcDbEntity
  8
LAY-255
  6
CONTINUOUS
 62
     7
100
AcDbLine
 10
15.0
 20
840.0
 30
0.0
 11
1155.0
 21
840.0
 31
0.0
  0
LINE
  5
683
330
1F
100
AcDbEntity
  8
LAY-255
  6
CONTINUOUS
 62
     7
100
AcDbLine
 10
15.0
 20
30.0
 30
0.0
 11
15.0
 21
840.0
 31
0.0
  0
LINE
  5
684
330
1F
100
AcDbEntity
  8
LAY-255
  6
CONTINUOUS
 62
     7
100
AcDbLine
 10
1155.0
 20
30.0
 30
0.0
 11
1155.0
 21
840.0
 31
0.0
  0
LINE
  5
685
330
1F
100
AcDbEntity
  8
LAY-255
  6
CONTINUOUS
 62
     4
100
AcDbLine
 10
855.0
 20
84.0
 30
0.0
 11
1155.0
 21
84.0
 31
0.0
  0
LINE
  5
686
330
1F
100
AcDbEntity
  8
LAY-255
  6
CONTINUOUS
 62
     7
100
AcDbLine
 10
855.0
 20
30.0
 30
0.0
 11
855.0
 21
201.0
 31
0.0
  0
LINE
  5
687
330
1F
100
AcDbEntity
  8
LAY-255
  6
CONTINUOUS
 62
     4
100
AcDbLine
 10
1005.0
 20
84.0
 30
0.0
 11
1005.0
 21
66.0
 31
0.0
  0
LINE
  5
688
330
1F
100
AcDbEntity
  8
LAY-255
  6
CONTINUOUS
 62
     7
100
AcDbLine
 10
1155.0
 20
201.0
 30
0.0
 11
855.0
 21
201.0
 31
0.0
  0
LINE
  5
689
330
1F
100
AcDbEntity
  8
LAY-255
  6
CONTINUOUS
 62
     4
100
AcDbLine
 10
1149.0
 20
165.0
 30
0.0
 11
861.0
 21
165.0
 31
0.0
  0
LINE
  5
68A
330
1F
100
AcDbEntity
  8
LAY-255
  6
CONTINUOUS
 62
     4
100
AcDbLine
 10
1149.0
 20
183.0
 30
0.0
 11
861.0
 21
183.0
 31
0.0
  0
POINT
  5
68B
330
1F
100
AcDbEntity
  8
LAY-255
  6
CONTINUOUS
 62
     7
100
AcDbPoint
 10
867.0
 20
150.0
 30
0.0
  0
POINT
  5
68C
330
1F
100
AcDbEntity
  8
LAY-255
  6
CONTINUOUS
 62
     7
100
AcDbPoint
 10
900.0
 20
168.0
 30
0.0
  0
POINT
  5
68D
330
1F
100
AcDbEntity
  8
LAY-255
  6
CONTINUOUS
 62
     7
100
AcDbPoint
 10
900.0
 20
186.0
 30
0.0
  0
POINT
  5
68E
330
1F
100
AcDbEntity
  8
LAY-255
  6
CONTINUOUS
 62
     7
100
AcDbPoint
 10
867.0
 20
120.0
 30
0.0
  0
POINT
  5
68F
330
1F
100
AcDbEntity
  8
LAY-255
  6
CONTINUOUS
 62
     7
100
AcDbPoint
 10
867.0
 20
135.0
 30
0.0
  0
POINT
  5
690
330
1F
100
AcDbEntity
  8
LAY-255
  6
CONTINUOUS
 62
     7
100
AcDbPoint
 10
867.0
 20
105.0
 30
0.0
  0
POINT
  5
691
330
1F
100
AcDbEntity
  8
LAY-255
  6
CONTINUOUS
 62
     7
100
AcDbPoint
 10
867.0
 20
89.99999999999996
 30
0.0
  0
TEXT
  5
692
330
1F
100
AcDbEntity
  8
LAY-255
  6
CONTINUOUS
 62
     7
100
AcDbText
 10
924.415136826172
 20
46.63125
 30
0.0
 40
15.46875
  1
福西鋳物株式会社
 41
1.342692141742901
  7
EXCADSTD
100
AcDbText
  0
TEXT
  5
693
330
1F
100
AcDbEntity
  8
LAY-255
  6
CONTINUOUS
 62
     7
100
AcDbText
 10
925.528125
 20
35.94375
 30
0.0
 40
5.15625
  1
ＦＵＫＵＮＩＳＨＩ
 41
1.204799226045263
  7
EXCADSTD
100
AcDbText
  0
TEXT
  5
694
330
1F
100
AcDbEntity
  8
LAY-255
  6
CONTINUOUS
 62
     7
100
AcDbText
 10
998.1575892857143
 20
35.94375
 30
0.0
 40
5.15625
  1
ＦＯＵＮＤＲＹ
 41
1.243252752978497
  7
EXCADSTD
100
AcDbText
  0
TEXT
  5
695
330
1F
100
AcDbEntity
  8
LAY-255
  6
CONTINUOUS
 62
     7
100
AcDbText
 10
1055.983774651442
 20
35.94375
 30
0.0
 40
5.15625
  1
ＣＯ.,ＬＴＤ.
 41
1.243831271314936
  7
EXCADSTD
100
AcDbText
  0
TEXT
  5
696
330
1F
100
AcDbEntity
  8
LAY-255
  6
CONTINUOUS
 62
     7
100
AcDbText
 10
882.1031250000001
 20
41.15625
 30
0.0
 40
15.46875
  1
S
 41
0.7582677563636363
  7
EXCADSTD
100
AcDbText
  0
TEXT
  5
697
330
1F
100
AcDbEntity
  8
LAY-255
  6
CONTINUOUS
 62
     7
100
AcDbText
 10
891.3140625000001
 20
41.24823113208
 30
0.0
 40
15.46875
  1
F
 41
0.7440945272727273
  7
EXCADSTD
100
AcDbText
  0
TEXT
  5
698
330
1F
100
AcDbEntity
  8
LAY-255
  6
CONTINUOUS
 62
     7
100
AcDbText
 10
1011.31640625
 20
73.26562499999997
 30
0.0
 40
7.734375
  1
縮尺
 41
1.080708718181818
  7
EXCADSTD
100
AcDbText
  0
TEXT
  5
699
330
1F
100
AcDbEntity
  8
LAY-255
  6
CONTINUOUS
 62
     7
100
AcDbText
 10
861.796875
 20
169.6875
 30
0.0
 40
10.3125
  1
型式
 41
1.056348480681818
  7
EXCADSTD
100
AcDbText
  0
TEXT
  5
69A
330
1F
100
AcDbEntity
  8
LAY-255
  6
CONTINUOUS
 62
     7
100
AcDbText
 10
862.265625
 20
187.6875
 30
0.0
 40
10.3125
  1
品名
 41
0.978838634090909
  7
EXCADSTD
100
AcDbText
  0
TEXT
  5
69B
330
1F
100
AcDbEntity
  8
LAY-255
  6
CONTINUOUS
 62
     7
100
AcDbText
 10
861.45703125
 20
73.26562499999997
 30
0.0
 40
7.734375
  1
作成日
 41
1.000629973818182
  7
EXCADSTD
100
AcDbText
  0
TEXT
  5
69C
330
1F
100
AcDbEntity
  8
LAY-255
  6
CONTINUOUS
 62
     7
100
AcDbText
 10
900.75
 20
187.6875
 30
0.0
 40
10.3125
  1
ルーフドレイン
 41
1.021169538599106
  7
EXCADSTD
100
AcDbText
  0
TEXT
  5
69D
330
1F
100
AcDbEntity
  8
LAY-255
  6
CONTINUOUS
 62
     7
100
AcDbText
 10
868.125
 20
151.6875000000001
 30
0.0
 40
10.3125
  1
防水：アスファルト・シート・
 41
0.9866967752199413
  7
EXCADSTD
100
AcDbText
  0
TEXT
  5
69E
330
1F
100
AcDbEntity
  8
LAY-255
  6
CONTINUOUS
 62
     7
100
AcDbText
 10
867.0
 20
136.6875
 30
0.0
 40
10.3125
  1
      露出アスファルト防水兼用
 41
0.894274438169777
  7
EXCADSTD
100
AcDbText
  0
TEXT
  5
69F
330
1F
100
AcDbEntity
  8
LAY-255
  6
CONTINUOUS
 62
     7
100
AcDbText
 10
867.65625
 20
106.6875
 30
0.0
 40
10.3125
  1
接続：管用テーパねじ
 41
1.013063761157025
  7
EXCADSTD
100
AcDbText
  0
TEXT
  5
6A0
330
1F
100
AcDbEntity
  8
LAY-255
  6
CONTINUOUS
 62
     7
100
AcDbText
 10
867.703125
 20
121.6875
 30
0.0
 40
10.3125
  1
用途：屋上用・横引型
 41
1.017090246694215
  7
EXCADSTD
100
AcDbText
  0
TEXT
  5
6A1
330
1F
100
AcDbEntity
  8
LAY-255
  6
CONTINUOUS
 62
     7
100
AcDbText
 10
868.125
 20
91.68750000000004
 30
0.0
 40
10.3125
  1
※防水層張り掛け幅５０ｍｍ対応型
 41
1.01133974481434
  7
EXCADSTD
100
AcDbText
  0
TEXT
  5
6A2
330
1F
100
AcDbEntity
  8
LAY-255
  6
CONTINUOUS
 62
     7
100
AcDbText
 10
1044.84375
 20
70.68749999999997
 30
0.0
 40
10.3125
  1
１：３
 41
0.8844094952727272
  7
EXCADSTD
100
AcDbText
  0
TEXT
  5
6A3
330
1F
100
AcDbEntity
  8
LAY-255
  6
CONTINUOUS
 62
     7
100
AcDbText
 10
898.1208984375
 20
70.68749999999997
 30
0.0
 40
10.3125
  1
２０２２／１２／２７
 41
0.8680045865728304
  7
EXCADSTD
100
AcDbText
  0
TEXT
  5
6A4
330
1F
100
AcDbEntity
  8
LAY-255
  6
CONTINUOUS
 62
     7
100
AcDbText
 10
902.625
 20
169.6875
 30
0.0
 40
10.3125
  1
ＲＡＳＮＪ－８１５０型
 41
1.001258271602624
  7
EXCADSTD
100
AcDbText
  0
ENDSEC
  0
SECTION
  2
OBJECTS
  0
DICTIONARY
  5
C
330
0
100
AcDbDictionary
  3
ACAD_GROUP
350
D
  3
ACAD_LAYOUT
350
1A
  3
ACAD_MATERIAL
350
43
  3
ACAD_MLEADERSTYLE
350
6B
  3
ACAD_MLINESTYLE
350
17
  3
ACAD_PLOTSETTINGS
350
19
  3
ACAD_SCALELIST
350
47
  3
ACAD_VISUALSTYLE
350
2A
  3
ACDBHEADERROUNDTRIPXREC
350
6A5
  3
ACDBVARIABLEDICTIONARY
350
6C6
  0
DICTIONARY
  5
6D1
330
8
100
AcDbDictionary
280
     1
  3
ACAD_XREC_ROUNDTRIP
360
6D2
  0
DICTIONARY
  5
D
102
{ACAD_REACTORS
330
C
102
}
330
C
100
AcDbDictionary
  0
DICTIONARY
  5
1A
102
{ACAD_REACTORS
330
C
102
}
330
C
100
AcDbDictionary
  0
DICTIONARY
  5
43
102
{ACAD_REACTORS
330
C
102
}
330
C
100
AcDbDictionary
  3
BYBLOCK
350
45
  3
BYLAYER
350
44
  3
GLOBAL
350
46
  0
DICTIONARY
  5
6B
102
{ACAD_REACTORS
330
C
102
}
330
C
100
AcDbDictionary
  3
STANDARD
350
6C
  0
DICTIONARY
  5
17
102
{ACAD_REACTORS
330
C
102
}
330
C
100
AcDbDictionary
  3
STANDARD
350
18
  0
DICTIONARY
  5
19
102
{ACAD_REACTORS
330
C
102
}
330
C
100
AcDbDictionary
  0
DICTIONARY
  5
47
102
{ACAD_REACTORS
330
C
102
}
330
C
100
AcDbDictionary
  3
A0
350
48
  3
A1
350
49
  3
A2
350
4A
  3
A3
350
4B
  3
A4
350
4C
  3
A5
350
4D
  3
A6
350
4E
  3
A7
350
4F
  3
A8
350
50
  3
A9
350
51
  3
B0
350
52
  3
B1
350
53
  3
B2
350
54
  3
B3
350
55
  3
B4
350
56
  3
B5
350
57
  3
B6
350
58
  3
B7
350
59
  3
B8
350
5A
  3
B9
350
5B
  3
C0
350
5C
  3
C1
350
5D
  3
C2
350
5E
  3
C3
350
5F
  3
C4
350
60
  3
C5
350
61
  3
C6
350
62
  3
C7
350
63
  3
C8
350
64
  3
C9
350
65
  3
D0
350
66
  3
D1
350
67
  3
D2
350
68
  0
DICTIONARY
  5
2A
102
{ACAD_REACTORS
330
C
102
}
330
C
100
AcDbDictionary
  3
2DWIREFRAME
350
2F
  3
BASIC
350
32
  3
BRIGHTEN
350
36
  3
COLORCHANGE
350
3A
  3
CONCEPTUAL
350
34
  3
DIM
350
35
  3
EDGECOLOROFF
350
3D
  3
FACEPATTERN
350
39
  3
FLAT
350
2B
  3
FLATWITHEDGES
350
2C
  3
GOURAUD
350
2D
  3
GOURAUDWITHEDGES
350
2E
  3
HIDDEN
350
31
  3
JITTEROFF
350
3B
  3
LINEPATTERN
350
38
  3
OVERHANGOFF
350
3C
  3
REALISTIC
350
33
  3
SHADED
350
42
  3
SHADED_WITH_EDGES
350
41
  3
SHADES_OF_GRAY
350
3E
  3
SKETCHY
350
3F
  3
THICKEN
350
37
  3
WIREFRAME
350
30
  3
X-RAY
350
40
  0
DICTIONARY
  5
6A5
102
{ACAD_REACTORS
330
C
102
}
330
C
100
AcDbDictionary
  3
CEPSNID
350
6AF
  3
CEPSNTYPE
350
6AE
  3
DIMSTYLEDATA
350
6C5
  3
FINGERPRINTGUID
350
6B0
  3
HYPERLINKBASE
350
6A8
  3
INSUNITS
350
6AD
  3
LAYOUTDICT
350
6AA
  3
LWETCUNION
350
6AC
  3
PLOTSETDICT
350
6AB
  3
PSVPSCALE
350
6B2
  3
PUCSBASE
350
6B5
  3
PUCSORGBACK
350
6BB
  3
PUCSORGBOTTOM
350
6B7
  3
PUCSORGFRONT
350
6BA
  3
PUCSORGLEFT
350
6B8
  3
PUCSORGRIGHT
350
6B9
  3
PUCSORGTOP
350
6B6
  3
PUCSORTHOREF
350
6B3
  3
PUCSORTHOVIEW
350
6B4
  3
STYLESHEET
350
6A9
  3
TSTACKALIGN
350
6A6
  3
TSTACKSIZE
350
6A7
  3
UCSBASE
350
6BE
  3
UCSORGBACK
350
6C4
  3
UCSORGBOTTOM
350
6C0
  3
UCSORGFRONT
350
6C3
  3
UCSORGLEFT
350
6C1
  3
UCSORGRIGHT
350
6C2
  3
UCSORGTOP
350
6BF
  3
UCSORTHOREF
350
6BC
  3
UCSORTHOVIEW
350
6BD
  3
VERSIONGUID
350
6B1
  0
DICTIONARY
  5
6C6
102
{ACAD_REACTORS
330
C
102
}
330
C
100
AcDbDictionary
  3
CANNOSCALE
350
6D3
  3
CENTEREXE
350
6CD
  3
CENTERLTYPEFILE
350
6CE
  3
CMLEADERSTYLE
350
6C8
  3
CTABLESTYLE
350
6C7
  3
DIMASSOC
350
6CF
  3
HIDETEXT
350
6D0
  3
MSLTSCALE
350
6D4
  3
PSOLHEIGHT
350
6CA
  3
PSOLWIDTH
350
6C9
  0
XRECORD
  5
6D2
102
{ACAD_REACTORS
330
6D1
102
}
330
6D1
100
AcDbXrecord
102
VTR_0.000_0.000_1.000_1.000_VISUALSTYLE
340
2F
102
VTR_0.000_0.000_1.000_1.000_GRIDDISPLAY
 70
     3
102
VTR_0.000_0.000_1.000_1.000_GRIDMAJOR
 70
     5
102
VTR_0.000_0.000_1.000_1.000_DEFAULTLIGHTING
280
     1
102
VTR_0.000_0.000_1.000_1.000_DEFAULTLIGHTINGTYPE
 70
     1
102
VTR_0.000_0.000_1.000_1.000_BRIGHTNESS
141
0.0
102
VTR_0.000_0.000_1.000_1.000_CONTRAST
142
0.0
  0
MATERIAL
  5
45
102
{ACAD_REACTORS
330
43
102
}
102
{ACAD_XDICTIONARY
360
6D7
102
}
330
43
100
AcDbMaterial
  1
BYBLOCK
  0
MATERIAL
  5
44
102
{ACAD_REACTORS
330
43
102
}
102
{ACAD_XDICTIONARY
360
6D5
102
}
330
43
100
AcDbMaterial
  1
BYLAYER
  0
MATERIAL
  5
46
102
{ACAD_REACTORS
330
43
102
}
102
{ACAD_XDICTIONARY
360
6D9
102
}
330
43
100
AcDbMaterial
  1
GLOBAL
  0
ACAD_PROXY_OBJECT
  5
6C
102
{ACAD_REACTORS
330
6B
102
}
330
6B
100
AcDbProxyObject
 90
      499
 91
      505
 93
      610
310
40901902A4063FBFFFFFE0000000000000020400000000000020404214DD185B99185C990000000000000104090141901A00000000000004100000000000000041025764000000000000039000
340
14
340
0
340
11
340
0
 94
        0
1001
ACAD_MLEADERVER
1070
     2
  0
MLINESTYLE
  5
18
102
{ACAD_REACTORS
330
17
102
}
330
17
100
AcDbMlineStyle
  2
Standard
 70
     0
  3

 62
   256
 51
90.0
 52
90.0
 71
     2
 49
0.5
 62
   256
  6
BYLAYER
 49
-0.5
 62
   256
  6
BYLAYER
  0
ACAD_PROXY_OBJECT
  5
48
102
{ACAD_REACTORS
330
47
102
}
330
47
100
AcDbProxyObject
 90
      499
 91
      503
 93
       41
310
903313A31580
  0
ACAD_PROXY_OBJECT
  5
49
102
{ACAD_REACTORS
330
47
102
}
330
47
100
AcDbProxyObject
 90
      499
 91
      503
 93
      105
310
903313A324000000000000004000
  0
ACAD_PROXY_OBJECT
  5
4A
102
{ACAD_REACTORS
330
47
102
}
330
47
100
AcDbProxyObject
 90
      499
 91
      503
 93
      105
310
903313A344000000000000104000
  0
ACAD_PROXY_OBJECT
  5
4B
102
{ACAD_REACTORS
330
47
102
}
330
47
100
AcDbProxyObject
 90
      499
 91
      503
 93
      105
310
903313A354000000000000144000
  0
ACAD_PROXY_OBJECT
  5
4C
102
{ACAD_REACTORS
330
47
102
}
330
47
100
AcDbProxyObject
 90
      499
 91
      503
 93
      105
310
903313A384000000000000204000
  0
ACAD_PROXY_OBJECT
  5
4D
102
{ACAD_REACTORS
330
47
102
}
330
47
100
AcDbProxyObject
 90
      499
 91
      503
 93
      113
310
904313A31304000000000000244000
  0
ACAD_PROXY_OBJECT
  5
4E
102
{ACAD_REACTORS
330
47
102
}
330
47
100
AcDbProxyObject
 90
      499
 91
      503
 93
      113
310
904313A31364000000000000304000
  0
ACAD_PROXY_OBJECT
  5
4F
102
{ACAD_REACTORS
330
47
102
}
330
47
100
AcDbProxyObject
 90
      499
 91
      503
 93
      113
310
904313A32304000000000000344000
  0
ACAD_PROXY_OBJECT
  5
50
102
{ACAD_REACTORS
330
47
102
}
330
47
100
AcDbProxyObject
 90
      499
 91
      503
 93
      113
310
904313A333040000000000003E4000
  0
ACAD_PROXY_OBJECT
  5
51
102
{ACAD_REACTORS
330
47
102
}
330
47
100
AcDbProxyObject
 90
      499
 91
      503
 93
      113
310
904313A34304000000000000444000
  0
ACAD_PROXY_OBJECT
  5
52
102
{ACAD_REACTORS
330
47
102
}
330
47
100
AcDbProxyObject
 90
      499
 91
      503
 93
      113
310
904313A35304000000000000494000
  0
ACAD_PROXY_OBJECT
  5
53
102
{ACAD_REACTORS
330
47
102
}
330
47
100
AcDbProxyObject
 90
      499
 91
      503
 93
      121
310
905313A3130304000000000000594000
  0
ACAD_PROXY_OBJECT
  5
54
102
{ACAD_REACTORS
330
47
102
}
330
47
100
AcDbProxyObject
 90
      499
 91
      503
 93
      105
310
903323A310000000000000010100
  0
ACAD_PROXY_OBJECT
  5
55
102
{ACAD_REACTORS
330
47
102
}
330
47
100
AcDbProxyObject
 90
      499
 91
      503
 93
      105
310
903343A310000000000000410100
  0
ACAD_PROXY_OBJECT
  5
56
102
{ACAD_REACTORS
330
47
102
}
330
47
100
AcDbProxyObject
 90
      499
 91
      503
 93
      105
310
903383A310000000000000810100
  0
ACAD_PROXY_OBJECT
  5
57
102
{ACAD_REACTORS
330
47
102
}
330
47
100
AcDbProxyObject
 90
      499
 91
      503
 93
      113
310
90431303A310000000000000910100
  0
ACAD_PROXY_OBJECT
  5
58
102
{ACAD_REACTORS
330
47
102
}
330
47
100
AcDbProxyObject
 90
      499
 91
      503
 93
      121
310
9053130303A310000000000001650100
  0
ACAD_PROXY_OBJECT
  5
59
102
{ACAD_REACTORS
330
47
102
}
330
47
100
AcDbProxyObject
 90
      499
 91
      503
 93
      257
310
90E312F31323822203D2031272D3022000000000000200FC000000000000284000
  0
ACAD_PROXY_OBJECT
  5
5A
102
{ACAD_REACTORS
330
47
102
}
330
47
100
AcDbProxyObject
 90
      499
 91
      503
 93
      249
310
90D312F363422203D2031272D3022000000000000240FC000000000000284000
  0
ACAD_PROXY_OBJECT
  5
5B
102
{ACAD_REACTORS
330
47
102
}
330
47
100
AcDbProxyObject
 90
      499
 91
      503
 93
      249
310
90D312F333222203D2031272D3022000000000000280FC000000000000284000
  0
ACAD_PROXY_OBJECT
  5
5C
102
{ACAD_REACTORS
330
47
102
}
330
47
100
AcDbProxyObject
 90
      499
 91
      503
 93
      249
310
90D312F313622203D2031272D30220000000000002C0FC000000000000284000
  0
ACAD_PROXY_OBJECT
  5
5D
102
{ACAD_REACTORS
330
47
102
}
330
47
100
AcDbProxyObject
 90
      499
 91
      503
 93
      249
310
90D332F333222203D2031272D30220000000000002E0FC000000000000284000
  0
ACAD_PROXY_OBJECT
  5
5E
102
{ACAD_REACTORS
330
47
102
}
330
47
100
AcDbProxyObject
 90
      499
 91
      503
 93
      241
310
90C312F3822203D2031272D3022000000000000300FC000000000000284000
  0
ACAD_PROXY_OBJECT
  5
5F
102
{ACAD_REACTORS
330
47
102
}
330
47
100
AcDbProxyObject
 90
      499
 91
      503
 93
      249
310
90D332F313622203D2031272D3022000000000000320FC000000000000284000
  0
ACAD_PROXY_OBJECT
  5
60
102
{ACAD_REACTORS
330
47
102
}
330
47
100
AcDbProxyObject
 90
      499
 91
      503
 93
      241
310
90C312F3422203D2031272D3022000000000000340FC000000000000284000
  0
ACAD_PROXY_OBJECT
  5
61
102
{ACAD_REACTORS
330
47
102
}
330
47
100
AcDbProxyObject
 90
      499
 91
      503
 93
      241
310
90C332F3822203D2031272D3022000000000000360FC000000000000284000
  0
ACAD_PROXY_OBJECT
  5
62
102
{ACAD_REACTORS
330
47
102
}
330
47
100
AcDbProxyObject
 90
      499
 91
      503
 93
      241
310
90C312F3222203D2031272D3022000000000000380FC000000000000284000
  0
ACAD_PROXY_OBJECT
  5
63
102
{ACAD_REACTORS
330
47
102
}
330
47
100
AcDbProxyObject
 90
      499
 91
      503
 93
      241
310
90C332F3422203D2031272D30220000000000003A0FC000000000000284000
  0
ACAD_PROXY_OBJECT
  5
64
102
{ACAD_REACTORS
330
47
102
}
330
47
100
AcDbProxyObject
 90
      499
 91
      503
 93
      161
310
90A3122203D2031272D30224000000000000284000
  0
ACAD_PROXY_OBJECT
  5
65
102
{ACAD_REACTORS
330
47
102
}
330
47
100
AcDbProxyObject
 90
      499
 91
      503
 93
      257
310
90E312D312F3222203D2031272D30220000000000003E0FC000000000000284000
  0
ACAD_PROXY_OBJECT
  5
66
102
{ACAD_REACTORS
330
47
102
}
330
47
100
AcDbProxyObject
 90
      499
 91
      503
 93
      225
310
90A3322203D2031272D302200000000000002100000000000000284000
  0
ACAD_PROXY_OBJECT
  5
67
102
{ACAD_REACTORS
330
47
102
}
330
47
100
AcDbProxyObject
 90
      499
 91
      503
 93
      225
310
90A3622203D2031272D302200000000000006100000000000000284000
  0
ACAD_PROXY_OBJECT
  5
68
102
{ACAD_REACTORS
330
47
102
}
330
47
100
AcDbProxyObject
 90
      499
 91
      503
 93
      249
310
90D31272D3022203D2031272D30220000000000000A100000000000000284000
  0
ACAD_PROXY_OBJECT
  5
2F
102
{ACAD_REACTORS
330
2A
102
}
330
2A
100
AcDbProxyObject
 90
      499
 91
      501
 93
      436
310
42CC9915DA5C99599C985B595049028333333333333E33F0000000000000F90107901411070040501600405405064090741402480A0340
1001
ACAD
1000
AcDbSavedByObjectVersion
1070
     0
  0
ACAD_PROXY_OBJECT
  5
32
102
{ACAD_REACTORS
330
2A
102
}
330
2A
100
AcDbProxyObject
 90
      499
 91
      501
 93
      388
310
4150985CDA58D07406404333333333333E33F0000000000000F90107A41107004050150841D405064090741402480A0350
1001
ACAD
1000
AcDbSavedByObjectVersion
1070
     0
  0
ACAD_PROXY_OBJECT
  5
36
102
{ACAD_REACTORS
330
2A
102
}
330
2A
100
AcDbProxyObject
 90
      499
 91
      501
 93
      428
310
42109C9A59DA1D195B90C409028333333333333E33F0000000000000F9010790141107004050150841D405064090741402480A029950
1001
ACAD
1000
AcDbSavedByObjectVersion
1070
     0
  0
ACAD_PROXY_OBJECT
  5
3A
102
{ACAD_REACTORS
330
2A
102
}
330
2A
100
AcDbProxyObject
 90
      499
 91
      501
 93
      452
310
42D0DBDB1BDC90DA185B99D95104090240C333333333333E33F0000000000000F90108901411070040501508421405064090741402480A0350
1001
ACAD
1000
AcDbSavedByObjectVersion
1070
     0
  0
ACAD_PROXY_OBJECT
  5
34
102
{ACAD_REACTORS
330
2A
102
}
330
2A
100
AcDbProxyObject
 90
      499
 91
      501
 93
      500
310
4290DBDB98D95C1D1D585B10940D028333333333333E33F0000000000000F90107902409070040501000000000018199010841D405064090740C02480A0340
1001
ACAD
1000
AcDbSavedByObjectVersion
1070
     0
  0
ACAD_PROXY_OBJECT
  5
35
102
{ACAD_REACTORS
330
2A
102
}
330
2A
100
AcDbProxyObject
 90
      499
 91
      501
 93
      412
310
40D11A5B50B409028333333333333E33F0000000000000F9010790141107004050150841D405064090741402480A02677FFFFFD0
1001
ACAD
1000
AcDbSavedByObjectVersion
1070
     0
  0
ACAD_PROXY_OBJECT
  5
3D
102
{ACAD_REACTORS
330
2A
102
}
330
2A
100
AcDbProxyObject
 90
      499
 91
      501
 93
      452
310
43115919D950DBDB1BDC93D999916409028333333333333E33F0000000000000F9010790141107004050150841D405064090741402480A0350
1001
ACAD
1000
AcDbSavedByObjectVersion
1070
     0
  0
ACAD_PROXY_OBJECT
  5
39
102
{ACAD_REACTORS
330
2A
102
}
330
2A
100
AcDbProxyObject
 90
      499
 91
      501
 93
      444
310
42D19858D95C185D1D195C9B90F409028333333333333E33F0000000000000F9010790141107004050150841D405064090741402480A0350
1001
ACAD
1000
AcDbSavedByObjectVersion
1070
     0
  0
ACAD_PROXY_OBJECT
  5
2B
102
{ACAD_REACTORS
330
2A
102
}
330
2A
100
AcDbProxyObject
 90
      499
 91
      501
 93
      380
310
41119B185D240901404333333333333E33F0000000000000F9010740A907004050150841D405064090741402480A1B50
1001
ACAD
1000
AcDbSavedByObjectVersion
1070
     0
  0
ACAD_PROXY_OBJECT
  5
2C
102
{ACAD_REACTORS
330
2A
102
}
330
2A
100
AcDbProxyObject
 90
      499
 91
      501
 93
      468
310
43519B185D15DA5D1A115919D95CD0140901404333333333333E33F0000000000000F90107409019070040501600405405064090741402480A1B50
1001
ACAD
1000
AcDbSavedByObjectVersion
1070
     0
  0
ACAD_PROXY_OBJECT
  5
2D
102
{ACAD_REACTORS
330
2A
102
}
330
2A
100
AcDbProxyObject
 90
      499
 91
      501
 93
      404
310
41D1DBDD5C985D5910240902404333333333333E33F0000000000000F9010740A9070040501641D405064090741402480A1B50
1001
ACAD
1000
AcDbSavedByObjectVersion
1070
     0
  0
ACAD_PROXY_OBJECT
  5
2E
102
{ACAD_REACTORS
330
2A
102
}
330
2A
100
AcDbProxyObject
 90
      499
 91
      501
 93
      492
310
4411DBDD5C985D5915DA5D1A115919D95CD0340902404333333333333E33F0000000000000F90107409019070040501600405405064090741402480A1B50
1001
ACAD
1000
AcDbSavedByObjectVersion
1070
     0
  0
ACAD_PROXY_OBJECT
  5
31
102
{ACAD_REACTORS
330
2A
102
}
330
2A
100
AcDbProxyObject
 90
      499
 91
      501
 93
      476
310
41921A5919195B90640502408333333333333E33F0000000000000F901079024090700405020000000000001110200405405064090740C02480A0340
1001
ACAD
1000
AcDbSavedByObjectVersion
1070
     0
  0
ACAD_PROXY_OBJECT
  5
3B
102
{ACAD_REACTORS
330
2A
102
}
330
2A
100
AcDbProxyObject
 90
      499
 91
      501
 93
      428
310
42529A5D1D195C93D999914409028333333333333E33F0000000000000F9010790141107004050150A41D405064090741402480A0350
1001
ACAD
1000
AcDbSavedByObjectVersion
1070
     0
  0
ACAD_PROXY_OBJECT
  5
38
102
{ACAD_REACTORS
330
2A
102
}
330
2A
100
AcDbProxyObject
 90
      499
 91
      501
 93
      444
310
42D31A5B995C185D1D195C9B90E409028333333333333E33F0000000000000F9010790141107004050750841D405064090741402483A0350
1001
ACAD
1000
AcDbSavedByObjectVersion
1070
     0
  0
ACAD_PROXY_OBJECT
  5
3C
102
{ACAD_REACTORS
330
2A
102
}
330
2A
100
AcDbProxyObject
 90
      499
 91
      501
 93
      444
310
42D3DD995C9A185B99D3D999915409028333333333333E33F0000000000000F9010790141107004050150941D405064090741402480A0350
1001
ACAD
1000
AcDbSavedByObjectVersion
1070
     0
  0
ACAD_PROXY_OBJECT
  5
33
102
{ACAD_REACTORS
330
2A
102
}
330
2A
100
AcDbProxyObject
 90
      499
 91
      501
 93
      428
310
425499585B1A5CDD1A58D08409038333333333333E33F0000000000000F9010740A907004050150800405405064090740C02480A1B40
1001
ACAD
1000
AcDbSavedByObjectVersion
1070
     0
  0
ACAD_PROXY_OBJECT
  5
42
102
{ACAD_REACTORS
330
2A
102
}
330
2A
100
AcDbProxyObject
 90
      499
 91
      501
 93
      420
310
4194DA1859195911B40902404333333333333E33F0000000000000F9010740A41107004050150800405405064090840C02480A0B40
1001
ACAD
1000
AcDbSavedByObjectVersion
1070
     0
  0
ACAD_PROXY_OBJECT
  5
41
102
{ACAD_REACTORS
330
2A
102
}
330
2A
100
AcDbProxyObject
 90
      499
 91
      501
 93
      516
310
4454DA18591959081DDA5D1A08195919D95CD1A40902404333333333333E33F0000000000000F901074090142907004050250800405405064090740C02480A0B40
1001
ACAD
1000
AcDbSavedByObjectVersion
1070
     0
  0
ACAD_PROXY_OBJECT
  5
3E
102
{ACAD_REACTORS
330
2A
102
}
330
2A
100
AcDbProxyObject
 90
      499
 91
      501
 93
      532
310
4394DA1859195CC81BD98811DC985E5174090240C333333333333E33F0000000000000F901079024090741D01000000000000111010841D405064090740C02480A0340
1001
ACAD
1000
AcDbSavedByObjectVersion
1070
     0
  0
ACAD_PROXY_OBJECT
  5
3F
102
{ACAD_REACTORS
330
2A
102
}
330
2A
100
AcDbProxyObject
 90
      499
 91
      501
 93
      476
310
41D4DAD95D18DA1E51840502408333333333333E33F0000000000000F901079024090741D01000000000000111010B41D405064090741802480A0340
1001
ACAD
1000
AcDbSavedByObjectVersion
1070
     0
  0
ACAD_PROXY_OBJECT
  5
37
102
{ACAD_REACTORS
330
2A
102
}
330
2A
100
AcDbProxyObject
 90
      499
 91
      501
 93
      412
310
41D51A1A58DAD95B90D409028333333333333E33F0000000000000F9010790141107004050150C41D405064090741402480A0350
1001
ACAD
1000
AcDbSavedByObjectVersion
1070
     0
  0
ACAD_PROXY_OBJECT
  5
30
102
{ACAD_REACTORS
330
2A
102
}
330
2A
100
AcDbProxyObject
 90
      499
 91
      501
 93
      420
310
4255DA5C99599C985B595059028333333333333E33F0000000000000F90107901411070040501600405405064090740C02480A0340
1001
ACAD
1000
AcDbSavedByObjectVersion
1070
     0
  0
ACAD_PROXY_OBJECT
  5
40
102
{ACAD_REACTORS
330
2A
102
}
330
2A
100
AcDbProxyObject
 90
      499
 91
      501
 93
      404
310
41560B54985E51940902404000000000000E03F0000000000000F9010740501907004050150841D405064090740C02480A1B40
1001
ACAD
1000
AcDbSavedByObjectVersion
1070
     0
  0
XRECORD
  5
6AF
102
{ACAD_REACTORS
330
6A5
102
}
330
6A5
100
AcDbXrecord
340
0
  0
XRECORD
  5
6AE
102
{ACAD_REACTORS
330
6A5
102
}
330
6A5
100
AcDbXrecord
 90
        0
  0
XRECORD
  5
6C5
102
{ACAD_REACTORS
330
6A5
102
}
330
6A5
100
AcDbXrecord
1000
DSTYLE
1002
{
1070
   340
340
11
1002
}
  0
XRECORD
  5
6B0
102
{ACAD_REACTORS
330
6A5
102
}
330
6A5
100
AcDbXrecord
  1
{7a6b0a28-afb0-4839-91f2-2a67dd16194f}
  0
XRECORD
  5
6A8
102
{ACAD_REACTORS
330
6A5
102
}
330
6A5
100
AcDbXrecord
  1

  0
XRECORD
  5
6AD
102
{ACAD_REACTORS
330
6A5
102
}
330
6A5
100
AcDbXrecord
 90
        4
  0
XRECORD
  5
6AA
102
{ACAD_REACTORS
330
6A5
102
}
330
6A5
100
AcDbXrecord
340
1A
  0
XRECORD
  5
6AC
102
{ACAD_REACTORS
330
6A5
102
}
330
6A5
100
AcDbXrecord
 90
    10781
  0
XRECORD
  5
6AB
102
{ACAD_REACTORS
330
6A5
102
}
330
6A5
100
AcDbXrecord
340
19
  0
XRECORD
  5
6B2
102
{ACAD_REACTORS
330
6A5
102
}
330
6A5
100
AcDbXrecord
 40
0.0
  0
XRECORD
  5
6B5
102
{ACAD_REACTORS
330
6A5
102
}
330
6A5
100
AcDbXrecord
340
0
  0
XRECORD
  5
6BB
102
{ACAD_REACTORS
330
6A5
102
}
330
6A5
100
AcDbXrecord
 10
0.0
 20
0.0
 30
0.0
  0
XRECORD
  5
6B7
102
{ACAD_REACTORS
330
6A5
102
}
330
6A5
100
AcDbXrecord
 10
0.0
 20
0.0
 30
0.0
  0
XRECORD
  5
6BA
102
{ACAD_REACTORS
330
6A5
102
}
330
6A5
100
AcDbXrecord
 10
0.0
 20
0.0
 30
0.0
  0
XRECORD
  5
6B8
102
{ACAD_REACTORS
330
6A5
102
}
330
6A5
100
AcDbXrecord
 10
0.0
 20
0.0
 30
0.0
  0
XRECORD
  5
6B9
102
{ACAD_REACTORS
330
6A5
102
}
330
6A5
100
AcDbXrecord
 10
0.0
 20
0.0
 30
0.0
  0
XRECORD
  5
6B6
102
{ACAD_REACTORS
330
6A5
102
}
330
6A5
100
AcDbXrecord
 10
0.0
 20
0.0
 30
0.0
  0
XRECORD
  5
6B3
102
{ACAD_REACTORS
330
6A5
102
}
330
6A5
100
AcDbXrecord
340
0
  0
XRECORD
  5
6B4
102
{ACAD_REACTORS
330
6A5
102
}
330
6A5
100
AcDbXrecord
 70
     0
  0
XRECORD
  5
6A9
102
{ACAD_REACTORS
330
6A5
102
}
330
6A5
100
AcDbXrecord
  1

  0
XRECORD
  5
6A6
102
{ACAD_REACTORS
330
6A5
102
}
330
6A5
100
AcDbXrecord
 90
        1
  0
XRECORD
  5
6A7
102
{ACAD_REACTORS
330
6A5
102
}
330
6A5
100
AcDbXrecord
 90
       70
  0
XRECORD
  5
6BE
102
{ACAD_REACTORS
330
6A5
102
}
330
6A5
100
AcDbXrecord
340
0
  0
XRECORD
  5
6C4
102
{ACAD_REACTORS
330
6A5
102
}
330
6A5
100
AcDbXrecord
 10
0.0
 20
0.0
 30
0.0
  0
XRECORD
  5
6C0
102
{ACAD_REACTORS
330
6A5
102
}
330
6A5
100
AcDbXrecord
 10
0.0
 20
0.0
 30
0.0
  0
XRECORD
  5
6C3
102
{ACAD_REACTORS
330
6A5
102
}
330
6A5
100
AcDbXrecord
 10
0.0
 20
0.0
 30
0.0
  0
XRECORD
  5
6C1
102
{ACAD_REACTORS
330
6A5
102
}
330
6A5
100
AcDbXrecord
 10
0.0
 20
0.0
 30
0.0
  0
XRECORD
  5
6C2
102
{ACAD_REACTORS
330
6A5
102
}
330
6A5
100
AcDbXrecord
 10
0.0
 20
0.0
 30
0.0
  0
XRECORD
  5
6BF
102
{ACAD_REACTORS
330
6A5
102
}
330
6A5
100
AcDbXrecord
 10
0.0
 20
0.0
 30
0.0
  0
XRECORD
  5
6BC
102
{ACAD_REACTORS
330
6A5
102
}
330
6A5
100
AcDbXrecord
340
0
  0
XRECORD
  5
6BD
102
{ACAD_REACTORS
330
6A5
102
}
330
6A5
100
AcDbXrecord
 70
     0
  0
XRECORD
  5
6B1
102
{ACAD_REACTORS
330
6A5
102
}
330
6A5
100
AcDbXrecord
  1
{FAEB1C32-E019-11D5-929B-00C0DF256EC4}
  0
DICTIONARYVAR
  5
6D3
102
{ACAD_REACTORS
330
6C6
102
}
330
6C6
100
DictionaryVariables
280
     0
  1
1:1
  0
DICTIONARYVAR
  5
6CD
102
{ACAD_REACTORS
330
6C6
102
}
330
6C6
100
DictionaryVariables
280
     0
  1
3.500000
  0
DICTIONARYVAR
  5
6CE
102
{ACAD_REACTORS
330
6C6
102
}
330
6C6
100
DictionaryVariables
280
     0
  1
acadiso.lin
  0
DICTIONARYVAR
  5
6C8
102
{ACAD_REACTORS
330
6C6
102
}
330
6C6
100
DictionaryVariables
280
     0
  1
Standard
  0
DICTIONARYVAR
  5
6C7
102
{ACAD_REACTORS
330
6C6
102
}
330
6C6
100
DictionaryVariables
280
     0
  1
Standard
  0
DICTIONARYVAR
  5
6CF
102
{ACAD_REACTORS
330
6C6
102
}
330
6C6
100
DictionaryVariables
280
     0
  1
2
  0
DICTIONARYVAR
  5
6D0
102
{ACAD_REACTORS
330
6C6
102
}
330
6C6
100
DictionaryVariables
280
     0
  1
1
  0
DICTIONARYVAR
  5
6D4
102
{ACAD_REACTORS
330
6C6
102
}
330
6C6
100
DictionaryVariables
280
     0
  1
1
  0
DICTIONARYVAR
  5
6CA
102
{ACAD_REACTORS
330
6C6
102
}
330
6C6
100
DictionaryVariables
280
     0
  1
80.000000
  0
DICTIONARYVAR
  5
6C9
102
{ACAD_REACTORS
330
6C6
102
}
330
6C6
100
DictionaryVariables
280
     0
  1
5.000000
  0
DICTIONARY
  5
6D7
330
45
100
AcDbDictionary
280
     1
  3
ACAD_XREC_ROUNDTRIP
360
6D8
  0
DICTIONARY
  5
6D5
330
44
100
AcDbDictionary
280
     1
  3
ACAD_XREC_ROUNDTRIP
360
6D6
  0
DICTIONARY
  5
6D9
330
46
100
AcDbDictionary
280
     1
  3
ACAD_XREC_ROUNDTRIP
360
6DA
  0
XRECORD
  5
6D8
102
{ACAD_REACTORS
330
6D7
102
}
330
6D7
100
AcDbXrecord
102
MATERIAL
148
0.0
149
0.0
149
0.0
 93
        0
 94
      127
282
     0
 72
     1
 77
     1
171
     1
175
     1
179
     1
273
     0
  0
XRECORD
  5
6D6
102
{ACAD_REACTORS
330
6D5
102
}
330
6D5
100
AcDbXrecord
102
MATERIAL
148
0.0
149
0.0
149
0.0
 93
        0
 94
      127
282
     0
 72
     1
 77
     1
171
     1
175
     1
179
     1
273
     0
  0
XRECORD
  5
6DA
102
{ACAD_REACTORS
330
6D9
102
}
330
6D9
100
AcDbXrecord
102
MATERIAL
148
0.0
149
0.0
149
0.0
 93
        0
 94
      127
282
     0
 72
     1
 77
     1
171
     1
175
     1
179
     1
273
     0
  0
ENDSEC
  0
EOF
