  0
SECTION
  2
HEADER
  9
$ACADVER
  1
AC1014
  9
$ACADMAINTVER
 70
     9
  9
$DWGCODEPAGE
  3
ANSI_932
  9
$INSBASE
 10
0.0
 20
0.0
 30
0.0
  9
$EXTMIN
 10
15.0
 20
30.0
 30
0.0
  9
$EXTMAX
 10
1155.0
 20
840.0
 30
0.0
  9
$LIMMIN
 10
0.0
 20
0.0
  9
$LIMMAX
 10
420.0
 20
297.0
  9
$ORTHOMODE
 70
     0
  9
$REGENMODE
 70
     1
  9
$FILLMODE
 70
     1
  9
$QTEXTMODE
 70
     0
  9
$MIRRTEXT
 70
     1
  9
$DRAGMODE
 70
     2
  9
$LTSCALE
 40
0.2
  9
$OSMODE
 70
    37
  9
$ATTMODE
 70
     1
  9
$TEXTSIZE
 40
2.5
  9
$TRACEWID
 40
1.0
  9
$TEXTSTYLE
  7
STANDARD
  9
$CLAYER
  8
LAY-10
  9
$CELTYPE
  6
BYLAYER
  9
$CECOLOR
 62
   256
  9
$CELTSCALE
 40
1.0
  9
$DELOBJ
 70
     1
  9
$DISPSILH
 70
     0
  9
$DIMSCALE
 40
1.0
  9
$DIMASZ
 40
2.5
  9
$DIMEXO
 40
0.625
  9
$DIMDLI
 40
3.75
  9
$DIMRND
 40
0.0
  9
$DIMDLE
 40
0.0
  9
$DIMEXE
 40
1.25
  9
$DIMTP
 40
0.0
  9
$DIMTM
 40
0.0
  9
$DIMTXT
 40
2.5
  9
$DIMCEN
 40
2.5
  9
$DIMTSZ
 40
0.0
  9
$DIMTOL
 70
     0
  9
$DIMLIM
 70
     0
  9
$DIMTIH
 70
     0
  9
$DIMTOH
 70
     0
  9
$DIMSE1
 70
     0
  9
$DIMSE2
 70
     0
  9
$DIMTAD
 70
     1
  9
$DIMZIN
 70
     8
  9
$DIMBLK
  1

  9
$DIMASO
 70
     1
  9
$DIMSHO
 70
     1
  9
$DIMPOST
  1

  9
$DIMAPOST
  1

  9
$DIMALT
 70
     0
  9
$DIMALTD
 70
     3
  9
$DIMALTF
 40
0.03937007874016
  9
$DIMLFAC
 40
1.0
  9
$DIMTOFL
 70
     1
  9
$DIMTVP
 40
0.0
  9
$DIMTIX
 70
     0
  9
$DIMSOXD
 70
     0
  9
$DIMSAH
 70
     0
  9
$DIMBLK1
  1

  9
$DIMBLK2
  1

  9
$DIMSTYLE
  2
ISO-25
  9
$DIMCLRD
 70
     0
  9
$DIMCLRE
 70
     0
  9
$DIMCLRT
 70
     0
  9
$DIMTFAC
 40
1.0
  9
$DIMGAP
 40
0.625
  9
$DIMJUST
 70
     0
  9
$DIMSD1
 70
     0
  9
$DIMSD2
 70
     0
  9
$DIMTOLJ
 70
     0
  9
$DIMTZIN
 70
     8
  9
$DIMALTZ
 70
     0
  9
$DIMALTTZ
 70
     0
  9
$DIMFIT
 70
     3
  9
$DIMUPT
 70
     0
  9
$DIMUNIT
 70
     2
  9
$DIMDEC
 70
     2
  9
$DIMTDEC
 70
     2
  9
$DIMALTU
 70
     2
  9
$DIMALTTD
 70
     3
  9
$DIMTXSTY
  7
STANDARD
  9
$DIMAUNIT
 70
     0
  9
$LUNITS
 70
     2
  9
$LUPREC
 70
     4
  9
$SKETCHINC
 40
1.0
  9
$FILLETRAD
 40
10.0
  9
$AUNITS
 70
     0
  9
$AUPREC
 70
     0
  9
$MENU
  1
.
  9
$ELEVATION
 40
0.0
  9
$PELEVATION
 40
0.0
  9
$THICKNESS
 40
0.0
  9
$LIMCHECK
 70
     0
  9
$CHAMFERA
 40
0.0
  9
$CHAMFERB
 40
0.0
  9
$CHAMFERC
 40
0.0
  9
$CHAMFERD
 40
0.0
  9
$SKPOLY
 70
     0
  9
$TDCREATE
 40
2460011.654172477
  9
$TDUPDATE
 40
2460011.654173021
  9
$TDINDWG
 40
0.0000000116
  9
$TDUSRTIMER
 40
0.0000000116
  9
$USRTIMER
 70
     1
  9
$ANGBASE
 50
0.0
  9
$ANGDIR
 70
     0
  9
$PDMODE
 70
     0
  9
$PDSIZE
 40
0.0
  9
$PLINEWID
 40
0.0
  9
$COORDS
 70
     1
  9
$SPLFRAME
 70
     0
  9
$SPLINETYPE
 70
     6
  9
$SPLINESEGS
 70
     8
  9
$ATTDIA
 70
     0
  9
$ATTREQ
 70
     1
  9
$HANDLING
 70
     1
  9
$HANDSEED
  5
5A5
  9
$SURFTAB1
 70
     6
  9
$SURFTAB2
 70
     6
  9
$SURFTYPE
 70
     6
  9
$SURFU
 70
     6
  9
$SURFV
 70
     6
  9
$UCSNAME
  2

  9
$UCSORG
 10
0.0
 20
0.0
 30
0.0
  9
$UCSXDIR
 10
1.0
 20
0.0
 30
0.0
  9
$UCSYDIR
 10
0.0
 20
1.0
 30
0.0
  9
$PUCSNAME
  2

  9
$PUCSORG
 10
0.0
 20
0.0
 30
0.0
  9
$PUCSXDIR
 10
1.0
 20
0.0
 30
0.0
  9
$PUCSYDIR
 10
0.0
 20
1.0
 30
0.0
  9
$USERI1
 70
     0
  9
$USERI2
 70
     0
  9
$USERI3
 70
     0
  9
$USERI4
 70
     0
  9
$USERI5
 70
     0
  9
$USERR1
 40
0.0
  9
$USERR2
 40
0.0
  9
$USERR3
 40
0.0
  9
$USERR4
 40
0.0
  9
$USERR5
 40
0.0
  9
$WORLDVIEW
 70
     1
  9
$SHADEDGE
 70
     3
  9
$SHADEDIF
 70
    70
  9
$TILEMODE
 70
     1
  9
$MAXACTVP
 70
    64
  9
$PINSBASE
 10
0.0
 20
0.0
 30
0.0
  9
$PLIMCHECK
 70
     0
  9
$PEXTMIN
 10
1.000000000000000E+20
 20
1.000000000000000E+20
 30
1.000000000000000E+20
  9
$PEXTMAX
 10
-1.000000000000000E+20
 20
-1.000000000000000E+20
 30
-1.000000000000000E+20
  9
$PLIMMIN
 10
0.0
 20
0.0
  9
$PLIMMAX
 10
420.0
 20
297.0
  9
$UNITMODE
 70
     0
  9
$VISRETAIN
 70
     1
  9
$PLINEGEN
 70
     0
  9
$PSLTSCALE
 70
     1
  9
$TREEDEPTH
 70
  3020
  9
$PICKSTYLE
 70
     1
  9
$CMLSTYLE
  2
STANDARD
  9
$CMLJUST
 70
     0
  9
$CMLSCALE
 40
20.0
  9
$PROXYGRAPHICS
 70
     1
  9
$MEASUREMENT
 70
     1
  0
ENDSEC
  0
SECTION
  2
CLASSES
  0
CLASS
  1
ACDBDICTIONARYWDFLT
  2
AcDbDictionaryWithDefault
  3
ObjectDBX Classes
 90
        0
280
     0
281
     0
  0
CLASS
  1
VISUALSTYLE
  2
AcDbVisualStyle
  3
ObjectDBX Classes
 90
     4095
280
     0
281
     0
  0
CLASS
  1
MATERIAL
  2
AcDbMaterial
  3
ObjectDBX Classes
 90
     1153
280
     0
281
     0
  0
CLASS
  1
SCALE
  2
AcDbScale
  3
ObjectDBX Classes
 90
     1153
280
     0
281
     0
  0
CLASS
  1
TABLESTYLE
  2
AcDbTableStyle
  3
ObjectDBX Classes
 90
     4095
280
     0
281
     0
  0
CLASS
  1
MLEADERSTYLE
  2
AcDbMLeaderStyle
  3
ACDB_MLEADERSTYLE_CLASS
 90
     4095
280
     0
281
     0
  0
CLASS
  1
SUN
  2
AcDbSun
  3
SCENEOE
 90
     1153
280
     0
281
     0
  0
CLASS
  1
DICTIONARYVAR
  2
AcDbDictionaryVar
  3
ObjectDBX Classes
 90
        0
280
     0
281
     0
  0
CLASS
  1
XRECORD
  2
AcDbXrecord
  3
ObjectDBX Classes
 90
        0
280
     0
281
     0
  0
CLASS
  1
LWPOLYLINE
  2
AcDbPolyline
  3
ObjectDBX Classes
 90
        0
280
     0
281
     1
  0
CLASS
  1
HATCH
  2
AcDbHatch
  3
ObjectDBX Classes
 90
        0
280
     0
281
     1
  0
CLASS
  1
ACDBPLACEHOLDER
  2
AcDbPlaceHolder
  3
ObjectDBX Classes
 90
        0
280
     0
281
     0
  0
CLASS
  1
LAYOUT
  2
AcDbLayout
  3
ObjectDBX Classes
 90
        0
280
     0
281
     0
  0
ENDSEC
  0
SECTION
  2
TABLES
  0
TABLE
  2
VPORT
  5
8
102
{ACAD_XDICTIONARY
360
59A
102
}
330
0
100
AcDbSymbolTable
 70
     1
  0
VPORT
  5
29
330
8
100
AcDbSymbolTableRecord
100
AcDbViewportTableRecord
  2
*ACTIVE
 70
     0
 10
0.0
 20
0.0
 11
1.0
 21
1.0
 12
585.0000000000001
 22
435.0
 13
0.0
 23
0.0
 14
10.0
 24
10.0
 15
10.0
 25
10.0
 16
0.0
 26
0.0
 36
1.0
 17
0.0
 27
0.0
 37
0.0
 40
810.0
 41
1.407407407407408
 42
50.0
 43
0.0
 44
0.0
 50
0.0
 51
0.0
 71
     0
 72
  1000
 73
     1
 74
     3
 75
     0
 76
     0
 77
     0
 78
     0
  0
ENDTAB
  0
TABLE
  2
LTYPE
  5
5
330
0
100
AcDbSymbolTable
 70
     6
  0
LTYPE
  5
14
330
5
100
AcDbSymbolTableRecord
100
AcDbLinetypeTableRecord
  2
BYBLOCK
 70
     0
  3

 72
    65
 73
     0
 40
0.0
  0
LTYPE
  5
15
330
5
100
AcDbSymbolTableRecord
100
AcDbLinetypeTableRecord
  2
BYLAYER
 70
     0
  3

 72
    65
 73
     0
 40
0.0
  0
LTYPE
  5
16
330
5
100
AcDbSymbolTableRecord
100
AcDbLinetypeTableRecord
  2
CONTINUOUS
 70
     0
  3
Solid line
 72
    65
 73
     0
 40
0.0
  0
LTYPE
  5
6E
330
5
100
AcDbSymbolTableRecord
100
AcDbLinetypeTableRecord
  2
HIDDEN
 70
     0
  3
Hidden __ __ __ __ __ __ __ __ __ __ __ __ __ __
 72
    65
 73
     2
 40
9.524999999999999
 49
6.35
 74
     0
 49
-3.175
 74
     0
  0
LTYPE
  5
6F
330
5
100
AcDbSymbolTableRecord
100
AcDbLinetypeTableRecord
  2
CENTER
 70
     0
  3
Center ____ _ ____ _ ____ _ ____ _ ____ _ ____
 72
    65
 73
     4
 40
50.8
 49
31.75
 74
     0
 49
-6.35
 74
     0
 49
6.35
 74
     0
 49
-6.35
 74
     0
  0
LTYPE
  5
70
330
5
100
AcDbSymbolTableRecord
100
AcDbLinetypeTableRecord
  2
PHANTOM
 70
     0
  3
Phantom ______  __  __  ______  __  __  ______ 
 72
    65
 73
     6
 40
63.50000000000001
 49
31.75
 74
     0
 49
-6.35
 74
     0
 49
6.35
 74
     0
 49
-6.35
 74
     0
 49
6.35
 74
     0
 49
-6.35
 74
     0
  0
LTYPE
  5
71
330
5
100
AcDbSymbolTableRecord
100
AcDbLinetypeTableRecord
  2
ACAD_ISO06W100
 70
     0
  3
ISO long-dash triple-dot ____ ... ____ ... ____
 72
    65
 73
     8
 40
36.0
 49
24.0
 74
     0
 49
-3.0
 74
     0
 49
0.0
 74
     0
 49
-3.0
 74
     0
 49
0.0
 74
     0
 49
-3.0
 74
     0
 49
0.0
 74
     0
 49
-3.0
 74
     0
  0
LTYPE
  5
72
330
5
100
AcDbSymbolTableRecord
100
AcDbLinetypeTableRecord
  2
ACAD_ISO15W100
 70
     0
  3
ISO double-dash triple-dot __ __ . . . __ __ . .
 72
    65
 73
    10
 40
39.0
 49
12.0
 74
     0
 49
-3.0
 74
     0
 49
12.0
 74
     0
 49
-3.0
 74
     0
 49
0.0
 74
     0
 49
-3.0
 74
     0
 49
0.0
 74
     0
 49
-3.0
 74
     0
 49
0.0
 74
     0
 49
-3.0
 74
     0
  0
ENDTAB
  0
TABLE
  2
LAYER
  5
2
330
0
100
AcDbSymbolTable
 70
     5
  0
LAYER
  5
10
330
2
100
AcDbSymbolTableRecord
100
AcDbLayerTableRecord
  2
0
 70
     0
 62
     7
  6
CONTINUOUS
  0
LAYER
  5
75
330
2
100
AcDbSymbolTableRecord
100
AcDbLayerTableRecord
  2
LAY-10
 70
     0
 62
     7
  6
CONTINUOUS
  0
LAYER
  5
76
330
2
100
AcDbSymbolTableRecord
100
AcDbLayerTableRecord
  2
LAY-20
 70
     0
 62
     7
  6
CONTINUOUS
  0
LAYER
  5
77
330
2
100
AcDbSymbolTableRecord
100
AcDbLayerTableRecord
  2
LAY-255
 70
     0
 62
     7
  6
CONTINUOUS
  0
LAYER
  5
488
330
2
100
AcDbSymbolTableRecord
100
AcDbLayerTableRecord
  2
DEFPOINTS
 70
     0
 62
     7
  6
CONTINUOUS
  0
ENDTAB
  0
TABLE
  2
STYLE
  5
3
330
0
100
AcDbSymbolTable
 70
     4
  0
STYLE
  5
11
330
3
100
AcDbSymbolTableRecord
100
AcDbTextStyleTableRecord
  2
STANDARD
 70
     0
 40
0.0
 41
1.0
 50
0.0
 71
     0
 42
2.5
  3
simplex
  4
bigfont
  0
STYLE
  5
73
330
3
100
AcDbSymbolTableRecord
100
AcDbTextStyleTableRecord
  2
EXCADSTD
 70
     0
 40
0.0
 41
1.0
 50
0.0
 71
     0
 42
2.5
  3
simplex
  4
bigfont
  0
STYLE
  5
74
330
3
100
AcDbSymbolTableRecord
100
AcDbTextStyleTableRecord
  2
EXCADVERT
 70
     4
 40
0.0
 41
1.0
 50
0.0
 71
     0
 42
2.5
  3
simplex
  4
bigfont
  0
STYLE
  5
486
330
3
100
AcDbSymbolTableRecord
100
AcDbTextStyleTableRecord
  2
EXCADDIM1
 70
     0
 40
0.0
 41
0.84
 50
0.0
 71
     0
 42
2.5
  3
simplex
  4
bigfont
  0
ENDTAB
  0
TABLE
  2
VIEW
  5
6
330
0
100
AcDbSymbolTable
 70
     0
  0
ENDTAB
  0
TABLE
  2
UCS
  5
7
330
0
100
AcDbSymbolTable
 70
     0
  0
ENDTAB
  0
TABLE
  2
APPID
  5
9
330
0
100
AcDbSymbolTable
 70
     2
  0
APPID
  5
12
330
9
100
AcDbSymbolTableRecord
100
AcDbRegAppTableRecord
  2
ACAD
 70
     0
  0
APPID
  5
5A4
330
9
100
AcDbSymbolTableRecord
100
AcDbRegAppTableRecord
  2
ACAD_MLEADERVER
 70
     0
  0
ENDTAB
  0
TABLE
  2
DIMSTYLE
  5
A
330
0
100
AcDbSymbolTable
 70
     1
  0
DIMSTYLE
105
27
102
{ACAD_REACTORS
330
487
330
495
330
4A1
330
4AE
330
4BB
330
4C8
330
4D5
330
4E2
330
4F0
330
4FE
330
507
330
510
330
51C
330
529
330
539
102
}
330
A
100
AcDbSymbolTableRecord
100
AcDbDimStyleTableRecord
  2
ISO-25
 70
     0
  3

  4

  5

  6

  7

 40
1.0
 41
2.5
 42
0.625
 43
3.75
 44
1.25
 45
0.0
 46
0.0
 47
0.0
 48
0.0
140
2.5
141
2.5
142
0.0
143
0.03937007874016
144
1.0
145
0.0
146
1.0
147
0.625
 71
     0
 72
     0
 73
     0
 74
     0
 75
     0
 76
     0
 77
     1
 78
     8
170
     0
171
     3
172
     1
173
     0
174
     0
175
     0
176
     0
177
     0
178
     0
270
     2
271
     2
272
     2
273
     2
274
     3
340
11
275
     0
280
     0
281
     0
282
     0
283
     0
284
     8
285
     0
286
     0
287
     5
288
     0
  0
ENDTAB
  0
TABLE
  2
BLOCK_RECORD
  5
1
330
0
100
AcDbSymbolTable
 70
    29
  0
BLOCK_RECORD
  5
1F
330
1
100
AcDbSymbolTableRecord
100
AcDbBlockTableRecord
  2
*MODEL_SPACE
  0
BLOCK_RECORD
  5
1B
330
1
100
AcDbSymbolTableRecord
100
AcDbBlockTableRecord
  2
*PAPER_SPACE
  0
BLOCK_RECORD
  5
78
330
1
100
AcDbSymbolTableRecord
100
AcDbBlockTableRecord
  2
EX_NORM
  0
BLOCK_RECORD
  5
7B
330
1
100
AcDbSymbolTableRecord
100
AcDbBlockTableRecord
  2
EX_BNORM
  0
BLOCK_RECORD
  5
7E
330
1
100
AcDbSymbolTableRecord
100
AcDbBlockTableRecord
  2
EX_BCIR
  0
BLOCK_RECORD
  5
81
330
1
100
AcDbSymbolTableRecord
100
AcDbBlockTableRecord
  2
EX_RCIVIL
  0
BLOCK_RECORD
  5
84
330
1
100
AcDbSymbolTableRecord
100
AcDbBlockTableRecord
  2
EX_SLANT
  0
BLOCK_RECORD
  5
87
330
1
100
AcDbSymbolTableRecord
100
AcDbBlockTableRecord
  2
EX_NONE
  0
BLOCK_RECORD
  5
8A
330
1
100
AcDbSymbolTableRecord
100
AcDbBlockTableRecord
  2
EX_CIVIL
  0
BLOCK_RECORD
  5
8D
330
1
100
AcDbSymbolTableRecord
100
AcDbBlockTableRecord
  2
EX_WCIR
  0
BLOCK_RECORD
  5
90
330
1
100
AcDbSymbolTableRecord
100
AcDbBlockTableRecord
  2
EX_WCIR2
  0
BLOCK_RECORD
  5
93
330
1
100
AcDbSymbolTableRecord
100
AcDbBlockTableRecord
  2
EX_WNORM
  0
BLOCK_RECORD
  5
96
330
1
100
AcDbSymbolTableRecord
100
AcDbBlockTableRecord
  2
EX_NNORM
  0
BLOCK_RECORD
  5
99
330
1
100
AcDbSymbolTableRecord
100
AcDbBlockTableRecord
  2
EX_BBOX
  0
BLOCK_RECORD
  5
9C
330
1
100
AcDbSymbolTableRecord
100
AcDbBlockTableRecord
  2
EX_WBOX
  0
BLOCK_RECORD
  5
9F
330
1
100
AcDbSymbolTableRecord
100
AcDbBlockTableRecord
  2
EX_INTEGRAL
  0
BLOCK_RECORD
  5
489
330
1
100
AcDbSymbolTableRecord
100
AcDbBlockTableRecord
  2
*D15
  0
BLOCK_RECORD
  5
496
330
1
100
AcDbSymbolTableRecord
100
AcDbBlockTableRecord
  2
*D16
  0
BLOCK_RECORD
  5
4A2
330
1
100
AcDbSymbolTableRecord
100
AcDbBlockTableRecord
  2
*D17
  0
BLOCK_RECORD
  5
4AF
330
1
100
AcDbSymbolTableRecord
100
AcDbBlockTableRecord
  2
*D18
  0
BLOCK_RECORD
  5
4BC
330
1
100
AcDbSymbolTableRecord
100
AcDbBlockTableRecord
  2
*D19
  0
BLOCK_RECORD
  5
4C9
330
1
100
AcDbSymbolTableRecord
100
AcDbBlockTableRecord
  2
*D20
  0
BLOCK_RECORD
  5
4D6
330
1
100
AcDbSymbolTableRecord
100
AcDbBlockTableRecord
  2
*D21
  0
BLOCK_RECORD
  5
4E3
330
1
100
AcDbSymbolTableRecord
100
AcDbBlockTableRecord
  2
*D22
  0
BLOCK_RECORD
  5
4F1
330
1
100
AcDbSymbolTableRecord
100
AcDbBlockTableRecord
  2
*D23
  0
BLOCK_RECORD
  5
4FF
330
1
100
AcDbSymbolTableRecord
100
AcDbBlockTableRecord
  2
*D24
  0
BLOCK_RECORD
  5
508
330
1
100
AcDbSymbolTableRecord
100
AcDbBlockTableRecord
  2
*D25
  0
BLOCK_RECORD
  5
511
330
1
100
AcDbSymbolTableRecord
100
AcDbBlockTableRecord
  2
*D26
  0
BLOCK_RECORD
  5
51D
330
1
100
AcDbSymbolTableRecord
100
AcDbBlockTableRecord
  2
*D27
  0
BLOCK_RECORD
  5
52A
330
1
100
AcDbSymbolTableRecord
100
AcDbBlockTableRecord
  2
*D28
  0
BLOCK_RECORD
  5
53A
330
1
100
AcDbSymbolTableRecord
100
AcDbBlockTableRecord
  2
*D29
  0
ENDTAB
  0
ENDSEC
  0
SECTION
  2
BLOCKS
  0
BLOCK
  5
20
330
1F
100
AcDbEntity
  8
0
100
AcDbBlockBegin
  2
*MODEL_SPACE
 70
     0
 10
0.0
 20
0.0
 30
0.0
  3
*MODEL_SPACE
  1

  0
ENDBLK
  5
21
330
1F
100
AcDbEntity
  8
0
100
AcDbBlockEnd
  0
BLOCK
  5
1C
330
1B
100
AcDbEntity
 67
     1
  8
0
100
AcDbBlockBegin
  2
*PAPER_SPACE
 70
     0
 10
0.0
 20
0.0
 30
0.0
  3
*PAPER_SPACE
  1

  0
ENDBLK
  5
1D
330
1B
100
AcDbEntity
 67
     1
  8
0
100
AcDbBlockEnd
  0
BLOCK
  5
79
330
78
100
AcDbEntity
  8
0
100
AcDbBlockBegin
  2
EX_NORM
 70
     0
 10
0.0
 20
0.0
 30
0.0
  3
EX_NORM
  1

  0
LINE
  5
A2
330
78
100
AcDbEntity
  8
0
  6
CONTINUOUS
 62
     0
100
AcDbLine
 10
0.0
 20
0.0
 30
0.0
 11
-1.0
 21
0.0
 31
0.0
  0
LINE
  5
A3
330
78
100
AcDbEntity
  8
0
  6
CONTINUOUS
 62
     0
100
AcDbLine
 10
0.0
 20
0.0
 30
0.0
 11
-1.0
 21
0.166666667
 31
0.0
  0
LINE
  5
A4
330
78
100
AcDbEntity
  8
0
  6
CONTINUOUS
 62
     0
100
AcDbLine
 10
0.0
 20
0.0
 30
0.0
 11
-1.0
 21
-0.166666667
 31
0.0
  0
ENDBLK
  5
7A
330
78
100
AcDbEntity
  8
0
100
AcDbBlockEnd
  0
BLOCK
  5
7C
330
7B
100
AcDbEntity
  8
0
100
AcDbBlockBegin
  2
EX_BNORM
 70
     0
 10
0.0
 20
0.0
 30
0.0
  3
EX_BNORM
  1

  0
LINE
  5
A5
330
7B
100
AcDbEntity
  8
0
  6
CONTINUOUS
 62
     0
100
AcDbLine
 10
0.0
 20
0.0
 30
0.0
 11
-1.0
 21
0.0
 31
0.0
  0
LINE
  5
A6
330
7B
100
AcDbEntity
  8
0
  6
CONTINUOUS
 62
     0
100
AcDbLine
 10
0.0
 20
0.0
 30
0.0
 11
-1.0
 21
0.166666667
 31
0.0
  0
LINE
  5
A7
330
7B
100
AcDbEntity
  8
0
  6
CONTINUOUS
 62
     0
100
AcDbLine
 10
0.0
 20
0.0
 30
0.0
 11
-1.0
 21
-0.166666667
 31
0.0
  0
LINE
  5
A8
330
7B
100
AcDbEntity
  8
0
  6
CONTINUOUS
 62
     0
100
AcDbLine
 10
0.0
 20
0.0
 30
0.0
 11
-1.0
 21
0.083333333
 31
0.0
  0
LINE
  5
A9
330
7B
100
AcDbEntity
  8
0
  6
CONTINUOUS
 62
     0
100
AcDbLine
 10
0.0
 20
0.0
 30
0.0
 11
-1.0
 21
-0.083333333
 31
0.0
  0
LINE
  5
AA
330
7B
100
AcDbEntity
  8
0
  6
CONTINUOUS
 62
     0
100
AcDbLine
 10
-1.0
 20
0.166666667
 30
0.0
 11
-1.0
 21
-0.166666667
 31
0.0
  0
ENDBLK
  5
7D
330
7B
100
AcDbEntity
  8
0
100
AcDbBlockEnd
  0
BLOCK
  5
7F
330
7E
100
AcDbEntity
  8
0
100
AcDbBlockBegin
  2
EX_BCIR
 70
     0
 10
0.0
 20
0.0
 30
0.0
  3
EX_BCIR
  1

  0
LINE
  5
AB
330
7E
100
AcDbEntity
  8
0
  6
CONTINUOUS
 62
     0
100
AcDbLine
 10
0.0
 20
0.0
 30
0.0
 11
-1.0
 21
0.0
 31
0.0
  0
CIRCLE
  5
AC
330
7E
100
AcDbEntity
  8
0
  6
CONTINUOUS
 62
     0
100
AcDbCircle
 10
0.0
 20
0.0
 30
0.0
 40
0.5
  0
CIRCLE
  5
AD
330
7E
100
AcDbEntity
  8
0
  6
CONTINUOUS
 62
     0
100
AcDbCircle
 10
0.0
 20
0.0
 30
0.0
 40
0.25
  0
ENDBLK
  5
80
330
7E
100
AcDbEntity
  8
0
100
AcDbBlockEnd
  0
BLOCK
  5
82
330
81
100
AcDbEntity
  8
0
100
AcDbBlockBegin
  2
EX_RCIVIL
 70
     0
 10
0.0
 20
0.0
 30
0.0
  3
EX_RCIVIL
  1

  0
LINE
  5
AE
330
81
100
AcDbEntity
  8
0
  6
CONTINUOUS
 62
     0
100
AcDbLine
 10
0.0
 20
0.0
 30
0.0
 11
-1.0
 21
0.0
 31
0.0
  0
LINE
  5
AF
330
81
100
AcDbEntity
  8
0
  6
CONTINUOUS
 62
     0
100
AcDbLine
 10
-1.0
 20
-0.25
 30
0.0
 11
0.0
 21
-0.25
 31
0.0
  0
LINE
  5
B0
330
81
100
AcDbEntity
  8
0
  6
CONTINUOUS
 62
     0
100
AcDbLine
 10
-1.0
 20
-0.125
 30
0.0
 11
0.0
 21
-0.125
 31
0.0
  0
ENDBLK
  5
83
330
81
100
AcDbEntity
  8
0
100
AcDbBlockEnd
  0
BLOCK
  5
85
330
84
100
AcDbEntity
  8
0
100
AcDbBlockBegin
  2
EX_SLANT
 70
     0
 10
0.0
 20
0.0
 30
0.0
  3
EX_SLANT
  1

  0
LINE
  5
B1
330
84
100
AcDbEntity
  8
0
  6
CONTINUOUS
 62
     0
100
AcDbLine
 10
0.0
 20
0.0
 30
0.0
 11
-1.0
 21
0.0
 31
0.0
  0
LINE
  5
B2
330
84
100
AcDbEntity
  8
0
  6
CONTINUOUS
 62
     0
100
AcDbLine
 10
0.707106781
 20
0.707106781
 30
0.0
 11
-0.707106781
 21
-0.707106781
 31
0.0
  0
ENDBLK
  5
86
330
84
100
AcDbEntity
  8
0
100
AcDbBlockEnd
  0
BLOCK
  5
88
330
87
100
AcDbEntity
  8
0
100
AcDbBlockBegin
  2
EX_NONE
 70
     0
 10
0.0
 20
0.0
 30
0.0
  3
EX_NONE
  1

  0
LINE
  5
B3
330
87
100
AcDbEntity
  8
0
  6
CONTINUOUS
 62
     0
100
AcDbLine
 10
0.0
 20
0.0
 30
0.0
 11
-1.0
 21
0.0
 31
0.0
  0
ENDBLK
  5
89
330
87
100
AcDbEntity
  8
0
100
AcDbBlockEnd
  0
BLOCK
  5
8B
330
8A
100
AcDbEntity
  8
0
100
AcDbBlockBegin
  2
EX_CIVIL
 70
     0
 10
0.0
 20
0.0
 30
0.0
  3
EX_CIVIL
  1

  0
LINE
  5
B4
330
8A
100
AcDbEntity
  8
0
  6
CONTINUOUS
 62
     0
100
AcDbLine
 10
0.0
 20
0.0
 30
0.0
 11
-1.0
 21
0.0
 31
0.0
  0
LINE
  5
B5
330
8A
100
AcDbEntity
  8
0
  6
CONTINUOUS
 62
     0
100
AcDbLine
 10
-1.0
 20
0.25
 30
0.0
 11
0.0
 21
0.25
 31
0.0
  0
LINE
  5
B6
330
8A
100
AcDbEntity
  8
0
  6
CONTINUOUS
 62
     0
100
AcDbLine
 10
-1.0
 20
0.125
 30
0.0
 11
0.0
 21
0.125
 31
0.0
  0
ENDBLK
  5
8C
330
8A
100
AcDbEntity
  8
0
100
AcDbBlockEnd
  0
BLOCK
  5
8E
330
8D
100
AcDbEntity
  8
0
100
AcDbBlockBegin
  2
EX_WCIR
 70
     0
 10
0.0
 20
0.0
 30
0.0
  3
EX_WCIR
  1

  0
LINE
  5
B7
330
8D
100
AcDbEntity
  8
0
  6
CONTINUOUS
 62
     0
100
AcDbLine
 10
0.0
 20
0.0
 30
0.0
 11
-1.0
 21
0.0
 31
0.0
  0
CIRCLE
  5
B8
330
8D
100
AcDbEntity
  8
0
  6
CONTINUOUS
 62
     0
100
AcDbCircle
 10
0.0
 20
0.0
 30
0.0
 40
0.5
  0
ENDBLK
  5
8F
330
8D
100
AcDbEntity
  8
0
100
AcDbBlockEnd
  0
BLOCK
  5
91
330
90
100
AcDbEntity
  8
0
100
AcDbBlockBegin
  2
EX_WCIR2
 70
     0
 10
0.0
 20
0.0
 30
0.0
  3
EX_WCIR2
  1

  0
LINE
  5
B9
330
90
100
AcDbEntity
  8
0
  6
CONTINUOUS
 62
     0
100
AcDbLine
 10
-0.5
 20
0.0
 30
0.0
 11
-1.0
 21
0.0
 31
0.0
  0
CIRCLE
  5
BA
330
90
100
AcDbEntity
  8
0
  6
CONTINUOUS
 62
     0
100
AcDbCircle
 10
0.0
 20
0.0
 30
0.0
 40
0.5
  0
ENDBLK
  5
92
330
90
100
AcDbEntity
  8
0
100
AcDbBlockEnd
  0
BLOCK
  5
94
330
93
100
AcDbEntity
  8
0
100
AcDbBlockBegin
  2
EX_WNORM
 70
     0
 10
0.0
 20
0.0
 30
0.0
  3
EX_WNORM
  1

  0
LINE
  5
BB
330
93
100
AcDbEntity
  8
0
  6
CONTINUOUS
 62
     0
100
AcDbLine
 10
-1.0
 20
0.0
 30
0.0
 11
-1.0
 21
0.0
 31
0.0
  0
LINE
  5
BC
330
93
100
AcDbEntity
  8
0
  6
CONTINUOUS
 62
     0
100
AcDbLine
 10
0.0
 20
0.0
 30
0.0
 11
-1.0
 21
0.166666667
 31
0.0
  0
LINE
  5
BD
330
93
100
AcDbEntity
  8
0
  6
CONTINUOUS
 62
     0
100
AcDbLine
 10
0.0
 20
0.0
 30
0.0
 11
-1.0
 21
-0.166666667
 31
0.0
  0
LINE
  5
BE
330
93
100
AcDbEntity
  8
0
  6
CONTINUOUS
 62
     0
100
AcDbLine
 10
-1.0
 20
0.166666667
 30
0.0
 11
-1.0
 21
-0.166666667
 31
0.0
  0
ENDBLK
  5
95
330
93
100
AcDbEntity
  8
0
100
AcDbBlockEnd
  0
BLOCK
  5
97
330
96
100
AcDbEntity
  8
0
100
AcDbBlockBegin
  2
EX_NNORM
 70
     0
 10
0.0
 20
0.0
 30
0.0
  3
EX_NNORM
  1

  0
LINE
  5
BF
330
96
100
AcDbEntity
  8
0
  6
CONTINUOUS
 62
     0
100
AcDbLine
 10
0.0
 20
0.0
 30
0.0
 11
-1.0
 21
0.0
 31
0.0
  0
LINE
  5
C0
330
96
100
AcDbEntity
  8
0
  6
CONTINUOUS
 62
     0
100
AcDbLine
 10
0.0
 20
0.0
 30
0.0
 11
-1.0
 21
0.166666667
 31
0.0
  0
LINE
  5
C1
330
96
100
AcDbEntity
  8
0
  6
CONTINUOUS
 62
     0
100
AcDbLine
 10
0.0
 20
0.0
 30
0.0
 11
-1.0
 21
-0.166666667
 31
0.0
  0
LINE
  5
C2
330
96
100
AcDbEntity
  8
0
  6
CONTINUOUS
 62
     0
100
AcDbLine
 10
-1.0
 20
0.166666667
 30
0.0
 11
-1.0
 21
-0.166666667
 31
0.0
  0
ENDBLK
  5
98
330
96
100
AcDbEntity
  8
0
100
AcDbBlockEnd
  0
BLOCK
  5
9A
330
99
100
AcDbEntity
  8
0
100
AcDbBlockBegin
  2
EX_BBOX
 70
     0
 10
0.0
 20
0.0
 30
0.0
  3
EX_BBOX
  1

  0
LINE
  5
C3
330
99
100
AcDbEntity
  8
0
  6
CONTINUOUS
 62
     0
100
AcDbLine
 10
0.0
 20
0.0
 30
0.0
 11
-1.0
 21
0.0
 31
0.0
  0
LINE
  5
C4
330
99
100
AcDbEntity
  8
0
  6
CONTINUOUS
 62
     0
100
AcDbLine
 10
-0.5
 20
0.5
 30
0.0
 11
0.5
 21
0.5
 31
0.0
  0
LINE
  5
C5
330
99
100
AcDbEntity
  8
0
  6
CONTINUOUS
 62
     0
100
AcDbLine
 10
0.5
 20
0.5
 30
0.0
 11
0.5
 21
-0.5
 31
0.0
  0
LINE
  5
C6
330
99
100
AcDbEntity
  8
0
  6
CONTINUOUS
 62
     0
100
AcDbLine
 10
0.5
 20
-0.5
 30
0.0
 11
-0.5
 21
-0.5
 31
0.0
  0
LINE
  5
C7
330
99
100
AcDbEntity
  8
0
  6
CONTINUOUS
 62
     0
100
AcDbLine
 10
-0.5
 20
-0.5
 30
0.0
 11
-0.5
 21
0.5
 31
0.0
  0
LINE
  5
C8
330
99
100
AcDbEntity
  8
0
  6
CONTINUOUS
 62
     0
100
AcDbLine
 10
-0.25
 20
0.25
 30
0.0
 11
0.25
 21
0.25
 31
0.0
  0
LINE
  5
C9
330
99
100
AcDbEntity
  8
0
  6
CONTINUOUS
 62
     0
100
AcDbLine
 10
0.25
 20
0.25
 30
0.0
 11
0.25
 21
-0.25
 31
0.0
  0
LINE
  5
CA
330
99
100
AcDbEntity
  8
0
  6
CONTINUOUS
 62
     0
100
AcDbLine
 10
0.25
 20
-0.25
 30
0.0
 11
-0.25
 21
-0.25
 31
0.0
  0
LINE
  5
CB
330
99
100
AcDbEntity
  8
0
  6
CONTINUOUS
 62
     0
100
AcDbLine
 10
-0.25
 20
-0.25
 30
0.0
 11
-0.25
 21
0.25
 31
0.0
  0
ENDBLK
  5
9B
330
99
100
AcDbEntity
  8
0
100
AcDbBlockEnd
  0
BLOCK
  5
9D
330
9C
100
AcDbEntity
  8
0
100
AcDbBlockBegin
  2
EX_WBOX
 70
     0
 10
0.0
 20
0.0
 30
0.0
  3
EX_WBOX
  1

  0
LINE
  5
CC
330
9C
100
AcDbEntity
  8
0
  6
CONTINUOUS
 62
     0
100
AcDbLine
 10
-0.5
 20
0.0
 30
0.0
 11
-1.0
 21
0.0
 31
0.0
  0
LINE
  5
CD
330
9C
100
AcDbEntity
  8
0
  6
CONTINUOUS
 62
     0
100
AcDbLine
 10
-0.5
 20
0.5
 30
0.0
 11
0.5
 21
0.5
 31
0.0
  0
LINE
  5
CE
330
9C
100
AcDbEntity
  8
0
  6
CONTINUOUS
 62
     0
100
AcDbLine
 10
0.5
 20
0.5
 30
0.0
 11
0.5
 21
-0.5
 31
0.0
  0
LINE
  5
CF
330
9C
100
AcDbEntity
  8
0
  6
CONTINUOUS
 62
     0
100
AcDbLine
 10
0.5
 20
-0.5
 30
0.0
 11
-0.5
 21
-0.5
 31
0.0
  0
LINE
  5
D0
330
9C
100
AcDbEntity
  8
0
  6
CONTINUOUS
 62
     0
100
AcDbLine
 10
-0.5
 20
-0.5
 30
0.0
 11
-0.5
 21
0.5
 31
0.0
  0
ENDBLK
  5
9E
330
9C
100
AcDbEntity
  8
0
100
AcDbBlockEnd
  0
BLOCK
  5
A0
330
9F
100
AcDbEntity
  8
0
100
AcDbBlockBegin
  2
EX_INTEGRAL
 70
     0
 10
0.0
 20
0.0
 30
0.0
  3
EX_INTEGRAL
  1

  0
LINE
  5
D1
330
9F
100
AcDbEntity
  8
0
  6
CONTINUOUS
 62
     0
100
AcDbLine
 10
0.0
 20
0.0
 30
0.0
 11
-1.0
 21
0.0
 31
0.0
  0
ARC
  5
D2
330
9F
100
AcDbEntity
  8
0
  6
CONTINUOUS
 62
     0
100
AcDbCircle
 10
0.542115
 20
0.164992
 30
0.0
 40
0.56667
100
AcDbArc
 50
73.07249033629006
 51
196.9275130221199
  0
ARC
  5
D3
330
9F
100
AcDbEntity
  8
0
  6
CONTINUOUS
 62
     0
100
AcDbCircle
 10
-0.542115
 20
-0.164992
 30
0.0
 40
0.56667
100
AcDbArc
 50
253.0724869220464
 51
16.9275130559125
  0
ENDBLK
  5
A1
330
9F
100
AcDbEntity
  8
0
100
AcDbBlockEnd
  0
BLOCK
  5
48A
330
489
100
AcDbEntity
  8
0
100
AcDbBlockBegin
  2
*D15
 70
     1
 10
0.0
 20
0.0
 30
0.0
  3
*D15
  1

  0
LINE
  5
48C
330
489
100
AcDbEntity
  8
LAY-20
  6
CONTINUOUS
 62
     4
100
AcDbLine
 10
177.5000000000117
 20
300.7
 30
0.0
 11
177.5000000000117
 21
351.7
 31
0.0
  0
LINE
  5
48D
330
489
100
AcDbEntity
  8
LAY-20
  6
CONTINUOUS
 62
     4
100
AcDbLine
 10
337.5000000000018
 20
140.6999999999898
 30
0.0
 11
337.5000000000018
 21
351.7
 31
0.0
  0
LINE
  5
48E
330
489
100
AcDbEntity
  8
LAY-20
  6
CONTINUOUS
 62
     4
100
AcDbLine
 10
185.0000000000117
 20
347.2
 30
0.0
 11
330.0000000000018
 21
347.2
 31
0.0
  0
INSERT
  5
48F
330
489
100
AcDbEntity
  8
LAY-20
 62
     4
100
AcDbBlockReference
  2
EX_BNORM
 10
177.5000000000117
 20
347.2
 30
0.0
 41
7.5
 42
7.5
 43
7.5
 50
180.0
  0
INSERT
  5
490
330
489
100
AcDbEntity
  8
LAY-20
 62
     4
100
AcDbBlockReference
  2
EX_BNORM
 10
337.5000000000018
 20
347.2
 30
0.0
 41
7.5
 42
7.5
 43
7.5
  0
MTEXT
  5
491
330
489
100
AcDbEntity
  8
LAY-20
 62
     7
100
AcDbMText
 10
257.5000000000068
 20
354.7
 30
0.0
 40
9.3543312
 41
0.0
 71
     5
 72
     1
  1
160
  7
EXCADDIM1
  0
POINT
  5
492
330
489
100
AcDbEntity
  8
DEFPOINTS
 62
     0
100
AcDbPoint
 10
177.5000000000117
 20
296.2
 30
0.0
  0
POINT
  5
493
330
489
100
AcDbEntity
  8
DEFPOINTS
 62
     0
100
AcDbPoint
 10
337.5000000000018
 20
136.1999999999898
 30
0.0
  0
POINT
  5
494
330
489
100
AcDbEntity
  8
DEFPOINTS
 62
     0
100
AcDbPoint
 10
337.5000000000018
 20
347.2
 30
0.0
  0
ENDBLK
  5
48B
330
489
100
AcDbEntity
  8
0
100
AcDbBlockEnd
  0
BLOCK
  5
497
330
496
100
AcDbEntity
  8
0
100
AcDbBlockBegin
  2
*D16
 70
     1
 10
0.0
 20
0.0
 30
0.0
  3
*D16
  1

  0
LINE
  5
499
330
496
100
AcDbEntity
  8
LAY-20
  6
CONTINUOUS
 62
     4
100
AcDbLine
 10
117.5000000000117
 20
248.3018249461999
 30
0.0
 11
117.5000000000117
 21
351.7
 31
0.0
  0
LINE
  5
49A
330
496
100
AcDbEntity
  8
LAY-20
  6
CONTINUOUS
 62
     4
100
AcDbLine
 10
125.0000000000117
 20
347.2
 30
0.0
 11
170.0000000000117
 21
347.2
 31
0.0
  0
INSERT
  5
49B
330
496
100
AcDbEntity
  8
LAY-20
 62
     4
100
AcDbBlockReference
  2
EX_BNORM
 10
117.5000000000117
 20
347.2
 30
0.0
 41
7.5
 42
7.5
 43
7.5
 50
180.0
  0
INSERT
  5
49C
330
496
100
AcDbEntity
  8
LAY-20
 62
     4
100
AcDbBlockReference
  2
EX_BNORM
 10
177.5000000000117
 20
347.2
 30
0.0
 41
7.5
 42
7.5
 43
7.5
  0
MTEXT
  5
49D
330
496
100
AcDbEntity
  8
LAY-20
 62
     7
100
AcDbMText
 10
147.5000000000118
 20
354.7
 30
0.0
 40
9.3543312
 41
0.0
 71
     5
 72
     1
  1
60以上
  7
EXCADDIM1
  0
POINT
  5
49E
330
496
100
AcDbEntity
  8
DEFPOINTS
 62
     0
100
AcDbPoint
 10
117.5000000000117
 20
243.8018249461999
 30
0.0
  0
POINT
  5
49F
330
496
100
AcDbEntity
  8
DEFPOINTS
 62
     0
100
AcDbPoint
 10
177.5000000000117
 20
380.1999999999999
 30
0.0
  0
POINT
  5
4A0
330
496
100
AcDbEntity
  8
DEFPOINTS
 62
     0
100
AcDbPoint
 10
177.5000000000117
 20
347.2
 30
0.0
  0
ENDBLK
  5
498
330
496
100
AcDbEntity
  8
0
100
AcDbBlockEnd
  0
BLOCK
  5
4A3
330
4A2
100
AcDbEntity
  8
0
100
AcDbBlockBegin
  2
*D17
 70
     1
 10
0.0
 20
0.0
 30
0.0
  3
*D17
  1

  0
LINE
  5
4A5
330
4A2
100
AcDbEntity
  8
LAY-20
  6
CONTINUOUS
 62
     4
100
AcDbLine
 10
194.5000000000117
 20
265.7
 30
0.0
 11
194.5000000000117
 21
330.7
 31
0.0
  0
LINE
  5
4A6
330
4A2
100
AcDbEntity
  8
LAY-20
  6
CONTINUOUS
 62
     4
100
AcDbLine
 10
293.5000000000118
 20
156.6999999999898
 30
0.0
 11
293.5000000000118
 21
330.7
 31
0.0
  0
LINE
  5
4A7
330
4A2
100
AcDbEntity
  8
LAY-20
  6
CONTINUOUS
 62
     4
100
AcDbLine
 10
202.0000000000117
 20
326.2
 30
0.0
 11
286.0000000000118
 21
326.2
 31
0.0
  0
INSERT
  5
4A8
330
4A2
100
AcDbEntity
  8
LAY-20
 62
     4
100
AcDbBlockReference
  2
EX_BNORM
 10
194.5000000000117
 20
326.2
 30
0.0
 41
7.5
 42
7.5
 43
7.5
 50
180.0
  0
INSERT
  5
4A9
330
4A2
100
AcDbEntity
  8
LAY-20
 62
     4
100
AcDbBlockReference
  2
EX_BNORM
 10
293.5000000000118
 20
326.2
 30
0.0
 41
7.5
 42
7.5
 43
7.5
  0
MTEXT
  5
4AA
330
4A2
100
AcDbEntity
  8
LAY-20
 62
     7
100
AcDbMText
 10
244.0000000000117
 20
333.7
 30
0.0
 40
9.3543312
 41
0.0
 71
     5
 72
     1
  1
99
  7
EXCADDIM1
  0
POINT
  5
4AB
330
4A2
100
AcDbEntity
  8
DEFPOINTS
 62
     0
100
AcDbPoint
 10
194.5000000000117
 20
261.2
 30
0.0
  0
POINT
  5
4AC
330
4A2
100
AcDbEntity
  8
DEFPOINTS
 62
     0
100
AcDbPoint
 10
293.5000000000118
 20
152.1999999999898
 30
0.0
  0
POINT
  5
4AD
330
4A2
100
AcDbEntity
  8
DEFPOINTS
 62
     0
100
AcDbPoint
 10
293.5000000000118
 20
326.2
 30
0.0
  0
ENDBLK
  5
4A4
330
4A2
100
AcDbEntity
  8
0
100
AcDbBlockEnd
  0
BLOCK
  5
4B0
330
4AF
100
AcDbEntity
  8
0
100
AcDbBlockBegin
  2
*D18
 70
     1
 10
0.0
 20
0.0
 30
0.0
  3
*D18
  1

  0
LINE
  5
4B2
330
4AF
100
AcDbEntity
  8
LAY-20
  6
CONTINUOUS
 62
     4
100
AcDbLine
 10
182.0000000000117
 20
296.2
 30
0.0
 11
414.0
 21
296.1999999999999
 31
0.0
  0
LINE
  5
4B3
330
4AF
100
AcDbEntity
  8
LAY-20
  6
CONTINUOUS
 62
     4
100
AcDbLine
 10
342.0000000000018
 20
136.1999999999898
 30
0.0
 11
414.0
 21
136.1999999999898
 31
0.0
  0
LINE
  5
4B4
330
4AF
100
AcDbEntity
  8
LAY-20
  6
CONTINUOUS
 62
     4
100
AcDbLine
 10
409.5
 20
288.6999999999999
 30
0.0
 11
409.5
 21
143.6999999999898
 31
0.0
  0
INSERT
  5
4B5
330
4AF
100
AcDbEntity
  8
LAY-20
 62
     4
100
AcDbBlockReference
  2
EX_BNORM
 10
409.5
 20
296.1999999999999
 30
0.0
 41
7.5
 42
7.5
 43
7.5
 50
90.0
  0
INSERT
  5
4B6
330
4AF
100
AcDbEntity
  8
LAY-20
 62
     4
100
AcDbBlockReference
  2
EX_BNORM
 10
409.5
 20
136.1999999999898
 30
0.0
 41
7.5
 42
7.5
 43
7.5
 50
270.0
  0
MTEXT
  5
4B7
330
4AF
100
AcDbEntity
  8
LAY-20
 62
     7
100
AcDbMText
 10
402.0
 20
216.1999999999948
 30
0.0
 40
9.3543312
 41
0.0
 71
     5
 72
     1
  1
160
  7
EXCADDIM1
 11
0.0
 21
1.0
 31
0.0
  0
POINT
  5
4B8
330
4AF
100
AcDbEntity
  8
DEFPOINTS
 62
     0
100
AcDbPoint
 10
177.5000000000117
 20
296.2
 30
0.0
  0
POINT
  5
4B9
330
4AF
100
AcDbEntity
  8
DEFPOINTS
 62
     0
100
AcDbPoint
 10
337.5000000000018
 20
136.1999999999898
 30
0.0
  0
POINT
  5
4BA
330
4AF
100
AcDbEntity
  8
DEFPOINTS
 62
     0
100
AcDbPoint
 10
409.5
 20
136.1999999999898
 30
0.0
  0
ENDBLK
  5
4B1
330
4AF
100
AcDbEntity
  8
0
100
AcDbBlockEnd
  0
BLOCK
  5
4BD
330
4BC
100
AcDbEntity
  8
0
100
AcDbBlockBegin
  2
*D19
 70
     1
 10
0.0
 20
0.0
 30
0.0
  3
*D19
  1

  0
LINE
  5
4BF
330
4BC
100
AcDbEntity
  8
LAY-20
  6
CONTINUOUS
 62
     4
100
AcDbLine
 10
307.0000000000118
 20
153.1999999999898
 30
0.0
 11
393.0
 21
153.1999999999898
 31
0.0
  0
LINE
  5
4C0
330
4BC
100
AcDbEntity
  8
LAY-20
  6
CONTINUOUS
 62
     4
100
AcDbLine
 10
198.0000000000117
 20
252.2
 30
0.0
 11
393.0
 21
252.2
 31
0.0
  0
LINE
  5
4C1
330
4BC
100
AcDbEntity
  8
LAY-20
  6
CONTINUOUS
 62
     4
100
AcDbLine
 10
388.5
 20
160.6999999999898
 30
0.0
 11
388.5
 21
244.7
 31
0.0
  0
INSERT
  5
4C2
330
4BC
100
AcDbEntity
  8
LAY-20
 62
     4
100
AcDbBlockReference
  2
EX_BNORM
 10
388.5
 20
153.1999999999898
 30
0.0
 41
7.5
 42
7.5
 43
7.5
 50
270.0
  0
INSERT
  5
4C3
330
4BC
100
AcDbEntity
  8
LAY-20
 62
     4
100
AcDbBlockReference
  2
EX_BNORM
 10
388.5
 20
252.2
 30
0.0
 41
7.5
 42
7.5
 43
7.5
 50
90.0
  0
MTEXT
  5
4C4
330
4BC
100
AcDbEntity
  8
LAY-20
 62
     7
100
AcDbMText
 10
381.0
 20
202.6999999999948
 30
0.0
 40
9.3543312
 41
0.0
 71
     5
 72
     1
  1
99
  7
EXCADDIM1
 11
0.0
 21
1.0
 31
0.0
  0
POINT
  5
4C5
330
4BC
100
AcDbEntity
  8
DEFPOINTS
 62
     0
100
AcDbPoint
 10
302.5000000000118
 20
153.1999999999898
 30
0.0
  0
POINT
  5
4C6
330
4BC
100
AcDbEntity
  8
DEFPOINTS
 62
     0
100
AcDbPoint
 10
193.5000000000117
 20
252.2
 30
0.0
  0
POINT
  5
4C7
330
4BC
100
AcDbEntity
  8
DEFPOINTS
 62
     0
100
AcDbPoint
 10
388.5
 20
252.2
 30
0.0
  0
ENDBLK
  5
4BE
330
4BC
100
AcDbEntity
  8
0
100
AcDbBlockEnd
  0
BLOCK
  5
4CA
330
4C9
100
AcDbEntity
  8
0
100
AcDbBlockBegin
  2
*D20
 70
     1
 10
0.0
 20
0.0
 30
0.0
  3
*D20
  1

  0
LINE
  5
4CC
330
4C9
100
AcDbEntity
  8
LAY-20
  6
CONTINUOUS
 62
     4
100
AcDbLine
 10
532.4999999998997
 20
290.6999999999999
 30
0.0
 11
532.4999999998997
 21
351.69999999999
 31
0.0
  0
LINE
  5
4CD
330
4C9
100
AcDbEntity
  8
LAY-20
  6
CONTINUOUS
 62
     4
100
AcDbLine
 10
802.5000000000795
 20
290.6999999999999
 30
0.0
 11
802.5000000000795
 21
351.69999999999
 31
0.0
  0
LINE
  5
4CE
330
4C9
100
AcDbEntity
  8
LAY-20
  6
CONTINUOUS
 62
     4
100
AcDbLine
 10
539.9999999998997
 20
347.19999999999
 30
0.0
 11
795.0000000000795
 21
347.19999999999
 31
0.0
  0
INSERT
  5
4CF
330
4C9
100
AcDbEntity
  8
LAY-20
 62
     4
100
AcDbBlockReference
  2
EX_BNORM
 10
532.4999999998997
 20
347.19999999999
 30
0.0
 41
7.5
 42
7.5
 43
7.5
 50
180.0
  0
INSERT
  5
4D0
330
4C9
100
AcDbEntity
  8
LAY-20
 62
     4
100
AcDbBlockReference
  2
EX_BNORM
 10
802.5000000000795
 20
347.19999999999
 30
0.0
 41
7.5
 42
7.5
 43
7.5
  0
MTEXT
  5
4D1
330
4C9
100
AcDbEntity
  8
LAY-20
 62
     7
100
AcDbMText
 10
667.4999999999897
 20
354.69999999999
 30
0.0
 40
9.3543312
 41
0.0
 71
     5
 72
     1
  1
270
  7
EXCADDIM1
  0
POINT
  5
4D2
330
4C9
100
AcDbEntity
  8
DEFPOINTS
 62
     0
100
AcDbPoint
 10
532.4999999998997
 20
286.1999999999999
 30
0.0
  0
POINT
  5
4D3
330
4C9
100
AcDbEntity
  8
DEFPOINTS
 62
     0
100
AcDbPoint
 10
802.5000000000795
 20
286.1999999999999
 30
0.0
  0
POINT
  5
4D4
330
4C9
100
AcDbEntity
  8
DEFPOINTS
 62
     0
100
AcDbPoint
 10
802.5000000000795
 20
347.19999999999
 30
0.0
  0
ENDBLK
  5
4CB
330
4C9
100
AcDbEntity
  8
0
100
AcDbBlockEnd
  0
BLOCK
  5
4D7
330
4D6
100
AcDbEntity
  8
0
100
AcDbBlockBegin
  2
*D21
 70
     1
 10
0.0
 20
0.0
 30
0.0
  3
*D21
  1

  0
LINE
  5
4D9
330
4D6
100
AcDbEntity
  8
LAY-20
  6
CONTINUOUS
 62
     4
100
AcDbLine
 10
750.4999999999782
 20
256.7000000000648
 30
0.0
 11
750.4999999999782
 21
330.69999999999
 31
0.0
  0
LINE
  5
4DA
330
4D6
100
AcDbEntity
  8
LAY-20
  6
CONTINUOUS
 62
     4
100
AcDbLine
 10
584.4999999999784
 20
256.7000000000648
 30
0.0
 11
584.4999999999784
 21
330.69999999999
 31
0.0
  0
LINE
  5
4DB
330
4D6
100
AcDbEntity
  8
LAY-20
  6
CONTINUOUS
 62
     4
100
AcDbLine
 10
742.9999999999782
 20
326.19999999999
 30
0.0
 11
591.9999999999784
 21
326.19999999999
 31
0.0
  0
INSERT
  5
4DC
330
4D6
100
AcDbEntity
  8
LAY-20
 62
     4
100
AcDbBlockReference
  2
EX_BNORM
 10
750.4999999999782
 20
326.19999999999
 30
0.0
 41
7.5
 42
7.5
 43
7.5
  0
INSERT
  5
4DD
330
4D6
100
AcDbEntity
  8
LAY-20
 62
     4
100
AcDbBlockReference
  2
EX_BNORM
 10
584.4999999999784
 20
326.19999999999
 30
0.0
 41
7.5
 42
7.5
 43
7.5
 50
180.0
  0
MTEXT
  5
4DE
330
4D6
100
AcDbEntity
  8
LAY-20
 62
     7
100
AcDbMText
 10
667.4999999999783
 20
333.6999999999899
 30
0.0
 40
9.3543312
 41
0.0
 71
     5
 72
     1
  1
166
  7
EXCADDIM1
  0
POINT
  5
4DF
330
4D6
100
AcDbEntity
  8
DEFPOINTS
 62
     0
100
AcDbPoint
 10
750.4999999999782
 20
252.2000000000648
 30
0.0
  0
POINT
  5
4E0
330
4D6
100
AcDbEntity
  8
DEFPOINTS
 62
     0
100
AcDbPoint
 10
584.4999999999784
 20
252.2000000000648
 30
0.0
  0
POINT
  5
4E1
330
4D6
100
AcDbEntity
  8
DEFPOINTS
 62
     0
100
AcDbPoint
 10
584.4999999999784
 20
326.19999999999
 30
0.0
  0
ENDBLK
  5
4D8
330
4D6
100
AcDbEntity
  8
0
100
AcDbBlockEnd
  0
BLOCK
  5
4E4
330
4E3
100
AcDbEntity
  8
0
100
AcDbBlockBegin
  2
*D22
 70
     1
 10
0.0
 20
0.0
 30
0.0
  3
*D22
  1

  0
LINE
  5
4E6
330
4E3
100
AcDbEntity
  8
LAY-20
  6
CONTINUOUS
 62
     4
100
AcDbLine
 10
169.500000000012
 20
299.6999999999999
 30
0.0
 11
169.500000000012
 21
330.7
 31
0.0
  0
LINE
  5
4E7
330
4E3
100
AcDbEntity
  8
LAY-20
  6
CONTINUOUS
 62
     4
100
AcDbLine
 10
169.500000000012
 20
326.2
 30
0.0
 11
177.5000000000119
 21
326.2
 31
0.0
  0
LINE
  5
4E8
330
4E3
100
AcDbEntity
  8
LAY-20
  6
CONTINUOUS
 62
     4
100
AcDbLine
 10
162.000000000012
 20
326.2
 30
0.0
 11
154.500000000012
 21
326.2
 31
0.0
  0
LINE
  5
4E9
330
4E3
100
AcDbEntity
  8
LAY-20
  6
CONTINUOUS
 62
     4
100
AcDbLine
 10
185.0000000000119
 20
326.2
 30
0.0
 11
192.5000000000119
 21
326.2
 31
0.0
  0
INSERT
  5
4EA
330
4E3
100
AcDbEntity
  8
LAY-20
 62
     4
100
AcDbBlockReference
  2
EX_BNORM
 10
169.500000000012
 20
326.2
 30
0.0
 41
7.5
 42
7.5
 43
7.5
  0
INSERT
  5
4EB
330
4E3
100
AcDbEntity
  8
LAY-20
 62
     4
100
AcDbBlockReference
  2
EX_BCIR
 10
177.5000000000119
 20
326.2
 30
0.0
 41
7.5
 42
7.5
 43
7.5
 50
180.0
  0
MTEXT
  5
4EC
330
4E3
100
AcDbEntity
  8
LAY-20
 62
     7
100
AcDbMText
 10
156.000000000012
 20
333.7
 30
0.0
 40
9.3543312
 41
0.0
 71
     5
 72
     1
  1
8
  7
EXCADDIM1
  0
POINT
  5
4ED
330
4E3
100
AcDbEntity
  8
DEFPOINTS
 62
     0
100
AcDbPoint
 10
169.500000000012
 20
295.1999999999999
 30
0.0
  0
POINT
  5
4EE
330
4E3
100
AcDbEntity
  8
DEFPOINTS
 62
     0
100
AcDbPoint
 10
177.5000000000119
 20
338.1999999999999
 30
0.0
  0
POINT
  5
4EF
330
4E3
100
AcDbEntity
  8
DEFPOINTS
 62
     0
100
AcDbPoint
 10
177.5000000000119
 20
326.2
 30
0.0
  0
ENDBLK
  5
4E5
330
4E3
100
AcDbEntity
  8
0
100
AcDbBlockEnd
  0
BLOCK
  5
4F2
330
4F1
100
AcDbEntity
  8
0
100
AcDbBlockBegin
  2
*D23
 70
     1
 10
0.0
 20
0.0
 30
0.0
  3
*D23
  1

  0
LINE
  5
4F4
330
4F1
100
AcDbEntity
  8
LAY-20
  6
CONTINUOUS
 62
     4
100
AcDbLine
 10
341.0000000000018
 20
128.2000000000899
 30
0.0
 11
393.0
 21
128.2000000000899
 31
0.0
  0
LINE
  5
4F5
330
4F1
100
AcDbEntity
  8
LAY-20
  6
CONTINUOUS
 62
     4
100
AcDbLine
 10
388.5
 20
128.2000000000899
 30
0.0
 11
388.5
 21
136.1999999999898
 31
0.0
  0
LINE
  5
4F6
330
4F1
100
AcDbEntity
  8
LAY-20
  6
CONTINUOUS
 62
     4
100
AcDbLine
 10
388.5
 20
120.7000000000899
 30
0.0
 11
388.5
 21
113.2000000000899
 31
0.0
  0
LINE
  5
4F7
330
4F1
100
AcDbEntity
  8
LAY-20
  6
CONTINUOUS
 62
     4
100
AcDbLine
 10
388.5
 20
143.6999999999898
 30
0.0
 11
388.5
 21
151.1999999999898
 31
0.0
  0
INSERT
  5
4F8
330
4F1
100
AcDbEntity
  8
LAY-20
 62
     4
100
AcDbBlockReference
  2
EX_BNORM
 10
388.5
 20
128.2000000000899
 30
0.0
 41
7.5
 42
7.5
 43
7.5
 50
90.0
  0
INSERT
  5
4F9
330
4F1
100
AcDbEntity
  8
LAY-20
 62
     4
100
AcDbBlockReference
  2
EX_BCIR
 10
388.5
 20
136.1999999999898
 30
0.0
 41
7.5
 42
7.5
 43
7.5
 50
270.0
  0
MTEXT
  5
4FA
330
4F1
100
AcDbEntity
  8
LAY-20
 62
     7
100
AcDbMText
 10
379.5000000000002
 20
109.9600000000901
 30
0.0
 40
9.3543312
 41
0.0
 71
     5
 72
     1
  1
8
  7
EXCADDIM1
 11
0.0
 21
1.0
 31
0.0
  0
POINT
  5
4FB
330
4F1
100
AcDbEntity
  8
DEFPOINTS
 62
     0
100
AcDbPoint
 10
336.5000000000018
 20
128.2000000000899
 30
0.0
  0
POINT
  5
4FC
330
4F1
100
AcDbEntity
  8
DEFPOINTS
 62
     0
100
AcDbPoint
 10
421.5000000000017
 20
136.1999999999898
 30
0.0
  0
POINT
  5
4FD
330
4F1
100
AcDbEntity
  8
DEFPOINTS
 62
     0
100
AcDbPoint
 10
388.5
 20
136.1999999999898
 30
0.0
  0
ENDBLK
  5
4F3
330
4F1
100
AcDbEntity
  8
0
100
AcDbBlockEnd
  0
BLOCK
  5
500
330
4FF
100
AcDbEntity
  8
0
100
AcDbBlockBegin
  2
*D24
 70
     1
 10
0.0
 20
0.0
 30
0.0
  3
*D24
  1

  0
LINE
  5
502
330
4FF
100
AcDbEntity
  8
LAY-20
  6
CONTINUOUS
 62
     4
100
AcDbLine
 10
177.5000000000117
 20
326.2
 30
0.0
 11
194.5000000000117
 21
326.2
 31
0.0
  0
MTEXT
  5
503
330
4FF
100
AcDbEntity
  8
LAY-20
 62
     7
100
AcDbMText
 10
186.0000000000118
 20
333.7
 30
0.0
 40
9.3543312
 41
0.0
 71
     5
 72
     1
  1
17
  7
EXCADDIM1
  0
POINT
  5
504
330
4FF
100
AcDbEntity
  8
DEFPOINTS
 62
     0
100
AcDbPoint
 10
177.5000000000117
 20
338.1999999999999
 30
0.0
  0
POINT
  5
505
330
4FF
100
AcDbEntity
  8
DEFPOINTS
 62
     0
100
AcDbPoint
 10
194.5000000000117
 20
338.1999999999999
 30
0.0
  0
POINT
  5
506
330
4FF
100
AcDbEntity
  8
DEFPOINTS
 62
     0
100
AcDbPoint
 10
194.5000000000117
 20
326.2
 30
0.0
  0
ENDBLK
  5
501
330
4FF
100
AcDbEntity
  8
0
100
AcDbBlockEnd
  0
BLOCK
  5
509
330
508
100
AcDbEntity
  8
0
100
AcDbBlockBegin
  2
*D25
 70
     1
 10
0.0
 20
0.0
 30
0.0
  3
*D25
  1

  0
LINE
  5
50B
330
508
100
AcDbEntity
  8
LAY-20
  6
CONTINUOUS
 62
     4
100
AcDbLine
 10
388.5
 20
136.1999999999898
 30
0.0
 11
388.5
 21
153.1999999999898
 31
0.0
  0
MTEXT
  5
50C
330
508
100
AcDbEntity
  8
LAY-20
 62
     7
100
AcDbMText
 10
381.0
 20
144.6999999999898
 30
0.0
 40
9.3543312
 41
0.0
 71
     5
 72
     1
  1
17
  7
EXCADDIM1
 11
0.0
 21
1.0
 31
0.0
  0
POINT
  5
50D
330
508
100
AcDbEntity
  8
DEFPOINTS
 62
     0
100
AcDbPoint
 10
421.5000000000017
 20
136.1999999999898
 30
0.0
  0
POINT
  5
50E
330
508
100
AcDbEntity
  8
DEFPOINTS
 62
     0
100
AcDbPoint
 10
421.5000000000017
 20
153.1999999999898
 30
0.0
  0
POINT
  5
50F
330
508
100
AcDbEntity
  8
DEFPOINTS
 62
     0
100
AcDbPoint
 10
388.5
 20
153.1999999999898
 30
0.0
  0
ENDBLK
  5
50A
330
508
100
AcDbEntity
  8
0
100
AcDbBlockEnd
  0
BLOCK
  5
512
330
511
100
AcDbEntity
  8
0
100
AcDbBlockBegin
  2
*D26
 70
     1
 10
0.0
 20
0.0
 30
0.0
  3
*D26
  1

  0
LINE
  5
514
330
511
100
AcDbEntity
  8
LAY-20
  6
CONTINUOUS
 62
     4
100
AcDbLine
 10
172.0000000000118
 20
173.6999999999996
 30
0.0
 11
372.0
 21
173.6999999999996
 31
0.0
  0
LINE
  5
515
330
511
100
AcDbEntity
  8
LAY-20
  6
CONTINUOUS
 62
     4
100
AcDbLine
 10
367.5
 20
166.1999999999996
 30
0.0
 11
367.5
 21
143.6999999999898
 31
0.0
  0
INSERT
  5
516
330
511
100
AcDbEntity
  8
LAY-20
 62
     4
100
AcDbBlockReference
  2
EX_BNORM
 10
367.5
 20
173.6999999999996
 30
0.0
 41
7.5
 42
7.5
 43
7.5
 50
90.0
  0
INSERT
  5
517
330
511
100
AcDbEntity
  8
LAY-20
 62
     4
100
AcDbBlockReference
  2
EX_BNORM
 10
367.5
 20
136.1999999999898
 30
0.0
 41
7.5
 42
7.5
 43
7.5
 50
270.0
  0
MTEXT
  5
518
330
511
100
AcDbEntity
  8
LAY-20
 62
     7
100
AcDbMText
 10
360.0000000000001
 20
197.6999999999995
 30
0.0
 40
9.3543312
 41
0.0
 71
     5
 72
     1
  1
37.5
  7
EXCADDIM1
 11
0.0
 21
1.0
 31
0.0
  0
POINT
  5
519
330
511
100
AcDbEntity
  8
DEFPOINTS
 62
     0
100
AcDbPoint
 10
167.5000000000117
 20
173.6999999999996
 30
0.0
  0
POINT
  5
51A
330
511
100
AcDbEntity
  8
DEFPOINTS
 62
     0
100
AcDbPoint
 10
379.5000000000017
 20
136.1999999999898
 30
0.0
  0
POINT
  5
51B
330
511
100
AcDbEntity
  8
DEFPOINTS
 62
     0
100
AcDbPoint
 10
367.5
 20
136.1999999999898
 30
0.0
  0
ENDBLK
  5
513
330
511
100
AcDbEntity
  8
0
100
AcDbBlockEnd
  0
BLOCK
  5
51E
330
51D
100
AcDbEntity
  8
0
100
AcDbBlockBegin
  2
*D27
 70
     1
 10
0.0
 20
0.0
 30
0.0
  3
*D27
  1

  0
LINE
  5
520
330
51D
100
AcDbEntity
  8
LAY-20
  6
CONTINUOUS
 62
     4
100
AcDbLine
 10
121.8505494921273
 20
229.2820644179344
 30
0.0
 11
60.86188531845624
 21
228.0400309277181
 31
0.0
  0
LINE
  5
521
330
51D
100
AcDbEntity
  8
LAY-20
  6
CONTINUOUS
 62
     4
100
AcDbLine
 10
124.1513162250373
 20
116.3054895342843
 30
0.0
 11
63.16265205136641
 21
115.0634560440681
 31
0.0
  0
LINE
  5
522
330
51D
100
AcDbEntity
  8
LAY-20
  6
CONTINUOUS
 62
     4
100
AcDbLine
 10
65.51365821644957
 20
220.6332091460431
 30
0.0
 11
67.50901343614159
 21
122.653524733674
 31
0.0
  0
INSERT
  5
523
330
51D
100
AcDbEntity
  8
LAY-20
 62
     4
100
AcDbBlockReference
  2
EX_BNORM
 10
65.36095245984049
 20
228.1316543816835
 30
0.0
 41
7.5
 42
7.5
 43
7.5
 50
91.16666666666576
  0
INSERT
  5
524
330
51D
100
AcDbEntity
  8
LAY-20
 62
     4
100
AcDbBlockReference
  2
EX_BNORM
 10
67.66171919275067
 20
115.1550794980336
 30
0.0
 41
7.5
 42
7.5
 43
7.5
 50
271.1666666666657
  0
MTEXT
  5
525
330
51D
100
AcDbEntity
  8
LAY-20
 62
     7
100
AcDbMText
 10
57.51320154352726
 20
171.4601200319273
 30
0.0
 40
9.3543312
 41
0.0
 71
     5
 72
     1
  1
Rｃ4（113.0)
  7
EXCADDIM1
 11
0.02036076754787748
 21
-0.9997926980853888
 31
0.0
  0
POINT
  5
526
330
51D
100
AcDbEntity
  8
DEFPOINTS
 62
     0
100
AcDbPoint
 10
126.3496166335116
 20
229.3736878718998
 30
0.0
  0
POINT
  5
527
330
51D
100
AcDbEntity
  8
DEFPOINTS
 62
     0
100
AcDbPoint
 10
128.6503833664216
 20
116.3971129882498
 30
0.0
  0
POINT
  5
528
330
51D
100
AcDbEntity
  8
DEFPOINTS
 62
     0
100
AcDbPoint
 10
67.66171919275067
 20
115.1550794980336
 30
0.0
  0
ENDBLK
  5
51F
330
51D
100
AcDbEntity
  8
0
100
AcDbBlockEnd
  0
BLOCK
  5
52B
330
52A
100
AcDbEntity
  8
0
100
AcDbBlockBegin
  2
*D28
 70
     1
 10
0.0
 20
0.0
 30
0.0
  3
*D28
  1

  0
LINE
  5
52D
330
52A
100
AcDbEntity
  8
LAY-20
  6
CONTINUOUS
 62
     4
100
AcDbLine
 10
111.000000000012
 20
173.6999999999996
 30
0.0
 11
82.98341240820018
 21
173.6999999999996
 31
0.0
  0
LINE
  5
52E
330
52A
100
AcDbEntity
  8
LAY-20
  6
CONTINUOUS
 62
     4
100
AcDbLine
 10
111.0013474624577
 20
172.5494055484303
 30
0.0
 11
83.00093285862593
 21
171.9791774060265
 31
0.0
  0
ARC
  5
52F
330
52A
100
AcDbEntity
  8
LAY-20
  6
CONTINUOUS
 62
     4
100
AcDbCircle
 10
167.5000000000117
 20
173.6999999999996
 30
0.0
 40
80.01658759181156
100
AcDbArc
 50
169.2553327433578
 51
174.6276663716789
  0
ARC
  5
530
330
52A
100
AcDbEntity
  8
LAY-20
  6
CONTINUOUS
 62
     4
100
AcDbCircle
 10
167.5000000000117
 20
173.6999999999996
 30
0.0
 40
80.01658759181156
100
AcDbArc
 50
186.5390002950387
 51
191.9113339233597
  0
ARC
  5
531
330
52A
100
AcDbEntity
  8
LAY-20
  6
CONTINUOUS
 62
     4
100
AcDbCircle
 10
167.5000000000117
 20
173.6999999999996
 30
0.0
 40
80.01658759181156
100
AcDbArc
 50
180.0
 51
181.1666666667176
  0
INSERT
  5
532
330
52A
100
AcDbEntity
  8
LAY-20
 62
     4
100
AcDbBlockReference
  2
EX_BNORM
 10
87.48341240820018
 20
173.6999999999996
 30
0.0
 41
7.5
 42
7.5
 43
7.5
 50
267.3138331858394
  0
INSERT
  5
533
330
52A
100
AcDbEntity
  8
LAY-20
 62
     4
100
AcDbBlockReference
  2
EX_BNORM
 10
87.50000000001009
 20
172.070800859996
 30
0.0
 41
7.5
 42
7.5
 43
7.5
 50
93.8528334808781
  0
MTEXT
  5
534
330
52A
100
AcDbEntity
  8
LAY-20
 62
     7
100
AcDbMText
 10
84.3899960036706
 20
201.1204365290443
 30
0.0
 40
9.3543312
 41
0.0
 71
     5
 72
     1
  1
1%%d10'
  7
EXCADDIM1
 11
0.3133170211907384
 21
0.9496485898647785
 31
0.0
  0
POINT
  5
535
330
52A
100
AcDbEntity
  8
DEFPOINTS
 62
     0
100
AcDbPoint
 10
167.5000000000117
 20
173.6999999999996
 30
0.0
  0
POINT
  5
536
330
52A
100
AcDbEntity
  8
DEFPOINTS
 62
     0
100
AcDbPoint
 10
115.500000000012
 20
173.6999999999996
 30
0.0
  0
POINT
  5
537
330
52A
100
AcDbEntity
  8
DEFPOINTS
 62
     0
100
AcDbPoint
 10
115.5004146038418
 20
172.6410290023998
 30
0.0
  0
POINT
  5
538
330
52A
100
AcDbEntity
  8
DEFPOINTS
 62
     0
100
AcDbPoint
 10
87.49078481274158
 20
172.6138255411087
 30
0.0
  0
ENDBLK
  5
52C
330
52A
100
AcDbEntity
  8
0
100
AcDbBlockEnd
  0
BLOCK
  5
53B
330
53A
100
AcDbEntity
  8
0
100
AcDbBlockBegin
  2
*D29
 70
     1
 10
0.0
 20
0.0
 30
0.0
  3
*D29
  1

  0
LINE
  5
53D
330
53A
100
AcDbEntity
  8
LAY-20
  6
CONTINUOUS
 62
     4
100
AcDbLine
 10
171.9999999999
 20
103.19999999999
 30
0.0
 11
414.0
 21
103.19999999999
 31
0.0
  0
LINE
  5
53E
330
53A
100
AcDbEntity
  8
LAY-20
  6
CONTINUOUS
 62
     4
100
AcDbLine
 10
409.5
 20
127.19999999999
 30
0.0
 11
409.5
 21
112.19999999999
 31
0.0
  0
INSERT
  5
53F
330
53A
100
AcDbEntity
  8
LAY-20
 62
     4
100
AcDbBlockReference
  2
EX_BNORM
 10
409.5
 20
136.19999999999
 30
0.0
 41
9.0
 42
9.0
 43
9.0
 50
90.0
  0
INSERT
  5
540
330
53A
100
AcDbEntity
  8
LAY-20
 62
     4
100
AcDbBlockReference
  2
EX_BNORM
 10
409.5
 20
103.19999999999
 30
0.0
 41
9.0
 42
9.0
 43
9.0
 50
270.0
  0
MTEXT
  5
541
330
53A
100
AcDbEntity
  8
LAY-20
 62
     7
100
AcDbMText
 10
402.0
 20
119.69999999999
 30
0.0
 40
9.3543312
 41
0.0
 71
     5
 72
     1
  1
33
  7
EXCADDIM1
 11
0.0
 21
1.0
 31
0.0
  0
POINT
  5
542
330
53A
100
AcDbEntity
  8
DEFPOINTS
 62
     0
100
AcDbPoint
 10
409.5
 20
136.19999999999
 30
0.0
  0
POINT
  5
543
330
53A
100
AcDbEntity
  8
DEFPOINTS
 62
     0
100
AcDbPoint
 10
167.4999999999
 20
103.19999999999
 30
0.0
  0
POINT
  5
544
330
53A
100
AcDbEntity
  8
DEFPOINTS
 62
     0
100
AcDbPoint
 10
409.5
 20
103.19999999999
 30
0.0
  0
ENDBLK
  5
53C
330
53A
100
AcDbEntity
  8
0
100
AcDbBlockEnd
  0
ENDSEC
  0
SECTION
  2
ENTITIES
  0
LINE
  5
D4
330
1F
100
AcDbEntity
  8
LAY-10
  6
CONTINUOUS
 62
     7
100
AcDbLine
 10
117.5000000000122
 20
241.5822509939096
 30
0.0
 11
119.7195739523451
 21
243.8018249462424
 31
0.0
  0
LINE
  5
D5
330
1F
100
AcDbEntity
  8
LAY-10
  6
CONTINUOUS
 62
     7
100
AcDbLine
 10
118.0480010770892
 20
239.3018249462402
 30
0.0
 11
122.548001077086
 21
243.8018249462372
 31
0.0
  0
LINE
  5
D6
330
1F
100
AcDbEntity
  8
LAY-10
  6
CONTINUOUS
 62
     7
100
AcDbLine
 10
120.8764282018382
 20
239.3018249462427
 30
0.0
 11
125.376428201835
 21
243.8018249462397
 31
0.0
  0
LINE
  5
D7
330
1F
100
AcDbEntity
  8
LAY-10
  6
CONTINUOUS
 62
     7
100
AcDbLine
 10
123.7048553265794
 20
239.3018249462376
 30
0.0
 11
128.2048553265839
 21
243.8018249462422
 31
0.0
  0
LINE
  5
D8
330
1F
100
AcDbEntity
  8
LAY-10
  6
CONTINUOUS
 62
     7
100
AcDbLine
 10
126.5332824513281
 20
239.3018249462399
 30
0.0
 11
131.0332824513249
 21
243.801824946237
 31
0.0
  0
LINE
  5
D9
330
1F
100
AcDbEntity
  8
LAY-10
  6
CONTINUOUS
 62
     7
100
AcDbLine
 10
129.3617095760768
 20
239.3018249462427
 30
0.0
 11
133.8617095760738
 21
243.8018249462395
 31
0.0
  0
LINE
  5
DA
330
1F
100
AcDbEntity
  8
LAY-10
  6
CONTINUOUS
 62
     7
100
AcDbLine
 10
132.1901367008178
 20
239.3018249462374
 30
0.0
 11
136.6901367008223
 21
243.801824946242
 31
0.0
  0
LINE
  5
DB
330
1F
100
AcDbEntity
  8
LAY-10
  6
CONTINUOUS
 62
     7
100
AcDbLine
 10
135.0185638255667
 20
239.3018249462399
 30
0.0
 11
139.5185638255635
 21
243.801824946237
 31
0.0
  0
LINE
  5
DC
330
1F
100
AcDbEntity
  8
LAY-10
  6
CONTINUOUS
 62
     7
100
AcDbLine
 10
137.8469909503154
 20
239.3018249462427
 30
0.0
 11
142.3469909503125
 21
243.8018249462393
 31
0.0
  0
LINE
  5
DD
330
1F
100
AcDbEntity
  8
LAY-10
  6
CONTINUOUS
 62
     7
100
AcDbLine
 10
140.6754180750567
 20
239.3018249462372
 30
0.0
 11
145.1754180750612
 21
243.801824946242
 31
0.0
  0
LINE
  5
DE
330
1F
100
AcDbEntity
  8
LAY-10
  6
CONTINUOUS
 62
     7
100
AcDbLine
 10
143.5038451998054
 20
239.3018249462399
 30
0.0
 11
148.0038451998024
 21
243.8018249462368
 31
0.0
  0
LINE
  5
DF
330
1F
100
AcDbEntity
  8
LAY-10
  6
CONTINUOUS
 62
     7
100
AcDbLine
 10
146.3322723245543
 20
239.3018249462422
 30
0.0
 11
150.8322723245511
 21
243.8018249462393
 31
0.0
  0
LINE
  5
E0
330
1F
100
AcDbEntity
  8
LAY-10
  6
CONTINUOUS
 62
     7
100
AcDbLine
 10
149.1606994493028
 20
239.3018249462449
 30
0.0
 11
153.6606994492921
 21
243.8018249462342
 31
0.0
  0
LINE
  5
E1
330
1F
100
AcDbEntity
  8
LAY-10
  6
CONTINUOUS
 62
     7
100
AcDbLine
 10
151.989126574044
 20
239.3018249462399
 30
0.0
 11
156.4891265740408
 21
243.8018249462365
 31
0.0
  0
LINE
  5
E2
330
1F
100
AcDbEntity
  8
LAY-10
  6
CONTINUOUS
 62
     7
100
AcDbLine
 10
154.8175536987927
 20
239.3018249462422
 30
0.0
 11
159.3175536987898
 21
243.8018249462393
 31
0.0
  0
LINE
  5
E3
330
1F
100
AcDbEntity
  8
LAY-10
  6
CONTINUOUS
 62
     7
100
AcDbLine
 10
157.6459808235417
 20
239.3018249462447
 30
0.0
 11
162.145980823531
 21
243.8018249462338
 31
0.0
  0
LINE
  5
E4
330
1F
100
AcDbEntity
  8
LAY-10
  6
CONTINUOUS
 62
     7
100
AcDbLine
 10
160.4744079482829
 20
239.3018249462395
 30
0.0
 11
162.4999999999101
 21
241.3274169978667
 31
0.0
  0
LINE
  5
E5
330
1F
100
AcDbEntity
  8
LAY-10
  6
CONTINUOUS
 62
     7
100
AcDbLine
 10
117.5000000000131
 20
105.8177490060913
 30
0.0
 11
119.9840759401596
 21
108.3018249462377
 31
0.0
  0
LINE
  5
E6
330
1F
100
AcDbEntity
  8
LAY-10
  6
CONTINUOUS
 62
     7
100
AcDbLine
 10
118.3125030649038
 20
103.8018249462356
 30
0.0
 11
122.8125030649086
 21
108.3018249462403
 31
0.0
  0
LINE
  5
E7
330
1F
100
AcDbEntity
  8
LAY-10
  6
CONTINUOUS
 62
     7
100
AcDbLine
 10
121.1409301896525
 20
103.801824946238
 30
0.0
 11
125.6409301896571
 21
108.3018249462427
 31
0.0
  0
LINE
  5
E8
330
1F
100
AcDbEntity
  8
LAY-10
  6
CONTINUOUS
 62
     7
100
AcDbLine
 10
123.9693573144014
 20
103.8018249462407
 30
0.0
 11
128.4693573143983
 21
108.3018249462377
 31
0.0
  0
LINE
  5
E9
330
1F
100
AcDbEntity
  8
LAY-10
  6
CONTINUOUS
 62
     7
100
AcDbLine
 10
126.7977844391424
 20
103.8018249462355
 30
0.0
 11
131.297784439147
 21
108.3018249462401
 31
0.0
  0
LINE
  5
EA
330
1F
100
AcDbEntity
  8
LAY-10
  6
CONTINUOUS
 62
     7
100
AcDbLine
 10
129.6262115638914
 20
103.801824946238
 30
0.0
 11
134.1262115638959
 21
108.3018249462427
 31
0.0
  0
LINE
  5
EB
330
1F
100
AcDbEntity
  8
LAY-10
  6
CONTINUOUS
 62
     7
100
AcDbLine
 10
132.4546386886401
 20
103.8018249462406
 30
0.0
 11
136.9546386886369
 21
108.3018249462373
 31
0.0
  0
LINE
  5
EC
330
1F
100
AcDbEntity
  8
LAY-10
  6
CONTINUOUS
 62
     7
100
AcDbLine
 10
135.2830658133813
 20
103.8018249462353
 30
0.0
 11
139.7830658133859
 21
108.3018249462399
 31
0.0
  0
LINE
  5
ED
330
1F
100
AcDbEntity
  8
LAY-10
  6
CONTINUOUS
 62
     7
100
AcDbLine
 10
138.11149293813
 20
103.8018249462379
 30
0.0
 11
142.6114929381346
 21
108.3018249462424
 31
0.0
  0
LINE
  5
EE
330
1F
100
AcDbEntity
  8
LAY-10
  6
CONTINUOUS
 62
     7
100
AcDbLine
 10
140.9399200628787
 20
103.8018249462403
 30
0.0
 11
145.4399200628835
 21
108.301824946245
 31
0.0
  0
LINE
  5
EF
330
1F
100
AcDbEntity
  8
LAY-10
  6
CONTINUOUS
 62
     7
100
AcDbLine
 10
143.7683471876275
 20
103.801824946243
 30
0.0
 11
148.2683471876245
 21
108.3018249462399
 31
0.0
  0
LINE
  5
F0
330
1F
100
AcDbEntity
  8
LAY-10
  6
CONTINUOUS
 62
     7
100
AcDbLine
 10
146.5967743123687
 20
103.8018249462379
 30
0.0
 11
151.0967743123734
 21
108.3018249462424
 31
0.0
  0
LINE
  5
F1
330
1F
100
AcDbEntity
  8
LAY-10
  6
CONTINUOUS
 62
     7
100
AcDbLine
 10
149.4252014371174
 20
103.8018249462403
 30
0.0
 11
153.9252014371222
 21
108.3018249462448
 31
0.0
  0
LINE
  5
F2
330
1F
100
AcDbEntity
  8
LAY-10
  6
CONTINUOUS
 62
     7
100
AcDbLine
 10
152.2536285618663
 20
103.8018249462428
 30
0.0
 11
156.7536285618634
 21
108.3018249462397
 31
0.0
  0
LINE
  5
F3
330
1F
100
AcDbEntity
  8
LAY-10
  6
CONTINUOUS
 62
     7
100
AcDbLine
 10
155.0820556866073
 20
103.8018249462375
 30
0.0
 11
159.5820556866119
 21
108.3018249462421
 31
0.0
  0
LINE
  5
F4
330
1F
100
AcDbEntity
  8
LAY-10
  6
CONTINUOUS
 62
     7
100
AcDbLine
 10
157.910482811356
 20
103.8018249462401
 30
0.0
 11
162.4104828113608
 21
108.3018249462447
 31
0.0
  0
LINE
  5
F5
330
1F
100
AcDbEntity
  8
LAY-10
  6
CONTINUOUS
 62
     7
100
AcDbLine
 10
160.738909936105
 20
103.8018249462428
 30
0.0
 11
162.4999999999108
 21
105.5629150100487
 31
0.0
  0
LINE
  5
F6
330
1F
100
AcDbEntity
  8
LAY-10
  6
CONTINUOUS
 62
     7
100
AcDbLine
 10
148.847384429372
 20
227.6295983591603
 30
0.0
 11
127.9292090964499
 21
227.8571481085064
 31
0.0
  0
LINE
  5
F7
330
1F
100
AcDbEntity
  8
LAY-10
  6
CONTINUOUS
 62
     7
100
AcDbLine
 10
126.3496166335557
 20
229.3736878718982
 30
0.0
 11
127.9292090964499
 21
227.8571481085064
 31
0.0
  0
LINE
  5
F8
330
1F
100
AcDbEntity
  8
LAY-10
  6
CONTINUOUS
 62
     7
100
AcDbLine
 10
127.9292090964121
 20
227.8571481084795
 30
0.0
 11
130.1669231298123
 21
117.9767054510794
 31
0.0
  0
LINE
  5
F9
330
1F
100
AcDbEntity
  8
LAY-10
  6
CONTINUOUS
 62
     7
100
AcDbLine
 10
128.6503833664691
 20
116.3971129882344
 30
0.0
 11
130.1669231298609
 21
117.976705451129
 31
0.0
  0
LINE
  5
FA
330
1F
100
AcDbEntity
  8
LAY-10
  6
CONTINUOUS
 62
     7
100
AcDbLine
 10
151.0584904952669
 20
119.0557101610371
 30
0.0
 11
130.1669231298609
 21
117.976705451129
 31
0.0
  0
LINE
  5
FB
330
1F
100
AcDbEntity
  8
LAY-10
  6
CONTINUOUS
 62
     7
100
AcDbLine
 10
150.5541992703824
 20
121.3441170156803
 30
0.0
 11
148.4366794453998
 21
225.3225576165605
 31
0.0
  0
ARC
  5
FC
330
1F
100
AcDbEntity
  8
LAY-10
  6
CONTINUOUS
 62
     7
100
AcDbCircle
 10
156.5529554588951
 20
121.4662816209675
 30
0.0
 40
6.0
100
AcDbArc
 50
181.1666666666678
 51
271.1666666666674
  0
LINE
  5
FD
330
1F
100
AcDbEntity
  8
LAY-10
  6
CONTINUOUS
 62
     7
100
AcDbLine
 10
158.6747054603533
 20
115.5082469675513
 30
0.0
 11
156.6751200641824
 21
115.4675254324553
 31
0.0
  0
ARC
  5
FE
330
1F
100
AcDbEntity
  8
LAY-10
  6
CONTINUOUS
 62
     7
100
AcDbCircle
 10
158.6136231577096
 20
118.5076250618072
 30
0.0
 40
3.0
100
AcDbArc
 50
271.1666666666669
 51
1.166666666666694
  0
LINE
  5
FF
330
1F
100
AcDbEntity
  8
LAY-10
  6
CONTINUOUS
 62
     7
100
AcDbLine
 10
159.3733168216953
 20
228.5459041538437
 30
0.0
 11
161.6130012519656
 21
118.5687073644513
 31
0.0
  0
ARC
  5
100
330
1F
100
AcDbEntity
  8
LAY-10
  6
CONTINUOUS
 62
     7
100
AcDbCircle
 10
154.4354356339121
 20
225.4447222218481
 30
0.0
 40
6.0
100
AcDbArc
 50
91.16666666666724
 51
181.1666666666678
  0
LINE
  5
101
330
1F
100
AcDbEntity
  8
LAY-10
  6
CONTINUOUS
 62
     7
100
AcDbLine
 10
154.3132710286249
 20
231.4434784103605
 30
0.0
 11
156.3128564247953
 21
231.484199945456
 31
0.0
  0
ARC
  5
102
330
1F
100
AcDbEntity
  8
LAY-10
  6
CONTINUOUS
 62
     7
100
AcDbCircle
 10
156.3739387274394
 20
228.4848218512001
 30
0.0
 40
3.0
100
AcDbArc
 50
1.166666666667783
 51
91.16666666666671
  0
LINE
  5
103
330
1F
100
AcDbEntity
  8
LAY-10
  6
CONTINUOUS
 62
     7
100
AcDbLine
 10
302.5000000000119
 20
123.1999999999871
 30
0.0
 11
312.5000000000119
 21
123.1999999999871
 31
0.0
  0
LINE
  5
104
330
1F
100
AcDbEntity
  8
LAY-10
  6
CONTINUOUS
 62
     7
100
AcDbLine
 10
318.7500000000024
 20
128.2000000000876
 30
0.0
 11
336.5000000000024
 21
128.2000000000876
 31
0.0
  0
ARC
  5
105
330
1F
100
AcDbEntity
  8
LAY-10
  6
CONTINUOUS
 62
     7
100
AcDbCircle
 10
323.2015621187271
 20
129.1999999999862
 30
0.0
 40
2.0
100
AcDbArc
 50
90.00000000000001
 51
128.6598082540911
  0
ARC
  5
106
330
1F
100
AcDbEntity
  8
LAY-10
  6
CONTINUOUS
 62
     7
100
AcDbCircle
 10
298.9384471872032
 20
129.1999999999871
 30
0.0
 40
2.0
100
AcDbArc
 50
14.03624346792687
 51
89.99999999999996
  0
LINE
  5
107
330
1F
100
AcDbEntity
  8
LAY-10
  6
CONTINUOUS
 62
     7
100
AcDbLine
 10
300.8787321874948
 20
129.6850712500578
 30
0.0
 11
302.5000000000119
 21
123.1999999999871
 31
0.0
  0
LINE
  5
108
330
1F
100
AcDbEntity
  8
LAY-10
  6
CONTINUOUS
 62
     7
100
AcDbLine
 10
321.9521720236072
 20
130.7617376188637
 30
0.0
 11
312.5000000000119
 21
123.1999999999871
 31
0.0
  0
LINE
  5
109
330
1F
100
AcDbEntity
  8
LAY-10
  6
CONTINUOUS
 62
     7
100
AcDbLine
 10
164.5000000000122
 20
273.6999999999902
 30
0.0
 11
164.5000000000122
 21
258.6999999999902
 31
0.0
  0
LINE
  5
10A
330
1F
100
AcDbEntity
  8
LAY-10
  6
CONTINUOUS
 62
     7
100
AcDbLine
 10
169.5000000000117
 20
279.9499999999998
 30
0.0
 11
169.5000000000117
 21
295.1999999999998
 31
0.0
  0
ARC
  5
10B
330
1F
100
AcDbEntity
  8
LAY-10
  6
CONTINUOUS
 62
     7
100
AcDbCircle
 10
170.5000000000122
 20
255.138447187181
 30
0.0
 40
2.0
100
AcDbArc
 50
0.0
 51
75.96375653207356
  0
ARC
  5
10C
330
1F
100
AcDbEntity
  8
LAY-10
  6
CONTINUOUS
 62
     7
100
AcDbCircle
 10
170.5000000000122
 20
284.4015621187063
 30
0.0
 40
2.0
100
AcDbArc
 50
321.3401917459109
 51
0.0
  0
LINE
  5
10D
330
1F
100
AcDbEntity
  8
LAY-10
  6
CONTINUOUS
 62
     7
100
AcDbLine
 10
170.9850712500942
 20
257.078732187469
 30
0.0
 11
164.5000000000122
 21
258.6999999999902
 31
0.0
  0
LINE
  5
10E
330
1F
100
AcDbEntity
  8
LAY-10
  6
CONTINUOUS
 62
     7
100
AcDbLine
 10
172.0617376189006
 20
283.1521720236009
 30
0.0
 11
164.5000000000122
 21
273.6999999999902
 31
0.0
  0
LINE
  5
10F
330
1F
100
AcDbEntity
  8
LAY-10
  6
CONTINUOUS
 62
     7
100
AcDbLine
 10
169.5000000000022
 20
295.1999999999998
 30
0.0
 11
177.5000000000017
 21
296.2000000000002
 31
0.0
  0
LINE
  5
110
330
1F
100
AcDbEntity
  8
LAY-10
  6
CONTINUOUS
 62
     7
100
AcDbLine
 10
169.5000000000022
 20
289.4
 30
0.0
 11
171.6094003924621
 21
287.9937330716929
 31
0.0
  0
ARC
  5
111
330
1F
100
AcDbEntity
  8
LAY-10
  6
CONTINUOUS
 62
     7
100
AcDbCircle
 10
170.5000000000122
 20
286.3296324830175
 30
0.0
 40
2.0
100
AcDbArc
 50
0.0
 51
56.30993247402021
  0
LINE
  5
112
330
1F
100
AcDbEntity
  8
LAY-10
  6
CONTINUOUS
 62
     7
100
AcDbLine
 10
336.5000000000024
 20
128.2000000000899
 30
0.0
 11
337.5000000000024
 21
136.1999999999899
 31
0.0
  0
LINE
  5
113
330
1F
100
AcDbEntity
  8
LAY-10
  6
CONTINUOUS
 62
     7
100
AcDbLine
 10
330.0937330716089
 20
130.309400392504
 30
0.0
 11
331.5000000000024
 21
128.2000000000899
 31
0.0
  0
ARC
  5
114
330
1F
100
AcDbEntity
  8
LAY-10
  6
CONTINUOUS
 62
     7
100
AcDbCircle
 10
328.4296324829758
 20
129.1999999999894
 30
0.0
 40
2.0
100
AcDbArc
 50
33.6900675281838
 51
90.00000000000001
  0
LINE
  5
115
330
1F
100
AcDbEntity
  8
LAY-10
  6
CONTINUOUS
 62
     7
100
AcDbLine
 10
159.4124594330414
 20
226.6238500409344
 30
0.0
 11
167.4999999999944
 21
226.1999999999593
 31
0.0
  0
ARC
  5
116
330
1F
100
AcDbEntity
  8
LAY-10
  6
CONTINUOUS
 62
     7
100
AcDbCircle
 10
175.4999999999817
 20
242.7857864376946
 30
0.0
 40
1.0
100
AcDbArc
 50
135.0000000000046
 51
180.0
  0
LINE
  5
117
330
1F
100
AcDbEntity
  8
LAY-10
  6
CONTINUOUS
 62
     7
100
AcDbLine
 10
174.4999999999812
 20
242.7857864376946
 30
0.0
 11
174.4999999999812
 21
241.9207592200505
 31
0.0
  0
ARC
  5
118
330
1F
100
AcDbEntity
  8
LAY-10
  6
CONTINUOUS
 62
     7
100
AcDbCircle
 10
175.4999999999817
 20
241.9207592200505
 30
0.0
 40
1.0
100
AcDbArc
 50
180.0
 51
251.5650511768977
  0
LINE
  5
119
330
1F
100
AcDbEntity
  8
LAY-10
  6
CONTINUOUS
 62
     7
100
AcDbLine
 10
174.792893218795
 20
243.4928932188813
 30
0.0
 11
177.2071067811988
 21
245.9071067812855
 31
0.0
  0
ARC
  5
11A
330
1F
100
AcDbEntity
  8
LAY-10
  6
CONTINUOUS
 62
     7
100
AcDbCircle
 10
176.5000000000122
 20
246.6142135624718
 30
0.0
 40
1.0
100
AcDbArc
 50
315.0000000000046
 51
0.0
  0
LINE
  5
11B
330
1F
100
AcDbEntity
  8
LAY-10
  6
CONTINUOUS
 62
     7
100
AcDbLine
 10
176.8162277660321
 20
240.4279240779719
 30
0.0
 11
175.1837722339618
 21
240.9720759220012
 31
0.0
  0
ARC
  5
11C
330
1F
100
AcDbEntity
  8
LAY-10
  6
CONTINUOUS
 62
     7
100
AcDbCircle
 10
176.5000000000122
 20
239.4792407799222
 30
0.0
 40
1.0
100
AcDbArc
 50
0.0
 51
71.56505117689261
  0
LINE
  5
11D
330
1F
100
AcDbEntity
  8
LAY-10
  6
CONTINUOUS
 62
     7
100
AcDbLine
 10
177.5000000000017
 20
238.1999999999998
 30
0.0
 11
167.5000000000017
 21
226.2000000000998
 31
0.0
  0
LINE
  5
11E
330
1F
100
AcDbEntity
  8
LAY-10
  6
CONTINUOUS
 62
     7
100
AcDbLine
 10
172.5000000000117
 20
248.7000000000048
 30
0.0
 11
172.5000000000117
 21
286.3296324830175
 31
0.0
  0
LINE
  5
11F
330
1F
100
AcDbEntity
  8
LAY-10
  6
CONTINUOUS
 62
     7
100
AcDbLine
 10
169.5000000000017
 20
246.6999999999998
 30
0.0
 11
172.5000000000017
 21
248.6999999999998
 31
0.0
  0
LINE
  5
120
330
1F
100
AcDbEntity
  8
LAY-10
  6
CONTINUOUS
 62
     7
100
AcDbLine
 10
169.5000000000117
 20
246.6999999999998
 30
0.0
 11
169.5000000000117
 21
257.4499999999998
 31
0.0
  0
LINE
  5
121
330
1F
100
AcDbEntity
  8
LAY-10
  6
CONTINUOUS
 62
     7
100
AcDbLine
 10
172.4289321881423
 20
145.2710678118811
 30
0.0
 11
186.5710678118747
 21
131.1289321881519
 31
0.0
  0
LINE
  5
122
330
1F
100
AcDbEntity
  8
LAY-10
  6
CONTINUOUS
 62
     7
100
AcDbLine
 10
169.1295905135997
 20
145.8928788987553
 30
0.0
 11
172.4289321881018
 21
145.2710678118797
 31
0.0
  0
ARC
  5
123
330
1F
100
AcDbEntity
  8
LAY-10
  6
CONTINUOUS
 62
     7
100
AcDbCircle
 10
169.5000000000126
 20
147.8582788103191
 30
0.0
 40
2.0
100
AcDbArc
 50
180.0
 51
259.3269303967094
  0
LINE
  5
124
330
1F
100
AcDbEntity
  8
LAY-10
  6
CONTINUOUS
 62
     7
100
AcDbLine
 10
162.4999999999017
 20
244.1999999999998
 30
0.0
 11
169.5000000000017
 21
246.6999999999998
 31
0.0
  0
LINE
  5
125
330
1F
100
AcDbEntity
  8
LAY-10
  6
CONTINUOUS
 62
     7
100
AcDbLine
 10
162.4999999999017
 20
103.1999999999949
 30
0.0
 11
167.4999999999017
 21
103.1999999999949
 31
0.0
  0
LINE
  5
126
330
1F
100
AcDbEntity
  8
LAY-10
  6
CONTINUOUS
 62
     7
100
AcDbLine
 10
167.4999999999017
 20
103.1999999999999
 30
0.0
 11
182.4999999999017
 21
116.9792549592699
 31
0.0
  0
LINE
  5
127
330
1F
100
AcDbEntity
  8
LAY-10
  6
CONTINUOUS
 62
     7
100
AcDbLine
 10
162.4997319219123
 20
237.1113359952992
 30
0.0
 11
126.2070912607122
 21
236.37223675841
 31
0.0
  0
LINE
  5
128
330
1F
100
AcDbEntity
  8
LAY-10
  6
CONTINUOUS
 62
     7
100
AcDbLine
 10
162.4999999999121
 20
237.1113414547048
 30
0.0
 11
162.4999999999121
 21
244.1999999999998
 31
0.0
  0
LINE
  5
129
330
1F
100
AcDbEntity
  8
LAY-10
  6
CONTINUOUS
 62
     7
100
AcDbLine
 10
128.7929087392494
 20
109.3985641015998
 30
0.0
 11
126.2070912606786
 21
236.3722367584414
 31
0.0
  0
LINE
  5
12A
330
1F
100
AcDbEntity
  8
LAY-10
  6
CONTINUOUS
 62
     7
100
AcDbLine
 10
162.4999999999121
 20
109.3985641015998
 30
0.0
 11
162.4999999999121
 21
103.1999999999949
 31
0.0
  0
LINE
  5
12B
330
1F
100
AcDbEntity
  8
LAY-10
  6
CONTINUOUS
 62
     7
100
AcDbLine
 10
128.7929087392016
 20
109.3985641015998
 30
0.0
 11
162.4999999999021
 21
109.3985641015998
 31
0.0
  0
LINE
  5
12C
330
1F
100
AcDbEntity
  8
LAY-10
  6
CONTINUOUS
 62
     7
100
AcDbLine
 10
286.5000000000124
 20
128.2000000000876
 30
0.0
 11
289.5000000000124
 21
131.1999999999894
 31
0.0
  0
ARC
  5
12D
330
1F
100
AcDbEntity
  8
LAY-10
  6
CONTINUOUS
 62
     7
100
AcDbCircle
 10
283.2207592200481
 20
134.2000000000872
 30
0.0
 40
1.0
100
AcDbArc
 50
198.434948822921
 51
270.0
  0
LINE
  5
12E
330
1F
100
AcDbEntity
  8
LAY-10
  6
CONTINUOUS
 62
     7
100
AcDbLine
 10
283.2207592200481
 20
133.2000000000872
 30
0.0
 11
284.0857864376195
 21
133.2000000000872
 31
0.0
  0
ARC
  5
12F
330
1F
100
AcDbEntity
  8
LAY-10
  6
CONTINUOUS
 62
     7
100
AcDbCircle
 10
284.0857864376195
 20
134.2000000000872
 30
0.0
 40
1.0
100
AcDbArc
 50
270.0
 51
315.0
  0
LINE
  5
130
330
1F
100
AcDbEntity
  8
LAY-10
  6
CONTINUOUS
 62
     7
100
AcDbLine
 10
282.2720759219975
 20
133.8837722340705
 30
0.0
 11
281.7279240780186
 21
135.5162277660066
 31
0.0
  0
ARC
  5
131
330
1F
100
AcDbEntity
  8
LAY-10
  6
CONTINUOUS
 62
     7
100
AcDbCircle
 10
280.7792407799681
 20
135.1999999999894
 30
0.0
 40
1.0
100
AcDbArc
 50
18.43494882292097
 51
90.00000000000001
  0
LINE
  5
132
330
1F
100
AcDbEntity
  8
LAY-10
  6
CONTINUOUS
 62
     7
100
AcDbLine
 10
287.2071067810813
 20
135.9071067811761
 30
0.0
 11
284.7928932188057
 21
133.4928932189005
 31
0.0
  0
ARC
  5
133
330
1F
100
AcDbEntity
  8
LAY-10
  6
CONTINUOUS
 62
     7
100
AcDbCircle
 10
287.9142135622679
 20
135.1999999999894
 30
0.0
 40
1.0
100
AcDbArc
 50
90.00000000000001
 51
135.0
  0
LINE
  5
134
330
1F
100
AcDbEntity
  8
LAY-10
  6
CONTINUOUS
 62
     7
100
AcDbLine
 10
289.5000000000024
 20
131.1999999999894
 30
0.0
 11
328.4296324829762
 21
131.1999999999894
 31
0.0
  0
LINE
  5
135
330
1F
100
AcDbEntity
  8
LAY-10
  6
CONTINUOUS
 62
     7
100
AcDbLine
 10
275.6435935396022
 20
128.2000000000876
 30
0.0
 11
301.2500000000024
 21
128.2000000000876
 31
0.0
  0
LINE
  5
136
330
1F
100
AcDbEntity
  8
LAY-10
  6
CONTINUOUS
 62
     7
100
AcDbLine
 10
182.499999999898
 20
116.9792549592722
 30
0.0
 11
263.5674208714883
 21
121.2278184593545
 31
0.0
  0
LINE
  5
137
330
1F
100
AcDbEntity
  8
LAY-10
  6
CONTINUOUS
 62
     7
100
AcDbLine
 10
275.6435935396336
 20
128.2000000000876
 30
0.0
 11
263.5674208714878
 21
121.2278184593545
 31
0.0
  0
LINE
  5
138
330
1F
100
AcDbEntity
  8
LAY-10
  6
CONTINUOUS
 62
     7
100
AcDbLine
 10
161.5636770834411
 20
120.8888904988562
 30
0.0
 11
262.1069923928472
 21
126.1581423759749
 31
0.0
  0
LINE
  5
139
330
1F
100
AcDbEntity
  8
LAY-10
  6
CONTINUOUS
 62
     7
100
AcDbLine
 10
262.1069923928472
 20
126.1581423759749
 30
0.0
 11
279.5000000000147
 21
136.1999999999894
 31
0.0
  0
LINE
  5
13A
330
1F
100
AcDbEntity
  8
LAY-10
  6
CONTINUOUS
 62
     7
100
AcDbLine
 10
167.5000000000126
 20
226.2000000000998
 30
0.0
 11
167.5000000000126
 21
136.1581423759799
 31
0.0
  0
LINE
  5
13B
330
1F
100
AcDbEntity
  8
LAY-10
  6
CONTINUOUS
 62
     7
100
AcDbLine
 10
262.1069923928022
 20
126.1581423759799
 30
0.0
 11
177.5000000000126
 21
126.1581423759799
 31
0.0
  0
ARC
  5
13C
330
1F
100
AcDbEntity
  8
LAY-10
  6
CONTINUOUS
 62
     7
100
AcDbCircle
 10
177.5000000000126
 20
136.1581423759799
 30
0.0
 40
10.0
100
AcDbArc
 50
180.0
 51
270.0
  0
LINE
  5
13D
330
1F
100
AcDbEntity
  8
LAY-10
  6
CONTINUOUS
 62
     7
100
AcDbLine
 10
186.571067811902
 20
131.12893218815
 30
0.0
 11
187.1949019352816
 21
127.7907463176405
 31
0.0
  0
ARC
  5
13E
330
1F
100
AcDbEntity
  8
LAY-10
  6
CONTINUOUS
 62
     7
100
AcDbCircle
 10
189.1608673816501
 20
128.1581423759799
 30
0.0
 40
2.0
100
AcDbArc
 50
190.585234125804
 51
270.0
  0
LINE
  5
13F
330
1F
100
AcDbEntity
  8
LAY-10
  6
CONTINUOUS
 62
     7
100
AcDbLine
 10
312.0000000000292
 20
101.1999999999939
 30
0.0
 11
322.0000000000301
 21
101.1999999999939
 31
0.0
  0
ARC
  5
140
330
1F
100
AcDbEntity
  8
LAY-10
  6
CONTINUOUS
 62
     7
100
AcDbCircle
 10
312.0000000000292
 20
108.199999999994
 30
0.0
 40
7.000000000000004
100
AcDbArc
 50
180.0
 51
270.0
  0
LINE
  5
141
330
1F
100
AcDbEntity
  8
LAY-10
  6
CONTINUOUS
 62
     7
100
AcDbLine
 10
322.0000000000301
 20
101.1999999999939
 30
0.0
 11
322.0000000000301
 21
106.1999999999937
 31
0.0
  0
ARC
  5
142
330
1F
100
AcDbEntity
  8
LAY-10
  6
CONTINUOUS
 62
     7
100
AcDbCircle
 10
312.0000000000292
 20
108.199999999994
 30
0.0
 40
2.0
100
AcDbArc
 50
180.0
 51
270.0
  0
LINE
  5
143
330
1F
100
AcDbEntity
  8
LAY-10
  6
CONTINUOUS
 62
     7
100
AcDbLine
 10
312.0000000000292
 20
106.199999999994
 30
0.0
 11
322.0000000000301
 21
106.1999999999937
 31
0.0
  0
LINE
  5
144
330
1F
100
AcDbEntity
  8
LAY-10
  6
CONTINUOUS
 62
     7
100
AcDbLine
 10
310.0000000000301
 20
108.1999999999896
 30
0.0
 11
310.0000000000301
 21
123.1999999999892
 31
0.0
  0
LINE
  5
145
330
1F
100
AcDbEntity
  8
LAY-10
  6
CONTINUOUS
 62
     7
100
AcDbLine
 10
305.0000000000301
 20
108.1999999999896
 30
0.0
 11
305.0000000000301
 21
123.1999999999892
 31
0.0
  0
LINE
  5
146
330
1F
100
AcDbEntity
  8
LAY-10
  6
CONTINUOUS
 62
     7
100
AcDbLine
 10
142.5000000000274
 20
280.6999999999775
 30
0.0
 11
147.5000000000265
 21
280.6999999999775
 31
0.0
  0
LINE
  5
147
330
1F
100
AcDbEntity
  8
LAY-10
  6
CONTINUOUS
 62
     7
100
AcDbLine
 10
142.5000000000274
 20
270.699999999977
 30
0.0
 11
142.5000000000274
 21
280.6999999999775
 31
0.0
  0
LINE
  5
148
330
1F
100
AcDbEntity
  8
LAY-10
  6
CONTINUOUS
 62
     7
100
AcDbLine
 10
147.5000000000274
 20
270.699999999977
 30
0.0
 11
147.5000000000265
 21
280.6999999999775
 31
0.0
  0
ARC
  5
149
330
1F
100
AcDbEntity
  8
LAY-10
  6
CONTINUOUS
 62
     7
100
AcDbCircle
 10
149.5000000000274
 20
270.699999999977
 30
0.0
 40
2.0
100
AcDbArc
 50
180.0
 51
270.0
  0
ARC
  5
14A
330
1F
100
AcDbEntity
  8
LAY-10
  6
CONTINUOUS
 62
     7
100
AcDbCircle
 10
149.5000000000274
 20
270.699999999977
 30
0.0
 40
7.000000000000004
100
AcDbArc
 50
180.0
 51
270.0
  0
LINE
  5
14B
330
1F
100
AcDbEntity
  8
LAY-10
  6
CONTINUOUS
 62
     7
100
AcDbLine
 10
149.5000000000229
 20
263.6999999999779
 30
0.0
 11
164.5000000000219
 21
263.6999999999784
 31
0.0
  0
LINE
  5
14C
330
1F
100
AcDbEntity
  8
LAY-10
  6
CONTINUOUS
 62
     7
100
AcDbLine
 10
149.5000000000229
 20
268.6999999999779
 30
0.0
 11
164.5000000000219
 21
268.6999999999784
 31
0.0
  0
LINE
  5
14D
330
1F
100
AcDbEntity
  8
LAY-10
  6
CONTINUOUS
 62
     7
100
AcDbLine
 10
170.1758838608422
 20
153.6246212024117
 30
0.0
 11
194.9246212023692
 21
128.8758838608806
 31
0.0
  0
LINE
  5
14E
330
1F
100
AcDbEntity
  8
LAY-10
  6
CONTINUOUS
 62
     7
100
AcDbLine
 10
194.9246212023746
 20
128.8758838608947
 30
0.0
 11
197.3994949364752
 21
134.8862915009809
 31
0.0
  0
LINE
  5
14F
330
1F
100
AcDbEntity
  8
LAY-10
  6
CONTINUOUS
 62
     7
100
AcDbLine
 10
194.9246212023746
 20
128.8758838608947
 30
0.0
 11
212.6022907320094
 21
128.8758838608947
 31
0.0
  0
LINE
  5
150
330
1F
100
AcDbEntity
  8
LAY-10
  6
CONTINUOUS
 62
     7
100
AcDbLine
 10
176.1862915008752
 20
156.0994949365791
 30
0.0
 11
170.1758838608749
 21
153.6246212024249
 31
0.0
  0
LINE
  5
151
330
1F
100
AcDbEntity
  8
LAY-10
  6
CONTINUOUS
 62
     7
100
AcDbLine
 10
170.1758838608749
 20
153.6246212024249
 30
0.0
 11
170.1758838608749
 21
171.3022907321461
 31
0.0
  0
LINE
  5
152
330
1F
100
AcDbEntity
  8
LAY-10
  6
CONTINUOUS
 62
     7
100
AcDbLine
 10
176.1862915009016
 20
156.09949493659
 30
0.0
 11
197.3994949364843
 21
134.8862915010041
 31
0.0
  0
LINE
  5
153
330
1F
100
AcDbEntity
  8
LAY-10
  6
CONTINUOUS
 62
     7
100
AcDbLine
 10
298.5000000000147
 20
153.199999999986
 30
0.0
 11
283.0072032962909
 21
140.199999999986
 31
0.0
  0
ARC
  5
154
330
1F
100
AcDbEntity
  8
LAY-10
  6
CONTINUOUS
 62
     7
100
AcDbCircle
 10
183.5000000000128
 20
254.5807186356991
 30
0.0
 40
2.0
100
AcDbArc
 50
180.0
 51
310.0000000000024
  0
LINE
  5
155
330
1F
100
AcDbEntity
  8
LAY-10
  6
CONTINUOUS
 62
     7
100
AcDbLine
 10
194.5000000000147
 20
261.1999999999861
 30
0.0
 11
184.7855752193865
 21
253.0486297494612
 31
0.0
  0
ARC
  5
156
330
1F
100
AcDbEntity
  8
LAY-10
  6
CONTINUOUS
 62
     7
100
AcDbCircle
 10
295.88071863573
 20
142.199999999986
 30
0.0
 40
2.0
100
AcDbArc
 50
140.0000000000045
 51
270.0
  0
LINE
  5
157
330
1F
100
AcDbEntity
  8
LAY-10
  6
CONTINUOUS
 62
     7
100
AcDbLine
 10
302.5000000000147
 20
153.199999999986
 30
0.0
 11
294.3486297494911
 21
143.4855752193587
 31
0.0
  0
ARC
  5
158
330
1F
100
AcDbEntity
  8
LAY-10
  6
CONTINUOUS
 62
     7
100
AcDbCircle
 10
209.338165696956
 20
142.038165696926
 30
0.0
 40
1.838165696940109
100
AcDbArc
 50
180.0
 51
310.0000000000061
  0
ARC
  5
159
330
1F
100
AcDbEntity
  8
LAY-10
  6
CONTINUOUS
 62
     7
100
AcDbCircle
 10
252.338165696956
 20
142.038165696926
 30
0.0
 40
1.838165696940109
100
AcDbArc
 50
180.0
 51
310.0000000000061
  0
LINE
  5
15A
330
1F
100
AcDbEntity
  8
LAY-10
  6
CONTINUOUS
 62
     7
100
AcDbLine
 10
302.5000000000147
 20
153.1999999999858
 30
0.0
 11
268.5000000000119
 21
153.1999999999858
 31
0.0
  0
LINE
  5
15B
330
1F
100
AcDbEntity
  8
LAY-10
  6
CONTINUOUS
 62
     7
100
AcDbLine
 10
250.5000000000119
 20
153.199999999986
 30
0.0
 11
225.5000000000156
 21
153.199999999986
 31
0.0
  0
LINE
  5
15C
330
1F
100
AcDbEntity
  8
LAY-10
  6
CONTINUOUS
 62
     7
100
AcDbLine
 10
275.9142135623898
 20
142.6142135623584
 30
0.0
 11
273.5000000000165
 21
140.1999999999856
 31
0.0
  0
ARC
  5
15D
330
1F
100
AcDbEntity
  8
LAY-10
  6
CONTINUOUS
 62
     7
100
AcDbCircle
 10
277.3284271247632
 20
141.1999999999856
 30
0.0
 40
2.0
100
AcDbArc
 50
90.00000000000001
 51
135.0
  0
LINE
  5
15E
330
1F
100
AcDbEntity
  8
LAY-10
  6
CONTINUOUS
 62
     7
100
AcDbLine
 10
277.3284271247632
 20
143.1999999999856
 30
0.0
 11
285.8545236055398
 21
143.1999999999856
 31
0.0
  0
ARC
  5
15F
330
1F
100
AcDbEntity
  8
LAY-10
  6
CONTINUOUS
 62
     7
100
AcDbCircle
 10
285.8545236055398
 20
145.1999999999856
 30
0.0
 40
2.0
100
AcDbArc
 50
270.0
 51
310.0000000000005
  0
LINE
  5
160
330
1F
100
AcDbEntity
  8
LAY-10
  6
CONTINUOUS
 62
     7
100
AcDbLine
 10
181.0617376189003
 20
233.6521720235932
 30
0.0
 11
177.5000000000128
 21
229.1999999999857
 31
0.0
  0
ARC
  5
161
330
1F
100
AcDbEntity
  8
LAY-10
  6
CONTINUOUS
 62
     7
100
AcDbCircle
 10
179.5000000000147
 20
234.9015621187022
 30
0.0
 40
2.0
100
AcDbArc
 50
321.3401917458972
 51
0.0
  0
LINE
  5
162
330
1F
100
AcDbEntity
  8
LAY-10
  6
CONTINUOUS
 62
     7
100
AcDbLine
 10
177.5000000000128
 20
281.1999999999461
 30
0.0
 11
178.5000000000128
 21
281.1999999999461
 31
0.0
  0
LINE
  5
163
330
1F
100
AcDbEntity
  8
LAY-10
  6
CONTINUOUS
 62
     7
100
AcDbLine
 10
181.5000000000128
 20
278.1999999999461
 30
0.0
 11
181.5000000000128
 21
254.5807186356991
 31
0.0
  0
ARC
  5
164
330
1F
100
AcDbEntity
  8
LAY-10
  6
CONTINUOUS
 62
     7
100
AcDbCircle
 10
178.5000000000128
 20
278.1999999999461
 30
0.0
 40
3.0
100
AcDbArc
 50
0.0
 51
90.00000000000001
  0
LINE
  5
165
330
1F
100
AcDbEntity
  8
LAY-10
  6
CONTINUOUS
 62
     7
100
AcDbLine
 10
177.5000000000119
 20
222.1999999999593
 30
0.0
 11
184.5000000000119
 21
229.1999999999893
 31
0.0
  0
LINE
  5
166
330
1F
100
AcDbEntity
  8
LAY-10
  6
CONTINUOUS
 62
     7
100
AcDbLine
 10
184.5000000000147
 20
244.5545236055127
 30
0.0
 11
184.5000000000147
 21
229.1999999999898
 31
0.0
  0
ARC
  5
167
330
1F
100
AcDbEntity
  8
LAY-10
  6
CONTINUOUS
 62
     7
100
AcDbCircle
 10
186.5000000000147
 20
244.5545236055127
 30
0.0
 40
2.0
100
AcDbArc
 50
139.9999999999999
 51
180.0
  0
LINE
  5
168
330
1F
100
AcDbEntity
  8
LAY-10
  6
CONTINUOUS
 62
     7
100
AcDbLine
 10
194.5000000000147
 20
257.1999999999866
 30
0.0
 11
181.5000000000147
 21
241.7072032962623
 31
0.0
  0
LINE
  5
169
330
1F
100
AcDbEntity
  8
LAY-10
  6
CONTINUOUS
 62
     7
100
AcDbLine
 10
181.5000000000147
 20
241.7072032962596
 30
0.0
 11
181.5000000000147
 21
234.9015621187022
 31
0.0
  0
LINE
  5
16A
330
1F
100
AcDbEntity
  8
LAY-10
  6
CONTINUOUS
 62
     7
100
AcDbLine
 10
181.5000000000147
 20
226.1999999999802
 30
0.0
 11
181.5000000000147
 21
152.8568542493411
 31
0.0
  0
LINE
  5
16B
330
1F
100
AcDbEntity
  8
LAY-10
  6
CONTINUOUS
 62
     7
100
AcDbLine
 10
177.5000000000119
 20
146.1999999999794
 30
0.0
 11
177.5000000000119
 21
146.3005050632408
 31
0.0
  0
LINE
  5
16C
330
1F
100
AcDbEntity
  8
LAY-10
  6
CONTINUOUS
 62
     7
100
AcDbLine
 10
187.5000000000119
 20
136.1999999999794
 30
0.0
 11
187.6005050632713
 21
136.1999999999794
 31
0.0
  0
LINE
  5
16D
330
1F
100
AcDbEntity
  8
LAY-10
  6
CONTINUOUS
 62
     7
100
AcDbLine
 10
293.5000000000138
 20
152.1999999999946
 30
0.0
 11
230.7842712474768
 21
152.1999999999946
 31
0.0
  0
LINE
  5
16E
330
1F
100
AcDbEntity
  8
LAY-10
  6
CONTINUOUS
 62
     7
100
AcDbLine
 10
281.5000000000138
 20
152.1999999999946
 30
0.0
 11
281.5000000000138
 21
143.1999999999946
 31
0.0
  0
LINE
  5
16F
330
1F
100
AcDbEntity
  8
LAY-10
  6
CONTINUOUS
 62
     7
100
AcDbLine
 10
283.5000000000138
 20
143.1999999999946
 30
0.0
 11
293.5000000000138
 21
151.1999999999946
 31
0.0
  0
LINE
  5
170
330
1F
100
AcDbEntity
  8
LAY-10
  6
CONTINUOUS
 62
     7
100
AcDbLine
 10
281.5000000000138
 20
146.1999999999946
 30
0.0
 11
211.6421356237444
 21
146.1999999999946
 31
0.0
  0
ARC
  5
171
330
1F
100
AcDbEntity
  8
LAY-10
  6
CONTINUOUS
 62
     7
100
AcDbCircle
 10
230.7842712474759
 20
166.1999999999946
 30
0.0
 40
20.0
100
AcDbArc
 50
224.9999999999995
 51
270.0
  0
ARC
  5
172
330
1F
100
AcDbEntity
  8
LAY-10
  6
CONTINUOUS
 62
     7
100
AcDbCircle
 10
207.5000000000138
 20
189.4842712474565
 30
0.0
 40
20.0
100
AcDbArc
 50
180.0
 51
224.9999999999995
  0
ARC
  5
173
330
1F
100
AcDbEntity
  8
LAY-10
  6
CONTINUOUS
 62
     7
100
AcDbCircle
 10
207.5000000000138
 20
189.484271247457
 30
0.0
 40
14.0
100
AcDbArc
 50
180.0
 51
224.9999999999982
  0
ARC
  5
174
330
1F
100
AcDbEntity
  8
LAY-10
  6
CONTINUOUS
 62
     7
100
AcDbCircle
 10
230.7842712474759
 20
166.1999999999946
 30
0.0
 40
14.0
100
AcDbArc
 50
224.9999999999967
 51
270.0
  0
LINE
  5
175
330
1F
100
AcDbEntity
  8
LAY-10
  6
CONTINUOUS
 62
     7
100
AcDbLine
 10
220.8847763108635
 20
156.3005050633831
 30
0.0
 11
197.6005050634013
 21
179.5847763108455
 31
0.0
  0
LINE
  5
176
330
1F
100
AcDbEntity
  8
LAY-10
  6
CONTINUOUS
 62
     7
100
AcDbLine
 10
193.5000000000137
 20
240.1999999999948
 30
0.0
 11
184.5000000000138
 21
240.1999999999948
 31
0.0
  0
LINE
  5
177
330
1F
100
AcDbEntity
  8
LAY-10
  6
CONTINUOUS
 62
     7
100
AcDbLine
 10
184.5000000000138
 20
242.1999999999948
 30
0.0
 11
192.5000000000138
 21
252.1999999999948
 31
0.0
  0
LINE
  5
178
330
1F
100
AcDbEntity
  8
LAY-10
  6
CONTINUOUS
 62
     7
100
AcDbLine
 10
187.5000000000138
 20
170.3421356237257
 30
0.0
 11
187.5000000000138
 21
240.1999999999948
 31
0.0
  0
LINE
  5
179
330
1F
100
AcDbEntity
  8
LAY-10
  6
CONTINUOUS
 62
     7
100
AcDbLine
 10
193.5000000000137
 20
252.1999999999948
 30
0.0
 11
193.5000000000137
 21
189.484271247457
 31
0.0
  0
LINE
  5
17A
330
1F
100
AcDbEntity
  8
LAY-10
  6
CONTINUOUS
 62
     7
100
AcDbLine
 10
192.5000000000138
 20
252.1999999999948
 30
0.0
 11
193.5000000000137
 21
252.1999999999948
 31
0.0
  0
LINE
  5
17B
330
1F
100
AcDbEntity
  8
LAY-10
  6
CONTINUOUS
 62
     7
100
AcDbLine
 10
293.5000000000138
 20
152.1999999999946
 30
0.0
 11
293.5000000000138
 21
151.1999999999946
 31
0.0
  0
LINE
  5
17C
330
1F
100
AcDbEntity
  8
LAY-10
  6
CONTINUOUS
 62
     7
100
AcDbLine
 10
205.0000000000138
 20
172.1852813742335
 30
0.0
 11
201.4644660940813
 21
167.2355339059271
 31
0.0
  0
LINE
  5
17D
330
1F
100
AcDbEntity
  8
LAY-10
  6
CONTINUOUS
 62
     7
100
AcDbLine
 10
208.5355339059462
 20
160.1644660940618
 30
0.0
 11
213.4852813742528
 21
163.6999999999949
 31
0.0
  0
ARC
  5
17E
330
1F
100
AcDbEntity
  8
LAY-10
  6
CONTINUOUS
 62
     7
100
AcDbCircle
 10
211.6421356237444
 20
156.1999999999946
 30
0.0
 40
10.0
100
AcDbArc
 50
224.9999999999995
 51
270.0
  0
ARC
  5
17F
330
1F
100
AcDbEntity
  8
LAY-10
  6
CONTINUOUS
 62
     7
100
AcDbCircle
 10
197.5000000000138
 20
170.3421356237255
 30
0.0
 40
10.0
100
AcDbArc
 50
180.0
 51
224.9999999999995
  0
LINE
  5
180
330
1F
100
AcDbEntity
  8
LAY-10
  6
CONTINUOUS
 62
     7
100
AcDbLine
 10
216.6421356237453
 20
152.0578643762629
 30
0.0
 11
193.3578643762795
 21
175.3421356237278
 31
0.0
  0
LINE
  5
181
330
1F
100
AcDbEntity
  8
LAY-10
  6
CONTINUOUS
 62
     7
100
AcDbLine
 10
250.5000000000156
 20
153.1999999999894
 30
0.0
 11
250.5000000000156
 21
152.1999999999946
 31
0.0
  0
LINE
  5
182
330
1F
100
AcDbEntity
  8
LAY-10
  6
CONTINUOUS
 62
     7
100
AcDbLine
 10
250.5000000000156
 20
146.1999999999946
 30
0.0
 11
250.5000000000156
 21
142.0381656969262
 31
0.0
  0
LINE
  5
183
330
1F
100
AcDbEntity
  8
LAY-10
  6
CONTINUOUS
 62
     7
100
AcDbLine
 10
268.5000000000147
 20
153.1999999999858
 30
0.0
 11
267.3082464074315
 21
152.1999999999946
 31
0.0
  0
LINE
  5
184
330
1F
100
AcDbEntity
  8
LAY-10
  6
CONTINUOUS
 62
     7
100
AcDbLine
 10
260.1577248518662
 20
146.1999999999946
 30
0.0
 11
253.5197158314996
 21
140.6300490792531
 31
0.0
  0
LINE
  5
185
330
1F
100
AcDbEntity
  8
LAY-10
  6
CONTINUOUS
 62
     7
100
AcDbLine
 10
217.1577248518662
 20
146.1999999999946
 30
0.0
 11
210.5197158314996
 21
140.6300490792531
 31
0.0
  0
LINE
  5
186
330
1F
100
AcDbEntity
  8
LAY-10
  6
CONTINUOUS
 62
     7
100
AcDbLine
 10
207.5000000000165
 20
147.0982027887492
 30
0.0
 11
207.5000000000165
 21
142.0381656969262
 31
0.0
  0
LINE
  5
187
330
1F
100
AcDbEntity
  8
LAY-10
  6
CONTINUOUS
 62
     7
100
AcDbLine
 10
194.5000000000147
 20
261.1999999999861
 30
0.0
 11
194.5000000000147
 21
184.2881188247471
 31
0.0
  0
LINE
  5
188
330
1F
100
AcDbEntity
  8
LAY-10
  6
CONTINUOUS
 62
     7
100
AcDbLine
 10
184.5000000000065
 20
232.1999999998101
 30
0.0
 11
186.2000000000072
 21
232.1999999998101
 31
0.0
  0
LINE
  5
189
330
1F
100
AcDbEntity
  8
LAY-10
  6
CONTINUOUS
 62
     7
100
AcDbLine
 10
186.2000000000072
 20
238.1999999998092
 30
0.0
 11
186.2000000000072
 21
232.1999999998092
 31
0.0
  0
LINE
  5
18A
330
1F
100
AcDbEntity
  8
LAY-10
  6
CONTINUOUS
 62
     7
100
AcDbLine
 10
186.2000000000072
 20
232.1999999998092
 30
0.0
 11
187.5000000000065
 21
230.8999999998095
 31
0.0
  0
LINE
  5
18B
330
1F
100
AcDbEntity
  8
LAY-10
  6
CONTINUOUS
 62
     7
100
AcDbLine
 10
184.5000000000065
 20
238.1999999998083
 30
0.0
 11
186.2000000000072
 21
238.1999999998083
 31
0.0
  0
LINE
  5
18C
330
1F
100
AcDbEntity
  8
LAY-10
  6
CONTINUOUS
 62
     7
100
AcDbLine
 10
186.2000000000072
 20
238.1999999998092
 30
0.0
 11
187.5000000000138
 21
239.4999999998158
 31
0.0
  0
LINE
  5
18D
330
1F
100
AcDbEntity
  8
LAY-10
  6
CONTINUOUS
 62
     7
100
AcDbLine
 10
176.6715728751598
 20
141.0284271248498
 30
0.0
 11
179.7218254067967
 21
144.0786796564856
 31
0.0
  0
LINE
  5
18E
330
1F
100
AcDbEntity
  8
LAY-10
  6
CONTINUOUS
 62
     7
100
AcDbLine
 10
182.3284271246604
 20
135.3715728753505
 30
0.0
 11
185.3786796562955
 21
138.4218254069852
 31
0.0
  0
LINE
  5
18F
330
1F
100
AcDbEntity
  8
LAY-10
  6
CONTINUOUS
 62
     7
100
AcDbLine
 10
188.7727922058949
 20
153.1296464557698
 30
0.0
 11
202.1715728754344
 21
166.528427124945
 31
0.0
  0
LINE
  5
190
330
1F
100
AcDbEntity
  8
LAY-10
  6
CONTINUOUS
 62
     7
100
AcDbLine
 10
194.4296464553873
 20
147.4727922062773
 30
0.0
 11
207.8284271248495
 21
160.8715728753758
 31
0.0
  0
ARC
  5
191
330
1F
100
AcDbEntity
  8
LAY-10
  6
CONTINUOUS
 62
     7
100
AcDbCircle
 10
188.5000000000119
 20
147.1999999999828
 30
0.0
 40
11.0
100
AcDbArc
 50
184.9006319834066
 51
203.6763137356077
  0
ARC
  5
192
330
1F
100
AcDbEntity
  8
LAY-10
  6
CONTINUOUS
 62
     7
100
AcDbCircle
 10
187.5000000000119
 20
146.1999999999794
 30
0.0
 40
10.0
100
AcDbArc
 50
180.0
 51
201.4218215207835
  0
ARC
  5
193
330
1F
100
AcDbEntity
  8
LAY-10
  6
CONTINUOUS
 62
     7
100
AcDbCircle
 10
187.5000000000119
 20
146.1999999999794
 30
0.0
 40
10.0
100
AcDbArc
 50
248.5781784772534
 51
270.0
  0
ARC
  5
194
330
1F
100
AcDbEntity
  8
LAY-10
  6
CONTINUOUS
 62
     7
100
AcDbCircle
 10
188.5000000000119
 20
147.1999999999828
 30
0.0
 40
11.0
100
AcDbArc
 50
246.323686262663
 51
265.0993680167208
  0
LINE
  5
195
330
1F
100
AcDbEntity
  8
LAY-10
  6
CONTINUOUS
 62
     7
100
AcDbLine
 10
190.428932188148
 20
163.2710678118604
 30
0.0
 11
194.671572875067
 21
159.0284271249416
 31
0.0
  0
LINE
  5
196
330
1F
100
AcDbEntity
  8
LAY-10
  6
CONTINUOUS
 62
     7
100
AcDbLine
 10
200.3284271245594
 20
153.3715728754492
 30
0.0
 11
204.5710678118795
 21
149.1289321881293
 31
0.0
  0
LINE
  5
197
330
1F
100
AcDbEntity
  8
LAY-10
  6
CONTINUOUS
 62
     7
100
AcDbLine
 10
181.1360389691682
 20
151.1497474683316
 30
0.0
 11
185.4154492089093
 21
155.4291577080724
 31
0.0
  0
ARC
  5
198
330
1F
100
AcDbEntity
  8
LAY-10
  6
CONTINUOUS
 62
     7
100
AcDbCircle
 10
185.203460864701
 20
152.3887422391181
 30
0.0
 40
3.047796791443853
100
AcDbArc
 50
3.988406407706226
 51
86.01159359229918
  0
LINE
  5
199
330
1F
100
AcDbEntity
  8
LAY-10
  6
CONTINUOUS
 62
     7
100
AcDbLine
 10
195.8438600178489
 20
146.0585786437883
 30
0.0
 11
187.3585786436098
 21
154.5438600180267
 31
0.0
  0
LINE
  5
19A
330
1F
100
AcDbEntity
  8
LAY-10
  6
CONTINUOUS
 62
     7
100
AcDbLine
 10
183.9644660939149
 20
148.3213203435849
 30
0.0
 11
188.243876333656
 21
152.600730583326
 31
0.0
  0
ARC
  5
19B
330
1F
100
AcDbEntity
  8
LAY-10
  6
CONTINUOUS
 62
     7
100
AcDbCircle
 10
183.7741220235858
 20
142.4741220237646
 30
0.0
 40
11.06918716577541
100
AcDbArc
 50
23.81604434177257
 51
66.18395565822637
  0
LINE
  5
19C
330
1F
100
AcDbEntity
  8
LAY-10
  6
CONTINUOUS
 62
     7
100
AcDbLine
 10
189.6213203434073
 20
142.6644660940927
 30
0.0
 11
193.9007305831475
 21
146.9438763338338
 31
0.0
  0
ARC
  5
19D
330
1F
100
AcDbEntity
  8
LAY-10
  6
CONTINUOUS
 62
     7
100
AcDbCircle
 10
193.6887422389401
 20
143.9034608648797
 30
0.0
 40
3.047796791443853
100
AcDbArc
 50
3.988406407700898
 51
86.01159359229058
  0
LINE
  5
19E
330
1F
100
AcDbEntity
  8
LAY-10
  6
CONTINUOUS
 62
     7
100
AcDbLine
 10
192.4497474681531
 20
139.8360389693465
 30
0.0
 11
196.7291577078942
 21
144.1154492090876
 31
0.0
  0
ARC
  5
19F
330
1F
100
AcDbEntity
  8
LAY-10
  6
CONTINUOUS
 62
     7
100
AcDbCircle
 10
194.1568542493688
 20
145.199999999986
 30
0.0
 40
5.0
100
AcDbArc
 50
256.1417604062327
 51
270.0
  0
ARC
  5
1A0
330
1F
100
AcDbEntity
  8
LAY-10
  6
CONTINUOUS
 62
     7
100
AcDbCircle
 10
186.5000000000147
 20
152.8568542493411
 30
0.0
 40
5.0
100
AcDbArc
 50
180.0
 51
193.8582395898492
  0
LINE
  5
1A1
330
1F
100
AcDbEntity
  8
LAY-10
  6
CONTINUOUS
 62
     7
100
AcDbLine
 10
322.5000000000147
 20
136.1999999999856
 30
0.0
 11
322.5000000000147
 21
137.199999999986
 31
0.0
  0
ARC
  5
1A2
330
1F
100
AcDbEntity
  8
LAY-10
  6
CONTINUOUS
 62
     7
100
AcDbCircle
 10
319.5000000000147
 20
137.199999999986
 30
0.0
 40
3.0
100
AcDbArc
 50
0.0
 51
90.00000000000001
  0
LINE
  5
1A3
330
1F
100
AcDbEntity
  8
LAY-10
  6
CONTINUOUS
 62
     7
100
AcDbLine
 10
319.5000000000119
 20
140.199999999986
 30
0.0
 11
295.88071863573
 21
140.199999999986
 31
0.0
  0
LINE
  5
1A4
330
1F
100
AcDbEntity
  8
LAY-10
  6
CONTINUOUS
 62
     7
100
AcDbLine
 10
283.0072032962909
 20
140.199999999986
 30
0.0
 11
194.1568542493688
 21
140.199999999986
 31
0.0
  0
LINE
  5
1A5
330
1F
100
AcDbEntity
  8
LAY-10
  6
CONTINUOUS
 62
     7
100
AcDbLine
 10
265.5000000000156
 20
136.1999999999856
 30
0.0
 11
270.5000000000147
 21
140.199999999986
 31
0.0
  0
LINE
  5
1A6
330
1F
100
AcDbEntity
  8
LAY-10
  6
CONTINUOUS
 62
     7
100
AcDbLine
 10
212.6022907320113
 20
128.8758838608699
 30
0.0
 11
222.7548339957922
 21
136.199999999903
 31
0.0
  0
LINE
  5
1A7
330
1F
100
AcDbEntity
  8
LAY-10
  6
CONTINUOUS
 62
     7
100
AcDbLine
 10
170.1758838608422
 20
171.3022907320392
 30
0.0
 11
177.4999999998755
 21
181.4548339958192
 31
0.0
  0
LINE
  5
1A8
330
1F
100
AcDbEntity
  8
LAY-10
  6
CONTINUOUS
 62
     7
100
AcDbLine
 10
176.1862915008752
 20
156.0994949365791
 30
0.0
 11
176.1862915008752
 21
179.6337975568939
 31
0.0
  0
LINE
  5
1A9
330
1F
100
AcDbEntity
  8
LAY-10
  6
CONTINUOUS
 62
     7
100
AcDbLine
 10
197.3994949364752
 20
134.8862915009809
 30
0.0
 11
220.9337975569753
 21
134.8862915009809
 31
0.0
  0
LINE
  5
1AA
330
1F
100
AcDbEntity
  8
LAY-10
  6
CONTINUOUS
 62
     7
100
AcDbLine
 10
177.5000000000117
 20
146.1999999999894
 30
0.0
 11
177.5000000000117
 21
146.3005050632409
 31
0.0
  0
LINE
  5
1AB
330
1F
100
AcDbEntity
  8
LAY-10
  6
CONTINUOUS
 62
     7
100
AcDbLine
 10
177.5000000000117
 20
181.4548339960081
 30
0.0
 11
177.5000000000117
 21
296.1999999999893
 31
0.0
  0
LINE
  5
1AC
330
1F
100
AcDbEntity
  8
LAY-10
  6
CONTINUOUS
 62
     7
100
AcDbLine
 10
187.5000000000124
 20
136.1999999999894
 30
0.0
 11
187.6005050632617
 21
136.1999999999894
 31
0.0
  0
LINE
  5
1AD
330
1F
100
AcDbEntity
  8
LAY-10
  6
CONTINUOUS
 62
     7
100
AcDbLine
 10
222.754833995912
 20
136.1999999999894
 30
0.0
 11
337.5000000000024
 21
136.1999999999894
 31
0.0
  0
LINE
  5
1AE
330
1F
100
AcDbEntity
  8
LAY-10
  6
CONTINUOUS
 62
     7
100
AcDbLine
 10
117.5000000000117
 20
243.8018249461999
 30
0.0
 11
117.5000000000117
 21
103.8018249462398
 31
0.0
  0
LINE
  5
1AF
330
1F
100
AcDbEntity
  8
LAY-10
  6
CONTINUOUS
 62
     7
100
AcDbLine
 10
162.4999999999119
 20
243.8018249462397
 30
0.0
 11
162.4999999999119
 21
239.3018249462397
 31
0.0
  0
LINE
  5
1B0
330
1F
100
AcDbEntity
  8
LAY-10
  6
CONTINUOUS
 62
     7
100
AcDbLine
 10
162.4999999999121
 20
243.8018249462397
 30
0.0
 11
117.5000000000117
 21
243.8018249462397
 31
0.0
  0
LINE
  5
1B1
330
1F
100
AcDbEntity
  8
LAY-10
  6
CONTINUOUS
 62
     7
100
AcDbLine
 10
162.4999999999121
 20
239.3018249462397
 30
0.0
 11
117.5000000000117
 21
239.3018249462397
 31
0.0
  0
LINE
  5
1B2
330
1F
100
AcDbEntity
  8
LAY-10
  6
CONTINUOUS
 62
     7
100
AcDbLine
 10
162.4999999999119
 20
103.8018249462798
 30
0.0
 11
162.4999999999119
 21
108.3018249462798
 31
0.0
  0
LINE
  5
1B3
330
1F
100
AcDbEntity
  8
LAY-10
  6
CONTINUOUS
 62
     7
100
AcDbLine
 10
162.4999999999121
 20
103.8018249462396
 30
0.0
 11
117.5000000000117
 21
103.8018249462396
 31
0.0
  0
LINE
  5
1B4
330
1F
100
AcDbEntity
  8
LAY-10
  6
CONTINUOUS
 62
     7
100
AcDbLine
 10
162.4999999999121
 20
108.3018249462394
 30
0.0
 11
117.5000000000117
 21
108.3018249462394
 31
0.0
  0
LINE
  5
1B5
330
1F
100
AcDbEntity
  8
LAY-10
  6
CONTINUOUS
 62
     7
100
AcDbLine
 10
567.4999999999202
 20
123.1999999999917
 30
0.0
 11
557.4999999999193
 21
123.1999999999917
 31
0.0
  0
LINE
  5
1B6
330
1F
100
AcDbEntity
  8
LAY-10
  6
CONTINUOUS
 62
     7
100
AcDbLine
 10
532.4999999999002
 20
136.1999999999899
 30
0.0
 11
533.4999999999002
 21
128.1999999999899
 31
0.0
  0
LINE
  5
1B7
330
1F
100
AcDbEntity
  8
LAY-10
  6
CONTINUOUS
 62
     7
100
AcDbLine
 10
567.4999999999197
 20
123.1999999999894
 30
0.0
 11
568.7499999999202
 21
128.1999999999901
 31
0.0
  0
LINE
  5
1B8
330
1F
100
AcDbEntity
  8
LAY-10
  6
CONTINUOUS
 62
     7
100
AcDbLine
 10
557.4999999999202
 20
123.1999999999894
 30
0.0
 11
556.2499999999197
 21
128.1999999999901
 31
0.0
  0
LINE
  5
1B9
330
1F
100
AcDbEntity
  8
LAY-10
  6
CONTINUOUS
 62
     7
100
AcDbLine
 10
767.50000000008
 20
123.1999999999917
 30
0.0
 11
777.500000000081
 21
123.1999999999917
 31
0.0
  0
LINE
  5
1BA
330
1F
100
AcDbEntity
  8
LAY-10
  6
CONTINUOUS
 62
     7
100
AcDbLine
 10
801.5000000001
 20
128.1999999999899
 30
0.0
 11
802.5000000000999
 21
136.1999999999899
 31
0.0
  0
LINE
  5
1BB
330
1F
100
AcDbEntity
  8
LAY-10
  6
CONTINUOUS
 62
     7
100
AcDbLine
 10
767.5000000000805
 20
123.1999999999894
 30
0.0
 11
766.25000000008
 21
128.1999999999901
 31
0.0
  0
LINE
  5
1BC
330
1F
100
AcDbEntity
  8
LAY-10
  6
CONTINUOUS
 62
     7
100
AcDbLine
 10
777.50000000008
 20
123.1999999999894
 30
0.0
 11
778.7500000000805
 21
128.1999999999901
 31
0.0
  0
LINE
  5
1BD
330
1F
100
AcDbEntity
  8
LAY-10
  6
CONTINUOUS
 62
     7
100
AcDbLine
 10
802.50000000008
 20
136.1999999999899
 30
0.0
 11
532.4999999999202
 21
136.1999999999899
 31
0.0
  0
LINE
  5
1BE
330
1F
100
AcDbEntity
  8
LAY-10
  6
CONTINUOUS
 62
     7
100
AcDbLine
 10
533.4999999999002
 20
128.1999999999901
 30
0.0
 11
801.5000000001
 21
128.1999999999901
 31
0.0
  0
ARC
  5
1BF
330
1F
100
AcDbEntity
  8
LAY-10
  6
CONTINUOUS
 62
     7
100
AcDbCircle
 10
542.4999999999202
 20
286.1999999999898
 30
0.0
 40
10.0
100
AcDbArc
 50
90.00000000000001
 51
180.0
  0
LINE
  5
1C0
330
1F
100
AcDbEntity
  8
LAY-10
  6
CONTINUOUS
 62
     7
100
AcDbLine
 10
532.4999999999002
 20
286.1999999999998
 30
0.0
 11
532.4999999999002
 21
136.1999999999899
 31
0.0
  0
LINE
  5
1C1
330
1F
100
AcDbEntity
  8
LAY-10
  6
CONTINUOUS
 62
     7
100
AcDbLine
 10
802.50000000008
 20
286.1999999999898
 30
0.0
 11
802.50000000008
 21
136.1999999999899
 31
0.0
  0
ARC
  5
1C2
330
1F
100
AcDbEntity
  8
LAY-10
  6
CONTINUOUS
 62
     7
100
AcDbCircle
 10
792.50000000008
 20
286.1999999999898
 30
0.0
 40
10.0
100
AcDbArc
 50
0.0
 51
90.00000000000001
  0
LINE
  5
1C3
330
1F
100
AcDbEntity
  8
LAY-10
  6
CONTINUOUS
 62
     7
100
AcDbLine
 10
542.4999999999202
 20
296.1999999999898
 30
0.0
 11
792.50000000008
 21
296.1999999999898
 31
0.0
  0
ARC
  5
1C4
330
1F
100
AcDbEntity
  8
LAY-10
  6
CONTINUOUS
 62
     7
100
AcDbCircle
 10
667.5
 20
173.6999999999899
 30
0.0
 40
56.72074504071998
100
AcDbArc
 50
247.6829609441022
 51
292.3170390558979
  0
ARC
  5
1C5
330
1F
100
AcDbEntity
  8
LAY-10
  6
CONTINUOUS
 62
     7
100
AcDbCircle
 10
667.5
 20
173.6999999999899
 30
0.0
 40
70.50000000001
100
AcDbArc
 50
228.0978309045142
 51
311.9021690954858
  0
LINE
  5
1C6
330
1F
100
AcDbEntity
  8
LAY-10
  6
CONTINUOUS
 62
     7
100
AcDbLine
 10
588.5000000000002
 20
128.1999999999599
 30
0.0
 11
592.5000000000002
 21
121.2278184593497
 31
0.0
  0
LINE
  5
1C7
330
1F
100
AcDbEntity
  8
LAY-10
  6
CONTINUOUS
 62
     7
100
AcDbLine
 10
592.5000000000002
 20
121.2278184593484
 30
0.0
 11
742.4999999999991
 21
121.2278184593484
 31
0.0
  0
LINE
  5
1C8
330
1F
100
AcDbEntity
  8
LAY-10
  6
CONTINUOUS
 62
     7
100
AcDbLine
 10
746.5
 20
128.1999999999599
 30
0.0
 11
742.5
 21
121.2278184593497
 31
0.0
  0
CIRCLE
  5
1C9
330
1F
100
AcDbEntity
  8
LAY-10
  6
CONTINUOUS
 62
     7
100
AcDbCircle
 10
562.4999999999202
 20
103.7000000000397
 30
0.0
 40
2.5
  0
LINE
  5
1CA
330
1F
100
AcDbEntity
  8
LAY-10
  6
CONTINUOUS
 62
     7
100
AcDbLine
 10
559.9999999999184
 20
103.7000000000397
 30
0.0
 11
559.9999999999184
 21
123.1999999999892
 31
0.0
  0
LINE
  5
1CB
330
1F
100
AcDbEntity
  8
LAY-10
  6
CONTINUOUS
 62
     7
100
AcDbLine
 10
564.9999999999184
 20
103.7000000000397
 30
0.0
 11
564.9999999999184
 21
123.1999999999892
 31
0.0
  0
CIRCLE
  5
1CC
330
1F
100
AcDbEntity
  8
LAY-10
  6
CONTINUOUS
 62
     7
100
AcDbCircle
 10
772.50000000008
 20
103.7000000000397
 30
0.0
 40
2.5
  0
LINE
  5
1CD
330
1F
100
AcDbEntity
  8
LAY-10
  6
CONTINUOUS
 62
     7
100
AcDbLine
 10
770.0000000000782
 20
103.7000000000397
 30
0.0
 11
770.0000000000782
 21
123.1999999999892
 31
0.0
  0
LINE
  5
1CE
330
1F
100
AcDbEntity
  8
LAY-10
  6
CONTINUOUS
 62
     7
100
AcDbLine
 10
775.0000000000782
 20
103.7000000000397
 30
0.0
 11
775.0000000000782
 21
123.1999999999892
 31
0.0
  0
LINE
  5
1CF
330
1F
100
AcDbEntity
  8
LAY-10
  6
CONTINUOUS
 62
     7
100
AcDbLine
 10
640.9999999999391
 20
153.1999999999853
 30
0.0
 11
643.1465426273144
 21
141.0263518223174
 31
0.0
  0
ARC
  5
1D0
330
1F
100
AcDbEntity
  8
LAY-10
  6
CONTINUOUS
 62
     7
100
AcDbCircle
 10
644.1313503803267
 20
141.1999999999844
 30
0.0
 40
1.0
100
AcDbArc
 50
189.999999999991
 51
270.0
  0
ARC
  5
1D1
330
1F
100
AcDbEntity
  8
LAY-10
  6
CONTINUOUS
 62
     7
100
AcDbCircle
 10
645.8686496195514
 20
141.1999999999844
 30
0.0
 40
1.0
100
AcDbArc
 50
270.0
 51
350.0000000000078
  0
LINE
  5
1D2
330
1F
100
AcDbEntity
  8
LAY-10
  6
CONTINUOUS
 62
     7
100
AcDbLine
 10
648.99999999994
 20
153.1999999999853
 30
0.0
 11
646.8534573725628
 21
141.0263518223174
 31
0.0
  0
LINE
  5
1D3
330
1F
100
AcDbEntity
  8
LAY-10
  6
CONTINUOUS
 62
     7
100
AcDbLine
 10
595.9999999999384
 20
153.1999999999853
 30
0.0
 11
598.1465426273137
 21
141.0263518223174
 31
0.0
  0
ARC
  5
1D4
330
1F
100
AcDbEntity
  8
LAY-10
  6
CONTINUOUS
 62
     7
100
AcDbCircle
 10
599.1313503803269
 20
141.1999999999844
 30
0.0
 40
1.0
100
AcDbArc
 50
189.999999999991
 51
270.0
  0
ARC
  5
1D5
330
1F
100
AcDbEntity
  8
LAY-10
  6
CONTINUOUS
 62
     7
100
AcDbCircle
 10
600.8686496195517
 20
141.1999999999844
 30
0.0
 40
1.0
100
AcDbArc
 50
270.0
 51
350.0000000000078
  0
LINE
  5
1D6
330
1F
100
AcDbEntity
  8
LAY-10
  6
CONTINUOUS
 62
     7
100
AcDbLine
 10
603.9999999999402
 20
153.1999999999853
 30
0.0
 11
601.8534573725631
 21
141.0263518223174
 31
0.0
  0
LINE
  5
1D7
330
1F
100
AcDbEntity
  8
LAY-10
  6
CONTINUOUS
 62
     7
100
AcDbLine
 10
694.0000000000618
 20
153.1999999999853
 30
0.0
 11
691.8534573726865
 21
141.0263518223174
 31
0.0
  0
ARC
  5
1D8
330
1F
100
AcDbEntity
  8
LAY-10
  6
CONTINUOUS
 62
     7
100
AcDbCircle
 10
690.8686496196742
 20
141.1999999999844
 30
0.0
 40
1.0
100
AcDbArc
 50
270.0
 51
350.0000000000089
  0
ARC
  5
1D9
330
1F
100
AcDbEntity
  8
LAY-10
  6
CONTINUOUS
 62
     7
100
AcDbCircle
 10
689.1313503804486
 20
141.1999999999844
 30
0.0
 40
1.0
100
AcDbArc
 50
189.999999999991
 51
270.0
  0
LINE
  5
1DA
330
1F
100
AcDbEntity
  8
LAY-10
  6
CONTINUOUS
 62
     7
100
AcDbLine
 10
686.00000000006
 20
153.1999999999853
 30
0.0
 11
688.1465426274372
 21
141.0263518223174
 31
0.0
  0
ARC
  5
1DB
330
1F
100
AcDbEntity
  8
LAY-10
  6
CONTINUOUS
 62
     7
100
AcDbCircle
 10
735.8686496196742
 20
141.1999999999844
 30
0.0
 40
1.0
100
AcDbArc
 50
270.0
 51
350.0000000000089
  0
ARC
  5
1DC
330
1F
100
AcDbEntity
  8
LAY-10
  6
CONTINUOUS
 62
     7
100
AcDbCircle
 10
734.1313503804486
 20
141.1999999999844
 30
0.0
 40
1.0
100
AcDbArc
 50
189.999999999991
 51
270.0
  0
LINE
  5
1DD
330
1F
100
AcDbEntity
  8
LAY-10
  6
CONTINUOUS
 62
     7
100
AcDbLine
 10
731.00000000006
 20
153.1999999999853
 30
0.0
 11
733.1465426274372
 21
141.0263518223174
 31
0.0
  0
LINE
  5
1DE
330
1F
100
AcDbEntity
  8
LAY-10
  6
CONTINUOUS
 62
     7
100
AcDbLine
 10
739.0000000000618
 20
153.1999999999853
 30
0.0
 11
736.8534573726865
 21
141.0263518223174
 31
0.0
  0
LINE
  5
1DF
330
1F
100
AcDbEntity
  8
LAY-10
  6
CONTINUOUS
 62
     7
100
AcDbLine
 10
603.9999999999548
 20
153.2000000000695
 30
0.0
 11
640.9999999999236
 21
153.2000000000695
 31
0.0
  0
LINE
  5
1E0
330
1F
100
AcDbEntity
  8
LAY-10
  6
CONTINUOUS
 62
     7
100
AcDbLine
 10
694.0000000000764
 20
153.2000000000695
 30
0.0
 11
731.0000000000464
 21
153.2000000000695
 31
0.0
  0
LINE
  5
1E1
330
1F
100
AcDbEntity
  8
LAY-10
  6
CONTINUOUS
 62
     7
100
AcDbLine
 10
669.9999999999782
 20
240.2000000000648
 30
0.0
 11
664.9999999999782
 21
240.2000000000648
 31
0.0
  0
ARC
  5
1E2
330
1F
100
AcDbEntity
  8
LAY-10
  6
CONTINUOUS
 62
     7
100
AcDbCircle
 10
669.9999999999782
 20
237.2000000000648
 30
0.0
 40
3.0
100
AcDbArc
 50
0.0
 51
89.99999999999996
  0
ARC
  5
1E3
330
1F
100
AcDbEntity
  8
LAY-10
  6
CONTINUOUS
 62
     7
100
AcDbCircle
 10
664.9999999999782
 20
237.2000000000648
 30
0.0
 40
3.0
100
AcDbArc
 50
89.99999999999996
 51
180.0
  0
LINE
  5
1E4
330
1F
100
AcDbEntity
  8
LAY-10
  6
CONTINUOUS
 62
     7
100
AcDbLine
 10
669.9999999999782
 20
172.1852813743031
 30
0.0
 11
664.9999999999782
 21
172.1852813743031
 31
0.0
  0
ARC
  5
1E5
330
1F
100
AcDbEntity
  8
LAY-10
  6
CONTINUOUS
 62
     7
100
AcDbCircle
 10
669.9999999999782
 20
175.1852813743035
 30
0.0
 40
3.0
100
AcDbArc
 50
270.0
 51
0.0
  0
ARC
  5
1E6
330
1F
100
AcDbEntity
  8
LAY-10
  6
CONTINUOUS
 62
     7
100
AcDbCircle
 10
664.9999999999782
 20
175.1852813743035
 30
0.0
 40
3.0
100
AcDbArc
 50
180.0
 51
270.0
  0
LINE
  5
1E7
330
1F
100
AcDbEntity
  8
LAY-10
  6
CONTINUOUS
 62
     7
100
AcDbLine
 10
661.9999999999782
 20
237.2000000000648
 30
0.0
 11
661.9999999999782
 21
175.1852813743035
 31
0.0
  0
LINE
  5
1E8
330
1F
100
AcDbEntity
  8
LAY-10
  6
CONTINUOUS
 62
     7
100
AcDbLine
 10
678.9999999999782
 20
183.6852813743047
 30
0.0
 11
672.9999999999782
 21
183.6852813743047
 31
0.0
  0
LINE
  5
1E9
330
1F
100
AcDbEntity
  8
LAY-10
  6
CONTINUOUS
 62
     7
100
AcDbLine
 10
661.9999999999782
 20
183.6852813743047
 30
0.0
 11
655.9999999999782
 21
183.6852813743047
 31
0.0
  0
ARC
  5
1EA
330
1F
100
AcDbEntity
  8
LAY-10
  6
CONTINUOUS
 62
     7
100
AcDbCircle
 10
595.9999999999784
 20
234.2000000000648
 30
0.0
 40
6.999999999999999
100
AcDbArc
 50
180.0
 51
0.0
  0
LINE
  5
1EB
330
1F
100
AcDbEntity
  8
LAY-10
  6
CONTINUOUS
 62
     7
100
AcDbLine
 10
602.9999999999784
 20
234.2000000000648
 30
0.0
 11
602.9999999999784
 21
239.2000000000648
 31
0.0
  0
ARC
  5
1EC
330
1F
100
AcDbEntity
  8
LAY-10
  6
CONTINUOUS
 62
     7
100
AcDbCircle
 10
595.9999999999784
 20
239.2000000000648
 30
0.0
 40
6.999999999999999
100
AcDbArc
 50
0.0
 51
180.0
  0
LINE
  5
1ED
330
1F
100
AcDbEntity
  8
LAY-10
  6
CONTINUOUS
 62
     7
100
AcDbLine
 10
588.9999999999784
 20
239.2000000000648
 30
0.0
 11
588.9999999999784
 21
234.2000000000648
 31
0.0
  0
ELLIPSE
  5
1EE
330
1F
100
AcDbEntity
  8
LAY-10
  6
CONTINUOUS
 62
     7
100
AcDbEllipse
 10
611.4999999999784
 20
167.9426406871842
 30
0.0
 11
7.499999999999778
 21
-1.836970198720976E-15
 31
0.0
210
0.0
220
0.0
230
1.0
 40
0.7071067811865671
 41
0.0
 42
6.283185307179586
  0
LINE
  5
1EF
330
1F
100
AcDbEntity
  8
LAY-10
  6
CONTINUOUS
 62
     7
100
AcDbLine
 10
672.9999999999782
 20
237.2000000000648
 30
0.0
 11
672.9999999999782
 21
175.1852813743035
 31
0.0
  0
ARC
  5
1F0
330
1F
100
AcDbEntity
  8
LAY-10
  6
CONTINUOUS
 62
     7
100
AcDbCircle
 10
652.9999999999782
 20
237.2000000000648
 30
0.0
 40
3.0
100
AcDbArc
 50
0.0
 51
89.99999999999996
  0
ARC
  5
1F1
330
1F
100
AcDbEntity
  8
LAY-10
  6
CONTINUOUS
 62
     7
100
AcDbCircle
 10
652.9999999999782
 20
175.1852813743035
 30
0.0
 40
3.0
100
AcDbArc
 50
270.0
 51
0.0
  0
LINE
  5
1F2
330
1F
100
AcDbEntity
  8
LAY-10
  6
CONTINUOUS
 62
     7
100
AcDbLine
 10
655.9999999999782
 20
237.2000000000648
 30
0.0
 11
655.9999999999782
 21
175.1852813743035
 31
0.0
  0
ARC
  5
1F3
330
1F
100
AcDbEntity
  8
LAY-10
  6
CONTINUOUS
 62
     7
100
AcDbCircle
 10
647.9999999999782
 20
237.2000000000648
 30
0.0
 40
3.0
100
AcDbArc
 50
89.99999999999996
 51
180.0
  0
ARC
  5
1F4
330
1F
100
AcDbEntity
  8
LAY-10
  6
CONTINUOUS
 62
     7
100
AcDbCircle
 10
647.9999999999782
 20
175.1852813743035
 30
0.0
 40
3.0
100
AcDbArc
 50
180.0
 51
270.0
  0
LINE
  5
1F5
330
1F
100
AcDbEntity
  8
LAY-10
  6
CONTINUOUS
 62
     7
100
AcDbLine
 10
644.9999999999782
 20
237.2000000000648
 30
0.0
 11
644.9999999999782
 21
175.1852813743035
 31
0.0
  0
LINE
  5
1F6
330
1F
100
AcDbEntity
  8
LAY-10
  6
CONTINUOUS
 62
     7
100
AcDbLine
 10
652.9999999999782
 20
240.2000000000648
 30
0.0
 11
647.9999999999782
 21
240.2000000000648
 31
0.0
  0
LINE
  5
1F7
330
1F
100
AcDbEntity
  8
LAY-10
  6
CONTINUOUS
 62
     7
100
AcDbLine
 10
652.9999999999782
 20
172.1852813743031
 30
0.0
 11
647.9999999999782
 21
172.1852813743031
 31
0.0
  0
ARC
  5
1F8
330
1F
100
AcDbEntity
  8
LAY-10
  6
CONTINUOUS
 62
     7
100
AcDbCircle
 10
635.9999999999782
 20
237.2000000000648
 30
0.0
 40
3.0
100
AcDbArc
 50
0.0
 51
89.99999999999996
  0
ARC
  5
1F9
330
1F
100
AcDbEntity
  8
LAY-10
  6
CONTINUOUS
 62
     7
100
AcDbCircle
 10
635.9999999999782
 20
175.1852813743035
 30
0.0
 40
3.0
100
AcDbArc
 50
270.0
 51
0.0
  0
LINE
  5
1FA
330
1F
100
AcDbEntity
  8
LAY-10
  6
CONTINUOUS
 62
     7
100
AcDbLine
 10
638.9999999999782
 20
237.2000000000648
 30
0.0
 11
638.9999999999782
 21
175.1852813743035
 31
0.0
  0
ARC
  5
1FB
330
1F
100
AcDbEntity
  8
LAY-10
  6
CONTINUOUS
 62
     7
100
AcDbCircle
 10
630.9999999999782
 20
237.2000000000648
 30
0.0
 40
3.0
100
AcDbArc
 50
89.99999999999996
 51
180.0
  0
ARC
  5
1FC
330
1F
100
AcDbEntity
  8
LAY-10
  6
CONTINUOUS
 62
     7
100
AcDbCircle
 10
630.9999999999782
 20
175.1852813743035
 30
0.0
 40
3.0
100
AcDbArc
 50
180.0
 51
270.0
  0
LINE
  5
1FD
330
1F
100
AcDbEntity
  8
LAY-10
  6
CONTINUOUS
 62
     7
100
AcDbLine
 10
627.9999999999782
 20
237.2000000000648
 30
0.0
 11
627.9999999999782
 21
175.1852813743035
 31
0.0
  0
LINE
  5
1FE
330
1F
100
AcDbEntity
  8
LAY-10
  6
CONTINUOUS
 62
     7
100
AcDbLine
 10
635.9999999999782
 20
240.2000000000648
 30
0.0
 11
630.9999999999782
 21
240.2000000000648
 31
0.0
  0
LINE
  5
1FF
330
1F
100
AcDbEntity
  8
LAY-10
  6
CONTINUOUS
 62
     7
100
AcDbLine
 10
635.9999999999782
 20
172.1852813743031
 30
0.0
 11
630.9999999999782
 21
172.1852813743031
 31
0.0
  0
ARC
  5
200
330
1F
100
AcDbEntity
  8
LAY-10
  6
CONTINUOUS
 62
     7
100
AcDbCircle
 10
618.9999999999784
 20
237.2000000000648
 30
0.0
 40
3.0
100
AcDbArc
 50
0.0
 51
89.99999999999996
  0
LINE
  5
201
330
1F
100
AcDbEntity
  8
LAY-10
  6
CONTINUOUS
 62
     7
100
AcDbLine
 10
621.9999999999784
 20
237.2000000000648
 30
0.0
 11
621.9999999999784
 21
178.1417644100916
 31
0.0
  0
ARC
  5
202
330
1F
100
AcDbEntity
  8
LAY-10
  6
CONTINUOUS
 62
     7
100
AcDbCircle
 10
613.9999999999784
 20
237.2000000000648
 30
0.0
 40
3.0
100
AcDbArc
 50
89.99999999999996
 51
180.0
  0
LINE
  5
203
330
1F
100
AcDbEntity
  8
LAY-10
  6
CONTINUOUS
 62
     7
100
AcDbLine
 10
610.9999999999784
 20
237.2000000000648
 30
0.0
 11
610.9999999999784
 21
180.0674509317733
 31
0.0
  0
LINE
  5
204
330
1F
100
AcDbEntity
  8
LAY-10
  6
CONTINUOUS
 62
     7
100
AcDbLine
 10
618.9999999999784
 20
240.2000000000648
 30
0.0
 11
613.9999999999784
 21
240.2000000000648
 31
0.0
  0
LINE
  5
205
330
1F
100
AcDbEntity
  8
LAY-10
  6
CONTINUOUS
 62
     7
100
AcDbLine
 10
644.9999999999782
 20
183.6852813743047
 30
0.0
 11
638.9999999999782
 21
183.6852813743047
 31
0.0
  0
LINE
  5
206
330
1F
100
AcDbEntity
  8
LAY-10
  6
CONTINUOUS
 62
     7
100
AcDbLine
 10
627.9999999999782
 20
183.6852813743047
 30
0.0
 11
621.9999999999784
 21
183.6852813743047
 31
0.0
  0
LINE
  5
207
330
1F
100
AcDbEntity
  8
LAY-10
  6
CONTINUOUS
 62
     7
100
AcDbLine
 10
610.9999999999784
 20
183.6852813743047
 30
0.0
 11
604.9999999999784
 21
183.6852813743047
 31
0.0
  0
LINE
  5
208
330
1F
100
AcDbEntity
  8
LAY-10
  6
CONTINUOUS
 62
     7
100
AcDbLine
 10
592.9999999999784
 20
183.6852813743047
 30
0.0
 11
584.4999999999784
 21
183.6852813743047
 31
0.0
  0
LINE
  5
209
330
1F
100
AcDbEntity
  8
LAY-10
  6
CONTINUOUS
 62
     7
100
AcDbLine
 10
595.4999999999784
 20
220.2000000000648
 30
0.0
 11
602.9999999999784
 21
220.2000000000648
 31
0.0
  0
LINE
  5
20A
330
1F
100
AcDbEntity
  8
LAY-10
  6
CONTINUOUS
 62
     7
100
AcDbLine
 10
604.9999999999784
 20
218.2000000000648
 30
0.0
 11
604.9999999999784
 21
178.5149881954974
 31
0.0
  0
LINE
  5
20B
330
1F
100
AcDbEntity
  8
LAY-10
  6
CONTINUOUS
 62
     7
100
AcDbLine
 10
593.4999999999784
 20
218.2000000000648
 30
0.0
 11
593.4999999999784
 21
174.1852813743031
 31
0.0
  0
LINE
  5
20C
330
1F
100
AcDbEntity
  8
LAY-10
  6
CONTINUOUS
 62
     7
100
AcDbLine
 10
595.4999999999784
 20
172.1852813743031
 30
0.0
 11
597.0973942294215
 21
172.1852813743031
 31
0.0
  0
ARC
  5
20D
330
1F
100
AcDbEntity
  8
LAY-10
  6
CONTINUOUS
 62
     7
100
AcDbCircle
 10
595.4999999999784
 20
174.1852813743031
 30
0.0
 40
2.0
100
AcDbArc
 50
180.0
 51
270.0
  0
ARC
  5
20E
330
1F
100
AcDbEntity
  8
LAY-10
  6
CONTINUOUS
 62
     7
100
AcDbCircle
 10
619.9999999999784
 20
178.1417644100916
 30
0.0
 40
2.0
100
AcDbArc
 50
254.6185247042228
 51
0.0
  0
ARC
  5
20F
330
1F
100
AcDbEntity
  8
LAY-10
  6
CONTINUOUS
 62
     7
100
AcDbCircle
 10
612.9999999999784
 20
180.0674509317733
 30
0.0
 40
2.0
100
AcDbArc
 50
180.0
 51
254.6185247042228
  0
ARC
  5
210
330
1F
100
AcDbEntity
  8
LAY-10
  6
CONTINUOUS
 62
     7
100
AcDbCircle
 10
602.9999999999784
 20
178.5149881954974
 30
0.0
 40
2.0
100
AcDbArc
 50
306.2609652518453
 51
0.0
  0
ARC
  5
211
330
1F
100
AcDbEntity
  8
LAY-10
  6
CONTINUOUS
 62
     7
100
AcDbCircle
 10
597.0973942294215
 20
174.1852813743031
 30
0.0
 40
2.0
100
AcDbArc
 50
270.0
 51
306.2609652518453
  0
ARC
  5
212
330
1F
100
AcDbEntity
  8
LAY-10
  6
CONTINUOUS
 62
     7
100
AcDbCircle
 10
595.4999999999784
 20
218.2000000000648
 30
0.0
 40
2.0
100
AcDbArc
 50
89.99999999999996
 51
180.0
  0
ARC
  5
213
330
1F
100
AcDbEntity
  8
LAY-10
  6
CONTINUOUS
 62
     7
100
AcDbCircle
 10
602.9999999999784
 20
218.2000000000648
 30
0.0
 40
2.0
100
AcDbArc
 50
0.0
 51
89.99999999999996
  0
ARC
  5
214
330
1F
100
AcDbEntity
  8
LAY-10
  6
CONTINUOUS
 62
     7
100
AcDbCircle
 10
669.9999999999782
 20
160.7000000000649
 30
0.0
 40
3.0
100
AcDbArc
 50
0.0
 51
89.99999999999996
  0
ARC
  5
215
330
1F
100
AcDbEntity
  8
LAY-10
  6
CONTINUOUS
 62
     7
100
AcDbCircle
 10
664.9999999999782
 20
160.7000000000649
 30
0.0
 40
3.0
100
AcDbArc
 50
89.99999999999996
 51
180.0
  0
LINE
  5
216
330
1F
100
AcDbEntity
  8
LAY-10
  6
CONTINUOUS
 62
     7
100
AcDbLine
 10
669.9999999999782
 20
163.7000000000651
 30
0.0
 11
664.9999999999782
 21
163.7000000000651
 31
0.0
  0
ARC
  5
217
330
1F
100
AcDbEntity
  8
LAY-10
  6
CONTINUOUS
 62
     7
100
AcDbCircle
 10
652.9999999999782
 20
160.7000000000649
 30
0.0
 40
3.0
100
AcDbArc
 50
0.0
 51
89.99999999999996
  0
ARC
  5
218
330
1F
100
AcDbEntity
  8
LAY-10
  6
CONTINUOUS
 62
     7
100
AcDbCircle
 10
647.9999999999782
 20
160.7000000000649
 30
0.0
 40
3.0
100
AcDbArc
 50
89.99999999999996
 51
180.0
  0
LINE
  5
219
330
1F
100
AcDbEntity
  8
LAY-10
  6
CONTINUOUS
 62
     7
100
AcDbLine
 10
644.9999999999782
 20
152.2000000000651
 30
0.0
 11
644.9999999999782
 21
160.7000000000649
 31
0.0
  0
LINE
  5
21A
330
1F
100
AcDbEntity
  8
LAY-10
  6
CONTINUOUS
 62
     7
100
AcDbLine
 10
652.9999999999782
 20
163.7000000000651
 30
0.0
 11
647.9999999999782
 21
163.7000000000651
 31
0.0
  0
ARC
  5
21B
330
1F
100
AcDbEntity
  8
LAY-10
  6
CONTINUOUS
 62
     7
100
AcDbCircle
 10
635.9999999999782
 20
160.7000000000649
 30
0.0
 40
3.0
100
AcDbArc
 50
0.0
 51
89.99999999999996
  0
ARC
  5
21C
330
1F
100
AcDbEntity
  8
LAY-10
  6
CONTINUOUS
 62
     7
100
AcDbCircle
 10
630.9999999999782
 20
160.7000000000649
 30
0.0
 40
3.0
100
AcDbArc
 50
89.99999999999996
 51
180.0
  0
LINE
  5
21D
330
1F
100
AcDbEntity
  8
LAY-10
  6
CONTINUOUS
 62
     7
100
AcDbLine
 10
635.9999999999782
 20
163.7000000000651
 30
0.0
 11
630.9999999999782
 21
163.7000000000651
 31
0.0
  0
ARC
  5
21E
330
1F
100
AcDbEntity
  8
LAY-10
  6
CONTINUOUS
 62
     7
100
AcDbCircle
 10
595.4999999999784
 20
161.7000000000651
 30
0.0
 40
2.0
100
AcDbArc
 50
89.99999999999996
 51
180.0
  0
ARC
  5
21F
330
1F
100
AcDbEntity
  8
LAY-10
  6
CONTINUOUS
 62
     7
100
AcDbCircle
 10
602.9999999999784
 20
157.370293178871
 30
0.0
 40
2.0
100
AcDbArc
 50
0.0
 51
53.73903474815468
  0
LINE
  5
220
330
1F
100
AcDbEntity
  8
LAY-10
  6
CONTINUOUS
 62
     7
100
AcDbLine
 10
595.4999999999784
 20
163.7000000000651
 30
0.0
 11
597.0973942294215
 21
163.7000000000651
 31
0.0
  0
ARC
  5
221
330
1F
100
AcDbEntity
  8
LAY-10
  6
CONTINUOUS
 62
     7
100
AcDbCircle
 10
597.0973942294215
 20
161.7000000000651
 30
0.0
 40
2.0
100
AcDbArc
 50
53.73903474815468
 51
89.99999999999996
  0
ARC
  5
222
330
1F
100
AcDbEntity
  8
LAY-10
  6
CONTINUOUS
 62
     7
100
AcDbCircle
 10
738.9999999999782
 20
234.2000000000648
 30
0.0
 40
6.999999999999999
100
AcDbArc
 50
180.0
 51
0.0
  0
LINE
  5
223
330
1F
100
AcDbEntity
  8
LAY-10
  6
CONTINUOUS
 62
     7
100
AcDbLine
 10
731.9999999999782
 20
234.2000000000648
 30
0.0
 11
731.9999999999782
 21
239.2000000000648
 31
0.0
  0
ARC
  5
224
330
1F
100
AcDbEntity
  8
LAY-10
  6
CONTINUOUS
 62
     7
100
AcDbCircle
 10
738.9999999999782
 20
239.2000000000648
 30
0.0
 40
6.999999999999999
100
AcDbArc
 50
0.0
 51
180.0
  0
LINE
  5
225
330
1F
100
AcDbEntity
  8
LAY-10
  6
CONTINUOUS
 62
     7
100
AcDbLine
 10
745.9999999999782
 20
239.2000000000648
 30
0.0
 11
745.9999999999782
 21
234.2000000000648
 31
0.0
  0
ARC
  5
226
330
1F
100
AcDbEntity
  8
LAY-10
  6
CONTINUOUS
 62
     7
100
AcDbCircle
 10
681.9999999999782
 20
237.2000000000648
 30
0.0
 40
3.0
100
AcDbArc
 50
89.99999999999996
 51
180.0
  0
ARC
  5
227
330
1F
100
AcDbEntity
  8
LAY-10
  6
CONTINUOUS
 62
     7
100
AcDbCircle
 10
681.9999999999782
 20
175.1852813743035
 30
0.0
 40
3.0
100
AcDbArc
 50
180.0
 51
270.0
  0
LINE
  5
228
330
1F
100
AcDbEntity
  8
LAY-10
  6
CONTINUOUS
 62
     7
100
AcDbLine
 10
678.9999999999782
 20
237.2000000000648
 30
0.0
 11
678.9999999999782
 21
175.1852813743035
 31
0.0
  0
ARC
  5
229
330
1F
100
AcDbEntity
  8
LAY-10
  6
CONTINUOUS
 62
     7
100
AcDbCircle
 10
686.9999999999782
 20
237.2000000000648
 30
0.0
 40
3.0
100
AcDbArc
 50
0.0
 51
89.99999999999996
  0
ARC
  5
22A
330
1F
100
AcDbEntity
  8
LAY-10
  6
CONTINUOUS
 62
     7
100
AcDbCircle
 10
686.9999999999782
 20
175.1852813743035
 30
0.0
 40
3.0
100
AcDbArc
 50
270.0
 51
0.0
  0
LINE
  5
22B
330
1F
100
AcDbEntity
  8
LAY-10
  6
CONTINUOUS
 62
     7
100
AcDbLine
 10
689.9999999999782
 20
237.2000000000648
 30
0.0
 11
689.9999999999782
 21
175.1852813743035
 31
0.0
  0
LINE
  5
22C
330
1F
100
AcDbEntity
  8
LAY-10
  6
CONTINUOUS
 62
     7
100
AcDbLine
 10
681.9999999999782
 20
240.2000000000648
 30
0.0
 11
686.9999999999782
 21
240.2000000000648
 31
0.0
  0
LINE
  5
22D
330
1F
100
AcDbEntity
  8
LAY-10
  6
CONTINUOUS
 62
     7
100
AcDbLine
 10
681.9999999999782
 20
172.1852813743031
 30
0.0
 11
686.9999999999782
 21
172.1852813743031
 31
0.0
  0
ARC
  5
22E
330
1F
100
AcDbEntity
  8
LAY-10
  6
CONTINUOUS
 62
     7
100
AcDbCircle
 10
698.9999999999782
 20
237.2000000000648
 30
0.0
 40
3.0
100
AcDbArc
 50
89.99999999999996
 51
180.0
  0
ARC
  5
22F
330
1F
100
AcDbEntity
  8
LAY-10
  6
CONTINUOUS
 62
     7
100
AcDbCircle
 10
698.9999999999782
 20
175.1852813743035
 30
0.0
 40
3.0
100
AcDbArc
 50
180.0
 51
270.0
  0
LINE
  5
230
330
1F
100
AcDbEntity
  8
LAY-10
  6
CONTINUOUS
 62
     7
100
AcDbLine
 10
695.9999999999782
 20
237.2000000000648
 30
0.0
 11
695.9999999999782
 21
175.1852813743035
 31
0.0
  0
ARC
  5
231
330
1F
100
AcDbEntity
  8
LAY-10
  6
CONTINUOUS
 62
     7
100
AcDbCircle
 10
703.9999999999782
 20
237.2000000000648
 30
0.0
 40
3.0
100
AcDbArc
 50
0.0
 51
89.99999999999996
  0
ARC
  5
232
330
1F
100
AcDbEntity
  8
LAY-10
  6
CONTINUOUS
 62
     7
100
AcDbCircle
 10
703.9999999999782
 20
175.1852813743035
 30
0.0
 40
3.0
100
AcDbArc
 50
270.0
 51
0.0
  0
LINE
  5
233
330
1F
100
AcDbEntity
  8
LAY-10
  6
CONTINUOUS
 62
     7
100
AcDbLine
 10
706.9999999999782
 20
237.2000000000648
 30
0.0
 11
706.9999999999782
 21
175.1852813743035
 31
0.0
  0
LINE
  5
234
330
1F
100
AcDbEntity
  8
LAY-10
  6
CONTINUOUS
 62
     7
100
AcDbLine
 10
698.9999999999782
 20
240.2000000000648
 30
0.0
 11
703.9999999999782
 21
240.2000000000648
 31
0.0
  0
LINE
  5
235
330
1F
100
AcDbEntity
  8
LAY-10
  6
CONTINUOUS
 62
     7
100
AcDbLine
 10
698.9999999999782
 20
172.1852813743031
 30
0.0
 11
703.9999999999782
 21
172.1852813743031
 31
0.0
  0
ARC
  5
236
330
1F
100
AcDbEntity
  8
LAY-10
  6
CONTINUOUS
 62
     7
100
AcDbCircle
 10
715.9999999999782
 20
237.2000000000648
 30
0.0
 40
3.0
100
AcDbArc
 50
89.99999999999996
 51
180.0
  0
ARC
  5
237
330
1F
100
AcDbEntity
  8
LAY-10
  6
CONTINUOUS
 62
     7
100
AcDbCircle
 10
720.9999999999782
 20
237.2000000000648
 30
0.0
 40
3.0
100
AcDbArc
 50
0.0
 51
89.99999999999996
  0
LINE
  5
238
330
1F
100
AcDbEntity
  8
LAY-10
  6
CONTINUOUS
 62
     7
100
AcDbLine
 10
715.9999999999782
 20
240.2000000000648
 30
0.0
 11
720.9999999999782
 21
240.2000000000648
 31
0.0
  0
LINE
  5
239
330
1F
100
AcDbEntity
  8
LAY-10
  6
CONTINUOUS
 62
     7
100
AcDbLine
 10
689.9999999999782
 20
183.6852813743047
 30
0.0
 11
695.9999999999782
 21
183.6852813743047
 31
0.0
  0
LINE
  5
23A
330
1F
100
AcDbEntity
  8
LAY-10
  6
CONTINUOUS
 62
     7
100
AcDbLine
 10
706.9999999999782
 20
183.6852813743047
 30
0.0
 11
712.9999999999782
 21
183.6852813743047
 31
0.0
  0
LINE
  5
23B
330
1F
100
AcDbEntity
  8
LAY-10
  6
CONTINUOUS
 62
     7
100
AcDbLine
 10
712.9999999999782
 20
237.2000000000648
 30
0.0
 11
712.9999999999782
 21
178.1417644100916
 31
0.0
  0
LINE
  5
23C
330
1F
100
AcDbEntity
  8
LAY-10
  6
CONTINUOUS
 62
     7
100
AcDbLine
 10
723.9999999999782
 20
237.2000000000648
 30
0.0
 11
723.9999999999782
 21
180.0674509317733
 31
0.0
  0
LINE
  5
23D
330
1F
100
AcDbEntity
  8
LAY-10
  6
CONTINUOUS
 62
     7
100
AcDbLine
 10
741.4999999999782
 20
218.2000000000648
 30
0.0
 11
741.4999999999782
 21
174.1852813743031
 31
0.0
  0
ARC
  5
23E
330
1F
100
AcDbEntity
  8
LAY-10
  6
CONTINUOUS
 62
     7
100
AcDbCircle
 10
739.4999999999782
 20
218.2000000000648
 30
0.0
 40
2.0
100
AcDbArc
 50
0.0
 51
89.99999999999996
  0
LINE
  5
23F
330
1F
100
AcDbEntity
  8
LAY-10
  6
CONTINUOUS
 62
     7
100
AcDbLine
 10
729.9999999999782
 20
218.2000000000648
 30
0.0
 11
729.9999999999782
 21
178.5149881954974
 31
0.0
  0
LINE
  5
240
330
1F
100
AcDbEntity
  8
LAY-10
  6
CONTINUOUS
 62
     7
100
AcDbLine
 10
739.4999999999782
 20
220.2000000000648
 30
0.0
 11
731.9999999999782
 21
220.2000000000648
 31
0.0
  0
ARC
  5
241
330
1F
100
AcDbEntity
  8
LAY-10
  6
CONTINUOUS
 62
     7
100
AcDbCircle
 10
731.9999999999782
 20
218.2000000000648
 30
0.0
 40
2.0
100
AcDbArc
 50
89.99999999999996
 51
180.0
  0
ARC
  5
242
330
1F
100
AcDbEntity
  8
LAY-10
  6
CONTINUOUS
 62
     7
100
AcDbCircle
 10
681.9999999999782
 20
160.7000000000649
 30
0.0
 40
3.0
100
AcDbArc
 50
89.99999999999996
 51
180.0
  0
ARC
  5
243
330
1F
100
AcDbEntity
  8
LAY-10
  6
CONTINUOUS
 62
     7
100
AcDbCircle
 10
686.9999999999782
 20
160.7000000000649
 30
0.0
 40
3.0
100
AcDbArc
 50
0.0
 51
89.99999999999996
  0
LINE
  5
244
330
1F
100
AcDbEntity
  8
LAY-10
  6
CONTINUOUS
 62
     7
100
AcDbLine
 10
681.9999999999782
 20
163.7000000000651
 30
0.0
 11
686.9999999999782
 21
163.7000000000651
 31
0.0
  0
ARC
  5
245
330
1F
100
AcDbEntity
  8
LAY-10
  6
CONTINUOUS
 62
     7
100
AcDbCircle
 10
698.9999999999782
 20
160.7000000000649
 30
0.0
 40
3.0
100
AcDbArc
 50
89.99999999999996
 51
180.0
  0
ARC
  5
246
330
1F
100
AcDbEntity
  8
LAY-10
  6
CONTINUOUS
 62
     7
100
AcDbCircle
 10
703.9999999999782
 20
160.7000000000649
 30
0.0
 40
3.0
100
AcDbArc
 50
0.0
 51
89.99999999999996
  0
LINE
  5
247
330
1F
100
AcDbEntity
  8
LAY-10
  6
CONTINUOUS
 62
     7
100
AcDbLine
 10
698.9999999999782
 20
163.7000000000651
 30
0.0
 11
703.9999999999782
 21
163.7000000000651
 31
0.0
  0
LINE
  5
248
330
1F
100
AcDbEntity
  8
LAY-10
  6
CONTINUOUS
 62
     7
100
AcDbLine
 10
689.9999999999782
 20
152.2000000000651
 30
0.0
 11
689.9999999999782
 21
160.7000000000649
 31
0.0
  0
ARC
  5
249
330
1F
100
AcDbEntity
  8
LAY-10
  6
CONTINUOUS
 62
     7
100
AcDbCircle
 10
681.9999999999782
 20
156.1447911637566
 30
0.0
 40
3.0
100
AcDbArc
 50
89.99999999999996
 51
180.0
  0
ARC
  5
24A
330
1F
100
AcDbEntity
  8
LAY-10
  6
CONTINUOUS
 62
     7
100
AcDbCircle
 10
686.9999999999782
 20
156.1447911637566
 30
0.0
 40
3.0
100
AcDbArc
 50
0.0
 51
89.99999999999996
  0
LINE
  5
24B
330
1F
100
AcDbEntity
  8
LAY-10
  6
CONTINUOUS
 62
     7
100
AcDbLine
 10
681.9999999999782
 20
159.1447911637566
 30
0.0
 11
686.9999999999782
 21
159.1447911637566
 31
0.0
  0
ARC
  5
24C
330
1F
100
AcDbEntity
  8
LAY-10
  6
CONTINUOUS
 62
     7
100
AcDbCircle
 10
698.9999999999782
 20
156.1447911637566
 30
0.0
 40
3.0
100
AcDbArc
 50
89.99999999999996
 51
180.0
  0
ARC
  5
24D
330
1F
100
AcDbEntity
  8
LAY-10
  6
CONTINUOUS
 62
     7
100
AcDbCircle
 10
703.9999999999782
 20
156.1447911637566
 30
0.0
 40
3.0
100
AcDbArc
 50
0.0
 51
89.99999999999996
  0
LINE
  5
24E
330
1F
100
AcDbEntity
  8
LAY-10
  6
CONTINUOUS
 62
     7
100
AcDbLine
 10
698.9999999999782
 20
159.1447911637566
 30
0.0
 11
703.9999999999782
 21
159.1447911637566
 31
0.0
  0
ARC
  5
24F
330
1F
100
AcDbEntity
  8
LAY-10
  6
CONTINUOUS
 62
     7
100
AcDbCircle
 10
664.9999999999782
 20
156.1447911637566
 30
0.0
 40
3.0
100
AcDbArc
 50
89.99999999999996
 51
180.0
  0
ARC
  5
250
330
1F
100
AcDbEntity
  8
LAY-10
  6
CONTINUOUS
 62
     7
100
AcDbCircle
 10
669.9999999999782
 20
156.1447911637566
 30
0.0
 40
3.0
100
AcDbArc
 50
0.0
 51
89.99999999999996
  0
ARC
  5
251
330
1F
100
AcDbEntity
  8
LAY-10
  6
CONTINUOUS
 62
     7
100
AcDbCircle
 10
647.9999999999782
 20
156.1447911637566
 30
0.0
 40
3.0
100
AcDbArc
 50
89.99999999999996
 51
180.0
  0
ARC
  5
252
330
1F
100
AcDbEntity
  8
LAY-10
  6
CONTINUOUS
 62
     7
100
AcDbCircle
 10
652.9999999999782
 20
156.1447911637566
 30
0.0
 40
3.0
100
AcDbArc
 50
0.0
 51
89.99999999999996
  0
LINE
  5
253
330
1F
100
AcDbEntity
  8
LAY-10
  6
CONTINUOUS
 62
     7
100
AcDbLine
 10
647.9999999999782
 20
159.1447911637566
 30
0.0
 11
652.9999999999782
 21
159.1447911637566
 31
0.0
  0
ARC
  5
254
330
1F
100
AcDbEntity
  8
LAY-10
  6
CONTINUOUS
 62
     7
100
AcDbCircle
 10
630.9999999999782
 20
156.1447911637566
 30
0.0
 40
3.0
100
AcDbArc
 50
89.99999999999996
 51
180.0
  0
ARC
  5
255
330
1F
100
AcDbEntity
  8
LAY-10
  6
CONTINUOUS
 62
     7
100
AcDbCircle
 10
635.9999999999782
 20
156.1447911637566
 30
0.0
 40
3.0
100
AcDbArc
 50
0.0
 51
89.99999999999996
  0
LINE
  5
256
330
1F
100
AcDbEntity
  8
LAY-10
  6
CONTINUOUS
 62
     7
100
AcDbLine
 10
630.9999999999782
 20
159.1447911637566
 30
0.0
 11
635.9999999999782
 21
159.1447911637566
 31
0.0
  0
ARC
  5
257
330
1F
100
AcDbEntity
  8
LAY-10
  6
CONTINUOUS
 62
     7
100
AcDbCircle
 10
595.4999999999784
 20
157.1447911637566
 30
0.0
 40
2.0
100
AcDbArc
 50
89.99999999999996
 51
180.0
  0
LINE
  5
258
330
1F
100
AcDbEntity
  8
LAY-10
  6
CONTINUOUS
 62
     7
100
AcDbLine
 10
595.4999999999784
 20
159.1447911637566
 30
0.0
 11
597.0973942294215
 21
159.1447911637566
 31
0.0
  0
LINE
  5
259
330
1F
100
AcDbEntity
  8
LAY-10
  6
CONTINUOUS
 62
     7
100
AcDbLine
 10
598.2803221788201
 20
158.7574540133729
 30
0.0
 11
604.1829279493761
 21
154.4277471921787
 31
0.0
  0
ARC
  5
25A
330
1F
100
AcDbEntity
  8
LAY-10
  6
CONTINUOUS
 62
     7
100
AcDbCircle
 10
597.0973942294215
 20
157.1447911637566
 30
0.0
 40
2.0
100
AcDbArc
 50
53.73903474815468
 51
89.99999999999996
  0
ARC
  5
25B
330
1F
100
AcDbEntity
  8
LAY-10
  6
CONTINUOUS
 62
     7
100
AcDbCircle
 10
619.9999999999784
 20
157.7435169642768
 30
0.0
 40
2.0
100
AcDbArc
 50
0.0
 51
105.3814752957772
  0
ARC
  5
25C
330
1F
100
AcDbEntity
  8
LAY-10
  6
CONTINUOUS
 62
     7
100
AcDbCircle
 10
612.9999999999784
 20
155.8178304425952
 30
0.0
 40
2.0
100
AcDbArc
 50
105.3814752957772
 51
180.0
  0
ARC
  5
25D
330
1F
100
AcDbEntity
  8
LAY-10
  6
CONTINUOUS
 62
     7
100
AcDbCircle
 10
609.8354077913739
 20
163.0081009473832
 30
0.0
 40
15.0
100
AcDbArc
 50
112.1375863122019
 51
140.3843441914888
  0
ARC
  5
25E
330
1F
100
AcDbEntity
  8
LAY-10
  6
CONTINUOUS
 62
     7
100
AcDbCircle
 10
609.8354077913739
 20
172.877180426985
 30
0.0
 40
15.0
100
AcDbArc
 50
219.6156558085111
 51
247.8624136877982
  0
ARC
  5
25F
330
1F
100
AcDbEntity
  8
LAY-10
  6
CONTINUOUS
 62
     7
100
AcDbCircle
 10
612.1091076803862
 20
172.7418625527499
 30
0.0
 40
15.0
100
AcDbArc
 50
271.3767725653603
 51
299.3861780262014
  0
ARC
  5
260
330
1F
100
AcDbEntity
  8
LAY-10
  6
CONTINUOUS
 62
     7
100
AcDbCircle
 10
612.1091076803862
 20
163.1434188216186
 30
0.0
 40
15.0
100
AcDbArc
 50
60.61382197379874
 51
88.62322743464003
  0
ELLIPSE
  5
261
330
1F
100
AcDbEntity
  8
LAY-10
  6
CONTINUOUS
 62
     7
100
AcDbEllipse
 10
723.4999999999782
 20
167.9426406871842
 30
0.0
 11
7.499999999999778
 21
-1.836970198720976E-15
 31
0.0
210
0.0
220
0.0
230
1.0
 40
0.7071067811865671
 41
0.0
 42
6.283185307179586
  0
LINE
  5
262
330
1F
100
AcDbEntity
  8
LAY-10
  6
CONTINUOUS
 62
     7
100
AcDbLine
 10
723.9999999999782
 20
183.6852813743047
 30
0.0
 11
729.9999999999782
 21
183.6852813743047
 31
0.0
  0
LINE
  5
263
330
1F
100
AcDbEntity
  8
LAY-10
  6
CONTINUOUS
 62
     7
100
AcDbLine
 10
741.9999999999782
 20
183.6852813743047
 30
0.0
 11
750.4999999999782
 21
183.6852813743047
 31
0.0
  0
LINE
  5
264
330
1F
100
AcDbEntity
  8
LAY-10
  6
CONTINUOUS
 62
     7
100
AcDbLine
 10
739.4999999999782
 20
172.1852813743031
 30
0.0
 11
737.902605770535
 21
172.1852813743031
 31
0.0
  0
ARC
  5
265
330
1F
100
AcDbEntity
  8
LAY-10
  6
CONTINUOUS
 62
     7
100
AcDbCircle
 10
739.4999999999782
 20
174.1852813743031
 30
0.0
 40
2.0
100
AcDbArc
 50
270.0
 51
0.0
  0
ARC
  5
266
330
1F
100
AcDbEntity
  8
LAY-10
  6
CONTINUOUS
 62
     7
100
AcDbCircle
 10
714.9999999999782
 20
178.1417644100916
 30
0.0
 40
2.0
100
AcDbArc
 50
180.0
 51
285.3814752957775
  0
ARC
  5
267
330
1F
100
AcDbEntity
  8
LAY-10
  6
CONTINUOUS
 62
     7
100
AcDbCircle
 10
721.9999999999782
 20
180.0674509317733
 30
0.0
 40
2.0
100
AcDbArc
 50
285.3814752957775
 51
0.0
  0
ARC
  5
268
330
1F
100
AcDbEntity
  8
LAY-10
  6
CONTINUOUS
 62
     7
100
AcDbCircle
 10
731.9999999999782
 20
178.5149881954974
 30
0.0
 40
2.0
100
AcDbArc
 50
180.0
 51
233.7390347481546
  0
ARC
  5
269
330
1F
100
AcDbEntity
  8
LAY-10
  6
CONTINUOUS
 62
     7
100
AcDbCircle
 10
737.902605770535
 20
174.1852813743031
 30
0.0
 40
2.0
100
AcDbArc
 50
233.7390347481546
 51
270.0
  0
ARC
  5
26A
330
1F
100
AcDbEntity
  8
LAY-10
  6
CONTINUOUS
 62
     7
100
AcDbCircle
 10
739.4999999999782
 20
161.7000000000651
 30
0.0
 40
2.0
100
AcDbArc
 50
0.0
 51
89.99999999999996
  0
ARC
  5
26B
330
1F
100
AcDbEntity
  8
LAY-10
  6
CONTINUOUS
 62
     7
100
AcDbCircle
 10
731.9999999999782
 20
157.370293178871
 30
0.0
 40
2.0
100
AcDbArc
 50
126.2609652518453
 51
180.0
  0
LINE
  5
26C
330
1F
100
AcDbEntity
  8
LAY-10
  6
CONTINUOUS
 62
     7
100
AcDbLine
 10
739.4999999999782
 20
163.7000000000651
 30
0.0
 11
737.902605770535
 21
163.7000000000651
 31
0.0
  0
ARC
  5
26D
330
1F
100
AcDbEntity
  8
LAY-10
  6
CONTINUOUS
 62
     7
100
AcDbCircle
 10
737.902605770535
 20
161.7000000000651
 30
0.0
 40
2.0
100
AcDbArc
 50
89.99999999999996
 51
126.2609652518453
  0
ARC
  5
26E
330
1F
100
AcDbEntity
  8
LAY-10
  6
CONTINUOUS
 62
     7
100
AcDbCircle
 10
739.4999999999782
 20
157.1447911637566
 30
0.0
 40
2.0
100
AcDbArc
 50
0.0
 51
89.99999999999996
  0
LINE
  5
26F
330
1F
100
AcDbEntity
  8
LAY-10
  6
CONTINUOUS
 62
     7
100
AcDbLine
 10
739.4999999999782
 20
159.1447911637566
 30
0.0
 11
737.902605770535
 21
159.1447911637566
 31
0.0
  0
LINE
  5
270
330
1F
100
AcDbEntity
  8
LAY-10
  6
CONTINUOUS
 62
     7
100
AcDbLine
 10
736.7196778211364
 20
158.7574540133729
 30
0.0
 11
730.8170720505796
 21
154.4277471921787
 31
0.0
  0
ARC
  5
271
330
1F
100
AcDbEntity
  8
LAY-10
  6
CONTINUOUS
 62
     7
100
AcDbCircle
 10
737.902605770535
 20
157.1447911637566
 30
0.0
 40
2.0
100
AcDbArc
 50
89.99999999999996
 51
126.2609652518453
  0
ARC
  5
272
330
1F
100
AcDbEntity
  8
LAY-10
  6
CONTINUOUS
 62
     7
100
AcDbCircle
 10
714.9999999999782
 20
157.7435169642768
 30
0.0
 40
2.0
100
AcDbArc
 50
74.61852470422275
 51
180.0
  0
ARC
  5
273
330
1F
100
AcDbEntity
  8
LAY-10
  6
CONTINUOUS
 62
     7
100
AcDbCircle
 10
721.9999999999782
 20
155.8178304425952
 30
0.0
 40
2.0
100
AcDbArc
 50
0.0
 51
74.61852470422275
  0
ARC
  5
274
330
1F
100
AcDbEntity
  8
LAY-10
  6
CONTINUOUS
 62
     7
100
AcDbCircle
 10
725.1645922085827
 20
163.0081009473832
 30
0.0
 40
15.0
100
AcDbArc
 50
39.61565580851116
 51
67.86241368779798
  0
ARC
  5
275
330
1F
100
AcDbEntity
  8
LAY-10
  6
CONTINUOUS
 62
     7
100
AcDbCircle
 10
725.1645922085827
 20
172.877180426985
 30
0.0
 40
15.0
100
AcDbArc
 50
292.137586312202
 51
320.3843441914889
  0
ARC
  5
276
330
1F
100
AcDbEntity
  8
LAY-10
  6
CONTINUOUS
 62
     7
100
AcDbCircle
 10
722.8908923195686
 20
172.7418625527499
 30
0.0
 40
15.0
100
AcDbArc
 50
240.6138219737988
 51
268.6232274346401
  0
ARC
  5
277
330
1F
100
AcDbEntity
  8
LAY-10
  6
CONTINUOUS
 62
     7
100
AcDbCircle
 10
722.8908923195686
 20
163.1434188216186
 30
0.0
 40
15.0
100
AcDbArc
 50
91.37677256535999
 51
119.3861780262011
  0
LINE
  5
278
330
1F
100
AcDbEntity
  8
LAY-10
  6
CONTINUOUS
 62
     7
100
AcDbLine
 10
750.4999999999782
 20
252.2000000000648
 30
0.0
 11
584.4999999999784
 21
252.2000000000648
 31
0.0
  0
LINE
  5
279
330
1F
100
AcDbEntity
  8
LAY-10
  6
CONTINUOUS
 62
     7
100
AcDbLine
 10
664.9999999999782
 20
159.1447911637566
 30
0.0
 11
669.9999999999782
 21
159.1447911637566
 31
0.0
  0
ARC
  5
27A
330
1F
100
AcDbEntity
  8
LAY-10
  6
CONTINUOUS
 62
     7
100
AcDbCircle
 10
585.500000000002
 20
254.200000000103
 30
0.0
 40
3.0
100
AcDbArc
 50
90.00000000000001
 51
180.0
  0
ARC
  5
27B
330
1F
100
AcDbEntity
  8
LAY-10
  6
CONTINUOUS
 62
     7
100
AcDbCircle
 10
583.5000000000002
 20
256.2000000000889
 30
0.0
 40
5.0
100
AcDbArc
 50
90.00000000000001
 51
180.0
  0
LINE
  5
27C
330
1F
100
AcDbEntity
  8
LAY-10
  6
CONTINUOUS
 62
     7
100
AcDbLine
 10
578.5000000000002
 20
256.2000000000889
 30
0.0
 11
578.5000000000002
 21
153.2000000000865
 31
0.0
  0
LINE
  5
27D
330
1F
100
AcDbEntity
  8
LAY-10
  6
CONTINUOUS
 62
     7
100
AcDbLine
 10
582.500000000002
 20
254.200000000103
 30
0.0
 11
582.500000000002
 21
153.2000000000865
 31
0.0
  0
LINE
  5
27E
330
1F
100
AcDbEntity
  8
LAY-10
  6
CONTINUOUS
 62
     7
100
AcDbLine
 10
577.8186988696846
 20
140.2000000000722
 30
0.0
 11
578.5000000003649
 21
153.2000000000704
 31
0.0
  0
LINE
  5
27F
330
1F
100
AcDbEntity
  8
LAY-10
  6
CONTINUOUS
 62
     7
100
AcDbLine
 10
577.8186988697
 20
140.2000000000697
 30
0.0
 11
577.8186988697
 21
250.2917047947193
 31
0.0
  0
LINE
  5
280
330
1F
100
AcDbEntity
  8
LAY-10
  6
CONTINUOUS
 62
     7
100
AcDbLine
 10
578.2071807561044
 20
256.5116784750398
 30
0.0
 11
577.8186988697
 21
250.2917047947193
 31
0.0
  0
ARC
  5
281
330
1F
100
AcDbEntity
  8
LAY-10
  6
CONTINUOUS
 62
     7
100
AcDbCircle
 10
583.1974569536962
 20
256.2000000000889
 30
0.0
 40
5.0
100
AcDbArc
 50
90.00000000000001
 51
176.4261106772904
  0
LINE
  5
282
330
1F
100
AcDbEntity
  8
LAY-10
  6
CONTINUOUS
 62
     7
100
AcDbLine
 10
583.0240777928004
 20
229.2000000000293
 30
0.0
 11
583.0240777928004
 21
245.2824640740795
 31
0.0
  0
LINE
  5
283
330
1F
100
AcDbEntity
  8
LAY-10
  6
CONTINUOUS
 62
     7
100
AcDbLine
 10
583.1813011310007
 20
226.2000000000193
 30
0.0
 11
583.0240777928004
 21
229.2000000000293
 31
0.0
  0
LINE
  5
284
330
1F
100
AcDbEntity
  8
LAY-10
  6
CONTINUOUS
 62
     7
100
AcDbLine
 10
583.0240777928004
 20
245.2824640740795
 30
0.0
 11
582.6316714144962
 21
254.2057902964088
 31
0.0
  0
LINE
  5
285
330
1F
100
AcDbEntity
  8
LAY-10
  6
CONTINUOUS
 62
     7
100
AcDbLine
 10
578.5000000004004
 20
153.2000000000695
 30
0.0
 11
595.9999999999002
 21
153.2000000000695
 31
0.0
  0
LINE
  5
286
330
1F
100
AcDbEntity
  8
LAY-10
  6
CONTINUOUS
 62
     7
100
AcDbLine
 10
583.1813011310007
 20
153.2000000000697
 30
0.0
 11
583.1813011310007
 21
226.200000000017
 31
0.0
  0
LINE
  5
287
330
1F
100
AcDbEntity
  8
LAY-10
  6
CONTINUOUS
 62
     7
100
AcDbLine
 10
584.4999999999784
 20
245.2824640740795
 30
0.0
 11
583.0240777928004
 21
245.2824640740795
 31
0.0
  0
LINE
  5
288
330
1F
100
AcDbEntity
  8
LAY-10
  6
CONTINUOUS
 62
     7
100
AcDbLine
 10
584.5000000000002
 20
229.2000000000293
 30
0.0
 11
583.0240777928004
 21
229.2000000000293
 31
0.0
  0
LINE
  5
289
330
1F
100
AcDbEntity
  8
LAY-10
  6
CONTINUOUS
 62
     7
100
AcDbLine
 10
584.5000000000002
 20
226.200000000017
 30
0.0
 11
583.1813011310007
 21
226.200000000017
 31
0.0
  0
ARC
  5
28A
330
1F
100
AcDbEntity
  8
LAY-10
  6
CONTINUOUS
 62
     7
100
AcDbCircle
 10
749.4999999999982
 20
254.200000000103
 30
0.0
 40
3.0
100
AcDbArc
 50
0.0
 51
90.00000000000001
  0
ARC
  5
28B
330
1F
100
AcDbEntity
  8
LAY-10
  6
CONTINUOUS
 62
     7
100
AcDbCircle
 10
751.5
 20
256.2000000000889
 30
0.0
 40
5.0
100
AcDbArc
 50
0.0
 51
90.00000000000001
  0
LINE
  5
28C
330
1F
100
AcDbEntity
  8
LAY-10
  6
CONTINUOUS
 62
     7
100
AcDbLine
 10
756.5
 20
256.2000000000889
 30
0.0
 11
756.5
 21
153.2000000000865
 31
0.0
  0
LINE
  5
28D
330
1F
100
AcDbEntity
  8
LAY-10
  6
CONTINUOUS
 62
     7
100
AcDbLine
 10
752.4999999999982
 20
254.200000000103
 30
0.0
 11
752.4999999999982
 21
153.2000000000865
 31
0.0
  0
LINE
  5
28E
330
1F
100
AcDbEntity
  8
LAY-10
  6
CONTINUOUS
 62
     7
100
AcDbLine
 10
757.1813011303157
 20
140.2000000000722
 30
0.0
 11
756.4999999996344
 21
153.2000000000704
 31
0.0
  0
LINE
  5
28F
330
1F
100
AcDbEntity
  8
LAY-10
  6
CONTINUOUS
 62
     7
100
AcDbLine
 10
757.1813011303002
 20
140.2000000000697
 30
0.0
 11
757.1813011303002
 21
250.2917047947193
 31
0.0
  0
LINE
  5
290
330
1F
100
AcDbEntity
  8
LAY-10
  6
CONTINUOUS
 62
     7
100
AcDbLine
 10
756.7928192438958
 20
256.5116784750398
 30
0.0
 11
757.1813011303002
 21
250.2917047947193
 31
0.0
  0
ARC
  5
291
330
1F
100
AcDbEntity
  8
LAY-10
  6
CONTINUOUS
 62
     7
100
AcDbCircle
 10
751.802543046304
 20
256.2000000000889
 30
0.0
 40
5.0
100
AcDbArc
 50
3.573889322709619
 51
90.00000000000001
  0
LINE
  5
292
330
1F
100
AcDbEntity
  8
LAY-10
  6
CONTINUOUS
 62
     7
100
AcDbLine
 10
751.9759222071998
 20
229.2000000000293
 30
0.0
 11
751.9759222071998
 21
245.2824640740795
 31
0.0
  0
LINE
  5
293
330
1F
100
AcDbEntity
  8
LAY-10
  6
CONTINUOUS
 62
     7
100
AcDbLine
 10
751.8186988690004
 20
226.2000000000193
 30
0.0
 11
751.9759222071998
 21
229.2000000000293
 31
0.0
  0
LINE
  5
294
330
1F
100
AcDbEntity
  8
LAY-10
  6
CONTINUOUS
 62
     7
100
AcDbLine
 10
751.9759222071998
 20
245.2824640740795
 30
0.0
 11
752.3683285855041
 21
254.2057902964088
 31
0.0
  0
LINE
  5
295
330
1F
100
AcDbEntity
  8
LAY-10
  6
CONTINUOUS
 62
     7
100
AcDbLine
 10
739.0000000001
 20
153.2000000000695
 30
0.0
 11
756.5
 21
153.2000000000695
 31
0.0
  0
LINE
  5
296
330
1F
100
AcDbEntity
  8
LAY-10
  6
CONTINUOUS
 62
     7
100
AcDbLine
 10
751.8186988690004
 20
153.2000000000697
 30
0.0
 11
751.8186988690004
 21
226.200000000017
 31
0.0
  0
LINE
  5
297
330
1F
100
AcDbEntity
  8
LAY-10
  6
CONTINUOUS
 62
     7
100
AcDbLine
 10
750.4999999999782
 20
229.2000000000293
 30
0.0
 11
751.9759222071998
 21
229.2000000000293
 31
0.0
  0
LINE
  5
298
330
1F
100
AcDbEntity
  8
LAY-10
  6
CONTINUOUS
 62
     7
100
AcDbLine
 10
750.5
 20
226.200000000017
 30
0.0
 11
751.8186988690004
 21
226.200000000017
 31
0.0
  0
LINE
  5
299
330
1F
100
AcDbEntity
  8
LAY-10
  6
CONTINUOUS
 62
     7
100
AcDbLine
 10
750.4999999999782
 20
245.2824640740795
 30
0.0
 11
751.9759222071998
 21
245.2824640740795
 31
0.0
  0
LINE
  5
29A
330
1F
100
AcDbEntity
  8
LAY-10
  6
CONTINUOUS
 62
     7
100
AcDbLine
 10
585.500000000002
 20
257.200000000103
 30
0.0
 11
749.4999999999982
 21
257.200000000103
 31
0.0
  0
LINE
  5
29B
330
1F
100
AcDbEntity
  8
LAY-10
  6
CONTINUOUS
 62
     7
100
AcDbLine
 10
583.1974569536962
 20
261.2000000000884
 30
0.0
 11
751.802543046304
 21
261.2000000000884
 31
0.0
  0
LINE
  5
29C
330
1F
100
AcDbEntity
  8
LAY-10
  6
CONTINUOUS
 62
     7
100
AcDbLine
 10
648.9999999999
 20
153.1999999999896
 30
0.0
 11
686.0000000001
 21
153.1999999999896
 31
0.0
  0
LINE
  5
29D
330
1F
100
AcDbEntity
  8
LAY-10
  6
CONTINUOUS
 62
     7
100
AcDbLine
 10
593.4999999999784
 20
153.2000000000695
 30
0.0
 11
593.4999999999784
 21
161.7000000000651
 31
0.0
  0
LINE
  5
29E
330
1F
100
AcDbEntity
  8
LAY-10
  6
CONTINUOUS
 62
     7
100
AcDbLine
 10
584.4999999999784
 20
153.2000000000695
 30
0.0
 11
584.4999999999784
 21
252.2000000000648
 31
0.0
  0
LINE
  5
29F
330
1F
100
AcDbEntity
  8
LAY-10
  6
CONTINUOUS
 62
     7
100
AcDbLine
 10
596.3526539613415
 20
151.2000000000651
 30
0.0
 11
603.6473460385371
 21
151.2000000000651
 31
0.0
  0
LINE
  5
2A0
330
1F
100
AcDbEntity
  8
LAY-10
  6
CONTINUOUS
 62
     7
100
AcDbLine
 10
604.9999999999784
 20
153.2000000000695
 30
0.0
 11
604.9999999999784
 21
157.370293178871
 31
0.0
  0
ARC
  5
2A1
330
1F
100
AcDbEntity
  8
LAY-10
  6
CONTINUOUS
 62
     7
100
AcDbCircle
 10
602.9999999999784
 20
152.8150843425624
 30
0.0
 40
2.0
100
AcDbArc
 50
11.09625514360761
 51
53.73903474815468
  0
LINE
  5
2A2
330
1F
100
AcDbEntity
  8
LAY-10
  6
CONTINUOUS
 62
     7
100
AcDbLine
 10
610.9999999999784
 20
153.2000000000695
 30
0.0
 11
610.9999999999784
 21
155.8178304425952
 31
0.0
  0
LINE
  5
2A3
330
1F
100
AcDbEntity
  8
LAY-10
  6
CONTINUOUS
 62
     7
100
AcDbLine
 10
612.665103753365
 20
153.2000000000695
 30
0.0
 11
619.4695112097781
 21
155.0718793896193
 31
0.0
  0
ARC
  5
2A4
330
1F
100
AcDbEntity
  8
LAY-10
  6
CONTINUOUS
 62
     7
100
AcDbCircle
 10
619.9999999999784
 20
153.1435169642769
 30
0.0
 40
2.0
100
AcDbArc
 50
0.0
 51
105.3814752957772
  0
LINE
  5
2A5
330
1F
100
AcDbEntity
  8
LAY-10
  6
CONTINUOUS
 62
     7
100
AcDbLine
 10
621.9999999999784
 20
153.2000000000695
 30
0.0
 11
621.9999999999784
 21
157.7435169642768
 31
0.0
  0
LINE
  5
2A6
330
1F
100
AcDbEntity
  8
LAY-10
  6
CONTINUOUS
 62
     7
100
AcDbLine
 10
627.9999999999782
 20
153.2000000000695
 30
0.0
 11
627.9999999999782
 21
160.7000000000649
 31
0.0
  0
LINE
  5
2A7
330
1F
100
AcDbEntity
  8
LAY-10
  6
CONTINUOUS
 62
     7
100
AcDbLine
 10
638.9999999999782
 20
153.2000000000695
 30
0.0
 11
638.9999999999782
 21
160.7000000000649
 31
0.0
  0
LINE
  5
2A8
330
1F
100
AcDbEntity
  8
LAY-10
  6
CONTINUOUS
 62
     7
100
AcDbLine
 10
641.1763269806324
 20
152.2000000000651
 30
0.0
 11
648.8236730192448
 21
152.2000000000651
 31
0.0
  0
LINE
  5
2A9
330
1F
100
AcDbEntity
  8
LAY-10
  6
CONTINUOUS
 62
     7
100
AcDbLine
 10
655.9999999999782
 20
153.1999999999896
 30
0.0
 11
655.9999999999782
 21
160.7000000000649
 31
0.0
  0
LINE
  5
2AA
330
1F
100
AcDbEntity
  8
LAY-10
  6
CONTINUOUS
 62
     7
100
AcDbLine
 10
641.3526539613413
 20
151.2000000000651
 30
0.0
 11
648.6473460385369
 21
151.2000000000651
 31
0.0
  0
LINE
  5
2AB
330
1F
100
AcDbEntity
  8
LAY-10
  6
CONTINUOUS
 62
     7
100
AcDbLine
 10
661.9999999999782
 20
153.1999999999896
 30
0.0
 11
661.9999999999782
 21
160.7000000000649
 31
0.0
  0
LINE
  5
2AC
330
1F
100
AcDbEntity
  8
LAY-10
  6
CONTINUOUS
 62
     7
100
AcDbLine
 10
672.9999999999782
 20
153.1999999999896
 30
0.0
 11
672.9999999999782
 21
160.7000000000649
 31
0.0
  0
LINE
  5
2AD
330
1F
100
AcDbEntity
  8
LAY-10
  6
CONTINUOUS
 62
     7
100
AcDbLine
 10
678.9999999999782
 20
153.1999999999896
 30
0.0
 11
678.9999999999782
 21
160.7000000000649
 31
0.0
  0
LINE
  5
2AE
330
1F
100
AcDbEntity
  8
LAY-10
  6
CONTINUOUS
 62
     7
100
AcDbLine
 10
686.1763269807552
 20
152.2000000000651
 30
0.0
 11
693.8236730193676
 21
152.2000000000651
 31
0.0
  0
LINE
  5
2AF
330
1F
100
AcDbEntity
  8
LAY-10
  6
CONTINUOUS
 62
     7
100
AcDbLine
 10
695.9999999999782
 20
153.2000000000695
 30
0.0
 11
695.9999999999782
 21
160.7000000000649
 31
0.0
  0
LINE
  5
2B0
330
1F
100
AcDbEntity
  8
LAY-10
  6
CONTINUOUS
 62
     7
100
AcDbLine
 10
686.3526539614641
 20
151.2000000000651
 30
0.0
 11
693.6473460386587
 21
151.2000000000651
 31
0.0
  0
LINE
  5
2B1
330
1F
100
AcDbEntity
  8
LAY-10
  6
CONTINUOUS
 62
     7
100
AcDbLine
 10
706.9999999999782
 20
153.2000000000695
 30
0.0
 11
706.9999999999782
 21
160.7000000000649
 31
0.0
  0
ARC
  5
2B2
330
1F
100
AcDbEntity
  8
LAY-10
  6
CONTINUOUS
 62
     7
100
AcDbCircle
 10
714.9999999999782
 20
153.1435169642769
 30
0.0
 40
2.0
100
AcDbArc
 50
74.61852470422275
 51
178.3816650427007
  0
LINE
  5
2B3
330
1F
100
AcDbEntity
  8
LAY-10
  6
CONTINUOUS
 62
     7
100
AcDbLine
 10
712.9999999999782
 20
153.2000000000695
 30
0.0
 11
712.9999999999782
 21
157.7435169642768
 31
0.0
  0
LINE
  5
2B4
330
1F
100
AcDbEntity
  8
LAY-10
  6
CONTINUOUS
 62
     7
100
AcDbLine
 10
722.3348962465916
 20
153.2000000000695
 30
0.0
 11
715.5304887901775
 21
155.0718793896193
 31
0.0
  0
LINE
  5
2B5
330
1F
100
AcDbEntity
  8
LAY-10
  6
CONTINUOUS
 62
     7
100
AcDbLine
 10
723.9999999999782
 20
153.2000000000695
 30
0.0
 11
723.9999999999782
 21
155.8178304425952
 31
0.0
  0
LINE
  5
2B6
330
1F
100
AcDbEntity
  8
LAY-10
  6
CONTINUOUS
 62
     7
100
AcDbLine
 10
729.9999999999782
 20
153.2000000000695
 30
0.0
 11
729.9999999999782
 21
157.370293178871
 31
0.0
  0
ARC
  5
2B7
330
1F
100
AcDbEntity
  8
LAY-10
  6
CONTINUOUS
 62
     7
100
AcDbCircle
 10
731.9999999999782
 20
152.8150843425624
 30
0.0
 40
2.0
100
AcDbArc
 50
126.2609652518453
 51
168.9037448563924
  0
LINE
  5
2B8
330
1F
100
AcDbEntity
  8
LAY-10
  6
CONTINUOUS
 62
     7
100
AcDbLine
 10
731.3526539614641
 20
151.2000000000651
 30
0.0
 11
738.6473460386587
 21
151.2000000000651
 31
0.0
  0
LINE
  5
2B9
330
1F
100
AcDbEntity
  8
LAY-10
  6
CONTINUOUS
 62
     7
100
AcDbLine
 10
741.4999999999782
 20
153.2000000000695
 30
0.0
 11
741.4999999999782
 21
161.7000000000651
 31
0.0
  0
LINE
  5
2BA
330
1F
100
AcDbEntity
  8
LAY-10
  6
CONTINUOUS
 62
     7
100
AcDbLine
 10
731.1763269807552
 20
152.2000000000651
 30
0.0
 11
738.8236730193676
 21
152.2000000000651
 31
0.0
  0
LINE
  5
2BB
330
1F
100
AcDbEntity
  8
LAY-10
  6
CONTINUOUS
 62
     7
100
AcDbLine
 10
750.4999999999782
 20
153.2000000000695
 30
0.0
 11
750.4999999999782
 21
252.2000000000648
 31
0.0
  0
LINE
  5
2BC
330
1F
100
AcDbEntity
  8
LAY-10
  6
CONTINUOUS
 62
     7
100
AcDbLine
 10
602.2367301928682
 20
143.2000000000651
 30
0.0
 11
597.7632698070095
 21
143.2000000000651
 31
0.0
  0
LINE
  5
2BD
330
1F
100
AcDbEntity
  8
LAY-10
  6
CONTINUOUS
 62
     7
100
AcDbLine
 10
692.2367301929908
 20
143.2000000000651
 30
0.0
 11
687.763269807132
 21
143.2000000000651
 31
0.0
  0
LINE
  5
2BE
330
1F
100
AcDbEntity
  8
LAY-10
  6
CONTINUOUS
 62
     7
100
AcDbLine
 10
737.2367301929908
 20
143.2000000000651
 30
0.0
 11
732.763269807132
 21
143.2000000000651
 31
0.0
  0
LINE
  5
2BF
330
1F
100
AcDbEntity
  8
LAY-10
  6
CONTINUOUS
 62
     7
100
AcDbLine
 10
647.236730192868
 20
143.2000000000651
 30
0.0
 11
642.7632698070092
 21
143.2000000000651
 31
0.0
  0
LINE
  5
2C0
330
1F
100
AcDbEntity
  8
LAY-10
  6
CONTINUOUS
 62
     7
100
AcDbLine
 10
596.1763269806327
 20
152.2000000000651
 30
0.0
 11
603.823673019245
 21
152.2000000000651
 31
0.0
  0
LINE
  5
2C1
330
1F
100
AcDbEntity
  8
LAY-10
  6
CONTINUOUS
 62
     7
100
AcDbLine
 10
590.0300753773538
 20
234.600000000073
 30
0.0
 11
601.9699246226339
 21
234.600000000073
 31
0.0
  0
ARC
  5
2C2
330
1F
100
AcDbEntity
  8
LAY-10
  6
CONTINUOUS
 62
     7
100
AcDbCircle
 10
595.9999999999939
 20
235.200000000073
 30
0.0
 40
5.0
100
AcDbArc
 50
173.1078974206501
 51
186.8921025793461
  0
ARC
  5
2C3
330
1F
100
AcDbEntity
  8
LAY-10
  6
CONTINUOUS
 62
     7
100
AcDbCircle
 10
595.9999999999939
 20
235.200000000073
 30
0.0
 40
6.000000000000004
100
AcDbArc
 50
185.7391704772664
 51
354.2608295227336
  0
ARC
  5
2C4
330
1F
100
AcDbEntity
  8
LAY-10
  6
CONTINUOUS
 62
     7
100
AcDbCircle
 10
595.9999999999939
 20
235.200000000073
 30
0.0
 40
5.0
100
AcDbArc
 50
353.1078974206541
 51
6.892102579349928
  0
LINE
  5
2C5
330
1F
100
AcDbEntity
  8
LAY-10
  6
CONTINUOUS
 62
     7
100
AcDbLine
 10
590.0300753773538
 20
235.8000000000733
 30
0.0
 11
601.9699246226339
 21
235.8000000000733
 31
0.0
  0
ARC
  5
2C6
330
1F
100
AcDbEntity
  8
LAY-10
  6
CONTINUOUS
 62
     7
100
AcDbCircle
 10
595.9999999999939
 20
235.200000000073
 30
0.0
 40
6.000000000000004
100
AcDbArc
 50
5.739170477269719
 51
174.2608295227303
  0
LINE
  5
2C7
330
1F
100
AcDbEntity
  8
LAY-10
  6
CONTINUOUS
 62
     7
100
AcDbLine
 10
744.9699246226455
 20
234.600000000073
 30
0.0
 11
733.0300753773663
 21
234.600000000073
 31
0.0
  0
ARC
  5
2C8
330
1F
100
AcDbEntity
  8
LAY-10
  6
CONTINUOUS
 62
     7
100
AcDbCircle
 10
739.0000000000064
 20
235.200000000073
 30
0.0
 40
5.0
100
AcDbArc
 50
353.1078974206535
 51
6.892102579349127
  0
ARC
  5
2C9
330
1F
100
AcDbEntity
  8
LAY-10
  6
CONTINUOUS
 62
     7
100
AcDbCircle
 10
739.0000000000064
 20
235.200000000073
 30
0.0
 40
6.000000000000004
100
AcDbArc
 50
185.7391704772658
 51
354.2608295227342
  0
ARC
  5
2CA
330
1F
100
AcDbEntity
  8
LAY-10
  6
CONTINUOUS
 62
     7
100
AcDbCircle
 10
739.0000000000064
 20
235.200000000073
 30
0.0
 40
5.0
100
AcDbArc
 50
173.1078974206496
 51
186.8921025793453
  0
LINE
  5
2CB
330
1F
100
AcDbEntity
  8
LAY-10
  6
CONTINUOUS
 62
     7
100
AcDbLine
 10
744.9699246226455
 20
235.8000000000733
 30
0.0
 11
733.0300753773663
 21
235.8000000000733
 31
0.0
  0
ARC
  5
2CC
330
1F
100
AcDbEntity
  8
LAY-10
  6
CONTINUOUS
 62
     7
100
AcDbCircle
 10
739.0000000000064
 20
235.200000000073
 30
0.0
 40
6.000000000000004
100
AcDbArc
 50
5.739170477269262
 51
174.2608295227308
  0
LINE
  5
2CD
330
1F
100
AcDbEntity
  8
LAY-10
  6
CONTINUOUS
 62
     7
100
AcDbLine
 10
552.5000000000002
 20
136.1999999999899
 30
0.0
 11
552.5000000000002
 21
276.2000000000461
 31
0.0
  0
ARC
  5
2CE
330
1F
100
AcDbEntity
  8
LAY-10
  6
CONTINUOUS
 62
     7
100
AcDbCircle
 10
557.5000000000002
 20
276.2000000000461
 30
0.0
 40
5.0
100
AcDbArc
 50
90.00000000000001
 51
180.0
  0
ARC
  5
2CF
330
1F
100
AcDbEntity
  8
LAY-10
  6
CONTINUOUS
 62
     7
100
AcDbCircle
 10
555.5000000000002
 20
137.2000000000915
 30
0.0
 40
3.0
100
AcDbArc
 50
90.00000000000001
 51
180.0
  0
LINE
  5
2D0
330
1F
100
AcDbEntity
  8
LAY-10
  6
CONTINUOUS
 62
     7
100
AcDbLine
 10
782.5
 20
136.1999999999899
 30
0.0
 11
782.5
 21
276.2000000000461
 31
0.0
  0
ARC
  5
2D1
330
1F
100
AcDbEntity
  8
LAY-10
  6
CONTINUOUS
 62
     7
100
AcDbCircle
 10
777.4999999999999
 20
276.2000000000461
 30
0.0
 40
5.0
100
AcDbArc
 50
0.0
 51
90.00000000000001
  0
ARC
  5
2D2
330
1F
100
AcDbEntity
  8
LAY-10
  6
CONTINUOUS
 62
     7
100
AcDbCircle
 10
779.5
 20
137.2000000000915
 30
0.0
 40
3.0
100
AcDbArc
 50
0.0
 51
90.00000000000001
  0
LINE
  5
2D3
330
1F
100
AcDbEntity
  8
LAY-10
  6
CONTINUOUS
 62
     7
100
AcDbLine
 10
557.5000000000002
 20
281.2000000000461
 30
0.0
 11
777.4999999999991
 21
281.2000000000461
 31
0.0
  0
LINE
  5
2D4
330
1F
100
AcDbEntity
  8
LAY-10
  6
CONTINUOUS
 62
     7
100
AcDbLine
 10
555.5000000000002
 20
140.2000000000915
 30
0.0
 11
779.5
 21
140.2000000000915
 31
0.0
  0
ELLIPSE
  5
2D5
330
1F
100
AcDbEntity
  8
LAY-10
  6
CONTINUOUS
 62
     7
100
AcDbEllipse
 10
611.5000000000039
 20
164.7165042945197
 30
0.0
 11
-4.000000000000032
 21
-1.286498119741320E-15
 31
0.0
210
0.0
220
0.0
230
1.0
 40
0.7071067811849774
 41
0.0
 42
0.1886163861758605
  0
LINE
  5
2D6
330
1F
100
AcDbEntity
  8
LAY-10
  6
CONTINUOUS
 62
     7
100
AcDbLine
 10
607.5709415886233
 20
165.6003877709996
 30
0.0
 11
607.5709415886233
 21
164.1861742086297
 31
0.0
  0
ELLIPSE
  5
2D7
330
1F
100
AcDbEntity
  8
LAY-10
  6
CONTINUOUS
 62
     7
100
AcDbEllipse
 10
611.5000000000039
 20
166.1307178568896
 30
0.0
 11
-3.999999999999943
 21
4.898587196589343E-16
 31
0.0
210
0.0
220
0.0
230
1.0
 40
0.7071067811875199
 41
0.1886163861692831
 42
2.952976267421059
  0
LINE
  5
2D8
330
1F
100
AcDbEntity
  8
LAY-10
  6
CONTINUOUS
 62
     7
100
AcDbLine
 10
607.5709415886233
 20
165.6003877709996
 30
0.0
 11
608.0813014172129
 21
165.9539411615897
 31
0.0
  0
ELLIPSE
  5
2D9
330
1F
100
AcDbEntity
  8
LAY-10
  6
CONTINUOUS
 62
     7
100
AcDbEllipse
 10
611.5000000000039
 20
166.4842712474797
 30
0.0
 11
-3.499999999999974
 21
4.286263797015704E-16
 31
0.0
210
0.0
220
0.0
230
1.0
 40
0.7071067811857351
 41
0.2159604986852511
 42
2.925632154904552
  0
LINE
  5
2DA
330
1F
100
AcDbEntity
  8
LAY-10
  6
CONTINUOUS
 62
     7
100
AcDbLine
 10
608.0813014172093
 20
165.9539411615897
 30
0.0
 11
614.918698582793
 21
165.9539411615897
 31
0.0
  0
LINE
  5
2DB
330
1F
100
AcDbEntity
  8
LAY-10
  6
CONTINUOUS
 62
     7
100
AcDbLine
 10
608.0813014172129
 20
167.0146013333697
 30
0.0
 11
607.5709415886233
 21
166.6610479427796
 31
0.0
  0
ELLIPSE
  5
2DC
330
1F
100
AcDbEntity
  8
LAY-10
  6
CONTINUOUS
 62
     7
100
AcDbEllipse
 10
611.5000000000039
 20
166.1307178568896
 30
0.0
 11
-3.999999999999943
 21
4.898587196589343E-16
 31
0.0
210
0.0
220
0.0
230
1.0
 40
0.7071067811875199
 41
3.141592653589793
 42
6.283185307179586
  0
ELLIPSE
  5
2DD
330
1F
100
AcDbEntity
  8
LAY-10
  6
CONTINUOUS
 62
     7
100
AcDbEllipse
 10
611.5000000000039
 20
166.4842712474797
 30
0.0
 11
-3.499999999999974
 21
4.286263797015704E-16
 31
0.0
210
0.0
220
0.0
230
1.0
 40
0.7071067811857351
 41
3.357553152275039
 42
6.067224808494339
  0
LINE
  5
2DE
330
1F
100
AcDbEntity
  8
LAY-10
  6
CONTINUOUS
 62
     7
100
AcDbLine
 10
608.0813014172093
 20
167.0146013333697
 30
0.0
 11
614.9186985827967
 21
167.0146013333697
 31
0.0
  0
LINE
  5
2DF
330
1F
100
AcDbEntity
  8
LAY-10
  6
CONTINUOUS
 62
     7
100
AcDbLine
 10
614.918698582793
 20
167.0146013333697
 30
0.0
 11
615.4290584113835
 21
166.6610479427796
 31
0.0
  0
LINE
  5
2E0
330
1F
100
AcDbEntity
  8
LAY-10
  6
CONTINUOUS
 62
     7
100
AcDbLine
 10
614.918698582793
 20
165.9539411615897
 30
0.0
 11
615.4290584113835
 21
165.6003877709996
 31
0.0
  0
LINE
  5
2E1
330
1F
100
AcDbEntity
  8
LAY-10
  6
CONTINUOUS
 62
     7
100
AcDbLine
 10
615.4290584113835
 20
165.6003877709996
 30
0.0
 11
615.4290584113835
 21
164.1861742086297
 31
0.0
  0
ELLIPSE
  5
2E2
330
1F
100
AcDbEntity
  8
LAY-10
  6
CONTINUOUS
 62
     7
100
AcDbEllipse
 10
611.5000000000039
 20
164.7165042945197
 30
0.0
 11
-4.000000000000032
 21
-1.286498119741320E-15
 31
0.0
210
0.0
220
0.0
230
1.0
 40
0.7071067811849774
 41
2.952976267413936
 42
3.141592653589793
  0
ELLIPSE
  5
2E3
330
1F
100
AcDbEntity
  8
LAY-10
  6
CONTINUOUS
 62
     7
100
AcDbEllipse
 10
723.5000000000036
 20
164.7165042945197
 30
0.0
 11
-4.000000000000032
 21
-1.286498119741320E-15
 31
0.0
210
0.0
220
0.0
230
1.0
 40
0.7071067811849774
 41
0.0
 42
0.1886163861758605
  0
LINE
  5
2E4
330
1F
100
AcDbEntity
  8
LAY-10
  6
CONTINUOUS
 62
     7
100
AcDbLine
 10
719.5709415886231
 20
165.6003877709996
 30
0.0
 11
719.5709415886231
 21
164.1861742086297
 31
0.0
  0
ELLIPSE
  5
2E5
330
1F
100
AcDbEntity
  8
LAY-10
  6
CONTINUOUS
 62
     7
100
AcDbEllipse
 10
723.5000000000036
 20
166.1307178568896
 30
0.0
 11
-3.999999999999943
 21
4.898587196589343E-16
 31
0.0
210
0.0
220
0.0
230
1.0
 40
0.7071067811875199
 41
0.1886163861692831
 42
2.952976267421059
  0
LINE
  5
2E6
330
1F
100
AcDbEntity
  8
LAY-10
  6
CONTINUOUS
 62
     7
100
AcDbLine
 10
719.5709415886231
 20
165.6003877709996
 30
0.0
 11
720.0813014172136
 21
165.9539411615897
 31
0.0
  0
ELLIPSE
  5
2E7
330
1F
100
AcDbEntity
  8
LAY-10
  6
CONTINUOUS
 62
     7
100
AcDbEllipse
 10
723.5000000000036
 20
166.4842712474797
 30
0.0
 11
-3.499999999999974
 21
4.286263797015704E-16
 31
0.0
210
0.0
220
0.0
230
1.0
 40
0.7071067811857351
 41
0.2159604986852511
 42
2.925632154904552
  0
LINE
  5
2E8
330
1F
100
AcDbEntity
  8
LAY-10
  6
CONTINUOUS
 62
     7
100
AcDbLine
 10
720.081301417209
 20
165.9539411615897
 30
0.0
 11
726.9186985827928
 21
165.9539411615897
 31
0.0
  0
LINE
  5
2E9
330
1F
100
AcDbEntity
  8
LAY-10
  6
CONTINUOUS
 62
     7
100
AcDbLine
 10
720.0813014172136
 20
167.0146013333697
 30
0.0
 11
719.5709415886231
 21
166.6610479427796
 31
0.0
  0
ELLIPSE
  5
2EA
330
1F
100
AcDbEntity
  8
LAY-10
  6
CONTINUOUS
 62
     7
100
AcDbEllipse
 10
723.5000000000036
 20
166.1307178568896
 30
0.0
 11
-3.999999999999943
 21
4.898587196589343E-16
 31
0.0
210
0.0
220
0.0
230
1.0
 40
0.7071067811875199
 41
3.141592653589793
 42
6.283185307179586
  0
ELLIPSE
  5
2EB
330
1F
100
AcDbEntity
  8
LAY-10
  6
CONTINUOUS
 62
     7
100
AcDbEllipse
 10
723.5000000000036
 20
166.4842712474797
 30
0.0
 11
-3.499999999999974
 21
4.286263797015704E-16
 31
0.0
210
0.0
220
0.0
230
1.0
 40
0.7071067811857351
 41
3.357553152275039
 42
6.067224808494339
  0
LINE
  5
2EC
330
1F
100
AcDbEntity
  8
LAY-10
  6
CONTINUOUS
 62
     7
100
AcDbLine
 10
720.081301417209
 20
167.0146013333697
 30
0.0
 11
726.9186985827973
 21
167.0146013333697
 31
0.0
  0
LINE
  5
2ED
330
1F
100
AcDbEntity
  8
LAY-10
  6
CONTINUOUS
 62
     7
100
AcDbLine
 10
726.9186985827928
 20
167.0146013333697
 30
0.0
 11
727.4290584113833
 21
166.6610479427796
 31
0.0
  0
LINE
  5
2EE
330
1F
100
AcDbEntity
  8
LAY-10
  6
CONTINUOUS
 62
     7
100
AcDbLine
 10
726.9186985827928
 20
165.9539411615897
 30
0.0
 11
727.4290584113833
 21
165.6003877709996
 31
0.0
  0
LINE
  5
2EF
330
1F
100
AcDbEntity
  8
LAY-10
  6
CONTINUOUS
 62
     7
100
AcDbLine
 10
727.4290584113833
 20
165.6003877709996
 30
0.0
 11
727.4290584113833
 21
164.1861742086297
 31
0.0
  0
ELLIPSE
  5
2F0
330
1F
100
AcDbEntity
  8
LAY-10
  6
CONTINUOUS
 62
     7
100
AcDbEllipse
 10
723.5000000000036
 20
164.7165042945197
 30
0.0
 11
-4.000000000000032
 21
-1.286498119741320E-15
 31
0.0
210
0.0
220
0.0
230
1.0
 40
0.7071067811849774
 41
2.952976267413936
 42
3.141592653589793
  0
LINE
  5
2F1
330
1F
100
AcDbEntity
  8
LAY-10
  6
CONTINUOUS
 62
     7
100
AcDbLine
 10
607.500000000002
 20
163.4565510759419
 30
0.0
 11
607.500000000002
 21
166.13071785689
 31
0.0
  0
LINE
  5
2F2
330
1F
100
AcDbEntity
  8
LAY-10
  6
CONTINUOUS
 62
     7
100
AcDbLine
 10
615.5000000000039
 20
163.4565510759642
 30
0.0
 11
615.5000000000039
 21
166.13071785689
 31
0.0
  0
ELLIPSE
  5
2F3
330
1F
100
AcDbEntity
  8
LAY-10
  6
CONTINUOUS
 62
     7
100
AcDbEllipse
 10
611.4999999999784
 20
162.8912478056939
 30
0.0
 11
6.5
 21
0.0
 31
0.0
210
0.0
220
0.0
230
1.0
 40
0.662046285984476
 41
2.232487854104183
 42
2.713038378941179
  0
ELLIPSE
  5
2F4
330
1F
100
AcDbEntity
  8
LAY-10
  6
CONTINUOUS
 62
     7
100
AcDbEllipse
 10
611.4999999999784
 20
162.8912478056939
 30
0.0
 11
6.5
 21
0.0
 31
0.0
210
0.0
220
0.0
230
1.0
 40
0.662046285984476
 41
0.4285542746486125
 42
0.9091047994794837
  0
LINE
  5
2F5
330
1F
100
AcDbEntity
  8
LAY-10
  6
CONTINUOUS
 62
     7
100
AcDbLine
 10
719.5000000000027
 20
163.4565510759417
 30
0.0
 11
719.5000000000027
 21
166.13071785689
 31
0.0
  0
LINE
  5
2F6
330
1F
100
AcDbEntity
  8
LAY-10
  6
CONTINUOUS
 62
     7
100
AcDbLine
 10
727.5000000000036
 20
163.4565510759642
 30
0.0
 11
727.5000000000036
 21
166.13071785689
 31
0.0
  0
ELLIPSE
  5
2F7
330
1F
100
AcDbEntity
  8
LAY-10
  6
CONTINUOUS
 62
     7
100
AcDbEllipse
 10
723.4999999999782
 20
162.8912478056939
 30
0.0
 11
6.5
 21
0.0
 31
0.0
210
0.0
220
0.0
230
1.0
 40
0.662046285984476
 41
2.232487854104183
 42
2.713038378941179
  0
ELLIPSE
  5
2F8
330
1F
100
AcDbEntity
  8
LAY-10
  6
CONTINUOUS
 62
     7
100
AcDbEllipse
 10
723.4999999999782
 20
162.8912478056939
 30
0.0
 11
6.5
 21
0.0
 31
0.0
210
0.0
220
0.0
230
1.0
 40
0.662046285984476
 41
0.4285542746486125
 42
0.9091047994794837
  0
ARC
  5
2F9
330
1F
100
AcDbEntity
  8
LAY-10
  6
CONTINUOUS
 62
     7
100
AcDbCircle
 10
572.5615528129131
 20
142.2000000000475
 30
0.0
 40
2.0
100
AcDbArc
 50
194.0362434681287
 51
270.0
  0
LINE
  5
2FA
330
1F
100
AcDbEntity
  8
LAY-10
  6
CONTINUOUS
 62
     7
100
AcDbLine
 10
570.6212678126242
 20
141.7149287499672
 30
0.0
 11
570.0000000000994
 21
144.2000000000293
 31
0.0
  0
LINE
  5
2FB
330
1F
100
AcDbEntity
  8
LAY-10
  6
CONTINUOUS
 62
     7
100
AcDbLine
 10
570.000000000098
 20
144.200000000032
 30
0.0
 11
555.000000000068
 21
144.200000000032
 31
0.0
  0
LINE
  5
2FC
330
1F
100
AcDbEntity
  8
LAY-10
  6
CONTINUOUS
 62
     7
100
AcDbLine
 10
552.7034504736212
 20
138.2859607482537
 30
0.0
 11
555.0000000000782
 21
144.2000000000293
 31
0.0
  0
ARC
  5
2FD
330
1F
100
AcDbEntity
  8
LAY-10
  6
CONTINUOUS
 62
     7
100
AcDbCircle
 10
762.4384471870871
 20
142.2000000000475
 30
0.0
 40
2.0
100
AcDbArc
 50
270.0
 51
345.9637565318713
  0
LINE
  5
2FE
330
1F
100
AcDbEntity
  8
LAY-10
  6
CONTINUOUS
 62
     7
100
AcDbLine
 10
764.378732187376
 20
141.7149287499672
 30
0.0
 11
764.9999999999009
 21
144.2000000000293
 31
0.0
  0
LINE
  5
2FF
330
1F
100
AcDbEntity
  8
LAY-10
  6
CONTINUOUS
 62
     7
100
AcDbLine
 10
764.9999999999022
 20
144.200000000032
 30
0.0
 11
779.9999999999321
 21
144.200000000032
 31
0.0
  0
LINE
  5
300
330
1F
100
AcDbEntity
  8
LAY-10
  6
CONTINUOUS
 62
     7
100
AcDbLine
 10
782.296549526379
 20
138.2859607482537
 30
0.0
 11
779.9999999999219
 21
144.2000000000293
 31
0.0
  0
LINE
  5
301
330
1F
100
AcDbEntity
  8
LAY-10
  6
CONTINUOUS
 62
     7
100
AcDbLine
 10
164.5000000000019
 20
454.6999999999898
 30
0.0
 11
164.5000000000019
 21
439.6999999999898
 31
0.0
  0
LINE
  5
302
330
1F
100
AcDbEntity
  8
LAY-10
  6
CONTINUOUS
 62
     7
100
AcDbLine
 10
169.4999999999919
 20
418.1999999999697
 30
0.0
 11
177.4999999999917
 21
417.1999999999698
 31
0.0
  0
LINE
  5
303
330
1F
100
AcDbEntity
  8
LAY-10
  6
CONTINUOUS
 62
     7
100
AcDbLine
 10
164.5000000000019
 20
439.6999999999898
 30
0.0
 11
169.5000000000017
 21
438.4500000000048
 31
0.0
  0
LINE
  5
304
330
1F
100
AcDbEntity
  8
LAY-10
  6
CONTINUOUS
 62
     7
100
AcDbLine
 10
164.5000000000019
 20
454.6999999999898
 30
0.0
 11
169.5000000000017
 21
455.9499999999739
 31
0.0
  0
LINE
  5
305
330
1F
100
AcDbEntity
  8
LAY-10
  6
CONTINUOUS
 62
     7
100
AcDbLine
 10
164.5000000000019
 20
649.7000000001499
 30
0.0
 11
164.5000000000019
 21
664.7000000001499
 31
0.0
  0
LINE
  5
306
330
1F
100
AcDbEntity
  8
LAY-10
  6
CONTINUOUS
 62
     7
100
AcDbLine
 10
169.4999999999919
 20
686.2000000001699
 30
0.0
 11
177.4999999999917
 21
687.2000000001703
 31
0.0
  0
LINE
  5
307
330
1F
100
AcDbEntity
  8
LAY-10
  6
CONTINUOUS
 62
     7
100
AcDbLine
 10
164.5000000000019
 20
664.7000000001499
 30
0.0
 11
169.5000000000017
 21
665.9500000001335
 31
0.0
  0
LINE
  5
308
330
1F
100
AcDbEntity
  8
LAY-10
  6
CONTINUOUS
 62
     7
100
AcDbLine
 10
164.5000000000019
 20
649.7000000001499
 30
0.0
 11
169.5000000000017
 21
648.4500000001658
 31
0.0
  0
LINE
  5
309
330
1F
100
AcDbEntity
  8
LAY-10
  6
CONTINUOUS
 62
     7
100
AcDbLine
 10
177.5000000000017
 20
417.1999999999898
 30
0.0
 11
177.5000000000017
 21
687.2000000001499
 31
0.0
  0
LINE
  5
30A
330
1F
100
AcDbEntity
  8
LAY-10
  6
CONTINUOUS
 62
     7
100
AcDbLine
 10
327.5000000000019
 20
417.1999999999898
 30
0.0
 11
177.5000000000017
 21
417.1999999999898
 31
0.0
  0
ARC
  5
30B
330
1F
100
AcDbEntity
  8
LAY-10
  6
CONTINUOUS
 62
     7
100
AcDbCircle
 10
327.5000000000019
 20
427.1999999999898
 30
0.0
 40
10.0
100
AcDbArc
 50
270.0
 51
0.0
  0
LINE
  5
30C
330
1F
100
AcDbEntity
  8
LAY-10
  6
CONTINUOUS
 62
     7
100
AcDbLine
 10
327.5000000000019
 20
687.2000000001499
 30
0.0
 11
177.5000000000017
 21
687.2000000001499
 31
0.0
  0
ARC
  5
30D
330
1F
100
AcDbEntity
  8
LAY-10
  6
CONTINUOUS
 62
     7
100
AcDbCircle
 10
327.5000000000019
 20
677.2000000001494
 30
0.0
 40
10.0
100
AcDbArc
 50
0.0
 51
90.00000000000001
  0
LINE
  5
30E
330
1F
100
AcDbEntity
  8
LAY-10
  6
CONTINUOUS
 62
     7
100
AcDbLine
 10
337.5000000000022
 20
677.2000000001494
 30
0.0
 11
337.5000000000022
 21
427.1999999999898
 31
0.0
  0
LINE
  5
30F
330
1F
100
AcDbEntity
  8
LAY-10
  6
CONTINUOUS
 62
     7
100
AcDbLine
 10
169.5000000000017
 20
418.1999999999697
 30
0.0
 11
169.5000000000017
 21
686.2000000001699
 31
0.0
  0
LINE
  5
310
330
1F
100
AcDbEntity
  8
LAY-10
  6
CONTINUOUS
 62
     7
100
AcDbLine
 10
169.4999999999917
 20
473.2000000000698
 30
0.0
 11
162.4999999998917
 21
477.2000000000698
 31
0.0
  0
LINE
  5
311
330
1F
100
AcDbEntity
  8
LAY-10
  6
CONTINUOUS
 62
     7
100
AcDbLine
 10
169.4999999999917
 20
631.2000000000698
 30
0.0
 11
162.4999999998917
 21
627.2000000000698
 31
0.0
  0
LINE
  5
312
330
1F
100
AcDbEntity
  8
LAY-10
  6
CONTINUOUS
 62
     7
100
AcDbLine
 10
162.4999999998905
 20
627.2000000000698
 30
0.0
 11
162.4999999998905
 21
477.2000000000698
 31
0.0
  0
LINE
  5
313
330
1F
100
AcDbEntity
  8
LAY-10
  6
CONTINUOUS
 62
     7
100
AcDbLine
 10
169.4999999999917
 20
507.47864045007
 30
0.0
 11
162.4999999998919
 21
515.9753206801697
 31
0.0
  0
LINE
  5
314
330
1F
100
AcDbEntity
  8
LAY-10
  6
CONTINUOUS
 62
     7
100
AcDbLine
 10
169.4999999999917
 20
596.9213595500701
 30
0.0
 11
162.4999999998919
 21
588.42467931997
 31
0.0
  0
CIRCLE
  5
315
330
1F
100
AcDbEntity
  8
LAY-10
  6
CONTINUOUS
 62
     7
100
AcDbCircle
 10
145.0000000000597
 20
657.200000000129
 30
0.0
 40
2.5
  0
LINE
  5
316
330
1F
100
AcDbEntity
  8
LAY-10
  6
CONTINUOUS
 62
     7
100
AcDbLine
 10
145.0000000000597
 20
659.7000000001299
 30
0.0
 11
164.5000000000092
 21
659.7000000001299
 31
0.0
  0
LINE
  5
317
330
1F
100
AcDbEntity
  8
LAY-10
  6
CONTINUOUS
 62
     7
100
AcDbLine
 10
145.0000000000597
 20
654.7000000001299
 30
0.0
 11
164.5000000000092
 21
654.7000000001299
 31
0.0
  0
CIRCLE
  5
318
330
1F
100
AcDbEntity
  8
LAY-10
  6
CONTINUOUS
 62
     7
100
AcDbCircle
 10
145.0000000000597
 20
447.1999999999488
 30
0.0
 40
2.5
  0
LINE
  5
319
330
1F
100
AcDbEntity
  8
LAY-10
  6
CONTINUOUS
 62
     7
100
AcDbLine
 10
145.0000000000597
 20
449.6999999999498
 30
0.0
 11
164.5000000000092
 21
449.6999999999498
 31
0.0
  0
LINE
  5
31A
330
1F
100
AcDbEntity
  8
LAY-10
  6
CONTINUOUS
 62
     7
100
AcDbLine
 10
145.0000000000597
 20
444.6999999999497
 30
0.0
 11
164.5000000000092
 21
444.6999999999497
 31
0.0
  0
LINE
  5
31B
330
1F
100
AcDbEntity
  8
LAY-10
  6
CONTINUOUS
 62
     7
100
AcDbLine
 10
194.5000000000001
 20
641.2000000000685
 30
0.0
 11
181.4999999999997
 21
641.8813011303882
 31
0.0
  0
LINE
  5
31C
330
1F
100
AcDbEntity
  8
LAY-10
  6
CONTINUOUS
 62
     7
100
AcDbLine
 10
194.5000000000001
 20
463.2000000000685
 30
0.0
 11
181.4999999999997
 21
462.5186988697482
 31
0.0
  0
LINE
  5
31D
330
1F
100
AcDbEntity
  8
LAY-10
  6
CONTINUOUS
 62
     7
100
AcDbLine
 10
194.5000000000024
 20
463.2000000000703
 30
0.0
 11
194.5000000000024
 21
641.2000000000662
 31
0.0
  0
ARC
  5
31E
330
1F
100
AcDbEntity
  8
LAY-10
  6
CONTINUOUS
 62
     7
100
AcDbCircle
 10
178.499999999986
 20
664.2000000000676
 30
0.0
 40
3.0
100
AcDbArc
 50
0.0000000000010886
 51
90.00000000000001
  0
ARC
  5
31F
330
1F
100
AcDbEntity
  8
LAY-10
  6
CONTINUOUS
 62
     7
100
AcDbCircle
 10
178.499999999986
 20
440.2000000000694
 30
0.0
 40
3.0
100
AcDbArc
 50
270.0
 51
0.0
  0
LINE
  5
320
330
1F
100
AcDbEntity
  8
LAY-10
  6
CONTINUOUS
 62
     7
100
AcDbLine
 10
181.4999999999874
 20
664.2000000000676
 30
0.0
 11
181.4999999999874
 21
440.2000000000684
 31
0.0
  0
LINE
  5
321
330
1F
100
AcDbEntity
  8
LAY-10
  6
CONTINUOUS
 62
     7
100
AcDbLine
 10
207.4999999999953
 20
467.8813011303882
 30
0.0
 11
207.4999999999953
 21
462.5186988697482
 31
0.0
  0
LINE
  5
322
330
1F
100
AcDbEntity
  8
LAY-10
  6
CONTINUOUS
 62
     7
100
AcDbLine
 10
207.4999999999953
 20
467.2000000000698
 30
0.0
 11
194.5000000000024
 21
467.2000000000698
 31
0.0
  0
LINE
  5
323
330
1F
100
AcDbEntity
  8
LAY-10
  6
CONTINUOUS
 62
     7
100
AcDbLine
 10
207.4999999999953
 20
463.2000000000703
 30
0.0
 11
194.5000000000001
 21
463.2000000000703
 31
0.0
  0
LINE
  5
324
330
1F
100
AcDbEntity
  8
LAY-10
  6
CONTINUOUS
 62
     7
100
AcDbLine
 10
250.4999999999953
 20
467.8813011303882
 30
0.0
 11
250.4999999999953
 21
462.5186988697482
 31
0.0
  0
LINE
  5
325
330
1F
100
AcDbEntity
  8
LAY-10
  6
CONTINUOUS
 62
     7
100
AcDbLine
 10
207.4999999999953
 20
637.2000000000671
 30
0.0
 11
194.5000000000024
 21
637.2000000000671
 31
0.0
  0
LINE
  5
326
330
1F
100
AcDbEntity
  8
LAY-10
  6
CONTINUOUS
 62
     7
100
AcDbLine
 10
207.4999999999953
 20
641.2000000000662
 30
0.0
 11
194.5000000000001
 21
641.2000000000662
 31
0.0
  0
ARC
  5
327
330
1F
100
AcDbEntity
  8
LAY-10
  6
CONTINUOUS
 62
     7
100
AcDbCircle
 10
317.4999999999942
 20
662.2000000000698
 30
0.0
 40
5.0
100
AcDbArc
 50
0.0000000000013178
 51
90.00000000000001
  0
LINE
  5
328
330
1F
100
AcDbEntity
  8
LAY-10
  6
CONTINUOUS
 62
     7
100
AcDbLine
 10
177.5000000000006
 20
667.2000000000676
 30
0.0
 11
317.4999999999942
 21
667.2000000000698
 31
0.0
  0
ARC
  5
329
330
1F
100
AcDbEntity
  8
LAY-10
  6
CONTINUOUS
 62
     7
100
AcDbCircle
 10
317.4999999999942
 20
442.2000000000666
 30
0.0
 40
5.0
100
AcDbArc
 50
270.0
 51
0.0
  0
LINE
  5
32A
330
1F
100
AcDbEntity
  8
LAY-10
  6
CONTINUOUS
 62
     7
100
AcDbLine
 10
177.5000000000006
 20
437.2000000000694
 30
0.0
 11
317.4999999999942
 21
437.2000000000667
 31
0.0
  0
LINE
  5
32B
330
1F
100
AcDbEntity
  8
LAY-10
  6
CONTINUOUS
 62
     7
100
AcDbLine
 10
322.4999999999983
 20
442.2000000000685
 30
0.0
 11
322.4999999999942
 21
662.2000000000698
 31
0.0
  0
LINE
  5
32C
330
1F
100
AcDbEntity
  8
LAY-10
  6
CONTINUOUS
 62
     7
100
AcDbLine
 10
302.5000000000415
 20
478.200000000058
 30
0.0
 11
298.500000000041
 21
478.200000000058
 31
0.0
  0
LINE
  5
32D
330
1F
100
AcDbEntity
  8
LAY-10
  6
CONTINUOUS
 62
     7
100
AcDbLine
 10
302.5000000000415
 20
491.2000000000571
 30
0.0
 11
298.500000000041
 21
491.2000000000571
 31
0.0
  0
LINE
  5
32E
330
1F
100
AcDbEntity
  8
LAY-10
  6
CONTINUOUS
 62
     7
100
AcDbLine
 10
302.5000000000415
 20
523.2000000000694
 30
0.0
 11
298.500000000041
 21
523.2000000000694
 31
0.0
  0
LINE
  5
32F
330
1F
100
AcDbEntity
  8
LAY-10
  6
CONTINUOUS
 62
     7
100
AcDbLine
 10
298.4999999999983
 20
523.2000000000749
 30
0.0
 11
298.4999999999969
 21
491.2000000000517
 31
0.0
  0
LINE
  5
330
330
1F
100
AcDbEntity
  8
LAY-10
  6
CONTINUOUS
 62
     7
100
AcDbLine
 10
302.4999999999987
 20
523.2000000000771
 30
0.0
 11
302.4999999999983
 21
491.2000000000493
 31
0.0
  0
LINE
  5
331
330
1F
100
AcDbEntity
  8
LAY-10
  6
CONTINUOUS
 62
     7
100
AcDbLine
 10
302.5000000000415
 20
536.2000000000685
 30
0.0
 11
298.500000000041
 21
536.2000000000685
 31
0.0
  0
LINE
  5
332
330
1F
100
AcDbEntity
  8
LAY-10
  6
CONTINUOUS
 62
     7
100
AcDbLine
 10
302.5000000000415
 20
568.200000000068
 30
0.0
 11
298.500000000041
 21
568.200000000068
 31
0.0
  0
LINE
  5
333
330
1F
100
AcDbEntity
  8
LAY-10
  6
CONTINUOUS
 62
     7
100
AcDbLine
 10
298.4999999999992
 20
536.2000000000621
 30
0.0
 11
298.4999999999983
 21
568.2000000000744
 31
0.0
  0
LINE
  5
334
330
1F
100
AcDbEntity
  8
LAY-10
  6
CONTINUOUS
 62
     7
100
AcDbLine
 10
302.4999999999997
 20
536.2000000000598
 30
0.0
 11
302.4999999999987
 21
568.2000000000767
 31
0.0
  0
LINE
  5
335
330
1F
100
AcDbEntity
  8
LAY-10
  6
CONTINUOUS
 62
     7
100
AcDbLine
 10
302.5000000000415
 20
581.2000000000671
 30
0.0
 11
298.500000000041
 21
581.2000000000671
 31
0.0
  0
LINE
  5
336
330
1F
100
AcDbEntity
  8
LAY-10
  6
CONTINUOUS
 62
     7
100
AcDbLine
 10
302.5000000000415
 20
613.2000000000794
 30
0.0
 11
298.500000000041
 21
613.2000000000794
 31
0.0
  0
LINE
  5
337
330
1F
100
AcDbEntity
  8
LAY-10
  6
CONTINUOUS
 62
     7
100
AcDbLine
 10
298.4999999999983
 20
581.2000000000621
 30
0.0
 11
298.4999999999969
 21
613.2000000000849
 31
0.0
  0
LINE
  5
338
330
1F
100
AcDbEntity
  8
LAY-10
  6
CONTINUOUS
 62
     7
100
AcDbLine
 10
302.4999999999987
 20
581.2000000000594
 30
0.0
 11
302.4999999999983
 21
613.2000000000876
 31
0.0
  0
LINE
  5
339
330
1F
100
AcDbEntity
  8
LAY-10
  6
CONTINUOUS
 62
     7
100
AcDbLine
 10
302.5000000000415
 20
626.2000000000785
 30
0.0
 11
298.500000000041
 21
626.2000000000785
 31
0.0
  0
LINE
  5
33A
330
1F
100
AcDbEntity
  8
LAY-10
  6
CONTINUOUS
 62
     7
100
AcDbLine
 10
194.5000000000001
 20
467.8813011303882
 30
0.0
 11
207.4999999999953
 21
467.8813011303882
 31
0.0
  0
LINE
  5
33B
330
1F
100
AcDbEntity
  8
LAY-10
  6
CONTINUOUS
 62
     7
100
AcDbLine
 10
181.4999999999997
 20
462.5186988697482
 30
0.0
 11
207.4999999999953
 21
462.5186988697482
 31
0.0
  0
LINE
  5
33C
330
1F
100
AcDbEntity
  8
LAY-10
  6
CONTINUOUS
 62
     7
100
AcDbLine
 10
250.4999999999953
 20
463.2000000000703
 30
0.0
 11
227.5000000000001
 21
463.2000000000703
 31
0.0
  0
LINE
  5
33D
330
1F
100
AcDbEntity
  8
LAY-10
  6
CONTINUOUS
 62
     7
100
AcDbLine
 10
250.4999999999953
 20
467.2000000000698
 30
0.0
 11
227.5000000000001
 21
467.2000000000698
 31
0.0
  0
LINE
  5
33E
330
1F
100
AcDbEntity
  8
LAY-10
  6
CONTINUOUS
 62
     7
100
AcDbLine
 10
212.0072032962802
 20
462.5186988697482
 30
0.0
 11
250.4999999999953
 21
462.5186988697482
 31
0.0
  0
LINE
  5
33F
330
1F
100
AcDbEntity
  8
LAY-10
  6
CONTINUOUS
 62
     7
100
AcDbLine
 10
255.0072032962802
 20
462.5186988697482
 30
0.0
 11
291.5917047947001
 21
462.5186988697482
 31
0.0
  0
LINE
  5
340
330
1F
100
AcDbEntity
  8
LAY-10
  6
CONTINUOUS
 62
     7
100
AcDbLine
 10
212.0072032962802
 20
467.8813011303882
 30
0.0
 11
250.4999999999953
 21
467.8813011303882
 31
0.0
  0
LINE
  5
341
330
1F
100
AcDbEntity
  8
LAY-10
  6
CONTINUOUS
 62
     7
100
AcDbLine
 10
212.0072032962802
 20
467.8813011303882
 30
0.0
 11
212.0072032962802
 21
462.5186988697482
 31
0.0
  0
LINE
  5
342
330
1F
100
AcDbEntity
  8
LAY-10
  6
CONTINUOUS
 62
     7
100
AcDbLine
 10
227.5000000000001
 20
467.2000000000698
 30
0.0
 11
227.5000000000001
 21
463.2000000000703
 31
0.0
  0
LINE
  5
343
330
1F
100
AcDbEntity
  8
LAY-10
  6
CONTINUOUS
 62
     7
100
AcDbLine
 10
212.0072032962802
 20
467.8813011303882
 30
0.0
 11
227.5000000000001
 21
467.2000000000684
 31
0.0
  0
LINE
  5
344
330
1F
100
AcDbEntity
  8
LAY-10
  6
CONTINUOUS
 62
     7
100
AcDbLine
 10
227.5000000000001
 20
463.2000000000685
 30
0.0
 11
212.0072032962802
 21
462.5186988697482
 31
0.0
  0
LINE
  5
345
330
1F
100
AcDbEntity
  8
LAY-10
  6
CONTINUOUS
 62
     7
100
AcDbLine
 10
255.0072032962802
 20
467.8813011303882
 30
0.0
 11
255.0072032962802
 21
462.5186988697482
 31
0.0
  0
LINE
  5
346
330
1F
100
AcDbEntity
  8
LAY-10
  6
CONTINUOUS
 62
     7
100
AcDbLine
 10
270.5000000000003
 20
467.2000000000698
 30
0.0
 11
270.5000000000003
 21
463.2000000000703
 31
0.0
  0
LINE
  5
347
330
1F
100
AcDbEntity
  8
LAY-10
  6
CONTINUOUS
 62
     7
100
AcDbLine
 10
255.0072032962802
 20
467.8813011303882
 30
0.0
 11
270.5000000000003
 21
467.2000000000684
 31
0.0
  0
LINE
  5
348
330
1F
100
AcDbEntity
  8
LAY-10
  6
CONTINUOUS
 62
     7
100
AcDbLine
 10
270.5000000000003
 20
463.2000000000685
 30
0.0
 11
255.0072032962802
 21
462.5186988697482
 31
0.0
  0
LINE
  5
349
330
1F
100
AcDbEntity
  8
LAY-10
  6
CONTINUOUS
 62
     7
100
AcDbLine
 10
207.4999999999953
 20
636.5186988697487
 30
0.0
 11
207.4999999999953
 21
641.8813011303887
 31
0.0
  0
LINE
  5
34A
330
1F
100
AcDbEntity
  8
LAY-10
  6
CONTINUOUS
 62
     7
100
AcDbLine
 10
212.0072032962802
 20
636.5186988697487
 30
0.0
 11
212.0072032962802
 21
641.8813011303887
 31
0.0
  0
LINE
  5
34B
330
1F
100
AcDbEntity
  8
LAY-10
  6
CONTINUOUS
 62
     7
100
AcDbLine
 10
227.5000000000001
 20
637.2000000000671
 30
0.0
 11
227.5000000000001
 21
641.2000000000667
 31
0.0
  0
LINE
  5
34C
330
1F
100
AcDbEntity
  8
LAY-10
  6
CONTINUOUS
 62
     7
100
AcDbLine
 10
212.0072032962802
 20
636.5186988697487
 30
0.0
 11
227.5000000000001
 21
637.2000000000685
 31
0.0
  0
LINE
  5
34D
330
1F
100
AcDbEntity
  8
LAY-10
  6
CONTINUOUS
 62
     7
100
AcDbLine
 10
227.5000000000001
 20
641.2000000000685
 30
0.0
 11
212.0072032962802
 21
641.8813011303887
 31
0.0
  0
LINE
  5
34E
330
1F
100
AcDbEntity
  8
LAY-10
  6
CONTINUOUS
 62
     7
100
AcDbLine
 10
250.4999999999953
 20
636.5186988697487
 30
0.0
 11
250.4999999999953
 21
641.8813011303887
 31
0.0
  0
LINE
  5
34F
330
1F
100
AcDbEntity
  8
LAY-10
  6
CONTINUOUS
 62
     7
100
AcDbLine
 10
255.0072032962802
 20
636.5186988697487
 30
0.0
 11
255.0072032962802
 21
641.8813011303887
 31
0.0
  0
LINE
  5
350
330
1F
100
AcDbEntity
  8
LAY-10
  6
CONTINUOUS
 62
     7
100
AcDbLine
 10
270.5000000000003
 20
637.2000000000671
 30
0.0
 11
270.5000000000003
 21
641.2000000000667
 31
0.0
  0
LINE
  5
351
330
1F
100
AcDbEntity
  8
LAY-10
  6
CONTINUOUS
 62
     7
100
AcDbLine
 10
255.0072032962802
 20
636.5186988697487
 30
0.0
 11
270.5000000000003
 21
637.2000000000685
 31
0.0
  0
LINE
  5
352
330
1F
100
AcDbEntity
  8
LAY-10
  6
CONTINUOUS
 62
     7
100
AcDbLine
 10
270.5000000000003
 20
641.2000000000685
 30
0.0
 11
255.0072032962802
 21
641.8813011303887
 31
0.0
  0
LINE
  5
353
330
1F
100
AcDbEntity
  8
LAY-10
  6
CONTINUOUS
 62
     7
100
AcDbLine
 10
255.0072032962802
 20
641.8813011303887
 30
0.0
 11
291.5917047947001
 21
641.8813011303887
 31
0.0
  0
LINE
  5
354
330
1F
100
AcDbEntity
  8
LAY-10
  6
CONTINUOUS
 62
     7
100
AcDbLine
 10
194.5000000000001
 20
636.5186988697483
 30
0.0
 11
207.4999999999953
 21
636.5186988697483
 31
0.0
  0
LINE
  5
355
330
1F
100
AcDbEntity
  8
LAY-10
  6
CONTINUOUS
 62
     7
100
AcDbLine
 10
212.007203296275
 20
636.5186988697483
 30
0.0
 11
250.4999999999953
 21
636.5186988697483
 31
0.0
  0
LINE
  5
356
330
1F
100
AcDbEntity
  8
LAY-10
  6
CONTINUOUS
 62
     7
100
AcDbLine
 10
181.4999999999997
 20
641.8813011303887
 30
0.0
 11
207.4999999999953
 21
641.8813011303887
 31
0.0
  0
LINE
  5
357
330
1F
100
AcDbEntity
  8
LAY-10
  6
CONTINUOUS
 62
     7
100
AcDbLine
 10
212.0072032962802
 20
641.8813011303887
 30
0.0
 11
250.4999999999953
 21
641.8813011303887
 31
0.0
  0
LINE
  5
358
330
1F
100
AcDbEntity
  8
LAY-10
  6
CONTINUOUS
 62
     7
100
AcDbLine
 10
250.4999999999953
 20
637.2000000000671
 30
0.0
 11
227.499999999964
 21
637.2000000000671
 31
0.0
  0
LINE
  5
359
330
1F
100
AcDbEntity
  8
LAY-10
  6
CONTINUOUS
 62
     7
100
AcDbLine
 10
250.4999999999953
 20
641.2000000000662
 30
0.0
 11
227.5000000000001
 21
641.2000000000662
 31
0.0
  0
LINE
  5
35A
330
1F
100
AcDbEntity
  8
LAY-10
  6
CONTINUOUS
 62
     7
100
AcDbLine
 10
295.4999999999969
 20
467.2000000000698
 30
0.0
 11
270.4999999999692
 21
467.2000000000698
 31
0.0
  0
LINE
  5
35B
330
1F
100
AcDbEntity
  8
LAY-10
  6
CONTINUOUS
 62
     7
100
AcDbLine
 10
298.4999999999969
 20
478.2000000000648
 30
0.0
 11
298.4999999999967
 21
470.2000000000694
 31
0.0
  0
LINE
  5
35C
330
1F
100
AcDbEntity
  8
LAY-10
  6
CONTINUOUS
 62
     7
100
AcDbLine
 10
297.4999999999976
 20
463.2000000000703
 30
0.0
 11
270.5000000000003
 21
463.2000000000703
 31
0.0
  0
LINE
  5
35D
330
1F
100
AcDbEntity
  8
LAY-10
  6
CONTINUOUS
 62
     7
100
AcDbLine
 10
297.8116784749601
 20
462.9071807561627
 30
0.0
 11
291.5917047947001
 21
462.5186988697482
 31
0.0
  0
LINE
  5
35E
330
1F
100
AcDbEntity
  8
LAY-10
  6
CONTINUOUS
 62
     7
100
AcDbLine
 10
302.4999999999983
 20
478.2000000000671
 30
0.0
 11
302.4999999999976
 21
467.8974569537536
 31
0.0
  0
LINE
  5
35F
330
1F
100
AcDbEntity
  8
LAY-10
  6
CONTINUOUS
 62
     7
100
AcDbLine
 10
295.4999999999969
 20
637.2000000000671
 30
0.0
 11
270.499999999964
 21
637.2000000000671
 31
0.0
  0
LINE
  5
360
330
1F
100
AcDbEntity
  8
LAY-10
  6
CONTINUOUS
 62
     7
100
AcDbLine
 10
298.4999999999969
 20
626.2000000000721
 30
0.0
 11
298.4999999999967
 21
634.2000000000671
 31
0.0
  0
LINE
  5
361
330
1F
100
AcDbEntity
  8
LAY-10
  6
CONTINUOUS
 62
     7
100
AcDbLine
 10
297.4999999999976
 20
641.2000000000662
 30
0.0
 11
270.5000000000003
 21
641.2000000000662
 31
0.0
  0
LINE
  5
362
330
1F
100
AcDbEntity
  8
LAY-10
  6
CONTINUOUS
 62
     7
100
AcDbLine
 10
297.8116784749601
 20
641.4928192439738
 30
0.0
 11
291.5917047947001
 21
641.8813011303882
 31
0.0
  0
LINE
  5
363
330
1F
100
AcDbEntity
  8
LAY-10
  6
CONTINUOUS
 62
     7
100
AcDbLine
 10
302.4999999999983
 20
626.2000000000694
 30
0.0
 11
302.4999999999976
 21
636.5025430463829
 31
0.0
  0
LINE
  5
364
330
1F
100
AcDbEntity
  8
LAY-10
  6
CONTINUOUS
 62
     7
100
AcDbLine
 10
286.582464074074
 20
636.6759222075143
 30
0.0
 11
295.5057902963039
 21
637.0683285856326
 31
0.0
  0
LINE
  5
365
330
1F
100
AcDbEntity
  8
LAY-10
  6
CONTINUOUS
 62
     7
100
AcDbLine
 10
286.582464074074
 20
467.7240777926222
 30
0.0
 11
295.5057902963039
 21
467.3316714145044
 31
0.0
  0
ARC
  5
366
330
1F
100
AcDbEntity
  8
LAY-10
  6
CONTINUOUS
 62
     7
100
AcDbCircle
 10
295.4999999999969
 20
470.2000000000698
 30
0.0
 40
3.0
100
AcDbArc
 50
270.0
 51
0.0
  0
ARC
  5
367
330
1F
100
AcDbEntity
  8
LAY-10
  6
CONTINUOUS
 62
     7
100
AcDbCircle
 10
297.4999999999976
 20
468.2000000000708
 30
0.0
 40
5.0
100
AcDbArc
 50
270.0
 51
0.0
  0
ARC
  5
368
330
1F
100
AcDbEntity
  8
LAY-10
  6
CONTINUOUS
 62
     7
100
AcDbCircle
 10
297.4999999999976
 20
467.897456953754
 30
0.0
 40
5.0
100
AcDbArc
 50
273.5738893228366
 51
0.0
  0
ARC
  5
369
330
1F
100
AcDbEntity
  8
LAY-10
  6
CONTINUOUS
 62
     7
100
AcDbCircle
 10
295.4999999999969
 20
634.2000000000671
 30
0.0
 40
3.0
100
AcDbArc
 50
0.0000000000021772
 51
90.00000000000001
  0
ARC
  5
36A
330
1F
100
AcDbEntity
  8
LAY-10
  6
CONTINUOUS
 62
     7
100
AcDbCircle
 10
297.4999999999976
 20
636.2000000000662
 30
0.0
 40
5.0
100
AcDbArc
 50
0.0000000000032659
 51
90.00000000000001
  0
ARC
  5
36B
330
1F
100
AcDbEntity
  8
LAY-10
  6
CONTINUOUS
 62
     7
100
AcDbCircle
 10
297.4999999999976
 20
636.5025430463825
 30
0.0
 40
5.0
100
AcDbArc
 50
0.0000000000032659
 51
86.42611067716356
  0
LINE
  5
36C
330
1F
100
AcDbEntity
  8
LAY-10
  6
CONTINUOUS
 62
     7
100
AcDbLine
 10
255.0072032962777
 20
467.8813011303882
 30
0.0
 11
271.5000000000001
 21
467.8813011303882
 31
0.0
  0
LINE
  5
36D
330
1F
100
AcDbEntity
  8
LAY-10
  6
CONTINUOUS
 62
     7
100
AcDbLine
 10
274.4999999999992
 20
467.7240777932197
 30
0.0
 11
284.582464074099
 21
467.7240777932197
 31
0.0
  0
LINE
  5
36E
330
1F
100
AcDbEntity
  8
LAY-10
  6
CONTINUOUS
 62
     7
100
AcDbLine
 10
255.007203296275
 20
636.5186988697483
 30
0.0
 11
271.5000000000001
 21
636.5186988697483
 31
0.0
  0
LINE
  5
36F
330
1F
100
AcDbEntity
  8
LAY-10
  6
CONTINUOUS
 62
     7
100
AcDbLine
 10
274.4999999999992
 20
636.6759222069168
 30
0.0
 11
284.582464074099
 21
636.6759222069168
 31
0.0
  0
ARC
  5
370
330
1F
100
AcDbEntity
  8
LAY-10
  6
CONTINUOUS
 62
     7
100
AcDbCircle
 10
271.5000000000001
 20
634.5186988697483
 30
0.0
 40
2.0
100
AcDbArc
 50
19.91651496233997
 51
90.00000000000001
  0
ARC
  5
371
330
1F
100
AcDbEntity
  8
LAY-10
  6
CONTINUOUS
 62
     7
100
AcDbCircle
 10
274.4999999999992
 20
634.6759222069168
 30
0.0
 40
2.0
100
AcDbArc
 50
15.19107751422185
 51
90.00000000000001
  0
ARC
  5
372
330
1F
100
AcDbEntity
  8
LAY-10
  6
CONTINUOUS
 62
     7
100
AcDbCircle
 10
284.582464074099
 20
634.6759222069168
 30
0.0
 40
2.0
100
AcDbArc
 50
15.19107751422185
 51
90.00000000000001
  0
LINE
  5
373
330
1F
100
AcDbEntity
  8
LAY-10
  6
CONTINUOUS
 62
     7
100
AcDbLine
 10
293.4999999999987
 20
625.4602204776788
 30
0.0
 11
298.5000000000406
 21
626.2000000000785
 31
0.0
  0
LINE
  5
374
330
1F
100
AcDbEntity
  8
LAY-10
  6
CONTINUOUS
 62
     7
100
AcDbLine
 10
293.4999999999987
 20
624.3087551855019
 30
0.0
 11
302.5000000000406
 21
626.2000000000785
 31
0.0
  0
LINE
  5
375
330
1F
100
AcDbEntity
  8
LAY-10
  6
CONTINUOUS
 62
     7
100
AcDbLine
 10
293.4999999999987
 20
615.091244814655
 30
0.0
 11
302.5000000000406
 21
613.2000000000785
 31
0.0
  0
LINE
  5
376
330
1F
100
AcDbEntity
  8
LAY-10
  6
CONTINUOUS
 62
     7
100
AcDbLine
 10
293.4999999999987
 20
613.9397795224781
 30
0.0
 11
298.5000000000406
 21
613.2000000000785
 31
0.0
  0
LINE
  5
377
330
1F
100
AcDbEntity
  8
LAY-10
  6
CONTINUOUS
 62
     7
100
AcDbLine
 10
293.4999999999987
 20
579.3087551854915
 30
0.0
 11
302.5000000000406
 21
581.200000000068
 31
0.0
  0
LINE
  5
378
330
1F
100
AcDbEntity
  8
LAY-10
  6
CONTINUOUS
 62
     7
100
AcDbLine
 10
293.4999999999987
 20
580.4602204776688
 30
0.0
 11
298.5000000000406
 21
581.200000000068
 31
0.0
  0
LINE
  5
379
330
1F
100
AcDbEntity
  8
LAY-10
  6
CONTINUOUS
 62
     7
100
AcDbLine
 10
293.4999999999987
 20
570.0912448146446
 30
0.0
 11
302.5000000000406
 21
568.2000000000685
 31
0.0
  0
LINE
  5
37A
330
1F
100
AcDbEntity
  8
LAY-10
  6
CONTINUOUS
 62
     7
100
AcDbLine
 10
293.4999999999987
 20
568.9397795224677
 30
0.0
 11
298.5000000000406
 21
568.2000000000685
 31
0.0
  0
LINE
  5
37B
330
1F
100
AcDbEntity
  8
LAY-10
  6
CONTINUOUS
 62
     7
100
AcDbLine
 10
293.4999999999987
 20
535.4602204776693
 30
0.0
 11
298.5000000000406
 21
536.2000000000685
 31
0.0
  0
LINE
  5
37C
330
1F
100
AcDbEntity
  8
LAY-10
  6
CONTINUOUS
 62
     7
100
AcDbLine
 10
293.4999999999987
 20
534.3087551854919
 30
0.0
 11
302.5000000000406
 21
536.2000000000685
 31
0.0
  0
LINE
  5
37D
330
1F
100
AcDbEntity
  8
LAY-10
  6
CONTINUOUS
 62
     7
100
AcDbLine
 10
293.4999999999987
 20
525.0912448146455
 30
0.0
 11
302.5000000000406
 21
523.2000000000685
 31
0.0
  0
LINE
  5
37E
330
1F
100
AcDbEntity
  8
LAY-10
  6
CONTINUOUS
 62
     7
100
AcDbLine
 10
293.4999999999987
 20
523.9397795224681
 30
0.0
 11
298.5000000000406
 21
523.2000000000685
 31
0.0
  0
LINE
  5
37F
330
1F
100
AcDbEntity
  8
LAY-10
  6
CONTINUOUS
 62
     7
100
AcDbLine
 10
293.4999999999987
 20
480.0912448146346
 30
0.0
 11
302.5000000000406
 21
478.200000000058
 31
0.0
  0
LINE
  5
380
330
1F
100
AcDbEntity
  8
LAY-10
  6
CONTINUOUS
 62
     7
100
AcDbLine
 10
293.4999999999987
 20
478.9397795224576
 30
0.0
 11
298.5000000000406
 21
478.200000000058
 31
0.0
  0
LINE
  5
381
330
1F
100
AcDbEntity
  8
LAY-10
  6
CONTINUOUS
 62
     7
100
AcDbLine
 10
293.4999999999987
 20
489.3087551854815
 30
0.0
 11
302.5000000000406
 21
491.200000000058
 31
0.0
  0
LINE
  5
382
330
1F
100
AcDbEntity
  8
LAY-10
  6
CONTINUOUS
 62
     7
100
AcDbLine
 10
293.4999999999987
 20
490.4602204776583
 30
0.0
 11
298.5000000000406
 21
491.200000000058
 31
0.0
  0
ARC
  5
383
330
1F
100
AcDbEntity
  8
LAY-10
  6
CONTINUOUS
 62
     7
100
AcDbCircle
 10
284.582464074099
 20
469.7240777932197
 30
0.0
 40
2.0
100
AcDbArc
 50
270.0
 51
344.8089224857743
  0
ARC
  5
384
330
1F
100
AcDbEntity
  8
LAY-10
  6
CONTINUOUS
 62
     7
100
AcDbCircle
 10
274.4999999999992
 20
469.7240777932197
 30
0.0
 40
2.0
100
AcDbArc
 50
270.0
 51
344.8089224857743
  0
ARC
  5
385
330
1F
100
AcDbEntity
  8
LAY-10
  6
CONTINUOUS
 62
     7
100
AcDbCircle
 10
271.5000000000001
 20
469.8813011303887
 30
0.0
 40
2.0
100
AcDbArc
 50
270.0
 51
340.0834850376472
  0
LINE
  5
386
330
1F
100
AcDbEntity
  8
LAY-10
  6
CONTINUOUS
 62
     7
100
AcDbLine
 10
284.9999999999901
 20
454.7000000001735
 30
0.0
 11
269.9999999999901
 21
454.7000000001735
 31
0.0
  0
LINE
  5
387
330
1F
100
AcDbEntity
  8
LAY-10
  6
CONTINUOUS
 62
     7
100
AcDbLine
 10
284.9999999999901
 20
439.7000000001535
 30
0.0
 11
269.9999999999901
 21
439.7000000001535
 31
0.0
  0
LINE
  5
388
330
1F
100
AcDbEntity
  8
LAY-10
  6
CONTINUOUS
 62
     7
100
AcDbLine
 10
269.9999999999901
 20
439.7000000001531
 30
0.0
 11
269.9999999999901
 21
454.7000000001735
 31
0.0
  0
LINE
  5
389
330
1F
100
AcDbEntity
  8
LAY-10
  6
CONTINUOUS
 62
     7
100
AcDbLine
 10
264.9999999999903
 20
455.7000000001835
 30
0.0
 11
264.9999999999903
 21
437.200000000078
 31
0.0
  0
LINE
  5
38A
330
1F
100
AcDbEntity
  8
LAY-10
  6
CONTINUOUS
 62
     7
100
AcDbLine
 10
269.9999999999901
 20
439.7000000001535
 30
0.0
 11
264.9999999999901
 21
437.2000000000735
 31
0.0
  0
LINE
  5
38B
330
1F
100
AcDbEntity
  8
LAY-10
  6
CONTINUOUS
 62
     7
100
AcDbLine
 10
269.9999999999901
 20
454.7000000001735
 30
0.0
 11
264.9999999999901
 21
455.7000000001835
 31
0.0
  0
LINE
  5
38C
330
1F
100
AcDbEntity
  8
LAY-10
  6
CONTINUOUS
 62
     7
100
AcDbLine
 10
284.9999999999901
 20
439.7000000001535
 30
0.0
 11
284.9999999999901
 21
454.7000000001735
 31
0.0
  0
LINE
  5
38D
330
1F
100
AcDbEntity
  8
LAY-10
  6
CONTINUOUS
 62
     7
100
AcDbLine
 10
287.9999999999899
 20
455.7000000001835
 30
0.0
 11
264.9999999999903
 21
455.7000000001835
 31
0.0
  0
LINE
  5
38E
330
1F
100
AcDbEntity
  8
LAY-10
  6
CONTINUOUS
 62
     7
100
AcDbLine
 10
284.9999999999901
 20
439.7000000001535
 30
0.0
 11
287.9999999999901
 21
437.2000000000735
 31
0.0
  0
LINE
  5
38F
330
1F
100
AcDbEntity
  8
LAY-10
  6
CONTINUOUS
 62
     7
100
AcDbLine
 10
287.9999999999899
 20
437.200000000078
 30
0.0
 11
287.9999999999899
 21
455.7000000001835
 31
0.0
  0
LINE
  5
390
330
1F
100
AcDbEntity
  8
LAY-10
  6
CONTINUOUS
 62
     7
100
AcDbLine
 10
284.9999999999901
 20
454.7000000001735
 30
0.0
 11
287.9999999999901
 21
455.7000000001835
 31
0.0
  0
LINE
  5
391
330
1F
100
AcDbEntity
  8
LAY-10
  6
CONTINUOUS
 62
     7
100
AcDbLine
 10
284.9999999999901
 20
649.6999999999634
 30
0.0
 11
269.9999999999901
 21
649.6999999999634
 31
0.0
  0
LINE
  5
392
330
1F
100
AcDbEntity
  8
LAY-10
  6
CONTINUOUS
 62
     7
100
AcDbLine
 10
284.9999999999901
 20
664.6999999999834
 30
0.0
 11
269.9999999999901
 21
664.6999999999834
 31
0.0
  0
LINE
  5
393
330
1F
100
AcDbEntity
  8
LAY-10
  6
CONTINUOUS
 62
     7
100
AcDbLine
 10
269.9999999999901
 20
664.6999999999834
 30
0.0
 11
269.9999999999901
 21
649.6999999999634
 31
0.0
  0
LINE
  5
394
330
1F
100
AcDbEntity
  8
LAY-10
  6
CONTINUOUS
 62
     7
100
AcDbLine
 10
264.9999999999903
 20
648.6999999999534
 30
0.0
 11
264.9999999999903
 21
667.2000000000589
 31
0.0
  0
LINE
  5
395
330
1F
100
AcDbEntity
  8
LAY-10
  6
CONTINUOUS
 62
     7
100
AcDbLine
 10
269.9999999999901
 20
664.6999999999834
 30
0.0
 11
264.9999999999901
 21
667.2000000000635
 31
0.0
  0
LINE
  5
396
330
1F
100
AcDbEntity
  8
LAY-10
  6
CONTINUOUS
 62
     7
100
AcDbLine
 10
269.9999999999901
 20
649.6999999999634
 30
0.0
 11
264.9999999999901
 21
648.6999999999534
 31
0.0
  0
LINE
  5
397
330
1F
100
AcDbEntity
  8
LAY-10
  6
CONTINUOUS
 62
     7
100
AcDbLine
 10
284.9999999999901
 20
664.6999999999834
 30
0.0
 11
284.9999999999901
 21
649.6999999999634
 31
0.0
  0
LINE
  5
398
330
1F
100
AcDbEntity
  8
LAY-10
  6
CONTINUOUS
 62
     7
100
AcDbLine
 10
287.9999999999899
 20
648.6999999999534
 30
0.0
 11
264.9999999999903
 21
648.6999999999534
 31
0.0
  0
LINE
  5
399
330
1F
100
AcDbEntity
  8
LAY-10
  6
CONTINUOUS
 62
     7
100
AcDbLine
 10
284.9999999999901
 20
664.6999999999834
 30
0.0
 11
287.9999999999901
 21
667.2000000000635
 31
0.0
  0
LINE
  5
39A
330
1F
100
AcDbEntity
  8
LAY-10
  6
CONTINUOUS
 62
     7
100
AcDbLine
 10
287.9999999999899
 20
667.2000000000589
 30
0.0
 11
287.9999999999899
 21
648.6999999999534
 31
0.0
  0
LINE
  5
39B
330
1F
100
AcDbEntity
  8
LAY-10
  6
CONTINUOUS
 62
     7
100
AcDbLine
 10
284.9999999999901
 20
649.6999999999634
 30
0.0
 11
287.9999999999901
 21
648.6999999999534
 31
0.0
  0
ELLIPSE
  5
39C
330
1F
100
AcDbEntity
  8
LAY-10
  6
CONTINUOUS
 62
     7
100
AcDbEllipse
 10
205.0000000000015
 20
496.2000000000703
 30
0.0
 11
-1.914284349463519E-15
 21
5.000000000000116
 31
0.0
210
0.0
220
0.0
230
1.0
 40
0.7071067811864685
 41
3.220842248702366
 42
3.785093762383183
  0
ELLIPSE
  5
39D
330
1F
100
AcDbEntity
  8
LAY-10
  6
CONTINUOUS
 62
     7
100
AcDbEllipse
 10
205.0000000000015
 20
496.2000000000703
 30
0.0
 11
-1.914284349463519E-15
 21
5.000000000000116
 31
0.0
210
0.0
220
0.0
230
1.0
 40
0.7071067811864685
 41
5.639684198386148
 42
6.203935712067116
  0
ELLIPSE
  5
39E
330
1F
100
AcDbEntity
  8
LAY-10
  6
CONTINUOUS
 62
     7
100
AcDbEllipse
 10
205.0000000000015
 20
608.2000000000698
 30
0.0
 11
-9.184850993605363E-16
 21
-5.000000000000116
 31
0.0
210
0.0
220
0.0
230
1.0
 40
0.7071067811864685
 41
0.0792495951124747
 42
0.6435011087934179
  0
ELLIPSE
  5
39F
330
1F
100
AcDbEntity
  8
LAY-10
  6
CONTINUOUS
 62
     7
100
AcDbEllipse
 10
205.0000000000015
 20
608.2000000000698
 30
0.0
 11
-9.184850993605363E-16
 21
-5.000000000000116
 31
0.0
210
0.0
220
0.0
230
1.0
 40
0.7071067811864685
 41
2.498091544796405
 42
3.062343058477221
  0
LINE
  5
3A0
330
1F
100
AcDbEntity
  8
LAY-10
  6
CONTINUOUS
 62
     7
100
AcDbLine
 10
224.9852813742401
 20
469.2000000000698
 30
0.0
 11
224.9852813742401
 21
478.2000000000698
 31
0.0
  0
LINE
  5
3A1
330
1F
100
AcDbEntity
  8
LAY-10
  6
CONTINUOUS
 62
     7
100
AcDbLine
 10
224.9852813742401
 20
506.7000000000698
 30
0.0
 11
224.9852813742401
 21
512.7000000000703
 31
0.0
  0
LINE
  5
3A2
330
1F
100
AcDbEntity
  8
LAY-10
  6
CONTINUOUS
 62
     7
100
AcDbLine
 10
224.9852813742401
 20
523.7000000000698
 30
0.0
 11
224.9852813742401
 21
529.7000000000698
 31
0.0
  0
LINE
  5
3A3
330
1F
100
AcDbEntity
  8
LAY-10
  6
CONTINUOUS
 62
     7
100
AcDbLine
 10
224.9852813742401
 20
540.7000000000698
 30
0.0
 11
224.9852813742401
 21
546.7000000000698
 31
0.0
  0
LINE
  5
3A4
330
1F
100
AcDbEntity
  8
LAY-10
  6
CONTINUOUS
 62
     7
100
AcDbLine
 10
224.9852813742401
 20
557.7000000000698
 30
0.0
 11
224.9852813742401
 21
563.7000000000698
 31
0.0
  0
LINE
  5
3A5
330
1F
100
AcDbEntity
  8
LAY-10
  6
CONTINUOUS
 62
     7
100
AcDbLine
 10
224.9852813742401
 20
574.7000000000698
 30
0.0
 11
224.9852813742401
 21
580.7000000000698
 31
0.0
  0
LINE
  5
3A6
330
1F
100
AcDbEntity
  8
LAY-10
  6
CONTINUOUS
 62
     7
100
AcDbLine
 10
224.9852813742401
 20
591.7000000000698
 30
0.0
 11
224.9852813742401
 21
597.7000000000698
 31
0.0
  0
LINE
  5
3A7
330
1F
100
AcDbEntity
  8
LAY-10
  6
CONTINUOUS
 62
     7
100
AcDbLine
 10
224.9852813742401
 20
626.2000000000698
 30
0.0
 11
224.9852813742401
 21
635.2000000000698
 31
0.0
  0
ARC
  5
3A8
330
1F
100
AcDbEntity
  8
LAY-10
  6
CONTINUOUS
 62
     7
100
AcDbCircle
 10
220.2897042113233
 20
617.7000000000698
 30
0.0
 40
3.000000000000001
100
AcDbArc
 50
210.157736033536
 51
270.0
  0
ARC
  5
3A9
330
1F
100
AcDbEntity
  8
LAY-10
  6
CONTINUOUS
 62
     7
100
AcDbCircle
 10
203.9393398282217
 20
608.2000000000698
 30
0.0
 40
15.90990257669731
100
AcDbArc
 50
30.15773603353731
 51
48.43580179818704
  0
LINE
  5
3AA
330
1F
100
AcDbEntity
  8
LAY-10
  6
CONTINUOUS
 62
     7
100
AcDbLine
 10
278.5000000000013
 20
614.7000000000694
 30
0.0
 11
220.2897042113233
 21
614.7000000000694
 31
0.0
  0
ARC
  5
3AB
330
1F
100
AcDbEntity
  8
LAY-10
  6
CONTINUOUS
 62
     7
100
AcDbCircle
 10
202.0000000000012
 20
622.3486312477935
 30
0.0
 40
3.000000000000001
100
AcDbArc
 50
311.5641982018169
 51
0.0
  0
LINE
  5
3AC
330
1F
100
AcDbEntity
  8
LAY-10
  6
CONTINUOUS
 62
     7
100
AcDbLine
 10
205.0000000000015
 20
626.2000000000698
 30
0.0
 11
205.0000000000015
 21
622.3486312477935
 31
0.0
  0
ARC
  5
3AD
330
1F
100
AcDbEntity
  8
LAY-10
  6
CONTINUOUS
 62
     7
100
AcDbCircle
 10
216.4852813742405
 20
622.3486312477935
 30
0.0
 40
3.000000000000001
100
AcDbArc
 50
180.0
 51
228.4358017981832
  0
LINE
  5
3AE
330
1F
100
AcDbEntity
  8
LAY-10
  6
CONTINUOUS
 62
     7
100
AcDbLine
 10
213.4852813742403
 20
626.2000000000698
 30
0.0
 11
213.4852813742403
 21
622.3486312477935
 31
0.0
  0
ARC
  5
3AF
330
1F
100
AcDbEntity
  8
LAY-10
  6
CONTINUOUS
 62
     7
100
AcDbCircle
 10
221.2983264190394
 20
600.7000000000698
 30
0.0
 40
3.000000000000001
100
AcDbArc
 50
156.6331026968058
 51
270.0
  0
LINE
  5
3B0
330
1F
100
AcDbEntity
  8
LAY-10
  6
CONTINUOUS
 62
     7
100
AcDbLine
 10
278.5000000000013
 20
597.7000000000698
 30
0.0
 11
221.2983264190394
 21
597.7000000000698
 31
0.0
  0
ARC
  5
3B1
330
1F
100
AcDbEntity
  8
LAY-10
  6
CONTINUOUS
 62
     7
100
AcDbCircle
 10
278.5000000000013
 20
623.2000000000698
 30
0.0
 40
3.000000000000001
100
AcDbArc
 50
0.0
 51
90.00000000000001
  0
LINE
  5
3B2
330
1F
100
AcDbEntity
  8
LAY-10
  6
CONTINUOUS
 62
     7
100
AcDbLine
 10
281.5000000000013
 20
623.2000000000698
 30
0.0
 11
281.5000000000013
 21
617.7000000000698
 31
0.0
  0
LINE
  5
3B3
330
1F
100
AcDbEntity
  8
LAY-10
  6
CONTINUOUS
 62
     7
100
AcDbLine
 10
278.5000000000013
 20
626.2000000000698
 30
0.0
 11
213.4852813742399
 21
626.2000000000698
 31
0.0
  0
ARC
  5
3B4
330
1F
100
AcDbEntity
  8
LAY-10
  6
CONTINUOUS
 62
     7
100
AcDbCircle
 10
278.5000000000013
 20
617.7000000000698
 30
0.0
 40
3.000000000000001
100
AcDbArc
 50
270.0
 51
0.0
  0
ARC
  5
3B5
330
1F
100
AcDbEntity
  8
LAY-10
  6
CONTINUOUS
 62
     7
100
AcDbCircle
 10
278.5000000000013
 20
605.7000000000698
 30
0.0
 40
3.000000000000001
100
AcDbArc
 50
0.0
 51
90.00000000000001
  0
LINE
  5
3B6
330
1F
100
AcDbEntity
  8
LAY-10
  6
CONTINUOUS
 62
     7
100
AcDbLine
 10
281.5000000000013
 20
605.7000000000698
 30
0.0
 11
281.5000000000013
 21
600.7000000000698
 31
0.0
  0
ARC
  5
3B7
330
1F
100
AcDbEntity
  8
LAY-10
  6
CONTINUOUS
 62
     7
100
AcDbCircle
 10
278.5000000000013
 20
600.7000000000698
 30
0.0
 40
3.000000000000001
100
AcDbArc
 50
270.0
 51
0.0
  0
ARC
  5
3B8
330
1F
100
AcDbEntity
  8
LAY-10
  6
CONTINUOUS
 62
     7
100
AcDbCircle
 10
278.5000000000013
 20
588.7000000000698
 30
0.0
 40
3.000000000000001
100
AcDbArc
 50
0.0
 51
90.00000000000001
  0
LINE
  5
3B9
330
1F
100
AcDbEntity
  8
LAY-10
  6
CONTINUOUS
 62
     7
100
AcDbLine
 10
281.5000000000013
 20
588.7000000000698
 30
0.0
 11
281.5000000000013
 21
583.7000000000698
 31
0.0
  0
LINE
  5
3BA
330
1F
100
AcDbEntity
  8
LAY-10
  6
CONTINUOUS
 62
     7
100
AcDbLine
 10
278.5000000000013
 20
591.7000000000698
 30
0.0
 11
216.4852813742399
 21
591.7000000000698
 31
0.0
  0
ARC
  5
3BB
330
1F
100
AcDbEntity
  8
LAY-10
  6
CONTINUOUS
 62
     7
100
AcDbCircle
 10
278.5000000000013
 20
583.7000000000698
 30
0.0
 40
3.000000000000001
100
AcDbArc
 50
270.0
 51
0.0
  0
LINE
  5
3BC
330
1F
100
AcDbEntity
  8
LAY-10
  6
CONTINUOUS
 62
     7
100
AcDbLine
 10
278.5000000000013
 20
580.7000000000698
 30
0.0
 11
216.4852813742399
 21
580.7000000000698
 31
0.0
  0
ARC
  5
3BD
330
1F
100
AcDbEntity
  8
LAY-10
  6
CONTINUOUS
 62
     7
100
AcDbCircle
 10
278.5000000000013
 20
571.7000000000698
 30
0.0
 40
3.000000000000001
100
AcDbArc
 50
0.0
 51
90.00000000000001
  0
LINE
  5
3BE
330
1F
100
AcDbEntity
  8
LAY-10
  6
CONTINUOUS
 62
     7
100
AcDbLine
 10
281.5000000000013
 20
571.7000000000698
 30
0.0
 11
281.5000000000013
 21
566.7000000000698
 31
0.0
  0
LINE
  5
3BF
330
1F
100
AcDbEntity
  8
LAY-10
  6
CONTINUOUS
 62
     7
100
AcDbLine
 10
278.5000000000013
 20
574.7000000000698
 30
0.0
 11
216.4852813742399
 21
574.7000000000698
 31
0.0
  0
ARC
  5
3C0
330
1F
100
AcDbEntity
  8
LAY-10
  6
CONTINUOUS
 62
     7
100
AcDbCircle
 10
278.5000000000013
 20
566.7000000000698
 30
0.0
 40
3.000000000000001
100
AcDbArc
 50
270.0
 51
0.0
  0
LINE
  5
3C1
330
1F
100
AcDbEntity
  8
LAY-10
  6
CONTINUOUS
 62
     7
100
AcDbLine
 10
278.5000000000013
 20
563.7000000000698
 30
0.0
 11
216.4852813742399
 21
563.7000000000698
 31
0.0
  0
ARC
  5
3C2
330
1F
100
AcDbEntity
  8
LAY-10
  6
CONTINUOUS
 62
     7
100
AcDbCircle
 10
216.4852813742399
 20
566.7000000000698
 30
0.0
 40
3.000000000000001
100
AcDbArc
 50
180.0
 51
270.0
  0
LINE
  5
3C3
330
1F
100
AcDbEntity
  8
LAY-10
  6
CONTINUOUS
 62
     7
100
AcDbLine
 10
213.4852813742399
 20
571.7000000000698
 30
0.0
 11
213.4852813742399
 21
566.7000000000698
 31
0.0
  0
ARC
  5
3C4
330
1F
100
AcDbEntity
  8
LAY-10
  6
CONTINUOUS
 62
     7
100
AcDbCircle
 10
216.4852813742399
 20
571.7000000000698
 30
0.0
 40
3.000000000000001
100
AcDbArc
 50
90.00000000000001
 51
180.0
  0
ARC
  5
3C5
330
1F
100
AcDbEntity
  8
LAY-10
  6
CONTINUOUS
 62
     7
100
AcDbCircle
 10
216.4852813742399
 20
583.7000000000698
 30
0.0
 40
3.000000000000001
100
AcDbArc
 50
180.0
 51
270.0
  0
LINE
  5
3C6
330
1F
100
AcDbEntity
  8
LAY-10
  6
CONTINUOUS
 62
     7
100
AcDbLine
 10
213.4852813742399
 20
588.7000000000698
 30
0.0
 11
213.4852813742399
 21
583.7000000000698
 31
0.0
  0
ARC
  5
3C7
330
1F
100
AcDbEntity
  8
LAY-10
  6
CONTINUOUS
 62
     7
100
AcDbCircle
 10
216.4852813742399
 20
588.7000000000698
 30
0.0
 40
3.000000000000001
100
AcDbArc
 50
90.00000000000001
 51
180.0
  0
ARC
  5
3C8
330
1F
100
AcDbEntity
  8
LAY-10
  6
CONTINUOUS
 62
     7
100
AcDbCircle
 10
202.0000000000012
 20
588.7000000000698
 30
0.0
 40
3.000000000000001
100
AcDbArc
 50
0.0
 51
90.00000000000001
  0
LINE
  5
3C9
330
1F
100
AcDbEntity
  8
LAY-10
  6
CONTINUOUS
 62
     7
100
AcDbLine
 10
205.0000000000015
 20
588.7000000000698
 30
0.0
 11
205.0000000000015
 21
583.7000000000698
 31
0.0
  0
ARC
  5
3CA
330
1F
100
AcDbEntity
  8
LAY-10
  6
CONTINUOUS
 62
     7
100
AcDbCircle
 10
202.0000000000012
 20
583.7000000000698
 30
0.0
 40
3.000000000000001
100
AcDbArc
 50
270.0
 51
0.0
  0
ARC
  5
3CB
330
1F
100
AcDbEntity
  8
LAY-10
  6
CONTINUOUS
 62
     7
100
AcDbCircle
 10
202.0000000000012
 20
571.7000000000698
 30
0.0
 40
3.000000000000001
100
AcDbArc
 50
0.0
 51
90.00000000000001
  0
LINE
  5
3CC
330
1F
100
AcDbEntity
  8
LAY-10
  6
CONTINUOUS
 62
     7
100
AcDbLine
 10
205.0000000000015
 20
571.7000000000698
 30
0.0
 11
205.0000000000015
 21
566.7000000000698
 31
0.0
  0
ARC
  5
3CD
330
1F
100
AcDbEntity
  8
LAY-10
  6
CONTINUOUS
 62
     7
100
AcDbCircle
 10
202.0000000000012
 20
566.7000000000698
 30
0.0
 40
3.000000000000001
100
AcDbArc
 50
270.0
 51
0.0
  0
ARC
  5
3CE
330
1F
100
AcDbEntity
  8
LAY-10
  6
CONTINUOUS
 62
     7
100
AcDbCircle
 10
220.2897042113233
 20
486.7000000000698
 30
0.0
 40
3.000000000000001
100
AcDbArc
 50
90.00000000000001
 51
149.8422639664616
  0
ARC
  5
3CF
330
1F
100
AcDbEntity
  8
LAY-10
  6
CONTINUOUS
 62
     7
100
AcDbCircle
 10
203.9393398282217
 20
496.2000000000703
 30
0.0
 40
15.90990257669731
100
AcDbArc
 50
311.5641982018127
 51
329.8422639664616
  0
LINE
  5
3D0
330
1F
100
AcDbEntity
  8
LAY-10
  6
CONTINUOUS
 62
     7
100
AcDbLine
 10
278.5000000000013
 20
489.7000000000698
 30
0.0
 11
220.2897042113233
 21
489.7000000000698
 31
0.0
  0
ARC
  5
3D1
330
1F
100
AcDbEntity
  8
LAY-10
  6
CONTINUOUS
 62
     7
100
AcDbCircle
 10
202.0000000000012
 20
482.0513687523462
 30
0.0
 40
3.000000000000001
100
AcDbArc
 50
0.0
 51
48.43580179818235
  0
LINE
  5
3D2
330
1F
100
AcDbEntity
  8
LAY-10
  6
CONTINUOUS
 62
     7
100
AcDbLine
 10
205.0000000000015
 20
478.2000000000698
 30
0.0
 11
205.0000000000015
 21
482.0513687523462
 31
0.0
  0
ARC
  5
3D3
330
1F
100
AcDbEntity
  8
LAY-10
  6
CONTINUOUS
 62
     7
100
AcDbCircle
 10
216.4852813742405
 20
482.0513687523462
 30
0.0
 40
3.000000000000001
100
AcDbArc
 50
131.5641982018176
 51
180.0
  0
LINE
  5
3D4
330
1F
100
AcDbEntity
  8
LAY-10
  6
CONTINUOUS
 62
     7
100
AcDbLine
 10
213.4852813742403
 20
478.2000000000698
 30
0.0
 11
213.4852813742403
 21
482.0513687523462
 31
0.0
  0
ARC
  5
3D5
330
1F
100
AcDbEntity
  8
LAY-10
  6
CONTINUOUS
 62
     7
100
AcDbCircle
 10
221.2983264190394
 20
503.7000000000698
 30
0.0
 40
3.000000000000001
100
AcDbArc
 50
90.00000000000001
 51
203.3668973031942
  0
LINE
  5
3D6
330
1F
100
AcDbEntity
  8
LAY-10
  6
CONTINUOUS
 62
     7
100
AcDbLine
 10
278.5000000000013
 20
506.7000000000698
 30
0.0
 11
221.2983264190394
 21
506.7000000000698
 31
0.0
  0
ARC
  5
3D7
330
1F
100
AcDbEntity
  8
LAY-10
  6
CONTINUOUS
 62
     7
100
AcDbCircle
 10
278.5000000000013
 20
481.2000000000698
 30
0.0
 40
3.000000000000001
100
AcDbArc
 50
270.0
 51
0.0
  0
LINE
  5
3D8
330
1F
100
AcDbEntity
  8
LAY-10
  6
CONTINUOUS
 62
     7
100
AcDbLine
 10
281.5000000000013
 20
481.2000000000698
 30
0.0
 11
281.5000000000013
 21
486.7000000000698
 31
0.0
  0
LINE
  5
3D9
330
1F
100
AcDbEntity
  8
LAY-10
  6
CONTINUOUS
 62
     7
100
AcDbLine
 10
278.5000000000013
 20
478.2000000000698
 30
0.0
 11
213.4852813742399
 21
478.2000000000698
 31
0.0
  0
ARC
  5
3DA
330
1F
100
AcDbEntity
  8
LAY-10
  6
CONTINUOUS
 62
     7
100
AcDbCircle
 10
278.5000000000013
 20
486.7000000000698
 30
0.0
 40
3.000000000000001
100
AcDbArc
 50
0.0
 51
90.00000000000001
  0
ARC
  5
3DB
330
1F
100
AcDbEntity
  8
LAY-10
  6
CONTINUOUS
 62
     7
100
AcDbCircle
 10
278.5000000000013
 20
498.7000000000698
 30
0.0
 40
3.000000000000001
100
AcDbArc
 50
270.0
 51
0.0
  0
LINE
  5
3DC
330
1F
100
AcDbEntity
  8
LAY-10
  6
CONTINUOUS
 62
     7
100
AcDbLine
 10
281.5000000000013
 20
498.7000000000698
 30
0.0
 11
281.5000000000013
 21
503.7000000000698
 31
0.0
  0
ARC
  5
3DD
330
1F
100
AcDbEntity
  8
LAY-10
  6
CONTINUOUS
 62
     7
100
AcDbCircle
 10
278.5000000000013
 20
503.7000000000698
 30
0.0
 40
3.000000000000001
100
AcDbArc
 50
0.0
 51
90.00000000000001
  0
ARC
  5
3DE
330
1F
100
AcDbEntity
  8
LAY-10
  6
CONTINUOUS
 62
     7
100
AcDbCircle
 10
278.5000000000013
 20
515.7000000000698
 30
0.0
 40
3.000000000000001
100
AcDbArc
 50
270.0
 51
0.0
  0
LINE
  5
3DF
330
1F
100
AcDbEntity
  8
LAY-10
  6
CONTINUOUS
 62
     7
100
AcDbLine
 10
281.5000000000013
 20
515.7000000000698
 30
0.0
 11
281.5000000000013
 21
520.7000000000698
 31
0.0
  0
LINE
  5
3E0
330
1F
100
AcDbEntity
  8
LAY-10
  6
CONTINUOUS
 62
     7
100
AcDbLine
 10
278.5000000000013
 20
512.7000000000703
 30
0.0
 11
216.4852813742399
 21
512.7000000000703
 31
0.0
  0
ARC
  5
3E1
330
1F
100
AcDbEntity
  8
LAY-10
  6
CONTINUOUS
 62
     7
100
AcDbCircle
 10
278.5000000000013
 20
520.7000000000698
 30
0.0
 40
3.000000000000001
100
AcDbArc
 50
0.0
 51
90.00000000000001
  0
LINE
  5
3E2
330
1F
100
AcDbEntity
  8
LAY-10
  6
CONTINUOUS
 62
     7
100
AcDbLine
 10
278.5000000000013
 20
523.7000000000698
 30
0.0
 11
216.4852813742399
 21
523.7000000000698
 31
0.0
  0
ARC
  5
3E3
330
1F
100
AcDbEntity
  8
LAY-10
  6
CONTINUOUS
 62
     7
100
AcDbCircle
 10
278.5000000000013
 20
532.7000000000698
 30
0.0
 40
3.000000000000001
100
AcDbArc
 50
270.0
 51
0.0
  0
LINE
  5
3E4
330
1F
100
AcDbEntity
  8
LAY-10
  6
CONTINUOUS
 62
     7
100
AcDbLine
 10
281.5000000000013
 20
532.7000000000698
 30
0.0
 11
281.5000000000013
 21
537.7000000000698
 31
0.0
  0
LINE
  5
3E5
330
1F
100
AcDbEntity
  8
LAY-10
  6
CONTINUOUS
 62
     7
100
AcDbLine
 10
278.5000000000013
 20
529.7000000000698
 30
0.0
 11
216.4852813742399
 21
529.7000000000698
 31
0.0
  0
ARC
  5
3E6
330
1F
100
AcDbEntity
  8
LAY-10
  6
CONTINUOUS
 62
     7
100
AcDbCircle
 10
278.5000000000013
 20
537.7000000000698
 30
0.0
 40
3.000000000000001
100
AcDbArc
 50
0.0
 51
90.00000000000001
  0
LINE
  5
3E7
330
1F
100
AcDbEntity
  8
LAY-10
  6
CONTINUOUS
 62
     7
100
AcDbLine
 10
278.5000000000013
 20
540.7000000000698
 30
0.0
 11
216.4852813742399
 21
540.7000000000698
 31
0.0
  0
ARC
  5
3E8
330
1F
100
AcDbEntity
  8
LAY-10
  6
CONTINUOUS
 62
     7
100
AcDbCircle
 10
278.5000000000013
 20
554.7000000000698
 30
0.0
 40
3.000000000000001
100
AcDbArc
 50
0.0
 51
90.00000000000001
  0
LINE
  5
3E9
330
1F
100
AcDbEntity
  8
LAY-10
  6
CONTINUOUS
 62
     7
100
AcDbLine
 10
281.5000000000013
 20
549.7000000000698
 30
0.0
 11
281.5000000000013
 21
554.7000000000698
 31
0.0
  0
LINE
  5
3EA
330
1F
100
AcDbEntity
  8
LAY-10
  6
CONTINUOUS
 62
     7
100
AcDbLine
 10
278.5000000000013
 20
557.7000000000698
 30
0.0
 11
216.4852813742399
 21
557.7000000000698
 31
0.0
  0
ARC
  5
3EB
330
1F
100
AcDbEntity
  8
LAY-10
  6
CONTINUOUS
 62
     7
100
AcDbCircle
 10
278.5000000000013
 20
549.7000000000698
 30
0.0
 40
3.000000000000001
100
AcDbArc
 50
270.0
 51
0.0
  0
LINE
  5
3EC
330
1F
100
AcDbEntity
  8
LAY-10
  6
CONTINUOUS
 62
     7
100
AcDbLine
 10
278.5000000000013
 20
546.7000000000698
 30
0.0
 11
216.4852813742399
 21
546.7000000000698
 31
0.0
  0
ARC
  5
3ED
330
1F
100
AcDbEntity
  8
LAY-10
  6
CONTINUOUS
 62
     7
100
AcDbCircle
 10
216.4852813742399
 20
554.7000000000698
 30
0.0
 40
3.000000000000001
100
AcDbArc
 50
90.00000000000001
 51
180.0
  0
LINE
  5
3EE
330
1F
100
AcDbEntity
  8
LAY-10
  6
CONTINUOUS
 62
     7
100
AcDbLine
 10
213.4852813742399
 20
549.7000000000698
 30
0.0
 11
213.4852813742399
 21
554.7000000000698
 31
0.0
  0
ARC
  5
3EF
330
1F
100
AcDbEntity
  8
LAY-10
  6
CONTINUOUS
 62
     7
100
AcDbCircle
 10
216.4852813742399
 20
549.7000000000698
 30
0.0
 40
3.000000000000001
100
AcDbArc
 50
180.0
 51
270.0
  0
ARC
  5
3F0
330
1F
100
AcDbEntity
  8
LAY-10
  6
CONTINUOUS
 62
     7
100
AcDbCircle
 10
216.4852813742399
 20
537.7000000000698
 30
0.0
 40
3.000000000000001
100
AcDbArc
 50
90.00000000000001
 51
180.0
  0
LINE
  5
3F1
330
1F
100
AcDbEntity
  8
LAY-10
  6
CONTINUOUS
 62
     7
100
AcDbLine
 10
213.4852813742399
 20
532.7000000000698
 30
0.0
 11
213.4852813742399
 21
537.7000000000698
 31
0.0
  0
ARC
  5
3F2
330
1F
100
AcDbEntity
  8
LAY-10
  6
CONTINUOUS
 62
     7
100
AcDbCircle
 10
216.4852813742399
 20
532.7000000000698
 30
0.0
 40
3.000000000000001
100
AcDbArc
 50
180.0
 51
270.0
  0
ARC
  5
3F3
330
1F
100
AcDbEntity
  8
LAY-10
  6
CONTINUOUS
 62
     7
100
AcDbCircle
 10
216.4852813742399
 20
520.7000000000698
 30
0.0
 40
3.000000000000001
100
AcDbArc
 50
90.00000000000001
 51
180.0
  0
LINE
  5
3F4
330
1F
100
AcDbEntity
  8
LAY-10
  6
CONTINUOUS
 62
     7
100
AcDbLine
 10
213.4852813742399
 20
515.7000000000698
 30
0.0
 11
213.4852813742399
 21
520.7000000000698
 31
0.0
  0
ARC
  5
3F5
330
1F
100
AcDbEntity
  8
LAY-10
  6
CONTINUOUS
 62
     7
100
AcDbCircle
 10
216.4852813742399
 20
515.7000000000698
 30
0.0
 40
3.000000000000001
100
AcDbArc
 50
180.0
 51
270.0
  0
ARC
  5
3F6
330
1F
100
AcDbEntity
  8
LAY-10
  6
CONTINUOUS
 62
     7
100
AcDbCircle
 10
202.0000000000012
 20
515.7000000000698
 30
0.0
 40
3.000000000000001
100
AcDbArc
 50
270.0
 51
0.0
  0
LINE
  5
3F7
330
1F
100
AcDbEntity
  8
LAY-10
  6
CONTINUOUS
 62
     7
100
AcDbLine
 10
205.0000000000015
 20
515.7000000000698
 30
0.0
 11
205.0000000000015
 21
520.7000000000698
 31
0.0
  0
ARC
  5
3F8
330
1F
100
AcDbEntity
  8
LAY-10
  6
CONTINUOUS
 62
     7
100
AcDbCircle
 10
202.0000000000012
 20
520.7000000000698
 30
0.0
 40
3.000000000000001
100
AcDbArc
 50
0.0
 51
90.00000000000001
  0
ARC
  5
3F9
330
1F
100
AcDbEntity
  8
LAY-10
  6
CONTINUOUS
 62
     7
100
AcDbCircle
 10
202.0000000000012
 20
532.7000000000698
 30
0.0
 40
3.000000000000001
100
AcDbArc
 50
270.0
 51
0.0
  0
LINE
  5
3FA
330
1F
100
AcDbEntity
  8
LAY-10
  6
CONTINUOUS
 62
     7
100
AcDbLine
 10
205.0000000000015
 20
532.7000000000698
 30
0.0
 11
205.0000000000015
 21
537.7000000000698
 31
0.0
  0
ARC
  5
3FB
330
1F
100
AcDbEntity
  8
LAY-10
  6
CONTINUOUS
 62
     7
100
AcDbCircle
 10
202.0000000000012
 20
537.7000000000698
 30
0.0
 40
3.000000000000001
100
AcDbArc
 50
0.0
 51
90.00000000000001
  0
ARC
  5
3FC
330
1F
100
AcDbEntity
  8
LAY-10
  6
CONTINUOUS
 62
     7
100
AcDbCircle
 10
202.0000000000012
 20
549.7000000000698
 30
0.0
 40
3.000000000000001
100
AcDbArc
 50
270.0
 51
0.0
  0
LINE
  5
3FD
330
1F
100
AcDbEntity
  8
LAY-10
  6
CONTINUOUS
 62
     7
100
AcDbLine
 10
205.0000000000015
 20
549.7000000000698
 30
0.0
 11
205.0000000000015
 21
554.7000000000698
 31
0.0
  0
ARC
  5
3FE
330
1F
100
AcDbEntity
  8
LAY-10
  6
CONTINUOUS
 62
     7
100
AcDbCircle
 10
202.0000000000012
 20
554.7000000000698
 30
0.0
 40
3.000000000000001
100
AcDbArc
 50
0.0
 51
90.00000000000001
  0
LINE
  5
3FF
330
1F
100
AcDbEntity
  8
LAY-10
  6
CONTINUOUS
 62
     7
100
AcDbLine
 10
293.5000000000013
 20
469.2000000000698
 30
0.0
 11
293.5000000000013
 21
635.2000000000698
 31
0.0
  0
LINE
  5
400
330
1F
100
AcDbEntity
  8
LAY-10
  6
CONTINUOUS
 62
     7
100
AcDbLine
 10
205.0000000000015
 20
626.2000000000698
 30
0.0
 11
194.5000000000015
 21
626.2000000000698
 31
0.0
  0
LINE
  5
401
330
1F
100
AcDbEntity
  8
LAY-10
  6
CONTINUOUS
 62
     7
100
AcDbLine
 10
194.5000000000015
 20
635.2000000000698
 30
0.0
 11
293.5000000000013
 21
635.2000000000698
 31
0.0
  0
LINE
  5
402
330
1F
100
AcDbEntity
  8
LAY-10
  6
CONTINUOUS
 62
     7
100
AcDbLine
 10
202.0000000000012
 20
557.7000000000698
 30
0.0
 11
194.5000000000015
 21
557.7000000000698
 31
0.0
  0
LINE
  5
403
330
1F
100
AcDbEntity
  8
LAY-10
  6
CONTINUOUS
 62
     7
100
AcDbLine
 10
202.0000000000012
 20
546.7000000000698
 30
0.0
 11
194.5000000000015
 21
546.7000000000698
 31
0.0
  0
LINE
  5
404
330
1F
100
AcDbEntity
  8
LAY-10
  6
CONTINUOUS
 62
     7
100
AcDbLine
 10
202.0000000000012
 20
540.7000000000698
 30
0.0
 11
194.5000000000015
 21
540.7000000000698
 31
0.0
  0
LINE
  5
405
330
1F
100
AcDbEntity
  8
LAY-10
  6
CONTINUOUS
 62
     7
100
AcDbLine
 10
202.0000000000012
 20
529.7000000000698
 30
0.0
 11
194.5000000000015
 21
529.7000000000698
 31
0.0
  0
LINE
  5
406
330
1F
100
AcDbEntity
  8
LAY-10
  6
CONTINUOUS
 62
     7
100
AcDbLine
 10
202.0000000000012
 20
523.7000000000698
 30
0.0
 11
194.5000000000015
 21
523.7000000000698
 31
0.0
  0
LINE
  5
407
330
1F
100
AcDbEntity
  8
LAY-10
  6
CONTINUOUS
 62
     7
100
AcDbLine
 10
202.0000000000012
 20
512.7000000000703
 30
0.0
 11
194.5000000000015
 21
512.7000000000703
 31
0.0
  0
LINE
  5
408
330
1F
100
AcDbEntity
  8
LAY-10
  6
CONTINUOUS
 62
     7
100
AcDbLine
 10
202.0000000000012
 20
563.7000000000698
 30
0.0
 11
194.5000000000015
 21
563.7000000000698
 31
0.0
  0
LINE
  5
409
330
1F
100
AcDbEntity
  8
LAY-10
  6
CONTINUOUS
 62
     7
100
AcDbLine
 10
202.0000000000012
 20
574.7000000000698
 30
0.0
 11
194.5000000000015
 21
574.7000000000698
 31
0.0
  0
LINE
  5
40A
330
1F
100
AcDbEntity
  8
LAY-10
  6
CONTINUOUS
 62
     7
100
AcDbLine
 10
202.0000000000012
 20
580.7000000000698
 30
0.0
 11
194.5000000000015
 21
580.7000000000698
 31
0.0
  0
LINE
  5
40B
330
1F
100
AcDbEntity
  8
LAY-10
  6
CONTINUOUS
 62
     7
100
AcDbLine
 10
202.0000000000012
 20
591.7000000000698
 30
0.0
 11
194.5000000000015
 21
591.7000000000698
 31
0.0
  0
LINE
  5
40C
330
1F
100
AcDbEntity
  8
LAY-10
  6
CONTINUOUS
 62
     7
100
AcDbLine
 10
205.0000000000015
 20
478.2000000000698
 30
0.0
 11
194.5000000000015
 21
478.2000000000698
 31
0.0
  0
LINE
  5
40D
330
1F
100
AcDbEntity
  8
LAY-10
  6
CONTINUOUS
 62
     7
100
AcDbLine
 10
194.5000000000015
 20
469.2000000000698
 30
0.0
 11
293.5000000000013
 21
469.2000000000698
 31
0.0
  0
ARC
  5
40E
330
1F
100
AcDbEntity
  8
LAY-10
  6
CONTINUOUS
 62
     7
100
AcDbCircle
 10
214.5459415460212
 20
496.2000000000703
 30
0.0
 40
15.90990257669731
100
AcDbArc
 50
210.1577360335384
 51
228.4358017981874
  0
ARC
  5
40F
330
1F
100
AcDbEntity
  8
LAY-10
  6
CONTINUOUS
 62
     7
100
AcDbCircle
 10
198.1955771629199
 20
486.7000000000698
 30
0.0
 40
3.000000000000001
100
AcDbArc
 50
30.15773603353845
 51
90.00000000000001
  0
LINE
  5
410
330
1F
100
AcDbEntity
  8
LAY-10
  6
CONTINUOUS
 62
     7
100
AcDbLine
 10
194.5000000000015
 20
489.7000000000698
 30
0.0
 11
198.1955771629199
 21
489.7000000000698
 31
0.0
  0
ARC
  5
411
330
1F
100
AcDbEntity
  8
LAY-10
  6
CONTINUOUS
 62
     7
100
AcDbCircle
 10
197.1869549552037
 20
503.7000000000698
 30
0.0
 40
3.000000000000001
100
AcDbArc
 50
336.6331026968058
 51
90.00000000000001
  0
ARC
  5
412
330
1F
100
AcDbEntity
  8
LAY-10
  6
CONTINUOUS
 62
     7
100
AcDbCircle
 10
214.5459415460212
 20
496.2000000000703
 30
0.0
 40
15.90990257669731
100
AcDbArc
 50
156.6331026968034
 51
172.4029206126217
  0
ARC
  5
413
330
1F
100
AcDbEntity
  8
LAY-10
  6
CONTINUOUS
 62
     7
100
AcDbCircle
 10
195.8020247872383
 20
498.7000000000698
 30
0.0
 40
3.0
100
AcDbArc
 50
270.0
 51
352.402920612622
  0
LINE
  5
414
330
1F
100
AcDbEntity
  8
LAY-10
  6
CONTINUOUS
 62
     7
100
AcDbLine
 10
194.5000000000015
 20
495.7000000000698
 30
0.0
 11
195.8020247872383
 21
495.7000000000698
 31
0.0
  0
LINE
  5
415
330
1F
100
AcDbEntity
  8
LAY-10
  6
CONTINUOUS
 62
     7
100
AcDbLine
 10
194.5000000000015
 20
506.7000000000698
 30
0.0
 11
197.1869549552037
 21
506.7000000000698
 31
0.0
  0
ARC
  5
416
330
1F
100
AcDbEntity
  8
LAY-10
  6
CONTINUOUS
 62
     7
100
AcDbCircle
 10
197.1869549552037
 20
600.7000000000703
 30
0.0
 40
3.000000000000001
100
AcDbArc
 50
270.0
 51
23.36689730319417
  0
ARC
  5
417
330
1F
100
AcDbEntity
  8
LAY-10
  6
CONTINUOUS
 62
     7
100
AcDbCircle
 10
214.5459415460212
 20
608.2000000000698
 30
0.0
 40
15.90990257669731
100
AcDbArc
 50
187.5970793873783
 51
203.3668973031966
  0
ARC
  5
418
330
1F
100
AcDbEntity
  8
LAY-10
  6
CONTINUOUS
 62
     7
100
AcDbCircle
 10
195.8020247872383
 20
605.7000000000703
 30
0.0
 40
3.0
100
AcDbArc
 50
7.597079387378067
 51
90.00000000000001
  0
LINE
  5
419
330
1F
100
AcDbEntity
  8
LAY-10
  6
CONTINUOUS
 62
     7
100
AcDbLine
 10
194.5000000000015
 20
608.7000000000703
 30
0.0
 11
195.8020247872383
 21
608.7000000000703
 31
0.0
  0
LINE
  5
41A
330
1F
100
AcDbEntity
  8
LAY-10
  6
CONTINUOUS
 62
     7
100
AcDbLine
 10
194.5000000000015
 20
597.7000000000703
 30
0.0
 11
197.1869549552037
 21
597.7000000000703
 31
0.0
  0
ARC
  5
41B
330
1F
100
AcDbEntity
  8
LAY-10
  6
CONTINUOUS
 62
     7
100
AcDbCircle
 10
198.1955771629199
 20
617.7000000000703
 30
0.0
 40
3.000000000000001
100
AcDbArc
 50
270.0
 51
329.8422639664616
  0
LINE
  5
41C
330
1F
100
AcDbEntity
  8
LAY-10
  6
CONTINUOUS
 62
     7
100
AcDbLine
 10
194.5000000000015
 20
614.7000000000698
 30
0.0
 11
198.1955771629199
 21
614.7000000000698
 31
0.0
  0
ARC
  5
41D
330
1F
100
AcDbEntity
  8
LAY-10
  6
CONTINUOUS
 62
     7
100
AcDbCircle
 10
214.5459415460201
 20
608.2000000000698
 30
0.0
 40
15.90990257669731
100
AcDbArc
 50
131.5641982018131
 51
149.8422639664499
  0
LINE
  5
41E
330
1F
100
AcDbEntity
  8
LAY-10
  6
CONTINUOUS
 62
     7
100
AcDbLine
 10
278.5000000000013
 20
495.7000000000698
 30
0.0
 11
222.6832565870048
 21
495.7000000000698
 31
0.0
  0
LINE
  5
41F
330
1F
100
AcDbEntity
  8
LAY-10
  6
CONTINUOUS
 62
     7
100
AcDbLine
 10
224.9852813742401
 20
489.7000000000698
 30
0.0
 11
224.9852813742401
 21
495.7000000000698
 31
0.0
  0
LINE
  5
420
330
1F
100
AcDbEntity
  8
LAY-10
  6
CONTINUOUS
 62
     7
100
AcDbLine
 10
224.9852813742401
 20
608.7000000000698
 30
0.0
 11
224.9852813742401
 21
614.7000000000694
 31
0.0
  0
LINE
  5
421
330
1F
100
AcDbEntity
  8
LAY-10
  6
CONTINUOUS
 62
     7
100
AcDbLine
 10
278.5000000000013
 20
608.7000000000698
 30
0.0
 11
222.6832565870046
 21
608.7000000000698
 31
0.0
  0
LINE
  5
422
330
1F
100
AcDbEntity
  8
LAY-10
  6
CONTINUOUS
 62
     7
100
AcDbLine
 10
206.9003877709816
 20
492.2709415886898
 30
0.0
 11
205.4861742086115
 21
492.2709415886898
 31
0.0
  0
ELLIPSE
  5
423
330
1F
100
AcDbEntity
  8
LAY-10
  6
CONTINUOUS
 62
     7
100
AcDbEllipse
 10
206.0165042945015
 20
496.2000000000698
 30
0.0
 11
2.449293598294726E-16
 21
4.000000000000032
 31
0.0
210
0.0
220
0.0
230
1.0
 40
0.7071067811849774
 41
2.952976267413939
 42
3.141592653589793
  0
LINE
  5
424
330
1F
100
AcDbEntity
  8
LAY-10
  6
CONTINUOUS
 62
     7
100
AcDbLine
 10
207.2539411615716
 20
492.7813014172798
 30
0.0
 11
206.9003877709816
 21
492.2709415886898
 31
0.0
  0
LINE
  5
425
330
1F
100
AcDbEntity
  8
LAY-10
  6
CONTINUOUS
 62
     7
100
AcDbLine
 10
208.3146013333516
 20
492.7813014172798
 30
0.0
 11
207.9610479427616
 21
492.2709415886898
 31
0.0
  0
LINE
  5
426
330
1F
100
AcDbEntity
  8
LAY-10
  6
CONTINUOUS
 62
     7
100
AcDbLine
 10
208.3146013333516
 20
499.618698582864
 30
0.0
 11
208.3146013333516
 21
492.7813014172757
 31
0.0
  0
ELLIPSE
  5
427
330
1F
100
AcDbEntity
  8
LAY-10
  6
CONTINUOUS
 62
     7
100
AcDbEllipse
 10
207.7842712474616
 20
496.2000000000698
 30
0.0
 11
-1.339999044624422E-15
 21
3.499999999999974
 31
0.0
210
0.0
220
0.0
230
1.0
 40
0.7071067811857351
 41
3.357553152275039
 42
6.067224808494343
  0
LINE
  5
428
330
1F
100
AcDbEntity
  8
LAY-10
  6
CONTINUOUS
 62
     7
100
AcDbLine
 10
208.3146013333516
 20
499.6186985828599
 30
0.0
 11
207.9610479427616
 21
500.1290584114499
 31
0.0
  0
LINE
  5
429
330
1F
100
AcDbEntity
  8
LAY-10
  6
CONTINUOUS
 62
     7
100
AcDbLine
 10
207.2539411615716
 20
499.618698582864
 30
0.0
 11
207.2539411615716
 21
492.7813014172798
 31
0.0
  0
ELLIPSE
  5
42A
330
1F
100
AcDbEntity
  8
LAY-10
  6
CONTINUOUS
 62
     7
100
AcDbEllipse
 10
207.7842712474616
 20
496.2000000000698
 30
0.0
 11
-1.339999044624422E-15
 21
3.499999999999974
 31
0.0
210
0.0
220
0.0
230
1.0
 40
0.7071067811857351
 41
0.215960498685258
 42
2.925632154904546
  0
ELLIPSE
  5
42B
330
1F
100
AcDbEntity
  8
LAY-10
  6
CONTINUOUS
 62
     7
100
AcDbEllipse
 10
207.4307178568716
 20
496.2000000000698
 30
0.0
 11
-1.531427479570758E-15
 21
3.999999999999943
 31
0.0
210
0.0
220
0.0
230
1.0
 40
0.7071067811875196
 41
0.1886163861693041
 42
2.952976267421043
  0
LINE
  5
42C
330
1F
100
AcDbEntity
  8
LAY-10
  6
CONTINUOUS
 62
     7
100
AcDbLine
 10
206.9003877709816
 20
500.1290584114499
 30
0.0
 11
207.2539411615716
 21
499.6186985828599
 31
0.0
  0
ELLIPSE
  5
42D
330
1F
100
AcDbEntity
  8
LAY-10
  6
CONTINUOUS
 62
     7
100
AcDbEllipse
 10
206.0165042945015
 20
496.2000000000698
 30
0.0
 11
2.449293598294726E-16
 21
4.000000000000031
 31
0.0
210
0.0
220
0.0
230
1.0
 40
0.7071067811849776
 41
0.0
 42
0.1886163861758605
  0
LINE
  5
42E
330
1F
100
AcDbEntity
  8
LAY-10
  6
CONTINUOUS
 62
     7
100
AcDbLine
 10
206.9003877709816
 20
500.1290584114499
 30
0.0
 11
205.4861742086115
 21
500.1290584114499
 31
0.0
  0
ELLIPSE
  5
42F
330
1F
100
AcDbEntity
  8
LAY-10
  6
CONTINUOUS
 62
     7
100
AcDbEllipse
 10
207.4307178568716
 20
496.2000000000698
 30
0.0
 11
-1.531427479570758E-15
 21
3.999999999999943
 31
0.0
210
0.0
220
0.0
230
1.0
 40
0.7071067811875196
 41
3.141592653589793
 42
6.283185307179586
  0
LINE
  5
430
330
1F
100
AcDbEntity
  8
LAY-10
  6
CONTINUOUS
 62
     7
100
AcDbLine
 10
204.7565510758896
 20
500.2000000000708
 30
0.0
 11
207.4307178568716
 21
500.2000000000708
 31
0.0
  0
LINE
  5
431
330
1F
100
AcDbEntity
  8
LAY-10
  6
CONTINUOUS
 62
     7
100
AcDbLine
 10
204.7565510758899
 20
492.2000000000694
 30
0.0
 11
207.4307178568716
 21
492.2000000000694
 31
0.0
  0
ELLIPSE
  5
432
330
1F
100
AcDbEntity
  8
LAY-10
  6
CONTINUOUS
 62
     7
100
AcDbEllipse
 10
209.242640687121
 20
496.2000000000703
 30
0.0
 11
-2.871426524195192E-15
 21
7.499999999999947
 31
0.0
210
0.0
220
0.0
230
1.0
 40
0.7071067811865507
 41
0.0
 42
6.283185307179586
  0
ARC
  5
433
330
1F
100
AcDbEntity
  8
LAY-10
  6
CONTINUOUS
 62
     7
100
AcDbCircle
 10
222.6832565870048
 20
498.7000000000698
 30
0.0
 40
3.0
100
AcDbArc
 50
187.5970793873781
 51
270.0
  0
ARC
  5
434
330
1F
100
AcDbEntity
  8
LAY-10
  6
CONTINUOUS
 62
     7
100
AcDbCircle
 10
203.9393398282217
 20
496.2000000000703
 30
0.0
 40
15.90990257669731
100
AcDbArc
 50
7.597079387377438
 51
23.36689730319664
  0
LINE
  5
435
330
1F
100
AcDbEntity
  8
LAY-10
  6
CONTINUOUS
 62
     7
100
AcDbLine
 10
206.9003877709816
 20
604.2709415886898
 30
0.0
 11
205.4861742086117
 21
604.2709415886898
 31
0.0
  0
ELLIPSE
  5
436
330
1F
100
AcDbEntity
  8
LAY-10
  6
CONTINUOUS
 62
     7
100
AcDbEllipse
 10
206.0165042945017
 20
608.2000000000698
 30
0.0
 11
2.449293598294726E-16
 21
4.000000000000032
 31
0.0
210
0.0
220
0.0
230
1.0
 40
0.7071067811849774
 41
2.952976267413936
 42
3.141592653589793
  0
LINE
  5
437
330
1F
100
AcDbEntity
  8
LAY-10
  6
CONTINUOUS
 62
     7
100
AcDbLine
 10
207.2539411615718
 20
604.7813014172802
 30
0.0
 11
206.9003877709816
 21
604.2709415886902
 31
0.0
  0
LINE
  5
438
330
1F
100
AcDbEntity
  8
LAY-10
  6
CONTINUOUS
 62
     7
100
AcDbLine
 10
208.3146013333518
 20
604.7813014172802
 30
0.0
 11
207.9610479427616
 21
604.2709415886902
 31
0.0
  0
LINE
  5
439
330
1F
100
AcDbEntity
  8
LAY-10
  6
CONTINUOUS
 62
     7
100
AcDbLine
 10
208.3146013333518
 20
611.618698582864
 30
0.0
 11
208.3146013333518
 21
604.7813014172762
 31
0.0
  0
ELLIPSE
  5
43A
330
1F
100
AcDbEntity
  8
LAY-10
  6
CONTINUOUS
 62
     7
100
AcDbEllipse
 10
207.7842712474618
 20
608.2000000000698
 30
0.0
 11
-1.339999044624422E-15
 21
3.499999999999974
 31
0.0
210
0.0
220
0.0
230
1.0
 40
0.7071067811857351
 41
3.357553152275044
 42
6.067224808494343
  0
LINE
  5
43B
330
1F
100
AcDbEntity
  8
LAY-10
  6
CONTINUOUS
 62
     7
100
AcDbLine
 10
208.3146013333518
 20
611.6186985828599
 30
0.0
 11
207.9610479427616
 21
612.1290584114499
 31
0.0
  0
ELLIPSE
  5
43C
330
1F
100
AcDbEntity
  8
LAY-10
  6
CONTINUOUS
 62
     7
100
AcDbEllipse
 10
207.4307178568716
 20
608.2000000000698
 30
0.0
 11
-1.531427479570758E-15
 21
3.999999999999943
 31
0.0
210
0.0
220
0.0
230
1.0
 40
0.7071067811875196
 41
3.141592653589793
 42
6.283185307179586
  0
LINE
  5
43D
330
1F
100
AcDbEntity
  8
LAY-10
  6
CONTINUOUS
 62
     7
100
AcDbLine
 10
207.2539411615718
 20
611.618698582864
 30
0.0
 11
207.2539411615718
 21
604.7813014172802
 31
0.0
  0
ELLIPSE
  5
43E
330
1F
100
AcDbEntity
  8
LAY-10
  6
CONTINUOUS
 62
     7
100
AcDbEllipse
 10
207.7842712474618
 20
608.2000000000698
 30
0.0
 11
-1.339999044624422E-15
 21
3.499999999999974
 31
0.0
210
0.0
220
0.0
230
1.0
 40
0.7071067811857351
 41
0.2159604986852511
 42
2.925632154904545
  0
ELLIPSE
  5
43F
330
1F
100
AcDbEntity
  8
LAY-10
  6
CONTINUOUS
 62
     7
100
AcDbEllipse
 10
207.4307178568716
 20
608.2000000000698
 30
0.0
 11
-1.531427479570758E-15
 21
3.999999999999943
 31
0.0
210
0.0
220
0.0
230
1.0
 40
0.7071067811875196
 41
0.1886163861693041
 42
2.95297626742104
  0
LINE
  5
440
330
1F
100
AcDbEntity
  8
LAY-10
  6
CONTINUOUS
 62
     7
100
AcDbLine
 10
206.9003877709816
 20
612.1290584114499
 30
0.0
 11
207.2539411615718
 21
611.6186985828599
 31
0.0
  0
ELLIPSE
  5
441
330
1F
100
AcDbEntity
  8
LAY-10
  6
CONTINUOUS
 62
     7
100
AcDbEllipse
 10
206.0165042945017
 20
608.2000000000698
 30
0.0
 11
2.449293598294726E-16
 21
4.000000000000031
 31
0.0
210
0.0
220
0.0
230
1.0
 40
0.7071067811849776
 41
0.0
 42
0.1886163861758605
  0
LINE
  5
442
330
1F
100
AcDbEntity
  8
LAY-10
  6
CONTINUOUS
 62
     7
100
AcDbLine
 10
206.9003877709816
 20
612.1290584114499
 30
0.0
 11
205.4861742086117
 21
612.1290584114499
 31
0.0
  0
LINE
  5
443
330
1F
100
AcDbEntity
  8
LAY-10
  6
CONTINUOUS
 62
     7
100
AcDbLine
 10
204.7565510758899
 20
612.2000000000708
 30
0.0
 11
207.4307178568716
 21
612.2000000000708
 31
0.0
  0
LINE
  5
444
330
1F
100
AcDbEntity
  8
LAY-10
  6
CONTINUOUS
 62
     7
100
AcDbLine
 10
204.7565510758896
 20
604.2000000000694
 30
0.0
 11
207.4307178568716
 21
604.2000000000694
 31
0.0
  0
ELLIPSE
  5
445
330
1F
100
AcDbEntity
  8
LAY-10
  6
CONTINUOUS
 62
     7
100
AcDbEllipse
 10
209.242640687121
 20
608.2000000000698
 30
0.0
 11
-1.377727649040763E-15
 21
-7.499999999999947
 31
0.0
210
0.0
220
0.0
230
1.0
 40
0.7071067811865507
 41
0.0
 42
6.283185307179586
  0
ARC
  5
446
330
1F
100
AcDbEntity
  8
LAY-10
  6
CONTINUOUS
 62
     7
100
AcDbCircle
 10
222.6832565870046
 20
605.7000000000698
 30
0.0
 40
3.0
100
AcDbArc
 50
90.00000000000001
 51
172.4029206126219
  0
ARC
  5
447
330
1F
100
AcDbEntity
  8
LAY-10
  6
CONTINUOUS
 62
     7
100
AcDbCircle
 10
203.9393398282217
 20
608.2000000000698
 30
0.0
 40
15.90990257669731
100
AcDbArc
 50
336.6331026968025
 51
352.4029206126862
  0
LINE
  5
448
330
1F
100
AcDbEntity
  8
LAY-10
  6
CONTINUOUS
 62
     7
100
AcDbLine
 10
117.5000000000017
 20
622.20000000007
 30
0.0
 11
117.5000000000017
 21
482.2000000000698
 31
0.0
  0
LINE
  5
449
330
1F
100
AcDbEntity
  8
LAY-10
  6
CONTINUOUS
 62
     7
100
AcDbLine
 10
117.5000000000017
 20
622.20000000007
 30
0.0
 11
162.4999999998905
 21
622.20000000007
 31
0.0
  0
LINE
  5
44A
330
1F
100
AcDbEntity
  8
LAY-10
  6
CONTINUOUS
 62
     7
100
AcDbLine
 10
162.4999999998905
 20
482.2000000000698
 30
0.0
 11
117.5000000000016
 21
482.2000000000698
 31
0.0
  0
TEXT
  5
44B
330
1F
100
AcDbEntity
  8
LAY-10
  6
CONTINUOUS
 62
     7
100
AcDbText
 10
626.9999999999782
 20
165.7457904871842
 30
0.0
 40
4.6771656
  1
ＦＵＫＵＮＩＳＨＩ
 41
1.678481012658228
  7
EXCADSTD
100
AcDbText
  0
TEXT
  5
44C
330
1F
100
AcDbEntity
  8
LAY-10
  6
CONTINUOUS
 62
     7
100
AcDbText
 10
211.4394908871206
 20
511.7000000000698
 30
0.0
 40
4.6771656
  1
ＦＵＫＵＮＩＳＨＩ
 50
90.00000000000001
 41
1.678481012658228
  7
EXCADSTD
100
AcDbText
  0
LINE
  5
44D
330
1F
100
AcDbEntity
  8
LAY-10
  6
CENTER
 62
     2
100
AcDbLine
 10
324.0000000000301
 20
103.6999999999951
 30
0.0
 11
312.0000000000301
 21
103.6999999999951
 31
0.0
  0
ARC
  5
44E
330
1F
100
AcDbEntity
  8
LAY-10
  6
CENTER
 62
     2
100
AcDbCircle
 10
312.0000000000301
 20
108.1999999999951
 30
0.0
 40
4.5
100
AcDbArc
 50
180.0
 51
270.0
  0
LINE
  5
44F
330
1F
100
AcDbEntity
  8
LAY-10
  6
CENTER
 62
     2
100
AcDbLine
 10
307.5000000000274
 20
135.1433756730397
 30
0.0
 11
307.5000000000274
 21
108.1999999999996
 31
0.0
  0
LINE
  5
450
330
1F
100
AcDbEntity
  8
LAY-10
  6
CENTER
 62
     2
100
AcDbLine
 10
145.0000000000283
 20
282.6999999999779
 30
0.0
 11
145.0000000000283
 21
270.6999999999779
 31
0.0
  0
ARC
  5
451
330
1F
100
AcDbEntity
  8
LAY-10
  6
CENTER
 62
     2
100
AcDbCircle
 10
149.5000000000283
 20
270.6999999999779
 30
0.0
 40
4.5
100
AcDbArc
 50
180.0
 51
270.0
  0
LINE
  5
452
330
1F
100
AcDbEntity
  8
LAY-10
  6
CENTER
 62
     2
100
AcDbLine
 10
176.4433756730724
 20
266.1999999999748
 30
0.0
 11
149.5000000000329
 21
266.1999999999748
 31
0.0
  0
LINE
  5
453
330
1F
100
AcDbEntity
  8
LAY-10
  6
CENTER
 62
     2
100
AcDbLine
 10
174.5000000000119
 20
235.1999999998715
 30
0.0
 11
196.5000000000119
 21
235.1999999998715
 31
0.0
  0
LINE
  5
454
330
1F
100
AcDbEntity
  8
LAY-10
  6
CENTER
 62
     2
100
AcDbLine
 10
210.6568542494998
 20
169.3568542494954
 30
0.0
 11
167.818082656161
 21
126.5180826561544
 31
0.0
  0
LINE
  5
455
330
1F
100
AcDbEntity
  8
LAY-10
  6
CENTER
 62
     2
100
AcDbLine
 10
167.5000000000119
 20
173.6999999999894
 30
0.0
 11
115.5000000000115
 21
173.6999999999894
 31
0.0
  0
LINE
  5
456
330
1F
100
AcDbEntity
  8
LAY-10
  6
CENTER
 62
     2
100
AcDbLine
 10
115.5004146038403
 20
172.641029002435
 30
0.0
 11
167.5000000000119
 21
173.6999999999888
 31
0.0
  0
LINE
  5
457
330
1F
100
AcDbEntity
  8
LAY-10
  6
CENTER
 62
     2
100
AcDbLine
 10
742.5
 20
173.6999999999894
 30
0.0
 11
592.5000000000002
 21
173.6999999999894
 31
0.0
  0
LINE
  5
458
330
1F
100
AcDbEntity
  8
LAY-10
  6
CENTER
 62
     2
100
AcDbLine
 10
667.5
 20
301.1999999999898
 30
0.0
 11
667.5
 21
98.6999999999894
 31
0.0
  0
LINE
  5
459
330
1F
100
AcDbEntity
  8
LAY-10
  6
CENTER
 62
     2
100
AcDbLine
 10
566.9999999999202
 20
103.7000000000374
 30
0.0
 11
557.9999999999202
 21
103.7000000000374
 31
0.0
  0
LINE
  5
45A
330
1F
100
AcDbEntity
  8
LAY-10
  6
CENTER
 62
     2
100
AcDbLine
 10
562.4999999999193
 20
135.1433756730397
 30
0.0
 11
562.4999999999193
 21
99.20000000003967
 31
0.0
  0
LINE
  5
45B
330
1F
100
AcDbEntity
  8
LAY-10
  6
CENTER
 62
     2
100
AcDbLine
 10
777.00000000008
 20
103.7000000000374
 30
0.0
 11
768.00000000008
 21
103.7000000000374
 31
0.0
  0
LINE
  5
45C
330
1F
100
AcDbEntity
  8
LAY-10
  6
CENTER
 62
     2
100
AcDbLine
 10
772.5000000000791
 20
135.1433756730397
 30
0.0
 11
772.5000000000791
 21
99.20000000003967
 31
0.0
  0
LINE
  5
45D
330
1F
100
AcDbEntity
  8
LAY-10
  6
CENTER
 62
     2
100
AcDbLine
 10
595.9999999999784
 20
244.200000000073
 30
0.0
 11
595.9999999999784
 21
226.200000000073
 31
0.0
  0
LINE
  5
45E
330
1F
100
AcDbEntity
  8
LAY-10
  6
CENTER
 62
     2
100
AcDbLine
 10
604.9999999999939
 20
235.2000000000648
 30
0.0
 11
586.9999999999939
 21
235.2000000000648
 31
0.0
  0
LINE
  5
45F
330
1F
100
AcDbEntity
  8
LAY-10
  6
CENTER
 62
     2
100
AcDbLine
 10
730.0000000000064
 20
235.2000000000648
 30
0.0
 11
748.0000000000064
 21
235.2000000000648
 31
0.0
  0
LINE
  5
460
330
1F
100
AcDbEntity
  8
LAY-10
  6
CENTER
 62
     2
100
AcDbLine
 10
739.0000000000218
 20
244.200000000073
 30
0.0
 11
739.0000000000218
 21
226.200000000073
 31
0.0
  0
LINE
  5
461
330
1F
100
AcDbEntity
  8
LAY-10
  6
CENTER
 62
     2
100
AcDbLine
 10
742.5
 20
173.6999999999894
 30
0.0
 11
592.5000000000002
 21
173.6999999999894
 31
0.0
  0
LINE
  5
462
330
1F
100
AcDbEntity
  8
LAY-10
  6
CENTER
 62
     2
100
AcDbLine
 10
145.0000000000575
 20
652.700000000129
 30
0.0
 11
145.0000000000575
 21
661.700000000129
 31
0.0
  0
LINE
  5
463
330
1F
100
AcDbEntity
  8
LAY-10
  6
CENTER
 62
     2
100
AcDbLine
 10
176.4433756730597
 20
657.200000000129
 30
0.0
 11
140.5000000000597
 21
657.200000000129
 31
0.0
  0
LINE
  5
464
330
1F
100
AcDbEntity
  8
LAY-10
  6
CENTER
 62
     2
100
AcDbLine
 10
145.0000000000575
 20
442.6999999999488
 30
0.0
 11
145.0000000000575
 21
451.6999999999488
 31
0.0
  0
LINE
  5
465
330
1F
100
AcDbEntity
  8
LAY-10
  6
CENTER
 62
     2
100
AcDbLine
 10
176.4433756730597
 20
447.1999999999488
 30
0.0
 11
140.5000000000597
 21
447.1999999999488
 31
0.0
  0
LINE
  5
466
330
1F
100
AcDbEntity
  8
LAY-10
  6
CENTER
 62
     2
100
AcDbLine
 10
342.5000000000019
 20
552.2000000000698
 30
0.0
 11
114.6
 21
552.2000000000698
 31
0.0
  0
CIRCLE
  5
467
330
1F
100
AcDbEntity
  8
LAY-10
  6
HIDDEN
 62
     7
100
AcDbCircle
 10
667.5
 20
173.6999999999894
 30
0.0
 40
52.49999999998998
  0
ARC
  5
468
330
1F
100
AcDbEntity
  8
LAY-10
  6
HIDDEN
 62
     7
100
AcDbCircle
 10
667.5
 20
173.6072334280091
 30
0.0
 40
63.50410256729078
100
AcDbArc
 50
359.3487212122017
 51
180.6512787877984
  0
ARC
  5
469
330
1F
100
AcDbEntity
  8
LAY-10
  6
HIDDEN
 62
     7
100
AcDbCircle
 10
667.5
 20
172.8985654662898
 30
0.0
 40
63.50000136471006
100
AcDbArc
 50
180.0118787559778
 51
359.9881212440221
  0
LINE
  5
46A
330
1F
100
AcDbEntity
  8
LAY-10
  6
CONTINUOUS
 62
     7
100
AcDbLine
 10
149.6926416860723
 20
229.1197603942122
 30
0.0
 11
126.349616633512
 21
229.3736878718795
 31
0.0
  0
LINE
  5
46B
330
1F
100
AcDbEntity
  8
LAY-10
  6
CONTINUOUS
 62
     7
100
AcDbLine
 10
151.9637160370042
 20
117.6011966893557
 30
0.0
 11
128.650383366425
 21
116.3971129882516
 31
0.0
  0
LINE
  5
46C
330
1F
100
AcDbEntity
  8
LAY-10
  6
CONTINUOUS
 62
     7
100
AcDbLine
 10
305.0000000000119
 20
122.3339745961947
 30
0.0
 11
304.5000000000119
 21
123.1999999999792
 31
0.0
  0
LINE
  5
46D
330
1F
100
AcDbEntity
  8
LAY-10
  6
CONTINUOUS
 62
     7
100
AcDbLine
 10
310.0000000000429
 20
122.3339745961981
 30
0.0
 11
310.5000000000429
 21
123.1999999999826
 31
0.0
  0
LINE
  5
46E
330
1F
100
AcDbEntity
  8
LAY-10
  6
CONTINUOUS
 62
     7
100
AcDbLine
 10
163.6339745962279
 20
263.6999999999602
 30
0.0
 11
164.5000000000119
 21
263.1999999999602
 31
0.0
  0
LINE
  5
46F
330
1F
100
AcDbEntity
  8
LAY-10
  6
CONTINUOUS
 62
     7
100
AcDbLine
 10
163.6339745962306
 20
268.6999999999902
 30
0.0
 11
164.5000000000156
 21
269.1999999999902
 31
0.0
  0
LINE
  5
470
330
1F
100
AcDbEntity
  8
LAY-10
  6
CONTINUOUS
 62
     7
100
AcDbLine
 10
184.5000000000065
 20
232.6999999998097
 30
0.0
 11
186.2000000000072
 21
232.6999999998097
 31
0.0
  0
LINE
  5
471
330
1F
100
AcDbEntity
  8
LAY-10
  6
CONTINUOUS
 62
     7
100
AcDbLine
 10
184.5000000000065
 20
237.6999999998083
 30
0.0
 11
186.2000000000072
 21
237.6999999998083
 31
0.0
  0
LINE
  5
472
330
1F
100
AcDbEntity
  8
LAY-10
  6
CONTINUOUS
 62
     7
100
AcDbLine
 10
180.0753787971772
 20
143.7251262661048
 30
0.0
 11
177.0251262655421
 21
140.6748737344683
 31
0.0
  0
LINE
  5
473
330
1F
100
AcDbEntity
  8
LAY-10
  6
CONTINUOUS
 62
     7
100
AcDbLine
 10
185.0251262661551
 20
138.7753787971276
 30
0.0
 11
181.97487373452
 21
135.7251262654914
 31
0.0
  0
LINE
  5
474
330
1F
100
AcDbEntity
  8
LAY-10
  6
CONTINUOUS
 62
     7
100
AcDbLine
 10
189.1263455964901
 20
152.7760930651744
 30
0.0
 11
202.5251262660169
 21
166.1748737343447
 31
0.0
  0
LINE
  5
475
330
1F
100
AcDbEntity
  8
LAY-10
  6
CONTINUOUS
 62
     7
100
AcDbLine
 10
194.0760930647913
 20
147.826345596873
 30
0.0
 11
207.4748737342526
 21
161.2251262659775
 31
0.0
  0
LINE
  5
476
330
1F
100
AcDbEntity
  8
LAY-10
  6
CONTINUOUS
 62
     7
100
AcDbLine
 10
564.9999999999302
 20
122.3339745961981
 30
0.0
 11
565.4999999999311
 21
123.1999999999826
 31
0.0
  0
LINE
  5
477
330
1F
100
AcDbEntity
  8
LAY-10
  6
CONTINUOUS
 62
     7
100
AcDbLine
 10
559.9999999999002
 20
122.3339745961947
 30
0.0
 11
559.4999999999002
 21
123.1999999999792
 31
0.0
  0
LINE
  5
478
330
1F
100
AcDbEntity
  8
LAY-10
  6
CONTINUOUS
 62
     7
100
AcDbLine
 10
775.00000000009
 20
122.3339745961981
 30
0.0
 11
775.500000000091
 21
123.1999999999826
 31
0.0
  0
LINE
  5
479
330
1F
100
AcDbEntity
  8
LAY-10
  6
CONTINUOUS
 62
     7
100
AcDbLine
 10
770.0000000000599
 20
122.3339745961947
 30
0.0
 11
769.50000000006
 21
123.1999999999792
 31
0.0
  0
LINE
  5
47A
330
1F
100
AcDbEntity
  8
LAY-10
  6
CONTINUOUS
 62
     7
100
AcDbLine
 10
614.9999999999957
 20
164.7614114631152
 30
0.0
 11
614.9999999999957
 21
163.2522249273673
 31
0.0
  0
LINE
  5
47B
330
1F
100
AcDbEntity
  8
LAY-10
  6
CONTINUOUS
 62
     7
100
AcDbLine
 10
608.000000000002
 20
164.7614114631268
 30
0.0
 11
608.000000000002
 21
163.2522249273518
 31
0.0
  0
LINE
  5
47C
330
1F
100
AcDbEntity
  8
LAY-10
  6
CONTINUOUS
 62
     7
100
AcDbLine
 10
726.9999999999955
 20
164.7614114631152
 30
0.0
 11
726.9999999999955
 21
163.2522249273675
 31
0.0
  0
LINE
  5
47D
330
1F
100
AcDbEntity
  8
LAY-10
  6
CONTINUOUS
 62
     7
100
AcDbLine
 10
720.0000000000018
 20
164.7614114631268
 30
0.0
 11
720.0000000000018
 21
163.2522249273518
 31
0.0
  0
LINE
  5
47E
330
1F
100
AcDbEntity
  8
LAY-10
  6
CONTINUOUS
 62
     7
100
AcDbLine
 10
163.6339745962181
 20
654.700000000118
 30
0.0
 11
164.5000000000026
 21
654.200000000118
 31
0.0
  0
LINE
  5
47F
330
1F
100
AcDbEntity
  8
LAY-10
  6
CONTINUOUS
 62
     7
100
AcDbLine
 10
163.6339745962147
 20
659.7000000001485
 30
0.0
 11
164.4999999999992
 21
660.2000000001481
 31
0.0
  0
LINE
  5
480
330
1F
100
AcDbEntity
  8
LAY-10
  6
CONTINUOUS
 62
     7
100
AcDbLine
 10
163.6339745962181
 20
444.699999999938
 30
0.0
 11
164.5000000000026
 21
444.1999999999379
 31
0.0
  0
LINE
  5
481
330
1F
100
AcDbEntity
  8
LAY-10
  6
CONTINUOUS
 62
     7
100
AcDbLine
 10
163.6339745962147
 20
449.6999999999684
 30
0.0
 11
164.4999999999992
 21
450.1999999999679
 31
0.0
  0
LINE
  5
482
330
1F
100
AcDbEntity
  8
LAY-10
  6
CONTINUOUS
 62
     7
100
AcDbLine
 10
206.0614114631084
 20
499.7000000000712
 30
0.0
 11
204.5522249272979
 21
499.7000000000712
 31
0.0
  0
LINE
  5
483
330
1F
100
AcDbEntity
  8
LAY-10
  6
CONTINUOUS
 62
     7
100
AcDbLine
 10
206.0614114631086
 20
492.7000000000684
 30
0.0
 11
204.5522249272984
 21
492.7000000000684
 31
0.0
  0
LINE
  5
484
330
1F
100
AcDbEntity
  8
LAY-10
  6
CONTINUOUS
 62
     7
100
AcDbLine
 10
206.0614114631086
 20
611.7000000000712
 30
0.0
 11
204.5522249272979
 21
611.7000000000712
 31
0.0
  0
LINE
  5
485
330
1F
100
AcDbEntity
  8
LAY-10
  6
CONTINUOUS
 62
     7
100
AcDbLine
 10
206.0614114631086
 20
604.7000000000689
 30
0.0
 11
204.5522249272979
 21
604.7000000000689
 31
0.0
  0
DIMENSION
  5
487
330
1F
100
AcDbEntity
  8
LAY-20
  6
CONTINUOUS
 62
     4
100
AcDbDimension
  2
*D15
 10
337.5000000000018
 20
347.2
 30
0.0
 11
257.5000000000068
 21
354.7
 31
0.0
 70
   160
  1
160
  3
ISO-25
100
AcDbAlignedDimension
 13
177.5000000000117
 23
296.2
 33
0.0
 14
337.5000000000018
 24
136.1999999999898
 34
0.0
100
AcDbRotatedDimension
1001
ACAD
1000
DSTYLE
1002
{
1070
   270
1070
     2
1070
     6
1000
EX_BNORM
1070
     7
1000
EX_BNORM
1070
    41
1040
7.5
1070
    42
1040
4.5
1070
    44
1040
4.5
1070
    73
1070
     0
1070
    74
1070
     0
1070
    75
1070
     0
1070
    76
1070
     0
1070
    77
1070
     1
1070
    78
1070
     8
1070
   140
1040
9.3543312
1070
   147
1040
0.0
1070
   173
1070
     1
1070
   176
1070
     4
1070
   177
1070
     4
1070
   178
1070
     7
1070
   271
1070
     1
1070
   277
1070
     2
1070
   279
1070
     2
1070
   280
1070
     0
1070
   287
1070
     5
1070
   340
1005
486
1002
}
  0
DIMENSION
  5
495
330
1F
100
AcDbEntity
  8
LAY-20
  6
CONTINUOUS
 62
     4
100
AcDbDimension
  2
*D16
 10
177.5000000000117
 20
347.2
 30
0.0
 11
147.5000000000118
 21
354.7
 31
0.0
 70
   160
  1
60以上
  3
ISO-25
100
AcDbAlignedDimension
 13
117.5000000000117
 23
243.8018249461999
 33
0.0
 14
177.5000000000117
 24
380.1999999999999
 34
0.0
100
AcDbRotatedDimension
1001
ACAD
1000
DSTYLE
1002
{
1070
   270
1070
     2
1070
     6
1000
EX_BNORM
1070
     7
1000
EX_BNORM
1070
    41
1040
7.5
1070
    42
1040
4.5
1070
    44
1040
4.5
1070
    73
1070
     0
1070
    74
1070
     0
1070
    75
1070
     0
1070
    76
1070
     1
1070
    77
1070
     1
1070
    78
1070
     8
1070
   140
1040
9.3543312
1070
   147
1040
0.0
1070
   173
1070
     1
1070
   176
1070
     4
1070
   177
1070
     4
1070
   178
1070
     7
1070
   271
1070
     1
1070
   277
1070
     2
1070
   279
1070
     2
1070
   280
1070
     0
1070
   287
1070
     5
1070
   340
1005
486
1002
}
  0
DIMENSION
  5
4A1
330
1F
100
AcDbEntity
  8
LAY-20
  6
CONTINUOUS
 62
     4
100
AcDbDimension
  2
*D17
 10
293.5000000000118
 20
326.2
 30
0.0
 11
244.0000000000117
 21
333.7
 31
0.0
 70
   160
  3
ISO-25
100
AcDbAlignedDimension
 13
194.5000000000117
 23
261.2
 33
0.0
 14
293.5000000000118
 24
152.1999999999898
 34
0.0
100
AcDbRotatedDimension
1001
ACAD
1000
DSTYLE
1002
{
1070
   270
1070
     2
1070
     6
1000
EX_BNORM
1070
     7
1000
EX_BNORM
1070
    41
1040
7.5
1070
    42
1040
4.5
1070
    44
1040
4.5
1070
    73
1070
     0
1070
    74
1070
     0
1070
    75
1070
     0
1070
    76
1070
     0
1070
    77
1070
     1
1070
    78
1070
     8
1070
   140
1040
9.3543312
1070
   147
1040
0.0
1070
   173
1070
     1
1070
   176
1070
     4
1070
   177
1070
     4
1070
   178
1070
     7
1070
   271
1070
     1
1070
   277
1070
     2
1070
   279
1070
     2
1070
   280
1070
     0
1070
   287
1070
     5
1070
   340
1005
486
1002
}
  0
DIMENSION
  5
4AE
330
1F
100
AcDbEntity
  8
LAY-20
  6
CONTINUOUS
 62
     4
100
AcDbDimension
  2
*D18
 10
409.5
 20
136.1999999999898
 30
0.0
 11
402.0
 21
216.1999999999948
 31
0.0
 70
   160
  3
ISO-25
100
AcDbAlignedDimension
 13
177.5000000000117
 23
296.2
 33
0.0
 14
337.5000000000018
 24
136.1999999999898
 34
0.0
 50
90.0
100
AcDbRotatedDimension
1001
ACAD
1000
DSTYLE
1002
{
1070
   270
1070
     2
1070
     6
1000
EX_BNORM
1070
     7
1000
EX_BNORM
1070
    41
1040
7.5
1070
    42
1040
4.5
1070
    44
1040
4.5
1070
    73
1070
     0
1070
    74
1070
     0
1070
    75
1070
     0
1070
    76
1070
     0
1070
    77
1070
     1
1070
    78
1070
     8
1070
   140
1040
9.3543312
1070
   147
1040
0.0
1070
   173
1070
     1
1070
   176
1070
     4
1070
   177
1070
     4
1070
   178
1070
     7
1070
   271
1070
     1
1070
   277
1070
     2
1070
   279
1070
     2
1070
   280
1070
     0
1070
   287
1070
     5
1070
   340
1005
486
1002
}
  0
DIMENSION
  5
4BB
330
1F
100
AcDbEntity
  8
LAY-20
  6
CONTINUOUS
 62
     4
100
AcDbDimension
  2
*D19
 10
388.5
 20
252.2
 30
0.0
 11
381.0
 21
202.6999999999948
 31
0.0
 70
   160
  3
ISO-25
100
AcDbAlignedDimension
 13
302.5000000000118
 23
153.1999999999898
 33
0.0
 14
193.5000000000117
 24
252.2
 34
0.0
 50
90.0
100
AcDbRotatedDimension
1001
ACAD
1000
DSTYLE
1002
{
1070
   270
1070
     2
1070
     6
1000
EX_BNORM
1070
     7
1000
EX_BNORM
1070
    41
1040
7.5
1070
    42
1040
4.5
1070
    44
1040
4.5
1070
    73
1070
     0
1070
    74
1070
     0
1070
    75
1070
     0
1070
    76
1070
     0
1070
    77
1070
     1
1070
    78
1070
     8
1070
   140
1040
9.3543312
1070
   147
1040
0.0
1070
   173
1070
     1
1070
   176
1070
     4
1070
   177
1070
     4
1070
   178
1070
     7
1070
   271
1070
     1
1070
   277
1070
     2
1070
   279
1070
     2
1070
   280
1070
     0
1070
   287
1070
     5
1070
   340
1005
486
1002
}
  0
DIMENSION
  5
4C8
330
1F
100
AcDbEntity
  8
LAY-20
  6
CONTINUOUS
 62
     4
100
AcDbDimension
  2
*D20
 10
802.5000000000795
 20
347.19999999999
 30
0.0
 11
667.4999999999897
 21
354.69999999999
 31
0.0
 70
   160
  3
ISO-25
100
AcDbAlignedDimension
 13
532.4999999998997
 23
286.1999999999999
 33
0.0
 14
802.5000000000795
 24
286.1999999999999
 34
0.0
100
AcDbRotatedDimension
1001
ACAD
1000
DSTYLE
1002
{
1070
   270
1070
     2
1070
     6
1000
EX_BNORM
1070
     7
1000
EX_BNORM
1070
    41
1040
7.5
1070
    42
1040
4.5
1070
    44
1040
4.5
1070
    73
1070
     0
1070
    74
1070
     0
1070
    75
1070
     0
1070
    76
1070
     0
1070
    77
1070
     1
1070
    78
1070
     8
1070
   140
1040
9.3543312
1070
   147
1040
0.0
1070
   173
1070
     1
1070
   176
1070
     4
1070
   177
1070
     4
1070
   178
1070
     7
1070
   271
1070
     1
1070
   277
1070
     2
1070
   279
1070
     2
1070
   280
1070
     0
1070
   287
1070
     5
1070
   340
1005
486
1002
}
  0
DIMENSION
  5
4D5
330
1F
100
AcDbEntity
  8
LAY-20
  6
CONTINUOUS
 62
     4
100
AcDbDimension
  2
*D21
 10
584.4999999999784
 20
326.19999999999
 30
0.0
 11
667.4999999999783
 21
333.6999999999899
 31
0.0
 70
   160
  3
ISO-25
100
AcDbAlignedDimension
 13
750.4999999999782
 23
252.2000000000648
 33
0.0
 14
584.4999999999784
 24
252.2000000000648
 34
0.0
100
AcDbRotatedDimension
1001
ACAD
1000
DSTYLE
1002
{
1070
   270
1070
     2
1070
     6
1000
EX_BNORM
1070
     7
1000
EX_BNORM
1070
    41
1040
7.5
1070
    42
1040
4.5
1070
    44
1040
4.5
1070
    73
1070
     0
1070
    74
1070
     0
1070
    75
1070
     0
1070
    76
1070
     0
1070
    77
1070
     1
1070
    78
1070
     8
1070
   140
1040
9.3543312
1070
   147
1040
0.0
1070
   173
1070
     1
1070
   176
1070
     4
1070
   177
1070
     4
1070
   178
1070
     7
1070
   271
1070
     1
1070
   277
1070
     2
1070
   279
1070
     2
1070
   280
1070
     0
1070
   287
1070
     5
1070
   340
1005
486
1002
}
  0
DIMENSION
  5
4E2
330
1F
100
AcDbEntity
  8
LAY-20
  6
CONTINUOUS
 62
     4
100
AcDbDimension
  2
*D22
 10
177.5000000000119
 20
326.2
 30
0.0
 11
156.000000000012
 21
333.7
 31
0.0
 70
   160
  3
ISO-25
100
AcDbAlignedDimension
 13
169.500000000012
 23
295.1999999999999
 33
0.0
 14
177.5000000000119
 24
338.1999999999999
 34
0.0
100
AcDbRotatedDimension
1001
ACAD
1000
DSTYLE
1002
{
1070
   270
1070
     2
1070
     6
1000
EX_BNORM
1070
     7
1000
EX_BCIR
1070
    41
1040
7.5
1070
    42
1040
4.5
1070
    44
1040
4.5
1070
    73
1070
     0
1070
    74
1070
     0
1070
    75
1070
     0
1070
    76
1070
     1
1070
    77
1070
     1
1070
    78
1070
     8
1070
   140
1040
9.3543312
1070
   147
1040
0.0
1070
   173
1070
     1
1070
   176
1070
     4
1070
   177
1070
     4
1070
   178
1070
     7
1070
   271
1070
     1
1070
   277
1070
     2
1070
   279
1070
     2
1070
   280
1070
     1
1070
   287
1070
     5
1070
   340
1005
486
1002
}
  0
DIMENSION
  5
4F0
330
1F
100
AcDbEntity
  8
LAY-20
  6
CONTINUOUS
 62
     4
100
AcDbDimension
  2
*D23
 10
388.5
 20
136.1999999999898
 30
0.0
 11
379.5000000000002
 21
109.9600000000901
 31
0.0
 70
   160
  3
ISO-25
100
AcDbAlignedDimension
 13
336.5000000000018
 23
128.2000000000899
 33
0.0
 14
421.5000000000017
 24
136.1999999999898
 34
0.0
 50
90.0
100
AcDbRotatedDimension
1001
ACAD
1000
DSTYLE
1002
{
1070
   270
1070
     2
1070
     6
1000
EX_BNORM
1070
     7
1000
EX_BCIR
1070
    41
1040
7.5
1070
    42
1040
4.5
1070
    44
1040
4.5
1070
    73
1070
     0
1070
    74
1070
     0
1070
    75
1070
     0
1070
    76
1070
     1
1070
    77
1070
     1
1070
    78
1070
     8
1070
   140
1040
9.3543312
1070
   147
1040
0.0
1070
   173
1070
     1
1070
   176
1070
     4
1070
   177
1070
     4
1070
   178
1070
     7
1070
   271
1070
     1
1070
   277
1070
     2
1070
   279
1070
     2
1070
   280
1070
     0
1070
   287
1070
     5
1070
   340
1005
486
1002
}
  0
DIMENSION
  5
4FE
330
1F
100
AcDbEntity
  8
LAY-20
  6
CONTINUOUS
 62
     4
100
AcDbDimension
  2
*D24
 10
194.5000000000117
 20
326.2
 30
0.0
 11
186.0000000000118
 21
333.7
 31
0.0
 70
   160
  3
ISO-25
100
AcDbAlignedDimension
 13
177.5000000000117
 23
338.1999999999999
 33
0.0
 14
194.5000000000117
 24
338.1999999999999
 34
0.0
100
AcDbRotatedDimension
1001
ACAD
1000
DSTYLE
1002
{
1070
   270
1070
     2
1070
     6
1000
EX_NONE
1070
     7
1000
EX_NONE
1070
    41
1040
0.0
1070
    42
1040
0.0
1070
    44
1040
0.0
1070
    73
1070
     0
1070
    74
1070
     0
1070
    75
1070
     1
1070
    76
1070
     1
1070
    77
1070
     1
1070
    78
1070
     8
1070
   140
1040
9.3543312
1070
   147
1040
0.0
1070
   173
1070
     1
1070
   176
1070
     4
1070
   177
1070
     4
1070
   178
1070
     7
1070
   271
1070
     1
1070
   277
1070
     2
1070
   279
1070
     2
1070
   280
1070
     0
1070
   287
1070
     5
1070
   340
1005
486
1002
}
  0
DIMENSION
  5
507
330
1F
100
AcDbEntity
  8
LAY-20
  6
CONTINUOUS
 62
     4
100
AcDbDimension
  2
*D25
 10
388.5
 20
153.1999999999898
 30
0.0
 11
381.0
 21
144.6999999999898
 31
0.0
 70
   160
  3
ISO-25
100
AcDbAlignedDimension
 13
421.5000000000017
 23
136.1999999999898
 33
0.0
 14
421.5000000000017
 24
153.1999999999898
 34
0.0
 50
90.0
100
AcDbRotatedDimension
1001
ACAD
1000
DSTYLE
1002
{
1070
   270
1070
     2
1070
     6
1000
EX_NONE
1070
     7
1000
EX_NONE
1070
    41
1040
0.0
1070
    42
1040
0.0
1070
    44
1040
0.0
1070
    73
1070
     0
1070
    74
1070
     0
1070
    75
1070
     1
1070
    76
1070
     1
1070
    77
1070
     1
1070
    78
1070
     8
1070
   140
1040
9.3543312
1070
   147
1040
0.0
1070
   173
1070
     1
1070
   176
1070
     4
1070
   177
1070
     4
1070
   178
1070
     7
1070
   271
1070
     1
1070
   277
1070
     2
1070
   279
1070
     2
1070
   280
1070
     0
1070
   287
1070
     5
1070
   340
1005
486
1002
}
  0
DIMENSION
  5
510
330
1F
100
AcDbEntity
  8
LAY-20
  6
CONTINUOUS
 62
     4
100
AcDbDimension
  2
*D26
 10
367.5
 20
136.1999999999898
 30
0.0
 11
360.0000000000001
 21
197.6999999999995
 31
0.0
 70
   160
  3
ISO-25
100
AcDbAlignedDimension
 13
167.5000000000117
 23
173.6999999999996
 33
0.0
 14
379.5000000000017
 24
136.1999999999898
 34
0.0
 50
90.0
100
AcDbRotatedDimension
1001
ACAD
1000
DSTYLE
1002
{
1070
   270
1070
     2
1070
     6
1000
EX_BNORM
1070
     7
1000
EX_BNORM
1070
    41
1040
7.5
1070
    42
1040
4.500000000000028
1070
    44
1040
4.5
1070
    73
1070
     0
1070
    74
1070
     0
1070
    75
1070
     0
1070
    76
1070
     1
1070
    77
1070
     1
1070
    78
1070
     8
1070
   140
1040
9.3543312
1070
   147
1040
0.0
1070
   173
1070
     1
1070
   176
1070
     4
1070
   177
1070
     4
1070
   178
1070
     7
1070
   271
1070
     1
1070
   277
1070
     2
1070
   279
1070
     2
1070
   280
1070
     1
1070
   287
1070
     5
1070
   340
1005
486
1002
}
  0
DIMENSION
  5
51C
330
1F
100
AcDbEntity
  8
LAY-20
  6
CONTINUOUS
 62
     4
100
AcDbDimension
  2
*D27
 10
67.66171919275067
 20
115.1550794980336
 30
0.0
 11
57.51320154352726
 21
171.4601200319273
 31
0.0
 70
   160
  1
Rｃ4（113.0)
  3
ISO-25
100
AcDbAlignedDimension
 13
126.3496166335116
 23
229.3736878718998
 33
0.0
 14
128.6503833664216
 24
116.3971129882498
 34
0.0
 50
91.16666666666576
100
AcDbRotatedDimension
1001
ACAD
1000
DSTYLE
1002
{
1070
   270
1070
     2
1070
     6
1000
EX_BNORM
1070
     7
1000
EX_BNORM
1070
    41
1040
7.5
1070
    42
1040
4.50000000000001
1070
    44
1040
4.500000000000003
1070
    73
1070
     0
1070
    74
1070
     0
1070
    75
1070
     0
1070
    76
1070
     0
1070
    77
1070
     1
1070
    78
1070
     8
1070
   140
1040
9.3543312
1070
   147
1040
0.0
1070
   173
1070
     1
1070
   176
1070
     4
1070
   177
1070
     4
1070
   178
1070
     7
1070
   271
1070
     1
1070
   277
1070
     2
1070
   279
1070
     2
1070
   280
1070
     0
1070
   287
1070
     5
1070
   340
1005
486
1002
}
  0
DIMENSION
  5
529
330
1F
100
AcDbEntity
  8
LAY-20
  6
CONTINUOUS
 62
     4
100
AcDbDimension
  2
*D28
 10
87.49078481274158
 20
172.6138255411087
 30
0.0
 11
84.3899960036706
 21
201.1204365290443
 31
0.0
 70
   165
  1
1%%d10'
  3
ISO-25
100
AcDb3PointAngularDimension
 13
115.500000000012
 23
173.6999999999996
 33
0.0
 14
115.5004146038418
 24
172.6410290023998
 34
0.0
 15
167.5000000000117
 25
173.6999999999996
 35
0.0
1001
ACAD
1000
DSTYLE
1002
{
1070
   270
1070
     2
1070
     6
1000
EX_BNORM
1070
     7
1000
EX_BNORM
1070
    41
1040
7.5
1070
    42
1040
4.5
1070
    44
1040
4.5
1070
    73
1070
     0
1070
    74
1070
     0
1070
    75
1070
     0
1070
    76
1070
     0
1070
    77
1070
     1
1070
    78
1070
     8
1070
    79
1070
     2
1070
   140
1040
9.3543312
1070
   147
1040
0.0
1070
   173
1070
     1
1070
   176
1070
     4
1070
   177
1070
     4
1070
   178
1070
     7
1070
   179
1070
     1
1070
   271
1070
     1
1070
   277
1070
     2
1070
   279
1070
     2
1070
   280
1070
     1
1070
   287
1070
     5
1070
   340
1005
486
1002
}
  0
DIMENSION
  5
539
330
1F
100
AcDbEntity
  8
LAY-20
  6
CONTINUOUS
 62
     4
100
AcDbDimension
  2
*D29
 10
409.5
 20
103.19999999999
 30
0.0
 11
402.0
 21
119.69999999999
 31
0.0
 70
   160
  3
ISO-25
100
AcDbAlignedDimension
 13
409.5
 23
136.19999999999
 33
0.0
 14
167.4999999999
 24
103.19999999999
 34
0.0
 50
90.0
100
AcDbRotatedDimension
1001
ACAD
1000
DSTYLE
1002
{
1070
   270
1070
     2
1070
     6
1000
EX_BNORM
1070
     7
1000
EX_BNORM
1070
    41
1040
9.0
1070
    42
1040
4.5
1070
    44
1040
4.5
1070
    73
1070
     0
1070
    74
1070
     0
1070
    75
1070
     1
1070
    76
1070
     0
1070
    77
1070
     1
1070
    78
1070
     8
1070
   140
1040
9.3543312
1070
   147
1040
0.0
1070
   173
1070
     1
1070
   176
1070
     4
1070
   177
1070
     4
1070
   178
1070
     7
1070
   271
1070
     1
1070
   277
1070
     2
1070
   279
1070
     2
1070
   280
1070
     0
1070
   287
1070
     5
1070
   340
1005
486
1002
}
  0
LINE
  5
545
330
1F
100
AcDbEntity
  8
LAY-255
  6
CONTINUOUS
 62
     7
100
AcDbLine
 10
1155.0
 20
66.0
 30
0.0
 11
855.0
 21
66.0
 31
0.0
  0
LINE
  5
546
330
1F
100
AcDbEntity
  8
LAY-255
  6
CONTINUOUS
 62
     7
100
AcDbLine
 10
866.4000000000001
 20
48.0
 30
0.0
 11
890.4000000000001
 21
63.0
 31
0.0
  0
LINE
  5
547
330
1F
100
AcDbEntity
  8
LAY-255
  6
CONTINUOUS
 62
     7
100
AcDbLine
 10
890.4000000000001
 20
63.0
 30
0.0
 11
914.4000000000001
 21
48.0
 31
0.0
  0
LINE
  5
548
330
1F
100
AcDbEntity
  8
LAY-255
  6
CONTINUOUS
 62
     7
100
AcDbLine
 10
914.4000000000001
 20
48.0
 30
0.0
 11
890.4000000000001
 21
33.0
 31
0.0
  0
LINE
  5
549
330
1F
100
AcDbEntity
  8
LAY-255
  6
CONTINUOUS
 62
     7
100
AcDbLine
 10
890.4000000000001
 20
33.0
 30
0.0
 11
866.4000000000001
 21
48.0
 31
0.0
  0
LINE
  5
54A
330
1F
100
AcDbEntity
  8
LAY-255
  6
CONTINUOUS
 62
     7
100
AcDbLine
 10
15.0
 20
30.0
 30
0.0
 11
1155.0
 21
30.0
 31
0.0
  0
LINE
  5
54B
330
1F
100
AcDbEntity
  8
LAY-255
  6
CONTINUOUS
 62
     7
100
AcDbLine
 10
15.0
 20
840.0
 30
0.0
 11
1155.0
 21
840.0
 31
0.0
  0
LINE
  5
54C
330
1F
100
AcDbEntity
  8
LAY-255
  6
CONTINUOUS
 62
     7
100
AcDbLine
 10
15.0
 20
30.0
 30
0.0
 11
15.0
 21
840.0
 31
0.0
  0
LINE
  5
54D
330
1F
100
AcDbEntity
  8
LAY-255
  6
CONTINUOUS
 62
     7
100
AcDbLine
 10
1155.0
 20
30.0
 30
0.0
 11
1155.0
 21
840.0
 31
0.0
  0
LINE
  5
54E
330
1F
100
AcDbEntity
  8
LAY-255
  6
CONTINUOUS
 62
     4
100
AcDbLine
 10
855.0
 20
84.0
 30
0.0
 11
1155.0
 21
84.0
 31
0.0
  0
LINE
  5
54F
330
1F
100
AcDbEntity
  8
LAY-255
  6
CONTINUOUS
 62
     7
100
AcDbLine
 10
855.0
 20
30.0
 30
0.0
 11
855.0
 21
201.0
 31
0.0
  0
LINE
  5
550
330
1F
100
AcDbEntity
  8
LAY-255
  6
CONTINUOUS
 62
     4
100
AcDbLine
 10
1005.0
 20
84.0
 30
0.0
 11
1005.0
 21
66.0
 31
0.0
  0
LINE
  5
551
330
1F
100
AcDbEntity
  8
LAY-255
  6
CONTINUOUS
 62
     7
100
AcDbLine
 10
1155.0
 20
201.0
 30
0.0
 11
855.0
 21
201.0
 31
0.0
  0
LINE
  5
552
330
1F
100
AcDbEntity
  8
LAY-255
  6
CONTINUOUS
 62
     4
100
AcDbLine
 10
1149.0
 20
165.0
 30
0.0
 11
861.0
 21
165.0
 31
0.0
  0
LINE
  5
553
330
1F
100
AcDbEntity
  8
LAY-255
  6
CONTINUOUS
 62
     4
100
AcDbLine
 10
1149.0
 20
183.0
 30
0.0
 11
861.0
 21
183.0
 31
0.0
  0
POINT
  5
554
330
1F
100
AcDbEntity
  8
LAY-255
  6
CONTINUOUS
 62
     7
100
AcDbPoint
 10
867.0
 20
150.0
 30
0.0
  0
POINT
  5
555
330
1F
100
AcDbEntity
  8
LAY-255
  6
CONTINUOUS
 62
     7
100
AcDbPoint
 10
900.0
 20
168.0
 30
0.0
  0
POINT
  5
556
330
1F
100
AcDbEntity
  8
LAY-255
  6
CONTINUOUS
 62
     7
100
AcDbPoint
 10
900.0
 20
186.0
 30
0.0
  0
POINT
  5
557
330
1F
100
AcDbEntity
  8
LAY-255
  6
CONTINUOUS
 62
     7
100
AcDbPoint
 10
867.0
 20
120.0
 30
0.0
  0
POINT
  5
558
330
1F
100
AcDbEntity
  8
LAY-255
  6
CONTINUOUS
 62
     7
100
AcDbPoint
 10
867.0
 20
135.0
 30
0.0
  0
POINT
  5
559
330
1F
100
AcDbEntity
  8
LAY-255
  6
CONTINUOUS
 62
     7
100
AcDbPoint
 10
867.0
 20
105.0
 30
0.0
  0
POINT
  5
55A
330
1F
100
AcDbEntity
  8
LAY-255
  6
CONTINUOUS
 62
     7
100
AcDbPoint
 10
867.0
 20
89.99999999999996
 30
0.0
  0
TEXT
  5
55B
330
1F
100
AcDbEntity
  8
LAY-255
  6
CONTINUOUS
 62
     7
100
AcDbText
 10
924.415136826172
 20
46.63125
 30
0.0
 40
15.46875
  1
福西鋳物株式会社
 41
1.342692141742901
  7
EXCADSTD
100
AcDbText
  0
TEXT
  5
55C
330
1F
100
AcDbEntity
  8
LAY-255
  6
CONTINUOUS
 62
     7
100
AcDbText
 10
925.528125
 20
35.94375
 30
0.0
 40
5.15625
  1
ＦＵＫＵＮＩＳＨＩ
 41
1.204799226045263
  7
EXCADSTD
100
AcDbText
  0
TEXT
  5
55D
330
1F
100
AcDbEntity
  8
LAY-255
  6
CONTINUOUS
 62
     7
100
AcDbText
 10
998.1575892857143
 20
35.94375
 30
0.0
 40
5.15625
  1
ＦＯＵＮＤＲＹ
 41
1.243252752978497
  7
EXCADSTD
100
AcDbText
  0
TEXT
  5
55E
330
1F
100
AcDbEntity
  8
LAY-255
  6
CONTINUOUS
 62
     7
100
AcDbText
 10
1055.983774651442
 20
35.94375
 30
0.0
 40
5.15625
  1
ＣＯ.,ＬＴＤ.
 41
1.243831271314936
  7
EXCADSTD
100
AcDbText
  0
TEXT
  5
55F
330
1F
100
AcDbEntity
  8
LAY-255
  6
CONTINUOUS
 62
     7
100
AcDbText
 10
882.1031250000001
 20
41.15625
 30
0.0
 40
15.46875
  1
S
 41
0.7582677563636363
  7
EXCADSTD
100
AcDbText
  0
TEXT
  5
560
330
1F
100
AcDbEntity
  8
LAY-255
  6
CONTINUOUS
 62
     7
100
AcDbText
 10
891.3140625000001
 20
41.24823113208
 30
0.0
 40
15.46875
  1
F
 41
0.7440945272727273
  7
EXCADSTD
100
AcDbText
  0
TEXT
  5
561
330
1F
100
AcDbEntity
  8
LAY-255
  6
CONTINUOUS
 62
     7
100
AcDbText
 10
1011.31640625
 20
73.26562499999997
 30
0.0
 40
7.734375
  1
縮尺
 41
1.080708718181818
  7
EXCADSTD
100
AcDbText
  0
TEXT
  5
562
330
1F
100
AcDbEntity
  8
LAY-255
  6
CONTINUOUS
 62
     7
100
AcDbText
 10
861.796875
 20
169.6875
 30
0.0
 40
10.3125
  1
型式
 41
1.056348480681818
  7
EXCADSTD
100
AcDbText
  0
TEXT
  5
563
330
1F
100
AcDbEntity
  8
LAY-255
  6
CONTINUOUS
 62
     7
100
AcDbText
 10
862.265625
 20
187.6875
 30
0.0
 40
10.3125
  1
品名
 41
0.978838634090909
  7
EXCADSTD
100
AcDbText
  0
TEXT
  5
564
330
1F
100
AcDbEntity
  8
LAY-255
  6
CONTINUOUS
 62
     7
100
AcDbText
 10
861.45703125
 20
73.26562499999997
 30
0.0
 40
7.734375
  1
作成日
 41
1.000629973818182
  7
EXCADSTD
100
AcDbText
  0
TEXT
  5
565
330
1F
100
AcDbEntity
  8
LAY-255
  6
CONTINUOUS
 62
     7
100
AcDbText
 10
900.75
 20
187.6875
 30
0.0
 40
10.3125
  1
ルーフドレイン
 41
1.021169538599106
  7
EXCADSTD
100
AcDbText
  0
TEXT
  5
566
330
1F
100
AcDbEntity
  8
LAY-255
  6
CONTINUOUS
 62
     7
100
AcDbText
 10
868.125
 20
151.6875000000001
 30
0.0
 40
10.3125
  1
防水：アスファルト・シート・
 41
0.9866967752199413
  7
EXCADSTD
100
AcDbText
  0
TEXT
  5
567
330
1F
100
AcDbEntity
  8
LAY-255
  6
CONTINUOUS
 62
     7
100
AcDbText
 10
867.0
 20
136.6875
 30
0.0
 40
10.3125
  1
      露出アスファルト防水兼用
 41
0.894274438169777
  7
EXCADSTD
100
AcDbText
  0
TEXT
  5
568
330
1F
100
AcDbEntity
  8
LAY-255
  6
CONTINUOUS
 62
     7
100
AcDbText
 10
867.65625
 20
106.6875
 30
0.0
 40
10.3125
  1
接続：管用テーパねじ
 41
1.013063761157025
  7
EXCADSTD
100
AcDbText
  0
TEXT
  5
569
330
1F
100
AcDbEntity
  8
LAY-255
  6
CONTINUOUS
 62
     7
100
AcDbText
 10
867.703125
 20
121.6875
 30
0.0
 40
10.3125
  1
用途：屋上用・横引型
 41
1.017090246694215
  7
EXCADSTD
100
AcDbText
  0
TEXT
  5
56A
330
1F
100
AcDbEntity
  8
LAY-255
  6
CONTINUOUS
 62
     7
100
AcDbText
 10
868.125
 20
91.68750000000004
 30
0.0
 40
10.3125
  1
※防水層張り掛け幅５０ｍｍ対応型
 41
1.01133974481434
  7
EXCADSTD
100
AcDbText
  0
TEXT
  5
56B
330
1F
100
AcDbEntity
  8
LAY-255
  6
CONTINUOUS
 62
     7
100
AcDbText
 10
1044.84375
 20
70.68749999999997
 30
0.0
 40
10.3125
  1
１：３
 41
0.8844094952727272
  7
EXCADSTD
100
AcDbText
  0
TEXT
  5
56C
330
1F
100
AcDbEntity
  8
LAY-255
  6
CONTINUOUS
 62
     7
100
AcDbText
 10
898.1208984375
 20
70.68749999999997
 30
0.0
 40
10.3125
  1
２０２３／０２／０６
 41
0.871220741895661
  7
EXCADSTD
100
AcDbText
  0
TEXT
  5
56D
330
1F
100
AcDbEntity
  8
LAY-255
  6
CONTINUOUS
 62
     7
100
AcDbText
 10
902.625
 20
169.6875
 30
0.0
 40
10.3125
  1
ＲＡＳＮ－８１００型
 41
1.000581655991735
  7
EXCADSTD
100
AcDbText
  0
ENDSEC
  0
SECTION
  2
OBJECTS
  0
DICTIONARY
  5
C
330
0
100
AcDbDictionary
  3
ACAD_GROUP
350
D
  3
ACAD_LAYOUT
350
1A
  3
ACAD_MATERIAL
350
43
  3
ACAD_MLEADERSTYLE
350
6B
  3
ACAD_MLINESTYLE
350
17
  3
ACAD_PLOTSETTINGS
350
19
  3
ACAD_SCALELIST
350
47
  3
ACAD_VISUALSTYLE
350
2A
  3
ACDBHEADERROUNDTRIPXREC
350
56E
  3
ACDBVARIABLEDICTIONARY
350
58F
  0
DICTIONARY
  5
59A
330
8
100
AcDbDictionary
280
     1
  3
ACAD_XREC_ROUNDTRIP
360
59B
  0
DICTIONARY
  5
D
102
{ACAD_REACTORS
330
C
102
}
330
C
100
AcDbDictionary
  0
DICTIONARY
  5
1A
102
{ACAD_REACTORS
330
C
102
}
330
C
100
AcDbDictionary
  0
DICTIONARY
  5
43
102
{ACAD_REACTORS
330
C
102
}
330
C
100
AcDbDictionary
  3
BYBLOCK
350
45
  3
BYLAYER
350
44
  3
GLOBAL
350
46
  0
DICTIONARY
  5
6B
102
{ACAD_REACTORS
330
C
102
}
330
C
100
AcDbDictionary
  3
STANDARD
350
6C
  0
DICTIONARY
  5
17
102
{ACAD_REACTORS
330
C
102
}
330
C
100
AcDbDictionary
  3
STANDARD
350
18
  0
DICTIONARY
  5
19
102
{ACAD_REACTORS
330
C
102
}
330
C
100
AcDbDictionary
  0
DICTIONARY
  5
47
102
{ACAD_REACTORS
330
C
102
}
330
C
100
AcDbDictionary
  3
A0
350
48
  3
A1
350
49
  3
A2
350
4A
  3
A3
350
4B
  3
A4
350
4C
  3
A5
350
4D
  3
A6
350
4E
  3
A7
350
4F
  3
A8
350
50
  3
A9
350
51
  3
B0
350
52
  3
B1
350
53
  3
B2
350
54
  3
B3
350
55
  3
B4
350
56
  3
B5
350
57
  3
B6
350
58
  3
B7
350
59
  3
B8
350
5A
  3
B9
350
5B
  3
C0
350
5C
  3
C1
350
5D
  3
C2
350
5E
  3
C3
350
5F
  3
C4
350
60
  3
C5
350
61
  3
C6
350
62
  3
C7
350
63
  3
C8
350
64
  3
C9
350
65
  3
D0
350
66
  3
D1
350
67
  3
D2
350
68
  0
DICTIONARY
  5
2A
102
{ACAD_REACTORS
330
C
102
}
330
C
100
AcDbDictionary
  3
2DWIREFRAME
350
2F
  3
BASIC
350
32
  3
BRIGHTEN
350
36
  3
COLORCHANGE
350
3A
  3
CONCEPTUAL
350
34
  3
DIM
350
35
  3
EDGECOLOROFF
350
3D
  3
FACEPATTERN
350
39
  3
FLAT
350
2B
  3
FLATWITHEDGES
350
2C
  3
GOURAUD
350
2D
  3
GOURAUDWITHEDGES
350
2E
  3
HIDDEN
350
31
  3
JITTEROFF
350
3B
  3
LINEPATTERN
350
38
  3
OVERHANGOFF
350
3C
  3
REALISTIC
350
33
  3
SHADED
350
42
  3
SHADED_WITH_EDGES
350
41
  3
SHADES_OF_GRAY
350
3E
  3
SKETCHY
350
3F
  3
THICKEN
350
37
  3
WIREFRAME
350
30
  3
X-RAY
350
40
  0
DICTIONARY
  5
56E
102
{ACAD_REACTORS
330
C
102
}
330
C
100
AcDbDictionary
  3
CEPSNID
350
578
  3
CEPSNTYPE
350
577
  3
DIMSTYLEDATA
350
58E
  3
FINGERPRINTGUID
350
579
  3
HYPERLINKBASE
350
571
  3
INSUNITS
350
576
  3
LAYOUTDICT
350
573
  3
LWETCUNION
350
575
  3
PLOTSETDICT
350
574
  3
PSVPSCALE
350
57B
  3
PUCSBASE
350
57E
  3
PUCSORGBACK
350
584
  3
PUCSORGBOTTOM
350
580
  3
PUCSORGFRONT
350
583
  3
PUCSORGLEFT
350
581
  3
PUCSORGRIGHT
350
582
  3
PUCSORGTOP
350
57F
  3
PUCSORTHOREF
350
57C
  3
PUCSORTHOVIEW
350
57D
  3
STYLESHEET
350
572
  3
TSTACKALIGN
350
56F
  3
TSTACKSIZE
350
570
  3
UCSBASE
350
587
  3
UCSORGBACK
350
58D
  3
UCSORGBOTTOM
350
589
  3
UCSORGFRONT
350
58C
  3
UCSORGLEFT
350
58A
  3
UCSORGRIGHT
350
58B
  3
UCSORGTOP
350
588
  3
UCSORTHOREF
350
585
  3
UCSORTHOVIEW
350
586
  3
VERSIONGUID
350
57A
  0
DICTIONARY
  5
58F
102
{ACAD_REACTORS
330
C
102
}
330
C
100
AcDbDictionary
  3
CANNOSCALE
350
59C
  3
CENTEREXE
350
596
  3
CENTERLTYPEFILE
350
597
  3
CMLEADERSTYLE
350
591
  3
CTABLESTYLE
350
590
  3
DIMASSOC
350
598
  3
HIDETEXT
350
599
  3
MSLTSCALE
350
59D
  3
PSOLHEIGHT
350
593
  3
PSOLWIDTH
350
592
  0
XRECORD
  5
59B
102
{ACAD_REACTORS
330
59A
102
}
330
59A
100
AcDbXrecord
102
VTR_0.000_0.000_1.000_1.000_VISUALSTYLE
340
2F
102
VTR_0.000_0.000_1.000_1.000_GRIDDISPLAY
 70
     3
102
VTR_0.000_0.000_1.000_1.000_GRIDMAJOR
 70
     5
102
VTR_0.000_0.000_1.000_1.000_DEFAULTLIGHTING
280
     1
102
VTR_0.000_0.000_1.000_1.000_DEFAULTLIGHTINGTYPE
 70
     1
102
VTR_0.000_0.000_1.000_1.000_BRIGHTNESS
141
0.0
102
VTR_0.000_0.000_1.000_1.000_CONTRAST
142
0.0
  0
MATERIAL
  5
45
102
{ACAD_REACTORS
330
43
102
}
102
{ACAD_XDICTIONARY
360
5A0
102
}
330
43
100
AcDbMaterial
  1
BYBLOCK
  0
MATERIAL
  5
44
102
{ACAD_REACTORS
330
43
102
}
102
{ACAD_XDICTIONARY
360
59E
102
}
330
43
100
AcDbMaterial
  1
BYLAYER
  0
MATERIAL
  5
46
102
{ACAD_REACTORS
330
43
102
}
102
{ACAD_XDICTIONARY
360
5A2
102
}
330
43
100
AcDbMaterial
  1
GLOBAL
  0
ACAD_PROXY_OBJECT
  5
6C
102
{ACAD_REACTORS
330
6B
102
}
330
6B
100
AcDbProxyObject
 90
      499
 91
      505
 93
      610
310
40901902A4063FBFFFFFE0000000000000020400000000000020404214DD185B99185C990000000000000104090141901A00000000000004100000000000000041025764000000000000039000
340
14
340
0
340
11
340
0
 94
        0
1001
ACAD_MLEADERVER
1070
     2
  0
MLINESTYLE
  5
18
102
{ACAD_REACTORS
330
17
102
}
330
17
100
AcDbMlineStyle
  2
Standard
 70
     0
  3

 62
   256
 51
90.0
 52
90.0
 71
     2
 49
0.5
 62
   256
  6
BYLAYER
 49
-0.5
 62
   256
  6
BYLAYER
  0
ACAD_PROXY_OBJECT
  5
48
102
{ACAD_REACTORS
330
47
102
}
330
47
100
AcDbProxyObject
 90
      499
 91
      503
 93
       41
310
903313A31580
  0
ACAD_PROXY_OBJECT
  5
49
102
{ACAD_REACTORS
330
47
102
}
330
47
100
AcDbProxyObject
 90
      499
 91
      503
 93
      105
310
903313A324000000000000004000
  0
ACAD_PROXY_OBJECT
  5
4A
102
{ACAD_REACTORS
330
47
102
}
330
47
100
AcDbProxyObject
 90
      499
 91
      503
 93
      105
310
903313A344000000000000104000
  0
ACAD_PROXY_OBJECT
  5
4B
102
{ACAD_REACTORS
330
47
102
}
330
47
100
AcDbProxyObject
 90
      499
 91
      503
 93
      105
310
903313A354000000000000144000
  0
ACAD_PROXY_OBJECT
  5
4C
102
{ACAD_REACTORS
330
47
102
}
330
47
100
AcDbProxyObject
 90
      499
 91
      503
 93
      105
310
903313A384000000000000204000
  0
ACAD_PROXY_OBJECT
  5
4D
102
{ACAD_REACTORS
330
47
102
}
330
47
100
AcDbProxyObject
 90
      499
 91
      503
 93
      113
310
904313A31304000000000000244000
  0
ACAD_PROXY_OBJECT
  5
4E
102
{ACAD_REACTORS
330
47
102
}
330
47
100
AcDbProxyObject
 90
      499
 91
      503
 93
      113
310
904313A31364000000000000304000
  0
ACAD_PROXY_OBJECT
  5
4F
102
{ACAD_REACTORS
330
47
102
}
330
47
100
AcDbProxyObject
 90
      499
 91
      503
 93
      113
310
904313A32304000000000000344000
  0
ACAD_PROXY_OBJECT
  5
50
102
{ACAD_REACTORS
330
47
102
}
330
47
100
AcDbProxyObject
 90
      499
 91
      503
 93
      113
310
904313A333040000000000003E4000
  0
ACAD_PROXY_OBJECT
  5
51
102
{ACAD_REACTORS
330
47
102
}
330
47
100
AcDbProxyObject
 90
      499
 91
      503
 93
      113
310
904313A34304000000000000444000
  0
ACAD_PROXY_OBJECT
  5
52
102
{ACAD_REACTORS
330
47
102
}
330
47
100
AcDbProxyObject
 90
      499
 91
      503
 93
      113
310
904313A35304000000000000494000
  0
ACAD_PROXY_OBJECT
  5
53
102
{ACAD_REACTORS
330
47
102
}
330
47
100
AcDbProxyObject
 90
      499
 91
      503
 93
      121
310
905313A3130304000000000000594000
  0
ACAD_PROXY_OBJECT
  5
54
102
{ACAD_REACTORS
330
47
102
}
330
47
100
AcDbProxyObject
 90
      499
 91
      503
 93
      105
310
903323A310000000000000010100
  0
ACAD_PROXY_OBJECT
  5
55
102
{ACAD_REACTORS
330
47
102
}
330
47
100
AcDbProxyObject
 90
      499
 91
      503
 93
      105
310
903343A310000000000000410100
  0
ACAD_PROXY_OBJECT
  5
56
102
{ACAD_REACTORS
330
47
102
}
330
47
100
AcDbProxyObject
 90
      499
 91
      503
 93
      105
310
903383A310000000000000810100
  0
ACAD_PROXY_OBJECT
  5
57
102
{ACAD_REACTORS
330
47
102
}
330
47
100
AcDbProxyObject
 90
      499
 91
      503
 93
      113
310
90431303A310000000000000910100
  0
ACAD_PROXY_OBJECT
  5
58
102
{ACAD_REACTORS
330
47
102
}
330
47
100
AcDbProxyObject
 90
      499
 91
      503
 93
      121
310
9053130303A310000000000001650100
  0
ACAD_PROXY_OBJECT
  5
59
102
{ACAD_REACTORS
330
47
102
}
330
47
100
AcDbProxyObject
 90
      499
 91
      503
 93
      257
310
90E312F31323822203D2031272D3022000000000000200FC000000000000284000
  0
ACAD_PROXY_OBJECT
  5
5A
102
{ACAD_REACTORS
330
47
102
}
330
47
100
AcDbProxyObject
 90
      499
 91
      503
 93
      249
310
90D312F363422203D2031272D3022000000000000240FC000000000000284000
  0
ACAD_PROXY_OBJECT
  5
5B
102
{ACAD_REACTORS
330
47
102
}
330
47
100
AcDbProxyObject
 90
      499
 91
      503
 93
      249
310
90D312F333222203D2031272D3022000000000000280FC000000000000284000
  0
ACAD_PROXY_OBJECT
  5
5C
102
{ACAD_REACTORS
330
47
102
}
330
47
100
AcDbProxyObject
 90
      499
 91
      503
 93
      249
310
90D312F313622203D2031272D30220000000000002C0FC000000000000284000
  0
ACAD_PROXY_OBJECT
  5
5D
102
{ACAD_REACTORS
330
47
102
}
330
47
100
AcDbProxyObject
 90
      499
 91
      503
 93
      249
310
90D332F333222203D2031272D30220000000000002E0FC000000000000284000
  0
ACAD_PROXY_OBJECT
  5
5E
102
{ACAD_REACTORS
330
47
102
}
330
47
100
AcDbProxyObject
 90
      499
 91
      503
 93
      241
310
90C312F3822203D2031272D3022000000000000300FC000000000000284000
  0
ACAD_PROXY_OBJECT
  5
5F
102
{ACAD_REACTORS
330
47
102
}
330
47
100
AcDbProxyObject
 90
      499
 91
      503
 93
      249
310
90D332F313622203D2031272D3022000000000000320FC000000000000284000
  0
ACAD_PROXY_OBJECT
  5
60
102
{ACAD_REACTORS
330
47
102
}
330
47
100
AcDbProxyObject
 90
      499
 91
      503
 93
      241
310
90C312F3422203D2031272D3022000000000000340FC000000000000284000
  0
ACAD_PROXY_OBJECT
  5
61
102
{ACAD_REACTORS
330
47
102
}
330
47
100
AcDbProxyObject
 90
      499
 91
      503
 93
      241
310
90C332F3822203D2031272D3022000000000000360FC000000000000284000
  0
ACAD_PROXY_OBJECT
  5
62
102
{ACAD_REACTORS
330
47
102
}
330
47
100
AcDbProxyObject
 90
      499
 91
      503
 93
      241
310
90C312F3222203D2031272D3022000000000000380FC000000000000284000
  0
ACAD_PROXY_OBJECT
  5
63
102
{ACAD_REACTORS
330
47
102
}
330
47
100
AcDbProxyObject
 90
      499
 91
      503
 93
      241
310
90C332F3422203D2031272D30220000000000003A0FC000000000000284000
  0
ACAD_PROXY_OBJECT
  5
64
102
{ACAD_REACTORS
330
47
102
}
330
47
100
AcDbProxyObject
 90
      499
 91
      503
 93
      161
310
90A3122203D2031272D30224000000000000284000
  0
ACAD_PROXY_OBJECT
  5
65
102
{ACAD_REACTORS
330
47
102
}
330
47
100
AcDbProxyObject
 90
      499
 91
      503
 93
      257
310
90E312D312F3222203D2031272D30220000000000003E0FC000000000000284000
  0
ACAD_PROXY_OBJECT
  5
66
102
{ACAD_REACTORS
330
47
102
}
330
47
100
AcDbProxyObject
 90
      499
 91
      503
 93
      225
310
90A3322203D2031272D302200000000000002100000000000000284000
  0
ACAD_PROXY_OBJECT
  5
67
102
{ACAD_REACTORS
330
47
102
}
330
47
100
AcDbProxyObject
 90
      499
 91
      503
 93
      225
310
90A3622203D2031272D302200000000000006100000000000000284000
  0
ACAD_PROXY_OBJECT
  5
68
102
{ACAD_REACTORS
330
47
102
}
330
47
100
AcDbProxyObject
 90
      499
 91
      503
 93
      249
310
90D31272D3022203D2031272D30220000000000000A100000000000000284000
  0
ACAD_PROXY_OBJECT
  5
2F
102
{ACAD_REACTORS
330
2A
102
}
330
2A
100
AcDbProxyObject
 90
      499
 91
      501
 93
      436
310
42CC9915DA5C99599C985B595049028333333333333E33F0000000000000F90107901411070040501600405405064090741402480A0340
1001
ACAD
1000
AcDbSavedByObjectVersion
1070
     0
  0
ACAD_PROXY_OBJECT
  5
32
102
{ACAD_REACTORS
330
2A
102
}
330
2A
100
AcDbProxyObject
 90
      499
 91
      501
 93
      388
310
4150985CDA58D07406404333333333333E33F0000000000000F90107A41107004050150841D405064090741402480A0350
1001
ACAD
1000
AcDbSavedByObjectVersion
1070
     0
  0
ACAD_PROXY_OBJECT
  5
36
102
{ACAD_REACTORS
330
2A
102
}
330
2A
100
AcDbProxyObject
 90
      499
 91
      501
 93
      428
310
42109C9A59DA1D195B90C409028333333333333E33F0000000000000F9010790141107004050150841D405064090741402480A029950
1001
ACAD
1000
AcDbSavedByObjectVersion
1070
     0
  0
ACAD_PROXY_OBJECT
  5
3A
102
{ACAD_REACTORS
330
2A
102
}
330
2A
100
AcDbProxyObject
 90
      499
 91
      501
 93
      452
310
42D0DBDB1BDC90DA185B99D95104090240C333333333333E33F0000000000000F90108901411070040501508421405064090741402480A0350
1001
ACAD
1000
AcDbSavedByObjectVersion
1070
     0
  0
ACAD_PROXY_OBJECT
  5
34
102
{ACAD_REACTORS
330
2A
102
}
330
2A
100
AcDbProxyObject
 90
      499
 91
      501
 93
      500
310
4290DBDB98D95C1D1D585B10940D028333333333333E33F0000000000000F90107902409070040501000000000018199010841D405064090740C02480A0340
1001
ACAD
1000
AcDbSavedByObjectVersion
1070
     0
  0
ACAD_PROXY_OBJECT
  5
35
102
{ACAD_REACTORS
330
2A
102
}
330
2A
100
AcDbProxyObject
 90
      499
 91
      501
 93
      412
310
40D11A5B50B409028333333333333E33F0000000000000F9010790141107004050150841D405064090741402480A02677FFFFFD0
1001
ACAD
1000
AcDbSavedByObjectVersion
1070
     0
  0
ACAD_PROXY_OBJECT
  5
3D
102
{ACAD_REACTORS
330
2A
102
}
330
2A
100
AcDbProxyObject
 90
      499
 91
      501
 93
      452
310
43115919D950DBDB1BDC93D999916409028333333333333E33F0000000000000F9010790141107004050150841D405064090741402480A0350
1001
ACAD
1000
AcDbSavedByObjectVersion
1070
     0
  0
ACAD_PROXY_OBJECT
  5
39
102
{ACAD_REACTORS
330
2A
102
}
330
2A
100
AcDbProxyObject
 90
      499
 91
      501
 93
      444
310
42D19858D95C185D1D195C9B90F409028333333333333E33F0000000000000F9010790141107004050150841D405064090741402480A0350
1001
ACAD
1000
AcDbSavedByObjectVersion
1070
     0
  0
ACAD_PROXY_OBJECT
  5
2B
102
{ACAD_REACTORS
330
2A
102
}
330
2A
100
AcDbProxyObject
 90
      499
 91
      501
 93
      380
310
41119B185D240901404333333333333E33F0000000000000F9010740A907004050150841D405064090741402480A1B50
1001
ACAD
1000
AcDbSavedByObjectVersion
1070
     0
  0
ACAD_PROXY_OBJECT
  5
2C
102
{ACAD_REACTORS
330
2A
102
}
330
2A
100
AcDbProxyObject
 90
      499
 91
      501
 93
      468
310
43519B185D15DA5D1A115919D95CD0140901404333333333333E33F0000000000000F90107409019070040501600405405064090741402480A1B50
1001
ACAD
1000
AcDbSavedByObjectVersion
1070
     0
  0
ACAD_PROXY_OBJECT
  5
2D
102
{ACAD_REACTORS
330
2A
102
}
330
2A
100
AcDbProxyObject
 90
      499
 91
      501
 93
      404
310
41D1DBDD5C985D5910240902404333333333333E33F0000000000000F9010740A9070040501641D405064090741402480A1B50
1001
ACAD
1000
AcDbSavedByObjectVersion
1070
     0
  0
ACAD_PROXY_OBJECT
  5
2E
102
{ACAD_REACTORS
330
2A
102
}
330
2A
100
AcDbProxyObject
 90
      499
 91
      501
 93
      492
310
4411DBDD5C985D5915DA5D1A115919D95CD0340902404333333333333E33F0000000000000F90107409019070040501600405405064090741402480A1B50
1001
ACAD
1000
AcDbSavedByObjectVersion
1070
     0
  0
ACAD_PROXY_OBJECT
  5
31
102
{ACAD_REACTORS
330
2A
102
}
330
2A
100
AcDbProxyObject
 90
      499
 91
      501
 93
      476
310
41921A5919195B90640502408333333333333E33F0000000000000F901079024090700405020000000000001110200405405064090740C02480A0340
1001
ACAD
1000
AcDbSavedByObjectVersion
1070
     0
  0
ACAD_PROXY_OBJECT
  5
3B
102
{ACAD_REACTORS
330
2A
102
}
330
2A
100
AcDbProxyObject
 90
      499
 91
      501
 93
      428
310
42529A5D1D195C93D999914409028333333333333E33F0000000000000F9010790141107004050150A41D405064090741402480A0350
1001
ACAD
1000
AcDbSavedByObjectVersion
1070
     0
  0
ACAD_PROXY_OBJECT
  5
38
102
{ACAD_REACTORS
330
2A
102
}
330
2A
100
AcDbProxyObject
 90
      499
 91
      501
 93
      444
310
42D31A5B995C185D1D195C9B90E409028333333333333E33F0000000000000F9010790141107004050750841D405064090741402483A0350
1001
ACAD
1000
AcDbSavedByObjectVersion
1070
     0
  0
ACAD_PROXY_OBJECT
  5
3C
102
{ACAD_REACTORS
330
2A
102
}
330
2A
100
AcDbProxyObject
 90
      499
 91
      501
 93
      444
310
42D3DD995C9A185B99D3D999915409028333333333333E33F0000000000000F9010790141107004050150941D405064090741402480A0350
1001
ACAD
1000
AcDbSavedByObjectVersion
1070
     0
  0
ACAD_PROXY_OBJECT
  5
33
102
{ACAD_REACTORS
330
2A
102
}
330
2A
100
AcDbProxyObject
 90
      499
 91
      501
 93
      428
310
425499585B1A5CDD1A58D08409038333333333333E33F0000000000000F9010740A907004050150800405405064090740C02480A1B40
1001
ACAD
1000
AcDbSavedByObjectVersion
1070
     0
  0
ACAD_PROXY_OBJECT
  5
42
102
{ACAD_REACTORS
330
2A
102
}
330
2A
100
AcDbProxyObject
 90
      499
 91
      501
 93
      420
310
4194DA1859195911B40902404333333333333E33F0000000000000F9010740A41107004050150800405405064090840C02480A0B40
1001
ACAD
1000
AcDbSavedByObjectVersion
1070
     0
  0
ACAD_PROXY_OBJECT
  5
41
102
{ACAD_REACTORS
330
2A
102
}
330
2A
100
AcDbProxyObject
 90
      499
 91
      501
 93
      516
310
4454DA18591959081DDA5D1A08195919D95CD1A40902404333333333333E33F0000000000000F901074090142907004050250800405405064090740C02480A0B40
1001
ACAD
1000
AcDbSavedByObjectVersion
1070
     0
  0
ACAD_PROXY_OBJECT
  5
3E
102
{ACAD_REACTORS
330
2A
102
}
330
2A
100
AcDbProxyObject
 90
      499
 91
      501
 93
      532
310
4394DA1859195CC81BD98811DC985E5174090240C333333333333E33F0000000000000F901079024090741D01000000000000111010841D405064090740C02480A0340
1001
ACAD
1000
AcDbSavedByObjectVersion
1070
     0
  0
ACAD_PROXY_OBJECT
  5
3F
102
{ACAD_REACTORS
330
2A
102
}
330
2A
100
AcDbProxyObject
 90
      499
 91
      501
 93
      476
310
41D4DAD95D18DA1E51840502408333333333333E33F0000000000000F901079024090741D01000000000000111010B41D405064090741802480A0340
1001
ACAD
1000
AcDbSavedByObjectVersion
1070
     0
  0
ACAD_PROXY_OBJECT
  5
37
102
{ACAD_REACTORS
330
2A
102
}
330
2A
100
AcDbProxyObject
 90
      499
 91
      501
 93
      412
310
41D51A1A58DAD95B90D409028333333333333E33F0000000000000F9010790141107004050150C41D405064090741402480A0350
1001
ACAD
1000
AcDbSavedByObjectVersion
1070
     0
  0
ACAD_PROXY_OBJECT
  5
30
102
{ACAD_REACTORS
330
2A
102
}
330
2A
100
AcDbProxyObject
 90
      499
 91
      501
 93
      420
310
4255DA5C99599C985B595059028333333333333E33F0000000000000F90107901411070040501600405405064090740C02480A0340
1001
ACAD
1000
AcDbSavedByObjectVersion
1070
     0
  0
ACAD_PROXY_OBJECT
  5
40
102
{ACAD_REACTORS
330
2A
102
}
330
2A
100
AcDbProxyObject
 90
      499
 91
      501
 93
      404
310
41560B54985E51940902404000000000000E03F0000000000000F9010740501907004050150841D405064090740C02480A1B40
1001
ACAD
1000
AcDbSavedByObjectVersion
1070
     0
  0
XRECORD
  5
578
102
{ACAD_REACTORS
330
56E
102
}
330
56E
100
AcDbXrecord
340
0
  0
XRECORD
  5
577
102
{ACAD_REACTORS
330
56E
102
}
330
56E
100
AcDbXrecord
 90
        0
  0
XRECORD
  5
58E
102
{ACAD_REACTORS
330
56E
102
}
330
56E
100
AcDbXrecord
1000
DSTYLE
1002
{
1070
   340
340
11
1002
}
  0
XRECORD
  5
579
102
{ACAD_REACTORS
330
56E
102
}
330
56E
100
AcDbXrecord
  1
{55f0557a-75ae-4340-afae-daa140404528}
  0
XRECORD
  5
571
102
{ACAD_REACTORS
330
56E
102
}
330
56E
100
AcDbXrecord
  1

  0
XRECORD
  5
576
102
{ACAD_REACTORS
330
56E
102
}
330
56E
100
AcDbXrecord
 90
        4
  0
XRECORD
  5
573
102
{ACAD_REACTORS
330
56E
102
}
330
56E
100
AcDbXrecord
340
1A
  0
XRECORD
  5
575
102
{ACAD_REACTORS
330
56E
102
}
330
56E
100
AcDbXrecord
 90
    10781
  0
XRECORD
  5
574
102
{ACAD_REACTORS
330
56E
102
}
330
56E
100
AcDbXrecord
340
19
  0
XRECORD
  5
57B
102
{ACAD_REACTORS
330
56E
102
}
330
56E
100
AcDbXrecord
 40
0.0
  0
XRECORD
  5
57E
102
{ACAD_REACTORS
330
56E
102
}
330
56E
100
AcDbXrecord
340
0
  0
XRECORD
  5
584
102
{ACAD_REACTORS
330
56E
102
}
330
56E
100
AcDbXrecord
 10
0.0
 20
0.0
 30
0.0
  0
XRECORD
  5
580
102
{ACAD_REACTORS
330
56E
102
}
330
56E
100
AcDbXrecord
 10
0.0
 20
0.0
 30
0.0
  0
XRECORD
  5
583
102
{ACAD_REACTORS
330
56E
102
}
330
56E
100
AcDbXrecord
 10
0.0
 20
0.0
 30
0.0
  0
XRECORD
  5
581
102
{ACAD_REACTORS
330
56E
102
}
330
56E
100
AcDbXrecord
 10
0.0
 20
0.0
 30
0.0
  0
XRECORD
  5
582
102
{ACAD_REACTORS
330
56E
102
}
330
56E
100
AcDbXrecord
 10
0.0
 20
0.0
 30
0.0
  0
XRECORD
  5
57F
102
{ACAD_REACTORS
330
56E
102
}
330
56E
100
AcDbXrecord
 10
0.0
 20
0.0
 30
0.0
  0
XRECORD
  5
57C
102
{ACAD_REACTORS
330
56E
102
}
330
56E
100
AcDbXrecord
340
0
  0
XRECORD
  5
57D
102
{ACAD_REACTORS
330
56E
102
}
330
56E
100
AcDbXrecord
 70
     0
  0
XRECORD
  5
572
102
{ACAD_REACTORS
330
56E
102
}
330
56E
100
AcDbXrecord
  1

  0
XRECORD
  5
56F
102
{ACAD_REACTORS
330
56E
102
}
330
56E
100
AcDbXrecord
 90
        1
  0
XRECORD
  5
570
102
{ACAD_REACTORS
330
56E
102
}
330
56E
100
AcDbXrecord
 90
       70
  0
XRECORD
  5
587
102
{ACAD_REACTORS
330
56E
102
}
330
56E
100
AcDbXrecord
340
0
  0
XRECORD
  5
58D
102
{ACAD_REACTORS
330
56E
102
}
330
56E
100
AcDbXrecord
 10
0.0
 20
0.0
 30
0.0
  0
XRECORD
  5
589
102
{ACAD_REACTORS
330
56E
102
}
330
56E
100
AcDbXrecord
 10
0.0
 20
0.0
 30
0.0
  0
XRECORD
  5
58C
102
{ACAD_REACTORS
330
56E
102
}
330
56E
100
AcDbXrecord
 10
0.0
 20
0.0
 30
0.0
  0
XRECORD
  5
58A
102
{ACAD_REACTORS
330
56E
102
}
330
56E
100
AcDbXrecord
 10
0.0
 20
0.0
 30
0.0
  0
XRECORD
  5
58B
102
{ACAD_REACTORS
330
56E
102
}
330
56E
100
AcDbXrecord
 10
0.0
 20
0.0
 30
0.0
  0
XRECORD
  5
588
102
{ACAD_REACTORS
330
56E
102
}
330
56E
100
AcDbXrecord
 10
0.0
 20
0.0
 30
0.0
  0
XRECORD
  5
585
102
{ACAD_REACTORS
330
56E
102
}
330
56E
100
AcDbXrecord
340
0
  0
XRECORD
  5
586
102
{ACAD_REACTORS
330
56E
102
}
330
56E
100
AcDbXrecord
 70
     0
  0
XRECORD
  5
57A
102
{ACAD_REACTORS
330
56E
102
}
330
56E
100
AcDbXrecord
  1
{FAEB1C32-E019-11D5-929B-00C0DF256EC4}
  0
DICTIONARYVAR
  5
59C
102
{ACAD_REACTORS
330
58F
102
}
330
58F
100
DictionaryVariables
280
     0
  1
1:1
  0
DICTIONARYVAR
  5
596
102
{ACAD_REACTORS
330
58F
102
}
330
58F
100
DictionaryVariables
280
     0
  1
3.500000
  0
DICTIONARYVAR
  5
597
102
{ACAD_REACTORS
330
58F
102
}
330
58F
100
DictionaryVariables
280
     0
  1
acadiso.lin
  0
DICTIONARYVAR
  5
591
102
{ACAD_REACTORS
330
58F
102
}
330
58F
100
DictionaryVariables
280
     0
  1
Standard
  0
DICTIONARYVAR
  5
590
102
{ACAD_REACTORS
330
58F
102
}
330
58F
100
DictionaryVariables
280
     0
  1
Standard
  0
DICTIONARYVAR
  5
598
102
{ACAD_REACTORS
330
58F
102
}
330
58F
100
DictionaryVariables
280
     0
  1
2
  0
DICTIONARYVAR
  5
599
102
{ACAD_REACTORS
330
58F
102
}
330
58F
100
DictionaryVariables
280
     0
  1
1
  0
DICTIONARYVAR
  5
59D
102
{ACAD_REACTORS
330
58F
102
}
330
58F
100
DictionaryVariables
280
     0
  1
1
  0
DICTIONARYVAR
  5
593
102
{ACAD_REACTORS
330
58F
102
}
330
58F
100
DictionaryVariables
280
     0
  1
80.000000
  0
DICTIONARYVAR
  5
592
102
{ACAD_REACTORS
330
58F
102
}
330
58F
100
DictionaryVariables
280
     0
  1
5.000000
  0
DICTIONARY
  5
5A0
330
45
100
AcDbDictionary
280
     1
  3
ACAD_XREC_ROUNDTRIP
360
5A1
  0
DICTIONARY
  5
59E
330
44
100
AcDbDictionary
280
     1
  3
ACAD_XREC_ROUNDTRIP
360
59F
  0
DICTIONARY
  5
5A2
330
46
100
AcDbDictionary
280
     1
  3
ACAD_XREC_ROUNDTRIP
360
5A3
  0
XRECORD
  5
5A1
102
{ACAD_REACTORS
330
5A0
102
}
330
5A0
100
AcDbXrecord
102
MATERIAL
148
0.0
149
0.0
149
0.0
 93
        0
 94
      127
282
     0
 72
     1
 77
     1
171
     1
175
     1
179
     1
273
     0
  0
XRECORD
  5
59F
102
{ACAD_REACTORS
330
59E
102
}
330
59E
100
AcDbXrecord
102
MATERIAL
148
0.0
149
0.0
149
0.0
 93
        0
 94
      127
282
     0
 72
     1
 77
     1
171
     1
175
     1
179
     1
273
     0
  0
XRECORD
  5
5A3
102
{ACAD_REACTORS
330
5A2
102
}
330
5A2
100
AcDbXrecord
102
MATERIAL
148
0.0
149
0.0
149
0.0
 93
        0
 94
      127
282
     0
 72
     1
 77
     1
171
     1
175
     1
179
     1
273
     0
  0
ENDSEC
  0
EOF
